  0
SECTION
  2
HEADER
  9
$ACADVER
  1
AC1027
  9
$ACADMAINTVER
 70
   125
  9
$DWGCODEPAGE
  3
ANSI_932
  9
$LASTSAVEDBY
  1
BJ12826
  9
$REQUIREDVERSIONS
160
                 0
  9
$INSBASE
 10
0.0
 20
0.0
 30
0.0
  9
$EXTMIN
 10
-1314.716068823438
 20
-712.6407198627448
 30
-0.0000000000000053
  9
$EXTMAX
 10
1041.422590327556
 20
2231.040792475189
 30
0.0000000000000099
  9
$LIMMIN
 10
0.0
 20
0.0
  9
$LIMMAX
 10
12.0
 20
9.0
  9
$ORTHOMODE
 70
     1
  9
$REGENMODE
 70
     1
  9
$FILLMODE
 70
     1
  9
$QTEXTMODE
 70
     0
  9
$MIRRTEXT
 70
     0
  9
$LTSCALE
 40
1.0
  9
$ATTMODE
 70
     1
  9
$TEXTSIZE
 40
2.799999952316284
  9
$TRACEWID
 40
0.05
  9
$TEXTSTYLE
  7
STANDARD1
  9
$CLAYER
  8
0
  9
$CELTYPE
  6
CONTINUOUS
  9
$CECOLOR
 62
   256
  9
$CELTSCALE
 40
1.0
  9
$DISPSILH
 70
     0
  9
$DIMSCALE
 40
1.0
  9
$DIMASZ
 40
10.0
  9
$DIMEXO
 40
10.0
  9
$DIMDLI
 40
8.0
  9
$DIMRND
 40
0.0
  9
$DIMDLE
 40
0.0
  9
$DIMEXE
 40
12.5
  9
$DIMTP
 40
0.0
  9
$DIMTM
 40
0.0
  9
$DIMTXT
 40
30.0
  9
$DIMCEN
 40
2.5
  9
$DIMTSZ
 40
0.0
  9
$DIMTOL
 70
     0
  9
$DIMLIM
 70
     0
  9
$DIMTIH
 70
     0
  9
$DIMTOH
 70
     0
  9
$DIMSE1
 70
     0
  9
$DIMSE2
 70
     0
  9
$DIMTAD
 70
     3
  9
$DIMZIN
 70
    12
  9
$DIMBLK
  1

  9
$DIMASO
 70
     1
  9
$DIMSHO
 70
     1
  9
$DIMPOST
  1

  9
$DIMAPOST
  1

  9
$DIMALT
 70
     0
  9
$DIMALTD
 70
     4
  9
$DIMALTF
 40
25.4
  9
$DIMLFAC
 40
1.0
  9
$DIMTOFL
 70
     1
  9
$DIMTVP
 40
0.0
  9
$DIMTIX
 70
     0
  9
$DIMSOXD
 70
     0
  9
$DIMSAH
 70
     1
  9
$DIMBLK1
  1
ORIGIN
  9
$DIMBLK2
  1
ORIGIN
  9
$DIMSTYLE
  2
STANDARD
  9
$DIMCLRD
 70
     0
  9
$DIMCLRE
 70
     0
  9
$DIMCLRT
 70
     0
  9
$DIMTFAC
 40
0.7142857313156129
  9
$DIMGAP
 40
10.0
  9
$DIMJUST
 70
     0
  9
$DIMSD1
 70
     0
  9
$DIMSD2
 70
     0
  9
$DIMTOLJ
 70
     1
  9
$DIMTZIN
 70
     0
  9
$DIMALTZ
 70
     0
  9
$DIMALTTZ
 70
     0
  9
$DIMUPT
 70
     0
  9
$DIMDEC
 70
     4
  9
$DIMTDEC
 70
     4
  9
$DIMALTU
 70
     2
  9
$DIMALTTD
 70
     2
  9
$DIMTXSTY
  7
STANDARD
  9
$DIMAUNIT
 70
     0
  9
$DIMADEC
 70
     0
  9
$DIMALTRND
 40
0.0
  9
$DIMAZIN
 70
     0
  9
$DIMDSEP
 70
    46
  9
$DIMATFIT
 70
     3
  9
$DIMFRAC
 70
     0
  9
$DIMLDRBLK
  1
ORIGIN
  9
$DIMLUNIT
 70
     2
  9
$DIMLWD
 70
    -2
  9
$DIMLWE
 70
    -2
  9
$DIMTMOVE
 70
     0
  9
$DIMFXL
 40
1.0
  9
$DIMFXLON
 70
     0
  9
$DIMJOGANG
 40
0.7853981633974483
  9
$DIMTFILL
 70
     0
  9
$DIMTFILLCLR
 70
     0
  9
$DIMARCSYM
 70
     0
  9
$DIMLTYPE
  6

  9
$DIMLTEX1
  6

  9
$DIMLTEX2
  6

  9
$DIMTXTDIRECTION
 70
     0
  9
$LUNITS
 70
     2
  9
$LUPREC
 70
     3
  9
$SKETCHINC
 40
0.1
  9
$FILLETRAD
 40
0.0
  9
$AUNITS
 70
     0
  9
$AUPREC
 70
     0
  9
$MENU
  1
.
  9
$ELEVATION
 40
0.0
  9
$PELEVATION
 40
0.0
  9
$THICKNESS
 40
0.0
  9
$LIMCHECK
 70
     0
  9
$CHAMFERA
 40
0.0
  9
$CHAMFERB
 40
0.0
  9
$CHAMFERC
 40
0.0
  9
$CHAMFERD
 40
0.0
  9
$SKPOLY
 70
     0
  9
$TDCREATE
 40
2457947.674699074
  9
$TDUCREATE
 40
2457947.299699074
  9
$TDUPDATE
 40
2460300.486840278
  9
$TDUUPDATE
 40
2460300.111840278
  9
$TDINDWG
 40
0.2462381250
  9
$TDUSRTIMER
 40
0.2462381250
  9
$USRTIMER
 70
     1
  9
$ANGBASE
 50
0.0
  9
$ANGDIR
 70
     0
  9
$PDMODE
 70
     0
  9
$PDSIZE
 40
0.0
  9
$PLINEWID
 40
0.0
  9
$SPLFRAME
 70
     0
  9
$SPLINETYPE
 70
     6
  9
$SPLINESEGS
 70
     8
  9
$HANDSEED
  5
F29
  9
$SURFTAB1
 70
     6
  9
$SURFTAB2
 70
     6
  9
$SURFTYPE
 70
     6
  9
$SURFU
 70
     6
  9
$SURFV
 70
     6
  9
$UCSBASE
  2

  9
$UCSNAME
  2

  9
$UCSORG
 10
0.0
 20
0.0
 30
0.0
  9
$UCSXDIR
 10
1.0
 20
0.0
 30
0.0
  9
$UCSYDIR
 10
0.0
 20
1.0
 30
0.0
  9
$UCSORTHOREF
  2

  9
$UCSORTHOVIEW
 70
     0
  9
$UCSORGTOP
 10
0.0
 20
0.0
 30
0.0
  9
$UCSORGBOTTOM
 10
0.0
 20
0.0
 30
0.0
  9
$UCSORGLEFT
 10
0.0
 20
0.0
 30
0.0
  9
$UCSORGRIGHT
 10
0.0
 20
0.0
 30
0.0
  9
$UCSORGFRONT
 10
0.0
 20
0.0
 30
0.0
  9
$UCSORGBACK
 10
0.0
 20
0.0
 30
0.0
  9
$PUCSBASE
  2

  9
$PUCSNAME
  2

  9
$PUCSORG
 10
0.0
 20
0.0
 30
0.0
  9
$PUCSXDIR
 10
1.0
 20
0.0
 30
0.0
  9
$PUCSYDIR
 10
0.0
 20
1.0
 30
0.0
  9
$PUCSORTHOREF
  2

  9
$PUCSORTHOVIEW
 70
     0
  9
$PUCSORGTOP
 10
0.0
 20
0.0
 30
0.0
  9
$PUCSORGBOTTOM
 10
0.0
 20
0.0
 30
0.0
  9
$PUCSORGLEFT
 10
0.0
 20
0.0
 30
0.0
  9
$PUCSORGRIGHT
 10
0.0
 20
0.0
 30
0.0
  9
$PUCSORGFRONT
 10
0.0
 20
0.0
 30
0.0
  9
$PUCSORGBACK
 10
0.0
 20
0.0
 30
0.0
  9
$USERI1
 70
     0
  9
$USERI2
 70
     0
  9
$USERI3
 70
     0
  9
$USERI4
 70
     0
  9
$USERI5
 70
     0
  9
$USERR1
 40
0.0
  9
$USERR2
 40
0.0
  9
$USERR3
 40
0.0
  9
$USERR4
 40
0.0
  9
$USERR5
 40
0.0
  9
$WORLDVIEW
 70
     1
  9
$SHADEDGE
 70
     3
  9
$SHADEDIF
 70
    70
  9
$TILEMODE
 70
     1
  9
$MAXACTVP
 70
    64
  9
$PINSBASE
 10
0.0
 20
0.0
 30
0.0
  9
$PLIMCHECK
 70
     0
  9
$PEXTMIN
 10
1.000000000000000E+20
 20
1.000000000000000E+20
 30
1.000000000000000E+20
  9
$PEXTMAX
 10
-1.000000000000000E+20
 20
-1.000000000000000E+20
 30
-1.000000000000000E+20
  9
$PLIMMIN
 10
0.0
 20
0.0
  9
$PLIMMAX
 10
12.0
 20
9.0
  9
$UNITMODE
 70
     0
  9
$VISRETAIN
 70
     1
  9
$PLINEGEN
 70
     0
  9
$PSLTSCALE
 70
     1
  9
$TREEDEPTH
 70
  3020
  9
$CMLSTYLE
  2
Standard
  9
$CMLJUST
 70
     0
  9
$CMLSCALE
 40
1.0
  9
$PROXYGRAPHICS
 70
     1
  9
$MEASUREMENT
 70
     0
  9
$CELWEIGHT
370
    -1
  9
$ENDCAPS
280
     0
  9
$JOINSTYLE
280
     0
  9
$LWDISPLAY
290
     0
  9
$INSUNITS
 70
     0
  9
$HYPERLINKBASE
  1

  9
$STYLESHEET
  1
MONOCHROME.CTB
  9
$XEDIT
290
     1
  9
$CEPSNTYPE
380
     0
  9
$PSTYLEMODE
290
     1
  9
$FINGERPRINTGUID
  2
{847EDC6F-1DE6-B742-BA23-E946EFD5FCEB}
  9
$VERSIONGUID
  2
{F5D8945F-37EB-BE45-8154-1DA1FD6A26FE}
  9
$EXTNAMES
290
     1
  9
$PSVPSCALE
 40
0.0
  9
$OLESTARTUP
290
     0
  9
$SORTENTS
280
   127
  9
$INDEXCTL
280
     0
  9
$HIDETEXT
280
     0
  9
$XCLIPFRAME
280
     2
  9
$HALOGAP
280
     0
  9
$OBSCOLOR
 70
   257
  9
$OBSLTYPE
280
     0
  9
$INTERSECTIONDISPLAY
280
     0
  9
$INTERSECTIONCOLOR
 70
   257
  9
$DIMASSOC
280
     1
  9
$PROJECTNAME
  1

  9
$CAMERADISPLAY
290
     0
  9
$LENSLENGTH
 40
50.0
  9
$CAMERAHEIGHT
 40
0.0
  9
$STEPSPERSEC
 40
2.0
  9
$STEPSIZE
 40
6.0
  9
$3DDWFPREC
 40
2.0
  9
$PSOLWIDTH
 40
0.25
  9
$PSOLHEIGHT
 40
4.0
  9
$LOFTANG1
 40
1.570796326794896
  9
$LOFTANG2
 40
1.570796326794896
  9
$LOFTMAG1
 40
0.0
  9
$LOFTMAG2
 40
0.0
  9
$LOFTPARAM
 70
     7
  9
$LOFTNORMALS
280
     1
  9
$LATITUDE
 40
37.795
  9
$LONGITUDE
 40
-122.394
  9
$NORTHDIRECTION
 40
0.0
  9
$TIMEZONE
 70
 -8000
  9
$LIGHTGLYPHDISPLAY
280
     1
  9
$TILEMODELIGHTSYNCH
280
     1
  9
$CMATERIAL
347
11
  9
$SOLIDHIST
280
     0
  9
$SHOWHIST
280
     1
  9
$DWFFRAME
280
     2
  9
$DGNFRAME
280
     0
  9
$REALWORLDSCALE
290
     1
  9
$INTERFERECOLOR
 62
     1
  9
$INTERFEREOBJVS
345
33
  9
$INTERFEREVPVS
346
30
  9
$CSHADOW
280
     0
  9
$SHADOWPLANELOCATION
 40
0.0
  0
ENDSEC
  0
SECTION
  2
CLASSES
  0
CLASS
  1
ACDBDICTIONARYWDFLT
  2
AcDbDictionaryWithDefault
  3
ObjectDBX Classes
 90
        0
 91
        1
280
     0
281
     0
  0
CLASS
  1
MATERIAL
  2
AcDbMaterial
  3
ObjectDBX Classes
 90
     1153
 91
        3
280
     0
281
     0
  0
CLASS
  1
VISUALSTYLE
  2
AcDbVisualStyle
  3
ObjectDBX Classes
 90
     4095
 91
       24
280
     0
281
     0
  0
CLASS
  1
SCALE
  2
AcDbScale
  3
ObjectDBX Classes
 90
     1153
 91
       17
280
     0
281
     0
  0
CLASS
  1
TABLESTYLE
  2
AcDbTableStyle
  3
ObjectDBX Classes
 90
     4095
 91
        1
280
     0
281
     0
  0
CLASS
  1
MLEADERSTYLE
  2
AcDbMLeaderStyle
  3
ACDB_MLEADERSTYLE_CLASS
 90
     4095
 91
        1
280
     0
281
     0
  0
CLASS
  1
ACDBSECTIONVIEWSTYLE
  2
AcDbSectionViewStyle
  3
ObjectDBX Classes
 90
     1025
 91
        1
280
     0
281
     0
  0
CLASS
  1
ACDBDETAILVIEWSTYLE
  2
AcDbDetailViewStyle
  3
ObjectDBX Classes
 90
     1025
 91
        1
280
     0
281
     0
  0
CLASS
  1
DICTIONARYVAR
  2
AcDbDictionaryVar
  3
ObjectDBX Classes
 90
        0
 91
        9
280
     0
281
     0
  0
CLASS
  1
CELLSTYLEMAP
  2
AcDbCellStyleMap
  3
ObjectDBX Classes
 90
     1152
 91
        2
280
     0
281
     0
  0
CLASS
  1
SORTENTSTABLE
  2
AcDbSortentsTable
  3
ObjectDBX Classes
 90
        0
 91
        1
280
     0
281
     0
  0
ENDSEC
  0
SECTION
  2
TABLES
  0
TABLE
  2
VPORT
  5
8
330
0
100
AcDbSymbolTable
 70
     1
1001
ACAD
1000
DbSaveVer
1071
       51
  0
VPORT
  5
88
330
8
100
AcDbSymbolTableRecord
100
AcDbViewportTableRecord
  2
*ACTIVE
 70
     0
 10
0.0
 20
0.0
 11
1.0
 21
1.0
 12
-136.6467392479408
 22
759.200036306222
 13
0.0
 23
0.0
 14
1.0
 24
1.0
 15
0.0
 25
0.0
 16
0.0
 26
0.0
 36
1.0
 17
0.0
 27
0.0
 37
0.0
 40
2966.860106923272
 41
2.511169513797634
 42
50.0
 43
0.0
 44
0.0
 50
0.0
 51
0.0
 71
     0
 72
   100
 73
     1
 74
     3
 75
     0
 76
     0
 77
     0
 78
     0
281
     0
 65
     1
110
0.0
120
0.0
130
0.0
111
1.0
121
0.0
131
0.0
112
0.0
122
1.0
132
0.0
 79
     0
146
0.0
348
2F
 60
     3
 61
     5
292
     1
282
     0
141
0.0
142
0.0
 63
   250
421
  3355443
1001
ACAD_NAV_VCDISPLAY
1070
     3
  0
ENDTAB
  0
TABLE
  2
LTYPE
  5
5
330
0
100
AcDbSymbolTable
 70
     6
  0
LTYPE
  5
5A
330
5
100
AcDbSymbolTableRecord
100
AcDbLinetypeTableRecord
  2
ByBlock
 70
     0
  3

 72
    65
 73
     0
 40
0.0
  0
LTYPE
  5
5B
330
5
100
AcDbSymbolTableRecord
100
AcDbLinetypeTableRecord
  2
ByLayer
 70
     0
  3

 72
    65
 73
     0
 40
0.0
  0
LTYPE
  5
5C
330
5
100
AcDbSymbolTableRecord
100
AcDbLinetypeTableRecord
  2
CONTINUOUS
 70
     0
  3
Solid line
 72
    65
 73
     0
 40
0.0
  0
LTYPE
  5
74
330
5
100
AcDbSymbolTableRecord
100
AcDbLinetypeTableRecord
  2
PHANTOM2
 70
     0
  3
___ _ _ ___ _ _ ___ _ _ ___ _ _
 72
    65
 73
     6
 40
1.25
 49
0.625
 74
     0
 49
-0.125
 74
     0
 49
0.125
 74
     0
 49
-0.125
 74
     0
 49
0.125
 74
     0
 49
-0.125
 74
     0
  0
LTYPE
  5
75
330
5
100
AcDbSymbolTableRecord
100
AcDbLinetypeTableRecord
  2
DASHED
 70
     0
  3
-- -- -- -- -- -- -- -- -- -- -- -- -- -- --
 72
    65
 73
     2
 40
0.75
 49
0.5
 74
     0
 49
-0.25
 74
     0
  0
LTYPE
  5
76
330
5
100
AcDbSymbolTableRecord
100
AcDbLinetypeTableRecord
  2
DASHDOT
 70
     0
  3
__ . __ . __ . __ . __ . __ . __ . __ . __ . __
 72
    65
 73
     4
 40
125.0
 49
80.0
 74
     0
 49
-20.0
 74
     0
 49
5.0
 74
     0
 49
-20.0
 74
     0
  0
LTYPE
  5
77
330
5
100
AcDbSymbolTableRecord
100
AcDbLinetypeTableRecord
  2
DIVIDE
 70
     0
  3
__ . . __ . . __ . . __ . . __ . . __ . . __
 72
    65
 73
     6
 40
1.25
 49
0.5
 74
     0
 49
-0.25
 74
     0
 49
0.0
 74
     0
 49
-0.25
 74
     0
 49
0.0
 74
     0
 49
-0.25
 74
     0
  0
LTYPE
  5
453
330
5
100
AcDbSymbolTableRecord
100
AcDbLinetypeTableRecord
  2
PHANTOMX2
 70
     0
  3
Phantom (2x) ____________    ____    ____   _
 72
    65
 73
     6
 40
5.0
 49
2.5
 74
     0
 49
-0.5
 74
     0
 49
0.5
 74
     0
 49
-0.5
 74
     0
 49
0.5
 74
     0
 49
-0.5
 74
     0
  0
ENDTAB
  0
TABLE
  2
LAYER
  5
2
102
{ACAD_XDICTIONARY
360
5C0
102
}
330
0
100
AcDbSymbolTable
 70
    12
  0
LAYER
  5
54
102
{ACAD_XDICTIONARY
360
3BC
102
}
330
2
100
AcDbSymbolTableRecord
100
AcDbLayerTableRecord
  2
0
 70
     0
 62
     3
  6
CONTINUOUS
370
    -3
390
F
347
21
348
0
  0
LAYER
  5
78
102
{ACAD_XDICTIONARY
360
3BE
102
}
330
2
100
AcDbSymbolTableRecord
100
AcDbLayerTableRecord
  2
OUTLINE
 70
     0
 62
     3
  6
CONTINUOUS
370
    -3
390
F
347
21
348
0
  0
LAYER
  5
79
102
{ACAD_XDICTIONARY
360
3C0
102
}
330
2
100
AcDbSymbolTableRecord
100
AcDbLayerTableRecord
  2
DETAIL
 70
     0
 62
     5
  6
CONTINUOUS
370
    -3
390
F
347
21
348
0
  0
LAYER
  5
7A
102
{ACAD_XDICTIONARY
360
3C2
102
}
330
2
100
AcDbSymbolTableRecord
100
AcDbLayerTableRecord
  2
BASIS
 70
     0
 62
     6
  6
CONTINUOUS
370
    -3
390
F
347
21
348
0
  0
LAYER
  5
7B
102
{ACAD_XDICTIONARY
360
3C4
102
}
330
2
100
AcDbSymbolTableRecord
100
AcDbLayerTableRecord
  2
SIZE
 70
     0
 62
    30
  6
CONTINUOUS
370
    -3
390
F
347
21
348
0
  0
LAYER
  5
7C
102
{ACAD_XDICTIONARY
360
3C6
102
}
330
2
100
AcDbSymbolTableRecord
100
AcDbLayerTableRecord
  2
NOTE
 70
     0
 62
     4
  6
CONTINUOUS
370
    -3
390
F
347
21
348
0
  0
LAYER
  5
7D
102
{ACAD_XDICTIONARY
360
3C8
102
}
330
2
100
AcDbSymbolTableRecord
100
AcDbLayerTableRecord
  2
ARRANGE
 70
     0
 62
     1
  6
CONTINUOUS
370
    -3
390
F
347
21
348
0
  0
LAYER
  5
7E
102
{ACAD_XDICTIONARY
360
3CA
102
}
330
2
100
AcDbSymbolTableRecord
100
AcDbLayerTableRecord
  2
FIX
 70
     0
 62
    11
  6
CONTINUOUS
370
    -3
390
F
347
21
348
0
  0
LAYER
  5
7F
102
{ACAD_XDICTIONARY
360
3CC
102
}
330
2
100
AcDbSymbolTableRecord
100
AcDbLayerTableRecord
  2
SERVICESPACE
 70
     0
 62
     2
  6
CONTINUOUS
370
    -3
390
F
347
21
348
0
  0
LAYER
  5
80
102
{ACAD_XDICTIONARY
360
3CE
102
}
330
2
100
AcDbSymbolTableRecord
100
AcDbLayerTableRecord
  2
ETC
 70
     0
 62
    61
  6
CONTINUOUS
370
    -3
390
F
347
21
348
0
  0
LAYER
  5
81
102
{ACAD_XDICTIONARY
360
3D0
102
}
330
2
100
AcDbSymbolTableRecord
100
AcDbLayerTableRecord
  2
SYMBOLLINE
 70
     0
 62
    15
  6
CONTINUOUS
370
    -3
390
F
347
21
348
0
  0
LAYER
  5
82
330
2
100
AcDbSymbolTableRecord
100
AcDbLayerTableRecord
  2
DEFPOINTS
 70
     0
 62
     7
  6
CONTINUOUS
290
     0
370
    -3
390
F
347
21
348
0
  0
ENDTAB
  0
TABLE
  2
STYLE
  5
3
330
0
100
AcDbSymbolTable
 70
     7
  0
STYLE
  5
55
330
3
100
AcDbSymbolTableRecord
100
AcDbTextStyleTableRecord
  2
STANDARD
 70
     0
 40
0.0
 41
1.0
 50
0.0
 71
     0
 42
0.2
  3
txt
  4

  0
STYLE
  5
59
330
3
100
AcDbSymbolTableRecord
100
AcDbTextStyleTableRecord
  2
ANNOTATIVE
 70
     0
 40
0.0
 41
1.0
 50
0.0
 71
     0
 42
0.2
  3
txt
  4

1001
ACADANNOTATIVE
1000
AnnotativeData
1002
{
1070
     1
1070
     1
1002
}
  0
STYLE
  5
73
330
3
100
AcDbSymbolTableRecord
100
AcDbTextStyleTableRecord
  2
STANDARD1
 70
     0
 40
0.0
 41
1.0
 50
0.0
 71
     0
 42
2.799999952316284
  3
MONOTXT
  4
BIGFONT
  0
STYLE
  5
83
330
3
100
AcDbSymbolTableRecord
100
AcDbTextStyleTableRecord
  2
STANDARD2
 70
     4
 40
0.0
 41
1.0
 50
0.0
 71
     0
 42
2.799999952316284
  3
MONOTXT
  4
BIGFONT
  0
STYLE
  5
84
330
3
100
AcDbSymbolTableRecord
100
AcDbTextStyleTableRecord
  2
STANDARD3
 70
     0
 40
0.0
 41
1.0
 50
0.0
 71
     0
 42
2.799999952316284
  3
MONOTXT
  4

  0
STYLE
  5
85
330
3
100
AcDbSymbolTableRecord
100
AcDbTextStyleTableRecord
  2
STANDARD4
 70
     4
 40
0.0
 41
1.0
 50
0.0
 71
     0
 42
2.799999952316284
  3
MONOTXT
  4

  0
STYLE
  5
452
330
3
100
AcDbSymbolTableRecord
100
AcDbTextStyleTableRecord
  2

 70
     1
 40
0.0
 41
1.0
 50
0.0
 71
     0
 42
2.799999952316284
  3
ltypeshp.shx
  4

  0
ENDTAB
  0
TABLE
  2
VIEW
  5
6
330
0
100
AcDbSymbolTable
 70
     0
  0
ENDTAB
  0
TABLE
  2
UCS
  5
7
330
0
100
AcDbSymbolTable
 70
     0
  0
ENDTAB
  0
TABLE
  2
APPID
  5
9
330
0
100
AcDbSymbolTable
 70
     8
  0
APPID
  5
56
330
9
100
AcDbSymbolTableRecord
100
AcDbRegAppTableRecord
  2
ACAD
 70
     0
  0
APPID
  5
5D
330
9
100
AcDbSymbolTableRecord
100
AcDbRegAppTableRecord
  2
ACADANNOTATIVE
 70
     0
  0
APPID
  5
86
330
9
100
AcDbSymbolTableRecord
100
AcDbRegAppTableRecord
  2
ACAD_NAV_VCDISPLAY
 70
     0
  0
APPID
  5
87
330
9
100
AcDbSymbolTableRecord
100
AcDbRegAppTableRecord
  2
ACAD_MLEADERVER
 70
     0
  0
APPID
  5
3B2
330
9
100
AcDbSymbolTableRecord
100
AcDbRegAppTableRecord
  2
ACAD_PSEXT
 70
     0
  0
APPID
  5
4F7
330
9
100
AcDbSymbolTableRecord
100
AcDbRegAppTableRecord
  2
ACAD_EXEMPT_FROM_CAD_STANDARDS
 70
     0
  0
APPID
  5
67A
330
9
100
AcDbSymbolTableRecord
100
AcDbRegAppTableRecord
  2
ACAD_DSTYLE_DIMRADIAL_EXTENSION
 70
     0
  0
APPID
  5
B03
330
9
100
AcDbSymbolTableRecord
100
AcDbRegAppTableRecord
  2
AcadAnnoMonitorAlertIconDisabled
 70
     0
  0
ENDTAB
  0
TABLE
  2
DIMSTYLE
  5
A
330
0
100
AcDbSymbolTable
 70
     2
100
AcDbDimStyleTable
 71
     1
340
57
  0
DIMSTYLE
105
57
102
{ACAD_REACTORS
330
4D0
330
4DD
330
4EA
330
628
330
6DA
330
6E7
330
89F
102
}
330
A
100
AcDbSymbolTableRecord
100
AcDbDimStyleTableRecord
  2
STANDARD
 70
     0
271
     3
272
     3
274
     4
279
     2
284
    12
285
    12
286
    12
340
73
  0
DIMSTYLE
105
58
330
A
100
AcDbSymbolTableRecord
100
AcDbDimStyleTableRecord
  2
ANNOTATIVE
 70
     0
271
     3
272
     3
274
     4
279
     2
284
    12
285
    12
286
    12
340
73
1001
ACADANNOTATIVE
1000
AnnotativeData
1002
{
1070
     1
1070
     1
1002
}
  0
ENDTAB
  0
TABLE
  2
BLOCK_RECORD
  5
1
330
0
100
AcDbSymbolTable
 70
    37
  0
BLOCK_RECORD
  5
6F
102
{ACAD_XDICTIONARY
360
8AD
102
}
330
1
100
AcDbSymbolTableRecord
100
AcDbBlockTableRecord
  2
*Model_Space
340
72
 70
     0
280
     1
281
     0
  0
BLOCK_RECORD
  5
6B
330
1
100
AcDbSymbolTableRecord
100
AcDbBlockTableRecord
  2
*Paper_Space
340
6E
 70
     0
280
     1
281
     0
  0
BLOCK_RECORD
  5
8C
330
1
100
AcDbSymbolTableRecord
100
AcDbBlockTableRecord
  2
*D0
340
0
 70
     0
280
     1
281
     0
  0
BLOCK_RECORD
  5
A0
330
1
100
AcDbSymbolTableRecord
100
AcDbBlockTableRecord
  2
*D1
340
0
 70
     0
280
     1
281
     0
  0
BLOCK_RECORD
  5
B4
330
1
100
AcDbSymbolTableRecord
100
AcDbBlockTableRecord
  2
*D2
340
0
 70
     0
280
     1
281
     0
  0
BLOCK_RECORD
  5
C8
330
1
100
AcDbSymbolTableRecord
100
AcDbBlockTableRecord
  2
*D3
340
0
 70
     0
280
     1
281
     0
  0
BLOCK_RECORD
  5
DC
330
1
100
AcDbSymbolTableRecord
100
AcDbBlockTableRecord
  2
*D4
340
0
 70
     0
280
     1
281
     0
  0
BLOCK_RECORD
  5
F0
330
1
100
AcDbSymbolTableRecord
100
AcDbBlockTableRecord
  2
*D5
340
0
 70
     0
280
     1
281
     0
  0
BLOCK_RECORD
  5
104
330
1
100
AcDbSymbolTableRecord
100
AcDbBlockTableRecord
  2
*D6
340
0
 70
     0
280
     1
281
     0
  0
BLOCK_RECORD
  5
118
330
1
100
AcDbSymbolTableRecord
100
AcDbBlockTableRecord
  2
*D7
340
0
 70
     0
280
     1
281
     0
  0
BLOCK_RECORD
  5
12C
330
1
100
AcDbSymbolTableRecord
100
AcDbBlockTableRecord
  2
*D8
340
0
 70
     0
280
     1
281
     0
  0
BLOCK_RECORD
  5
140
330
1
100
AcDbSymbolTableRecord
100
AcDbBlockTableRecord
  2
*D9
340
0
 70
     0
280
     1
281
     0
  0
BLOCK_RECORD
  5
154
330
1
100
AcDbSymbolTableRecord
100
AcDbBlockTableRecord
  2
_ORIGIN
340
0
102
{BLKREFS
331
F1D
331
F1E
331
1B2
331
1B3
331
E4B
331
E4C
331
E66
331
E67
331
E6F
331
E70
331
E78
331
E79
331
E3E
331
E3F
331
EBA
331
EBB
331
EC3
331
EC4
331
1BE
331
1BF
331
176
331
177
331
1CA
331
1CB
331
15E
331
15F
331
16A
331
16B
331
C71
331
C72
331
C7B
331
C7C
331
C9B
331
C9C
331
8EA
331
8EB
331
905
331
906
331
182
331
183
331
53A
331
53B
331
68F
331
690
331
18E
331
18F
331
C54
331
C55
331
19A
331
19B
331
1A6
331
1A7
102
}
 70
     0
280
     1
281
     0
  0
BLOCK_RECORD
  5
159
330
1
100
AcDbSymbolTableRecord
100
AcDbBlockTableRecord
  2
*D11
340
0
 70
     0
280
     1
281
     0
  0
BLOCK_RECORD
  5
165
330
1
100
AcDbSymbolTableRecord
100
AcDbBlockTableRecord
  2
*D12
340
0
 70
     0
280
     1
281
     0
  0
BLOCK_RECORD
  5
171
330
1
100
AcDbSymbolTableRecord
100
AcDbBlockTableRecord
  2
*D13
340
0
 70
     0
280
     1
281
     0
  0
BLOCK_RECORD
  5
17D
330
1
100
AcDbSymbolTableRecord
100
AcDbBlockTableRecord
  2
*D14
340
0
 70
     0
280
     1
281
     0
  0
BLOCK_RECORD
  5
189
330
1
100
AcDbSymbolTableRecord
100
AcDbBlockTableRecord
  2
*D15
340
0
 70
     0
280
     1
281
     0
  0
BLOCK_RECORD
  5
195
330
1
100
AcDbSymbolTableRecord
100
AcDbBlockTableRecord
  2
*D16
340
0
 70
     0
280
     1
281
     0
  0
BLOCK_RECORD
  5
1A1
330
1
100
AcDbSymbolTableRecord
100
AcDbBlockTableRecord
  2
*D17
340
0
 70
     0
280
     1
281
     0
  0
BLOCK_RECORD
  5
1AD
330
1
100
AcDbSymbolTableRecord
100
AcDbBlockTableRecord
  2
*D18
340
0
 70
     0
280
     1
281
     0
  0
BLOCK_RECORD
  5
1B9
330
1
100
AcDbSymbolTableRecord
100
AcDbBlockTableRecord
  2
*D19
340
0
 70
     0
280
     1
281
     0
  0
BLOCK_RECORD
  5
1C5
330
1
100
AcDbSymbolTableRecord
100
AcDbBlockTableRecord
  2
*D20
340
0
 70
     0
280
     1
281
     0
  0
BLOCK_RECORD
  5
4D1
330
1
100
AcDbSymbolTableRecord
100
AcDbBlockTableRecord
  2
*D21
340
0
 70
     0
280
     1
281
     0
  0
BLOCK_RECORD
  5
4DE
330
1
100
AcDbSymbolTableRecord
100
AcDbBlockTableRecord
  2
*D22
340
0
 70
     0
280
     1
281
     0
  0
BLOCK_RECORD
  5
4EB
330
1
100
AcDbSymbolTableRecord
100
AcDbBlockTableRecord
  2
*D23
340
0
 70
     0
280
     1
281
     0
  0
BLOCK_RECORD
  5
511
330
1
100
AcDbSymbolTableRecord
100
AcDbBlockTableRecord
  2
*D24
340
0
 70
     0
280
     1
281
     0
  0
BLOCK_RECORD
  5
629
330
1
100
AcDbSymbolTableRecord
100
AcDbBlockTableRecord
  2
*D25
340
0
 70
     0
280
     1
281
     0
  0
BLOCK_RECORD
  5
67C
330
1
100
AcDbSymbolTableRecord
100
AcDbBlockTableRecord
  2
*D26
340
0
 70
     0
280
     1
281
     0
  0
BLOCK_RECORD
  5
6DB
330
1
100
AcDbSymbolTableRecord
100
AcDbBlockTableRecord
  2
*D27
340
0
 70
     0
280
     1
281
     0
  0
BLOCK_RECORD
  5
6E8
330
1
100
AcDbSymbolTableRecord
100
AcDbBlockTableRecord
  2
*D28
340
0
 70
     0
280
     1
281
     0
  0
BLOCK_RECORD
  5
8A0
330
1
100
AcDbSymbolTableRecord
100
AcDbBlockTableRecord
  2
*D29
340
0
 70
     0
280
     1
281
     0
  0
BLOCK_RECORD
  5
8BC
330
1
100
AcDbSymbolTableRecord
100
AcDbBlockTableRecord
  2
*D30
340
0
 70
     0
280
     1
281
     0
  0
BLOCK_RECORD
  5
8C9
330
1
100
AcDbSymbolTableRecord
100
AcDbBlockTableRecord
  2
*D31
340
0
 70
     0
280
     1
281
     0
  0
BLOCK_RECORD
  5
C6B
330
1
100
AcDbSymbolTableRecord
100
AcDbBlockTableRecord
  2
*D32
340
0
 70
     0
280
     1
281
     0
  0
BLOCK_RECORD
  5
C94
330
1
100
AcDbSymbolTableRecord
100
AcDbBlockTableRecord
  2
*D33
340
0
 70
     0
280
     1
281
     0
  0
BLOCK_RECORD
  5
E45
330
1
100
AcDbSymbolTableRecord
100
AcDbBlockTableRecord
  2
*D34
340
0
 70
     0
280
     1
281
     0
  0
BLOCK_RECORD
  5
E8C
330
1
100
AcDbSymbolTableRecord
100
AcDbBlockTableRecord
  2
*D35
340
0
 70
     0
280
     1
281
     0
  0
BLOCK_RECORD
  5
E99
330
1
100
AcDbSymbolTableRecord
100
AcDbBlockTableRecord
  2
*D36
340
0
 70
     0
280
     1
281
     0
  0
ENDTAB
  0
ENDSEC
  0
SECTION
  2
BLOCKS
  0
BLOCK
  5
70
330
6F
100
AcDbEntity
  8
0
100
AcDbBlockBegin
  2
*Model_Space
 70
     0
 10
0.0
 20
0.0
 30
0.0
  3
*Model_Space
  1

  0
ENDBLK
  5
71
330
6F
100
AcDbEntity
  8
0
100
AcDbBlockEnd
  0
BLOCK
  5
6C
330
6B
100
AcDbEntity
 67
     1
  8
0
100
AcDbBlockBegin
  2
*Paper_Space
 70
     0
 10
0.0
 20
0.0
 30
0.0
  3
*Paper_Space
  1

  0
ENDBLK
  5
6D
330
6B
100
AcDbEntity
 67
     1
  8
0
100
AcDbBlockEnd
  0
BLOCK
  5
8D
330
8C
100
AcDbEntity
  8
SIZE
100
AcDbBlockBegin
  2
*D0
 70
     1
 10
0.0
 20
0.0
 30
0.0
  3
*D0
  1

  0
TEXT
  5
8E
330
8C
100
AcDbEntity
  8
SIZE
  6
Continuous
100
AcDbText
 10
-2.939999996024511
 20
-299.0000060796738
 30
0.0
 40
2.799999952316284
  1
980
 50
0.000002504478167
 41
0.6999999829701011
  7
STANDARD1
100
AcDbText
  0
LINE
  5
8F
330
8C
100
AcDbEntity
  8
SIZE
  6
Continuous
100
AcDbLine
 10
490.0
 20
-21.0
 30
0.0
 11
490.0
 21
-302.0
 31
0.0
  0
LINE
  5
90
330
8C
100
AcDbEntity
  8
SIZE
  6
Continuous
100
AcDbLine
 10
-490.0
 20
-21.0
 30
0.0
 11
-490.0
 21
-302.0
 31
0.0
  0
LINE
  5
91
330
8C
100
AcDbEntity
  8
SIZE
  6
Continuous
100
AcDbLine
 10
490.0
 20
-300.0
 30
0.0
 11
-490.0
 21
-300.0
 31
0.0
  0
CIRCLE
  5
92
330
8C
100
AcDbEntity
  8
SIZE
  6
Continuous
100
AcDbCircle
 10
490.0
 20
-300.0
 30
0.0
 40
0.5
  0
CIRCLE
  5
93
330
8C
100
AcDbEntity
  8
SIZE
  6
Continuous
100
AcDbCircle
 10
490.0
 20
-300.0
 30
0.0
 40
0.4
  0
CIRCLE
  5
94
330
8C
100
AcDbEntity
  8
SIZE
  6
Continuous
100
AcDbCircle
 10
490.0
 20
-300.0
 30
0.0
 40
0.3
  0
CIRCLE
  5
95
330
8C
100
AcDbEntity
  8
SIZE
  6
Continuous
100
AcDbCircle
 10
490.0
 20
-300.0
 30
0.0
 40
0.2
  0
CIRCLE
  5
96
330
8C
100
AcDbEntity
  8
SIZE
  6
Continuous
100
AcDbCircle
 10
490.0
 20
-300.0
 30
0.0
 40
0.1
  0
CIRCLE
  5
97
330
8C
100
AcDbEntity
  8
SIZE
  6
Continuous
100
AcDbCircle
 10
-490.0
 20
-300.0
 30
0.0
 40
0.5
  0
CIRCLE
  5
98
330
8C
100
AcDbEntity
  8
SIZE
  6
Continuous
100
AcDbCircle
 10
-490.0
 20
-300.0
 30
0.0
 40
0.4
  0
CIRCLE
  5
99
330
8C
100
AcDbEntity
  8
SIZE
  6
Continuous
100
AcDbCircle
 10
-490.0
 20
-300.0
 30
0.0
 40
0.3
  0
CIRCLE
  5
9A
330
8C
100
AcDbEntity
  8
SIZE
  6
Continuous
100
AcDbCircle
 10
-490.0
 20
-300.0
 30
0.0
 40
0.2
  0
CIRCLE
  5
9B
330
8C
100
AcDbEntity
  8
SIZE
  6
Continuous
100
AcDbCircle
 10
-490.0
 20
-300.0
 30
0.0
 40
0.1
  0
POINT
  5
9C
330
8C
100
AcDbEntity
  8
DEFPOINTS
  6
ByBlock
100
AcDbPoint
 10
-490.0
 20
-20.0
 30
0.0
  0
POINT
  5
9D
330
8C
100
AcDbEntity
  8
DEFPOINTS
  6
ByBlock
100
AcDbPoint
 10
490.0
 20
-20.0
 30
0.0
  0
POINT
  5
9E
330
8C
100
AcDbEntity
  8
DEFPOINTS
  6
ByBlock
100
AcDbPoint
 10
490.0
 20
-300.0
 30
0.0
  0
ENDBLK
  5
9F
330
8C
100
AcDbEntity
  8
SIZE
100
AcDbBlockEnd
  0
BLOCK
  5
A1
330
A0
100
AcDbEntity
  8
SIZE
100
AcDbBlockBegin
  2
*D1
 70
     1
 10
0.0
 20
0.0
 30
0.0
  3
*D1
  1

  0
TEXT
  5
A2
330
A0
100
AcDbEntity
  8
SIZE
  6
Continuous
100
AcDbText
 10
-2.939999996024511
 20
-149.0000060796736
 30
0.0
 40
2.799999952316284
  1
500
 50
0.000002504478167
 41
0.6999999829701011
  7
STANDARD1
100
AcDbText
  0
LINE
  5
A3
330
A0
100
AcDbEntity
  8
SIZE
  6
Continuous
100
AcDbLine
 10
250.0
 20
794.0
 30
0.0
 11
250.0
 21
-152.0
 31
0.0
  0
LINE
  5
A4
330
A0
100
AcDbEntity
  8
SIZE
  6
Continuous
100
AcDbLine
 10
-250.0
 20
794.0
 30
0.0
 11
-250.0
 21
-152.0
 31
0.0
  0
LINE
  5
A5
330
A0
100
AcDbEntity
  8
SIZE
  6
Continuous
100
AcDbLine
 10
250.0
 20
-150.0
 30
0.0
 11
-250.0
 21
-150.0
 31
0.0
  0
CIRCLE
  5
A6
330
A0
100
AcDbEntity
  8
SIZE
  6
Continuous
100
AcDbCircle
 10
250.0
 20
-150.0
 30
0.0
 40
0.5
  0
CIRCLE
  5
A7
330
A0
100
AcDbEntity
  8
SIZE
  6
Continuous
100
AcDbCircle
 10
250.0
 20
-150.0
 30
0.0
 40
0.4
  0
CIRCLE
  5
A8
330
A0
100
AcDbEntity
  8
SIZE
  6
Continuous
100
AcDbCircle
 10
250.0
 20
-150.0
 30
0.0
 40
0.3
  0
CIRCLE
  5
A9
330
A0
100
AcDbEntity
  8
SIZE
  6
Continuous
100
AcDbCircle
 10
250.0
 20
-150.0
 30
0.0
 40
0.2
  0
CIRCLE
  5
AA
330
A0
100
AcDbEntity
  8
SIZE
  6
Continuous
100
AcDbCircle
 10
250.0
 20
-150.0
 30
0.0
 40
0.1
  0
CIRCLE
  5
AB
330
A0
100
AcDbEntity
  8
SIZE
  6
Continuous
100
AcDbCircle
 10
-250.0
 20
-150.0
 30
0.0
 40
0.5
  0
CIRCLE
  5
AC
330
A0
100
AcDbEntity
  8
SIZE
  6
Continuous
100
AcDbCircle
 10
-250.0
 20
-150.0
 30
0.0
 40
0.4
  0
CIRCLE
  5
AD
330
A0
100
AcDbEntity
  8
SIZE
  6
Continuous
100
AcDbCircle
 10
-250.0
 20
-150.0
 30
0.0
 40
0.3
  0
CIRCLE
  5
AE
330
A0
100
AcDbEntity
  8
SIZE
  6
Continuous
100
AcDbCircle
 10
-250.0
 20
-150.0
 30
0.0
 40
0.2
  0
CIRCLE
  5
AF
330
A0
100
AcDbEntity
  8
SIZE
  6
Continuous
100
AcDbCircle
 10
-250.0
 20
-150.0
 30
0.0
 40
0.1
  0
POINT
  5
B0
330
A0
100
AcDbEntity
  8
DEFPOINTS
  6
ByBlock
100
AcDbPoint
 10
-250.0
 20
795.0
 30
0.0
  0
POINT
  5
B1
330
A0
100
AcDbEntity
  8
DEFPOINTS
  6
ByBlock
100
AcDbPoint
 10
250.0
 20
795.0
 30
0.0
  0
POINT
  5
B2
330
A0
100
AcDbEntity
  8
DEFPOINTS
  6
ByBlock
100
AcDbPoint
 10
250.0
 20
-150.0
 30
0.0
  0
ENDBLK
  5
B3
330
A0
100
AcDbEntity
  8
SIZE
100
AcDbBlockEnd
  0
BLOCK
  5
B5
330
B4
100
AcDbEntity
  8
SIZE
100
AcDbBlockBegin
  2
*D2
 70
     1
 10
0.0
 20
0.0
 30
0.0
  3
*D2
  1

  0
TEXT
  5
B6
330
B4
100
AcDbEntity
  8
SIZE
  6
Continuous
100
AcDbText
 10
-751.000024437904
 20
417.0599976809857
 30
0.0
 40
2.799999952316284
  1
840
 50
90.00000500895634
 41
0.6999999829701011
  7
STANDARD1
100
AcDbText
  0
LINE
  5
B7
330
B4
100
AcDbEntity
  8
SIZE
  6
Continuous
100
AcDbLine
 10
-511.0
 20
840.0
 30
0.0
 11
-752.0
 21
840.0
 31
0.0
  0
LINE
  5
B8
330
B4
100
AcDbEntity
  8
SIZE
  6
Continuous
100
AcDbLine
 10
-511.0
 20
-0.000000000000002
 30
0.0
 11
-752.0
 21
-0.000000000000002
 31
0.0
  0
LINE
  5
B9
330
B4
100
AcDbEntity
  8
SIZE
  6
Continuous
100
AcDbLine
 10
-750.0
 20
840.0
 30
0.0
 11
-750.0
 21
0.000000000000046
 31
0.0
  0
CIRCLE
  5
BA
330
B4
100
AcDbEntity
  8
SIZE
  6
Continuous
100
AcDbCircle
 10
-750.0
 20
840.0
 30
0.0
 40
0.5
  0
CIRCLE
  5
BB
330
B4
100
AcDbEntity
  8
SIZE
  6
Continuous
100
AcDbCircle
 10
-750.0
 20
840.0
 30
0.0
 40
0.4
  0
CIRCLE
  5
BC
330
B4
100
AcDbEntity
  8
SIZE
  6
Continuous
100
AcDbCircle
 10
-750.0
 20
840.0
 30
0.0
 40
0.3
  0
CIRCLE
  5
BD
330
B4
100
AcDbEntity
  8
SIZE
  6
Continuous
100
AcDbCircle
 10
-750.0
 20
840.0
 30
0.0
 40
0.2
  0
CIRCLE
  5
BE
330
B4
100
AcDbEntity
  8
SIZE
  6
Continuous
100
AcDbCircle
 10
-750.0
 20
840.0
 30
0.0
 40
0.1
  0
CIRCLE
  5
BF
330
B4
100
AcDbEntity
  8
SIZE
  6
Continuous
100
AcDbCircle
 10
-750.0
 20
-0.000000000000002
 30
0.0
 40
0.5
  0
CIRCLE
  5
C0
330
B4
100
AcDbEntity
  8
SIZE
  6
Continuous
100
AcDbCircle
 10
-750.0
 20
-0.000000000000002
 30
0.0
 40
0.4
  0
CIRCLE
  5
C1
330
B4
100
AcDbEntity
  8
SIZE
  6
Continuous
100
AcDbCircle
 10
-750.0
 20
-0.000000000000002
 30
0.0
 40
0.3
  0
CIRCLE
  5
C2
330
B4
100
AcDbEntity
  8
SIZE
  6
Continuous
100
AcDbCircle
 10
-750.0
 20
-0.000000000000002
 30
0.0
 40
0.2
  0
CIRCLE
  5
C3
330
B4
100
AcDbEntity
  8
SIZE
  6
Continuous
100
AcDbCircle
 10
-750.0
 20
-0.000000000000002
 30
0.0
 40
0.1
  0
POINT
  5
C4
330
B4
100
AcDbEntity
  8
DEFPOINTS
  6
ByBlock
100
AcDbPoint
 10
-510.0
 20
-0.000000000000002
 30
0.0
  0
POINT
  5
C5
330
B4
100
AcDbEntity
  8
DEFPOINTS
  6
ByBlock
100
AcDbPoint
 10
-510.0
 20
840.0
 30
0.0
  0
POINT
  5
C6
330
B4
100
AcDbEntity
  8
DEFPOINTS
  6
ByBlock
100
AcDbPoint
 10
-750.0
 20
840.0
 30
0.0
  0
ENDBLK
  5
C7
330
B4
100
AcDbEntity
  8
SIZE
100
AcDbBlockEnd
  0
BLOCK
  5
C9
330
C8
100
AcDbEntity
  8
SIZE
100
AcDbBlockBegin
  2
*D3
 70
     1
 10
0.0
 20
0.0
 30
0.0
  3
*D3
  1

  0
TEXT
  5
CA
330
C8
100
AcDbEntity
  8
SIZE
  6
Continuous
100
AcDbText
 10
-651.0000244379041
 20
404.5599976809857
 30
0.0
 40
2.799999952316284
  1
815
 50
90.00000500895634
 41
0.6999999829701011
  7
STANDARD1
100
AcDbText
  0
LINE
  5
CB
330
C8
100
AcDbEntity
  8
SIZE
  6
Continuous
100
AcDbLine
 10
-278.5
 20
815.0
 30
0.0
 11
-652.0
 21
815.0
 31
0.0
  0
LINE
  5
CC
330
C8
100
AcDbEntity
  8
SIZE
  6
Continuous
100
AcDbLine
 10
-511.0
 20
-0.000000000000002
 30
0.0
 11
-652.0
 21
-0.000000000000002
 31
0.0
  0
LINE
  5
CD
330
C8
100
AcDbEntity
  8
SIZE
  6
Continuous
100
AcDbLine
 10
-650.0
 20
815.0
 30
0.0
 11
-650.0
 21
0.000000000000037
 31
0.0
  0
CIRCLE
  5
CE
330
C8
100
AcDbEntity
  8
SIZE
  6
Continuous
100
AcDbCircle
 10
-650.0
 20
815.0
 30
0.0
 40
0.5
  0
CIRCLE
  5
CF
330
C8
100
AcDbEntity
  8
SIZE
  6
Continuous
100
AcDbCircle
 10
-650.0
 20
815.0
 30
0.0
 40
0.4
  0
CIRCLE
  5
D0
330
C8
100
AcDbEntity
  8
SIZE
  6
Continuous
100
AcDbCircle
 10
-650.0
 20
815.0
 30
0.0
 40
0.3
  0
CIRCLE
  5
D1
330
C8
100
AcDbEntity
  8
SIZE
  6
Continuous
100
AcDbCircle
 10
-650.0
 20
815.0
 30
0.0
 40
0.2
  0
CIRCLE
  5
D2
330
C8
100
AcDbEntity
  8
SIZE
  6
Continuous
100
AcDbCircle
 10
-650.0
 20
815.0
 30
0.0
 40
0.1
  0
CIRCLE
  5
D3
330
C8
100
AcDbEntity
  8
SIZE
  6
Continuous
100
AcDbCircle
 10
-650.0
 20
-0.000000000000002
 30
0.0
 40
0.5
  0
CIRCLE
  5
D4
330
C8
100
AcDbEntity
  8
SIZE
  6
Continuous
100
AcDbCircle
 10
-650.0
 20
-0.000000000000002
 30
0.0
 40
0.4
  0
CIRCLE
  5
D5
330
C8
100
AcDbEntity
  8
SIZE
  6
Continuous
100
AcDbCircle
 10
-650.0
 20
-0.000000000000002
 30
0.0
 40
0.3
  0
CIRCLE
  5
D6
330
C8
100
AcDbEntity
  8
SIZE
  6
Continuous
100
AcDbCircle
 10
-650.0
 20
-0.000000000000002
 30
0.0
 40
0.2
  0
CIRCLE
  5
D7
330
C8
100
AcDbEntity
  8
SIZE
  6
Continuous
100
AcDbCircle
 10
-650.0
 20
-0.000000000000002
 30
0.0
 40
0.1
  0
POINT
  5
D8
330
C8
100
AcDbEntity
  8
DEFPOINTS
  6
ByBlock
100
AcDbPoint
 10
-510.0
 20
-0.000000000000002
 30
0.0
  0
POINT
  5
D9
330
C8
100
AcDbEntity
  8
DEFPOINTS
  6
ByBlock
100
AcDbPoint
 10
-277.5
 20
815.0
 30
0.0
  0
POINT
  5
DA
330
C8
100
AcDbEntity
  8
DEFPOINTS
  6
ByBlock
100
AcDbPoint
 10
-650.0
 20
815.0
 30
0.0
  0
ENDBLK
  5
DB
330
C8
100
AcDbEntity
  8
SIZE
100
AcDbBlockEnd
  0
BLOCK
  5
DD
330
DC
100
AcDbEntity
  8
SIZE
100
AcDbBlockBegin
  2
*D4
 70
     1
 10
0.0
 20
0.0
 30
0.0
  3
*D4
  1

  0
TEXT
  5
DE
330
DC
100
AcDbEntity
  8
SIZE
  6
Continuous
100
AcDbText
 10
798.9999755620956
 20
971.0800172122356
 30
0.0
 40
2.799999952316284
  1
1950
 50
90.00000500895634
 41
0.6999999829701011
  7
STANDARD1
100
AcDbText
  0
LINE
  5
DF
330
DC
100
AcDbEntity
  8
SIZE
  6
Continuous
100
AcDbLine
 10
551.0
 20
1950.0
 30
0.0
 11
802.0
 21
1950.0
 31
0.0
  0
LINE
  5
E0
330
DC
100
AcDbEntity
  8
SIZE
  6
Continuous
100
AcDbLine
 10
515.7999877929689
 20
0.0
 30
0.0
 11
802.0
 21
0.0
 31
0.0
  0
LINE
  5
E1
330
DC
100
AcDbEntity
  8
SIZE
  6
Continuous
100
AcDbLine
 10
800.0
 20
1950.0
 30
0.0
 11
800.0
 21
0.0
 31
0.0
  0
CIRCLE
  5
E2
330
DC
100
AcDbEntity
  8
SIZE
  6
Continuous
100
AcDbCircle
 10
800.0
 20
1950.0
 30
0.0
 40
0.5
  0
CIRCLE
  5
E3
330
DC
100
AcDbEntity
  8
SIZE
  6
Continuous
100
AcDbCircle
 10
800.0
 20
1950.0
 30
0.0
 40
0.4
  0
CIRCLE
  5
E4
330
DC
100
AcDbEntity
  8
SIZE
  6
Continuous
100
AcDbCircle
 10
800.0
 20
1950.0
 30
0.0
 40
0.3
  0
CIRCLE
  5
E5
330
DC
100
AcDbEntity
  8
SIZE
  6
Continuous
100
AcDbCircle
 10
800.0
 20
1950.0
 30
0.0
 40
0.2
  0
CIRCLE
  5
E6
330
DC
100
AcDbEntity
  8
SIZE
  6
Continuous
100
AcDbCircle
 10
800.0
 20
1950.0
 30
0.0
 40
0.1
  0
CIRCLE
  5
E7
330
DC
100
AcDbEntity
  8
SIZE
  6
Continuous
100
AcDbCircle
 10
800.0
 20
0.0
 30
0.0
 40
0.5
  0
CIRCLE
  5
E8
330
DC
100
AcDbEntity
  8
SIZE
  6
Continuous
100
AcDbCircle
 10
800.0
 20
0.0
 30
0.0
 40
0.4
  0
CIRCLE
  5
E9
330
DC
100
AcDbEntity
  8
SIZE
  6
Continuous
100
AcDbCircle
 10
800.0
 20
0.0
 30
0.0
 40
0.3
  0
CIRCLE
  5
EA
330
DC
100
AcDbEntity
  8
SIZE
  6
Continuous
100
AcDbCircle
 10
800.0
 20
0.0
 30
0.0
 40
0.2
  0
CIRCLE
  5
EB
330
DC
100
AcDbEntity
  8
SIZE
  6
Continuous
100
AcDbCircle
 10
800.0
 20
0.0
 30
0.0
 40
0.1
  0
POINT
  5
EC
330
DC
100
AcDbEntity
  8
DEFPOINTS
  6
ByBlock
100
AcDbPoint
 10
514.7999877929688
 20
0.0
 30
0.0
  0
POINT
  5
ED
330
DC
100
AcDbEntity
  8
DEFPOINTS
  6
ByBlock
100
AcDbPoint
 10
550.0
 20
1950.0
 30
0.0
  0
POINT
  5
EE
330
DC
100
AcDbEntity
  8
DEFPOINTS
  6
ByBlock
100
AcDbPoint
 10
800.0
 20
1950.0
 30
0.0
  0
ENDBLK
  5
EF
330
DC
100
AcDbEntity
  8
SIZE
100
AcDbBlockEnd
  0
BLOCK
  5
F1
330
F0
100
AcDbEntity
  8
SIZE
100
AcDbBlockBegin
  2
*D5
 70
     1
 10
0.0
 20
0.0
 30
0.0
  3
*D5
  1

  0
TEXT
  5
F2
330
F0
100
AcDbEntity
  8
SIZE
  6
Continuous
100
AcDbText
 10
-3.919999776679421
 20
2100.999902367592
 30
0.0
 40
2.799999952316284
  1
1100
 50
0.000002504478167
 41
0.6999999829701011
  7
STANDARD1
100
AcDbText
  0
LINE
  5
F3
330
F0
100
AcDbEntity
  8
SIZE
  6
Continuous
100
AcDbLine
 10
-550.0
 20
1951.0
 30
0.0
 11
-550.0
 21
2102.0
 31
0.0
  0
LINE
  5
F4
330
F0
100
AcDbEntity
  8
SIZE
  6
Continuous
100
AcDbLine
 10
550.0
 20
1951.0
 30
0.0
 11
550.0
 21
2102.0
 31
0.0
  0
LINE
  5
F5
330
F0
100
AcDbEntity
  8
SIZE
  6
Continuous
100
AcDbLine
 10
-550.0
 20
2100.0
 30
0.0
 11
550.0
 21
2100.0
 31
0.0
  0
CIRCLE
  5
F6
330
F0
100
AcDbEntity
  8
SIZE
  6
Continuous
100
AcDbCircle
 10
-550.0
 20
2100.0
 30
0.0
 40
0.5
  0
CIRCLE
  5
F7
330
F0
100
AcDbEntity
  8
SIZE
  6
Continuous
100
AcDbCircle
 10
-550.0
 20
2100.0
 30
0.0
 40
0.4
  0
CIRCLE
  5
F8
330
F0
100
AcDbEntity
  8
SIZE
  6
Continuous
100
AcDbCircle
 10
-550.0
 20
2100.0
 30
0.0
 40
0.3
  0
CIRCLE
  5
F9
330
F0
100
AcDbEntity
  8
SIZE
  6
Continuous
100
AcDbCircle
 10
-550.0
 20
2100.0
 30
0.0
 40
0.2
  0
CIRCLE
  5
FA
330
F0
100
AcDbEntity
  8
SIZE
  6
Continuous
100
AcDbCircle
 10
-550.0
 20
2100.0
 30
0.0
 40
0.1
  0
CIRCLE
  5
FB
330
F0
100
AcDbEntity
  8
SIZE
  6
Continuous
100
AcDbCircle
 10
550.0
 20
2100.0
 30
0.0
 40
0.5
  0
CIRCLE
  5
FC
330
F0
100
AcDbEntity
  8
SIZE
  6
Continuous
100
AcDbCircle
 10
550.0
 20
2100.0
 30
0.0
 40
0.4
  0
CIRCLE
  5
FD
330
F0
100
AcDbEntity
  8
SIZE
  6
Continuous
100
AcDbCircle
 10
550.0
 20
2100.0
 30
0.0
 40
0.3
  0
CIRCLE
  5
FE
330
F0
100
AcDbEntity
  8
SIZE
  6
Continuous
100
AcDbCircle
 10
550.0
 20
2100.0
 30
0.0
 40
0.2
  0
CIRCLE
  5
FF
330
F0
100
AcDbEntity
  8
SIZE
  6
Continuous
100
AcDbCircle
 10
550.0
 20
2100.0
 30
0.0
 40
0.1
  0
POINT
  5
100
330
F0
100
AcDbEntity
  8
DEFPOINTS
  6
ByBlock
100
AcDbPoint
 10
550.0
 20
1950.0
 30
0.0
  0
POINT
  5
101
330
F0
100
AcDbEntity
  8
DEFPOINTS
  6
ByBlock
100
AcDbPoint
 10
-550.0
 20
1950.0
 30
0.0
  0
POINT
  5
102
330
F0
100
AcDbEntity
  8
DEFPOINTS
  6
ByBlock
100
AcDbPoint
 10
-550.0
 20
2100.0
 30
0.0
  0
ENDBLK
  5
103
330
F0
100
AcDbEntity
  8
SIZE
100
AcDbBlockEnd
  0
BLOCK
  5
105
330
104
100
AcDbEntity
  8
SIZE
100
AcDbBlockBegin
  2
*D6
 70
     1
 10
0.0
 20
0.0
 30
0.0
  3
*D6
  1

  0
TEXT
  5
106
330
104
100
AcDbEntity
  8
SIZE
  6
Continuous
100
AcDbText
 10
-3.919999776679421
 20
-698.9999755620956
 30
0.0
 40
2.799999952316284
  1
1105
 50
0.000002504478167
 41
0.6999999829701011
  7
STANDARD1
100
AcDbText
  0
LINE
  5
107
330
104
100
AcDbEntity
  8
SIZE
  6
Continuous
100
AcDbLine
 10
552.5
 20
869.2822875976562
 30
0.0
 11
552.5
 21
-702.0
 31
0.0
  0
LINE
  5
108
330
104
100
AcDbEntity
  8
SIZE
  6
Continuous
100
AcDbLine
 10
-552.5
 20
869.2822875976562
 30
0.0
 11
-552.5
 21
-702.0
 31
0.0
  0
LINE
  5
109
330
104
100
AcDbEntity
  8
SIZE
  6
Continuous
100
AcDbLine
 10
552.5
 20
-700.0
 30
0.0
 11
-552.5
 21
-700.0
 31
0.0
  0
CIRCLE
  5
10A
330
104
100
AcDbEntity
  8
SIZE
  6
Continuous
100
AcDbCircle
 10
552.5
 20
-700.0
 30
0.0
 40
0.5
  0
CIRCLE
  5
10B
330
104
100
AcDbEntity
  8
SIZE
  6
Continuous
100
AcDbCircle
 10
552.5
 20
-700.0
 30
0.0
 40
0.4
  0
CIRCLE
  5
10C
330
104
100
AcDbEntity
  8
SIZE
  6
Continuous
100
AcDbCircle
 10
552.5
 20
-700.0
 30
0.0
 40
0.3
  0
CIRCLE
  5
10D
330
104
100
AcDbEntity
  8
SIZE
  6
Continuous
100
AcDbCircle
 10
552.5
 20
-700.0
 30
0.0
 40
0.2
  0
CIRCLE
  5
10E
330
104
100
AcDbEntity
  8
SIZE
  6
Continuous
100
AcDbCircle
 10
552.5
 20
-700.0
 30
0.0
 40
0.1
  0
CIRCLE
  5
10F
330
104
100
AcDbEntity
  8
SIZE
  6
Continuous
100
AcDbCircle
 10
-552.5
 20
-700.0
 30
0.0
 40
0.5
  0
CIRCLE
  5
110
330
104
100
AcDbEntity
  8
SIZE
  6
Continuous
100
AcDbCircle
 10
-552.5
 20
-700.0
 30
0.0
 40
0.4
  0
CIRCLE
  5
111
330
104
100
AcDbEntity
  8
SIZE
  6
Continuous
100
AcDbCircle
 10
-552.5
 20
-700.0
 30
0.0
 40
0.3
  0
CIRCLE
  5
112
330
104
100
AcDbEntity
  8
SIZE
  6
Continuous
100
AcDbCircle
 10
-552.5
 20
-700.0
 30
0.0
 40
0.2
  0
CIRCLE
  5
113
330
104
100
AcDbEntity
  8
SIZE
  6
Continuous
100
AcDbCircle
 10
-552.5
 20
-700.0
 30
0.0
 40
0.1
  0
POINT
  5
114
330
104
100
AcDbEntity
  8
DEFPOINTS
  6
ByBlock
100
AcDbPoint
 10
-552.5
 20
870.2822875976561
 30
0.0
  0
POINT
  5
115
330
104
100
AcDbEntity
  8
DEFPOINTS
  6
ByBlock
100
AcDbPoint
 10
552.5
 20
870.2822875976561
 30
0.0
  0
POINT
  5
116
330
104
100
AcDbEntity
  8
DEFPOINTS
  6
ByBlock
100
AcDbPoint
 10
552.5
 20
-700.0
 30
0.0
  0
ENDBLK
  5
117
330
104
100
AcDbEntity
  8
SIZE
100
AcDbBlockEnd
  0
BLOCK
  5
119
330
118
100
AcDbEntity
  8
SIZE
100
AcDbBlockBegin
  2
*D7
 70
     1
 10
0.0
 20
0.0
 30
0.0
  3
*D7
  1

  0
TEXT
  5
11A
330
118
100
AcDbEntity
  8
SIZE
  6
Continuous
100
AcDbText
 10
-3.919999776679421
 20
-548.9999755620957
 30
0.0
 40
2.799999952316284
  1
1069
 50
0.000002504478167
 41
0.6999999829701011
  7
STANDARD1
100
AcDbText
  0
LINE
  5
11B
330
118
100
AcDbEntity
  8
SIZE
  6
Continuous
100
AcDbLine
 10
534.4999999999998
 20
864.2822875976561
 30
0.0
 11
534.4999999999998
 21
-552.0
 31
0.0
  0
LINE
  5
11C
330
118
100
AcDbEntity
  8
SIZE
  6
Continuous
100
AcDbLine
 10
-534.4999999999998
 20
864.2822875976561
 30
0.0
 11
-534.4999999999998
 21
-552.0
 31
0.0
  0
LINE
  5
11D
330
118
100
AcDbEntity
  8
SIZE
  6
Continuous
100
AcDbLine
 10
534.4999999999998
 20
-550.0
 30
0.0
 11
-534.4999999999998
 21
-550.0
 31
0.0
  0
CIRCLE
  5
11E
330
118
100
AcDbEntity
  8
SIZE
  6
Continuous
100
AcDbCircle
 10
534.4999999999998
 20
-550.0
 30
0.0
 40
0.5
  0
CIRCLE
  5
11F
330
118
100
AcDbEntity
  8
SIZE
  6
Continuous
100
AcDbCircle
 10
534.4999999999998
 20
-550.0
 30
0.0
 40
0.4
  0
CIRCLE
  5
120
330
118
100
AcDbEntity
  8
SIZE
  6
Continuous
100
AcDbCircle
 10
534.4999999999998
 20
-550.0
 30
0.0
 40
0.3
  0
CIRCLE
  5
121
330
118
100
AcDbEntity
  8
SIZE
  6
Continuous
100
AcDbCircle
 10
534.4999999999998
 20
-550.0
 30
0.0
 40
0.2
  0
CIRCLE
  5
122
330
118
100
AcDbEntity
  8
SIZE
  6
Continuous
100
AcDbCircle
 10
534.4999999999998
 20
-550.0
 30
0.0
 40
0.1
  0
CIRCLE
  5
123
330
118
100
AcDbEntity
  8
SIZE
  6
Continuous
100
AcDbCircle
 10
-534.4999999999998
 20
-550.0
 30
0.0
 40
0.5
  0
CIRCLE
  5
124
330
118
100
AcDbEntity
  8
SIZE
  6
Continuous
100
AcDbCircle
 10
-534.4999999999998
 20
-550.0
 30
0.0
 40
0.4
  0
CIRCLE
  5
125
330
118
100
AcDbEntity
  8
SIZE
  6
Continuous
100
AcDbCircle
 10
-534.4999999999998
 20
-550.0
 30
0.0
 40
0.3
  0
CIRCLE
  5
126
330
118
100
AcDbEntity
  8
SIZE
  6
Continuous
100
AcDbCircle
 10
-534.4999999999998
 20
-550.0
 30
0.0
 40
0.2
  0
CIRCLE
  5
127
330
118
100
AcDbEntity
  8
SIZE
  6
Continuous
100
AcDbCircle
 10
-534.4999999999998
 20
-550.0
 30
0.0
 40
0.1
  0
POINT
  5
128
330
118
100
AcDbEntity
  8
DEFPOINTS
  6
ByBlock
100
AcDbPoint
 10
-534.4999999999998
 20
865.2822875976561
 30
0.0
  0
POINT
  5
129
330
118
100
AcDbEntity
  8
DEFPOINTS
  6
ByBlock
100
AcDbPoint
 10
534.4999999999998
 20
865.2822875976561
 30
0.0
  0
POINT
  5
12A
330
118
100
AcDbEntity
  8
DEFPOINTS
  6
ByBlock
100
AcDbPoint
 10
534.4999999999998
 20
-550.0
 30
0.0
  0
ENDBLK
  5
12B
330
118
100
AcDbEntity
  8
SIZE
100
AcDbBlockEnd
  0
BLOCK
  5
12D
330
12C
100
AcDbEntity
  8
SIZE
100
AcDbBlockBegin
  2
*D8
 70
     1
 10
0.0
 20
0.0
 30
0.0
  3
*D8
  1

  0
TEXT
  5
12E
330
12C
100
AcDbEntity
  8
SIZE
  6
Continuous
100
AcDbText
 10
-3.919999776679421
 20
-449.0000060796737
 30
0.0
 40
2.799999952316284
  1
1025
 50
0.000002504478167
 41
0.6999999829701011
  7
STANDARD1
100
AcDbText
  0
LINE
  5
12F
330
12C
100
AcDbEntity
  8
SIZE
  6
Continuous
100
AcDbLine
 10
512.5
 20
9.282318115234376
 30
0.0
 11
512.5
 21
-452.0
 31
0.0
  0
LINE
  5
130
330
12C
100
AcDbEntity
  8
SIZE
  6
Continuous
100
AcDbLine
 10
-512.5
 20
9.282318115234376
 30
0.0
 11
-512.5
 21
-452.0
 31
0.0
  0
LINE
  5
131
330
12C
100
AcDbEntity
  8
SIZE
  6
Continuous
100
AcDbLine
 10
512.5
 20
-450.0
 30
0.0
 11
-512.5
 21
-450.0
 31
0.0
  0
CIRCLE
  5
132
330
12C
100
AcDbEntity
  8
SIZE
  6
Continuous
100
AcDbCircle
 10
512.5
 20
-450.0
 30
0.0
 40
0.5
  0
CIRCLE
  5
133
330
12C
100
AcDbEntity
  8
SIZE
  6
Continuous
100
AcDbCircle
 10
512.5
 20
-450.0
 30
0.0
 40
0.4
  0
CIRCLE
  5
134
330
12C
100
AcDbEntity
  8
SIZE
  6
Continuous
100
AcDbCircle
 10
512.5
 20
-450.0
 30
0.0
 40
0.3
  0
CIRCLE
  5
135
330
12C
100
AcDbEntity
  8
SIZE
  6
Continuous
100
AcDbCircle
 10
512.5
 20
-450.0
 30
0.0
 40
0.2
  0
CIRCLE
  5
136
330
12C
100
AcDbEntity
  8
SIZE
  6
Continuous
100
AcDbCircle
 10
512.5
 20
-450.0
 30
0.0
 40
0.1
  0
CIRCLE
  5
137
330
12C
100
AcDbEntity
  8
SIZE
  6
Continuous
100
AcDbCircle
 10
-512.5
 20
-450.0
 30
0.0
 40
0.5
  0
CIRCLE
  5
138
330
12C
100
AcDbEntity
  8
SIZE
  6
Continuous
100
AcDbCircle
 10
-512.5
 20
-450.0
 30
0.0
 40
0.4
  0
CIRCLE
  5
139
330
12C
100
AcDbEntity
  8
SIZE
  6
Continuous
100
AcDbCircle
 10
-512.5
 20
-450.0
 30
0.0
 40
0.3
  0
CIRCLE
  5
13A
330
12C
100
AcDbEntity
  8
SIZE
  6
Continuous
100
AcDbCircle
 10
-512.5
 20
-450.0
 30
0.0
 40
0.2
  0
CIRCLE
  5
13B
330
12C
100
AcDbEntity
  8
SIZE
  6
Continuous
100
AcDbCircle
 10
-512.5
 20
-450.0
 30
0.0
 40
0.1
  0
POINT
  5
13C
330
12C
100
AcDbEntity
  8
DEFPOINTS
  6
ByBlock
100
AcDbPoint
 10
-512.5
 20
10.28231811523437
 30
0.0
  0
POINT
  5
13D
330
12C
100
AcDbEntity
  8
DEFPOINTS
  6
ByBlock
100
AcDbPoint
 10
512.5
 20
10.28231811523437
 30
0.0
  0
POINT
  5
13E
330
12C
100
AcDbEntity
  8
DEFPOINTS
  6
ByBlock
100
AcDbPoint
 10
512.5
 20
-450.0
 30
0.0
  0
ENDBLK
  5
13F
330
12C
100
AcDbEntity
  8
SIZE
100
AcDbBlockEnd
  0
BLOCK
  5
141
330
140
100
AcDbEntity
  8
SIZE
100
AcDbBlockBegin
  2
*D9
 70
     1
 10
0.0
 20
0.0
 30
0.0
  3
*D9
  1

  0
TEXT
  5
142
330
140
100
AcDbEntity
  8
SIZE
  6
Continuous
100
AcDbText
 10
698.9999755620956
 20
477.3423157962198
 30
0.0
 40
2.799999952316284
  1
960
 50
90.00000500895634
 41
0.6999999829701011
  7
STANDARD1
100
AcDbText
  0
LINE
  5
143
330
140
100
AcDbEntity
  8
SIZE
  6
Continuous
100
AcDbLine
 10
513.4999999999998
 20
960.2822875976562
 30
0.0
 11
702.0
 21
960.2822875976562
 31
0.0
  0
LINE
  5
144
330
140
100
AcDbEntity
  8
SIZE
  6
Continuous
100
AcDbLine
 10
515.7999877929689
 20
0.282317787408829
 30
0.0
 11
702.0
 21
0.282317787408829
 31
0.0
  0
LINE
  5
145
330
140
100
AcDbEntity
  8
SIZE
  6
Continuous
100
AcDbLine
 10
700.0
 20
960.2822875976562
 30
0.0
 11
700.0
 21
0.282317787408829
 31
0.0
  0
CIRCLE
  5
146
330
140
100
AcDbEntity
  8
SIZE
  6
Continuous
100
AcDbCircle
 10
700.0
 20
960.2822875976562
 30
0.0
 40
0.5
  0
CIRCLE
  5
147
330
140
100
AcDbEntity
  8
SIZE
  6
Continuous
100
AcDbCircle
 10
700.0
 20
960.2822875976562
 30
0.0
 40
0.4
  0
CIRCLE
  5
148
330
140
100
AcDbEntity
  8
SIZE
  6
Continuous
100
AcDbCircle
 10
700.0
 20
960.2822875976562
 30
0.0
 40
0.3
  0
CIRCLE
  5
149
330
140
100
AcDbEntity
  8
SIZE
  6
Continuous
100
AcDbCircle
 10
700.0
 20
960.2822875976562
 30
0.0
 40
0.2
  0
CIRCLE
  5
14A
330
140
100
AcDbEntity
  8
SIZE
  6
Continuous
100
AcDbCircle
 10
700.0
 20
960.2822875976562
 30
0.0
 40
0.1
  0
CIRCLE
  5
14B
330
140
100
AcDbEntity
  8
SIZE
  6
Continuous
100
AcDbCircle
 10
700.0
 20
0.282317787408829
 30
0.0
 40
0.5
  0
CIRCLE
  5
14C
330
140
100
AcDbEntity
  8
SIZE
  6
Continuous
100
AcDbCircle
 10
700.0
 20
0.282317787408829
 30
0.0
 40
0.4
  0
CIRCLE
  5
14D
330
140
100
AcDbEntity
  8
SIZE
  6
Continuous
100
AcDbCircle
 10
700.0
 20
0.282317787408829
 30
0.0
 40
0.3
  0
CIRCLE
  5
14E
330
140
100
AcDbEntity
  8
SIZE
  6
Continuous
100
AcDbCircle
 10
700.0
 20
0.282317787408829
 30
0.0
 40
0.2
  0
CIRCLE
  5
14F
330
140
100
AcDbEntity
  8
SIZE
  6
Continuous
100
AcDbCircle
 10
700.0
 20
0.282317787408829
 30
0.0
 40
0.1
  0
POINT
  5
150
330
140
100
AcDbEntity
  8
DEFPOINTS
  6
ByBlock
100
AcDbPoint
 10
514.7999877929688
 20
0.282317787408829
 30
0.0
  0
POINT
  5
151
330
140
100
AcDbEntity
  8
DEFPOINTS
  6
ByBlock
100
AcDbPoint
 10
512.5
 20
960.2822875976562
 30
0.0
  0
POINT
  5
152
330
140
100
AcDbEntity
  8
DEFPOINTS
  6
ByBlock
100
AcDbPoint
 10
700.0
 20
960.2822875976562
 30
0.0
  0
ENDBLK
  5
153
330
140
100
AcDbEntity
  8
SIZE
100
AcDbBlockEnd
  0
BLOCK
  5
155
330
154
100
AcDbEntity
  8
0
100
AcDbBlockBegin
  2
_ORIGIN
 70
     0
 10
0.0
 20
0.0
 30
0.0
  3
_ORIGIN
  1

  0
CIRCLE
  5
156
330
154
100
AcDbEntity
  8
0
  6
ByBlock
 62
     0
100
AcDbCircle
 10
0.0
 20
0.0
 30
0.0
 40
0.5
  0
LINE
  5
157
330
154
100
AcDbEntity
  8
0
  6
ByBlock
 62
     0
100
AcDbLine
 10
0.0
 20
0.0
 30
0.0
 11
-1.0
 21
0.0
 31
0.0
  0
ENDBLK
  5
158
330
154
100
AcDbEntity
  8
0
100
AcDbBlockEnd
  0
BLOCK
  5
15A
330
159
100
AcDbEntity
  8
0
100
AcDbBlockBegin
  2
*D11
 70
     1
 10
0.0
 20
0.0
 30
0.0
  3
*D11
  1

  0
LINE
  5
15B
330
159
100
AcDbEntity
  8
SIZE
 62
     0
100
AcDbLine
 10
524.7999877929689
 20
0.2823177874088262
 30
0.0
 11
710.1000000238417
 21
0.2823177874087737
 31
0.0
  0
LINE
  5
15C
330
159
100
AcDbEntity
  8
SIZE
 62
     0
100
AcDbLine
 10
522.5
 20
960.2822875976562
 30
0.0
 11
710.1000000238419
 21
960.2822875976562
 31
0.0
  0
LINE
  5
15D
330
159
100
AcDbEntity
  8
SIZE
 62
     0
100
AcDbLine
 10
697.6000000238417
 20
10.28231778740877
 30
0.0
 11
697.6000000238419
 21
950.2822875976558
 31
0.0
  0
INSERT
  5
15E
330
159
100
AcDbEntity
  8
SIZE
 62
     0
100
AcDbBlockReference
  2
_ORIGIN
 10
697.6000000238417
 20
0.2823177874087772
 30
0.0
 41
10.0
 42
10.0
 43
10.0
 50
270.0
  0
INSERT
  5
15F
330
159
100
AcDbEntity
  8
SIZE
 62
     0
100
AcDbBlockReference
  2
_ORIGIN
 10
697.6000000238419
 20
960.2822875976562
 30
0.0
 41
10.0
 42
10.0
 43
10.0
 50
90.0
  0
TEXT
  5
160
330
159
100
AcDbEntity
  8
SIZE
 62
     0
100
AcDbText
 10
687.6000000238417
 20
442.7823179928425
 30
0.0
 40
30.0
  1
960
 50
90.0
 72
     1
 11
687.6000000238417
 21
480.2823179928425
 31
0.0
100
AcDbText
  0
POINT
  5
161
330
159
100
AcDbEntity
  8
DEFPOINTS
 62
     0
100
AcDbPoint
 10
514.7999877929688
 20
0.282317787408829
 30
0.0
  0
POINT
  5
162
330
159
100
AcDbEntity
  8
DEFPOINTS
 62
     0
100
AcDbPoint
 10
512.5
 20
960.2822875976562
 30
0.0
  0
POINT
  5
163
330
159
100
AcDbEntity
  8
DEFPOINTS
 62
     0
100
AcDbPoint
 10
697.6000000238419
 20
960.2822875976562
 30
0.0
  0
ENDBLK
  5
164
330
159
100
AcDbEntity
  8
0
100
AcDbBlockEnd
  0
BLOCK
  5
166
330
165
100
AcDbEntity
  8
0
100
AcDbBlockBegin
  2
*D12
 70
     1
 10
0.0
 20
0.0
 30
0.0
  3
*D12
  1

  0
LINE
  5
167
330
165
100
AcDbEntity
  8
SIZE
 62
     0
100
AcDbLine
 10
-512.5
 20
0.2823181152343768
 30
0.0
 11
-512.5
 21
-460.1000000238418
 31
0.0
  0
LINE
  5
168
330
165
100
AcDbEntity
  8
SIZE
 62
     0
100
AcDbLine
 10
512.5
 20
0.2823181152343768
 30
0.0
 11
512.5
 21
-460.1000000238418
 31
0.0
  0
LINE
  5
169
330
165
100
AcDbEntity
  8
SIZE
 62
     0
100
AcDbLine
 10
-502.5
 20
-447.6000000238418
 30
0.0
 11
502.5
 21
-447.6000000238418
 31
0.0
  0
INSERT
  5
16A
330
165
100
AcDbEntity
  8
SIZE
 62
     0
100
AcDbBlockReference
  2
_ORIGIN
 10
-512.5
 20
-447.6000000238418
 30
0.0
 41
10.0
 42
10.0
 43
10.0
 50
180.0
  0
INSERT
  5
16B
330
165
100
AcDbEntity
  8
SIZE
 62
     0
100
AcDbBlockReference
  2
_ORIGIN
 10
512.5
 20
-447.6000000238418
 30
0.0
 41
10.0
 42
10.0
 43
10.0
  0
TEXT
  5
16C
330
165
100
AcDbEntity
  8
SIZE
 62
     0
100
AcDbText
 10
-47.50000010490738
 20
-437.6000000238418
 30
0.0
 40
30.0
  1
1025
 72
     1
 11
-0.0000001049073859
 21
-437.6000000238418
 31
0.0
100
AcDbText
  0
POINT
  5
16D
330
165
100
AcDbEntity
  8
DEFPOINTS
 62
     0
100
AcDbPoint
 10
-512.5
 20
10.28231811523437
 30
0.0
  0
POINT
  5
16E
330
165
100
AcDbEntity
  8
DEFPOINTS
 62
     0
100
AcDbPoint
 10
512.5
 20
10.28231811523437
 30
0.0
  0
POINT
  5
16F
330
165
100
AcDbEntity
  8
DEFPOINTS
 62
     0
100
AcDbPoint
 10
512.5
 20
-447.6000000238418
 30
0.0
  0
ENDBLK
  5
170
330
165
100
AcDbEntity
  8
0
100
AcDbBlockEnd
  0
BLOCK
  5
172
330
171
100
AcDbEntity
  8
0
100
AcDbBlockBegin
  2
*D13
 70
     1
 10
0.0
 20
0.0
 30
0.0
  3
*D13
  1

  0
LINE
  5
173
330
171
100
AcDbEntity
  8
SIZE
 62
     0
100
AcDbLine
 10
-534.4999999999998
 20
855.2822875976561
 30
0.0
 11
-534.5000000000001
 21
-560.1000000238417
 31
0.0
  0
LINE
  5
174
330
171
100
AcDbEntity
  8
SIZE
 62
     0
100
AcDbLine
 10
534.4999999999998
 20
855.2822875976561
 30
0.0
 11
534.4999999999997
 21
-560.1000000238417
 31
0.0
  0
LINE
  5
175
330
171
100
AcDbEntity
  8
SIZE
 62
     0
100
AcDbLine
 10
-524.5
 20
-547.6000000238417
 30
0.0
 11
524.4999999999999
 21
-547.6000000238417
 31
0.0
  0
INSERT
  5
176
330
171
100
AcDbEntity
  8
SIZE
 62
     0
100
AcDbBlockReference
  2
_ORIGIN
 10
-534.5000000000001
 20
-547.6000000238417
 30
0.0
 41
10.0
 42
10.0
 43
10.0
 50
180.0
  0
INSERT
  5
177
330
171
100
AcDbEntity
  8
SIZE
 62
     0
100
AcDbBlockReference
  2
_ORIGIN
 10
534.4999999999997
 20
-547.6000000238417
 30
0.0
 41
10.0
 42
10.0
 43
10.0
  0
TEXT
  5
178
330
171
100
AcDbEntity
  8
SIZE
 62
     0
100
AcDbText
 10
-47.50000010490744
 20
-537.6000000238417
 30
0.0
 40
30.0
  1
1069
 72
     1
 11
-0.0000001049074427
 21
-537.6000000238417
 31
0.0
100
AcDbText
  0
POINT
  5
179
330
171
100
AcDbEntity
  8
DEFPOINTS
 62
     0
100
AcDbPoint
 10
-534.4999999999998
 20
865.2822875976561
 30
0.0
  0
POINT
  5
17A
330
171
100
AcDbEntity
  8
DEFPOINTS
 62
     0
100
AcDbPoint
 10
534.4999999999998
 20
865.2822875976561
 30
0.0
  0
POINT
  5
17B
330
171
100
AcDbEntity
  8
DEFPOINTS
 62
     0
100
AcDbPoint
 10
534.4999999999997
 20
-547.6000000238417
 30
0.0
  0
ENDBLK
  5
17C
330
171
100
AcDbEntity
  8
0
100
AcDbBlockEnd
  0
BLOCK
  5
17E
330
17D
100
AcDbEntity
  8
0
100
AcDbBlockBegin
  2
*D14
 70
     1
 10
0.0
 20
0.0
 30
0.0
  3
*D14
  1

  0
LINE
  5
17F
330
17D
100
AcDbEntity
  8
SIZE
 62
     0
100
AcDbLine
 10
-552.5
 20
860.2822875976562
 30
0.0
 11
-552.5000000000001
 21
-710.1000000238417
 31
0.0
  0
LINE
  5
180
330
17D
100
AcDbEntity
  8
SIZE
 62
     0
100
AcDbLine
 10
552.5
 20
860.2822875976562
 30
0.0
 11
552.4999999999996
 21
-710.1000000238417
 31
0.0
  0
LINE
  5
181
330
17D
100
AcDbEntity
  8
SIZE
 62
     0
100
AcDbLine
 10
-542.5000000000001
 20
-697.6000000238417
 30
0.0
 11
542.4999999999998
 21
-697.6000000238417
 31
0.0
  0
INSERT
  5
182
330
17D
100
AcDbEntity
  8
SIZE
 62
     0
100
AcDbBlockReference
  2
_ORIGIN
 10
-552.5000000000001
 20
-697.6000000238417
 30
0.0
 41
10.0
 42
10.0
 43
10.0
 50
180.0
  0
INSERT
  5
183
330
17D
100
AcDbEntity
  8
SIZE
 62
     0
100
AcDbBlockReference
  2
_ORIGIN
 10
552.4999999999996
 20
-697.6000000238417
 30
0.0
 41
10.0
 42
10.0
 43
10.0
  0
TEXT
  5
184
330
17D
100
AcDbEntity
  8
SIZE
 62
     0
100
AcDbText
 10
-42.50000010490744
 20
-687.6000000238417
 30
0.0
 40
30.0
  1
1105
 72
     1
 11
-0.0000001049074427
 21
-687.6000000238417
 31
0.0
100
AcDbText
  0
POINT
  5
185
330
17D
100
AcDbEntity
  8
DEFPOINTS
 62
     0
100
AcDbPoint
 10
-552.5
 20
870.2822875976561
 30
0.0
  0
POINT
  5
186
330
17D
100
AcDbEntity
  8
DEFPOINTS
 62
     0
100
AcDbPoint
 10
552.5
 20
870.2822875976561
 30
0.0
  0
POINT
  5
187
330
17D
100
AcDbEntity
  8
DEFPOINTS
 62
     0
100
AcDbPoint
 10
552.4999999999996
 20
-697.6000000238417
 30
0.0
  0
ENDBLK
  5
188
330
17D
100
AcDbEntity
  8
0
100
AcDbBlockEnd
  0
BLOCK
  5
18A
330
189
100
AcDbEntity
  8
0
100
AcDbBlockBegin
  2
*D15
 70
     1
 10
0.0
 20
0.0
 30
0.0
  3
*D15
  1

  0
LINE
  5
18B
330
189
100
AcDbEntity
  8
SIZE
 62
     0
100
AcDbLine
 10
550.0
 20
1960.0
 30
0.0
 11
550.0
 21
2114.899999976158
 31
0.0
  0
LINE
  5
18C
330
189
100
AcDbEntity
  8
SIZE
 62
     0
100
AcDbLine
 10
-550.0
 20
1960.0
 30
0.0
 11
-550.0
 21
2114.899999976158
 31
0.0
  0
LINE
  5
18D
330
189
100
AcDbEntity
  8
SIZE
 62
     0
100
AcDbLine
 10
540.0
 20
2102.399999976158
 30
0.0
 11
-540.0
 21
2102.399999976158
 31
0.0
  0
INSERT
  5
18E
330
189
100
AcDbEntity
  8
SIZE
 62
     0
100
AcDbBlockReference
  2
_ORIGIN
 10
550.0
 20
2102.399999976158
 30
0.0
 41
10.0
 42
10.0
 43
10.0
  0
INSERT
  5
18F
330
189
100
AcDbEntity
  8
SIZE
 62
     0
100
AcDbBlockReference
  2
_ORIGIN
 10
-550.0
 20
2102.399999976158
 30
0.0
 41
10.0
 42
10.0
 43
10.0
 50
180.0
  0
TEXT
  5
190
330
189
100
AcDbEntity
  8
SIZE
 62
     0
100
AcDbText
 10
-40.00000010490755
 20
2112.399999976158
 30
0.0
 40
30.0
  1
1100
 72
     1
 11
-0.0000001049075564
 21
2112.399999976158
 31
0.0
100
AcDbText
  0
POINT
  5
191
330
189
100
AcDbEntity
  8
DEFPOINTS
 62
     0
100
AcDbPoint
 10
550.0
 20
1950.0
 30
0.0
  0
POINT
  5
192
330
189
100
AcDbEntity
  8
DEFPOINTS
 62
     0
100
AcDbPoint
 10
-550.0
 20
1950.0
 30
0.0
  0
POINT
  5
193
330
189
100
AcDbEntity
  8
DEFPOINTS
 62
     0
100
AcDbPoint
 10
-550.0
 20
2102.399999976158
 30
0.0
  0
ENDBLK
  5
194
330
189
100
AcDbEntity
  8
0
100
AcDbBlockEnd
  0
BLOCK
  5
196
330
195
100
AcDbEntity
  8
0
100
AcDbBlockBegin
  2
*D16
 70
     1
 10
0.0
 20
0.0
 30
0.0
  3
*D16
  1

  0
LINE
  5
197
330
195
100
AcDbEntity
  8
SIZE
 62
     0
100
AcDbLine
 10
524.7999877929689
 20
-0.0000000000000028
 30
0.0
 11
810.1000000238414
 21
-0.0000000000000837
 31
0.0
  0
LINE
  5
198
330
195
100
AcDbEntity
  8
SIZE
 62
     0
100
AcDbLine
 10
560.0
 20
1950.0
 30
0.0
 11
810.1000000238421
 21
1950.0
 31
0.0
  0
LINE
  5
199
330
195
100
AcDbEntity
  8
SIZE
 62
     0
100
AcDbLine
 10
797.6000000238415
 20
9.99999999999992
 30
0.0
 11
797.6000000238419
 21
1940.0
 31
0.0
  0
INSERT
  5
19A
330
195
100
AcDbEntity
  8
SIZE
 62
     0
100
AcDbBlockReference
  2
_ORIGIN
 10
797.6000000238415
 20
-0.0000000000000801
 30
0.0
 41
10.0
 42
10.0
 43
10.0
 50
270.0
  0
INSERT
  5
19B
330
195
100
AcDbEntity
  8
SIZE
 62
     0
100
AcDbBlockReference
  2
_ORIGIN
 10
797.6000000238419
 20
1950.0
 30
0.0
 41
10.0
 42
10.0
 43
10.0
 50
90.0
  0
TEXT
  5
19C
330
195
100
AcDbEntity
  8
SIZE
 62
     0
100
AcDbText
 10
787.6000000238417
 20
927.4999998776079
 30
0.0
 40
30.0
  1
1950
 50
90.0
 72
     1
 11
787.6000000238417
 21
974.9999998776081
 31
0.0
100
AcDbText
  0
POINT
  5
19D
330
195
100
AcDbEntity
  8
DEFPOINTS
 62
     0
100
AcDbPoint
 10
514.7999877929688
 20
0.0
 30
0.0
  0
POINT
  5
19E
330
195
100
AcDbEntity
  8
DEFPOINTS
 62
     0
100
AcDbPoint
 10
550.0
 20
1950.0
 30
0.0
  0
POINT
  5
19F
330
195
100
AcDbEntity
  8
DEFPOINTS
 62
     0
100
AcDbPoint
 10
797.6000000238419
 20
1950.0
 30
0.0
  0
ENDBLK
  5
1A0
330
195
100
AcDbEntity
  8
0
100
AcDbBlockEnd
  0
BLOCK
  5
1A2
330
1A1
100
AcDbEntity
  8
0
100
AcDbBlockBegin
  2
*D17
 70
     1
 10
0.0
 20
0.0
 30
0.0
  3
*D17
  1

  0
LINE
  5
1A3
330
1A1
100
AcDbEntity
  8
SIZE
 62
     0
100
AcDbLine
 10
-520.0
 20
0.0000000000000008
 30
0.0
 11
-664.8999999761581
 21
0.0000000000000419
 31
0.0
  0
LINE
  5
1A4
330
1A1
100
AcDbEntity
  8
SIZE
 62
     0
100
AcDbLine
 10
-287.5
 20
815.0
 30
0.0
 11
-664.8999999761578
 21
815.0
 31
0.0
  0
LINE
  5
1A5
330
1A1
100
AcDbEntity
  8
SIZE
 62
     0
100
AcDbLine
 10
-652.3999999761581
 20
10.00000000000004
 30
0.0
 11
-652.3999999761578
 21
805.0
 31
0.0
  0
INSERT
  5
1A6
330
1A1
100
AcDbEntity
  8
SIZE
 62
     0
100
AcDbBlockReference
  2
_ORIGIN
 10
-652.3999999761581
 20
0.0000000000000383
 30
0.0
 41
10.0
 42
10.0
 43
10.0
 50
270.0
  0
INSERT
  5
1A7
330
1A1
100
AcDbEntity
  8
SIZE
 62
     0
100
AcDbBlockReference
  2
_ORIGIN
 10
-652.3999999761578
 20
815.0
 30
0.0
 41
10.0
 42
10.0
 43
10.0
 50
90.0
  0
TEXT
  5
1A8
330
1A1
100
AcDbEntity
  8
SIZE
 62
     0
100
AcDbText
 10
-662.3999999761581
 20
372.499999877608
 30
0.0
 40
30.0
  1
815
 50
90.0
 72
     1
 11
-662.3999999761581
 21
407.499999877608
 31
0.0
100
AcDbText
  0
POINT
  5
1A9
330
1A1
100
AcDbEntity
  8
DEFPOINTS
 62
     0
100
AcDbPoint
 10
-510.0
 20
-0.000000000000002
 30
0.0
  0
POINT
  5
1AA
330
1A1
100
AcDbEntity
  8
DEFPOINTS
 62
     0
100
AcDbPoint
 10
-277.5
 20
815.0
 30
0.0
  0
POINT
  5
1AB
330
1A1
100
AcDbEntity
  8
DEFPOINTS
 62
     0
100
AcDbPoint
 10
-652.3999999761578
 20
815.0
 30
0.0
  0
ENDBLK
  5
1AC
330
1A1
100
AcDbEntity
  8
0
100
AcDbBlockEnd
  0
BLOCK
  5
1AE
330
1AD
100
AcDbEntity
  8
0
100
AcDbBlockBegin
  2
*D18
 70
     1
 10
0.0
 20
0.0
 30
0.0
  3
*D18
  1

  0
LINE
  5
1AF
330
1AD
100
AcDbEntity
  8
SIZE
 62
     0
100
AcDbLine
 10
-520.0
 20
0.0000000000000008
 30
0.0
 11
-764.8999999761581
 21
0.0000000000000702
 31
0.0
  0
LINE
  5
1B0
330
1AD
100
AcDbEntity
  8
SIZE
 62
     0
100
AcDbLine
 10
-520.0
 20
840.0
 30
0.0
 11
-764.8999999761577
 21
840.0
 31
0.0
  0
LINE
  5
1B1
330
1AD
100
AcDbEntity
  8
SIZE
 62
     0
100
AcDbLine
 10
-752.3999999761581
 20
10.00000000000006
 30
0.0
 11
-752.3999999761577
 21
830.0
 31
0.0
  0
INSERT
  5
1B2
330
1AD
100
AcDbEntity
  8
SIZE
 62
     0
100
AcDbBlockReference
  2
_ORIGIN
 10
-752.3999999761581
 20
0.0000000000000667
 30
0.0
 41
10.0
 42
10.0
 43
10.0
 50
270.0
  0
INSERT
  5
1B3
330
1AD
100
AcDbEntity
  8
SIZE
 62
     0
100
AcDbBlockReference
  2
_ORIGIN
 10
-752.3999999761577
 20
840.0
 30
0.0
 41
10.0
 42
10.0
 43
10.0
 50
90.0
  0
TEXT
  5
1B4
330
1AD
100
AcDbEntity
  8
SIZE
 62
     0
100
AcDbText
 10
-762.3999999761581
 20
382.499999877608
 30
0.0
 40
30.0
  1
840
 50
90.0
 72
     1
 11
-762.3999999761581
 21
419.999999877608
 31
0.0
100
AcDbText
  0
POINT
  5
1B5
330
1AD
100
AcDbEntity
  8
DEFPOINTS
 62
     0
100
AcDbPoint
 10
-510.0
 20
-0.000000000000002
 30
0.0
  0
POINT
  5
1B6
330
1AD
100
AcDbEntity
  8
DEFPOINTS
 62
     0
100
AcDbPoint
 10
-510.0
 20
840.0
 30
0.0
  0
POINT
  5
1B7
330
1AD
100
AcDbEntity
  8
DEFPOINTS
 62
     0
100
AcDbPoint
 10
-752.3999999761577
 20
840.0
 30
0.0
  0
ENDBLK
  5
1B8
330
1AD
100
AcDbEntity
  8
0
100
AcDbBlockEnd
  0
BLOCK
  5
1BA
330
1B9
100
AcDbEntity
  8
0
100
AcDbBlockBegin
  2
*D19
 70
     1
 10
0.0
 20
0.0
 30
0.0
  3
*D19
  1

  0
LINE
  5
1BB
330
1B9
100
AcDbEntity
  8
SIZE
 62
     0
100
AcDbLine
 10
-250.0
 20
785.0
 30
0.0
 11
-250.0
 21
-160.1000000238418
 31
0.0
  0
LINE
  5
1BC
330
1B9
100
AcDbEntity
  8
SIZE
 62
     0
100
AcDbLine
 10
250.0
 20
785.0
 30
0.0
 11
250.0
 21
-160.1000000238418
 31
0.0
  0
LINE
  5
1BD
330
1B9
100
AcDbEntity
  8
SIZE
 62
     0
100
AcDbLine
 10
-240.0000000000001
 20
-147.6000000238419
 30
0.0
 11
239.9999999999999
 21
-147.6000000238419
 31
0.0
  0
INSERT
  5
1BE
330
1B9
100
AcDbEntity
  8
SIZE
 62
     0
100
AcDbBlockReference
  2
_ORIGIN
 10
-250.0
 20
-147.6000000238419
 30
0.0
 41
10.0
 42
10.0
 43
10.0
 50
180.0
  0
INSERT
  5
1BF
330
1B9
100
AcDbEntity
  8
SIZE
 62
     0
100
AcDbBlockReference
  2
_ORIGIN
 10
250.0
 20
-147.6000000238419
 30
0.0
 41
10.0
 42
10.0
 43
10.0
  0
TEXT
  5
1C0
330
1B9
100
AcDbEntity
  8
SIZE
 62
     0
100
AcDbText
 10
-35.00000010490744
 20
-137.6000000238419
 30
0.0
 40
30.0
  1
500
 72
     1
 11
-0.0000001049074427
 21
-137.6000000238419
 31
0.0
100
AcDbText
  0
POINT
  5
1C1
330
1B9
100
AcDbEntity
  8
DEFPOINTS
 62
     0
100
AcDbPoint
 10
-250.0
 20
795.0
 30
0.0
  0
POINT
  5
1C2
330
1B9
100
AcDbEntity
  8
DEFPOINTS
 62
     0
100
AcDbPoint
 10
250.0
 20
795.0
 30
0.0
  0
POINT
  5
1C3
330
1B9
100
AcDbEntity
  8
DEFPOINTS
 62
     0
100
AcDbPoint
 10
250.0
 20
-147.6000000238419
 30
0.0
  0
ENDBLK
  5
1C4
330
1B9
100
AcDbEntity
  8
0
100
AcDbBlockEnd
  0
BLOCK
  5
1C6
330
1C5
100
AcDbEntity
  8
0
100
AcDbBlockBegin
  2
*D20
 70
     1
 10
0.0
 20
0.0
 30
0.0
  3
*D20
  1

  0
LINE
  5
1C7
330
1C5
100
AcDbEntity
  8
SIZE
 62
     0
100
AcDbLine
 10
-490.0
 20
-30.0
 30
0.0
 11
-490.0
 21
-310.1000000238418
 31
0.0
  0
LINE
  5
1C8
330
1C5
100
AcDbEntity
  8
SIZE
 62
     0
100
AcDbLine
 10
490.0
 20
-30.0
 30
0.0
 11
490.0
 21
-310.1000000238418
 31
0.0
  0
LINE
  5
1C9
330
1C5
100
AcDbEntity
  8
SIZE
 62
     0
100
AcDbLine
 10
-480.0
 20
-297.6000000238418
 30
0.0
 11
480.0
 21
-297.6000000238418
 31
0.0
  0
INSERT
  5
1CA
330
1C5
100
AcDbEntity
  8
SIZE
 62
     0
100
AcDbBlockReference
  2
_ORIGIN
 10
-490.0
 20
-297.6000000238418
 30
0.0
 41
10.0
 42
10.0
 43
10.0
 50
180.0
  0
INSERT
  5
1CB
330
1C5
100
AcDbEntity
  8
SIZE
 62
     0
100
AcDbBlockReference
  2
_ORIGIN
 10
490.0
 20
-297.6000000238418
 30
0.0
 41
10.0
 42
10.0
 43
10.0
  0
TEXT
  5
1CC
330
1C5
100
AcDbEntity
  8
SIZE
 62
     0
100
AcDbText
 10
-37.50000010490739
 20
-287.6000000238418
 30
0.0
 40
30.0
  1
980
 72
     1
 11
-0.0000001049073859
 21
-287.6000000238418
 31
0.0
100
AcDbText
  0
POINT
  5
1CD
330
1C5
100
AcDbEntity
  8
DEFPOINTS
 62
     0
100
AcDbPoint
 10
-490.0
 20
-20.0
 30
0.0
  0
POINT
  5
1CE
330
1C5
100
AcDbEntity
  8
DEFPOINTS
 62
     0
100
AcDbPoint
 10
490.0
 20
-20.0
 30
0.0
  0
POINT
  5
1CF
330
1C5
100
AcDbEntity
  8
DEFPOINTS
 62
     0
100
AcDbPoint
 10
490.0
 20
-297.6000000238418
 30
0.0
  0
ENDBLK
  5
1D0
330
1C5
100
AcDbEntity
  8
0
100
AcDbBlockEnd
  0
BLOCK
  5
4D2
330
4D1
100
AcDbEntity
  8
0
100
AcDbBlockBegin
  2
*D21
 70
     1
 10
0.0
 20
0.0
 30
0.0
  3
*D21
  1

  0
LINE
  5
F1A
330
4D1
100
AcDbEntity
  8
SIZE
  6
Continuous
 62
     0
440
 16777216
370
    -2
100
AcDbLine
 10
-512.4630593185043
 20
-0.1999999999999318
 30
0.0
 11
-512.4630593185043
 21
-464.1730688805019
 31
0.0
  0
LINE
  5
F1B
330
4D1
100
AcDbEntity
  8
SIZE
  6
Continuous
 62
     0
440
 16777216
370
    -2
100
AcDbLine
 10
512.5369406814952
 20
-0.1999999999998678
 30
0.0
 11
512.5369406814952
 21
-464.1730688805019
 31
0.0
  0
LINE
  5
F1C
330
4D1
100
AcDbEntity
  8
SIZE
  6
Continuous
 62
     0
440
 16777216
370
    -2
100
AcDbLine
 10
-502.4630593185043
 20
-451.6730688805019
 30
0.0
 11
502.5369406814952
 21
-451.6730688805019
 31
0.0
  0
INSERT
  5
F1D
330
4D1
100
AcDbEntity
  8
SIZE
  6
Continuous
 62
     0
440
 16777216
370
    -2
100
AcDbBlockReference
  2
_ORIGIN
 10
-512.4630593185043
 20
-451.6730688805019
 30
0.0
 41
10.0
 42
10.0
 43
10.0
 50
180.0
  0
INSERT
  5
F1E
330
4D1
100
AcDbEntity
  8
SIZE
  6
Continuous
 62
     0
440
 16777216
370
    -2
100
AcDbBlockReference
  2
_ORIGIN
 10
512.5369406814952
 20
-451.6730688805019
 30
0.0
 41
10.0
 42
10.0
 43
10.0
  0
MTEXT
  5
F1F
330
4D1
100
AcDbEntity
  8
SIZE
  6
Continuous
 62
     0
440
 16777216
100
AcDbMText
 10
0.0369406814954816
 20
-426.6730688805019
 30
0.0
 40
30.0
 41
0.0
 46
0.0
 71
     5
 72
     1
  1
\A1;1025
 73
     1
 44
1.0
  0
POINT
  5
F20
330
4D1
100
AcDbEntity
  8
DEFPOINTS
  6
Continuous
 62
     0
440
 16777216
100
AcDbPoint
 10
-512.4630593185043
 20
9.800000000000068
 30
0.0
  0
POINT
  5
F21
330
4D1
100
AcDbEntity
  8
DEFPOINTS
  6
Continuous
 62
     0
440
 16777216
100
AcDbPoint
 10
512.5369406814952
 20
9.800000000000132
 30
0.0
  0
POINT
  5
F22
330
4D1
100
AcDbEntity
  8
DEFPOINTS
  6
Continuous
 62
     0
440
 16777216
100
AcDbPoint
 10
512.5369406814952
 20
-451.6730688805019
 30
0.0
  0
ENDBLK
  5
4D3
330
4D1
100
AcDbEntity
  8
0
100
AcDbBlockEnd
  0
BLOCK
  5
4DF
330
4DE
100
AcDbEntity
  8
0
100
AcDbBlockBegin
  2
*D22
 70
     1
 10
0.0
 20
0.0
 30
0.0
  3
*D22
  1

  0
LINE
  5
E63
330
4DE
100
AcDbEntity
  8
SIZE
  6
Continuous
 62
     0
440
 16777216
370
    -2
100
AcDbLine
 10
-534.4630593185041
 20
855.0000000000004
 30
0.0
 11
-534.4630593185041
 21
-562.6196579449041
 31
0.0
  0
LINE
  5
E64
330
4DE
100
AcDbEntity
  8
SIZE
  6
Continuous
 62
     0
440
 16777216
370
    -2
100
AcDbLine
 10
534.536940681495
 20
854.9999999999981
 30
0.0
 11
534.5369406814949
 21
-562.6196579449041
 31
0.0
  0
LINE
  5
E65
330
4DE
100
AcDbEntity
  8
SIZE
  6
Continuous
 62
     0
440
 16777216
370
    -2
100
AcDbLine
 10
-524.4630593185042
 20
-550.1196579449041
 30
0.0
 11
524.5369406814949
 21
-550.1196579449041
 31
0.0
  0
INSERT
  5
E66
330
4DE
100
AcDbEntity
  8
SIZE
  6
Continuous
 62
     0
440
 16777216
370
    -2
100
AcDbBlockReference
  2
_ORIGIN
 10
-534.4630593185041
 20
-550.1196579449041
 30
0.0
 41
10.0
 42
10.0
 43
10.0
 50
180.0
  0
INSERT
  5
E67
330
4DE
100
AcDbEntity
  8
SIZE
  6
Continuous
 62
     0
440
 16777216
370
    -2
100
AcDbBlockReference
  2
_ORIGIN
 10
534.5369406814949
 20
-550.1196579449041
 30
0.0
 41
10.0
 42
10.0
 43
10.0
  0
MTEXT
  5
E68
330
4DE
100
AcDbEntity
  8
SIZE
  6
Continuous
 62
     0
440
 16777216
100
AcDbMText
 10
0.0369406814953679
 20
-525.1196579449041
 30
0.0
 40
30.0
 41
0.0
 46
0.0
 71
     5
 72
     1
  1
\A1;1069
 73
     1
 44
1.0
  0
POINT
  5
E69
330
4DE
100
AcDbEntity
  8
DEFPOINTS
  6
Continuous
 62
     0
440
 16777216
100
AcDbPoint
 10
-534.4630593185041
 20
865.0000000000003
 30
0.0
  0
POINT
  5
E6A
330
4DE
100
AcDbEntity
  8
DEFPOINTS
  6
Continuous
 62
     0
440
 16777216
100
AcDbPoint
 10
534.536940681495
 20
864.999999999998
 30
0.0
  0
POINT
  5
E6B
330
4DE
100
AcDbEntity
  8
DEFPOINTS
  6
Continuous
 62
     0
440
 16777216
100
AcDbPoint
 10
534.5369406814949
 20
-550.1196579449041
 30
0.0
  0
ENDBLK
  5
4E0
330
4DE
100
AcDbEntity
  8
0
100
AcDbBlockEnd
  0
BLOCK
  5
4EC
330
4EB
100
AcDbEntity
  8
0
100
AcDbBlockBegin
  2
*D23
 70
     1
 10
0.0
 20
0.0
 30
0.0
  3
*D23
  1

  0
LINE
  5
E6C
330
4EB
100
AcDbEntity
  8
SIZE
  6
Continuous
 62
     0
440
 16777216
370
    -2
100
AcDbLine
 10
-552.4630593185045
 20
859.717682207944
 30
0.0
 11
-552.4630593185046
 21
-712.5509427177345
 31
0.0
  0
LINE
  5
E6D
330
4EB
100
AcDbEntity
  8
SIZE
  6
Continuous
 62
     0
440
 16777216
370
    -2
100
AcDbLine
 10
552.5369406814949
 20
859.7176822079417
 30
0.0
 11
552.5369406814948
 21
-712.5509427177345
 31
0.0
  0
LINE
  5
E6E
330
4EB
100
AcDbEntity
  8
SIZE
  6
Continuous
 62
     0
440
 16777216
370
    -2
100
AcDbLine
 10
-542.4630593185046
 20
-700.0509427177346
 30
0.0
 11
542.5369406814946
 21
-700.0509427177346
 31
0.0
  0
INSERT
  5
E6F
330
4EB
100
AcDbEntity
  8
SIZE
  6
Continuous
 62
     0
440
 16777216
370
    -2
100
AcDbBlockReference
  2
_ORIGIN
 10
-552.4630593185046
 20
-700.0509427177346
 30
0.0
 41
10.0
 42
10.0
 43
10.0
 50
180.0
  0
INSERT
  5
E70
330
4EB
100
AcDbEntity
  8
SIZE
  6
Continuous
 62
     0
440
 16777216
370
    -2
100
AcDbBlockReference
  2
_ORIGIN
 10
552.5369406814948
 20
-700.0509427177346
 30
0.0
 41
10.0
 42
10.0
 43
10.0
  0
MTEXT
  5
E71
330
4EB
100
AcDbEntity
  8
SIZE
  6
Continuous
 62
     0
440
 16777216
100
AcDbMText
 10
0.0369406814950837
 20
-675.0509427177346
 30
0.0
 40
30.0
 41
0.0
 46
0.0
 71
     5
 72
     1
  1
\A1;1105
 73
     1
 44
1.0
  0
POINT
  5
E72
330
4EB
100
AcDbEntity
  8
DEFPOINTS
  6
Continuous
 62
     0
440
 16777216
100
AcDbPoint
 10
-552.4630593185045
 20
869.7176822079439
 30
0.0
  0
POINT
  5
E73
330
4EB
100
AcDbEntity
  8
DEFPOINTS
  6
Continuous
 62
     0
440
 16777216
100
AcDbPoint
 10
552.5369406814949
 20
869.7176822079416
 30
0.0
  0
POINT
  5
E74
330
4EB
100
AcDbEntity
  8
DEFPOINTS
  6
Continuous
 62
     0
440
 16777216
100
AcDbPoint
 10
552.5369406814948
 20
-700.0509427177346
 30
0.0
  0
ENDBLK
  5
4ED
330
4EB
100
AcDbEntity
  8
0
100
AcDbBlockEnd
  0
BLOCK
  5
512
330
511
100
AcDbEntity
  8
0
100
AcDbBlockBegin
  2
*D24
 70
     1
 10
0.0
 20
0.0
 30
0.0
  3
*D24
  1

  0
LINE
  5
535
330
511
100
AcDbEntity
  8
SIZE
  6
Continuous
 62
     0
440
 16777216
370
    -2
100
AcDbLine
 10
506.5450400332015
 20
54.12892965191897
 30
0.0
 11
632.4125401307354
 21
54.128929651919
 31
0.0
  0
LINE
  5
536
330
511
100
AcDbEntity
  8
SIZE
  6
Continuous
 62
     0
440
 16777216
370
    -2
100
AcDbLine
 10
504.3950400332015
 20
41.62892965191915
 30
0.0
 11
632.4125401307354
 21
41.62892965191917
 31
0.0
  0
LINE
  5
537
330
511
100
AcDbEntity
  8
SIZE
  6
Continuous
 62
     0
440
 16777216
370
    -2
100
AcDbLine
 10
619.9125401307354
 20
64.12892965191899
 30
0.0
 11
619.9125401307354
 21
74.12892965191898
 31
0.0
  0
LINE
  5
538
330
511
100
AcDbEntity
  8
SIZE
  6
Continuous
 62
     0
440
 16777216
370
    -2
100
AcDbLine
 10
619.9125401307354
 20
31.62892965191919
 30
0.0
 11
619.9125401307354
 21
-78.37107034808084
 31
0.0
  0
LINE
  5
539
330
511
100
AcDbEntity
  8
SIZE
  6
Continuous
 62
     0
440
 16777216
370
    -2
100
AcDbLine
 10
619.9125401307354
 20
54.12892965191899
 30
0.0
 11
619.9125401307354
 21
41.62892965191917
 31
0.0
  0
INSERT
  5
53A
330
511
100
AcDbEntity
  8
SIZE
  6
Continuous
 62
     0
440
 16777216
370
    -2
100
AcDbBlockReference
  2
_ORIGIN
 10
619.9125401307354
 20
54.12892965191899
 30
0.0
 41
10.0
 42
10.0
 43
10.0
 50
270.0
  0
INSERT
  5
53B
330
511
100
AcDbEntity
  8
SIZE
  6
Continuous
 62
     0
440
 16777216
370
    -2
100
AcDbBlockReference
  2
_ORIGIN
 10
619.9125401307354
 20
41.62892965191917
 30
0.0
 41
10.0
 42
10.0
 43
10.0
 50
90.0
  0
MTEXT
  5
53C
330
511
100
AcDbEntity
  8
SIZE
  6
Continuous
 62
     0
440
 16777216
100
AcDbMText
 10
594.9125401307354
 20
-28.371070348081
 30
0.0
 40
30.0
 41
0.0
 46
0.0
 71
     5
 72
     1
  1
\A1;12.5
 11
0.0000000000000001
 21
1.0
 31
0.0
 73
     1
 44
1.0
  0
POINT
  5
53D
330
511
100
AcDbEntity
  8
DEFPOINTS
  6
Continuous
 62
     0
440
 16777216
100
AcDbPoint
 10
496.5450400332016
 20
54.12892965191897
 30
0.0
  0
POINT
  5
53E
330
511
100
AcDbEntity
  8
DEFPOINTS
  6
Continuous
 62
     0
440
 16777216
100
AcDbPoint
 10
494.3950400332012
 20
41.62892965191915
 30
0.0
  0
POINT
  5
53F
330
511
100
AcDbEntity
  8
DEFPOINTS
  6
Continuous
 62
     0
440
 16777216
100
AcDbPoint
 10
619.9125401307354
 20
41.62892965191917
 30
0.0
  0
ENDBLK
  5
513
330
511
100
AcDbEntity
  8
0
100
AcDbBlockEnd
  0
BLOCK
  5
62A
330
629
100
AcDbEntity
  8
0
100
AcDbBlockBegin
  2
*D25
 70
     1
 10
0.0
 20
0.0
 30
0.0
  3
*D25
  1

  0
LINE
  5
E3B
330
629
100
AcDbEntity
  8
SIZE
  6
Continuous
 62
     0
440
 16777216
370
    -2
100
AcDbLine
 10
522.5369406814952
 20
960.0000000000003
 30
0.0
 11
710.4632142093129
 21
960.0000000000003
 31
0.0
  0
LINE
  5
E3C
330
629
100
AcDbEntity
  8
SIZE
  6
Continuous
 62
     0
440
 16777216
370
    -2
100
AcDbLine
 10
524.8369406814953
 20
0.0000000000000016
 30
0.0
 11
710.463214209313
 21
0.0000000000000315
 31
0.0
  0
LINE
  5
E3D
330
629
100
AcDbEntity
  8
SIZE
  6
Continuous
 62
     0
440
 16777216
370
    -2
100
AcDbLine
 10
697.9632142093129
 20
950.0000000000003
 30
0.0
 11
697.963214209313
 21
10.00000000000003
 31
0.0
  0
INSERT
  5
E3E
330
629
100
AcDbEntity
  8
SIZE
  6
Continuous
 62
     0
440
 16777216
370
    -2
100
AcDbBlockReference
  2
_ORIGIN
 10
697.9632142093129
 20
960.0000000000003
 30
0.0
 41
10.0
 42
10.0
 43
10.0
 50
90.0
  0
INSERT
  5
E3F
330
629
100
AcDbEntity
  8
SIZE
  6
Continuous
 62
     0
440
 16777216
370
    -2
100
AcDbBlockReference
  2
_ORIGIN
 10
697.963214209313
 20
0.0000000000000294
 30
0.0
 41
10.0
 42
10.0
 43
10.0
 50
270.0
  0
MTEXT
  5
E40
330
629
100
AcDbEntity
  8
SIZE
  6
Continuous
 62
     0
440
 16777216
100
AcDbMText
 10
672.9632142093129
 20
479.9999999999998
 30
0.0
 40
30.0
 41
0.0
 46
0.0
 71
     5
 72
     1
  1
\A1;960
 11
0.0000000000000001
 21
1.0
 31
0.0
 73
     1
 44
1.0
  0
POINT
  5
E41
330
629
100
AcDbEntity
  8
DEFPOINTS
  6
Continuous
 62
     0
440
 16777216
100
AcDbPoint
 10
512.5369406814955
 20
960.0000000000003
 30
0.0
  0
POINT
  5
E42
330
629
100
AcDbEntity
  8
DEFPOINTS
  6
Continuous
 62
     0
440
 16777216
100
AcDbPoint
 10
514.8369406814953
 20
0.0
 30
0.0
  0
POINT
  5
E43
330
629
100
AcDbEntity
  8
DEFPOINTS
  6
Continuous
 62
     0
440
 16777216
100
AcDbPoint
 10
697.963214209313
 20
0.0000000000000294
 30
0.0
  0
ENDBLK
  5
62B
330
629
100
AcDbEntity
  8
0
100
AcDbBlockEnd
  0
BLOCK
  5
67D
330
67C
100
AcDbEntity
  8
0
100
AcDbBlockBegin
  2
*D26
 70
     1
 10
0.0
 20
0.0
 30
0.0
  3
*D26
  1

  0
LINE
  5
68A
330
67C
100
AcDbEntity
  8
SIZE
  6
Continuous
 62
     0
440
 16777216
370
    -2
100
AcDbLine
 10
-499.9630593185046
 20
843.0000000000005
 30
0.0
 11
-589.9464791599497
 21
843.0000000000005
 31
0.0
  0
LINE
  5
68B
330
67C
100
AcDbEntity
  8
SIZE
  6
Continuous
 62
     0
440
 16777216
370
    -2
100
AcDbLine
 10
-502.9630593185046
 20
830.0000000000004
 30
0.0
 11
-589.9464791599497
 21
830.0000000000004
 31
0.0
  0
LINE
  5
68C
330
67C
100
AcDbEntity
  8
SIZE
  6
Continuous
 62
     0
440
 16777216
370
    -2
100
AcDbLine
 10
-577.4464791599497
 20
853.0000000000002
 30
0.0
 11
-577.4464791599497
 21
863.0000000000004
 31
0.0
  0
LINE
  5
68D
330
67C
100
AcDbEntity
  8
SIZE
  6
Continuous
 62
     0
440
 16777216
370
    -2
100
AcDbLine
 10
-577.4464791599497
 20
820.0000000000002
 30
0.0
 11
-577.4464791599497
 21
750.0000000000003
 31
0.0
  0
LINE
  5
68E
330
67C
100
AcDbEntity
  8
SIZE
  6
Continuous
 62
     0
440
 16777216
370
    -2
100
AcDbLine
 10
-577.4464791599497
 20
843.0000000000005
 30
0.0
 11
-577.4464791599497
 21
830.0000000000004
 31
0.0
  0
INSERT
  5
68F
330
67C
100
AcDbEntity
  8
SIZE
  6
Continuous
 62
     0
440
 16777216
370
    -2
100
AcDbBlockReference
  2
_ORIGIN
 10
-577.4464791599497
 20
843.0000000000005
 30
0.0
 41
10.0
 42
10.0
 43
10.0
 50
270.0
  0
INSERT
  5
690
330
67C
100
AcDbEntity
  8
SIZE
  6
Continuous
 62
     0
440
 16777216
370
    -2
100
AcDbBlockReference
  2
_ORIGIN
 10
-577.4464791599497
 20
830.0000000000004
 30
0.0
 41
10.0
 42
10.0
 43
10.0
 50
90.0
  0
MTEXT
  5
691
330
67C
100
AcDbEntity
  8
SIZE
  6
Continuous
 62
     0
440
 16777216
100
AcDbMText
 10
-602.4464791599495
 20
780.0000000000003
 30
0.0
 40
30.0
 41
0.0
 46
0.0
 71
     5
 72
     1
  1
\A1;13
 11
0.0000000000000001
 21
1.0
 31
0.0
 73
     1
 44
1.0
  0
POINT
  5
692
330
67C
100
AcDbEntity
  8
DEFPOINTS
  6
Continuous
 62
     0
440
 16777216
100
AcDbPoint
 10
-489.9630593185046
 20
843.0000000000005
 30
0.0
  0
POINT
  5
693
330
67C
100
AcDbEntity
  8
DEFPOINTS
  6
Continuous
 62
     0
440
 16777216
100
AcDbPoint
 10
-492.9630593185046
 20
830.0000000000004
 30
0.0
  0
POINT
  5
694
330
67C
100
AcDbEntity
  8
DEFPOINTS
  6
Continuous
 62
     0
440
 16777216
100
AcDbPoint
 10
-577.4464791599497
 20
830.0000000000004
 30
0.0
  0
ENDBLK
  5
67E
330
67C
100
AcDbEntity
  8
0
100
AcDbBlockEnd
  0
BLOCK
  5
6DC
330
6DB
100
AcDbEntity
  8
0
100
AcDbBlockBegin
  2
*D27
 70
     1
 10
0.0
 20
0.0
 30
0.0
  3
*D27
  1

  0
LINE
  5
E75
330
6DB
100
AcDbEntity
  8
SIZE
  6
Continuous
 62
     0
440
 16777216
370
    -2
100
AcDbLine
 10
-520.4630593185046
 20
840.0000000000007
 30
0.0
 11
-824.8555413883172
 21
840.0000000000007
 31
0.0
  0
LINE
  5
E76
330
6DB
100
AcDbEntity
  8
SIZE
  6
Continuous
 62
     0
440
 16777216
370
    -2
100
AcDbLine
 10
-524.7630593185045
 20
-0.0000000000000655
 30
0.0
 11
-824.8555413883169
 21
-0.0000000000001138
 31
0.0
  0
LINE
  5
E77
330
6DB
100
AcDbEntity
  8
SIZE
  6
Continuous
 62
     0
440
 16777216
370
    -2
100
AcDbLine
 10
-812.3555413883172
 20
830.0000000000007
 30
0.0
 11
-812.3555413883169
 21
9.999999999999886
 31
0.0
  0
INSERT
  5
E78
330
6DB
100
AcDbEntity
  8
SIZE
  6
Continuous
 62
     0
440
 16777216
370
    -2
100
AcDbBlockReference
  2
_ORIGIN
 10
-812.3555413883172
 20
840.0000000000007
 30
0.0
 41
10.0
 42
10.0
 43
10.0
 50
90.0
  0
INSERT
  5
E79
330
6DB
100
AcDbEntity
  8
SIZE
  6
Continuous
 62
     0
440
 16777216
370
    -2
100
AcDbBlockReference
  2
_ORIGIN
 10
-812.3555413883169
 20
-0.0000000000001118
 30
0.0
 41
10.0
 42
10.0
 43
10.0
 50
270.0
  0
MTEXT
  5
E7A
330
6DB
100
AcDbEntity
  8
SIZE
  6
Continuous
 62
     0
440
 16777216
100
AcDbMText
 10
-837.3555413883169
 20
376.5298789532459
 30
0.0
 40
30.0
 41
0.0
 46
0.0
 71
     5
 72
     1
  1
\A1;840
 11
0.0000000000000001
 21
1.0
 31
0.0
 73
     1
 44
1.0
  0
POINT
  5
E7B
330
6DB
100
AcDbEntity
  8
DEFPOINTS
  6
Continuous
 62
     0
440
 16777216
100
AcDbPoint
 10
-510.4630593185046
 20
840.0000000000007
 30
0.0
  0
POINT
  5
E7C
330
6DB
100
AcDbEntity
  8
DEFPOINTS
  6
Continuous
 62
     0
440
 16777216
100
AcDbPoint
 10
-514.7630593185046
 20
-0.0000000000000639
 30
0.0
  0
POINT
  5
E7D
330
6DB
100
AcDbEntity
  8
DEFPOINTS
  6
Continuous
 62
     0
440
 16777216
100
AcDbPoint
 10
-812.3555413883169
 20
-0.0000000000001118
 30
0.0
  0
ENDBLK
  5
6DD
330
6DB
100
AcDbEntity
  8
0
100
AcDbBlockEnd
  0
BLOCK
  5
6E9
330
6E8
100
AcDbEntity
  8
0
100
AcDbBlockBegin
  2
*D28
 70
     1
 10
0.0
 20
0.0
 30
0.0
  3
*D28
  1

  0
LINE
  5
C51
330
6E8
100
AcDbEntity
  8
SIZE
  6
Continuous
 62
     0
440
 16777216
370
    -2
100
AcDbLine
 10
-287.4630593185047
 20
815.0000000000003
 30
0.0
 11
-731.7000020430391
 21
815.0000000000003
 31
0.0
  0
LINE
  5
C52
330
6E8
100
AcDbEntity
  8
SIZE
  6
Continuous
 62
     0
440
 16777216
370
    -2
100
AcDbLine
 10
-524.7630593185045
 20
-0.0000000000000636
 30
0.0
 11
-731.7000020430389
 21
-0.0000000000000969
 31
0.0
  0
LINE
  5
C53
330
6E8
100
AcDbEntity
  8
SIZE
  6
Continuous
 62
     0
440
 16777216
370
    -2
100
AcDbLine
 10
-719.2000020430391
 20
805.0000000000004
 30
0.0
 11
-719.2000020430389
 21
9.999999999999904
 31
0.0
  0
INSERT
  5
C54
330
6E8
100
AcDbEntity
  8
SIZE
  6
Continuous
 62
     0
440
 16777216
370
    -2
100
AcDbBlockReference
  2
_ORIGIN
 10
-719.2000020430391
 20
815.0000000000003
 30
0.0
 41
10.0
 42
10.0
 43
10.0
 50
90.0
  0
INSERT
  5
C55
330
6E8
100
AcDbEntity
  8
SIZE
  6
Continuous
 62
     0
440
 16777216
370
    -2
100
AcDbBlockReference
  2
_ORIGIN
 10
-719.2000020430389
 20
-0.0000000000000949
 30
0.0
 41
10.0
 42
10.0
 43
10.0
 50
270.0
  0
MTEXT
  5
C56
330
6E8
100
AcDbEntity
  8
SIZE
  6
Continuous
 62
     0
440
 16777216
100
AcDbMText
 10
-744.2000020430388
 20
407.5000000000001
 30
0.0
 40
30.0
 41
0.0
 46
0.0
 71
     5
 72
     1
  1
\A1;815
 11
0.0000000000000001
 21
1.0
 31
0.0
 73
     1
 44
1.0
  0
POINT
  5
C57
330
6E8
100
AcDbEntity
  8
DEFPOINTS
  6
Continuous
 62
     0
440
 16777216
100
AcDbPoint
 10
-277.4630593185047
 20
815.0000000000003
 30
0.0
  0
POINT
  5
C58
330
6E8
100
AcDbEntity
  8
DEFPOINTS
  6
Continuous
 62
     0
440
 16777216
100
AcDbPoint
 10
-514.7630593185046
 20
-0.000000000000062
 30
0.0
  0
POINT
  5
C59
330
6E8
100
AcDbEntity
  8
DEFPOINTS
  6
Continuous
 62
     0
440
 16777216
100
AcDbPoint
 10
-719.2000020430389
 20
-0.0000000000000949
 30
0.0
  0
ENDBLK
  5
6EA
330
6E8
100
AcDbEntity
  8
0
100
AcDbBlockEnd
  0
BLOCK
  5
8A1
330
8A0
100
AcDbEntity
  8
0
100
AcDbBlockBegin
  2
*D29
 70
     1
 10
0.0
 20
0.0
 30
0.0
  3
*D29
  1

  0
LINE
  5
C78
330
8A0
100
AcDbEntity
  8
SIZE
  6
Continuous
 62
     0
440
 16777216
370
    -2
100
AcDbLine
 10
560.0369406814965
 20
1950.000000000002
 30
0.0
 11
822.4045532783721
 21
1950.000000000002
 31
0.0
  0
LINE
  5
C79
330
8A0
100
AcDbEntity
  8
SIZE
  6
Continuous
 62
     0
440
 16777216
370
    -2
100
AcDbLine
 10
524.8369406814953
 20
0.0000000000000016
 30
0.0
 11
822.4045532783728
 21
0.0000000000000495
 31
0.0
  0
LINE
  5
C7A
330
8A0
100
AcDbEntity
  8
SIZE
  6
Continuous
 62
     0
440
 16777216
370
    -2
100
AcDbLine
 10
809.9045532783721
 20
1940.000000000002
 30
0.0
 11
809.9045532783728
 21
10.00000000000005
 31
0.0
  0
INSERT
  5
C7B
330
8A0
100
AcDbEntity
  8
SIZE
  6
Continuous
 62
     0
440
 16777216
370
    -2
100
AcDbBlockReference
  2
_ORIGIN
 10
809.9045532783721
 20
1950.000000000002
 30
0.0
 41
10.0
 42
10.0
 43
10.0
 50
90.0
  0
INSERT
  5
C7C
330
8A0
100
AcDbEntity
  8
SIZE
  6
Continuous
 62
     0
440
 16777216
370
    -2
100
AcDbBlockReference
  2
_ORIGIN
 10
809.9045532783728
 20
0.0000000000000475
 30
0.0
 41
10.0
 42
10.0
 43
10.0
 50
270.0
  0
MTEXT
  5
C7D
330
8A0
100
AcDbEntity
  8
SIZE
  6
Continuous
 62
     0
440
 16777216
100
AcDbMText
 10
784.9045532783727
 20
971.0
 30
0.0
 40
30.0
 41
0.0
 46
0.0
 71
     5
 72
     1
  1
\A1;1950
 11
0.0000000000000001
 21
1.0
 31
0.0
 73
     1
 44
1.0
  0
POINT
  5
C7E
330
8A0
100
AcDbEntity
  8
DEFPOINTS
  6
Continuous
 62
     0
440
 16777216
100
AcDbPoint
 10
550.0369406814964
 20
1950.000000000002
 30
0.0
  0
POINT
  5
C7F
330
8A0
100
AcDbEntity
  8
DEFPOINTS
  6
Continuous
 62
     0
440
 16777216
100
AcDbPoint
 10
514.8369406814953
 20
0.0
 30
0.0
  0
POINT
  5
C80
330
8A0
100
AcDbEntity
  8
DEFPOINTS
  6
Continuous
 62
     0
440
 16777216
100
AcDbPoint
 10
809.9045532783728
 20
0.0000000000000475
 30
0.0
  0
ENDBLK
  5
8A2
330
8A0
100
AcDbEntity
  8
0
100
AcDbBlockEnd
  0
BLOCK
  5
8BD
330
8BC
100
AcDbEntity
  8
0
100
AcDbBlockBegin
  2
*D30
 70
     1
 10
0.0
 20
0.0
 30
0.0
  3
*D30
  1

  0
LINE
  5
8E7
330
8BC
100
AcDbEntity
  8
SIZE
  6
Continuous
 62
     0
440
 16777216
370
    -2
100
AcDbLine
 10
560.0369406814952
 20
1624.000000000001
 30
0.0
 11
1318.674245140112
 21
1624.000000000001
 31
0.0
  0
LINE
  5
8E8
330
8BC
100
AcDbEntity
  8
SIZE
  6
Continuous
 62
     0
440
 16777216
370
    -2
100
AcDbLine
 10
524.3369406814953
 20
0.0000000000000016
 30
0.0
 11
1318.674245140112
 21
0.0000000000001293
 31
0.0
  0
LINE
  5
8E9
330
8BC
100
AcDbEntity
  8
SIZE
  6
Continuous
 62
     0
440
 16777216
370
    -2
100
AcDbLine
 10
1306.174245140112
 20
1614.0
 30
0.0
 11
1306.174245140113
 21
10.00000000000013
 31
0.0
  0
INSERT
  5
8EA
330
8BC
100
AcDbEntity
  8
SIZE
  6
Continuous
 62
     0
440
 16777216
370
    -2
100
AcDbBlockReference
  2
_ORIGIN
 10
1306.174245140112
 20
1624.000000000001
 30
0.0
 41
10.0
 42
10.0
 43
10.0
 50
90.0
  0
INSERT
  5
8EB
330
8BC
100
AcDbEntity
  8
SIZE
  6
Continuous
 62
     0
440
 16777216
370
    -2
100
AcDbBlockReference
  2
_ORIGIN
 10
1306.174245140113
 20
0.0000000000001273
 30
0.0
 41
10.0
 42
10.0
 43
10.0
 50
270.0
  0
MTEXT
  5
8EC
330
8BC
100
AcDbEntity
  8
SIZE
  6
Continuous
 62
     0
440
 16777216
100
AcDbMText
 10
1281.174245140112
 20
811.9999999999999
 30
0.0
 40
30.0
 41
0.0
 46
0.0
 71
     5
 72
     1
  1
\A1;1624
 11
0.0000000000000001
 21
1.0
 31
0.0
 73
     1
 44
1.0
  0
POINT
  5
8ED
330
8BC
100
AcDbEntity
  8
DEFPOINTS
  6
Continuous
 62
     0
440
 16777216
100
AcDbPoint
 10
550.0369406814955
 20
1624.000000000001
 30
0.0
  0
POINT
  5
8EE
330
8BC
100
AcDbEntity
  8
DEFPOINTS
  6
Continuous
 62
     0
440
 16777216
100
AcDbPoint
 10
514.3369406814953
 20
0.0
 30
0.0
  0
POINT
  5
8EF
330
8BC
100
AcDbEntity
  8
DEFPOINTS
  6
Continuous
 62
     0
440
 16777216
100
AcDbPoint
 10
1306.174245140113
 20
0.0000000000001273
 30
0.0
  0
ENDBLK
  5
8BE
330
8BC
100
AcDbEntity
  8
0
100
AcDbBlockEnd
  0
BLOCK
  5
8CA
330
8C9
100
AcDbEntity
  8
0
100
AcDbBlockBegin
  2
*D31
 70
     1
 10
0.0
 20
0.0
 30
0.0
  3
*D31
  1

  0
LINE
  5
902
330
8C9
100
AcDbEntity
  8
SIZE
  6
Continuous
 62
     0
440
 16777216
370
    -2
100
AcDbLine
 10
-559.9630593185047
 20
1942.000000000001
 30
0.0
 11
-753.0111232442732
 21
1942.000000000001
 31
0.0
  0
LINE
  5
903
330
8C9
100
AcDbEntity
  8
SIZE
  6
Continuous
 62
     0
440
 16777216
370
    -2
100
AcDbLine
 10
-559.9630593185047
 20
1624.000000000001
 30
0.0
 11
-753.0111232442732
 21
1624.000000000001
 31
0.0
  0
LINE
  5
904
330
8C9
100
AcDbEntity
  8
SIZE
  6
Continuous
 62
     0
440
 16777216
370
    -2
100
AcDbLine
 10
-740.5111232442732
 20
1932.000000000001
 30
0.0
 11
-740.5111232442732
 21
1634.000000000001
 31
0.0
  0
INSERT
  5
905
330
8C9
100
AcDbEntity
  8
SIZE
  6
Continuous
 62
     0
440
 16777216
370
    -2
100
AcDbBlockReference
  2
_ORIGIN
 10
-740.5111232442732
 20
1942.000000000001
 30
0.0
 41
10.0
 42
10.0
 43
10.0
 50
90.0
  0
INSERT
  5
906
330
8C9
100
AcDbEntity
  8
SIZE
  6
Continuous
 62
     0
440
 16777216
370
    -2
100
AcDbBlockReference
  2
_ORIGIN
 10
-740.5111232442732
 20
1624.000000000001
 30
0.0
 41
10.0
 42
10.0
 43
10.0
 50
270.0
  0
MTEXT
  5
907
330
8C9
100
AcDbEntity
  8
SIZE
  6
Continuous
 62
     0
440
 16777216
100
AcDbMText
 10
-765.5111232442727
 20
1783.000000000001
 30
0.0
 40
30.0
 41
0.0
 46
0.0
 71
     5
 72
     1
  1
\A1;318
 11
0.0000000000000001
 21
1.0
 31
0.0
 73
     1
 44
1.0
  0
POINT
  5
908
330
8C9
100
AcDbEntity
  8
DEFPOINTS
  6
Continuous
 62
     0
440
 16777216
100
AcDbPoint
 10
-549.963059318505
 20
1942.000000000001
 30
0.0
  0
POINT
  5
909
330
8C9
100
AcDbEntity
  8
DEFPOINTS
  6
Continuous
 62
     0
440
 16777216
100
AcDbPoint
 10
-549.963059318505
 20
1624.000000000001
 30
0.0
  0
POINT
  5
90A
330
8C9
100
AcDbEntity
  8
DEFPOINTS
  6
Continuous
 62
     0
440
 16777216
100
AcDbPoint
 10
-740.5111232442732
 20
1624.000000000001
 30
0.0
  0
ENDBLK
  5
8CB
330
8C9
100
AcDbEntity
  8
0
100
AcDbBlockEnd
  0
BLOCK
  5
C6C
330
C6B
100
AcDbEntity
  8
0
100
AcDbBlockBegin
  2
*D32
 70
     1
 10
0.0
 20
0.0
 30
0.0
  3
*D32
  1

  0
LINE
  5
C6E
330
C6B
100
AcDbEntity
  8
SIZE
  6
Continuous
 62
     0
440
 16777216
370
    -2
100
AcDbLine
 10
524.8369406814953
 20
0.0000000000000016
 30
0.0
 11
906.0090386762832
 21
0.0000000000000629
 31
0.0
  0
LINE
  5
C6F
330
C6B
100
AcDbEntity
  8
SIZE
  6
Continuous
 62
     0
440
 16777216
370
    -2
100
AcDbLine
 10
524.8369406814953
 20
1950.000000000001
 30
0.0
 11
906.0090386762826
 21
1950.000000000001
 31
0.0
  0
LINE
  5
C70
330
C6B
100
AcDbEntity
  8
SIZE
  6
Continuous
 62
     0
440
 16777216
370
    -2
100
AcDbLine
 10
893.5090386762832
 20
10.00000000000006
 30
0.0
 11
893.5090386762826
 21
1940.000000000001
 31
0.0
  0
INSERT
  5
C71
330
C6B
100
AcDbEntity
  8
SIZE
  6
Continuous
 62
     0
440
 16777216
370
    -2
100
AcDbBlockReference
  2
_ORIGIN
 10
893.5090386762832
 20
0.0000000000000609
 30
0.0
 41
10.0
 42
10.0
 43
10.0
 50
270.0
  0
INSERT
  5
C72
330
C6B
100
AcDbEntity
  8
SIZE
  6
Continuous
 62
     0
440
 16777216
370
    -2
100
AcDbBlockReference
  2
_ORIGIN
 10
893.5090386762826
 20
1950.000000000001
 30
0.0
 41
10.0
 42
10.0
 43
10.0
 50
90.0
  0
MTEXT
  5
C73
330
C6B
100
AcDbEntity
  8
SIZE
  6
Continuous
 62
     0
440
 16777216
100
AcDbMText
 10
868.509038676283
 20
975.0
 30
0.0
 40
30.0
 41
0.0
 46
0.0
 71
     5
 72
     1
  1
\A1;1950
 11
0.0000000000000001
 21
1.0
 31
0.0
 73
     1
 44
1.0
  0
POINT
  5
C74
330
C6B
100
AcDbEntity
  8
DEFPOINTS
  6
Continuous
 62
     0
440
 16777216
100
AcDbPoint
 10
514.8369406814953
 20
0.0
 30
0.0
  0
POINT
  5
C75
330
C6B
100
AcDbEntity
  8
DEFPOINTS
  6
Continuous
 62
     0
440
 16777216
100
AcDbPoint
 10
514.8369406814953
 20
1950.000000000001
 30
0.0
  0
POINT
  5
C76
330
C6B
100
AcDbEntity
  8
DEFPOINTS
  6
Continuous
 62
     0
440
 16777216
100
AcDbPoint
 10
893.5090386762826
 20
1950.000000000001
 30
0.0
  0
ENDBLK
  5
C6D
330
C6B
100
AcDbEntity
  8
0
100
AcDbBlockEnd
  0
BLOCK
  5
C95
330
C94
100
AcDbEntity
  8
0
100
AcDbBlockBegin
  2
*D33
 70
     1
 10
0.0
 20
0.0
 30
0.0
  3
*D33
  1

  0
LINE
  5
C97
330
C94
100
AcDbEntity
  8
SIZE
  6
Continuous
 62
     0
440
 16777216
370
    -2
100
AcDbLine
 10
-500.4630593185042
 20
1558.700000000001
 30
0.0
 11
-659.7619459268883
 21
1558.700000000001
 31
0.0
  0
LINE
  5
C98
330
C94
100
AcDbEntity
  8
SIZE
  6
Continuous
 62
     0
440
 16777216
370
    -2
100
AcDbLine
 10
-500.4630593185043
 20
1632.000000000002
 30
0.0
 11
-659.7619459268883
 21
1632.000000000001
 31
0.0
  0
LINE
  5
C99
330
C94
100
AcDbEntity
  8
SIZE
  6
Continuous
 62
     0
440
 16777216
370
    -2
100
AcDbLine
 10
-647.2619459268883
 20
1568.700000000001
 30
0.0
 11
-647.2619459268883
 21
1622.000000000001
 31
0.0
  0
LINE
  5
C9A
330
C94
100
AcDbEntity
  8
SIZE
  6
Continuous
 62
     0
440
 16777216
370
    -2
100
AcDbLine
 10
-647.2619459268883
 20
1632.000000000001
 30
0.0
 11
-647.2619459268883
 21
1752.000000000002
 31
0.0
  0
INSERT
  5
C9B
330
C94
100
AcDbEntity
  8
SIZE
  6
Continuous
 62
     0
440
 16777216
370
    -2
100
AcDbBlockReference
  2
_ORIGIN
 10
-647.2619459268883
 20
1558.700000000001
 30
0.0
 41
10.0
 42
10.0
 43
10.0
 50
270.0
  0
INSERT
  5
C9C
330
C94
100
AcDbEntity
  8
SIZE
  6
Continuous
 62
     0
440
 16777216
370
    -2
100
AcDbBlockReference
  2
_ORIGIN
 10
-647.2619459268883
 20
1632.000000000001
 30
0.0
 41
10.0
 42
10.0
 43
10.0
 50
90.0
  0
MTEXT
  5
C9D
330
C94
100
AcDbEntity
  8
SIZE
  6
Continuous
 62
     0
440
 16777216
100
AcDbMText
 10
-672.2619459268877
 20
1697.000000000001
 30
0.0
 40
30.0
 41
0.0
 46
0.0
 71
     5
 72
     1
  1
\A1;73.3
 11
0.0000000000000001
 21
1.0
 31
0.0
 73
     1
 44
1.0
  0
POINT
  5
C9E
330
C94
100
AcDbEntity
  8
DEFPOINTS
  6
Continuous
 62
     0
440
 16777216
100
AcDbPoint
 10
-490.4630593185043
 20
1558.700000000001
 30
0.0
  0
POINT
  5
C9F
330
C94
100
AcDbEntity
  8
DEFPOINTS
  6
Continuous
 62
     0
440
 16777216
100
AcDbPoint
 10
-490.4630593185043
 20
1632.000000000002
 30
0.0
  0
POINT
  5
CA0
330
C94
100
AcDbEntity
  8
DEFPOINTS
  6
Continuous
 62
     0
440
 16777216
100
AcDbPoint
 10
-647.2619459268883
 20
1632.000000000001
 30
0.0
  0
ENDBLK
  5
C96
330
C94
100
AcDbEntity
  8
0
100
AcDbBlockEnd
  0
BLOCK
  5
E46
330
E45
100
AcDbEntity
  8
0
100
AcDbBlockBegin
  2
*D34
 70
     1
 10
0.0
 20
0.0
 30
0.0
  3
*D34
  1

  0
LINE
  5
E48
330
E45
100
AcDbEntity
  8
DETAIL
  6
Continuous
 62
     0
440
 16777216
370
    -2
100
AcDbLine
 10
-520.4630593185046
 20
838.0000000000007
 30
0.0
 11
-924.9122637913741
 21
838.0000000000006
 31
0.0
  0
LINE
  5
E49
330
E45
100
AcDbEntity
  8
DETAIL
  6
Continuous
 62
     0
440
 16777216
370
    -2
100
AcDbLine
 10
-519.9630593185046
 20
-0.0000000000000036
 30
0.0
 11
-924.9122637913735
 21
-0.0000000000000687
 31
0.0
  0
LINE
  5
E4A
330
E45
100
AcDbEntity
  8
DETAIL
  6
Continuous
 62
     0
440
 16777216
370
    -2
100
AcDbLine
 10
-912.4122637913741
 20
828.0000000000006
 30
0.0
 11
-912.4122637913735
 21
9.999999999999932
 31
0.0
  0
INSERT
  5
E4B
330
E45
100
AcDbEntity
  8
DETAIL
  6
Continuous
 62
     0
440
 16777216
370
    -2
100
AcDbBlockReference
  2
_ORIGIN
 10
-912.4122637913741
 20
838.0000000000006
 30
0.0
 41
10.0
 42
10.0
 43
10.0
 50
90.0
  0
INSERT
  5
E4C
330
E45
100
AcDbEntity
  8
DETAIL
  6
Continuous
 62
     0
440
 16777216
370
    -2
100
AcDbBlockReference
  2
_ORIGIN
 10
-912.4122637913735
 20
-0.0000000000000667
 30
0.0
 41
10.0
 42
10.0
 43
10.0
 50
270.0
  0
MTEXT
  5
E4D
330
E45
100
AcDbEntity
  8
DETAIL
  6
Continuous
 62
     0
440
 16777216
100
AcDbMText
 10
-937.4122637913734
 20
419.0000000000003
 30
0.0
 40
30.0
 41
0.0
 46
0.0
 71
     5
 72
     1
  1
\A1;838
 11
0.0000000000000001
 21
1.0
 31
0.0
 73
     1
 44
1.0
  0
POINT
  5
E4E
330
E45
100
AcDbEntity
  8
DEFPOINTS
  6
Continuous
 62
     0
440
 16777216
100
AcDbPoint
 10
-510.4630593185046
 20
838.0000000000007
 30
0.0
  0
POINT
  5
E4F
330
E45
100
AcDbEntity
  8
DEFPOINTS
  6
Continuous
 62
     0
440
 16777216
100
AcDbPoint
 10
-509.9630593185046
 20
-0.000000000000002
 30
0.0
  0
POINT
  5
E50
330
E45
100
AcDbEntity
  8
DEFPOINTS
  6
Continuous
 62
     0
440
 16777216
100
AcDbPoint
 10
-912.4122637913735
 20
-0.0000000000000667
 30
0.0
  0
ENDBLK
  5
E47
330
E45
100
AcDbEntity
  8
0
100
AcDbBlockEnd
  0
BLOCK
  5
E8D
330
E8C
100
AcDbEntity
  8
0
100
AcDbBlockBegin
  2
*D35
 70
     1
 10
0.0
 20
0.0
 30
0.0
  3
*D35
  1

  0
LINE
  5
EB7
330
E8C
100
AcDbEntity
  8
0
  6
Continuous
 62
     0
440
 16777216
370
    -2
100
AcDbLine
 10
482.5369406814953
 20
255.0000000000002
 30
0.0
 11
627.3563534907341
 21
255.0000000000002
 31
0.0
  0
LINE
  5
EB8
330
E8C
100
AcDbEntity
  8
0
  6
Continuous
 62
     0
440
 16777216
370
    -2
100
AcDbLine
 10
524.8369406814953
 20
0.0000000000000016
 30
0.0
 11
627.3563534907341
 21
0.0000000000000181
 31
0.0
  0
LINE
  5
EB9
330
E8C
100
AcDbEntity
  8
0
  6
Continuous
 62
     0
440
 16777216
370
    -2
100
AcDbLine
 10
614.8563534907341
 20
245.0000000000002
 30
0.0
 11
614.8563534907341
 21
10.00000000000001
 31
0.0
  0
INSERT
  5
EBA
330
E8C
100
AcDbEntity
  8
0
  6
Continuous
 62
     0
440
 16777216
370
    -2
100
AcDbBlockReference
  2
_ORIGIN
 10
614.8563534907341
 20
255.0000000000002
 30
0.0
 41
10.0
 42
10.0
 43
10.0
 50
90.0
  0
INSERT
  5
EBB
330
E8C
100
AcDbEntity
  8
0
  6
Continuous
 62
     0
440
 16777216
370
    -2
100
AcDbBlockReference
  2
_ORIGIN
 10
614.8563534907341
 20
0.0000000000000161
 30
0.0
 41
10.0
 42
10.0
 43
10.0
 50
270.0
  0
MTEXT
  5
EBC
330
E8C
100
AcDbEntity
  8
0
  6
Continuous
 62
     0
440
 16777216
100
AcDbMText
 10
589.8563534907339
 20
127.4999999999999
 30
0.0
 40
30.0
 41
0.0
 46
0.0
 71
     5
 72
     1
  1
\A1;255
 11
0.0000000000000001
 21
1.0
 31
0.0
 73
     1
 44
1.0
  0
POINT
  5
EBD
330
E8C
100
AcDbEntity
  8
DEFPOINTS
  6
Continuous
 62
     0
440
 16777216
100
AcDbPoint
 10
472.5369406814952
 20
255.0000000000002
 30
0.0
  0
POINT
  5
EBE
330
E8C
100
AcDbEntity
  8
DEFPOINTS
  6
Continuous
 62
     0
440
 16777216
100
AcDbPoint
 10
514.8369406814953
 20
0.0
 30
0.0
  0
POINT
  5
EBF
330
E8C
100
AcDbEntity
  8
DEFPOINTS
  6
Continuous
 62
     0
440
 16777216
100
AcDbPoint
 10
614.8563534907341
 20
0.0000000000000161
 30
0.0
  0
ENDBLK
  5
E8E
330
E8C
100
AcDbEntity
  8
0
100
AcDbBlockEnd
  0
BLOCK
  5
E9A
330
E99
100
AcDbEntity
  8
0
100
AcDbBlockBegin
  2
*D36
 70
     1
 10
0.0
 20
0.0
 30
0.0
  3
*D36
  1

  0
LINE
  5
EC0
330
E99
100
AcDbEntity
  8
0
  6
Continuous
 62
     0
440
 16777216
370
    -2
100
AcDbLine
 10
480.5369406814953
 20
235.0000000000002
 30
0.0
 11
376.2177960677442
 21
235.0000000000002
 31
0.0
  0
LINE
  5
EC1
330
E99
100
AcDbEntity
  8
0
  6
Continuous
 62
     0
440
 16777216
370
    -2
100
AcDbLine
 10
504.8369406814954
 20
-0.0000000000000016
 30
0.0
 11
376.2177960677442
 21
-0.0000000000000223
 31
0.0
  0
LINE
  5
EC2
330
E99
100
AcDbEntity
  8
0
  6
Continuous
 62
     0
440
 16777216
370
    -2
100
AcDbLine
 10
388.7177960677442
 20
225.0000000000002
 30
0.0
 11
388.7177960677443
 21
9.999999999999982
 31
0.0
  0
INSERT
  5
EC3
330
E99
100
AcDbEntity
  8
0
  6
Continuous
 62
     0
440
 16777216
370
    -2
100
AcDbBlockReference
  2
_ORIGIN
 10
388.7177960677442
 20
235.0000000000002
 30
0.0
 41
10.0
 42
10.0
 43
10.0
 50
90.0
  0
INSERT
  5
EC4
330
E99
100
AcDbEntity
  8
0
  6
Continuous
 62
     0
440
 16777216
370
    -2
100
AcDbBlockReference
  2
_ORIGIN
 10
388.7177960677443
 20
-0.0000000000000203
 30
0.0
 41
10.0
 42
10.0
 43
10.0
 50
270.0
  0
MTEXT
  5
EC5
330
E99
100
AcDbEntity
  8
0
  6
Continuous
 62
     0
440
 16777216
100
AcDbMText
 10
363.7177960677442
 20
117.4999999999999
 30
0.0
 40
30.0
 41
0.0
 46
0.0
 71
     5
 72
     1
  1
\A1;235
 11
0.0000000000000001
 21
1.0
 31
0.0
 73
     1
 44
1.0
  0
POINT
  5
EC6
330
E99
100
AcDbEntity
  8
DEFPOINTS
  6
Continuous
 62
     0
440
 16777216
100
AcDbPoint
 10
490.5369406814953
 20
235.0000000000002
 30
0.0
  0
POINT
  5
EC7
330
E99
100
AcDbEntity
  8
DEFPOINTS
  6
Continuous
 62
     0
440
 16777216
100
AcDbPoint
 10
514.8369406814953
 20
0.0
 30
0.0
  0
POINT
  5
EC8
330
E99
100
AcDbEntity
  8
DEFPOINTS
  6
Continuous
 62
     0
440
 16777216
100
AcDbPoint
 10
388.7177960677443
 20
-0.0000000000000203
 30
0.0
  0
ENDBLK
  5
E9B
330
E99
100
AcDbEntity
  8
0
100
AcDbBlockEnd
  0
ENDSEC
  0
SECTION
  2
ENTITIES
  0
LINE
  5
1D5
330
6F
100
AcDbEntity
  8
OUTLINE
  6
Continuous
100
AcDbLine
 10
-549.9630593185037
 20
1950.000000000001
 30
0.0
 11
550.0369406814963
 21
1950.000000000001
 31
0.0
  0
LINE
  5
1D6
330
6F
100
AcDbEntity
  8
OUTLINE
  6
Continuous
100
AcDbLine
 10
-549.9630593185037
 20
1680.000000000001
 30
0.0
 11
550.0369406814963
 21
1680.000000000001
 31
0.0
  0
LINE
  5
1D7
330
6F
100
AcDbEntity
  8
OUTLINE
  6
Continuous
100
AcDbLine
 10
550.0369406814963
 20
1950.000000000001
 30
0.0
 11
550.0369406814963
 21
1632.000000000001
 31
0.0
  0
LINE
  5
1D8
330
6F
100
AcDbEntity
  8
OUTLINE
  6
Continuous
100
AcDbLine
 10
-549.9630593185037
 20
1632.000000000001
 30
0.0
 11
550.0369406814963
 21
1632.000000000001
 31
0.0
  0
LINE
  5
1D9
330
6F
100
AcDbEntity
  8
OUTLINE
  6
Continuous
100
AcDbLine
 10
-549.9630593185037
 20
1950.000000000001
 30
0.0
 11
-549.9630593185037
 21
1632.000000000001
 31
0.0
  0
LINE
  5
1DA
330
6F
100
AcDbEntity
  8
OUTLINE
  6
Continuous
100
AcDbLine
 10
510.5369406814943
 20
1632.000000000001
 30
0.0
 11
510.5369406814943
 21
956.9999999999996
 31
0.0
  0
LINE
  5
1DB
330
6F
100
AcDbEntity
  8
OUTLINE
  6
Continuous
100
AcDbLine
 10
472.5369406814943
 20
845.0000000000013
 30
0.0
 11
472.5369406814942
 21
1632.000000000001
 31
0.0
  0
LINE
  5
1DC
330
6F
100
AcDbEntity
  8
OUTLINE
  6
Continuous
100
AcDbLine
 10
-472.463059318504
 20
845.0000000000008
 30
0.0
 11
-472.463059318504
 21
1632.000000000001
 31
0.0
  0
LINE
  5
1DD
330
6F
100
AcDbEntity
  8
OUTLINE
  6
Continuous
100
AcDbLine
 10
-510.4630593185037
 20
1632.000000000001
 30
0.0
 11
-510.4630593185037
 21
956.9999999999996
 31
0.0
  0
LINE
  5
1DE
330
6F
100
AcDbEntity
  8
OUTLINE
  6
Continuous
100
AcDbLine
 10
-512.4630593185043
 20
960.0
 30
0.0
 11
-512.4630593185043
 21
59.99999999999993
 31
0.0
  0
LINE
  5
1DF
330
6F
100
AcDbEntity
  8
OUTLINE
  6
Continuous
100
AcDbLine
 10
-482.4630593185045
 20
960.0
 30
0.0
 11
-512.4630593185043
 21
960.0
 31
0.0
  0
ARC
  5
1E0
330
6F
100
AcDbEntity
  8
OUTLINE
  6
Continuous
100
AcDbCircle
 10
-547.4630593185045
 20
899.7176822079437
 30
0.0
 40
5.0
100
AcDbArc
 50
90.0
 51
180.0
  0
LINE
  5
1E1
330
6F
100
AcDbEntity
  8
OUTLINE
  6
Continuous
100
AcDbLine
 10
-552.4630593185045
 20
869.7176822079439
 30
0.0
 11
-552.4630593185045
 21
899.7176822079437
 31
0.0
  0
ARC
  5
1E2
330
6F
100
AcDbEntity
  8
OUTLINE
  6
Continuous
100
AcDbCircle
 10
-547.4630593185045
 20
869.7176822079439
 30
0.0
 40
5.0
100
AcDbArc
 50
180.0
 51
270.0
  0
LINE
  5
1E3
330
6F
100
AcDbEntity
  8
OUTLINE
  6
Continuous
100
AcDbLine
 10
-514.4630593185045
 20
864.7176822079442
 30
0.0
 11
-514.4630593185045
 21
904.7176822079435
 31
0.0
  0
LINE
  5
1E4
330
6F
100
AcDbEntity
  8
OUTLINE
  6
Continuous
100
AcDbLine
 10
-512.4630593185043
 20
864.7176822079442
 30
0.0
 11
-512.4630593185043
 21
904.7176822079435
 31
0.0
  0
LINE
  5
1E5
330
6F
100
AcDbEntity
  8
OUTLINE
  6
Continuous
100
AcDbLine
 10
-512.4630593185043
 20
904.7176822079435
 30
0.0
 11
-547.4630593185045
 21
904.7176822079435
 31
0.0
  0
LINE
  5
1E6
330
6F
100
AcDbEntity
  8
OUTLINE
  6
Continuous
100
AcDbLine
 10
-512.4630593185043
 20
864.7176822079442
 30
0.0
 11
-547.4630593185045
 21
864.7176822079442
 31
0.0
  0
LINE
  5
1E7
330
6F
100
AcDbEntity
  8
OUTLINE
  6
Continuous
100
AcDbLine
 10
-472.4630593185043
 20
950.0
 30
0.0
 11
-472.463059318504
 21
343.3506946325055
 31
0.0
  0
LINE
  5
1E8
330
6F
100
AcDbEntity
  8
OUTLINE
  6
Continuous
100
AcDbLine
 10
-472.463059318504
 20
759.9826270697824
 30
0.0
 11
472.5369406814951
 21
760.0000091968921
 31
0.0
  0
ARC
  5
1E9
330
6F
100
AcDbEntity
  8
OUTLINE
  6
Continuous
100
AcDbCircle
 10
-482.4630593185045
 20
950.0
 30
0.0
 40
10.0
100
AcDbArc
 50
0.0
 51
90.0
  0
LINE
  5
1EA
330
6F
100
AcDbEntity
  8
OUTLINE
  6
Continuous
100
AcDbLine
 10
-305.8630593185046
 20
800.0
 30
0.0
 11
-305.8630593185046
 21
801.6
 31
0.0
  0
LINE
  5
1EB
330
6F
100
AcDbEntity
  8
OUTLINE
  6
Continuous
100
AcDbLine
 10
-222.4630593185044
 20
815.0
 30
0.0
 11
-277.4630593185046
 21
815.0
 31
0.0
  0
LINE
  5
1EC
330
6F
100
AcDbEntity
  8
OUTLINE
  6
Continuous
100
AcDbLine
 10
-224.0630593185044
 20
813.4000000000003
 30
0.0
 11
-275.8630593185045
 21
813.4
 31
0.0
  0
LINE
  5
1ED
330
6F
100
AcDbEntity
  8
OUTLINE
  6
Continuous
100
AcDbLine
 10
-222.4630593185044
 20
801.6
 30
0.0
 11
-194.0630593185044
 21
801.6
 31
0.0
  0
LINE
  5
1EE
330
6F
100
AcDbEntity
  8
OUTLINE
  6
Continuous
100
AcDbLine
 10
-222.4630593185044
 20
815.0
 30
0.0
 11
-222.4630593185044
 21
801.6
 31
0.0
  0
LINE
  5
1EF
330
6F
100
AcDbEntity
  8
OUTLINE
  6
Continuous
100
AcDbLine
 10
-224.0630593185044
 20
813.4
 30
0.0
 11
-224.0630593185044
 21
800.0
 31
0.0
  0
LINE
  5
1F0
330
6F
100
AcDbEntity
  8
OUTLINE
  6
Continuous
100
AcDbLine
 10
-224.0630593185044
 20
800.0
 30
0.0
 11
-194.0630593185044
 21
800.0
 31
0.0
  0
LINE
  5
1F1
330
6F
100
AcDbEntity
  8
OUTLINE
  6
Continuous
100
AcDbLine
 10
-194.0630593185044
 20
800.0
 30
0.0
 11
-194.0630593185044
 21
801.6
 31
0.0
  0
LINE
  5
1F2
330
6F
100
AcDbEntity
  8
OUTLINE
  6
Continuous
100
AcDbLine
 10
-277.4630593185046
 20
801.6
 30
0.0
 11
-305.8630593185046
 21
801.6
 31
0.0
  0
LINE
  5
1F3
330
6F
100
AcDbEntity
  8
OUTLINE
  6
Continuous
100
AcDbLine
 10
-277.4630593185046
 20
815.0
 30
0.0
 11
-277.4630593185046
 21
801.6
 31
0.0
  0
LINE
  5
1F4
330
6F
100
AcDbEntity
  8
OUTLINE
  6
Continuous
100
AcDbLine
 10
-275.8630593185045
 20
813.4
 30
0.0
 11
-275.8630593185045
 21
800.0
 31
0.0
  0
LINE
  5
1F5
330
6F
100
AcDbEntity
  8
OUTLINE
  6
Continuous
100
AcDbLine
 10
-275.8630593185045
 20
800.0
 30
0.0
 11
-305.8630593185046
 21
800.0
 31
0.0
  0
LINE
  5
1F6
330
6F
100
AcDbEntity
  8
OUTLINE
  6
Continuous
100
AcDbLine
 10
-472.4630593185043
 20
302.503544442045
 30
0.0
 11
-472.4630593185043
 21
59.99999999999993
 31
0.0
  0
LINE
  5
1F7
330
6F
100
AcDbEntity
  8
OUTLINE
  6
Continuous
100
AcDbLine
 10
-472.4630593185043
 20
255.0000000000001
 30
0.0
 11
472.5369406814952
 21
255.0000000000001
 31
0.0
  0
LINE
  5
1F8
330
6F
100
AcDbEntity
  8
OUTLINE
  6
Continuous
100
AcDbLine
 10
-472.4630593185043
 20
215.0000000000001
 30
0.0
 11
472.5369406814952
 21
215.0000000000001
 31
0.0
  0
LINE
  5
1F9
330
6F
100
AcDbEntity
  8
OUTLINE
  6
Continuous
100
AcDbLine
 10
-470.4630593185044
 20
54.99999999999993
 30
0.0
 11
-514.7630593185043
 21
54.99999999999993
 31
0.0
  0
LINE
  5
1FA
330
6F
100
AcDbEntity
  8
OUTLINE
  6
Continuous
100
AcDbLine
 10
-470.4630593185044
 20
-0.000000000000057
 30
0.0
 11
-514.7630593185043
 21
-0.000000000000062
 31
0.0
  0
LINE
  5
1FB
330
6F
100
AcDbEntity
  8
OUTLINE
  6
Continuous
100
AcDbLine
 10
-470.4630593185044
 20
-0.000000000000057
 30
0.0
 11
-470.4630593185044
 21
54.99999999999993
 31
0.0
  0
LINE
  5
1FC
330
6F
100
AcDbEntity
  8
OUTLINE
  6
Continuous
100
AcDbLine
 10
-514.7630593185043
 20
-0.000000000000062
 30
0.0
 11
-514.7630593185043
 21
54.99999999999993
 31
0.0
  0
LINE
  5
1FD
330
6F
100
AcDbEntity
  8
OUTLINE
  6
Continuous
100
AcDbLine
 10
472.5369406814952
 20
950.0
 30
0.0
 11
472.5369406814951
 21
744.47939595056
 31
0.0
  0
LINE
  5
1FE
330
6F
100
AcDbEntity
  8
OUTLINE
  6
Continuous
100
AcDbLine
 10
512.5369406814952
 20
960.0
 30
0.0
 11
512.5369406814952
 21
60.0
 31
0.0
  0
LINE
  5
1FF
330
6F
100
AcDbEntity
  8
OUTLINE
  6
Continuous
100
AcDbLine
 10
482.5369406814951
 20
960.0
 30
0.0
 11
512.5369406814952
 21
960.0
 31
0.0
  0
ARC
  5
200
330
6F
100
AcDbEntity
  8
OUTLINE
  6
Continuous
100
AcDbCircle
 10
482.5369406814951
 20
950.0
 30
0.0
 40
10.00000000000011
100
AcDbArc
 50
90.0
 51
180.0
  0
ARC
  5
201
330
6F
100
AcDbEntity
  8
OUTLINE
  6
Continuous
100
AcDbCircle
 10
547.5369406814949
 20
869.7176822079416
 30
0.0
 40
5.0
100
AcDbArc
 50
270.0
 51
0.0
  0
ARC
  5
202
330
6F
100
AcDbEntity
  8
OUTLINE
  6
Continuous
100
AcDbCircle
 10
547.5369406814949
 20
899.7176822079415
 30
0.0
 40
5.0
100
AcDbArc
 50
0.0
 51
90.0
  0
LINE
  5
203
330
6F
100
AcDbEntity
  8
OUTLINE
  6
Continuous
100
AcDbLine
 10
512.5369406814951
 20
864.7176822079417
 30
0.0
 11
547.5369406814949
 21
864.7176822079417
 31
0.0
  0
LINE
  5
204
330
6F
100
AcDbEntity
  8
OUTLINE
  6
Continuous
100
AcDbLine
 10
512.5369406814951
 20
904.7176822079414
 30
0.0
 11
547.5369406814949
 21
904.7176822079414
 31
0.0
  0
LINE
  5
205
330
6F
100
AcDbEntity
  8
OUTLINE
  6
Continuous
100
AcDbLine
 10
512.5369406814951
 20
864.7176822079417
 30
0.0
 11
512.5369406814951
 21
904.7176822079414
 31
0.0
  0
LINE
  5
206
330
6F
100
AcDbEntity
  8
OUTLINE
  6
Continuous
100
AcDbLine
 10
514.5369406814949
 20
864.7176822079417
 30
0.0
 11
514.5369406814949
 21
904.7176822079414
 31
0.0
  0
LINE
  5
207
330
6F
100
AcDbEntity
  8
OUTLINE
  6
Continuous
100
AcDbLine
 10
552.5369406814949
 20
869.7176822079416
 30
0.0
 11
552.5369406814949
 21
899.7176822079415
 31
0.0
  0
LINE
  5
208
330
6F
100
AcDbEntity
  8
OUTLINE
  6
Continuous
100
AcDbLine
 10
472.5369406814955
 20
703.6322457601213
 30
0.0
 11
472.5369406814951
 21
60.0
 31
0.0
  0
LINE
  5
209
330
6F
100
AcDbEntity
  8
OUTLINE
  6
Continuous
100
AcDbLine
 10
470.5369406814951
 20
0.0
 30
0.0
 11
514.8369406814952
 21
0.0
 31
0.0
  0
LINE
  5
20A
330
6F
100
AcDbEntity
  8
OUTLINE
  6
Continuous
100
AcDbLine
 10
470.5369406814951
 20
0.0
 30
0.0
 11
470.5369406814951
 21
55.0
 31
0.0
  0
LINE
  5
20B
330
6F
100
AcDbEntity
  8
OUTLINE
  6
Continuous
100
AcDbLine
 10
514.8369406814952
 20
0.0
 30
0.0
 11
514.8369406814952
 21
55.0
 31
0.0
  0
LINE
  5
20C
330
6F
100
AcDbEntity
  8
OUTLINE
  6
Continuous
100
AcDbLine
 10
470.5369406814951
 20
55.0
 30
0.0
 11
514.8369406814952
 21
55.0
 31
0.0
  0
LINE
  5
20D
330
6F
100
AcDbEntity
  8
OUTLINE
  6
Continuous
100
AcDbLine
 10
-472.463059318504
 20
800.0
 30
0.0
 11
472.5369406814952
 21
800.0
 31
0.0
  0
LINE
  5
20E
330
6F
100
AcDbEntity
  8
OUTLINE
  6
Continuous
100
AcDbLine
 10
305.9369406814953
 20
800.0
 30
0.0
 11
305.9369406814953
 21
801.6
 31
0.0
  0
LINE
  5
20F
330
6F
100
AcDbEntity
  8
OUTLINE
  6
Continuous
100
AcDbLine
 10
277.5369406814952
 20
801.6
 30
0.0
 11
305.9369406814953
 21
801.6
 31
0.0
  0
LINE
  5
210
330
6F
100
AcDbEntity
  8
OUTLINE
  6
Continuous
100
AcDbLine
 10
275.9369406814954
 20
813.4
 30
0.0
 11
275.9369406814954
 21
800.0
 31
0.0
  0
LINE
  5
211
330
6F
100
AcDbEntity
  8
OUTLINE
  6
Continuous
100
AcDbLine
 10
277.5369406814952
 20
815.0
 30
0.0
 11
277.5369406814952
 21
801.6
 31
0.0
  0
LINE
  5
212
330
6F
100
AcDbEntity
  8
OUTLINE
  6
Continuous
100
AcDbLine
 10
222.5369406814952
 20
815.0
 30
0.0
 11
277.5369406814952
 21
815.0
 31
0.0
  0
LINE
  5
213
330
6F
100
AcDbEntity
  8
OUTLINE
  6
Continuous
100
AcDbLine
 10
224.1369406814952
 20
813.4000000000003
 30
0.0
 11
275.9369406814954
 21
813.4
 31
0.0
  0
LINE
  5
214
330
6F
100
AcDbEntity
  8
OUTLINE
  6
Continuous
100
AcDbLine
 10
275.9369406814954
 20
800.0
 30
0.0
 11
305.9369406814953
 21
800.0
 31
0.0
  0
LINE
  5
215
330
6F
100
AcDbEntity
  8
OUTLINE
  6
Continuous
100
AcDbLine
 10
222.5369406814952
 20
801.6
 30
0.0
 11
194.1369406814951
 21
801.6
 31
0.0
  0
LINE
  5
216
330
6F
100
AcDbEntity
  8
OUTLINE
  6
Continuous
100
AcDbLine
 10
222.5369406814952
 20
815.0
 30
0.0
 11
222.5369406814952
 21
801.6
 31
0.0
  0
LINE
  5
217
330
6F
100
AcDbEntity
  8
OUTLINE
  6
Continuous
100
AcDbLine
 10
224.1369406814952
 20
813.4
 30
0.0
 11
224.1369406814952
 21
800.0
 31
0.0
  0
LINE
  5
218
330
6F
100
AcDbEntity
  8
OUTLINE
  6
Continuous
100
AcDbLine
 10
224.1369406814952
 20
800.0
 30
0.0
 11
194.1369406814951
 21
800.0
 31
0.0
  0
LINE
  5
219
330
6F
100
AcDbEntity
  8
OUTLINE
  6
Continuous
100
AcDbLine
 10
194.1369406814951
 20
800.0
 30
0.0
 11
194.1369406814951
 21
801.6
 31
0.0
  0
LINE
  5
21A
330
6F
100
AcDbEntity
  8
OUTLINE
  6
Continuous
100
AcDbLine
 10
0.03694068149533
 20
503.0678951010831
 30
0.0
 11
472.5369406814952
 21
302.503544442045
 31
0.0
  0
LINE
  5
21B
330
6F
100
AcDbEntity
  8
OUTLINE
  6
Continuous
100
AcDbLine
 10
-472.463059318504
 20
703.6322457601211
 30
0.0
 11
-51.14915262345359
 21
524.7951026491888
 31
0.0
  0
LINE
  5
21C
330
6F
100
AcDbEntity
  8
OUTLINE
  6
Continuous
100
AcDbLine
 10
-472.463059318504
 20
744.4793959505601
 30
0.0
 11
-446.7659973189973
 21
733.5716402811923
 31
0.0
  0
LINE
  5
21D
330
6F
100
AcDbEntity
  8
OUTLINE
  6
Continuous
100
AcDbLine
 10
51.2230339864444
 20
524.7951026491888
 30
0.0
 11
454.4255040658653
 21
353.645808266968
 31
0.0
  0
LINE
  5
21E
330
6F
100
AcDbEntity
  8
OUTLINE
  6
Continuous
100
AcDbLine
 10
-445.8282426106229
 20
735.7808519294787
 30
0.0
 11
0.036940681495488
 21
546.5223101972948
 31
0.0
  0
LINE
  5
21F
330
6F
100
AcDbEntity
  8
OUTLINE
  6
Continuous
100
AcDbLine
 10
-445.8282426106229
 20
735.7808519294787
 30
0.0
 11
-446.7659973189973
 21
733.5716402811923
 31
0.0
  0
LINE
  5
220
330
6F
100
AcDbEntity
  8
OUTLINE
  6
Continuous
100
AcDbLine
 10
507.5566117858041
 20
718.4972142158438
 30
0.0
 11
-484.7476202359056
 21
297.2890577044154
 31
0.0
  0
LINE
  5
221
330
6F
100
AcDbEntity
  8
OUTLINE
  6
Continuous
100
AcDbLine
 10
445.902123973614
 20
735.7808519294787
 30
0.0
 11
-454.3516227028748
 21
353.645808266968
 31
0.0
  0
LINE
  5
222
330
6F
100
AcDbEntity
  8
OUTLINE
  6
Continuous
100
AcDbLine
 10
445.902123973614
 20
735.7808519294787
 30
0.0
 11
-454.3516227028748
 21
353.645808266968
 31
0.0
  0
LINE
  5
223
330
6F
100
AcDbEntity
  8
OUTLINE
  6
Continuous
100
AcDbLine
 10
-499.4391106671305
 20
331.9000401942375
 30
0.0
 11
-453.4138679945075
 21
351.4365966186996
 31
0.0
  0
LINE
  5
224
330
6F
100
AcDbEntity
  8
OUTLINE
  6
Continuous
100
AcDbLine
 10
445.902123973614
 20
735.7808519294787
 30
0.0
 11
-454.3516227028748
 21
353.645808266968
 31
0.0
  0
LINE
  5
225
330
6F
100
AcDbEntity
  8
OUTLINE
  6
Continuous
100
AcDbLine
 10
-454.3516227028821
 20
353.6458082669857
 30
0.0
 11
-453.4138679945075
 21
351.4365966186996
 31
0.0
  0
LINE
  5
226
330
6F
100
AcDbEntity
  8
OUTLINE
  6
Continuous
100
AcDbLine
 10
-499.4391106671305
 20
331.9000401942375
 30
0.0
 11
-504.736847916762
 21
318.7876803748209
 31
0.0
  0
LINE
  5
227
330
6F
100
AcDbEntity
  8
OUTLINE
  6
Continuous
100
AcDbLine
 10
-497.8599800553503
 20
302.5867949540584
 30
0.0
 11
-504.736847916762
 21
318.7876803748209
 31
0.0
  0
LINE
  5
228
330
6F
100
AcDbEntity
  8
OUTLINE
  6
Continuous
100
AcDbLine
 10
-497.8599800553503
 20
302.5867949540584
 30
0.0
 11
-484.7476202359326
 21
297.2890577044264
 31
0.0
  0
LINE
  5
229
330
6F
100
AcDbEntity
  8
OUTLINE
  6
Continuous
100
AcDbLine
 10
445.902123973614
 20
735.7808519294787
 30
0.0
 11
-454.3516227028748
 21
353.645808266968
 31
0.0
  0
LINE
  5
22A
330
6F
100
AcDbEntity
  8
OUTLINE
  6
Continuous
100
AcDbLine
 10
445.902123973614
 20
735.7808519294787
 30
0.0
 11
-454.3516227028748
 21
353.645808266968
 31
0.0
  0
LINE
  5
22B
330
6F
100
AcDbEntity
  8
OUTLINE
  6
Continuous
100
AcDbLine
 10
445.902123973614
 20
735.7808519294787
 30
0.0
 11
-454.3516227028748
 21
353.645808266968
 31
0.0
  0
LINE
  5
22C
330
6F
100
AcDbEntity
  8
OUTLINE
  6
Continuous
100
AcDbLine
 10
445.902123973614
 20
735.7808519294787
 30
0.0
 11
-454.3516227028748
 21
353.645808266968
 31
0.0
  0
LINE
  5
22D
330
6F
100
AcDbEntity
  8
OUTLINE
  6
Continuous
100
AcDbLine
 10
445.902123973614
 20
735.7808519294787
 30
0.0
 11
446.8398786819882
 21
733.5716402811923
 31
0.0
  0
LINE
  5
22E
330
6F
100
AcDbEntity
  8
OUTLINE
  6
Continuous
100
AcDbLine
 10
492.8651213546102
 20
753.1081967056564
 30
0.0
 11
446.8398786819882
 21
733.5716402811923
 31
0.0
  0
LINE
  5
22F
330
6F
100
AcDbEntity
  8
OUTLINE
  6
Continuous
100
AcDbLine
 10
492.8651213546102
 20
753.1081967056564
 30
0.0
 11
505.9774811740265
 21
747.8104594560242
 31
0.0
  0
LINE
  5
230
330
6F
100
AcDbEntity
  8
OUTLINE
  6
Continuous
100
AcDbLine
 10
512.8543490354368
 20
731.6095740352609
 30
0.0
 11
505.9774811740265
 21
747.8104594560242
 31
0.0
  0
LINE
  5
231
330
6F
100
AcDbEntity
  8
OUTLINE
  6
Continuous
100
AcDbLine
 10
512.8543490354368
 20
731.6095740352609
 30
0.0
 11
507.5566117858041
 21
718.4972142158438
 31
0.0
  0
LINE
  5
232
330
6F
100
AcDbEntity
  8
OUTLINE
  6
Continuous
100
AcDbLine
 10
49.68745118729585
 20
524.1432864227459
 30
0.0
 11
453.9566267116783
 21
352.5412024428252
 31
0.0
  0
LINE
  5
233
330
6F
100
AcDbEntity
  8
OUTLINE
  6
Continuous
100
AcDbLine
 10
-446.2971199648103
 20
734.6762461053357
 30
0.0
 11
-1.498642117652992
 21
545.8704939708518
 31
0.0
  0
LINE
  5
234
330
6F
100
AcDbEntity
  8
OUTLINE
  6
Continuous
100
AcDbLine
 10
472.5369406814952
 20
343.3506946325054
 30
0.0
 11
453.4877493574986
 21
351.4365966186997
 31
0.0
  0
LINE
  5
235
330
6F
100
AcDbEntity
  8
OUTLINE
  6
Continuous
100
AcDbLine
 10
454.4255040658728
 20
353.6458082669858
 30
0.0
 11
453.4877493574986
 21
351.4365966186997
 31
0.0
  0
LINE
  5
236
330
6F
100
AcDbEntity
  8
DETAIL
  6
DASHED
100
AcDbLine
 10
477.5369406814943
 20
840.0000000000009
 30
0.0
 11
472.5369406814943
 21
845.0000000000013
 31
0.0
  0
LINE
  5
237
330
6F
100
AcDbEntity
  8
DETAIL
  6
DASHED
100
AcDbLine
 10
510.5369406814943
 20
840.0000000000009
 30
0.0
 11
477.5369406814943
 21
840.0000000000009
 31
0.0
  0
CIRCLE
  5
238
330
6F
100
AcDbEntity
  8
DETAIL
  6
Continuous
100
AcDbCircle
 10
490.536940681494
 20
884.9999999999978
 30
0.0
 40
5.0
  0
CIRCLE
  5
239
330
6F
100
AcDbEntity
  8
DETAIL
  6
Continuous
100
AcDbCircle
 10
490.536940681494
 20
934.999999999998
 30
0.0
 40
5.0
  0
CIRCLE
  5
23C
330
6F
100
AcDbEntity
  8
DETAIL
  6
Continuous
100
AcDbCircle
 10
-490.4630593185037
 20
885.0
 30
0.0
 40
5.0
  0
CIRCLE
  5
23D
330
6F
100
AcDbEntity
  8
DETAIL
  6
Continuous
100
AcDbCircle
 10
-490.4630593185037
 20
935.0000000000003
 30
0.0
 40
5.0
  0
ARC
  5
23E
330
6F
100
AcDbEntity
  8
DETAIL
  6
Continuous
100
AcDbCircle
 10
-490.4630593185037
 20
1555.7
 30
0.0
 40
4.650000000001455
100
AcDbArc
 50
0.0
 51
180.0
  0
ARC
  5
23F
330
6F
100
AcDbEntity
  8
DETAIL
  6
Continuous
100
AcDbCircle
 10
-490.4630593185037
 20
1535.0
 30
0.0
 40
4.649999999994173
100
AcDbArc
 50
180.0
 51
0.0
  0
LINE
  5
240
330
6F
100
AcDbEntity
  8
DETAIL
  6
Continuous
100
AcDbLine
 10
-485.8130593185022
 20
1535.0
 30
0.0
 11
-485.8130593185022
 21
1555.7
 31
0.0
  0
LINE
  5
241
330
6F
100
AcDbEntity
  8
DETAIL
  6
Continuous
100
AcDbLine
 10
-495.1130593184976
 20
1555.7
 30
0.0
 11
-495.1130593184976
 21
1535.0
 31
0.0
  0
LINE
  5
246
330
6F
100
AcDbEntity
  8
DETAIL
  6
Continuous
100
AcDbLine
 10
-549.9630593185037
 20
1950.000000000001
 30
0.0
 11
550.0369406814963
 21
1950.000000000001
 31
0.0
  0
LINE
  5
247
330
6F
100
AcDbEntity
  8
DETAIL
  6
Continuous
100
AcDbLine
 10
-549.9630593185037
 20
1680.000000000001
 30
0.0
 11
550.0369406814963
 21
1680.000000000001
 31
0.0
  0
LINE
  5
248
330
6F
100
AcDbEntity
  8
DETAIL
  6
Continuous
100
AcDbLine
 10
550.0369406814963
 20
1950.000000000001
 30
0.0
 11
550.0369406814963
 21
1632.000000000001
 31
0.0
  0
LINE
  5
249
330
6F
100
AcDbEntity
  8
DETAIL
  6
Continuous
100
AcDbLine
 10
-549.9630593185037
 20
1632.000000000001
 30
0.0
 11
550.0369406814963
 21
1632.000000000001
 31
0.0
  0
LINE
  5
24A
330
6F
100
AcDbEntity
  8
DETAIL
  6
Continuous
100
AcDbLine
 10
-549.9630593185037
 20
1950.000000000001
 30
0.0
 11
-549.9630593185037
 21
1632.000000000001
 31
0.0
  0
LINE
  5
24B
330
6F
100
AcDbEntity
  8
DETAIL
  6
Continuous
100
AcDbLine
 10
510.5369406814943
 20
1632.000000000001
 30
0.0
 11
510.5369406814943
 21
957.0
 31
0.0
  0
LINE
  5
24C
330
6F
100
AcDbEntity
  8
DETAIL
  6
Continuous
100
AcDbLine
 10
472.5369406814943
 20
845.0000000000013
 30
0.0
 11
472.5369406814942
 21
1632.000000000001
 31
0.0
  0
LINE
  5
24D
330
6F
100
AcDbEntity
  8
DETAIL
  6
Continuous
100
AcDbLine
 10
-472.463059318504
 20
845.0000000000008
 30
0.0
 11
-472.463059318504
 21
1632.000000000001
 31
0.0
  0
LINE
  5
24E
330
6F
100
AcDbEntity
  8
DETAIL
  6
Continuous
100
AcDbLine
 10
-510.4630593185037
 20
1632.000000000001
 30
0.0
 11
-510.4630593185044
 21
957.0
 31
0.0
  0
LINE
  5
24F
330
6F
100
AcDbEntity
  8
DETAIL
  6
Continuous
100
AcDbLine
 10
470.5369406814951
 20
0.0
 30
0.0
 11
514.8369406814952
 21
0.0
 31
0.0
  0
LINE
  5
250
330
6F
100
AcDbEntity
  8
DETAIL
  6
Continuous
100
AcDbLine
 10
482.5369406814951
 20
960.0
 30
0.0
 11
512.5369406814952
 21
960.0
 31
0.0
  0
LINE
  5
251
330
6F
100
AcDbEntity
  8
DETAIL
  6
Continuous
100
AcDbLine
 10
472.5369406814952
 20
950.0
 30
0.0
 11
472.5369406814951
 21
744.47939595056
 31
0.0
  0
LINE
  5
252
330
6F
100
AcDbEntity
  8
DETAIL
  6
Continuous
100
AcDbLine
 10
512.5369406814952
 20
960.0
 30
0.0
 11
512.5369406814952
 21
60.0
 31
0.0
  0
LINE
  5
253
330
6F
100
AcDbEntity
  8
DETAIL
  6
Continuous
100
AcDbLine
 10
495.5369406814951
 20
948.0000000000003
 30
0.0
 11
495.5369406814951
 21
922.0
 31
0.0
  0
LINE
  5
254
330
6F
100
AcDbEntity
  8
DETAIL
  6
Continuous
100
AcDbLine
 10
485.5369406814951
 20
948.0000000000003
 30
0.0
 11
485.5369406814951
 21
922.0
 31
0.0
  0
ARC
  5
255
330
6F
100
AcDbEntity
  8
DETAIL
  6
Continuous
100
AcDbCircle
 10
490.5369406814951
 20
948.0000000000003
 30
0.0
 40
5.0
100
AcDbArc
 50
0.0
 51
180.0
  0
ARC
  5
256
330
6F
100
AcDbEntity
  8
DETAIL
  6
Continuous
100
AcDbCircle
 10
490.5369406814951
 20
922.0
 30
0.0
 40
5.0
100
AcDbArc
 50
180.0
 51
0.0
  0
LINE
  5
257
330
6F
100
AcDbEntity
  8
DETAIL
  6
Continuous
100
AcDbLine
 10
470.5369406814951
 20
55.0
 30
0.0
 11
514.8369406814952
 21
55.0
 31
0.0
  0
LINE
  5
258
330
6F
100
AcDbEntity
  8
DETAIL
  6
Continuous
100
AcDbLine
 10
470.5369406814951
 20
0.0
 30
0.0
 11
470.5369406814951
 21
55.0
 31
0.0
  0
LINE
  5
259
330
6F
100
AcDbEntity
  8
DETAIL
  6
Continuous
100
AcDbLine
 10
514.8369406814952
 20
0.0
 30
0.0
 11
514.8369406814952
 21
55.0
 31
0.0
  0
LINE
  5
25A
330
6F
100
AcDbEntity
  8
DETAIL
  6
Continuous
100
AcDbLine
 10
-470.4630593185044
 20
-0.000000000000057
 30
0.0
 11
-514.7630593185043
 21
-0.000000000000062
 31
0.0
  0
LINE
  5
25B
330
6F
100
AcDbEntity
  8
DETAIL
  6
Continuous
100
AcDbLine
 10
-470.4630593185044
 20
-0.000000000000057
 30
0.0
 11
-470.4630593185044
 21
54.99999999999993
 31
0.0
  0
LINE
  5
25C
330
6F
100
AcDbEntity
  8
DETAIL
  6
Continuous
100
AcDbLine
 10
-514.7630593185043
 20
-0.000000000000062
 30
0.0
 11
-514.7630593185043
 21
54.99999999999993
 31
0.0
  0
LINE
  5
25D
330
6F
100
AcDbEntity
  8
DETAIL
  6
Continuous
100
AcDbLine
 10
-512.4630593185043
 20
960.0
 30
0.0
 11
-512.4630593185043
 21
59.99999999999993
 31
0.0
  0
LINE
  5
25E
330
6F
100
AcDbEntity
  8
DETAIL
  6
Continuous
100
AcDbLine
 10
-472.4630593185043
 20
950.0
 30
0.0
 11
-472.463059318504
 21
343.3506946325055
 31
0.0
  0
LINE
  5
25F
330
6F
100
AcDbEntity
  8
DETAIL
  6
Continuous
100
AcDbLine
 10
-470.4630593185044
 20
54.99999999999993
 30
0.0
 11
-514.7630593185043
 21
54.99999999999993
 31
0.0
  0
LINE
  5
260
330
6F
100
AcDbEntity
  8
DETAIL
  6
Continuous
100
AcDbLine
 10
-482.4630593185045
 20
960.0
 30
0.0
 11
-512.4630593185043
 21
960.0
 31
0.0
  0
LINE
  5
261
330
6F
100
AcDbEntity
  8
DETAIL
  6
Continuous
100
AcDbLine
 10
-472.4630593185043
 20
255.0000000000001
 30
0.0
 11
472.5369406814952
 21
255.0000000000001
 31
0.0
  0
LINE
  5
262
330
6F
100
AcDbEntity
  8
DETAIL
  6
Continuous
100
AcDbLine
 10
-472.463059318504
 20
800.0
 30
0.0
 11
472.5369406814952
 21
800.0
 31
0.0
  0
LINE
  5
263
330
6F
100
AcDbEntity
  8
DETAIL
  6
Continuous
100
AcDbLine
 10
472.5369406814955
 20
703.6322457601213
 30
0.0
 11
472.5369406814951
 21
60.0
 31
0.0
  0
LINE
  5
264
330
6F
100
AcDbEntity
  8
DETAIL
  6
Continuous
100
AcDbLine
 10
-472.4630593185043
 20
302.503544442045
 30
0.0
 11
-472.4630593185043
 21
59.99999999999993
 31
0.0
  0
LINE
  5
265
330
6F
100
AcDbEntity
  8
DETAIL
  6
Continuous
100
AcDbLine
 10
-472.463059318504
 20
759.9826270697824
 30
0.0
 11
472.5369406814951
 21
760.0000091968921
 31
0.0
  0
LINE
  5
266
330
6F
100
AcDbEntity
  8
DETAIL
  6
Continuous
100
AcDbLine
 10
-472.4630593185043
 20
215.0000000000001
 30
0.0
 11
472.5369406814952
 21
215.0000000000001
 31
0.0
  0
LINE
  5
267
330
6F
100
AcDbEntity
  8
DETAIL
  6
DASHED
100
AcDbLine
 10
472.5369406814951
 20
9.800000000000247
 30
0.0
 11
512.5369406814952
 21
9.800000000000132
 31
0.0
  0
ARC
  5
268
330
6F
100
AcDbEntity
  8
DETAIL
  6
DASHED
100
AcDbCircle
 10
490.5369406814951
 20
37.50000000000019
 30
0.0
 40
5.0
100
AcDbArc
 50
180.0
 51
0.0
  0
ARC
  5
269
330
6F
100
AcDbEntity
  8
DETAIL
  6
DASHED
100
AcDbCircle
 10
490.5369406814951
 20
42.50000000000018
 30
0.0
 40
5.0
100
AcDbArc
 50
0.0
 51
180.0
  0
LINE
  5
26A
330
6F
100
AcDbEntity
  8
DETAIL
  6
DASHED
100
AcDbLine
 10
485.5369406814951
 20
42.50000000000018
 30
0.0
 11
485.5369406814951
 21
37.50000000000019
 31
0.0
  0
LINE
  5
26B
330
6F
100
AcDbEntity
  8
DETAIL
  6
DASHED
100
AcDbLine
 10
495.5369406814951
 20
42.50000000000018
 30
0.0
 11
495.5369406814951
 21
37.50000000000019
 31
0.0
  0
ARC
  5
26C
330
6F
100
AcDbEntity
  8
DETAIL
  6
Continuous
100
AcDbCircle
 10
-482.4630593185045
 20
950.0
 30
0.0
 40
10.0
100
AcDbArc
 50
0.0
 51
90.0
  0
ARC
  5
26D
330
6F
100
AcDbEntity
  8
DETAIL
  6
Continuous
100
AcDbCircle
 10
482.5369406814951
 20
950.0
 30
0.0
 40
10.00000000000011
100
AcDbArc
 50
90.0
 51
180.0
  0
LINE
  5
26E
330
6F
100
AcDbEntity
  8
DETAIL
  6
DASHED
100
AcDbLine
 10
512.5369406814952
 20
60.0
 30
0.0
 11
512.5369406814952
 21
9.800000000000132
 31
0.0
  0
LINE
  5
26F
330
6F
100
AcDbEntity
  8
DETAIL
  6
DASHED
100
AcDbLine
 10
472.5369406814952
 20
60.0
 30
0.0
 11
472.5369406814951
 21
9.800000000000247
 31
0.0
  0
LINE
  5
270
330
6F
100
AcDbEntity
  8
DETAIL
  6
DASHED
100
AcDbLine
 10
-472.4630593185043
 20
9.800000000000187
 30
0.0
 11
-512.4630593185043
 21
9.800000000000068
 31
0.0
  0
LINE
  5
271
330
6F
100
AcDbEntity
  8
DETAIL
  6
DASHED
100
AcDbLine
 10
-472.4630593185043
 20
59.99999999999993
 30
0.0
 11
-472.4630593185043
 21
9.800000000000187
 31
0.0
  0
LINE
  5
272
330
6F
100
AcDbEntity
  8
DETAIL
  6
DASHED
100
AcDbLine
 10
-512.4630593185043
 20
59.99999999999993
 30
0.0
 11
-512.4630593185043
 21
9.800000000000068
 31
0.0
  0
LINE
  5
273
330
6F
100
AcDbEntity
  8
DETAIL
  6
Continuous
100
AcDbLine
 10
305.9369406814953
 20
800.0
 30
0.0
 11
305.9369406814953
 21
801.6
 31
0.0
  0
LINE
  5
274
330
6F
100
AcDbEntity
  8
DETAIL
  6
Continuous
100
AcDbLine
 10
277.5369406814952
 20
801.6
 30
0.0
 11
305.9369406814953
 21
801.6
 31
0.0
  0
LINE
  5
275
330
6F
100
AcDbEntity
  8
DETAIL
  6
Continuous
100
AcDbLine
 10
275.9369406814954
 20
813.4
 30
0.0
 11
275.9369406814954
 21
800.0
 31
0.0
  0
LINE
  5
276
330
6F
100
AcDbEntity
  8
DETAIL
  6
Continuous
100
AcDbLine
 10
277.5369406814952
 20
815.0
 30
0.0
 11
277.5369406814952
 21
801.6
 31
0.0
  0
LINE
  5
277
330
6F
100
AcDbEntity
  8
DETAIL
  6
Continuous
100
AcDbLine
 10
222.5369406814952
 20
815.0
 30
0.0
 11
277.5369406814952
 21
815.0
 31
0.0
  0
LINE
  5
278
330
6F
100
AcDbEntity
  8
DETAIL
  6
Continuous
100
AcDbLine
 10
224.1369406814952
 20
813.4000000000003
 30
0.0
 11
275.9369406814954
 21
813.4
 31
0.0
  0
LINE
  5
279
330
6F
100
AcDbEntity
  8
DETAIL
  6
Continuous
100
AcDbLine
 10
275.9369406814954
 20
800.0
 30
0.0
 11
305.9369406814953
 21
800.0
 31
0.0
  0
LINE
  5
27A
330
6F
100
AcDbEntity
  8
DETAIL
  6
Continuous
100
AcDbLine
 10
222.5369406814952
 20
801.6
 30
0.0
 11
194.1369406814951
 21
801.6
 31
0.0
  0
LINE
  5
27B
330
6F
100
AcDbEntity
  8
DETAIL
  6
Continuous
100
AcDbLine
 10
222.5369406814952
 20
815.0
 30
0.0
 11
222.5369406814952
 21
801.6
 31
0.0
  0
LINE
  5
27C
330
6F
100
AcDbEntity
  8
DETAIL
  6
Continuous
100
AcDbLine
 10
224.1369406814952
 20
813.4
 30
0.0
 11
224.1369406814952
 21
800.0
 31
0.0
  0
LINE
  5
27D
330
6F
100
AcDbEntity
  8
DETAIL
  6
Continuous
100
AcDbLine
 10
224.1369406814952
 20
800.0
 30
0.0
 11
194.1369406814951
 21
800.0
 31
0.0
  0
LINE
  5
27E
330
6F
100
AcDbEntity
  8
DETAIL
  6
Continuous
100
AcDbLine
 10
194.1369406814951
 20
800.0
 30
0.0
 11
194.1369406814951
 21
801.6
 31
0.0
  0
LINE
  5
27F
330
6F
100
AcDbEntity
  8
DETAIL
  6
Continuous
100
AcDbLine
 10
-305.8630593185046
 20
800.0
 30
0.0
 11
-305.8630593185046
 21
801.6
 31
0.0
  0
LINE
  5
280
330
6F
100
AcDbEntity
  8
DETAIL
  6
Continuous
100
AcDbLine
 10
-222.4630593185044
 20
815.0
 30
0.0
 11
-277.4630593185046
 21
815.0
 31
0.0
  0
LINE
  5
281
330
6F
100
AcDbEntity
  8
DETAIL
  6
Continuous
100
AcDbLine
 10
-224.0630593185044
 20
813.4000000000003
 30
0.0
 11
-275.8630593185045
 21
813.4
 31
0.0
  0
LINE
  5
282
330
6F
100
AcDbEntity
  8
DETAIL
  6
Continuous
100
AcDbLine
 10
-222.4630593185044
 20
801.6
 30
0.0
 11
-194.0630593185044
 21
801.6
 31
0.0
  0
LINE
  5
283
330
6F
100
AcDbEntity
  8
DETAIL
  6
Continuous
100
AcDbLine
 10
-222.4630593185044
 20
815.0
 30
0.0
 11
-222.4630593185044
 21
801.6
 31
0.0
  0
LINE
  5
284
330
6F
100
AcDbEntity
  8
DETAIL
  6
Continuous
100
AcDbLine
 10
-224.0630593185044
 20
813.4
 30
0.0
 11
-224.0630593185044
 21
800.0
 31
0.0
  0
LINE
  5
285
330
6F
100
AcDbEntity
  8
DETAIL
  6
Continuous
100
AcDbLine
 10
-224.0630593185044
 20
800.0
 30
0.0
 11
-194.0630593185044
 21
800.0
 31
0.0
  0
LINE
  5
286
330
6F
100
AcDbEntity
  8
DETAIL
  6
Continuous
100
AcDbLine
 10
-194.0630593185044
 20
800.0
 30
0.0
 11
-194.0630593185044
 21
801.6
 31
0.0
  0
LINE
  5
287
330
6F
100
AcDbEntity
  8
DETAIL
  6
Continuous
100
AcDbLine
 10
-277.4630593185046
 20
801.6
 30
0.0
 11
-305.8630593185046
 21
801.6
 31
0.0
  0
LINE
  5
288
330
6F
100
AcDbEntity
  8
DETAIL
  6
Continuous
100
AcDbLine
 10
-277.4630593185046
 20
815.0
 30
0.0
 11
-277.4630593185046
 21
801.6
 31
0.0
  0
LINE
  5
289
330
6F
100
AcDbEntity
  8
DETAIL
  6
Continuous
100
AcDbLine
 10
-275.8630593185045
 20
813.4
 30
0.0
 11
-275.8630593185045
 21
800.0
 31
0.0
  0
LINE
  5
28A
330
6F
100
AcDbEntity
  8
DETAIL
  6
Continuous
100
AcDbLine
 10
-275.8630593185045
 20
800.0
 30
0.0
 11
-305.8630593185046
 21
800.0
 31
0.0
  0
ARC
  5
28B
330
6F
100
AcDbEntity
  8
DETAIL
  6
Continuous
100
AcDbCircle
 10
-547.4630593185045
 20
899.7176822079437
 30
0.0
 40
5.0
100
AcDbArc
 50
90.0
 51
180.0
  0
LINE
  5
28C
330
6F
100
AcDbEntity
  8
DETAIL
  6
Continuous
100
AcDbLine
 10
-552.4630593185045
 20
869.7176822079439
 30
0.0
 11
-552.4630593185045
 21
899.7176822079437
 31
0.0
  0
ARC
  5
28D
330
6F
100
AcDbEntity
  8
DETAIL
  6
Continuous
100
AcDbCircle
 10
-547.4630593185045
 20
869.7176822079439
 30
0.0
 40
5.0
100
AcDbArc
 50
180.0
 51
270.0
  0
LINE
  5
28E
330
6F
100
AcDbEntity
  8
DETAIL
  6
Continuous
100
AcDbLine
 10
-514.4630593185045
 20
864.7176822079442
 30
0.0
 11
-514.4630593185045
 21
904.7176822079435
 31
0.0
  0
LINE
  5
28F
330
6F
100
AcDbEntity
  8
DETAIL
  6
Continuous
100
AcDbLine
 10
-512.4630593185043
 20
864.7176822079442
 30
0.0
 11
-512.4630593185043
 21
904.7176822079435
 31
0.0
  0
LINE
  5
290
330
6F
100
AcDbEntity
  8
DETAIL
  6
Continuous
100
AcDbLine
 10
-512.4630593185043
 20
904.7176822079435
 30
0.0
 11
-547.4630593185045
 21
904.7176822079435
 31
0.0
  0
LINE
  5
291
330
6F
100
AcDbEntity
  8
DETAIL
  6
Continuous
100
AcDbLine
 10
-512.4630593185043
 20
864.7176822079442
 30
0.0
 11
-547.4630593185045
 21
864.7176822079442
 31
0.0
  0
ARC
  5
292
330
6F
100
AcDbEntity
  8
DETAIL
  6
Continuous
100
AcDbCircle
 10
547.5369406814949
 20
869.7176822079416
 30
0.0
 40
5.0
100
AcDbArc
 50
270.0
 51
0.0
  0
ARC
  5
293
330
6F
100
AcDbEntity
  8
DETAIL
  6
Continuous
100
AcDbCircle
 10
547.5369406814949
 20
899.7176822079415
 30
0.0
 40
5.0
100
AcDbArc
 50
0.0
 51
90.0
  0
LINE
  5
294
330
6F
100
AcDbEntity
  8
DETAIL
  6
Continuous
100
AcDbLine
 10
512.5369406814951
 20
864.7176822079417
 30
0.0
 11
547.5369406814949
 21
864.7176822079417
 31
0.0
  0
LINE
  5
295
330
6F
100
AcDbEntity
  8
DETAIL
  6
Continuous
100
AcDbLine
 10
512.5369406814951
 20
904.7176822079414
 30
0.0
 11
547.5369406814949
 21
904.7176822079414
 31
0.0
  0
LINE
  5
296
330
6F
100
AcDbEntity
  8
DETAIL
  6
Continuous
100
AcDbLine
 10
512.5369406814951
 20
864.7176822079417
 30
0.0
 11
512.5369406814951
 21
904.7176822079414
 31
0.0
  0
LINE
  5
297
330
6F
100
AcDbEntity
  8
DETAIL
  6
Continuous
100
AcDbLine
 10
514.5369406814949
 20
864.7176822079417
 30
0.0
 11
514.5369406814949
 21
904.7176822079414
 31
0.0
  0
LINE
  5
298
330
6F
100
AcDbEntity
  8
DETAIL
  6
Continuous
100
AcDbLine
 10
552.5369406814949
 20
869.7176822079416
 30
0.0
 11
552.5369406814949
 21
899.7176822079415
 31
0.0
  0
LINE
  5
299
330
6F
100
AcDbEntity
  8
DETAIL
  6
Continuous
100
AcDbLine
 10
-454.3516227028821
 20
353.6458082669857
 30
0.0
 11
-453.4138679945075
 21
351.4365966186996
 31
0.0
  0
LINE
  5
29A
330
6F
100
AcDbEntity
  8
DETAIL
  6
Continuous
100
AcDbLine
 10
445.902123973614
 20
735.7808519294787
 30
0.0
 11
-454.3516227028748
 21
353.645808266968
 31
0.0
  0
LINE
  5
29B
330
6F
100
AcDbEntity
  8
DETAIL
  6
Continuous
100
AcDbLine
 10
-499.4391106671305
 20
331.9000401942375
 30
0.0
 11
-453.4138679945075
 21
351.4365966186996
 31
0.0
  0
LINE
  5
29C
330
6F
100
AcDbEntity
  8
DETAIL
  6
Continuous
100
AcDbLine
 10
-499.4391106671305
 20
331.9000401942375
 30
0.0
 11
-504.736847916762
 21
318.7876803748209
 31
0.0
  0
LINE
  5
29D
330
6F
100
AcDbEntity
  8
DETAIL
  6
Continuous
100
AcDbLine
 10
-497.8599800553503
 20
302.5867949540584
 30
0.0
 11
-484.7476202359326
 21
297.2890577044264
 31
0.0
  0
LINE
  5
29E
330
6F
100
AcDbEntity
  8
DETAIL
  6
Continuous
100
AcDbLine
 10
-497.8599800553503
 20
302.5867949540584
 30
0.0
 11
-504.736847916762
 21
318.7876803748209
 31
0.0
  0
ARC
  5
29F
330
6F
100
AcDbEntity
  8
DETAIL
  6
Continuous
100
AcDbCircle
 10
-492.8844195044193
 20
315.5623988784846
 30
0.0
 40
4.649999999999992
100
AcDbArc
 50
112.9999999999979
 51
292.9999999999995
  0
LINE
  5
2A0
330
6F
100
AcDbEntity
  8
DETAIL
  6
Continuous
100
AcDbLine
 10
-472.0130692904781
 20
319.3701856696589
 30
0.0
 11
-491.0675197569442
 21
311.2820513099308
 31
0.0
  0
LINE
  5
2A1
330
6F
100
AcDbEntity
  8
DETAIL
  6
Continuous
100
AcDbLine
 10
-475.6468687854284
 20
327.9308808067666
 30
0.0
 11
-494.7013192518942
 21
319.8427464470385
 31
0.0
  0
ARC
  5
2A2
330
6F
100
AcDbEntity
  8
DETAIL
  6
Continuous
100
AcDbCircle
 10
-473.8299690379533
 20
323.6505332382127
 30
0.0
 40
4.649999999999976
100
AcDbArc
 50
293.000000000001
 51
112.9999999999988
  0
LINE
  5
2A3
330
6F
100
AcDbEntity
  8
DETAIL
  6
Continuous
100
AcDbLine
 10
512.8543490354368
 20
731.6095740352609
 30
0.0
 11
507.5566117858041
 21
718.4972142158438
 31
0.0
  0
LINE
  5
2A4
330
6F
100
AcDbEntity
  8
DETAIL
  6
Continuous
100
AcDbLine
 10
512.8543490354368
 20
731.6095740352609
 30
0.0
 11
505.9774811740265
 21
747.8104594560242
 31
0.0
  0
LINE
  5
2A5
330
6F
100
AcDbEntity
  8
DETAIL
  6
Continuous
100
AcDbLine
 10
492.8651213546102
 20
753.1081967056564
 30
0.0
 11
505.9774811740265
 21
747.8104594560242
 31
0.0
  0
CIRCLE
  5
2A6
330
6F
100
AcDbEntity
  8
DETAIL
  6
Continuous
100
AcDbCircle
 10
490.5369406814951
 20
728.0
 30
0.0
 40
5.0
  0
LINE
  5
2A7
330
6F
100
AcDbEntity
  8
DETAIL
  6
Continuous
100
AcDbLine
 10
445.902123973614
 20
735.7808519294787
 30
0.0
 11
446.8398786819882
 21
733.5716402811923
 31
0.0
  0
LINE
  5
2A8
330
6F
100
AcDbEntity
  8
DETAIL
  6
Continuous
100
AcDbLine
 10
492.8651213546102
 20
753.1081967056564
 30
0.0
 11
446.8398786819882
 21
733.5716402811923
 31
0.0
  0
LINE
  5
2A9
330
6F
100
AcDbEntity
  8
DETAIL
  6
Continuous
100
AcDbLine
 10
507.5566117858041
 20
718.4972142158438
 30
0.0
 11
-484.7476202359056
 21
297.2890577044154
 31
0.0
  0
ARC
  5
2AA
330
6F
100
AcDbEntity
  8
DETAIL
  6
Continuous
100
AcDbCircle
 10
490.5369406814951
 20
872.0
 30
0.0
 40
5.0
100
AcDbArc
 50
180.0
 51
0.0
  0
ARC
  5
2AB
330
6F
100
AcDbEntity
  8
DETAIL
  6
Continuous
100
AcDbCircle
 10
490.5369406814951
 20
898.0000000000003
 30
0.0
 40
5.0
100
AcDbArc
 50
0.0
 51
180.0
  0
LINE
  5
2AC
330
6F
100
AcDbEntity
  8
DETAIL
  6
Continuous
100
AcDbLine
 10
485.5369406814951
 20
898.0000000000003
 30
0.0
 11
485.5369406814951
 21
872.0
 31
0.0
  0
LINE
  5
2AD
330
6F
100
AcDbEntity
  8
DETAIL
  6
Continuous
100
AcDbLine
 10
495.5369406814951
 20
898.0000000000003
 30
0.0
 11
495.5369406814951
 21
872.0
 31
0.0
  0
ARC
  5
2AE
330
6F
100
AcDbEntity
  8
DETAIL
  6
Continuous
100
AcDbCircle
 10
490.5369406814951
 20
822.0
 30
0.0
 40
5.0
100
AcDbArc
 50
180.0
 51
0.0
  0
ARC
  5
2AF
330
6F
100
AcDbEntity
  8
DETAIL
  6
Continuous
100
AcDbCircle
 10
490.5369406814951
 20
848.0
 30
0.0
 40
5.0
100
AcDbArc
 50
0.0
 51
180.0
  0
LINE
  5
2B0
330
6F
100
AcDbEntity
  8
DETAIL
  6
Continuous
100
AcDbLine
 10
485.5369406814951
 20
848.0
 30
0.0
 11
485.5369406814951
 21
822.0
 31
0.0
  0
LINE
  5
2B1
330
6F
100
AcDbEntity
  8
DETAIL
  6
Continuous
100
AcDbLine
 10
495.5369406814951
 20
848.0
 30
0.0
 11
495.5369406814951
 21
822.0
 31
0.0
  0
ARC
  5
2B2
330
6F
100
AcDbEntity
  8
DETAIL
  6
Continuous
100
AcDbCircle
 10
490.5369406814951
 20
772.0000000000001
 30
0.0
 40
5.0
100
AcDbArc
 50
180.0
 51
0.0
  0
ARC
  5
2B3
330
6F
100
AcDbEntity
  8
DETAIL
  6
Continuous
100
AcDbCircle
 10
490.5369406814951
 20
798.0000000000001
 30
0.0
 40
5.0
100
AcDbArc
 50
0.0
 51
180.0
  0
LINE
  5
2B4
330
6F
100
AcDbEntity
  8
DETAIL
  6
Continuous
100
AcDbLine
 10
485.5369406814951
 20
798.0000000000001
 30
0.0
 11
485.5369406814951
 21
772.0000000000001
 31
0.0
  0
LINE
  5
2B5
330
6F
100
AcDbEntity
  8
DETAIL
  6
Continuous
100
AcDbLine
 10
495.5369406814951
 20
798.0000000000001
 30
0.0
 11
495.5369406814951
 21
772.0000000000001
 31
0.0
  0
ARC
  5
2B6
330
6F
100
AcDbEntity
  8
DETAIL
  6
Continuous
100
AcDbCircle
 10
490.5369406814951
 20
722.0000000000001
 30
0.0
 40
5.0
100
AcDbArc
 50
180.0
 51
0.0
  0
ARC
  5
2B7
330
6F
100
AcDbEntity
  8
DETAIL
  6
Continuous
100
AcDbCircle
 10
490.5369406814951
 20
748.0000000000001
 30
0.0
 40
5.0
100
AcDbArc
 50
0.0
 51
180.0
  0
LINE
  5
2B8
330
6F
100
AcDbEntity
  8
DETAIL
  6
Continuous
100
AcDbLine
 10
485.5369406814951
 20
748.0000000000001
 30
0.0
 11
485.5369406814951
 21
722.0000000000001
 31
0.0
  0
LINE
  5
2B9
330
6F
100
AcDbEntity
  8
DETAIL
  6
Continuous
100
AcDbLine
 10
495.5369406814951
 20
748.0000000000001
 30
0.0
 11
495.5369406814951
 21
722.0000000000001
 31
0.0
  0
ARC
  5
2BA
330
6F
100
AcDbEntity
  8
DETAIL
  6
Continuous
100
AcDbCircle
 10
490.5369406814951
 20
672.0000000000001
 30
0.0
 40
5.0
100
AcDbArc
 50
180.0
 51
0.0
  0
ARC
  5
2BB
330
6F
100
AcDbEntity
  8
DETAIL
  6
Continuous
100
AcDbCircle
 10
490.5369406814951
 20
698.0000000000001
 30
0.0
 40
5.0
100
AcDbArc
 50
0.0
 51
180.0
  0
LINE
  5
2BC
330
6F
100
AcDbEntity
  8
DETAIL
  6
Continuous
100
AcDbLine
 10
485.5369406814951
 20
698.0000000000001
 30
0.0
 11
485.5369406814951
 21
672.0000000000001
 31
0.0
  0
LINE
  5
2BD
330
6F
100
AcDbEntity
  8
DETAIL
  6
Continuous
100
AcDbLine
 10
495.5369406814951
 20
698.0000000000001
 30
0.0
 11
495.5369406814951
 21
672.0000000000001
 31
0.0
  0
ARC
  5
2BE
330
6F
100
AcDbEntity
  8
DETAIL
  6
Continuous
100
AcDbCircle
 10
490.5369406814951
 20
622.0000000000001
 30
0.0
 40
5.0
100
AcDbArc
 50
180.0
 51
0.0
  0
ARC
  5
2BF
330
6F
100
AcDbEntity
  8
DETAIL
  6
Continuous
100
AcDbCircle
 10
490.5369406814951
 20
648.0000000000001
 30
0.0
 40
5.0
100
AcDbArc
 50
0.0
 51
180.0
  0
LINE
  5
2C0
330
6F
100
AcDbEntity
  8
DETAIL
  6
Continuous
100
AcDbLine
 10
485.5369406814951
 20
648.0000000000001
 30
0.0
 11
485.5369406814951
 21
622.0000000000001
 31
0.0
  0
LINE
  5
2C1
330
6F
100
AcDbEntity
  8
DETAIL
  6
Continuous
100
AcDbLine
 10
495.5369406814951
 20
648.0000000000001
 30
0.0
 11
495.5369406814951
 21
622.0000000000001
 31
0.0
  0
LINE
  5
2C2
330
6F
100
AcDbEntity
  8
DETAIL
  6
Continuous
100
AcDbLine
 10
495.5369406814951
 20
248.0000000000002
 30
0.0
 11
495.5369406814951
 21
222.0000000000002
 31
0.0
  0
LINE
  5
2C3
330
6F
100
AcDbEntity
  8
DETAIL
  6
Continuous
100
AcDbLine
 10
485.5369406814951
 20
248.0000000000002
 30
0.0
 11
485.5369406814951
 21
222.0000000000002
 31
0.0
  0
ARC
  5
2C4
330
6F
100
AcDbEntity
  8
DETAIL
  6
Continuous
100
AcDbCircle
 10
490.5369406814951
 20
248.0000000000002
 30
0.0
 40
5.0
100
AcDbArc
 50
0.0
 51
180.0
  0
ARC
  5
2C5
330
6F
100
AcDbEntity
  8
DETAIL
  6
Continuous
100
AcDbCircle
 10
490.5369406814951
 20
222.0000000000002
 30
0.0
 40
5.0
100
AcDbArc
 50
180.0
 51
0.0
  0
LINE
  5
2C6
330
6F
100
AcDbEntity
  8
DETAIL
  6
Continuous
100
AcDbLine
 10
495.5369406814951
 20
323.0000000000003
 30
0.0
 11
495.5369406814951
 21
297.0000000000003
 31
0.0
  0
LINE
  5
2C7
330
6F
100
AcDbEntity
  8
DETAIL
  6
Continuous
100
AcDbLine
 10
485.5369406814951
 20
323.0000000000003
 30
0.0
 11
485.5369406814951
 21
297.0000000000003
 31
0.0
  0
ARC
  5
2C8
330
6F
100
AcDbEntity
  8
DETAIL
  6
Continuous
100
AcDbCircle
 10
490.5369406814951
 20
323.0000000000003
 30
0.0
 40
5.0
100
AcDbArc
 50
0.0
 51
180.0
  0
ARC
  5
2C9
330
6F
100
AcDbEntity
  8
DETAIL
  6
Continuous
100
AcDbCircle
 10
490.5369406814951
 20
297.0000000000003
 30
0.0
 40
5.0
100
AcDbArc
 50
180.0
 51
0.0
  0
LINE
  5
2CA
330
6F
100
AcDbEntity
  8
DETAIL
  6
DASHED
100
AcDbLine
 10
-495.4630593185044
 20
42.50000000000013
 30
0.0
 11
-495.4630593185044
 21
37.50000000000014
 31
0.0
  0
ARC
  5
2CB
330
6F
100
AcDbEntity
  8
DETAIL
  6
DASHED
100
AcDbCircle
 10
-490.4630593185044
 20
42.50000000000013
 30
0.0
 40
5.0
100
AcDbArc
 50
0.0
 51
180.0
  0
LINE
  5
2CC
330
6F
100
AcDbEntity
  8
DETAIL
  6
DASHED
100
AcDbLine
 10
-485.4630593185044
 20
42.50000000000013
 30
0.0
 11
-485.4630593185044
 21
37.50000000000014
 31
0.0
  0
ARC
  5
2CD
330
6F
100
AcDbEntity
  8
DETAIL
  6
DASHED
100
AcDbCircle
 10
-490.4630593185044
 20
37.50000000000014
 30
0.0
 40
5.0
100
AcDbArc
 50
180.0
 51
0.0
  0
LINE
  5
2CE
330
6F
100
AcDbEntity
  8
DETAIL
  6
Continuous
100
AcDbLine
 10
-495.4630593185044
 20
328.0
 30
0.0
 11
-495.4630593185044
 21
302.0
 31
0.0
  0
LINE
  5
2CF
330
6F
100
AcDbEntity
  8
DETAIL
  6
Continuous
100
AcDbLine
 10
-485.4630593185044
 20
328.0
 30
0.0
 11
-485.4630593185044
 21
302.0
 31
0.0
  0
ARC
  5
2D0
330
6F
100
AcDbEntity
  8
DETAIL
  6
Continuous
100
AcDbCircle
 10
-490.4630593185044
 20
328.0
 30
0.0
 40
5.0
100
AcDbArc
 50
0.0
 51
180.0
  0
ARC
  5
2D1
330
6F
100
AcDbEntity
  8
DETAIL
  6
Continuous
100
AcDbCircle
 10
-490.4630593185044
 20
302.0
 30
0.0
 40
5.0
100
AcDbArc
 50
180.0
 51
0.0
  0
LINE
  5
2D2
330
6F
100
AcDbEntity
  8
DETAIL
  6
Continuous
100
AcDbLine
 10
-495.4630593185044
 20
248.0000000000001
 30
0.0
 11
-495.4630593185044
 21
222.0000000000001
 31
0.0
  0
LINE
  5
2D3
330
6F
100
AcDbEntity
  8
DETAIL
  6
Continuous
100
AcDbLine
 10
-485.4630593185044
 20
248.0000000000001
 30
0.0
 11
-485.4630593185044
 21
222.0000000000001
 31
0.0
  0
ARC
  5
2D4
330
6F
100
AcDbEntity
  8
DETAIL
  6
Continuous
100
AcDbCircle
 10
-490.4630593185044
 20
248.0000000000001
 30
0.0
 40
5.0
100
AcDbArc
 50
0.0
 51
180.0
  0
ARC
  5
2D5
330
6F
100
AcDbEntity
  8
DETAIL
  6
Continuous
100
AcDbCircle
 10
-490.4630593185044
 20
222.0000000000001
 30
0.0
 40
5.0
100
AcDbArc
 50
180.0
 51
0.0
  0
ARC
  5
2D6
330
6F
100
AcDbEntity
  8
DETAIL
  6
Continuous
100
AcDbCircle
 10
-490.4630593185044
 20
622.0000000000001
 30
0.0
 40
5.0
100
AcDbArc
 50
180.0
 51
0.0
  0
ARC
  5
2D7
330
6F
100
AcDbEntity
  8
DETAIL
  6
Continuous
100
AcDbCircle
 10
-490.4630593185044
 20
648.0000000000001
 30
0.0
 40
5.0
100
AcDbArc
 50
0.0
 51
180.0
  0
LINE
  5
2D8
330
6F
100
AcDbEntity
  8
DETAIL
  6
Continuous
100
AcDbLine
 10
-495.4630593185044
 20
648.0000000000001
 30
0.0
 11
-495.4630593185044
 21
622.0000000000001
 31
0.0
  0
ARC
  5
2D9
330
6F
100
AcDbEntity
  8
DETAIL
  6
Continuous
100
AcDbCircle
 10
-490.4630593185044
 20
672.0000000000001
 30
0.0
 40
5.0
100
AcDbArc
 50
180.0
 51
0.0
  0
ARC
  5
2DA
330
6F
100
AcDbEntity
  8
DETAIL
  6
Continuous
100
AcDbCircle
 10
-490.4630593185044
 20
698.0000000000001
 30
0.0
 40
5.0
100
AcDbArc
 50
0.0
 51
180.0
  0
LINE
  5
2DB
330
6F
100
AcDbEntity
  8
DETAIL
  6
Continuous
100
AcDbLine
 10
-495.4630593185044
 20
698.0000000000001
 30
0.0
 11
-495.4630593185044
 21
672.0000000000001
 31
0.0
  0
LINE
  5
2DC
330
6F
100
AcDbEntity
  8
DETAIL
  6
Continuous
100
AcDbLine
 10
-485.4630593185044
 20
698.0000000000001
 30
0.0
 11
-485.4630593185044
 21
672.0000000000001
 31
0.0
  0
LINE
  5
2DD
330
6F
100
AcDbEntity
  8
DETAIL
  6
Continuous
100
AcDbLine
 10
-485.4630593185044
 20
648.0000000000001
 30
0.0
 11
-485.4630593185044
 21
622.0000000000001
 31
0.0
  0
ARC
  5
2DE
330
6F
100
AcDbEntity
  8
DETAIL
  6
Continuous
100
AcDbCircle
 10
-490.4630593185044
 20
772.0000000000001
 30
0.0
 40
5.0
100
AcDbArc
 50
180.0
 51
0.0
  0
ARC
  5
2DF
330
6F
100
AcDbEntity
  8
DETAIL
  6
Continuous
100
AcDbCircle
 10
-490.4630593185044
 20
798.0000000000001
 30
0.0
 40
5.0
100
AcDbArc
 50
0.0
 51
180.0
  0
LINE
  5
2E0
330
6F
100
AcDbEntity
  8
DETAIL
  6
Continuous
100
AcDbLine
 10
-485.4630593185044
 20
798.0000000000001
 30
0.0
 11
-485.4630593185044
 21
772.0000000000001
 31
0.0
  0
LINE
  5
2E1
330
6F
100
AcDbEntity
  8
DETAIL
  6
Continuous
100
AcDbLine
 10
-495.4630593185044
 20
798.0000000000001
 30
0.0
 11
-495.4630593185044
 21
772.0000000000001
 31
0.0
  0
ARC
  5
2E2
330
6F
100
AcDbEntity
  8
DETAIL
  6
Continuous
100
AcDbCircle
 10
-490.4630593185044
 20
822.0
 30
0.0
 40
5.0
100
AcDbArc
 50
180.0
 51
0.0
  0
ARC
  5
2E3
330
6F
100
AcDbEntity
  8
DETAIL
  6
Continuous
100
AcDbCircle
 10
-490.4630593185044
 20
848.0
 30
0.0
 40
5.0
100
AcDbArc
 50
0.0
 51
180.0
  0
LINE
  5
2E4
330
6F
100
AcDbEntity
  8
DETAIL
  6
Continuous
100
AcDbLine
 10
-485.4630593185044
 20
848.0
 30
0.0
 11
-485.4630593185044
 21
822.0
 31
0.0
  0
LINE
  5
2E5
330
6F
100
AcDbEntity
  8
DETAIL
  6
Continuous
100
AcDbLine
 10
-495.4630593185044
 20
848.0
 30
0.0
 11
-495.4630593185044
 21
822.0
 31
0.0
  0
ARC
  5
2E6
330
6F
100
AcDbEntity
  8
DETAIL
  6
Continuous
100
AcDbCircle
 10
-490.4630593185044
 20
872.0
 30
0.0
 40
5.0
100
AcDbArc
 50
180.0
 51
0.0
  0
ARC
  5
2E7
330
6F
100
AcDbEntity
  8
DETAIL
  6
Continuous
100
AcDbCircle
 10
-490.4630593185044
 20
898.0000000000003
 30
0.0
 40
5.0
100
AcDbArc
 50
0.0
 51
180.0
  0
LINE
  5
2E8
330
6F
100
AcDbEntity
  8
DETAIL
  6
Continuous
100
AcDbLine
 10
-485.4630593185044
 20
898.0000000000003
 30
0.0
 11
-485.4630593185044
 21
872.0
 31
0.0
  0
LINE
  5
2E9
330
6F
100
AcDbEntity
  8
DETAIL
  6
Continuous
100
AcDbLine
 10
-495.4630593185044
 20
898.0000000000003
 30
0.0
 11
-495.4630593185044
 21
872.0
 31
0.0
  0
ARC
  5
2EA
330
6F
100
AcDbEntity
  8
DETAIL
  6
Continuous
100
AcDbCircle
 10
-490.4630593185044
 20
922.0
 30
0.0
 40
5.0
100
AcDbArc
 50
180.0
 51
0.0
  0
ARC
  5
2EB
330
6F
100
AcDbEntity
  8
DETAIL
  6
Continuous
100
AcDbCircle
 10
-490.4630593185044
 20
948.0
 30
0.0
 40
5.0
100
AcDbArc
 50
0.0
 51
180.0
  0
LINE
  5
2EC
330
6F
100
AcDbEntity
  8
DETAIL
  6
Continuous
100
AcDbLine
 10
-485.4630593185044
 20
948.0
 30
0.0
 11
-485.4630593185044
 21
922.0
 31
0.0
  0
LINE
  5
2ED
330
6F
100
AcDbEntity
  8
DETAIL
  6
Continuous
100
AcDbLine
 10
-495.4630593185044
 20
948.0
 30
0.0
 11
-495.4630593185044
 21
922.0
 31
0.0
  0
ARC
  5
2EE
330
6F
100
AcDbEntity
  8
DETAIL
  6
Continuous
100
AcDbCircle
 10
-490.4630593185044
 20
722.0000000000001
 30
0.0
 40
5.0
100
AcDbArc
 50
180.0
 51
0.0
  0
LINE
  5
2EF
330
6F
100
AcDbEntity
  8
DETAIL
  6
Continuous
100
AcDbLine
 10
-495.4630593185044
 20
748.0000000000001
 30
0.0
 11
-495.4630593185044
 21
722.0000000000001
 31
0.0
  0
LINE
  5
2F0
330
6F
100
AcDbEntity
  8
DETAIL
  6
Continuous
100
AcDbLine
 10
-485.4630593185044
 20
748.0000000000001
 30
0.0
 11
-485.4630593185044
 21
722.0000000000001
 31
0.0
  0
ARC
  5
2F1
330
6F
100
AcDbEntity
  8
DETAIL
  6
Continuous
100
AcDbCircle
 10
-490.4630593185044
 20
748.0000000000001
 30
0.0
 40
5.0
100
AcDbArc
 50
0.0
 51
180.0
  0
LINE
  5
2F2
330
6F
100
AcDbEntity
  8
DETAIL
  6
Continuous
100
AcDbLine
 10
-472.463059318504
 20
703.6322457601211
 30
0.0
 11
-51.14915262345359
 21
524.7951026491888
 31
0.0
  0
LINE
  5
2F3
330
6F
100
AcDbEntity
  8
DETAIL
  6
Continuous
100
AcDbLine
 10
-445.8282426106229
 20
735.7808519294787
 30
0.0
 11
0.036940681495488
 21
546.5223101972948
 31
0.0
  0
LINE
  5
2F4
330
6F
100
AcDbEntity
  8
DETAIL
  6
Continuous
100
AcDbLine
 10
-445.8282426106229
 20
735.7808519294787
 30
0.0
 11
-446.7659973189973
 21
733.5716402811923
 31
0.0
  0
LINE
  5
2F5
330
6F
100
AcDbEntity
  8
DETAIL
  6
Continuous
100
AcDbLine
 10
-472.463059318504
 20
744.4793959505601
 30
0.0
 11
-446.7659973189973
 21
733.5716402811923
 31
0.0
  0
LINE
  5
2F6
330
6F
100
AcDbEntity
  8
DETAIL
  6
Continuous
100
AcDbLine
 10
472.5369406814952
 20
343.3506946325054
 30
0.0
 11
453.4877493574986
 21
351.4365966186997
 31
0.0
  0
LINE
  5
2F7
330
6F
100
AcDbEntity
  8
DETAIL
  6
Continuous
100
AcDbLine
 10
454.4255040658728
 20
353.6458082669858
 30
0.0
 11
453.4877493574986
 21
351.4365966186997
 31
0.0
  0
LINE
  5
2F8
330
6F
100
AcDbEntity
  8
DETAIL
  6
Continuous
100
AcDbLine
 10
51.2230339864444
 20
524.7951026491888
 30
0.0
 11
454.4255040658653
 21
353.645808266968
 31
0.0
  0
LINE
  5
2F9
330
6F
100
AcDbEntity
  8
DETAIL
  6
Continuous
100
AcDbLine
 10
0.03694068149533
 20
503.0678951010831
 30
0.0
 11
472.5369406814952
 21
302.503544442045
 31
0.0
  0
LINE
  5
2FA
330
6F
100
AcDbEntity
  8
DETAIL
  6
Continuous
100
AcDbLine
 10
-446.2971199648103
 20
734.6762461053357
 30
0.0
 11
-1.498642117652992
 21
545.8704939708518
 31
0.0
  0
LINE
  5
2FB
330
6F
100
AcDbEntity
  8
DETAIL
  6
Continuous
100
AcDbLine
 10
49.68745118729585
 20
524.1432864227459
 30
0.0
 11
453.9566267116783
 21
352.5412024428252
 31
0.0
  0
LINE
  5
2FD
330
6F
100
AcDbEntity
  8
BASIS
  6
DASHDOT
100
AcDbLine
 10
0.036940681495243
 20
2002.48208271806
 30
0.0
 11
0.036940681495494
 21
-49.71768220794364
 31
0.0
  0
LINE
  5
2FE
330
6F
100
AcDbEntity
  8
SIZE
  6
Continuous
 62
    30
100
AcDbLine
 10
-489.9630593185044
 20
-30.0
 30
0.0
 11
-489.9630593185044
 21
-310.1000000238418
 31
0.0
  0
LINE
  5
2FF
330
6F
100
AcDbEntity
  8
SIZE
  6
Continuous
 62
    30
100
AcDbLine
 10
490.0369406814955
 20
-30.0
 30
0.0
 11
490.0369406814955
 21
-310.1000000238418
 31
0.0
  0
LINE
  5
300
330
6F
100
AcDbEntity
  8
SIZE
  6
Continuous
 62
    30
100
AcDbLine
 10
-479.9630593185043
 20
-297.6000000238418
 30
0.0
 11
480.0369406814955
 21
-297.6000000238418
 31
0.0
  0
CIRCLE
  5
301
330
6F
100
AcDbEntity
  8
SIZE
  6
Continuous
 62
    30
100
AcDbCircle
 10
-489.9630593185044
 20
-297.6000000238418
 30
0.0
 40
5.0
  0
LINE
  5
302
330
6F
100
AcDbEntity
  8
SIZE
  6
Continuous
 62
    30
100
AcDbLine
 10
-489.9630593185044
 20
-297.6000000238418
 30
0.0
 11
-479.9630593185043
 21
-297.6000000238418
 31
0.0
  0
CIRCLE
  5
303
330
6F
100
AcDbEntity
  8
SIZE
  6
Continuous
 62
    30
100
AcDbCircle
 10
490.0369406814955
 20
-297.6000000238418
 30
0.0
 40
5.0
  0
LINE
  5
304
330
6F
100
AcDbEntity
  8
SIZE
  6
Continuous
 62
    30
100
AcDbLine
 10
490.0369406814955
 20
-297.6000000238418
 30
0.0
 11
480.0369406814955
 21
-297.6000000238418
 31
0.0
  0
TEXT
  5
305
330
6F
100
AcDbEntity
  8
SIZE
  6
Continuous
 62
    30
100
AcDbText
 10
-37.4630594234119
 20
-287.6000000238418
 30
0.0
 40
30.0
  1
980
 72
     1
 11
0.0369405765881021
 21
-287.6000000238418
 31
0.0
100
AcDbText
  0
POINT
  5
306
330
6F
100
AcDbEntity
  8
DEFPOINTS
  6
Continuous
 62
    30
100
AcDbPoint
 10
-489.9630593185044
 20
-20.0
 30
0.0
  0
POINT
  5
307
330
6F
100
AcDbEntity
  8
DEFPOINTS
  6
Continuous
 62
    30
100
AcDbPoint
 10
490.0369406814955
 20
-20.0
 30
0.0
  0
POINT
  5
308
330
6F
100
AcDbEntity
  8
DEFPOINTS
  6
Continuous
 62
    30
100
AcDbPoint
 10
490.0369406814955
 20
-297.6000000238418
 30
0.0
  0
LINE
  5
309
330
6F
100
AcDbEntity
  8
SIZE
  6
Continuous
 62
    30
100
AcDbLine
 10
-249.9630593185045
 20
785.0
 30
0.0
 11
-249.9630593185045
 21
-160.1000000238418
 31
0.0
  0
LINE
  5
30A
330
6F
100
AcDbEntity
  8
SIZE
  6
Continuous
 62
    30
100
AcDbLine
 10
250.0369406814955
 20
785.0
 30
0.0
 11
250.0369406814955
 21
-160.1000000238418
 31
0.0
  0
LINE
  5
30B
330
6F
100
AcDbEntity
  8
SIZE
  6
Continuous
 62
    30
100
AcDbLine
 10
-239.9630593185046
 20
-147.6000000238419
 30
0.0
 11
240.0369406814954
 21
-147.6000000238419
 31
0.0
  0
CIRCLE
  5
30C
330
6F
100
AcDbEntity
  8
SIZE
  6
Continuous
 62
    30
100
AcDbCircle
 10
-249.9630593185045
 20
-147.6000000238419
 30
0.0
 40
5.0
  0
LINE
  5
30D
330
6F
100
AcDbEntity
  8
SIZE
  6
Continuous
 62
    30
100
AcDbLine
 10
-249.9630593185045
 20
-147.6000000238419
 30
0.0
 11
-239.9630593185045
 21
-147.6000000238419
 31
0.0
  0
CIRCLE
  5
30E
330
6F
100
AcDbEntity
  8
SIZE
  6
Continuous
 62
    30
100
AcDbCircle
 10
250.0369406814955
 20
-147.6000000238419
 30
0.0
 40
5.0
  0
LINE
  5
30F
330
6F
100
AcDbEntity
  8
SIZE
  6
Continuous
 62
    30
100
AcDbLine
 10
250.0369406814955
 20
-147.6000000238419
 30
0.0
 11
240.0369406814955
 21
-147.6000000238419
 31
0.0
  0
TEXT
  5
310
330
6F
100
AcDbEntity
  8
SIZE
  6
Continuous
 62
    30
100
AcDbText
 10
-34.96305942341196
 20
-137.6000000238419
 30
0.0
 40
30.0
  1
500
 72
     1
 11
0.0369405765880453
 21
-137.6000000238419
 31
0.0
100
AcDbText
  0
POINT
  5
311
330
6F
100
AcDbEntity
  8
DEFPOINTS
  6
Continuous
 62
    30
100
AcDbPoint
 10
-249.9630593185045
 20
795.0
 30
0.0
  0
POINT
  5
312
330
6F
100
AcDbEntity
  8
DEFPOINTS
  6
Continuous
 62
    30
100
AcDbPoint
 10
250.0369406814955
 20
795.0
 30
0.0
  0
POINT
  5
313
330
6F
100
AcDbEntity
  8
DEFPOINTS
  6
Continuous
 62
    30
100
AcDbPoint
 10
250.0369406814955
 20
-147.6000000238419
 30
0.0
  0
LINE
  5
335
330
6F
100
AcDbEntity
  8
SIZE
  6
Continuous
 62
    30
100
AcDbLine
 10
550.0369406814964
 20
1968.000000000001
 30
0.0
 11
550.0369406814964
 21
2122.899999976159
 31
0.0
  0
LINE
  5
336
330
6F
100
AcDbEntity
  8
SIZE
  6
Continuous
 62
    30
100
AcDbLine
 10
-549.9630593185031
 20
1968.000000000001
 30
0.0
 11
-549.9630593185031
 21
2122.899999976159
 31
0.0
  0
LINE
  5
337
330
6F
100
AcDbEntity
  8
SIZE
  6
Continuous
 62
    30
100
AcDbLine
 10
540.0369406814961
 20
2110.399999976159
 30
0.0
 11
-539.9630593185035
 21
2110.399999976159
 31
0.0
  0
CIRCLE
  5
338
330
6F
100
AcDbEntity
  8
SIZE
  6
Continuous
 62
    30
100
AcDbCircle
 10
550.0369406814964
 20
2110.399999976159
 30
0.0
 40
5.0
  0
LINE
  5
339
330
6F
100
AcDbEntity
  8
SIZE
  6
Continuous
 62
    30
100
AcDbLine
 10
550.0369406814964
 20
2110.399999976159
 30
0.0
 11
540.0369406814961
 21
2110.399999976159
 31
0.0
  0
CIRCLE
  5
33A
330
6F
100
AcDbEntity
  8
SIZE
  6
Continuous
 62
    30
100
AcDbCircle
 10
-549.9630593185031
 20
2110.399999976159
 30
0.0
 40
5.0
  0
LINE
  5
33B
330
6F
100
AcDbEntity
  8
SIZE
  6
Continuous
 62
    30
100
AcDbLine
 10
-549.9630593185031
 20
2110.399999976159
 30
0.0
 11
-539.9630593185035
 21
2110.399999976159
 31
0.0
  0
TEXT
  5
33C
330
6F
100
AcDbEntity
  8
SIZE
  6
Continuous
 62
    30
100
AcDbText
 10
-39.96305942341105
 20
2120.399999976159
 30
0.0
 40
30.0
  1
1100
 72
     1
 11
0.0369405765889548
 21
2120.399999976159
 31
0.0
100
AcDbText
  0
POINT
  5
33E
330
6F
100
AcDbEntity
  8
DEFPOINTS
  6
Continuous
 62
    30
100
AcDbPoint
 10
-549.9630593185031
 20
1958.000000000001
 30
0.0
  0
POINT
  5
33F
330
6F
100
AcDbEntity
  8
DEFPOINTS
  6
Continuous
 62
    30
100
AcDbPoint
 10
-549.9630593185031
 20
2110.399999976159
 30
0.0
  0
POINT
  5
353
330
6F
100
AcDbEntity
  8
DEFPOINTS
  6
Continuous
 62
    30
100
AcDbPoint
 10
-534.4630593185041
 20
864.9999698055998
 30
0.0
  0
POINT
  5
354
330
6F
100
AcDbEntity
  8
DEFPOINTS
  6
Continuous
 62
    30
100
AcDbPoint
 10
534.5369406814951
 20
864.9999698055976
 30
0.0
  0
LINE
  5
36C
330
6F
100
AcDbEntity
  8
NOTE
  6
Continuous
100
AcDbLine
 10
-1093.126414940974
 20
1009.888671875
 30
0.0
 11
-664.9746559981918
 21
1009.888671875
 31
0.0
  0
LINE
  5
36D
330
6F
100
AcDbEntity
  8
NOTE
  6
Continuous
100
AcDbLine
 10
-665.4746559981917
 20
1009.888671875
 30
0.0
 11
-534.4630593185041
 21
884.9999698056002
 31
0.0
  0
LINE
  5
36E
330
6F
100
AcDbEntity
  8
NOTE
  6
Continuous
100
AcDbLine
 10
-534.4630593185041
 20
884.9999698056002
 30
0.0
 11
-536.2196165100146
 21
885.9562683117967
 31
0.0
  0
LINE
  5
36F
330
6F
100
AcDbEntity
  8
NOTE
  6
Continuous
100
AcDbLine
 10
-534.4630593185041
 20
884.9999698056002
 30
0.0
 11
-535.5061331915903
 21
886.7064272165206
 31
0.0
  0
TEXT
  5
370
330
6F
100
AcDbEntity
  8
NOTE
  6
Continuous
100
AcDbText
 10
-1092.299886818065
 20
1014.663194465401
 30
0.0
 40
40.0
  1
AH 2-M8以上,推奨M10
 50
0.0000093526217011
 41
0.701388907432556
  7
STANDARD1
100
AcDbText
  0
LINE
  5
371
330
6F
100
AcDbEntity
  8
NOTE
  6
Continuous
100
AcDbLine
 10
470.0369406814951
 20
0.0
 30
0.0
 11
510.0369406814951
 21
0.0
 31
0.0
  0
LINE
  5
372
330
6F
100
AcDbEntity
  8
NOTE
  6
Continuous
100
AcDbLine
 10
490.0369406814951
 20
20.0
 30
0.0
 11
490.0369406814951
 21
-20.0
 31
0.0
  0
LINE
  5
373
330
6F
100
AcDbEntity
  8
NOTE
  6
Continuous
100
AcDbLine
 10
1041.184401618995
 20
-170.5
 30
0.0
 11
605.9344626541517
 21
-170.5
 31
0.0
  0
LINE
  5
374
330
6F
100
AcDbEntity
  8
NOTE
  6
Continuous
100
AcDbLine
 10
605.9344626541517
 20
-170.5
 30
0.0
 11
490.0369406814955
 21
-0.000000004647518
 31
0.0
  0
LINE
  5
375
330
6F
100
AcDbEntity
  8
NOTE
  6
Continuous
100
AcDbLine
 10
490.0369406814955
 20
-0.000000004647518
 30
0.0
 11
491.5510662767303
 21
-1.306684236531509
 31
0.0
  0
LINE
  5
376
330
6F
100
AcDbEntity
  8
NOTE
  6
Continuous
100
AcDbLine
 10
490.0369406814955
 20
-0.000000004647518
 30
0.0
 11
490.6948697680284
 21
-1.888684551387443
 31
0.0
  0
TEXT
  5
377
330
6F
100
AcDbEntity
  8
NOTE
  6
Continuous
100
AcDbText
 10
632.4220854994003
 20
-167.7213751467498
 30
0.0
 40
40.0
  1
AH 4-M8以上、推奨M10
 50
0.0000024148365395
 41
0.669642877578735
  7
STANDARD1
100
AcDbText
  0
LINE
  5
378
330
6F
100
AcDbEntity
  8
NOTE
  6
Continuous
100
AcDbLine
 10
-469.9630593185044
 20
0.000000000000002
 30
0.0
 11
-509.9630593185044
 21
-0.000000000000002
 31
0.0
  0
LINE
  5
379
330
6F
100
AcDbEntity
  8
NOTE
  6
Continuous
100
AcDbLine
 10
-489.9630593185044
 20
20.0
 30
0.0
 11
-489.9630593185044
 21
-20.0
 31
0.0
  0
LINE
  5
37A
330
6F
100
AcDbEntity
  8
NOTE
  6
Continuous
100
AcDbLine
 10
-249.9630593185046
 20
835.0
 30
0.0
 11
-249.9630593185046
 21
795.0
 31
0.0
  0
LINE
  5
37B
330
6F
100
AcDbEntity
  8
NOTE
  6
Continuous
100
AcDbLine
 10
-229.9630593185045
 20
815.0
 30
0.0
 11
-269.9630593185045
 21
815.0
 31
0.0
  0
LINE
  5
37C
330
6F
100
AcDbEntity
  8
NOTE
  6
Continuous
100
AcDbLine
 10
-1314.644210709311
 20
593.2091294065375
 30
0.0
 11
-906.8289485794212
 21
593.2091294065375
 31
0.0
  0
LINE
  5
37D
330
6F
100
AcDbEntity
  8
NOTE
  6
Continuous
100
AcDbLine
 10
-906.8289485794212
 20
593.2091294065375
 30
0.0
 11
-249.9630593185045
 21
815.0
 31
0.0
  0
LINE
  5
37E
330
6F
100
AcDbEntity
  8
NOTE
  6
Continuous
100
AcDbLine
 10
-249.9630593185045
 20
815.0
 30
0.0
 11
-251.4212128845776
 21
813.6311361726786
 31
0.0
  0
LINE
  5
37F
330
6F
100
AcDbEntity
  8
NOTE
  6
Continuous
100
AcDbLine
 10
-249.9630593185045
 20
815.0
 30
0.0
 11
-251.9102892696531
 21
814.5436059626268
 31
0.0
  0
TEXT
  5
380
330
6F
100
AcDbEntity
  8
NOTE
  6
Continuous
100
AcDbText
 10
-1315.578360220653
 20
646.2334334003777
 30
0.0
 40
40.0
  1
４－ワッシャー付六角ボルト
 50
0.0000024148365395
 41
0.6740384817123412
  7
STANDARD1
100
AcDbText
  0
LINE
  5
381
330
6F
100
AcDbEntity
  8
NOTE
  6
Continuous
100
AcDbLine
 10
250.0369406814954
 20
835.0
 30
0.0
 11
250.0369406814955
 21
795.0
 31
0.0
  0
LINE
  5
382
330
6F
100
AcDbEntity
  8
NOTE
  6
Continuous
100
AcDbLine
 10
230.0369406814953
 20
815.0
 30
0.0
 11
270.0369406814952
 21
815.0
 31
0.0
  0
TEXT
  5
383
330
6F
100
AcDbEntity
  8
NOTE
  6
Continuous
100
AcDbText
 10
-202.3217781905748
 20
-602.9777221679687
 30
0.0
 40
40.0
  1
転倒防止金具固定位置
 50
0.0000025613209388
 41
0.84375
  7
STANDARD1
100
AcDbText
  0
TEXT
  5
384
330
6F
100
AcDbEntity
  8
NOTE
  6
Continuous
100
AcDbText
 10
-60.97537316127692
 20
2055.717895507815
 30
0.0
 40
40.0
  1
屋根幅
 50
0.0000025613209388
 41
0.84375
  7
STANDARD1
100
AcDbText
  0
TEXT
  5
385
330
6F
100
AcDbEntity
  8
NOTE
  6
Continuous
100
AcDbText
 10
858.3511614214856
 20
893.114722581704
 30
0.0
 40
40.0
  1
屋根高さ
 50
90.00000500895634
 41
0.84375
  7
STANDARD1
100
AcDbText
  0
TEXT
  5
386
330
6F
100
AcDbEntity
  8
NOTE
  6
Continuous
100
AcDbText
 10
-190.688095939598
 20
-346.6846923828125
 30
0.0
 40
40.0
  1
アンカーボルトピッチ
 50
0.0000025613209388
 41
0.84375
  7
STANDARD1
100
AcDbText
  0
LINE
  5
387
330
6F
100
AcDbEntity
  8
NOTE
  6
Continuous
100
AcDbLine
 10
-534.4630593185041
 20
865.0000000000003
 30
0.0
 11
-534.4630593185041
 21
905.0000000000004
 31
0.0
  0
LINE
  5
388
330
6F
100
AcDbEntity
  8
NOTE
  6
Continuous
100
AcDbLine
 10
-554.463059318504
 20
885.0
 30
0.0
 11
-514.463059318504
 21
885.0
 31
0.0
  0
LINE
  5
389
330
6F
100
AcDbEntity
  8
NOTE
  6
Continuous
100
AcDbLine
 10
534.536940681495
 20
864.999999999998
 30
0.0
 11
534.536940681495
 21
904.9999999999981
 31
0.0
  0
LINE
  5
38A
330
6F
100
AcDbEntity
  8
NOTE
  6
Continuous
100
AcDbLine
 10
554.5369406814946
 20
884.9999999999978
 30
0.0
 11
514.5369406814949
 21
884.9999999999978
 31
0.0
  0
TEXT
  5
38B
330
6F
100
AcDbEntity
  8
NOTE
  6
Continuous
100
AcDbText
 10
-176.8115853194811
 20
-198.6341857910156
 30
0.0
 40
40.0
  1
据付用ボルトピッチ
 50
0.0000025613209388
 41
0.84375
  7
STANDARD1
100
AcDbText
  0
CIRCLE
  5
38C
330
6F
100
AcDbEntity
  8
ARRANGE
  6
Continuous
100
AcDbCircle
 10
0.0
 20
0.0
 30
0.0
 40
15.0
  0
CIRCLE
  5
38D
330
6F
100
AcDbEntity
  8
FIX
  6
Continuous
100
AcDbCircle
 10
490.0369406814951
 20
0.0
 30
0.0
 40
5.0
  0
CIRCLE
  5
38E
330
6F
100
AcDbEntity
  8
FIX
  6
Continuous
100
AcDbCircle
 10
-489.9630593185044
 20
0.0
 30
0.0
 40
5.0
  0
CIRCLE
  5
38F
330
6F
100
AcDbEntity
  8
FIX
  6
Continuous
100
AcDbCircle
 10
-249.9630593185045
 20
815.0
 30
0.0
 40
4.0
  0
CIRCLE
  5
390
330
6F
100
AcDbEntity
  8
FIX
  6
Continuous
100
AcDbCircle
 10
250.0369406814952
 20
815.0
 30
0.0
 40
4.0
  0
CIRCLE
  5
391
330
6F
100
AcDbEntity
  8
FIX
  6
Continuous
100
AcDbCircle
 10
-534.4630593185041
 20
885.0
 30
0.0
 40
6.0
  0
CIRCLE
  5
392
330
6F
100
AcDbEntity
  8
FIX
  6
Continuous
100
AcDbCircle
 10
534.536940681495
 20
884.9999999999978
 30
0.0
 40
6.0
  0
TEXT
  5
393
330
6F
100
AcDbEntity
  8
ETC
  6
Continuous
100
AcDbText
 10
679.3830100174327
 20
2190.950927734375
 30
0.0
 40
40.0
  1
TGT124BB2
 50
0.0000024148365395
 41
0.6125000238418579
  7
STANDARD1
100
AcDbText
  0
TEXT
  5
394
330
6F
100
AcDbEntity
  8
ETC
  6
Continuous
100
AcDbText
 10
679.3830100174327
 20
2120.950927734375
 30
0.0
 40
40.0
  1
防雪架台(防雪屋根)
 50
0.0000026998693284
 41
0.8038793144554928
  7
STANDARD1
100
AcDbText
  0
LINE
  5
395
330
6F
100
AcDbEntity
  8
SYMBOLLINE
  6
PHANTOMX2
 48
30.0
100
AcDbLine
 10
-269.9630593185048
 20
823.0
 30
0.0
 11
-229.9630593185047
 21
823.0
 31
0.0
  0
LINE
  5
396
330
6F
100
AcDbEntity
  8
SYMBOLLINE
  6
PHANTOMX2
 48
30.0
100
AcDbLine
 10
230.0369406814953
 20
823.0
 30
0.0
 11
270.0369406814952
 21
823.0
 31
0.0
  0
LINE
  5
397
330
6F
100
AcDbEntity
  8
SYMBOLLINE
  6
PHANTOMX2
 48
30.0
100
AcDbLine
 10
400.0369406814953
 20
1428.0
 30
0.0
 11
416.0369406814951
 21
1428.0
 31
0.0
  0
LINE
  5
398
330
6F
100
AcDbEntity
  8
SYMBOLLINE
  6
PHANTOMX2
 48
30.0
100
AcDbLine
 10
400.0369406814955
 20
1448.5
 30
0.0
 11
416.0369406814951
 21
1428.0
 31
0.0
  0
LINE
  5
399
330
6F
100
AcDbEntity
  8
SYMBOLLINE
  6
PHANTOMX2
 48
30.0
100
AcDbLine
 10
-399.9630593185046
 20
1428.0
 30
0.0
 11
-415.9630593185046
 21
1428.0
 31
0.0
  0
LINE
  5
39A
330
6F
100
AcDbEntity
  8
SYMBOLLINE
  6
PHANTOMX2
 48
30.0
100
AcDbLine
 10
-399.963059318505
 20
1448.5
 30
0.0
 11
-415.9630593185046
 21
1428.0
 31
0.0
  0
LINE
  5
39B
330
6F
100
AcDbEntity
  8
SYMBOLLINE
  6
PHANTOMX2
 48
30.0
100
AcDbLine
 10
400.0369406814953
 20
1428.0
 30
0.0
 11
-415.9630593185046
 21
1428.0
 31
0.0
  0
ARC
  5
39C
330
6F
100
AcDbEntity
  8
SYMBOLLINE
  6
PHANTOMX2
 48
30.0
100
AcDbCircle
 10
-394.9630593185047
 20
1448.0
 30
0.0
 40
5.0
100
AcDbArc
 50
90.0
 51
180.0
  0
ARC
  5
39D
330
6F
100
AcDbEntity
  8
SYMBOLLINE
  6
PHANTOMX2
 48
30.0
100
AcDbCircle
 10
395.0369406814953
 20
1448.0
 30
0.0
 40
5.0
100
AcDbArc
 50
0.0
 51
90.0
  0
LINE
  5
39E
330
6F
100
AcDbEntity
  8
SYMBOLLINE
  6
PHANTOMX2
 48
30.0
100
AcDbLine
 10
395.0369406814953
 20
1453.0
 30
0.0
 11
-394.9630593185047
 21
1453.0
 31
0.0
  0
LINE
  5
39F
330
6F
100
AcDbEntity
  8
SYMBOLLINE
  6
PHANTOMX2
 48
30.0
100
AcDbLine
 10
470.0369406814951
 20
1076.90625
 30
0.0
 11
470.0369406814951
 21
869.875
 31
0.0
  0
LINE
  5
3A0
330
6F
100
AcDbEntity
  8
SYMBOLLINE
  6
PHANTOMX2
 48
30.0
100
AcDbLine
 10
230.0369406814953
 20
815.0
 30
0.0
 11
270.0369406814952
 21
815.0
 31
0.0
  0
LINE
  5
3A1
330
6F
100
AcDbEntity
  8
SYMBOLLINE
  6
PHANTOMX2
 48
30.0
100
AcDbLine
 10
-269.9630593185048
 20
815.0
 30
0.0
 11
-229.9630593185047
 21
815.0
 31
0.0
  0
LINE
  5
3A2
330
6F
100
AcDbEntity
  8
SYMBOLLINE
  6
PHANTOMX2
 48
30.0
100
AcDbLine
 10
270.0369406814952
 20
835.0
 30
0.0
 11
270.0369406814952
 21
815.0
 31
0.0
  0
LINE
  5
3A3
330
6F
100
AcDbEntity
  8
SYMBOLLINE
  6
PHANTOMX2
 48
30.0
100
AcDbLine
 10
-229.9630593185047
 20
835.0
 30
0.0
 11
-229.9630593185047
 21
815.0
 31
0.0
  0
LINE
  5
3A4
330
6F
100
AcDbEntity
  8
SYMBOLLINE
  6
PHANTOMX2
 48
30.0
100
AcDbLine
 10
230.0369406814953
 20
835.0
 30
0.0
 11
230.0369406814953
 21
815.0
 31
0.0
  0
LINE
  5
3A5
330
6F
100
AcDbEntity
  8
SYMBOLLINE
  6
PHANTOMX2
 48
30.0
100
AcDbLine
 10
-269.9630593185048
 20
835.0
 30
0.0
 11
-269.9630593185048
 21
815.0
 31
0.0
  0
LINE
  5
3A6
330
6F
100
AcDbEntity
  8
SYMBOLLINE
  6
PHANTOMX2
 48
30.0
100
AcDbLine
 10
400.0369406814953
 20
835.0
 30
0.0
 11
400.0369406814953
 21
1448.0
 31
0.0
  0
LINE
  5
3A7
330
6F
100
AcDbEntity
  8
SYMBOLLINE
  6
PHANTOMX2
 48
30.0
100
AcDbLine
 10
-399.9630593185045
 20
835.0
 30
0.0
 11
400.0369406814953
 21
835.0
 31
0.0
  0
LINE
  5
3A8
330
6F
100
AcDbEntity
  8
SYMBOLLINE
  6
PHANTOMX2
 48
30.0
100
AcDbLine
 10
408.5369406814953
 20
1091.0
 30
0.0
 11
408.5369406814953
 21
1334.60646215321
 31
0.0
  0
LINE
  5
3A9
330
6F
100
AcDbEntity
  8
SYMBOLLINE
  6
PHANTOMX2
 48
30.0
100
AcDbLine
 10
423.5369406814951
 20
1358.0
 30
0.0
 11
423.5369406814951
 21
1373.0
 31
0.0
  0
LINE
  5
3AA
330
6F
100
AcDbEntity
  8
SYMBOLLINE
  6
PHANTOMX2
 48
30.0
100
AcDbLine
 10
400.0369406814953
 20
1383.0
 30
0.0
 11
423.5369406814951
 21
1373.0
 31
0.0
  0
LINE
  5
3AB
330
6F
100
AcDbEntity
  8
SYMBOLLINE
  6
PHANTOMX2
 48
30.0
100
AcDbLine
 10
400.0369406814953
 20
855.0
 30
0.0
 11
470.0369406814951
 21
869.875
 31
0.0
  0
LINE
  5
3AC
330
6F
100
AcDbEntity
  8
SYMBOLLINE
  6
PHANTOMX2
 48
30.0
100
AcDbLine
 10
408.5369406814953
 20
1091.0
 30
0.0
 11
470.0369406814951
 21
1076.90625
 31
0.0
  0
LINE
  5
3AD
330
6F
100
AcDbEntity
  8
SYMBOLLINE
  6
PHANTOMX2
 48
30.0
100
AcDbLine
 10
400.0369406814953
 20
1363.69696969697
 30
0.0
 11
423.5369406814951
 21
1358.0
 31
0.0
  0
LINE
  5
3AE
330
6F
100
AcDbEntity
  8
SYMBOLLINE
  6
PHANTOMX2
 48
30.0
100
AcDbLine
 10
408.5369406814953
 20
1334.60646215321
 30
0.0
 11
400.0369406814953
 21
1338.570077247527
 31
0.0
  0
LINE
  5
3AF
330
6F
100
AcDbEntity
  8
SYMBOLLINE
  6
PHANTOMX2
 48
30.0
100
AcDbLine
 10
-399.9630593185045
 20
835.0
 30
0.0
 11
-399.9630593185045
 21
1448.0
 31
0.0
  0
DIMENSION
  5
4D0
330
6F
100
AcDbEntity
  8
SIZE
  6
Continuous
100
AcDbDimension
280
     0
  2
*D21
 10
512.5369406814952
 20
-451.6730688805019
 30
0.0
 11
0.0369406814954816
 21
-426.6730688805019
 31
0.0
 70
    32
  1
1025
 71
     5
 42
1024.999999999999
 73
     0
 74
     0
 75
     0
  3
STANDARD
100
AcDbAlignedDimension
 13
-512.4630593185043
 23
9.800000000000068
 33
0.0
 14
512.5369406814952
 24
9.800000000000132
 34
0.0
100
AcDbRotatedDimension
1001
ACAD
1000
DSTYLE
1002
{
1070
    41
1040
10.0
1070
    42
1040
10.0
1070
    43
1040
8.0
1070
    44
1040
12.5
1070
    73
1070
     0
1070
    74
1070
     0
1070
    77
1070
     3
1070
    78
1070
    12
1070
   140
1040
30.0
1070
   141
1040
2.5
1070
   146
1040
0.7142857313156129
1070
   147
1040
10.0
1070
   171
1070
     4
1070
   172
1070
     1
1070
   173
1070
     1
1070
   271
1070
     4
1070
   272
1070
     4
1070
   274
1070
     2
1070
   279
1070
     0
1070
   284
1070
     0
1070
   285
1070
     0
1070
   286
1070
     0
1070
   340
1005
55
1070
   341
1005
154
1070
   343
1005
154
1070
   344
1005
154
1002
}
  0
DIMENSION
  5
4DD
330
6F
100
AcDbEntity
  8
SIZE
  6
Continuous
100
AcDbDimension
280
     0
  2
*D22
 10
534.5369406814949
 20
-550.1196579449041
 30
0.0
 11
0.0369406814953679
 21
-525.1196579449041
 31
0.0
 70
    32
  1
1069
 71
     5
 42
1068.999999999999
 73
     0
 74
     0
 75
     0
  3
STANDARD
100
AcDbAlignedDimension
 13
-534.4630593185041
 23
865.0000000000003
 33
0.0
 14
534.536940681495
 24
864.999999999998
 34
0.0
100
AcDbRotatedDimension
1001
ACAD
1000
DSTYLE
1002
{
1070
    41
1040
10.0
1070
    42
1040
10.0
1070
    43
1040
8.0
1070
    44
1040
12.5
1070
    73
1070
     0
1070
    74
1070
     0
1070
    77
1070
     3
1070
    78
1070
    12
1070
   140
1040
30.0
1070
   141
1040
2.5
1070
   146
1040
0.7142857313156129
1070
   147
1040
10.0
1070
   171
1070
     4
1070
   172
1070
     1
1070
   173
1070
     1
1070
   271
1070
     4
1070
   272
1070
     4
1070
   274
1070
     2
1070
   279
1070
     0
1070
   284
1070
     0
1070
   285
1070
     0
1070
   286
1070
     0
1070
   340
1005
55
1070
   341
1005
154
1070
   343
1005
154
1070
   344
1005
154
1002
}
  0
DIMENSION
  5
4EA
330
6F
100
AcDbEntity
  8
SIZE
  6
Continuous
100
AcDbDimension
280
     0
  2
*D23
 10
552.5369406814948
 20
-700.0509427177346
 30
0.0
 11
0.0369406814950837
 21
-675.0509427177346
 31
0.0
 70
    32
  1
1105
 71
     5
 42
1104.999999999999
 73
     0
 74
     0
 75
     0
  3
STANDARD
100
AcDbAlignedDimension
 13
-552.4630593185045
 23
869.7176822079439
 33
0.0
 14
552.5369406814949
 24
869.7176822079416
 34
0.0
100
AcDbRotatedDimension
1001
ACAD
1000
DSTYLE
1002
{
1070
    41
1040
10.0
1070
    42
1040
10.0
1070
    43
1040
8.0
1070
    44
1040
12.5
1070
    73
1070
     0
1070
    74
1070
     0
1070
    77
1070
     3
1070
    78
1070
    12
1070
   140
1040
30.0
1070
   141
1040
2.5
1070
   146
1040
0.7142857313156129
1070
   147
1040
10.0
1070
   171
1070
     4
1070
   172
1070
     1
1070
   173
1070
     1
1070
   271
1070
     4
1070
   272
1070
     4
1070
   274
1070
     2
1070
   279
1070
     0
1070
   284
1070
     0
1070
   285
1070
     0
1070
   286
1070
     0
1070
   340
1005
55
1070
   341
1005
154
1070
   343
1005
154
1070
   344
1005
154
1002
}
  0
DIMENSION
  5
628
330
6F
100
AcDbEntity
  8
SIZE
  6
Continuous
100
AcDbDimension
280
     0
  2
*D25
 10
697.963214209313
 20
0.0000000000000294
 30
0.0
 11
672.9632142093129
 21
479.9999999999998
 31
0.0
 70
    32
 71
     5
 42
960.0000000000003
 73
     0
 74
     0
 75
     0
  3
STANDARD
100
AcDbAlignedDimension
 13
512.5369406814952
 23
960.0
 33
0.0
 14
514.8369406814952
 24
0.0
 34
0.0
 50
90.0
100
AcDbRotatedDimension
1001
ACAD
1000
DSTYLE
1002
{
1070
    41
1040
10.0
1070
    42
1040
10.0
1070
    43
1040
8.0
1070
    44
1040
12.5
1070
    73
1070
     0
1070
    74
1070
     0
1070
    77
1070
     3
1070
    78
1070
    12
1070
   140
1040
30.0
1070
   141
1040
2.5
1070
   146
1040
0.7142857313156129
1070
   147
1040
10.0
1070
   171
1070
     4
1070
   172
1070
     1
1070
   173
1070
     1
1070
   271
1070
     4
1070
   272
1070
     4
1070
   274
1070
     2
1070
   279
1070
     0
1070
   284
1070
     0
1070
   285
1070
     0
1070
   286
1070
     0
1070
   340
1005
55
1070
   341
1005
154
1070
   343
1005
154
1070
   344
1005
154
1002
}
  0
DIMENSION
  5
6DA
330
6F
100
AcDbEntity
  8
SIZE
  6
Continuous
100
AcDbDimension
280
     0
  2
*D27
 10
-812.3555413883169
 20
-0.0000000000001118
 30
0.0
 11
-812.3555413883169
 21
376.5298789532459
 31
0.0
 70
   160
 71
     5
 42
840.0000000000007
 73
     0
 74
     0
 75
     0
  3
STANDARD
100
AcDbAlignedDimension
 13
-510.4630593185044
 23
840.0000000000003
 33
0.0
 14
-514.7630593185043
 24
-0.0000000000000639
 34
0.0
 50
90.0
100
AcDbRotatedDimension
1001
ACAD
1000
DSTYLE
1002
{
1070
    41
1040
10.0
1070
    42
1040
10.0
1070
    43
1040
8.0
1070
    44
1040
12.5
1070
    73
1070
     0
1070
    74
1070
     0
1070
    77
1070
     3
1070
    78
1070
    12
1070
   140
1040
30.0
1070
   141
1040
2.5
1070
   146
1040
0.7142857313156129
1070
   147
1040
10.0
1070
   171
1070
     4
1070
   172
1070
     1
1070
   173
1070
     1
1070
   271
1070
     4
1070
   272
1070
     4
1070
   274
1070
     2
1070
   279
1070
     0
1070
   284
1070
     0
1070
   285
1070
     0
1070
   286
1070
     0
1070
   340
1005
55
1070
   341
1005
154
1070
   343
1005
154
1070
   344
1005
154
1002
}
  0
DIMENSION
  5
6E7
330
6F
100
AcDbEntity
  8
SIZE
  6
Continuous
100
AcDbDimension
280
     0
  2
*D28
 10
-719.2000020430389
 20
-0.0000000000000949
 30
0.0
 11
-719.2000020430388
 21
407.5000000000001
 31
0.0
 70
   160
 71
     5
 42
815.0000000000003
 73
     0
 74
     0
 75
     0
  3
STANDARD
100
AcDbAlignedDimension
 13
-277.4630593185046
 23
815.0
 33
0.0
 14
-514.7630593185043
 24
-0.000000000000062
 34
0.0
 50
90.0
100
AcDbRotatedDimension
1001
ACAD
1000
DSTYLE
1002
{
1070
    41
1040
10.0
1070
    42
1040
10.0
1070
    43
1040
8.0
1070
    44
1040
12.5
1070
    73
1070
     0
1070
    74
1070
     0
1070
    77
1070
     3
1070
    78
1070
    12
1070
   140
1040
30.0
1070
   141
1040
2.5
1070
   146
1040
0.7142857313156129
1070
   147
1040
10.0
1070
   171
1070
     4
1070
   172
1070
     1
1070
   173
1070
     1
1070
   271
1070
     4
1070
   272
1070
     4
1070
   274
1070
     2
1070
   279
1070
     0
1070
   284
1070
     0
1070
   285
1070
     0
1070
   286
1070
     0
1070
   340
1005
55
1070
   341
1005
154
1070
   343
1005
154
1070
   344
1005
154
1002
}
  0
TEXT
  5
766
330
6F
100
AcDbEntity
  8
NOTE
  6
Continuous
100
AcDbText
 10
-1040.798399294375
 20
595.9047333460992
 30
0.0
 40
40.0
  1
M8x25
 50
0.0000024148365395
 41
0.6740384817123412
  7
STANDARD1
100
AcDbText
  0
CIRCLE
  5
805
330
6F
100
AcDbEntity
  8
DETAIL
  6
Continuous
100
AcDbCircle
 10
-490.4630593185037
 20
1045.0
 30
0.0
 40
5.0
  0
CIRCLE
  5
806
330
6F
100
AcDbEntity
  8
DETAIL
  6
Continuous
100
AcDbCircle
 10
-490.4630593185037
 20
1145.0
 30
0.0
 40
5.0
  0
CIRCLE
  5
809
330
6F
100
AcDbEntity
  8
DETAIL
  6
Continuous
100
AcDbCircle
 10
-490.4630593185037
 20
1225.0
 30
0.0
 40
5.0
  0
CIRCLE
  5
80A
330
6F
100
AcDbEntity
  8
DETAIL
  6
Continuous
100
AcDbCircle
 10
-490.4630593185037
 20
1244.0
 30
0.0
 40
5.0
  0
CIRCLE
  5
80E
330
6F
100
AcDbEntity
  8
DETAIL
  6
Continuous
100
AcDbCircle
 10
-490.4630593185037
 20
1308.0
 30
0.0
 40
5.0
  0
CIRCLE
  5
810
330
6F
100
AcDbEntity
  8
DETAIL
  6
Continuous
100
AcDbCircle
 10
-490.4630593185037
 20
1455.0
 30
0.0
 40
5.0
  0
ARC
  5
812
330
6F
100
AcDbEntity
  8
DETAIL
  6
Continuous
100
AcDbCircle
 10
490.5369406814939
 20
1555.7
 30
0.0
 40
4.650000000001455
100
AcDbArc
 50
0.0
 51
180.0
  0
ARC
  5
813
330
6F
100
AcDbEntity
  8
DETAIL
  6
Continuous
100
AcDbCircle
 10
490.5369406814939
 20
1535.0
 30
0.0
 40
4.649999999994173
100
AcDbArc
 50
180.0
 51
0.0
  0
LINE
  5
814
330
6F
100
AcDbEntity
  8
DETAIL
  6
Continuous
100
AcDbLine
 10
485.8869406814921
 20
1535.0
 30
0.0
 11
485.8869406814921
 21
1555.7
 31
0.0
  0
LINE
  5
815
330
6F
100
AcDbEntity
  8
DETAIL
  6
Continuous
100
AcDbLine
 10
495.1869406814877
 20
1555.7
 30
0.0
 11
495.1869406814877
 21
1535.0
 31
0.0
  0
CIRCLE
  5
816
330
6F
100
AcDbEntity
  8
DETAIL
  6
Continuous
100
AcDbCircle
 10
490.5369406814939
 20
1045.0
 30
0.0
 40
5.0
  0
CIRCLE
  5
817
330
6F
100
AcDbEntity
  8
DETAIL
  6
Continuous
100
AcDbCircle
 10
490.5369406814939
 20
1145.0
 30
0.0
 40
5.0
  0
CIRCLE
  5
818
330
6F
100
AcDbEntity
  8
DETAIL
  6
Continuous
100
AcDbCircle
 10
490.5369406814939
 20
1225.0
 30
0.0
 40
5.0
  0
CIRCLE
  5
819
330
6F
100
AcDbEntity
  8
DETAIL
  6
Continuous
100
AcDbCircle
 10
490.5369406814939
 20
1244.0
 30
0.0
 40
5.0
  0
CIRCLE
  5
81A
330
6F
100
AcDbEntity
  8
DETAIL
  6
Continuous
100
AcDbCircle
 10
490.5369406814939
 20
1308.0
 30
0.0
 40
5.0
  0
CIRCLE
  5
81B
330
6F
100
AcDbEntity
  8
DETAIL
  6
Continuous
100
AcDbCircle
 10
490.5369406814939
 20
1455.0
 30
0.0
 40
5.0
  0
DIMENSION
  5
89F
330
6F
100
AcDbEntity
  8
SIZE
  6
Continuous
100
AcDbDimension
280
     0
  2
*D29
 10
809.9045532783728
 20
0.0000000000000475
 30
0.0
 11
809.9045532783728
 21
971.0
 31
0.0
 70
   160
 71
     5
 42
1950.000000000002
 73
     0
 74
     0
 75
     0
  3
STANDARD
100
AcDbAlignedDimension
 13
550.0369406814963
 23
1950.000000000001
 33
0.0
 14
514.8369406814952
 24
0.0
 34
0.0
 50
90.0
100
AcDbRotatedDimension
1001
ACAD
1000
DSTYLE
1002
{
1070
    41
1040
10.0
1070
    42
1040
10.0
1070
    43
1040
8.0
1070
    44
1040
12.5
1070
    73
1070
     0
1070
    74
1070
     0
1070
    77
1070
     3
1070
    78
1070
    12
1070
   140
1040
30.0
1070
   141
1040
2.5
1070
   146
1040
0.7142857313156129
1070
   147
1040
10.0
1070
   171
1070
     4
1070
   172
1070
     1
1070
   173
1070
     1
1070
   271
1070
     4
1070
   272
1070
     4
1070
   274
1070
     2
1070
   279
1070
     0
1070
   284
1070
     0
1070
   285
1070
     0
1070
   286
1070
     0
1070
   340
1005
55
1070
   341
1005
154
1070
   343
1005
154
1070
   344
1005
154
1002
}
  0
LINE
  5
8AC
330
6F
100
AcDbEntity
  8
DETAIL
  6
DASHED
100
AcDbLine
 10
510.5369406814943
 20
957.0
 30
0.0
 11
510.5369406814943
 21
840.0000000000009
 31
0.0
  0
LINE
  5
8B8
330
6F
100
AcDbEntity
  8
DETAIL
  6
DASHED
100
AcDbLine
 10
-477.4630593185044
 20
840.0000000000003
 30
0.0
 11
-472.4630593185044
 21
845.0000000000002
 31
0.0
  0
LINE
  5
8B9
330
6F
100
AcDbEntity
  8
DETAIL
  6
DASHED
100
AcDbLine
 10
-510.4630593185044
 20
840.0000000000003
 30
0.0
 11
-477.4630593185044
 21
840.0000000000003
 31
0.0
  0
LINE
  5
8BA
330
6F
100
AcDbEntity
  8
DETAIL
  6
DASHED
100
AcDbLine
 10
-510.4630593185044
 20
957.0
 30
0.0
 11
-510.4630593185044
 21
840.0000000000003
 31
0.0
  0
CIRCLE
  5
B41
330
6F
100
AcDbEntity
  8
DETAIL
  6
Continuous
100
AcDbCircle
 10
490.5369406814953
 20
779.9999999999976
 30
0.0
 40
5.0
  0
CIRCLE
  5
B42
330
6F
100
AcDbEntity
  8
DETAIL
  6
Continuous
100
AcDbCircle
 10
-490.4630593185038
 20
780.0000000000001
 30
0.0
 40
5.0
  0
CIRCLE
  5
B45
330
6F
100
AcDbEntity
  8
DETAIL
  6
Continuous
100
AcDbCircle
 10
490.5369406814951
 20
235.0000000000001
 30
0.0
 40
5.0
  0
CIRCLE
  5
B46
330
6F
100
AcDbEntity
  8
DETAIL
  6
Continuous
100
AcDbCircle
 10
-490.4630593185041
 20
235.0000000000026
 30
0.0
 40
5.0
  0
ENDSEC
  0
SECTION
  2
OBJECTS
  0
DICTIONARY
  5
C
330
0
100
AcDbDictionary
281
     1
  3
ACAD_CIP_PREVIOUS_PRODUCT_INFO
350
3B1
  3
ACAD_COLOR
350
62
  3
ACAD_DETAILVIEWSTYLE
350
69
  3
ACAD_GROUP
350
D
  3
ACAD_LAYOUT
350
61
  3
ACAD_MATERIAL
350
10
  3
ACAD_MLEADERSTYLE
350
65
  3
ACAD_MLINESTYLE
350
5E
  3
ACAD_PLOTSETTINGS
350
60
  3
ACAD_PLOTSTYLENAME
350
E
  3
ACAD_SCALELIST
350
42
  3
ACAD_SECTIONVIEWSTYLE
350
67
  3
ACAD_TABLESTYLE
350
63
  3
ACAD_VISUALSTYLE
350
29
  3
ACDB_RECOMPOSE_DATA
350
F24
  3
AcDbVariableDictionary
350
3D2
  0
DICTIONARY
  5
5C0
330
2
100
AcDbDictionary
280
     1
281
     1
  3
ACAD_LAYERSTATES
360
5C1
  0
DICTIONARY
  5
3BC
330
54
100
AcDbDictionary
280
     1
281
     1
  3
ADSK_XREC_LAYER_RECONCILED
360
3BD
  0
DICTIONARY
  5
3BE
330
78
100
AcDbDictionary
280
     1
281
     1
  3
ADSK_XREC_LAYER_RECONCILED
360
3BF
  0
DICTIONARY
  5
3C0
330
79
100
AcDbDictionary
280
     1
281
     1
  3
ADSK_XREC_LAYER_RECONCILED
360
3C1
  0
DICTIONARY
  5
3C2
330
7A
100
AcDbDictionary
280
     1
281
     1
  3
ADSK_XREC_LAYER_RECONCILED
360
3C3
  0
DICTIONARY
  5
3C4
330
7B
100
AcDbDictionary
280
     1
281
     1
  3
ADSK_XREC_LAYER_RECONCILED
360
3C5
  0
DICTIONARY
  5
3C6
330
7C
100
AcDbDictionary
280
     1
281
     1
  3
ADSK_XREC_LAYER_RECONCILED
360
3C7
  0
DICTIONARY
  5
3C8
330
7D
100
AcDbDictionary
280
     1
281
     1
  3
ADSK_XREC_LAYER_RECONCILED
360
3C9
  0
DICTIONARY
  5
3CA
330
7E
100
AcDbDictionary
280
     1
281
     1
  3
ADSK_XREC_LAYER_RECONCILED
360
3CB
  0
DICTIONARY
  5
3CC
330
7F
100
AcDbDictionary
280
     1
281
     1
  3
ADSK_XREC_LAYER_RECONCILED
360
3CD
  0
DICTIONARY
  5
3CE
330
80
100
AcDbDictionary
280
     1
281
     1
  3
ADSK_XREC_LAYER_RECONCILED
360
3CF
  0
DICTIONARY
  5
3D0
330
81
100
AcDbDictionary
280
     1
281
     1
  3
ADSK_XREC_LAYER_RECONCILED
360
3D1
  0
DICTIONARY
  5
8AD
330
6F
100
AcDbDictionary
280
     1
281
     1
  3
ACAD_SORTENTS
360
8AE
  0
XRECORD
  5
3B1
102
{ACAD_REACTORS
330
C
102
}
330
C
100
AcDbXrecord
280
     1
300
ACDLT
300
2018
300
86831ACDLT_2018_0F
  0
DICTIONARY
  5
62
102
{ACAD_REACTORS
330
C
102
}
330
C
100
AcDbDictionary
281
     1
  0
DICTIONARY
  5
69
102
{ACAD_REACTORS
330
C
102
}
330
C
100
AcDbDictionary
281
     1
  3
Imperial24
350
6A
  0
DICTIONARY
  5
D
102
{ACAD_REACTORS
330
C
102
}
330
C
100
AcDbDictionary
281
     1
  0
DICTIONARY
  5
61
102
{ACAD_REACTORS
330
C
102
}
330
C
100
AcDbDictionary
281
     1
  3
Model
350
72
  3
レイアウト1
350
6E
  0
DICTIONARY
  5
10
102
{ACAD_REACTORS
330
C
102
}
330
C
100
AcDbDictionary
281
     1
  3
ByBlock
350
19
  3
ByLayer
350
11
  3
Global
350
21
  0
DICTIONARY
  5
65
102
{ACAD_REACTORS
330
C
102
}
330
C
100
AcDbDictionary
281
     1
  3
Standard
350
66
  0
DICTIONARY
  5
5E
102
{ACAD_REACTORS
330
C
102
}
330
C
100
AcDbDictionary
281
     1
  3
Standard
350
5F
  0
DICTIONARY
  5
60
102
{ACAD_REACTORS
330
C
102
}
330
C
100
AcDbDictionary
281
     1
  0
ACDBDICTIONARYWDFLT
  5
E
102
{ACAD_REACTORS
330
C
102
}
330
C
100
AcDbDictionary
281
     1
  3
Normal
350
F
100
AcDbDictionaryWithDefault
340
F
  0
DICTIONARY
  5
42
102
{ACAD_REACTORS
330
C
102
}
330
C
100
AcDbDictionary
281
     1
  3
A0
350
43
  3
A1
350
44
  3
A2
350
45
  3
A3
350
46
  3
A4
350
47
  3
A5
350
48
  3
A6
350
49
  3
A7
350
4A
  3
A8
350
4B
  3
A9
350
4C
  3
B0
350
4D
  3
B1
350
4E
  3
B2
350
4F
  3
B3
350
50
  3
B4
350
51
  3
B5
350
52
  3
B6
350
53
  0
DICTIONARY
  5
67
102
{ACAD_REACTORS
330
C
102
}
330
C
100
AcDbDictionary
281
     1
  3
Imperial24
350
68
  0
DICTIONARY
  5
63
102
{ACAD_REACTORS
330
C
102
}
330
C
100
AcDbDictionary
281
     1
  3
Standard
350
64
  0
DICTIONARY
  5
29
102
{ACAD_REACTORS
330
C
102
}
330
C
100
AcDbDictionary
281
     1
  3
2dWireframe
350
2F
  3
Basic
350
2E
  3
Brighten
350
35
  3
ColorChange
350
39
  3
Conceptual
350
32
  3
Dim
350
34
  3
EdgeColorOff
350
41
  3
Facepattern
350
38
  3
Flat
350
2A
  3
FlatWithEdges
350
2B
  3
Gouraud
350
2C
  3
GouraudWithEdges
350
2D
  3
Hidden
350
31
  3
JitterOff
350
3F
  3
Linepattern
350
37
  3
OverhangOff
350
40
  3
Realistic
350
33
  3
Shaded
350
3E
  3
Shaded with edges
350
3D
  3
Shades of Gray
350
3A
  3
Sketchy
350
3B
  3
Thicken
350
36
  3
Wireframe
350
30
  3
X-Ray
350
3C
  0
XRECORD
  5
F24
102
{ACAD_REACTORS
330
C
102
}
330
C
100
AcDbXrecord
280
     1
 90
        1
330
64
  0
DICTIONARY
  5
3D2
102
{ACAD_REACTORS
330
C
102
}
330
C
100
AcDbDictionary
281
     1
  3
CANNOSCALE
350
3D8
  3
CMLEADERSTYLE
350
3D4
  3
CTABLESTYLE
350
3D3
  3
CVIEWDETAILSTYLE
350
3D5
  3
CVIEWSECTIONSTYLE
350
3D6
  3
LAYEREVAL
350
3DA
  3
LAYERNOTIFY
350
3DB
  3
LIGHTINGUNITS
350
3D9
  3
MSLTSCALE
350
3D7
  0
DICTIONARY
  5
5C1
102
{ACAD_REACTORS
330
5C0
102
}
330
5C0
100
AcDbDictionary
281
     1
  0
XRECORD
  5
3BD
102
{ACAD_REACTORS
330
3BC
102
}
330
3BC
100
AcDbXrecord
280
     1
290
     1
  0
XRECORD
  5
3BF
102
{ACAD_REACTORS
330
3BE
102
}
330
3BE
100
AcDbXrecord
280
     1
290
     1
  0
XRECORD
  5
3C1
102
{ACAD_REACTORS
330
3C0
102
}
330
3C0
100
AcDbXrecord
280
     1
290
     1
  0
XRECORD
  5
3C3
102
{ACAD_REACTORS
330
3C2
102
}
330
3C2
100
AcDbXrecord
280
     1
290
     1
  0
XRECORD
  5
3C5
102
{ACAD_REACTORS
330
3C4
102
}
330
3C4
100
AcDbXrecord
280
     1
290
     1
  0
XRECORD
  5
3C7
102
{ACAD_REACTORS
330
3C6
102
}
330
3C6
100
AcDbXrecord
280
     1
290
     1
  0
XRECORD
  5
3C9
102
{ACAD_REACTORS
330
3C8
102
}
330
3C8
100
AcDbXrecord
280
     1
290
     1
  0
XRECORD
  5
3CB
102
{ACAD_REACTORS
330
3CA
102
}
330
3CA
100
AcDbXrecord
280
     1
290
     1
  0
XRECORD
  5
3CD
102
{ACAD_REACTORS
330
3CC
102
}
330
3CC
100
AcDbXrecord
280
     1
290
     1
  0
XRECORD
  5
3CF
102
{ACAD_REACTORS
330
3CE
102
}
330
3CE
100
AcDbXrecord
280
     1
290
     1
  0
XRECORD
  5
3D1
102
{ACAD_REACTORS
330
3D0
102
}
330
3D0
100
AcDbXrecord
280
     1
290
     1
  0
SORTENTSTABLE
  5
8AE
102
{ACAD_REACTORS
330
8AD
102
}
330
8AD
100
AcDbSortentsTable
330
6F
331
39D
  5
3A1
331
33E
  5
36C
331
33A
  5
33E
331
399
  5
39D
331
3A5
  5
3A9
331
3A1
  5
3A5
331
1D6
  5
1D6
331
1FC
  5
1FE
331
1F8
  5
1FA
331
204
  5
206
331
200
  5
202
331
2EE
  5
2F2
331
2AF
  5
2B3
331
2EA
  5
2EE
331
2AB
  5
2AF
331
276
  5
27A
331
237
  5
239
331
2B7
  5
2BB
331
2F6
  5
2FA
331
81B
  5
8B6
331
233
  5
235
331
2F2
  5
2F6
331
2B3
  5
2B7
331
272
  5
276
331
23F
  5
241
331
27E
  5
282
331
27A
  5
27E
331
4DD
  5
6E7
331
38D
  5
391
331
312
  5
32A
331
389
  5
38D
331
395
  5
399
331
336
  5
33A
331
391
  5
395
331
1EC
  5
1EE
331
1E8
  5
1EA
331
1F4
  5
1F6
331
1F0
  5
1F2
331
2DE
  5
2E2
331
29F
  5
2A3
331
2DA
  5
2DE
331
29B
  5
29F
331
266
  5
26A
331
227
  5
229
331
2A7
  5
2AB
331
2E6
  5
2EA
331
262
  5
266
331
2E2
  5
2E6
331
817
  5
81B
331
2A3
  5
2A7
331
223
  5
225
331
813
  5
817
331
22F
  5
231
331
26E
  5
272
331
26A
  5
26E
331
22B
  5
22D
331
805
  5
80E
331
37E
  5
382
331
37A
  5
37E
331
386
  5
38A
331
382
  5
386
331
21C
  5
21E
331
1DD
  5
1DE
331
218
  5
21A
331
1D9
  5
1D9
331
1E5
  5
1E7
331
1E1
  5
1E3
331
30E
  5
312
331
2CF
  5
2D3
331
30A
  5
30E
331
2CB
  5
2CF
331
296
  5
29A
331
2D7
  5
2DB
331
257
  5
25B
331
292
  5
296
331
2D3
  5
2D7
331
253
  5
257
331
25F
  5
263
331
25B
  5
25F
331
3AD
  5
4DD
331
36E
  5
372
331
3A9
  5
3AD
331
376
  5
37A
331
372
  5
376
331
20C
  5
20E
331
208
  5
20A
331
214
  5
216
331
210
  5
212
331
2FE
  5
302
331
2BF
  5
2C3
331
2FA
  5
2FF
331
2BB
  5
2BF
331
286
  5
28A
331
247
  5
249
331
306
  5
30A
331
2C7
  5
2CB
331
282
  5
286
331
2C3
  5
2C7
331
302
  5
306
331
24F
  5
253
331
28E
  5
292
331
28A
  5
28E
331
24B
  5
24D
331
4EA
  5
73E
331
39E
  5
3A2
331
33F
  5
36D
331
33B
  5
33F
331
39A
  5
39E
331
3A6
  5
3AA
331
3A2
  5
3A6
331
353
  5
36E
331
1D7
  5
1D7
331
1FD
  5
1FF
331
1F9
  5
1FB
331
205
  5
207
331
201
  5
203
331
2AC
  5
2B0
331
2EF
  5
2F3
331
2A8
  5
2AC
331
234
  5
236
331
2EB
  5
2EF
331
818
  5
89F
331
2B4
  5
2B8
331
2B0
  5
2B4
331
277
  5
27B
331
230
  5
232
331
2F7
  5
2FB
331
23C
  5
23E
331
2F3
  5
2F7
331
273
  5
277
331
27F
  5
283
331
238
  5
23A
331
27B
  5
27F
331
38E
  5
392
331
313
  5
32B
331
8AC
  5
24E
331
38A
  5
38E
331
396
  5
39A
331
337
  5
33B
331
392
  5
396
331
1ED
  5
1EF
331
1E9
  5
1EB
331
1F5
  5
1F7
331
1F1
  5
1F3
331
29C
  5
2A0
331
2DF
  5
2E3
331
298
  5
29C
331
224
  5
226
331
2DB
  5
2DF
331
2A4
  5
2A8
331
2A0
  5
2A4
331
267
  5
26B
331
220
  5
222
331
2E7
  5
2EB
331
814
  5
818
331
22C
  5
22E
331
2E3
  5
2E7
331
810
  5
815
331
263
  5
267
331
228
  5
22A
331
26F
  5
273
331
26B
  5
26F
331
806
  5
810
331
37F
  5
383
331
37B
  5
37F
331
387
  5
38B
331
383
  5
387
331
21D
  5
21F
331
1DE
  5
1E0
331
219
  5
21B
331
1DA
  5
1DA
331
1E6
  5
1E8
331
1E2
  5
1E4
331
2CC
  5
2D0
331
30F
  5
313
331
2C8
  5
2CC
331
254
  5
258
331
30B
  5
30F
331
2D4
  5
2D8
331
2D0
  5
2D4
331
297
  5
29B
331
250
  5
254
331
293
  5
297
331
25C
  5
260
331
258
  5
25C
331
6DA
  5
766
331
3AE
  5
4EA
331
36F
  5
373
331
3AA
  5
3AE
331
377
  5
37B
331
766
  5
80A
331
373
  5
377
331
20D
  5
20F
331
209
  5
20B
331
215
  5
217
331
211
  5
213
331
2BC
  5
2C0
331
2FF
  5
303
331
2B8
  5
2BC
331
2FB
  5
300
331
2C4
  5
2C8
331
2C0
  5
2C4
331
287
  5
28B
331
240
  5
246
331
307
  5
30B
331
283
  5
287
331
24C
  5
24F
331
303
  5
307
331
248
  5
24A
331
28F
  5
293
331
28B
  5
28F
331
33C
  5
353
331
338
  5
33C
331
39F
  5
3A3
331
354
  5
36F
331
39B
  5
39F
331
3A7
  5
3AB
331
3A3
  5
3A7
331
1FE
  5
200
331
1FA
  5
1FC
331
206
  5
208
331
202
  5
204
331
2EC
  5
2F0
331
2AD
  5
2B1
331
2E8
  5
2EC
331
2A9
  5
2AD
331
274
  5
278
331
235
  5
237
331
2B5
  5
2B9
331
2F4
  5
2F8
331
819
  5
8AC
331
270
  5
274
331
231
  5
233
331
2B1
  5
2B5
331
2F0
  5
2F4
331
23D
  5
23F
331
27C
  5
280
331
278
  5
27C
331
239
  5
23B
331
38F
  5
393
331
310
  5
31C
331
38B
  5
38F
331
397
  5
39B
331
393
  5
397
331
1EE
  5
1F0
331
1EA
  5
1EC
331
1F6
  5
1F8
331
1F2
  5
1F4
331
2DC
  5
2E0
331
29D
  5
2A1
331
2D8
  5
2DC
331
299
  5
29D
331
264
  5
268
331
225
  5
227
331
2E4
  5
2E8
331
809
  5
812
331
2A5
  5
2A9
331
260
  5
264
331
221
  5
223
331
815
  5
819
331
2A1
  5
2A5
331
2E0
  5
2E4
331
22D
  5
22F
331
26C
  5
270
331
268
  5
26C
331
229
  5
22B
331
89F
  5
8B7
331
37C
  5
380
331
378
  5
37C
331
384
  5
388
331
380
  5
384
331
21E
  5
220
331
1DF
  5
1E1
331
21A
  5
21C
331
1DB
  5
1DC
331
1E7
  5
1E9
331
1E3
  5
1E5
331
30C
  5
310
331
2CD
  5
2D1
331
308
  5
30C
331
2C9
  5
2CD
331
294
  5
298
331
255
  5
259
331
2D5
  5
2D9
331
290
  5
294
331
2D1
  5
2D5
331
251
  5
255
331
25D
  5
261
331
259
  5
25D
331
6E7
  5
805
331
36C
  5
370
331
3AF
  5
628
331
374
  5
378
331
3AB
  5
3AF
331
370
  5
374
331
20E
  5
210
331
20A
  5
20C
331
216
  5
218
331
212
  5
214
331
2BD
  5
2C1
331
2F8
  5
2FD
331
2B9
  5
2BD
331
284
  5
288
331
304
  5
308
331
2C5
  5
2C9
331
280
  5
284
331
241
  5
247
331
2C1
  5
2C5
331
300
  5
304
331
28C
  5
290
331
24D
  5
250
331
249
  5
24B
331
288
  5
28C
331
628
  5
760
331
39C
  5
3A0
331
339
  5
33D
331
398
  5
39C
331
3A4
  5
3A8
331
3A0
  5
3A4
331
1D5
  5
1D5
331
1FF
  5
201
331
1FB
  5
1FD
331
207
  5
209
331
203
  5
205
331
2ED
  5
2F1
331
2AE
  5
2B2
331
2E9
  5
2ED
331
2AA
  5
2AE
331
275
  5
279
331
236
  5
238
331
2B6
  5
2BA
331
2F5
  5
2F9
331
81A
  5
8AF
331
271
  5
275
331
2F1
  5
2F5
331
2B2
  5
2B6
331
232
  5
234
331
23E
  5
240
331
27D
  5
281
331
279
  5
27D
331
4D0
  5
6DA
331
38C
  5
390
331
311
  5
327
331
388
  5
38C
331
335
  5
339
331
394
  5
398
331
390
  5
394
331
1EF
  5
1F1
331
1EB
  5
1ED
331
1F7
  5
1F9
331
1F3
  5
1F5
331
2DD
  5
2E1
331
29E
  5
2A2
331
2D9
  5
2DD
331
80E
  5
814
331
29A
  5
29E
331
265
  5
269
331
226
  5
228
331
2A6
  5
2AA
331
2E5
  5
2E9
331
80A
  5
813
331
261
  5
265
331
222
  5
224
331
816
  5
81A
331
2A2
  5
2A6
331
2E1
  5
2E5
331
812
  5
816
331
22E
  5
230
331
26D
  5
271
331
269
  5
26D
331
22A
  5
22C
331
37D
  5
381
331
379
  5
37D
331
385
  5
389
331
381
  5
385
331
1DC
  5
1DD
331
21F
  5
221
331
1D8
  5
1D8
331
21B
  5
21D
331
1E4
  5
1E6
331
1E0
  5
1E2
331
30D
  5
311
331
2CE
  5
2D2
331
309
  5
30D
331
2CA
  5
2CE
331
295
  5
299
331
256
  5
25A
331
2D6
  5
2DA
331
291
  5
295
331
2D2
  5
2D6
331
252
  5
256
331
25E
  5
262
331
25A
  5
25E
331
3AC
  5
4D0
331
36D
  5
371
331
3A8
  5
3AC
331
375
  5
379
331
371
  5
375
331
20F
  5
211
331
20B
  5
20D
331
217
  5
219
331
213
  5
215
331
2FD
  5
301
331
2BE
  5
2C2
331
2F9
  5
2FE
331
2BA
  5
2BE
331
285
  5
289
331
246
  5
248
331
305
  5
309
331
2C6
  5
2CA
331
281
  5
285
331
2C2
  5
2C6
331
301
  5
305
331
24E
  5
251
331
28D
  5
291
331
24A
  5
24C
331
289
  5
28D
  0
ACDBDETAILVIEWSTYLE
  5
6A
102
{ACAD_XDICTIONARY
360
F27
102
}
102
{ACAD_REACTORS
330
69
102
}
330
69
100
AcDbModelDocViewStyle
 70
     0
  3
Imperial24
290
     0
100
AcDbDetailViewStyle
 70
     0
 71
     0
 90
        3
 71
     1
340
55
 62
   256
 40
0.24
340
0
 62
   256
 40
0.24
300

 40
0.36
280
     3
 71
     2
340
5C
 90
       25
 62
   256
 71
     3
340
55
 62
   256
 40
0.24
 90
        1
 40
0.75
 90
        1
300
%<\AcVar ViewType \f "%tc1">% %<\AcVar ViewDetailId>%\PSCALE %<\AcVar ViewScale \f "%sn">%
 71
     4
340
5C
 90
       25
 62
   256
340
5C
 90
       25
 62
   256
280
     0
  0
LAYOUT
  5
72
102
{ACAD_REACTORS
330
61
102
}
330
61
100
AcDbPlotSettings
  1

  2
EPSON LP-S3200複合棟
  4
A4
  6

 40
5.873749732971191
 41
5.873748779296875
 42
5.873733520507812
 43
5.873748779296875
 44
209.9733276367186
 45
297.0106506347656
 46
0.0
 47
0.0
 48
-1362.20521130005
 49
-1048.852149213455
140
1340.01273469648
141
2729.446574356529
142
1.0
143
346.2532145688019
 70
 11952
 72
     0
 73
     0
 74
     4
  7
monochrome.ctb
 75
     0
147
0.0028880598299869
 76
     0
 77
     2
 78
   300
148
34600.01236702127
149
26640.84459002176
100
AcDbLayout
  1
Model
 70
     1
 71
     0
 10
0.0
 20
0.0
 11
12.0
 21
9.0
 12
0.0
 22
0.0
 32
0.0
 14
0.0
 24
0.0
 34
0.0
 15
0.0
 25
0.0
 35
0.0
146
0.0
 13
0.0
 23
0.0
 33
0.0
 16
1.0
 26
0.0
 36
0.0
 17
0.0
 27
1.0
 37
0.0
 76
     0
330
6F
331
88
1001
ACAD_PSEXT
1000
EPSON LP-S3200複合棟
1000
EPSON LP-S3200
1000
10.70.14.11
1000

1070
     0
  0
LAYOUT
  5
6E
102
{ACAD_REACTORS
330
61
102
}
330
61
100
AcDbPlotSettings
  1

  2
EPSON LP-S3200複合棟
  4

  6

 40
0.0
 41
0.0
 42
0.0
 43
0.0
 44
0.0
 45
0.0
 46
0.0
 47
0.0
 48
0.0
 49
0.0
140
0.0
141
0.0
142
1.0
143
1.0
 70
   688
 72
     0
 73
     0
 74
     5
  7
monochrome.ctb
 75
    16
147
1.0
 76
     0
 77
     2
 78
   300
148
0.0
149
0.0
100
AcDbLayout
  1
レイアウト1
 70
     1
 71
     1
 10
0.0
 20
0.0
 11
12.0
 21
9.0
 12
0.0
 22
0.0
 32
0.0
 14
1.000000000000000E+20
 24
1.000000000000000E+20
 34
1.000000000000000E+20
 15
-1.000000000000000E+20
 25
-1.000000000000000E+20
 35
-1.000000000000000E+20
146
0.0
 13
0.0
 23
0.0
 33
0.0
 16
1.0
 26
0.0
 36
0.0
 17
0.0
 27
1.0
 37
0.0
 76
     0
330
6B
  0
MATERIAL
  5
19
102
{ACAD_REACTORS
330
10
102
}
330
10
100
AcDbMaterial
  1
ByBlock
 72
     0
 43
0.0208333333333333
 43
0.0
 43
0.0
 43
0.0
 43
0.0
 43
0.0208333333333333
 43
0.0
 43
0.0
 43
0.0
 43
0.0
 43
1.0
 43
0.0
 43
0.0
 43
0.0
 43
0.0
 43
1.0
 77
     0
 47
0.0208333333333333
 47
0.0
 47
0.0
 47
0.0
 47
0.0
 47
0.0208333333333333
 47
0.0
 47
0.0
 47
0.0
 47
0.0
 47
1.0
 47
0.0
 47
0.0
 47
0.0
 47
0.0
 47
1.0
171
     0
 49
0.0208333333333333
 49
0.0
 49
0.0
 49
0.0
 49
0.0
 49
0.0208333333333333
 49
0.0
 49
0.0
 49
0.0
 49
0.0
 49
1.0
 49
0.0
 49
0.0
 49
0.0
 49
0.0
 49
1.0
175
     0
142
0.0208333333333333
142
0.0
142
0.0
142
0.0
142
0.0
142
0.0208333333333333
142
0.0
142
0.0
142
0.0
142
0.0
142
1.0
142
0.0
142
0.0
142
0.0
142
0.0
142
1.0
179
     0
144
0.0208333333333333
144
0.0
144
0.0
144
0.0
144
0.0
144
0.0208333333333333
144
0.0
144
0.0
144
0.0
144
0.0
144
1.0
144
0.0
144
0.0
144
0.0
144
0.0
144
1.0
147
0.0208333333333333
147
0.0
147
0.0
147
0.0
147
0.0
147
0.0208333333333333
147
0.0
147
0.0
147
0.0
147
0.0
147
1.0
147
0.0
147
0.0
147
0.0
147
0.0
147
1.0
  0
MATERIAL
  5
11
102
{ACAD_REACTORS
330
10
102
}
330
10
100
AcDbMaterial
  1
ByLayer
 72
     0
 43
0.0208333333333333
 43
0.0
 43
0.0
 43
0.0
 43
0.0
 43
0.0208333333333333
 43
0.0
 43
0.0
 43
0.0
 43
0.0
 43
1.0
 43
0.0
 43
0.0
 43
0.0
 43
0.0
 43
1.0
 77
     0
 47
0.0208333333333333
 47
0.0
 47
0.0
 47
0.0
 47
0.0
 47
0.0208333333333333
 47
0.0
 47
0.0
 47
0.0
 47
0.0
 47
1.0
 47
0.0
 47
0.0
 47
0.0
 47
0.0
 47
1.0
171
     0
 49
0.0208333333333333
 49
0.0
 49
0.0
 49
0.0
 49
0.0
 49
0.0208333333333333
 49
0.0
 49
0.0
 49
0.0
 49
0.0
 49
1.0
 49
0.0
 49
0.0
 49
0.0
 49
0.0
 49
1.0
175
     0
142
0.0208333333333333
142
0.0
142
0.0
142
0.0
142
0.0
142
0.0208333333333333
142
0.0
142
0.0
142
0.0
142
0.0
142
1.0
142
0.0
142
0.0
142
0.0
142
0.0
142
1.0
179
     0
144
0.0208333333333333
144
0.0
144
0.0
144
0.0
144
0.0
144
0.0208333333333333
144
0.0
144
0.0
144
0.0
144
0.0
144
1.0
144
0.0
144
0.0
144
0.0
144
0.0
144
1.0
147
0.0208333333333333
147
0.0
147
0.0
147
0.0
147
0.0
147
0.0208333333333333
147
0.0
147
0.0
147
0.0
147
0.0
147
1.0
147
0.0
147
0.0
147
0.0
147
0.0
147
1.0
  0
MATERIAL
  5
21
102
{ACAD_XDICTIONARY
360
22
102
}
102
{ACAD_REACTORS
330
10
102
}
330
10
100
AcDbMaterial
  1
Global
 72
     0
 43
0.0208333333333333
 43
0.0
 43
0.0
 43
0.0
 43
0.0
 43
0.0208333333333333
 43
0.0
 43
0.0
 43
0.0
 43
0.0
 43
1.0
 43
0.0
 43
0.0
 43
0.0
 43
0.0
 43
1.0
 77
     0
 47
0.0208333333333333
 47
0.0
 47
0.0
 47
0.0
 47
0.0
 47
0.0208333333333333
 47
0.0
 47
0.0
 47
0.0
 47
0.0
 47
1.0
 47
0.0
 47
0.0
 47
0.0
 47
0.0
 47
1.0
171
     0
 49
0.0208333333333333
 49
0.0
 49
0.0
 49
0.0
 49
0.0
 49
0.0208333333333333
 49
0.0
 49
0.0
 49
0.0
 49
0.0
 49
1.0
 49
0.0
 49
0.0
 49
0.0
 49
0.0
 49
1.0
175
     0
142
0.0208333333333333
142
0.0
142
0.0
142
0.0
142
0.0
142
0.0208333333333333
142
0.0
142
0.0
142
0.0
142
0.0
142
1.0
142
0.0
142
0.0
142
0.0
142
0.0
142
1.0
179
     0
144
0.0208333333333333
144
0.0
144
0.0
144
0.0
144
0.0
144
0.0208333333333333
144
0.0
144
0.0
144
0.0
144
0.0
144
1.0
144
0.0
144
0.0
144
0.0
144
0.0
144
1.0
147
0.0208333333333333
147
0.0
147
0.0
147
0.0
147
0.0
147
0.0208333333333333
147
0.0
147
0.0
147
0.0
147
0.0
147
1.0
147
0.0
147
0.0
147
0.0
147
0.0
147
1.0
  0
MLEADERSTYLE
  5
66
102
{ACAD_REACTORS
330
65
102
}
330
65
100
AcDbMLeaderStyle
179
     2
170
     2
171
     1
172
     0
 90
        2
 40
0.0
 41
0.0
173
     1
 91
-1056964608
340
5A
 92
       -2
290
     1
 42
0.09
291
     1
 43
0.36
  3
Standard
 44
0.18
300

342
55
174
     1
178
     6
175
     1
176
     0
 93
-1056964608
 45
0.18
292
     0
297
     0
 46
0.18
 94
-1056964608
 47
1.0
 49
1.0
140
1.0
293
     1
141
0.0
294
     1
177
     0
142
1.0
295
     0
296
     0
143
0.125
271
     0
272
     9
273
     9
298
     0
1001
ACAD_MLEADERVER
1070
     2
  0
MLINESTYLE
  5
5F
102
{ACAD_REACTORS
330
5E
102
}
330
5E
100
AcDbMlineStyle
  2
STANDARD
 70
     0
  3

 62
   256
 51
90.0
 52
90.0
 71
     2
 49
0.5
 62
   256
  6
BYLAYER
 49
-0.5
 62
   256
  6
BYLAYER
  0
ACDBPLACEHOLDER
  5
F
102
{ACAD_REACTORS
330
E
102
}
330
E
  0
SCALE
  5
43
102
{ACAD_REACTORS
330
42
102
}
330
42
100
AcDbScale
 70
     0
300
1:1
140
1.0
141
1.0
290
     1
  0
SCALE
  5
44
102
{ACAD_REACTORS
330
42
102
}
330
42
100
AcDbScale
 70
     0
300
1/128" = 1'-0"
140
0.0078125
141
12.0
290
     0
  0
SCALE
  5
45
102
{ACAD_REACTORS
330
42
102
}
330
42
100
AcDbScale
 70
     0
300
1/64" = 1'-0"
140
0.015625
141
12.0
290
     0
  0
SCALE
  5
46
102
{ACAD_REACTORS
330
42
102
}
330
42
100
AcDbScale
 70
     0
300
1/32" = 1'-0"
140
0.03125
141
12.0
290
     0
  0
SCALE
  5
47
102
{ACAD_REACTORS
330
42
102
}
330
42
100
AcDbScale
 70
     0
300
1/16" = 1'-0"
140
0.0625
141
12.0
290
     0
  0
SCALE
  5
48
102
{ACAD_REACTORS
330
42
102
}
330
42
100
AcDbScale
 70
     0
300
3/32" = 1'-0"
140
0.09375
141
12.0
290
     0
  0
SCALE
  5
49
102
{ACAD_REACTORS
330
42
102
}
330
42
100
AcDbScale
 70
     0
300
1/8" = 1'-0"
140
0.125
141
12.0
290
     0
  0
SCALE
  5
4A
102
{ACAD_REACTORS
330
42
102
}
330
42
100
AcDbScale
 70
     0
300
3/16" = 1'-0"
140
0.1875
141
12.0
290
     0
  0
SCALE
  5
4B
102
{ACAD_REACTORS
330
42
102
}
330
42
100
AcDbScale
 70
     0
300
1/4" = 1'-0"
140
0.25
141
12.0
290
     0
  0
SCALE
  5
4C
102
{ACAD_REACTORS
330
42
102
}
330
42
100
AcDbScale
 70
     0
300
3/8" = 1'-0"
140
0.375
141
12.0
290
     0
  0
SCALE
  5
4D
102
{ACAD_REACTORS
330
42
102
}
330
42
100
AcDbScale
 70
     0
300
1/2" = 1'-0"
140
0.5
141
12.0
290
     0
  0
SCALE
  5
4E
102
{ACAD_REACTORS
330
42
102
}
330
42
100
AcDbScale
 70
     0
300
3/4" = 1'-0"
140
0.75
141
12.0
290
     0
  0
SCALE
  5
4F
102
{ACAD_REACTORS
330
42
102
}
330
42
100
AcDbScale
 70
     0
300
1" = 1'-0"
140
1.0
141
12.0
290
     0
  0
SCALE
  5
50
102
{ACAD_REACTORS
330
42
102
}
330
42
100
AcDbScale
 70
     0
300
1-1/2" = 1'-0"
140
1.5
141
12.0
290
     0
  0
SCALE
  5
51
102
{ACAD_REACTORS
330
42
102
}
330
42
100
AcDbScale
 70
     0
300
3" = 1'-0"
140
3.0
141
12.0
290
     0
  0
SCALE
  5
52
102
{ACAD_REACTORS
330
42
102
}
330
42
100
AcDbScale
 70
     0
300
6" = 1'-0"
140
6.0
141
12.0
290
     0
  0
SCALE
  5
53
102
{ACAD_REACTORS
330
42
102
}
330
42
100
AcDbScale
 70
     0
300
1'-0" = 1'-0"
140
12.0
141
12.0
290
     0
  0
ACDBSECTIONVIEWSTYLE
  5
68
102
{ACAD_XDICTIONARY
360
F25
102
}
102
{ACAD_REACTORS
330
67
102
}
330
67
100
AcDbModelDocViewStyle
 70
     0
  3
Imperial24
290
     0
100
AcDbSectionViewStyle
 70
     0
 71
     0
 90
       78
 71
     1
340
55
 62
   256
 40
0.24
340
0
340
0
 62
   256
 40
0.24
300
I, O, Q, S, X, Z
 40
0.48
 90
        3
 40
0.18
 90
        1
 71
     2
340
5C
 90
       25
 62
   256
340
5C
 90
       50
 62
   256
 40
0.24
 40
0.0
 40
0.24
 71
     3
340
55
 62
   256
 40
0.24
 90
        1
 40
0.75
 90
        1
300
%<\AcVar ViewType \f "%tc1">% %<\AcVar ViewSectionStartId>%-%<\AcVar ViewSectionEndId>%\PSCALE %<\AcVar ViewScale \f "%sn">%
 71
     4
 62
   256
 62
   257
300
ANSI31
 40
1.0
 90
        0
290
     0
290
     0
 90
        6
 40
0.0
 40
1.570796326794896
 40
0.2617993877991494
 40
1.308996938995747
 40
-0.2617993877991494
 40
1.832595714594044
  0
TABLESTYLE
  5
64
102
{ACAD_XDICTIONARY
360
418
102
}
102
{ACAD_REACTORS
330
63
102
}
330
63
100
AcDbTableStyle
280
     0
  3
Standard
 70
     0
 71
     0
 40
0.06
 41
0.06
280
     0
281
     0
  7
STANDARD
140
0.18
170
     2
 62
     0
 63
     7
283
     0
 90
      512
 91
        0
  1

274
    -2
284
     1
 64
     0
275
    -2
285
     1
 65
     0
276
    -2
286
     1
 66
     0
277
    -2
287
     1
 67
     0
278
    -2
288
     1
 68
     0
279
    -2
289
     1
 69
     0
  7
STANDARD
140
0.25
170
     5
 62
     0
 63
     7
283
     0
 90
      512
 91
        0
  1

274
    -2
284
     1
 64
     0
275
    -2
285
     1
 65
     0
276
    -2
286
     1
 66
     0
277
    -2
287
     1
 67
     0
278
    -2
288
     1
 68
     0
279
    -2
289
     1
 69
     0
  7
STANDARD
140
0.18
170
     5
 62
     0
 63
     7
283
     0
 90
      512
 91
        0
  1

274
    -2
284
     1
 64
     0
275
    -2
285
     1
 65
     0
276
    -2
286
     1
 66
     0
277
    -2
287
     1
 67
     0
278
    -2
288
     1
 68
     0
279
    -2
289
     1
 69
     0
  0
VISUALSTYLE
  5
2F
102
{ACAD_REACTORS
330
29
102
}
330
29
100
AcDbVisualStyle
  2

 70
     4
177
     3
291
     0
 70
    58
 90
        0
176
     1
 90
        2
176
     1
 90
        0
176
     1
 90
        0
176
     1
 40
0.6
176
     1
 40
30.0
176
     1
 62
     7
420
 16777215
176
     1
 90
        1
176
     1
 90
        4
176
     1
 62
     7
176
     1
 62
   257
176
     1
 90
        1
176
     1
 90
        1
176
     1
 40
1.0
176
     1
 90
        0
176
     1
 62
   257
176
     1
 40
1.0
176
     1
 90
        1
176
     1
 90
        6
176
     1
 90
        2
176
     1
 62
     7
176
     1
 90
        5
176
     1
 90
        0
176
     1
 90
        0
176
     1
290
     0
176
     1
 90
        1
176
     1
 40
0.0
176
     1
 90
        0
176
     1
290
     1
176
     1
290
     1
176
     1
290
     0
176
     1
290
     0
176
     1
290
     0
176
     1
290
     0
176
     1
290
     0
176
     1
290
     0
176
     1
290
     0
176
     1
 90
       50
176
     1
 40
0.0
176
     1
 40
1.0
176
     1
 90
        0
176
     1
 62
    18
176
     1
 90
       50
176
     1
 90
        3
176
     1
 62
     5
420
      255
176
     1
290
     0
176
     1
 90
       50
176
     1
 90
       50
176
     1
 90
       50
176
     1
290
     0
176
     1
 90
       50
176
     1
 62
   256
176
     0
 40
1.0
176
     0
 90
        2
176
     1
  1
strokes_ogs.tif
176
     1
290
     0
176
     1
 40
1.0
176
     1
 40
1.0
176
     1
1001
ACAD
1000
AcDbSavedByObjectVersion
1070
     0
  0
VISUALSTYLE
  5
2E
102
{ACAD_REACTORS
330
29
102
}
330
29
100
AcDbVisualStyle
  2

 70
     7
177
     3
291
     1
 70
    58
 90
        1
176
     1
 90
        0
176
     1
 90
        1
176
     1
 90
        0
176
     1
 40
0.6
176
     1
 40
30.0
176
     1
 62
     7
420
 16777215
176
     1
 90
        0
176
     1
 90
        4
176
     1
 62
     7
176
     1
 62
   257
176
     1
 90
        1
176
     1
 90
        1
176
     1
 40
1.0
176
     1
 90
        8
176
     1
 62
     7
176
     1
 40
1.0
176
     1
 90
        1
176
     1
 90
        6
176
     1
 90
        2
176
     1
 62
     7
176
     1
 90
        5
176
     1
 90
        0
176
     1
 90
        0
176
     1
290
     0
176
     1
 90
        1
176
     1
 40
0.0
176
     1
 90
        0
176
     1
290
     0
176
     1
290
     1
176
     1
290
     1
176
     1
290
     0
176
     1
290
     0
176
     1
290
     0
176
     1
290
     0
176
     1
290
     0
176
     1
290
     0
176
     1
 90
       50
176
     1
 40
0.0
176
     1
 40
1.0
176
     1
 90
        0
176
     1
 62
    18
176
     1
 90
       50
176
     1
 90
        3
176
     1
 62
     5
420
      255
176
     1
290
     0
176
     1
 90
       50
176
     1
 90
       50
176
     1
 90
       50
176
     1
290
     0
176
     1
 90
       50
176
     1
 62
   256
176
     0
 40
1.0
176
     0
 90
        2
176
     1
  1
strokes_ogs.tif
176
     1
290
     0
176
     1
 40
1.0
176
     1
 40
1.0
176
     1
1001
ACAD
1000
AcDbSavedByObjectVersion
1070
     0
  0
VISUALSTYLE
  5
35
102
{ACAD_REACTORS
330
29
102
}
330
29
100
AcDbVisualStyle
  2

 70
    12
177
     3
291
     1
 70
    58
 90
        2
176
     1
 90
        2
176
     1
 90
        0
176
     1
 90
        0
176
     1
 40
0.6
176
     1
 40
30.0
176
     1
 62
     7
420
 16777215
176
     1
 90
        1
176
     1
 90
        4
176
     1
 62
     7
176
     1
 62
   257
176
     1
 90
        1
176
     1
 90
        1
176
     1
 40
1.0
176
     1
 90
        8
176
     1
 62
     7
176
     1
 40
1.0
176
     1
 90
        1
176
     1
 90
        6
176
     1
 90
        2
176
     1
 62
     7
176
     1
 90
        5
176
     1
 90
        0
176
     1
 90
        0
176
     1
290
     0
176
     1
 90
        1
176
     1
 40
50.0
176
     1
 90
        0
176
     1
290
     0
176
     1
290
     1
176
     1
290
     1
176
     1
290
     0
176
     1
290
     0
176
     1
290
     0
176
     1
290
     0
176
     1
290
     0
176
     1
290
     0
176
     1
 90
       50
176
     1
 40
0.0
176
     1
 40
1.0
176
     1
 90
        0
176
     1
 62
    18
176
     1
 90
       50
176
     1
 90
        3
176
     1
 62
     5
420
      255
176
     1
290
     0
176
     1
 90
       50
176
     1
 90
       50
176
     1
 90
       50
176
     1
290
     0
176
     1
 90
       50
176
     1
 62
   256
176
     0
 40
1.0
176
     0
 90
        2
176
     1
  1
strokes_ogs.tif
176
     1
290
     0
176
     1
 40
1.0
176
     1
 40
1.0
176
     1
1001
ACAD
1000
AcDbSavedByObjectVersion
1070
     0
  0
VISUALSTYLE
  5
39
102
{ACAD_REACTORS
330
29
102
}
330
29
100
AcDbVisualStyle
  2

 70
    16
177
     3
291
     1
 70
    58
 90
        2
176
     1
 90
        2
176
     1
 90
        3
176
     1
 90
        0
176
     1
 40
0.6
176
     1
 40
30.0
176
     1
 62
     8
420
  8421504
176
     1
 90
        1
176
     1
 90
        4
176
     1
 62
     7
176
     1
 62
   257
176
     1
 90
        1
176
     1
 90
        1
176
     1
 40
1.0
176
     1
 90
        8
176
     1
 62
     8
420
  8421504
176
     1
 40
1.0
176
     1
 90
        1
176
     1
 90
        6
176
     1
 90
        2
176
     1
 62
     7
176
     1
 90
        5
176
     1
 90
        0
176
     1
 90
        0
176
     1
290
     0
176
     1
 90
        1
176
     1
 40
0.0
176
     1
 90
        0
176
     1
290
     0
176
     1
290
     1
176
     1
290
     1
176
     1
290
     0
176
     1
290
     0
176
     1
290
     0
176
     1
290
     0
176
     1
290
     0
176
     1
290
     0
176
     1
 90
       50
176
     1
 40
0.0
176
     1
 40
1.0
176
     1
 90
        0
176
     1
 62
    18
176
     1
 90
       50
176
     1
 90
        3
176
     1
 62
     5
420
      255
176
     1
290
     0
176
     1
 90
       50
176
     1
 90
       50
176
     1
 90
       50
176
     1
290
     0
176
     1
 90
       50
176
     1
 62
   256
176
     0
 40
1.0
176
     0
 90
        2
176
     1
  1
strokes_ogs.tif
176
     1
290
     0
176
     1
 40
1.0
176
     1
 40
1.0
176
     1
1001
ACAD
1000
AcDbSavedByObjectVersion
1070
     0
  0
VISUALSTYLE
  5
32
102
{ACAD_REACTORS
330
29
102
}
330
29
100
AcDbVisualStyle
  2

 70
     9
177
     3
291
     0
 70
    58
 90
        3
176
     1
 90
        2
176
     1
 90
        0
176
     1
 90
        0
176
     1
 40
0.6
176
     1
 40
30.0
176
     1
 62
     7
420
 16777215
176
     1
 90
        2
176
     1
 90
        2
176
     1
 62
     7
176
     1
 62
   257
176
     1
 90
        1
176
     1
 90
        1
176
     1
 40
179.0
176
     1
 90
        8
176
     1
 62
     7
176
     1
 40
1.0
176
     1
 90
        1
176
     1
 90
        6
176
     1
 90
        2
176
     1
 62
     7
176
     1
 90
        3
176
     1
 90
        0
176
     1
 90
        0
176
     1
290
     0
176
     1
 90
        1
176
     1
 40
0.0
176
     1
 90
        0
176
     1
290
     0
176
     1
290
     1
176
     1
290
     1
176
     1
290
     0
176
     1
290
     0
176
     1
290
     0
176
     1
290
     0
176
     1
290
     0
176
     1
290
     0
176
     1
 90
       50
176
     1
 40
0.0
176
     1
 40
1.0
176
     1
 90
        0
176
     1
 62
    18
176
     1
 90
       50
176
     1
 90
        3
176
     1
 62
     5
420
      255
176
     1
290
     0
176
     1
 90
       50
176
     1
 90
       50
176
     1
 90
       50
176
     1
290
     0
176
     1
 90
       50
176
     1
 62
   256
176
     0
 40
1.0
176
     0
 90
        2
176
     1
  1
strokes_ogs.tif
176
     1
290
     0
176
     1
 40
1.0
176
     1
 40
1.0
176
     1
1001
ACAD
1000
AcDbSavedByObjectVersion
1070
     0
  0
VISUALSTYLE
  5
34
102
{ACAD_REACTORS
330
29
102
}
330
29
100
AcDbVisualStyle
  2

 70
    11
177
     3
291
     1
 70
    58
 90
        2
176
     1
 90
        2
176
     1
 90
        0
176
     1
 90
        0
176
     1
 40
0.6
176
     1
 40
30.0
176
     1
 62
     7
420
 16777215
176
     1
 90
        1
176
     1
 90
        4
176
     1
 62
     7
176
     1
 62
   257
176
     1
 90
        1
176
     1
 90
        1
176
     1
 40
1.0
176
     1
 90
        8
176
     1
 62
     7
176
     1
 40
1.0
176
     1
 90
        1
176
     1
 90
        6
176
     1
 90
        2
176
     1
 62
     7
176
     1
 90
        5
176
     1
 90
        0
176
     1
 90
        0
176
     1
290
     0
176
     1
 90
        1
176
     1
 40
-50.0
176
     1
 90
        0
176
     1
290
     0
176
     1
290
     1
176
     1
290
     1
176
     1
290
     0
176
     1
290
     0
176
     1
290
     0
176
     1
290
     0
176
     1
290
     0
176
     1
290
     0
176
     1
 90
       50
176
     1
 40
0.0
176
     1
 40
1.0
176
     1
 90
        0
176
     1
 62
    18
176
     1
 90
       50
176
     1
 90
        3
176
     1
 62
     5
420
      255
176
     1
290
     0
176
     1
 90
       50
176
     1
 90
       50
176
     1
 90
       50
176
     1
290
     0
176
     1
 90
       50
176
     1
 62
   256
176
     0
 40
1.0
176
     0
 90
        2
176
     1
  1
strokes_ogs.tif
176
     1
290
     0
176
     1
 40
1.0
176
     1
 40
1.0
176
     1
1001
ACAD
1000
AcDbSavedByObjectVersion
1070
     0
  0
VISUALSTYLE
  5
41
102
{ACAD_REACTORS
330
29
102
}
330
29
100
AcDbVisualStyle
  2

 70
    22
177
     3
291
     1
 70
    58
 90
        2
176
     0
 90
        2
176
     0
 90
        0
176
     0
 90
        0
176
     0
 40
0.6
176
     0
 40
30.0
176
     0
 62
     7
420
 16777215
176
     0
 90
        1
176
     0
 90
        4
176
     0
 62
     7
176
     0
 62
   257
176
     0
 90
        1
176
     0
 90
        1
176
     0
 40
1.0
176
     0
 90
        8
176
     2
 62
     7
176
     0
 40
1.0
176
     0
 90
        1
176
     0
 90
        6
176
     0
 90
        2
176
     0
 62
     7
176
     0
 90
        5
176
     0
 90
        0
176
     0
 90
        0
176
     0
290
     0
176
     0
 90
        1
176
     0
 40
0.0
176
     0
 90
        0
176
     0
290
     0
176
     1
290
     1
176
     1
290
     1
176
     1
290
     0
176
     1
290
     0
176
     1
290
     0
176
     1
290
     0
176
     1
290
     0
176
     1
290
     0
176
     1
 90
       50
176
     0
 40
0.0
176
     0
 40
1.0
176
     0
 90
        0
176
     0
 62
    18
176
     0
 90
       50
176
     0
 90
        3
176
     0
 62
     5
420
      255
176
     0
290
     0
176
     1
 90
       50
176
     0
 90
       50
176
     0
 90
       50
176
     0
290
     0
176
     1
 90
       50
176
     0
 62
   256
176
     0
 40
1.0
176
     0
 90
        2
176
     0
  1
strokes_ogs.tif
176
     0
290
     0
176
     1
 40
1.0
176
     0
 40
1.0
176
     0
1001
ACAD
1000
AcDbSavedByObjectVersion
1070
     0
  0
VISUALSTYLE
  5
38
102
{ACAD_REACTORS
330
29
102
}
330
29
100
AcDbVisualStyle
  2

 70
    15
177
     3
291
     1
 70
    58
 90
        2
176
     1
 90
        2
176
     1
 90
        0
176
     1
 90
        0
176
     1
 40
0.6
176
     1
 40
30.0
176
     1
 62
     7
420
 16777215
176
     1
 90
        1
176
     1
 90
        4
176
     1
 62
     7
176
     1
 62
   257
176
     1
 90
        1
176
     1
 90
        1
176
     1
 40
1.0
176
     1
 90
        8
176
     1
 62
     7
176
     1
 40
1.0
176
     1
 90
        1
176
     1
 90
        6
176
     1
 90
        2
176
     1
 62
     7
176
     1
 90
        5
176
     1
 90
        0
176
     1
 90
        0
176
     1
290
     0
176
     1
 90
        1
176
     1
 40
0.0
176
     1
 90
        0
176
     1
290
     0
176
     1
290
     1
176
     1
290
     1
176
     1
290
     0
176
     1
290
     0
176
     1
290
     0
176
     1
290
     0
176
     1
290
     0
176
     1
290
     0
176
     1
 90
       50
176
     1
 40
0.0
176
     1
 40
1.0
176
     1
 90
        0
176
     1
 62
    18
176
     1
 90
       50
176
     1
 90
        3
176
     1
 62
     5
420
      255
176
     1
290
     0
176
     1
 90
       50
176
     1
 90
       50
176
     1
 90
       50
176
     1
290
     0
176
     1
 90
       50
176
     1
 62
   256
176
     0
 40
1.0
176
     0
 90
        2
176
     1
  1
strokes_ogs.tif
176
     1
290
     0
176
     1
 40
1.0
176
     1
 40
1.0
176
     1
1001
ACAD
1000
AcDbSavedByObjectVersion
1070
     0
  0
VISUALSTYLE
  5
2A
102
{ACAD_REACTORS
330
29
102
}
330
29
100
AcDbVisualStyle
  2

 70
     0
177
     3
291
     1
 70
    58
 90
        2
176
     1
 90
        1
176
     1
 90
        1
176
     1
 90
        2
176
     1
 40
0.6
176
     1
 40
30.0
176
     1
 62
     7
420
 16777215
176
     1
 90
        0
176
     1
 90
        0
176
     1
 62
     7
176
     1
 62
   257
176
     1
 90
        1
176
     1
 90
        1
176
     1
 40
1.0
176
     1
 90
        8
176
     1
 62
     7
176
     1
 40
1.0
176
     1
 90
        1
176
     1
 90
        6
176
     1
 90
        2
176
     1
 62
     7
176
     1
 90
        5
176
     1
 90
        0
176
     1
 90
        0
176
     1
290
     0
176
     1
 90
       13
176
     1
 40
0.0
176
     1
 90
        0
176
     1
290
     0
176
     1
290
     1
176
     1
290
     1
176
     1
290
     0
176
     1
290
     0
176
     1
290
     0
176
     1
290
     0
176
     1
290
     0
176
     1
290
     0
176
     1
 90
       50
176
     1
 40
0.0
176
     1
 40
1.0
176
     1
 90
        0
176
     1
 62
    18
176
     1
 90
       50
176
     1
 90
        3
176
     1
 62
     5
420
      255
176
     1
290
     0
176
     1
 90
       50
176
     1
 90
       50
176
     1
 90
       50
176
     1
290
     0
176
     1
 90
       50
176
     1
 62
   256
176
     0
 40
1.0
176
     0
 90
        2
176
     1
  1
strokes_ogs.tif
176
     1
290
     0
176
     1
 40
1.0
176
     1
 40
1.0
176
     1
1001
ACAD
1000
AcDbSavedByObjectVersion
1070
     0
  0
VISUALSTYLE
  5
2B
102
{ACAD_REACTORS
330
29
102
}
330
29
100
AcDbVisualStyle
  2

 70
     1
177
     3
291
     1
 70
    58
 90
        2
176
     1
 90
        1
176
     1
 90
        1
176
     1
 90
        2
176
     1
 40
0.6
176
     1
 40
30.0
176
     1
 62
     7
420
 16777215
176
     1
 90
        1
176
     1
 90
        0
176
     1
 62
     7
176
     1
 62
   257
176
     1
 90
        1
176
     1
 90
        1
176
     1
 40
1.0
176
     1
 90
        0
176
     1
 62
   257
176
     1
 40
1.0
176
     1
 90
        1
176
     1
 90
        6
176
     1
 90
        2
176
     1
 62
     7
176
     1
 90
        5
176
     1
 90
        0
176
     1
 90
        0
176
     1
290
     0
176
     1
 90
       13
176
     1
 40
0.0
176
     1
 90
        0
176
     1
290
     0
176
     1
290
     1
176
     1
290
     1
176
     1
290
     0
176
     1
290
     0
176
     1
290
     0
176
     1
290
     0
176
     1
290
     0
176
     1
290
     0
176
     1
 90
       50
176
     1
 40
0.0
176
     1
 40
1.0
176
     1
 90
        0
176
     1
 62
    18
176
     1
 90
       50
176
     1
 90
        3
176
     1
 62
     5
420
      255
176
     1
290
     0
176
     1
 90
       50
176
     1
 90
       50
176
     1
 90
       50
176
     1
290
     0
176
     1
 90
       50
176
     1
 62
   256
176
     0
 40
1.0
176
     0
 90
        2
176
     1
  1
strokes_ogs.tif
176
     1
290
     0
176
     1
 40
1.0
176
     1
 40
1.0
176
     1
1001
ACAD
1000
AcDbSavedByObjectVersion
1070
     0
  0
VISUALSTYLE
  5
2C
102
{ACAD_REACTORS
330
29
102
}
330
29
100
AcDbVisualStyle
  2

 70
     2
177
     3
291
     1
 70
    58
 90
        2
176
     1
 90
        2
176
     1
 90
        1
176
     1
 90
        2
176
     1
 40
0.6
176
     1
 40
30.0
176
     1
 62
     7
420
 16777215
176
     1
 90
        0
176
     1
 90
        0
176
     1
 62
     7
176
     1
 62
   257
176
     1
 90
        1
176
     1
 90
        1
176
     1
 40
1.0
176
     1
 90
        0
176
     1
 62
     7
176
     1
 40
1.0
176
     1
 90
        1
176
     1
 90
        6
176
     1
 90
        2
176
     1
 62
     7
176
     1
 90
        5
176
     1
 90
        0
176
     1
 90
        0
176
     1
290
     0
176
     1
 90
       13
176
     1
 40
0.0
176
     1
 90
        0
176
     1
290
     0
176
     1
290
     1
176
     1
290
     1
176
     1
290
     0
176
     1
290
     0
176
     1
290
     0
176
     1
290
     0
176
     1
290
     0
176
     1
290
     0
176
     1
 90
       50
176
     1
 40
0.0
176
     1
 40
1.0
176
     1
 90
        0
176
     1
 62
    18
176
     1
 90
       50
176
     1
 90
        3
176
     1
 62
     5
420
      255
176
     1
290
     0
176
     1
 90
       50
176
     1
 90
       50
176
     1
 90
       50
176
     1
290
     0
176
     1
 90
       50
176
     1
 62
   256
176
     0
 40
1.0
176
     0
 90
        2
176
     1
  1
strokes_ogs.tif
176
     1
290
     0
176
     1
 40
1.0
176
     1
 40
1.0
176
     1
1001
ACAD
1000
AcDbSavedByObjectVersion
1070
     0
  0
VISUALSTYLE
  5
2D
102
{ACAD_REACTORS
330
29
102
}
330
29
100
AcDbVisualStyle
  2

 70
     3
177
     3
291
     1
 70
    58
 90
        2
176
     1
 90
        2
176
     1
 90
        1
176
     1
 90
        2
176
     1
 40
0.6
176
     1
 40
30.0
176
     1
 62
     7
420
 16777215
176
     1
 90
        1
176
     1
 90
        0
176
     1
 62
     7
176
     1
 62
   257
176
     1
 90
        1
176
     1
 90
        1
176
     1
 40
1.0
176
     1
 90
        0
176
     1
 62
   257
176
     1
 40
1.0
176
     1
 90
        1
176
     1
 90
        6
176
     1
 90
        2
176
     1
 62
     7
176
     1
 90
        5
176
     1
 90
        0
176
     1
 90
        0
176
     1
290
     0
176
     1
 90
       13
176
     1
 40
0.0
176
     1
 90
        0
176
     1
290
     0
176
     1
290
     1
176
     1
290
     1
176
     1
290
     0
176
     1
290
     0
176
     1
290
     0
176
     1
290
     0
176
     1
290
     0
176
     1
290
     0
176
     1
 90
       50
176
     1
 40
0.0
176
     1
 40
1.0
176
     1
 90
        0
176
     1
 62
    18
176
     1
 90
       50
176
     1
 90
        3
176
     1
 62
     5
420
      255
176
     1
290
     0
176
     1
 90
       50
176
     1
 90
       50
176
     1
 90
       50
176
     1
290
     0
176
     1
 90
       50
176
     1
 62
   256
176
     0
 40
1.0
176
     0
 90
        2
176
     1
  1
strokes_ogs.tif
176
     1
290
     0
176
     1
 40
1.0
176
     1
 40
1.0
176
     1
1001
ACAD
1000
AcDbSavedByObjectVersion
1070
     0
  0
VISUALSTYLE
  5
31
102
{ACAD_REACTORS
330
29
102
}
330
29
100
AcDbVisualStyle
  2

 70
     6
177
     3
291
     0
 70
    58
 90
        1
176
     1
 90
        2
176
     1
 90
        2
176
     1
 90
        0
176
     1
 40
0.6
176
     1
 40
30.0
176
     1
 62
     7
420
 16777215
176
     1
 90
        2
176
     1
 90
        2
176
     1
 62
     7
176
     1
 62
   257
176
     1
 90
        2
176
     1
 90
        1
176
     1
 40
40.0
176
     1
 90
        0
176
     1
 62
   257
176
     1
 40
1.0
176
     1
 90
        1
176
     1
 90
        6
176
     1
 90
        2
176
     1
 62
     7
176
     1
 90
        3
176
     1
 90
        0
176
     1
 90
        0
176
     1
290
     0
176
     1
 90
        1
176
     1
 40
0.0
176
     1
 90
        0
176
     1
290
     0
176
     1
290
     1
176
     1
290
     1
176
     1
290
     0
176
     1
290
     0
176
     1
290
     0
176
     1
290
     0
176
     1
290
     0
176
     1
290
     0
176
     1
 90
       50
176
     1
 40
0.0
176
     1
 40
1.0
176
     1
 90
        0
176
     1
 62
    18
176
     1
 90
       50
176
     1
 90
        3
176
     1
 62
     5
420
      255
176
     1
290
     0
176
     1
 90
       50
176
     1
 90
       50
176
     1
 90
       50
176
     1
290
     0
176
     1
 90
       50
176
     1
 62
   256
176
     0
 40
1.0
176
     0
 90
        2
176
     1
  1
strokes_ogs.tif
176
     1
290
     0
176
     1
 40
1.0
176
     1
 40
1.0
176
     1
1001
ACAD
1000
AcDbSavedByObjectVersion
1070
     0
  0
VISUALSTYLE
  5
3F
102
{ACAD_REACTORS
330
29
102
}
330
29
100
AcDbVisualStyle
  2

 70
    20
177
     3
291
     1
 70
    58
 90
        2
176
     0
 90
        2
176
     0
 90
        0
176
     0
 90
        0
176
     0
 40
0.6
176
     0
 40
30.0
176
     0
 62
     7
420
 16777215
176
     0
 90
        1
176
     0
 90
        4
176
     0
 62
     7
176
     0
 62
   257
176
     0
 90
        1
176
     0
 90
        1
176
     0
 40
1.0
176
     0
 90
       10
176
     2
 62
     7
176
     0
 40
1.0
176
     0
 90
        1
176
     0
 90
        6
176
     0
 90
        2
176
     0
 62
     7
176
     0
 90
        5
176
     0
 90
        0
176
     0
 90
        0
176
     0
290
     0
176
     0
 90
        1
176
     0
 40
0.0
176
     0
 90
        0
176
     0
290
     0
176
     1
290
     1
176
     1
290
     1
176
     1
290
     0
176
     1
290
     0
176
     1
290
     0
176
     1
290
     0
176
     1
290
     0
176
     1
290
     0
176
     1
 90
       50
176
     0
 40
0.0
176
     0
 40
1.0
176
     0
 90
        0
176
     0
 62
    18
176
     0
 90
       50
176
     0
 90
        3
176
     0
 62
     5
420
      255
176
     0
290
     0
176
     1
 90
       50
176
     0
 90
       50
176
     0
 90
       50
176
     0
290
     0
176
     1
 90
       50
176
     0
 62
   256
176
     0
 40
1.0
176
     0
 90
        2
176
     0
  1
strokes_ogs.tif
176
     0
290
     0
176
     1
 40
1.0
176
     0
 40
1.0
176
     0
1001
ACAD
1000
AcDbSavedByObjectVersion
1070
     0
  0
VISUALSTYLE
  5
37
102
{ACAD_REACTORS
330
29
102
}
330
29
100
AcDbVisualStyle
  2

 70
    14
177
     3
291
     1
 70
    58
 90
        2
176
     1
 90
        2
176
     1
 90
        0
176
     1
 90
        0
176
     1
 40
0.6
176
     1
 40
30.0
176
     1
 62
     7
420
 16777215
176
     1
 90
        1
176
     1
 90
        4
176
     1
 62
     7
176
     1
 62
   257
176
     1
 90
        7
176
     1
 90
        7
176
     1
 40
1.0
176
     1
 90
        8
176
     1
 62
     7
176
     1
 40
1.0
176
     1
 90
        1
176
     1
 90
        6
176
     1
 90
        2
176
     1
 62
     7
176
     1
 90
        5
176
     1
 90
        0
176
     1
 90
        0
176
     1
290
     0
176
     1
 90
        1
176
     1
 40
0.0
176
     1
 90
        0
176
     1
290
     0
176
     1
290
     1
176
     1
290
     1
176
     1
290
     0
176
     1
290
     0
176
     1
290
     0
176
     1
290
     0
176
     1
290
     0
176
     1
290
     0
176
     1
 90
       50
176
     1
 40
0.0
176
     1
 40
1.0
176
     1
 90
        0
176
     1
 62
    18
176
     1
 90
       50
176
     1
 90
        3
176
     1
 62
     5
420
      255
176
     1
290
     0
176
     1
 90
       50
176
     1
 90
       50
176
     1
 90
       50
176
     1
290
     0
176
     1
 90
       50
176
     1
 62
   256
176
     0
 40
1.0
176
     0
 90
        2
176
     1
  1
strokes_ogs.tif
176
     1
290
     0
176
     1
 40
1.0
176
     1
 40
1.0
176
     1
1001
ACAD
1000
AcDbSavedByObjectVersion
1070
     0
  0
VISUALSTYLE
  5
40
102
{ACAD_REACTORS
330
29
102
}
330
29
100
AcDbVisualStyle
  2

 70
    21
177
     3
291
     1
 70
    58
 90
        2
176
     0
 90
        2
176
     0
 90
        0
176
     0
 90
        0
176
     0
 40
0.6
176
     0
 40
30.0
176
     0
 62
     7
420
 16777215
176
     0
 90
        1
176
     0
 90
        4
176
     0
 62
     7
176
     0
 62
   257
176
     0
 90
        1
176
     0
 90
        1
176
     0
 40
1.0
176
     0
 90
        9
176
     2
 62
     7
176
     0
 40
1.0
176
     0
 90
        1
176
     0
 90
        6
176
     0
 90
        2
176
     0
 62
     7
176
     0
 90
        5
176
     0
 90
        0
176
     0
 90
        0
176
     0
290
     0
176
     0
 90
        1
176
     0
 40
0.0
176
     0
 90
        0
176
     0
290
     0
176
     1
290
     1
176
     1
290
     1
176
     1
290
     0
176
     1
290
     0
176
     1
290
     0
176
     1
290
     0
176
     1
290
     0
176
     1
290
     0
176
     1
 90
       50
176
     0
 40
0.0
176
     0
 40
1.0
176
     0
 90
        0
176
     0
 62
    18
176
     0
 90
       50
176
     0
 90
        3
176
     0
 62
     5
420
      255
176
     0
290
     0
176
     1
 90
       50
176
     0
 90
       50
176
     0
 90
       50
176
     0
290
     0
176
     1
 90
       50
176
     0
 62
   256
176
     0
 40
1.0
176
     0
 90
        2
176
     0
  1
strokes_ogs.tif
176
     0
290
     0
176
     1
 40
1.0
176
     0
 40
1.0
176
     0
1001
ACAD
1000
AcDbSavedByObjectVersion
1070
     0
  0
VISUALSTYLE
  5
33
102
{ACAD_REACTORS
330
29
102
}
330
29
100
AcDbVisualStyle
  2

 70
     8
177
     3
291
     0
 70
    58
 90
        2
176
     1
 90
        3
176
     1
 90
        0
176
     1
 90
        2
176
     1
 40
0.6
176
     1
 40
30.0
176
     1
 62
     7
420
 16777215
176
     1
 90
        0
176
     1
 90
        0
176
     1
 62
     7
176
     1
 62
   257
176
     1
 90
        1
176
     1
 90
        1
176
     1
 40
1.0
176
     1
 90
        8
176
     1
 62
   257
176
     1
 40
1.0
176
     1
 90
        1
176
     1
 90
        6
176
     1
 90
        2
176
     1
 62
     7
176
     1
 90
        3
176
     1
 90
        0
176
     1
 90
        0
176
     1
290
     0
176
     1
 90
       13
176
     1
 40
0.0
176
     1
 90
        0
176
     1
290
     0
176
     1
290
     1
176
     1
290
     1
176
     1
290
     0
176
     1
290
     0
176
     1
290
     0
176
     1
290
     0
176
     1
290
     0
176
     1
290
     0
176
     1
 90
       50
176
     1
 40
0.0
176
     1
 40
1.0
176
     1
 90
        0
176
     1
 62
    18
176
     1
 90
       50
176
     1
 90
        3
176
     1
 62
     5
420
      255
176
     1
290
     0
176
     1
 90
       50
176
     1
 90
       50
176
     1
 90
       50
176
     1
290
     0
176
     1
 90
       50
176
     1
 62
   256
176
     0
 40
1.0
176
     0
 90
        2
176
     1
  1
strokes_ogs.tif
176
     1
290
     0
176
     1
 40
1.0
176
     1
 40
1.0
176
     1
1001
ACAD
1000
AcDbSavedByObjectVersion
1070
     0
  0
VISUALSTYLE
  5
3E
102
{ACAD_REACTORS
330
29
102
}
330
29
100
AcDbVisualStyle
  2

 70
    27
177
     3
291
     0
 70
    58
 90
        2
176
     1
 90
        2
176
     1
 90
        1
176
     1
 90
        2
176
     1
 40
0.6
176
     1
 40
30.0
176
     1
 62
     7
420
 16777215
176
     1
 90
        0
176
     1
 90
        4
176
     1
 62
     7
176
     1
 62
   257
176
     1
 90
        1
176
     1
 90
        1
176
     1
 40
1.0
176
     1
 90
        8
176
     1
 62
   257
176
     1
 40
1.0
176
     1
 90
        1
176
     1
 90
        6
176
     1
 90
        2
176
     1
 62
     8
420
  7895160
176
     1
 90
        3
176
     1
 90
        0
176
     1
 90
        0
176
     1
290
     0
176
     1
 90
        5
176
     1
 40
0.0
176
     1
 90
        0
176
     1
290
     0
176
     1
290
     1
176
     1
290
     1
176
     1
290
     0
176
     1
290
     0
176
     1
290
     0
176
     1
290
     0
176
     1
290
     0
176
     1
290
     0
176
     1
 90
       50
176
     1
 40
0.0
176
     1
 40
1.0
176
     1
 90
        0
176
     1
 62
    18
176
     1
 90
       50
176
     1
 90
        3
176
     1
 62
     5
420
      255
176
     1
290
     0
176
     1
 90
       50
176
     1
 90
       50
176
     1
 90
       50
176
     1
290
     0
176
     1
 90
       50
176
     1
 62
   256
176
     0
 40
1.0
176
     0
 90
        2
176
     1
  1
strokes_ogs.tif
176
     1
290
     0
176
     1
 40
1.0
176
     1
 40
1.0
176
     1
1001
ACAD
1000
AcDbSavedByObjectVersion
1070
     0
  0
VISUALSTYLE
  5
3D
102
{ACAD_REACTORS
330
29
102
}
330
29
100
AcDbVisualStyle
  2

 70
    26
177
     3
291
     0
 70
    58
 90
        2
176
     1
 90
        2
176
     1
 90
        1
176
     1
 90
        2
176
     1
 40
0.6
176
     1
 40
30.0
176
     1
 62
     7
420
 16777215
176
     1
 90
        1
176
     1
 90
        2
176
     1
 62
     7
176
     1
 62
   257
176
     1
 90
        2
176
     1
 90
        1
176
     1
 40
1.0
176
     1
 90
        8
176
     1
 62
   257
176
     1
 40
1.0
176
     1
 90
        1
176
     1
 90
        6
176
     1
 90
        2
176
     1
 62
     7
176
     1
 90
        3
176
     1
 90
        0
176
     1
 90
        0
176
     1
290
     0
176
     1
 90
        5
176
     1
 40
0.0
176
     1
 90
        0
176
     1
290
     0
176
     1
290
     1
176
     1
290
     1
176
     1
290
     0
176
     1
290
     0
176
     1
290
     0
176
     1
290
     0
176
     1
290
     0
176
     1
290
     0
176
     1
 90
       50
176
     1
 40
0.0
176
     1
 40
1.0
176
     1
 90
        0
176
     1
 62
    18
176
     1
 90
       50
176
     1
 90
        3
176
     1
 62
     5
420
      255
176
     1
290
     0
176
     1
 90
       50
176
     1
 90
       50
176
     1
 90
       50
176
     1
290
     0
176
     1
 90
       50
176
     1
 62
   256
176
     0
 40
1.0
176
     0
 90
        2
176
     1
  1
strokes_ogs.tif
176
     1
290
     0
176
     1
 40
1.0
176
     1
 40
1.0
176
     1
1001
ACAD
1000
AcDbSavedByObjectVersion
1070
     0
  0
VISUALSTYLE
  5
3A
102
{ACAD_REACTORS
330
29
102
}
330
29
100
AcDbVisualStyle
  2

 70
    23
177
     3
291
     0
 70
    58
 90
        2
176
     1
 90
        2
176
     1
 90
        3
176
     1
 90
        0
176
     1
 40
0.6
176
     1
 40
30.0
176
     1
 62
     7
420
 16777215
176
     1
 90
        2
176
     1
 90
        2
176
     1
 62
     7
176
     1
 62
     7
176
     1
 90
        1
176
     1
 90
        1
176
     1
 40
40.0
176
     1
 90
        8
176
     1
 62
     7
176
     1
 40
1.0
176
     1
 90
        1
176
     1
 90
        6
176
     1
 90
        2
176
     1
 62
     7
176
     1
 90
        3
176
     1
 90
        0
176
     1
 90
        0
176
     1
290
     0
176
     1
 90
        1
176
     1
 40
0.0
176
     1
 90
        0
176
     1
290
     0
176
     1
290
     1
176
     1
290
     1
176
     1
290
     0
176
     1
290
     0
176
     1
290
     0
176
     1
290
     0
176
     1
290
     0
176
     1
290
     0
176
     1
 90
       50
176
     1
 40
0.0
176
     1
 40
1.0
176
     1
 90
        0
176
     1
 62
    18
176
     1
 90
       50
176
     1
 90
        3
176
     1
 62
     5
420
      255
176
     1
290
     0
176
     1
 90
       50
176
     1
 90
       50
176
     1
 90
       50
176
     1
290
     0
176
     1
 90
       50
176
     1
 62
   256
176
     0
 40
1.0
176
     0
 90
        2
176
     1
  1
strokes_ogs.tif
176
     1
290
     0
176
     1
 40
1.0
176
     1
 40
1.0
176
     1
1001
ACAD
1000
AcDbSavedByObjectVersion
1070
     0
  0
VISUALSTYLE
  5
3B
102
{ACAD_REACTORS
330
29
102
}
330
29
100
AcDbVisualStyle
  2

 70
    24
177
     3
291
     0
 70
    58
 90
        1
176
     1
 90
        2
176
     1
 90
        2
176
     1
 90
        0
176
     1
 40
0.6
176
     1
 40
30.0
176
     1
 62
     7
420
 16777215
176
     1
 90
        2
176
     1
 90
        2
176
     1
 62
     7
176
     1
 62
     7
176
     1
 90
        1
176
     1
 90
        1
176
     1
 40
40.0
176
     1
 90
       11
176
     1
 62
     7
176
     1
 40
1.0
176
     1
 90
        1
176
     1
 90
        6
176
     1
 90
        2
176
     1
 62
     7
176
     1
 90
        6
176
     1
 90
        0
176
     1
 90
        0
176
     1
290
     0
176
     1
 90
        1
176
     1
 40
0.0
176
     1
 90
        0
176
     1
290
     0
176
     1
290
     1
176
     1
290
     1
176
     1
290
     0
176
     1
290
     0
176
     1
290
     0
176
     1
290
     0
176
     1
290
     0
176
     1
290
     0
176
     1
 90
       50
176
     1
 40
0.0
176
     1
 40
1.0
176
     1
 90
        0
176
     1
 62
    18
176
     1
 90
       50
176
     1
 90
        3
176
     1
 62
     5
420
      255
176
     1
290
     0
176
     1
 90
       50
176
     1
 90
       50
176
     1
 90
       50
176
     1
290
     0
176
     1
 90
       50
176
     1
 62
   256
176
     0
 40
1.0
176
     0
 90
        2
176
     1
  1
strokes_ogs.tif
176
     1
290
     0
176
     1
 40
1.0
176
     1
 40
1.0
176
     1
1001
ACAD
1000
AcDbSavedByObjectVersion
1070
     0
  0
VISUALSTYLE
  5
36
102
{ACAD_REACTORS
330
29
102
}
330
29
100
AcDbVisualStyle
  2

 70
    13
177
     3
291
     1
 70
    58
 90
        2
176
     1
 90
        2
176
     1
 90
        0
176
     1
 90
        0
176
     1
 40
0.6
176
     1
 40
30.0
176
     1
 62
     7
420
 16777215
176
     1
 90
        1
176
     1
 90
        4
176
     1
 62
     7
176
     1
 62
   257
176
     1
 90
        1
176
     1
 90
        1
176
     1
 40
1.0
176
     1
 90
       12
176
     1
 62
     7
176
     1
 40
1.0
176
     1
 90
        1
176
     1
 90
        6
176
     1
 90
        2
176
     1
 62
     7
176
     1
 90
        5
176
     1
 90
        0
176
     1
 90
        0
176
     1
290
     0
176
     1
 90
        1
176
     1
 40
0.0
176
     1
 90
        0
176
     1
290
     0
176
     1
290
     1
176
     1
290
     1
176
     1
290
     0
176
     1
290
     0
176
     1
290
     0
176
     1
290
     0
176
     1
290
     0
176
     1
290
     0
176
     1
 90
       50
176
     1
 40
0.0
176
     1
 40
1.0
176
     1
 90
        0
176
     1
 62
    18
176
     1
 90
       50
176
     1
 90
        3
176
     1
 62
     5
420
      255
176
     1
290
     0
176
     1
 90
       50
176
     1
 90
       50
176
     1
 90
       50
176
     1
290
     0
176
     1
 90
       50
176
     1
 62
   256
176
     0
 40
1.0
176
     0
 90
        2
176
     1
  1
strokes_ogs.tif
176
     1
290
     0
176
     1
 40
1.0
176
     1
 40
1.0
176
     1
1001
ACAD
1000
AcDbSavedByObjectVersion
1070
     0
  0
VISUALSTYLE
  5
30
102
{ACAD_REACTORS
330
29
102
}
330
29
100
AcDbVisualStyle
  2

 70
     5
177
     3
291
     0
 70
    58
 90
        0
176
     1
 90
        2
176
     1
 90
        0
176
     1
 90
        0
176
     1
 40
0.6
176
     1
 40
30.0
176
     1
 62
     7
420
 16777215
176
     1
 90
        1
176
     1
 90
        4
176
     1
 62
     7
176
     1
 62
   257
176
     1
 90
        1
176
     1
 90
        1
176
     1
 40
1.0
176
     1
 90
        0
176
     1
 62
   257
176
     1
 40
1.0
176
     1
 90
        1
176
     1
 90
        6
176
     1
 90
        2
176
     1
 62
     7
176
     1
 90
        3
176
     1
 90
        0
176
     1
 90
        0
176
     1
290
     0
176
     1
 90
        1
176
     1
 40
0.0
176
     1
 90
        0
176
     1
290
     0
176
     1
290
     1
176
     1
290
     1
176
     1
290
     0
176
     1
290
     0
176
     1
290
     0
176
     1
290
     0
176
     1
290
     0
176
     1
290
     0
176
     1
 90
       50
176
     1
 40
0.0
176
     1
 40
1.0
176
     1
 90
        0
176
     1
 62
    18
176
     1
 90
       50
176
     1
 90
        3
176
     1
 62
     5
420
      255
176
     1
290
     0
176
     1
 90
       50
176
     1
 90
       50
176
     1
 90
       50
176
     1
290
     0
176
     1
 90
       50
176
     1
 62
   256
176
     0
 40
1.0
176
     0
 90
        2
176
     1
  1
strokes_ogs.tif
176
     1
290
     0
176
     1
 40
1.0
176
     1
 40
1.0
176
     1
1001
ACAD
1000
AcDbSavedByObjectVersion
1070
     0
  0
VISUALSTYLE
  5
3C
102
{ACAD_REACTORS
330
29
102
}
330
29
100
AcDbVisualStyle
  2

 70
    25
177
     3
291
     0
 70
    58
 90
        2
176
     1
 90
        2
176
     1
 90
        1
176
     1
 90
        1
176
     1
 40
0.5
176
     1
 40
30.0
176
     1
 62
     7
420
 16777215
176
     1
 90
        1
176
     1
 90
        0
176
     1
 62
     7
176
     1
 62
   257
176
     1
 90
        1
176
     1
 90
        1
176
     1
 40
1.0
176
     1
 90
        8
176
     1
 62
     7
176
     1
 40
1.0
176
     1
 90
        1
176
     1
 90
        6
176
     1
 90
        2
176
     1
 62
     7
176
     1
 90
        3
176
     1
 90
        0
176
     1
 90
        0
176
     1
290
     0
176
     1
 90
       13
176
     1
 40
0.0
176
     1
 90
        0
176
     1
290
     0
176
     1
290
     1
176
     1
290
     1
176
     1
290
     0
176
     1
290
     0
176
     1
290
     0
176
     1
290
     0
176
     1
290
     0
176
     1
290
     0
176
     1
 90
       50
176
     1
 40
0.0
176
     1
 40
1.0
176
     1
 90
        0
176
     1
 62
    18
176
     1
 90
       50
176
     1
 90
        3
176
     1
 62
     5
420
      255
176
     1
290
     0
176
     1
 90
       50
176
     1
 90
       50
176
     1
 90
       50
176
     1
290
     0
176
     1
 90
       50
176
     1
 62
   256
176
     0
 40
1.0
176
     0
 90
        2
176
     1
  1
strokes_ogs.tif
176
     1
290
     0
176
     1
 40
1.0
176
     1
 40
1.0
176
     1
1001
ACAD
1000
AcDbSavedByObjectVersion
1070
     0
  0
DICTIONARYVAR
  5
3D8
102
{ACAD_REACTORS
330
3D2
102
}
330
3D2
100
DictionaryVariables
280
     0
  1
1:1
  0
DICTIONARYVAR
  5
3D4
102
{ACAD_REACTORS
330
3D2
102
}
330
3D2
100
DictionaryVariables
280
     0
  1
STANDARD
  0
DICTIONARYVAR
  5
3D3
102
{ACAD_REACTORS
330
3D2
102
}
330
3D2
100
DictionaryVariables
280
     0
  1
STANDARD
  0
DICTIONARYVAR
  5
3D5
102
{ACAD_REACTORS
330
3D2
102
}
330
3D2
100
DictionaryVariables
280
     0
  1
Imperial24
  0
DICTIONARYVAR
  5
3D6
102
{ACAD_REACTORS
330
3D2
102
}
330
3D2
100
DictionaryVariables
280
     0
  1
Imperial24
  0
DICTIONARYVAR
  5
3DA
102
{ACAD_REACTORS
330
3D2
102
}
330
3D2
100
DictionaryVariables
280
     0
  1
1
  0
DICTIONARYVAR
  5
3DB
102
{ACAD_REACTORS
330
3D2
102
}
330
3D2
100
DictionaryVariables
280
     0
  1
15
  0
DICTIONARYVAR
  5
3D9
102
{ACAD_REACTORS
330
3D2
102
}
330
3D2
100
DictionaryVariables
280
     0
  1
0
  0
DICTIONARYVAR
  5
3D7
102
{ACAD_REACTORS
330
3D2
102
}
330
3D2
100
DictionaryVariables
280
     0
  1
0
  0
DICTIONARY
  5
F27
330
6A
100
AcDbDictionary
280
     1
281
     1
  3
ACAD_XREC_ROUNDTRIP
360
F28
  0
DICTIONARY
  5
22
330
21
100
AcDbDictionary
280
     1
281
     1
  3
FBXASSET
360
3BB
  0
DICTIONARY
  5
F25
330
68
100
AcDbDictionary
280
     1
281
     1
  3
ACAD_XREC_ROUNDTRIP
360
F26
  0
DICTIONARY
  5
418
330
64
100
AcDbDictionary
280
     1
281
     1
  3
ACAD_ROUNDTRIP_2008_TABLESTYLE_CELLSTYLEMAP
360
F23
  0
XRECORD
  5
F28
102
{ACAD_REACTORS
330
F27
102
}
330
F27
100
AcDbXrecord
280
     1
102
DISPLAYNAME
  1
Imperial24
102
FLAGS
 90
        0
  0
XRECORD
  5
3BB
102
{ACAD_REACTORS
330
22
102
}
330
22
100
AcDbXrecord
280
     1
 70
     1
 90
652598616
 71
     1
  1
FA81DF82-F67E-482E-BFC9-08AE391316AC
311
504B0304140006080800DB509557E9CC100EF7000000A80100004F00000034324436423135412D364134412D343643422D423736452D4342313143363744423830412F4173736574446174612F446566696E6974696F6E4974657261746F7250726F706572746965732E62696EBD90C14EC4201086D183C68307131FC083D7
311
91029552136380524F5EF4010C5B71B709DB6E96365EF7E85BEB90ADAFE0243F33F91966BEF04D08F959024B72823AE07989F9390C61DF776FDD266C3D39CB4E1C573EDE6255F3D619C11954566B289BC282299802A78415524AA56C758A7DE7A8267CFA394E79E44B9FBA10A31FC238A72B34961D375B3FE12E1FEFF2A30B
311
42723AA0C8DF45CA93D647A20CF985F21FBB87279F52981E69C91B69D8BD06A94B0492D680A9A4036B18B3B26A8C2A347D0D699CF75D48B4D58A35ADE2D0CACA41A9B803D3DA1A0AA59DA89960525B3A6DE6FC35D7196335F83ED2822E08EFBB618DF6BFC52F504B0304140006080800DB509557B876DCC907010000300200
311
004500000034324436423135412D364134412D343643422D423736452D4342313143363744423830412F4173736574446174612F496E7374616E636550726F706572746965732E62696EEB606060F80F0540260323103700495E20ED9E9A975A94991C9C9C919A9BA802147073B4307471B330D275333377D535B13072D575
311
7273B6D435B0707435B6343436347374664768046931363471713532B5D435353131D635313332046A7172D13534373670367376B67474B5042A03DBCBA019D37FE8ABC6157B20CD04146B0062181F4C03F940F0C11EA29A8141C08141002C0426541C106CAC2CA046088033B02A030AC2157C6006F21A8018AAF50194E601
311
0A610250382264E08660284CD9E98021862280A91564B406929A0FF62C401E28B6F88038B83CB1243943D7A928312F2535052403033A4086231057B1D4325C61638509A3D020B36102C8EA1DD89D60C2701A00504B0304140006080800DB50955788E57597CD3F0000904100006B00000034324436423135412D364134412D
311
343643422D423736452D4342313143363744423830412F5265736F75726365732F46413831444638322D463637452D343832452D424643392D3038414533393133313641432F7468756D626E61696C2F302F67656E657269635F706E67355B773CD4FF1FBF73E71C0E67EF7576C9DEF3EC995D46C6A1EC5046649CBDF79E19
311
2942562825CE965D8A868C2842C8DE9FDFD1F7E7F138F7078FCF6B3F5FCFD7EBFDFEC41B196891913091804020321D6D7513FC77D8C5070EC3FFEE51B21F068154CC75D455CC028A3EA68992803810109FDDE5D5CEC5521B28A1B422BF80741695D5B529DA1C2D058AD2388BDA9F476F7C2CADC939304173DBF48A452BF8A7
311
00C0C70C3D121C1AA15A5270C22E2B9E28763651F7DA0D12CE11077B2ECD0D560B5E3DE2368B1E65C5E1C87384A4CC5F2D9FB8BE39E9B77C753783A37998F5CEF1B4FEE553463245C9712270880DF339E0B882A6BA713D865F6F384C842D440934EF264F4A304F8DE4EEFA1E2BF5E2D91F5ADD9613D6E31DDB33ED31DB1D79
311
16CAF091286EA3D31B9CFECB78BB0060245B943C4C040119FF780A74DD308BA9D028678674EB5504ECF284EE814DAED07440BAF649BE4B55DA2890F4D73E2D489A59EE54FDB0A85B59F2F52C4858A02705C4815A792B0C4A996A2023ECB195073E115E3E3647F64243A8338F2000BCB58DA5692C7E7C3D413F963FEDF3CF00
311
FBB0F831A9D51360FECA43819F527B89FA260EB63C5DA676830AA3626A3693B23F1A17A0DFFCE3EE164E31B5365EDF0C89EF64D8E38AB0BA9A1117D7C3A0EC44F44F4023095E80BA610DE336D0F99593A88BFC5306E72DF98F7FD132ED95878DF2964EA7E43071359FD83B2BDF9C6B5BDF768F0F3C0FC351199526F53D9460
311
A34511F75D1B63E488178569472C91A94497807A3FD4A390C6558F26D416365C3656DE6E769DA9D8FC73774E1709812842DD8EF96AED1960F79D21B395CDDFE6F92CB4EB962A4668C76990E2EF29798C8941D67DA50F4A5F947872460F1F6FDB794E8A29FD7AC0C0D6E0714339CE258FB17AE8535221E3464A10F29A0BE5EE
311
ECEFC5675926A89F49EB14E5711894F6586DB5754EB4D5DA9C6437EBA57DB97A24F8B8A8DB295FFD73266CF57E82694DF5166DDF93573AFE9C9C5EB05F8FEF8E89E0A8917B0B3724DB7BEBB53252581EFC3E38166BA131A3A5B42FE2AD00A769BBFA4458D2DE7822F8C4F63D0B8E21B285AE13325F3410A435C648C9D91FDE
311
B109E73CEDA7BC796961AF79175E1A3CE4C5E8B0D009B0C9E29EFD98BC8E97554E3D8D838424E270F7685226E5AC268E021EDE3522D583E8F20C0BDE2959EF5BBFEEDAB32FE9A3ED0E39F211A86AA9DEBFC68182EDED132AB8BB794442D2D7EA9F4D8BFF52BC4D55BB165124EE90A42D101E67BBBB292FFB4F66DE5BF2300E
311
44546757DA7CEF8932BFC9F92A0707953491A55C5A5ACEDABD9FA1AEA01BAC3DC5A24E22E7C47213493996EFBC369D086ED9397C9BA6C7F9855C7BD5E15BFC8C53DB3D2A4C5901A57ACD2FBDF4D1676E95338B2C2BCE65FDA4C64F5FEFDC7D9CA5AA1FCF11E193F2FDABF0F4916BF13FB916A224380E6462A9815F2300DC49
311
CC4DF8D055CEF76462F4B7A7ACA7365C2707891370BC1D0AA6203C44CCAB47084FEC057F27FFCD57F89B8B9852459798A675C66BD7CE572CAF71FF7E6D7ECF7BF62CAB7B3F1107DCD04DC55A3F9961700286141C94A4F771FEB2BCDA2DDEE0CB0BAE402FF1DB0100F8E475DFFFC074DDB4498AB7D186A7654DDB1CB680D703
311
D47CEB4E72F8CB13D86A4AA68116E26387B93FD6738779B34FEDB8E517EDF2BAF28D9BE93A1D3A164320E07D42E514725C29515FF361754213EDE06B079A2E99EB1CA82A02019EADEEB87B9AF005BD04BBCECB14AACD6B24EFBE482194A97DD32400685FF1FEF1544D1B14EFB1E7F08E6D2CD2AF52DE757F35F5E62332EE88
311
EA26417AD5C3E0E319D68F25414E6D672BD4522B278C57D18F0113921C71D96527E091F00CEB15AE23D24667369BD3CEFA10C7549D930890BA4366F4EBC55F01F746109F98ABCDD5A3EE06619C6AD78AB33E48E4C9BD21BF7478B385EC05C4F8987E2C1BFA0A60EBEDAA0AE0B015C2720ECE180FB6F2DEFBEB822D96338C9B
311
63822183BBF52FB664A7AE57003AABCE512BF77E7E31BDA2E739AC4C131657DDFE5225E900FB56CC01CDE808FA4A9C9DA16AC679656BB64796283D89812B8F91136AE18EE5EBBAF47A73BE3C153EB5D4CD491B4BFB4FE690A4CF9ABA08C0D8AA64220C438C96EA6CA80B58FE5761E697B3A292EB9FBDA502FA863E49FE694A
311
DDFFF9D62C520BDD1A22014147A0903A05B9B729F54272EF83931FEEC057BFF8C8055C279EAC5C0011804828734024F6CFA319C9CC6867C727184465CD9BB7ED386AFFD96B294A85E3802FAE47244602D8273615952B98C4F23F7EAE4463D9D638EEE374A20959E0FE519C4CFB0FBFE5DD80C2AA3F9DB961D1BDE57E67C9BB
311
47B77FDD74EE3094F5DBBE3EBC1FBDB7393F5116263009E2EFE1AF9A221B2AE234C902BF70E9F280ED23E73908361565964333A3F01D0B006AF32FB21AA1316744B489D5A198E85299241735BE559675130955C902A8ED761FC0DBE337A9F91919AF5CE32AF902ADF9AB2615E00E8A94586BA1A90839B61832FF1BFB76D2EF
311
ADE6DB1BA04CCAD3DA649E7E2A0219F592E22F2AD54847EEA8E42271011E9074F8F3DD9FBA6CDF88FFC9FC7E811AD1CA8F4557CE4AFC7BBEDCF0114A48689F20A584520C74DA8127124B767E2FB91A6B186246727BE63C9445BAE02088D58B8EFDC0F1072407CD9B89A13F6303B4A928F593AD489B58E6869325790ADC4060
311
36C591729FE14021F94B7796BB11848D463536A092A26F077F94639F7CEEE2A724C66EC885F4A24F8B8A0AC321F8FD149BA529460FAA34E4663C02D41FDF80BCA222D42F0ABFF8490F4FA74C673807C2051D8E467B47B616072860069A9A303ABA9B319D58404461401B0A0F9BE5E1E151C14BC33B32ABE03DDE91708DFAEB
311
15E7C0D593C86BB7D7EC17BE56E57975F077BFD5525F3A1A361D584A75E08CF29FC7B44B2B3085014F3A5A14517377C3F6B8F37E59514C3B12F8AACDEDDA4DFC49BE5710101534CD6FB6DE15B50F11A09472AABA727F0C49D9CB906B158030065F48EB3625E010CEC1D511D0053474B11E6A4F01C0D6EF1BED3A944FDEC70E
311
0DDCDC756C86545910E0DAE3BE3AA9A404574C2995CD5CAF9549226BC94B4F4F0F5F9086F418F6B32346464610D8BC7391D3C3A3CCF04CFC1FB2A3A3170E369511868F14EEA4E5E438CC73DB1F3248AA94B6B2FF33B222FF3D1E7BF146CAD229770158063BCE4F5391964DF62F7E52A7BE0EEA829C9E13C4C147D6F93FE59E
311
111DAB5E4594D6F3CD1AD375EE039930EFE5AF2BB2D41C83C7DABD8C659BAFBE8FAB392CA634F3D15C1D945DB4588D2B0824A4EC928AAC565557CA2F0DAA588CA5BE30B3A8004F7BF005E96CBF891D7F18112A3619FDF530DC8AA64954258E1811789B5189B49B4EB53F5F89F7D37523894F3EB57B373763C91E502F52CC99
311
EB7BDDF933FC324C4FFC2561DFFA7339FAFDD0A4BFBE6D3A8FF9ED1FC49898139864602458968913181918F719CCF5A68B2EE9C1FF050E34E63107003B8120FA982C21B30A874E4F5E4B38D5A8290C4B8D9BE48A0BE31EA995BDC37AC6DE90BA17D259DEF53605D55922FEB1855D915B659FBEB350EE0DFB2F9F766E1C84CC
311
8964B75D08667445EAB966015F63A18A9E0A325C1B3DC628C0D3CB60F767FA93CC65F25458BD23C3B312716E5F40E5858AC06EBA9AB14F95DB99147B832069201541D09A0D856E12C629CF32683760EE855537D1901988D5EBC156676C7DD51D7207CF3267AF1D76C2AD867315E44618015313A98B19941C696FED3461CAA9
311
B5415F918556D7802EDACEFD6B2E45853A9735DFC9DBF7E440F9319F8B6805A973BCCDC76C069A9144E51F187EDCC12FC31B5DEAAF0A76137199B106EC84ADA6B6EE697D4E6A96E007417F4E880E8B1E89B4BCE9D81EF611E2ED8F0C1A6C25F620FAFAAB656A7C42D464880E8AFAB0E0FC8EA38CA9A8AEEAEE3E4648BA4680
311
270A89743CDD3E6C6CBF34B7B640EFA285ABC7EA0A1E28F3CC963D114A80123EE66D0AF7D5380EB41909B605AB4765B709B808590458157E69BA1378FEC4B48CAF6A730E3BE3C5EF2DD1A5EAF94B1DDE50CEB55DDFD7EE9A16747FA4B223359FB1FCC69E1194892BABB93A1D5C4E807AC0EA2E30180811E77A2291F6E7F7FA
311
A5E0F60215BC6024E48DE436C511F0628B8CA189982D4D83CCA17D305A7E923C37941CFDFDCD93ACAF735EF5F0E61BBD3E6C41A59B242790D3A3BAC7064DCD89AA2E37214EC839820949D5CAA31E240D2948E48F690298974A96BA9A8432BC90F5071D6537C9666EA4564796B7AFFFA548077BEEA75F63083435074BA182F3
311
699557397F71548383FDA8CA34D99B981E72835ECDA5DDDC151315173D05A21F651AAF8524E88209E2E7A737ED1045800CE3390050BCFB8BE588DF111617874C62575039CA588EEFDEFEFE319B739DE2EDC147092A262611E159650E787917885EF08F1F51B8F2D8A71D60B58B190FEF9541A1BE94BC19FEA50784DA1419FE
311
4B0FB51B8D36B5FF8E1286FD8AF42B91E59A5F1CC4D60174E764045FD8C57B18209B217F89A62252BD20BE0E63E12B8E8F029FE19E0E8D0870F58721A557082250D5424F7909369376E41666C0EE77CD87CB283F661D5FB6D0DA023CB67320A20DC7BE661E9E1BFE5463085C557DA1FF9BE835733766C3D139F2CF9E220887
311
3AD0EB4814DE9E6BF2CAF81614D4D43906ED1C05A3265CABBFE192770FC2F64F940CB6B17B5F166F133C9AEEAD2641807C3E69515171DD74C4A85311513D6EC9530B3B601B6BA3EBFF3B5C3D2F7D69765141E345F75433953D013ADDF8F6AA7DC3F4A7563FE5C7D367937E2900D7EAD0F9FC9A4A1A9B5BDF1FEF08532660C0
311
1C5D6DE22199AA774383E306DAB87E301ABB7D213887F9869D4942D0D71E94B27EDF216A318BD488D45DF84529EF575AF3C3938C0AAA0215B01994153E2054A0B894DA5C784980633AAD48576957CF4AEAEAFADC7C587368551C73DBE1E57C58AC713303A8BFC258BD04B51724459FF9E24C03A81E0E0679CEB9B348C0DC99
311
8FEB9C6D6EFA77D247CC8F92D3848599ED89A23218D0636465AD1CEEB7DC140D7426F83491C4E8E8281C2FB35240918FFECE880CA2A42D70E8B20B34DF5221C7DB0CF90ECCB9C745B37A47E9B716FF7A97B7A252C1F3814DC7B1E1A7F72B8751D524EF7CAE45B0C73B3BE7D08ED39781B380DDFC9AA4A4749C9493DB5BAD07
311
A6EA6C092FBD0E85DB004DF06B8C9D3089C5320187E4CE1846158C7EA7DDAE8AD9AFFF21AA3A1026BB06A259845E8232DEE62811A4DA9CEAB3A4887320B76E2AE5615EAB7BDF738CBDD01F1E64064BC13D9EC53576751CA8CACD58B3CEB0E6CA585BD089B2A59B9FC101403387AADBDBE70586B93D64BF3AD4453EF9C3B6A9
311
3817E8346991798601344F79A83C51F3D50F7BF2683A3605F51A72449489E0EE6169C749C60B1035651103AEE24D24E51A759C840DD3FC6504DA6FE107510E447B43461C79D22970B75DE5E1BD3007D1AFC619A4A4A69B5626AF5E9B8374E20677F77E2F8E73DF868E8BEC7EBA7B6A75EEF7205E1AB9486CB642741D6E03FF
311
13FCCEDB1C4AC129886268B01CDF4B124AF797CF784F3C6DEC97A17D4B558070A0F1C04DA4FF9BDBF34159AEFE958479824B3F58EBD1E19088A2AFDE501B6F2052368A3FD0E650A179EFAB1561E1D27527077136E652676C3670F42DCB3352F48F6BC86D2C3B0051727E41A0A4DC6CE2BE9D47F5CAA2935A3C0539AF080665
311
997194ABECD723B08129CC5B6B21D2E7D54CD4D12610E7E9FB8306771A89576C7A982002775ED44F3F744CF21EEBB27A631671D921938AAEE3EB0D19CD1E083727F607823E817BF599DCED5394E37EEBC2E88782E638920CA641EF74D4CDFCDEF06F4278ECB18E31E7E9876F2D783C8BF429C75395F57E98C2B495A3DA077E
311
B3AC3C158608B6B57FE3EA48484D9A480096FCEE0DE880950E7E5A5714131C5C41AAA29FD19AE81AC145FA1B9E85C7169A5AB837B213493DF7E9AA4B5FBF9CDEB36EBD21EF1181B7CF7366AB2A951D01E37AF4EB835D1BE8C117CFBE7625D2EBCDB0B20C5A4B45CED0BCDE3EE8DA9DA78C2E21DEAAFFD1197E463C33CC6A80
311
FB785669B856EFF7A8CCCA2841B5A5369173320B1170C368B2748D81062EA0296E5E2D95D7667A4A46D98A6FF475C76AAB0A8C8D45E226FAFC9FE0133EA9F60111F99CA81ACE03A1D14C89E8B0D69079C91464FA1D99E651D0EAF606F345C42A8A1AA9BA391031582B96D5B4176A77AADB01F12FD298A75DEEBB2C82F0B865
311
0E880722F8DDD90C56A7A058E5FDEF1AC93545BA27367C76F5D8F9690CB6F8DAE141EDD7971F0FB548A2AE435F224D6E5954CA155512F7332029D5A1230854B79F258EC5FFDB09F5F6343A8EB193229B7F7E79B3E48F8E183860B38C8269D1B53738FF1E0BACF6AADA6D4869E9DE708E79B5DADCC09B1BC76F649731CFAF59
311
A83FD8BAE4C749D66FA87A3810D4D62FFE826FA400C0F325D2BC0F3CA35F5847B82A2ACC7961745C823E4D863D54460AF792CE6F79B5C7A33B25C3AEA6CDE15A919B6367D781E9D44F61BF828672594A3E1D9EDD6DF179A81F27EAC05B936575D73E05C209DDD2115CFB705DF9BBF3C911589B3640735E9E618FC9C36A7326
311
C82B2205E244C55D56FDB9D5DC93CE958D4BF8174D2B3DA54CB3C09F2C2A6DFF73D23B2197355761AD421EC581284A7EF8DE2CE3497C0C804D49B41DFD6A7360844E5BEFFB495CFCDB97A4595911CDBA623274CE852B5E278AF0BEB1770E9D37CD977B2766A7DED0E94B840E1E95E8C77DE5CB6354AF7871427C28ADBEEF7B
311
A0A28E19DE9ACD75F379FE373EAE6DDDAE3834692F9C2B03B4FCA8FCA9ABE8EEEBEBB725B88A7C90941E850682CA04061A7DF0CE82ED49BFAFFD42C309818FAE14755CAAE78B0F73243ECCCAD7DF58FCB9CDFAE7A4D3E6671A613639130D056C8383C8F4FCF4808C331E544DD26E4755D09EA05253B3049A1E32587CC25D72
311
E073E2CD96D04A71BBCB0038FEC3F53D254199C3CDC67CD66640269431860225392B2CB3ECD0B4498AAE78BA1994246AE1EE78F2EDFB79F6C6CB6B5E279C4D373FBC21CB2698C9ACBBEB6A4BB6B39E16AB0E421CCBFC7654D81ED86022F9BB522146F9F4772E2D0E4FA70120C95A85A417BF5078B232F4754363EB1750B2AC
311
2148EB46B1EA72AD9B4D23ADCBC589D70106C3EC2ABEEED84DFE28E718C6C83502C28E9FDD3B09DA0A6F6F7B72B706A31C9E2A331EE70DA56A083D2177BFD63C55B11D8D949FAFCF90B23A1E24B9B5018B9A17E99F2890EC302F330FE7936E2C23F0D237EC8916F5166AB84B62A21BB0B950146962D754F92CC2C8877BED8F
311
C7B7B25726DD19545392570B3A2C66B58F027BEF412E552D12A588C4A3CC5C3193FCB3485EFFF700D0B9EEC077754A33DC1FB9E25AF814628F91DDFECB667D3F7690803F38D13F8AE39353523BB08FC6760144AFA2CE28236F65EDBB3D5F59A57D612B99E3D7E5F8A851666BF9B5A6658EFC96EEB37A378ABB0EB3FDDF1303
311
AF32C41BD1C8560745D7BD81066B0D6313359CF488563D3BA3F8E2185D1FAA3EBA1397C9D0E3DD232180A4DCADB6AF25DB3AC3CC26589C8239E66E81547BC7E2F328F9884764CA37EB5DBE390DFC03A5246B456A7C3684C4377D0EEF9A350680FA9A077E8B2957B489E09AB1AD41316944C2254B5984830F691C93CAA767EE
311
CF976FA5647538830B5E63236A6F0365C1E0F3E327F24FE35EDDBD7360B0F7374837409F7A6311BECC12B7026D4FA1AE204FA3F5FE904B1F420C7A9044AE58E403E7C4848E7DA25DC9EDAC79DD756FAA26B9EA83ACE8A214A2612A22AFA19DAE7DBAC5F8CDE1292A485F98DAC731A29FE01A3966E96BCB9FB5A4C8830E1B9A
311
F0C54B87FBE221A097036E5D28D1F869F810C06A9BB0AC0612F69AEBAF893C6E7AD59460208BAB3A6B09CA4F6BDDAB8CF0D1F84B72487498395A70DCD754796E271099A567A55CF242BBED64696378BB6CF25EF0FCDB589F3A82F1116D010A9AB9FA4358809EE0C973A2B4229BAA876A70B03AB49CBA7FBE71DB1832FFD32F
311
9BF2C8E98075CACAFB36921235D0F552B6A67E94E094097A5D7DF681B40623DA535ADA7A9AD8E9A62407D7C9A5AE51D62A17A83A23728DE86BB56115804D3F2675F2C6B87541A0FC497BF0CA86420F558C9859EBE9FAD62747E323E3AADC03FDCDDFE7407B09DA90B44E3185723C5381EAEF589765E2F7A099BA46695BAD60
311
CEF3491B8A171F5F56444F7CE9455312C3498C74173AEA0214EC029833B34B650CBB5A5508D5091665309642791708ECF27CF11DB3D797D6CFE474453BD4BFADB768094B2147814D81C7CBAF8228DCAF5564B5891F5EF6A860EB2E323CB82AB868D8EA048880D63B0DE5341F1B3D53297B928A11E15F25E5148990F710747C
311
3509ED14909C552EBE3973246FCE55D00564D8310BC3EBC5085D08D806799B77D6C57FDF5E55837F9E934F09C03C729271B64F12D0A9F9E938107CAF7BF1EC8CF1BB9B42363D33070F4CACB425E605DDB0A34A12BB936DE286B9887A4E2E558F0886498BFF49C311D96C277CF6A9FC0D75AD0ECC5226D7E0E3572012E56D7F
311
DE4410CEC7A6D0F997F225A2055B8B92E3956E875AE4993CB3D4C9063AF98FD45E1BAB165640A43439A2C9181A7C355B297C0A0CCFFAE19B6FA3C2BA238A885FBC98B8F6DAF4B94B97304878DF4D8BFF6A4AEDF79E90ED4E68F00CD7299F4E0D83E35601AF0CBEF18C1E870E74758FA91F5131075004DB3CFCF09AE1DABC11
311
957FD9808C92E8A678CE9DBE40DDA0E0D1D505AAFBCBA208232BFB6FB3704E8985E61ADE53DE74152F5C7DE74B1DEDCD37DC3E8FB30D7EBA8B9EFFC3606BF90B8D438279CB7709FC7C00D327F41817EEA71CD9E49FE9C8C9A81C70915D9F0F15958EC5AA4C3BBFAF46986B90F188BDB24B89DE3C6F29EC3E6F66D84856EE96
311
A35E657CA41B41EFD8DBFA16AD6E91439EA92B40B21C053249F51AE50EB0B24C770FFAF40DF12C8436366819C48E36547D4E7B72FE2BBF10828583057814A668BDF183F6B2E58DFB151103E56303E63D00F39C27C4661605DB644D19175D02E3F0241E8FC3458D17AAAADB117CE9EEA690D0DB01E634878C04C2C9310B69FC
311
AB831151E3AD293BEF6E46B0ABCECB50F5939B39C613D41E81FAE8D34CAE3C4566B761D37185FE864AC32FCB71AEF39DAA5BAB88609BB980CD2F07A8F941653B529567726E2B2A58D079DD57E1E5E31426CF184A04D7B03B985F276D47406AF276FE32E3328BA866EB1FD39BEF57863A317634AA5FE467409B3873F5069EF0
311
D71AF00AD189D17BA1974ECDB2D623E9E14086386A6AAB5807825C37B015BFE892AFD154920EC437EB945D958E18622E1E0FE2FA06557CE4BB9BBD05A2D40E774DA2B65473791E314B7D6C886820B2FCFE4AA272B3B8B15E7344A145E8AF919B5454D89D36D413E87211186BF6F645E5EC94DCCE8E1C799022E4EC9BC86D7A
311
0F2AFB1FC4B2CE48F84B3F49ECE65BAD24CADCC07EFF39AB06BE9E6B27A059938EA7208838455383DDBCFCD967DDE4650EF92A14FF933C975DB20BD7FEEBC4487576485963D757D16340D9599FEB362F775F38CA4185A86F74B629C81B133644A3B18FD056E997E0734F9BE26D11C0AAFC669E2AC9FC41D281F8B2E1C35AE2
311
7BCE05F3DA295488096688719D974DF1B5D182DB7792288697F8763CFB43562C1CDEE11C4AABD5C22B6E33F6F389CFC3477C5919DC0D533F8A7A1846B7ADB60ABDC26C43D0CFC8910B7C15EE22675BD02702ED39DB77A87A192CA7A543E6205B979B9F5A6B512A3CA799E198B2D5797C0AF8D1D872CA455D4D431A7879D4DD
311
76110B5FF7F4176B54477A9EB5E4A5D11214FDA585F0382751D8E2582BA5D2075053298FEB8F1537304E32CB22C2E2B693DC0A760B1DFCA751BDC445AFDCBB12820ED85F6D5298933C7EF1211E9E057684056CDA3FEF3BB6052355E162DF27C59E965A8DDB7F9437EB72CDDA3A090DE65A5B2F50326247B7EC67B73ACC7047
311
FC9B353D6EE990F772207C6EC52B39DC2F3C0754821DAB559F7C1809C7D0DD5B0499D0442E0A6E391B3D5DB46D11E731E6794EC77523FBDAA242ED67F9FA1FB684255671F63C9BCFE6E7E896D51001A6113EF2298BA494E0B0980D1FA5B9D60796554C02256B1E0345FB7C6186B6A19D2DCA270416262845FA4F42DB5D9B0A
311
0B6F07FCA2E56C242522E001E0CEB734AF310FC8BFB57E38E03AACE93B3326A2197891E68452B26A6307FDABFEE0223D3C03C3C73D2D5BC054C8311F12004CAE488E5C29287F8156A2CAA4AD0D7BE6B97264E4139F437CE73ADF52E5134C52B819777C18B323A5924E4F67AFD13B1CDC3A61793A79FAF5C0CEB718E441071E
311
797C6DCCB9EFCF7E4A1E9F3DF3C2F9C9E8294E9586868788C972857FB0556D7A26941A7EEB9B580AD78EC40B85DC906B4120A563CA3B87797ED612D3B035962BB75F6515A393F4CB057F564CDF54F2E5A024514E6A1F901DB80C7E70B1FC05E356A7E72FABF4775B3E3FB8F70A2A8E7B6A94542BB304157978CCC999E707A2
311
9CC795E67A59CC546A5D47B368954CA7B6E75EC9E1F6FC73CE3B4F71F8CB1A6B15923D61EAAEB14626AAA9D04A26EB9C66CD1BE86CA31A5D8703DE04CD1EBCE4F5CCB62F93909AD11E55799A781A956ED27D3E738F4538CB04ADABC7DAEF20BC35BA6A90BCC1DC61BA05F20D8832FFB9BC9B15E2DB838A0AFBB7E0C82A5621
311
27E0446894F427794C3037186F622BF24DE1B00AA10A23BFA47B2A180D6DA5AD6F7326FEB8C100C2D7142EB2A0B2A9D1008A09BA343D70E054AB69E2A7EDB783CBD92537FAF4A44D1296AC2792729104B3276C276C951D0CF3CF3F1E6B017720A7B8505A5FF9589365979678C36F1BAF759EAF57C60F1FF5FE9DCF5F8E764F
311
F25A2D06CF25117A8FED51884C13B2B750DB0E4F5E3D64124FCF11F0AD8F1CC3B3DA4B38ED22BF1CB2585EE6BFEBBA63FBFD44F9537B9B37BDD6B358720F98A8125AED4349CCFEB0E135F19E208A04CA7E2B10711185D72E381F448036EF57C9F874E54A971CA37A639E986AC0226DC5AA00D5B14FEA9192234B3DE617814F
311
C221C92F33F1D392F297731B567FD98FD91D989379AF567A65B8ADF177591DB90FBEA99BF4ED11B16E50A0AB1DBF1156D034BBE04D69D08F939D8E92BF525A1DDAFF80ECBC95D8F45D3FDD289FD23F7D8B452F8EBB34EC082DEEE68E18EDDF072060FAD2AB1504DD4879BF67099FC58F6E9DEFBF645D16334A3E9A127C6F1A
311
F6132CF287E433B43A0EE93812B4AA0B194E03EE3FF91EF9C6ED0074A2F6EB18A96A7C9890B1FCDA1F2095E944DB911ED54C60DF16FB74C8CE9BDC7C54C4F14078CF73C2FFF1F1BBCCD7CF64F71407EA1683DBC410D226627F66E509060D5C0AFD611DE681D509DB8DD12FB1265B03C6F5C55FF4C30BD94187FF692B4F1529
311
82502F193098A789526A038AB529A52BC0DC4FB6285CBAC10A8B8DB75DCD9BDABBB221E27D1F8DA9F5EE5926A1C8AA9BA9BC09239C6A7F12914EA3B59EFF7AAEC3FFCCE56F1C5C2980AD072793527565E774F4631DB178CEEC691B1F367BEA0CF2907E1D6B854D527065979DDEF002D8B2ACEA7CE21AE297737EDE1D45B312
311
33B73FEA35BCFDD0B09721FDBAF6432681F2FD10C3E9EFB246FD6E854B344ACC9D8A0EEF876A7314B49B6A499FC650B099D650DBFEC7638ADFD245E2B7839DA5AC5F7D5623FC0ECEEC8653FC9B2BDD1AD4D00A566FBA7186DD3C9CD26512551637498CADB950FEC71ADB9A5524285DE328B8EC7EC75D2345AEC6A27C42AF6D
311
9B92155315C80DBFCABBB7DA0FAE425C4FB896B15C9BFAC4FE67DF5A23D30C93DA4D8F36FB15D100050DA6062E22AEC5F4DAC4F6FEEF97AE05DE63C6D38F9E068A20BC5E3B6BCD75320C5090924E7F93640A7735B1A43451C2D91EE62C6238B797349E59890AF3A520DF4A87095F3ABEC2E61F0593416CE46CDCBE0E00E252
311
3FCCD04408588B5B6C9DB6459C786CE378770B54F51DA3A5E1DF2A3349BEAAC234A6CF8993B598B3B25B4B113E353A4D750FA7534749430F3EBF2512E7EA3FD43C6AB9A1F765A58463B306721A15D224FAFE8C6F5E3432D57EE697DA0DD5A9D4866A8BCCAAA9DFF1F06047851408FEC060471D0E3EB86BFAF46E4B5E60311D
311
C3E3CEA147C75CF971BE74689507154FF2D2E92F15CDB2B9182B11459FD8ACAC5A85F174BC94A7F4EE4C4F5CAFA7C02E37BF0BC77B7DCD0C047BC316F562A01A441AFA7931CC84A28CB9F4AA367EB515778F29BFE61195FA671F4352E5E46E3A64773F1F76EE5EB36D7BCE9BCEAD837A4D77F8DB8C92AEEF6711920D7C7D0F
311
76B0FD0EB7AB83724CD35BCA7D36DDDF5FBB7FF6F04A91F3E2BB3B8F1A43CD659639507FF6331C5F697BCC782AE57D757A27D97F1AB9E0AEDB43F92F1B2AACDF5FEC8ADBAF9F814E2027003BA2F9E144B1938A7A04050AE5D953B82C45619165C813A10E76DD6906B3C16438064D14CDA713AEC420034613E1AC7241904A49
311
FBF87409AFB1FCB9B72FE7933A87D8FBEDACECE4EDCF6A4FE9FB94D5DEB74FAB7CFEAE17EE965DF980DCCA2D04134994F9A2E94D2265DA4FE6AA7B7AC15FACAC2B5ABBCD7DFF542C5314FDAB2E1B9D8B65220B8E2B638BE008E8DCA22678C820C5053664D15E89F2D735B51A84955E81A443545E9FF787BE0FA700A76D136C
311
27DA179A7C6E8939E01BE756E19CB292798063D8B97F44E8A27BCF3A614FEB8BE974A718E86F7EC99B53CA35FA24F61F2B07266684623A3D4CF073E511F3A10A8FDAFAF0078C577F4DF9D339FE7862E5FA47CF4344209E5BF76D783B1B48E152AD281B15FCB934DCDA49CEC5706B1EE8B460F435324A5CAD154725E21AB804
311
4B75A557A79F6C807B9340AA3D92503E866F4274412926C8C504E4D5EF8C0E68DD0B028781A6B4054F11CF18941F101C57CCC796773ABC8DED9CD91FE5788806C05E548895354AEAC96546D55B0E94A59F148D061F42AA398D822CDECA4CDE79E13469BDCC44FDC990F366BA5978C15F97ED80CBFD73B0CD9B8B83A4F6845B
311
DFBFAF034019473FB9A63BD55D3A4A7284757071574029A4D016DCCBE95DD679EF3C4880BF169422F8C89B68A988D2B13793CAED4F74DE7486C72DC94DF46B8E93D8E02EFCB1FF9B3BA10C8AE7F653DF94F4AF466CDDCEF5776687F7C4C14B63E4EED1719DC2EC482D7DBCC7AE518CDE3D5FF86D39000EC3673C0044E1D308
311
BF05F74D1B5F033A7D1BE7F74BC55BBE3E4A20F920946CA0271EB17BD2B80E5660ACB8A29A79F5E4BBA49D4D945B6EEF4A7EFEAA65E5555BBB57A7E15D2F83C69F30BBB978D2B39F1F26FC097424D39BB33CA3D87ABF64E307938B685BAD44F71556A30B7E712CA4FE600613C3E554B69ADE949A7CFE214DF1FFF05CB82151
311
EC6FC31950239F94CF7AD39DC473F6EA356E5EC2C4EFA04383CEFE985A127484366FBEE3C0EC4FEA363E4F6632AE781392FD45D67B63FB8DF70E82734F431FD3443172A0E30A83D60982D55FA6A2CF86DBA8382502ACC6CDEF3B907982EED1160E14863FA242F9757347E1544275CCDCF71ECD5F8621CBEA326B8BA884AD7F
311
825781923E66971F04010D574C541D8427A438A37EEF8AF88240EED7362C953F5A81DE2D56109CDE2524EA0F5D2F87308C0C47BD97AD605878AB8589E17CA83930CB5E0DCCD75853D68B1AB136594926DE426C367428E9334AFAFF90ECE221BB5DC9E5BB53D2CDEF954EAA9CD814F0E5725F1965DD458E5F8487683AD86B9D
311
0076BE3EE91EB1CECC5331A67A3F79D8B27587C12EC2A6A70474749F27B4C0BBAFB94B34189E88DC18964BE4121B9137FD516C7755356E50D6714E31ACD222621EBBCD1CFF81D87479056A9DA0E0B8EA19D24CF937DA89F78E8650CCBDC110AAB6C4E46DCBFD0446BA9E2060E81F314AC2031E88135E5476AC0160EF5C0DD2
311
EEF1B8B5CB2D198BE9A554A9093B5F7D7E4B5407DDFCA1D9C152FD97F55BFFFDFE802954DFEC8995B983E28AC92F1971E28F531DC407A1280EB125F64A72E617EFB27DFBCEDCDA2D6F2BDADA36873EE46B9BE1782998C63DA7182BC383FB6FD15DA472B175D7E8B4FC88F38D6E07FEAA3FA3CBB8F6B449ECF14D2175E5C5CC
311
A3A42ABF24CA6C9395AF74535F4DDB38CB84F56614B0FD32D7E19CA5CF988DB4449C40E23DF2B16772594554579094450F56F253CD25EA7F77366FB1CFE79696C428BB64D5A41E986189427E5E4D7E2DAE3D5BB4972B3DC44EAABDDDD63A2264ECFA5C786EB0EE1FDC5BE34FA0F08376869FD1E61EA06CAE15191135445EE8
311
F0394161C3266A596AA035572BB0C8876180D8B9C77D307DF9DCDF7365ABDA6F3A2366436457A4DFC1F259666569A9E4A79C817BDD5610E5200FCE894A358EC72858D50EF67545DA81C6FACE3D457BAF70367E1E6BDD9A952FB4F56247F58F523B97E640246051A72F79BE42FFA0B3187F63097F91C48B868586F714B0EBD5
311
A00A8412C1236E1298F60C72BE6C96B82B404CADAA304AE9F303176B14BA53FBC2D5E86377E35542019E24D97B96A49B2C0E5006E7795954DEAF5DA58958839043C6C70BD3B1B33B6DC5C31316D8A6923F142E26F6711A2258AF977DDF1F970ECC4F1F2B434B96D81BEB6E89BF3BBB3C7C8CC80505070723D6D7D7D3C8CA27
311
CA164A26024FED94B12A86031867241DA53D929636DA600F050BC40CE48B8BA03D69224720DEE2ED2127390BDF5E6EA64527BBD4C4C63FA76BB801FEEC0E61218EC98A8A86CD8313781617877E66692839B9468CF4DB8E50A73986E558E309C0D6F676F921BE02F1185454DC75B111572FF9D27D85EA14C05AD7271225B391
311
C4275659CA4A43759D0BA44639BE4C30A84DB7F67A41399FB95CBF923B1B1672ABC807C1590557FB18D811983FA97F5E609516D62281D38B1281F68FC75528C35E4CD7DF0F7DBB5E5DD69C414EBEA2F4A5B241B996BA77AE6C772E367408C633EA3E438B68563EA8BE7667F3A4C4FDEEA52ABD78A2820F443B7914A15F1800
311
18D231E64519C56A12F6CA7C8DAE18F06F6B769DBF92329EF6A5D18FBCE600F36BD8E8198DE5CDAA96181F3A756EBA5501CEE58F497EA4F418A2B82565B9BCC611713C0B708CCA1F398B78C5F7D03B3437CC18F13061F55C7BEDADD5ACB1DB0E36D3CE47FF6EA1A563A57E9649EA5D14D1A50EAA457463381C073777EF1600
311
607BAF6428A7DDC079D47A204EF1E1F1F0589FB054D45E02CE623B3823C317C601E589E22B1E88B448524B86A82828E32345EC18AE17214B42F8C41C6D428016D9BA31DDCB47572561E5A402E5BA4FCE55F78AF7268524AA04130F3A20BA5D1E9F9948EA48FC8F5314FDB35E21898198060034ACE5E3E2BBCA34092518F275
311
190AF65F45867FF0900AA4B81F25427414C372BF51DC29AA855C5428EE1EEDD6B849AD60F6E73475C2D2523F8A2772C840A478DED18A8C5C91B085F255DC4F54EA7AA8947354FD17ECF8FB3B4A0DE7B483CAF3A1165EE05BBA413E5C1FEF3DE1D6B8F2F3F3251C17D9FCAB48A9AAF63AC773A0E413BBC46A9ADF84A566FC92
311
0E4D8C52C9769EE3301CADEEEDD92B312E02E2A7E35B7F1E7D203FE5A7D75578B06E99D0E46FFADB8FDA17ED8880390DA29094202D6F645F76F6F96409CDA05495A96E84B04A00D1A6C6C81D7F3DE9376E828CCF144EE50E364ACCE7237EA0BFB5607ED1AC3CFE73794E5B61739D14DF1743441B1AC98F00ECEDE9E7301FA2
311
9755FBEFA68C91EF2B314CF510537EF1ABFC9A762496280B546F5EDAAF8A5B387D469FC9A878A92828C88608453ACEC6094DCA54111E7AD5B2663DFE2DD151B7F123B9F4FEF8EE36AB125FD7AD52A59B1B765B3E3F73E3F73DEA93875004D2AFFE3CDE9493B87A9904DD052028949041A91DC0E1BA47BA714343FD5B25E0A6
311
A09503AFC17C790058A836A324FE31D7893512E28230332F153181C1E018E1124EBE1BA262AA428A518237D1EA7275E48C5C561BD19ED6912EDD8367DA0F31E40EEAE9683DA9257525AEA7B632B97119E17145A90231768A4F3B9120FF32E8319B015E3CBE26F1A754177D8185345817C096B0CE443A955D13AC15E1FB5DEE
311
A0239EC32A3C92241A237B0B02FFCB4F93CF2B02570C8D192E2F2A68CEEB42F12E6F8CEEFF46C251E22B4341C56FB08CCE550E7A9D6F4D6564B9EA52A83D5BF2C6E03FA19D2775E15A8A7ACF30A13C259EE7F5EF2AC3BA354F1500E1A07FC63FB4686E2F12EC69719F9ECF5FE3F35598DF2CE944008CE78F0911BA5BE5D0A3
311
4E0098FF038669C26030BA9B300303039852A8F6F496341737CA7E0D2E3AAA36DE0A70AA7D9CA0D54D9AD84B18A44C9E625475E1C97B93BEBB38DCE7D227E67A2D00F531436136355F243D1FC0D712C5765754FA22FCFFAE97919161F46D6E61ACB37D83777B385889770B50765B127768443A5C4D3A4E35A3151111F146B7
311
CA116F918A049F1C272F2CD7976C69A0068773451659A97E0F4A08FE604C3FF6CE7385DB19F4D3ABC8A0D80DA8A42096AC377DB49382B36E270B6FA7570188B4B7D1DDDDA82ACA487CCA5D38BD3BD039ADBAFA4ACFF27809239B722081E2EB9F145320553D183F28471C388BC8814E5045676767AB58A8E72D1CED2CA73137
311
9515D2E533E4CF0B39DFC625F97AC4836831A4DE330E87A8126FA17EBE583D614E71E22A8DBF2825599743E0640037303E8E1B1E8EA4E1ABFA4F62907B5E4E0E5DCFDAB417C36C6848A2B8D15F1E505434C0707E16B1CFC2A1C36A42BBF55734F8F4301DDC2A5110CEE8C0747F69519265012A2174BF4E955ECD4FDE095A3A
311
BC70536B7AD0B9D7892F81287D667C108703C9B66A221E9A0929D030008F77FF6F5D2108EF5706FC87A3069B976F7C9FC3239D13D283CDEA83597461079FEEE049B0F392889898B7D87D31F8D60ED7B56B91823A8E4EDDB36C6172ECEE42BD42B12CD67994FA0F0DFAE9389356F4CD4425A4B8AA55CBF7ECD585C6A2C23167
311
91E43D5C06841ADBB226A87FD61515FFBB0167B74E56BD7F3E90A57A97FEDCBDF483A0D6699A8C0849CAEB4947FAA90D8E332D9DEBD9F4738C37DA0CAF9CF3DAA68BCB67C420459C7A64498D6E848E5CADE92BB6901F607AA331104A67F7CD650EE169B1DAE94D2C31C2F993632259B6957E246EFE4C5481107B0711860770
311
0040E5812A2A2A38DA0076875258C753F60E0F2662C748EDD5F3F3686B8FC3BD6FE631ECCAA1E8B1C1E565AD117E54893E79F4672E32F9E46B2A183DFDCF3EECB4D4D077DBEA0DA254D256045109670050129E9B9B1A9E4A11344D61497A992778095151510C4BB7EF2009B63AA4360635312E4CF668B7E0D3D85A8688E2BD
311
83B569439892ADB63461930D428E0DE42E4AC57CE48DA5CC1449530D8BD3D6A0F08DF20C8E8F570F2CFFFCEA286E30969B4654D498A58D9DA782E19FE3F002181838925592C4A1EF0B332D88B61A92C644547BED490D3A42CFFAB70E36D961F694F6307F72FF15A1C79D5B1B5CEFD353D9E2B52566DEC8F8F09CB3E8359C0F
311
68EBBB7898243E34E12A015B2685AB303C04D3A9E00671FF3DFF0A184E4A2ABEB2B666AF5B3A209C73D8EF29DCDB069C9F391EEE9DD0F74C7BCDE16F8F02E3B8816122BBEB50665775B600549D8BB33A54A6BF940C028118BC6878C79958D6784F9DEAA6E26748386FFAF8D0D0101E2847B6563F5D8DC1D78F787BE00E2C94
311
1AE12148D4A81599FE8F68D4DA5CDED75530ADE138240300EE13B0FC13A1687FED6774662C05A2B7DFB186732F0D7A93545D8B0A6390AE5054D9CB582DA846D7A061B3358B45E2B52DDE63E114397EDB7E09233A579155D795BE76102CF277F4DF8B188C4F2879BEAE3C08347124BF9ED23B128259FE107D31E34A652F090B
311
30B39E0D9AF917B76A2806135621A8A60681F16AF216514BBD02711585B5B1AE823F4B2D0369EA5B6BCB863072727FFC871CA6C9AB79A814D989057E9470A3D238BC87CBB4A0EA49AFE2B86F22E499793CAA9047080450166BDC357524561E258C77CB697F1ABB32562CF87C3B7AA12F911EF19FB3E5C02222E887D08202A6
311
0A17151F5E053A86B437771088B4FEE14D652C43E8D939995D34545E12E2FF93D4E366EAD25F10CB7DED141563C3D0C447AF06078A91135FD4B9611583CB4BF3BD167F2399CEAB0E0100F8FFC305F00F1711717173138B4B48C83022295DE657EFEDD97F238ECA80F528AFB4F8D67AD4E2594B9A3AA86D7487EFC313BA9574
311
5C186F0CDD84CC12DC9CB0424B42203D351FD9C0A3AF10CC7F388E0329279087386421F194F4A29464C1DEF7EF8BE515E4A199DCD5B909342598D8FE6A231F71336248D5CEC5454455C7BE383B3BC7B260FED27F703FDC39A170F3827239102F59D4DEE7FEF82EAA1A5E4BA94DCC4CC44E7E2EDE20F24244E4454369D2E87C
311
3F823F193FD4FD27E1C23984B01898D15ABC20711A8A558054951A6AE280096BA36CBA439603B7B0B4C45F248C14B2383B4B5CD8ECECE4FF859AD4A6CA2326D020EF090F4041D28DB66E5256B56232CC52829DE8060BAE6BBF37D4B7469B822454FE93210A3E8D15E69FFCF01123222611C51C4FD0A041A0CFA2471CF6BE38
311
D2B20FA4C3525B5B8B586759475CF80ADFE67A284AC24651E52B8E683D24C2622642F27E7C3C22783BCF63648BC398BD6CD0D9C97E7E7E3EACB6126DB7A6C1FD9F1031302EE67ED96F22B77C7CA0239BB324207559B105E4693EB26EC46182A92C9C0DBD24F29B31C5C5AC1F84300E0E17CEEAC15F5736FA4A98971E2F1423
311
BFCD68D4BBD5F86E74B40A369F39507C88FCDB35D2DD8DEBEA4AF999E23CF2816D204200DF6E611781B9884C1AC8888B4DE397320472959434323A5A36B22A8E1F721A270DF3BD65E4A31C11FF048AFB0D8B7B6881423793963A23CFCE935FC189ED36FAE35C46DA3574C979E4394BE52084F3081837BE033396D2EBD80F1F
311
691B273F660D2B32FA27A33B1DE4ADA5F0FA4651511102DFA410DDA86E065272CA314D5249DF91B06BB92807B28EFD54F08F7B525252782CD276DD02E6B0319B13DF87B1F6361AD6B28FC0D711CF445429B9E5A433CD493051C49A9E03DDB1B147D880253514A5DED88009018620EE229101C041950E2D8AA8E1F5F5438E0C
311
0C0C60EEDEE9E3E0C051948C69F84BB7B2A48A1F3C8EB9E6864687F4F4F6F6E2FA87608ADAF9C5E117B7C1A737E710769DA1D15ECE6A84502AA855398712D5FB51BE92E4EF824969CE18278798AC303C2C7980DD2500ADF8FB1E6D6C2FAAFF9987178923334A244758BAA01A9A1B70FA5097D01E1CC2A58DAD0EC94CE6430A
311
A9B0C10D75E3C6BAC670EFBADEE1607739CE0FC18A2587E3EC3058562014C64219C69BC269082D5C2F4A659278D585755912176D78A1B641719C2A394CED495A1AC5D583FD2F5EDD93308EA7EAE8A6DD396598BDBD3D4CFED62D18A5BDFDE0DD5C80D1A89BA62697B131AE7CE9A6594138582F1B37D68F1749AC7CB67A7069
311
5D48A4A056AC1FBD4E82358CEAE38F54B95A9016F9000F9879C0D9D131768635CA798895F27D6F1614F11F2838A83611AA51C9A3DDB539D42979C29F10465655C17BEC3E2760B80DCBF609198C7B171A531905F3EC218D696025975E986C6B4C666666787271F202805577DD5A3EF0CAFAF91B62DC4B2DB4217A7606282F31
311
D8DDBC290593BAA93EA6353AFA9939B877978481E15CFC9F2755CDC00C538F63A4BA3E80AE009B73CA0185687D339A507D165B74290D6EE46D5C58148F020C3668ABE9EF2F7549170DC80DB41FFC1D678FF19AEB10C7133832B104B80F691B3138F97A92D26E551F1F110400D45AC71A9B9AC41A1A1B1DAEED0B0810638EFF
311
B511D46B121C6FEA0F38CD00E03CFFEB9713FE1F9C263E4DDEC160D0497FA9A132BA608584057FB15380825DE6C7FC3C667EE947D488A09898D8E939C4953BF4EC9836344D2CC6B2971B2A21A572B06096F4982D2CC7232D46E8EA69DC83722E267754D777F97F96D5DA74E1E75178084D0E70F12AD33E5F71EF2AFA599B2B
311
EBF60A5BE475F444F240CBFE8143C334E7ED9150FEEFEF7EB020C4DBED388DD1D6A167A76F3CBF119B578AE8CFA7736ACAFA4440A1C47185638A0D2F3EB5BDDEFDA958FB13CE4AA4923D5BF840392D45544329525749734866684BF7F8D9D54D892E19BCA9F829A0F8BFCBEEA6CFDFC61D74EA1A645ED7A1FF241739F15694
311
BD835B66FEC5677E40FE69BD3F91AE402F036537218A401CB0828604AD189E575015C6F3F6BBC8AC79CF6C70653847254B31551EFCBEB5978B9DB85D58D0FA41A9DFE9C624834AA04949D24B5AE6D299E072D152D12097920F14AA92C31C3B97E28B6C2E6E9C23D63043ECBBC0A60FDF5BD0C33C127EA8A3308B8B6AFFEB28
311
B4455BF6E7AF4FC6222728357EB8E46E85053E6A8843AB23295BF838ABDA94658FEF3F832F147046B4ACD6F7D48E8FCC9618582961C898D1C7A253C91BFECBDA6BA18A1FCF70755DCCEE2222F41B76D23CA98D0CB3D95F0CF66D57FFF65E2A90F5DF40FC3187621E981BD0BC1D992787212688976B94A8F0C6EF646624B570
311
B78E068826F87CE27041A95C9A4871FF65CC17FCB1639629AD6A9517000D63AC231F3D741CB8430777E7ECF80CE7A3F73C0F162F7E56AA71F4DA80A33CD6ACEE78E2C11FAC03DAFCE929B106F8F6B3ED2DC71FF994BD9CEF4E9A94896EF1B6E2B7B4978168BCF0847A3D2A4F1B0500B926E634B174548E9FBAD27153FB5FC3
311
6799B1E6C7C38A94E1F9E996796D7B485E635D5287A2AE76FBD11A341DB3F8F810385BB7296391973DC6C37C452A9305AEBBE0CDB6C566DB59FE60C8E94B1FD090354BF51439FFD1B48D725228FFA88C84F686F547107A7A235665A4593B7C34D748C1AC8D56DD5DA861EEFBADDECBBD65117E65851F90351AEB65F0EFCFF4
311
BCFEF24CB7A5879699FAC437A7AF9099186CF006BB923A59E37D7A36A29FD8D2CBB914A5E9D0A8FD212FBF796AE9A67958FF1D5D8B85F78F96219D4714EB919929241B6C018AAE0C02069F8D919961EC5DDFBFB7573E3AC8E08BFB7C8534BE6DE045B3CD63DBD71F7638BA2309CAE398EA3A7D8F98BBBC7AEB367EFA5CFA27
311
A9F8F2F52FE878058E6209C026453F8E7E8A237DFC389E9590F6059B397CFD65183BBF936E86896612A5B5FEE49DAC8455D026218AFEBEC12B3523A45B57B82C9C97E02ACFA1184DB18E48CF615DBF39C3CC6F0B4AE6BBEEA2E39D944E290302FA3DE33FA7E40296E2EF7BF1CD855BBECFAD0FD622BEE9746FC4FDFDE545AE
311
6E3BC234CADF83A0FB76DFB145BF3828AE3436368AC24989454F8FF70A177672C711CAA1A76107218CF948CA01F873520E7A2B118EBB161ABAD432932029628B6761590C98AB590C8C8C79798CE9F715BA696E839E9131A4BB68BE923F1747FBFF165331FFDD4D05997ACD168F12CA75348DAC04C7F509FE83898A8B421181
311
AF492861CE81E4A2DD0A30850CFA95E05F097FF70F9E777310D584A75BA7018922E271DAB1D785671157685B7D383D3E074DDB4F1E44EF04B07BAAC75A062077C54B9752C738C9D804D402E02851F3F89605AF189738C18C021D2139EAF72513824E10DDD3047BACC8521ED7E98B257D1166903B1B08FA6F918FD7E162913F
311
EC7D0EF4787E29C35FBA8C6E2C9C20E9AB30AE42CA2A01A090E7D010C1B5BF9CEE2A304BF3A987FB40D836979B79E18D70F257DA61E808472DD85B82761825779D6B90CAEB0F23360C6F80A7D7D77545E95B3DFF0CF96A827F9B5BCECD2C9698718417EF80FEEDEE938AFF55859D0D540B7FE09435583A6F04874A0C7E8CF2
311
34DF4879722000167F5872CEC6BF3EF7E5A8CC8121E6A359227C8A29C95212F9F735BC72A887D56B8F309FC525BFB4FD767AAEC4AEFF249CFBBD2DE1AB9969A6155C7D8DABC307E47324C1F916C7BCFF40ABA5644E9FFB9238D19ADADA49D9610F01ABBA57E4DFCBDCCBB2B93C8953206C91DE01B0E2651A6D6C31721915B3
311
1F7B7CBCE55466F6D70402788FA91D73BE4ADCBA99A35F17D6B83383704917D6833F0FA3CD45C926ADB8BC17999A4A0AFBCE2541F7B8CF4C2F5FBA611B3E626D64407CB32C122DFF4EF8674D6EDBB86C8F7C6A16D50FA685E2CCA34F8F7D1D8265BB0042E9D7F1F666F7BE5FAA5184DF58E12122A42EF02F461B3F369AC746
311
F96528AD208512AB56844CF75B97F352DF7995024FB02855385854F3798670D01CAC771AC3E1889EC25F61A20C1F8CAB46898817F9C47E2CDA1F286BF2F358298709FE567C91133E2638C8B53975E753EA8BFD3578B5F7186B7BF084EBA3F77BAC3132A5779902EC22AF2D2E79F42D324E083386DAEE9810D1B44A5DAA5451
311
3C7A71E52A4AB9257D975B621308FE4D2141CC3DCFE946C154A3C1DFCCA7629EC69ACFA831634ADDA93C0388D2A9A2DDAFCF957C6995BCE7FBB6DC4EBAE79E63EB08E9A25F52F67076F7093CA545CA3053B5BF576DEAD4E0017143C5F759F32B2D6F145B52B67B48909B7C7FCA6586EE385A2189C16932CB6DDFD9152AE317
311
C430492A578ED27B72D85D40C7C93C097939E1B50F4D67F05334FE9DC362C30B7FF561B95259138ECFD9274C8D695C31B14D4EAA9F3D7FA8DDF652F8C5DEFA23284C799B7D94416DEE81E05A866302DC70192A5368EA65E1CED8BF107A1E2D3119A71E85DC1A7B0C1E93274CE04DD0F2ABC8AC7C987FDB002B6F81757B4350
311
2EF7A0D92E416494FAEEA4C9C090CD9557AA4D532F4996A272B94355C5A0E4974EEA9627476F30809B94D8D8D860062E02204643BEC7D0438AF800FC7E2B26955D595421E83C69E1A07E0E3122285835F014AD538188CF9737CE76D464A353FA55A001AB2526B84E985083693BC76FE211CA1D000679C889E3C009832C87E1
311
AC2EDD05C302557422DF0800E316FCAC86978A371F025A6C7DAA9F333E7BD160403A1A06EA75AA9888FF01504B0304140006080800DB50955728BB58AF800100009E0500003D00000034324436423135412D364134412D343643422D423736452D4342313143363744423830412F536368656D61732F436F6D6D6F6E536368
311
656D612E786D6CBD544D4FC23018BEFB2B96DE15493C78601010A34B880709DEDFB52FD0D8B54BD70DF6EFED3AC0B12E6442E2716BFB3CEFF3D18E26FB440405EA8C2B1992E1C323095052C5B8DC842437EBFB673219DF8DA659866649B798C078B48AE6410122242F2A4994AC7F93815DF85C049C8564CA0A901499DD886B
311
2EB9B1E02448F358701A9235880C49A0119892A20C89D1B9FD768815CAD268CB5E0355B40B1E47F3E37A2020464BED06AA57CE8FCC20C3C3446D46761A2632A8C1283D07031EFF2AE7CCB1BFEEE916E406DFAC8E36FFD99A9D60A6944090EEDC3B670C7DC13DE86B6B2C5C240D6E503BB85ACD579D513F1B9F9A69DC9CC22A
311
FA80C426D40AF0B21EA168559156B6276F0F726A6BFF04DCD513A87A62CAD41FB24FCB2858B3952E3D852084DA25B9303C15687973CC8E8AAE11DF2836C38C6A9E765E8C1BA1BFB1DC29CDFE518C8B5A7655A4ED7E77291ABEB80DBD82EC866ADE1B8D05AF9E35CF09D7A061F38A986D9EC412B8F0F65E5D81534D9B231D1E
311
5A8FE577A241F3A5FD01504B0304140006080800DB509557E336299B9F040000341300003E00000034324436423135412D364134412D343643422D423736452D4342313143363744423830412F536368656D61732F47656E65726963536368656D612E786D6CD5585B6FE238147EDF5F61E5BD1498E9A895A02398AA5D1E2A
311
5665BAAF96710C78D6B9C87168D95FBFE7F81242134A968E469A4855437C72AEDFB965F4F53551642B7421B3741C0D7AFD88889467B14CD7E3A834AB8BEBE8EBED1FA3495108B3E01B91B0DBD1F3EC8E6C991A470F22155A72F73CBABC1D4D5921DCD1934863A11F990102A6F61466977B8AC49FB13C174CB3940BE4504A22
311
E3713489B7F82406516225536940BD88E4E552493E8E564C1522225AB0384BD56E1C195DC26FAB13882C2EBD62E1FF9E5B0FCC453132C99548446A1872B62267078F1EF14C3DB1DD1952DDBBB384AD456779F387C51992E0ADCE12FED2622BC5CB1952FC9BDF3295E9206E961AB116DA7ACE45F76F07A26EFC3FD762FD7362
311
FC3C0BAA4DB34C09E682CA5167BADCD16CF94370E331E2F1A3D852008AAD5D64BA2373478338AEB1583B905396D158182655E1B938D07926CF007CC7E85E6709999B0D3827C0BF406BEF55C68CF5579DA32C8C85BE03EFE788787E8FEC95DC85C3E31A615658D81F9A34499612004CE69CAB12531B15A887ACA642C110F8C1
311
A8C1974A85853F407794695C905C688E69B116550ACA946B9B4785FC179E0E229240B62665328E86D5BD2C800CF5D80289F35AC25E3DD51508F4BF9A74A0F5A557BB3D284BC6FF59312E282F956A75C5D453906F48D11A876599E49425602400842995BDF02C4D012E226658F78A710416AC552831FDDEF0E6F0BABEBEA9DC
311
36718CCEF4DAC5A0DF871AECBDD8F448F015F8DA113A473609D1751672B723874B2CAB21ECD6E284E51DCC7D1A47A00F60EC21DC4CC3CDC406DC03760A4E6C772F2F4D561A9AE58C4B03F5B4838701472139EDCB36819A66C472B52AB1139C648956F43E0DAEC067B56B0818F5961D3D446B8F1E1E78C0EAD7EE02AF2895D8
311
13E88AC5014A7B436DBB20F778D40A1D9737EFE45B47D49CC8360F9966B15AABAC802C1005548A93EE469F5D55317CD8BF0AA86CABADB2A009D4D6F60CFE53AE370AFE8C45415B15D362A5A038E766E34B00F8C2E3E7098E2093B1C96349FDAEA158903B4BDAEA665F473FECE72186E3BDDCACCADA31839CD6D4FA7D47DF54
311
69006ED340EBE71DF960DDEE88A3E17557039B58C278A1795BA8079419DA8FC5BA1BAA1A66238BF69C7B2BE4E6274839122B7D00BE8B7D52CF61B2D63216046008C8B330FC10F8907787DEF061F47965BBA02FD8F53BA12F9827614979F53563D0BB1AD67A03DC0E00E2FB2CF3EFB457E70E65A3D7C78E7D700DBB45132AE9
311
BBA5E468CD861408961AD8B00A55C2FCC677F4456039FD9F1907A5B3E2D0EE845FDBA2DAFA88C64195671AD6D282DA2E45B1F50A0D632B0D0B6718757DCC7C84A70A3656F222CDA6DBF07E204AB358961D1BE31E53A82C2C0D56DBF61A5608B5A252A932A1DC6E32462430853353EA30417C8199A662E946A4EF352268B8CD
311
B9A9C6762515ACE8E09BBC031C608A02C4BA89C9DDC074E46E0E26A17BCBD4ED43270D03E3645ADB81F6D62CC07A3243EB81C07E01681DDF2DB4730631E6DDA6CBBD048BE9F06AEB3CF06B31DD6C9575E37E9FF17161342C4C76D95519672A6509E0F5C4E71B4B1916440059F57D0921F496237E473A83E3E4E06353BD9D27
311
593594D7B6707C08D22FEBDFBFFE03504B0304140006080800DB5095578DFFFC99640100009B0300004500000034324436423135412D364134412D343643422D423736452D4342313143363744423830412F536368656D61732F52656E6465724D6174657269616C536368656D612E786D6CA5535D6BC230147DDFAF08799F
311
5FDB600FADA20EA430D968A7AF12D36B1B481349529DFF7EF9A85A718860DFDA73EFB987734EA3D16FC5D10E946652C4B8DFE9610482CA9C8922C6B5D93CBFE3D1F0291A6B0D26A3255464182D920FB4233CC629881CD49C18508CF000E3EE309A100D61622AAB4A8A33B2483F11CB639C545B0E1508438C3D3C0361192846
311
DB7ACD198DF186700D182920B914FC1063A36AFBEE8FBA03FFD3CC1D1F4FC9E151A2AF59F628C5B7821D83FDFD3489305080F2EE04BF962195FB285E9D2DD352320A9E827AE357594914E42B1F5FE35F83688F60C4C91A6C946ED0668E8F244BC2EB0BA6E3BCCFC0B6A4B507F9F9F8D51EB315D9BA9E08D308E89F96931666
311
E577837E2B4172199C68C4FE306156D47DF51C698C7B9D97FE5BEFE2190C3C38BB054E6E8163FB039CB4B993C80BF18D969203116D6BBD26238B821F9BB909AD6D9C71B85BCD8C33D66FEA3D31B4BC0AD45BEA46BBEDDFEC0F504B0304140006080800DB509557E5582D6D5100000057000000470000003432443642313541
311
2D364134412D343643422D423736452D4342313143363744423830412F4173736574446174612F41737365745461626C654F66436F6E74656E74732E62696E536160607073B4307471B330D275333377D535B13072D5757273B6D435B0707435B63434363473741602AACB4D2C492DCA4CCC492C28484D2C4ACC4B4E050A82
311
012F90744FCD03CA26072767A4E6260200504B0304140006080800DB509557C55C663656000000680000004500000034324436423135412D364134412D343643422D423736452D4342313143363744423830412F4173736574446174612F53747265616D56657273696F6E5461626C652E696E665D8CBD0A80300C06F73E4B
311
29FE6CDD8A2E82A083B8B7F209014925C9FBA3AEAEC7DD2555D896CB85E51C2A1BD834F6A1F56EC4494C4695278364ABB24ABD2146F88CCEBB89D5321FF8F3F43D672A3B44DF3CB6A1710F504B0304140006080800DB509557B1175B1537010000A20400003600000034324436423135412D364134412D343643422D423736
311
452D4342313143363744423830412F4173736574446174612F636E782E786D6CCD94314FC3301085FF4A648931761254842AC71582A51348540C6C57E7D25A75ECC8BE20F8F7D86D0650115387AEA7EFEE9E9FFC4EAE3E075B7C6088C6BB96D5BC62053AED3BE3762D9BA82FEF59B15232784F3F30563818B065B9CC94DC05
311
3F8D73A9C31E269BABD6B8C35C7C881169035B8BCFFDA377848E222BB485185B16F51E07E03091EF301E780704BCE601A39F82C63489CC80F3241D10083BA69AAAB92DEBA66CEA4D5D2DABBBE562F12E452695DC7A6F67DEA465C18F374DA54F7B99AAA4C88092533033955FC3D45F2AF9D6382912A964A4905C993BE86B4C
311
1D308ED668A0649EF09A90CA04210C529C60254576E197174FD81B6772CB3A4903F2E12509C44006AFD093FFD45EDE9BB58B044EE3353B72AEF1F23EBC1E7FD1DB2996C7DC5C5F5ACE3572E3FA0B64451CCF498A4EBE2EEA1B504B0304140006080800DB50955760C56CAAE700000060010000670000003432443642313541
311
2D364134412D343643422D423736452D4342313143363744423830412F5265736F75726365732F46413831444638322D463637452D343832452D424643392D3038414533393133313641432F7468756D626E61696C2F302F636E782E786D6C4D90C16EC4200C447F2542EA3181A4DAAA5A39EC4FECA9978A126F8A966004A6
311
6AFFBED072D8D358E327CB3370F93EFCF085293B0AAB982725060C963617F65514BE8DAF62B8684844FC808921980357D16CA1614F5462B736BC99E29BEB5DB87773C780C9D9F7187631586F725E45B69F7898C914A60DF37DDA0C9B699E12662AC9623DC0EEC07EC026348C9BD08B5A9EC7791997F93AABB37A399F4E6F20
311
1BA9E183C877DE05C644F1695196EA18EA3F0A64033494E43AD54208FDF01CC8BAD49039D5FC1DE29F582113A377D670AD499265E4B142680E90FFB006D9F256F92BA36AEB46FF02504B0304140006080800DB509557A233C2345D000000800000006500000034324436423135412D364134412D343643422D423736452D43
311
42313143363744423830412F5265736F75726365732F46413831444638322D463637452D343832452D424643392D3038414533393133313641432F7468756D626E61696C2F636E782E786D6C4D8B490E80201004BF42E6EE76F3C0F216234B883063108CCF170C074F95AE5473F5C4C06E932E4F28601967600677D21E9D80
311
92EDB002539227A2FCCB80E1168D80A6417297A89C5D6963B7129A0D1E8F2EE73AA7B62BBEB8B27DE50B504B0304140006080800DB509557BE89762363000000880000005B00000034324436423135412D364134412D343643422D423736452D4342313143363744423830412F5265736F75726365732F4641383144463832
311
2D463637452D343832452D424643392D3038414533393133313641432F636E782E786D6C4DCC3B0E80201004D0AB90EDFD75167CCE820A4A845D83603CBE602CAC26799919AEEEE0D965E2E908050C6D0FCCE04C8BC355404EB6198129C92351FAD580A10E464065907C8D948F8F166375F655BDC3FDC3B4E530A176BE7057
311
BDC43B2A593FE403504B0304140006080800DB50955799C339937E000000A30000003600000034324436423135412D364134412D343643422D423736452D4342313143363744423830412F5265736F75726365732F636E782E786D6C4D8CD10E822018465F85FDF7946833DC004706EFE1121D13A191B41E3F685E74F56D67
311
DF39ACFF6C0EBD4D7CD9E039905305C8F84798AC5F38A47DC614502F580C61FFBB01F2E36638140C822D31A4E78126338FC915EAAC5F0FA82525774D6BACDBABC2175A2B7CD343872B2A55D39186B472C8C6B928797EBDBC252FBE504B0304140006080800DB509557ED4670BC0B0100005503000034000000343244364231
311
35412D364134412D343643422D423736452D4342313143363744423830412F536368656D61732F636E782E786D6CCD93BD4E042114855F654262393033668DD9306C616165A35676087777C90277C28FD1B717468ADDC44E8BEDE0E4CBCD39072EDF7D3ADB7D408806FD4C463A900EBC426DFC612639EDFB7BD2ED040F88E9
311
0C239D970E66526522F821605E9AA4612FB3ADAA35FED4C407740EFD8B3A8293A45356C63893B85EA9CC0935C413D532493AD200117350502624E3A04D500164024DC4344CB7FD38F5D3F83A0EDBE16EBBD9BC715649C1DF116DE38D4F1070B9990685E5E88BA181B30A089E8369544D41C4B93B5AFAE0AC1082C7144A0B8D
311
4C5F4B21E5B258A3642A65B115FC61046735EC45E447F0108CBAD6CC17F6FE2DF433780DE1A9BC5430D25E6BF6DF5CFEAD02B66E40F9067521C437504B0304140006080800DB509557E3603EBE7A000000C20000002C00000034324436423135412D364134412D343643422D423736452D4342313143363744423830412F63
311
6E782E786D6C6DCD410EC2201085E1AB90D9DBEACE05D09878023D01A1D34A8419C380F1F82DA68B9AB8FDFEC93C3D7C52546FCC12980C9CBA232824CF63A0D9402DD3E10C6AB03A3397DD192872090D3406ABE7CCF5B5D18893ABB1690CF4DCF02282E5EA8A5BB96FFE536F285CB347F95BEFFE81C9ED5AFF9D5B1FB575BB
311
00504B0304140006080800DB5095577E0EF8447D000000A300000007000000636E782E786D6C4D8C410E83201405AF42FE9E561A8A2E0003D883988A8614A1A1623C7EA171D1D54B266F86F7C7EAD16ED3C7C520805C1A40363CE3E4C222206F33EE00F592A718B7BF1BA030AE5640C520F992627E9F68B2F3987DA5DE85D7
311
09E96D609ADC15668A2A4C99D158B7EC818D26C4B076D05DA38A71AD4A995FAF6CCDCB2F504B0304140006080800DB509557CA1DF9C9A900000073010000130000005B436F6E74656E745F54797065735D2E786D6CA590410EC2300C04BF12E5DEBA70400835E500FC800F84E0B411AD13252E2ABF27A55740421CEDDDD9B5
311
5CEFA7A117778CC979527255565220197F75D42A39B22DB652EC9BFAFC089844F65252B2630E3B80643A1C742A7D40CA8AF571D09CC7D842D0E6A65B8475556DC07862242E78CE904D7D44ABC79EC569CAEBA537E3521C16DF5CA5A40EA17746733E0B6615DE7217475F386F18B9481C510F1F021CD9FF027EA0E1F5C4E609
311
504B0304140006080800DB5095573DEE336E64000000790000001B0000006175746F6465736B2D64657369676E2D7061636B6167652E786D6C35CBC10E83200C00D05F21DCA56CA76D41FC96062B120735B69A7DBE268BB7777961F8D5AF396893C2ADB70FE7ADA196782C2DF776D7A97B5933C430F15651E5469C55D70F80
311
A4992A3ADC954792C525AE70A1E4D6AD9816CC044FEFDF01FE3FDE907802504B0304140006080800DB5095575C8ECCB2F8000000960100003700000034324436423135412D364134412D343643422D423736452D4342313143363744423830412F4173736574446174612F636F72652E786D6C8550CB6EC32010FC156BEFD8
311
80EDD48A3051DAB85FD0536F08888B1283C5A3EAE71762576A4F3DED6A76767667D8E96BB9579FDA07E3EC08A4C650692B9D32761E21C52B1AA03A71E69D8BBF685059B1E8110A0C9CCDDEA57587A4B351DB825AA7F40E8A1074844ADE733342901F7A11B5483133C2AD5E85BC8959D7A4DE789CA564D4BE6A54563357A33D
311
7032F5EDD01F2E68EA488BBA9701A3E7FE69421DA1C3405ECF98B494356599B368969FEBD26B11B5024E316D11A1889237828FF870ECFB77D614266721FAEC793F5ADC013F97AF2F220AD66CD33FAA6955FFAB2663634B77D56D23641FF9C9C780B3A6A494CB23C25C4BA2FC1B504B0304140006080800DB509557D28C69AE
311
F30000008E0100006800000034324436423135412D364134412D343643422D423736452D4342313143363744423830412F5265736F75726365732F46413831444638322D463637452D343832452D424643392D3038414533393133313641432F7468756D626E61696C2F302F636F72652E786D6C8550CB6EC32010FC156BEF
311
D880EDD48A305193BA5FD0536F08888B1283C5A3EAE71762576A4F3DED6A76667677D8E96BB9579FDA07E3EC08A4C650692B9D32761E21C52B1AA03A71E69D8BBF685059B1E8110A0C9CCDDEA57587A4B351DB825AA7F40E8A1074844ADE733342901F7A11B5483133C2AD5E85BC8959D7A4DE789CA564D42E352ABB99ABD1
311
1E3899FA76E80F2F68EA488BBACB80D1B97F9A5047E83090D7674C5ACA9A22E62C9AE567BBF45A44AD80534C5B4428A2E48DE0233E1CFBFE9D3585C959883EFFBC2F2DDF01C7ACD9D03F6E6955FFBB2563634B77B74D11F2FDF9B8C780B3A6A493CB23BA5C4B92FC1B504B0304140006080800DB5095573C40FDB0F8000000
311
960100006600000034324436423135412D364134412D343643422D423736452D4342313143363744423830412F5265736F75726365732F46413831444638322D463637452D343832452D424643392D3038414533393133313641432F7468756D626E61696C2F636F72652E786D6C8550CB6EC32010FC156BEFD880EDD48A30
311
511FEE17F4D41B05E2A0D860F1A8FAF985C495DA534F8B6667669961A7AF75A93EB50FC6D911488DA1D2563A65EC3C428A67344075E2CC3B177FD1A0B262D5231418389BBD4BDB0E4967A3B605B54EE91D1421E808955CF26384202F7A15B5483133C2B5DE84BC8A59D7A4BEF3384BC9A85D6A54763367A33D7032F5EDD01F
311
5ED0D4911675CF03464FFDC3843A428781BC3E62D252D6143167D1AC3FD7A5D7226A059C62DA224211256F041FF1E1D8F7EFAC294CCE42F439F37EB4A4031E2F69FDB0C22CACB96FFFB8A64DFDEF9A8C8D2DDD5DEF8A9073E44FDE169C35A5A53C6E15E6591AE5DF504B0304140006080800DB509557B649E0F10C010000B1
311
0100005C00000034324436423135412D364134412D343643422D423736452D4342313143363744423830412F5265736F75726365732F46413831444638322D463637452D343832452D424643392D3038414533393133313641432F636F72652E786D6C8590C16EC32010447FC5E28ECD42EC9208133989FD053DF5866C92A0
311
C41019A8FAF985C495DA534F8B86191EB362FF35DF8B4FBD78E36C8BA024A8D0767493B19716C570C61C157B2916E7C22F1B2AAC9A758BB28CA4B82C2E3E56697436689B55EB26BD8ACA7B1D5031DED3A1457EBCEA59952A86E4F0B7F2A1C69BBAE812CA974F8A18CDB446CD945E3367A31724A1AF19AF9B13EE37C0F0E6C8
311
093ED46F3DDE00E51C868E00A3A2CA612982997FE8E3A255D0139294508681620AEF4076A4D9D5F587A8B2530A1F96D47985E676480E1D87D3C0291E9A0CE1B4C787E1B8C584773DDB0283A63B8AEA15FC038C8FE97F60343630BA025F099F2AA6FF3F2FA4A8F202D3786E37CDBC6CF90D504B0304140006080800DB509557
311
C8D2ABEFF8000000960100003700000034324436423135412D364134412D343643422D423736452D4342313143363744423830412F5265736F75726365732F636F72652E786D6C8550CB6EC32010FC158B3B36603BB5224CD487FB01554FBD21D8382831583CAA7E7E2176A5F6D4D3A2D9995966F8E96BB9559FE083717644
311
B426A802AB9C36761E518A673CA0EA24B8772EFEA2A1CACA0546546024F8EC5D5A7748391BC116D43A0D3B284380882A75CB8F1105758145D632C5CC08D77A95EA2A67A869BDF1044FC9E85D6A74763367031E093AF5EDD01F5EF0D4D11677CF03C14FFDC3843BCA8681BE3E12DA32DE14B1E0D12C3FD79507194123C1086B
311
316598D1774A8EE470ECFB0FDE14A6E021FA9C793F5AD221F106C125AF20F066DBFE714DABFEDF35191B5BB6BB6E8A9073E44FDE178237A5A53CEE15E6591A15DF504B0304140006080800DB509557E315810CF7000000940100003500000034324436423135412D364134412D343643422D423736452D4342313143363744
311
423830412F536368656D61732F636F72652E786D6C8550CB6EC32010FC156BEFD880EDD48A30511FEE0FB4A7DE10100725068B47D5CF2F38AED49E7ADAD5ECECECCEB0D3D772AB3EB50FC6D911488DA1D2563A65EC3C428A67344075E2CC3B177FD1A0B262D1231418389BBD4BEB0E4967A3B605B54EE91D1421E80895BCE5
311
6684202F7A11B5483133C2B55E85BC8A59D7A4BEF3384BC9A87DD5A8AC66CE467BE064EADBA13FBCA0A9232DEA9E078C9EFA870975840E03797DC4A4A5AC29CB9C45B3FC5C975E8BA815708A698B084594BC137CC48763DF7FB0A630390BD167CFFBD1E20EF8DBF66760CD7DF64733ADEA7FCD646C6CE9AE79DF08D9457E71
311
1B70D6948C72D902CCB5E4C9BF01504B0304140006080800DB509557AA04806402010000D80100002D00000034324436423135412D364134412D343643422D423736452D4342313143363744423830412F636F72652E786D6C95914D6EC3201085AF62CD1EDBF887441126B29DDEA0ABEEA8993828315806AA1EBFB876D576
311
D7AE408FEFCDF066F8F97D7A246FB8386D4D0334CD21413358A5CDD840F0577284E42CF862ADFF814162E4840DAC32083E2E36CCBB3458E3D1ACAAB10A77513A871E92E1112F0DB8E186934C65F09170F77496C35D8E98D274E304F77AFAB20E0B4A8F0A44911725A10529E833CD4F393BD5F50BCF5652F0A08D2F8BBD194E
311
AFA8123BFB1809445DF26C7B8E58D06A87B48A9FD4578D0B88AAB8B08ED62D616DD5928AF51DE90EEC89F41DA53D3B5CBA63DEC622D12CB8F34B1CCD5E641DC25FED9BF157B430AB7F46DB1C0E04FD0E95AD73163CFB5C423CD79D880F504B0304140006080800DB5095579E56618906010000B201000008000000636F7265
311
2E786D6C8D504B6EC32014BC0A628F0DD84EAD0813F5E39EA0ABEEA8210E8A0D169FA8BD7D21A652BBEBEAA199796F8661A7CF750137E5BCB66680A4C210283359A9CD3CC018CEA887E0C499B336FC924160C4AA069861C8D9EC6CDC0A34591394C9A8B152155078AF0204D3921E03F4D345ADA212312485BF569B98AE6256
311
15A9761D6741AF3FAB935322280939C5B44184224ADE083EE2C3B1EBDE599D959CC5A865B1D232B9EBB3560E7232764DDF1D5ED0D89206B5CF3D464FDDC3885A42FB9EBC3E62D25056E765CE7C70E9CFE548CA198017B7ECCBEA9DE2ECC3DAA508522809AC59BE20C7ACCEC49FD07193FF08AD4D686839B86FF8943905BA13
311
C9383798C6BDDE3473DBFC1B504B01021400140006080800DB509557E9CC100EF7000000A80100004F000000000000000000000000000000000034324436423135412D364134412D343643422D423736452D4342313143363744423830412F4173736574446174612F446566696E6974696F6E4974657261746F7250726F70
311
6572746965732E62696E504B01021400140006080800DB509557B876DCC9070100003002000045000000000000000000000000006401000034324436423135412D364134412D343643422D423736452D4342313143363744423830412F4173736574446174612F496E7374616E636550726F706572746965732E62696E504B
311
01021400140006080800DB50955788E57597CD3F0000904100006B00000000000000000000000000CE02000034324436423135412D364134412D343643422D423736452D4342313143363744423830412F5265736F75726365732F46413831444638322D463637452D343832452D424643392D303841453339313331364143
311
2F7468756D626E61696C2F302F67656E657269635F706E67504B01021400140006080800DB50955728BB58AF800100009E0500003D000000000000000000000000002443000034324436423135412D364134412D343643422D423736452D4342313143363744423830412F536368656D61732F436F6D6D6F6E536368656D61
311
2E786D6C504B01021400140006080800DB509557E336299B9F040000341300003E00000000000000000000000000FF44000034324436423135412D364134412D343643422D423736452D4342313143363744423830412F536368656D61732F47656E65726963536368656D612E786D6C504B01021400140006080800DB5095
311
578DFFFC99640100009B0300004500000000000000000000000000FA49000034324436423135412D364134412D343643422D423736452D4342313143363744423830412F536368656D61732F52656E6465724D6174657269616C536368656D612E786D6C504B01021400140006080800DB509557E5582D6D51000000570000
311
004700000000000000000000000000C14B000034324436423135412D364134412D343643422D423736452D4342313143363744423830412F4173736574446174612F41737365745461626C654F66436F6E74656E74732E62696E504B01021400140006080800DB509557C55C66365600000068000000450000000000000000
311
0000000000774C000034324436423135412D364134412D343643422D423736452D4342313143363744423830412F4173736574446174612F53747265616D56657273696F6E5461626C652E696E66504B01021400140006080800DB509557B1175B1537010000A20400003600000000000000000000000000304D0000343244
311
36423135412D364134412D343643422D423736452D4342313143363744423830412F4173736574446174612F636E782E786D6C504B01021400140006080800DB50955760C56CAAE7000000600100006700000000000000000000000000BB4E000034324436423135412D364134412D343643422D423736452D434231314336
311
3744423830412F5265736F75726365732F46413831444638322D463637452D343832452D424643392D3038414533393133313641432F7468756D626E61696C2F302F636E782E786D6C504B01021400140006080800DB509557A233C2345D000000800000006500000000000000000000000000275000003432443642313541
311
2D364134412D343643422D423736452D4342313143363744423830412F5265736F75726365732F46413831444638322D463637452D343832452D424643392D3038414533393133313641432F7468756D626E61696C2F636E782E786D6C504B01021400140006080800DB509557BE89762363000000880000005B0000000000
311
00000000000000000751000034324436423135412D364134412D343643422D423736452D4342313143363744423830412F5265736F75726365732F46413831444638322D463637452D343832452D424643392D3038414533393133313641432F636E782E786D6C504B01021400140006080800DB50955799C339937E000000
311
A30000003600000000000000000000000000E351000034324436423135412D364134412D343643422D423736452D4342313143363744423830412F5265736F75726365732F636E782E786D6C504B01021400140006080800DB509557ED4670BC0B010000550300003400000000000000000000000000B55200003432443642
311
3135412D364134412D343643422D423736452D4342313143363744423830412F536368656D61732F636E782E786D6C504B01021400140006080800DB509557E3603EBE7A000000C20000002C000000000000000000000000001254000034324436423135412D364134412D343643422D423736452D43423131433637444238
311
30412F636E782E786D6C504B01021400140006080800DB5095577E0EF8447D000000A30000000700000000000000000000000000D6540000636E782E786D6C504B01021400140006080800DB509557CA1DF9C9A9000000730100001300000000000000000000000000785500005B436F6E74656E745F54797065735D2E786D
311
6C504B01021400140006080800DB5095573DEE336E64000000790000001B00000000000000000000000000525600006175746F6465736B2D64657369676E2D7061636B6167652E786D6C504B01021400140006080800DB5095575C8ECCB2F8000000960100003700000000000000000000000000EF56000034324436423135
311
412D364134412D343643422D423736452D4342313143363744423830412F4173736574446174612F636F72652E786D6C504B01021400140006080800DB509557D28C69AEF30000008E01000068000000000000000000000000003C58000034324436423135412D364134412D343643422D423736452D434231314336374442
311
3830412F5265736F75726365732F46413831444638322D463637452D343832452D424643392D3038414533393133313641432F7468756D626E61696C2F302F636F72652E786D6C504B01021400140006080800DB5095573C40FDB0F8000000960100006600000000000000000000000000B559000034324436423135412D36
311
4134412D343643422D423736452D4342313143363744423830412F5265736F75726365732F46413831444638322D463637452D343832452D424643392D3038414533393133313641432F7468756D626E61696C2F636F72652E786D6C504B01021400140006080800DB509557B649E0F10C010000B10100005C000000000000
311
00000000000000315B000034324436423135412D364134412D343643422D423736452D4342313143363744423830412F5265736F75726365732F46413831444638322D463637452D343832452D424643392D3038414533393133313641432F636F72652E786D6C504B01021400140006080800DB509557C8D2ABEFF8000000
311
960100003700000000000000000000000000B75C000034324436423135412D364134412D343643422D423736452D4342313143363744423830412F5265736F75726365732F636F72652E786D6C504B01021400140006080800DB509557E315810CF7000000940100003500000000000000000000000000045E000034324436
311
423135412D364134412D343643422D423736452D4342313143363744423830412F536368656D61732F636F72652E786D6C504B01021400140006080800DB509557AA04806402010000D80100002D000000000000000000000000004E5F000034324436423135412D364134412D343643422D423736452D4342313143363744
311
423830412F636F72652E786D6C504B01021400140006080800DB5095579E56618906010000B201000008000000000000000000000000009B600000636F72652E786D6C504B0506000000001A001A00210B0000C76100000000
310
504B0304140006080800DB509557000000000000000000000000370000006662782F31394132453342302D344231422D343137372D394139352D4241373232463031413743392F617474726962757465732E62696E504B0304140006080800DB509557000000000000000000000000350000006662782F3139413245334230
310
2D344231422D343137372D394139352D4241373232463031413743392F76657274696365732E62696E504B0304140006080800DB509557F270F1330600000004000000360000006662782F31394132453342302D344231422D343137372D394139352D4241373232463031413743392F747269616E676C65732E62696E6366
310
60600000504B0304140006080800DB50955788E57597CD3F000090410000420000006662782F31394132453342302D344231422D343137372D394139352D4241373232463031413743392F7265736F75726365732F322F305F67656E657269632E706E67355B773CD4FF1FBF73E71C0E67EF7576C9DEF3EC995D46C6A1EC50
310
46649CBDF79E192942562825CE965D8A868C2842C8DE9FDFD1F7E7F138F7078FCF6B3F5FCFD7EBFDFEC41B196891913091804020321D6D7513FC77D8C5070EC3FFEE51B21F068154CC75D455CC028A3EA68992803810109FDDE5D5CEC5521B28A1B422BF80741695D5B529DA1C2D058AD2388BDA9F476F7C2CADC939304173
310
DBF48A452BF8A700C0C70C3D121C1AA15A5270C22E2B9E28763651F7DA0D12CE11077B2ECD0D560B5E3DE2368B1E65C5E1C87384A4CC5F2D9FB8BE39E9B77C753783A37998F5CEF1B4FEE553463245C9712270880DF339E0B882A6BA713D865F6F384C842D440934EF264F4A304F8DE4EEFA1E2BF5E2D91F5ADD9613D6E31D
310
DB33ED31DB1D7916CAF091286EA3D31B9CFECB78BB0060245B943C4C040119FF780A74DD308BA9D028678674EB5504ECF284EE814DAED07440BAF649BE4B55DA2890F4D73E2D489A59EE54FDB0A85B59F2F52C4858A02705C4815A792B0C4A996A2023ECB195073E115E3E3647F64243A8338F2000BCB58DA5692C7E7C3D41
310
3F963FEDF3CF00FBB0F831A9D51360FECA43819F527B89FA260EB63C5DA676830AA3626A3693B23F1A17A0DFFCE3EE164E31B5365EDF0C89EF64D8E38AB0BA9A1117D7C3A0EC44F44F4023095E80BA610DE336D0F99593A88BFC5306E72DF98F7FD132ED95878DF2964EA7E43071359FD83B2BDF9C6B5BDF768F0F3C0FC351
310
199526F53D9460A34511F75D1B63E488178569472C91A94497807A3FD4A390C6558F26D416365C3656DE6E769DA9D8FC73774E1709812842DD8EF96AED1960F79D21B395CDDFE6F92CB4EB962A4668C76990E2EF29798C8941D67DA50F4A5F947872460F1F6FDB794E8A29FD7AC0C0D6E0714339CE258FB17AE8535221E346
310
4A10F29A0BE5EEECEFC5675926A89F49EB14E5711894F6586DB5754EB4D5DA9C6437EBA57DB97A24F8B8A8DB295FFD73266CF57E82694DF5166DDF93573AFE9C9C5EB05F8FEF8E89E0A8917B0B3724DB7BEBB53252581EFC3E38166BA131A3A5B42FE2AD00A769BBFA4458D2DE7822F8C4F63D0B8E21B285AE13325F3410A4
310
35C648C9D91FDEB109E73CEDA7BC796961AF79175E1A3CE4C5E8B0D009B0C9E29EFD98BC8E97554E3D8D838424E270F7685226E5AC268E021EDE3522D583E8F20C0BDE2959EF5BBFEEDAB32FE9A3ED0E39F211A86AA9DEBFC68182EDED132AB8BB794442D2D7EA9F4D8BFF52BC4D55BB165124EE90A42D101E67BBBB292FFB
310
4F66DE5BF2300E44546757DA7CEF8932BFC9F92A0707953491A55C5A5ACEDABD9FA1AEA01BAC3DC5A24E22E7C47213493996EFBC369D086ED9397C9BA6C7F9855C7BD5E15BFC8C53DB3D2A4C5901A57ACD2FBDF4D1676E95338B2C2BCE65FDA4C64F5FEFDC7D9CA5AA1FCF11E193F2FDABF0F4916BF13FB916A224380E6462
310
A9815F2300DC49CC4DF8D055CEF76462F4B7A7ACA7365C2707891370BC1D0AA6203C44CCAB47084FEC057F27FFCD57F89B8B9852459798A675C66BD7CE572CAF71FF7E6D7ECF7BF62CAB7B3F1107DCD04DC55A3F9961700286141C94A4F771FEB2BCDA2DDEE0CB0BAE402FF1DB0100F8E475DFFFC074DDB4498AB7D186A765
310
4DDB1CB680D703D47CEB4E72F8CB13D86A4AA68116E26387B93FD6738779B34FEDB8E517EDF2BAF28D9BE93A1D3A164320E07D42E514725C29515FF361754213EDE06B079A2E99EB1CA82A02019EADEEB87B9AF005BD04BBCECB14AACD6B24EFBE482194A97DD32400685FF1FEF1544D1B14EFB1E7F08E6D2CD2AF52DE757F
310
35F5E62332EE88EA26417AD5C3E0E319D68F25414E6D672BD4522B278C57D18F0113921C71D96527E091F00CEB15AE23D24667369BD3CEFA10C7549D930890BA4366F4EBC55F01F746109F98ABCDD5A3EE06619C6AD78AB33E48E4C9BD21BF7478B385EC05C4F8987E2C1BFA0A60EBEDAA0AE0B015C2720ECE180FB6F2DEFB
310
EB822D96338C9B63822183BBF52FB664A7AE57003AABCE512BF77E7E31BDA2E739AC4C131657DDFE5225E900FB56CC01CDE808FA4A9C9DA16AC679656BB64796283D89812B8F91136AE18EE5EBBAF47A73BE3C153EB5D4CD491B4BFB4FE690A4CF9ABA08C0D8AA64220C438C96EA6CA80B58FE5761E697B3A292EB9FBDA502
310
FA863E49FE694ADDFFF9D62C520BDD1A22014147A0903A05B9B729F54272EF83931FEEC057BFF8C8055C279EAC5C0011804828734024F6CFA319C9CC6867C727184465CD9BB7ED386AFFD96B294A85E3802FAE47244602D8273615952B98C4F23F7EAE4463D9D638EEE374A20959E0FE519C4CFB0FBFE5DD80C2AA3F9DB961
310
D1BDE57E67C9BB47B77FDD74EE3094F5DBBE3EBC1FBDB7393F5116263009E2EFE1AF9A221B2AE234C902BF70E9F280ED23E73908361565964333A3F01D0B006AF32FB21AA1316744B489D5A198E85299241735BE559675130955C902A8ED761FC0DBE337A9F91919AF5CE32AF902ADF9AB2615E00E8A94586BA1A90839B618
310
32FF1BFB76D2EFADE6DB1BA04CCAD3DA649E7E2A0219F592E22F2AD54847EEA8E42271011E9074F8F3DD9FBA6CDF88FFC9FC7E811AD1CA8F4557CE4AFC7BBEDCF0114A48689F20A584520C74DA8127124B767E2FB91A6B186246727BE63C9445BAE02088D58B8EFDC0F1072407CD9B89A13F6303B4A928F593AD489B58E686
310
9325790ADC406036C591729FE14021F94B7796BB11848D463536A092A26F077F94639F7CEEE2A724C66EC885F4A24F8B8A0AC321F8FD149BA529460FAA34E4663C02D41FDF80BCA222D42F0ABFF8490F4FA74C673807C2051D8E467B47B616072860069A9A303ABA9B319D58404461401B0A0F9BE5E1E151C14BC33B32ABE0
310
3DDE91708DFAEB15E7C0D593C86BB7D7EC17BE56E57975F077BFD5525F3A1A361D584A75E08CF29FC7B44B2B3085014F3A5A14517377C3F6B8F37E59514C3B12F8AACDEDDA4DFC49BE5710101534CD6FB6DE15B50F11A09472AABA727F0C49D9CB906B158030065F48EB3625E010CEC1D511D0053474B11E6A4F01C0D6EF1B
310
ED3A944FDEC70E0DDCDC756C86545910E0DAE3BE3AA9A404574C2995CD5CAF9549226BC94B4F4F0F5F9086F418F6B32346464610D8BC7391D3C3A3CCF04CFC1FB2A3A3170E369511868F14EEA4E5E438CC73DB1F3248AA94B6B2FF33B222FF3D1E7BF146CAD229770158063BCE4F5391964DF62F7E52A7BE0EEA829C9E13C4
310
C147D6F93FE59E111DAB5E4594D6F3CD1AD375EE039930EFE5AF2BB2D41C83C7DABD8C659BAFBE8FAB392CA634F3D15C1D945DB4588D2B0824A4EC928AAC565557CA2F0DAA588CA5BE30B3A8004F7BF005E96CBF891D7F18112A3619FDF530DC8AA64954258E1811789B5189B49B4EB53F5F89F7D37523894F3EB57B373763
310
C91E502F52CC99EB7BDDF933FC324C4FFC2561DFFA7339FAFDD0A4BFBE6D3A8FF9ED1FC49898139864602458968913181918F719CCF5A68B2EE9C1FF050E34E63107003B8120FA982C21B30A874E4F5E4B38D5A8290C4B8D9BE48A0BE31EA995BDC37AC6DE90BA17D259DEF53605D55922FEB1855D915B659FBEB350EE0DFB
310
2F9F766E1C84CC8964B75D08667445EAB966015F63A18A9E0A325C1B3DC628C0D3CB60F767FA93CC65F25458BD23C3B312716E5F40E5858AC06EBA9AB14F95DB99147B832069201541D09A0D856E12C629CF32683760EE855537D1901988D5EBC156676C7DD51D7207CF3267AF1D76C2AD867315E44618015313A98B19941C
310
696FED3461CAA9B5415F918556D7802EDACEFD6B2E45853A9735DFC9DBF7E440F9319F8B6805A973BCCDC76C069A9144E51F187EDCC12FC31B5DEAAF0A76137199B106EC84ADA6B6EE697D4E6A96E007417F4E880E8B1E89B4BCE9D81EF611E2ED8F0C1A6C25F620FAFAAB656A7C42D464880E8AFAB0E0FC8EA38CA9A8AEEA
310
EE3E4648BA4680270A89743CDD3E6C6CBF34B7B640EFA285ABC7EA0A1E28F3CC963D114A80123EE66D0AF7D5380EB41909B605AB4765B709B808590458157E69BA1378FEC4B48CAF6A730E3BE3C5EF2DD1A5EAF94B1DDE50CEB55DDFD7EE9A16747FA4B223359FB1FCC69E1194892BABB93A1D5C4E807AC0EA2E30180811E7
310
7A2291F6E7F7FAA5E0F60215BC6024E48DE436C511F0628B8CA189982D4D83CCA17D305A7E923C37941CFDFDCD93ACAF735EF5F0E61BBD3E6C41A59B242790D3A3BAC7064DCD89AA2E37214EC839820949D5CAA31E240D2948E48F690298974A96BA9A8432BC90F5071D6537C9666EA4564796B7AFFFA548077BEEA75F6308
310
3435074BA182F3699557397F71548383FDA8CA34D99B981E72835ECDA5DDDC151315173D05A21F651AAF8524E88209E2E7A737ED1045800CE3390050BCFB8BE588DF111617874C62575039CA588EEFDEFEFE319B739DE2EDC147092A262611E159650E787917885EF08F1F51B8F2D8A71D60B58B190FEF9541A1BE94BC19FE
310
A50784DA1419FE4B0FB51B8D36B5FF8E1286FD8AF42B91E59A5F1CC4D60174E764045FD8C57B18209B217F89A62252BD20BE0E63E12B8E8F029FE19E0E8D0870F58721A557082250D5424F7909369376E41666C0EE77CD87CB283F661D5FB6D0DA023CB67320A20DC7BE661E9E1BFE5463085C557DA1FF9BE835733766C3D1
310
39F2CF9E2208873AD0EB4814DE9E6BF2CAF81614D4D43906ED1C05A3265CABBFE192770FC2F64F940CB6B17B5F166F133C9AEEAD2641807C3E69515171DD74C4A85311513D6EC9530B3B601B6BA3EBFF3B5C3D2F7D69765141E345F75433953D013ADDF8F6AA7DC3F4A7563FE5C7D367937E2900D7EAD0F9FC9A4A1A9B5BDF
310
1FEF08532660C01C5D6DE22199AA774383E306DAB87E301ABB7D213887F9869D4942D0D71E94B27EDF216A318BD488D45DF84529EF575AF3C3938C0AAA0215B01994153E2054A0B894DA5C784980633AAD48576957CF4AEAEAFADC7C587368551C73DBE1E57C58AC713303A8BFC258BD04B51724459FF9E24C03A81E0E0679
310
CEB9B348C0DC998FEB9C6D6EFA77D247CC8F92D3848599ED89A23218D0636465AD1CEEB7DC140D7426F83491C4E8E8281C2FB35240918FFECE880CA2A42D70E8B20B34DF5221C7DB0CF90ECCB9C745B37A47E9B716FF7A97B7A252C1F3814DC7B1E1A7F72B8751D524EF7CAE45B0C73B3BE7D08ED39781B380DDFC9AA4A474
310
9C9493DB5BAD07A6EA6C092FBD0E85DB004DF06B8C9D3089C5320187E4CE1846158C7EA7DDAE8AD9AFFF21AA3A1026BB06A259845E8232DEE62811A4DA9CEAB3A4887320B76E2AE5615EAB7BDF738CBDD01F1E64064BC13D9EC53576751CA8CACD58B3CEB0E6CA585BD089B2A59B9FC101403387AADBDBE70586B93D64BF3A
310
D4453EF9C3B6A93817E8346991798601344F79A83C51F3D50F7BF2683A3605F51A72449489E0EE6169C749C60B1035651103AEE24D24E51A759C840DD3FC6504DA6FE107510E447B43461C79D22970B75DE5E1BD3007D1AFC619A4A4A69B5626AF5E9B8374E20677F77E2F8E73DF868E8BEC7EBA7B6A75EEF7205E1AB9486C
310
B642741D6E03FF13FCCEDB1C4AC129886268B01CDF4B124AF797CF784F3C6DEC97A17D4B558070A0F1C04DA4FF9BDBF34159AEFE958479824B3F58EBD1E19088A2AFDE501B6F2052368A3FD0E650A179EFAB1561E1D27527077136E652676C3670F42DCB3352F48F6BC86D2C3B0051727E41A0A4DC6CE2BE9D47F5CAA2935A
310
3C0539AF080665997194ABECD723B08129CC5B6B21D2E7D54CD4D12610E7E9FB8306771A89576C7A982002775ED44F3F744CF21EEBB27A631671D921938AAEE3EB0D19CD1E083727F607823E817BF599DCED5394E37EEBC2E88782E638920CA641EF74D4CDFCDEF06F4278ECB18E31E7E9876F2D783C8BF429C75395F57E98
310
C2B495A3DA077EB3AC3C158608B6B57FE3EA48484D9A480096FCEE0DE880950E7E5A5714131C5C41AAA29FD19AE81AC145FA1B9E85C7169A5AB837B213493DF7E9AA4B5FBF9CDEB36EBD21EF1181B7CF7366AB2A951D01E37AF4EB835D1BE8C117CFBE7625D2EBCDB0B20C5A4B45CED0BCDE3EE8DA9DA78C2E21DEAAFFD119
310
7E463C33CC6A80FB785669B856EFF7A8CCCA2841B5A5369173320B1170C368B2748D81062EA0296E5E2D95D7667A4A46D98A6FF475C76AAB0A8C8D45E226FAFC9FE0133EA9F60111F99CA81ACE03A1D14C89E8B0D69079C91464FA1D99E651D0EAF606F345C42A8A1AA9BA391031582B96D5B4176A77AADB01F12FD298A75D
310
EEBB2C82F0B8650E880722F8DDD90C56A7A058E5FDEF1AC93545BA27367C76F5D8F9690CB6F8DAE141EDD7971F0FB548A2AE435F224D6E5954CA155512F7332029D5A1230854B79F258EC5FFDB09F5F6343A8EB193229B7F7E79B3E48F8E183860B38C8269D1B53738FF1E0BACF6AADA6D4869E9DE708E79B5DADCC09B1BC7
310
6F649731CFAF59A83FD8BAE4C749D66FA87A3810D4D62FFE826FA400C0F325D2BC0F3CA35F5847B82A2ACC7961745C823E4D863D54460AF792CE6F79B5C7A33B25C3AEA6CDE15A919B6367D781E9D44F61BF828672594A3E1D9EDD6DF179A81F27EAC05B936575D73E05C209DDD2115CFB705DF9BBF3C911589B3640735E9E
310
618FC9C36A7326C82B2205E244C55D56FDB9D5DC93CE958D4BF8174D2B3DA54CB3C09F2C2A6DFF73D23B2197355761AD421EC581284A7EF8DE2CE3497C0C804D49B41DFD6A7360844E5BEFFB495CFCDB97A4595911CDBA623274CE852B5E278AF0BEB1770E9D37CD977B2766A7DED0E94B840E1E95E8C77DE5CB6354AF7871
310
427C28ADBEEF7BA0A28E19DE9ACD75F379FE373EAE6DDDAE3834692F9C2B03B4FCA8FCA9ABE8EEEBEBB725B88A7C90941E850682CA04061A7DF0CE82ED49BFAFFD42C309818FAE14755CAAE78B0F73243ECCCAD7DF58FCB9CDFAE7A4D3E6671A613639130D056C8383C8F4FCF4808C331E544DD26E4755D09EA05253B3049A
310
1E32587CC25D72E073E2CD96D04A71BBCB0038FEC3F53D254199C3CDC67CD66640269431860225392B2CB3ECD0B4498AAE78BA1994246AE1EE78F2EDFB79F6C6CB6B5E279C4D373FBC21CB2698C9ACBBEB6A4BB6B39E16AB0E421CCBFC7654D81ED86022F9BB522146F9F4772E2D0E4FA70120C95A85A417BF5078B232F475
310
4363EB1750B2AC2148EB46B1EA72AD9B4D23ADCBC589D70106C3EC2ABEEED84DFE28E718C6C83502C28E9FDD3B09DA0A6F6F7B72B706A31C9E2A331EE70DA56A083D2177BFD63C55B11D8D949FAFCF90B23A1E24B9B5018B9A17E99F2890EC302F330FE7936E2C23F0D237EC8916F5166AB84B62A21BB0B950146962D754F9
310
2CC2C8877BED8FC7B7B25726DD19545392570B3A2C66B58F027BEF412E552D12A588C4A3CC5C3193FCB3485EFFF700D0B9EEC077754A33DC1FB9E25AF814628F91DDFECB667D3F7690803F38D13F8AE39353523BB08FC6760144AFA2CE28236F65EDBB3D5F59A57D612B99E3D7E5F8A851666BF9B5A6658EFC96EEB37A378A
310
BB0EB3FDDF1303AF32C41BD1C8560745D7BD81066B0D6313359CF488563D3BA3F8E2185D1FAA3EBA1397C9D0E3DD232180A4DCADB6AF25DB3AC3CC26589C8239E66E81547BC7E2F328F9884764CA37EB5DBE390DFC03A5246B456A7C3684C4377D0EEF9A350680FA9A077E8B2957B489E09AB1AD41316944C2254B5984830F
310
691C93CAA767EECF976FA5647538830B5E63236A6F0365C1E0F3E327F24FE35EDDBD7360B0F7374837409F7A6311BECC12B7026D4FA1AE204FA3F5FE904B1F420C7A9044AE58E403E7C4848E7DA25DC9EDAC79DD756FAA26B9EA83ACE8A214A2612A22AFA19DAE7DBAC5F8CDE1292A485F98DAC731A29FE01A3966E96BCB9F
310
B5A4C8830E1B9AF0C54B87FBE221A097036E5D28D1F869F810C06A9BB0AC0612F69AEBAF893C6E7AD59460208BAB3A6B09CA4F6BDDAB8CF0D1F84B72487498395A70DCD754796E271099A567A55CF242BBED64696378BB6CF25EF0FCDB589F3A82F1116D010A9AB9FA4358809EE0C973A2B4229BAA876A70B03AB49CBA7FBE
310
71DB1832FFD32F9BF2C8E98075CACAFB36921235D0F552B6A67E94E094097A5D7DF681B40623DA535ADA7A9AD8E9A62407D7C9A5AE51D62A17A83A23728DE86BB56115804D3F2675F2C6B87541A0FC497BF0CA86420F558C9859EBE9FAD62747E323E3AADC03FDCDDFE7407B09DA90B44E3185723C5381EAEF589765E2F7A0
310
99BA46695BAD60CEF3491B8A171F5F56444F7CE9455312C3498C74173AEA0214EC029833B34B650CBB5A5508D5091665309642791708ECF27CF11DB3D797D6CFE474453BD4BFADB768094B2147814D81C7CBAF8228DCAF5564B5891F5EF6A860EB2E323CB82AB868D8EA048880D63B0DE5341F1B3D53297B928A11E15F25E5
310
148990F710747C3509ED14909C552EBE3973246FCE55D00564D8310BC3EBC5085D08D806799B77D6C57FDF5E55837F9E934F09C03C729271B64F12D0A9F9E938107CAF7BF1EC8CF1BB9B42363D33070F4CACB425E605DDB0A34A12BB936DE286B9887A4E2E558F0886498BFF49C311D96C277CF6A9FC0D75AD0ECC5226D7E0
310
E3572012E56D7FDE4410CEC7A6D0F997F225A2055B8B92E3956E875AE4993CB3D4C9063AF98FD45E1BAB165640A43439A2C9181A7C355B297C0A0CCFFAE19B6FA3C2BA238A885FBC98B8F6DAF4B94B97304878DF4D8BFF6A4AEDF79E90ED4E68F00CD7299F4E0D83E35601AF0CBEF18C1E870E74758FA91F5131075004DB3C
310
FCF09AE1DABC11957FD9808C92E8A678CE9DBE40DDA0E0D1D505AAFBCBA208232BFB6FB3704E8985E61ADE53DE74152F5C7DE74B1DEDCD37DC3E8FB30D7EBA8B9EFFC3606BF90B8D438279CB7709FC7C00D327F41817EEA71CD9E49FE9C8C9A81C70915D9F0F15958EC5AA4C3BBFAF46986B90F188BDB24B89DE3C6F29EC3E
310
6F66D84856EE96A35E657CA41B41EFD8DBFA16AD6E91439EA92B40B21C053249F51AE50EB0B24C770FFAF40DF12C8436366819C48E36547D4E7B72FE2BBF10828583057814A668BDF183F6B2E58DFB151103E56303E63D00F39C27C4661605DB644D19175D02E3F0241E8FC3458D17AAAADB117CE9EEA690D0DB01E634878C
310
04C2C9310B69FCAB831151E3AD293BEF6E46B0ABCECB50F5939B39C613D41E81FAE8D34CAE3C4566B761D37185FE864AC32FCB71AEF39DAA5BAB88609BB980CD2F07A8F941653B529567726E2B2A58D079DD57E1E5E31426CF184A04D7B03B985F276D47406AF276FE32E3328BA866EB1FD39BEF57863A317634AA5FE46740
310
9B3873F5069EF0D71AF00AD189D17BA1974ECDB2D623E9E14086386A6AAB5807825C37B015BFE892AFD154920EC437EB945D958E18622E1E0FE2FA06557CE4BB9BBD05A2D40E774DA2B65473791E314B7D6C886820B2FCFE4AA272B3B8B15E7344A145E8AF919B5454D89D36D413E87211186BF6F645E5EC94DCCE8E1C7990
310
22E4EC9BC86D7A0F2AFB1FC4B2CE48F84B3F49ECE65BAD24CADCC07EFF39AB06BE9E6B27A059938EA7208838455383DDBCFCD967DDE4650EF92A14FF933C975DB20BD7FEEBC4487576485963D757D16340D9599FEB362F775F38CA4185A86F74B629C81B133644A3B18FD056E997E0734F9BE26D11C0AAFC669E2AC9FC41D2
310
81F8B2E1C35AE27BCE05F3DA295488096688719D974DF1B5D182DB7792288697F8763CFB43562C1CDEE11C4AABD5C22B6E33F6F389CFC3477C5919DC0D533F8A7A1846B7ADB60ABDC26C43D0CFC8910B7C15EE22675BD02702ED39DB77A87A192CA7A543E6205B979B9F5A6B512A3CA799E198B2D5797C0AF8D1D872CA455D
310
4D431A7879D4DD76110B5FF7F4176B54477A9EB5E4A5D11214FDA585F0382751D8E2582BA5D2075053298FEB8F1537304E32CB22C2E2B693DC0A760B1DFCA751BDC445AFDCBB12820ED85F6D5298933C7EF1211E9E057684056CDA3FEF3BB6052355E162DF27C59E965A8DDB7F9437EB72CDDA3A090DE65A5B2F50326247B7
310
EC67B73ACC7047FC9B353D6EE990F772207C6EC52B39DC2F3C0754821DAB559F7C1809C7D0DD5B0499D0442E0A6E391B3D5DB46D11E731E6794EC77523FBDAA242ED67F9FA1FB684255671F63C9BCFE6E7E896D51001A6113EF2298BA494E0B0980D1FA5B9D60796554C02256B1E0345FB7C6186B6A19D2DCA270416262845
310
FA4F42DB5D9B0A0B6F07FCA2E56C242522E001E0CEB734AF310FC8BFB57E38E03AACE93B3326A2197891E68452B26A6307FDABFEE0223D3C03C3C73D2D5BC054C8311F12004CAE488E5C29287F8156A2CAA4AD0D7BE6B97264E4139F437CE73ADF52E5134C52B819777C18B323A5924E4F67AFD13B1CDC3A61793A79FAF5C0
310
CEB718E441071E797C6DCCB9EFCF7E4A1E9F3DF3C2F9C9E8294E9586868788C972857FB0556D7A26941A7EEB9B580AD78EC40B85DC906B4120A563CA3B87797ED612D3B035962BB75F6515A393F4CB057F564CDF54F2E5A024514E6A1F901DB80C7E70B1FC05E356A7E72FABF4775B3E3FB8F70A2A8E7B6A94542BB3041579
310
78CCC999E707A29CC795E67A59CC546A5D47B368954CA7B6E75EC9E1F6FC73CE3B4F71F8CB1A6B15923D61EAAEB14626AAA9D04A26EB9C66CD1BE86CA31A5D8703DE04CD1EBCE4F5CCB62F93909AD11E55799A781A956ED27D3E738F4538CB04ADABC7DAEF20BC35BA6A90BCC1DC61BA05F20D8832FFB9BC9B15E2DB838A0A
310
FBB7E0C82A562127E0446894F427794C3037186F622BF24DE1B00AA10A23BFA47B2A180D6DA5AD6F7326FEB8C100C2D7142EB2A0B2A9D1008A09BA343D70E054AB69E2A7EDB783CBD92537FAF4A44D1296AC2792729104B3276C276C951D0CF3CF3F1E6B017720A7B8505A5FF9589365979678C36F1BAF759EAF57C60F1FF5
310
FE9DCF5F8E764FF25A2D06CF25117A8FED51884C13B2B750DB0E4F5E3D64124FCF11F0AD8F1CC3B3DA4B38ED22BF1CB2585EE6BFEBBA63FBFD44F9537B9B37BDD6B358720F98A8125AED4349CCFEB0E135F19E208A04CA7E2B10711185D72E381F448036EF57C9F874E54A971CA37A639E986AC0226DC5AA00D5B14FEA9192
310
234B3DE617814FC221C92F33F1D392F297731B567FD98FD91D989379AF567A65B8ADF177591DB90FBEA99BF4ED11B16E50A0AB1DBF1156D034BBE04D69D08F939D8E92BF525A1DDAFF80ECBC95D8F45D3FDD289FD23F7D8B452F8EBB34EC082DEEE68E18EDDF072060FAD2AB1504DD4879BF67099FC58F6E9DEFBF645D1633
310
4A3E9A127C6F1AF6132CF287E433B43A0EE93812B4AA0B194E03EE3FF91EF9C6ED0074A2F6EB18A96A7C9890B1FCDA1F2095E944DB911ED54C60DF16FB74C8CE9BDC7C54C4F14078CF73C2FFF1F1BBCCD7CF64F71407EA1683DBC410D226627F66E509060D5C0AFD611DE681D509DB8DD12FB1265B03C6F5C55FF4C30BD941
310
87FF692B4F152982502F193098A789526A038AB529A52BC0DC4FB6285CBAC10A8B8DB75DCD9BDABBB221E27D1F8DA9F5EE5926A1C8AA9BA9BC09239C6A7F12914EA3B59EFF7AAEC3FFCCE56F1C5C2980AD072793527565E774F4631DB178CEEC691B1F367BEA0CF2907E1D6B854D527065979DDEF002D8B2ACEA7CE21AE297
310
737EDE1D45B31233B73FEA35BCFDD0B09721FDBAF6432681F2FD10C3E9EFB246FD6E854B344ACC9D8A0EEF876A7314B49B6A499FC650B099D650DBFEC7638ADFD245E2B7839DA5AC5F7D5623FC0ECEEC8653FC9B2BDD1AD4D00A566FBA7186DD3C9CD26512551637498CADB950FEC71ADB9A5524285DE328B8EC7EC75D2345
310
AEC6A27C42AF6D9B92155315C80DBFCABBB7DA0FAE425C4FB896B15C9BFAC4FE67DF5A23D30C93DA4D8F36FB15D100050DA6062E22AEC5F4DAC4F6FEEF97AE05DE63C6D38F9E068A20BC5E3B6BCD75320C5090924E7F93640A7735B1A43451C2D91EE62C6238B797349E59890AF3A520DF4A87095F3ABEC2E61F0593416CE4
310
6CDCBE0E00E2523FCCD04408588B5B6C9DB6459C786CE378770B54F51DA3A5E1DF2A3349BEAAC234A6CF8993B598B3B25B4B113E353A4D750FA7534749430F3EBF2512E7EA3FD43C6AB9A1F765A58463B306721A15D224FAFE8C6F5E3432D57EE697DA0DD5A9D4866A8BCCAAA9DFF1F06047851408FEC060471D0E3EB86BFA
310
F46E4B5E60311DC3E3CEA147C75CF971BE74689507154FF2D2E92F15CDB2B9182B11459FD8ACAC5A85F174BC94A7F4EE4C4F5CAFA7C02E37BF0BC77B7DCD0C047BC316F562A01A441AFA7931CC84A28CB9F4AA367EB515778F29BFE61195FA671F4352E5E46E3A64773F1F76EE5EB36D7BCE9BCEAD837A4D77F8DB8C92AEEF
310
6711920D7C7D0F76B0FD0EB7AB83724CD35BCA7D36DDDF5FBB7FF6F04A91F3E2BB3B8F1A43CD659639507FF6331C5F697BCC782AE57D757A27D97F1AB9E0AEDB43F92F1B2AACDF5FEC8ADBAF9F814E2027003BA2F9E144B1938A7A04050AE5D953B82C45619165C813A10E76DD6906B3C16438064D14CDA713AEC420034613
310
E1AC7241904A49FBF87409AFB1FCB9B72FE7933A87D8FBEDACECE4EDCF6A4FE9FB94D5DEB74FAB7CFEAE17EE965DF980DCCA2D04134994F9A2E94D2265DA4FE6AA7B7AC15FACAC2B5ABBCD7DFF542C5314FDAB2E1B9D8B65220B8E2B638BE008E8DCA22678C820C5053664D15E89F2D735B51A84955E81A443545E9FF787BE
310
0FA700A76D136C27DA179A7C6E8939E01BE756E19CB292798063D8B97F44E8A27BCF3A614FEB8BE974A718E86F7EC99B53CA35FA24F61F2B07266684623A3D4CF073E511F3A10A8FDAFAF0078C577F4DF9D339FE7862E5FA47CF4344209E5BF76D783B1B48E152AD281B15FCB934DCDA49CEC5706B1EE8B460F435324A5CAD
310
154725E21AB8044B75A557A79F6C807B9340AA3D92503E866F4274412926C8C504E4D5EF8C0E68DD0B028781A6B4054F11CF18941F101C57CCC796773ABC8DED9CD91FE5788806C05E548895354AEAC96546D55B0E94A59F148D061F42AA398D822CDECA4CDE79E13469BDCC44FDC990F366BA5978C15F97ED80CBFD73B0CD
310
9B8B83A4F6845BDFBFAF034019473FB9A63BD55D3A4A7284757071574029A4D016DCCBE95DD679EF3C4880BF169422F8C89B68A988D2B13793CAED4F74DE7486C72DC94DF46B8E93D8E02EFCB1FF9B3BA10C8AE7F653DF94F4AF466CDDCEF5776687F7C4C14B63E4EED1719DC2EC482D7DBCC7AE518CDE3D5FF86D39000EC3
310
673C0044E1D308BF05F74D1B5F033A7D1BE7F74BC55BBE3E4A20F920946CA0271EB17BD2B80E5660ACB8A29A79F5E4BBA49D4D945B6EEF4A7EFEAA65E5555BBB57A7E15D2F83C69F30BBB978D2B39F1F26FC097424D39BB33CA3D87ABF64E307938B685BAD44F71556A30B7E712CA4FE600613C3E554B69ADE949A7CFE214D
310
F1FFF05CB82151EC6FC31950239F94CF7AD39DC473F6EA356E5EC2C4EFA04383CEFE985A127484366FBEE3C0EC4FEA363E4F6632AE781392FD45D67B63FB8DF70E82734F431FD3443172A0E30A83D60982D55FA6A2CF86DBA8382502ACC6CDEF3B907982EED1160E14863FA242F9757347E1544275CCDCF71ECD5F8621CBEA
310
326B8BA884AD7F825781923E66971F04010D574C541D8427A438A37EEF8AF88240EED7362C953F5A81DE2D56109CDE2524EA0F5D2F87308C0C47BD97AD605878AB8589E17CA83930CB5E0DCCD75853D68B1AB136594926DE426C367428E9334AFAFF90ECE221BB5DC9E5BB53D2CDEF954EAA9CD814F0E5725F1965DD458E5F
310
8487683AD86B9D0076BE3EE91EB1CECC5331A67A3F79D8B27587C12EC2A6A70474749F27B4C0BBAFB94B34189E88DC18964BE4121B9137FD516C7755356E50D6714E31ACD222621EBBCD1CFF81D87479056A9DA0E0B8EA19D24CF937DA89F78E8650CCBDC110AAB6C4E46DCBFD0446BA9E2060E81F314AC2031E88135E5476
310
AC0160EF5C0DD2EEF1B8B5CB2D198BE9A554A9093B5F7D7E4B5407DDFCA1D9C152FD97F55BFFFDFE802954DFEC8995B983E28AC92F1971E28F531DC407A1280EB125F64A72E617EFB27DFBCEDCDA2D6F2BDADA36873EE46B9BE1782998C63DA7182BC383FB6FD15DA472B175D7E8B4FC88F38D6E07FEAA3FA3CBB8F6B449EC
310
F14D2175E5C5CCA3A42ABF24CA6C9395AF74535F4DDB38CB84F56614B0FD32D7E19CA5CF988DB4449C40E23DF2B16772594554579094450F56F253CD25EA7F77366FB1CFE79696C428BB64D5A41E986189427E5E4D7E2DAE3D5BB4972B3DC44EAABDDDD63A2264ECFA5C786EB0EE1FDC5BE34FA0F08376869FD1E61EA06CAE
310
15191135445EE8F0394161C3266A596AA035572BB0C8876180D8B9C77D307DF9DCDF7365ABDA6F3A2366436457A4DFC1F259666569A9E4A79C817BDD5610E5200FCE894A358EC72858D50EF67545DA81C6FACE3D457BAF70367E1E6BDD9A952FB4F56247F58F523B97E640246051A72F79BE42FFA0B3187F63097F91C48B86
310
8586F714B0EBD5A00A8412C1236E1298F60C72BE6C96B82B404CADAA304AE9F303176B14BA53FBC2D5E86377E35542019E24D97B96A49B2C0E5006E7795954DEAF5DA58958839043C6C70BD3B1B33B6DC5C31316D8A6923F142E26F6711A2258AF977DDF1F970ECC4F1F2B434B96D81BEB6E89BF3BBB3C7C8CC80505070723
310
D6D7D7D3C8CA27CA164A26024FED94B12A86031867241DA53D929636DA600F050BC40CE48B8BA03D69224720DEE2ED2127390BDF5E6EA64527BBD4C4C63FA76BB801FEEC0E61218EC98A8A86CD8313781617877E66692839B9468CF4DB8E50A73986E558E309C0D6F676F921BE02F1185454DC75B111572FF9D27D85EA14C0
310
5AD7271225B391C4275659CA4A43759D0BA44639BE4C30A84DB7F67A41399FB95CBF923B1B1672ABC807C1590557FB18D811983FA97F5E609516D62281D38B1281F68FC75528C35E4CD7DF0F7DBB5E5DD69C414EBEA2F4A5B241B996BA77AE6C772E367408C633EA3E438B68563EA8BE7667F3A4C4FDEEA52ABD78A2820F44
310
3B7914A15F180018D231E64519C56A12F6CA7C8DAE18F06F6B769DBF92329EF6A5D18FBCE600F36BD8E8198DE5CDAA96181F3A756EBA5501CEE58F497EA4F418A2B82565B9BCC611713C0B708CCA1F398B78C5F7D03B3437CC18F13061F55C7BEDADD5ACB1DB0E36D3CE47FF6EA1A563A57E9649EA5D14D1A50EAA45746338
310
1C073777EF1600607BAF6428A7DDC079D47A204EF1E1F1F0589FB054D45E02CE623B3823C317C601E589E22B1E88B448524B86A82828E32345EC18AE17214B42F8C41C6D428016D9BA31DDCB47572561E5A402E5BA4FCE55F78AF7268524AA04130F3A20BA5D1E9F9948EA48FC8F5314FDB35E21898198060034ACE5E3E2BB
310
CA34092518F275190AF65F45867FF0900AA4B81F25427414C372BF51DC29AA855C5428EE1EEDD6B849AD60F6E73475C2D2523F8A2772C840A478DED18A8C5C91B085F255DC4F54EA7AA8947354FD17ECF8FB3B4A0DE7B483CAF3A1165EE05BBA413E5C1FEF3DE1D6B8F2F3F3251C17D9FCAB48A9AAF63AC773A0E413BBC46A
310
9ADF84A566FC920E4D8C52C9769EE3301CADEEEDD92B312E02E2A7E35B7F1E7D203FE5A7D75578B06E99D0E46FFADB8FDA17ED8880390DA29094202D6F645F76F6F96409CDA05495A96E84B04A00D1A6C6C81D7F3DE9376E828CCF144EE50E364ACCE7237EA0BFB5607ED1AC3CFE73794E5B61739D14DF1743441B1AC98F00
310
ECEDE9E7301FA29755FBEFA68C91EF2B314CF510537EF1ABFC9A762496280B546F5EDAAF8A5B387D469FC9A878A92828C88608453ACEC6094DCA54111E7AD5B2663DFE2DD151B7F123B9F4FEF8EE36AB125FD7AD52A59B1B765B3E3F73E3F73DEA93875004D2AFFE3CDE9493B87A9904DD052028949041A91DC0E1BA47BA71
310
4343FD5B25E0A6A09503AFC17C790058A836A324FE31D7893512E28230332F153181C1E018E1124EBE1BA262AA428A518237D1EA7275E48C5C561BD19ED6912EDD8367DA0F31E40EEAE9683DA9257525AEA7B632B97119E17145A90231768A4F3B9120FF32E8319B015E3CBE26F1A754177D8185345817C096B0CE443A955D
310
13AC15E1FB5DEEA0239EC32A3C92241A237B0B02FFCB4F93CF2B02570C8D192E2F2A68CEEB42F12E6F8CEEFF46C251E22B4341C56FB08CCE550E7A9D6F4D6564B9EA52A83D5BF2C6E03FA19D2775E15A8A7ACF30A13C259EE7F5EF2AC3BA354F1500E1A07FC63FB4686E2F12EC69719F9ECF5FE3F35598DF2CE944008CE78F
310
0911BA5BE5D0A34E0098FF038669C26030BA9B300303039852A8F6F496341737CA7E0D2E3AAA36DE0A70AA7D9CA0D54D9AD84B18A44C9E625475E1C97B93BEBB38DCE7D227E67A2D00F531436136355F243D1FC0D712C5765754FA22FCFFAE97919161F46D6E61ACB37D83777B385889770B50765B127768443A5C4D3A4E35
310
A3151111F146B7CA116F918A049F1C272F2CD7976C69A0068773451659A97E0F4A08FE604C3FF6CE7385DB19F4D3ABC8A0D80DA8A42096AC377DB49382B36E270B6FA7570188B4B7D1DDDDA82ACA487CCA5D38BD3BD039ADBAFA4ACFF27809239B722081E2EB9F145320553D183F28471C388BC8814E5045676767AB58A8E7
310
2D1CED2CA731379515D2E533E4CF0B39DFC625F97AC4836831A4DE330E87A8126FA17EBE583D614E71E22A8DBF2825599743E0640037303E8E1B1E8EA4E1ABFA4F62907B5E4E0E5DCFDAB417C36C6848A2B8D15F1E505434C0707E16B1CFC2A1C36A42BBF55734F8F4301DDC2A5110CEE8C0747F69519265012A2174BF4E95
310
5ECD4FDE095A3ABC70536B7AD0B9D7892F81287D667C108703C9B66A221E9A0929D030008F77FF6F5D2108EF5706FC87A3069B976F7C9FC3239D13D283CDEA83597461079FEEE049B0F392889898B7D87D31F8D60ED7B56B91823A8E4EDDB36C6172ECEE42BD42B12CD67994FA0F0DFAE9389356F4CD4425A4B8AA55CBF7EC
310
D585C6A2C2316791E43D5C06841ADBB226A87FD61515FFBB0167B74E56BD7F3E90A57A97FEDCBDF483A0D6699A8C0849CAEB4947FAA90D8E332D9DEBD9F4738C37DA0CAF9CF3DAA68BCB67C420459C7A64498D6E848E5CADE92BB6901F607AA331104A67F7CD650EE169B1DAE94D2C31C2F993632259B6957E246EFE4C5481
310
107B07118607700040E5812A2A2A38DA0076875258C753F60E0F2662C748EDD5F3F3686B8FC3BD6FE631ECCAA1E8B1C1E565AD117E54893E79F4672E32F9E46B2A183DFDCF3EECB4D4D077DBEA0DA254D256045109670050129E9B9B1A9E4A11344D61497A992778095151510C4BB7EF2009B63AA4360635312E4CF668B7E0
310
D3D85A8688E2BD83B569439892ADB63461930D428E0DE42E4AC57CE48DA5CC1449530D8BD3D6A0F08DF20C8E8F570F2CFFFCEA286E30969B4654D498A58D9DA782E19FE3F002181838925592C4A1EF0B332D88B61A92C644547BED490D3A42CFFAB70E36D961F694F6307F72FF15A1C79D5B1B5CEFD353D9E2B52566DEC8F8
310
F09CB3E8359C0F68EBBB7898243E34E12A015B2685AB303C04D3A9E00671FF3DFF0A184E4A2ABEB2B666AF5B3A209C73D8EF29DCDB069C9F391EEE9DD0F74C7BCDE16F8F02E3B8816122BBEB50665775B600549D8BB33A54A6BF940C028118BC6878C79958D6784F9DEAA6E26748386FFAF8D0D0101E2847B6563F5D8DC1D7
310
8F787BE00E2C941AE12148D4A81599FE8F68D4DA5CDED75530ADE138240300EE13B0FC13A1687FED6774662C05A2B7DFB186732F0D7A93545D8B0A6390AE5054D9CB582DA846D7A061B3358B45E2B52DDE63E114397EDB7E09233A579155D795BE76102CF277F4DF8B188C4F2879BEAE3C08347124BF9ED23B128259FE107D
310
31E34A652F090B30B39E0D9AF917B76A2806135621A8A60681F16AF216514BBD02711585B5B1AE823F4B2D0369EA5B6BCB863072727FFC871CA6C9AB79A814D989057E9470A3D238BC87CBB4A0EA49AFE2B86F22E499793CAA9047080450166BDC357524561E258C77CB697F1ABB32562CF87C3B7AA12F911EF19FB3E5C022
310
22E887D08202A60A17151F5E053A86B437771088B4FEE14D652C43E8D939995D34545E12E2FF93D4E366EAD25F10CB7DED141563C3D0C447AF06078A91135FD4B9611583CB4BF3BD167F2399CEAB0E0100F8FFC305F00F1711717173138B4B48C83022295DE657EFEDD97F238ECA80F528AFB4F8D67AD4E2594B9A3AA86D74
310
87EFC313BA95745C186F0CDD84CC12DC9CB0424B42203D351FD9C0A3AF10CC7F388E0329279087386421F194F4A29464C1DEF7EF8BE515E4A199DCD5B909342598D8FE6A231F71336248D5CEC5454455C7BE383B3BC7B260FED27F703FDC39A170F3827239102F59D4DEE7FEF82EAA1A5E4BA94DCC4CC44E7E2EDE20F24244
310
E4454369D2E87C3F823F193FD4FD27E1C23984B01898D15ABC20711A8A558054951A6AE280096BA36CBA439603B7B0B4C45F248C14B2383B4B5CD8ECECE4FF859AD4A6CA2326D020EF090F4041D28DB66E5256B56232CC52829DE8060BAE6BBF37D4B7469B822454FE93210A3E8D15E69FFCF01123222611C51C4FD0A041A0
310
CFA2471CF6BE38D2B20FA4C3525B5B8B586759475CF80ADFE67A284AC24651E52B8E683D24C2622642F27E7C3C22783BCF63648BC398BD6CD0D9C97E7E7E3EACB6126DB7A6C1FD9F1031302EE67ED96F22B77C7CA0239BB324207559B105E4693EB26EC46182A92C9C0DBD24F29B31C5C5AC1F84300E0E17CEEAC15F5736FA
310
4A98971E2F1423BFCD68D4BBD5F86E74B40A369F39507C88FCDB35D2DD8DEBEA4AF999E23CF2816D204200DF6E611781B9884C1AC8888B4DE397320472959434323A5A36B22A8E1F721A270DF3BD65E4A31C11FF048AFB0D8B7B6881423793963A23CFCE935FC189ED36FAE35C46DA3574C979E4394BE52084F3081837BE03
310
3396D2EBD80F1F691B273F660D2B32FA27A33B1DE4ADA5F0FA4651511102DFA410DDA86E065272CA314D5249DF91B06BB92807B28EFD54F08F7B525252782CD276DD02E6B0319B13DF87B1F6361AD6B28FC0D711CF445429B9E5A433CD493051C49A9E03DDB1B147D880253514A5DED88009018620EE229101C041950E2D8A
310
A8E1F5F5438E0C0C0C60EEDEE9E3E0C051948C69F84BB7B2A48A1F3C8EB9E6864687F4F4F6F6E2FA87608ADAF9C5E117B7C1A737E710769DA1D15ECE6A84502AA855398712D5FB51BE92E4EF824969CE18278798AC303C2C7980DD2500ADF8FB1E6D6C2FAAFF9987178923334A244758BAA01A9A1B70FA5097D01E1CC2A58D
310
AD0EC94CE6430AA9B0C10D75E3C6BAC670EFBADEE1607739CE0FC18A2587E3EC3058562014C64219C69BC269082D5C2F4A659278D585755912176D78A1B641719C2A394CED495A1AC5D583FD2F5EDD93308EA7EAE8A6DD396598BDBD3D4CFED62D18A5BDFDE0DD5C80D1A89BA62697B131AE7CE9A6594138582F1B37D68F17
310
49AC7CB67A70695D48A4A056AC1FBD4E82358CEAE38F54B95A9016F9000F9879C0D9D131768635CA798895F27D6F1614F11F2838A83611AA51C9A3DDB539D42979C29F10465655C17BEC3E2760B80DCBF609198C7B171A531905F3EC218D696025975E986C6B4C666666787271F202805577DD5A3EF0CAFAF91B62DC4B2DB4
310
217A7606282F31D8DDBC290593BAA93EA6353AFA9939B877978481E15CFC9F2755CDC00C538F63A4BA3E80AE009B73CA0185687D339A507D165B74290D6EE46D5C58148F020C3668ABE9EF2F7549170DC80DB41FFC1D678FF19AEB10C7133832B104B80F691B3138F97A92D26E551F1F110400D45AC71A9B9AC41A1A1B1DAE
310
ED0B0810638EFFB511D46B121C6FEA0F38CD00E03CFFEB9713FE1F9C263E4DDEC160D0497FA9A132BA608584057FB15380825DE6C7FC3C667EE947D488A09898D8E939C4953BF4EC9836344D2CC6B2971B2A21A572B06096F4982D2CC7232D46E8EA69DC83722E267754D777F97F96D5DA74E1E75178084D0E70F12AD33E5F
310
71EF2AFA599B2BEBF60A5BE475F444F240CBFE8143C334E7ED9150FEEFEF7EB020C4DBED388DD1D6A167A76F3CBF119B578AE8CFA7736ACAFA4440A1C47185638A0D2F3EB5BDDEFDA958FB13CE4AA4923D5BF840392D45544329525749734866684BF7F8D9D54D892E19BCA9F829A0F8BFCBEEA6CFDFC61D74EA1A645ED7A1
310
FF241739F15694BD835B66FEC5677E40FE69BD3F91AE402F036537218A401CB0828604AD189E575015C6F3F6BBC8AC79CF6C70653847254B31551EFCBEB5978B9DB85D58D0FA41A9DFE9C624834AA04949D24B5AE6D299E072D152D12097920F14AA92C31C3B97E28B6C2E6E9C23D63043ECBBC0A60FDF5BD0C33C127EA8A3
310
308B8B6AFFEB28B4455BF6E7AF4FC6222728357EB8E46E85053E6A8843AB23295BF838ABDA94658FEF3F832F147046B4ACD6F7D48E8FCC9618582961C898D1C7A253C91BFECBDA6BA18A1FCF70755DCCEE2222F41B76D23CA98D0CB3D95F0CF66D57FFF65E2A90F5DF40FC3187621E981BD0BC1D992787212688976B94A8F0
310
C6EF646624B570B78E068826F87CE27041A95C9A4871FF65CC17FCB1639629AD6A9517000D63AC231F3D741CB8430777E7ECF80CE7A3F73C0F162F7E56AA71F4DA80A33CD6ACEE78E2C11FAC03DAFCE929B106F8F6B3ED2DC71FF994BD9CEF4E9A94896EF1B6E2B7B4978168BCF0847A3D2A4F1B0500B926E634B174548E9F
310
BAD27153FB5FC36799B1E6C7C38A94E1F9E996796D7B485E635D5287A2AE76FBD11A341DB3F8F810385BB7296391973DC6C37C452A9305AEBBE0CDB6C566DB59FE60C8E94B1FD090354BF51439FFD1B48D725228FFA88C84F686F547107A7A235665A4593B7C34D748C1AC8D56DD5DA861EEFBADDECBBD65117E65851F9035
310
1AEB65F0EFCFF4BCFEF24CB7A5879699FAC437A7AF9099186CF006BB923A59E37D7A36A29FD8D2CBB914A5E9D0A8FD212FBF796AE9A67958FF1D5D8B85F78F96219D4714EB919929241B6C018AAE0C02069F8D919961EC5DDFBFB7573E3AC8E08BFB7C8534BE6DE045B3CD63DBD71F7638BA2309CAE398EA3A7D8F98BBBC7A
310
EB367EFA5CFA27A9F8F2F52FE878058E6209C026453F8E7E8A237DFC389E9590F6059B397CFD65183BBF936E86896612A5B5FEE49DAC8455D026218AFEBEC12B3523A45B57B82C9C97E02ACFA1184DB18E48CF615DBF39C3CC6F0B4AE6BBEEA2E39D944E290302FA3DE33FA7E40296E2EF7BF1CD855BBECFAD0FD622BEE974
310
6FC4FDFDE545AE6E3BC234CADF83A0FB76DFB145BF3828AE3436368AC24989454F8FF70A177672C711CAA1A76107218CF948CA01F873520E7A2B118EBB161ABAD432932029628B6761590C98AB590C8C8C79798CE9F715BA696E839E9131A4BB68BE923F1747FBFF165331FFDD4D05997ACD168F12CA75348DAC04C7F509FE
310
83898A8B421181AF492861CE81E4A2DD0A30850CFA95E05F097FF70F9E777310D584A75BA7018922E271DAB1D785671157685B7D383D3E074DDB4F1E44EF04B07BAAC75A062077C54B9752C738C9D804D402E02851F3F89605AF189738C18C021D2139EAF72513824E10DDD3047BACC8521ED7E98B257D1166903B1B08FA6F
310
918FD7E162913FEC7D0EF4787E29C35FBA8C6E2C9C20E9AB30AE42CA2A01A090E7D010C1B5BF9CEE2A304BF3A987FB40D836979B79E18D70F257DA61E808472DD85B82761825779D6B90CAEB0F23360C6F80A7D7D77545E95B3DFF0CF96A827F9B5BCECD2C9698718417EF80FEEDEE938AFF55859D0D540B7FE09435583A6F
310
04874A0C7E8CF234DF4879722000167F5872CEC6BF3EF7E5A8CC8121E6A359227C8A29C95212F9F735BC72A887D56B8F309FC525BFB4FD767AAEC4AEFF249CFBBD2DE1AB9969A6155C7D8DABC307E47324C1F916C7BCFF40ABA5644E9FFB9238D19ADADA49D9610F01ABBA57E4DFCBDCCBB2B93C8953206C91DE01B0E2651A
310
6D6C31721915B31F7B7CBCE55466F6D70402788FA91D73BE4ADCBA99A35F17D6B83383704917D6833F0FA3CD45C926ADB8BC17999A4A0AFBCE2541F7B8CF4C2F5FBA611B3E626D64407CB32C122DFF4EF8674D6EDBB86C8F7C6A16D50FA685E2CCA34F8F7D1D8265BB0042E9D7F1F666F7BE5FAA5184DF58E12122A42EF02F
310
461B3F369AC746F96528AD208512AB56844CF75B97F352DF7995024FB02855385854F3798670D01CAC771AC3E1889EC25F61A20C1F8CAB46898817F9C47E2CDA1F286BF2F358298709FE567C91133E2638C8B53975E753EA8BFD3578B5F7186B7BF084EBA3F77BAC3132A5779902EC22AF2D2E79F42D324E083386DAEE9810
310
D1B44A5DAA54513C7A71E52A4AB9257D975B621308FE4D2141CC3DCFE946C154A3C1DFCCA7629EC69ACFA831634ADDA93C0388D2A9A2DDAFCF957C6995BCE7FBB6DC4EBAE79E63EB08E9A25F52F67076F7093CA545CA3053B5BF576DEAD4E0017143C5F759F32B2D6F145B52B67B48909B7C7FCA6586EE385A2189C16932CB
310
6DDFD9152AE317C430492A578ED27B72D85D40C7C93C097939E1B50F4D67F05334FE9DC362C30B7FF561B95259138ECFD9274C8D695C31B14D4EAA9F3D7FA8DDF652F8C5DEFA23284C799B7D94416DEE81E05A866302DC70192A5368EA65E1CED8BF107A1E2D3119A71E85DC1A7B0C1E93274CE04DD0F2ABC8AC7C987FDB00
310
2B6F81757B43502EF7A0D92E416494FAEEA4C9C090CD9557AA4D532F4996A272B94355C5A0E4974EEA9627476F30809B94D8D8D860062E02204643BEC7D0438AF800FC7E2B26955D595421E83C69E1A07E0E3122285835F014AD538188CF9737CE76D464A353FA55A001AB2526B84E985083693BC76FE211CA1D000679C889
310
E3C009832C87E1AC2EDD05C302557422DF0800E316FCAC86978A371F025A6C7DAA9F333E7BD160403A1A06EA75AA9888FF01504B0304140006080800DB50955751464CB48900000043010000360000006662782F31394132453342302D344231422D343137372D394139352D4241373232463031413743392F646972656374
310
6F72792E786D6C9D8F310EC2300C45AF127987122606C71DD918B841D4B851A43646695A717C52A85029031293A5A76FBF6FACEF7DA7264E43906840EF0FA03836E242F406C6DCEE4EA06AC22492573150D1F66C60C640E8938CB705396EEDD86DE9B5042FE27813D640EA63BB001C722AF6E55CB61E4863F58284D5D3F53D
310
D715CE1C3985E63FD7F1B7EBDD617E9F1E504B0304140006080800DB50955751D6A7F949070000541C0000340000006662782F31394132453342302D344231422D343137372D394139352D4241373232463031413743392F6F626A656374732E786D6CDD59596FDB3810FE2B82F665F741A78FD885E3C2475C1845DAA24617
310
FB26D032ED70431DA0A4C4D95FBF438A944545B6951EC0621DC056286A38F3CD3D9ABC3F46D478C22C23497C6B7AB66B1A380E931D890FB76691EFAD9169BC9F1A139624796D9F69C428C2B7265F36A793034B8A542EEDF01E15B4B9BA9AFF6564218EB169841465D9AD99850F3842362AF26487B3477B8772641FF647DBB3
310
CB8D3AD90343E943E3A814311CE7C02AACC7404572E0E9FF8248CE74E2F00DDAB65EB76DFE856D8E105C6794C4598EE2F015578DE3FC335C358EEB79FDE59D3F185B837EBF67F587BE67CD57F3A5E5DDF4DCC570B118CFEEC6A6319D6C9384560A4871BC032DBE98536FE2F03B95F8128536BEC3248E7128D16CDBB0C3922E
310
C15913130D584F88565348296B6DA1D751F833DB3A81A2B1A4A1AD8453BF75EB4DB67F030859172B6519E6569EE50C742DB12FFDC19D38E5AAA617921911CA3123881A946C1962A020D85A2A4823C3BD8593323866428B8A5E9D5730ECEBBED4C6E5BEA094FBAF39159E16803FE23C139C917F303B715F3F0D7802690B12E7
310
23296CFE920289F1C4118BE5BD9E2F6F96401A7B8A0E602D2026DFD4F31B782D782C582FCDE9C7D5F6B8E1F1A1FDF09425296639B73CE1CCD2EF94066BA605C6D7019412575D772754BE02F49F00F98A1763029A63E4D83FF695EC0CC5D93E611168C7700DCB852FD7E097AFAE264EF5F0D430B458790E5370DB9F84A92686
310
76760DD2E9E4098C3E613D29DC2644146CFA9EC4DCCFC1500C9AC012C4FBFDF6684ED7104C61119E4214A487BF89C32F0DF829E940BC6968A82DFC7650947298A69F9D74F5016C8691B0529526E3397C073F05DFD972F37153B03D0AF1BD74EC25DE9398E4904CDB19D240D75CFEDBFA93F0C80F34D9227A7A5ADB14C23187
310
84C78D16B56CA45A0CA117E084A7E1523362E59E80B7538A629C14995C6F8B53614213166C5F82D2855BCFFA53D94079983480D65806C93D6424E5989853A9AD2A10DA3541C1C21093167828B51A6C8B280D509414310FB5AF4DB1C907C4196E894055505386ADBC5691DD91FDBEC82078B5925C68404A7F56844B0BEF431C
310
6BE397E13D4390449338209083C1595A4FD00EA8C0BBCC7386E93E20941651B02714F24810A1F40CFD8E12D433D7237E794ED8AE95A06E59CA27950D71C025B00A2495ADCA982F75CAF013E165A6C8672A1B683B641D6A4EFB67D205CF142D802A631466BE9A8DBCE56AE45BABE1CD9DD51FF97750312DC6963B9ADDF5C65E
310
CF1BCE001E6925028153B4AAE73B50252F7334FFCB1F8A681B2342E106A78076E9BBF7227BDE3A101A1D6F3CF3EF7A73D7EACFBDB9D5F76E6EACF16C3CB0E6B31BDF5FB9DEEC66317618CE92828538737CC70D9449A6F1E11C57552CE5590BE4876F09299435D7939DD2575398FF710C6DE6044D89FFD5205AC5AE9682B06B
310
10E58F3643280A1F798A0A42A8FA5ADDA711449B7CB4C5B937C665D7EEB9E2E37963DF1DFBA3F160D031EC89937E38D2B5C91042E759E44192A290E4ED29B5814C4796DF945DEC9E3728B151DFBE6F005E9D572BA62E6726C954402274C0C11EF1BEA225945E93B835EB1D68926524C699E80B5FD58B0D9AAE0DE5979EA55B
310
CC9664418473F43D162B1A8D86174034A70174B0399F215CAD232A17903DCB398ABC5F86542FE47F093214A5B4EC8DAF61E0F90A02D515B55928679A1FF104F619A03C7077588C3AAE51AFD8571545ABD69AD4C7DF4DFE0C3CAA12FA85F0A823BA175BF6C01BF3CF08C2D070E0F58637952AAEA1A50ECB79EF470BE856C397
310
E01993C343A7E2B49B566A655E5988E73882D617E505EBE4B1438826CAB694403232345CA276D21B0B4AD1F3A9AE0F0E134DDFB992B8760CD4AE2486D95827415E49D16AC44217620EC8C75D6FF06C85CD55AA3F1C317F79955D77BF088AC32E3840855D8660197FB43ABCB552D76AA8EC19E52184D28DF8B5E6E0113BBC3B
310
35731AB9B6B25ED5B4D72AEE350FA9114C79118FB4F7FC827E45A06AE8B833E74359E839E5FA9AA7361B06DA273E34A6755A9F3F6C1A5460A5F3D35F3846F8B94141AE2E78077D81D4B7F5694ED0A02025FAB6BEF0F87FA20B510AAC75233041CE124A60908F77C6012790BF6154D1A1436111CE445E3E7536EA2D4287A79F
310
CA396C8EB654F545E10382613695FD5B11C2201572E6AD29D78DDF6074CAA79762A0653F42EB26639869148CDC9A60B139810ECDDEC2084C0C1C05F5C688131C1BC5079EF1CBA7AAFF4F8FBDEAD8AA3D5D70919269CE04A5702ADE2D40DD57DE984EBE5F74C58E8172B8DC167925CC69E1248D0441BD4428858349E1A384F7
310
0825C565B93C5BECD19AD84ED3FC8B765052B572C40E62245FB3C9D9F28BC3A7E9EBCF464A8B0357E7A58E59A364F14E9D16E5E46A028621C54C11AF2217EF9C2F2C81D75291B1226004C6EFC7D1F00F6791445112974BCE4CBEDC32360FF0AA6AE7A83121B4FEAE3772C4E440BE0A08B628C336DA658FB000AA6584CF534B
310
883503A8A269CD009446B82EE0316DFF7A69C8EAA83655A9875D0E8F780F608023F1F73FDC6DEA1B6A434BF005E04ADC3C5DA88589C360703EFD17504B0304140006080800DB5095572EF6D668E1000000550100003C0000006662782F31394132453342302D344231422D343137372D394139352D42413732324630314137
310
43392F7265736F75726365732F322F636E782E786D6C4D90DD6A032110855F65117AB9AE1A524A70CD4BE4AA37C1EA642B5167F1A7B46F1F4D2DF46A86733E8633479EBF839FBE20658771259C32324134685DDC5652CB6D7E23D359C98458FE61648A3AC04ABA4C94DC12D67D48166EBAFAAE7A17EF4364D70D222467AE7B
310
DCC864BCCE7925D97C42D054D78216F29D5A5D34E53441C69A0CB413C50518274C025DC012259838CC5CCC825F383BB1D7D3F1F82E974E2AF981E807EF628184FB8B6006DB1A5B2226970E2859931B547FA3197FF1688B2797662B994B6A1D0CACFCEC0D73416FB03C915F57C9A53FD9C6B381367B21EA01504B0304140006
310
080800DB509557FF15A4A45D000000800000003A0000006662782F31394132453342302D344231422D343137372D394139352D4241373232463031413743392F7265736F75726365732F636E782E786D6C4D8B3B0E80201005AF42B6F75B59F0390B113044D83508C6E30BC6C26AF226F3B8BA6360974DA7271430F523308B
310
2B198F9B80925DB700539227A2FCCB80A18E5640D320F996A81C9F32D6E9129A0D1EF74FCE750E6D57BC7165FBCA07504B0304140006080800DB509557C1B0BF314201000056050000300000006662782F31394132453342302D344231422D343137372D394139352D4241373232463031413743392F636E782E786D6CCD94
310
CF4A033110C65F650978DCEC1FA948C9A6E0C127F020DEB2D9E91A9B4D966422F6ED4D6ADA2A52F450686F61F20B7CDFCC9761AB8F4917EFE0BCB2A6230DAD490146DA4199B12301D7E53D29569C396BF11B460A2326E8482A13CE4667C39C4B03AC45D0A9AA95D9E4A24074AA0F089E14520BEF3BE2E52B4C828A807600BF
310
A18340411BEAC0DBE024C4F7A826C8EFA503813010DED6ED6DD9B465DB3C35F5B2BE5B2E162FAC4A2467BDB53AF3CA20383BDFB4B5B4F168A29C9A5509E02C3895A9E481F0A336DA2BC3AA78CF998F7ACD9839DCCE899B67ADA4C0D8A8CA4A042C23046262D517CC59951CFFF0FDF8F07CD4104F837220D1BAEDC5DAD09C6A
310
C3411A8D89F85F1776E05FE66DFF162D5F6EEE270D676167B3BB4FAE8FD1FD9D84982761467D8D1FE020EDFCF98F8B0595BC46D37B6567F25CED56601C7CDA88FC13504B0304140006080800DB5095576F52EAF77D000000A30000000B0000006662782F636E782E786D6C4D8CD10AC22018465F45FE7B4B6D61823A34EA3D
310
467343723A6C468F9FC62EBAFAE0F09D23FBCF12D0DBE5974F51013D10402E3ED2E8E3ACA06C13BE00EAB5CC296D7F374071589C828641CB39A7B2EE6874D35042A3C1C7E70EA930EC76B20477965ADC51CEB130E28CADE18CDD0935FC2AAA716C4A9D5FAF6ECBEB2F504B0304140006080800DB509557A6D797065F000000
310
8200000007000000636E782E786D6C4DCB3B0E80201045D1AD90E9FD7516806B51190811670C8A61F982B1B0BAC9C97B72CA7B1037C6D3332918DA1E04D2CAC69353902EDB8C20262D23F3F59B81A079470595414B17391D1F19B4730A5583A7ED43BBE4025D9592775E5ADFFA01504B0304140006080800DB509557ECFD11
310
2DA800000026010000130000005B436F6E74656E745F54797065735D2E786D6C7D4F4B0EC22010BD0A61DF525D18634ABB506FE00510A79458060253536F2FD89D5197F3FED3F68B9BD80362B21E25DFD40D6780DADF2C1AC9671AAA3D677DD75E9E0112CB5A4C928F44E12044D22338956A1F003333F8E814E5331A1194BE
310
2B0362DB343BA13D122055543278D79E6050F344ECBC6478EDCD76CE8EABAE5449AE4298AC56946789C28AAFBEABC53F3EAF09A84A1441B91F0101CD4780756578C173A578FFDDBD00504B0304140006080800DB5095573DEE336E64000000790000001B0000006175746F6465736B2D64657369676E2D7061636B6167652E
310
786D6C35CBC10E83200C00D05F21DCA56CA76D41FC96062B120735B69A7DBE268BB7777961F8D5AF396893C2ADB70FE7ADA196782C2DF776D7A97B5933C430F15651E5469C55D70F80A4992A3ADC954792C525AE70A1E4D6AD9816CC044FEFDF01FE3FDE907802504B0304140006080800DB5095576F494BD2F40000008E01
310
00003D0000006662782F31394132453342302D344231422D343137372D394139352D4241373232463031413743392F7265736F75726365732F322F636F72652E786D6C8550CB6E833010FC15E4BB011B4C20328E4824BEA0A7DE2CDBA156828DFCA8FAF9B50395DA534FBB9A9D99DD1D7AF95A9FC5A7725E5B330254D6A050
310
4658A9CD328218EEB007C58551676DF8450385E1AB1A418601A38BB3713B20614D5026A3C64A7580DC7B1540219EA91981171F6AE5258F2131FCA3DCB878F04595A8DC798CC6A8E521D532B9E9BB560EB0E14486EBAD99E1746B5BD87678863DE9AE904C7DD74CE434F778A05516331AF4FAB35D38C5839280E11A37106188
310
D11BAACF757726E49D5699C9A80F2EFD7C2CCDDF253AAD76F48F5BDCE4FF6E519BD0E0C36D5778C0503AEE3560B4CAE9A4F28A2ED59C24FB06504B0304140006080800DB509557A00AE061F9000000960100003B0000006662782F31394132453342302D344231422D343137372D394139352D424137323246303141374339
310
2F7265736F75726365732F636F72652E786D6C8550496EC3300CFC8AC1BBBCC84B9C4056E004F00B7AEA4D901957482C195A8A3EBF52E202EDA92712C3992139ECFCB53EB24FB44E193D40959790A19666567A1920F81BE9213B73668DF1BF689069B1E2000906CE166BC2B643D2688F3AA1DACCB883C239F490C9476C0670
310
F20357918BE023C3DDF34DC8BB5830AFF2178FB310D4BC4BD51CDDD44DA1057E3CB4C7CBB59EC8786D1AD27474227DDB5D483BF65D3DB687A9A747562431675EAD3FDBA545E171064E4B5A938A125ABD55E5A9EC4E6DFBCE8AC4E4CC791B7FDE97A6EF805B742658898E15AFE91FD7B0CDFFBB06A57D4D77D797C201AFE291
310
CF0167454A29966784B1A644F937504B0304140006080800DB509557446D16ABF1000000B1010000310000006662782F31394132453342302D344231422D343137372D394139352D4241373232463031413743392F636F72652E786D6C8D50CB6EC32010FC156BEFD880E3BA8E30915DB55FD0536F08888B1283C5A3EAE717
310
12576A6F392D9A9D6166879DBED76BF5A57D30CE8E406A0C95B6D229639711523CA367A84E9C79E7E21F1A5456AC7A840203678B7769DB21E96CD4B6A0D629BD8322041DA192D7FC1821C84FBD8A5AA49819E1526F425EC4A26B52DF799C45B3FE4AA5D7226A059C62DA22421125EF041FF1D3B1EB3E5853989CA564D46E65
310
54763767A33D70324CF4B59D313ACC644607D2F76898860ECD534FE91B2653FF32B0A688390BD1E79BF74FCA758FCAEFC27F99D3A61EC86C6C6CE96E785784EC99F3DC169C35A5C03C6EEDE659CAE63F504B0304140006080800DB5095574583B3B354010000DD0200000C0000006662782F636F72652E786D6C8D52C96EC3
310
2014FC158B3B5EF09245982889942FE8A93782898B628385C1CAE717BCC8F5A1696509A379EFCDBC19814FAFB60906AE7BA1640992300601974C5542D625B0E601F7203811AC95323FDA402069CB4BE0614070AD95ED66882969B8F4A854159F41DAF7DC808035EE52829E7DF19686D41AD7D13FC38EB227AD799884531FC1
310
D68A6A1E159563130FC13520875D7EB85CD31B3C5FB30C6605BAC17D5E5C607EDE17E939DFDDF6E880233F4CB011EDA2CE34A7865780A018A5304110251F497C8C8B639E7FE2C87712DC1BED3CCFA2DE1D208FFB0B4713BEE1B35DF5379F15D2A468E69B267A4012B7DE582038F2F9B8DF18DE364327ECF233F4DE2C169E0E
310
1A38334A67AE5229BB9606DA58EEA8E360FC7034551DF348F01B0F7AC3F39EC3054565ED56A3C65DEFD678F5ED4E1DD77030AF402ADDD2665D6E5A713D57A18DA5659CA946E9FF4C2F56973023FF30C937504B0304140006080800DB509557F03586F508010000B201000008000000636F72652E786D6C8D50CB6EC32010FC
310
15B477FCC08F3811267222F90B7AEA8D1AE2A0D860018EDABF2FC4AED4DE7A5A3433BB330C3D7FCE137A4AEB94D12DE4490648EAC108A5C716567FC30DA033A3D618FF4B0648F359B610616074B4665D766830DA4B1D516D84DC41EE9CF48086293C5A70C35DCE3CE1AB0F0AF748163E3CF828933CD9748C7A35FFAC0E5672
310
2F0530929102E70493FC2DCF4E597DAAAA779A4625A3EBAAC46EA544705737252DB0E3A13A5EAE458FBB6B59E2B2263D6EAAFA82ABAEA98BAE3AF40D39D2342E33EABC0D7FDE8F849C1E39FE8CBE34DD28463F8C997641082590D1D317B08CA691F8137A5DC43F422BED0BB21FDC361CB03C047A11C1383618C6ABDE3063DB
310
EC1B504B01021400140006080800DB5095570000000000000000000000003700000000000000000000000000000000006662782F31394132453342302D344231422D343137372D394139352D4241373232463031413743392F617474726962757465732E62696E504B01021400140006080800DB5095570000000000000000
310
000000003500000000000000000000000000550000006662782F31394132453342302D344231422D343137372D394139352D4241373232463031413743392F76657274696365732E62696E504B01021400140006080800DB509557F270F13306000000040000003600000000000000000000000000A80000006662782F3139
310
4132453342302D344231422D343137372D394139352D4241373232463031413743392F747269616E676C65732E62696E504B01021400140006080800DB50955788E57597CD3F0000904100004200000000000000000000000000020100006662782F31394132453342302D344231422D343137372D394139352D4241373232
310
463031413743392F7265736F75726365732F322F305F67656E657269632E706E67504B01021400140006080800DB50955751464CB4890000004301000036000000000000000000000000002F4100006662782F31394132453342302D344231422D343137372D394139352D4241373232463031413743392F6469726563746F
310
72792E786D6C504B01021400140006080800DB50955751D6A7F949070000541C000034000000000000000000000000000C4200006662782F31394132453342302D344231422D343137372D394139352D4241373232463031413743392F6F626A656374732E786D6C504B01021400140006080800DB5095572EF6D668E10000
310
00550100003C00000000000000000000000000A74900006662782F31394132453342302D344231422D343137372D394139352D4241373232463031413743392F7265736F75726365732F322F636E782E786D6C504B01021400140006080800DB509557FF15A4A45D000000800000003A00000000000000000000000000E24A
310
00006662782F31394132453342302D344231422D343137372D394139352D4241373232463031413743392F7265736F75726365732F636E782E786D6C504B01021400140006080800DB509557C1B0BF3142010000560500003000000000000000000000000000974B00006662782F31394132453342302D344231422D343137
310
372D394139352D4241373232463031413743392F636E782E786D6C504B01021400140006080800DB5095576F52EAF77D000000A30000000B00000000000000000000000000274D00006662782F636E782E786D6C504B01021400140006080800DB509557A6D797065F000000820000000700000000000000000000000000CD
310
4D0000636E782E786D6C504B01021400140006080800DB509557ECFD112DA8000000260100001300000000000000000000000000514E00005B436F6E74656E745F54797065735D2E786D6C504B01021400140006080800DB5095573DEE336E64000000790000001B000000000000000000000000002A4F00006175746F6465
310
736B2D64657369676E2D7061636B6167652E786D6C504B01021400140006080800DB5095576F494BD2F40000008E0100003D00000000000000000000000000C74F00006662782F31394132453342302D344231422D343137372D394139352D4241373232463031413743392F7265736F75726365732F322F636F72652E786D
310
6C504B01021400140006080800DB509557A00AE061F9000000960100003B00000000000000000000000000165100006662782F31394132453342302D344231422D343137372D394139352D4241373232463031413743392F7265736F75726365732F636F72652E786D6C504B01021400140006080800DB509557446D16ABF1
310
000000B10100003100000000000000000000000000685200006662782F31394132453342302D344231422D343137372D394139352D4241373232463031413743392F636F72652E786D6C504B01021400140006080800DB5095574583B3B354010000DD0200000C00000000000000000000000000A85300006662782F636F72
310
652E786D6C504B01021400140006080800DB509557F03586F508010000B2010000080000000000000000000000000026550000636F72652E786D6C504B050600000000120012002D060000545600000000
  0
XRECORD
  5
F26
102
{ACAD_REACTORS
330
F25
102
}
330
F25
100
AcDbXrecord
280
     1
102
DISPLAYNAME
  1
Imperial24
102
FLAGS
 90
        0
  0
CELLSTYLEMAP
  5
F23
102
{ACAD_REACTORS
330
418
102
}
330
418
100
AcDbCellStyleMap
 90
        3
300
CELLSTYLE
  1
TABLEFORMAT_BEGIN
 90
        5
170
     1
 91
        0
 92
    32768
 62
   257
 93
        1
300
CONTENTFORMAT
  1
CONTENTFORMAT_BEGIN
 90
        0
 91
        0
 92
      512
 93
        0
300

 40
0.0
140
1.0
 94
        5
 62
     0
340
55
144
0.25
309
CONTENTFORMAT_END
171
     1
301
MARGIN
  1
CELLMARGIN_BEGIN
 40
0.06
 40
0.06
 40
0.06
 40
0.06
 40
0.18
 40
0.18
309
CELLMARGIN_END
 94
        6
 95
        1
302
GRIDFORMAT
  1
GRIDFORMAT_BEGIN
 90
        0
 91
        1
 62
     0
 92
       -2
340
0
 93
        0
 40
0.045
309
GRIDFORMAT_END
 95
        2
302
GRIDFORMAT
  1
GRIDFORMAT_BEGIN
 90
        0
 91
        1
 62
     0
 92
       -2
340
0
 93
        0
 40
0.045
309
GRIDFORMAT_END
 95
        4
302
GRIDFORMAT
  1
GRIDFORMAT_BEGIN
 90
        0
 91
        1
 62
     0
 92
       -2
340
0
 93
        0
 40
0.045
309
GRIDFORMAT_END
 95
        8
302
GRIDFORMAT
  1
GRIDFORMAT_BEGIN
 90
        0
 91
        1
 62
     0
 92
       -2
340
0
 93
        0
 40
0.045
309
GRIDFORMAT_END
 95
       16
302
GRIDFORMAT
  1
GRIDFORMAT_BEGIN
 90
        0
 91
        1
 62
     0
 92
       -2
340
0
 93
        0
 40
0.045
309
GRIDFORMAT_END
 95
       32
302
GRIDFORMAT
  1
GRIDFORMAT_BEGIN
 90
        0
 91
        1
 62
     0
 92
       -2
340
0
 93
        0
 40
0.045
309
GRIDFORMAT_END
309
TABLEFORMAT_END
  1
CELLSTYLE_BEGIN
 90
        1
 91
        1
300
_TITLE
309
CELLSTYLE_END
300
CELLSTYLE
  1
TABLEFORMAT_BEGIN
 90
        5
170
     1
 91
        0
 92
        0
 62
   257
 93
        1
300
CONTENTFORMAT
  1
CONTENTFORMAT_BEGIN
 90
        0
 91
        0
 92
      512
 93
        0
300

 40
0.0
140
1.0
 94
        5
 62
     0
340
55
144
0.18
309
CONTENTFORMAT_END
171
     1
301
MARGIN
  1
CELLMARGIN_BEGIN
 40
0.06
 40
0.06
 40
0.06
 40
0.06
 40
0.18
 40
0.18
309
CELLMARGIN_END
 94
        6
 95
        1
302
GRIDFORMAT
  1
GRIDFORMAT_BEGIN
 90
        0
 91
        1
 62
     0
 92
       -2
340
0
 93
        0
 40
0.045
309
GRIDFORMAT_END
 95
        2
302
GRIDFORMAT
  1
GRIDFORMAT_BEGIN
 90
        0
 91
        1
 62
     0
 92
       -2
340
0
 93
        0
 40
0.045
309
GRIDFORMAT_END
 95
        4
302
GRIDFORMAT
  1
GRIDFORMAT_BEGIN
 90
        0
 91
        1
 62
     0
 92
       -2
340
0
 93
        0
 40
0.045
309
GRIDFORMAT_END
 95
        8
302
GRIDFORMAT
  1
GRIDFORMAT_BEGIN
 90
        0
 91
        1
 62
     0
 92
       -2
340
0
 93
        0
 40
0.045
309
GRIDFORMAT_END
 95
       16
302
GRIDFORMAT
  1
GRIDFORMAT_BEGIN
 90
        0
 91
        1
 62
     0
 92
       -2
340
0
 93
        0
 40
0.045
309
GRIDFORMAT_END
 95
       32
302
GRIDFORMAT
  1
GRIDFORMAT_BEGIN
 90
        0
 91
        1
 62
     0
 92
       -2
340
0
 93
        0
 40
0.045
309
GRIDFORMAT_END
309
TABLEFORMAT_END
  1
CELLSTYLE_BEGIN
 90
        2
 91
        1
300
_HEADER
309
CELLSTYLE_END
300
CELLSTYLE
  1
TABLEFORMAT_BEGIN
 90
        5
170
     1
 91
        0
 92
        0
 62
   257
 93
        1
300
CONTENTFORMAT
  1
CONTENTFORMAT_BEGIN
 90
        0
 91
        0
 92
      512
 93
        0
300

 40
0.0
140
1.0
 94
        2
 62
     0
340
55
144
0.18
309
CONTENTFORMAT_END
171
     1
301
MARGIN
  1
CELLMARGIN_BEGIN
 40
0.06
 40
0.06
 40
0.06
 40
0.06
 40
0.18
 40
0.18
309
CELLMARGIN_END
 94
        6
 95
        1
302
GRIDFORMAT
  1
GRIDFORMAT_BEGIN
 90
        0
 91
        1
 62
     0
 92
       -2
340
0
 93
        0
 40
0.045
309
GRIDFORMAT_END
 95
        2
302
GRIDFORMAT
  1
GRIDFORMAT_BEGIN
 90
        0
 91
        1
 62
     0
 92
       -2
340
0
 93
        0
 40
0.045
309
GRIDFORMAT_END
 95
        4
302
GRIDFORMAT
  1
GRIDFORMAT_BEGIN
 90
        0
 91
        1
 62
     0
 92
       -2
340
0
 93
        0
 40
0.045
309
GRIDFORMAT_END
 95
        8
302
GRIDFORMAT
  1
GRIDFORMAT_BEGIN
 90
        0
 91
        1
 62
     0
 92
       -2
340
0
 93
        0
 40
0.045
309
GRIDFORMAT_END
 95
       16
302
GRIDFORMAT
  1
GRIDFORMAT_BEGIN
 90
        0
 91
        1
 62
     0
 92
       -2
340
0
 93
        0
 40
0.045
309
GRIDFORMAT_END
 95
       32
302
GRIDFORMAT
  1
GRIDFORMAT_BEGIN
 90
        0
 91
        1
 62
     0
 92
       -2
340
0
 93
        0
 40
0.045
309
GRIDFORMAT_END
309
TABLEFORMAT_END
  1
CELLSTYLE_BEGIN
 90
        3
 91
        2
300
_DATA
309
CELLSTYLE_END
  0
ENDSEC
  0
EOF
