  0
SECTION
  2
HEADER
  9
$ACADVER
  1
AC1027
  9
$ACADMAINTVER
 70
   125
  9
$DWGCODEPAGE
  3
ANSI_932
  9
$LASTSAVEDBY
  1
BJ12826
  9
$REQUIREDVERSIONS
160
                 0
  9
$INSBASE
 10
0.0
 20
0.0
 30
0.0
  9
$EXTMIN
 10
-1314.756451857929
 20
-707.6398252470589
 30
-0.0000000000000058
  9
$EXTMAX
 10
1138.062102537913
 20
2272.349037142387
 30
0.0000000000000104
  9
$LIMMIN
 10
0.0
 20
0.0
  9
$LIMMAX
 10
12.0
 20
9.0
  9
$ORTHOMODE
 70
     1
  9
$REGENMODE
 70
     1
  9
$FILLMODE
 70
     1
  9
$QTEXTMODE
 70
     0
  9
$MIRRTEXT
 70
     0
  9
$LTSCALE
 40
1.0
  9
$ATTMODE
 70
     1
  9
$TEXTSIZE
 40
2.799999952316284
  9
$TRACEWID
 40
0.05
  9
$TEXTSTYLE
  7
STANDARD1
  9
$CLAYER
  8
OUTLINE
  9
$CELTYPE
  6
CONTINUOUS
  9
$CECOLOR
 62
   256
  9
$CELTSCALE
 40
1.0
  9
$DISPSILH
 70
     0
  9
$DIMSCALE
 40
1.0
  9
$DIMASZ
 40
10.0
  9
$DIMEXO
 40
10.0
  9
$DIMDLI
 40
8.0
  9
$DIMRND
 40
0.0
  9
$DIMDLE
 40
0.0
  9
$DIMEXE
 40
12.5
  9
$DIMTP
 40
0.0
  9
$DIMTM
 40
0.0
  9
$DIMTXT
 40
30.0
  9
$DIMCEN
 40
2.5
  9
$DIMTSZ
 40
0.0
  9
$DIMTOL
 70
     0
  9
$DIMLIM
 70
     0
  9
$DIMTIH
 70
     0
  9
$DIMTOH
 70
     0
  9
$DIMSE1
 70
     0
  9
$DIMSE2
 70
     0
  9
$DIMTAD
 70
     3
  9
$DIMZIN
 70
    12
  9
$DIMBLK
  1

  9
$DIMASO
 70
     1
  9
$DIMSHO
 70
     1
  9
$DIMPOST
  1

  9
$DIMAPOST
  1

  9
$DIMALT
 70
     0
  9
$DIMALTD
 70
     4
  9
$DIMALTF
 40
25.4
  9
$DIMLFAC
 40
1.0
  9
$DIMTOFL
 70
     1
  9
$DIMTVP
 40
0.0
  9
$DIMTIX
 70
     0
  9
$DIMSOXD
 70
     0
  9
$DIMSAH
 70
     1
  9
$DIMBLK1
  1
ORIGIN
  9
$DIMBLK2
  1
ORIGIN
  9
$DIMSTYLE
  2
STANDARD
  9
$DIMCLRD
 70
     0
  9
$DIMCLRE
 70
     0
  9
$DIMCLRT
 70
     0
  9
$DIMTFAC
 40
0.7142857313156129
  9
$DIMGAP
 40
10.0
  9
$DIMJUST
 70
     0
  9
$DIMSD1
 70
     0
  9
$DIMSD2
 70
     0
  9
$DIMTOLJ
 70
     1
  9
$DIMTZIN
 70
     0
  9
$DIMALTZ
 70
     0
  9
$DIMALTTZ
 70
     0
  9
$DIMUPT
 70
     0
  9
$DIMDEC
 70
     4
  9
$DIMTDEC
 70
     4
  9
$DIMALTU
 70
     2
  9
$DIMALTTD
 70
     4
  9
$DIMTXSTY
  7
STANDARD
  9
$DIMAUNIT
 70
     0
  9
$DIMADEC
 70
     3
  9
$DIMALTRND
 40
0.0
  9
$DIMAZIN
 70
     0
  9
$DIMDSEP
 70
    46
  9
$DIMATFIT
 70
     3
  9
$DIMFRAC
 70
     0
  9
$DIMLDRBLK
  1
ORIGIN
  9
$DIMLUNIT
 70
     2
  9
$DIMLWD
 70
    -2
  9
$DIMLWE
 70
    -2
  9
$DIMTMOVE
 70
     0
  9
$DIMFXL
 40
1.0
  9
$DIMFXLON
 70
     0
  9
$DIMJOGANG
 40
0.7853981633974483
  9
$DIMTFILL
 70
     0
  9
$DIMTFILLCLR
 70
     0
  9
$DIMARCSYM
 70
     0
  9
$DIMLTYPE
  6

  9
$DIMLTEX1
  6

  9
$DIMLTEX2
  6

  9
$DIMTXTDIRECTION
 70
     0
  9
$LUNITS
 70
     2
  9
$LUPREC
 70
     3
  9
$SKETCHINC
 40
0.1
  9
$FILLETRAD
 40
0.0
  9
$AUNITS
 70
     0
  9
$AUPREC
 70
     0
  9
$MENU
  1
.
  9
$ELEVATION
 40
0.0
  9
$PELEVATION
 40
0.0
  9
$THICKNESS
 40
0.0
  9
$LIMCHECK
 70
     0
  9
$CHAMFERA
 40
0.0
  9
$CHAMFERB
 40
0.0
  9
$CHAMFERC
 40
0.0
  9
$CHAMFERD
 40
0.0
  9
$SKPOLY
 70
     0
  9
$TDCREATE
 40
2457947.678344907
  9
$TDUCREATE
 40
2457947.303356470
  9
$TDUPDATE
 40
2460300.488738426
  9
$TDUUPDATE
 40
2460300.113738426
  9
$TDINDWG
 40
0.4042002199
  9
$TDUSRTIMER
 40
0.4042002199
  9
$USRTIMER
 70
     1
  9
$ANGBASE
 50
0.0
  9
$ANGDIR
 70
     0
  9
$PDMODE
 70
     0
  9
$PDSIZE
 40
0.0
  9
$PLINEWID
 40
0.0
  9
$SPLFRAME
 70
     0
  9
$SPLINETYPE
 70
     6
  9
$SPLINESEGS
 70
     8
  9
$HANDSEED
  5
135F
  9
$SURFTAB1
 70
     6
  9
$SURFTAB2
 70
     6
  9
$SURFTYPE
 70
     6
  9
$SURFU
 70
     6
  9
$SURFV
 70
     6
  9
$UCSBASE
  2

  9
$UCSNAME
  2

  9
$UCSORG
 10
0.0
 20
0.0
 30
0.0
  9
$UCSXDIR
 10
1.0
 20
0.0
 30
0.0
  9
$UCSYDIR
 10
0.0
 20
1.0
 30
0.0
  9
$UCSORTHOREF
  2

  9
$UCSORTHOVIEW
 70
     0
  9
$UCSORGTOP
 10
0.0
 20
0.0
 30
0.0
  9
$UCSORGBOTTOM
 10
0.0
 20
0.0
 30
0.0
  9
$UCSORGLEFT
 10
0.0
 20
0.0
 30
0.0
  9
$UCSORGRIGHT
 10
0.0
 20
0.0
 30
0.0
  9
$UCSORGFRONT
 10
0.0
 20
0.0
 30
0.0
  9
$UCSORGBACK
 10
0.0
 20
0.0
 30
0.0
  9
$PUCSBASE
  2

  9
$PUCSNAME
  2

  9
$PUCSORG
 10
0.0
 20
0.0
 30
0.0
  9
$PUCSXDIR
 10
1.0
 20
0.0
 30
0.0
  9
$PUCSYDIR
 10
0.0
 20
1.0
 30
0.0
  9
$PUCSORTHOREF
  2

  9
$PUCSORTHOVIEW
 70
     0
  9
$PUCSORGTOP
 10
0.0
 20
0.0
 30
0.0
  9
$PUCSORGBOTTOM
 10
0.0
 20
0.0
 30
0.0
  9
$PUCSORGLEFT
 10
0.0
 20
0.0
 30
0.0
  9
$PUCSORGRIGHT
 10
0.0
 20
0.0
 30
0.0
  9
$PUCSORGFRONT
 10
0.0
 20
0.0
 30
0.0
  9
$PUCSORGBACK
 10
0.0
 20
0.0
 30
0.0
  9
$USERI1
 70
     0
  9
$USERI2
 70
     0
  9
$USERI3
 70
     0
  9
$USERI4
 70
     0
  9
$USERI5
 70
     0
  9
$USERR1
 40
0.0
  9
$USERR2
 40
0.0
  9
$USERR3
 40
0.0
  9
$USERR4
 40
0.0
  9
$USERR5
 40
0.0
  9
$WORLDVIEW
 70
     1
  9
$SHADEDGE
 70
     3
  9
$SHADEDIF
 70
    70
  9
$TILEMODE
 70
     1
  9
$MAXACTVP
 70
    64
  9
$PINSBASE
 10
0.0
 20
0.0
 30
0.0
  9
$PLIMCHECK
 70
     0
  9
$PEXTMIN
 10
1.000000000000000E+20
 20
1.000000000000000E+20
 30
1.000000000000000E+20
  9
$PEXTMAX
 10
-1.000000000000000E+20
 20
-1.000000000000000E+20
 30
-1.000000000000000E+20
  9
$PLIMMIN
 10
0.0
 20
0.0
  9
$PLIMMAX
 10
12.0
 20
9.0
  9
$UNITMODE
 70
     0
  9
$VISRETAIN
 70
     1
  9
$PLINEGEN
 70
     0
  9
$PSLTSCALE
 70
     1
  9
$TREEDEPTH
 70
  3020
  9
$CMLSTYLE
  2
Standard
  9
$CMLJUST
 70
     0
  9
$CMLSCALE
 40
1.0
  9
$PROXYGRAPHICS
 70
     1
  9
$MEASUREMENT
 70
     0
  9
$CELWEIGHT
370
    -1
  9
$ENDCAPS
280
     0
  9
$JOINSTYLE
280
     0
  9
$LWDISPLAY
290
     0
  9
$INSUNITS
 70
     0
  9
$HYPERLINKBASE
  1

  9
$STYLESHEET
  1
MONOCHROME.CTB
  9
$XEDIT
290
     1
  9
$CEPSNTYPE
380
     0
  9
$PSTYLEMODE
290
     1
  9
$FINGERPRINTGUID
  2
{0BCA5E7E-40D6-6F45-8559-759611E7A105}
  9
$VERSIONGUID
  2
{EF9056BB-CBA7-554D-902C-F258E9F03F4F}
  9
$EXTNAMES
290
     1
  9
$PSVPSCALE
 40
0.0
  9
$OLESTARTUP
290
     0
  9
$SORTENTS
280
   127
  9
$INDEXCTL
280
     0
  9
$HIDETEXT
280
     0
  9
$XCLIPFRAME
280
     2
  9
$HALOGAP
280
     0
  9
$OBSCOLOR
 70
   257
  9
$OBSLTYPE
280
     0
  9
$INTERSECTIONDISPLAY
280
     0
  9
$INTERSECTIONCOLOR
 70
   257
  9
$DIMASSOC
280
     1
  9
$PROJECTNAME
  1

  9
$CAMERADISPLAY
290
     0
  9
$LENSLENGTH
 40
50.0
  9
$CAMERAHEIGHT
 40
0.0
  9
$STEPSPERSEC
 40
2.0
  9
$STEPSIZE
 40
6.0
  9
$3DDWFPREC
 40
2.0
  9
$PSOLWIDTH
 40
0.25
  9
$PSOLHEIGHT
 40
4.0
  9
$LOFTANG1
 40
1.570796326794896
  9
$LOFTANG2
 40
1.570796326794896
  9
$LOFTMAG1
 40
0.0
  9
$LOFTMAG2
 40
0.0
  9
$LOFTPARAM
 70
     7
  9
$LOFTNORMALS
280
     1
  9
$LATITUDE
 40
37.795
  9
$LONGITUDE
 40
-122.394
  9
$NORTHDIRECTION
 40
0.0
  9
$TIMEZONE
 70
 -8000
  9
$LIGHTGLYPHDISPLAY
280
     1
  9
$TILEMODELIGHTSYNCH
280
     1
  9
$CMATERIAL
347
11
  9
$SOLIDHIST
280
     0
  9
$SHOWHIST
280
     1
  9
$DWFFRAME
280
     2
  9
$DGNFRAME
280
     0
  9
$REALWORLDSCALE
290
     1
  9
$INTERFERECOLOR
 62
     1
  9
$INTERFEREOBJVS
345
33
  9
$INTERFEREVPVS
346
30
  9
$CSHADOW
280
     0
  9
$SHADOWPLANELOCATION
 40
0.0
  0
ENDSEC
  0
SECTION
  2
CLASSES
  0
CLASS
  1
ACDBDICTIONARYWDFLT
  2
AcDbDictionaryWithDefault
  3
ObjectDBX Classes
 90
        0
 91
        1
280
     0
281
     0
  0
CLASS
  1
MATERIAL
  2
AcDbMaterial
  3
ObjectDBX Classes
 90
     1153
 91
        3
280
     0
281
     0
  0
CLASS
  1
VISUALSTYLE
  2
AcDbVisualStyle
  3
ObjectDBX Classes
 90
     4095
 91
       24
280
     0
281
     0
  0
CLASS
  1
SCALE
  2
AcDbScale
  3
ObjectDBX Classes
 90
     1153
 91
       17
280
     0
281
     0
  0
CLASS
  1
TABLESTYLE
  2
AcDbTableStyle
  3
ObjectDBX Classes
 90
     4095
 91
        1
280
     0
281
     0
  0
CLASS
  1
MLEADERSTYLE
  2
AcDbMLeaderStyle
  3
ACDB_MLEADERSTYLE_CLASS
 90
     4095
 91
        1
280
     0
281
     0
  0
CLASS
  1
ACDBSECTIONVIEWSTYLE
  2
AcDbSectionViewStyle
  3
ObjectDBX Classes
 90
     1025
 91
        1
280
     0
281
     0
  0
CLASS
  1
ACDBDETAILVIEWSTYLE
  2
AcDbDetailViewStyle
  3
ObjectDBX Classes
 90
     1025
 91
        1
280
     0
281
     0
  0
CLASS
  1
DICTIONARYVAR
  2
AcDbDictionaryVar
  3
ObjectDBX Classes
 90
        0
 91
        9
280
     0
281
     0
  0
CLASS
  1
CELLSTYLEMAP
  2
AcDbCellStyleMap
  3
ObjectDBX Classes
 90
     1152
 91
        2
280
     0
281
     0
  0
CLASS
  1
SORTENTSTABLE
  2
AcDbSortentsTable
  3
ObjectDBX Classes
 90
        0
 91
        1
280
     0
281
     0
  0
ENDSEC
  0
SECTION
  2
TABLES
  0
TABLE
  2
VPORT
  5
8
330
0
100
AcDbSymbolTable
 70
     1
1001
ACAD
1000
DbSaveVer
1071
       51
  0
VPORT
  5
89
330
8
100
AcDbSymbolTableRecord
100
AcDbViewportTableRecord
  2
*ACTIVE
 70
     0
 10
0.0
 20
0.0
 11
1.0
 21
1.0
 12
-88.34717466000801
 22
782.3546059476639
 13
0.0
 23
0.0
 14
1.0
 24
1.0
 15
0.0
 25
0.0
 16
0.0
 26
0.0
 36
1.0
 17
0.0
 27
0.0
 37
0.0
 40
3003.453341620859
 41
2.511169513797634
 42
50.0
 43
0.0
 44
0.0
 50
0.0
 51
0.0
 71
     0
 72
   100
 73
     1
 74
     3
 75
     0
 76
     0
 77
     0
 78
     0
281
     0
 65
     1
110
0.0
120
0.0
130
0.0
111
1.0
121
0.0
131
0.0
112
0.0
122
1.0
132
0.0
 79
     0
146
0.0
348
2F
 60
     3
 61
     5
292
     1
282
     0
141
0.0
142
0.0
 63
   250
421
  3355443
1001
ACAD_NAV_VCDISPLAY
1070
     3
  0
ENDTAB
  0
TABLE
  2
LTYPE
  5
5
330
0
100
AcDbSymbolTable
 70
     6
  0
LTYPE
  5
5A
330
5
100
AcDbSymbolTableRecord
100
AcDbLinetypeTableRecord
  2
ByBlock
 70
     0
  3

 72
    65
 73
     0
 40
0.0
  0
LTYPE
  5
5B
330
5
100
AcDbSymbolTableRecord
100
AcDbLinetypeTableRecord
  2
ByLayer
 70
     0
  3

 72
    65
 73
     0
 40
0.0
  0
LTYPE
  5
5C
330
5
100
AcDbSymbolTableRecord
100
AcDbLinetypeTableRecord
  2
CONTINUOUS
 70
     0
  3
Solid line
 72
    65
 73
     0
 40
0.0
  0
LTYPE
  5
74
330
5
100
AcDbSymbolTableRecord
100
AcDbLinetypeTableRecord
  2
PHANTOM2
 70
     0
  3
___ _ _ ___ _ _ ___ _ _ ___ _ _
 72
    65
 73
     6
 40
1.25
 49
0.625
 74
     0
 49
-0.125
 74
     0
 49
0.125
 74
     0
 49
-0.125
 74
     0
 49
0.125
 74
     0
 49
-0.125
 74
     0
  0
LTYPE
  5
75
330
5
100
AcDbSymbolTableRecord
100
AcDbLinetypeTableRecord
  2
DASHED
 70
     0
  3
-- -- -- -- -- -- -- -- -- -- -- -- -- -- --
 72
    65
 73
     2
 40
0.75
 49
0.5
 74
     0
 49
-0.25
 74
     0
  0
LTYPE
  5
76
330
5
100
AcDbSymbolTableRecord
100
AcDbLinetypeTableRecord
  2
DASHDOT
 70
     0
  3
__ . __ . __ . __ . __ . __ . __ . __ . __ . __
 72
    65
 73
     4
 40
125.0
 49
80.0
 74
     0
 49
-20.0
 74
     0
 49
5.0
 74
     0
 49
-20.0
 74
     0
  0
LTYPE
  5
77
330
5
100
AcDbSymbolTableRecord
100
AcDbLinetypeTableRecord
  2
DIVIDE
 70
     0
  3
__ . . __ . . __ . . __ . . __ . . __ . . __
 72
    65
 73
     6
 40
1.25
 49
0.5
 74
     0
 49
-0.25
 74
     0
 49
0.0
 74
     0
 49
-0.25
 74
     0
 49
0.0
 74
     0
 49
-0.25
 74
     0
  0
LTYPE
  5
58B
330
5
100
AcDbSymbolTableRecord
100
AcDbLinetypeTableRecord
  2
PHANTOMX2
 70
     0
  3
Phantom (2x) ____________    ____    ____   _
 72
    65
 73
     6
 40
5.0
 49
2.5
 74
     0
 49
-0.5
 74
     0
 49
0.5
 74
     0
 49
-0.5
 74
     0
 49
0.5
 74
     0
 49
-0.5
 74
     0
  0
ENDTAB
  0
TABLE
  2
LAYER
  5
2
102
{ACAD_XDICTIONARY
360
739
102
}
330
0
100
AcDbSymbolTable
 70
    12
  0
LAYER
  5
54
102
{ACAD_XDICTIONARY
360
4F2
102
}
330
2
100
AcDbSymbolTableRecord
100
AcDbLayerTableRecord
  2
0
 70
     0
 62
     3
  6
CONTINUOUS
370
    -3
390
F
347
21
348
0
  0
LAYER
  5
78
102
{ACAD_XDICTIONARY
360
4F4
102
}
330
2
100
AcDbSymbolTableRecord
100
AcDbLayerTableRecord
  2
OUTLINE
 70
     0
 62
     3
  6
CONTINUOUS
370
    -3
390
F
347
21
348
0
  0
LAYER
  5
79
102
{ACAD_XDICTIONARY
360
4F6
102
}
330
2
100
AcDbSymbolTableRecord
100
AcDbLayerTableRecord
  2
DETAIL
 70
     0
 62
     5
  6
CONTINUOUS
370
    -3
390
F
347
21
348
0
  0
LAYER
  5
7A
102
{ACAD_XDICTIONARY
360
4F8
102
}
330
2
100
AcDbSymbolTableRecord
100
AcDbLayerTableRecord
  2
BASIS
 70
     0
 62
     6
  6
CONTINUOUS
370
    -3
390
F
347
21
348
0
  0
LAYER
  5
7B
102
{ACAD_XDICTIONARY
360
4FA
102
}
330
2
100
AcDbSymbolTableRecord
100
AcDbLayerTableRecord
  2
SIZE
 70
     0
 62
    30
  6
CONTINUOUS
370
    -3
390
F
347
21
348
0
  0
LAYER
  5
7C
102
{ACAD_XDICTIONARY
360
4FC
102
}
330
2
100
AcDbSymbolTableRecord
100
AcDbLayerTableRecord
  2
NOTE
 70
     0
 62
     4
  6
CONTINUOUS
370
    -3
390
F
347
21
348
0
  0
LAYER
  5
7D
102
{ACAD_XDICTIONARY
360
4FE
102
}
330
2
100
AcDbSymbolTableRecord
100
AcDbLayerTableRecord
  2
ARRANGE
 70
     0
 62
     1
  6
CONTINUOUS
370
    -3
390
F
347
21
348
0
  0
LAYER
  5
7E
102
{ACAD_XDICTIONARY
360
500
102
}
330
2
100
AcDbSymbolTableRecord
100
AcDbLayerTableRecord
  2
FIX
 70
     0
 62
    11
  6
CONTINUOUS
370
    -3
390
F
347
21
348
0
  0
LAYER
  5
7F
102
{ACAD_XDICTIONARY
360
502
102
}
330
2
100
AcDbSymbolTableRecord
100
AcDbLayerTableRecord
  2
SERVICESPACE
 70
     0
 62
     2
  6
CONTINUOUS
370
    -3
390
F
347
21
348
0
  0
LAYER
  5
80
102
{ACAD_XDICTIONARY
360
504
102
}
330
2
100
AcDbSymbolTableRecord
100
AcDbLayerTableRecord
  2
ETC
 70
     0
 62
    61
  6
CONTINUOUS
370
    -3
390
F
347
21
348
0
  0
LAYER
  5
81
102
{ACAD_XDICTIONARY
360
506
102
}
330
2
100
AcDbSymbolTableRecord
100
AcDbLayerTableRecord
  2
SYMBOLLINE
 70
     0
 62
    15
  6
CONTINUOUS
370
    -3
390
F
347
21
348
0
  0
LAYER
  5
82
330
2
100
AcDbSymbolTableRecord
100
AcDbLayerTableRecord
  2
DEFPOINTS
 70
     0
 62
     7
  6
CONTINUOUS
290
     0
370
    -3
390
F
347
21
348
0
  0
ENDTAB
  0
TABLE
  2
STYLE
  5
3
330
0
100
AcDbSymbolTable
 70
     7
  0
STYLE
  5
55
330
3
100
AcDbSymbolTableRecord
100
AcDbTextStyleTableRecord
  2
STANDARD
 70
     0
 40
0.0
 41
1.0
 50
0.0
 71
     0
 42
0.2
  3
txt
  4

  0
STYLE
  5
59
330
3
100
AcDbSymbolTableRecord
100
AcDbTextStyleTableRecord
  2
ANNOTATIVE
 70
     0
 40
0.0
 41
1.0
 50
0.0
 71
     0
 42
0.2
  3
txt
  4

1001
ACADANNOTATIVE
1000
AnnotativeData
1002
{
1070
     1
1070
     1
1002
}
  0
STYLE
  5
73
330
3
100
AcDbSymbolTableRecord
100
AcDbTextStyleTableRecord
  2
STANDARD1
 70
     0
 40
0.0
 41
1.0
 50
0.0
 71
     0
 42
2.799999952316284
  3
MONOTXT
  4
BIGFONT
  0
STYLE
  5
84
330
3
100
AcDbSymbolTableRecord
100
AcDbTextStyleTableRecord
  2
STANDARD2
 70
     4
 40
0.0
 41
1.0
 50
0.0
 71
     0
 42
2.799999952316284
  3
MONOTXT
  4
BIGFONT
  0
STYLE
  5
85
330
3
100
AcDbSymbolTableRecord
100
AcDbTextStyleTableRecord
  2
STANDARD3
 70
     0
 40
0.0
 41
1.0
 50
0.0
 71
     0
 42
2.799999952316284
  3
MONOTXT
  4

  0
STYLE
  5
86
330
3
100
AcDbSymbolTableRecord
100
AcDbTextStyleTableRecord
  2
STANDARD4
 70
     4
 40
0.0
 41
1.0
 50
0.0
 71
     0
 42
2.799999952316284
  3
MONOTXT
  4

  0
STYLE
  5
58A
330
3
100
AcDbSymbolTableRecord
100
AcDbTextStyleTableRecord
  2

 70
     1
 40
0.0
 41
1.0
 50
0.0
 71
     0
 42
2.799999952316284
  3
ltypeshp.shx
  4

  0
ENDTAB
  0
TABLE
  2
VIEW
  5
6
330
0
100
AcDbSymbolTable
 70
     0
  0
ENDTAB
  0
TABLE
  2
UCS
  5
7
330
0
100
AcDbSymbolTable
 70
     0
  0
ENDTAB
  0
TABLE
  2
APPID
  5
9
330
0
100
AcDbSymbolTable
 70
    10
  0
APPID
  5
56
330
9
100
AcDbSymbolTableRecord
100
AcDbRegAppTableRecord
  2
ACAD
 70
     0
  0
APPID
  5
5D
330
9
100
AcDbSymbolTableRecord
100
AcDbRegAppTableRecord
  2
ACADANNOTATIVE
 70
     0
  0
APPID
  5
87
330
9
100
AcDbSymbolTableRecord
100
AcDbRegAppTableRecord
  2
ACAD_NAV_VCDISPLAY
 70
     0
  0
APPID
  5
88
330
9
100
AcDbSymbolTableRecord
100
AcDbRegAppTableRecord
  2
ACAD_MLEADERVER
 70
     0
  0
APPID
  5
4E8
330
9
100
AcDbSymbolTableRecord
100
AcDbRegAppTableRecord
  2
ACAD_PSEXT
 70
     0
  0
APPID
  5
5CD
330
9
100
AcDbSymbolTableRecord
100
AcDbRegAppTableRecord
  2
ACAD_EXEMPT_FROM_CAD_STANDARDS
 70
     0
  0
APPID
  5
60E
330
9
100
AcDbSymbolTableRecord
100
AcDbRegAppTableRecord
  2
ACAD_DSTYLE_DIMRADIAL_EXTENSION
 70
     0
  0
APPID
  5
D0C
330
9
100
AcDbSymbolTableRecord
100
AcDbRegAppTableRecord
  2
ACAD_DSTYLE_DIMJAG
 70
     0
  0
APPID
  5
D0D
330
9
100
AcDbSymbolTableRecord
100
AcDbRegAppTableRecord
  2
ACAD_DSTYLE_DIMTALN
 70
     0
  0
APPID
  5
106F
330
9
100
AcDbSymbolTableRecord
100
AcDbRegAppTableRecord
  2
AcadAnnoMonitorAlertIconDisabled
 70
     0
  0
ENDTAB
  0
TABLE
  2
DIMSTYLE
  5
A
330
0
100
AcDbSymbolTable
 70
     2
100
AcDbDimStyleTable
 71
     1
340
57
  0
DIMSTYLE
105
57
102
{ACAD_REACTORS
330
A74
330
A75
330
A76
330
A77
330
A78
330
A79
330
A8D
102
}
330
A
100
AcDbSymbolTableRecord
100
AcDbDimStyleTableRecord
  2
STANDARD
 70
     0
271
     3
272
     3
274
     4
279
     2
284
    12
285
    12
286
    12
340
73
  0
DIMSTYLE
105
58
330
A
100
AcDbSymbolTableRecord
100
AcDbDimStyleTableRecord
  2
ANNOTATIVE
 70
     0
271
     3
272
     3
274
     4
279
     2
284
    12
285
    12
286
    12
340
73
1001
ACADANNOTATIVE
1000
AnnotativeData
1002
{
1070
     1
1070
     1
1002
}
  0
ENDTAB
  0
TABLE
  2
BLOCK_RECORD
  5
1
330
0
100
AcDbSymbolTable
 70
    19
  0
BLOCK_RECORD
  5
6F
102
{ACAD_XDICTIONARY
360
B24
102
}
330
1
100
AcDbSymbolTableRecord
100
AcDbBlockTableRecord
  2
*Model_Space
340
72
 70
     0
280
     1
281
     0
  0
BLOCK_RECORD
  5
6B
330
1
100
AcDbSymbolTableRecord
100
AcDbBlockTableRecord
  2
*Paper_Space
340
6E
 70
     0
280
     1
281
     0
  0
BLOCK_RECORD
  5
155
330
1
100
AcDbSymbolTableRecord
100
AcDbBlockTableRecord
  2
_ORIGIN
340
0
102
{BLKREFS
331
134B
331
134C
331
131B
331
131C
331
1324
331
1325
331
6EA
331
6EB
331
6F6
331
6F7
331
702
331
703
331
EE8
331
EE9
331
70E
331
70F
331
71A
331
71B
331
726
331
727
331
732
331
733
331
D03
331
D04
331
D22
331
D23
331
1098
331
1099
331
1275
331
1276
331
1266
331
1267
331
1108
331
114C
331
114D
331
1107
102
}
 70
     0
280
     1
281
     0
  0
BLOCK_RECORD
  5
6E5
330
1
100
AcDbSymbolTableRecord
100
AcDbBlockTableRecord
  2
*D1
340
0
 70
     0
280
     1
281
     0
  0
BLOCK_RECORD
  5
6F1
330
1
100
AcDbSymbolTableRecord
100
AcDbBlockTableRecord
  2
*D2
340
0
 70
     0
280
     1
281
     0
  0
BLOCK_RECORD
  5
6FD
330
1
100
AcDbSymbolTableRecord
100
AcDbBlockTableRecord
  2
*D3
340
0
 70
     0
280
     1
281
     0
  0
BLOCK_RECORD
  5
709
330
1
100
AcDbSymbolTableRecord
100
AcDbBlockTableRecord
  2
*D4
340
0
 70
     0
280
     1
281
     0
  0
BLOCK_RECORD
  5
715
330
1
100
AcDbSymbolTableRecord
100
AcDbBlockTableRecord
  2
*D5
340
0
 70
     0
280
     1
281
     0
  0
BLOCK_RECORD
  5
721
330
1
100
AcDbSymbolTableRecord
100
AcDbBlockTableRecord
  2
*D6
340
0
 70
     0
280
     1
281
     0
  0
BLOCK_RECORD
  5
72D
330
1
100
AcDbSymbolTableRecord
100
AcDbBlockTableRecord
  2
*D7
340
0
 70
     0
280
     1
281
     0
  0
BLOCK_RECORD
  5
A91
330
1
100
AcDbSymbolTableRecord
100
AcDbBlockTableRecord
  2
*D8
340
0
 70
     0
280
     1
281
     0
  0
BLOCK_RECORD
  5
A9D
330
1
100
AcDbSymbolTableRecord
100
AcDbBlockTableRecord
  2
*D9
340
0
 70
     0
280
     1
281
     0
  0
BLOCK_RECORD
  5
AA9
330
1
100
AcDbSymbolTableRecord
100
AcDbBlockTableRecord
  2
*D10
340
0
 70
     0
280
     1
281
     0
  0
BLOCK_RECORD
  5
AB5
330
1
100
AcDbSymbolTableRecord
100
AcDbBlockTableRecord
  2
*D11
340
0
 70
     0
280
     1
281
     0
  0
BLOCK_RECORD
  5
AC1
330
1
100
AcDbSymbolTableRecord
100
AcDbBlockTableRecord
  2
*D12
340
0
 70
     0
280
     1
281
     0
  0
BLOCK_RECORD
  5
ACD
330
1
100
AcDbSymbolTableRecord
100
AcDbBlockTableRecord
  2
*D13
340
0
 70
     0
280
     1
281
     0
  0
BLOCK_RECORD
  5
AD9
330
1
100
AcDbSymbolTableRecord
100
AcDbBlockTableRecord
  2
*D14
340
0
 70
     0
280
     1
281
     0
  0
BLOCK_RECORD
  5
CFC
330
1
100
AcDbSymbolTableRecord
100
AcDbBlockTableRecord
  2
*D15
340
0
 70
     0
280
     1
281
     0
  0
BLOCK_RECORD
  5
D0F
330
1
100
AcDbSymbolTableRecord
100
AcDbBlockTableRecord
  2
*D16
340
0
 70
     0
280
     1
281
     0
  0
BLOCK_RECORD
  5
EE2
330
1
100
AcDbSymbolTableRecord
100
AcDbBlockTableRecord
  2
*D17
340
0
 70
     0
280
     1
281
     0
  0
BLOCK_RECORD
  5
10F6
330
1
100
AcDbSymbolTableRecord
100
AcDbBlockTableRecord
  2
*D18
340
0
 70
     0
280
     1
281
     0
  0
ENDTAB
  0
ENDSEC
  0
SECTION
  2
BLOCKS
  0
BLOCK
  5
70
330
6F
100
AcDbEntity
  8
0
100
AcDbBlockBegin
  2
*Model_Space
 70
     0
 10
0.0
 20
0.0
 30
0.0
  3
*Model_Space
  1

  0
ENDBLK
  5
71
330
6F
100
AcDbEntity
  8
0
100
AcDbBlockEnd
  0
BLOCK
  5
6C
330
6B
100
AcDbEntity
 67
     1
  8
0
100
AcDbBlockBegin
  2
*Paper_Space
 70
     0
 10
0.0
 20
0.0
 30
0.0
  3
*Paper_Space
  1

  0
ENDBLK
  5
6D
330
6B
100
AcDbEntity
 67
     1
  8
0
100
AcDbBlockEnd
  0
BLOCK
  5
156
330
155
100
AcDbEntity
  8
0
100
AcDbBlockBegin
  2
_ORIGIN
 70
     0
 10
0.0
 20
0.0
 30
0.0
  3
_ORIGIN
  1

  0
CIRCLE
  5
157
330
155
100
AcDbEntity
  8
0
  6
ByBlock
 62
     0
100
AcDbCircle
 10
0.0
 20
0.0
 30
0.0
 40
0.5
  0
LINE
  5
158
330
155
100
AcDbEntity
  8
0
  6
ByBlock
 62
     0
100
AcDbLine
 10
0.0
 20
0.0
 30
0.0
 11
-1.0
 21
0.0
 31
0.0
  0
ENDBLK
  5
159
330
155
100
AcDbEntity
  8
0
100
AcDbBlockEnd
  0
BLOCK
  5
6E6
330
6E5
100
AcDbEntity
  8
0
100
AcDbBlockBegin
  2
*D1
 70
     1
 10
0.0
 20
0.0
 30
0.0
  3
*D1
  1

  0
LINE
  5
6E7
330
6E5
100
AcDbEntity
  8
SIZE
  6
Continuous
 62
     0
440
 16777216
370
    -2
100
AcDbLine
 10
-511.9630593185043
 20
-5.199999999999928
 30
0.0
 11
-511.9630593185043
 21
-464.1730688805019
 31
0.0
  0
LINE
  5
6E8
330
6E5
100
AcDbEntity
  8
SIZE
  6
Continuous
 62
     0
440
 16777216
370
    -2
100
AcDbLine
 10
512.0369406814952
 20
-5.199999999999866
 30
0.0
 11
512.0369406814952
 21
-464.1730688805019
 31
0.0
  0
LINE
  5
6E9
330
6E5
100
AcDbEntity
  8
SIZE
  6
Continuous
 62
     0
440
 16777216
370
    -2
100
AcDbLine
 10
-501.963059318504
 20
-451.6730688805019
 30
0.0
 11
502.0369406814952
 21
-451.6730688805019
 31
0.0
  0
INSERT
  5
6EA
330
6E5
100
AcDbEntity
  8
SIZE
  6
Continuous
 62
     0
440
 16777216
370
    -2
100
AcDbBlockReference
  2
_ORIGIN
 10
-511.9630593185043
 20
-451.6730688805019
 30
0.0
 41
10.0
 42
10.0
 43
10.0
 50
180.0
  0
INSERT
  5
6EB
330
6E5
100
AcDbEntity
  8
SIZE
  6
Continuous
 62
     0
440
 16777216
370
    -2
100
AcDbBlockReference
  2
_ORIGIN
 10
512.0369406814952
 20
-451.6730688805019
 30
0.0
 41
10.0
 42
10.0
 43
10.0
  0
MTEXT
  5
6EC
330
6E5
100
AcDbEntity
  8
SIZE
  6
Continuous
 62
     0
440
 16777216
100
AcDbMText
 10
0.0369406814954816
 20
-426.6730688805019
 30
0.0
 40
30.0
 41
0.0
 46
0.0
 71
     5
 72
     1
  1
\A1;1024
 73
     1
 44
1.0
  0
POINT
  5
6ED
330
6E5
100
AcDbEntity
  8
DEFPOINTS
  6
Continuous
 62
     0
440
 16777216
100
AcDbPoint
 10
-511.9630593185043
 20
4.800000000000068
 30
0.0
  0
POINT
  5
6EE
330
6E5
100
AcDbEntity
  8
DEFPOINTS
  6
Continuous
 62
     0
440
 16777216
100
AcDbPoint
 10
512.0369406814952
 20
4.800000000000132
 30
0.0
  0
POINT
  5
6EF
330
6E5
100
AcDbEntity
  8
DEFPOINTS
  6
Continuous
 62
     0
440
 16777216
100
AcDbPoint
 10
512.0369406814952
 20
-451.6730688805019
 30
0.0
  0
ENDBLK
  5
6F0
330
6E5
100
AcDbEntity
  8
0
100
AcDbBlockEnd
  0
BLOCK
  5
6F2
330
6F1
100
AcDbEntity
  8
0
100
AcDbBlockBegin
  2
*D2
 70
     1
 10
0.0
 20
0.0
 30
0.0
  3
*D2
  1

  0
LINE
  5
6F3
330
6F1
100
AcDbEntity
  8
SIZE
  6
Continuous
 62
     0
440
 16777216
370
    -2
100
AcDbLine
 10
-533.9630593185041
 20
850.0000000000003
 30
0.0
 11
-533.9630593185042
 21
-562.6196579449041
 31
0.0
  0
LINE
  5
6F4
330
6F1
100
AcDbEntity
  8
SIZE
  6
Continuous
 62
     0
440
 16777216
370
    -2
100
AcDbLine
 10
534.036940681495
 20
849.999999999998
 30
0.0
 11
534.0369406814949
 21
-562.6196579449041
 31
0.0
  0
LINE
  5
6F5
330
6F1
100
AcDbEntity
  8
SIZE
  6
Continuous
 62
     0
440
 16777216
370
    -2
100
AcDbLine
 10
-523.963059318504
 20
-550.1196579449041
 30
0.0
 11
524.0369406814949
 21
-550.1196579449041
 31
0.0
  0
INSERT
  5
6F6
330
6F1
100
AcDbEntity
  8
SIZE
  6
Continuous
 62
     0
440
 16777216
370
    -2
100
AcDbBlockReference
  2
_ORIGIN
 10
-533.9630593185042
 20
-550.1196579449041
 30
0.0
 41
10.0
 42
10.0
 43
10.0
 50
180.0
  0
INSERT
  5
6F7
330
6F1
100
AcDbEntity
  8
SIZE
  6
Continuous
 62
     0
440
 16777216
370
    -2
100
AcDbBlockReference
  2
_ORIGIN
 10
534.0369406814949
 20
-550.1196579449041
 30
0.0
 41
10.0
 42
10.0
 43
10.0
  0
MTEXT
  5
6F8
330
6F1
100
AcDbEntity
  8
SIZE
  6
Continuous
 62
     0
440
 16777216
100
AcDbMText
 10
0.0369406814953679
 20
-525.1196579449041
 30
0.0
 40
30.0
 41
0.0
 46
0.0
 71
     5
 72
     1
  1
\A1;1068
 73
     1
 44
1.0
  0
POINT
  5
6F9
330
6F1
100
AcDbEntity
  8
DEFPOINTS
  6
Continuous
 62
     0
440
 16777216
100
AcDbPoint
 10
-533.9630593185041
 20
860.0000000000003
 30
0.0
  0
POINT
  5
6FA
330
6F1
100
AcDbEntity
  8
DEFPOINTS
  6
Continuous
 62
     0
440
 16777216
100
AcDbPoint
 10
534.036940681495
 20
859.999999999998
 30
0.0
  0
POINT
  5
6FB
330
6F1
100
AcDbEntity
  8
DEFPOINTS
  6
Continuous
 62
     0
440
 16777216
100
AcDbPoint
 10
534.0369406814949
 20
-550.1196579449041
 30
0.0
  0
ENDBLK
  5
6FC
330
6F1
100
AcDbEntity
  8
0
100
AcDbBlockEnd
  0
BLOCK
  5
6FE
330
6FD
100
AcDbEntity
  8
0
100
AcDbBlockBegin
  2
*D3
 70
     1
 10
0.0
 20
0.0
 30
0.0
  3
*D3
  1

  0
LINE
  5
6FF
330
6FD
100
AcDbEntity
  8
SIZE
  6
Continuous
 62
     0
440
 16777216
370
    -2
100
AcDbLine
 10
-551.9630593185045
 20
854.7176822079439
 30
0.0
 11
-551.9630593185046
 21
-712.5509427177345
 31
0.0
  0
LINE
  5
700
330
6FD
100
AcDbEntity
  8
SIZE
  6
Continuous
 62
     0
440
 16777216
370
    -2
100
AcDbLine
 10
552.0369406814949
 20
854.7176822079418
 30
0.0
 11
552.0369406814948
 21
-712.5509427177345
 31
0.0
  0
LINE
  5
701
330
6FD
100
AcDbEntity
  8
SIZE
  6
Continuous
 62
     0
440
 16777216
370
    -2
100
AcDbLine
 10
-541.9630593185046
 20
-700.0509427177346
 30
0.0
 11
542.0369406814947
 21
-700.0509427177346
 31
0.0
  0
INSERT
  5
702
330
6FD
100
AcDbEntity
  8
SIZE
  6
Continuous
 62
     0
440
 16777216
370
    -2
100
AcDbBlockReference
  2
_ORIGIN
 10
-551.9630593185046
 20
-700.0509427177346
 30
0.0
 41
10.0
 42
10.0
 43
10.0
 50
180.0
  0
INSERT
  5
703
330
6FD
100
AcDbEntity
  8
SIZE
  6
Continuous
 62
     0
440
 16777216
370
    -2
100
AcDbBlockReference
  2
_ORIGIN
 10
552.0369406814948
 20
-700.0509427177346
 30
0.0
 41
10.0
 42
10.0
 43
10.0
  0
MTEXT
  5
704
330
6FD
100
AcDbEntity
  8
SIZE
  6
Continuous
 62
     0
440
 16777216
100
AcDbMText
 10
0.0369406814950837
 20
-675.0509427177346
 30
0.0
 40
30.0
 41
0.0
 46
0.0
 71
     5
 72
     1
  1
\A1;1104
 73
     1
 44
1.0
  0
POINT
  5
705
330
6FD
100
AcDbEntity
  8
DEFPOINTS
  6
Continuous
 62
     0
440
 16777216
100
AcDbPoint
 10
-551.9630593185045
 20
864.717682207944
 30
0.0
  0
POINT
  5
706
330
6FD
100
AcDbEntity
  8
DEFPOINTS
  6
Continuous
 62
     0
440
 16777216
100
AcDbPoint
 10
552.0369406814949
 20
864.7176822079417
 30
0.0
  0
POINT
  5
707
330
6FD
100
AcDbEntity
  8
DEFPOINTS
  6
Continuous
 62
     0
440
 16777216
100
AcDbPoint
 10
552.0369406814948
 20
-700.0509427177346
 30
0.0
  0
ENDBLK
  5
708
330
6FD
100
AcDbEntity
  8
0
100
AcDbBlockEnd
  0
BLOCK
  5
70A
330
709
100
AcDbEntity
  8
0
100
AcDbBlockBegin
  2
*D4
 70
     1
 10
0.0
 20
0.0
 30
0.0
  3
*D4
  1

  0
LINE
  5
70B
330
709
100
AcDbEntity
  8
SIZE
  6
Continuous
 62
     0
440
 16777216
370
    -2
100
AcDbLine
 10
522.0369406814952
 20
955.0000000000004
 30
0.0
 11
709.9632142093124
 21
955.0000000000004
 31
0.0
  0
LINE
  5
70C
330
709
100
AcDbEntity
  8
SIZE
  6
Continuous
 62
     0
440
 16777216
370
    -2
100
AcDbLine
 10
524.3369406814953
 20
0.0000000000000016
 30
0.0
 11
709.9632142093127
 21
0.0000000000000315
 31
0.0
  0
LINE
  5
70D
330
709
100
AcDbEntity
  8
SIZE
  6
Continuous
 62
     0
440
 16777216
370
    -2
100
AcDbLine
 10
697.4632142093124
 20
945.0000000000002
 30
0.0
 11
697.4632142093127
 21
10.00000000000003
 31
0.0
  0
INSERT
  5
70E
330
709
100
AcDbEntity
  8
SIZE
  6
Continuous
 62
     0
440
 16777216
370
    -2
100
AcDbBlockReference
  2
_ORIGIN
 10
697.4632142093124
 20
955.0000000000004
 30
0.0
 41
10.0
 42
10.0
 43
10.0
 50
90.0
  0
INSERT
  5
70F
330
709
100
AcDbEntity
  8
SIZE
  6
Continuous
 62
     0
440
 16777216
370
    -2
100
AcDbBlockReference
  2
_ORIGIN
 10
697.4632142093127
 20
0.0000000000000294
 30
0.0
 41
10.0
 42
10.0
 43
10.0
 50
270.0
  0
MTEXT
  5
710
330
709
100
AcDbEntity
  8
SIZE
  6
Continuous
 62
     0
440
 16777216
100
AcDbMText
 10
672.4632142093126
 20
477.4999999999998
 30
0.0
 40
30.0
 41
0.0
 46
0.0
 71
     5
 72
     1
  1
\A1;955
 11
0.0000000000000001
 21
1.0
 31
0.0
 73
     1
 44
1.0
  0
POINT
  5
711
330
709
100
AcDbEntity
  8
DEFPOINTS
  6
Continuous
 62
     0
440
 16777216
100
AcDbPoint
 10
512.0369406814955
 20
955.0000000000004
 30
0.0
  0
POINT
  5
712
330
709
100
AcDbEntity
  8
DEFPOINTS
  6
Continuous
 62
     0
440
 16777216
100
AcDbPoint
 10
514.3369406814953
 20
0.0
 30
0.0
  0
POINT
  5
713
330
709
100
AcDbEntity
  8
DEFPOINTS
  6
Continuous
 62
     0
440
 16777216
100
AcDbPoint
 10
697.4632142093127
 20
0.0000000000000294
 30
0.0
  0
ENDBLK
  5
714
330
709
100
AcDbEntity
  8
0
100
AcDbBlockEnd
  0
BLOCK
  5
716
330
715
100
AcDbEntity
  8
0
100
AcDbBlockBegin
  2
*D5
 70
     1
 10
0.0
 20
0.0
 30
0.0
  3
*D5
  1

  0
LINE
  5
717
330
715
100
AcDbEntity
  8
SIZE
  6
Continuous
 62
     0
440
 16777216
370
    -2
100
AcDbLine
 10
-519.9630593185046
 20
830.0000000000004
 30
0.0
 11
-876.4882393190005
 21
830.0000000000004
 31
0.0
  0
LINE
  5
718
330
715
100
AcDbEntity
  8
SIZE
  6
Continuous
 62
     0
440
 16777216
370
    -2
100
AcDbLine
 10
-524.2630593185046
 20
-0.0000000000000636
 30
0.0
 11
-876.4882393190003
 21
-0.0000000000001202
 31
0.0
  0
LINE
  5
719
330
715
100
AcDbEntity
  8
SIZE
  6
Continuous
 62
     0
440
 16777216
370
    -2
100
AcDbLine
 10
-863.9882393190005
 20
820.0000000000002
 30
0.0
 11
-863.9882393190003
 21
9.999999999999882
 31
0.0
  0
INSERT
  5
71A
330
715
100
AcDbEntity
  8
SIZE
  6
Continuous
 62
     0
440
 16777216
370
    -2
100
AcDbBlockReference
  2
_ORIGIN
 10
-863.9882393190005
 20
830.0000000000004
 30
0.0
 41
10.0
 42
10.0
 43
10.0
 50
90.0
  0
INSERT
  5
71B
330
715
100
AcDbEntity
  8
SIZE
  6
Continuous
 62
     0
440
 16777216
370
    -2
100
AcDbBlockReference
  2
_ORIGIN
 10
-863.9882393190003
 20
-0.0000000000001182
 30
0.0
 41
10.0
 42
10.0
 43
10.0
 50
270.0
  0
MTEXT
  5
71C
330
715
100
AcDbEntity
  8
SIZE
  6
Continuous
 62
     0
440
 16777216
100
AcDbMText
 10
-888.9882393190001
 20
413.5298789532438
 30
0.0
 40
30.0
 41
0.0
 46
0.0
 71
     5
 72
     1
  1
\A1;830
 11
0.0000000000000001
 21
1.0
 31
0.0
 73
     1
 44
1.0
  0
POINT
  5
71D
330
715
100
AcDbEntity
  8
DEFPOINTS
  6
Continuous
 62
     0
440
 16777216
100
AcDbPoint
 10
-509.9630593185046
 20
830.0000000000004
 30
0.0
  0
POINT
  5
71E
330
715
100
AcDbEntity
  8
DEFPOINTS
  6
Continuous
 62
     0
440
 16777216
100
AcDbPoint
 10
-514.2630593185043
 20
-0.000000000000062
 30
0.0
  0
POINT
  5
71F
330
715
100
AcDbEntity
  8
DEFPOINTS
  6
Continuous
 62
     0
440
 16777216
100
AcDbPoint
 10
-863.9882393190003
 20
-0.0000000000001182
 30
0.0
  0
ENDBLK
  5
720
330
715
100
AcDbEntity
  8
0
100
AcDbBlockEnd
  0
BLOCK
  5
722
330
721
100
AcDbEntity
  8
0
100
AcDbBlockBegin
  2
*D6
 70
     1
 10
0.0
 20
0.0
 30
0.0
  3
*D6
  1

  0
LINE
  5
723
330
721
100
AcDbEntity
  8
SIZE
  6
Continuous
 62
     0
440
 16777216
370
    -2
100
AcDbLine
 10
-287.4630593185047
 20
815.0000000000003
 30
0.0
 11
-731.7000020430389
 21
815.0000000000003
 31
0.0
  0
LINE
  5
724
330
721
100
AcDbEntity
  8
SIZE
  6
Continuous
 62
     0
440
 16777216
370
    -2
100
AcDbLine
 10
-524.2630593185046
 20
-0.0000000000000636
 30
0.0
 11
-731.7000020430388
 21
-0.000000000000097
 31
0.0
  0
LINE
  5
725
330
721
100
AcDbEntity
  8
SIZE
  6
Continuous
 62
     0
440
 16777216
370
    -2
100
AcDbLine
 10
-719.2000020430389
 20
805.0000000000004
 30
0.0
 11
-719.2000020430388
 21
9.999999999999904
 31
0.0
  0
INSERT
  5
726
330
721
100
AcDbEntity
  8
SIZE
  6
Continuous
 62
     0
440
 16777216
370
    -2
100
AcDbBlockReference
  2
_ORIGIN
 10
-719.2000020430389
 20
815.0000000000003
 30
0.0
 41
10.0
 42
10.0
 43
10.0
 50
90.0
  0
INSERT
  5
727
330
721
100
AcDbEntity
  8
SIZE
  6
Continuous
 62
     0
440
 16777216
370
    -2
100
AcDbBlockReference
  2
_ORIGIN
 10
-719.2000020430388
 20
-0.000000000000095
 30
0.0
 41
10.0
 42
10.0
 43
10.0
 50
270.0
  0
MTEXT
  5
728
330
721
100
AcDbEntity
  8
SIZE
  6
Continuous
 62
     0
440
 16777216
100
AcDbMText
 10
-744.2000020430388
 20
407.5000000000001
 30
0.0
 40
30.0
 41
0.0
 46
0.0
 71
     5
 72
     1
  1
\A1;815
 11
0.0000000000000001
 21
1.0
 31
0.0
 73
     1
 44
1.0
  0
POINT
  5
729
330
721
100
AcDbEntity
  8
DEFPOINTS
  6
Continuous
 62
     0
440
 16777216
100
AcDbPoint
 10
-277.4630593185047
 20
815.0000000000003
 30
0.0
  0
POINT
  5
72A
330
721
100
AcDbEntity
  8
DEFPOINTS
  6
Continuous
 62
     0
440
 16777216
100
AcDbPoint
 10
-514.2630593185043
 20
-0.000000000000062
 30
0.0
  0
POINT
  5
72B
330
721
100
AcDbEntity
  8
DEFPOINTS
  6
Continuous
 62
     0
440
 16777216
100
AcDbPoint
 10
-719.2000020430388
 20
-0.000000000000095
 30
0.0
  0
ENDBLK
  5
72C
330
721
100
AcDbEntity
  8
0
100
AcDbBlockEnd
  0
BLOCK
  5
72E
330
72D
100
AcDbEntity
  8
0
100
AcDbBlockBegin
  2
*D7
 70
     1
 10
0.0
 20
0.0
 30
0.0
  3
*D7
  1

  0
LINE
  5
72F
330
72D
100
AcDbEntity
  8
SIZE
  6
Continuous
 62
     0
440
 16777216
370
    -2
100
AcDbLine
 10
560.0369406814952
 20
1942.000000000001
 30
0.0
 11
821.9045532783725
 21
1942.000000000001
 31
0.0
  0
LINE
  5
730
330
72D
100
AcDbEntity
  8
SIZE
  6
Continuous
 62
     0
440
 16777216
370
    -2
100
AcDbLine
 10
524.3369406814953
 20
0.0000000000000016
 30
0.0
 11
821.9045532783731
 21
0.0000000000000495
 31
0.0
  0
LINE
  5
731
330
72D
100
AcDbEntity
  8
SIZE
  6
Continuous
 62
     0
440
 16777216
370
    -2
100
AcDbLine
 10
809.4045532783725
 20
1932.000000000001
 30
0.0
 11
809.4045532783731
 21
10.00000000000005
 31
0.0
  0
INSERT
  5
732
330
72D
100
AcDbEntity
  8
SIZE
  6
Continuous
 62
     0
440
 16777216
370
    -2
100
AcDbBlockReference
  2
_ORIGIN
 10
809.4045532783725
 20
1942.000000000001
 30
0.0
 41
10.0
 42
10.0
 43
10.0
 50
90.0
  0
INSERT
  5
733
330
72D
100
AcDbEntity
  8
SIZE
  6
Continuous
 62
     0
440
 16777216
370
    -2
100
AcDbBlockReference
  2
_ORIGIN
 10
809.4045532783731
 20
0.0000000000000475
 30
0.0
 41
10.0
 42
10.0
 43
10.0
 50
270.0
  0
MTEXT
  5
734
330
72D
100
AcDbEntity
  8
SIZE
  6
Continuous
 62
     0
440
 16777216
100
AcDbMText
 10
784.404553278373
 20
971.0
 30
0.0
 40
30.0
 41
0.0
 46
0.0
 71
     5
 72
     1
  1
\A1;1942
 11
0.0000000000000001
 21
1.0
 31
0.0
 73
     1
 44
1.0
  0
POINT
  5
735
330
72D
100
AcDbEntity
  8
DEFPOINTS
  6
Continuous
 62
     0
440
 16777216
100
AcDbPoint
 10
550.0369406814955
 20
1942.000000000001
 30
0.0
  0
POINT
  5
736
330
72D
100
AcDbEntity
  8
DEFPOINTS
  6
Continuous
 62
     0
440
 16777216
100
AcDbPoint
 10
514.3369406814953
 20
0.0
 30
0.0
  0
POINT
  5
737
330
72D
100
AcDbEntity
  8
DEFPOINTS
  6
Continuous
 62
     0
440
 16777216
100
AcDbPoint
 10
809.4045532783731
 20
0.0000000000000475
 30
0.0
  0
ENDBLK
  5
738
330
72D
100
AcDbEntity
  8
0
100
AcDbBlockEnd
  0
BLOCK
  5
A92
330
A91
100
AcDbEntity
  8
0
100
AcDbBlockBegin
  2
*D8
 70
     1
 10
0.0
 20
0.0
 30
0.0
  3
*D8
  1

  0
LINE
  5
1348
330
A91
100
AcDbEntity
  8
SIZE
  6
Continuous
 62
     0
440
 16777216
370
    -2
100
AcDbLine
 10
-512.4630593185051
 20
-0.1999999999999886
 30
0.0
 11
-512.4630593185051
 21
-464.1730688805019
 31
0.0
  0
LINE
  5
1349
330
A91
100
AcDbEntity
  8
SIZE
  6
Continuous
 62
     0
440
 16777216
370
    -2
100
AcDbLine
 10
512.5369406814948
 20
-0.1999999999999051
 30
0.0
 11
512.5369406814948
 21
-464.1730688805019
 31
0.0
  0
LINE
  5
134A
330
A91
100
AcDbEntity
  8
SIZE
  6
Continuous
 62
     0
440
 16777216
370
    -2
100
AcDbLine
 10
-502.463059318505
 20
-451.6730688805019
 30
0.0
 11
502.5369406814948
 21
-451.6730688805019
 31
0.0
  0
INSERT
  5
134B
330
A91
100
AcDbEntity
  8
SIZE
  6
Continuous
 62
     0
440
 16777216
370
    -2
100
AcDbBlockReference
  2
_ORIGIN
 10
-512.4630593185051
 20
-451.6730688805019
 30
0.0
 41
10.0
 42
10.0
 43
10.0
 50
180.0
  0
INSERT
  5
134C
330
A91
100
AcDbEntity
  8
SIZE
  6
Continuous
 62
     0
440
 16777216
370
    -2
100
AcDbBlockReference
  2
_ORIGIN
 10
512.5369406814948
 20
-451.6730688805019
 30
0.0
 41
10.0
 42
10.0
 43
10.0
  0
MTEXT
  5
134D
330
A91
100
AcDbEntity
  8
SIZE
  6
Continuous
 62
     0
440
 16777216
100
AcDbMText
 10
0.0369406814948563
 20
-426.6730688805019
 30
0.0
 40
30.0
 41
0.0
 46
0.0
 71
     5
 72
     1
  1
\A1;1025
 73
     1
 44
1.0
  0
POINT
  5
134E
330
A91
100
AcDbEntity
  8
DEFPOINTS
  6
Continuous
 62
     0
440
 16777216
100
AcDbPoint
 10
-512.4630593185051
 20
9.800000000000011
 30
0.0
  0
POINT
  5
134F
330
A91
100
AcDbEntity
  8
DEFPOINTS
  6
Continuous
 62
     0
440
 16777216
100
AcDbPoint
 10
512.5369406814948
 20
9.800000000000094
 30
0.0
  0
POINT
  5
1350
330
A91
100
AcDbEntity
  8
DEFPOINTS
  6
Continuous
 62
     0
440
 16777216
100
AcDbPoint
 10
512.5369406814948
 20
-451.6730688805019
 30
0.0
  0
ENDBLK
  5
A93
330
A91
100
AcDbEntity
  8
0
100
AcDbBlockEnd
  0
BLOCK
  5
A9E
330
A9D
100
AcDbEntity
  8
0
100
AcDbBlockBegin
  2
*D9
 70
     1
 10
0.0
 20
0.0
 30
0.0
  3
*D9
  1

  0
LINE
  5
1318
330
A9D
100
AcDbEntity
  8
SIZE
  6
Continuous
 62
     0
440
 16777216
370
    -2
100
AcDbLine
 10
-534.4630593185042
 20
852.000000000004
 30
0.0
 11
-534.4630593185045
 21
-557.6196579449023
 31
0.0
  0
LINE
  5
1319
330
A9D
100
AcDbEntity
  8
SIZE
  6
Continuous
 62
     0
440
 16777216
370
    -2
100
AcDbLine
 10
534.5369406814945
 20
855.0
 30
0.0
 11
534.5369406814943
 21
-557.6196579449023
 31
0.0
  0
LINE
  5
131A
330
A9D
100
AcDbEntity
  8
SIZE
  6
Continuous
 62
     0
440
 16777216
370
    -2
100
AcDbLine
 10
-524.4630593185044
 20
-545.1196579449023
 30
0.0
 11
524.5369406814943
 21
-545.1196579449023
 31
0.0
  0
INSERT
  5
131B
330
A9D
100
AcDbEntity
  8
SIZE
  6
Continuous
 62
     0
440
 16777216
370
    -2
100
AcDbBlockReference
  2
_ORIGIN
 10
-534.4630593185045
 20
-545.1196579449023
 30
0.0
 41
10.0
 42
10.0
 43
10.0
 50
180.0
  0
INSERT
  5
131C
330
A9D
100
AcDbEntity
  8
SIZE
  6
Continuous
 62
     0
440
 16777216
370
    -2
100
AcDbBlockReference
  2
_ORIGIN
 10
534.5369406814943
 20
-545.1196579449023
 30
0.0
 41
10.0
 42
10.0
 43
10.0
  0
MTEXT
  5
131D
330
A9D
100
AcDbEntity
  8
SIZE
  6
Continuous
 62
     0
440
 16777216
100
AcDbMText
 10
0.0369406814949131
 20
-520.1196579449023
 30
0.0
 40
30.0
 41
0.0
 46
0.0
 71
     5
 72
     1
  1
\A1;1069
 73
     1
 44
1.0
  0
POINT
  5
131E
330
A9D
100
AcDbEntity
  8
DEFPOINTS
  6
Continuous
 62
     0
440
 16777216
100
AcDbPoint
 10
-534.4630593185042
 20
862.0000000000041
 30
0.0
  0
POINT
  5
131F
330
A9D
100
AcDbEntity
  8
DEFPOINTS
  6
Continuous
 62
     0
440
 16777216
100
AcDbPoint
 10
534.5369406814945
 20
865.0
 30
0.0
  0
POINT
  5
1320
330
A9D
100
AcDbEntity
  8
DEFPOINTS
  6
Continuous
 62
     0
440
 16777216
100
AcDbPoint
 10
534.5369406814943
 20
-545.1196579449023
 30
0.0
  0
ENDBLK
  5
A9F
330
A9D
100
AcDbEntity
  8
0
100
AcDbBlockEnd
  0
BLOCK
  5
AAA
330
AA9
100
AcDbEntity
  8
0
100
AcDbBlockBegin
  2
*D10
 70
     1
 10
0.0
 20
0.0
 30
0.0
  3
*D10
  1

  0
LINE
  5
1321
330
AA9
100
AcDbEntity
  8
SIZE
  6
Continuous
 62
     0
440
 16777216
370
    -2
100
AcDbLine
 10
-552.4630593185049
 20
856.7176822079478
 30
0.0
 11
-552.4630593185052
 21
-707.5509427177327
 31
0.0
  0
LINE
  5
1322
330
AA9
100
AcDbEntity
  8
SIZE
  6
Continuous
 62
     0
440
 16777216
370
    -2
100
AcDbLine
 10
552.5369406814945
 20
859.7176822079434
 30
0.0
 11
552.5369406814945
 21
-707.5509427177327
 31
0.0
  0
LINE
  5
1323
330
AA9
100
AcDbEntity
  8
SIZE
  6
Continuous
 62
     0
440
 16777216
370
    -2
100
AcDbLine
 10
-542.463059318505
 20
-695.0509427177327
 30
0.0
 11
542.5369406814946
 21
-695.0509427177327
 31
0.0
  0
INSERT
  5
1324
330
AA9
100
AcDbEntity
  8
SIZE
  6
Continuous
 62
     0
440
 16777216
370
    -2
100
AcDbBlockReference
  2
_ORIGIN
 10
-552.4630593185052
 20
-695.0509427177327
 30
0.0
 41
10.0
 42
10.0
 43
10.0
 50
180.0
  0
INSERT
  5
1325
330
AA9
100
AcDbEntity
  8
SIZE
  6
Continuous
 62
     0
440
 16777216
370
    -2
100
AcDbBlockReference
  2
_ORIGIN
 10
552.5369406814945
 20
-695.0509427177327
 30
0.0
 41
10.0
 42
10.0
 43
10.0
  0
MTEXT
  5
1326
330
AA9
100
AcDbEntity
  8
SIZE
  6
Continuous
 62
     0
440
 16777216
100
AcDbMText
 10
0.0369406814946858
 20
-670.0509427177328
 30
0.0
 40
30.0
 41
0.0
 46
0.0
 71
     5
 72
     1
  1
\A1;1105
 73
     1
 44
1.0
  0
POINT
  5
1327
330
AA9
100
AcDbEntity
  8
DEFPOINTS
  6
Continuous
 62
     0
440
 16777216
100
AcDbPoint
 10
-552.4630593185049
 20
866.7176822079479
 30
0.0
  0
POINT
  5
1328
330
AA9
100
AcDbEntity
  8
DEFPOINTS
  6
Continuous
 62
     0
440
 16777216
100
AcDbPoint
 10
552.5369406814945
 20
869.7176822079436
 30
0.0
  0
POINT
  5
1329
330
AA9
100
AcDbEntity
  8
DEFPOINTS
  6
Continuous
 62
     0
440
 16777216
100
AcDbPoint
 10
552.5369406814945
 20
-695.0509427177327
 30
0.0
  0
ENDBLK
  5
AAB
330
AA9
100
AcDbEntity
  8
0
100
AcDbBlockEnd
  0
BLOCK
  5
AB6
330
AB5
100
AcDbEntity
  8
0
100
AcDbBlockBegin
  2
*D11
 70
     1
 10
0.0
 20
0.0
 30
0.0
  3
*D11
  1

  0
LINE
  5
1263
330
AB5
100
AcDbEntity
  8
SIZE
  6
Continuous
 62
     0
440
 16777216
370
    -2
100
AcDbLine
 10
522.536940681495
 20
960.0
 30
0.0
 11
710.4632142093151
 21
960.0
 31
0.0
  0
LINE
  5
1264
330
AB5
100
AcDbEntity
  8
SIZE
  6
Continuous
 62
     0
440
 16777216
370
    -2
100
AcDbLine
 10
524.8369406814946
 20
0.0000000000000016
 30
0.0
 11
710.4632142093151
 21
0.0000000000000315
 31
0.0
  0
LINE
  5
1265
330
AB5
100
AcDbEntity
  8
SIZE
  6
Continuous
 62
     0
440
 16777216
370
    -2
100
AcDbLine
 10
697.9632142093151
 20
950.0
 30
0.0
 11
697.9632142093151
 21
10.00000000000003
 31
0.0
  0
INSERT
  5
1266
330
AB5
100
AcDbEntity
  8
SIZE
  6
Continuous
 62
     0
440
 16777216
370
    -2
100
AcDbBlockReference
  2
_ORIGIN
 10
697.9632142093151
 20
960.0
 30
0.0
 41
10.0
 42
10.0
 43
10.0
 50
90.0
  0
INSERT
  5
1267
330
AB5
100
AcDbEntity
  8
SIZE
  6
Continuous
 62
     0
440
 16777216
370
    -2
100
AcDbBlockReference
  2
_ORIGIN
 10
697.9632142093151
 20
0.0000000000000294
 30
0.0
 41
10.0
 42
10.0
 43
10.0
 50
270.0
  0
MTEXT
  5
1268
330
AB5
100
AcDbEntity
  8
SIZE
  6
Continuous
 62
     0
440
 16777216
100
AcDbMText
 10
672.9632142093152
 20
479.9999999999998
 30
0.0
 40
30.0
 41
0.0
 46
0.0
 71
     5
 72
     1
  1
\A1;960
 11
0.0000000000000001
 21
1.0
 31
0.0
 73
     1
 44
1.0
  0
POINT
  5
1269
330
AB5
100
AcDbEntity
  8
DEFPOINTS
  6
Continuous
 62
     0
440
 16777216
100
AcDbPoint
 10
512.536940681495
 20
960.0
 30
0.0
  0
POINT
  5
126A
330
AB5
100
AcDbEntity
  8
DEFPOINTS
  6
Continuous
 62
     0
440
 16777216
100
AcDbPoint
 10
514.8369406814946
 20
0.0
 30
0.0
  0
POINT
  5
126B
330
AB5
100
AcDbEntity
  8
DEFPOINTS
  6
Continuous
 62
     0
440
 16777216
100
AcDbPoint
 10
697.9632142093151
 20
0.0000000000000294
 30
0.0
  0
ENDBLK
  5
AB7
330
AB5
100
AcDbEntity
  8
0
100
AcDbBlockEnd
  0
BLOCK
  5
AC2
330
AC1
100
AcDbEntity
  8
0
100
AcDbBlockBegin
  2
*D12
 70
     1
 10
0.0
 20
0.0
 30
0.0
  3
*D12
  1

  0
LINE
  5
1272
330
AC1
100
AcDbEntity
  8
SIZE
  6
Continuous
 62
     0
440
 16777216
370
    -2
100
AcDbLine
 10
-520.4630593185052
 20
840.0
 30
0.0
 11
-826.895596080187
 21
839.9999999999996
 31
0.0
  0
LINE
  5
1273
330
AC1
100
AcDbEntity
  8
SIZE
  6
Continuous
 62
     0
440
 16777216
370
    -2
100
AcDbLine
 10
-524.763059318505
 20
-0.0000000000002006
 30
0.0
 11
-826.895596080187
 21
-0.0000000000002492
 31
0.0
  0
LINE
  5
1274
330
AC1
100
AcDbEntity
  8
SIZE
  6
Continuous
 62
     0
440
 16777216
370
    -2
100
AcDbLine
 10
-814.395596080187
 20
829.9999999999997
 30
0.0
 11
-814.395596080187
 21
9.999999999999754
 31
0.0
  0
INSERT
  5
1275
330
AC1
100
AcDbEntity
  8
SIZE
  6
Continuous
 62
     0
440
 16777216
370
    -2
100
AcDbBlockReference
  2
_ORIGIN
 10
-814.395596080187
 20
839.9999999999996
 30
0.0
 41
10.0
 42
10.0
 43
10.0
 50
90.0
  0
INSERT
  5
1276
330
AC1
100
AcDbEntity
  8
SIZE
  6
Continuous
 62
     0
440
 16777216
370
    -2
100
AcDbBlockReference
  2
_ORIGIN
 10
-814.395596080187
 20
-0.0000000000002472
 30
0.0
 41
10.0
 42
10.0
 43
10.0
 50
270.0
  0
MTEXT
  5
1277
330
AC1
100
AcDbEntity
  8
SIZE
  6
Continuous
 62
     0
440
 16777216
100
AcDbMText
 10
-839.3955960801868
 20
413.5298789532437
 30
0.0
 40
30.0
 41
0.0
 46
0.0
 71
     5
 72
     1
  1
\A1;840
 11
0.0000000000000001
 21
1.0
 31
0.0
 73
     1
 44
1.0
  0
POINT
  5
1278
330
AC1
100
AcDbEntity
  8
DEFPOINTS
  6
Continuous
 62
     0
440
 16777216
100
AcDbPoint
 10
-510.463059318505
 20
840.0
 30
0.0
  0
POINT
  5
1279
330
AC1
100
AcDbEntity
  8
DEFPOINTS
  6
Continuous
 62
     0
440
 16777216
100
AcDbPoint
 10
-514.763059318505
 20
-0.000000000000199
 30
0.0
  0
POINT
  5
127A
330
AC1
100
AcDbEntity
  8
DEFPOINTS
  6
Continuous
 62
     0
440
 16777216
100
AcDbPoint
 10
-814.395596080187
 20
-0.0000000000002472
 30
0.0
  0
ENDBLK
  5
AC3
330
AC1
100
AcDbEntity
  8
0
100
AcDbBlockEnd
  0
BLOCK
  5
ACE
330
ACD
100
AcDbEntity
  8
0
100
AcDbBlockBegin
  2
*D13
 70
     1
 10
0.0
 20
0.0
 30
0.0
  3
*D13
  1

  0
LINE
  5
1095
330
ACD
100
AcDbEntity
  8
SIZE
  6
Continuous
 62
     0
440
 16777216
370
    -2
100
AcDbLine
 10
-287.4630593185051
 20
815.0000000000003
 30
0.0
 11
-731.7000020430396
 21
815.0000000000003
 31
0.0
  0
LINE
  5
1096
330
ACD
100
AcDbEntity
  8
SIZE
  6
Continuous
 62
     0
440
 16777216
370
    -2
100
AcDbLine
 10
-524.763059318505
 20
-0.0000000000002006
 30
0.0
 11
-731.7000020430392
 21
-0.0000000000002339
 31
0.0
  0
LINE
  5
1097
330
ACD
100
AcDbEntity
  8
SIZE
  6
Continuous
 62
     0
440
 16777216
370
    -2
100
AcDbLine
 10
-719.2000020430396
 20
805.0
 30
0.0
 11
-719.2000020430392
 21
9.999999999999767
 31
0.0
  0
INSERT
  5
1098
330
ACD
100
AcDbEntity
  8
SIZE
  6
Continuous
 62
     0
440
 16777216
370
    -2
100
AcDbBlockReference
  2
_ORIGIN
 10
-719.2000020430396
 20
815.0000000000003
 30
0.0
 41
10.0
 42
10.0
 43
10.0
 50
90.0
  0
INSERT
  5
1099
330
ACD
100
AcDbEntity
  8
SIZE
  6
Continuous
 62
     0
440
 16777216
370
    -2
100
AcDbBlockReference
  2
_ORIGIN
 10
-719.2000020430392
 20
-0.0000000000002319
 30
0.0
 41
10.0
 42
10.0
 43
10.0
 50
270.0
  0
MTEXT
  5
109A
330
ACD
100
AcDbEntity
  8
SIZE
  6
Continuous
 62
     0
440
 16777216
100
AcDbMText
 10
-744.2000020430391
 20
407.5000000000001
 30
0.0
 40
30.0
 41
0.0
 46
0.0
 71
     5
 72
     1
  1
\A1;815
 11
0.0000000000000001
 21
1.0
 31
0.0
 73
     1
 44
1.0
  0
POINT
  5
109B
330
ACD
100
AcDbEntity
  8
DEFPOINTS
  6
Continuous
 62
     0
440
 16777216
100
AcDbPoint
 10
-277.4630593185051
 20
815.0000000000003
 30
0.0
  0
POINT
  5
109C
330
ACD
100
AcDbEntity
  8
DEFPOINTS
  6
Continuous
 62
     0
440
 16777216
100
AcDbPoint
 10
-514.763059318505
 20
-0.000000000000199
 30
0.0
  0
POINT
  5
109D
330
ACD
100
AcDbEntity
  8
DEFPOINTS
  6
Continuous
 62
     0
440
 16777216
100
AcDbPoint
 10
-719.2000020430392
 20
-0.0000000000002319
 30
0.0
  0
ENDBLK
  5
ACF
330
ACD
100
AcDbEntity
  8
0
100
AcDbBlockEnd
  0
BLOCK
  5
ADA
330
AD9
100
AcDbEntity
  8
0
100
AcDbBlockBegin
  2
*D14
 70
     1
 10
0.0
 20
0.0
 30
0.0
  3
*D14
  1

  0
LINE
  5
1149
330
AD9
100
AcDbEntity
  8
SIZE
  6
Continuous
 62
     0
440
 16777216
370
    -2
100
AcDbLine
 10
560.0369406814951
 20
1950.000000000001
 30
0.0
 11
822.4045532783717
 21
1950.000000000001
 31
0.0
  0
LINE
  5
114A
330
AD9
100
AcDbEntity
  8
SIZE
  6
Continuous
 62
     0
440
 16777216
370
    -2
100
AcDbLine
 10
524.8369406814946
 20
0.0000000000000016
 30
0.0
 11
822.4045532783721
 21
0.0000000000000495
 31
0.0
  0
LINE
  5
114B
330
AD9
100
AcDbEntity
  8
SIZE
  6
Continuous
 62
     0
440
 16777216
370
    -2
100
AcDbLine
 10
809.9045532783717
 20
1940.000000000001
 30
0.0
 11
809.9045532783721
 21
10.00000000000005
 31
0.0
  0
INSERT
  5
114C
330
AD9
100
AcDbEntity
  8
SIZE
  6
Continuous
 62
     0
440
 16777216
370
    -2
100
AcDbBlockReference
  2
_ORIGIN
 10
809.9045532783717
 20
1950.000000000001
 30
0.0
 41
10.0
 42
10.0
 43
10.0
 50
90.0
  0
INSERT
  5
114D
330
AD9
100
AcDbEntity
  8
SIZE
  6
Continuous
 62
     0
440
 16777216
370
    -2
100
AcDbBlockReference
  2
_ORIGIN
 10
809.9045532783721
 20
0.0000000000000475
 30
0.0
 41
10.0
 42
10.0
 43
10.0
 50
270.0
  0
MTEXT
  5
114E
330
AD9
100
AcDbEntity
  8
SIZE
  6
Continuous
 62
     0
440
 16777216
100
AcDbMText
 10
784.9045532783722
 20
970.9999999999997
 30
0.0
 40
30.0
 41
0.0
 46
0.0
 71
     5
 72
     1
  1
\A1;1950
 11
0.0000000000000001
 21
1.0
 31
0.0
 73
     1
 44
1.0
  0
POINT
  5
114F
330
AD9
100
AcDbEntity
  8
DEFPOINTS
  6
Continuous
 62
     0
440
 16777216
100
AcDbPoint
 10
550.0369406814951
 20
1950.000000000001
 30
0.0
  0
POINT
  5
1150
330
AD9
100
AcDbEntity
  8
DEFPOINTS
  6
Continuous
 62
     0
440
 16777216
100
AcDbPoint
 10
514.8369406814946
 20
0.0
 30
0.0
  0
POINT
  5
1151
330
AD9
100
AcDbEntity
  8
DEFPOINTS
  6
Continuous
 62
     0
440
 16777216
100
AcDbPoint
 10
809.9045532783721
 20
0.0000000000000475
 30
0.0
  0
ENDBLK
  5
ADB
330
AD9
100
AcDbEntity
  8
0
100
AcDbBlockEnd
  0
BLOCK
  5
CFD
330
CFC
100
AcDbEntity
  8
0
100
AcDbBlockBegin
  2
*D15
 70
     1
 10
0.0
 20
0.0
 30
0.0
  3
*D15
  1

  0
LINE
  5
CFF
330
CFC
100
AcDbEntity
  8
OUTLINE
  6
Continuous
 62
     0
440
 16777216
370
    -2
100
AcDbLine
 10
-1398.778626233317
 20
1365.870287180343
 30
0.0
 11
-1498.295008780337
 21
1365.870287180344
 31
0.0
  0
ARC
  5
D00
330
CFC
100
AcDbEntity
  8
OUTLINE
  6
Continuous
 62
     0
440
 16777216
370
    -2
100
AcDbCircle
 10
-1340.211055546725
 20
1365.870287180343
 30
0.0
 40
145.5839532336115
100
AcDbArc
 50
134.7057744176557
 51
138.6421319631637
  0
ARC
  5
D01
330
CFC
100
AcDbEntity
  8
OUTLINE
  6
Continuous
 62
     0
440
 16777216
370
    -2
100
AcDbCircle
 10
-1340.211055546725
 20
1365.870287180343
 30
0.0
 40
145.5839532336115
100
AcDbArc
 50
183.9363575455079
 51
187.8727150910158
  0
ARC
  5
D02
330
CFC
100
AcDbEntity
  8
OUTLINE
  6
Continuous
 62
     0
440
 16777216
370
    -2
100
AcDbCircle
 10
-1340.211055546725
 20
1365.870287180343
 30
0.0
 40
145.5839532336115
100
AcDbArc
 50
142.5784895086717
 51
179.9999999999999
  0
INSERT
  5
D03
330
CFC
100
AcDbEntity
  8
OUTLINE
  6
Continuous
 62
     0
440
 16777216
370
    -2
100
AcDbBlockReference
  2
_ORIGIN
 10
-1455.831871370255
 20
1454.33787665484
 30
0.0
 41
10.0
 42
10.0
 43
10.0
 50
230.6103107359178
  0
INSERT
  5
D04
330
CFC
100
AcDbEntity
  8
OUTLINE
  6
Continuous
 62
     0
440
 16777216
370
    -2
100
AcDbBlockReference
  2
_ORIGIN
 10
-1485.795008780337
 20
1365.870287180344
 30
0.0
 41
10.0
 42
10.0
 43
10.0
 50
91.96817877275393
  0
MTEXT
  5
D05
330
CFC
100
AcDbEntity
  8
OUTLINE
  6
Continuous
 62
     0
440
 16777216
100
AcDbMText
 10
-1501.779660049564
 20
1420.59204829795
 30
0.0
 40
30.0
 41
0.0
 46
0.0
 71
     5
 72
     1
  1
\A1;37°
 11
0.3207907899910464
 21
0.94715007736732
 31
0.0
 73
     1
 44
1.0
  0
POINT
  5
D06
330
CFC
100
AcDbEntity
  8
DEFPOINTS
  6
Continuous
 62
     0
440
 16777216
100
AcDbPoint
 10
-1472.211061056609
 20
1427.276198821789
 30
0.0
  0
POINT
  5
D07
330
CFC
100
AcDbEntity
  8
DEFPOINTS
  6
Continuous
 62
     0
440
 16777216
100
AcDbPoint
 10
-1340.211055546725
 20
1365.870287180343
 30
0.0
  0
POINT
  5
D08
330
CFC
100
AcDbEntity
  8
DEFPOINTS
  6
Continuous
 62
     0
440
 16777216
100
AcDbPoint
 10
-1340.211055546725
 20
1365.870287180343
 30
0.0
  0
POINT
  5
D09
330
CFC
100
AcDbEntity
  8
DEFPOINTS
  6
Continuous
 62
     0
440
 16777216
100
AcDbPoint
 10
-1388.778626233317
 20
1365.870287180343
 30
0.0
  0
POINT
  5
D0A
330
CFC
100
AcDbEntity
  8
DEFPOINTS
  6
Continuous
 62
     0
440
 16777216
100
AcDbPoint
 10
-1677.466199650725
 20
1623.922000656343
 30
0.0
  0
ENDBLK
  5
CFE
330
CFC
100
AcDbEntity
  8
0
100
AcDbBlockEnd
  0
BLOCK
  5
D10
330
D0F
100
AcDbEntity
  8
0
100
AcDbBlockBegin
  2
*D16
 70
     1
 10
0.0
 20
0.0
 30
0.0
  3
*D16
  1

  0
LINE
  5
D1E
330
D0F
100
AcDbEntity
  8
OUTLINE
  6
Continuous
 62
     0
440
 16777216
370
    -2
100
AcDbLine
 10
-1250.607968614444
 20
1805.273806972073
 30
0.0
 11
-1290.090251590181
 21
1775.063293304102
 31
0.0
  0
ARC
  5
D1F
330
D0F
100
AcDbEntity
  8
OUTLINE
  6
Continuous
 62
     0
440
 16777216
370
    -2
100
AcDbCircle
 10
-1170.677183178115
 20
1866.434152927746
 30
0.0
 40
137.8599511038371
100
AcDbArc
 50
175.8434919316499
 51
180.0004895086718
  0
LINE
  5
D20
330
D0F
100
AcDbEntity
  8
OUTLINE
  6
Continuous
 62
     0
440
 16777216
370
    -2
100
AcDbLine
 10
-1308.174532743773
 20
1876.426398960126
 30
0.0
 11
-1294.403116672965
 21
2065.926657797429
 31
0.0
  0
ARC
  5
D21
330
D0F
100
AcDbEntity
  8
OUTLINE
  6
Continuous
 62
     0
440
 16777216
370
    -2
100
AcDbCircle
 10
-1170.677183178115
 20
1866.434152927746
 30
0.0
 40
137.8599511038371
100
AcDbArc
 50
184.1574870856937
 51
213.2650024229782
  0
INSERT
  5
D22
330
D0F
100
AcDbEntity
  8
OUTLINE
  6
Continuous
 62
     0
440
 16777216
370
    -2
100
AcDbBlockReference
  2
_ORIGIN
 10
-1308.537134276921
 20
1866.432975116009
 30
0.0
 41
10.0
 42
10.0
 43
10.0
 50
92.07898829718279
  0
INSERT
  5
D23
330
D0F
100
AcDbEntity
  8
OUTLINE
  6
Continuous
 62
     0
440
 16777216
370
    -2
100
AcDbBlockReference
  2
_ORIGIN
 10
-1280.162984760199
 20
1782.65930365733
 30
0.0
 41
10.0
 42
10.0
 43
10.0
 50
305.3435012114892
  0
MTEXT
  5
D24
330
D0F
100
AcDbEntity
  8
OUTLINE
  6
Continuous
 62
     0
440
 16777216
100
AcDbMText
 10
-1276.354580124514
 20
1969.364499948408
 30
0.0
 40
30.0
 41
0.0
 46
0.0
 71
     5
 72
     1
  1
\A1;37.422°
 11
-0.072481137214782
 21
-0.9973697833542242
 31
0.0
 73
     1
 44
1.0
  0
POINT
  5
D25
330
D0F
100
AcDbEntity
  8
DEFPOINTS
  6
Continuous
 62
     0
440
 16777216
100
AcDbPoint
 10
-1295.673390355088
 20
1808.285083204116
 30
0.0
  0
POINT
  5
D26
330
D0F
100
AcDbEntity
  8
DEFPOINTS
  6
Continuous
 62
     0
440
 16777216
100
AcDbPoint
 10
-1170.677183178115
 20
1866.434152927746
 30
0.0
  0
POINT
  5
D27
330
D0F
100
AcDbEntity
  8
DEFPOINTS
  6
Continuous
 62
     0
440
 16777216
100
AcDbPoint
 10
-1170.677183178115
 20
1866.434152927746
 30
0.0
  0
POINT
  5
D28
330
D0F
100
AcDbEntity
  8
DEFPOINTS
  6
Continuous
 62
     0
440
 16777216
100
AcDbPoint
 10
-1242.666155150459
 20
1811.350615254655
 30
0.0
  0
POINT
  5
D29
330
D0F
100
AcDbEntity
  8
DEFPOINTS
  6
Continuous
 62
     0
440
 16777216
100
AcDbPoint
 10
-1595.332006581013
 20
1866.430524873108
 30
0.0
  0
ENDBLK
  5
D11
330
D0F
100
AcDbEntity
  8
0
100
AcDbBlockEnd
  0
BLOCK
  5
EE3
330
EE2
100
AcDbEntity
  8
0
100
AcDbBlockBegin
  2
*D17
 70
     1
 10
0.0
 20
0.0
 30
0.0
  3
*D17
  1

  0
LINE
  5
EE5
330
EE2
100
AcDbEntity
  8
OUTLINE
  6
Continuous
 62
     0
440
 16777216
370
    -2
100
AcDbLine
 10
465.5205347838299
 20
1456.517381859203
 30
0.0
 11
1215.361675995821
 21
1456.517381859203
 31
0.0
  0
LINE
  5
EE6
330
EE2
100
AcDbEntity
  8
OUTLINE
  6
Continuous
 62
     0
440
 16777216
370
    -2
100
AcDbLine
 10
520.0369406814949
 20
0.0000000000000016
 30
0.0
 11
1215.361675995821
 21
0.0000000000001134
 31
0.0
  0
LINE
  5
EE7
330
EE2
100
AcDbEntity
  8
OUTLINE
  6
Continuous
 62
     0
440
 16777216
370
    -2
100
AcDbLine
 10
1202.861675995821
 20
1446.517381859204
 30
0.0
 11
1202.861675995821
 21
10.00000000000011
 31
0.0
  0
INSERT
  5
EE8
330
EE2
100
AcDbEntity
  8
OUTLINE
  6
Continuous
 62
     0
440
 16777216
370
    -2
100
AcDbBlockReference
  2
_ORIGIN
 10
1202.861675995821
 20
1456.517381859203
 30
0.0
 41
10.0
 42
10.0
 43
10.0
 50
90.0
  0
INSERT
  5
EE9
330
EE2
100
AcDbEntity
  8
OUTLINE
  6
Continuous
 62
     0
440
 16777216
370
    -2
100
AcDbBlockReference
  2
_ORIGIN
 10
1202.861675995821
 20
0.0000000000001114
 30
0.0
 41
10.0
 42
10.0
 43
10.0
 50
270.0
  0
MTEXT
  5
EEA
330
EE2
100
AcDbEntity
  8
OUTLINE
  6
Continuous
 62
     0
440
 16777216
100
AcDbMText
 10
1177.861675995821
 20
728.2586909296012
 30
0.0
 40
30.0
 41
0.0
 46
0.0
 71
     5
 72
     1
  1
\A1;1456.5174
 11
0.0000000000000001
 21
1.0
 31
0.0
 73
     1
 44
1.0
  0
POINT
  5
EEB
330
EE2
100
AcDbEntity
  8
DEFPOINTS
  6
Continuous
 62
     0
440
 16777216
100
AcDbPoint
 10
455.5205347838302
 20
1456.517381859203
 30
0.0
  0
POINT
  5
EEC
330
EE2
100
AcDbEntity
  8
DEFPOINTS
  6
Continuous
 62
     0
440
 16777216
100
AcDbPoint
 10
510.0369406814949
 20
0.0
 30
0.0
  0
POINT
  5
EED
330
EE2
100
AcDbEntity
  8
DEFPOINTS
  6
Continuous
 62
     0
440
 16777216
100
AcDbPoint
 10
1202.861675995821
 20
0.0000000000001114
 30
0.0
  0
ENDBLK
  5
EE4
330
EE2
100
AcDbEntity
  8
0
100
AcDbBlockEnd
  0
BLOCK
  5
10F7
330
10F6
100
AcDbEntity
  8
0
100
AcDbBlockBegin
  2
*D18
 70
     1
 10
0.0
 20
0.0
 30
0.0
  3
*D18
  1

  0
ARC
  5
1104
330
10F6
100
AcDbEntity
  8
OUTLINE
  6
Continuous
 62
     0
440
 16777216
370
    -2
100
AcDbCircle
 10
-3102.086151894665
 20
674.8993721647517
 30
0.0
 40
70.6748932245873
100
AcDbArc
 50
134.8867620289269
 51
143.0004895086719
  0
LINE
  5
1105
330
10F6
100
AcDbEntity
  8
OUTLINE
  6
Continuous
 62
     0
440
 16777216
370
    -2
100
AcDbLine
 10
-3151.961981853677
 20
724.9727395191301
 30
0.0
 11
-3024.431458459091
 21
852.0001601916089
 31
0.0
  0
ARC
  5
1106
330
10F6
100
AcDbEntity
  8
OUTLINE
  6
Continuous
 62
     0
440
 16777216
370
    -2
100
AcDbCircle
 10
-3102.086151894665
 20
674.8993721647517
 30
0.0
 40
70.6748932245873
100
AcDbArc
 50
151.1142169884168
 51
172.6862725202551
  0
INSERT
  5
1107
330
10F6
100
AcDbEntity
  8
OUTLINE
  6
Continuous
 62
     0
440
 16777216
370
    -2
100
AcDbBlockReference
  2
_ORIGIN
 10
-3158.52999467468
 20
717.4321024384096
 30
0.0
 41
10.0
 42
10.0
 43
10.0
 50
57.05735324854437
  0
INSERT
  5
1108
330
10F6
100
AcDbEntity
  8
OUTLINE
  6
Continuous
 62
     0
440
 16777216
370
    -2
100
AcDbBlockReference
  2
_ORIGIN
 10
-3172.754156014018
 20
673.9125965601
 30
0.0
 41
10.0
 42
10.0
 43
10.0
 50
266.7431362601277
  0
MTEXT
  5
1109
330
10F6
100
AcDbEntity
  8
OUTLINE
  6
Continuous
 62
     0
440
 16777216
100
AcDbMText
 10
-3105.839417472006
 20
806.1990225490625
 30
0.0
 40
30.0
 41
0.0
 46
0.0
 71
     5
 72
     1
  1
\A1;37.800°
 11
0.7085029077477028
 21
0.705707892624881
 31
0.0
 73
     1
 44
1.0
  0
POINT
  5
110A
330
10F6
100
AcDbEntity
  8
DEFPOINTS
  6
Continuous
 62
     0
440
 16777216
100
AcDbPoint
 10
-3171.267541235315
 20
689.3519117756348
 30
0.0
  0
POINT
  5
110B
330
10F6
100
AcDbEntity
  8
DEFPOINTS
  6
Continuous
 62
     0
440
 16777216
100
AcDbPoint
 10
-3102.086151894665
 20
674.8993721647517
 30
0.0
  0
POINT
  5
110C
330
10F6
100
AcDbEntity
  8
DEFPOINTS
  6
Continuous
 62
     0
440
 16777216
100
AcDbPoint
 10
-3102.086151894665
 20
674.8993721647517
 30
0.0
  0
POINT
  5
110D
330
10F6
100
AcDbEntity
  8
DEFPOINTS
  6
Continuous
 62
     0
440
 16777216
100
AcDbPoint
 10
-3231.005610362139
 20
673.099199962835
 30
0.0
  0
POINT
  5
110E
330
10F6
100
AcDbEntity
  8
DEFPOINTS
  6
Continuous
 62
     0
440
 16777216
100
AcDbPoint
 10
-3441.232756794867
 20
930.4601270493291
 30
0.0
  0
ENDBLK
  5
10F8
330
10F6
100
AcDbEntity
  8
0
100
AcDbBlockEnd
  0
ENDSEC
  0
SECTION
  2
ENTITIES
  0
LINE
  5
1E2
330
6F
100
AcDbEntity
  8
OUTLINE
  6
Continuous
100
AcDbLine
 10
-454.3516227028821
 20
353.6458082669857
 30
0.0
 11
-453.4138679945075
 21
351.4365966186996
 31
0.0
  0
LINE
  5
1E8
330
6F
100
AcDbEntity
  8
OUTLINE
  6
Continuous
100
AcDbLine
 10
-445.8282426106229
 20
735.7808519294787
 30
0.0
 11
-446.7659973189973
 21
733.5716402811923
 31
0.0
  0
LINE
  5
23F
330
6F
100
AcDbEntity
  8
DETAIL
  6
Continuous
100
AcDbLine
 10
-445.8282426106229
 20
735.7808519294787
 30
0.0
 11
-446.7659973189973
 21
733.5716402811923
 31
0.0
  0
LINE
  5
29A
330
6F
100
AcDbEntity
  8
DETAIL
  6
Continuous
100
AcDbLine
 10
-454.3516227028821
 20
353.6458082669857
 30
0.0
 11
-453.4138679945075
 21
351.4365966186996
 31
0.0
  0
CIRCLE
  5
38E
330
6F
100
AcDbEntity
  8
ARRANGE
  6
Continuous
100
AcDbCircle
 10
0.0
 20
0.0
 30
0.0
 40
15.0
  0
TEXT
  5
395
330
6F
100
AcDbEntity
  8
ETC
  6
Continuous
100
AcDbText
 10
705.5688620682142
 20
2232.212646484375
 30
0.0
 40
40.0
  1
TGT124BC2
 50
0.0000024148365395
 41
0.6125000238418579
  7
STANDARD1
100
AcDbText
  0
TEXT
  5
396
330
6F
100
AcDbEntity
  8
ETC
  6
Continuous
100
AcDbText
 10
705.5688620682142
 20
2162.212646484375
 30
0.0
 40
40.0
  1
防雪架台(防雪板後・左)
 50
0.0000024148365395
 41
0.8107142891202649
  7
STANDARD1
100
AcDbText
  0
LINE
  5
3B2
330
6F
100
AcDbEntity
  8
DETAIL
  6
Continuous
100
AcDbLine
 10
-485.32946521617
 20
1058.349999999999
 30
0.0
 11
-485.32946521617
 21
1037.65
 31
0.0
  0
LINE
  5
3B3
330
6F
100
AcDbEntity
  8
DETAIL
  6
Continuous
100
AcDbLine
 10
-485.3130593185047
 20
1227.999999999999
 30
0.0
 11
-485.3130593185047
 21
1207.3
 31
0.0
  0
LINE
  5
3B6
330
6F
100
AcDbEntity
  8
DETAIL
  6
Continuous
100
AcDbLine
 10
-494.6130593185046
 20
1207.3
 30
0.0
 11
-494.6130593185046
 21
1227.999999999999
 31
0.0
  0
LINE
  5
3B7
330
6F
100
AcDbEntity
  8
DETAIL
  6
Continuous
100
AcDbLine
 10
-494.6294652161701
 20
1037.65
 30
0.0
 11
-494.6294652161701
 21
1058.349999999999
 31
0.0
  0
LINE
  5
3BA
330
6F
100
AcDbEntity
  8
DETAIL
  6
Continuous
100
AcDbLine
 10
-501.5794652161694
 20
1460.367381859203
 30
0.0
 11
-501.5794652161694
 21
1456.867381859202
 31
0.0
  0
LINE
  5
3BD
330
6F
100
AcDbEntity
  8
DETAIL
  6
Continuous
100
AcDbLine
 10
-506.9794652161702
 20
1020.317381859202
 30
0.0
 11
-506.9794652161702
 21
1456.867381859202
 31
0.0
  0
LINE
  5
3BE
330
6F
100
AcDbEntity
  8
DETAIL
  6
Continuous
100
AcDbLine
 10
-509.9794652161701
 20
939.3173818592025
 30
0.0
 11
-509.9794652161701
 21
1477.517381859203
 31
0.0
  0
LINE
  5
3BF
330
6F
100
AcDbEntity
  8
DETAIL
  6
Continuous
100
AcDbLine
 10
-510.7794652161701
 20
939.3173818592025
 30
0.0
 11
-510.7794652161701
 21
1464.517381859203
 31
0.0
  0
LINE
  5
3C0
330
6F
100
AcDbEntity
  8
DETAIL
  6
Continuous
100
AcDbLine
 10
-511.5794652161696
 20
1451.117381859202
 30
0.0
 11
-511.5794652161696
 21
1464.517381859203
 31
0.0
  0
LINE
  5
3C1
330
6F
100
AcDbEntity
  8
DETAIL
  6
Continuous
100
AcDbLine
 10
-511.8794652161696
 20
1453.917381859203
 30
0.0
 11
-511.8794652161696
 21
1463.317381859203
 31
0.0
  0
LINE
  5
3C6
330
6F
100
AcDbEntity
  8
DETAIL
  6
DASHED
100
AcDbLine
 10
-509.9794652161701
 20
1460.067381859203
 30
0.0
 11
-510.7794652161701
 21
1460.067381859203
 31
0.0
  0
LINE
  5
3C7
330
6F
100
AcDbEntity
  8
DETAIL
  6
DASHED
100
AcDbLine
 10
-509.9794652161701
 20
1457.167381859202
 30
0.0
 11
-510.7794652161701
 21
1457.167381859202
 31
0.0
  0
LINE
  5
3C8
330
6F
100
AcDbEntity
  8
DETAIL
  6
DASHED
100
AcDbLine
 10
-509.9794652161701
 20
1465.067342336203
 30
0.0
 11
-509.9794652161701
 21
1462.167421382203
 31
0.0
  0
LINE
  5
3C9
330
6F
100
AcDbEntity
  8
DETAIL
  6
DASHED
100
AcDbLine
 10
-510.7794652161701
 20
1452.067342336203
 30
0.0
 11
-510.7794652161701
 21
1449.167421382203
 31
0.0
  0
LINE
  5
3F8
330
6F
100
AcDbEntity
  8
DETAIL
  6
DASHED
100
AcDbLine
 10
-412.3794652161696
 20
1464.517381859203
 30
0.0
 11
-411.5794652161696
 21
1464.517381859203
 31
0.0
  0
LINE
  5
3FA
330
6F
100
AcDbEntity
  8
DETAIL
  6
DASHED
100
AcDbLine
 10
409.0205347838303
 20
1464.517381859203
 30
0.0
 11
-408.9794652161701
 21
1464.517381859203
 31
0.0
  0
LINE
  5
3FD
330
6F
100
AcDbEntity
  8
DETAIL
  6
Continuous
100
AcDbLine
 10
507.0205347838299
 20
1459.517381859203
 30
0.0
 11
502.0205347838298
 21
1464.517381859203
 31
0.0
  0
LINE
  5
403
330
6F
100
AcDbEntity
  8
DETAIL
  6
Continuous
100
AcDbLine
 10
507.0205347838299
 20
1130.317381859202
 30
0.0
 11
507.0205347838299
 21
1459.517381859203
 31
0.0
  0
LINE
  5
405
330
6F
100
AcDbEntity
  8
DETAIL
  6
Continuous
100
AcDbLine
 10
494.6869406814952
 20
1158.35
 30
0.0
 11
494.6869406814952
 21
1137.649999999999
 31
0.0
  0
LINE
  5
407
330
6F
100
AcDbEntity
  8
DETAIL
  6
Continuous
100
AcDbLine
 10
494.67053478383
 20
1458.0
 30
0.0
 11
494.67053478383
 21
1437.299999999999
 31
0.0
  0
LINE
  5
408
330
6F
100
AcDbEntity
  8
DETAIL
  6
DASHED
100
AcDbLine
 10
-510.7794652161701
 20
1462.617381859202
 30
0.0
 11
-511.5794652161696
 21
1462.617381859202
 31
0.0
  0
LINE
  5
409
330
6F
100
AcDbEntity
  8
DETAIL
  6
Continuous
100
AcDbLine
 10
485.3705347838299
 20
1437.299999999999
 30
0.0
 11
485.3705347838299
 21
1458.0
 31
0.0
  0
LINE
  5
40A
330
6F
100
AcDbEntity
  8
DETAIL
  6
DASHED
100
AcDbLine
 10
-509.9794652161701
 20
1461.317381859203
 30
0.0
 11
-510.7794652161701
 21
1461.317381859203
 31
0.0
  0
LINE
  5
40B
330
6F
100
AcDbEntity
  8
DETAIL
  6
Continuous
100
AcDbLine
 10
485.3869406814951
 20
1137.649999999999
 30
0.0
 11
485.3869406814951
 21
1158.35
 31
0.0
  0
LINE
  5
40C
330
6F
100
AcDbEntity
  8
DETAIL
  6
DASHED
100
AcDbLine
 10
-512.3794652161698
 20
1460.617381859203
 30
0.0
 11
-513.7218193471701
 21
1460.617381859203
 31
0.0
  0
LINE
  5
40E
330
6F
100
AcDbEntity
  8
DETAIL
  6
DASHED
100
AcDbLine
 10
-511.5794652161696
 20
1460.367381859203
 30
0.0
 11
-509.9794652161701
 21
1460.367381859203
 31
0.0
  0
LINE
  5
410
330
6F
100
AcDbEntity
  8
DETAIL
  6
DASHED
100
AcDbLine
 10
-512.3794652161698
 20
1459.117381859202
 30
0.0
 11
-513.7218193471701
 21
1459.117381859202
 31
0.0
  0
LINE
  5
412
330
6F
100
AcDbEntity
  8
DETAIL
  6
DASHED
100
AcDbLine
 10
-512.3794652161698
 20
1458.117381859202
 30
0.0
 11
-513.7218193471701
 21
1458.117381859202
 31
0.0
  0
LINE
  5
414
330
6F
100
AcDbEntity
  8
DETAIL
  6
DASHED
100
AcDbLine
 10
-511.5794652161696
 20
1456.867381859202
 30
0.0
 11
-509.9794652161701
 21
1456.867381859202
 31
0.0
  0
LINE
  5
416
330
6F
100
AcDbEntity
  8
DETAIL
  6
DASHED
100
AcDbLine
 10
-512.3794652161698
 20
1456.617381859203
 30
0.0
 11
-513.7218193471701
 21
1456.617381859203
 31
0.0
  0
LINE
  5
418
330
6F
100
AcDbEntity
  8
DETAIL
  6
DASHED
100
AcDbLine
 10
-510.7794652161701
 20
1454.617381859202
 30
0.0
 11
-511.5794652161696
 21
1454.617381859202
 31
0.0
  0
LINE
  5
41A
330
6F
100
AcDbEntity
  8
DETAIL
  6
DASHED
100
AcDbLine
 10
-509.9794652161701
 20
1436.317381859203
 30
0.0
 11
-510.7794652161701
 21
1436.317381859203
 31
0.0
  0
LINE
  5
42B
330
6F
100
AcDbEntity
  8
DETAIL
  6
Continuous
100
AcDbLine
 10
409.0205347838303
 20
1455.317381859202
 30
0.0
 11
409.0205347838303
 21
1465.317381859203
 31
0.0
  0
LINE
  5
42C
330
6F
100
AcDbEntity
  8
DETAIL
  6
DASHED
100
AcDbLine
 10
-509.9794652161701
 20
1236.317381859203
 30
0.0
 11
-510.7794652161701
 21
1236.317381859203
 31
0.0
  0
LINE
  5
431
330
6F
100
AcDbEntity
  8
DETAIL
  6
DASHED
100
AcDbLine
 10
-501.5794652161694
 20
1460.617381859203
 30
0.0
 11
-501.5794652161694
 21
1456.617381859203
 31
0.0
  0
LINE
  5
434
330
6F
100
AcDbEntity
  8
DETAIL
  6
DASHED
100
AcDbLine
 10
-511.5794652161696
 20
1460.617381859203
 30
0.0
 11
-511.5794652161696
 21
1456.617381859203
 31
0.0
  0
LINE
  5
435
330
6F
100
AcDbEntity
  8
DETAIL
  6
Continuous
100
AcDbLine
 10
-509.9794652161701
 20
1466.117381859202
 30
0.0
 11
-413.17946521617
 21
1466.117381859202
 31
0.0
  0
LINE
  5
437
330
6F
100
AcDbEntity
  8
DETAIL
  6
Continuous
100
AcDbLine
 10
-509.9794652161701
 20
1465.317381859203
 30
0.0
 11
-413.17946521617
 21
1465.317381859203
 31
0.0
  0
LINE
  5
439
330
6F
100
AcDbEntity
  8
DETAIL
  6
Continuous
100
AcDbLine
 10
409.0205347838303
 20
1465.317381859203
 30
0.0
 11
-408.9794652161701
 21
1465.317381859203
 31
0.0
  0
LINE
  5
43B
330
6F
100
AcDbEntity
  8
DETAIL
  6
Continuous
100
AcDbLine
 10
-411.5794652161696
 20
1464.517381859203
 30
0.0
 11
-408.9794652161701
 21
1464.517381859203
 31
0.0
  0
LINE
  5
43C
330
6F
100
AcDbEntity
  8
DETAIL
  6
DASHED
100
AcDbLine
 10
-509.9794652161701
 20
1206.317381859203
 30
0.0
 11
-510.7794652161701
 21
1206.317381859203
 31
0.0
  0
LINE
  5
43D
330
6F
100
AcDbEntity
  8
DETAIL
  6
Continuous
100
AcDbLine
 10
-510.7794652161701
 20
1464.517381859203
 30
0.0
 11
-412.3794652161696
 21
1464.517381859203
 31
0.0
  0
LINE
  5
43F
330
6F
100
AcDbEntity
  8
DETAIL
  6
Continuous
100
AcDbLine
 10
502.0205347838298
 20
1464.517381859203
 30
0.0
 11
409.0205347838303
 21
1464.517381859203
 31
0.0
  0
LINE
  5
441
330
6F
100
AcDbEntity
  8
DETAIL
  6
Continuous
100
AcDbLine
 10
-511.8794652161696
 20
1463.317381859203
 30
0.0
 11
-511.5794652161696
 21
1463.317381859203
 31
0.0
  0
LINE
  5
443
330
6F
100
AcDbEntity
  8
DETAIL
  6
Continuous
100
AcDbLine
 10
-412.3794652161696
 20
1461.117381859202
 30
0.0
 11
-411.5794652161696
 21
1461.117381859202
 31
0.0
  0
LINE
  5
445
330
6F
100
AcDbEntity
  8
DETAIL
  6
Continuous
100
AcDbLine
 10
-513.7434694911701
 20
1460.617381859203
 30
0.0
 11
-513.7218193471701
 21
1460.617381859203
 31
0.0
  0
LINE
  5
447
330
6F
100
AcDbEntity
  8
DETAIL
  6
Continuous
100
AcDbLine
 10
-509.9794652161701
 20
1460.367381859203
 30
0.0
 11
-501.5794652161694
 21
1460.367381859203
 31
0.0
  0
LINE
  5
449
330
6F
100
AcDbEntity
  8
DETAIL
  6
Continuous
100
AcDbLine
 10
-510.7794652161701
 20
1459.517381859203
 30
0.0
 11
-509.9794652161701
 21
1459.517381859203
 31
0.0
  0
LINE
  5
44B
330
6F
100
AcDbEntity
  8
DETAIL
  6
Continuous
100
AcDbLine
 10
-514.0384813581697
 20
1459.117381859202
 30
0.0
 11
-513.7218193471701
 21
1459.117381859202
 31
0.0
  0
LINE
  5
44D
330
6F
100
AcDbEntity
  8
DETAIL
  6
Continuous
100
AcDbLine
 10
-513.7218193471701
 20
1458.117381859202
 30
0.0
 11
-514.0384813581697
 21
1458.117381859202
 31
0.0
  0
LINE
  5
44F
330
6F
100
AcDbEntity
  8
DETAIL
  6
Continuous
100
AcDbLine
 10
-509.9794652161701
 20
1456.867381859202
 30
0.0
 11
-501.5794652161694
 21
1456.867381859202
 31
0.0
  0
LINE
  5
451
330
6F
100
AcDbEntity
  8
DETAIL
  6
Continuous
100
AcDbLine
 10
-513.7218193471701
 20
1456.617381859203
 30
0.0
 11
-513.7434694911701
 21
1456.617381859203
 31
0.0
  0
LINE
  5
453
330
6F
100
AcDbEntity
  8
DETAIL
  6
Continuous
100
AcDbLine
 10
-412.3794652161696
 20
1456.117381859202
 30
0.0
 11
-411.5794652161696
 21
1456.117381859202
 31
0.0
  0
LINE
  5
455
330
6F
100
AcDbEntity
  8
DETAIL
  6
Continuous
100
AcDbLine
 10
-511.5794652161696
 20
1456.117381859202
 30
0.0
 11
-510.7794652161701
 21
1456.117381859202
 31
0.0
  0
LINE
  5
456
330
6F
100
AcDbEntity
  8
DETAIL
  6
Continuous
100
AcDbLine
 10
409.0205347838303
 20
1455.317381859202
 30
0.0
 11
-408.9794652161701
 21
1455.317381859202
 31
0.0
  0
LINE
  5
458
330
6F
100
AcDbEntity
  8
DETAIL
  6
Continuous
100
AcDbLine
 10
-511.8794652161696
 20
1453.917381859203
 30
0.0
 11
-511.5794652161696
 21
1453.917381859203
 31
0.0
  0
LINE
  5
45A
330
6F
100
AcDbEntity
  8
DETAIL
  6
Continuous
100
AcDbLine
 10
-511.5794652161696
 20
1451.117381859202
 30
0.0
 11
-510.7794652161701
 21
1451.117381859202
 31
0.0
  0
LINE
  5
45C
330
6F
100
AcDbEntity
  8
DETAIL
  6
Continuous
100
AcDbLine
 10
507.0205347838299
 20
1130.317381859202
 30
0.0
 11
502.0205347838298
 21
1125.317381859202
 31
0.0
  0
LINE
  5
45E
330
6F
100
AcDbEntity
  8
DETAIL
  6
Continuous
100
AcDbLine
 10
307.0205347838303
 20
945.3173818592023
 30
0.0
 11
307.0205347838303
 21
1125.317381859202
 31
0.0
  0
ARC
  5
462
330
6F
100
AcDbEntity
  8
DETAIL
  6
Continuous
100
AcDbCircle
 10
490.0205347838293
 20
1437.299999999999
 30
0.0
 40
4.649999999999637
100
AcDbArc
 50
180.0
 51
0.0
  0
ARC
  5
465
330
6F
100
AcDbEntity
  8
DETAIL
  6
Continuous
100
AcDbCircle
 10
490.0205347838293
 20
1458.0
 30
0.0
 40
4.649999999999637
100
AcDbArc
 50
0.0
 51
180.0
  0
LINE
  5
467
330
6F
100
AcDbEntity
  8
DETAIL
  6
DASHED
100
AcDbLine
 10
-509.9794652161701
 20
1066.317381859202
 30
0.0
 11
-510.7794652161701
 21
1066.317381859202
 31
0.0
  0
ARC
  5
468
330
6F
100
AcDbEntity
  8
DETAIL
  6
Continuous
100
AcDbCircle
 10
490.0369406814948
 20
1158.35
 30
0.0
 40
4.649999999999637
100
AcDbArc
 50
0.0
 51
180.0
  0
ARC
  5
46B
330
6F
100
AcDbEntity
  8
DETAIL
  6
Continuous
100
AcDbCircle
 10
490.0369406814948
 20
1137.649999999999
 30
0.0
 40
4.649999999999637
100
AcDbArc
 50
180.0
 51
0.0
  0
LINE
  5
470
330
6F
100
AcDbEntity
  8
DETAIL
  6
DASHED
100
AcDbLine
 10
-509.9794652161701
 20
1026.317381859202
 30
0.0
 11
-510.7794652161701
 21
1026.317381859202
 31
0.0
  0
ARC
  5
471
330
6F
100
AcDbEntity
  8
DETAIL
  6
Continuous
100
AcDbCircle
 10
487.3181352117336
 20
721.5790150111279
 30
0.0
 40
4.650000000000056
100
AcDbArc
 50
53.378489508606
 51
233.3784895086061
  0
LINE
  5
472
330
6F
100
AcDbEntity
  8
DETAIL
  6
Continuous
100
AcDbLine
 10
302.0205347838304
 20
945.3173818592023
 30
0.0
 11
302.0205347838304
 21
946.1173818592024
 31
0.0
  0
ARC
  5
47A
330
6F
100
AcDbEntity
  8
DETAIL
  6
Continuous
100
AcDbCircle
 10
-413.17946521617
 20
1464.517381859203
 30
0.0
 40
0.8000000000001817
100
AcDbArc
 50
0.0
 51
90.0
  0
ARC
  5
47D
330
6F
100
AcDbEntity
  8
DETAIL
  6
Continuous
100
AcDbCircle
 10
-413.17946521617
 20
1464.517381859203
 30
0.0
 40
1.60000000000036
100
AcDbArc
 50
0.0
 51
90.0
  0
ARC
  5
48F
330
6F
100
AcDbEntity
  8
DETAIL
  6
Continuous
100
AcDbCircle
 10
-509.9794652161701
 20
1464.517381859203
 30
0.0
 40
0.8000000000001817
100
AcDbArc
 50
90.0
 51
180.0
  0
ARC
  5
492
330
6F
100
AcDbEntity
  8
DETAIL
  6
Continuous
100
AcDbCircle
 10
-509.9794652161701
 20
1464.517381859203
 30
0.0
 40
1.599999999999909
100
AcDbArc
 50
90.0
 51
180.0
  0
ARC
  5
495
330
6F
100
AcDbEntity
  8
DETAIL
  6
Continuous
100
AcDbCircle
 10
-507.9590106711703
 20
1458.617381859203
 30
0.0
 40
5.784458819999712
100
AcDbArc
 50
175.0412501034984
 51
184.9587498964993
  0
ARC
  5
498
330
6F
100
AcDbEntity
  8
DETAIL
  6
Continuous
100
AcDbCircle
 10
-507.9590106711703
 20
1458.617381859203
 30
0.0
 40
6.099997035999337
100
AcDbArc
 50
184.7016524862015
 51
199.1394841120016
  0
ARC
  5
49B
330
6F
100
AcDbEntity
  8
DETAIL
  6
Continuous
100
AcDbCircle
 10
-507.9590106711703
 20
1458.617381859203
 30
0.0
 40
6.099997035999356
100
AcDbArc
 50
160.8605158879958
 51
175.2983475137985
  0
ARC
  5
49E
330
6F
100
AcDbEntity
  8
DETAIL
  6
Continuous
100
AcDbCircle
 10
-507.9590106711703
 20
1458.617381859203
 30
0.0
 40
6.120454544999796
100
AcDbArc
 50
199.0730333131001
 51
230.1671880124028
  0
ARC
  5
4A1
330
6F
100
AcDbEntity
  8
DETAIL
  6
Continuous
100
AcDbCircle
 10
-507.9590106711703
 20
1458.617381859203
 30
0.0
 40
6.120454544999526
100
AcDbArc
 50
129.8328119875951
 51
160.9269666868969
  0
ARC
  5
4A4
330
6F
100
AcDbEntity
  8
DETAIL
  6
Continuous
100
AcDbCircle
 10
-489.963059318505
 20
1227.999999999999
 30
0.0
 40
4.650000000000543
100
AcDbArc
 50
0.0
 51
180.0
  0
ARC
  5
4A7
330
6F
100
AcDbEntity
  8
DETAIL
  6
Continuous
100
AcDbCircle
 10
-489.963059318505
 20
1207.3
 30
0.0
 40
4.649999999999637
100
AcDbArc
 50
180.0
 51
0.0
  0
ARC
  5
4AA
330
6F
100
AcDbEntity
  8
DETAIL
  6
Continuous
100
AcDbCircle
 10
-489.9794652161705
 20
1058.349999999999
 30
0.0
 40
4.650000000000543
100
AcDbArc
 50
0.0
 51
180.0
  0
ARC
  5
4AD
330
6F
100
AcDbEntity
  8
DETAIL
  6
Continuous
100
AcDbCircle
 10
-489.9794652161705
 20
1037.65
 30
0.0
 40
4.649999999999637
100
AcDbArc
 50
180.0
 51
0.0
  0
LINE
  5
4AE
330
6F
100
AcDbEntity
  8
DETAIL
  6
Continuous
100
AcDbLine
 10
502.0205347838298
 20
1125.317381859202
 30
0.0
 11
307.0205347838303
 21
1125.317381859202
 31
0.0
  0
LINE
  5
4BE
330
6F
100
AcDbEntity
  8
DETAIL
  6
Continuous
100
AcDbLine
 10
-510.7794652161701
 20
1025.317381859202
 30
0.0
 11
-509.9794652161701
 21
1025.317381859202
 31
0.0
  0
LINE
  5
4C0
330
6F
100
AcDbEntity
  8
DETAIL
  6
Continuous
100
AcDbLine
 10
-501.9794652161701
 20
1015.317381859203
 30
0.0
 11
-466.9794652161701
 21
1015.317381859203
 31
0.0
  0
LINE
  5
4C1
330
6F
100
AcDbEntity
  8
DETAIL
  6
DASHED
100
AcDbLine
 10
-512.3794652161698
 20
1460.617381859203
 30
0.0
 11
-512.3794652161698
 21
1456.617381859203
 31
0.0
  0
LINE
  5
4C2
330
6F
100
AcDbEntity
  8
DETAIL
  6
Continuous
100
AcDbLine
 10
-510.7794652161701
 20
1020.317381859203
 30
0.0
 11
-509.9794652161701
 21
1020.317381859203
 31
0.0
  0
LINE
  5
4C4
330
6F
100
AcDbEntity
  8
DETAIL
  6
Continuous
100
AcDbLine
 10
-466.9794652161701
 20
946.1173818592024
 30
0.0
 11
307.0205347838303
 21
946.1173818592024
 31
0.0
  0
LINE
  5
4C6
330
6F
100
AcDbEntity
  8
DETAIL
  6
Continuous
100
AcDbLine
 10
-466.9794652161701
 20
945.3173818592023
 30
0.0
 11
307.0205347838303
 21
945.3173818592023
 31
0.0
  0
LINE
  5
4C8
330
6F
100
AcDbEntity
  8
DETAIL
  6
Continuous
100
AcDbLine
 10
-509.9794652161701
 20
944.3173818592024
 30
0.0
 11
-510.7794652161701
 21
944.3173818592024
 31
0.0
  0
LINE
  5
4C9
330
6F
100
AcDbEntity
  8
DETAIL
  6
Continuous
100
AcDbLine
 10
-509.9794652161701
 20
939.3173818592025
 30
0.0
 11
-510.7794652161701
 21
939.3173818592025
 31
0.0
  0
LINE
  5
4DA
330
6F
100
AcDbEntity
  8
DETAIL
  6
Continuous
100
AcDbLine
 10
-506.9794652161702
 20
1020.317381859202
 30
0.0
 11
-501.9794652161701
 21
1015.317381859203
 31
0.0
  0
LINE
  5
4DE
330
6F
100
AcDbEntity
  8
DETAIL
  6
Continuous
100
AcDbLine
 10
-408.9794652161701
 20
1455.317381859202
 30
0.0
 11
-408.9794652161701
 21
1465.317381859203
 31
0.0
  0
LINE
  5
4DF
330
6F
100
AcDbEntity
  8
DETAIL
  6
Continuous
100
AcDbLine
 10
-411.5794652161696
 20
1456.117381859202
 30
0.0
 11
-411.5794652161696
 21
1464.517381859203
 31
0.0
  0
LINE
  5
4E0
330
6F
100
AcDbEntity
  8
DETAIL
  6
Continuous
100
AcDbLine
 10
-412.3794652161696
 20
1464.517381859203
 30
0.0
 11
-412.3794652161696
 21
1456.117381859202
 31
0.0
  0
LINE
  5
4E4
330
6F
100
AcDbEntity
  8
DETAIL
  6
Continuous
100
AcDbLine
 10
-461.9794652161702
 20
945.3173818592023
 30
0.0
 11
-461.9794652161702
 21
946.1173818592024
 31
0.0
  0
LINE
  5
4E5
330
6F
100
AcDbEntity
  8
DETAIL
  6
Continuous
100
AcDbLine
 10
-466.9794652161701
 20
945.3173818592023
 30
0.0
 11
-466.9794652161701
 21
1015.317381859203
 31
0.0
  0
LINE
  5
8E9
330
6F
100
AcDbEntity
  8
OUTLINE
  6
Continuous
100
AcDbLine
 10
-549.9630593185051
 20
1950.0
 30
0.0
 11
550.0369406814948
 21
1950.0
 31
0.0
  0
LINE
  5
8EA
330
6F
100
AcDbEntity
  8
OUTLINE
  6
Continuous
100
AcDbLine
 10
-549.9630593185051
 20
1680.0
 30
0.0
 11
550.0369406814948
 21
1680.0
 31
0.0
  0
LINE
  5
8EB
330
6F
100
AcDbEntity
  8
OUTLINE
  6
Continuous
100
AcDbLine
 10
550.0369406814948
 20
1950.0
 30
0.0
 11
550.0369406814948
 21
1632.0
 31
0.0
  0
LINE
  5
8EC
330
6F
100
AcDbEntity
  8
OUTLINE
  6
Continuous
100
AcDbLine
 10
-549.9630593185051
 20
1632.0
 30
0.0
 11
550.0369406814948
 21
1632.0
 31
0.0
  0
LINE
  5
8ED
330
6F
100
AcDbEntity
  8
OUTLINE
  6
Continuous
100
AcDbLine
 10
-549.9630593185051
 20
1950.0
 30
0.0
 11
-549.9630593185051
 21
1632.0
 31
0.0
  0
LINE
  5
8EE
330
6F
100
AcDbEntity
  8
OUTLINE
  6
Continuous
100
AcDbLine
 10
510.5369406814942
 20
1632.0
 30
0.0
 11
510.5369406814943
 21
839.9999999999996
 31
0.0
  0
LINE
  5
8EF
330
6F
100
AcDbEntity
  8
OUTLINE
  6
Continuous
100
AcDbLine
 10
472.5369406814943
 20
845.0000000000001
 30
0.0
 11
472.5369406814942
 21
1632.0
 31
0.0
  0
LINE
  5
8F0
330
6F
100
AcDbEntity
  8
OUTLINE
  6
Continuous
100
AcDbLine
 10
-472.463059318505
 20
845.0000000000001
 30
0.0
 11
-472.463059318505
 21
1632.0
 31
0.0
  0
LINE
  5
8F1
330
6F
100
AcDbEntity
  8
OUTLINE
  6
Continuous
100
AcDbLine
 10
-510.4630593185039
 20
1632.0
 30
0.0
 11
-510.463059318505
 21
839.9999999999995
 31
0.0
  0
LINE
  5
8F2
330
6F
100
AcDbEntity
  8
OUTLINE
  6
Continuous
100
AcDbLine
 10
-512.4630593185051
 20
959.9999999999996
 30
0.0
 11
-512.4630593185051
 21
59.9999999999998
 31
0.0
  0
LINE
  5
8F3
330
6F
100
AcDbEntity
  8
OUTLINE
  6
Continuous
100
AcDbLine
 10
-482.4630593185051
 20
959.9999999999996
 30
0.0
 11
-512.4630593185051
 21
959.9999999999996
 31
0.0
  0
ARC
  5
8F4
330
6F
100
AcDbEntity
  8
OUTLINE
  6
Continuous
100
AcDbCircle
 10
-547.4630593185048
 20
899.7176822079456
 30
0.0
 40
5.0
100
AcDbArc
 50
90.0
 51
180.0
  0
LINE
  5
8F5
330
6F
100
AcDbEntity
  8
OUTLINE
  6
Continuous
100
AcDbLine
 10
-552.4630593185054
 20
869.7176822079461
 30
0.0
 11
-552.4630593185054
 21
899.7176822079456
 31
0.0
  0
ARC
  5
8F6
330
6F
100
AcDbEntity
  8
OUTLINE
  6
Continuous
100
AcDbCircle
 10
-547.4630593185048
 20
869.7176822079461
 30
0.0
 40
5.0
100
AcDbArc
 50
180.0
 51
270.0
  0
LINE
  5
8F7
330
6F
100
AcDbEntity
  8
OUTLINE
  6
Continuous
100
AcDbLine
 10
-514.4630593185054
 20
864.7176822079462
 30
0.0
 11
-514.4630593185054
 21
904.7176822079455
 31
0.0
  0
LINE
  5
8F8
330
6F
100
AcDbEntity
  8
OUTLINE
  6
Continuous
100
AcDbLine
 10
-512.4630593185051
 20
864.7176822079462
 30
0.0
 11
-512.4630593185051
 21
904.7176822079455
 31
0.0
  0
LINE
  5
8F9
330
6F
100
AcDbEntity
  8
OUTLINE
  6
Continuous
100
AcDbLine
 10
-512.4630593185051
 20
904.7176822079455
 30
0.0
 11
-547.4630593185048
 21
904.7176822079455
 31
0.0
  0
LINE
  5
8FA
330
6F
100
AcDbEntity
  8
OUTLINE
  6
Continuous
100
AcDbLine
 10
-512.4630593185051
 20
864.7176822079462
 30
0.0
 11
-547.4630593185048
 21
864.7176822079462
 31
0.0
  0
LINE
  5
8FB
330
6F
100
AcDbEntity
  8
OUTLINE
  6
Continuous
100
AcDbLine
 10
-472.463059318505
 20
949.9999999999996
 30
0.0
 11
-472.463059318504
 21
343.3506946325057
 31
0.0
  0
LINE
  5
8FC
330
6F
100
AcDbEntity
  8
OUTLINE
  6
Continuous
100
AcDbLine
 10
-472.463059318505
 20
760.0000000000001
 30
0.0
 11
472.5369406814943
 21
759.9999999999995
 31
0.0
  0
ARC
  5
8FD
330
6F
100
AcDbEntity
  8
OUTLINE
  6
Continuous
100
AcDbCircle
 10
-482.4630593185051
 20
949.9999999999996
 30
0.0
 40
10.0
100
AcDbArc
 50
0.0
 51
90.0
  0
LINE
  5
8FE
330
6F
100
AcDbEntity
  8
OUTLINE
  6
Continuous
100
AcDbLine
 10
-305.8630593185039
 20
800.0000000000001
 30
0.0
 11
-305.8630593185039
 21
801.5999999999996
 31
0.0
  0
LINE
  5
8FF
330
6F
100
AcDbEntity
  8
OUTLINE
  6
Continuous
100
AcDbLine
 10
-222.4630593185052
 20
814.9999999999996
 30
0.0
 11
-277.4630593185051
 21
814.9999999999996
 31
0.0
  0
LINE
  5
900
330
6F
100
AcDbEntity
  8
OUTLINE
  6
Continuous
100
AcDbLine
 10
-224.0630593185042
 20
813.4000000000003
 30
0.0
 11
-275.8630593185048
 21
813.4
 31
0.0
  0
LINE
  5
901
330
6F
100
AcDbEntity
  8
OUTLINE
  6
Continuous
100
AcDbLine
 10
-222.4630593185052
 20
801.5999999999996
 30
0.0
 11
-194.0630593185042
 21
801.5999999999996
 31
0.0
  0
LINE
  5
902
330
6F
100
AcDbEntity
  8
OUTLINE
  6
Continuous
100
AcDbLine
 10
-222.4630593185052
 20
814.9999999999996
 30
0.0
 11
-222.4630593185052
 21
801.5999999999996
 31
0.0
  0
LINE
  5
903
330
6F
100
AcDbEntity
  8
OUTLINE
  6
Continuous
100
AcDbLine
 10
-224.0630593185042
 20
813.4
 30
0.0
 11
-224.0630593185042
 21
800.0000000000001
 31
0.0
  0
LINE
  5
904
330
6F
100
AcDbEntity
  8
OUTLINE
  6
Continuous
100
AcDbLine
 10
-224.0630593185042
 20
800.0000000000001
 30
0.0
 11
-194.0630593185042
 21
800.0000000000001
 31
0.0
  0
LINE
  5
905
330
6F
100
AcDbEntity
  8
OUTLINE
  6
Continuous
100
AcDbLine
 10
-194.0630593185042
 20
800.0000000000001
 30
0.0
 11
-194.0630593185042
 21
801.5999999999996
 31
0.0
  0
LINE
  5
906
330
6F
100
AcDbEntity
  8
OUTLINE
  6
Continuous
100
AcDbLine
 10
-277.4630593185051
 20
801.5999999999996
 30
0.0
 11
-305.8630593185039
 21
801.5999999999996
 31
0.0
  0
LINE
  5
907
330
6F
100
AcDbEntity
  8
OUTLINE
  6
Continuous
100
AcDbLine
 10
-277.4630593185051
 20
814.9999999999996
 30
0.0
 11
-277.4630593185051
 21
801.5999999999996
 31
0.0
  0
LINE
  5
908
330
6F
100
AcDbEntity
  8
OUTLINE
  6
Continuous
100
AcDbLine
 10
-275.8630593185048
 20
813.4
 30
0.0
 11
-275.8630593185048
 21
800.0000000000001
 31
0.0
  0
LINE
  5
909
330
6F
100
AcDbEntity
  8
OUTLINE
  6
Continuous
100
AcDbLine
 10
-275.8630593185048
 20
800.0000000000001
 30
0.0
 11
-305.8630593185039
 21
800.0000000000001
 31
0.0
  0
LINE
  5
90A
330
6F
100
AcDbEntity
  8
OUTLINE
  6
Continuous
100
AcDbLine
 10
-472.4630593185048
 20
302.5035444420449
 30
0.0
 11
-472.463059318505
 21
59.9999999999998
 31
0.0
  0
LINE
  5
90B
330
6F
100
AcDbEntity
  8
OUTLINE
  6
Continuous
100
AcDbLine
 10
-472.4630593185048
 20
255.0
 30
0.0
 11
472.5369406814949
 21
255.0
 31
0.0
  0
LINE
  5
90C
330
6F
100
AcDbEntity
  8
OUTLINE
  6
Continuous
100
AcDbLine
 10
-472.4630593185048
 20
215.0000000000002
 30
0.0
 11
472.5369406814949
 21
215.0000000000002
 31
0.0
  0
LINE
  5
90D
330
6F
100
AcDbEntity
  8
OUTLINE
  6
Continuous
100
AcDbLine
 10
-470.4630593185043
 20
54.9999999999998
 30
0.0
 11
-514.7630593185048
 21
54.9999999999998
 31
0.0
  0
LINE
  5
90E
330
6F
100
AcDbEntity
  8
OUTLINE
  6
Continuous
100
AcDbLine
 10
-470.4630593185043
 20
-0.000000000000199
 30
0.0
 11
-514.7630593185048
 21
-0.000000000000199
 31
0.0
  0
LINE
  5
90F
330
6F
100
AcDbEntity
  8
OUTLINE
  6
Continuous
100
AcDbLine
 10
-470.4630593185043
 20
-0.000000000000199
 30
0.0
 11
-470.4630593185043
 21
54.9999999999998
 31
0.0
  0
LINE
  5
910
330
6F
100
AcDbEntity
  8
OUTLINE
  6
Continuous
100
AcDbLine
 10
-514.7630593185048
 20
-0.000000000000199
 30
0.0
 11
-514.7630593185048
 21
54.9999999999998
 31
0.0
  0
LINE
  5
911
330
6F
100
AcDbEntity
  8
OUTLINE
  6
Continuous
100
AcDbLine
 10
472.5369406814943
 20
949.9999999999996
 30
0.0
 11
472.5369406814943
 21
749.2671585424552
 31
0.0
  0
LINE
  5
912
330
6F
100
AcDbEntity
  8
OUTLINE
  6
Continuous
100
AcDbLine
 10
512.5369406814948
 20
959.9999999999996
 30
0.0
 11
512.5369406814948
 21
59.99999999999989
 31
0.0
  0
LINE
  5
913
330
6F
100
AcDbEntity
  8
OUTLINE
  6
Continuous
100
AcDbLine
 10
482.5369406814949
 20
959.9999999999996
 30
0.0
 11
512.5369406814948
 21
959.9999999999996
 31
0.0
  0
ARC
  5
914
330
6F
100
AcDbEntity
  8
OUTLINE
  6
Continuous
100
AcDbCircle
 10
482.5369406814949
 20
949.9999999999996
 30
0.0
 40
10.00000000000011
100
AcDbArc
 50
90.0
 51
180.0
  0
ARC
  5
915
330
6F
100
AcDbEntity
  8
OUTLINE
  6
Continuous
100
AcDbCircle
 10
547.5369406814943
 20
869.7176822079436
 30
0.0
 40
5.0
100
AcDbArc
 50
270.0
 51
0.0
  0
ARC
  5
916
330
6F
100
AcDbEntity
  8
OUTLINE
  6
Continuous
100
AcDbCircle
 10
547.5369406814943
 20
899.7176822079435
 30
0.0
 40
5.0
100
AcDbArc
 50
0.0
 51
90.0
  0
LINE
  5
917
330
6F
100
AcDbEntity
  8
OUTLINE
  6
Continuous
100
AcDbLine
 10
512.5369406814947
 20
864.7176822079435
 30
0.0
 11
547.5369406814943
 21
864.7176822079435
 31
0.0
  0
LINE
  5
918
330
6F
100
AcDbEntity
  8
OUTLINE
  6
Continuous
100
AcDbLine
 10
512.5369406814947
 20
904.7176822079439
 30
0.0
 11
547.5369406814943
 21
904.7176822079439
 31
0.0
  0
LINE
  5
919
330
6F
100
AcDbEntity
  8
OUTLINE
  6
Continuous
100
AcDbLine
 10
512.5369406814947
 20
864.7176822079435
 30
0.0
 11
512.5369406814947
 21
904.7176822079439
 31
0.0
  0
LINE
  5
91A
330
6F
100
AcDbEntity
  8
OUTLINE
  6
Continuous
100
AcDbLine
 10
514.5369406814943
 20
864.7176822079435
 30
0.0
 11
514.5369406814943
 21
904.7176822079439
 31
0.0
  0
LINE
  5
91B
330
6F
100
AcDbEntity
  8
OUTLINE
  6
Continuous
100
AcDbLine
 10
552.5369406814945
 20
869.7176822079436
 30
0.0
 11
552.5369406814945
 21
899.7176822079435
 31
0.0
  0
LINE
  5
91C
330
6F
100
AcDbEntity
  8
OUTLINE
  6
Continuous
100
AcDbLine
 10
472.5369406814943
 20
708.2361789935006
 30
0.0
 11
472.5369406814943
 21
59.99999999999989
 31
0.0
  0
LINE
  5
91D
330
6F
100
AcDbEntity
  8
OUTLINE
  6
Continuous
100
AcDbLine
 10
470.5369406814948
 20
0.0
 30
0.0
 11
514.8369406814945
 21
0.0
 31
0.0
  0
LINE
  5
91E
330
6F
100
AcDbEntity
  8
OUTLINE
  6
Continuous
100
AcDbLine
 10
470.5369406814948
 20
0.0
 30
0.0
 11
470.5369406814948
 21
54.99999999999989
 31
0.0
  0
LINE
  5
91F
330
6F
100
AcDbEntity
  8
OUTLINE
  6
Continuous
100
AcDbLine
 10
514.8369406814945
 20
0.0
 30
0.0
 11
514.8369406814945
 21
54.99999999999989
 31
0.0
  0
LINE
  5
920
330
6F
100
AcDbEntity
  8
OUTLINE
  6
Continuous
100
AcDbLine
 10
470.5369406814948
 20
54.99999999999989
 30
0.0
 11
514.8369406814945
 21
54.99999999999989
 31
0.0
  0
LINE
  5
921
330
6F
100
AcDbEntity
  8
OUTLINE
  6
Continuous
100
AcDbLine
 10
-472.463059318505
 20
800.0000000000001
 30
0.0
 11
472.5369406814943
 21
800.0000000000001
 31
0.0
  0
LINE
  5
922
330
6F
100
AcDbEntity
  8
OUTLINE
  6
Continuous
100
AcDbLine
 10
305.9369406814949
 20
800.0000000000001
 30
0.0
 11
305.9369406814949
 21
801.5999999999996
 31
0.0
  0
LINE
  5
923
330
6F
100
AcDbEntity
  8
OUTLINE
  6
Continuous
100
AcDbLine
 10
277.5369406814949
 20
801.5999999999996
 30
0.0
 11
305.9369406814949
 21
801.5999999999996
 31
0.0
  0
LINE
  5
924
330
6F
100
AcDbEntity
  8
OUTLINE
  6
Continuous
100
AcDbLine
 10
275.9369406814949
 20
813.4
 30
0.0
 11
275.9369406814949
 21
800.0000000000001
 31
0.0
  0
LINE
  5
925
330
6F
100
AcDbEntity
  8
OUTLINE
  6
Continuous
100
AcDbLine
 10
277.5369406814949
 20
814.9999999999996
 30
0.0
 11
277.5369406814949
 21
801.5999999999996
 31
0.0
  0
LINE
  5
926
330
6F
100
AcDbEntity
  8
OUTLINE
  6
Continuous
100
AcDbLine
 10
222.5369406814948
 20
814.9999999999996
 30
0.0
 11
277.5369406814949
 21
814.9999999999996
 31
0.0
  0
LINE
  5
927
330
6F
100
AcDbEntity
  8
OUTLINE
  6
Continuous
100
AcDbLine
 10
224.1369406814947
 20
813.4000000000003
 30
0.0
 11
275.9369406814949
 21
813.4
 31
0.0
  0
LINE
  5
928
330
6F
100
AcDbEntity
  8
OUTLINE
  6
Continuous
100
AcDbLine
 10
275.9369406814949
 20
800.0000000000001
 30
0.0
 11
305.9369406814949
 21
800.0000000000001
 31
0.0
  0
LINE
  5
929
330
6F
100
AcDbEntity
  8
OUTLINE
  6
Continuous
100
AcDbLine
 10
222.5369406814948
 20
801.5999999999996
 30
0.0
 11
194.1369406814946
 21
801.5999999999996
 31
0.0
  0
LINE
  5
92A
330
6F
100
AcDbEntity
  8
OUTLINE
  6
Continuous
100
AcDbLine
 10
222.5369406814948
 20
814.9999999999996
 30
0.0
 11
222.5369406814948
 21
801.5999999999996
 31
0.0
  0
LINE
  5
92B
330
6F
100
AcDbEntity
  8
OUTLINE
  6
Continuous
100
AcDbLine
 10
224.1369406814947
 20
813.4
 30
0.0
 11
224.1369406814947
 21
800.0000000000001
 31
0.0
  0
LINE
  5
92C
330
6F
100
AcDbEntity
  8
OUTLINE
  6
Continuous
100
AcDbLine
 10
224.1369406814947
 20
800.0000000000001
 30
0.0
 11
194.1369406814946
 21
800.0000000000001
 31
0.0
  0
LINE
  5
92D
330
6F
100
AcDbEntity
  8
OUTLINE
  6
Continuous
100
AcDbLine
 10
194.1369406814946
 20
800.0000000000001
 30
0.0
 11
194.1369406814946
 21
801.5999999999996
 31
0.0
  0
LINE
  5
92E
330
6F
100
AcDbEntity
  8
OUTLINE
  6
Continuous
100
AcDbLine
 10
0.0369406814947979
 20
503.067895101083
 30
0.0
 11
472.5369406814943
 21
302.5035444420451
 31
0.0
  0
LINE
  5
92F
330
6F
100
AcDbEntity
  8
OUTLINE
  6
Continuous
100
AcDbLine
 10
-472.463059318504
 20
703.632245760121
 30
0.0
 11
-51.14915262345403
 21
524.7951026491887
 31
0.0
  0
LINE
  5
930
330
6F
100
AcDbEntity
  8
OUTLINE
  6
Continuous
100
AcDbLine
 10
-472.463059318504
 20
744.4793959505597
 30
0.0
 11
-446.7659973189979
 21
733.5716402811921
 31
0.0
  0
LINE
  5
931
330
6F
100
AcDbEntity
  8
OUTLINE
  6
Continuous
100
AcDbLine
 10
51.22303398644408
 20
524.7951026491887
 30
0.0
 11
454.4255040658647
 21
353.645808266968
 31
0.0
  0
LINE
  5
932
330
6F
100
AcDbEntity
  8
OUTLINE
  6
Continuous
100
AcDbLine
 10
-445.8282426106234
 20
735.7808519294787
 30
0.0
 11
0.0369406814947979
 21
546.5223101972947
 31
0.0
  0
LINE
  5
933
330
6F
100
AcDbEntity
  8
OUTLINE
  6
Continuous
100
AcDbLine
 10
-445.8282426106234
 20
735.7808519294787
 30
0.0
 11
-446.7659973189979
 21
733.5716402811921
 31
0.0
  0
LINE
  5
934
330
6F
100
AcDbEntity
  8
OUTLINE
  6
Continuous
100
AcDbLine
 10
507.5566117858038
 20
718.4972142158436
 30
0.0
 11
-484.7476202359062
 21
297.2890577044153
 31
0.0
  0
LINE
  5
935
330
6F
100
AcDbEntity
  8
OUTLINE
  6
Continuous
100
AcDbLine
 10
445.9021239736138
 20
735.7808519294787
 30
0.0
 11
-454.3516227028749
 21
353.645808266968
 31
0.0
  0
LINE
  5
936
330
6F
100
AcDbEntity
  8
OUTLINE
  6
Continuous
100
AcDbLine
 10
445.9021239736138
 20
735.7808519294787
 30
0.0
 11
-454.3516227028749
 21
353.645808266968
 31
0.0
  0
LINE
  5
937
330
6F
100
AcDbEntity
  8
OUTLINE
  6
Continuous
100
AcDbLine
 10
-499.439110667131
 20
331.9000401942375
 30
0.0
 11
-453.4138679945081
 21
351.4365966186996
 31
0.0
  0
LINE
  5
938
330
6F
100
AcDbEntity
  8
OUTLINE
  6
Continuous
100
AcDbLine
 10
445.9021239736138
 20
735.7808519294787
 30
0.0
 11
-454.3516227028749
 21
353.645808266968
 31
0.0
  0
LINE
  5
939
330
6F
100
AcDbEntity
  8
OUTLINE
  6
Continuous
100
AcDbLine
 10
-454.3516227028828
 20
353.6458082669855
 30
0.0
 11
-453.4138679945081
 21
351.4365966186996
 31
0.0
  0
LINE
  5
93A
330
6F
100
AcDbEntity
  8
OUTLINE
  6
Continuous
100
AcDbLine
 10
-499.439110667131
 20
331.9000401942375
 30
0.0
 11
-504.7368479167621
 21
318.7876803748208
 31
0.0
  0
LINE
  5
93B
330
6F
100
AcDbEntity
  8
OUTLINE
  6
Continuous
100
AcDbLine
 10
-497.8599800553511
 20
302.5867949540584
 30
0.0
 11
-504.7368479167621
 21
318.7876803748208
 31
0.0
  0
LINE
  5
93C
330
6F
100
AcDbEntity
  8
OUTLINE
  6
Continuous
100
AcDbLine
 10
-497.8599800553511
 20
302.5867949540584
 30
0.0
 11
-484.7476202359328
 21
297.2890577044262
 31
0.0
  0
LINE
  5
93D
330
6F
100
AcDbEntity
  8
OUTLINE
  6
Continuous
100
AcDbLine
 10
445.9021239736138
 20
735.7808519294787
 30
0.0
 11
-454.3516227028749
 21
353.645808266968
 31
0.0
  0
LINE
  5
93E
330
6F
100
AcDbEntity
  8
OUTLINE
  6
Continuous
100
AcDbLine
 10
445.9021239736138
 20
735.7808519294787
 30
0.0
 11
-454.3516227028749
 21
353.645808266968
 31
0.0
  0
LINE
  5
93F
330
6F
100
AcDbEntity
  8
OUTLINE
  6
Continuous
100
AcDbLine
 10
445.9021239736138
 20
735.7808519294787
 30
0.0
 11
-454.3516227028749
 21
353.645808266968
 31
0.0
  0
LINE
  5
940
330
6F
100
AcDbEntity
  8
OUTLINE
  6
Continuous
100
AcDbLine
 10
445.9021239736138
 20
735.7808519294787
 30
0.0
 11
-454.3516227028749
 21
353.645808266968
 31
0.0
  0
LINE
  5
941
330
6F
100
AcDbEntity
  8
OUTLINE
  6
Continuous
100
AcDbLine
 10
445.9021239736138
 20
735.7808519294787
 30
0.0
 11
446.839878681988
 21
733.5716402811921
 31
0.0
  0
LINE
  5
942
330
6F
100
AcDbEntity
  8
OUTLINE
  6
Continuous
100
AcDbLine
 10
492.86512135461
 20
753.1081967056564
 30
0.0
 11
446.839878681988
 21
733.5716402811921
 31
0.0
  0
LINE
  5
943
330
6F
100
AcDbEntity
  8
OUTLINE
  6
Continuous
100
AcDbLine
 10
492.86512135461
 20
753.1081967056564
 30
0.0
 11
505.9774811740258
 21
747.8104594560242
 31
0.0
  0
LINE
  5
944
330
6F
100
AcDbEntity
  8
OUTLINE
  6
Continuous
100
AcDbLine
 10
512.8543490354368
 20
731.6095740352607
 30
0.0
 11
505.9774811740258
 21
747.8104594560242
 31
0.0
  0
LINE
  5
945
330
6F
100
AcDbEntity
  8
OUTLINE
  6
Continuous
100
AcDbLine
 10
512.8543490354368
 20
731.6095740352607
 30
0.0
 11
507.5566117858038
 21
718.4972142158436
 31
0.0
  0
LINE
  5
946
330
6F
100
AcDbEntity
  8
OUTLINE
  6
Continuous
100
AcDbLine
 10
49.68745118729611
 20
524.1432864227459
 30
0.0
 11
453.9566267116779
 21
352.5412024428251
 31
0.0
  0
LINE
  5
947
330
6F
100
AcDbEntity
  8
OUTLINE
  6
Continuous
100
AcDbLine
 10
-446.2971199648108
 20
734.6762461053357
 30
0.0
 11
-1.498642117653161
 21
545.8704939708518
 31
0.0
  0
LINE
  5
948
330
6F
100
AcDbEntity
  8
OUTLINE
  6
Continuous
100
AcDbLine
 10
472.5369406814943
 20
343.3506946325055
 30
0.0
 11
453.4877493574978
 21
351.4365966186996
 31
0.0
  0
LINE
  5
949
330
6F
100
AcDbEntity
  8
OUTLINE
  6
Continuous
100
AcDbLine
 10
454.4255040658726
 20
353.6458082669857
 30
0.0
 11
453.4877493574978
 21
351.4365966186996
 31
0.0
  0
LINE
  5
94A
330
6F
100
AcDbEntity
  8
DETAIL
  6
DASHED
100
AcDbLine
 10
477.5369406814948
 20
839.9999999999996
 30
0.0
 11
472.5369406814943
 21
845.0000000000001
 31
0.0
  0
LINE
  5
94B
330
6F
100
AcDbEntity
  8
DETAIL
  6
DASHED
100
AcDbLine
 10
510.5369406814943
 20
839.9999999999996
 30
0.0
 11
477.5369406814948
 21
839.9999999999996
 31
0.0
  0
CIRCLE
  5
94C
330
6F
100
AcDbEntity
  8
DETAIL
  6
Continuous
100
AcDbCircle
 10
490.5369406814942
 20
884.9999999999996
 30
0.0
 40
5.0
  0
CIRCLE
  5
94D
330
6F
100
AcDbEntity
  8
DETAIL
  6
Continuous
100
AcDbCircle
 10
490.5369406814942
 20
934.9999999999996
 30
0.0
 40
5.0
  0
CIRCLE
  5
94E
330
6F
100
AcDbEntity
  8
DETAIL
  6
Continuous
100
AcDbCircle
 10
-490.4630593185054
 20
885.0000000000015
 30
0.0
 40
5.0
  0
CIRCLE
  5
94F
330
6F
100
AcDbEntity
  8
DETAIL
  6
Continuous
100
AcDbCircle
 10
-490.4630593185054
 20
935.0000000000028
 30
0.0
 40
5.0
  0
ARC
  5
950
330
6F
100
AcDbEntity
  8
DETAIL
  6
Continuous
100
AcDbCircle
 10
-489.9630593185055
 20
1547.700000000002
 30
0.0
 40
4.650000000001455
100
AcDbArc
 50
0.0
 51
180.0
  0
ARC
  5
951
330
6F
100
AcDbEntity
  8
DETAIL
  6
Continuous
100
AcDbCircle
 10
-489.9630593185055
 20
1527.000000000002
 30
0.0
 40
4.649999999994173
100
AcDbArc
 50
180.0
 51
0.0
  0
LINE
  5
952
330
6F
100
AcDbEntity
  8
DETAIL
  6
Continuous
100
AcDbLine
 10
-485.3130593185035
 20
1527.000000000002
 30
0.0
 11
-485.3130593185035
 21
1547.700000000002
 31
0.0
  0
LINE
  5
953
330
6F
100
AcDbEntity
  8
DETAIL
  6
Continuous
100
AcDbLine
 10
-494.6130593184983
 20
1547.700000000002
 30
0.0
 11
-494.6130593184983
 21
1527.000000000002
 31
0.0
  0
LINE
  5
954
330
6F
100
AcDbEntity
  8
DETAIL
  6
Continuous
100
AcDbLine
 10
-549.9630593185051
 20
1950.0
 30
0.0
 11
550.0369406814948
 21
1950.0
 31
0.0
  0
LINE
  5
955
330
6F
100
AcDbEntity
  8
DETAIL
  6
Continuous
100
AcDbLine
 10
-549.9630593185051
 20
1680.0
 30
0.0
 11
550.0369406814948
 21
1680.0
 31
0.0
  0
LINE
  5
956
330
6F
100
AcDbEntity
  8
DETAIL
  6
Continuous
100
AcDbLine
 10
550.0369406814948
 20
1950.0
 30
0.0
 11
550.0369406814948
 21
1632.0
 31
0.0
  0
LINE
  5
957
330
6F
100
AcDbEntity
  8
DETAIL
  6
Continuous
100
AcDbLine
 10
-549.9630593185051
 20
1632.0
 30
0.0
 11
550.0369406814948
 21
1632.0
 31
0.0
  0
LINE
  5
958
330
6F
100
AcDbEntity
  8
DETAIL
  6
Continuous
100
AcDbLine
 10
-549.9630593185051
 20
1950.0
 30
0.0
 11
-549.9630593185051
 21
1632.0
 31
0.0
  0
LINE
  5
959
330
6F
100
AcDbEntity
  8
DETAIL
  6
Continuous
100
AcDbLine
 10
510.5369406814942
 20
1632.0
 30
0.0
 11
510.5369406814943
 21
964.9999999999996
 31
0.0
  0
LINE
  5
95A
330
6F
100
AcDbEntity
  8
DETAIL
  6
DASHED
100
AcDbLine
 10
510.5369406814943
 20
964.9999999999996
 30
0.0
 11
510.5369406814943
 21
839.9999999999996
 31
0.0
  0
LINE
  5
95B
330
6F
100
AcDbEntity
  8
DETAIL
  6
Continuous
100
AcDbLine
 10
472.5369406814943
 20
845.0000000000001
 30
0.0
 11
472.5369406814942
 21
1632.0
 31
0.0
  0
LINE
  5
95C
330
6F
100
AcDbEntity
  8
DETAIL
  6
Continuous
100
AcDbLine
 10
-472.463059318505
 20
845.0000000000001
 30
0.0
 11
-472.463059318505
 21
1632.0
 31
0.0
  0
LINE
  5
95D
330
6F
100
AcDbEntity
  8
DETAIL
  6
Continuous
100
AcDbLine
 10
-510.4630593185039
 20
1632.0
 30
0.0
 11
-510.463059318505
 21
964.9999999999996
 31
0.0
  0
LINE
  5
95E
330
6F
100
AcDbEntity
  8
DETAIL
  6
Continuous
100
AcDbLine
 10
470.5369406814948
 20
0.0
 30
0.0
 11
514.8369406814945
 21
0.0
 31
0.0
  0
LINE
  5
95F
330
6F
100
AcDbEntity
  8
DETAIL
  6
Continuous
100
AcDbLine
 10
482.5369406814949
 20
959.9999999999996
 30
0.0
 11
512.5369406814948
 21
959.9999999999996
 31
0.0
  0
LINE
  5
960
330
6F
100
AcDbEntity
  8
DETAIL
  6
Continuous
100
AcDbLine
 10
472.5369406814943
 20
949.9999999999996
 30
0.0
 11
472.5369406814943
 21
749.2671585424552
 31
0.0
  0
LINE
  5
961
330
6F
100
AcDbEntity
  8
DETAIL
  6
Continuous
100
AcDbLine
 10
512.5369406814948
 20
959.9999999999996
 30
0.0
 11
512.5369406814948
 21
59.99999999999989
 31
0.0
  0
LINE
  5
962
330
6F
100
AcDbEntity
  8
DETAIL
  6
Continuous
100
AcDbLine
 10
495.5369406814948
 20
947.9999999999996
 30
0.0
 11
495.5369406814948
 21
921.9999999999997
 31
0.0
  0
LINE
  5
963
330
6F
100
AcDbEntity
  8
DETAIL
  6
Continuous
100
AcDbLine
 10
485.5369406814943
 20
947.9999999999996
 30
0.0
 11
485.5369406814943
 21
921.9999999999997
 31
0.0
  0
ARC
  5
964
330
6F
100
AcDbEntity
  8
DETAIL
  6
Continuous
100
AcDbCircle
 10
490.5369406814948
 20
947.9999999999996
 30
0.0
 40
5.0
100
AcDbArc
 50
0.0
 51
180.0
  0
ARC
  5
965
330
6F
100
AcDbEntity
  8
DETAIL
  6
Continuous
100
AcDbCircle
 10
490.5369406814948
 20
921.9999999999997
 30
0.0
 40
5.0
100
AcDbArc
 50
180.0
 51
0.0
  0
LINE
  5
966
330
6F
100
AcDbEntity
  8
DETAIL
  6
Continuous
100
AcDbLine
 10
470.5369406814948
 20
54.99999999999989
 30
0.0
 11
514.8369406814945
 21
54.99999999999989
 31
0.0
  0
LINE
  5
967
330
6F
100
AcDbEntity
  8
DETAIL
  6
Continuous
100
AcDbLine
 10
470.5369406814948
 20
0.0
 30
0.0
 11
470.5369406814948
 21
54.99999999999989
 31
0.0
  0
LINE
  5
968
330
6F
100
AcDbEntity
  8
DETAIL
  6
Continuous
100
AcDbLine
 10
514.8369406814945
 20
0.0
 30
0.0
 11
514.8369406814945
 21
54.99999999999989
 31
0.0
  0
LINE
  5
969
330
6F
100
AcDbEntity
  8
DETAIL
  6
Continuous
100
AcDbLine
 10
-470.4630593185043
 20
-0.000000000000199
 30
0.0
 11
-514.7630593185048
 21
-0.000000000000199
 31
0.0
  0
LINE
  5
96A
330
6F
100
AcDbEntity
  8
DETAIL
  6
Continuous
100
AcDbLine
 10
-470.4630593185043
 20
-0.000000000000199
 30
0.0
 11
-470.4630593185043
 21
54.9999999999998
 31
0.0
  0
LINE
  5
96B
330
6F
100
AcDbEntity
  8
DETAIL
  6
Continuous
100
AcDbLine
 10
-514.7630593185048
 20
-0.000000000000199
 30
0.0
 11
-514.7630593185048
 21
54.9999999999998
 31
0.0
  0
LINE
  5
96C
330
6F
100
AcDbEntity
  8
DETAIL
  6
Continuous
100
AcDbLine
 10
-512.4630593185051
 20
959.9999999999996
 30
0.0
 11
-512.4630593185051
 21
59.9999999999998
 31
0.0
  0
LINE
  5
96D
330
6F
100
AcDbEntity
  8
DETAIL
  6
Continuous
100
AcDbLine
 10
-472.463059318505
 20
949.9999999999996
 30
0.0
 11
-472.463059318504
 21
343.3506946325057
 31
0.0
  0
LINE
  5
96E
330
6F
100
AcDbEntity
  8
DETAIL
  6
Continuous
100
AcDbLine
 10
-470.4630593185043
 20
54.9999999999998
 30
0.0
 11
-514.7630593185048
 21
54.9999999999998
 31
0.0
  0
LINE
  5
96F
330
6F
100
AcDbEntity
  8
DETAIL
  6
Continuous
100
AcDbLine
 10
-482.4630593185051
 20
959.9999999999996
 30
0.0
 11
-512.4630593185051
 21
959.9999999999996
 31
0.0
  0
LINE
  5
970
330
6F
100
AcDbEntity
  8
DETAIL
  6
Continuous
100
AcDbLine
 10
-472.4630593185048
 20
255.0
 30
0.0
 11
472.5369406814949
 21
255.0
 31
0.0
  0
LINE
  5
971
330
6F
100
AcDbEntity
  8
DETAIL
  6
Continuous
100
AcDbLine
 10
-472.463059318505
 20
800.0000000000001
 30
0.0
 11
472.5369406814943
 21
800.0000000000001
 31
0.0
  0
LINE
  5
972
330
6F
100
AcDbEntity
  8
DETAIL
  6
Continuous
100
AcDbLine
 10
472.5369406814943
 20
708.6322457601213
 30
0.0
 11
472.5369406814943
 21
59.99999999999989
 31
0.0
  0
LINE
  5
973
330
6F
100
AcDbEntity
  8
DETAIL
  6
Continuous
100
AcDbLine
 10
-472.4630593185048
 20
302.5035444420449
 30
0.0
 11
-472.463059318505
 21
59.9999999999998
 31
0.0
  0
LINE
  5
974
330
6F
100
AcDbEntity
  8
DETAIL
  6
Continuous
100
AcDbLine
 10
-472.463059318505
 20
760.0000000000001
 30
0.0
 11
472.5369406814943
 21
759.9999999999995
 31
0.0
  0
LINE
  5
975
330
6F
100
AcDbEntity
  8
DETAIL
  6
Continuous
100
AcDbLine
 10
-472.4630593185048
 20
215.0000000000002
 30
0.0
 11
472.5369406814949
 21
215.0000000000002
 31
0.0
  0
LINE
  5
976
330
6F
100
AcDbEntity
  8
DETAIL
  6
DASHED
100
AcDbLine
 10
472.5369406814943
 20
9.800000000000293
 30
0.0
 11
512.5369406814948
 21
9.800000000000094
 31
0.0
  0
ARC
  5
977
330
6F
100
AcDbEntity
  8
DETAIL
  6
DASHED
100
AcDbCircle
 10
490.5369406814948
 20
37.50000000000021
 30
0.0
 40
5.0
100
AcDbArc
 50
180.0
 51
0.0
  0
ARC
  5
978
330
6F
100
AcDbEntity
  8
DETAIL
  6
DASHED
100
AcDbCircle
 10
490.5369406814948
 20
42.5000000000002
 30
0.0
 40
5.0
100
AcDbArc
 50
0.0
 51
180.0
  0
LINE
  5
979
330
6F
100
AcDbEntity
  8
DETAIL
  6
DASHED
100
AcDbLine
 10
485.5369406814943
 20
42.5000000000002
 30
0.0
 11
485.5369406814943
 21
37.50000000000021
 31
0.0
  0
LINE
  5
97A
330
6F
100
AcDbEntity
  8
DETAIL
  6
DASHED
100
AcDbLine
 10
495.5369406814948
 20
42.5000000000002
 30
0.0
 11
495.5369406814948
 21
37.50000000000021
 31
0.0
  0
ARC
  5
97B
330
6F
100
AcDbEntity
  8
DETAIL
  6
Continuous
100
AcDbCircle
 10
-482.4630593185051
 20
949.9999999999996
 30
0.0
 40
10.0
100
AcDbArc
 50
0.0
 51
90.0
  0
ARC
  5
97C
330
6F
100
AcDbEntity
  8
DETAIL
  6
Continuous
100
AcDbCircle
 10
482.5369406814949
 20
949.9999999999996
 30
0.0
 40
10.00000000000011
100
AcDbArc
 50
90.0
 51
180.0
  0
LINE
  5
97D
330
6F
100
AcDbEntity
  8
DETAIL
  6
DASHED
100
AcDbLine
 10
512.5369406814948
 20
59.99999999999989
 30
0.0
 11
512.5369406814948
 21
9.800000000000094
 31
0.0
  0
LINE
  5
97E
330
6F
100
AcDbEntity
  8
DETAIL
  6
DASHED
100
AcDbLine
 10
472.5369406814943
 20
59.99999999999989
 30
0.0
 11
472.5369406814943
 21
9.800000000000293
 31
0.0
  0
LINE
  5
97F
330
6F
100
AcDbEntity
  8
DETAIL
  6
DASHED
100
AcDbLine
 10
-472.463059318505
 20
9.800000000000094
 30
0.0
 11
-512.4630593185051
 21
9.800000000000011
 31
0.0
  0
LINE
  5
980
330
6F
100
AcDbEntity
  8
DETAIL
  6
DASHED
100
AcDbLine
 10
-472.463059318505
 20
59.9999999999998
 30
0.0
 11
-472.463059318505
 21
9.800000000000094
 31
0.0
  0
LINE
  5
981
330
6F
100
AcDbEntity
  8
DETAIL
  6
DASHED
100
AcDbLine
 10
-512.4630593185051
 20
59.9999999999998
 30
0.0
 11
-512.4630593185051
 21
9.800000000000011
 31
0.0
  0
LINE
  5
982
330
6F
100
AcDbEntity
  8
DETAIL
  6
Continuous
100
AcDbLine
 10
305.9369406814949
 20
800.0000000000001
 30
0.0
 11
305.9369406814949
 21
801.5999999999996
 31
0.0
  0
LINE
  5
983
330
6F
100
AcDbEntity
  8
DETAIL
  6
Continuous
100
AcDbLine
 10
277.5369406814949
 20
801.5999999999996
 30
0.0
 11
305.9369406814949
 21
801.5999999999996
 31
0.0
  0
LINE
  5
984
330
6F
100
AcDbEntity
  8
DETAIL
  6
Continuous
100
AcDbLine
 10
275.9369406814949
 20
813.4
 30
0.0
 11
275.9369406814949
 21
800.0000000000001
 31
0.0
  0
LINE
  5
985
330
6F
100
AcDbEntity
  8
DETAIL
  6
Continuous
100
AcDbLine
 10
277.5369406814949
 20
814.9999999999996
 30
0.0
 11
277.5369406814949
 21
801.5999999999996
 31
0.0
  0
LINE
  5
986
330
6F
100
AcDbEntity
  8
DETAIL
  6
Continuous
100
AcDbLine
 10
222.5369406814948
 20
814.9999999999996
 30
0.0
 11
277.5369406814949
 21
814.9999999999996
 31
0.0
  0
LINE
  5
987
330
6F
100
AcDbEntity
  8
DETAIL
  6
Continuous
100
AcDbLine
 10
224.1369406814947
 20
813.4000000000003
 30
0.0
 11
275.9369406814949
 21
813.4
 31
0.0
  0
LINE
  5
988
330
6F
100
AcDbEntity
  8
DETAIL
  6
Continuous
100
AcDbLine
 10
275.9369406814949
 20
800.0000000000001
 30
0.0
 11
305.9369406814949
 21
800.0000000000001
 31
0.0
  0
LINE
  5
989
330
6F
100
AcDbEntity
  8
DETAIL
  6
Continuous
100
AcDbLine
 10
222.5369406814948
 20
801.5999999999996
 30
0.0
 11
194.1369406814946
 21
801.5999999999996
 31
0.0
  0
LINE
  5
98A
330
6F
100
AcDbEntity
  8
DETAIL
  6
Continuous
100
AcDbLine
 10
222.5369406814948
 20
814.9999999999996
 30
0.0
 11
222.5369406814948
 21
801.5999999999996
 31
0.0
  0
LINE
  5
98B
330
6F
100
AcDbEntity
  8
DETAIL
  6
Continuous
100
AcDbLine
 10
224.1369406814947
 20
813.4
 30
0.0
 11
224.1369406814947
 21
800.0000000000001
 31
0.0
  0
LINE
  5
98C
330
6F
100
AcDbEntity
  8
DETAIL
  6
Continuous
100
AcDbLine
 10
224.1369406814947
 20
800.0000000000001
 30
0.0
 11
194.1369406814946
 21
800.0000000000001
 31
0.0
  0
LINE
  5
98D
330
6F
100
AcDbEntity
  8
DETAIL
  6
Continuous
100
AcDbLine
 10
194.1369406814946
 20
800.0000000000001
 30
0.0
 11
194.1369406814946
 21
801.5999999999996
 31
0.0
  0
LINE
  5
98E
330
6F
100
AcDbEntity
  8
DETAIL
  6
Continuous
100
AcDbLine
 10
-305.8630593185039
 20
800.0000000000001
 30
0.0
 11
-305.8630593185039
 21
801.5999999999996
 31
0.0
  0
LINE
  5
98F
330
6F
100
AcDbEntity
  8
DETAIL
  6
Continuous
100
AcDbLine
 10
-222.4630593185052
 20
814.9999999999996
 30
0.0
 11
-277.4630593185051
 21
814.9999999999996
 31
0.0
  0
LINE
  5
990
330
6F
100
AcDbEntity
  8
DETAIL
  6
Continuous
100
AcDbLine
 10
-224.0630593185042
 20
813.4000000000003
 30
0.0
 11
-275.8630593185048
 21
813.4
 31
0.0
  0
LINE
  5
991
330
6F
100
AcDbEntity
  8
DETAIL
  6
Continuous
100
AcDbLine
 10
-222.4630593185052
 20
801.5999999999996
 30
0.0
 11
-194.0630593185042
 21
801.5999999999996
 31
0.0
  0
LINE
  5
992
330
6F
100
AcDbEntity
  8
DETAIL
  6
Continuous
100
AcDbLine
 10
-222.4630593185052
 20
814.9999999999996
 30
0.0
 11
-222.4630593185052
 21
801.5999999999996
 31
0.0
  0
LINE
  5
993
330
6F
100
AcDbEntity
  8
DETAIL
  6
Continuous
100
AcDbLine
 10
-224.0630593185042
 20
813.4
 30
0.0
 11
-224.0630593185042
 21
800.0000000000001
 31
0.0
  0
LINE
  5
994
330
6F
100
AcDbEntity
  8
DETAIL
  6
Continuous
100
AcDbLine
 10
-224.0630593185042
 20
800.0000000000001
 30
0.0
 11
-194.0630593185042
 21
800.0000000000001
 31
0.0
  0
LINE
  5
995
330
6F
100
AcDbEntity
  8
DETAIL
  6
Continuous
100
AcDbLine
 10
-194.0630593185042
 20
800.0000000000001
 30
0.0
 11
-194.0630593185042
 21
801.5999999999996
 31
0.0
  0
LINE
  5
996
330
6F
100
AcDbEntity
  8
DETAIL
  6
Continuous
100
AcDbLine
 10
-277.4630593185051
 20
801.5999999999996
 30
0.0
 11
-305.8630593185039
 21
801.5999999999996
 31
0.0
  0
LINE
  5
997
330
6F
100
AcDbEntity
  8
DETAIL
  6
Continuous
100
AcDbLine
 10
-277.4630593185051
 20
814.9999999999996
 30
0.0
 11
-277.4630593185051
 21
801.5999999999996
 31
0.0
  0
LINE
  5
998
330
6F
100
AcDbEntity
  8
DETAIL
  6
Continuous
100
AcDbLine
 10
-275.8630593185048
 20
813.4
 30
0.0
 11
-275.8630593185048
 21
800.0000000000001
 31
0.0
  0
LINE
  5
999
330
6F
100
AcDbEntity
  8
DETAIL
  6
Continuous
100
AcDbLine
 10
-275.8630593185048
 20
800.0000000000001
 30
0.0
 11
-305.8630593185039
 21
800.0000000000001
 31
0.0
  0
ARC
  5
99A
330
6F
100
AcDbEntity
  8
DETAIL
  6
Continuous
100
AcDbCircle
 10
-547.4630593185048
 20
899.7176822079456
 30
0.0
 40
5.0
100
AcDbArc
 50
90.0
 51
180.0
  0
LINE
  5
99B
330
6F
100
AcDbEntity
  8
DETAIL
  6
Continuous
100
AcDbLine
 10
-552.4630593185054
 20
869.7176822079461
 30
0.0
 11
-552.4630593185054
 21
899.7176822079456
 31
0.0
  0
ARC
  5
99C
330
6F
100
AcDbEntity
  8
DETAIL
  6
Continuous
100
AcDbCircle
 10
-547.4630593185048
 20
869.7176822079461
 30
0.0
 40
5.0
100
AcDbArc
 50
180.0
 51
270.0
  0
LINE
  5
99D
330
6F
100
AcDbEntity
  8
DETAIL
  6
Continuous
100
AcDbLine
 10
-514.4630593185054
 20
864.7176822079462
 30
0.0
 11
-514.4630593185054
 21
904.7176822079455
 31
0.0
  0
LINE
  5
99E
330
6F
100
AcDbEntity
  8
DETAIL
  6
Continuous
100
AcDbLine
 10
-512.4630593185051
 20
864.7176822079462
 30
0.0
 11
-512.4630593185051
 21
904.7176822079455
 31
0.0
  0
LINE
  5
99F
330
6F
100
AcDbEntity
  8
DETAIL
  6
Continuous
100
AcDbLine
 10
-512.4630593185051
 20
904.7176822079455
 30
0.0
 11
-547.4630593185048
 21
904.7176822079455
 31
0.0
  0
LINE
  5
9A0
330
6F
100
AcDbEntity
  8
DETAIL
  6
Continuous
100
AcDbLine
 10
-512.4630593185051
 20
864.7176822079462
 30
0.0
 11
-547.4630593185048
 21
864.7176822079462
 31
0.0
  0
ARC
  5
9A1
330
6F
100
AcDbEntity
  8
DETAIL
  6
Continuous
100
AcDbCircle
 10
547.5369406814943
 20
869.7176822079436
 30
0.0
 40
5.0
100
AcDbArc
 50
270.0
 51
0.0
  0
ARC
  5
9A2
330
6F
100
AcDbEntity
  8
DETAIL
  6
Continuous
100
AcDbCircle
 10
547.5369406814943
 20
899.7176822079435
 30
0.0
 40
5.0
100
AcDbArc
 50
0.0
 51
90.0
  0
LINE
  5
9A3
330
6F
100
AcDbEntity
  8
DETAIL
  6
Continuous
100
AcDbLine
 10
512.5369406814947
 20
864.7176822079435
 30
0.0
 11
547.5369406814943
 21
864.7176822079435
 31
0.0
  0
LINE
  5
9A4
330
6F
100
AcDbEntity
  8
DETAIL
  6
Continuous
100
AcDbLine
 10
512.5369406814947
 20
904.7176822079439
 30
0.0
 11
547.5369406814943
 21
904.7176822079439
 31
0.0
  0
LINE
  5
9A5
330
6F
100
AcDbEntity
  8
DETAIL
  6
Continuous
100
AcDbLine
 10
512.5369406814947
 20
864.7176822079435
 30
0.0
 11
512.5369406814947
 21
904.7176822079439
 31
0.0
  0
LINE
  5
9A6
330
6F
100
AcDbEntity
  8
DETAIL
  6
Continuous
100
AcDbLine
 10
514.5369406814943
 20
864.7176822079435
 30
0.0
 11
514.5369406814943
 21
904.7176822079439
 31
0.0
  0
LINE
  5
9A7
330
6F
100
AcDbEntity
  8
DETAIL
  6
Continuous
100
AcDbLine
 10
552.5369406814945
 20
869.7176822079436
 30
0.0
 11
552.5369406814945
 21
899.7176822079435
 31
0.0
  0
LINE
  5
9A8
330
6F
100
AcDbEntity
  8
DETAIL
  6
Continuous
100
AcDbLine
 10
-454.3516227028828
 20
353.6458082669855
 30
0.0
 11
-453.4138679945081
 21
351.4365966186996
 31
0.0
  0
LINE
  5
9A9
330
6F
100
AcDbEntity
  8
DETAIL
  6
Continuous
100
AcDbLine
 10
445.9021239736138
 20
735.7808519294787
 30
0.0
 11
-454.3516227028749
 21
353.645808266968
 31
0.0
  0
LINE
  5
9AA
330
6F
100
AcDbEntity
  8
DETAIL
  6
Continuous
100
AcDbLine
 10
-499.439110667131
 20
331.9000401942375
 30
0.0
 11
-453.4138679945081
 21
351.4365966186996
 31
0.0
  0
LINE
  5
9AB
330
6F
100
AcDbEntity
  8
DETAIL
  6
Continuous
100
AcDbLine
 10
-499.439110667131
 20
331.9000401942375
 30
0.0
 11
-504.7368479167621
 21
318.7876803748208
 31
0.0
  0
LINE
  5
9AC
330
6F
100
AcDbEntity
  8
DETAIL
  6
Continuous
100
AcDbLine
 10
-497.8599800553511
 20
302.5867949540584
 30
0.0
 11
-484.7476202359328
 21
297.2890577044262
 31
0.0
  0
LINE
  5
9AD
330
6F
100
AcDbEntity
  8
DETAIL
  6
Continuous
100
AcDbLine
 10
-497.8599800553511
 20
302.5867949540584
 30
0.0
 11
-504.7368479167621
 21
318.7876803748208
 31
0.0
  0
ARC
  5
9AE
330
6F
100
AcDbEntity
  8
DETAIL
  6
Continuous
100
AcDbCircle
 10
-492.8844195044188
 20
315.5623988784845
 30
0.0
 40
4.649999999999992
100
AcDbArc
 50
113.0000000000002
 51
293.0000000000002
  0
LINE
  5
9AF
330
6F
100
AcDbEntity
  8
DETAIL
  6
Continuous
100
AcDbLine
 10
-472.0130692904781
 20
319.3701856696588
 30
0.0
 11
-491.0675197569449
 21
311.2820513099307
 31
0.0
  0
LINE
  5
9B0
330
6F
100
AcDbEntity
  8
DETAIL
  6
Continuous
100
AcDbLine
 10
-475.6468687854289
 20
327.9308808067666
 30
0.0
 11
-494.7013192518951
 21
319.8427464470385
 31
0.0
  0
ARC
  5
9B1
330
6F
100
AcDbEntity
  8
DETAIL
  6
Continuous
100
AcDbCircle
 10
-473.829969037954
 20
323.6505332382125
 30
0.0
 40
4.649999999999976
100
AcDbArc
 50
293.0000000000002
 51
113.0000000000002
  0
LINE
  5
9B2
330
6F
100
AcDbEntity
  8
DETAIL
  6
Continuous
100
AcDbLine
 10
512.8543490354368
 20
731.6095740352607
 30
0.0
 11
507.5566117858038
 21
718.4972142158436
 31
0.0
  0
LINE
  5
9B3
330
6F
100
AcDbEntity
  8
DETAIL
  6
Continuous
100
AcDbLine
 10
512.8543490354368
 20
731.6095740352607
 30
0.0
 11
505.9774811740258
 21
747.8104594560242
 31
0.0
  0
LINE
  5
9B4
330
6F
100
AcDbEntity
  8
DETAIL
  6
Continuous
100
AcDbLine
 10
492.86512135461
 20
753.1081967056564
 30
0.0
 11
505.9774811740258
 21
747.8104594560242
 31
0.0
  0
LINE
  5
9B6
330
6F
100
AcDbEntity
  8
DETAIL
  6
Continuous
100
AcDbLine
 10
445.9021239736138
 20
735.7808519294787
 30
0.0
 11
446.839878681988
 21
733.5716402811921
 31
0.0
  0
LINE
  5
9B7
330
6F
100
AcDbEntity
  8
DETAIL
  6
Continuous
100
AcDbLine
 10
492.86512135461
 20
753.1081967056564
 30
0.0
 11
446.839878681988
 21
733.5716402811921
 31
0.0
  0
LINE
  5
9B8
330
6F
100
AcDbEntity
  8
DETAIL
  6
Continuous
100
AcDbLine
 10
507.5566117858038
 20
718.4972142158436
 30
0.0
 11
-484.7476202359062
 21
297.2890577044153
 31
0.0
  0
ARC
  5
9B9
330
6F
100
AcDbEntity
  8
DETAIL
  6
Continuous
100
AcDbCircle
 10
490.5369406814948
 20
872.0
 30
0.0
 40
5.0
100
AcDbArc
 50
180.0
 51
0.0
  0
ARC
  5
9BA
330
6F
100
AcDbEntity
  8
DETAIL
  6
Continuous
100
AcDbCircle
 10
490.5369406814948
 20
897.9999999999996
 30
0.0
 40
5.0
100
AcDbArc
 50
0.0
 51
180.0
  0
LINE
  5
9BB
330
6F
100
AcDbEntity
  8
DETAIL
  6
Continuous
100
AcDbLine
 10
485.5369406814943
 20
897.9999999999996
 30
0.0
 11
485.5369406814943
 21
872.0
 31
0.0
  0
LINE
  5
9BC
330
6F
100
AcDbEntity
  8
DETAIL
  6
Continuous
100
AcDbLine
 10
495.5369406814948
 20
897.9999999999996
 30
0.0
 11
495.5369406814948
 21
872.0
 31
0.0
  0
ARC
  5
9BD
330
6F
100
AcDbEntity
  8
DETAIL
  6
Continuous
100
AcDbCircle
 10
490.5369406814948
 20
822.0
 30
0.0
 40
5.0
100
AcDbArc
 50
180.0
 51
0.0
  0
ARC
  5
9BE
330
6F
100
AcDbEntity
  8
DETAIL
  6
Continuous
100
AcDbCircle
 10
490.5369406814948
 20
848.0
 30
0.0
 40
5.0
100
AcDbArc
 50
0.0
 51
180.0
  0
LINE
  5
9BF
330
6F
100
AcDbEntity
  8
DETAIL
  6
Continuous
100
AcDbLine
 10
485.5369406814943
 20
848.0
 30
0.0
 11
485.5369406814943
 21
822.0
 31
0.0
  0
LINE
  5
9C0
330
6F
100
AcDbEntity
  8
DETAIL
  6
Continuous
100
AcDbLine
 10
495.5369406814948
 20
848.0
 30
0.0
 11
495.5369406814948
 21
822.0
 31
0.0
  0
ARC
  5
9C1
330
6F
100
AcDbEntity
  8
DETAIL
  6
Continuous
100
AcDbCircle
 10
490.5369406814948
 20
772.0000000000001
 30
0.0
 40
5.0
100
AcDbArc
 50
180.0
 51
0.0
  0
ARC
  5
9C2
330
6F
100
AcDbEntity
  8
DETAIL
  6
Continuous
100
AcDbCircle
 10
490.5369406814948
 20
798.0000000000001
 30
0.0
 40
5.0
100
AcDbArc
 50
0.0
 51
180.0
  0
LINE
  5
9C3
330
6F
100
AcDbEntity
  8
DETAIL
  6
Continuous
100
AcDbLine
 10
485.5369406814943
 20
798.0000000000001
 30
0.0
 11
485.5369406814943
 21
772.0000000000001
 31
0.0
  0
LINE
  5
9C4
330
6F
100
AcDbEntity
  8
DETAIL
  6
Continuous
100
AcDbLine
 10
495.5369406814948
 20
798.0000000000001
 30
0.0
 11
495.5369406814948
 21
772.0000000000001
 31
0.0
  0
ARC
  5
9C5
330
6F
100
AcDbEntity
  8
DETAIL
  6
Continuous
100
AcDbCircle
 10
490.5369406814948
 20
722.0000000000001
 30
0.0
 40
5.0
100
AcDbArc
 50
180.0
 51
0.0
  0
ARC
  5
9C6
330
6F
100
AcDbEntity
  8
DETAIL
  6
Continuous
100
AcDbCircle
 10
490.5369406814948
 20
748.0000000000001
 30
0.0
 40
5.0
100
AcDbArc
 50
0.0
 51
180.0
  0
LINE
  5
9C7
330
6F
100
AcDbEntity
  8
DETAIL
  6
Continuous
100
AcDbLine
 10
485.5369406814943
 20
748.0000000000001
 30
0.0
 11
485.5369406814943
 21
722.0000000000001
 31
0.0
  0
LINE
  5
9C8
330
6F
100
AcDbEntity
  8
DETAIL
  6
Continuous
100
AcDbLine
 10
495.5369406814948
 20
748.0000000000001
 30
0.0
 11
495.5369406814948
 21
722.0000000000001
 31
0.0
  0
ARC
  5
9C9
330
6F
100
AcDbEntity
  8
DETAIL
  6
Continuous
100
AcDbCircle
 10
490.5369406814948
 20
672.0
 30
0.0
 40
5.0
100
AcDbArc
 50
180.0
 51
0.0
  0
ARC
  5
9CA
330
6F
100
AcDbEntity
  8
DETAIL
  6
Continuous
100
AcDbCircle
 10
490.5369406814948
 20
698.0000000000001
 30
0.0
 40
5.0
100
AcDbArc
 50
0.0
 51
180.0
  0
LINE
  5
9CB
330
6F
100
AcDbEntity
  8
DETAIL
  6
Continuous
100
AcDbLine
 10
485.5369406814943
 20
698.0000000000001
 30
0.0
 11
485.5369406814943
 21
672.0
 31
0.0
  0
LINE
  5
9CC
330
6F
100
AcDbEntity
  8
DETAIL
  6
Continuous
100
AcDbLine
 10
495.5369406814948
 20
698.0000000000001
 30
0.0
 11
495.5369406814948
 21
672.0
 31
0.0
  0
ARC
  5
9CD
330
6F
100
AcDbEntity
  8
DETAIL
  6
Continuous
100
AcDbCircle
 10
490.5369406814948
 20
622.0
 30
0.0
 40
5.0
100
AcDbArc
 50
180.0
 51
0.0
  0
ARC
  5
9CE
330
6F
100
AcDbEntity
  8
DETAIL
  6
Continuous
100
AcDbCircle
 10
490.5369406814948
 20
648.0000000000001
 30
0.0
 40
5.0
100
AcDbArc
 50
0.0
 51
180.0
  0
LINE
  5
9CF
330
6F
100
AcDbEntity
  8
DETAIL
  6
Continuous
100
AcDbLine
 10
485.5369406814943
 20
648.0000000000001
 30
0.0
 11
485.5369406814943
 21
622.0
 31
0.0
  0
LINE
  5
9D0
330
6F
100
AcDbEntity
  8
DETAIL
  6
Continuous
100
AcDbLine
 10
495.5369406814948
 20
648.0000000000001
 30
0.0
 11
495.5369406814948
 21
622.0
 31
0.0
  0
LINE
  5
9D1
330
6F
100
AcDbEntity
  8
DETAIL
  6
Continuous
100
AcDbLine
 10
495.5369406814947
 20
248.0000000000019
 30
0.0
 11
495.5369406814947
 21
222.0000000000019
 31
0.0
  0
LINE
  5
9D2
330
6F
100
AcDbEntity
  8
DETAIL
  6
Continuous
100
AcDbLine
 10
485.5369406814941
 20
248.0000000000019
 30
0.0
 11
485.5369406814941
 21
222.0000000000019
 31
0.0
  0
ARC
  5
9D3
330
6F
100
AcDbEntity
  8
DETAIL
  6
Continuous
100
AcDbCircle
 10
490.5369406814947
 20
248.0000000000019
 30
0.0
 40
5.0
100
AcDbArc
 50
0.0
 51
180.0
  0
ARC
  5
9D4
330
6F
100
AcDbEntity
  8
DETAIL
  6
Continuous
100
AcDbCircle
 10
490.5369406814947
 20
222.0000000000019
 30
0.0
 40
5.0
100
AcDbArc
 50
180.0
 51
0.0
  0
LINE
  5
9D5
330
6F
100
AcDbEntity
  8
DETAIL
  6
Continuous
100
AcDbLine
 10
495.5369406814948
 20
328.0000000000001
 30
0.0
 11
495.5369406814948
 21
302.0000000000001
 31
0.0
  0
LINE
  5
9D6
330
6F
100
AcDbEntity
  8
DETAIL
  6
Continuous
100
AcDbLine
 10
485.5369406814943
 20
328.0000000000001
 30
0.0
 11
485.5369406814943
 21
302.0000000000001
 31
0.0
  0
ARC
  5
9D7
330
6F
100
AcDbEntity
  8
DETAIL
  6
Continuous
100
AcDbCircle
 10
490.5369406814948
 20
323.0000000000001
 30
0.0
 40
5.0
100
AcDbArc
 50
0.0
 51
180.0
  0
ARC
  5
9D8
330
6F
100
AcDbEntity
  8
DETAIL
  6
Continuous
100
AcDbCircle
 10
490.5369406814948
 20
302.0000000000001
 30
0.0
 40
5.0
100
AcDbArc
 50
180.0
 51
0.0
  0
LINE
  5
9D9
330
6F
100
AcDbEntity
  8
DETAIL
  6
DASHED
100
AcDbLine
 10
-495.4630593185051
 20
42.50000000000007
 30
0.0
 11
-495.4630593185051
 21
37.50000000000009
 31
0.0
  0
ARC
  5
9DA
330
6F
100
AcDbEntity
  8
DETAIL
  6
DASHED
100
AcDbCircle
 10
-490.463059318505
 20
42.50000000000007
 30
0.0
 40
5.0
100
AcDbArc
 50
0.0
 51
180.0
  0
LINE
  5
9DB
330
6F
100
AcDbEntity
  8
DETAIL
  6
DASHED
100
AcDbLine
 10
-485.463059318505
 20
42.50000000000007
 30
0.0
 11
-485.463059318505
 21
37.50000000000009
 31
0.0
  0
ARC
  5
9DC
330
6F
100
AcDbEntity
  8
DETAIL
  6
DASHED
100
AcDbCircle
 10
-490.463059318505
 20
37.50000000000009
 30
0.0
 40
5.0
100
AcDbArc
 50
180.0
 51
0.0
  0
LINE
  5
9DD
330
6F
100
AcDbEntity
  8
DETAIL
  6
Continuous
100
AcDbLine
 10
-495.4630593185051
 20
328.0
 30
0.0
 11
-495.4630593185051
 21
301.9999999999999
 31
0.0
  0
LINE
  5
9DE
330
6F
100
AcDbEntity
  8
DETAIL
  6
Continuous
100
AcDbLine
 10
-485.463059318505
 20
328.0
 30
0.0
 11
-485.463059318505
 21
301.9999999999999
 31
0.0
  0
ARC
  5
9DF
330
6F
100
AcDbEntity
  8
DETAIL
  6
Continuous
100
AcDbCircle
 10
-490.463059318505
 20
328.0
 30
0.0
 40
5.0
100
AcDbArc
 50
0.0
 51
180.0
  0
ARC
  5
9E0
330
6F
100
AcDbEntity
  8
DETAIL
  6
Continuous
100
AcDbCircle
 10
-490.463059318505
 20
301.9999999999999
 30
0.0
 40
5.0
100
AcDbArc
 50
180.0
 51
0.0
  0
LINE
  5
9E1
330
6F
100
AcDbEntity
  8
DETAIL
  6
Continuous
100
AcDbLine
 10
-495.4630593185051
 20
248.0000000000019
 30
0.0
 11
-495.4630593185051
 21
222.0000000000019
 31
0.0
  0
LINE
  5
9E2
330
6F
100
AcDbEntity
  8
DETAIL
  6
Continuous
100
AcDbLine
 10
-485.463059318505
 20
248.0000000000019
 30
0.0
 11
-485.463059318505
 21
222.0000000000019
 31
0.0
  0
ARC
  5
9E3
330
6F
100
AcDbEntity
  8
DETAIL
  6
Continuous
100
AcDbCircle
 10
-490.4630593185051
 20
248.0000000000019
 30
0.0
 40
5.0
100
AcDbArc
 50
0.0
 51
180.0
  0
ARC
  5
9E4
330
6F
100
AcDbEntity
  8
DETAIL
  6
Continuous
100
AcDbCircle
 10
-490.4630593185051
 20
222.0000000000019
 30
0.0
 40
5.0
100
AcDbArc
 50
180.0
 51
0.0
  0
ARC
  5
9E5
330
6F
100
AcDbEntity
  8
DETAIL
  6
Continuous
100
AcDbCircle
 10
-490.463059318505
 20
622.0
 30
0.0
 40
5.0
100
AcDbArc
 50
180.0
 51
0.0
  0
ARC
  5
9E6
330
6F
100
AcDbEntity
  8
DETAIL
  6
Continuous
100
AcDbCircle
 10
-490.463059318505
 20
648.0000000000001
 30
0.0
 40
5.0
100
AcDbArc
 50
0.0
 51
180.0
  0
LINE
  5
9E7
330
6F
100
AcDbEntity
  8
DETAIL
  6
Continuous
100
AcDbLine
 10
-495.4630593185051
 20
648.0000000000001
 30
0.0
 11
-495.4630593185051
 21
622.0
 31
0.0
  0
ARC
  5
9E8
330
6F
100
AcDbEntity
  8
DETAIL
  6
Continuous
100
AcDbCircle
 10
-490.463059318505
 20
672.0
 30
0.0
 40
5.0
100
AcDbArc
 50
180.0
 51
0.0
  0
ARC
  5
9E9
330
6F
100
AcDbEntity
  8
DETAIL
  6
Continuous
100
AcDbCircle
 10
-490.463059318505
 20
698.0000000000001
 30
0.0
 40
5.0
100
AcDbArc
 50
0.0
 51
180.0
  0
LINE
  5
9EA
330
6F
100
AcDbEntity
  8
DETAIL
  6
Continuous
100
AcDbLine
 10
-495.4630593185051
 20
698.0000000000001
 30
0.0
 11
-495.4630593185051
 21
672.0
 31
0.0
  0
LINE
  5
9EB
330
6F
100
AcDbEntity
  8
DETAIL
  6
Continuous
100
AcDbLine
 10
-485.463059318505
 20
698.0000000000001
 30
0.0
 11
-485.463059318505
 21
672.0
 31
0.0
  0
LINE
  5
9EC
330
6F
100
AcDbEntity
  8
DETAIL
  6
Continuous
100
AcDbLine
 10
-485.463059318505
 20
648.0000000000001
 30
0.0
 11
-485.463059318505
 21
622.0
 31
0.0
  0
ARC
  5
9ED
330
6F
100
AcDbEntity
  8
DETAIL
  6
Continuous
100
AcDbCircle
 10
-490.463059318505
 20
772.0000000000001
 30
0.0
 40
5.0
100
AcDbArc
 50
180.0
 51
0.0
  0
ARC
  5
9EE
330
6F
100
AcDbEntity
  8
DETAIL
  6
Continuous
100
AcDbCircle
 10
-490.463059318505
 20
798.0000000000001
 30
0.0
 40
5.0
100
AcDbArc
 50
0.0
 51
180.0
  0
LINE
  5
9EF
330
6F
100
AcDbEntity
  8
DETAIL
  6
Continuous
100
AcDbLine
 10
-485.463059318505
 20
798.0000000000001
 30
0.0
 11
-485.463059318505
 21
772.0000000000001
 31
0.0
  0
LINE
  5
9F0
330
6F
100
AcDbEntity
  8
DETAIL
  6
Continuous
100
AcDbLine
 10
-495.4630593185051
 20
798.0000000000001
 30
0.0
 11
-495.4630593185051
 21
772.0000000000001
 31
0.0
  0
ARC
  5
9F1
330
6F
100
AcDbEntity
  8
DETAIL
  6
Continuous
100
AcDbCircle
 10
-490.463059318505
 20
822.0
 30
0.0
 40
5.0
100
AcDbArc
 50
180.0
 51
0.0
  0
ARC
  5
9F2
330
6F
100
AcDbEntity
  8
DETAIL
  6
Continuous
100
AcDbCircle
 10
-490.463059318505
 20
848.0
 30
0.0
 40
5.0
100
AcDbArc
 50
0.0
 51
180.0
  0
LINE
  5
9F3
330
6F
100
AcDbEntity
  8
DETAIL
  6
Continuous
100
AcDbLine
 10
-485.463059318505
 20
848.0
 30
0.0
 11
-485.463059318505
 21
822.0
 31
0.0
  0
LINE
  5
9F4
330
6F
100
AcDbEntity
  8
DETAIL
  6
Continuous
100
AcDbLine
 10
-495.4630593185051
 20
848.0
 30
0.0
 11
-495.4630593185051
 21
822.0
 31
0.0
  0
ARC
  5
9F5
330
6F
100
AcDbEntity
  8
DETAIL
  6
Continuous
100
AcDbCircle
 10
-490.463059318505
 20
872.0
 30
0.0
 40
5.0
100
AcDbArc
 50
180.0
 51
0.0
  0
ARC
  5
9F6
330
6F
100
AcDbEntity
  8
DETAIL
  6
Continuous
100
AcDbCircle
 10
-490.463059318505
 20
897.9999999999996
 30
0.0
 40
5.0
100
AcDbArc
 50
0.0
 51
180.0
  0
LINE
  5
9F7
330
6F
100
AcDbEntity
  8
DETAIL
  6
Continuous
100
AcDbLine
 10
-485.463059318505
 20
897.9999999999996
 30
0.0
 11
-485.463059318505
 21
872.0
 31
0.0
  0
LINE
  5
9F8
330
6F
100
AcDbEntity
  8
DETAIL
  6
Continuous
100
AcDbLine
 10
-495.4630593185051
 20
897.9999999999996
 30
0.0
 11
-495.4630593185051
 21
872.0
 31
0.0
  0
ARC
  5
9F9
330
6F
100
AcDbEntity
  8
DETAIL
  6
Continuous
100
AcDbCircle
 10
-490.463059318505
 20
921.9999999999997
 30
0.0
 40
5.0
100
AcDbArc
 50
180.0
 51
0.0
  0
ARC
  5
9FA
330
6F
100
AcDbEntity
  8
DETAIL
  6
Continuous
100
AcDbCircle
 10
-490.463059318505
 20
947.9999999999996
 30
0.0
 40
5.0
100
AcDbArc
 50
0.0
 51
180.0
  0
LINE
  5
9FB
330
6F
100
AcDbEntity
  8
DETAIL
  6
Continuous
100
AcDbLine
 10
-485.463059318505
 20
947.9999999999996
 30
0.0
 11
-485.463059318505
 21
921.9999999999997
 31
0.0
  0
LINE
  5
9FC
330
6F
100
AcDbEntity
  8
DETAIL
  6
Continuous
100
AcDbLine
 10
-495.4630593185051
 20
947.9999999999996
 30
0.0
 11
-495.4630593185051
 21
921.9999999999997
 31
0.0
  0
ARC
  5
9FD
330
6F
100
AcDbEntity
  8
DETAIL
  6
Continuous
100
AcDbCircle
 10
-490.463059318505
 20
722.0000000000001
 30
0.0
 40
5.0
100
AcDbArc
 50
180.0
 51
0.0
  0
LINE
  5
9FE
330
6F
100
AcDbEntity
  8
DETAIL
  6
Continuous
100
AcDbLine
 10
-495.4630593185051
 20
748.0000000000001
 30
0.0
 11
-495.4630593185051
 21
722.0000000000001
 31
0.0
  0
LINE
  5
9FF
330
6F
100
AcDbEntity
  8
DETAIL
  6
Continuous
100
AcDbLine
 10
-485.463059318505
 20
748.0000000000001
 30
0.0
 11
-485.463059318505
 21
722.0000000000001
 31
0.0
  0
ARC
  5
A00
330
6F
100
AcDbEntity
  8
DETAIL
  6
Continuous
100
AcDbCircle
 10
-490.463059318505
 20
748.0000000000001
 30
0.0
 40
5.0
100
AcDbArc
 50
0.0
 51
180.0
  0
LINE
  5
A01
330
6F
100
AcDbEntity
  8
DETAIL
  6
Continuous
100
AcDbLine
 10
-472.463059318504
 20
703.632245760121
 30
0.0
 11
-51.14915262345403
 21
524.7951026491887
 31
0.0
  0
LINE
  5
A02
330
6F
100
AcDbEntity
  8
DETAIL
  6
Continuous
100
AcDbLine
 10
-445.8282426106234
 20
735.7808519294787
 30
0.0
 11
0.0369406814947979
 21
546.5223101972947
 31
0.0
  0
LINE
  5
A03
330
6F
100
AcDbEntity
  8
DETAIL
  6
Continuous
100
AcDbLine
 10
-445.8282426106234
 20
735.7808519294787
 30
0.0
 11
-446.7659973189979
 21
733.5716402811921
 31
0.0
  0
LINE
  5
A04
330
6F
100
AcDbEntity
  8
DETAIL
  6
Continuous
100
AcDbLine
 10
-472.463059318504
 20
744.4793959505597
 30
0.0
 11
-446.7659973189979
 21
733.5716402811921
 31
0.0
  0
LINE
  5
A05
330
6F
100
AcDbEntity
  8
DETAIL
  6
Continuous
100
AcDbLine
 10
472.5369406814943
 20
343.3506946325055
 30
0.0
 11
453.4877493574978
 21
351.4365966186996
 31
0.0
  0
LINE
  5
A06
330
6F
100
AcDbEntity
  8
DETAIL
  6
Continuous
100
AcDbLine
 10
454.4255040658726
 20
353.6458082669857
 30
0.0
 11
453.4877493574978
 21
351.4365966186996
 31
0.0
  0
LINE
  5
A07
330
6F
100
AcDbEntity
  8
DETAIL
  6
Continuous
100
AcDbLine
 10
51.22303398644408
 20
524.7951026491887
 30
0.0
 11
454.4255040658647
 21
353.645808266968
 31
0.0
  0
LINE
  5
A08
330
6F
100
AcDbEntity
  8
DETAIL
  6
Continuous
100
AcDbLine
 10
0.0369406814947979
 20
503.067895101083
 30
0.0
 11
472.5369406814943
 21
302.5035444420451
 31
0.0
  0
LINE
  5
A09
330
6F
100
AcDbEntity
  8
DETAIL
  6
Continuous
100
AcDbLine
 10
-446.2971199648108
 20
734.6762461053357
 30
0.0
 11
-1.498642117653161
 21
545.8704939708518
 31
0.0
  0
LINE
  5
A0A
330
6F
100
AcDbEntity
  8
DETAIL
  6
Continuous
100
AcDbLine
 10
49.68745118729611
 20
524.1432864227459
 30
0.0
 11
453.9566267116779
 21
352.5412024428251
 31
0.0
  0
LINE
  5
A0B
330
6F
100
AcDbEntity
  8
BASIS
  6
DASHDOT
100
AcDbLine
 10
0.0369406814947979
 20
2002.48208271806
 30
0.0
 11
0.0369406814947979
 21
-49.7176822079437
 31
0.0
  0
LINE
  5
A0C
330
6F
100
AcDbEntity
  8
SIZE
  6
Continuous
 62
    30
100
AcDbLine
 10
-489.963059318505
 20
-30.00000000000002
 30
0.0
 11
-489.963059318505
 21
-310.1000000238419
 31
0.0
  0
LINE
  5
A0D
330
6F
100
AcDbEntity
  8
SIZE
  6
Continuous
 62
    30
100
AcDbLine
 10
490.0369406814948
 20
-30.00000000000002
 30
0.0
 11
490.0369406814948
 21
-310.1000000238419
 31
0.0
  0
LINE
  5
A0E
330
6F
100
AcDbEntity
  8
SIZE
  6
Continuous
 62
    30
100
AcDbLine
 10
-479.963059318505
 20
-297.6000000238419
 30
0.0
 11
480.0369406814946
 21
-297.6000000238419
 31
0.0
  0
CIRCLE
  5
A0F
330
6F
100
AcDbEntity
  8
SIZE
  6
Continuous
 62
    30
100
AcDbCircle
 10
-489.963059318505
 20
-297.6000000238419
 30
0.0
 40
5.0
  0
LINE
  5
A10
330
6F
100
AcDbEntity
  8
SIZE
  6
Continuous
 62
    30
100
AcDbLine
 10
-489.963059318505
 20
-297.6000000238419
 30
0.0
 11
-479.963059318505
 21
-297.6000000238419
 31
0.0
  0
CIRCLE
  5
A11
330
6F
100
AcDbEntity
  8
SIZE
  6
Continuous
 62
    30
100
AcDbCircle
 10
490.0369406814948
 20
-297.6000000238419
 30
0.0
 40
5.0
  0
LINE
  5
A12
330
6F
100
AcDbEntity
  8
SIZE
  6
Continuous
 62
    30
100
AcDbLine
 10
490.0369406814948
 20
-297.6000000238419
 30
0.0
 11
480.0369406814946
 21
-297.6000000238419
 31
0.0
  0
TEXT
  5
A13
330
6F
100
AcDbEntity
  8
SIZE
  6
Continuous
 62
    30
100
AcDbText
 10
-37.46305942341314
 20
-287.6000000238418
 30
0.0
 40
30.0
  1
980
 72
     1
 11
0.0369405765868578
 21
-287.6000000238418
 31
0.0
100
AcDbText
  0
POINT
  5
A14
330
6F
100
AcDbEntity
  8
DEFPOINTS
  6
Continuous
 62
    30
100
AcDbPoint
 10
-489.963059318505
 20
-20.00000000000011
 30
0.0
  0
POINT
  5
A15
330
6F
100
AcDbEntity
  8
DEFPOINTS
  6
Continuous
 62
    30
100
AcDbPoint
 10
490.0369406814948
 20
-20.00000000000011
 30
0.0
  0
POINT
  5
A16
330
6F
100
AcDbEntity
  8
DEFPOINTS
  6
Continuous
 62
    30
100
AcDbPoint
 10
490.0369406814948
 20
-297.6000000238419
 30
0.0
  0
LINE
  5
A17
330
6F
100
AcDbEntity
  8
SIZE
  6
Continuous
 62
    30
100
AcDbLine
 10
-249.9630593185052
 20
785.0000000000001
 30
0.0
 11
-249.9630593185052
 21
-160.1000000238419
 31
0.0
  0
LINE
  5
A18
330
6F
100
AcDbEntity
  8
SIZE
  6
Continuous
 62
    30
100
AcDbLine
 10
250.0369406814948
 20
785.0000000000001
 30
0.0
 11
250.0369406814948
 21
-160.1000000238419
 31
0.0
  0
LINE
  5
A19
330
6F
100
AcDbEntity
  8
SIZE
  6
Continuous
 62
    30
100
AcDbLine
 10
-239.9630593185052
 20
-147.6000000238419
 30
0.0
 11
240.0369406814948
 21
-147.6000000238419
 31
0.0
  0
CIRCLE
  5
A1A
330
6F
100
AcDbEntity
  8
SIZE
  6
Continuous
 62
    30
100
AcDbCircle
 10
-249.9630593185052
 20
-147.6000000238419
 30
0.0
 40
5.0
  0
LINE
  5
A1B
330
6F
100
AcDbEntity
  8
SIZE
  6
Continuous
 62
    30
100
AcDbLine
 10
-249.9630593185052
 20
-147.6000000238419
 30
0.0
 11
-239.9630593185052
 21
-147.6000000238419
 31
0.0
  0
CIRCLE
  5
A1C
330
6F
100
AcDbEntity
  8
SIZE
  6
Continuous
 62
    30
100
AcDbCircle
 10
250.0369406814948
 20
-147.6000000238419
 30
0.0
 40
5.0
  0
LINE
  5
A1D
330
6F
100
AcDbEntity
  8
SIZE
  6
Continuous
 62
    30
100
AcDbLine
 10
250.0369406814948
 20
-147.6000000238419
 30
0.0
 11
240.0369406814948
 21
-147.6000000238419
 31
0.0
  0
TEXT
  5
A1E
330
6F
100
AcDbEntity
  8
SIZE
  6
Continuous
 62
    30
100
AcDbText
 10
-34.96305942341314
 20
-137.6000000238419
 30
0.0
 40
30.0
  1
500
 72
     1
 11
0.0369405765868578
 21
-137.6000000238419
 31
0.0
100
AcDbText
  0
POINT
  5
A1F
330
6F
100
AcDbEntity
  8
DEFPOINTS
  6
Continuous
 62
    30
100
AcDbPoint
 10
-249.9630593185052
 20
794.9999999999996
 30
0.0
  0
POINT
  5
A20
330
6F
100
AcDbEntity
  8
DEFPOINTS
  6
Continuous
 62
    30
100
AcDbPoint
 10
250.0369406814948
 20
794.9999999999996
 30
0.0
  0
POINT
  5
A21
330
6F
100
AcDbEntity
  8
DEFPOINTS
  6
Continuous
 62
    30
100
AcDbPoint
 10
250.0369406814948
 20
-147.6000000238419
 30
0.0
  0
POINT
  5
A22
330
6F
100
AcDbEntity
  8
DEFPOINTS
  6
Continuous
 62
    30
100
AcDbPoint
 10
-509.963059318505
 20
0.0
 30
0.0
  0
POINT
  5
A23
330
6F
100
AcDbEntity
  8
DEFPOINTS
  6
Continuous
 62
    30
100
AcDbPoint
 10
-509.963059318505
 20
0.0
 30
0.0
  0
LINE
  5
A24
330
6F
100
AcDbEntity
  8
SIZE
  6
Continuous
 62
    30
100
AcDbLine
 10
550.0369406814948
 20
1968.0
 30
0.0
 11
550.0369406814948
 21
2122.899999976158
 31
0.0
  0
LINE
  5
A25
330
6F
100
AcDbEntity
  8
SIZE
  6
Continuous
 62
    30
100
AcDbLine
 10
-549.9630593185043
 20
1968.0
 30
0.0
 11
-549.9630593185043
 21
2122.899999976158
 31
0.0
  0
LINE
  5
A26
330
6F
100
AcDbEntity
  8
SIZE
  6
Continuous
 62
    30
100
AcDbLine
 10
540.0369406814948
 20
2110.399999976158
 30
0.0
 11
-539.9630593185052
 21
2110.399999976158
 31
0.0
  0
CIRCLE
  5
A27
330
6F
100
AcDbEntity
  8
SIZE
  6
Continuous
 62
    30
100
AcDbCircle
 10
550.0369406814948
 20
2110.399999976158
 30
0.0
 40
5.0
  0
LINE
  5
A28
330
6F
100
AcDbEntity
  8
SIZE
  6
Continuous
 62
    30
100
AcDbLine
 10
550.0369406814948
 20
2110.399999976158
 30
0.0
 11
540.0369406814948
 21
2110.399999976158
 31
0.0
  0
CIRCLE
  5
A29
330
6F
100
AcDbEntity
  8
SIZE
  6
Continuous
 62
    30
100
AcDbCircle
 10
-549.9630593185043
 20
2102.399999976158
 30
0.0
 40
5.0
  0
LINE
  5
A2A
330
6F
100
AcDbEntity
  8
SIZE
  6
Continuous
 62
    30
100
AcDbLine
 10
-549.9630593185043
 20
2102.399999976158
 30
0.0
 11
-539.9630593185052
 21
2102.399999976158
 31
0.0
  0
TEXT
  5
A2B
330
6F
100
AcDbEntity
  8
SIZE
  6
Continuous
 62
    30
100
AcDbText
 10
-39.96305942341314
 20
2120.399999976159
 30
0.0
 40
30.0
  1
1100
 72
     1
 11
0.0369405765868578
 21
2120.399999976159
 31
0.0
100
AcDbText
  0
POINT
  5
A2D
330
6F
100
AcDbEntity
  8
DEFPOINTS
  6
Continuous
 62
    30
100
AcDbPoint
 10
-549.9630593185043
 20
2102.399999976158
 30
0.0
  0
POINT
  5
A2E
330
6F
100
AcDbEntity
  8
DEFPOINTS
  6
Continuous
 62
    30
100
AcDbPoint
 10
-534.4630593185041
 20
864.9999698056019
 30
0.0
  0
POINT
  5
A2F
330
6F
100
AcDbEntity
  8
DEFPOINTS
  6
Continuous
 62
    30
100
AcDbPoint
 10
534.5369406814945
 20
864.9999698055996
 30
0.0
  0
LINE
  5
A30
330
6F
100
AcDbEntity
  8
NOTE
  6
Continuous
100
AcDbLine
 10
-1093.126414940974
 20
1006.888671875002
 30
0.0
 11
-664.9746559981925
 21
1006.888671875002
 31
0.0
  0
LINE
  5
A31
330
6F
100
AcDbEntity
  8
NOTE
  6
Continuous
100
AcDbLine
 10
-665.4746559981925
 20
1006.888671875002
 30
0.0
 11
-534.463114780465
 21
885.0000000000015
 31
0.0
  0
LINE
  5
A32
330
6F
100
AcDbEntity
  8
NOTE
  6
Continuous
100
AcDbLine
 10
-534.4630593185041
 20
884.9999698056016
 30
0.0
 11
-536.2196165100151
 21
885.9562683117987
 31
0.0
  0
LINE
  5
A33
330
6F
100
AcDbEntity
  8
NOTE
  6
Continuous
100
AcDbLine
 10
-534.4630593185041
 20
884.9999698056016
 30
0.0
 11
-535.506133191591
 21
886.7064272165226
 31
0.0
  0
TEXT
  5
A34
330
6F
100
AcDbEntity
  8
NOTE
  6
Continuous
100
AcDbText
 10
-1092.299886818065
 20
1011.663194465402
 30
0.0
 40
40.0
  1
AH 2-M8以上,推奨M10
 50
0.0000093526217011
 41
0.701388907432556
  7
STANDARD1
100
AcDbText
  0
LINE
  5
A35
330
6F
100
AcDbEntity
  8
NOTE
  6
Continuous
100
AcDbLine
 10
470.0369406814949
 20
0.0
 30
0.0
 11
510.0369406814943
 21
0.0
 31
0.0
  0
LINE
  5
A36
330
6F
100
AcDbEntity
  8
NOTE
  6
Continuous
100
AcDbLine
 10
490.0369406814948
 20
19.99999999999997
 30
0.0
 11
490.0369406814948
 21
-20.00000000000011
 31
0.0
  0
LINE
  5
A37
330
6F
100
AcDbEntity
  8
NOTE
  6
Continuous
100
AcDbLine
 10
1041.184401618995
 20
-170.5
 30
0.0
 11
605.934462654151
 21
-170.5
 31
0.0
  0
LINE
  5
A38
330
6F
100
AcDbEntity
  8
NOTE
  6
Continuous
100
AcDbLine
 10
605.934462654151
 20
-170.5
 30
0.0
 11
490.0369406814948
 21
-0.0000000046476174
 31
0.0
  0
LINE
  5
A39
330
6F
100
AcDbEntity
  8
NOTE
  6
Continuous
100
AcDbLine
 10
490.0369406814948
 20
-0.0000000046476174
 30
0.0
 11
491.5510662767301
 21
-1.306684236531495
 31
0.0
  0
LINE
  5
A3A
330
6F
100
AcDbEntity
  8
NOTE
  6
Continuous
100
AcDbLine
 10
490.0369406814948
 20
-0.0000000046476174
 30
0.0
 11
490.6948697680276
 21
-1.888684551387498
 31
0.0
  0
TEXT
  5
A3B
330
6F
100
AcDbEntity
  8
NOTE
  6
Continuous
100
AcDbText
 10
633.8403050668325
 20
-167.0687941152037
 30
0.0
 40
40.0
  1
AH 4-M8以上、推奨M10
 50
0.0000024148365395
 41
0.669642877578735
  7
STANDARD1
100
AcDbText
  0
LINE
  5
A3C
330
6F
100
AcDbEntity
  8
NOTE
  6
Continuous
100
AcDbLine
 10
-469.9630593185043
 20
0.0
 30
0.0
 11
-509.963059318505
 21
0.0
 31
0.0
  0
LINE
  5
A3D
330
6F
100
AcDbEntity
  8
NOTE
  6
Continuous
100
AcDbLine
 10
-489.963059318505
 20
19.99999999999997
 30
0.0
 11
-489.963059318505
 21
-20.00000000000011
 31
0.0
  0
LINE
  5
A3E
330
6F
100
AcDbEntity
  8
NOTE
  6
Continuous
100
AcDbLine
 10
-249.9630593185052
 20
835.0000000000001
 30
0.0
 11
-249.9630593185052
 21
794.9999999999996
 31
0.0
  0
LINE
  5
A3F
330
6F
100
AcDbEntity
  8
NOTE
  6
Continuous
100
AcDbLine
 10
-229.9630593185052
 20
814.9999999999996
 30
0.0
 11
-269.9630593185052
 21
814.9999999999996
 31
0.0
  0
LINE
  5
A40
330
6F
100
AcDbEntity
  8
NOTE
  6
Continuous
100
AcDbLine
 10
-1314.644210709311
 20
593.2091294065376
 30
0.0
 11
-906.828948579422
 21
593.2091294065376
 31
0.0
  0
LINE
  5
A41
330
6F
100
AcDbEntity
  8
NOTE
  6
Continuous
100
AcDbLine
 10
-906.828948579422
 20
593.2091294065376
 30
0.0
 11
-249.9630593185052
 21
814.9999999999996
 31
0.0
  0
LINE
  5
A42
330
6F
100
AcDbEntity
  8
NOTE
  6
Continuous
100
AcDbLine
 10
-249.9630593185052
 20
814.9999999999996
 30
0.0
 11
-251.4212128845779
 21
813.6311361726786
 31
0.0
  0
LINE
  5
A43
330
6F
100
AcDbEntity
  8
NOTE
  6
Continuous
100
AcDbLine
 10
-249.9630593185052
 20
814.9999999999996
 30
0.0
 11
-251.9102892696533
 21
814.5436059626266
 31
0.0
  0
TEXT
  5
A44
330
6F
100
AcDbEntity
  8
NOTE
  6
Continuous
100
AcDbText
 10
-1315.578360220654
 20
646.2334334003776
 30
0.0
 40
40.0
  1
４－ワッシャー付六角ボルト
 50
0.0000024148365395
 41
0.6740384817123412
  7
STANDARD1
100
AcDbText
  0
LINE
  5
A45
330
6F
100
AcDbEntity
  8
NOTE
  6
Continuous
100
AcDbLine
 10
250.0369406814948
 20
835.0000000000001
 30
0.0
 11
250.0369406814948
 21
794.9999999999996
 31
0.0
  0
LINE
  5
A46
330
6F
100
AcDbEntity
  8
NOTE
  6
Continuous
100
AcDbLine
 10
230.0369406814948
 20
814.9999999999996
 30
0.0
 11
270.0369406814949
 21
814.9999999999996
 31
0.0
  0
TEXT
  5
A47
330
6F
100
AcDbEntity
  8
NOTE
  6
Continuous
100
AcDbText
 10
-202.3217781905751
 20
-602.9777221679686
 30
0.0
 40
40.0
  1
転倒防止金具固定位置
 50
0.0000025613209388
 41
0.84375
  7
STANDARD1
100
AcDbText
  0
TEXT
  5
A48
330
6F
100
AcDbEntity
  8
NOTE
  6
Continuous
100
AcDbText
 10
-60.97537316127819
 20
2055.717895507815
 30
0.0
 40
40.0
  1
屋根幅
 50
0.0000025613209388
 41
0.84375
  7
STANDARD1
100
AcDbText
  0
TEXT
  5
A49
330
6F
100
AcDbEntity
  8
NOTE
  6
Continuous
100
AcDbText
 10
859.4166837289099
 20
895.4026521229737
 30
0.0
 40
40.0
  1
屋根高さ
 50
90.00000500895634
 41
0.84375
  7
STANDARD1
100
AcDbText
  0
TEXT
  5
A4A
330
6F
100
AcDbEntity
  8
NOTE
  6
Continuous
100
AcDbText
 10
-190.688095939598
 20
-346.6846923828125
 30
0.0
 40
40.0
  1
アンカーボルトピッチ
 50
0.0000025613209388
 41
0.84375
  7
STANDARD1
100
AcDbText
  0
LINE
  5
A4B
330
6F
100
AcDbEntity
  8
NOTE
  6
Continuous
100
AcDbLine
 10
-534.4630593185041
 20
865.0000000000023
 30
0.0
 11
-534.4630593185041
 21
905.0000000000016
 31
0.0
  0
LINE
  5
A4C
330
6F
100
AcDbEntity
  8
NOTE
  6
Continuous
100
AcDbLine
 10
-554.4630593185045
 20
885.0000000000015
 30
0.0
 11
-514.4630593185041
 21
885.0000000000015
 31
0.0
  0
LINE
  5
A4D
330
6F
100
AcDbEntity
  8
NOTE
  6
Continuous
100
AcDbLine
 10
534.5369406814945
 20
865.0
 30
0.0
 11
534.5369406814945
 21
904.9999999999997
 31
0.0
  0
LINE
  5
A4E
330
6F
100
AcDbEntity
  8
NOTE
  6
Continuous
100
AcDbLine
 10
554.5369406814939
 20
884.9999999999996
 30
0.0
 11
514.5369406814943
 21
884.9999999999996
 31
0.0
  0
TEXT
  5
A4F
330
6F
100
AcDbEntity
  8
NOTE
  6
Continuous
100
AcDbText
 10
-176.8115853194822
 20
-198.6341857910156
 30
0.0
 40
40.0
  1
据付用ボルトピッチ
 50
0.0000025613209388
 41
0.84375
  7
STANDARD1
100
AcDbText
  0
CIRCLE
  5
A51
330
6F
100
AcDbEntity
  8
FIX
  6
Continuous
100
AcDbCircle
 10
490.0369406814948
 20
0.0
 30
0.0
 40
5.0
  0
CIRCLE
  5
A52
330
6F
100
AcDbEntity
  8
FIX
  6
Continuous
100
AcDbCircle
 10
-489.963059318505
 20
0.0
 30
0.0
 40
5.0
  0
CIRCLE
  5
A53
330
6F
100
AcDbEntity
  8
FIX
  6
Continuous
100
AcDbCircle
 10
-249.9630593185052
 20
814.9999999999996
 30
0.0
 40
4.0
  0
CIRCLE
  5
A54
330
6F
100
AcDbEntity
  8
FIX
  6
Continuous
100
AcDbCircle
 10
250.0369406814948
 20
814.9999999999996
 30
0.0
 40
4.0
  0
CIRCLE
  5
A55
330
6F
100
AcDbEntity
  8
FIX
  6
Continuous
100
AcDbCircle
 10
-534.4630593185041
 20
885.0000000000015
 30
0.0
 40
6.0
  0
CIRCLE
  5
A56
330
6F
100
AcDbEntity
  8
FIX
  6
Continuous
100
AcDbCircle
 10
534.5369406814945
 20
884.9999999999996
 30
0.0
 40
6.0
  0
LINE
  5
A59
330
6F
100
AcDbEntity
  8
SYMBOLLINE
  6
PHANTOMX2
 48
30.0
100
AcDbLine
 10
-269.9630593185052
 20
822.9999999999996
 30
0.0
 11
-229.9630593185052
 21
822.9999999999996
 31
0.0
  0
LINE
  5
A5A
330
6F
100
AcDbEntity
  8
SYMBOLLINE
  6
PHANTOMX2
 48
30.0
100
AcDbLine
 10
230.0369406814948
 20
822.9999999999996
 30
0.0
 11
270.0369406814949
 21
822.9999999999996
 31
0.0
  0
LINE
  5
A5B
330
6F
100
AcDbEntity
  8
SYMBOLLINE
  6
PHANTOMX2
 48
30.0
100
AcDbLine
 10
400.0369406814948
 20
1428.0
 30
0.0
 11
416.0369406814949
 21
1428.0
 31
0.0
  0
LINE
  5
A5C
330
6F
100
AcDbEntity
  8
SYMBOLLINE
  6
PHANTOMX2
 48
30.0
100
AcDbLine
 10
400.0369406814948
 20
1448.5
 30
0.0
 11
416.0369406814949
 21
1428.0
 31
0.0
  0
LINE
  5
A5D
330
6F
100
AcDbEntity
  8
SYMBOLLINE
  6
PHANTOMX2
 48
30.0
100
AcDbLine
 10
-399.9630593185051
 20
1428.0
 30
0.0
 11
-415.9630593185051
 21
1428.0
 31
0.0
  0
LINE
  5
A5E
330
6F
100
AcDbEntity
  8
SYMBOLLINE
  6
PHANTOMX2
 48
30.0
100
AcDbLine
 10
-399.9630593185051
 20
1448.5
 30
0.0
 11
-415.9630593185051
 21
1428.0
 31
0.0
  0
LINE
  5
A5F
330
6F
100
AcDbEntity
  8
SYMBOLLINE
  6
PHANTOMX2
 48
30.0
100
AcDbLine
 10
400.0369406814948
 20
1428.0
 30
0.0
 11
-415.9630593185051
 21
1428.0
 31
0.0
  0
ARC
  5
A60
330
6F
100
AcDbEntity
  8
SYMBOLLINE
  6
PHANTOMX2
 48
30.0
100
AcDbCircle
 10
-394.9630593185052
 20
1448.0
 30
0.0
 40
5.0
100
AcDbArc
 50
90.0
 51
180.0
  0
ARC
  5
A61
330
6F
100
AcDbEntity
  8
SYMBOLLINE
  6
PHANTOMX2
 48
30.0
100
AcDbCircle
 10
395.0369406814949
 20
1448.0
 30
0.0
 40
5.0
100
AcDbArc
 50
0.0
 51
90.0
  0
LINE
  5
A62
330
6F
100
AcDbEntity
  8
SYMBOLLINE
  6
PHANTOMX2
 48
30.0
100
AcDbLine
 10
395.0369406814949
 20
1453.0
 30
0.0
 11
-394.9630593185052
 21
1453.0
 31
0.0
  0
LINE
  5
A63
330
6F
100
AcDbEntity
  8
SYMBOLLINE
  6
PHANTOMX2
 48
30.0
100
AcDbLine
 10
470.0369406814949
 20
1076.90625
 30
0.0
 11
470.0369406814949
 21
869.8749999999996
 31
0.0
  0
LINE
  5
A64
330
6F
100
AcDbEntity
  8
SYMBOLLINE
  6
PHANTOMX2
 48
30.0
100
AcDbLine
 10
230.0369406814948
 20
814.9999999999996
 30
0.0
 11
270.0369406814949
 21
814.9999999999996
 31
0.0
  0
LINE
  5
A65
330
6F
100
AcDbEntity
  8
SYMBOLLINE
  6
PHANTOMX2
 48
30.0
100
AcDbLine
 10
-269.9630593185052
 20
814.9999999999996
 30
0.0
 11
-229.9630593185052
 21
814.9999999999996
 31
0.0
  0
LINE
  5
A66
330
6F
100
AcDbEntity
  8
SYMBOLLINE
  6
PHANTOMX2
 48
30.0
100
AcDbLine
 10
270.0369406814949
 20
835.0000000000001
 30
0.0
 11
270.0369406814949
 21
814.9999999999996
 31
0.0
  0
LINE
  5
A67
330
6F
100
AcDbEntity
  8
SYMBOLLINE
  6
PHANTOMX2
 48
30.0
100
AcDbLine
 10
-229.9630593185052
 20
835.0000000000001
 30
0.0
 11
-229.9630593185052
 21
814.9999999999996
 31
0.0
  0
LINE
  5
A68
330
6F
100
AcDbEntity
  8
SYMBOLLINE
  6
PHANTOMX2
 48
30.0
100
AcDbLine
 10
230.0369406814948
 20
835.0000000000001
 30
0.0
 11
230.0369406814948
 21
814.9999999999996
 31
0.0
  0
LINE
  5
A69
330
6F
100
AcDbEntity
  8
SYMBOLLINE
  6
PHANTOMX2
 48
30.0
100
AcDbLine
 10
-269.9630593185052
 20
835.0000000000001
 30
0.0
 11
-269.9630593185052
 21
814.9999999999996
 31
0.0
  0
LINE
  5
A6A
330
6F
100
AcDbEntity
  8
SYMBOLLINE
  6
PHANTOMX2
 48
30.0
100
AcDbLine
 10
400.0369406814948
 20
835.0000000000001
 30
0.0
 11
400.0369406814948
 21
1448.0
 31
0.0
  0
LINE
  5
A6B
330
6F
100
AcDbEntity
  8
SYMBOLLINE
  6
PHANTOMX2
 48
30.0
100
AcDbLine
 10
-399.9630593185051
 20
835.0000000000001
 30
0.0
 11
400.0369406814948
 21
835.0000000000001
 31
0.0
  0
LINE
  5
A6C
330
6F
100
AcDbEntity
  8
SYMBOLLINE
  6
PHANTOMX2
 48
30.0
100
AcDbLine
 10
408.5369406814947
 20
1091.0
 30
0.0
 11
408.5369406814947
 21
1334.60646215321
 31
0.0
  0
LINE
  5
A6D
330
6F
100
AcDbEntity
  8
SYMBOLLINE
  6
PHANTOMX2
 48
30.0
100
AcDbLine
 10
423.5369406814948
 20
1358.0
 30
0.0
 11
423.5369406814948
 21
1373.0
 31
0.0
  0
LINE
  5
A6E
330
6F
100
AcDbEntity
  8
SYMBOLLINE
  6
PHANTOMX2
 48
30.0
100
AcDbLine
 10
400.0369406814948
 20
1383.0
 30
0.0
 11
423.5369406814948
 21
1373.0
 31
0.0
  0
LINE
  5
A6F
330
6F
100
AcDbEntity
  8
SYMBOLLINE
  6
PHANTOMX2
 48
30.0
100
AcDbLine
 10
400.0369406814948
 20
854.9999999999997
 30
0.0
 11
470.0369406814949
 21
869.8749999999996
 31
0.0
  0
LINE
  5
A70
330
6F
100
AcDbEntity
  8
SYMBOLLINE
  6
PHANTOMX2
 48
30.0
100
AcDbLine
 10
408.5369406814947
 20
1091.0
 30
0.0
 11
470.0369406814949
 21
1076.90625
 31
0.0
  0
LINE
  5
A71
330
6F
100
AcDbEntity
  8
SYMBOLLINE
  6
PHANTOMX2
 48
30.0
100
AcDbLine
 10
400.0369406814948
 20
1363.69696969697
 30
0.0
 11
423.5369406814948
 21
1358.0
 31
0.0
  0
LINE
  5
A72
330
6F
100
AcDbEntity
  8
SYMBOLLINE
  6
PHANTOMX2
 48
30.0
100
AcDbLine
 10
408.5369406814947
 20
1334.60646215321
 30
0.0
 11
400.0369406814948
 21
1338.570077247527
 31
0.0
  0
LINE
  5
A73
330
6F
100
AcDbEntity
  8
SYMBOLLINE
  6
PHANTOMX2
 48
30.0
100
AcDbLine
 10
-399.9630593185051
 20
835.0000000000001
 30
0.0
 11
-399.9630593185051
 21
1448.0
 31
0.0
  0
DIMENSION
  5
A74
330
6F
100
AcDbEntity
  8
SIZE
  6
Continuous
100
AcDbDimension
280
     0
  2
*D8
 10
512.5369406814948
 20
-451.6730688805019
 30
0.0
 11
0.0369406814948563
 21
-426.6730688805019
 31
0.0
 70
    32
 71
     5
 42
1025.0
 73
     0
 74
     0
 75
     0
  3
STANDARD
100
AcDbAlignedDimension
 13
-512.4630593185051
 23
9.800000000000011
 33
0.0
 14
512.5369406814948
 24
9.800000000000094
 34
0.0
100
AcDbRotatedDimension
1001
ACAD
1000
DSTYLE
1002
{
1070
    41
1040
10.0
1070
    42
1040
10.0
1070
    43
1040
8.0
1070
    44
1040
12.5
1070
    73
1070
     0
1070
    74
1070
     0
1070
    77
1070
     3
1070
    78
1070
    12
1070
   140
1040
30.0
1070
   141
1040
2.5
1070
   146
1040
0.7142857313156129
1070
   147
1040
10.0
1070
   171
1070
     4
1070
   172
1070
     1
1070
   173
1070
     1
1070
   271
1070
     4
1070
   272
1070
     4
1070
   274
1070
     2
1070
   279
1070
     0
1070
   284
1070
     0
1070
   285
1070
     0
1070
   286
1070
     0
1070
   340
1005
55
1070
   341
1005
155
1070
   343
1005
155
1070
   344
1005
155
1002
}
  0
DIMENSION
  5
A75
330
6F
100
AcDbEntity
  8
SIZE
  6
Continuous
100
AcDbDimension
280
     0
  2
*D9
 10
534.5369406814943
 20
-545.1196579449023
 30
0.0
 11
0.0369406814949131
 21
-520.1196579449023
 31
0.0
 70
    32
 71
     5
 42
1068.999999999999
 73
     0
 74
     0
 75
     0
  3
STANDARD
100
AcDbAlignedDimension
 13
-534.4630593185042
 23
862.0000000000041
 33
0.0
 14
534.5369406814945
 24
865.0
 34
0.0
100
AcDbRotatedDimension
1001
ACAD
1000
DSTYLE
1002
{
1070
    41
1040
10.0
1070
    42
1040
10.0
1070
    43
1040
8.0
1070
    44
1040
12.5
1070
    73
1070
     0
1070
    74
1070
     0
1070
    77
1070
     3
1070
    78
1070
    12
1070
   140
1040
30.0
1070
   141
1040
2.5
1070
   146
1040
0.7142857313156129
1070
   147
1040
10.0
1070
   171
1070
     4
1070
   172
1070
     1
1070
   173
1070
     1
1070
   271
1070
     4
1070
   272
1070
     4
1070
   274
1070
     2
1070
   279
1070
     0
1070
   284
1070
     0
1070
   285
1070
     0
1070
   286
1070
     0
1070
   340
1005
55
1070
   341
1005
155
1070
   343
1005
155
1070
   344
1005
155
1002
}
  0
DIMENSION
  5
A76
330
6F
100
AcDbEntity
  8
SIZE
  6
Continuous
100
AcDbDimension
280
     0
  2
*D10
 10
552.5369406814945
 20
-695.0509427177327
 30
0.0
 11
0.0369406814946858
 21
-670.0509427177328
 31
0.0
 70
    32
 71
     5
 42
1104.999999999999
 73
     0
 74
     0
 75
     0
  3
STANDARD
100
AcDbAlignedDimension
 13
-552.4630593185049
 23
866.7176822079479
 33
0.0
 14
552.5369406814945
 24
869.7176822079436
 34
0.0
100
AcDbRotatedDimension
1001
ACAD
1000
DSTYLE
1002
{
1070
    41
1040
10.0
1070
    42
1040
10.0
1070
    43
1040
8.0
1070
    44
1040
12.5
1070
    73
1070
     0
1070
    74
1070
     0
1070
    77
1070
     3
1070
    78
1070
    12
1070
   140
1040
30.0
1070
   141
1040
2.5
1070
   146
1040
0.7142857313156129
1070
   147
1040
10.0
1070
   171
1070
     4
1070
   172
1070
     1
1070
   173
1070
     1
1070
   271
1070
     4
1070
   272
1070
     4
1070
   274
1070
     2
1070
   279
1070
     0
1070
   284
1070
     0
1070
   285
1070
     0
1070
   286
1070
     0
1070
   340
1005
55
1070
   341
1005
155
1070
   343
1005
155
1070
   344
1005
155
1002
}
  0
DIMENSION
  5
A77
330
6F
100
AcDbEntity
  8
SIZE
  6
Continuous
100
AcDbDimension
280
     0
  2
*D11
 10
697.9632142093151
 20
0.0000000000000294
 30
0.0
 11
672.9632142093152
 21
479.9999999999998
 31
0.0
 70
    32
 71
     5
 42
960.0
 73
     0
 74
     0
 75
     0
  3
STANDARD
100
AcDbAlignedDimension
 13
512.5369406814948
 23
959.9999999999996
 33
0.0
 14
514.8369406814945
 24
0.0
 34
0.0
 50
90.0
100
AcDbRotatedDimension
1001
ACAD
1000
DSTYLE
1002
{
1070
    41
1040
10.0
1070
    42
1040
10.0
1070
    43
1040
8.0
1070
    44
1040
12.5
1070
    73
1070
     0
1070
    74
1070
     0
1070
    77
1070
     3
1070
    78
1070
    12
1070
   140
1040
30.0
1070
   141
1040
2.5
1070
   146
1040
0.7142857313156129
1070
   147
1040
10.0
1070
   171
1070
     4
1070
   172
1070
     1
1070
   173
1070
     1
1070
   271
1070
     4
1070
   272
1070
     4
1070
   274
1070
     2
1070
   279
1070
     0
1070
   284
1070
     0
1070
   285
1070
     0
1070
   286
1070
     0
1070
   340
1005
55
1070
   341
1005
155
1070
   343
1005
155
1070
   344
1005
155
1002
}
  0
DIMENSION
  5
A78
330
6F
100
AcDbEntity
  8
SIZE
  6
Continuous
100
AcDbDimension
280
     0
  2
*D12
 10
-814.395596080187
 20
-0.0000000000002472
 30
0.0
 11
-814.3955960801868
 21
413.5298789532437
 31
0.0
 70
   160
 71
     5
 42
840.0
 73
     0
 74
     0
 75
     0
  3
STANDARD
100
AcDbAlignedDimension
 13
-510.463059318505
 23
839.9999999999995
 33
0.0
 14
-514.7630593185048
 24
-0.000000000000199
 34
0.0
 50
90.0
100
AcDbRotatedDimension
1001
ACAD
1000
DSTYLE
1002
{
1070
    41
1040
10.0
1070
    42
1040
10.0
1070
    43
1040
8.0
1070
    44
1040
12.5
1070
    73
1070
     0
1070
    74
1070
     0
1070
    77
1070
     3
1070
    78
1070
    12
1070
   140
1040
30.0
1070
   141
1040
2.5
1070
   146
1040
0.7142857313156129
1070
   147
1040
10.0
1070
   171
1070
     4
1070
   172
1070
     1
1070
   173
1070
     1
1070
   271
1070
     4
1070
   272
1070
     4
1070
   274
1070
     2
1070
   279
1070
     0
1070
   284
1070
     0
1070
   285
1070
     0
1070
   286
1070
     0
1070
   340
1005
55
1070
   341
1005
155
1070
   343
1005
155
1070
   344
1005
155
1002
}
  0
DIMENSION
  5
A79
330
6F
100
AcDbEntity
  8
SIZE
  6
Continuous
100
AcDbDimension
280
     0
  2
*D13
 10
-719.2000020430392
 20
-0.0000000000002319
 30
0.0
 11
-719.2000020430391
 21
407.5000000000001
 31
0.0
 70
   160
 71
     5
 42
815.0000000000003
 73
     0
 74
     0
 75
     0
  3
STANDARD
100
AcDbAlignedDimension
 13
-277.4630593185051
 23
814.9999999999996
 33
0.0
 14
-514.7630593185048
 24
-0.000000000000199
 34
0.0
 50
90.0
100
AcDbRotatedDimension
1001
ACAD
1000
DSTYLE
1002
{
1070
    41
1040
10.0
1070
    42
1040
10.0
1070
    43
1040
8.0
1070
    44
1040
12.5
1070
    73
1070
     0
1070
    74
1070
     0
1070
    77
1070
     3
1070
    78
1070
    12
1070
   140
1040
30.0
1070
   141
1040
2.5
1070
   146
1040
0.7142857313156129
1070
   147
1040
10.0
1070
   171
1070
     4
1070
   172
1070
     1
1070
   173
1070
     1
1070
   271
1070
     4
1070
   272
1070
     4
1070
   274
1070
     2
1070
   279
1070
     0
1070
   284
1070
     0
1070
   285
1070
     0
1070
   286
1070
     0
1070
   340
1005
55
1070
   341
1005
155
1070
   343
1005
155
1070
   344
1005
155
1002
}
  0
TEXT
  5
A7C
330
6F
100
AcDbEntity
  8
NOTE
  6
Continuous
100
AcDbText
 10
-1040.798399294376
 20
595.9047333460991
 30
0.0
 40
40.0
  1
M8x25
 50
0.0000024148365395
 41
0.6740384817123412
  7
STANDARD1
100
AcDbText
  0
CIRCLE
  5
A7D
330
6F
100
AcDbEntity
  8
DETAIL
  6
Continuous
100
AcDbCircle
 10
-489.9794652161708
 20
1045.000000000001
 30
0.0
 40
5.0
  0
CIRCLE
  5
A7E
330
6F
100
AcDbEntity
  8
DETAIL
  6
Continuous
100
AcDbCircle
 10
-489.9630593185055
 20
1145.000000000002
 30
0.0
 40
5.0
  0
CIRCLE
  5
A7F
330
6F
100
AcDbEntity
  8
DETAIL
  6
Continuous
100
AcDbCircle
 10
-489.9630593185055
 20
1225.000000000001
 30
0.0
 40
5.0
  0
CIRCLE
  5
A80
330
6F
100
AcDbEntity
  8
DETAIL
  6
Continuous
100
AcDbCircle
 10
-489.9630593185055
 20
1244.000000000002
 30
0.0
 40
5.0
  0
CIRCLE
  5
A81
330
6F
100
AcDbEntity
  8
DETAIL
  6
Continuous
100
AcDbCircle
 10
-489.9630593185055
 20
1308.000000000001
 30
0.0
 40
5.0
  0
CIRCLE
  5
A82
330
6F
100
AcDbEntity
  8
DETAIL
  6
Continuous
100
AcDbCircle
 10
-489.9630593185055
 20
1455.000000000002
 30
0.0
 40
5.0
  0
ARC
  5
A83
330
6F
100
AcDbEntity
  8
DETAIL
  6
Continuous
100
AcDbCircle
 10
490.0369406814943
 20
1555.700000000002
 30
0.0
 40
4.650000000001455
100
AcDbArc
 50
0.0
 51
180.0
  0
ARC
  5
A84
330
6F
100
AcDbEntity
  8
DETAIL
  6
Continuous
100
AcDbCircle
 10
490.0369406814943
 20
1535.000000000002
 30
0.0
 40
4.649999999994173
100
AcDbArc
 50
180.0
 51
0.0
  0
LINE
  5
A85
330
6F
100
AcDbEntity
  8
DETAIL
  6
Continuous
100
AcDbLine
 10
485.3869406814923
 20
1535.000000000002
 30
0.0
 11
485.3869406814923
 21
1555.700000000002
 31
0.0
  0
LINE
  5
A86
330
6F
100
AcDbEntity
  8
DETAIL
  6
Continuous
100
AcDbLine
 10
494.6869406814873
 20
1555.700000000002
 30
0.0
 11
494.6869406814873
 21
1535.000000000002
 31
0.0
  0
CIRCLE
  5
A87
330
6F
100
AcDbEntity
  8
DETAIL
  6
Continuous
100
AcDbCircle
 10
490.5369406814942
 20
1045.000000000002
 30
0.0
 40
5.0
  0
CIRCLE
  5
A88
330
6F
100
AcDbEntity
  8
DETAIL
  6
Continuous
100
AcDbCircle
 10
490.0369406814943
 20
1145.000000000002
 30
0.0
 40
5.0
  0
CIRCLE
  5
A89
330
6F
100
AcDbEntity
  8
DETAIL
  6
Continuous
100
AcDbCircle
 10
490.0205347838289
 20
1225.000000000001
 30
0.0
 40
5.0
  0
CIRCLE
  5
A8A
330
6F
100
AcDbEntity
  8
DETAIL
  6
Continuous
100
AcDbCircle
 10
490.0205347838289
 20
1244.000000000002
 30
0.0
 40
5.0
  0
CIRCLE
  5
A8B
330
6F
100
AcDbEntity
  8
DETAIL
  6
Continuous
100
AcDbCircle
 10
490.0205347838289
 20
1308.000000000002
 30
0.0
 40
5.0
  0
CIRCLE
  5
A8C
330
6F
100
AcDbEntity
  8
DETAIL
  6
Continuous
100
AcDbCircle
 10
490.0205347838289
 20
1455.000000000002
 30
0.0
 40
5.0
  0
DIMENSION
  5
A8D
330
6F
100
AcDbEntity
  8
SIZE
  6
Continuous
100
AcDbDimension
280
     0
  2
*D14
 10
809.9045532783721
 20
0.0000000000000475
 30
0.0
 11
809.9045532783721
 21
970.9999999999997
 31
0.0
 70
   160
 71
     5
 42
1950.0
 73
     0
 74
     0
 75
     0
  3
STANDARD
100
AcDbAlignedDimension
 13
550.0369406814948
 23
1950.0
 33
0.0
 14
514.8369406814945
 24
0.0
 34
0.0
 50
90.0
100
AcDbRotatedDimension
1001
ACAD
1000
DSTYLE
1002
{
1070
    41
1040
10.0
1070
    42
1040
10.0
1070
    43
1040
8.0
1070
    44
1040
12.5
1070
    73
1070
     0
1070
    74
1070
     0
1070
    77
1070
     3
1070
    78
1070
    12
1070
   140
1040
30.0
1070
   141
1040
2.5
1070
   146
1040
0.7142857313156129
1070
   147
1040
10.0
1070
   171
1070
     4
1070
   172
1070
     1
1070
   173
1070
     1
1070
   271
1070
     4
1070
   272
1070
     4
1070
   274
1070
     2
1070
   279
1070
     0
1070
   284
1070
     0
1070
   285
1070
     0
1070
   286
1070
     0
1070
   340
1005
55
1070
   341
1005
155
1070
   343
1005
155
1070
   344
1005
155
1002
}
  0
LINE
  5
A8E
330
6F
100
AcDbEntity
  8
DETAIL
  6
DASHED
100
AcDbLine
 10
-477.463059318505
 20
839.9999999999995
 30
0.0
 11
-472.463059318505
 21
844.9999999999997
 31
0.0
  0
LINE
  5
A8F
330
6F
100
AcDbEntity
  8
DETAIL
  6
DASHED
100
AcDbLine
 10
-510.463059318505
 20
839.9999999999995
 30
0.0
 11
-477.463059318505
 21
839.9999999999995
 31
0.0
  0
LINE
  5
A90
330
6F
100
AcDbEntity
  8
DETAIL
  6
DASHED
100
AcDbLine
 10
-510.463059318505
 20
962.9999999999997
 30
0.0
 11
-510.463059318505
 21
839.9999999999995
 31
0.0
  0
LINE
  5
CB7
330
6F
100
AcDbEntity
  8
DETAIL
  6
Continuous
100
AcDbLine
 10
-482.4026762220298
 20
1475.842942791083
 30
0.0
 11
-481.6805063818233
 21
1476.801311573327
 31
0.0
  0
LINE
  5
CB8
330
6F
100
AcDbEntity
  8
DETAIL
  6
Continuous
100
AcDbLine
 10
-506.8222939998183
 20
1468.36132413659
 30
0.0
 11
-503.4094089956322
 21
1472.890456015676
 31
0.0
  0
LINE
  5
CB9
330
6F
100
AcDbEntity
  8
DETAIL
  6
Continuous
100
AcDbLine
 10
-508.7053211558249
 20
1465.862418281573
 30
0.0
 11
-508.0347208963105
 21
1466.752350701121
 31
0.0
  0
ARC
  5
CBA
330
6F
100
AcDbEntity
  8
DETAIL
  6
DASHED
100
AcDbCircle
 10
154.4109851164455
 20
981.6410981632934
 30
0.0
 40
2.649999999999969
100
AcDbArc
 50
323.0004895086063
 51
143.0004895086064
  0
ARC
  5
CBB
330
6F
100
AcDbEntity
  8
DETAIL
  6
DASHED
100
AcDbCircle
 10
145.5644045768992
 20
969.9010805843446
 30
0.0
 40
2.650000000000689
100
AcDbArc
 50
143.0004895086087
 51
323.0004895086063
  0
ARC
  5
CBC
330
6F
100
AcDbEntity
  8
DETAIL
  6
DASHED
100
AcDbCircle
 10
-94.02779091725479
 20
1150.443540571267
 30
0.0
 40
2.650000000000102
100
AcDbArc
 50
143.0004895086064
 51
323.0004895086086
  0
ARC
  5
CBD
330
6F
100
AcDbEntity
  8
DETAIL
  6
DASHED
100
AcDbCircle
 10
-85.18121037770811
 20
1162.183558150214
 30
0.0
 40
2.650000000000102
100
AcDbArc
 50
323.0004895086063
 51
143.0004895086087
  0
ARC
  5
CBE
330
6F
100
AcDbEntity
  8
DETAIL
  6
DASHED
100
AcDbCircle
 10
-333.6199864114149
 20
1330.986000559188
 30
0.0
 40
2.650000000000102
100
AcDbArc
 50
143.0004895086064
 51
323.0004895086063
  0
ARC
  5
CBF
330
6F
100
AcDbEntity
  8
DETAIL
  6
DASHED
100
AcDbCircle
 10
-324.7734058718681
 20
1342.726018138138
 30
0.0
 40
2.650000000000102
100
AcDbArc
 50
323.0004895086063
 51
143.0004895086064
  0
LINE
  5
CC0
330
6F
100
AcDbEntity
  8
DETAIL
  6
DASHED
100
AcDbLine
 10
503.2796160404589
 20
733.0912624024731
 30
0.0
 11
504.001785880663
 21
734.0496311847162
 31
0.0
  0
ARC
  5
CC1
330
6F
100
AcDbEntity
  8
DETAIL
  6
DASHED
100
AcDbCircle
 10
-481.6971285739283
 20
1451.771285130209
 30
0.0
 40
4.65000000000005
100
AcDbArc
 50
233.0004895085981
 51
53.00048950859804
  0
ARC
  5
CC2
330
6F
100
AcDbEntity
  8
DETAIL
  6
DASHED
100
AcDbCircle
 10
-498.2289900630818
 20
1464.22871486979
 30
0.0
 40
4.65000000000005
100
AcDbArc
 50
53.00048950859804
 51
65.05541711050921
  0
ARC
  5
CC3
330
6F
100
AcDbEntity
  8
DETAIL
  6
DASHED
100
AcDbCircle
 10
-498.2289900630818
 20
1464.22871486979
 30
0.0
 40
4.649999999999971
100
AcDbArc
 50
115.8897237269953
 51
146.4177561918908
  0
ARC
  5
CC4
330
6F
100
AcDbEntity
  8
DETAIL
  6
DASHED
100
AcDbCircle
 10
-498.2289900630818
 20
1464.22871486979
 30
0.0
 40
4.649999999999393
100
AcDbArc
 50
149.031563266703
 51
233.0004895085981
  0
LINE
  5
CC5
330
6F
100
AcDbEntity
  8
DETAIL
  6
Continuous
100
AcDbLine
 10
513.2601405509683
 20
706.7886174686847
 30
0.0
 11
507.9642283907753
 21
699.7605797345831
 31
0.0
  0
LINE
  5
CC6
330
6F
100
AcDbEntity
  8
DETAIL
  6
Continuous
100
AcDbLine
 10
511.0298236147661
 20
728.7537190245233
 30
0.0
 11
510.3076537755594
 21
727.7953502422882
 31
0.0
  0
LINE
  5
CC7
330
6F
100
AcDbEntity
  8
DETAIL
  6
Continuous
100
AcDbLine
 10
513.2601405509683
 20
706.7886174686847
 30
0.0
 11
510.3076537755594
 21
727.7953502422882
 31
0.0
  0
LINE
  5
CC8
330
6F
100
AcDbEntity
  8
DETAIL
  6
Continuous
100
AcDbLine
 10
-503.4094089956322
 20
1472.890456015676
 30
0.0
 11
-482.4026762220298
 21
1475.842942791083
 31
0.0
  0
LINE
  5
CC9
330
6F
100
AcDbEntity
  8
DETAIL
  6
DASHED
100
AcDbLine
 10
156.5273828433071
 20
980.0463064336684
 30
0.0
 11
147.6808023037695
 21
968.306288853719
 31
0.0
  0
LINE
  5
CCA
330
6F
100
AcDbEntity
  8
DETAIL
  6
DASHED
100
AcDbLine
 10
143.4480068500368
 20
971.49587231397
 30
0.0
 11
152.2945873895821
 21
983.2358898929188
 31
0.0
  0
LINE
  5
CCB
330
6F
100
AcDbEntity
  8
DETAIL
  6
DASHED
100
AcDbLine
 10
213.6338685259959
 20
952.8536618940233
 30
0.0
 11
-468.7290380856981
 21
1467.041853666747
 31
0.0
  0
LINE
  5
CCC
330
6F
100
AcDbEntity
  8
DETAIL
  6
DASHED
100
AcDbLine
 10
-482.4026762220298
 20
1475.842942791083
 30
0.0
 11
510.3076537755594
 21
727.7953502422882
 31
0.0
  0
LINE
  5
CCD
330
6F
100
AcDbEntity
  8
DETAIL
  6
DASHED
100
AcDbLine
 10
-486.8631625759936
 20
1461.486495104202
 30
0.0
 11
-478.8987204436287
 21
1455.484964161145
 31
0.0
  0
LINE
  5
CCE
330
6F
100
AcDbEntity
  8
DETAIL
  6
DASHED
100
AcDbLine
 10
-493.9886058201566
 20
1466.855806274954
 30
0.0
 11
-487.4875829785548
 21
1461.957021263157
 31
0.0
  0
LINE
  5
CCF
330
6F
100
AcDbEntity
  8
DETAIL
  6
DASHED
100
AcDbLine
 10
-495.4305819327753
 20
1467.942393899728
 30
0.0
 11
-495.0400124555291
 21
1467.648083920214
 31
0.0
  0
LINE
  5
CD0
330
6F
100
AcDbEntity
  8
DETAIL
  6
DASHED
100
AcDbLine
 10
-494.6063219977038
 20
1455.676493876206
 30
0.0
 11
-501.0273981923878
 21
1460.515035839862
 31
0.0
  0
LINE
  5
CD1
330
6F
100
AcDbEntity
  8
DETAIL
  6
DASHED
100
AcDbLine
 10
-494.340310042068
 20
1436.255884439277
 30
0.0
 11
-505.7528343804094
 21
1444.855685506971
 31
0.0
  0
LINE
  5
CD2
330
6F
100
AcDbEntity
  8
DETAIL
  6
DASHED
100
AcDbLine
 10
147.8108907169696
 20
952.3688478437524
 30
0.0
 11
-489.6178263912513
 21
1432.697301015111
 31
0.0
  0
ARC
  5
CD3
330
6F
100
AcDbEntity
  8
DETAIL
  6
Continuous
100
AcDbCircle
 10
503.8254355588498
 20
709.1399663819717
 30
0.0
 40
4.65000000000005
100
AcDbArc
 50
233.0004895085981
 51
53.00048950859804
  0
LINE
  5
CD4
330
6F
100
AcDbEntity
  8
DETAIL
  6
DASHED
100
AcDbLine
 10
-83.06481265084562
 20
1160.58876642059
 30
0.0
 11
-91.91139319039098
 21
1148.84874884164
 31
0.0
  0
LINE
  5
CD5
330
6F
100
AcDbEntity
  8
DETAIL
  6
DASHED
100
AcDbLine
 10
-96.14418864411689
 20
1152.038332300891
 30
0.0
 11
-87.29760810457923
 21
1163.778349880841
 31
0.0
  0
ARC
  5
CD6
330
6F
100
AcDbEntity
  8
DETAIL
  6
Continuous
100
AcDbCircle
 10
-498.2289900630818
 20
1464.22871486979
 30
0.0
 40
4.650000000000199
100
AcDbArc
 50
65.05541711050921
 51
115.8897237269953
  0
ARC
  5
CD7
330
6F
100
AcDbEntity
  8
DETAIL
  6
Continuous
100
AcDbCircle
 10
-497.7300261147006
 20
1456.000540370723
 30
0.0
 40
4.649999999999366
100
AcDbArc
 50
145.61775619189
 51
148.2315632667057
  0
LINE
  5
CD8
330
6F
100
AcDbEntity
  8
DETAIL
  6
Continuous
100
AcDbLine
 10
-468.7290380856981
 20
1467.041853666747
 30
0.0
 11
-481.6805063818233
 21
1476.801311573327
 31
0.0
  0
LINE
  5
CD9
330
6F
100
AcDbEntity
  8
DETAIL
  6
Continuous
100
AcDbLine
 10
511.0298236147661
 20
728.7537190245233
 30
0.0
 11
213.6338685259959
 21
952.8536618940233
 31
0.0
  0
LINE
  5
CDA
330
6F
100
AcDbEntity
  8
DETAIL
  6
Continuous
100
AcDbLine
 10
490.0919821990016
 20
725.3110751514826
 30
0.0
 11
506.6238436881556
 21
712.8536454119001
 31
0.0
  0
LINE
  5
CDB
330
6F
100
AcDbEntity
  8
DETAIL
  6
Continuous
100
AcDbLine
 10
-487.4875829785548
 20
1461.957021263157
 30
0.0
 11
-486.8631625759936
 21
1461.486495104202
 31
0.0
  0
LINE
  5
CDC
330
6F
100
AcDbEntity
  8
DETAIL
  6
Continuous
100
AcDbLine
 10
-495.0400124555291
 20
1467.648083920214
 30
0.0
 11
-493.9886058201566
 21
1466.855806274954
 31
0.0
  0
LINE
  5
CDD
330
6F
100
AcDbEntity
  8
DETAIL
  6
DASHED
100
AcDbLine
 10
-322.6570081450061
 20
1341.131226408511
 30
0.0
 11
-331.5035886845524
 21
1329.391208829563
 31
0.0
  0
LINE
  5
CDE
330
6F
100
AcDbEntity
  8
DETAIL
  6
DASHED
100
AcDbLine
 10
-335.7363841382769
 20
1332.580792288814
 30
0.0
 11
-326.8898035987306
 21
1344.320809867763
 31
0.0
  0
LINE
  5
CDF
330
6F
100
AcDbEntity
  8
DETAIL
  6
Continuous
100
AcDbLine
 10
-485.2541639040111
 20
1448.629262538278
 30
0.0
 11
-494.6063219977038
 21
1455.676493876206
 31
0.0
  0
LINE
  5
CE0
330
6F
100
AcDbEntity
  8
DETAIL
  6
Continuous
100
AcDbLine
 10
501.0270274285431
 20
705.4262873520357
 30
0.0
 11
484.4951659393971
 21
717.883717090618
 31
0.0
  0
LINE
  5
CE1
330
6F
100
AcDbEntity
  8
DETAIL
  6
Continuous
100
AcDbLine
 10
-489.6178263912513
 20
1432.697301015111
 30
0.0
 11
-494.340310042068
 21
1436.255884439277
 31
0.0
  0
LINE
  5
CE2
330
6F
100
AcDbEntity
  8
DETAIL
  6
Continuous
100
AcDbLine
 10
486.9574956171724
 20
696.8080929591748
 30
0.0
 11
147.8108907169696
 21
952.3688478437524
 31
0.0
  0
LINE
  5
CE3
330
6F
100
AcDbEntity
  8
DETAIL
  6
DASHED
100
AcDbLine
 10
-506.9391240206165
 20
1453.296051668702
 30
0.0
 11
-505.7528343804094
 21
1444.855685506971
 31
0.0
  0
LINE
  5
CE4
330
6F
100
AcDbEntity
  8
DETAIL
  6
DASHED
100
AcDbLine
 10
-508.2468846795948
 20
1462.600675459106
 30
0.0
 11
-507.755456651061
 21
1459.104200098976
 31
0.0
  0
LINE
  5
CE5
330
6F
100
AcDbEntity
  8
DETAIL
  6
DASHED
100
AcDbLine
 10
-475.3746384869266
 20
1470.547030630899
 30
0.0
 11
-474.6524686467211
 21
1471.505399413142
 31
0.0
  0
LINE
  5
CE6
330
6F
100
AcDbEntity
  8
DETAIL
  6
DASHED
100
AcDbLine
 10
-508.0347208963105
 20
1466.752350701121
 30
0.0
 11
-506.8222939998183
 21
1468.36132413659
 31
0.0
  0
CIRCLE
  5
CE7
330
6F
100
AcDbEntity
  8
DETAIL
  6
DASHED
100
AcDbCircle
 10
149.996402032121
 20
975.6855770557772
 30
0.0
 40
1.449999999999988
  0
CIRCLE
  5
CE8
330
6F
100
AcDbEntity
  8
DETAIL
  6
DASHED
100
AcDbCircle
 10
-89.62055159954502
 20
1156.325644405962
 30
0.0
 40
1.450000000000003
  0
CIRCLE
  5
CE9
330
6F
100
AcDbEntity
  8
DETAIL
  6
DASHED
100
AcDbCircle
 10
-329.1966961416422
 20
1336.856009348664
 30
0.0
 40
1.449999999999988
  0
LINE
  5
CEA
330
6F
100
AcDbEntity
  8
DETAIL
  6
Continuous
100
AcDbLine
 10
-507.755456651061
 20
1459.104200098976
 30
0.0
 11
-506.9391240206165
 21
1453.296051668702
 31
0.0
  0
LINE
  5
CEB
330
6F
100
AcDbEntity
  8
DETAIL
  6
Continuous
100
AcDbLine
 10
-508.7053211558249
 20
1465.862418281573
 30
0.0
 11
-508.2468846795948
 21
1462.600675459106
 31
0.0
  0
LINE
  5
CEC
330
6F
100
AcDbEntity
  8
DETAIL
  6
Continuous
100
AcDbLine
 10
486.9574956171724
 20
696.8080929591748
 30
0.0
 11
507.9642283907753
 21
699.7605797345831
 31
0.0
  0
LINE
  5
ED6
330
6F
100
AcDbEntity
  8
DETAIL
  6
Continuous
100
AcDbLine
 10
-485.3130593185047
 20
1458.0
 30
0.0
 11
-485.3130593185047
 21
1437.300000000001
 31
0.0
  0
LINE
  5
ED7
330
6F
100
AcDbEntity
  8
DETAIL
  6
Continuous
100
AcDbLine
 10
-494.6130593185045
 20
1437.300000000001
 30
0.0
 11
-494.6130593185045
 21
1458.0
 31
0.0
  0
ARC
  5
ED8
330
6F
100
AcDbEntity
  8
DETAIL
  6
Continuous
100
AcDbCircle
 10
-489.963059318505
 20
1458.0
 30
0.0
 40
4.650000000000543
100
AcDbArc
 50
0.0
 51
180.0
  0
ARC
  5
ED9
330
6F
100
AcDbEntity
  8
DETAIL
  6
Continuous
100
AcDbCircle
 10
-489.963059318505
 20
1437.300000000001
 30
0.0
 40
4.649999999999637
100
AcDbArc
 50
180.0
 51
0.0
  0
CIRCLE
  5
EEE
330
6F
100
AcDbEntity
  8
DETAIL
  6
Continuous
100
AcDbCircle
 10
490.5369406814948
 20
729.9999999999982
 30
0.0
 40
5.0
  0
CIRCLE
  5
EEF
330
6F
100
AcDbEntity
  8
DETAIL
  6
Continuous
100
AcDbCircle
 10
490.5369406814948
 20
779.9999999999982
 30
0.0
 40
5.0
  0
CIRCLE
  5
EF0
330
6F
100
AcDbEntity
  8
DETAIL
  6
Continuous
100
AcDbCircle
 10
-490.4630593185051
 20
730.0000000000001
 30
0.0
 40
5.0
  0
CIRCLE
  5
EF1
330
6F
100
AcDbEntity
  8
DETAIL
  6
Continuous
100
AcDbCircle
 10
-490.4630593185051
 20
780.0000000000012
 30
0.0
 40
5.0
  0
CIRCLE
  5
EF4
330
6F
100
AcDbEntity
  8
DETAIL
  6
Continuous
100
AcDbCircle
 10
490.5369406814942
 20
235.0000000000001
 30
0.0
 40
5.0
  0
CIRCLE
  5
EF5
330
6F
100
AcDbEntity
  8
DETAIL
  6
Continuous
100
AcDbCircle
 10
-490.4630593185056
 20
235.0000000000019
 30
0.0
 40
5.0
  0
LINE
  5
11A4
330
6F
100
AcDbEntity
  8
OUTLINE
  6
Continuous
100
AcDbLine
 10
-510.463059318505
 20
839.9999999999995
 30
0.0
 11
-477.463059318505
 21
839.9999999999995
 31
0.0
  0
LINE
  5
11A5
330
6F
100
AcDbEntity
  8
OUTLINE
  6
Continuous
100
AcDbLine
 10
-477.463059318505
 20
839.9999999999995
 30
0.0
 11
-472.463059318505
 21
844.9999999999997
 31
0.0
  0
LINE
  5
11A6
330
6F
100
AcDbEntity
  8
OUTLINE
  6
Continuous
100
AcDbLine
 10
510.5369406814943
 20
839.9999999999996
 30
0.0
 11
477.5369406814948
 21
839.9999999999996
 31
0.0
  0
LINE
  5
11A7
330
6F
100
AcDbEntity
  8
OUTLINE
  6
Continuous
100
AcDbLine
 10
477.5369406814948
 20
839.9999999999996
 30
0.0
 11
472.5369406814943
 21
845.0000000000001
 31
0.0
  0
ENDSEC
  0
SECTION
  2
OBJECTS
  0
DICTIONARY
  5
C
330
0
100
AcDbDictionary
281
     1
  3
ACAD_CIP_PREVIOUS_PRODUCT_INFO
350
4E7
  3
ACAD_COLOR
350
62
  3
ACAD_DETAILVIEWSTYLE
350
69
  3
ACAD_GROUP
350
D
  3
ACAD_LAYOUT
350
61
  3
ACAD_MATERIAL
350
10
  3
ACAD_MLEADERSTYLE
350
65
  3
ACAD_MLINESTYLE
350
5E
  3
ACAD_PLOTSETTINGS
350
60
  3
ACAD_PLOTSTYLENAME
350
E
  3
ACAD_SCALELIST
350
42
  3
ACAD_SECTIONVIEWSTYLE
350
67
  3
ACAD_TABLESTYLE
350
63
  3
ACAD_VISUALSTYLE
350
29
  3
ACDB_RECOMPOSE_DATA
350
1352
  3
AcDbVariableDictionary
350
50A
  3
AcDsDecomposeData
350
1358
  0
DICTIONARY
  5
739
330
2
100
AcDbDictionary
280
     1
281
     1
  3
ACAD_LAYERSTATES
360
73A
  0
DICTIONARY
  5
4F2
330
54
100
AcDbDictionary
280
     1
281
     1
  3
ADSK_XREC_LAYER_RECONCILED
360
4F3
  0
DICTIONARY
  5
4F4
330
78
100
AcDbDictionary
280
     1
281
     1
  3
ADSK_XREC_LAYER_RECONCILED
360
4F5
  0
DICTIONARY
  5
4F6
330
79
100
AcDbDictionary
280
     1
281
     1
  3
ADSK_XREC_LAYER_RECONCILED
360
4F7
  0
DICTIONARY
  5
4F8
330
7A
100
AcDbDictionary
280
     1
281
     1
  3
ADSK_XREC_LAYER_RECONCILED
360
4F9
  0
DICTIONARY
  5
4FA
330
7B
100
AcDbDictionary
280
     1
281
     1
  3
ADSK_XREC_LAYER_RECONCILED
360
4FB
  0
DICTIONARY
  5
4FC
330
7C
100
AcDbDictionary
280
     1
281
     1
  3
ADSK_XREC_LAYER_RECONCILED
360
4FD
  0
DICTIONARY
  5
4FE
330
7D
100
AcDbDictionary
280
     1
281
     1
  3
ADSK_XREC_LAYER_RECONCILED
360
4FF
  0
DICTIONARY
  5
500
330
7E
100
AcDbDictionary
280
     1
281
     1
  3
ADSK_XREC_LAYER_RECONCILED
360
501
  0
DICTIONARY
  5
502
330
7F
100
AcDbDictionary
280
     1
281
     1
  3
ADSK_XREC_LAYER_RECONCILED
360
503
  0
DICTIONARY
  5
504
330
80
100
AcDbDictionary
280
     1
281
     1
  3
ADSK_XREC_LAYER_RECONCILED
360
505
  0
DICTIONARY
  5
506
330
81
100
AcDbDictionary
280
     1
281
     1
  3
ADSK_XREC_LAYER_RECONCILED
360
507
  0
DICTIONARY
  5
B24
330
6F
100
AcDbDictionary
280
     1
281
     1
  3
ACAD_SORTENTS
360
B25
  0
XRECORD
  5
4E7
102
{ACAD_REACTORS
330
C
102
}
330
C
100
AcDbXrecord
280
     1
300
ACDLT
300
2018
300
86831ACDLT_2018_0F
  0
DICTIONARY
  5
62
102
{ACAD_REACTORS
330
C
102
}
330
C
100
AcDbDictionary
281
     1
  0
DICTIONARY
  5
69
102
{ACAD_REACTORS
330
C
102
}
330
C
100
AcDbDictionary
281
     1
  3
Imperial24
350
6A
  0
DICTIONARY
  5
D
102
{ACAD_REACTORS
330
C
102
}
330
C
100
AcDbDictionary
281
     1
  0
DICTIONARY
  5
61
102
{ACAD_REACTORS
330
C
102
}
330
C
100
AcDbDictionary
281
     1
  3
Model
350
72
  3
レイアウト1
350
6E
  0
DICTIONARY
  5
10
102
{ACAD_REACTORS
330
C
102
}
330
C
100
AcDbDictionary
281
     1
  3
ByBlock
350
19
  3
ByLayer
350
11
  3
Global
350
21
  0
DICTIONARY
  5
65
102
{ACAD_REACTORS
330
C
102
}
330
C
100
AcDbDictionary
281
     1
  3
Standard
350
66
  0
DICTIONARY
  5
5E
102
{ACAD_REACTORS
330
C
102
}
330
C
100
AcDbDictionary
281
     1
  3
Standard
350
5F
  0
DICTIONARY
  5
60
102
{ACAD_REACTORS
330
C
102
}
330
C
100
AcDbDictionary
281
     1
  0
ACDBDICTIONARYWDFLT
  5
E
102
{ACAD_REACTORS
330
C
102
}
330
C
100
AcDbDictionary
281
     1
  3
Normal
350
F
100
AcDbDictionaryWithDefault
340
F
  0
DICTIONARY
  5
42
102
{ACAD_REACTORS
330
C
102
}
330
C
100
AcDbDictionary
281
     1
  3
A0
350
43
  3
A1
350
44
  3
A2
350
45
  3
A3
350
46
  3
A4
350
47
  3
A5
350
48
  3
A6
350
49
  3
A7
350
4A
  3
A8
350
4B
  3
A9
350
4C
  3
B0
350
4D
  3
B1
350
4E
  3
B2
350
4F
  3
B3
350
50
  3
B4
350
51
  3
B5
350
52
  3
B6
350
53
  0
DICTIONARY
  5
67
102
{ACAD_REACTORS
330
C
102
}
330
C
100
AcDbDictionary
281
     1
  3
Imperial24
350
68
  0
DICTIONARY
  5
63
102
{ACAD_REACTORS
330
C
102
}
330
C
100
AcDbDictionary
281
     1
  3
Standard
350
64
  0
DICTIONARY
  5
29
102
{ACAD_REACTORS
330
C
102
}
330
C
100
AcDbDictionary
281
     1
  3
2dWireframe
350
2F
  3
Basic
350
2E
  3
Brighten
350
35
  3
ColorChange
350
39
  3
Conceptual
350
32
  3
Dim
350
34
  3
EdgeColorOff
350
41
  3
Facepattern
350
38
  3
Flat
350
2A
  3
FlatWithEdges
350
2B
  3
Gouraud
350
2C
  3
GouraudWithEdges
350
2D
  3
Hidden
350
31
  3
JitterOff
350
3F
  3
Linepattern
350
37
  3
OverhangOff
350
40
  3
Realistic
350
33
  3
Shaded
350
3E
  3
Shaded with edges
350
3D
  3
Shades of Gray
350
3A
  3
Sketchy
350
3B
  3
Thicken
350
36
  3
Wireframe
350
30
  3
X-Ray
350
3C
  0
XRECORD
  5
1352
102
{ACAD_REACTORS
330
C
102
}
330
C
100
AcDbXrecord
280
     1
 90
        1
330
64
  0
DICTIONARY
  5
50A
102
{ACAD_REACTORS
330
C
102
}
330
C
100
AcDbDictionary
281
     1
  3
CANNOSCALE
350
510
  3
CMLEADERSTYLE
350
50C
  3
CTABLESTYLE
350
50B
  3
CVIEWDETAILSTYLE
350
50D
  3
CVIEWSECTIONSTYLE
350
50E
  3
LAYEREVAL
350
512
  3
LAYERNOTIFY
350
513
  3
LIGHTINGUNITS
350
511
  3
MSLTSCALE
350
50F
  0
DICTIONARY
  5
1358
102
{ACAD_REACTORS
330
C
102
}
330
C
100
AcDbDictionary
281
     1
  3
AcDsRecords
350
135A
  3
AcDsSchemas
350
1359
1001
ACAD
1070
     2
  0
DICTIONARY
  5
73A
102
{ACAD_REACTORS
330
739
102
}
330
739
100
AcDbDictionary
281
     1
  0
XRECORD
  5
4F3
102
{ACAD_REACTORS
330
4F2
102
}
330
4F2
100
AcDbXrecord
280
     1
290
     1
  0
XRECORD
  5
4F5
102
{ACAD_REACTORS
330
4F4
102
}
330
4F4
100
AcDbXrecord
280
     1
290
     1
  0
XRECORD
  5
4F7
102
{ACAD_REACTORS
330
4F6
102
}
330
4F6
100
AcDbXrecord
280
     1
290
     1
  0
XRECORD
  5
4F9
102
{ACAD_REACTORS
330
4F8
102
}
330
4F8
100
AcDbXrecord
280
     1
290
     1
  0
XRECORD
  5
4FB
102
{ACAD_REACTORS
330
4FA
102
}
330
4FA
100
AcDbXrecord
280
     1
290
     1
  0
XRECORD
  5
4FD
102
{ACAD_REACTORS
330
4FC
102
}
330
4FC
100
AcDbXrecord
280
     1
290
     1
  0
XRECORD
  5
4FF
102
{ACAD_REACTORS
330
4FE
102
}
330
4FE
100
AcDbXrecord
280
     1
290
     1
  0
XRECORD
  5
501
102
{ACAD_REACTORS
330
500
102
}
330
500
100
AcDbXrecord
280
     1
290
     1
  0
XRECORD
  5
503
102
{ACAD_REACTORS
330
502
102
}
330
502
100
AcDbXrecord
280
     1
290
     1
  0
XRECORD
  5
505
102
{ACAD_REACTORS
330
504
102
}
330
504
100
AcDbXrecord
280
     1
290
     1
  0
XRECORD
  5
507
102
{ACAD_REACTORS
330
506
102
}
330
506
100
AcDbXrecord
280
     1
290
     1
  0
SORTENTSTABLE
  5
B25
102
{ACAD_REACTORS
330
B24
102
}
330
B24
100
AcDbSortentsTable
330
6F
331
A8D
  5
CB7
331
A89
  5
A8D
331
9CC
  5
9D0
331
A44
  5
A48
331
9C8
  5
9CC
331
A0F
  5
A13
331
CBF
  5
CC3
331
A0B
  5
A0F
331
A40
  5
A44
331
9D4
  5
9D8
331
CBB
  5
CBF
331
A17
  5
A1B
331
A4C
  5
A51
331
9D0
  5
9D4
331
CC7
  5
CCB
331
A13
  5
A17
331
A48
  5
A4C
331
40C
  5
4C8
331
CC3
  5
CC7
331
994
  5
998
331
408
  5
4C3
331
955
  5
959
331
ED8
  5
EF0
331
990
  5
994
331
414
  5
4DF
331
951
  5
955
331
395
  5
470
331
44D
  5
8FD
331
99C
  5
9A0
331
410
  5
4D2
331
95D
  5
961
331
449
  5
8F9
331
959
  5
95D
331
998
  5
99C
331
455
  5
901
331
498
  5
922
331
451
  5
8FF
331
91C
  5
209
331
918
  5
205
331
924
  5
211
331
4E5
  5
94D
331
920
  5
20D
331
A75
  5
A79
331
A71
  5
A75
331
A7D
  5
A81
331
EEE
  5
EF4
331
A79
  5
A7F
331
9BC
  5
9C0
331
A34
  5
A38
331
9B8
  5
9BC
331
9FF
  5
A03
331
9FB
  5
9FF
331
A30
  5
A34
331
9C4
  5
9C8
331
A87
  5
A8B
331
CE4
  5
CE8
331
A83
  5
A87
331
A07
  5
A0B
331
A3C
  5
A40
331
9C0
  5
9C4
331
CE0
  5
CE4
331
CB7
  5
CBB
331
A03
  5
A07
331
A38
  5
A3C
331
CEC
  5
ED9
331
984
  5
988
331
3F8
  5
4BD
331
945
  5
232
331
CE8
  5
CEC
331
980
  5
984
331
941
  5
22E
331
43D
  5
8EF
331
98C
  5
990
331
94D
  5
951
331
439
  5
8EC
331
949
  5
2FB
331
988
  5
98C
331
445
  5
8F5
331
441
  5
8F1
331
90C
  5
1F9
331
4C1
  5
93C
331
908
  5
1F5
331
914
  5
201
331
910
  5
1FD
331
4C9
  5
944
331
9EC
  5
9F0
331
9E8
  5
9EC
331
A2F
  5
A33
331
A64
  5
A68
331
A2B
  5
A30
331
A60
  5
A64
331
9F4
  5
9F8
331
CDF
  5
CE3
331
CDB
  5
CDF
331
A6C
  5
A70
331
9F0
  5
9F4
331
A68
  5
A6C
331
434
  5
8E9
331
9B4
  5
9B9
331
975
  5
979
331
3C1
  5
49F
331
9B0
  5
9B4
331
971
  5
975
331
3C9
  5
4BB
331
97D
  5
981
331
979
  5
97D
331
471
  5
918
331
93C
  5
229
331
8FD
  5
1EA
331
8F9
  5
1E6
331
938
  5
225
331
905
  5
1F2
331
901
  5
1EE
331
9DC
  5
9E0
331
9D8
  5
9DC
331
A1F
  5
A23
331
A54
  5
A5A
331
A1B
  5
A1F
331
9E4
  5
9E8
331
CCF
  5
CD3
331
EF4
  5
11A6
331
CCB
  5
CCF
331
A27
  5
A2B
331
A5C
  5
A60
331
9E0
  5
9E4
331
EF0
  5
11A4
331
CD7
  5
CDB
331
A23
  5
A27
331
11A4
  5
1D2
331
CD3
  5
CD7
331
9A4
  5
9A8
331
418
  5
4E1
331
965
  5
969
331
9A0
  5
9A4
331
42C
  5
4E4
331
961
  5
965
331
3BD
  5
48C
331
4A4
  5
929
331
9AC
  5
9B0
331
96D
  5
971
331
969
  5
96D
331
9A8
  5
9AC
331
465
  5
90C
331
92C
  5
219
331
8ED
  5
1DA
331
928
  5
215
331
8E9
  5
1D6
331
8F5
  5
1E2
331
934
  5
221
331
930
  5
21D
331
8F1
  5
1DE
331
A8E
  5
CB8
331
A8A
  5
A8E
331
9CD
  5
9D1
331
A0C
  5
A10
331
A08
  5
A0C
331
9C9
  5
9CD
331
A45
  5
A49
331
CBC
  5
CC0
331
CB8
  5
CBC
331
A14
  5
A18
331
A41
  5
A45
331
9D5
  5
9D9
331
A10
  5
A14
331
CC4
  5
CC8
331
A4D
  5
A52
331
9D1
  5
9D5
331
CC0
  5
CC4
331
A49
  5
A4D
331
38E
  5
467
331
995
  5
999
331
409
  5
4C5
331
956
  5
95A
331
ED9
  5
EF1
331
991
  5
995
331
952
  5
956
331
396
  5
471
331
495
  5
920
331
95E
  5
962
331
99D
  5
9A1
331
95A
  5
95E
331
999
  5
99D
331
456
  5
903
331
91D
  5
20A
331
4DE
  5
949
331
4DA
  5
948
331
919
  5
206
331
925
  5
212
331
921
  5
20E
331
A76
  5
A7C
331
A72
  5
A76
331
A7E
  5
A82
331
EEF
  5
EF5
331
9BD
  5
9C1
331
9FC
  5
A00
331
9B9
  5
9BD
331
A35
  5
A39
331
A84
  5
A88
331
9F8
  5
9FC
331
A80
  5
A84
331
A04
  5
A08
331
A31
  5
A35
331
9C5
  5
9C9
331
CE5
  5
CE9
331
A00
  5
A04
331
A3D
  5
A41
331
9C1
  5
9C5
331
CE1
  5
CE5
331
A39
  5
A3D
331
3FD
  5
4BF
331
985
  5
989
331
946
  5
243
331
CE9
  5
ED6
331
981
  5
985
331
405
  5
4C1
331
942
  5
22F
331
29A
  5
465
331
47D
  5
91B
331
98D
  5
991
331
94E
  5
952
331
94A
  5
94E
331
989
  5
98D
331
90D
  5
1FA
331
4C6
  5
942
331
4C2
  5
93D
331
909
  5
1F6
331
915
  5
202
331
911
  5
1FE
331
9ED
  5
9F1
331
9E9
  5
9ED
331
A65
  5
A69
331
CDC
  5
CE0
331
A28
  5
A2D
331
A61
  5
A65
331
9F5
  5
9F9
331
CD8
  5
CDC
331
A6D
  5
A71
331
9F1
  5
9F5
331
A69
  5
A6D
331
435
  5
8EA
331
3C6
  5
4B1
331
431
  5
4E5
331
976
  5
97A
331
9B1
  5
9B6
331
972
  5
976
331
97E
  5
982
331
97A
  5
97E
331
472
  5
919
331
93D
  5
22A
331
8FE
  5
1EB
331
8FA
  5
1E7
331
939
  5
226
331
906
  5
1F3
331
902
  5
1EF
331
1E2
  5
431
331
A1C
  5
A20
331
9DD
  5
9E1
331
9D9
  5
9DD
331
CCC
  5
CD0
331
A18
  5
A1C
331
A55
  5
A5B
331
A24
  5
A28
331
A51
  5
A55
331
9E5
  5
9E9
331
CC8
  5
CCC
331
EF5
  5
11A7
331
A20
  5
A24
331
CD4
  5
CD8
331
A5D
  5
A61
331
9E1
  5
9E5
331
EF1
  5
11A5
331
CD0
  5
CD4
331
A59
  5
A5D
331
3B6
  5
486
331
11A5
  5
1D3
331
9A5
  5
9A9
331
966
  5
96A
331
3B2
  5
47A
331
9A1
  5
9A5
331
962
  5
966
331
3BE
  5
49B
331
3BA
  5
489
331
45E
  5
90A
331
9AD
  5
9B1
331
96E
  5
972
331
4A1
  5
928
331
45A
  5
908
331
96A
  5
96E
331
9A9
  5
9AD
331
4AD
  5
935
331
462
  5
90B
331
92D
  5
21A
331
8EE
  5
1DB
331
8EA
  5
1D7
331
929
  5
216
331
8F6
  5
1E3
331
935
  5
222
331
931
  5
21E
331
8F2
  5
1DF
331
A8F
  5
CB9
331
A8B
  5
A8F
331
9CE
  5
9D2
331
A0D
  5
A11
331
A09
  5
A0D
331
9CA
  5
9CE
331
A46
  5
A4A
331
CBD
  5
CC1
331
CB9
  5
CBD
331
A15
  5
A19
331
A42
  5
A46
331
9D6
  5
9DA
331
ED6
  5
EEE
331
A11
  5
A15
331
CC5
  5
CC9
331
A4E
  5
A53
331
9D2
  5
9D6
331
CC1
  5
CC5
331
A4A
  5
A4E
331
40E
  5
4C9
331
996
  5
99A
331
40A
  5
4C6
331
957
  5
95B
331
992
  5
996
331
416
  5
4E0
331
953
  5
957
331
44F
  5
8FE
331
95F
  5
963
331
99E
  5
9A2
331
412
  5
4D4
331
492
  5
91E
331
99A
  5
99E
331
95B
  5
95F
331
44B
  5
8FB
331
49E
  5
926
331
453
  5
900
331
4DF
  5
94A
331
91E
  5
20B
331
91A
  5
207
331
926
  5
213
331
922
  5
20F
331
A77
  5
A7D
331
A73
  5
A77
331
A7F
  5
A83
331
9BE
  5
9C2
331
9FD
  5
A01
331
9F9
  5
9FD
331
9BA
  5
9BE
331
A36
  5
A3A
331
A85
  5
A89
331
A81
  5
A85
331
A05
  5
A09
331
A32
  5
A36
331
9C6
  5
9CA
331
CE6
  5
CEA
331
A01
  5
A05
331
A3E
  5
A42
331
9C2
  5
9C6
331
CE2
  5
CE6
331
A3A
  5
A3E
331
23F
  5
43F
331
986
  5
98A
331
3FA
  5
4BE
331
947
  5
249
331
CEA
  5
ED7
331
982
  5
986
331
943
  5
230
331
43F
  5
8F0
331
94F
  5
953
331
98E
  5
992
331
47A
  5
91A
331
43B
  5
8ED
331
94B
  5
94F
331
98A
  5
98E
331
447
  5
8F7
331
443
  5
8F3
331
90E
  5
1FB
331
90A
  5
1F7
331
916
  5
203
331
912
  5
1FF
331
A90
  5
CBA
331
9EE
  5
9F2
331
A2D
  5
A31
331
9EA
  5
9EE
331
A66
  5
A6A
331
CDD
  5
CE1
331
A29
  5
A2E
331
CD9
  5
CDD
331
A62
  5
A66
331
9F6
  5
9FA
331
A6E
  5
A72
331
9F2
  5
9F6
331
A6A
  5
A6E
331
3C7
  5
4B2
331
9B6
  5
9BA
331
977
  5
97B
331
9B2
  5
9B7
331
973
  5
977
331
4BE
  5
938
331
97F
  5
983
331
97B
  5
97F
331
46B
  5
910
331
93E
  5
22B
331
8FF
  5
1EC
331
8FB
  5
1E8
331
93A
  5
227
331
907
  5
1F4
331
903
  5
1F0
331
A1D
  5
A21
331
9DE
  5
9E2
331
9DA
  5
9DE
331
A56
  5
A5C
331
CCD
  5
CD1
331
A19
  5
A1D
331
A25
  5
A29
331
A52
  5
A56
331
9E6
  5
9EA
331
CC9
  5
CCD
331
A21
  5
A25
331
CD5
  5
CD9
331
A5E
  5
A62
331
9E2
  5
9E6
331
CD1
  5
CD5
331
A5A
  5
A5E
331
3B7
  5
488
331
11A6
  5
1D4
331
41A
  5
4E2
331
9A6
  5
9AA
331
967
  5
96B
331
3B3
  5
485
331
9A2
  5
9A6
331
963
  5
967
331
3BF
  5
49C
331
9AE
  5
9B2
331
96F
  5
973
331
96B
  5
96F
331
9AA
  5
9AE
331
467
  5
90D
331
4AE
  5
936
331
4AA
  5
934
331
92E
  5
21B
331
8EF
  5
1DC
331
8EB
  5
1D8
331
92A
  5
217
331
936
  5
223
331
8F7
  5
1E4
331
932
  5
21F
331
8F3
  5
1E0
331
A8C
  5
A90
331
A88
  5
A8C
331
9CF
  5
9D3
331
A0E
  5
A12
331
A0A
  5
A0E
331
9CB
  5
9CF
331
A47
  5
A4B
331
CBE
  5
CC2
331
CBA
  5
CBE
331
A16
  5
A1A
331
A43
  5
A47
331
9D7
  5
9DB
331
ED7
  5
EEF
331
A12
  5
A16
331
CC6
  5
CCA
331
A4F
  5
A54
331
9D3
  5
9D7
331
CC2
  5
CC6
331
A4B
  5
A4F
331
954
  5
958
331
997
  5
99B
331
40B
  5
4C7
331
950
  5
954
331
993
  5
997
331
95C
  5
960
331
958
  5
95C
331
99F
  5
9A3
331
99B
  5
99F
331
49B
  5
924
331
91F
  5
20C
331
91B
  5
208
331
4E4
  5
94C
331
927
  5
214
331
4E0
  5
94B
331
923
  5
210
331
A74
  5
A78
331
A70
  5
A74
331
A7C
  5
A80
331
A78
  5
A7E
331
9BF
  5
9C3
331
9FE
  5
A02
331
9FA
  5
9FE
331
9BB
  5
9BF
331
A37
  5
A3B
331
A86
  5
A8A
331
A82
  5
A86
331
A06
  5
A0A
331
A33
  5
A37
331
9C7
  5
9CB
331
CE7
  5
CEB
331
A02
  5
A06
331
A3F
  5
A43
331
9C3
  5
9C7
331
CE3
  5
CE7
331
A3B
  5
A3F
331
944
  5
231
331
CEB
  5
ED8
331
987
  5
98B
331
940
  5
22D
331
43C
  5
8EE
331
983
  5
987
331
407
  5
4C2
331
94C
  5
950
331
948
  5
2A0
331
98F
  5
993
331
403
  5
4C0
331
98B
  5
98F
331
48F
  5
91C
331
4C4
  5
941
331
4C0
  5
93A
331
90F
  5
1FC
331
90B
  5
1F8
331
917
  5
204
331
4C8
  5
943
331
913
  5
200
331
1E8
  5
43D
331
9EF
  5
9F3
331
A2E
  5
A32
331
A2A
  5
A2F
331
9EB
  5
9EF
331
A67
  5
A6B
331
CDE
  5
CE2
331
CDA
  5
CDE
331
A63
  5
A67
331
9F7
  5
9FB
331
A6F
  5
A73
331
9F3
  5
9F7
331
A6B
  5
A6F
331
437
  5
8EB
331
974
  5
978
331
3C0
  5
49E
331
9B7
  5
9BB
331
970
  5
974
331
9B3
  5
9B8
331
97C
  5
980
331
3C8
  5
4B4
331
978
  5
97C
331
468
  5
90E
331
470
  5
911
331
8FC
  5
1E9
331
93F
  5
22C
331
8F8
  5
1E5
331
904
  5
1F1
331
93B
  5
228
331
900
  5
1ED
331
9DF
  5
9E3
331
A1E
  5
A22
331
9DB
  5
9DF
331
CCE
  5
CD2
331
A1A
  5
A1E
331
CCA
  5
CCE
331
A26
  5
A2A
331
A53
  5
A59
331
9E7
  5
9EB
331
A22
  5
A26
331
CD6
  5
CDA
331
A5F
  5
A63
331
9E3
  5
9E7
331
CD2
  5
CD6
331
A5B
  5
A5F
331
964
  5
968
331
11A7
  5
1D5
331
9A7
  5
9AB
331
960
  5
964
331
45C
  5
909
331
9A3
  5
9A7
331
96C
  5
970
331
4A7
  5
932
331
458
  5
906
331
9AF
  5
9B3
331
42B
  5
4E3
331
968
  5
96C
331
9AB
  5
9AF
331
8EC
  5
1D9
331
92F
  5
21C
331
8F4
  5
1E1
331
92B
  5
218
331
937
  5
224
331
8F0
  5
1DD
331
933
  5
220
  0
ACDBDETAILVIEWSTYLE
  5
6A
102
{ACAD_XDICTIONARY
360
135D
102
}
102
{ACAD_REACTORS
330
69
102
}
330
69
100
AcDbModelDocViewStyle
 70
     0
  3
Imperial24
290
     0
100
AcDbDetailViewStyle
 70
     0
 71
     0
 90
        3
 71
     1
340
55
 62
   256
 40
0.24
340
0
 62
   256
 40
0.24
300

 40
0.36
280
     3
 71
     2
340
5C
 90
       25
 62
   256
 71
     3
340
55
 62
   256
 40
0.24
 90
        1
 40
0.75
 90
        1
300
%<\AcVar ViewType \f "%tc1">% %<\AcVar ViewDetailId>%\PSCALE %<\AcVar ViewScale \f "%sn">%
 71
     4
340
5C
 90
       25
 62
   256
340
5C
 90
       25
 62
   256
280
     0
  0
LAYOUT
  5
72
102
{ACAD_REACTORS
330
61
102
}
330
61
100
AcDbPlotSettings
  1

  2
EPSON LP-S3200複合棟
  4
A4
  6

 40
5.873749732971191
 41
5.873748779296875
 42
5.873733520507812
 43
5.873748779296875
 44
209.9733276367186
 45
297.0106506347656
 46
0.0
 47
0.0
 48
-1380.1113104252
 49
-1159.012159056772
140
1369.86206337106
141
2838.266483516538
142
1.0
143
355.9200563637146
 70
 11952
 72
     0
 73
     0
 74
     4
  7
monochrome.ctb
 75
     0
147
0.002809619694424
 76
     0
 77
     2
 78
   300
148
35054.82728480008
149
29438.90884004201
100
AcDbLayout
  1
Model
 70
     1
 71
     0
 10
0.0
 20
0.0
 11
12.0
 21
9.0
 12
0.0
 22
0.0
 32
0.0
 14
0.0
 24
0.0
 34
0.0
 15
0.0
 25
0.0
 35
0.0
146
0.0
 13
0.0
 23
0.0
 33
0.0
 16
1.0
 26
0.0
 36
0.0
 17
0.0
 27
1.0
 37
0.0
 76
     0
330
6F
331
89
1001
ACAD_PSEXT
1000
EPSON LP-S3200複合棟
1000
EPSON LP-S3200
1000
10.70.14.11
1000

1070
     0
  0
LAYOUT
  5
6E
102
{ACAD_REACTORS
330
61
102
}
330
61
100
AcDbPlotSettings
  1

  2
EPSON LP-S3200複合棟
  4

  6

 40
0.0
 41
0.0
 42
0.0
 43
0.0
 44
0.0
 45
0.0
 46
0.0
 47
0.0
 48
0.0
 49
0.0
140
0.0
141
0.0
142
1.0
143
1.0
 70
   688
 72
     0
 73
     0
 74
     5
  7
monochrome.ctb
 75
    16
147
1.0
 76
     0
 77
     2
 78
   300
148
0.0
149
0.0
100
AcDbLayout
  1
レイアウト1
 70
     1
 71
     1
 10
0.0
 20
0.0
 11
12.0
 21
9.0
 12
0.0
 22
0.0
 32
0.0
 14
1.000000000000000E+20
 24
1.000000000000000E+20
 34
1.000000000000000E+20
 15
-1.000000000000000E+20
 25
-1.000000000000000E+20
 35
-1.000000000000000E+20
146
0.0
 13
0.0
 23
0.0
 33
0.0
 16
1.0
 26
0.0
 36
0.0
 17
0.0
 27
1.0
 37
0.0
 76
     0
330
6B
  0
MATERIAL
  5
19
102
{ACAD_REACTORS
330
10
102
}
330
10
100
AcDbMaterial
  1
ByBlock
 72
     0
 43
0.0208333333333333
 43
0.0
 43
0.0
 43
0.0
 43
0.0
 43
0.0208333333333333
 43
0.0
 43
0.0
 43
0.0
 43
0.0
 43
1.0
 43
0.0
 43
0.0
 43
0.0
 43
0.0
 43
1.0
 77
     0
 47
0.0208333333333333
 47
0.0
 47
0.0
 47
0.0
 47
0.0
 47
0.0208333333333333
 47
0.0
 47
0.0
 47
0.0
 47
0.0
 47
1.0
 47
0.0
 47
0.0
 47
0.0
 47
0.0
 47
1.0
171
     0
 49
0.0208333333333333
 49
0.0
 49
0.0
 49
0.0
 49
0.0
 49
0.0208333333333333
 49
0.0
 49
0.0
 49
0.0
 49
0.0
 49
1.0
 49
0.0
 49
0.0
 49
0.0
 49
0.0
 49
1.0
175
     0
142
0.0208333333333333
142
0.0
142
0.0
142
0.0
142
0.0
142
0.0208333333333333
142
0.0
142
0.0
142
0.0
142
0.0
142
1.0
142
0.0
142
0.0
142
0.0
142
0.0
142
1.0
179
     0
144
0.0208333333333333
144
0.0
144
0.0
144
0.0
144
0.0
144
0.0208333333333333
144
0.0
144
0.0
144
0.0
144
0.0
144
1.0
144
0.0
144
0.0
144
0.0
144
0.0
144
1.0
147
0.0208333333333333
147
0.0
147
0.0
147
0.0
147
0.0
147
0.0208333333333333
147
0.0
147
0.0
147
0.0
147
0.0
147
1.0
147
0.0
147
0.0
147
0.0
147
0.0
147
1.0
  0
MATERIAL
  5
11
102
{ACAD_REACTORS
330
10
102
}
330
10
100
AcDbMaterial
  1
ByLayer
 72
     0
 43
0.0208333333333333
 43
0.0
 43
0.0
 43
0.0
 43
0.0
 43
0.0208333333333333
 43
0.0
 43
0.0
 43
0.0
 43
0.0
 43
1.0
 43
0.0
 43
0.0
 43
0.0
 43
0.0
 43
1.0
 77
     0
 47
0.0208333333333333
 47
0.0
 47
0.0
 47
0.0
 47
0.0
 47
0.0208333333333333
 47
0.0
 47
0.0
 47
0.0
 47
0.0
 47
1.0
 47
0.0
 47
0.0
 47
0.0
 47
0.0
 47
1.0
171
     0
 49
0.0208333333333333
 49
0.0
 49
0.0
 49
0.0
 49
0.0
 49
0.0208333333333333
 49
0.0
 49
0.0
 49
0.0
 49
0.0
 49
1.0
 49
0.0
 49
0.0
 49
0.0
 49
0.0
 49
1.0
175
     0
142
0.0208333333333333
142
0.0
142
0.0
142
0.0
142
0.0
142
0.0208333333333333
142
0.0
142
0.0
142
0.0
142
0.0
142
1.0
142
0.0
142
0.0
142
0.0
142
0.0
142
1.0
179
     0
144
0.0208333333333333
144
0.0
144
0.0
144
0.0
144
0.0
144
0.0208333333333333
144
0.0
144
0.0
144
0.0
144
0.0
144
1.0
144
0.0
144
0.0
144
0.0
144
0.0
144
1.0
147
0.0208333333333333
147
0.0
147
0.0
147
0.0
147
0.0
147
0.0208333333333333
147
0.0
147
0.0
147
0.0
147
0.0
147
1.0
147
0.0
147
0.0
147
0.0
147
0.0
147
1.0
  0
MATERIAL
  5
21
102
{ACAD_XDICTIONARY
360
22
102
}
102
{ACAD_REACTORS
330
10
102
}
330
10
100
AcDbMaterial
  1
Global
 72
     0
 43
0.0208333333333333
 43
0.0
 43
0.0
 43
0.0
 43
0.0
 43
0.0208333333333333
 43
0.0
 43
0.0
 43
0.0
 43
0.0
 43
1.0
 43
0.0
 43
0.0
 43
0.0
 43
0.0
 43
1.0
 77
     0
 47
0.0208333333333333
 47
0.0
 47
0.0
 47
0.0
 47
0.0
 47
0.0208333333333333
 47
0.0
 47
0.0
 47
0.0
 47
0.0
 47
1.0
 47
0.0
 47
0.0
 47
0.0
 47
0.0
 47
1.0
171
     0
 49
0.0208333333333333
 49
0.0
 49
0.0
 49
0.0
 49
0.0
 49
0.0208333333333333
 49
0.0
 49
0.0
 49
0.0
 49
0.0
 49
1.0
 49
0.0
 49
0.0
 49
0.0
 49
0.0
 49
1.0
175
     0
142
0.0208333333333333
142
0.0
142
0.0
142
0.0
142
0.0
142
0.0208333333333333
142
0.0
142
0.0
142
0.0
142
0.0
142
1.0
142
0.0
142
0.0
142
0.0
142
0.0
142
1.0
179
     0
144
0.0208333333333333
144
0.0
144
0.0
144
0.0
144
0.0
144
0.0208333333333333
144
0.0
144
0.0
144
0.0
144
0.0
144
1.0
144
0.0
144
0.0
144
0.0
144
0.0
144
1.0
147
0.0208333333333333
147
0.0
147
0.0
147
0.0
147
0.0
147
0.0208333333333333
147
0.0
147
0.0
147
0.0
147
0.0
147
1.0
147
0.0
147
0.0
147
0.0
147
0.0
147
1.0
  0
MLEADERSTYLE
  5
66
102
{ACAD_REACTORS
330
65
102
}
330
65
100
AcDbMLeaderStyle
179
     2
170
     2
171
     1
172
     0
 90
        2
 40
0.0
 41
0.0
173
     1
 91
-1056964608
340
5A
 92
       -2
290
     1
 42
0.09
291
     1
 43
0.36
  3
Standard
 44
0.18
300

342
55
174
     1
178
     6
175
     1
176
     0
 93
-1056964608
 45
0.18
292
     0
297
     0
 46
0.18
 94
-1056964608
 47
1.0
 49
1.0
140
1.0
293
     1
141
0.0
294
     1
177
     0
142
1.0
295
     0
296
     0
143
0.125
271
     0
272
     9
273
     9
298
     0
1001
ACAD_MLEADERVER
1070
     2
  0
MLINESTYLE
  5
5F
102
{ACAD_REACTORS
330
5E
102
}
330
5E
100
AcDbMlineStyle
  2
STANDARD
 70
     0
  3

 62
   256
 51
90.0
 52
90.0
 71
     2
 49
0.5
 62
   256
  6
BYLAYER
 49
-0.5
 62
   256
  6
BYLAYER
  0
ACDBPLACEHOLDER
  5
F
102
{ACAD_REACTORS
330
E
102
}
330
E
  0
SCALE
  5
43
102
{ACAD_REACTORS
330
42
102
}
330
42
100
AcDbScale
 70
     0
300
1:1
140
1.0
141
1.0
290
     1
  0
SCALE
  5
44
102
{ACAD_REACTORS
330
42
102
}
330
42
100
AcDbScale
 70
     0
300
1/128" = 1'-0"
140
0.0078125
141
12.0
290
     0
  0
SCALE
  5
45
102
{ACAD_REACTORS
330
42
102
}
330
42
100
AcDbScale
 70
     0
300
1/64" = 1'-0"
140
0.015625
141
12.0
290
     0
  0
SCALE
  5
46
102
{ACAD_REACTORS
330
42
102
}
330
42
100
AcDbScale
 70
     0
300
1/32" = 1'-0"
140
0.03125
141
12.0
290
     0
  0
SCALE
  5
47
102
{ACAD_REACTORS
330
42
102
}
330
42
100
AcDbScale
 70
     0
300
1/16" = 1'-0"
140
0.0625
141
12.0
290
     0
  0
SCALE
  5
48
102
{ACAD_REACTORS
330
42
102
}
330
42
100
AcDbScale
 70
     0
300
3/32" = 1'-0"
140
0.09375
141
12.0
290
     0
  0
SCALE
  5
49
102
{ACAD_REACTORS
330
42
102
}
330
42
100
AcDbScale
 70
     0
300
1/8" = 1'-0"
140
0.125
141
12.0
290
     0
  0
SCALE
  5
4A
102
{ACAD_REACTORS
330
42
102
}
330
42
100
AcDbScale
 70
     0
300
3/16" = 1'-0"
140
0.1875
141
12.0
290
     0
  0
SCALE
  5
4B
102
{ACAD_REACTORS
330
42
102
}
330
42
100
AcDbScale
 70
     0
300
1/4" = 1'-0"
140
0.25
141
12.0
290
     0
  0
SCALE
  5
4C
102
{ACAD_REACTORS
330
42
102
}
330
42
100
AcDbScale
 70
     0
300
3/8" = 1'-0"
140
0.375
141
12.0
290
     0
  0
SCALE
  5
4D
102
{ACAD_REACTORS
330
42
102
}
330
42
100
AcDbScale
 70
     0
300
1/2" = 1'-0"
140
0.5
141
12.0
290
     0
  0
SCALE
  5
4E
102
{ACAD_REACTORS
330
42
102
}
330
42
100
AcDbScale
 70
     0
300
3/4" = 1'-0"
140
0.75
141
12.0
290
     0
  0
SCALE
  5
4F
102
{ACAD_REACTORS
330
42
102
}
330
42
100
AcDbScale
 70
     0
300
1" = 1'-0"
140
1.0
141
12.0
290
     0
  0
SCALE
  5
50
102
{ACAD_REACTORS
330
42
102
}
330
42
100
AcDbScale
 70
     0
300
1-1/2" = 1'-0"
140
1.5
141
12.0
290
     0
  0
SCALE
  5
51
102
{ACAD_REACTORS
330
42
102
}
330
42
100
AcDbScale
 70
     0
300
3" = 1'-0"
140
3.0
141
12.0
290
     0
  0
SCALE
  5
52
102
{ACAD_REACTORS
330
42
102
}
330
42
100
AcDbScale
 70
     0
300
6" = 1'-0"
140
6.0
141
12.0
290
     0
  0
SCALE
  5
53
102
{ACAD_REACTORS
330
42
102
}
330
42
100
AcDbScale
 70
     0
300
1'-0" = 1'-0"
140
12.0
141
12.0
290
     0
  0
ACDBSECTIONVIEWSTYLE
  5
68
102
{ACAD_XDICTIONARY
360
135B
102
}
102
{ACAD_REACTORS
330
67
102
}
330
67
100
AcDbModelDocViewStyle
 70
     0
  3
Imperial24
290
     0
100
AcDbSectionViewStyle
 70
     0
 71
     0
 90
       78
 71
     1
340
55
 62
   256
 40
0.24
340
0
340
0
 62
   256
 40
0.24
300
I, O, Q, S, X, Z
 40
0.48
 90
        3
 40
0.18
 90
        1
 71
     2
340
5C
 90
       25
 62
   256
340
5C
 90
       50
 62
   256
 40
0.24
 40
0.0
 40
0.24
 71
     3
340
55
 62
   256
 40
0.24
 90
        1
 40
0.75
 90
        1
300
%<\AcVar ViewType \f "%tc1">% %<\AcVar ViewSectionStartId>%-%<\AcVar ViewSectionEndId>%\PSCALE %<\AcVar ViewScale \f "%sn">%
 71
     4
 62
   256
 62
   257
300
ANSI31
 40
1.0
 90
        0
290
     0
290
     0
 90
        6
 40
0.0
 40
1.570796326794896
 40
0.2617993877991494
 40
1.308996938995747
 40
-0.2617993877991494
 40
1.832595714594044
  0
TABLESTYLE
  5
64
102
{ACAD_XDICTIONARY
360
550
102
}
102
{ACAD_REACTORS
330
63
102
}
330
63
100
AcDbTableStyle
280
     0
  3
Standard
 70
     0
 71
     0
 40
0.06
 41
0.06
280
     0
281
     0
  7
STANDARD
140
0.18
170
     2
 62
     0
 63
     7
283
     0
 90
      512
 91
        0
  1

274
    -2
284
     1
 64
     0
275
    -2
285
     1
 65
     0
276
    -2
286
     1
 66
     0
277
    -2
287
     1
 67
     0
278
    -2
288
     1
 68
     0
279
    -2
289
     1
 69
     0
  7
STANDARD
140
0.25
170
     5
 62
     0
 63
     7
283
     0
 90
      512
 91
        0
  1

274
    -2
284
     1
 64
     0
275
    -2
285
     1
 65
     0
276
    -2
286
     1
 66
     0
277
    -2
287
     1
 67
     0
278
    -2
288
     1
 68
     0
279
    -2
289
     1
 69
     0
  7
STANDARD
140
0.18
170
     5
 62
     0
 63
     7
283
     0
 90
      512
 91
        0
  1

274
    -2
284
     1
 64
     0
275
    -2
285
     1
 65
     0
276
    -2
286
     1
 66
     0
277
    -2
287
     1
 67
     0
278
    -2
288
     1
 68
     0
279
    -2
289
     1
 69
     0
  0
VISUALSTYLE
  5
2F
102
{ACAD_REACTORS
330
29
102
}
330
29
100
AcDbVisualStyle
  2

 70
     4
177
     3
291
     0
 70
    58
 90
        0
176
     1
 90
        2
176
     1
 90
        0
176
     1
 90
        0
176
     1
 40
0.6
176
     1
 40
30.0
176
     1
 62
     7
420
 16777215
176
     1
 90
        1
176
     1
 90
        4
176
     1
 62
     7
176
     1
 62
   257
176
     1
 90
        1
176
     1
 90
        1
176
     1
 40
1.0
176
     1
 90
        0
176
     1
 62
   257
176
     1
 40
1.0
176
     1
 90
        1
176
     1
 90
        6
176
     1
 90
        2
176
     1
 62
     7
176
     1
 90
        5
176
     1
 90
        0
176
     1
 90
        0
176
     1
290
     0
176
     1
 90
        1
176
     1
 40
0.0
176
     1
 90
        0
176
     1
290
     1
176
     1
290
     1
176
     1
290
     0
176
     1
290
     0
176
     1
290
     0
176
     1
290
     0
176
     1
290
     0
176
     1
290
     0
176
     1
290
     0
176
     1
 90
       50
176
     1
 40
0.0
176
     1
 40
1.0
176
     1
 90
        0
176
     1
 62
    18
176
     1
 90
       50
176
     1
 90
        3
176
     1
 62
     5
420
      255
176
     1
290
     0
176
     1
 90
       50
176
     1
 90
       50
176
     1
 90
       50
176
     1
290
     0
176
     1
 90
       50
176
     1
 62
   256
176
     0
 40
1.0
176
     0
 90
        2
176
     1
  1
strokes_ogs.tif
176
     1
290
     0
176
     1
 40
1.0
176
     1
 40
1.0
176
     1
1001
ACAD
1000
AcDbSavedByObjectVersion
1070
     0
  0
VISUALSTYLE
  5
2E
102
{ACAD_REACTORS
330
29
102
}
330
29
100
AcDbVisualStyle
  2

 70
     7
177
     3
291
     1
 70
    58
 90
        1
176
     1
 90
        0
176
     1
 90
        1
176
     1
 90
        0
176
     1
 40
0.6
176
     1
 40
30.0
176
     1
 62
     7
420
 16777215
176
     1
 90
        0
176
     1
 90
        4
176
     1
 62
     7
176
     1
 62
   257
176
     1
 90
        1
176
     1
 90
        1
176
     1
 40
1.0
176
     1
 90
        8
176
     1
 62
     7
176
     1
 40
1.0
176
     1
 90
        1
176
     1
 90
        6
176
     1
 90
        2
176
     1
 62
     7
176
     1
 90
        5
176
     1
 90
        0
176
     1
 90
        0
176
     1
290
     0
176
     1
 90
        1
176
     1
 40
0.0
176
     1
 90
        0
176
     1
290
     0
176
     1
290
     1
176
     1
290
     1
176
     1
290
     0
176
     1
290
     0
176
     1
290
     0
176
     1
290
     0
176
     1
290
     0
176
     1
290
     0
176
     1
 90
       50
176
     1
 40
0.0
176
     1
 40
1.0
176
     1
 90
        0
176
     1
 62
    18
176
     1
 90
       50
176
     1
 90
        3
176
     1
 62
     5
420
      255
176
     1
290
     0
176
     1
 90
       50
176
     1
 90
       50
176
     1
 90
       50
176
     1
290
     0
176
     1
 90
       50
176
     1
 62
   256
176
     0
 40
1.0
176
     0
 90
        2
176
     1
  1
strokes_ogs.tif
176
     1
290
     0
176
     1
 40
1.0
176
     1
 40
1.0
176
     1
1001
ACAD
1000
AcDbSavedByObjectVersion
1070
     0
  0
VISUALSTYLE
  5
35
102
{ACAD_REACTORS
330
29
102
}
330
29
100
AcDbVisualStyle
  2

 70
    12
177
     3
291
     1
 70
    58
 90
        2
176
     1
 90
        2
176
     1
 90
        0
176
     1
 90
        0
176
     1
 40
0.6
176
     1
 40
30.0
176
     1
 62
     7
420
 16777215
176
     1
 90
        1
176
     1
 90
        4
176
     1
 62
     7
176
     1
 62
   257
176
     1
 90
        1
176
     1
 90
        1
176
     1
 40
1.0
176
     1
 90
        8
176
     1
 62
     7
176
     1
 40
1.0
176
     1
 90
        1
176
     1
 90
        6
176
     1
 90
        2
176
     1
 62
     7
176
     1
 90
        5
176
     1
 90
        0
176
     1
 90
        0
176
     1
290
     0
176
     1
 90
        1
176
     1
 40
50.0
176
     1
 90
        0
176
     1
290
     0
176
     1
290
     1
176
     1
290
     1
176
     1
290
     0
176
     1
290
     0
176
     1
290
     0
176
     1
290
     0
176
     1
290
     0
176
     1
290
     0
176
     1
 90
       50
176
     1
 40
0.0
176
     1
 40
1.0
176
     1
 90
        0
176
     1
 62
    18
176
     1
 90
       50
176
     1
 90
        3
176
     1
 62
     5
420
      255
176
     1
290
     0
176
     1
 90
       50
176
     1
 90
       50
176
     1
 90
       50
176
     1
290
     0
176
     1
 90
       50
176
     1
 62
   256
176
     0
 40
1.0
176
     0
 90
        2
176
     1
  1
strokes_ogs.tif
176
     1
290
     0
176
     1
 40
1.0
176
     1
 40
1.0
176
     1
1001
ACAD
1000
AcDbSavedByObjectVersion
1070
     0
  0
VISUALSTYLE
  5
39
102
{ACAD_REACTORS
330
29
102
}
330
29
100
AcDbVisualStyle
  2

 70
    16
177
     3
291
     1
 70
    58
 90
        2
176
     1
 90
        2
176
     1
 90
        3
176
     1
 90
        0
176
     1
 40
0.6
176
     1
 40
30.0
176
     1
 62
     8
420
  8421504
176
     1
 90
        1
176
     1
 90
        4
176
     1
 62
     7
176
     1
 62
   257
176
     1
 90
        1
176
     1
 90
        1
176
     1
 40
1.0
176
     1
 90
        8
176
     1
 62
     8
420
  8421504
176
     1
 40
1.0
176
     1
 90
        1
176
     1
 90
        6
176
     1
 90
        2
176
     1
 62
     7
176
     1
 90
        5
176
     1
 90
        0
176
     1
 90
        0
176
     1
290
     0
176
     1
 90
        1
176
     1
 40
0.0
176
     1
 90
        0
176
     1
290
     0
176
     1
290
     1
176
     1
290
     1
176
     1
290
     0
176
     1
290
     0
176
     1
290
     0
176
     1
290
     0
176
     1
290
     0
176
     1
290
     0
176
     1
 90
       50
176
     1
 40
0.0
176
     1
 40
1.0
176
     1
 90
        0
176
     1
 62
    18
176
     1
 90
       50
176
     1
 90
        3
176
     1
 62
     5
420
      255
176
     1
290
     0
176
     1
 90
       50
176
     1
 90
       50
176
     1
 90
       50
176
     1
290
     0
176
     1
 90
       50
176
     1
 62
   256
176
     0
 40
1.0
176
     0
 90
        2
176
     1
  1
strokes_ogs.tif
176
     1
290
     0
176
     1
 40
1.0
176
     1
 40
1.0
176
     1
1001
ACAD
1000
AcDbSavedByObjectVersion
1070
     0
  0
VISUALSTYLE
  5
32
102
{ACAD_REACTORS
330
29
102
}
330
29
100
AcDbVisualStyle
  2

 70
     9
177
     3
291
     0
 70
    58
 90
        3
176
     1
 90
        2
176
     1
 90
        0
176
     1
 90
        0
176
     1
 40
0.6
176
     1
 40
30.0
176
     1
 62
     7
420
 16777215
176
     1
 90
        2
176
     1
 90
        2
176
     1
 62
     7
176
     1
 62
   257
176
     1
 90
        1
176
     1
 90
        1
176
     1
 40
179.0
176
     1
 90
        8
176
     1
 62
     7
176
     1
 40
1.0
176
     1
 90
        1
176
     1
 90
        6
176
     1
 90
        2
176
     1
 62
     7
176
     1
 90
        3
176
     1
 90
        0
176
     1
 90
        0
176
     1
290
     0
176
     1
 90
        1
176
     1
 40
0.0
176
     1
 90
        0
176
     1
290
     0
176
     1
290
     1
176
     1
290
     1
176
     1
290
     0
176
     1
290
     0
176
     1
290
     0
176
     1
290
     0
176
     1
290
     0
176
     1
290
     0
176
     1
 90
       50
176
     1
 40
0.0
176
     1
 40
1.0
176
     1
 90
        0
176
     1
 62
    18
176
     1
 90
       50
176
     1
 90
        3
176
     1
 62
     5
420
      255
176
     1
290
     0
176
     1
 90
       50
176
     1
 90
       50
176
     1
 90
       50
176
     1
290
     0
176
     1
 90
       50
176
     1
 62
   256
176
     0
 40
1.0
176
     0
 90
        2
176
     1
  1
strokes_ogs.tif
176
     1
290
     0
176
     1
 40
1.0
176
     1
 40
1.0
176
     1
1001
ACAD
1000
AcDbSavedByObjectVersion
1070
     0
  0
VISUALSTYLE
  5
34
102
{ACAD_REACTORS
330
29
102
}
330
29
100
AcDbVisualStyle
  2

 70
    11
177
     3
291
     1
 70
    58
 90
        2
176
     1
 90
        2
176
     1
 90
        0
176
     1
 90
        0
176
     1
 40
0.6
176
     1
 40
30.0
176
     1
 62
     7
420
 16777215
176
     1
 90
        1
176
     1
 90
        4
176
     1
 62
     7
176
     1
 62
   257
176
     1
 90
        1
176
     1
 90
        1
176
     1
 40
1.0
176
     1
 90
        8
176
     1
 62
     7
176
     1
 40
1.0
176
     1
 90
        1
176
     1
 90
        6
176
     1
 90
        2
176
     1
 62
     7
176
     1
 90
        5
176
     1
 90
        0
176
     1
 90
        0
176
     1
290
     0
176
     1
 90
        1
176
     1
 40
-50.0
176
     1
 90
        0
176
     1
290
     0
176
     1
290
     1
176
     1
290
     1
176
     1
290
     0
176
     1
290
     0
176
     1
290
     0
176
     1
290
     0
176
     1
290
     0
176
     1
290
     0
176
     1
 90
       50
176
     1
 40
0.0
176
     1
 40
1.0
176
     1
 90
        0
176
     1
 62
    18
176
     1
 90
       50
176
     1
 90
        3
176
     1
 62
     5
420
      255
176
     1
290
     0
176
     1
 90
       50
176
     1
 90
       50
176
     1
 90
       50
176
     1
290
     0
176
     1
 90
       50
176
     1
 62
   256
176
     0
 40
1.0
176
     0
 90
        2
176
     1
  1
strokes_ogs.tif
176
     1
290
     0
176
     1
 40
1.0
176
     1
 40
1.0
176
     1
1001
ACAD
1000
AcDbSavedByObjectVersion
1070
     0
  0
VISUALSTYLE
  5
41
102
{ACAD_REACTORS
330
29
102
}
330
29
100
AcDbVisualStyle
  2

 70
    22
177
     3
291
     1
 70
    58
 90
        2
176
     0
 90
        2
176
     0
 90
        0
176
     0
 90
        0
176
     0
 40
0.6
176
     0
 40
30.0
176
     0
 62
     7
420
 16777215
176
     0
 90
        1
176
     0
 90
        4
176
     0
 62
     7
176
     0
 62
   257
176
     0
 90
        1
176
     0
 90
        1
176
     0
 40
1.0
176
     0
 90
        8
176
     2
 62
     7
176
     0
 40
1.0
176
     0
 90
        1
176
     0
 90
        6
176
     0
 90
        2
176
     0
 62
     7
176
     0
 90
        5
176
     0
 90
        0
176
     0
 90
        0
176
     0
290
     0
176
     0
 90
        1
176
     0
 40
0.0
176
     0
 90
        0
176
     0
290
     0
176
     1
290
     1
176
     1
290
     1
176
     1
290
     0
176
     1
290
     0
176
     1
290
     0
176
     1
290
     0
176
     1
290
     0
176
     1
290
     0
176
     1
 90
       50
176
     0
 40
0.0
176
     0
 40
1.0
176
     0
 90
        0
176
     0
 62
    18
176
     0
 90
       50
176
     0
 90
        3
176
     0
 62
     5
420
      255
176
     0
290
     0
176
     1
 90
       50
176
     0
 90
       50
176
     0
 90
       50
176
     0
290
     0
176
     1
 90
       50
176
     0
 62
   256
176
     0
 40
1.0
176
     0
 90
        2
176
     0
  1
strokes_ogs.tif
176
     0
290
     0
176
     1
 40
1.0
176
     0
 40
1.0
176
     0
1001
ACAD
1000
AcDbSavedByObjectVersion
1070
     0
  0
VISUALSTYLE
  5
38
102
{ACAD_REACTORS
330
29
102
}
330
29
100
AcDbVisualStyle
  2

 70
    15
177
     3
291
     1
 70
    58
 90
        2
176
     1
 90
        2
176
     1
 90
        0
176
     1
 90
        0
176
     1
 40
0.6
176
     1
 40
30.0
176
     1
 62
     7
420
 16777215
176
     1
 90
        1
176
     1
 90
        4
176
     1
 62
     7
176
     1
 62
   257
176
     1
 90
        1
176
     1
 90
        1
176
     1
 40
1.0
176
     1
 90
        8
176
     1
 62
     7
176
     1
 40
1.0
176
     1
 90
        1
176
     1
 90
        6
176
     1
 90
        2
176
     1
 62
     7
176
     1
 90
        5
176
     1
 90
        0
176
     1
 90
        0
176
     1
290
     0
176
     1
 90
        1
176
     1
 40
0.0
176
     1
 90
        0
176
     1
290
     0
176
     1
290
     1
176
     1
290
     1
176
     1
290
     0
176
     1
290
     0
176
     1
290
     0
176
     1
290
     0
176
     1
290
     0
176
     1
290
     0
176
     1
 90
       50
176
     1
 40
0.0
176
     1
 40
1.0
176
     1
 90
        0
176
     1
 62
    18
176
     1
 90
       50
176
     1
 90
        3
176
     1
 62
     5
420
      255
176
     1
290
     0
176
     1
 90
       50
176
     1
 90
       50
176
     1
 90
       50
176
     1
290
     0
176
     1
 90
       50
176
     1
 62
   256
176
     0
 40
1.0
176
     0
 90
        2
176
     1
  1
strokes_ogs.tif
176
     1
290
     0
176
     1
 40
1.0
176
     1
 40
1.0
176
     1
1001
ACAD
1000
AcDbSavedByObjectVersion
1070
     0
  0
VISUALSTYLE
  5
2A
102
{ACAD_REACTORS
330
29
102
}
330
29
100
AcDbVisualStyle
  2

 70
     0
177
     3
291
     1
 70
    58
 90
        2
176
     1
 90
        1
176
     1
 90
        1
176
     1
 90
        2
176
     1
 40
0.6
176
     1
 40
30.0
176
     1
 62
     7
420
 16777215
176
     1
 90
        0
176
     1
 90
        0
176
     1
 62
     7
176
     1
 62
   257
176
     1
 90
        1
176
     1
 90
        1
176
     1
 40
1.0
176
     1
 90
        8
176
     1
 62
     7
176
     1
 40
1.0
176
     1
 90
        1
176
     1
 90
        6
176
     1
 90
        2
176
     1
 62
     7
176
     1
 90
        5
176
     1
 90
        0
176
     1
 90
        0
176
     1
290
     0
176
     1
 90
       13
176
     1
 40
0.0
176
     1
 90
        0
176
     1
290
     0
176
     1
290
     1
176
     1
290
     1
176
     1
290
     0
176
     1
290
     0
176
     1
290
     0
176
     1
290
     0
176
     1
290
     0
176
     1
290
     0
176
     1
 90
       50
176
     1
 40
0.0
176
     1
 40
1.0
176
     1
 90
        0
176
     1
 62
    18
176
     1
 90
       50
176
     1
 90
        3
176
     1
 62
     5
420
      255
176
     1
290
     0
176
     1
 90
       50
176
     1
 90
       50
176
     1
 90
       50
176
     1
290
     0
176
     1
 90
       50
176
     1
 62
   256
176
     0
 40
1.0
176
     0
 90
        2
176
     1
  1
strokes_ogs.tif
176
     1
290
     0
176
     1
 40
1.0
176
     1
 40
1.0
176
     1
1001
ACAD
1000
AcDbSavedByObjectVersion
1070
     0
  0
VISUALSTYLE
  5
2B
102
{ACAD_REACTORS
330
29
102
}
330
29
100
AcDbVisualStyle
  2

 70
     1
177
     3
291
     1
 70
    58
 90
        2
176
     1
 90
        1
176
     1
 90
        1
176
     1
 90
        2
176
     1
 40
0.6
176
     1
 40
30.0
176
     1
 62
     7
420
 16777215
176
     1
 90
        1
176
     1
 90
        0
176
     1
 62
     7
176
     1
 62
   257
176
     1
 90
        1
176
     1
 90
        1
176
     1
 40
1.0
176
     1
 90
        0
176
     1
 62
   257
176
     1
 40
1.0
176
     1
 90
        1
176
     1
 90
        6
176
     1
 90
        2
176
     1
 62
     7
176
     1
 90
        5
176
     1
 90
        0
176
     1
 90
        0
176
     1
290
     0
176
     1
 90
       13
176
     1
 40
0.0
176
     1
 90
        0
176
     1
290
     0
176
     1
290
     1
176
     1
290
     1
176
     1
290
     0
176
     1
290
     0
176
     1
290
     0
176
     1
290
     0
176
     1
290
     0
176
     1
290
     0
176
     1
 90
       50
176
     1
 40
0.0
176
     1
 40
1.0
176
     1
 90
        0
176
     1
 62
    18
176
     1
 90
       50
176
     1
 90
        3
176
     1
 62
     5
420
      255
176
     1
290
     0
176
     1
 90
       50
176
     1
 90
       50
176
     1
 90
       50
176
     1
290
     0
176
     1
 90
       50
176
     1
 62
   256
176
     0
 40
1.0
176
     0
 90
        2
176
     1
  1
strokes_ogs.tif
176
     1
290
     0
176
     1
 40
1.0
176
     1
 40
1.0
176
     1
1001
ACAD
1000
AcDbSavedByObjectVersion
1070
     0
  0
VISUALSTYLE
  5
2C
102
{ACAD_REACTORS
330
29
102
}
330
29
100
AcDbVisualStyle
  2

 70
     2
177
     3
291
     1
 70
    58
 90
        2
176
     1
 90
        2
176
     1
 90
        1
176
     1
 90
        2
176
     1
 40
0.6
176
     1
 40
30.0
176
     1
 62
     7
420
 16777215
176
     1
 90
        0
176
     1
 90
        0
176
     1
 62
     7
176
     1
 62
   257
176
     1
 90
        1
176
     1
 90
        1
176
     1
 40
1.0
176
     1
 90
        0
176
     1
 62
     7
176
     1
 40
1.0
176
     1
 90
        1
176
     1
 90
        6
176
     1
 90
        2
176
     1
 62
     7
176
     1
 90
        5
176
     1
 90
        0
176
     1
 90
        0
176
     1
290
     0
176
     1
 90
       13
176
     1
 40
0.0
176
     1
 90
        0
176
     1
290
     0
176
     1
290
     1
176
     1
290
     1
176
     1
290
     0
176
     1
290
     0
176
     1
290
     0
176
     1
290
     0
176
     1
290
     0
176
     1
290
     0
176
     1
 90
       50
176
     1
 40
0.0
176
     1
 40
1.0
176
     1
 90
        0
176
     1
 62
    18
176
     1
 90
       50
176
     1
 90
        3
176
     1
 62
     5
420
      255
176
     1
290
     0
176
     1
 90
       50
176
     1
 90
       50
176
     1
 90
       50
176
     1
290
     0
176
     1
 90
       50
176
     1
 62
   256
176
     0
 40
1.0
176
     0
 90
        2
176
     1
  1
strokes_ogs.tif
176
     1
290
     0
176
     1
 40
1.0
176
     1
 40
1.0
176
     1
1001
ACAD
1000
AcDbSavedByObjectVersion
1070
     0
  0
VISUALSTYLE
  5
2D
102
{ACAD_REACTORS
330
29
102
}
330
29
100
AcDbVisualStyle
  2

 70
     3
177
     3
291
     1
 70
    58
 90
        2
176
     1
 90
        2
176
     1
 90
        1
176
     1
 90
        2
176
     1
 40
0.6
176
     1
 40
30.0
176
     1
 62
     7
420
 16777215
176
     1
 90
        1
176
     1
 90
        0
176
     1
 62
     7
176
     1
 62
   257
176
     1
 90
        1
176
     1
 90
        1
176
     1
 40
1.0
176
     1
 90
        0
176
     1
 62
   257
176
     1
 40
1.0
176
     1
 90
        1
176
     1
 90
        6
176
     1
 90
        2
176
     1
 62
     7
176
     1
 90
        5
176
     1
 90
        0
176
     1
 90
        0
176
     1
290
     0
176
     1
 90
       13
176
     1
 40
0.0
176
     1
 90
        0
176
     1
290
     0
176
     1
290
     1
176
     1
290
     1
176
     1
290
     0
176
     1
290
     0
176
     1
290
     0
176
     1
290
     0
176
     1
290
     0
176
     1
290
     0
176
     1
 90
       50
176
     1
 40
0.0
176
     1
 40
1.0
176
     1
 90
        0
176
     1
 62
    18
176
     1
 90
       50
176
     1
 90
        3
176
     1
 62
     5
420
      255
176
     1
290
     0
176
     1
 90
       50
176
     1
 90
       50
176
     1
 90
       50
176
     1
290
     0
176
     1
 90
       50
176
     1
 62
   256
176
     0
 40
1.0
176
     0
 90
        2
176
     1
  1
strokes_ogs.tif
176
     1
290
     0
176
     1
 40
1.0
176
     1
 40
1.0
176
     1
1001
ACAD
1000
AcDbSavedByObjectVersion
1070
     0
  0
VISUALSTYLE
  5
31
102
{ACAD_REACTORS
330
29
102
}
330
29
100
AcDbVisualStyle
  2

 70
     6
177
     3
291
     0
 70
    58
 90
        1
176
     1
 90
        2
176
     1
 90
        2
176
     1
 90
        0
176
     1
 40
0.6
176
     1
 40
30.0
176
     1
 62
     7
420
 16777215
176
     1
 90
        2
176
     1
 90
        2
176
     1
 62
     7
176
     1
 62
   257
176
     1
 90
        2
176
     1
 90
        1
176
     1
 40
40.0
176
     1
 90
        0
176
     1
 62
   257
176
     1
 40
1.0
176
     1
 90
        1
176
     1
 90
        6
176
     1
 90
        2
176
     1
 62
     7
176
     1
 90
        3
176
     1
 90
        0
176
     1
 90
        0
176
     1
290
     0
176
     1
 90
        1
176
     1
 40
0.0
176
     1
 90
        0
176
     1
290
     0
176
     1
290
     1
176
     1
290
     1
176
     1
290
     0
176
     1
290
     0
176
     1
290
     0
176
     1
290
     0
176
     1
290
     0
176
     1
290
     0
176
     1
 90
       50
176
     1
 40
0.0
176
     1
 40
1.0
176
     1
 90
        0
176
     1
 62
    18
176
     1
 90
       50
176
     1
 90
        3
176
     1
 62
     5
420
      255
176
     1
290
     0
176
     1
 90
       50
176
     1
 90
       50
176
     1
 90
       50
176
     1
290
     0
176
     1
 90
       50
176
     1
 62
   256
176
     0
 40
1.0
176
     0
 90
        2
176
     1
  1
strokes_ogs.tif
176
     1
290
     0
176
     1
 40
1.0
176
     1
 40
1.0
176
     1
1001
ACAD
1000
AcDbSavedByObjectVersion
1070
     0
  0
VISUALSTYLE
  5
3F
102
{ACAD_REACTORS
330
29
102
}
330
29
100
AcDbVisualStyle
  2

 70
    20
177
     3
291
     1
 70
    58
 90
        2
176
     0
 90
        2
176
     0
 90
        0
176
     0
 90
        0
176
     0
 40
0.6
176
     0
 40
30.0
176
     0
 62
     7
420
 16777215
176
     0
 90
        1
176
     0
 90
        4
176
     0
 62
     7
176
     0
 62
   257
176
     0
 90
        1
176
     0
 90
        1
176
     0
 40
1.0
176
     0
 90
       10
176
     2
 62
     7
176
     0
 40
1.0
176
     0
 90
        1
176
     0
 90
        6
176
     0
 90
        2
176
     0
 62
     7
176
     0
 90
        5
176
     0
 90
        0
176
     0
 90
        0
176
     0
290
     0
176
     0
 90
        1
176
     0
 40
0.0
176
     0
 90
        0
176
     0
290
     0
176
     1
290
     1
176
     1
290
     1
176
     1
290
     0
176
     1
290
     0
176
     1
290
     0
176
     1
290
     0
176
     1
290
     0
176
     1
290
     0
176
     1
 90
       50
176
     0
 40
0.0
176
     0
 40
1.0
176
     0
 90
        0
176
     0
 62
    18
176
     0
 90
       50
176
     0
 90
        3
176
     0
 62
     5
420
      255
176
     0
290
     0
176
     1
 90
       50
176
     0
 90
       50
176
     0
 90
       50
176
     0
290
     0
176
     1
 90
       50
176
     0
 62
   256
176
     0
 40
1.0
176
     0
 90
        2
176
     0
  1
strokes_ogs.tif
176
     0
290
     0
176
     1
 40
1.0
176
     0
 40
1.0
176
     0
1001
ACAD
1000
AcDbSavedByObjectVersion
1070
     0
  0
VISUALSTYLE
  5
37
102
{ACAD_REACTORS
330
29
102
}
330
29
100
AcDbVisualStyle
  2

 70
    14
177
     3
291
     1
 70
    58
 90
        2
176
     1
 90
        2
176
     1
 90
        0
176
     1
 90
        0
176
     1
 40
0.6
176
     1
 40
30.0
176
     1
 62
     7
420
 16777215
176
     1
 90
        1
176
     1
 90
        4
176
     1
 62
     7
176
     1
 62
   257
176
     1
 90
        7
176
     1
 90
        7
176
     1
 40
1.0
176
     1
 90
        8
176
     1
 62
     7
176
     1
 40
1.0
176
     1
 90
        1
176
     1
 90
        6
176
     1
 90
        2
176
     1
 62
     7
176
     1
 90
        5
176
     1
 90
        0
176
     1
 90
        0
176
     1
290
     0
176
     1
 90
        1
176
     1
 40
0.0
176
     1
 90
        0
176
     1
290
     0
176
     1
290
     1
176
     1
290
     1
176
     1
290
     0
176
     1
290
     0
176
     1
290
     0
176
     1
290
     0
176
     1
290
     0
176
     1
290
     0
176
     1
 90
       50
176
     1
 40
0.0
176
     1
 40
1.0
176
     1
 90
        0
176
     1
 62
    18
176
     1
 90
       50
176
     1
 90
        3
176
     1
 62
     5
420
      255
176
     1
290
     0
176
     1
 90
       50
176
     1
 90
       50
176
     1
 90
       50
176
     1
290
     0
176
     1
 90
       50
176
     1
 62
   256
176
     0
 40
1.0
176
     0
 90
        2
176
     1
  1
strokes_ogs.tif
176
     1
290
     0
176
     1
 40
1.0
176
     1
 40
1.0
176
     1
1001
ACAD
1000
AcDbSavedByObjectVersion
1070
     0
  0
VISUALSTYLE
  5
40
102
{ACAD_REACTORS
330
29
102
}
330
29
100
AcDbVisualStyle
  2

 70
    21
177
     3
291
     1
 70
    58
 90
        2
176
     0
 90
        2
176
     0
 90
        0
176
     0
 90
        0
176
     0
 40
0.6
176
     0
 40
30.0
176
     0
 62
     7
420
 16777215
176
     0
 90
        1
176
     0
 90
        4
176
     0
 62
     7
176
     0
 62
   257
176
     0
 90
        1
176
     0
 90
        1
176
     0
 40
1.0
176
     0
 90
        9
176
     2
 62
     7
176
     0
 40
1.0
176
     0
 90
        1
176
     0
 90
        6
176
     0
 90
        2
176
     0
 62
     7
176
     0
 90
        5
176
     0
 90
        0
176
     0
 90
        0
176
     0
290
     0
176
     0
 90
        1
176
     0
 40
0.0
176
     0
 90
        0
176
     0
290
     0
176
     1
290
     1
176
     1
290
     1
176
     1
290
     0
176
     1
290
     0
176
     1
290
     0
176
     1
290
     0
176
     1
290
     0
176
     1
290
     0
176
     1
 90
       50
176
     0
 40
0.0
176
     0
 40
1.0
176
     0
 90
        0
176
     0
 62
    18
176
     0
 90
       50
176
     0
 90
        3
176
     0
 62
     5
420
      255
176
     0
290
     0
176
     1
 90
       50
176
     0
 90
       50
176
     0
 90
       50
176
     0
290
     0
176
     1
 90
       50
176
     0
 62
   256
176
     0
 40
1.0
176
     0
 90
        2
176
     0
  1
strokes_ogs.tif
176
     0
290
     0
176
     1
 40
1.0
176
     0
 40
1.0
176
     0
1001
ACAD
1000
AcDbSavedByObjectVersion
1070
     0
  0
VISUALSTYLE
  5
33
102
{ACAD_REACTORS
330
29
102
}
330
29
100
AcDbVisualStyle
  2

 70
     8
177
     3
291
     0
 70
    58
 90
        2
176
     1
 90
        3
176
     1
 90
        0
176
     1
 90
        2
176
     1
 40
0.6
176
     1
 40
30.0
176
     1
 62
     7
420
 16777215
176
     1
 90
        0
176
     1
 90
        0
176
     1
 62
     7
176
     1
 62
   257
176
     1
 90
        1
176
     1
 90
        1
176
     1
 40
1.0
176
     1
 90
        8
176
     1
 62
   257
176
     1
 40
1.0
176
     1
 90
        1
176
     1
 90
        6
176
     1
 90
        2
176
     1
 62
     7
176
     1
 90
        3
176
     1
 90
        0
176
     1
 90
        0
176
     1
290
     0
176
     1
 90
       13
176
     1
 40
0.0
176
     1
 90
        0
176
     1
290
     0
176
     1
290
     1
176
     1
290
     1
176
     1
290
     0
176
     1
290
     0
176
     1
290
     0
176
     1
290
     0
176
     1
290
     0
176
     1
290
     0
176
     1
 90
       50
176
     1
 40
0.0
176
     1
 40
1.0
176
     1
 90
        0
176
     1
 62
    18
176
     1
 90
       50
176
     1
 90
        3
176
     1
 62
     5
420
      255
176
     1
290
     0
176
     1
 90
       50
176
     1
 90
       50
176
     1
 90
       50
176
     1
290
     0
176
     1
 90
       50
176
     1
 62
   256
176
     0
 40
1.0
176
     0
 90
        2
176
     1
  1
strokes_ogs.tif
176
     1
290
     0
176
     1
 40
1.0
176
     1
 40
1.0
176
     1
1001
ACAD
1000
AcDbSavedByObjectVersion
1070
     0
  0
VISUALSTYLE
  5
3E
102
{ACAD_REACTORS
330
29
102
}
330
29
100
AcDbVisualStyle
  2

 70
    27
177
     3
291
     0
 70
    58
 90
        2
176
     1
 90
        2
176
     1
 90
        1
176
     1
 90
        2
176
     1
 40
0.6
176
     1
 40
30.0
176
     1
 62
     7
420
 16777215
176
     1
 90
        0
176
     1
 90
        4
176
     1
 62
     7
176
     1
 62
   257
176
     1
 90
        1
176
     1
 90
        1
176
     1
 40
1.0
176
     1
 90
        8
176
     1
 62
   257
176
     1
 40
1.0
176
     1
 90
        1
176
     1
 90
        6
176
     1
 90
        2
176
     1
 62
     8
420
  7895160
176
     1
 90
        3
176
     1
 90
        0
176
     1
 90
        0
176
     1
290
     0
176
     1
 90
        5
176
     1
 40
0.0
176
     1
 90
        0
176
     1
290
     0
176
     1
290
     1
176
     1
290
     1
176
     1
290
     0
176
     1
290
     0
176
     1
290
     0
176
     1
290
     0
176
     1
290
     0
176
     1
290
     0
176
     1
 90
       50
176
     1
 40
0.0
176
     1
 40
1.0
176
     1
 90
        0
176
     1
 62
    18
176
     1
 90
       50
176
     1
 90
        3
176
     1
 62
     5
420
      255
176
     1
290
     0
176
     1
 90
       50
176
     1
 90
       50
176
     1
 90
       50
176
     1
290
     0
176
     1
 90
       50
176
     1
 62
   256
176
     0
 40
1.0
176
     0
 90
        2
176
     1
  1
strokes_ogs.tif
176
     1
290
     0
176
     1
 40
1.0
176
     1
 40
1.0
176
     1
1001
ACAD
1000
AcDbSavedByObjectVersion
1070
     0
  0
VISUALSTYLE
  5
3D
102
{ACAD_REACTORS
330
29
102
}
330
29
100
AcDbVisualStyle
  2

 70
    26
177
     3
291
     0
 70
    58
 90
        2
176
     1
 90
        2
176
     1
 90
        1
176
     1
 90
        2
176
     1
 40
0.6
176
     1
 40
30.0
176
     1
 62
     7
420
 16777215
176
     1
 90
        1
176
     1
 90
        2
176
     1
 62
     7
176
     1
 62
   257
176
     1
 90
        2
176
     1
 90
        1
176
     1
 40
1.0
176
     1
 90
        8
176
     1
 62
   257
176
     1
 40
1.0
176
     1
 90
        1
176
     1
 90
        6
176
     1
 90
        2
176
     1
 62
     7
176
     1
 90
        3
176
     1
 90
        0
176
     1
 90
        0
176
     1
290
     0
176
     1
 90
        5
176
     1
 40
0.0
176
     1
 90
        0
176
     1
290
     0
176
     1
290
     1
176
     1
290
     1
176
     1
290
     0
176
     1
290
     0
176
     1
290
     0
176
     1
290
     0
176
     1
290
     0
176
     1
290
     0
176
     1
 90
       50
176
     1
 40
0.0
176
     1
 40
1.0
176
     1
 90
        0
176
     1
 62
    18
176
     1
 90
       50
176
     1
 90
        3
176
     1
 62
     5
420
      255
176
     1
290
     0
176
     1
 90
       50
176
     1
 90
       50
176
     1
 90
       50
176
     1
290
     0
176
     1
 90
       50
176
     1
 62
   256
176
     0
 40
1.0
176
     0
 90
        2
176
     1
  1
strokes_ogs.tif
176
     1
290
     0
176
     1
 40
1.0
176
     1
 40
1.0
176
     1
1001
ACAD
1000
AcDbSavedByObjectVersion
1070
     0
  0
VISUALSTYLE
  5
3A
102
{ACAD_REACTORS
330
29
102
}
330
29
100
AcDbVisualStyle
  2

 70
    23
177
     3
291
     0
 70
    58
 90
        2
176
     1
 90
        2
176
     1
 90
        3
176
     1
 90
        0
176
     1
 40
0.6
176
     1
 40
30.0
176
     1
 62
     7
420
 16777215
176
     1
 90
        2
176
     1
 90
        2
176
     1
 62
     7
176
     1
 62
     7
176
     1
 90
        1
176
     1
 90
        1
176
     1
 40
40.0
176
     1
 90
        8
176
     1
 62
     7
176
     1
 40
1.0
176
     1
 90
        1
176
     1
 90
        6
176
     1
 90
        2
176
     1
 62
     7
176
     1
 90
        3
176
     1
 90
        0
176
     1
 90
        0
176
     1
290
     0
176
     1
 90
        1
176
     1
 40
0.0
176
     1
 90
        0
176
     1
290
     0
176
     1
290
     1
176
     1
290
     1
176
     1
290
     0
176
     1
290
     0
176
     1
290
     0
176
     1
290
     0
176
     1
290
     0
176
     1
290
     0
176
     1
 90
       50
176
     1
 40
0.0
176
     1
 40
1.0
176
     1
 90
        0
176
     1
 62
    18
176
     1
 90
       50
176
     1
 90
        3
176
     1
 62
     5
420
      255
176
     1
290
     0
176
     1
 90
       50
176
     1
 90
       50
176
     1
 90
       50
176
     1
290
     0
176
     1
 90
       50
176
     1
 62
   256
176
     0
 40
1.0
176
     0
 90
        2
176
     1
  1
strokes_ogs.tif
176
     1
290
     0
176
     1
 40
1.0
176
     1
 40
1.0
176
     1
1001
ACAD
1000
AcDbSavedByObjectVersion
1070
     0
  0
VISUALSTYLE
  5
3B
102
{ACAD_REACTORS
330
29
102
}
330
29
100
AcDbVisualStyle
  2

 70
    24
177
     3
291
     0
 70
    58
 90
        1
176
     1
 90
        2
176
     1
 90
        2
176
     1
 90
        0
176
     1
 40
0.6
176
     1
 40
30.0
176
     1
 62
     7
420
 16777215
176
     1
 90
        2
176
     1
 90
        2
176
     1
 62
     7
176
     1
 62
     7
176
     1
 90
        1
176
     1
 90
        1
176
     1
 40
40.0
176
     1
 90
       11
176
     1
 62
     7
176
     1
 40
1.0
176
     1
 90
        1
176
     1
 90
        6
176
     1
 90
        2
176
     1
 62
     7
176
     1
 90
        6
176
     1
 90
        0
176
     1
 90
        0
176
     1
290
     0
176
     1
 90
        1
176
     1
 40
0.0
176
     1
 90
        0
176
     1
290
     0
176
     1
290
     1
176
     1
290
     1
176
     1
290
     0
176
     1
290
     0
176
     1
290
     0
176
     1
290
     0
176
     1
290
     0
176
     1
290
     0
176
     1
 90
       50
176
     1
 40
0.0
176
     1
 40
1.0
176
     1
 90
        0
176
     1
 62
    18
176
     1
 90
       50
176
     1
 90
        3
176
     1
 62
     5
420
      255
176
     1
290
     0
176
     1
 90
       50
176
     1
 90
       50
176
     1
 90
       50
176
     1
290
     0
176
     1
 90
       50
176
     1
 62
   256
176
     0
 40
1.0
176
     0
 90
        2
176
     1
  1
strokes_ogs.tif
176
     1
290
     0
176
     1
 40
1.0
176
     1
 40
1.0
176
     1
1001
ACAD
1000
AcDbSavedByObjectVersion
1070
     0
  0
VISUALSTYLE
  5
36
102
{ACAD_REACTORS
330
29
102
}
330
29
100
AcDbVisualStyle
  2

 70
    13
177
     3
291
     1
 70
    58
 90
        2
176
     1
 90
        2
176
     1
 90
        0
176
     1
 90
        0
176
     1
 40
0.6
176
     1
 40
30.0
176
     1
 62
     7
420
 16777215
176
     1
 90
        1
176
     1
 90
        4
176
     1
 62
     7
176
     1
 62
   257
176
     1
 90
        1
176
     1
 90
        1
176
     1
 40
1.0
176
     1
 90
       12
176
     1
 62
     7
176
     1
 40
1.0
176
     1
 90
        1
176
     1
 90
        6
176
     1
 90
        2
176
     1
 62
     7
176
     1
 90
        5
176
     1
 90
        0
176
     1
 90
        0
176
     1
290
     0
176
     1
 90
        1
176
     1
 40
0.0
176
     1
 90
        0
176
     1
290
     0
176
     1
290
     1
176
     1
290
     1
176
     1
290
     0
176
     1
290
     0
176
     1
290
     0
176
     1
290
     0
176
     1
290
     0
176
     1
290
     0
176
     1
 90
       50
176
     1
 40
0.0
176
     1
 40
1.0
176
     1
 90
        0
176
     1
 62
    18
176
     1
 90
       50
176
     1
 90
        3
176
     1
 62
     5
420
      255
176
     1
290
     0
176
     1
 90
       50
176
     1
 90
       50
176
     1
 90
       50
176
     1
290
     0
176
     1
 90
       50
176
     1
 62
   256
176
     0
 40
1.0
176
     0
 90
        2
176
     1
  1
strokes_ogs.tif
176
     1
290
     0
176
     1
 40
1.0
176
     1
 40
1.0
176
     1
1001
ACAD
1000
AcDbSavedByObjectVersion
1070
     0
  0
VISUALSTYLE
  5
30
102
{ACAD_REACTORS
330
29
102
}
330
29
100
AcDbVisualStyle
  2

 70
     5
177
     3
291
     0
 70
    58
 90
        0
176
     1
 90
        2
176
     1
 90
        0
176
     1
 90
        0
176
     1
 40
0.6
176
     1
 40
30.0
176
     1
 62
     7
420
 16777215
176
     1
 90
        1
176
     1
 90
        4
176
     1
 62
     7
176
     1
 62
   257
176
     1
 90
        1
176
     1
 90
        1
176
     1
 40
1.0
176
     1
 90
        0
176
     1
 62
   257
176
     1
 40
1.0
176
     1
 90
        1
176
     1
 90
        6
176
     1
 90
        2
176
     1
 62
     7
176
     1
 90
        3
176
     1
 90
        0
176
     1
 90
        0
176
     1
290
     0
176
     1
 90
        1
176
     1
 40
0.0
176
     1
 90
        0
176
     1
290
     0
176
     1
290
     1
176
     1
290
     1
176
     1
290
     0
176
     1
290
     0
176
     1
290
     0
176
     1
290
     0
176
     1
290
     0
176
     1
290
     0
176
     1
 90
       50
176
     1
 40
0.0
176
     1
 40
1.0
176
     1
 90
        0
176
     1
 62
    18
176
     1
 90
       50
176
     1
 90
        3
176
     1
 62
     5
420
      255
176
     1
290
     0
176
     1
 90
       50
176
     1
 90
       50
176
     1
 90
       50
176
     1
290
     0
176
     1
 90
       50
176
     1
 62
   256
176
     0
 40
1.0
176
     0
 90
        2
176
     1
  1
strokes_ogs.tif
176
     1
290
     0
176
     1
 40
1.0
176
     1
 40
1.0
176
     1
1001
ACAD
1000
AcDbSavedByObjectVersion
1070
     0
  0
VISUALSTYLE
  5
3C
102
{ACAD_REACTORS
330
29
102
}
330
29
100
AcDbVisualStyle
  2

 70
    25
177
     3
291
     0
 70
    58
 90
        2
176
     1
 90
        2
176
     1
 90
        1
176
     1
 90
        1
176
     1
 40
0.5
176
     1
 40
30.0
176
     1
 62
     7
420
 16777215
176
     1
 90
        1
176
     1
 90
        0
176
     1
 62
     7
176
     1
 62
   257
176
     1
 90
        1
176
     1
 90
        1
176
     1
 40
1.0
176
     1
 90
        8
176
     1
 62
     7
176
     1
 40
1.0
176
     1
 90
        1
176
     1
 90
        6
176
     1
 90
        2
176
     1
 62
     7
176
     1
 90
        3
176
     1
 90
        0
176
     1
 90
        0
176
     1
290
     0
176
     1
 90
       13
176
     1
 40
0.0
176
     1
 90
        0
176
     1
290
     0
176
     1
290
     1
176
     1
290
     1
176
     1
290
     0
176
     1
290
     0
176
     1
290
     0
176
     1
290
     0
176
     1
290
     0
176
     1
290
     0
176
     1
 90
       50
176
     1
 40
0.0
176
     1
 40
1.0
176
     1
 90
        0
176
     1
 62
    18
176
     1
 90
       50
176
     1
 90
        3
176
     1
 62
     5
420
      255
176
     1
290
     0
176
     1
 90
       50
176
     1
 90
       50
176
     1
 90
       50
176
     1
290
     0
176
     1
 90
       50
176
     1
 62
   256
176
     0
 40
1.0
176
     0
 90
        2
176
     1
  1
strokes_ogs.tif
176
     1
290
     0
176
     1
 40
1.0
176
     1
 40
1.0
176
     1
1001
ACAD
1000
AcDbSavedByObjectVersion
1070
     0
  0
DICTIONARYVAR
  5
510
102
{ACAD_REACTORS
330
50A
102
}
330
50A
100
DictionaryVariables
280
     0
  1
1:1
  0
DICTIONARYVAR
  5
50C
102
{ACAD_REACTORS
330
50A
102
}
330
50A
100
DictionaryVariables
280
     0
  1
STANDARD
  0
DICTIONARYVAR
  5
50B
102
{ACAD_REACTORS
330
50A
102
}
330
50A
100
DictionaryVariables
280
     0
  1
STANDARD
  0
DICTIONARYVAR
  5
50D
102
{ACAD_REACTORS
330
50A
102
}
330
50A
100
DictionaryVariables
280
     0
  1
Imperial24
  0
DICTIONARYVAR
  5
50E
102
{ACAD_REACTORS
330
50A
102
}
330
50A
100
DictionaryVariables
280
     0
  1
Imperial24
  0
DICTIONARYVAR
  5
512
102
{ACAD_REACTORS
330
50A
102
}
330
50A
100
DictionaryVariables
280
     0
  1
1
  0
DICTIONARYVAR
  5
513
102
{ACAD_REACTORS
330
50A
102
}
330
50A
100
DictionaryVariables
280
     0
  1
15
  0
DICTIONARYVAR
  5
511
102
{ACAD_REACTORS
330
50A
102
}
330
50A
100
DictionaryVariables
280
     0
  1
0
  0
DICTIONARYVAR
  5
50F
102
{ACAD_REACTORS
330
50A
102
}
330
50A
100
DictionaryVariables
280
     0
  1
0
  0
DICTIONARY
  5
135A
102
{ACAD_REACTORS
330
1358
102
}
330
1358
100
AcDbDictionary
281
     1
  0
DICTIONARY
  5
1359
102
{ACAD_REACTORS
330
1358
102
}
330
1358
100
AcDbDictionary
281
     1
  3
1382470644016
350
1353
  3
1382470644032
350
1354
  3
1382470644048
350
1355
  3
1382470644064
350
1356
  3
1382470644080
350
1357
  0
DICTIONARY
  5
135D
330
6A
100
AcDbDictionary
280
     1
281
     1
  3
ACAD_XREC_ROUNDTRIP
360
135E
  0
DICTIONARY
  5
22
330
21
100
AcDbDictionary
280
     1
281
     1
  3
FBXASSET
360
4F1
  0
DICTIONARY
  5
135B
330
68
100
AcDbDictionary
280
     1
281
     1
  3
ACAD_XREC_ROUNDTRIP
360
135C
  0
DICTIONARY
  5
550
330
64
100
AcDbDictionary
280
     1
281
     1
  3
ACAD_ROUNDTRIP_2008_TABLESTYLE_CELLSTYLEMAP
360
1351
  0
XRECORD
  5
1353
102
{ACAD_REACTORS
330
1359
102
}
330
1359
100
AcDbXrecord
280
     1
  1
AcDb_Thumbnail_Schema
102
{ATTRRECORD
341
1354
  2
AcDbDs::TreatedAsObjectData
280
     1
291
     1
102
ATTRRECORD}
102
{ATTRRECORD
341
1355
  2
AcDbDs::Legacy
280
     1
291
     1
102
ATTRRECORD}
  2
AcDbDs::ID
280
    10
 91
        8
102
{ATTRRECORD
341
1356
  2
AcDs:Indexable
280
     1
291
     1
102
ATTRRECORD}
102
{ATTRRECORD
341
1357
  2
AcDbDs::HandleAttribute
280
     7
282
     1
102
ATTRRECORD}
  2
Thumbnail_Data
280
    15
 91
        0
  0
XRECORD
  5
1354
102
{ACAD_REACTORS
330
1359
102
}
330
1359
100
AcDbXrecord
280
     1
  1
AcDbDs::TreatedAsObjectDataSchema
  2
AcDbDs::TreatedAsObjectData
280
     1
 91
        0
  0
XRECORD
  5
1355
102
{ACAD_REACTORS
330
1359
102
}
330
1359
100
AcDbXrecord
280
     1
  1
AcDbDs::LegacySchema
  2
AcDbDs::Legacy
280
     1
 91
        0
  0
XRECORD
  5
1356
102
{ACAD_REACTORS
330
1359
102
}
330
1359
100
AcDbXrecord
280
     1
  1
AcDbDs::IndexedPropertySchema
  2
AcDs:Indexable
280
     1
 91
        0
  0
XRECORD
  5
1357
102
{ACAD_REACTORS
330
1359
102
}
330
1359
100
AcDbXrecord
280
     1
  1
AcDbDs::HandleAttributeSchema
  2
AcDbDs::HandleAttribute
280
     7
 91
        1
284
     1
  0
XRECORD
  5
135E
102
{ACAD_REACTORS
330
135D
102
}
330
135D
100
AcDbXrecord
280
     1
102
DISPLAYNAME
  1
Imperial24
102
FLAGS
 90
        0
  0
XRECORD
  5
4F1
102
{ACAD_REACTORS
330
22
102
}
330
22
100
AcDbXrecord
280
     1
 70
     1
 90
652598616
 71
     1
  1
520087E3-EC01-4384-8A87-2DA3C17389A5
311
504B03041400060808004F5253572432EF2F01010000A80100004F00000035443935303232302D334438342D344332412D423635362D3843343736413134434238392F4173736574446174612F446566696E6974696F6E4974657261746F7250726F706572746965732E62696E8D504D4B0331108D1E140F1E047F8007AF63
311
B2F9D84D0429BB49F1E4457F80A46B6C17D2DDD2ECE2B5477FAEFF4027B45E8482032F33BC7933F3C82721E4FB10589213C40EDF4BCC8FA10FDBAE7D695761EDC95966E2B0F0F1162B239BA26C9484BA900EA4B10C8C66120ADE38E59C11283845DD39C285773FC531AF7CEA521B62F47D18A67485C4E1C6CDDA8F78CBC7BB
311
3C7441484E3B04F96DA4BC69B977944D7E20FCDBE67EE6530AE30355CE28C63903E1B40469790D4DA94AD05656259AB48D36F439A461DAB62151C519D3D55CC0DCB202A4C0195DEB0AB8AB852D2AA14DADE8B89AF2D75C671B8BDE7791327AB0F0BAE997481F89AFD991C61FFAFFBA1F504B03041400060808004F5253577D
311
3AF9BC12010000300200004500000035443935303232302D334438342D344332412D423635362D3843343736413134434238392F4173736574446174612F496E7374616E636550726F706572746965732E62696EEB606060F80F0540260323103700495E20ED9E9A975A94991C9C9C919A9BA8021430353230B0307735D675
311
753630D43531B630D1B570B430D73572713476363437B6B07434654768046931363471713532B5D435353131D635313332D475727372D105AA3670367376B67474B5042A03DBCBA019D37FE8ABC6157B20CD04146B0062181F4C03F940F0C11EA29A8141C08141002C0426541C106CAC2CA046088033B02A030AC2157C6006
311
F21A8018AAF50194E6010A610250382264E08660284CD9E98021862280A91564B406929A0FF62C401E28B6F88038B83CB1243943D7A928312F25350524C30FC460D0E87CC409A80CA49F03E215B0305CBE16220F550DA7E0F245F929A5C925F17989B9A940C90600504B03041400060808004F52535788E57597CD3F000090
311
4100006B00000035443935303232302D334438342D344332412D423635362D3843343736413134434238392F5265736F75726365732F35323030383745332D454330312D343338342D384138372D3244413343313733383941352F7468756D626E61696C2F302F67656E657269635F706E67355B773CD4FF1FBF73E71C0E67
311
EF7576C9DEF3EC995D46C6A1EC5046649CBDF79E192942562825CE965D8A868C2842C8DE9FDFD1F7E7F138F7078FCF6B3F5FCFD7EBFDFEC41B196891913091804020321D6D7513FC77D8C5070EC3FFEE51B21F068154CC75D455CC028A3EA68992803810109FDDE5D5CEC5521B28A1B422BF80741695D5B529DA1C2D058AD2
311
388BDA9F476F7C2CADC939304173DBF48A452BF8A700C0C70C3D121C1AA15A5270C22E2B9E28763651F7DA0D12CE11077B2ECD0D560B5E3DE2368B1E65C5E1C87384A4CC5F2D9FB8BE39E9B77C753783A37998F5CEF1B4FEE553463245C9712270880DF339E0B882A6BA713D865F6F384C842D440934EF264F4A304F8DE4EE
311
FA1E2BF5E2D91F5ADD9613D6E31DDB33ED31DB1D7916CAF091286EA3D31B9CFECB78BB0060245B943C4C040119FF780A74DD308BA9D028678674EB5504ECF284EE814DAED07440BAF649BE4B55DA2890F4D73E2D489A59EE54FDB0A85B59F2F52C4858A02705C4815A792B0C4A996A2023ECB195073E115E3E3647F64243A8
311
338F2000BCB58DA5692C7E7C3D413F963FEDF3CF00FBB0F831A9D51360FECA43819F527B89FA260EB63C5DA676830AA3626A3693B23F1A17A0DFFCE3EE164E31B5365EDF0C89EF64D8E38AB0BA9A1117D7C3A0EC44F44F4023095E80BA610DE336D0F99593A88BFC5306E72DF98F7FD132ED95878DF2964EA7E43071359FD8
311
3B2BDF9C6B5BDF768F0F3C0FC351199526F53D9460A34511F75D1B63E488178569472C91A94497807A3FD4A390C6558F26D416365C3656DE6E769DA9D8FC73774E1709812842DD8EF96AED1960F79D21B395CDDFE6F92CB4EB962A4668C76990E2EF29798C8941D67DA50F4A5F947872460F1F6FDB794E8A29FD7AC0C0D6E0
311
714339CE258FB17AE8535221E3464A10F29A0BE5EEECEFC5675926A89F49EB14E5711894F6586DB5754EB4D5DA9C6437EBA57DB97A24F8B8A8DB295FFD73266CF57E82694DF5166DDF93573AFE9C9C5EB05F8FEF8E89E0A8917B0B3724DB7BEBB53252581EFC3E38166BA131A3A5B42FE2AD00A769BBFA4458D2DE7822F8C4
311
F63D0B8E21B285AE13325F3410A435C648C9D91FDEB109E73CEDA7BC796961AF79175E1A3CE4C5E8B0D009B0C9E29EFD98BC8E97554E3D8D838424E270F7685226E5AC268E021EDE3522D583E8F20C0BDE2959EF5BBFEEDAB32FE9A3ED0E39F211A86AA9DEBFC68182EDED132AB8BB794442D2D7EA9F4D8BFF52BC4D55BB16
311
5124EE90A42D101E67BBBB292FFB4F66DE5BF2300E44546757DA7CEF8932BFC9F92A0707953491A55C5A5ACEDABD9FA1AEA01BAC3DC5A24E22E7C47213493996EFBC369D086ED9397C9BA6C7F9855C7BD5E15BFC8C53DB3D2A4C5901A57ACD2FBDF4D1676E95338B2C2BCE65FDA4C64F5FEFDC7D9CA5AA1FCF11E193F2FDAB
311
F0F4916BF13FB916A224380E6462A9815F2300DC49CC4DF8D055CEF76462F4B7A7ACA7365C2707891370BC1D0AA6203C44CCAB47084FEC057F27FFCD57F89B8B9852459798A675C66BD7CE572CAF71FF7E6D7ECF7BF62CAB7B3F1107DCD04DC55A3F9961700286141C94A4F771FEB2BCDA2DDEE0CB0BAE402FF1DB0100F8E4
311
75DFFFC074DDB4498AB7D186A7654DDB1CB680D703D47CEB4E72F8CB13D86A4AA68116E26387B93FD6738779B34FEDB8E517EDF2BAF28D9BE93A1D3A164320E07D42E514725C29515FF361754213EDE06B079A2E99EB1CA82A02019EADEEB87B9AF005BD04BBCECB14AACD6B24EFBE482194A97DD32400685FF1FEF1544D1B
311
14EFB1E7F08E6D2CD2AF52DE757F35F5E62332EE88EA26417AD5C3E0E319D68F25414E6D672BD4522B278C57D18F0113921C71D96527E091F00CEB15AE23D24667369BD3CEFA10C7549D930890BA4366F4EBC55F01F746109F98ABCDD5A3EE06619C6AD78AB33E48E4C9BD21BF7478B385EC05C4F8987E2C1BFA0A60EBEDAA
311
0AE0B015C2720ECE180FB6F2DEFBEB822D96338C9B63822183BBF52FB664A7AE57003AABCE512BF77E7E31BDA2E739AC4C131657DDFE5225E900FB56CC01CDE808FA4A9C9DA16AC679656BB64796283D89812B8F91136AE18EE5EBBAF47A73BE3C153EB5D4CD491B4BFB4FE690A4CF9ABA08C0D8AA64220C438C96EA6CA80B
311
58FE5761E697B3A292EB9FBDA502FA863E49FE694ADDFFF9D62C520BDD1A22014147A0903A05B9B729F54272EF83931FEEC057BFF8C8055C279EAC5C0011804828734024F6CFA319C9CC6867C727184465CD9BB7ED386AFFD96B294A85E3802FAE47244602D8273615952B98C4F23F7EAE4463D9D638EEE374A20959E0FE51
311
9C4CFB0FBFE5DD80C2AA3F9DB961D1BDE57E67C9BB47B77FDD74EE3094F5DBBE3EBC1FBDB7393F5116263009E2EFE1AF9A221B2AE234C902BF70E9F280ED23E73908361565964333A3F01D0B006AF32FB21AA1316744B489D5A198E85299241735BE559675130955C902A8ED761FC0DBE337A9F91919AF5CE32AF902ADF9AB
311
2615E00E8A94586BA1A90839B61832FF1BFB76D2EFADE6DB1BA04CCAD3DA649E7E2A0219F592E22F2AD54847EEA8E42271011E9074F8F3DD9FBA6CDF88FFC9FC7E811AD1CA8F4557CE4AFC7BBEDCF0114A48689F20A584520C74DA8127124B767E2FB91A6B186246727BE63C9445BAE02088D58B8EFDC0F1072407CD9B89A1
311
3F6303B4A928F593AD489B58E6869325790ADC406036C591729FE14021F94B7796BB11848D463536A092A26F077F94639F7CEEE2A724C66EC885F4A24F8B8A0AC321F8FD149BA529460FAA34E4663C02D41FDF80BCA222D42F0ABFF8490F4FA74C673807C2051D8E467B47B616072860069A9A303ABA9B319D58404461401B
311
0A0F9BE5E1E151C14BC33B32ABE03DDE91708DFAEB15E7C0D593C86BB7D7EC17BE56E57975F077BFD5525F3A1A361D584A75E08CF29FC7B44B2B3085014F3A5A14517377C3F6B8F37E59514C3B12F8AACDEDDA4DFC49BE5710101534CD6FB6DE15B50F11A09472AABA727F0C49D9CB906B158030065F48EB3625E010CEC1D5
311
11D0053474B11E6A4F01C0D6EF1BED3A944FDEC70E0DDCDC756C86545910E0DAE3BE3AA9A404574C2995CD5CAF9549226BC94B4F4F0F5F9086F418F6B32346464610D8BC7391D3C3A3CCF04CFC1FB2A3A3170E369511868F14EEA4E5E438CC73DB1F3248AA94B6B2FF33B222FF3D1E7BF146CAD229770158063BCE4F539196
311
4DF62F7E52A7BE0EEA829C9E13C4C147D6F93FE59E111DAB5E4594D6F3CD1AD375EE039930EFE5AF2BB2D41C83C7DABD8C659BAFBE8FAB392CA634F3D15C1D945DB4588D2B0824A4EC928AAC565557CA2F0DAA588CA5BE30B3A8004F7BF005E96CBF891D7F18112A3619FDF530DC8AA64954258E1811789B5189B49B4EB53F
311
5F89F7D37523894F3EB57B373763C91E502F52CC99EB7BDDF933FC324C4FFC2561DFFA7339FAFDD0A4BFBE6D3A8FF9ED1FC49898139864602458968913181918F719CCF5A68B2EE9C1FF050E34E63107003B8120FA982C21B30A874E4F5E4B38D5A8290C4B8D9BE48A0BE31EA995BDC37AC6DE90BA17D259DEF53605D55922
311
FEB1855D915B659FBEB350EE0DFB2F9F766E1C84CC8964B75D08667445EAB966015F63A18A9E0A325C1B3DC628C0D3CB60F767FA93CC65F25458BD23C3B312716E5F40E5858AC06EBA9AB14F95DB99147B832069201541D09A0D856E12C629CF32683760EE855537D1901988D5EBC156676C7DD51D7207CF3267AF1D76C2AD
311
867315E44618015313A98B19941C696FED3461CAA9B5415F918556D7802EDACEFD6B2E45853A9735DFC9DBF7E440F9319F8B6805A973BCCDC76C069A9144E51F187EDCC12FC31B5DEAAF0A76137199B106EC84ADA6B6EE697D4E6A96E007417F4E880E8B1E89B4BCE9D81EF611E2ED8F0C1A6C25F620FAFAAB656A7C42D464
311
880E8AFAB0E0FC8EA38CA9A8AEEAEE3E4648BA4680270A89743CDD3E6C6CBF34B7B640EFA285ABC7EA0A1E28F3CC963D114A80123EE66D0AF7D5380EB41909B605AB4765B709B808590458157E69BA1378FEC4B48CAF6A730E3BE3C5EF2DD1A5EAF94B1DDE50CEB55DDFD7EE9A16747FA4B223359FB1FCC69E1194892BABB9
311
3A1D5C4E807AC0EA2E30180811E77A2291F6E7F7FAA5E0F60215BC6024E48DE436C511F0628B8CA189982D4D83CCA17D305A7E923C37941CFDFDCD93ACAF735EF5F0E61BBD3E6C41A59B242790D3A3BAC7064DCD89AA2E37214EC839820949D5CAA31E240D2948E48F690298974A96BA9A8432BC90F5071D6537C9666EA456
311
4796B7AFFFA548077BEEA75F63083435074BA182F3699557397F71548383FDA8CA34D99B981E72835ECDA5DDDC151315173D05A21F651AAF8524E88209E2E7A737ED1045800CE3390050BCFB8BE588DF111617874C62575039CA588EEFDEFEFE319B739DE2EDC147092A262611E159650E787917885EF08F1F51B8F2D8A71D
311
60B58B190FEF9541A1BE94BC19FEA50784DA1419FE4B0FB51B8D36B5FF8E1286FD8AF42B91E59A5F1CC4D60174E764045FD8C57B18209B217F89A62252BD20BE0E63E12B8E8F029FE19E0E8D0870F58721A557082250D5424F7909369376E41666C0EE77CD87CB283F661D5FB6D0DA023CB67320A20DC7BE661E9E1BFE5463
311
085C557DA1FF9BE835733766C3D139F2CF9E2208873AD0EB4814DE9E6BF2CAF81614D4D43906ED1C05A3265CABBFE192770FC2F64F940CB6B17B5F166F133C9AEEAD2641807C3E69515171DD74C4A85311513D6EC9530B3B601B6BA3EBFF3B5C3D2F7D69765141E345F75433953D013ADDF8F6AA7DC3F4A7563FE5C7D36793
311
7E2900D7EAD0F9FC9A4A1A9B5BDF1FEF08532660C01C5D6DE22199AA774383E306DAB87E301ABB7D213887F9869D4942D0D71E94B27EDF216A318BD488D45DF84529EF575AF3C3938C0AAA0215B01994153E2054A0B894DA5C784980633AAD48576957CF4AEAEAFADC7C587368551C73DBE1E57C58AC713303A8BFC258BD04
311
B51724459FF9E24C03A81E0E0679CEB9B348C0DC998FEB9C6D6EFA77D247CC8F92D3848599ED89A23218D0636465AD1CEEB7DC140D7426F83491C4E8E8281C2FB35240918FFECE880CA2A42D70E8B20B34DF5221C7DB0CF90ECCB9C745B37A47E9B716FF7A97B7A252C1F3814DC7B1E1A7F72B8751D524EF7CAE45B0C73B3B
311
E7D08ED39781B380DDFC9AA4A4749C9493DB5BAD07A6EA6C092FBD0E85DB004DF06B8C9D3089C5320187E4CE1846158C7EA7DDAE8AD9AFFF21AA3A1026BB06A259845E8232DEE62811A4DA9CEAB3A4887320B76E2AE5615EAB7BDF738CBDD01F1E64064BC13D9EC53576751CA8CACD58B3CEB0E6CA585BD089B2A59B9FC101
311
403387AADBDBE70586B93D64BF3AD4453EF9C3B6A93817E8346991798601344F79A83C51F3D50F7BF2683A3605F51A72449489E0EE6169C749C60B1035651103AEE24D24E51A759C840DD3FC6504DA6FE107510E447B43461C79D22970B75DE5E1BD3007D1AFC619A4A4A69B5626AF5E9B8374E20677F77E2F8E73DF868E8B
311
EC7EBA7B6A75EEF7205E1AB9486CB642741D6E03FF13FCCEDB1C4AC129886268B01CDF4B124AF797CF784F3C6DEC97A17D4B558070A0F1C04DA4FF9BDBF34159AEFE958479824B3F58EBD1E19088A2AFDE501B6F2052368A3FD0E650A179EFAB1561E1D27527077136E652676C3670F42DCB3352F48F6BC86D2C3B0051727E
311
41A0A4DC6CE2BE9D47F5CAA2935A3C0539AF080665997194ABECD723B08129CC5B6B21D2E7D54CD4D12610E7E9FB8306771A89576C7A982002775ED44F3F744CF21EEBB27A631671D921938AAEE3EB0D19CD1E083727F607823E817BF599DCED5394E37EEBC2E88782E638920CA641EF74D4CDFCDEF06F4278ECB18E31E7E9
311
876F2D783C8BF429C75395F57E98C2B495A3DA077EB3AC3C158608B6B57FE3EA48484D9A480096FCEE0DE880950E7E5A5714131C5C41AAA29FD19AE81AC145FA1B9E85C7169A5AB837B213493DF7E9AA4B5FBF9CDEB36EBD21EF1181B7CF7366AB2A951D01E37AF4EB835D1BE8C117CFBE7625D2EBCDB0B20C5A4B45CED0BC
311
DE3EE8DA9DA78C2E21DEAAFFD1197E463C33CC6A80FB785669B856EFF7A8CCCA2841B5A5369173320B1170C368B2748D81062EA0296E5E2D95D7667A4A46D98A6FF475C76AAB0A8C8D45E226FAFC9FE0133EA9F60111F99CA81ACE03A1D14C89E8B0D69079C91464FA1D99E651D0EAF606F345C42A8A1AA9BA391031582B96
311
D5B4176A77AADB01F12FD298A75DEEBB2C82F0B8650E880722F8DDD90C56A7A058E5FDEF1AC93545BA27367C76F5D8F9690CB6F8DAE141EDD7971F0FB548A2AE435F224D6E5954CA155512F7332029D5A1230854B79F258EC5FFDB09F5F6343A8EB193229B7F7E79B3E48F8E183860B38C8269D1B53738FF1E0BACF6AADA6D
311
4869E9DE708E79B5DADCC09B1BC76F649731CFAF59A83FD8BAE4C749D66FA87A3810D4D62FFE826FA400C0F325D2BC0F3CA35F5847B82A2ACC7961745C823E4D863D54460AF792CE6F79B5C7A33B25C3AEA6CDE15A919B6367D781E9D44F61BF828672594A3E1D9EDD6DF179A81F27EAC05B936575D73E05C209DDD2115CFB
311
705DF9BBF3C911589B3640735E9E618FC9C36A7326C82B2205E244C55D56FDB9D5DC93CE958D4BF8174D2B3DA54CB3C09F2C2A6DFF73D23B2197355761AD421EC581284A7EF8DE2CE3497C0C804D49B41DFD6A7360844E5BEFFB495CFCDB97A4595911CDBA623274CE852B5E278AF0BEB1770E9D37CD977B2766A7DED0E94B
311
840E1E95E8C77DE5CB6354AF7871427C28ADBEEF7BA0A28E19DE9ACD75F379FE373EAE6DDDAE3834692F9C2B03B4FCA8FCA9ABE8EEEBEBB725B88A7C90941E850682CA04061A7DF0CE82ED49BFAFFD42C309818FAE14755CAAE78B0F73243ECCCAD7DF58FCB9CDFAE7A4D3E6671A613639130D056C8383C8F4FCF4808C331E
311
544DD26E4755D09EA05253B3049A1E32587CC25D72E073E2CD96D04A71BBCB0038FEC3F53D254199C3CDC67CD66640269431860225392B2CB3ECD0B4498AAE78BA1994246AE1EE78F2EDFB79F6C6CB6B5E279C4D373FBC21CB2698C9ACBBEB6A4BB6B39E16AB0E421CCBFC7654D81ED86022F9BB522146F9F4772E2D0E4FA7
311
0120C95A85A417BF5078B232F4754363EB1750B2AC2148EB46B1EA72AD9B4D23ADCBC589D70106C3EC2ABEEED84DFE28E718C6C83502C28E9FDD3B09DA0A6F6F7B72B706A31C9E2A331EE70DA56A083D2177BFD63C55B11D8D949FAFCF90B23A1E24B9B5018B9A17E99F2890EC302F330FE7936E2C23F0D237EC8916F5166A
311
B84B62A21BB0B950146962D754F92CC2C8877BED8FC7B7B25726DD19545392570B3A2C66B58F027BEF412E552D12A588C4A3CC5C3193FCB3485EFFF700D0B9EEC077754A33DC1FB9E25AF814628F91DDFECB667D3F7690803F38D13F8AE39353523BB08FC6760144AFA2CE28236F65EDBB3D5F59A57D612B99E3D7E5F8A851
311
666BF9B5A6658EFC96EEB37A378ABB0EB3FDDF1303AF32C41BD1C8560745D7BD81066B0D6313359CF488563D3BA3F8E2185D1FAA3EBA1397C9D0E3DD232180A4DCADB6AF25DB3AC3CC26589C8239E66E81547BC7E2F328F9884764CA37EB5DBE390DFC03A5246B456A7C3684C4377D0EEF9A350680FA9A077E8B2957B489E0
311
9AB1AD41316944C2254B5984830F691C93CAA767EECF976FA5647538830B5E63236A6F0365C1E0F3E327F24FE35EDDBD7360B0F7374837409F7A6311BECC12B7026D4FA1AE204FA3F5FE904B1F420C7A9044AE58E403E7C4848E7DA25DC9EDAC79DD756FAA26B9EA83ACE8A214A2612A22AFA19DAE7DBAC5F8CDE1292A485F
311
98DAC731A29FE01A3966E96BCB9FB5A4C8830E1B9AF0C54B87FBE221A097036E5D28D1F869F810C06A9BB0AC0612F69AEBAF893C6E7AD59460208BAB3A6B09CA4F6BDDAB8CF0D1F84B72487498395A70DCD754796E271099A567A55CF242BBED64696378BB6CF25EF0FCDB589F3A82F1116D010A9AB9FA4358809EE0C973A2
311
B4229BAA876A70B03AB49CBA7FBE71DB1832FFD32F9BF2C8E98075CACAFB36921235D0F552B6A67E94E094097A5D7DF681B40623DA535ADA7A9AD8E9A62407D7C9A5AE51D62A17A83A23728DE86BB56115804D3F2675F2C6B87541A0FC497BF0CA86420F558C9859EBE9FAD62747E323E3AADC03FDCDDFE7407B09DA90B44E
311
3185723C5381EAEF589765E2F7A099BA46695BAD60CEF3491B8A171F5F56444F7CE9455312C3498C74173AEA0214EC029833B34B650CBB5A5508D5091665309642791708ECF27CF11DB3D797D6CFE474453BD4BFADB768094B2147814D81C7CBAF8228DCAF5564B5891F5EF6A860EB2E323CB82AB868D8EA048880D63B0DE5
311
341F1B3D53297B928A11E15F25E5148990F710747C3509ED14909C552EBE3973246FCE55D00564D8310BC3EBC5085D08D806799B77D6C57FDF5E55837F9E934F09C03C729271B64F12D0A9F9E938107CAF7BF1EC8CF1BB9B42363D33070F4CACB425E605DDB0A34A12BB936DE286B9887A4E2E558F0886498BFF49C311D96C
311
277CF6A9FC0D75AD0ECC5226D7E0E3572012E56D7FDE4410CEC7A6D0F997F225A2055B8B92E3956E875AE4993CB3D4C9063AF98FD45E1BAB165640A43439A2C9181A7C355B297C0A0CCFFAE19B6FA3C2BA238A885FBC98B8F6DAF4B94B97304878DF4D8BFF6A4AEDF79E90ED4E68F00CD7299F4E0D83E35601AF0CBEF18C1E
311
870E74758FA91F5131075004DB3CFCF09AE1DABC11957FD9808C92E8A678CE9DBE40DDA0E0D1D505AAFBCBA208232BFB6FB3704E8985E61ADE53DE74152F5C7DE74B1DEDCD37DC3E8FB30D7EBA8B9EFFC3606BF90B8D438279CB7709FC7C00D327F41817EEA71CD9E49FE9C8C9A81C70915D9F0F15958EC5AA4C3BBFAF4698
311
6B90F188BDB24B89DE3C6F29EC3E6F66D84856EE96A35E657CA41B41EFD8DBFA16AD6E91439EA92B40B21C053249F51AE50EB0B24C770FFAF40DF12C8436366819C48E36547D4E7B72FE2BBF10828583057814A668BDF183F6B2E58DFB151103E56303E63D00F39C27C4661605DB644D19175D02E3F0241E8FC3458D17AAAA
311
DB117CE9EEA690D0DB01E634878C04C2C9310B69FCAB831151E3AD293BEF6E46B0ABCECB50F5939B39C613D41E81FAE8D34CAE3C4566B761D37185FE864AC32FCB71AEF39DAA5BAB88609BB980CD2F07A8F941653B529567726E2B2A58D079DD57E1E5E31426CF184A04D7B03B985F276D47406AF276FE32E3328BA866EB1F
311
D39BEF57863A317634AA5FE467409B3873F5069EF0D71AF00AD189D17BA1974ECDB2D623E9E14086386A6AAB5807825C37B015BFE892AFD154920EC437EB945D958E18622E1E0FE2FA06557CE4BB9BBD05A2D40E774DA2B65473791E314B7D6C886820B2FCFE4AA272B3B8B15E7344A145E8AF919B5454D89D36D413E87211
311
186BF6F645E5EC94DCCE8E1C799022E4EC9BC86D7A0F2AFB1FC4B2CE48F84B3F49ECE65BAD24CADCC07EFF39AB06BE9E6B27A059938EA7208838455383DDBCFCD967DDE4650EF92A14FF933C975DB20BD7FEEBC4487576485963D757D16340D9599FEB362F775F38CA4185A86F74B629C81B133644A3B18FD056E997E0734F
311
9BE26D11C0AAFC669E2AC9FC41D281F8B2E1C35AE27BCE05F3DA295488096688719D974DF1B5D182DB7792288697F8763CFB43562C1CDEE11C4AABD5C22B6E33F6F389CFC3477C5919DC0D533F8A7A1846B7ADB60ABDC26C43D0CFC8910B7C15EE22675BD02702ED39DB77A87A192CA7A543E6205B979B9F5A6B512A3CA799
311
E198B2D5797C0AF8D1D872CA455D4D431A7879D4DD76110B5FF7F4176B54477A9EB5E4A5D11214FDA585F0382751D8E2582BA5D2075053298FEB8F1537304E32CB22C2E2B693DC0A760B1DFCA751BDC445AFDCBB12820ED85F6D5298933C7EF1211E9E057684056CDA3FEF3BB6052355E162DF27C59E965A8DDB7F9437EB72
311
CDDA3A090DE65A5B2F50326247B7EC67B73ACC7047FC9B353D6EE990F772207C6EC52B39DC2F3C0754821DAB559F7C1809C7D0DD5B0499D0442E0A6E391B3D5DB46D11E731E6794EC77523FBDAA242ED67F9FA1FB684255671F63C9BCFE6E7E896D51001A6113EF2298BA494E0B0980D1FA5B9D60796554C02256B1E0345FB
311
7C6186B6A19D2DCA270416262845FA4F42DB5D9B0A0B6F07FCA2E56C242522E001E0CEB734AF310FC8BFB57E38E03AACE93B3326A2197891E68452B26A6307FDABFEE0223D3C03C3C73D2D5BC054C8311F12004CAE488E5C29287F8156A2CAA4AD0D7BE6B97264E4139F437CE73ADF52E5134C52B819777C18B323A5924E4F
311
67AFD13B1CDC3A61793A79FAF5C0CEB718E441071E797C6DCCB9EFCF7E4A1E9F3DF3C2F9C9E8294E9586868788C972857FB0556D7A26941A7EEB9B580AD78EC40B85DC906B4120A563CA3B87797ED612D3B035962BB75F6515A393F4CB057F564CDF54F2E5A024514E6A1F901DB80C7E70B1FC05E356A7E72FABF4775B3E3F
311
B8F70A2A8E7B6A94542BB304157978CCC999E707A29CC795E67A59CC546A5D47B368954CA7B6E75EC9E1F6FC73CE3B4F71F8CB1A6B15923D61EAAEB14626AAA9D04A26EB9C66CD1BE86CA31A5D8703DE04CD1EBCE4F5CCB62F93909AD11E55799A781A956ED27D3E738F4538CB04ADABC7DAEF20BC35BA6A90BCC1DC61BA05
311
F20D8832FFB9BC9B15E2DB838A0AFBB7E0C82A562127E0446894F427794C3037186F622BF24DE1B00AA10A23BFA47B2A180D6DA5AD6F7326FEB8C100C2D7142EB2A0B2A9D1008A09BA343D70E054AB69E2A7EDB783CBD92537FAF4A44D1296AC2792729104B3276C276C951D0CF3CF3F1E6B017720A7B8505A5FF958936597
311
9678C36F1BAF759EAF57C60F1FF5FE9DCF5F8E764FF25A2D06CF25117A8FED51884C13B2B750DB0E4F5E3D64124FCF11F0AD8F1CC3B3DA4B38ED22BF1CB2585EE6BFEBBA63FBFD44F9537B9B37BDD6B358720F98A8125AED4349CCFEB0E135F19E208A04CA7E2B10711185D72E381F448036EF57C9F874E54A971CA37A639E
311
986AC0226DC5AA00D5B14FEA9192234B3DE617814FC221C92F33F1D392F297731B567FD98FD91D989379AF567A65B8ADF177591DB90FBEA99BF4ED11B16E50A0AB1DBF1156D034BBE04D69D08F939D8E92BF525A1DDAFF80ECBC95D8F45D3FDD289FD23F7D8B452F8EBB34EC082DEEE68E18EDDF072060FAD2AB1504DD4879
311
BF67099FC58F6E9DEFBF645D16334A3E9A127C6F1AF6132CF287E433B43A0EE93812B4AA0B194E03EE3FF91EF9C6ED0074A2F6EB18A96A7C9890B1FCDA1F2095E944DB911ED54C60DF16FB74C8CE9BDC7C54C4F14078CF73C2FFF1F1BBCCD7CF64F71407EA1683DBC410D226627F66E509060D5C0AFD611DE681D509DB8DD1
311
2FB1265B03C6F5C55FF4C30BD94187FF692B4F152982502F193098A789526A038AB529A52BC0DC4FB6285CBAC10A8B8DB75DCD9BDABBB221E27D1F8DA9F5EE5926A1C8AA9BA9BC09239C6A7F12914EA3B59EFF7AAEC3FFCCE56F1C5C2980AD072793527565E774F4631DB178CEEC691B1F367BEA0CF2907E1D6B854D527065
311
979DDEF002D8B2ACEA7CE21AE297737EDE1D45B31233B73FEA35BCFDD0B09721FDBAF6432681F2FD10C3E9EFB246FD6E854B344ACC9D8A0EEF876A7314B49B6A499FC650B099D650DBFEC7638ADFD245E2B7839DA5AC5F7D5623FC0ECEEC8653FC9B2BDD1AD4D00A566FBA7186DD3C9CD26512551637498CADB950FEC71ADB
311
9A5524285DE328B8EC7EC75D2345AEC6A27C42AF6D9B92155315C80DBFCABBB7DA0FAE425C4FB896B15C9BFAC4FE67DF5A23D30C93DA4D8F36FB15D100050DA6062E22AEC5F4DAC4F6FEEF97AE05DE63C6D38F9E068A20BC5E3B6BCD75320C5090924E7F93640A7735B1A43451C2D91EE62C6238B797349E59890AF3A520DF
311
4A87095F3ABEC2E61F0593416CE46CDCBE0E00E2523FCCD04408588B5B6C9DB6459C786CE378770B54F51DA3A5E1DF2A3349BEAAC234A6CF8993B598B3B25B4B113E353A4D750FA7534749430F3EBF2512E7EA3FD43C6AB9A1F765A58463B306721A15D224FAFE8C6F5E3432D57EE697DA0DD5A9D4866A8BCCAAA9DFF1F060
311
47851408FEC060471D0E3EB86BFAF46E4B5E60311DC3E3CEA147C75CF971BE74689507154FF2D2E92F15CDB2B9182B11459FD8ACAC5A85F174BC94A7F4EE4C4F5CAFA7C02E37BF0BC77B7DCD0C047BC316F562A01A441AFA7931CC84A28CB9F4AA367EB515778F29BFE61195FA671F4352E5E46E3A64773F1F76EE5EB36D7B
311
CE9BCEAD837A4D77F8DB8C92AEEF6711920D7C7D0F76B0FD0EB7AB83724CD35BCA7D36DDDF5FBB7FF6F04A91F3E2BB3B8F1A43CD659639507FF6331C5F697BCC782AE57D757A27D97F1AB9E0AEDB43F92F1B2AACDF5FEC8ADBAF9F814E2027003BA2F9E144B1938A7A04050AE5D953B82C45619165C813A10E76DD6906B3C1
311
6438064D14CDA713AEC420034613E1AC7241904A49FBF87409AFB1FCB9B72FE7933A87D8FBEDACECE4EDCF6A4FE9FB94D5DEB74FAB7CFEAE17EE965DF980DCCA2D04134994F9A2E94D2265DA4FE6AA7B7AC15FACAC2B5ABBCD7DFF542C5314FDAB2E1B9D8B65220B8E2B638BE008E8DCA22678C820C5053664D15E89F2D735
311
B51A84955E81A443545E9FF787BE0FA700A76D136C27DA179A7C6E8939E01BE756E19CB292798063D8B97F44E8A27BCF3A614FEB8BE974A718E86F7EC99B53CA35FA24F61F2B07266684623A3D4CF073E511F3A10A8FDAFAF0078C577F4DF9D339FE7862E5FA47CF4344209E5BF76D783B1B48E152AD281B15FCB934DCDA49
311
CEC5706B1EE8B460F435324A5CAD154725E21AB8044B75A557A79F6C807B9340AA3D92503E866F4274412926C8C504E4D5EF8C0E68DD0B028781A6B4054F11CF18941F101C57CCC796773ABC8DED9CD91FE5788806C05E548895354AEAC96546D55B0E94A59F148D061F42AA398D822CDECA4CDE79E13469BDCC44FDC990F3
311
66BA5978C15F97ED80CBFD73B0CD9B8B83A4F6845BDFBFAF034019473FB9A63BD55D3A4A7284757071574029A4D016DCCBE95DD679EF3C4880BF169422F8C89B68A988D2B13793CAED4F74DE7486C72DC94DF46B8E93D8E02EFCB1FF9B3BA10C8AE7F653DF94F4AF466CDDCEF5776687F7C4C14B63E4EED1719DC2EC482D7D
311
BCC7AE518CDE3D5FF86D39000EC3673C0044E1D308BF05F74D1B5F033A7D1BE7F74BC55BBE3E4A20F920946CA0271EB17BD2B80E5660ACB8A29A79F5E4BBA49D4D945B6EEF4A7EFEAA65E5555BBB57A7E15D2F83C69F30BBB978D2B39F1F26FC097424D39BB33CA3D87ABF64E307938B685BAD44F71556A30B7E712CA4FE60
311
0613C3E554B69ADE949A7CFE214DF1FFF05CB82151EC6FC31950239F94CF7AD39DC473F6EA356E5EC2C4EFA04383CEFE985A127484366FBEE3C0EC4FEA363E4F6632AE781392FD45D67B63FB8DF70E82734F431FD3443172A0E30A83D60982D55FA6A2CF86DBA8382502ACC6CDEF3B907982EED1160E14863FA242F9757347
311
E1544275CCDCF71ECD5F8621CBEA326B8BA884AD7F825781923E66971F04010D574C541D8427A438A37EEF8AF88240EED7362C953F5A81DE2D56109CDE2524EA0F5D2F87308C0C47BD97AD605878AB8589E17CA83930CB5E0DCCD75853D68B1AB136594926DE426C367428E9334AFAFF90ECE221BB5DC9E5BB53D2CDEF954E
311
AA9CD814F0E5725F1965DD458E5F8487683AD86B9D0076BE3EE91EB1CECC5331A67A3F79D8B27587C12EC2A6A70474749F27B4C0BBAFB94B34189E88DC18964BE4121B9137FD516C7755356E50D6714E31ACD222621EBBCD1CFF81D87479056A9DA0E0B8EA19D24CF937DA89F78E8650CCBDC110AAB6C4E46DCBFD0446BA9E
311
2060E81F314AC2031E88135E5476AC0160EF5C0DD2EEF1B8B5CB2D198BE9A554A9093B5F7D7E4B5407DDFCA1D9C152FD97F55BFFFDFE802954DFEC8995B983E28AC92F1971E28F531DC407A1280EB125F64A72E617EFB27DFBCEDCDA2D6F2BDADA36873EE46B9BE1782998C63DA7182BC383FB6FD15DA472B175D7E8B4FC88
311
F38D6E07FEAA3FA3CBB8F6B449ECF14D2175E5C5CCA3A42ABF24CA6C9395AF74535F4DDB38CB84F56614B0FD32D7E19CA5CF988DB4449C40E23DF2B16772594554579094450F56F253CD25EA7F77366FB1CFE79696C428BB64D5A41E986189427E5E4D7E2DAE3D5BB4972B3DC44EAABDDDD63A2264ECFA5C786EB0EE1FDC5B
311
E34FA0F08376869FD1E61EA06CAE15191135445EE8F0394161C3266A596AA035572BB0C8876180D8B9C77D307DF9DCDF7365ABDA6F3A2366436457A4DFC1F259666569A9E4A79C817BDD5610E5200FCE894A358EC72858D50EF67545DA81C6FACE3D457BAF70367E1E6BDD9A952FB4F56247F58F523B97E640246051A72F79
311
BE42FFA0B3187F63097F91C48B868586F714B0EBD5A00A8412C1236E1298F60C72BE6C96B82B404CADAA304AE9F303176B14BA53FBC2D5E86377E35542019E24D97B96A49B2C0E5006E7795954DEAF5DA58958839043C6C70BD3B1B33B6DC5C31316D8A6923F142E26F6711A2258AF977DDF1F970ECC4F1F2B434B96D81BEB
311
6E89BF3BBB3C7C8CC80505070723D6D7D7D3C8CA27CA164A26024FED94B12A86031867241DA53D929636DA600F050BC40CE48B8BA03D69224720DEE2ED2127390BDF5E6EA64527BBD4C4C63FA76BB801FEEC0E61218EC98A8A86CD8313781617877E66692839B9468CF4DB8E50A73986E558E309C0D6F676F921BE02F11854
311
54DC75B111572FF9D27D85EA14C05AD7271225B391C4275659CA4A43759D0BA44639BE4C30A84DB7F67A41399FB95CBF923B1B1672ABC807C1590557FB18D811983FA97F5E609516D62281D38B1281F68FC75528C35E4CD7DF0F7DBB5E5DD69C414EBEA2F4A5B241B996BA77AE6C772E367408C633EA3E438B68563EA8BE76
311
67F3A4C4FDEEA52ABD78A2820F443B7914A15F180018D231E64519C56A12F6CA7C8DAE18F06F6B769DBF92329EF6A5D18FBCE600F36BD8E8198DE5CDAA96181F3A756EBA5501CEE58F497EA4F418A2B82565B9BCC611713C0B708CCA1F398B78C5F7D03B3437CC18F13061F55C7BEDADD5ACB1DB0E36D3CE47FF6EA1A563A5
311
7E9649EA5D14D1A50EAA457463381C073777EF1600607BAF6428A7DDC079D47A204EF1E1F1F0589FB054D45E02CE623B3823C317C601E589E22B1E88B448524B86A82828E32345EC18AE17214B42F8C41C6D428016D9BA31DDCB47572561E5A402E5BA4FCE55F78AF7268524AA04130F3A20BA5D1E9F9948EA48FC8F5314FD
311
B35E21898198060034ACE5E3E2BBCA34092518F275190AF65F45867FF0900AA4B81F25427414C372BF51DC29AA855C5428EE1EEDD6B849AD60F6E73475C2D2523F8A2772C840A478DED18A8C5C91B085F255DC4F54EA7AA8947354FD17ECF8FB3B4A0DE7B483CAF3A1165EE05BBA413E5C1FEF3DE1D6B8F2F3F3251C17D9FC
311
AB48A9AAF63AC773A0E413BBC46A9ADF84A566FC920E4D8C52C9769EE3301CADEEEDD92B312E02E2A7E35B7F1E7D203FE5A7D75578B06E99D0E46FFADB8FDA17ED8880390DA29094202D6F645F76F6F96409CDA05495A96E84B04A00D1A6C6C81D7F3DE9376E828CCF144EE50E364ACCE7237EA0BFB5607ED1AC3CFE73794E
311
5B61739D14DF1743441B1AC98F00ECEDE9E7301FA29755FBEFA68C91EF2B314CF510537EF1ABFC9A762496280B546F5EDAAF8A5B387D469FC9A878A92828C88608453ACEC6094DCA54111E7AD5B2663DFE2DD151B7F123B9F4FEF8EE36AB125FD7AD52A59B1B765B3E3F73E3F73DEA93875004D2AFFE3CDE9493B87A9904DD
311
052028949041A91DC0E1BA47BA714343FD5B25E0A6A09503AFC17C790058A836A324FE31D7893512E28230332F153181C1E018E1124EBE1BA262AA428A518237D1EA7275E48C5C561BD19ED6912EDD8367DA0F31E40EEAE9683DA9257525AEA7B632B97119E17145A90231768A4F3B9120FF32E8319B015E3CBE26F1A75417
311
7D8185345817C096B0CE443A955D13AC15E1FB5DEEA0239EC32A3C92241A237B0B02FFCB4F93CF2B02570C8D192E2F2A68CEEB42F12E6F8CEEFF46C251E22B4341C56FB08CCE550E7A9D6F4D6564B9EA52A83D5BF2C6E03FA19D2775E15A8A7ACF30A13C259EE7F5EF2AC3BA354F1500E1A07FC63FB4686E2F12EC69719F9E
311
CF5FE3F35598DF2CE944008CE78F0911BA5BE5D0A34E0098FF038669C26030BA9B300303039852A8F6F496341737CA7E0D2E3AAA36DE0A70AA7D9CA0D54D9AD84B18A44C9E625475E1C97B93BEBB38DCE7D227E67A2D00F531436136355F243D1FC0D712C5765754FA22FCFFAE97919161F46D6E61ACB37D83777B38588977
311
0B50765B127768443A5C4D3A4E35A3151111F146B7CA116F918A049F1C272F2CD7976C69A0068773451659A97E0F4A08FE604C3FF6CE7385DB19F4D3ABC8A0D80DA8A42096AC377DB49382B36E270B6FA7570188B4B7D1DDDDA82ACA487CCA5D38BD3BD039ADBAFA4ACFF27809239B722081E2EB9F145320553D183F28471C
311
388BC8814E5045676767AB58A8E72D1CED2CA731379515D2E533E4CF0B39DFC625F97AC4836831A4DE330E87A8126FA17EBE583D614E71E22A8DBF2825599743E0640037303E8E1B1E8EA4E1ABFA4F62907B5E4E0E5DCFDAB417C36C6848A2B8D15F1E505434C0707E16B1CFC2A1C36A42BBF55734F8F4301DDC2A5110CEE8
311
C0747F69519265012A2174BF4E955ECD4FDE095A3ABC70536B7AD0B9D7892F81287D667C108703C9B66A221E9A0929D030008F77FF6F5D2108EF5706FC87A3069B976F7C9FC3239D13D283CDEA83597461079FEEE049B0F392889898B7D87D31F8D60ED7B56B91823A8E4EDDB36C6172ECEE42BD42B12CD67994FA0F0DFAE9
311
389356F4CD4425A4B8AA55CBF7ECD585C6A2C2316791E43D5C06841ADBB226A87FD61515FFBB0167B74E56BD7F3E90A57A97FEDCBDF483A0D6699A8C0849CAEB4947FAA90D8E332D9DEBD9F4738C37DA0CAF9CF3DAA68BCB67C420459C7A64498D6E848E5CADE92BB6901F607AA331104A67F7CD650EE169B1DAE94D2C31C2
311
F993632259B6957E246EFE4C5481107B07118607700040E5812A2A2A38DA0076875258C753F60E0F2662C748EDD5F3F3686B8FC3BD6FE631ECCAA1E8B1C1E565AD117E54893E79F4672E32F9E46B2A183DFDCF3EECB4D4D077DBEA0DA254D256045109670050129E9B9B1A9E4A11344D61497A992778095151510C4BB7EF20
311
09B63AA4360635312E4CF668B7E0D3D85A8688E2BD83B569439892ADB63461930D428E0DE42E4AC57CE48DA5CC1449530D8BD3D6A0F08DF20C8E8F570F2CFFFCEA286E30969B4654D498A58D9DA782E19FE3F002181838925592C4A1EF0B332D88B61A92C644547BED490D3A42CFFAB70E36D961F694F6307F72FF15A1C79D
311
5B1B5CEFD353D9E2B52566DEC8F8F09CB3E8359C0F68EBBB7898243E34E12A015B2685AB303C04D3A9E00671FF3DFF0A184E4A2ABEB2B666AF5B3A209C73D8EF29DCDB069C9F391EEE9DD0F74C7BCDE16F8F02E3B8816122BBEB50665775B600549D8BB33A54A6BF940C028118BC6878C79958D6784F9DEAA6E26748386FFA
311
F8D0D0101E2847B6563F5D8DC1D78F787BE00E2C941AE12148D4A81599FE8F68D4DA5CDED75530ADE138240300EE13B0FC13A1687FED6774662C05A2B7DFB186732F0D7A93545D8B0A6390AE5054D9CB582DA846D7A061B3358B45E2B52DDE63E114397EDB7E09233A579155D795BE76102CF277F4DF8B188C4F2879BEAE3C
311
08347124BF9ED23B128259FE107D31E34A652F090B30B39E0D9AF917B76A2806135621A8A60681F16AF216514BBD02711585B5B1AE823F4B2D0369EA5B6BCB863072727FFC871CA6C9AB79A814D989057E9470A3D238BC87CBB4A0EA49AFE2B86F22E499793CAA9047080450166BDC357524561E258C77CB697F1ABB32562C
311
F87C3B7AA12F911EF19FB3E5C02222E887D08202A60A17151F5E053A86B437771088B4FEE14D652C43E8D939995D34545E12E2FF93D4E366EAD25F10CB7DED141563C3D0C447AF06078A91135FD4B9611583CB4BF3BD167F2399CEAB0E0100F8FFC305F00F1711717173138B4B48C83022295DE657EFEDD97F238ECA80F528
311
AFB4F8D67AD4E2594B9A3AA86D7487EFC313BA95745C186F0CDD84CC12DC9CB0424B42203D351FD9C0A3AF10CC7F388E0329279087386421F194F4A29464C1DEF7EF8BE515E4A199DCD5B909342598D8FE6A231F71336248D5CEC5454455C7BE383B3BC7B260FED27F703FDC39A170F3827239102F59D4DEE7FEF82EAA1A5E
311
4BA94DCC4CC44E7E2EDE20F24244E4454369D2E87C3F823F193FD4FD27E1C23984B01898D15ABC20711A8A558054951A6AE280096BA36CBA439603B7B0B4C45F248C14B2383B4B5CD8ECECE4FF859AD4A6CA2326D020EF090F4041D28DB66E5256B56232CC52829DE8060BAE6BBF37D4B7469B822454FE93210A3E8D15E69F
311
FCF01123222611C51C4FD0A041A0CFA2471CF6BE38D2B20FA4C3525B5B8B586759475CF80ADFE67A284AC24651E52B8E683D24C2622642F27E7C3C22783BCF63648BC398BD6CD0D9C97E7E7E3EACB6126DB7A6C1FD9F1031302EE67ED96F22B77C7CA0239BB324207559B105E4693EB26EC46182A92C9C0DBD24F29B31C5C5
311
AC1F84300E0E17CEEAC15F5736FA4A98971E2F1423BFCD68D4BBD5F86E74B40A369F39507C88FCDB35D2DD8DEBEA4AF999E23CF2816D204200DF6E611781B9884C1AC8888B4DE397320472959434323A5A36B22A8E1F721A270DF3BD65E4A31C11FF048AFB0D8B7B6881423793963A23CFCE935FC189ED36FAE35C46DA3574
311
C979E4394BE52084F3081837BE033396D2EBD80F1F691B273F660D2B32FA27A33B1DE4ADA5F0FA4651511102DFA410DDA86E065272CA314D5249DF91B06BB92807B28EFD54F08F7B525252782CD276DD02E6B0319B13DF87B1F6361AD6B28FC0D711CF445429B9E5A433CD493051C49A9E03DDB1B147D880253514A5DED880
311
09018620EE229101C041950E2D8AA8E1F5F5438E0C0C0C60EEDEE9E3E0C051948C69F84BB7B2A48A1F3C8EB9E6864687F4F4F6F6E2FA87608ADAF9C5E117B7C1A737E710769DA1D15ECE6A84502AA855398712D5FB51BE92E4EF824969CE18278798AC303C2C7980DD2500ADF8FB1E6D6C2FAAFF9987178923334A244758BA
311
A01A9A1B70FA5097D01E1CC2A58DAD0EC94CE6430AA9B0C10D75E3C6BAC670EFBADEE1607739CE0FC18A2587E3EC3058562014C64219C69BC269082D5C2F4A659278D585755912176D78A1B641719C2A394CED495A1AC5D583FD2F5EDD93308EA7EAE8A6DD396598BDBD3D4CFED62D18A5BDFDE0DD5C80D1A89BA62697B131
311
AE7CE9A6594138582F1B37D68F1749AC7CB67A70695D48A4A056AC1FBD4E82358CEAE38F54B95A9016F9000F9879C0D9D131768635CA798895F27D6F1614F11F2838A83611AA51C9A3DDB539D42979C29F10465655C17BEC3E2760B80DCBF609198C7B171A531905F3EC218D696025975E986C6B4C666666787271F2028055
311
77DD5A3EF0CAFAF91B62DC4B2DB4217A7606282F31D8DDBC290593BAA93EA6353AFA9939B877978481E15CFC9F2755CDC00C538F63A4BA3E80AE009B73CA0185687D339A507D165B74290D6EE46D5C58148F020C3668ABE9EF2F7549170DC80DB41FFC1D678FF19AEB10C7133832B104B80F691B3138F97A92D26E551F1F11
311
0400D45AC71A9B9AC41A1A1B1DAEED0B0810638EFFB511D46B121C6FEA0F38CD00E03CFFEB9713FE1F9C263E4DDEC160D0497FA9A132BA608584057FB15380825DE6C7FC3C667EE947D488A09898D8E939C4953BF4EC9836344D2CC6B2971B2A21A572B06096F4982D2CC7232D46E8EA69DC83722E267754D777F97F96D5DA
311
74E1E75178084D0E70F12AD33E5F71EF2AFA599B2BEBF60A5BE475F444F240CBFE8143C334E7ED9150FEEFEF7EB020C4DBED388DD1D6A167A76F3CBF119B578AE8CFA7736ACAFA4440A1C47185638A0D2F3EB5BDDEFDA958FB13CE4AA4923D5BF840392D45544329525749734866684BF7F8D9D54D892E19BCA9F829A0F8BF
311
CBEEA6CFDFC61D74EA1A645ED7A1FF241739F15694BD835B66FEC5677E40FE69BD3F91AE402F036537218A401CB0828604AD189E575015C6F3F6BBC8AC79CF6C70653847254B31551EFCBEB5978B9DB85D58D0FA41A9DFE9C624834AA04949D24B5AE6D299E072D152D12097920F14AA92C31C3B97E28B6C2E6E9C23D63043
311
ECBBC0A60FDF5BD0C33C127EA8A3308B8B6AFFEB28B4455BF6E7AF4FC6222728357EB8E46E85053E6A8843AB23295BF838ABDA94658FEF3F832F147046B4ACD6F7D48E8FCC9618582961C898D1C7A253C91BFECBDA6BA18A1FCF70755DCCEE2222F41B76D23CA98D0CB3D95F0CF66D57FFF65E2A90F5DF40FC3187621E981B
311
D0BC1D992787212688976B94A8F0C6EF646624B570B78E068826F87CE27041A95C9A4871FF65CC17FCB1639629AD6A9517000D63AC231F3D741CB8430777E7ECF80CE7A3F73C0F162F7E56AA71F4DA80A33CD6ACEE78E2C11FAC03DAFCE929B106F8F6B3ED2DC71FF994BD9CEF4E9A94896EF1B6E2B7B4978168BCF0847A3D
311
2A4F1B0500B926E634B174548E9FBAD27153FB5FC36799B1E6C7C38A94E1F9E996796D7B485E635D5287A2AE76FBD11A341DB3F8F810385BB7296391973DC6C37C452A9305AEBBE0CDB6C566DB59FE60C8E94B1FD090354BF51439FFD1B48D725228FFA88C84F686F547107A7A235665A4593B7C34D748C1AC8D56DD5DA861
311
EEFBADDECBBD65117E65851F90351AEB65F0EFCFF4BCFEF24CB7A5879699FAC437A7AF9099186CF006BB923A59E37D7A36A29FD8D2CBB914A5E9D0A8FD212FBF796AE9A67958FF1D5D8B85F78F96219D4714EB919929241B6C018AAE0C02069F8D919961EC5DDFBFB7573E3AC8E08BFB7C8534BE6DE045B3CD63DBD71F7638
311
BA2309CAE398EA3A7D8F98BBBC7AEB367EFA5CFA27A9F8F2F52FE878058E6209C026453F8E7E8A237DFC389E9590F6059B397CFD65183BBF936E86896612A5B5FEE49DAC8455D026218AFEBEC12B3523A45B57B82C9C97E02ACFA1184DB18E48CF615DBF39C3CC6F0B4AE6BBEEA2E39D944E290302FA3DE33FA7E40296E2EF
311
7BF1CD855BBECFAD0FD622BEE9746FC4FDFDE545AE6E3BC234CADF83A0FB76DFB145BF3828AE3436368AC24989454F8FF70A177672C711CAA1A76107218CF948CA01F873520E7A2B118EBB161ABAD432932029628B6761590C98AB590C8C8C79798CE9F715BA696E839E9131A4BB68BE923F1747FBFF165331FFDD4D05997A
311
CD168F12CA75348DAC04C7F509FE83898A8B421181AF492861CE81E4A2DD0A30850CFA95E05F097FF70F9E777310D584A75BA7018922E271DAB1D785671157685B7D383D3E074DDB4F1E44EF04B07BAAC75A062077C54B9752C738C9D804D402E02851F3F89605AF189738C18C021D2139EAF72513824E10DDD3047BACC852
311
1ED7E98B257D1166903B1B08FA6F918FD7E162913FEC7D0EF4787E29C35FBA8C6E2C9C20E9AB30AE42CA2A01A090E7D010C1B5BF9CEE2A304BF3A987FB40D836979B79E18D70F257DA61E808472DD85B82761825779D6B90CAEB0F23360C6F80A7D7D77545E95B3DFF0CF96A827F9B5BCECD2C9698718417EF80FEEDEE938A
311
FF55859D0D540B7FE09435583A6F04874A0C7E8CF234DF4879722000167F5872CEC6BF3EF7E5A8CC8121E6A359227C8A29C95212F9F735BC72A887D56B8F309FC525BFB4FD767AAEC4AEFF249CFBBD2DE1AB9969A6155C7D8DABC307E47324C1F916C7BCFF40ABA5644E9FFB9238D19ADADA49D9610F01ABBA57E4DFCBDCCB
311
B2B93C8953206C91DE01B0E2651A6D6C31721915B31F7B7CBCE55466F6D70402788FA91D73BE4ADCBA99A35F17D6B83383704917D6833F0FA3CD45C926ADB8BC17999A4A0AFBCE2541F7B8CF4C2F5FBA611B3E626D64407CB32C122DFF4EF8674D6EDBB86C8F7C6A16D50FA685E2CCA34F8F7D1D8265BB0042E9D7F1F666F7
311
BE5FAA5184DF58E12122A42EF02F461B3F369AC746F96528AD208512AB56844CF75B97F352DF7995024FB02855385854F3798670D01CAC771AC3E1889EC25F61A20C1F8CAB46898817F9C47E2CDA1F286BF2F358298709FE567C91133E2638C8B53975E753EA8BFD3578B5F7186B7BF084EBA3F77BAC3132A5779902EC22AF
311
2D2E79F42D324E083386DAEE9810D1B44A5DAA54513C7A71E52A4AB9257D975B621308FE4D2141CC3DCFE946C154A3C1DFCCA7629EC69ACFA831634ADDA93C0388D2A9A2DDAFCF957C6995BCE7FBB6DC4EBAE79E63EB08E9A25F52F67076F7093CA545CA3053B5BF576DEAD4E0017143C5F759F32B2D6F145B52B67B48909B
311
7C7FCA6586EE385A2189C16932CB6DDFD9152AE317C430492A578ED27B72D85D40C7C93C097939E1B50F4D67F05334FE9DC362C30B7FF561B95259138ECFD9274C8D695C31B14D4EAA9F3D7FA8DDF652F8C5DEFA23284C799B7D94416DEE81E05A866302DC70192A5368EA65E1CED8BF107A1E2D3119A71E85DC1A7B0C1E93
311
274CE04DD0F2ABC8AC7C987FDB002B6F81757B43502EF7A0D92E416494FAEEA4C9C090CD9557AA4D532F4996A272B94355C5A0E4974EEA9627476F30809B94D8D8D860062E02204643BEC7D0438AF800FC7E2B26955D595421E83C69E1A07E0E3122285835F014AD538188CF9737CE76D464A353FA55A001AB2526B84E9850
311
83693BC76FE211CA1D000679C889E3C009832C87E1AC2EDD05C302557422DF0800E316FCAC86978A371F025A6C7DAA9F333E7BD160403A1A06EA75AA9888FF01504B03041400060808004F52535728BB58AF800100009E0500003D00000035443935303232302D334438342D344332412D423635362D384334373641313443
311
4238392F536368656D61732F436F6D6D6F6E536368656D612E786D6CBD544D4FC23018BEFB2B96DE15493C78601010A34B880709DEDFB52FD0D8B54BD70DF6EFED3AC0B12E6442E2716BFB3CEFF3D18E26FB440405EA8C2B1992E1C323095052C5B8DC842437EBFB673219DF8DA659866649B798C078B48AE6410122242F2A
311
4994AC7F93815DF85C049C8564CA0A901499DD886B2EB9B1E02448F358701A9235880C49A0119892A20C89D1B9FD768815CAD268CB5E0355B40B1E47F3E37A2020464BED06AA57CE8FCC20C3C3446D46761A2632A8C1283D07031EFF2AE7CCB1BFEEE916E406DFAC8E36FFD99A9D60A6944090EEDC3B670C7DC13DE86B6B2C
311
5C240D6E503BB85ACD579D513F1B9F9A69DC9CC22AFA80C426D40AF0B21EA168559156B6276F0F726A6BFF04DCD513A87A62CAD41FB24FCB2858B3952E3D852084DA25B9303C15687973CC8E8AAE11DF2836C38C6A9E765E8C1BA1BFB1DC29CDFE518C8B5A7655A4ED7E77291ABEB80DBD82EC866ADE1B8D05AF9E35CF09D7
311
A061F38A986D9EC412B8F0F65E5D81534D9B231D1E5A8FE577A241F3A5FD01504B03041400060808004F525357E336299B9F040000341300003E00000035443935303232302D334438342D344332412D423635362D3843343736413134434238392F536368656D61732F47656E65726963536368656D612E786D6CD5585B6F
311
E238147EDF5F61E5BD1498E9A895A02398AA5D1E2A5665BAAF96710C78D6B9C87168D95FBFE7F81242134A968E469A4855437C72AEDFB965F4F53551642B7421B3741C0D7AFD88889467B14CD7E3A834AB8BEBE8EBED1FA3495108B3E01B91B0DBD1F3EC8E6C991A470F22155A72F73CBABC1D4D5921DCD1934863A11F9901
311
02A6F61466977B8AC49FB13C174CB3940BE4504A22E3713489B7F82406516225536940BD88E4E552493E8E564C1522225AB0384BD56E1C195DC26FAB13882C2EBD62E1FF9E5B0FCC453132C99548446A1872B62267078F1EF14C3DB1DD1952DDBBB384AD456779F387C51992E0ADCE12FED2622BC5CB1952FC9BDF3295E920
311
6E961AB116DA7ACE45F76F07A26EFC3FD762FD7362FC3C0BAA4DB34C09E682CA5167BADCD16CF94370E331E2F1A3D852008AAD5D64BA2373478338AEB1583B905396D158182655E1B938D07926CF007CC7E85E6709999B0D3827C0BF406BEF55C68CF5579DA32C8C85BE03EFE788787E8FEC95DC85C3E31A615658D81F9A34
311
499612004CE69CAB12531B15A887ACA642C110F8C1A8C1974A85853F407794695C905C688E69B116550ACA946B9B4785FC179E0E229240B62665328E86D5BD2C800CF5D80289F35AC25E3DD51508F4BF9A74A0F5A557BB3D284BC6FF59312E282F956A75C5D453906F48D11A876599E49425602400842995BDF02C4D012E22
311
6658F78A710416AC552831FDDEF0E6F0BABEBEA9DC36718CCEF4DAC5A0DF871AECBDD8F448F015F8DA113A473609D1751672B723874B2CAB21ECD6E284E51DCC7D1A47A00F60EC21DC4CC3CDC406DC03760A4E6C772F2F4D561A9AE58C4B03F5B4838701472139EDCB36819A66C472B52AB1139C648956F43E0DAEC067B56B
311
0818F5961D3D446B8F1E1E78C0EAD7EE02AF2895D813E88AC5014A7B436DBB20F778D40A1D9737EFE45B47D49CC8360F9966B15AABAC802C1005548A93EE469F5D55317CD8BF0AA86CABADB2A009D4D6F60CFE53AE370AFE8C45415B15D362A5A038E766E34B00F8C2E3E7098E2093B1C96349FDAEA158903B4BDAEA665F47
311
3FECE72186E3BDDCACCADA31839CD6D4FA7D47DF5469006ED340EBE71DF960DDEE88A3E17557039B58C278A1795BA8079419DA8FC5BA1BAA1A66238BF69C7B2BE4E6274839122B7D00BE8B7D52CF61B2D63216046008C8B330FC10F8907787DEF061F47965BBA02FD8F53BA12F9827614979F53563D0BB1AD67A03DC0E00E2
311
FB2CF3EFB457E70E65A3D7C78E7D700DBB45132AE9BBA5E468CD861408961AD8B00A55C2FCC677F4456039FD9F1907A5B3E2D0EE845FDBA2DAFA88C64195671AD6D282DA2E45B1F50A0D632B0D0B6718757DCC7C84A70A3656F222CDA6DBF07E204AB358961D1BE31E53A82C2C0D56DBF61A5608B5A252A932A1DC6E324624
311
30853353EA30417C8199A662E946A4EF352268B8CDB9A9C6762515ACE8E09BBC031C608A02C4BA89C9DDC074E46E0E26A17BCBD4ED43270D03E3645ADB81F6D62CC07A3243EB81C07E01681DDF2DB4730631E6DDA6CBBD048BE9F06AEB3CF06B31DD6C9575E37E9FF17161342C4C76D95519672A6509E0F5C4E71B4B191644
311
0059F57D0921F496237E473A83E3E4E06353BD9D27593594D7B6707C08D22FEBDFBFFE03504B03041400060808004F5253578DFFFC99640100009B0300004500000035443935303232302D334438342D344332412D423635362D3843343736413134434238392F536368656D61732F52656E6465724D6174657269616C5363
311
68656D612E786D6CA5535D6BC230147DDFAF08799F5FDB600FADA20EA430D968A7AF12D36B1B481349529DFF7EF9A85A718860DFDA73EFB987734EA3D16FC5D10E946652C4B8DFE9610482CA9C8922C6B5D93CBFE3D1F0291A6B0D26A3255464182D920FB4233CC629881CD49C18508CF000E3EE309A100D61622AAB4A8A33
311
B2483F11CB639C545B0E1508438C3D3C0361192846DB7ACD198DF186700D182920B914FC1063A36AFBEE8FBA03FFD3CC1D1F4FC9E151A2AF59F628C5B7821D83FDFD3489305080F2EE04BF962195FB285E9D2DD352320A9E827AE357594914E42B1F5FE35F83688F60C4C91A6C946ED0668E8F244BC2EB0BA6E3BCCFC0B6A4
311
B507F9F9F8D51EB315D9BA9E08D308E89F96931666E577837E2B4172199C68C4FE306156D47DF51C698C7B9D97FE5BEFE2190C3C38BB054E6E8163FB039CB4B993C80BF18D969203116D6BBD26238B821F9BB909AD6D9C71B85BCD8C33D66FEA3D31B4BC0AD45BEA46BBEDDFEC0F504B03041400060808004F52535794753A
311
9551000000570000004700000035443935303232302D334438342D344332412D423635362D3843343736413134434238392F4173736574446174612F41737365745461626C654F66436F6E74656E74732E62696E5361606030353230B0307735D675753630D43531B630D1B570B430D73572713476363437B6B074341502AA
311
CB4D2C492DCA4CCC492C28484D2C4ACC4B4E050A82012F90744FCD03CA26072767A4E6260200504B03041400060808004F525357C55C663656000000680000004500000035443935303232302D334438342D344332412D423635362D3843343736413134434238392F4173736574446174612F53747265616D56657273696F
311
6E5461626C652E696E665D8CBD0A80300C06F73E4B29FE6CDD8A2E82A083B8B7F209014925C9FBA3AEAEC7DD2555D896CB85E51C2A1BD834F6A1F56EC4494C4695278364ABB24ABD2146F88CCEBB89D5321FF8F3F43D672A3B44DF3CB6A1710F504B03041400060808004F525357DBF8426536010000A20400003600000035
311
443935303232302D334438342D344332412D423635362D3843343736413134434238392F4173736574446174612F636E782E786D6CCD94314FC3301085FF4A64893176DC2EA5725C21583A8144C5C076752EC5AA6347F605C1BFC76E3380404C1DBA9EBEBB7B7EF23BB5F9185CF58E31D9E05B2679C32AF42674D61F5A3651
311
5FAF58B5D12A8640DF30567918B065A5CCB43AC4308D73A9C31E2657AACEFAE35CBC4B0969077B878FFD7DF0849E12AB8C83945A96CC1B0EC061A2D0613AF20E08B8E4115398A2C13C89EC80F3241311083BA617CD6259CBA696B73BD9ACE56ABD94AF4A1452AB7D086EE66D5E16C378B368CC792FD38D1205D06A8A76A6CA
311
6B98FE4B25DF5BAF4426B54A14B32B73077D8EB903C6D1590394CD13C110529D2184418933AC95282EFCF0E2017BEB6D69D9666940213E658118C9E2157AF29FDACB7BB3F589C01BBC66477E6BBCBC0FCFA75FF4728EE52937D79796DF1AB9F5FD05B2224EE72447A75C17FD05504B03041400060808004F525357F4D7E5C5
311
E5000000600100006700000035443935303232302D334438342D344332412D423635362D3843343736413134434238392F5265736F75726365732F35323030383745332D454330312D343338342D384138372D3244413343313733383941352F7468756D626E61696C2F302F636E782E786D6C4D90C16E03210C447F6585D4
311
E32EB0B9A4114B7E22A75E2ACA3A5B14C0084CD5FE7DA1E590D358E327CB33EAFA1DFCF405B9388C1B938B6013448BBB8BC7C62ADDE7339BAE5A65447AC2D8144D808D759B697564AC69583BDC4DF5DDF52E3E86794084ECEC7B8A079BAC37A56CACD84F086631957087F258764366914B8682355B6807C80518076C0643B0
311
33BD8AF5344B31CBD79B141779BE9CE49BE29DD4EA03D10FDE45828CE9651516DB18DB3F42F10E6855B31B540FC1F4D3738AB7A5568572CB3F20FA490D322979670DB59A385A029A1B042628FE0F6BC57BDE267F6534EDDDE85F504B03041400060808004F525357A233C2345D000000800000006500000035443935303232
311
302D334438342D344332412D423635362D3843343736413134434238392F5265736F75726365732F35323030383745332D454330312D343338342D384138372D3244413343313733383941352F7468756D626E61696C2F636E782E786D6C4D8B490E80201004BF42E6EE76F3C0F216234B883063108CCF170C074F95AE5473
311
F5C4C06E932E4F28601967600677D21E9D8092EDB002539227A2FCCB80E1168D80A6417297A89C5D6963B7129A0D1E8F2EE73AA7B62BBEB8B27DE50B504B03041400060808004F525357BE89762363000000880000005B00000035443935303232302D334438342D344332412D423635362D3843343736413134434238392F
311
5265736F75726365732F35323030383745332D454330312D343338342D384138372D3244413343313733383941352F636E782E786D6C4DCC3B0E80201004D0AB90EDFD75167CCE820A4A845D83603CBE602CAC26799919AEEEE0D965E2E908050C6D0FCCE04C8BC355404EB6198129C92351FAD580A10E464065907C8D948F
311
8F166375F655BDC3FDC3B4E530A176BE7057BDC43B2A593FE403504B03041400060808004F525357D1F55E637D000000A30000003600000035443935303232302D334438342D344332412D423635362D3843343736413134434238392F5265736F75726365732F636E782E786D6C4D8CD10A832018465F45FE7B37CD42076A
311
48EB416259C84CC3E5D8E34F4717BBFAE0F09D23FBCFE6D1DBA6978B4101BD1040363CE2ECC2AA201F0B16807A2D538CC7DF0D509836ABA062D0724D31EF279AED32655FA977E179C2AE2144F091E1712014B74CB45818C17173376CA09C899BE98A71AD4A995FAF6CCDEB2F504B03041400060808004F525357FF9883280A
311
010000550300003400000035443935303232302D334438342D344332412D423635362D3843343736413134434238392F536368656D61732F636E782E786D6CCD93316FC3201085FF8A85D4D1069C258D30193A74EAD276EA46E192A060CE3A70D5FEFB82EB2191BAB5433678FA747AEFC1A9FDE7189A0FA0E4310E4C768235
311
102D3A1F8F039BF3A1DDB266AF1521E60B8C35D18C30B02A33AD8E84F3B44A0E0E660E550D3E9E57F101C711E38B3DC16858638349696069B97666CEE8209D3B67B2E964479070260B6542F623AC132C81C9E098EE45BF69A568E5FDAB143BB9DD6DE49BE295D4EA1D31ACBC8F1908A7BB5E582CC7580C09C52BA0D54C7EA5
311
6A0AA62FDD75A50FC50BA155CA545A58C9FC3515D24C53F0D6E452165FC01F462B5EC35E457E8408E4EDAD66BEB2F76FA19F213AA0A7F252E44DB8D5ECBFB9FC5B057CD980F20DEA42E86F504B03041400060808004F525357E3603EBE7A000000C20000002C00000035443935303232302D334438342D344332412D423635
311
362D3843343736413134434238392F636E782E786D6C6DCD410EC2201085E1AB90D9DBEACE05D09878023D01A1D34A8419C380F1F82DA68B9AB8FDFEC93C3D7C52546FCC12980C9CBA232824CF63A0D9402DD3E10C6AB03A3397DD192872090D3406ABE7CCF5B5D18893ABB1690CF4DCF02282E5EA8A5BB96FFE536F285CB3
311
47F95BEFFE81C9ED5AFF9D5B1FB575BB00504B03041400060808004F525357A6FB0DFF7E000000A300000007000000636E782E786D6C4D8CD10A832018465F45FE7BB772DA0CD4287B91581632D37039F6F8D3D1C5AE3E387CE788EEB339F436F1658397505F2A40C63FC26CFD2A211D0BE6803A256208C7DF0D909F3623A1
311
6050628D21ED279ACD322557A8B3FE794236B6AC22A4C2B791534C35E9F1D0B006734DEF4D5F533DF0361BD7A2E4F9F5F296BCFA02504B03041400060808004F525357CA1DF9C9A900000073010000130000005B436F6E74656E745F54797065735D2E786D6CA590410EC2300C04BF12E5DEBA70400835E500FC800F84E0B4
311
11AD13252E2ABF27A55740421CEDDDD9B55CEFA7A117778CC979527255565220197F75D42A39B22DB652EC9BFAFC089844F65252B2630E3B80643A1C742A7D40CA8AF571D09CC7D842D0E6A65B8475556DC07862242E78CE904D7D44ABC79EC569CAEBA537E3521C16DF5CA5A40EA17746733E0B6615DE7217475F386F18B9
311
481C510F1F021CD9FF027EA0E1F5C4E609504B03041400060808004F5253573DEE336E64000000790000001B0000006175746F6465736B2D64657369676E2D7061636B6167652E786D6C35CBC10E83200C00D05F21DCA56CA76D41FC96062B120735B69A7DBE268BB7777961F8D5AF396893C2ADB70FE7ADA196782C2DF776
311
D7A97B5933C430F15651E5469C55D70F80A4992A3ADC954792C525AE70A1E4D6AD9816CC044FEFDF01FE3FDE907802504B03041400060808004F525357CF723756F8000000960100003700000035443935303232302D334438342D344332412D423635362D3843343736413134434238392F4173736574446174612F636F72
311
652E786D6C8550CB6E833010FC15B47703065248641C51E00F7AEACDB21D6A25D8C88FAA9F5F3B50A93DF5B4ABD999D9DD21D7AFF5917D4AEB94D13DE0BC844C6A6E84D24B0FC1DF5007D995126B8CFF45834CB355F69060A064B1266C07C48DF65227541B210F9039273D64FC119B1E1CFF902BCB59F091E1EEF9C6F89D2D
311
32C7F9CEA32404250EA912D14DDD94B440CB9766AADB53879AAE3DA3A69D46D40DE3094DF33477EDEB348C73438A24A6C4ABF5673BB792792980566555235C227C7EC3E50577971ABF9322312971DEC69F8FA5E93BA043BA7A629E91629FFE710D9BF8DF3528EDEBEA70DD150E288E473E07941429A5589E11C69A12A5DF50
311
4B03041400060808004F525357216D97B6F30000008E0100006800000035443935303232302D334438342D344332412D423635362D3843343736413134434238392F5265736F75726365732F35323030383745332D454330312D343338342D384138372D3244413343313733383941352F7468756D626E61696C2F302F636F
311
72652E786D6C8550CB6EC32010FC156BEFD8C6766A1261A2D4F61FF4D41B02E2A2C460F1A8FAF985C495DA534F8B8679EC0E3D7FADF7E25339AFAD1900973514CA082BB5590688E18A081467469DB5E1170D0AC35735408681D1C5D9B8ED90B02628935163A5DA41EEBD0A50887B7A0CE0C5875A79C963480C7F2B372E6E7C
311
51252E9F3C4663D472976A99DCF4552B07AC7EE9A6B63F10D491FE88BA7E1A11B98C0734CDD34CFAD7E932CE1DADB298D1A0D79F74E1140F4A026BEAA645B846F8F886EB1326A716BFD32A3319F5C1A59BF7D07C5D8AA3D513FDE31637F9BF5BD426B4CDEEF6547860382DF7F860B4CAEDA4F1A82ECDDC24FB06504B030414
311
00060808004F525357AFBC0654FA000000960100006600000035443935303232302D334438342D344332412D423635362D3843343736413134434238392F5265736F75726365732F35323030383745332D454330312D343338342D384138372D3244413343313733383941352F7468756D626E61696C2F636F72652E786D6C
311
8550CB6E833010FC15B4770306529CC8384A217FD0536FAE718815B0911F553FBF76A0527BEA6957B333B3BB43CF5FCB9C7D4AEB94D11DE0BC844C6A6146A5A70E82BF2102D999516B8CFF45834CF3457690606074B226AC3B248CF65227549B51EE20774E7AC8C41C9B0E9CB8CB85E73CF8C8708F7CE5E2C12799E37CE331
311
1A821A77A91AA39BBA296981952FCD50B707821AD21E51D30E3D2297FE8086EB7025EDEB70E9AF0D2D929851AF969FEDC24AEEE508AC2AAB1AE112E1E31B2E4F989C6AFC4E8BC464D4791B7FDE97A6EF80F97B583E3457332DB6E91FD7B08EFFBB06A57D5DEDAE9BC201C3F1C8E780D122A514CB33C25853A2EC1B504B0304
311
1400060808004F52535715CDDF860C010000B10100005C00000035443935303232302D334438342D344332412D423635362D3843343736413134434238392F5265736F75726365732F35323030383745332D454330312D343338342D384138372D3244413343313733383941352F636F72652E786D6C8590C16EC32010447F
311
C5DA3B3618BB900813B9B6FFA0A7DE904D5294182203553FBF90B8527BEA69D130C363479CBED65BF1A9376F9CED8094180A6D67B7187BE9208633E2509CA4D89C0BBF6C5058B5EA0EB20C525C3617EFBB343B1BB4CDAA758BDE45E5BD0E50CCB774E8C0CF1F7A55A58A2139FCB5BCABF9AA2EBA24E5D327458C66D9A36649
311
AF99B3D11B48FCD28C94B51C359C1D50C3C601F17E68D1388D1367AF633F4C8DA872588A60D61FFABC6915F402B2C635450423727823F848F89192775165A7143E6C69E71D9AB703D9D618733651340D98A086F226E13843F5D8D38130CA0F7D2BAA67F00F30DE97FF81D1D840EB1DF84C789024FDFF712145950B4CE3D16E
311
9AB96CF90D504B03041400060808004F5253575B2E500BFB000000960100003700000035443935303232302D334438342D344332412D423635362D3843343736413134434238392F5265736F75726365732F636F72652E786D6C8550CB6E833010FC15B4770306529CC8384A437EA0EAA937CB6C889560477E54FDFCDA0995
311
DA534FBB9A9D99DD1DBEFF5A6EC5273AAFAD198096351468949DB4990788E14C18147BC19DB5E1170D0A23171C20C320F8EC6CBCAF90B226A0C9A8B113AEA0F41E0314EA969A01BCBAE0224B194362F86B7997EA2A672C69F9E4091EA39E56A99E929B3E6B7420EA976E6CFB0D231DEBB7A4EBC7236187E3868CA7F1C4FAD7
311
F1703C75BCCA62C1835E7EB62B8732E004A2A99B96D09AD0ED3BAD7794ED5AFAC1ABCC14DC07977E5E97E6EF40BCA1B7D129F4BC7A4EFFB8C6FBF4BF6BD426B4CDEAFA547810341DF918085EE594527944986A4E547C03504B03041400060808004F525357DC325989F8000000940100003500000035443935303232302D33
311
4438342D344332412D423635362D3843343736413134434238392F536368656D61732F636F72652E786D6C8550CB6E833010FC15B4770306529CC8384A812F684FBD59C62156828DFCA8FAF9B50395DA534FBB9A9D99DD1D7AFE5A1ED9A7B44E19DD01CE4BC8A41666527AEE20F82B22909D19B5C6F85F34C8345F64070906
311
46676BC2BA43C2682F7542B599E40E72E7A4874C3C62D3811337B9F09C071F19EE9EAF5CDCF92C739C6F3C464350D32E5553745357252DB0F2A519EAF6405043DA236ADAA147E4D21FD0300E23695F874B3F36B4486246BD5A7EB60B2BB99713B0AAAC6A844B848FEFB83C6172AAF1072D129351E76DFC795F9ABE03F6F6BC
311
D3D1629BFDF10CEBF4BF6750DAD7D5EEB9291C301C4F7C0E182D5246B13C038C35E5C9BE01504B03041400060808004F525357C85C469501010000D80100002D00000035443935303232302D334438342D344332412D423635362D3843343736413134434238392F636F72652E786D6C9591DD72832010855FC5D97B54F0A7
311
9A41328979845EF58ECAC63089E00876FAF8856AA7ED5D7B0573F8CE2E67971FDFA747F2868BD3D67440D31C12348355DA8C1DACFE4A1A488E822FD6FA1F1824464ED8419441F071B1EBBC4B83351E4D548D55B88BD239F4900C8F70E9C00D379C642A571F08774F6739DCE588294D374E70AFA72FEBB0A0F4A840B09C1584
311
E684B6CF343FD0E650D0179E4552F0551B5FB0BD194EAFA8123BFB10094455F06C7B0ED8AAD50E69153EA9AF1A97805CDA2A672C27C5A52949D9B31339D7554D9ABE7CAA4FB4ECCF4D1B8A04B3E0CE2F61347B913884BFDA37E3AF68EBACFE196D733810F43B5416E72C78F6B98470C69D880F504B03041400060808004F52
311
5357F83E161907010000B201000008000000636F72652E786D6C8D50CD728320187C15863B2A6AAAC92099547D839E7AA3420C1305879F4CFBF6854867DA5B4F1FB3BBDFB7CB92F3E7BA808730566AD5419C15100835692ED5DC41EFAEA885E04C89D1DAFD9241A0D82A3A186148C96CB4DF123469E5848AA8D25C2490592B
311
1C04D3121E1DB4D34DAC2C63DE0585BD671B9BEE6C1619CE761D254EAE3FAB9311CC090E69599415C205C2C7375C9C707BAAF03BC9A39212EF254F569207777995C2405ABCD443D51C5A54B7CD11D5CDD0A3F6D21FD0300E63DBBC0E977EAC491E9729B1CE843FA72321A703963DA22FC9778A920FAD972408A138D06AF90A
311
26248FC49FD07EE3FF082D95ABCA7470DFB090E210E84904E3D86018CF7AC38C6DD36F504B010214001400060808004F5253572432EF2F01010000A80100004F000000000000000000000000000000000035443935303232302D334438342D344332412D423635362D3843343736413134434238392F417373657444617461
311
2F446566696E6974696F6E4974657261746F7250726F706572746965732E62696E504B010214001400060808004F5253577D3AF9BC120100003002000045000000000000000000000000006E01000035443935303232302D334438342D344332412D423635362D3843343736413134434238392F4173736574446174612F49
311
6E7374616E636550726F706572746965732E62696E504B010214001400060808004F52535788E57597CD3F0000904100006B00000000000000000000000000E302000035443935303232302D334438342D344332412D423635362D3843343736413134434238392F5265736F75726365732F35323030383745332D45433031
311
2D343338342D384138372D3244413343313733383941352F7468756D626E61696C2F302F67656E657269635F706E67504B010214001400060808004F52535728BB58AF800100009E0500003D000000000000000000000000003943000035443935303232302D334438342D344332412D423635362D38433437364131344342
311
38392F536368656D61732F436F6D6D6F6E536368656D612E786D6C504B010214001400060808004F525357E336299B9F040000341300003E000000000000000000000000001445000035443935303232302D334438342D344332412D423635362D3843343736413134434238392F536368656D61732F47656E657269635363
311
68656D612E786D6C504B010214001400060808004F5253578DFFFC99640100009B03000045000000000000000000000000000F4A000035443935303232302D334438342D344332412D423635362D3843343736413134434238392F536368656D61732F52656E6465724D6174657269616C536368656D612E786D6C504B0102
311
14001400060808004F52535794753A9551000000570000004700000000000000000000000000D64B000035443935303232302D334438342D344332412D423635362D3843343736413134434238392F4173736574446174612F41737365745461626C654F66436F6E74656E74732E62696E504B010214001400060808004F52
311
5357C55C6636560000006800000045000000000000000000000000008C4C000035443935303232302D334438342D344332412D423635362D3843343736413134434238392F4173736574446174612F53747265616D56657273696F6E5461626C652E696E66504B010214001400060808004F525357DBF8426536010000A204
311
00003600000000000000000000000000454D000035443935303232302D334438342D344332412D423635362D3843343736413134434238392F4173736574446174612F636E782E786D6C504B010214001400060808004F525357F4D7E5C5E5000000600100006700000000000000000000000000CF4E000035443935303232
311
302D334438342D344332412D423635362D3843343736413134434238392F5265736F75726365732F35323030383745332D454330312D343338342D384138372D3244413343313733383941352F7468756D626E61696C2F302F636E782E786D6C504B010214001400060808004F525357A233C2345D00000080000000650000
311
00000000000000000000003950000035443935303232302D334438342D344332412D423635362D3843343736413134434238392F5265736F75726365732F35323030383745332D454330312D343338342D384138372D3244413343313733383941352F7468756D626E61696C2F636E782E786D6C504B010214001400060808
311
004F525357BE89762363000000880000005B000000000000000000000000001951000035443935303232302D334438342D344332412D423635362D3843343736413134434238392F5265736F75726365732F35323030383745332D454330312D343338342D384138372D3244413343313733383941352F636E782E786D6C50
311
4B010214001400060808004F525357D1F55E637D000000A30000003600000000000000000000000000F551000035443935303232302D334438342D344332412D423635362D3843343736413134434238392F5265736F75726365732F636E782E786D6C504B010214001400060808004F525357FF9883280A01000055030000
311
3400000000000000000000000000C652000035443935303232302D334438342D344332412D423635362D3843343736413134434238392F536368656D61732F636E782E786D6C504B010214001400060808004F525357E3603EBE7A000000C20000002C000000000000000000000000002254000035443935303232302D3344
311
38342D344332412D423635362D3843343736413134434238392F636E782E786D6C504B010214001400060808004F525357A6FB0DFF7E000000A30000000700000000000000000000000000E6540000636E782E786D6C504B010214001400060808004F525357CA1DF9C9A90000007301000013000000000000000000000000
311
00895500005B436F6E74656E745F54797065735D2E786D6C504B010214001400060808004F5253573DEE336E64000000790000001B00000000000000000000000000635600006175746F6465736B2D64657369676E2D7061636B6167652E786D6C504B010214001400060808004F525357CF723756F8000000960100003700
311
0000000000000000000000000057000035443935303232302D334438342D344332412D423635362D3843343736413134434238392F4173736574446174612F636F72652E786D6C504B010214001400060808004F525357216D97B6F30000008E01000068000000000000000000000000004D58000035443935303232302D33
311
4438342D344332412D423635362D3843343736413134434238392F5265736F75726365732F35323030383745332D454330312D343338342D384138372D3244413343313733383941352F7468756D626E61696C2F302F636F72652E786D6C504B010214001400060808004F525357AFBC0654FA000000960100006600000000
311
000000000000000000C659000035443935303232302D334438342D344332412D423635362D3843343736413134434238392F5265736F75726365732F35323030383745332D454330312D343338342D384138372D3244413343313733383941352F7468756D626E61696C2F636F72652E786D6C504B01021400140006080800
311
4F52535715CDDF860C010000B10100005C00000000000000000000000000445B000035443935303232302D334438342D344332412D423635362D3843343736413134434238392F5265736F75726365732F35323030383745332D454330312D343338342D384138372D3244413343313733383941352F636F72652E786D6C50
311
4B010214001400060808004F5253575B2E500BFB000000960100003700000000000000000000000000CA5C000035443935303232302D334438342D344332412D423635362D3843343736413134434238392F5265736F75726365732F636F72652E786D6C504B010214001400060808004F525357DC325989F8000000940100
311
0035000000000000000000000000001A5E000035443935303232302D334438342D344332412D423635362D3843343736413134434238392F536368656D61732F636F72652E786D6C504B010214001400060808004F525357C85C469501010000D80100002D00000000000000000000000000655F000035443935303232302D
311
334438342D344332412D423635362D3843343736413134434238392F636F72652E786D6C504B010214001400060808004F525357F83E161907010000B20100000800000000000000000000000000B1600000636F72652E786D6C504B0506000000001A001A00210B0000DE6100000000
310
504B03041400060808004F525357000000000000000000000000370000006662782F33373742423045352D333230302D344233432D413737352D4244424346333544343038302F617474726962757465732E62696E504B03041400060808004F525357000000000000000000000000350000006662782F3337374242304535
310
2D333230302D344233432D413737352D4244424346333544343038302F76657274696365732E62696E504B03041400060808004F525357F270F1330600000004000000360000006662782F33373742423045352D333230302D344233432D413737352D4244424346333544343038302F747269616E676C65732E62696E6366
310
60600000504B03041400060808004F52535788E57597CD3F000090410000420000006662782F33373742423045352D333230302D344233432D413737352D4244424346333544343038302F7265736F75726365732F322F305F67656E657269632E706E67355B773CD4FF1FBF73E71C0E67EF7576C9DEF3EC995D46C6A1EC50
310
46649CBDF79E192942562825CE965D8A868C2842C8DE9FDFD1F7E7F138F7078FCF6B3F5FCFD7EBFDFEC41B196891913091804020321D6D7513FC77D8C5070EC3FFEE51B21F068154CC75D455CC028A3EA68992803810109FDDE5D5CEC5521B28A1B422BF80741695D5B529DA1C2D058AD2388BDA9F476F7C2CADC939304173
310
DBF48A452BF8A700C0C70C3D121C1AA15A5270C22E2B9E28763651F7DA0D12CE11077B2ECD0D560B5E3DE2368B1E65C5E1C87384A4CC5F2D9FB8BE39E9B77C753783A37998F5CEF1B4FEE553463245C9712270880DF339E0B882A6BA713D865F6F384C842D440934EF264F4A304F8DE4EEFA1E2BF5E2D91F5ADD9613D6E31D
310
DB33ED31DB1D7916CAF091286EA3D31B9CFECB78BB0060245B943C4C040119FF780A74DD308BA9D028678674EB5504ECF284EE814DAED07440BAF649BE4B55DA2890F4D73E2D489A59EE54FDB0A85B59F2F52C4858A02705C4815A792B0C4A996A2023ECB195073E115E3E3647F64243A8338F2000BCB58DA5692C7E7C3D41
310
3F963FEDF3CF00FBB0F831A9D51360FECA43819F527B89FA260EB63C5DA676830AA3626A3693B23F1A17A0DFFCE3EE164E31B5365EDF0C89EF64D8E38AB0BA9A1117D7C3A0EC44F44F4023095E80BA610DE336D0F99593A88BFC5306E72DF98F7FD132ED95878DF2964EA7E43071359FD83B2BDF9C6B5BDF768F0F3C0FC351
310
199526F53D9460A34511F75D1B63E488178569472C91A94497807A3FD4A390C6558F26D416365C3656DE6E769DA9D8FC73774E1709812842DD8EF96AED1960F79D21B395CDDFE6F92CB4EB962A4668C76990E2EF29798C8941D67DA50F4A5F947872460F1F6FDB794E8A29FD7AC0C0D6E0714339CE258FB17AE8535221E346
310
4A10F29A0BE5EEECEFC5675926A89F49EB14E5711894F6586DB5754EB4D5DA9C6437EBA57DB97A24F8B8A8DB295FFD73266CF57E82694DF5166DDF93573AFE9C9C5EB05F8FEF8E89E0A8917B0B3724DB7BEBB53252581EFC3E38166BA131A3A5B42FE2AD00A769BBFA4458D2DE7822F8C4F63D0B8E21B285AE13325F3410A4
310
35C648C9D91FDEB109E73CEDA7BC796961AF79175E1A3CE4C5E8B0D009B0C9E29EFD98BC8E97554E3D8D838424E270F7685226E5AC268E021EDE3522D583E8F20C0BDE2959EF5BBFEEDAB32FE9A3ED0E39F211A86AA9DEBFC68182EDED132AB8BB794442D2D7EA9F4D8BFF52BC4D55BB165124EE90A42D101E67BBBB292FFB
310
4F66DE5BF2300E44546757DA7CEF8932BFC9F92A0707953491A55C5A5ACEDABD9FA1AEA01BAC3DC5A24E22E7C47213493996EFBC369D086ED9397C9BA6C7F9855C7BD5E15BFC8C53DB3D2A4C5901A57ACD2FBDF4D1676E95338B2C2BCE65FDA4C64F5FEFDC7D9CA5AA1FCF11E193F2FDABF0F4916BF13FB916A224380E6462
310
A9815F2300DC49CC4DF8D055CEF76462F4B7A7ACA7365C2707891370BC1D0AA6203C44CCAB47084FEC057F27FFCD57F89B8B9852459798A675C66BD7CE572CAF71FF7E6D7ECF7BF62CAB7B3F1107DCD04DC55A3F9961700286141C94A4F771FEB2BCDA2DDEE0CB0BAE402FF1DB0100F8E475DFFFC074DDB4498AB7D186A765
310
4DDB1CB680D703D47CEB4E72F8CB13D86A4AA68116E26387B93FD6738779B34FEDB8E517EDF2BAF28D9BE93A1D3A164320E07D42E514725C29515FF361754213EDE06B079A2E99EB1CA82A02019EADEEB87B9AF005BD04BBCECB14AACD6B24EFBE482194A97DD32400685FF1FEF1544D1B14EFB1E7F08E6D2CD2AF52DE757F
310
35F5E62332EE88EA26417AD5C3E0E319D68F25414E6D672BD4522B278C57D18F0113921C71D96527E091F00CEB15AE23D24667369BD3CEFA10C7549D930890BA4366F4EBC55F01F746109F98ABCDD5A3EE06619C6AD78AB33E48E4C9BD21BF7478B385EC05C4F8987E2C1BFA0A60EBEDAA0AE0B015C2720ECE180FB6F2DEFB
310
EB822D96338C9B63822183BBF52FB664A7AE57003AABCE512BF77E7E31BDA2E739AC4C131657DDFE5225E900FB56CC01CDE808FA4A9C9DA16AC679656BB64796283D89812B8F91136AE18EE5EBBAF47A73BE3C153EB5D4CD491B4BFB4FE690A4CF9ABA08C0D8AA64220C438C96EA6CA80B58FE5761E697B3A292EB9FBDA502
310
FA863E49FE694ADDFFF9D62C520BDD1A22014147A0903A05B9B729F54272EF83931FEEC057BFF8C8055C279EAC5C0011804828734024F6CFA319C9CC6867C727184465CD9BB7ED386AFFD96B294A85E3802FAE47244602D8273615952B98C4F23F7EAE4463D9D638EEE374A20959E0FE519C4CFB0FBFE5DD80C2AA3F9DB961
310
D1BDE57E67C9BB47B77FDD74EE3094F5DBBE3EBC1FBDB7393F5116263009E2EFE1AF9A221B2AE234C902BF70E9F280ED23E73908361565964333A3F01D0B006AF32FB21AA1316744B489D5A198E85299241735BE559675130955C902A8ED761FC0DBE337A9F91919AF5CE32AF902ADF9AB2615E00E8A94586BA1A90839B618
310
32FF1BFB76D2EFADE6DB1BA04CCAD3DA649E7E2A0219F592E22F2AD54847EEA8E42271011E9074F8F3DD9FBA6CDF88FFC9FC7E811AD1CA8F4557CE4AFC7BBEDCF0114A48689F20A584520C74DA8127124B767E2FB91A6B186246727BE63C9445BAE02088D58B8EFDC0F1072407CD9B89A13F6303B4A928F593AD489B58E686
310
9325790ADC406036C591729FE14021F94B7796BB11848D463536A092A26F077F94639F7CEEE2A724C66EC885F4A24F8B8A0AC321F8FD149BA529460FAA34E4663C02D41FDF80BCA222D42F0ABFF8490F4FA74C673807C2051D8E467B47B616072860069A9A303ABA9B319D58404461401B0A0F9BE5E1E151C14BC33B32ABE0
310
3DDE91708DFAEB15E7C0D593C86BB7D7EC17BE56E57975F077BFD5525F3A1A361D584A75E08CF29FC7B44B2B3085014F3A5A14517377C3F6B8F37E59514C3B12F8AACDEDDA4DFC49BE5710101534CD6FB6DE15B50F11A09472AABA727F0C49D9CB906B158030065F48EB3625E010CEC1D511D0053474B11E6A4F01C0D6EF1B
310
ED3A944FDEC70E0DDCDC756C86545910E0DAE3BE3AA9A404574C2995CD5CAF9549226BC94B4F4F0F5F9086F418F6B32346464610D8BC7391D3C3A3CCF04CFC1FB2A3A3170E369511868F14EEA4E5E438CC73DB1F3248AA94B6B2FF33B222FF3D1E7BF146CAD229770158063BCE4F5391964DF62F7E52A7BE0EEA829C9E13C4
310
C147D6F93FE59E111DAB5E4594D6F3CD1AD375EE039930EFE5AF2BB2D41C83C7DABD8C659BAFBE8FAB392CA634F3D15C1D945DB4588D2B0824A4EC928AAC565557CA2F0DAA588CA5BE30B3A8004F7BF005E96CBF891D7F18112A3619FDF530DC8AA64954258E1811789B5189B49B4EB53F5F89F7D37523894F3EB57B373763
310
C91E502F52CC99EB7BDDF933FC324C4FFC2561DFFA7339FAFDD0A4BFBE6D3A8FF9ED1FC49898139864602458968913181918F719CCF5A68B2EE9C1FF050E34E63107003B8120FA982C21B30A874E4F5E4B38D5A8290C4B8D9BE48A0BE31EA995BDC37AC6DE90BA17D259DEF53605D55922FEB1855D915B659FBEB350EE0DFB
310
2F9F766E1C84CC8964B75D08667445EAB966015F63A18A9E0A325C1B3DC628C0D3CB60F767FA93CC65F25458BD23C3B312716E5F40E5858AC06EBA9AB14F95DB99147B832069201541D09A0D856E12C629CF32683760EE855537D1901988D5EBC156676C7DD51D7207CF3267AF1D76C2AD867315E44618015313A98B19941C
310
696FED3461CAA9B5415F918556D7802EDACEFD6B2E45853A9735DFC9DBF7E440F9319F8B6805A973BCCDC76C069A9144E51F187EDCC12FC31B5DEAAF0A76137199B106EC84ADA6B6EE697D4E6A96E007417F4E880E8B1E89B4BCE9D81EF611E2ED8F0C1A6C25F620FAFAAB656A7C42D464880E8AFAB0E0FC8EA38CA9A8AEEA
310
EE3E4648BA4680270A89743CDD3E6C6CBF34B7B640EFA285ABC7EA0A1E28F3CC963D114A80123EE66D0AF7D5380EB41909B605AB4765B709B808590458157E69BA1378FEC4B48CAF6A730E3BE3C5EF2DD1A5EAF94B1DDE50CEB55DDFD7EE9A16747FA4B223359FB1FCC69E1194892BABB93A1D5C4E807AC0EA2E30180811E7
310
7A2291F6E7F7FAA5E0F60215BC6024E48DE436C511F0628B8CA189982D4D83CCA17D305A7E923C37941CFDFDCD93ACAF735EF5F0E61BBD3E6C41A59B242790D3A3BAC7064DCD89AA2E37214EC839820949D5CAA31E240D2948E48F690298974A96BA9A8432BC90F5071D6537C9666EA4564796B7AFFFA548077BEEA75F6308
310
3435074BA182F3699557397F71548383FDA8CA34D99B981E72835ECDA5DDDC151315173D05A21F651AAF8524E88209E2E7A737ED1045800CE3390050BCFB8BE588DF111617874C62575039CA588EEFDEFEFE319B739DE2EDC147092A262611E159650E787917885EF08F1F51B8F2D8A71D60B58B190FEF9541A1BE94BC19FE
310
A50784DA1419FE4B0FB51B8D36B5FF8E1286FD8AF42B91E59A5F1CC4D60174E764045FD8C57B18209B217F89A62252BD20BE0E63E12B8E8F029FE19E0E8D0870F58721A557082250D5424F7909369376E41666C0EE77CD87CB283F661D5FB6D0DA023CB67320A20DC7BE661E9E1BFE5463085C557DA1FF9BE835733766C3D1
310
39F2CF9E2208873AD0EB4814DE9E6BF2CAF81614D4D43906ED1C05A3265CABBFE192770FC2F64F940CB6B17B5F166F133C9AEEAD2641807C3E69515171DD74C4A85311513D6EC9530B3B601B6BA3EBFF3B5C3D2F7D69765141E345F75433953D013ADDF8F6AA7DC3F4A7563FE5C7D367937E2900D7EAD0F9FC9A4A1A9B5BDF
310
1FEF08532660C01C5D6DE22199AA774383E306DAB87E301ABB7D213887F9869D4942D0D71E94B27EDF216A318BD488D45DF84529EF575AF3C3938C0AAA0215B01994153E2054A0B894DA5C784980633AAD48576957CF4AEAEAFADC7C587368551C73DBE1E57C58AC713303A8BFC258BD04B51724459FF9E24C03A81E0E0679
310
CEB9B348C0DC998FEB9C6D6EFA77D247CC8F92D3848599ED89A23218D0636465AD1CEEB7DC140D7426F83491C4E8E8281C2FB35240918FFECE880CA2A42D70E8B20B34DF5221C7DB0CF90ECCB9C745B37A47E9B716FF7A97B7A252C1F3814DC7B1E1A7F72B8751D524EF7CAE45B0C73B3BE7D08ED39781B380DDFC9AA4A474
310
9C9493DB5BAD07A6EA6C092FBD0E85DB004DF06B8C9D3089C5320187E4CE1846158C7EA7DDAE8AD9AFFF21AA3A1026BB06A259845E8232DEE62811A4DA9CEAB3A4887320B76E2AE5615EAB7BDF738CBDD01F1E64064BC13D9EC53576751CA8CACD58B3CEB0E6CA585BD089B2A59B9FC101403387AADBDBE70586B93D64BF3A
310
D4453EF9C3B6A93817E8346991798601344F79A83C51F3D50F7BF2683A3605F51A72449489E0EE6169C749C60B1035651103AEE24D24E51A759C840DD3FC6504DA6FE107510E447B43461C79D22970B75DE5E1BD3007D1AFC619A4A4A69B5626AF5E9B8374E20677F77E2F8E73DF868E8BEC7EBA7B6A75EEF7205E1AB9486C
310
B642741D6E03FF13FCCEDB1C4AC129886268B01CDF4B124AF797CF784F3C6DEC97A17D4B558070A0F1C04DA4FF9BDBF34159AEFE958479824B3F58EBD1E19088A2AFDE501B6F2052368A3FD0E650A179EFAB1561E1D27527077136E652676C3670F42DCB3352F48F6BC86D2C3B0051727E41A0A4DC6CE2BE9D47F5CAA2935A
310
3C0539AF080665997194ABECD723B08129CC5B6B21D2E7D54CD4D12610E7E9FB8306771A89576C7A982002775ED44F3F744CF21EEBB27A631671D921938AAEE3EB0D19CD1E083727F607823E817BF599DCED5394E37EEBC2E88782E638920CA641EF74D4CDFCDEF06F4278ECB18E31E7E9876F2D783C8BF429C75395F57E98
310
C2B495A3DA077EB3AC3C158608B6B57FE3EA48484D9A480096FCEE0DE880950E7E5A5714131C5C41AAA29FD19AE81AC145FA1B9E85C7169A5AB837B213493DF7E9AA4B5FBF9CDEB36EBD21EF1181B7CF7366AB2A951D01E37AF4EB835D1BE8C117CFBE7625D2EBCDB0B20C5A4B45CED0BCDE3EE8DA9DA78C2E21DEAAFFD119
310
7E463C33CC6A80FB785669B856EFF7A8CCCA2841B5A5369173320B1170C368B2748D81062EA0296E5E2D95D7667A4A46D98A6FF475C76AAB0A8C8D45E226FAFC9FE0133EA9F60111F99CA81ACE03A1D14C89E8B0D69079C91464FA1D99E651D0EAF606F345C42A8A1AA9BA391031582B96D5B4176A77AADB01F12FD298A75D
310
EEBB2C82F0B8650E880722F8DDD90C56A7A058E5FDEF1AC93545BA27367C76F5D8F9690CB6F8DAE141EDD7971F0FB548A2AE435F224D6E5954CA155512F7332029D5A1230854B79F258EC5FFDB09F5F6343A8EB193229B7F7E79B3E48F8E183860B38C8269D1B53738FF1E0BACF6AADA6D4869E9DE708E79B5DADCC09B1BC7
310
6F649731CFAF59A83FD8BAE4C749D66FA87A3810D4D62FFE826FA400C0F325D2BC0F3CA35F5847B82A2ACC7961745C823E4D863D54460AF792CE6F79B5C7A33B25C3AEA6CDE15A919B6367D781E9D44F61BF828672594A3E1D9EDD6DF179A81F27EAC05B936575D73E05C209DDD2115CFB705DF9BBF3C911589B3640735E9E
310
618FC9C36A7326C82B2205E244C55D56FDB9D5DC93CE958D4BF8174D2B3DA54CB3C09F2C2A6DFF73D23B2197355761AD421EC581284A7EF8DE2CE3497C0C804D49B41DFD6A7360844E5BEFFB495CFCDB97A4595911CDBA623274CE852B5E278AF0BEB1770E9D37CD977B2766A7DED0E94B840E1E95E8C77DE5CB6354AF7871
310
427C28ADBEEF7BA0A28E19DE9ACD75F379FE373EAE6DDDAE3834692F9C2B03B4FCA8FCA9ABE8EEEBEBB725B88A7C90941E850682CA04061A7DF0CE82ED49BFAFFD42C309818FAE14755CAAE78B0F73243ECCCAD7DF58FCB9CDFAE7A4D3E6671A613639130D056C8383C8F4FCF4808C331E544DD26E4755D09EA05253B3049A
310
1E32587CC25D72E073E2CD96D04A71BBCB0038FEC3F53D254199C3CDC67CD66640269431860225392B2CB3ECD0B4498AAE78BA1994246AE1EE78F2EDFB79F6C6CB6B5E279C4D373FBC21CB2698C9ACBBEB6A4BB6B39E16AB0E421CCBFC7654D81ED86022F9BB522146F9F4772E2D0E4FA70120C95A85A417BF5078B232F475
310
4363EB1750B2AC2148EB46B1EA72AD9B4D23ADCBC589D70106C3EC2ABEEED84DFE28E718C6C83502C28E9FDD3B09DA0A6F6F7B72B706A31C9E2A331EE70DA56A083D2177BFD63C55B11D8D949FAFCF90B23A1E24B9B5018B9A17E99F2890EC302F330FE7936E2C23F0D237EC8916F5166AB84B62A21BB0B950146962D754F9
310
2CC2C8877BED8FC7B7B25726DD19545392570B3A2C66B58F027BEF412E552D12A588C4A3CC5C3193FCB3485EFFF700D0B9EEC077754A33DC1FB9E25AF814628F91DDFECB667D3F7690803F38D13F8AE39353523BB08FC6760144AFA2CE28236F65EDBB3D5F59A57D612B99E3D7E5F8A851666BF9B5A6658EFC96EEB37A378A
310
BB0EB3FDDF1303AF32C41BD1C8560745D7BD81066B0D6313359CF488563D3BA3F8E2185D1FAA3EBA1397C9D0E3DD232180A4DCADB6AF25DB3AC3CC26589C8239E66E81547BC7E2F328F9884764CA37EB5DBE390DFC03A5246B456A7C3684C4377D0EEF9A350680FA9A077E8B2957B489E09AB1AD41316944C2254B5984830F
310
691C93CAA767EECF976FA5647538830B5E63236A6F0365C1E0F3E327F24FE35EDDBD7360B0F7374837409F7A6311BECC12B7026D4FA1AE204FA3F5FE904B1F420C7A9044AE58E403E7C4848E7DA25DC9EDAC79DD756FAA26B9EA83ACE8A214A2612A22AFA19DAE7DBAC5F8CDE1292A485F98DAC731A29FE01A3966E96BCB9F
310
B5A4C8830E1B9AF0C54B87FBE221A097036E5D28D1F869F810C06A9BB0AC0612F69AEBAF893C6E7AD59460208BAB3A6B09CA4F6BDDAB8CF0D1F84B72487498395A70DCD754796E271099A567A55CF242BBED64696378BB6CF25EF0FCDB589F3A82F1116D010A9AB9FA4358809EE0C973A2B4229BAA876A70B03AB49CBA7FBE
310
71DB1832FFD32F9BF2C8E98075CACAFB36921235D0F552B6A67E94E094097A5D7DF681B40623DA535ADA7A9AD8E9A62407D7C9A5AE51D62A17A83A23728DE86BB56115804D3F2675F2C6B87541A0FC497BF0CA86420F558C9859EBE9FAD62747E323E3AADC03FDCDDFE7407B09DA90B44E3185723C5381EAEF589765E2F7A0
310
99BA46695BAD60CEF3491B8A171F5F56444F7CE9455312C3498C74173AEA0214EC029833B34B650CBB5A5508D5091665309642791708ECF27CF11DB3D797D6CFE474453BD4BFADB768094B2147814D81C7CBAF8228DCAF5564B5891F5EF6A860EB2E323CB82AB868D8EA048880D63B0DE5341F1B3D53297B928A11E15F25E5
310
148990F710747C3509ED14909C552EBE3973246FCE55D00564D8310BC3EBC5085D08D806799B77D6C57FDF5E55837F9E934F09C03C729271B64F12D0A9F9E938107CAF7BF1EC8CF1BB9B42363D33070F4CACB425E605DDB0A34A12BB936DE286B9887A4E2E558F0886498BFF49C311D96C277CF6A9FC0D75AD0ECC5226D7E0
310
E3572012E56D7FDE4410CEC7A6D0F997F225A2055B8B92E3956E875AE4993CB3D4C9063AF98FD45E1BAB165640A43439A2C9181A7C355B297C0A0CCFFAE19B6FA3C2BA238A885FBC98B8F6DAF4B94B97304878DF4D8BFF6A4AEDF79E90ED4E68F00CD7299F4E0D83E35601AF0CBEF18C1E870E74758FA91F5131075004DB3C
310
FCF09AE1DABC11957FD9808C92E8A678CE9DBE40DDA0E0D1D505AAFBCBA208232BFB6FB3704E8985E61ADE53DE74152F5C7DE74B1DEDCD37DC3E8FB30D7EBA8B9EFFC3606BF90B8D438279CB7709FC7C00D327F41817EEA71CD9E49FE9C8C9A81C70915D9F0F15958EC5AA4C3BBFAF46986B90F188BDB24B89DE3C6F29EC3E
310
6F66D84856EE96A35E657CA41B41EFD8DBFA16AD6E91439EA92B40B21C053249F51AE50EB0B24C770FFAF40DF12C8436366819C48E36547D4E7B72FE2BBF10828583057814A668BDF183F6B2E58DFB151103E56303E63D00F39C27C4661605DB644D19175D02E3F0241E8FC3458D17AAAADB117CE9EEA690D0DB01E634878C
310
04C2C9310B69FCAB831151E3AD293BEF6E46B0ABCECB50F5939B39C613D41E81FAE8D34CAE3C4566B761D37185FE864AC32FCB71AEF39DAA5BAB88609BB980CD2F07A8F941653B529567726E2B2A58D079DD57E1E5E31426CF184A04D7B03B985F276D47406AF276FE32E3328BA866EB1FD39BEF57863A317634AA5FE46740
310
9B3873F5069EF0D71AF00AD189D17BA1974ECDB2D623E9E14086386A6AAB5807825C37B015BFE892AFD154920EC437EB945D958E18622E1E0FE2FA06557CE4BB9BBD05A2D40E774DA2B65473791E314B7D6C886820B2FCFE4AA272B3B8B15E7344A145E8AF919B5454D89D36D413E87211186BF6F645E5EC94DCCE8E1C7990
310
22E4EC9BC86D7A0F2AFB1FC4B2CE48F84B3F49ECE65BAD24CADCC07EFF39AB06BE9E6B27A059938EA7208838455383DDBCFCD967DDE4650EF92A14FF933C975DB20BD7FEEBC4487576485963D757D16340D9599FEB362F775F38CA4185A86F74B629C81B133644A3B18FD056E997E0734F9BE26D11C0AAFC669E2AC9FC41D2
310
81F8B2E1C35AE27BCE05F3DA295488096688719D974DF1B5D182DB7792288697F8763CFB43562C1CDEE11C4AABD5C22B6E33F6F389CFC3477C5919DC0D533F8A7A1846B7ADB60ABDC26C43D0CFC8910B7C15EE22675BD02702ED39DB77A87A192CA7A543E6205B979B9F5A6B512A3CA799E198B2D5797C0AF8D1D872CA455D
310
4D431A7879D4DD76110B5FF7F4176B54477A9EB5E4A5D11214FDA585F0382751D8E2582BA5D2075053298FEB8F1537304E32CB22C2E2B693DC0A760B1DFCA751BDC445AFDCBB12820ED85F6D5298933C7EF1211E9E057684056CDA3FEF3BB6052355E162DF27C59E965A8DDB7F9437EB72CDDA3A090DE65A5B2F50326247B7
310
EC67B73ACC7047FC9B353D6EE990F772207C6EC52B39DC2F3C0754821DAB559F7C1809C7D0DD5B0499D0442E0A6E391B3D5DB46D11E731E6794EC77523FBDAA242ED67F9FA1FB684255671F63C9BCFE6E7E896D51001A6113EF2298BA494E0B0980D1FA5B9D60796554C02256B1E0345FB7C6186B6A19D2DCA270416262845
310
FA4F42DB5D9B0A0B6F07FCA2E56C242522E001E0CEB734AF310FC8BFB57E38E03AACE93B3326A2197891E68452B26A6307FDABFEE0223D3C03C3C73D2D5BC054C8311F12004CAE488E5C29287F8156A2CAA4AD0D7BE6B97264E4139F437CE73ADF52E5134C52B819777C18B323A5924E4F67AFD13B1CDC3A61793A79FAF5C0
310
CEB718E441071E797C6DCCB9EFCF7E4A1E9F3DF3C2F9C9E8294E9586868788C972857FB0556D7A26941A7EEB9B580AD78EC40B85DC906B4120A563CA3B87797ED612D3B035962BB75F6515A393F4CB057F564CDF54F2E5A024514E6A1F901DB80C7E70B1FC05E356A7E72FABF4775B3E3FB8F70A2A8E7B6A94542BB3041579
310
78CCC999E707A29CC795E67A59CC546A5D47B368954CA7B6E75EC9E1F6FC73CE3B4F71F8CB1A6B15923D61EAAEB14626AAA9D04A26EB9C66CD1BE86CA31A5D8703DE04CD1EBCE4F5CCB62F93909AD11E55799A781A956ED27D3E738F4538CB04ADABC7DAEF20BC35BA6A90BCC1DC61BA05F20D8832FFB9BC9B15E2DB838A0A
310
FBB7E0C82A562127E0446894F427794C3037186F622BF24DE1B00AA10A23BFA47B2A180D6DA5AD6F7326FEB8C100C2D7142EB2A0B2A9D1008A09BA343D70E054AB69E2A7EDB783CBD92537FAF4A44D1296AC2792729104B3276C276C951D0CF3CF3F1E6B017720A7B8505A5FF9589365979678C36F1BAF759EAF57C60F1FF5
310
FE9DCF5F8E764FF25A2D06CF25117A8FED51884C13B2B750DB0E4F5E3D64124FCF11F0AD8F1CC3B3DA4B38ED22BF1CB2585EE6BFEBBA63FBFD44F9537B9B37BDD6B358720F98A8125AED4349CCFEB0E135F19E208A04CA7E2B10711185D72E381F448036EF57C9F874E54A971CA37A639E986AC0226DC5AA00D5B14FEA9192
310
234B3DE617814FC221C92F33F1D392F297731B567FD98FD91D989379AF567A65B8ADF177591DB90FBEA99BF4ED11B16E50A0AB1DBF1156D034BBE04D69D08F939D8E92BF525A1DDAFF80ECBC95D8F45D3FDD289FD23F7D8B452F8EBB34EC082DEEE68E18EDDF072060FAD2AB1504DD4879BF67099FC58F6E9DEFBF645D1633
310
4A3E9A127C6F1AF6132CF287E433B43A0EE93812B4AA0B194E03EE3FF91EF9C6ED0074A2F6EB18A96A7C9890B1FCDA1F2095E944DB911ED54C60DF16FB74C8CE9BDC7C54C4F14078CF73C2FFF1F1BBCCD7CF64F71407EA1683DBC410D226627F66E509060D5C0AFD611DE681D509DB8DD12FB1265B03C6F5C55FF4C30BD941
310
87FF692B4F152982502F193098A789526A038AB529A52BC0DC4FB6285CBAC10A8B8DB75DCD9BDABBB221E27D1F8DA9F5EE5926A1C8AA9BA9BC09239C6A7F12914EA3B59EFF7AAEC3FFCCE56F1C5C2980AD072793527565E774F4631DB178CEEC691B1F367BEA0CF2907E1D6B854D527065979DDEF002D8B2ACEA7CE21AE297
310
737EDE1D45B31233B73FEA35BCFDD0B09721FDBAF6432681F2FD10C3E9EFB246FD6E854B344ACC9D8A0EEF876A7314B49B6A499FC650B099D650DBFEC7638ADFD245E2B7839DA5AC5F7D5623FC0ECEEC8653FC9B2BDD1AD4D00A566FBA7186DD3C9CD26512551637498CADB950FEC71ADB9A5524285DE328B8EC7EC75D2345
310
AEC6A27C42AF6D9B92155315C80DBFCABBB7DA0FAE425C4FB896B15C9BFAC4FE67DF5A23D30C93DA4D8F36FB15D100050DA6062E22AEC5F4DAC4F6FEEF97AE05DE63C6D38F9E068A20BC5E3B6BCD75320C5090924E7F93640A7735B1A43451C2D91EE62C6238B797349E59890AF3A520DF4A87095F3ABEC2E61F0593416CE4
310
6CDCBE0E00E2523FCCD04408588B5B6C9DB6459C786CE378770B54F51DA3A5E1DF2A3349BEAAC234A6CF8993B598B3B25B4B113E353A4D750FA7534749430F3EBF2512E7EA3FD43C6AB9A1F765A58463B306721A15D224FAFE8C6F5E3432D57EE697DA0DD5A9D4866A8BCCAAA9DFF1F06047851408FEC060471D0E3EB86BFA
310
F46E4B5E60311DC3E3CEA147C75CF971BE74689507154FF2D2E92F15CDB2B9182B11459FD8ACAC5A85F174BC94A7F4EE4C4F5CAFA7C02E37BF0BC77B7DCD0C047BC316F562A01A441AFA7931CC84A28CB9F4AA367EB515778F29BFE61195FA671F4352E5E46E3A64773F1F76EE5EB36D7BCE9BCEAD837A4D77F8DB8C92AEEF
310
6711920D7C7D0F76B0FD0EB7AB83724CD35BCA7D36DDDF5FBB7FF6F04A91F3E2BB3B8F1A43CD659639507FF6331C5F697BCC782AE57D757A27D97F1AB9E0AEDB43F92F1B2AACDF5FEC8ADBAF9F814E2027003BA2F9E144B1938A7A04050AE5D953B82C45619165C813A10E76DD6906B3C16438064D14CDA713AEC420034613
310
E1AC7241904A49FBF87409AFB1FCB9B72FE7933A87D8FBEDACECE4EDCF6A4FE9FB94D5DEB74FAB7CFEAE17EE965DF980DCCA2D04134994F9A2E94D2265DA4FE6AA7B7AC15FACAC2B5ABBCD7DFF542C5314FDAB2E1B9D8B65220B8E2B638BE008E8DCA22678C820C5053664D15E89F2D735B51A84955E81A443545E9FF787BE
310
0FA700A76D136C27DA179A7C6E8939E01BE756E19CB292798063D8B97F44E8A27BCF3A614FEB8BE974A718E86F7EC99B53CA35FA24F61F2B07266684623A3D4CF073E511F3A10A8FDAFAF0078C577F4DF9D339FE7862E5FA47CF4344209E5BF76D783B1B48E152AD281B15FCB934DCDA49CEC5706B1EE8B460F435324A5CAD
310
154725E21AB8044B75A557A79F6C807B9340AA3D92503E866F4274412926C8C504E4D5EF8C0E68DD0B028781A6B4054F11CF18941F101C57CCC796773ABC8DED9CD91FE5788806C05E548895354AEAC96546D55B0E94A59F148D061F42AA398D822CDECA4CDE79E13469BDCC44FDC990F366BA5978C15F97ED80CBFD73B0CD
310
9B8B83A4F6845BDFBFAF034019473FB9A63BD55D3A4A7284757071574029A4D016DCCBE95DD679EF3C4880BF169422F8C89B68A988D2B13793CAED4F74DE7486C72DC94DF46B8E93D8E02EFCB1FF9B3BA10C8AE7F653DF94F4AF466CDDCEF5776687F7C4C14B63E4EED1719DC2EC482D7DBCC7AE518CDE3D5FF86D39000EC3
310
673C0044E1D308BF05F74D1B5F033A7D1BE7F74BC55BBE3E4A20F920946CA0271EB17BD2B80E5660ACB8A29A79F5E4BBA49D4D945B6EEF4A7EFEAA65E5555BBB57A7E15D2F83C69F30BBB978D2B39F1F26FC097424D39BB33CA3D87ABF64E307938B685BAD44F71556A30B7E712CA4FE600613C3E554B69ADE949A7CFE214D
310
F1FFF05CB82151EC6FC31950239F94CF7AD39DC473F6EA356E5EC2C4EFA04383CEFE985A127484366FBEE3C0EC4FEA363E4F6632AE781392FD45D67B63FB8DF70E82734F431FD3443172A0E30A83D60982D55FA6A2CF86DBA8382502ACC6CDEF3B907982EED1160E14863FA242F9757347E1544275CCDCF71ECD5F8621CBEA
310
326B8BA884AD7F825781923E66971F04010D574C541D8427A438A37EEF8AF88240EED7362C953F5A81DE2D56109CDE2524EA0F5D2F87308C0C47BD97AD605878AB8589E17CA83930CB5E0DCCD75853D68B1AB136594926DE426C367428E9334AFAFF90ECE221BB5DC9E5BB53D2CDEF954EAA9CD814F0E5725F1965DD458E5F
310
8487683AD86B9D0076BE3EE91EB1CECC5331A67A3F79D8B27587C12EC2A6A70474749F27B4C0BBAFB94B34189E88DC18964BE4121B9137FD516C7755356E50D6714E31ACD222621EBBCD1CFF81D87479056A9DA0E0B8EA19D24CF937DA89F78E8650CCBDC110AAB6C4E46DCBFD0446BA9E2060E81F314AC2031E88135E5476
310
AC0160EF5C0DD2EEF1B8B5CB2D198BE9A554A9093B5F7D7E4B5407DDFCA1D9C152FD97F55BFFFDFE802954DFEC8995B983E28AC92F1971E28F531DC407A1280EB125F64A72E617EFB27DFBCEDCDA2D6F2BDADA36873EE46B9BE1782998C63DA7182BC383FB6FD15DA472B175D7E8B4FC88F38D6E07FEAA3FA3CBB8F6B449EC
310
F14D2175E5C5CCA3A42ABF24CA6C9395AF74535F4DDB38CB84F56614B0FD32D7E19CA5CF988DB4449C40E23DF2B16772594554579094450F56F253CD25EA7F77366FB1CFE79696C428BB64D5A41E986189427E5E4D7E2DAE3D5BB4972B3DC44EAABDDDD63A2264ECFA5C786EB0EE1FDC5BE34FA0F08376869FD1E61EA06CAE
310
15191135445EE8F0394161C3266A596AA035572BB0C8876180D8B9C77D307DF9DCDF7365ABDA6F3A2366436457A4DFC1F259666569A9E4A79C817BDD5610E5200FCE894A358EC72858D50EF67545DA81C6FACE3D457BAF70367E1E6BDD9A952FB4F56247F58F523B97E640246051A72F79BE42FFA0B3187F63097F91C48B86
310
8586F714B0EBD5A00A8412C1236E1298F60C72BE6C96B82B404CADAA304AE9F303176B14BA53FBC2D5E86377E35542019E24D97B96A49B2C0E5006E7795954DEAF5DA58958839043C6C70BD3B1B33B6DC5C31316D8A6923F142E26F6711A2258AF977DDF1F970ECC4F1F2B434B96D81BEB6E89BF3BBB3C7C8CC80505070723
310
D6D7D7D3C8CA27CA164A26024FED94B12A86031867241DA53D929636DA600F050BC40CE48B8BA03D69224720DEE2ED2127390BDF5E6EA64527BBD4C4C63FA76BB801FEEC0E61218EC98A8A86CD8313781617877E66692839B9468CF4DB8E50A73986E558E309C0D6F676F921BE02F1185454DC75B111572FF9D27D85EA14C0
310
5AD7271225B391C4275659CA4A43759D0BA44639BE4C30A84DB7F67A41399FB95CBF923B1B1672ABC807C1590557FB18D811983FA97F5E609516D62281D38B1281F68FC75528C35E4CD7DF0F7DBB5E5DD69C414EBEA2F4A5B241B996BA77AE6C772E367408C633EA3E438B68563EA8BE7667F3A4C4FDEEA52ABD78A2820F44
310
3B7914A15F180018D231E64519C56A12F6CA7C8DAE18F06F6B769DBF92329EF6A5D18FBCE600F36BD8E8198DE5CDAA96181F3A756EBA5501CEE58F497EA4F418A2B82565B9BCC611713C0B708CCA1F398B78C5F7D03B3437CC18F13061F55C7BEDADD5ACB1DB0E36D3CE47FF6EA1A563A57E9649EA5D14D1A50EAA45746338
310
1C073777EF1600607BAF6428A7DDC079D47A204EF1E1F1F0589FB054D45E02CE623B3823C317C601E589E22B1E88B448524B86A82828E32345EC18AE17214B42F8C41C6D428016D9BA31DDCB47572561E5A402E5BA4FCE55F78AF7268524AA04130F3A20BA5D1E9F9948EA48FC8F5314FDB35E21898198060034ACE5E3E2BB
310
CA34092518F275190AF65F45867FF0900AA4B81F25427414C372BF51DC29AA855C5428EE1EEDD6B849AD60F6E73475C2D2523F8A2772C840A478DED18A8C5C91B085F255DC4F54EA7AA8947354FD17ECF8FB3B4A0DE7B483CAF3A1165EE05BBA413E5C1FEF3DE1D6B8F2F3F3251C17D9FCAB48A9AAF63AC773A0E413BBC46A
310
9ADF84A566FC920E4D8C52C9769EE3301CADEEEDD92B312E02E2A7E35B7F1E7D203FE5A7D75578B06E99D0E46FFADB8FDA17ED8880390DA29094202D6F645F76F6F96409CDA05495A96E84B04A00D1A6C6C81D7F3DE9376E828CCF144EE50E364ACCE7237EA0BFB5607ED1AC3CFE73794E5B61739D14DF1743441B1AC98F00
310
ECEDE9E7301FA29755FBEFA68C91EF2B314CF510537EF1ABFC9A762496280B546F5EDAAF8A5B387D469FC9A878A92828C88608453ACEC6094DCA54111E7AD5B2663DFE2DD151B7F123B9F4FEF8EE36AB125FD7AD52A59B1B765B3E3F73E3F73DEA93875004D2AFFE3CDE9493B87A9904DD052028949041A91DC0E1BA47BA71
310
4343FD5B25E0A6A09503AFC17C790058A836A324FE31D7893512E28230332F153181C1E018E1124EBE1BA262AA428A518237D1EA7275E48C5C561BD19ED6912EDD8367DA0F31E40EEAE9683DA9257525AEA7B632B97119E17145A90231768A4F3B9120FF32E8319B015E3CBE26F1A754177D8185345817C096B0CE443A955D
310
13AC15E1FB5DEEA0239EC32A3C92241A237B0B02FFCB4F93CF2B02570C8D192E2F2A68CEEB42F12E6F8CEEFF46C251E22B4341C56FB08CCE550E7A9D6F4D6564B9EA52A83D5BF2C6E03FA19D2775E15A8A7ACF30A13C259EE7F5EF2AC3BA354F1500E1A07FC63FB4686E2F12EC69719F9ECF5FE3F35598DF2CE944008CE78F
310
0911BA5BE5D0A34E0098FF038669C26030BA9B300303039852A8F6F496341737CA7E0D2E3AAA36DE0A70AA7D9CA0D54D9AD84B18A44C9E625475E1C97B93BEBB38DCE7D227E67A2D00F531436136355F243D1FC0D712C5765754FA22FCFFAE97919161F46D6E61ACB37D83777B385889770B50765B127768443A5C4D3A4E35
310
A3151111F146B7CA116F918A049F1C272F2CD7976C69A0068773451659A97E0F4A08FE604C3FF6CE7385DB19F4D3ABC8A0D80DA8A42096AC377DB49382B36E270B6FA7570188B4B7D1DDDDA82ACA487CCA5D38BD3BD039ADBAFA4ACFF27809239B722081E2EB9F145320553D183F28471C388BC8814E5045676767AB58A8E7
310
2D1CED2CA731379515D2E533E4CF0B39DFC625F97AC4836831A4DE330E87A8126FA17EBE583D614E71E22A8DBF2825599743E0640037303E8E1B1E8EA4E1ABFA4F62907B5E4E0E5DCFDAB417C36C6848A2B8D15F1E505434C0707E16B1CFC2A1C36A42BBF55734F8F4301DDC2A5110CEE8C0747F69519265012A2174BF4E95
310
5ECD4FDE095A3ABC70536B7AD0B9D7892F81287D667C108703C9B66A221E9A0929D030008F77FF6F5D2108EF5706FC87A3069B976F7C9FC3239D13D283CDEA83597461079FEEE049B0F392889898B7D87D31F8D60ED7B56B91823A8E4EDDB36C6172ECEE42BD42B12CD67994FA0F0DFAE9389356F4CD4425A4B8AA55CBF7EC
310
D585C6A2C2316791E43D5C06841ADBB226A87FD61515FFBB0167B74E56BD7F3E90A57A97FEDCBDF483A0D6699A8C0849CAEB4947FAA90D8E332D9DEBD9F4738C37DA0CAF9CF3DAA68BCB67C420459C7A64498D6E848E5CADE92BB6901F607AA331104A67F7CD650EE169B1DAE94D2C31C2F993632259B6957E246EFE4C5481
310
107B07118607700040E5812A2A2A38DA0076875258C753F60E0F2662C748EDD5F3F3686B8FC3BD6FE631ECCAA1E8B1C1E565AD117E54893E79F4672E32F9E46B2A183DFDCF3EECB4D4D077DBEA0DA254D256045109670050129E9B9B1A9E4A11344D61497A992778095151510C4BB7EF2009B63AA4360635312E4CF668B7E0
310
D3D85A8688E2BD83B569439892ADB63461930D428E0DE42E4AC57CE48DA5CC1449530D8BD3D6A0F08DF20C8E8F570F2CFFFCEA286E30969B4654D498A58D9DA782E19FE3F002181838925592C4A1EF0B332D88B61A92C644547BED490D3A42CFFAB70E36D961F694F6307F72FF15A1C79D5B1B5CEFD353D9E2B52566DEC8F8
310
F09CB3E8359C0F68EBBB7898243E34E12A015B2685AB303C04D3A9E00671FF3DFF0A184E4A2ABEB2B666AF5B3A209C73D8EF29DCDB069C9F391EEE9DD0F74C7BCDE16F8F02E3B8816122BBEB50665775B600549D8BB33A54A6BF940C028118BC6878C79958D6784F9DEAA6E26748386FFAF8D0D0101E2847B6563F5D8DC1D7
310
8F787BE00E2C941AE12148D4A81599FE8F68D4DA5CDED75530ADE138240300EE13B0FC13A1687FED6774662C05A2B7DFB186732F0D7A93545D8B0A6390AE5054D9CB582DA846D7A061B3358B45E2B52DDE63E114397EDB7E09233A579155D795BE76102CF277F4DF8B188C4F2879BEAE3C08347124BF9ED23B128259FE107D
310
31E34A652F090B30B39E0D9AF917B76A2806135621A8A60681F16AF216514BBD02711585B5B1AE823F4B2D0369EA5B6BCB863072727FFC871CA6C9AB79A814D989057E9470A3D238BC87CBB4A0EA49AFE2B86F22E499793CAA9047080450166BDC357524561E258C77CB697F1ABB32562CF87C3B7AA12F911EF19FB3E5C022
310
22E887D08202A60A17151F5E053A86B437771088B4FEE14D652C43E8D939995D34545E12E2FF93D4E366EAD25F10CB7DED141563C3D0C447AF06078A91135FD4B9611583CB4BF3BD167F2399CEAB0E0100F8FFC305F00F1711717173138B4B48C83022295DE657EFEDD97F238ECA80F528AFB4F8D67AD4E2594B9A3AA86D74
310
87EFC313BA95745C186F0CDD84CC12DC9CB0424B42203D351FD9C0A3AF10CC7F388E0329279087386421F194F4A29464C1DEF7EF8BE515E4A199DCD5B909342598D8FE6A231F71336248D5CEC5454455C7BE383B3BC7B260FED27F703FDC39A170F3827239102F59D4DEE7FEF82EAA1A5E4BA94DCC4CC44E7E2EDE20F24244
310
E4454369D2E87C3F823F193FD4FD27E1C23984B01898D15ABC20711A8A558054951A6AE280096BA36CBA439603B7B0B4C45F248C14B2383B4B5CD8ECECE4FF859AD4A6CA2326D020EF090F4041D28DB66E5256B56232CC52829DE8060BAE6BBF37D4B7469B822454FE93210A3E8D15E69FFCF01123222611C51C4FD0A041A0
310
CFA2471CF6BE38D2B20FA4C3525B5B8B586759475CF80ADFE67A284AC24651E52B8E683D24C2622642F27E7C3C22783BCF63648BC398BD6CD0D9C97E7E7E3EACB6126DB7A6C1FD9F1031302EE67ED96F22B77C7CA0239BB324207559B105E4693EB26EC46182A92C9C0DBD24F29B31C5C5AC1F84300E0E17CEEAC15F5736FA
310
4A98971E2F1423BFCD68D4BBD5F86E74B40A369F39507C88FCDB35D2DD8DEBEA4AF999E23CF2816D204200DF6E611781B9884C1AC8888B4DE397320472959434323A5A36B22A8E1F721A270DF3BD65E4A31C11FF048AFB0D8B7B6881423793963A23CFCE935FC189ED36FAE35C46DA3574C979E4394BE52084F3081837BE03
310
3396D2EBD80F1F691B273F660D2B32FA27A33B1DE4ADA5F0FA4651511102DFA410DDA86E065272CA314D5249DF91B06BB92807B28EFD54F08F7B525252782CD276DD02E6B0319B13DF87B1F6361AD6B28FC0D711CF445429B9E5A433CD493051C49A9E03DDB1B147D880253514A5DED88009018620EE229101C041950E2D8A
310
A8E1F5F5438E0C0C0C60EEDEE9E3E0C051948C69F84BB7B2A48A1F3C8EB9E6864687F4F4F6F6E2FA87608ADAF9C5E117B7C1A737E710769DA1D15ECE6A84502AA855398712D5FB51BE92E4EF824969CE18278798AC303C2C7980DD2500ADF8FB1E6D6C2FAAFF9987178923334A244758BAA01A9A1B70FA5097D01E1CC2A58D
310
AD0EC94CE6430AA9B0C10D75E3C6BAC670EFBADEE1607739CE0FC18A2587E3EC3058562014C64219C69BC269082D5C2F4A659278D585755912176D78A1B641719C2A394CED495A1AC5D583FD2F5EDD93308EA7EAE8A6DD396598BDBD3D4CFED62D18A5BDFDE0DD5C80D1A89BA62697B131AE7CE9A6594138582F1B37D68F17
310
49AC7CB67A70695D48A4A056AC1FBD4E82358CEAE38F54B95A9016F9000F9879C0D9D131768635CA798895F27D6F1614F11F2838A83611AA51C9A3DDB539D42979C29F10465655C17BEC3E2760B80DCBF609198C7B171A531905F3EC218D696025975E986C6B4C666666787271F202805577DD5A3EF0CAFAF91B62DC4B2DB4
310
217A7606282F31D8DDBC290593BAA93EA6353AFA9939B877978481E15CFC9F2755CDC00C538F63A4BA3E80AE009B73CA0185687D339A507D165B74290D6EE46D5C58148F020C3668ABE9EF2F7549170DC80DB41FFC1D678FF19AEB10C7133832B104B80F691B3138F97A92D26E551F1F110400D45AC71A9B9AC41A1A1B1DAE
310
ED0B0810638EFFB511D46B121C6FEA0F38CD00E03CFFEB9713FE1F9C263E4DDEC160D0497FA9A132BA608584057FB15380825DE6C7FC3C667EE947D488A09898D8E939C4953BF4EC9836344D2CC6B2971B2A21A572B06096F4982D2CC7232D46E8EA69DC83722E267754D777F97F96D5DA74E1E75178084D0E70F12AD33E5F
310
71EF2AFA599B2BEBF60A5BE475F444F240CBFE8143C334E7ED9150FEEFEF7EB020C4DBED388DD1D6A167A76F3CBF119B578AE8CFA7736ACAFA4440A1C47185638A0D2F3EB5BDDEFDA958FB13CE4AA4923D5BF840392D45544329525749734866684BF7F8D9D54D892E19BCA9F829A0F8BFCBEEA6CFDFC61D74EA1A645ED7A1
310
FF241739F15694BD835B66FEC5677E40FE69BD3F91AE402F036537218A401CB0828604AD189E575015C6F3F6BBC8AC79CF6C70653847254B31551EFCBEB5978B9DB85D58D0FA41A9DFE9C624834AA04949D24B5AE6D299E072D152D12097920F14AA92C31C3B97E28B6C2E6E9C23D63043ECBBC0A60FDF5BD0C33C127EA8A3
310
308B8B6AFFEB28B4455BF6E7AF4FC6222728357EB8E46E85053E6A8843AB23295BF838ABDA94658FEF3F832F147046B4ACD6F7D48E8FCC9618582961C898D1C7A253C91BFECBDA6BA18A1FCF70755DCCEE2222F41B76D23CA98D0CB3D95F0CF66D57FFF65E2A90F5DF40FC3187621E981BD0BC1D992787212688976B94A8F0
310
C6EF646624B570B78E068826F87CE27041A95C9A4871FF65CC17FCB1639629AD6A9517000D63AC231F3D741CB8430777E7ECF80CE7A3F73C0F162F7E56AA71F4DA80A33CD6ACEE78E2C11FAC03DAFCE929B106F8F6B3ED2DC71FF994BD9CEF4E9A94896EF1B6E2B7B4978168BCF0847A3D2A4F1B0500B926E634B174548E9F
310
BAD27153FB5FC36799B1E6C7C38A94E1F9E996796D7B485E635D5287A2AE76FBD11A341DB3F8F810385BB7296391973DC6C37C452A9305AEBBE0CDB6C566DB59FE60C8E94B1FD090354BF51439FFD1B48D725228FFA88C84F686F547107A7A235665A4593B7C34D748C1AC8D56DD5DA861EEFBADDECBBD65117E65851F9035
310
1AEB65F0EFCFF4BCFEF24CB7A5879699FAC437A7AF9099186CF006BB923A59E37D7A36A29FD8D2CBB914A5E9D0A8FD212FBF796AE9A67958FF1D5D8B85F78F96219D4714EB919929241B6C018AAE0C02069F8D919961EC5DDFBFB7573E3AC8E08BFB7C8534BE6DE045B3CD63DBD71F7638BA2309CAE398EA3A7D8F98BBBC7A
310
EB367EFA5CFA27A9F8F2F52FE878058E6209C026453F8E7E8A237DFC389E9590F6059B397CFD65183BBF936E86896612A5B5FEE49DAC8455D026218AFEBEC12B3523A45B57B82C9C97E02ACFA1184DB18E48CF615DBF39C3CC6F0B4AE6BBEEA2E39D944E290302FA3DE33FA7E40296E2EF7BF1CD855BBECFAD0FD622BEE974
310
6FC4FDFDE545AE6E3BC234CADF83A0FB76DFB145BF3828AE3436368AC24989454F8FF70A177672C711CAA1A76107218CF948CA01F873520E7A2B118EBB161ABAD432932029628B6761590C98AB590C8C8C79798CE9F715BA696E839E9131A4BB68BE923F1747FBFF165331FFDD4D05997ACD168F12CA75348DAC04C7F509FE
310
83898A8B421181AF492861CE81E4A2DD0A30850CFA95E05F097FF70F9E777310D584A75BA7018922E271DAB1D785671157685B7D383D3E074DDB4F1E44EF04B07BAAC75A062077C54B9752C738C9D804D402E02851F3F89605AF189738C18C021D2139EAF72513824E10DDD3047BACC8521ED7E98B257D1166903B1B08FA6F
310
918FD7E162913FEC7D0EF4787E29C35FBA8C6E2C9C20E9AB30AE42CA2A01A090E7D010C1B5BF9CEE2A304BF3A987FB40D836979B79E18D70F257DA61E808472DD85B82761825779D6B90CAEB0F23360C6F80A7D7D77545E95B3DFF0CF96A827F9B5BCECD2C9698718417EF80FEEDEE938AFF55859D0D540B7FE09435583A6F
310
04874A0C7E8CF234DF4879722000167F5872CEC6BF3EF7E5A8CC8121E6A359227C8A29C95212F9F735BC72A887D56B8F309FC525BFB4FD767AAEC4AEFF249CFBBD2DE1AB9969A6155C7D8DABC307E47324C1F916C7BCFF40ABA5644E9FFB9238D19ADADA49D9610F01ABBA57E4DFCBDCCBB2B93C8953206C91DE01B0E2651A
310
6D6C31721915B31F7B7CBCE55466F6D70402788FA91D73BE4ADCBA99A35F17D6B83383704917D6833F0FA3CD45C926ADB8BC17999A4A0AFBCE2541F7B8CF4C2F5FBA611B3E626D64407CB32C122DFF4EF8674D6EDBB86C8F7C6A16D50FA685E2CCA34F8F7D1D8265BB0042E9D7F1F666F7BE5FAA5184DF58E12122A42EF02F
310
461B3F369AC746F96528AD208512AB56844CF75B97F352DF7995024FB02855385854F3798670D01CAC771AC3E1889EC25F61A20C1F8CAB46898817F9C47E2CDA1F286BF2F358298709FE567C91133E2638C8B53975E753EA8BFD3578B5F7186B7BF084EBA3F77BAC3132A5779902EC22AF2D2E79F42D324E083386DAEE9810
310
D1B44A5DAA54513C7A71E52A4AB9257D975B621308FE4D2141CC3DCFE946C154A3C1DFCCA7629EC69ACFA831634ADDA93C0388D2A9A2DDAFCF957C6995BCE7FBB6DC4EBAE79E63EB08E9A25F52F67076F7093CA545CA3053B5BF576DEAD4E0017143C5F759F32B2D6F145B52B67B48909B7C7FCA6586EE385A2189C16932CB
310
6DDFD9152AE317C430492A578ED27B72D85D40C7C93C097939E1B50F4D67F05334FE9DC362C30B7FF561B95259138ECFD9274C8D695C31B14D4EAA9F3D7FA8DDF652F8C5DEFA23284C799B7D94416DEE81E05A866302DC70192A5368EA65E1CED8BF107A1E2D3119A71E85DC1A7B0C1E93274CE04DD0F2ABC8AC7C987FDB00
310
2B6F81757B43502EF7A0D92E416494FAEEA4C9C090CD9557AA4D532F4996A272B94355C5A0E4974EEA9627476F30809B94D8D8D860062E02204643BEC7D0438AF800FC7E2B26955D595421E83C69E1A07E0E3122285835F014AD538188CF9737CE76D464A353FA55A001AB2526B84E985083693BC76FE211CA1D000679C889
310
E3C009832C87E1AC2EDD05C302557422DF0800E316FCAC86978A371F025A6C7DAA9F333E7BD160403A1A06EA75AA9888FF01504B03041400060808004F52535751464CB48900000043010000360000006662782F33373742423045352D333230302D344233432D413737352D4244424346333544343038302F646972656374
310
6F72792E786D6C9D8F310EC2300C45AF127987122606C71DD918B841D4B851A43646695A717C52A85029031293A5A76FBF6FACEF7DA7264E43906840EF0FA03836E242F406C6DCEE4EA06AC22492573150D1F66C60C640E8938CB705396EEDD86DE9B5042FE27813D640EA63BB001C722AF6E55CB61E4863F58284D5D3F53D
310
D715CE1C3985E63FD7F1B7EBDD617E9F1E504B03041400060808004F52535773E229614A070000541C0000340000006662782F33373742423045352D333230302D344233432D413737352D4244424346333544343038302F6F626A656374732E786D6CDD595B6FE23814FE2B56F665F72124215060441915684768D499D1A0
310
59ED5B6482A1DE3A1739494BF7D7EFB16387380D90CE455A2D9520759CE373BE733F99BE3F440C3D119ED124BEB6BC9E6B211287C996C6FB6BABC877F6D842EF6768CA9324AFEDB3508C23726D89656B36DDF3A448D5D296EC70C19AAB77F3BF5016929858286438CBAEAD2C7C2011EEE1224FB6247BEC6D718E7BFBDDA1E7
310
F5CA8D26D93DC7E943E3A8147312E7C02AACC7404571E099FF8248CE6CEA880DC636BFDBB6FE996D8E14DC6494C6598EE3F015578DE3FA27B86A1CE77B83E56D7F38B18783816F0FAEFA9E3DBF9B2F6D6FE4BB8BABC56272733BB1D06CBA491256292025F116B4F862CDBCA923EE54E22B14DAF80E933826A142B36DC39628
310
BA94644D4C0C603D295A4D21A5ACB505BFA3F027B67502C560C9405B0BA77FEBD69B6CFE0610B22E56CA3322AC3CCB39E85A615FFA833B75CA55432F344311CE09A7982146371C7350106C2D15649011DE2248218199D4A2A657E7150CFBB22FB571B92B1813FE6BCDA4A705E08F24CF2467F41FC28FDCD74F039E40DA82C6
310
F958099BBFA440623275E46279CFEFAB9B259068C7F01EAC05C4149BFC7E03AF858805ABA535FB78B739AC457C683F3CE5494A782E2C4F3AB3F23BADC19A6981F17500A5C4D5D4DD1195AF00FD2740BEE2054D41739C1E068781969DE338DB253C02ED2017D92E7CB9485CBEBA9A3AD5C333848C58790A5370DB9F84A92186
310
71760DD2D9F4098C3EE1BE126E1D6206367D4F63E1E760288825B004F17EB73958B31504535884A73003E9E16FEA884B043F251D88370D0DB585DF0E8AD20ED3F4B3A3AE3E80CD701A56AA32643C85EFF0A7E07BB35C7F5C177C874372AF1C7B497634A63924D376860CD00D97FFB6FA243DF2034B36981D9F36368570CC3E
310
1171A3452D6BA51624F5029C88345C6A46AEDC53F076C6704C922253EB6D712A4C58C283CD4B50BA70EB597F6A1B280F5306D01ACB20B9879CA602136BA6B45505C25E4D50B030CC9505EE4BAD069B224A031C25452C42ED6B536CF201714658225095D4B4616BAFD564B774B72B32085EAD24170690CA9F35E1D2C20710C7
310
DAF8E564C73124D1240E28E4607096D6138C032AF0CEF39C11B60B28634514EC28833C1244383D41BFA304F5CCF5485E9E13BE6D25685A96F6496D43027005AC064967AB32E62B9D72F244459929F399CE06C60E55875AB3C189742132450BA0DA18A5990FFBAE3B1EDDFAF6EDC2F5EC813F1ED8E39BF1C8EE2F6FFC05944D
310
E3C90DB8BFB21289C0315AD5F31DA852943986FFE50F45B4893165704350C0DBF4DD7B993DAF1D088D8E3F1ACDE7EEEDD0F681097B30F717F6CD6834B4E7CBF9E2CE1F2E07EED87538C99282872473FA8E1B68934CE3FD29AEAA582AB216C80FDF0A52286B2E273BADAFA630FFE318DACC098612FFAB41B48A5D2D0561D720
310
2A1E6D86501C3E8A14158450F5B5BA4F238836F9688B736F8CCB6ECF77E5C7F3267D77D21F4F86C38E614F9EF4C391AE4D86103ACF220F921487346F4FA90D643AB2FCA6ECD2F3BD61898DFEEEF711E0D579B562EA7C66524C0534C27B12ECB0E82B5A42E925895BB3DE9E2559466392C9BEF055BDD8A0E9F68EF15765E916
310
B3A55910911C7F8FC5CA46A3E10510CD59001D6C2E660817EB88CA0554CF728AA2E89721D54BF95F820C47292B7BE34B18787D1DEC7557D466A1826971C413D86780F3C0DD1239EAB844BD625F5714AD5A6B529F7C37F913F0E84AE817C2A38FE85E6CF586DE447CC61086AE869E7F35AA5471092D7D582E7A3F5640B71ABE
310
04CF84EE1F3A15A7DDB4522BF3CA423C2711B4BE382F78278FBD8268A26D4B0BA42243C3256A27BDB1A0943D9FEEFAE030D9F49D2A896BC740ED4A63988D7512E49514AD462C7521E78062DCF506CFD6D85CA4FAC311F39757D975F78BA038EC820354D86509ACE28F5187B756EA460D953DE33C8450BA96BFF61C3C624BB6
310
C766CE20D756D6EB9AF652C5BD12213582292F1691F65E5CB0AF18540D1D77E67C280B3DA75C5F89D4D68381F6910F836993D6E70FEB061558E9FCF4178111796E5050AB0BD1419F21F56D759C1334282889BEADCE3CFE9FE842B4026BDD084C90B3845118E4932DDA9304F2378C2A3A74283C2299CCCBC7CE46BF45E8F0F4
310
533987CDF186E9BE287CC030CC66AA7F2B4218A442CEBCB6D43AFA0D46A7627A29075ABD4768DD540CB350C1E9B505169B53E8D07A1B1881C981A3A4DE18718263E3782F327EF954F5FFF1B1571D5BB5A70B2E4A32C399A0144EE5BB05A8FBCA1BB3E9F78BAED9413887CB4D9157C21C178ED22810F44B84523898143E2A78
310
0F50529C97CBEBC93D4613DB699A7FD60E4AAA768EF95E8EE46B3679B3FCE28869FAEA334A59B117EA3CD7311B946CD1A9B3A29C5C4DC1309498291655E4E29DF38527F05A2A4277148C00FD7E185FFDE12C92284AE272C9B9512FB7D0FA015E556D1D3D2684D6DFF5C68E9C1CA85701C10667A487B7D9232C806A3915F3D4
310
1262C300AA685A3300AD11A10B78CCD8BF5A22551DD5A62AF5B02BE091EF0110389278FF23DCA6BEA136B4045F00AEE4CDE3855E983A1C06E7B37F01504B03041400060808004F525357D6CECBC7E0000000550100003C0000006662782F33373742423045352D333230302D344233432D413737352D424442434633354434
310
3038302F7265736F75726365732F322F636E782E786D6C4D90CD6E03210C845F0521F5B82C6C2E69C49297C8A9978882B34501BCE2A74ADEBE9052A9275B339FACF1C8F32378F20D293B8C2B158C5302D1A075715B692DB7E948C959C98458FE6194441D60A55DA64A6E09EB3E240B375D7D57BD8BF721F2EB06119233D73D
310
6E9418AF735E69365F1034D3B5A0857C675617CD044B90B12603ED447101C609934017B0542D7C394C824FE2FD22F8491C4F07F121E74E2AF989E807EF628184FBDBC20DB635B6445CCE1D50B22637A8FE4633FEE2B1164FCECD563297D43A185879EE0D73416F30BF905F57C9B93FD9C6AB81367B21EA07504B0304140006
310
0808004F525357FF15A4A45D000000800000003A0000006662782F33373742423045352D333230302D344233432D413737352D4244424346333544343038302F7265736F75726365732F636E782E786D6C4D8B3B0E80201005AF42B6F75B59F0390B113044D83508C6E30BC6C26AF226F3B8BA6360974DA7271430F523308B
310
2B198F9B80925DB700539227A2FCCB80A18E5640D320F996A81C9F32D6E9129A0D1EF74FCE750E6D57BC7165FBCA07504B03041400060808004F5253572F7369074101000056050000300000006662782F33373742423045352D333230302D344233432D413737352D4244424346333544343038302F636E782E786D6CCD94
310
416EC3201045AF6221756930CE268D3091BAE809BAA8BAC378E2D2D860C1B86A6E5F4849D2AA8ADA45A464878687F4FFCC67C4FA631C8A77F0C138DB104E2B5280D5AE33B66FC88C9B72498AB514DE39FC8691C2AA111A92CA448ADEBB79CAA50E366A1E527530769B8B0AD19B764608A4D0830AA12141BFC2A8A89AD17510
310
B6B453A828A71E829BBD86F81ECD08F9BDF6A0103A22EBAA5E94BC2AF9FD13AF567CB95AF017C1122945EBDC90796311BC9BEEEA4ABB78B4514E255802A498BDC954F240E4491B6D8D152CDE4B11A25EDB670E7753E2A669305A616C14731A01CB08811A05FB82A560C9F10FDF8F0FCF270DF1D4190F1A9DDF5DAD0DFC5C1B
310
8ED2684CC4FFBAB007FF32EFDAB768F97A733F6B380BBB98DD4372438CEEEF24C43C29DB0FB7F8018ED22E9FFFB858D0E85B347D507621CF6CBF02E3E0D346949F504B03041400060808004F5253577B852C387E000000A30000000B0000006662782F636E782E786D6C4D8C410EC2201405AF42FE1EFD4A095D008DB47A8F
310
C6D28648C160311E5F305DB87AC9E4CDC8EEB37AF2B6E9E56250703A20101BEE7172615190B799B6403A2D538CDBDF0D481857ABA062D07249313F7734D979CCBE52EFC263874C0863F0CA293B23D2C6B09E5E84E0D40CA6BF313E34D862318E5529F3EB95AD79FD05504B03041400060808004F525357A6D797065F000000
310
8200000007000000636E782E786D6C4DCB3B0E80201045D1AD90E9FD7516806B51190811670C8A61F982B1B0BAC9C97B72CA7B1037C6D3332918DA1E04D2CAC69353902EDB8C20262D23F3F59B81A079470595414B17391D1F19B4730A5583A7ED43BBE4025D9592775E5ADFFA01504B03041400060808004F525357ECFD11
310
2DA800000026010000130000005B436F6E74656E745F54797065735D2E786D6C7D4F4B0EC22010BD0A61DF525D18634ABB506FE00510A79458060253536F2FD89D5197F3FED3F68B9BD80362B21E25DFD40D6780DADF2C1AC9671AAA3D677DD75E9E0112CB5A4C928F44E12044D22338956A1F003333F8E814E5331A1194BE
310
2B0362DB343BA13D122055543278D79E6050F344ECBC6478EDCD76CE8EABAE5449AE4298AC56946789C28AAFBEABC53F3EAF09A84A1441B91F0101CD4780756578C173A578FFDDBD00504B03041400060808004F5253573DEE336E64000000790000001B0000006175746F6465736B2D64657369676E2D7061636B6167652E
310
786D6C35CBC10E83200C00D05F21DCA56CA76D41FC96062B120735B69A7DBE268BB7777961F8D5AF396893C2ADB70FE7ADA196782C2DF776D7A97B5933C430F15651E5469C55D70F80A4992A3ADC954792C525AE70A1E4D6AD9816CC044FEFDF01FE3FDE907802504B03041400060808004F52535708D19384F20000008E01
310
00003D0000006662782F33373742423045352D333230302D344233432D413737352D4244424346333544343038302F7265736F75726365732F322F636F72652E786D6C8550CB6EC32010FC156BEFD880A3D8893051DC285FD0536F0888831283C5A3EAE71762576A4F3DED6A76667677D8E96B7E569FDA07E3EC00A4C65069
310
2B9D32761A20C51BEAA13A71E69D8BBF68505931EB010A0C9C4DDEA56583A4B351DB825AA7F4068A1074844A3E73334090773D8B5AA49819E1512F423EC4A46B52AF3CCE52326A931A95DDCCCD680FFC40F1198F14A391767BB4DB8D1734F6B44364DF5DAFFDF9ADBD1C086B8A98B368E69FEDD26B11B5024E316D11C1881C
310
DE093E92FED8920FD614266721FAFCF3B6B47C97E9AC59D13F6E6951FFBB2563634B37B755118097E35E03CE9A924E2EAFE8722D49F26F504B03041400060808004F525357C3D91761F8000000960100003B0000006662782F33373742423045352D333230302D344233432D413737352D4244424346333544343038302F72
310
65736F75726365732F636F72652E786D6C8550CB6E833010FC15B477836DA24022E32834CA17F4D49B6536C44AB0911F553FBF3850A93DF5B4ABD999D9DD11A7AFE9597CA20FC6D90E5849A140ABDD60ECD8418A37D2427192C23B177FD1A0B06AC20E320C528CDEA57983B4B3116D46AD1B7003550818A1D0CFA5E920E83B
310
4EAA54292E8CF02867A51F6AC492952B4F8A94CCB049CDB0B8999B410FF2C0E999F69C929E377BB2DBF517D2B7BC216CDF5CAFEDF9ADBE1C98A8B2588A68A69FEDDAA38A3880E494D78451C20EEF8C1E597BACD987A832538A10FDF2F3B6347F07D26370C96B0CA25AA77F5CD33CFCEF9A8C8D35DF5C574500998F7C0DA4A8
310
724A4B7945B8D49CA8FC06504B03041400060808004F525357DC6D76ABF2000000B1010000310000006662782F33373742423045352D333230302D344233432D413737352D4244424346333544343038302F636F72652E786D6C8D50CB6EC32010FC156BEFD86062398D30519DB45FD0536F0888831283C5A3EAE71762576A
310
6F392D9A9D6166871DBFE77BF5A57D30CE0E406A0C95B6D22963A70152BCA03D5447CEBC73F10F0D2A2B663D408181B3C9BBB46C9074366A5B50EB94DE4011828E50C97B7E0C10E455CFA216296646B8D58B903731E99AD42B8FB368E65FA9F45A44AD80B7B8A58860445E3E083E90FD81924FD61426672919B5591995DDCD
310
C5680F9CF6FD38E2B70ED11663B41BE909BDF67D87C6F3787AA7DD7987F7983545CC59883EDFBC7D52AE7B56BE0AFF654E8B7A22B3B191B69BE1AA08C049CEF35870D69402F378B49B67299BFF00504B03041400060808004F525357F833807553010000DD0200000C0000006662782F636F72652E786D6C8D525D6F832014
310
FD2B867715B069ED8234754D7FC19EF646913A52058360FAF3077EC4F9B06E314172EEBDE7DC7302393DDB261A84E9A5560540090491505C5752D50570F61EE7203A5162B4B63FDA40A4582B0A106040496DB4EB66886B65850AA8D2959841D6F7C2828837FE52809E7F899625CC59DFD13F928EF107AB458292A98F12E764
310
358FCACAB3C9BB1406D023866758621897F8B08F77BBF21297393EC4687FB85EF3F37B7639229286614AAC6C17756E04B3A20214439CC508C6E8F881E01BCADF32F449D2D049496F8DF73C8B067780DE6F4F924EF886CF75D5DF7C4E2A9BE1996F9AE8010DEB8D054AD2908FFF8DE16D33F4C23E3FCB6ECD62E1E1A14170AB
310
CDCE572AEDD6D2C01A273C358CC68FA453D5338F04BFF1E0173CAF397C504CD57E3566FDF5E66C50DFEED409130FF619296D5AD6ACCB4D2BAEE72AB4B1B48C73DD68F39FE9C5EA12661A1E26FD06504B03041400060808004F5253572D21767406010000B201000008000000636F72652E786D6C8D50416EC32010FC0ADA3B
310
36E02876224C1437CA0B7AEA8D1AE2A2D860018EDADF1762576A6F3D2D9A99DD19869F3EA7113DB40FC6D91668410069DB3B65ECD0C2126FB8017412DC3B177FC9005939E916320C820FDE2DF306F5CE466D336A9DD21B2843D011503FA6470BA1FFD0932CE4129322DC8B59F67739E88216AB4EF068A69FD5DE6B19B502C1
310
08AB3025981E5E2939D2E658D1375E66A5E0CB62D4666554723737A33D88032367D231823B56EFF16ED75D70D7B01AD37D7DBD36E797EA72A0BCCCCB8287E8D39FB723296744413EB22F2F574AF077E7C64D904229E4ECF80582F032137F422FB3FA47686363C5B683EB460091033D89649C1B4CE3596F9AB96DF10D504B01
310
0214001400060808004F5253570000000000000000000000003700000000000000000000000000000000006662782F33373742423045352D333230302D344233432D413737352D4244424346333544343038302F617474726962757465732E62696E504B010214001400060808004F52535700000000000000000000000035
310
00000000000000000000000000550000006662782F33373742423045352D333230302D344233432D413737352D4244424346333544343038302F76657274696365732E62696E504B010214001400060808004F525357F270F13306000000040000003600000000000000000000000000A80000006662782F33373742423045
310
352D333230302D344233432D413737352D4244424346333544343038302F747269616E676C65732E62696E504B010214001400060808004F52535788E57597CD3F0000904100004200000000000000000000000000020100006662782F33373742423045352D333230302D344233432D413737352D42444243463335443430
310
38302F7265736F75726365732F322F305F67656E657269632E706E67504B010214001400060808004F52535751464CB4890000004301000036000000000000000000000000002F4100006662782F33373742423045352D333230302D344233432D413737352D4244424346333544343038302F6469726563746F72792E786D
310
6C504B010214001400060808004F52535773E229614A070000541C000034000000000000000000000000000C4200006662782F33373742423045352D333230302D344233432D413737352D4244424346333544343038302F6F626A656374732E786D6C504B010214001400060808004F525357D6CECBC7E000000055010000
310
3C00000000000000000000000000A84900006662782F33373742423045352D333230302D344233432D413737352D4244424346333544343038302F7265736F75726365732F322F636E782E786D6C504B010214001400060808004F525357FF15A4A45D000000800000003A00000000000000000000000000E24A0000666278
310
2F33373742423045352D333230302D344233432D413737352D4244424346333544343038302F7265736F75726365732F636E782E786D6C504B010214001400060808004F5253572F73690741010000560500003000000000000000000000000000974B00006662782F33373742423045352D333230302D344233432D413737
310
352D4244424346333544343038302F636E782E786D6C504B010214001400060808004F5253577B852C387E000000A30000000B00000000000000000000000000264D00006662782F636E782E786D6C504B010214001400060808004F525357A6D797065F000000820000000700000000000000000000000000CD4D0000636E
310
782E786D6C504B010214001400060808004F525357ECFD112DA8000000260100001300000000000000000000000000514E00005B436F6E74656E745F54797065735D2E786D6C504B010214001400060808004F5253573DEE336E64000000790000001B000000000000000000000000002A4F00006175746F6465736B2D6465
310
7369676E2D7061636B6167652E786D6C504B010214001400060808004F52535708D19384F20000008E0100003D00000000000000000000000000C74F00006662782F33373742423045352D333230302D344233432D413737352D4244424346333544343038302F7265736F75726365732F322F636F72652E786D6C504B0102
310
14001400060808004F525357C3D91761F8000000960100003B00000000000000000000000000145100006662782F33373742423045352D333230302D344233432D413737352D4244424346333544343038302F7265736F75726365732F636F72652E786D6C504B010214001400060808004F525357DC6D76ABF2000000B101
310
00003100000000000000000000000000655200006662782F33373742423045352D333230302D344233432D413737352D4244424346333544343038302F636F72652E786D6C504B010214001400060808004F525357F833807553010000DD0200000C00000000000000000000000000A65300006662782F636F72652E786D6C
310
504B010214001400060808004F5253572D21767406010000B2010000080000000000000000000000000023550000636F72652E786D6C504B050600000000120012002D0600004F5600000000
  0
XRECORD
  5
135C
102
{ACAD_REACTORS
330
135B
102
}
330
135B
100
AcDbXrecord
280
     1
102
DISPLAYNAME
  1
Imperial24
102
FLAGS
 90
        0
  0
CELLSTYLEMAP
  5
1351
102
{ACAD_REACTORS
330
550
102
}
330
550
100
AcDbCellStyleMap
 90
        3
300
CELLSTYLE
  1
TABLEFORMAT_BEGIN
 90
        5
170
     1
 91
        0
 92
    32768
 62
   257
 93
        1
300
CONTENTFORMAT
  1
CONTENTFORMAT_BEGIN
 90
        0
 91
        0
 92
      512
 93
        0
300

 40
0.0
140
1.0
 94
        5
 62
     0
340
55
144
0.25
309
CONTENTFORMAT_END
171
     1
301
MARGIN
  1
CELLMARGIN_BEGIN
 40
0.06
 40
0.06
 40
0.06
 40
0.06
 40
0.18
 40
0.18
309
CELLMARGIN_END
 94
        6
 95
        1
302
GRIDFORMAT
  1
GRIDFORMAT_BEGIN
 90
        0
 91
        1
 62
     0
 92
       -2
340
0
 93
        0
 40
0.045
309
GRIDFORMAT_END
 95
        2
302
GRIDFORMAT
  1
GRIDFORMAT_BEGIN
 90
        0
 91
        1
 62
     0
 92
       -2
340
0
 93
        0
 40
0.045
309
GRIDFORMAT_END
 95
        4
302
GRIDFORMAT
  1
GRIDFORMAT_BEGIN
 90
        0
 91
        1
 62
     0
 92
       -2
340
0
 93
        0
 40
0.045
309
GRIDFORMAT_END
 95
        8
302
GRIDFORMAT
  1
GRIDFORMAT_BEGIN
 90
        0
 91
        1
 62
     0
 92
       -2
340
0
 93
        0
 40
0.045
309
GRIDFORMAT_END
 95
       16
302
GRIDFORMAT
  1
GRIDFORMAT_BEGIN
 90
        0
 91
        1
 62
     0
 92
       -2
340
0
 93
        0
 40
0.045
309
GRIDFORMAT_END
 95
       32
302
GRIDFORMAT
  1
GRIDFORMAT_BEGIN
 90
        0
 91
        1
 62
     0
 92
       -2
340
0
 93
        0
 40
0.045
309
GRIDFORMAT_END
309
TABLEFORMAT_END
  1
CELLSTYLE_BEGIN
 90
        1
 91
        1
300
_TITLE
309
CELLSTYLE_END
300
CELLSTYLE
  1
TABLEFORMAT_BEGIN
 90
        5
170
     1
 91
        0
 92
        0
 62
   257
 93
        1
300
CONTENTFORMAT
  1
CONTENTFORMAT_BEGIN
 90
        0
 91
        0
 92
      512
 93
        0
300

 40
0.0
140
1.0
 94
        5
 62
     0
340
55
144
0.18
309
CONTENTFORMAT_END
171
     1
301
MARGIN
  1
CELLMARGIN_BEGIN
 40
0.06
 40
0.06
 40
0.06
 40
0.06
 40
0.18
 40
0.18
309
CELLMARGIN_END
 94
        6
 95
        1
302
GRIDFORMAT
  1
GRIDFORMAT_BEGIN
 90
        0
 91
        1
 62
     0
 92
       -2
340
0
 93
        0
 40
0.045
309
GRIDFORMAT_END
 95
        2
302
GRIDFORMAT
  1
GRIDFORMAT_BEGIN
 90
        0
 91
        1
 62
     0
 92
       -2
340
0
 93
        0
 40
0.045
309
GRIDFORMAT_END
 95
        4
302
GRIDFORMAT
  1
GRIDFORMAT_BEGIN
 90
        0
 91
        1
 62
     0
 92
       -2
340
0
 93
        0
 40
0.045
309
GRIDFORMAT_END
 95
        8
302
GRIDFORMAT
  1
GRIDFORMAT_BEGIN
 90
        0
 91
        1
 62
     0
 92
       -2
340
0
 93
        0
 40
0.045
309
GRIDFORMAT_END
 95
       16
302
GRIDFORMAT
  1
GRIDFORMAT_BEGIN
 90
        0
 91
        1
 62
     0
 92
       -2
340
0
 93
        0
 40
0.045
309
GRIDFORMAT_END
 95
       32
302
GRIDFORMAT
  1
GRIDFORMAT_BEGIN
 90
        0
 91
        1
 62
     0
 92
       -2
340
0
 93
        0
 40
0.045
309
GRIDFORMAT_END
309
TABLEFORMAT_END
  1
CELLSTYLE_BEGIN
 90
        2
 91
        1
300
_HEADER
309
CELLSTYLE_END
300
CELLSTYLE
  1
TABLEFORMAT_BEGIN
 90
        5
170
     1
 91
        0
 92
        0
 62
   257
 93
        1
300
CONTENTFORMAT
  1
CONTENTFORMAT_BEGIN
 90
        0
 91
        0
 92
      512
 93
        0
300

 40
0.0
140
1.0
 94
        2
 62
     0
340
55
144
0.18
309
CONTENTFORMAT_END
171
     1
301
MARGIN
  1
CELLMARGIN_BEGIN
 40
0.06
 40
0.06
 40
0.06
 40
0.06
 40
0.18
 40
0.18
309
CELLMARGIN_END
 94
        6
 95
        1
302
GRIDFORMAT
  1
GRIDFORMAT_BEGIN
 90
        0
 91
        1
 62
     0
 92
       -2
340
0
 93
        0
 40
0.045
309
GRIDFORMAT_END
 95
        2
302
GRIDFORMAT
  1
GRIDFORMAT_BEGIN
 90
        0
 91
        1
 62
     0
 92
       -2
340
0
 93
        0
 40
0.045
309
GRIDFORMAT_END
 95
        4
302
GRIDFORMAT
  1
GRIDFORMAT_BEGIN
 90
        0
 91
        1
 62
     0
 92
       -2
340
0
 93
        0
 40
0.045
309
GRIDFORMAT_END
 95
        8
302
GRIDFORMAT
  1
GRIDFORMAT_BEGIN
 90
        0
 91
        1
 62
     0
 92
       -2
340
0
 93
        0
 40
0.045
309
GRIDFORMAT_END
 95
       16
302
GRIDFORMAT
  1
GRIDFORMAT_BEGIN
 90
        0
 91
        1
 62
     0
 92
       -2
340
0
 93
        0
 40
0.045
309
GRIDFORMAT_END
 95
       32
302
GRIDFORMAT
  1
GRIDFORMAT_BEGIN
 90
        0
 91
        1
 62
     0
 92
       -2
340
0
 93
        0
 40
0.045
309
GRIDFORMAT_END
309
TABLEFORMAT_END
  1
CELLSTYLE_BEGIN
 90
        3
 91
        2
300
_DATA
309
CELLSTYLE_END
  0
ENDSEC
  0
SECTION
  2
ACDSDATA
 70
     2
 71
     8
  0
ACDSSCHEMA
 90
        0
  1
AcDb_Thumbnail_Schema
  2
AcDbDs::ID
280
    10
 91
        8
  2
Thumbnail_Data
280
    15
 91
        0
101
ACDSRECORD
 95
        0
 90
        1
  2
AcDbDs::TreatedAsObjectData
280
     1
291
     1
101
ACDSRECORD
 95
        0
 90
        2
  2
AcDbDs::Legacy
280
     1
291
     1
101
ACDSRECORD
  1
AcDbDs::ID
 90
        3
  2
AcDs:Indexable
280
     1
291
     1
101
ACDSRECORD
  1
AcDbDs::ID
 90
        4
  2
AcDbDs::HandleAttribute
280
     7
282
     1
  0
ACDSSCHEMA
 90
        1
  1
AcDbDs::TreatedAsObjectDataSchema
  2
AcDbDs::TreatedAsObjectData
280
     1
 91
        0
  0
ACDSSCHEMA
 90
        2
  1
AcDbDs::LegacySchema
  2
AcDbDs::Legacy
280
     1
 91
        0
  0
ACDSSCHEMA
 90
        3
  1
AcDbDs::IndexedPropertySchema
  2
AcDs:Indexable
280
     1
 91
        0
  0
ACDSSCHEMA
 90
        4
  1
AcDbDs::HandleAttributeSchema
  2
AcDbDs::HandleAttribute
280
     7
 91
        1
284
     1
  0
ACDSRECORD
 90
        0
  2
AcDbDs::ID
280
    10
320
72
  2
Thumbnail_Data
280
    15
 94
     1557
310
89504E470D0A1A0A0000000D49484452000001000000006608030000001376BFA700000300504C5445212830FFFFFF2128300000000000000000000000000000000000000000000000000000330000660000990000CC0000FF0033000033330033660033990033CC0033FF0066000066330066660066990066CC0066FF0099
310
000099330099660099990099CC0099FF00CC0000CC3300CC6600CC9900CCCC00CCFF00FF0000FF3300FF6600FF9900FFCC00FFFF3300003300333300663300993300CC3300FF3333003333333333663333993333CC3333FF3366003366333366663366993366CC3366FF3399003399333399663399993399CC3399FF33CC00
310
33CC3333CC6633CC9933CCCC33CCFF33FF0033FF3333FF6633FF9933FFCC33FFFF6600006600336600666600996600CC6600FF6633006633336633666633996633CC6633FF6666006666336666666666996666CC6666FF6699006699336699666699996699CC6699FF66CC0066CC3366CC6666CC9966CCCC66CCFF66FF0066
310
FF3366FF6666FF9966FFCC66FFFF9900009900339900669900999900CC9900FF9933009933339933669933999933CC9933FF9966009966339966669966999966CC9966FF9999009999339999669999999999CC9999FF99CC0099CC3399CC6699CC9999CCCC99CCFF99FF0099FF3399FF6699FF9999FFCC99FFFFCC0000CC00
310
33CC0066CC0099CC00CCCC00FFCC3300CC3333CC3366CC3399CC33CCCC33FFCC6600CC6633CC6666CC6699CC66CCCC66FFCC9900CC9933CC9966CC9999CC99CCCC99FFCCCC00CCCC33CCCC66CCCC99CCCCCCCCCCFFCCFF00CCFF33CCFF66CCFF99CCFFCCCCFFFFFF0000FF0033FF0066FF0099FF00CCFF00FFFF3300FF3333
310
FF3366FF3399FF33CCFF33FFFF6600FF6633FF6666FF6699FF66CCFF66FFFF9900FF9933FF9966FF9999FF99CCFF99FFFFCC00FFCC33FFCC66FFCC99FFCCCCFFCCFFFFFF00FFFF33FFFF66FFFF99FFFFCCFFFFFF0000000D0D0D1A1A1A2828283535354343435050505D5D5D6B6B6B787878868686939393A1A1A1AEAEAEBB
310
BBBBC9C9C9D6D6D6E4E4E4F1F1F1FFFFFF0000000000000000000000000000000000000000000000000000000000002E4550F1000002D04944415478DAED9C4D6EC4200C857D039FC407CA55BBE8263B6B0ED580810021CDA8EDA27AB655B552868DBF79FEC1A110FD5BFB28466ECD3D01EF003E2643F5530FF30440DF01A0
310
C0C2D6D9E4B0CB436400F38304C0950216FEBB0640B4BFB32800E000E0D9F6CB1346CE86FC8E0218580A012000048000100002806700EF3442A1805000F0A680F94101DCA9C427000E00142110009001306FDF18E387C0F648005D01B4F16D086C1E7280FDDC00D83C24C121D01D2A207BD9DCBC00600F00BA30F0A900ABF7
310
EC5801B6E965CF0AA861E01880B5857E43A00B8393878756B807407922D4E1006B84D2E107A9BFEC20C404E0AC060580350940007A5B02D8B9ED910D401F0202E5BFB4CDD0380F684DD1AC8074840A2AFE650DC0AAC1420170001201AEA97E35163700ED78081E802328AE39A06B8A8A02A424404000F4BA01505B8204405E
310
B5020002D05B0026823C13D30600C7EF66ED0CD86A1C98DA205000D5193B26779444963909CA794C0E1C8064577506A03E00A4AF7E6873F7B1EFC5062092BE662B784B00F9430400730BACB9A4895581CECB1100338A02AAE31D00D1B30C9A973CF5019AB91056085410C7B6AE0760FEDA06A07582E52324059C31D05781B3
310
25CA08F67224A0C604137A191C725E990825041E01E491581D838E00D48B02689FEAA22300A6FDBDFC850690871B972A60DAB789903DF003E0AC7A5D19A43217034C821380BEEA0D8D506E12097F3BDC57BD6B2BEC000013FC66E85B00E4773BDCFFE3E4ED40C457277851008502DC2B2000048000E0B90FC0AF02F20440B0
310
DF0DEA4B067F3FF7CF1180BCA0EFD3D176ECE74E01240A7E91D213000D00AE009C91DE0148EF9448A613867000EC1E313395F183D50943340034BE401A97881F000F4B8073C06F962001D0D5136C00D35D8A5D167471A1E24D0E1CB3A01300BF59130060002C425E5DDD2ABBB408016000F41C021421E04401B7FB9D00E029
310
07FC785124C1488211027F605F94A2E16345214A380000000049454E44AE426082
  0
ENDSEC
  0
EOF
