  0
SECTION
  2
HEADER
  9
$ACADVER
  1
AC1027
  9
$ACADMAINTVER
 70
   125
  9
$DWGCODEPAGE
  3
ANSI_932
  9
$LASTSAVEDBY
  1
BJ12826
  9
$REQUIREDVERSIONS
160
                 0
  9
$INSBASE
 10
0.0
 20
0.0
 30
0.0
  9
$EXTMIN
 10
-1041.000288880354
 20
-712.7283667255669
 30
-0.0000000349181948
  9
$EXTMAX
 10
1314.481365084369
 20
2194.67453017223
 30
0.0000000814935746
  9
$LIMMIN
 10
0.0
 20
0.0
  9
$LIMMAX
 10
12.0
 20
9.0
  9
$ORTHOMODE
 70
     1
  9
$REGENMODE
 70
     1
  9
$FILLMODE
 70
     1
  9
$QTEXTMODE
 70
     0
  9
$MIRRTEXT
 70
     0
  9
$LTSCALE
 40
1.0
  9
$ATTMODE
 70
     1
  9
$TEXTSIZE
 40
2.799999952316284
  9
$TRACEWID
 40
0.05
  9
$TEXTSTYLE
  7
STANDARD1
  9
$CLAYER
  8
OUTLINE
  9
$CELTYPE
  6
CONTINUOUS
  9
$CECOLOR
 62
   256
  9
$CELTSCALE
 40
1.0
  9
$DISPSILH
 70
     0
  9
$DIMSCALE
 40
1.0
  9
$DIMASZ
 40
10.0
  9
$DIMEXO
 40
10.0
  9
$DIMDLI
 40
8.0
  9
$DIMRND
 40
0.0
  9
$DIMDLE
 40
0.0
  9
$DIMEXE
 40
12.5
  9
$DIMTP
 40
0.0
  9
$DIMTM
 40
0.0
  9
$DIMTXT
 40
30.0
  9
$DIMCEN
 40
2.5
  9
$DIMTSZ
 40
0.0
  9
$DIMTOL
 70
     0
  9
$DIMLIM
 70
     0
  9
$DIMTIH
 70
     0
  9
$DIMTOH
 70
     0
  9
$DIMSE1
 70
     0
  9
$DIMSE2
 70
     0
  9
$DIMTAD
 70
     3
  9
$DIMZIN
 70
    12
  9
$DIMBLK
  1

  9
$DIMASO
 70
     1
  9
$DIMSHO
 70
     1
  9
$DIMPOST
  1

  9
$DIMAPOST
  1

  9
$DIMALT
 70
     0
  9
$DIMALTD
 70
     4
  9
$DIMALTF
 40
25.4
  9
$DIMLFAC
 40
1.0
  9
$DIMTOFL
 70
     1
  9
$DIMTVP
 40
0.0
  9
$DIMTIX
 70
     0
  9
$DIMSOXD
 70
     0
  9
$DIMSAH
 70
     1
  9
$DIMBLK1
  1
ORIGIN
  9
$DIMBLK2
  1
ORIGIN
  9
$DIMSTYLE
  2
STANDARD
  9
$DIMCLRD
 70
     0
  9
$DIMCLRE
 70
     0
  9
$DIMCLRT
 70
     0
  9
$DIMTFAC
 40
0.7142857313156129
  9
$DIMGAP
 40
10.0
  9
$DIMJUST
 70
     0
  9
$DIMSD1
 70
     0
  9
$DIMSD2
 70
     0
  9
$DIMTOLJ
 70
     1
  9
$DIMTZIN
 70
     0
  9
$DIMALTZ
 70
     0
  9
$DIMALTTZ
 70
     0
  9
$DIMUPT
 70
     0
  9
$DIMDEC
 70
     4
  9
$DIMTDEC
 70
     4
  9
$DIMALTU
 70
     2
  9
$DIMALTTD
 70
     4
  9
$DIMTXSTY
  7
STANDARD
  9
$DIMAUNIT
 70
     0
  9
$DIMADEC
 70
     3
  9
$DIMALTRND
 40
0.0
  9
$DIMAZIN
 70
     0
  9
$DIMDSEP
 70
    46
  9
$DIMATFIT
 70
     3
  9
$DIMFRAC
 70
     0
  9
$DIMLDRBLK
  1
ORIGIN
  9
$DIMLUNIT
 70
     2
  9
$DIMLWD
 70
    -2
  9
$DIMLWE
 70
    -2
  9
$DIMTMOVE
 70
     0
  9
$DIMFXL
 40
1.0
  9
$DIMFXLON
 70
     0
  9
$DIMJOGANG
 40
0.7853981633974483
  9
$DIMTFILL
 70
     0
  9
$DIMTFILLCLR
 70
     0
  9
$DIMARCSYM
 70
     0
  9
$DIMLTYPE
  6

  9
$DIMLTEX1
  6

  9
$DIMLTEX2
  6

  9
$DIMTXTDIRECTION
 70
     0
  9
$LUNITS
 70
     2
  9
$LUPREC
 70
     3
  9
$SKETCHINC
 40
0.1
  9
$FILLETRAD
 40
0.0
  9
$AUNITS
 70
     0
  9
$AUPREC
 70
     0
  9
$MENU
  1
.
  9
$ELEVATION
 40
0.0
  9
$PELEVATION
 40
0.0
  9
$THICKNESS
 40
0.0
  9
$LIMCHECK
 70
     0
  9
$CHAMFERA
 40
0.0
  9
$CHAMFERB
 40
0.0
  9
$CHAMFERC
 40
0.0
  9
$CHAMFERD
 40
0.0
  9
$SKPOLY
 70
     0
  9
$TDCREATE
 40
2457947.678854166
  9
$TDUCREATE
 40
2457947.303865729
  9
$TDUPDATE
 40
2460300.481875000
  9
$TDUUPDATE
 40
2460300.106875000
  9
$TDINDWG
 40
0.2544144907
  9
$TDUSRTIMER
 40
0.2544144907
  9
$USRTIMER
 70
     1
  9
$ANGBASE
 50
0.0
  9
$ANGDIR
 70
     0
  9
$PDMODE
 70
     0
  9
$PDSIZE
 40
0.0
  9
$PLINEWID
 40
0.0
  9
$SPLFRAME
 70
     0
  9
$SPLINETYPE
 70
     6
  9
$SPLINESEGS
 70
     8
  9
$HANDSEED
  5
113C
  9
$SURFTAB1
 70
     6
  9
$SURFTAB2
 70
     6
  9
$SURFTYPE
 70
     6
  9
$SURFU
 70
     6
  9
$SURFV
 70
     6
  9
$UCSBASE
  2

  9
$UCSNAME
  2

  9
$UCSORG
 10
0.0
 20
0.0
 30
0.0
  9
$UCSXDIR
 10
1.0
 20
0.0
 30
0.0
  9
$UCSYDIR
 10
0.0
 20
1.0
 30
0.0
  9
$UCSORTHOREF
  2

  9
$UCSORTHOVIEW
 70
     0
  9
$UCSORGTOP
 10
0.0
 20
0.0
 30
0.0
  9
$UCSORGBOTTOM
 10
0.0
 20
0.0
 30
0.0
  9
$UCSORGLEFT
 10
0.0
 20
0.0
 30
0.0
  9
$UCSORGRIGHT
 10
0.0
 20
0.0
 30
0.0
  9
$UCSORGFRONT
 10
0.0
 20
0.0
 30
0.0
  9
$UCSORGBACK
 10
0.0
 20
0.0
 30
0.0
  9
$PUCSBASE
  2

  9
$PUCSNAME
  2

  9
$PUCSORG
 10
0.0
 20
0.0
 30
0.0
  9
$PUCSXDIR
 10
1.0
 20
0.0
 30
0.0
  9
$PUCSYDIR
 10
0.0
 20
1.0
 30
0.0
  9
$PUCSORTHOREF
  2

  9
$PUCSORTHOVIEW
 70
     0
  9
$PUCSORGTOP
 10
0.0
 20
0.0
 30
0.0
  9
$PUCSORGBOTTOM
 10
0.0
 20
0.0
 30
0.0
  9
$PUCSORGLEFT
 10
0.0
 20
0.0
 30
0.0
  9
$PUCSORGRIGHT
 10
0.0
 20
0.0
 30
0.0
  9
$PUCSORGFRONT
 10
0.0
 20
0.0
 30
0.0
  9
$PUCSORGBACK
 10
0.0
 20
0.0
 30
0.0
  9
$USERI1
 70
     0
  9
$USERI2
 70
     0
  9
$USERI3
 70
     0
  9
$USERI4
 70
     0
  9
$USERI5
 70
     0
  9
$USERR1
 40
0.0
  9
$USERR2
 40
0.0
  9
$USERR3
 40
0.0
  9
$USERR4
 40
0.0
  9
$USERR5
 40
0.0
  9
$WORLDVIEW
 70
     1
  9
$SHADEDGE
 70
     3
  9
$SHADEDIF
 70
    70
  9
$TILEMODE
 70
     1
  9
$MAXACTVP
 70
    64
  9
$PINSBASE
 10
0.0
 20
0.0
 30
0.0
  9
$PLIMCHECK
 70
     0
  9
$PEXTMIN
 10
1.000000000000000E+20
 20
1.000000000000000E+20
 30
1.000000000000000E+20
  9
$PEXTMAX
 10
-1.000000000000000E+20
 20
-1.000000000000000E+20
 30
-1.000000000000000E+20
  9
$PLIMMIN
 10
0.0
 20
0.0
  9
$PLIMMAX
 10
12.0
 20
9.0
  9
$UNITMODE
 70
     0
  9
$VISRETAIN
 70
     1
  9
$PLINEGEN
 70
     0
  9
$PSLTSCALE
 70
     1
  9
$TREEDEPTH
 70
  3020
  9
$CMLSTYLE
  2
Standard
  9
$CMLJUST
 70
     0
  9
$CMLSCALE
 40
1.0
  9
$PROXYGRAPHICS
 70
     1
  9
$MEASUREMENT
 70
     0
  9
$CELWEIGHT
370
    -1
  9
$ENDCAPS
280
     0
  9
$JOINSTYLE
280
     0
  9
$LWDISPLAY
290
     0
  9
$INSUNITS
 70
     0
  9
$HYPERLINKBASE
  1

  9
$STYLESHEET
  1
monochrome.ctb
  9
$XEDIT
290
     1
  9
$CEPSNTYPE
380
     0
  9
$PSTYLEMODE
290
     1
  9
$FINGERPRINTGUID
  2
{5E682943-63E4-1449-8DBB-0C4EF6CE62D4}
  9
$VERSIONGUID
  2
{05E07B22-F211-DD46-900D-A7FBDD5A4C16}
  9
$EXTNAMES
290
     1
  9
$PSVPSCALE
 40
0.0
  9
$OLESTARTUP
290
     0
  9
$SORTENTS
280
   127
  9
$INDEXCTL
280
     0
  9
$HIDETEXT
280
     0
  9
$XCLIPFRAME
280
     2
  9
$HALOGAP
280
     0
  9
$OBSCOLOR
 70
   257
  9
$OBSLTYPE
280
     0
  9
$INTERSECTIONDISPLAY
280
     0
  9
$INTERSECTIONCOLOR
 70
   257
  9
$DIMASSOC
280
     1
  9
$PROJECTNAME
  1

  9
$CAMERADISPLAY
290
     0
  9
$LENSLENGTH
 40
50.0
  9
$CAMERAHEIGHT
 40
0.0
  9
$STEPSPERSEC
 40
2.0
  9
$STEPSIZE
 40
6.0
  9
$3DDWFPREC
 40
2.0
  9
$PSOLWIDTH
 40
0.25
  9
$PSOLHEIGHT
 40
4.0
  9
$LOFTANG1
 40
1.570796326794896
  9
$LOFTANG2
 40
1.570796326794896
  9
$LOFTMAG1
 40
0.0
  9
$LOFTMAG2
 40
0.0
  9
$LOFTPARAM
 70
     7
  9
$LOFTNORMALS
280
     1
  9
$LATITUDE
 40
37.795
  9
$LONGITUDE
 40
-122.394
  9
$NORTHDIRECTION
 40
0.0
  9
$TIMEZONE
 70
 -8000
  9
$LIGHTGLYPHDISPLAY
280
     1
  9
$TILEMODELIGHTSYNCH
280
     1
  9
$CMATERIAL
347
11
  9
$SOLIDHIST
280
     0
  9
$SHOWHIST
280
     1
  9
$DWFFRAME
280
     2
  9
$DGNFRAME
280
     0
  9
$REALWORLDSCALE
290
     1
  9
$INTERFERECOLOR
 62
     1
  9
$INTERFEREOBJVS
345
33
  9
$INTERFEREVPVS
346
30
  9
$CSHADOW
280
     0
  9
$SHADOWPLANELOCATION
 40
0.0
  0
ENDSEC
  0
SECTION
  2
CLASSES
  0
CLASS
  1
ACDBDICTIONARYWDFLT
  2
AcDbDictionaryWithDefault
  3
ObjectDBX Classes
 90
        0
 91
        1
280
     0
281
     0
  0
CLASS
  1
MATERIAL
  2
AcDbMaterial
  3
ObjectDBX Classes
 90
     1153
 91
        3
280
     0
281
     0
  0
CLASS
  1
VISUALSTYLE
  2
AcDbVisualStyle
  3
ObjectDBX Classes
 90
     4095
 91
       24
280
     0
281
     0
  0
CLASS
  1
SCALE
  2
AcDbScale
  3
ObjectDBX Classes
 90
     1153
 91
       17
280
     0
281
     0
  0
CLASS
  1
TABLESTYLE
  2
AcDbTableStyle
  3
ObjectDBX Classes
 90
     4095
 91
        1
280
     0
281
     0
  0
CLASS
  1
MLEADERSTYLE
  2
AcDbMLeaderStyle
  3
ACDB_MLEADERSTYLE_CLASS
 90
     4095
 91
        1
280
     0
281
     0
  0
CLASS
  1
ACDBSECTIONVIEWSTYLE
  2
AcDbSectionViewStyle
  3
ObjectDBX Classes
 90
     1025
 91
        1
280
     0
281
     0
  0
CLASS
  1
ACDBDETAILVIEWSTYLE
  2
AcDbDetailViewStyle
  3
ObjectDBX Classes
 90
     1025
 91
        1
280
     0
281
     0
  0
CLASS
  1
DICTIONARYVAR
  2
AcDbDictionaryVar
  3
ObjectDBX Classes
 90
        0
 91
        9
280
     0
281
     0
  0
CLASS
  1
CELLSTYLEMAP
  2
AcDbCellStyleMap
  3
ObjectDBX Classes
 90
     1152
 91
        3
280
     0
281
     0
  0
CLASS
  1
SORTENTSTABLE
  2
AcDbSortentsTable
  3
ObjectDBX Classes
 90
        0
 91
        1
280
     0
281
     0
  0
ENDSEC
  0
SECTION
  2
TABLES
  0
TABLE
  2
VPORT
  5
8
330
0
100
AcDbSymbolTable
 70
     1
1001
ACAD
1000
DbSaveVer
1071
       51
  0
VPORT
  5
89
330
8
100
AcDbSymbolTableRecord
100
AcDbViewportTableRecord
  2
*ACTIVE
 70
     0
 10
0.0
 20
0.0
 11
1.0
 21
1.0
 12
136.7405381020071
 22
740.9730817233316
 13
0.0
 23
0.0
 14
1.0
 24
1.0
 15
0.0
 25
0.0
 16
0.0
 26
0.0
 36
1.0
 17
0.0
 27
0.0
 37
0.0
 40
2930.295833093843
 41
2.511169513797634
 42
50.0
 43
0.0
 44
0.0
 50
0.0
 51
0.0
 71
     0
 72
   100
 73
     1
 74
     3
 75
     0
 76
     0
 77
     0
 78
     0
281
     0
 65
     1
110
0.0
120
0.0
130
0.0
111
1.0
121
0.0
131
0.0
112
0.0
122
1.0
132
0.0
 79
     0
146
0.0
348
2F
 60
     3
 61
     5
292
     1
282
     0
141
0.0
142
0.0
 63
   250
421
  3355443
1001
ACAD_NAV_VCDISPLAY
1070
     3
  0
ENDTAB
  0
TABLE
  2
LTYPE
  5
5
330
0
100
AcDbSymbolTable
 70
     7
  0
LTYPE
  5
5A
330
5
100
AcDbSymbolTableRecord
100
AcDbLinetypeTableRecord
  2
ByBlock
 70
     0
  3

 72
    65
 73
     0
 40
0.0
  0
LTYPE
  5
5B
330
5
100
AcDbSymbolTableRecord
100
AcDbLinetypeTableRecord
  2
ByLayer
 70
     0
  3

 72
    65
 73
     0
 40
0.0
  0
LTYPE
  5
5C
330
5
100
AcDbSymbolTableRecord
100
AcDbLinetypeTableRecord
  2
CONTINUOUS
 70
     0
  3
Solid line
 72
    65
 73
     0
 40
0.0
  0
LTYPE
  5
74
330
5
100
AcDbSymbolTableRecord
100
AcDbLinetypeTableRecord
  2
PHANTOM2
 70
     0
  3
___ _ _ ___ _ _ ___ _ _ ___ _ _
 72
    65
 73
     6
 40
1.25
 49
0.625
 74
     0
 49
-0.125
 74
     0
 49
0.125
 74
     0
 49
-0.125
 74
     0
 49
0.125
 74
     0
 49
-0.125
 74
     0
  0
LTYPE
  5
75
330
5
100
AcDbSymbolTableRecord
100
AcDbLinetypeTableRecord
  2
DASHED
 70
     0
  3
-- -- -- -- -- -- -- -- -- -- -- -- -- -- --
 72
    65
 73
     2
 40
0.75
 49
0.5
 74
     0
 49
-0.25
 74
     0
  0
LTYPE
  5
76
330
5
100
AcDbSymbolTableRecord
100
AcDbLinetypeTableRecord
  2
DASHDOT
 70
     0
  3
__ . __ . __ . __ . __ . __ . __ . __ . __ . __
 72
    65
 73
     4
 40
125.0
 49
80.0
 74
     0
 49
-20.0
 74
     0
 49
5.0
 74
     0
 49
-20.0
 74
     0
  0
LTYPE
  5
77
330
5
100
AcDbSymbolTableRecord
100
AcDbLinetypeTableRecord
  2
DIVIDE
 70
     0
  3
__ . . __ . . __ . . __ . . __ . . __ . . __
 72
    65
 73
     6
 40
1.25
 49
0.5
 74
     0
 49
-0.25
 74
     0
 49
0.0
 74
     0
 49
-0.25
 74
     0
 49
0.0
 74
     0
 49
-0.25
 74
     0
  0
LTYPE
  5
59E
330
5
100
AcDbSymbolTableRecord
100
AcDbLinetypeTableRecord
  2
PHANTOMX2
 70
     0
  3
Phantom (2x) ____________    ____    ____   _
 72
    65
 73
     6
 40
5.0
 49
2.5
 74
     0
 49
-0.5
 74
     0
 49
0.5
 74
     0
 49
-0.5
 74
     0
 49
0.5
 74
     0
 49
-0.5
 74
     0
  0
ENDTAB
  0
TABLE
  2
LAYER
  5
2
102
{ACAD_XDICTIONARY
360
67B
102
}
330
0
100
AcDbSymbolTable
 70
    12
  0
LAYER
  5
54
102
{ACAD_XDICTIONARY
360
505
102
}
330
2
100
AcDbSymbolTableRecord
100
AcDbLayerTableRecord
  2
0
 70
     0
 62
     3
  6
CONTINUOUS
370
    -3
390
F
347
21
348
0
  0
LAYER
  5
78
102
{ACAD_XDICTIONARY
360
507
102
}
330
2
100
AcDbSymbolTableRecord
100
AcDbLayerTableRecord
  2
OUTLINE
 70
     0
 62
     3
  6
CONTINUOUS
370
    -3
390
F
347
21
348
0
  0
LAYER
  5
79
102
{ACAD_XDICTIONARY
360
509
102
}
330
2
100
AcDbSymbolTableRecord
100
AcDbLayerTableRecord
  2
DETAIL
 70
     0
 62
     5
  6
CONTINUOUS
370
    -3
390
F
347
21
348
0
  0
LAYER
  5
7A
102
{ACAD_XDICTIONARY
360
50B
102
}
330
2
100
AcDbSymbolTableRecord
100
AcDbLayerTableRecord
  2
BASIS
 70
     0
 62
     6
  6
CONTINUOUS
370
    -3
390
F
347
21
348
0
  0
LAYER
  5
7B
102
{ACAD_XDICTIONARY
360
50D
102
}
330
2
100
AcDbSymbolTableRecord
100
AcDbLayerTableRecord
  2
SIZE
 70
     0
 62
    30
  6
CONTINUOUS
370
    -3
390
F
347
21
348
0
  0
LAYER
  5
7C
102
{ACAD_XDICTIONARY
360
50F
102
}
330
2
100
AcDbSymbolTableRecord
100
AcDbLayerTableRecord
  2
NOTE
 70
     0
 62
     4
  6
CONTINUOUS
370
    -3
390
F
347
21
348
0
  0
LAYER
  5
7D
102
{ACAD_XDICTIONARY
360
511
102
}
330
2
100
AcDbSymbolTableRecord
100
AcDbLayerTableRecord
  2
ARRANGE
 70
     0
 62
     1
  6
CONTINUOUS
370
    -3
390
F
347
21
348
0
  0
LAYER
  5
7E
102
{ACAD_XDICTIONARY
360
513
102
}
330
2
100
AcDbSymbolTableRecord
100
AcDbLayerTableRecord
  2
FIX
 70
     0
 62
    11
  6
CONTINUOUS
370
    -3
390
F
347
21
348
0
  0
LAYER
  5
7F
102
{ACAD_XDICTIONARY
360
515
102
}
330
2
100
AcDbSymbolTableRecord
100
AcDbLayerTableRecord
  2
SERVICESPACE
 70
     0
 62
     2
  6
CONTINUOUS
370
    -3
390
F
347
21
348
0
  0
LAYER
  5
80
102
{ACAD_XDICTIONARY
360
517
102
}
330
2
100
AcDbSymbolTableRecord
100
AcDbLayerTableRecord
  2
ETC
 70
     0
 62
    61
  6
CONTINUOUS
370
    -3
390
F
347
21
348
0
  0
LAYER
  5
81
102
{ACAD_XDICTIONARY
360
519
102
}
330
2
100
AcDbSymbolTableRecord
100
AcDbLayerTableRecord
  2
SYMBOLLINE
 70
     0
 62
    15
  6
CONTINUOUS
370
    -3
390
F
347
21
348
0
  0
LAYER
  5
82
330
2
100
AcDbSymbolTableRecord
100
AcDbLayerTableRecord
  2
DEFPOINTS
 70
     0
 62
     7
  6
CONTINUOUS
290
     0
370
    -3
390
F
347
21
348
0
  0
ENDTAB
  0
TABLE
  2
STYLE
  5
3
330
0
100
AcDbSymbolTable
 70
     8
  0
STYLE
  5
55
330
3
100
AcDbSymbolTableRecord
100
AcDbTextStyleTableRecord
  2
STANDARD
 70
     0
 40
0.0
 41
1.0
 50
0.0
 71
     0
 42
0.2
  3
txt
  4

  0
STYLE
  5
59
330
3
100
AcDbSymbolTableRecord
100
AcDbTextStyleTableRecord
  2
ANNOTATIVE
 70
     0
 40
0.0
 41
1.0
 50
0.0
 71
     0
 42
0.2
  3
txt
  4

1001
ACADANNOTATIVE
1000
AnnotativeData
1002
{
1070
     1
1070
     1
1002
}
  0
STYLE
  5
73
330
3
100
AcDbSymbolTableRecord
100
AcDbTextStyleTableRecord
  2
STANDARD1
 70
     0
 40
0.0
 41
1.0
 50
0.0
 71
     0
 42
2.799999952316284
  3
MONOTXT
  4
BIGFONT
  0
STYLE
  5
84
330
3
100
AcDbSymbolTableRecord
100
AcDbTextStyleTableRecord
  2
STANDARD2
 70
     4
 40
0.0
 41
1.0
 50
0.0
 71
     0
 42
2.799999952316284
  3
MONOTXT
  4
BIGFONT
  0
STYLE
  5
85
330
3
100
AcDbSymbolTableRecord
100
AcDbTextStyleTableRecord
  2
STANDARD3
 70
     0
 40
0.0
 41
1.0
 50
0.0
 71
     0
 42
2.799999952316284
  3
MONOTXT
  4

  0
STYLE
  5
86
330
3
100
AcDbSymbolTableRecord
100
AcDbTextStyleTableRecord
  2
STANDARD4
 70
     4
 40
0.0
 41
1.0
 50
0.0
 71
     0
 42
2.799999952316284
  3
MONOTXT
  4

  0
STYLE
  5
59D
330
3
100
AcDbSymbolTableRecord
100
AcDbTextStyleTableRecord
  2

 70
     1
 40
0.0
 41
1.0
 50
0.0
 71
     0
 42
2.799999952316284
  3
ltypeshp.shx
  4

  0
ENDTAB
  0
TABLE
  2
VIEW
  5
6
330
0
100
AcDbSymbolTable
 70
     1
  0
ENDTAB
  0
TABLE
  2
UCS
  5
7
330
0
100
AcDbSymbolTable
 70
     0
  0
ENDTAB
  0
TABLE
  2
APPID
  5
9
330
0
100
AcDbSymbolTable
 70
     9
  0
APPID
  5
56
330
9
100
AcDbSymbolTableRecord
100
AcDbRegAppTableRecord
  2
ACAD
 70
     0
  0
APPID
  5
5D
330
9
100
AcDbSymbolTableRecord
100
AcDbRegAppTableRecord
  2
ACADANNOTATIVE
 70
     0
  0
APPID
  5
87
330
9
100
AcDbSymbolTableRecord
100
AcDbRegAppTableRecord
  2
ACAD_NAV_VCDISPLAY
 70
     0
  0
APPID
  5
88
330
9
100
AcDbSymbolTableRecord
100
AcDbRegAppTableRecord
  2
ACAD_MLEADERVER
 70
     0
  0
APPID
  5
4F3
330
9
100
AcDbSymbolTableRecord
100
AcDbRegAppTableRecord
  2
ACAD_PSEXT
 70
     0
  0
APPID
  5
B0D
330
9
100
AcDbSymbolTableRecord
100
AcDbRegAppTableRecord
  2
ACAD_DSTYLE_DIMRADIAL_EXTENSION
 70
     0
  0
APPID
  5
BB8
330
9
100
AcDbSymbolTableRecord
100
AcDbRegAppTableRecord
  2
ACAD_EXEMPT_FROM_CAD_STANDARDS
 70
     0
  0
APPID
  5
BCF
330
9
100
AcDbSymbolTableRecord
100
AcDbRegAppTableRecord
  2
ACAD_DSTYLE_DIMJAG
 70
     0
  0
APPID
  5
BD0
330
9
100
AcDbSymbolTableRecord
100
AcDbRegAppTableRecord
  2
ACAD_DSTYLE_DIMTALN
 70
     0
  0
ENDTAB
  0
TABLE
  2
DIMSTYLE
  5
A
330
0
100
AcDbSymbolTable
 70
     4
100
AcDbDimStyleTable
 71
     1
340
57
  0
DIMSTYLE
105
57
102
{ACAD_REACTORS
330
A1A
330
A1B
330
9EC
330
9ED
330
9EE
330
9EF
330
9F0
330
9F2
102
}
330
A
100
AcDbSymbolTableRecord
100
AcDbDimStyleTableRecord
  2
STANDARD
 70
     0
271
     3
272
     3
274
     4
279
     2
284
    12
285
    12
286
    12
340
73
  0
DIMSTYLE
105
58
330
A
100
AcDbSymbolTableRecord
100
AcDbDimStyleTableRecord
  2
ANNOTATIVE
 70
     0
271
     3
272
     3
274
     4
279
     2
284
    12
285
    12
286
    12
340
73
1001
ACADANNOTATIVE
1000
AnnotativeData
1002
{
1070
     1
1070
     1
1002
}
  0
ENDTAB
  0
TABLE
  2
BLOCK_RECORD
  5
1
330
0
100
AcDbSymbolTable
 70
    11
  0
BLOCK_RECORD
  5
6F
102
{ACAD_XDICTIONARY
360
F49
102
}
330
1
100
AcDbSymbolTableRecord
100
AcDbBlockTableRecord
  2
*Model_Space
340
72
 70
     0
280
     1
281
     0
  0
BLOCK_RECORD
  5
6B
330
1
100
AcDbSymbolTableRecord
100
AcDbBlockTableRecord
  2
*Paper_Space
340
6E
 70
     0
280
     1
281
     0
  0
BLOCK_RECORD
  5
155
330
1
100
AcDbSymbolTableRecord
100
AcDbBlockTableRecord
  2
_ORIGIN
340
0
102
{BLKREFS
331
ECE
331
ECF
331
ED7
331
ED8
331
EE0
331
EE1
331
1042
331
1043
331
1009
331
100A
331
10F2
331
10F3
331
10FB
331
10FC
331
1121
331
1122
102
}
 70
     0
280
     1
281
     0
  0
BLOCK_RECORD
  5
A1D
330
1
100
AcDbSymbolTableRecord
100
AcDbBlockTableRecord
  2
*D1
340
0
 70
     0
280
     1
281
     0
  0
BLOCK_RECORD
  5
A29
330
1
100
AcDbSymbolTableRecord
100
AcDbBlockTableRecord
  2
*D2
340
0
 70
     0
280
     1
281
     0
  0
BLOCK_RECORD
  5
A35
330
1
100
AcDbSymbolTableRecord
100
AcDbBlockTableRecord
  2
*D3
340
0
 70
     0
280
     1
281
     0
  0
BLOCK_RECORD
  5
A41
330
1
100
AcDbSymbolTableRecord
100
AcDbBlockTableRecord
  2
*D4
340
0
 70
     0
280
     1
281
     0
  0
BLOCK_RECORD
  5
A4D
330
1
100
AcDbSymbolTableRecord
100
AcDbBlockTableRecord
  2
*D5
340
0
 70
     0
280
     1
281
     0
  0
BLOCK_RECORD
  5
A59
330
1
100
AcDbSymbolTableRecord
100
AcDbBlockTableRecord
  2
*D6
340
0
 70
     0
280
     1
281
     0
  0
BLOCK_RECORD
  5
A65
330
1
100
AcDbSymbolTableRecord
100
AcDbBlockTableRecord
  2
*D7
340
0
 70
     0
280
     1
281
     0
  0
BLOCK_RECORD
  5
A71
330
1
100
AcDbSymbolTableRecord
100
AcDbBlockTableRecord
  2
*D8
340
0
 70
     0
280
     1
281
     0
  0
ENDTAB
  0
ENDSEC
  0
SECTION
  2
BLOCKS
  0
BLOCK
  5
70
330
6F
100
AcDbEntity
  8
0
100
AcDbBlockBegin
  2
*Model_Space
 70
     0
 10
0.0
 20
0.0
 30
0.0
  3
*Model_Space
  1

  0
ENDBLK
  5
71
330
6F
100
AcDbEntity
  8
0
100
AcDbBlockEnd
  0
BLOCK
  5
6C
330
6B
100
AcDbEntity
 67
     1
  8
0
100
AcDbBlockBegin
  2
*Paper_Space
 70
     0
 10
0.0
 20
0.0
 30
0.0
  3
*Paper_Space
  1

  0
ENDBLK
  5
6D
330
6B
100
AcDbEntity
 67
     1
  8
0
100
AcDbBlockEnd
  0
BLOCK
  5
156
330
155
100
AcDbEntity
  8
0
100
AcDbBlockBegin
  2
_ORIGIN
 70
     0
 10
0.0
 20
0.0
 30
0.0
  3
_ORIGIN
  1

  0
CIRCLE
  5
157
330
155
100
AcDbEntity
  8
0
  6
ByBlock
 62
     0
100
AcDbCircle
 10
0.0
 20
0.0
 30
0.0
 40
0.5
  0
LINE
  5
158
330
155
100
AcDbEntity
  8
0
  6
ByBlock
 62
     0
100
AcDbLine
 10
0.0
 20
0.0
 30
0.0
 11
-1.0
 21
0.0
 31
0.0
  0
ENDBLK
  5
159
330
155
100
AcDbEntity
  8
0
100
AcDbBlockEnd
  0
BLOCK
  5
A1E
330
A1D
100
AcDbEntity
  8
0
100
AcDbBlockBegin
  2
*D1
 70
     1
 10
0.0
 20
0.0
 30
0.0
  3
*D1
  1

  0
LINE
  5
EDD
330
A1D
100
AcDbEntity
  8
SIZE
  6
Continuous
 62
     0
440
 16777216
370
    -2
100
AcDbLine
 10
288.0369406814953
 20
815.0000000000003
 30
0.0
 11
728.0946969400702
 21
815.0000000000003
 31
0.0
  0
LINE
  5
EDE
330
A1D
100
AcDbEntity
  8
SIZE
  6
Continuous
 62
     0
440
 16777216
370
    -2
100
AcDbLine
 10
524.8369406814955
 20
0.0000000000000016
 30
0.0
 11
728.0946969400702
 21
0.0000000000000343
 31
0.0
  0
LINE
  5
EDF
330
A1D
100
AcDbEntity
  8
SIZE
  6
Continuous
 62
     0
440
 16777216
370
    -2
100
AcDbLine
 10
715.5946969400702
 20
805.0000000000004
 30
0.0
 11
715.5946969400702
 21
10.00000000000003
 31
0.0
  0
INSERT
  5
EE0
330
A1D
100
AcDbEntity
  8
SIZE
  6
Continuous
 62
     0
440
 16777216
370
    -2
100
AcDbBlockReference
  2
_ORIGIN
 10
715.5946969400702
 20
815.0000000000003
 30
0.0
 41
10.0
 42
10.0
 43
10.0
 50
90.0
  0
INSERT
  5
EE1
330
A1D
100
AcDbEntity
  8
SIZE
  6
Continuous
 62
     0
440
 16777216
370
    -2
100
AcDbBlockReference
  2
_ORIGIN
 10
715.5946969400702
 20
0.0000000000000323
 30
0.0
 41
10.0
 42
10.0
 43
10.0
 50
270.0
  0
MTEXT
  5
EE2
330
A1D
100
AcDbEntity
  8
SIZE
  6
Continuous
 62
     0
440
 16777216
100
AcDbMText
 10
690.5946969400702
 20
407.4999999999998
 30
0.0
 40
30.0
 41
0.0
 46
0.0
 71
     5
 72
     1
  1
\A1;815
 11
0.0000000000000001
 21
1.0
 31
0.0
 73
     1
 44
1.0
  0
POINT
  5
EE3
330
A1D
100
AcDbEntity
  8
DEFPOINTS
  6
Continuous
 62
     0
440
 16777216
100
AcDbPoint
 10
278.0369406814953
 20
815.0000000000003
 30
0.0
  0
POINT
  5
EE4
330
A1D
100
AcDbEntity
  8
DEFPOINTS
  6
Continuous
 62
     0
440
 16777216
100
AcDbPoint
 10
514.8369406814955
 20
0.0
 30
0.0
  0
POINT
  5
EE5
330
A1D
100
AcDbEntity
  8
DEFPOINTS
  6
Continuous
 62
     0
440
 16777216
100
AcDbPoint
 10
715.5946969400702
 20
0.0000000000000323
 30
0.0
  0
ENDBLK
  5
A1F
330
A1D
100
AcDbEntity
  8
0
100
AcDbBlockEnd
  0
BLOCK
  5
A2A
330
A29
100
AcDbEntity
  8
0
100
AcDbBlockBegin
  2
*D2
 70
     1
 10
0.0
 20
0.0
 30
0.0
  3
*D2
  1

  0
LINE
  5
103F
330
A29
100
AcDbEntity
  8
SIZE
  6
Continuous
 62
     0
440
 16777216
370
    -2
100
AcDbLine
 10
520.5369406814952
 20
840.0000000000003
 30
0.0
 11
808.5464953558473
 21
840.0000000000003
 31
0.0
  0
LINE
  5
1040
330
A29
100
AcDbEntity
  8
SIZE
  6
Continuous
 62
     0
440
 16777216
370
    -2
100
AcDbLine
 10
524.8369406814955
 20
0.0000000000000016
 30
0.0
 11
808.5464953558476
 21
0.0000000000000472
 31
0.0
  0
LINE
  5
1041
330
A29
100
AcDbEntity
  8
SIZE
  6
Continuous
 62
     0
440
 16777216
370
    -2
100
AcDbLine
 10
796.0464953558473
 20
830.0000000000006
 30
0.0
 11
796.0464953558473
 21
10.00000000000005
 31
0.0
  0
INSERT
  5
1042
330
A29
100
AcDbEntity
  8
SIZE
  6
Continuous
 62
     0
440
 16777216
370
    -2
100
AcDbBlockReference
  2
_ORIGIN
 10
796.0464953558473
 20
840.0000000000003
 30
0.0
 41
10.0
 42
10.0
 43
10.0
 50
90.0
  0
INSERT
  5
1043
330
A29
100
AcDbEntity
  8
SIZE
  6
Continuous
 62
     0
440
 16777216
370
    -2
100
AcDbBlockReference
  2
_ORIGIN
 10
796.0464953558473
 20
0.0000000000000452
 30
0.0
 41
10.0
 42
10.0
 43
10.0
 50
270.0
  0
MTEXT
  5
1044
330
A29
100
AcDbEntity
  8
SIZE
  6
Continuous
 62
     0
440
 16777216
100
AcDbMText
 10
771.0464953558473
 20
418.9999999999998
 30
0.0
 40
30.0
 41
0.0
 46
0.0
 71
     5
 72
     1
  1
\A1;840
 11
0.0000000000000001
 21
1.0
 31
0.0
 73
     1
 44
1.0
  0
POINT
  5
1045
330
A29
100
AcDbEntity
  8
DEFPOINTS
  6
Continuous
 62
     0
440
 16777216
100
AcDbPoint
 10
510.5369406814951
 20
840.0000000000003
 30
0.0
  0
POINT
  5
1046
330
A29
100
AcDbEntity
  8
DEFPOINTS
  6
Continuous
 62
     0
440
 16777216
100
AcDbPoint
 10
514.8369406814955
 20
0.0
 30
0.0
  0
POINT
  5
1047
330
A29
100
AcDbEntity
  8
DEFPOINTS
  6
Continuous
 62
     0
440
 16777216
100
AcDbPoint
 10
796.0464953558473
 20
0.0000000000000452
 30
0.0
  0
ENDBLK
  5
A2B
330
A29
100
AcDbEntity
  8
0
100
AcDbBlockEnd
  0
BLOCK
  5
A36
330
A35
100
AcDbEntity
  8
0
100
AcDbBlockBegin
  2
*D3
 70
     1
 10
0.0
 20
0.0
 30
0.0
  3
*D3
  1

  0
LINE
  5
111E
330
A35
100
AcDbEntity
  8
SIZE
  6
Continuous
 62
     0
440
 16777216
370
    -2
100
AcDbLine
 10
-512.4630593185043
 20
-0.1999999999999318
 30
0.0
 11
-512.4630593185043
 21
-464.1730688805019
 31
0.0
  0
LINE
  5
111F
330
A35
100
AcDbEntity
  8
SIZE
  6
Continuous
 62
     0
440
 16777216
370
    -2
100
AcDbLine
 10
512.5369406814952
 20
-0.1999999999998199
 30
0.0
 11
512.5369406814952
 21
-464.1730688805019
 31
0.0
  0
LINE
  5
1120
330
A35
100
AcDbEntity
  8
SIZE
  6
Continuous
 62
     0
440
 16777216
370
    -2
100
AcDbLine
 10
-502.4630593185043
 20
-451.6730688805019
 30
0.0
 11
502.5369406814952
 21
-451.6730688805019
 31
0.0
  0
INSERT
  5
1121
330
A35
100
AcDbEntity
  8
SIZE
  6
Continuous
 62
     0
440
 16777216
370
    -2
100
AcDbBlockReference
  2
_ORIGIN
 10
-512.4630593185043
 20
-451.6730688805019
 30
0.0
 41
10.0
 42
10.0
 43
10.0
 50
180.0
  0
INSERT
  5
1122
330
A35
100
AcDbEntity
  8
SIZE
  6
Continuous
 62
     0
440
 16777216
370
    -2
100
AcDbBlockReference
  2
_ORIGIN
 10
512.5369406814952
 20
-451.6730688805019
 30
0.0
 41
10.0
 42
10.0
 43
10.0
  0
MTEXT
  5
1123
330
A35
100
AcDbEntity
  8
SIZE
  6
Continuous
 62
     0
440
 16777216
100
AcDbMText
 10
0.0369406814954816
 20
-426.6730688805019
 30
0.0
 40
30.0
 41
0.0
 46
0.0
 71
     5
 72
     1
  1
\A1;1025
 73
     1
 44
1.0
  0
POINT
  5
1124
330
A35
100
AcDbEntity
  8
DEFPOINTS
  6
Continuous
 62
     0
440
 16777216
100
AcDbPoint
 10
-512.4630593185043
 20
9.800000000000068
 30
0.0
  0
POINT
  5
1125
330
A35
100
AcDbEntity
  8
DEFPOINTS
  6
Continuous
 62
     0
440
 16777216
100
AcDbPoint
 10
512.5369406814952
 20
9.80000000000018
 30
0.0
  0
POINT
  5
1126
330
A35
100
AcDbEntity
  8
DEFPOINTS
  6
Continuous
 62
     0
440
 16777216
100
AcDbPoint
 10
512.5369406814952
 20
-451.6730688805019
 30
0.0
  0
ENDBLK
  5
A37
330
A35
100
AcDbEntity
  8
0
100
AcDbBlockEnd
  0
BLOCK
  5
A42
330
A41
100
AcDbEntity
  8
0
100
AcDbBlockBegin
  2
*D4
 70
     1
 10
0.0
 20
0.0
 30
0.0
  3
*D4
  1

  0
LINE
  5
10F8
330
A41
100
AcDbEntity
  8
SIZE
  6
Continuous
 62
     0
440
 16777216
370
    -2
100
AcDbLine
 10
-534.4630593185042
 20
855.0000000000029
 30
0.0
 11
-534.4630593185043
 21
-562.6196579449041
 31
0.0
  0
LINE
  5
10F9
330
A41
100
AcDbEntity
  8
SIZE
  6
Continuous
 62
     0
440
 16777216
370
    -2
100
AcDbLine
 10
534.5369406814947
 20
855.0000000000007
 30
0.0
 11
534.5369406814946
 21
-562.6196579449041
 31
0.0
  0
LINE
  5
10FA
330
A41
100
AcDbEntity
  8
SIZE
  6
Continuous
 62
     0
440
 16777216
370
    -2
100
AcDbLine
 10
-524.4630593185044
 20
-550.1196579449041
 30
0.0
 11
524.5369406814947
 21
-550.1196579449041
 31
0.0
  0
INSERT
  5
10FB
330
A41
100
AcDbEntity
  8
SIZE
  6
Continuous
 62
     0
440
 16777216
370
    -2
100
AcDbBlockReference
  2
_ORIGIN
 10
-534.4630593185043
 20
-550.1196579449041
 30
0.0
 41
10.0
 42
10.0
 43
10.0
 50
180.0
  0
INSERT
  5
10FC
330
A41
100
AcDbEntity
  8
SIZE
  6
Continuous
 62
     0
440
 16777216
370
    -2
100
AcDbBlockReference
  2
_ORIGIN
 10
534.5369406814946
 20
-550.1196579449041
 30
0.0
 41
10.0
 42
10.0
 43
10.0
  0
MTEXT
  5
10FD
330
A41
100
AcDbEntity
  8
SIZE
  6
Continuous
 62
     0
440
 16777216
100
AcDbMText
 10
0.0369406814951405
 20
-525.1196579449041
 30
0.0
 40
30.0
 41
0.0
 46
0.0
 71
     5
 72
     1
  1
\A1;1069
 73
     1
 44
1.0
  0
POINT
  5
10FE
330
A41
100
AcDbEntity
  8
DEFPOINTS
  6
Continuous
 62
     0
440
 16777216
100
AcDbPoint
 10
-534.4630593185042
 20
865.0000000000028
 30
0.0
  0
POINT
  5
10FF
330
A41
100
AcDbEntity
  8
DEFPOINTS
  6
Continuous
 62
     0
440
 16777216
100
AcDbPoint
 10
534.5369406814947
 20
865.0000000000007
 30
0.0
  0
POINT
  5
1100
330
A41
100
AcDbEntity
  8
DEFPOINTS
  6
Continuous
 62
     0
440
 16777216
100
AcDbPoint
 10
534.5369406814946
 20
-550.1196579449041
 30
0.0
  0
ENDBLK
  5
A43
330
A41
100
AcDbEntity
  8
0
100
AcDbBlockEnd
  0
BLOCK
  5
A4E
330
A4D
100
AcDbEntity
  8
0
100
AcDbBlockBegin
  2
*D5
 70
     1
 10
0.0
 20
0.0
 30
0.0
  3
*D5
  1

  0
LINE
  5
10EF
330
A4D
100
AcDbEntity
  8
SIZE
  6
Continuous
 62
     0
440
 16777216
370
    -2
100
AcDbLine
 10
-552.4630593185052
 20
859.7176822079466
 30
0.0
 11
-552.4630593185053
 21
-712.5509427177345
 31
0.0
  0
LINE
  5
10F0
330
A4D
100
AcDbEntity
  8
SIZE
  6
Continuous
 62
     0
440
 16777216
370
    -2
100
AcDbLine
 10
552.5369406814943
 20
859.7176822079442
 30
0.0
 11
552.5369406814942
 21
-712.5509427177346
 31
0.0
  0
LINE
  5
10F1
330
A4D
100
AcDbEntity
  8
SIZE
  6
Continuous
 62
     0
440
 16777216
370
    -2
100
AcDbLine
 10
-542.4630593185053
 20
-700.0509427177346
 30
0.0
 11
542.5369406814942
 21
-700.0509427177346
 31
0.0
  0
INSERT
  5
10F2
330
A4D
100
AcDbEntity
  8
SIZE
  6
Continuous
 62
     0
440
 16777216
370
    -2
100
AcDbBlockReference
  2
_ORIGIN
 10
-552.4630593185053
 20
-700.0509427177346
 30
0.0
 41
10.0
 42
10.0
 43
10.0
 50
180.0
  0
INSERT
  5
10F3
330
A4D
100
AcDbEntity
  8
SIZE
  6
Continuous
 62
     0
440
 16777216
370
    -2
100
AcDbBlockReference
  2
_ORIGIN
 10
552.5369406814942
 20
-700.0509427177346
 30
0.0
 41
10.0
 42
10.0
 43
10.0
  0
MTEXT
  5
10F4
330
A4D
100
AcDbEntity
  8
SIZE
  6
Continuous
 62
     0
440
 16777216
100
AcDbMText
 10
0.0369406814944584
 20
-675.0509427177346
 30
0.0
 40
30.0
 41
0.0
 46
0.0
 71
     5
 72
     1
  1
\A1;1105
 73
     1
 44
1.0
  0
POINT
  5
10F5
330
A4D
100
AcDbEntity
  8
DEFPOINTS
  6
Continuous
 62
     0
440
 16777216
100
AcDbPoint
 10
-552.4630593185052
 20
869.7176822079468
 30
0.0
  0
POINT
  5
10F6
330
A4D
100
AcDbEntity
  8
DEFPOINTS
  6
Continuous
 62
     0
440
 16777216
100
AcDbPoint
 10
552.5369406814943
 20
869.7176822079441
 30
0.0
  0
POINT
  5
10F7
330
A4D
100
AcDbEntity
  8
DEFPOINTS
  6
Continuous
 62
     0
440
 16777216
100
AcDbPoint
 10
552.5369406814942
 20
-700.0509427177346
 30
0.0
  0
ENDBLK
  5
A4F
330
A4D
100
AcDbEntity
  8
0
100
AcDbBlockEnd
  0
BLOCK
  5
A5A
330
A59
100
AcDbEntity
  8
0
100
AcDbBlockBegin
  2
*D6
 70
     1
 10
0.0
 20
0.0
 30
0.0
  3
*D6
  1

  0
LINE
  5
1006
330
A59
100
AcDbEntity
  8
SIZE
  6
Continuous
 62
     0
440
 16777216
370
    -2
100
AcDbLine
 10
-522.4630593185045
 20
960.0000000000003
 30
0.0
 11
-673.7034944111875
 21
960.0000000000003
 31
0.0
  0
LINE
  5
1007
330
A59
100
AcDbEntity
  8
SIZE
  6
Continuous
 62
     0
440
 16777216
370
    -2
100
AcDbLine
 10
-524.7630593185045
 20
-0.0000000000001153
 30
0.0
 11
-673.7034944111873
 21
-0.0000000000001393
 31
0.0
  0
LINE
  5
1008
330
A59
100
AcDbEntity
  8
SIZE
  6
Continuous
 62
     0
440
 16777216
370
    -2
100
AcDbLine
 10
-661.2034944111875
 20
950.0000000000003
 30
0.0
 11
-661.2034944111873
 21
9.999999999999863
 31
0.0
  0
INSERT
  5
1009
330
A59
100
AcDbEntity
  8
SIZE
  6
Continuous
 62
     0
440
 16777216
370
    -2
100
AcDbBlockReference
  2
_ORIGIN
 10
-661.2034944111875
 20
960.0000000000003
 30
0.0
 41
10.0
 42
10.0
 43
10.0
 50
90.0
  0
INSERT
  5
100A
330
A59
100
AcDbEntity
  8
SIZE
  6
Continuous
 62
     0
440
 16777216
370
    -2
100
AcDbBlockReference
  2
_ORIGIN
 10
-661.2034944111873
 20
-0.0000000000001372
 30
0.0
 41
10.0
 42
10.0
 43
10.0
 50
270.0
  0
MTEXT
  5
100B
330
A59
100
AcDbEntity
  8
SIZE
  6
Continuous
 62
     0
440
 16777216
100
AcDbMText
 10
-686.2034944111873
 20
477.4999999999997
 30
0.0
 40
30.0
 41
0.0
 46
0.0
 71
     5
 72
     1
  1
\A1;960
 11
0.0000000000000001
 21
1.0
 31
0.0
 73
     1
 44
1.0
  0
POINT
  5
100C
330
A59
100
AcDbEntity
  8
DEFPOINTS
  6
Continuous
 62
     0
440
 16777216
100
AcDbPoint
 10
-512.4630593185043
 20
960.0000000000003
 30
0.0
  0
POINT
  5
100D
330
A59
100
AcDbEntity
  8
DEFPOINTS
  6
Continuous
 62
     0
440
 16777216
100
AcDbPoint
 10
-514.7630593185046
 20
-0.0000000000001137
 30
0.0
  0
POINT
  5
100E
330
A59
100
AcDbEntity
  8
DEFPOINTS
  6
Continuous
 62
     0
440
 16777216
100
AcDbPoint
 10
-661.2034944111873
 20
-0.0000000000001372
 30
0.0
  0
ENDBLK
  5
A5B
330
A59
100
AcDbEntity
  8
0
100
AcDbBlockEnd
  0
BLOCK
  5
A66
330
A65
100
AcDbEntity
  8
0
100
AcDbBlockBegin
  2
*D7
 70
     1
 10
0.0
 20
0.0
 30
0.0
  3
*D7
  1

  0
LINE
  5
ECB
330
A65
100
AcDbEntity
  8
SIZE
  6
Continuous
 62
     0
440
 16777216
370
    -2
100
AcDbLine
 10
-560.4630593185047
 20
1950.000000000001
 30
0.0
 11
-821.0671667458527
 21
1950.000000000001
 31
0.0
  0
LINE
  5
ECC
330
A65
100
AcDbEntity
  8
SIZE
  6
Continuous
 62
     0
440
 16777216
370
    -2
100
AcDbLine
 10
-524.7630593185045
 20
-0.0000000000001153
 30
0.0
 11
-821.0671667458521
 21
-0.000000000000163
 31
0.0
  0
LINE
  5
ECD
330
A65
100
AcDbEntity
  8
SIZE
  6
Continuous
 62
     0
440
 16777216
370
    -2
100
AcDbLine
 10
-808.5671667458527
 20
1940.000000000001
 30
0.0
 11
-808.5671667458521
 21
9.99999999999984
 31
0.0
  0
INSERT
  5
ECE
330
A65
100
AcDbEntity
  8
SIZE
  6
Continuous
 62
     0
440
 16777216
370
    -2
100
AcDbBlockReference
  2
_ORIGIN
 10
-808.5671667458527
 20
1950.000000000001
 30
0.0
 41
10.0
 42
10.0
 43
10.0
 50
90.0
  0
INSERT
  5
ECF
330
A65
100
AcDbEntity
  8
SIZE
  6
Continuous
 62
     0
440
 16777216
370
    -2
100
AcDbBlockReference
  2
_ORIGIN
 10
-808.5671667458521
 20
-0.0000000000001609
 30
0.0
 41
10.0
 42
10.0
 43
10.0
 50
270.0
  0
MTEXT
  5
ED0
330
A65
100
AcDbEntity
  8
SIZE
  6
Continuous
 62
     0
440
 16777216
100
AcDbMText
 10
-833.5671667458518
 20
971.0
 30
0.0
 40
30.0
 41
0.0
 46
0.0
 71
     5
 72
     1
  1
\A1;1950
 11
0.0000000000000001
 21
1.0
 31
0.0
 73
     1
 44
1.0
  0
POINT
  5
ED1
330
A65
100
AcDbEntity
  8
DEFPOINTS
  6
Continuous
 62
     0
440
 16777216
100
AcDbPoint
 10
-550.463059318505
 20
1950.000000000001
 30
0.0
  0
POINT
  5
ED2
330
A65
100
AcDbEntity
  8
DEFPOINTS
  6
Continuous
 62
     0
440
 16777216
100
AcDbPoint
 10
-514.7630593185046
 20
-0.0000000000001137
 30
0.0
  0
POINT
  5
ED3
330
A65
100
AcDbEntity
  8
DEFPOINTS
  6
Continuous
 62
     0
440
 16777216
100
AcDbPoint
 10
-808.5671667458521
 20
-0.0000000000001609
 30
0.0
  0
ENDBLK
  5
A67
330
A65
100
AcDbEntity
  8
0
100
AcDbBlockEnd
  0
BLOCK
  5
A72
330
A71
100
AcDbEntity
  8
0
100
AcDbBlockBegin
  2
*D8
 70
     1
 10
0.0
 20
0.0
 30
0.0
  3
*D8
  1

  0
LINE
  5
ED4
330
A71
100
AcDbEntity
  8
SIZE
  6
Continuous
 62
     0
440
 16777216
370
    -2
100
AcDbLine
 10
-549.9630593185047
 20
1952.0
 30
0.0
 11
-549.9630593185047
 21
2110.913429306952
 31
0.0
  0
LINE
  5
ED5
330
A71
100
AcDbEntity
  8
SIZE
  6
Continuous
 62
     0
440
 16777216
370
    -2
100
AcDbLine
 10
550.0369406814952
 20
1952.0
 30
0.0
 11
550.0369406814952
 21
2110.913429306952
 31
0.0
  0
LINE
  5
ED6
330
A71
100
AcDbEntity
  8
SIZE
  6
Continuous
 62
     0
440
 16777216
370
    -2
100
AcDbLine
 10
-539.9630593185047
 20
2098.413429306952
 30
0.0
 11
540.0369406814952
 21
2098.413429306952
 31
0.0
  0
INSERT
  5
ED7
330
A71
100
AcDbEntity
  8
SIZE
  6
Continuous
 62
     0
440
 16777216
370
    -2
100
AcDbBlockReference
  2
_ORIGIN
 10
-549.9630593185047
 20
2098.413429306952
 30
0.0
 41
10.0
 42
10.0
 43
10.0
 50
180.0
  0
INSERT
  5
ED8
330
A71
100
AcDbEntity
  8
SIZE
  6
Continuous
 62
     0
440
 16777216
370
    -2
100
AcDbBlockReference
  2
_ORIGIN
 10
550.0369406814952
 20
2098.413429306952
 30
0.0
 41
10.0
 42
10.0
 43
10.0
  0
MTEXT
  5
ED9
330
A71
100
AcDbEntity
  8
SIZE
  6
Continuous
 62
     0
440
 16777216
100
AcDbMText
 10
0.0369406814952542
 20
2123.413429306952
 30
0.0
 40
30.0
 41
0.0
 46
0.0
 71
     5
 72
     1
  1
\A1;1100
 73
     1
 44
1.0
  0
POINT
  5
EDA
330
A71
100
AcDbEntity
  8
DEFPOINTS
  6
Continuous
 62
     0
440
 16777216
100
AcDbPoint
 10
-549.9630593185047
 20
1942.0
 30
0.0
  0
POINT
  5
EDB
330
A71
100
AcDbEntity
  8
DEFPOINTS
  6
Continuous
 62
     0
440
 16777216
100
AcDbPoint
 10
550.0369406814952
 20
1942.0
 30
0.0
  0
POINT
  5
EDC
330
A71
100
AcDbEntity
  8
DEFPOINTS
  6
Continuous
 62
     0
440
 16777216
100
AcDbPoint
 10
550.0369406814952
 20
2098.413429306952
 30
0.0
  0
ENDBLK
  5
A73
330
A71
100
AcDbEntity
  8
0
100
AcDbBlockEnd
  0
ENDSEC
  0
SECTION
  2
ENTITIES
  0
CIRCLE
  5
395
330
6F
100
AcDbEntity
  8
ARRANGE
  6
Continuous
100
AcDbCircle
 10
0.0
 20
0.0
 30
0.0
 40
15.0
  0
TEXT
  5
39C
330
6F
100
AcDbEntity
  8
ETC
  6
Continuous
100
AcDbText
 10
647.4617775802235
 20
2154.497070312499
 30
0.0
 40
40.0
  1
TGT124BC3
 50
0.0000024148365395
 41
0.6125000238418579
  7
STANDARD1
100
AcDbText
  0
TEXT
  5
39D
330
6F
100
AcDbEntity
  8
ETC
  6
Continuous
100
AcDbText
 10
647.4617775802235
 20
2084.4970703125
 30
0.0
 40
40.0
  1
防雪架台(防雪板後・左)
 50
0.0000024148365395
 41
0.8107142891202649
  7
STANDARD1
100
AcDbText
  0
LINE
  5
3B9
330
6F
100
AcDbEntity
  8
DETAIL
  6
Continuous
100
AcDbLine
 10
511.6020799087395
 20
1462.378048739576
 30
0.0
 11
510.8020799087396
 21
1462.378048739576
 31
0.0
  0
LINE
  5
3BA
330
6F
100
AcDbEntity
  8
DETAIL
  6
Continuous
100
AcDbLine
 10
513.7444340397387
 20
1461.778009216578
 30
0.0
 11
514.0610960507387
 21
1461.778009216578
 31
0.0
  0
LINE
  5
3BB
330
6F
100
AcDbEntity
  8
DETAIL
  6
Continuous
100
AcDbLine
 10
514.0610960507387
 20
1460.778009216577
 30
0.0
 11
513.7444340397387
 21
1460.778009216577
 31
0.0
  0
LINE
  5
3BC
330
6F
100
AcDbEntity
  8
DETAIL
  6
Continuous
100
AcDbLine
 10
510.0020799087388
 20
1459.528009216578
 30
0.0
 11
507.7756120897388
 21
1459.528009216578
 31
0.0
  0
LINE
  5
3BD
330
6F
100
AcDbEntity
  8
DETAIL
  6
Continuous
100
AcDbLine
 10
513.7660841827393
 20
1459.278009216578
 30
0.0
 11
513.7444340397387
 21
1459.278009216578
 31
0.0
  0
LINE
  5
3BE
330
6F
100
AcDbEntity
  8
DETAIL
  6
Continuous
100
AcDbLine
 10
511.6020799087388
 20
1458.778009216577
 30
0.0
 11
510.8020799087388
 21
1458.778009216577
 31
0.0
  0
LINE
  5
3BF
330
6F
100
AcDbEntity
  8
DETAIL
  6
Continuous
100
AcDbLine
 10
511.9020799087389
 20
1456.578009216577
 30
0.0
 11
511.6020799087388
 21
1456.578009216577
 31
0.0
  0
LINE
  5
3C0
330
6F
100
AcDbEntity
  8
DETAIL
  6
Continuous
100
AcDbLine
 10
511.6020799087388
 20
1453.778009216577
 30
0.0
 11
510.8020799087388
 21
1453.778009216577
 31
0.0
  0
LINE
  5
3CD
330
6F
100
AcDbEntity
  8
DETAIL
  6
Continuous
100
AcDbLine
 10
89.98153465380381
 20
1160.978175568946
 30
0.0
 11
87.87148946856827
 21
1163.778349880832
 31
0.0
  0
LINE
  5
3CE
330
6F
100
AcDbEntity
  8
DETAIL
  6
Continuous
100
AcDbLine
 10
96.718070008107
 20
1152.038332300883
 30
0.0
 11
94.59720830480035
 21
1154.852860871175
 31
0.0
  0
LINE
  5
3CF
330
6F
100
AcDbEntity
  8
DETAIL
  6
Continuous
100
AcDbLine
 10
90.3633413054589
 20
1151.664699425667
 30
0.0
 11
92.48527455438113
 21
1148.848748841633
 31
0.0
  0
LINE
  5
3D0
330
6F
100
AcDbEntity
  8
DETAIL
  6
Continuous
100
AcDbLine
 10
83.63869401483531
 20
1160.588766420582
 30
0.0
 11
85.78082855117839
 21
1157.74600734542
 31
0.0
  0
LINE
  5
3DD
330
6F
100
AcDbEntity
  8
DETAIL
  6
Continuous
100
AcDbLine
 10
-502.4979200912611
 20
1127.978009216577
 30
0.0
 11
-307.4979200912617
 21
1127.978009216577
 31
0.0
  0
LINE
  5
3DE
330
6F
100
AcDbEntity
  8
DETAIL
  6
Continuous
100
AcDbLine
 10
-486.3836142531826
 20
696.8080929591677
 30
0.0
 11
506.326715743399
 21
1444.855685506969
 31
0.0
  0
LINE
  5
3DF
330
6F
100
AcDbEntity
  8
DETAIL
  6
Continuous
100
AcDbLine
 10
485.0694180672245
 20
1448.057606100272
 30
0.0
 11
501.6012795563787
 21
1460.515035839855
 31
0.0
  0
LINE
  5
3E0
330
6F
100
AcDbEntity
  8
DETAIL
  6
Continuous
100
AcDbLine
 10
-500.4531460645534
 20
705.4262873520282
 30
0.0
 11
-483.9212845764071
 21
717.8837170906182
 31
0.0
  0
LINE
  5
3E1
330
6F
100
AcDbEntity
  8
DETAIL
  6
Continuous
100
AcDbLine
 10
-489.5181008360122
 20
725.3110751514829
 30
0.0
 11
-506.0499623241656
 21
712.8536454118931
 31
0.0
  0
LINE
  5
3E2
330
6F
100
AcDbEntity
  8
DETAIL
  6
Continuous
100
AcDbLine
 10
496.0044632967655
 20
1467.94239389972
 30
0.0
 11
479.4726018076188
 21
1455.484964161137
 31
0.0
  0
LINE
  5
3E4
330
6F
100
AcDbEntity
  8
DETAIL
  6
Continuous
100
AcDbLine
 10
-509.7337724115694
 20
727.7953502422807
 30
0.0
 11
482.9765575850196
 21
1475.842942791083
 31
0.0
  0
LINE
  5
3E6
330
6F
100
AcDbEntity
  8
DETAIL
  6
Continuous
100
AcDbLine
 10
-510.4559422517758
 20
728.7537190245233
 30
0.0
 11
482.2543877458141
 21
1476.801311573318
 31
0.0
  0
LINE
  5
3EC
330
6F
100
AcDbEntity
  8
DETAIL
  6
Continuous
100
AcDbLine
 10
502.502079908738
 20
1017.978009216577
 30
0.0
 11
467.502079908738
 21
1017.978009216577
 31
0.0
  0
LINE
  5
3FA
330
6F
100
AcDbEntity
  8
DETAIL
  6
Continuous
100
AcDbLine
 10
-209.8654983632619
 20
947.9780092165775
 30
0.0
 11
-306.9979200912617
 21
947.9780092165775
 31
0.0
  0
LINE
  5
3FC
330
6F
100
AcDbEntity
  8
DETAIL
  6
Continuous
100
AcDbLine
 10
467.002079908738
 20
947.9780092165775
 30
0.0
 11
-144.0407351492619
 21
947.9780092165775
 31
0.0
  0
LINE
  5
40A
330
6F
100
AcDbEntity
  8
DETAIL
  6
Continuous
100
AcDbLine
 10
-149.5494938736734
 20
980.3545428319862
 30
0.0
 11
-151.7207060255929
 21
983.2358898929117
 31
0.0
  0
LINE
  5
40B
330
6F
100
AcDbEntity
  8
DETAIL
  6
Continuous
100
AcDbLine
 10
-142.8741254860459
 20
971.4958723139627
 30
0.0
 11
-144.9985930271463
 21
974.3151860768453
 31
0.0
  0
LINE
  5
40C
330
6F
100
AcDbEntity
  8
DETAIL
  6
Continuous
100
AcDbLine
 10
-149.1676872220185
 20
971.0410666887067
 30
0.0
 11
-147.1069209397795
 21
968.3062888537122
 31
0.0
  0
LINE
  5
40D
330
6F
100
AcDbEntity
  8
DETAIL
  6
Continuous
100
AcDbLine
 10
-155.9535014793174
 20
980.0463064336613
 30
0.0
 11
-153.8149727807686
 21
977.2083325510903
 31
0.0
  0
LINE
  5
40E
330
6F
100
AcDbEntity
  8
DETAIL
  6
Continuous
100
AcDbLine
 10
-507.4979200912611
 20
1132.978009216576
 30
0.0
 11
-502.4979200912611
 21
1127.978009216577
 31
0.0
  0
LINE
  5
40F
330
6F
100
AcDbEntity
  8
DETAIL
  6
Continuous
100
AcDbLine
 10
-306.9979200912617
 20
947.9780092165775
 30
0.0
 11
-306.9979200912617
 21
1127.978009216577
 31
0.0
  0
LINE
  5
410
330
6F
100
AcDbEntity
  8
DETAIL
  6
Continuous
100
AcDbLine
 10
-408.9979200912619
 20
1467.178009216577
 30
0.0
 11
-408.9979200912619
 21
1467.978009216577
 31
0.0
  0
LINE
  5
411
330
6F
100
AcDbEntity
  8
DETAIL
  6
Continuous
100
AcDbLine
 10
-486.3836142531826
 20
696.8080929591677
 30
0.0
 11
-507.3903470277853
 21
699.7605797345832
 31
0.0
  0
LINE
  5
412
330
6F
100
AcDbEntity
  8
DETAIL
  6
Continuous
100
AcDbLine
 10
-512.6862591869784
 20
706.7886174686777
 30
0.0
 11
-509.7337724115694
 21
727.7953502422807
 31
0.0
  0
LINE
  5
413
330
6F
100
AcDbEntity
  8
DETAIL
  6
Continuous
100
AcDbLine
 10
-485.8479200912615
 20
1437.628009216577
 30
0.0
 11
-485.8479200912615
 21
1458.328009216577
 31
0.0
  0
LINE
  5
414
330
6F
100
AcDbEntity
  8
DETAIL
  6
Continuous
100
AcDbLine
 10
-485.8479200912615
 20
1137.628009216577
 30
0.0
 11
-485.8479200912615
 21
1158.328009216577
 31
0.0
  0
LINE
  5
415
330
6F
100
AcDbEntity
  8
DETAIL
  6
Continuous
100
AcDbLine
 10
-495.1479200912616
 20
1158.328009216577
 30
0.0
 11
-495.1479200912616
 21
1137.628009216577
 31
0.0
  0
LINE
  5
416
330
6F
100
AcDbEntity
  8
DETAIL
  6
Continuous
100
AcDbLine
 10
-495.1479200912616
 20
1458.328009216577
 30
0.0
 11
-495.1479200912616
 21
1437.628009216577
 31
0.0
  0
LINE
  5
417
330
6F
100
AcDbEntity
  8
DETAIL
  6
Continuous
100
AcDbLine
 10
-507.4979200912611
 20
1462.178009216577
 30
0.0
 11
-507.4979200912611
 21
1132.978009216576
 31
0.0
  0
LINE
  5
418
330
6F
100
AcDbEntity
  8
DETAIL
  6
Continuous
100
AcDbLine
 10
-502.6526680164168
 20
733.0200952643252
 30
0.0
 11
-503.3651332458711
 21
733.9857004094227
 31
0.0
  0
LINE
  5
419
330
6F
100
AcDbEntity
  8
DETAIL
  6
Continuous
100
AcDbLine
 10
-509.7337724115694
 20
727.7953502422807
 30
0.0
 11
-510.446237642025
 21
728.7609553873959
 31
0.0
  0
LINE
  5
41A
330
6F
100
AcDbEntity
  8
DETAIL
  6
Continuous
100
AcDbLine
 10
-507.3903470277853
 20
699.7605797345832
 30
0.0
 11
-512.6862591869784
 21
706.7886174686777
 31
0.0
  0
LINE
  5
41B
330
6F
100
AcDbEntity
  8
DETAIL
  6
Continuous
100
AcDbLine
 10
-507.4979200912611
 20
1462.178009216577
 30
0.0
 11
-502.4979200912611
 21
1467.178009216577
 31
0.0
  0
ARC
  5
424
330
6F
100
AcDbEntity
  8
DETAIL
  6
DASHED
100
AcDbCircle
 10
490.5020799087377
 20
1437.628009216577
 30
0.0
 40
4.649999999999863
100
AcDbArc
 50
180.0
 51
267.9125696019002
  0
LINE
  5
42E
330
6F
100
AcDbEntity
  8
DETAIL
  6
DASHED
100
AcDbLine
 10
507.002079908738
 20
1462.178009216577
 30
0.0
 11
502.1778220247381
 21
1467.002267100576
 31
0.0
  0
LINE
  5
42F
330
6F
100
AcDbEntity
  8
DETAIL
  6
DASHED
100
AcDbLine
 10
512.4020799087388
 20
1459.278009216578
 30
0.0
 11
512.4020799087388
 21
1463.278009216577
 31
0.0
  0
LINE
  5
430
330
6F
100
AcDbEntity
  8
DETAIL
  6
DASHED
100
AcDbLine
 10
511.6020799087388
 20
1463.278009216577
 30
0.0
 11
511.6020799087388
 21
1459.278009216578
 31
0.0
  0
LINE
  5
431
330
6F
100
AcDbEntity
  8
DETAIL
  6
DASHED
100
AcDbLine
 10
507.002079908738
 20
1462.178009216577
 30
0.0
 11
507.002079908738
 21
1453.714005852578
 31
0.0
  0
LINE
  5
432
330
6F
100
AcDbEntity
  8
DETAIL
  6
DASHED
100
AcDbLine
 10
501.6020799087391
 20
1463.278009216577
 30
0.0
 11
501.6020799087391
 21
1459.278009216578
 31
0.0
  0
LINE
  5
433
330
6F
100
AcDbEntity
  8
DETAIL
  6
DASHED
100
AcDbLine
 10
506.602079908739
 20
1468.778009216577
 30
0.0
 11
506.602079908739
 21
1467.978009216577
 31
0.0
  0
LINE
  5
434
330
6F
100
AcDbEntity
  8
DETAIL
  6
DASHED
100
AcDbLine
 10
505.8020799087388
 20
1467.178009216577
 30
0.0
 11
505.8020799087388
 21
1467.978009216577
 31
0.0
  0
LINE
  5
435
330
6F
100
AcDbEntity
  8
DETAIL
  6
DASHED
100
AcDbLine
 10
501.6020799087391
 20
1467.978009216577
 30
0.0
 11
501.6020799087391
 21
1468.778009216577
 31
0.0
  0
LINE
  5
436
330
6F
100
AcDbEntity
  8
DETAIL
  6
DASHED
100
AcDbLine
 10
501.6020799087391
 20
1459.528009216578
 30
0.0
 11
501.6020799087391
 21
1463.028009216578
 31
0.0
  0
LINE
  5
437
330
6F
100
AcDbEntity
  8
DETAIL
  6
DASHED
100
AcDbLine
 10
495.1520799087377
 20
1437.628009216577
 30
0.0
 11
495.1520799087377
 21
1456.003549658577
 31
0.0
  0
LINE
  5
438
330
6F
100
AcDbEntity
  8
DETAIL
  6
DASHED
100
AcDbLine
 10
485.8520799087377
 20
1448.887628738577
 30
0.0
 11
485.8520799087377
 21
1437.628009216577
 31
0.0
  0
LINE
  5
439
330
6F
100
AcDbEntity
  8
DETAIL
  6
DASHED
100
AcDbLine
 10
462.0020799087383
 20
947.9780092165775
 30
0.0
 11
462.0020799087383
 21
948.7780092165776
 31
0.0
  0
LINE
  5
43A
330
6F
100
AcDbEntity
  8
DETAIL
  6
DASHED
100
AcDbLine
 10
334.1787673824425
 20
1335.409436111532
 30
0.0
 11
329.5796741792998
 21
1341.512747419797
 31
0.0
  0
LINE
  5
43B
330
6F
100
AcDbEntity
  8
DETAIL
  6
DASHED
100
AcDbLine
 10
325.3623876288206
 20
1338.302582585777
 30
0.0
 11
329.9614808309626
 21
1332.19927127752
 31
0.0
  0
LINE
  5
43C
330
6F
100
AcDbEntity
  8
DETAIL
  6
DASHED
100
AcDbLine
 10
412.4020799087393
 20
1467.178009216577
 30
0.0
 11
412.4020799087393
 21
1458.778009216577
 31
0.0
  0
LINE
  5
43D
330
6F
100
AcDbEntity
  8
DETAIL
  6
DASHED
100
AcDbLine
 10
411.6020799087388
 20
1458.778009216577
 30
0.0
 11
411.6020799087388
 21
1467.178009216577
 31
0.0
  0
LINE
  5
43E
330
6F
100
AcDbEntity
  8
DETAIL
  6
DASHED
100
AcDbLine
 10
409.0020799087381
 20
1467.178009216577
 30
0.0
 11
409.0020799087381
 21
1457.978009216577
 31
0.0
  0
LINE
  5
441
330
6F
100
AcDbEntity
  8
DETAIL
  6
DASHED
100
AcDbLine
 10
500.2100487297393
 20
1468.778009216577
 30
0.0
 11
506.774293967739
 21
1468.778009216577
 31
0.0
  0
LINE
  5
442
330
6F
100
AcDbEntity
  8
DETAIL
  6
DASHED
100
AcDbLine
 10
470.7828751077387
 20
1468.778009216577
 30
0.0
 11
496.2223517807391
 21
1468.778009216577
 31
0.0
  0
LINE
  5
443
330
6F
100
AcDbEntity
  8
DETAIL
  6
DASHED
100
AcDbLine
 10
501.3765290217389
 20
1467.978009216577
 30
0.0
 11
507.386416196739
 21
1467.978009216577
 31
0.0
  0
LINE
  5
444
330
6F
100
AcDbEntity
  8
DETAIL
  6
DASHED
100
AcDbLine
 10
494.9975851747383
 20
1467.978009216577
 30
0.0
 11
469.7373322907393
 21
1467.978009216577
 31
0.0
  0
LINE
  5
445
330
6F
100
AcDbEntity
  8
DETAIL
  6
DASHED
100
AcDbLine
 10
502.0594610217389
 20
1467.178009216577
 30
0.0
 11
507.9985384267389
 21
1467.178009216577
 31
0.0
  0
LINE
  5
446
330
6F
100
AcDbEntity
  8
DETAIL
  6
DASHED
100
AcDbLine
 10
-408.9979200912619
 20
1467.178009216577
 30
0.0
 11
409.0020799087381
 21
1467.178009216577
 31
0.0
  0
LINE
  5
447
330
6F
100
AcDbEntity
  8
DETAIL
  6
DASHED
100
AcDbLine
 10
493.952042357738
 20
1467.178009216577
 30
0.0
 11
468.6917894747382
 21
1467.178009216577
 31
0.0
  0
ARC
  5
44E
330
6F
100
AcDbEntity
  8
DETAIL
  6
Continuous
100
AcDbCircle
 10
510.0020799087388
 20
1467.178009216577
 30
0.0
 40
0.8000000000001817
100
AcDbArc
 50
0.0
 51
90.0
  0
LINE
  5
44F
330
6F
100
AcDbEntity
  8
DETAIL
  6
DASHED
100
AcDbLine
 10
510.8020799087388
 20
1465.278009216577
 30
0.0
 11
511.6020799087388
 21
1465.278009216577
 31
0.0
  0
ARC
  5
450
330
6F
100
AcDbEntity
  8
DETAIL
  6
Continuous
100
AcDbCircle
 10
510.0020799087388
 20
1467.178009216577
 30
0.0
 40
1.600000000000135
100
AcDbArc
 50
0.0
 51
90.0
  0
LINE
  5
451
330
6F
100
AcDbEntity
  8
DETAIL
  6
DASHED
100
AcDbLine
 10
510.8020799087396
 20
1464.178048739577
 30
0.0
 11
511.6020799087395
 21
1464.178048739577
 31
0.0
  0
ARC
  5
452
330
6F
100
AcDbEntity
  8
DETAIL
  6
Continuous
100
AcDbCircle
 10
507.9816253627392
 20
1461.278009216577
 30
0.0
 40
5.784458820000146
100
AcDbArc
 50
355.0412501035009
 51
4.958749896501251
  0
LINE
  5
453
330
6F
100
AcDbEntity
  8
DETAIL
  6
DASHED
100
AcDbLine
 10
412.4020799087393
 20
1463.778009216577
 30
0.0
 11
411.6020799087388
 21
1463.778009216577
 31
0.0
  0
ARC
  5
454
330
6F
100
AcDbEntity
  8
DETAIL
  6
Continuous
100
AcDbCircle
 10
507.9816253627392
 20
1461.278009216577
 30
0.0
 40
6.099997036000021
100
AcDbArc
 50
4.701652486200964
 51
19.13948411200163
  0
LINE
  5
455
330
6F
100
AcDbEntity
  8
DETAIL
  6
DASHED
100
AcDbLine
 10
512.4020799087388
 20
1463.278009216577
 30
0.0
 11
513.7444340397387
 21
1463.278009216577
 31
0.0
  0
ARC
  5
456
330
6F
100
AcDbEntity
  8
DETAIL
  6
Continuous
100
AcDbCircle
 10
507.9816253627392
 20
1461.278009216577
 30
0.0
 40
6.099997036000142
100
AcDbArc
 50
340.8605158880007
 51
355.2983475137991
  0
LINE
  5
457
330
6F
100
AcDbEntity
  8
DETAIL
  6
DASHED
100
AcDbLine
 10
508.2412744677391
 20
1463.028009216578
 30
0.0
 11
501.6020799087391
 21
1463.028009216578
 31
0.0
  0
ARC
  5
458
330
6F
100
AcDbEntity
  8
DETAIL
  6
Continuous
100
AcDbCircle
 10
507.9816253627392
 20
1461.278009216577
 30
0.0
 40
6.120454545000303
100
AcDbArc
 50
19.07303331310048
 51
50.16718801239886
  0
LINE
  5
459
330
6F
100
AcDbEntity
  8
DETAIL
  6
DASHED
100
AcDbLine
 10
511.6020799087388
 20
1463.028009216578
 30
0.0
 11
510.0020799087388
 21
1463.028009216578
 31
0.0
  0
ARC
  5
45A
330
6F
100
AcDbEntity
  8
DETAIL
  6
Continuous
100
AcDbCircle
 10
507.9816253627392
 20
1461.278009216577
 30
0.0
 40
6.120454544999938
100
AcDbArc
 50
309.832811987603
 51
340.9269666869005
  0
LINE
  5
45B
330
6F
100
AcDbEntity
  8
DETAIL
  6
DASHED
100
AcDbLine
 10
512.4020799087388
 20
1461.778009216578
 30
0.0
 11
513.7444340397387
 21
1461.778009216578
 31
0.0
  0
ARC
  5
45C
330
6F
100
AcDbEntity
  8
DETAIL
  6
Continuous
100
AcDbCircle
 10
498.8028714260718
 20
1464.228714869791
 30
0.0
 40
4.650000000000056
100
AcDbArc
 50
306.9995104913995
 51
126.9995104913997
  0
LINE
  5
45D
330
6F
100
AcDbEntity
  8
DETAIL
  6
DASHED
100
AcDbLine
 10
512.4020799087388
 20
1460.778009216577
 30
0.0
 11
513.7444340397387
 21
1460.778009216577
 31
0.0
  0
ARC
  5
45E
330
6F
100
AcDbEntity
  8
DETAIL
  6
Continuous
100
AcDbCircle
 10
490.5020799087377
 20
1458.328009216577
 30
0.0
 40
4.650000000000096
100
AcDbArc
 50
132.4475725952988
 51
180.0
  0
LINE
  5
45F
330
6F
100
AcDbEntity
  8
DETAIL
  6
DASHED
100
AcDbLine
 10
507.7756120897388
 20
1459.528009216578
 30
0.0
 11
501.6020799087391
 21
1459.528009216578
 31
0.0
  0
ARC
  5
460
330
6F
100
AcDbEntity
  8
DETAIL
  6
Continuous
100
AcDbCircle
 10
490.5020799087377
 20
1458.328009216577
 30
0.0
 40
4.650000000000089
100
AcDbArc
 50
0.0
 51
122.7916091370993
  0
LINE
  5
461
330
6F
100
AcDbEntity
  8
DETAIL
  6
DASHED
100
AcDbLine
 10
511.6020799087388
 20
1459.528009216578
 30
0.0
 11
510.0020799087388
 21
1459.528009216578
 31
0.0
  0
ARC
  5
462
330
6F
100
AcDbEntity
  8
DETAIL
  6
Continuous
100
AcDbCircle
 10
490.5020799087377
 20
1437.628009216577
 30
0.0
 40
4.649999999999836
100
AcDbArc
 50
267.9125696019002
 51
346.9837351282011
  0
LINE
  5
463
330
6F
100
AcDbEntity
  8
DETAIL
  6
DASHED
100
AcDbLine
 10
512.4020799087388
 20
1459.278009216578
 30
0.0
 11
513.7444340397387
 21
1459.278009216578
 31
0.0
  0
ARC
  5
464
330
6F
100
AcDbEntity
  8
DETAIL
  6
Continuous
100
AcDbCircle
 10
482.2710099369182
 20
1451.771285130209
 30
0.0
 40
4.650000000000056
100
AcDbArc
 50
126.9995104913997
 51
306.9995104913995
  0
LINE
  5
465
330
6F
100
AcDbEntity
  8
DETAIL
  6
DASHED
100
AcDbLine
 10
412.4020799087393
 20
1458.778009216577
 30
0.0
 11
411.6020799087388
 21
1458.778009216577
 31
0.0
  0
ARC
  5
466
330
6F
100
AcDbEntity
  8
DETAIL
  6
Continuous
100
AcDbCircle
 10
413.2020799087388
 20
1467.178009216577
 30
0.0
 40
0.8000000000001817
100
AcDbArc
 50
90.0
 51
180.0
  0
LINE
  5
467
330
6F
100
AcDbEntity
  8
DETAIL
  6
DASHED
100
AcDbLine
 10
-408.9979200912619
 20
1457.978009216577
 30
0.0
 11
409.0020799087381
 21
1457.978009216577
 31
0.0
  0
ARC
  5
468
330
6F
100
AcDbEntity
  8
DETAIL
  6
Continuous
100
AcDbCircle
 10
413.2020799087388
 20
1467.178009216577
 30
0.0
 40
1.599999999999909
100
AcDbArc
 50
90.0
 51
180.0
  0
LINE
  5
469
330
6F
100
AcDbEntity
  8
DETAIL
  6
DASHED
100
AcDbLine
 10
510.8020799087388
 20
1457.278009216577
 30
0.0
 11
511.6020799087388
 21
1457.278009216577
 31
0.0
  0
ARC
  5
46A
330
6F
100
AcDbEntity
  8
DETAIL
  6
Continuous
100
AcDbCircle
 10
325.3472872358583
 20
1342.726018138129
 30
0.0
 40
2.650000000000106
100
AcDbArc
 50
36.99951049140683
 51
216.9995104914068
  0
LINE
  5
46B
330
6F
100
AcDbEntity
  8
DETAIL
  6
DASHED
100
AcDbLine
 10
510.0020799087383
 20
1436.328009216578
 30
0.0
 11
510.802079908738
 21
1436.328009216578
 31
0.0
  0
ARC
  5
46C
330
6F
100
AcDbEntity
  8
DETAIL
  6
Continuous
100
AcDbCircle
 10
334.1938677754048
 20
1330.98600055918
 30
0.0
 40
2.64999999999997
100
AcDbArc
 50
216.9995104914068
 51
36.99951049141867
  0
ARC
  5
470
330
6F
100
AcDbEntity
  8
DETAIL
  6
Continuous
100
AcDbCircle
 10
490.5020799087377
 20
1207.628009216577
 30
0.0
 40
4.649999999999863
100
AcDbArc
 50
180.0
 51
0.0
  0
ARC
  5
472
330
6F
100
AcDbEntity
  8
DETAIL
  6
Continuous
100
AcDbCircle
 10
490.5020799087377
 20
1228.328009216577
 30
0.0
 40
4.650000000000089
100
AcDbArc
 50
0.0
 51
180.0
  0
ARC
  5
474
330
6F
100
AcDbEntity
  8
DETAIL
  6
Continuous
100
AcDbCircle
 10
85.75509174169827
 20
1162.183558150207
 30
0.0
 40
2.650000000000106
100
AcDbArc
 50
36.99951049140683
 51
216.9995104914068
  0
ARC
  5
476
330
6F
100
AcDbEntity
  8
DETAIL
  6
Continuous
100
AcDbCircle
 10
94.6016722812441
 20
1150.443540571258
 30
0.0
 40
2.650000000000106
100
AcDbArc
 50
216.9995104914068
 51
36.99951049140683
  0
ARC
  5
47A
330
6F
100
AcDbEntity
  8
DETAIL
  6
Continuous
100
AcDbCircle
 10
490.5020799087377
 20
1037.628009216577
 30
0.0
 40
4.649999999999863
100
AcDbArc
 50
180.0
 51
0.0
  0
ARC
  5
47C
330
6F
100
AcDbEntity
  8
DETAIL
  6
Continuous
100
AcDbCircle
 10
490.5020799087377
 20
1058.328009216577
 30
0.0
 40
4.650000000000089
100
AcDbArc
 50
0.0
 51
180.0
  0
ARC
  5
47E
330
6F
100
AcDbEntity
  8
DETAIL
  6
Continuous
100
AcDbCircle
 10
-490.4979200912611
 20
1437.628009216577
 30
0.0
 40
4.650000000000543
100
AcDbArc
 50
180.0
 51
0.0
  0
ARC
  5
480
330
6F
100
AcDbEntity
  8
DETAIL
  6
Continuous
100
AcDbCircle
 10
-490.4979200912611
 20
1458.328009216577
 30
0.0
 40
4.649999999999637
100
AcDbArc
 50
0.0
 51
180.0
  0
ARC
  5
482
330
6F
100
AcDbEntity
  8
DETAIL
  6
Continuous
100
AcDbCircle
 10
-490.4979200912611
 20
1137.628009216577
 30
0.0
 40
4.650000000000543
100
AcDbArc
 50
180.0
 51
0.0
  0
ARC
  5
484
330
6F
100
AcDbEntity
  8
DETAIL
  6
Continuous
100
AcDbCircle
 10
-490.4979200912611
 20
1158.328009216577
 30
0.0
 40
4.649999999999637
100
AcDbArc
 50
0.0
 51
180.0
  0
ARC
  5
486
330
6F
100
AcDbEntity
  8
DETAIL
  6
Continuous
100
AcDbCircle
 10
-153.8371037524546
 20
981.6410981632859
 30
0.0
 40
2.64999999999997
100
AcDbArc
 50
36.99951049140683
 51
216.9995104914068
  0
ARC
  5
488
330
6F
100
AcDbEntity
  8
DETAIL
  6
Continuous
100
AcDbCircle
 10
-144.99052321291
 20
969.9010805843375
 30
0.0
 40
2.64999999999997
100
AcDbArc
 50
216.9995104914068
 51
36.99951049140683
  0
ARC
  5
48A
330
6F
100
AcDbEntity
  8
DETAIL
  6
Continuous
100
AcDbCircle
 10
-503.2515541948598
 20
709.1399663819638
 30
0.0
 40
4.650000000000056
100
AcDbArc
 50
126.9995104913997
 51
306.9995104913995
  0
ARC
  5
48C
330
6F
100
AcDbEntity
  8
DETAIL
  6
Continuous
100
AcDbCircle
 10
-486.719692705707
 20
721.5973961215468
 30
0.0
 40
4.650000000000056
100
AcDbArc
 50
306.9995104913995
 51
126.9995104913834
  0
LINE
  5
493
330
6F
100
AcDbEntity
  8
DETAIL
  6
DASHED
100
AcDbLine
 10
510.5020799087383
 20
1244.328009216578
 30
0.0
 11
511.3020799087379
 21
1244.328009216578
 31
0.0
  0
LINE
  5
494
330
6F
100
AcDbEntity
  8
DETAIL
  6
DASHED
100
AcDbLine
 10
94.59720830480035
 20
1154.852860871175
 30
0.0
 11
89.98153465380381
 21
1160.978175568946
 31
0.0
  0
LINE
  5
495
330
6F
100
AcDbEntity
  8
DETAIL
  6
DASHED
100
AcDbLine
 10
85.78082855117839
 20
1157.74600734542
 30
0.0
 11
90.3633413054589
 21
1151.664699425667
 31
0.0
  0
LINE
  5
496
330
6F
100
AcDbEntity
  8
DETAIL
  6
DASHED
100
AcDbLine
 10
510.5020799087383
 20
1214.328009216578
 30
0.0
 11
511.3020799087379
 21
1214.328009216578
 31
0.0
  0
LINE
  5
499
330
6F
100
AcDbEntity
  8
DETAIL
  6
DASHED
100
AcDbLine
 10
510.5020799087383
 20
1074.328009216576
 30
0.0
 11
511.3020799087379
 21
1074.328009216576
 31
0.0
  0
LINE
  5
49F
330
6F
100
AcDbEntity
  8
DETAIL
  6
Continuous
100
AcDbLine
 10
509.2792025188153
 20
1465.862418281572
 30
0.0
 11
503.9832903596223
 21
1472.890456015667
 31
0.0
  0
LINE
  5
4A1
330
6F
100
AcDbEntity
  8
DETAIL
  6
Continuous
100
AcDbLine
 10
482.9765575850196
 20
1475.842942791083
 30
0.0
 11
482.2543877458141
 21
1476.801311573318
 31
0.0
  0
LINE
  5
4A3
330
6F
100
AcDbEntity
  8
DETAIL
  6
Continuous
100
AcDbLine
 10
475.9485198509172
 20
1470.547030630891
 30
0.0
 11
475.2263500107115
 21
1471.505399413134
 31
0.0
  0
LINE
  5
4A7
330
6F
100
AcDbEntity
  8
DETAIL
  6
Continuous
100
AcDbLine
 10
511.9020799087389
 20
1456.578009216577
 30
0.0
 11
511.9020799087389
 21
1465.978009216577
 31
0.0
  0
LINE
  5
4A9
330
6F
100
AcDbEntity
  8
DETAIL
  6
Continuous
100
AcDbLine
 10
511.6020799087388
 20
1453.778009216577
 30
0.0
 11
511.6020799087388
 21
1467.178009216577
 31
0.0
  0
LINE
  5
4AF
330
6F
100
AcDbEntity
  8
DETAIL
  6
Continuous
100
AcDbLine
 10
507.5020799087381
 20
1453.714005852578
 30
0.0
 11
507.5020799087381
 21
1022.978009216576
 31
0.0
  0
LINE
  5
4B1
330
6F
100
AcDbEntity
  8
DETAIL
  6
Continuous
100
AcDbLine
 10
502.0020799087387
 20
1467.178009216577
 30
0.0
 11
502.0020799087387
 21
1467.978009216577
 31
0.0
  0
LINE
  5
4B3
330
6F
100
AcDbEntity
  8
DETAIL
  6
Continuous
100
AcDbLine
 10
495.1520799087377
 20
1456.003549658577
 30
0.0
 11
495.1520799087377
 21
1458.328009216577
 31
0.0
  0
LINE
  5
4B5
330
6F
100
AcDbEntity
  8
DETAIL
  6
Continuous
100
AcDbLine
 10
495.1520799087377
 20
1207.628009216577
 30
0.0
 11
495.1520799087377
 21
1228.328009216577
 31
0.0
  0
LINE
  5
4B7
330
6F
100
AcDbEntity
  8
DETAIL
  6
Continuous
100
AcDbLine
 10
495.1520799087377
 20
1037.628009216577
 30
0.0
 11
495.1520799087377
 21
1058.328009216577
 31
0.0
  0
CIRCLE
  5
4B9
330
6F
100
AcDbEntity
  8
DETAIL
  6
DASHED
100
AcDbCircle
 10
329.7705775056319
 20
1336.856009348655
 30
0.0
 40
1.449999999999989
  0
LINE
  5
4BA
330
6F
100
AcDbEntity
  8
DETAIL
  6
Continuous
100
AcDbLine
 10
485.8520799087377
 20
1058.328009216577
 30
0.0
 11
485.8520799087377
 21
1037.628009216577
 31
0.0
  0
LINE
  5
4BB
330
6F
100
AcDbEntity
  8
DETAIL
  6
DASHED
100
AcDbLine
 10
-306.9979200912617
 20
948.7780092165776
 30
0.0
 11
467.002079908738
 21
948.7780092165776
 31
0.0
  0
CIRCLE
  5
4BC
330
6F
100
AcDbEntity
  8
DETAIL
  6
DASHED
100
AcDbCircle
 10
90.19443296353406
 20
1156.325644405955
 30
0.0
 40
1.450000000000003
  0
LINE
  5
4BD
330
6F
100
AcDbEntity
  8
DETAIL
  6
Continuous
100
AcDbLine
 10
485.8520799087377
 20
1228.328009216577
 30
0.0
 11
485.8520799087377
 21
1207.628009216577
 31
0.0
  0
LINE
  5
4BE
330
6F
100
AcDbEntity
  8
DETAIL
  6
DASHED
100
AcDbLine
 10
-144.0407351492619
 20
947.9780092165775
 30
0.0
 11
-209.8654983632619
 21
947.9780092165775
 31
0.0
  0
CIRCLE
  5
4BF
330
6F
100
AcDbEntity
  8
DETAIL
  6
DASHED
100
AcDbCircle
 10
-149.4225206681311
 20
975.6855770557692
 30
0.0
 40
1.449999999999989
  0
LINE
  5
4C0
330
6F
100
AcDbEntity
  8
DETAIL
  6
Continuous
100
AcDbLine
 10
485.8520799087377
 20
1458.328009216577
 30
0.0
 11
485.8520799087377
 21
1448.887628738577
 31
0.0
  0
LINE
  5
4C1
330
6F
100
AcDbEntity
  8
DETAIL
  6
DASHED
100
AcDbLine
 10
-144.9985930271463
 20
974.3151860768453
 30
0.0
 11
-149.5494938736734
 21
980.3545428319862
 31
0.0
  0
LINE
  5
4C2
330
6F
100
AcDbEntity
  8
DETAIL
  6
Continuous
100
AcDbLine
 10
503.9832903596223
 20
1472.890456015667
 30
0.0
 11
482.9765575850196
 21
1475.842942791083
 31
0.0
  0
LINE
  5
4C3
330
6F
100
AcDbEntity
  8
DETAIL
  6
DASHED
100
AcDbLine
 10
-153.8149727807686
 20
977.2083325510903
 30
0.0
 11
-149.1676872220185
 21
971.0410666887067
 31
0.0
  0
LINE
  5
4C4
330
6F
100
AcDbEntity
  8
DETAIL
  6
Continuous
100
AcDbLine
 10
509.2792025188153
 20
1465.862418281572
 30
0.0
 11
506.326715743399
 21
1444.855685506969
 31
0.0
  0
LINE
  5
4C5
330
6F
100
AcDbEntity
  8
DETAIL
  6
DASHED
100
AcDbLine
 10
-301.9979200912617
 20
947.9780092165775
 30
0.0
 11
-301.9979200912617
 21
948.7780092165776
 31
0.0
  0
LINE
  5
4C6
330
6F
100
AcDbEntity
  8
DETAIL
  6
Continuous
100
AcDbLine
 10
467.002079908738
 20
947.9780092165775
 30
0.0
 11
467.002079908738
 21
1017.978009216577
 31
0.0
  0
LINE
  5
4C8
330
6F
100
AcDbEntity
  8
DETAIL
  6
Continuous
100
AcDbLine
 10
329.5796741792998
 20
1341.512747419797
 30
0.0
 11
327.4636849627214
 21
1344.320809867756
 31
0.0
  0
LINE
  5
4CA
330
6F
100
AcDbEntity
  8
DETAIL
  6
Continuous
100
AcDbLine
 10
336.3102655022675
 20
1332.580792288805
 30
0.0
 11
334.1787673824425
 21
1335.409436111532
 31
0.0
  0
LINE
  5
4CC
330
6F
100
AcDbEntity
  8
DETAIL
  6
Continuous
100
AcDbLine
 10
329.9614808309626
 20
1332.19927127752
 30
0.0
 11
332.0774700485416
 21
1329.391208829555
 31
0.0
  0
LINE
  5
4CE
330
6F
100
AcDbEntity
  8
DETAIL
  6
Continuous
100
AcDbLine
 10
323.230889508996
 20
1341.131226408502
 30
0.0
 11
325.3623876288206
 21
1338.302582585777
 31
0.0
  0
LINE
  5
4CF
330
6F
100
AcDbEntity
  8
DETAIL
  6
DASHED
100
AcDbLine
 10
-408.9979200912619
 20
1467.178009216577
 30
0.0
 11
-408.9979200912619
 21
1457.978009216577
 31
0.0
  0
LINE
  5
4D0
330
6F
100
AcDbEntity
  8
DETAIL
  6
Continuous
100
AcDbLine
 10
507.5020799087381
 20
1022.978009216576
 30
0.0
 11
502.502079908738
 21
1017.978009216577
 31
0.0
  0
LINE
  5
4D2
330
6F
100
AcDbEntity
  8
DETAIL
  6
Continuous
100
AcDbLine
 10
409.0020799087381
 20
1467.978009216577
 30
0.0
 11
409.0020799087381
 21
1467.178009216577
 31
0.0
  0
LINE
  5
4D4
330
6F
100
AcDbEntity
  8
DETAIL
  6
DASHED
100
AcDbLine
 10
511.6020799087395
 20
1460.028088262576
 30
0.0
 11
511.6020799087395
 21
1462.928009216577
 31
0.0
  0
LINE
  5
4D5
330
6F
100
AcDbEntity
  8
DETAIL
  6
Continuous
100
AcDbLine
 10
496.2223517807391
 20
1468.778009216577
 30
0.0
 11
500.2100487297393
 21
1468.778009216577
 31
0.0
  0
LINE
  5
4D7
330
6F
100
AcDbEntity
  8
DETAIL
  6
DASHED
100
AcDbLine
 10
510.8020799087388
 20
1462.378088262576
 30
0.0
 11
510.8020799087388
 21
1465.278009216577
 31
0.0
  0
LINE
  5
4D8
330
6F
100
AcDbEntity
  8
DETAIL
  6
Continuous
100
AcDbLine
 10
413.2020799087388
 20
1468.778009216577
 30
0.0
 11
470.7828751077387
 21
1468.778009216577
 31
0.0
  0
LINE
  5
4DA
330
6F
100
AcDbEntity
  8
DETAIL
  6
DASHED
100
AcDbLine
 10
510.8020799087396
 20
1462.928048739577
 30
0.0
 11
511.6020799087395
 21
1462.928048739577
 31
0.0
  0
LINE
  5
4DB
330
6F
100
AcDbEntity
  8
DETAIL
  6
Continuous
100
AcDbLine
 10
510.0020799087388
 20
1468.778009216577
 30
0.0
 11
506.774293967739
 21
1468.778009216577
 31
0.0
  0
LINE
  5
4DD
330
6F
100
AcDbEntity
  8
DETAIL
  6
DASHED
100
AcDbLine
 10
510.8020799087396
 20
1460.028048739576
 30
0.0
 11
511.6020799087395
 21
1460.028048739576
 31
0.0
  0
LINE
  5
4DE
330
6F
100
AcDbEntity
  8
DETAIL
  6
Continuous
100
AcDbLine
 10
409.0020799087381
 20
1467.978009216577
 30
0.0
 11
-408.9979200912619
 21
1467.978009216577
 31
0.0
  0
LINE
  5
4E0
330
6F
100
AcDbEntity
  8
DETAIL
  6
Continuous
100
AcDbLine
 10
469.7373322907393
 20
1467.978009216577
 30
0.0
 11
413.2020799087388
 21
1467.978009216577
 31
0.0
  0
LINE
  5
4E2
330
6F
100
AcDbEntity
  8
DETAIL
  6
Continuous
100
AcDbLine
 10
501.3765290217389
 20
1467.978009216577
 30
0.0
 11
494.9975851747383
 21
1467.978009216577
 31
0.0
  0
LINE
  5
4E4
330
6F
100
AcDbEntity
  8
DETAIL
  6
Continuous
100
AcDbLine
 10
510.0020799087388
 20
1467.978009216577
 30
0.0
 11
507.386416196739
 21
1467.978009216577
 31
0.0
  0
LINE
  5
4E6
330
6F
100
AcDbEntity
  8
DETAIL
  6
Continuous
100
AcDbLine
 10
493.952042357738
 20
1467.178009216577
 30
0.0
 11
502.0594610217378
 21
1467.178009216577
 31
0.0
  0
LINE
  5
4E8
330
6F
100
AcDbEntity
  8
DETAIL
  6
Continuous
100
AcDbLine
 10
-502.4979200912611
 20
1467.178009216577
 30
0.0
 11
-409.4979200912619
 21
1467.178009216577
 31
0.0
  0
LINE
  5
4EA
330
6F
100
AcDbEntity
  8
DETAIL
  6
Continuous
100
AcDbLine
 10
468.6917894747382
 20
1467.178009216577
 30
0.0
 11
409.0020799087381
 21
1467.178009216577
 31
0.0
  0
LINE
  5
4EC
330
6F
100
AcDbEntity
  8
DETAIL
  6
Continuous
100
AcDbLine
 10
510.8020799087388
 20
1467.178009216577
 30
0.0
 11
507.9985384267389
 21
1467.178009216577
 31
0.0
  0
LINE
  5
4EE
330
6F
100
AcDbEntity
  8
DETAIL
  6
Continuous
100
AcDbLine
 10
511.9020799087389
 20
1457.978009216577
 30
0.0
 11
511.6020799087388
 21
1457.978009216577
 31
0.0
  0
LINE
  5
4EF
330
6F
100
AcDbEntity
  8
DETAIL
  6
Continuous
100
AcDbLine
 10
513.7444340397387
 20
1463.278009216577
 30
0.0
 11
513.7660841827393
 21
1463.278009216577
 31
0.0
  0
LINE
  5
4F0
330
6F
100
AcDbEntity
  8
DETAIL
  6
Continuous
100
AcDbLine
 10
510.0020799087388
 20
1463.028009216578
 30
0.0
 11
508.2412744677391
 21
1463.028009216578
 31
0.0
  0
ARC
  5
850
330
6F
100
AcDbEntity
  8
OUTLINE
  6
Continuous
100
AcDbCircle
 10
-482.4630593185037
 20
1914.0
 30
0.0
 40
10.0
100
AcDbArc
 50
0.0
 51
90.0
  0
LINE
  5
851
330
6F
100
AcDbEntity
  8
OUTLINE
  6
Continuous
100
AcDbLine
 10
-472.463059318504
 20
260.0000000000002
 30
0.0
 11
472.5369406814949
 21
260.0000000000002
 31
0.0
  0
LINE
  5
852
330
6F
100
AcDbEntity
  8
OUTLINE
  6
Continuous
100
AcDbLine
 10
-472.463059318504
 20
220.0000000000002
 30
0.0
 11
472.5369406814949
 21
220.0000000000002
 31
0.0
  0
LINE
  5
853
330
6F
100
AcDbEntity
  8
OUTLINE
  6
Continuous
100
AcDbLine
 10
-472.4630593185038
 20
703.6322457601206
 30
0.0
 11
-51.14915262345355
 21
524.7951026491887
 31
0.0
  0
LINE
  5
854
330
6F
100
AcDbEntity
  8
OUTLINE
  6
Continuous
100
AcDbLine
 10
-445.8282426106229
 20
735.7808519294787
 30
0.0
 11
0.0369406814952527
 21
546.5223101972947
 31
0.0
  0
LINE
  5
855
330
6F
100
AcDbEntity
  8
OUTLINE
  6
Continuous
100
AcDbLine
 10
507.5566117858043
 20
718.4972142158438
 30
0.0
 11
-484.7476202359056
 21
297.2890577044154
 31
0.0
  0
LINE
  5
856
330
6F
100
AcDbEntity
  8
OUTLINE
  6
Continuous
100
AcDbLine
 10
445.9021239736138
 20
735.7808519294787
 30
0.0
 11
-454.3516227028749
 21
353.645808266968
 31
0.0
  0
LINE
  5
857
330
6F
100
AcDbEntity
  8
OUTLINE
  6
Continuous
100
AcDbLine
 10
445.9021239736138
 20
735.7808519294787
 30
0.0
 11
-454.3516227028749
 21
353.645808266968
 31
0.0
  0
LINE
  5
858
330
6F
100
AcDbEntity
  8
OUTLINE
  6
Continuous
100
AcDbLine
 10
445.9021239736138
 20
735.7808519294787
 30
0.0
 11
-454.3516227028749
 21
353.645808266968
 31
0.0
  0
LINE
  5
859
330
6F
100
AcDbEntity
  8
OUTLINE
  6
Continuous
100
AcDbLine
 10
445.9021239736138
 20
735.7808519294787
 30
0.0
 11
-454.3516227028749
 21
353.645808266968
 31
0.0
  0
LINE
  5
85A
330
6F
100
AcDbEntity
  8
OUTLINE
  6
Continuous
100
AcDbLine
 10
445.9021239736138
 20
735.7808519294787
 30
0.0
 11
-454.3516227028749
 21
353.645808266968
 31
0.0
  0
LINE
  5
85B
330
6F
100
AcDbEntity
  8
OUTLINE
  6
Continuous
100
AcDbLine
 10
445.9021239736138
 20
735.7808519294787
 30
0.0
 11
-454.3516227028749
 21
353.645808266968
 31
0.0
  0
LINE
  5
85C
330
6F
100
AcDbEntity
  8
OUTLINE
  6
Continuous
100
AcDbLine
 10
445.9021239736138
 20
735.7808519294787
 30
0.0
 11
-454.3516227028749
 21
353.645808266968
 31
0.0
  0
LINE
  5
85D
330
6F
100
AcDbEntity
  8
OUTLINE
  6
Continuous
100
AcDbLine
 10
-446.2971199648103
 20
734.6762461053359
 30
0.0
 11
-1.498642117652704
 21
545.8704939708518
 31
0.0
  0
LINE
  5
85E
330
6F
100
AcDbEntity
  8
DETAIL
  6
Continuous
100
AcDbLine
 10
-472.463059318504
 20
260.0000000000002
 30
0.0
 11
472.5369406814949
 21
260.0000000000002
 31
0.0
  0
LINE
  5
85F
330
6F
100
AcDbEntity
  8
DETAIL
  6
Continuous
100
AcDbLine
 10
-472.463059318504
 20
220.0000000000002
 30
0.0
 11
472.5369406814949
 21
220.0000000000002
 31
0.0
  0
LINE
  5
860
330
6F
100
AcDbEntity
  8
DETAIL
  6
Continuous
100
AcDbLine
 10
445.9021239736138
 20
735.7808519294787
 30
0.0
 11
-454.3516227028749
 21
353.645808266968
 31
0.0
  0
LINE
  5
861
330
6F
100
AcDbEntity
  8
DETAIL
  6
Continuous
100
AcDbLine
 10
507.5566117858043
 20
718.4972142158438
 30
0.0
 11
-484.7476202359056
 21
297.2890577044154
 31
0.0
  0
LINE
  5
862
330
6F
100
AcDbEntity
  8
DETAIL
  6
Continuous
100
AcDbLine
 10
-472.4630593185038
 20
703.6322457601206
 30
0.0
 11
-51.14915262345355
 21
524.7951026491887
 31
0.0
  0
LINE
  5
863
330
6F
100
AcDbEntity
  8
DETAIL
  6
Continuous
100
AcDbLine
 10
-445.8282426106229
 20
735.7808519294787
 30
0.0
 11
0.0369406814952527
 21
546.5223101972947
 31
0.0
  0
LINE
  5
864
330
6F
100
AcDbEntity
  8
DETAIL
  6
Continuous
100
AcDbLine
 10
-446.2971199648103
 20
734.6762461053359
 30
0.0
 11
-1.498642117652704
 21
545.8704939708518
 31
0.0
  0
LINE
  5
865
330
6F
100
AcDbEntity
  8
OUTLINE
  6
Continuous
100
AcDbLine
 10
-510.5369406814943
 20
1924.000000000001
 30
0.0
 11
-482.4630593185037
 21
1924.000000000001
 31
0.0
  0
LINE
  5
866
330
6F
100
AcDbEntity
  8
OUTLINE
  6
Continuous
100
AcDbLine
 10
510.4630593185028
 20
1924.000000000001
 30
0.0
 11
482.5369406814941
 21
1924.000000000001
 31
0.0
  0
LINE
  5
867
330
6F
100
AcDbEntity
  8
OUTLINE
  6
Continuous
100
AcDbLine
 10
550.0369406814952
 20
1945.0
 30
0.0
 11
-549.9630593185047
 21
1945.0
 31
0.0
  0
LINE
  5
868
330
6F
100
AcDbEntity
  8
DETAIL
  6
Continuous
100
AcDbLine
 10
-510.5369406814943
 20
1924.000000000001
 30
0.0
 11
-482.4630593185037
 21
1924.000000000001
 31
0.0
  0
LINE
  5
869
330
6F
100
AcDbEntity
  8
DETAIL
  6
Continuous
100
AcDbLine
 10
510.4630593185028
 20
1924.000000000001
 30
0.0
 11
482.5369406814941
 21
1924.000000000001
 31
0.0
  0
LINE
  5
86A
330
6F
100
AcDbEntity
  8
DETAIL
  6
Continuous
100
AcDbLine
 10
550.0369406814952
 20
1945.0
 30
0.0
 11
-549.9630593185047
 21
1945.0
 31
0.0
  0
LINE
  5
86E
330
6F
100
AcDbEntity
  8
SYMBOLLINE
  6
PHANTOMX2
 48
30.0
100
AcDbLine
 10
399.9630593185047
 20
835.0
 30
0.0
 11
399.9630593185047
 21
1448.0
 31
0.0
  0
LINE
  5
86F
330
6F
100
AcDbEntity
  8
SYMBOLLINE
  6
PHANTOMX2
 48
30.0
100
AcDbLine
 10
-408.5369406814952
 20
1334.60646215321
 30
0.0
 11
-400.0369406814952
 21
1338.570077247527
 31
0.0
  0
LINE
  5
870
330
6F
100
AcDbEntity
  8
SYMBOLLINE
  6
PHANTOMX2
 48
30.0
100
AcDbLine
 10
-400.0369406814952
 20
1363.69696969697
 30
0.0
 11
-423.5369406814951
 21
1358.0
 31
0.0
  0
LINE
  5
871
330
6F
100
AcDbEntity
  8
SYMBOLLINE
  6
PHANTOMX2
 48
30.0
100
AcDbLine
 10
-408.5369406814952
 20
1091.0
 30
0.0
 11
-470.0369406814951
 21
1076.90625
 31
0.0
  0
LINE
  5
872
330
6F
100
AcDbEntity
  8
SYMBOLLINE
  6
PHANTOMX2
 48
30.0
100
AcDbLine
 10
-400.0369406814952
 20
855.0
 30
0.0
 11
-470.0369406814951
 21
869.875
 31
0.0
  0
LINE
  5
873
330
6F
100
AcDbEntity
  8
SYMBOLLINE
  6
PHANTOMX2
 48
30.0
100
AcDbLine
 10
-400.0369406814952
 20
1383.0
 30
0.0
 11
-423.5369406814951
 21
1373.0
 31
0.0
  0
LINE
  5
874
330
6F
100
AcDbEntity
  8
SYMBOLLINE
  6
PHANTOMX2
 48
30.0
100
AcDbLine
 10
-423.5369406814951
 20
1358.0
 30
0.0
 11
-423.5369406814951
 21
1373.0
 31
0.0
  0
LINE
  5
875
330
6F
100
AcDbEntity
  8
SYMBOLLINE
  6
PHANTOMX2
 48
30.0
100
AcDbLine
 10
-408.5369406814952
 20
1091.0
 30
0.0
 11
-408.5369406814952
 21
1334.60646215321
 31
0.0
  0
LINE
  5
876
330
6F
100
AcDbEntity
  8
SYMBOLLINE
  6
PHANTOMX2
 48
30.0
100
AcDbLine
 10
399.9630593185047
 20
835.0
 30
0.0
 11
-400.0369406814952
 21
835.0
 31
0.0
  0
LINE
  5
877
330
6F
100
AcDbEntity
  8
SYMBOLLINE
  6
PHANTOMX2
 48
30.0
100
AcDbLine
 10
-400.0369406814952
 20
835.0
 30
0.0
 11
-400.0369406814952
 21
1448.0
 31
0.0
  0
LINE
  5
878
330
6F
100
AcDbEntity
  8
SYMBOLLINE
  6
PHANTOMX2
 48
30.0
100
AcDbLine
 10
269.9630593185048
 20
835.0
 30
0.0
 11
269.9630593185048
 21
815.0
 31
0.0
  0
LINE
  5
879
330
6F
100
AcDbEntity
  8
SYMBOLLINE
  6
PHANTOMX2
 48
30.0
100
AcDbLine
 10
-230.0369406814953
 20
835.0
 30
0.0
 11
-230.0369406814953
 21
815.0
 31
0.0
  0
LINE
  5
87A
330
6F
100
AcDbEntity
  8
SYMBOLLINE
  6
PHANTOMX2
 48
30.0
100
AcDbLine
 10
229.9630593185047
 20
835.0
 30
0.0
 11
229.9630593185047
 21
815.0
 31
0.0
  0
LINE
  5
87B
330
6F
100
AcDbEntity
  8
SYMBOLLINE
  6
PHANTOMX2
 48
30.0
100
AcDbLine
 10
-270.0369406814953
 20
835.0
 30
0.0
 11
-270.0369406814953
 21
815.0
 31
0.0
  0
LINE
  5
87C
330
6F
100
AcDbEntity
  8
SYMBOLLINE
  6
PHANTOMX2
 48
30.0
100
AcDbLine
 10
269.9630593185048
 20
815.0
 30
0.0
 11
229.9630593185047
 21
815.0
 31
0.0
  0
LINE
  5
87D
330
6F
100
AcDbEntity
  8
SYMBOLLINE
  6
PHANTOMX2
 48
30.0
100
AcDbLine
 10
-230.0369406814953
 20
815.0
 30
0.0
 11
-270.0369406814953
 21
815.0
 31
0.0
  0
LINE
  5
87E
330
6F
100
AcDbEntity
  8
SYMBOLLINE
  6
PHANTOMX2
 48
30.0
100
AcDbLine
 10
-470.0369406814951
 20
1076.90625
 30
0.0
 11
-470.0369406814951
 21
869.875
 31
0.0
  0
LINE
  5
87F
330
6F
100
AcDbEntity
  8
SYMBOLLINE
  6
PHANTOMX2
 48
30.0
100
AcDbLine
 10
-395.0369406814953
 20
1453.0
 30
0.0
 11
394.9630593185048
 21
1453.0
 31
0.0
  0
ARC
  5
880
330
6F
100
AcDbEntity
  8
SYMBOLLINE
  6
PHANTOMX2
 48
30.0
100
AcDbCircle
 10
-395.0369406814953
 20
1448.0
 30
0.0
 40
5.0
100
AcDbArc
 50
90.0
 51
180.0
  0
ARC
  5
881
330
6F
100
AcDbEntity
  8
SYMBOLLINE
  6
PHANTOMX2
 48
30.0
100
AcDbCircle
 10
394.9630593185048
 20
1448.0
 30
0.0
 40
5.0
100
AcDbArc
 50
0.0
 51
90.0
  0
LINE
  5
882
330
6F
100
AcDbEntity
  8
SYMBOLLINE
  6
PHANTOMX2
 48
30.0
100
AcDbLine
 10
-400.0369406814952
 20
1428.0
 30
0.0
 11
415.9630593185046
 21
1428.0
 31
0.0
  0
LINE
  5
883
330
6F
100
AcDbEntity
  8
SYMBOLLINE
  6
PHANTOMX2
 48
30.0
100
AcDbLine
 10
399.9630593185047
 20
1448.5
 30
0.0
 11
415.9630593185046
 21
1428.0
 31
0.0
  0
LINE
  5
884
330
6F
100
AcDbEntity
  8
SYMBOLLINE
  6
PHANTOMX2
 48
30.0
100
AcDbLine
 10
399.9630593185047
 20
1428.0
 30
0.0
 11
415.9630593185046
 21
1428.0
 31
0.0
  0
LINE
  5
885
330
6F
100
AcDbEntity
  8
SYMBOLLINE
  6
PHANTOMX2
 48
30.0
100
AcDbLine
 10
-400.0369406814956
 20
1448.5
 30
0.0
 11
-416.0369406814951
 21
1428.0
 31
0.0
  0
LINE
  5
886
330
6F
100
AcDbEntity
  8
SYMBOLLINE
  6
PHANTOMX2
 48
30.0
100
AcDbLine
 10
-400.0369406814952
 20
1428.0
 30
0.0
 11
-416.0369406814951
 21
1428.0
 31
0.0
  0
LINE
  5
887
330
6F
100
AcDbEntity
  8
SYMBOLLINE
  6
PHANTOMX2
 48
30.0
100
AcDbLine
 10
-230.0369406814953
 20
823.0
 30
0.0
 11
-270.0369406814953
 21
823.0
 31
0.0
  0
LINE
  5
888
330
6F
100
AcDbEntity
  8
SYMBOLLINE
  6
PHANTOMX2
 48
30.0
100
AcDbLine
 10
269.9630593185048
 20
823.0
 30
0.0
 11
229.9630593185047
 21
823.0
 31
0.0
  0
LINE
  5
889
330
6F
100
AcDbEntity
  8
OUTLINE
  6
Continuous
100
AcDbLine
 10
-549.9630593185047
 20
1950.0
 30
0.0
 11
550.0369406814952
 21
1950.0
 31
0.0
  0
LINE
  5
88A
330
6F
100
AcDbEntity
  8
OUTLINE
  6
Continuous
100
AcDbLine
 10
550.0369406814952
 20
1950.0
 30
0.0
 11
550.0369406814952
 21
1632.0
 31
0.0
  0
LINE
  5
88B
330
6F
100
AcDbEntity
  8
OUTLINE
  6
Continuous
100
AcDbLine
 10
-549.9630593185047
 20
1632.0
 30
0.0
 11
-509.9630593185038
 21
1632.0
 31
0.0
  0
LINE
  5
88C
330
6F
100
AcDbEntity
  8
OUTLINE
  6
Continuous
100
AcDbLine
 10
-471.9630593185037
 20
1632.0
 30
0.0
 11
472.0369406814952
 21
1632.0
 31
0.0
  0
LINE
  5
88D
330
6F
100
AcDbEntity
  8
OUTLINE
  6
Continuous
100
AcDbLine
 10
510.0369406814952
 20
1632.0
 30
0.0
 11
550.0369406814952
 21
1632.0
 31
0.0
  0
LINE
  5
88E
330
6F
100
AcDbEntity
  8
OUTLINE
  6
Continuous
100
AcDbLine
 10
-549.9630593185047
 20
1950.0
 30
0.0
 11
-549.9630593185047
 21
1632.0
 31
0.0
  0
LINE
  5
88F
330
6F
100
AcDbEntity
  8
OUTLINE
  6
Continuous
100
AcDbLine
 10
510.4630593185028
 20
1924.000000000001
 30
0.0
 11
510.5369406814951
 21
840.0
 31
0.0
  0
LINE
  5
890
330
6F
100
AcDbEntity
  8
OUTLINE
  6
Continuous
100
AcDbLine
 10
472.5369406814952
 20
845.0
 30
0.0
 11
472.5369406814943
 21
1914.0
 31
0.0
  0
LINE
  5
891
330
6F
100
AcDbEntity
  8
OUTLINE
  6
Continuous
100
AcDbLine
 10
-472.4630593185037
 20
845.0
 30
0.0
 11
-472.4630593185037
 21
1914.0
 31
0.0
  0
LINE
  5
892
330
6F
100
AcDbEntity
  8
OUTLINE
  6
Continuous
100
AcDbLine
 10
-510.5369406814943
 20
1924.000000000001
 30
0.0
 11
-510.4630593185047
 21
839.9999999999995
 31
0.0
  0
LINE
  5
893
330
6F
100
AcDbEntity
  8
OUTLINE
  6
Continuous
100
AcDbLine
 10
-512.4630593185043
 20
960.0
 30
0.0
 11
-512.4630593185043
 21
59.99999999999989
 31
0.0
  0
LINE
  5
894
330
6F
100
AcDbEntity
  8
OUTLINE
  6
Continuous
100
AcDbLine
 10
-482.4630593185046
 20
960.0
 30
0.0
 11
-512.4630593185043
 21
960.0
 31
0.0
  0
ARC
  5
895
330
6F
100
AcDbEntity
  8
OUTLINE
  6
Continuous
100
AcDbCircle
 10
-547.4630593185052
 20
899.717682207946
 30
0.0
 40
5.0
100
AcDbArc
 50
90.0
 51
180.0
  0
LINE
  5
896
330
6F
100
AcDbEntity
  8
OUTLINE
  6
Continuous
100
AcDbLine
 10
-552.4630593185052
 20
869.7176822079468
 30
0.0
 11
-552.4630593185052
 21
899.717682207946
 31
0.0
  0
ARC
  5
897
330
6F
100
AcDbEntity
  8
OUTLINE
  6
Continuous
100
AcDbCircle
 10
-547.4630593185052
 20
869.7176822079468
 30
0.0
 40
5.0
100
AcDbArc
 50
180.0
 51
270.0
  0
LINE
  5
898
330
6F
100
AcDbEntity
  8
OUTLINE
  6
Continuous
100
AcDbLine
 10
-514.4630593185052
 20
864.7176822079467
 30
0.0
 11
-514.4630593185052
 21
904.717682207946
 31
0.0
  0
LINE
  5
899
330
6F
100
AcDbEntity
  8
OUTLINE
  6
Continuous
100
AcDbLine
 10
-512.4630593185047
 20
864.7176822079467
 30
0.0
 11
-512.4630593185047
 21
904.717682207946
 31
0.0
  0
LINE
  5
89A
330
6F
100
AcDbEntity
  8
OUTLINE
  6
Continuous
100
AcDbLine
 10
-512.4630593185047
 20
904.717682207946
 30
0.0
 11
-547.4630593185052
 21
904.717682207946
 31
0.0
  0
LINE
  5
89B
330
6F
100
AcDbEntity
  8
OUTLINE
  6
Continuous
100
AcDbLine
 10
-512.4630593185047
 20
864.7176822079467
 30
0.0
 11
-547.4630593185052
 21
864.7176822079467
 31
0.0
  0
LINE
  5
89C
330
6F
100
AcDbEntity
  8
OUTLINE
  6
Continuous
100
AcDbLine
 10
-472.4630593185037
 20
950.0
 30
0.0
 11
-472.4630593185037
 21
343.3506946325057
 31
0.0
  0
LINE
  5
89D
330
6F
100
AcDbEntity
  8
OUTLINE
  6
Continuous
100
AcDbLine
 10
-472.4630593185038
 20
760.0
 30
0.0
 11
472.5369406814952
 21
759.9999999999995
 31
0.0
  0
ARC
  5
89E
330
6F
100
AcDbEntity
  8
OUTLINE
  6
Continuous
100
AcDbCircle
 10
-482.4630593185046
 20
950.0
 30
0.0
 40
10.0
100
AcDbArc
 50
0.0
 51
90.0
  0
LINE
  5
89F
330
6F
100
AcDbEntity
  8
OUTLINE
  6
Continuous
100
AcDbLine
 10
-305.8630593185044
 20
800.0
 30
0.0
 11
-305.8630593185044
 21
801.6
 31
0.0
  0
LINE
  5
8A0
330
6F
100
AcDbEntity
  8
OUTLINE
  6
Continuous
100
AcDbLine
 10
-222.4630593185043
 20
815.0
 30
0.0
 11
-277.4630593185047
 21
815.0
 31
0.0
  0
LINE
  5
8A1
330
6F
100
AcDbEntity
  8
OUTLINE
  6
Continuous
100
AcDbLine
 10
-224.0630593185042
 20
813.4000000000003
 30
0.0
 11
-275.8630593185044
 21
813.4
 31
0.0
  0
LINE
  5
8A2
330
6F
100
AcDbEntity
  8
OUTLINE
  6
Continuous
100
AcDbLine
 10
-222.4630593185043
 20
801.6
 30
0.0
 11
-194.0630593185042
 21
801.6
 31
0.0
  0
LINE
  5
8A3
330
6F
100
AcDbEntity
  8
OUTLINE
  6
Continuous
100
AcDbLine
 10
-222.4630593185043
 20
815.0
 30
0.0
 11
-222.4630593185043
 21
801.6
 31
0.0
  0
LINE
  5
8A4
330
6F
100
AcDbEntity
  8
OUTLINE
  6
Continuous
100
AcDbLine
 10
-224.0630593185042
 20
813.4
 30
0.0
 11
-224.0630593185042
 21
800.0
 31
0.0
  0
LINE
  5
8A5
330
6F
100
AcDbEntity
  8
OUTLINE
  6
Continuous
100
AcDbLine
 10
-224.0630593185042
 20
800.0
 30
0.0
 11
-194.0630593185042
 21
800.0
 31
0.0
  0
LINE
  5
8A6
330
6F
100
AcDbEntity
  8
OUTLINE
  6
Continuous
100
AcDbLine
 10
-194.0630593185042
 20
800.0
 30
0.0
 11
-194.0630593185042
 21
801.6
 31
0.0
  0
LINE
  5
8A7
330
6F
100
AcDbEntity
  8
OUTLINE
  6
Continuous
100
AcDbLine
 10
-277.4630593185047
 20
801.6
 30
0.0
 11
-305.8630593185044
 21
801.6
 31
0.0
  0
LINE
  5
8A8
330
6F
100
AcDbEntity
  8
OUTLINE
  6
Continuous
100
AcDbLine
 10
-277.4630593185047
 20
815.0
 30
0.0
 11
-277.4630593185047
 21
801.6
 31
0.0
  0
LINE
  5
8A9
330
6F
100
AcDbEntity
  8
OUTLINE
  6
Continuous
100
AcDbLine
 10
-275.8630593185044
 20
813.4
 30
0.0
 11
-275.8630593185044
 21
800.0
 31
0.0
  0
LINE
  5
8AA
330
6F
100
AcDbEntity
  8
OUTLINE
  6
Continuous
100
AcDbLine
 10
-275.8630593185044
 20
800.0
 30
0.0
 11
-305.8630593185044
 21
800.0
 31
0.0
  0
LINE
  5
8AB
330
6F
100
AcDbEntity
  8
OUTLINE
  6
Continuous
100
AcDbLine
 10
-472.4630593185037
 20
302.5035444420451
 30
0.0
 11
-472.4630593185037
 21
59.99999999999989
 31
0.0
  0
LINE
  5
8AC
330
6F
100
AcDbEntity
  8
OUTLINE
  6
Continuous
100
AcDbLine
 10
-470.4630593185043
 20
54.99999999999989
 30
0.0
 11
-514.7630593185043
 21
54.99999999999989
 31
0.0
  0
LINE
  5
8AD
330
6F
100
AcDbEntity
  8
OUTLINE
  6
Continuous
100
AcDbLine
 10
-470.4630593185043
 20
-0.0000000000001137
 30
0.0
 11
-514.7630593185043
 21
-0.0000000000001137
 31
0.0
  0
LINE
  5
8AE
330
6F
100
AcDbEntity
  8
OUTLINE
  6
Continuous
100
AcDbLine
 10
-470.4630593185043
 20
-0.0000000000001137
 30
0.0
 11
-470.4630593185043
 21
54.99999999999989
 31
0.0
  0
LINE
  5
8AF
330
6F
100
AcDbEntity
  8
OUTLINE
  6
Continuous
100
AcDbLine
 10
-514.7630593185043
 20
-0.0000000000001137
 30
0.0
 11
-514.7630593185043
 21
54.99999999999989
 31
0.0
  0
LINE
  5
8B0
330
6F
100
AcDbEntity
  8
OUTLINE
  6
Continuous
100
AcDbLine
 10
472.5369406814952
 20
950.0
 30
0.0
 11
472.5369406814952
 21
748.8256714681564
 31
0.0
  0
LINE
  5
8B1
330
6F
100
AcDbEntity
  8
OUTLINE
  6
Continuous
100
AcDbLine
 10
512.5369406814952
 20
960.0
 30
0.0
 11
512.5369406814952
 21
60.0
 31
0.0
  0
LINE
  5
8B2
330
6F
100
AcDbEntity
  8
OUTLINE
  6
Continuous
100
AcDbLine
 10
482.5369406814951
 20
960.0
 30
0.0
 11
512.5369406814952
 21
960.0
 31
0.0
  0
ARC
  5
8B3
330
6F
100
AcDbEntity
  8
OUTLINE
  6
Continuous
100
AcDbCircle
 10
482.5369406814951
 20
950.0
 30
0.0
 40
10.00000000000011
100
AcDbArc
 50
90.0
 51
180.0
  0
ARC
  5
8B4
330
6F
100
AcDbEntity
  8
OUTLINE
  6
Continuous
100
AcDbCircle
 10
547.5369406814938
 20
869.7176822079441
 30
0.0
 40
5.0
100
AcDbArc
 50
270.0
 51
0.0
  0
ARC
  5
8B5
330
6F
100
AcDbEntity
  8
OUTLINE
  6
Continuous
100
AcDbCircle
 10
547.5369406814938
 20
899.717682207944
 30
0.0
 40
5.0
100
AcDbArc
 50
0.0
 51
90.0
  0
LINE
  5
8B6
330
6F
100
AcDbEntity
  8
OUTLINE
  6
Continuous
100
AcDbLine
 10
512.5369406814948
 20
864.7176822079442
 30
0.0
 11
547.5369406814938
 21
864.7176822079442
 31
0.0
  0
LINE
  5
8B7
330
6F
100
AcDbEntity
  8
OUTLINE
  6
Continuous
100
AcDbLine
 10
512.5369406814948
 20
904.7176822079437
 30
0.0
 11
547.5369406814938
 21
904.7176822079437
 31
0.0
  0
LINE
  5
8B8
330
6F
100
AcDbEntity
  8
OUTLINE
  6
Continuous
100
AcDbLine
 10
512.5369406814948
 20
864.7176822079442
 30
0.0
 11
512.5369406814948
 21
904.7176822079437
 31
0.0
  0
LINE
  5
8B9
330
6F
100
AcDbEntity
  8
OUTLINE
  6
Continuous
100
AcDbLine
 10
514.5369406814938
 20
864.7176822079442
 30
0.0
 11
514.5369406814938
 21
904.7176822079437
 31
0.0
  0
LINE
  5
8BA
330
6F
100
AcDbEntity
  8
OUTLINE
  6
Continuous
100
AcDbLine
 10
552.5369406814943
 20
869.7176822079441
 30
0.0
 11
552.5369406814943
 21
899.717682207944
 31
0.0
  0
LINE
  5
8BB
330
6F
100
AcDbEntity
  8
OUTLINE
  6
Continuous
100
AcDbLine
 10
472.5369406814952
 20
703.6322457601213
 30
0.0
 11
472.5369406814952
 21
60.0
 31
0.0
  0
LINE
  5
8BC
330
6F
100
AcDbEntity
  8
OUTLINE
  6
Continuous
100
AcDbLine
 10
470.5369406814951
 20
0.0
 30
0.0
 11
514.8369406814953
 21
0.0
 31
0.0
  0
LINE
  5
8BD
330
6F
100
AcDbEntity
  8
OUTLINE
  6
Continuous
100
AcDbLine
 10
470.5369406814951
 20
0.0
 30
0.0
 11
470.5369406814951
 21
55.0
 31
0.0
  0
LINE
  5
8BE
330
6F
100
AcDbEntity
  8
OUTLINE
  6
Continuous
100
AcDbLine
 10
514.8369406814953
 20
0.0
 30
0.0
 11
514.8369406814953
 21
55.0
 31
0.0
  0
LINE
  5
8BF
330
6F
100
AcDbEntity
  8
OUTLINE
  6
Continuous
100
AcDbLine
 10
470.5369406814951
 20
55.0
 30
0.0
 11
514.8369406814953
 21
55.0
 31
0.0
  0
LINE
  5
8C0
330
6F
100
AcDbEntity
  8
OUTLINE
  6
Continuous
100
AcDbLine
 10
-472.4630593185038
 20
800.0
 30
0.0
 11
472.5369406814952
 21
800.0
 31
0.0
  0
LINE
  5
8C1
330
6F
100
AcDbEntity
  8
OUTLINE
  6
Continuous
100
AcDbLine
 10
305.9369406814953
 20
800.0
 30
0.0
 11
305.9369406814953
 21
801.6
 31
0.0
  0
LINE
  5
8C2
330
6F
100
AcDbEntity
  8
OUTLINE
  6
Continuous
100
AcDbLine
 10
277.5369406814952
 20
801.6
 30
0.0
 11
305.9369406814953
 21
801.6
 31
0.0
  0
LINE
  5
8C3
330
6F
100
AcDbEntity
  8
OUTLINE
  6
Continuous
100
AcDbLine
 10
275.9369406814954
 20
813.4
 30
0.0
 11
275.9369406814954
 21
800.0
 31
0.0
  0
LINE
  5
8C4
330
6F
100
AcDbEntity
  8
OUTLINE
  6
Continuous
100
AcDbLine
 10
277.5369406814952
 20
815.0
 30
0.0
 11
277.5369406814952
 21
801.6
 31
0.0
  0
LINE
  5
8C5
330
6F
100
AcDbEntity
  8
OUTLINE
  6
Continuous
100
AcDbLine
 10
222.5369406814952
 20
815.0
 30
0.0
 11
277.5369406814952
 21
815.0
 31
0.0
  0
LINE
  5
8C6
330
6F
100
AcDbEntity
  8
OUTLINE
  6
Continuous
100
AcDbLine
 10
224.1369406814952
 20
813.4000000000003
 30
0.0
 11
275.9369406814954
 21
813.4
 31
0.0
  0
LINE
  5
8C7
330
6F
100
AcDbEntity
  8
OUTLINE
  6
Continuous
100
AcDbLine
 10
275.9369406814954
 20
800.0
 30
0.0
 11
305.9369406814953
 21
800.0
 31
0.0
  0
LINE
  5
8C8
330
6F
100
AcDbEntity
  8
OUTLINE
  6
Continuous
100
AcDbLine
 10
222.5369406814952
 20
801.6
 30
0.0
 11
194.1369406814951
 21
801.6
 31
0.0
  0
LINE
  5
8C9
330
6F
100
AcDbEntity
  8
OUTLINE
  6
Continuous
100
AcDbLine
 10
222.5369406814952
 20
815.0
 30
0.0
 11
222.5369406814952
 21
801.6
 31
0.0
  0
LINE
  5
8CA
330
6F
100
AcDbEntity
  8
OUTLINE
  6
Continuous
100
AcDbLine
 10
224.1369406814952
 20
813.4
 30
0.0
 11
224.1369406814952
 21
800.0
 31
0.0
  0
LINE
  5
8CB
330
6F
100
AcDbEntity
  8
OUTLINE
  6
Continuous
100
AcDbLine
 10
224.1369406814952
 20
800.0
 30
0.0
 11
194.1369406814951
 21
800.0
 31
0.0
  0
LINE
  5
8CC
330
6F
100
AcDbEntity
  8
OUTLINE
  6
Continuous
100
AcDbLine
 10
194.1369406814951
 20
800.0
 30
0.0
 11
194.1369406814951
 21
801.6
 31
0.0
  0
LINE
  5
8CD
330
6F
100
AcDbEntity
  8
OUTLINE
  6
Continuous
100
AcDbLine
 10
0.0369406814952527
 20
503.0678951010831
 30
0.0
 11
472.5369406814952
 21
302.5035444420451
 31
0.0
  0
LINE
  5
8CE
330
6F
100
AcDbEntity
  8
OUTLINE
  6
Continuous
100
AcDbLine
 10
-472.4630593185038
 20
744.47939595056
 30
0.0
 11
-446.7659973189975
 21
733.5716402811923
 31
0.0
  0
LINE
  5
8CF
330
6F
100
AcDbEntity
  8
OUTLINE
  6
Continuous
100
AcDbLine
 10
51.22303398644453
 20
524.7951026491887
 30
0.0
 11
454.4255040658653
 21
353.645808266968
 31
0.0
  0
LINE
  5
8D0
330
6F
100
AcDbEntity
  8
OUTLINE
  6
Continuous
100
AcDbLine
 10
-445.8282426106229
 20
735.7808519294787
 30
0.0
 11
-446.7659973189975
 21
733.5716402811923
 31
0.0
  0
LINE
  5
8D1
330
6F
100
AcDbEntity
  8
OUTLINE
  6
Continuous
100
AcDbLine
 10
-499.4391106671305
 20
331.9000401942377
 30
0.0
 11
-453.4138679945075
 21
351.4365966186997
 31
0.0
  0
LINE
  5
8D2
330
6F
100
AcDbEntity
  8
OUTLINE
  6
Continuous
100
AcDbLine
 10
-454.3516227028821
 20
353.6458082669856
 30
0.0
 11
-453.4138679945075
 21
351.4365966186997
 31
0.0
  0
LINE
  5
8D3
330
6F
100
AcDbEntity
  8
OUTLINE
  6
Continuous
100
AcDbLine
 10
-499.4391106671305
 20
331.9000401942377
 30
0.0
 11
-504.7368479167621
 21
318.7876803748209
 31
0.0
  0
LINE
  5
8D4
330
6F
100
AcDbEntity
  8
OUTLINE
  6
Continuous
100
AcDbLine
 10
-497.8599800553502
 20
302.5867949540584
 30
0.0
 11
-504.7368479167621
 21
318.7876803748209
 31
0.0
  0
LINE
  5
8D5
330
6F
100
AcDbEntity
  8
OUTLINE
  6
Continuous
100
AcDbLine
 10
-497.8599800553502
 20
302.5867949540584
 30
0.0
 11
-484.7476202359326
 21
297.2890577044264
 31
0.0
  0
LINE
  5
8D6
330
6F
100
AcDbEntity
  8
OUTLINE
  6
Continuous
100
AcDbLine
 10
445.9021239736138
 20
735.7808519294787
 30
0.0
 11
446.839878681988
 21
733.5716402811923
 31
0.0
  0
LINE
  5
8D7
330
6F
100
AcDbEntity
  8
OUTLINE
  6
Continuous
100
AcDbLine
 10
492.86512135461
 20
753.1081967056564
 30
0.0
 11
446.839878681988
 21
733.5716402811923
 31
0.0
  0
LINE
  5
8D8
330
6F
100
AcDbEntity
  8
OUTLINE
  6
Continuous
100
AcDbLine
 10
492.86512135461
 20
753.1081967056564
 30
0.0
 11
505.977481174026
 21
747.8104594560242
 31
0.0
  0
LINE
  5
8D9
330
6F
100
AcDbEntity
  8
OUTLINE
  6
Continuous
100
AcDbLine
 10
512.8543490354368
 20
731.6095740352609
 30
0.0
 11
505.977481174026
 21
747.8104594560242
 31
0.0
  0
LINE
  5
8DA
330
6F
100
AcDbEntity
  8
OUTLINE
  6
Continuous
100
AcDbLine
 10
512.8543490354368
 20
731.6095740352609
 30
0.0
 11
507.5566117858043
 21
718.4972142158438
 31
0.0
  0
LINE
  5
8DB
330
6F
100
AcDbEntity
  8
OUTLINE
  6
Continuous
100
AcDbLine
 10
49.68745118729565
 20
524.1432864227459
 30
0.0
 11
453.9566267116783
 21
352.5412024428251
 31
0.0
  0
LINE
  5
8DC
330
6F
100
AcDbEntity
  8
OUTLINE
  6
Continuous
100
AcDbLine
 10
472.5369406814952
 20
343.3506946325056
 30
0.0
 11
453.4877493574986
 21
351.4365966186997
 31
0.0
  0
LINE
  5
8DD
330
6F
100
AcDbEntity
  8
OUTLINE
  6
Continuous
100
AcDbLine
 10
454.4255040658726
 20
353.6458082669858
 30
0.0
 11
453.4877493574986
 21
351.4365966186997
 31
0.0
  0
LINE
  5
8DE
330
6F
100
AcDbEntity
  8
BASIS
  6
DASHDOT
100
AcDbLine
 10
0.0369406814952527
 20
2002.48208271806
 30
0.0
 11
0.0369406814952527
 21
-49.71768220794364
 31
0.0
  0
POINT
  5
8DF
330
6F
100
AcDbEntity
  8
DEFPOINTS
  6
Continuous
 62
    30
100
AcDbPoint
 10
-489.9630593185043
 20
-20.0
 30
0.0
  0
POINT
  5
8E0
330
6F
100
AcDbEntity
  8
DEFPOINTS
  6
Continuous
 62
    30
100
AcDbPoint
 10
490.0369406814951
 20
-20.0
 30
0.0
  0
POINT
  5
8E1
330
6F
100
AcDbEntity
  8
DEFPOINTS
  6
Continuous
 62
    30
100
AcDbPoint
 10
-249.9630593185047
 20
795.0
 30
0.0
  0
POINT
  5
8E2
330
6F
100
AcDbEntity
  8
DEFPOINTS
  6
Continuous
 62
    30
100
AcDbPoint
 10
250.0369406814952
 20
795.0
 30
0.0
  0
POINT
  5
8E3
330
6F
100
AcDbEntity
  8
DEFPOINTS
  6
Continuous
 62
    30
100
AcDbPoint
 10
-509.9630593185038
 20
0.0
 30
0.0
  0
POINT
  5
8E4
330
6F
100
AcDbEntity
  8
DEFPOINTS
  6
Continuous
 62
    30
100
AcDbPoint
 10
-509.9630593185038
 20
0.0
 30
0.0
  0
POINT
  5
8E5
330
6F
100
AcDbEntity
  8
DEFPOINTS
  6
Continuous
 62
    30
100
AcDbPoint
 10
-534.4630593185042
 20
864.9999698056022
 30
0.0
  0
POINT
  5
8E6
330
6F
100
AcDbEntity
  8
DEFPOINTS
  6
Continuous
 62
    30
100
AcDbPoint
 10
534.5369406814947
 20
864.9999698056003
 30
0.0
  0
LINE
  5
8E7
330
6F
100
AcDbEntity
  8
NOTE
  6
Continuous
100
AcDbLine
 10
1093.200296303961
 20
1006.888671875019
 30
0.0
 11
665.0485373611786
 21
1006.888671875013
 31
0.0
  0
LINE
  5
8E8
330
6F
100
AcDbEntity
  8
NOTE
  6
Continuous
100
AcDbLine
 10
665.0485373611805
 20
1006.888702069402
 30
0.0
 11
534.5369406814947
 21
885.0000000000006
 31
0.0
  0
LINE
  5
8E9
330
6F
100
AcDbEntity
  8
NOTE
  6
Continuous
100
AcDbLine
 10
534.5369406814947
 20
885.0000000000001
 30
0.0
 11
536.2934978730057
 21
885.9562985061968
 31
0.0
  0
LINE
  5
8EA
330
6F
100
AcDbEntity
  8
NOTE
  6
Continuous
100
AcDbLine
 10
534.5369406814947
 20
885.0000000000001
 30
0.0
 11
535.5800145545811
 21
886.7064574109205
 31
0.0
  0
TEXT
  5
8EB
330
6F
100
AcDbEntity
  8
NOTE
  6
Continuous
100
AcDbText
 10
669.6700533017042
 20
1011.66326346505
 30
0.0
 40
40.0
  1
AH 2-M8以上,推奨M10
 50
359.9999906473793
 41
0.701388907432556
  7
STANDARD1
100
AcDbText
  0
LINE
  5
8EC
330
6F
100
AcDbEntity
  8
NOTE
  6
Continuous
100
AcDbLine
 10
470.0369406814951
 20
0.0
 30
0.0
 11
510.0369406814952
 21
0.0
 31
0.0
  0
LINE
  5
8ED
330
6F
100
AcDbEntity
  8
NOTE
  6
Continuous
100
AcDbLine
 10
490.0369406814951
 20
20.0
 30
0.0
 11
490.0369406814951
 21
-20.0
 31
0.0
  0
LINE
  5
8EE
330
6F
100
AcDbEntity
  8
NOTE
  6
Continuous
100
AcDbLine
 10
-1040.856545818164
 20
-171.3188262524522
 30
0.0
 11
-605.6070874231835
 21
-170.6720374330302
 31
0.0
  0
LINE
  5
8EF
330
6F
100
AcDbEntity
  8
NOTE
  6
Continuous
100
AcDbLine
 10
-605.6070874231835
 20
-170.6720374330302
 30
0.0
 11
-489.9630593185043
 21
-0.0000000000002274
 31
0.0
  0
LINE
  5
8F0
330
6F
100
AcDbEntity
  8
NOTE
  6
Continuous
100
AcDbLine
 10
-489.9630593185043
 20
-0.0000000000002274
 30
0.0
 11
-491.4752414869422
 21
-1.308932805555286
 31
0.0
  0
LINE
  5
8F1
330
6F
100
AcDbEntity
  8
NOTE
  6
Continuous
100
AcDbLine
 10
-489.9630593185043
 20
-0.0000000000002274
 30
0.0
 11
-490.6181810612106
 21
-1.889660155222145
 31
0.0
  0
TEXT
  5
8F2
330
6F
100
AcDbEntity
  8
NOTE
  6
Continuous
100
AcDbText
 10
-1040.131737882011
 20
-169.1059296508163
 30
0.0
 40
40.0
  1
AH 4-M8以上、推奨M10
 50
0.085140120315188
 41
0.669642877578735
  7
STANDARD1
100
AcDbText
  0
LINE
  5
8F3
330
6F
100
AcDbEntity
  8
NOTE
  6
Continuous
100
AcDbLine
 10
-469.9630593185043
 20
0.0
 30
0.0
 11
-509.9630593185038
 21
0.0
 31
0.0
  0
LINE
  5
8F4
330
6F
100
AcDbEntity
  8
NOTE
  6
Continuous
100
AcDbLine
 10
-489.9630593185043
 20
20.0
 30
0.0
 11
-489.9630593185043
 21
-20.0
 31
0.0
  0
LINE
  5
8F5
330
6F
100
AcDbEntity
  8
NOTE
  6
Continuous
100
AcDbLine
 10
-249.9630593185047
 20
835.0
 30
0.0
 11
-249.9630593185047
 21
795.0
 31
0.0
  0
LINE
  5
8F6
330
6F
100
AcDbEntity
  8
NOTE
  6
Continuous
100
AcDbLine
 10
-229.9630593185047
 20
815.0
 30
0.0
 11
-269.9630593185048
 21
815.0
 31
0.0
  0
LINE
  5
8F7
330
6F
100
AcDbEntity
  8
NOTE
  6
Continuous
100
AcDbLine
 10
906.6706710503526
 20
592.5227407238692
 30
0.0
 11
250.0369406814952
 21
815.0
 31
0.0
  0
LINE
  5
8F8
330
6F
100
AcDbEntity
  8
NOTE
  6
Continuous
100
AcDbLine
 10
250.0369406814952
 20
815.0
 30
0.0
 11
251.4936628114524
 21
813.6296129612066
 31
0.0
  0
LINE
  5
8F9
330
6F
100
AcDbEntity
  8
NOTE
  6
Continuous
100
AcDbLine
 10
250.0369406814952
 20
815.0
 30
0.0
 11
251.9836925783689
 21
814.5415711047316
 31
0.0
  0
TEXT
  5
8FA
330
6F
100
AcDbEntity
  8
NOTE
  6
Continuous
100
AcDbText
 10
903.8626686970646
 20
645.5500257522749
 30
0.0
 40
40.0
  1
４－ワッシャー付六角ボルト
 50
359.9401160740386
 41
0.6740384817123412
  7
STANDARD1
100
AcDbText
  0
LINE
  5
8FB
330
6F
100
AcDbEntity
  8
NOTE
  6
Continuous
100
AcDbLine
 10
250.0369406814952
 20
835.0
 30
0.0
 11
250.0369406814952
 21
795.0
 31
0.0
  0
LINE
  5
8FC
330
6F
100
AcDbEntity
  8
NOTE
  6
Continuous
100
AcDbLine
 10
230.0369406814953
 20
815.0
 30
0.0
 11
270.0369406814953
 21
815.0
 31
0.0
  0
TEXT
  5
8FD
330
6F
100
AcDbEntity
  8
NOTE
  6
Continuous
100
AcDbText
 10
-202.3217781905751
 20
-602.9777221679687
 30
0.0
 40
40.0
  1
転倒防止金具固定位置
 50
0.0000025613209388
 41
0.84375
  7
STANDARD1
100
AcDbText
  0
TEXT
  5
8FE
330
6F
100
AcDbEntity
  8
NOTE
  6
Continuous
100
AcDbText
 10
-60.97537316127819
 20
2047.717895507815
 30
0.0
 40
40.0
  1
屋根幅
 50
0.0000025613209388
 41
0.84375
  7
STANDARD1
100
AcDbText
  0
TEXT
  5
8FF
330
6F
100
AcDbEntity
  8
NOTE
  6
Continuous
100
AcDbText
 10
-755.833073263324
 20
891.5290306566875
 30
0.0
 40
40.0
  1
屋根高さ
 50
90.00000500895634
 41
0.84375
  7
STANDARD1
100
AcDbText
  0
TEXT
  5
900
330
6F
100
AcDbEntity
  8
NOTE
  6
Continuous
100
AcDbText
 10
-190.688095939598
 20
-346.6846923828125
 30
0.0
 40
40.0
  1
アンカーボルトピッチ
 50
0.0000025613209388
 41
0.84375
  7
STANDARD1
100
AcDbText
  0
LINE
  5
901
330
6F
100
AcDbEntity
  8
NOTE
  6
Continuous
100
AcDbLine
 10
-534.4630593185042
 20
865.0000000000028
 30
0.0
 11
-534.4630593185042
 21
905.0000000000029
 31
0.0
  0
LINE
  5
902
330
6F
100
AcDbEntity
  8
NOTE
  6
Continuous
100
AcDbLine
 10
-554.4630593185043
 20
885.0000000000024
 30
0.0
 11
-514.4630593185042
 21
885.0000000000024
 31
0.0
  0
LINE
  5
903
330
6F
100
AcDbEntity
  8
NOTE
  6
Continuous
100
AcDbLine
 10
534.5369406814947
 20
865.0000000000007
 30
0.0
 11
534.5369406814947
 21
905.0000000000007
 31
0.0
  0
LINE
  5
904
330
6F
100
AcDbEntity
  8
NOTE
  6
Continuous
100
AcDbLine
 10
554.5369406814939
 20
885.0000000000001
 30
0.0
 11
514.5369406814938
 21
885.0000000000001
 31
0.0
  0
TEXT
  5
905
330
6F
100
AcDbEntity
  8
NOTE
  6
Continuous
100
AcDbText
 10
-176.8115853194813
 20
-198.6341857910156
 30
0.0
 40
40.0
  1
据付用ボルトピッチ
 50
0.0000025613209388
 41
0.84375
  7
STANDARD1
100
AcDbText
  0
CIRCLE
  5
906
330
6F
100
AcDbEntity
  8
FIX
  6
Continuous
100
AcDbCircle
 10
490.0369406814951
 20
0.0
 30
0.0
 40
5.0
  0
CIRCLE
  5
907
330
6F
100
AcDbEntity
  8
FIX
  6
Continuous
100
AcDbCircle
 10
-489.9630593185043
 20
0.0
 30
0.0
 40
5.0
  0
CIRCLE
  5
908
330
6F
100
AcDbEntity
  8
FIX
  6
Continuous
100
AcDbCircle
 10
-249.9630593185047
 20
815.0
 30
0.0
 40
4.0
  0
CIRCLE
  5
909
330
6F
100
AcDbEntity
  8
FIX
  6
Continuous
100
AcDbCircle
 10
250.0369406814952
 20
815.0
 30
0.0
 40
4.0
  0
CIRCLE
  5
90A
330
6F
100
AcDbEntity
  8
FIX
  6
Continuous
100
AcDbCircle
 10
-534.4630593185042
 20
885.0000000000024
 30
0.0
 40
6.0
  0
CIRCLE
  5
90B
330
6F
100
AcDbEntity
  8
FIX
  6
Continuous
100
AcDbCircle
 10
534.5369406814947
 20
885.0000000000001
 30
0.0
 40
6.0
  0
TEXT
  5
90E
330
6F
100
AcDbEntity
  8
NOTE
  6
Continuous
100
AcDbText
 10
914.8224179887888
 20
595.2098318040206
 30
0.0
 40
40.0
  1
M8x25
 50
359.9401160740386
 41
0.6740384817123412
  7
STANDARD1
100
AcDbText
  0
LINE
  5
90F
330
6F
100
AcDbEntity
  8
DETAIL
  6
DASHED
100
AcDbLine
 10
477.5369406814951
 20
840.0
 30
0.0
 11
472.5369406814952
 21
845.0
 31
0.0
  0
LINE
  5
910
330
6F
100
AcDbEntity
  8
DETAIL
  6
DASHED
100
AcDbLine
 10
510.5369406814951
 20
840.0
 30
0.0
 11
477.5369406814951
 21
840.0
 31
0.0
  0
CIRCLE
  5
911
330
6F
100
AcDbEntity
  8
DETAIL
  6
Continuous
100
AcDbCircle
 10
490.5369406814951
 20
885.0000000000003
 30
0.0
 40
5.0
  0
CIRCLE
  5
912
330
6F
100
AcDbEntity
  8
DETAIL
  6
Continuous
100
AcDbCircle
 10
490.5369406814951
 20
935.0000000000006
 30
0.0
 40
5.0
  0
CIRCLE
  5
913
330
6F
100
AcDbEntity
  8
DETAIL
  6
Continuous
100
AcDbCircle
 10
-490.4630593185043
 20
885.0000000000029
 30
0.0
 40
5.0
  0
CIRCLE
  5
914
330
6F
100
AcDbEntity
  8
DETAIL
  6
Continuous
100
AcDbCircle
 10
-490.4630593185043
 20
935.0000000000029
 30
0.0
 40
5.0
  0
ARC
  5
915
330
6F
100
AcDbEntity
  8
DETAIL
  6
Continuous
100
AcDbCircle
 10
-490.4630593185043
 20
1555.700000000002
 30
0.0
 40
4.650000000001455
100
AcDbArc
 50
0.0
 51
180.0
  0
ARC
  5
916
330
6F
100
AcDbEntity
  8
DETAIL
  6
Continuous
100
AcDbCircle
 10
-490.4630593185043
 20
1535.000000000002
 30
0.0
 40
4.649999999994173
100
AcDbArc
 50
180.0
 51
0.0
  0
LINE
  5
917
330
6F
100
AcDbEntity
  8
DETAIL
  6
Continuous
100
AcDbLine
 10
-485.8130593185022
 20
1535.000000000002
 30
0.0
 11
-485.8130593185022
 21
1555.700000000002
 31
0.0
  0
LINE
  5
918
330
6F
100
AcDbEntity
  8
DETAIL
  6
Continuous
100
AcDbLine
 10
-495.113059318498
 20
1555.700000000002
 30
0.0
 11
-495.113059318498
 21
1535.000000000002
 31
0.0
  0
LINE
  5
919
330
6F
100
AcDbEntity
  8
DETAIL
  6
Continuous
100
AcDbLine
 10
-549.9630593185047
 20
1950.0
 30
0.0
 11
550.0369406814952
 21
1950.0
 31
0.0
  0
LINE
  5
91A
330
6F
100
AcDbEntity
  8
DETAIL
  6
Continuous
100
AcDbLine
 10
550.0369406814952
 20
1950.0
 30
0.0
 11
550.0369406814952
 21
1632.0
 31
0.0
  0
LINE
  5
91B
330
6F
100
AcDbEntity
  8
DETAIL
  6
Continuous
100
AcDbLine
 10
-549.9630593185047
 20
1632.0
 30
0.0
 11
-509.9630593185038
 21
1632.0
 31
0.0
  0
LINE
  5
91C
330
6F
100
AcDbEntity
  8
DETAIL
  6
Continuous
100
AcDbLine
 10
-471.9630593185037
 20
1632.0
 30
0.0
 11
472.0369406814952
 21
1632.0
 31
0.0
  0
LINE
  5
91D
330
6F
100
AcDbEntity
  8
DETAIL
  6
Continuous
100
AcDbLine
 10
510.0369406814952
 20
1632.0
 30
0.0
 11
550.0369406814952
 21
1632.0
 31
0.0
  0
LINE
  5
91E
330
6F
100
AcDbEntity
  8
DETAIL
  6
Continuous
100
AcDbLine
 10
-549.9630593185047
 20
1950.0
 30
0.0
 11
-549.9630593185047
 21
1632.0
 31
0.0
  0
LINE
  5
91F
330
6F
100
AcDbEntity
  8
DETAIL
  6
Continuous
100
AcDbLine
 10
510.4630593185028
 20
1924.000000000001
 30
0.0
 11
510.5369406814951
 21
965.0
 31
0.0
  0
LINE
  5
920
330
6F
100
AcDbEntity
  8
DETAIL
  6
DASHED
100
AcDbLine
 10
510.5369406814951
 20
965.0
 30
0.0
 11
510.5369406814951
 21
840.0
 31
0.0
  0
LINE
  5
921
330
6F
100
AcDbEntity
  8
DETAIL
  6
Continuous
100
AcDbLine
 10
472.5369406814952
 20
845.0
 30
0.0
 11
472.5369406814943
 21
1914.0
 31
0.0
  0
LINE
  5
922
330
6F
100
AcDbEntity
  8
DETAIL
  6
Continuous
100
AcDbLine
 10
-472.4630593185037
 20
845.0
 30
0.0
 11
-472.4630593185037
 21
1914.0
 31
0.0
  0
LINE
  5
923
330
6F
100
AcDbEntity
  8
DETAIL
  6
Continuous
100
AcDbLine
 10
-510.5369406814943
 20
1924.000000000001
 30
0.0
 11
-510.4630593185038
 21
965.0
 31
0.0
  0
LINE
  5
924
330
6F
100
AcDbEntity
  8
DETAIL
  6
Continuous
100
AcDbLine
 10
470.5369406814951
 20
0.0
 30
0.0
 11
514.8369406814953
 21
0.0
 31
0.0
  0
LINE
  5
925
330
6F
100
AcDbEntity
  8
DETAIL
  6
Continuous
100
AcDbLine
 10
482.5369406814951
 20
960.0
 30
0.0
 11
512.5369406814952
 21
960.0
 31
0.0
  0
LINE
  5
926
330
6F
100
AcDbEntity
  8
DETAIL
  6
Continuous
100
AcDbLine
 10
472.5369406814952
 20
950.0
 30
0.0
 11
472.5369406814952
 21
744.4793959505601
 31
0.0
  0
LINE
  5
927
330
6F
100
AcDbEntity
  8
DETAIL
  6
Continuous
100
AcDbLine
 10
512.5369406814952
 20
960.0
 30
0.0
 11
512.5369406814952
 21
60.0
 31
0.0
  0
LINE
  5
928
330
6F
100
AcDbEntity
  8
DETAIL
  6
Continuous
100
AcDbLine
 10
495.5369406814951
 20
948.0000000000003
 30
0.0
 11
495.5369406814951
 21
922.0
 31
0.0
  0
LINE
  5
929
330
6F
100
AcDbEntity
  8
DETAIL
  6
Continuous
100
AcDbLine
 10
485.5369406814951
 20
948.0000000000003
 30
0.0
 11
485.5369406814951
 21
922.0
 31
0.0
  0
ARC
  5
92A
330
6F
100
AcDbEntity
  8
DETAIL
  6
Continuous
100
AcDbCircle
 10
490.5369406814951
 20
948.0000000000003
 30
0.0
 40
5.0
100
AcDbArc
 50
0.0
 51
180.0
  0
ARC
  5
92B
330
6F
100
AcDbEntity
  8
DETAIL
  6
Continuous
100
AcDbCircle
 10
490.5369406814951
 20
922.0
 30
0.0
 40
5.0
100
AcDbArc
 50
180.0
 51
0.0
  0
LINE
  5
92C
330
6F
100
AcDbEntity
  8
DETAIL
  6
Continuous
100
AcDbLine
 10
470.5369406814951
 20
55.0
 30
0.0
 11
514.8369406814953
 21
55.0
 31
0.0
  0
LINE
  5
92D
330
6F
100
AcDbEntity
  8
DETAIL
  6
Continuous
100
AcDbLine
 10
470.5369406814951
 20
0.0
 30
0.0
 11
470.5369406814951
 21
55.0
 31
0.0
  0
LINE
  5
92E
330
6F
100
AcDbEntity
  8
DETAIL
  6
Continuous
100
AcDbLine
 10
514.8369406814953
 20
0.0
 30
0.0
 11
514.8369406814953
 21
55.0
 31
0.0
  0
LINE
  5
92F
330
6F
100
AcDbEntity
  8
DETAIL
  6
Continuous
100
AcDbLine
 10
-470.4630593185043
 20
-0.0000000000001137
 30
0.0
 11
-514.7630593185043
 21
-0.0000000000001137
 31
0.0
  0
LINE
  5
930
330
6F
100
AcDbEntity
  8
DETAIL
  6
Continuous
100
AcDbLine
 10
-470.4630593185043
 20
-0.0000000000001137
 30
0.0
 11
-470.4630593185043
 21
54.99999999999989
 31
0.0
  0
LINE
  5
931
330
6F
100
AcDbEntity
  8
DETAIL
  6
Continuous
100
AcDbLine
 10
-514.7630593185043
 20
-0.0000000000001137
 30
0.0
 11
-514.7630593185043
 21
54.99999999999989
 31
0.0
  0
LINE
  5
932
330
6F
100
AcDbEntity
  8
DETAIL
  6
Continuous
100
AcDbLine
 10
-512.4630593185043
 20
960.0
 30
0.0
 11
-512.4630593185043
 21
59.99999999999989
 31
0.0
  0
LINE
  5
933
330
6F
100
AcDbEntity
  8
DETAIL
  6
Continuous
100
AcDbLine
 10
-472.4630593185037
 20
950.0
 30
0.0
 11
-472.4630593185037
 21
343.3506946325057
 31
0.0
  0
LINE
  5
934
330
6F
100
AcDbEntity
  8
DETAIL
  6
Continuous
100
AcDbLine
 10
-470.4630593185043
 20
54.99999999999989
 30
0.0
 11
-514.7630593185043
 21
54.99999999999989
 31
0.0
  0
LINE
  5
935
330
6F
100
AcDbEntity
  8
DETAIL
  6
Continuous
100
AcDbLine
 10
-482.4630593185046
 20
960.0
 30
0.0
 11
-512.4630593185043
 21
960.0
 31
0.0
  0
LINE
  5
936
330
6F
100
AcDbEntity
  8
DETAIL
  6
Continuous
100
AcDbLine
 10
-472.4630593185038
 20
800.0
 30
0.0
 11
472.5369406814952
 21
800.0
 31
0.0
  0
LINE
  5
937
330
6F
100
AcDbEntity
  8
DETAIL
  6
Continuous
100
AcDbLine
 10
472.5369406814952
 20
708.6322457601213
 30
0.0
 11
472.5369406814952
 21
60.0
 31
0.0
  0
LINE
  5
938
330
6F
100
AcDbEntity
  8
DETAIL
  6
Continuous
100
AcDbLine
 10
-472.4630593185037
 20
302.5035444420451
 30
0.0
 11
-472.4630593185037
 21
59.99999999999989
 31
0.0
  0
LINE
  5
939
330
6F
100
AcDbEntity
  8
DETAIL
  6
Continuous
100
AcDbLine
 10
-472.4630593185038
 20
760.0
 30
0.0
 11
472.5369406814952
 21
759.9999999999995
 31
0.0
  0
LINE
  5
93A
330
6F
100
AcDbEntity
  8
DETAIL
  6
DASHED
100
AcDbLine
 10
472.5369406814952
 20
9.800000000000293
 30
0.0
 11
512.5369406814952
 21
9.80000000000018
 31
0.0
  0
ARC
  5
93B
330
6F
100
AcDbEntity
  8
DETAIL
  6
DASHED
100
AcDbCircle
 10
490.5369406814951
 20
37.50000000000023
 30
0.0
 40
5.0
100
AcDbArc
 50
180.0
 51
0.0
  0
ARC
  5
93C
330
6F
100
AcDbEntity
  8
DETAIL
  6
DASHED
100
AcDbCircle
 10
490.5369406814951
 20
42.50000000000023
 30
0.0
 40
5.0
100
AcDbArc
 50
0.0
 51
180.0
  0
LINE
  5
93D
330
6F
100
AcDbEntity
  8
DETAIL
  6
DASHED
100
AcDbLine
 10
485.5369406814951
 20
42.50000000000023
 30
0.0
 11
485.5369406814951
 21
37.50000000000023
 31
0.0
  0
LINE
  5
93E
330
6F
100
AcDbEntity
  8
DETAIL
  6
DASHED
100
AcDbLine
 10
495.5369406814951
 20
42.50000000000023
 30
0.0
 11
495.5369406814951
 21
37.50000000000023
 31
0.0
  0
ARC
  5
93F
330
6F
100
AcDbEntity
  8
DETAIL
  6
Continuous
100
AcDbCircle
 10
-482.4630593185046
 20
950.0
 30
0.0
 40
10.0
100
AcDbArc
 50
0.0
 51
90.0
  0
ARC
  5
940
330
6F
100
AcDbEntity
  8
DETAIL
  6
Continuous
100
AcDbCircle
 10
482.5369406814951
 20
950.0
 30
0.0
 40
10.00000000000011
100
AcDbArc
 50
90.0
 51
180.0
  0
LINE
  5
941
330
6F
100
AcDbEntity
  8
DETAIL
  6
DASHED
100
AcDbLine
 10
512.5369406814952
 20
60.0
 30
0.0
 11
512.5369406814952
 21
9.80000000000018
 31
0.0
  0
LINE
  5
942
330
6F
100
AcDbEntity
  8
DETAIL
  6
DASHED
100
AcDbLine
 10
472.5369406814952
 20
60.0
 30
0.0
 11
472.5369406814952
 21
9.800000000000293
 31
0.0
  0
LINE
  5
943
330
6F
100
AcDbEntity
  8
DETAIL
  6
DASHED
100
AcDbLine
 10
-472.4630593185037
 20
9.80000000000018
 30
0.0
 11
-512.4630593185043
 21
9.800000000000068
 31
0.0
  0
LINE
  5
944
330
6F
100
AcDbEntity
  8
DETAIL
  6
DASHED
100
AcDbLine
 10
-472.4630593185037
 20
59.99999999999989
 30
0.0
 11
-472.4630593185037
 21
9.80000000000018
 31
0.0
  0
LINE
  5
945
330
6F
100
AcDbEntity
  8
DETAIL
  6
DASHED
100
AcDbLine
 10
-512.4630593185043
 20
59.99999999999989
 30
0.0
 11
-512.4630593185043
 21
9.800000000000068
 31
0.0
  0
LINE
  5
946
330
6F
100
AcDbEntity
  8
DETAIL
  6
Continuous
100
AcDbLine
 10
305.9369406814953
 20
800.0
 30
0.0
 11
305.9369406814953
 21
801.6
 31
0.0
  0
LINE
  5
947
330
6F
100
AcDbEntity
  8
DETAIL
  6
Continuous
100
AcDbLine
 10
277.5369406814952
 20
801.6
 30
0.0
 11
305.9369406814953
 21
801.6
 31
0.0
  0
LINE
  5
948
330
6F
100
AcDbEntity
  8
DETAIL
  6
Continuous
100
AcDbLine
 10
275.9369406814954
 20
813.4
 30
0.0
 11
275.9369406814954
 21
800.0
 31
0.0
  0
LINE
  5
949
330
6F
100
AcDbEntity
  8
DETAIL
  6
Continuous
100
AcDbLine
 10
277.5369406814952
 20
815.0
 30
0.0
 11
277.5369406814952
 21
801.6
 31
0.0
  0
LINE
  5
94A
330
6F
100
AcDbEntity
  8
DETAIL
  6
Continuous
100
AcDbLine
 10
222.5369406814952
 20
815.0
 30
0.0
 11
277.5369406814952
 21
815.0
 31
0.0
  0
LINE
  5
94B
330
6F
100
AcDbEntity
  8
DETAIL
  6
Continuous
100
AcDbLine
 10
224.1369406814952
 20
813.4000000000003
 30
0.0
 11
275.9369406814954
 21
813.4
 31
0.0
  0
LINE
  5
94C
330
6F
100
AcDbEntity
  8
DETAIL
  6
Continuous
100
AcDbLine
 10
275.9369406814954
 20
800.0
 30
0.0
 11
305.9369406814953
 21
800.0
 31
0.0
  0
LINE
  5
94D
330
6F
100
AcDbEntity
  8
DETAIL
  6
Continuous
100
AcDbLine
 10
222.5369406814952
 20
801.6
 30
0.0
 11
194.1369406814951
 21
801.6
 31
0.0
  0
LINE
  5
94E
330
6F
100
AcDbEntity
  8
DETAIL
  6
Continuous
100
AcDbLine
 10
222.5369406814952
 20
815.0
 30
0.0
 11
222.5369406814952
 21
801.6
 31
0.0
  0
LINE
  5
94F
330
6F
100
AcDbEntity
  8
DETAIL
  6
Continuous
100
AcDbLine
 10
224.1369406814952
 20
813.4
 30
0.0
 11
224.1369406814952
 21
800.0
 31
0.0
  0
LINE
  5
950
330
6F
100
AcDbEntity
  8
DETAIL
  6
Continuous
100
AcDbLine
 10
224.1369406814952
 20
800.0
 30
0.0
 11
194.1369406814951
 21
800.0
 31
0.0
  0
LINE
  5
951
330
6F
100
AcDbEntity
  8
DETAIL
  6
Continuous
100
AcDbLine
 10
194.1369406814951
 20
800.0
 30
0.0
 11
194.1369406814951
 21
801.6
 31
0.0
  0
LINE
  5
952
330
6F
100
AcDbEntity
  8
DETAIL
  6
Continuous
100
AcDbLine
 10
-305.8630593185044
 20
800.0
 30
0.0
 11
-305.8630593185044
 21
801.6
 31
0.0
  0
LINE
  5
953
330
6F
100
AcDbEntity
  8
DETAIL
  6
Continuous
100
AcDbLine
 10
-222.4630593185043
 20
815.0
 30
0.0
 11
-277.4630593185047
 21
815.0
 31
0.0
  0
LINE
  5
954
330
6F
100
AcDbEntity
  8
DETAIL
  6
Continuous
100
AcDbLine
 10
-224.0630593185042
 20
813.4000000000003
 30
0.0
 11
-275.8630593185044
 21
813.4
 31
0.0
  0
LINE
  5
955
330
6F
100
AcDbEntity
  8
DETAIL
  6
Continuous
100
AcDbLine
 10
-222.4630593185043
 20
801.6
 30
0.0
 11
-194.0630593185042
 21
801.6
 31
0.0
  0
LINE
  5
956
330
6F
100
AcDbEntity
  8
DETAIL
  6
Continuous
100
AcDbLine
 10
-222.4630593185043
 20
815.0
 30
0.0
 11
-222.4630593185043
 21
801.6
 31
0.0
  0
LINE
  5
957
330
6F
100
AcDbEntity
  8
DETAIL
  6
Continuous
100
AcDbLine
 10
-224.0630593185042
 20
813.4
 30
0.0
 11
-224.0630593185042
 21
800.0
 31
0.0
  0
LINE
  5
958
330
6F
100
AcDbEntity
  8
DETAIL
  6
Continuous
100
AcDbLine
 10
-224.0630593185042
 20
800.0
 30
0.0
 11
-194.0630593185042
 21
800.0
 31
0.0
  0
LINE
  5
959
330
6F
100
AcDbEntity
  8
DETAIL
  6
Continuous
100
AcDbLine
 10
-194.0630593185042
 20
800.0
 30
0.0
 11
-194.0630593185042
 21
801.6
 31
0.0
  0
LINE
  5
95A
330
6F
100
AcDbEntity
  8
DETAIL
  6
Continuous
100
AcDbLine
 10
-277.4630593185047
 20
801.6
 30
0.0
 11
-305.8630593185044
 21
801.6
 31
0.0
  0
LINE
  5
95B
330
6F
100
AcDbEntity
  8
DETAIL
  6
Continuous
100
AcDbLine
 10
-277.4630593185047
 20
815.0
 30
0.0
 11
-277.4630593185047
 21
801.6
 31
0.0
  0
LINE
  5
95C
330
6F
100
AcDbEntity
  8
DETAIL
  6
Continuous
100
AcDbLine
 10
-275.8630593185044
 20
813.4
 30
0.0
 11
-275.8630593185044
 21
800.0
 31
0.0
  0
LINE
  5
95D
330
6F
100
AcDbEntity
  8
DETAIL
  6
Continuous
100
AcDbLine
 10
-275.8630593185044
 20
800.0
 30
0.0
 11
-305.8630593185044
 21
800.0
 31
0.0
  0
ARC
  5
95E
330
6F
100
AcDbEntity
  8
DETAIL
  6
Continuous
100
AcDbCircle
 10
-547.4630593185052
 20
899.717682207946
 30
0.0
 40
5.0
100
AcDbArc
 50
90.0
 51
180.0
  0
LINE
  5
95F
330
6F
100
AcDbEntity
  8
DETAIL
  6
Continuous
100
AcDbLine
 10
-552.4630593185052
 20
869.7176822079468
 30
0.0
 11
-552.4630593185052
 21
899.717682207946
 31
0.0
  0
ARC
  5
960
330
6F
100
AcDbEntity
  8
DETAIL
  6
Continuous
100
AcDbCircle
 10
-547.4630593185052
 20
869.7176822079468
 30
0.0
 40
5.0
100
AcDbArc
 50
180.0
 51
270.0
  0
LINE
  5
961
330
6F
100
AcDbEntity
  8
DETAIL
  6
Continuous
100
AcDbLine
 10
-514.4630593185052
 20
864.7176822079467
 30
0.0
 11
-514.4630593185052
 21
904.717682207946
 31
0.0
  0
LINE
  5
962
330
6F
100
AcDbEntity
  8
DETAIL
  6
Continuous
100
AcDbLine
 10
-512.4630593185047
 20
864.7176822079467
 30
0.0
 11
-512.4630593185047
 21
904.717682207946
 31
0.0
  0
LINE
  5
963
330
6F
100
AcDbEntity
  8
DETAIL
  6
Continuous
100
AcDbLine
 10
-512.4630593185047
 20
904.717682207946
 30
0.0
 11
-547.4630593185052
 21
904.717682207946
 31
0.0
  0
LINE
  5
964
330
6F
100
AcDbEntity
  8
DETAIL
  6
Continuous
100
AcDbLine
 10
-512.4630593185047
 20
864.7176822079467
 30
0.0
 11
-547.4630593185052
 21
864.7176822079467
 31
0.0
  0
ARC
  5
965
330
6F
100
AcDbEntity
  8
DETAIL
  6
Continuous
100
AcDbCircle
 10
547.5369406814938
 20
869.7176822079441
 30
0.0
 40
5.0
100
AcDbArc
 50
270.0
 51
0.0
  0
ARC
  5
966
330
6F
100
AcDbEntity
  8
DETAIL
  6
Continuous
100
AcDbCircle
 10
547.5369406814938
 20
899.717682207944
 30
0.0
 40
5.0
100
AcDbArc
 50
0.0
 51
90.0
  0
LINE
  5
967
330
6F
100
AcDbEntity
  8
DETAIL
  6
Continuous
100
AcDbLine
 10
512.5369406814948
 20
864.7176822079442
 30
0.0
 11
547.5369406814938
 21
864.7176822079442
 31
0.0
  0
LINE
  5
968
330
6F
100
AcDbEntity
  8
DETAIL
  6
Continuous
100
AcDbLine
 10
512.5369406814948
 20
904.7176822079437
 30
0.0
 11
547.5369406814938
 21
904.7176822079437
 31
0.0
  0
LINE
  5
969
330
6F
100
AcDbEntity
  8
DETAIL
  6
Continuous
100
AcDbLine
 10
512.5369406814948
 20
864.7176822079442
 30
0.0
 11
512.5369406814948
 21
904.7176822079437
 31
0.0
  0
LINE
  5
96A
330
6F
100
AcDbEntity
  8
DETAIL
  6
Continuous
100
AcDbLine
 10
514.5369406814938
 20
864.7176822079442
 30
0.0
 11
514.5369406814938
 21
904.7176822079437
 31
0.0
  0
LINE
  5
96B
330
6F
100
AcDbEntity
  8
DETAIL
  6
Continuous
100
AcDbLine
 10
552.5369406814943
 20
869.7176822079441
 30
0.0
 11
552.5369406814943
 21
899.717682207944
 31
0.0
  0
LINE
  5
96C
330
6F
100
AcDbEntity
  8
DETAIL
  6
Continuous
100
AcDbLine
 10
-454.3516227028821
 20
353.6458082669856
 30
0.0
 11
-453.4138679945075
 21
351.4365966186997
 31
0.0
  0
LINE
  5
96D
330
6F
100
AcDbEntity
  8
DETAIL
  6
Continuous
100
AcDbLine
 10
-499.4391106671305
 20
331.9000401942377
 30
0.0
 11
-453.4138679945075
 21
351.4365966186997
 31
0.0
  0
LINE
  5
96E
330
6F
100
AcDbEntity
  8
DETAIL
  6
Continuous
100
AcDbLine
 10
-499.4391106671305
 20
331.9000401942377
 30
0.0
 11
-504.7368479167621
 21
318.7876803748209
 31
0.0
  0
LINE
  5
96F
330
6F
100
AcDbEntity
  8
DETAIL
  6
Continuous
100
AcDbLine
 10
-497.8599800553502
 20
302.5867949540584
 30
0.0
 11
-484.7476202359326
 21
297.2890577044264
 31
0.0
  0
LINE
  5
970
330
6F
100
AcDbEntity
  8
DETAIL
  6
Continuous
100
AcDbLine
 10
-497.8599800553502
 20
302.5867949540584
 30
0.0
 11
-504.7368479167621
 21
318.7876803748209
 31
0.0
  0
ARC
  5
971
330
6F
100
AcDbEntity
  8
DETAIL
  6
Continuous
100
AcDbCircle
 10
-492.8844195044193
 20
315.5623988784846
 30
0.0
 40
4.649999999999992
100
AcDbArc
 50
113.0000000000001
 51
293.0000000000001
  0
LINE
  5
972
330
6F
100
AcDbEntity
  8
DETAIL
  6
Continuous
100
AcDbLine
 10
-472.0130692904781
 20
319.3701856696589
 30
0.0
 11
-491.0675197569442
 21
311.2820513099308
 31
0.0
  0
LINE
  5
973
330
6F
100
AcDbEntity
  8
DETAIL
  6
Continuous
100
AcDbLine
 10
-475.6468687854284
 20
327.9308808067667
 30
0.0
 11
-494.7013192518944
 21
319.8427464470385
 31
0.0
  0
ARC
  5
974
330
6F
100
AcDbEntity
  8
DETAIL
  6
Continuous
100
AcDbCircle
 10
-473.8299690379535
 20
323.6505332382126
 30
0.0
 40
4.649999999999976
100
AcDbArc
 50
293.0000000000001
 51
113.0000000000001
  0
LINE
  5
975
330
6F
100
AcDbEntity
  8
DETAIL
  6
Continuous
100
AcDbLine
 10
512.8543490354368
 20
731.6095740352609
 30
0.0
 11
507.5566117858043
 21
718.4972142158438
 31
0.0
  0
LINE
  5
976
330
6F
100
AcDbEntity
  8
DETAIL
  6
Continuous
100
AcDbLine
 10
512.8543490354368
 20
731.6095740352609
 30
0.0
 11
505.977481174026
 21
747.8104594560242
 31
0.0
  0
LINE
  5
977
330
6F
100
AcDbEntity
  8
DETAIL
  6
Continuous
100
AcDbLine
 10
492.86512135461
 20
753.1081967056564
 30
0.0
 11
505.977481174026
 21
747.8104594560242
 31
0.0
  0
CIRCLE
  5
978
330
6F
100
AcDbEntity
  8
DETAIL
  6
Continuous
100
AcDbCircle
 10
490.0369406814951
 20
728.0
 30
0.0
 40
5.0
  0
LINE
  5
979
330
6F
100
AcDbEntity
  8
DETAIL
  6
Continuous
100
AcDbLine
 10
445.9021239736138
 20
735.7808519294787
 30
0.0
 11
446.839878681988
 21
733.5716402811923
 31
0.0
  0
LINE
  5
97A
330
6F
100
AcDbEntity
  8
DETAIL
  6
Continuous
100
AcDbLine
 10
492.86512135461
 20
753.1081967056564
 30
0.0
 11
446.839878681988
 21
733.5716402811923
 31
0.0
  0
ARC
  5
97B
330
6F
100
AcDbEntity
  8
DETAIL
  6
Continuous
100
AcDbCircle
 10
490.5369406814951
 20
872.0
 30
0.0
 40
5.0
100
AcDbArc
 50
180.0
 51
0.0
  0
ARC
  5
97C
330
6F
100
AcDbEntity
  8
DETAIL
  6
Continuous
100
AcDbCircle
 10
490.5369406814951
 20
898.0000000000003
 30
0.0
 40
5.0
100
AcDbArc
 50
0.0
 51
180.0
  0
LINE
  5
97D
330
6F
100
AcDbEntity
  8
DETAIL
  6
Continuous
100
AcDbLine
 10
485.5369406814951
 20
898.0000000000003
 30
0.0
 11
485.5369406814951
 21
872.0
 31
0.0
  0
LINE
  5
97E
330
6F
100
AcDbEntity
  8
DETAIL
  6
Continuous
100
AcDbLine
 10
495.5369406814951
 20
898.0000000000003
 30
0.0
 11
495.5369406814951
 21
872.0
 31
0.0
  0
ARC
  5
97F
330
6F
100
AcDbEntity
  8
DETAIL
  6
Continuous
100
AcDbCircle
 10
490.5369406814951
 20
822.0
 30
0.0
 40
5.0
100
AcDbArc
 50
180.0
 51
0.0
  0
ARC
  5
980
330
6F
100
AcDbEntity
  8
DETAIL
  6
Continuous
100
AcDbCircle
 10
490.5369406814951
 20
848.0
 30
0.0
 40
5.0
100
AcDbArc
 50
0.0
 51
180.0
  0
LINE
  5
981
330
6F
100
AcDbEntity
  8
DETAIL
  6
Continuous
100
AcDbLine
 10
485.5369406814951
 20
848.0
 30
0.0
 11
485.5369406814951
 21
822.0
 31
0.0
  0
LINE
  5
982
330
6F
100
AcDbEntity
  8
DETAIL
  6
Continuous
100
AcDbLine
 10
495.5369406814951
 20
848.0
 30
0.0
 11
495.5369406814951
 21
822.0
 31
0.0
  0
ARC
  5
983
330
6F
100
AcDbEntity
  8
DETAIL
  6
Continuous
100
AcDbCircle
 10
490.5369406814951
 20
772.0
 30
0.0
 40
5.0
100
AcDbArc
 50
180.0
 51
0.0
  0
ARC
  5
984
330
6F
100
AcDbEntity
  8
DETAIL
  6
Continuous
100
AcDbCircle
 10
490.5369406814951
 20
798.0
 30
0.0
 40
5.0
100
AcDbArc
 50
0.0
 51
180.0
  0
LINE
  5
985
330
6F
100
AcDbEntity
  8
DETAIL
  6
Continuous
100
AcDbLine
 10
485.5369406814951
 20
798.0
 30
0.0
 11
485.5369406814951
 21
772.0
 31
0.0
  0
LINE
  5
986
330
6F
100
AcDbEntity
  8
DETAIL
  6
Continuous
100
AcDbLine
 10
495.5369406814951
 20
798.0
 30
0.0
 11
495.5369406814951
 21
772.0
 31
0.0
  0
ARC
  5
987
330
6F
100
AcDbEntity
  8
DETAIL
  6
Continuous
100
AcDbCircle
 10
490.5369406814951
 20
722.0
 30
0.0
 40
5.0
100
AcDbArc
 50
180.0
 51
0.0
  0
ARC
  5
988
330
6F
100
AcDbEntity
  8
DETAIL
  6
Continuous
100
AcDbCircle
 10
490.5369406814951
 20
748.0
 30
0.0
 40
5.0
100
AcDbArc
 50
0.0
 51
180.0
  0
LINE
  5
989
330
6F
100
AcDbEntity
  8
DETAIL
  6
Continuous
100
AcDbLine
 10
485.5369406814951
 20
748.0
 30
0.0
 11
485.5369406814951
 21
722.0
 31
0.0
  0
LINE
  5
98A
330
6F
100
AcDbEntity
  8
DETAIL
  6
Continuous
100
AcDbLine
 10
495.5369406814951
 20
748.0
 30
0.0
 11
495.5369406814951
 21
722.0
 31
0.0
  0
ARC
  5
98B
330
6F
100
AcDbEntity
  8
DETAIL
  6
Continuous
100
AcDbCircle
 10
490.5369406814951
 20
672.0
 30
0.0
 40
5.0
100
AcDbArc
 50
180.0
 51
0.0
  0
ARC
  5
98C
330
6F
100
AcDbEntity
  8
DETAIL
  6
Continuous
100
AcDbCircle
 10
490.5369406814951
 20
698.0
 30
0.0
 40
5.0
100
AcDbArc
 50
0.0
 51
180.0
  0
LINE
  5
98D
330
6F
100
AcDbEntity
  8
DETAIL
  6
Continuous
100
AcDbLine
 10
485.5369406814951
 20
698.0
 30
0.0
 11
485.5369406814951
 21
672.0
 31
0.0
  0
LINE
  5
98E
330
6F
100
AcDbEntity
  8
DETAIL
  6
Continuous
100
AcDbLine
 10
495.5369406814951
 20
698.0
 30
0.0
 11
495.5369406814951
 21
672.0
 31
0.0
  0
ARC
  5
98F
330
6F
100
AcDbEntity
  8
DETAIL
  6
Continuous
100
AcDbCircle
 10
490.5369406814951
 20
622.0
 30
0.0
 40
5.0
100
AcDbArc
 50
180.0
 51
0.0
  0
ARC
  5
990
330
6F
100
AcDbEntity
  8
DETAIL
  6
Continuous
100
AcDbCircle
 10
490.5369406814951
 20
648.0
 30
0.0
 40
5.0
100
AcDbArc
 50
0.0
 51
180.0
  0
LINE
  5
991
330
6F
100
AcDbEntity
  8
DETAIL
  6
Continuous
100
AcDbLine
 10
485.5369406814951
 20
648.0
 30
0.0
 11
485.5369406814951
 21
622.0
 31
0.0
  0
LINE
  5
992
330
6F
100
AcDbEntity
  8
DETAIL
  6
Continuous
100
AcDbLine
 10
495.5369406814951
 20
648.0
 30
0.0
 11
495.5369406814951
 21
622.0
 31
0.0
  0
LINE
  5
993
330
6F
100
AcDbEntity
  8
DETAIL
  6
Continuous
100
AcDbLine
 10
495.5369406814951
 20
253.0000000000002
 30
0.0
 11
495.5369406814951
 21
227.0000000000002
 31
0.0
  0
LINE
  5
994
330
6F
100
AcDbEntity
  8
DETAIL
  6
Continuous
100
AcDbLine
 10
485.5369406814951
 20
253.0000000000002
 30
0.0
 11
485.5369406814951
 21
227.0000000000002
 31
0.0
  0
ARC
  5
995
330
6F
100
AcDbEntity
  8
DETAIL
  6
Continuous
100
AcDbCircle
 10
490.5369406814951
 20
253.0000000000002
 30
0.0
 40
5.0
100
AcDbArc
 50
0.0
 51
180.0
  0
ARC
  5
996
330
6F
100
AcDbEntity
  8
DETAIL
  6
Continuous
100
AcDbCircle
 10
490.5369406814951
 20
227.0000000000002
 30
0.0
 40
5.0
100
AcDbArc
 50
180.0
 51
0.0
  0
LINE
  5
997
330
6F
100
AcDbEntity
  8
DETAIL
  6
Continuous
100
AcDbLine
 10
495.5369406814951
 20
328.0000000000002
 30
0.0
 11
495.5369406814951
 21
302.0000000000002
 31
0.0
  0
LINE
  5
998
330
6F
100
AcDbEntity
  8
DETAIL
  6
Continuous
100
AcDbLine
 10
485.5369406814951
 20
328.0000000000002
 30
0.0
 11
485.5369406814951
 21
302.0000000000002
 31
0.0
  0
ARC
  5
999
330
6F
100
AcDbEntity
  8
DETAIL
  6
Continuous
100
AcDbCircle
 10
490.5369406814951
 20
328.0000000000002
 30
0.0
 40
5.0
100
AcDbArc
 50
0.0
 51
180.0
  0
ARC
  5
99A
330
6F
100
AcDbEntity
  8
DETAIL
  6
Continuous
100
AcDbCircle
 10
490.5369406814951
 20
302.0000000000002
 30
0.0
 40
5.0
100
AcDbArc
 50
180.0
 51
0.0
  0
LINE
  5
99B
330
6F
100
AcDbEntity
  8
DETAIL
  6
DASHED
100
AcDbLine
 10
-495.4630593185043
 20
42.50000000000009
 30
0.0
 11
-495.4630593185046
 21
37.50000000000011
 31
0.0
  0
ARC
  5
99C
330
6F
100
AcDbEntity
  8
DETAIL
  6
DASHED
100
AcDbCircle
 10
-490.4630593185043
 20
42.50000000000009
 30
0.0
 40
5.0
100
AcDbArc
 50
0.0
 51
180.0
  0
LINE
  5
99D
330
6F
100
AcDbEntity
  8
DETAIL
  6
DASHED
100
AcDbLine
 10
-485.4630593185038
 20
42.50000000000009
 30
0.0
 11
-485.4630593185038
 21
37.50000000000011
 31
0.0
  0
ARC
  5
99E
330
6F
100
AcDbEntity
  8
DETAIL
  6
DASHED
100
AcDbCircle
 10
-490.4630593185043
 20
37.50000000000011
 30
0.0
 40
5.0
100
AcDbArc
 50
180.0
 51
0.0
  0
LINE
  5
99F
330
6F
100
AcDbEntity
  8
DETAIL
  6
Continuous
100
AcDbLine
 10
-495.4630593185043
 20
328.0
 30
0.0
 11
-495.4630593185043
 21
302.0
 31
0.0
  0
LINE
  5
9A0
330
6F
100
AcDbEntity
  8
DETAIL
  6
Continuous
100
AcDbLine
 10
-485.4630593185038
 20
328.0
 30
0.0
 11
-485.4630593185038
 21
302.0
 31
0.0
  0
ARC
  5
9A1
330
6F
100
AcDbEntity
  8
DETAIL
  6
Continuous
100
AcDbCircle
 10
-490.4630593185043
 20
328.0
 30
0.0
 40
5.0
100
AcDbArc
 50
0.0
 51
180.0
  0
ARC
  5
9A2
330
6F
100
AcDbEntity
  8
DETAIL
  6
Continuous
100
AcDbCircle
 10
-490.4630593185043
 20
302.0
 30
0.0
 40
5.0
100
AcDbArc
 50
180.0
 51
0.0
  0
LINE
  5
9A3
330
6F
100
AcDbEntity
  8
DETAIL
  6
Continuous
100
AcDbLine
 10
-495.4630593185043
 20
253.0000000000001
 30
0.0
 11
-495.4630593185043
 21
227.0000000000001
 31
0.0
  0
LINE
  5
9A4
330
6F
100
AcDbEntity
  8
DETAIL
  6
Continuous
100
AcDbLine
 10
-485.4630593185038
 20
253.0000000000001
 30
0.0
 11
-485.4630593185038
 21
227.0000000000001
 31
0.0
  0
ARC
  5
9A5
330
6F
100
AcDbEntity
  8
DETAIL
  6
Continuous
100
AcDbCircle
 10
-490.4630593185043
 20
253.0000000000001
 30
0.0
 40
5.0
100
AcDbArc
 50
0.0
 51
180.0
  0
ARC
  5
9A6
330
6F
100
AcDbEntity
  8
DETAIL
  6
Continuous
100
AcDbCircle
 10
-490.4630593185043
 20
227.0000000000001
 30
0.0
 40
5.0
100
AcDbArc
 50
180.0
 51
0.0
  0
ARC
  5
9A7
330
6F
100
AcDbEntity
  8
DETAIL
  6
Continuous
100
AcDbCircle
 10
-490.4630593185043
 20
622.0
 30
0.0
 40
5.0
100
AcDbArc
 50
180.0
 51
0.0
  0
ARC
  5
9A8
330
6F
100
AcDbEntity
  8
DETAIL
  6
Continuous
100
AcDbCircle
 10
-490.4630593185043
 20
648.0
 30
0.0
 40
5.0
100
AcDbArc
 50
0.0
 51
180.0
  0
LINE
  5
9A9
330
6F
100
AcDbEntity
  8
DETAIL
  6
Continuous
100
AcDbLine
 10
-495.4630593185043
 20
648.0
 30
0.0
 11
-495.4630593185043
 21
622.0
 31
0.0
  0
ARC
  5
9AA
330
6F
100
AcDbEntity
  8
DETAIL
  6
Continuous
100
AcDbCircle
 10
-490.4630593185043
 20
672.0
 30
0.0
 40
5.0
100
AcDbArc
 50
180.0
 51
0.0
  0
ARC
  5
9AB
330
6F
100
AcDbEntity
  8
DETAIL
  6
Continuous
100
AcDbCircle
 10
-490.4630593185043
 20
698.0
 30
0.0
 40
5.0
100
AcDbArc
 50
0.0
 51
180.0
  0
LINE
  5
9AC
330
6F
100
AcDbEntity
  8
DETAIL
  6
Continuous
100
AcDbLine
 10
-495.4630593185043
 20
698.0
 30
0.0
 11
-495.4630593185043
 21
672.0
 31
0.0
  0
LINE
  5
9AD
330
6F
100
AcDbEntity
  8
DETAIL
  6
Continuous
100
AcDbLine
 10
-485.4630593185038
 20
698.0
 30
0.0
 11
-485.4630593185038
 21
672.0
 31
0.0
  0
LINE
  5
9AE
330
6F
100
AcDbEntity
  8
DETAIL
  6
Continuous
100
AcDbLine
 10
-485.4630593185038
 20
648.0
 30
0.0
 11
-485.4630593185038
 21
622.0
 31
0.0
  0
ARC
  5
9AF
330
6F
100
AcDbEntity
  8
DETAIL
  6
Continuous
100
AcDbCircle
 10
-490.4630593185043
 20
772.0
 30
0.0
 40
5.0
100
AcDbArc
 50
180.0
 51
0.0
  0
ARC
  5
9B0
330
6F
100
AcDbEntity
  8
DETAIL
  6
Continuous
100
AcDbCircle
 10
-490.4630593185043
 20
798.0
 30
0.0
 40
5.0
100
AcDbArc
 50
0.0
 51
180.0
  0
LINE
  5
9B1
330
6F
100
AcDbEntity
  8
DETAIL
  6
Continuous
100
AcDbLine
 10
-485.4630593185038
 20
798.0
 30
0.0
 11
-485.4630593185038
 21
772.0
 31
0.0
  0
LINE
  5
9B2
330
6F
100
AcDbEntity
  8
DETAIL
  6
Continuous
100
AcDbLine
 10
-495.4630593185043
 20
798.0
 30
0.0
 11
-495.4630593185043
 21
772.0
 31
0.0
  0
ARC
  5
9B3
330
6F
100
AcDbEntity
  8
DETAIL
  6
Continuous
100
AcDbCircle
 10
-490.4630593185043
 20
822.0
 30
0.0
 40
5.0
100
AcDbArc
 50
180.0
 51
0.0
  0
ARC
  5
9B4
330
6F
100
AcDbEntity
  8
DETAIL
  6
Continuous
100
AcDbCircle
 10
-490.4630593185043
 20
848.0
 30
0.0
 40
5.0
100
AcDbArc
 50
0.0
 51
180.0
  0
LINE
  5
9B5
330
6F
100
AcDbEntity
  8
DETAIL
  6
Continuous
100
AcDbLine
 10
-485.4630593185038
 20
848.0
 30
0.0
 11
-485.4630593185038
 21
822.0
 31
0.0
  0
LINE
  5
9B6
330
6F
100
AcDbEntity
  8
DETAIL
  6
Continuous
100
AcDbLine
 10
-495.4630593185043
 20
848.0
 30
0.0
 11
-495.4630593185043
 21
822.0
 31
0.0
  0
ARC
  5
9B7
330
6F
100
AcDbEntity
  8
DETAIL
  6
Continuous
100
AcDbCircle
 10
-490.4630593185043
 20
872.0
 30
0.0
 40
5.0
100
AcDbArc
 50
180.0
 51
0.0
  0
ARC
  5
9B8
330
6F
100
AcDbEntity
  8
DETAIL
  6
Continuous
100
AcDbCircle
 10
-490.4630593185043
 20
898.0000000000003
 30
0.0
 40
5.0
100
AcDbArc
 50
0.0
 51
180.0
  0
LINE
  5
9B9
330
6F
100
AcDbEntity
  8
DETAIL
  6
Continuous
100
AcDbLine
 10
-485.4630593185038
 20
898.0000000000003
 30
0.0
 11
-485.4630593185038
 21
872.0
 31
0.0
  0
LINE
  5
9BA
330
6F
100
AcDbEntity
  8
DETAIL
  6
Continuous
100
AcDbLine
 10
-495.4630593185043
 20
898.0000000000003
 30
0.0
 11
-495.4630593185043
 21
872.0
 31
0.0
  0
ARC
  5
9BB
330
6F
100
AcDbEntity
  8
DETAIL
  6
Continuous
100
AcDbCircle
 10
-490.4630593185043
 20
922.0
 30
0.0
 40
5.0
100
AcDbArc
 50
180.0
 51
0.0
  0
ARC
  5
9BC
330
6F
100
AcDbEntity
  8
DETAIL
  6
Continuous
100
AcDbCircle
 10
-490.4630593185043
 20
948.0
 30
0.0
 40
5.0
100
AcDbArc
 50
0.0
 51
180.0
  0
LINE
  5
9BD
330
6F
100
AcDbEntity
  8
DETAIL
  6
Continuous
100
AcDbLine
 10
-485.4630593185038
 20
948.0
 30
0.0
 11
-485.4630593185038
 21
922.0
 31
0.0
  0
LINE
  5
9BE
330
6F
100
AcDbEntity
  8
DETAIL
  6
Continuous
100
AcDbLine
 10
-495.4630593185043
 20
948.0
 30
0.0
 11
-495.4630593185043
 21
922.0
 31
0.0
  0
ARC
  5
9BF
330
6F
100
AcDbEntity
  8
DETAIL
  6
Continuous
100
AcDbCircle
 10
-490.4630593185043
 20
722.0
 30
0.0
 40
5.0
100
AcDbArc
 50
180.0
 51
0.0
  0
LINE
  5
9C0
330
6F
100
AcDbEntity
  8
DETAIL
  6
Continuous
100
AcDbLine
 10
-495.4630593185043
 20
748.0
 30
0.0
 11
-495.4630593185043
 21
722.0
 31
0.0
  0
LINE
  5
9C1
330
6F
100
AcDbEntity
  8
DETAIL
  6
Continuous
100
AcDbLine
 10
-485.4630593185038
 20
748.0
 30
0.0
 11
-485.4630593185038
 21
722.0
 31
0.0
  0
ARC
  5
9C2
330
6F
100
AcDbEntity
  8
DETAIL
  6
Continuous
100
AcDbCircle
 10
-490.4630593185043
 20
748.0
 30
0.0
 40
5.0
100
AcDbArc
 50
0.0
 51
180.0
  0
LINE
  5
9C3
330
6F
100
AcDbEntity
  8
DETAIL
  6
Continuous
100
AcDbLine
 10
-445.8282426106229
 20
735.7808519294787
 30
0.0
 11
-446.7659973189975
 21
733.5716402811923
 31
0.0
  0
LINE
  5
9C4
330
6F
100
AcDbEntity
  8
DETAIL
  6
Continuous
100
AcDbLine
 10
-472.4630593185038
 20
744.47939595056
 30
0.0
 11
-446.7659973189975
 21
733.5716402811923
 31
0.0
  0
LINE
  5
9C5
330
6F
100
AcDbEntity
  8
DETAIL
  6
Continuous
100
AcDbLine
 10
472.5369406814952
 20
343.3506946325056
 30
0.0
 11
453.4877493574986
 21
351.4365966186997
 31
0.0
  0
LINE
  5
9C6
330
6F
100
AcDbEntity
  8
DETAIL
  6
Continuous
100
AcDbLine
 10
454.4255040658726
 20
353.6458082669858
 30
0.0
 11
453.4877493574986
 21
351.4365966186997
 31
0.0
  0
LINE
  5
9C7
330
6F
100
AcDbEntity
  8
DETAIL
  6
Continuous
100
AcDbLine
 10
51.22303398644453
 20
524.7951026491887
 30
0.0
 11
454.4255040658653
 21
353.645808266968
 31
0.0
  0
LINE
  5
9C8
330
6F
100
AcDbEntity
  8
DETAIL
  6
Continuous
100
AcDbLine
 10
0.0369406814952527
 20
503.0678951010831
 30
0.0
 11
472.5369406814952
 21
302.5035444420451
 31
0.0
  0
LINE
  5
9C9
330
6F
100
AcDbEntity
  8
DETAIL
  6
Continuous
100
AcDbLine
 10
49.68745118729565
 20
524.1432864227459
 30
0.0
 11
453.9566267116783
 21
352.5412024428251
 31
0.0
  0
CIRCLE
  5
9CA
330
6F
100
AcDbEntity
  8
DETAIL
  6
Continuous
100
AcDbCircle
 10
-490.4630593185043
 20
1045.000000000003
 30
0.0
 40
5.0
  0
CIRCLE
  5
9CB
330
6F
100
AcDbEntity
  8
DETAIL
  6
Continuous
100
AcDbCircle
 10
-490.4630593185043
 20
1145.000000000003
 30
0.0
 40
5.0
  0
CIRCLE
  5
9CC
330
6F
100
AcDbEntity
  8
DETAIL
  6
Continuous
100
AcDbCircle
 10
-490.4630593185043
 20
1225.000000000003
 30
0.0
 40
5.0
  0
CIRCLE
  5
9CD
330
6F
100
AcDbEntity
  8
DETAIL
  6
Continuous
100
AcDbCircle
 10
-490.4630593185043
 20
1244.000000000003
 30
0.0
 40
5.0
  0
CIRCLE
  5
9CE
330
6F
100
AcDbEntity
  8
DETAIL
  6
Continuous
100
AcDbCircle
 10
-490.4630593185043
 20
1308.000000000002
 30
0.0
 40
5.0
  0
CIRCLE
  5
9CF
330
6F
100
AcDbEntity
  8
DETAIL
  6
Continuous
100
AcDbCircle
 10
-490.4630593185043
 20
1455.000000000002
 30
0.0
 40
5.0
  0
ARC
  5
9D0
330
6F
100
AcDbEntity
  8
DETAIL
  6
Continuous
100
AcDbCircle
 10
490.5369406814951
 20
1555.700000000002
 30
0.0
 40
4.650000000001455
100
AcDbArc
 50
0.0
 51
180.0
  0
ARC
  5
9D1
330
6F
100
AcDbEntity
  8
DETAIL
  6
Continuous
100
AcDbCircle
 10
490.5369406814951
 20
1535.000000000002
 30
0.0
 40
4.649999999994173
100
AcDbArc
 50
180.0
 51
0.0
  0
LINE
  5
9D2
330
6F
100
AcDbEntity
  8
DETAIL
  6
Continuous
100
AcDbLine
 10
485.8869406814933
 20
1535.000000000002
 30
0.0
 11
485.8869406814933
 21
1555.700000000002
 31
0.0
  0
LINE
  5
9D3
330
6F
100
AcDbEntity
  8
DETAIL
  6
Continuous
100
AcDbLine
 10
495.1869406814885
 20
1555.700000000002
 30
0.0
 11
495.1869406814885
 21
1535.000000000002
 31
0.0
  0
CIRCLE
  5
9D4
330
6F
100
AcDbEntity
  8
DETAIL
  6
Continuous
100
AcDbCircle
 10
490.5369406814951
 20
1045.000000000003
 30
0.0
 40
5.0
  0
CIRCLE
  5
9D5
330
6F
100
AcDbEntity
  8
DETAIL
  6
Continuous
100
AcDbCircle
 10
490.5369406814951
 20
1145.000000000003
 30
0.0
 40
5.0
  0
CIRCLE
  5
9D6
330
6F
100
AcDbEntity
  8
DETAIL
  6
Continuous
100
AcDbCircle
 10
490.5369406814951
 20
1225.000000000003
 30
0.0
 40
5.0
  0
CIRCLE
  5
9D7
330
6F
100
AcDbEntity
  8
DETAIL
  6
Continuous
100
AcDbCircle
 10
490.5369406814951
 20
1244.000000000003
 30
0.0
 40
5.0
  0
CIRCLE
  5
9D8
330
6F
100
AcDbEntity
  8
DETAIL
  6
Continuous
100
AcDbCircle
 10
490.5369406814951
 20
1308.000000000002
 30
0.0
 40
5.0
  0
CIRCLE
  5
9D9
330
6F
100
AcDbEntity
  8
DETAIL
  6
Continuous
100
AcDbCircle
 10
490.5369406814951
 20
1455.000000000002
 30
0.0
 40
5.0
  0
LINE
  5
9DA
330
6F
100
AcDbEntity
  8
DETAIL
  6
DASHED
100
AcDbLine
 10
-477.4630593185047
 20
839.9999999999995
 30
0.0
 11
-472.4630593185047
 21
844.9999999999997
 31
0.0
  0
LINE
  5
9DB
330
6F
100
AcDbEntity
  8
DETAIL
  6
DASHED
100
AcDbLine
 10
-510.4630593185047
 20
839.9999999999995
 30
0.0
 11
-477.4630593185047
 21
839.9999999999995
 31
0.0
  0
LINE
  5
9DC
330
6F
100
AcDbEntity
  8
DETAIL
  6
DASHED
100
AcDbLine
 10
-510.4630593185047
 20
962.9999999999997
 30
0.0
 11
-510.4630593185047
 21
837.9999999999995
 31
0.0
  0
LINE
  5
9DD
330
6F
100
AcDbEntity
  8
SIZE
  6
Continuous
 62
    30
100
AcDbLine
 10
-489.9630593185043
 20
-30.0
 30
0.0
 11
-489.9630593185043
 21
-310.1000000238418
 31
0.0
  0
LINE
  5
9DE
330
6F
100
AcDbEntity
  8
SIZE
  6
Continuous
 62
    30
100
AcDbLine
 10
490.0369406814951
 20
-30.0
 30
0.0
 11
490.0369406814951
 21
-310.1000000238418
 31
0.0
  0
LINE
  5
9DF
330
6F
100
AcDbEntity
  8
SIZE
  6
Continuous
 62
    30
100
AcDbLine
 10
-479.9630593185042
 20
-297.6000000238418
 30
0.0
 11
480.0369406814952
 21
-297.6000000238418
 31
0.0
  0
CIRCLE
  5
9E0
330
6F
100
AcDbEntity
  8
SIZE
  6
Continuous
 62
    30
100
AcDbCircle
 10
-489.9630593185043
 20
-297.6000000238418
 30
0.0
 40
5.0
  0
LINE
  5
9E1
330
6F
100
AcDbEntity
  8
SIZE
  6
Continuous
 62
    30
100
AcDbLine
 10
-489.9630593185043
 20
-297.6000000238418
 30
0.0
 11
-479.9630593185042
 21
-297.6000000238418
 31
0.0
  0
CIRCLE
  5
9E2
330
6F
100
AcDbEntity
  8
SIZE
  6
Continuous
 62
    30
100
AcDbCircle
 10
490.0369406814951
 20
-297.6000000238418
 30
0.0
 40
5.0
  0
LINE
  5
9E3
330
6F
100
AcDbEntity
  8
SIZE
  6
Continuous
 62
    30
100
AcDbLine
 10
490.0369406814951
 20
-297.6000000238418
 30
0.0
 11
480.0369406814952
 21
-297.6000000238418
 31
0.0
  0
TEXT
  5
9E4
330
6F
100
AcDbEntity
  8
SIZE
  6
Continuous
 62
    30
100
AcDbText
 10
-37.46305942341223
 20
-287.6000000238418
 30
0.0
 40
30.0
  1
980
 72
     1
 11
0.0369405765877673
 21
-287.6000000238418
 31
0.0
100
AcDbText
  0
LINE
  5
9E5
330
6F
100
AcDbEntity
  8
SIZE
  6
Continuous
 62
    30
100
AcDbLine
 10
250.0369406814952
 20
785.0
 30
0.0
 11
250.0369406814952
 21
-160.1000000238418
 31
0.0
  0
LINE
  5
9E6
330
6F
100
AcDbEntity
  8
SIZE
  6
Continuous
 62
    30
100
AcDbLine
 10
-239.9630593185047
 20
-147.6000000238418
 30
0.0
 11
240.0369406814952
 21
-147.6000000238418
 31
0.0
  0
CIRCLE
  5
9E7
330
6F
100
AcDbEntity
  8
SIZE
  6
Continuous
 62
    30
100
AcDbCircle
 10
-249.9630593185047
 20
-147.6000000238418
 30
0.0
 40
5.0
  0
LINE
  5
9E8
330
6F
100
AcDbEntity
  8
SIZE
  6
Continuous
 62
    30
100
AcDbLine
 10
-249.9630593185047
 20
-147.6000000238418
 30
0.0
 11
-239.9630593185047
 21
-147.6000000238418
 31
0.0
  0
CIRCLE
  5
9E9
330
6F
100
AcDbEntity
  8
SIZE
  6
Continuous
 62
    30
100
AcDbCircle
 10
250.0369406814952
 20
-147.6000000238418
 30
0.0
 40
5.0
  0
LINE
  5
9EA
330
6F
100
AcDbEntity
  8
SIZE
  6
Continuous
 62
    30
100
AcDbLine
 10
250.0369406814952
 20
-147.6000000238418
 30
0.0
 11
240.0369406814952
 21
-147.6000000238418
 31
0.0
  0
TEXT
  5
9EB
330
6F
100
AcDbEntity
  8
SIZE
  6
Continuous
 62
    30
100
AcDbText
 10
-34.96305942341223
 20
-137.6000000238418
 30
0.0
 40
30.0
  1
500
 72
     1
 11
0.0369405765877673
 21
-137.6000000238418
 31
0.0
100
AcDbText
  0
DIMENSION
  5
9EC
330
6F
100
AcDbEntity
  8
SIZE
  6
Continuous
100
AcDbDimension
280
     0
  2
*D3
 10
512.5369406814952
 20
-451.6730688805019
 30
0.0
 11
0.0369406814954816
 21
-426.6730688805019
 31
0.0
 70
    32
 71
     5
 42
1024.999999999999
 73
     0
 74
     0
 75
     0
  3
STANDARD
100
AcDbAlignedDimension
 13
-512.4630593185043
 23
9.800000000000068
 33
0.0
 14
512.5369406814952
 24
9.80000000000018
 34
0.0
100
AcDbRotatedDimension
1001
ACAD
1000
DSTYLE
1002
{
1070
    41
1040
10.0
1070
    42
1040
10.0
1070
    43
1040
8.0
1070
    44
1040
12.5
1070
    73
1070
     0
1070
    74
1070
     0
1070
    77
1070
     3
1070
    78
1070
    12
1070
   140
1040
30.0
1070
   141
1040
2.5
1070
   146
1040
0.7142857313156129
1070
   147
1040
10.0
1070
   171
1070
     4
1070
   172
1070
     1
1070
   173
1070
     1
1070
   271
1070
     4
1070
   272
1070
     4
1070
   274
1070
     2
1070
   279
1070
     0
1070
   284
1070
     0
1070
   285
1070
     0
1070
   286
1070
     0
1070
   340
1005
55
1070
   341
1005
155
1070
   343
1005
155
1070
   344
1005
155
1002
}
  0
DIMENSION
  5
9ED
330
6F
100
AcDbEntity
  8
SIZE
  6
Continuous
100
AcDbDimension
280
     0
  2
*D4
 10
534.5369406814946
 20
-550.1196579449041
 30
0.0
 11
0.0369406814951405
 21
-525.1196579449041
 31
0.0
 70
    32
 71
     5
 42
1068.999999999999
 73
     0
 74
     0
 75
     0
  3
STANDARD
100
AcDbAlignedDimension
 13
-534.4630593185042
 23
865.0000000000028
 33
0.0
 14
534.5369406814947
 24
865.0000000000007
 34
0.0
100
AcDbRotatedDimension
1001
ACAD
1000
DSTYLE
1002
{
1070
    41
1040
10.0
1070
    42
1040
10.0
1070
    43
1040
8.0
1070
    44
1040
12.5
1070
    73
1070
     0
1070
    74
1070
     0
1070
    77
1070
     3
1070
    78
1070
    12
1070
   140
1040
30.0
1070
   141
1040
2.5
1070
   146
1040
0.7142857313156129
1070
   147
1040
10.0
1070
   171
1070
     4
1070
   172
1070
     1
1070
   173
1070
     1
1070
   271
1070
     4
1070
   272
1070
     4
1070
   274
1070
     2
1070
   279
1070
     0
1070
   284
1070
     0
1070
   285
1070
     0
1070
   286
1070
     0
1070
   340
1005
55
1070
   341
1005
155
1070
   343
1005
155
1070
   344
1005
155
1002
}
  0
DIMENSION
  5
9EE
330
6F
100
AcDbEntity
  8
SIZE
  6
Continuous
100
AcDbDimension
280
     0
  2
*D5
 10
552.5369406814942
 20
-700.0509427177346
 30
0.0
 11
0.0369406814944584
 21
-675.0509427177346
 31
0.0
 70
    32
 71
     5
 42
1104.999999999999
 73
     0
 74
     0
 75
     0
  3
STANDARD
100
AcDbAlignedDimension
 13
-552.4630593185052
 23
869.7176822079468
 33
0.0
 14
552.5369406814943
 24
869.7176822079441
 34
0.0
100
AcDbRotatedDimension
1001
ACAD
1000
DSTYLE
1002
{
1070
    41
1040
10.0
1070
    42
1040
10.0
1070
    43
1040
8.0
1070
    44
1040
12.5
1070
    73
1070
     0
1070
    74
1070
     0
1070
    77
1070
     3
1070
    78
1070
    12
1070
   140
1040
30.0
1070
   141
1040
2.5
1070
   146
1040
0.7142857313156129
1070
   147
1040
10.0
1070
   171
1070
     4
1070
   172
1070
     1
1070
   173
1070
     1
1070
   271
1070
     4
1070
   272
1070
     4
1070
   274
1070
     2
1070
   279
1070
     0
1070
   284
1070
     0
1070
   285
1070
     0
1070
   286
1070
     0
1070
   340
1005
55
1070
   341
1005
155
1070
   343
1005
155
1070
   344
1005
155
1002
}
  0
DIMENSION
  5
9EF
330
6F
100
AcDbEntity
  8
SIZE
  6
Continuous
100
AcDbDimension
280
     0
  2
*D6
 10
-661.2034944111873
 20
-0.0000000000001372
 30
0.0
 11
-661.2034944111873
 21
477.4999999999997
 31
0.0
 70
   160
 71
     5
 42
960.0000000000003
 73
     0
 74
     0
 75
     0
  3
STANDARD
100
AcDbAlignedDimension
 13
-512.4630593185043
 23
960.0
 33
0.0
 14
-514.7630593185043
 24
-0.0000000000001137
 34
0.0
 50
90.0
100
AcDbRotatedDimension
1001
ACAD
1000
DSTYLE
1002
{
1070
    41
1040
10.0
1070
    42
1040
10.0
1070
    43
1040
8.0
1070
    44
1040
12.5
1070
    73
1070
     0
1070
    74
1070
     0
1070
    77
1070
     3
1070
    78
1070
    12
1070
   140
1040
30.0
1070
   141
1040
2.5
1070
   146
1040
0.7142857313156129
1070
   147
1040
10.0
1070
   171
1070
     4
1070
   172
1070
     1
1070
   173
1070
     1
1070
   271
1070
     4
1070
   272
1070
     4
1070
   274
1070
     2
1070
   279
1070
     0
1070
   284
1070
     0
1070
   285
1070
     0
1070
   286
1070
     0
1070
   340
1005
55
1070
   341
1005
155
1070
   343
1005
155
1070
   344
1005
155
1002
}
  0
DIMENSION
  5
9F0
330
6F
100
AcDbEntity
  8
SIZE
  6
Continuous
100
AcDbDimension
280
     0
  2
*D7
 10
-808.5671667458521
 20
-0.0000000000001609
 30
0.0
 11
-808.5671667458518
 21
971.0
 31
0.0
 70
   160
 71
     5
 42
1950.000000000001
 73
     0
 74
     0
 75
     0
  3
STANDARD
100
AcDbAlignedDimension
 13
-550.4630593185047
 23
1950.0
 33
0.0
 14
-514.7630593185043
 24
-0.0000000000001137
 34
0.0
 50
90.0
100
AcDbRotatedDimension
1001
ACAD
1000
DSTYLE
1002
{
1070
    41
1040
10.0
1070
    42
1040
10.0
1070
    43
1040
8.0
1070
    44
1040
12.5
1070
    73
1070
     0
1070
    74
1070
     0
1070
    77
1070
     3
1070
    78
1070
    12
1070
   140
1040
30.0
1070
   141
1040
2.5
1070
   146
1040
0.7142857313156129
1070
   147
1040
10.0
1070
   171
1070
     4
1070
   172
1070
     1
1070
   173
1070
     1
1070
   271
1070
     4
1070
   272
1070
     4
1070
   274
1070
     2
1070
   279
1070
     0
1070
   284
1070
     0
1070
   285
1070
     0
1070
   286
1070
     0
1070
   340
1005
55
1070
   341
1005
155
1070
   343
1005
155
1070
   344
1005
155
1002
}
  0
LINE
  5
9F1
330
6F
100
AcDbEntity
  8
SIZE
  6
Continuous
 62
    30
100
AcDbLine
 10
-249.9630593185047
 20
785.0
 30
0.0
 11
-249.9630593185047
 21
-160.1000000238418
 31
0.0
  0
DIMENSION
  5
9F2
330
6F
100
AcDbEntity
  8
SIZE
  6
Continuous
100
AcDbDimension
280
     0
  2
*D8
 10
550.0369406814952
 20
2098.413429306952
 30
0.0
 11
0.0369406814952527
 21
2098.413429306952
 31
0.0
 70
   160
 71
     5
 42
1100.0
 73
     0
 74
     0
 75
     0
  3
STANDARD
100
AcDbAlignedDimension
 13
-549.9630593185047
 23
1942.0
 33
0.0
 14
550.0369406814952
 24
1942.0
 34
0.0
100
AcDbRotatedDimension
1001
ACAD
1000
DSTYLE
1002
{
1070
    41
1040
10.0
1070
    42
1040
10.0
1070
    43
1040
8.0
1070
    44
1040
12.5
1070
    73
1070
     0
1070
    74
1070
     0
1070
    77
1070
     3
1070
    78
1070
    12
1070
   140
1040
30.0
1070
   141
1040
2.5
1070
   146
1040
0.7142857313156129
1070
   147
1040
10.0
1070
   171
1070
     4
1070
   172
1070
     1
1070
   173
1070
     1
1070
   271
1070
     4
1070
   272
1070
     4
1070
   274
1070
     2
1070
   279
1070
     0
1070
   284
1070
     0
1070
   285
1070
     0
1070
   286
1070
     0
1070
   340
1005
55
1070
   341
1005
155
1070
   343
1005
155
1070
   344
1005
155
1002
}
  0
ARC
  5
9F3
330
6F
100
AcDbEntity
  8
DETAIL
  6
Continuous
100
AcDbCircle
 10
-482.4630593185037
 20
1914.0
 30
0.0
 40
10.0
100
AcDbArc
 50
0.0
 51
90.0
  0
ARC
  5
9F4
330
6F
100
AcDbEntity
  8
OUTLINE
  6
Continuous
100
AcDbCircle
 10
-482.4630593185037
 20
1914.0
 30
0.0
 40
10.0
100
AcDbArc
 50
0.0
 51
90.0
  0
ARC
  5
9F5
330
6F
100
AcDbEntity
  8
DETAIL
  6
Continuous
100
AcDbCircle
 10
-482.4630593185037
 20
1914.0
 30
0.0
 40
10.0
100
AcDbArc
 50
0.0
 51
90.0
  0
ARC
  5
9F6
330
6F
100
AcDbEntity
  8
OUTLINE
  6
Continuous
100
AcDbCircle
 10
-482.4630593185037
 20
1914.0
 30
0.0
 40
10.0
100
AcDbArc
 50
0.0
 51
90.0
  0
ARC
  5
9F7
330
6F
100
AcDbEntity
  8
DETAIL
  6
Continuous
100
AcDbCircle
 10
-482.4630593185037
 20
1914.0
 30
0.0
 40
10.0
100
AcDbArc
 50
0.0
 51
90.0
  0
ARC
  5
9F8
330
6F
100
AcDbEntity
  8
OUTLINE
  6
Continuous
100
AcDbCircle
 10
-482.4630593185037
 20
1914.0
 30
0.0
 40
10.0
100
AcDbArc
 50
0.0
 51
90.0
  0
ARC
  5
9F9
330
6F
100
AcDbEntity
  8
DETAIL
  6
Continuous
100
AcDbCircle
 10
-482.4630593185037
 20
1914.0
 30
0.0
 40
10.0
100
AcDbArc
 50
0.0
 51
90.0
  0
ARC
  5
9FA
330
6F
100
AcDbEntity
  8
OUTLINE
  6
Continuous
100
AcDbCircle
 10
-482.4630593185037
 20
1914.0
 30
0.0
 40
10.0
100
AcDbArc
 50
0.0
 51
90.0
  0
ARC
  5
9FB
330
6F
100
AcDbEntity
  8
DETAIL
  6
Continuous
100
AcDbCircle
 10
-482.4630593185037
 20
1914.0
 30
0.0
 40
10.0
100
AcDbArc
 50
0.0
 51
90.0
  0
ARC
  5
9FC
330
6F
100
AcDbEntity
  8
OUTLINE
  6
Continuous
100
AcDbCircle
 10
-482.4630593185037
 20
1914.0
 30
0.0
 40
10.0
100
AcDbArc
 50
0.0
 51
90.0
  0
ARC
  5
9FD
330
6F
100
AcDbEntity
  8
DETAIL
  6
Continuous
100
AcDbCircle
 10
-482.4630593185037
 20
1914.0
 30
0.0
 40
10.0
100
AcDbArc
 50
0.0
 51
90.0
  0
ARC
  5
9FE
330
6F
100
AcDbEntity
  8
OUTLINE
  6
Continuous
100
AcDbCircle
 10
-482.4630593185037
 20
1914.0
 30
0.0
 40
10.0
100
AcDbArc
 50
0.0
 51
90.0
  0
ARC
  5
9FF
330
6F
100
AcDbEntity
  8
DETAIL
  6
Continuous
100
AcDbCircle
 10
-482.4630593185037
 20
1914.0
 30
0.0
 40
10.0
100
AcDbArc
 50
0.0
 51
90.0
  0
ARC
  5
A00
330
6F
100
AcDbEntity
  8
OUTLINE
  6
Continuous
100
AcDbCircle
 10
-482.4630593185037
 20
1914.0
 30
0.0
 40
10.0
100
AcDbArc
 50
0.0
 51
90.0
  0
ARC
  5
A01
330
6F
100
AcDbEntity
  8
DETAIL
  6
Continuous
100
AcDbCircle
 10
-482.4630593185037
 20
1914.0
 30
0.0
 40
10.0
100
AcDbArc
 50
0.0
 51
90.0
  0
ARC
  5
A02
330
6F
100
AcDbEntity
  8
OUTLINE
  6
Continuous
100
AcDbCircle
 10
482.5369406814941
 20
1914.0
 30
0.0
 40
10.0
100
AcDbArc
 50
90.0
 51
180.0
  0
ARC
  5
A03
330
6F
100
AcDbEntity
  8
DETAIL
  6
Continuous
100
AcDbCircle
 10
482.5369406814941
 20
1914.0
 30
0.0
 40
10.0
100
AcDbArc
 50
90.0
 51
180.0
  0
ARC
  5
A04
330
6F
100
AcDbEntity
  8
OUTLINE
  6
Continuous
100
AcDbCircle
 10
482.5369406814941
 20
1914.0
 30
0.0
 40
10.0
100
AcDbArc
 50
90.0
 51
180.0
  0
ARC
  5
A05
330
6F
100
AcDbEntity
  8
DETAIL
  6
Continuous
100
AcDbCircle
 10
482.5369406814941
 20
1914.0
 30
0.0
 40
10.0
100
AcDbArc
 50
90.0
 51
180.0
  0
ARC
  5
A06
330
6F
100
AcDbEntity
  8
OUTLINE
  6
Continuous
100
AcDbCircle
 10
482.5369406814941
 20
1914.0
 30
0.0
 40
10.0
100
AcDbArc
 50
90.0
 51
180.0
  0
ARC
  5
A07
330
6F
100
AcDbEntity
  8
DETAIL
  6
Continuous
100
AcDbCircle
 10
482.5369406814941
 20
1914.0
 30
0.0
 40
10.0
100
AcDbArc
 50
90.0
 51
180.0
  0
ARC
  5
A08
330
6F
100
AcDbEntity
  8
OUTLINE
  6
Continuous
100
AcDbCircle
 10
482.5369406814941
 20
1914.0
 30
0.0
 40
10.0
100
AcDbArc
 50
90.0
 51
180.0
  0
ARC
  5
A09
330
6F
100
AcDbEntity
  8
DETAIL
  6
Continuous
100
AcDbCircle
 10
482.5369406814941
 20
1914.0
 30
0.0
 40
10.0
100
AcDbArc
 50
90.0
 51
180.0
  0
ARC
  5
A0A
330
6F
100
AcDbEntity
  8
OUTLINE
  6
Continuous
100
AcDbCircle
 10
482.5369406814941
 20
1914.0
 30
0.0
 40
10.0
100
AcDbArc
 50
90.0
 51
180.0
  0
ARC
  5
A0B
330
6F
100
AcDbEntity
  8
DETAIL
  6
Continuous
100
AcDbCircle
 10
482.5369406814941
 20
1914.0
 30
0.0
 40
10.0
100
AcDbArc
 50
90.0
 51
180.0
  0
ARC
  5
A0C
330
6F
100
AcDbEntity
  8
OUTLINE
  6
Continuous
100
AcDbCircle
 10
482.5369406814941
 20
1914.0
 30
0.0
 40
10.0
100
AcDbArc
 50
90.0
 51
180.0
  0
ARC
  5
A0D
330
6F
100
AcDbEntity
  8
DETAIL
  6
Continuous
100
AcDbCircle
 10
482.5369406814941
 20
1914.0
 30
0.0
 40
10.0
100
AcDbArc
 50
90.0
 51
180.0
  0
ARC
  5
A0E
330
6F
100
AcDbEntity
  8
OUTLINE
  6
Continuous
100
AcDbCircle
 10
482.5369406814941
 20
1914.0
 30
0.0
 40
10.0
100
AcDbArc
 50
90.0
 51
180.0
  0
ARC
  5
A0F
330
6F
100
AcDbEntity
  8
DETAIL
  6
Continuous
100
AcDbCircle
 10
482.5369406814941
 20
1914.0
 30
0.0
 40
10.0
100
AcDbArc
 50
90.0
 51
180.0
  0
ARC
  5
A10
330
6F
100
AcDbEntity
  8
OUTLINE
  6
Continuous
100
AcDbCircle
 10
482.5369406814941
 20
1914.0
 30
0.0
 40
10.0
100
AcDbArc
 50
90.0
 51
180.0
  0
ARC
  5
A11
330
6F
100
AcDbEntity
  8
DETAIL
  6
Continuous
100
AcDbCircle
 10
482.5369406814941
 20
1914.0
 30
0.0
 40
10.0
100
AcDbArc
 50
90.0
 51
180.0
  0
ARC
  5
A12
330
6F
100
AcDbEntity
  8
DETAIL
  6
Continuous
100
AcDbCircle
 10
-483.4630593185037
 20
1914.0
 30
0.0
 40
4.650000000001455
100
AcDbArc
 50
0.0
 51
180.0
  0
ARC
  5
A13
330
6F
100
AcDbEntity
  8
DETAIL
  6
Continuous
100
AcDbCircle
 10
-483.4630593185037
 20
1909.000000000001
 30
0.0
 40
4.649999999994173
100
AcDbArc
 50
180.0
 51
0.0
  0
LINE
  5
A14
330
6F
100
AcDbEntity
  8
DETAIL
  6
Continuous
100
AcDbLine
 10
-478.8130593185019
 20
1909.000000000001
 30
0.0
 11
-478.8130593185019
 21
1914.0
 31
0.0
  0
LINE
  5
A15
330
6F
100
AcDbEntity
  8
DETAIL
  6
Continuous
100
AcDbLine
 10
-488.1130593184978
 20
1914.0
 30
0.0
 11
-488.1130593184978
 21
1909.000000000001
 31
0.0
  0
ARC
  5
A16
330
6F
100
AcDbEntity
  8
DETAIL
  6
Continuous
100
AcDbCircle
 10
483.5369406814942
 20
1914.0
 30
0.0
 40
4.650000000001455
100
AcDbArc
 50
0.0
 51
180.0
  0
ARC
  5
A17
330
6F
100
AcDbEntity
  8
DETAIL
  6
Continuous
100
AcDbCircle
 10
483.5369406814942
 20
1909.000000000001
 30
0.0
 40
4.649999999994173
100
AcDbArc
 50
180.0
 51
0.0
  0
LINE
  5
A18
330
6F
100
AcDbEntity
  8
DETAIL
  6
Continuous
100
AcDbLine
 10
478.8869406814924
 20
1909.000000000001
 30
0.0
 11
478.8869406814924
 21
1914.0
 31
0.0
  0
LINE
  5
A19
330
6F
100
AcDbEntity
  8
DETAIL
  6
Continuous
100
AcDbLine
 10
488.1869406814884
 20
1914.0
 30
0.0
 11
488.1869406814884
 21
1909.000000000001
 31
0.0
  0
DIMENSION
  5
A1A
330
6F
100
AcDbEntity
  8
SIZE
  6
Continuous
100
AcDbDimension
280
     0
  2
*D1
 10
715.5946969400702
 20
0.0000000000000323
 30
0.0
 11
690.5946969400702
 21
407.4999999999998
 31
0.0
 70
    32
 71
     5
 42
815.0000000000003
 73
     0
 74
     0
 75
     0
  3
STANDARD
100
AcDbAlignedDimension
 13
278.0369406814952
 23
815.0
 33
0.0
 14
514.8369406814953
 24
0.0
 34
0.0
 50
90.0
100
AcDbRotatedDimension
1001
ACAD
1000
DSTYLE
1002
{
1070
    41
1040
10.0
1070
    42
1040
10.0
1070
    43
1040
8.0
1070
    44
1040
12.5
1070
    73
1070
     0
1070
    74
1070
     0
1070
    77
1070
     3
1070
    78
1070
    12
1070
   140
1040
30.0
1070
   141
1040
2.5
1070
   146
1040
0.7142857313156129
1070
   147
1040
10.0
1070
   171
1070
     4
1070
   172
1070
     1
1070
   173
1070
     1
1070
   271
1070
     4
1070
   272
1070
     4
1070
   274
1070
     2
1070
   279
1070
     0
1070
   284
1070
     0
1070
   285
1070
     0
1070
   286
1070
     0
1070
   340
1005
55
1070
   341
1005
155
1070
   343
1005
155
1070
   344
1005
155
1002
}
  0
DIMENSION
  5
A1B
330
6F
100
AcDbEntity
  8
SIZE
  6
Continuous
100
AcDbDimension
280
     0
  2
*D2
 10
796.0464953558473
 20
0.0000000000000452
 30
0.0
 11
796.0464953558473
 21
418.9999999999998
 31
0.0
 70
   160
 71
     5
 42
840.0000000000003
 73
     0
 74
     0
 75
     0
  3
STANDARD
100
AcDbAlignedDimension
 13
510.5369406814951
 23
840.0
 33
0.0
 14
514.8369406814953
 24
0.0
 34
0.0
 50
90.0
100
AcDbRotatedDimension
1001
ACAD
1000
DSTYLE
1002
{
1070
    41
1040
10.0
1070
    42
1040
10.0
1070
    43
1040
8.0
1070
    44
1040
12.5
1070
    73
1070
     0
1070
    74
1070
     0
1070
    77
1070
     3
1070
    78
1070
    12
1070
   140
1040
30.0
1070
   141
1040
2.5
1070
   146
1040
0.7142857313156129
1070
   147
1040
10.0
1070
   171
1070
     4
1070
   172
1070
     1
1070
   173
1070
     1
1070
   271
1070
     4
1070
   272
1070
     4
1070
   274
1070
     2
1070
   279
1070
     0
1070
   284
1070
     0
1070
   285
1070
     0
1070
   286
1070
     0
1070
   340
1005
55
1070
   341
1005
155
1070
   343
1005
155
1070
   344
1005
155
1002
}
  0
LINE
  5
A1C
330
6F
100
AcDbEntity
  8
NOTE
  6
Continuous
100
AcDbLine
 10
906.6706710503526
 20
592.5227407238692
 30
0.0
 11
1314.337600087054
 21
592.5227407238692
 31
0.0
  0
LINE
  5
EF1
330
6F
100
AcDbEntity
  8
DETAIL
  6
Continuous
100
AcDbLine
 10
510.8020799087388
 20
1453.778009216577
 30
0.0
 11
510.8020799087388
 21
1467.178009216577
 31
0.0
  0
LINE
  5
EF2
330
6F
100
AcDbEntity
  8
DETAIL
  6
Continuous
100
AcDbLine
 10
511.9020799087389
 20
1465.978009214484
 30
0.0
 11
511.6020799087388
 21
1465.978009214484
 31
0.0
  0
LINE
  5
F45
330
6F
100
AcDbEntity
  8
OUTLINE
  6
Continuous
100
AcDbLine
 10
510.5369406814951
 20
840.0
 30
0.0
 11
477.5369406814951
 21
840.0
 31
0.0
  0
LINE
  5
F46
330
6F
100
AcDbEntity
  8
OUTLINE
  6
Continuous
100
AcDbLine
 10
477.5369406814951
 20
840.0
 30
0.0
 11
472.5369406814952
 21
845.0
 31
0.0
  0
LINE
  5
F47
330
6F
100
AcDbEntity
  8
OUTLINE
  6
Continuous
100
AcDbLine
 10
-510.4630593185047
 20
839.9999999999995
 30
0.0
 11
-477.4630593185047
 21
839.9999999999995
 31
0.0
  0
LINE
  5
F48
330
6F
100
AcDbEntity
  8
OUTLINE
  6
Continuous
100
AcDbLine
 10
-477.4630593185047
 20
839.9999999999995
 30
0.0
 11
-472.4630593185047
 21
844.9999999999997
 31
0.0
  0
ENDSEC
  0
SECTION
  2
OBJECTS
  0
DICTIONARY
  5
C
330
0
100
AcDbDictionary
281
     1
  3
ACAD_CIP_PREVIOUS_PRODUCT_INFO
350
4F2
  3
ACAD_COLOR
350
62
  3
ACAD_DETAILVIEWSTYLE
350
69
  3
ACAD_GROUP
350
D
  3
ACAD_LAYOUT
350
61
  3
ACAD_MATERIAL
350
10
  3
ACAD_MLEADERSTYLE
350
65
  3
ACAD_MLINESTYLE
350
5E
  3
ACAD_PLOTSETTINGS
350
60
  3
ACAD_PLOTSTYLENAME
350
E
  3
ACAD_SCALELIST
350
42
  3
ACAD_SECTIONVIEWSTYLE
350
67
  3
ACAD_TABLESTYLE
350
63
  3
ACAD_VISUALSTYLE
350
29
  3
ACDB_RECOMPOSE_DATA
350
112F
  3
AcDbVariableDictionary
350
51D
  3
AcDsDecomposeData
350
1135
  0
DICTIONARY
  5
67B
330
2
100
AcDbDictionary
280
     1
281
     1
  3
ACAD_LAYERSTATES
360
67C
  0
DICTIONARY
  5
505
330
54
100
AcDbDictionary
280
     1
281
     1
  3
ADSK_XREC_LAYER_RECONCILED
360
506
  0
DICTIONARY
  5
507
330
78
100
AcDbDictionary
280
     1
281
     1
  3
ADSK_XREC_LAYER_RECONCILED
360
508
  0
DICTIONARY
  5
509
330
79
100
AcDbDictionary
280
     1
281
     1
  3
ADSK_XREC_LAYER_RECONCILED
360
50A
  0
DICTIONARY
  5
50B
330
7A
100
AcDbDictionary
280
     1
281
     1
  3
ADSK_XREC_LAYER_RECONCILED
360
50C
  0
DICTIONARY
  5
50D
330
7B
100
AcDbDictionary
280
     1
281
     1
  3
ADSK_XREC_LAYER_RECONCILED
360
50E
  0
DICTIONARY
  5
50F
330
7C
100
AcDbDictionary
280
     1
281
     1
  3
ADSK_XREC_LAYER_RECONCILED
360
510
  0
DICTIONARY
  5
511
330
7D
100
AcDbDictionary
280
     1
281
     1
  3
ADSK_XREC_LAYER_RECONCILED
360
512
  0
DICTIONARY
  5
513
330
7E
100
AcDbDictionary
280
     1
281
     1
  3
ADSK_XREC_LAYER_RECONCILED
360
514
  0
DICTIONARY
  5
515
330
7F
100
AcDbDictionary
280
     1
281
     1
  3
ADSK_XREC_LAYER_RECONCILED
360
516
  0
DICTIONARY
  5
517
330
80
100
AcDbDictionary
280
     1
281
     1
  3
ADSK_XREC_LAYER_RECONCILED
360
518
  0
DICTIONARY
  5
519
330
81
100
AcDbDictionary
280
     1
281
     1
  3
ADSK_XREC_LAYER_RECONCILED
360
51A
  0
DICTIONARY
  5
F49
330
6F
100
AcDbDictionary
280
     1
281
     1
  3
ACAD_SORTENTS
360
F4A
  0
XRECORD
  5
4F2
102
{ACAD_REACTORS
330
C
102
}
330
C
100
AcDbXrecord
280
     1
300
ACDLT
300
2018
300
86831ACDLT_2018_0F
  0
DICTIONARY
  5
62
102
{ACAD_REACTORS
330
C
102
}
330
C
100
AcDbDictionary
281
     1
  0
DICTIONARY
  5
69
102
{ACAD_REACTORS
330
C
102
}
330
C
100
AcDbDictionary
281
     1
  3
Imperial24
350
6A
  0
DICTIONARY
  5
D
102
{ACAD_REACTORS
330
C
102
}
330
C
100
AcDbDictionary
281
     1
  0
DICTIONARY
  5
61
102
{ACAD_REACTORS
330
C
102
}
330
C
100
AcDbDictionary
281
     1
  3
Model
350
72
  3
レイアウト1
350
6E
  0
DICTIONARY
  5
10
102
{ACAD_REACTORS
330
C
102
}
330
C
100
AcDbDictionary
281
     1
  3
ByBlock
350
19
  3
ByLayer
350
11
  3
Global
350
21
  0
DICTIONARY
  5
65
102
{ACAD_REACTORS
330
C
102
}
330
C
100
AcDbDictionary
281
     1
  3
Standard
350
66
  0
DICTIONARY
  5
5E
102
{ACAD_REACTORS
330
C
102
}
330
C
100
AcDbDictionary
281
     1
  3
Standard
350
5F
  0
DICTIONARY
  5
60
102
{ACAD_REACTORS
330
C
102
}
330
C
100
AcDbDictionary
281
     1
  0
ACDBDICTIONARYWDFLT
  5
E
102
{ACAD_REACTORS
330
C
102
}
330
C
100
AcDbDictionary
281
     1
  3
Normal
350
F
100
AcDbDictionaryWithDefault
340
F
  0
DICTIONARY
  5
42
102
{ACAD_REACTORS
330
C
102
}
330
C
100
AcDbDictionary
281
     1
  3
A0
350
43
  3
A1
350
44
  3
A2
350
45
  3
A3
350
46
  3
A4
350
47
  3
A5
350
48
  3
A6
350
49
  3
A7
350
4A
  3
A8
350
4B
  3
A9
350
4C
  3
B0
350
4D
  3
B1
350
4E
  3
B2
350
4F
  3
B3
350
50
  3
B4
350
51
  3
B5
350
52
  3
B6
350
53
  0
DICTIONARY
  5
67
102
{ACAD_REACTORS
330
C
102
}
330
C
100
AcDbDictionary
281
     1
  3
Imperial24
350
68
  0
DICTIONARY
  5
63
102
{ACAD_REACTORS
330
C
102
}
330
C
100
AcDbDictionary
281
     1
  3
Standard
350
64
  0
DICTIONARY
  5
29
102
{ACAD_REACTORS
330
C
102
}
330
C
100
AcDbDictionary
281
     1
  3
2dWireframe
350
2F
  3
Basic
350
2E
  3
Brighten
350
35
  3
ColorChange
350
39
  3
Conceptual
350
32
  3
Dim
350
34
  3
EdgeColorOff
350
41
  3
Facepattern
350
38
  3
Flat
350
2A
  3
FlatWithEdges
350
2B
  3
Gouraud
350
2C
  3
GouraudWithEdges
350
2D
  3
Hidden
350
31
  3
JitterOff
350
3F
  3
Linepattern
350
37
  3
OverhangOff
350
40
  3
Realistic
350
33
  3
Shaded
350
3E
  3
Shaded with edges
350
3D
  3
Shades of Gray
350
3A
  3
Sketchy
350
3B
  3
Thicken
350
36
  3
Wireframe
350
30
  3
X-Ray
350
3C
  0
XRECORD
  5
112F
102
{ACAD_REACTORS
330
C
102
}
330
C
100
AcDbXrecord
280
     1
 90
        1
330
64
  0
DICTIONARY
  5
51D
102
{ACAD_REACTORS
330
C
102
}
330
C
100
AcDbDictionary
281
     1
  3
CANNOSCALE
350
523
  3
CMLEADERSTYLE
350
51F
  3
CTABLESTYLE
350
51E
  3
CVIEWDETAILSTYLE
350
520
  3
CVIEWSECTIONSTYLE
350
521
  3
LAYEREVAL
350
525
  3
LAYERNOTIFY
350
526
  3
LIGHTINGUNITS
350
524
  3
MSLTSCALE
350
522
  0
DICTIONARY
  5
1135
102
{ACAD_REACTORS
330
C
102
}
330
C
100
AcDbDictionary
281
     1
  3
AcDsRecords
350
1137
  3
AcDsSchemas
350
1136
1001
ACAD
1070
     2
  0
DICTIONARY
  5
67C
102
{ACAD_REACTORS
330
67B
102
}
330
67B
100
AcDbDictionary
281
     1
  0
XRECORD
  5
506
102
{ACAD_REACTORS
330
505
102
}
330
505
100
AcDbXrecord
280
     1
290
     1
  0
XRECORD
  5
508
102
{ACAD_REACTORS
330
507
102
}
330
507
100
AcDbXrecord
280
     1
290
     1
  0
XRECORD
  5
50A
102
{ACAD_REACTORS
330
509
102
}
330
509
100
AcDbXrecord
280
     1
290
     1
  0
XRECORD
  5
50C
102
{ACAD_REACTORS
330
50B
102
}
330
50B
100
AcDbXrecord
280
     1
290
     1
  0
XRECORD
  5
50E
102
{ACAD_REACTORS
330
50D
102
}
330
50D
100
AcDbXrecord
280
     1
290
     1
  0
XRECORD
  5
510
102
{ACAD_REACTORS
330
50F
102
}
330
50F
100
AcDbXrecord
280
     1
290
     1
  0
XRECORD
  5
512
102
{ACAD_REACTORS
330
511
102
}
330
511
100
AcDbXrecord
280
     1
290
     1
  0
XRECORD
  5
514
102
{ACAD_REACTORS
330
513
102
}
330
513
100
AcDbXrecord
280
     1
290
     1
  0
XRECORD
  5
516
102
{ACAD_REACTORS
330
515
102
}
330
515
100
AcDbXrecord
280
     1
290
     1
  0
XRECORD
  5
518
102
{ACAD_REACTORS
330
517
102
}
330
517
100
AcDbXrecord
280
     1
290
     1
  0
XRECORD
  5
51A
102
{ACAD_REACTORS
330
519
102
}
330
519
100
AcDbXrecord
280
     1
290
     1
  0
SORTENTSTABLE
  5
F4A
102
{ACAD_REACTORS
330
F49
102
}
330
F49
100
AcDbSortentsTable
330
6F
331
3CE
  5
3DE
331
9EE
  5
9F2
331
9EA
  5
9EE
331
9F6
  5
9FA
331
9CE
  5
9D2
331
EF1
  5
F47
331
9F2
  5
9F6
331
9CA
  5
9CE
331
9D6
  5
9DA
331
F45
  5
395
331
9D2
  5
9D6
331
8A6
  5
8AA
331
867
  5
86E
331
8A2
  5
8A6
331
863
  5
867
331
91E
  5
922
331
8DF
  5
8E3
331
86F
  5
873
331
8AE
  5
8B2
331
8DB
  5
8DF
331
996
  5
99A
331
91A
  5
91E
331
8AA
  5
8AE
331
957
  5
95B
331
953
  5
957
331
992
  5
996
331
8E7
  5
8EB
331
926
  5
92A
331
922
  5
926
331
99E
  5
9A2
331
95F
  5
963
331
8E3
  5
8E7
331
4CE
  5
4D4
331
99A
  5
99E
331
95B
  5
95F
331
4CA
  5
4D0
331
414
  5
418
331
410
  5
414
331
4D2
  5
4D8
331
493
  5
499
331
457
  5
45B
331
453
  5
457
331
45F
  5
463
331
418
  5
424
331
45B
  5
45F
331
3BE
  5
3CE
331
3BA
  5
3BE
331
A0D
  5
A11
331
9BE
  5
9C2
331
A09
  5
A0D
331
A1A
  5
EF2
331
9BA
  5
9BE
331
9C6
  5
9CA
331
A15
  5
A19
331
A11
  5
A15
331
9C2
  5
9C6
331
896
  5
89A
331
857
  5
85B
331
892
  5
896
331
853
  5
857
331
90E
  5
912
331
8CF
  5
8D3
331
85F
  5
863
331
89E
  5
8A2
331
90A
  5
910
331
986
  5
98A
331
89A
  5
89E
331
85B
  5
85F
331
947
  5
94B
331
8CB
  5
8CF
331
943
  5
947
331
982
  5
986
331
8D7
  5
8DB
331
916
  5
91A
331
912
  5
916
331
8D3
  5
8D7
331
4BE
  5
4C2
331
94F
  5
953
331
98E
  5
992
331
98A
  5
98E
331
94B
  5
94F
331
4BA
  5
4BE
331
4C6
  5
4CE
331
3FC
  5
40D
331
4C2
  5
4C6
331
447
  5
451
331
443
  5
447
331
40C
  5
410
331
44F
  5
453
331
9FE
  5
A02
331
9FA
  5
9FE
331
A06
  5
A0A
331
A02
  5
A06
331
8C6
  5
8CA
331
887
  5
88B
331
8C2
  5
8C6
331
883
  5
887
331
93E
  5
942
331
88F
  5
893
331
8FF
  5
903
331
93A
  5
93E
331
9B6
  5
9BA
331
88B
  5
88F
331
977
  5
97B
331
8FB
  5
8FF
331
9B2
  5
9B6
331
907
  5
90B
331
973
  5
977
331
4EE
  5
851
331
97F
  5
983
331
903
  5
907
331
4AF
  5
4B7
331
97B
  5
97F
331
4EA
  5
4F0
331
4B7
  5
4BC
331
434
  5
438
331
430
  5
434
331
4B3
  5
4BA
331
43C
  5
442
331
438
  5
43C
331
3DE
  5
3E2
331
3E6
  5
40A
331
3E2
  5
3FA
331
9DE
  5
9E2
331
9DA
  5
9DE
331
9E6
  5
9EA
331
9E2
  5
9E6
331
8B6
  5
8BA
331
877
  5
87B
331
8B2
  5
8B6
331
873
  5
877
331
92E
  5
932
331
8EF
  5
8F3
331
8BE
  5
8C2
331
87F
  5
883
331
92A
  5
92E
331
9A6
  5
9AA
331
967
  5
96B
331
8EB
  5
8EF
331
87B
  5
87F
331
8BA
  5
8BE
331
9A2
  5
9A6
331
8F7
  5
8FB
331
936
  5
93A
331
963
  5
967
331
4DE
  5
4E6
331
932
  5
936
331
8F3
  5
8F7
331
49F
  5
4A9
331
96F
  5
973
331
9AE
  5
9B2
331
9AA
  5
9AE
331
96B
  5
96F
331
4DA
  5
4E0
331
424
  5
431
331
4A7
  5
4B3
331
4E6
  5
4EE
331
4E2
  5
4EA
331
4A3
  5
4B1
331
467
  5
46B
331
463
  5
467
331
46B
  5
474
331
3CF
  5
3DF
331
9EF
  5
9F3
331
9EB
  5
9EF
331
9F7
  5
9FB
331
9CF
  5
9D3
331
9CB
  5
9CF
331
EF2
  5
F48
331
9F3
  5
9F7
331
9D7
  5
9DB
331
F46
  5
39C
331
9D3
  5
9D7
331
864
  5
868
331
8A7
  5
8AB
331
860
  5
864
331
8DC
  5
8E0
331
8A3
  5
8A7
331
868
  5
86F
331
91F
  5
923
331
954
  5
958
331
8D8
  5
8DC
331
8AF
  5
8B3
331
8E4
  5
8E8
331
8AB
  5
8AF
331
997
  5
99B
331
91B
  5
91F
331
950
  5
954
331
927
  5
92B
331
95C
  5
960
331
8E0
  5
8E4
331
48C
  5
496
331
993
  5
997
331
488
  5
494
331
99F
  5
9A3
331
923
  5
927
331
958
  5
95C
331
4CF
  5
4D5
331
494
  5
49F
331
99B
  5
99F
331
415
  5
419
331
4D7
  5
4DD
331
454
  5
458
331
450
  5
454
331
411
  5
415
331
45C
  5
460
331
458
  5
45C
331
419
  5
42E
331
3BF
  5
3CF
331
3BB
  5
3BF
331
A0E
  5
A12
331
9BF
  5
9C3
331
4F0
  5
853
331
A0A
  5
A0E
331
A1B
  5
F45
331
9BB
  5
9BF
331
9C7
  5
9CB
331
A16
  5
A1A
331
A12
  5
A16
331
9C3
  5
9C7
331
854
  5
858
331
897
  5
89B
331
850
  5
854
331
8CC
  5
8D0
331
893
  5
897
331
85C
  5
860
331
858
  5
85C
331
90F
  5
913
331
944
  5
948
331
8C8
  5
8CC
331
89F
  5
8A3
331
8D4
  5
8D8
331
89B
  5
89F
331
987
  5
98B
331
90B
  5
911
331
940
  5
944
331
94C
  5
950
331
8D0
  5
8D4
331
47C
  5
484
331
983
  5
987
331
917
  5
91B
331
98F
  5
993
331
913
  5
917
331
948
  5
94C
331
4BF
  5
4C3
331
484
  5
48C
331
98B
  5
98F
331
4BB
  5
4BF
331
480
  5
488
331
444
  5
44E
331
4C3
  5
4C8
331
40D
  5
411
331
39C
  5
3BB
331
9FF
  5
A03
331
9FB
  5
9FF
331
A07
  5
A0B
331
A03
  5
A07
331
884
  5
888
331
8C7
  5
8CB
331
880
  5
884
331
8FC
  5
900
331
8C3
  5
8C7
331
88C
  5
890
331
888
  5
88C
331
93F
  5
943
331
974
  5
978
331
8F8
  5
8FC
331
9B7
  5
9BB
331
93B
  5
93F
331
970
  5
974
331
904
  5
908
331
97C
  5
980
331
900
  5
904
331
9B3
  5
9B7
331
978
  5
97C
331
4EF
  5
852
331
474
  5
47E
331
435
  5
439
331
431
  5
435
331
470
  5
47A
331
43D
  5
443
331
439
  5
43D
331
3DF
  5
3E4
331
9DF
  5
9E3
331
9DB
  5
9DF
331
9E7
  5
9EB
331
9E3
  5
9E7
331
874
  5
878
331
8B7
  5
8BB
331
870
  5
874
331
8EC
  5
8F0
331
8B3
  5
8B7
331
87C
  5
880
331
878
  5
87C
331
92F
  5
933
331
964
  5
968
331
8E8
  5
8EC
331
8BF
  5
8C3
331
9A7
  5
9AB
331
92B
  5
92F
331
960
  5
964
331
8F4
  5
8F8
331
8BB
  5
8BF
331
8F0
  5
8F4
331
9A3
  5
9A7
331
937
  5
93B
331
96C
  5
970
331
933
  5
937
331
968
  5
96C
331
9AF
  5
9B3
331
9AB
  5
9AF
331
4DB
  5
4E2
331
464
  5
468
331
460
  5
464
331
46C
  5
476
331
468
  5
46C
331
9EC
  5
9F0
331
9E8
  5
9EC
331
9F4
  5
9F8
331
3D0
  5
3E0
331
9CC
  5
9D0
331
9F0
  5
9F4
331
9C8
  5
9CC
331
9D4
  5
9D8
331
F47
  5
39D
331
9D0
  5
9D4
331
8A4
  5
8A8
331
865
  5
869
331
8A0
  5
8A4
331
861
  5
865
331
91C
  5
920
331
8DD
  5
8E1
331
8AC
  5
8B0
331
918
  5
91C
331
994
  5
998
331
955
  5
959
331
8D9
  5
8DD
331
869
  5
870
331
8A8
  5
8AC
331
990
  5
994
331
8E5
  5
8E9
331
924
  5
928
331
951
  5
955
331
920
  5
924
331
8E1
  5
8E5
331
4CC
  5
4D2
331
95D
  5
961
331
99C
  5
9A0
331
998
  5
99C
331
959
  5
95D
331
4C8
  5
4CF
331
4D4
  5
4DA
331
495
  5
4A1
331
416
  5
41A
331
4D0
  5
4D7
331
455
  5
459
331
451
  5
455
331
412
  5
416
331
45D
  5
461
331
459
  5
45D
331
41A
  5
42F
331
3BC
  5
3C0
331
A1C
  5
F46
331
3C0
  5
3D0
331
9BC
  5
9C0
331
A0F
  5
A13
331
A18
  5
A1C
331
9B8
  5
9BC
331
9C4
  5
9C8
331
A0B
  5
A0F
331
9C0
  5
9C4
331
A17
  5
A1B
331
A13
  5
A17
331
894
  5
898
331
855
  5
859
331
890
  5
894
331
851
  5
855
331
8CD
  5
8D1
331
89C
  5
8A0
331
85D
  5
861
331
908
  5
90E
331
984
  5
988
331
945
  5
949
331
8C9
  5
8CD
331
859
  5
85D
331
898
  5
89C
331
980
  5
984
331
8D5
  5
8D9
331
914
  5
918
331
941
  5
945
331
910
  5
914
331
8D1
  5
8D5
331
4BC
  5
4C0
331
94D
  5
951
331
98C
  5
990
331
988
  5
98C
331
949
  5
94D
331
4C4
  5
4CA
331
4C0
  5
4C4
331
445
  5
44F
331
441
  5
445
331
3FA
  5
40C
331
40E
  5
412
331
40A
  5
40E
331
39D
  5
3BC
331
3EC
  5
40B
331
9FC
  5
A00
331
9F8
  5
9FC
331
A04
  5
A08
331
A00
  5
A04
331
8C4
  5
8C8
331
885
  5
889
331
8C0
  5
8C4
331
881
  5
885
331
93C
  5
940
331
8FD
  5
901
331
88D
  5
891
331
938
  5
93C
331
9B4
  5
9B8
331
889
  5
88D
331
975
  5
979
331
8F9
  5
8FD
331
9B0
  5
9B4
331
905
  5
909
331
971
  5
975
331
97D
  5
981
331
901
  5
905
331
4EC
  5
850
331
4E8
  5
4EF
331
979
  5
97D
331
4A9
  5
4B5
331
4B5
  5
4BB
331
436
  5
43A
331
4B1
  5
4B9
331
432
  5
436
331
43E
  5
444
331
43A
  5
43E
331
F48
  5
3B9
331
3E4
  5
3FC
331
395
  5
3BA
331
3E0
  5
3E6
331
9DC
  5
9E0
331
9D8
  5
9DC
331
9E4
  5
9E8
331
9E0
  5
9E4
331
8B4
  5
8B8
331
875
  5
879
331
8B0
  5
8B4
331
871
  5
875
331
92C
  5
930
331
8ED
  5
8F1
331
8BC
  5
8C0
331
87D
  5
881
331
928
  5
92C
331
9A4
  5
9A8
331
965
  5
969
331
8E9
  5
8ED
331
879
  5
87D
331
8B8
  5
8BC
331
9A0
  5
9A4
331
934
  5
938
331
961
  5
965
331
8F5
  5
8F9
331
8F1
  5
8F5
331
96D
  5
971
331
9AC
  5
9B0
331
930
  5
934
331
4D8
  5
4DE
331
499
  5
4A7
331
969
  5
96D
331
9A8
  5
9AC
331
4E4
  5
4EC
331
4E0
  5
4E8
331
4A1
  5
4AF
331
465
  5
469
331
461
  5
465
331
42E
  5
432
331
469
  5
470
331
3CD
  5
3DD
331
9ED
  5
9F1
331
9E9
  5
9ED
331
9F5
  5
9F9
331
9CD
  5
9D1
331
9F1
  5
9F5
331
9C9
  5
9CD
331
9D5
  5
9D9
331
9D1
  5
9D5
331
8A5
  5
8A9
331
866
  5
86A
331
8A1
  5
8A5
331
862
  5
866
331
91D
  5
921
331
8DE
  5
8E2
331
86E
  5
872
331
8AD
  5
8B1
331
919
  5
91D
331
995
  5
999
331
8A9
  5
8AD
331
86A
  5
871
331
956
  5
95A
331
8DA
  5
8DE
331
952
  5
956
331
991
  5
995
331
8E6
  5
8EA
331
925
  5
929
331
921
  5
925
331
8E2
  5
8E6
331
95E
  5
962
331
99D
  5
9A1
331
48A
  5
495
331
999
  5
99D
331
95A
  5
95E
331
4D5
  5
4DB
331
496
  5
4A3
331
417
  5
41B
331
456
  5
45A
331
452
  5
456
331
413
  5
417
331
45E
  5
462
331
45A
  5
45E
331
41B
  5
430
331
3BD
  5
3CD
331
3B9
  5
3BD
331
A0C
  5
A10
331
9BD
  5
9C1
331
A08
  5
A0C
331
A19
  5
EF1
331
9B9
  5
9BD
331
9C5
  5
9C9
331
A14
  5
A18
331
A10
  5
A14
331
9C1
  5
9C5
331
895
  5
899
331
856
  5
85A
331
891
  5
895
331
852
  5
856
331
8CE
  5
8D2
331
85E
  5
862
331
89D
  5
8A1
331
909
  5
90F
331
985
  5
989
331
946
  5
94A
331
8CA
  5
8CE
331
85A
  5
85E
331
899
  5
89D
331
981
  5
985
331
8D6
  5
8DA
331
915
  5
919
331
942
  5
946
331
4BD
  5
4C1
331
911
  5
915
331
8D2
  5
8D6
331
47E
  5
486
331
94E
  5
952
331
98D
  5
991
331
47A
  5
482
331
989
  5
98D
331
94A
  5
94E
331
4B9
  5
4BD
331
4C5
  5
4CC
331
486
  5
493
331
4C1
  5
4C5
331
482
  5
48A
331
446
  5
450
331
442
  5
446
331
44E
  5
452
331
40F
  5
413
331
40B
  5
40F
331
9FD
  5
A01
331
9F9
  5
9FD
331
A05
  5
A09
331
A01
  5
A05
331
8C5
  5
8C9
331
886
  5
88A
331
8C1
  5
8C5
331
882
  5
886
331
93D
  5
941
331
8FE
  5
902
331
88E
  5
892
331
939
  5
93D
331
9B5
  5
9B9
331
88A
  5
88E
331
976
  5
97A
331
8FA
  5
8FE
331
9B1
  5
9B5
331
906
  5
90A
331
972
  5
976
331
97E
  5
982
331
902
  5
906
331
97A
  5
97E
331
437
  5
43B
331
476
  5
480
331
472
  5
47C
331
433
  5
437
331
43B
  5
441
331
3DD
  5
3E1
331
3E1
  5
3EC
331
9DD
  5
9E1
331
9D9
  5
9DD
331
9E5
  5
9E9
331
9E1
  5
9E5
331
8B5
  5
8B9
331
876
  5
87A
331
8B1
  5
8B5
331
872
  5
876
331
92D
  5
931
331
8EE
  5
8F2
331
8BD
  5
8C1
331
87E
  5
882
331
929
  5
92D
331
9A5
  5
9A9
331
966
  5
96A
331
8EA
  5
8EE
331
87A
  5
87E
331
8B9
  5
8BD
331
9A1
  5
9A5
331
8F6
  5
8FA
331
935
  5
939
331
962
  5
966
331
4DD
  5
4E4
331
8F2
  5
8F6
331
96E
  5
972
331
9AD
  5
9B1
331
931
  5
935
331
9A9
  5
9AD
331
96A
  5
96E
331
466
  5
46A
331
462
  5
466
331
42F
  5
433
331
46A
  5
472
  0
ACDBDETAILVIEWSTYLE
  5
6A
102
{ACAD_XDICTIONARY
360
113A
102
}
102
{ACAD_REACTORS
330
69
102
}
330
69
100
AcDbModelDocViewStyle
 70
     0
  3
Imperial24
290
     0
100
AcDbDetailViewStyle
 70
     0
 71
     0
 90
        3
 71
     1
340
55
 62
   256
 40
0.24
340
0
 62
   256
 40
0.24
300

 40
0.36
280
     3
 71
     2
340
5C
 90
       25
 62
   256
 71
     3
340
55
 62
   256
 40
0.24
 90
        1
 40
0.75
 90
        1
300
%<\AcVar ViewType \f "%tc1">% %<\AcVar ViewDetailId>%\PSCALE %<\AcVar ViewScale \f "%sn">%
 71
     4
340
5C
 90
       25
 62
   256
340
5C
 90
       25
 62
   256
280
     0
  0
LAYOUT
  5
72
102
{ACAD_REACTORS
330
61
102
}
330
61
100
AcDbPlotSettings
  1

  2
EPSON LP-S3200複合棟
  4
A4
  6

 40
5.873749732971191
 41
5.873748779296875
 42
5.873733520507812
 43
5.873748779296875
 44
209.9733276367186
 45
297.0106506347656
 46
0.0
 47
0.0
 48
-1433.558084503836
 49
-1045.670608063645
140
1281.005937313219
141
2722.028662529389
142
1.0
143
347.8351996364759
 70
 11952
 72
     0
 73
     0
 74
     4
  7
monochrome.ctb
 75
     0
147
0.0028749246799781
 76
     0
 77
     2
 78
   300
148
36412.37534639745
149
26560.03344481658
100
AcDbLayout
  1
Model
 70
     1
 71
     0
 10
0.0
 20
0.0
 11
12.0
 21
9.0
 12
0.0
 22
0.0
 32
0.0
 14
0.0
 24
0.0
 34
0.0
 15
0.0
 25
0.0
 35
0.0
146
0.0
 13
0.0
 23
0.0
 33
0.0
 16
1.0
 26
0.0
 36
0.0
 17
0.0
 27
1.0
 37
0.0
 76
     0
330
6F
331
89
1001
ACAD_PSEXT
1000
EPSON LP-S3200複合棟
1000
EPSON LP-S3200
1000
10.70.14.11
1000

1070
     0
  0
LAYOUT
  5
6E
102
{ACAD_REACTORS
330
61
102
}
330
61
100
AcDbPlotSettings
  1

  2
EPSON LP-S3200複合棟
  4

  6

 40
0.0
 41
0.0
 42
0.0
 43
0.0
 44
0.0
 45
0.0
 46
0.0
 47
0.0
 48
0.0
 49
0.0
140
0.0
141
0.0
142
1.0
143
1.0
 70
   688
 72
     0
 73
     0
 74
     5
  7
monochrome.ctb
 75
    16
147
1.0
 76
     0
 77
     2
 78
   300
148
0.0
149
0.0
100
AcDbLayout
  1
レイアウト1
 70
     1
 71
     1
 10
0.0
 20
0.0
 11
12.0
 21
9.0
 12
0.0
 22
0.0
 32
0.0
 14
1.000000000000000E+20
 24
1.000000000000000E+20
 34
1.000000000000000E+20
 15
-1.000000000000000E+20
 25
-1.000000000000000E+20
 35
-1.000000000000000E+20
146
0.0
 13
0.0
 23
0.0
 33
0.0
 16
1.0
 26
0.0
 36
0.0
 17
0.0
 27
1.0
 37
0.0
 76
     0
330
6B
  0
MATERIAL
  5
19
102
{ACAD_REACTORS
330
10
102
}
330
10
100
AcDbMaterial
  1
ByBlock
 72
     0
 43
0.0208333333333333
 43
0.0
 43
0.0
 43
0.0
 43
0.0
 43
0.0208333333333333
 43
0.0
 43
0.0
 43
0.0
 43
0.0
 43
1.0
 43
0.0
 43
0.0
 43
0.0
 43
0.0
 43
1.0
 77
     0
 47
0.0208333333333333
 47
0.0
 47
0.0
 47
0.0
 47
0.0
 47
0.0208333333333333
 47
0.0
 47
0.0
 47
0.0
 47
0.0
 47
1.0
 47
0.0
 47
0.0
 47
0.0
 47
0.0
 47
1.0
171
     0
 49
0.0208333333333333
 49
0.0
 49
0.0
 49
0.0
 49
0.0
 49
0.0208333333333333
 49
0.0
 49
0.0
 49
0.0
 49
0.0
 49
1.0
 49
0.0
 49
0.0
 49
0.0
 49
0.0
 49
1.0
175
     0
142
0.0208333333333333
142
0.0
142
0.0
142
0.0
142
0.0
142
0.0208333333333333
142
0.0
142
0.0
142
0.0
142
0.0
142
1.0
142
0.0
142
0.0
142
0.0
142
0.0
142
1.0
179
     0
144
0.0208333333333333
144
0.0
144
0.0
144
0.0
144
0.0
144
0.0208333333333333
144
0.0
144
0.0
144
0.0
144
0.0
144
1.0
144
0.0
144
0.0
144
0.0
144
0.0
144
1.0
147
0.0208333333333333
147
0.0
147
0.0
147
0.0
147
0.0
147
0.0208333333333333
147
0.0
147
0.0
147
0.0
147
0.0
147
1.0
147
0.0
147
0.0
147
0.0
147
0.0
147
1.0
  0
MATERIAL
  5
11
102
{ACAD_REACTORS
330
10
102
}
330
10
100
AcDbMaterial
  1
ByLayer
 72
     0
 43
0.0208333333333333
 43
0.0
 43
0.0
 43
0.0
 43
0.0
 43
0.0208333333333333
 43
0.0
 43
0.0
 43
0.0
 43
0.0
 43
1.0
 43
0.0
 43
0.0
 43
0.0
 43
0.0
 43
1.0
 77
     0
 47
0.0208333333333333
 47
0.0
 47
0.0
 47
0.0
 47
0.0
 47
0.0208333333333333
 47
0.0
 47
0.0
 47
0.0
 47
0.0
 47
1.0
 47
0.0
 47
0.0
 47
0.0
 47
0.0
 47
1.0
171
     0
 49
0.0208333333333333
 49
0.0
 49
0.0
 49
0.0
 49
0.0
 49
0.0208333333333333
 49
0.0
 49
0.0
 49
0.0
 49
0.0
 49
1.0
 49
0.0
 49
0.0
 49
0.0
 49
0.0
 49
1.0
175
     0
142
0.0208333333333333
142
0.0
142
0.0
142
0.0
142
0.0
142
0.0208333333333333
142
0.0
142
0.0
142
0.0
142
0.0
142
1.0
142
0.0
142
0.0
142
0.0
142
0.0
142
1.0
179
     0
144
0.0208333333333333
144
0.0
144
0.0
144
0.0
144
0.0
144
0.0208333333333333
144
0.0
144
0.0
144
0.0
144
0.0
144
1.0
144
0.0
144
0.0
144
0.0
144
0.0
144
1.0
147
0.0208333333333333
147
0.0
147
0.0
147
0.0
147
0.0
147
0.0208333333333333
147
0.0
147
0.0
147
0.0
147
0.0
147
1.0
147
0.0
147
0.0
147
0.0
147
0.0
147
1.0
  0
MATERIAL
  5
21
102
{ACAD_XDICTIONARY
360
22
102
}
102
{ACAD_REACTORS
330
10
102
}
330
10
100
AcDbMaterial
  1
Global
 72
     0
 43
0.0208333333333333
 43
0.0
 43
0.0
 43
0.0
 43
0.0
 43
0.0208333333333333
 43
0.0
 43
0.0
 43
0.0
 43
0.0
 43
1.0
 43
0.0
 43
0.0
 43
0.0
 43
0.0
 43
1.0
 77
     0
 47
0.0208333333333333
 47
0.0
 47
0.0
 47
0.0
 47
0.0
 47
0.0208333333333333
 47
0.0
 47
0.0
 47
0.0
 47
0.0
 47
1.0
 47
0.0
 47
0.0
 47
0.0
 47
0.0
 47
1.0
171
     0
 49
0.0208333333333333
 49
0.0
 49
0.0
 49
0.0
 49
0.0
 49
0.0208333333333333
 49
0.0
 49
0.0
 49
0.0
 49
0.0
 49
1.0
 49
0.0
 49
0.0
 49
0.0
 49
0.0
 49
1.0
175
     0
142
0.0208333333333333
142
0.0
142
0.0
142
0.0
142
0.0
142
0.0208333333333333
142
0.0
142
0.0
142
0.0
142
0.0
142
1.0
142
0.0
142
0.0
142
0.0
142
0.0
142
1.0
179
     0
144
0.0208333333333333
144
0.0
144
0.0
144
0.0
144
0.0
144
0.0208333333333333
144
0.0
144
0.0
144
0.0
144
0.0
144
1.0
144
0.0
144
0.0
144
0.0
144
0.0
144
1.0
147
0.0208333333333333
147
0.0
147
0.0
147
0.0
147
0.0
147
0.0208333333333333
147
0.0
147
0.0
147
0.0
147
0.0
147
1.0
147
0.0
147
0.0
147
0.0
147
0.0
147
1.0
  0
MLEADERSTYLE
  5
66
102
{ACAD_REACTORS
330
65
102
}
330
65
100
AcDbMLeaderStyle
179
     2
170
     2
171
     1
172
     0
 90
        2
 40
0.0
 41
0.0
173
     1
 91
-1056964608
340
5A
 92
       -2
290
     1
 42
0.09
291
     1
 43
0.36
  3
Standard
 44
0.18
300

342
55
174
     1
178
     6
175
     1
176
     0
 93
-1056964608
 45
0.18
292
     0
297
     0
 46
0.18
 94
-1056964608
 47
1.0
 49
1.0
140
1.0
293
     1
141
0.0
294
     1
177
     0
142
1.0
295
     0
296
     0
143
0.125
271
     0
272
     9
273
     9
298
     0
1001
ACAD_MLEADERVER
1070
     2
  0
MLINESTYLE
  5
5F
102
{ACAD_REACTORS
330
5E
102
}
330
5E
100
AcDbMlineStyle
  2
STANDARD
 70
     0
  3

 62
   256
 51
90.0
 52
90.0
 71
     2
 49
0.5
 62
   256
  6
BYLAYER
 49
-0.5
 62
   256
  6
BYLAYER
  0
ACDBPLACEHOLDER
  5
F
102
{ACAD_REACTORS
330
E
102
}
330
E
  0
SCALE
  5
43
102
{ACAD_REACTORS
330
42
102
}
330
42
100
AcDbScale
 70
     0
300
1:1
140
1.0
141
1.0
290
     1
  0
SCALE
  5
44
102
{ACAD_REACTORS
330
42
102
}
330
42
100
AcDbScale
 70
     0
300
1/128" = 1'-0"
140
0.0078125
141
12.0
290
     0
  0
SCALE
  5
45
102
{ACAD_REACTORS
330
42
102
}
330
42
100
AcDbScale
 70
     0
300
1/64" = 1'-0"
140
0.015625
141
12.0
290
     0
  0
SCALE
  5
46
102
{ACAD_REACTORS
330
42
102
}
330
42
100
AcDbScale
 70
     0
300
1/32" = 1'-0"
140
0.03125
141
12.0
290
     0
  0
SCALE
  5
47
102
{ACAD_REACTORS
330
42
102
}
330
42
100
AcDbScale
 70
     0
300
1/16" = 1'-0"
140
0.0625
141
12.0
290
     0
  0
SCALE
  5
48
102
{ACAD_REACTORS
330
42
102
}
330
42
100
AcDbScale
 70
     0
300
3/32" = 1'-0"
140
0.09375
141
12.0
290
     0
  0
SCALE
  5
49
102
{ACAD_REACTORS
330
42
102
}
330
42
100
AcDbScale
 70
     0
300
1/8" = 1'-0"
140
0.125
141
12.0
290
     0
  0
SCALE
  5
4A
102
{ACAD_REACTORS
330
42
102
}
330
42
100
AcDbScale
 70
     0
300
3/16" = 1'-0"
140
0.1875
141
12.0
290
     0
  0
SCALE
  5
4B
102
{ACAD_REACTORS
330
42
102
}
330
42
100
AcDbScale
 70
     0
300
1/4" = 1'-0"
140
0.25
141
12.0
290
     0
  0
SCALE
  5
4C
102
{ACAD_REACTORS
330
42
102
}
330
42
100
AcDbScale
 70
     0
300
3/8" = 1'-0"
140
0.375
141
12.0
290
     0
  0
SCALE
  5
4D
102
{ACAD_REACTORS
330
42
102
}
330
42
100
AcDbScale
 70
     0
300
1/2" = 1'-0"
140
0.5
141
12.0
290
     0
  0
SCALE
  5
4E
102
{ACAD_REACTORS
330
42
102
}
330
42
100
AcDbScale
 70
     0
300
3/4" = 1'-0"
140
0.75
141
12.0
290
     0
  0
SCALE
  5
4F
102
{ACAD_REACTORS
330
42
102
}
330
42
100
AcDbScale
 70
     0
300
1" = 1'-0"
140
1.0
141
12.0
290
     0
  0
SCALE
  5
50
102
{ACAD_REACTORS
330
42
102
}
330
42
100
AcDbScale
 70
     0
300
1-1/2" = 1'-0"
140
1.5
141
12.0
290
     0
  0
SCALE
  5
51
102
{ACAD_REACTORS
330
42
102
}
330
42
100
AcDbScale
 70
     0
300
3" = 1'-0"
140
3.0
141
12.0
290
     0
  0
SCALE
  5
52
102
{ACAD_REACTORS
330
42
102
}
330
42
100
AcDbScale
 70
     0
300
6" = 1'-0"
140
6.0
141
12.0
290
     0
  0
SCALE
  5
53
102
{ACAD_REACTORS
330
42
102
}
330
42
100
AcDbScale
 70
     0
300
1'-0" = 1'-0"
140
12.0
141
12.0
290
     0
  0
ACDBSECTIONVIEWSTYLE
  5
68
102
{ACAD_XDICTIONARY
360
1138
102
}
102
{ACAD_REACTORS
330
67
102
}
330
67
100
AcDbModelDocViewStyle
 70
     0
  3
Imperial24
290
     0
100
AcDbSectionViewStyle
 70
     0
 71
     0
 90
       78
 71
     1
340
55
 62
   256
 40
0.24
340
0
340
0
 62
   256
 40
0.24
300
I, O, Q, S, X, Z
 40
0.48
 90
        3
 40
0.18
 90
        1
 71
     2
340
5C
 90
       25
 62
   256
340
5C
 90
       50
 62
   256
 40
0.24
 40
0.0
 40
0.24
 71
     3
340
55
 62
   256
 40
0.24
 90
        1
 40
0.75
 90
        1
300
%<\AcVar ViewType \f "%tc1">% %<\AcVar ViewSectionStartId>%-%<\AcVar ViewSectionEndId>%\PSCALE %<\AcVar ViewScale \f "%sn">%
 71
     4
 62
   256
 62
   257
300
ANSI31
 40
1.0
 90
        0
290
     0
290
     0
 90
        6
 40
0.0
 40
1.570796326794896
 40
0.2617993877991494
 40
1.308996938995747
 40
-0.2617993877991494
 40
1.832595714594044
  0
TABLESTYLE
  5
64
102
{ACAD_XDICTIONARY
360
563
102
}
102
{ACAD_REACTORS
330
63
102
}
330
63
100
AcDbTableStyle
280
     0
  3
Standard
 70
     0
 71
     0
 40
0.06
 41
0.06
280
     0
281
     0
  7
STANDARD
140
0.18
170
     2
 62
     0
 63
     7
283
     0
 90
      512
 91
        0
  1

274
    -2
284
     1
 64
     0
275
    -2
285
     1
 65
     0
276
    -2
286
     1
 66
     0
277
    -2
287
     1
 67
     0
278
    -2
288
     1
 68
     0
279
    -2
289
     1
 69
     0
  7
STANDARD
140
0.25
170
     5
 62
     0
 63
     7
283
     0
 90
      512
 91
        0
  1

274
    -2
284
     1
 64
     0
275
    -2
285
     1
 65
     0
276
    -2
286
     1
 66
     0
277
    -2
287
     1
 67
     0
278
    -2
288
     1
 68
     0
279
    -2
289
     1
 69
     0
  7
STANDARD
140
0.18
170
     5
 62
     0
 63
     7
283
     0
 90
      512
 91
        0
  1

274
    -2
284
     1
 64
     0
275
    -2
285
     1
 65
     0
276
    -2
286
     1
 66
     0
277
    -2
287
     1
 67
     0
278
    -2
288
     1
 68
     0
279
    -2
289
     1
 69
     0
  0
VISUALSTYLE
  5
2F
102
{ACAD_REACTORS
330
29
102
}
330
29
100
AcDbVisualStyle
  2

 70
     4
177
     3
291
     0
 70
    58
 90
        0
176
     1
 90
        2
176
     1
 90
        0
176
     1
 90
        0
176
     1
 40
0.6
176
     1
 40
30.0
176
     1
 62
     7
420
 16777215
176
     1
 90
        1
176
     1
 90
        4
176
     1
 62
     7
176
     1
 62
   257
176
     1
 90
        1
176
     1
 90
        1
176
     1
 40
1.0
176
     1
 90
        0
176
     1
 62
   257
176
     1
 40
1.0
176
     1
 90
        1
176
     1
 90
        6
176
     1
 90
        2
176
     1
 62
     7
176
     1
 90
        5
176
     1
 90
        0
176
     1
 90
        0
176
     1
290
     0
176
     1
 90
        1
176
     1
 40
0.0
176
     1
 90
        0
176
     1
290
     1
176
     1
290
     1
176
     1
290
     0
176
     1
290
     0
176
     1
290
     0
176
     1
290
     0
176
     1
290
     0
176
     1
290
     0
176
     1
290
     0
176
     1
 90
       50
176
     1
 40
0.0
176
     1
 40
1.0
176
     1
 90
        0
176
     1
 62
    18
176
     1
 90
       50
176
     1
 90
        3
176
     1
 62
     5
420
      255
176
     1
290
     0
176
     1
 90
       50
176
     1
 90
       50
176
     1
 90
       50
176
     1
290
     0
176
     1
 90
       50
176
     1
 62
   256
176
     0
 40
1.0
176
     0
 90
        2
176
     1
  1
strokes_ogs.tif
176
     1
290
     0
176
     1
 40
1.0
176
     1
 40
1.0
176
     1
1001
ACAD
1000
AcDbSavedByObjectVersion
1070
     0
  0
VISUALSTYLE
  5
2E
102
{ACAD_REACTORS
330
29
102
}
330
29
100
AcDbVisualStyle
  2

 70
     7
177
     3
291
     1
 70
    58
 90
        1
176
     1
 90
        0
176
     1
 90
        1
176
     1
 90
        0
176
     1
 40
0.6
176
     1
 40
30.0
176
     1
 62
     7
420
 16777215
176
     1
 90
        0
176
     1
 90
        4
176
     1
 62
     7
176
     1
 62
   257
176
     1
 90
        1
176
     1
 90
        1
176
     1
 40
1.0
176
     1
 90
        8
176
     1
 62
     7
176
     1
 40
1.0
176
     1
 90
        1
176
     1
 90
        6
176
     1
 90
        2
176
     1
 62
     7
176
     1
 90
        5
176
     1
 90
        0
176
     1
 90
        0
176
     1
290
     0
176
     1
 90
        1
176
     1
 40
0.0
176
     1
 90
        0
176
     1
290
     0
176
     1
290
     1
176
     1
290
     1
176
     1
290
     0
176
     1
290
     0
176
     1
290
     0
176
     1
290
     0
176
     1
290
     0
176
     1
290
     0
176
     1
 90
       50
176
     1
 40
0.0
176
     1
 40
1.0
176
     1
 90
        0
176
     1
 62
    18
176
     1
 90
       50
176
     1
 90
        3
176
     1
 62
     5
420
      255
176
     1
290
     0
176
     1
 90
       50
176
     1
 90
       50
176
     1
 90
       50
176
     1
290
     0
176
     1
 90
       50
176
     1
 62
   256
176
     0
 40
1.0
176
     0
 90
        2
176
     1
  1
strokes_ogs.tif
176
     1
290
     0
176
     1
 40
1.0
176
     1
 40
1.0
176
     1
1001
ACAD
1000
AcDbSavedByObjectVersion
1070
     0
  0
VISUALSTYLE
  5
35
102
{ACAD_REACTORS
330
29
102
}
330
29
100
AcDbVisualStyle
  2

 70
    12
177
     3
291
     1
 70
    58
 90
        2
176
     1
 90
        2
176
     1
 90
        0
176
     1
 90
        0
176
     1
 40
0.6
176
     1
 40
30.0
176
     1
 62
     7
420
 16777215
176
     1
 90
        1
176
     1
 90
        4
176
     1
 62
     7
176
     1
 62
   257
176
     1
 90
        1
176
     1
 90
        1
176
     1
 40
1.0
176
     1
 90
        8
176
     1
 62
     7
176
     1
 40
1.0
176
     1
 90
        1
176
     1
 90
        6
176
     1
 90
        2
176
     1
 62
     7
176
     1
 90
        5
176
     1
 90
        0
176
     1
 90
        0
176
     1
290
     0
176
     1
 90
        1
176
     1
 40
50.0
176
     1
 90
        0
176
     1
290
     0
176
     1
290
     1
176
     1
290
     1
176
     1
290
     0
176
     1
290
     0
176
     1
290
     0
176
     1
290
     0
176
     1
290
     0
176
     1
290
     0
176
     1
 90
       50
176
     1
 40
0.0
176
     1
 40
1.0
176
     1
 90
        0
176
     1
 62
    18
176
     1
 90
       50
176
     1
 90
        3
176
     1
 62
     5
420
      255
176
     1
290
     0
176
     1
 90
       50
176
     1
 90
       50
176
     1
 90
       50
176
     1
290
     0
176
     1
 90
       50
176
     1
 62
   256
176
     0
 40
1.0
176
     0
 90
        2
176
     1
  1
strokes_ogs.tif
176
     1
290
     0
176
     1
 40
1.0
176
     1
 40
1.0
176
     1
1001
ACAD
1000
AcDbSavedByObjectVersion
1070
     0
  0
VISUALSTYLE
  5
39
102
{ACAD_REACTORS
330
29
102
}
330
29
100
AcDbVisualStyle
  2

 70
    16
177
     3
291
     1
 70
    58
 90
        2
176
     1
 90
        2
176
     1
 90
        3
176
     1
 90
        0
176
     1
 40
0.6
176
     1
 40
30.0
176
     1
 62
     8
420
  8421504
176
     1
 90
        1
176
     1
 90
        4
176
     1
 62
     7
176
     1
 62
   257
176
     1
 90
        1
176
     1
 90
        1
176
     1
 40
1.0
176
     1
 90
        8
176
     1
 62
     8
420
  8421504
176
     1
 40
1.0
176
     1
 90
        1
176
     1
 90
        6
176
     1
 90
        2
176
     1
 62
     7
176
     1
 90
        5
176
     1
 90
        0
176
     1
 90
        0
176
     1
290
     0
176
     1
 90
        1
176
     1
 40
0.0
176
     1
 90
        0
176
     1
290
     0
176
     1
290
     1
176
     1
290
     1
176
     1
290
     0
176
     1
290
     0
176
     1
290
     0
176
     1
290
     0
176
     1
290
     0
176
     1
290
     0
176
     1
 90
       50
176
     1
 40
0.0
176
     1
 40
1.0
176
     1
 90
        0
176
     1
 62
    18
176
     1
 90
       50
176
     1
 90
        3
176
     1
 62
     5
420
      255
176
     1
290
     0
176
     1
 90
       50
176
     1
 90
       50
176
     1
 90
       50
176
     1
290
     0
176
     1
 90
       50
176
     1
 62
   256
176
     0
 40
1.0
176
     0
 90
        2
176
     1
  1
strokes_ogs.tif
176
     1
290
     0
176
     1
 40
1.0
176
     1
 40
1.0
176
     1
1001
ACAD
1000
AcDbSavedByObjectVersion
1070
     0
  0
VISUALSTYLE
  5
32
102
{ACAD_REACTORS
330
29
102
}
330
29
100
AcDbVisualStyle
  2

 70
     9
177
     3
291
     0
 70
    58
 90
        3
176
     1
 90
        2
176
     1
 90
        0
176
     1
 90
        0
176
     1
 40
0.6
176
     1
 40
30.0
176
     1
 62
     7
420
 16777215
176
     1
 90
        2
176
     1
 90
        2
176
     1
 62
     7
176
     1
 62
   257
176
     1
 90
        1
176
     1
 90
        1
176
     1
 40
179.0
176
     1
 90
        8
176
     1
 62
     7
176
     1
 40
1.0
176
     1
 90
        1
176
     1
 90
        6
176
     1
 90
        2
176
     1
 62
     7
176
     1
 90
        3
176
     1
 90
        0
176
     1
 90
        0
176
     1
290
     0
176
     1
 90
        1
176
     1
 40
0.0
176
     1
 90
        0
176
     1
290
     0
176
     1
290
     1
176
     1
290
     1
176
     1
290
     0
176
     1
290
     0
176
     1
290
     0
176
     1
290
     0
176
     1
290
     0
176
     1
290
     0
176
     1
 90
       50
176
     1
 40
0.0
176
     1
 40
1.0
176
     1
 90
        0
176
     1
 62
    18
176
     1
 90
       50
176
     1
 90
        3
176
     1
 62
     5
420
      255
176
     1
290
     0
176
     1
 90
       50
176
     1
 90
       50
176
     1
 90
       50
176
     1
290
     0
176
     1
 90
       50
176
     1
 62
   256
176
     0
 40
1.0
176
     0
 90
        2
176
     1
  1
strokes_ogs.tif
176
     1
290
     0
176
     1
 40
1.0
176
     1
 40
1.0
176
     1
1001
ACAD
1000
AcDbSavedByObjectVersion
1070
     0
  0
VISUALSTYLE
  5
34
102
{ACAD_REACTORS
330
29
102
}
330
29
100
AcDbVisualStyle
  2

 70
    11
177
     3
291
     1
 70
    58
 90
        2
176
     1
 90
        2
176
     1
 90
        0
176
     1
 90
        0
176
     1
 40
0.6
176
     1
 40
30.0
176
     1
 62
     7
420
 16777215
176
     1
 90
        1
176
     1
 90
        4
176
     1
 62
     7
176
     1
 62
   257
176
     1
 90
        1
176
     1
 90
        1
176
     1
 40
1.0
176
     1
 90
        8
176
     1
 62
     7
176
     1
 40
1.0
176
     1
 90
        1
176
     1
 90
        6
176
     1
 90
        2
176
     1
 62
     7
176
     1
 90
        5
176
     1
 90
        0
176
     1
 90
        0
176
     1
290
     0
176
     1
 90
        1
176
     1
 40
-50.0
176
     1
 90
        0
176
     1
290
     0
176
     1
290
     1
176
     1
290
     1
176
     1
290
     0
176
     1
290
     0
176
     1
290
     0
176
     1
290
     0
176
     1
290
     0
176
     1
290
     0
176
     1
 90
       50
176
     1
 40
0.0
176
     1
 40
1.0
176
     1
 90
        0
176
     1
 62
    18
176
     1
 90
       50
176
     1
 90
        3
176
     1
 62
     5
420
      255
176
     1
290
     0
176
     1
 90
       50
176
     1
 90
       50
176
     1
 90
       50
176
     1
290
     0
176
     1
 90
       50
176
     1
 62
   256
176
     0
 40
1.0
176
     0
 90
        2
176
     1
  1
strokes_ogs.tif
176
     1
290
     0
176
     1
 40
1.0
176
     1
 40
1.0
176
     1
1001
ACAD
1000
AcDbSavedByObjectVersion
1070
     0
  0
VISUALSTYLE
  5
41
102
{ACAD_REACTORS
330
29
102
}
330
29
100
AcDbVisualStyle
  2

 70
    22
177
     3
291
     1
 70
    58
 90
        2
176
     0
 90
        2
176
     0
 90
        0
176
     0
 90
        0
176
     0
 40
0.6
176
     0
 40
30.0
176
     0
 62
     7
420
 16777215
176
     0
 90
        1
176
     0
 90
        4
176
     0
 62
     7
176
     0
 62
   257
176
     0
 90
        1
176
     0
 90
        1
176
     0
 40
1.0
176
     0
 90
        8
176
     2
 62
     7
176
     0
 40
1.0
176
     0
 90
        1
176
     0
 90
        6
176
     0
 90
        2
176
     0
 62
     7
176
     0
 90
        5
176
     0
 90
        0
176
     0
 90
        0
176
     0
290
     0
176
     0
 90
        1
176
     0
 40
0.0
176
     0
 90
        0
176
     0
290
     0
176
     1
290
     1
176
     1
290
     1
176
     1
290
     0
176
     1
290
     0
176
     1
290
     0
176
     1
290
     0
176
     1
290
     0
176
     1
290
     0
176
     1
 90
       50
176
     0
 40
0.0
176
     0
 40
1.0
176
     0
 90
        0
176
     0
 62
    18
176
     0
 90
       50
176
     0
 90
        3
176
     0
 62
     5
420
      255
176
     0
290
     0
176
     1
 90
       50
176
     0
 90
       50
176
     0
 90
       50
176
     0
290
     0
176
     1
 90
       50
176
     0
 62
   256
176
     0
 40
1.0
176
     0
 90
        2
176
     0
  1
strokes_ogs.tif
176
     0
290
     0
176
     1
 40
1.0
176
     0
 40
1.0
176
     0
1001
ACAD
1000
AcDbSavedByObjectVersion
1070
     0
  0
VISUALSTYLE
  5
38
102
{ACAD_REACTORS
330
29
102
}
330
29
100
AcDbVisualStyle
  2

 70
    15
177
     3
291
     1
 70
    58
 90
        2
176
     1
 90
        2
176
     1
 90
        0
176
     1
 90
        0
176
     1
 40
0.6
176
     1
 40
30.0
176
     1
 62
     7
420
 16777215
176
     1
 90
        1
176
     1
 90
        4
176
     1
 62
     7
176
     1
 62
   257
176
     1
 90
        1
176
     1
 90
        1
176
     1
 40
1.0
176
     1
 90
        8
176
     1
 62
     7
176
     1
 40
1.0
176
     1
 90
        1
176
     1
 90
        6
176
     1
 90
        2
176
     1
 62
     7
176
     1
 90
        5
176
     1
 90
        0
176
     1
 90
        0
176
     1
290
     0
176
     1
 90
        1
176
     1
 40
0.0
176
     1
 90
        0
176
     1
290
     0
176
     1
290
     1
176
     1
290
     1
176
     1
290
     0
176
     1
290
     0
176
     1
290
     0
176
     1
290
     0
176
     1
290
     0
176
     1
290
     0
176
     1
 90
       50
176
     1
 40
0.0
176
     1
 40
1.0
176
     1
 90
        0
176
     1
 62
    18
176
     1
 90
       50
176
     1
 90
        3
176
     1
 62
     5
420
      255
176
     1
290
     0
176
     1
 90
       50
176
     1
 90
       50
176
     1
 90
       50
176
     1
290
     0
176
     1
 90
       50
176
     1
 62
   256
176
     0
 40
1.0
176
     0
 90
        2
176
     1
  1
strokes_ogs.tif
176
     1
290
     0
176
     1
 40
1.0
176
     1
 40
1.0
176
     1
1001
ACAD
1000
AcDbSavedByObjectVersion
1070
     0
  0
VISUALSTYLE
  5
2A
102
{ACAD_REACTORS
330
29
102
}
330
29
100
AcDbVisualStyle
  2

 70
     0
177
     3
291
     1
 70
    58
 90
        2
176
     1
 90
        1
176
     1
 90
        1
176
     1
 90
        2
176
     1
 40
0.6
176
     1
 40
30.0
176
     1
 62
     7
420
 16777215
176
     1
 90
        0
176
     1
 90
        0
176
     1
 62
     7
176
     1
 62
   257
176
     1
 90
        1
176
     1
 90
        1
176
     1
 40
1.0
176
     1
 90
        8
176
     1
 62
     7
176
     1
 40
1.0
176
     1
 90
        1
176
     1
 90
        6
176
     1
 90
        2
176
     1
 62
     7
176
     1
 90
        5
176
     1
 90
        0
176
     1
 90
        0
176
     1
290
     0
176
     1
 90
       13
176
     1
 40
0.0
176
     1
 90
        0
176
     1
290
     0
176
     1
290
     1
176
     1
290
     1
176
     1
290
     0
176
     1
290
     0
176
     1
290
     0
176
     1
290
     0
176
     1
290
     0
176
     1
290
     0
176
     1
 90
       50
176
     1
 40
0.0
176
     1
 40
1.0
176
     1
 90
        0
176
     1
 62
    18
176
     1
 90
       50
176
     1
 90
        3
176
     1
 62
     5
420
      255
176
     1
290
     0
176
     1
 90
       50
176
     1
 90
       50
176
     1
 90
       50
176
     1
290
     0
176
     1
 90
       50
176
     1
 62
   256
176
     0
 40
1.0
176
     0
 90
        2
176
     1
  1
strokes_ogs.tif
176
     1
290
     0
176
     1
 40
1.0
176
     1
 40
1.0
176
     1
1001
ACAD
1000
AcDbSavedByObjectVersion
1070
     0
  0
VISUALSTYLE
  5
2B
102
{ACAD_REACTORS
330
29
102
}
330
29
100
AcDbVisualStyle
  2

 70
     1
177
     3
291
     1
 70
    58
 90
        2
176
     1
 90
        1
176
     1
 90
        1
176
     1
 90
        2
176
     1
 40
0.6
176
     1
 40
30.0
176
     1
 62
     7
420
 16777215
176
     1
 90
        1
176
     1
 90
        0
176
     1
 62
     7
176
     1
 62
   257
176
     1
 90
        1
176
     1
 90
        1
176
     1
 40
1.0
176
     1
 90
        0
176
     1
 62
   257
176
     1
 40
1.0
176
     1
 90
        1
176
     1
 90
        6
176
     1
 90
        2
176
     1
 62
     7
176
     1
 90
        5
176
     1
 90
        0
176
     1
 90
        0
176
     1
290
     0
176
     1
 90
       13
176
     1
 40
0.0
176
     1
 90
        0
176
     1
290
     0
176
     1
290
     1
176
     1
290
     1
176
     1
290
     0
176
     1
290
     0
176
     1
290
     0
176
     1
290
     0
176
     1
290
     0
176
     1
290
     0
176
     1
 90
       50
176
     1
 40
0.0
176
     1
 40
1.0
176
     1
 90
        0
176
     1
 62
    18
176
     1
 90
       50
176
     1
 90
        3
176
     1
 62
     5
420
      255
176
     1
290
     0
176
     1
 90
       50
176
     1
 90
       50
176
     1
 90
       50
176
     1
290
     0
176
     1
 90
       50
176
     1
 62
   256
176
     0
 40
1.0
176
     0
 90
        2
176
     1
  1
strokes_ogs.tif
176
     1
290
     0
176
     1
 40
1.0
176
     1
 40
1.0
176
     1
1001
ACAD
1000
AcDbSavedByObjectVersion
1070
     0
  0
VISUALSTYLE
  5
2C
102
{ACAD_REACTORS
330
29
102
}
330
29
100
AcDbVisualStyle
  2

 70
     2
177
     3
291
     1
 70
    58
 90
        2
176
     1
 90
        2
176
     1
 90
        1
176
     1
 90
        2
176
     1
 40
0.6
176
     1
 40
30.0
176
     1
 62
     7
420
 16777215
176
     1
 90
        0
176
     1
 90
        0
176
     1
 62
     7
176
     1
 62
   257
176
     1
 90
        1
176
     1
 90
        1
176
     1
 40
1.0
176
     1
 90
        0
176
     1
 62
     7
176
     1
 40
1.0
176
     1
 90
        1
176
     1
 90
        6
176
     1
 90
        2
176
     1
 62
     7
176
     1
 90
        5
176
     1
 90
        0
176
     1
 90
        0
176
     1
290
     0
176
     1
 90
       13
176
     1
 40
0.0
176
     1
 90
        0
176
     1
290
     0
176
     1
290
     1
176
     1
290
     1
176
     1
290
     0
176
     1
290
     0
176
     1
290
     0
176
     1
290
     0
176
     1
290
     0
176
     1
290
     0
176
     1
 90
       50
176
     1
 40
0.0
176
     1
 40
1.0
176
     1
 90
        0
176
     1
 62
    18
176
     1
 90
       50
176
     1
 90
        3
176
     1
 62
     5
420
      255
176
     1
290
     0
176
     1
 90
       50
176
     1
 90
       50
176
     1
 90
       50
176
     1
290
     0
176
     1
 90
       50
176
     1
 62
   256
176
     0
 40
1.0
176
     0
 90
        2
176
     1
  1
strokes_ogs.tif
176
     1
290
     0
176
     1
 40
1.0
176
     1
 40
1.0
176
     1
1001
ACAD
1000
AcDbSavedByObjectVersion
1070
     0
  0
VISUALSTYLE
  5
2D
102
{ACAD_REACTORS
330
29
102
}
330
29
100
AcDbVisualStyle
  2

 70
     3
177
     3
291
     1
 70
    58
 90
        2
176
     1
 90
        2
176
     1
 90
        1
176
     1
 90
        2
176
     1
 40
0.6
176
     1
 40
30.0
176
     1
 62
     7
420
 16777215
176
     1
 90
        1
176
     1
 90
        0
176
     1
 62
     7
176
     1
 62
   257
176
     1
 90
        1
176
     1
 90
        1
176
     1
 40
1.0
176
     1
 90
        0
176
     1
 62
   257
176
     1
 40
1.0
176
     1
 90
        1
176
     1
 90
        6
176
     1
 90
        2
176
     1
 62
     7
176
     1
 90
        5
176
     1
 90
        0
176
     1
 90
        0
176
     1
290
     0
176
     1
 90
       13
176
     1
 40
0.0
176
     1
 90
        0
176
     1
290
     0
176
     1
290
     1
176
     1
290
     1
176
     1
290
     0
176
     1
290
     0
176
     1
290
     0
176
     1
290
     0
176
     1
290
     0
176
     1
290
     0
176
     1
 90
       50
176
     1
 40
0.0
176
     1
 40
1.0
176
     1
 90
        0
176
     1
 62
    18
176
     1
 90
       50
176
     1
 90
        3
176
     1
 62
     5
420
      255
176
     1
290
     0
176
     1
 90
       50
176
     1
 90
       50
176
     1
 90
       50
176
     1
290
     0
176
     1
 90
       50
176
     1
 62
   256
176
     0
 40
1.0
176
     0
 90
        2
176
     1
  1
strokes_ogs.tif
176
     1
290
     0
176
     1
 40
1.0
176
     1
 40
1.0
176
     1
1001
ACAD
1000
AcDbSavedByObjectVersion
1070
     0
  0
VISUALSTYLE
  5
31
102
{ACAD_REACTORS
330
29
102
}
330
29
100
AcDbVisualStyle
  2

 70
     6
177
     3
291
     0
 70
    58
 90
        1
176
     1
 90
        2
176
     1
 90
        2
176
     1
 90
        0
176
     1
 40
0.6
176
     1
 40
30.0
176
     1
 62
     7
420
 16777215
176
     1
 90
        2
176
     1
 90
        2
176
     1
 62
     7
176
     1
 62
   257
176
     1
 90
        2
176
     1
 90
        1
176
     1
 40
40.0
176
     1
 90
        0
176
     1
 62
   257
176
     1
 40
1.0
176
     1
 90
        1
176
     1
 90
        6
176
     1
 90
        2
176
     1
 62
     7
176
     1
 90
        3
176
     1
 90
        0
176
     1
 90
        0
176
     1
290
     0
176
     1
 90
        1
176
     1
 40
0.0
176
     1
 90
        0
176
     1
290
     0
176
     1
290
     1
176
     1
290
     1
176
     1
290
     0
176
     1
290
     0
176
     1
290
     0
176
     1
290
     0
176
     1
290
     0
176
     1
290
     0
176
     1
 90
       50
176
     1
 40
0.0
176
     1
 40
1.0
176
     1
 90
        0
176
     1
 62
    18
176
     1
 90
       50
176
     1
 90
        3
176
     1
 62
     5
420
      255
176
     1
290
     0
176
     1
 90
       50
176
     1
 90
       50
176
     1
 90
       50
176
     1
290
     0
176
     1
 90
       50
176
     1
 62
   256
176
     0
 40
1.0
176
     0
 90
        2
176
     1
  1
strokes_ogs.tif
176
     1
290
     0
176
     1
 40
1.0
176
     1
 40
1.0
176
     1
1001
ACAD
1000
AcDbSavedByObjectVersion
1070
     0
  0
VISUALSTYLE
  5
3F
102
{ACAD_REACTORS
330
29
102
}
330
29
100
AcDbVisualStyle
  2

 70
    20
177
     3
291
     1
 70
    58
 90
        2
176
     0
 90
        2
176
     0
 90
        0
176
     0
 90
        0
176
     0
 40
0.6
176
     0
 40
30.0
176
     0
 62
     7
420
 16777215
176
     0
 90
        1
176
     0
 90
        4
176
     0
 62
     7
176
     0
 62
   257
176
     0
 90
        1
176
     0
 90
        1
176
     0
 40
1.0
176
     0
 90
       10
176
     2
 62
     7
176
     0
 40
1.0
176
     0
 90
        1
176
     0
 90
        6
176
     0
 90
        2
176
     0
 62
     7
176
     0
 90
        5
176
     0
 90
        0
176
     0
 90
        0
176
     0
290
     0
176
     0
 90
        1
176
     0
 40
0.0
176
     0
 90
        0
176
     0
290
     0
176
     1
290
     1
176
     1
290
     1
176
     1
290
     0
176
     1
290
     0
176
     1
290
     0
176
     1
290
     0
176
     1
290
     0
176
     1
290
     0
176
     1
 90
       50
176
     0
 40
0.0
176
     0
 40
1.0
176
     0
 90
        0
176
     0
 62
    18
176
     0
 90
       50
176
     0
 90
        3
176
     0
 62
     5
420
      255
176
     0
290
     0
176
     1
 90
       50
176
     0
 90
       50
176
     0
 90
       50
176
     0
290
     0
176
     1
 90
       50
176
     0
 62
   256
176
     0
 40
1.0
176
     0
 90
        2
176
     0
  1
strokes_ogs.tif
176
     0
290
     0
176
     1
 40
1.0
176
     0
 40
1.0
176
     0
1001
ACAD
1000
AcDbSavedByObjectVersion
1070
     0
  0
VISUALSTYLE
  5
37
102
{ACAD_REACTORS
330
29
102
}
330
29
100
AcDbVisualStyle
  2

 70
    14
177
     3
291
     1
 70
    58
 90
        2
176
     1
 90
        2
176
     1
 90
        0
176
     1
 90
        0
176
     1
 40
0.6
176
     1
 40
30.0
176
     1
 62
     7
420
 16777215
176
     1
 90
        1
176
     1
 90
        4
176
     1
 62
     7
176
     1
 62
   257
176
     1
 90
        7
176
     1
 90
        7
176
     1
 40
1.0
176
     1
 90
        8
176
     1
 62
     7
176
     1
 40
1.0
176
     1
 90
        1
176
     1
 90
        6
176
     1
 90
        2
176
     1
 62
     7
176
     1
 90
        5
176
     1
 90
        0
176
     1
 90
        0
176
     1
290
     0
176
     1
 90
        1
176
     1
 40
0.0
176
     1
 90
        0
176
     1
290
     0
176
     1
290
     1
176
     1
290
     1
176
     1
290
     0
176
     1
290
     0
176
     1
290
     0
176
     1
290
     0
176
     1
290
     0
176
     1
290
     0
176
     1
 90
       50
176
     1
 40
0.0
176
     1
 40
1.0
176
     1
 90
        0
176
     1
 62
    18
176
     1
 90
       50
176
     1
 90
        3
176
     1
 62
     5
420
      255
176
     1
290
     0
176
     1
 90
       50
176
     1
 90
       50
176
     1
 90
       50
176
     1
290
     0
176
     1
 90
       50
176
     1
 62
   256
176
     0
 40
1.0
176
     0
 90
        2
176
     1
  1
strokes_ogs.tif
176
     1
290
     0
176
     1
 40
1.0
176
     1
 40
1.0
176
     1
1001
ACAD
1000
AcDbSavedByObjectVersion
1070
     0
  0
VISUALSTYLE
  5
40
102
{ACAD_REACTORS
330
29
102
}
330
29
100
AcDbVisualStyle
  2

 70
    21
177
     3
291
     1
 70
    58
 90
        2
176
     0
 90
        2
176
     0
 90
        0
176
     0
 90
        0
176
     0
 40
0.6
176
     0
 40
30.0
176
     0
 62
     7
420
 16777215
176
     0
 90
        1
176
     0
 90
        4
176
     0
 62
     7
176
     0
 62
   257
176
     0
 90
        1
176
     0
 90
        1
176
     0
 40
1.0
176
     0
 90
        9
176
     2
 62
     7
176
     0
 40
1.0
176
     0
 90
        1
176
     0
 90
        6
176
     0
 90
        2
176
     0
 62
     7
176
     0
 90
        5
176
     0
 90
        0
176
     0
 90
        0
176
     0
290
     0
176
     0
 90
        1
176
     0
 40
0.0
176
     0
 90
        0
176
     0
290
     0
176
     1
290
     1
176
     1
290
     1
176
     1
290
     0
176
     1
290
     0
176
     1
290
     0
176
     1
290
     0
176
     1
290
     0
176
     1
290
     0
176
     1
 90
       50
176
     0
 40
0.0
176
     0
 40
1.0
176
     0
 90
        0
176
     0
 62
    18
176
     0
 90
       50
176
     0
 90
        3
176
     0
 62
     5
420
      255
176
     0
290
     0
176
     1
 90
       50
176
     0
 90
       50
176
     0
 90
       50
176
     0
290
     0
176
     1
 90
       50
176
     0
 62
   256
176
     0
 40
1.0
176
     0
 90
        2
176
     0
  1
strokes_ogs.tif
176
     0
290
     0
176
     1
 40
1.0
176
     0
 40
1.0
176
     0
1001
ACAD
1000
AcDbSavedByObjectVersion
1070
     0
  0
VISUALSTYLE
  5
33
102
{ACAD_REACTORS
330
29
102
}
330
29
100
AcDbVisualStyle
  2

 70
     8
177
     3
291
     0
 70
    58
 90
        2
176
     1
 90
        3
176
     1
 90
        0
176
     1
 90
        2
176
     1
 40
0.6
176
     1
 40
30.0
176
     1
 62
     7
420
 16777215
176
     1
 90
        0
176
     1
 90
        0
176
     1
 62
     7
176
     1
 62
   257
176
     1
 90
        1
176
     1
 90
        1
176
     1
 40
1.0
176
     1
 90
        8
176
     1
 62
   257
176
     1
 40
1.0
176
     1
 90
        1
176
     1
 90
        6
176
     1
 90
        2
176
     1
 62
     7
176
     1
 90
        3
176
     1
 90
        0
176
     1
 90
        0
176
     1
290
     0
176
     1
 90
       13
176
     1
 40
0.0
176
     1
 90
        0
176
     1
290
     0
176
     1
290
     1
176
     1
290
     1
176
     1
290
     0
176
     1
290
     0
176
     1
290
     0
176
     1
290
     0
176
     1
290
     0
176
     1
290
     0
176
     1
 90
       50
176
     1
 40
0.0
176
     1
 40
1.0
176
     1
 90
        0
176
     1
 62
    18
176
     1
 90
       50
176
     1
 90
        3
176
     1
 62
     5
420
      255
176
     1
290
     0
176
     1
 90
       50
176
     1
 90
       50
176
     1
 90
       50
176
     1
290
     0
176
     1
 90
       50
176
     1
 62
   256
176
     0
 40
1.0
176
     0
 90
        2
176
     1
  1
strokes_ogs.tif
176
     1
290
     0
176
     1
 40
1.0
176
     1
 40
1.0
176
     1
1001
ACAD
1000
AcDbSavedByObjectVersion
1070
     0
  0
VISUALSTYLE
  5
3E
102
{ACAD_REACTORS
330
29
102
}
330
29
100
AcDbVisualStyle
  2

 70
    27
177
     3
291
     0
 70
    58
 90
        2
176
     1
 90
        2
176
     1
 90
        1
176
     1
 90
        2
176
     1
 40
0.6
176
     1
 40
30.0
176
     1
 62
     7
420
 16777215
176
     1
 90
        0
176
     1
 90
        4
176
     1
 62
     7
176
     1
 62
   257
176
     1
 90
        1
176
     1
 90
        1
176
     1
 40
1.0
176
     1
 90
        8
176
     1
 62
   257
176
     1
 40
1.0
176
     1
 90
        1
176
     1
 90
        6
176
     1
 90
        2
176
     1
 62
     8
420
  7895160
176
     1
 90
        3
176
     1
 90
        0
176
     1
 90
        0
176
     1
290
     0
176
     1
 90
        5
176
     1
 40
0.0
176
     1
 90
        0
176
     1
290
     0
176
     1
290
     1
176
     1
290
     1
176
     1
290
     0
176
     1
290
     0
176
     1
290
     0
176
     1
290
     0
176
     1
290
     0
176
     1
290
     0
176
     1
 90
       50
176
     1
 40
0.0
176
     1
 40
1.0
176
     1
 90
        0
176
     1
 62
    18
176
     1
 90
       50
176
     1
 90
        3
176
     1
 62
     5
420
      255
176
     1
290
     0
176
     1
 90
       50
176
     1
 90
       50
176
     1
 90
       50
176
     1
290
     0
176
     1
 90
       50
176
     1
 62
   256
176
     0
 40
1.0
176
     0
 90
        2
176
     1
  1
strokes_ogs.tif
176
     1
290
     0
176
     1
 40
1.0
176
     1
 40
1.0
176
     1
1001
ACAD
1000
AcDbSavedByObjectVersion
1070
     0
  0
VISUALSTYLE
  5
3D
102
{ACAD_REACTORS
330
29
102
}
330
29
100
AcDbVisualStyle
  2

 70
    26
177
     3
291
     0
 70
    58
 90
        2
176
     1
 90
        2
176
     1
 90
        1
176
     1
 90
        2
176
     1
 40
0.6
176
     1
 40
30.0
176
     1
 62
     7
420
 16777215
176
     1
 90
        1
176
     1
 90
        2
176
     1
 62
     7
176
     1
 62
   257
176
     1
 90
        2
176
     1
 90
        1
176
     1
 40
1.0
176
     1
 90
        8
176
     1
 62
   257
176
     1
 40
1.0
176
     1
 90
        1
176
     1
 90
        6
176
     1
 90
        2
176
     1
 62
     7
176
     1
 90
        3
176
     1
 90
        0
176
     1
 90
        0
176
     1
290
     0
176
     1
 90
        5
176
     1
 40
0.0
176
     1
 90
        0
176
     1
290
     0
176
     1
290
     1
176
     1
290
     1
176
     1
290
     0
176
     1
290
     0
176
     1
290
     0
176
     1
290
     0
176
     1
290
     0
176
     1
290
     0
176
     1
 90
       50
176
     1
 40
0.0
176
     1
 40
1.0
176
     1
 90
        0
176
     1
 62
    18
176
     1
 90
       50
176
     1
 90
        3
176
     1
 62
     5
420
      255
176
     1
290
     0
176
     1
 90
       50
176
     1
 90
       50
176
     1
 90
       50
176
     1
290
     0
176
     1
 90
       50
176
     1
 62
   256
176
     0
 40
1.0
176
     0
 90
        2
176
     1
  1
strokes_ogs.tif
176
     1
290
     0
176
     1
 40
1.0
176
     1
 40
1.0
176
     1
1001
ACAD
1000
AcDbSavedByObjectVersion
1070
     0
  0
VISUALSTYLE
  5
3A
102
{ACAD_REACTORS
330
29
102
}
330
29
100
AcDbVisualStyle
  2

 70
    23
177
     3
291
     0
 70
    58
 90
        2
176
     1
 90
        2
176
     1
 90
        3
176
     1
 90
        0
176
     1
 40
0.6
176
     1
 40
30.0
176
     1
 62
     7
420
 16777215
176
     1
 90
        2
176
     1
 90
        2
176
     1
 62
     7
176
     1
 62
     7
176
     1
 90
        1
176
     1
 90
        1
176
     1
 40
40.0
176
     1
 90
        8
176
     1
 62
     7
176
     1
 40
1.0
176
     1
 90
        1
176
     1
 90
        6
176
     1
 90
        2
176
     1
 62
     7
176
     1
 90
        3
176
     1
 90
        0
176
     1
 90
        0
176
     1
290
     0
176
     1
 90
        1
176
     1
 40
0.0
176
     1
 90
        0
176
     1
290
     0
176
     1
290
     1
176
     1
290
     1
176
     1
290
     0
176
     1
290
     0
176
     1
290
     0
176
     1
290
     0
176
     1
290
     0
176
     1
290
     0
176
     1
 90
       50
176
     1
 40
0.0
176
     1
 40
1.0
176
     1
 90
        0
176
     1
 62
    18
176
     1
 90
       50
176
     1
 90
        3
176
     1
 62
     5
420
      255
176
     1
290
     0
176
     1
 90
       50
176
     1
 90
       50
176
     1
 90
       50
176
     1
290
     0
176
     1
 90
       50
176
     1
 62
   256
176
     0
 40
1.0
176
     0
 90
        2
176
     1
  1
strokes_ogs.tif
176
     1
290
     0
176
     1
 40
1.0
176
     1
 40
1.0
176
     1
1001
ACAD
1000
AcDbSavedByObjectVersion
1070
     0
  0
VISUALSTYLE
  5
3B
102
{ACAD_REACTORS
330
29
102
}
330
29
100
AcDbVisualStyle
  2

 70
    24
177
     3
291
     0
 70
    58
 90
        1
176
     1
 90
        2
176
     1
 90
        2
176
     1
 90
        0
176
     1
 40
0.6
176
     1
 40
30.0
176
     1
 62
     7
420
 16777215
176
     1
 90
        2
176
     1
 90
        2
176
     1
 62
     7
176
     1
 62
     7
176
     1
 90
        1
176
     1
 90
        1
176
     1
 40
40.0
176
     1
 90
       11
176
     1
 62
     7
176
     1
 40
1.0
176
     1
 90
        1
176
     1
 90
        6
176
     1
 90
        2
176
     1
 62
     7
176
     1
 90
        6
176
     1
 90
        0
176
     1
 90
        0
176
     1
290
     0
176
     1
 90
        1
176
     1
 40
0.0
176
     1
 90
        0
176
     1
290
     0
176
     1
290
     1
176
     1
290
     1
176
     1
290
     0
176
     1
290
     0
176
     1
290
     0
176
     1
290
     0
176
     1
290
     0
176
     1
290
     0
176
     1
 90
       50
176
     1
 40
0.0
176
     1
 40
1.0
176
     1
 90
        0
176
     1
 62
    18
176
     1
 90
       50
176
     1
 90
        3
176
     1
 62
     5
420
      255
176
     1
290
     0
176
     1
 90
       50
176
     1
 90
       50
176
     1
 90
       50
176
     1
290
     0
176
     1
 90
       50
176
     1
 62
   256
176
     0
 40
1.0
176
     0
 90
        2
176
     1
  1
strokes_ogs.tif
176
     1
290
     0
176
     1
 40
1.0
176
     1
 40
1.0
176
     1
1001
ACAD
1000
AcDbSavedByObjectVersion
1070
     0
  0
VISUALSTYLE
  5
36
102
{ACAD_REACTORS
330
29
102
}
330
29
100
AcDbVisualStyle
  2

 70
    13
177
     3
291
     1
 70
    58
 90
        2
176
     1
 90
        2
176
     1
 90
        0
176
     1
 90
        0
176
     1
 40
0.6
176
     1
 40
30.0
176
     1
 62
     7
420
 16777215
176
     1
 90
        1
176
     1
 90
        4
176
     1
 62
     7
176
     1
 62
   257
176
     1
 90
        1
176
     1
 90
        1
176
     1
 40
1.0
176
     1
 90
       12
176
     1
 62
     7
176
     1
 40
1.0
176
     1
 90
        1
176
     1
 90
        6
176
     1
 90
        2
176
     1
 62
     7
176
     1
 90
        5
176
     1
 90
        0
176
     1
 90
        0
176
     1
290
     0
176
     1
 90
        1
176
     1
 40
0.0
176
     1
 90
        0
176
     1
290
     0
176
     1
290
     1
176
     1
290
     1
176
     1
290
     0
176
     1
290
     0
176
     1
290
     0
176
     1
290
     0
176
     1
290
     0
176
     1
290
     0
176
     1
 90
       50
176
     1
 40
0.0
176
     1
 40
1.0
176
     1
 90
        0
176
     1
 62
    18
176
     1
 90
       50
176
     1
 90
        3
176
     1
 62
     5
420
      255
176
     1
290
     0
176
     1
 90
       50
176
     1
 90
       50
176
     1
 90
       50
176
     1
290
     0
176
     1
 90
       50
176
     1
 62
   256
176
     0
 40
1.0
176
     0
 90
        2
176
     1
  1
strokes_ogs.tif
176
     1
290
     0
176
     1
 40
1.0
176
     1
 40
1.0
176
     1
1001
ACAD
1000
AcDbSavedByObjectVersion
1070
     0
  0
VISUALSTYLE
  5
30
102
{ACAD_REACTORS
330
29
102
}
330
29
100
AcDbVisualStyle
  2

 70
     5
177
     3
291
     0
 70
    58
 90
        0
176
     1
 90
        2
176
     1
 90
        0
176
     1
 90
        0
176
     1
 40
0.6
176
     1
 40
30.0
176
     1
 62
     7
420
 16777215
176
     1
 90
        1
176
     1
 90
        4
176
     1
 62
     7
176
     1
 62
   257
176
     1
 90
        1
176
     1
 90
        1
176
     1
 40
1.0
176
     1
 90
        0
176
     1
 62
   257
176
     1
 40
1.0
176
     1
 90
        1
176
     1
 90
        6
176
     1
 90
        2
176
     1
 62
     7
176
     1
 90
        3
176
     1
 90
        0
176
     1
 90
        0
176
     1
290
     0
176
     1
 90
        1
176
     1
 40
0.0
176
     1
 90
        0
176
     1
290
     0
176
     1
290
     1
176
     1
290
     1
176
     1
290
     0
176
     1
290
     0
176
     1
290
     0
176
     1
290
     0
176
     1
290
     0
176
     1
290
     0
176
     1
 90
       50
176
     1
 40
0.0
176
     1
 40
1.0
176
     1
 90
        0
176
     1
 62
    18
176
     1
 90
       50
176
     1
 90
        3
176
     1
 62
     5
420
      255
176
     1
290
     0
176
     1
 90
       50
176
     1
 90
       50
176
     1
 90
       50
176
     1
290
     0
176
     1
 90
       50
176
     1
 62
   256
176
     0
 40
1.0
176
     0
 90
        2
176
     1
  1
strokes_ogs.tif
176
     1
290
     0
176
     1
 40
1.0
176
     1
 40
1.0
176
     1
1001
ACAD
1000
AcDbSavedByObjectVersion
1070
     0
  0
VISUALSTYLE
  5
3C
102
{ACAD_REACTORS
330
29
102
}
330
29
100
AcDbVisualStyle
  2

 70
    25
177
     3
291
     0
 70
    58
 90
        2
176
     1
 90
        2
176
     1
 90
        1
176
     1
 90
        1
176
     1
 40
0.5
176
     1
 40
30.0
176
     1
 62
     7
420
 16777215
176
     1
 90
        1
176
     1
 90
        0
176
     1
 62
     7
176
     1
 62
   257
176
     1
 90
        1
176
     1
 90
        1
176
     1
 40
1.0
176
     1
 90
        8
176
     1
 62
     7
176
     1
 40
1.0
176
     1
 90
        1
176
     1
 90
        6
176
     1
 90
        2
176
     1
 62
     7
176
     1
 90
        3
176
     1
 90
        0
176
     1
 90
        0
176
     1
290
     0
176
     1
 90
       13
176
     1
 40
0.0
176
     1
 90
        0
176
     1
290
     0
176
     1
290
     1
176
     1
290
     1
176
     1
290
     0
176
     1
290
     0
176
     1
290
     0
176
     1
290
     0
176
     1
290
     0
176
     1
290
     0
176
     1
 90
       50
176
     1
 40
0.0
176
     1
 40
1.0
176
     1
 90
        0
176
     1
 62
    18
176
     1
 90
       50
176
     1
 90
        3
176
     1
 62
     5
420
      255
176
     1
290
     0
176
     1
 90
       50
176
     1
 90
       50
176
     1
 90
       50
176
     1
290
     0
176
     1
 90
       50
176
     1
 62
   256
176
     0
 40
1.0
176
     0
 90
        2
176
     1
  1
strokes_ogs.tif
176
     1
290
     0
176
     1
 40
1.0
176
     1
 40
1.0
176
     1
1001
ACAD
1000
AcDbSavedByObjectVersion
1070
     0
  0
DICTIONARYVAR
  5
523
102
{ACAD_REACTORS
330
51D
102
}
330
51D
100
DictionaryVariables
280
     0
  1
1:1
  0
DICTIONARYVAR
  5
51F
102
{ACAD_REACTORS
330
51D
102
}
330
51D
100
DictionaryVariables
280
     0
  1
STANDARD
  0
DICTIONARYVAR
  5
51E
102
{ACAD_REACTORS
330
51D
102
}
330
51D
100
DictionaryVariables
280
     0
  1
STANDARD
  0
DICTIONARYVAR
  5
520
102
{ACAD_REACTORS
330
51D
102
}
330
51D
100
DictionaryVariables
280
     0
  1
Imperial24
  0
DICTIONARYVAR
  5
521
102
{ACAD_REACTORS
330
51D
102
}
330
51D
100
DictionaryVariables
280
     0
  1
Imperial24
  0
DICTIONARYVAR
  5
525
102
{ACAD_REACTORS
330
51D
102
}
330
51D
100
DictionaryVariables
280
     0
  1
1
  0
DICTIONARYVAR
  5
526
102
{ACAD_REACTORS
330
51D
102
}
330
51D
100
DictionaryVariables
280
     0
  1
15
  0
DICTIONARYVAR
  5
524
102
{ACAD_REACTORS
330
51D
102
}
330
51D
100
DictionaryVariables
280
     0
  1
0
  0
DICTIONARYVAR
  5
522
102
{ACAD_REACTORS
330
51D
102
}
330
51D
100
DictionaryVariables
280
     0
  1
0
  0
DICTIONARY
  5
1137
102
{ACAD_REACTORS
330
1135
102
}
330
1135
100
AcDbDictionary
281
     1
  0
DICTIONARY
  5
1136
102
{ACAD_REACTORS
330
1135
102
}
330
1135
100
AcDbDictionary
281
     1
  3
1383723966720
350
1130
  3
1383723966736
350
1131
  3
1383723966752
350
1132
  3
1383723966768
350
1133
  3
1383723966784
350
1134
  0
DICTIONARY
  5
113A
330
6A
100
AcDbDictionary
280
     1
281
     1
  3
ACAD_XREC_ROUNDTRIP
360
113B
  0
DICTIONARY
  5
22
330
21
100
AcDbDictionary
280
     1
281
     1
  3
FBXASSET
360
4FC
  0
DICTIONARY
  5
1138
330
68
100
AcDbDictionary
280
     1
281
     1
  3
ACAD_XREC_ROUNDTRIP
360
1139
  0
DICTIONARY
  5
563
330
64
100
AcDbDictionary
280
     1
281
     1
  3
ACAD_ROUNDTRIP_2008_TABLESTYLE_CELLSTYLEMAP
360
112E
  0
XRECORD
  5
1130
102
{ACAD_REACTORS
330
1136
102
}
330
1136
100
AcDbXrecord
280
     1
  1
AcDb_Thumbnail_Schema
102
{ATTRRECORD
341
1131
  2
AcDbDs::TreatedAsObjectData
280
     1
291
     1
102
ATTRRECORD}
102
{ATTRRECORD
341
1132
  2
AcDbDs::Legacy
280
     1
291
     1
102
ATTRRECORD}
  2
AcDbDs::ID
280
    10
 91
        8
102
{ATTRRECORD
341
1133
  2
AcDs:Indexable
280
     1
291
     1
102
ATTRRECORD}
102
{ATTRRECORD
341
1134
  2
AcDbDs::HandleAttribute
280
     7
282
     1
102
ATTRRECORD}
  2
Thumbnail_Data
280
    15
 91
        0
  0
XRECORD
  5
1131
102
{ACAD_REACTORS
330
1136
102
}
330
1136
100
AcDbXrecord
280
     1
  1
AcDbDs::TreatedAsObjectDataSchema
  2
AcDbDs::TreatedAsObjectData
280
     1
 91
        0
  0
XRECORD
  5
1132
102
{ACAD_REACTORS
330
1136
102
}
330
1136
100
AcDbXrecord
280
     1
  1
AcDbDs::LegacySchema
  2
AcDbDs::Legacy
280
     1
 91
        0
  0
XRECORD
  5
1133
102
{ACAD_REACTORS
330
1136
102
}
330
1136
100
AcDbXrecord
280
     1
  1
AcDbDs::IndexedPropertySchema
  2
AcDs:Indexable
280
     1
 91
        0
  0
XRECORD
  5
1134
102
{ACAD_REACTORS
330
1136
102
}
330
1136
100
AcDbXrecord
280
     1
  1
AcDbDs::HandleAttributeSchema
  2
AcDbDs::HandleAttribute
280
     7
 91
        1
284
     1
  0
XRECORD
  5
113B
102
{ACAD_REACTORS
330
113A
102
}
330
113A
100
AcDbXrecord
280
     1
102
DISPLAYNAME
  1
Imperial24
102
FLAGS
 90
        0
  0
XRECORD
  5
4FC
102
{ACAD_REACTORS
330
22
102
}
330
22
100
AcDbXrecord
280
     1
 70
     1
 90
652598616
 71
     1
  1
6BDB1C57-DC9C-45FD-BE46-B4B37BD17A1A
311
504B030414000608080030515757AC05BD1302010000A80100004F00000030453432334336432D373834332D343333412D423237322D3432384541303644373236302F4173736574446174612F446566696E6974696F6E4974657261746F7250726F706572746965732E62696E8D50BD4EC33010360C200606241E8081D538
311
FEA9ED20A12A8E1D26167800E406D34672D3AA4EC4DA91C7E50DE0AC8605A912277D77A7EFFE3EDD2742E87B3248D109600FFE12E263E8C3AE6B5FDA55587B749699B859F8780B196F9C3492525C6AD660419DC49A5983953675A31D67A5AE4EA1EF1C60C3BB1FE390573E75A90D31FA3E6CC67405C474E366ED07B8E5E35D
311
1EBA4028873D00FD1652DEB43C28CA223F00FE6D7B3FF72985E181144E305ECB1A14088E05E715364C312C98765521AD62B220CF216DC65D1B1291C61A5ACF14B6755963316B2C364E486C84E1CA58AA2A5A916135E6D75C67198BDE7791146492F0BAED97401FB1AFF991C21FFAFF7D3F504B030414000608080030515757
311
C3FD5E5913010000300200004500000030453432334336432D373834332D343333412D423237322D3432384541303644373236302F4173736574446174612F496E7374616E636550726F706572746965732E62696EEB606060F80F0540260323103700495E20ED9E9A975A94991C9C9C919A9BA802143073727132743635D7
311
7571B674D635317573D175723531D3753271323677723134773474644768046931363471713532B5D435353131D635313332D475727372D13534373670367376B67474B5042A03DBCBA019D37FE8ABC6157B20CD04146B0062181F4C03F940F0C11EA29A8141C08141002C0426541C106CAC2CA046088033B02A030AC2157C
311
6006F21A8018AAF50194E6010A610250382264E08660284CD9E98021862280A91564B406929A0FF62C401E28B6F88038B83CB1243943D7A928312F253505240303FC50064825485C00884161CB20F5FBEB76A02007880D02F9C989399E299140564131580042A0EB0700504B03041400060808003051575788E57597CD3F00
311
00904100006B00000030453432334336432D373834332D343333412D423237322D3432384541303644373236302F5265736F75726365732F36424442314335372D444339432D343546442D424534362D4234423337424431374131412F7468756D626E61696C2F302F67656E657269635F706E67355B773CD4FF1FBF73E71C
311
0E67EF7576C9DEF3EC995D46C6A1EC5046649CBDF79E192942562825CE965D8A868C2842C8DE9FDFD1F7E7F138F7078FCF6B3F5FCFD7EBFDFEC41B196891913091804020321D6D7513FC77D8C5070EC3FFEE51B21F068154CC75D455CC028A3EA68992803810109FDDE5D5CEC5521B28A1B422BF80741695D5B529DA1C2D05
311
8AD2388BDA9F476F7C2CADC939304173DBF48A452BF8A700C0C70C3D121C1AA15A5270C22E2B9E28763651F7DA0D12CE11077B2ECD0D560B5E3DE2368B1E65C5E1C87384A4CC5F2D9FB8BE39E9B77C753783A37998F5CEF1B4FEE553463245C9712270880DF339E0B882A6BA713D865F6F384C842D440934EF264F4A304F8D
311
E4EEFA1E2BF5E2D91F5ADD9613D6E31DDB33ED31DB1D7916CAF091286EA3D31B9CFECB78BB0060245B943C4C040119FF780A74DD308BA9D028678674EB5504ECF284EE814DAED07440BAF649BE4B55DA2890F4D73E2D489A59EE54FDB0A85B59F2F52C4858A02705C4815A792B0C4A996A2023ECB195073E115E3E3647F642
311
43A8338F2000BCB58DA5692C7E7C3D413F963FEDF3CF00FBB0F831A9D51360FECA43819F527B89FA260EB63C5DA676830AA3626A3693B23F1A17A0DFFCE3EE164E31B5365EDF0C89EF64D8E38AB0BA9A1117D7C3A0EC44F44F4023095E80BA610DE336D0F99593A88BFC5306E72DF98F7FD132ED95878DF2964EA7E4307135
311
9FD83B2BDF9C6B5BDF768F0F3C0FC351199526F53D9460A34511F75D1B63E488178569472C91A94497807A3FD4A390C6558F26D416365C3656DE6E769DA9D8FC73774E1709812842DD8EF96AED1960F79D21B395CDDFE6F92CB4EB962A4668C76990E2EF29798C8941D67DA50F4A5F947872460F1F6FDB794E8A29FD7AC0C0
311
D6E0714339CE258FB17AE8535221E3464A10F29A0BE5EEECEFC5675926A89F49EB14E5711894F6586DB5754EB4D5DA9C6437EBA57DB97A24F8B8A8DB295FFD73266CF57E82694DF5166DDF93573AFE9C9C5EB05F8FEF8E89E0A8917B0B3724DB7BEBB53252581EFC3E38166BA131A3A5B42FE2AD00A769BBFA4458D2DE7822
311
F8C4F63D0B8E21B285AE13325F3410A435C648C9D91FDEB109E73CEDA7BC796961AF79175E1A3CE4C5E8B0D009B0C9E29EFD98BC8E97554E3D8D838424E270F7685226E5AC268E021EDE3522D583E8F20C0BDE2959EF5BBFEEDAB32FE9A3ED0E39F211A86AA9DEBFC68182EDED132AB8BB794442D2D7EA9F4D8BFF52BC4D55
311
BB165124EE90A42D101E67BBBB292FFB4F66DE5BF2300E44546757DA7CEF8932BFC9F92A0707953491A55C5A5ACEDABD9FA1AEA01BAC3DC5A24E22E7C47213493996EFBC369D086ED9397C9BA6C7F9855C7BD5E15BFC8C53DB3D2A4C5901A57ACD2FBDF4D1676E95338B2C2BCE65FDA4C64F5FEFDC7D9CA5AA1FCF11E193F2
311
FDABF0F4916BF13FB916A224380E6462A9815F2300DC49CC4DF8D055CEF76462F4B7A7ACA7365C2707891370BC1D0AA6203C44CCAB47084FEC057F27FFCD57F89B8B9852459798A675C66BD7CE572CAF71FF7E6D7ECF7BF62CAB7B3F1107DCD04DC55A3F9961700286141C94A4F771FEB2BCDA2DDEE0CB0BAE402FF1DB0100
311
F8E475DFFFC074DDB4498AB7D186A7654DDB1CB680D703D47CEB4E72F8CB13D86A4AA68116E26387B93FD6738779B34FEDB8E517EDF2BAF28D9BE93A1D3A164320E07D42E514725C29515FF361754213EDE06B079A2E99EB1CA82A02019EADEEB87B9AF005BD04BBCECB14AACD6B24EFBE482194A97DD32400685FF1FEF154
311
4D1B14EFB1E7F08E6D2CD2AF52DE757F35F5E62332EE88EA26417AD5C3E0E319D68F25414E6D672BD4522B278C57D18F0113921C71D96527E091F00CEB15AE23D24667369BD3CEFA10C7549D930890BA4366F4EBC55F01F746109F98ABCDD5A3EE06619C6AD78AB33E48E4C9BD21BF7478B385EC05C4F8987E2C1BFA0A60EB
311
EDAA0AE0B015C2720ECE180FB6F2DEFBEB822D96338C9B63822183BBF52FB664A7AE57003AABCE512BF77E7E31BDA2E739AC4C131657DDFE5225E900FB56CC01CDE808FA4A9C9DA16AC679656BB64796283D89812B8F91136AE18EE5EBBAF47A73BE3C153EB5D4CD491B4BFB4FE690A4CF9ABA08C0D8AA64220C438C96EA6C
311
A80B58FE5761E697B3A292EB9FBDA502FA863E49FE694ADDFFF9D62C520BDD1A22014147A0903A05B9B729F54272EF83931FEEC057BFF8C8055C279EAC5C0011804828734024F6CFA319C9CC6867C727184465CD9BB7ED386AFFD96B294A85E3802FAE47244602D8273615952B98C4F23F7EAE4463D9D638EEE374A20959E0
311
FE519C4CFB0FBFE5DD80C2AA3F9DB961D1BDE57E67C9BB47B77FDD74EE3094F5DBBE3EBC1FBDB7393F5116263009E2EFE1AF9A221B2AE234C902BF70E9F280ED23E73908361565964333A3F01D0B006AF32FB21AA1316744B489D5A198E85299241735BE559675130955C902A8ED761FC0DBE337A9F91919AF5CE32AF902AD
311
F9AB2615E00E8A94586BA1A90839B61832FF1BFB76D2EFADE6DB1BA04CCAD3DA649E7E2A0219F592E22F2AD54847EEA8E42271011E9074F8F3DD9FBA6CDF88FFC9FC7E811AD1CA8F4557CE4AFC7BBEDCF0114A48689F20A584520C74DA8127124B767E2FB91A6B186246727BE63C9445BAE02088D58B8EFDC0F1072407CD9B
311
89A13F6303B4A928F593AD489B58E6869325790ADC406036C591729FE14021F94B7796BB11848D463536A092A26F077F94639F7CEEE2A724C66EC885F4A24F8B8A0AC321F8FD149BA529460FAA34E4663C02D41FDF80BCA222D42F0ABFF8490F4FA74C673807C2051D8E467B47B616072860069A9A303ABA9B319D58404461
311
401B0A0F9BE5E1E151C14BC33B32ABE03DDE91708DFAEB15E7C0D593C86BB7D7EC17BE56E57975F077BFD5525F3A1A361D584A75E08CF29FC7B44B2B3085014F3A5A14517377C3F6B8F37E59514C3B12F8AACDEDDA4DFC49BE5710101534CD6FB6DE15B50F11A09472AABA727F0C49D9CB906B158030065F48EB3625E010CE
311
C1D511D0053474B11E6A4F01C0D6EF1BED3A944FDEC70E0DDCDC756C86545910E0DAE3BE3AA9A404574C2995CD5CAF9549226BC94B4F4F0F5F9086F418F6B32346464610D8BC7391D3C3A3CCF04CFC1FB2A3A3170E369511868F14EEA4E5E438CC73DB1F3248AA94B6B2FF33B222FF3D1E7BF146CAD229770158063BCE4F53
311
91964DF62F7E52A7BE0EEA829C9E13C4C147D6F93FE59E111DAB5E4594D6F3CD1AD375EE039930EFE5AF2BB2D41C83C7DABD8C659BAFBE8FAB392CA634F3D15C1D945DB4588D2B0824A4EC928AAC565557CA2F0DAA588CA5BE30B3A8004F7BF005E96CBF891D7F18112A3619FDF530DC8AA64954258E1811789B5189B49B4E
311
B53F5F89F7D37523894F3EB57B373763C91E502F52CC99EB7BDDF933FC324C4FFC2561DFFA7339FAFDD0A4BFBE6D3A8FF9ED1FC49898139864602458968913181918F719CCF5A68B2EE9C1FF050E34E63107003B8120FA982C21B30A874E4F5E4B38D5A8290C4B8D9BE48A0BE31EA995BDC37AC6DE90BA17D259DEF53605D5
311
5922FEB1855D915B659FBEB350EE0DFB2F9F766E1C84CC8964B75D08667445EAB966015F63A18A9E0A325C1B3DC628C0D3CB60F767FA93CC65F25458BD23C3B312716E5F40E5858AC06EBA9AB14F95DB99147B832069201541D09A0D856E12C629CF32683760EE855537D1901988D5EBC156676C7DD51D7207CF3267AF1D76
311
C2AD867315E44618015313A98B19941C696FED3461CAA9B5415F918556D7802EDACEFD6B2E45853A9735DFC9DBF7E440F9319F8B6805A973BCCDC76C069A9144E51F187EDCC12FC31B5DEAAF0A76137199B106EC84ADA6B6EE697D4E6A96E007417F4E880E8B1E89B4BCE9D81EF611E2ED8F0C1A6C25F620FAFAAB656A7C42
311
D464880E8AFAB0E0FC8EA38CA9A8AEEAEE3E4648BA4680270A89743CDD3E6C6CBF34B7B640EFA285ABC7EA0A1E28F3CC963D114A80123EE66D0AF7D5380EB41909B605AB4765B709B808590458157E69BA1378FEC4B48CAF6A730E3BE3C5EF2DD1A5EAF94B1DDE50CEB55DDFD7EE9A16747FA4B223359FB1FCC69E1194892B
311
ABB93A1D5C4E807AC0EA2E30180811E77A2291F6E7F7FAA5E0F60215BC6024E48DE436C511F0628B8CA189982D4D83CCA17D305A7E923C37941CFDFDCD93ACAF735EF5F0E61BBD3E6C41A59B242790D3A3BAC7064DCD89AA2E37214EC839820949D5CAA31E240D2948E48F690298974A96BA9A8432BC90F5071D6537C9666E
311
A4564796B7AFFFA548077BEEA75F63083435074BA182F3699557397F71548383FDA8CA34D99B981E72835ECDA5DDDC151315173D05A21F651AAF8524E88209E2E7A737ED1045800CE3390050BCFB8BE588DF111617874C62575039CA588EEFDEFEFE319B739DE2EDC147092A262611E159650E787917885EF08F1F51B8F2D8
311
A71D60B58B190FEF9541A1BE94BC19FEA50784DA1419FE4B0FB51B8D36B5FF8E1286FD8AF42B91E59A5F1CC4D60174E764045FD8C57B18209B217F89A62252BD20BE0E63E12B8E8F029FE19E0E8D0870F58721A557082250D5424F7909369376E41666C0EE77CD87CB283F661D5FB6D0DA023CB67320A20DC7BE661E9E1BFE
311
5463085C557DA1FF9BE835733766C3D139F2CF9E2208873AD0EB4814DE9E6BF2CAF81614D4D43906ED1C05A3265CABBFE192770FC2F64F940CB6B17B5F166F133C9AEEAD2641807C3E69515171DD74C4A85311513D6EC9530B3B601B6BA3EBFF3B5C3D2F7D69765141E345F75433953D013ADDF8F6AA7DC3F4A7563FE5C7D3
311
67937E2900D7EAD0F9FC9A4A1A9B5BDF1FEF08532660C01C5D6DE22199AA774383E306DAB87E301ABB7D213887F9869D4942D0D71E94B27EDF216A318BD488D45DF84529EF575AF3C3938C0AAA0215B01994153E2054A0B894DA5C784980633AAD48576957CF4AEAEAFADC7C587368551C73DBE1E57C58AC713303A8BFC258
311
BD04B51724459FF9E24C03A81E0E0679CEB9B348C0DC998FEB9C6D6EFA77D247CC8F92D3848599ED89A23218D0636465AD1CEEB7DC140D7426F83491C4E8E8281C2FB35240918FFECE880CA2A42D70E8B20B34DF5221C7DB0CF90ECCB9C745B37A47E9B716FF7A97B7A252C1F3814DC7B1E1A7F72B8751D524EF7CAE45B0C7
311
3B3BE7D08ED39781B380DDFC9AA4A4749C9493DB5BAD07A6EA6C092FBD0E85DB004DF06B8C9D3089C5320187E4CE1846158C7EA7DDAE8AD9AFFF21AA3A1026BB06A259845E8232DEE62811A4DA9CEAB3A4887320B76E2AE5615EAB7BDF738CBDD01F1E64064BC13D9EC53576751CA8CACD58B3CEB0E6CA585BD089B2A59B9F
311
C101403387AADBDBE70586B93D64BF3AD4453EF9C3B6A93817E8346991798601344F79A83C51F3D50F7BF2683A3605F51A72449489E0EE6169C749C60B1035651103AEE24D24E51A759C840DD3FC6504DA6FE107510E447B43461C79D22970B75DE5E1BD3007D1AFC619A4A4A69B5626AF5E9B8374E20677F77E2F8E73DF86
311
8E8BEC7EBA7B6A75EEF7205E1AB9486CB642741D6E03FF13FCCEDB1C4AC129886268B01CDF4B124AF797CF784F3C6DEC97A17D4B558070A0F1C04DA4FF9BDBF34159AEFE958479824B3F58EBD1E19088A2AFDE501B6F2052368A3FD0E650A179EFAB1561E1D27527077136E652676C3670F42DCB3352F48F6BC86D2C3B0051
311
727E41A0A4DC6CE2BE9D47F5CAA2935A3C0539AF080665997194ABECD723B08129CC5B6B21D2E7D54CD4D12610E7E9FB8306771A89576C7A982002775ED44F3F744CF21EEBB27A631671D921938AAEE3EB0D19CD1E083727F607823E817BF599DCED5394E37EEBC2E88782E638920CA641EF74D4CDFCDEF06F4278ECB18E31
311
E7E9876F2D783C8BF429C75395F57E98C2B495A3DA077EB3AC3C158608B6B57FE3EA48484D9A480096FCEE0DE880950E7E5A5714131C5C41AAA29FD19AE81AC145FA1B9E85C7169A5AB837B213493DF7E9AA4B5FBF9CDEB36EBD21EF1181B7CF7366AB2A951D01E37AF4EB835D1BE8C117CFBE7625D2EBCDB0B20C5A4B45CE
311
D0BCDE3EE8DA9DA78C2E21DEAAFFD1197E463C33CC6A80FB785669B856EFF7A8CCCA2841B5A5369173320B1170C368B2748D81062EA0296E5E2D95D7667A4A46D98A6FF475C76AAB0A8C8D45E226FAFC9FE0133EA9F60111F99CA81ACE03A1D14C89E8B0D69079C91464FA1D99E651D0EAF606F345C42A8A1AA9BA39103158
311
2B96D5B4176A77AADB01F12FD298A75DEEBB2C82F0B8650E880722F8DDD90C56A7A058E5FDEF1AC93545BA27367C76F5D8F9690CB6F8DAE141EDD7971F0FB548A2AE435F224D6E5954CA155512F7332029D5A1230854B79F258EC5FFDB09F5F6343A8EB193229B7F7E79B3E48F8E183860B38C8269D1B53738FF1E0BACF6AA
311
DA6D4869E9DE708E79B5DADCC09B1BC76F649731CFAF59A83FD8BAE4C749D66FA87A3810D4D62FFE826FA400C0F325D2BC0F3CA35F5847B82A2ACC7961745C823E4D863D54460AF792CE6F79B5C7A33B25C3AEA6CDE15A919B6367D781E9D44F61BF828672594A3E1D9EDD6DF179A81F27EAC05B936575D73E05C209DDD211
311
5CFB705DF9BBF3C911589B3640735E9E618FC9C36A7326C82B2205E244C55D56FDB9D5DC93CE958D4BF8174D2B3DA54CB3C09F2C2A6DFF73D23B2197355761AD421EC581284A7EF8DE2CE3497C0C804D49B41DFD6A7360844E5BEFFB495CFCDB97A4595911CDBA623274CE852B5E278AF0BEB1770E9D37CD977B2766A7DED0
311
E94B840E1E95E8C77DE5CB6354AF7871427C28ADBEEF7BA0A28E19DE9ACD75F379FE373EAE6DDDAE3834692F9C2B03B4FCA8FCA9ABE8EEEBEBB725B88A7C90941E850682CA04061A7DF0CE82ED49BFAFFD42C309818FAE14755CAAE78B0F73243ECCCAD7DF58FCB9CDFAE7A4D3E6671A613639130D056C8383C8F4FCF4808C
311
331E544DD26E4755D09EA05253B3049A1E32587CC25D72E073E2CD96D04A71BBCB0038FEC3F53D254199C3CDC67CD66640269431860225392B2CB3ECD0B4498AAE78BA1994246AE1EE78F2EDFB79F6C6CB6B5E279C4D373FBC21CB2698C9ACBBEB6A4BB6B39E16AB0E421CCBFC7654D81ED86022F9BB522146F9F4772E2D0E
311
4FA70120C95A85A417BF5078B232F4754363EB1750B2AC2148EB46B1EA72AD9B4D23ADCBC589D70106C3EC2ABEEED84DFE28E718C6C83502C28E9FDD3B09DA0A6F6F7B72B706A31C9E2A331EE70DA56A083D2177BFD63C55B11D8D949FAFCF90B23A1E24B9B5018B9A17E99F2890EC302F330FE7936E2C23F0D237EC8916F5
311
166AB84B62A21BB0B950146962D754F92CC2C8877BED8FC7B7B25726DD19545392570B3A2C66B58F027BEF412E552D12A588C4A3CC5C3193FCB3485EFFF700D0B9EEC077754A33DC1FB9E25AF814628F91DDFECB667D3F7690803F38D13F8AE39353523BB08FC6760144AFA2CE28236F65EDBB3D5F59A57D612B99E3D7E5F8
311
A851666BF9B5A6658EFC96EEB37A378ABB0EB3FDDF1303AF32C41BD1C8560745D7BD81066B0D6313359CF488563D3BA3F8E2185D1FAA3EBA1397C9D0E3DD232180A4DCADB6AF25DB3AC3CC26589C8239E66E81547BC7E2F328F9884764CA37EB5DBE390DFC03A5246B456A7C3684C4377D0EEF9A350680FA9A077E8B2957B4
311
89E09AB1AD41316944C2254B5984830F691C93CAA767EECF976FA5647538830B5E63236A6F0365C1E0F3E327F24FE35EDDBD7360B0F7374837409F7A6311BECC12B7026D4FA1AE204FA3F5FE904B1F420C7A9044AE58E403E7C4848E7DA25DC9EDAC79DD756FAA26B9EA83ACE8A214A2612A22AFA19DAE7DBAC5F8CDE1292A
311
485F98DAC731A29FE01A3966E96BCB9FB5A4C8830E1B9AF0C54B87FBE221A097036E5D28D1F869F810C06A9BB0AC0612F69AEBAF893C6E7AD59460208BAB3A6B09CA4F6BDDAB8CF0D1F84B72487498395A70DCD754796E271099A567A55CF242BBED64696378BB6CF25EF0FCDB589F3A82F1116D010A9AB9FA4358809EE0C9
311
73A2B4229BAA876A70B03AB49CBA7FBE71DB1832FFD32F9BF2C8E98075CACAFB36921235D0F552B6A67E94E094097A5D7DF681B40623DA535ADA7A9AD8E9A62407D7C9A5AE51D62A17A83A23728DE86BB56115804D3F2675F2C6B87541A0FC497BF0CA86420F558C9859EBE9FAD62747E323E3AADC03FDCDDFE7407B09DA90
311
B44E3185723C5381EAEF589765E2F7A099BA46695BAD60CEF3491B8A171F5F56444F7CE9455312C3498C74173AEA0214EC029833B34B650CBB5A5508D5091665309642791708ECF27CF11DB3D797D6CFE474453BD4BFADB768094B2147814D81C7CBAF8228DCAF5564B5891F5EF6A860EB2E323CB82AB868D8EA048880D63B
311
0DE5341F1B3D53297B928A11E15F25E5148990F710747C3509ED14909C552EBE3973246FCE55D00564D8310BC3EBC5085D08D806799B77D6C57FDF5E55837F9E934F09C03C729271B64F12D0A9F9E938107CAF7BF1EC8CF1BB9B42363D33070F4CACB425E605DDB0A34A12BB936DE286B9887A4E2E558F0886498BFF49C311
311
D96C277CF6A9FC0D75AD0ECC5226D7E0E3572012E56D7FDE4410CEC7A6D0F997F225A2055B8B92E3956E875AE4993CB3D4C9063AF98FD45E1BAB165640A43439A2C9181A7C355B297C0A0CCFFAE19B6FA3C2BA238A885FBC98B8F6DAF4B94B97304878DF4D8BFF6A4AEDF79E90ED4E68F00CD7299F4E0D83E35601AF0CBEF1
311
8C1E870E74758FA91F5131075004DB3CFCF09AE1DABC11957FD9808C92E8A678CE9DBE40DDA0E0D1D505AAFBCBA208232BFB6FB3704E8985E61ADE53DE74152F5C7DE74B1DEDCD37DC3E8FB30D7EBA8B9EFFC3606BF90B8D438279CB7709FC7C00D327F41817EEA71CD9E49FE9C8C9A81C70915D9F0F15958EC5AA4C3BBFAF
311
46986B90F188BDB24B89DE3C6F29EC3E6F66D84856EE96A35E657CA41B41EFD8DBFA16AD6E91439EA92B40B21C053249F51AE50EB0B24C770FFAF40DF12C8436366819C48E36547D4E7B72FE2BBF10828583057814A668BDF183F6B2E58DFB151103E56303E63D00F39C27C4661605DB644D19175D02E3F0241E8FC3458D17
311
AAAADB117CE9EEA690D0DB01E634878C04C2C9310B69FCAB831151E3AD293BEF6E46B0ABCECB50F5939B39C613D41E81FAE8D34CAE3C4566B761D37185FE864AC32FCB71AEF39DAA5BAB88609BB980CD2F07A8F941653B529567726E2B2A58D079DD57E1E5E31426CF184A04D7B03B985F276D47406AF276FE32E3328BA866
311
EB1FD39BEF57863A317634AA5FE467409B3873F5069EF0D71AF00AD189D17BA1974ECDB2D623E9E14086386A6AAB5807825C37B015BFE892AFD154920EC437EB945D958E18622E1E0FE2FA06557CE4BB9BBD05A2D40E774DA2B65473791E314B7D6C886820B2FCFE4AA272B3B8B15E7344A145E8AF919B5454D89D36D413E8
311
7211186BF6F645E5EC94DCCE8E1C799022E4EC9BC86D7A0F2AFB1FC4B2CE48F84B3F49ECE65BAD24CADCC07EFF39AB06BE9E6B27A059938EA7208838455383DDBCFCD967DDE4650EF92A14FF933C975DB20BD7FEEBC4487576485963D757D16340D9599FEB362F775F38CA4185A86F74B629C81B133644A3B18FD056E997E0
311
734F9BE26D11C0AAFC669E2AC9FC41D281F8B2E1C35AE27BCE05F3DA295488096688719D974DF1B5D182DB7792288697F8763CFB43562C1CDEE11C4AABD5C22B6E33F6F389CFC3477C5919DC0D533F8A7A1846B7ADB60ABDC26C43D0CFC8910B7C15EE22675BD02702ED39DB77A87A192CA7A543E6205B979B9F5A6B512A3C
311
A799E198B2D5797C0AF8D1D872CA455D4D431A7879D4DD76110B5FF7F4176B54477A9EB5E4A5D11214FDA585F0382751D8E2582BA5D2075053298FEB8F1537304E32CB22C2E2B693DC0A760B1DFCA751BDC445AFDCBB12820ED85F6D5298933C7EF1211E9E057684056CDA3FEF3BB6052355E162DF27C59E965A8DDB7F9437
311
EB72CDDA3A090DE65A5B2F50326247B7EC67B73ACC7047FC9B353D6EE990F772207C6EC52B39DC2F3C0754821DAB559F7C1809C7D0DD5B0499D0442E0A6E391B3D5DB46D11E731E6794EC77523FBDAA242ED67F9FA1FB684255671F63C9BCFE6E7E896D51001A6113EF2298BA494E0B0980D1FA5B9D60796554C02256B1E03
311
45FB7C6186B6A19D2DCA270416262845FA4F42DB5D9B0A0B6F07FCA2E56C242522E001E0CEB734AF310FC8BFB57E38E03AACE93B3326A2197891E68452B26A6307FDABFEE0223D3C03C3C73D2D5BC054C8311F12004CAE488E5C29287F8156A2CAA4AD0D7BE6B97264E4139F437CE73ADF52E5134C52B819777C18B323A592
311
4E4F67AFD13B1CDC3A61793A79FAF5C0CEB718E441071E797C6DCCB9EFCF7E4A1E9F3DF3C2F9C9E8294E9586868788C972857FB0556D7A26941A7EEB9B580AD78EC40B85DC906B4120A563CA3B87797ED612D3B035962BB75F6515A393F4CB057F564CDF54F2E5A024514E6A1F901DB80C7E70B1FC05E356A7E72FABF4775B
311
3E3FB8F70A2A8E7B6A94542BB304157978CCC999E707A29CC795E67A59CC546A5D47B368954CA7B6E75EC9E1F6FC73CE3B4F71F8CB1A6B15923D61EAAEB14626AAA9D04A26EB9C66CD1BE86CA31A5D8703DE04CD1EBCE4F5CCB62F93909AD11E55799A781A956ED27D3E738F4538CB04ADABC7DAEF20BC35BA6A90BCC1DC61
311
BA05F20D8832FFB9BC9B15E2DB838A0AFBB7E0C82A562127E0446894F427794C3037186F622BF24DE1B00AA10A23BFA47B2A180D6DA5AD6F7326FEB8C100C2D7142EB2A0B2A9D1008A09BA343D70E054AB69E2A7EDB783CBD92537FAF4A44D1296AC2792729104B3276C276C951D0CF3CF3F1E6B017720A7B8505A5FF95893
311
65979678C36F1BAF759EAF57C60F1FF5FE9DCF5F8E764FF25A2D06CF25117A8FED51884C13B2B750DB0E4F5E3D64124FCF11F0AD8F1CC3B3DA4B38ED22BF1CB2585EE6BFEBBA63FBFD44F9537B9B37BDD6B358720F98A8125AED4349CCFEB0E135F19E208A04CA7E2B10711185D72E381F448036EF57C9F874E54A971CA37A
311
639E986AC0226DC5AA00D5B14FEA9192234B3DE617814FC221C92F33F1D392F297731B567FD98FD91D989379AF567A65B8ADF177591DB90FBEA99BF4ED11B16E50A0AB1DBF1156D034BBE04D69D08F939D8E92BF525A1DDAFF80ECBC95D8F45D3FDD289FD23F7D8B452F8EBB34EC082DEEE68E18EDDF072060FAD2AB1504DD
311
4879BF67099FC58F6E9DEFBF645D16334A3E9A127C6F1AF6132CF287E433B43A0EE93812B4AA0B194E03EE3FF91EF9C6ED0074A2F6EB18A96A7C9890B1FCDA1F2095E944DB911ED54C60DF16FB74C8CE9BDC7C54C4F14078CF73C2FFF1F1BBCCD7CF64F71407EA1683DBC410D226627F66E509060D5C0AFD611DE681D509DB
311
8DD12FB1265B03C6F5C55FF4C30BD94187FF692B4F152982502F193098A789526A038AB529A52BC0DC4FB6285CBAC10A8B8DB75DCD9BDABBB221E27D1F8DA9F5EE5926A1C8AA9BA9BC09239C6A7F12914EA3B59EFF7AAEC3FFCCE56F1C5C2980AD072793527565E774F4631DB178CEEC691B1F367BEA0CF2907E1D6B854D52
311
7065979DDEF002D8B2ACEA7CE21AE297737EDE1D45B31233B73FEA35BCFDD0B09721FDBAF6432681F2FD10C3E9EFB246FD6E854B344ACC9D8A0EEF876A7314B49B6A499FC650B099D650DBFEC7638ADFD245E2B7839DA5AC5F7D5623FC0ECEEC8653FC9B2BDD1AD4D00A566FBA7186DD3C9CD26512551637498CADB950FEC7
311
1ADB9A5524285DE328B8EC7EC75D2345AEC6A27C42AF6D9B92155315C80DBFCABBB7DA0FAE425C4FB896B15C9BFAC4FE67DF5A23D30C93DA4D8F36FB15D100050DA6062E22AEC5F4DAC4F6FEEF97AE05DE63C6D38F9E068A20BC5E3B6BCD75320C5090924E7F93640A7735B1A43451C2D91EE62C6238B797349E59890AF3A5
311
20DF4A87095F3ABEC2E61F0593416CE46CDCBE0E00E2523FCCD04408588B5B6C9DB6459C786CE378770B54F51DA3A5E1DF2A3349BEAAC234A6CF8993B598B3B25B4B113E353A4D750FA7534749430F3EBF2512E7EA3FD43C6AB9A1F765A58463B306721A15D224FAFE8C6F5E3432D57EE697DA0DD5A9D4866A8BCCAAA9DFF1
311
F06047851408FEC060471D0E3EB86BFAF46E4B5E60311DC3E3CEA147C75CF971BE74689507154FF2D2E92F15CDB2B9182B11459FD8ACAC5A85F174BC94A7F4EE4C4F5CAFA7C02E37BF0BC77B7DCD0C047BC316F562A01A441AFA7931CC84A28CB9F4AA367EB515778F29BFE61195FA671F4352E5E46E3A64773F1F76EE5EB3
311
6D7BCE9BCEAD837A4D77F8DB8C92AEEF6711920D7C7D0F76B0FD0EB7AB83724CD35BCA7D36DDDF5FBB7FF6F04A91F3E2BB3B8F1A43CD659639507FF6331C5F697BCC782AE57D757A27D97F1AB9E0AEDB43F92F1B2AACDF5FEC8ADBAF9F814E2027003BA2F9E144B1938A7A04050AE5D953B82C45619165C813A10E76DD6906
311
B3C16438064D14CDA713AEC420034613E1AC7241904A49FBF87409AFB1FCB9B72FE7933A87D8FBEDACECE4EDCF6A4FE9FB94D5DEB74FAB7CFEAE17EE965DF980DCCA2D04134994F9A2E94D2265DA4FE6AA7B7AC15FACAC2B5ABBCD7DFF542C5314FDAB2E1B9D8B65220B8E2B638BE008E8DCA22678C820C5053664D15E89F2
311
D735B51A84955E81A443545E9FF787BE0FA700A76D136C27DA179A7C6E8939E01BE756E19CB292798063D8B97F44E8A27BCF3A614FEB8BE974A718E86F7EC99B53CA35FA24F61F2B07266684623A3D4CF073E511F3A10A8FDAFAF0078C577F4DF9D339FE7862E5FA47CF4344209E5BF76D783B1B48E152AD281B15FCB934DC
311
DA49CEC5706B1EE8B460F435324A5CAD154725E21AB8044B75A557A79F6C807B9340AA3D92503E866F4274412926C8C504E4D5EF8C0E68DD0B028781A6B4054F11CF18941F101C57CCC796773ABC8DED9CD91FE5788806C05E548895354AEAC96546D55B0E94A59F148D061F42AA398D822CDECA4CDE79E13469BDCC44FDC9
311
90F366BA5978C15F97ED80CBFD73B0CD9B8B83A4F6845BDFBFAF034019473FB9A63BD55D3A4A7284757071574029A4D016DCCBE95DD679EF3C4880BF169422F8C89B68A988D2B13793CAED4F74DE7486C72DC94DF46B8E93D8E02EFCB1FF9B3BA10C8AE7F653DF94F4AF466CDDCEF5776687F7C4C14B63E4EED1719DC2EC48
311
2D7DBCC7AE518CDE3D5FF86D39000EC3673C0044E1D308BF05F74D1B5F033A7D1BE7F74BC55BBE3E4A20F920946CA0271EB17BD2B80E5660ACB8A29A79F5E4BBA49D4D945B6EEF4A7EFEAA65E5555BBB57A7E15D2F83C69F30BBB978D2B39F1F26FC097424D39BB33CA3D87ABF64E307938B685BAD44F71556A30B7E712CA4
311
FE600613C3E554B69ADE949A7CFE214DF1FFF05CB82151EC6FC31950239F94CF7AD39DC473F6EA356E5EC2C4EFA04383CEFE985A127484366FBEE3C0EC4FEA363E4F6632AE781392FD45D67B63FB8DF70E82734F431FD3443172A0E30A83D60982D55FA6A2CF86DBA8382502ACC6CDEF3B907982EED1160E14863FA242F975
311
7347E1544275CCDCF71ECD5F8621CBEA326B8BA884AD7F825781923E66971F04010D574C541D8427A438A37EEF8AF88240EED7362C953F5A81DE2D56109CDE2524EA0F5D2F87308C0C47BD97AD605878AB8589E17CA83930CB5E0DCCD75853D68B1AB136594926DE426C367428E9334AFAFF90ECE221BB5DC9E5BB53D2CDEF
311
954EAA9CD814F0E5725F1965DD458E5F8487683AD86B9D0076BE3EE91EB1CECC5331A67A3F79D8B27587C12EC2A6A70474749F27B4C0BBAFB94B34189E88DC18964BE4121B9137FD516C7755356E50D6714E31ACD222621EBBCD1CFF81D87479056A9DA0E0B8EA19D24CF937DA89F78E8650CCBDC110AAB6C4E46DCBFD0446
311
BA9E2060E81F314AC2031E88135E5476AC0160EF5C0DD2EEF1B8B5CB2D198BE9A554A9093B5F7D7E4B5407DDFCA1D9C152FD97F55BFFFDFE802954DFEC8995B983E28AC92F1971E28F531DC407A1280EB125F64A72E617EFB27DFBCEDCDA2D6F2BDADA36873EE46B9BE1782998C63DA7182BC383FB6FD15DA472B175D7E8B4
311
FC88F38D6E07FEAA3FA3CBB8F6B449ECF14D2175E5C5CCA3A42ABF24CA6C9395AF74535F4DDB38CB84F56614B0FD32D7E19CA5CF988DB4449C40E23DF2B16772594554579094450F56F253CD25EA7F77366FB1CFE79696C428BB64D5A41E986189427E5E4D7E2DAE3D5BB4972B3DC44EAABDDDD63A2264ECFA5C786EB0EE1F
311
DC5BE34FA0F08376869FD1E61EA06CAE15191135445EE8F0394161C3266A596AA035572BB0C8876180D8B9C77D307DF9DCDF7365ABDA6F3A2366436457A4DFC1F259666569A9E4A79C817BDD5610E5200FCE894A358EC72858D50EF67545DA81C6FACE3D457BAF70367E1E6BDD9A952FB4F56247F58F523B97E640246051A7
311
2F79BE42FFA0B3187F63097F91C48B868586F714B0EBD5A00A8412C1236E1298F60C72BE6C96B82B404CADAA304AE9F303176B14BA53FBC2D5E86377E35542019E24D97B96A49B2C0E5006E7795954DEAF5DA58958839043C6C70BD3B1B33B6DC5C31316D8A6923F142E26F6711A2258AF977DDF1F970ECC4F1F2B434B96D8
311
1BEB6E89BF3BBB3C7C8CC80505070723D6D7D7D3C8CA27CA164A26024FED94B12A86031867241DA53D929636DA600F050BC40CE48B8BA03D69224720DEE2ED2127390BDF5E6EA64527BBD4C4C63FA76BB801FEEC0E61218EC98A8A86CD8313781617877E66692839B9468CF4DB8E50A73986E558E309C0D6F676F921BE02F1
311
185454DC75B111572FF9D27D85EA14C05AD7271225B391C4275659CA4A43759D0BA44639BE4C30A84DB7F67A41399FB95CBF923B1B1672ABC807C1590557FB18D811983FA97F5E609516D62281D38B1281F68FC75528C35E4CD7DF0F7DBB5E5DD69C414EBEA2F4A5B241B996BA77AE6C772E367408C633EA3E438B68563EA8
311
BE7667F3A4C4FDEEA52ABD78A2820F443B7914A15F180018D231E64519C56A12F6CA7C8DAE18F06F6B769DBF92329EF6A5D18FBCE600F36BD8E8198DE5CDAA96181F3A756EBA5501CEE58F497EA4F418A2B82565B9BCC611713C0B708CCA1F398B78C5F7D03B3437CC18F13061F55C7BEDADD5ACB1DB0E36D3CE47FF6EA1A5
311
63A57E9649EA5D14D1A50EAA457463381C073777EF1600607BAF6428A7DDC079D47A204EF1E1F1F0589FB054D45E02CE623B3823C317C601E589E22B1E88B448524B86A82828E32345EC18AE17214B42F8C41C6D428016D9BA31DDCB47572561E5A402E5BA4FCE55F78AF7268524AA04130F3A20BA5D1E9F9948EA48FC8F53
311
14FDB35E21898198060034ACE5E3E2BBCA34092518F275190AF65F45867FF0900AA4B81F25427414C372BF51DC29AA855C5428EE1EEDD6B849AD60F6E73475C2D2523F8A2772C840A478DED18A8C5C91B085F255DC4F54EA7AA8947354FD17ECF8FB3B4A0DE7B483CAF3A1165EE05BBA413E5C1FEF3DE1D6B8F2F3F3251C17
311
D9FCAB48A9AAF63AC773A0E413BBC46A9ADF84A566FC920E4D8C52C9769EE3301CADEEEDD92B312E02E2A7E35B7F1E7D203FE5A7D75578B06E99D0E46FFADB8FDA17ED8880390DA29094202D6F645F76F6F96409CDA05495A96E84B04A00D1A6C6C81D7F3DE9376E828CCF144EE50E364ACCE7237EA0BFB5607ED1AC3CFE73
311
794E5B61739D14DF1743441B1AC98F00ECEDE9E7301FA29755FBEFA68C91EF2B314CF510537EF1ABFC9A762496280B546F5EDAAF8A5B387D469FC9A878A92828C88608453ACEC6094DCA54111E7AD5B2663DFE2DD151B7F123B9F4FEF8EE36AB125FD7AD52A59B1B765B3E3F73E3F73DEA93875004D2AFFE3CDE9493B87A99
311
04DD052028949041A91DC0E1BA47BA714343FD5B25E0A6A09503AFC17C790058A836A324FE31D7893512E28230332F153181C1E018E1124EBE1BA262AA428A518237D1EA7275E48C5C561BD19ED6912EDD8367DA0F31E40EEAE9683DA9257525AEA7B632B97119E17145A90231768A4F3B9120FF32E8319B015E3CBE26F1A7
311
54177D8185345817C096B0CE443A955D13AC15E1FB5DEEA0239EC32A3C92241A237B0B02FFCB4F93CF2B02570C8D192E2F2A68CEEB42F12E6F8CEEFF46C251E22B4341C56FB08CCE550E7A9D6F4D6564B9EA52A83D5BF2C6E03FA19D2775E15A8A7ACF30A13C259EE7F5EF2AC3BA354F1500E1A07FC63FB4686E2F12EC6971
311
9F9ECF5FE3F35598DF2CE944008CE78F0911BA5BE5D0A34E0098FF038669C26030BA9B300303039852A8F6F496341737CA7E0D2E3AAA36DE0A70AA7D9CA0D54D9AD84B18A44C9E625475E1C97B93BEBB38DCE7D227E67A2D00F531436136355F243D1FC0D712C5765754FA22FCFFAE97919161F46D6E61ACB37D83777B3858
311
89770B50765B127768443A5C4D3A4E35A3151111F146B7CA116F918A049F1C272F2CD7976C69A0068773451659A97E0F4A08FE604C3FF6CE7385DB19F4D3ABC8A0D80DA8A42096AC377DB49382B36E270B6FA7570188B4B7D1DDDDA82ACA487CCA5D38BD3BD039ADBAFA4ACFF27809239B722081E2EB9F145320553D183F28
311
471C388BC8814E5045676767AB58A8E72D1CED2CA731379515D2E533E4CF0B39DFC625F97AC4836831A4DE330E87A8126FA17EBE583D614E71E22A8DBF2825599743E0640037303E8E1B1E8EA4E1ABFA4F62907B5E4E0E5DCFDAB417C36C6848A2B8D15F1E505434C0707E16B1CFC2A1C36A42BBF55734F8F4301DDC2A5110
311
CEE8C0747F69519265012A2174BF4E955ECD4FDE095A3ABC70536B7AD0B9D7892F81287D667C108703C9B66A221E9A0929D030008F77FF6F5D2108EF5706FC87A3069B976F7C9FC3239D13D283CDEA83597461079FEEE049B0F392889898B7D87D31F8D60ED7B56B91823A8E4EDDB36C6172ECEE42BD42B12CD67994FA0F0D
311
FAE9389356F4CD4425A4B8AA55CBF7ECD585C6A2C2316791E43D5C06841ADBB226A87FD61515FFBB0167B74E56BD7F3E90A57A97FEDCBDF483A0D6699A8C0849CAEB4947FAA90D8E332D9DEBD9F4738C37DA0CAF9CF3DAA68BCB67C420459C7A64498D6E848E5CADE92BB6901F607AA331104A67F7CD650EE169B1DAE94D2C
311
31C2F993632259B6957E246EFE4C5481107B07118607700040E5812A2A2A38DA0076875258C753F60E0F2662C748EDD5F3F3686B8FC3BD6FE631ECCAA1E8B1C1E565AD117E54893E79F4672E32F9E46B2A183DFDCF3EECB4D4D077DBEA0DA254D256045109670050129E9B9B1A9E4A11344D61497A992778095151510C4BB7
311
EF2009B63AA4360635312E4CF668B7E0D3D85A8688E2BD83B569439892ADB63461930D428E0DE42E4AC57CE48DA5CC1449530D8BD3D6A0F08DF20C8E8F570F2CFFFCEA286E30969B4654D498A58D9DA782E19FE3F002181838925592C4A1EF0B332D88B61A92C644547BED490D3A42CFFAB70E36D961F694F6307F72FF15A1
311
C79D5B1B5CEFD353D9E2B52566DEC8F8F09CB3E8359C0F68EBBB7898243E34E12A015B2685AB303C04D3A9E00671FF3DFF0A184E4A2ABEB2B666AF5B3A209C73D8EF29DCDB069C9F391EEE9DD0F74C7BCDE16F8F02E3B8816122BBEB50665775B600549D8BB33A54A6BF940C028118BC6878C79958D6784F9DEAA6E2674838
311
6FFAF8D0D0101E2847B6563F5D8DC1D78F787BE00E2C941AE12148D4A81599FE8F68D4DA5CDED75530ADE138240300EE13B0FC13A1687FED6774662C05A2B7DFB186732F0D7A93545D8B0A6390AE5054D9CB582DA846D7A061B3358B45E2B52DDE63E114397EDB7E09233A579155D795BE76102CF277F4DF8B188C4F2879BE
311
AE3C08347124BF9ED23B128259FE107D31E34A652F090B30B39E0D9AF917B76A2806135621A8A60681F16AF216514BBD02711585B5B1AE823F4B2D0369EA5B6BCB863072727FFC871CA6C9AB79A814D989057E9470A3D238BC87CBB4A0EA49AFE2B86F22E499793CAA9047080450166BDC357524561E258C77CB697F1ABB32
311
562CF87C3B7AA12F911EF19FB3E5C02222E887D08202A60A17151F5E053A86B437771088B4FEE14D652C43E8D939995D34545E12E2FF93D4E366EAD25F10CB7DED141563C3D0C447AF06078A91135FD4B9611583CB4BF3BD167F2399CEAB0E0100F8FFC305F00F1711717173138B4B48C83022295DE657EFEDD97F238ECA80
311
F528AFB4F8D67AD4E2594B9A3AA86D7487EFC313BA95745C186F0CDD84CC12DC9CB0424B42203D351FD9C0A3AF10CC7F388E0329279087386421F194F4A29464C1DEF7EF8BE515E4A199DCD5B909342598D8FE6A231F71336248D5CEC5454455C7BE383B3BC7B260FED27F703FDC39A170F3827239102F59D4DEE7FEF82EAA
311
1A5E4BA94DCC4CC44E7E2EDE20F24244E4454369D2E87C3F823F193FD4FD27E1C23984B01898D15ABC20711A8A558054951A6AE280096BA36CBA439603B7B0B4C45F248C14B2383B4B5CD8ECECE4FF859AD4A6CA2326D020EF090F4041D28DB66E5256B56232CC52829DE8060BAE6BBF37D4B7469B822454FE93210A3E8D15
311
E69FFCF01123222611C51C4FD0A041A0CFA2471CF6BE38D2B20FA4C3525B5B8B586759475CF80ADFE67A284AC24651E52B8E683D24C2622642F27E7C3C22783BCF63648BC398BD6CD0D9C97E7E7E3EACB6126DB7A6C1FD9F1031302EE67ED96F22B77C7CA0239BB324207559B105E4693EB26EC46182A92C9C0DBD24F29B31
311
C5C5AC1F84300E0E17CEEAC15F5736FA4A98971E2F1423BFCD68D4BBD5F86E74B40A369F39507C88FCDB35D2DD8DEBEA4AF999E23CF2816D204200DF6E611781B9884C1AC8888B4DE397320472959434323A5A36B22A8E1F721A270DF3BD65E4A31C11FF048AFB0D8B7B6881423793963A23CFCE935FC189ED36FAE35C46DA
311
3574C979E4394BE52084F3081837BE033396D2EBD80F1F691B273F660D2B32FA27A33B1DE4ADA5F0FA4651511102DFA410DDA86E065272CA314D5249DF91B06BB92807B28EFD54F08F7B525252782CD276DD02E6B0319B13DF87B1F6361AD6B28FC0D711CF445429B9E5A433CD493051C49A9E03DDB1B147D880253514A5DE
311
D88009018620EE229101C041950E2D8AA8E1F5F5438E0C0C0C60EEDEE9E3E0C051948C69F84BB7B2A48A1F3C8EB9E6864687F4F4F6F6E2FA87608ADAF9C5E117B7C1A737E710769DA1D15ECE6A84502AA855398712D5FB51BE92E4EF824969CE18278798AC303C2C7980DD2500ADF8FB1E6D6C2FAAFF9987178923334A2447
311
58BAA01A9A1B70FA5097D01E1CC2A58DAD0EC94CE6430AA9B0C10D75E3C6BAC670EFBADEE1607739CE0FC18A2587E3EC3058562014C64219C69BC269082D5C2F4A659278D585755912176D78A1B641719C2A394CED495A1AC5D583FD2F5EDD93308EA7EAE8A6DD396598BDBD3D4CFED62D18A5BDFDE0DD5C80D1A89BA62697
311
B131AE7CE9A6594138582F1B37D68F1749AC7CB67A70695D48A4A056AC1FBD4E82358CEAE38F54B95A9016F9000F9879C0D9D131768635CA798895F27D6F1614F11F2838A83611AA51C9A3DDB539D42979C29F10465655C17BEC3E2760B80DCBF609198C7B171A531905F3EC218D696025975E986C6B4C666666787271F202
311
805577DD5A3EF0CAFAF91B62DC4B2DB4217A7606282F31D8DDBC290593BAA93EA6353AFA9939B877978481E15CFC9F2755CDC00C538F63A4BA3E80AE009B73CA0185687D339A507D165B74290D6EE46D5C58148F020C3668ABE9EF2F7549170DC80DB41FFC1D678FF19AEB10C7133832B104B80F691B3138F97A92D26E551F
311
1F110400D45AC71A9B9AC41A1A1B1DAEED0B0810638EFFB511D46B121C6FEA0F38CD00E03CFFEB9713FE1F9C263E4DDEC160D0497FA9A132BA608584057FB15380825DE6C7FC3C667EE947D488A09898D8E939C4953BF4EC9836344D2CC6B2971B2A21A572B06096F4982D2CC7232D46E8EA69DC83722E267754D777F97F96
311
D5DA74E1E75178084D0E70F12AD33E5F71EF2AFA599B2BEBF60A5BE475F444F240CBFE8143C334E7ED9150FEEFEF7EB020C4DBED388DD1D6A167A76F3CBF119B578AE8CFA7736ACAFA4440A1C47185638A0D2F3EB5BDDEFDA958FB13CE4AA4923D5BF840392D45544329525749734866684BF7F8D9D54D892E19BCA9F829A0
311
F8BFCBEEA6CFDFC61D74EA1A645ED7A1FF241739F15694BD835B66FEC5677E40FE69BD3F91AE402F036537218A401CB0828604AD189E575015C6F3F6BBC8AC79CF6C70653847254B31551EFCBEB5978B9DB85D58D0FA41A9DFE9C624834AA04949D24B5AE6D299E072D152D12097920F14AA92C31C3B97E28B6C2E6E9C23D6
311
3043ECBBC0A60FDF5BD0C33C127EA8A3308B8B6AFFEB28B4455BF6E7AF4FC6222728357EB8E46E85053E6A8843AB23295BF838ABDA94658FEF3F832F147046B4ACD6F7D48E8FCC9618582961C898D1C7A253C91BFECBDA6BA18A1FCF70755DCCEE2222F41B76D23CA98D0CB3D95F0CF66D57FFF65E2A90F5DF40FC3187621E
311
981BD0BC1D992787212688976B94A8F0C6EF646624B570B78E068826F87CE27041A95C9A4871FF65CC17FCB1639629AD6A9517000D63AC231F3D741CB8430777E7ECF80CE7A3F73C0F162F7E56AA71F4DA80A33CD6ACEE78E2C11FAC03DAFCE929B106F8F6B3ED2DC71FF994BD9CEF4E9A94896EF1B6E2B7B4978168BCF084
311
7A3D2A4F1B0500B926E634B174548E9FBAD27153FB5FC36799B1E6C7C38A94E1F9E996796D7B485E635D5287A2AE76FBD11A341DB3F8F810385BB7296391973DC6C37C452A9305AEBBE0CDB6C566DB59FE60C8E94B1FD090354BF51439FFD1B48D725228FFA88C84F686F547107A7A235665A4593B7C34D748C1AC8D56DD5D
311
A861EEFBADDECBBD65117E65851F90351AEB65F0EFCFF4BCFEF24CB7A5879699FAC437A7AF9099186CF006BB923A59E37D7A36A29FD8D2CBB914A5E9D0A8FD212FBF796AE9A67958FF1D5D8B85F78F96219D4714EB919929241B6C018AAE0C02069F8D919961EC5DDFBFB7573E3AC8E08BFB7C8534BE6DE045B3CD63DBD71F
311
7638BA2309CAE398EA3A7D8F98BBBC7AEB367EFA5CFA27A9F8F2F52FE878058E6209C026453F8E7E8A237DFC389E9590F6059B397CFD65183BBF936E86896612A5B5FEE49DAC8455D026218AFEBEC12B3523A45B57B82C9C97E02ACFA1184DB18E48CF615DBF39C3CC6F0B4AE6BBEEA2E39D944E290302FA3DE33FA7E40296
311
E2EF7BF1CD855BBECFAD0FD622BEE9746FC4FDFDE545AE6E3BC234CADF83A0FB76DFB145BF3828AE3436368AC24989454F8FF70A177672C711CAA1A76107218CF948CA01F873520E7A2B118EBB161ABAD432932029628B6761590C98AB590C8C8C79798CE9F715BA696E839E9131A4BB68BE923F1747FBFF165331FFDD4D05
311
997ACD168F12CA75348DAC04C7F509FE83898A8B421181AF492861CE81E4A2DD0A30850CFA95E05F097FF70F9E777310D584A75BA7018922E271DAB1D785671157685B7D383D3E074DDB4F1E44EF04B07BAAC75A062077C54B9752C738C9D804D402E02851F3F89605AF189738C18C021D2139EAF72513824E10DDD3047BAC
311
C8521ED7E98B257D1166903B1B08FA6F918FD7E162913FEC7D0EF4787E29C35FBA8C6E2C9C20E9AB30AE42CA2A01A090E7D010C1B5BF9CEE2A304BF3A987FB40D836979B79E18D70F257DA61E808472DD85B82761825779D6B90CAEB0F23360C6F80A7D7D77545E95B3DFF0CF96A827F9B5BCECD2C9698718417EF80FEEDEE
311
938AFF55859D0D540B7FE09435583A6F04874A0C7E8CF234DF4879722000167F5872CEC6BF3EF7E5A8CC8121E6A359227C8A29C95212F9F735BC72A887D56B8F309FC525BFB4FD767AAEC4AEFF249CFBBD2DE1AB9969A6155C7D8DABC307E47324C1F916C7BCFF40ABA5644E9FFB9238D19ADADA49D9610F01ABBA57E4DFCB
311
DCCBB2B93C8953206C91DE01B0E2651A6D6C31721915B31F7B7CBCE55466F6D70402788FA91D73BE4ADCBA99A35F17D6B83383704917D6833F0FA3CD45C926ADB8BC17999A4A0AFBCE2541F7B8CF4C2F5FBA611B3E626D64407CB32C122DFF4EF8674D6EDBB86C8F7C6A16D50FA685E2CCA34F8F7D1D8265BB0042E9D7F1F6
311
66F7BE5FAA5184DF58E12122A42EF02F461B3F369AC746F96528AD208512AB56844CF75B97F352DF7995024FB02855385854F3798670D01CAC771AC3E1889EC25F61A20C1F8CAB46898817F9C47E2CDA1F286BF2F358298709FE567C91133E2638C8B53975E753EA8BFD3578B5F7186B7BF084EBA3F77BAC3132A5779902EC
311
22AF2D2E79F42D324E083386DAEE9810D1B44A5DAA54513C7A71E52A4AB9257D975B621308FE4D2141CC3DCFE946C154A3C1DFCCA7629EC69ACFA831634ADDA93C0388D2A9A2DDAFCF957C6995BCE7FBB6DC4EBAE79E63EB08E9A25F52F67076F7093CA545CA3053B5BF576DEAD4E0017143C5F759F32B2D6F145B52B67B48
311
909B7C7FCA6586EE385A2189C16932CB6DDFD9152AE317C430492A578ED27B72D85D40C7C93C097939E1B50F4D67F05334FE9DC362C30B7FF561B95259138ECFD9274C8D695C31B14D4EAA9F3D7FA8DDF652F8C5DEFA23284C799B7D94416DEE81E05A866302DC70192A5368EA65E1CED8BF107A1E2D3119A71E85DC1A7B0C
311
1E93274CE04DD0F2ABC8AC7C987FDB002B6F81757B43502EF7A0D92E416494FAEEA4C9C090CD9557AA4D532F4996A272B94355C5A0E4974EEA9627476F30809B94D8D8D860062E02204643BEC7D0438AF800FC7E2B26955D595421E83C69E1A07E0E3122285835F014AD538188CF9737CE76D464A353FA55A001AB2526B84E
311
985083693BC76FE211CA1D000679C889E3C009832C87E1AC2EDD05C302557422DF0800E316FCAC86978A371F025A6C7DAA9F333E7BD160403A1A06EA75AA9888FF01504B03041400060808003051575728BB58AF800100009E0500003D00000030453432334336432D373834332D343333412D423237322D34323845413036
311
44373236302F536368656D61732F436F6D6D6F6E536368656D612E786D6CBD544D4FC23018BEFB2B96DE15493C78601010A34B880709DEDFB52FD0D8B54BD70DF6EFED3AC0B12E6442E2716BFB3CEFF3D18E26FB440405EA8C2B1992E1C323095052C5B8DC842437EBFB673219DF8DA659866649B798C078B48AE641012224
311
2F2A4994AC7F93815DF85C049C8564CA0A901499DD886B2EB9B1E02448F358701A9235880C49A0119892A20C89D1B9FD768815CAD268CB5E0355B40B1E47F3E37A2020464BED06AA57CE8FCC20C3C3446D46761A2632A8C1283D07031EFF2AE7CCB1BFEEE916E406DFAC8E36FFD99A9D60A6944090EEDC3B670C7DC13DE86B
311
6B2C5C240D6E503BB85ACD579D513F1B9F9A69DC9CC22AFA80C426D40AF0B21EA168559156B6276F0F726A6BFF04DCD513A87A62CAD41FB24FCB2858B3952E3D852084DA25B9303C15687973CC8E8AAE11DF2836C38C6A9E765E8C1BA1BFB1DC29CDFE518C8B5A7655A4ED7E77291ABEB80DBD82EC866ADE1B8D05AF9E35CF
311
09D7A061F38A986D9EC412B8F0F65E5D81534D9B231D1E5A8FE577A241F3A5FD01504B030414000608080030515757E336299B9F040000341300003E00000030453432334336432D373834332D343333412D423237322D3432384541303644373236302F536368656D61732F47656E65726963536368656D612E786D6CD558
311
5B6FE238147EDF5F61E5BD1498E9A895A02398AA5D1E2A5665BAAF96710C78D6B9C87168D95FBFE7F81242134A968E469A4855437C72AEDFB965F4F53551642B7421B3741C0D7AFD88889467B14CD7E3A834AB8BEBE8EBED1FA3495108B3E01B91B0DBD1F3EC8E6C991A470F22155A72F73CBABC1D4D5921DCD1934863A11F
311
990102A6F61466977B8AC49FB13C174CB3940BE4504A22E3713489B7F82406516225536940BD88E4E552493E8E564C1522225AB0384BD56E1C195DC26FAB13882C2EBD62E1FF9E5B0FCC453132C99548446A1872B62267078F1EF14C3DB1DD1952DDBBB384AD456779F387C51992E0ADCE12FED2622BC5CB1952FC9BDF3295
311
E9206E961AB116DA7ACE45F76F07A26EFC3FD762FD7362FC3C0BAA4DB34C09E682CA5167BADCD16CF94370E331E2F1A3D852008AAD5D64BA2373478338AEB1583B905396D158182655E1B938D07926CF007CC7E85E6709999B0D3827C0BF406BEF55C68CF5579DA32C8C85BE03EFE788787E8FEC95DC85C3E31A615658D81F
311
9A34499612004CE69CAB12531B15A887ACA642C110F8C1A8C1974A85853F407794695C905C688E69B116550ACA946B9B4785FC179E0E229240B62665328E86D5BD2C800CF5D80289F35AC25E3DD51508F4BF9A74A0F5A557BB3D284BC6FF59312E282F956A75C5D453906F48D11A876599E49425602400842995BDF02C4D01
311
2E226658F78A710416AC552831FDDEF0E6F0BABEBEA9DC36718CCEF4DAC5A0DF871AECBDD8F448F015F8DA113A473609D1751672B723874B2CAB21ECD6E284E51DCC7D1A47A00F60EC21DC4CC3CDC406DC03760A4E6C772F2F4D561A9AE58C4B03F5B4838701472139EDCB36819A66C472B52AB1139C648956F43E0DAEC067
311
B56B0818F5961D3D446B8F1E1E78C0EAD7EE02AF2895D813E88AC5014A7B436DBB20F778D40A1D9737EFE45B47D49CC8360F9966B15AABAC802C1005548A93EE469F5D55317CD8BF0AA86CABADB2A009D4D6F60CFE53AE370AFE8C45415B15D362A5A038E766E34B00F8C2E3E7098E2093B1C96349FDAEA158903B4BDAEA66
311
5F473FECE72186E3BDDCACCADA31839CD6D4FA7D47DF5469006ED340EBE71DF960DDEE88A3E17557039B58C278A1795BA8079419DA8FC5BA1BAA1A66238BF69C7B2BE4E6274839122B7D00BE8B7D52CF61B2D63216046008C8B330FC10F8907787DEF061F47965BBA02FD8F53BA12F9827614979F53563D0BB1AD67A03DC0E
311
00E2FB2CF3EFB457E70E65A3D7C78E7D700DBB45132AE9BBA5E468CD861408961AD8B00A55C2FCC677F4456039FD9F1907A5B3E2D0EE845FDBA2DAFA88C64195671AD6D282DA2E45B1F50A0D632B0D0B6718757DCC7C84A70A3656F222CDA6DBF07E204AB358961D1BE31E53A82C2C0D56DBF61A5608B5A252A932A1DC6E32
311
462430853353EA30417C8199A662E946A4EF352268B8CDB9A9C6762515ACE8E09BBC031C608A02C4BA89C9DDC074E46E0E26A17BCBD4ED43270D03E3645ADB81F6D62CC07A3243EB81C07E01681DDF2DB4730631E6DDA6CBBD048BE9F06AEB3CF06B31DD6C9575E37E9FF17161342C4C76D95519672A6509E0F5C4E71B4B19
311
16440059F57D0921F496237E473A83E3E4E06353BD9D27593594D7B6707C08D22FEBDFBFFE03504B0304140006080800305157578DFFFC99640100009B0300004500000030453432334336432D373834332D343333412D423237322D3432384541303644373236302F536368656D61732F52656E6465724D6174657269616C
311
536368656D612E786D6CA5535D6BC230147DDFAF08799F5FDB600FADA20EA430D968A7AF12D36B1B481349529DFF7EF9A85A718860DFDA73EFB987734EA3D16FC5D10E946652C4B8DFE9610482CA9C8922C6B5D93CBFE3D1F0291A6B0D26A3255464182D920FB4233CC629881CD49C18508CF000E3EE309A100D61622AAB4A
311
8A33B2483F11CB639C545B0E1508438C3D3C0361192846DB7ACD198DF186700D182920B914FC1063A36AFBEE8FBA03FFD3CC1D1F4FC9E151A2AF59F628C5B7821D83FDFD3489305080F2EE04BF962195FB285E9D2DD352320A9E827AE357594914E42B1F5FE35F83688F60C4C91A6C946ED0668E8F244BC2EB0BA6E3BCCFC0
311
B6A4B507F9F9F8D51EB315D9BA9E08D308E89F96931666E577837E2B4172199C68C4FE306156D47DF51C698C7B9D97FE5BEFE2190C3C38BB054E6E8163FB039CB4B993C80BF18D969203116D6BBD26238B821F9BB909AD6D9C71B85BCD8C33D66FEA3D31B4BC0AD45BEA46BBEDDFEC0F504B03041400060808003051575779
311
0D8C9851000000570000004700000030453432334336432D373834332D343333412D423237322D3432384541303644373236302F4173736574446174612F41737365745461626C654F66436F6E74656E74732E62696E536160603073727132743635D77571B674D635317573D175723531D375327132367772313477347414
311
02AACB4D2C492DCA4CCC492C28484D2C4ACC4B4E050A82012F90744FCD03CA26072767A4E6260200504B030414000608080030515757C55C663656000000680000004500000030453432334336432D373834332D343333412D423237322D3432384541303644373236302F4173736574446174612F53747265616D56657273
311
696F6E5461626C652E696E665D8CBD0A80300C06F73E4B29FE6CDD8A2E82A083B8B7F209014925C9FBA3AEAEC7DD2555D896CB85E51C2A1BD834F6A1F56EC4494C4695278364ABB24ABD2146F88CCEBB89D5321FF8F3F43D672A3B44DF3CB6A1710F504B0304140006080800305157574AE4B72E36010000A2040000360000
311
0030453432334336432D373834332D343333412D423237322D3432384541303644373236302F4173736574446174612F636E782E786D6CCD94314FC3301085FF4A648931B1932C5039AE102C9D40A26260BB3A9762D5B123FB82E0DF63B71940454C1DBA9EBEBB7B7EF23BB9FE1C6DF181211AEF3A56578215E8B4EF8DDB77
311
6CA6A1BC65C55AC9E03DFDC058E160C48EE53253721FFC3C2DA51E07986DAE5AE30E4BF13E46A42DEC2C3E0D0FDE113A8AACD01662EC58D4EF38420533F91EE3A1EA81A0AAAB80D1CF41639A4466C465920E08843D538D68DAB21665D36E6BB11277ABB67D933C934AEEBCB70B6FD2B2E0A79B46E8D35EA684E41950720E66
311
A1F26B98FA4B65B5334EF2442A19292457960EFA9A52074C93351A2899C7BD26A4324108A3E42758499E5DF8E5C5230EC699DCB249D2807C784E023190C12BF4E43FB597F766E32281D378CD8E9C6BBCBC0F2FC75FF47A8AE53137D79796738D9571C305B2C28FE72445275F17F50D504B0304140006080800305157578E7F
311
B237E5000000600100006700000030453432334336432D373834332D343333412D423237322D3432384541303644373236302F5265736F75726365732F36424442314335372D444339432D343546442D424534362D4234423337424431374131412F7468756D626E61696C2F302F636E782E786D6C4D90C16EC4200C447F25
311
B2D46302492EED8AB03FD1532F1525DE142DC1084CD5FE7DA1E5B0A7B1C64F9667D4F5FBF4C317A6EC286C304F12060C9676178E0D0ADFC66718AE5A25227EC06008E6C40D9A0D5A1D894AECD68E37537C73BD0BF76E1E183039FB1EC30183F526E70DB2FDC4D34CA630ED98EFD36ED84CF39430534916EB017627F60336A1
311
61DC412F7259C7598ECBFA3ACB8B7CB9ACEB9B128DD4EA83C877DE05C644F1699196EA18EA3F528906685592EB540B01FAE13925EA52ABCCA9E6EF10FFC40A9918BDB3866B4D822C238F1542732AF10F6B255ADE2A7F65546DDDE85F504B030414000608080030515757A233C2345D00000080000000650000003045343233
311
4336432D373834332D343333412D423237322D3432384541303644373236302F5265736F75726365732F36424442314335372D444339432D343546442D424534362D4234423337424431374131412F7468756D626E61696C2F636E782E786D6C4D8B490E80201004BF42E6EE76F3C0F216234B883063108CCF170C074F95AE
311
5473F5C4C06E932E4F28601967600677D21E9D8092EDB002539227A2FCCB80E1168D80A6417297A89C5D6963B7129A0D1E8F2EE73AA7B62BBEB8B27DE50B504B030414000608080030515757BE89762363000000880000005B00000030453432334336432D373834332D343333412D423237322D3432384541303644373236
311
302F5265736F75726365732F36424442314335372D444339432D343546442D424534362D4234423337424431374131412F636E782E786D6C4DCC3B0E80201004D0AB90EDFD75167CCE820A4A845D83603CBE602CAC26799919AEEEE0D965E2E908050C6D0FCCE04C8BC355404EB6198129C92351FAD580A10E464065907C8D
311
948F8F166375F655BDC3FDC3B4E530A176BE7057BDC43B2A593FE403504B030414000608080030515757DF2F5FE07E000000A30000003600000030453432334336432D373834332D343333412D423237322D3432384541303644373236302F5265736F75726365732F636E782E786D6C4D8CD10AC22018465F45FE7B2BC9CD
311
02754CADF718CD0D99D3B0193D7E1ABBE8EA83C3770EEF3EAB476F9B5E2E0601E4700264C3238E2ECC02F236E10BA04EF214E3F677031486D50AA818249F53CCCF1D8D761AB2AFD4BBB0ECB0554611DD306CF45563DADC0D5637DA6245D5992943584FFA621CAB52E6D72B5BF3F20B504B030414000608080030515757EE25
311
A2370A010000550300003400000030453432334336432D373834332D343333412D423237322D3432384541303644373236302F536368656D61732F636E782E786D6CCD93BD4E042114855F65426239C0CC34BA61D8C2C2CA46ADEC90B9BB9205EE841FA36F2F8C14BB899D16DBC1C9979B730E5CB1FF74B6FB80100DFA990C
311
94930EBCC6C5F8E34C723AF4B7A4DB4B1110D319463AAF1CCCA4CA448A63C0BC36698183CAB6AAD6F85313EFD139F4CFFA1D9C229DB62AC699C4ED4A554EB8403CD1452545071A20620E1ACA84641CB4093A804AB01039F271EA07DE8FD3CBC077FC6E374DAF8255528A3744DB78E313045C6F46AEB11C7D31C405AB801439
311
9846D514449EBBA3A50FC10A21454CA1B4D0C8F4B51652ADAB355AA55216DBC01F460A56C35E447E000FC1E86BCD7C61EFDF423F815F203C96970A46D96BCDFE9BCBBF55C0B60D28DFA02E84FC06504B030414000608080030515757E3603EBE7A000000C20000002C00000030453432334336432D373834332D343333412D
311
423237322D3432384541303644373236302F636E782E786D6C6DCD410EC2201085E1AB90D9DBEACE05D09878023D01A1D34A8419C380F1F82DA68B9AB8FDFEC93C3D7C52546FCC12980C9CBA232824CF63A0D9402DD3E10C6AB03A3397DD192872090D3406ABE7CCF5B5D18893ABB1690CF4DCF02282E5EA8A5BB96FFE536F
311
285CB347F95BEFFE81C9ED5AFF9D5B1FB575BB00504B030414000608080030515757940B7D227D000000A300000007000000636E782E786D6C4D8C410EC2201405AF42FE1E4520C002686AED411A4B1B220583C5787CC174E1EA259337A3BBCF16D0DBE5974FD1C0E54400B9784FB38FAB81B22F5801EAACCE29ED7F374071
311
DA9C8186C1EA35A7F23CD0EC96A98446838F8F039291533688014BC519E68CF5F84A25C59CAAB127E226A920D53837A5CEAF57B7E5ED17504B030414000608080030515757CA1DF9C9A900000073010000130000005B436F6E74656E745F54797065735D2E786D6CA590410EC2300C04BF12E5DEBA70400835E500FC800F84
311
E0B411AD13252E2ABF27A55740421CEDDDD9B55CEFA7A117778CC979527255565220197F75D42A39B22DB652EC9BFAFC089844F65252B2630E3B80643A1C742A7D40CA8AF571D09CC7D842D0E6A65B8475556DC07862242E78CE904D7D44ABC79EC569CAEBA537E3521C16DF5CA5A40EA17746733E0B6615DE7217475F386F
311
18B9481C510F1F021CD9FF027EA0E1F5C4E609504B0304140006080800305157573DEE336E64000000790000001B0000006175746F6465736B2D64657369676E2D7061636B6167652E786D6C35CBC10E83200C00D05F21DCA56CA76D41FC96062B120735B69A7DBE268BB7777961F8D5AF396893C2ADB70FE7ADA196782C2D
311
F776D7A97B5933C430F15651E5469C55D70F80A4992A3ADC954792C525AE70A1E4D6AD9816CC044FEFDF01FE3FDE907802504B030414000608080030515757A16ECDC9F9000000960100003700000030453432334336432D373834332D343333412D423237322D3432384541303644373236302F4173736574446174612F63
311
6F72652E786D6C8550CB6E833010FC15B477838DA1A5917154027C414FBD59E0502BC1467E54FDFCDA814AEDA9A75DCDCECCEE0E3B7FADF7EC535AA78C6E81E41832A927332BBDB410FC1535909D39B3C6F85F34C8B458650B0906CE166BC2764093D15EEA846A33CB0314CE490FD9748F4D0B6EFA90ABC845F091E16EF926
311
A69B58644EF29DC759086A3EA46A8E6EEAAAA405DE93AEA99B0A2372791A51D53D0FA8ABEB018D23A684F4D5402F941549CC9957EBCFF6C94AE1E50CBCC4254504A392BE117CC22F274ADF5991989C396FE3CFC7D2F41DF0D774752FBC60C53EFDE31AB6F97FD7A0B4A7E5E1BA2B1C70128F7C0C382B524AB13C228C3525CA
311
BF01504B03041400060808003051575775763AEBF40000008E0100006800000030453432334336432D373834332D343333412D423237322D3432384541303644373236302F5265736F75726365732F36424442314335372D444339432D343546442D424534362D4234423337424431374131412F7468756D626E61696C2F30
311
2F636F72652E786D6C8550CB6E833010FC15B477838DA14D23E34824F0053DF5661987580936F2A3EAE7D70E546A4F3DED6A76667677D8E96B79149FCA796D4D07A4C4502823EDA4CDDC410C577480E2C499B336FCA24161C4A23AC83070363B1BD71D92D60465326AECA4765078AF0214F2919A0EBCBCA945942286C4F0F7
311
7215F22E66559272E37116A39E76A99E929BBE6AE5805F487F680F0D46E4FC32A2A67F1D50DFB6031A474C09B934033D5356653167412F3FDBA55322A809788D6B8A0846357D27F888DF8E947EB02A3339F3C1A59FF7A5F93BE098551BFAC72DAED3FF6E519B40EBDD6D5378E0241DF71C7056E574527946976A4E927F0350
311
4B030414000608080030515757C1A0FCCBFA000000960100006600000030453432334336432D373834332D343333412D423237322D3432384541303644373236302F5265736F75726365732F36424442314335372D444339432D343546442D424534362D4234423337424431374131412F7468756D626E61696C2F636F7265
311
2E786D6C8550CB6E833010FC15B477838DA14D23E34824F0053DF5E68243AC808DFC88FAF9B50395DA534FBB9A9D99DD1D76FA5AE6EC21AD53463740720C99D48319959E1A08FE8A0E909D38B3C6F85F34C8B45864030906CE266BC2BA4383D15EEA846A33CA1D14CE490FD930C7A60137DCE42272117C64B87BBE8AE12E26
311
99937CE37116821A77A91AA39BBA2A69815F487BA80F1546E4FCD2A3AA7DED505BD71DEA7B4C09B9541D3D53562431675E2D3FDB072B859723F0129714118C4AFA4EF011BF1D29FD60456272E6BC8D3FEF4BD377C0FD2D2C9F5AA89915DBF48F6B58C7FF5D83D29E96BBEBA670C0493CF239E0AC4829C5F28C30D69428FF06
311
504B0304140006080800305157578B7AF7700E010000B10100005C00000030453432334336432D373834332D343333412D423237322D3432384541303644373236302F5265736F75726365732F36424442314335372D444339432D343546442D424534362D4234423337424431374131412F636F72652E786D6C8590CD6EC3
311
2010845FC5DA3B36183B4E224C14FCF3043DF5866C92A2C41019A8FAF885C495DA534F8B86193E76D8E96BB9679F6A75DA9A16488E215366B2B336D71682BFA03D6427CE566BFD2F1B64462EAA85240367D7D586C7264DD67865926AECAC36513AA73C64D33D1E5A70D3875A642E838F0E77CB1F72BAC9ABCA49FEF2711682
311
9EB7A89EE36BFAA2D50ABC27625FEF2B8C48B71B51259A0189BA1ED038624A485F0DB4A3AC4861CEBC5E7EE8D3AAA45733F0129714118C4AFA46F0111F8E94BEB3223939737E8D3B6FD0B41DF09DE805E9EA06F5DDA143553DF6480CD50E894AD046F4A43993332B5EC13FC0F098FF07066D3C2D37E02BE18093F8FFE70567
311
452A308E67BB71A6B2F937504B0304140006080800305157573532AA94FA000000960100003700000030453432334336432D373834332D343333412D423237322D3432384541303644373236302F5265736F75726365732F636F72652E786D6C8550CB4EC33010FC9568EF4EECB8815239AED436F900C4899BE56C8BD5C6AE
311
FC407C3E7613243871DAD5ECCCECEE88FDD77CAB3ED107E36C0FACA650A1D56E32F6D2438A67B2856A2F85772EFEA24165D58C3D1418A4B87897EE2BA49D8D680B6ADD842BA842C00895BEE5A687A03F7056B54A3133C2B5BE2B7D5517AC59BDF0A448C94CABD44CD9CD9C0D7A902776D876DB0D25ECF83492CDE1792087AE
311
1BC83852CED86933F023174D114B11CDFCB35D7B541127902D6D396194B4FC8DD11D7DD971FE2E9AC29422449F7F5E9796EF40BE6270C96B0CA259A67F5CD37DFADF35191B79BBBA2E8A0092E5231F03299A92522E8F08732D89CA6F504B03041400060808003051575754DA17C9F700000094010000350000003045343233
311
4336432D373834332D343333412D423237322D3432384541303644373236302F536368656D61732F636F72652E786D6C8550CB6E833010FC15B477838DA1A591712412F881F6D49B050EB5126CE447D5CFAF0D546A4F3DED6A76667677D8F96B79649FD23A65740B24C790493D9A49E9B985E06FA881ECCC9935C6FFA241A6
311
C5225B483070365B13D6031A8DF65227549B491EA0704E7AC8C6476C5A70E3875C442E828F0C77CF5731DEC52C7392EF3CCE4250D3215553745337252DF02BE99ABAA9302297A70155DD738FBABAEED130604AC8B5EAE985B2228939F36AF9D93E5A29BC9C8097B8A4886054D237824FF8E544E93B2B129333E76DFCF9589A
311
BE03FEBADDE958B1CFFE788675FADF3328ED697978EE0A079CC413B7016745CA28962DC058539EFC1B504B0304140006080800305157577D83652101010000D80100002D00000030453432334336432D373834332D343333412D423237322D3432384541303644373236302F636F72652E786D6C9591C152C32010865F85D9
311
3B098198D40EA1536BDFC093370CDBC8B4810C10C7C7979838EA4D4F303FDFBFCBBF2B0FEFE38DBC6188D6BB0EAA820141D77B63DDD0C19C2E7407E4A064F03EFDC080383D62078B0C4A0EC1CFD326F5DE25748BEABCC14DD4316202D2DFF2A583D8BFE2A80B3DA74CC46B31E9FEAA072CAA62E5944C76FCB2F6017542038A
311
332E68C528174F15DBB3FBBD10CFB25C482567EB92E05B331C5FD0103FA51C09D49D90E5FA9CB1D99A0DB2267FD25E2C0650EC5C73716A4EB4DDD582D6421CE9036F39ADF9EE7C64CD63CB1B968B64B39231853C9AADC83284BFDA57E3AF68F364FE196D754450D577A87299B392E5E712F2B9EC447D00504B030414000608
311
0800305157570A636F2207010000B201000008000000636F72652E786D6C8D50C16E842014FC15F2EE2888B6DB0DB289BBFA053DF54685B564158CE0A6FDFBC26A93F6D6D32333F3DE0CC34F9FD388EE7AF1C6D91A68460069DB3B65EC50C31AAEF800E824F8E25CF8250364E5A46B4830083E2C6E9D77A87736689B50EB94
311
DE41E9BD0E80FA313E6AF0FD879E6426D71015FE96CDB2BFC9416734DB74820733FDACF68B96412B10052918A60417EC959223793932F6C6F3A4147C5D8DDAAD8C8AEEE66AF402E2429B43752809A6E7A70E97CD738B9BAA6A71D71146E9A56CD999F13C2D0BEEC312FFBC1F893903F2F29E7C79BE5182BF3B37EE82184A21
311
67C72F1084E789F8137A9DD53F421B1B58B11FDC363C081A033D88689C1A8CE3516F9CA96DF10D504B0102140014000608080030515757AC05BD1302010000A80100004F000000000000000000000000000000000030453432334336432D373834332D343333412D423237322D3432384541303644373236302F4173736574
311
446174612F446566696E6974696F6E4974657261746F7250726F706572746965732E62696E504B0102140014000608080030515757C3FD5E59130100003002000045000000000000000000000000006F01000030453432334336432D373834332D343333412D423237322D3432384541303644373236302F41737365744461
311
74612F496E7374616E636550726F706572746965732E62696E504B010214001400060808003051575788E57597CD3F0000904100006B00000000000000000000000000E502000030453432334336432D373834332D343333412D423237322D3432384541303644373236302F5265736F75726365732F36424442314335372D
311
444339432D343546442D424534362D4234423337424431374131412F7468756D626E61696C2F302F67656E657269635F706E67504B010214001400060808003051575728BB58AF800100009E0500003D000000000000000000000000003B43000030453432334336432D373834332D343333412D423237322D343238454130
311
3644373236302F536368656D61732F436F6D6D6F6E536368656D612E786D6C504B0102140014000608080030515757E336299B9F040000341300003E000000000000000000000000001645000030453432334336432D373834332D343333412D423237322D3432384541303644373236302F536368656D61732F47656E6572
311
6963536368656D612E786D6C504B01021400140006080800305157578DFFFC99640100009B0300004500000000000000000000000000114A000030453432334336432D373834332D343333412D423237322D3432384541303644373236302F536368656D61732F52656E6465724D6174657269616C536368656D612E786D6C
311
504B0102140014000608080030515757790D8C9851000000570000004700000000000000000000000000D84B000030453432334336432D373834332D343333412D423237322D3432384541303644373236302F4173736574446174612F41737365745461626C654F66436F6E74656E74732E62696E504B0102140014000608
311
080030515757C55C6636560000006800000045000000000000000000000000008E4C000030453432334336432D373834332D343333412D423237322D3432384541303644373236302F4173736574446174612F53747265616D56657273696F6E5461626C652E696E66504B01021400140006080800305157574AE4B72E3601
311
0000A20400003600000000000000000000000000474D000030453432334336432D373834332D343333412D423237322D3432384541303644373236302F4173736574446174612F636E782E786D6C504B01021400140006080800305157578E7FB237E5000000600100006700000000000000000000000000D14E0000304534
311
32334336432D373834332D343333412D423237322D3432384541303644373236302F5265736F75726365732F36424442314335372D444339432D343546442D424534362D4234423337424431374131412F7468756D626E61696C2F302F636E782E786D6C504B0102140014000608080030515757A233C2345D000000800000
311
0065000000000000000000000000003B50000030453432334336432D373834332D343333412D423237322D3432384541303644373236302F5265736F75726365732F36424442314335372D444339432D343546442D424534362D4234423337424431374131412F7468756D626E61696C2F636E782E786D6C504B0102140014
311
000608080030515757BE89762363000000880000005B000000000000000000000000001B51000030453432334336432D373834332D343333412D423237322D3432384541303644373236302F5265736F75726365732F36424442314335372D444339432D343546442D424534362D4234423337424431374131412F636E782E
311
786D6C504B0102140014000608080030515757DF2F5FE07E000000A30000003600000000000000000000000000F751000030453432334336432D373834332D343333412D423237322D3432384541303644373236302F5265736F75726365732F636E782E786D6C504B0102140014000608080030515757EE25A2370A010000
311
550300003400000000000000000000000000C952000030453432334336432D373834332D343333412D423237322D3432384541303644373236302F536368656D61732F636E782E786D6C504B0102140014000608080030515757E3603EBE7A000000C20000002C000000000000000000000000002554000030453432334336
311
432D373834332D343333412D423237322D3432384541303644373236302F636E782E786D6C504B0102140014000608080030515757940B7D227D000000A30000000700000000000000000000000000E9540000636E782E786D6C504B0102140014000608080030515757CA1DF9C9A900000073010000130000000000000000
311
00000000008B5500005B436F6E74656E745F54797065735D2E786D6C504B01021400140006080800305157573DEE336E64000000790000001B00000000000000000000000000655600006175746F6465736B2D64657369676E2D7061636B6167652E786D6C504B0102140014000608080030515757A16ECDC9F90000009601
311
000037000000000000000000000000000257000030453432334336432D373834332D343333412D423237322D3432384541303644373236302F4173736574446174612F636F72652E786D6C504B010214001400060808003051575775763AEBF40000008E010000680000000000000000000000000050580000304534323343
311
36432D373834332D343333412D423237322D3432384541303644373236302F5265736F75726365732F36424442314335372D444339432D343546442D424534362D4234423337424431374131412F7468756D626E61696C2F302F636F72652E786D6C504B0102140014000608080030515757C1A0FCCBFA0000009601000066
311
00000000000000000000000000CA59000030453432334336432D373834332D343333412D423237322D3432384541303644373236302F5265736F75726365732F36424442314335372D444339432D343546442D424534362D4234423337424431374131412F7468756D626E61696C2F636F72652E786D6C504B010214001400
311
06080800305157578B7AF7700E010000B10100005C00000000000000000000000000485B000030453432334336432D373834332D343333412D423237322D3432384541303644373236302F5265736F75726365732F36424442314335372D444339432D343546442D424534362D4234423337424431374131412F636F72652E
311
786D6C504B01021400140006080800305157573532AA94FA000000960100003700000000000000000000000000D05C000030453432334336432D373834332D343333412D423237322D3432384541303644373236302F5265736F75726365732F636F72652E786D6C504B010214001400060808003051575754DA17C9F70000
311
009401000035000000000000000000000000001F5E000030453432334336432D373834332D343333412D423237322D3432384541303644373236302F536368656D61732F636F72652E786D6C504B01021400140006080800305157577D83652101010000D80100002D00000000000000000000000000695F00003045343233
311
4336432D373834332D343333412D423237322D3432384541303644373236302F636F72652E786D6C504B01021400140006080800305157570A636F2207010000B20100000800000000000000000000000000B5600000636F72652E786D6C504B0506000000001A001A00210B0000E26100000000
310
504B030414000608080030515757000000000000000000000000370000006662782F36383033433832452D314530352D343346332D393132302D3538333641314444463846462F617474726962757465732E62696E504B030414000608080030515757000000000000000000000000350000006662782F3638303343383245
310
2D314530352D343346332D393132302D3538333641314444463846462F76657274696365732E62696E504B030414000608080030515757F270F1330600000004000000360000006662782F36383033433832452D314530352D343346332D393132302D3538333641314444463846462F747269616E676C65732E62696E6366
310
60600000504B03041400060808003051575788E57597CD3F000090410000420000006662782F36383033433832452D314530352D343346332D393132302D3538333641314444463846462F7265736F75726365732F322F305F67656E657269632E706E67355B773CD4FF1FBF73E71C0E67EF7576C9DEF3EC995D46C6A1EC50
310
46649CBDF79E192942562825CE965D8A868C2842C8DE9FDFD1F7E7F138F7078FCF6B3F5FCFD7EBFDFEC41B196891913091804020321D6D7513FC77D8C5070EC3FFEE51B21F068154CC75D455CC028A3EA68992803810109FDDE5D5CEC5521B28A1B422BF80741695D5B529DA1C2D058AD2388BDA9F476F7C2CADC939304173
310
DBF48A452BF8A700C0C70C3D121C1AA15A5270C22E2B9E28763651F7DA0D12CE11077B2ECD0D560B5E3DE2368B1E65C5E1C87384A4CC5F2D9FB8BE39E9B77C753783A37998F5CEF1B4FEE553463245C9712270880DF339E0B882A6BA713D865F6F384C842D440934EF264F4A304F8DE4EEFA1E2BF5E2D91F5ADD9613D6E31D
310
DB33ED31DB1D7916CAF091286EA3D31B9CFECB78BB0060245B943C4C040119FF780A74DD308BA9D028678674EB5504ECF284EE814DAED07440BAF649BE4B55DA2890F4D73E2D489A59EE54FDB0A85B59F2F52C4858A02705C4815A792B0C4A996A2023ECB195073E115E3E3647F64243A8338F2000BCB58DA5692C7E7C3D41
310
3F963FEDF3CF00FBB0F831A9D51360FECA43819F527B89FA260EB63C5DA676830AA3626A3693B23F1A17A0DFFCE3EE164E31B5365EDF0C89EF64D8E38AB0BA9A1117D7C3A0EC44F44F4023095E80BA610DE336D0F99593A88BFC5306E72DF98F7FD132ED95878DF2964EA7E43071359FD83B2BDF9C6B5BDF768F0F3C0FC351
310
199526F53D9460A34511F75D1B63E488178569472C91A94497807A3FD4A390C6558F26D416365C3656DE6E769DA9D8FC73774E1709812842DD8EF96AED1960F79D21B395CDDFE6F92CB4EB962A4668C76990E2EF29798C8941D67DA50F4A5F947872460F1F6FDB794E8A29FD7AC0C0D6E0714339CE258FB17AE8535221E346
310
4A10F29A0BE5EEECEFC5675926A89F49EB14E5711894F6586DB5754EB4D5DA9C6437EBA57DB97A24F8B8A8DB295FFD73266CF57E82694DF5166DDF93573AFE9C9C5EB05F8FEF8E89E0A8917B0B3724DB7BEBB53252581EFC3E38166BA131A3A5B42FE2AD00A769BBFA4458D2DE7822F8C4F63D0B8E21B285AE13325F3410A4
310
35C648C9D91FDEB109E73CEDA7BC796961AF79175E1A3CE4C5E8B0D009B0C9E29EFD98BC8E97554E3D8D838424E270F7685226E5AC268E021EDE3522D583E8F20C0BDE2959EF5BBFEEDAB32FE9A3ED0E39F211A86AA9DEBFC68182EDED132AB8BB794442D2D7EA9F4D8BFF52BC4D55BB165124EE90A42D101E67BBBB292FFB
310
4F66DE5BF2300E44546757DA7CEF8932BFC9F92A0707953491A55C5A5ACEDABD9FA1AEA01BAC3DC5A24E22E7C47213493996EFBC369D086ED9397C9BA6C7F9855C7BD5E15BFC8C53DB3D2A4C5901A57ACD2FBDF4D1676E95338B2C2BCE65FDA4C64F5FEFDC7D9CA5AA1FCF11E193F2FDABF0F4916BF13FB916A224380E6462
310
A9815F2300DC49CC4DF8D055CEF76462F4B7A7ACA7365C2707891370BC1D0AA6203C44CCAB47084FEC057F27FFCD57F89B8B9852459798A675C66BD7CE572CAF71FF7E6D7ECF7BF62CAB7B3F1107DCD04DC55A3F9961700286141C94A4F771FEB2BCDA2DDEE0CB0BAE402FF1DB0100F8E475DFFFC074DDB4498AB7D186A765
310
4DDB1CB680D703D47CEB4E72F8CB13D86A4AA68116E26387B93FD6738779B34FEDB8E517EDF2BAF28D9BE93A1D3A164320E07D42E514725C29515FF361754213EDE06B079A2E99EB1CA82A02019EADEEB87B9AF005BD04BBCECB14AACD6B24EFBE482194A97DD32400685FF1FEF1544D1B14EFB1E7F08E6D2CD2AF52DE757F
310
35F5E62332EE88EA26417AD5C3E0E319D68F25414E6D672BD4522B278C57D18F0113921C71D96527E091F00CEB15AE23D24667369BD3CEFA10C7549D930890BA4366F4EBC55F01F746109F98ABCDD5A3EE06619C6AD78AB33E48E4C9BD21BF7478B385EC05C4F8987E2C1BFA0A60EBEDAA0AE0B015C2720ECE180FB6F2DEFB
310
EB822D96338C9B63822183BBF52FB664A7AE57003AABCE512BF77E7E31BDA2E739AC4C131657DDFE5225E900FB56CC01CDE808FA4A9C9DA16AC679656BB64796283D89812B8F91136AE18EE5EBBAF47A73BE3C153EB5D4CD491B4BFB4FE690A4CF9ABA08C0D8AA64220C438C96EA6CA80B58FE5761E697B3A292EB9FBDA502
310
FA863E49FE694ADDFFF9D62C520BDD1A22014147A0903A05B9B729F54272EF83931FEEC057BFF8C8055C279EAC5C0011804828734024F6CFA319C9CC6867C727184465CD9BB7ED386AFFD96B294A85E3802FAE47244602D8273615952B98C4F23F7EAE4463D9D638EEE374A20959E0FE519C4CFB0FBFE5DD80C2AA3F9DB961
310
D1BDE57E67C9BB47B77FDD74EE3094F5DBBE3EBC1FBDB7393F5116263009E2EFE1AF9A221B2AE234C902BF70E9F280ED23E73908361565964333A3F01D0B006AF32FB21AA1316744B489D5A198E85299241735BE559675130955C902A8ED761FC0DBE337A9F91919AF5CE32AF902ADF9AB2615E00E8A94586BA1A90839B618
310
32FF1BFB76D2EFADE6DB1BA04CCAD3DA649E7E2A0219F592E22F2AD54847EEA8E42271011E9074F8F3DD9FBA6CDF88FFC9FC7E811AD1CA8F4557CE4AFC7BBEDCF0114A48689F20A584520C74DA8127124B767E2FB91A6B186246727BE63C9445BAE02088D58B8EFDC0F1072407CD9B89A13F6303B4A928F593AD489B58E686
310
9325790ADC406036C591729FE14021F94B7796BB11848D463536A092A26F077F94639F7CEEE2A724C66EC885F4A24F8B8A0AC321F8FD149BA529460FAA34E4663C02D41FDF80BCA222D42F0ABFF8490F4FA74C673807C2051D8E467B47B616072860069A9A303ABA9B319D58404461401B0A0F9BE5E1E151C14BC33B32ABE0
310
3DDE91708DFAEB15E7C0D593C86BB7D7EC17BE56E57975F077BFD5525F3A1A361D584A75E08CF29FC7B44B2B3085014F3A5A14517377C3F6B8F37E59514C3B12F8AACDEDDA4DFC49BE5710101534CD6FB6DE15B50F11A09472AABA727F0C49D9CB906B158030065F48EB3625E010CEC1D511D0053474B11E6A4F01C0D6EF1B
310
ED3A944FDEC70E0DDCDC756C86545910E0DAE3BE3AA9A404574C2995CD5CAF9549226BC94B4F4F0F5F9086F418F6B32346464610D8BC7391D3C3A3CCF04CFC1FB2A3A3170E369511868F14EEA4E5E438CC73DB1F3248AA94B6B2FF33B222FF3D1E7BF146CAD229770158063BCE4F5391964DF62F7E52A7BE0EEA829C9E13C4
310
C147D6F93FE59E111DAB5E4594D6F3CD1AD375EE039930EFE5AF2BB2D41C83C7DABD8C659BAFBE8FAB392CA634F3D15C1D945DB4588D2B0824A4EC928AAC565557CA2F0DAA588CA5BE30B3A8004F7BF005E96CBF891D7F18112A3619FDF530DC8AA64954258E1811789B5189B49B4EB53F5F89F7D37523894F3EB57B373763
310
C91E502F52CC99EB7BDDF933FC324C4FFC2561DFFA7339FAFDD0A4BFBE6D3A8FF9ED1FC49898139864602458968913181918F719CCF5A68B2EE9C1FF050E34E63107003B8120FA982C21B30A874E4F5E4B38D5A8290C4B8D9BE48A0BE31EA995BDC37AC6DE90BA17D259DEF53605D55922FEB1855D915B659FBEB350EE0DFB
310
2F9F766E1C84CC8964B75D08667445EAB966015F63A18A9E0A325C1B3DC628C0D3CB60F767FA93CC65F25458BD23C3B312716E5F40E5858AC06EBA9AB14F95DB99147B832069201541D09A0D856E12C629CF32683760EE855537D1901988D5EBC156676C7DD51D7207CF3267AF1D76C2AD867315E44618015313A98B19941C
310
696FED3461CAA9B5415F918556D7802EDACEFD6B2E45853A9735DFC9DBF7E440F9319F8B6805A973BCCDC76C069A9144E51F187EDCC12FC31B5DEAAF0A76137199B106EC84ADA6B6EE697D4E6A96E007417F4E880E8B1E89B4BCE9D81EF611E2ED8F0C1A6C25F620FAFAAB656A7C42D464880E8AFAB0E0FC8EA38CA9A8AEEA
310
EE3E4648BA4680270A89743CDD3E6C6CBF34B7B640EFA285ABC7EA0A1E28F3CC963D114A80123EE66D0AF7D5380EB41909B605AB4765B709B808590458157E69BA1378FEC4B48CAF6A730E3BE3C5EF2DD1A5EAF94B1DDE50CEB55DDFD7EE9A16747FA4B223359FB1FCC69E1194892BABB93A1D5C4E807AC0EA2E30180811E7
310
7A2291F6E7F7FAA5E0F60215BC6024E48DE436C511F0628B8CA189982D4D83CCA17D305A7E923C37941CFDFDCD93ACAF735EF5F0E61BBD3E6C41A59B242790D3A3BAC7064DCD89AA2E37214EC839820949D5CAA31E240D2948E48F690298974A96BA9A8432BC90F5071D6537C9666EA4564796B7AFFFA548077BEEA75F6308
310
3435074BA182F3699557397F71548383FDA8CA34D99B981E72835ECDA5DDDC151315173D05A21F651AAF8524E88209E2E7A737ED1045800CE3390050BCFB8BE588DF111617874C62575039CA588EEFDEFEFE319B739DE2EDC147092A262611E159650E787917885EF08F1F51B8F2D8A71D60B58B190FEF9541A1BE94BC19FE
310
A50784DA1419FE4B0FB51B8D36B5FF8E1286FD8AF42B91E59A5F1CC4D60174E764045FD8C57B18209B217F89A62252BD20BE0E63E12B8E8F029FE19E0E8D0870F58721A557082250D5424F7909369376E41666C0EE77CD87CB283F661D5FB6D0DA023CB67320A20DC7BE661E9E1BFE5463085C557DA1FF9BE835733766C3D1
310
39F2CF9E2208873AD0EB4814DE9E6BF2CAF81614D4D43906ED1C05A3265CABBFE192770FC2F64F940CB6B17B5F166F133C9AEEAD2641807C3E69515171DD74C4A85311513D6EC9530B3B601B6BA3EBFF3B5C3D2F7D69765141E345F75433953D013ADDF8F6AA7DC3F4A7563FE5C7D367937E2900D7EAD0F9FC9A4A1A9B5BDF
310
1FEF08532660C01C5D6DE22199AA774383E306DAB87E301ABB7D213887F9869D4942D0D71E94B27EDF216A318BD488D45DF84529EF575AF3C3938C0AAA0215B01994153E2054A0B894DA5C784980633AAD48576957CF4AEAEAFADC7C587368551C73DBE1E57C58AC713303A8BFC258BD04B51724459FF9E24C03A81E0E0679
310
CEB9B348C0DC998FEB9C6D6EFA77D247CC8F92D3848599ED89A23218D0636465AD1CEEB7DC140D7426F83491C4E8E8281C2FB35240918FFECE880CA2A42D70E8B20B34DF5221C7DB0CF90ECCB9C745B37A47E9B716FF7A97B7A252C1F3814DC7B1E1A7F72B8751D524EF7CAE45B0C73B3BE7D08ED39781B380DDFC9AA4A474
310
9C9493DB5BAD07A6EA6C092FBD0E85DB004DF06B8C9D3089C5320187E4CE1846158C7EA7DDAE8AD9AFFF21AA3A1026BB06A259845E8232DEE62811A4DA9CEAB3A4887320B76E2AE5615EAB7BDF738CBDD01F1E64064BC13D9EC53576751CA8CACD58B3CEB0E6CA585BD089B2A59B9FC101403387AADBDBE70586B93D64BF3A
310
D4453EF9C3B6A93817E8346991798601344F79A83C51F3D50F7BF2683A3605F51A72449489E0EE6169C749C60B1035651103AEE24D24E51A759C840DD3FC6504DA6FE107510E447B43461C79D22970B75DE5E1BD3007D1AFC619A4A4A69B5626AF5E9B8374E20677F77E2F8E73DF868E8BEC7EBA7B6A75EEF7205E1AB9486C
310
B642741D6E03FF13FCCEDB1C4AC129886268B01CDF4B124AF797CF784F3C6DEC97A17D4B558070A0F1C04DA4FF9BDBF34159AEFE958479824B3F58EBD1E19088A2AFDE501B6F2052368A3FD0E650A179EFAB1561E1D27527077136E652676C3670F42DCB3352F48F6BC86D2C3B0051727E41A0A4DC6CE2BE9D47F5CAA2935A
310
3C0539AF080665997194ABECD723B08129CC5B6B21D2E7D54CD4D12610E7E9FB8306771A89576C7A982002775ED44F3F744CF21EEBB27A631671D921938AAEE3EB0D19CD1E083727F607823E817BF599DCED5394E37EEBC2E88782E638920CA641EF74D4CDFCDEF06F4278ECB18E31E7E9876F2D783C8BF429C75395F57E98
310
C2B495A3DA077EB3AC3C158608B6B57FE3EA48484D9A480096FCEE0DE880950E7E5A5714131C5C41AAA29FD19AE81AC145FA1B9E85C7169A5AB837B213493DF7E9AA4B5FBF9CDEB36EBD21EF1181B7CF7366AB2A951D01E37AF4EB835D1BE8C117CFBE7625D2EBCDB0B20C5A4B45CED0BCDE3EE8DA9DA78C2E21DEAAFFD119
310
7E463C33CC6A80FB785669B856EFF7A8CCCA2841B5A5369173320B1170C368B2748D81062EA0296E5E2D95D7667A4A46D98A6FF475C76AAB0A8C8D45E226FAFC9FE0133EA9F60111F99CA81ACE03A1D14C89E8B0D69079C91464FA1D99E651D0EAF606F345C42A8A1AA9BA391031582B96D5B4176A77AADB01F12FD298A75D
310
EEBB2C82F0B8650E880722F8DDD90C56A7A058E5FDEF1AC93545BA27367C76F5D8F9690CB6F8DAE141EDD7971F0FB548A2AE435F224D6E5954CA155512F7332029D5A1230854B79F258EC5FFDB09F5F6343A8EB193229B7F7E79B3E48F8E183860B38C8269D1B53738FF1E0BACF6AADA6D4869E9DE708E79B5DADCC09B1BC7
310
6F649731CFAF59A83FD8BAE4C749D66FA87A3810D4D62FFE826FA400C0F325D2BC0F3CA35F5847B82A2ACC7961745C823E4D863D54460AF792CE6F79B5C7A33B25C3AEA6CDE15A919B6367D781E9D44F61BF828672594A3E1D9EDD6DF179A81F27EAC05B936575D73E05C209DDD2115CFB705DF9BBF3C911589B3640735E9E
310
618FC9C36A7326C82B2205E244C55D56FDB9D5DC93CE958D4BF8174D2B3DA54CB3C09F2C2A6DFF73D23B2197355761AD421EC581284A7EF8DE2CE3497C0C804D49B41DFD6A7360844E5BEFFB495CFCDB97A4595911CDBA623274CE852B5E278AF0BEB1770E9D37CD977B2766A7DED0E94B840E1E95E8C77DE5CB6354AF7871
310
427C28ADBEEF7BA0A28E19DE9ACD75F379FE373EAE6DDDAE3834692F9C2B03B4FCA8FCA9ABE8EEEBEBB725B88A7C90941E850682CA04061A7DF0CE82ED49BFAFFD42C309818FAE14755CAAE78B0F73243ECCCAD7DF58FCB9CDFAE7A4D3E6671A613639130D056C8383C8F4FCF4808C331E544DD26E4755D09EA05253B3049A
310
1E32587CC25D72E073E2CD96D04A71BBCB0038FEC3F53D254199C3CDC67CD66640269431860225392B2CB3ECD0B4498AAE78BA1994246AE1EE78F2EDFB79F6C6CB6B5E279C4D373FBC21CB2698C9ACBBEB6A4BB6B39E16AB0E421CCBFC7654D81ED86022F9BB522146F9F4772E2D0E4FA70120C95A85A417BF5078B232F475
310
4363EB1750B2AC2148EB46B1EA72AD9B4D23ADCBC589D70106C3EC2ABEEED84DFE28E718C6C83502C28E9FDD3B09DA0A6F6F7B72B706A31C9E2A331EE70DA56A083D2177BFD63C55B11D8D949FAFCF90B23A1E24B9B5018B9A17E99F2890EC302F330FE7936E2C23F0D237EC8916F5166AB84B62A21BB0B950146962D754F9
310
2CC2C8877BED8FC7B7B25726DD19545392570B3A2C66B58F027BEF412E552D12A588C4A3CC5C3193FCB3485EFFF700D0B9EEC077754A33DC1FB9E25AF814628F91DDFECB667D3F7690803F38D13F8AE39353523BB08FC6760144AFA2CE28236F65EDBB3D5F59A57D612B99E3D7E5F8A851666BF9B5A6658EFC96EEB37A378A
310
BB0EB3FDDF1303AF32C41BD1C8560745D7BD81066B0D6313359CF488563D3BA3F8E2185D1FAA3EBA1397C9D0E3DD232180A4DCADB6AF25DB3AC3CC26589C8239E66E81547BC7E2F328F9884764CA37EB5DBE390DFC03A5246B456A7C3684C4377D0EEF9A350680FA9A077E8B2957B489E09AB1AD41316944C2254B5984830F
310
691C93CAA767EECF976FA5647538830B5E63236A6F0365C1E0F3E327F24FE35EDDBD7360B0F7374837409F7A6311BECC12B7026D4FA1AE204FA3F5FE904B1F420C7A9044AE58E403E7C4848E7DA25DC9EDAC79DD756FAA26B9EA83ACE8A214A2612A22AFA19DAE7DBAC5F8CDE1292A485F98DAC731A29FE01A3966E96BCB9F
310
B5A4C8830E1B9AF0C54B87FBE221A097036E5D28D1F869F810C06A9BB0AC0612F69AEBAF893C6E7AD59460208BAB3A6B09CA4F6BDDAB8CF0D1F84B72487498395A70DCD754796E271099A567A55CF242BBED64696378BB6CF25EF0FCDB589F3A82F1116D010A9AB9FA4358809EE0C973A2B4229BAA876A70B03AB49CBA7FBE
310
71DB1832FFD32F9BF2C8E98075CACAFB36921235D0F552B6A67E94E094097A5D7DF681B40623DA535ADA7A9AD8E9A62407D7C9A5AE51D62A17A83A23728DE86BB56115804D3F2675F2C6B87541A0FC497BF0CA86420F558C9859EBE9FAD62747E323E3AADC03FDCDDFE7407B09DA90B44E3185723C5381EAEF589765E2F7A0
310
99BA46695BAD60CEF3491B8A171F5F56444F7CE9455312C3498C74173AEA0214EC029833B34B650CBB5A5508D5091665309642791708ECF27CF11DB3D797D6CFE474453BD4BFADB768094B2147814D81C7CBAF8228DCAF5564B5891F5EF6A860EB2E323CB82AB868D8EA048880D63B0DE5341F1B3D53297B928A11E15F25E5
310
148990F710747C3509ED14909C552EBE3973246FCE55D00564D8310BC3EBC5085D08D806799B77D6C57FDF5E55837F9E934F09C03C729271B64F12D0A9F9E938107CAF7BF1EC8CF1BB9B42363D33070F4CACB425E605DDB0A34A12BB936DE286B9887A4E2E558F0886498BFF49C311D96C277CF6A9FC0D75AD0ECC5226D7E0
310
E3572012E56D7FDE4410CEC7A6D0F997F225A2055B8B92E3956E875AE4993CB3D4C9063AF98FD45E1BAB165640A43439A2C9181A7C355B297C0A0CCFFAE19B6FA3C2BA238A885FBC98B8F6DAF4B94B97304878DF4D8BFF6A4AEDF79E90ED4E68F00CD7299F4E0D83E35601AF0CBEF18C1E870E74758FA91F5131075004DB3C
310
FCF09AE1DABC11957FD9808C92E8A678CE9DBE40DDA0E0D1D505AAFBCBA208232BFB6FB3704E8985E61ADE53DE74152F5C7DE74B1DEDCD37DC3E8FB30D7EBA8B9EFFC3606BF90B8D438279CB7709FC7C00D327F41817EEA71CD9E49FE9C8C9A81C70915D9F0F15958EC5AA4C3BBFAF46986B90F188BDB24B89DE3C6F29EC3E
310
6F66D84856EE96A35E657CA41B41EFD8DBFA16AD6E91439EA92B40B21C053249F51AE50EB0B24C770FFAF40DF12C8436366819C48E36547D4E7B72FE2BBF10828583057814A668BDF183F6B2E58DFB151103E56303E63D00F39C27C4661605DB644D19175D02E3F0241E8FC3458D17AAAADB117CE9EEA690D0DB01E634878C
310
04C2C9310B69FCAB831151E3AD293BEF6E46B0ABCECB50F5939B39C613D41E81FAE8D34CAE3C4566B761D37185FE864AC32FCB71AEF39DAA5BAB88609BB980CD2F07A8F941653B529567726E2B2A58D079DD57E1E5E31426CF184A04D7B03B985F276D47406AF276FE32E3328BA866EB1FD39BEF57863A317634AA5FE46740
310
9B3873F5069EF0D71AF00AD189D17BA1974ECDB2D623E9E14086386A6AAB5807825C37B015BFE892AFD154920EC437EB945D958E18622E1E0FE2FA06557CE4BB9BBD05A2D40E774DA2B65473791E314B7D6C886820B2FCFE4AA272B3B8B15E7344A145E8AF919B5454D89D36D413E87211186BF6F645E5EC94DCCE8E1C7990
310
22E4EC9BC86D7A0F2AFB1FC4B2CE48F84B3F49ECE65BAD24CADCC07EFF39AB06BE9E6B27A059938EA7208838455383DDBCFCD967DDE4650EF92A14FF933C975DB20BD7FEEBC4487576485963D757D16340D9599FEB362F775F38CA4185A86F74B629C81B133644A3B18FD056E997E0734F9BE26D11C0AAFC669E2AC9FC41D2
310
81F8B2E1C35AE27BCE05F3DA295488096688719D974DF1B5D182DB7792288697F8763CFB43562C1CDEE11C4AABD5C22B6E33F6F389CFC3477C5919DC0D533F8A7A1846B7ADB60ABDC26C43D0CFC8910B7C15EE22675BD02702ED39DB77A87A192CA7A543E6205B979B9F5A6B512A3CA799E198B2D5797C0AF8D1D872CA455D
310
4D431A7879D4DD76110B5FF7F4176B54477A9EB5E4A5D11214FDA585F0382751D8E2582BA5D2075053298FEB8F1537304E32CB22C2E2B693DC0A760B1DFCA751BDC445AFDCBB12820ED85F6D5298933C7EF1211E9E057684056CDA3FEF3BB6052355E162DF27C59E965A8DDB7F9437EB72CDDA3A090DE65A5B2F50326247B7
310
EC67B73ACC7047FC9B353D6EE990F772207C6EC52B39DC2F3C0754821DAB559F7C1809C7D0DD5B0499D0442E0A6E391B3D5DB46D11E731E6794EC77523FBDAA242ED67F9FA1FB684255671F63C9BCFE6E7E896D51001A6113EF2298BA494E0B0980D1FA5B9D60796554C02256B1E0345FB7C6186B6A19D2DCA270416262845
310
FA4F42DB5D9B0A0B6F07FCA2E56C242522E001E0CEB734AF310FC8BFB57E38E03AACE93B3326A2197891E68452B26A6307FDABFEE0223D3C03C3C73D2D5BC054C8311F12004CAE488E5C29287F8156A2CAA4AD0D7BE6B97264E4139F437CE73ADF52E5134C52B819777C18B323A5924E4F67AFD13B1CDC3A61793A79FAF5C0
310
CEB718E441071E797C6DCCB9EFCF7E4A1E9F3DF3C2F9C9E8294E9586868788C972857FB0556D7A26941A7EEB9B580AD78EC40B85DC906B4120A563CA3B87797ED612D3B035962BB75F6515A393F4CB057F564CDF54F2E5A024514E6A1F901DB80C7E70B1FC05E356A7E72FABF4775B3E3FB8F70A2A8E7B6A94542BB3041579
310
78CCC999E707A29CC795E67A59CC546A5D47B368954CA7B6E75EC9E1F6FC73CE3B4F71F8CB1A6B15923D61EAAEB14626AAA9D04A26EB9C66CD1BE86CA31A5D8703DE04CD1EBCE4F5CCB62F93909AD11E55799A781A956ED27D3E738F4538CB04ADABC7DAEF20BC35BA6A90BCC1DC61BA05F20D8832FFB9BC9B15E2DB838A0A
310
FBB7E0C82A562127E0446894F427794C3037186F622BF24DE1B00AA10A23BFA47B2A180D6DA5AD6F7326FEB8C100C2D7142EB2A0B2A9D1008A09BA343D70E054AB69E2A7EDB783CBD92537FAF4A44D1296AC2792729104B3276C276C951D0CF3CF3F1E6B017720A7B8505A5FF9589365979678C36F1BAF759EAF57C60F1FF5
310
FE9DCF5F8E764FF25A2D06CF25117A8FED51884C13B2B750DB0E4F5E3D64124FCF11F0AD8F1CC3B3DA4B38ED22BF1CB2585EE6BFEBBA63FBFD44F9537B9B37BDD6B358720F98A8125AED4349CCFEB0E135F19E208A04CA7E2B10711185D72E381F448036EF57C9F874E54A971CA37A639E986AC0226DC5AA00D5B14FEA9192
310
234B3DE617814FC221C92F33F1D392F297731B567FD98FD91D989379AF567A65B8ADF177591DB90FBEA99BF4ED11B16E50A0AB1DBF1156D034BBE04D69D08F939D8E92BF525A1DDAFF80ECBC95D8F45D3FDD289FD23F7D8B452F8EBB34EC082DEEE68E18EDDF072060FAD2AB1504DD4879BF67099FC58F6E9DEFBF645D1633
310
4A3E9A127C6F1AF6132CF287E433B43A0EE93812B4AA0B194E03EE3FF91EF9C6ED0074A2F6EB18A96A7C9890B1FCDA1F2095E944DB911ED54C60DF16FB74C8CE9BDC7C54C4F14078CF73C2FFF1F1BBCCD7CF64F71407EA1683DBC410D226627F66E509060D5C0AFD611DE681D509DB8DD12FB1265B03C6F5C55FF4C30BD941
310
87FF692B4F152982502F193098A789526A038AB529A52BC0DC4FB6285CBAC10A8B8DB75DCD9BDABBB221E27D1F8DA9F5EE5926A1C8AA9BA9BC09239C6A7F12914EA3B59EFF7AAEC3FFCCE56F1C5C2980AD072793527565E774F4631DB178CEEC691B1F367BEA0CF2907E1D6B854D527065979DDEF002D8B2ACEA7CE21AE297
310
737EDE1D45B31233B73FEA35BCFDD0B09721FDBAF6432681F2FD10C3E9EFB246FD6E854B344ACC9D8A0EEF876A7314B49B6A499FC650B099D650DBFEC7638ADFD245E2B7839DA5AC5F7D5623FC0ECEEC8653FC9B2BDD1AD4D00A566FBA7186DD3C9CD26512551637498CADB950FEC71ADB9A5524285DE328B8EC7EC75D2345
310
AEC6A27C42AF6D9B92155315C80DBFCABBB7DA0FAE425C4FB896B15C9BFAC4FE67DF5A23D30C93DA4D8F36FB15D100050DA6062E22AEC5F4DAC4F6FEEF97AE05DE63C6D38F9E068A20BC5E3B6BCD75320C5090924E7F93640A7735B1A43451C2D91EE62C6238B797349E59890AF3A520DF4A87095F3ABEC2E61F0593416CE4
310
6CDCBE0E00E2523FCCD04408588B5B6C9DB6459C786CE378770B54F51DA3A5E1DF2A3349BEAAC234A6CF8993B598B3B25B4B113E353A4D750FA7534749430F3EBF2512E7EA3FD43C6AB9A1F765A58463B306721A15D224FAFE8C6F5E3432D57EE697DA0DD5A9D4866A8BCCAAA9DFF1F06047851408FEC060471D0E3EB86BFA
310
F46E4B5E60311DC3E3CEA147C75CF971BE74689507154FF2D2E92F15CDB2B9182B11459FD8ACAC5A85F174BC94A7F4EE4C4F5CAFA7C02E37BF0BC77B7DCD0C047BC316F562A01A441AFA7931CC84A28CB9F4AA367EB515778F29BFE61195FA671F4352E5E46E3A64773F1F76EE5EB36D7BCE9BCEAD837A4D77F8DB8C92AEEF
310
6711920D7C7D0F76B0FD0EB7AB83724CD35BCA7D36DDDF5FBB7FF6F04A91F3E2BB3B8F1A43CD659639507FF6331C5F697BCC782AE57D757A27D97F1AB9E0AEDB43F92F1B2AACDF5FEC8ADBAF9F814E2027003BA2F9E144B1938A7A04050AE5D953B82C45619165C813A10E76DD6906B3C16438064D14CDA713AEC420034613
310
E1AC7241904A49FBF87409AFB1FCB9B72FE7933A87D8FBEDACECE4EDCF6A4FE9FB94D5DEB74FAB7CFEAE17EE965DF980DCCA2D04134994F9A2E94D2265DA4FE6AA7B7AC15FACAC2B5ABBCD7DFF542C5314FDAB2E1B9D8B65220B8E2B638BE008E8DCA22678C820C5053664D15E89F2D735B51A84955E81A443545E9FF787BE
310
0FA700A76D136C27DA179A7C6E8939E01BE756E19CB292798063D8B97F44E8A27BCF3A614FEB8BE974A718E86F7EC99B53CA35FA24F61F2B07266684623A3D4CF073E511F3A10A8FDAFAF0078C577F4DF9D339FE7862E5FA47CF4344209E5BF76D783B1B48E152AD281B15FCB934DCDA49CEC5706B1EE8B460F435324A5CAD
310
154725E21AB8044B75A557A79F6C807B9340AA3D92503E866F4274412926C8C504E4D5EF8C0E68DD0B028781A6B4054F11CF18941F101C57CCC796773ABC8DED9CD91FE5788806C05E548895354AEAC96546D55B0E94A59F148D061F42AA398D822CDECA4CDE79E13469BDCC44FDC990F366BA5978C15F97ED80CBFD73B0CD
310
9B8B83A4F6845BDFBFAF034019473FB9A63BD55D3A4A7284757071574029A4D016DCCBE95DD679EF3C4880BF169422F8C89B68A988D2B13793CAED4F74DE7486C72DC94DF46B8E93D8E02EFCB1FF9B3BA10C8AE7F653DF94F4AF466CDDCEF5776687F7C4C14B63E4EED1719DC2EC482D7DBCC7AE518CDE3D5FF86D39000EC3
310
673C0044E1D308BF05F74D1B5F033A7D1BE7F74BC55BBE3E4A20F920946CA0271EB17BD2B80E5660ACB8A29A79F5E4BBA49D4D945B6EEF4A7EFEAA65E5555BBB57A7E15D2F83C69F30BBB978D2B39F1F26FC097424D39BB33CA3D87ABF64E307938B685BAD44F71556A30B7E712CA4FE600613C3E554B69ADE949A7CFE214D
310
F1FFF05CB82151EC6FC31950239F94CF7AD39DC473F6EA356E5EC2C4EFA04383CEFE985A127484366FBEE3C0EC4FEA363E4F6632AE781392FD45D67B63FB8DF70E82734F431FD3443172A0E30A83D60982D55FA6A2CF86DBA8382502ACC6CDEF3B907982EED1160E14863FA242F9757347E1544275CCDCF71ECD5F8621CBEA
310
326B8BA884AD7F825781923E66971F04010D574C541D8427A438A37EEF8AF88240EED7362C953F5A81DE2D56109CDE2524EA0F5D2F87308C0C47BD97AD605878AB8589E17CA83930CB5E0DCCD75853D68B1AB136594926DE426C367428E9334AFAFF90ECE221BB5DC9E5BB53D2CDEF954EAA9CD814F0E5725F1965DD458E5F
310
8487683AD86B9D0076BE3EE91EB1CECC5331A67A3F79D8B27587C12EC2A6A70474749F27B4C0BBAFB94B34189E88DC18964BE4121B9137FD516C7755356E50D6714E31ACD222621EBBCD1CFF81D87479056A9DA0E0B8EA19D24CF937DA89F78E8650CCBDC110AAB6C4E46DCBFD0446BA9E2060E81F314AC2031E88135E5476
310
AC0160EF5C0DD2EEF1B8B5CB2D198BE9A554A9093B5F7D7E4B5407DDFCA1D9C152FD97F55BFFFDFE802954DFEC8995B983E28AC92F1971E28F531DC407A1280EB125F64A72E617EFB27DFBCEDCDA2D6F2BDADA36873EE46B9BE1782998C63DA7182BC383FB6FD15DA472B175D7E8B4FC88F38D6E07FEAA3FA3CBB8F6B449EC
310
F14D2175E5C5CCA3A42ABF24CA6C9395AF74535F4DDB38CB84F56614B0FD32D7E19CA5CF988DB4449C40E23DF2B16772594554579094450F56F253CD25EA7F77366FB1CFE79696C428BB64D5A41E986189427E5E4D7E2DAE3D5BB4972B3DC44EAABDDDD63A2264ECFA5C786EB0EE1FDC5BE34FA0F08376869FD1E61EA06CAE
310
15191135445EE8F0394161C3266A596AA035572BB0C8876180D8B9C77D307DF9DCDF7365ABDA6F3A2366436457A4DFC1F259666569A9E4A79C817BDD5610E5200FCE894A358EC72858D50EF67545DA81C6FACE3D457BAF70367E1E6BDD9A952FB4F56247F58F523B97E640246051A72F79BE42FFA0B3187F63097F91C48B86
310
8586F714B0EBD5A00A8412C1236E1298F60C72BE6C96B82B404CADAA304AE9F303176B14BA53FBC2D5E86377E35542019E24D97B96A49B2C0E5006E7795954DEAF5DA58958839043C6C70BD3B1B33B6DC5C31316D8A6923F142E26F6711A2258AF977DDF1F970ECC4F1F2B434B96D81BEB6E89BF3BBB3C7C8CC80505070723
310
D6D7D7D3C8CA27CA164A26024FED94B12A86031867241DA53D929636DA600F050BC40CE48B8BA03D69224720DEE2ED2127390BDF5E6EA64527BBD4C4C63FA76BB801FEEC0E61218EC98A8A86CD8313781617877E66692839B9468CF4DB8E50A73986E558E309C0D6F676F921BE02F1185454DC75B111572FF9D27D85EA14C0
310
5AD7271225B391C4275659CA4A43759D0BA44639BE4C30A84DB7F67A41399FB95CBF923B1B1672ABC807C1590557FB18D811983FA97F5E609516D62281D38B1281F68FC75528C35E4CD7DF0F7DBB5E5DD69C414EBEA2F4A5B241B996BA77AE6C772E367408C633EA3E438B68563EA8BE7667F3A4C4FDEEA52ABD78A2820F44
310
3B7914A15F180018D231E64519C56A12F6CA7C8DAE18F06F6B769DBF92329EF6A5D18FBCE600F36BD8E8198DE5CDAA96181F3A756EBA5501CEE58F497EA4F418A2B82565B9BCC611713C0B708CCA1F398B78C5F7D03B3437CC18F13061F55C7BEDADD5ACB1DB0E36D3CE47FF6EA1A563A57E9649EA5D14D1A50EAA45746338
310
1C073777EF1600607BAF6428A7DDC079D47A204EF1E1F1F0589FB054D45E02CE623B3823C317C601E589E22B1E88B448524B86A82828E32345EC18AE17214B42F8C41C6D428016D9BA31DDCB47572561E5A402E5BA4FCE55F78AF7268524AA04130F3A20BA5D1E9F9948EA48FC8F5314FDB35E21898198060034ACE5E3E2BB
310
CA34092518F275190AF65F45867FF0900AA4B81F25427414C372BF51DC29AA855C5428EE1EEDD6B849AD60F6E73475C2D2523F8A2772C840A478DED18A8C5C91B085F255DC4F54EA7AA8947354FD17ECF8FB3B4A0DE7B483CAF3A1165EE05BBA413E5C1FEF3DE1D6B8F2F3F3251C17D9FCAB48A9AAF63AC773A0E413BBC46A
310
9ADF84A566FC920E4D8C52C9769EE3301CADEEEDD92B312E02E2A7E35B7F1E7D203FE5A7D75578B06E99D0E46FFADB8FDA17ED8880390DA29094202D6F645F76F6F96409CDA05495A96E84B04A00D1A6C6C81D7F3DE9376E828CCF144EE50E364ACCE7237EA0BFB5607ED1AC3CFE73794E5B61739D14DF1743441B1AC98F00
310
ECEDE9E7301FA29755FBEFA68C91EF2B314CF510537EF1ABFC9A762496280B546F5EDAAF8A5B387D469FC9A878A92828C88608453ACEC6094DCA54111E7AD5B2663DFE2DD151B7F123B9F4FEF8EE36AB125FD7AD52A59B1B765B3E3F73E3F73DEA93875004D2AFFE3CDE9493B87A9904DD052028949041A91DC0E1BA47BA71
310
4343FD5B25E0A6A09503AFC17C790058A836A324FE31D7893512E28230332F153181C1E018E1124EBE1BA262AA428A518237D1EA7275E48C5C561BD19ED6912EDD8367DA0F31E40EEAE9683DA9257525AEA7B632B97119E17145A90231768A4F3B9120FF32E8319B015E3CBE26F1A754177D8185345817C096B0CE443A955D
310
13AC15E1FB5DEEA0239EC32A3C92241A237B0B02FFCB4F93CF2B02570C8D192E2F2A68CEEB42F12E6F8CEEFF46C251E22B4341C56FB08CCE550E7A9D6F4D6564B9EA52A83D5BF2C6E03FA19D2775E15A8A7ACF30A13C259EE7F5EF2AC3BA354F1500E1A07FC63FB4686E2F12EC69719F9ECF5FE3F35598DF2CE944008CE78F
310
0911BA5BE5D0A34E0098FF038669C26030BA9B300303039852A8F6F496341737CA7E0D2E3AAA36DE0A70AA7D9CA0D54D9AD84B18A44C9E625475E1C97B93BEBB38DCE7D227E67A2D00F531436136355F243D1FC0D712C5765754FA22FCFFAE97919161F46D6E61ACB37D83777B385889770B50765B127768443A5C4D3A4E35
310
A3151111F146B7CA116F918A049F1C272F2CD7976C69A0068773451659A97E0F4A08FE604C3FF6CE7385DB19F4D3ABC8A0D80DA8A42096AC377DB49382B36E270B6FA7570188B4B7D1DDDDA82ACA487CCA5D38BD3BD039ADBAFA4ACFF27809239B722081E2EB9F145320553D183F28471C388BC8814E5045676767AB58A8E7
310
2D1CED2CA731379515D2E533E4CF0B39DFC625F97AC4836831A4DE330E87A8126FA17EBE583D614E71E22A8DBF2825599743E0640037303E8E1B1E8EA4E1ABFA4F62907B5E4E0E5DCFDAB417C36C6848A2B8D15F1E505434C0707E16B1CFC2A1C36A42BBF55734F8F4301DDC2A5110CEE8C0747F69519265012A2174BF4E95
310
5ECD4FDE095A3ABC70536B7AD0B9D7892F81287D667C108703C9B66A221E9A0929D030008F77FF6F5D2108EF5706FC87A3069B976F7C9FC3239D13D283CDEA83597461079FEEE049B0F392889898B7D87D31F8D60ED7B56B91823A8E4EDDB36C6172ECEE42BD42B12CD67994FA0F0DFAE9389356F4CD4425A4B8AA55CBF7EC
310
D585C6A2C2316791E43D5C06841ADBB226A87FD61515FFBB0167B74E56BD7F3E90A57A97FEDCBDF483A0D6699A8C0849CAEB4947FAA90D8E332D9DEBD9F4738C37DA0CAF9CF3DAA68BCB67C420459C7A64498D6E848E5CADE92BB6901F607AA331104A67F7CD650EE169B1DAE94D2C31C2F993632259B6957E246EFE4C5481
310
107B07118607700040E5812A2A2A38DA0076875258C753F60E0F2662C748EDD5F3F3686B8FC3BD6FE631ECCAA1E8B1C1E565AD117E54893E79F4672E32F9E46B2A183DFDCF3EECB4D4D077DBEA0DA254D256045109670050129E9B9B1A9E4A11344D61497A992778095151510C4BB7EF2009B63AA4360635312E4CF668B7E0
310
D3D85A8688E2BD83B569439892ADB63461930D428E0DE42E4AC57CE48DA5CC1449530D8BD3D6A0F08DF20C8E8F570F2CFFFCEA286E30969B4654D498A58D9DA782E19FE3F002181838925592C4A1EF0B332D88B61A92C644547BED490D3A42CFFAB70E36D961F694F6307F72FF15A1C79D5B1B5CEFD353D9E2B52566DEC8F8
310
F09CB3E8359C0F68EBBB7898243E34E12A015B2685AB303C04D3A9E00671FF3DFF0A184E4A2ABEB2B666AF5B3A209C73D8EF29DCDB069C9F391EEE9DD0F74C7BCDE16F8F02E3B8816122BBEB50665775B600549D8BB33A54A6BF940C028118BC6878C79958D6784F9DEAA6E26748386FFAF8D0D0101E2847B6563F5D8DC1D7
310
8F787BE00E2C941AE12148D4A81599FE8F68D4DA5CDED75530ADE138240300EE13B0FC13A1687FED6774662C05A2B7DFB186732F0D7A93545D8B0A6390AE5054D9CB582DA846D7A061B3358B45E2B52DDE63E114397EDB7E09233A579155D795BE76102CF277F4DF8B188C4F2879BEAE3C08347124BF9ED23B128259FE107D
310
31E34A652F090B30B39E0D9AF917B76A2806135621A8A60681F16AF216514BBD02711585B5B1AE823F4B2D0369EA5B6BCB863072727FFC871CA6C9AB79A814D989057E9470A3D238BC87CBB4A0EA49AFE2B86F22E499793CAA9047080450166BDC357524561E258C77CB697F1ABB32562CF87C3B7AA12F911EF19FB3E5C022
310
22E887D08202A60A17151F5E053A86B437771088B4FEE14D652C43E8D939995D34545E12E2FF93D4E366EAD25F10CB7DED141563C3D0C447AF06078A91135FD4B9611583CB4BF3BD167F2399CEAB0E0100F8FFC305F00F1711717173138B4B48C83022295DE657EFEDD97F238ECA80F528AFB4F8D67AD4E2594B9A3AA86D74
310
87EFC313BA95745C186F0CDD84CC12DC9CB0424B42203D351FD9C0A3AF10CC7F388E0329279087386421F194F4A29464C1DEF7EF8BE515E4A199DCD5B909342598D8FE6A231F71336248D5CEC5454455C7BE383B3BC7B260FED27F703FDC39A170F3827239102F59D4DEE7FEF82EAA1A5E4BA94DCC4CC44E7E2EDE20F24244
310
E4454369D2E87C3F823F193FD4FD27E1C23984B01898D15ABC20711A8A558054951A6AE280096BA36CBA439603B7B0B4C45F248C14B2383B4B5CD8ECECE4FF859AD4A6CA2326D020EF090F4041D28DB66E5256B56232CC52829DE8060BAE6BBF37D4B7469B822454FE93210A3E8D15E69FFCF01123222611C51C4FD0A041A0
310
CFA2471CF6BE38D2B20FA4C3525B5B8B586759475CF80ADFE67A284AC24651E52B8E683D24C2622642F27E7C3C22783BCF63648BC398BD6CD0D9C97E7E7E3EACB6126DB7A6C1FD9F1031302EE67ED96F22B77C7CA0239BB324207559B105E4693EB26EC46182A92C9C0DBD24F29B31C5C5AC1F84300E0E17CEEAC15F5736FA
310
4A98971E2F1423BFCD68D4BBD5F86E74B40A369F39507C88FCDB35D2DD8DEBEA4AF999E23CF2816D204200DF6E611781B9884C1AC8888B4DE397320472959434323A5A36B22A8E1F721A270DF3BD65E4A31C11FF048AFB0D8B7B6881423793963A23CFCE935FC189ED36FAE35C46DA3574C979E4394BE52084F3081837BE03
310
3396D2EBD80F1F691B273F660D2B32FA27A33B1DE4ADA5F0FA4651511102DFA410DDA86E065272CA314D5249DF91B06BB92807B28EFD54F08F7B525252782CD276DD02E6B0319B13DF87B1F6361AD6B28FC0D711CF445429B9E5A433CD493051C49A9E03DDB1B147D880253514A5DED88009018620EE229101C041950E2D8A
310
A8E1F5F5438E0C0C0C60EEDEE9E3E0C051948C69F84BB7B2A48A1F3C8EB9E6864687F4F4F6F6E2FA87608ADAF9C5E117B7C1A737E710769DA1D15ECE6A84502AA855398712D5FB51BE92E4EF824969CE18278798AC303C2C7980DD2500ADF8FB1E6D6C2FAAFF9987178923334A244758BAA01A9A1B70FA5097D01E1CC2A58D
310
AD0EC94CE6430AA9B0C10D75E3C6BAC670EFBADEE1607739CE0FC18A2587E3EC3058562014C64219C69BC269082D5C2F4A659278D585755912176D78A1B641719C2A394CED495A1AC5D583FD2F5EDD93308EA7EAE8A6DD396598BDBD3D4CFED62D18A5BDFDE0DD5C80D1A89BA62697B131AE7CE9A6594138582F1B37D68F17
310
49AC7CB67A70695D48A4A056AC1FBD4E82358CEAE38F54B95A9016F9000F9879C0D9D131768635CA798895F27D6F1614F11F2838A83611AA51C9A3DDB539D42979C29F10465655C17BEC3E2760B80DCBF609198C7B171A531905F3EC218D696025975E986C6B4C666666787271F202805577DD5A3EF0CAFAF91B62DC4B2DB4
310
217A7606282F31D8DDBC290593BAA93EA6353AFA9939B877978481E15CFC9F2755CDC00C538F63A4BA3E80AE009B73CA0185687D339A507D165B74290D6EE46D5C58148F020C3668ABE9EF2F7549170DC80DB41FFC1D678FF19AEB10C7133832B104B80F691B3138F97A92D26E551F1F110400D45AC71A9B9AC41A1A1B1DAE
310
ED0B0810638EFFB511D46B121C6FEA0F38CD00E03CFFEB9713FE1F9C263E4DDEC160D0497FA9A132BA608584057FB15380825DE6C7FC3C667EE947D488A09898D8E939C4953BF4EC9836344D2CC6B2971B2A21A572B06096F4982D2CC7232D46E8EA69DC83722E267754D777F97F96D5DA74E1E75178084D0E70F12AD33E5F
310
71EF2AFA599B2BEBF60A5BE475F444F240CBFE8143C334E7ED9150FEEFEF7EB020C4DBED388DD1D6A167A76F3CBF119B578AE8CFA7736ACAFA4440A1C47185638A0D2F3EB5BDDEFDA958FB13CE4AA4923D5BF840392D45544329525749734866684BF7F8D9D54D892E19BCA9F829A0F8BFCBEEA6CFDFC61D74EA1A645ED7A1
310
FF241739F15694BD835B66FEC5677E40FE69BD3F91AE402F036537218A401CB0828604AD189E575015C6F3F6BBC8AC79CF6C70653847254B31551EFCBEB5978B9DB85D58D0FA41A9DFE9C624834AA04949D24B5AE6D299E072D152D12097920F14AA92C31C3B97E28B6C2E6E9C23D63043ECBBC0A60FDF5BD0C33C127EA8A3
310
308B8B6AFFEB28B4455BF6E7AF4FC6222728357EB8E46E85053E6A8843AB23295BF838ABDA94658FEF3F832F147046B4ACD6F7D48E8FCC9618582961C898D1C7A253C91BFECBDA6BA18A1FCF70755DCCEE2222F41B76D23CA98D0CB3D95F0CF66D57FFF65E2A90F5DF40FC3187621E981BD0BC1D992787212688976B94A8F0
310
C6EF646624B570B78E068826F87CE27041A95C9A4871FF65CC17FCB1639629AD6A9517000D63AC231F3D741CB8430777E7ECF80CE7A3F73C0F162F7E56AA71F4DA80A33CD6ACEE78E2C11FAC03DAFCE929B106F8F6B3ED2DC71FF994BD9CEF4E9A94896EF1B6E2B7B4978168BCF0847A3D2A4F1B0500B926E634B174548E9F
310
BAD27153FB5FC36799B1E6C7C38A94E1F9E996796D7B485E635D5287A2AE76FBD11A341DB3F8F810385BB7296391973DC6C37C452A9305AEBBE0CDB6C566DB59FE60C8E94B1FD090354BF51439FFD1B48D725228FFA88C84F686F547107A7A235665A4593B7C34D748C1AC8D56DD5DA861EEFBADDECBBD65117E65851F9035
310
1AEB65F0EFCFF4BCFEF24CB7A5879699FAC437A7AF9099186CF006BB923A59E37D7A36A29FD8D2CBB914A5E9D0A8FD212FBF796AE9A67958FF1D5D8B85F78F96219D4714EB919929241B6C018AAE0C02069F8D919961EC5DDFBFB7573E3AC8E08BFB7C8534BE6DE045B3CD63DBD71F7638BA2309CAE398EA3A7D8F98BBBC7A
310
EB367EFA5CFA27A9F8F2F52FE878058E6209C026453F8E7E8A237DFC389E9590F6059B397CFD65183BBF936E86896612A5B5FEE49DAC8455D026218AFEBEC12B3523A45B57B82C9C97E02ACFA1184DB18E48CF615DBF39C3CC6F0B4AE6BBEEA2E39D944E290302FA3DE33FA7E40296E2EF7BF1CD855BBECFAD0FD622BEE974
310
6FC4FDFDE545AE6E3BC234CADF83A0FB76DFB145BF3828AE3436368AC24989454F8FF70A177672C711CAA1A76107218CF948CA01F873520E7A2B118EBB161ABAD432932029628B6761590C98AB590C8C8C79798CE9F715BA696E839E9131A4BB68BE923F1747FBFF165331FFDD4D05997ACD168F12CA75348DAC04C7F509FE
310
83898A8B421181AF492861CE81E4A2DD0A30850CFA95E05F097FF70F9E777310D584A75BA7018922E271DAB1D785671157685B7D383D3E074DDB4F1E44EF04B07BAAC75A062077C54B9752C738C9D804D402E02851F3F89605AF189738C18C021D2139EAF72513824E10DDD3047BACC8521ED7E98B257D1166903B1B08FA6F
310
918FD7E162913FEC7D0EF4787E29C35FBA8C6E2C9C20E9AB30AE42CA2A01A090E7D010C1B5BF9CEE2A304BF3A987FB40D836979B79E18D70F257DA61E808472DD85B82761825779D6B90CAEB0F23360C6F80A7D7D77545E95B3DFF0CF96A827F9B5BCECD2C9698718417EF80FEEDEE938AFF55859D0D540B7FE09435583A6F
310
04874A0C7E8CF234DF4879722000167F5872CEC6BF3EF7E5A8CC8121E6A359227C8A29C95212F9F735BC72A887D56B8F309FC525BFB4FD767AAEC4AEFF249CFBBD2DE1AB9969A6155C7D8DABC307E47324C1F916C7BCFF40ABA5644E9FFB9238D19ADADA49D9610F01ABBA57E4DFCBDCCBB2B93C8953206C91DE01B0E2651A
310
6D6C31721915B31F7B7CBCE55466F6D70402788FA91D73BE4ADCBA99A35F17D6B83383704917D6833F0FA3CD45C926ADB8BC17999A4A0AFBCE2541F7B8CF4C2F5FBA611B3E626D64407CB32C122DFF4EF8674D6EDBB86C8F7C6A16D50FA685E2CCA34F8F7D1D8265BB0042E9D7F1F666F7BE5FAA5184DF58E12122A42EF02F
310
461B3F369AC746F96528AD208512AB56844CF75B97F352DF7995024FB02855385854F3798670D01CAC771AC3E1889EC25F61A20C1F8CAB46898817F9C47E2CDA1F286BF2F358298709FE567C91133E2638C8B53975E753EA8BFD3578B5F7186B7BF084EBA3F77BAC3132A5779902EC22AF2D2E79F42D324E083386DAEE9810
310
D1B44A5DAA54513C7A71E52A4AB9257D975B621308FE4D2141CC3DCFE946C154A3C1DFCCA7629EC69ACFA831634ADDA93C0388D2A9A2DDAFCF957C6995BCE7FBB6DC4EBAE79E63EB08E9A25F52F67076F7093CA545CA3053B5BF576DEAD4E0017143C5F759F32B2D6F145B52B67B48909B7C7FCA6586EE385A2189C16932CB
310
6DDFD9152AE317C430492A578ED27B72D85D40C7C93C097939E1B50F4D67F05334FE9DC362C30B7FF561B95259138ECFD9274C8D695C31B14D4EAA9F3D7FA8DDF652F8C5DEFA23284C799B7D94416DEE81E05A866302DC70192A5368EA65E1CED8BF107A1E2D3119A71E85DC1A7B0C1E93274CE04DD0F2ABC8AC7C987FDB00
310
2B6F81757B43502EF7A0D92E416494FAEEA4C9C090CD9557AA4D532F4996A272B94355C5A0E4974EEA9627476F30809B94D8D8D860062E02204643BEC7D0438AF800FC7E2B26955D595421E83C69E1A07E0E3122285835F014AD538188CF9737CE76D464A353FA55A001AB2526B84E985083693BC76FE211CA1D000679C889
310
E3C009832C87E1AC2EDD05C302557422DF0800E316FCAC86978A371F025A6C7DAA9F333E7BD160403A1A06EA75AA9888FF01504B03041400060808003051575751464CB48900000043010000360000006662782F36383033433832452D314530352D343346332D393132302D3538333641314444463846462F646972656374
310
6F72792E786D6C9D8F310EC2300C45AF127987122606C71DD918B841D4B851A43646695A717C52A85029031293A5A76FBF6FACEF7DA7264E43906840EF0FA03836E242F406C6DCEE4EA06AC22492573150D1F66C60C640E8938CB705396EEDD86DE9B5042FE27813D640EA63BB001C722AF6E55CB61E4863F58284D5D3F53D
310
D715CE1C3985E63FD7F1B7EBDD617E9F1E504B030414000608080030515757563DA90D46070000541C0000340000006662782F36383033433832452D314530352D343346332D393132302D3538333641314444463846462F6F626A656374732E786D6CDD595B6FE23814FE2B56F665F72124214061441915282334EACC68D0
310
ACF62D32C1506F9D8B9CA4A5FBEBF7D8B1439C8692CE455A6D2B15EAD8C7E77CE77E327D7F8C187A243CA3497C6D793DD742240E931D8D0FD75691EFEDB185DECFD09427495EDB67A11847E4DA12CBD66C7AE04991AAA51DD9E382355757F3BF5016929858286438CBAEAD2CBC2711EEE1224F76247BE8ED708E7B87FDB1E7
310
F5CA8D26D903C7E97DE3AA147312E7C02AACC7404571E099FF8248CE6CEA880DC636BFDBB6FE2BDB1C29B8C9288DB31CC7E10BAE1AD7F5CF70D5B8CEF706CBDBFE70620F0703DF1E8CFA9E3D5FCD97B677E5BB8BD16231B9B99D586836DD2609AB14909278075A7CB666DED4114F2AF1150A6D7C87491C9350A1D9B6614714
310
5D4AB2262606B09E14ADA69052D6DA82DF51F833DB3A8162B064A0AD85D39F75EB4DB67F030859172BE51911569EE51C74ADB02FFDC19D3AE5AAA1179AA108E78453CC10A35B8E392808B6960A32C8086F11A490C04C6A51D3ABF30A867DD997DAB8DC178C09FFB566D2D302F04792679233FA0FE127EEEBB7014F206D41E3
310
7CAC84CD9F532031993A72B17CE6F7D5C31248B467F800D602628A4D7EBF81D742C482F5D29A7D5C6D8F1B111FDA2F4F7992129E0BCB93CEACFC4E6BB0665A607C1D40297135757742E52B40FF0990AF784153D01CA7C7C171A065E738CEF6098F403BC845B60B7F5C24BEBEF83675AAC333848C58790E5370DB9F84A92186
310
71770DD2D9F4118C3EE1BE126E136206367D4763E1E760288825B004F17EBF3D5AB33504535884539881F4F03B75C457041F251D88370D0DB585DF0E8AD20ED3F4B393AE3E80CD701A56AA32643C87EFF0A7E07BB3DC7CDC147C8F4372A71C7B49F634A63924D376860CD00D97FFB6FE243DF2034BB6989D4E1B9B42B8E690
310
88B8D1A2968D520B927A014E441A2E352357EE28783B6338264991A9F5B63815262CE1C1F639285DB8F5AE3FB50D94972903688D6590DC434E5381893553DAAA0261AF26285818E6CA020FA556836D11A5018E922216A1F6A52936F98038232C11A84A6ADAB0B5D76AB23BBADF171904AF56920B0348E5CF9A7069E1038863
310
6DFC72B2E71892681207147230384BEB0DC6051578AFF39C11B60F28634514EC29833C1244383D43BFA304F5CCF5409E9F12BE6B25685A96F6496D43027005AC064967AB32E62B9D72F248459929F399CE06C60E55875AB3C199742132450BA0DA18A5998FE6CBB9B7185ED9CBC564610F86ABA53DBF1D8CECF960EE5FCD97
310
DED58D77D3E45347AB7ABE03558A32C7F0BFFCBE88B631A60C1E08B1F12E7DF75E66CF6B0742A3331ABBFE62DCBFB5BD5B77680FFC956F4FBCBE6B0FC7FEE8C65B2E57E3D5CAE1244B0A1E92CCE93B6EA04D328D0FE7B8D2DCBD8CA150D65C4E765A5F4D61FEC731B499130C25FE57836815BB5A0AC2AE41541C6D86501C3E
310
8814158450F5B5BA4F238836F9688B736F8CCB6ECF77E58FE74DFAEEA43F9E0C871DC39EBCE987235D9B0C21749E451E24290E69DE9E521BC87464F94DD9A5E77BC3121BFDB7DF478057E7D58AA9D73393622AA0113E90608F455FD1124A2F49DC9AF50E2CC9321A934CF6852FEAC5064DB707E59799A55BCC9666414472FC
310
3D162B1B8D86174034670174B0B998215CAC232A17503DCB398AA25F86542FE57F0E321CA5ACEC8D2F61E0F53504BA2B6AB350C1B4B8E211EC33C079E0EE881C755CA25EB1AF2B8A56AD35A94FBE9BFC19787425F40BE1D157742FB67A436F227EC610864643CF1F5D55AAB88496BE2C17BD1F2BA05B0D9F8327420FF79D8A
310
D36E5AA9957965219E93085A5F9C17BC93C78E209A68DBD202A9C8D07089DA4D6F2C2865CFA7BB3EB84C367DE74AE2DA3550BBD21866639D04792145AB114B5DC839A01877BDC1B3353617A9FE70C4FCE55576DDFD223930BA8C0354D8650856F1C7A8C35B2B75A386CA9E701E4228DDC84F7B0E1EB123BB533367906B2BEB
310
754D7BA9E25E8B901AC194178B487B27BEB0AF18540D1D77E67C280B3DA75C5F8BD4D68381F6890F836993D6E70F9B061558E97CFA8BC0883C3528A8D585E8A05F21F56D7D9A1334282889BEAD5F39FE9FE842B4026BA33798206709A330C8273B742009E46F185574E8507844329997C1785590D26F113A9C7E2CE7B039DE
310
327D3ABCC730CC66AA7F2B4218A442CEBCB6D43AFA0D46A7627A29075ABD0768DD540CB350C1E9B505169B53E8D07A5B1881C981A3A4DE18718263E3F820327E79AAFAFF744CA00351E92457B5A70B2E4A32C399A0144EE5BB05A8FBCA07B3E9F78BAED9413887AFDB22AF84392D9CA45120E89708A57030297C50F01EA1A4
310
785D2EAF27F71890749AE6BF6A0725553BC7FC2047F235BC6F965F1C314D5F7F46292B0E429DAF75CC06255B74EAAC28275753300C25668A4515B978E77CE109BC968AD08A8211A0DF8FE3D11FCE2289A2242E979C1BF5720B6DEEE155D5CED1634268FD5D6FECC8C9817A15106C71467A78973DC002A89653314F2D21360C
310
A08AA63503D01A11BA8063C6FEF512A9EAA83655A9875D018F7C0F80C091C4FB1FE136F50DB5A125F80270251F9EBEE885A9C361703EFB17504B0304140006080800305157571CA7A375E0000000550100003C0000006662782F36383033433832452D314530352D343346332D393132302D3538333641314444463846462F
310
7265736F75726365732F322F636E782E786D6C4D90CD6EC32010845F0521F568C0F6A58D3079899E7A89286C288A612D7EA2F4ED0B29957ADAD5CCA7D5ECC8F323ECE40E297B8C1B9D99A004A241EBA3DB682DD7E99592B39209B1FCC328893AC046BB4C957409EB31240B575DF7AEEE3EDE86282E0E22246F2E477494985D
310
E7BCD16CBE2068A66B410BF9C6AC2E9ACD2C41C69A0CB413C50718274C025DC052B588659D66312DEBFB2C4EE2EDB4AE1F927752C94FC47DF03E164878BC2CC2605B634B2424EF809235F941F5379AF1178FB57892375BC95C52EB6060E5FB68980FDA017F22BFAE92BC3FD9C6B381367B21EA07504B030414000608080030
310
515757FF15A4A45D000000800000003A0000006662782F36383033433832452D314530352D343346332D393132302D3538333641314444463846462F7265736F75726365732F636E782E786D6C4D8B3B0E80201005AF42B6F75B59F0390B113044D83508C6E30BC6C26AF226F3B8BA6360974DA7271430F523308B2B198F9B
310
80925DB700539227A2FCCB80A18E5640D320F996A81C9F32D6E9129A0D1EF74FCE750E6D57BC7165FBCA07504B030414000608080030515757111C0CD04101000056050000300000006662782F36383033433832452D314530352D343346332D393132302D3538333641314444463846462F636E782E786D6CCD944D4EC330
310
1085AF12596299FF0D548E2BB1E0042C103BC7990653C713D913446F8F5DDC16842A58542A3B6BFC597A6FE679F8FA7D32D91B38AFD176AC2E2A96815538683B766CA14D7ECBB2B5E00E91BE602CB372828EC532137C74B8CCA934C0462E26568DB6DB5494444EF70B81679932D2FB8E79F502932CE4423880DF16832459D4
310
85038F8B5310DE939E20BD570E24C1C04453356D5E5779D33ED6D5AABA5BB5ED332F2329788F6812AF2D81C3F9A6A91486A30D722A5E4640F0C5E944450F4C9CB415BDB6BC0CF782FBA0D78E89A3DD1CB979365A490A8D2A5111501E2090132F3F61C1CBE8F89BEF87FBA79386701AB40345E876576B437DAE0D47694548C4
310
DFBAB0077F338FFD6BB07CBDB99F359C845DCCEE21B93E44F76712429EA41DCD7FFC00476997CF7F582CA4D57F347D507621CFE57E0586C1C78D283E00504B030414000608080030515757231430697E000000A30000000B0000006662782F636E782E786D6C4D8CD10A832018465F45FE7B37CD150ED4182BDF23CA42661A
310
2EC71E7F3ABAE8EA83C3778E68BFAB431F13DF367809F44200193F86C9FA4542DA67CC01B54AC410F6D30D901F5623A160506289216D079ACC3C2457A8B3FE75C08613F6E4558F694F6A7C639AE13BAD08AE396B1EB4EB34D73A1BD7A2E4F9F7F296BCFA01504B030414000608080030515757A6D797065F00000082000000
310
07000000636E782E786D6C4DCB3B0E80201045D1AD90E9FD7516806B51190811670C8A61F982B1B0BAC9C97B72CA7B1037C6D3332918DA1E04D2CAC69353902EDB8C20262D23F3F59B81A079470595414B17391D1F19B4730A5583A7ED43BBE4025D9592775E5ADFFA01504B030414000608080030515757ECFD112DA80000
310
0026010000130000005B436F6E74656E745F54797065735D2E786D6C7D4F4B0EC22010BD0A61DF525D18634ABB506FE00510A79458060253536F2FD89D5197F3FED3F68B9BD80362B21E25DFD40D6780DADF2C1AC9671AAA3D677DD75E9E0112CB5A4C928F44E12044D22338956A1F003333F8E814E5331A1194BE2B0362DB
310
343BA13D122055543278D79E6050F344ECBC6478EDCD76CE8EABAE5449AE4298AC56946789C28AAFBEABC53F3EAF09A84A1441B91F0101CD4780756578C173A578FFDDBD00504B0304140006080800305157573DEE336E64000000790000001B0000006175746F6465736B2D64657369676E2D7061636B6167652E786D6C35
310
CBC10E83200C00D05F21DCA56CA76D41FC96062B120735B69A7DBE268BB7777961F8D5AF396893C2ADB70FE7ADA196782C2DF776D7A97B5933C430F15651E5469C55D70F80A4992A3ADC954792C525AE70A1E4D6AD9816CC044FEFDF01FE3FDE907802504B030414000608080030515757448C13F0F30000008E0100003D00
310
00006662782F36383033433832452D314530352D343346332D393132302D3538333641314444463846462F7265736F75726365732F322F636F72652E786D6C8550CB6E833010FC15E4BBC10F0824328E8A44BFA0A7DE2CDBA156828DFCA8FAF9B50395DA534FBB9A9D99DD1D76FD5A1FD5A7F6C1383B025C2350692B9D3276
310
19418A373880EACA99772EFEA281CA8A558FA0C080B3C5BBB41D9074366A5B50EB943E4011828EA0928FDC8C20C80FBD8A5AA49819E15E6F42DEC5A26B5CEF3CCE5232EA901A95DDCCCD680FF844F0699EBA1EBE74AF036C2732C0A19F29242732B7E716751DEA5953C49C45B3FE6C975E8BA815E004110A318284BE617441
310
E70BA5EFAC294CCE42F4F9E76369F92ED359B3A37FDCD2A6FE774BC6464A0EB75D1100C7F9B8E780B3A6A493CB33BA5C4B92FC1B504B030414000608080030515757EDF48B01F9000000960100003B0000006662782F36383033433832452D314530352D343346332D393132302D3538333641314444463846462F7265736F
310
75726365732F636F72652E786D6C8550CB6E833010FC15B47783311048641C3512FD829E7AB3CC865A0936F2A3EAE7D74EA8D49E7ADAD5ECCCECEEF0F3D77A2F3ED1796DCD087549A140A3ECACCD32420C5732407116DC591B7ED1A03072C511320C822FCEC66D879435014D468D9D7107A5F718A050F7D48CE0D507AEB294
310
312486BF959B5437B96059974F9EE031EA7997EA39B9E9AB4607E2C2EAC374E97AF2D2BD0EA4BDB0810CFDD4107660537B6C69D7D19E57592C78D0EBCF76E550069C4130CA1A5253C29AB79A9EE8F1D434EFBCCA4CC17D70E9E77D69FE0E84436FA353E879F59CFE718DDBFCBF6BD426346C777D2A3C883A1DF918085EE594
310
527944986A4E547C03504B030414000608080030515757ADDFA027F1000000B1010000310000006662782F36383033433832452D314530352D343346332D393132302D3538333641314444463846462F636F72652E786D6C8D50CB6EC32010FC156BEFD83C9AC8893051D5C45FD0536F08888B1283C5A3EAE71762576A6F39
310
2D9A9D6166879FBEE77BF36542B4DE0D405A0C8D71CA6BEBA60172BAA21E9A93E0C1FBF487068D93B319A0C220F8147C5E364879978CABA8F3DA6CA08CD12468D4BD3C0688EAD3CCB295391546BCB58B5437399996B42B4FF064E75FA90A4626A341504C19221851F64EF0111F8E8C7DF0AE3205CFD9EACDCAEAE26EAFD604
310
10FB1EB3B79E5E10B9E01D7A612343074231DAF56CFF4ACEE7B11F47DE55B1E0318572F3F649BDEE59F92AFC97392FFA89CCD6254637C35511419092E7B110BCAB0596F168B7CC5AB6F801504B0304140006080800305157578646097253010000DD0200000C0000006662782F636F72652E786D6C8D52DB6E842014FC15C3
310
3B8AA87B0BB2E926DB2FE853DF58642D59058360F6F30B5E627DE8B6314132E79C993313C8F9D936D1204C2FB52A411A231009C57525555D0267EFF000A23325466BFBA30D448AB5A204010694D446BB6E86B85656A8802A5D8919647D2F2C8878E32F25E8F9976859CC9CF51DFD23EE187FB05AC4693CF551E29CACE65159
310
79367997C2007AC1E9EE7A29F6F0AD783FC0FC820FF0B0BF6610EFF0353FE6A828D09E246198122BDB459D1BC1ACA800C50867304510671F293AA1E329CB3E49123A29E9ADF19E67D1E00ED0FBED499209DFF0B9AEFA9BCF4965333CF34D133DA0A95F6F2C5092847CFC6F0C6F9BA117F6F959766B160B0F0F0D825B6D725F
310
A9B45B4B036B9CF0D4281A3F924C55CF3C12FCC6835FF0BCE6F0413155FBD598F5D79BB3417DBB53270C1CEC3352DAB4AC59979B565CCF5568636919E7BAD1E63FD38BD525CC243C4CFA0D504B030414000608080030515757789D5E4507010000B201000008000000636F72652E786D6C8D50C16E842014FC15F2EE2882EE
310
BA1B645313FB053DF5468575C92A18C14DFBF785D526EDADA74766E6BD19865F3EA7113DF4E28DB30D141901A46DEF94B143036BB8E21AD045F0C5B9F04B06C8CA49379060107C58DC3AEF50EF6CD036A1D629BD83D27B1D00F5637C34E0FB9B9E6426D71015FE9ECDB2BFCB416745B6E9040F66FA59ED172D83562028A10C
310
170453F6569033399D197BE779520ABEAE46ED5646457773357A01D1D2E2D0B5D511BF54AF352E5B5AE3FAD8314C0FB42B4F25A92A72E4795A16DC8725FE793F127306E4E523F9F27CA304FF706EDC05319442CE8E5F2008CF13F127F43AAB7F84363630BA1FDC363C8822067A12D1383518C7B3DE3853DBE21B504B010214
310
00140006080800305157570000000000000000000000003700000000000000000000000000000000006662782F36383033433832452D314530352D343346332D393132302D3538333641314444463846462F617474726962757465732E62696E504B0102140014000608080030515757000000000000000000000000350000
310
0000000000000000000000550000006662782F36383033433832452D314530352D343346332D393132302D3538333641314444463846462F76657274696365732E62696E504B0102140014000608080030515757F270F13306000000040000003600000000000000000000000000A80000006662782F36383033433832452D
310
314530352D343346332D393132302D3538333641314444463846462F747269616E676C65732E62696E504B010214001400060808003051575788E57597CD3F0000904100004200000000000000000000000000020100006662782F36383033433832452D314530352D343346332D393132302D353833364131444446384646
310
2F7265736F75726365732F322F305F67656E657269632E706E67504B010214001400060808003051575751464CB4890000004301000036000000000000000000000000002F4100006662782F36383033433832452D314530352D343346332D393132302D3538333641314444463846462F6469726563746F72792E786D6C50
310
4B0102140014000608080030515757563DA90D46070000541C000034000000000000000000000000000C4200006662782F36383033433832452D314530352D343346332D393132302D3538333641314444463846462F6F626A656374732E786D6C504B01021400140006080800305157571CA7A375E0000000550100003C00
310
000000000000000000000000A44900006662782F36383033433832452D314530352D343346332D393132302D3538333641314444463846462F7265736F75726365732F322F636E782E786D6C504B0102140014000608080030515757FF15A4A45D000000800000003A00000000000000000000000000DE4A00006662782F36
310
383033433832452D314530352D343346332D393132302D3538333641314444463846462F7265736F75726365732F636E782E786D6C504B0102140014000608080030515757111C0CD041010000560500003000000000000000000000000000934B00006662782F36383033433832452D314530352D343346332D393132302D
310
3538333641314444463846462F636E782E786D6C504B0102140014000608080030515757231430697E000000A30000000B00000000000000000000000000224D00006662782F636E782E786D6C504B0102140014000608080030515757A6D797065F000000820000000700000000000000000000000000C94D0000636E782E
310
786D6C504B0102140014000608080030515757ECFD112DA80000002601000013000000000000000000000000004D4E00005B436F6E74656E745F54797065735D2E786D6C504B01021400140006080800305157573DEE336E64000000790000001B00000000000000000000000000264F00006175746F6465736B2D64657369
310
676E2D7061636B6167652E786D6C504B0102140014000608080030515757448C13F0F30000008E0100003D00000000000000000000000000C34F00006662782F36383033433832452D314530352D343346332D393132302D3538333641314444463846462F7265736F75726365732F322F636F72652E786D6C504B01021400
310
14000608080030515757EDF48B01F9000000960100003B00000000000000000000000000115100006662782F36383033433832452D314530352D343346332D393132302D3538333641314444463846462F7265736F75726365732F636F72652E786D6C504B0102140014000608080030515757ADDFA027F1000000B1010000
310
3100000000000000000000000000635200006662782F36383033433832452D314530352D343346332D393132302D3538333641314444463846462F636F72652E786D6C504B01021400140006080800305157578646097253010000DD0200000C00000000000000000000000000A35300006662782F636F72652E786D6C504B
310
0102140014000608080030515757789D5E4507010000B2010000080000000000000000000000000020550000636F72652E786D6C504B050600000000120012002D0600004D5600000000
  0
XRECORD
  5
1139
102
{ACAD_REACTORS
330
1138
102
}
330
1138
100
AcDbXrecord
280
     1
102
DISPLAYNAME
  1
Imperial24
102
FLAGS
 90
        0
  0
CELLSTYLEMAP
  5
112E
102
{ACAD_REACTORS
330
563
102
}
330
563
100
AcDbCellStyleMap
 90
        3
300
CELLSTYLE
  1
TABLEFORMAT_BEGIN
 90
        5
170
     1
 91
        0
 92
    32768
 62
   257
 93
        1
300
CONTENTFORMAT
  1
CONTENTFORMAT_BEGIN
 90
        0
 91
        0
 92
      512
 93
        0
300

 40
0.0
140
1.0
 94
        5
 62
     0
340
55
144
0.25
309
CONTENTFORMAT_END
171
     1
301
MARGIN
  1
CELLMARGIN_BEGIN
 40
0.06
 40
0.06
 40
0.06
 40
0.06
 40
0.18
 40
0.18
309
CELLMARGIN_END
 94
        6
 95
        1
302
GRIDFORMAT
  1
GRIDFORMAT_BEGIN
 90
        0
 91
        1
 62
     0
 92
       -2
340
0
 93
        0
 40
0.045
309
GRIDFORMAT_END
 95
        2
302
GRIDFORMAT
  1
GRIDFORMAT_BEGIN
 90
        0
 91
        1
 62
     0
 92
       -2
340
0
 93
        0
 40
0.045
309
GRIDFORMAT_END
 95
        4
302
GRIDFORMAT
  1
GRIDFORMAT_BEGIN
 90
        0
 91
        1
 62
     0
 92
       -2
340
0
 93
        0
 40
0.045
309
GRIDFORMAT_END
 95
        8
302
GRIDFORMAT
  1
GRIDFORMAT_BEGIN
 90
        0
 91
        1
 62
     0
 92
       -2
340
0
 93
        0
 40
0.045
309
GRIDFORMAT_END
 95
       16
302
GRIDFORMAT
  1
GRIDFORMAT_BEGIN
 90
        0
 91
        1
 62
     0
 92
       -2
340
0
 93
        0
 40
0.045
309
GRIDFORMAT_END
 95
       32
302
GRIDFORMAT
  1
GRIDFORMAT_BEGIN
 90
        0
 91
        1
 62
     0
 92
       -2
340
0
 93
        0
 40
0.045
309
GRIDFORMAT_END
309
TABLEFORMAT_END
  1
CELLSTYLE_BEGIN
 90
        1
 91
        1
300
_TITLE
309
CELLSTYLE_END
300
CELLSTYLE
  1
TABLEFORMAT_BEGIN
 90
        5
170
     1
 91
        0
 92
        0
 62
   257
 93
        1
300
CONTENTFORMAT
  1
CONTENTFORMAT_BEGIN
 90
        0
 91
        0
 92
      512
 93
        0
300

 40
0.0
140
1.0
 94
        5
 62
     0
340
55
144
0.18
309
CONTENTFORMAT_END
171
     1
301
MARGIN
  1
CELLMARGIN_BEGIN
 40
0.06
 40
0.06
 40
0.06
 40
0.06
 40
0.18
 40
0.18
309
CELLMARGIN_END
 94
        6
 95
        1
302
GRIDFORMAT
  1
GRIDFORMAT_BEGIN
 90
        0
 91
        1
 62
     0
 92
       -2
340
0
 93
        0
 40
0.045
309
GRIDFORMAT_END
 95
        2
302
GRIDFORMAT
  1
GRIDFORMAT_BEGIN
 90
        0
 91
        1
 62
     0
 92
       -2
340
0
 93
        0
 40
0.045
309
GRIDFORMAT_END
 95
        4
302
GRIDFORMAT
  1
GRIDFORMAT_BEGIN
 90
        0
 91
        1
 62
     0
 92
       -2
340
0
 93
        0
 40
0.045
309
GRIDFORMAT_END
 95
        8
302
GRIDFORMAT
  1
GRIDFORMAT_BEGIN
 90
        0
 91
        1
 62
     0
 92
       -2
340
0
 93
        0
 40
0.045
309
GRIDFORMAT_END
 95
       16
302
GRIDFORMAT
  1
GRIDFORMAT_BEGIN
 90
        0
 91
        1
 62
     0
 92
       -2
340
0
 93
        0
 40
0.045
309
GRIDFORMAT_END
 95
       32
302
GRIDFORMAT
  1
GRIDFORMAT_BEGIN
 90
        0
 91
        1
 62
     0
 92
       -2
340
0
 93
        0
 40
0.045
309
GRIDFORMAT_END
309
TABLEFORMAT_END
  1
CELLSTYLE_BEGIN
 90
        2
 91
        1
300
_HEADER
309
CELLSTYLE_END
300
CELLSTYLE
  1
TABLEFORMAT_BEGIN
 90
        5
170
     1
 91
        0
 92
        0
 62
   257
 93
        1
300
CONTENTFORMAT
  1
CONTENTFORMAT_BEGIN
 90
        0
 91
        0
 92
      512
 93
        0
300

 40
0.0
140
1.0
 94
        2
 62
     0
340
55
144
0.18
309
CONTENTFORMAT_END
171
     1
301
MARGIN
  1
CELLMARGIN_BEGIN
 40
0.06
 40
0.06
 40
0.06
 40
0.06
 40
0.18
 40
0.18
309
CELLMARGIN_END
 94
        6
 95
        1
302
GRIDFORMAT
  1
GRIDFORMAT_BEGIN
 90
        0
 91
        1
 62
     0
 92
       -2
340
0
 93
        0
 40
0.045
309
GRIDFORMAT_END
 95
        2
302
GRIDFORMAT
  1
GRIDFORMAT_BEGIN
 90
        0
 91
        1
 62
     0
 92
       -2
340
0
 93
        0
 40
0.045
309
GRIDFORMAT_END
 95
        4
302
GRIDFORMAT
  1
GRIDFORMAT_BEGIN
 90
        0
 91
        1
 62
     0
 92
       -2
340
0
 93
        0
 40
0.045
309
GRIDFORMAT_END
 95
        8
302
GRIDFORMAT
  1
GRIDFORMAT_BEGIN
 90
        0
 91
        1
 62
     0
 92
       -2
340
0
 93
        0
 40
0.045
309
GRIDFORMAT_END
 95
       16
302
GRIDFORMAT
  1
GRIDFORMAT_BEGIN
 90
        0
 91
        1
 62
     0
 92
       -2
340
0
 93
        0
 40
0.045
309
GRIDFORMAT_END
 95
       32
302
GRIDFORMAT
  1
GRIDFORMAT_BEGIN
 90
        0
 91
        1
 62
     0
 92
       -2
340
0
 93
        0
 40
0.045
309
GRIDFORMAT_END
309
TABLEFORMAT_END
  1
CELLSTYLE_BEGIN
 90
        3
 91
        2
300
_DATA
309
CELLSTYLE_END
  0
ENDSEC
  0
SECTION
  2
ACDSDATA
 70
     2
 71
     8
  0
ACDSSCHEMA
 90
        0
  1
AcDb_Thumbnail_Schema
  2
AcDbDs::ID
280
    10
 91
        8
  2
Thumbnail_Data
280
    15
 91
        0
101
ACDSRECORD
 95
        0
 90
        1
  2
AcDbDs::TreatedAsObjectData
280
     1
291
     1
101
ACDSRECORD
 95
        0
 90
        2
  2
AcDbDs::Legacy
280
     1
291
     1
101
ACDSRECORD
  1
AcDbDs::ID
 90
        3
  2
AcDs:Indexable
280
     1
291
     1
101
ACDSRECORD
  1
AcDbDs::ID
 90
        4
  2
AcDbDs::HandleAttribute
280
     7
282
     1
  0
ACDSSCHEMA
 90
        1
  1
AcDbDs::TreatedAsObjectDataSchema
  2
AcDbDs::TreatedAsObjectData
280
     1
 91
        0
  0
ACDSSCHEMA
 90
        2
  1
AcDbDs::LegacySchema
  2
AcDbDs::Legacy
280
     1
 91
        0
  0
ACDSSCHEMA
 90
        3
  1
AcDbDs::IndexedPropertySchema
  2
AcDs:Indexable
280
     1
 91
        0
  0
ACDSSCHEMA
 90
        4
  1
AcDbDs::HandleAttributeSchema
  2
AcDbDs::HandleAttribute
280
     7
 91
        1
284
     1
  0
ACDSRECORD
 90
        0
  2
AcDbDs::ID
280
    10
320
72
  2
Thumbnail_Data
280
    15
 94
     1552
310
89504E470D0A1A0A0000000D49484452000001000000006608030000001376BFA700000300504C5445212830FFFFFF2128300000000000000000000000000000000000000000000000000000330000660000990000CC0000FF0033000033330033660033990033CC0033FF0066000066330066660066990066CC0066FF0099
310
000099330099660099990099CC0099FF00CC0000CC3300CC6600CC9900CCCC00CCFF00FF0000FF3300FF6600FF9900FFCC00FFFF3300003300333300663300993300CC3300FF3333003333333333663333993333CC3333FF3366003366333366663366993366CC3366FF3399003399333399663399993399CC3399FF33CC00
310
33CC3333CC6633CC9933CCCC33CCFF33FF0033FF3333FF6633FF9933FFCC33FFFF6600006600336600666600996600CC6600FF6633006633336633666633996633CC6633FF6666006666336666666666996666CC6666FF6699006699336699666699996699CC6699FF66CC0066CC3366CC6666CC9966CCCC66CCFF66FF0066
310
FF3366FF6666FF9966FFCC66FFFF9900009900339900669900999900CC9900FF9933009933339933669933999933CC9933FF9966009966339966669966999966CC9966FF9999009999339999669999999999CC9999FF99CC0099CC3399CC6699CC9999CCCC99CCFF99FF0099FF3399FF6699FF9999FFCC99FFFFCC0000CC00
310
33CC0066CC0099CC00CCCC00FFCC3300CC3333CC3366CC3399CC33CCCC33FFCC6600CC6633CC6666CC6699CC66CCCC66FFCC9900CC9933CC9966CC9999CC99CCCC99FFCCCC00CCCC33CCCC66CCCC99CCCCCCCCCCFFCCFF00CCFF33CCFF66CCFF99CCFFCCCCFFFFFF0000FF0033FF0066FF0099FF00CCFF00FFFF3300FF3333
310
FF3366FF3399FF33CCFF33FFFF6600FF6633FF6666FF6699FF66CCFF66FFFF9900FF9933FF9966FF9999FF99CCFF99FFFFCC00FFCC33FFCC66FFCC99FFCCCCFFCCFFFFFF00FFFF33FFFF66FFFF99FFFFCCFFFFFF0000000D0D0D1A1A1A2828283535354343435050505D5D5D6B6B6B787878868686939393A1A1A1AEAEAEBB
310
BBBBC9C9C9D6D6D6E4E4E4F1F1F1FFFFFF0000000000000000000000000000000000000000000000000000000000002E4550F1000002CB4944415478DAED9C4B8EC3300886B9814FE203E5AA5DCCC63B4E35F133C68F34A34AA3991F5055B58D377C81DF80A312FD357B1523ADF6524380993501E085FFBC5AF51A0CE87E3F
310
316000E30F3EDADB55C029F0C12A1400C100E003E8E4CD3D31C6BDF1D1BDFB08880B1C3480772960000C8001300006C000180003805B093E30E01EE8510490013000060017C068015F02C708388405F91593800070DC02D0A001C756034E3A0A52E0D802386B40CD1190B25F310057AE6905505A20AD005A0BA814806B6EEB
310
04D04D00340210B5DFA1A11790C54E102E6B888058085D4E9ECD50BF520180837A006E68875101F841035CFBE636007CB5F2E95FBBCF1B0069F77B07C06300F00B00590BD7003C54022400ED1191046037112A03114F7800B212B63AA0157F73043830FF93081600AE02B88ABF0500D08391F8C6791BEC8FBF6600CCD000CA
310
4CD08F33415F6782F299593C00FB87E3A62786993001A4F0E7310598F26EDF52001740BEDF530074A1000E40B60741F40BCE797800B9005802A811E06700A92BC0D805D2CB2D00E4E8482910DDCD00305A02012097435CCB9D3A15E6921C55033CFB0E00410148FED683F032153E01D476E9D2008866780DA0AA814B23B114
310
126D44D28BA0874C814BF3F2484CA8A20480B30BE4BA560248A11F4AEE6B04509F084908F40128154118F6C50B00230388A27FED021141BD54004035839308CE75408C802C060A00A4909F2BC12206F0004AEAAF7A818200BC1922B9EBC96E3007077A3778D70E9353371009FA0622CA01D07D0A10BE081A000360000CC01D
310
006700E000F4077E2380AFF03503803B1CED51BC8B0042F4DB00DC00206400F560A31E6FF81940FB0514803CD5E8012CFE410D1E809729305C52A601039EDD1A68001FACC101B0A876D0013CFB47490D11B03BF806073068202D55500780CF16A1005865BC01B05D00180069D700B214B0145817423F4E1403802B82A45D04
310
C944D052E0B7ED1B9FBB2C0AD134C2E90000000049454E44AE426082
  0
ENDSEC
  0
EOF
