  0
SECTION
  2
HEADER
  9
$ACADVER
  1
AC1027
  9
$ACADMAINTVER
 70
   125
  9
$DWGCODEPAGE
  3
ANSI_932
  9
$LASTSAVEDBY
  1
BJ12826
  9
$REQUIREDVERSIONS
160
                 0
  9
$INSBASE
 10
0.0
 20
0.0
 30
0.0
  9
$EXTMIN
 10
-1184.843016584389
 20
-346.9132161595553
 30
-0.0015258207003583
  9
$EXTMAX
 10
880.431990238574
 20
2310.081095550149
 30
0.0000000349246037
  9
$LIMMIN
 10
0.0
 20
0.0
  9
$LIMMAX
 10
12.0
 20
9.0
  9
$ORTHOMODE
 70
     1
  9
$REGENMODE
 70
     1
  9
$FILLMODE
 70
     1
  9
$QTEXTMODE
 70
     0
  9
$MIRRTEXT
 70
     0
  9
$LTSCALE
 40
1.0
  9
$ATTMODE
 70
     1
  9
$TEXTSIZE
 40
2.799999952316284
  9
$TRACEWID
 40
0.05
  9
$TEXTSTYLE
  7
STANDARD1
  9
$CLAYER
  8
SIZE
  9
$CELTYPE
  6
CONTINUOUS
  9
$CECOLOR
 62
   256
  9
$CELTSCALE
 40
1.0
  9
$DISPSILH
 70
     0
  9
$DIMSCALE
 40
1.0
  9
$DIMASZ
 40
10.0
  9
$DIMEXO
 40
10.0
  9
$DIMDLI
 40
8.0
  9
$DIMRND
 40
0.0
  9
$DIMDLE
 40
0.0
  9
$DIMEXE
 40
12.5
  9
$DIMTP
 40
0.0
  9
$DIMTM
 40
0.0
  9
$DIMTXT
 40
30.0
  9
$DIMCEN
 40
2.5
  9
$DIMTSZ
 40
0.0
  9
$DIMTOL
 70
     0
  9
$DIMLIM
 70
     0
  9
$DIMTIH
 70
     0
  9
$DIMTOH
 70
     0
  9
$DIMSE1
 70
     0
  9
$DIMSE2
 70
     0
  9
$DIMTAD
 70
     3
  9
$DIMZIN
 70
    12
  9
$DIMBLK
  1

  9
$DIMASO
 70
     1
  9
$DIMSHO
 70
     1
  9
$DIMPOST
  1

  9
$DIMAPOST
  1

  9
$DIMALT
 70
     0
  9
$DIMALTD
 70
     4
  9
$DIMALTF
 40
25.4
  9
$DIMLFAC
 40
1.0
  9
$DIMTOFL
 70
     1
  9
$DIMTVP
 40
0.0
  9
$DIMTIX
 70
     0
  9
$DIMSOXD
 70
     0
  9
$DIMSAH
 70
     1
  9
$DIMBLK1
  1
ORIGIN
  9
$DIMBLK2
  1
ORIGIN
  9
$DIMSTYLE
  2
STANDARD
  9
$DIMCLRD
 70
     0
  9
$DIMCLRE
 70
     0
  9
$DIMCLRT
 70
     0
  9
$DIMTFAC
 40
0.7142857313156129
  9
$DIMGAP
 40
10.0
  9
$DIMJUST
 70
     0
  9
$DIMSD1
 70
     0
  9
$DIMSD2
 70
     0
  9
$DIMTOLJ
 70
     1
  9
$DIMTZIN
 70
     0
  9
$DIMALTZ
 70
     0
  9
$DIMALTTZ
 70
     0
  9
$DIMUPT
 70
     0
  9
$DIMDEC
 70
     1
  9
$DIMTDEC
 70
     1
  9
$DIMALTU
 70
     2
  9
$DIMALTTD
 70
     4
  9
$DIMTXSTY
  7
STANDARD
  9
$DIMAUNIT
 70
     0
  9
$DIMADEC
 70
     0
  9
$DIMALTRND
 40
0.0
  9
$DIMAZIN
 70
     0
  9
$DIMDSEP
 70
    46
  9
$DIMATFIT
 70
     3
  9
$DIMFRAC
 70
     0
  9
$DIMLDRBLK
  1
ORIGIN
  9
$DIMLUNIT
 70
     2
  9
$DIMLWD
 70
    -2
  9
$DIMLWE
 70
    -2
  9
$DIMTMOVE
 70
     0
  9
$DIMFXL
 40
1.0
  9
$DIMFXLON
 70
     0
  9
$DIMJOGANG
 40
0.7853981633974483
  9
$DIMTFILL
 70
     0
  9
$DIMTFILLCLR
 70
     0
  9
$DIMARCSYM
 70
     0
  9
$DIMLTYPE
  6

  9
$DIMLTEX1
  6

  9
$DIMLTEX2
  6

  9
$DIMTXTDIRECTION
 70
     0
  9
$LUNITS
 70
     2
  9
$LUPREC
 70
     3
  9
$SKETCHINC
 40
0.1
  9
$FILLETRAD
 40
0.0
  9
$AUNITS
 70
     0
  9
$AUPREC
 70
     0
  9
$MENU
  1
.
  9
$ELEVATION
 40
0.0
  9
$PELEVATION
 40
0.0
  9
$THICKNESS
 40
0.0
  9
$LIMCHECK
 70
     0
  9
$CHAMFERA
 40
0.0
  9
$CHAMFERB
 40
0.0
  9
$CHAMFERC
 40
0.0
  9
$CHAMFERD
 40
0.0
  9
$SKPOLY
 70
     0
  9
$TDCREATE
 40
2457947.679965278
  9
$TDUCREATE
 40
2457947.304965278
  9
$TDUPDATE
 40
2460300.481516204
  9
$TDUUPDATE
 40
2460300.106516204
  9
$TDINDWG
 40
0.2323826273
  9
$TDUSRTIMER
 40
0.2323826273
  9
$USRTIMER
 70
     1
  9
$ANGBASE
 50
0.0
  9
$ANGDIR
 70
     0
  9
$PDMODE
 70
     0
  9
$PDSIZE
 40
0.0
  9
$PLINEWID
 40
0.0
  9
$SPLFRAME
 70
     0
  9
$SPLINETYPE
 70
     6
  9
$SPLINESEGS
 70
     8
  9
$HANDSEED
  5
1185
  9
$SURFTAB1
 70
     6
  9
$SURFTAB2
 70
     6
  9
$SURFTYPE
 70
     6
  9
$SURFU
 70
     6
  9
$SURFV
 70
     6
  9
$UCSBASE
  2

  9
$UCSNAME
  2

  9
$UCSORG
 10
0.0
 20
0.0
 30
0.0
  9
$UCSXDIR
 10
1.0
 20
0.0
 30
0.0
  9
$UCSYDIR
 10
0.0
 20
1.0
 30
0.0
  9
$UCSORTHOREF
  2

  9
$UCSORTHOVIEW
 70
     0
  9
$UCSORGTOP
 10
0.0
 20
0.0
 30
0.0
  9
$UCSORGBOTTOM
 10
0.0
 20
0.0
 30
0.0
  9
$UCSORGLEFT
 10
0.0
 20
0.0
 30
0.0
  9
$UCSORGRIGHT
 10
0.0
 20
0.0
 30
0.0
  9
$UCSORGFRONT
 10
0.0
 20
0.0
 30
0.0
  9
$UCSORGBACK
 10
0.0
 20
0.0
 30
0.0
  9
$PUCSBASE
  2

  9
$PUCSNAME
  2

  9
$PUCSORG
 10
0.0
 20
0.0
 30
0.0
  9
$PUCSXDIR
 10
1.0
 20
0.0
 30
0.0
  9
$PUCSYDIR
 10
0.0
 20
1.0
 30
0.0
  9
$PUCSORTHOREF
  2

  9
$PUCSORTHOVIEW
 70
     0
  9
$PUCSORGTOP
 10
0.0
 20
0.0
 30
0.0
  9
$PUCSORGBOTTOM
 10
0.0
 20
0.0
 30
0.0
  9
$PUCSORGLEFT
 10
0.0
 20
0.0
 30
0.0
  9
$PUCSORGRIGHT
 10
0.0
 20
0.0
 30
0.0
  9
$PUCSORGFRONT
 10
0.0
 20
0.0
 30
0.0
  9
$PUCSORGBACK
 10
0.0
 20
0.0
 30
0.0
  9
$USERI1
 70
     0
  9
$USERI2
 70
     0
  9
$USERI3
 70
     0
  9
$USERI4
 70
     0
  9
$USERI5
 70
     0
  9
$USERR1
 40
0.0
  9
$USERR2
 40
0.0
  9
$USERR3
 40
0.0
  9
$USERR4
 40
0.0
  9
$USERR5
 40
0.0
  9
$WORLDVIEW
 70
     1
  9
$SHADEDGE
 70
     3
  9
$SHADEDIF
 70
    70
  9
$TILEMODE
 70
     1
  9
$MAXACTVP
 70
    64
  9
$PINSBASE
 10
0.0
 20
0.0
 30
0.0
  9
$PLIMCHECK
 70
     0
  9
$PEXTMIN
 10
1.000000000000000E+20
 20
1.000000000000000E+20
 30
1.000000000000000E+20
  9
$PEXTMAX
 10
-1.000000000000000E+20
 20
-1.000000000000000E+20
 30
-1.000000000000000E+20
  9
$PLIMMIN
 10
0.0
 20
0.0
  9
$PLIMMAX
 10
12.0
 20
9.0
  9
$UNITMODE
 70
     0
  9
$VISRETAIN
 70
     1
  9
$PLINEGEN
 70
     0
  9
$PSLTSCALE
 70
     1
  9
$TREEDEPTH
 70
  3020
  9
$CMLSTYLE
  2
Standard
  9
$CMLJUST
 70
     0
  9
$CMLSCALE
 40
1.0
  9
$PROXYGRAPHICS
 70
     1
  9
$MEASUREMENT
 70
     0
  9
$CELWEIGHT
370
    -1
  9
$ENDCAPS
280
     0
  9
$JOINSTYLE
280
     0
  9
$LWDISPLAY
290
     0
  9
$INSUNITS
 70
     0
  9
$HYPERLINKBASE
  1

  9
$STYLESHEET
  1
monochrome.ctb
  9
$XEDIT
290
     1
  9
$CEPSNTYPE
380
     0
  9
$PSTYLEMODE
290
     1
  9
$FINGERPRINTGUID
  2
{0208A105-6542-414A-A5C8-D7591855D4B1}
  9
$VERSIONGUID
  2
{833F8CE7-1290-534B-B582-51FDD6A08EA8}
  9
$EXTNAMES
290
     1
  9
$PSVPSCALE
 40
0.0
  9
$OLESTARTUP
290
     0
  9
$SORTENTS
280
   127
  9
$INDEXCTL
280
     0
  9
$HIDETEXT
280
     0
  9
$XCLIPFRAME
280
     2
  9
$HALOGAP
280
     0
  9
$OBSCOLOR
 70
   257
  9
$OBSLTYPE
280
     0
  9
$INTERSECTIONDISPLAY
280
     0
  9
$INTERSECTIONCOLOR
 70
   257
  9
$DIMASSOC
280
     1
  9
$PROJECTNAME
  1

  9
$CAMERADISPLAY
290
     0
  9
$LENSLENGTH
 40
50.0
  9
$CAMERAHEIGHT
 40
0.0
  9
$STEPSPERSEC
 40
2.0
  9
$STEPSIZE
 40
6.0
  9
$3DDWFPREC
 40
2.0
  9
$PSOLWIDTH
 40
0.25
  9
$PSOLHEIGHT
 40
4.0
  9
$LOFTANG1
 40
1.570796326794896
  9
$LOFTANG2
 40
1.570796326794896
  9
$LOFTMAG1
 40
0.0
  9
$LOFTMAG2
 40
0.0
  9
$LOFTPARAM
 70
     7
  9
$LOFTNORMALS
280
     1
  9
$LATITUDE
 40
37.795
  9
$LONGITUDE
 40
-122.394
  9
$NORTHDIRECTION
 40
0.0
  9
$TIMEZONE
 70
 -8000
  9
$LIGHTGLYPHDISPLAY
280
     1
  9
$TILEMODELIGHTSYNCH
280
     1
  9
$CMATERIAL
347
11
  9
$SOLIDHIST
280
     0
  9
$SHOWHIST
280
     1
  9
$DWFFRAME
280
     2
  9
$DGNFRAME
280
     0
  9
$REALWORLDSCALE
290
     1
  9
$INTERFERECOLOR
 62
     1
  9
$INTERFEREOBJVS
345
33
  9
$INTERFEREVPVS
346
30
  9
$CSHADOW
280
     0
  9
$SHADOWPLANELOCATION
 40
0.0
  0
ENDSEC
  0
SECTION
  2
CLASSES
  0
CLASS
  1
ACDBDICTIONARYWDFLT
  2
AcDbDictionaryWithDefault
  3
ObjectDBX Classes
 90
        0
 91
        1
280
     0
281
     0
  0
CLASS
  1
MATERIAL
  2
AcDbMaterial
  3
ObjectDBX Classes
 90
     1153
 91
        3
280
     0
281
     0
  0
CLASS
  1
VISUALSTYLE
  2
AcDbVisualStyle
  3
ObjectDBX Classes
 90
     4095
 91
       24
280
     0
281
     0
  0
CLASS
  1
SCALE
  2
AcDbScale
  3
ObjectDBX Classes
 90
     1153
 91
       17
280
     0
281
     0
  0
CLASS
  1
TABLESTYLE
  2
AcDbTableStyle
  3
ObjectDBX Classes
 90
     4095
 91
        1
280
     0
281
     0
  0
CLASS
  1
MLEADERSTYLE
  2
AcDbMLeaderStyle
  3
ACDB_MLEADERSTYLE_CLASS
 90
     4095
 91
        1
280
     0
281
     0
  0
CLASS
  1
ACDBSECTIONVIEWSTYLE
  2
AcDbSectionViewStyle
  3
ObjectDBX Classes
 90
     1025
 91
        1
280
     0
281
     0
  0
CLASS
  1
ACDBDETAILVIEWSTYLE
  2
AcDbDetailViewStyle
  3
ObjectDBX Classes
 90
     1025
 91
        1
280
     0
281
     0
  0
CLASS
  1
DICTIONARYVAR
  2
AcDbDictionaryVar
  3
ObjectDBX Classes
 90
        0
 91
        9
280
     0
281
     0
  0
CLASS
  1
CELLSTYLEMAP
  2
AcDbCellStyleMap
  3
ObjectDBX Classes
 90
     1152
 91
        2
280
     0
281
     0
  0
CLASS
  1
SORTENTSTABLE
  2
AcDbSortentsTable
  3
ObjectDBX Classes
 90
        0
 91
        0
280
     0
281
     0
  0
ENDSEC
  0
SECTION
  2
TABLES
  0
TABLE
  2
VPORT
  5
8
330
0
100
AcDbSymbolTable
 70
     1
1001
ACAD
1000
DbSaveVer
1071
       51
  0
VPORT
  5
89
330
8
100
AcDbSymbolTableRecord
100
AcDbViewportTableRecord
  2
*ACTIVE
 70
     0
 10
0.0
 20
0.0
 11
1.0
 21
1.0
 12
-152.2055131729075
 22
981.5839396952966
 13
0.0
 23
0.0
 14
1.0
 24
1.0
 15
0.0
 25
0.0
 16
0.0
 26
0.0
 36
1.0
 17
0.0
 27
0.0
 37
0.0
 40
2677.915526762537
 41
2.511169513797634
 42
50.0
 43
0.0
 44
0.0
 50
0.0
 51
0.0
 71
     0
 72
   100
 73
     1
 74
     3
 75
     0
 76
     0
 77
     0
 78
     0
281
     0
 65
     1
110
0.0
120
0.0
130
0.0
111
1.0
121
0.0
131
0.0
112
0.0
122
1.0
132
0.0
 79
     0
146
0.0
348
2F
 60
     3
 61
     5
292
     1
282
     0
141
0.0
142
0.0
 63
   250
421
  3355443
1001
ACAD_NAV_VCDISPLAY
1070
     3
  0
ENDTAB
  0
TABLE
  2
LTYPE
  5
5
330
0
100
AcDbSymbolTable
 70
     7
  0
LTYPE
  5
5A
330
5
100
AcDbSymbolTableRecord
100
AcDbLinetypeTableRecord
  2
ByBlock
 70
     0
  3

 72
    65
 73
     0
 40
0.0
  0
LTYPE
  5
5B
330
5
100
AcDbSymbolTableRecord
100
AcDbLinetypeTableRecord
  2
ByLayer
 70
     0
  3

 72
    65
 73
     0
 40
0.0
  0
LTYPE
  5
5C
330
5
100
AcDbSymbolTableRecord
100
AcDbLinetypeTableRecord
  2
CONTINUOUS
 70
     0
  3
Solid line
 72
    65
 73
     0
 40
0.0
  0
LTYPE
  5
74
330
5
100
AcDbSymbolTableRecord
100
AcDbLinetypeTableRecord
  2
PHANTOM2
 70
     0
  3
___ _ _ ___ _ _ ___ _ _ ___ _ _
 72
    65
 73
     6
 40
1.25
 49
0.625
 74
     0
 49
-0.125
 74
     0
 49
0.125
 74
     0
 49
-0.125
 74
     0
 49
0.125
 74
     0
 49
-0.125
 74
     0
  0
LTYPE
  5
75
330
5
100
AcDbSymbolTableRecord
100
AcDbLinetypeTableRecord
  2
DASHED
 70
     0
  3
-- -- -- -- -- -- -- -- -- -- -- -- -- -- --
 72
    65
 73
     2
 40
0.75
 49
0.5
 74
     0
 49
-0.25
 74
     0
  0
LTYPE
  5
76
330
5
100
AcDbSymbolTableRecord
100
AcDbLinetypeTableRecord
  2
DASHDOT
 70
     0
  3
__ . __ . __ . __ . __ . __ . __ . __ . __ . __
 72
    65
 73
     4
 40
125.0
 49
80.0
 74
     0
 49
-20.0
 74
     0
 49
5.0
 74
     0
 49
-20.0
 74
     0
  0
LTYPE
  5
77
330
5
100
AcDbSymbolTableRecord
100
AcDbLinetypeTableRecord
  2
DIVIDE
 70
     0
  3
__ . . __ . . __ . . __ . . __ . . __ . . __
 72
    65
 73
     6
 40
1.25
 49
0.5
 74
     0
 49
-0.25
 74
     0
 49
0.0
 74
     0
 49
-0.25
 74
     0
 49
0.0
 74
     0
 49
-0.25
 74
     0
  0
LTYPE
  5
5B8
330
5
100
AcDbSymbolTableRecord
100
AcDbLinetypeTableRecord
  2
PHANTOMX2
 70
     0
  3
Phantom (2x) ____________    ____    ____   _
 72
    65
 73
     6
 40
5.0
 49
2.5
 74
     0
 49
-0.5
 74
     0
 49
0.5
 74
     0
 49
-0.5
 74
     0
 49
0.5
 74
     0
 49
-0.5
 74
     0
  0
ENDTAB
  0
TABLE
  2
LAYER
  5
2
102
{ACAD_XDICTIONARY
360
6B9
102
}
330
0
100
AcDbSymbolTable
 70
    12
  0
LAYER
  5
54
102
{ACAD_XDICTIONARY
360
556
102
}
330
2
100
AcDbSymbolTableRecord
100
AcDbLayerTableRecord
  2
0
 70
     0
 62
     3
  6
CONTINUOUS
370
    -3
390
F
347
21
348
0
  0
LAYER
  5
78
102
{ACAD_XDICTIONARY
360
558
102
}
330
2
100
AcDbSymbolTableRecord
100
AcDbLayerTableRecord
  2
OUTLINE
 70
     0
 62
     3
  6
CONTINUOUS
370
    -3
390
F
347
21
348
0
  0
LAYER
  5
79
102
{ACAD_XDICTIONARY
360
55A
102
}
330
2
100
AcDbSymbolTableRecord
100
AcDbLayerTableRecord
  2
DETAIL
 70
     0
 62
     5
  6
CONTINUOUS
370
    -3
390
F
347
21
348
0
  0
LAYER
  5
7A
102
{ACAD_XDICTIONARY
360
55C
102
}
330
2
100
AcDbSymbolTableRecord
100
AcDbLayerTableRecord
  2
BASIS
 70
     0
 62
     6
  6
CONTINUOUS
370
    -3
390
F
347
21
348
0
  0
LAYER
  5
7B
102
{ACAD_XDICTIONARY
360
55E
102
}
330
2
100
AcDbSymbolTableRecord
100
AcDbLayerTableRecord
  2
SIZE
 70
     0
 62
    30
  6
CONTINUOUS
370
    -3
390
F
347
21
348
0
  0
LAYER
  5
7C
102
{ACAD_XDICTIONARY
360
560
102
}
330
2
100
AcDbSymbolTableRecord
100
AcDbLayerTableRecord
  2
NOTE
 70
     0
 62
     4
  6
CONTINUOUS
370
    -3
390
F
347
21
348
0
  0
LAYER
  5
7D
102
{ACAD_XDICTIONARY
360
562
102
}
330
2
100
AcDbSymbolTableRecord
100
AcDbLayerTableRecord
  2
ARRANGE
 70
     0
 62
     1
  6
CONTINUOUS
370
    -3
390
F
347
21
348
0
  0
LAYER
  5
7E
102
{ACAD_XDICTIONARY
360
564
102
}
330
2
100
AcDbSymbolTableRecord
100
AcDbLayerTableRecord
  2
FIX
 70
     0
 62
    11
  6
CONTINUOUS
370
    -3
390
F
347
21
348
0
  0
LAYER
  5
7F
102
{ACAD_XDICTIONARY
360
566
102
}
330
2
100
AcDbSymbolTableRecord
100
AcDbLayerTableRecord
  2
SERVICESPACE
 70
     0
 62
     2
  6
CONTINUOUS
370
    -3
390
F
347
21
348
0
  0
LAYER
  5
80
102
{ACAD_XDICTIONARY
360
568
102
}
330
2
100
AcDbSymbolTableRecord
100
AcDbLayerTableRecord
  2
ETC
 70
     0
 62
    61
  6
CONTINUOUS
370
    -3
390
F
347
21
348
0
  0
LAYER
  5
81
102
{ACAD_XDICTIONARY
360
56A
102
}
330
2
100
AcDbSymbolTableRecord
100
AcDbLayerTableRecord
  2
SYMBOLLINE
 70
     0
 62
    15
  6
CONTINUOUS
370
    -3
390
F
347
21
348
0
  0
LAYER
  5
82
330
2
100
AcDbSymbolTableRecord
100
AcDbLayerTableRecord
  2
DEFPOINTS
 70
     0
 62
     7
  6
CONTINUOUS
290
     0
370
    -3
390
F
347
21
348
0
  0
ENDTAB
  0
TABLE
  2
STYLE
  5
3
330
0
100
AcDbSymbolTable
 70
     8
  0
STYLE
  5
55
330
3
100
AcDbSymbolTableRecord
100
AcDbTextStyleTableRecord
  2
STANDARD
 70
     0
 40
0.0
 41
1.0
 50
0.0
 71
     0
 42
0.2
  3
txt
  4

  0
STYLE
  5
59
330
3
100
AcDbSymbolTableRecord
100
AcDbTextStyleTableRecord
  2
ANNOTATIVE
 70
     0
 40
0.0
 41
1.0
 50
0.0
 71
     0
 42
0.2
  3
txt
  4

1001
ACADANNOTATIVE
1000
AnnotativeData
1002
{
1070
     1
1070
     1
1002
}
  0
STYLE
  5
73
330
3
100
AcDbSymbolTableRecord
100
AcDbTextStyleTableRecord
  2
STANDARD1
 70
     0
 40
0.0
 41
1.0
 50
0.0
 71
     0
 42
2.799999952316284
  3
MONOTXT
  4
BIGFONT
  0
STYLE
  5
84
330
3
100
AcDbSymbolTableRecord
100
AcDbTextStyleTableRecord
  2
STANDARD2
 70
     4
 40
0.0
 41
1.0
 50
0.0
 71
     0
 42
2.799999952316284
  3
MONOTXT
  4
BIGFONT
  0
STYLE
  5
85
330
3
100
AcDbSymbolTableRecord
100
AcDbTextStyleTableRecord
  2
STANDARD3
 70
     0
 40
0.0
 41
1.0
 50
0.0
 71
     0
 42
2.799999952316284
  3
MONOTXT
  4

  0
STYLE
  5
86
330
3
100
AcDbSymbolTableRecord
100
AcDbTextStyleTableRecord
  2
STANDARD4
 70
     4
 40
0.0
 41
1.0
 50
0.0
 71
     0
 42
2.799999952316284
  3
MONOTXT
  4

  0
STYLE
  5
5B7
330
3
100
AcDbSymbolTableRecord
100
AcDbTextStyleTableRecord
  2

 70
     1
 40
0.0
 41
1.0
 50
0.0
 71
     0
 42
2.799999952316284
  3
ltypeshp.shx
  4

  0
ENDTAB
  0
TABLE
  2
VIEW
  5
6
330
0
100
AcDbSymbolTable
 70
     0
  0
ENDTAB
  0
TABLE
  2
UCS
  5
7
330
0
100
AcDbSymbolTable
 70
     0
  0
ENDTAB
  0
TABLE
  2
APPID
  5
9
330
0
100
AcDbSymbolTable
 70
     9
  0
APPID
  5
56
330
9
100
AcDbSymbolTableRecord
100
AcDbRegAppTableRecord
  2
ACAD
 70
     0
  0
APPID
  5
5D
330
9
100
AcDbSymbolTableRecord
100
AcDbRegAppTableRecord
  2
ACADANNOTATIVE
 70
     0
  0
APPID
  5
87
330
9
100
AcDbSymbolTableRecord
100
AcDbRegAppTableRecord
  2
ACAD_NAV_VCDISPLAY
 70
     0
  0
APPID
  5
88
330
9
100
AcDbSymbolTableRecord
100
AcDbRegAppTableRecord
  2
ACAD_MLEADERVER
 70
     0
  0
APPID
  5
54A
330
9
100
AcDbSymbolTableRecord
100
AcDbRegAppTableRecord
  2
ACAD_EXEMPT_FROM_CAD_STANDARDS
 70
     0
  0
APPID
  5
54C
330
9
100
AcDbSymbolTableRecord
100
AcDbRegAppTableRecord
  2
ACAD_PSEXT
 70
     0
  0
APPID
  5
AD2
330
9
100
AcDbSymbolTableRecord
100
AcDbRegAppTableRecord
  2
AcadAnnoMonitorAlertIconDisabled
 70
     0
  0
APPID
  5
D77
330
9
100
AcDbSymbolTableRecord
100
AcDbRegAppTableRecord
  2
ACAD_DSTYLE_DIMJAG
 70
     0
  0
APPID
  5
D78
330
9
100
AcDbSymbolTableRecord
100
AcDbRegAppTableRecord
  2
ACAD_DSTYLE_DIMTALN
 70
     0
  0
ENDTAB
  0
TABLE
  2
DIMSTYLE
  5
A
330
0
100
AcDbSymbolTable
 70
     4
100
AcDbDimStyleTable
 71
     1
340
57
  0
DIMSTYLE
105
57
102
{ACAD_REACTORS
330
9B3
330
9B4
330
9B6
330
9B7
330
9BB
330
9CA
330
9CB
330
9E2
330
9E3
330
C69
330
D79
102
}
330
A
100
AcDbSymbolTableRecord
100
AcDbDimStyleTableRecord
  2
STANDARD
 70
     0
271
     3
272
     3
274
     4
279
     2
284
    12
285
    12
286
    12
340
73
  0
DIMSTYLE
105
58
330
A
100
AcDbSymbolTableRecord
100
AcDbDimStyleTableRecord
  2
ANNOTATIVE
 70
     0
271
     3
272
     3
274
     4
279
     2
284
    12
285
    12
286
    12
340
73
1001
ACADANNOTATIVE
1000
AnnotativeData
1002
{
1070
     1
1070
     1
1002
}
  0
ENDTAB
  0
TABLE
  2
BLOCK_RECORD
  5
1
330
0
100
AcDbSymbolTable
 70
    14
  0
BLOCK_RECORD
  5
6F
330
1
100
AcDbSymbolTableRecord
100
AcDbBlockTableRecord
  2
*Model_Space
340
72
 70
     0
280
     1
281
     0
  0
BLOCK_RECORD
  5
6B
330
1
100
AcDbSymbolTableRecord
100
AcDbBlockTableRecord
  2
*Paper_Space
340
6E
 70
     0
280
     1
281
     0
  0
BLOCK_RECORD
  5
18D
330
1
100
AcDbSymbolTableRecord
100
AcDbBlockTableRecord
  2
_ORIGIN
340
0
102
{BLKREFS
331
1171
331
1172
331
E7E
331
E7F
331
E99
331
E9A
331
EA2
331
EA3
331
EBD
331
EBE
331
EC6
331
EC7
331
ECF
331
ED0
331
FAB
331
FAC
331
10D8
331
10D9
331
10EA
331
10EB
331
10F3
331
10F4
102
}
 70
     0
280
     1
281
     0
  0
BLOCK_RECORD
  5
9EB
330
1
100
AcDbSymbolTableRecord
100
AcDbBlockTableRecord
  2
*D1
340
0
 70
     0
280
     1
281
     0
  0
BLOCK_RECORD
  5
9F7
330
1
100
AcDbSymbolTableRecord
100
AcDbBlockTableRecord
  2
*D2
340
0
 70
     0
280
     1
281
     0
  0
BLOCK_RECORD
  5
A03
330
1
100
AcDbSymbolTableRecord
100
AcDbBlockTableRecord
  2
*D3
340
0
 70
     0
280
     1
281
     0
  0
BLOCK_RECORD
  5
A0F
330
1
100
AcDbSymbolTableRecord
100
AcDbBlockTableRecord
  2
*D4
340
0
 70
     0
280
     1
281
     0
  0
BLOCK_RECORD
  5
A27
330
1
100
AcDbSymbolTableRecord
100
AcDbBlockTableRecord
  2
*D5
340
0
 70
     0
280
     1
281
     0
  0
BLOCK_RECORD
  5
A33
330
1
100
AcDbSymbolTableRecord
100
AcDbBlockTableRecord
  2
*D6
340
0
 70
     0
280
     1
281
     0
  0
BLOCK_RECORD
  5
A3F
330
1
100
AcDbSymbolTableRecord
100
AcDbBlockTableRecord
  2
*D7
340
0
 70
     0
280
     1
281
     0
  0
BLOCK_RECORD
  5
A57
330
1
100
AcDbSymbolTableRecord
100
AcDbBlockTableRecord
  2
*D8
340
0
 70
     0
280
     1
281
     0
  0
BLOCK_RECORD
  5
A63
330
1
100
AcDbSymbolTableRecord
100
AcDbBlockTableRecord
  2
*D9
340
0
 70
     0
280
     1
281
     0
  0
BLOCK_RECORD
  5
C6A
330
1
100
AcDbSymbolTableRecord
100
AcDbBlockTableRecord
  2
*D10
340
0
 70
     0
280
     1
281
     0
  0
BLOCK_RECORD
  5
D7A
330
1
100
AcDbSymbolTableRecord
100
AcDbBlockTableRecord
  2
*D11
340
0
 70
     0
280
     1
281
     0
  0
ENDTAB
  0
ENDSEC
  0
SECTION
  2
BLOCKS
  0
BLOCK
  5
70
330
6F
100
AcDbEntity
  8
0
100
AcDbBlockBegin
  2
*Model_Space
 70
     0
 10
0.0
 20
0.0
 30
0.0
  3
*Model_Space
  1

  0
ENDBLK
  5
71
330
6F
100
AcDbEntity
  8
0
100
AcDbBlockEnd
  0
BLOCK
  5
6C
330
6B
100
AcDbEntity
 67
     1
  8
0
100
AcDbBlockBegin
  2
*Paper_Space
 70
     0
 10
0.0
 20
0.0
 30
0.0
  3
*Paper_Space
  1

  0
ENDBLK
  5
6D
330
6B
100
AcDbEntity
 67
     1
  8
0
100
AcDbBlockEnd
  0
BLOCK
  5
18E
330
18D
100
AcDbEntity
  8
0
100
AcDbBlockBegin
  2
_ORIGIN
 70
     0
 10
0.0
 20
0.0
 30
0.0
  3
_ORIGIN
  1

  0
CIRCLE
  5
18F
330
18D
100
AcDbEntity
  8
0
  6
ByBlock
 62
     0
100
AcDbCircle
 10
0.0
 20
0.0
 30
0.0
 40
0.5
  0
LINE
  5
190
330
18D
100
AcDbEntity
  8
0
  6
ByBlock
 62
     0
100
AcDbLine
 10
0.0
 20
0.0
 30
0.0
 11
-1.0
 21
0.0
 31
0.0
  0
ENDBLK
  5
191
330
18D
100
AcDbEntity
  8
0
100
AcDbBlockEnd
  0
BLOCK
  5
9EC
330
9EB
100
AcDbEntity
  8
0
100
AcDbBlockBegin
  2
*D1
 70
     1
 10
0.0
 20
0.0
 30
0.0
  3
*D1
  1

  0
LINE
  5
E7B
330
9EB
100
AcDbEntity
  8
SIZE
  6
Continuous
 62
     0
440
 16777216
370
    -2
100
AcDbLine
 10
227.5
 20
131.7376781056891
 30
0.0
 11
227.5
 21
139.2126152912222
 31
0.0
  0
LINE
  5
E7C
330
9EB
100
AcDbEntity
  8
SIZE
  6
Continuous
 62
     0
440
 16777216
370
    -2
100
AcDbLine
 10
-227.5000000000001
 20
136.7126152912222
 30
0.0
 11
-227.5000000000001
 21
139.2126152912222
 31
0.0
  0
LINE
  5
E7D
330
9EB
100
AcDbEntity
  8
SIZE
  6
Continuous
 62
     0
440
 16777216
370
    -2
100
AcDbLine
 10
217.5
 20
126.7126152912222
 30
0.0
 11
-217.5000000000001
 21
126.7126152912222
 31
0.0
  0
INSERT
  5
E7E
330
9EB
100
AcDbEntity
  8
SIZE
  6
Continuous
 62
     0
440
 16777216
370
    -2
100
AcDbBlockReference
  2
_ORIGIN
 10
227.5
 20
126.7126152912222
 30
0.0
 41
10.0
 42
10.0
 43
10.0
  0
INSERT
  5
E7F
330
9EB
100
AcDbEntity
  8
SIZE
  6
Continuous
 62
     0
440
 16777216
370
    -2
100
AcDbBlockReference
  2
_ORIGIN
 10
-227.5000000000001
 20
126.7126152912222
 30
0.0
 41
10.0
 42
10.0
 43
10.0
 50
180.0
  0
MTEXT
  5
E80
330
9EB
100
AcDbEntity
  8
SIZE
  6
Continuous
 62
     0
440
 16777216
100
AcDbMText
 10
-0.4999999999992026
 20
151.7126152912222
 30
0.0
 40
30.0
 41
0.0
 46
0.0
 71
     5
 72
     1
  1
\A1;455
 73
     1
 44
1.0
  0
POINT
  5
E81
330
9EB
100
AcDbEntity
  8
DEFPOINTS
  6
Continuous
 62
     0
440
 16777216
100
AcDbPoint
 10
227.5
 20
121.7376781056891
 30
0.0
  0
POINT
  5
E82
330
9EB
100
AcDbEntity
  8
DEFPOINTS
  6
Continuous
 62
     0
440
 16777216
100
AcDbPoint
 10
-227.5000000000001
 20
126.7126152912222
 30
0.0
  0
POINT
  5
E83
330
9EB
100
AcDbEntity
  8
DEFPOINTS
  6
Continuous
 62
     0
440
 16777216
100
AcDbPoint
 10
-227.5000000000001
 20
126.7126152912222
 30
0.0
  0
ENDBLK
  5
9ED
330
9EB
100
AcDbEntity
  8
0
100
AcDbBlockEnd
  0
BLOCK
  5
9F8
330
9F7
100
AcDbEntity
  8
0
100
AcDbBlockBegin
  2
*D2
 70
     1
 10
0.0
 20
0.0
 30
0.0
  3
*D2
  1

  0
LINE
  5
116E
330
9F7
100
AcDbEntity
  8
SIZE
  6
Continuous
 62
     0
440
 16777216
370
    -2
100
AcDbLine
 10
-205.0
 20
-30.0
 30
0.0
 11
-205.0
 21
-310.1000000238418
 31
0.0
  0
LINE
  5
116F
330
9F7
100
AcDbEntity
  8
SIZE
  6
Continuous
 62
     0
440
 16777216
370
    -2
100
AcDbLine
 10
-430.0000000000007
 20
855.282317792056
 30
0.0
 11
-430.0000000000007
 21
-310.1000000238418
 31
0.0
  0
LINE
  5
1170
330
9F7
100
AcDbEntity
  8
SIZE
  6
Continuous
 62
     0
440
 16777216
370
    -2
100
AcDbLine
 10
-215.0
 20
-297.6000000238418
 30
0.0
 11
-420.0000000000008
 21
-297.6000000238418
 31
0.0
  0
INSERT
  5
1171
330
9F7
100
AcDbEntity
  8
SIZE
  6
Continuous
 62
     0
440
 16777216
370
    -2
100
AcDbBlockReference
  2
_ORIGIN
 10
-205.0
 20
-297.6000000238418
 30
0.0
 41
10.0
 42
10.0
 43
10.0
  0
INSERT
  5
1172
330
9F7
100
AcDbEntity
  8
SIZE
  6
Continuous
 62
     0
440
 16777216
370
    -2
100
AcDbBlockReference
  2
_ORIGIN
 10
-430.0000000000007
 20
-297.6000000238418
 30
0.0
 41
10.0
 42
10.0
 43
10.0
 50
180.0
  0
MTEXT
  5
1173
330
9F7
100
AcDbEntity
  8
SIZE
  6
Continuous
 62
     0
440
 16777216
100
AcDbMText
 10
-317.5000000000004
 20
-272.6000000238418
 30
0.0
 40
30.0
 41
0.0
 46
0.0
 71
     5
 72
     1
  1
\A1;115~235
 73
     1
 44
1.0
  0
POINT
  5
1174
330
9F7
100
AcDbEntity
  8
DEFPOINTS
  6
Continuous
 62
     0
440
 16777216
100
AcDbPoint
 10
-205.0
 20
-20.0
 30
0.0
  0
POINT
  5
1175
330
9F7
100
AcDbEntity
  8
DEFPOINTS
  6
Continuous
 62
     0
440
 16777216
100
AcDbPoint
 10
-430.0000000000007
 20
865.2823177920559
 30
0.0
  0
POINT
  5
1176
330
9F7
100
AcDbEntity
  8
DEFPOINTS
  6
Continuous
 62
     0
440
 16777216
100
AcDbPoint
 10
-430.0000000000007
 20
-297.6000000238418
 30
0.0
  0
ENDBLK
  5
9F9
330
9F7
100
AcDbEntity
  8
0
100
AcDbBlockEnd
  0
BLOCK
  5
A04
330
A03
100
AcDbEntity
  8
0
100
AcDbBlockBegin
  2
*D3
 70
     1
 10
0.0
 20
0.0
 30
0.0
  3
*D3
  1

  0
LINE
  5
10D5
330
A03
100
AcDbEntity
  8
SIZE
  6
Continuous
 62
     0
440
 16777216
370
    -2
100
AcDbLine
 10
237.5000000000001
 20
960.0000000000003
 30
0.0
 11
607.498552265157
 21
960.0000000000006
 31
0.0
  0
LINE
  5
10D6
330
A03
100
AcDbEntity
  8
SIZE
  6
Continuous
 62
     0
440
 16777216
370
    -2
100
AcDbLine
 10
239.8000000000003
 20
-0.0000000000002258
 30
0.0
 11
607.4985522651574
 21
-0.0000000000001667
 31
0.0
  0
LINE
  5
10D7
330
A03
100
AcDbEntity
  8
SIZE
  6
Continuous
 62
     0
440
 16777216
370
    -2
100
AcDbLine
 10
594.998552265157
 20
950.0000000000003
 30
0.0
 11
594.9985522651574
 21
9.999999999999831
 31
0.0
  0
INSERT
  5
10D8
330
A03
100
AcDbEntity
  8
SIZE
  6
Continuous
 62
     0
440
 16777216
370
    -2
100
AcDbBlockReference
  2
_ORIGIN
 10
594.998552265157
 20
960.0000000000006
 30
0.0
 41
10.0
 42
10.0
 43
10.0
 50
90.0
  0
INSERT
  5
10D9
330
A03
100
AcDbEntity
  8
SIZE
  6
Continuous
 62
     0
440
 16777216
370
    -2
100
AcDbBlockReference
  2
_ORIGIN
 10
594.9985522651574
 20
-0.0000000000001687
 30
0.0
 41
10.0
 42
10.0
 43
10.0
 50
270.0
  0
MTEXT
  5
10DA
330
A03
100
AcDbEntity
  8
SIZE
  6
Continuous
 62
     0
440
 16777216
100
AcDbMText
 10
569.9985522651572
 20
477.4999999999997
 30
0.0
 40
30.0
 41
0.0
 46
0.0
 71
     5
 72
     1
  1
\A1;960
 11
0.0000000000000001
 21
1.0
 31
0.0
 73
     1
 44
1.0
  0
POINT
  5
10DB
330
A03
100
AcDbEntity
  8
DEFPOINTS
  6
Continuous
 62
     0
440
 16777216
100
AcDbPoint
 10
227.5000000000001
 20
960.0000000000003
 30
0.0
  0
POINT
  5
10DC
330
A03
100
AcDbEntity
  8
DEFPOINTS
  6
Continuous
 62
     0
440
 16777216
100
AcDbPoint
 10
229.8000000000003
 20
-0.0000000000002274
 30
0.0
  0
POINT
  5
10DD
330
A03
100
AcDbEntity
  8
DEFPOINTS
  6
Continuous
 62
     0
440
 16777216
100
AcDbPoint
 10
594.9985522651574
 20
-0.0000000000001687
 30
0.0
  0
ENDBLK
  5
A05
330
A03
100
AcDbEntity
  8
0
100
AcDbBlockEnd
  0
BLOCK
  5
A10
330
A0F
100
AcDbEntity
  8
0
100
AcDbBlockBegin
  2
*D4
 70
     1
 10
0.0
 20
0.0
 30
0.0
  3
*D4
  1

  0
LINE
  5
E96
330
A0F
100
AcDbEntity
  8
SIZE
  6
Continuous
 62
     0
440
 16777216
370
    -2
100
AcDbLine
 10
197.5000000000001
 20
815.0000000000007
 30
0.0
 11
437.5151384853455
 21
815.0000000000009
 31
0.0
  0
LINE
  5
E97
330
A0F
100
AcDbEntity
  8
SIZE
  6
Continuous
 62
     0
440
 16777216
370
    -2
100
AcDbLine
 10
239.8000000000003
 20
-0.0000000000002258
 30
0.0
 11
437.5151384853457
 21
-0.000000000000194
 31
0.0
  0
LINE
  5
E98
330
A0F
100
AcDbEntity
  8
SIZE
  6
Continuous
 62
     0
440
 16777216
370
    -2
100
AcDbLine
 10
425.0151384853455
 20
805.0000000000009
 30
0.0
 11
425.0151384853457
 21
9.999999999999806
 31
0.0
  0
INSERT
  5
E99
330
A0F
100
AcDbEntity
  8
SIZE
  6
Continuous
 62
     0
440
 16777216
370
    -2
100
AcDbBlockReference
  2
_ORIGIN
 10
425.0151384853455
 20
815.0000000000009
 30
0.0
 41
10.0
 42
10.0
 43
10.0
 50
90.0
  0
INSERT
  5
E9A
330
A0F
100
AcDbEntity
  8
SIZE
  6
Continuous
 62
     0
440
 16777216
370
    -2
100
AcDbBlockReference
  2
_ORIGIN
 10
425.0151384853457
 20
-0.000000000000196
 30
0.0
 41
10.0
 42
10.0
 43
10.0
 50
270.0
  0
MTEXT
  5
E9B
330
A0F
100
AcDbEntity
  8
SIZE
  6
Continuous
 62
     0
440
 16777216
100
AcDbMText
 10
400.0151384853456
 20
407.5
 30
0.0
 40
30.0
 41
0.0
 46
0.0
 71
     5
 72
     1
  1
\A1;815
 11
0.0000000000000001
 21
1.0
 31
0.0
 73
     1
 44
1.0
  0
POINT
  5
E9C
330
A0F
100
AcDbEntity
  8
DEFPOINTS
  6
Continuous
 62
     0
440
 16777216
100
AcDbPoint
 10
187.5
 20
815.0000000000007
 30
0.0
  0
POINT
  5
E9D
330
A0F
100
AcDbEntity
  8
DEFPOINTS
  6
Continuous
 62
     0
440
 16777216
100
AcDbPoint
 10
229.8000000000003
 20
-0.0000000000002274
 30
0.0
  0
POINT
  5
E9E
330
A0F
100
AcDbEntity
  8
DEFPOINTS
  6
Continuous
 62
     0
440
 16777216
100
AcDbPoint
 10
425.0151384853457
 20
-0.000000000000196
 30
0.0
  0
ENDBLK
  5
A11
330
A0F
100
AcDbEntity
  8
0
100
AcDbBlockEnd
  0
BLOCK
  5
A28
330
A27
100
AcDbEntity
  8
0
100
AcDbBlockBegin
  2
*D5
 70
     1
 10
0.0
 20
0.0
 30
0.0
  3
*D5
  1

  0
LINE
  5
E9F
330
A27
100
AcDbEntity
  8
SIZE
  6
Continuous
 62
     0
440
 16777216
370
    -2
100
AcDbLine
 10
225.0
 20
1266.579977680769
 30
0.0
 11
225.0
 21
1269.079977680769
 31
0.0
  0
LINE
  5
EA0
330
A27
100
AcDbEntity
  8
SIZE
  6
Continuous
 62
     0
440
 16777216
370
    -2
100
AcDbLine
 10
-225.0
 20
1266.579977680769
 30
0.0
 11
-225.0
 21
1269.079977680769
 31
0.0
  0
LINE
  5
EA1
330
A27
100
AcDbEntity
  8
SIZE
  6
Continuous
 62
     0
440
 16777216
370
    -2
100
AcDbLine
 10
215.0
 20
1256.579977680769
 30
0.0
 11
-215.0
 21
1256.579977680769
 31
0.0
  0
INSERT
  5
EA2
330
A27
100
AcDbEntity
  8
SIZE
  6
Continuous
 62
     0
440
 16777216
370
    -2
100
AcDbBlockReference
  2
_ORIGIN
 10
225.0
 20
1256.579977680769
 30
0.0
 41
10.0
 42
10.0
 43
10.0
  0
INSERT
  5
EA3
330
A27
100
AcDbEntity
  8
SIZE
  6
Continuous
 62
     0
440
 16777216
370
    -2
100
AcDbBlockReference
  2
_ORIGIN
 10
-225.0
 20
1256.579977680769
 30
0.0
 41
10.0
 42
10.0
 43
10.0
 50
180.0
  0
MTEXT
  5
EA4
330
A27
100
AcDbEntity
  8
SIZE
  6
Continuous
 62
     0
440
 16777216
100
AcDbMText
 10
0.0000000000000015
 20
1281.579977680769
 30
0.0
 40
30.0
 41
0.0
 46
0.0
 71
     5
 72
     1
  1
\A1;450
 73
     1
 44
1.0
  0
POINT
  5
EA5
330
A27
100
AcDbEntity
  8
DEFPOINTS
  6
Continuous
 62
     0
440
 16777216
100
AcDbPoint
 10
225.0
 20
1256.579977680769
 30
0.0
  0
POINT
  5
EA6
330
A27
100
AcDbEntity
  8
DEFPOINTS
  6
Continuous
 62
     0
440
 16777216
100
AcDbPoint
 10
-225.0
 20
1256.579977680769
 30
0.0
  0
POINT
  5
EA7
330
A27
100
AcDbEntity
  8
DEFPOINTS
  6
Continuous
 62
     0
440
 16777216
100
AcDbPoint
 10
-225.0
 20
1256.579977680769
 30
0.0
  0
ENDBLK
  5
A29
330
A27
100
AcDbEntity
  8
0
100
AcDbBlockEnd
  0
BLOCK
  5
A34
330
A33
100
AcDbEntity
  8
0
100
AcDbBlockBegin
  2
*D6
 70
     1
 10
0.0
 20
0.0
 30
0.0
  3
*D6
  1

  0
LINE
  5
FA8
330
A33
100
AcDbEntity
  8
SIZE
  6
Continuous
 62
     0
440
 16777216
370
    -2
100
AcDbLine
 10
235.0079747563354
 20
1688.970478814538
 30
0.0
 11
437.5151384853485
 21
1688.970478814538
 31
0.0
  0
LINE
  5
FA9
330
A33
100
AcDbEntity
  8
SIZE
  6
Continuous
 62
     0
440
 16777216
370
    -2
100
AcDbLine
 10
235.0000000000001
 20
837.970478814538
 30
0.0
 11
437.515138485349
 21
837.9704788145383
 31
0.0
  0
LINE
  5
FAA
330
A33
100
AcDbEntity
  8
SIZE
  6
Continuous
 62
     0
440
 16777216
370
    -2
100
AcDbLine
 10
425.0151384853485
 20
1678.970478814538
 30
0.0
 11
425.015138485349
 21
847.9704788145378
 31
0.0
  0
INSERT
  5
FAB
330
A33
100
AcDbEntity
  8
SIZE
  6
Continuous
 62
     0
440
 16777216
370
    -2
100
AcDbBlockReference
  2
_ORIGIN
 10
425.0151384853485
 20
1688.970478814538
 30
0.0
 41
10.0
 42
10.0
 43
10.0
 50
90.0
  0
INSERT
  5
FAC
330
A33
100
AcDbEntity
  8
SIZE
  6
Continuous
 62
     0
440
 16777216
370
    -2
100
AcDbBlockReference
  2
_ORIGIN
 10
425.015138485349
 20
837.9704788145383
 30
0.0
 41
10.0
 42
10.0
 43
10.0
 50
270.0
  0
MTEXT
  5
FAD
330
A33
100
AcDbEntity
  8
SIZE
  6
Continuous
 62
     0
440
 16777216
100
AcDbMText
 10
400.0151384853491
 20
1263.470478814538
 30
0.0
 40
30.0
 41
0.0
 46
0.0
 71
     5
 72
     1
  1
\A1;851
 11
0.0000000000000001
 21
1.0
 31
0.0
 73
     1
 44
1.0
  0
POINT
  5
FAE
330
A33
100
AcDbEntity
  8
DEFPOINTS
  6
Continuous
 62
     0
440
 16777216
100
AcDbPoint
 10
225.0079747563354
 20
1688.970478814538
 30
0.0
  0
POINT
  5
FAF
330
A33
100
AcDbEntity
  8
DEFPOINTS
  6
Continuous
 62
     0
440
 16777216
100
AcDbPoint
 10
225.0000000000001
 20
837.970478814538
 30
0.0
  0
POINT
  5
FB0
330
A33
100
AcDbEntity
  8
DEFPOINTS
  6
Continuous
 62
     0
440
 16777216
100
AcDbPoint
 10
425.015138485349
 20
837.9704788145383
 30
0.0
  0
ENDBLK
  5
A35
330
A33
100
AcDbEntity
  8
0
100
AcDbBlockEnd
  0
BLOCK
  5
A40
330
A3F
100
AcDbEntity
  8
0
100
AcDbBlockBegin
  2
*D7
 70
     1
 10
0.0
 20
0.0
 30
0.0
  3
*D7
  1

  0
LINE
  5
10F0
330
A3F
100
AcDbEntity
  8
SIZE
  6
Continuous
 62
     0
440
 16777216
370
    -2
100
AcDbLine
 10
-235.0000000000001
 20
1924.970478814538
 30
0.0
 11
-600.6000000238432
 21
1924.970478814537
 31
0.0
  0
LINE
  5
10F1
330
A3F
100
AcDbEntity
  8
SIZE
  6
Continuous
 62
     0
440
 16777216
370
    -2
100
AcDbLine
 10
-235.0000000000001
 20
839.9704788145381
 30
0.0
 11
-600.6000000238429
 21
839.9704788145378
 31
0.0
  0
LINE
  5
10F2
330
A3F
100
AcDbEntity
  8
SIZE
  6
Continuous
 62
     0
440
 16777216
370
    -2
100
AcDbLine
 10
-588.1000000238432
 20
1914.970478814538
 30
0.0
 11
-588.1000000238429
 21
849.9704788145377
 31
0.0
  0
INSERT
  5
10F3
330
A3F
100
AcDbEntity
  8
SIZE
  6
Continuous
 62
     0
440
 16777216
370
    -2
100
AcDbBlockReference
  2
_ORIGIN
 10
-588.1000000238432
 20
1924.970478814537
 30
0.0
 41
10.0
 42
10.0
 43
10.0
 50
90.0
  0
INSERT
  5
10F4
330
A3F
100
AcDbEntity
  8
SIZE
  6
Continuous
 62
     0
440
 16777216
370
    -2
100
AcDbBlockReference
  2
_ORIGIN
 10
-588.1000000238429
 20
839.9704788145378
 30
0.0
 41
10.0
 42
10.0
 43
10.0
 50
270.0
  0
MTEXT
  5
10F5
330
A3F
100
AcDbEntity
  8
SIZE
  6
Continuous
 62
     0
440
 16777216
100
AcDbMText
 10
-613.1000000238426
 20
1382.470478814538
 30
0.0
 40
30.0
 41
0.0
 46
0.0
 71
     5
 72
     1
  1
\A1;1085
 11
0.0000000000000001
 21
1.0
 31
0.0
 73
     1
 44
1.0
  0
POINT
  5
10F6
330
A3F
100
AcDbEntity
  8
DEFPOINTS
  6
Continuous
 62
     0
440
 16777216
100
AcDbPoint
 10
-225.0000000000001
 20
1924.970478814538
 30
0.0
  0
POINT
  5
10F7
330
A3F
100
AcDbEntity
  8
DEFPOINTS
  6
Continuous
 62
     0
440
 16777216
100
AcDbPoint
 10
-225.0000000000001
 20
839.9704788145381
 30
0.0
  0
POINT
  5
10F8
330
A3F
100
AcDbEntity
  8
DEFPOINTS
  6
Continuous
 62
     0
440
 16777216
100
AcDbPoint
 10
-588.1000000238429
 20
839.9704788145378
 30
0.0
  0
ENDBLK
  5
A41
330
A3F
100
AcDbEntity
  8
0
100
AcDbBlockEnd
  0
BLOCK
  5
A58
330
A57
100
AcDbEntity
  8
0
100
AcDbBlockBegin
  2
*D8
 70
     1
 10
0.0
 20
0.0
 30
0.0
  3
*D8
  1

  0
LINE
  5
EBA
330
A57
100
AcDbEntity
  8
SIZE
  6
Continuous
 62
     0
440
 16777216
370
    -2
100
AcDbLine
 10
253.4655043891112
 20
1642.429186836869
 30
0.0
 11
253.4655043891112
 21
2212.628161350201
 31
0.0
  0
LINE
  5
EBB
330
A57
100
AcDbEntity
  8
SIZE
  6
Continuous
 62
     0
440
 16777216
370
    -2
100
AcDbLine
 10
-263.0862937322548
 20
1947.673744294629
 30
0.0
 11
-263.0862937322548
 21
2212.628161350201
 31
0.0
  0
LINE
  5
EBC
330
A57
100
AcDbEntity
  8
SIZE
  6
Continuous
 62
     0
440
 16777216
370
    -2
100
AcDbLine
 10
243.4655043891112
 20
2200.128161350201
 30
0.0
 11
-253.0862937322548
 21
2200.128161350201
 31
0.0
  0
INSERT
  5
EBD
330
A57
100
AcDbEntity
  8
SIZE
  6
Continuous
 62
     0
440
 16777216
370
    -2
100
AcDbBlockReference
  2
_ORIGIN
 10
253.4655043891112
 20
2200.128161350201
 30
0.0
 41
10.0
 42
10.0
 43
10.0
  0
INSERT
  5
EBE
330
A57
100
AcDbEntity
  8
SIZE
  6
Continuous
 62
     0
440
 16777216
370
    -2
100
AcDbBlockReference
  2
_ORIGIN
 10
-263.0862937322548
 20
2200.128161350201
 30
0.0
 41
10.0
 42
10.0
 43
10.0
 50
180.0
  0
MTEXT
  5
EBF
330
A57
100
AcDbEntity
  8
SIZE
  6
Continuous
 62
     0
440
 16777216
100
AcDbMText
 10
-4.810394671571796
 20
2225.128161350201
 30
0.0
 40
30.0
 41
0.0
 46
0.0
 71
     5
 72
     1
  1
\A1;520
 73
     1
 44
1.0
  0
POINT
  5
EC0
330
A57
100
AcDbEntity
  8
DEFPOINTS
  6
Continuous
 62
     0
440
 16777216
100
AcDbPoint
 10
253.4655043891112
 20
1632.429186836868
 30
0.0
  0
POINT
  5
EC1
330
A57
100
AcDbEntity
  8
DEFPOINTS
  6
Continuous
 62
     0
440
 16777216
100
AcDbPoint
 10
-263.0862937322548
 20
1937.673744294628
 30
0.0
  0
POINT
  5
EC2
330
A57
100
AcDbEntity
  8
DEFPOINTS
  6
Continuous
 62
     0
440
 16777216
100
AcDbPoint
 10
-263.0862937322548
 20
2200.128161350201
 30
0.0
  0
ENDBLK
  5
A59
330
A57
100
AcDbEntity
  8
0
100
AcDbBlockEnd
  0
BLOCK
  5
A64
330
A63
100
AcDbEntity
  8
0
100
AcDbBlockBegin
  2
*D9
 70
     1
 10
0.0
 20
0.0
 30
0.0
  3
*D9
  1

  0
LINE
  5
EC3
330
A63
100
AcDbEntity
  8
SIZE
  6
Continuous
 62
     0
440
 16777216
370
    -2
100
AcDbLine
 10
-263.0862937322548
 20
1947.673744294629
 30
0.0
 11
-263.0862937322548
 21
2073.24071164516
 31
0.0
  0
LINE
  5
EC4
330
A63
100
AcDbEntity
  8
SIZE
  6
Continuous
 62
     0
440
 16777216
370
    -2
100
AcDbLine
 10
0.000000000000029
 20
1900.703065970834
 30
0.0
 11
0.0000000000000396
 21
2073.24071164516
 31
0.0
  0
LINE
  5
EC5
330
A63
100
AcDbEntity
  8
SIZE
  6
Continuous
 62
     0
440
 16777216
370
    -2
100
AcDbLine
 10
-253.0862937322548
 20
2060.74071164516
 30
0.0
 11
-9.99999999999996
 21
2060.74071164516
 31
0.0
  0
INSERT
  5
EC6
330
A63
100
AcDbEntity
  8
SIZE
  6
Continuous
 62
     0
440
 16777216
370
    -2
100
AcDbBlockReference
  2
_ORIGIN
 10
-263.0862937322548
 20
2060.74071164516
 30
0.0
 41
10.0
 42
10.0
 43
10.0
 50
180.0
  0
INSERT
  5
EC7
330
A63
100
AcDbEntity
  8
SIZE
  6
Continuous
 62
     0
440
 16777216
370
    -2
100
AcDbBlockReference
  2
_ORIGIN
 10
0.0000000000000388
 20
2060.74071164516
 30
0.0
 41
10.0
 42
10.0
 43
10.0
  0
MTEXT
  5
EC8
330
A63
100
AcDbEntity
  8
SIZE
  6
Continuous
 62
     0
440
 16777216
100
AcDbMText
 10
-131.5431468661268
 20
2085.74071164516
 30
0.0
 40
30.0
 41
0.0
 46
0.0
 71
     5
 72
     1
  1
\A1;265
 73
     1
 44
1.0
  0
POINT
  5
EC9
330
A63
100
AcDbEntity
  8
DEFPOINTS
  6
Continuous
 62
     0
440
 16777216
100
AcDbPoint
 10
-263.0862937322548
 20
1937.673744294628
 30
0.0
  0
POINT
  5
ECA
330
A63
100
AcDbEntity
  8
DEFPOINTS
  6
Continuous
 62
     0
440
 16777216
100
AcDbPoint
 10
0.0000000000000284
 20
1890.703065970834
 30
0.0
  0
POINT
  5
ECB
330
A63
100
AcDbEntity
  8
DEFPOINTS
  6
Continuous
 62
     0
440
 16777216
100
AcDbPoint
 10
0.0000000000000388
 20
2060.74071164516
 30
0.0
  0
ENDBLK
  5
A65
330
A63
100
AcDbEntity
  8
0
100
AcDbBlockEnd
  0
BLOCK
  5
C6B
330
C6A
100
AcDbEntity
  8
0
100
AcDbBlockBegin
  2
*D10
 70
     1
 10
0.0
 20
0.0
 30
0.0
  3
*D10
  1

  0
LINE
  5
ECC
330
C6A
100
AcDbEntity
  8
SIZE
  6
Continuous
 62
     0
440
 16777216
370
    -2
100
AcDbLine
 10
-239.8000000000007
 20
-0.0000000000001153
 30
0.0
 11
-762.3168473685112
 21
-0.0000000000001993
 31
0.0
  0
LINE
  5
ECD
330
C6A
100
AcDbEntity
  8
SIZE
  6
Continuous
 62
     0
440
 16777216
370
    -2
100
AcDbLine
 10
-225.648172990131
 20
1950.000000000001
 30
0.0
 11
-762.3168473685116
 21
1950.000000000001
 31
0.0
  0
LINE
  5
ECE
330
C6A
100
AcDbEntity
  8
SIZE
  6
Continuous
 62
     0
440
 16777216
370
    -2
100
AcDbLine
 10
-749.8168473685112
 20
9.999999999999804
 30
0.0
 11
-749.8168473685116
 21
1940.000000000001
 31
0.0
  0
INSERT
  5
ECF
330
C6A
100
AcDbEntity
  8
SIZE
  6
Continuous
 62
     0
440
 16777216
370
    -2
100
AcDbBlockReference
  2
_ORIGIN
 10
-749.8168473685112
 20
-0.0000000000001973
 30
0.0
 41
10.0
 42
10.0
 43
10.0
 50
270.0
  0
INSERT
  5
ED0
330
C6A
100
AcDbEntity
  8
SIZE
  6
Continuous
 62
     0
440
 16777216
370
    -2
100
AcDbBlockReference
  2
_ORIGIN
 10
-749.8168473685116
 20
1950.000000000001
 30
0.0
 41
10.0
 42
10.0
 43
10.0
 50
90.0
  0
MTEXT
  5
ED1
330
C6A
100
AcDbEntity
  8
SIZE
  6
Continuous
 62
     0
440
 16777216
100
AcDbMText
 10
-774.8168473685109
 20
975.0
 30
0.0
 40
30.0
 41
0.0
 46
0.0
 71
     5
 72
     1
  1
\A1;1950
 11
0.0000000000000001
 21
1.0
 31
0.0
 73
     1
 44
1.0
  0
POINT
  5
ED2
330
C6A
100
AcDbEntity
  8
DEFPOINTS
  6
Continuous
 62
     0
440
 16777216
100
AcDbPoint
 10
-229.8000000000007
 20
-0.0000000000001137
 30
0.0
  0
POINT
  5
ED3
330
C6A
100
AcDbEntity
  8
DEFPOINTS
  6
Continuous
 62
     0
440
 16777216
100
AcDbPoint
 10
-215.6481729901309
 20
1950.000000000001
 30
0.0
  0
POINT
  5
ED4
330
C6A
100
AcDbEntity
  8
DEFPOINTS
  6
Continuous
 62
     0
440
 16777216
100
AcDbPoint
 10
-749.8168473685116
 20
1950.000000000001
 30
0.0
  0
ENDBLK
  5
C6C
330
C6A
100
AcDbEntity
  8
0
100
AcDbBlockEnd
  0
BLOCK
  5
D7B
330
D7A
100
AcDbEntity
  8
0
100
AcDbBlockBegin
  2
*D11
 70
     1
 10
0.0
 20
0.0
 30
0.0
  3
*D11
  1

  0
LINE
  5
10E7
330
D7A
100
AcDbEntity
  8
SIZE
  6
Continuous
 62
     0
440
 16777216
370
    -2
100
AcDbLine
 10
-239.8000000000007
 20
-0.0000000000001153
 30
0.0
 11
-600.6000000238426
 21
-0.0000000000001733
 31
0.0
  0
LINE
  5
10E8
330
D7A
100
AcDbEntity
  8
SIZE
  6
Continuous
 62
     0
440
 16777216
370
    -2
100
AcDbLine
 10
-235.0000000000001
 20
839.9704788145381
 30
0.0
 11
-600.6000000238429
 21
839.9704788145378
 31
0.0
  0
LINE
  5
10E9
330
D7A
100
AcDbEntity
  8
SIZE
  6
Continuous
 62
     0
440
 16777216
370
    -2
100
AcDbLine
 10
-588.1000000238426
 20
9.999999999999827
 30
0.0
 11
-588.1000000238429
 21
829.970478814538
 31
0.0
  0
INSERT
  5
10EA
330
D7A
100
AcDbEntity
  8
SIZE
  6
Continuous
 62
     0
440
 16777216
370
    -2
100
AcDbBlockReference
  2
_ORIGIN
 10
-588.1000000238426
 20
-0.0000000000001713
 30
0.0
 41
10.0
 42
10.0
 43
10.0
 50
270.0
  0
INSERT
  5
10EB
330
D7A
100
AcDbEntity
  8
SIZE
  6
Continuous
 62
     0
440
 16777216
370
    -2
100
AcDbBlockReference
  2
_ORIGIN
 10
-588.1000000238429
 20
839.9704788145378
 30
0.0
 41
10.0
 42
10.0
 43
10.0
 50
90.0
  0
MTEXT
  5
10EC
330
D7A
100
AcDbEntity
  8
SIZE
  6
Continuous
 62
     0
440
 16777216
100
AcDbMText
 10
-613.1000000238424
 20
419.9852394072689
 30
0.0
 40
30.0
 41
0.0
 46
0.0
 71
     5
 72
     1
  1
\A1;840
 11
0.0000000000000001
 21
1.0
 31
0.0
 73
     1
 44
1.0
  0
POINT
  5
10ED
330
D7A
100
AcDbEntity
  8
DEFPOINTS
  6
Continuous
 62
     0
440
 16777216
100
AcDbPoint
 10
-229.8000000000007
 20
-0.0000000000001137
 30
0.0
  0
POINT
  5
10EE
330
D7A
100
AcDbEntity
  8
DEFPOINTS
  6
Continuous
 62
     0
440
 16777216
100
AcDbPoint
 10
-225.0000000000001
 20
839.9704788145381
 30
0.0
  0
POINT
  5
10EF
330
D7A
100
AcDbEntity
  8
DEFPOINTS
  6
Continuous
 62
     0
440
 16777216
100
AcDbPoint
 10
-588.1000000238429
 20
839.9704788145378
 30
0.0
  0
ENDBLK
  5
D7C
330
D7A
100
AcDbEntity
  8
0
100
AcDbBlockEnd
  0
ENDSEC
  0
SECTION
  2
ENTITIES
  0
CIRCLE
  5
408
330
6F
100
AcDbEntity
  8
ARRANGE
  6
Continuous
100
AcDbCircle
 10
-0.000000000000603
 20
0.0
 30
0.0
 40
15.0
  0
TEXT
  5
40F
330
6F
100
AcDbEntity
  8
ETC
  6
Continuous
100
AcDbText
 10
350.0
 20
2270.0
 30
0.0
 40
40.0
  1
TGT124BC5
 50
0.000002504478167
 41
0.6125000238418579
  7
STANDARD1
100
AcDbText
  0
TEXT
  5
410
330
6F
100
AcDbEntity
  8
ETC
  6
Continuous
100
AcDbText
 10
350.0
 20
2200.0
 30
0.0
 40
40.0
  1
防雪架台(防雪板後・左)
 50
0.000002504478167
 41
0.8107142891202649
  7
STANDARD1
100
AcDbText
  0
LINE
  5
41D
330
6F
100
AcDbEntity
  8
DETAIL
  6
DASHED
100
AcDbLine
 10
-226.8130269780008
 20
720.3245874965387
 30
0.0
 11
-226.6295646450008
 21
720.2896818565393
 31
0.0
  0
LINE
  5
41E
330
6F
100
AcDbEntity
  8
DETAIL
  6
Continuous
100
AcDbLine
 10
176.9999999999993
 20
1452.420478814538
 30
0.0
 11
181.9999999999993
 21
1457.420478814539
 31
0.0
  0
LINE
  5
41F
330
6F
100
AcDbEntity
  8
DETAIL
  6
DASHED
100
AcDbLine
 10
-227.0000000000006
 20
720.3362268625387
 30
0.0
 11
-226.8130269780008
 21
720.3245874965387
 31
0.0
  0
LINE
  5
420
330
6F
100
AcDbEntity
  8
DETAIL
  6
Continuous
100
AcDbLine
 10
-177.0000000000005
 20
927.620478814539
 30
0.0
 11
176.9999999999993
 21
927.620478814539
 31
0.0
  0
LINE
  5
421
330
6F
100
AcDbEntity
  8
DETAIL
  6
DASHED
100
AcDbLine
 10
-227.0000000000006
 20
719.3832030165392
 30
0.0
 11
-225.8000000000006
 21
719.3832030165392
 31
0.0
  0
LINE
  5
422
330
6F
100
AcDbEntity
  8
DETAIL
  6
Continuous
100
AcDbLine
 10
-165.0000000000008
 20
1460.420478814539
 30
0.0
 11
-165.0000000000008
 21
1459.420478814539
 31
0.0
  0
LINE
  5
423
330
6F
100
AcDbEntity
  8
DETAIL
  6
DASHED
100
AcDbLine
 10
-225.8000000000006
 20
718.004920832539
 30
0.0
 11
-227.0000000000006
 21
718.004920832539
 31
0.0
  0
LINE
  5
424
330
6F
100
AcDbEntity
  8
DETAIL
  6
Continuous
100
AcDbLine
 10
-166.5000000000006
 20
1459.420478814539
 30
0.0
 11
-166.5000000000006
 21
1457.920478814538
 31
0.0
  0
LINE
  5
425
330
6F
100
AcDbEntity
  8
DETAIL
  6
DASHED
100
AcDbLine
 10
-225.8083610753822
 20
709.9973859661729
 30
0.0
 11
-227.0083610753822
 21
709.9973859661729
 31
0.0
  0
LINE
  5
426
330
6F
100
AcDbEntity
  8
DETAIL
  6
Continuous
100
AcDbLine
 10
-166.5000000000006
 20
1461.920478814539
 30
0.0
 11
-166.5000000000006
 21
1460.420478814539
 31
0.0
  0
LINE
  5
427
330
6F
100
AcDbEntity
  8
DETAIL
  6
DASHED
100
AcDbLine
 10
-225.8000000000006
 20
696.1260681395389
 30
0.0
 11
-227.0000000000006
 21
696.1260681395389
 31
0.0
  0
LINE
  5
428
330
6F
100
AcDbEntity
  8
DETAIL
  6
Continuous
100
AcDbLine
 10
-167.5000000000008
 20
1460.420478814539
 30
0.0
 11
-167.5000000000008
 21
1461.920478814539
 31
0.0
  0
LINE
  5
429
330
6F
100
AcDbEntity
  8
DETAIL
  6
DASHED
100
AcDbLine
 10
-222.5000000000006
 20
1383.820478814538
 30
0.0
 11
-140.5000000000008
 21
1465.820478814538
 31
0.0
  0
LINE
  5
42A
330
6F
100
AcDbEntity
  8
DETAIL
  6
Continuous
100
AcDbLine
 10
-167.5000000000008
 20
1457.920478814538
 30
0.0
 11
-167.5000000000008
 21
1459.420478814539
 31
0.0
  0
LINE
  5
42B
330
6F
100
AcDbEntity
  8
DETAIL
  6
DASHED
100
AcDbLine
 10
-225.8000000000006
 20
691.3664527635392
 30
0.0
 11
-227.0000000000006
 21
691.3664527635392
 31
0.0
  0
LINE
  5
42C
330
6F
100
AcDbEntity
  8
DETAIL
  6
Continuous
100
AcDbLine
 10
-169.0000000000005
 20
1459.420478814539
 30
0.0
 11
-169.0000000000005
 21
1460.420478814539
 31
0.0
  0
LINE
  5
42D
330
6F
100
AcDbEntity
  8
DETAIL
  6
DASHED
100
AcDbLine
 10
-235.8000000000006
 20
725.6837584425388
 30
0.0
 11
-227.0000000000006
 21
720.3362268625387
 31
0.0
  0
LINE
  5
42E
330
6F
100
AcDbEntity
  8
DETAIL
  6
Continuous
100
AcDbLine
 10
-182.0000000000005
 20
1457.420478814539
 30
0.0
 11
-182.0000000000005
 21
1467.420478814539
 31
0.0
  0
LINE
  5
42F
330
6F
100
AcDbEntity
  8
DETAIL
  6
Continuous
100
AcDbLine
 10
-182.0000000000005
 20
932.6204788145387
 30
0.0
 11
-182.0000000000005
 21
1016.620478814539
 31
0.0
  0
LINE
  5
430
330
6F
100
AcDbEntity
  8
DETAIL
  6
Continuous
100
AcDbLine
 10
-222.5000000000006
 20
1021.620478814539
 30
0.0
 11
-217.5000000000006
 21
1016.620478814539
 31
0.0
  0
LINE
  5
431
330
6F
100
AcDbEntity
  8
DETAIL
  6
Continuous
100
AcDbLine
 10
-200.8500000000008
 20
1437.270478814538
 30
0.0
 11
-200.8500000000008
 21
1457.970478814538
 31
0.0
  0
LINE
  5
432
330
6F
100
AcDbEntity
  8
DETAIL
  6
Continuous
100
AcDbLine
 10
-200.8500000000008
 20
1207.270478814539
 30
0.0
 11
-200.8500000000008
 21
1227.970478814539
 31
0.0
  0
LINE
  5
433
330
6F
100
AcDbEntity
  8
DETAIL
  6
Continuous
100
AcDbLine
 10
-200.8500000000008
 20
1027.270478814537
 30
0.0
 11
-200.8500000000008
 21
1057.970478814539
 31
0.0
  0
LINE
  5
434
330
6F
100
AcDbEntity
  8
DETAIL
  6
DASHED
100
AcDbLine
 10
-225.0000000000008
 20
1336.06047881454
 30
0.0
 11
-225.8000000000006
 21
1336.06047881454
 31
0.0
  0
LINE
  5
435
330
6F
100
AcDbEntity
  8
DETAIL
  6
Continuous
100
AcDbLine
 10
-210.1500000000005
 20
1057.970478814539
 30
0.0
 11
-210.1500000000005
 21
1027.270478814537
 31
0.0
  0
LINE
  5
436
330
6F
100
AcDbEntity
  8
DETAIL
  6
DASHED
100
AcDbLine
 10
-225.0000000000008
 20
1333.160478814539
 30
0.0
 11
-225.8000000000006
 21
1333.160478814539
 31
0.0
  0
LINE
  5
437
330
6F
100
AcDbEntity
  8
DETAIL
  6
Continuous
100
AcDbLine
 10
-210.1500000000005
 20
1227.970478814539
 30
0.0
 11
-210.1500000000005
 21
1207.270478814539
 31
0.0
  0
LINE
  5
438
330
6F
100
AcDbEntity
  8
DETAIL
  6
DASHED
100
AcDbLine
 10
-225.0000000000008
 20
1153.770478814537
 30
0.0
 11
-225.8000000000006
 21
1153.770478814537
 31
0.0
  0
LINE
  5
439
330
6F
100
AcDbEntity
  8
DETAIL
  6
Continuous
100
AcDbLine
 10
-210.1500000000005
 20
1457.970478814538
 30
0.0
 11
-210.1500000000005
 21
1437.270478814538
 31
0.0
  0
LINE
  5
43A
330
6F
100
AcDbEntity
  8
DETAIL
  6
DASHED
100
AcDbLine
 10
-225.0000000000008
 20
1150.870478814538
 30
0.0
 11
-225.8000000000006
 21
1150.870478814538
 31
0.0
  0
LINE
  5
43B
330
6F
100
AcDbEntity
  8
DETAIL
  6
Continuous
100
AcDbLine
 10
-226.8130269780008
 20
1475.663423092538
 30
0.0
 11
-227.0000000000006
 21
1475.675062459538
 31
0.0
  0
LINE
  5
43C
330
6F
100
AcDbEntity
  8
DETAIL
  6
DASHED
100
AcDbLine
 10
-225.0000000000008
 20
971.370478814539
 30
0.0
 11
-225.8000000000006
 21
971.370478814539
 31
0.0
  0
LINE
  5
43D
330
6F
100
AcDbEntity
  8
DETAIL
  6
Continuous
100
AcDbLine
 10
-226.6295646450008
 20
1475.628517453538
 30
0.0
 11
-226.8130269780008
 21
1475.663423092538
 31
0.0
  0
LINE
  5
43E
330
6F
100
AcDbEntity
  8
DETAIL
  6
DASHED
100
AcDbLine
 10
-225.0000000000008
 20
968.470478814539
 30
0.0
 11
-225.8000000000006
 21
968.470478814539
 31
0.0
  0
LINE
  5
43F
330
6F
100
AcDbEntity
  8
DETAIL
  6
Continuous
100
AcDbLine
 10
-226.4563066200005
 20
1475.571631706539
 30
0.0
 11
-226.6295646450008
 21
1475.628517453538
 31
0.0
  0
LINE
  5
440
330
6F
100
AcDbEntity
  8
DETAIL
  6
DASHED
100
AcDbLine
 10
-225.0000000000008
 20
971.370478814539
 30
0.0
 11
-225.0000000000008
 21
968.470478814539
 31
0.0
  0
LINE
  5
441
330
6F
100
AcDbEntity
  8
DETAIL
  6
Continuous
100
AcDbLine
 10
-226.2959346270008
 20
1475.493786884539
 30
0.0
 11
-226.4563066200005
 21
1475.571631706539
 31
0.0
  0
LINE
  5
442
330
6F
100
AcDbEntity
  8
DETAIL
  6
DASHED
100
AcDbLine
 10
-225.0000000000008
 20
1153.770478814537
 30
0.0
 11
-225.0000000000008
 21
1150.870478814538
 31
0.0
  0
LINE
  5
443
330
6F
100
AcDbEntity
  8
DETAIL
  6
Continuous
100
AcDbLine
 10
-226.1514762950007
 20
1475.395931757539
 30
0.0
 11
-226.2959346270008
 21
1475.493786884539
 31
0.0
  0
LINE
  5
444
330
6F
100
AcDbEntity
  8
DETAIL
  6
DASHED
100
AcDbLine
 10
-225.0000000000008
 20
1336.06047881454
 30
0.0
 11
-225.0000000000008
 21
1333.160478814539
 31
0.0
  0
LINE
  5
445
330
6F
100
AcDbEntity
  8
DETAIL
  6
Continuous
100
AcDbLine
 10
-226.0281950160006
 20
1475.281134132539
 30
0.0
 11
-226.1514762950007
 21
1475.395931757539
 31
0.0
  0
LINE
  5
446
330
6F
100
AcDbEntity
  8
DETAIL
  6
DASHED
100
AcDbLine
 10
-225.8000000000006
 20
971.370478814539
 30
0.0
 11
-225.8000000000006
 21
968.470478814539
 31
0.0
  0
LINE
  5
447
330
6F
100
AcDbEntity
  8
DETAIL
  6
Continuous
100
AcDbLine
 10
-225.9301096350006
 20
1475.153636879539
 30
0.0
 11
-226.0281950160006
 21
1475.281134132539
 31
0.0
  0
LINE
  5
448
330
6F
100
AcDbEntity
  8
DETAIL
  6
DASHED
100
AcDbLine
 10
-225.8000000000006
 20
1153.770478814537
 30
0.0
 11
-225.8000000000006
 21
1150.870478814538
 31
0.0
  0
LINE
  5
449
330
6F
100
AcDbEntity
  8
DETAIL
  6
Continuous
100
AcDbLine
 10
-225.8585782330008
 20
1475.016162624539
 30
0.0
 11
-225.9301096350006
 21
1475.153636879539
 31
0.0
  0
LINE
  5
44A
330
6F
100
AcDbEntity
  8
DETAIL
  6
DASHED
100
AcDbLine
 10
-225.8000000000006
 20
1336.06047881454
 30
0.0
 11
-225.8000000000006
 21
1333.160478814539
 31
0.0
  0
LINE
  5
44B
330
6F
100
AcDbEntity
  8
DETAIL
  6
Continuous
100
AcDbLine
 10
-225.8146564740007
 20
1474.870533922539
 30
0.0
 11
-225.8585782330008
 21
1475.016162624539
 31
0.0
  0
LINE
  5
44C
330
6F
100
AcDbEntity
  8
DETAIL
  6
Continuous
100
AcDbLine
 10
-225.8000000000006
 20
1474.722038613539
 30
0.0
 11
-225.8146564740007
 21
1474.870533922539
 31
0.0
  0
LINE
  5
44D
330
6F
100
AcDbEntity
  8
DETAIL
  6
Continuous
100
AcDbLine
 10
-182.0000000000005
 20
932.6204788145387
 30
0.0
 11
-177.0000000000005
 21
927.620478814539
 31
0.0
  0
LINE
  5
44E
330
6F
100
AcDbEntity
  8
DETAIL
  6
Continuous
100
AcDbLine
 10
-215.8000000000006
 20
946.620478814539
 30
0.0
 11
-215.8000000000006
 21
947.4204788145387
 31
0.0
  0
LINE
  5
44F
330
6F
100
AcDbEntity
  8
DETAIL
  6
Continuous
100
AcDbLine
 10
-217.5000000000006
 20
1466.620478814539
 30
0.0
 11
-217.5000000000006
 21
1467.420478814539
 31
0.0
  0
LINE
  5
450
330
6F
100
AcDbEntity
  8
DETAIL
  6
Continuous
100
AcDbLine
 10
-217.0000000000006
 20
971.6704788145387
 30
0.0
 11
-217.0000000000006
 21
968.1704788145387
 31
0.0
  0
LINE
  5
451
330
6F
100
AcDbEntity
  8
DETAIL
  6
Continuous
100
AcDbLine
 10
-220.8000000000006
 20
946.620478814539
 30
0.0
 11
-220.8000000000006
 21
947.4204788145387
 31
0.0
  0
LINE
  5
452
330
6F
100
AcDbEntity
  8
DETAIL
  6
Continuous
100
AcDbLine
 10
-222.5000000000006
 20
1462.420478814539
 30
0.0
 11
-222.5000000000006
 21
1467.420478814539
 31
0.0
  0
LINE
  5
453
330
6F
100
AcDbEntity
  8
DETAIL
  6
Continuous
100
AcDbLine
 10
-222.5000000000006
 20
1460.820478814538
 30
0.0
 11
-222.5000000000006
 21
1021.620478814539
 31
0.0
  0
LINE
  5
454
330
6F
100
AcDbEntity
  8
DETAIL
  6
Continuous
100
AcDbLine
 10
-224.6500000000008
 20
1464.970478814539
 30
0.0
 11
-224.6500000000008
 21
1465.820478814538
 31
0.0
  0
LINE
  5
456
330
6F
100
AcDbEntity
  8
DETAIL
  6
Continuous
100
AcDbLine
 10
-225.8000000000006
 20
688.5687653385391
 30
0.0
 11
-225.8000000000006
 21
1474.722038613539
 31
0.0
  0
LINE
  5
457
330
6F
100
AcDbEntity
  8
DETAIL
  6
Continuous
100
AcDbLine
 10
-227.0000000000006
 20
688.5687653385391
 30
0.0
 11
-227.0000000000006
 21
1475.675062459538
 31
0.0
  0
LINE
  5
458
330
6F
100
AcDbEntity
  8
DETAIL
  6
Continuous
100
AcDbLine
 10
-227.3000000000009
 20
1329.910478814539
 30
0.0
 11
-227.3000000000009
 21
1339.310478814538
 31
0.0
  0
LINE
  5
459
330
6F
100
AcDbEntity
  8
DETAIL
  6
Continuous
100
AcDbLine
 10
-227.3000000000009
 20
1147.620478814538
 30
0.0
 11
-227.3000000000009
 21
1157.020478814539
 31
0.0
  0
LINE
  5
45A
330
6F
100
AcDbEntity
  8
DETAIL
  6
Continuous
100
AcDbLine
 10
-227.3000000000009
 20
965.220478814539
 30
0.0
 11
-227.3000000000009
 21
974.6204788145387
 31
0.0
  0
LINE
  5
45B
330
6F
100
AcDbEntity
  8
DETAIL
  6
Continuous
100
AcDbLine
 10
-235.8000000000006
 20
724.7307345965392
 30
0.0
 11
-235.8000000000006
 21
1470.327530879538
 31
0.0
  0
LINE
  5
45C
330
6F
100
AcDbEntity
  8
DETAIL
  6
Continuous
100
AcDbLine
 10
-225.0000000000008
 20
1381.320478814539
 30
0.0
 11
-222.5000000000006
 21
1383.820478814538
 31
0.0
  0
LINE
  5
45D
330
6F
100
AcDbEntity
  8
DETAIL
  6
Continuous
100
AcDbLine
 10
-225.8000000000006
 20
688.5687653385391
 30
0.0
 11
-227.0000000000006
 21
688.5687653385391
 31
0.0
  0
LINE
  5
45E
330
6F
100
AcDbEntity
  8
DETAIL
  6
Continuous
100
AcDbLine
 10
-222.5000000000006
 20
1460.820478814538
 30
0.0
 11
-217.5000000000006
 21
1465.820478814538
 31
0.0
  0
LINE
  5
45F
330
6F
100
AcDbEntity
  8
DETAIL
  6
Continuous
100
AcDbLine
 10
-235.8000000000006
 20
724.7307345965392
 30
0.0
 11
-227.0000000000006
 21
719.3832030165392
 31
0.0
  0
LINE
  5
460
330
6F
100
AcDbEntity
  8
DETAIL
  6
Continuous
100
AcDbLine
 10
-235.8000000000006
 20
1469.374507033538
 30
0.0
 11
-227.0000000000006
 21
1474.722038613539
 31
0.0
  0
LINE
  5
461
330
6F
100
AcDbEntity
  8
DETAIL
  6
Continuous
100
AcDbLine
 10
-235.8000000000006
 20
1470.327530879538
 30
0.0
 11
-227.0000000000006
 21
1475.675062459538
 31
0.0
  0
ARC
  5
462
330
6F
100
AcDbEntity
  8
DETAIL
  6
Continuous
100
AcDbCircle
 10
-223.3795454550008
 20
1334.610478814538
 30
0.0
 40
6.099997035999927
100
AcDbArc
 50
160.8605158880003
 51
175.298347513799
  0
ARC
  5
463
330
6F
100
AcDbEntity
  8
DETAIL
  6
Continuous
100
AcDbCircle
 10
-223.3795454550008
 20
1334.610478814538
 30
0.0
 40
6.099997036000021
100
AcDbArc
 50
184.7016524862008
 51
199.1394841120015
  0
ARC
  5
464
330
6F
100
AcDbEntity
  8
DETAIL
  6
Continuous
100
AcDbCircle
 10
-223.3795454550008
 20
1334.610478814538
 30
0.0
 40
6.120454544999951
100
AcDbArc
 50
199.0730404343014
 51
230.1671880124
  0
CIRCLE
  5
465
330
6F
100
AcDbEntity
  8
DETAIL
  6
DASHED
100
AcDbCircle
 10
166.9999999999993
 20
1459.920478814539
 30
0.0
 40
1.75
  0
LINE
  5
466
330
6F
100
AcDbEntity
  8
DETAIL
  6
DASHED
100
AcDbLine
 10
-115.8000000000005
 20
1466.620478814539
 30
0.0
 11
-125.8000000000006
 21
1466.620478814539
 31
0.0
  0
LINE
  5
467
330
6F
100
AcDbEntity
  8
DETAIL
  6
DASHED
100
AcDbLine
 10
-125.8000000000006
 20
1456.620478814539
 30
0.0
 11
-115.8000000000005
 21
1456.620478814539
 31
0.0
  0
ARC
  5
468
330
6F
100
AcDbEntity
  8
DETAIL
  6
DASHED
100
AcDbCircle
 10
166.9999999999993
 20
1458.570478814538
 30
0.0
 40
2.649999999999864
100
AcDbArc
 50
180.0
 51
0.0
  0
LINE
  5
469
330
6F
100
AcDbEntity
  8
DETAIL
  6
DASHED
100
AcDbLine
 10
-115.8000000000005
 20
1456.620478814539
 30
0.0
 11
-115.8000000000005
 21
1466.620478814539
 31
0.0
  0
LINE
  5
46A
330
6F
100
AcDbEntity
  8
DETAIL
  6
DASHED
100
AcDbLine
 10
-125.8000000000006
 20
1466.620478814539
 30
0.0
 11
-125.8000000000006
 21
1456.620478814539
 31
0.0
  0
ARC
  5
46B
330
6F
100
AcDbEntity
  8
DETAIL
  6
Continuous
100
AcDbCircle
 10
-223.3795454550008
 20
1334.610478814538
 30
0.0
 40
6.120454544999791
100
AcDbArc
 50
129.8328119876013
 51
160.9269595656984
  0
CIRCLE
  5
46C
330
6F
100
AcDbEntity
  8
DETAIL
  6
DASHED
100
AcDbCircle
 10
166.9999999999993
 20
1459.920478814539
 30
0.0
 40
1.75
  0
CIRCLE
  5
46D
330
6F
100
AcDbEntity
  8
DETAIL
  6
DASHED
100
AcDbCircle
 10
166.9999999999993
 20
1459.920478814539
 30
0.0
 40
2.0
  0
CIRCLE
  5
46E
330
6F
100
AcDbEntity
  8
DETAIL
  6
DASHED
100
AcDbCircle
 10
-0.0000000000008522
 20
1459.920478814539
 30
0.0
 40
1.75
  0
CIRCLE
  5
46F
330
6F
100
AcDbEntity
  8
DETAIL
  6
DASHED
100
AcDbCircle
 10
-0.0000000000008522
 20
1459.920478814539
 30
0.0
 40
2.0
  0
CIRCLE
  5
470
330
6F
100
AcDbEntity
  8
DETAIL
  6
DASHED
100
AcDbCircle
 10
-167.0000000000005
 20
1459.920478814539
 30
0.0
 40
1.75
  0
CIRCLE
  5
471
330
6F
100
AcDbEntity
  8
DETAIL
  6
DASHED
100
AcDbCircle
 10
-167.0000000000005
 20
1459.920478814539
 30
0.0
 40
2.0
  0
ARC
  5
472
330
6F
100
AcDbEntity
  8
DETAIL
  6
DASHED
100
AcDbCircle
 10
166.9999999999993
 20
1461.270478814538
 30
0.0
 40
2.649999999999864
100
AcDbArc
 50
0.0
 51
180.0
  0
CIRCLE
  5
473
330
6F
100
AcDbEntity
  8
DETAIL
  6
DASHED
100
AcDbCircle
 10
-0.0000000000008522
 20
1459.920478814539
 30
0.0
 40
1.75
  0
ARC
  5
474
330
6F
100
AcDbEntity
  8
DETAIL
  6
DASHED
100
AcDbCircle
 10
-0.0000000000008522
 20
1458.570478814538
 30
0.0
 40
2.649999999999864
100
AcDbArc
 50
180.0
 51
0.0
  0
ARC
  5
475
330
6F
100
AcDbEntity
  8
DETAIL
  6
DASHED
100
AcDbCircle
 10
-0.0000000000008522
 20
1461.270478814538
 30
0.0
 40
2.649999999999864
100
AcDbArc
 50
0.0
 51
180.0
  0
LINE
  5
476
330
6F
100
AcDbEntity
  8
DETAIL
  6
DASHED
100
AcDbLine
 10
-217.0000000000006
 20
1332.610478814539
 30
0.0
 11
-217.0000000000006
 21
1336.610478814538
 31
0.0
  0
ARC
  5
477
330
6F
100
AcDbEntity
  8
DETAIL
  6
DASHED
100
AcDbCircle
 10
-126.6000000000008
 20
1465.820478814538
 30
0.0
 40
0.8000000000001817
100
AcDbArc
 50
0.0
 51
90.0
  0
LINE
  5
478
330
6F
100
AcDbEntity
  8
DETAIL
  6
DASHED
100
AcDbLine
 10
-217.0000000000006
 20
1150.320478814538
 30
0.0
 11
-217.0000000000006
 21
1154.320478814537
 31
0.0
  0
CIRCLE
  5
479
330
6F
100
AcDbEntity
  8
DETAIL
  6
DASHED
100
AcDbCircle
 10
-167.0000000000005
 20
1459.920478814539
 30
0.0
 40
1.75
  0
LINE
  5
47A
330
6F
100
AcDbEntity
  8
DETAIL
  6
DASHED
100
AcDbLine
 10
-217.0000000000006
 20
967.9204788145387
 30
0.0
 11
-217.0000000000006
 21
971.9204788145386
 31
0.0
  0
LINE
  5
47B
330
6F
100
AcDbEntity
  8
DETAIL
  6
DASHED
100
AcDbLine
 10
-227.0000000000006
 20
1332.610478814539
 30
0.0
 11
-227.0000000000006
 21
1336.610478814538
 31
0.0
  0
LINE
  5
47C
330
6F
100
AcDbEntity
  8
DETAIL
  6
DASHED
100
AcDbLine
 10
-227.0000000000006
 20
1150.320478814538
 30
0.0
 11
-227.0000000000006
 21
1154.320478814537
 31
0.0
  0
LINE
  5
47D
330
6F
100
AcDbEntity
  8
DETAIL
  6
DASHED
100
AcDbLine
 10
-227.0000000000006
 20
967.9204788145387
 30
0.0
 11
-227.0000000000006
 21
971.9204788145386
 31
0.0
  0
ARC
  5
47E
330
6F
100
AcDbEntity
  8
DETAIL
  6
DASHED
100
AcDbCircle
 10
-167.0000000000005
 20
1458.570478814538
 30
0.0
 40
2.649999999999864
100
AcDbArc
 50
180.0
 51
0.0
  0
ARC
  5
47F
330
6F
100
AcDbEntity
  8
DETAIL
  6
DASHED
100
AcDbCircle
 10
-167.0000000000005
 20
1461.270478814538
 30
0.0
 40
2.649999999999864
100
AcDbArc
 50
0.0
 51
180.0
  0
LINE
  5
480
330
6F
100
AcDbEntity
  8
DETAIL
  6
Continuous
100
AcDbLine
 10
222.4999999999993
 20
1460.820478814538
 30
0.0
 11
217.4999999999994
 21
1465.820478814538
 31
0.0
  0
LINE
  5
481
330
6F
100
AcDbEntity
  8
DETAIL
  6
Continuous
100
AcDbLine
 10
-227.0000000000006
 20
1474.722038613539
 30
0.0
 11
-225.8000000000006
 21
1474.722038613539
 31
0.0
  0
LINE
  5
482
330
6F
100
AcDbEntity
  8
DETAIL
  6
Continuous
100
AcDbLine
 10
-225.8000000000006
 20
1471.924351188538
 30
0.0
 11
-227.0000000000006
 21
1471.924351188538
 31
0.0
  0
ARC
  5
483
330
6F
100
AcDbEntity
  8
DETAIL
  6
Continuous
100
AcDbCircle
 10
-225.0000000000008
 20
947.4204788145387
 30
0.0
 40
0.799999999999955
100
AcDbArc
 50
180.0
 51
270.0
  0
LINE
  5
484
330
6F
100
AcDbEntity
  8
DETAIL
  6
Continuous
100
AcDbLine
 10
-222.0000000000005
 20
1467.420478814539
 30
0.0
 11
221.9999999999993
 21
1467.420478814539
 31
0.0
  0
ARC
  5
485
330
6F
100
AcDbEntity
  8
DETAIL
  6
Continuous
100
AcDbCircle
 10
-205.5000000000009
 20
1057.970478814539
 30
0.0
 40
4.650000000000089
100
AcDbArc
 50
0.0
 51
180.0
  0
LINE
  5
486
330
6F
100
AcDbEntity
  8
DETAIL
  6
Continuous
100
AcDbLine
 10
-225.0083610753824
 20
1466.620435121107
 30
0.0
 11
-182.5000000000006
 21
1466.620478814539
 31
0.0
  0
ARC
  5
487
330
6F
100
AcDbEntity
  8
DETAIL
  6
Continuous
100
AcDbCircle
 10
-205.5000000000009
 20
1027.270478814537
 30
0.0
 40
4.649999999999863
100
AcDbArc
 50
180.0
 51
0.0
  0
LINE
  5
488
330
6F
100
AcDbEntity
  8
DETAIL
  6
Continuous
100
AcDbLine
 10
222.4999999999993
 20
1466.620478814539
 30
0.0
 11
182.4999999999993
 21
1466.620478814539
 31
0.0
  0
ARC
  5
489
330
6F
100
AcDbEntity
  8
DETAIL
  6
Continuous
100
AcDbCircle
 10
-223.3795454550008
 20
1152.320478814537
 30
0.0
 40
5.78445881999994
100
AcDbArc
 50
175.0412501034986
 51
184.958749896499
  0
LINE
  5
48A
330
6F
100
AcDbEntity
  8
DETAIL
  6
Continuous
100
AcDbLine
 10
182.4999999999993
 20
1465.820478814538
 30
0.0
 11
217.4999999999994
 21
1465.820478814538
 31
0.0
  0
ARC
  5
48B
330
6F
100
AcDbEntity
  8
DETAIL
  6
Continuous
100
AcDbCircle
 10
-223.3795454550008
 20
969.9204788145387
 30
0.0
 40
5.78445881999994
100
AcDbArc
 50
175.0412501034986
 51
184.958749896499
  0
LINE
  5
48C
330
6F
100
AcDbEntity
  8
DETAIL
  6
Continuous
100
AcDbLine
 10
-217.5000000000006
 20
1465.820478814538
 30
0.0
 11
-182.5000000000006
 21
1465.820478814538
 31
0.0
  0
LINE
  5
48D
330
6F
100
AcDbEntity
  8
DETAIL
  6
DASHED
100
AcDbLine
 10
-225.8000000000006
 20
1467.874690040538
 30
0.0
 11
-227.0000000000006
 21
1467.874690040538
 31
0.0
  0
ARC
  5
48E
330
6F
100
AcDbEntity
  8
DETAIL
  6
Continuous
100
AcDbCircle
 10
-223.3795454550008
 20
1152.320478814537
 30
0.0
 40
6.099997036000001
100
AcDbArc
 50
160.8605158879981
 51
175.298347513799
  0
LINE
  5
48F
330
6F
100
AcDbEntity
  8
DETAIL
  6
Continuous
100
AcDbLine
 10
-225.8000000000006
 20
1465.820478814538
 30
0.0
 11
-222.5000000000006
 21
1465.820478814538
 31
0.0
  0
LINE
  5
490
330
6F
100
AcDbEntity
  8
DETAIL
  6
DASHED
100
AcDbLine
 10
181.9999999999993
 20
1466.620478814539
 30
0.0
 11
-182.0000000000005
 21
1466.620478814539
 31
0.0
  0
ARC
  5
491
330
6F
100
AcDbEntity
  8
DETAIL
  6
Continuous
100
AcDbCircle
 10
-223.3795454550008
 20
1152.320478814537
 30
0.0
 40
6.099997036000021
100
AcDbArc
 50
184.7016524862008
 51
199.1394841119996
  0
LINE
  5
492
330
6F
100
AcDbEntity
  8
DETAIL
  6
Continuous
100
AcDbLine
 10
-224.6500000000008
 20
1464.970478814539
 30
0.0
 11
-225.8000000000006
 21
1464.970478814539
 31
0.0
  0
LINE
  5
493
330
6F
100
AcDbEntity
  8
DETAIL
  6
DASHED
100
AcDbLine
 10
-182.0000000000005
 20
1465.820478814538
 30
0.0
 11
181.9999999999993
 21
1465.820478814538
 31
0.0
  0
ARC
  5
494
330
6F
100
AcDbEntity
  8
DETAIL
  6
Continuous
100
AcDbCircle
 10
-223.3795454550008
 20
969.9204788145387
 30
0.0
 40
6.099997036000001
100
AcDbArc
 50
160.8605158879981
 51
175.298347513799
  0
LINE
  5
495
330
6F
100
AcDbEntity
  8
DETAIL
  6
Continuous
100
AcDbLine
 10
-225.8000000000006
 20
1464.935509653538
 30
0.0
 11
-227.0000000000006
 21
1464.935509653538
 31
0.0
  0
LINE
  5
496
330
6F
100
AcDbEntity
  8
DETAIL
  6
DASHED
100
AcDbLine
 10
-217.5000000000006
 20
1465.820478814538
 30
0.0
 11
-222.5000000000006
 21
1465.820478814538
 31
0.0
  0
ARC
  5
497
330
6F
100
AcDbEntity
  8
DETAIL
  6
Continuous
100
AcDbCircle
 10
-223.3795454550008
 20
969.9204788145387
 30
0.0
 40
6.099997036000001
100
AcDbArc
 50
184.7016524861987
 51
199.1394841119996
  0
LINE
  5
498
330
6F
100
AcDbEntity
  8
DETAIL
  6
Continuous
100
AcDbLine
 10
166.4999999999993
 20
1461.920478814539
 30
0.0
 11
167.499999999999
 21
1461.920478814539
 31
0.0
  0
LINE
  5
499
330
6F
100
AcDbEntity
  8
DETAIL
  6
DASHED
100
AcDbLine
 10
-141.3000000000005
 20
1465.020478814538
 30
0.0
 11
-224.6500000000008
 21
1465.020478814538
 31
0.0
  0
ARC
  5
49A
330
6F
100
AcDbEntity
  8
DETAIL
  6
Continuous
100
AcDbCircle
 10
-223.3795454550008
 20
1152.320478814537
 30
0.0
 40
6.120454544999951
100
AcDbArc
 50
199.0730404343014
 51
230.1671880123986
  0
LINE
  5
49B
330
6F
100
AcDbEntity
  8
DETAIL
  6
Continuous
100
AcDbLine
 10
-0.5000000000006252
 20
1461.920478814539
 30
0.0
 11
0.4999999999993749
 21
1461.920478814539
 31
0.0
  0
LINE
  5
49C
330
6F
100
AcDbEntity
  8
DETAIL
  6
DASHED
100
AcDbLine
 10
-126.6000000000008
 20
1461.620478814539
 30
0.0
 11
-125.8000000000006
 21
1461.620478814539
 31
0.0
  0
ARC
  5
49D
330
6F
100
AcDbEntity
  8
DETAIL
  6
Continuous
100
AcDbCircle
 10
-223.3795454550008
 20
1152.320478814537
 30
0.0
 40
6.120454544999962
100
AcDbArc
 50
129.8328119876
 51
160.9269595656984
  0
LINE
  5
49E
330
6F
100
AcDbEntity
  8
DETAIL
  6
Continuous
100
AcDbLine
 10
-167.5000000000008
 20
1461.920478814539
 30
0.0
 11
-166.5000000000006
 21
1461.920478814539
 31
0.0
  0
LINE
  5
49F
330
6F
100
AcDbEntity
  8
DETAIL
  6
DASHED
100
AcDbLine
 10
-225.0000000000008
 20
1461.620478814539
 30
0.0
 11
-225.8000000000006
 21
1461.620478814539
 31
0.0
  0
ARC
  5
4A0
330
6F
100
AcDbEntity
  8
DETAIL
  6
Continuous
100
AcDbCircle
 10
-223.3795454550008
 20
969.9204788145387
 30
0.0
 40
6.120454544999878
100
AcDbArc
 50
199.0730404342993
 51
230.1671880124
  0
LINE
  5
4A1
330
6F
100
AcDbEntity
  8
DETAIL
  6
Continuous
100
AcDbLine
 10
-225.8000000000006
 20
1460.820478814538
 30
0.0
 11
-225.0000000000008
 21
1460.820478814538
 31
0.0
  0
LINE
  5
4A2
330
6F
100
AcDbEntity
  8
DETAIL
  6
DASHED
100
AcDbLine
 10
210.1499999999993
 20
1457.420478814539
 30
0.0
 11
217.4999999999994
 21
1457.420478814539
 31
0.0
  0
ARC
  5
4A3
330
6F
100
AcDbEntity
  8
DETAIL
  6
Continuous
100
AcDbCircle
 10
-223.3795454550008
 20
969.9204788145387
 30
0.0
 40
6.120454545000137
100
AcDbArc
 50
129.8328119875986
 51
160.9269595656984
  0
LINE
  5
4A4
330
6F
100
AcDbEntity
  8
DETAIL
  6
Continuous
100
AcDbLine
 10
167.499999999999
 20
1460.420478814539
 30
0.0
 11
168.9999999999991
 21
1460.420478814539
 31
0.0
  0
LINE
  5
4A5
330
6F
100
AcDbEntity
  8
DETAIL
  6
DASHED
100
AcDbLine
 10
-200.3500000000008
 20
1457.420478814539
 30
0.0
 11
200.3499999999995
 21
1457.420478814539
 31
0.0
  0
LINE
  5
4A6
330
6F
100
AcDbEntity
  8
DETAIL
  6
Continuous
100
AcDbLine
 10
164.999999999999
 20
1460.420478814539
 30
0.0
 11
166.4999999999993
 21
1460.420478814539
 31
0.0
  0
LINE
  5
4A7
330
6F
100
AcDbEntity
  8
DETAIL
  6
DASHED
100
AcDbLine
 10
-217.5000000000006
 20
1449.450000000001
 30
0.0
 11
-210.1500000000005
 21
1449.450000000001
 31
0.0
  0
LINE
  5
4A8
330
6F
100
AcDbEntity
  8
DETAIL
  6
Continuous
100
AcDbLine
 10
0.4999999999993749
 20
1460.420478814539
 30
0.0
 11
1.99999999999937
 21
1460.420478814539
 31
0.0
  0
LINE
  5
4A9
330
6F
100
AcDbEntity
  8
DETAIL
  6
DASHED
100
AcDbLine
 10
-126.6000000000008
 20
1456.620478814539
 30
0.0
 11
-115.8000000000005
 21
1456.620478814539
 31
0.0
  0
LINE
  5
4AA
330
6F
100
AcDbEntity
  8
DETAIL
  6
Continuous
100
AcDbLine
 10
-2.000000000000623
 20
1460.420478814539
 30
0.0
 11
-0.5000000000006252
 21
1460.420478814539
 31
0.0
  0
LINE
  5
4AB
330
6F
100
AcDbEntity
  8
DETAIL
  6
DASHED
100
AcDbLine
 10
-225.8083610753822
 20
1457.637929015171
 30
0.0
 11
-227.0083610753822
 21
1457.637929015171
 31
0.0
  0
LINE
  5
4AC
330
6F
100
AcDbEntity
  8
DETAIL
  6
Continuous
100
AcDbLine
 10
-166.5000000000006
 20
1460.420478814539
 30
0.0
 11
-165.0000000000008
 21
1460.420478814539
 31
0.0
  0
LINE
  5
4AD
330
6F
100
AcDbEntity
  8
DETAIL
  6
DASHED
100
AcDbLine
 10
-225.5083610753824
 20
1435.292091667635
 30
0.0
 11
-226.3083610753822
 21
1435.292091667635
 31
0.0
  0
LINE
  5
4AE
330
6F
100
AcDbEntity
  8
DETAIL
  6
Continuous
100
AcDbLine
 10
-169.0000000000005
 20
1460.420478814539
 30
0.0
 11
-167.5000000000008
 21
1460.420478814539
 31
0.0
  0
LINE
  5
4AF
330
6F
100
AcDbEntity
  8
DETAIL
  6
DASHED
100
AcDbLine
 10
-225.8000000000006
 20
1343.097749869539
 30
0.0
 11
-227.0000000000006
 21
1343.097749869539
 31
0.0
  0
LINE
  5
4B0
330
6F
100
AcDbEntity
  8
DETAIL
  6
Continuous
100
AcDbLine
 10
-167.5000000000008
 20
1459.420478814539
 30
0.0
 11
-169.0000000000005
 21
1459.420478814539
 31
0.0
  0
LINE
  5
4B1
330
6F
100
AcDbEntity
  8
DETAIL
  6
DASHED
100
AcDbLine
 10
-227.8000000000006
 20
1336.610478814538
 30
0.0
 11
-229.1423541310007
 21
1336.610478814538
 31
0.0
  0
LINE
  5
4B2
330
6F
100
AcDbEntity
  8
DETAIL
  6
Continuous
100
AcDbLine
 10
-165.0000000000008
 20
1459.420478814539
 30
0.0
 11
-166.5000000000006
 21
1459.420478814539
 31
0.0
  0
LINE
  5
4B3
330
6F
100
AcDbEntity
  8
DETAIL
  6
DASHED
100
AcDbLine
 10
-222.0000000000006
 20
1336.360478814539
 30
0.0
 11
-217.0000000000006
 21
1336.360478814539
 31
0.0
  0
LINE
  5
4B4
330
6F
100
AcDbEntity
  8
DETAIL
  6
Continuous
100
AcDbLine
 10
-0.5000000000006252
 20
1459.420478814539
 30
0.0
 11
-2.000000000000623
 21
1459.420478814539
 31
0.0
  0
LINE
  5
4B5
330
6F
100
AcDbEntity
  8
DETAIL
  6
DASHED
100
AcDbLine
 10
-227.0000000000006
 20
1336.360478814539
 30
0.0
 11
-225.0000000000008
 21
1336.360478814539
 31
0.0
  0
LINE
  5
4B6
330
6F
100
AcDbEntity
  8
DETAIL
  6
Continuous
100
AcDbLine
 10
1.99999999999937
 20
1459.420478814539
 30
0.0
 11
0.4999999999993749
 21
1459.420478814539
 31
0.0
  0
LINE
  5
4B7
330
6F
100
AcDbEntity
  8
DETAIL
  6
DASHED
100
AcDbLine
 10
-227.8000000000006
 20
1335.110478814539
 30
0.0
 11
-229.1423541310007
 21
1335.110478814539
 31
0.0
  0
LINE
  5
4B8
330
6F
100
AcDbEntity
  8
DETAIL
  6
Continuous
100
AcDbLine
 10
166.4999999999993
 20
1459.420478814539
 30
0.0
 11
164.999999999999
 21
1459.420478814539
 31
0.0
  0
LINE
  5
4B9
330
6F
100
AcDbEntity
  8
DETAIL
  6
DASHED
100
AcDbLine
 10
-227.8000000000006
 20
1334.110478814539
 30
0.0
 11
-229.1423541310007
 21
1334.110478814539
 31
0.0
  0
LINE
  5
4BA
330
6F
100
AcDbEntity
  8
DETAIL
  6
Continuous
100
AcDbLine
 10
168.9999999999991
 20
1459.420478814539
 30
0.0
 11
167.499999999999
 21
1459.420478814539
 31
0.0
  0
LINE
  5
4BB
330
6F
100
AcDbEntity
  8
DETAIL
  6
DASHED
100
AcDbLine
 10
-222.0000000000006
 20
1332.860478814539
 30
0.0
 11
-217.0000000000006
 21
1332.860478814539
 31
0.0
  0
LINE
  5
4BC
330
6F
100
AcDbEntity
  8
DETAIL
  6
Continuous
100
AcDbLine
 10
-166.5000000000006
 20
1457.920478814538
 30
0.0
 11
-167.5000000000008
 21
1457.920478814538
 31
0.0
  0
LINE
  5
4BD
330
6F
100
AcDbEntity
  8
DETAIL
  6
DASHED
100
AcDbLine
 10
-227.0000000000006
 20
1332.860478814539
 30
0.0
 11
-225.0000000000008
 21
1332.860478814539
 31
0.0
  0
LINE
  5
4BE
330
6F
100
AcDbEntity
  8
DETAIL
  6
Continuous
100
AcDbLine
 10
0.4999999999993749
 20
1457.920478814538
 30
0.0
 11
-0.5000000000006252
 21
1457.920478814538
 31
0.0
  0
LINE
  5
4BF
330
6F
100
AcDbEntity
  8
DETAIL
  6
DASHED
100
AcDbLine
 10
-227.8000000000006
 20
1332.610478814539
 30
0.0
 11
-229.1423541310007
 21
1332.610478814539
 31
0.0
  0
LINE
  5
4C0
330
6F
100
AcDbEntity
  8
DETAIL
  6
Continuous
100
AcDbLine
 10
167.499999999999
 20
1457.920478814538
 30
0.0
 11
166.4999999999993
 21
1457.920478814538
 31
0.0
  0
LINE
  5
4C1
330
6F
100
AcDbEntity
  8
DETAIL
  6
DASHED
100
AcDbLine
 10
-225.8000000000006
 20
1326.123207759539
 30
0.0
 11
-227.0000000000006
 21
1326.123207759539
 31
0.0
  0
LINE
  5
4C2
330
6F
100
AcDbEntity
  8
DETAIL
  6
Continuous
100
AcDbLine
 10
200.8499999999995
 20
1457.420478814539
 30
0.0
 11
210.1499999999993
 21
1457.420478814539
 31
0.0
  0
LINE
  5
4C3
330
6F
100
AcDbEntity
  8
DETAIL
  6
DASHED
100
AcDbLine
 10
176.9999999999993
 20
1465.820478814538
 30
0.0
 11
176.9999999999993
 21
1466.620478814539
 31
0.0
  0
LINE
  5
4C4
330
6F
100
AcDbEntity
  8
DETAIL
  6
Continuous
100
AcDbLine
 10
-210.1500000000005
 20
1457.420478814539
 30
0.0
 11
-200.8500000000008
 21
1457.420478814539
 31
0.0
  0
LINE
  5
4C5
330
6F
100
AcDbEntity
  8
DETAIL
  6
DASHED
100
AcDbLine
 10
169.6499999999992
 20
1458.570478814538
 30
0.0
 11
169.6499999999992
 21
1461.270478814538
 31
0.0
  0
LINE
  5
4C6
330
6F
100
AcDbEntity
  8
DETAIL
  6
Continuous
100
AcDbLine
 10
-177.0000000000005
 20
1452.420478814538
 30
0.0
 11
176.9999999999993
 21
1452.420478814538
 31
0.0
  0
LINE
  5
4C7
330
6F
100
AcDbEntity
  8
DETAIL
  6
DASHED
100
AcDbLine
 10
164.3499999999991
 20
1461.270478814538
 30
0.0
 11
164.3499999999991
 21
1458.570478814538
 31
0.0
  0
LINE
  5
4C8
330
6F
100
AcDbEntity
  8
DETAIL
  6
Continuous
100
AcDbLine
 10
-225.8083610753822
 20
1455.549692602172
 30
0.0
 11
-227.0083610753822
 21
1455.549692602172
 31
0.0
  0
LINE
  5
4CA
330
6F
100
AcDbEntity
  8
DETAIL
  6
Continuous
100
AcDbLine
 10
-227.3000000000009
 20
1339.310478814538
 30
0.0
 11
-227.0000000000006
 21
1339.310478814538
 31
0.0
  0
LINE
  5
4CB
330
6F
100
AcDbEntity
  8
DETAIL
  6
DASHED
100
AcDbLine
 10
-223.9000000000005
 20
1464.220478814539
 30
0.0
 11
-224.6500000000008
 21
1464.970460473538
 31
0.0
  0
LINE
  5
4CC
330
6F
100
AcDbEntity
  8
DETAIL
  6
Continuous
100
AcDbLine
 10
-229.1640042750007
 20
1336.610478814538
 30
0.0
 11
-229.1423541310007
 21
1336.610478814538
 31
0.0
  0
LINE
  5
4CD
330
6F
100
AcDbEntity
  8
DETAIL
  6
DASHED
100
AcDbLine
 10
-221.7000000000005
 20
1461.620478814539
 30
0.0
 11
-217.5000000000006
 21
1457.420478814539
 31
0.0
  0
LINE
  5
4CE
330
6F
100
AcDbEntity
  8
DETAIL
  6
Continuous
100
AcDbLine
 10
-225.0000000000008
 20
1336.360478814539
 30
0.0
 11
-222.0000000000006
 21
1336.360478814539
 31
0.0
  0
LINE
  5
4CF
330
6F
100
AcDbEntity
  8
DETAIL
  6
DASHED
100
AcDbLine
 10
-225.5083610753824
 20
1213.262570482173
 30
0.0
 11
-226.3083610753822
 21
1213.262570482173
 31
0.0
  0
LINE
  5
4D0
330
6F
100
AcDbEntity
  8
DETAIL
  6
Continuous
100
AcDbLine
 10
-229.4590161420008
 20
1335.110478814539
 30
0.0
 11
-229.1423541310007
 21
1335.110478814539
 31
0.0
  0
LINE
  5
4D1
330
6F
100
AcDbEntity
  8
DETAIL
  6
DASHED
100
AcDbLine
 10
-225.0000000000008
 20
1161.620478814539
 30
0.0
 11
-225.8000000000006
 21
1161.620478814539
 31
0.0
  0
LINE
  5
4D2
330
6F
100
AcDbEntity
  8
DETAIL
  6
Continuous
100
AcDbLine
 10
-229.1423541310007
 20
1334.110478814539
 30
0.0
 11
-229.4590161420008
 21
1334.110478814539
 31
0.0
  0
LINE
  5
4D3
330
6F
100
AcDbEntity
  8
DETAIL
  6
DASHED
100
AcDbLine
 10
-225.8000000000006
 20
1160.795536933538
 30
0.0
 11
-227.0000000000006
 21
1160.795536933538
 31
0.0
  0
LINE
  5
4D4
330
6F
100
AcDbEntity
  8
DETAIL
  6
Continuous
100
AcDbLine
 10
-225.0000000000008
 20
1332.860478814539
 30
0.0
 11
-222.0000000000006
 21
1332.860478814539
 31
0.0
  0
LINE
  5
4D5
330
6F
100
AcDbEntity
  8
DETAIL
  6
DASHED
100
AcDbLine
 10
-227.8000000000006
 20
1154.320478814537
 30
0.0
 11
-229.1423541310007
 21
1154.320478814537
 31
0.0
  0
LINE
  5
4D6
330
6F
100
AcDbEntity
  8
DETAIL
  6
Continuous
100
AcDbLine
 10
-229.1423541310007
 20
1332.610478814539
 30
0.0
 11
-229.1640042750007
 21
1332.610478814539
 31
0.0
  0
LINE
  5
4D7
330
6F
100
AcDbEntity
  8
DETAIL
  6
DASHED
100
AcDbLine
 10
-222.0000000000006
 20
1154.070478814539
 30
0.0
 11
-217.0000000000006
 21
1154.070478814539
 31
0.0
  0
LINE
  5
4D8
330
6F
100
AcDbEntity
  8
DETAIL
  6
Continuous
100
AcDbLine
 10
-227.3000000000009
 20
1329.910478814539
 30
0.0
 11
-227.0000000000006
 21
1329.910478814539
 31
0.0
  0
LINE
  5
4D9
330
6F
100
AcDbEntity
  8
DETAIL
  6
Continuous
100
AcDbLine
 10
176.9999999999993
 20
927.620478814539
 30
0.0
 11
181.9999999999993
 21
932.6204788145387
 31
0.0
  0
LINE
  5
4DA
330
6F
100
AcDbEntity
  8
DETAIL
  6
Continuous
100
AcDbLine
 10
222.4999999999993
 20
1462.420478814539
 30
0.0
 11
222.4999999999993
 21
1467.420478814539
 31
0.0
  0
LINE
  5
4DB
330
6F
100
AcDbEntity
  8
DETAIL
  6
Continuous
100
AcDbLine
 10
222.4999999999993
 20
1460.820478814538
 30
0.0
 11
222.4999999999993
 21
1021.620478814539
 31
0.0
  0
LINE
  5
4DC
330
6F
100
AcDbEntity
  8
DETAIL
  6
DASHED
100
AcDbLine
 10
-227.0000000000006
 20
1154.070478814539
 30
0.0
 11
-225.0000000000008
 21
1154.070478814539
 31
0.0
  0
LINE
  5
4DD
330
6F
100
AcDbEntity
  8
DETAIL
  6
Continuous
100
AcDbLine
 10
217.4999999999994
 20
1466.620478814539
 30
0.0
 11
217.4999999999994
 21
1467.420478814539
 31
0.0
  0
LINE
  5
4DE
330
6F
100
AcDbEntity
  8
DETAIL
  6
DASHED
100
AcDbLine
 10
-227.8000000000006
 20
1152.820478814537
 30
0.0
 11
-229.1423541310007
 21
1152.820478814537
 31
0.0
  0
LINE
  5
4DF
330
6F
100
AcDbEntity
  8
DETAIL
  6
Continuous
100
AcDbLine
 10
210.1499999999993
 20
1437.270478814538
 30
0.0
 11
210.1499999999993
 21
1457.970478814538
 31
0.0
  0
LINE
  5
4E0
330
6F
100
AcDbEntity
  8
DETAIL
  6
DASHED
100
AcDbLine
 10
-227.8000000000006
 20
1151.820478814538
 30
0.0
 11
-229.1423541310007
 21
1151.820478814538
 31
0.0
  0
LINE
  5
4E1
330
6F
100
AcDbEntity
  8
DETAIL
  6
Continuous
100
AcDbLine
 10
210.1499999999993
 20
1207.270478814539
 30
0.0
 11
210.1499999999993
 21
1227.970478814539
 31
0.0
  0
LINE
  5
4E2
330
6F
100
AcDbEntity
  8
DETAIL
  6
DASHED
100
AcDbLine
 10
-222.0000000000006
 20
1150.570478814539
 30
0.0
 11
-217.0000000000006
 21
1150.570478814539
 31
0.0
  0
LINE
  5
4E3
330
6F
100
AcDbEntity
  8
DETAIL
  6
Continuous
100
AcDbLine
 10
210.1499999999993
 20
1027.270478814537
 30
0.0
 11
210.1499999999993
 21
1057.970478814539
 31
0.0
  0
LINE
  5
4E4
330
6F
100
AcDbEntity
  8
DETAIL
  6
DASHED
100
AcDbLine
 10
-227.0000000000006
 20
1150.570478814539
 30
0.0
 11
-225.0000000000008
 21
1150.570478814539
 31
0.0
  0
LINE
  5
4E5
330
6F
100
AcDbEntity
  8
DETAIL
  6
Continuous
100
AcDbLine
 10
217.4999999999994
 20
1016.620478814539
 30
0.0
 11
222.4999999999993
 21
1021.620478814539
 31
0.0
  0
LINE
  5
4E6
330
6F
100
AcDbEntity
  8
DETAIL
  6
DASHED
100
AcDbLine
 10
-227.8000000000006
 20
1150.320478814538
 30
0.0
 11
-229.1423541310007
 21
1150.320478814538
 31
0.0
  0
LINE
  5
4E7
330
6F
100
AcDbEntity
  8
DETAIL
  6
Continuous
100
AcDbLine
 10
200.8499999999995
 20
1057.970478814539
 30
0.0
 11
200.8499999999995
 21
1027.270478814537
 31
0.0
  0
LINE
  5
4E8
330
6F
100
AcDbEntity
  8
DETAIL
  6
Continuous
100
AcDbLine
 10
200.8499999999995
 20
1227.970478814539
 30
0.0
 11
200.8499999999995
 21
1207.270478814539
 31
0.0
  0
LINE
  5
4E9
330
6F
100
AcDbEntity
  8
DETAIL
  6
Continuous
100
AcDbLine
 10
200.8499999999995
 20
1457.970478814538
 30
0.0
 11
200.8499999999995
 21
1437.270478814538
 31
0.0
  0
LINE
  5
4EA
330
6F
100
AcDbEntity
  8
DETAIL
  6
Continuous
100
AcDbLine
 10
181.9999999999993
 20
932.6204788145387
 30
0.0
 11
181.9999999999993
 21
1016.620478814539
 31
0.0
  0
LINE
  5
4EB
330
6F
100
AcDbEntity
  8
DETAIL
  6
DASHED
100
AcDbLine
 10
-225.8000000000006
 20
1143.820994823538
 30
0.0
 11
-227.0000000000006
 21
1143.820994823538
 31
0.0
  0
ARC
  5
4EC
330
6F
100
AcDbEntity
  8
DETAIL
  6
Continuous
100
AcDbCircle
 10
205.499999999999
 20
1457.970478814538
 30
0.0
 40
4.650000000000089
100
AcDbArc
 50
0.0
 51
180.0
  0
LINE
  5
4ED
330
6F
100
AcDbEntity
  8
DETAIL
  6
Continuous
100
AcDbLine
 10
181.9999999999993
 20
1467.420478814539
 30
0.0
 11
181.9999999999993
 21
1457.420478814539
 31
0.0
  0
LINE
  5
4EE
330
6F
100
AcDbEntity
  8
DETAIL
  6
DASHED
100
AcDbLine
 10
-225.0083610753824
 20
1143.262570482173
 30
0.0
 11
-225.8083610753822
 21
1143.262570482173
 31
0.0
  0
ARC
  5
4EF
330
6F
100
AcDbEntity
  8
DETAIL
  6
Continuous
100
AcDbCircle
 10
205.499999999999
 20
1437.270478814538
 30
0.0
 40
4.649999999999863
100
AcDbArc
 50
180.0
 51
0.0
  0
LINE
  5
4F0
330
6F
100
AcDbEntity
  8
DETAIL
  6
Continuous
100
AcDbLine
 10
168.9999999999991
 20
1460.420478814539
 30
0.0
 11
168.9999999999991
 21
1459.420478814539
 31
0.0
  0
LINE
  5
4F1
330
6F
100
AcDbEntity
  8
DETAIL
  6
DASHED
100
AcDbLine
 10
-225.8083610753822
 20
1138.262570482173
 30
0.0
 11
-225.0083610753824
 21
1138.262570482173
 31
0.0
  0
CIRCLE
  5
4F2
330
6F
100
AcDbEntity
  8
DETAIL
  6
Continuous
100
AcDbCircle
 10
166.9999999999993
 20
1459.920478814539
 30
0.0
 40
4.699999999999985
  0
LINE
  5
4F3
330
6F
100
AcDbEntity
  8
DETAIL
  6
Continuous
100
AcDbLine
 10
167.499999999999
 20
1459.420478814539
 30
0.0
 11
167.499999999999
 21
1457.920478814538
 31
0.0
  0
ARC
  5
4F4
330
6F
100
AcDbEntity
  8
DETAIL
  6
Continuous
100
AcDbCircle
 10
205.499999999999
 20
1207.270478814539
 30
0.0
 40
4.649999999999863
100
AcDbArc
 50
180.0
 51
0.0
  0
LINE
  5
4F5
330
6F
100
AcDbEntity
  8
DETAIL
  6
Continuous
100
AcDbLine
 10
167.499999999999
 20
1461.920478814539
 30
0.0
 11
167.499999999999
 21
1460.420478814539
 31
0.0
  0
ARC
  5
4F6
330
6F
100
AcDbEntity
  8
DETAIL
  6
Continuous
100
AcDbCircle
 10
205.499999999999
 20
1227.970478814539
 30
0.0
 40
4.650000000000089
100
AcDbArc
 50
0.0
 51
180.0
  0
LINE
  5
4F7
330
6F
100
AcDbEntity
  8
DETAIL
  6
Continuous
100
AcDbLine
 10
166.4999999999993
 20
1460.420478814539
 30
0.0
 11
166.4999999999993
 21
1461.920478814539
 31
0.0
  0
CIRCLE
  5
4F8
330
6F
100
AcDbEntity
  8
DETAIL
  6
Continuous
100
AcDbCircle
 10
-0.0000000000008522
 20
1459.920478814539
 30
0.0
 40
4.699999999999998
  0
LINE
  5
4F9
330
6F
100
AcDbEntity
  8
DETAIL
  6
Continuous
100
AcDbLine
 10
166.4999999999993
 20
1457.920478814538
 30
0.0
 11
166.4999999999993
 21
1459.420478814539
 31
0.0
  0
LINE
  5
4FA
330
6F
100
AcDbEntity
  8
DETAIL
  6
DASHED
100
AcDbLine
 10
2.649999999999463
 20
1458.570478814538
 30
0.0
 11
2.649999999999463
 21
1461.270478814538
 31
0.0
  0
ARC
  5
4FB
330
6F
100
AcDbEntity
  8
DETAIL
  6
Continuous
100
AcDbCircle
 10
205.499999999999
 20
1057.970478814539
 30
0.0
 40
4.650000000000089
100
AcDbArc
 50
0.0
 51
180.0
  0
LINE
  5
4FC
330
6F
100
AcDbEntity
  8
DETAIL
  6
Continuous
100
AcDbLine
 10
164.999999999999
 20
1459.420478814539
 30
0.0
 11
164.999999999999
 21
1460.420478814539
 31
0.0
  0
LINE
  5
4FD
330
6F
100
AcDbEntity
  8
DETAIL
  6
DASHED
100
AcDbLine
 10
-2.65000000000071
 20
1461.270478814538
 30
0.0
 11
-2.65000000000071
 21
1458.570478814538
 31
0.0
  0
ARC
  5
4FE
330
6F
100
AcDbEntity
  8
DETAIL
  6
Continuous
100
AcDbCircle
 10
205.499999999999
 20
1027.270478814537
 30
0.0
 40
4.649999999999863
100
AcDbArc
 50
180.0
 51
0.0
  0
LINE
  5
4FF
330
6F
100
AcDbEntity
  8
DETAIL
  6
Continuous
100
AcDbLine
 10
-177.0000000000005
 20
1452.420478814538
 30
0.0
 11
-182.0000000000005
 21
1457.420478814539
 31
0.0
  0
LINE
  5
500
330
6F
100
AcDbEntity
  8
DETAIL
  6
DASHED
100
AcDbLine
 10
-225.0083610753824
 20
1065.292091667635
 30
0.0
 11
-225.8083610753822
 21
1065.292091667635
 31
0.0
  0
CIRCLE
  5
501
330
6F
100
AcDbEntity
  8
DETAIL
  6
Continuous
100
AcDbCircle
 10
-167.0000000000005
 20
1459.920478814539
 30
0.0
 40
4.699999999999985
  0
LINE
  5
502
330
6F
100
AcDbEntity
  8
DETAIL
  6
Continuous
100
AcDbLine
 10
-223.9000000000005
 20
1464.220478814539
 30
0.0
 11
-224.6500000000008
 21
1464.970478814539
 31
0.0
  0
LINE
  5
503
330
6F
100
AcDbEntity
  8
DETAIL
  6
DASHED
100
AcDbLine
 10
-225.0000000000008
 20
1035.292091667635
 30
0.0
 11
-225.8000000000006
 21
1035.292091667635
 31
0.0
  0
ARC
  5
504
330
6F
100
AcDbEntity
  8
DETAIL
  6
Continuous
100
AcDbCircle
 10
-225.0000000000008
 20
1465.820478814538
 30
0.0
 40
0.8000000000001817
100
AcDbArc
 50
90.0
 51
180.0
  0
LINE
  5
505
330
6F
100
AcDbEntity
  8
DETAIL
  6
Continuous
100
AcDbLine
 10
-222.5000000000006
 20
1462.420478814539
 30
0.0
 11
-221.7000000000005
 21
1461.620478814539
 31
0.0
  0
LINE
  5
506
330
6F
100
AcDbEntity
  8
DETAIL
  6
DASHED
100
AcDbLine
 10
-225.8000000000006
 20
970.5228451840012
 30
0.0
 11
-227.0000000000006
 21
970.5228451840012
 31
0.0
  0
ARC
  5
507
330
6F
100
AcDbEntity
  8
DETAIL
  6
Continuous
100
AcDbCircle
 10
-205.5000000000009
 20
1457.970478814538
 30
0.0
 40
4.650000000000089
100
AcDbArc
 50
0.0
 51
180.0
  0
LINE
  5
508
330
6F
100
AcDbEntity
  8
DETAIL
  6
Continuous
100
AcDbLine
 10
-227.3000000000009
 20
1157.020478814539
 30
0.0
 11
-227.0000000000006
 21
1157.020478814539
 31
0.0
  0
LINE
  5
509
330
6F
100
AcDbEntity
  8
DETAIL
  6
DASHED
100
AcDbLine
 10
-227.8000000000006
 20
971.9204788145386
 30
0.0
 11
-229.1423541310007
 21
971.9204788145386
 31
0.0
  0
ARC
  5
50A
330
6F
100
AcDbEntity
  8
DETAIL
  6
Continuous
100
AcDbCircle
 10
-205.5000000000009
 20
1437.270478814538
 30
0.0
 40
4.649999999999863
100
AcDbArc
 50
180.0
 51
0.0
  0
LINE
  5
50B
330
6F
100
AcDbEntity
  8
DETAIL
  6
Continuous
100
AcDbLine
 10
-229.1640042750007
 20
1154.320478814537
 30
0.0
 11
-229.1423541310007
 21
1154.320478814537
 31
0.0
  0
LINE
  5
50C
330
6F
100
AcDbEntity
  8
DETAIL
  6
DASHED
100
AcDbLine
 10
-227.0000000000006
 20
971.6704788145387
 30
0.0
 11
-225.0000000000008
 21
971.6704788145387
 31
0.0
  0
ARC
  5
50D
330
6F
100
AcDbEntity
  8
DETAIL
  6
Continuous
100
AcDbCircle
 10
-205.5000000000009
 20
1227.970478814539
 30
0.0
 40
4.650000000000089
100
AcDbArc
 50
0.0
 51
180.0
  0
LINE
  5
50E
330
6F
100
AcDbEntity
  8
DETAIL
  6
Continuous
100
AcDbLine
 10
-225.0000000000008
 20
1154.070478814539
 30
0.0
 11
-222.0000000000006
 21
1154.070478814539
 31
0.0
  0
LINE
  5
50F
330
6F
100
AcDbEntity
  8
DETAIL
  6
DASHED
100
AcDbLine
 10
-227.8000000000006
 20
970.4204788145387
 30
0.0
 11
-229.1423541310007
 21
970.4204788145387
 31
0.0
  0
ARC
  5
510
330
6F
100
AcDbEntity
  8
DETAIL
  6
Continuous
100
AcDbCircle
 10
-205.5000000000009
 20
1207.270478814539
 30
0.0
 40
4.649999999999863
100
AcDbArc
 50
180.0
 51
0.0
  0
LINE
  5
511
330
6F
100
AcDbEntity
  8
DETAIL
  6
Continuous
100
AcDbLine
 10
-229.4590161420008
 20
1152.820478814537
 30
0.0
 11
-229.1423541310007
 21
1152.820478814537
 31
0.0
  0
LINE
  5
512
330
6F
100
AcDbEntity
  8
DETAIL
  6
DASHED
100
AcDbLine
 10
-227.8000000000006
 20
969.4204788145386
 30
0.0
 11
-229.1423541310007
 21
969.4204788145386
 31
0.0
  0
ARC
  5
513
330
6F
100
AcDbEntity
  8
DETAIL
  6
Continuous
100
AcDbCircle
 10
-223.3795454550008
 20
1334.610478814538
 30
0.0
 40
5.784458819999921
100
AcDbArc
 50
175.0412501035008
 51
184.9587498965012
  0
LINE
  5
514
330
6F
100
AcDbEntity
  8
DETAIL
  6
Continuous
100
AcDbLine
 10
-229.1423541310007
 20
1151.820478814538
 30
0.0
 11
-229.4590161420008
 21
1151.820478814538
 31
0.0
  0
LINE
  5
515
330
6F
100
AcDbEntity
  8
DETAIL
  6
DASHED
100
AcDbLine
 10
-227.0000000000006
 20
968.1704788145387
 30
0.0
 11
-225.0000000000008
 21
968.1704788145387
 31
0.0
  0
LINE
  5
516
330
6F
100
AcDbEntity
  8
DETAIL
  6
Continuous
100
AcDbLine
 10
-225.0000000000008
 20
1150.570478814539
 30
0.0
 11
-222.0000000000006
 21
1150.570478814539
 31
0.0
  0
LINE
  5
517
330
6F
100
AcDbEntity
  8
DETAIL
  6
DASHED
100
AcDbLine
 10
-227.8000000000006
 20
967.9204788145387
 30
0.0
 11
-229.1423541310007
 21
967.9204788145387
 31
0.0
  0
CIRCLE
  5
518
330
6F
100
AcDbEntity
  8
DETAIL
  6
DASHED
100
AcDbCircle
 10
166.9999999999993
 20
1459.920478814539
 30
0.0
 40
1.449999999999989
  0
LINE
  5
519
330
6F
100
AcDbEntity
  8
DETAIL
  6
Continuous
100
AcDbLine
 10
-229.1423541310007
 20
1150.320478814538
 30
0.0
 11
-229.1640042750007
 21
1150.320478814538
 31
0.0
  0
LINE
  5
51A
330
6F
100
AcDbEntity
  8
DETAIL
  6
DASHED
100
AcDbLine
 10
221.6999999999992
 20
1461.620478814539
 30
0.0
 11
217.4999999999994
 21
1457.420478814539
 31
0.0
  0
CIRCLE
  5
51B
330
6F
100
AcDbEntity
  8
DETAIL
  6
DASHED
100
AcDbCircle
 10
-0.0000000000008522
 20
1459.920478814539
 30
0.0
 40
1.45
  0
LINE
  5
51C
330
6F
100
AcDbEntity
  8
DETAIL
  6
Continuous
100
AcDbLine
 10
-227.3000000000009
 20
1147.620478814538
 30
0.0
 11
-227.0000000000006
 21
1147.620478814538
 31
0.0
  0
LINE
  5
51D
330
6F
100
AcDbEntity
  8
DETAIL
  6
DASHED
100
AcDbLine
 10
-115.8000000000005
 20
1456.620478814539
 30
0.0
 11
-115.8000000000005
 21
1466.620478814539
 31
0.0
  0
CIRCLE
  5
51E
330
6F
100
AcDbEntity
  8
DETAIL
  6
DASHED
100
AcDbCircle
 10
-167.0000000000005
 20
1459.920478814539
 30
0.0
 40
1.449999999999989
  0
LINE
  5
51F
330
6F
100
AcDbEntity
  8
DETAIL
  6
Continuous
100
AcDbLine
 10
1.99999999999937
 20
1460.420478814539
 30
0.0
 11
1.99999999999937
 21
1459.420478814539
 31
0.0
  0
LINE
  5
520
330
6F
100
AcDbEntity
  8
DETAIL
  6
DASHED
100
AcDbLine
 10
-225.8000000000006
 20
961.518781888539
 30
0.0
 11
-227.0000000000006
 21
961.518781888539
 31
0.0
  0
LINE
  5
521
330
6F
100
AcDbEntity
  8
DETAIL
  6
Continuous
100
AcDbLine
 10
0.4999999999993749
 20
1459.420478814539
 30
0.0
 11
0.4999999999993749
 21
1457.920478814538
 31
0.0
  0
LINE
  5
522
330
6F
100
AcDbEntity
  8
DETAIL
  6
DASHED
100
AcDbLine
 10
-125.8000000000006
 20
1466.620478814539
 30
0.0
 11
-125.8000000000006
 21
1456.620478814539
 31
0.0
  0
LINE
  5
523
330
6F
100
AcDbEntity
  8
DETAIL
  6
Continuous
100
AcDbLine
 10
0.4999999999993749
 20
1461.920478814539
 30
0.0
 11
0.4999999999993749
 21
1460.420478814539
 31
0.0
  0
LINE
  5
524
330
6F
100
AcDbEntity
  8
DETAIL
  6
DASHED
100
AcDbLine
 10
-126.6000000000008
 20
1456.620478814539
 30
0.0
 11
-126.6000000000008
 21
1465.820478814538
 31
0.0
  0
LINE
  5
525
330
6F
100
AcDbEntity
  8
DETAIL
  6
Continuous
100
AcDbLine
 10
-0.5000000000006252
 20
1460.420478814539
 30
0.0
 11
-0.5000000000006252
 21
1461.920478814539
 31
0.0
  0
LINE
  5
526
330
6F
100
AcDbEntity
  8
DETAIL
  6
DASHED
100
AcDbLine
 10
-164.3500000000005
 20
1458.570478814538
 30
0.0
 11
-164.3500000000005
 21
1461.270478814538
 31
0.0
  0
LINE
  5
527
330
6F
100
AcDbEntity
  8
DETAIL
  6
Continuous
100
AcDbLine
 10
-0.5000000000006252
 20
1457.920478814538
 30
0.0
 11
-0.5000000000006252
 21
1459.420478814539
 31
0.0
  0
LINE
  5
528
330
6F
100
AcDbEntity
  8
DETAIL
  6
DASHED
100
AcDbLine
 10
-169.6500000000004
 20
1461.270478814538
 30
0.0
 11
-169.6500000000004
 21
1458.570478814538
 31
0.0
  0
LINE
  5
529
330
6F
100
AcDbEntity
  8
DETAIL
  6
Continuous
100
AcDbLine
 10
-2.000000000000623
 20
1459.420478814539
 30
0.0
 11
-2.000000000000623
 21
1460.420478814539
 31
0.0
  0
LINE
  5
52A
330
6F
100
AcDbEntity
  8
DETAIL
  6
DASHED
100
AcDbLine
 10
-177.0000000000005
 20
1465.820478814538
 30
0.0
 11
-177.0000000000005
 21
1466.620478814539
 31
0.0
  0
LINE
  5
52B
330
6F
100
AcDbEntity
  8
DETAIL
  6
Continuous
100
AcDbLine
 10
-225.8000000000006
 20
1025.292091667635
 30
0.0
 11
-225.0000000000008
 21
1025.292091667635
 31
0.0
  0
LINE
  5
52C
330
6F
100
AcDbEntity
  8
DETAIL
  6
DASHED
100
AcDbLine
 10
-217.0000000000006
 20
1154.070478814539
 30
0.0
 11
-217.0000000000006
 21
1150.570478814539
 31
0.0
  0
LINE
  5
52D
330
6F
100
AcDbEntity
  8
DETAIL
  6
Continuous
100
AcDbLine
 10
-217.5000000000006
 20
1016.620478814539
 30
0.0
 11
-182.0000000000005
 21
1016.620478814539
 31
0.0
  0
LINE
  5
52E
330
6F
100
AcDbEntity
  8
DETAIL
  6
DASHED
100
AcDbLine
 10
-217.0000000000006
 20
1336.360478814539
 30
0.0
 11
-217.0000000000006
 21
1332.860478814539
 31
0.0
  0
LINE
  5
52F
330
6F
100
AcDbEntity
  8
DETAIL
  6
Continuous
100
AcDbLine
 10
-225.8000000000006
 20
1020.292091667635
 30
0.0
 11
-225.0000000000008
 21
1020.292091667635
 31
0.0
  0
LINE
  5
530
330
6F
100
AcDbEntity
  8
DETAIL
  6
DASHED
100
AcDbLine
 10
-224.7000000000006
 20
1464.970478814539
 30
0.0
 11
-224.7000000000006
 21
1381.620478814539
 31
0.0
  0
LINE
  5
531
330
6F
100
AcDbEntity
  8
DETAIL
  6
Continuous
100
AcDbLine
 10
217.4999999999994
 20
1016.620478814539
 30
0.0
 11
181.9999999999993
 21
1016.620478814539
 31
0.0
  0
LINE
  5
532
330
6F
100
AcDbEntity
  8
DETAIL
  6
DASHED
100
AcDbLine
 10
-227.8000000000006
 20
971.9204788145386
 30
0.0
 11
-227.8000000000006
 21
967.9204788145387
 31
0.0
  0
LINE
  5
533
330
6F
100
AcDbEntity
  8
DETAIL
  6
Continuous
100
AcDbLine
 10
-227.3000000000009
 20
974.6204788145387
 30
0.0
 11
-227.0000000000006
 21
974.6204788145387
 31
0.0
  0
LINE
  5
534
330
6F
100
AcDbEntity
  8
DETAIL
  6
DASHED
100
AcDbLine
 10
-227.8000000000006
 20
1154.320478814537
 30
0.0
 11
-227.8000000000006
 21
1150.320478814538
 31
0.0
  0
LINE
  5
535
330
6F
100
AcDbEntity
  8
DETAIL
  6
Continuous
100
AcDbLine
 10
-229.1640042750007
 20
971.9204788145386
 30
0.0
 11
-229.1423541310007
 21
971.9204788145386
 31
0.0
  0
LINE
  5
536
330
6F
100
AcDbEntity
  8
DETAIL
  6
DASHED
100
AcDbLine
 10
-227.8000000000006
 20
1336.610478814538
 30
0.0
 11
-227.8000000000006
 21
1332.610478814539
 31
0.0
  0
LINE
  5
537
330
6F
100
AcDbEntity
  8
DETAIL
  6
Continuous
100
AcDbLine
 10
-225.0000000000008
 20
971.6704788145387
 30
0.0
 11
-217.0000000000006
 21
971.6704788145387
 31
0.0
  0
LINE
  5
538
330
6F
100
AcDbEntity
  8
DETAIL
  6
DASHED
100
AcDbLine
 10
-225.8146564740007
 20
719.531698325539
 30
0.0
 11
-225.8000000000006
 21
719.3832030165392
 31
0.0
  0
LINE
  5
539
330
6F
100
AcDbEntity
  8
DETAIL
  6
Continuous
100
AcDbLine
 10
-229.4590161420008
 20
970.4204788145387
 30
0.0
 11
-229.1423541310007
 21
970.4204788145387
 31
0.0
  0
LINE
  5
53A
330
6F
100
AcDbEntity
  8
DETAIL
  6
DASHED
100
AcDbLine
 10
-225.8585782330008
 20
719.677327028539
 30
0.0
 11
-225.8146564740007
 21
719.531698325539
 31
0.0
  0
LINE
  5
53B
330
6F
100
AcDbEntity
  8
DETAIL
  6
Continuous
100
AcDbLine
 10
-229.1423541310007
 20
969.4204788145386
 30
0.0
 11
-229.4590161420008
 21
969.4204788145386
 31
0.0
  0
LINE
  5
53C
330
6F
100
AcDbEntity
  8
DETAIL
  6
DASHED
100
AcDbLine
 10
-225.9301096350006
 20
719.8148012825389
 30
0.0
 11
-225.8585782330008
 21
719.677327028539
 31
0.0
  0
LINE
  5
53D
330
6F
100
AcDbEntity
  8
DETAIL
  6
Continuous
100
AcDbLine
 10
-225.0000000000008
 20
968.1704788145387
 30
0.0
 11
-217.0000000000006
 21
968.1704788145387
 31
0.0
  0
LINE
  5
53E
330
6F
100
AcDbEntity
  8
DETAIL
  6
DASHED
100
AcDbLine
 10
-226.0281950160006
 20
719.9422985355393
 30
0.0
 11
-225.9301096350006
 21
719.8148012825389
 31
0.0
  0
LINE
  5
53F
330
6F
100
AcDbEntity
  8
DETAIL
  6
Continuous
100
AcDbLine
 10
-229.1423541310007
 20
967.9204788145387
 30
0.0
 11
-229.1640042750007
 21
967.9204788145387
 31
0.0
  0
LINE
  5
540
330
6F
100
AcDbEntity
  8
DETAIL
  6
DASHED
100
AcDbLine
 10
-226.1514762950007
 20
720.0570961605389
 30
0.0
 11
-226.0281950160006
 21
719.9422985355393
 31
0.0
  0
LINE
  5
541
330
6F
100
AcDbEntity
  8
DETAIL
  6
Continuous
100
AcDbLine
 10
-227.3000000000009
 20
965.220478814539
 30
0.0
 11
-227.0000000000006
 21
965.220478814539
 31
0.0
  0
LINE
  5
542
330
6F
100
AcDbEntity
  8
DETAIL
  6
DASHED
100
AcDbLine
 10
-226.2959346270008
 20
720.154951287539
 30
0.0
 11
-226.1514762950007
 21
720.0570961605389
 31
0.0
  0
LINE
  5
543
330
6F
100
AcDbEntity
  8
DETAIL
  6
Continuous
100
AcDbLine
 10
222.4999999999993
 20
1462.420478814539
 30
0.0
 11
221.6999999999992
 21
1461.620478814539
 31
0.0
  0
LINE
  5
544
330
6F
100
AcDbEntity
  8
DETAIL
  6
DASHED
100
AcDbLine
 10
-226.4563066200005
 20
720.2327961105389
 30
0.0
 11
-226.2959346270008
 21
720.154951287539
 31
0.0
  0
LINE
  5
545
330
6F
100
AcDbEntity
  8
DETAIL
  6
Continuous
100
AcDbLine
 10
-215.8000000000006
 20
947.4204788145387
 30
0.0
 11
-225.0000000000008
 21
947.4204788145387
 31
0.0
  0
LINE
  5
546
330
6F
100
AcDbEntity
  8
DETAIL
  6
DASHED
100
AcDbLine
 10
-226.6295646450008
 20
720.2896818565393
 30
0.0
 11
-226.4563066200005
 21
720.2327961105389
 31
0.0
  0
LINE
  5
547
330
6F
100
AcDbEntity
  8
DETAIL
  6
Continuous
100
AcDbLine
 10
-225.0000000000008
 20
946.620478814539
 30
0.0
 11
-215.8000000000006
 21
946.620478814539
 31
0.0
  0
LINE
  5
856
330
6F
100
AcDbEntity
  8
OUTLINE
  6
Continuous
100
AcDbLine
 10
206.7432534317577
 20
300.6146109445117
 30
0.0
 11
192.6011178080234
 21
300.6146109445149
 31
0.0
  0
LINE
  5
857
330
6F
100
AcDbEntity
  8
OUTLINE
  6
Continuous
100
AcDbLine
 10
206.74325343178
 20
300.6146109445331
 30
0.0
 11
219.1883327806622
 21
313.0596902934164
 31
0.0
  0
LINE
  5
858
330
6F
100
AcDbEntity
  8
OUTLINE
  6
Continuous
100
AcDbLine
 10
219.1883327806376
 20
313.0596902933921
 30
0.0
 11
219.1883327806376
 21
327.2018259171239
 31
0.0
  0
LINE
  5
859
330
6F
100
AcDbEntity
  8
OUTLINE
  6
Continuous
100
AcDbLine
 10
176.7619259094449
 20
369.6282327883176
 30
0.0
 11
219.1883327806376
 21
327.2018259171239
 31
0.0
  0
LINE
  5
85A
330
6F
100
AcDbEntity
  8
OUTLINE
  6
Continuous
100
AcDbLine
 10
178.4589821842951
 20
371.3252890631671
 30
0.0
 11
176.7619259094449
 21
369.6282327883172
 31
0.0
  0
LINE
  5
85B
330
6F
100
AcDbEntity
  8
OUTLINE
  6
Continuous
100
AcDbLine
 10
-176.761925909444
 20
369.6282327883178
 30
0.0
 11
-187.4999999999995
 21
358.8901586977617
 31
0.0
  0
LINE
  5
85C
330
6F
100
AcDbEntity
  8
OUTLINE
  6
Continuous
100
AcDbLine
 10
-178.4589821842942
 20
371.3252890631673
 30
0.0
 11
-176.761925909444
 21
369.6282327883172
 31
0.0
  0
LINE
  5
85D
330
6F
100
AcDbEntity
  8
OUTLINE
  6
Continuous
100
AcDbLine
 10
187.5
 20
733.8901586977652
 30
0.0
 11
157.6995815917912
 21
704.0897402895561
 31
0.0
  0
LINE
  5
85E
330
6F
100
AcDbEntity
  8
OUTLINE
  6
Continuous
100
AcDbLine
 10
156.0025253169428
 20
705.7867965644041
 30
0.0
 11
157.6995815917912
 21
704.0897402895561
 31
0.0
  0
LINE
  5
85F
330
6F
100
AcDbEntity
  8
OUTLINE
  6
Continuous
100
AcDbLine
 10
-156.0025253169419
 20
705.7867965644041
 30
0.0
 11
-157.6995815917898
 21
704.0897402895561
 31
0.0
  0
LINE
  5
860
330
6F
100
AcDbEntity
  8
OUTLINE
  6
Continuous
100
AcDbLine
 10
-200.1259884629821
 20
746.5161471607489
 30
0.0
 11
-214.2681240867132
 21
746.5161471607489
 31
0.0
  0
LINE
  5
861
330
6F
100
AcDbEntity
  8
OUTLINE
  6
Continuous
100
AcDbLine
 10
-226.7132034355955
 20
734.0710678118646
 30
0.0
 11
-214.2681240867132
 21
746.5161471607489
 31
0.0
  0
LINE
  5
862
330
6F
100
AcDbEntity
  8
OUTLINE
  6
Continuous
100
AcDbLine
 10
-226.7132034355955
 20
734.0710678118646
 30
0.0
 11
-226.7132034355945
 21
719.9289321881328
 31
0.0
  0
LINE
  5
863
330
6F
100
AcDbEntity
  8
OUTLINE
  6
Continuous
100
AcDbLine
 10
-200.1259884629821
 20
746.5161471607489
 30
0.0
 11
-157.6995815917898
 21
704.0897402895561
 31
0.0
  0
LINE
  5
864
330
6F
100
AcDbEntity
  8
OUTLINE
  6
Continuous
100
AcDbLine
 10
0.0000000000004547
 20
493.2157287525376
 30
0.0
 11
-187.4999999999995
 21
305.7157287525374
 31
0.0
  0
LINE
  5
865
330
6F
100
AcDbEntity
  8
OUTLINE
  6
Continuous
100
AcDbLine
 10
-28.28427124746168
 20
521.4999999999996
 30
0.0
 11
-178.4589821842942
 21
371.3252890631673
 31
0.0
  0
LINE
  5
866
330
6F
100
AcDbEntity
  8
OUTLINE
  6
Continuous
100
AcDbLine
 10
157.4167388793162
 20
704.3725830020309
 30
0.0
 11
1.414213562373788
 21
548.3700576850883
 31
0.0
  0
LINE
  5
867
330
6F
100
AcDbEntity
  8
OUTLINE
  6
Continuous
100
AcDbLine
 10
-156.0025253169419
 20
705.7867965644041
 30
0.0
 11
178.4589821842951
 21
371.3252890631671
 31
0.0
  0
LINE
  5
868
330
6F
100
AcDbEntity
  8
OUTLINE
  6
Continuous
100
AcDbLine
 10
156.0025253169428
 20
705.7867965644041
 30
0.0
 11
0.0000000000004547
 21
549.7842712474616
 31
0.0
  0
LINE
  5
869
330
6F
100
AcDbEntity
  8
OUTLINE
  6
Continuous
100
AcDbLine
 10
-226.7132034355945
 20
719.9289321881328
 30
0.0
 11
192.6011178080234
 21
300.6146109445149
 31
0.0
  0
LINE
  5
86A
330
6F
100
AcDbEntity
  8
OUTLINE
  6
Continuous
100
AcDbLine
 10
187.5
 20
680.7157287525371
 30
0.0
 11
28.28427124746259
 21
521.4999999999998
 31
0.0
  0
LINE
  5
86B
330
6F
100
AcDbEntity
  8
OUTLINE
  6
Continuous
100
AcDbLine
 10
-26.87005768508834
 20
520.0857864376263
 30
0.0
 11
-177.0447686219208
 21
369.9110755007942
 31
0.0
  0
LINE
  5
86D
330
6F
100
AcDbEntity
  8
OUTLINE
  6
Continuous
100
AcDbLine
 10
217.9173676354781
 20
1654.829409455185
 30
0.0
 11
224.7656705986374
 21
1656.590303127383
 31
0.0
  0
LINE
  5
86E
330
6F
100
AcDbEntity
  8
OUTLINE
  6
Continuous
100
AcDbLine
 10
239.0104166133329
 20
1680.69605370638
 30
0.0
 11
224.7656705986374
 21
1656.590303127383
 31
0.0
  0
LINE
  5
86F
330
6F
100
AcDbEntity
  8
OUTLINE
  6
Continuous
100
AcDbLine
 10
-226.3171787488968
 20
1917.339728868858
 30
0.0
 11
-228.078072421094
 21
1924.18803183202
 31
0.0
  0
LINE
  5
870
330
6F
100
AcDbEntity
  8
OUTLINE
  6
Continuous
100
AcDbLine
 10
-213.8333264063981
 20
1948.293782411015
 30
0.0
 11
-228.078072421094
 21
1924.18803183202
 31
0.0
  0
LINE
  5
871
330
6F
100
AcDbEntity
  8
OUTLINE
  6
Continuous
100
AcDbLine
 10
217.9173676356449
 20
1654.829409455231
 30
0.0
 11
-226.3171787488968
 21
1917.339728868858
 31
0.0
  0
LINE
  5
872
330
6F
100
AcDbEntity
  8
OUTLINE
  6
Continuous
100
AcDbLine
 10
241.139248683724
 20
1680.367307578989
 30
0.0
 11
253.4655043891112
 21
1632.429186836868
 31
0.0
  0
LINE
  5
873
330
6F
100
AcDbEntity
  8
OUTLINE
  6
Continuous
100
AcDbLine
 10
240.4469722598042
 20
1679.847153762384
 30
0.0
 11
252.6907073547322
 21
1632.229964459819
 31
0.0
  0
LINE
  5
874
330
6F
100
AcDbEntity
  8
OUTLINE
  6
Continuous
100
AcDbLine
 10
-215.2698820528067
 20
1949.142682355119
 30
0.0
 11
-262.8870713552051
 21
1936.89894726025
 31
0.0
  0
LINE
  5
875
330
6F
100
AcDbEntity
  8
OUTLINE
  6
Continuous
100
AcDbLine
 10
240.4469722598042
 20
1679.847153762384
 30
0.0
 11
-215.2698820528067
 21
1949.142682355119
 31
0.0
  0
LINE
  5
876
330
6F
100
AcDbEntity
  8
OUTLINE
  6
Continuous
100
AcDbLine
 10
-215.1481729901298
 20
1950.000000000001
 30
0.0
 11
-263.0862937322548
 21
1937.673744294628
 31
0.0
  0
LINE
  5
877
330
6F
100
AcDbEntity
  8
OUTLINE
  6
Continuous
100
AcDbLine
 10
241.139248683724
 20
1680.367307578989
 30
0.0
 11
-215.1481729901298
 21
1950.000000000001
 31
0.0
  0
LINE
  5
878
330
6F
100
AcDbEntity
  8
OUTLINE
  6
Continuous
100
AcDbLine
 10
253.4655043891112
 20
1632.429186836868
 30
0.0
 11
252.6907073547322
 21
1632.229964459819
 31
0.0
  0
LINE
  5
879
330
6F
100
AcDbEntity
  8
OUTLINE
  6
Continuous
100
AcDbLine
 10
-262.8870713552051
 20
1936.89894726025
 30
0.0
 11
-263.0862937322548
 21
1937.673744294628
 31
0.0
  0
LINE
  5
87A
330
6F
100
AcDbEntity
  8
OUTLINE
  6
Continuous
100
AcDbLine
 10
-187.5000000000003
 20
1564.65
 30
0.0
 11
187.5000000000058
 21
1564.65
 31
0.0
  0
LINE
  5
87B
330
6F
100
AcDbEntity
  8
OUTLINE
  6
Continuous
100
AcDbLine
 10
-187.5000000000003
 20
1524.65
 30
0.0
 11
187.5000000000068
 21
1524.65
 31
0.0
  0
LINE
  5
87C
330
6F
100
AcDbEntity
  8
OUTLINE
  6
Continuous
100
AcDbLine
 10
-192.5000000000009
 20
837.9704788145376
 30
0.0
 11
-225.0
 21
837.9704788145376
 31
0.0
  0
LINE
  5
87D
330
6F
100
AcDbEntity
  8
OUTLINE
  6
Continuous
100
AcDbLine
 10
-192.5000000000009
 20
837.9704788145376
 30
0.0
 11
-187.5
 21
842.9704788145379
 31
0.0
  0
LINE
  5
87E
330
6F
100
AcDbEntity
  8
OUTLINE
  6
Continuous
100
AcDbLine
 10
193.0000000000073
 20
837.9704788145376
 30
0.0
 11
187.5
 21
843.4704788145447
 31
0.0
  0
LINE
  5
87F
330
6F
100
AcDbEntity
  8
OUTLINE
  6
Continuous
100
AcDbLine
 10
225.0
 20
837.9704788145376
 30
0.0
 11
193.0000000000073
 21
837.9704788145376
 31
0.0
  0
LINE
  5
880
330
6F
100
AcDbEntity
  8
OUTLINE
  6
Continuous
100
AcDbLine
 10
225.0
 20
1688.970478814537
 30
0.0
 11
225.0
 21
837.9704788145376
 31
0.0
  0
LINE
  5
881
330
6F
100
AcDbEntity
  8
OUTLINE
  6
Continuous
100
AcDbLine
 10
187.5000000000071
 20
852.9704788145378
 30
0.0
 11
187.5000000000071
 21
1678.970478814537
 31
0.0
  0
ARC
  5
882
330
6F
100
AcDbEntity
  8
OUTLINE
  6
Continuous
100
AcDbCircle
 10
197.5000000000073
 20
1678.970478814537
 30
0.0
 40
10.0
100
AcDbArc
 50
90.0
 51
180.0
  0
LINE
  5
883
330
6F
100
AcDbEntity
  8
OUTLINE
  6
Continuous
100
AcDbLine
 10
225.0079747563353
 20
1688.970478814537
 30
0.0
 11
197.5000000000073
 21
1688.970478814537
 31
0.0
  0
LINE
  5
884
330
6F
100
AcDbEntity
  8
OUTLINE
  6
Continuous
100
AcDbLine
 10
-187.5
 20
852.9704788145378
 30
0.0
 11
-187.5
 21
1914.970478814538
 31
0.0
  0
LINE
  5
885
330
6F
100
AcDbEntity
  8
OUTLINE
  6
Continuous
100
AcDbLine
 10
-225.0
 20
1924.970478814537
 30
0.0
 11
-225.0
 21
837.9704788145376
 31
0.0
  0
LINE
  5
886
330
6F
100
AcDbEntity
  8
OUTLINE
  6
Continuous
100
AcDbLine
 10
-197.5
 20
1924.970478814537
 30
0.0
 11
-225.0
 21
1924.970478814537
 31
0.0
  0
ARC
  5
887
330
6F
100
AcDbEntity
  8
OUTLINE
  6
Continuous
100
AcDbCircle
 10
-197.5
 20
1914.970478814538
 30
0.0
 40
10.0
100
AcDbArc
 50
0.0
 51
90.0
  0
LINE
  5
888
330
6F
100
AcDbEntity
  8
OUTLINE
  6
Continuous
100
AcDbLine
 10
-180.5
 20
905.0
 30
0.0
 11
-430.5000000000005
 21
905.0
 31
0.0
  0
LINE
  5
889
330
6F
100
AcDbEntity
  8
OUTLINE
  6
Continuous
100
AcDbLine
 10
-430.0000000000007
 20
865.0000000000003
 30
0.0
 11
-430.0000000000007
 21
905.0
 31
0.0
  0
LINE
  5
88A
330
6F
100
AcDbEntity
  8
OUTLINE
  6
Continuous
100
AcDbLine
 10
-427.9999999999994
 20
865.0000000000003
 30
0.0
 11
-427.9999999999994
 21
905.0
 31
0.0
  0
LINE
  5
88B
330
6F
100
AcDbEntity
  8
OUTLINE
  6
Continuous
100
AcDbLine
 10
-180.5
 20
865.0000000000003
 30
0.0
 11
-430.5000000000005
 21
865.0000000000003
 31
0.0
  0
LINE
  5
88C
330
6F
100
AcDbEntity
  8
OUTLINE
  6
Continuous
100
AcDbLine
 10
-180.5
 20
865.0000000000003
 30
0.0
 11
-430.5000000000005
 21
865.0000000000003
 31
0.0
  0
LINE
  5
88D
330
6F
100
AcDbEntity
  8
OUTLINE
  6
Continuous
100
AcDbLine
 10
-187.5
 20
955.0
 30
0.0
 11
-187.4999999999973
 21
733.8901586977655
 31
0.0
  0
LINE
  5
88E
330
6F
100
AcDbEntity
  8
OUTLINE
  6
Continuous
100
AcDbLine
 10
-175.5000000000009
 20
870.0000000000002
 30
0.0
 11
-175.5000000000009
 21
900.0000000000001
 31
0.0
  0
ARC
  5
88F
330
6F
100
AcDbEntity
  8
OUTLINE
  6
Continuous
100
AcDbCircle
 10
-180.5
 20
870.0000000000002
 30
0.0
 40
5.0
100
AcDbArc
 50
270.0
 51
0.0
  0
LINE
  5
890
330
6F
100
AcDbEntity
  8
OUTLINE
  6
Continuous
100
AcDbLine
 10
-180.5
 20
865.0000000000003
 30
0.0
 11
-430.5000000000005
 21
865.0000000000003
 31
0.0
  0
LINE
  5
891
330
6F
100
AcDbEntity
  8
OUTLINE
  6
Continuous
100
AcDbLine
 10
-187.5
 20
814.9999999999991
 30
0.0
 11
187.0
 21
815.0000000000003
 31
0.0
  0
LINE
  5
892
330
6F
100
AcDbEntity
  8
OUTLINE
  6
Continuous
100
AcDbLine
 10
-187.5
 20
801.5999999999989
 30
0.0
 11
187.0
 21
801.5999999999989
 31
0.0
  0
LINE
  5
893
330
6F
100
AcDbEntity
  8
OUTLINE
  6
Continuous
100
AcDbLine
 10
187.0
 20
800.0
 30
0.0
 11
-187.5
 21
800.0
 31
0.0
  0
LINE
  5
894
330
6F
100
AcDbEntity
  8
OUTLINE
  6
Continuous
100
AcDbLine
 10
187.0
 20
759.9999999999995
 30
0.0
 11
-187.5
 21
759.9999999999995
 31
0.0
  0
LINE
  5
895
330
6F
100
AcDbEntity
  8
OUTLINE
  6
Continuous
100
AcDbLine
 10
-187.5
 20
800.0
 30
0.0
 11
187.0
 21
800.0
 31
0.0
  0
LINE
  5
896
330
6F
100
AcDbEntity
  8
OUTLINE
  6
Continuous
100
AcDbLine
 10
-180.5
 20
905.0
 30
0.0
 11
-430.5000000000005
 21
905.0
 31
0.0
  0
LINE
  5
897
330
6F
100
AcDbEntity
  8
OUTLINE
  6
Continuous
100
AcDbLine
 10
-180.5
 20
905.0
 30
0.0
 11
-430.5000000000005
 21
905.0
 31
0.0
  0
ARC
  5
898
330
6F
100
AcDbEntity
  8
OUTLINE
  6
Continuous
100
AcDbCircle
 10
-180.5
 20
900.0000000000001
 30
0.0
 40
5.0
100
AcDbArc
 50
0.0
 51
90.0
  0
ARC
  5
899
330
6F
100
AcDbEntity
  8
OUTLINE
  6
Continuous
100
AcDbCircle
 10
-197.5
 20
950.0
 30
0.0
 40
10.00000000000011
100
AcDbArc
 50
0.0
 51
90.0
  0
LINE
  5
89A
330
6F
100
AcDbEntity
  8
OUTLINE
  6
Continuous
100
AcDbLine
 10
-227.5
 20
960.0
 30
0.0
 11
-227.5
 21
59.99999999999977
 31
0.0
  0
LINE
  5
89B
330
6F
100
AcDbEntity
  8
OUTLINE
  6
Continuous
100
AcDbLine
 10
-197.5
 20
960.0
 30
0.0
 11
-227.5
 21
960.0
 31
0.0
  0
LINE
  5
89C
330
6F
100
AcDbEntity
  8
OUTLINE
  6
Continuous
100
AcDbLine
 10
227.5
 20
960.0
 30
0.0
 11
227.5
 21
59.99999999999977
 31
0.0
  0
LINE
  5
89D
330
6F
100
AcDbEntity
  8
OUTLINE
  6
Continuous
100
AcDbLine
 10
197.5000000000009
 20
960.0
 30
0.0
 11
227.5
 21
960.0
 31
0.0
  0
ARC
  5
89E
330
6F
100
AcDbEntity
  8
OUTLINE
  6
Continuous
100
AcDbCircle
 10
197.5000000000009
 20
950.0
 30
0.0
 40
10.0
100
AcDbArc
 50
90.0
 51
180.0
  0
LINE
  5
89F
330
6F
100
AcDbEntity
  8
OUTLINE
  6
Continuous
100
AcDbLine
 10
187.5
 20
955.0
 30
0.0
 11
187.5
 21
358.8901586977623
 31
0.0
  0
LINE
  5
8A0
330
6F
100
AcDbEntity
  8
OUTLINE
  6
Continuous
100
AcDbLine
 10
187.5
 20
305.7157287525376
 30
0.0
 11
187.5
 21
59.99999999999977
 31
0.0
  0
LINE
  5
8A1
330
6F
100
AcDbEntity
  8
OUTLINE
  6
Continuous
100
AcDbLine
 10
187.5
 20
214.8000000000002
 30
0.0
 11
-187.5
 21
214.8000000000002
 31
0.0
  0
LINE
  5
8A2
330
6F
100
AcDbEntity
  8
OUTLINE
  6
Continuous
100
AcDbLine
 10
187.5
 20
254.8000000000002
 30
0.0
 11
-187.5
 21
254.8000000000002
 31
0.0
  0
LINE
  5
8A3
330
6F
100
AcDbEntity
  8
OUTLINE
  6
Continuous
100
AcDbLine
 10
-187.5
 20
680.7157287525395
 30
0.0
 11
-187.5
 21
59.99999999999977
 31
0.0
  0
LINE
  5
8A4
330
6F
100
AcDbEntity
  8
OUTLINE
  6
Continuous
100
AcDbLine
 10
-229.7999999999997
 20
-0.0000000000001137
 30
0.0
 11
-229.7999999999997
 21
54.99999999999977
 31
0.0
  0
LINE
  5
8A5
330
6F
100
AcDbEntity
  8
OUTLINE
  6
Continuous
100
AcDbLine
 10
-185.5
 20
-0.0000000000001137
 30
0.0
 11
-185.5
 21
54.99999999999977
 31
0.0
  0
LINE
  5
8A6
330
6F
100
AcDbEntity
  8
OUTLINE
  6
Continuous
100
AcDbLine
 10
-185.5
 20
-0.0000000000001137
 30
0.0
 11
-229.7999999999997
 21
-0.0000000000001137
 31
0.0
  0
LINE
  5
8A7
330
6F
100
AcDbEntity
  8
OUTLINE
  6
Continuous
100
AcDbLine
 10
229.8000000000002
 20
-0.0000000000002274
 30
0.0
 11
229.8000000000002
 21
54.99999999999977
 31
0.0
  0
LINE
  5
8A8
330
6F
100
AcDbEntity
  8
OUTLINE
  6
Continuous
100
AcDbLine
 10
185.5
 20
-0.0000000000002274
 30
0.0
 11
185.5
 21
54.99999999999977
 31
0.0
  0
LINE
  5
8A9
330
6F
100
AcDbEntity
  8
OUTLINE
  6
Continuous
100
AcDbLine
 10
185.5
 20
-0.0000000000002274
 30
0.0
 11
229.8000000000002
 21
-0.0000000000002274
 31
0.0
  0
LINE
  5
8AA
330
6F
100
AcDbEntity
  8
OUTLINE
  6
Continuous
100
AcDbLine
 10
185.5
 20
54.99999999999977
 30
0.0
 11
229.8000000000002
 21
54.99999999999977
 31
0.0
  0
LINE
  5
8AB
330
6F
100
AcDbEntity
  8
OUTLINE
  6
Continuous
100
AcDbLine
 10
-185.5
 20
54.99999999999977
 30
0.0
 11
-229.7999999999997
 21
54.99999999999977
 31
0.0
  0
POINT
  5
8AC
330
6F
100
AcDbEntity
  8
DEFPOINTS
  6
Continuous
 62
    30
100
AcDbPoint
 10
-430.0000000000007
 20
865.2822875976573
 30
0.0
 50
180.0
  0
LINE
  5
8AD
330
6F
100
AcDbEntity
  8
DETAIL
  6
Continuous
100
AcDbLine
 10
206.7432534317577
 20
300.6146109445117
 30
0.0
 11
192.6011178080234
 21
300.6146109445149
 31
0.0
  0
LINE
  5
8AE
330
6F
100
AcDbEntity
  8
DETAIL
  6
Continuous
100
AcDbLine
 10
206.74325343178
 20
300.6146109445331
 30
0.0
 11
219.1883327806622
 21
313.0596902934164
 31
0.0
  0
LINE
  5
8AF
330
6F
100
AcDbEntity
  8
DETAIL
  6
Continuous
100
AcDbLine
 10
219.1883327806376
 20
313.0596902933921
 30
0.0
 11
219.1883327806376
 21
327.2018259171239
 31
0.0
  0
ARC
  5
8B0
330
6F
100
AcDbEntity
  8
DETAIL
  6
Continuous
100
AcDbCircle
 10
206.9907408051554
 20
314.5092591948098
 30
0.0
 40
4.650000000000249
100
AcDbArc
 50
224.9999999999908
 51
44.99999999999885
  0
LINE
  5
8B1
330
6F
100
AcDbEntity
  8
DETAIL
  6
Continuous
100
AcDbLine
 10
189.0655839020755
 20
325.8583230328542
 30
0.0
 11
203.7026942726375
 21
311.2212126622927
 31
0.0
  0
LINE
  5
8B2
330
6F
100
AcDbEntity
  8
DETAIL
  6
Continuous
100
AcDbLine
 10
195.6416769671104
 20
332.4344160978883
 30
0.0
 11
210.2787873376715
 21
317.7973057273268
 31
0.0
  0
ARC
  5
8B3
330
6F
100
AcDbEntity
  8
DETAIL
  6
Continuous
100
AcDbCircle
 10
192.353630434593
 20
329.1463695653715
 30
0.0
 40
4.649999999999369
100
AcDbArc
 50
44.99999999999078
 51
224.9999999999908
  0
LINE
  5
8B4
330
6F
100
AcDbEntity
  8
DETAIL
  6
Continuous
100
AcDbLine
 10
178.4589821842951
 20
371.3252890631671
 30
0.0
 11
176.7619259094449
 21
369.6282327883172
 31
0.0
  0
LINE
  5
8B5
330
6F
100
AcDbEntity
  8
DETAIL
  6
Continuous
100
AcDbLine
 10
176.7619259094449
 20
369.6282327883176
 30
0.0
 11
219.1883327806376
 21
327.2018259171239
 31
0.0
  0
LINE
  5
8B6
330
6F
100
AcDbEntity
  8
DETAIL
  6
Continuous
100
AcDbLine
 10
-178.4589821842942
 20
371.3252890631673
 30
0.0
 11
-176.761925909444
 21
369.6282327883172
 31
0.0
  0
LINE
  5
8B7
330
6F
100
AcDbEntity
  8
DETAIL
  6
Continuous
100
AcDbLine
 10
-176.761925909444
 20
369.6282327883178
 30
0.0
 11
-187.4999999999995
 21
358.8901586977617
 31
0.0
  0
LINE
  5
8B8
330
6F
100
AcDbEntity
  8
DETAIL
  6
Continuous
100
AcDbLine
 10
187.5
 20
733.8901586977652
 30
0.0
 11
157.6995815917912
 21
704.0897402895561
 31
0.0
  0
LINE
  5
8B9
330
6F
100
AcDbEntity
  8
DETAIL
  6
Continuous
100
AcDbLine
 10
156.0025253169428
 20
705.7867965644041
 30
0.0
 11
157.6995815917912
 21
704.0897402895561
 31
0.0
  0
LINE
  5
8BA
330
6F
100
AcDbEntity
  8
DETAIL
  6
Continuous
100
AcDbLine
 10
-226.7132034355955
 20
734.0710678118646
 30
0.0
 11
-226.7132034355945
 21
719.9289321881328
 31
0.0
  0
LINE
  5
8BB
330
6F
100
AcDbEntity
  8
DETAIL
  6
Continuous
100
AcDbLine
 10
-200.1259884629821
 20
746.5161471607489
 30
0.0
 11
-214.2681240867132
 21
746.5161471607489
 31
0.0
  0
LINE
  5
8BC
330
6F
100
AcDbEntity
  8
DETAIL
  6
Continuous
100
AcDbLine
 10
-156.0025253169419
 20
705.7867965644041
 30
0.0
 11
-157.6995815917898
 21
704.0897402895561
 31
0.0
  0
LINE
  5
8BD
330
6F
100
AcDbEntity
  8
DETAIL
  6
Continuous
100
AcDbLine
 10
-200.1259884629821
 20
746.5161471607489
 30
0.0
 11
-157.6995815917898
 21
704.0897402895561
 31
0.0
  0
LINE
  5
8BE
330
6F
100
AcDbEntity
  8
DETAIL
  6
Continuous
100
AcDbLine
 10
-226.7132034355955
 20
734.0710678118646
 30
0.0
 11
-214.2681240867132
 21
746.5161471607489
 31
0.0
  0
LINE
  5
8BF
330
6F
100
AcDbEntity
  8
DETAIL
  6
Continuous
100
AcDbLine
 10
0.0000000000004547
 20
493.2157287525376
 30
0.0
 11
-187.4999999999995
 21
305.7157287525374
 31
0.0
  0
LINE
  5
8C0
330
6F
100
AcDbEntity
  8
DETAIL
  6
Continuous
100
AcDbLine
 10
-28.28427124746168
 20
521.4999999999996
 30
0.0
 11
-178.4589821842942
 21
371.3252890631673
 31
0.0
  0
LINE
  5
8C1
330
6F
100
AcDbEntity
  8
DETAIL
  6
Continuous
100
AcDbLine
 10
157.4167388793162
 20
704.3725830020309
 30
0.0
 11
1.414213562373788
 21
548.3700576850883
 31
0.0
  0
LINE
  5
8C2
330
6F
100
AcDbEntity
  8
DETAIL
  6
Continuous
100
AcDbLine
 10
-156.0025253169419
 20
705.7867965644041
 30
0.0
 11
178.4589821842951
 21
371.3252890631671
 31
0.0
  0
LINE
  5
8C3
330
6F
100
AcDbEntity
  8
DETAIL
  6
Continuous
100
AcDbLine
 10
156.0025253169428
 20
705.7867965644041
 30
0.0
 11
0.0000000000004547
 21
549.7842712474616
 31
0.0
  0
LINE
  5
8C4
330
6F
100
AcDbEntity
  8
DETAIL
  6
Continuous
100
AcDbLine
 10
-226.7132034355945
 20
719.9289321881328
 30
0.0
 11
192.6011178080234
 21
300.6146109445149
 31
0.0
  0
LINE
  5
8C5
330
6F
100
AcDbEntity
  8
DETAIL
  6
Continuous
100
AcDbLine
 10
187.5
 20
680.7157287525371
 30
0.0
 11
28.28427124746259
 21
521.4999999999998
 31
0.0
  0
LINE
  5
8C6
330
6F
100
AcDbEntity
  8
DETAIL
  6
Continuous
100
AcDbLine
 10
-26.87005768508834
 20
520.0857864376263
 30
0.0
 11
-177.0447686219208
 21
369.9110755007942
 31
0.0
  0
LINE
  5
8C9
330
6F
100
AcDbEntity
  8
DETAIL
  6
Continuous
100
AcDbLine
 10
-187.5000000000003
 20
1564.65
 30
0.0
 11
187.5000000000058
 21
1564.65
 31
0.0
  0
LINE
  5
8CA
330
6F
100
AcDbEntity
  8
DETAIL
  6
Continuous
100
AcDbLine
 10
-187.5000000000003
 20
1524.65
 30
0.0
 11
187.5000000000068
 21
1524.65
 31
0.0
  0
LINE
  5
8CB
330
6F
100
AcDbEntity
  8
DETAIL
  6
Continuous
100
AcDbLine
 10
187.5
 20
305.7157287525383
 30
0.0
 11
187.5
 21
60.0
 31
0.0
  0
LINE
  5
8CC
330
6F
100
AcDbEntity
  8
DETAIL
  6
Continuous
100
AcDbLine
 10
-187.5000000000009
 20
680.7157287525392
 30
0.0
 11
-187.5000000000009
 21
60.0
 31
0.0
  0
LINE
  5
8CD
330
6F
100
AcDbEntity
  8
DETAIL
  6
Continuous
100
AcDbLine
 10
-192.5000000000009
 20
837.9704788145376
 30
0.0
 11
-225.0
 21
837.9704788145376
 31
0.0
  0
LINE
  5
8CE
330
6F
100
AcDbEntity
  8
DETAIL
  6
Continuous
100
AcDbLine
 10
-192.5000000000009
 20
837.9704788145376
 30
0.0
 11
-187.5
 21
842.9704788145379
 31
0.0
  0
CIRCLE
  5
8CF
330
6F
100
AcDbEntity
  8
DETAIL
  6
Continuous
100
AcDbCircle
 10
-205.5000000000001
 20
885.0
 30
0.0
 40
5.0
  0
CIRCLE
  5
8D0
330
6F
100
AcDbEntity
  8
DETAIL
  6
Continuous
100
AcDbCircle
 10
-205.5000000000003
 20
935.0
 30
0.0
 40
5.0
  0
CIRCLE
  5
8D1
330
6F
100
AcDbEntity
  8
DETAIL
  6
Continuous
100
AcDbCircle
 10
205.4999999999997
 20
885.0
 30
0.0
 40
5.0
  0
LINE
  5
8D2
330
6F
100
AcDbEntity
  8
DETAIL
  6
Continuous
100
AcDbLine
 10
193.0000000000073
 20
837.9704788145376
 30
0.0
 11
187.5
 21
843.4704788145447
 31
0.0
  0
LINE
  5
8D3
330
6F
100
AcDbEntity
  8
DETAIL
  6
Continuous
100
AcDbLine
 10
225.0
 20
837.9704788145376
 30
0.0
 11
193.0000000000073
 21
837.9704788145376
 31
0.0
  0
CIRCLE
  5
8D4
330
6F
100
AcDbEntity
  8
DETAIL
  6
Continuous
100
AcDbCircle
 10
205.4999999999997
 20
935.0
 30
0.0
 40
5.0
  0
ARC
  5
8D5
330
6F
100
AcDbEntity
  8
DETAIL
  6
Continuous
100
AcDbCircle
 10
-205.5000000000003
 20
1555.0
 30
0.0
 40
4.649999999994173
100
AcDbArc
 50
0.0
 51
180.0
  0
ARC
  5
8D6
330
6F
100
AcDbEntity
  8
DETAIL
  6
Continuous
100
AcDbCircle
 10
-205.5000000000003
 20
1534.299999999999
 30
0.0
 40
4.650000000001455
100
AcDbArc
 50
180.0
 51
0.0
  0
LINE
  5
8D7
330
6F
100
AcDbEntity
  8
DETAIL
  6
Continuous
100
AcDbLine
 10
-210.149999999994
 20
1534.299999999999
 30
0.0
 11
-210.149999999994
 21
1555.0
 31
0.0
  0
LINE
  5
8D8
330
6F
100
AcDbEntity
  8
DETAIL
  6
Continuous
100
AcDbLine
 10
-200.8499999999979
 20
1555.0
 30
0.0
 11
-200.8499999999979
 21
1534.299999999999
 31
0.0
  0
ARC
  5
8D9
330
6F
100
AcDbEntity
  8
DETAIL
  6
Continuous
100
AcDbCircle
 10
205.4999999999997
 20
1555.0
 30
0.0
 40
4.649999999994173
100
AcDbArc
 50
0.0
 51
180.0
  0
ARC
  5
8DA
330
6F
100
AcDbEntity
  8
DETAIL
  6
Continuous
100
AcDbCircle
 10
205.4999999999997
 20
1534.299999999999
 30
0.0
 40
4.650000000001455
100
AcDbArc
 50
180.0
 51
0.0
  0
LINE
  5
8DB
330
6F
100
AcDbEntity
  8
DETAIL
  6
Continuous
100
AcDbLine
 10
200.850000000006
 20
1534.299999999999
 30
0.0
 11
200.850000000006
 21
1555.0
 31
0.0
  0
LINE
  5
8DC
330
6F
100
AcDbEntity
  8
DETAIL
  6
Continuous
100
AcDbLine
 10
210.1500000000021
 20
1555.0
 30
0.0
 11
210.1500000000021
 21
1534.299999999999
 31
0.0
  0
LINE
  5
8DD
330
6F
100
AcDbEntity
  8
DETAIL
  6
Continuous
100
AcDbLine
 10
225.0
 20
1688.970478814537
 30
0.0
 11
225.0
 21
837.9704788145376
 31
0.0
  0
LINE
  5
8DE
330
6F
100
AcDbEntity
  8
DETAIL
  6
Continuous
100
AcDbLine
 10
187.5
 20
843.4704788145447
 30
0.0
 11
187.5000000000071
 21
1678.970478814537
 31
0.0
  0
ARC
  5
8DF
330
6F
100
AcDbEntity
  8
DETAIL
  6
Continuous
100
AcDbCircle
 10
197.5000000000073
 20
1678.970478814537
 30
0.0
 40
10.0
100
AcDbArc
 50
90.0
 51
180.0
  0
LINE
  5
8E0
330
6F
100
AcDbEntity
  8
DETAIL
  6
Continuous
100
AcDbLine
 10
203.5000000000074
 20
1678.970478814537
 30
0.0
 11
203.5000000000074
 21
1673.970478814538
 31
0.0
  0
LINE
  5
8E1
330
6F
100
AcDbEntity
  8
DETAIL
  6
Continuous
100
AcDbLine
 10
193.5000000000071
 20
1678.970478814537
 30
0.0
 11
193.5000000000071
 21
1673.970478814538
 31
0.0
  0
ARC
  5
8E2
330
6F
100
AcDbEntity
  8
DETAIL
  6
Continuous
100
AcDbCircle
 10
198.5000000000073
 20
1673.970478814538
 30
0.0
 40
5.0
100
AcDbArc
 50
180.0
 51
0.0
  0
ARC
  5
8E3
330
6F
100
AcDbEntity
  8
DETAIL
  6
Continuous
100
AcDbCircle
 10
198.5000000000073
 20
1678.970478814537
 30
0.0
 40
5.0
100
AcDbArc
 50
0.0
 51
180.0
  0
LINE
  5
8E4
330
6F
100
AcDbEntity
  8
DETAIL
  6
Continuous
100
AcDbLine
 10
225.0079747563353
 20
1688.970478814537
 30
0.0
 11
197.5000000000073
 21
1688.970478814537
 31
0.0
  0
LINE
  5
8E5
330
6F
100
AcDbEntity
  8
DETAIL
  6
Continuous
100
AcDbLine
 10
-187.5
 20
842.9704788145372
 30
0.0
 11
-187.5
 21
1914.970478814538
 31
0.0
  0
LINE
  5
8E6
330
6F
100
AcDbEntity
  8
DETAIL
  6
Continuous
100
AcDbLine
 10
-225.0
 20
1924.970478814537
 30
0.0
 11
-225.0
 21
837.9704788145376
 31
0.0
  0
LINE
  5
8E7
330
6F
100
AcDbEntity
  8
DETAIL
  6
Continuous
100
AcDbLine
 10
-193.5
 20
1912.970478814538
 30
0.0
 11
-193.5
 21
1907.970478814538
 31
0.0
  0
LINE
  5
8E8
330
6F
100
AcDbEntity
  8
DETAIL
  6
Continuous
100
AcDbLine
 10
-203.5
 20
1912.970478814538
 30
0.0
 11
-203.5
 21
1907.970478814538
 31
0.0
  0
ARC
  5
8E9
330
6F
100
AcDbEntity
  8
DETAIL
  6
Continuous
100
AcDbCircle
 10
-198.4999999999999
 20
1907.970478814538
 30
0.0
 40
5.0
100
AcDbArc
 50
180.0
 51
0.0
  0
LINE
  5
8EA
330
6F
100
AcDbEntity
  8
DETAIL
  6
Continuous
100
AcDbLine
 10
-197.5
 20
1924.970478814537
 30
0.0
 11
-225.0
 21
1924.970478814537
 31
0.0
  0
ARC
  5
8EB
330
6F
100
AcDbEntity
  8
DETAIL
  6
Continuous
100
AcDbCircle
 10
-197.5
 20
1914.970478814538
 30
0.0
 40
10.0
100
AcDbArc
 50
0.0
 51
90.0
  0
ARC
  5
8EC
330
6F
100
AcDbEntity
  8
DETAIL
  6
Continuous
100
AcDbCircle
 10
-198.4999999999999
 20
1912.970478814538
 30
0.0
 40
5.0
100
AcDbArc
 50
0.0
 51
180.0
  0
LINE
  5
8ED
330
6F
100
AcDbEntity
  8
DETAIL
  6
Continuous
100
AcDbLine
 10
-180.5
 20
905.0
 30
0.0
 11
-430.5000000000005
 21
905.0
 31
0.0
  0
ARC
  5
8EE
330
6F
100
AcDbEntity
  8
DETAIL
  6
Continuous
100
AcDbCircle
 10
-318.5000000000001
 20
885.0
 30
0.0
 40
5.0
100
AcDbArc
 50
90.0
 51
270.0
  0
LINE
  5
8EF
330
6F
100
AcDbEntity
  8
DETAIL
  6
Continuous
100
AcDbLine
 10
-292.5000000000009
 20
880.0000000000004
 30
0.0
 11
-318.5000000000001
 21
880.0000000000004
 31
0.0
  0
LINE
  5
8F0
330
6F
100
AcDbEntity
  8
DETAIL
  6
Continuous
100
AcDbLine
 10
-292.5000000000009
 20
890.0000000000003
 30
0.0
 11
-318.5000000000001
 21
890.0000000000003
 31
0.0
  0
ARC
  5
8F1
330
6F
100
AcDbEntity
  8
DETAIL
  6
Continuous
100
AcDbCircle
 10
-292.5000000000009
 20
885.0
 30
0.0
 40
5.0
100
AcDbArc
 50
270.0
 51
90.0
  0
LINE
  5
8F2
330
6F
100
AcDbEntity
  8
DETAIL
  6
Continuous
100
AcDbLine
 10
-430.0000000000007
 20
865.0000000000003
 30
0.0
 11
-430.0000000000007
 21
905.0
 31
0.0
  0
LINE
  5
8F3
330
6F
100
AcDbEntity
  8
DETAIL
  6
Continuous
100
AcDbLine
 10
-427.9999999999994
 20
865.0000000000003
 30
0.0
 11
-427.9999999999994
 21
905.0
 31
0.0
  0
LINE
  5
8F4
330
6F
100
AcDbEntity
  8
DETAIL
  6
Continuous
100
AcDbLine
 10
-175.5000000000009
 20
870.0000000000002
 30
0.0
 11
-175.5000000000009
 21
900.0000000000001
 31
0.0
  0
ARC
  5
8F5
330
6F
100
AcDbEntity
  8
DETAIL
  6
Continuous
100
AcDbCircle
 10
-268.5000000000001
 20
885.0
 30
0.0
 40
5.0
100
AcDbArc
 50
90.0
 51
270.0
  0
LINE
  5
8F6
330
6F
100
AcDbEntity
  8
DETAIL
  6
Continuous
100
AcDbLine
 10
-242.5000000000001
 20
880.0000000000004
 30
0.0
 11
-268.5000000000001
 21
880.0000000000004
 31
0.0
  0
LINE
  5
8F7
330
6F
100
AcDbEntity
  8
DETAIL
  6
Continuous
100
AcDbLine
 10
-242.5000000000001
 20
890.0000000000003
 30
0.0
 11
-268.5000000000001
 21
890.0000000000003
 31
0.0
  0
ARC
  5
8F8
330
6F
100
AcDbEntity
  8
DETAIL
  6
Continuous
100
AcDbCircle
 10
-242.5000000000001
 20
885.0
 30
0.0
 40
5.0
100
AcDbArc
 50
270.0
 51
90.0
  0
ARC
  5
8F9
330
6F
100
AcDbEntity
  8
DETAIL
  6
Continuous
100
AcDbCircle
 10
-218.5000000000001
 20
885.0
 30
0.0
 40
5.0
100
AcDbArc
 50
90.0
 51
270.0
  0
LINE
  5
8FA
330
6F
100
AcDbEntity
  8
DETAIL
  6
Continuous
100
AcDbLine
 10
-192.500000000001
 20
880.0000000000004
 30
0.0
 11
-218.5000000000001
 21
880.0000000000004
 31
0.0
  0
LINE
  5
8FB
330
6F
100
AcDbEntity
  8
DETAIL
  6
Continuous
100
AcDbLine
 10
-192.500000000001
 20
890.0000000000003
 30
0.0
 11
-218.5000000000001
 21
890.0000000000003
 31
0.0
  0
ARC
  5
8FC
330
6F
100
AcDbEntity
  8
DETAIL
  6
Continuous
100
AcDbCircle
 10
-192.500000000001
 20
885.0
 30
0.0
 40
5.0
100
AcDbArc
 50
270.0
 51
90.0
  0
ARC
  5
8FD
330
6F
100
AcDbEntity
  8
DETAIL
  6
Continuous
100
AcDbCircle
 10
-180.5
 20
900.0000000000001
 30
0.0
 40
5.0
100
AcDbArc
 50
0.0
 51
90.0
  0
ARC
  5
8FE
330
6F
100
AcDbEntity
  8
DETAIL
  6
Continuous
100
AcDbCircle
 10
-180.5
 20
870.0000000000002
 30
0.0
 40
5.0
100
AcDbArc
 50
270.0
 51
0.0
  0
LINE
  5
8FF
330
6F
100
AcDbEntity
  8
DETAIL
  6
Continuous
100
AcDbLine
 10
-180.5
 20
865.0000000000003
 30
0.0
 11
-430.5000000000005
 21
865.0000000000003
 31
0.0
  0
LINE
  5
900
330
6F
100
AcDbEntity
  8
DETAIL
  6
Continuous
100
AcDbLine
 10
-187.5
 20
814.9999999999991
 30
0.0
 11
187.0
 21
815.0000000000003
 31
0.0
  0
LINE
  5
901
330
6F
100
AcDbEntity
  8
DETAIL
  6
Continuous
100
AcDbLine
 10
-187.5
 20
801.5999999999989
 30
0.0
 11
187.0
 21
801.5999999999989
 31
0.0
  0
LINE
  5
902
330
6F
100
AcDbEntity
  8
DETAIL
  6
Continuous
100
AcDbLine
 10
187.0
 20
800.0
 30
0.0
 11
-187.5
 21
800.0
 31
0.0
  0
LINE
  5
903
330
6F
100
AcDbEntity
  8
DETAIL
  6
Continuous
100
AcDbLine
 10
187.0
 20
759.9999999999995
 30
0.0
 11
-187.5
 21
759.9999999999995
 31
0.0
  0
LINE
  5
904
330
6F
100
AcDbEntity
  8
DETAIL
  6
Continuous
100
AcDbLine
 10
-187.5
 20
800.0
 30
0.0
 11
187.0
 21
800.0
 31
0.0
  0
LINE
  5
905
330
6F
100
AcDbEntity
  8
DETAIL
  6
Continuous
100
AcDbLine
 10
187.5
 20
214.8000000000002
 30
0.0
 11
-187.5
 21
214.8000000000002
 31
0.0
  0
LINE
  5
906
330
6F
100
AcDbEntity
  8
DETAIL
  6
Continuous
100
AcDbLine
 10
187.5
 20
254.8000000000002
 30
0.0
 11
-187.5
 21
254.8000000000002
 31
0.0
  0
ARC
  5
907
330
6F
100
AcDbEntity
  8
DETAIL
  6
Continuous
100
AcDbCircle
 10
205.5
 20
296.8000000000002
 30
0.0
 40
5.0
100
AcDbArc
 50
180.0
 51
0.0
  0
ARC
  5
908
330
6F
100
AcDbEntity
  8
DETAIL
  6
Continuous
100
AcDbCircle
 10
205.5
 20
322.8000000000003
 30
0.0
 40
5.0
100
AcDbArc
 50
0.0
 51
180.0
  0
LINE
  5
909
330
6F
100
AcDbEntity
  8
DETAIL
  6
Continuous
100
AcDbLine
 10
200.5
 20
322.8000000000003
 30
0.0
 11
200.5
 21
296.8000000000002
 31
0.0
  0
LINE
  5
90A
330
6F
100
AcDbEntity
  8
DETAIL
  6
Continuous
100
AcDbLine
 10
210.5
 20
322.8000000000003
 30
0.0
 11
210.5
 21
296.8000000000002
 31
0.0
  0
ARC
  5
90B
330
6F
100
AcDbEntity
  8
DETAIL
  6
Continuous
100
AcDbCircle
 10
205.5
 20
221.8000000000001
 30
0.0
 40
5.0
100
AcDbArc
 50
180.0
 51
0.0
  0
ARC
  5
90C
330
6F
100
AcDbEntity
  8
DETAIL
  6
Continuous
100
AcDbCircle
 10
205.5
 20
247.8000000000001
 30
0.0
 40
5.0
100
AcDbArc
 50
0.0
 51
180.0
  0
LINE
  5
90D
330
6F
100
AcDbEntity
  8
DETAIL
  6
Continuous
100
AcDbLine
 10
200.5
 20
247.8000000000001
 30
0.0
 11
200.5
 21
221.8000000000001
 31
0.0
  0
LINE
  5
90E
330
6F
100
AcDbEntity
  8
DETAIL
  6
Continuous
100
AcDbLine
 10
210.5
 20
247.8000000000001
 30
0.0
 11
210.5
 21
221.8000000000001
 31
0.0
  0
LINE
  5
90F
330
6F
100
AcDbEntity
  8
DETAIL
  6
Continuous
100
AcDbLine
 10
210.5
 20
648.0000000000001
 30
0.0
 11
210.5
 21
622.0000000000001
 31
0.0
  0
LINE
  5
910
330
6F
100
AcDbEntity
  8
DETAIL
  6
Continuous
100
AcDbLine
 10
200.5
 20
648.0000000000001
 30
0.0
 11
200.5
 21
622.0000000000001
 31
0.0
  0
ARC
  5
911
330
6F
100
AcDbEntity
  8
DETAIL
  6
Continuous
100
AcDbCircle
 10
205.5
 20
648.0000000000001
 30
0.0
 40
5.0
100
AcDbArc
 50
0.0
 51
180.0
  0
ARC
  5
912
330
6F
100
AcDbEntity
  8
DETAIL
  6
Continuous
100
AcDbCircle
 10
205.5
 20
622.0000000000001
 30
0.0
 40
5.0
100
AcDbArc
 50
180.0
 51
0.0
  0
LINE
  5
913
330
6F
100
AcDbEntity
  8
DETAIL
  6
Continuous
100
AcDbLine
 10
210.5
 20
697.9999999999995
 30
0.0
 11
210.5
 21
672.0000000000001
 31
0.0
  0
LINE
  5
914
330
6F
100
AcDbEntity
  8
DETAIL
  6
Continuous
100
AcDbLine
 10
200.5
 20
697.9999999999995
 30
0.0
 11
200.5
 21
672.0000000000001
 31
0.0
  0
ARC
  5
915
330
6F
100
AcDbEntity
  8
DETAIL
  6
Continuous
100
AcDbCircle
 10
205.5
 20
697.9999999999995
 30
0.0
 40
5.0
100
AcDbArc
 50
0.0
 51
180.0
  0
ARC
  5
916
330
6F
100
AcDbEntity
  8
DETAIL
  6
Continuous
100
AcDbCircle
 10
205.5
 20
672.0000000000001
 30
0.0
 40
5.0
100
AcDbArc
 50
180.0
 51
0.0
  0
LINE
  5
917
330
6F
100
AcDbEntity
  8
DETAIL
  6
Continuous
100
AcDbLine
 10
210.5
 20
747.9999999999995
 30
0.0
 11
210.5
 21
721.9999999999995
 31
0.0
  0
LINE
  5
918
330
6F
100
AcDbEntity
  8
DETAIL
  6
Continuous
100
AcDbLine
 10
200.5
 20
747.9999999999995
 30
0.0
 11
200.5
 21
721.9999999999995
 31
0.0
  0
ARC
  5
919
330
6F
100
AcDbEntity
  8
DETAIL
  6
Continuous
100
AcDbCircle
 10
205.5
 20
747.9999999999995
 30
0.0
 40
5.0
100
AcDbArc
 50
0.0
 51
180.0
  0
ARC
  5
91A
330
6F
100
AcDbEntity
  8
DETAIL
  6
Continuous
100
AcDbCircle
 10
205.5
 20
721.9999999999995
 30
0.0
 40
5.0
100
AcDbArc
 50
180.0
 51
0.0
  0
LINE
  5
91B
330
6F
100
AcDbEntity
  8
DETAIL
  6
Continuous
100
AcDbLine
 10
210.5
 20
797.9999999999995
 30
0.0
 11
210.5
 21
771.9999999999995
 31
0.0
  0
LINE
  5
91C
330
6F
100
AcDbEntity
  8
DETAIL
  6
Continuous
100
AcDbLine
 10
200.5
 20
797.9999999999995
 30
0.0
 11
200.5
 21
771.9999999999995
 31
0.0
  0
ARC
  5
91D
330
6F
100
AcDbEntity
  8
DETAIL
  6
Continuous
100
AcDbCircle
 10
205.5
 20
797.9999999999995
 30
0.0
 40
5.0
100
AcDbArc
 50
0.0
 51
180.0
  0
ARC
  5
91E
330
6F
100
AcDbEntity
  8
DETAIL
  6
Continuous
100
AcDbCircle
 10
205.5
 20
771.9999999999995
 30
0.0
 40
5.0
100
AcDbArc
 50
180.0
 51
0.0
  0
LINE
  5
91F
330
6F
100
AcDbEntity
  8
DETAIL
  6
Continuous
100
AcDbLine
 10
210.5
 20
848.0
 30
0.0
 11
210.5
 21
822.0
 31
0.0
  0
LINE
  5
920
330
6F
100
AcDbEntity
  8
DETAIL
  6
Continuous
100
AcDbLine
 10
200.5
 20
848.0
 30
0.0
 11
200.5
 21
822.0
 31
0.0
  0
ARC
  5
921
330
6F
100
AcDbEntity
  8
DETAIL
  6
Continuous
100
AcDbCircle
 10
205.5
 20
848.0
 30
0.0
 40
5.0
100
AcDbArc
 50
0.0
 51
180.0
  0
ARC
  5
922
330
6F
100
AcDbEntity
  8
DETAIL
  6
Continuous
100
AcDbCircle
 10
205.5
 20
822.0
 30
0.0
 40
5.0
100
AcDbArc
 50
180.0
 51
0.0
  0
LINE
  5
923
330
6F
100
AcDbEntity
  8
DETAIL
  6
Continuous
100
AcDbLine
 10
210.5
 20
898.0
 30
0.0
 11
210.5
 21
872.0
 31
0.0
  0
LINE
  5
924
330
6F
100
AcDbEntity
  8
DETAIL
  6
Continuous
100
AcDbLine
 10
200.5
 20
898.0
 30
0.0
 11
200.5
 21
872.0
 31
0.0
  0
ARC
  5
925
330
6F
100
AcDbEntity
  8
DETAIL
  6
Continuous
100
AcDbCircle
 10
205.5
 20
898.0
 30
0.0
 40
5.0
100
AcDbArc
 50
0.0
 51
180.0
  0
ARC
  5
926
330
6F
100
AcDbEntity
  8
DETAIL
  6
Continuous
100
AcDbCircle
 10
205.5
 20
872.0
 30
0.0
 40
5.0
100
AcDbArc
 50
180.0
 51
0.0
  0
LINE
  5
927
330
6F
100
AcDbEntity
  8
DETAIL
  6
DASHED
100
AcDbLine
 10
187.5
 20
60.0
 30
0.0
 11
187.5
 21
9.80000000000018
 31
0.0
  0
LINE
  5
928
330
6F
100
AcDbEntity
  8
DETAIL
  6
DASHED
100
AcDbLine
 10
227.5
 20
60.0
 30
0.0
 11
227.5
 21
9.80000000000018
 31
0.0
  0
ARC
  5
929
330
6F
100
AcDbEntity
  8
DETAIL
  6
Continuous
100
AcDbCircle
 10
197.5000000000009
 20
950.0
 30
0.0
 40
10.0
100
AcDbArc
 50
90.0
 51
180.0
  0
LINE
  5
92A
330
6F
100
AcDbEntity
  8
DETAIL
  6
DASHED
100
AcDbLine
 10
210.5
 20
42.50000000000015
 30
0.0
 11
210.5
 21
37.50000000000023
 31
0.0
  0
LINE
  5
92B
330
6F
100
AcDbEntity
  8
DETAIL
  6
DASHED
100
AcDbLine
 10
200.5
 20
42.50000000000015
 30
0.0
 11
200.5
 21
37.50000000000023
 31
0.0
  0
ARC
  5
92C
330
6F
100
AcDbEntity
  8
DETAIL
  6
DASHED
100
AcDbCircle
 10
205.5
 20
42.50000000000015
 30
0.0
 40
5.0
100
AcDbArc
 50
0.0
 51
180.0
  0
ARC
  5
92D
330
6F
100
AcDbEntity
  8
DETAIL
  6
DASHED
100
AcDbCircle
 10
205.5
 20
37.50000000000023
 30
0.0
 40
5.0
100
AcDbArc
 50
180.0
 51
0.0
  0
LINE
  5
92E
330
6F
100
AcDbEntity
  8
DETAIL
  6
DASHED
100
AcDbLine
 10
187.5
 20
9.80000000000018
 30
0.0
 11
227.5
 21
9.800000000000068
 31
0.0
  0
LINE
  5
92F
330
6F
100
AcDbEntity
  8
DETAIL
  6
Continuous
100
AcDbLine
 10
187.5
 20
955.0
 30
0.0
 11
187.5
 21
358.8901586977623
 31
0.0
  0
LINE
  5
930
330
6F
100
AcDbEntity
  8
DETAIL
  6
Continuous
100
AcDbLine
 10
229.8000000000002
 20
0.0
 30
0.0
 11
229.8000000000002
 21
55.0
 31
0.0
  0
LINE
  5
931
330
6F
100
AcDbEntity
  8
DETAIL
  6
Continuous
100
AcDbLine
 10
185.5
 20
0.0
 30
0.0
 11
185.5
 21
55.0
 31
0.0
  0
LINE
  5
932
330
6F
100
AcDbEntity
  8
DETAIL
  6
Continuous
100
AcDbLine
 10
185.5
 20
55.0
 30
0.0
 11
229.8000000000002
 21
55.0
 31
0.0
  0
ARC
  5
933
330
6F
100
AcDbEntity
  8
DETAIL
  6
Continuous
100
AcDbCircle
 10
205.5
 20
922.0
 30
0.0
 40
5.0
100
AcDbArc
 50
180.0
 51
0.0
  0
ARC
  5
934
330
6F
100
AcDbEntity
  8
DETAIL
  6
Continuous
100
AcDbCircle
 10
205.5
 20
948.0
 30
0.0
 40
5.0
100
AcDbArc
 50
0.0
 51
180.0
  0
LINE
  5
935
330
6F
100
AcDbEntity
  8
DETAIL
  6
Continuous
100
AcDbLine
 10
200.5
 20
948.0
 30
0.0
 11
200.5
 21
922.0
 31
0.0
  0
LINE
  5
936
330
6F
100
AcDbEntity
  8
DETAIL
  6
Continuous
100
AcDbLine
 10
210.5
 20
948.0
 30
0.0
 11
210.5
 21
922.0
 31
0.0
  0
LINE
  5
937
330
6F
100
AcDbEntity
  8
DETAIL
  6
Continuous
100
AcDbLine
 10
227.5
 20
960.0
 30
0.0
 11
227.5
 21
60.0
 31
0.0
  0
LINE
  5
938
330
6F
100
AcDbEntity
  8
DETAIL
  6
Continuous
100
AcDbLine
 10
197.5000000000009
 20
960.0
 30
0.0
 11
227.5
 21
960.0
 31
0.0
  0
LINE
  5
939
330
6F
100
AcDbEntity
  8
DETAIL
  6
Continuous
100
AcDbLine
 10
185.5
 20
0.0
 30
0.0
 11
229.8000000000002
 21
0.0
 31
0.0
  0
LINE
  5
93A
330
6F
100
AcDbEntity
  8
DETAIL
  6
Continuous
100
AcDbLine
 10
-187.5
 20
950.0
 30
0.0
 11
-187.4999999999982
 21
733.8901586977649
 31
0.0
  0
LINE
  5
93B
330
6F
100
AcDbEntity
  8
DETAIL
  6
Continuous
100
AcDbLine
 10
-210.5000000000009
 20
848.0
 30
0.0
 11
-210.5000000000009
 21
822.0
 31
0.0
  0
LINE
  5
93C
330
6F
100
AcDbEntity
  8
DETAIL
  6
Continuous
100
AcDbLine
 10
-200.5000000000009
 20
848.0
 30
0.0
 11
-200.5000000000009
 21
822.0
 31
0.0
  0
ARC
  5
93D
330
6F
100
AcDbEntity
  8
DETAIL
  6
Continuous
100
AcDbCircle
 10
-205.5000000000009
 20
848.0
 30
0.0
 40
5.0
100
AcDbArc
 50
0.0
 51
180.0
  0
ARC
  5
93E
330
6F
100
AcDbEntity
  8
DETAIL
  6
Continuous
100
AcDbCircle
 10
-205.5000000000009
 20
822.0
 30
0.0
 40
5.0
100
AcDbArc
 50
180.0
 51
0.0
  0
LINE
  5
93F
330
6F
100
AcDbEntity
  8
DETAIL
  6
Continuous
100
AcDbLine
 10
-210.5000000000009
 20
898.0
 30
0.0
 11
-210.5000000000009
 21
872.0
 31
0.0
  0
LINE
  5
940
330
6F
100
AcDbEntity
  8
DETAIL
  6
Continuous
100
AcDbLine
 10
-200.5000000000009
 20
898.0
 30
0.0
 11
-200.5000000000009
 21
872.0
 31
0.0
  0
ARC
  5
941
330
6F
100
AcDbEntity
  8
DETAIL
  6
Continuous
100
AcDbCircle
 10
-205.5000000000009
 20
898.0
 30
0.0
 40
5.0
100
AcDbArc
 50
0.0
 51
180.0
  0
ARC
  5
942
330
6F
100
AcDbEntity
  8
DETAIL
  6
Continuous
100
AcDbCircle
 10
-205.5000000000009
 20
872.0
 30
0.0
 40
5.0
100
AcDbArc
 50
180.0
 51
0.0
  0
ARC
  5
943
330
6F
100
AcDbEntity
  8
DETAIL
  6
Continuous
100
AcDbCircle
 10
-197.5000000000009
 20
950.0
 30
0.0
 40
10.00000000000011
100
AcDbArc
 50
0.0
 51
90.0
  0
ARC
  5
944
330
6F
100
AcDbEntity
  8
DETAIL
  6
Continuous
100
AcDbCircle
 10
-205.5000000000009
 20
922.0
 30
0.0
 40
5.0
100
AcDbArc
 50
180.0
 51
0.0
  0
ARC
  5
945
330
6F
100
AcDbEntity
  8
DETAIL
  6
Continuous
100
AcDbCircle
 10
-205.5000000000009
 20
948.0
 30
0.0
 40
5.0
100
AcDbArc
 50
0.0
 51
180.0
  0
LINE
  5
946
330
6F
100
AcDbEntity
  8
DETAIL
  6
Continuous
100
AcDbLine
 10
-200.5000000000009
 20
948.0
 30
0.0
 11
-200.5000000000009
 21
922.0
 31
0.0
  0
LINE
  5
947
330
6F
100
AcDbEntity
  8
DETAIL
  6
Continuous
100
AcDbLine
 10
-210.5000000000009
 20
948.0
 30
0.0
 11
-210.5000000000009
 21
922.0
 31
0.0
  0
LINE
  5
948
330
6F
100
AcDbEntity
  8
DETAIL
  6
Continuous
100
AcDbLine
 10
-227.5000000000009
 20
960.0
 30
0.0
 11
-227.5
 21
59.99999999999977
 31
0.0
  0
LINE
  5
949
330
6F
100
AcDbEntity
  8
DETAIL
  6
Continuous
100
AcDbLine
 10
-197.5000000000009
 20
960.0
 30
0.0
 11
-227.5000000000009
 21
960.0
 31
0.0
  0
LINE
  5
94A
330
6F
100
AcDbEntity
  8
DETAIL
  6
Continuous
100
AcDbLine
 10
-210.5000000000009
 20
797.9999999999995
 30
0.0
 11
-210.5000000000009
 21
771.9999999999995
 31
0.0
  0
LINE
  5
94B
330
6F
100
AcDbEntity
  8
DETAIL
  6
Continuous
100
AcDbLine
 10
-200.5000000000009
 20
797.9999999999995
 30
0.0
 11
-200.5000000000009
 21
771.9999999999995
 31
0.0
  0
ARC
  5
94C
330
6F
100
AcDbEntity
  8
DETAIL
  6
Continuous
100
AcDbCircle
 10
-205.5000000000009
 20
797.9999999999995
 30
0.0
 40
5.0
100
AcDbArc
 50
0.0
 51
180.0
  0
ARC
  5
94D
330
6F
100
AcDbEntity
  8
DETAIL
  6
Continuous
100
AcDbCircle
 10
-205.5000000000009
 20
771.9999999999995
 30
0.0
 40
5.0
100
AcDbArc
 50
180.0
 51
0.0
  0
LINE
  5
94E
330
6F
100
AcDbEntity
  8
DETAIL
  6
Continuous
100
AcDbLine
 10
-210.5000000000009
 20
648.0000000000001
 30
0.0
 11
-210.5000000000009
 21
622.0000000000001
 31
0.0
  0
LINE
  5
94F
330
6F
100
AcDbEntity
  8
DETAIL
  6
Continuous
100
AcDbLine
 10
-200.5000000000009
 20
648.0000000000001
 30
0.0
 11
-200.5000000000009
 21
622.0000000000001
 31
0.0
  0
ARC
  5
950
330
6F
100
AcDbEntity
  8
DETAIL
  6
Continuous
100
AcDbCircle
 10
-205.5000000000009
 20
648.0000000000001
 30
0.0
 40
5.0
100
AcDbArc
 50
0.0
 51
180.0
  0
ARC
  5
951
330
6F
100
AcDbEntity
  8
DETAIL
  6
Continuous
100
AcDbCircle
 10
-205.5000000000009
 20
622.0000000000001
 30
0.0
 40
5.0
100
AcDbArc
 50
180.0
 51
0.0
  0
LINE
  5
952
330
6F
100
AcDbEntity
  8
DETAIL
  6
Continuous
100
AcDbLine
 10
-210.5000000000009
 20
697.9999999999995
 30
0.0
 11
-210.5000000000009
 21
672.0000000000001
 31
0.0
  0
LINE
  5
953
330
6F
100
AcDbEntity
  8
DETAIL
  6
Continuous
100
AcDbLine
 10
-200.5000000000009
 20
697.9999999999995
 30
0.0
 11
-200.5000000000009
 21
672.0000000000001
 31
0.0
  0
ARC
  5
954
330
6F
100
AcDbEntity
  8
DETAIL
  6
Continuous
100
AcDbCircle
 10
-205.5000000000009
 20
672.0000000000001
 30
0.0
 40
5.0
100
AcDbArc
 50
180.0
 51
0.0
  0
ARC
  5
955
330
6F
100
AcDbEntity
  8
DETAIL
  6
Continuous
100
AcDbCircle
 10
-205.5000000000009
 20
697.9999999999995
 30
0.0
 40
5.0
100
AcDbArc
 50
0.0
 51
180.0
  0
ARC
  5
956
330
6F
100
AcDbEntity
  8
DETAIL
  6
Continuous
100
AcDbCircle
 10
-205.5000000000009
 20
721.9999999999995
 30
0.0
 40
5.0
100
AcDbArc
 50
180.0
 51
0.0
  0
LINE
  5
957
330
6F
100
AcDbEntity
  8
DETAIL
  6
Continuous
100
AcDbLine
 10
-210.5000000000009
 20
747.9999999999995
 30
0.0
 11
-210.5000000000009
 21
721.9999999999995
 31
0.0
  0
LINE
  5
958
330
6F
100
AcDbEntity
  8
DETAIL
  6
Continuous
100
AcDbLine
 10
-200.5000000000009
 20
747.9999999999995
 30
0.0
 11
-200.5000000000009
 21
721.9999999999995
 31
0.0
  0
ARC
  5
959
330
6F
100
AcDbEntity
  8
DETAIL
  6
Continuous
100
AcDbCircle
 10
-205.5000000000009
 20
747.9999999999995
 30
0.0
 40
5.0
100
AcDbArc
 50
0.0
 51
180.0
  0
LINE
  5
95A
330
6F
100
AcDbEntity
  8
DETAIL
  6
DASHED
100
AcDbLine
 10
-187.5000000000009
 20
60.0
 30
0.0
 11
-187.5000000000009
 21
9.80000000000018
 31
0.0
  0
LINE
  5
95B
330
6F
100
AcDbEntity
  8
DETAIL
  6
DASHED
100
AcDbLine
 10
-227.5
 20
60.0
 30
0.0
 11
-227.5000000000009
 21
9.800000000000068
 31
0.0
  0
LINE
  5
95C
330
6F
100
AcDbEntity
  8
DETAIL
  6
DASHED
100
AcDbLine
 10
-210.5000000000009
 20
42.50000000000015
 30
0.0
 11
-210.5000000000009
 21
37.50000000000017
 31
0.0
  0
LINE
  5
95D
330
6F
100
AcDbEntity
  8
DETAIL
  6
DASHED
100
AcDbLine
 10
-200.5000000000009
 20
42.75000000000017
 30
0.0
 11
-200.5000000000009
 21
37.50000000000017
 31
0.0
  0
ARC
  5
95E
330
6F
100
AcDbEntity
  8
DETAIL
  6
DASHED
100
AcDbCircle
 10
-205.5000000000009
 20
42.50000000000015
 30
0.0
 40
5.0
100
AcDbArc
 50
0.0
 51
180.0
  0
ARC
  5
95F
330
6F
100
AcDbEntity
  8
DETAIL
  6
DASHED
100
AcDbCircle
 10
-205.5000000000009
 20
37.50000000000017
 30
0.0
 40
5.0
100
AcDbArc
 50
180.0
 51
0.0
  0
LINE
  5
960
330
6F
100
AcDbEntity
  8
DETAIL
  6
DASHED
100
AcDbLine
 10
-187.5000000000009
 20
9.80000000000018
 30
0.0
 11
-227.5000000000009
 21
9.800000000000068
 31
0.0
  0
LINE
  5
961
330
6F
100
AcDbEntity
  8
DETAIL
  6
Continuous
100
AcDbLine
 10
-229.8000000000006
 20
0.0
 30
0.0
 11
-229.8000000000006
 21
55.0
 31
0.0
  0
LINE
  5
962
330
6F
100
AcDbEntity
  8
DETAIL
  6
Continuous
100
AcDbLine
 10
-185.5000000000009
 20
0.0
 30
0.0
 11
-185.5000000000009
 21
55.0
 31
0.0
  0
LINE
  5
963
330
6F
100
AcDbEntity
  8
DETAIL
  6
Continuous
100
AcDbLine
 10
-185.5000000000009
 20
55.0
 30
0.0
 11
-229.8000000000006
 21
55.0
 31
0.0
  0
LINE
  5
964
330
6F
100
AcDbEntity
  8
DETAIL
  6
Continuous
100
AcDbLine
 10
-185.5000000000009
 20
0.0
 30
0.0
 11
-229.8000000000006
 21
0.0
 31
0.0
  0
ARC
  5
965
330
6F
100
AcDbEntity
  8
DETAIL
  6
Continuous
100
AcDbCircle
 10
-205.5000000000009
 20
296.8000000000002
 30
0.0
 40
5.0
100
AcDbArc
 50
180.0
 51
0.0
  0
ARC
  5
966
330
6F
100
AcDbEntity
  8
DETAIL
  6
Continuous
100
AcDbCircle
 10
-205.5000000000009
 20
322.8000000000003
 30
0.0
 40
5.0
100
AcDbArc
 50
0.0
 51
180.0
  0
LINE
  5
967
330
6F
100
AcDbEntity
  8
DETAIL
  6
Continuous
100
AcDbLine
 10
-200.5000000000009
 20
322.8000000000003
 30
0.0
 11
-200.5000000000009
 21
296.8000000000002
 31
0.0
  0
LINE
  5
968
330
6F
100
AcDbEntity
  8
DETAIL
  6
Continuous
100
AcDbLine
 10
-210.5000000000009
 20
322.8000000000003
 30
0.0
 11
-210.5000000000009
 21
296.8000000000002
 31
0.0
  0
ARC
  5
969
330
6F
100
AcDbEntity
  8
DETAIL
  6
Continuous
100
AcDbCircle
 10
-205.5000000000009
 20
221.8000000000001
 30
0.0
 40
5.0
100
AcDbArc
 50
180.0
 51
0.0
  0
ARC
  5
96A
330
6F
100
AcDbEntity
  8
DETAIL
  6
Continuous
100
AcDbCircle
 10
-205.5000000000009
 20
247.7999999999999
 30
0.0
 40
5.0
100
AcDbArc
 50
0.0
 51
180.0
  0
LINE
  5
96B
330
6F
100
AcDbEntity
  8
DETAIL
  6
Continuous
100
AcDbLine
 10
-200.5000000000009
 20
247.7999999999999
 30
0.0
 11
-200.5000000000009
 21
221.8000000000001
 31
0.0
  0
LINE
  5
96C
330
6F
100
AcDbEntity
  8
DETAIL
  6
Continuous
100
AcDbLine
 10
-210.5000000000009
 20
247.7999999999999
 30
0.0
 11
-210.5000000000009
 21
221.8000000000001
 31
0.0
  0
LINE
  5
96D
330
6F
100
AcDbEntity
  8
BASIS
  6
DASHDOT
100
AcDbLine
 10
0.0
 20
1882.732587156296
 30
0.0
 11
0.0
 21
-49.7176822079437
 31
0.0
  0
LINE
  5
96E
330
6F
100
AcDbEntity
  8
SIZE
  6
Continuous
 62
    30
100
AcDbLine
 10
157.5
 20
784.9999999999995
 30
0.0
 11
157.5
 21
-160.1000000238418
 31
0.0
  0
LINE
  5
96F
330
6F
100
AcDbEntity
  8
SIZE
  6
Continuous
 62
    30
100
AcDbLine
 10
-157.5
 20
784.9999999999995
 30
0.0
 11
-157.5
 21
-160.1000000238418
 31
0.0
  0
LINE
  5
970
330
6F
100
AcDbEntity
  8
SIZE
  6
Continuous
 62
    30
100
AcDbLine
 10
147.5
 20
-147.6000000238419
 30
0.0
 11
-147.5
 21
-147.6000000238419
 31
0.0
  0
CIRCLE
  5
971
330
6F
100
AcDbEntity
  8
SIZE
  6
Continuous
 62
    30
100
AcDbCircle
 10
157.5
 20
-147.6000000238419
 30
0.0
 40
5.0
  0
LINE
  5
972
330
6F
100
AcDbEntity
  8
SIZE
  6
Continuous
 62
    30
100
AcDbLine
 10
157.5
 20
-147.6000000238419
 30
0.0
 11
147.5
 21
-147.6000000238419
 31
0.0
  0
CIRCLE
  5
973
330
6F
100
AcDbEntity
  8
SIZE
  6
Continuous
 62
    30
100
AcDbCircle
 10
-157.5
 20
-147.6000000238419
 30
0.0
 40
5.0
  0
LINE
  5
974
330
6F
100
AcDbEntity
  8
SIZE
  6
Continuous
 62
    30
100
AcDbLine
 10
-157.5
 20
-147.6000000238419
 30
0.0
 11
-147.5
 21
-147.6000000238419
 31
0.0
  0
TEXT
  5
975
330
6F
100
AcDbEntity
  8
SIZE
  6
Continuous
 62
    30
100
AcDbText
 10
-97.49999989509298
 20
-137.6000000238419
 30
0.0
 40
30.0
  1
258~380
 72
     1
 11
0.0000001049070306
 21
-137.6000000238419
 31
0.0
100
AcDbText
  0
LINE
  5
976
330
6F
100
AcDbEntity
  8
SIZE
  6
Continuous
 62
    30
100
AcDbLine
 10
-205.0
 20
-30.00000000000006
 30
0.0
 11
-205.0
 21
-310.1000000238419
 31
0.0
  0
CIRCLE
  5
977
330
6F
100
AcDbEntity
  8
SIZE
  6
Continuous
 62
    30
100
AcDbCircle
 10
-205.0
 20
-297.6000000238418
 30
0.0
 40
5.0
  0
LINE
  5
978
330
6F
100
AcDbEntity
  8
SIZE
  6
Continuous
 62
    30
100
AcDbLine
 10
-205.0
 20
-297.6000000238418
 30
0.0
 11
-215.0
 21
-297.6000000238418
 31
0.0
  0
LINE
  5
979
330
6F
100
AcDbEntity
  8
SIZE
  6
Continuous
 62
    30
100
AcDbLine
 10
205.0
 20
-30.00000000000006
 30
0.0
 11
205.0
 21
-310.1000000238419
 31
0.0
  0
LINE
  5
97A
330
6F
100
AcDbEntity
  8
SIZE
  6
Continuous
 62
    30
100
AcDbLine
 10
-205.0
 20
-30.00000000000006
 30
0.0
 11
-205.0
 21
-310.1000000238419
 31
0.0
  0
LINE
  5
97B
330
6F
100
AcDbEntity
  8
SIZE
  6
Continuous
 62
    30
100
AcDbLine
 10
195.0
 20
-297.6000000238418
 30
0.0
 11
-195.0
 21
-297.6000000238418
 31
0.0
  0
CIRCLE
  5
97C
330
6F
100
AcDbEntity
  8
SIZE
  6
Continuous
 62
    30
100
AcDbCircle
 10
205.0
 20
-297.6000000238418
 30
0.0
 40
5.0
  0
LINE
  5
97D
330
6F
100
AcDbEntity
  8
SIZE
  6
Continuous
 62
    30
100
AcDbLine
 10
205.0
 20
-297.6000000238418
 30
0.0
 11
195.0
 21
-297.6000000238418
 31
0.0
  0
CIRCLE
  5
97E
330
6F
100
AcDbEntity
  8
SIZE
  6
Continuous
 62
    30
100
AcDbCircle
 10
-205.0
 20
-297.6000000238418
 30
0.0
 40
5.0
  0
LINE
  5
97F
330
6F
100
AcDbEntity
  8
SIZE
  6
Continuous
 62
    30
100
AcDbLine
 10
-205.0
 20
-297.6000000238418
 30
0.0
 11
-195.0
 21
-297.6000000238418
 31
0.0
  0
TEXT
  5
980
330
6F
100
AcDbEntity
  8
SIZE
  6
Continuous
 62
    30
100
AcDbText
 10
-32.49999989509297
 20
-287.6000000238418
 30
0.0
 40
30.0
  1
410
 72
     1
 11
0.0000001049070306
 21
-287.6000000238418
 31
0.0
100
AcDbText
  0
LINE
  5
981
330
6F
100
AcDbEntity
  8
SIZE
  6
Continuous
 62
    30
100
AcDbLine
 10
0.0
 20
1892.73254394531
 30
0.0
 11
0.0
 21
2064.899999976158
 31
0.0
  0
TEXT
  5
982
330
6F
100
AcDbEntity
  8
NOTE
  6
Continuous
100
AcDbText
 10
-175.1590728759761
 20
-201.330703553092
 30
0.0
 40
40.0
  1
据付用ボルトピッチ
 50
359.9999974955218
 41
0.84375
  7
STANDARD1
100
AcDbText
  0
LINE
  5
983
330
6F
100
AcDbEntity
  8
NOTE
  6
Continuous
100
AcDbLine
 10
-410.0000000000007
 20
885.0
 30
0.0
 11
-450.0
 21
885.0
 31
0.0
  0
LINE
  5
984
330
6F
100
AcDbEntity
  8
NOTE
  6
Continuous
100
AcDbLine
 10
-430.0000000000007
 20
865.0000000000003
 30
0.0
 11
-430.0000000000007
 21
905.0
 31
0.0
  0
LINE
  5
985
330
6F
100
AcDbEntity
  8
NOTE
  6
Continuous
100
AcDbLine
 10
157.5
 20
835.0
 30
0.0
 11
157.5
 21
795.0
 31
0.0
  0
LINE
  5
986
330
6F
100
AcDbEntity
  8
NOTE
  6
Continuous
100
AcDbLine
 10
137.5
 20
815.0000000000003
 30
0.0
 11
177.5
 21
815.0000000000003
 31
0.0
  0
LINE
  5
987
330
6F
100
AcDbEntity
  8
NOTE
  6
Continuous
100
AcDbLine
 10
880.3689620854711
 20
1080.75793403115
 30
0.0
 11
469.6189315678918
 21
1080.75793403115
 31
0.0
  0
LINE
  5
988
330
6F
100
AcDbEntity
  8
NOTE
  6
Continuous
100
AcDbLine
 10
469.6189315678918
 20
1080.75793403115
 30
0.0
 11
157.5
 21
815.0000000000003
 31
0.0
  0
LINE
  5
989
330
6F
100
AcDbEntity
  8
NOTE
  6
Continuous
100
AcDbLine
 10
157.5
 20
815.0000000000003
 30
0.0
 11
159.3064730842584
 21
815.858286080425
 31
0.0
  0
LINE
  5
98A
330
6F
100
AcDbEntity
  8
NOTE
  6
Continuous
100
AcDbLine
 10
157.5
 20
815.0000000000003
 30
0.0
 11
158.6353085180171
 21
816.6465341080337
 31
0.0
  0
TEXT
  5
98B
330
6F
100
AcDbEntity
  8
NOTE
  6
Continuous
100
AcDbText
 10
481.2003012680666
 20
1128.176121466634
 30
0.0
 40
40.0
  1
4-ワッシャー付六角ボルト
 50
359.9999974955218
 41
0.6740384817123412
  7
STANDARD1
100
AcDbText
  0
LINE
  5
98C
330
6F
100
AcDbEntity
  8
NOTE
  6
Continuous
100
AcDbLine
 10
-137.5
 20
815.0000000000003
 30
0.0
 11
-177.5
 21
815.0000000000003
 31
0.0
  0
LINE
  5
98D
330
6F
100
AcDbEntity
  8
NOTE
  6
Continuous
100
AcDbLine
 10
-157.5
 20
835.0
 30
0.0
 11
-157.5
 21
795.0
 31
0.0
  0
LINE
  5
98E
330
6F
100
AcDbEntity
  8
NOTE
  6
Continuous
100
AcDbLine
 10
-1184.779998047885
 20
697.636576849525
 30
0.0
 11
-668.6595458984373
 21
697.636576849525
 31
0.0
  0
LINE
  5
98F
330
6F
100
AcDbEntity
  8
NOTE
  6
Continuous
100
AcDbLine
 10
-668.6595458984373
 20
697.636576849525
 30
0.0
 11
-430.0000000000007
 21
885.0
 31
0.0
  0
LINE
  5
990
330
6F
100
AcDbEntity
  8
NOTE
  6
Continuous
100
AcDbLine
 10
-430.0000000000007
 20
885.0
 30
0.0
 11
-431.839428432034
 21
884.2148229222489
 31
0.0
  0
LINE
  5
991
330
6F
100
AcDbEntity
  8
NOTE
  6
Continuous
100
AcDbLine
 10
-430.0000000000007
 20
885.0
 30
0.0
 11
-431.2004031884006
 21
883.4003024706913
 31
0.0
  0
TEXT
  5
992
330
6F
100
AcDbEntity
  8
NOTE
  6
Continuous
100
AcDbText
 10
-1182.218354805821
 20
700.6605786560539
 30
0.0
 40
40.0
  1
AH 2-M8以上,推奨M10
 50
359.9999906653327
 41
0.701388907432556
  7
STANDARD1
100
AcDbText
  0
LINE
  5
993
330
6F
100
AcDbEntity
  8
NOTE
  6
Continuous
100
AcDbLine
 10
-185.0
 20
0.0
 30
0.0
 11
-225.0
 21
0.0
 31
0.0
  0
LINE
  5
994
330
6F
100
AcDbEntity
  8
NOTE
  6
Continuous
100
AcDbLine
 10
-205.0
 20
20.0
 30
0.0
 11
-205.0
 21
-20.0
 31
0.0
  0
LINE
  5
995
330
6F
100
AcDbEntity
  8
NOTE
  6
Continuous
100
AcDbLine
 10
735.4813232421884
 20
-150.2823181152344
 30
0.0
 11
300.2312927246094
 21
-150.2823181152344
 31
0.0
  0
LINE
  5
996
330
6F
100
AcDbEntity
  8
NOTE
  6
Continuous
100
AcDbLine
 10
300.2312927246094
 20
-150.2823181152344
 30
0.0
 11
205.0
 21
-0.0000000046475179
 31
0.0
  0
LINE
  5
997
330
6F
100
AcDbEntity
  8
NOTE
  6
Continuous
100
AcDbLine
 10
205.0
 20
-0.0000000046475179
 30
0.0
 11
205.5968065103361
 21
-1.90887977802771
 31
0.0
  0
LINE
  5
998
330
6F
100
AcDbEntity
  8
NOTE
  6
Continuous
100
AcDbLine
 10
205.0
 20
-0.0000000046475179
 30
0.0
 11
206.4712895055241
 21
-1.354735104559379
 31
0.0
  0
TEXT
  5
999
330
6F
100
AcDbEntity
  8
NOTE
  6
Continuous
100
AcDbText
 10
328.2573485817251
 20
-146.0184303140993
 30
0.0
 40
40.0
  1
AH 4-M8以上、推奨M10
 50
359.9999906653327
 41
0.669642877578735
  7
STANDARD1
100
AcDbText
  0
LINE
  5
99A
330
6F
100
AcDbEntity
  8
NOTE
  6
Continuous
100
AcDbLine
 10
205.0
 20
20.0
 30
0.0
 11
205.0
 21
-20.00000000000011
 31
0.0
  0
LINE
  5
99B
330
6F
100
AcDbEntity
  8
NOTE
  6
Continuous
100
AcDbLine
 10
185.0
 20
0.0
 30
0.0
 11
225.0
 21
0.0
 31
0.0
  0
TEXT
  5
99C
330
6F
100
AcDbEntity
  8
NOTE
  6
Continuous
100
AcDbText
 10
-701.1854593379559
 20
898.9948706078292
 30
0.0
 40
40.0
  1
屋根高さ
 50
89.99999499106261
 41
0.84375
  7
STANDARD1
100
AcDbText
  0
TEXT
  5
99D
330
6F
100
AcDbEntity
  8
NOTE
  6
Continuous
100
AcDbText
 10
-95.97900390625
 20
2146.484871542703
 30
0.0
 40
40.0
  1
屋根奥行き
 50
359.9999974955218
 41
0.84375
  7
STANDARD1
100
AcDbText
  0
LINE
  5
99F
330
6F
100
AcDbEntity
  8
NOTE
  6
Continuous
100
AcDbLine
 10
-430.0000000000007
 20
865.2823177920559
 30
0.0
 11
-430.0000000000007
 21
905.2823177920565
 31
0.0
  0
TEXT
  5
9A0
330
6F
100
AcDbEntity
  8
NOTE
  6
Continuous
100
AcDbText
 10
-156.9053865941655
 20
-349.4987926030932
 30
0.0
 40
40.0
  1
アンカーボルトピッチ
 50
359.9999974955218
 41
0.84375
  7
STANDARD1
100
AcDbText
  0
CIRCLE
  5
9A2
330
6F
100
AcDbEntity
  8
FIX
  6
Continuous
100
AcDbCircle
 10
-205.0
 20
0.0
 30
0.0
 40
5.0
  0
CIRCLE
  5
9A3
330
6F
100
AcDbEntity
  8
FIX
  6
Continuous
100
AcDbCircle
 10
157.5
 20
815.0000000000003
 30
0.0
 40
4.0
  0
CIRCLE
  5
9A4
330
6F
100
AcDbEntity
  8
FIX
  6
Continuous
100
AcDbCircle
 10
-157.5
 20
815.0000000000003
 30
0.0
 40
4.0
  0
CIRCLE
  5
9A5
330
6F
100
AcDbEntity
  8
FIX
  6
Continuous
100
AcDbCircle
 10
205.0
 20
0.0
 30
0.0
 40
5.0
  0
CIRCLE
  5
9A6
330
6F
100
AcDbEntity
  8
FIX
  6
Continuous
100
AcDbCircle
 10
-430.0000000000007
 20
885.2823177920569
 30
0.0
 40
5.0
  0
LINE
  5
9A7
330
6F
100
AcDbEntity
  8
SYMBOLLINE
  6
PHANTOMX2
 48
30.0
100
AcDbLine
 10
174.5
 20
823.0
 30
0.0
 11
174.5
 21
815.0000000000003
 31
0.0
  0
LINE
  5
9A8
330
6F
100
AcDbEntity
  8
SYMBOLLINE
  6
PHANTOMX2
 48
30.0
100
AcDbLine
 10
-170.5
 20
823.0
 30
0.0
 11
174.5
 21
823.0
 31
0.0
  0
LINE
  5
9A9
330
6F
100
AcDbEntity
  8
SYMBOLLINE
  6
PHANTOMX2
 48
30.0
100
AcDbLine
 10
-170.5
 20
823.0
 30
0.0
 11
-170.5
 21
815.0000000000003
 31
0.0
  0
LINE
  5
9AA
330
6F
100
AcDbEntity
  8
SYMBOLLINE
  6
PHANTOMX2
 48
30.0
100
AcDbLine
 10
-170.5
 20
815.0000000000003
 30
0.0
 11
174.5
 21
815.0000000000003
 31
0.0
  0
LINE
  5
9AB
330
6F
100
AcDbEntity
  8
SYMBOLLINE
  6
PHANTOMX2
 48
30.0
100
AcDbLine
 10
-135.5358983848617
 20
823.0
 30
0.0
 11
-128.6076951545869
 21
835.0
 31
0.0
  0
LINE
  5
9AC
330
6F
100
AcDbEntity
  8
SYMBOLLINE
  6
PHANTOMX2
 48
30.0
100
AcDbLine
 10
135.5358983848623
 20
823.0
 30
0.0
 11
128.6076951545874
 21
835.0
 31
0.0
  0
LINE
  5
9AD
330
6F
100
AcDbEntity
  8
SYMBOLLINE
  6
PHANTOMX2
 48
30.0
100
AcDbLine
 10
142.5
 20
835.0
 30
0.0
 11
-142.5
 21
835.0
 31
0.0
  0
ARC
  5
9AE
330
6F
100
AcDbEntity
  8
SYMBOLLINE
  6
PHANTOMX2
 48
30.0
100
AcDbCircle
 10
137.5
 20
1448.0
 30
0.0
 40
5.0
100
AcDbArc
 50
0.0
 51
90.0
  0
LINE
  5
9AF
330
6F
100
AcDbEntity
  8
SYMBOLLINE
  6
PHANTOMX2
 48
30.0
100
AcDbLine
 10
142.5
 20
1448.0
 30
0.0
 11
142.5
 21
835.0
 31
0.0
  0
LINE
  5
9B0
330
6F
100
AcDbEntity
  8
SYMBOLLINE
  6
PHANTOMX2
 48
30.0
100
AcDbLine
 10
137.5
 20
1453.0
 30
0.0
 11
-137.5
 21
1453.0
 31
0.0
  0
LINE
  5
9B1
330
6F
100
AcDbEntity
  8
SYMBOLLINE
  6
PHANTOMX2
 48
30.0
100
AcDbLine
 10
-142.5
 20
835.0
 30
0.0
 11
-142.5
 21
1448.0
 31
0.0
  0
ARC
  5
9B2
330
6F
100
AcDbEntity
  8
SYMBOLLINE
  6
PHANTOMX2
 48
30.0
100
AcDbCircle
 10
-137.5
 20
1455.970478814538
 30
0.0
 40
5.0
100
AcDbArc
 50
90.0
 51
180.0
  0
DIMENSION
  5
9B3
330
6F
100
AcDbEntity
  8
SIZE
  6
Continuous
100
AcDbDimension
280
     0
  2
*D1
 10
-227.5000000000001
 20
126.7126152912222
 30
0.0
 11
-0.4999999999992042
 21
126.7126152912222
 31
0.0
 70
   160
 71
     5
 42
455.0000000000001
 73
     0
 74
     0
 75
     0
  3
STANDARD
100
AcDbAlignedDimension
 13
227.5
 23
121.7376781056891
 33
0.0
 14
-227.5000000000001
 24
126.7126152912222
 34
0.0
 50
180.0
100
AcDbRotatedDimension
1001
ACAD
1000
DSTYLE
1002
{
1070
    41
1040
10.0
1070
    42
1040
10.0
1070
    43
1040
8.0
1070
    44
1040
12.5
1070
    73
1070
     0
1070
    74
1070
     0
1070
    77
1070
     3
1070
    78
1070
    12
1070
   140
1040
30.0
1070
   141
1040
2.5
1070
   146
1040
0.7142857313156129
1070
   147
1040
10.0
1070
   171
1070
     4
1070
   172
1070
     1
1070
   173
1070
     1
1070
   271
1070
     4
1070
   272
1070
     4
1070
   274
1070
     2
1070
   279
1070
     0
1070
   284
1070
     0
1070
   285
1070
     0
1070
   286
1070
     0
1070
   340
1005
55
1070
   341
1005
18D
1070
   343
1005
18D
1070
   344
1005
18D
1002
}
  0
DIMENSION
  5
9B4
330
6F
100
AcDbEntity
  8
SIZE
  6
Continuous
100
AcDbDimension
280
     0
  2
*D2
 10
-430.0000000000007
 20
-297.6000000238418
 30
0.0
 11
-317.5000000000004
 21
-272.6000000238418
 31
0.0
 70
    32
  1
115~235
 71
     5
 42
225.0000000000007
 73
     0
 74
     0
 75
     0
  3
STANDARD
100
AcDbAlignedDimension
 13
-205.0
 23
-20.0
 33
0.0
 14
-430.0000000000007
 24
865.2823177920559
 34
0.0
 50
180.0
100
AcDbRotatedDimension
1001
ACAD
1000
DSTYLE
1002
{
1070
    41
1040
10.0
1070
    42
1040
10.0
1070
    43
1040
8.0
1070
    44
1040
12.5
1070
    73
1070
     0
1070
    74
1070
     0
1070
    77
1070
     3
1070
    78
1070
    12
1070
   140
1040
30.0
1070
   141
1040
2.5
1070
   146
1040
0.7142857313156129
1070
   147
1040
10.0
1070
   171
1070
     4
1070
   172
1070
     1
1070
   173
1070
     1
1070
   271
1070
     4
1070
   272
1070
     4
1070
   274
1070
     2
1070
   279
1070
     0
1070
   284
1070
     0
1070
   285
1070
     0
1070
   286
1070
     0
1070
   340
1005
55
1070
   341
1005
18D
1070
   343
1005
18D
1070
   344
1005
18D
1002
}
  0
DIMENSION
  5
9B6
330
6F
100
AcDbEntity
  8
SIZE
  6
Continuous
100
AcDbDimension
280
     0
  2
*D3
 10
594.9985522651574
 20
-0.0000000000001687
 30
0.0
 11
594.9985522651572
 21
477.4999999999997
 31
0.0
 70
   160
 71
     5
 42
960.0000000000003
 73
     0
 74
     0
 75
     0
  3
STANDARD
100
AcDbAlignedDimension
 13
227.5
 23
960.0
 33
0.0
 14
229.8000000000002
 24
-0.0000000000002274
 34
0.0
 50
90.0
100
AcDbRotatedDimension
1001
ACAD
1000
DSTYLE
1002
{
1070
    41
1040
10.0
1070
    42
1040
10.0
1070
    43
1040
8.0
1070
    44
1040
12.5
1070
    73
1070
     0
1070
    74
1070
     0
1070
    77
1070
     3
1070
    78
1070
    12
1070
   140
1040
30.0
1070
   141
1040
2.5
1070
   146
1040
0.7142857313156129
1070
   147
1040
10.0
1070
   171
1070
     4
1070
   172
1070
     1
1070
   173
1070
     1
1070
   271
1070
     4
1070
   272
1070
     4
1070
   274
1070
     2
1070
   279
1070
     0
1070
   284
1070
     0
1070
   285
1070
     0
1070
   286
1070
     0
1070
   340
1005
55
1070
   341
1005
18D
1070
   343
1005
18D
1070
   344
1005
18D
1002
}
  0
DIMENSION
  5
9B7
330
6F
100
AcDbEntity
  8
SIZE
  6
Continuous
100
AcDbDimension
280
     0
  2
*D4
 10
425.0151384853457
 20
-0.000000000000196
 30
0.0
 11
425.0151384853456
 21
407.5
 31
0.0
 70
   160
 71
     5
 42
815.0000000000007
 73
     0
 74
     0
 75
     0
  3
STANDARD
100
AcDbAlignedDimension
 13
187.5
 23
815.0000000000003
 33
0.0
 14
229.8000000000002
 24
-0.0000000000002274
 34
0.0
 50
90.0
100
AcDbRotatedDimension
1001
ACAD
1000
DSTYLE
1002
{
1070
    41
1040
10.0
1070
    42
1040
10.0
1070
    43
1040
8.0
1070
    44
1040
12.5
1070
    73
1070
     0
1070
    74
1070
     0
1070
    77
1070
     3
1070
    78
1070
    12
1070
   140
1040
30.0
1070
   141
1040
2.5
1070
   146
1040
0.7142857313156129
1070
   147
1040
10.0
1070
   171
1070
     4
1070
   172
1070
     1
1070
   173
1070
     1
1070
   271
1070
     4
1070
   272
1070
     4
1070
   274
1070
     2
1070
   279
1070
     0
1070
   284
1070
     0
1070
   285
1070
     0
1070
   286
1070
     0
1070
   340
1005
55
1070
   341
1005
18D
1070
   343
1005
18D
1070
   344
1005
18D
1002
}
  0
CIRCLE
  5
9B8
330
6F
100
AcDbEntity
  8
DETAIL
  6
Continuous
100
AcDbCircle
 10
205.5
 20
780.0
 30
0.0
 40
5.0
  0
CIRCLE
  5
9B9
330
6F
100
AcDbEntity
  8
DETAIL
  6
Continuous
100
AcDbCircle
 10
-205.5000000000009
 20
780.0
 30
0.0
 40
5.0
  0
DIMENSION
  5
9BB
330
6F
100
AcDbEntity
  8
SIZE
  6
Continuous
100
AcDbDimension
280
     0
  2
*D5
 10
-225.0
 20
1256.579977680769
 30
0.0
 11
0.0000000000000015
 21
1281.579977680769
 31
0.0
 70
    32
 71
     5
 42
450.0
 73
     0
 74
     0
 75
     0
  3
STANDARD
100
AcDbAlignedDimension
 13
225.0
 23
1256.579977680769
 33
0.0
 14
-225.0
 24
1256.579977680769
 34
0.0
 50
180.0
100
AcDbRotatedDimension
1001
ACAD
1000
DSTYLE
1002
{
1070
    41
1040
10.0
1070
    42
1040
10.0
1070
    43
1040
8.0
1070
    44
1040
12.5
1070
    73
1070
     0
1070
    74
1070
     0
1070
    77
1070
     3
1070
    78
1070
    12
1070
   140
1040
30.0
1070
   141
1040
2.5
1070
   146
1040
0.7142857313156129
1070
   147
1040
10.0
1070
   171
1070
     4
1070
   172
1070
     1
1070
   173
1070
     1
1070
   271
1070
     4
1070
   272
1070
     4
1070
   274
1070
     2
1070
   279
1070
     0
1070
   284
1070
     0
1070
   285
1070
     0
1070
   286
1070
     0
1070
   340
1005
55
1070
   341
1005
18D
1070
   343
1005
18D
1070
   344
1005
18D
1002
}
  0
CIRCLE
  5
9BC
330
6F
100
AcDbEntity
  8
DETAIL
  6
Continuous
100
AcDbCircle
 10
205.4999999999997
 20
1045.0
 30
0.0
 40
5.0
  0
CIRCLE
  5
9BD
330
6F
100
AcDbEntity
  8
DETAIL
  6
Continuous
100
AcDbCircle
 10
205.4999999999997
 20
1145.0
 30
0.0
 40
5.0
  0
CIRCLE
  5
9BE
330
6F
100
AcDbEntity
  8
DETAIL
  6
Continuous
100
AcDbCircle
 10
205.4999999999997
 20
1225.0
 30
0.0
 40
5.0
  0
CIRCLE
  5
9BF
330
6F
100
AcDbEntity
  8
DETAIL
  6
Continuous
100
AcDbCircle
 10
205.4999999999997
 20
1244.0
 30
0.0
 40
5.0
  0
CIRCLE
  5
9C0
330
6F
100
AcDbEntity
  8
DETAIL
  6
Continuous
100
AcDbCircle
 10
205.4999999999997
 20
1308.0
 30
0.0
 40
5.0
  0
CIRCLE
  5
9C1
330
6F
100
AcDbEntity
  8
DETAIL
  6
Continuous
100
AcDbCircle
 10
205.4999999999997
 20
1454.999999999999
 30
0.0
 40
5.0
  0
CIRCLE
  5
9C2
330
6F
100
AcDbEntity
  8
DETAIL
  6
Continuous
100
AcDbCircle
 10
205.4999999999997
 20
1545.0
 30
0.0
 40
5.0
  0
CIRCLE
  5
9C3
330
6F
100
AcDbEntity
  8
DETAIL
  6
Continuous
100
AcDbCircle
 10
-205.5000000000021
 20
1045.000000000001
 30
0.0
 40
5.0
  0
CIRCLE
  5
9C4
330
6F
100
AcDbEntity
  8
DETAIL
  6
Continuous
100
AcDbCircle
 10
-205.5000000000021
 20
1145.000000000001
 30
0.0
 40
5.0
  0
CIRCLE
  5
9C5
330
6F
100
AcDbEntity
  8
DETAIL
  6
Continuous
100
AcDbCircle
 10
-205.5000000000012
 20
1225.000000000001
 30
0.0
 40
5.0
  0
CIRCLE
  5
9C6
330
6F
100
AcDbEntity
  8
DETAIL
  6
Continuous
100
AcDbCircle
 10
-205.5000000000012
 20
1244.000000000001
 30
0.0
 40
5.0
  0
CIRCLE
  5
9C7
330
6F
100
AcDbEntity
  8
DETAIL
  6
Continuous
100
AcDbCircle
 10
-205.5000000000012
 20
1308.000000000001
 30
0.0
 40
5.0
  0
CIRCLE
  5
9C8
330
6F
100
AcDbEntity
  8
DETAIL
  6
Continuous
100
AcDbCircle
 10
-205.5000000000003
 20
1455.0
 30
0.0
 40
5.0
  0
CIRCLE
  5
9C9
330
6F
100
AcDbEntity
  8
DETAIL
  6
Continuous
100
AcDbCircle
 10
-205.5000000000003
 20
1545.0
 30
0.0
 40
5.0
  0
DIMENSION
  5
9CA
330
6F
100
AcDbEntity
  8
SIZE
  6
Continuous
100
AcDbDimension
280
     0
  2
*D6
 10
425.015138485349
 20
837.9704788145383
 30
0.0
 11
400.0151384853491
 21
1263.470478814538
 31
0.0
 70
    32
 71
     5
 42
850.9999999999996
 73
     0
 74
     0
 75
     0
  3
STANDARD
100
AcDbAlignedDimension
 13
225.0079747563353
 23
1688.970478814537
 33
0.0
 14
225.0
 24
837.9704788145376
 34
0.0
 50
90.0
100
AcDbRotatedDimension
1001
ACAD
1000
DSTYLE
1002
{
1070
    41
1040
10.0
1070
    42
1040
10.0
1070
    43
1040
8.0
1070
    44
1040
12.5
1070
    73
1070
     0
1070
    74
1070
     0
1070
    77
1070
     3
1070
    78
1070
    12
1070
   140
1040
30.0
1070
   141
1040
2.5
1070
   146
1040
0.7142857313156129
1070
   147
1040
10.0
1070
   171
1070
     4
1070
   172
1070
     1
1070
   173
1070
     1
1070
   271
1070
     4
1070
   272
1070
     4
1070
   274
1070
     2
1070
   279
1070
     0
1070
   284
1070
     0
1070
   285
1070
     0
1070
   286
1070
     0
1070
   340
1005
55
1070
   341
1005
18D
1070
   343
1005
18D
1070
   344
1005
18D
1002
}
  0
DIMENSION
  5
9CB
330
6F
100
AcDbEntity
  8
SIZE
  6
Continuous
100
AcDbDimension
280
     0
  2
*D7
 10
-588.1000000238429
 20
839.9704788145378
 30
0.0
 11
-613.1000000238426
 21
1382.470478814538
 31
0.0
 70
    32
 71
     5
 42
1084.999999999999
 73
     0
 74
     0
 75
     0
  3
STANDARD
100
AcDbAlignedDimension
 13
-225.0
 23
1924.970478814537
 33
0.0
 14
-225.0
 24
839.9704788145376
 34
0.0
 50
90.0
100
AcDbRotatedDimension
1001
ACAD
1000
DSTYLE
1002
{
1070
    41
1040
10.0
1070
    42
1040
10.0
1070
    43
1040
8.0
1070
    44
1040
12.5
1070
    73
1070
     0
1070
    74
1070
     0
1070
    77
1070
     3
1070
    78
1070
    12
1070
   140
1040
30.0
1070
   141
1040
2.5
1070
   146
1040
0.7142857313156129
1070
   147
1040
10.0
1070
   171
1070
     4
1070
   172
1070
     1
1070
   173
1070
     1
1070
   271
1070
     4
1070
   272
1070
     4
1070
   274
1070
     2
1070
   279
1070
     0
1070
   284
1070
     0
1070
   285
1070
     0
1070
   286
1070
     0
1070
   340
1005
55
1070
   341
1005
18D
1070
   343
1005
18D
1070
   344
1005
18D
1002
}
  0
LINE
  5
9CD
330
6F
100
AcDbEntity
  8
DETAIL
  6
Continuous
100
AcDbLine
 10
217.9173676354781
 20
1654.829409455185
 30
0.0
 11
224.7656705986374
 21
1656.590303127383
 31
0.0
  0
LINE
  5
9CE
330
6F
100
AcDbEntity
  8
DETAIL
  6
Continuous
100
AcDbLine
 10
239.0104166133329
 20
1680.69605370638
 30
0.0
 11
224.7656705986374
 21
1656.590303127383
 31
0.0
  0
ARC
  5
9CF
330
6F
100
AcDbEntity
  8
DETAIL
  6
Continuous
100
AcDbCircle
 10
209.5822410443143
 20
1670.208800363455
 30
0.0
 40
4.999999999999682
100
AcDbArc
 50
239.4199999999944
 51
59.41999999999438
  0
ARC
  5
9D0
330
6F
100
AcDbEntity
  8
DETAIL
  6
Continuous
100
AcDbCircle
 10
187.1983297923846
 20
1683.436064519959
 30
0.0
 40
4.999999999994376
100
AcDbArc
 50
59.41999999999438
 51
239.4199999999944
  0
LINE
  5
9D1
330
6F
100
AcDbEntity
  8
DETAIL
  6
Continuous
100
AcDbLine
 10
189.7420344378702
 20
1687.74066283764
 30
0.0
 11
212.125945689796
 21
1674.513398681133
 31
0.0
  0
LINE
  5
9D2
330
6F
100
AcDbEntity
  8
DETAIL
  6
Continuous
100
AcDbLine
 10
184.6546251469062
 20
1679.131466202283
 30
0.0
 11
207.0385363988312
 21
1665.904202045777
 31
0.0
  0
LINE
  5
9D3
330
6F
100
AcDbEntity
  8
DETAIL
  6
Continuous
100
AcDbLine
 10
-226.3171787488968
 20
1917.339728868858
 30
0.0
 11
-228.078072421094
 21
1924.18803183202
 31
0.0
  0
LINE
  5
9D4
330
6F
100
AcDbEntity
  8
DETAIL
  6
Continuous
100
AcDbLine
 10
-213.8333264063981
 20
1948.293782411015
 30
0.0
 11
-228.078072421094
 21
1924.18803183202
 31
0.0
  0
LINE
  5
9D5
330
6F
100
AcDbEntity
  8
DETAIL
  6
Continuous
100
AcDbLine
 10
217.9173676356449
 20
1654.829409455231
 30
0.0
 11
-226.3171787488968
 21
1917.339728868858
 31
0.0
  0
LINE
  5
9D6
330
6F
100
AcDbEntity
  8
DETAIL
  6
Continuous
100
AcDbLine
 10
241.139248683724
 20
1680.367307578989
 30
0.0
 11
253.4655043891112
 21
1632.429186836868
 31
0.0
  0
LINE
  5
9D7
330
6F
100
AcDbEntity
  8
DETAIL
  6
Continuous
100
AcDbLine
 10
240.4469722598042
 20
1679.847153762384
 30
0.0
 11
252.6907073547322
 21
1632.229964459819
 31
0.0
  0
LINE
  5
9D8
330
6F
100
AcDbEntity
  8
DETAIL
  6
Continuous
100
AcDbLine
 10
-215.2698820528067
 20
1949.142682355119
 30
0.0
 11
-262.8870713552051
 21
1936.89894726025
 31
0.0
  0
LINE
  5
9D9
330
6F
100
AcDbEntity
  8
DETAIL
  6
Continuous
100
AcDbLine
 10
240.4469722598042
 20
1679.847153762384
 30
0.0
 11
-215.2698820528067
 21
1949.142682355119
 31
0.0
  0
LINE
  5
9DA
330
6F
100
AcDbEntity
  8
DETAIL
  6
Continuous
100
AcDbLine
 10
-215.1481729901298
 20
1950.000000000001
 30
0.0
 11
-263.0862937322548
 21
1937.673744294628
 31
0.0
  0
LINE
  5
9DB
330
6F
100
AcDbEntity
  8
DETAIL
  6
Continuous
100
AcDbLine
 10
241.139248683724
 20
1680.367307578989
 30
0.0
 11
-215.1481729901298
 21
1950.000000000001
 31
0.0
  0
LINE
  5
9DC
330
6F
100
AcDbEntity
  8
DETAIL
  6
Continuous
100
AcDbLine
 10
-262.8870713552051
 20
1936.89894726025
 30
0.0
 11
-263.0862937322548
 21
1937.673744294628
 31
0.0
  0
LINE
  5
9DD
330
6F
100
AcDbEntity
  8
DETAIL
  6
Continuous
100
AcDbLine
 10
253.4655043891112
 20
1632.429186836868
 30
0.0
 11
252.6907073547322
 21
1632.229964459819
 31
0.0
  0
ARC
  5
9DE
330
6F
100
AcDbEntity
  8
DETAIL
  6
Continuous
100
AcDbCircle
 10
-208.8247154338901
 20
1917.456891904179
 30
0.0
 40
4.999999999999682
100
AcDbArc
 50
59.41999999999479
 51
239.4199999999948
  0
ARC
  5
9DF
330
6F
100
AcDbEntity
  8
DETAIL
  6
Continuous
100
AcDbCircle
 10
-186.440804181962
 20
1904.229627747675
 30
0.0
 40
4.999999999994376
100
AcDbArc
 50
239.4199999999948
 51
59.41999999999479
  0
LINE
  5
9E0
330
6F
100
AcDbEntity
  8
DETAIL
  6
Continuous
100
AcDbLine
 10
-183.8970995364789
 20
1908.534226065357
 30
0.0
 11
-206.2810107884088
 21
1921.761490221858
 31
0.0
  0
LINE
  5
9E1
330
6F
100
AcDbEntity
  8
DETAIL
  6
Continuous
100
AcDbLine
 10
-188.9845088274409
 20
1899.92502943
 30
0.0
 11
-211.3684200793709
 21
1913.152293586501
 31
0.0
  0
DIMENSION
  5
9E2
330
6F
100
AcDbEntity
  8
SIZE
  6
Continuous
100
AcDbDimension
280
     0
  2
*D8
 10
-263.0862937322548
 20
2200.128161350201
 30
0.0
 11
-4.810394671571796
 21
2225.128161350201
 31
0.0
 70
    32
  1
520
 71
     5
 42
516.551798121366
 73
     0
 74
     0
 75
     0
  3
STANDARD
100
AcDbAlignedDimension
 13
253.4655043891112
 23
1632.429186836868
 33
0.0
 14
-263.0862937322548
 24
1937.673744294628
 34
0.0
 50
180.0
100
AcDbRotatedDimension
1001
ACAD
1000
DSTYLE
1002
{
1070
    41
1040
10.0
1070
    42
1040
10.0
1070
    43
1040
8.0
1070
    44
1040
12.5
1070
    73
1070
     0
1070
    74
1070
     0
1070
    77
1070
     3
1070
    78
1070
    12
1070
   140
1040
30.0
1070
   141
1040
2.5
1070
   146
1040
0.7142857313156129
1070
   147
1040
10.0
1070
   171
1070
     4
1070
   172
1070
     1
1070
   173
1070
     1
1070
   271
1070
     4
1070
   272
1070
     4
1070
   274
1070
     2
1070
   279
1070
     0
1070
   284
1070
     0
1070
   285
1070
     0
1070
   286
1070
     0
1070
   340
1005
55
1070
   341
1005
18D
1070
   343
1005
18D
1070
   344
1005
18D
1002
}
  0
DIMENSION
  5
9E3
330
6F
100
AcDbEntity
  8
SIZE
  6
Continuous
100
AcDbDimension
280
     0
  2
*D9
 10
0.0000000000000388
 20
2060.74071164516
 30
0.0
 11
-131.5431468661268
 21
2060.74071164516
 31
0.0
 70
   160
  1
265
 71
     5
 42
263.0862937322548
 73
     0
 74
     0
 75
     0
  3
STANDARD
100
AcDbAlignedDimension
 13
-263.0862937322548
 23
1937.673744294628
 33
0.0
 14
0.0000000000000284
 24
1890.703065970834
 34
0.0
 50
180.0
100
AcDbRotatedDimension
1001
ACAD
1000
DSTYLE
1002
{
1070
    41
1040
10.0
1070
    42
1040
10.0
1070
    43
1040
8.0
1070
    44
1040
12.5
1070
    73
1070
     0
1070
    74
1070
     0
1070
    77
1070
     3
1070
    78
1070
    12
1070
   140
1040
30.0
1070
   141
1040
2.5
1070
   146
1040
0.7142857313156129
1070
   147
1040
10.0
1070
   171
1070
     4
1070
   172
1070
     1
1070
   173
1070
     1
1070
   271
1070
     4
1070
   272
1070
     4
1070
   274
1070
     2
1070
   279
1070
     0
1070
   284
1070
     0
1070
   285
1070
     0
1070
   286
1070
     0
1070
   340
1005
55
1070
   341
1005
18D
1070
   343
1005
18D
1070
   344
1005
18D
1002
}
  0
TEXT
  5
9E4
330
6F
100
AcDbEntity
  8
NOTE
  6
Continuous
100
AcDbText
 10
483.2399948336715
 20
1083.47594243243
 30
0.0
 40
40.0
  1
M8x25
 50
359.9999974955218
 41
0.6740384817123412
  7
STANDARD1
100
AcDbText
  0
CIRCLE
  5
9E7
330
6F
100
AcDbEntity
  8
DETAIL
  6
Continuous
100
AcDbCircle
 10
-205.5000000000009
 20
730.0
 30
0.0
 40
5.0
  0
CIRCLE
  5
9E8
330
6F
100
AcDbEntity
  8
DETAIL
  6
Continuous
100
AcDbCircle
 10
205.5000000000009
 20
234.8000000000001
 30
0.0
 40
5.0
  0
CIRCLE
  5
9E9
330
6F
100
AcDbEntity
  8
DETAIL
  6
Continuous
100
AcDbCircle
 10
-205.5
 20
234.8000000000001
 30
0.0
 40
5.0
  0
CIRCLE
  5
9EA
330
6F
100
AcDbEntity
  8
DETAIL
  6
Continuous
100
AcDbCircle
 10
205.5
 20
729.9999999999995
 30
0.0
 40
5.0
  0
DIMENSION
  5
C69
330
6F
100
AcDbEntity
  8
SIZE
  6
Continuous
100
AcDbDimension
280
     0
  2
*D10
 10
-749.8168473685116
 20
1950.000000000001
 30
0.0
 11
-749.8168473685109
 21
975.0
 31
0.0
 70
   160
 71
     5
 42
1950.000000000001
 73
     0
 74
     0
 75
     0
  3
STANDARD
100
AcDbAlignedDimension
 13
-229.8000000000006
 23
-0.0000000000001137
 33
0.0
 14
-215.6481729901308
 24
1950.0
 34
0.0
 50
90.0
100
AcDbRotatedDimension
1001
ACAD
1000
DSTYLE
1002
{
1070
    41
1040
10.0
1070
    42
1040
10.0
1070
    43
1040
8.0
1070
    44
1040
12.5
1070
    73
1070
     0
1070
    74
1070
     0
1070
    77
1070
     3
1070
    78
1070
    12
1070
   140
1040
30.0
1070
   141
1040
2.5
1070
   146
1040
0.7142857313156129
1070
   147
1040
10.0
1070
   171
1070
     4
1070
   172
1070
     1
1070
   173
1070
     1
1070
   271
1070
     4
1070
   272
1070
     4
1070
   274
1070
     2
1070
   279
1070
     0
1070
   284
1070
     0
1070
   285
1070
     0
1070
   286
1070
     0
1070
   340
1005
55
1070
   341
1005
18D
1070
   343
1005
18D
1070
   344
1005
18D
1002
}
  0
DIMENSION
  5
D79
330
6F
100
AcDbEntity
  8
SIZE
  6
Continuous
100
AcDbDimension
280
     0
  2
*D11
 10
-588.1000000238429
 20
839.9704788145378
 30
0.0
 11
-613.1000000238424
 21
419.9852394072689
 31
0.0
 70
    32
 71
     5
 42
839.9704788145378
 73
     0
 74
     0
 75
     0
  3
STANDARD
100
AcDbAlignedDimension
 13
-229.8000000000006
 23
-0.0000000000001137
 33
0.0
 14
-225.0
 24
839.9704788145376
 34
0.0
 50
90.0
100
AcDbRotatedDimension
1001
ACAD
1000
DSTYLE
1002
{
1070
    41
1040
10.0
1070
    42
1040
10.0
1070
    43
1040
8.0
1070
    44
1040
12.5
1070
    73
1070
     0
1070
    74
1070
     0
1070
    77
1070
     3
1070
    78
1070
    12
1070
   140
1040
30.0
1070
   141
1040
2.5
1070
   146
1040
0.7142857313156129
1070
   147
1040
10.0
1070
   171
1070
     4
1070
   172
1070
     1
1070
   173
1070
     1
1070
   271
1070
     1
1070
   272
1070
     1
1070
   279
1070
     0
1070
   284
1070
     0
1070
   285
1070
     0
1070
   286
1070
     0
1070
   340
1005
55
1070
   341
1005
18D
1070
   343
1005
18D
1070
   344
1005
18D
1002
}
  0
ENDSEC
  0
SECTION
  2
OBJECTS
  0
DICTIONARY
  5
C
330
0
100
AcDbDictionary
281
     1
  3
ACAD_CIP_PREVIOUS_PRODUCT_INFO
350
549
  3
ACAD_COLOR
350
62
  3
ACAD_DETAILVIEWSTYLE
350
69
  3
ACAD_GROUP
350
D
  3
ACAD_LAYOUT
350
61
  3
ACAD_MATERIAL
350
10
  3
ACAD_MLEADERSTYLE
350
65
  3
ACAD_MLINESTYLE
350
5E
  3
ACAD_PLOTSETTINGS
350
60
  3
ACAD_PLOTSTYLENAME
350
E
  3
ACAD_SCALELIST
350
42
  3
ACAD_SECTIONVIEWSTYLE
350
67
  3
ACAD_TABLESTYLE
350
63
  3
ACAD_VISUALSTYLE
350
29
  3
ACDB_RECOMPOSE_DATA
350
1178
  3
AcDbVariableDictionary
350
56E
  3
AcDsDecomposeData
350
117E
  0
DICTIONARY
  5
6B9
330
2
100
AcDbDictionary
280
     1
281
     1
  3
ACAD_LAYERSTATES
360
6BA
  0
DICTIONARY
  5
556
330
54
100
AcDbDictionary
280
     1
281
     1
  3
ADSK_XREC_LAYER_RECONCILED
360
557
  0
DICTIONARY
  5
558
330
78
100
AcDbDictionary
280
     1
281
     1
  3
ADSK_XREC_LAYER_RECONCILED
360
559
  0
DICTIONARY
  5
55A
330
79
100
AcDbDictionary
280
     1
281
     1
  3
ADSK_XREC_LAYER_RECONCILED
360
55B
  0
DICTIONARY
  5
55C
330
7A
100
AcDbDictionary
280
     1
281
     1
  3
ADSK_XREC_LAYER_RECONCILED
360
55D
  0
DICTIONARY
  5
55E
330
7B
100
AcDbDictionary
280
     1
281
     1
  3
ADSK_XREC_LAYER_RECONCILED
360
55F
  0
DICTIONARY
  5
560
330
7C
100
AcDbDictionary
280
     1
281
     1
  3
ADSK_XREC_LAYER_RECONCILED
360
561
  0
DICTIONARY
  5
562
330
7D
100
AcDbDictionary
280
     1
281
     1
  3
ADSK_XREC_LAYER_RECONCILED
360
563
  0
DICTIONARY
  5
564
330
7E
100
AcDbDictionary
280
     1
281
     1
  3
ADSK_XREC_LAYER_RECONCILED
360
565
  0
DICTIONARY
  5
566
330
7F
100
AcDbDictionary
280
     1
281
     1
  3
ADSK_XREC_LAYER_RECONCILED
360
567
  0
DICTIONARY
  5
568
330
80
100
AcDbDictionary
280
     1
281
     1
  3
ADSK_XREC_LAYER_RECONCILED
360
569
  0
DICTIONARY
  5
56A
330
81
100
AcDbDictionary
280
     1
281
     1
  3
ADSK_XREC_LAYER_RECONCILED
360
56B
  0
XRECORD
  5
549
102
{ACAD_REACTORS
330
C
102
}
330
C
100
AcDbXrecord
280
     1
300
ACDLT
300
2018
300
86831ACDLT_2018_0F
  0
DICTIONARY
  5
62
102
{ACAD_REACTORS
330
C
102
}
330
C
100
AcDbDictionary
281
     1
  0
DICTIONARY
  5
69
102
{ACAD_REACTORS
330
C
102
}
330
C
100
AcDbDictionary
281
     1
  3
Imperial24
350
6A
  0
DICTIONARY
  5
D
102
{ACAD_REACTORS
330
C
102
}
330
C
100
AcDbDictionary
281
     1
  0
DICTIONARY
  5
61
102
{ACAD_REACTORS
330
C
102
}
330
C
100
AcDbDictionary
281
     1
  3
Model
350
72
  3
レイアウト1
350
6E
  0
DICTIONARY
  5
10
102
{ACAD_REACTORS
330
C
102
}
330
C
100
AcDbDictionary
281
     1
  3
ByBlock
350
19
  3
ByLayer
350
11
  3
Global
350
21
  0
DICTIONARY
  5
65
102
{ACAD_REACTORS
330
C
102
}
330
C
100
AcDbDictionary
281
     1
  3
Standard
350
66
  0
DICTIONARY
  5
5E
102
{ACAD_REACTORS
330
C
102
}
330
C
100
AcDbDictionary
281
     1
  3
Standard
350
5F
  0
DICTIONARY
  5
60
102
{ACAD_REACTORS
330
C
102
}
330
C
100
AcDbDictionary
281
     1
  0
ACDBDICTIONARYWDFLT
  5
E
102
{ACAD_REACTORS
330
C
102
}
330
C
100
AcDbDictionary
281
     1
  3
Normal
350
F
100
AcDbDictionaryWithDefault
340
F
  0
DICTIONARY
  5
42
102
{ACAD_REACTORS
330
C
102
}
330
C
100
AcDbDictionary
281
     1
  3
A0
350
43
  3
A1
350
44
  3
A2
350
45
  3
A3
350
46
  3
A4
350
47
  3
A5
350
48
  3
A6
350
49
  3
A7
350
4A
  3
A8
350
4B
  3
A9
350
4C
  3
B0
350
4D
  3
B1
350
4E
  3
B2
350
4F
  3
B3
350
50
  3
B4
350
51
  3
B5
350
52
  3
B6
350
53
  0
DICTIONARY
  5
67
102
{ACAD_REACTORS
330
C
102
}
330
C
100
AcDbDictionary
281
     1
  3
Imperial24
350
68
  0
DICTIONARY
  5
63
102
{ACAD_REACTORS
330
C
102
}
330
C
100
AcDbDictionary
281
     1
  3
Standard
350
64
  0
DICTIONARY
  5
29
102
{ACAD_REACTORS
330
C
102
}
330
C
100
AcDbDictionary
281
     1
  3
2dWireframe
350
2F
  3
Basic
350
2E
  3
Brighten
350
35
  3
ColorChange
350
39
  3
Conceptual
350
32
  3
Dim
350
34
  3
EdgeColorOff
350
41
  3
Facepattern
350
38
  3
Flat
350
2A
  3
FlatWithEdges
350
2B
  3
Gouraud
350
2C
  3
GouraudWithEdges
350
2D
  3
Hidden
350
31
  3
JitterOff
350
3F
  3
Linepattern
350
37
  3
OverhangOff
350
40
  3
Realistic
350
33
  3
Shaded
350
3E
  3
Shaded with edges
350
3D
  3
Shades of Gray
350
3A
  3
Sketchy
350
3B
  3
Thicken
350
36
  3
Wireframe
350
30
  3
X-Ray
350
3C
  0
XRECORD
  5
1178
102
{ACAD_REACTORS
330
C
102
}
330
C
100
AcDbXrecord
280
     1
 90
        1
330
64
  0
DICTIONARY
  5
56E
102
{ACAD_REACTORS
330
C
102
}
330
C
100
AcDbDictionary
281
     1
  3
CANNOSCALE
350
574
  3
CMLEADERSTYLE
350
570
  3
CTABLESTYLE
350
56F
  3
CVIEWDETAILSTYLE
350
571
  3
CVIEWSECTIONSTYLE
350
572
  3
LAYEREVAL
350
576
  3
LAYERNOTIFY
350
577
  3
LIGHTINGUNITS
350
575
  3
MSLTSCALE
350
573
  0
DICTIONARY
  5
117E
102
{ACAD_REACTORS
330
C
102
}
330
C
100
AcDbDictionary
281
     1
  3
AcDsRecords
350
1180
  3
AcDsSchemas
350
117F
1001
ACAD
1070
     2
  0
DICTIONARY
  5
6BA
102
{ACAD_REACTORS
330
6B9
102
}
330
6B9
100
AcDbDictionary
281
     1
  0
XRECORD
  5
557
102
{ACAD_REACTORS
330
556
102
}
330
556
100
AcDbXrecord
280
     1
290
     1
  0
XRECORD
  5
559
102
{ACAD_REACTORS
330
558
102
}
330
558
100
AcDbXrecord
280
     1
290
     1
  0
XRECORD
  5
55B
102
{ACAD_REACTORS
330
55A
102
}
330
55A
100
AcDbXrecord
280
     1
290
     1
  0
XRECORD
  5
55D
102
{ACAD_REACTORS
330
55C
102
}
330
55C
100
AcDbXrecord
280
     1
290
     1
  0
XRECORD
  5
55F
102
{ACAD_REACTORS
330
55E
102
}
330
55E
100
AcDbXrecord
280
     1
290
     1
  0
XRECORD
  5
561
102
{ACAD_REACTORS
330
560
102
}
330
560
100
AcDbXrecord
280
     1
290
     1
  0
XRECORD
  5
563
102
{ACAD_REACTORS
330
562
102
}
330
562
100
AcDbXrecord
280
     1
290
     1
  0
XRECORD
  5
565
102
{ACAD_REACTORS
330
564
102
}
330
564
100
AcDbXrecord
280
     1
290
     1
  0
XRECORD
  5
567
102
{ACAD_REACTORS
330
566
102
}
330
566
100
AcDbXrecord
280
     1
290
     1
  0
XRECORD
  5
569
102
{ACAD_REACTORS
330
568
102
}
330
568
100
AcDbXrecord
280
     1
290
     1
  0
XRECORD
  5
56B
102
{ACAD_REACTORS
330
56A
102
}
330
56A
100
AcDbXrecord
280
     1
290
     1
  0
ACDBDETAILVIEWSTYLE
  5
6A
102
{ACAD_XDICTIONARY
360
1183
102
}
102
{ACAD_REACTORS
330
69
102
}
330
69
100
AcDbModelDocViewStyle
 70
     0
  3
Imperial24
290
     0
100
AcDbDetailViewStyle
 70
     0
 71
     0
 90
        3
 71
     1
340
55
 62
   256
 40
0.24
340
0
 62
   256
 40
0.24
300

 40
0.36
280
     3
 71
     2
340
5C
 90
       25
 62
   256
 71
     3
340
55
 62
   256
 40
0.24
 90
        1
 40
0.75
 90
        1
300
%<\AcVar ViewType \f "%tc1">% %<\AcVar ViewDetailId>%\PSCALE %<\AcVar ViewScale \f "%sn">%
 71
     4
340
5C
 90
       25
 62
   256
340
5C
 90
       25
 62
   256
280
     0
  0
LAYOUT
  5
72
102
{ACAD_REACTORS
330
61
102
}
330
61
100
AcDbPlotSettings
  1

  2
EPSON LP-S3200複合棟
  4
A4
  6

 40
5.873749732971191
 41
5.873748779296875
 42
5.873733520507812
 43
5.873748779296875
 44
209.9733276367186
 45
297.0106506347656
 46
0.0
 47
0.0
 48
-1184.187043501624
 49
-712.1043319568124
140
1041.542205350788
141
2835.21438153292
142
1.0
143
315.8553579423554
 70
 11952
 72
     0
 73
     0
 74
     4
  7
monochrome.ctb
 75
     0
147
0.0031660061317766
 76
     0
 77
     2
 78
   300
148
30078.35090494126
149
18087.45003170303
100
AcDbLayout
  1
Model
 70
     1
 71
     0
 10
0.0
 20
0.0
 11
12.0
 21
9.0
 12
0.0
 22
0.0
 32
0.0
 14
0.0
 24
0.0
 34
0.0
 15
0.0
 25
0.0
 35
0.0
146
0.0
 13
0.0
 23
0.0
 33
0.0
 16
1.0
 26
0.0
 36
0.0
 17
0.0
 27
1.0
 37
0.0
 76
     0
330
6F
331
89
1001
ACAD_PSEXT
1000
EPSON LP-S3200複合棟
1000
EPSON LP-S3200
1000
10.70.14.11
1000

1070
     0
  0
LAYOUT
  5
6E
102
{ACAD_REACTORS
330
61
102
}
330
61
100
AcDbPlotSettings
  1

  2
EPSON LP-S3200複合棟
  4

  6

 40
0.0
 41
0.0
 42
0.0
 43
0.0
 44
0.0
 45
0.0
 46
0.0
 47
0.0
 48
0.0
 49
0.0
140
0.0
141
0.0
142
1.0
143
1.0
 70
   688
 72
     0
 73
     0
 74
     5
  7
monochrome.ctb
 75
    16
147
1.0
 76
     0
 77
     2
 78
   300
148
0.0
149
0.0
100
AcDbLayout
  1
レイアウト1
 70
     1
 71
     1
 10
0.0
 20
0.0
 11
12.0
 21
9.0
 12
0.0
 22
0.0
 32
0.0
 14
1.000000000000000E+20
 24
1.000000000000000E+20
 34
1.000000000000000E+20
 15
-1.000000000000000E+20
 25
-1.000000000000000E+20
 35
-1.000000000000000E+20
146
0.0
 13
0.0
 23
0.0
 33
0.0
 16
1.0
 26
0.0
 36
0.0
 17
0.0
 27
1.0
 37
0.0
 76
     0
330
6B
  0
MATERIAL
  5
19
102
{ACAD_XDICTIONARY
360
1A
102
}
102
{ACAD_REACTORS
330
10
102
}
330
10
100
AcDbMaterial
  1
ByBlock
 72
     0
 43
0.0208333333333333
 43
0.0
 43
0.0
 43
0.0
 43
0.0
 43
0.0208333333333333
 43
0.0
 43
0.0
 43
0.0
 43
0.0
 43
1.0
 43
0.0
 43
0.0
 43
0.0
 43
0.0
 43
1.0
 77
     0
 47
0.0208333333333333
 47
0.0
 47
0.0
 47
0.0
 47
0.0
 47
0.0208333333333333
 47
0.0
 47
0.0
 47
0.0
 47
0.0
 47
1.0
 47
0.0
 47
0.0
 47
0.0
 47
0.0
 47
1.0
171
     0
 49
0.0208333333333333
 49
0.0
 49
0.0
 49
0.0
 49
0.0
 49
0.0208333333333333
 49
0.0
 49
0.0
 49
0.0
 49
0.0
 49
1.0
 49
0.0
 49
0.0
 49
0.0
 49
0.0
 49
1.0
175
     0
142
0.0208333333333333
142
0.0
142
0.0
142
0.0
142
0.0
142
0.0208333333333333
142
0.0
142
0.0
142
0.0
142
0.0
142
1.0
142
0.0
142
0.0
142
0.0
142
0.0
142
1.0
179
     0
144
0.0208333333333333
144
0.0
144
0.0
144
0.0
144
0.0
144
0.0208333333333333
144
0.0
144
0.0
144
0.0
144
0.0
144
1.0
144
0.0
144
0.0
144
0.0
144
0.0
144
1.0
147
0.0208333333333333
147
0.0
147
0.0
147
0.0
147
0.0
147
0.0208333333333333
147
0.0
147
0.0
147
0.0
147
0.0
147
1.0
147
0.0
147
0.0
147
0.0
147
0.0
147
1.0
  0
MATERIAL
  5
11
102
{ACAD_XDICTIONARY
360
12
102
}
102
{ACAD_REACTORS
330
10
102
}
330
10
100
AcDbMaterial
  1
ByLayer
 72
     0
 43
0.0208333333333333
 43
0.0
 43
0.0
 43
0.0
 43
0.0
 43
0.0208333333333333
 43
0.0
 43
0.0
 43
0.0
 43
0.0
 43
1.0
 43
0.0
 43
0.0
 43
0.0
 43
0.0
 43
1.0
 77
     0
 47
0.0208333333333333
 47
0.0
 47
0.0
 47
0.0
 47
0.0
 47
0.0208333333333333
 47
0.0
 47
0.0
 47
0.0
 47
0.0
 47
1.0
 47
0.0
 47
0.0
 47
0.0
 47
0.0
 47
1.0
171
     0
 49
0.0208333333333333
 49
0.0
 49
0.0
 49
0.0
 49
0.0
 49
0.0208333333333333
 49
0.0
 49
0.0
 49
0.0
 49
0.0
 49
1.0
 49
0.0
 49
0.0
 49
0.0
 49
0.0
 49
1.0
175
     0
142
0.0208333333333333
142
0.0
142
0.0
142
0.0
142
0.0
142
0.0208333333333333
142
0.0
142
0.0
142
0.0
142
0.0
142
1.0
142
0.0
142
0.0
142
0.0
142
0.0
142
1.0
179
     0
144
0.0208333333333333
144
0.0
144
0.0
144
0.0
144
0.0
144
0.0208333333333333
144
0.0
144
0.0
144
0.0
144
0.0
144
1.0
144
0.0
144
0.0
144
0.0
144
0.0
144
1.0
147
0.0208333333333333
147
0.0
147
0.0
147
0.0
147
0.0
147
0.0208333333333333
147
0.0
147
0.0
147
0.0
147
0.0
147
1.0
147
0.0
147
0.0
147
0.0
147
0.0
147
1.0
  0
MATERIAL
  5
21
102
{ACAD_XDICTIONARY
360
22
102
}
102
{ACAD_REACTORS
330
10
102
}
330
10
100
AcDbMaterial
  1
Global
 72
     0
 43
0.0208333333333333
 43
0.0
 43
0.0
 43
0.0
 43
0.0
 43
0.0208333333333333
 43
0.0
 43
0.0
 43
0.0
 43
0.0
 43
1.0
 43
0.0
 43
0.0
 43
0.0
 43
0.0
 43
1.0
 77
     0
 47
0.0208333333333333
 47
0.0
 47
0.0
 47
0.0
 47
0.0
 47
0.0208333333333333
 47
0.0
 47
0.0
 47
0.0
 47
0.0
 47
1.0
 47
0.0
 47
0.0
 47
0.0
 47
0.0
 47
1.0
171
     0
 49
0.0208333333333333
 49
0.0
 49
0.0
 49
0.0
 49
0.0
 49
0.0208333333333333
 49
0.0
 49
0.0
 49
0.0
 49
0.0
 49
1.0
 49
0.0
 49
0.0
 49
0.0
 49
0.0
 49
1.0
175
     0
142
0.0208333333333333
142
0.0
142
0.0
142
0.0
142
0.0
142
0.0208333333333333
142
0.0
142
0.0
142
0.0
142
0.0
142
1.0
142
0.0
142
0.0
142
0.0
142
0.0
142
1.0
179
     0
144
0.0208333333333333
144
0.0
144
0.0
144
0.0
144
0.0
144
0.0208333333333333
144
0.0
144
0.0
144
0.0
144
0.0
144
1.0
144
0.0
144
0.0
144
0.0
144
0.0
144
1.0
147
0.0208333333333333
147
0.0
147
0.0
147
0.0
147
0.0
147
0.0208333333333333
147
0.0
147
0.0
147
0.0
147
0.0
147
1.0
147
0.0
147
0.0
147
0.0
147
0.0
147
1.0
  0
MLEADERSTYLE
  5
66
102
{ACAD_REACTORS
330
65
102
}
330
65
100
AcDbMLeaderStyle
179
     2
170
     2
171
     1
172
     0
 90
        2
 40
0.0
 41
0.0
173
     1
 91
-1056964608
340
5A
 92
       -2
290
     1
 42
0.09
291
     1
 43
0.36
  3
Standard
 44
0.18
300

342
55
174
     1
178
     6
175
     1
176
     0
 93
-1056964608
 45
0.18
292
     0
297
     0
 46
0.18
 94
-1056964608
 47
1.0
 49
1.0
140
1.0
293
     1
141
0.0
294
     1
177
     0
142
1.0
295
     0
296
     0
143
0.125
271
     0
272
     9
273
     9
298
     0
1001
ACAD_MLEADERVER
1070
     2
  0
MLINESTYLE
  5
5F
102
{ACAD_REACTORS
330
5E
102
}
330
5E
100
AcDbMlineStyle
  2
STANDARD
 70
     0
  3

 62
   256
 51
90.0
 52
90.0
 71
     2
 49
0.5
 62
   256
  6
BYLAYER
 49
-0.5
 62
   256
  6
BYLAYER
  0
ACDBPLACEHOLDER
  5
F
102
{ACAD_REACTORS
330
E
102
}
330
E
  0
SCALE
  5
43
102
{ACAD_REACTORS
330
42
102
}
330
42
100
AcDbScale
 70
     0
300
1:1
140
1.0
141
1.0
290
     1
  0
SCALE
  5
44
102
{ACAD_REACTORS
330
42
102
}
330
42
100
AcDbScale
 70
     0
300
1/128" = 1'-0"
140
0.0078125
141
12.0
290
     0
  0
SCALE
  5
45
102
{ACAD_REACTORS
330
42
102
}
330
42
100
AcDbScale
 70
     0
300
1/64" = 1'-0"
140
0.015625
141
12.0
290
     0
  0
SCALE
  5
46
102
{ACAD_REACTORS
330
42
102
}
330
42
100
AcDbScale
 70
     0
300
1/32" = 1'-0"
140
0.03125
141
12.0
290
     0
  0
SCALE
  5
47
102
{ACAD_REACTORS
330
42
102
}
330
42
100
AcDbScale
 70
     0
300
1/16" = 1'-0"
140
0.0625
141
12.0
290
     0
  0
SCALE
  5
48
102
{ACAD_REACTORS
330
42
102
}
330
42
100
AcDbScale
 70
     0
300
3/32" = 1'-0"
140
0.09375
141
12.0
290
     0
  0
SCALE
  5
49
102
{ACAD_REACTORS
330
42
102
}
330
42
100
AcDbScale
 70
     0
300
1/8" = 1'-0"
140
0.125
141
12.0
290
     0
  0
SCALE
  5
4A
102
{ACAD_REACTORS
330
42
102
}
330
42
100
AcDbScale
 70
     0
300
3/16" = 1'-0"
140
0.1875
141
12.0
290
     0
  0
SCALE
  5
4B
102
{ACAD_REACTORS
330
42
102
}
330
42
100
AcDbScale
 70
     0
300
1/4" = 1'-0"
140
0.25
141
12.0
290
     0
  0
SCALE
  5
4C
102
{ACAD_REACTORS
330
42
102
}
330
42
100
AcDbScale
 70
     0
300
3/8" = 1'-0"
140
0.375
141
12.0
290
     0
  0
SCALE
  5
4D
102
{ACAD_REACTORS
330
42
102
}
330
42
100
AcDbScale
 70
     0
300
1/2" = 1'-0"
140
0.5
141
12.0
290
     0
  0
SCALE
  5
4E
102
{ACAD_REACTORS
330
42
102
}
330
42
100
AcDbScale
 70
     0
300
3/4" = 1'-0"
140
0.75
141
12.0
290
     0
  0
SCALE
  5
4F
102
{ACAD_REACTORS
330
42
102
}
330
42
100
AcDbScale
 70
     0
300
1" = 1'-0"
140
1.0
141
12.0
290
     0
  0
SCALE
  5
50
102
{ACAD_REACTORS
330
42
102
}
330
42
100
AcDbScale
 70
     0
300
1-1/2" = 1'-0"
140
1.5
141
12.0
290
     0
  0
SCALE
  5
51
102
{ACAD_REACTORS
330
42
102
}
330
42
100
AcDbScale
 70
     0
300
3" = 1'-0"
140
3.0
141
12.0
290
     0
  0
SCALE
  5
52
102
{ACAD_REACTORS
330
42
102
}
330
42
100
AcDbScale
 70
     0
300
6" = 1'-0"
140
6.0
141
12.0
290
     0
  0
SCALE
  5
53
102
{ACAD_REACTORS
330
42
102
}
330
42
100
AcDbScale
 70
     0
300
1'-0" = 1'-0"
140
12.0
141
12.0
290
     0
  0
ACDBSECTIONVIEWSTYLE
  5
68
102
{ACAD_XDICTIONARY
360
1181
102
}
102
{ACAD_REACTORS
330
67
102
}
330
67
100
AcDbModelDocViewStyle
 70
     0
  3
Imperial24
290
     0
100
AcDbSectionViewStyle
 70
     0
 71
     0
 90
       78
 71
     1
340
55
 62
   256
 40
0.24
340
0
340
0
 62
   256
 40
0.24
300
I, O, Q, S, X, Z
 40
0.48
 90
        3
 40
0.18
 90
        1
 71
     2
340
5C
 90
       25
 62
   256
340
5C
 90
       50
 62
   256
 40
0.24
 40
0.0
 40
0.24
 71
     3
340
55
 62
   256
 40
0.24
 90
        1
 40
0.75
 90
        1
300
%<\AcVar ViewType \f "%tc1">% %<\AcVar ViewSectionStartId>%-%<\AcVar ViewSectionEndId>%\PSCALE %<\AcVar ViewScale \f "%sn">%
 71
     4
 62
   256
 62
   257
300
ANSI31
 40
1.0
 90
        0
290
     0
290
     0
 90
        6
 40
0.0
 40
1.570796326794896
 40
0.2617993877991494
 40
1.308996938995747
 40
-0.2617993877991494
 40
1.832595714594044
  0
TABLESTYLE
  5
64
102
{ACAD_XDICTIONARY
360
579
102
}
102
{ACAD_REACTORS
330
63
102
}
330
63
100
AcDbTableStyle
280
     0
  3
Standard
 70
     0
 71
     0
 40
0.06
 41
0.06
280
     0
281
     0
  7
STANDARD
140
0.18
170
     2
 62
     0
 63
     7
283
     0
 90
      512
 91
        0
  1

274
    -2
284
     1
 64
     0
275
    -2
285
     1
 65
     0
276
    -2
286
     1
 66
     0
277
    -2
287
     1
 67
     0
278
    -2
288
     1
 68
     0
279
    -2
289
     1
 69
     0
  7
STANDARD
140
0.25
170
     5
 62
     0
 63
     7
283
     0
 90
      512
 91
        0
  1

274
    -2
284
     1
 64
     0
275
    -2
285
     1
 65
     0
276
    -2
286
     1
 66
     0
277
    -2
287
     1
 67
     0
278
    -2
288
     1
 68
     0
279
    -2
289
     1
 69
     0
  7
STANDARD
140
0.18
170
     5
 62
     0
 63
     7
283
     0
 90
      512
 91
        0
  1

274
    -2
284
     1
 64
     0
275
    -2
285
     1
 65
     0
276
    -2
286
     1
 66
     0
277
    -2
287
     1
 67
     0
278
    -2
288
     1
 68
     0
279
    -2
289
     1
 69
     0
  0
VISUALSTYLE
  5
2F
102
{ACAD_REACTORS
330
29
102
}
330
29
100
AcDbVisualStyle
  2

 70
     4
177
     3
291
     0
 70
    58
 90
        0
176
     1
 90
        2
176
     1
 90
        0
176
     1
 90
        0
176
     1
 40
0.6
176
     1
 40
30.0
176
     1
 62
     7
420
 16777215
176
     1
 90
        1
176
     1
 90
        4
176
     1
 62
     7
176
     1
 62
   257
176
     1
 90
        1
176
     1
 90
        1
176
     1
 40
1.0
176
     1
 90
        0
176
     1
 62
   257
176
     1
 40
1.0
176
     1
 90
        1
176
     1
 90
        6
176
     1
 90
        2
176
     1
 62
     7
176
     1
 90
        5
176
     1
 90
        0
176
     1
 90
        0
176
     1
290
     0
176
     1
 90
        1
176
     1
 40
0.0
176
     1
 90
        0
176
     1
290
     1
176
     1
290
     1
176
     1
290
     0
176
     1
290
     0
176
     1
290
     0
176
     1
290
     0
176
     1
290
     0
176
     1
290
     0
176
     1
290
     0
176
     1
 90
       50
176
     1
 40
0.0
176
     1
 40
1.0
176
     1
 90
        0
176
     1
 62
    18
176
     1
 90
       50
176
     1
 90
        3
176
     1
 62
     5
420
      255
176
     1
290
     0
176
     1
 90
       50
176
     1
 90
       50
176
     1
 90
       50
176
     1
290
     0
176
     1
 90
       50
176
     1
 62
   256
176
     0
 40
1.0
176
     0
 90
        2
176
     1
  1
strokes_ogs.tif
176
     1
290
     0
176
     1
 40
1.0
176
     1
 40
1.0
176
     1
1001
ACAD
1000
AcDbSavedByObjectVersion
1070
     0
  0
VISUALSTYLE
  5
2E
102
{ACAD_REACTORS
330
29
102
}
330
29
100
AcDbVisualStyle
  2

 70
     7
177
     3
291
     1
 70
    58
 90
        1
176
     1
 90
        0
176
     1
 90
        1
176
     1
 90
        0
176
     1
 40
0.6
176
     1
 40
30.0
176
     1
 62
     7
420
 16777215
176
     1
 90
        0
176
     1
 90
        4
176
     1
 62
     7
176
     1
 62
   257
176
     1
 90
        1
176
     1
 90
        1
176
     1
 40
1.0
176
     1
 90
        8
176
     1
 62
     7
176
     1
 40
1.0
176
     1
 90
        1
176
     1
 90
        6
176
     1
 90
        2
176
     1
 62
     7
176
     1
 90
        5
176
     1
 90
        0
176
     1
 90
        0
176
     1
290
     0
176
     1
 90
        1
176
     1
 40
0.0
176
     1
 90
        0
176
     1
290
     0
176
     1
290
     1
176
     1
290
     1
176
     1
290
     0
176
     1
290
     0
176
     1
290
     0
176
     1
290
     0
176
     1
290
     0
176
     1
290
     0
176
     1
 90
       50
176
     1
 40
0.0
176
     1
 40
1.0
176
     1
 90
        0
176
     1
 62
    18
176
     1
 90
       50
176
     1
 90
        3
176
     1
 62
     5
420
      255
176
     1
290
     0
176
     1
 90
       50
176
     1
 90
       50
176
     1
 90
       50
176
     1
290
     0
176
     1
 90
       50
176
     1
 62
   256
176
     0
 40
1.0
176
     0
 90
        2
176
     1
  1
strokes_ogs.tif
176
     1
290
     0
176
     1
 40
1.0
176
     1
 40
1.0
176
     1
1001
ACAD
1000
AcDbSavedByObjectVersion
1070
     0
  0
VISUALSTYLE
  5
35
102
{ACAD_REACTORS
330
29
102
}
330
29
100
AcDbVisualStyle
  2

 70
    12
177
     3
291
     1
 70
    58
 90
        2
176
     1
 90
        2
176
     1
 90
        0
176
     1
 90
        0
176
     1
 40
0.6
176
     1
 40
30.0
176
     1
 62
     7
420
 16777215
176
     1
 90
        1
176
     1
 90
        4
176
     1
 62
     7
176
     1
 62
   257
176
     1
 90
        1
176
     1
 90
        1
176
     1
 40
1.0
176
     1
 90
        8
176
     1
 62
     7
176
     1
 40
1.0
176
     1
 90
        1
176
     1
 90
        6
176
     1
 90
        2
176
     1
 62
     7
176
     1
 90
        5
176
     1
 90
        0
176
     1
 90
        0
176
     1
290
     0
176
     1
 90
        1
176
     1
 40
50.0
176
     1
 90
        0
176
     1
290
     0
176
     1
290
     1
176
     1
290
     1
176
     1
290
     0
176
     1
290
     0
176
     1
290
     0
176
     1
290
     0
176
     1
290
     0
176
     1
290
     0
176
     1
 90
       50
176
     1
 40
0.0
176
     1
 40
1.0
176
     1
 90
        0
176
     1
 62
    18
176
     1
 90
       50
176
     1
 90
        3
176
     1
 62
     5
420
      255
176
     1
290
     0
176
     1
 90
       50
176
     1
 90
       50
176
     1
 90
       50
176
     1
290
     0
176
     1
 90
       50
176
     1
 62
   256
176
     0
 40
1.0
176
     0
 90
        2
176
     1
  1
strokes_ogs.tif
176
     1
290
     0
176
     1
 40
1.0
176
     1
 40
1.0
176
     1
1001
ACAD
1000
AcDbSavedByObjectVersion
1070
     0
  0
VISUALSTYLE
  5
39
102
{ACAD_REACTORS
330
29
102
}
330
29
100
AcDbVisualStyle
  2

 70
    16
177
     3
291
     1
 70
    58
 90
        2
176
     1
 90
        2
176
     1
 90
        3
176
     1
 90
        0
176
     1
 40
0.6
176
     1
 40
30.0
176
     1
 62
     8
420
  8421504
176
     1
 90
        1
176
     1
 90
        4
176
     1
 62
     7
176
     1
 62
   257
176
     1
 90
        1
176
     1
 90
        1
176
     1
 40
1.0
176
     1
 90
        8
176
     1
 62
     8
420
  8421504
176
     1
 40
1.0
176
     1
 90
        1
176
     1
 90
        6
176
     1
 90
        2
176
     1
 62
     7
176
     1
 90
        5
176
     1
 90
        0
176
     1
 90
        0
176
     1
290
     0
176
     1
 90
        1
176
     1
 40
0.0
176
     1
 90
        0
176
     1
290
     0
176
     1
290
     1
176
     1
290
     1
176
     1
290
     0
176
     1
290
     0
176
     1
290
     0
176
     1
290
     0
176
     1
290
     0
176
     1
290
     0
176
     1
 90
       50
176
     1
 40
0.0
176
     1
 40
1.0
176
     1
 90
        0
176
     1
 62
    18
176
     1
 90
       50
176
     1
 90
        3
176
     1
 62
     5
420
      255
176
     1
290
     0
176
     1
 90
       50
176
     1
 90
       50
176
     1
 90
       50
176
     1
290
     0
176
     1
 90
       50
176
     1
 62
   256
176
     0
 40
1.0
176
     0
 90
        2
176
     1
  1
strokes_ogs.tif
176
     1
290
     0
176
     1
 40
1.0
176
     1
 40
1.0
176
     1
1001
ACAD
1000
AcDbSavedByObjectVersion
1070
     0
  0
VISUALSTYLE
  5
32
102
{ACAD_REACTORS
330
29
102
}
330
29
100
AcDbVisualStyle
  2

 70
     9
177
     3
291
     0
 70
    58
 90
        3
176
     1
 90
        2
176
     1
 90
        0
176
     1
 90
        0
176
     1
 40
0.6
176
     1
 40
30.0
176
     1
 62
     7
420
 16777215
176
     1
 90
        2
176
     1
 90
        2
176
     1
 62
     7
176
     1
 62
   257
176
     1
 90
        1
176
     1
 90
        1
176
     1
 40
179.0
176
     1
 90
        8
176
     1
 62
     7
176
     1
 40
1.0
176
     1
 90
        1
176
     1
 90
        6
176
     1
 90
        2
176
     1
 62
     7
176
     1
 90
        3
176
     1
 90
        0
176
     1
 90
        0
176
     1
290
     0
176
     1
 90
        1
176
     1
 40
0.0
176
     1
 90
        0
176
     1
290
     0
176
     1
290
     1
176
     1
290
     1
176
     1
290
     0
176
     1
290
     0
176
     1
290
     0
176
     1
290
     0
176
     1
290
     0
176
     1
290
     0
176
     1
 90
       50
176
     1
 40
0.0
176
     1
 40
1.0
176
     1
 90
        0
176
     1
 62
    18
176
     1
 90
       50
176
     1
 90
        3
176
     1
 62
     5
420
      255
176
     1
290
     0
176
     1
 90
       50
176
     1
 90
       50
176
     1
 90
       50
176
     1
290
     0
176
     1
 90
       50
176
     1
 62
   256
176
     0
 40
1.0
176
     0
 90
        2
176
     1
  1
strokes_ogs.tif
176
     1
290
     0
176
     1
 40
1.0
176
     1
 40
1.0
176
     1
1001
ACAD
1000
AcDbSavedByObjectVersion
1070
     0
  0
VISUALSTYLE
  5
34
102
{ACAD_REACTORS
330
29
102
}
330
29
100
AcDbVisualStyle
  2

 70
    11
177
     3
291
     1
 70
    58
 90
        2
176
     1
 90
        2
176
     1
 90
        0
176
     1
 90
        0
176
     1
 40
0.6
176
     1
 40
30.0
176
     1
 62
     7
420
 16777215
176
     1
 90
        1
176
     1
 90
        4
176
     1
 62
     7
176
     1
 62
   257
176
     1
 90
        1
176
     1
 90
        1
176
     1
 40
1.0
176
     1
 90
        8
176
     1
 62
     7
176
     1
 40
1.0
176
     1
 90
        1
176
     1
 90
        6
176
     1
 90
        2
176
     1
 62
     7
176
     1
 90
        5
176
     1
 90
        0
176
     1
 90
        0
176
     1
290
     0
176
     1
 90
        1
176
     1
 40
-50.0
176
     1
 90
        0
176
     1
290
     0
176
     1
290
     1
176
     1
290
     1
176
     1
290
     0
176
     1
290
     0
176
     1
290
     0
176
     1
290
     0
176
     1
290
     0
176
     1
290
     0
176
     1
 90
       50
176
     1
 40
0.0
176
     1
 40
1.0
176
     1
 90
        0
176
     1
 62
    18
176
     1
 90
       50
176
     1
 90
        3
176
     1
 62
     5
420
      255
176
     1
290
     0
176
     1
 90
       50
176
     1
 90
       50
176
     1
 90
       50
176
     1
290
     0
176
     1
 90
       50
176
     1
 62
   256
176
     0
 40
1.0
176
     0
 90
        2
176
     1
  1
strokes_ogs.tif
176
     1
290
     0
176
     1
 40
1.0
176
     1
 40
1.0
176
     1
1001
ACAD
1000
AcDbSavedByObjectVersion
1070
     0
  0
VISUALSTYLE
  5
41
102
{ACAD_REACTORS
330
29
102
}
330
29
100
AcDbVisualStyle
  2

 70
    22
177
     3
291
     1
 70
    58
 90
        2
176
     0
 90
        2
176
     0
 90
        0
176
     0
 90
        0
176
     0
 40
0.6
176
     0
 40
30.0
176
     0
 62
     7
420
 16777215
176
     0
 90
        1
176
     0
 90
        4
176
     0
 62
     7
176
     0
 62
   257
176
     0
 90
        1
176
     0
 90
        1
176
     0
 40
1.0
176
     0
 90
        8
176
     2
 62
     7
176
     0
 40
1.0
176
     0
 90
        1
176
     0
 90
        6
176
     0
 90
        2
176
     0
 62
     7
176
     0
 90
        5
176
     0
 90
        0
176
     0
 90
        0
176
     0
290
     0
176
     0
 90
        1
176
     0
 40
0.0
176
     0
 90
        0
176
     0
290
     0
176
     1
290
     1
176
     1
290
     1
176
     1
290
     0
176
     1
290
     0
176
     1
290
     0
176
     1
290
     0
176
     1
290
     0
176
     1
290
     0
176
     1
 90
       50
176
     0
 40
0.0
176
     0
 40
1.0
176
     0
 90
        0
176
     0
 62
    18
176
     0
 90
       50
176
     0
 90
        3
176
     0
 62
     5
420
      255
176
     0
290
     0
176
     1
 90
       50
176
     0
 90
       50
176
     0
 90
       50
176
     0
290
     0
176
     1
 90
       50
176
     0
 62
   256
176
     0
 40
1.0
176
     0
 90
        2
176
     0
  1
strokes_ogs.tif
176
     0
290
     0
176
     1
 40
1.0
176
     0
 40
1.0
176
     0
1001
ACAD
1000
AcDbSavedByObjectVersion
1070
     0
  0
VISUALSTYLE
  5
38
102
{ACAD_REACTORS
330
29
102
}
330
29
100
AcDbVisualStyle
  2

 70
    15
177
     3
291
     1
 70
    58
 90
        2
176
     1
 90
        2
176
     1
 90
        0
176
     1
 90
        0
176
     1
 40
0.6
176
     1
 40
30.0
176
     1
 62
     7
420
 16777215
176
     1
 90
        1
176
     1
 90
        4
176
     1
 62
     7
176
     1
 62
   257
176
     1
 90
        1
176
     1
 90
        1
176
     1
 40
1.0
176
     1
 90
        8
176
     1
 62
     7
176
     1
 40
1.0
176
     1
 90
        1
176
     1
 90
        6
176
     1
 90
        2
176
     1
 62
     7
176
     1
 90
        5
176
     1
 90
        0
176
     1
 90
        0
176
     1
290
     0
176
     1
 90
        1
176
     1
 40
0.0
176
     1
 90
        0
176
     1
290
     0
176
     1
290
     1
176
     1
290
     1
176
     1
290
     0
176
     1
290
     0
176
     1
290
     0
176
     1
290
     0
176
     1
290
     0
176
     1
290
     0
176
     1
 90
       50
176
     1
 40
0.0
176
     1
 40
1.0
176
     1
 90
        0
176
     1
 62
    18
176
     1
 90
       50
176
     1
 90
        3
176
     1
 62
     5
420
      255
176
     1
290
     0
176
     1
 90
       50
176
     1
 90
       50
176
     1
 90
       50
176
     1
290
     0
176
     1
 90
       50
176
     1
 62
   256
176
     0
 40
1.0
176
     0
 90
        2
176
     1
  1
strokes_ogs.tif
176
     1
290
     0
176
     1
 40
1.0
176
     1
 40
1.0
176
     1
1001
ACAD
1000
AcDbSavedByObjectVersion
1070
     0
  0
VISUALSTYLE
  5
2A
102
{ACAD_REACTORS
330
29
102
}
330
29
100
AcDbVisualStyle
  2

 70
     0
177
     3
291
     1
 70
    58
 90
        2
176
     1
 90
        1
176
     1
 90
        1
176
     1
 90
        2
176
     1
 40
0.6
176
     1
 40
30.0
176
     1
 62
     7
420
 16777215
176
     1
 90
        0
176
     1
 90
        0
176
     1
 62
     7
176
     1
 62
   257
176
     1
 90
        1
176
     1
 90
        1
176
     1
 40
1.0
176
     1
 90
        8
176
     1
 62
     7
176
     1
 40
1.0
176
     1
 90
        1
176
     1
 90
        6
176
     1
 90
        2
176
     1
 62
     7
176
     1
 90
        5
176
     1
 90
        0
176
     1
 90
        0
176
     1
290
     0
176
     1
 90
       13
176
     1
 40
0.0
176
     1
 90
        0
176
     1
290
     0
176
     1
290
     1
176
     1
290
     1
176
     1
290
     0
176
     1
290
     0
176
     1
290
     0
176
     1
290
     0
176
     1
290
     0
176
     1
290
     0
176
     1
 90
       50
176
     1
 40
0.0
176
     1
 40
1.0
176
     1
 90
        0
176
     1
 62
    18
176
     1
 90
       50
176
     1
 90
        3
176
     1
 62
     5
420
      255
176
     1
290
     0
176
     1
 90
       50
176
     1
 90
       50
176
     1
 90
       50
176
     1
290
     0
176
     1
 90
       50
176
     1
 62
   256
176
     0
 40
1.0
176
     0
 90
        2
176
     1
  1
strokes_ogs.tif
176
     1
290
     0
176
     1
 40
1.0
176
     1
 40
1.0
176
     1
1001
ACAD
1000
AcDbSavedByObjectVersion
1070
     0
  0
VISUALSTYLE
  5
2B
102
{ACAD_REACTORS
330
29
102
}
330
29
100
AcDbVisualStyle
  2

 70
     1
177
     3
291
     1
 70
    58
 90
        2
176
     1
 90
        1
176
     1
 90
        1
176
     1
 90
        2
176
     1
 40
0.6
176
     1
 40
30.0
176
     1
 62
     7
420
 16777215
176
     1
 90
        1
176
     1
 90
        0
176
     1
 62
     7
176
     1
 62
   257
176
     1
 90
        1
176
     1
 90
        1
176
     1
 40
1.0
176
     1
 90
        0
176
     1
 62
   257
176
     1
 40
1.0
176
     1
 90
        1
176
     1
 90
        6
176
     1
 90
        2
176
     1
 62
     7
176
     1
 90
        5
176
     1
 90
        0
176
     1
 90
        0
176
     1
290
     0
176
     1
 90
       13
176
     1
 40
0.0
176
     1
 90
        0
176
     1
290
     0
176
     1
290
     1
176
     1
290
     1
176
     1
290
     0
176
     1
290
     0
176
     1
290
     0
176
     1
290
     0
176
     1
290
     0
176
     1
290
     0
176
     1
 90
       50
176
     1
 40
0.0
176
     1
 40
1.0
176
     1
 90
        0
176
     1
 62
    18
176
     1
 90
       50
176
     1
 90
        3
176
     1
 62
     5
420
      255
176
     1
290
     0
176
     1
 90
       50
176
     1
 90
       50
176
     1
 90
       50
176
     1
290
     0
176
     1
 90
       50
176
     1
 62
   256
176
     0
 40
1.0
176
     0
 90
        2
176
     1
  1
strokes_ogs.tif
176
     1
290
     0
176
     1
 40
1.0
176
     1
 40
1.0
176
     1
1001
ACAD
1000
AcDbSavedByObjectVersion
1070
     0
  0
VISUALSTYLE
  5
2C
102
{ACAD_REACTORS
330
29
102
}
330
29
100
AcDbVisualStyle
  2

 70
     2
177
     3
291
     1
 70
    58
 90
        2
176
     1
 90
        2
176
     1
 90
        1
176
     1
 90
        2
176
     1
 40
0.6
176
     1
 40
30.0
176
     1
 62
     7
420
 16777215
176
     1
 90
        0
176
     1
 90
        0
176
     1
 62
     7
176
     1
 62
   257
176
     1
 90
        1
176
     1
 90
        1
176
     1
 40
1.0
176
     1
 90
        0
176
     1
 62
     7
176
     1
 40
1.0
176
     1
 90
        1
176
     1
 90
        6
176
     1
 90
        2
176
     1
 62
     7
176
     1
 90
        5
176
     1
 90
        0
176
     1
 90
        0
176
     1
290
     0
176
     1
 90
       13
176
     1
 40
0.0
176
     1
 90
        0
176
     1
290
     0
176
     1
290
     1
176
     1
290
     1
176
     1
290
     0
176
     1
290
     0
176
     1
290
     0
176
     1
290
     0
176
     1
290
     0
176
     1
290
     0
176
     1
 90
       50
176
     1
 40
0.0
176
     1
 40
1.0
176
     1
 90
        0
176
     1
 62
    18
176
     1
 90
       50
176
     1
 90
        3
176
     1
 62
     5
420
      255
176
     1
290
     0
176
     1
 90
       50
176
     1
 90
       50
176
     1
 90
       50
176
     1
290
     0
176
     1
 90
       50
176
     1
 62
   256
176
     0
 40
1.0
176
     0
 90
        2
176
     1
  1
strokes_ogs.tif
176
     1
290
     0
176
     1
 40
1.0
176
     1
 40
1.0
176
     1
1001
ACAD
1000
AcDbSavedByObjectVersion
1070
     0
  0
VISUALSTYLE
  5
2D
102
{ACAD_REACTORS
330
29
102
}
330
29
100
AcDbVisualStyle
  2

 70
     3
177
     3
291
     1
 70
    58
 90
        2
176
     1
 90
        2
176
     1
 90
        1
176
     1
 90
        2
176
     1
 40
0.6
176
     1
 40
30.0
176
     1
 62
     7
420
 16777215
176
     1
 90
        1
176
     1
 90
        0
176
     1
 62
     7
176
     1
 62
   257
176
     1
 90
        1
176
     1
 90
        1
176
     1
 40
1.0
176
     1
 90
        0
176
     1
 62
   257
176
     1
 40
1.0
176
     1
 90
        1
176
     1
 90
        6
176
     1
 90
        2
176
     1
 62
     7
176
     1
 90
        5
176
     1
 90
        0
176
     1
 90
        0
176
     1
290
     0
176
     1
 90
       13
176
     1
 40
0.0
176
     1
 90
        0
176
     1
290
     0
176
     1
290
     1
176
     1
290
     1
176
     1
290
     0
176
     1
290
     0
176
     1
290
     0
176
     1
290
     0
176
     1
290
     0
176
     1
290
     0
176
     1
 90
       50
176
     1
 40
0.0
176
     1
 40
1.0
176
     1
 90
        0
176
     1
 62
    18
176
     1
 90
       50
176
     1
 90
        3
176
     1
 62
     5
420
      255
176
     1
290
     0
176
     1
 90
       50
176
     1
 90
       50
176
     1
 90
       50
176
     1
290
     0
176
     1
 90
       50
176
     1
 62
   256
176
     0
 40
1.0
176
     0
 90
        2
176
     1
  1
strokes_ogs.tif
176
     1
290
     0
176
     1
 40
1.0
176
     1
 40
1.0
176
     1
1001
ACAD
1000
AcDbSavedByObjectVersion
1070
     0
  0
VISUALSTYLE
  5
31
102
{ACAD_REACTORS
330
29
102
}
330
29
100
AcDbVisualStyle
  2

 70
     6
177
     3
291
     0
 70
    58
 90
        1
176
     1
 90
        2
176
     1
 90
        2
176
     1
 90
        0
176
     1
 40
0.6
176
     1
 40
30.0
176
     1
 62
     7
420
 16777215
176
     1
 90
        2
176
     1
 90
        2
176
     1
 62
     7
176
     1
 62
   257
176
     1
 90
        2
176
     1
 90
        1
176
     1
 40
40.0
176
     1
 90
        0
176
     1
 62
   257
176
     1
 40
1.0
176
     1
 90
        1
176
     1
 90
        6
176
     1
 90
        2
176
     1
 62
     7
176
     1
 90
        3
176
     1
 90
        0
176
     1
 90
        0
176
     1
290
     0
176
     1
 90
        1
176
     1
 40
0.0
176
     1
 90
        0
176
     1
290
     0
176
     1
290
     1
176
     1
290
     1
176
     1
290
     0
176
     1
290
     0
176
     1
290
     0
176
     1
290
     0
176
     1
290
     0
176
     1
290
     0
176
     1
 90
       50
176
     1
 40
0.0
176
     1
 40
1.0
176
     1
 90
        0
176
     1
 62
    18
176
     1
 90
       50
176
     1
 90
        3
176
     1
 62
     5
420
      255
176
     1
290
     0
176
     1
 90
       50
176
     1
 90
       50
176
     1
 90
       50
176
     1
290
     0
176
     1
 90
       50
176
     1
 62
   256
176
     0
 40
1.0
176
     0
 90
        2
176
     1
  1
strokes_ogs.tif
176
     1
290
     0
176
     1
 40
1.0
176
     1
 40
1.0
176
     1
1001
ACAD
1000
AcDbSavedByObjectVersion
1070
     0
  0
VISUALSTYLE
  5
3F
102
{ACAD_REACTORS
330
29
102
}
330
29
100
AcDbVisualStyle
  2

 70
    20
177
     3
291
     1
 70
    58
 90
        2
176
     0
 90
        2
176
     0
 90
        0
176
     0
 90
        0
176
     0
 40
0.6
176
     0
 40
30.0
176
     0
 62
     7
420
 16777215
176
     0
 90
        1
176
     0
 90
        4
176
     0
 62
     7
176
     0
 62
   257
176
     0
 90
        1
176
     0
 90
        1
176
     0
 40
1.0
176
     0
 90
       10
176
     2
 62
     7
176
     0
 40
1.0
176
     0
 90
        1
176
     0
 90
        6
176
     0
 90
        2
176
     0
 62
     7
176
     0
 90
        5
176
     0
 90
        0
176
     0
 90
        0
176
     0
290
     0
176
     0
 90
        1
176
     0
 40
0.0
176
     0
 90
        0
176
     0
290
     0
176
     1
290
     1
176
     1
290
     1
176
     1
290
     0
176
     1
290
     0
176
     1
290
     0
176
     1
290
     0
176
     1
290
     0
176
     1
290
     0
176
     1
 90
       50
176
     0
 40
0.0
176
     0
 40
1.0
176
     0
 90
        0
176
     0
 62
    18
176
     0
 90
       50
176
     0
 90
        3
176
     0
 62
     5
420
      255
176
     0
290
     0
176
     1
 90
       50
176
     0
 90
       50
176
     0
 90
       50
176
     0
290
     0
176
     1
 90
       50
176
     0
 62
   256
176
     0
 40
1.0
176
     0
 90
        2
176
     0
  1
strokes_ogs.tif
176
     0
290
     0
176
     1
 40
1.0
176
     0
 40
1.0
176
     0
1001
ACAD
1000
AcDbSavedByObjectVersion
1070
     0
  0
VISUALSTYLE
  5
37
102
{ACAD_REACTORS
330
29
102
}
330
29
100
AcDbVisualStyle
  2

 70
    14
177
     3
291
     1
 70
    58
 90
        2
176
     1
 90
        2
176
     1
 90
        0
176
     1
 90
        0
176
     1
 40
0.6
176
     1
 40
30.0
176
     1
 62
     7
420
 16777215
176
     1
 90
        1
176
     1
 90
        4
176
     1
 62
     7
176
     1
 62
   257
176
     1
 90
        7
176
     1
 90
        7
176
     1
 40
1.0
176
     1
 90
        8
176
     1
 62
     7
176
     1
 40
1.0
176
     1
 90
        1
176
     1
 90
        6
176
     1
 90
        2
176
     1
 62
     7
176
     1
 90
        5
176
     1
 90
        0
176
     1
 90
        0
176
     1
290
     0
176
     1
 90
        1
176
     1
 40
0.0
176
     1
 90
        0
176
     1
290
     0
176
     1
290
     1
176
     1
290
     1
176
     1
290
     0
176
     1
290
     0
176
     1
290
     0
176
     1
290
     0
176
     1
290
     0
176
     1
290
     0
176
     1
 90
       50
176
     1
 40
0.0
176
     1
 40
1.0
176
     1
 90
        0
176
     1
 62
    18
176
     1
 90
       50
176
     1
 90
        3
176
     1
 62
     5
420
      255
176
     1
290
     0
176
     1
 90
       50
176
     1
 90
       50
176
     1
 90
       50
176
     1
290
     0
176
     1
 90
       50
176
     1
 62
   256
176
     0
 40
1.0
176
     0
 90
        2
176
     1
  1
strokes_ogs.tif
176
     1
290
     0
176
     1
 40
1.0
176
     1
 40
1.0
176
     1
1001
ACAD
1000
AcDbSavedByObjectVersion
1070
     0
  0
VISUALSTYLE
  5
40
102
{ACAD_REACTORS
330
29
102
}
330
29
100
AcDbVisualStyle
  2

 70
    21
177
     3
291
     1
 70
    58
 90
        2
176
     0
 90
        2
176
     0
 90
        0
176
     0
 90
        0
176
     0
 40
0.6
176
     0
 40
30.0
176
     0
 62
     7
420
 16777215
176
     0
 90
        1
176
     0
 90
        4
176
     0
 62
     7
176
     0
 62
   257
176
     0
 90
        1
176
     0
 90
        1
176
     0
 40
1.0
176
     0
 90
        9
176
     2
 62
     7
176
     0
 40
1.0
176
     0
 90
        1
176
     0
 90
        6
176
     0
 90
        2
176
     0
 62
     7
176
     0
 90
        5
176
     0
 90
        0
176
     0
 90
        0
176
     0
290
     0
176
     0
 90
        1
176
     0
 40
0.0
176
     0
 90
        0
176
     0
290
     0
176
     1
290
     1
176
     1
290
     1
176
     1
290
     0
176
     1
290
     0
176
     1
290
     0
176
     1
290
     0
176
     1
290
     0
176
     1
290
     0
176
     1
 90
       50
176
     0
 40
0.0
176
     0
 40
1.0
176
     0
 90
        0
176
     0
 62
    18
176
     0
 90
       50
176
     0
 90
        3
176
     0
 62
     5
420
      255
176
     0
290
     0
176
     1
 90
       50
176
     0
 90
       50
176
     0
 90
       50
176
     0
290
     0
176
     1
 90
       50
176
     0
 62
   256
176
     0
 40
1.0
176
     0
 90
        2
176
     0
  1
strokes_ogs.tif
176
     0
290
     0
176
     1
 40
1.0
176
     0
 40
1.0
176
     0
1001
ACAD
1000
AcDbSavedByObjectVersion
1070
     0
  0
VISUALSTYLE
  5
33
102
{ACAD_REACTORS
330
29
102
}
330
29
100
AcDbVisualStyle
  2

 70
     8
177
     3
291
     0
 70
    58
 90
        2
176
     1
 90
        3
176
     1
 90
        0
176
     1
 90
        2
176
     1
 40
0.6
176
     1
 40
30.0
176
     1
 62
     7
420
 16777215
176
     1
 90
        0
176
     1
 90
        0
176
     1
 62
     7
176
     1
 62
   257
176
     1
 90
        1
176
     1
 90
        1
176
     1
 40
1.0
176
     1
 90
        8
176
     1
 62
   257
176
     1
 40
1.0
176
     1
 90
        1
176
     1
 90
        6
176
     1
 90
        2
176
     1
 62
     7
176
     1
 90
        3
176
     1
 90
        0
176
     1
 90
        0
176
     1
290
     0
176
     1
 90
       13
176
     1
 40
0.0
176
     1
 90
        0
176
     1
290
     0
176
     1
290
     1
176
     1
290
     1
176
     1
290
     0
176
     1
290
     0
176
     1
290
     0
176
     1
290
     0
176
     1
290
     0
176
     1
290
     0
176
     1
 90
       50
176
     1
 40
0.0
176
     1
 40
1.0
176
     1
 90
        0
176
     1
 62
    18
176
     1
 90
       50
176
     1
 90
        3
176
     1
 62
     5
420
      255
176
     1
290
     0
176
     1
 90
       50
176
     1
 90
       50
176
     1
 90
       50
176
     1
290
     0
176
     1
 90
       50
176
     1
 62
   256
176
     0
 40
1.0
176
     0
 90
        2
176
     1
  1
strokes_ogs.tif
176
     1
290
     0
176
     1
 40
1.0
176
     1
 40
1.0
176
     1
1001
ACAD
1000
AcDbSavedByObjectVersion
1070
     0
  0
VISUALSTYLE
  5
3E
102
{ACAD_REACTORS
330
29
102
}
330
29
100
AcDbVisualStyle
  2

 70
    27
177
     3
291
     0
 70
    58
 90
        2
176
     1
 90
        2
176
     1
 90
        1
176
     1
 90
        2
176
     1
 40
0.6
176
     1
 40
30.0
176
     1
 62
     7
420
 16777215
176
     1
 90
        0
176
     1
 90
        4
176
     1
 62
     7
176
     1
 62
   257
176
     1
 90
        1
176
     1
 90
        1
176
     1
 40
1.0
176
     1
 90
        8
176
     1
 62
   257
176
     1
 40
1.0
176
     1
 90
        1
176
     1
 90
        6
176
     1
 90
        2
176
     1
 62
     8
420
  7895160
176
     1
 90
        3
176
     1
 90
        0
176
     1
 90
        0
176
     1
290
     0
176
     1
 90
        5
176
     1
 40
0.0
176
     1
 90
        0
176
     1
290
     0
176
     1
290
     1
176
     1
290
     1
176
     1
290
     0
176
     1
290
     0
176
     1
290
     0
176
     1
290
     0
176
     1
290
     0
176
     1
290
     0
176
     1
 90
       50
176
     1
 40
0.0
176
     1
 40
1.0
176
     1
 90
        0
176
     1
 62
    18
176
     1
 90
       50
176
     1
 90
        3
176
     1
 62
     5
420
      255
176
     1
290
     0
176
     1
 90
       50
176
     1
 90
       50
176
     1
 90
       50
176
     1
290
     0
176
     1
 90
       50
176
     1
 62
   256
176
     0
 40
1.0
176
     0
 90
        2
176
     1
  1
strokes_ogs.tif
176
     1
290
     0
176
     1
 40
1.0
176
     1
 40
1.0
176
     1
1001
ACAD
1000
AcDbSavedByObjectVersion
1070
     0
  0
VISUALSTYLE
  5
3D
102
{ACAD_REACTORS
330
29
102
}
330
29
100
AcDbVisualStyle
  2

 70
    26
177
     3
291
     0
 70
    58
 90
        2
176
     1
 90
        2
176
     1
 90
        1
176
     1
 90
        2
176
     1
 40
0.6
176
     1
 40
30.0
176
     1
 62
     7
420
 16777215
176
     1
 90
        1
176
     1
 90
        2
176
     1
 62
     7
176
     1
 62
   257
176
     1
 90
        2
176
     1
 90
        1
176
     1
 40
1.0
176
     1
 90
        8
176
     1
 62
   257
176
     1
 40
1.0
176
     1
 90
        1
176
     1
 90
        6
176
     1
 90
        2
176
     1
 62
     7
176
     1
 90
        3
176
     1
 90
        0
176
     1
 90
        0
176
     1
290
     0
176
     1
 90
        5
176
     1
 40
0.0
176
     1
 90
        0
176
     1
290
     0
176
     1
290
     1
176
     1
290
     1
176
     1
290
     0
176
     1
290
     0
176
     1
290
     0
176
     1
290
     0
176
     1
290
     0
176
     1
290
     0
176
     1
 90
       50
176
     1
 40
0.0
176
     1
 40
1.0
176
     1
 90
        0
176
     1
 62
    18
176
     1
 90
       50
176
     1
 90
        3
176
     1
 62
     5
420
      255
176
     1
290
     0
176
     1
 90
       50
176
     1
 90
       50
176
     1
 90
       50
176
     1
290
     0
176
     1
 90
       50
176
     1
 62
   256
176
     0
 40
1.0
176
     0
 90
        2
176
     1
  1
strokes_ogs.tif
176
     1
290
     0
176
     1
 40
1.0
176
     1
 40
1.0
176
     1
1001
ACAD
1000
AcDbSavedByObjectVersion
1070
     0
  0
VISUALSTYLE
  5
3A
102
{ACAD_REACTORS
330
29
102
}
330
29
100
AcDbVisualStyle
  2

 70
    23
177
     3
291
     0
 70
    58
 90
        2
176
     1
 90
        2
176
     1
 90
        3
176
     1
 90
        0
176
     1
 40
0.6
176
     1
 40
30.0
176
     1
 62
     7
420
 16777215
176
     1
 90
        2
176
     1
 90
        2
176
     1
 62
     7
176
     1
 62
     7
176
     1
 90
        1
176
     1
 90
        1
176
     1
 40
40.0
176
     1
 90
        8
176
     1
 62
     7
176
     1
 40
1.0
176
     1
 90
        1
176
     1
 90
        6
176
     1
 90
        2
176
     1
 62
     7
176
     1
 90
        3
176
     1
 90
        0
176
     1
 90
        0
176
     1
290
     0
176
     1
 90
        1
176
     1
 40
0.0
176
     1
 90
        0
176
     1
290
     0
176
     1
290
     1
176
     1
290
     1
176
     1
290
     0
176
     1
290
     0
176
     1
290
     0
176
     1
290
     0
176
     1
290
     0
176
     1
290
     0
176
     1
 90
       50
176
     1
 40
0.0
176
     1
 40
1.0
176
     1
 90
        0
176
     1
 62
    18
176
     1
 90
       50
176
     1
 90
        3
176
     1
 62
     5
420
      255
176
     1
290
     0
176
     1
 90
       50
176
     1
 90
       50
176
     1
 90
       50
176
     1
290
     0
176
     1
 90
       50
176
     1
 62
   256
176
     0
 40
1.0
176
     0
 90
        2
176
     1
  1
strokes_ogs.tif
176
     1
290
     0
176
     1
 40
1.0
176
     1
 40
1.0
176
     1
1001
ACAD
1000
AcDbSavedByObjectVersion
1070
     0
  0
VISUALSTYLE
  5
3B
102
{ACAD_REACTORS
330
29
102
}
330
29
100
AcDbVisualStyle
  2

 70
    24
177
     3
291
     0
 70
    58
 90
        1
176
     1
 90
        2
176
     1
 90
        2
176
     1
 90
        0
176
     1
 40
0.6
176
     1
 40
30.0
176
     1
 62
     7
420
 16777215
176
     1
 90
        2
176
     1
 90
        2
176
     1
 62
     7
176
     1
 62
     7
176
     1
 90
        1
176
     1
 90
        1
176
     1
 40
40.0
176
     1
 90
       11
176
     1
 62
     7
176
     1
 40
1.0
176
     1
 90
        1
176
     1
 90
        6
176
     1
 90
        2
176
     1
 62
     7
176
     1
 90
        6
176
     1
 90
        0
176
     1
 90
        0
176
     1
290
     0
176
     1
 90
        1
176
     1
 40
0.0
176
     1
 90
        0
176
     1
290
     0
176
     1
290
     1
176
     1
290
     1
176
     1
290
     0
176
     1
290
     0
176
     1
290
     0
176
     1
290
     0
176
     1
290
     0
176
     1
290
     0
176
     1
 90
       50
176
     1
 40
0.0
176
     1
 40
1.0
176
     1
 90
        0
176
     1
 62
    18
176
     1
 90
       50
176
     1
 90
        3
176
     1
 62
     5
420
      255
176
     1
290
     0
176
     1
 90
       50
176
     1
 90
       50
176
     1
 90
       50
176
     1
290
     0
176
     1
 90
       50
176
     1
 62
   256
176
     0
 40
1.0
176
     0
 90
        2
176
     1
  1
strokes_ogs.tif
176
     1
290
     0
176
     1
 40
1.0
176
     1
 40
1.0
176
     1
1001
ACAD
1000
AcDbSavedByObjectVersion
1070
     0
  0
VISUALSTYLE
  5
36
102
{ACAD_REACTORS
330
29
102
}
330
29
100
AcDbVisualStyle
  2

 70
    13
177
     3
291
     1
 70
    58
 90
        2
176
     1
 90
        2
176
     1
 90
        0
176
     1
 90
        0
176
     1
 40
0.6
176
     1
 40
30.0
176
     1
 62
     7
420
 16777215
176
     1
 90
        1
176
     1
 90
        4
176
     1
 62
     7
176
     1
 62
   257
176
     1
 90
        1
176
     1
 90
        1
176
     1
 40
1.0
176
     1
 90
       12
176
     1
 62
     7
176
     1
 40
1.0
176
     1
 90
        1
176
     1
 90
        6
176
     1
 90
        2
176
     1
 62
     7
176
     1
 90
        5
176
     1
 90
        0
176
     1
 90
        0
176
     1
290
     0
176
     1
 90
        1
176
     1
 40
0.0
176
     1
 90
        0
176
     1
290
     0
176
     1
290
     1
176
     1
290
     1
176
     1
290
     0
176
     1
290
     0
176
     1
290
     0
176
     1
290
     0
176
     1
290
     0
176
     1
290
     0
176
     1
 90
       50
176
     1
 40
0.0
176
     1
 40
1.0
176
     1
 90
        0
176
     1
 62
    18
176
     1
 90
       50
176
     1
 90
        3
176
     1
 62
     5
420
      255
176
     1
290
     0
176
     1
 90
       50
176
     1
 90
       50
176
     1
 90
       50
176
     1
290
     0
176
     1
 90
       50
176
     1
 62
   256
176
     0
 40
1.0
176
     0
 90
        2
176
     1
  1
strokes_ogs.tif
176
     1
290
     0
176
     1
 40
1.0
176
     1
 40
1.0
176
     1
1001
ACAD
1000
AcDbSavedByObjectVersion
1070
     0
  0
VISUALSTYLE
  5
30
102
{ACAD_REACTORS
330
29
102
}
330
29
100
AcDbVisualStyle
  2

 70
     5
177
     3
291
     0
 70
    58
 90
        0
176
     1
 90
        2
176
     1
 90
        0
176
     1
 90
        0
176
     1
 40
0.6
176
     1
 40
30.0
176
     1
 62
     7
420
 16777215
176
     1
 90
        1
176
     1
 90
        4
176
     1
 62
     7
176
     1
 62
   257
176
     1
 90
        1
176
     1
 90
        1
176
     1
 40
1.0
176
     1
 90
        0
176
     1
 62
   257
176
     1
 40
1.0
176
     1
 90
        1
176
     1
 90
        6
176
     1
 90
        2
176
     1
 62
     7
176
     1
 90
        3
176
     1
 90
        0
176
     1
 90
        0
176
     1
290
     0
176
     1
 90
        1
176
     1
 40
0.0
176
     1
 90
        0
176
     1
290
     0
176
     1
290
     1
176
     1
290
     1
176
     1
290
     0
176
     1
290
     0
176
     1
290
     0
176
     1
290
     0
176
     1
290
     0
176
     1
290
     0
176
     1
 90
       50
176
     1
 40
0.0
176
     1
 40
1.0
176
     1
 90
        0
176
     1
 62
    18
176
     1
 90
       50
176
     1
 90
        3
176
     1
 62
     5
420
      255
176
     1
290
     0
176
     1
 90
       50
176
     1
 90
       50
176
     1
 90
       50
176
     1
290
     0
176
     1
 90
       50
176
     1
 62
   256
176
     0
 40
1.0
176
     0
 90
        2
176
     1
  1
strokes_ogs.tif
176
     1
290
     0
176
     1
 40
1.0
176
     1
 40
1.0
176
     1
1001
ACAD
1000
AcDbSavedByObjectVersion
1070
     0
  0
VISUALSTYLE
  5
3C
102
{ACAD_REACTORS
330
29
102
}
330
29
100
AcDbVisualStyle
  2

 70
    25
177
     3
291
     0
 70
    58
 90
        2
176
     1
 90
        2
176
     1
 90
        1
176
     1
 90
        1
176
     1
 40
0.5
176
     1
 40
30.0
176
     1
 62
     7
420
 16777215
176
     1
 90
        1
176
     1
 90
        0
176
     1
 62
     7
176
     1
 62
   257
176
     1
 90
        1
176
     1
 90
        1
176
     1
 40
1.0
176
     1
 90
        8
176
     1
 62
     7
176
     1
 40
1.0
176
     1
 90
        1
176
     1
 90
        6
176
     1
 90
        2
176
     1
 62
     7
176
     1
 90
        3
176
     1
 90
        0
176
     1
 90
        0
176
     1
290
     0
176
     1
 90
       13
176
     1
 40
0.0
176
     1
 90
        0
176
     1
290
     0
176
     1
290
     1
176
     1
290
     1
176
     1
290
     0
176
     1
290
     0
176
     1
290
     0
176
     1
290
     0
176
     1
290
     0
176
     1
290
     0
176
     1
 90
       50
176
     1
 40
0.0
176
     1
 40
1.0
176
     1
 90
        0
176
     1
 62
    18
176
     1
 90
       50
176
     1
 90
        3
176
     1
 62
     5
420
      255
176
     1
290
     0
176
     1
 90
       50
176
     1
 90
       50
176
     1
 90
       50
176
     1
290
     0
176
     1
 90
       50
176
     1
 62
   256
176
     0
 40
1.0
176
     0
 90
        2
176
     1
  1
strokes_ogs.tif
176
     1
290
     0
176
     1
 40
1.0
176
     1
 40
1.0
176
     1
1001
ACAD
1000
AcDbSavedByObjectVersion
1070
     0
  0
DICTIONARYVAR
  5
574
102
{ACAD_REACTORS
330
56E
102
}
330
56E
100
DictionaryVariables
280
     0
  1
1:1
  0
DICTIONARYVAR
  5
570
102
{ACAD_REACTORS
330
56E
102
}
330
56E
100
DictionaryVariables
280
     0
  1
STANDARD
  0
DICTIONARYVAR
  5
56F
102
{ACAD_REACTORS
330
56E
102
}
330
56E
100
DictionaryVariables
280
     0
  1
STANDARD
  0
DICTIONARYVAR
  5
571
102
{ACAD_REACTORS
330
56E
102
}
330
56E
100
DictionaryVariables
280
     0
  1
Imperial24
  0
DICTIONARYVAR
  5
572
102
{ACAD_REACTORS
330
56E
102
}
330
56E
100
DictionaryVariables
280
     0
  1
Imperial24
  0
DICTIONARYVAR
  5
576
102
{ACAD_REACTORS
330
56E
102
}
330
56E
100
DictionaryVariables
280
     0
  1
1
  0
DICTIONARYVAR
  5
577
102
{ACAD_REACTORS
330
56E
102
}
330
56E
100
DictionaryVariables
280
     0
  1
15
  0
DICTIONARYVAR
  5
575
102
{ACAD_REACTORS
330
56E
102
}
330
56E
100
DictionaryVariables
280
     0
  1
0
  0
DICTIONARYVAR
  5
573
102
{ACAD_REACTORS
330
56E
102
}
330
56E
100
DictionaryVariables
280
     0
  1
0
  0
DICTIONARY
  5
1180
102
{ACAD_REACTORS
330
117E
102
}
330
117E
100
AcDbDictionary
281
     1
  0
DICTIONARY
  5
117F
102
{ACAD_REACTORS
330
117E
102
}
330
117E
100
AcDbDictionary
281
     1
  3
1382456676496
350
1179
  3
1382456676512
350
117A
  3
1382456676528
350
117B
  3
1382456676544
350
117C
  3
1382456676560
350
117D
  0
DICTIONARY
  5
1183
330
6A
100
AcDbDictionary
280
     1
281
     1
  3
ACAD_XREC_ROUNDTRIP
360
1184
  0
DICTIONARY
  5
1A
330
19
100
AcDbDictionary
280
     1
281
     1
  3
BUMPTILE
360
1C
  3
DIFFUSETILE
360
1B
  3
OPACITYTILE
360
1F
  3
REFLECTIONTILE
360
1E
  3
REFRACTIONTILE
360
20
  3
SPECULARTILE
360
1D
  0
DICTIONARY
  5
12
330
11
100
AcDbDictionary
280
     1
281
     1
  3
BUMPTILE
360
14
  3
DIFFUSETILE
360
13
  3
OPACITYTILE
360
17
  3
REFLECTIONTILE
360
16
  3
REFRACTIONTILE
360
18
  3
SPECULARTILE
360
15
  0
DICTIONARY
  5
22
330
21
100
AcDbDictionary
280
     1
281
     1
  3
BUMPTILE
360
24
  3
DIFFUSETILE
360
23
  3
FBXASSET
360
555
  3
OPACITYTILE
360
27
  3
REFLECTIONTILE
360
26
  3
REFRACTIONTILE
360
28
  3
SPECULARTILE
360
25
  0
DICTIONARY
  5
1181
330
68
100
AcDbDictionary
280
     1
281
     1
  3
ACAD_XREC_ROUNDTRIP
360
1182
  0
DICTIONARY
  5
579
330
64
100
AcDbDictionary
280
     1
281
     1
  3
ACAD_ROUNDTRIP_2008_TABLESTYLE_CELLSTYLEMAP
360
1177
  0
XRECORD
  5
1179
102
{ACAD_REACTORS
330
117F
102
}
330
117F
100
AcDbXrecord
280
     1
  1
AcDb_Thumbnail_Schema
102
{ATTRRECORD
341
117A
  2
AcDbDs::TreatedAsObjectData
280
     1
291
     1
102
ATTRRECORD}
102
{ATTRRECORD
341
117B
  2
AcDbDs::Legacy
280
     1
291
     1
102
ATTRRECORD}
  2
AcDbDs::ID
280
    10
 91
        8
102
{ATTRRECORD
341
117C
  2
AcDs:Indexable
280
     1
291
     1
102
ATTRRECORD}
102
{ATTRRECORD
341
117D
  2
AcDbDs::HandleAttribute
280
     7
282
     1
102
ATTRRECORD}
  2
Thumbnail_Data
280
    15
 91
        0
  0
XRECORD
  5
117A
102
{ACAD_REACTORS
330
117F
102
}
330
117F
100
AcDbXrecord
280
     1
  1
AcDbDs::TreatedAsObjectDataSchema
  2
AcDbDs::TreatedAsObjectData
280
     1
 91
        0
  0
XRECORD
  5
117B
102
{ACAD_REACTORS
330
117F
102
}
330
117F
100
AcDbXrecord
280
     1
  1
AcDbDs::LegacySchema
  2
AcDbDs::Legacy
280
     1
 91
        0
  0
XRECORD
  5
117C
102
{ACAD_REACTORS
330
117F
102
}
330
117F
100
AcDbXrecord
280
     1
  1
AcDbDs::IndexedPropertySchema
  2
AcDs:Indexable
280
     1
 91
        0
  0
XRECORD
  5
117D
102
{ACAD_REACTORS
330
117F
102
}
330
117F
100
AcDbXrecord
280
     1
  1
AcDbDs::HandleAttributeSchema
  2
AcDbDs::HandleAttribute
280
     7
 91
        1
284
     1
  0
XRECORD
  5
1184
102
{ACAD_REACTORS
330
1183
102
}
330
1183
100
AcDbXrecord
280
     1
102
DISPLAYNAME
  1
Imperial24
102
FLAGS
 90
        0
  0
XRECORD
  5
1C
102
{ACAD_REACTORS
330
1A
102
}
330
1A
100
AcDbXrecord
280
     1
270
     1
271
     1
  0
XRECORD
  5
1B
102
{ACAD_REACTORS
330
1A
102
}
330
1A
100
AcDbXrecord
280
     1
270
     1
271
     1
  0
XRECORD
  5
1F
102
{ACAD_REACTORS
330
1A
102
}
330
1A
100
AcDbXrecord
280
     1
270
     1
271
     1
  0
XRECORD
  5
1E
102
{ACAD_REACTORS
330
1A
102
}
330
1A
100
AcDbXrecord
280
     1
270
     1
271
     1
  0
XRECORD
  5
20
102
{ACAD_REACTORS
330
1A
102
}
330
1A
100
AcDbXrecord
280
     1
270
     1
271
     1
  0
XRECORD
  5
1D
102
{ACAD_REACTORS
330
1A
102
}
330
1A
100
AcDbXrecord
280
     1
270
     1
271
     1
  0
XRECORD
  5
14
102
{ACAD_REACTORS
330
12
102
}
330
12
100
AcDbXrecord
280
     1
270
     1
271
     1
  0
XRECORD
  5
13
102
{ACAD_REACTORS
330
12
102
}
330
12
100
AcDbXrecord
280
     1
270
     1
271
     1
  0
XRECORD
  5
17
102
{ACAD_REACTORS
330
12
102
}
330
12
100
AcDbXrecord
280
     1
270
     1
271
     1
  0
XRECORD
  5
16
102
{ACAD_REACTORS
330
12
102
}
330
12
100
AcDbXrecord
280
     1
270
     1
271
     1
  0
XRECORD
  5
18
102
{ACAD_REACTORS
330
12
102
}
330
12
100
AcDbXrecord
280
     1
270
     1
271
     1
  0
XRECORD
  5
15
102
{ACAD_REACTORS
330
12
102
}
330
12
100
AcDbXrecord
280
     1
270
     1
271
     1
  0
XRECORD
  5
24
102
{ACAD_REACTORS
330
22
102
}
330
22
100
AcDbXrecord
280
     1
270
     1
271
     1
  0
XRECORD
  5
23
102
{ACAD_REACTORS
330
22
102
}
330
22
100
AcDbXrecord
280
     1
270
     1
271
     1
  0
XRECORD
  5
555
102
{ACAD_REACTORS
330
22
102
}
330
22
100
AcDbXrecord
280
     1
 70
     1
 90
652598616
 71
     1
  1
B6EA8131-C3D0-4013-9248-F1B791CFE742
311
504B0304140006080800898858579D898BB349010000A80100004F00000038354637383336462D363745332D343833422D413635302D3338464645333444383832442F4173736574446174612F446566696E6974696F6E4974657261746F7250726F706572746965732E62696E3550B14EC33010350C200690901818A3A8AB
311
9B38761217514A9BC42CB0003B7253B78DE43AA54EA01BDD60474CFC0C332CF0277C0012D8B43DE9F99DCFCF774FF70400F85D8549C186C1C29CBB86CF8412B322BFCAC762C2C196ADC8B2CF65C3649874B3248A631862462149120A5B2C24300E5018F9D8C728C49B46B76D908A21AF65655B5E143A17527225CA5AEF9BC2
311
6A8633E19599C565D37EDA01C0D2C200AC1FB4ED345A3AB226EF0DF8607AD4E15A8BAAEDD190C514470C46718621A1B807BB51E8434C19CB3049290D52EF52E8B29EE5427BBD28EB5284114C70EA43E2230C5B01A190A15EDC4209CB621278D5B8B6AB39B036FA8A17D2F3BD95859BA91A9932983FDF5EFF3C00F0FDF17AFE
311
684C7FEE4DFFF9ED6B793F7D5FB2D5DA58EB5F1AF9A159F3E2B8339F48E74ECC7451AAB68B9ABEEB08959783428DDA6E5D0D21759DCEC9F11F504B030414000608080089885857BF881751ED000000300200004500000038354637383336462D363745332D343833422D413635302D3338464645333444383832442F417373
311
6574446174612F496E7374616E636550726F706572746965732E62696EEB606060F80F0540260323103700495E20ED9E9A975A94991C9C9C919A9BA8021470327375B4303436D475367631D035313034D6B53432B1D075337432B734747673353731624768046931363471713532B5D435353131D635313332D475727372D1
311
3534373670367376B67474B5042A03DBCBA019D37FE8ABC6157B20CD04146B0062181F4C03F940F0C11EA29A8141C08141002C0426541C106CAC2CA046088033B02A030AC2157C6006F21A8018AAF50194E6010A610250382264E08660284CD9E98021862280A91564B406929A0FF62C401E28B6F88038B83CB1243943D7A9
311
28312F25350524C341230800504B03041400060808008988585788E57597CD3F0000904100006B00000038354637383336462D363745332D343833422D413635302D3338464645333444383832442F5265736F75726365732F42364541383133312D433344302D343031332D393234382D4631423739314346453734322F74
311
68756D626E61696C2F302F67656E657269635F706E67355B773CD4FF1FBF73E71C0E67EF7576C9DEF3EC995D46C6A1EC5046649CBDF79E192942562825CE965D8A868C2842C8DE9FDFD1F7E7F138F7078FCF6B3F5FCFD7EBFDFEC41B196891913091804020321D6D7513FC77D8C5070EC3FFEE51B21F068154CC75D455CC02
311
8A3EA68992803810109FDDE5D5CEC5521B28A1B422BF80741695D5B529DA1C2D058AD2388BDA9F476F7C2CADC939304173DBF48A452BF8A700C0C70C3D121C1AA15A5270C22E2B9E28763651F7DA0D12CE11077B2ECD0D560B5E3DE2368B1E65C5E1C87384A4CC5F2D9FB8BE39E9B77C753783A37998F5CEF1B4FEE5534632
311
45C9712270880DF339E0B882A6BA713D865F6F384C842D440934EF264F4A304F8DE4EEFA1E2BF5E2D91F5ADD9613D6E31DDB33ED31DB1D7916CAF091286EA3D31B9CFECB78BB0060245B943C4C040119FF780A74DD308BA9D028678674EB5504ECF284EE814DAED07440BAF649BE4B55DA2890F4D73E2D489A59EE54FDB0A8
311
5B59F2F52C4858A02705C4815A792B0C4A996A2023ECB195073E115E3E3647F64243A8338F2000BCB58DA5692C7E7C3D413F963FEDF3CF00FBB0F831A9D51360FECA43819F527B89FA260EB63C5DA676830AA3626A3693B23F1A17A0DFFCE3EE164E31B5365EDF0C89EF64D8E38AB0BA9A1117D7C3A0EC44F44F4023095E80
311
BA610DE336D0F99593A88BFC5306E72DF98F7FD132ED95878DF2964EA7E43071359FD83B2BDF9C6B5BDF768F0F3C0FC351199526F53D9460A34511F75D1B63E488178569472C91A94497807A3FD4A390C6558F26D416365C3656DE6E769DA9D8FC73774E1709812842DD8EF96AED1960F79D21B395CDDFE6F92CB4EB962A46
311
68C76990E2EF29798C8941D67DA50F4A5F947872460F1F6FDB794E8A29FD7AC0C0D6E0714339CE258FB17AE8535221E3464A10F29A0BE5EEECEFC5675926A89F49EB14E5711894F6586DB5754EB4D5DA9C6437EBA57DB97A24F8B8A8DB295FFD73266CF57E82694DF5166DDF93573AFE9C9C5EB05F8FEF8E89E0A8917B0B37
311
24DB7BEBB53252581EFC3E38166BA131A3A5B42FE2AD00A769BBFA4458D2DE7822F8C4F63D0B8E21B285AE13325F3410A435C648C9D91FDEB109E73CEDA7BC796961AF79175E1A3CE4C5E8B0D009B0C9E29EFD98BC8E97554E3D8D838424E270F7685226E5AC268E021EDE3522D583E8F20C0BDE2959EF5BBFEEDAB32FE9A3
311
ED0E39F211A86AA9DEBFC68182EDED132AB8BB794442D2D7EA9F4D8BFF52BC4D55BB165124EE90A42D101E67BBBB292FFB4F66DE5BF2300E44546757DA7CEF8932BFC9F92A0707953491A55C5A5ACEDABD9FA1AEA01BAC3DC5A24E22E7C47213493996EFBC369D086ED9397C9BA6C7F9855C7BD5E15BFC8C53DB3D2A4C5901
311
A57ACD2FBDF4D1676E95338B2C2BCE65FDA4C64F5FEFDC7D9CA5AA1FCF11E193F2FDABF0F4916BF13FB916A224380E6462A9815F2300DC49CC4DF8D055CEF76462F4B7A7ACA7365C2707891370BC1D0AA6203C44CCAB47084FEC057F27FFCD57F89B8B9852459798A675C66BD7CE572CAF71FF7E6D7ECF7BF62CAB7B3F1107
311
DCD04DC55A3F9961700286141C94A4F771FEB2BCDA2DDEE0CB0BAE402FF1DB0100F8E475DFFFC074DDB4498AB7D186A7654DDB1CB680D703D47CEB4E72F8CB13D86A4AA68116E26387B93FD6738779B34FEDB8E517EDF2BAF28D9BE93A1D3A164320E07D42E514725C29515FF361754213EDE06B079A2E99EB1CA82A02019E
311
ADEEB87B9AF005BD04BBCECB14AACD6B24EFBE482194A97DD32400685FF1FEF1544D1B14EFB1E7F08E6D2CD2AF52DE757F35F5E62332EE88EA26417AD5C3E0E319D68F25414E6D672BD4522B278C57D18F0113921C71D96527E091F00CEB15AE23D24667369BD3CEFA10C7549D930890BA4366F4EBC55F01F746109F98ABCD
311
D5A3EE06619C6AD78AB33E48E4C9BD21BF7478B385EC05C4F8987E2C1BFA0A60EBEDAA0AE0B015C2720ECE180FB6F2DEFBEB822D96338C9B63822183BBF52FB664A7AE57003AABCE512BF77E7E31BDA2E739AC4C131657DDFE5225E900FB56CC01CDE808FA4A9C9DA16AC679656BB64796283D89812B8F91136AE18EE5EBBA
311
F47A73BE3C153EB5D4CD491B4BFB4FE690A4CF9ABA08C0D8AA64220C438C96EA6CA80B58FE5761E697B3A292EB9FBDA502FA863E49FE694ADDFFF9D62C520BDD1A22014147A0903A05B9B729F54272EF83931FEEC057BFF8C8055C279EAC5C0011804828734024F6CFA319C9CC6867C727184465CD9BB7ED386AFFD96B294A
311
85E3802FAE47244602D8273615952B98C4F23F7EAE4463D9D638EEE374A20959E0FE519C4CFB0FBFE5DD80C2AA3F9DB961D1BDE57E67C9BB47B77FDD74EE3094F5DBBE3EBC1FBDB7393F5116263009E2EFE1AF9A221B2AE234C902BF70E9F280ED23E73908361565964333A3F01D0B006AF32FB21AA1316744B489D5A198E8
311
5299241735BE559675130955C902A8ED761FC0DBE337A9F91919AF5CE32AF902ADF9AB2615E00E8A94586BA1A90839B61832FF1BFB76D2EFADE6DB1BA04CCAD3DA649E7E2A0219F592E22F2AD54847EEA8E42271011E9074F8F3DD9FBA6CDF88FFC9FC7E811AD1CA8F4557CE4AFC7BBEDCF0114A48689F20A584520C74DA81
311
27124B767E2FB91A6B186246727BE63C9445BAE02088D58B8EFDC0F1072407CD9B89A13F6303B4A928F593AD489B58E6869325790ADC406036C591729FE14021F94B7796BB11848D463536A092A26F077F94639F7CEEE2A724C66EC885F4A24F8B8A0AC321F8FD149BA529460FAA34E4663C02D41FDF80BCA222D42F0ABFF8
311
490F4FA74C673807C2051D8E467B47B616072860069A9A303ABA9B319D58404461401B0A0F9BE5E1E151C14BC33B32ABE03DDE91708DFAEB15E7C0D593C86BB7D7EC17BE56E57975F077BFD5525F3A1A361D584A75E08CF29FC7B44B2B3085014F3A5A14517377C3F6B8F37E59514C3B12F8AACDEDDA4DFC49BE5710101534
311
CD6FB6DE15B50F11A09472AABA727F0C49D9CB906B158030065F48EB3625E010CEC1D511D0053474B11E6A4F01C0D6EF1BED3A944FDEC70E0DDCDC756C86545910E0DAE3BE3AA9A404574C2995CD5CAF9549226BC94B4F4F0F5F9086F418F6B32346464610D8BC7391D3C3A3CCF04CFC1FB2A3A3170E369511868F14EEA4E5
311
E438CC73DB1F3248AA94B6B2FF33B222FF3D1E7BF146CAD229770158063BCE4F5391964DF62F7E52A7BE0EEA829C9E13C4C147D6F93FE59E111DAB5E4594D6F3CD1AD375EE039930EFE5AF2BB2D41C83C7DABD8C659BAFBE8FAB392CA634F3D15C1D945DB4588D2B0824A4EC928AAC565557CA2F0DAA588CA5BE30B3A8004F
311
7BF005E96CBF891D7F18112A3619FDF530DC8AA64954258E1811789B5189B49B4EB53F5F89F7D37523894F3EB57B373763C91E502F52CC99EB7BDDF933FC324C4FFC2561DFFA7339FAFDD0A4BFBE6D3A8FF9ED1FC49898139864602458968913181918F719CCF5A68B2EE9C1FF050E34E63107003B8120FA982C21B30A874E
311
4F5E4B38D5A8290C4B8D9BE48A0BE31EA995BDC37AC6DE90BA17D259DEF53605D55922FEB1855D915B659FBEB350EE0DFB2F9F766E1C84CC8964B75D08667445EAB966015F63A18A9E0A325C1B3DC628C0D3CB60F767FA93CC65F25458BD23C3B312716E5F40E5858AC06EBA9AB14F95DB99147B832069201541D09A0D856E
311
12C629CF32683760EE855537D1901988D5EBC156676C7DD51D7207CF3267AF1D76C2AD867315E44618015313A98B19941C696FED3461CAA9B5415F918556D7802EDACEFD6B2E45853A9735DFC9DBF7E440F9319F8B6805A973BCCDC76C069A9144E51F187EDCC12FC31B5DEAAF0A76137199B106EC84ADA6B6EE697D4E6A96
311
E007417F4E880E8B1E89B4BCE9D81EF611E2ED8F0C1A6C25F620FAFAAB656A7C42D464880E8AFAB0E0FC8EA38CA9A8AEEAEE3E4648BA4680270A89743CDD3E6C6CBF34B7B640EFA285ABC7EA0A1E28F3CC963D114A80123EE66D0AF7D5380EB41909B605AB4765B709B808590458157E69BA1378FEC4B48CAF6A730E3BE3C5
311
EF2DD1A5EAF94B1DDE50CEB55DDFD7EE9A16747FA4B223359FB1FCC69E1194892BABB93A1D5C4E807AC0EA2E30180811E77A2291F6E7F7FAA5E0F60215BC6024E48DE436C511F0628B8CA189982D4D83CCA17D305A7E923C37941CFDFDCD93ACAF735EF5F0E61BBD3E6C41A59B242790D3A3BAC7064DCD89AA2E37214EC839
311
820949D5CAA31E240D2948E48F690298974A96BA9A8432BC90F5071D6537C9666EA4564796B7AFFFA548077BEEA75F63083435074BA182F3699557397F71548383FDA8CA34D99B981E72835ECDA5DDDC151315173D05A21F651AAF8524E88209E2E7A737ED1045800CE3390050BCFB8BE588DF111617874C62575039CA588E
311
EFDEFEFE319B739DE2EDC147092A262611E159650E787917885EF08F1F51B8F2D8A71D60B58B190FEF9541A1BE94BC19FEA50784DA1419FE4B0FB51B8D36B5FF8E1286FD8AF42B91E59A5F1CC4D60174E764045FD8C57B18209B217F89A62252BD20BE0E63E12B8E8F029FE19E0E8D0870F58721A557082250D5424F790936
311
9376E41666C0EE77CD87CB283F661D5FB6D0DA023CB67320A20DC7BE661E9E1BFE5463085C557DA1FF9BE835733766C3D139F2CF9E2208873AD0EB4814DE9E6BF2CAF81614D4D43906ED1C05A3265CABBFE192770FC2F64F940CB6B17B5F166F133C9AEEAD2641807C3E69515171DD74C4A85311513D6EC9530B3B601B6BA3
311
EBFF3B5C3D2F7D69765141E345F75433953D013ADDF8F6AA7DC3F4A7563FE5C7D367937E2900D7EAD0F9FC9A4A1A9B5BDF1FEF08532660C01C5D6DE22199AA774383E306DAB87E301ABB7D213887F9869D4942D0D71E94B27EDF216A318BD488D45DF84529EF575AF3C3938C0AAA0215B01994153E2054A0B894DA5C784980
311
633AAD48576957CF4AEAEAFADC7C587368551C73DBE1E57C58AC713303A8BFC258BD04B51724459FF9E24C03A81E0E0679CEB9B348C0DC998FEB9C6D6EFA77D247CC8F92D3848599ED89A23218D0636465AD1CEEB7DC140D7426F83491C4E8E8281C2FB35240918FFECE880CA2A42D70E8B20B34DF5221C7DB0CF90ECCB9C7
311
45B37A47E9B716FF7A97B7A252C1F3814DC7B1E1A7F72B8751D524EF7CAE45B0C73B3BE7D08ED39781B380DDFC9AA4A4749C9493DB5BAD07A6EA6C092FBD0E85DB004DF06B8C9D3089C5320187E4CE1846158C7EA7DDAE8AD9AFFF21AA3A1026BB06A259845E8232DEE62811A4DA9CEAB3A4887320B76E2AE5615EAB7BDF73
311
8CBDD01F1E64064BC13D9EC53576751CA8CACD58B3CEB0E6CA585BD089B2A59B9FC101403387AADBDBE70586B93D64BF3AD4453EF9C3B6A93817E8346991798601344F79A83C51F3D50F7BF2683A3605F51A72449489E0EE6169C749C60B1035651103AEE24D24E51A759C840DD3FC6504DA6FE107510E447B43461C79D229
311
70B75DE5E1BD3007D1AFC619A4A4A69B5626AF5E9B8374E20677F77E2F8E73DF868E8BEC7EBA7B6A75EEF7205E1AB9486CB642741D6E03FF13FCCEDB1C4AC129886268B01CDF4B124AF797CF784F3C6DEC97A17D4B558070A0F1C04DA4FF9BDBF34159AEFE958479824B3F58EBD1E19088A2AFDE501B6F2052368A3FD0E650
311
A179EFAB1561E1D27527077136E652676C3670F42DCB3352F48F6BC86D2C3B0051727E41A0A4DC6CE2BE9D47F5CAA2935A3C0539AF080665997194ABECD723B08129CC5B6B21D2E7D54CD4D12610E7E9FB8306771A89576C7A982002775ED44F3F744CF21EEBB27A631671D921938AAEE3EB0D19CD1E083727F607823E817B
311
F599DCED5394E37EEBC2E88782E638920CA641EF74D4CDFCDEF06F4278ECB18E31E7E9876F2D783C8BF429C75395F57E98C2B495A3DA077EB3AC3C158608B6B57FE3EA48484D9A480096FCEE0DE880950E7E5A5714131C5C41AAA29FD19AE81AC145FA1B9E85C7169A5AB837B213493DF7E9AA4B5FBF9CDEB36EBD21EF1181
311
B7CF7366AB2A951D01E37AF4EB835D1BE8C117CFBE7625D2EBCDB0B20C5A4B45CED0BCDE3EE8DA9DA78C2E21DEAAFFD1197E463C33CC6A80FB785669B856EFF7A8CCCA2841B5A5369173320B1170C368B2748D81062EA0296E5E2D95D7667A4A46D98A6FF475C76AAB0A8C8D45E226FAFC9FE0133EA9F60111F99CA81ACE03
311
A1D14C89E8B0D69079C91464FA1D99E651D0EAF606F345C42A8A1AA9BA391031582B96D5B4176A77AADB01F12FD298A75DEEBB2C82F0B8650E880722F8DDD90C56A7A058E5FDEF1AC93545BA27367C76F5D8F9690CB6F8DAE141EDD7971F0FB548A2AE435F224D6E5954CA155512F7332029D5A1230854B79F258EC5FFDB09
311
F5F6343A8EB193229B7F7E79B3E48F8E183860B38C8269D1B53738FF1E0BACF6AADA6D4869E9DE708E79B5DADCC09B1BC76F649731CFAF59A83FD8BAE4C749D66FA87A3810D4D62FFE826FA400C0F325D2BC0F3CA35F5847B82A2ACC7961745C823E4D863D54460AF792CE6F79B5C7A33B25C3AEA6CDE15A919B6367D781E9
311
D44F61BF828672594A3E1D9EDD6DF179A81F27EAC05B936575D73E05C209DDD2115CFB705DF9BBF3C911589B3640735E9E618FC9C36A7326C82B2205E244C55D56FDB9D5DC93CE958D4BF8174D2B3DA54CB3C09F2C2A6DFF73D23B2197355761AD421EC581284A7EF8DE2CE3497C0C804D49B41DFD6A7360844E5BEFFB495C
311
FCDB97A4595911CDBA623274CE852B5E278AF0BEB1770E9D37CD977B2766A7DED0E94B840E1E95E8C77DE5CB6354AF7871427C28ADBEEF7BA0A28E19DE9ACD75F379FE373EAE6DDDAE3834692F9C2B03B4FCA8FCA9ABE8EEEBEBB725B88A7C90941E850682CA04061A7DF0CE82ED49BFAFFD42C309818FAE14755CAAE78B0F
311
73243ECCCAD7DF58FCB9CDFAE7A4D3E6671A613639130D056C8383C8F4FCF4808C331E544DD26E4755D09EA05253B3049A1E32587CC25D72E073E2CD96D04A71BBCB0038FEC3F53D254199C3CDC67CD66640269431860225392B2CB3ECD0B4498AAE78BA1994246AE1EE78F2EDFB79F6C6CB6B5E279C4D373FBC21CB2698C9
311
ACBBEB6A4BB6B39E16AB0E421CCBFC7654D81ED86022F9BB522146F9F4772E2D0E4FA70120C95A85A417BF5078B232F4754363EB1750B2AC2148EB46B1EA72AD9B4D23ADCBC589D70106C3EC2ABEEED84DFE28E718C6C83502C28E9FDD3B09DA0A6F6F7B72B706A31C9E2A331EE70DA56A083D2177BFD63C55B11D8D949FAF
311
CF90B23A1E24B9B5018B9A17E99F2890EC302F330FE7936E2C23F0D237EC8916F5166AB84B62A21BB0B950146962D754F92CC2C8877BED8FC7B7B25726DD19545392570B3A2C66B58F027BEF412E552D12A588C4A3CC5C3193FCB3485EFFF700D0B9EEC077754A33DC1FB9E25AF814628F91DDFECB667D3F7690803F38D13F
311
8AE39353523BB08FC6760144AFA2CE28236F65EDBB3D5F59A57D612B99E3D7E5F8A851666BF9B5A6658EFC96EEB37A378ABB0EB3FDDF1303AF32C41BD1C8560745D7BD81066B0D6313359CF488563D3BA3F8E2185D1FAA3EBA1397C9D0E3DD232180A4DCADB6AF25DB3AC3CC26589C8239E66E81547BC7E2F328F9884764CA
311
37EB5DBE390DFC03A5246B456A7C3684C4377D0EEF9A350680FA9A077E8B2957B489E09AB1AD41316944C2254B5984830F691C93CAA767EECF976FA5647538830B5E63236A6F0365C1E0F3E327F24FE35EDDBD7360B0F7374837409F7A6311BECC12B7026D4FA1AE204FA3F5FE904B1F420C7A9044AE58E403E7C4848E7DA2
311
5DC9EDAC79DD756FAA26B9EA83ACE8A214A2612A22AFA19DAE7DBAC5F8CDE1292A485F98DAC731A29FE01A3966E96BCB9FB5A4C8830E1B9AF0C54B87FBE221A097036E5D28D1F869F810C06A9BB0AC0612F69AEBAF893C6E7AD59460208BAB3A6B09CA4F6BDDAB8CF0D1F84B72487498395A70DCD754796E271099A567A55C
311
F242BBED64696378BB6CF25EF0FCDB589F3A82F1116D010A9AB9FA4358809EE0C973A2B4229BAA876A70B03AB49CBA7FBE71DB1832FFD32F9BF2C8E98075CACAFB36921235D0F552B6A67E94E094097A5D7DF681B40623DA535ADA7A9AD8E9A62407D7C9A5AE51D62A17A83A23728DE86BB56115804D3F2675F2C6B87541A0
311
FC497BF0CA86420F558C9859EBE9FAD62747E323E3AADC03FDCDDFE7407B09DA90B44E3185723C5381EAEF589765E2F7A099BA46695BAD60CEF3491B8A171F5F56444F7CE9455312C3498C74173AEA0214EC029833B34B650CBB5A5508D5091665309642791708ECF27CF11DB3D797D6CFE474453BD4BFADB768094B214781
311
4D81C7CBAF8228DCAF5564B5891F5EF6A860EB2E323CB82AB868D8EA048880D63B0DE5341F1B3D53297B928A11E15F25E5148990F710747C3509ED14909C552EBE3973246FCE55D00564D8310BC3EBC5085D08D806799B77D6C57FDF5E55837F9E934F09C03C729271B64F12D0A9F9E938107CAF7BF1EC8CF1BB9B42363D33
311
070F4CACB425E605DDB0A34A12BB936DE286B9887A4E2E558F0886498BFF49C311D96C277CF6A9FC0D75AD0ECC5226D7E0E3572012E56D7FDE4410CEC7A6D0F997F225A2055B8B92E3956E875AE4993CB3D4C9063AF98FD45E1BAB165640A43439A2C9181A7C355B297C0A0CCFFAE19B6FA3C2BA238A885FBC98B8F6DAF4B9
311
4B97304878DF4D8BFF6A4AEDF79E90ED4E68F00CD7299F4E0D83E35601AF0CBEF18C1E870E74758FA91F5131075004DB3CFCF09AE1DABC11957FD9808C92E8A678CE9DBE40DDA0E0D1D505AAFBCBA208232BFB6FB3704E8985E61ADE53DE74152F5C7DE74B1DEDCD37DC3E8FB30D7EBA8B9EFFC3606BF90B8D438279CB7709
311
FC7C00D327F41817EEA71CD9E49FE9C8C9A81C70915D9F0F15958EC5AA4C3BBFAF46986B90F188BDB24B89DE3C6F29EC3E6F66D84856EE96A35E657CA41B41EFD8DBFA16AD6E91439EA92B40B21C053249F51AE50EB0B24C770FFAF40DF12C8436366819C48E36547D4E7B72FE2BBF10828583057814A668BDF183F6B2E58D
311
FB151103E56303E63D00F39C27C4661605DB644D19175D02E3F0241E8FC3458D17AAAADB117CE9EEA690D0DB01E634878C04C2C9310B69FCAB831151E3AD293BEF6E46B0ABCECB50F5939B39C613D41E81FAE8D34CAE3C4566B761D37185FE864AC32FCB71AEF39DAA5BAB88609BB980CD2F07A8F941653B529567726E2B2A
311
58D079DD57E1E5E31426CF184A04D7B03B985F276D47406AF276FE32E3328BA866EB1FD39BEF57863A317634AA5FE467409B3873F5069EF0D71AF00AD189D17BA1974ECDB2D623E9E14086386A6AAB5807825C37B015BFE892AFD154920EC437EB945D958E18622E1E0FE2FA06557CE4BB9BBD05A2D40E774DA2B65473791E
311
314B7D6C886820B2FCFE4AA272B3B8B15E7344A145E8AF919B5454D89D36D413E87211186BF6F645E5EC94DCCE8E1C799022E4EC9BC86D7A0F2AFB1FC4B2CE48F84B3F49ECE65BAD24CADCC07EFF39AB06BE9E6B27A059938EA7208838455383DDBCFCD967DDE4650EF92A14FF933C975DB20BD7FEEBC4487576485963D757
311
D16340D9599FEB362F775F38CA4185A86F74B629C81B133644A3B18FD056E997E0734F9BE26D11C0AAFC669E2AC9FC41D281F8B2E1C35AE27BCE05F3DA295488096688719D974DF1B5D182DB7792288697F8763CFB43562C1CDEE11C4AABD5C22B6E33F6F389CFC3477C5919DC0D533F8A7A1846B7ADB60ABDC26C43D0CFC8
311
910B7C15EE22675BD02702ED39DB77A87A192CA7A543E6205B979B9F5A6B512A3CA799E198B2D5797C0AF8D1D872CA455D4D431A7879D4DD76110B5FF7F4176B54477A9EB5E4A5D11214FDA585F0382751D8E2582BA5D2075053298FEB8F1537304E32CB22C2E2B693DC0A760B1DFCA751BDC445AFDCBB12820ED85F6D5298
311
933C7EF1211E9E057684056CDA3FEF3BB6052355E162DF27C59E965A8DDB7F9437EB72CDDA3A090DE65A5B2F50326247B7EC67B73ACC7047FC9B353D6EE990F772207C6EC52B39DC2F3C0754821DAB559F7C1809C7D0DD5B0499D0442E0A6E391B3D5DB46D11E731E6794EC77523FBDAA242ED67F9FA1FB684255671F63C9B
311
CFE6E7E896D51001A6113EF2298BA494E0B0980D1FA5B9D60796554C02256B1E0345FB7C6186B6A19D2DCA270416262845FA4F42DB5D9B0A0B6F07FCA2E56C242522E001E0CEB734AF310FC8BFB57E38E03AACE93B3326A2197891E68452B26A6307FDABFEE0223D3C03C3C73D2D5BC054C8311F12004CAE488E5C29287F81
311
56A2CAA4AD0D7BE6B97264E4139F437CE73ADF52E5134C52B819777C18B323A5924E4F67AFD13B1CDC3A61793A79FAF5C0CEB718E441071E797C6DCCB9EFCF7E4A1E9F3DF3C2F9C9E8294E9586868788C972857FB0556D7A26941A7EEB9B580AD78EC40B85DC906B4120A563CA3B87797ED612D3B035962BB75F6515A393F4
311
CB057F564CDF54F2E5A024514E6A1F901DB80C7E70B1FC05E356A7E72FABF4775B3E3FB8F70A2A8E7B6A94542BB304157978CCC999E707A29CC795E67A59CC546A5D47B368954CA7B6E75EC9E1F6FC73CE3B4F71F8CB1A6B15923D61EAAEB14626AAA9D04A26EB9C66CD1BE86CA31A5D8703DE04CD1EBCE4F5CCB62F93909A
311
D11E55799A781A956ED27D3E738F4538CB04ADABC7DAEF20BC35BA6A90BCC1DC61BA05F20D8832FFB9BC9B15E2DB838A0AFBB7E0C82A562127E0446894F427794C3037186F622BF24DE1B00AA10A23BFA47B2A180D6DA5AD6F7326FEB8C100C2D7142EB2A0B2A9D1008A09BA343D70E054AB69E2A7EDB783CBD92537FAF4A4
311
4D1296AC2792729104B3276C276C951D0CF3CF3F1E6B017720A7B8505A5FF9589365979678C36F1BAF759EAF57C60F1FF5FE9DCF5F8E764FF25A2D06CF25117A8FED51884C13B2B750DB0E4F5E3D64124FCF11F0AD8F1CC3B3DA4B38ED22BF1CB2585EE6BFEBBA63FBFD44F9537B9B37BDD6B358720F98A8125AED4349CCFE
311
B0E135F19E208A04CA7E2B10711185D72E381F448036EF57C9F874E54A971CA37A639E986AC0226DC5AA00D5B14FEA9192234B3DE617814FC221C92F33F1D392F297731B567FD98FD91D989379AF567A65B8ADF177591DB90FBEA99BF4ED11B16E50A0AB1DBF1156D034BBE04D69D08F939D8E92BF525A1DDAFF80ECBC95D8
311
F45D3FDD289FD23F7D8B452F8EBB34EC082DEEE68E18EDDF072060FAD2AB1504DD4879BF67099FC58F6E9DEFBF645D16334A3E9A127C6F1AF6132CF287E433B43A0EE93812B4AA0B194E03EE3FF91EF9C6ED0074A2F6EB18A96A7C9890B1FCDA1F2095E944DB911ED54C60DF16FB74C8CE9BDC7C54C4F14078CF73C2FFF1F1
311
BBCCD7CF64F71407EA1683DBC410D226627F66E509060D5C0AFD611DE681D509DB8DD12FB1265B03C6F5C55FF4C30BD94187FF692B4F152982502F193098A789526A038AB529A52BC0DC4FB6285CBAC10A8B8DB75DCD9BDABBB221E27D1F8DA9F5EE5926A1C8AA9BA9BC09239C6A7F12914EA3B59EFF7AAEC3FFCCE56F1C5C
311
2980AD072793527565E774F4631DB178CEEC691B1F367BEA0CF2907E1D6B854D527065979DDEF002D8B2ACEA7CE21AE297737EDE1D45B31233B73FEA35BCFDD0B09721FDBAF6432681F2FD10C3E9EFB246FD6E854B344ACC9D8A0EEF876A7314B49B6A499FC650B099D650DBFEC7638ADFD245E2B7839DA5AC5F7D5623FC0E
311
CEEC8653FC9B2BDD1AD4D00A566FBA7186DD3C9CD26512551637498CADB950FEC71ADB9A5524285DE328B8EC7EC75D2345AEC6A27C42AF6D9B92155315C80DBFCABBB7DA0FAE425C4FB896B15C9BFAC4FE67DF5A23D30C93DA4D8F36FB15D100050DA6062E22AEC5F4DAC4F6FEEF97AE05DE63C6D38F9E068A20BC5E3B6BCD
311
75320C5090924E7F93640A7735B1A43451C2D91EE62C6238B797349E59890AF3A520DF4A87095F3ABEC2E61F0593416CE46CDCBE0E00E2523FCCD04408588B5B6C9DB6459C786CE378770B54F51DA3A5E1DF2A3349BEAAC234A6CF8993B598B3B25B4B113E353A4D750FA7534749430F3EBF2512E7EA3FD43C6AB9A1F765A5
311
8463B306721A15D224FAFE8C6F5E3432D57EE697DA0DD5A9D4866A8BCCAAA9DFF1F06047851408FEC060471D0E3EB86BFAF46E4B5E60311DC3E3CEA147C75CF971BE74689507154FF2D2E92F15CDB2B9182B11459FD8ACAC5A85F174BC94A7F4EE4C4F5CAFA7C02E37BF0BC77B7DCD0C047BC316F562A01A441AFA7931CC84
311
A28CB9F4AA367EB515778F29BFE61195FA671F4352E5E46E3A64773F1F76EE5EB36D7BCE9BCEAD837A4D77F8DB8C92AEEF6711920D7C7D0F76B0FD0EB7AB83724CD35BCA7D36DDDF5FBB7FF6F04A91F3E2BB3B8F1A43CD659639507FF6331C5F697BCC782AE57D757A27D97F1AB9E0AEDB43F92F1B2AACDF5FEC8ADBAF9F81
311
4E2027003BA2F9E144B1938A7A04050AE5D953B82C45619165C813A10E76DD6906B3C16438064D14CDA713AEC420034613E1AC7241904A49FBF87409AFB1FCB9B72FE7933A87D8FBEDACECE4EDCF6A4FE9FB94D5DEB74FAB7CFEAE17EE965DF980DCCA2D04134994F9A2E94D2265DA4FE6AA7B7AC15FACAC2B5ABBCD7DFF54
311
2C5314FDAB2E1B9D8B65220B8E2B638BE008E8DCA22678C820C5053664D15E89F2D735B51A84955E81A443545E9FF787BE0FA700A76D136C27DA179A7C6E8939E01BE756E19CB292798063D8B97F44E8A27BCF3A614FEB8BE974A718E86F7EC99B53CA35FA24F61F2B07266684623A3D4CF073E511F3A10A8FDAFAF0078C57
311
7F4DF9D339FE7862E5FA47CF4344209E5BF76D783B1B48E152AD281B15FCB934DCDA49CEC5706B1EE8B460F435324A5CAD154725E21AB8044B75A557A79F6C807B9340AA3D92503E866F4274412926C8C504E4D5EF8C0E68DD0B028781A6B4054F11CF18941F101C57CCC796773ABC8DED9CD91FE5788806C05E548895354A
311
EAC96546D55B0E94A59F148D061F42AA398D822CDECA4CDE79E13469BDCC44FDC990F366BA5978C15F97ED80CBFD73B0CD9B8B83A4F6845BDFBFAF034019473FB9A63BD55D3A4A7284757071574029A4D016DCCBE95DD679EF3C4880BF169422F8C89B68A988D2B13793CAED4F74DE7486C72DC94DF46B8E93D8E02EFCB1FF
311
9B3BA10C8AE7F653DF94F4AF466CDDCEF5776687F7C4C14B63E4EED1719DC2EC482D7DBCC7AE518CDE3D5FF86D39000EC3673C0044E1D308BF05F74D1B5F033A7D1BE7F74BC55BBE3E4A20F920946CA0271EB17BD2B80E5660ACB8A29A79F5E4BBA49D4D945B6EEF4A7EFEAA65E5555BBB57A7E15D2F83C69F30BBB978D2B3
311
9F1F26FC097424D39BB33CA3D87ABF64E307938B685BAD44F71556A30B7E712CA4FE600613C3E554B69ADE949A7CFE214DF1FFF05CB82151EC6FC31950239F94CF7AD39DC473F6EA356E5EC2C4EFA04383CEFE985A127484366FBEE3C0EC4FEA363E4F6632AE781392FD45D67B63FB8DF70E82734F431FD3443172A0E30A83
311
D60982D55FA6A2CF86DBA8382502ACC6CDEF3B907982EED1160E14863FA242F9757347E1544275CCDCF71ECD5F8621CBEA326B8BA884AD7F825781923E66971F04010D574C541D8427A438A37EEF8AF88240EED7362C953F5A81DE2D56109CDE2524EA0F5D2F87308C0C47BD97AD605878AB8589E17CA83930CB5E0DCCD758
311
53D68B1AB136594926DE426C367428E9334AFAFF90ECE221BB5DC9E5BB53D2CDEF954EAA9CD814F0E5725F1965DD458E5F8487683AD86B9D0076BE3EE91EB1CECC5331A67A3F79D8B27587C12EC2A6A70474749F27B4C0BBAFB94B34189E88DC18964BE4121B9137FD516C7755356E50D6714E31ACD222621EBBCD1CFF81D8
311
7479056A9DA0E0B8EA19D24CF937DA89F78E8650CCBDC110AAB6C4E46DCBFD0446BA9E2060E81F314AC2031E88135E5476AC0160EF5C0DD2EEF1B8B5CB2D198BE9A554A9093B5F7D7E4B5407DDFCA1D9C152FD97F55BFFFDFE802954DFEC8995B983E28AC92F1971E28F531DC407A1280EB125F64A72E617EFB27DFBCEDCDA
311
2D6F2BDADA36873EE46B9BE1782998C63DA7182BC383FB6FD15DA472B175D7E8B4FC88F38D6E07FEAA3FA3CBB8F6B449ECF14D2175E5C5CCA3A42ABF24CA6C9395AF74535F4DDB38CB84F56614B0FD32D7E19CA5CF988DB4449C40E23DF2B16772594554579094450F56F253CD25EA7F77366FB1CFE79696C428BB64D5A41E
311
986189427E5E4D7E2DAE3D5BB4972B3DC44EAABDDDD63A2264ECFA5C786EB0EE1FDC5BE34FA0F08376869FD1E61EA06CAE15191135445EE8F0394161C3266A596AA035572BB0C8876180D8B9C77D307DF9DCDF7365ABDA6F3A2366436457A4DFC1F259666569A9E4A79C817BDD5610E5200FCE894A358EC72858D50EF67545
311
DA81C6FACE3D457BAF70367E1E6BDD9A952FB4F56247F58F523B97E640246051A72F79BE42FFA0B3187F63097F91C48B868586F714B0EBD5A00A8412C1236E1298F60C72BE6C96B82B404CADAA304AE9F303176B14BA53FBC2D5E86377E35542019E24D97B96A49B2C0E5006E7795954DEAF5DA58958839043C6C70BD3B1B3
311
3B6DC5C31316D8A6923F142E26F6711A2258AF977DDF1F970ECC4F1F2B434B96D81BEB6E89BF3BBB3C7C8CC80505070723D6D7D7D3C8CA27CA164A26024FED94B12A86031867241DA53D929636DA600F050BC40CE48B8BA03D69224720DEE2ED2127390BDF5E6EA64527BBD4C4C63FA76BB801FEEC0E61218EC98A8A86CD83
311
13781617877E66692839B9468CF4DB8E50A73986E558E309C0D6F676F921BE02F1185454DC75B111572FF9D27D85EA14C05AD7271225B391C4275659CA4A43759D0BA44639BE4C30A84DB7F67A41399FB95CBF923B1B1672ABC807C1590557FB18D811983FA97F5E609516D62281D38B1281F68FC75528C35E4CD7DF0F7DBB
311
5E5DD69C414EBEA2F4A5B241B996BA77AE6C772E367408C633EA3E438B68563EA8BE7667F3A4C4FDEEA52ABD78A2820F443B7914A15F180018D231E64519C56A12F6CA7C8DAE18F06F6B769DBF92329EF6A5D18FBCE600F36BD8E8198DE5CDAA96181F3A756EBA5501CEE58F497EA4F418A2B82565B9BCC611713C0B708CCA
311
1F398B78C5F7D03B3437CC18F13061F55C7BEDADD5ACB1DB0E36D3CE47FF6EA1A563A57E9649EA5D14D1A50EAA457463381C073777EF1600607BAF6428A7DDC079D47A204EF1E1F1F0589FB054D45E02CE623B3823C317C601E589E22B1E88B448524B86A82828E32345EC18AE17214B42F8C41C6D428016D9BA31DDCB4757
311
2561E5A402E5BA4FCE55F78AF7268524AA04130F3A20BA5D1E9F9948EA48FC8F5314FDB35E21898198060034ACE5E3E2BBCA34092518F275190AF65F45867FF0900AA4B81F25427414C372BF51DC29AA855C5428EE1EEDD6B849AD60F6E73475C2D2523F8A2772C840A478DED18A8C5C91B085F255DC4F54EA7AA8947354FD
311
17ECF8FB3B4A0DE7B483CAF3A1165EE05BBA413E5C1FEF3DE1D6B8F2F3F3251C17D9FCAB48A9AAF63AC773A0E413BBC46A9ADF84A566FC920E4D8C52C9769EE3301CADEEEDD92B312E02E2A7E35B7F1E7D203FE5A7D75578B06E99D0E46FFADB8FDA17ED8880390DA29094202D6F645F76F6F96409CDA05495A96E84B04A00
311
D1A6C6C81D7F3DE9376E828CCF144EE50E364ACCE7237EA0BFB5607ED1AC3CFE73794E5B61739D14DF1743441B1AC98F00ECEDE9E7301FA29755FBEFA68C91EF2B314CF510537EF1ABFC9A762496280B546F5EDAAF8A5B387D469FC9A878A92828C88608453ACEC6094DCA54111E7AD5B2663DFE2DD151B7F123B9F4FEF8EE
311
36AB125FD7AD52A59B1B765B3E3F73E3F73DEA93875004D2AFFE3CDE9493B87A9904DD052028949041A91DC0E1BA47BA714343FD5B25E0A6A09503AFC17C790058A836A324FE31D7893512E28230332F153181C1E018E1124EBE1BA262AA428A518237D1EA7275E48C5C561BD19ED6912EDD8367DA0F31E40EEAE9683DA925
311
7525AEA7B632B97119E17145A90231768A4F3B9120FF32E8319B015E3CBE26F1A754177D8185345817C096B0CE443A955D13AC15E1FB5DEEA0239EC32A3C92241A237B0B02FFCB4F93CF2B02570C8D192E2F2A68CEEB42F12E6F8CEEFF46C251E22B4341C56FB08CCE550E7A9D6F4D6564B9EA52A83D5BF2C6E03FA19D2775
311
E15A8A7ACF30A13C259EE7F5EF2AC3BA354F1500E1A07FC63FB4686E2F12EC69719F9ECF5FE3F35598DF2CE944008CE78F0911BA5BE5D0A34E0098FF038669C26030BA9B300303039852A8F6F496341737CA7E0D2E3AAA36DE0A70AA7D9CA0D54D9AD84B18A44C9E625475E1C97B93BEBB38DCE7D227E67A2D00F531436136
311
355F243D1FC0D712C5765754FA22FCFFAE97919161F46D6E61ACB37D83777B385889770B50765B127768443A5C4D3A4E35A3151111F146B7CA116F918A049F1C272F2CD7976C69A0068773451659A97E0F4A08FE604C3FF6CE7385DB19F4D3ABC8A0D80DA8A42096AC377DB49382B36E270B6FA7570188B4B7D1DDDDA82ACA
311
487CCA5D38BD3BD039ADBAFA4ACFF27809239B722081E2EB9F145320553D183F28471C388BC8814E5045676767AB58A8E72D1CED2CA731379515D2E533E4CF0B39DFC625F97AC4836831A4DE330E87A8126FA17EBE583D614E71E22A8DBF2825599743E0640037303E8E1B1E8EA4E1ABFA4F62907B5E4E0E5DCFDAB417C36C
311
6848A2B8D15F1E505434C0707E16B1CFC2A1C36A42BBF55734F8F4301DDC2A5110CEE8C0747F69519265012A2174BF4E955ECD4FDE095A3ABC70536B7AD0B9D7892F81287D667C108703C9B66A221E9A0929D030008F77FF6F5D2108EF5706FC87A3069B976F7C9FC3239D13D283CDEA83597461079FEEE049B0F392889898
311
B7D87D31F8D60ED7B56B91823A8E4EDDB36C6172ECEE42BD42B12CD67994FA0F0DFAE9389356F4CD4425A4B8AA55CBF7ECD585C6A2C2316791E43D5C06841ADBB226A87FD61515FFBB0167B74E56BD7F3E90A57A97FEDCBDF483A0D6699A8C0849CAEB4947FAA90D8E332D9DEBD9F4738C37DA0CAF9CF3DAA68BCB67C42045
311
9C7A64498D6E848E5CADE92BB6901F607AA331104A67F7CD650EE169B1DAE94D2C31C2F993632259B6957E246EFE4C5481107B07118607700040E5812A2A2A38DA0076875258C753F60E0F2662C748EDD5F3F3686B8FC3BD6FE631ECCAA1E8B1C1E565AD117E54893E79F4672E32F9E46B2A183DFDCF3EECB4D4D077DBEA0D
311
A254D256045109670050129E9B9B1A9E4A11344D61497A992778095151510C4BB7EF2009B63AA4360635312E4CF668B7E0D3D85A8688E2BD83B569439892ADB63461930D428E0DE42E4AC57CE48DA5CC1449530D8BD3D6A0F08DF20C8E8F570F2CFFFCEA286E30969B4654D498A58D9DA782E19FE3F002181838925592C4A1
311
EF0B332D88B61A92C644547BED490D3A42CFFAB70E36D961F694F6307F72FF15A1C79D5B1B5CEFD353D9E2B52566DEC8F8F09CB3E8359C0F68EBBB7898243E34E12A015B2685AB303C04D3A9E00671FF3DFF0A184E4A2ABEB2B666AF5B3A209C73D8EF29DCDB069C9F391EEE9DD0F74C7BCDE16F8F02E3B8816122BBEB5066
311
5775B600549D8BB33A54A6BF940C028118BC6878C79958D6784F9DEAA6E26748386FFAF8D0D0101E2847B6563F5D8DC1D78F787BE00E2C941AE12148D4A81599FE8F68D4DA5CDED75530ADE138240300EE13B0FC13A1687FED6774662C05A2B7DFB186732F0D7A93545D8B0A6390AE5054D9CB582DA846D7A061B3358B45E2
311
B52DDE63E114397EDB7E09233A579155D795BE76102CF277F4DF8B188C4F2879BEAE3C08347124BF9ED23B128259FE107D31E34A652F090B30B39E0D9AF917B76A2806135621A8A60681F16AF216514BBD02711585B5B1AE823F4B2D0369EA5B6BCB863072727FFC871CA6C9AB79A814D989057E9470A3D238BC87CBB4A0EA
311
49AFE2B86F22E499793CAA9047080450166BDC357524561E258C77CB697F1ABB32562CF87C3B7AA12F911EF19FB3E5C02222E887D08202A60A17151F5E053A86B437771088B4FEE14D652C43E8D939995D34545E12E2FF93D4E366EAD25F10CB7DED141563C3D0C447AF06078A91135FD4B9611583CB4BF3BD167F2399CEAB
311
0E0100F8FFC305F00F1711717173138B4B48C83022295DE657EFEDD97F238ECA80F528AFB4F8D67AD4E2594B9A3AA86D7487EFC313BA95745C186F0CDD84CC12DC9CB0424B42203D351FD9C0A3AF10CC7F388E0329279087386421F194F4A29464C1DEF7EF8BE515E4A199DCD5B909342598D8FE6A231F71336248D5CEC545
311
4455C7BE383B3BC7B260FED27F703FDC39A170F3827239102F59D4DEE7FEF82EAA1A5E4BA94DCC4CC44E7E2EDE20F24244E4454369D2E87C3F823F193FD4FD27E1C23984B01898D15ABC20711A8A558054951A6AE280096BA36CBA439603B7B0B4C45F248C14B2383B4B5CD8ECECE4FF859AD4A6CA2326D020EF090F4041D2
311
8DB66E5256B56232CC52829DE8060BAE6BBF37D4B7469B822454FE93210A3E8D15E69FFCF01123222611C51C4FD0A041A0CFA2471CF6BE38D2B20FA4C3525B5B8B586759475CF80ADFE67A284AC24651E52B8E683D24C2622642F27E7C3C22783BCF63648BC398BD6CD0D9C97E7E7E3EACB6126DB7A6C1FD9F1031302EE67E
311
D96F22B77C7CA0239BB324207559B105E4693EB26EC46182A92C9C0DBD24F29B31C5C5AC1F84300E0E17CEEAC15F5736FA4A98971E2F1423BFCD68D4BBD5F86E74B40A369F39507C88FCDB35D2DD8DEBEA4AF999E23CF2816D204200DF6E611781B9884C1AC8888B4DE397320472959434323A5A36B22A8E1F721A270DF3BD
311
65E4A31C11FF048AFB0D8B7B6881423793963A23CFCE935FC189ED36FAE35C46DA3574C979E4394BE52084F3081837BE033396D2EBD80F1F691B273F660D2B32FA27A33B1DE4ADA5F0FA4651511102DFA410DDA86E065272CA314D5249DF91B06BB92807B28EFD54F08F7B525252782CD276DD02E6B0319B13DF87B1F6361A
311
D6B28FC0D711CF445429B9E5A433CD493051C49A9E03DDB1B147D880253514A5DED88009018620EE229101C041950E2D8AA8E1F5F5438E0C0C0C60EEDEE9E3E0C051948C69F84BB7B2A48A1F3C8EB9E6864687F4F4F6F6E2FA87608ADAF9C5E117B7C1A737E710769DA1D15ECE6A84502AA855398712D5FB51BE92E4EF8249
311
69CE18278798AC303C2C7980DD2500ADF8FB1E6D6C2FAAFF9987178923334A244758BAA01A9A1B70FA5097D01E1CC2A58DAD0EC94CE6430AA9B0C10D75E3C6BAC670EFBADEE1607739CE0FC18A2587E3EC3058562014C64219C69BC269082D5C2F4A659278D585755912176D78A1B641719C2A394CED495A1AC5D583FD2F5E
311
DD93308EA7EAE8A6DD396598BDBD3D4CFED62D18A5BDFDE0DD5C80D1A89BA62697B131AE7CE9A6594138582F1B37D68F1749AC7CB67A70695D48A4A056AC1FBD4E82358CEAE38F54B95A9016F9000F9879C0D9D131768635CA798895F27D6F1614F11F2838A83611AA51C9A3DDB539D42979C29F10465655C17BEC3E2760B8
311
0DCBF609198C7B171A531905F3EC218D696025975E986C6B4C666666787271F202805577DD5A3EF0CAFAF91B62DC4B2DB4217A7606282F31D8DDBC290593BAA93EA6353AFA9939B877978481E15CFC9F2755CDC00C538F63A4BA3E80AE009B73CA0185687D339A507D165B74290D6EE46D5C58148F020C3668ABE9EF2F7549
311
170DC80DB41FFC1D678FF19AEB10C7133832B104B80F691B3138F97A92D26E551F1F110400D45AC71A9B9AC41A1A1B1DAEED0B0810638EFFB511D46B121C6FEA0F38CD00E03CFFEB9713FE1F9C263E4DDEC160D0497FA9A132BA608584057FB15380825DE6C7FC3C667EE947D488A09898D8E939C4953BF4EC9836344D2CC6
311
B2971B2A21A572B06096F4982D2CC7232D46E8EA69DC83722E267754D777F97F96D5DA74E1E75178084D0E70F12AD33E5F71EF2AFA599B2BEBF60A5BE475F444F240CBFE8143C334E7ED9150FEEFEF7EB020C4DBED388DD1D6A167A76F3CBF119B578AE8CFA7736ACAFA4440A1C47185638A0D2F3EB5BDDEFDA958FB13CE4A
311
A4923D5BF840392D45544329525749734866684BF7F8D9D54D892E19BCA9F829A0F8BFCBEEA6CFDFC61D74EA1A645ED7A1FF241739F15694BD835B66FEC5677E40FE69BD3F91AE402F036537218A401CB0828604AD189E575015C6F3F6BBC8AC79CF6C70653847254B31551EFCBEB5978B9DB85D58D0FA41A9DFE9C624834A
311
A04949D24B5AE6D299E072D152D12097920F14AA92C31C3B97E28B6C2E6E9C23D63043ECBBC0A60FDF5BD0C33C127EA8A3308B8B6AFFEB28B4455BF6E7AF4FC6222728357EB8E46E85053E6A8843AB23295BF838ABDA94658FEF3F832F147046B4ACD6F7D48E8FCC9618582961C898D1C7A253C91BFECBDA6BA18A1FCF7075
311
5DCCEE2222F41B76D23CA98D0CB3D95F0CF66D57FFF65E2A90F5DF40FC3187621E981BD0BC1D992787212688976B94A8F0C6EF646624B570B78E068826F87CE27041A95C9A4871FF65CC17FCB1639629AD6A9517000D63AC231F3D741CB8430777E7ECF80CE7A3F73C0F162F7E56AA71F4DA80A33CD6ACEE78E2C11FAC03DA
311
FCE929B106F8F6B3ED2DC71FF994BD9CEF4E9A94896EF1B6E2B7B4978168BCF0847A3D2A4F1B0500B926E634B174548E9FBAD27153FB5FC36799B1E6C7C38A94E1F9E996796D7B485E635D5287A2AE76FBD11A341DB3F8F810385BB7296391973DC6C37C452A9305AEBBE0CDB6C566DB59FE60C8E94B1FD090354BF51439FF
311
D1B48D725228FFA88C84F686F547107A7A235665A4593B7C34D748C1AC8D56DD5DA861EEFBADDECBBD65117E65851F90351AEB65F0EFCFF4BCFEF24CB7A5879699FAC437A7AF9099186CF006BB923A59E37D7A36A29FD8D2CBB914A5E9D0A8FD212FBF796AE9A67958FF1D5D8B85F78F96219D4714EB919929241B6C018AAE
311
0C02069F8D919961EC5DDFBFB7573E3AC8E08BFB7C8534BE6DE045B3CD63DBD71F7638BA2309CAE398EA3A7D8F98BBBC7AEB367EFA5CFA27A9F8F2F52FE878058E6209C026453F8E7E8A237DFC389E9590F6059B397CFD65183BBF936E86896612A5B5FEE49DAC8455D026218AFEBEC12B3523A45B57B82C9C97E02ACFA118
311
4DB18E48CF615DBF39C3CC6F0B4AE6BBEEA2E39D944E290302FA3DE33FA7E40296E2EF7BF1CD855BBECFAD0FD622BEE9746FC4FDFDE545AE6E3BC234CADF83A0FB76DFB145BF3828AE3436368AC24989454F8FF70A177672C711CAA1A76107218CF948CA01F873520E7A2B118EBB161ABAD432932029628B6761590C98AB59
311
0C8C8C79798CE9F715BA696E839E9131A4BB68BE923F1747FBFF165331FFDD4D05997ACD168F12CA75348DAC04C7F509FE83898A8B421181AF492861CE81E4A2DD0A30850CFA95E05F097FF70F9E777310D584A75BA7018922E271DAB1D785671157685B7D383D3E074DDB4F1E44EF04B07BAAC75A062077C54B9752C738C9
311
D804D402E02851F3F89605AF189738C18C021D2139EAF72513824E10DDD3047BACC8521ED7E98B257D1166903B1B08FA6F918FD7E162913FEC7D0EF4787E29C35FBA8C6E2C9C20E9AB30AE42CA2A01A090E7D010C1B5BF9CEE2A304BF3A987FB40D836979B79E18D70F257DA61E808472DD85B82761825779D6B90CAEB0F23
311
360C6F80A7D7D77545E95B3DFF0CF96A827F9B5BCECD2C9698718417EF80FEEDEE938AFF55859D0D540B7FE09435583A6F04874A0C7E8CF234DF4879722000167F5872CEC6BF3EF7E5A8CC8121E6A359227C8A29C95212F9F735BC72A887D56B8F309FC525BFB4FD767AAEC4AEFF249CFBBD2DE1AB9969A6155C7D8DABC307
311
E47324C1F916C7BCFF40ABA5644E9FFB9238D19ADADA49D9610F01ABBA57E4DFCBDCCBB2B93C8953206C91DE01B0E2651A6D6C31721915B31F7B7CBCE55466F6D70402788FA91D73BE4ADCBA99A35F17D6B83383704917D6833F0FA3CD45C926ADB8BC17999A4A0AFBCE2541F7B8CF4C2F5FBA611B3E626D64407CB32C122D
311
FF4EF8674D6EDBB86C8F7C6A16D50FA685E2CCA34F8F7D1D8265BB0042E9D7F1F666F7BE5FAA5184DF58E12122A42EF02F461B3F369AC746F96528AD208512AB56844CF75B97F352DF7995024FB02855385854F3798670D01CAC771AC3E1889EC25F61A20C1F8CAB46898817F9C47E2CDA1F286BF2F358298709FE567C9113
311
3E2638C8B53975E753EA8BFD3578B5F7186B7BF084EBA3F77BAC3132A5779902EC22AF2D2E79F42D324E083386DAEE9810D1B44A5DAA54513C7A71E52A4AB9257D975B621308FE4D2141CC3DCFE946C154A3C1DFCCA7629EC69ACFA831634ADDA93C0388D2A9A2DDAFCF957C6995BCE7FBB6DC4EBAE79E63EB08E9A25F52F6
311
7076F7093CA545CA3053B5BF576DEAD4E0017143C5F759F32B2D6F145B52B67B48909B7C7FCA6586EE385A2189C16932CB6DDFD9152AE317C430492A578ED27B72D85D40C7C93C097939E1B50F4D67F05334FE9DC362C30B7FF561B95259138ECFD9274C8D695C31B14D4EAA9F3D7FA8DDF652F8C5DEFA23284C799B7D9441
311
6DEE81E05A866302DC70192A5368EA65E1CED8BF107A1E2D3119A71E85DC1A7B0C1E93274CE04DD0F2ABC8AC7C987FDB002B6F81757B43502EF7A0D92E416494FAEEA4C9C090CD9557AA4D532F4996A272B94355C5A0E4974EEA9627476F30809B94D8D8D860062E02204643BEC7D0438AF800FC7E2B26955D595421E83C69
311
E1A07E0E3122285835F014AD538188CF9737CE76D464A353FA55A001AB2526B84E985083693BC76FE211CA1D000679C889E3C009832C87E1AC2EDD05C302557422DF0800E316FCAC86978A371F025A6C7DAA9F333E7BD160403A1A06EA75AA9888FF01504B03041400060808008988585728BB58AF800100009E0500003D00
311
000038354637383336462D363745332D343833422D413635302D3338464645333444383832442F536368656D61732F436F6D6D6F6E536368656D612E786D6CBD544D4FC23018BEFB2B96DE15493C78601010A34B880709DEDFB52FD0D8B54BD70DF6EFED3AC0B12E6442E2716BFB3CEFF3D18E26FB440405EA8C2B1992E1C3
311
23095052C5B8DC842437EBFB673219DF8DA659866649B798C078B48AE6410122242F2A4994AC7F93815DF85C049C8564CA0A901499DD886B2EB9B1E02448F358701A9235880C49A0119892A20C89D1B9FD768815CAD268CB5E0355B40B1E47F3E37A2020464BED06AA57CE8FCC20C3C3446D46761A2632A8C1283D07031EFF
311
2AE7CCB1BFEEE916E406DFAC8E36FFD99A9D60A6944090EEDC3B670C7DC13DE86B6B2C5C240D6E503BB85ACD579D513F1B9F9A69DC9CC22AFA80C426D40AF0B21EA168559156B6276F0F726A6BFF04DCD513A87A62CAD41FB24FCB2858B3952E3D852084DA25B9303C15687973CC8E8AAE11DF2836C38C6A9E765E8C1BA1BF
311
B1DC29CDFE518C8B5A7655A4ED7E77291ABEB80DBD82EC866ADE1B8D05AF9E35CF09D7A061F38A986D9EC412B8F0F65E5D81534D9B231D1E5A8FE577A241F3A5FD01504B030414000608080089885857E336299B9F040000341300003E00000038354637383336462D363745332D343833422D413635302D33384646453334
311
44383832442F536368656D61732F47656E65726963536368656D612E786D6CD5585B6FE238147EDF5F61E5BD1498E9A895A02398AA5D1E2A5665BAAF96710C78D6B9C87168D95FBFE7F81242134A968E469A4855437C72AEDFB965F4F53551642B7421B3741C0D7AFD88889467B14CD7E3A834AB8BEBE8EBED1FA3495108B3
311
E01B91B0DBD1F3EC8E6C991A470F22155A72F73CBABC1D4D5921DCD1934863A11F990102A6F61466977B8AC49FB13C174CB3940BE4504A22E3713489B7F82406516225536940BD88E4E552493E8E564C1522225AB0384BD56E1C195DC26FAB13882C2EBD62E1FF9E5B0FCC453132C99548446A1872B62267078F1EF14C3DB1
311
DD1952DDBBB384AD456779F387C51992E0ADCE12FED2622BC5CB1952FC9BDF3295E9206E961AB116DA7ACE45F76F07A26EFC3FD762FD7362FC3C0BAA4DB34C09E682CA5167BADCD16CF94370E331E2F1A3D852008AAD5D64BA2373478338AEB1583B905396D158182655E1B938D07926CF007CC7E85E6709999B0D3827C0BF
311
406BEF55C68CF5579DA32C8C85BE03EFE788787E8FEC95DC85C3E31A615658D81F9A34499612004CE69CAB12531B15A887ACA642C110F8C1A8C1974A85853F407794695C905C688E69B116550ACA946B9B4785FC179E0E229240B62665328E86D5BD2C800CF5D80289F35AC25E3DD51508F4BF9A74A0F5A557BB3D284BC6FF
311
59312E282F956A75C5D453906F48D11A876599E49425602400842995BDF02C4D012E226658F78A710416AC552831FDDEF0E6F0BABEBEA9DC36718CCEF4DAC5A0DF871AECBDD8F448F015F8DA113A473609D1751672B723874B2CAB21ECD6E284E51DCC7D1A47A00F60EC21DC4CC3CDC406DC03760A4E6C772F2F4D561A9AE5
311
8C4B03F5B4838701472139EDCB36819A66C472B52AB1139C648956F43E0DAEC067B56B0818F5961D3D446B8F1E1E78C0EAD7EE02AF2895D813E88AC5014A7B436DBB20F778D40A1D9737EFE45B47D49CC8360F9966B15AABAC802C1005548A93EE469F5D55317CD8BF0AA86CABADB2A009D4D6F60CFE53AE370AFE8C45415B
311
15D362A5A038E766E34B00F8C2E3E7098E2093B1C96349FDAEA158903B4BDAEA665F473FECE72186E3BDDCACCADA31839CD6D4FA7D47DF5469006ED340EBE71DF960DDEE88A3E17557039B58C278A1795BA8079419DA8FC5BA1BAA1A66238BF69C7B2BE4E6274839122B7D00BE8B7D52CF61B2D63216046008C8B330FC10F8
311
907787DEF061F47965BBA02FD8F53BA12F9827614979F53563D0BB1AD67A03DC0E00E2FB2CF3EFB457E70E65A3D7C78E7D700DBB45132AE9BBA5E468CD861408961AD8B00A55C2FCC677F4456039FD9F1907A5B3E2D0EE845FDBA2DAFA88C64195671AD6D282DA2E45B1F50A0D632B0D0B6718757DCC7C84A70A3656F222CD
311
A6DBF07E204AB358961D1BE31E53A82C2C0D56DBF61A5608B5A252A932A1DC6E32462430853353EA30417C8199A662E946A4EF352268B8CDB9A9C6762515ACE8E09BBC031C608A02C4BA89C9DDC074E46E0E26A17BCBD4ED43270D03E3645ADB81F6D62CC07A3243EB81C07E01681DDF2DB4730631E6DDA6CBBD048BE9F06A
311
EB3CF06B31DD6C9575E37E9FF17161342C4C76D95519672A6509E0F5C4E71B4B1916440059F57D0921F496237E473A83E3E4E06353BD9D27593594D7B6707C08D22FEBDFBFFE03504B0304140006080800898858578DFFFC99640100009B0300004500000038354637383336462D363745332D343833422D413635302D3338
311
464645333444383832442F536368656D61732F52656E6465724D6174657269616C536368656D612E786D6CA5535D6BC230147DDFAF08799F5FDB600FADA20EA430D968A7AF12D36B1B481349529DFF7EF9A85A718860DFDA73EFB987734EA3D16FC5D10E946652C4B8DFE9610482CA9C8922C6B5D93CBFE3D1F0291A6B0D26
311
A3255464182D920FB4233CC629881CD49C18508CF000E3EE309A100D61622AAB4A8A33B2483F11CB639C545B0E1508438C3D3C0361192846DB7ACD198DF186700D182920B914FC1063A36AFBEE8FBA03FFD3CC1D1F4FC9E151A2AF59F628C5B7821D83FDFD3489305080F2EE04BF962195FB285E9D2DD352320A9E827AE357
311
594914E42B1F5FE35F83688F60C4C91A6C946ED0668E8F244BC2EB0BA6E3BCCFC0B6A4B507F9F9F8D51EB315D9BA9E08D308E89F96931666E577837E2B4172199C68C4FE306156D47DF51C698C7B9D97FE5BEFE2190C3C38BB054E6E8163FB039CB4B993C80BF18D969203116D6BBD26238B821F9BB909AD6D9C71B85BCD8C
311
33D66FEA3D31B4BC0AD45BEA46BBEDDFEC0F504B03041400060808008988585754FD178E51000000570000004700000038354637383336462D363745332D343833422D413635302D3338464645333444383832442F4173736574446174612F41737365745461626C654F66436F6E74656E74732E62696E5361606070327375
311
B4303436D475367631D035313034D6B53432B1D075337432B7347476733537311202AACB4D2C492DCA4CCC492C28484D2C4ACC4B4E050A82012F90744FCD03CA26072767A4E6260200504B030414000608080089885857C55C663656000000680000004500000038354637383336462D363745332D343833422D413635302D
311
3338464645333444383832442F4173736574446174612F53747265616D56657273696F6E5461626C652E696E665D8CBD0A80300C06F73E4B29FE6CDD8A2E82A083B8B7F209014925C9FBA3AEAEC7DD2555D896CB85E51C2A1BD834F6A1F56EC4494C4695278364ABB24ABD2146F88CCEBB89D5321FF8F3F43D672A3B44DF3C
311
B6A1710F504B030414000608080089885857E21E1C6037010000A20400003600000038354637383336462D363745332D343833422D413635302D3338464645333444383832442F4173736574446174612F636E782E786D6CCD94314FC3301085FF4A64893176122A0195E30AC1D209242A06B6AB7329561D3BB22F08FE3D76
311
9B0154C4D4A1EBE9BBBBE727BF93ABCFC1161F18A2F1AE6535AF58814EFBCEB85DCB26EACB5B56AC940CDED30F8C150E066C592E332577C14FE35CEAB087C9E6AA356E3F17EF6344DAC0D6E253FFE01DA1A3C80A6D21C69645FD8E037098C87718F7BC03025EF380D14F41639A4466C079920E08841D534DD55C977555368B
311
4D7DB3AC16CBFAEE4D8A4C2AB9F5DECEBC49CB821FAF9A4A1FF7325549910125A760662ABF86A9BF54F2AD71522452C94821B93277D0D7983A601CADD140C93CE1352195094218A438C24A8AECC22F2F1EB137CEE496759206E4C3731288810C5EA027FFA93DBF376B17099CC64B76E454E3F97D7839FCA2D7632C0FB9B9BC
311
B49C6AE4C6F567C88A389C93149D7C5DD437504B030414000608080089885857A58B4605E7000000600100006700000038354637383336462D363745332D343833422D413635302D3338464645333444383832442F5265736F75726365732F42364541383133312D433344302D343031332D393234382D4631423739314346
311
453734322F7468756D626E61696C2F302F636E782E786D6C4D90C16EC4200C447F2542EA3181A42BB55D39EC4FF4D44B458937454B300253B57F5F6839EC69ACF193E519B87C1F7EF8C2941D8555CC931203064B9B0BFB2A0A5FC767315C342422BEC3C410CC81AB68B6D0B0272AB15B1B5E4DF1CDF52EDCBAB963C0E4EC7B
311
0CBB18AC3739AF22DB4F3CCC640AD386F9366D86CD344F09339564B11E6077603F60131AC64DE8452D8FE3ACC6E5F43A3F9DD5E93CBFBC816CA4860F22DF79171813C5874559AA63A8FF28900DD05092EB540B21F4DD7320EB5243E654F377887F62854C8CDE59C3B526499691C70AA13940FEC31A64CB5BE5AF8CAAAD1BFD
311
0B504B030414000608080089885857A233C2345D000000800000006500000038354637383336462D363745332D343833422D413635302D3338464645333444383832442F5265736F75726365732F42364541383133312D433344302D343031332D393234382D4631423739314346453734322F7468756D626E61696C2F636E
311
782E786D6C4D8B490E80201004BF42E6EE76F3C0F216234B883063108CCF170C074F95AE5473F5C4C06E932E4F28601967600677D21E9D8092EDB002539227A2FCCB80E1168D80A6417297A89C5D6963B7129A0D1E8F2EE73AA7B62BBEB8B27DE50B504B030414000608080089885857BE89762363000000880000005B0000
311
0038354637383336462D363745332D343833422D413635302D3338464645333444383832442F5265736F75726365732F42364541383133312D433344302D343031332D393234382D4631423739314346453734322F636E782E786D6C4DCC3B0E80201004D0AB90EDFD75167CCE820A4A845D83603CBE602CAC26799919AEEE
311
E0D965E2E908050C6D0FCCE04C8BC355404EB6198129C92351FAD580A10E464065907C8D948F8F166375F655BDC3FDC3B4E530A176BE7057BDC43B2A593FE403504B030414000608080089885857EE3FA8C47F000000A30000003600000038354637383336462D363745332D343833422D413635302D333846464533344438
311
3832442F5265736F75726365732F636E782E786D6C4D8CD10E822018465F85FDF714084BDC0097A6EFE1121D0BA191B41E3F685E74F56D67DF39B2FD6C0EBD4D7CD9E015D0130164FC3DCCD6AF0AD2BE6001A8D53286B0FFDD00F969330A0A062DD718D2F340B359A6E40A75D63F0ED85D86ABA08CE29EDD08E68432DC545C
311
E091767543FB71A879958D7351F2FC7A794B5E7F01504B03041400060808008988585736829FF40B010000550300003400000038354637383336462D363745332D343833422D413635302D3338464645333444383832442F536368656D61732F636E782E786D6CCD93BD4E042114855F65426239C08C9BA81B862D2CAC6CD4
311
CA0EE1EE4A16B8137E8CBEBD304EB19BD869B11D9C7CB939E7C015BB4FEFBA0F88C96298C84039E9206834361C2652F2BEBF25DD4E8A88984F30D205E561224D26521C229679950CEC55714D75361C57F11EBDC7F0ACDFC12BD269A7529A485AAE54958C06D2911A95151D688484256AA813B2F5B04ED011540643E4C8C7EB
311
7EE0FDB879196EB67CB31DEE5E056BA4146F886EE56DC81071BE1AB9C67A0CD51017AC0152946857AAA520F2D41DAD7D08560929528EB58595CC5F7325D53C3BAB55AE65B105FC61A4602DEC59E4070810ADBED4CC67F6FE2DF4130403F1B1BE54B4CA5D6AF6DF5CFEAD02B66C40FD066D21E437504B030414000608080089
311
885857E3603EBE7A000000C20000002C00000038354637383336462D363745332D343833422D413635302D3338464645333444383832442F636E782E786D6C6DCD410EC2201085E1AB90D9DBEACE05D09878023D01A1D34A8419C380F1F82DA68B9AB8FDFEC93C3D7C52546FCC12980C9CBA232824CF63A0D9402DD3E10C6A
311
B03A3397DD192872090D3406ABE7CCF5B5D18893ABB1690CF4DCF02282E5EA8A5BB96FFE536F285CB347F95BEFFE81C9ED5AFF9D5B1FB575BB00504B030414000608080089885857F1A7D7457E000000A300000007000000636E782E786D6C4D8C410E83201405AF42FE9ED68AE25F00A68D720F53D1902234549A1EBFD0B8
311
E8EA25933723FACFE6C8DBC4970D5EC2E5540131FE1E66EB5709695F2802E9958821EC7F37207EDA8C848241893586F43CD06C9629B9429DF58F0362AB3B645C53DE8D8C36C86EF4CADB8A32D47A64CD80580FD9381725CFAF97B7E4D517504B030414000608080089885857CA1DF9C9A900000073010000130000005B436F
311
6E74656E745F54797065735D2E786D6CA590410EC2300C04BF12E5DEBA70400835E500FC800F84E0B411AD13252E2ABF27A55740421CEDDDD9B55CEFA7A117778CC979527255565220197F75D42A39B22DB652EC9BFAFC089844F65252B2630E3B80643A1C742A7D40CA8AF571D09CC7D842D0E6A65B8475556DC07862242E
311
78CE904D7D44ABC79EC569CAEBA537E3521C16DF5CA5A40EA17746733E0B6615DE7217475F386F18B9481C510F1F021CD9FF027EA0E1F5C4E609504B0304140006080800898858573DEE336E64000000790000001B0000006175746F6465736B2D64657369676E2D7061636B6167652E786D6C35CBC10E83200C00D05F21DC
311
A56CA76D41FC96062B120735B69A7DBE268BB7777961F8D5AF396893C2ADB70FE7ADA196782C2DF776D7A97B5933C430F15651E5469C55D70F80A4992A3ADC954792C525AE70A1E4D6AD9816CC044FEFDF01FE3FDE907802504B0304140006080800898858574426B66CF8000000960100003700000038354637383336462D
311
363745332D343833422D413635302D3338464645333444383832442F4173736574446174612F636F72652E786D6C8550CB6EC32010FC156BEFD84068534798C889FD073DF58630715062B07854FDFC42E24AEDA9A75DCDCECCEE0E3F7E2DF7EA53FB609CED80D4182A6D959B8C9D3B48F182DEA03A0AEE9D8BBF685059B9E8
311
0E0A0C82CFDEA5758394B351DB825A37E90D9421E80895BAE7A683A0AE7A91B54C3133C2AD5EA5BAC959D7A47EF2044FC94C9BD44CD9CD5C8CF62046BA67A41D5B444746106B698BFAA1C7089F5E86D7333BB7E369E04D110B1ECDF2B35D792DA39E40504C77886044D93BD91F303B90F68337852978883EFFBC2D2DDF81E8
311
CBD5838C9237CFE91FD7B44EFFBB2663E38E6EAE4F450041F2918F81E04D4929974784B99644C537504B0304140006080800898858577EF6B5CEF30000008E0100006800000038354637383336462D363745332D343833422D413635302D3338464645333444383832442F5265736F75726365732F42364541383133312D43
311
3344302D343031332D393234382D4631423739314346453734322F7468756D626E61696C2F302F636F72652E786D6C8550CB6EC32010FC156BEFD840685347982889FD073DF58630715062B07854FDFC42EC4AEDA9A75DCDCECCEE0E3F7ECD8FEA53FB609CED80D4182A6D951B8D9D3A48F18ADEA03A0AEE9D8BBF68505939
311
EB0E0A0C824FDEA5658394B351DB825A37EA0D9421E808957AE4A683A06E7A96B54C3133C2BD5EA4BACB49D7A45E7982A764C64D6AC6EC66AE467B1003DD33D20E2DA2032388B5B445A7FE84113EBFF4AF1776698773CF9B22163C9AF967BBF25A463D82A098EE10C188B277B23F607620ED076F0A53F0107DFE795B5ABE03
311
8179B3A27FDCD232FEEF968C8D3BBAB9AD8A0082E4E39E03C19B924E2ECFE8722D498A6F504B03041400060808008988585724E8876EFA000000960100006600000038354637383336462D363745332D343833422D413635302D3338464645333444383832442F5265736F75726365732F42364541383133312D433344302D
311
343031332D393234382D4631423739314346453734322F7468756D626E61696C2F636F72652E786D6C8550CB6E833010FC15B47783EDB84D898CA324F0073DF5E68243AC808DFC88FAF9B50395DA534FBB9A9D99DD1D7EFC9AA7E2A19CD7D634404A0C8532BD1DB4191B88E18ADEA0380AEEAC0DBF68501839AB06320C828F
311
CEC665837A6B8232193576501B28BD57018A7E4A4D03BEBFA959963286C4F0F77291FD5D8EAA24E5CA133C463D6C523D24377DD5CA81E8E89E91BAAB11ED1841ACA6353AB5278CF0F9A57DBDB04BDD9D5B5E65B1E041CF3FDB7BA7645003088AE90E118C287B27FB036607527FF02A3305F7C1A59FB7A5F93B10E116E74F23
311
F5C4AB75FAC7352EC3FFAE519BB0A39BEBAAF020483AF23910BCCA29A5F28C30D59CA8F806504B030414000608080089885857B32FF46F0D010000B10100005C00000038354637383336462D363745332D343833422D413635302D3338464645333444383832442F5265736F75726365732F42364541383133312D43334430
311
2D343031332D393234382D4631423739314346453734322F636F72652E786D6C8590CD6EC32010845FC5E28ECD621A870813C53F7D829E7A4336495162880C547DFC42E24AEDA9A745C30C1F3BE2F8B5DC8A4FBD7AE36C8BA024A8D07672B3B19716C570C67B541CA5589D0BBF6CA8B06AD12DCA3292E2B2BA78DFA4C9D9A0
311
6D56AD9BF5262AEF7540C5744B8716F9E9432FAA54312487BF9677355DD54597503E7D52C468E62D6AE6F49A391BBD2239D286011F39A62303CC38E5F8349C0826DDCBB0EB59CFC76E10550E4B11CCF2439F56AD829E91A484D61808A6EC0D9A036107E0EFA2CA4E297C58D3CE1B346F8764B71B4F7BA801F7F54030235063
311
4ED91EBF42D770E85FC78651513D837F80F13EFF0F8CC6869A6EC067C22309E9FF8F0B29AA5C601A8F76D3CC65CB6F504B030414000608080089885857D07AD131FA000000960100003700000038354637383336462D363745332D343833422D413635302D3338464645333444383832442F5265736F75726365732F636F72
311
652E786D6C8550CB6E833010FC15B4770376685322E32809FC40D5536F96D9502BC1467E54FDFCDA814AEDA9A75DCDCECCEE0E3F7ECDF7E2139DD7D67440CB1A0A34CA8EDA4C1DC470252F501C0577D6865F34288C9CB1830C83E093B371D920654D4093516347DC40E93D0628D43D351D78F581B32C650C89E16FE522D54D
311
4E58D272E5091EA31E37A91E939BBE6A742006B66F683BB4840D0D254DCB5A72EA4F35A9CF4FFDF3A5B9B4C3B9E755160B1EF4FCB35D3994014710AC663B426BC29A37BA3FD4CD81B6EFBCCA4CC17D70E9E76D69FE0EC42B7A1B9D42CFAB75FAC7352EE3FFAE519BB0639BEBAAF020683AF23110BCCA29A5F28830D59CA8F8
311
06504B0304140006080800898858577DC497BCF7000000940100003500000038354637383336462D363745332D343833422D413635302D3338464645333444383832442F536368656D61732F636F72652E786D6C8550416EC32010FC8AB5776C20B42911264A62BFA03DF5860C715162B00C547D7EC171A5F6D4D3AE666766
311
77471CBFA67BF5699660BD6B81D4182AE306AFAD1B5B48F18A5EA03A4AB1781F7FD1A0726A322D1418A418179FE60D1ABC8BC615D4796D365085602254C33D372D84E1C34CAA56296646B8D5B31A6E6A3435A91F3C2952B27A935A9DDDECD59A05644FF78CF09E23DA338218A71C9DBA1346F8FCD43D5FD885F7E74E34452C
311
45B4D3CFF661312A1A0D9262BA430423CADEC8FE80D981F077D114A614212EF9E76D69F90EE4EB7A6710CD63F6C733CDFA7FCF645DDCD1CDF3A10820493E711D48D1948C725903CCB5E429BF01504B0304140006080800898858571BA6F5C702010000D80100002D00000038354637383336462D363745332D343833422D41
311
3635302D3338464645333444383832442F636F72652E786D6C9591CB6EC32010457FC59A3D7EE1078D3051ABC45FD05577D44C1C94182C83AB7E7EA176D576D7AE40977367B833FCF83EDD93375C9CB6A68322CD21413358A5CDD8C1EA2F844172147CB1D6FFC0203172C20EA20C828F8B5DE75D1AACF168A26AACC25D94CE
311
A18764B8874B076EB8E22453B9FA40B85B3ACBE126474C8B74E304F77AFAB20E0B4A8F0A44999794143929ABE7A23DE4D5A17878E15924055FB5F1B4DC9BE1F48A2AB1B30F9140D49467DB73C056AD7648ABF0497DD1B8806075DF32DAF4A469CF94548C3E91C7A6CE09657D7FA6D589B1F2148A04B3E0CE2F61347B913884
311
BFDA37E3AF68EBACFE196D733810C577A82CCE59F0EC7309E18C3B111F504B030414000608080089885857FDEF4DD507010000B201000008000000636F72652E786D6C8D50416EC32010FC0ADA3B3610B7A9234C94C4FE414FBD51435C141B2CC051FBFB42EC4AEDADA74533B33BC3F0E3E734A2BBF6C138DB002D08206D7B
311
A78C1D1A58E215BF003A0AEE9D8BBF6480AC9C74031906C107EF9679837A67A3B619B54EE90D9421E808A81FD3A381D07FE84916728949116EC52CFB9B1C74418B55277834D3CF6AEFB58C5A816084ED30259855AF747F20D581D66FBCCC4AC197C5A8CDCAA8E46EAE467B101DDB57B4EE6ACCBA8AE2AA66353EB52782C9F9
311
A97DBE5497BA3BB7BCCCCB8287E8D39FB72329674441DEB32F2F574AF077E7C64D904229E4ECF80582F032137F422FB3FA476863E38E6D07D78D0082A6400F2219E706D378D49B666E5B7C03504B01021400140006080800898858579D898BB349010000A80100004F00000000000000000000000000000000003835463738
311
3336462D363745332D343833422D413635302D3338464645333444383832442F4173736574446174612F446566696E6974696F6E4974657261746F7250726F706572746965732E62696E504B0102140014000608080089885857BF881751ED000000300200004500000000000000000000000000B601000038354637383336
311
462D363745332D343833422D413635302D3338464645333444383832442F4173736574446174612F496E7374616E636550726F706572746965732E62696E504B010214001400060808008988585788E57597CD3F0000904100006B000000000000000000000000000603000038354637383336462D363745332D343833422D
311
413635302D3338464645333444383832442F5265736F75726365732F42364541383133312D433344302D343031332D393234382D4631423739314346453734322F7468756D626E61696C2F302F67656E657269635F706E67504B010214001400060808008988585728BB58AF800100009E0500003D00000000000000000000
311
0000005C43000038354637383336462D363745332D343833422D413635302D3338464645333444383832442F536368656D61732F436F6D6D6F6E536368656D612E786D6C504B0102140014000608080089885857E336299B9F040000341300003E000000000000000000000000003745000038354637383336462D36374533
311
2D343833422D413635302D3338464645333444383832442F536368656D61732F47656E65726963536368656D612E786D6C504B01021400140006080800898858578DFFFC99640100009B0300004500000000000000000000000000324A000038354637383336462D363745332D343833422D413635302D3338464645333444
311
383832442F536368656D61732F52656E6465724D6174657269616C536368656D612E786D6C504B010214001400060808008988585754FD178E51000000570000004700000000000000000000000000F94B000038354637383336462D363745332D343833422D413635302D3338464645333444383832442F41737365744461
311
74612F41737365745461626C654F66436F6E74656E74732E62696E504B0102140014000608080089885857C55C663656000000680000004500000000000000000000000000AF4C000038354637383336462D363745332D343833422D413635302D3338464645333444383832442F4173736574446174612F53747265616D56
311
657273696F6E5461626C652E696E66504B0102140014000608080089885857E21E1C6037010000A20400003600000000000000000000000000684D000038354637383336462D363745332D343833422D413635302D3338464645333444383832442F4173736574446174612F636E782E786D6C504B01021400140006080800
311
89885857A58B4605E7000000600100006700000000000000000000000000F34E000038354637383336462D363745332D343833422D413635302D3338464645333444383832442F5265736F75726365732F42364541383133312D433344302D343031332D393234382D4631423739314346453734322F7468756D626E61696C
311
2F302F636E782E786D6C504B0102140014000608080089885857A233C2345D0000008000000065000000000000000000000000005F50000038354637383336462D363745332D343833422D413635302D3338464645333444383832442F5265736F75726365732F42364541383133312D433344302D343031332D393234382D
311
4631423739314346453734322F7468756D626E61696C2F636E782E786D6C504B0102140014000608080089885857BE89762363000000880000005B000000000000000000000000003F51000038354637383336462D363745332D343833422D413635302D3338464645333444383832442F5265736F75726365732F42364541
311
383133312D433344302D343031332D393234382D4631423739314346453734322F636E782E786D6C504B0102140014000608080089885857EE3FA8C47F000000A300000036000000000000000000000000001B52000038354637383336462D363745332D343833422D413635302D3338464645333444383832442F5265736F
311
75726365732F636E782E786D6C504B010214001400060808008988585736829FF40B010000550300003400000000000000000000000000EE52000038354637383336462D363745332D343833422D413635302D3338464645333444383832442F536368656D61732F636E782E786D6C504B0102140014000608080089885857
311
E3603EBE7A000000C20000002C000000000000000000000000004B54000038354637383336462D363745332D343833422D413635302D3338464645333444383832442F636E782E786D6C504B0102140014000608080089885857F1A7D7457E000000A300000007000000000000000000000000000F550000636E782E786D6C
311
504B0102140014000608080089885857CA1DF9C9A9000000730100001300000000000000000000000000B25500005B436F6E74656E745F54797065735D2E786D6C504B01021400140006080800898858573DEE336E64000000790000001B000000000000000000000000008C5600006175746F6465736B2D64657369676E2D
311
7061636B6167652E786D6C504B01021400140006080800898858574426B66CF80000009601000037000000000000000000000000002957000038354637383336462D363745332D343833422D413635302D3338464645333444383832442F4173736574446174612F636F72652E786D6C504B01021400140006080800898858
311
577EF6B5CEF30000008E01000068000000000000000000000000007658000038354637383336462D363745332D343833422D413635302D3338464645333444383832442F5265736F75726365732F42364541383133312D433344302D343031332D393234382D4631423739314346453734322F7468756D626E61696C2F302F
311
636F72652E786D6C504B010214001400060808008988585724E8876EFA000000960100006600000000000000000000000000EF59000038354637383336462D363745332D343833422D413635302D3338464645333444383832442F5265736F75726365732F42364541383133312D433344302D343031332D393234382D4631
311
423739314346453734322F7468756D626E61696C2F636F72652E786D6C504B0102140014000608080089885857B32FF46F0D010000B10100005C000000000000000000000000006D5B000038354637383336462D363745332D343833422D413635302D3338464645333444383832442F5265736F75726365732F4236454138
311
3133312D433344302D343031332D393234382D4631423739314346453734322F636F72652E786D6C504B0102140014000608080089885857D07AD131FA000000960100003700000000000000000000000000F45C000038354637383336462D363745332D343833422D413635302D3338464645333444383832442F5265736F
311
75726365732F636F72652E786D6C504B01021400140006080800898858577DC497BCF7000000940100003500000000000000000000000000435E000038354637383336462D363745332D343833422D413635302D3338464645333444383832442F536368656D61732F636F72652E786D6C504B010214001400060808008988
311
58571BA6F5C702010000D80100002D000000000000000000000000008D5F000038354637383336462D363745332D343833422D413635302D3338464645333444383832442F636F72652E786D6C504B0102140014000608080089885857FDEF4DD507010000B20100000800000000000000000000000000DA600000636F7265
311
2E786D6C504B0506000000001A001A00210B0000076200000000
310
504B030414000608080089885857000000000000000000000000370000006662782F39353136323931462D313431322D343644372D383538452D4645443644444236323245442F617474726962757465732E62696E504B030414000608080089885857000000000000000000000000350000006662782F3935313632393146
310
2D313431322D343644372D383538452D4645443644444236323245442F76657274696365732E62696E504B030414000608080089885857F270F1330600000004000000360000006662782F39353136323931462D313431322D343644372D383538452D4645443644444236323245442F747269616E676C65732E62696E6366
310
60600000504B03041400060808008988585788E57597CD3F000090410000420000006662782F39353136323931462D313431322D343644372D383538452D4645443644444236323245442F7265736F75726365732F322F305F67656E657269632E706E67355B773CD4FF1FBF73E71C0E67EF7576C9DEF3EC995D46C6A1EC50
310
46649CBDF79E192942562825CE965D8A868C2842C8DE9FDFD1F7E7F138F7078FCF6B3F5FCFD7EBFDFEC41B196891913091804020321D6D7513FC77D8C5070EC3FFEE51B21F068154CC75D455CC028A3EA68992803810109FDDE5D5CEC5521B28A1B422BF80741695D5B529DA1C2D058AD2388BDA9F476F7C2CADC939304173
310
DBF48A452BF8A700C0C70C3D121C1AA15A5270C22E2B9E28763651F7DA0D12CE11077B2ECD0D560B5E3DE2368B1E65C5E1C87384A4CC5F2D9FB8BE39E9B77C753783A37998F5CEF1B4FEE553463245C9712270880DF339E0B882A6BA713D865F6F384C842D440934EF264F4A304F8DE4EEFA1E2BF5E2D91F5ADD9613D6E31D
310
DB33ED31DB1D7916CAF091286EA3D31B9CFECB78BB0060245B943C4C040119FF780A74DD308BA9D028678674EB5504ECF284EE814DAED07440BAF649BE4B55DA2890F4D73E2D489A59EE54FDB0A85B59F2F52C4858A02705C4815A792B0C4A996A2023ECB195073E115E3E3647F64243A8338F2000BCB58DA5692C7E7C3D41
310
3F963FEDF3CF00FBB0F831A9D51360FECA43819F527B89FA260EB63C5DA676830AA3626A3693B23F1A17A0DFFCE3EE164E31B5365EDF0C89EF64D8E38AB0BA9A1117D7C3A0EC44F44F4023095E80BA610DE336D0F99593A88BFC5306E72DF98F7FD132ED95878DF2964EA7E43071359FD83B2BDF9C6B5BDF768F0F3C0FC351
310
199526F53D9460A34511F75D1B63E488178569472C91A94497807A3FD4A390C6558F26D416365C3656DE6E769DA9D8FC73774E1709812842DD8EF96AED1960F79D21B395CDDFE6F92CB4EB962A4668C76990E2EF29798C8941D67DA50F4A5F947872460F1F6FDB794E8A29FD7AC0C0D6E0714339CE258FB17AE8535221E346
310
4A10F29A0BE5EEECEFC5675926A89F49EB14E5711894F6586DB5754EB4D5DA9C6437EBA57DB97A24F8B8A8DB295FFD73266CF57E82694DF5166DDF93573AFE9C9C5EB05F8FEF8E89E0A8917B0B3724DB7BEBB53252581EFC3E38166BA131A3A5B42FE2AD00A769BBFA4458D2DE7822F8C4F63D0B8E21B285AE13325F3410A4
310
35C648C9D91FDEB109E73CEDA7BC796961AF79175E1A3CE4C5E8B0D009B0C9E29EFD98BC8E97554E3D8D838424E270F7685226E5AC268E021EDE3522D583E8F20C0BDE2959EF5BBFEEDAB32FE9A3ED0E39F211A86AA9DEBFC68182EDED132AB8BB794442D2D7EA9F4D8BFF52BC4D55BB165124EE90A42D101E67BBBB292FFB
310
4F66DE5BF2300E44546757DA7CEF8932BFC9F92A0707953491A55C5A5ACEDABD9FA1AEA01BAC3DC5A24E22E7C47213493996EFBC369D086ED9397C9BA6C7F9855C7BD5E15BFC8C53DB3D2A4C5901A57ACD2FBDF4D1676E95338B2C2BCE65FDA4C64F5FEFDC7D9CA5AA1FCF11E193F2FDABF0F4916BF13FB916A224380E6462
310
A9815F2300DC49CC4DF8D055CEF76462F4B7A7ACA7365C2707891370BC1D0AA6203C44CCAB47084FEC057F27FFCD57F89B8B9852459798A675C66BD7CE572CAF71FF7E6D7ECF7BF62CAB7B3F1107DCD04DC55A3F9961700286141C94A4F771FEB2BCDA2DDEE0CB0BAE402FF1DB0100F8E475DFFFC074DDB4498AB7D186A765
310
4DDB1CB680D703D47CEB4E72F8CB13D86A4AA68116E26387B93FD6738779B34FEDB8E517EDF2BAF28D9BE93A1D3A164320E07D42E514725C29515FF361754213EDE06B079A2E99EB1CA82A02019EADEEB87B9AF005BD04BBCECB14AACD6B24EFBE482194A97DD32400685FF1FEF1544D1B14EFB1E7F08E6D2CD2AF52DE757F
310
35F5E62332EE88EA26417AD5C3E0E319D68F25414E6D672BD4522B278C57D18F0113921C71D96527E091F00CEB15AE23D24667369BD3CEFA10C7549D930890BA4366F4EBC55F01F746109F98ABCDD5A3EE06619C6AD78AB33E48E4C9BD21BF7478B385EC05C4F8987E2C1BFA0A60EBEDAA0AE0B015C2720ECE180FB6F2DEFB
310
EB822D96338C9B63822183BBF52FB664A7AE57003AABCE512BF77E7E31BDA2E739AC4C131657DDFE5225E900FB56CC01CDE808FA4A9C9DA16AC679656BB64796283D89812B8F91136AE18EE5EBBAF47A73BE3C153EB5D4CD491B4BFB4FE690A4CF9ABA08C0D8AA64220C438C96EA6CA80B58FE5761E697B3A292EB9FBDA502
310
FA863E49FE694ADDFFF9D62C520BDD1A22014147A0903A05B9B729F54272EF83931FEEC057BFF8C8055C279EAC5C0011804828734024F6CFA319C9CC6867C727184465CD9BB7ED386AFFD96B294A85E3802FAE47244602D8273615952B98C4F23F7EAE4463D9D638EEE374A20959E0FE519C4CFB0FBFE5DD80C2AA3F9DB961
310
D1BDE57E67C9BB47B77FDD74EE3094F5DBBE3EBC1FBDB7393F5116263009E2EFE1AF9A221B2AE234C902BF70E9F280ED23E73908361565964333A3F01D0B006AF32FB21AA1316744B489D5A198E85299241735BE559675130955C902A8ED761FC0DBE337A9F91919AF5CE32AF902ADF9AB2615E00E8A94586BA1A90839B618
310
32FF1BFB76D2EFADE6DB1BA04CCAD3DA649E7E2A0219F592E22F2AD54847EEA8E42271011E9074F8F3DD9FBA6CDF88FFC9FC7E811AD1CA8F4557CE4AFC7BBEDCF0114A48689F20A584520C74DA8127124B767E2FB91A6B186246727BE63C9445BAE02088D58B8EFDC0F1072407CD9B89A13F6303B4A928F593AD489B58E686
310
9325790ADC406036C591729FE14021F94B7796BB11848D463536A092A26F077F94639F7CEEE2A724C66EC885F4A24F8B8A0AC321F8FD149BA529460FAA34E4663C02D41FDF80BCA222D42F0ABFF8490F4FA74C673807C2051D8E467B47B616072860069A9A303ABA9B319D58404461401B0A0F9BE5E1E151C14BC33B32ABE0
310
3DDE91708DFAEB15E7C0D593C86BB7D7EC17BE56E57975F077BFD5525F3A1A361D584A75E08CF29FC7B44B2B3085014F3A5A14517377C3F6B8F37E59514C3B12F8AACDEDDA4DFC49BE5710101534CD6FB6DE15B50F11A09472AABA727F0C49D9CB906B158030065F48EB3625E010CEC1D511D0053474B11E6A4F01C0D6EF1B
310
ED3A944FDEC70E0DDCDC756C86545910E0DAE3BE3AA9A404574C2995CD5CAF9549226BC94B4F4F0F5F9086F418F6B32346464610D8BC7391D3C3A3CCF04CFC1FB2A3A3170E369511868F14EEA4E5E438CC73DB1F3248AA94B6B2FF33B222FF3D1E7BF146CAD229770158063BCE4F5391964DF62F7E52A7BE0EEA829C9E13C4
310
C147D6F93FE59E111DAB5E4594D6F3CD1AD375EE039930EFE5AF2BB2D41C83C7DABD8C659BAFBE8FAB392CA634F3D15C1D945DB4588D2B0824A4EC928AAC565557CA2F0DAA588CA5BE30B3A8004F7BF005E96CBF891D7F18112A3619FDF530DC8AA64954258E1811789B5189B49B4EB53F5F89F7D37523894F3EB57B373763
310
C91E502F52CC99EB7BDDF933FC324C4FFC2561DFFA7339FAFDD0A4BFBE6D3A8FF9ED1FC49898139864602458968913181918F719CCF5A68B2EE9C1FF050E34E63107003B8120FA982C21B30A874E4F5E4B38D5A8290C4B8D9BE48A0BE31EA995BDC37AC6DE90BA17D259DEF53605D55922FEB1855D915B659FBEB350EE0DFB
310
2F9F766E1C84CC8964B75D08667445EAB966015F63A18A9E0A325C1B3DC628C0D3CB60F767FA93CC65F25458BD23C3B312716E5F40E5858AC06EBA9AB14F95DB99147B832069201541D09A0D856E12C629CF32683760EE855537D1901988D5EBC156676C7DD51D7207CF3267AF1D76C2AD867315E44618015313A98B19941C
310
696FED3461CAA9B5415F918556D7802EDACEFD6B2E45853A9735DFC9DBF7E440F9319F8B6805A973BCCDC76C069A9144E51F187EDCC12FC31B5DEAAF0A76137199B106EC84ADA6B6EE697D4E6A96E007417F4E880E8B1E89B4BCE9D81EF611E2ED8F0C1A6C25F620FAFAAB656A7C42D464880E8AFAB0E0FC8EA38CA9A8AEEA
310
EE3E4648BA4680270A89743CDD3E6C6CBF34B7B640EFA285ABC7EA0A1E28F3CC963D114A80123EE66D0AF7D5380EB41909B605AB4765B709B808590458157E69BA1378FEC4B48CAF6A730E3BE3C5EF2DD1A5EAF94B1DDE50CEB55DDFD7EE9A16747FA4B223359FB1FCC69E1194892BABB93A1D5C4E807AC0EA2E30180811E7
310
7A2291F6E7F7FAA5E0F60215BC6024E48DE436C511F0628B8CA189982D4D83CCA17D305A7E923C37941CFDFDCD93ACAF735EF5F0E61BBD3E6C41A59B242790D3A3BAC7064DCD89AA2E37214EC839820949D5CAA31E240D2948E48F690298974A96BA9A8432BC90F5071D6537C9666EA4564796B7AFFFA548077BEEA75F6308
310
3435074BA182F3699557397F71548383FDA8CA34D99B981E72835ECDA5DDDC151315173D05A21F651AAF8524E88209E2E7A737ED1045800CE3390050BCFB8BE588DF111617874C62575039CA588EEFDEFEFE319B739DE2EDC147092A262611E159650E787917885EF08F1F51B8F2D8A71D60B58B190FEF9541A1BE94BC19FE
310
A50784DA1419FE4B0FB51B8D36B5FF8E1286FD8AF42B91E59A5F1CC4D60174E764045FD8C57B18209B217F89A62252BD20BE0E63E12B8E8F029FE19E0E8D0870F58721A557082250D5424F7909369376E41666C0EE77CD87CB283F661D5FB6D0DA023CB67320A20DC7BE661E9E1BFE5463085C557DA1FF9BE835733766C3D1
310
39F2CF9E2208873AD0EB4814DE9E6BF2CAF81614D4D43906ED1C05A3265CABBFE192770FC2F64F940CB6B17B5F166F133C9AEEAD2641807C3E69515171DD74C4A85311513D6EC9530B3B601B6BA3EBFF3B5C3D2F7D69765141E345F75433953D013ADDF8F6AA7DC3F4A7563FE5C7D367937E2900D7EAD0F9FC9A4A1A9B5BDF
310
1FEF08532660C01C5D6DE22199AA774383E306DAB87E301ABB7D213887F9869D4942D0D71E94B27EDF216A318BD488D45DF84529EF575AF3C3938C0AAA0215B01994153E2054A0B894DA5C784980633AAD48576957CF4AEAEAFADC7C587368551C73DBE1E57C58AC713303A8BFC258BD04B51724459FF9E24C03A81E0E0679
310
CEB9B348C0DC998FEB9C6D6EFA77D247CC8F92D3848599ED89A23218D0636465AD1CEEB7DC140D7426F83491C4E8E8281C2FB35240918FFECE880CA2A42D70E8B20B34DF5221C7DB0CF90ECCB9C745B37A47E9B716FF7A97B7A252C1F3814DC7B1E1A7F72B8751D524EF7CAE45B0C73B3BE7D08ED39781B380DDFC9AA4A474
310
9C9493DB5BAD07A6EA6C092FBD0E85DB004DF06B8C9D3089C5320187E4CE1846158C7EA7DDAE8AD9AFFF21AA3A1026BB06A259845E8232DEE62811A4DA9CEAB3A4887320B76E2AE5615EAB7BDF738CBDD01F1E64064BC13D9EC53576751CA8CACD58B3CEB0E6CA585BD089B2A59B9FC101403387AADBDBE70586B93D64BF3A
310
D4453EF9C3B6A93817E8346991798601344F79A83C51F3D50F7BF2683A3605F51A72449489E0EE6169C749C60B1035651103AEE24D24E51A759C840DD3FC6504DA6FE107510E447B43461C79D22970B75DE5E1BD3007D1AFC619A4A4A69B5626AF5E9B8374E20677F77E2F8E73DF868E8BEC7EBA7B6A75EEF7205E1AB9486C
310
B642741D6E03FF13FCCEDB1C4AC129886268B01CDF4B124AF797CF784F3C6DEC97A17D4B558070A0F1C04DA4FF9BDBF34159AEFE958479824B3F58EBD1E19088A2AFDE501B6F2052368A3FD0E650A179EFAB1561E1D27527077136E652676C3670F42DCB3352F48F6BC86D2C3B0051727E41A0A4DC6CE2BE9D47F5CAA2935A
310
3C0539AF080665997194ABECD723B08129CC5B6B21D2E7D54CD4D12610E7E9FB8306771A89576C7A982002775ED44F3F744CF21EEBB27A631671D921938AAEE3EB0D19CD1E083727F607823E817BF599DCED5394E37EEBC2E88782E638920CA641EF74D4CDFCDEF06F4278ECB18E31E7E9876F2D783C8BF429C75395F57E98
310
C2B495A3DA077EB3AC3C158608B6B57FE3EA48484D9A480096FCEE0DE880950E7E5A5714131C5C41AAA29FD19AE81AC145FA1B9E85C7169A5AB837B213493DF7E9AA4B5FBF9CDEB36EBD21EF1181B7CF7366AB2A951D01E37AF4EB835D1BE8C117CFBE7625D2EBCDB0B20C5A4B45CED0BCDE3EE8DA9DA78C2E21DEAAFFD119
310
7E463C33CC6A80FB785669B856EFF7A8CCCA2841B5A5369173320B1170C368B2748D81062EA0296E5E2D95D7667A4A46D98A6FF475C76AAB0A8C8D45E226FAFC9FE0133EA9F60111F99CA81ACE03A1D14C89E8B0D69079C91464FA1D99E651D0EAF606F345C42A8A1AA9BA391031582B96D5B4176A77AADB01F12FD298A75D
310
EEBB2C82F0B8650E880722F8DDD90C56A7A058E5FDEF1AC93545BA27367C76F5D8F9690CB6F8DAE141EDD7971F0FB548A2AE435F224D6E5954CA155512F7332029D5A1230854B79F258EC5FFDB09F5F6343A8EB193229B7F7E79B3E48F8E183860B38C8269D1B53738FF1E0BACF6AADA6D4869E9DE708E79B5DADCC09B1BC7
310
6F649731CFAF59A83FD8BAE4C749D66FA87A3810D4D62FFE826FA400C0F325D2BC0F3CA35F5847B82A2ACC7961745C823E4D863D54460AF792CE6F79B5C7A33B25C3AEA6CDE15A919B6367D781E9D44F61BF828672594A3E1D9EDD6DF179A81F27EAC05B936575D73E05C209DDD2115CFB705DF9BBF3C911589B3640735E9E
310
618FC9C36A7326C82B2205E244C55D56FDB9D5DC93CE958D4BF8174D2B3DA54CB3C09F2C2A6DFF73D23B2197355761AD421EC581284A7EF8DE2CE3497C0C804D49B41DFD6A7360844E5BEFFB495CFCDB97A4595911CDBA623274CE852B5E278AF0BEB1770E9D37CD977B2766A7DED0E94B840E1E95E8C77DE5CB6354AF7871
310
427C28ADBEEF7BA0A28E19DE9ACD75F379FE373EAE6DDDAE3834692F9C2B03B4FCA8FCA9ABE8EEEBEBB725B88A7C90941E850682CA04061A7DF0CE82ED49BFAFFD42C309818FAE14755CAAE78B0F73243ECCCAD7DF58FCB9CDFAE7A4D3E6671A613639130D056C8383C8F4FCF4808C331E544DD26E4755D09EA05253B3049A
310
1E32587CC25D72E073E2CD96D04A71BBCB0038FEC3F53D254199C3CDC67CD66640269431860225392B2CB3ECD0B4498AAE78BA1994246AE1EE78F2EDFB79F6C6CB6B5E279C4D373FBC21CB2698C9ACBBEB6A4BB6B39E16AB0E421CCBFC7654D81ED86022F9BB522146F9F4772E2D0E4FA70120C95A85A417BF5078B232F475
310
4363EB1750B2AC2148EB46B1EA72AD9B4D23ADCBC589D70106C3EC2ABEEED84DFE28E718C6C83502C28E9FDD3B09DA0A6F6F7B72B706A31C9E2A331EE70DA56A083D2177BFD63C55B11D8D949FAFCF90B23A1E24B9B5018B9A17E99F2890EC302F330FE7936E2C23F0D237EC8916F5166AB84B62A21BB0B950146962D754F9
310
2CC2C8877BED8FC7B7B25726DD19545392570B3A2C66B58F027BEF412E552D12A588C4A3CC5C3193FCB3485EFFF700D0B9EEC077754A33DC1FB9E25AF814628F91DDFECB667D3F7690803F38D13F8AE39353523BB08FC6760144AFA2CE28236F65EDBB3D5F59A57D612B99E3D7E5F8A851666BF9B5A6658EFC96EEB37A378A
310
BB0EB3FDDF1303AF32C41BD1C8560745D7BD81066B0D6313359CF488563D3BA3F8E2185D1FAA3EBA1397C9D0E3DD232180A4DCADB6AF25DB3AC3CC26589C8239E66E81547BC7E2F328F9884764CA37EB5DBE390DFC03A5246B456A7C3684C4377D0EEF9A350680FA9A077E8B2957B489E09AB1AD41316944C2254B5984830F
310
691C93CAA767EECF976FA5647538830B5E63236A6F0365C1E0F3E327F24FE35EDDBD7360B0F7374837409F7A6311BECC12B7026D4FA1AE204FA3F5FE904B1F420C7A9044AE58E403E7C4848E7DA25DC9EDAC79DD756FAA26B9EA83ACE8A214A2612A22AFA19DAE7DBAC5F8CDE1292A485F98DAC731A29FE01A3966E96BCB9F
310
B5A4C8830E1B9AF0C54B87FBE221A097036E5D28D1F869F810C06A9BB0AC0612F69AEBAF893C6E7AD59460208BAB3A6B09CA4F6BDDAB8CF0D1F84B72487498395A70DCD754796E271099A567A55CF242BBED64696378BB6CF25EF0FCDB589F3A82F1116D010A9AB9FA4358809EE0C973A2B4229BAA876A70B03AB49CBA7FBE
310
71DB1832FFD32F9BF2C8E98075CACAFB36921235D0F552B6A67E94E094097A5D7DF681B40623DA535ADA7A9AD8E9A62407D7C9A5AE51D62A17A83A23728DE86BB56115804D3F2675F2C6B87541A0FC497BF0CA86420F558C9859EBE9FAD62747E323E3AADC03FDCDDFE7407B09DA90B44E3185723C5381EAEF589765E2F7A0
310
99BA46695BAD60CEF3491B8A171F5F56444F7CE9455312C3498C74173AEA0214EC029833B34B650CBB5A5508D5091665309642791708ECF27CF11DB3D797D6CFE474453BD4BFADB768094B2147814D81C7CBAF8228DCAF5564B5891F5EF6A860EB2E323CB82AB868D8EA048880D63B0DE5341F1B3D53297B928A11E15F25E5
310
148990F710747C3509ED14909C552EBE3973246FCE55D00564D8310BC3EBC5085D08D806799B77D6C57FDF5E55837F9E934F09C03C729271B64F12D0A9F9E938107CAF7BF1EC8CF1BB9B42363D33070F4CACB425E605DDB0A34A12BB936DE286B9887A4E2E558F0886498BFF49C311D96C277CF6A9FC0D75AD0ECC5226D7E0
310
E3572012E56D7FDE4410CEC7A6D0F997F225A2055B8B92E3956E875AE4993CB3D4C9063AF98FD45E1BAB165640A43439A2C9181A7C355B297C0A0CCFFAE19B6FA3C2BA238A885FBC98B8F6DAF4B94B97304878DF4D8BFF6A4AEDF79E90ED4E68F00CD7299F4E0D83E35601AF0CBEF18C1E870E74758FA91F5131075004DB3C
310
FCF09AE1DABC11957FD9808C92E8A678CE9DBE40DDA0E0D1D505AAFBCBA208232BFB6FB3704E8985E61ADE53DE74152F5C7DE74B1DEDCD37DC3E8FB30D7EBA8B9EFFC3606BF90B8D438279CB7709FC7C00D327F41817EEA71CD9E49FE9C8C9A81C70915D9F0F15958EC5AA4C3BBFAF46986B90F188BDB24B89DE3C6F29EC3E
310
6F66D84856EE96A35E657CA41B41EFD8DBFA16AD6E91439EA92B40B21C053249F51AE50EB0B24C770FFAF40DF12C8436366819C48E36547D4E7B72FE2BBF10828583057814A668BDF183F6B2E58DFB151103E56303E63D00F39C27C4661605DB644D19175D02E3F0241E8FC3458D17AAAADB117CE9EEA690D0DB01E634878C
310
04C2C9310B69FCAB831151E3AD293BEF6E46B0ABCECB50F5939B39C613D41E81FAE8D34CAE3C4566B761D37185FE864AC32FCB71AEF39DAA5BAB88609BB980CD2F07A8F941653B529567726E2B2A58D079DD57E1E5E31426CF184A04D7B03B985F276D47406AF276FE32E3328BA866EB1FD39BEF57863A317634AA5FE46740
310
9B3873F5069EF0D71AF00AD189D17BA1974ECDB2D623E9E14086386A6AAB5807825C37B015BFE892AFD154920EC437EB945D958E18622E1E0FE2FA06557CE4BB9BBD05A2D40E774DA2B65473791E314B7D6C886820B2FCFE4AA272B3B8B15E7344A145E8AF919B5454D89D36D413E87211186BF6F645E5EC94DCCE8E1C7990
310
22E4EC9BC86D7A0F2AFB1FC4B2CE48F84B3F49ECE65BAD24CADCC07EFF39AB06BE9E6B27A059938EA7208838455383DDBCFCD967DDE4650EF92A14FF933C975DB20BD7FEEBC4487576485963D757D16340D9599FEB362F775F38CA4185A86F74B629C81B133644A3B18FD056E997E0734F9BE26D11C0AAFC669E2AC9FC41D2
310
81F8B2E1C35AE27BCE05F3DA295488096688719D974DF1B5D182DB7792288697F8763CFB43562C1CDEE11C4AABD5C22B6E33F6F389CFC3477C5919DC0D533F8A7A1846B7ADB60ABDC26C43D0CFC8910B7C15EE22675BD02702ED39DB77A87A192CA7A543E6205B979B9F5A6B512A3CA799E198B2D5797C0AF8D1D872CA455D
310
4D431A7879D4DD76110B5FF7F4176B54477A9EB5E4A5D11214FDA585F0382751D8E2582BA5D2075053298FEB8F1537304E32CB22C2E2B693DC0A760B1DFCA751BDC445AFDCBB12820ED85F6D5298933C7EF1211E9E057684056CDA3FEF3BB6052355E162DF27C59E965A8DDB7F9437EB72CDDA3A090DE65A5B2F50326247B7
310
EC67B73ACC7047FC9B353D6EE990F772207C6EC52B39DC2F3C0754821DAB559F7C1809C7D0DD5B0499D0442E0A6E391B3D5DB46D11E731E6794EC77523FBDAA242ED67F9FA1FB684255671F63C9BCFE6E7E896D51001A6113EF2298BA494E0B0980D1FA5B9D60796554C02256B1E0345FB7C6186B6A19D2DCA270416262845
310
FA4F42DB5D9B0A0B6F07FCA2E56C242522E001E0CEB734AF310FC8BFB57E38E03AACE93B3326A2197891E68452B26A6307FDABFEE0223D3C03C3C73D2D5BC054C8311F12004CAE488E5C29287F8156A2CAA4AD0D7BE6B97264E4139F437CE73ADF52E5134C52B819777C18B323A5924E4F67AFD13B1CDC3A61793A79FAF5C0
310
CEB718E441071E797C6DCCB9EFCF7E4A1E9F3DF3C2F9C9E8294E9586868788C972857FB0556D7A26941A7EEB9B580AD78EC40B85DC906B4120A563CA3B87797ED612D3B035962BB75F6515A393F4CB057F564CDF54F2E5A024514E6A1F901DB80C7E70B1FC05E356A7E72FABF4775B3E3FB8F70A2A8E7B6A94542BB3041579
310
78CCC999E707A29CC795E67A59CC546A5D47B368954CA7B6E75EC9E1F6FC73CE3B4F71F8CB1A6B15923D61EAAEB14626AAA9D04A26EB9C66CD1BE86CA31A5D8703DE04CD1EBCE4F5CCB62F93909AD11E55799A781A956ED27D3E738F4538CB04ADABC7DAEF20BC35BA6A90BCC1DC61BA05F20D8832FFB9BC9B15E2DB838A0A
310
FBB7E0C82A562127E0446894F427794C3037186F622BF24DE1B00AA10A23BFA47B2A180D6DA5AD6F7326FEB8C100C2D7142EB2A0B2A9D1008A09BA343D70E054AB69E2A7EDB783CBD92537FAF4A44D1296AC2792729104B3276C276C951D0CF3CF3F1E6B017720A7B8505A5FF9589365979678C36F1BAF759EAF57C60F1FF5
310
FE9DCF5F8E764FF25A2D06CF25117A8FED51884C13B2B750DB0E4F5E3D64124FCF11F0AD8F1CC3B3DA4B38ED22BF1CB2585EE6BFEBBA63FBFD44F9537B9B37BDD6B358720F98A8125AED4349CCFEB0E135F19E208A04CA7E2B10711185D72E381F448036EF57C9F874E54A971CA37A639E986AC0226DC5AA00D5B14FEA9192
310
234B3DE617814FC221C92F33F1D392F297731B567FD98FD91D989379AF567A65B8ADF177591DB90FBEA99BF4ED11B16E50A0AB1DBF1156D034BBE04D69D08F939D8E92BF525A1DDAFF80ECBC95D8F45D3FDD289FD23F7D8B452F8EBB34EC082DEEE68E18EDDF072060FAD2AB1504DD4879BF67099FC58F6E9DEFBF645D1633
310
4A3E9A127C6F1AF6132CF287E433B43A0EE93812B4AA0B194E03EE3FF91EF9C6ED0074A2F6EB18A96A7C9890B1FCDA1F2095E944DB911ED54C60DF16FB74C8CE9BDC7C54C4F14078CF73C2FFF1F1BBCCD7CF64F71407EA1683DBC410D226627F66E509060D5C0AFD611DE681D509DB8DD12FB1265B03C6F5C55FF4C30BD941
310
87FF692B4F152982502F193098A789526A038AB529A52BC0DC4FB6285CBAC10A8B8DB75DCD9BDABBB221E27D1F8DA9F5EE5926A1C8AA9BA9BC09239C6A7F12914EA3B59EFF7AAEC3FFCCE56F1C5C2980AD072793527565E774F4631DB178CEEC691B1F367BEA0CF2907E1D6B854D527065979DDEF002D8B2ACEA7CE21AE297
310
737EDE1D45B31233B73FEA35BCFDD0B09721FDBAF6432681F2FD10C3E9EFB246FD6E854B344ACC9D8A0EEF876A7314B49B6A499FC650B099D650DBFEC7638ADFD245E2B7839DA5AC5F7D5623FC0ECEEC8653FC9B2BDD1AD4D00A566FBA7186DD3C9CD26512551637498CADB950FEC71ADB9A5524285DE328B8EC7EC75D2345
310
AEC6A27C42AF6D9B92155315C80DBFCABBB7DA0FAE425C4FB896B15C9BFAC4FE67DF5A23D30C93DA4D8F36FB15D100050DA6062E22AEC5F4DAC4F6FEEF97AE05DE63C6D38F9E068A20BC5E3B6BCD75320C5090924E7F93640A7735B1A43451C2D91EE62C6238B797349E59890AF3A520DF4A87095F3ABEC2E61F0593416CE4
310
6CDCBE0E00E2523FCCD04408588B5B6C9DB6459C786CE378770B54F51DA3A5E1DF2A3349BEAAC234A6CF8993B598B3B25B4B113E353A4D750FA7534749430F3EBF2512E7EA3FD43C6AB9A1F765A58463B306721A15D224FAFE8C6F5E3432D57EE697DA0DD5A9D4866A8BCCAAA9DFF1F06047851408FEC060471D0E3EB86BFA
310
F46E4B5E60311DC3E3CEA147C75CF971BE74689507154FF2D2E92F15CDB2B9182B11459FD8ACAC5A85F174BC94A7F4EE4C4F5CAFA7C02E37BF0BC77B7DCD0C047BC316F562A01A441AFA7931CC84A28CB9F4AA367EB515778F29BFE61195FA671F4352E5E46E3A64773F1F76EE5EB36D7BCE9BCEAD837A4D77F8DB8C92AEEF
310
6711920D7C7D0F76B0FD0EB7AB83724CD35BCA7D36DDDF5FBB7FF6F04A91F3E2BB3B8F1A43CD659639507FF6331C5F697BCC782AE57D757A27D97F1AB9E0AEDB43F92F1B2AACDF5FEC8ADBAF9F814E2027003BA2F9E144B1938A7A04050AE5D953B82C45619165C813A10E76DD6906B3C16438064D14CDA713AEC420034613
310
E1AC7241904A49FBF87409AFB1FCB9B72FE7933A87D8FBEDACECE4EDCF6A4FE9FB94D5DEB74FAB7CFEAE17EE965DF980DCCA2D04134994F9A2E94D2265DA4FE6AA7B7AC15FACAC2B5ABBCD7DFF542C5314FDAB2E1B9D8B65220B8E2B638BE008E8DCA22678C820C5053664D15E89F2D735B51A84955E81A443545E9FF787BE
310
0FA700A76D136C27DA179A7C6E8939E01BE756E19CB292798063D8B97F44E8A27BCF3A614FEB8BE974A718E86F7EC99B53CA35FA24F61F2B07266684623A3D4CF073E511F3A10A8FDAFAF0078C577F4DF9D339FE7862E5FA47CF4344209E5BF76D783B1B48E152AD281B15FCB934DCDA49CEC5706B1EE8B460F435324A5CAD
310
154725E21AB8044B75A557A79F6C807B9340AA3D92503E866F4274412926C8C504E4D5EF8C0E68DD0B028781A6B4054F11CF18941F101C57CCC796773ABC8DED9CD91FE5788806C05E548895354AEAC96546D55B0E94A59F148D061F42AA398D822CDECA4CDE79E13469BDCC44FDC990F366BA5978C15F97ED80CBFD73B0CD
310
9B8B83A4F6845BDFBFAF034019473FB9A63BD55D3A4A7284757071574029A4D016DCCBE95DD679EF3C4880BF169422F8C89B68A988D2B13793CAED4F74DE7486C72DC94DF46B8E93D8E02EFCB1FF9B3BA10C8AE7F653DF94F4AF466CDDCEF5776687F7C4C14B63E4EED1719DC2EC482D7DBCC7AE518CDE3D5FF86D39000EC3
310
673C0044E1D308BF05F74D1B5F033A7D1BE7F74BC55BBE3E4A20F920946CA0271EB17BD2B80E5660ACB8A29A79F5E4BBA49D4D945B6EEF4A7EFEAA65E5555BBB57A7E15D2F83C69F30BBB978D2B39F1F26FC097424D39BB33CA3D87ABF64E307938B685BAD44F71556A30B7E712CA4FE600613C3E554B69ADE949A7CFE214D
310
F1FFF05CB82151EC6FC31950239F94CF7AD39DC473F6EA356E5EC2C4EFA04383CEFE985A127484366FBEE3C0EC4FEA363E4F6632AE781392FD45D67B63FB8DF70E82734F431FD3443172A0E30A83D60982D55FA6A2CF86DBA8382502ACC6CDEF3B907982EED1160E14863FA242F9757347E1544275CCDCF71ECD5F8621CBEA
310
326B8BA884AD7F825781923E66971F04010D574C541D8427A438A37EEF8AF88240EED7362C953F5A81DE2D56109CDE2524EA0F5D2F87308C0C47BD97AD605878AB8589E17CA83930CB5E0DCCD75853D68B1AB136594926DE426C367428E9334AFAFF90ECE221BB5DC9E5BB53D2CDEF954EAA9CD814F0E5725F1965DD458E5F
310
8487683AD86B9D0076BE3EE91EB1CECC5331A67A3F79D8B27587C12EC2A6A70474749F27B4C0BBAFB94B34189E88DC18964BE4121B9137FD516C7755356E50D6714E31ACD222621EBBCD1CFF81D87479056A9DA0E0B8EA19D24CF937DA89F78E8650CCBDC110AAB6C4E46DCBFD0446BA9E2060E81F314AC2031E88135E5476
310
AC0160EF5C0DD2EEF1B8B5CB2D198BE9A554A9093B5F7D7E4B5407DDFCA1D9C152FD97F55BFFFDFE802954DFEC8995B983E28AC92F1971E28F531DC407A1280EB125F64A72E617EFB27DFBCEDCDA2D6F2BDADA36873EE46B9BE1782998C63DA7182BC383FB6FD15DA472B175D7E8B4FC88F38D6E07FEAA3FA3CBB8F6B449EC
310
F14D2175E5C5CCA3A42ABF24CA6C9395AF74535F4DDB38CB84F56614B0FD32D7E19CA5CF988DB4449C40E23DF2B16772594554579094450F56F253CD25EA7F77366FB1CFE79696C428BB64D5A41E986189427E5E4D7E2DAE3D5BB4972B3DC44EAABDDDD63A2264ECFA5C786EB0EE1FDC5BE34FA0F08376869FD1E61EA06CAE
310
15191135445EE8F0394161C3266A596AA035572BB0C8876180D8B9C77D307DF9DCDF7365ABDA6F3A2366436457A4DFC1F259666569A9E4A79C817BDD5610E5200FCE894A358EC72858D50EF67545DA81C6FACE3D457BAF70367E1E6BDD9A952FB4F56247F58F523B97E640246051A72F79BE42FFA0B3187F63097F91C48B86
310
8586F714B0EBD5A00A8412C1236E1298F60C72BE6C96B82B404CADAA304AE9F303176B14BA53FBC2D5E86377E35542019E24D97B96A49B2C0E5006E7795954DEAF5DA58958839043C6C70BD3B1B33B6DC5C31316D8A6923F142E26F6711A2258AF977DDF1F970ECC4F1F2B434B96D81BEB6E89BF3BBB3C7C8CC80505070723
310
D6D7D7D3C8CA27CA164A26024FED94B12A86031867241DA53D929636DA600F050BC40CE48B8BA03D69224720DEE2ED2127390BDF5E6EA64527BBD4C4C63FA76BB801FEEC0E61218EC98A8A86CD8313781617877E66692839B9468CF4DB8E50A73986E558E309C0D6F676F921BE02F1185454DC75B111572FF9D27D85EA14C0
310
5AD7271225B391C4275659CA4A43759D0BA44639BE4C30A84DB7F67A41399FB95CBF923B1B1672ABC807C1590557FB18D811983FA97F5E609516D62281D38B1281F68FC75528C35E4CD7DF0F7DBB5E5DD69C414EBEA2F4A5B241B996BA77AE6C772E367408C633EA3E438B68563EA8BE7667F3A4C4FDEEA52ABD78A2820F44
310
3B7914A15F180018D231E64519C56A12F6CA7C8DAE18F06F6B769DBF92329EF6A5D18FBCE600F36BD8E8198DE5CDAA96181F3A756EBA5501CEE58F497EA4F418A2B82565B9BCC611713C0B708CCA1F398B78C5F7D03B3437CC18F13061F55C7BEDADD5ACB1DB0E36D3CE47FF6EA1A563A57E9649EA5D14D1A50EAA45746338
310
1C073777EF1600607BAF6428A7DDC079D47A204EF1E1F1F0589FB054D45E02CE623B3823C317C601E589E22B1E88B448524B86A82828E32345EC18AE17214B42F8C41C6D428016D9BA31DDCB47572561E5A402E5BA4FCE55F78AF7268524AA04130F3A20BA5D1E9F9948EA48FC8F5314FDB35E21898198060034ACE5E3E2BB
310
CA34092518F275190AF65F45867FF0900AA4B81F25427414C372BF51DC29AA855C5428EE1EEDD6B849AD60F6E73475C2D2523F8A2772C840A478DED18A8C5C91B085F255DC4F54EA7AA8947354FD17ECF8FB3B4A0DE7B483CAF3A1165EE05BBA413E5C1FEF3DE1D6B8F2F3F3251C17D9FCAB48A9AAF63AC773A0E413BBC46A
310
9ADF84A566FC920E4D8C52C9769EE3301CADEEEDD92B312E02E2A7E35B7F1E7D203FE5A7D75578B06E99D0E46FFADB8FDA17ED8880390DA29094202D6F645F76F6F96409CDA05495A96E84B04A00D1A6C6C81D7F3DE9376E828CCF144EE50E364ACCE7237EA0BFB5607ED1AC3CFE73794E5B61739D14DF1743441B1AC98F00
310
ECEDE9E7301FA29755FBEFA68C91EF2B314CF510537EF1ABFC9A762496280B546F5EDAAF8A5B387D469FC9A878A92828C88608453ACEC6094DCA54111E7AD5B2663DFE2DD151B7F123B9F4FEF8EE36AB125FD7AD52A59B1B765B3E3F73E3F73DEA93875004D2AFFE3CDE9493B87A9904DD052028949041A91DC0E1BA47BA71
310
4343FD5B25E0A6A09503AFC17C790058A836A324FE31D7893512E28230332F153181C1E018E1124EBE1BA262AA428A518237D1EA7275E48C5C561BD19ED6912EDD8367DA0F31E40EEAE9683DA9257525AEA7B632B97119E17145A90231768A4F3B9120FF32E8319B015E3CBE26F1A754177D8185345817C096B0CE443A955D
310
13AC15E1FB5DEEA0239EC32A3C92241A237B0B02FFCB4F93CF2B02570C8D192E2F2A68CEEB42F12E6F8CEEFF46C251E22B4341C56FB08CCE550E7A9D6F4D6564B9EA52A83D5BF2C6E03FA19D2775E15A8A7ACF30A13C259EE7F5EF2AC3BA354F1500E1A07FC63FB4686E2F12EC69719F9ECF5FE3F35598DF2CE944008CE78F
310
0911BA5BE5D0A34E0098FF038669C26030BA9B300303039852A8F6F496341737CA7E0D2E3AAA36DE0A70AA7D9CA0D54D9AD84B18A44C9E625475E1C97B93BEBB38DCE7D227E67A2D00F531436136355F243D1FC0D712C5765754FA22FCFFAE97919161F46D6E61ACB37D83777B385889770B50765B127768443A5C4D3A4E35
310
A3151111F146B7CA116F918A049F1C272F2CD7976C69A0068773451659A97E0F4A08FE604C3FF6CE7385DB19F4D3ABC8A0D80DA8A42096AC377DB49382B36E270B6FA7570188B4B7D1DDDDA82ACA487CCA5D38BD3BD039ADBAFA4ACFF27809239B722081E2EB9F145320553D183F28471C388BC8814E5045676767AB58A8E7
310
2D1CED2CA731379515D2E533E4CF0B39DFC625F97AC4836831A4DE330E87A8126FA17EBE583D614E71E22A8DBF2825599743E0640037303E8E1B1E8EA4E1ABFA4F62907B5E4E0E5DCFDAB417C36C6848A2B8D15F1E505434C0707E16B1CFC2A1C36A42BBF55734F8F4301DDC2A5110CEE8C0747F69519265012A2174BF4E95
310
5ECD4FDE095A3ABC70536B7AD0B9D7892F81287D667C108703C9B66A221E9A0929D030008F77FF6F5D2108EF5706FC87A3069B976F7C9FC3239D13D283CDEA83597461079FEEE049B0F392889898B7D87D31F8D60ED7B56B91823A8E4EDDB36C6172ECEE42BD42B12CD67994FA0F0DFAE9389356F4CD4425A4B8AA55CBF7EC
310
D585C6A2C2316791E43D5C06841ADBB226A87FD61515FFBB0167B74E56BD7F3E90A57A97FEDCBDF483A0D6699A8C0849CAEB4947FAA90D8E332D9DEBD9F4738C37DA0CAF9CF3DAA68BCB67C420459C7A64498D6E848E5CADE92BB6901F607AA331104A67F7CD650EE169B1DAE94D2C31C2F993632259B6957E246EFE4C5481
310
107B07118607700040E5812A2A2A38DA0076875258C753F60E0F2662C748EDD5F3F3686B8FC3BD6FE631ECCAA1E8B1C1E565AD117E54893E79F4672E32F9E46B2A183DFDCF3EECB4D4D077DBEA0DA254D256045109670050129E9B9B1A9E4A11344D61497A992778095151510C4BB7EF2009B63AA4360635312E4CF668B7E0
310
D3D85A8688E2BD83B569439892ADB63461930D428E0DE42E4AC57CE48DA5CC1449530D8BD3D6A0F08DF20C8E8F570F2CFFFCEA286E30969B4654D498A58D9DA782E19FE3F002181838925592C4A1EF0B332D88B61A92C644547BED490D3A42CFFAB70E36D961F694F6307F72FF15A1C79D5B1B5CEFD353D9E2B52566DEC8F8
310
F09CB3E8359C0F68EBBB7898243E34E12A015B2685AB303C04D3A9E00671FF3DFF0A184E4A2ABEB2B666AF5B3A209C73D8EF29DCDB069C9F391EEE9DD0F74C7BCDE16F8F02E3B8816122BBEB50665775B600549D8BB33A54A6BF940C028118BC6878C79958D6784F9DEAA6E26748386FFAF8D0D0101E2847B6563F5D8DC1D7
310
8F787BE00E2C941AE12148D4A81599FE8F68D4DA5CDED75530ADE138240300EE13B0FC13A1687FED6774662C05A2B7DFB186732F0D7A93545D8B0A6390AE5054D9CB582DA846D7A061B3358B45E2B52DDE63E114397EDB7E09233A579155D795BE76102CF277F4DF8B188C4F2879BEAE3C08347124BF9ED23B128259FE107D
310
31E34A652F090B30B39E0D9AF917B76A2806135621A8A60681F16AF216514BBD02711585B5B1AE823F4B2D0369EA5B6BCB863072727FFC871CA6C9AB79A814D989057E9470A3D238BC87CBB4A0EA49AFE2B86F22E499793CAA9047080450166BDC357524561E258C77CB697F1ABB32562CF87C3B7AA12F911EF19FB3E5C022
310
22E887D08202A60A17151F5E053A86B437771088B4FEE14D652C43E8D939995D34545E12E2FF93D4E366EAD25F10CB7DED141563C3D0C447AF06078A91135FD4B9611583CB4BF3BD167F2399CEAB0E0100F8FFC305F00F1711717173138B4B48C83022295DE657EFEDD97F238ECA80F528AFB4F8D67AD4E2594B9A3AA86D74
310
87EFC313BA95745C186F0CDD84CC12DC9CB0424B42203D351FD9C0A3AF10CC7F388E0329279087386421F194F4A29464C1DEF7EF8BE515E4A199DCD5B909342598D8FE6A231F71336248D5CEC5454455C7BE383B3BC7B260FED27F703FDC39A170F3827239102F59D4DEE7FEF82EAA1A5E4BA94DCC4CC44E7E2EDE20F24244
310
E4454369D2E87C3F823F193FD4FD27E1C23984B01898D15ABC20711A8A558054951A6AE280096BA36CBA439603B7B0B4C45F248C14B2383B4B5CD8ECECE4FF859AD4A6CA2326D020EF090F4041D28DB66E5256B56232CC52829DE8060BAE6BBF37D4B7469B822454FE93210A3E8D15E69FFCF01123222611C51C4FD0A041A0
310
CFA2471CF6BE38D2B20FA4C3525B5B8B586759475CF80ADFE67A284AC24651E52B8E683D24C2622642F27E7C3C22783BCF63648BC398BD6CD0D9C97E7E7E3EACB6126DB7A6C1FD9F1031302EE67ED96F22B77C7CA0239BB324207559B105E4693EB26EC46182A92C9C0DBD24F29B31C5C5AC1F84300E0E17CEEAC15F5736FA
310
4A98971E2F1423BFCD68D4BBD5F86E74B40A369F39507C88FCDB35D2DD8DEBEA4AF999E23CF2816D204200DF6E611781B9884C1AC8888B4DE397320472959434323A5A36B22A8E1F721A270DF3BD65E4A31C11FF048AFB0D8B7B6881423793963A23CFCE935FC189ED36FAE35C46DA3574C979E4394BE52084F3081837BE03
310
3396D2EBD80F1F691B273F660D2B32FA27A33B1DE4ADA5F0FA4651511102DFA410DDA86E065272CA314D5249DF91B06BB92807B28EFD54F08F7B525252782CD276DD02E6B0319B13DF87B1F6361AD6B28FC0D711CF445429B9E5A433CD493051C49A9E03DDB1B147D880253514A5DED88009018620EE229101C041950E2D8A
310
A8E1F5F5438E0C0C0C60EEDEE9E3E0C051948C69F84BB7B2A48A1F3C8EB9E6864687F4F4F6F6E2FA87608ADAF9C5E117B7C1A737E710769DA1D15ECE6A84502AA855398712D5FB51BE92E4EF824969CE18278798AC303C2C7980DD2500ADF8FB1E6D6C2FAAFF9987178923334A244758BAA01A9A1B70FA5097D01E1CC2A58D
310
AD0EC94CE6430AA9B0C10D75E3C6BAC670EFBADEE1607739CE0FC18A2587E3EC3058562014C64219C69BC269082D5C2F4A659278D585755912176D78A1B641719C2A394CED495A1AC5D583FD2F5EDD93308EA7EAE8A6DD396598BDBD3D4CFED62D18A5BDFDE0DD5C80D1A89BA62697B131AE7CE9A6594138582F1B37D68F17
310
49AC7CB67A70695D48A4A056AC1FBD4E82358CEAE38F54B95A9016F9000F9879C0D9D131768635CA798895F27D6F1614F11F2838A83611AA51C9A3DDB539D42979C29F10465655C17BEC3E2760B80DCBF609198C7B171A531905F3EC218D696025975E986C6B4C666666787271F202805577DD5A3EF0CAFAF91B62DC4B2DB4
310
217A7606282F31D8DDBC290593BAA93EA6353AFA9939B877978481E15CFC9F2755CDC00C538F63A4BA3E80AE009B73CA0185687D339A507D165B74290D6EE46D5C58148F020C3668ABE9EF2F7549170DC80DB41FFC1D678FF19AEB10C7133832B104B80F691B3138F97A92D26E551F1F110400D45AC71A9B9AC41A1A1B1DAE
310
ED0B0810638EFFB511D46B121C6FEA0F38CD00E03CFFEB9713FE1F9C263E4DDEC160D0497FA9A132BA608584057FB15380825DE6C7FC3C667EE947D488A09898D8E939C4953BF4EC9836344D2CC6B2971B2A21A572B06096F4982D2CC7232D46E8EA69DC83722E267754D777F97F96D5DA74E1E75178084D0E70F12AD33E5F
310
71EF2AFA599B2BEBF60A5BE475F444F240CBFE8143C334E7ED9150FEEFEF7EB020C4DBED388DD1D6A167A76F3CBF119B578AE8CFA7736ACAFA4440A1C47185638A0D2F3EB5BDDEFDA958FB13CE4AA4923D5BF840392D45544329525749734866684BF7F8D9D54D892E19BCA9F829A0F8BFCBEEA6CFDFC61D74EA1A645ED7A1
310
FF241739F15694BD835B66FEC5677E40FE69BD3F91AE402F036537218A401CB0828604AD189E575015C6F3F6BBC8AC79CF6C70653847254B31551EFCBEB5978B9DB85D58D0FA41A9DFE9C624834AA04949D24B5AE6D299E072D152D12097920F14AA92C31C3B97E28B6C2E6E9C23D63043ECBBC0A60FDF5BD0C33C127EA8A3
310
308B8B6AFFEB28B4455BF6E7AF4FC6222728357EB8E46E85053E6A8843AB23295BF838ABDA94658FEF3F832F147046B4ACD6F7D48E8FCC9618582961C898D1C7A253C91BFECBDA6BA18A1FCF70755DCCEE2222F41B76D23CA98D0CB3D95F0CF66D57FFF65E2A90F5DF40FC3187621E981BD0BC1D992787212688976B94A8F0
310
C6EF646624B570B78E068826F87CE27041A95C9A4871FF65CC17FCB1639629AD6A9517000D63AC231F3D741CB8430777E7ECF80CE7A3F73C0F162F7E56AA71F4DA80A33CD6ACEE78E2C11FAC03DAFCE929B106F8F6B3ED2DC71FF994BD9CEF4E9A94896EF1B6E2B7B4978168BCF0847A3D2A4F1B0500B926E634B174548E9F
310
BAD27153FB5FC36799B1E6C7C38A94E1F9E996796D7B485E635D5287A2AE76FBD11A341DB3F8F810385BB7296391973DC6C37C452A9305AEBBE0CDB6C566DB59FE60C8E94B1FD090354BF51439FFD1B48D725228FFA88C84F686F547107A7A235665A4593B7C34D748C1AC8D56DD5DA861EEFBADDECBBD65117E65851F9035
310
1AEB65F0EFCFF4BCFEF24CB7A5879699FAC437A7AF9099186CF006BB923A59E37D7A36A29FD8D2CBB914A5E9D0A8FD212FBF796AE9A67958FF1D5D8B85F78F96219D4714EB919929241B6C018AAE0C02069F8D919961EC5DDFBFB7573E3AC8E08BFB7C8534BE6DE045B3CD63DBD71F7638BA2309CAE398EA3A7D8F98BBBC7A
310
EB367EFA5CFA27A9F8F2F52FE878058E6209C026453F8E7E8A237DFC389E9590F6059B397CFD65183BBF936E86896612A5B5FEE49DAC8455D026218AFEBEC12B3523A45B57B82C9C97E02ACFA1184DB18E48CF615DBF39C3CC6F0B4AE6BBEEA2E39D944E290302FA3DE33FA7E40296E2EF7BF1CD855BBECFAD0FD622BEE974
310
6FC4FDFDE545AE6E3BC234CADF83A0FB76DFB145BF3828AE3436368AC24989454F8FF70A177672C711CAA1A76107218CF948CA01F873520E7A2B118EBB161ABAD432932029628B6761590C98AB590C8C8C79798CE9F715BA696E839E9131A4BB68BE923F1747FBFF165331FFDD4D05997ACD168F12CA75348DAC04C7F509FE
310
83898A8B421181AF492861CE81E4A2DD0A30850CFA95E05F097FF70F9E777310D584A75BA7018922E271DAB1D785671157685B7D383D3E074DDB4F1E44EF04B07BAAC75A062077C54B9752C738C9D804D402E02851F3F89605AF189738C18C021D2139EAF72513824E10DDD3047BACC8521ED7E98B257D1166903B1B08FA6F
310
918FD7E162913FEC7D0EF4787E29C35FBA8C6E2C9C20E9AB30AE42CA2A01A090E7D010C1B5BF9CEE2A304BF3A987FB40D836979B79E18D70F257DA61E808472DD85B82761825779D6B90CAEB0F23360C6F80A7D7D77545E95B3DFF0CF96A827F9B5BCECD2C9698718417EF80FEEDEE938AFF55859D0D540B7FE09435583A6F
310
04874A0C7E8CF234DF4879722000167F5872CEC6BF3EF7E5A8CC8121E6A359227C8A29C95212F9F735BC72A887D56B8F309FC525BFB4FD767AAEC4AEFF249CFBBD2DE1AB9969A6155C7D8DABC307E47324C1F916C7BCFF40ABA5644E9FFB9238D19ADADA49D9610F01ABBA57E4DFCBDCCBB2B93C8953206C91DE01B0E2651A
310
6D6C31721915B31F7B7CBCE55466F6D70402788FA91D73BE4ADCBA99A35F17D6B83383704917D6833F0FA3CD45C926ADB8BC17999A4A0AFBCE2541F7B8CF4C2F5FBA611B3E626D64407CB32C122DFF4EF8674D6EDBB86C8F7C6A16D50FA685E2CCA34F8F7D1D8265BB0042E9D7F1F666F7BE5FAA5184DF58E12122A42EF02F
310
461B3F369AC746F96528AD208512AB56844CF75B97F352DF7995024FB02855385854F3798670D01CAC771AC3E1889EC25F61A20C1F8CAB46898817F9C47E2CDA1F286BF2F358298709FE567C91133E2638C8B53975E753EA8BFD3578B5F7186B7BF084EBA3F77BAC3132A5779902EC22AF2D2E79F42D324E083386DAEE9810
310
D1B44A5DAA54513C7A71E52A4AB9257D975B621308FE4D2141CC3DCFE946C154A3C1DFCCA7629EC69ACFA831634ADDA93C0388D2A9A2DDAFCF957C6995BCE7FBB6DC4EBAE79E63EB08E9A25F52F67076F7093CA545CA3053B5BF576DEAD4E0017143C5F759F32B2D6F145B52B67B48909B7C7FCA6586EE385A2189C16932CB
310
6DDFD9152AE317C430492A578ED27B72D85D40C7C93C097939E1B50F4D67F05334FE9DC362C30B7FF561B95259138ECFD9274C8D695C31B14D4EAA9F3D7FA8DDF652F8C5DEFA23284C799B7D94416DEE81E05A866302DC70192A5368EA65E1CED8BF107A1E2D3119A71E85DC1A7B0C1E93274CE04DD0F2ABC8AC7C987FDB00
310
2B6F81757B43502EF7A0D92E416494FAEEA4C9C090CD9557AA4D532F4996A272B94355C5A0E4974EEA9627476F30809B94D8D8D860062E02204643BEC7D0438AF800FC7E2B26955D595421E83C69E1A07E0E3122285835F014AD538188CF9737CE76D464A353FA55A001AB2526B84E985083693BC76FE211CA1D000679C889
310
E3C009832C87E1AC2EDD05C302557422DF0800E316FCAC86978A371F025A6C7DAA9F333E7BD160403A1A06EA75AA9888FF01504B03041400060808008988585751464CB48900000043010000360000006662782F39353136323931462D313431322D343644372D383538452D4645443644444236323245442F646972656374
310
6F72792E786D6C9D8F310EC2300C45AF127987122606C71DD918B841D4B851A43646695A717C52A85029031293A5A76FBF6FACEF7DA7264E43906840EF0FA03836E242F406C6DCEE4EA06AC22492573150D1F66C60C640E8938CB705396EEDD86DE9B5042FE27813D640EA63BB001C722AF6E55CB61E4863F58284D5D3F53D
310
D715CE1C3985E63FD7F1B7EBDD617E9F1E504B03041400060808008988585734A56F0840070000541C0000340000006662782F39353136323931462D313431322D343644372D383538452D4645443644444236323245442F6F626A656374732E786D6CDD59DB6EDB3810FD1542FBB2FBA0AB2FB10BC54562C78551A42D6A74
310
B16F022D510E37BA81921267BF7E8714294B8A6C2BDD162836011287A186336766CE0C47EEFB431CA127C2729A26D79A6D581A22899F0634D95F6B6511EA330DBD5F2097A569D1D8A7A104C7E45AE3CBDAC2DDB3B4CCE45240425C46DDD5F5ED5F28F7494234E44738CFAFB5DC7F2031367059A401C91F8D0017D8D88707C3
310
36AA8D6DB17B86B387CE51196624294055584F408AD4C06EFF0926990BD7E41B5ADB9C61DB4667B699C2F0B6A234C90B9CF8AFB4EAC871866935B2C7AB3B6732D727E3F1481F4F1D5BBF5DDFAE74FB6A642DA7CBE5FCE66EAEA185BB4BD3A87640469200BCF8A22D6CD7E4FFA9CD9728F4E9EDA749427C8966DF868048B994
310
E45D4C5AC0DAC2B486432A5B1B0BA381C69FD8360894964A2DB49571EA77337AD3DDDF00423E244A594E7894E705035F4BECAB7CB05CB35A6DF985E628C60561144728A23B86193808B6560E6A89E1D9C245218E99F0A292D7D41502FB722EF569199651C4F3575B884CF3201F49910BCDE83F841DB56F9E063A81B5254D8A
310
9934B678C940C4DC35C562F5BF9123FF590189C208EF215AC04CBE69E474F05A722ED8ACB4C5C7F5EEB0E5FCD07F78C6D28CB082479E48669977CA838DD082E01B004A856BDB774754BE02F49F00F95A17E482E7183D8C0F63653BC3491EA62C06EF200BE916FCB010FFF8EA936BD60F2F106A71E5294C216D7F10A62D335A
310
6737205DB84F10F4291B49E3B63E8E20A6EF69C2F31C020545292C01DF87BB83B6D80099C2223C8523B01EBE5D937F44F0AB92037CD3F1501FFD0E70944A986E9E1D7DF501628651BF7655CBC653F84E7E08BE37ABEDC76DC942EC937B99D82B12D28416504CFB156A81DE4AF96F9B4F22235FD9D3DAE5C339FB9413478F5F
310
B6D22F48380654E175B8728D58B9A790EE5184139296B95CEF232A3F8D52E6ED5EBC2A877BCFFA5305417518E4378F805E3283EAEE339A7150B48534AF6642E38813E7411980FBCAA9DE0EFB8F1C5ECF07C6FA1E3D206A31EB0A2DE3CCC3715A269CBE5F8777D7346364892FDB9E3BD6DC99CD271319F0A0BB3840E58F2287
310
5A7D7E528CB313C72C5BFE92BCA180AC32690C7CD967830F5D53597869867D5AF44743C78C812A07340CCB1C68BD17988EC6C6C89E54D8A89F8E83AC37ACD64A9DB7562AE5D118EF8917625E137BF56B015A0B574EEA45721FA5794E13928B9EE615D77550B40CA08E2AD295D49EB0A5B91793027F4FC48A22D9095846C2C8
310
83EEABE0FDEFE578550ACA7A7B4A22EFF5D2C413F6BF78398EB3A8EAEB2E61603B9D137A71E54AF3239E203E3D5C785640449B7E497ACD240ADF41D2E7DF2DFE043C0CFF7478D411149A75A8AA973D6B1B137BCEBF664043D3893D9A5ED5AEB884963AACE07D4B5442A7E5BF78CF84EE1F8691A072F9D9737212851E8DA232
310
F6AA1A529018DA365C946C50C64E814DBA074966E8A444E3A49046D0540FA659D1AFA88E050E130DCB299A6D1C0346D104EE75830C7965456F100B5F883B2CBFAA5DF6FFDBA5FE67C66CDE6D1EC9CB73CA825E4DDBAD87EADA5493C10953D6C4DABD42F2C26DA65F2C2E3B9771182B2192E1AA9B858C10469E281F66885B53
310
EF9D237FC6850F54BA15BFF55BC8888004C73EA4254E8E46B4051CAAA4A9DEB6793B02BAE305A4D5AC6D38A5C630A1C09C69EFF987E82B065743B7989BB21332ABF50D2F6D060C638E7A9C91F5F9C3B6230556063FFD8563449E3B12E4EA92377F67447DDB1C7BDC8E0469D1B7CD99C78B8732DE2598F2DAC8C30207D9BBF7
310
E2FE796DC2E5C29C4FECA933B7D7BA3DB61D9877ACAEF4D96476A7AFEF56D3D5EA76EA38772B93913C2D994F72D3312D4F755B59B25781514137E416029388CBD74515CF5D07FF8F6F2151BAC3A762F157BD84D40D1F6FC93AB938F412D24BD4BBB7DD18EC5744DD5FC4DED46B57F30515E0E7CB169091AAF7C39B0B255A55
310
F87E9D1B15F18D85F7E4FDE6A7D79816A1F7D687D68E3ECA6F7331CCAB7AAA94BA110B5EBB9DDEDDCCEC91AD2F472B4B1F5BF6489F3BE399BEB66FAFE6F6727D77353EF66EB2160EAD2BBF04872A651BA3379820E7694461904F02B42729DC81605231805F594C7271B78106409671F51661C0D34FD51CB6C0BB483DED3F60
310
186647B222973E0C52E1DE71ADC975F41B8C4EF9F4520CB48C47283C32DA3554327AAD41081414EA8BB183119818380AE99D1127B80D277B7E6BAA9EAAFF3E3EC6D1815839DA55EF19828BB4AC159D304EC8C4BB05603BD5907CBFE94A1D840BF8B82B8BDA98E3C2D11A09827A8950190793C24709EF0188E7BC5DB621F6B4
310
201934CD3F1B079554BDC06C2F46F20DBC6F565F4C3E4DDF7C465954EEB93BCFD5FB96249DF71951590DAE5C080C696686F94D7CF9CEFCC252782D15A335852040BF1F66D33FCC651AC769522D9937F2E516DA3EC0ABAAC0546342685C2C7B668ABE47BE0A8059574E0C1CE48FB000AE6594CF532B885B0150D35323009447
310
B82FE0B1D6FECD0AC922D068619BAD2B8747BC07409048FCFD0F4F9BE686C6D0127201B4AA66BBF507B5E09A0C06E78B7F01504B030414000608080089885857F9D73DE4E2000000550100003C0000006662782F39353136323931462D313431322D343644372D383538452D4645443644444236323245442F7265736F7572
310
6365732F322F636E782E786D6C4D90CD6AC33010845F45087AB42C3981B661ADBC444FBD0455DEA822B6D6E8A7346F5F2955A1A75D663E96D981F3F7B6B22F8CC95398B91292330C96161FDCCC4BBE0E2F9C9D3544A2FC0FE32C980D67DE64AEC1452A7B9716BC9AB23675F5E1D645797118307A7BD983E3CCAE26A59927FB
310
899B11A6645A30DDC462B2114A444C54A2C57A22FB0DFB091BD1645CB89EE47418941CA6E39B7A3EC9E349BDBEC3D8480D1F446BE77DC818697F9AA4A5BA869A48C2D8000D25FA4EB537AAF1174FD47830565B43CAB176D0B17CDF2BE637E3707C20BFAE86B13D59C7A3813A5B21FA07504B030414000608080089885857FF
310
15A4A45D000000800000003A0000006662782F39353136323931462D313431322D343644372D383538452D4645443644444236323245442F7265736F75726365732F636E782E786D6C4D8B3B0E80201005AF42B6F75B59F0390B113044D83508C6E30BC6C26AF226F3B8BA6360974DA7271430F523308B2B198F9B80925DB7
310
00539227A2FCCB80A18E5640D320F996A81C9F32D6E9129A0D1EF74FCE750E6D57BC7165FBCA07504B030414000608080089885857295FE63D4301000056050000300000006662782F39353136323931462D313431322D343644372D383538452D4645443644444236323245442F636E782E786D6CCD944D6EC3201085AF62
310
217569B0DD48FD112652173D41175577184F5C1A0C160C5573FB42EA24ADAAA85D444A7668F890DE9B790C5F7E8CA678071FB4B32DA969450AB0CAF5DA0E2D89B82A6F49B114DC3B87DF30525839424B7299083E7817A7B9D4C34A4693AB46DBF55C94885E77112190421919424B827A85515219D1F510D6B49728694D3D04
310
17BD82F41EF508F37BE54122F4443455735DD655D92C9EEA9BFB6A715FDFBD709649C13BE7CCCC6B8BE0DD74D554CAA5A34D722ACE322078F47AA6B207220EDA68A72D67E95EF090F4DA61E67033656E9A8C561253A3985308582608E4C8D9172C38CB8E7FF87E7C783E6848A75E7B50E8FCE66C6DA88FB5612F8DA644FCAF
310
0B5BF02FF3AE7B4B96CF37F7A386676127B3BB4B6E48D1FD9D849427690773891F602FEDF4F94F8B05B5BA44D33B6527F2CCB62B300D3E6F44F109504B0304140006080800898858572F49039D7D000000A30000000B0000006662782F636E782E786D6C4D8CD10A832018465F45FE7BDB9472066A10DA7BC4B290990E9763
310
8F3F1D5DECEA83C3778E183EBB476F9B5E2E0609A4B902B2E11E17173609F9583107342891623CFE6E80C2BC5B091583125B8AF979A2C5AE73F6957A171E27EC3BC2684F264C5A4271CBF40DF38E1B3C19CDB41E19A54617E3529532BF5ED99A575F504B030414000608080089885857A6D797065F00000082000000070000
310
00636E782E786D6C4DCB3B0E80201045D1AD90E9FD7516806B51190811670C8A61F982B1B0BAC9C97B72CA7B1037C6D3332918DA1E04D2CAC69353902EDB8C20262D23F3F59B81A079470595414B17391D1F19B4730A5583A7ED43BBE4025D9592775E5ADFFA01504B030414000608080089885857ECFD112DA80000002601
310
0000130000005B436F6E74656E745F54797065735D2E786D6C7D4F4B0EC22010BD0A61DF525D18634ABB506FE00510A79458060253536F2FD89D5197F3FED3F68B9BD80362B21E25DFD40D6780DADF2C1AC9671AAA3D677DD75E9E0112CB5A4C928F44E12044D22338956A1F003333F8E814E5331A1194BE2B0362DB343BA1
310
3D122055543278D79E6050F344ECBC6478EDCD76CE8EABAE5449AE4298AC56946789C28AAFBEABC53F3EAF09A84A1441B91F0101CD4780756578C173A578FFDDBD00504B0304140006080800898858573DEE336E64000000790000001B0000006175746F6465736B2D64657369676E2D7061636B6167652E786D6C35CBC10E
310
83200C00D05F21DCA56CA76D41FC96062B120735B69A7DBE268BB7777961F8D5AF396893C2ADB70FE7ADA196782C2DF776D7A97B5933C430F15651E5469C55D70F80A4992A3ADC954792C525AE70A1E4D6AD9816CC044FEFDF01FE3FDE907802504B0304140006080800898858572F033719F40000008E0100003D00000066
310
62782F39353136323931462D313431322D343644372D383538452D4645443644444236323245442F7265736F75726365732F322F636F72652E786D6C8550CB6E833010FC15E4BB01032A21328E20822FE8A937CBDE102BC1467E54FDFCDA814AEDA9A75DCDCECCEE0EBD7CADCFEC13AC5346F788E425CA400B23955E7A14FC
310
0D9F507661D41AE37FD150A6F90A3D4A306274B1266C07248CF6A013AA8D8403E4CE81479978C6A6474EDC61E5390F3E32DC23DFB878F0057292EF3C464350F2902A19DDD44D81458CB4F3709DEB098FC33CE1A61B463C76F388A7E6741DC8DC0EDDDB488B2466D4ABF567BBB0C03D48C4AAB2AA312971D5BC93F65C3667D2
310
7DD022311975DEC69F8FA5E9BB48A7C58EFE710B9BFCDF2D28EDEBEA70DB152EDE1F8F7B0D182D523AB1BCA28B3525C9BE01504B030414000608080089885857AD886DDDF8000000960100003B0000006662782F39353136323931462D313431322D343644372D383538452D4645443644444236323245442F7265736F7572
310
6365732F636F72652E786D6C8550CB6E833010FC15E4BB01032A21328E20822FE8A937CBDE102BC1467E54FDFCDA814AEDA9A7B56667663D432F5FEB33FB04EB94D13D22798932D0C248A5971E057FC327945D18B5C6F85F349469BE428F128C185DAC09DB0109A33DE8846A23E100B973E051269EF1D12327EEB0F29C071F
310
19EE916F5C3CF80239C9771EA321287948958C6EEAA6C02246DA79B8CEF584C7619E70D30D231EBB79C45373BA0E646E87EE6DA4451233EAD5FA735D58E01E24625559D59894B86ADE497B2E9B33E93E6891988C3A6F63E6E3684A879805678215E068B16FFFB8864DFEEF1A94F67575B8EE0A1773C44FBE168C16A9A5385E
310
15C6991A65DF504B0304140006080800898858578C94A87EF2000000B1010000310000006662782F39353136323931462D313431322D343644372D383538452D4645443644444236323245442F636F72652E786D6C8D50CB6EC32010FC156BEFD886388E1D61225576BEA0A7DE10101725068B47D5CF2FC4AED4DE725A343B
310
C3CC0EBD7C2F8FE24B39AFAD1900973514CA082BB5990788E1863A282E8C3A6BC31F1A14862F6A800C03A3B3B371DD21614D5026A3C64AB583DC7B15A0108FF418C08B4FB5F092C79018FE5EAE5CDCF9AC4A5C6E3C46835E7EA5C2291E9404466A7240B846A479C7A773DD9C71FF41ABCC6434462D772B2D93BBBE69E580F5
310
47DC921E5F116E30414D3B9E5077EC26749DC6761CDF5A42A6915659CCA80F2EDDBC7F92AF7B55BE09FF658EAB7C21B336E14076C34DE181E194E7B960B4CA05A6F16C37CD5C36FB01504B03041400060808008988585764F3C2FA54010000DD0200000C0000006662782F636F72652E786D6C8D52CB6E833010FC15E4BB79
310
0535A1328E200A5FD0536F0E38D40AD8C8D8289FDF350F510E4D2B2463CDEECCEE8C4CCECFAEF546AE07A16486223F441E9795AA856C3264CD1D9F9077A6442B657EB4214FB28E67C8C18892462BDB2F50A5A4E1D2A152D57C01D9307083BCAA854B8686EA8B77CC67D640C7F0F07B563D58C3FDC89FFB28B156D40B55D4A0
310
26EE826B44A363995FCAC315177979C5499A17B848CB025F93D3258FCA639EBE152470644A8CE8D6E995E6CCF01AD1388C0F380A719C7C44C7F730798FD24F12B84E4A06A3C1F332D4B943F47E7B9260C6777AB6AFFFD6B3429A43BCE8CD8C011CC07A538192C0E503BF29BC7D863018F233ECD6AE161E008DBC324A2750A9
310
95DD4A236B2D07E9D09B3E12CC55509E047ED3895FE8BCD680A0986C603566E07AB3C64DDFEFD4738D47F3F4A4D21D6BB7E5E615B7731BB4B3B4D22BD52AFD1FF66A750D33700F937E03504B030414000608080089885857CE61962407010000B201000008000000636F72652E786D6C8D50CD6E8420187C15C21D153575DD
310
201BDDE813F4D41B15D6925530FC6CDAB72FAC34696F3D7D6466BE6F862197CF6D050F61ACD4AA83382B20106AD65CAAA583DEDDD009820B25466BF74B0681629BE8608421258BD17E4FD0AC95132AA24A73914066AD7010CC6B7874D0CE1F626319F32E28EC3DDBD97C678BC87076E8287172FB599D8D604E7048CBA2AC10
310
2E5059BFE2E65CD467DCBE913C2A29F15EF2642579709737290CA4B899FAEB548D68E8A711D56D3FA0A19D0634D6A76B8FA7A66F5F0692C7654AAC33E1CFE948C8E980658FE84BF283A2E45DEB350942280EB45ABF202D481E893FA1FDCEFF115A2A5795E9E0B16143E610E84904E3D86018CF7AC38C6DD36F504B01021400
310
140006080800898858570000000000000000000000003700000000000000000000000000000000006662782F39353136323931462D313431322D343644372D383538452D4645443644444236323245442F617474726962757465732E62696E504B010214001400060808008988585700000000000000000000000035000000
310
00000000000000000000550000006662782F39353136323931462D313431322D343644372D383538452D4645443644444236323245442F76657274696365732E62696E504B0102140014000608080089885857F270F13306000000040000003600000000000000000000000000A80000006662782F39353136323931462D31
310
3431322D343644372D383538452D4645443644444236323245442F747269616E676C65732E62696E504B010214001400060808008988585788E57597CD3F0000904100004200000000000000000000000000020100006662782F39353136323931462D313431322D343644372D383538452D4645443644444236323245442F
310
7265736F75726365732F322F305F67656E657269632E706E67504B010214001400060808008988585751464CB4890000004301000036000000000000000000000000002F4100006662782F39353136323931462D313431322D343644372D383538452D4645443644444236323245442F6469726563746F72792E786D6C504B
310
010214001400060808008988585734A56F0840070000541C000034000000000000000000000000000C4200006662782F39353136323931462D313431322D343644372D383538452D4645443644444236323245442F6F626A656374732E786D6C504B0102140014000608080089885857F9D73DE4E2000000550100003C0000
310
00000000000000000000009E4900006662782F39353136323931462D313431322D343644372D383538452D4645443644444236323245442F7265736F75726365732F322F636E782E786D6C504B0102140014000608080089885857FF15A4A45D000000800000003A00000000000000000000000000DA4A00006662782F3935
310
3136323931462D313431322D343644372D383538452D4645443644444236323245442F7265736F75726365732F636E782E786D6C504B0102140014000608080089885857295FE63D430100005605000030000000000000000000000000008F4B00006662782F39353136323931462D313431322D343644372D383538452D46
310
45443644444236323245442F636E782E786D6C504B01021400140006080800898858572F49039D7D000000A30000000B00000000000000000000000000204D00006662782F636E782E786D6C504B0102140014000608080089885857A6D797065F000000820000000700000000000000000000000000C64D0000636E782E78
310
6D6C504B0102140014000608080089885857ECFD112DA80000002601000013000000000000000000000000004A4E00005B436F6E74656E745F54797065735D2E786D6C504B01021400140006080800898858573DEE336E64000000790000001B00000000000000000000000000234F00006175746F6465736B2D6465736967
310
6E2D7061636B6167652E786D6C504B01021400140006080800898858572F033719F40000008E0100003D00000000000000000000000000C04F00006662782F39353136323931462D313431322D343644372D383538452D4645443644444236323245442F7265736F75726365732F322F636F72652E786D6C504B0102140014
310
000608080089885857AD886DDDF8000000960100003B000000000000000000000000000F5100006662782F39353136323931462D313431322D343644372D383538452D4645443644444236323245442F7265736F75726365732F636F72652E786D6C504B01021400140006080800898858578C94A87EF2000000B101000031
310
00000000000000000000000000605200006662782F39353136323931462D313431322D343644372D383538452D4645443644444236323245442F636F72652E786D6C504B010214001400060808008988585764F3C2FA54010000DD0200000C00000000000000000000000000A15300006662782F636F72652E786D6C504B01
310
02140014000608080089885857CE61962407010000B201000008000000000000000000000000001F550000636F72652E786D6C504B050600000000120012002D0600004C5600000000
  0
XRECORD
  5
27
102
{ACAD_REACTORS
330
22
102
}
330
22
100
AcDbXrecord
280
     1
270
     1
271
     1
  0
XRECORD
  5
26
102
{ACAD_REACTORS
330
22
102
}
330
22
100
AcDbXrecord
280
     1
270
     1
271
     1
  0
XRECORD
  5
28
102
{ACAD_REACTORS
330
22
102
}
330
22
100
AcDbXrecord
280
     1
270
     1
271
     1
  0
XRECORD
  5
25
102
{ACAD_REACTORS
330
22
102
}
330
22
100
AcDbXrecord
280
     1
270
     1
271
     1
  0
XRECORD
  5
1182
102
{ACAD_REACTORS
330
1181
102
}
330
1181
100
AcDbXrecord
280
     1
102
DISPLAYNAME
  1
Imperial24
102
FLAGS
 90
        0
  0
CELLSTYLEMAP
  5
1177
102
{ACAD_REACTORS
330
579
102
}
330
579
100
AcDbCellStyleMap
 90
        3
300
CELLSTYLE
  1
TABLEFORMAT_BEGIN
 90
        5
170
     1
 91
        0
 92
    32768
 62
   257
 93
        1
300
CONTENTFORMAT
  1
CONTENTFORMAT_BEGIN
 90
        0
 91
        0
 92
      512
 93
        0
300

 40
0.0
140
1.0
 94
        5
 62
     0
340
55
144
0.25
309
CONTENTFORMAT_END
171
     1
301
MARGIN
  1
CELLMARGIN_BEGIN
 40
0.06
 40
0.06
 40
0.06
 40
0.06
 40
0.18
 40
0.18
309
CELLMARGIN_END
 94
        6
 95
        1
302
GRIDFORMAT
  1
GRIDFORMAT_BEGIN
 90
        0
 91
        1
 62
     0
 92
       -2
340
0
 93
        0
 40
0.045
309
GRIDFORMAT_END
 95
        2
302
GRIDFORMAT
  1
GRIDFORMAT_BEGIN
 90
        0
 91
        1
 62
     0
 92
       -2
340
0
 93
        0
 40
0.045
309
GRIDFORMAT_END
 95
        4
302
GRIDFORMAT
  1
GRIDFORMAT_BEGIN
 90
        0
 91
        1
 62
     0
 92
       -2
340
0
 93
        0
 40
0.045
309
GRIDFORMAT_END
 95
        8
302
GRIDFORMAT
  1
GRIDFORMAT_BEGIN
 90
        0
 91
        1
 62
     0
 92
       -2
340
0
 93
        0
 40
0.045
309
GRIDFORMAT_END
 95
       16
302
GRIDFORMAT
  1
GRIDFORMAT_BEGIN
 90
        0
 91
        1
 62
     0
 92
       -2
340
0
 93
        0
 40
0.045
309
GRIDFORMAT_END
 95
       32
302
GRIDFORMAT
  1
GRIDFORMAT_BEGIN
 90
        0
 91
        1
 62
     0
 92
       -2
340
0
 93
        0
 40
0.045
309
GRIDFORMAT_END
309
TABLEFORMAT_END
  1
CELLSTYLE_BEGIN
 90
        1
 91
        1
300
_TITLE
309
CELLSTYLE_END
300
CELLSTYLE
  1
TABLEFORMAT_BEGIN
 90
        5
170
     1
 91
        0
 92
        0
 62
   257
 93
        1
300
CONTENTFORMAT
  1
CONTENTFORMAT_BEGIN
 90
        0
 91
        0
 92
      512
 93
        0
300

 40
0.0
140
1.0
 94
        5
 62
     0
340
55
144
0.18
309
CONTENTFORMAT_END
171
     1
301
MARGIN
  1
CELLMARGIN_BEGIN
 40
0.06
 40
0.06
 40
0.06
 40
0.06
 40
0.18
 40
0.18
309
CELLMARGIN_END
 94
        6
 95
        1
302
GRIDFORMAT
  1
GRIDFORMAT_BEGIN
 90
        0
 91
        1
 62
     0
 92
       -2
340
0
 93
        0
 40
0.045
309
GRIDFORMAT_END
 95
        2
302
GRIDFORMAT
  1
GRIDFORMAT_BEGIN
 90
        0
 91
        1
 62
     0
 92
       -2
340
0
 93
        0
 40
0.045
309
GRIDFORMAT_END
 95
        4
302
GRIDFORMAT
  1
GRIDFORMAT_BEGIN
 90
        0
 91
        1
 62
     0
 92
       -2
340
0
 93
        0
 40
0.045
309
GRIDFORMAT_END
 95
        8
302
GRIDFORMAT
  1
GRIDFORMAT_BEGIN
 90
        0
 91
        1
 62
     0
 92
       -2
340
0
 93
        0
 40
0.045
309
GRIDFORMAT_END
 95
       16
302
GRIDFORMAT
  1
GRIDFORMAT_BEGIN
 90
        0
 91
        1
 62
     0
 92
       -2
340
0
 93
        0
 40
0.045
309
GRIDFORMAT_END
 95
       32
302
GRIDFORMAT
  1
GRIDFORMAT_BEGIN
 90
        0
 91
        1
 62
     0
 92
       -2
340
0
 93
        0
 40
0.045
309
GRIDFORMAT_END
309
TABLEFORMAT_END
  1
CELLSTYLE_BEGIN
 90
        2
 91
        1
300
_HEADER
309
CELLSTYLE_END
300
CELLSTYLE
  1
TABLEFORMAT_BEGIN
 90
        5
170
     1
 91
        0
 92
        0
 62
   257
 93
        1
300
CONTENTFORMAT
  1
CONTENTFORMAT_BEGIN
 90
        0
 91
        0
 92
      512
 93
        0
300

 40
0.0
140
1.0
 94
        2
 62
     0
340
55
144
0.18
309
CONTENTFORMAT_END
171
     1
301
MARGIN
  1
CELLMARGIN_BEGIN
 40
0.06
 40
0.06
 40
0.06
 40
0.06
 40
0.18
 40
0.18
309
CELLMARGIN_END
 94
        6
 95
        1
302
GRIDFORMAT
  1
GRIDFORMAT_BEGIN
 90
        0
 91
        1
 62
     0
 92
       -2
340
0
 93
        0
 40
0.045
309
GRIDFORMAT_END
 95
        2
302
GRIDFORMAT
  1
GRIDFORMAT_BEGIN
 90
        0
 91
        1
 62
     0
 92
       -2
340
0
 93
        0
 40
0.045
309
GRIDFORMAT_END
 95
        4
302
GRIDFORMAT
  1
GRIDFORMAT_BEGIN
 90
        0
 91
        1
 62
     0
 92
       -2
340
0
 93
        0
 40
0.045
309
GRIDFORMAT_END
 95
        8
302
GRIDFORMAT
  1
GRIDFORMAT_BEGIN
 90
        0
 91
        1
 62
     0
 92
       -2
340
0
 93
        0
 40
0.045
309
GRIDFORMAT_END
 95
       16
302
GRIDFORMAT
  1
GRIDFORMAT_BEGIN
 90
        0
 91
        1
 62
     0
 92
       -2
340
0
 93
        0
 40
0.045
309
GRIDFORMAT_END
 95
       32
302
GRIDFORMAT
  1
GRIDFORMAT_BEGIN
 90
        0
 91
        1
 62
     0
 92
       -2
340
0
 93
        0
 40
0.045
309
GRIDFORMAT_END
309
TABLEFORMAT_END
  1
CELLSTYLE_BEGIN
 90
        3
 91
        2
300
_DATA
309
CELLSTYLE_END
  0
ENDSEC
  0
SECTION
  2
ACDSDATA
 70
     2
 71
     8
  0
ACDSSCHEMA
 90
        0
  1
AcDb_Thumbnail_Schema
  2
AcDbDs::ID
280
    10
 91
        8
  2
Thumbnail_Data
280
    15
 91
        0
101
ACDSRECORD
 95
        0
 90
        1
  2
AcDbDs::TreatedAsObjectData
280
     1
291
     1
101
ACDSRECORD
 95
        0
 90
        2
  2
AcDbDs::Legacy
280
     1
291
     1
101
ACDSRECORD
  1
AcDbDs::ID
 90
        3
  2
AcDs:Indexable
280
     1
291
     1
101
ACDSRECORD
  1
AcDbDs::ID
 90
        4
  2
AcDbDs::HandleAttribute
280
     7
282
     1
  0
ACDSSCHEMA
 90
        1
  1
AcDbDs::TreatedAsObjectDataSchema
  2
AcDbDs::TreatedAsObjectData
280
     1
 91
        0
  0
ACDSSCHEMA
 90
        2
  1
AcDbDs::LegacySchema
  2
AcDbDs::Legacy
280
     1
 91
        0
  0
ACDSSCHEMA
 90
        3
  1
AcDbDs::IndexedPropertySchema
  2
AcDs:Indexable
280
     1
 91
        0
  0
ACDSSCHEMA
 90
        4
  1
AcDbDs::HandleAttributeSchema
  2
AcDbDs::HandleAttribute
280
     7
 91
        1
284
     1
  0
ACDSRECORD
 90
        0
  2
AcDbDs::ID
280
    10
320
72
  2
Thumbnail_Data
280
    15
 94
     1608
310
89504E470D0A1A0A0000000D49484452000001000000006608030000001376BFA700000300504C5445212830FFFFFF2128300000000000000000000000000000000000000000000000000000330000660000990000CC0000FF0033000033330033660033990033CC0033FF0066000066330066660066990066CC0066FF0099
310
000099330099660099990099CC0099FF00CC0000CC3300CC6600CC9900CCCC00CCFF00FF0000FF3300FF6600FF9900FFCC00FFFF3300003300333300663300993300CC3300FF3333003333333333663333993333CC3333FF3366003366333366663366993366CC3366FF3399003399333399663399993399CC3399FF33CC00
310
33CC3333CC6633CC9933CCCC33CCFF33FF0033FF3333FF6633FF9933FFCC33FFFF6600006600336600666600996600CC6600FF6633006633336633666633996633CC6633FF6666006666336666666666996666CC6666FF6699006699336699666699996699CC6699FF66CC0066CC3366CC6666CC9966CCCC66CCFF66FF0066
310
FF3366FF6666FF9966FFCC66FFFF9900009900339900669900999900CC9900FF9933009933339933669933999933CC9933FF9966009966339966669966999966CC9966FF9999009999339999669999999999CC9999FF99CC0099CC3399CC6699CC9999CCCC99CCFF99FF0099FF3399FF6699FF9999FFCC99FFFFCC0000CC00
310
33CC0066CC0099CC00CCCC00FFCC3300CC3333CC3366CC3399CC33CCCC33FFCC6600CC6633CC6666CC6699CC66CCCC66FFCC9900CC9933CC9966CC9999CC99CCCC99FFCCCC00CCCC33CCCC66CCCC99CCCCCCCCCCFFCCFF00CCFF33CCFF66CCFF99CCFFCCCCFFFFFF0000FF0033FF0066FF0099FF00CCFF00FFFF3300FF3333
310
FF3366FF3399FF33CCFF33FFFF6600FF6633FF6666FF6699FF66CCFF66FFFF9900FF9933FF9966FF9999FF99CCFF99FFFFCC00FFCC33FFCC66FFCC99FFCCCCFFCCFFFFFF00FFFF33FFFF66FFFF99FFFFCCFFFFFF0000000D0D0D1A1A1A2828283535354343435050505D5D5D6B6B6B787878868686939393A1A1A1AEAEAEBB
310
BBBBC9C9C9D6D6D6E4E4E4F1F1F1FFFFFF0000000000000000000000000000000000000000000000000000000000002E4550F1000003034944415478DAED9C5D72C3200C8475833D890E94F3F2E6E9A19ABACDC431E03F8C56147868DD4E1CD82F02493B754556E321D746B8785F341FDE97FAF323E4C6315D58100F804ADF
310
0054FA06A0D2370095AE01A8A26B00FA94FDA7BC4B003A53E817804ADF0054BA06A0CFF85F8EE90960BA79649632279EC7F1218BD7CF00E25F1F7E1B7D2F02F211016217015A1406A1E8C3D7F7F7AA00E41880879000BCB67F270016F3E8A2FBE103780807800A0DC0B173EEF3FAD411997C97F44DF84B7E3005B03A040DD3
310
E02B02F4B58CB56E3B005F44005F2A2B00520540220D02AA9A0BC9B914C95CEF6C81CCCBB179ABFE543E727FE573AC10A24640FE13A7144284336000681D80B40AE0DD772978633977CD34D80C805A8550335B80DD0EF709C0C918006800CAE884BB163600FC7E41E7001869907940FC830890DECF00195BE04E0086BD8057
310
0032000C00D6EDF054D4D086A2BBA7C80F682E0242EF5B600018003AAF03BA6F86861F30000C0003C00070C3C260ED08C11700D8A7417802008627083F00C03903E005005895207C0000AF17803F00C6DD201C0000B51D061D00C87E00C800403744E6875348009673331D219000C08D25060A8067CE7763898100008908E0
310
5962300780550662B7C3300680750D42F703600A005115CA3744600800711FE2C011821900243A510F96188C0020E545B8F0046102004937CA87296AF1AC1A927E24AC01644C5198EA8F4D51C308C898A2B0D41F9BA2969560C61485A1FEC814B5ED0532A628ECF447A6A8713798314561A69FEE09664C5158E9E77B82D84B
310
1177D601B17E079E207652C48D0012FA3D7882D84E11F70148E9170F9E20365344C5FDBF5386D3FF3E0006FA9D7882A84F20A3DF8B27589D404EBF9B6EB03281AC7E3FED70550279FD8EFC808A0436F437608BEF2E2394E86FC1164721804DFD4DD8E22802B0ADBF0D5B1C050076F437628BE33200605B7F2BB6382E0248FF
310
63546CCC4D7F60E23C8150A2DFE12333A7098412FD1EBBC1B30442897E97EDF04902A144BF4F3FE01C8150A2DFA921728A4028D1EFD5113A432094E82702F806F7E1402571DCCB8A0000000049454E44AE426082
  0
ENDSEC
  0
EOF
