  0
SECTION
  2
HEADER
  9
$ACADVER
  1
AC1021
  9
$ACADMAINTVER
 70
    50
  9
$DWGCODEPAGE
  3
ANSI_932
  9
$LASTSAVEDBY
  1
SR78302
  9
$INSBASE
 10
0.0
 20
0.0
 30
0.0
  9
$EXTMIN
 10
-1059.274539067347
 20
-2269.868084062659
 30
-0.0000000000000053
  9
$EXTMAX
 10
1074.872542008863
 20
250.9884207886334
 30
0.0000000000000099
  9
$LIMMIN
 10
0.0
 20
0.0
  9
$LIMMAX
 10
12.0
 20
9.0
  9
$ORTHOMODE
 70
     0
  9
$REGENMODE
 70
     1
  9
$FILLMODE
 70
     1
  9
$QTEXTMODE
 70
     0
  9
$MIRRTEXT
 70
     0
  9
$LTSCALE
 40
1.0
  9
$ATTMODE
 70
     1
  9
$TEXTSIZE
 40
2.799999952316284
  9
$TRACEWID
 40
0.05
  9
$TEXTSTYLE
  7
STANDARD1
  9
$CLAYER
  8
NOTE
  9
$CELTYPE
  6
CONTINUOUS
  9
$CECOLOR
 62
   256
  9
$CELTSCALE
 40
1.0
  9
$DISPSILH
 70
     0
  9
$DIMSCALE
 40
1.0
  9
$DIMASZ
 40
10.0
  9
$DIMEXO
 40
10.0
  9
$DIMDLI
 40
100.0
  9
$DIMRND
 40
0.0
  9
$DIMDLE
 40
0.0
  9
$DIMEXE
 40
12.5
  9
$DIMTP
 40
0.0
  9
$DIMTM
 40
0.0
  9
$DIMTXT
 40
30.0
  9
$DIMCEN
 40
2.5
  9
$DIMTSZ
 40
0.0
  9
$DIMTOL
 70
     0
  9
$DIMLIM
 70
     0
  9
$DIMTIH
 70
     0
  9
$DIMTOH
 70
     0
  9
$DIMSE1
 70
     0
  9
$DIMSE2
 70
     0
  9
$DIMTAD
 70
     3
  9
$DIMZIN
 70
    12
  9
$DIMBLK
  1

  9
$DIMASO
 70
     1
  9
$DIMSHO
 70
     1
  9
$DIMPOST
  1

  9
$DIMAPOST
  1

  9
$DIMALT
 70
     0
  9
$DIMALTD
 70
     4
  9
$DIMALTF
 40
25.4
  9
$DIMLFAC
 40
1.0
  9
$DIMTOFL
 70
     1
  9
$DIMTVP
 40
0.0
  9
$DIMTIX
 70
     0
  9
$DIMSOXD
 70
     0
  9
$DIMSAH
 70
     1
  9
$DIMBLK1
  1
ORIGIN
  9
$DIMBLK2
  1
ORIGIN
  9
$DIMSTYLE
  2
STANDARD
  9
$DIMCLRD
 70
     0
  9
$DIMCLRE
 70
     0
  9
$DIMCLRT
 70
     0
  9
$DIMTFAC
 40
0.7142857313156129
  9
$DIMGAP
 40
10.0
  9
$DIMJUST
 70
     0
  9
$DIMSD1
 70
     0
  9
$DIMSD2
 70
     0
  9
$DIMTOLJ
 70
     1
  9
$DIMTZIN
 70
     0
  9
$DIMALTZ
 70
     0
  9
$DIMALTTZ
 70
     0
  9
$DIMUPT
 70
     0
  9
$DIMDEC
 70
     4
  9
$DIMTDEC
 70
     4
  9
$DIMALTU
 70
     2
  9
$DIMALTTD
 70
     2
  9
$DIMTXSTY
  7
STANDARD
  9
$DIMAUNIT
 70
     0
  9
$DIMADEC
 70
     0
  9
$DIMALTRND
 40
0.0
  9
$DIMAZIN
 70
     0
  9
$DIMDSEP
 70
    46
  9
$DIMATFIT
 70
     3
  9
$DIMFRAC
 70
     0
  9
$DIMLDRBLK
  1
ORIGIN
  9
$DIMLUNIT
 70
     2
  9
$DIMLWD
 70
    -2
  9
$DIMLWE
 70
    -2
  9
$DIMTMOVE
 70
     0
  9
$DIMFXL
 40
1.0
  9
$DIMFXLON
 70
     0
  9
$DIMJOGANG
 40
0.7853981633974483
  9
$DIMTFILL
 70
     0
  9
$DIMTFILLCLR
 70
     0
  9
$DIMARCSYM
 70
     0
  9
$DIMLTYPE
  6

  9
$DIMLTEX1
  6

  9
$DIMLTEX2
  6

  9
$LUNITS
 70
     2
  9
$LUPREC
 70
     3
  9
$SKETCHINC
 40
0.1
  9
$FILLETRAD
 40
0.0
  9
$AUNITS
 70
     0
  9
$AUPREC
 70
     0
  9
$MENU
  1
.
  9
$ELEVATION
 40
0.0
  9
$PELEVATION
 40
0.0
  9
$THICKNESS
 40
0.0
  9
$LIMCHECK
 70
     0
  9
$CHAMFERA
 40
0.0
  9
$CHAMFERB
 40
0.0
  9
$CHAMFERC
 40
0.0
  9
$CHAMFERD
 40
0.0
  9
$SKPOLY
 70
     0
  9
$TDCREATE
 40
2456812.377442130
  9
$TDUCREATE
 40
2456812.002442130
  9
$TDUPDATE
 40
2459048.482939815
  9
$TDUUPDATE
 40
2459048.107939815
  9
$TDINDWG
 40
0.5193783681
  9
$TDUSRTIMER
 40
0.5193783681
  9
$USRTIMER
 70
     1
  9
$ANGBASE
 50
0.0
  9
$ANGDIR
 70
     0
  9
$PDMODE
 70
     0
  9
$PDSIZE
 40
0.0
  9
$PLINEWID
 40
0.0
  9
$SPLFRAME
 70
     0
  9
$SPLINETYPE
 70
     6
  9
$SPLINESEGS
 70
     8
  9
$HANDSEED
  5
1624
  9
$SURFTAB1
 70
     6
  9
$SURFTAB2
 70
     6
  9
$SURFTYPE
 70
     6
  9
$SURFU
 70
     6
  9
$SURFV
 70
     6
  9
$UCSBASE
  2

  9
$UCSNAME
  2

  9
$UCSORG
 10
0.0
 20
0.0
 30
0.0
  9
$UCSXDIR
 10
1.0
 20
0.0
 30
0.0
  9
$UCSYDIR
 10
0.0
 20
1.0
 30
0.0
  9
$UCSORTHOREF
  2

  9
$UCSORTHOVIEW
 70
     0
  9
$UCSORGTOP
 10
0.0
 20
0.0
 30
0.0
  9
$UCSORGBOTTOM
 10
0.0
 20
0.0
 30
0.0
  9
$UCSORGLEFT
 10
0.0
 20
0.0
 30
0.0
  9
$UCSORGRIGHT
 10
0.0
 20
0.0
 30
0.0
  9
$UCSORGFRONT
 10
0.0
 20
0.0
 30
0.0
  9
$UCSORGBACK
 10
0.0
 20
0.0
 30
0.0
  9
$PUCSBASE
  2

  9
$PUCSNAME
  2

  9
$PUCSORG
 10
0.0
 20
0.0
 30
0.0
  9
$PUCSXDIR
 10
1.0
 20
0.0
 30
0.0
  9
$PUCSYDIR
 10
0.0
 20
1.0
 30
0.0
  9
$PUCSORTHOREF
  2

  9
$PUCSORTHOVIEW
 70
     0
  9
$PUCSORGTOP
 10
0.0
 20
0.0
 30
0.0
  9
$PUCSORGBOTTOM
 10
0.0
 20
0.0
 30
0.0
  9
$PUCSORGLEFT
 10
0.0
 20
0.0
 30
0.0
  9
$PUCSORGRIGHT
 10
0.0
 20
0.0
 30
0.0
  9
$PUCSORGFRONT
 10
0.0
 20
0.0
 30
0.0
  9
$PUCSORGBACK
 10
0.0
 20
0.0
 30
0.0
  9
$USERI1
 70
     0
  9
$USERI2
 70
     0
  9
$USERI3
 70
     0
  9
$USERI4
 70
     0
  9
$USERI5
 70
     0
  9
$USERR1
 40
0.0
  9
$USERR2
 40
0.0
  9
$USERR3
 40
0.0
  9
$USERR4
 40
0.0
  9
$USERR5
 40
0.0
  9
$WORLDVIEW
 70
     1
  9
$SHADEDGE
 70
     3
  9
$SHADEDIF
 70
    70
  9
$TILEMODE
 70
     1
  9
$MAXACTVP
 70
    64
  9
$PINSBASE
 10
0.0
 20
0.0
 30
0.0
  9
$PLIMCHECK
 70
     0
  9
$PEXTMIN
 10
1.000000000000000E+20
 20
1.000000000000000E+20
 30
1.000000000000000E+20
  9
$PEXTMAX
 10
-1.000000000000000E+20
 20
-1.000000000000000E+20
 30
-1.000000000000000E+20
  9
$PLIMMIN
 10
0.0
 20
0.0
  9
$PLIMMAX
 10
12.0
 20
9.0
  9
$UNITMODE
 70
     0
  9
$VISRETAIN
 70
     1
  9
$PLINEGEN
 70
     0
  9
$PSLTSCALE
 70
     1
  9
$TREEDEPTH
 70
  3020
  9
$CMLSTYLE
  2
Standard
  9
$CMLJUST
 70
     0
  9
$CMLSCALE
 40
1.0
  9
$PROXYGRAPHICS
 70
     1
  9
$MEASUREMENT
 70
     0
  9
$CELWEIGHT
370
    -1
  9
$ENDCAPS
280
     0
  9
$JOINSTYLE
280
     0
  9
$LWDISPLAY
290
     0
  9
$INSUNITS
 70
     0
  9
$HYPERLINKBASE
  1

  9
$STYLESHEET
  1

  9
$XEDIT
290
     1
  9
$CEPSNTYPE
380
     0
  9
$PSTYLEMODE
290
     1
  9
$FINGERPRINTGUID
  2
{7C2AD779-16E7-6140-B5E6-93593CCF0637}
  9
$VERSIONGUID
  2
{05BF7A7A-5C7F-AB4F-8774-D285C05C1DFC}
  9
$EXTNAMES
290
     1
  9
$PSVPSCALE
 40
0.0
  9
$OLESTARTUP
290
     0
  9
$SORTENTS
280
   127
  9
$INDEXCTL
280
     0
  9
$HIDETEXT
280
     0
  9
$XCLIPFRAME
290
     0
  9
$HALOGAP
280
     0
  9
$OBSCOLOR
 70
   257
  9
$OBSLTYPE
280
     0
  9
$INTERSECTIONDISPLAY
280
     0
  9
$INTERSECTIONCOLOR
 70
   257
  9
$DIMASSOC
280
     1
  9
$PROJECTNAME
  1

  9
$CAMERADISPLAY
290
     0
  9
$LENSLENGTH
 40
50.0
  9
$CAMERAHEIGHT
 40
0.0
  9
$STEPSPERSEC
 40
2.0
  9
$STEPSIZE
 40
6.0
  9
$3DDWFPREC
 40
2.0
  9
$PSOLWIDTH
 40
0.25
  9
$PSOLHEIGHT
 40
4.0
  9
$LOFTANG1
 40
1.570796326794896
  9
$LOFTANG2
 40
1.570796326794896
  9
$LOFTMAG1
 40
0.0
  9
$LOFTMAG2
 40
0.0
  9
$LOFTPARAM
 70
     7
  9
$LOFTNORMALS
280
     1
  9
$LATITUDE
 40
37.795
  9
$LONGITUDE
 40
-122.394
  9
$NORTHDIRECTION
 40
0.0
  9
$TIMEZONE
 70
 -8000
  9
$LIGHTGLYPHDISPLAY
280
     1
  9
$TILEMODELIGHTSYNCH
280
     1
  9
$CMATERIAL
347
89B
  9
$SOLIDHIST
280
     0
  9
$SHOWHIST
280
     1
  9
$DWFFRAME
280
     2
  9
$DGNFRAME
280
     0
  9
$REALWORLDSCALE
290
     1
  9
$INTERFERECOLOR
 62
     1
  9
$INTERFEREOBJVS
345
8BD
  9
$INTERFEREVPVS
346
8BA
  9
$CSHADOW
280
     0
  9
$SHADOWPLANELOCATION
 40
0.0
  0
ENDSEC
  0
SECTION
  2
CLASSES
  0
CLASS
  1
ACDBDICTIONARYWDFLT
  2
AcDbDictionaryWithDefault
  3
ObjectDBX Classes
 90
        0
 91
        1
280
     0
281
     0
  0
CLASS
  1
MATERIAL
  2
AcDbMaterial
  3
ObjectDBX Classes
 90
     1153
 91
        3
280
     0
281
     0
  0
CLASS
  1
VISUALSTYLE
  2
AcDbVisualStyle
  3
ObjectDBX Classes
 90
     4095
 91
       24
280
     0
281
     0
  0
CLASS
  1
SCALE
  2
AcDbScale
  3
ObjectDBX Classes
 90
     1153
 91
       17
280
     0
281
     0
  0
CLASS
  1
TABLESTYLE
  2
AcDbTableStyle
  3
ObjectDBX Classes
 90
     4095
 91
        1
280
     0
281
     0
  0
CLASS
  1
MLEADERSTYLE
  2
AcDbMLeaderStyle
  3
ACDB_MLEADERSTYLE_CLASS
 90
     4095
 91
        1
280
     0
281
     0
  0
CLASS
  1
ACDBSECTIONVIEWSTYLE
  2
AcDbSectionViewStyle
  3
ObjectDBX Classes
 90
     1025
 91
        1
280
     0
281
     0
  0
CLASS
  1
ACDBDETAILVIEWSTYLE
  2
AcDbDetailViewStyle
  3
ObjectDBX Classes
 90
     1025
 91
        1
280
     0
281
     0
  0
CLASS
  1
DICTIONARYVAR
  2
AcDbDictionaryVar
  3
ObjectDBX Classes
 90
        0
 91
       10
280
     0
281
     0
  0
CLASS
  1
CELLSTYLEMAP
  2
AcDbCellStyleMap
  3
ObjectDBX Classes
 90
     1152
 91
        1
280
     0
281
     0
  0
CLASS
  1
SORTENTSTABLE
  2
AcDbSortentsTable
  3
ObjectDBX Classes
 90
        0
 91
        1
280
     0
281
     0
  0
ENDSEC
  0
SECTION
  2
TABLES
  0
TABLE
  2
VPORT
  5
892
330
0
100
AcDbSymbolTable
 70
     1
  0
VPORT
  5
8FF
330
892
100
AcDbSymbolTableRecord
100
AcDbViewportTableRecord
  2
*ACTIVE
 70
     0
 10
0.0
 20
0.0
 11
1.0
 21
1.0
 12
7.79900147075773
 22
-1009.439831637012
 13
0.0
 23
0.0
 14
1.0
 24
1.0
 15
0.0
 25
0.0
 16
0.0
 26
0.0
 36
1.0
 17
0.0
 27
0.0
 37
0.0
 40
2538.905596771469
 41
2.283154121863799
 42
50.0
 43
0.0
 44
0.0
 50
0.0
 51
0.0
 71
     0
 72
   100
 73
     1
 74
     1
 75
     0
 76
     0
 77
     0
 78
     0
281
     0
 65
     1
110
0.0
120
0.0
130
0.0
111
1.0
121
0.0
131
0.0
112
0.0
122
1.0
132
0.0
 79
     0
146
0.0
348
8B9
 60
     3
 61
     5
292
     1
282
     0
141
0.0
142
0.0
 63
   250
421
  3355443
1001
ACAD_NAV_VCDISPLAY
1070
     3
  0
ENDTAB
  0
TABLE
  2
LTYPE
  5
88F
330
0
100
AcDbSymbolTable
 70
     6
  0
LTYPE
  5
8E4
330
88F
100
AcDbSymbolTableRecord
100
AcDbLinetypeTableRecord
  2
ByBlock
 70
     0
  3

 72
    65
 73
     0
 40
0.0
  0
LTYPE
  5
8E5
330
88F
100
AcDbSymbolTableRecord
100
AcDbLinetypeTableRecord
  2
ByLayer
 70
     0
  3

 72
    65
 73
     0
 40
0.0
  0
LTYPE
  5
8E6
330
88F
100
AcDbSymbolTableRecord
100
AcDbLinetypeTableRecord
  2
CONTINUOUS
 70
     0
  3
Solid line
 72
    65
 73
     0
 40
0.0
  0
LTYPE
  5
900
330
88F
100
AcDbSymbolTableRecord
100
AcDbLinetypeTableRecord
  2
PHANTOM2
 70
     0
  3
___ _ _ ___ _ _ ___ _ _ ___ _ _
 72
    65
 73
     6
 40
1.25
 49
0.625
 74
     0
 49
-0.125
 74
     0
 49
0.125
 74
     0
 49
-0.125
 74
     0
 49
0.125
 74
     0
 49
-0.125
 74
     0
  0
LTYPE
  5
901
330
88F
100
AcDbSymbolTableRecord
100
AcDbLinetypeTableRecord
  2
DASHED
 70
     0
  3
-- -- -- -- -- -- -- -- -- -- -- -- -- -- --
 72
    65
 73
     2
 40
0.75
 49
0.5
 74
     0
 49
-0.25
 74
     0
  0
LTYPE
  5
902
330
88F
100
AcDbSymbolTableRecord
100
AcDbLinetypeTableRecord
  2
DASHDOT
 70
     0
  3
__ . __ . __ . __ . __ . __ . __ . __ . __ . __
 72
    65
 73
     4
 40
125.0
 49
80.0
 74
     0
 49
-20.0
 74
     0
 49
5.0
 74
     0
 49
-20.0
 74
     0
  0
LTYPE
  5
903
330
88F
100
AcDbSymbolTableRecord
100
AcDbLinetypeTableRecord
  2
DIVIDE
 70
     0
  3
__ . . __ . . __ . . __ . . __ . . __ . . __
 72
    65
 73
     6
 40
1.25
 49
0.5
 74
     0
 49
-0.25
 74
     0
 49
0.0
 74
     0
 49
-0.25
 74
     0
 49
0.0
 74
     0
 49
-0.25
 74
     0
  0
ENDTAB
  0
TABLE
  2
LAYER
  5
88C
102
{ACAD_XDICTIONARY
360
A1D
102
}
330
0
100
AcDbSymbolTable
 70
    12
  0
LAYER
  5
8DE
102
{ACAD_XDICTIONARY
360
AAA
102
}
330
88C
100
AcDbSymbolTableRecord
100
AcDbLayerTableRecord
  2
0
 70
     0
 62
     3
  6
CONTINUOUS
370
    -3
390
899
347
8AB
  0
LAYER
  5
8FD
102
{ACAD_XDICTIONARY
360
AAC
102
}
330
88C
100
AcDbSymbolTableRecord
100
AcDbLayerTableRecord
  2
DETAIL
 70
     0
 62
     5
  6
CONTINUOUS
370
    -3
390
899
347
8AB
  0
LAYER
  5
904
102
{ACAD_XDICTIONARY
360
AAE
102
}
330
88C
100
AcDbSymbolTableRecord
100
AcDbLayerTableRecord
  2
OUTLINE
 70
     0
 62
     3
  6
CONTINUOUS
370
    -3
390
899
347
8AB
  0
LAYER
  5
905
102
{ACAD_XDICTIONARY
360
AB0
102
}
330
88C
100
AcDbSymbolTableRecord
100
AcDbLayerTableRecord
  2
BASIS
 70
     0
 62
     6
  6
CONTINUOUS
370
    -3
390
899
347
8AB
  0
LAYER
  5
906
102
{ACAD_XDICTIONARY
360
AB2
102
}
330
88C
100
AcDbSymbolTableRecord
100
AcDbLayerTableRecord
  2
SIZE
 70
     0
 62
    30
  6
CONTINUOUS
370
    -3
390
899
347
8AB
  0
LAYER
  5
907
102
{ACAD_XDICTIONARY
360
AB4
102
}
330
88C
100
AcDbSymbolTableRecord
100
AcDbLayerTableRecord
  2
NOTE
 70
     0
 62
     4
  6
CONTINUOUS
370
    -3
390
899
347
8AB
  0
LAYER
  5
908
102
{ACAD_XDICTIONARY
360
AB6
102
}
330
88C
100
AcDbSymbolTableRecord
100
AcDbLayerTableRecord
  2
ARRANGE
 70
     0
 62
     1
  6
CONTINUOUS
370
    -3
390
899
347
8AB
  0
LAYER
  5
909
102
{ACAD_XDICTIONARY
360
AB8
102
}
330
88C
100
AcDbSymbolTableRecord
100
AcDbLayerTableRecord
  2
FIX
 70
     0
 62
    11
  6
CONTINUOUS
370
    -3
390
899
347
8AB
  0
LAYER
  5
90A
102
{ACAD_XDICTIONARY
360
ABA
102
}
330
88C
100
AcDbSymbolTableRecord
100
AcDbLayerTableRecord
  2
SERVICESPACE
 70
     0
 62
     2
  6
CONTINUOUS
370
    -3
390
899
347
8AB
  0
LAYER
  5
90B
102
{ACAD_XDICTIONARY
360
ABC
102
}
330
88C
100
AcDbSymbolTableRecord
100
AcDbLayerTableRecord
  2
ETC
 70
     0
 62
    61
  6
CONTINUOUS
370
    -3
390
899
347
8AB
  0
LAYER
  5
90C
102
{ACAD_XDICTIONARY
360
ABE
102
}
330
88C
100
AcDbSymbolTableRecord
100
AcDbLayerTableRecord
  2
SYMBOLLINE
 70
     0
 62
    15
  6
CONTINUOUS
370
    -3
390
899
347
8AB
  0
LAYER
  5
90D
330
88C
100
AcDbSymbolTableRecord
100
AcDbLayerTableRecord
  2
DEFPOINTS
 70
     0
 62
     7
  6
CONTINUOUS
290
     0
370
    -3
390
899
347
8AB
  0
ENDTAB
  0
TABLE
  2
STYLE
  5
88D
330
0
100
AcDbSymbolTable
 70
     6
  0
STYLE
  5
8DF
330
88D
100
AcDbSymbolTableRecord
100
AcDbTextStyleTableRecord
  2
STANDARD
 70
     0
 40
0.0
 41
1.0
 50
0.0
 71
     0
 42
0.2
  3
txt
  4

  0
STYLE
  5
8E3
330
88D
100
AcDbSymbolTableRecord
100
AcDbTextStyleTableRecord
  2
ANNOTATIVE
 70
     0
 40
0.0
 41
1.0
 50
0.0
 71
     0
 42
0.2
  3
txt
  4

1001
ACADANNOTATIVE
1000
AnnotativeData
1002
{
1070
     1
1070
     1
1002
}
  0
STYLE
  5
8FE
330
88D
100
AcDbSymbolTableRecord
100
AcDbTextStyleTableRecord
  2
STANDARD1
 70
     0
 40
0.0
 41
1.0
 50
0.0
 71
     0
 42
2.799999952316284
  3
MONOTXT
  4
BIGFONT
  0
STYLE
  5
90E
330
88D
100
AcDbSymbolTableRecord
100
AcDbTextStyleTableRecord
  2
STANDARD2
 70
     4
 40
0.0
 41
1.0
 50
0.0
 71
     0
 42
2.799999952316284
  3
MONOTXT
  4
BIGFONT
  0
STYLE
  5
90F
330
88D
100
AcDbSymbolTableRecord
100
AcDbTextStyleTableRecord
  2
STANDARD3
 70
     0
 40
0.0
 41
1.0
 50
0.0
 71
     0
 42
2.799999952316284
  3
MONOTXT
  4

  0
STYLE
  5
910
330
88D
100
AcDbSymbolTableRecord
100
AcDbTextStyleTableRecord
  2
STANDARD4
 70
     4
 40
0.0
 41
1.0
 50
0.0
 71
     0
 42
2.799999952316284
  3
MONOTXT
  4

  0
ENDTAB
  0
TABLE
  2
VIEW
  5
890
330
0
100
AcDbSymbolTable
 70
     2
  0
ENDTAB
  0
TABLE
  2
UCS
  5
891
330
0
100
AcDbSymbolTable
 70
     0
  0
ENDTAB
  0
TABLE
  2
APPID
  5
893
330
0
100
AcDbSymbolTable
 70
    11
  0
APPID
  5
8E0
330
893
100
AcDbSymbolTableRecord
100
AcDbRegAppTableRecord
  2
ACAD
 70
     0
  0
APPID
  5
8E7
330
893
100
AcDbSymbolTableRecord
100
AcDbRegAppTableRecord
  2
ACADANNOTATIVE
 70
     0
  0
APPID
  5
911
330
893
100
AcDbSymbolTableRecord
100
AcDbRegAppTableRecord
  2
ACAD_EXEMPT_FROM_CAD_STANDARDS
 70
     0
  0
APPID
  5
912
330
893
100
AcDbSymbolTableRecord
100
AcDbRegAppTableRecord
  2
ACAD_NAV_VCDISPLAY
 70
     0
  0
APPID
  5
913
330
893
100
AcDbSymbolTableRecord
100
AcDbRegAppTableRecord
  2
ACAD_MLEADERVER
 70
     0
  0
APPID
  5
9ED
330
893
100
AcDbSymbolTableRecord
100
AcDbRegAppTableRecord
  2
ACAD_DSTYLE_DIMRADIAL_EXTENSION
 70
     0
  0
APPID
  5
A19
330
893
100
AcDbSymbolTableRecord
100
AcDbRegAppTableRecord
  2
ACAD_DSTYLE_DIMJAG
 70
     0
  0
APPID
  5
A1A
330
893
100
AcDbSymbolTableRecord
100
AcDbRegAppTableRecord
  2
ACAD_DSTYLE_DIMTALN
 70
     0
  0
APPID
  5
A1B
330
893
100
AcDbSymbolTableRecord
100
AcDbRegAppTableRecord
  2
ACAD_DSTYLE_DIMBREAK
 70
     0
  0
APPID
  5
A1C
330
893
100
AcDbSymbolTableRecord
100
AcDbRegAppTableRecord
  2
ACAD_PSEXT
 70
     0
  0
APPID
  5
13CD
330
893
100
AcDbSymbolTableRecord
100
AcDbRegAppTableRecord
  2
AcadAnnoMonitorAlertIconDisabled
 70
     0
  0
ENDTAB
  0
TABLE
  2
DIMSTYLE
  5
894
330
0
100
AcDbSymbolTable
 70
     3
100
AcDbDimStyleTable
 71
     1
340
8E1
  0
DIMSTYLE
105
8E1
102
{ACAD_REACTORS
330
1180
330
118D
330
119A
330
11A7
330
11DF
330
11EC
330
122C
330
123B
330
1248
330
1255
330
1262
330
126F
330
128A
330
1298
330
12A6
330
12B4
330
131D
330
132A
330
13B3
330
1400
330
141A
330
1427
330
1434
330
1441
330
144E
330
145B
330
1468
330
14D1
330
14DE
330
14EB
330
153D
102
}
330
894
100
AcDbSymbolTableRecord
100
AcDbDimStyleTableRecord
  2
STANDARD
 70
     0
271
     3
272
     3
274
     4
279
     2
284
    12
285
    12
286
    12
340
8FE
  0
DIMSTYLE
105
8E2
330
894
100
AcDbSymbolTableRecord
100
AcDbDimStyleTableRecord
  2
ANNOTATIVE
 70
     0
271
     3
272
     3
274
     4
279
     2
284
    12
285
    12
286
    12
340
8FE
1001
ACADANNOTATIVE
1000
AnnotativeData
1002
{
1070
     1
1070
     1
1002
}
  0
DIMSTYLE
105
A18
330
894
100
AcDbSymbolTableRecord
100
AcDbDimStyleTableRecord
  2
Standard1
 70
     0
 41
3.863703297614046
 42
1.0
 44
2.0
 73
     0
 74
     0
 77
     1
140
30.0
146
0.7142857313156129
271
     0
272
     0
340
8DF
1001
ACAD_DSTYLE_DIMBREAK
1070
   391
1040
0.125
1001
ACAD_DSTYLE_DIMJAG
1070
   388
1040
1.5
1001
ACAD_DSTYLE_DIMTALN
1070
   392
1070
     0
  0
ENDTAB
  0
TABLE
  2
BLOCK_RECORD
  5
88B
330
0
100
AcDbSymbolTable
 70
    35
  0
BLOCK_RECORD
  5
8F9
102
{ACAD_XDICTIONARY
360
9F5
102
}
330
88B
100
AcDbSymbolTableRecord
100
AcDbBlockTableRecord
  2
*Model_Space
340
8FC
 70
     0
280
     1
281
     0
  0
BLOCK_RECORD
  5
8F5
330
88B
100
AcDbSymbolTableRecord
100
AcDbBlockTableRecord
  2
*Paper_Space
340
8F8
 70
     0
280
     1
281
     0
  0
BLOCK_RECORD
  5
917
330
88B
100
AcDbSymbolTableRecord
100
AcDbBlockTableRecord
  2
$MODEL_SPACE
340
0
 70
     0
280
     1
281
     0
  0
BLOCK_RECORD
  5
919
330
88B
100
AcDbSymbolTableRecord
100
AcDbBlockTableRecord
  2
$PAPER_SPACE
340
0
 70
     0
280
     1
281
     0
  0
BLOCK_RECORD
  5
961
330
88B
100
AcDbSymbolTableRecord
100
AcDbBlockTableRecord
  2
_ORIGIN
340
0
102
{BLKREFS
331
1513
331
1514
331
151C
331
151D
331
1560
331
1561
331
1569
331
156A
331
1572
331
1573
331
15AA
331
15AB
331
15B3
331
15B4
331
15BC
331
15BD
331
133A
331
133B
331
1343
331
1344
331
134C
331
134D
331
1355
331
1356
331
135E
331
135F
331
1367
331
1368
331
1370
331
1371
331
1379
331
137A
331
1382
331
1383
331
149E
331
149F
331
14A7
331
14A8
331
14B0
331
14B1
331
14B9
331
14BA
331
14C4
331
14C5
331
1508
331
1509
331
11B7
331
11B8
331
11C0
331
11C1
331
11C9
331
11CA
331
11D2
331
11D3
331
11E6
331
11E7
331
1209
331
120A
331
1235
331
1236
331
13EA
331
13EB
102
}
 70
     0
280
     1
281
     0
  0
BLOCK_RECORD
  5
1181
330
88B
100
AcDbSymbolTableRecord
100
AcDbBlockTableRecord
  2
*D3
340
0
 70
     0
280
     1
281
     0
  0
BLOCK_RECORD
  5
118E
330
88B
100
AcDbSymbolTableRecord
100
AcDbBlockTableRecord
  2
*D4
340
0
 70
     0
280
     1
281
     0
  0
BLOCK_RECORD
  5
119B
330
88B
100
AcDbSymbolTableRecord
100
AcDbBlockTableRecord
  2
*D5
340
0
 70
     0
280
     1
281
     0
  0
BLOCK_RECORD
  5
11A8
330
88B
100
AcDbSymbolTableRecord
100
AcDbBlockTableRecord
  2
*D6
340
0
 70
     0
280
     1
281
     0
  0
BLOCK_RECORD
  5
11E0
330
88B
100
AcDbSymbolTableRecord
100
AcDbBlockTableRecord
  2
*D7
340
0
 70
     0
280
     1
281
     0
  0
BLOCK_RECORD
  5
11ED
330
88B
100
AcDbSymbolTableRecord
100
AcDbBlockTableRecord
  2
*D8
340
0
 70
     0
280
     1
281
     0
  0
BLOCK_RECORD
  5
122D
330
88B
100
AcDbSymbolTableRecord
100
AcDbBlockTableRecord
  2
*D9
340
0
 70
     0
280
     1
281
     0
  0
BLOCK_RECORD
  5
123C
330
88B
100
AcDbSymbolTableRecord
100
AcDbBlockTableRecord
  2
*D10
340
0
 70
     0
280
     1
281
     0
  0
BLOCK_RECORD
  5
1249
330
88B
100
AcDbSymbolTableRecord
100
AcDbBlockTableRecord
  2
*D11
340
0
 70
     0
280
     1
281
     0
  0
BLOCK_RECORD
  5
1256
330
88B
100
AcDbSymbolTableRecord
100
AcDbBlockTableRecord
  2
*D12
340
0
 70
     0
280
     1
281
     0
  0
BLOCK_RECORD
  5
1263
330
88B
100
AcDbSymbolTableRecord
100
AcDbBlockTableRecord
  2
*D13
340
0
 70
     0
280
     1
281
     0
  0
BLOCK_RECORD
  5
1270
330
88B
100
AcDbSymbolTableRecord
100
AcDbBlockTableRecord
  2
*D14
340
0
 70
     0
280
     1
281
     0
  0
BLOCK_RECORD
  5
128B
330
88B
100
AcDbSymbolTableRecord
100
AcDbBlockTableRecord
  2
*D15
340
0
 70
     0
280
     1
281
     0
  0
BLOCK_RECORD
  5
1299
330
88B
100
AcDbSymbolTableRecord
100
AcDbBlockTableRecord
  2
*D16
340
0
 70
     0
280
     1
281
     0
  0
BLOCK_RECORD
  5
12A7
330
88B
100
AcDbSymbolTableRecord
100
AcDbBlockTableRecord
  2
*D17
340
0
 70
     0
280
     1
281
     0
  0
BLOCK_RECORD
  5
12B5
330
88B
100
AcDbSymbolTableRecord
100
AcDbBlockTableRecord
  2
*D18
340
0
 70
     0
280
     1
281
     0
  0
BLOCK_RECORD
  5
131E
330
88B
100
AcDbSymbolTableRecord
100
AcDbBlockTableRecord
  2
*D19
340
0
 70
     0
280
     1
281
     0
  0
BLOCK_RECORD
  5
132B
330
88B
100
AcDbSymbolTableRecord
100
AcDbBlockTableRecord
  2
*D20
340
0
 70
     0
280
     1
281
     0
  0
BLOCK_RECORD
  5
13B4
330
88B
100
AcDbSymbolTableRecord
100
AcDbBlockTableRecord
  2
*D21
340
0
 70
     0
280
     1
281
     0
  0
BLOCK_RECORD
  5
1401
330
88B
100
AcDbSymbolTableRecord
100
AcDbBlockTableRecord
  2
*D23
340
0
 70
     0
280
     1
281
     0
  0
BLOCK_RECORD
  5
141B
330
88B
100
AcDbSymbolTableRecord
100
AcDbBlockTableRecord
  2
*D24
340
0
 70
     0
280
     1
281
     0
  0
BLOCK_RECORD
  5
1428
330
88B
100
AcDbSymbolTableRecord
100
AcDbBlockTableRecord
  2
*D25
340
0
 70
     0
280
     1
281
     0
  0
BLOCK_RECORD
  5
1435
330
88B
100
AcDbSymbolTableRecord
100
AcDbBlockTableRecord
  2
*D26
340
0
 70
     0
280
     1
281
     0
  0
BLOCK_RECORD
  5
1442
330
88B
100
AcDbSymbolTableRecord
100
AcDbBlockTableRecord
  2
*D27
340
0
 70
     0
280
     1
281
     0
  0
BLOCK_RECORD
  5
144F
330
88B
100
AcDbSymbolTableRecord
100
AcDbBlockTableRecord
  2
*D28
340
0
 70
     0
280
     1
281
     0
  0
BLOCK_RECORD
  5
145C
330
88B
100
AcDbSymbolTableRecord
100
AcDbBlockTableRecord
  2
*D29
340
0
 70
     0
280
     1
281
     0
  0
BLOCK_RECORD
  5
1469
330
88B
100
AcDbSymbolTableRecord
100
AcDbBlockTableRecord
  2
*D30
340
0
 70
     0
280
     1
281
     0
  0
BLOCK_RECORD
  5
14D2
330
88B
100
AcDbSymbolTableRecord
100
AcDbBlockTableRecord
  2
*D31
340
0
 70
     0
280
     1
281
     0
  0
BLOCK_RECORD
  5
14DF
330
88B
100
AcDbSymbolTableRecord
100
AcDbBlockTableRecord
  2
*D32
340
0
 70
     0
280
     1
281
     0
  0
BLOCK_RECORD
  5
14EC
330
88B
100
AcDbSymbolTableRecord
100
AcDbBlockTableRecord
  2
*D33
340
0
 70
     0
280
     1
281
     0
  0
BLOCK_RECORD
  5
153E
330
88B
100
AcDbSymbolTableRecord
100
AcDbBlockTableRecord
  2
*D34
340
0
 70
     0
280
     1
281
     0
  0
ENDTAB
  0
ENDSEC
  0
SECTION
  2
BLOCKS
  0
BLOCK
  5
8FA
330
8F9
100
AcDbEntity
  8
0
100
AcDbBlockBegin
  2
*Model_Space
 70
     0
 10
0.0
 20
0.0
 30
0.0
  3
*Model_Space
  1

  0
ENDBLK
  5
8FB
330
8F9
100
AcDbEntity
  8
0
100
AcDbBlockEnd
  0
BLOCK
  5
8F6
330
8F5
100
AcDbEntity
 67
     1
  8
0
100
AcDbBlockBegin
  2
*Paper_Space
 70
     0
 10
0.0
 20
0.0
 30
0.0
  3
*Paper_Space
  1

  0
ENDBLK
  5
8F7
330
8F5
100
AcDbEntity
 67
     1
  8
0
100
AcDbBlockEnd
  0
BLOCK
  5
918
330
917
100
AcDbEntity
  8
0
100
AcDbBlockBegin
  2
$MODEL_SPACE
 70
     0
 10
0.0
 20
0.0
 30
0.0
  3
$MODEL_SPACE
  1

  0
ENDBLK
  5
72
330
917
100
AcDbEntity
  8
0
100
AcDbBlockEnd
  0
BLOCK
  5
91A
330
919
100
AcDbEntity
  8
0
100
AcDbBlockBegin
  2
$PAPER_SPACE
 70
     0
 10
0.0
 20
0.0
 30
0.0
  3
$PAPER_SPACE
  1

  0
ENDBLK
  5
6E
330
919
100
AcDbEntity
  8
0
100
AcDbBlockEnd
  0
BLOCK
  5
962
330
961
100
AcDbEntity
  8
0
100
AcDbBlockBegin
  2
_ORIGIN
 70
     0
 10
0.0
 20
0.0
 30
0.0
  3
_ORIGIN
  1

  0
CIRCLE
  5
346
330
961
100
AcDbEntity
  8
0
  6
ByBlock
 62
     0
100
AcDbCircle
 10
0.0
 20
0.0
 30
0.0
 40
0.5
  0
LINE
  5
347
330
961
100
AcDbEntity
  8
0
  6
ByBlock
 62
     0
100
AcDbLine
 10
0.0
 20
0.0
 30
0.0
 11
-1.0
 21
0.0
 31
0.0
  0
ENDBLK
  5
348
330
961
100
AcDbEntity
  8
0
100
AcDbBlockEnd
  0
BLOCK
  5
1182
330
1181
100
AcDbEntity
  8
0
100
AcDbBlockBegin
  2
*D3
 70
     1
 10
0.0
 20
0.0
 30
0.0
  3
*D3
  1

  0
LINE
  5
11C6
330
1181
100
AcDbEntity
  8
SIZE
  6
Continuous
 62
     0
440
 16777216
370
    -2
100
AcDbLine
 10
-215.0
 20
-10.0
 30
0.0
 11
-215.0
 21
123.371518711112
 31
0.0
  0
LINE
  5
11C7
330
1181
100
AcDbEntity
  8
SIZE
  6
Continuous
 62
     0
440
 16777216
370
    -2
100
AcDbLine
 10
-145.0
 20
8.0
 30
0.0
 11
-145.0
 21
123.371518711112
 31
0.0
  0
LINE
  5
11C8
330
1181
100
AcDbEntity
  8
SIZE
  6
Continuous
 62
     0
440
 16777216
370
    -2
100
AcDbLine
 10
-205.0
 20
110.871518711112
 30
0.0
 11
-155.0
 21
110.871518711112
 31
0.0
  0
INSERT
  5
11C9
330
1181
100
AcDbEntity
  8
SIZE
  6
Continuous
 62
     0
440
 16777216
370
    -2
100
AcDbBlockReference
  2
_ORIGIN
 10
-215.0
 20
110.871518711112
 30
0.0
 41
10.0
 42
10.0
 43
10.0
 50
180.0
  0
INSERT
  5
11CA
330
1181
100
AcDbEntity
  8
SIZE
  6
Continuous
 62
     0
440
 16777216
370
    -2
100
AcDbBlockReference
  2
_ORIGIN
 10
-145.0
 20
110.871518711112
 30
0.0
 41
10.0
 42
10.0
 43
10.0
  0
MTEXT
  5
11CB
330
1181
100
AcDbEntity
  8
SIZE
  6
Continuous
 62
     0
440
 16777216
100
AcDbMText
 10
-180.0
 20
135.871518711112
 30
0.0
 40
30.0
 41
0.0
 46
0.0
 71
     5
 72
     1
  1
\A1;70
 73
     1
 44
1.0
  0
POINT
  5
11CC
330
1181
100
AcDbEntity
  8
DEFPOINTS
  6
Continuous
 62
     0
440
 16777216
100
AcDbPoint
 10
-215.0
 20
-20.0
 30
0.0
  0
POINT
  5
11CD
330
1181
100
AcDbEntity
  8
DEFPOINTS
  6
Continuous
 62
     0
440
 16777216
100
AcDbPoint
 10
-145.0
 20
-2.0
 30
0.0
  0
POINT
  5
11CE
330
1181
100
AcDbEntity
  8
DEFPOINTS
  6
Continuous
 62
     0
440
 16777216
100
AcDbPoint
 10
-145.0
 20
110.871518711112
 30
0.0
  0
ENDBLK
  5
1183
330
1181
100
AcDbEntity
  8
0
100
AcDbBlockEnd
  0
BLOCK
  5
118F
330
118E
100
AcDbEntity
  8
0
100
AcDbBlockBegin
  2
*D4
 70
     1
 10
0.0
 20
0.0
 30
0.0
  3
*D4
  1

  0
LINE
  5
11BD
330
118E
100
AcDbEntity
  8
SIZE
  6
Continuous
 62
     0
440
 16777216
370
    -2
100
AcDbLine
 10
-145.0
 20
8.0
 30
0.0
 11
-145.0
 21
123.371518711112
 31
0.0
  0
LINE
  5
11BE
330
118E
100
AcDbEntity
  8
SIZE
  6
Continuous
 62
     0
440
 16777216
370
    -2
100
AcDbLine
 10
145.0
 20
8.000000000000019
 30
0.0
 11
145.0
 21
123.371518711112
 31
0.0
  0
LINE
  5
11BF
330
118E
100
AcDbEntity
  8
SIZE
  6
Continuous
 62
     0
440
 16777216
370
    -2
100
AcDbLine
 10
-135.0
 20
110.871518711112
 30
0.0
 11
135.0
 21
110.871518711112
 31
0.0
  0
INSERT
  5
11C0
330
118E
100
AcDbEntity
  8
SIZE
  6
Continuous
 62
     0
440
 16777216
370
    -2
100
AcDbBlockReference
  2
_ORIGIN
 10
-145.0
 20
110.871518711112
 30
0.0
 41
10.0
 42
10.0
 43
10.0
 50
180.0
  0
INSERT
  5
11C1
330
118E
100
AcDbEntity
  8
SIZE
  6
Continuous
 62
     0
440
 16777216
370
    -2
100
AcDbBlockReference
  2
_ORIGIN
 10
145.0
 20
110.871518711112
 30
0.0
 41
10.0
 42
10.0
 43
10.0
  0
MTEXT
  5
11C2
330
118E
100
AcDbEntity
  8
SIZE
  6
Continuous
 62
     0
440
 16777216
100
AcDbMText
 10
0.0000000000000015
 20
135.871518711112
 30
0.0
 40
30.0
 41
0.0
 46
0.0
 71
     5
 72
     1
  1
\A1;290
 73
     1
 44
1.0
  0
POINT
  5
11C3
330
118E
100
AcDbEntity
  8
DEFPOINTS
  6
Continuous
 62
     0
440
 16777216
100
AcDbPoint
 10
-145.0
 20
-2.0
 30
0.0
  0
POINT
  5
11C4
330
118E
100
AcDbEntity
  8
DEFPOINTS
  6
Continuous
 62
     0
440
 16777216
100
AcDbPoint
 10
145.0
 20
-1.99999999999998
 30
0.0
  0
POINT
  5
11C5
330
118E
100
AcDbEntity
  8
DEFPOINTS
  6
Continuous
 62
     0
440
 16777216
100
AcDbPoint
 10
145.0
 20
110.871518711112
 30
0.0
  0
ENDBLK
  5
1190
330
118E
100
AcDbEntity
  8
0
100
AcDbBlockEnd
  0
BLOCK
  5
119C
330
119B
100
AcDbEntity
  8
0
100
AcDbBlockBegin
  2
*D5
 70
     1
 10
0.0
 20
0.0
 30
0.0
  3
*D5
  1

  0
LINE
  5
11CF
330
119B
100
AcDbEntity
  8
SIZE
  6
Continuous
 62
     0
440
 16777216
370
    -2
100
AcDbLine
 10
145.0
 20
8.000000000000019
 30
0.0
 11
145.0
 21
123.371518711112
 31
0.0
  0
LINE
  5
11D0
330
119B
100
AcDbEntity
  8
SIZE
  6
Continuous
 62
     0
440
 16777216
370
    -2
100
AcDbLine
 10
215.0000000000003
 20
10.0
 30
0.0
 11
215.0000000000003
 21
123.371518711112
 31
0.0
  0
LINE
  5
11D1
330
119B
100
AcDbEntity
  8
SIZE
  6
Continuous
 62
     0
440
 16777216
370
    -2
100
AcDbLine
 10
155.0
 20
110.871518711112
 30
0.0
 11
205.0000000000003
 21
110.871518711112
 31
0.0
  0
INSERT
  5
11D2
330
119B
100
AcDbEntity
  8
SIZE
  6
Continuous
 62
     0
440
 16777216
370
    -2
100
AcDbBlockReference
  2
_ORIGIN
 10
145.0
 20
110.871518711112
 30
0.0
 41
10.0
 42
10.0
 43
10.0
 50
180.0
  0
INSERT
  5
11D3
330
119B
100
AcDbEntity
  8
SIZE
  6
Continuous
 62
     0
440
 16777216
370
    -2
100
AcDbBlockReference
  2
_ORIGIN
 10
215.0000000000003
 20
110.871518711112
 30
0.0
 41
10.0
 42
10.0
 43
10.0
  0
MTEXT
  5
11D4
330
119B
100
AcDbEntity
  8
SIZE
  6
Continuous
 62
     0
440
 16777216
100
AcDbMText
 10
180.0000000000002
 20
135.871518711112
 30
0.0
 40
30.0
 41
0.0
 46
0.0
 71
     5
 72
     1
  1
\A1;70
 73
     1
 44
1.0
  0
POINT
  5
11D5
330
119B
100
AcDbEntity
  8
DEFPOINTS
  6
Continuous
 62
     0
440
 16777216
100
AcDbPoint
 10
145.0
 20
-1.99999999999998
 30
0.0
  0
POINT
  5
11D6
330
119B
100
AcDbEntity
  8
DEFPOINTS
  6
Continuous
 62
     0
440
 16777216
100
AcDbPoint
 10
215.0000000000003
 20
0.0
 30
0.0
  0
POINT
  5
11D7
330
119B
100
AcDbEntity
  8
DEFPOINTS
  6
Continuous
 62
     0
440
 16777216
100
AcDbPoint
 10
215.0000000000003
 20
110.871518711112
 30
0.0
  0
ENDBLK
  5
119D
330
119B
100
AcDbEntity
  8
0
100
AcDbBlockEnd
  0
BLOCK
  5
11A9
330
11A8
100
AcDbEntity
  8
0
100
AcDbBlockBegin
  2
*D6
 70
     1
 10
0.0
 20
0.0
 30
0.0
  3
*D6
  1

  0
LINE
  5
11B4
330
11A8
100
AcDbEntity
  8
SIZE
  6
Continuous
 62
     0
440
 16777216
370
    -2
100
AcDbLine
 10
-215.0
 20
-10.0
 30
0.0
 11
-215.0
 21
223.371518711112
 31
0.0
  0
LINE
  5
11B5
330
11A8
100
AcDbEntity
  8
SIZE
  6
Continuous
 62
     0
440
 16777216
370
    -2
100
AcDbLine
 10
215.0000000000003
 20
10.0
 30
0.0
 11
215.0000000000003
 21
223.371518711112
 31
0.0
  0
LINE
  5
11B6
330
11A8
100
AcDbEntity
  8
SIZE
  6
Continuous
 62
     0
440
 16777216
370
    -2
100
AcDbLine
 10
-205.0
 20
210.871518711112
 30
0.0
 11
205.0000000000003
 21
210.871518711112
 31
0.0
  0
INSERT
  5
11B7
330
11A8
100
AcDbEntity
  8
SIZE
  6
Continuous
 62
     0
440
 16777216
370
    -2
100
AcDbBlockReference
  2
_ORIGIN
 10
-215.0
 20
210.871518711112
 30
0.0
 41
10.0
 42
10.0
 43
10.0
 50
180.0
  0
INSERT
  5
11B8
330
11A8
100
AcDbEntity
  8
SIZE
  6
Continuous
 62
     0
440
 16777216
370
    -2
100
AcDbBlockReference
  2
_ORIGIN
 10
215.0000000000003
 20
210.871518711112
 30
0.0
 41
10.0
 42
10.0
 43
10.0
  0
MTEXT
  5
11B9
330
11A8
100
AcDbEntity
  8
SIZE
  6
Continuous
 62
     0
440
 16777216
100
AcDbMText
 10
-0.2122420735104227
 20
235.871518711112
 30
0.0
 40
30.0
 41
0.0
 46
0.0
 71
     5
 72
     1
  1
\A1;430
 73
     1
 44
1.0
  0
POINT
  5
11BA
330
11A8
100
AcDbEntity
  8
DEFPOINTS
  6
Continuous
 62
     0
440
 16777216
100
AcDbPoint
 10
-215.0
 20
-20.0
 30
0.0
  0
POINT
  5
11BB
330
11A8
100
AcDbEntity
  8
DEFPOINTS
  6
Continuous
 62
     0
440
 16777216
100
AcDbPoint
 10
215.0000000000003
 20
0.0
 30
0.0
  0
POINT
  5
11BC
330
11A8
100
AcDbEntity
  8
DEFPOINTS
  6
Continuous
 62
     0
440
 16777216
100
AcDbPoint
 10
215.0000000000003
 20
210.871518711112
 30
0.0
  0
ENDBLK
  5
11AA
330
11A8
100
AcDbEntity
  8
0
100
AcDbBlockEnd
  0
BLOCK
  5
11E1
330
11E0
100
AcDbEntity
  8
0
100
AcDbBlockBegin
  2
*D7
 70
     1
 10
0.0
 20
0.0
 30
0.0
  3
*D7
  1

  0
LINE
  5
11E3
330
11E0
100
AcDbEntity
  8
SIZE
  6
Continuous
 62
     0
440
 16777216
370
    -2
100
AcDbLine
 10
-225.0000000000001
 20
-1720.000000000001
 30
0.0
 11
-1031.703898865075
 21
-1720.000000000001
 31
0.0
  0
LINE
  5
11E4
330
11E0
100
AcDbEntity
  8
SIZE
  6
Continuous
 62
     0
440
 16777216
370
    -2
100
AcDbLine
 10
-225.0000000000001
 20
-1120.0
 30
0.0
 11
-1031.703898865075
 21
-1120.0
 31
0.0
  0
LINE
  5
11E5
330
11E0
100
AcDbEntity
  8
SIZE
  6
Continuous
 62
     0
440
 16777216
370
    -2
100
AcDbLine
 10
-1019.203898865075
 20
-1710.000000000001
 30
0.0
 11
-1019.203898865075
 21
-1130.000000000001
 31
0.0
  0
INSERT
  5
11E6
330
11E0
100
AcDbEntity
  8
SIZE
  6
Continuous
 62
     0
440
 16777216
370
    -2
100
AcDbBlockReference
  2
_ORIGIN
 10
-1019.203898865075
 20
-1720.000000000001
 30
0.0
 41
10.0
 42
10.0
 43
10.0
 50
270.0
  0
INSERT
  5
11E7
330
11E0
100
AcDbEntity
  8
SIZE
  6
Continuous
 62
     0
440
 16777216
370
    -2
100
AcDbBlockReference
  2
_ORIGIN
 10
-1019.203898865075
 20
-1120.0
 30
0.0
 41
10.0
 42
10.0
 43
10.0
 50
90.0
  0
MTEXT
  5
11E8
330
11E0
100
AcDbEntity
  8
SIZE
  6
Continuous
 62
     0
440
 16777216
100
AcDbMText
 10
-1044.203898865075
 20
-1420.0
 30
0.0
 40
30.0
 41
0.0
 46
0.0
 71
     5
 72
     1
  1
\A1;600
 11
0.0000000000000001
 21
1.0
 31
0.0
 73
     1
 44
1.0
  0
POINT
  5
11E9
330
11E0
100
AcDbEntity
  8
DEFPOINTS
  6
Continuous
 62
     0
440
 16777216
100
AcDbPoint
 10
-215.0000000000001
 20
-1720.000000000001
 30
0.0
  0
POINT
  5
11EA
330
11E0
100
AcDbEntity
  8
DEFPOINTS
  6
Continuous
 62
     0
440
 16777216
100
AcDbPoint
 10
-215.0000000000001
 20
-1120.0
 30
0.0
  0
POINT
  5
11EB
330
11E0
100
AcDbEntity
  8
DEFPOINTS
  6
Continuous
 62
     0
440
 16777216
100
AcDbPoint
 10
-1019.203898865075
 20
-1120.0
 30
0.0
  0
ENDBLK
  5
11E2
330
11E0
100
AcDbEntity
  8
0
100
AcDbBlockEnd
  0
BLOCK
  5
11EE
330
11ED
100
AcDbEntity
  8
0
100
AcDbBlockBegin
  2
*D8
 70
     1
 10
0.0
 20
0.0
 30
0.0
  3
*D8
  1

  0
LINE
  5
1206
330
11ED
100
AcDbEntity
  8
SIZE
  6
Continuous
 62
     0
440
 16777216
370
    -2
100
AcDbLine
 10
-225.0000000000001
 20
-1120.0
 30
0.0
 11
-1031.703898865075
 21
-1120.0
 31
0.0
  0
LINE
  5
1207
330
11ED
100
AcDbEntity
  8
SIZE
  6
Continuous
 62
     0
440
 16777216
370
    -2
100
AcDbLine
 10
-205.0000000000001
 20
-0.0000000000000016
 30
0.0
 11
-1031.703898865076
 21
-0.0000000000001346
 31
0.0
  0
LINE
  5
1208
330
11ED
100
AcDbEntity
  8
SIZE
  6
Continuous
 62
     0
440
 16777216
370
    -2
100
AcDbLine
 10
-1019.203898865075
 20
-1110.0
 30
0.0
 11
-1019.203898865076
 21
-10.00000000000013
 31
0.0
  0
INSERT
  5
1209
330
11ED
100
AcDbEntity
  8
SIZE
  6
Continuous
 62
     0
440
 16777216
370
    -2
100
AcDbBlockReference
  2
_ORIGIN
 10
-1019.203898865075
 20
-1120.0
 30
0.0
 41
10.0
 42
10.0
 43
10.0
 50
270.0
  0
INSERT
  5
120A
330
11ED
100
AcDbEntity
  8
SIZE
  6
Continuous
 62
     0
440
 16777216
370
    -2
100
AcDbBlockReference
  2
_ORIGIN
 10
-1019.203898865076
 20
-0.0000000000001325
 30
0.0
 41
10.0
 42
10.0
 43
10.0
 50
90.0
  0
MTEXT
  5
120B
330
11ED
100
AcDbEntity
  8
SIZE
  6
Continuous
 62
     0
440
 16777216
100
AcDbMText
 10
-1044.203898865075
 20
-560.0
 30
0.0
 40
30.0
 41
0.0
 46
0.0
 71
     5
 72
     1
  1
\A1;1120
 11
0.0000000000000001
 21
1.0
 31
0.0
 73
     1
 44
1.0
  0
POINT
  5
120C
330
11ED
100
AcDbEntity
  8
DEFPOINTS
  6
Continuous
 62
     0
440
 16777216
100
AcDbPoint
 10
-215.0000000000001
 20
-1120.0
 30
0.0
  0
POINT
  5
120D
330
11ED
100
AcDbEntity
  8
DEFPOINTS
  6
Continuous
 62
     0
440
 16777216
100
AcDbPoint
 10
-195.0000000000001
 20
0.0
 30
0.0
  0
POINT
  5
120E
330
11ED
100
AcDbEntity
  8
DEFPOINTS
  6
Continuous
 62
     0
440
 16777216
100
AcDbPoint
 10
-1019.203898865076
 20
-0.0000000000001325
 30
0.0
  0
ENDBLK
  5
11EF
330
11ED
100
AcDbEntity
  8
0
100
AcDbBlockEnd
  0
BLOCK
  5
122E
330
122D
100
AcDbEntity
  8
0
100
AcDbBlockBegin
  2
*D9
 70
     1
 10
0.0
 20
0.0
 30
0.0
  3
*D9
  1

  0
LINE
  5
1230
330
122D
100
AcDbEntity
  8
SIZE
  6
Continuous
 62
     0
440
 16777216
370
    -2
100
AcDbLine
 10
-169.115353147361
 20
-22.00000000000001
 30
0.0
 11
-929.1414912749901
 21
-22.00000000000013
 31
0.0
  0
LINE
  5
1231
330
122D
100
AcDbEntity
  8
SIZE
  6
Continuous
 62
     0
440
 16777216
370
    -2
100
AcDbLine
 10
-205.0000000000001
 20
-0.0000000000000016
 30
0.0
 11
-929.1414912749901
 21
-0.0000000000001181
 31
0.0
  0
LINE
  5
1232
330
122D
100
AcDbEntity
  8
SIZE
  6
Continuous
 62
     0
440
 16777216
370
    -2
100
AcDbLine
 10
-916.6414912749901
 20
-32.00000000000013
 30
0.0
 11
-916.6414912749901
 21
-42.00000000000013
 31
0.0
  0
LINE
  5
1233
330
122D
100
AcDbEntity
  8
SIZE
  6
Continuous
 62
     0
440
 16777216
370
    -2
100
AcDbLine
 10
-916.6414912749901
 20
9.999999999999884
 30
0.0
 11
-916.6414912749901
 21
89.99999999999991
 31
0.0
  0
LINE
  5
1234
330
122D
100
AcDbEntity
  8
SIZE
  6
Continuous
 62
     0
440
 16777216
370
    -2
100
AcDbLine
 10
-916.6414912749901
 20
-22.00000000000013
 30
0.0
 11
-916.6414912749901
 21
-0.000000000000116
 31
0.0
  0
INSERT
  5
1235
330
122D
100
AcDbEntity
  8
SIZE
  6
Continuous
 62
     0
440
 16777216
370
    -2
100
AcDbBlockReference
  2
_ORIGIN
 10
-916.6414912749901
 20
-22.00000000000013
 30
0.0
 41
10.0
 42
10.0
 43
10.0
 50
90.0
  0
INSERT
  5
1236
330
122D
100
AcDbEntity
  8
SIZE
  6
Continuous
 62
     0
440
 16777216
370
    -2
100
AcDbBlockReference
  2
_ORIGIN
 10
-916.6414912749901
 20
-0.000000000000116
 30
0.0
 41
10.0
 42
10.0
 43
10.0
 50
270.0
  0
MTEXT
  5
1237
330
122D
100
AcDbEntity
  8
SIZE
  6
Continuous
 62
     0
440
 16777216
100
AcDbMText
 10
-941.6414912749898
 20
55.00000000000014
 30
0.0
 40
30.0
 41
0.0
 46
0.0
 71
     5
 72
     1
  1
\A1;22
 11
0.0000000000000001
 21
1.0
 31
0.0
 73
     1
 44
1.0
  0
POINT
  5
1238
330
122D
100
AcDbEntity
  8
DEFPOINTS
  6
Continuous
 62
     0
440
 16777216
100
AcDbPoint
 10
-159.115353147361
 20
-22.00000000000001
 30
0.0
  0
POINT
  5
1239
330
122D
100
AcDbEntity
  8
DEFPOINTS
  6
Continuous
 62
     0
440
 16777216
100
AcDbPoint
 10
-195.0000000000001
 20
0.0
 30
0.0
  0
POINT
  5
123A
330
122D
100
AcDbEntity
  8
DEFPOINTS
  6
Continuous
 62
     0
440
 16777216
100
AcDbPoint
 10
-916.6414912749901
 20
-0.000000000000116
 30
0.0
  0
ENDBLK
  5
122F
330
122D
100
AcDbEntity
  8
0
100
AcDbBlockEnd
  0
BLOCK
  5
123D
330
123C
100
AcDbEntity
  8
0
100
AcDbBlockBegin
  2
*D10
 70
     1
 10
0.0
 20
0.0
 30
0.0
  3
*D10
  1

  0
LINE
  5
1376
330
123C
100
AcDbEntity
  8
SIZE
  6
Continuous
 62
     0
440
 16777216
370
    -2
100
AcDbLine
 10
-225.0000000000001
 20
-1120.0
 30
0.0
 11
-829.1414912749905
 21
-1120.0
 31
0.0
  0
LINE
  5
1377
330
123C
100
AcDbEntity
  8
SIZE
  6
Continuous
 62
     0
440
 16777216
370
    -2
100
AcDbLine
 10
-98.00000000000006
 20
-925.0000000000005
 30
0.0
 11
-829.1414912749905
 21
-925.0000000000007
 31
0.0
  0
LINE
  5
1378
330
123C
100
AcDbEntity
  8
SIZE
  6
Continuous
 62
     0
440
 16777216
370
    -2
100
AcDbLine
 10
-816.6414912749905
 20
-1110.0
 30
0.0
 11
-816.6414912749905
 21
-935.0000000000006
 31
0.0
  0
INSERT
  5
1379
330
123C
100
AcDbEntity
  8
SIZE
  6
Continuous
 62
     0
440
 16777216
370
    -2
100
AcDbBlockReference
  2
_ORIGIN
 10
-816.6414912749905
 20
-1120.0
 30
0.0
 41
10.0
 42
10.0
 43
10.0
 50
270.0
  0
INSERT
  5
137A
330
123C
100
AcDbEntity
  8
SIZE
  6
Continuous
 62
     0
440
 16777216
370
    -2
100
AcDbBlockReference
  2
_ORIGIN
 10
-816.6414912749905
 20
-925.0000000000007
 30
0.0
 41
10.0
 42
10.0
 43
10.0
 50
90.0
  0
MTEXT
  5
137B
330
123C
100
AcDbEntity
  8
SIZE
  6
Continuous
 62
     0
440
 16777216
100
AcDbMText
 10
-841.6414912749905
 20
-1022.5
 30
0.0
 40
30.0
 41
0.0
 46
0.0
 71
     5
 72
     1
  1
\A1;195
 11
0.0000000000000001
 21
1.0
 31
0.0
 73
     1
 44
1.0
  0
POINT
  5
137C
330
123C
100
AcDbEntity
  8
DEFPOINTS
  6
Continuous
 62
     0
440
 16777216
100
AcDbPoint
 10
-215.0000000000001
 20
-1120.0
 30
0.0
  0
POINT
  5
137D
330
123C
100
AcDbEntity
  8
DEFPOINTS
  6
Continuous
 62
     0
440
 16777216
100
AcDbPoint
 10
-88.00000000000004
 20
-925.0000000000005
 30
0.0
  0
POINT
  5
137E
330
123C
100
AcDbEntity
  8
DEFPOINTS
  6
Continuous
 62
     0
440
 16777216
100
AcDbPoint
 10
-816.6414912749905
 20
-925.0000000000007
 30
0.0
  0
ENDBLK
  5
123E
330
123C
100
AcDbEntity
  8
0
100
AcDbBlockEnd
  0
BLOCK
  5
124A
330
1249
100
AcDbEntity
  8
0
100
AcDbBlockBegin
  2
*D11
 70
     1
 10
0.0
 20
0.0
 30
0.0
  3
*D11
  1

  0
LINE
  5
136D
330
1249
100
AcDbEntity
  8
SIZE
  6
Continuous
 62
     0
440
 16777216
370
    -2
100
AcDbLine
 10
-225.0000000000001
 20
-1120.0
 30
0.0
 11
-729.1414912749902
 21
-1120.0
 31
0.0
  0
LINE
  5
136E
330
1249
100
AcDbEntity
  8
SIZE
  6
Continuous
 62
     0
440
 16777216
370
    -2
100
AcDbLine
 10
-225.0000000000001
 20
-968.0000000000005
 30
0.0
 11
-729.1414912749902
 21
-968.0000000000005
 31
0.0
  0
LINE
  5
136F
330
1249
100
AcDbEntity
  8
SIZE
  6
Continuous
 62
     0
440
 16777216
370
    -2
100
AcDbLine
 10
-716.6414912749902
 20
-1110.0
 30
0.0
 11
-716.6414912749902
 21
-978.0000000000006
 31
0.0
  0
INSERT
  5
1370
330
1249
100
AcDbEntity
  8
SIZE
  6
Continuous
 62
     0
440
 16777216
370
    -2
100
AcDbBlockReference
  2
_ORIGIN
 10
-716.6414912749902
 20
-1120.0
 30
0.0
 41
10.0
 42
10.0
 43
10.0
 50
270.0
  0
INSERT
  5
1371
330
1249
100
AcDbEntity
  8
SIZE
  6
Continuous
 62
     0
440
 16777216
370
    -2
100
AcDbBlockReference
  2
_ORIGIN
 10
-716.6414912749902
 20
-968.0000000000005
 30
0.0
 41
10.0
 42
10.0
 43
10.0
 50
90.0
  0
MTEXT
  5
1372
330
1249
100
AcDbEntity
  8
SIZE
  6
Continuous
 62
     0
440
 16777216
100
AcDbMText
 10
-741.6414912749904
 20
-1044.0
 30
0.0
 40
30.0
 41
0.0
 46
0.0
 71
     5
 72
     1
  1
\A1;152
 11
0.0000000000000001
 21
1.0
 31
0.0
 73
     1
 44
1.0
  0
POINT
  5
1373
330
1249
100
AcDbEntity
  8
DEFPOINTS
  6
Continuous
 62
     0
440
 16777216
100
AcDbPoint
 10
-215.0000000000001
 20
-1120.0
 30
0.0
  0
POINT
  5
1374
330
1249
100
AcDbEntity
  8
DEFPOINTS
  6
Continuous
 62
     0
440
 16777216
100
AcDbPoint
 10
-215.0000000000001
 20
-968.0000000000005
 30
0.0
  0
POINT
  5
1375
330
1249
100
AcDbEntity
  8
DEFPOINTS
  6
Continuous
 62
     0
440
 16777216
100
AcDbPoint
 10
-716.6414912749902
 20
-968.0000000000005
 30
0.0
  0
ENDBLK
  5
124B
330
1249
100
AcDbEntity
  8
0
100
AcDbBlockEnd
  0
BLOCK
  5
1257
330
1256
100
AcDbEntity
  8
0
100
AcDbBlockBegin
  2
*D12
 70
     1
 10
0.0
 20
0.0
 30
0.0
  3
*D12
  1

  0
LINE
  5
1364
330
1256
100
AcDbEntity
  8
SIZE
  6
Continuous
 62
     0
440
 16777216
370
    -2
100
AcDbLine
 10
-225.0000000000001
 20
-1120.0
 30
0.0
 11
-629.1414912749902
 21
-1120.0
 31
0.0
  0
LINE
  5
1365
330
1256
100
AcDbEntity
  8
SIZE
  6
Continuous
 62
     0
440
 16777216
370
    -2
100
AcDbLine
 10
-83.00000000000002
 20
-1011.0
 30
0.0
 11
-629.1414912749902
 21
-1011.000000000001
 31
0.0
  0
LINE
  5
1366
330
1256
100
AcDbEntity
  8
SIZE
  6
Continuous
 62
     0
440
 16777216
370
    -2
100
AcDbLine
 10
-616.6414912749902
 20
-1110.0
 30
0.0
 11
-616.6414912749902
 21
-1021.0
 31
0.0
  0
INSERT
  5
1367
330
1256
100
AcDbEntity
  8
SIZE
  6
Continuous
 62
     0
440
 16777216
370
    -2
100
AcDbBlockReference
  2
_ORIGIN
 10
-616.6414912749902
 20
-1120.0
 30
0.0
 41
10.0
 42
10.0
 43
10.0
 50
270.0
  0
INSERT
  5
1368
330
1256
100
AcDbEntity
  8
SIZE
  6
Continuous
 62
     0
440
 16777216
370
    -2
100
AcDbBlockReference
  2
_ORIGIN
 10
-616.6414912749902
 20
-1011.000000000001
 30
0.0
 41
10.0
 42
10.0
 43
10.0
 50
90.0
  0
MTEXT
  5
1369
330
1256
100
AcDbEntity
  8
SIZE
  6
Continuous
 62
     0
440
 16777216
100
AcDbMText
 10
-641.6414912749904
 20
-1065.5
 30
0.0
 40
30.0
 41
0.0
 46
0.0
 71
     5
 72
     1
  1
\A1;109
 11
0.0000000000000001
 21
1.0
 31
0.0
 73
     1
 44
1.0
  0
POINT
  5
136A
330
1256
100
AcDbEntity
  8
DEFPOINTS
  6
Continuous
 62
     0
440
 16777216
100
AcDbPoint
 10
-215.0000000000001
 20
-1120.0
 30
0.0
  0
POINT
  5
136B
330
1256
100
AcDbEntity
  8
DEFPOINTS
  6
Continuous
 62
     0
440
 16777216
100
AcDbPoint
 10
-73.00000000000003
 20
-1011.0
 30
0.0
  0
POINT
  5
136C
330
1256
100
AcDbEntity
  8
DEFPOINTS
  6
Continuous
 62
     0
440
 16777216
100
AcDbPoint
 10
-616.6414912749902
 20
-1011.000000000001
 30
0.0
  0
ENDBLK
  5
1258
330
1256
100
AcDbEntity
  8
0
100
AcDbBlockEnd
  0
BLOCK
  5
1264
330
1263
100
AcDbEntity
  8
0
100
AcDbBlockBegin
  2
*D13
 70
     1
 10
0.0
 20
0.0
 30
0.0
  3
*D13
  1

  0
LINE
  5
135B
330
1263
100
AcDbEntity
  8
SIZE
  6
Continuous
 62
     0
440
 16777216
370
    -2
100
AcDbLine
 10
-225.0000000000001
 20
-1120.0
 30
0.0
 11
-529.1414912749899
 21
-1120.0
 31
0.0
  0
LINE
  5
135C
330
1263
100
AcDbEntity
  8
SIZE
  6
Continuous
 62
     0
440
 16777216
370
    -2
100
AcDbLine
 10
-208.0000000000001
 20
-1059.0
 30
0.0
 11
-529.1414912749899
 21
-1059.000000000001
 31
0.0
  0
LINE
  5
135D
330
1263
100
AcDbEntity
  8
SIZE
  6
Continuous
 62
     0
440
 16777216
370
    -2
100
AcDbLine
 10
-516.6414912749899
 20
-1110.0
 30
0.0
 11
-516.6414912749899
 21
-1069.0
 31
0.0
  0
INSERT
  5
135E
330
1263
100
AcDbEntity
  8
SIZE
  6
Continuous
 62
     0
440
 16777216
370
    -2
100
AcDbBlockReference
  2
_ORIGIN
 10
-516.6414912749899
 20
-1120.0
 30
0.0
 41
10.0
 42
10.0
 43
10.0
 50
270.0
  0
INSERT
  5
135F
330
1263
100
AcDbEntity
  8
SIZE
  6
Continuous
 62
     0
440
 16777216
370
    -2
100
AcDbBlockReference
  2
_ORIGIN
 10
-516.6414912749899
 20
-1059.000000000001
 30
0.0
 41
10.0
 42
10.0
 43
10.0
 50
90.0
  0
MTEXT
  5
1360
330
1263
100
AcDbEntity
  8
SIZE
  6
Continuous
 62
     0
440
 16777216
100
AcDbMText
 10
-541.6414912749901
 20
-1089.5
 30
0.0
 40
30.0
 41
0.0
 46
0.0
 71
     5
 72
     1
  1
\A1;61
 11
0.0000000000000001
 21
1.0
 31
0.0
 73
     1
 44
1.0
  0
POINT
  5
1361
330
1263
100
AcDbEntity
  8
DEFPOINTS
  6
Continuous
 62
     0
440
 16777216
100
AcDbPoint
 10
-215.0000000000001
 20
-1120.0
 30
0.0
  0
POINT
  5
1362
330
1263
100
AcDbEntity
  8
DEFPOINTS
  6
Continuous
 62
     0
440
 16777216
100
AcDbPoint
 10
-198.0000000000001
 20
-1059.0
 30
0.0
  0
POINT
  5
1363
330
1263
100
AcDbEntity
  8
DEFPOINTS
  6
Continuous
 62
     0
440
 16777216
100
AcDbPoint
 10
-516.6414912749899
 20
-1059.000000000001
 30
0.0
  0
ENDBLK
  5
1265
330
1263
100
AcDbEntity
  8
0
100
AcDbBlockEnd
  0
BLOCK
  5
1271
330
1270
100
AcDbEntity
  8
0
100
AcDbBlockBegin
  2
*D14
 70
     1
 10
0.0
 20
0.0
 30
0.0
  3
*D14
  1

  0
LINE
  5
156F
330
1270
100
AcDbEntity
  8
SIZE
  6
Continuous
 62
     0
440
 16777216
370
    -2
100
AcDbLine
 10
225.0000000000004
 20
-1120.0
 30
0.0
 11
903.381629449753
 21
-1120.0
 31
0.0
  0
LINE
  5
1570
330
1270
100
AcDbEntity
  8
SIZE
  6
Continuous
 62
     0
440
 16777216
370
    -2
100
AcDbLine
 10
64.00000000000003
 20
-1058.999962654774
 30
0.0
 11
903.381629449753
 21
-1058.999962654774
 31
0.0
  0
LINE
  5
1571
330
1270
100
AcDbEntity
  8
SIZE
  6
Continuous
 62
     0
440
 16777216
370
    -2
100
AcDbLine
 10
890.881629449753
 20
-1110.0
 30
0.0
 11
890.881629449753
 21
-1068.999962654774
 31
0.0
  0
INSERT
  5
1572
330
1270
100
AcDbEntity
  8
SIZE
  6
Continuous
 62
     0
440
 16777216
370
    -2
100
AcDbBlockReference
  2
_ORIGIN
 10
890.881629449753
 20
-1120.0
 30
0.0
 41
10.0
 42
10.0
 43
10.0
 50
270.0
  0
INSERT
  5
1573
330
1270
100
AcDbEntity
  8
SIZE
  6
Continuous
 62
     0
440
 16777216
370
    -2
100
AcDbBlockReference
  2
_ORIGIN
 10
890.881629449753
 20
-1058.999962654774
 30
0.0
 41
10.0
 42
10.0
 43
10.0
 50
90.0
  0
MTEXT
  5
1574
330
1270
100
AcDbEntity
  8
SIZE
  6
Continuous
 62
     0
440
 16777216
100
AcDbMText
 10
865.8816294497524
 20
-1089.499981327387
 30
0.0
 40
30.0
 41
0.0
 46
0.0
 71
     5
 72
     1
  1
\A1;61
 11
0.0000000000000001
 21
1.0
 31
0.0
 73
     1
 44
1.0
  0
POINT
  5
1575
330
1270
100
AcDbEntity
  8
DEFPOINTS
  6
Continuous
 62
     0
440
 16777216
100
AcDbPoint
 10
215.0000000000004
 20
-1120.0
 30
0.0
  0
POINT
  5
1576
330
1270
100
AcDbEntity
  8
DEFPOINTS
  6
Continuous
 62
     0
440
 16777216
100
AcDbPoint
 10
54.00000000000003
 20
-1058.999962654774
 30
0.0
  0
POINT
  5
1577
330
1270
100
AcDbEntity
  8
DEFPOINTS
  6
Continuous
 62
     0
440
 16777216
100
AcDbPoint
 10
890.881629449753
 20
-1058.999962654774
 30
0.0
  0
ENDBLK
  5
1272
330
1270
100
AcDbEntity
  8
0
100
AcDbBlockEnd
  0
BLOCK
  5
128C
330
128B
100
AcDbEntity
  8
0
100
AcDbBlockBegin
  2
*D15
 70
     1
 10
0.0
 20
0.0
 30
0.0
  3
*D15
  1

  0
LINE
  5
1352
330
128B
100
AcDbEntity
  8
SIZE
  6
Continuous
 62
     0
440
 16777216
370
    -2
100
AcDbLine
 10
-225.0000000000001
 20
-1120.0
 30
0.0
 11
-429.1414912749899
 21
-1120.0
 31
0.0
  0
LINE
  5
1353
330
128B
100
AcDbEntity
  8
SIZE
  6
Continuous
 62
     0
440
 16777216
370
    -2
100
AcDbLine
 10
-57.00000000000002
 20
-1074.0
 30
0.0
 11
-429.1414912749899
 21
-1074.0
 31
0.0
  0
LINE
  5
1354
330
128B
100
AcDbEntity
  8
SIZE
  6
Continuous
 62
     0
440
 16777216
370
    -2
100
AcDbLine
 10
-416.6414912749899
 20
-1110.0
 30
0.0
 11
-416.6414912749899
 21
-1084.0
 31
0.0
  0
INSERT
  5
1355
330
128B
100
AcDbEntity
  8
SIZE
  6
Continuous
 62
     0
440
 16777216
370
    -2
100
AcDbBlockReference
  2
_ORIGIN
 10
-416.6414912749899
 20
-1120.0
 30
0.0
 41
10.0
 42
10.0
 43
10.0
 50
270.0
  0
INSERT
  5
1356
330
128B
100
AcDbEntity
  8
SIZE
  6
Continuous
 62
     0
440
 16777216
370
    -2
100
AcDbBlockReference
  2
_ORIGIN
 10
-416.6414912749899
 20
-1074.0
 30
0.0
 41
10.0
 42
10.0
 43
10.0
 50
90.0
  0
MTEXT
  5
1357
330
128B
100
AcDbEntity
  8
SIZE
  6
Continuous
 62
     0
440
 16777216
100
AcDbMText
 10
-441.6414912749901
 20
-1097.0
 30
0.0
 40
30.0
 41
0.0
 46
0.0
 71
     5
 72
     1
  1
\A1;46
 11
0.0000000000000001
 21
1.0
 31
0.0
 73
     1
 44
1.0
  0
POINT
  5
1358
330
128B
100
AcDbEntity
  8
DEFPOINTS
  6
Continuous
 62
     0
440
 16777216
100
AcDbPoint
 10
-215.0000000000001
 20
-1120.0
 30
0.0
  0
POINT
  5
1359
330
128B
100
AcDbEntity
  8
DEFPOINTS
  6
Continuous
 62
     0
440
 16777216
100
AcDbPoint
 10
-47.00000000000001
 20
-1074.0
 30
0.0
  0
POINT
  5
135A
330
128B
100
AcDbEntity
  8
DEFPOINTS
  6
Continuous
 62
     0
440
 16777216
100
AcDbPoint
 10
-416.6414912749899
 20
-1074.0
 30
0.0
  0
ENDBLK
  5
128D
330
128B
100
AcDbEntity
  8
0
100
AcDbBlockEnd
  0
BLOCK
  5
129A
330
1299
100
AcDbEntity
  8
0
100
AcDbBlockBegin
  2
*D16
 70
     1
 10
0.0
 20
0.0
 30
0.0
  3
*D16
  1

  0
LINE
  5
1349
330
1299
100
AcDbEntity
  8
SIZE
  6
Continuous
 62
     0
440
 16777216
370
    -2
100
AcDbLine
 10
-225.0000000000001
 20
-1120.0
 30
0.0
 11
-329.1414912749897
 21
-1120.0
 31
0.0
  0
LINE
  5
134A
330
1299
100
AcDbEntity
  8
SIZE
  6
Continuous
 62
     0
440
 16777216
370
    -2
100
AcDbLine
 10
-141.0
 20
-1077.0
 30
0.0
 11
-329.1414912749897
 21
-1077.0
 31
0.0
  0
LINE
  5
134B
330
1299
100
AcDbEntity
  8
SIZE
  6
Continuous
 62
     0
440
 16777216
370
    -2
100
AcDbLine
 10
-316.6414912749897
 20
-1110.0
 30
0.0
 11
-316.6414912749897
 21
-1087.0
 31
0.0
  0
INSERT
  5
134C
330
1299
100
AcDbEntity
  8
SIZE
  6
Continuous
 62
     0
440
 16777216
370
    -2
100
AcDbBlockReference
  2
_ORIGIN
 10
-316.6414912749897
 20
-1120.0
 30
0.0
 41
10.0
 42
10.0
 43
10.0
 50
270.0
  0
INSERT
  5
134D
330
1299
100
AcDbEntity
  8
SIZE
  6
Continuous
 62
     0
440
 16777216
370
    -2
100
AcDbBlockReference
  2
_ORIGIN
 10
-316.6414912749897
 20
-1077.0
 30
0.0
 41
10.0
 42
10.0
 43
10.0
 50
90.0
  0
MTEXT
  5
134E
330
1299
100
AcDbEntity
  8
SIZE
  6
Continuous
 62
     0
440
 16777216
100
AcDbMText
 10
-341.6414912749899
 20
-1098.5
 30
0.0
 40
30.0
 41
0.0
 46
0.0
 71
     5
 72
     1
  1
\A1;43
 11
0.0000000000000001
 21
1.0
 31
0.0
 73
     1
 44
1.0
  0
POINT
  5
134F
330
1299
100
AcDbEntity
  8
DEFPOINTS
  6
Continuous
 62
     0
440
 16777216
100
AcDbPoint
 10
-215.0000000000001
 20
-1120.0
 30
0.0
  0
POINT
  5
1350
330
1299
100
AcDbEntity
  8
DEFPOINTS
  6
Continuous
 62
     0
440
 16777216
100
AcDbPoint
 10
-131.0
 20
-1077.0
 30
0.0
  0
POINT
  5
1351
330
1299
100
AcDbEntity
  8
DEFPOINTS
  6
Continuous
 62
     0
440
 16777216
100
AcDbPoint
 10
-316.6414912749897
 20
-1077.0
 30
0.0
  0
ENDBLK
  5
129B
330
1299
100
AcDbEntity
  8
0
100
AcDbBlockEnd
  0
BLOCK
  5
12A8
330
12A7
100
AcDbEntity
  8
0
100
AcDbBlockBegin
  2
*D17
 70
     1
 10
0.0
 20
0.0
 30
0.0
  3
*D17
  1

  0
LINE
  5
155D
330
12A7
100
AcDbEntity
  8
SIZE
  6
Continuous
 62
     0
440
 16777216
370
    -2
100
AcDbLine
 10
225.0000000000004
 20
-1120.0
 30
0.0
 11
703.3816294497523
 21
-1120.0
 31
0.0
  0
LINE
  5
155E
330
12A7
100
AcDbEntity
  8
SIZE
  6
Continuous
 62
     0
440
 16777216
370
    -2
100
AcDbLine
 10
137.0000000000002
 20
-1070.0
 30
0.0
 11
703.3816294497523
 21
-1070.0
 31
0.0
  0
LINE
  5
155F
330
12A7
100
AcDbEntity
  8
SIZE
  6
Continuous
 62
     0
440
 16777216
370
    -2
100
AcDbLine
 10
690.8816294497523
 20
-1110.0
 30
0.0
 11
690.8816294497523
 21
-1080.0
 31
0.0
  0
INSERT
  5
1560
330
12A7
100
AcDbEntity
  8
SIZE
  6
Continuous
 62
     0
440
 16777216
370
    -2
100
AcDbBlockReference
  2
_ORIGIN
 10
690.8816294497523
 20
-1120.0
 30
0.0
 41
10.0
 42
10.0
 43
10.0
 50
270.0
  0
INSERT
  5
1561
330
12A7
100
AcDbEntity
  8
SIZE
  6
Continuous
 62
     0
440
 16777216
370
    -2
100
AcDbBlockReference
  2
_ORIGIN
 10
690.8816294497523
 20
-1070.0
 30
0.0
 41
10.0
 42
10.0
 43
10.0
 50
90.0
  0
MTEXT
  5
1562
330
12A7
100
AcDbEntity
  8
SIZE
  6
Continuous
 62
     0
440
 16777216
100
AcDbMText
 10
665.8816294497519
 20
-1095.0
 30
0.0
 40
30.0
 41
0.0
 46
0.0
 71
     5
 72
     1
  1
\A1;50
 11
0.0000000000000001
 21
1.0
 31
0.0
 73
     1
 44
1.0
  0
POINT
  5
1563
330
12A7
100
AcDbEntity
  8
DEFPOINTS
  6
Continuous
 62
     0
440
 16777216
100
AcDbPoint
 10
215.0000000000004
 20
-1120.0
 30
0.0
  0
POINT
  5
1564
330
12A7
100
AcDbEntity
  8
DEFPOINTS
  6
Continuous
 62
     0
440
 16777216
100
AcDbPoint
 10
127.0000000000002
 20
-1070.0
 30
0.0
  0
POINT
  5
1565
330
12A7
100
AcDbEntity
  8
DEFPOINTS
  6
Continuous
 62
     0
440
 16777216
100
AcDbPoint
 10
690.8816294497523
 20
-1070.0
 30
0.0
  0
ENDBLK
  5
12A9
330
12A7
100
AcDbEntity
  8
0
100
AcDbBlockEnd
  0
BLOCK
  5
12B6
330
12B5
100
AcDbEntity
  8
0
100
AcDbBlockBegin
  2
*D18
 70
     1
 10
0.0
 20
0.0
 30
0.0
  3
*D18
  1

  0
LINE
  5
137F
330
12B5
100
AcDbEntity
  8
SIZE
  6
Continuous
 62
     0
440
 16777216
370
    -2
100
AcDbLine
 10
225.0000000000004
 20
-1120.0
 30
0.0
 11
1003.381629449752
 21
-1120.0
 31
0.0
  0
LINE
  5
1380
330
12B5
100
AcDbEntity
  8
SIZE
  6
Continuous
 62
     0
440
 16777216
370
    -2
100
AcDbLine
 10
182.0
 20
-909.0000000000005
 30
0.0
 11
1003.381629449752
 21
-909.0000000000001
 31
0.0
  0
LINE
  5
1381
330
12B5
100
AcDbEntity
  8
SIZE
  6
Continuous
 62
     0
440
 16777216
370
    -2
100
AcDbLine
 10
990.8816294497524
 20
-1110.0
 30
0.0
 11
990.8816294497524
 21
-919.0000000000003
 31
0.0
  0
INSERT
  5
1382
330
12B5
100
AcDbEntity
  8
SIZE
  6
Continuous
 62
     0
440
 16777216
370
    -2
100
AcDbBlockReference
  2
_ORIGIN
 10
990.8816294497524
 20
-1120.0
 30
0.0
 41
10.0
 42
10.0
 43
10.0
 50
270.0
  0
INSERT
  5
1383
330
12B5
100
AcDbEntity
  8
SIZE
  6
Continuous
 62
     0
440
 16777216
370
    -2
100
AcDbBlockReference
  2
_ORIGIN
 10
990.8816294497524
 20
-909.0000000000001
 30
0.0
 41
10.0
 42
10.0
 43
10.0
 50
90.0
  0
MTEXT
  5
1384
330
12B5
100
AcDbEntity
  8
SIZE
  6
Continuous
 62
     0
440
 16777216
100
AcDbMText
 10
965.8816294497519
 20
-1012.35939532653
 30
0.0
 40
30.0
 41
0.0
 46
0.0
 71
     5
 72
     1
  1
\A1;211
 11
0.0000000000000001
 21
1.0
 31
0.0
 73
     1
 44
1.0
  0
POINT
  5
1385
330
12B5
100
AcDbEntity
  8
DEFPOINTS
  6
Continuous
 62
     0
440
 16777216
100
AcDbPoint
 10
215.0000000000004
 20
-1120.0
 30
0.0
  0
POINT
  5
1386
330
12B5
100
AcDbEntity
  8
DEFPOINTS
  6
Continuous
 62
     0
440
 16777216
100
AcDbPoint
 10
172.0
 20
-909.0000000000005
 30
0.0
  0
POINT
  5
1387
330
12B5
100
AcDbEntity
  8
DEFPOINTS
  6
Continuous
 62
     0
440
 16777216
100
AcDbPoint
 10
990.8816294497524
 20
-909.0000000000001
 30
0.0
  0
ENDBLK
  5
12B7
330
12B5
100
AcDbEntity
  8
0
100
AcDbBlockEnd
  0
BLOCK
  5
131F
330
131E
100
AcDbEntity
  8
0
100
AcDbBlockBegin
  2
*D19
 70
     1
 10
0.0
 20
0.0
 30
0.0
  3
*D19
  1

  0
LINE
  5
1337
330
131E
100
AcDbEntity
  8
SIZE
  6
Continuous
 62
     0
440
 16777216
370
    -2
100
AcDbLine
 10
-225.0000000000001
 20
-1120.0
 30
0.0
 11
-929.1414912749901
 21
-1120.0
 31
0.0
  0
LINE
  5
1338
330
131E
100
AcDbEntity
  8
SIZE
  6
Continuous
 62
     0
440
 16777216
370
    -2
100
AcDbLine
 10
103.09999999995
 20
-857.0000000000005
 30
0.0
 11
-929.1414912749901
 21
-857.0000000000005
 31
0.0
  0
LINE
  5
1339
330
131E
100
AcDbEntity
  8
SIZE
  6
Continuous
 62
     0
440
 16777216
370
    -2
100
AcDbLine
 10
-916.6414912749901
 20
-1110.0
 30
0.0
 11
-916.6414912749901
 21
-867.0000000000005
 31
0.0
  0
INSERT
  5
133A
330
131E
100
AcDbEntity
  8
SIZE
  6
Continuous
 62
     0
440
 16777216
370
    -2
100
AcDbBlockReference
  2
_ORIGIN
 10
-916.6414912749901
 20
-1120.0
 30
0.0
 41
10.0
 42
10.0
 43
10.0
 50
270.0
  0
INSERT
  5
133B
330
131E
100
AcDbEntity
  8
SIZE
  6
Continuous
 62
     0
440
 16777216
370
    -2
100
AcDbBlockReference
  2
_ORIGIN
 10
-916.6414912749901
 20
-857.0000000000005
 30
0.0
 41
10.0
 42
10.0
 43
10.0
 50
90.0
  0
MTEXT
  5
133C
330
131E
100
AcDbEntity
  8
SIZE
  6
Continuous
 62
     0
440
 16777216
100
AcDbMText
 10
-941.6414912749901
 20
-988.5000000000001
 30
0.0
 40
30.0
 41
0.0
 46
0.0
 71
     5
 72
     1
  1
\A1;263
 11
0.0000000000000001
 21
1.0
 31
0.0
 73
     1
 44
1.0
  0
POINT
  5
133D
330
131E
100
AcDbEntity
  8
DEFPOINTS
  6
Continuous
 62
     0
440
 16777216
100
AcDbPoint
 10
-215.0000000000001
 20
-1120.0
 30
0.0
  0
POINT
  5
133E
330
131E
100
AcDbEntity
  8
DEFPOINTS
  6
Continuous
 62
     0
440
 16777216
100
AcDbPoint
 10
113.09999999995
 20
-857.0000000000005
 30
0.0
  0
POINT
  5
133F
330
131E
100
AcDbEntity
  8
DEFPOINTS
  6
Continuous
 62
     0
440
 16777216
100
AcDbPoint
 10
-916.6414912749901
 20
-857.0000000000005
 30
0.0
  0
ENDBLK
  5
1320
330
131E
100
AcDbEntity
  8
0
100
AcDbBlockEnd
  0
BLOCK
  5
132C
330
132B
100
AcDbEntity
  8
0
100
AcDbBlockBegin
  2
*D20
 70
     1
 10
0.0
 20
0.0
 30
0.0
  3
*D20
  1

  0
LINE
  5
1340
330
132B
100
AcDbEntity
  8
SIZE
  6
Continuous
 62
     0
440
 16777216
370
    -2
100
AcDbLine
 10
115.0000000000001
 20
-857.0000000000005
 30
0.0
 11
-929.1414912749903
 21
-857.0000000000005
 31
0.0
  0
LINE
  5
1341
330
132B
100
AcDbEntity
  8
SIZE
  6
Continuous
 62
     0
440
 16777216
370
    -2
100
AcDbLine
 10
115.0
 20
-22.0
 30
0.0
 11
-929.1414912749905
 21
-22.00000000000017
 31
0.0
  0
LINE
  5
1342
330
132B
100
AcDbEntity
  8
SIZE
  6
Continuous
 62
     0
440
 16777216
370
    -2
100
AcDbLine
 10
-916.6414912749903
 20
-847.0000000000005
 30
0.0
 11
-916.6414912749905
 21
-32.00000000000017
 31
0.0
  0
INSERT
  5
1343
330
132B
100
AcDbEntity
  8
SIZE
  6
Continuous
 62
     0
440
 16777216
370
    -2
100
AcDbBlockReference
  2
_ORIGIN
 10
-916.6414912749903
 20
-857.0000000000005
 30
0.0
 41
10.0
 42
10.0
 43
10.0
 50
270.0
  0
INSERT
  5
1344
330
132B
100
AcDbEntity
  8
SIZE
  6
Continuous
 62
     0
440
 16777216
370
    -2
100
AcDbBlockReference
  2
_ORIGIN
 10
-916.6414912749905
 20
-22.00000000000017
 30
0.0
 41
10.0
 42
10.0
 43
10.0
 50
90.0
  0
MTEXT
  5
1345
330
132B
100
AcDbEntity
  8
SIZE
  6
Continuous
 62
     0
440
 16777216
100
AcDbMText
 10
-941.6414912749903
 20
-439.5
 30
0.0
 40
30.0
 41
0.0
 46
0.0
 71
     5
 72
     1
  1
\A1;835
 11
0.0000000000000001
 21
1.0
 31
0.0
 73
     1
 44
1.0
  0
POINT
  5
1346
330
132B
100
AcDbEntity
  8
DEFPOINTS
  6
Continuous
 62
     0
440
 16777216
100
AcDbPoint
 10
125.0000000000001
 20
-857.0000000000005
 30
0.0
  0
POINT
  5
1347
330
132B
100
AcDbEntity
  8
DEFPOINTS
  6
Continuous
 62
     0
440
 16777216
100
AcDbPoint
 10
125.0
 20
-22.0
 30
0.0
  0
POINT
  5
1348
330
132B
100
AcDbEntity
  8
DEFPOINTS
  6
Continuous
 62
     0
440
 16777216
100
AcDbPoint
 10
-916.6414912749905
 20
-22.00000000000017
 30
0.0
  0
ENDBLK
  5
132D
330
132B
100
AcDbEntity
  8
0
100
AcDbBlockEnd
  0
BLOCK
  5
13B5
330
13B4
100
AcDbEntity
  8
0
100
AcDbBlockBegin
  2
*D21
 70
     1
 10
0.0
 20
0.0
 30
0.0
  3
*D21
  1

  0
LINE
  5
13E7
330
13B4
100
AcDbEntity
  8
SIZE
  6
Continuous
 62
     0
440
 16777216
370
    -2
100
AcDbLine
 10
-215.0
 20
-1730.0
 30
0.0
 11
-215.0
 21
-2231.063141672217
 31
0.0
  0
LINE
  5
13E8
330
13B4
100
AcDbEntity
  8
SIZE
  6
Continuous
 62
     0
440
 16777216
370
    -2
100
AcDbLine
 10
215.0000000000003
 20
-1730.0
 30
0.0
 11
215.0000000000003
 21
-2231.063141672217
 31
0.0
  0
LINE
  5
13E9
330
13B4
100
AcDbEntity
  8
SIZE
  6
Continuous
 62
     0
440
 16777216
370
    -2
100
AcDbLine
 10
-205.0
 20
-2218.563141672217
 30
0.0
 11
205.0000000000003
 21
-2218.563141672217
 31
0.0
  0
INSERT
  5
13EA
330
13B4
100
AcDbEntity
  8
SIZE
  6
Continuous
 62
     0
440
 16777216
370
    -2
100
AcDbBlockReference
  2
_ORIGIN
 10
-215.0
 20
-2218.563141672217
 30
0.0
 41
10.0
 42
10.0
 43
10.0
 50
180.0
  0
INSERT
  5
13EB
330
13B4
100
AcDbEntity
  8
SIZE
  6
Continuous
 62
     0
440
 16777216
370
    -2
100
AcDbBlockReference
  2
_ORIGIN
 10
215.0000000000003
 20
-2218.563141672217
 30
0.0
 41
10.0
 42
10.0
 43
10.0
  0
MTEXT
  5
13EC
330
13B4
100
AcDbEntity
  8
SIZE
  6
Continuous
 62
     0
440
 16777216
100
AcDbMText
 10
6.924393581692131
 20
-2193.563141672217
 30
0.0
 40
30.0
 41
0.0
 46
0.0
 71
     5
 72
     1
  1
\A1;430
 73
     1
 44
1.0
  0
POINT
  5
13ED
330
13B4
100
AcDbEntity
  8
DEFPOINTS
  6
Continuous
 62
     0
440
 16777216
100
AcDbPoint
 10
-215.0
 20
-1720.0
 30
0.0
  0
POINT
  5
13EE
330
13B4
100
AcDbEntity
  8
DEFPOINTS
  6
Continuous
 62
     0
440
 16777216
100
AcDbPoint
 10
215.0000000000003
 20
-1720.0
 30
0.0
  0
POINT
  5
13EF
330
13B4
100
AcDbEntity
  8
DEFPOINTS
  6
Continuous
 62
     0
440
 16777216
100
AcDbPoint
 10
215.0000000000003
 20
-2218.563141672217
 30
0.0
  0
ENDBLK
  5
13B6
330
13B4
100
AcDbEntity
  8
0
100
AcDbBlockEnd
  0
BLOCK
  5
1402
330
1401
100
AcDbEntity
  8
0
100
AcDbBlockBegin
  2
*D23
 70
     1
 10
0.0
 20
0.0
 30
0.0
  3
*D23
  1

  0
LINE
  5
14BF
330
1401
100
AcDbEntity
  8
SIZE
  6
Continuous
 62
     0
440
 16777216
370
    -2
100
AcDbLine
 10
-215.0
 20
-1130.0
 30
0.0
 11
-215.0
 21
-1213.72130474131
 31
0.0
  0
LINE
  5
14C0
330
1401
100
AcDbEntity
  8
SIZE
  6
Continuous
 62
     0
440
 16777216
370
    -2
100
AcDbLine
 10
-178.0
 20
-1089.0
 30
0.0
 11
-178.0
 21
-1213.72130474131
 31
0.0
  0
LINE
  5
14C1
330
1401
100
AcDbEntity
  8
SIZE
  6
Continuous
 62
     0
440
 16777216
370
    -2
100
AcDbLine
 10
-168.0
 20
-1201.22130474131
 30
0.0
 11
-158.0
 21
-1201.22130474131
 31
0.0
  0
LINE
  5
14C2
330
1401
100
AcDbEntity
  8
SIZE
  6
Continuous
 62
     0
440
 16777216
370
    -2
100
AcDbLine
 10
-225.0
 20
-1201.22130474131
 30
0.0
 11
-356.3586750167961
 21
-1201.22130474131
 31
0.0
  0
LINE
  5
14C3
330
1401
100
AcDbEntity
  8
SIZE
  6
Continuous
 62
     0
440
 16777216
370
    -2
100
AcDbLine
 10
-178.0
 20
-1201.22130474131
 30
0.0
 11
-215.0
 21
-1201.22130474131
 31
0.0
  0
INSERT
  5
14C4
330
1401
100
AcDbEntity
  8
SIZE
  6
Continuous
 62
     0
440
 16777216
370
    -2
100
AcDbBlockReference
  2
_ORIGIN
 10
-178.0
 20
-1201.22130474131
 30
0.0
 41
10.0
 42
10.0
 43
10.0
 50
180.0
  0
INSERT
  5
14C5
330
1401
100
AcDbEntity
  8
SIZE
  6
Continuous
 62
     0
440
 16777216
370
    -2
100
AcDbBlockReference
  2
_ORIGIN
 10
-215.0
 20
-1201.22130474131
 30
0.0
 41
10.0
 42
10.0
 43
10.0
  0
MTEXT
  5
14C6
330
1401
100
AcDbEntity
  8
SIZE
  6
Continuous
 62
     0
440
 16777216
100
AcDbMText
 10
-321.358675016796
 20
-1176.221304741309
 30
0.0
 40
30.0
 41
0.0
 46
0.0
 71
     5
 72
     1
  1
\A1;37
 73
     1
 44
1.0
  0
POINT
  5
14C7
330
1401
100
AcDbEntity
  8
DEFPOINTS
  6
Continuous
 62
     0
440
 16777216
100
AcDbPoint
 10
-215.0
 20
-1120.0
 30
0.0
  0
POINT
  5
14C8
330
1401
100
AcDbEntity
  8
DEFPOINTS
  6
Continuous
 62
     0
440
 16777216
100
AcDbPoint
 10
-178.0
 20
-1079.0
 30
0.0
  0
POINT
  5
14C9
330
1401
100
AcDbEntity
  8
DEFPOINTS
  6
Continuous
 62
     0
440
 16777216
100
AcDbPoint
 10
-178.0
 20
-1201.22130474131
 30
0.0
  0
ENDBLK
  5
1403
330
1401
100
AcDbEntity
  8
0
100
AcDbBlockEnd
  0
BLOCK
  5
141C
330
141B
100
AcDbEntity
  8
0
100
AcDbBlockBegin
  2
*D24
 70
     1
 10
0.0
 20
0.0
 30
0.0
  3
*D24
  1

  0
LINE
  5
15B0
330
141B
100
AcDbEntity
  8
SIZE
  6
Continuous
 62
     0
440
 16777216
370
    -2
100
AcDbLine
 10
-215.0
 20
-1710.0
 30
0.0
 11
-215.0
 21
-1486.739098484174
 31
0.0
  0
LINE
  5
15B1
330
141B
100
AcDbEntity
  8
SIZE
  6
Continuous
 62
     0
440
 16777216
370
    -2
100
AcDbLine
 10
-145.0
 20
-1041.0
 30
0.0
 11
-145.0
 21
-1511.739098484174
 31
0.0
  0
LINE
  5
15B2
330
141B
100
AcDbEntity
  8
SIZE
  6
Continuous
 62
     0
440
 16777216
370
    -2
100
AcDbLine
 10
-205.0
 20
-1499.239098484174
 30
0.0
 11
-155.0
 21
-1499.239098484174
 31
0.0
  0
INSERT
  5
15B3
330
141B
100
AcDbEntity
  8
SIZE
  6
Continuous
 62
     0
440
 16777216
370
    -2
100
AcDbBlockReference
  2
_ORIGIN
 10
-215.0
 20
-1499.239098484174
 30
0.0
 41
10.0
 42
10.0
 43
10.0
 50
180.0
  0
INSERT
  5
15B4
330
141B
100
AcDbEntity
  8
SIZE
  6
Continuous
 62
     0
440
 16777216
370
    -2
100
AcDbBlockReference
  2
_ORIGIN
 10
-145.0
 20
-1499.239098484174
 30
0.0
 41
10.0
 42
10.0
 43
10.0
  0
MTEXT
  5
15B5
330
141B
100
AcDbEntity
  8
SIZE
  6
Continuous
 62
     0
440
 16777216
100
AcDbMText
 10
-180.0
 20
-1474.239098484174
 30
0.0
 40
30.0
 41
0.0
 46
0.0
 71
     5
 72
     1
  1
\A1;70
 73
     1
 44
1.0
  0
POINT
  5
15B6
330
141B
100
AcDbEntity
  8
DEFPOINTS
  6
Continuous
 62
     0
440
 16777216
100
AcDbPoint
 10
-215.0
 20
-1720.0
 30
0.0
  0
POINT
  5
15B7
330
141B
100
AcDbEntity
  8
DEFPOINTS
  6
Continuous
 62
     0
440
 16777216
100
AcDbPoint
 10
-145.0
 20
-1031.0
 30
0.0
  0
POINT
  5
15B8
330
141B
100
AcDbEntity
  8
DEFPOINTS
  6
Continuous
 62
     0
440
 16777216
100
AcDbPoint
 10
-145.0
 20
-1499.239098484174
 30
0.0
  0
ENDBLK
  5
141D
330
141B
100
AcDbEntity
  8
0
100
AcDbBlockEnd
  0
BLOCK
  5
1429
330
1428
100
AcDbEntity
  8
0
100
AcDbBlockBegin
  2
*D25
 70
     1
 10
0.0
 20
0.0
 30
0.0
  3
*D25
  1

  0
LINE
  5
15B9
330
1428
100
AcDbEntity
  8
SIZE
  6
Continuous
 62
     0
440
 16777216
370
    -2
100
AcDbLine
 10
-215.0
 20
-1130.0
 30
0.0
 11
-215.0
 21
-1611.739098484174
 31
0.0
  0
LINE
  5
15BA
330
1428
100
AcDbEntity
  8
SIZE
  6
Continuous
 62
     0
440
 16777216
370
    -2
100
AcDbLine
 10
-111.0
 20
-1107.0
 30
0.0
 11
-111.0
 21
-1611.739098484174
 31
0.0
  0
LINE
  5
15BB
330
1428
100
AcDbEntity
  8
SIZE
  6
Continuous
 62
     0
440
 16777216
370
    -2
100
AcDbLine
 10
-205.0
 20
-1599.239098484174
 30
0.0
 11
-121.0
 21
-1599.239098484174
 31
0.0
  0
INSERT
  5
15BC
330
1428
100
AcDbEntity
  8
SIZE
  6
Continuous
 62
     0
440
 16777216
370
    -2
100
AcDbBlockReference
  2
_ORIGIN
 10
-215.0
 20
-1599.239098484174
 30
0.0
 41
10.0
 42
10.0
 43
10.0
 50
180.0
  0
INSERT
  5
15BD
330
1428
100
AcDbEntity
  8
SIZE
  6
Continuous
 62
     0
440
 16777216
370
    -2
100
AcDbBlockReference
  2
_ORIGIN
 10
-111.0
 20
-1599.239098484174
 30
0.0
 41
10.0
 42
10.0
 43
10.0
  0
MTEXT
  5
15BE
330
1428
100
AcDbEntity
  8
SIZE
  6
Continuous
 62
     0
440
 16777216
100
AcDbMText
 10
-163.0
 20
-1574.239098484174
 30
0.0
 40
30.0
 41
0.0
 46
0.0
 71
     5
 72
     1
  1
\A1;104
 73
     1
 44
1.0
  0
POINT
  5
15BF
330
1428
100
AcDbEntity
  8
DEFPOINTS
  6
Continuous
 62
     0
440
 16777216
100
AcDbPoint
 10
-215.0
 20
-1120.0
 30
0.0
  0
POINT
  5
15C0
330
1428
100
AcDbEntity
  8
DEFPOINTS
  6
Continuous
 62
     0
440
 16777216
100
AcDbPoint
 10
-111.0
 20
-1097.0
 30
0.0
  0
POINT
  5
15C1
330
1428
100
AcDbEntity
  8
DEFPOINTS
  6
Continuous
 62
     0
440
 16777216
100
AcDbPoint
 10
-111.0
 20
-1599.239098484174
 30
0.0
  0
ENDBLK
  5
142A
330
1428
100
AcDbEntity
  8
0
100
AcDbBlockEnd
  0
BLOCK
  5
1436
330
1435
100
AcDbEntity
  8
0
100
AcDbBlockBegin
  2
*D26
 70
     1
 10
0.0
 20
0.0
 30
0.0
  3
*D26
  1

  0
LINE
  5
15A7
330
1435
100
AcDbEntity
  8
SIZE
  6
Continuous
 62
     0
440
 16777216
370
    -2
100
AcDbLine
 10
-215.0
 20
-1130.0
 30
0.0
 11
-215.0
 21
-1711.739098484174
 31
0.0
  0
LINE
  5
15A8
330
1435
100
AcDbEntity
  8
SIZE
  6
Continuous
 62
     0
440
 16777216
370
    -2
100
AcDbLine
 10
-53.0
 20
-1041.0
 30
0.0
 11
-53.00000000000004
 21
-1711.739098484174
 31
0.0
  0
LINE
  5
15A9
330
1435
100
AcDbEntity
  8
SIZE
  6
Continuous
 62
     0
440
 16777216
370
    -2
100
AcDbLine
 10
-205.0
 20
-1699.239098484174
 30
0.0
 11
-63.00000000000004
 21
-1699.239098484174
 31
0.0
  0
INSERT
  5
15AA
330
1435
100
AcDbEntity
  8
SIZE
  6
Continuous
 62
     0
440
 16777216
370
    -2
100
AcDbBlockReference
  2
_ORIGIN
 10
-215.0
 20
-1699.239098484174
 30
0.0
 41
10.0
 42
10.0
 43
10.0
 50
180.0
  0
INSERT
  5
15AB
330
1435
100
AcDbEntity
  8
SIZE
  6
Continuous
 62
     0
440
 16777216
370
    -2
100
AcDbBlockReference
  2
_ORIGIN
 10
-53.00000000000004
 20
-1699.239098484174
 30
0.0
 41
10.0
 42
10.0
 43
10.0
  0
MTEXT
  5
15AC
330
1435
100
AcDbEntity
  8
SIZE
  6
Continuous
 62
     0
440
 16777216
100
AcDbMText
 10
-132.804330547553
 20
-1674.239098484174
 30
0.0
 40
30.0
 41
0.0
 46
0.0
 71
     5
 72
     1
  1
\A1;162
 73
     1
 44
1.0
  0
POINT
  5
15AD
330
1435
100
AcDbEntity
  8
DEFPOINTS
  6
Continuous
 62
     0
440
 16777216
100
AcDbPoint
 10
-215.0
 20
-1120.0
 30
0.0
  0
POINT
  5
15AE
330
1435
100
AcDbEntity
  8
DEFPOINTS
  6
Continuous
 62
     0
440
 16777216
100
AcDbPoint
 10
-53.0
 20
-1031.0
 30
0.0
  0
POINT
  5
15AF
330
1435
100
AcDbEntity
  8
DEFPOINTS
  6
Continuous
 62
     0
440
 16777216
100
AcDbPoint
 10
-53.00000000000004
 20
-1699.239098484174
 30
0.0
  0
ENDBLK
  5
1437
330
1435
100
AcDbEntity
  8
0
100
AcDbBlockEnd
  0
BLOCK
  5
1443
330
1442
100
AcDbEntity
  8
0
100
AcDbBlockBegin
  2
*D27
 70
     1
 10
0.0
 20
0.0
 30
0.0
  3
*D27
  1

  0
LINE
  5
149B
330
1442
100
AcDbEntity
  8
SIZE
  6
Continuous
 62
     0
440
 16777216
370
    -2
100
AcDbLine
 10
-215.0
 20
-1130.0
 30
0.0
 11
-215.0000000000001
 21
-1831.063141672217
 31
0.0
  0
LINE
  5
149C
330
1442
100
AcDbEntity
  8
SIZE
  6
Continuous
 62
     0
440
 16777216
370
    -2
100
AcDbLine
 10
-27.0
 20
-1104.0
 30
0.0
 11
-27.00000000000005
 21
-1831.063141672217
 31
0.0
  0
LINE
  5
149D
330
1442
100
AcDbEntity
  8
SIZE
  6
Continuous
 62
     0
440
 16777216
370
    -2
100
AcDbLine
 10
-205.0000000000001
 20
-1818.563141672217
 30
0.0
 11
-37.00000000000005
 21
-1818.563141672217
 31
0.0
  0
INSERT
  5
149E
330
1442
100
AcDbEntity
  8
SIZE
  6
Continuous
 62
     0
440
 16777216
370
    -2
100
AcDbBlockReference
  2
_ORIGIN
 10
-215.0000000000001
 20
-1818.563141672217
 30
0.0
 41
10.0
 42
10.0
 43
10.0
 50
180.0
  0
INSERT
  5
149F
330
1442
100
AcDbEntity
  8
SIZE
  6
Continuous
 62
     0
440
 16777216
370
    -2
100
AcDbBlockReference
  2
_ORIGIN
 10
-27.00000000000005
 20
-1818.563141672217
 30
0.0
 41
10.0
 42
10.0
 43
10.0
  0
MTEXT
  5
14A0
330
1442
100
AcDbEntity
  8
SIZE
  6
Continuous
 62
     0
440
 16777216
100
AcDbMText
 10
-121.0
 20
-1793.563141672217
 30
0.0
 40
30.0
 41
0.0
 46
0.0
 71
     5
 72
     1
  1
\A1;188
 73
     1
 44
1.0
  0
POINT
  5
14A1
330
1442
100
AcDbEntity
  8
DEFPOINTS
  6
Continuous
 62
     0
440
 16777216
100
AcDbPoint
 10
-215.0
 20
-1120.0
 30
0.0
  0
POINT
  5
14A2
330
1442
100
AcDbEntity
  8
DEFPOINTS
  6
Continuous
 62
     0
440
 16777216
100
AcDbPoint
 10
-27.0
 20
-1094.0
 30
0.0
  0
POINT
  5
14A3
330
1442
100
AcDbEntity
  8
DEFPOINTS
  6
Continuous
 62
     0
440
 16777216
100
AcDbPoint
 10
-27.00000000000005
 20
-1818.563141672217
 30
0.0
  0
ENDBLK
  5
1444
330
1442
100
AcDbEntity
  8
0
100
AcDbBlockEnd
  0
BLOCK
  5
1450
330
144F
100
AcDbEntity
  8
0
100
AcDbBlockBegin
  2
*D28
 70
     1
 10
0.0
 20
0.0
 30
0.0
  3
*D28
  1

  0
LINE
  5
14A4
330
144F
100
AcDbEntity
  8
SIZE
  6
Continuous
 62
     0
440
 16777216
370
    -2
100
AcDbLine
 10
-215.0
 20
-1130.0
 30
0.0
 11
-215.0000000000001
 21
-1931.063141672217
 31
0.0
  0
LINE
  5
14A5
330
144F
100
AcDbEntity
  8
SIZE
  6
Continuous
 62
     0
440
 16777216
370
    -2
100
AcDbLine
 10
34.0
 20
-1088.999962654774
 30
0.0
 11
33.99999999999995
 21
-1931.063141672217
 31
0.0
  0
LINE
  5
14A6
330
144F
100
AcDbEntity
  8
SIZE
  6
Continuous
 62
     0
440
 16777216
370
    -2
100
AcDbLine
 10
-205.0000000000001
 20
-1918.563141672217
 30
0.0
 11
23.99999999999995
 21
-1918.563141672217
 31
0.0
  0
INSERT
  5
14A7
330
144F
100
AcDbEntity
  8
SIZE
  6
Continuous
 62
     0
440
 16777216
370
    -2
100
AcDbBlockReference
  2
_ORIGIN
 10
-215.0000000000001
 20
-1918.563141672217
 30
0.0
 41
10.0
 42
10.0
 43
10.0
 50
180.0
  0
INSERT
  5
14A8
330
144F
100
AcDbEntity
  8
SIZE
  6
Continuous
 62
     0
440
 16777216
370
    -2
100
AcDbBlockReference
  2
_ORIGIN
 10
33.99999999999995
 20
-1918.563141672217
 30
0.0
 41
10.0
 42
10.0
 43
10.0
  0
MTEXT
  5
14A9
330
144F
100
AcDbEntity
  8
SIZE
  6
Continuous
 62
     0
440
 16777216
100
AcDbMText
 10
-90.50000000000006
 20
-1893.563141672217
 30
0.0
 40
30.0
 41
0.0
 46
0.0
 71
     5
 72
     1
  1
\A1;249
 73
     1
 44
1.0
  0
POINT
  5
14AA
330
144F
100
AcDbEntity
  8
DEFPOINTS
  6
Continuous
 62
     0
440
 16777216
100
AcDbPoint
 10
-215.0
 20
-1120.0
 30
0.0
  0
POINT
  5
14AB
330
144F
100
AcDbEntity
  8
DEFPOINTS
  6
Continuous
 62
     0
440
 16777216
100
AcDbPoint
 10
34.0
 20
-1078.999962654774
 30
0.0
  0
POINT
  5
14AC
330
144F
100
AcDbEntity
  8
DEFPOINTS
  6
Continuous
 62
     0
440
 16777216
100
AcDbPoint
 10
33.99999999999995
 20
-1918.563141672217
 30
0.0
  0
ENDBLK
  5
1451
330
144F
100
AcDbEntity
  8
0
100
AcDbBlockEnd
  0
BLOCK
  5
145D
330
145C
100
AcDbEntity
  8
0
100
AcDbBlockBegin
  2
*D29
 70
     1
 10
0.0
 20
0.0
 30
0.0
  3
*D29
  1

  0
LINE
  5
14AD
330
145C
100
AcDbEntity
  8
SIZE
  6
Continuous
 62
     0
440
 16777216
370
    -2
100
AcDbLine
 10
-215.0
 20
-1130.0
 30
0.0
 11
-215.0000000000001
 21
-2031.063141672217
 31
0.0
  0
LINE
  5
14AE
330
145C
100
AcDbEntity
  8
SIZE
  6
Continuous
 62
     0
440
 16777216
370
    -2
100
AcDbLine
 10
107.0000000000002
 20
-1100.0
 30
0.0
 11
107.0000000000001
 21
-2031.063141672217
 31
0.0
  0
LINE
  5
14AF
330
145C
100
AcDbEntity
  8
SIZE
  6
Continuous
 62
     0
440
 16777216
370
    -2
100
AcDbLine
 10
-205.0000000000001
 20
-2018.563141672217
 30
0.0
 11
97.00000000000017
 21
-2018.563141672217
 31
0.0
  0
INSERT
  5
14B0
330
145C
100
AcDbEntity
  8
SIZE
  6
Continuous
 62
     0
440
 16777216
370
    -2
100
AcDbBlockReference
  2
_ORIGIN
 10
-215.0000000000001
 20
-2018.563141672217
 30
0.0
 41
10.0
 42
10.0
 43
10.0
 50
180.0
  0
INSERT
  5
14B1
330
145C
100
AcDbEntity
  8
SIZE
  6
Continuous
 62
     0
440
 16777216
370
    -2
100
AcDbBlockReference
  2
_ORIGIN
 10
107.0000000000001
 20
-2018.563141672217
 30
0.0
 41
10.0
 42
10.0
 43
10.0
  0
MTEXT
  5
14B2
330
145C
100
AcDbEntity
  8
SIZE
  6
Continuous
 62
     0
440
 16777216
100
AcDbMText
 10
-53.99999999999995
 20
-1993.563141672217
 30
0.0
 40
30.0
 41
0.0
 46
0.0
 71
     5
 72
     1
  1
\A1;322
 73
     1
 44
1.0
  0
POINT
  5
14B3
330
145C
100
AcDbEntity
  8
DEFPOINTS
  6
Continuous
 62
     0
440
 16777216
100
AcDbPoint
 10
-215.0
 20
-1120.0
 30
0.0
  0
POINT
  5
14B4
330
145C
100
AcDbEntity
  8
DEFPOINTS
  6
Continuous
 62
     0
440
 16777216
100
AcDbPoint
 10
107.0000000000002
 20
-1090.0
 30
0.0
  0
POINT
  5
14B5
330
145C
100
AcDbEntity
  8
DEFPOINTS
  6
Continuous
 62
     0
440
 16777216
100
AcDbPoint
 10
107.0000000000001
 20
-2018.563141672217
 30
0.0
  0
ENDBLK
  5
145E
330
145C
100
AcDbEntity
  8
0
100
AcDbBlockEnd
  0
BLOCK
  5
146A
330
1469
100
AcDbEntity
  8
0
100
AcDbBlockBegin
  2
*D30
 70
     1
 10
0.0
 20
0.0
 30
0.0
  3
*D30
  1

  0
LINE
  5
14B6
330
1469
100
AcDbEntity
  8
SIZE
  6
Continuous
 62
     0
440
 16777216
370
    -2
100
AcDbLine
 10
-215.0
 20
-1130.0
 30
0.0
 11
-215.0000000000001
 21
-2131.063141672217
 31
0.0
  0
LINE
  5
14B7
330
1469
100
AcDbEntity
  8
SIZE
  6
Continuous
 62
     0
440
 16777216
370
    -2
100
AcDbLine
 10
167.0000000000002
 20
-1090.0
 30
0.0
 11
167.0000000000001
 21
-2131.063141672217
 31
0.0
  0
LINE
  5
14B8
330
1469
100
AcDbEntity
  8
SIZE
  6
Continuous
 62
     0
440
 16777216
370
    -2
100
AcDbLine
 10
-205.0000000000001
 20
-2118.563141672217
 30
0.0
 11
157.0000000000001
 21
-2118.563141672217
 31
0.0
  0
INSERT
  5
14B9
330
1469
100
AcDbEntity
  8
SIZE
  6
Continuous
 62
     0
440
 16777216
370
    -2
100
AcDbBlockReference
  2
_ORIGIN
 10
-215.0000000000001
 20
-2118.563141672217
 30
0.0
 41
10.0
 42
10.0
 43
10.0
 50
180.0
  0
INSERT
  5
14BA
330
1469
100
AcDbEntity
  8
SIZE
  6
Continuous
 62
     0
440
 16777216
370
    -2
100
AcDbBlockReference
  2
_ORIGIN
 10
167.0000000000001
 20
-2118.563141672217
 30
0.0
 41
10.0
 42
10.0
 43
10.0
  0
MTEXT
  5
14BB
330
1469
100
AcDbEntity
  8
SIZE
  6
Continuous
 62
     0
440
 16777216
100
AcDbMText
 10
-23.99999999999996
 20
-2093.563141672217
 30
0.0
 40
30.0
 41
0.0
 46
0.0
 71
     5
 72
     1
  1
\A1;382
 73
     1
 44
1.0
  0
POINT
  5
14BC
330
1469
100
AcDbEntity
  8
DEFPOINTS
  6
Continuous
 62
     0
440
 16777216
100
AcDbPoint
 10
-215.0
 20
-1120.0
 30
0.0
  0
POINT
  5
14BD
330
1469
100
AcDbEntity
  8
DEFPOINTS
  6
Continuous
 62
     0
440
 16777216
100
AcDbPoint
 10
167.0000000000002
 20
-1080.0
 30
0.0
  0
POINT
  5
14BE
330
1469
100
AcDbEntity
  8
DEFPOINTS
  6
Continuous
 62
     0
440
 16777216
100
AcDbPoint
 10
167.0000000000001
 20
-2118.563141672217
 30
0.0
  0
ENDBLK
  5
146B
330
1469
100
AcDbEntity
  8
0
100
AcDbBlockEnd
  0
BLOCK
  5
14D3
330
14D2
100
AcDbEntity
  8
0
100
AcDbBlockBegin
  2
*D31
 70
     1
 10
0.0
 20
0.0
 30
0.0
  3
*D31
  1

  0
LINE
  5
1505
330
14D2
100
AcDbEntity
  8
SIZE
  6
Continuous
 62
     0
440
 16777216
370
    -2
100
AcDbLine
 10
-215.0
 20
-1110.0
 30
0.0
 11
-215.0
 21
-563.3920790638439
 31
0.0
  0
LINE
  5
1506
330
14D2
100
AcDbEntity
  8
SIZE
  6
Continuous
 62
     0
440
 16777216
370
    -2
100
AcDbLine
 10
152.0000000000001
 20
-919.0
 30
0.0
 11
152.0000000000001
 21
-563.3920790638439
 31
0.0
  0
LINE
  5
1507
330
14D2
100
AcDbEntity
  8
SIZE
  6
Continuous
 62
     0
440
 16777216
370
    -2
100
AcDbLine
 10
-205.0
 20
-575.8920790638439
 30
0.0
 11
142.0000000000001
 21
-575.8920790638439
 31
0.0
  0
INSERT
  5
1508
330
14D2
100
AcDbEntity
  8
SIZE
  6
Continuous
 62
     0
440
 16777216
370
    -2
100
AcDbBlockReference
  2
_ORIGIN
 10
-215.0
 20
-575.8920790638439
 30
0.0
 41
10.0
 42
10.0
 43
10.0
 50
180.0
  0
INSERT
  5
1509
330
14D2
100
AcDbEntity
  8
SIZE
  6
Continuous
 62
     0
440
 16777216
370
    -2
100
AcDbBlockReference
  2
_ORIGIN
 10
152.0000000000001
 20
-575.8920790638439
 30
0.0
 41
10.0
 42
10.0
 43
10.0
  0
MTEXT
  5
150A
330
14D2
100
AcDbEntity
  8
SIZE
  6
Continuous
 62
     0
440
 16777216
100
AcDbMText
 10
-49.01975606554334
 20
-550.8920790638439
 30
0.0
 40
30.0
 41
0.0
 46
0.0
 71
     5
 72
     1
  1
\A1;367
 73
     1
 44
1.0
  0
POINT
  5
150B
330
14D2
100
AcDbEntity
  8
DEFPOINTS
  6
Continuous
 62
     0
440
 16777216
100
AcDbPoint
 10
-215.0
 20
-1120.0
 30
0.0
  0
POINT
  5
150C
330
14D2
100
AcDbEntity
  8
DEFPOINTS
  6
Continuous
 62
     0
440
 16777216
100
AcDbPoint
 10
152.0000000000001
 20
-929.0
 30
0.0
  0
POINT
  5
150D
330
14D2
100
AcDbEntity
  8
DEFPOINTS
  6
Continuous
 62
     0
440
 16777216
100
AcDbPoint
 10
152.0000000000001
 20
-575.8920790638439
 30
0.0
  0
ENDBLK
  5
14D4
330
14D2
100
AcDbEntity
  8
0
100
AcDbBlockEnd
  0
BLOCK
  5
14E0
330
14DF
100
AcDbEntity
  8
0
100
AcDbBlockBegin
  2
*D32
 70
     1
 10
0.0
 20
0.0
 30
0.0
  3
*D32
  1

  0
LINE
  5
1519
330
14DF
100
AcDbEntity
  8
SIZE
  6
Continuous
 62
     0
440
 16777216
370
    -2
100
AcDbLine
 10
-215.0
 20
-1110.0
 30
0.0
 11
-215.0
 21
-663.3920790638439
 31
0.0
  0
LINE
  5
151A
330
14DF
100
AcDbEntity
  8
SIZE
  6
Continuous
 62
     0
440
 16777216
370
    -2
100
AcDbLine
 10
-68.00000000000003
 20
-895.0
 30
0.0
 11
-68.00000000000001
 21
-663.3920790638439
 31
0.0
  0
LINE
  5
151B
330
14DF
100
AcDbEntity
  8
SIZE
  6
Continuous
 62
     0
440
 16777216
370
    -2
100
AcDbLine
 10
-205.0
 20
-675.8920790638439
 30
0.0
 11
-78.00000000000001
 21
-675.8920790638439
 31
0.0
  0
INSERT
  5
151C
330
14DF
100
AcDbEntity
  8
SIZE
  6
Continuous
 62
     0
440
 16777216
370
    -2
100
AcDbBlockReference
  2
_ORIGIN
 10
-215.0
 20
-675.8920790638439
 30
0.0
 41
10.0
 42
10.0
 43
10.0
 50
180.0
  0
INSERT
  5
151D
330
14DF
100
AcDbEntity
  8
SIZE
  6
Continuous
 62
     0
440
 16777216
370
    -2
100
AcDbBlockReference
  2
_ORIGIN
 10
-68.00000000000001
 20
-675.8920790638439
 30
0.0
 41
10.0
 42
10.0
 43
10.0
  0
MTEXT
  5
151E
330
14DF
100
AcDbEntity
  8
SIZE
  6
Continuous
 62
     0
440
 16777216
100
AcDbMText
 10
-141.5
 20
-650.8920790638439
 30
0.0
 40
30.0
 41
0.0
 46
0.0
 71
     5
 72
     1
  1
\A1;147
 73
     1
 44
1.0
  0
POINT
  5
151F
330
14DF
100
AcDbEntity
  8
DEFPOINTS
  6
Continuous
 62
     0
440
 16777216
100
AcDbPoint
 10
-215.0
 20
-1120.0
 30
0.0
  0
POINT
  5
1520
330
14DF
100
AcDbEntity
  8
DEFPOINTS
  6
Continuous
 62
     0
440
 16777216
100
AcDbPoint
 10
-68.00000000000003
 20
-905.0
 30
0.0
  0
POINT
  5
1521
330
14DF
100
AcDbEntity
  8
DEFPOINTS
  6
Continuous
 62
     0
440
 16777216
100
AcDbPoint
 10
-68.00000000000001
 20
-675.8920790638439
 30
0.0
  0
ENDBLK
  5
14E1
330
14DF
100
AcDbEntity
  8
0
100
AcDbBlockEnd
  0
BLOCK
  5
14ED
330
14EC
100
AcDbEntity
  8
0
100
AcDbBlockBegin
  2
*D33
 70
     1
 10
0.0
 20
0.0
 30
0.0
  3
*D33
  1

  0
LINE
  5
150E
330
14EC
100
AcDbEntity
  8
SIZE
  6
Continuous
 62
     0
440
 16777216
370
    -2
100
AcDbLine
 10
117.0000000000003
 20
-879.0
 30
0.0
 11
117.0000000000003
 21
-663.3920790638439
 31
0.0
  0
LINE
  5
150F
330
14EC
100
AcDbEntity
  8
SIZE
  6
Continuous
 62
     0
440
 16777216
370
    -2
100
AcDbLine
 10
151.9999999999501
 20
-880.6227661216819
 30
0.0
 11
151.9999999999501
 21
-663.3920790638439
 31
0.0
  0
LINE
  5
1510
330
14EC
100
AcDbEntity
  8
SIZE
  6
Continuous
 62
     0
440
 16777216
370
    -2
100
AcDbLine
 10
161.9999999999501
 20
-675.8920790638439
 30
0.0
 11
171.9999999999501
 21
-675.8920790638439
 31
0.0
  0
LINE
  5
1511
330
14EC
100
AcDbEntity
  8
SIZE
  6
Continuous
 62
     0
440
 16777216
370
    -2
100
AcDbLine
 10
107.0000000000003
 20
-675.8920790638439
 30
0.0
 11
27.00000000000031
 21
-675.8920790638439
 31
0.0
  0
LINE
  5
1512
330
14EC
100
AcDbEntity
  8
SIZE
  6
Continuous
 62
     0
440
 16777216
370
    -2
100
AcDbLine
 10
151.9999999999501
 20
-675.8920790638439
 30
0.0
 11
117.0000000000003
 21
-675.8920790638439
 31
0.0
  0
INSERT
  5
1513
330
14EC
100
AcDbEntity
  8
SIZE
  6
Continuous
 62
     0
440
 16777216
370
    -2
100
AcDbBlockReference
  2
_ORIGIN
 10
151.9999999999501
 20
-675.8920790638439
 30
0.0
 41
10.0
 42
10.0
 43
10.0
 50
180.0
  0
INSERT
  5
1514
330
14EC
100
AcDbEntity
  8
SIZE
  6
Continuous
 62
     0
440
 16777216
370
    -2
100
AcDbBlockReference
  2
_ORIGIN
 10
117.0000000000003
 20
-675.8920790638439
 30
0.0
 41
10.0
 42
10.0
 43
10.0
  0
MTEXT
  5
1515
330
14EC
100
AcDbEntity
  8
SIZE
  6
Continuous
 62
     0
440
 16777216
100
AcDbMText
 10
62.00000000000031
 20
-650.8920790638439
 30
0.0
 40
30.0
 41
0.0
 46
0.0
 71
     5
 72
     1
  1
\A1;35
 73
     1
 44
1.0
  0
POINT
  5
1516
330
14EC
100
AcDbEntity
  8
DEFPOINTS
  6
Continuous
 62
     0
440
 16777216
100
AcDbPoint
 10
117.0000000000003
 20
-889.0
 30
0.0
  0
POINT
  5
1517
330
14EC
100
AcDbEntity
  8
DEFPOINTS
  6
Continuous
 62
     0
440
 16777216
100
AcDbPoint
 10
151.9999999999501
 20
-890.6227661216819
 30
0.0
  0
POINT
  5
1518
330
14EC
100
AcDbEntity
  8
DEFPOINTS
  6
Continuous
 62
     0
440
 16777216
100
AcDbPoint
 10
151.9999999999501
 20
-675.8920790638439
 30
0.0
  0
ENDBLK
  5
14EE
330
14EC
100
AcDbEntity
  8
0
100
AcDbBlockEnd
  0
BLOCK
  5
153F
330
153E
100
AcDbEntity
  8
0
100
AcDbBlockBegin
  2
*D34
 70
     1
 10
0.0
 20
0.0
 30
0.0
  3
*D34
  1

  0
LINE
  5
1566
330
153E
100
AcDbEntity
  8
SIZE
  6
Continuous
 62
     0
440
 16777216
370
    -2
100
AcDbLine
 10
225.0000000000004
 20
-1120.0
 30
0.0
 11
803.3816294497523
 21
-1120.0
 31
0.0
  0
LINE
  5
1567
330
153E
100
AcDbEntity
  8
SIZE
  6
Continuous
 62
     0
440
 16777216
370
    -2
100
AcDbLine
 10
197.0000000000003
 20
-1060.0
 30
0.0
 11
803.3816294497523
 21
-1060.0
 31
0.0
  0
LINE
  5
1568
330
153E
100
AcDbEntity
  8
SIZE
  6
Continuous
 62
     0
440
 16777216
370
    -2
100
AcDbLine
 10
790.8816294497523
 20
-1110.0
 30
0.0
 11
790.8816294497523
 21
-1070.0
 31
0.0
  0
INSERT
  5
1569
330
153E
100
AcDbEntity
  8
SIZE
  6
Continuous
 62
     0
440
 16777216
370
    -2
100
AcDbBlockReference
  2
_ORIGIN
 10
790.8816294497523
 20
-1120.0
 30
0.0
 41
10.0
 42
10.0
 43
10.0
 50
270.0
  0
INSERT
  5
156A
330
153E
100
AcDbEntity
  8
SIZE
  6
Continuous
 62
     0
440
 16777216
370
    -2
100
AcDbBlockReference
  2
_ORIGIN
 10
790.8816294497523
 20
-1060.0
 30
0.0
 41
10.0
 42
10.0
 43
10.0
 50
90.0
  0
MTEXT
  5
156B
330
153E
100
AcDbEntity
  8
SIZE
  6
Continuous
 62
     0
440
 16777216
100
AcDbMText
 10
765.8816294497518
 20
-1090.0
 30
0.0
 40
30.0
 41
0.0
 46
0.0
 71
     5
 72
     1
  1
\A1;60
 11
0.0000000000000001
 21
1.0
 31
0.0
 73
     1
 44
1.0
  0
POINT
  5
156C
330
153E
100
AcDbEntity
  8
DEFPOINTS
  6
Continuous
 62
     0
440
 16777216
100
AcDbPoint
 10
215.0000000000004
 20
-1120.0
 30
0.0
  0
POINT
  5
156D
330
153E
100
AcDbEntity
  8
DEFPOINTS
  6
Continuous
 62
     0
440
 16777216
100
AcDbPoint
 10
187.0000000000002
 20
-1060.0
 30
0.0
  0
POINT
  5
156E
330
153E
100
AcDbEntity
  8
DEFPOINTS
  6
Continuous
 62
     0
440
 16777216
100
AcDbPoint
 10
790.8816294497523
 20
-1060.0
 30
0.0
  0
ENDBLK
  5
1540
330
153E
100
AcDbEntity
  8
0
100
AcDbBlockEnd
  0
ENDSEC
  0
SECTION
  2
ENTITIES
  0
ARC
  5
4F9
330
8F9
100
AcDbEntity
  8
OUTLINE
  6
Continuous
100
AcDbCircle
 10
-195.0
 20
-20.0
 30
0.0
 40
20.0
100
AcDbArc
 50
126.869897645844
 51
180.0
  0
LINE
  5
4FA
330
8F9
100
AcDbEntity
  8
OUTLINE
  6
Continuous
100
AcDbLine
 10
-83.0
 20
0.0
 30
0.0
 11
-195.0
 21
0.0
 31
0.0
  0
LINE
  5
4FB
330
8F9
100
AcDbEntity
  8
OUTLINE
  6
Continuous
100
AcDbLine
 10
-215.0
 20
-20.0
 30
0.0
 11
-215.0
 21
-1100.0
 31
0.0
  0
LINE
  5
4FC
330
8F9
100
AcDbEntity
  8
OUTLINE
  6
Continuous
100
AcDbLine
 10
195.0000000000001
 20
-1120.0
 30
0.0
 11
-195.0000000000001
 21
-1120.0
 31
0.0
  0
LINE
  5
4FD
330
8F9
100
AcDbEntity
  8
OUTLINE
  6
Continuous
100
AcDbLine
 10
215.0
 20
-20.0
 30
0.0
 11
215.0000000000003
 21
-1100.0
 31
0.0
  0
LINE
  5
4FE
330
8F9
100
AcDbEntity
  8
OUTLINE
  6
Continuous
100
AcDbLine
 10
195.0
 20
0.0
 30
0.0
 11
-83.0
 21
0.0
 31
0.0
  0
ARC
  5
4FF
330
8F9
100
AcDbEntity
  8
OUTLINE
  6
Continuous
100
AcDbCircle
 10
195.0
 20
-20.0
 30
0.0
 40
20.0
100
AcDbArc
 50
0.00000000000001
 51
90.0
  0
ARC
  5
500
330
8F9
100
AcDbEntity
  8
OUTLINE
  6
Continuous
100
AcDbCircle
 10
195.0000000000001
 20
-1100.0
 30
0.0
 40
20.0
100
AcDbArc
 50
270.0
 51
0.0
  0
ARC
  5
501
330
8F9
100
AcDbEntity
  8
OUTLINE
  6
Continuous
100
AcDbCircle
 10
-195.0
 20
-20.0
 30
0.0
 40
20.0
100
AcDbArc
 50
90.0
 51
126.869897645844
  0
ARC
  5
502
330
8F9
100
AcDbEntity
  8
OUTLINE
  6
Continuous
100
AcDbCircle
 10
-195.0
 20
-1100.0
 30
0.0
 40
20.0
100
AcDbArc
 50
180.0
 51
270.0
  0
ARC
  5
503
330
8F9
100
AcDbEntity
  8
OUTLINE
  6
Continuous
100
AcDbCircle
 10
-126.0606797749979
 20
-16.0
 30
0.0
 40
9.999999999999973
100
AcDbArc
 50
63.43494882292286
 51
90.0
  0
LINE
  5
504
330
8F9
100
AcDbEntity
  8
OUTLINE
  6
Continuous
100
AcDbLine
 10
-108.5
 20
-12.0
 30
0.0
 11
-111.7
 21
-12.0
 31
0.0
  0
LINE
  5
505
330
8F9
100
AcDbEntity
  8
OUTLINE
  6
Continuous
100
AcDbLine
 10
-121.5885438199984
 20
-7.055728090000796
 30
0.0
 11
-111.7
 21
-12.0
 31
0.0
  0
LINE
  5
506
330
8F9
100
AcDbEntity
  8
OUTLINE
  6
Continuous
100
AcDbLine
 10
-108.5
 20
-12.0
 30
0.0
 11
-108.5
 21
-145.9999999999998
 31
0.0
  0
ARC
  5
507
330
8F9
100
AcDbEntity
  8
OUTLINE
  6
Continuous
100
AcDbCircle
 10
-163.9393202250021
 20
-16.0
 30
0.0
 40
10.0
100
AcDbArc
 50
90.0
 51
116.5650511770783
  0
LINE
  5
508
330
8F9
100
AcDbEntity
  8
OUTLINE
  6
Continuous
100
AcDbLine
 10
-163.9393202250021
 20
-6.0
 30
0.0
 11
-126.0606797749979
 21
-6.0
 31
0.0
  0
LINE
  5
509
330
8F9
100
AcDbEntity
  8
OUTLINE
  6
Continuous
100
AcDbLine
 10
-181.5
 20
-12.0
 30
0.0
 11
-178.3000000000002
 21
-12.0
 31
0.0
  0
LINE
  5
50A
330
8F9
100
AcDbEntity
  8
OUTLINE
  6
Continuous
100
AcDbLine
 10
-168.4114561800018
 20
-7.055728090000796
 30
0.0
 11
-178.3000000000002
 21
-12.0
 31
0.0
  0
LINE
  5
50B
330
8F9
100
AcDbEntity
  8
OUTLINE
  6
Continuous
100
AcDbLine
 10
-181.5
 20
-12.0
 30
0.0
 11
-181.5
 21
-146.0
 31
0.0
  0
LINE
  5
50C
330
8F9
100
AcDbEntity
  8
OUTLINE
  6
Continuous
100
AcDbLine
 10
-181.5
 20
-146.0
 30
0.0
 11
-108.5
 21
-145.9999999999998
 31
0.0
  0
LINE
  5
50D
330
8F9
100
AcDbEntity
  8
OUTLINE
  6
Continuous
100
AcDbLine
 10
-108.5
 20
-743.0
 30
0.0
 11
-111.6999999999999
 21
-743.0
 31
0.0
  0
LINE
  5
50E
330
8F9
100
AcDbEntity
  8
OUTLINE
  6
Continuous
100
AcDbLine
 10
-108.5
 20
-743.0
 30
0.0
 11
-108.5
 21
-877.0
 31
0.0
  0
ARC
  5
50F
330
8F9
100
AcDbEntity
  8
OUTLINE
  6
Continuous
100
AcDbCircle
 10
-126.060679774998
 20
-747.0
 30
0.0
 40
10.00000000000007
100
AcDbArc
 50
63.43494882292173
 51
90.0
  0
LINE
  5
510
330
8F9
100
AcDbEntity
  8
OUTLINE
  6
Continuous
100
AcDbLine
 10
-121.5885438199983
 20
-738.0557280900003
 30
0.0
 11
-111.6999999999999
 21
-743.0
 31
0.0
  0
LINE
  5
511
330
8F9
100
AcDbEntity
  8
OUTLINE
  6
Continuous
100
AcDbLine
 10
-126.060679774998
 20
-737.0
 30
0.0
 11
-163.9393202250021
 21
-737.0
 31
0.0
  0
LINE
  5
512
330
8F9
100
AcDbEntity
  8
OUTLINE
  6
Continuous
100
AcDbLine
 10
-181.5
 20
-743.0
 30
0.0
 11
-181.5
 21
-877.0
 31
0.0
  0
LINE
  5
513
330
8F9
100
AcDbEntity
  8
OUTLINE
  6
Continuous
100
AcDbLine
 10
-168.4114561800018
 20
-738.0557280900003
 30
0.0
 11
-178.3000000000002
 21
-743.0
 31
0.0
  0
ARC
  5
514
330
8F9
100
AcDbEntity
  8
OUTLINE
  6
Continuous
100
AcDbCircle
 10
-163.9393202250021
 20
-747.0
 30
0.0
 40
10.0
100
AcDbArc
 50
90.0
 51
116.5650511770783
  0
LINE
  5
515
330
8F9
100
AcDbEntity
  8
OUTLINE
  6
Continuous
100
AcDbLine
 10
-181.5
 20
-743.0
 30
0.0
 11
-178.3000000000002
 21
-743.0
 31
0.0
  0
LINE
  5
516
330
8F9
100
AcDbEntity
  8
OUTLINE
  6
Continuous
100
AcDbLine
 10
-108.5
 20
-877.0
 30
0.0
 11
-181.5
 21
-877.0
 31
0.0
  0
LINE
  5
517
330
8F9
100
AcDbEntity
  8
OUTLINE
  6
Continuous
100
AcDbLine
 10
108.5
 20
-743.0
 30
0.0
 11
111.7
 21
-743.0
 31
0.0
  0
LINE
  5
518
330
8F9
100
AcDbEntity
  8
OUTLINE
  6
Continuous
100
AcDbLine
 10
108.5
 20
-743.0
 30
0.0
 11
108.5000000000001
 21
-877.0
 31
0.0
  0
ARC
  5
519
330
8F9
100
AcDbEntity
  8
OUTLINE
  6
Continuous
100
AcDbCircle
 10
126.0606797749981
 20
-747.0
 30
0.0
 40
10.0
100
AcDbArc
 50
90.0
 51
116.5650511770783
  0
LINE
  5
51A
330
8F9
100
AcDbEntity
  8
OUTLINE
  6
Continuous
100
AcDbLine
 10
121.5885438199984
 20
-738.0557280900003
 30
0.0
 11
111.7
 21
-743.0
 31
0.0
  0
LINE
  5
51B
330
8F9
100
AcDbEntity
  8
OUTLINE
  6
Continuous
100
AcDbLine
 10
126.0606797749981
 20
-737.0
 30
0.0
 11
163.9393202250022
 21
-737.0
 31
0.0
  0
LINE
  5
51C
330
8F9
100
AcDbEntity
  8
OUTLINE
  6
Continuous
100
AcDbLine
 10
181.5000000000001
 20
-743.0
 30
0.0
 11
181.5000000000001
 21
-877.0
 31
0.0
  0
LINE
  5
51D
330
8F9
100
AcDbEntity
  8
OUTLINE
  6
Continuous
100
AcDbLine
 10
168.4114561800018
 20
-738.0557280900003
 30
0.0
 11
178.3000000000003
 21
-743.0
 31
0.0
  0
ARC
  5
51E
330
8F9
100
AcDbEntity
  8
OUTLINE
  6
Continuous
100
AcDbCircle
 10
163.9393202250022
 20
-747.0
 30
0.0
 40
10.00000000000007
100
AcDbArc
 50
63.43494882292173
 51
90.0
  0
LINE
  5
51F
330
8F9
100
AcDbEntity
  8
OUTLINE
  6
Continuous
100
AcDbLine
 10
181.5000000000001
 20
-743.0
 30
0.0
 11
178.3000000000003
 21
-743.0
 31
0.0
  0
LINE
  5
520
330
8F9
100
AcDbEntity
  8
OUTLINE
  6
Continuous
100
AcDbLine
 10
108.5000000000001
 20
-877.0
 30
0.0
 11
181.5000000000001
 21
-877.0
 31
0.0
  0
ARC
  5
521
330
8F9
100
AcDbEntity
  8
OUTLINE
  6
Continuous
100
AcDbCircle
 10
126.0606797749979
 20
-15.99999999999998
 30
0.0
 40
10.0
100
AcDbArc
 50
90.0
 51
116.565051177077
  0
LINE
  5
522
330
8F9
100
AcDbEntity
  8
OUTLINE
  6
Continuous
100
AcDbLine
 10
108.5
 20
-11.99999999999999
 30
0.0
 11
111.7
 21
-11.99999999999998
 31
0.0
  0
LINE
  5
523
330
8F9
100
AcDbEntity
  8
OUTLINE
  6
Continuous
100
AcDbLine
 10
121.5885438199984
 20
-7.055728090000782
 30
0.0
 11
111.7
 21
-11.99999999999998
 31
0.0
  0
LINE
  5
524
330
8F9
100
AcDbEntity
  8
OUTLINE
  6
Continuous
100
AcDbLine
 10
108.5
 20
-11.99999999999999
 30
0.0
 11
108.5
 21
-145.9999999999998
 31
0.0
  0
ARC
  5
525
330
8F9
100
AcDbEntity
  8
OUTLINE
  6
Continuous
100
AcDbCircle
 10
163.9393202250021
 20
-15.99999999999998
 30
0.0
 40
10.00000000000007
100
AcDbArc
 50
63.43494882292173
 51
90.0
  0
LINE
  5
526
330
8F9
100
AcDbEntity
  8
OUTLINE
  6
Continuous
100
AcDbLine
 10
163.9393202250021
 20
-5.999999999999976
 30
0.0
 11
126.0606797749979
 21
-5.999999999999982
 31
0.0
  0
LINE
  5
527
330
8F9
100
AcDbEntity
  8
OUTLINE
  6
Continuous
100
AcDbLine
 10
181.5
 20
-11.99999999999997
 30
0.0
 11
178.3000000000002
 21
-11.99999999999998
 31
0.0
  0
LINE
  5
528
330
8F9
100
AcDbEntity
  8
OUTLINE
  6
Continuous
100
AcDbLine
 10
168.4114561800018
 20
-7.055728090000775
 30
0.0
 11
178.3000000000002
 21
-11.99999999999998
 31
0.0
  0
LINE
  5
529
330
8F9
100
AcDbEntity
  8
OUTLINE
  6
Continuous
100
AcDbLine
 10
181.5
 20
-11.99999999999997
 30
0.0
 11
181.5
 21
-145.9999999999998
 31
0.0
  0
LINE
  5
52A
330
8F9
100
AcDbEntity
  8
OUTLINE
  6
Continuous
100
AcDbLine
 10
181.5
 20
-145.9999999999998
 30
0.0
 11
108.5
 21
-145.9999999999998
 31
0.0
  0
LINE
  5
52B
330
8F9
100
AcDbEntity
  8
OUTLINE
  6
Continuous
100
AcDbLine
 10
215.0000000000002
 20
-968.0
 30
0.0
 11
-215.0
 21
-968.0
 31
0.0
  0
LINE
  5
52C
330
8F9
100
AcDbEntity
  8
OUTLINE
  6
Continuous
100
AcDbLine
 10
33.30000000000005
 20
-395.5
 30
0.0
 11
33.30000000000005
 21
-495.5
 31
0.0
  0
LINE
  5
52D
330
8F9
100
AcDbEntity
  8
OUTLINE
  6
Continuous
100
AcDbLine
 10
-33.29999999999995
 20
-395.5
 30
0.0
 11
-33.29999999999993
 21
-495.5
 31
0.0
  0
LINE
  5
52E
330
8F9
100
AcDbEntity
  8
OUTLINE
  6
Continuous
100
AcDbLine
 10
33.30000000000005
 20
-395.5
 30
0.0
 11
-33.29999999999995
 21
-395.5
 31
0.0
  0
LINE
  5
52F
330
8F9
100
AcDbEntity
  8
OUTLINE
  6
Continuous
100
AcDbLine
 10
33.30000000000005
 20
-495.5
 30
0.0
 11
-33.29999999999993
 21
-495.5
 31
0.0
  0
LINE
  5
538
330
8F9
100
AcDbEntity
  8
DETAIL
  6
Continuous
100
AcDbLine
 10
137.99999999995
 20
-853.2499999999997
 30
0.0
 11
137.99999999995
 21
-860.7499999999996
 31
0.0
  0
ARC
  5
539
330
8F9
100
AcDbEntity
  8
DETAIL
  6
Continuous
100
AcDbCircle
 10
144.99999999995
 20
-853.2499999999997
 30
0.0
 40
7.000000000000056
100
AcDbArc
 50
0.0
 51
180.0
  0
LINE
  5
53A
330
8F9
100
AcDbEntity
  8
DETAIL
  6
Continuous
100
AcDbLine
 10
151.99999999995
 20
-860.7499999999996
 30
0.0
 11
151.99999999995
 21
-853.2499999999997
 31
0.0
  0
ARC
  5
53B
330
8F9
100
AcDbEntity
  8
DETAIL
  6
Continuous
100
AcDbCircle
 10
144.99999999995
 20
-860.7499999999996
 30
0.0
 40
7.0
100
AcDbArc
 50
180.0
 51
0.0
  0
ARC
  5
53C
330
8F9
100
AcDbEntity
  8
DETAIL
  6
Continuous
100
AcDbCircle
 10
165.46678161055
 20
-872.7499999999997
 30
0.0
 40
2.0
100
AcDbArc
 50
270.0
 51
294.4439547804
  0
ARC
  5
53D
330
8F9
100
AcDbEntity
  8
DETAIL
  6
Continuous
100
AcDbCircle
 10
174.8999999999501
 20
-868.4621734592999
 30
0.0
 40
2.000000000000015
100
AcDbArc
 50
294.4439547804
 51
0.0
  0
LINE
  5
53E
330
8F9
100
AcDbEntity
  8
DETAIL
  6
Continuous
100
AcDbLine
 10
175.72760588855
 20
-870.2829064141997
 30
0.0
 11
166.29438749915
 21
-874.5707329548993
 31
0.0
  0
LINE
  5
53F
330
8F9
100
AcDbEntity
  8
DETAIL
  6
Continuous
100
AcDbLine
 10
176.8999999999501
 20
-868.4621734592999
 30
0.0
 11
176.8999999999501
 21
-846.7499999999997
 31
0.0
  0
ARC
  5
540
330
8F9
100
AcDbEntity
  8
DETAIL
  6
Continuous
100
AcDbCircle
 10
174.8999999999501
 20
-846.7499999999997
 30
0.0
 40
2.0
100
AcDbArc
 50
0.0
 51
90.0
  0
ARC
  5
541
330
8F9
100
AcDbEntity
  8
DETAIL
  6
Continuous
100
AcDbCircle
 10
166.19999999995
 20
-842.7499999999994
 30
0.0
 40
2.0
100
AcDbArc
 50
180.0
 51
270.0
  0
LINE
  5
542
330
8F9
100
AcDbEntity
  8
DETAIL
  6
Continuous
100
AcDbLine
 10
164.19999999995
 20
-836.5499999999999
 30
0.0
 11
164.19999999995
 21
-842.7499999999994
 31
0.0
  0
LINE
  5
543
330
8F9
100
AcDbEntity
  8
DETAIL
  6
Continuous
100
AcDbLine
 10
174.8999999999501
 20
-844.7499999999996
 30
0.0
 11
166.19999999995
 21
-844.7499999999996
 31
0.0
  0
ARC
  5
544
330
8F9
100
AcDbEntity
  8
DETAIL
  6
Continuous
100
AcDbCircle
 10
115.09999999995
 20
-868.4621734592999
 30
0.0
 40
2.0
100
AcDbArc
 50
180.0
 51
245.5560452195999
  0
ARC
  5
545
330
8F9
100
AcDbEntity
  8
DETAIL
  6
Continuous
100
AcDbCircle
 10
124.53321838945
 20
-872.7499999999997
 30
0.0
 40
1.999999999999968
100
AcDbArc
 50
245.5560452196028
 51
270.0
  0
LINE
  5
546
330
8F9
100
AcDbEntity
  8
DETAIL
  6
Continuous
100
AcDbLine
 10
114.2723941113499
 20
-870.2829064141997
 30
0.0
 11
123.7056125008501
 21
-874.5707329548993
 31
0.0
  0
LINE
  5
547
330
8F9
100
AcDbEntity
  8
DETAIL
  6
Continuous
100
AcDbLine
 10
113.09999999995
 20
-846.7499999999997
 30
0.0
 11
113.09999999995
 21
-868.4621734592999
 31
0.0
  0
LINE
  5
548
330
8F9
100
AcDbEntity
  8
DETAIL
  6
Continuous
100
AcDbLine
 10
125.79999999995
 20
-836.5499999999999
 30
0.0
 11
164.19999999995
 21
-836.5499999999999
 31
0.0
  0
LINE
  5
549
330
8F9
100
AcDbEntity
  8
DETAIL
  6
Continuous
100
AcDbLine
 10
125.79999999995
 20
-839.7499999999997
 30
0.0
 11
164.19999999995
 21
-839.7499999999997
 31
0.0
  0
ARC
  5
54A
330
8F9
100
AcDbEntity
  8
DETAIL
  6
Continuous
100
AcDbCircle
 10
115.09999999995
 20
-846.7499999999997
 30
0.0
 40
2.0
100
AcDbArc
 50
90.0
 51
180.0
  0
ARC
  5
54B
330
8F9
100
AcDbEntity
  8
DETAIL
  6
Continuous
100
AcDbCircle
 10
123.79999999995
 20
-842.7499999999994
 30
0.0
 40
2.0
100
AcDbArc
 50
270.0
 51
0.0
  0
LINE
  5
54C
330
8F9
100
AcDbEntity
  8
DETAIL
  6
Continuous
100
AcDbLine
 10
115.09999999995
 20
-844.7499999999996
 30
0.0
 11
123.79999999995
 21
-844.7499999999996
 31
0.0
  0
LINE
  5
54D
330
8F9
100
AcDbEntity
  8
DETAIL
  6
Continuous
100
AcDbLine
 10
125.79999999995
 20
-842.7499999999994
 30
0.0
 11
125.79999999995
 21
-836.5499999999999
 31
0.0
  0
LINE
  5
54E
330
8F9
100
AcDbEntity
  8
DETAIL
  6
Continuous
100
AcDbLine
 10
124.53321838945
 20
-874.7499999999995
 30
0.0
 11
165.46678161055
 21
-874.7499999999995
 31
0.0
  0
ARC
  5
54F
330
8F9
100
AcDbEntity
  8
DETAIL
  6
Continuous
100
AcDbCircle
 10
-145.00000000005
 20
-860.7499999999996
 30
0.0
 40
7.0
100
AcDbArc
 50
180.0
 51
0.0
  0
LINE
  5
550
330
8F9
100
AcDbEntity
  8
DETAIL
  6
Continuous
100
AcDbLine
 10
-138.0000000000499
 20
-860.7499999999996
 30
0.0
 11
-138.0000000000499
 21
-853.2499999999997
 31
0.0
  0
ARC
  5
551
330
8F9
100
AcDbEntity
  8
DETAIL
  6
Continuous
100
AcDbCircle
 10
-145.00000000005
 20
-853.2499999999997
 30
0.0
 40
7.000000000000056
100
AcDbArc
 50
0.0
 51
180.0
  0
LINE
  5
552
330
8F9
100
AcDbEntity
  8
DETAIL
  6
Continuous
100
AcDbLine
 10
-152.00000000005
 20
-853.2499999999997
 30
0.0
 11
-152.00000000005
 21
-860.7499999999996
 31
0.0
  0
ARC
  5
553
330
8F9
100
AcDbEntity
  8
DETAIL
  6
Continuous
100
AcDbCircle
 10
-174.9000000000498
 20
-868.4621734592999
 30
0.0
 40
2.0
100
AcDbArc
 50
180.0
 51
245.5560452195999
  0
ARC
  5
554
330
8F9
100
AcDbEntity
  8
DETAIL
  6
Continuous
100
AcDbCircle
 10
-165.46678161055
 20
-872.7499999999997
 30
0.0
 40
1.999999999999968
100
AcDbArc
 50
245.5560452196028
 51
270.0
  0
LINE
  5
555
330
8F9
100
AcDbEntity
  8
DETAIL
  6
Continuous
100
AcDbLine
 10
-175.72760588865
 20
-870.2829064141997
 30
0.0
 11
-166.2943874991499
 21
-874.5707329548993
 31
0.0
  0
LINE
  5
556
330
8F9
100
AcDbEntity
  8
DETAIL
  6
Continuous
100
AcDbLine
 10
-165.46678161055
 20
-874.7499999999995
 30
0.0
 11
-124.53321838945
 21
-874.7499999999995
 31
0.0
  0
ARC
  5
557
330
8F9
100
AcDbEntity
  8
DETAIL
  6
Continuous
100
AcDbCircle
 10
-124.53321838945
 20
-872.7499999999997
 30
0.0
 40
2.0
100
AcDbArc
 50
270.0
 51
294.4439547804
  0
ARC
  5
558
330
8F9
100
AcDbEntity
  8
DETAIL
  6
Continuous
100
AcDbCircle
 10
-115.1000000000499
 20
-868.4621734592999
 30
0.0
 40
2.000000000000015
100
AcDbArc
 50
294.4439547804
 51
0.0
  0
LINE
  5
559
330
8F9
100
AcDbEntity
  8
DETAIL
  6
Continuous
100
AcDbLine
 10
-114.27239411145
 20
-870.2829064141997
 30
0.0
 11
-123.7056125008499
 21
-874.5707329548993
 31
0.0
  0
LINE
  5
55A
330
8F9
100
AcDbEntity
  8
DETAIL
  6
Continuous
100
AcDbLine
 10
-113.1000000000499
 20
-868.4621734592999
 30
0.0
 11
-113.1000000000499
 21
-846.7499999999997
 31
0.0
  0
ARC
  5
55B
330
8F9
100
AcDbEntity
  8
DETAIL
  6
Continuous
100
AcDbCircle
 10
-115.1000000000499
 20
-846.7499999999997
 30
0.0
 40
2.0
100
AcDbArc
 50
0.0
 51
90.0
  0
ARC
  5
55C
330
8F9
100
AcDbEntity
  8
DETAIL
  6
Continuous
100
AcDbCircle
 10
-123.80000000005
 20
-842.7499999999994
 30
0.0
 40
2.0
100
AcDbArc
 50
180.0
 51
270.0
  0
LINE
  5
55D
330
8F9
100
AcDbEntity
  8
DETAIL
  6
Continuous
100
AcDbLine
 10
-125.80000000005
 20
-836.5499999999999
 30
0.0
 11
-125.80000000005
 21
-842.7499999999994
 31
0.0
  0
LINE
  5
55E
330
8F9
100
AcDbEntity
  8
DETAIL
  6
Continuous
100
AcDbLine
 10
-115.1000000000499
 20
-844.7499999999996
 30
0.0
 11
-123.80000000005
 21
-844.7499999999996
 31
0.0
  0
LINE
  5
55F
330
8F9
100
AcDbEntity
  8
DETAIL
  6
Continuous
100
AcDbLine
 10
-176.9000000000499
 20
-846.7499999999997
 30
0.0
 11
-176.9000000000499
 21
-868.4621734592999
 31
0.0
  0
LINE
  5
560
330
8F9
100
AcDbEntity
  8
DETAIL
  6
Continuous
100
AcDbLine
 10
-164.20000000005
 20
-836.5499999999999
 30
0.0
 11
-125.80000000005
 21
-836.5499999999999
 31
0.0
  0
LINE
  5
561
330
8F9
100
AcDbEntity
  8
DETAIL
  6
Continuous
100
AcDbLine
 10
-164.20000000005
 20
-839.7499999999997
 30
0.0
 11
-125.80000000005
 21
-839.7499999999997
 31
0.0
  0
ARC
  5
562
330
8F9
100
AcDbEntity
  8
DETAIL
  6
Continuous
100
AcDbCircle
 10
-174.9000000000498
 20
-846.7499999999997
 30
0.0
 40
2.0
100
AcDbArc
 50
90.0
 51
180.0
  0
ARC
  5
563
330
8F9
100
AcDbEntity
  8
DETAIL
  6
Continuous
100
AcDbCircle
 10
-166.20000000005
 20
-842.7499999999994
 30
0.0
 40
2.0
100
AcDbArc
 50
270.0
 51
0.0
  0
LINE
  5
564
330
8F9
100
AcDbEntity
  8
DETAIL
  6
Continuous
100
AcDbLine
 10
-174.9000000000498
 20
-844.7499999999996
 30
0.0
 11
-166.20000000005
 21
-844.7499999999996
 31
0.0
  0
LINE
  5
565
330
8F9
100
AcDbEntity
  8
DETAIL
  6
Continuous
100
AcDbLine
 10
-164.20000000005
 20
-842.7499999999994
 30
0.0
 11
-164.20000000005
 21
-836.5499999999999
 31
0.0
  0
ARC
  5
566
330
8F9
100
AcDbEntity
  8
DETAIL
  6
Continuous
100
AcDbCircle
 10
145.0
 20
-21.99999999999986
 30
0.0
 40
7.0
100
AcDbArc
 50
0.0
 51
180.0
  0
LINE
  5
567
330
8F9
100
AcDbEntity
  8
DETAIL
  6
Continuous
100
AcDbLine
 10
152.0
 20
-29.49999999999986
 30
0.0
 11
152.0
 21
-21.99999999999986
 31
0.0
  0
LINE
  5
568
330
8F9
100
AcDbEntity
  8
DETAIL
  6
Continuous
100
AcDbLine
 10
137.9999999999998
 20
-21.99999999999986
 30
0.0
 11
138.0
 21
-29.49999999999986
 31
0.0
  0
ARC
  5
569
330
8F9
100
AcDbEntity
  8
DETAIL
  6
Continuous
100
AcDbCircle
 10
145.0
 20
-29.49999999999986
 30
0.0
 40
7.000000000000056
100
AcDbArc
 50
180.0
 51
0.0
  0
LINE
  5
56A
330
8F9
100
AcDbEntity
  8
DETAIL
  6
Continuous
100
AcDbLine
 10
115.0999999999998
 20
-37.99999999999985
 30
0.0
 11
123.7999999999999
 21
-37.99999999999985
 31
0.0
  0
ARC
  5
56B
330
8F9
100
AcDbEntity
  8
DETAIL
  6
Continuous
100
AcDbCircle
 10
115.0999999999998
 20
-35.99999999999985
 30
0.0
 40
2.0
100
AcDbArc
 50
180.0
 51
270.0
  0
ARC
  5
56C
330
8F9
100
AcDbEntity
  8
DETAIL
  6
Continuous
100
AcDbCircle
 10
123.7999999999999
 20
-39.99999999999985
 30
0.0
 40
2.0
100
AcDbArc
 50
0.0
 51
90.0
  0
ARC
  5
56D
330
8F9
100
AcDbEntity
  8
DETAIL
  6
Continuous
100
AcDbCircle
 10
115.0999999999998
 20
-14.28782654069985
 30
0.0
 40
2.000000000000015
100
AcDbArc
 50
114.4439547804001
 51
180.0
  0
LINE
  5
56E
330
8F9
100
AcDbEntity
  8
DETAIL
  6
Continuous
100
AcDbLine
 10
113.0999999999998
 20
-14.28782654069985
 30
0.0
 11
113.0999999999998
 21
-35.99999999999985
 31
0.0
  0
LINE
  5
56F
330
8F9
100
AcDbEntity
  8
DETAIL
  6
Continuous
100
AcDbLine
 10
114.2723941114
 20
-12.46709358579986
 30
0.0
 11
123.7056125007999
 21
-8.179267045099862
 31
0.0
  0
ARC
  5
570
330
8F9
100
AcDbEntity
  8
DETAIL
  6
Continuous
100
AcDbCircle
 10
124.5332183893999
 20
-9.999999999999856
 30
0.0
 40
2.0
100
AcDbArc
 50
90.0
 51
114.4439547804001
  0
ARC
  5
571
330
8F9
100
AcDbEntity
  8
DETAIL
  6
Continuous
100
AcDbCircle
 10
165.4667816105
 20
-9.999999999999856
 30
0.0
 40
1.999999999999968
100
AcDbArc
 50
65.55604521960288
 51
90.0
  0
LINE
  5
572
330
8F9
100
AcDbEntity
  8
DETAIL
  6
Continuous
100
AcDbLine
 10
165.4667816105
 20
-7.999999999999857
 30
0.0
 11
124.5332183893999
 21
-7.999999999999857
 31
0.0
  0
LINE
  5
573
330
8F9
100
AcDbEntity
  8
DETAIL
  6
Continuous
100
AcDbLine
 10
175.7276058886
 20
-12.46709358579986
 30
0.0
 11
166.2943874990999
 21
-8.179267045099862
 31
0.0
  0
ARC
  5
574
330
8F9
100
AcDbEntity
  8
DETAIL
  6
Continuous
100
AcDbCircle
 10
174.9
 20
-14.28782654069985
 30
0.0
 40
2.0
100
AcDbArc
 50
0.0
 51
65.55604521959991
  0
ARC
  5
575
330
8F9
100
AcDbEntity
  8
DETAIL
  6
Continuous
100
AcDbCircle
 10
174.9
 20
-35.99999999999985
 30
0.0
 40
2.0
100
AcDbArc
 50
270.0
 51
0.0
  0
LINE
  5
576
330
8F9
100
AcDbEntity
  8
DETAIL
  6
Continuous
100
AcDbLine
 10
176.9
 20
-35.99999999999985
 30
0.0
 11
176.9
 21
-14.28782654069985
 31
0.0
  0
LINE
  5
577
330
8F9
100
AcDbEntity
  8
DETAIL
  6
Continuous
100
AcDbLine
 10
174.9
 20
-37.99999999999985
 30
0.0
 11
166.2
 21
-37.99999999999985
 31
0.0
  0
ARC
  5
578
330
8F9
100
AcDbEntity
  8
DETAIL
  6
Continuous
100
AcDbCircle
 10
166.2
 20
-39.99999999999985
 30
0.0
 40
2.0
100
AcDbArc
 50
90.0
 51
180.0
  0
LINE
  5
579
330
8F9
100
AcDbEntity
  8
DETAIL
  6
Continuous
100
AcDbLine
 10
164.2
 20
-39.99999999999985
 30
0.0
 11
164.2
 21
-46.19999999999985
 31
0.0
  0
LINE
  5
57A
330
8F9
100
AcDbEntity
  8
DETAIL
  6
Continuous
100
AcDbLine
 10
164.2
 20
-42.99999999999985
 30
0.0
 11
125.8
 21
-42.99999999999985
 31
0.0
  0
LINE
  5
57B
330
8F9
100
AcDbEntity
  8
DETAIL
  6
Continuous
100
AcDbLine
 10
125.8
 20
-46.19999999999985
 30
0.0
 11
125.8
 21
-39.99999999999985
 31
0.0
  0
LINE
  5
57C
330
8F9
100
AcDbEntity
  8
DETAIL
  6
Continuous
100
AcDbLine
 10
164.2
 20
-46.19999999999985
 30
0.0
 11
125.8
 21
-46.19999999999985
 31
0.0
  0
ARC
  5
57D
330
8F9
100
AcDbEntity
  8
DETAIL
  6
Continuous
100
AcDbCircle
 10
-144.9999999999998
 20
-29.49999999999986
 30
0.0
 40
7.000000000000056
100
AcDbArc
 50
180.0
 51
0.0
  0
LINE
  5
57E
330
8F9
100
AcDbEntity
  8
DETAIL
  6
Continuous
100
AcDbLine
 10
-152.0
 20
-21.99999999999986
 30
0.0
 11
-152.0
 21
-29.49999999999986
 31
0.0
  0
ARC
  5
57F
330
8F9
100
AcDbEntity
  8
DETAIL
  6
Continuous
100
AcDbCircle
 10
-145.0
 20
-21.99999999999986
 30
0.0
 40
7.0
100
AcDbArc
 50
0.0
 51
180.0
  0
LINE
  5
580
330
8F9
100
AcDbEntity
  8
DETAIL
  6
Continuous
100
AcDbLine
 10
-137.9999999999998
 20
-29.49999999999986
 30
0.0
 11
-137.9999999999998
 21
-21.99999999999986
 31
0.0
  0
LINE
  5
581
330
8F9
100
AcDbEntity
  8
DETAIL
  6
Continuous
100
AcDbLine
 10
-115.0999999999998
 20
-37.99999999999985
 30
0.0
 11
-123.8
 21
-37.99999999999985
 31
0.0
  0
ARC
  5
582
330
8F9
100
AcDbEntity
  8
DETAIL
  6
Continuous
100
AcDbCircle
 10
-115.0999999999998
 20
-35.99999999999985
 30
0.0
 40
2.0
100
AcDbArc
 50
270.0
 51
0.0
  0
LINE
  5
583
330
8F9
100
AcDbEntity
  8
DETAIL
  6
Continuous
100
AcDbLine
 10
-113.1
 20
-35.99999999999985
 30
0.0
 11
-113.1
 21
-14.28782654069985
 31
0.0
  0
ARC
  5
584
330
8F9
100
AcDbEntity
  8
DETAIL
  6
Continuous
100
AcDbCircle
 10
-115.1
 20
-14.28782654069985
 30
0.0
 40
2.0
100
AcDbArc
 50
0.0
 51
65.55604521959991
  0
LINE
  5
585
330
8F9
100
AcDbEntity
  8
DETAIL
  6
Continuous
100
AcDbLine
 10
-114.2723941113999
 20
-12.46709358579986
 30
0.0
 11
-123.7056125009
 21
-8.179267045099862
 31
0.0
  0
ARC
  5
586
330
8F9
100
AcDbEntity
  8
DETAIL
  6
Continuous
100
AcDbCircle
 10
-124.5332183895
 20
-9.999999999999856
 30
0.0
 40
1.999999999999968
100
AcDbArc
 50
65.55604521960288
 51
90.0
  0
LINE
  5
587
330
8F9
100
AcDbEntity
  8
DETAIL
  6
Continuous
100
AcDbLine
 10
-124.5332183895
 20
-7.999999999999857
 30
0.0
 11
-165.4667816106
 21
-7.999999999999857
 31
0.0
  0
LINE
  5
588
330
8F9
100
AcDbEntity
  8
DETAIL
  6
Continuous
100
AcDbLine
 10
-175.7276058886
 20
-12.46709358579986
 30
0.0
 11
-166.2943874992
 21
-8.179267045099862
 31
0.0
  0
ARC
  5
589
330
8F9
100
AcDbEntity
  8
DETAIL
  6
Continuous
100
AcDbCircle
 10
-165.4667816106
 20
-9.999999999999856
 30
0.0
 40
2.0
100
AcDbArc
 50
90.0
 51
114.4439547804001
  0
ARC
  5
58A
330
8F9
100
AcDbEntity
  8
DETAIL
  6
Continuous
100
AcDbCircle
 10
-174.9
 20
-14.28782654069985
 30
0.0
 40
2.000000000000015
100
AcDbArc
 50
114.4439547804001
 51
180.0
  0
LINE
  5
58B
330
8F9
100
AcDbEntity
  8
DETAIL
  6
Continuous
100
AcDbLine
 10
-174.9
 20
-37.99999999999985
 30
0.0
 11
-166.2
 21
-37.99999999999985
 31
0.0
  0
LINE
  5
58C
330
8F9
100
AcDbEntity
  8
DETAIL
  6
Continuous
100
AcDbLine
 10
-176.9
 20
-14.28782654069985
 30
0.0
 11
-176.9
 21
-35.99999999999985
 31
0.0
  0
ARC
  5
58D
330
8F9
100
AcDbEntity
  8
DETAIL
  6
Continuous
100
AcDbCircle
 10
-174.9
 20
-35.99999999999985
 30
0.0
 40
2.0
100
AcDbArc
 50
180.0
 51
270.0
  0
LINE
  5
58E
330
8F9
100
AcDbEntity
  8
DETAIL
  6
Continuous
100
AcDbLine
 10
-125.8
 20
-39.99999999999985
 30
0.0
 11
-125.8
 21
-46.19999999999985
 31
0.0
  0
LINE
  5
58F
330
8F9
100
AcDbEntity
  8
DETAIL
  6
Continuous
100
AcDbLine
 10
-125.8
 20
-42.99999999999985
 30
0.0
 11
-164.2
 21
-42.99999999999985
 31
0.0
  0
LINE
  5
590
330
8F9
100
AcDbEntity
  8
DETAIL
  6
Continuous
100
AcDbLine
 10
-164.2
 20
-46.19999999999985
 30
0.0
 11
-164.2
 21
-39.99999999999985
 31
0.0
  0
LINE
  5
591
330
8F9
100
AcDbEntity
  8
DETAIL
  6
Continuous
100
AcDbLine
 10
-125.8
 20
-46.19999999999985
 30
0.0
 11
-164.2
 21
-46.19999999999985
 31
0.0
  0
ARC
  5
592
330
8F9
100
AcDbEntity
  8
DETAIL
  6
Continuous
100
AcDbCircle
 10
-123.8
 20
-39.99999999999985
 30
0.0
 40
2.0
100
AcDbArc
 50
90.0
 51
180.0
  0
ARC
  5
593
330
8F9
100
AcDbEntity
  8
DETAIL
  6
Continuous
100
AcDbCircle
 10
-166.2
 20
-39.99999999999985
 30
0.0
 40
2.0
100
AcDbArc
 50
0.0
 51
90.0
  0
ARC
  5
594
330
8F9
100
AcDbEntity
  8
DETAIL
  6
DASHED
100
AcDbCircle
 10
195.0
 20
-20.0
 30
0.0
 40
20.0
100
AcDbArc
 50
53.13010235415597
 51
90.0
  0
LINE
  5
595
330
8F9
100
AcDbEntity
  8
DETAIL
  6
Continuous
100
AcDbLine
 10
83.0
 20
0.0
 30
0.0
 11
-83.0
 21
0.0
 31
0.0
  0
LINE
  5
596
330
8F9
100
AcDbEntity
  8
DETAIL
  6
Continuous
100
AcDbLine
 10
-83.0
 20
0.0
 30
0.0
 11
-195.0
 21
0.0
 31
0.0
  0
ARC
  5
597
330
8F9
100
AcDbEntity
  8
DETAIL
  6
Continuous
100
AcDbCircle
 10
-195.0
 20
-20.0
 30
0.0
 40
20.0
100
AcDbArc
 50
90.0
 51
180.0
  0
CIRCLE
  5
598
330
8F9
100
AcDbEntity
  8
DETAIL
  6
Continuous
100
AcDbCircle
 10
-145.0
 20
-753.0
 30
0.0
 40
8.0
  0
ARC
  5
599
330
8F9
100
AcDbEntity
  8
DETAIL
  6
Continuous
100
AcDbCircle
 10
-158.0
 20
-800.6096189432335
 30
0.0
 40
5.000000000000079
100
AcDbArc
 50
272.2042275039719
 51
0.0
  0
ARC
  5
59A
330
8F9
100
AcDbEntity
  8
DETAIL
  6
Continuous
100
AcDbCircle
 10
-157.5
 20
-822.2999999999997
 30
0.0
 40
8.0
100
AcDbArc
 50
180.0
 51
270.0
  0
LINE
  5
59B
330
8F9
100
AcDbEntity
  8
DETAIL
  6
Continuous
100
AcDbLine
 10
-165.5
 20
-813.6000000000001
 30
0.0
 11
-165.5
 21
-822.2999999999997
 31
0.0
  0
ARC
  5
59C
330
8F9
100
AcDbEntity
  8
DETAIL
  6
Continuous
100
AcDbCircle
 10
-157.5
 20
-813.6000000000001
 30
0.0
 40
7.999999999999971
100
AcDbArc
 50
92.20422750397213
 51
180.0
  0
ARC
  5
59D
330
8F9
100
AcDbEntity
  8
DETAIL
  6
Continuous
100
AcDbCircle
 10
-132.0
 20
-800.6096189432335
 30
0.0
 40
5.0
100
AcDbArc
 50
180.0
 51
267.7957724960289
  0
LINE
  5
59E
330
8F9
100
AcDbEntity
  8
DETAIL
  6
Continuous
100
AcDbLine
 10
-124.5
 20
-813.6000000000001
 30
0.0
 11
-124.5
 21
-822.2999999999997
 31
0.0
  0
ARC
  5
59F
330
8F9
100
AcDbEntity
  8
DETAIL
  6
Continuous
100
AcDbCircle
 10
-132.5
 20
-813.6000000000001
 30
0.0
 40
8.000000000000023
100
AcDbArc
 50
0.0
 51
87.79577249602745
  0
ARC
  5
5A0
330
8F9
100
AcDbEntity
  8
DETAIL
  6
Continuous
100
AcDbCircle
 10
-132.0
 20
-835.2999999999997
 30
0.0
 40
5.0
100
AcDbArc
 50
90.0
 51
180.0
  0
LINE
  5
5A1
330
8F9
100
AcDbEntity
  8
DETAIL
  6
Continuous
100
AcDbLine
 10
-137.0
 20
-857.0
 30
0.0
 11
-137.0
 21
-835.2999999999997
 31
0.0
  0
ARC
  5
5A2
330
8F9
100
AcDbEntity
  8
DETAIL
  6
Continuous
100
AcDbCircle
 10
-158.0000000000001
 20
-835.2999999999997
 30
0.0
 40
5.0
100
AcDbArc
 50
0.0
 51
90.0
  0
LINE
  5
5A3
330
8F9
100
AcDbEntity
  8
DETAIL
  6
Continuous
100
AcDbLine
 10
-153.0000000000001
 20
-857.0
 30
0.0
 11
-153.0000000000001
 21
-835.2999999999997
 31
0.0
  0
LINE
  5
5A4
330
8F9
100
AcDbEntity
  8
DETAIL
  6
Continuous
100
AcDbLine
 10
-137.0
 20
-800.6096189432335
 30
0.0
 11
-137.0
 21
-800.6
 31
0.0
  0
ARC
  5
5A5
330
8F9
100
AcDbEntity
  8
DETAIL
  6
Continuous
100
AcDbCircle
 10
-132.5
 20
-822.2999999999997
 30
0.0
 40
8.0
100
AcDbArc
 50
270.0
 51
0.0
  0
ARC
  5
5A6
330
8F9
100
AcDbEntity
  8
DETAIL
  6
Continuous
100
AcDbCircle
 10
-145.0
 20
-857.0
 30
0.0
 40
8.000000000000056
100
AcDbArc
 50
180.0
 51
0.0
  0
ARC
  5
5A7
330
8F9
100
AcDbEntity
  8
DETAIL
  6
Continuous
100
AcDbCircle
 10
-145.0
 20
-800.6
 30
0.0
 40
8.0
100
AcDbArc
 50
0.0
 51
180.0
  0
CIRCLE
  5
5A8
330
8F9
100
AcDbEntity
  8
DETAIL
  6
Continuous
100
AcDbCircle
 10
145.0000000000001
 20
-753.0
 30
0.0
 40
8.0
  0
ARC
  5
5A9
330
8F9
100
AcDbEntity
  8
DETAIL
  6
Continuous
100
AcDbCircle
 10
132.0
 20
-800.6096189432335
 30
0.0
 40
5.000000000000079
100
AcDbArc
 50
272.2042275039719
 51
0.0
  0
ARC
  5
5AA
330
8F9
100
AcDbEntity
  8
DETAIL
  6
Continuous
100
AcDbCircle
 10
132.5
 20
-822.2999999999997
 30
0.0
 40
8.0
100
AcDbArc
 50
180.0
 51
270.0
  0
LINE
  5
5AB
330
8F9
100
AcDbEntity
  8
DETAIL
  6
Continuous
100
AcDbLine
 10
124.5
 20
-813.6000000000001
 30
0.0
 11
124.5
 21
-822.2999999999997
 31
0.0
  0
ARC
  5
5AC
330
8F9
100
AcDbEntity
  8
DETAIL
  6
Continuous
100
AcDbCircle
 10
132.5
 20
-813.6000000000001
 30
0.0
 40
7.999999999999971
100
AcDbArc
 50
92.20422750397213
 51
180.0
  0
ARC
  5
5AD
330
8F9
100
AcDbEntity
  8
DETAIL
  6
Continuous
100
AcDbCircle
 10
158.0
 20
-800.6096189432335
 30
0.0
 40
5.0
100
AcDbArc
 50
180.0
 51
267.7957724960289
  0
LINE
  5
5AE
330
8F9
100
AcDbEntity
  8
DETAIL
  6
Continuous
100
AcDbLine
 10
165.5
 20
-813.6000000000001
 30
0.0
 11
165.5
 21
-822.2999999999997
 31
0.0
  0
ARC
  5
5AF
330
8F9
100
AcDbEntity
  8
DETAIL
  6
Continuous
100
AcDbCircle
 10
157.5
 20
-813.6000000000001
 30
0.0
 40
8.000000000000023
100
AcDbArc
 50
0.0
 51
87.79577249602745
  0
ARC
  5
5B0
330
8F9
100
AcDbEntity
  8
DETAIL
  6
Continuous
100
AcDbCircle
 10
158.0
 20
-835.2999999999997
 30
0.0
 40
5.0
100
AcDbArc
 50
90.0
 51
180.0
  0
LINE
  5
5B1
330
8F9
100
AcDbEntity
  8
DETAIL
  6
Continuous
100
AcDbLine
 10
153.0
 20
-857.0
 30
0.0
 11
153.0
 21
-835.2999999999997
 31
0.0
  0
ARC
  5
5B2
330
8F9
100
AcDbEntity
  8
DETAIL
  6
Continuous
100
AcDbCircle
 10
132.0
 20
-835.2999999999997
 30
0.0
 40
5.0
100
AcDbArc
 50
0.0
 51
90.0
  0
LINE
  5
5B3
330
8F9
100
AcDbEntity
  8
DETAIL
  6
Continuous
100
AcDbLine
 10
137.0
 20
-857.0
 30
0.0
 11
137.0
 21
-835.2999999999997
 31
0.0
  0
LINE
  5
5B4
330
8F9
100
AcDbEntity
  8
DETAIL
  6
Continuous
100
AcDbLine
 10
153.0
 20
-800.6096189432335
 30
0.0
 11
153.0
 21
-800.6
 31
0.0
  0
ARC
  5
5B5
330
8F9
100
AcDbEntity
  8
DETAIL
  6
Continuous
100
AcDbCircle
 10
157.5
 20
-822.2999999999997
 30
0.0
 40
8.0
100
AcDbArc
 50
270.0
 51
0.0
  0
ARC
  5
5B6
330
8F9
100
AcDbEntity
  8
DETAIL
  6
Continuous
100
AcDbCircle
 10
145.0
 20
-857.0
 30
0.0
 40
8.000000000000056
100
AcDbArc
 50
180.0
 51
0.0
  0
ARC
  5
5B7
330
8F9
100
AcDbEntity
  8
DETAIL
  6
Continuous
100
AcDbCircle
 10
145.0
 20
-800.6
 30
0.0
 40
8.0
100
AcDbArc
 50
0.0
 51
180.0
  0
CIRCLE
  5
5B8
330
8F9
100
AcDbEntity
  8
DETAIL
  6
Continuous
100
AcDbCircle
 10
145.0
 20
-22.0
 30
0.0
 40
8.0
  0
ARC
  5
5B9
330
8F9
100
AcDbEntity
  8
DETAIL
  6
Continuous
100
AcDbCircle
 10
131.9999999999998
 20
-69.6096189432334
 30
0.0
 40
4.999999999999995
100
AcDbArc
 50
272.2042275039719
 51
0.0
  0
ARC
  5
5BA
330
8F9
100
AcDbEntity
  8
DETAIL
  6
Continuous
100
AcDbCircle
 10
132.4999999999998
 20
-91.3
 30
0.0
 40
8.0
100
AcDbArc
 50
180.0
 51
270.0
  0
LINE
  5
5BB
330
8F9
100
AcDbEntity
  8
DETAIL
  6
Continuous
100
AcDbLine
 10
124.4999999999999
 20
-82.59999999999998
 30
0.0
 11
124.4999999999999
 21
-91.3
 31
0.0
  0
ARC
  5
5BC
330
8F9
100
AcDbEntity
  8
DETAIL
  6
Continuous
100
AcDbCircle
 10
132.4999999999998
 20
-82.59999999999998
 30
0.0
 40
8.000000000000001
100
AcDbArc
 50
92.20422750397213
 51
180.0
  0
ARC
  5
5BD
330
8F9
100
AcDbEntity
  8
DETAIL
  6
Continuous
100
AcDbCircle
 10
157.9999999999998
 20
-69.6096189432334
 30
0.0
 40
5.0
100
AcDbArc
 50
180.0
 51
267.7957724960289
  0
LINE
  5
5BE
330
8F9
100
AcDbEntity
  8
DETAIL
  6
Continuous
100
AcDbLine
 10
165.5
 20
-82.59999999999998
 30
0.0
 11
165.5
 21
-91.3
 31
0.0
  0
ARC
  5
5BF
330
8F9
100
AcDbEntity
  8
DETAIL
  6
Continuous
100
AcDbCircle
 10
157.4999999999998
 20
-82.59999999999998
 30
0.0
 40
8.000000000000023
100
AcDbArc
 50
0.0
 51
87.79577249602745
  0
ARC
  5
5C0
330
8F9
100
AcDbEntity
  8
DETAIL
  6
Continuous
100
AcDbCircle
 10
157.9999999999998
 20
-104.3
 30
0.0
 40
5.0
100
AcDbArc
 50
90.0
 51
180.0
  0
LINE
  5
5C1
330
8F9
100
AcDbEntity
  8
DETAIL
  6
Continuous
100
AcDbLine
 10
152.9999999999998
 20
-125.9999999999999
 30
0.0
 11
152.9999999999998
 21
-104.3
 31
0.0
  0
ARC
  5
5C2
330
8F9
100
AcDbEntity
  8
DETAIL
  6
Continuous
100
AcDbCircle
 10
131.9999999999998
 20
-104.3
 30
0.0
 40
5.0
100
AcDbArc
 50
0.0
 51
90.0
  0
LINE
  5
5C3
330
8F9
100
AcDbEntity
  8
DETAIL
  6
Continuous
100
AcDbLine
 10
136.9999999999998
 20
-125.9999999999999
 30
0.0
 11
136.9999999999998
 21
-104.3
 31
0.0
  0
LINE
  5
5C4
330
8F9
100
AcDbEntity
  8
DETAIL
  6
Continuous
100
AcDbLine
 10
152.9999999999998
 20
-69.6096189432334
 30
0.0
 11
152.9999999999998
 21
-69.60000000000005
 31
0.0
  0
ARC
  5
5C5
330
8F9
100
AcDbEntity
  8
DETAIL
  6
Continuous
100
AcDbCircle
 10
157.4999999999998
 20
-91.3
 30
0.0
 40
8.0
100
AcDbArc
 50
270.0
 51
0.0
  0
ARC
  5
5C6
330
8F9
100
AcDbEntity
  8
DETAIL
  6
Continuous
100
AcDbCircle
 10
144.9999999999998
 20
-125.9999999999999
 30
0.0
 40
8.000000000000056
100
AcDbArc
 50
180.0
 51
0.0
  0
ARC
  5
5C7
330
8F9
100
AcDbEntity
  8
DETAIL
  6
Continuous
100
AcDbCircle
 10
144.9999999999998
 20
-69.60000000000005
 30
0.0
 40
8.0
100
AcDbArc
 50
0.0
 51
180.0
  0
ARC
  5
5C8
330
8F9
100
AcDbEntity
  8
DETAIL
  6
Continuous
100
AcDbCircle
 10
-158.0
 20
-69.6096189432334
 30
0.0
 40
4.999999999999995
100
AcDbArc
 50
272.2042275039719
 51
0.0
  0
ARC
  5
5C9
330
8F9
100
AcDbEntity
  8
DETAIL
  6
Continuous
100
AcDbCircle
 10
-157.5
 20
-91.3
 30
0.0
 40
8.0
100
AcDbArc
 50
180.0
 51
270.0
  0
LINE
  5
5CA
330
8F9
100
AcDbEntity
  8
DETAIL
  6
Continuous
100
AcDbLine
 10
-165.5
 20
-82.59999999999998
 30
0.0
 11
-165.5
 21
-91.3
 31
0.0
  0
ARC
  5
5CB
330
8F9
100
AcDbEntity
  8
DETAIL
  6
Continuous
100
AcDbCircle
 10
-157.5
 20
-82.59999999999998
 30
0.0
 40
8.000000000000001
100
AcDbArc
 50
92.20422750397213
 51
180.0
  0
ARC
  5
5CC
330
8F9
100
AcDbEntity
  8
DETAIL
  6
Continuous
100
AcDbCircle
 10
-132.0
 20
-69.6096189432334
 30
0.0
 40
5.0
100
AcDbArc
 50
180.0
 51
267.7957724960289
  0
LINE
  5
5CD
330
8F9
100
AcDbEntity
  8
DETAIL
  6
Continuous
100
AcDbLine
 10
-124.5
 20
-82.59999999999998
 30
0.0
 11
-124.5
 21
-91.3
 31
0.0
  0
ARC
  5
5CE
330
8F9
100
AcDbEntity
  8
DETAIL
  6
Continuous
100
AcDbCircle
 10
-132.5
 20
-82.59999999999998
 30
0.0
 40
8.000000000000023
100
AcDbArc
 50
0.0
 51
87.79577249602745
  0
ARC
  5
5CF
330
8F9
100
AcDbEntity
  8
DETAIL
  6
Continuous
100
AcDbCircle
 10
-132.0
 20
-104.3
 30
0.0
 40
5.0
100
AcDbArc
 50
90.0
 51
180.0
  0
LINE
  5
5D0
330
8F9
100
AcDbEntity
  8
DETAIL
  6
Continuous
100
AcDbLine
 10
-137.0
 20
-125.9999999999999
 30
0.0
 11
-137.0
 21
-104.3
 31
0.0
  0
ARC
  5
5D1
330
8F9
100
AcDbEntity
  8
DETAIL
  6
Continuous
100
AcDbCircle
 10
-158.0000000000001
 20
-104.3
 30
0.0
 40
5.0
100
AcDbArc
 50
0.0
 51
90.0
  0
LINE
  5
5D2
330
8F9
100
AcDbEntity
  8
DETAIL
  6
Continuous
100
AcDbLine
 10
-153.0000000000001
 20
-125.9999999999999
 30
0.0
 11
-153.0000000000001
 21
-104.3
 31
0.0
  0
LINE
  5
5D3
330
8F9
100
AcDbEntity
  8
DETAIL
  6
Continuous
100
AcDbLine
 10
-137.0
 20
-69.6096189432334
 30
0.0
 11
-137.0
 21
-69.60000000000005
 31
0.0
  0
ARC
  5
5D4
330
8F9
100
AcDbEntity
  8
DETAIL
  6
Continuous
100
AcDbCircle
 10
-132.5
 20
-91.3
 30
0.0
 40
8.0
100
AcDbArc
 50
270.0
 51
0.0
  0
ARC
  5
5D5
330
8F9
100
AcDbEntity
  8
DETAIL
  6
Continuous
100
AcDbCircle
 10
-145.0
 20
-125.9999999999999
 30
0.0
 40
8.000000000000056
100
AcDbArc
 50
180.0
 51
0.0
  0
ARC
  5
5D6
330
8F9
100
AcDbEntity
  8
DETAIL
  6
Continuous
100
AcDbCircle
 10
-145.0
 20
-69.60000000000005
 30
0.0
 40
8.0
100
AcDbArc
 50
0.0
 51
180.0
  0
LINE
  5
5D7
330
8F9
100
AcDbEntity
  8
DETAIL
  6
Continuous
100
AcDbLine
 10
-215.0
 20
-20.0
 30
0.0
 11
-215.0
 21
-1100.0
 31
0.0
  0
LINE
  5
5D8
330
8F9
100
AcDbEntity
  8
DETAIL
  6
Continuous
100
AcDbLine
 10
195.0000000000001
 20
-1120.0
 30
0.0
 11
-195.0000000000001
 21
-1120.0
 31
0.0
  0
LINE
  5
5D9
330
8F9
100
AcDbEntity
  8
DETAIL
  6
Continuous
100
AcDbLine
 10
215.0
 20
-20.0
 30
0.0
 11
215.0000000000003
 21
-1100.0
 31
0.0
  0
LINE
  5
5DA
330
8F9
100
AcDbEntity
  8
DETAIL
  6
Continuous
100
AcDbLine
 10
195.0
 20
0.0
 30
0.0
 11
83.0
 21
0.0
 31
0.0
  0
ARC
  5
5DB
330
8F9
100
AcDbEntity
  8
DETAIL
  6
Continuous
100
AcDbCircle
 10
195.0
 20
-20.0
 30
0.0
 40
20.0
100
AcDbArc
 50
0.00000000000001
 51
90.0
  0
ARC
  5
5DC
330
8F9
100
AcDbEntity
  8
DETAIL
  6
Continuous
100
AcDbCircle
 10
195.0000000000001
 20
-1100.0
 30
0.0
 40
20.0
100
AcDbArc
 50
270.0
 51
0.0
  0
ARC
  5
5DD
330
8F9
100
AcDbEntity
  8
DETAIL
  6
DASHED
100
AcDbCircle
 10
-195.0
 20
-20.0
 30
0.0
 40
20.0
100
AcDbArc
 50
90.0
 51
126.869897645844
  0
ARC
  5
5DE
330
8F9
100
AcDbEntity
  8
DETAIL
  6
Continuous
100
AcDbCircle
 10
-195.0
 20
-1100.0
 30
0.0
 40
20.0
100
AcDbArc
 50
180.0
 51
270.0
  0
ARC
  5
5DF
330
8F9
100
AcDbEntity
  8
DETAIL
  6
Continuous
100
AcDbCircle
 10
-126.0606797749979
 20
-16.0
 30
0.0
 40
9.999999999999973
100
AcDbArc
 50
63.43494882292286
 51
90.0
  0
LINE
  5
5E0
330
8F9
100
AcDbEntity
  8
DETAIL
  6
Continuous
100
AcDbLine
 10
-108.5
 20
-12.0
 30
0.0
 11
-111.7
 21
-12.0
 31
0.0
  0
LINE
  5
5E1
330
8F9
100
AcDbEntity
  8
DETAIL
  6
Continuous
100
AcDbLine
 10
-121.5885438199984
 20
-7.055728090000796
 30
0.0
 11
-111.7
 21
-12.0
 31
0.0
  0
LINE
  5
5E2
330
8F9
100
AcDbEntity
  8
DETAIL
  6
Continuous
100
AcDbLine
 10
-108.5
 20
-12.0
 30
0.0
 11
-108.5
 21
-145.9999999999998
 31
0.0
  0
ARC
  5
5E3
330
8F9
100
AcDbEntity
  8
DETAIL
  6
Continuous
100
AcDbCircle
 10
-163.9393202250021
 20
-16.0
 30
0.0
 40
10.0
100
AcDbArc
 50
90.0
 51
116.5650511770783
  0
LINE
  5
5E4
330
8F9
100
AcDbEntity
  8
DETAIL
  6
Continuous
100
AcDbLine
 10
-163.9393202250021
 20
-6.0
 30
0.0
 11
-126.0606797749979
 21
-6.0
 31
0.0
  0
LINE
  5
5E5
330
8F9
100
AcDbEntity
  8
DETAIL
  6
Continuous
100
AcDbLine
 10
-181.5
 20
-12.0
 30
0.0
 11
-178.3000000000002
 21
-12.0
 31
0.0
  0
LINE
  5
5E6
330
8F9
100
AcDbEntity
  8
DETAIL
  6
Continuous
100
AcDbLine
 10
-168.4114561800018
 20
-7.055728090000796
 30
0.0
 11
-178.3000000000002
 21
-12.0
 31
0.0
  0
LINE
  5
5E7
330
8F9
100
AcDbEntity
  8
DETAIL
  6
Continuous
100
AcDbLine
 10
-181.5
 20
-12.0
 30
0.0
 11
-181.5
 21
-146.0
 31
0.0
  0
LINE
  5
5E8
330
8F9
100
AcDbEntity
  8
DETAIL
  6
Continuous
100
AcDbLine
 10
-181.5
 20
-146.0
 30
0.0
 11
-108.5
 21
-145.9999999999998
 31
0.0
  0
CIRCLE
  5
5E9
330
8F9
100
AcDbEntity
  8
DETAIL
  6
Continuous
100
AcDbCircle
 10
-145.0
 20
-753.0
 30
0.0
 40
8.0
  0
LINE
  5
5EA
330
8F9
100
AcDbEntity
  8
DETAIL
  6
Continuous
100
AcDbLine
 10
-108.5
 20
-743.0
 30
0.0
 11
-111.6999999999999
 21
-743.0
 31
0.0
  0
LINE
  5
5EB
330
8F9
100
AcDbEntity
  8
DETAIL
  6
Continuous
100
AcDbLine
 10
-108.5
 20
-743.0
 30
0.0
 11
-108.5
 21
-877.0
 31
0.0
  0
ARC
  5
5EC
330
8F9
100
AcDbEntity
  8
DETAIL
  6
Continuous
100
AcDbCircle
 10
-126.060679774998
 20
-747.0
 30
0.0
 40
10.00000000000007
100
AcDbArc
 50
63.43494882292173
 51
90.0
  0
LINE
  5
5ED
330
8F9
100
AcDbEntity
  8
DETAIL
  6
Continuous
100
AcDbLine
 10
-121.5885438199983
 20
-738.0557280900003
 30
0.0
 11
-111.6999999999999
 21
-743.0
 31
0.0
  0
LINE
  5
5EE
330
8F9
100
AcDbEntity
  8
DETAIL
  6
Continuous
100
AcDbLine
 10
-126.060679774998
 20
-737.0
 30
0.0
 11
-163.9393202250021
 21
-737.0
 31
0.0
  0
LINE
  5
5EF
330
8F9
100
AcDbEntity
  8
DETAIL
  6
Continuous
100
AcDbLine
 10
-181.5
 20
-743.0
 30
0.0
 11
-181.5
 21
-877.0
 31
0.0
  0
LINE
  5
5F0
330
8F9
100
AcDbEntity
  8
DETAIL
  6
Continuous
100
AcDbLine
 10
-168.4114561800018
 20
-738.0557280900003
 30
0.0
 11
-178.3000000000002
 21
-743.0
 31
0.0
  0
ARC
  5
5F1
330
8F9
100
AcDbEntity
  8
DETAIL
  6
Continuous
100
AcDbCircle
 10
-163.9393202250021
 20
-747.0
 30
0.0
 40
10.0
100
AcDbArc
 50
90.0
 51
116.5650511770783
  0
LINE
  5
5F2
330
8F9
100
AcDbEntity
  8
DETAIL
  6
Continuous
100
AcDbLine
 10
-181.5
 20
-743.0
 30
0.0
 11
-178.3000000000002
 21
-743.0
 31
0.0
  0
LINE
  5
5F3
330
8F9
100
AcDbEntity
  8
DETAIL
  6
Continuous
100
AcDbLine
 10
-108.5
 20
-877.0
 30
0.0
 11
-181.5
 21
-877.0
 31
0.0
  0
CIRCLE
  5
5F4
330
8F9
100
AcDbEntity
  8
DETAIL
  6
Continuous
100
AcDbCircle
 10
-145.0
 20
-22.0
 30
0.0
 40
8.0
  0
CIRCLE
  5
5F5
330
8F9
100
AcDbEntity
  8
DETAIL
  6
Continuous
100
AcDbCircle
 10
145.0
 20
-753.0
 30
0.0
 40
8.0
  0
LINE
  5
5F6
330
8F9
100
AcDbEntity
  8
DETAIL
  6
Continuous
100
AcDbLine
 10
108.5
 20
-743.0
 30
0.0
 11
111.7
 21
-743.0
 31
0.0
  0
LINE
  5
5F7
330
8F9
100
AcDbEntity
  8
DETAIL
  6
Continuous
100
AcDbLine
 10
108.5
 20
-743.0
 30
0.0
 11
108.5000000000001
 21
-877.0
 31
0.0
  0
ARC
  5
5F8
330
8F9
100
AcDbEntity
  8
DETAIL
  6
Continuous
100
AcDbCircle
 10
126.0606797749981
 20
-747.0
 30
0.0
 40
10.0
100
AcDbArc
 50
90.0
 51
116.5650511770783
  0
LINE
  5
5F9
330
8F9
100
AcDbEntity
  8
DETAIL
  6
Continuous
100
AcDbLine
 10
121.5885438199984
 20
-738.0557280900003
 30
0.0
 11
111.7
 21
-743.0
 31
0.0
  0
LINE
  5
5FA
330
8F9
100
AcDbEntity
  8
DETAIL
  6
Continuous
100
AcDbLine
 10
126.0606797749981
 20
-737.0
 30
0.0
 11
163.9393202250022
 21
-737.0
 31
0.0
  0
LINE
  5
5FB
330
8F9
100
AcDbEntity
  8
DETAIL
  6
Continuous
100
AcDbLine
 10
181.5000000000001
 20
-743.0
 30
0.0
 11
181.5000000000001
 21
-877.0
 31
0.0
  0
LINE
  5
5FC
330
8F9
100
AcDbEntity
  8
DETAIL
  6
Continuous
100
AcDbLine
 10
168.4114561800018
 20
-738.0557280900003
 30
0.0
 11
178.3000000000003
 21
-743.0
 31
0.0
  0
ARC
  5
5FD
330
8F9
100
AcDbEntity
  8
DETAIL
  6
Continuous
100
AcDbCircle
 10
163.9393202250022
 20
-747.0
 30
0.0
 40
10.00000000000007
100
AcDbArc
 50
63.43494882292173
 51
90.0
  0
LINE
  5
5FE
330
8F9
100
AcDbEntity
  8
DETAIL
  6
Continuous
100
AcDbLine
 10
181.5000000000001
 20
-743.0
 30
0.0
 11
178.3000000000003
 21
-743.0
 31
0.0
  0
LINE
  5
5FF
330
8F9
100
AcDbEntity
  8
DETAIL
  6
Continuous
100
AcDbLine
 10
108.5000000000001
 20
-877.0
 30
0.0
 11
181.5000000000001
 21
-877.0
 31
0.0
  0
CIRCLE
  5
600
330
8F9
100
AcDbEntity
  8
DETAIL
  6
Continuous
100
AcDbCircle
 10
145.0
 20
-21.99999999999999
 30
0.0
 40
8.0
  0
ARC
  5
601
330
8F9
100
AcDbEntity
  8
DETAIL
  6
Continuous
100
AcDbCircle
 10
126.0606797749979
 20
-15.99999999999998
 30
0.0
 40
10.0
100
AcDbArc
 50
90.0
 51
116.565051177077
  0
LINE
  5
602
330
8F9
100
AcDbEntity
  8
DETAIL
  6
Continuous
100
AcDbLine
 10
108.5
 20
-11.99999999999999
 30
0.0
 11
111.7
 21
-11.99999999999998
 31
0.0
  0
LINE
  5
603
330
8F9
100
AcDbEntity
  8
DETAIL
  6
Continuous
100
AcDbLine
 10
121.5885438199984
 20
-7.055728090000782
 30
0.0
 11
111.7
 21
-11.99999999999998
 31
0.0
  0
LINE
  5
604
330
8F9
100
AcDbEntity
  8
DETAIL
  6
Continuous
100
AcDbLine
 10
108.5
 20
-11.99999999999999
 30
0.0
 11
108.5
 21
-145.9999999999998
 31
0.0
  0
ARC
  5
605
330
8F9
100
AcDbEntity
  8
DETAIL
  6
Continuous
100
AcDbCircle
 10
163.9393202250021
 20
-15.99999999999998
 30
0.0
 40
10.00000000000007
100
AcDbArc
 50
63.43494882292173
 51
90.0
  0
LINE
  5
606
330
8F9
100
AcDbEntity
  8
DETAIL
  6
Continuous
100
AcDbLine
 10
163.9393202250021
 20
-5.999999999999976
 30
0.0
 11
126.0606797749979
 21
-5.999999999999982
 31
0.0
  0
LINE
  5
607
330
8F9
100
AcDbEntity
  8
DETAIL
  6
Continuous
100
AcDbLine
 10
181.5
 20
-11.99999999999997
 30
0.0
 11
178.3000000000002
 21
-11.99999999999998
 31
0.0
  0
LINE
  5
608
330
8F9
100
AcDbEntity
  8
DETAIL
  6
Continuous
100
AcDbLine
 10
168.4114561800018
 20
-7.055728090000775
 30
0.0
 11
178.3000000000002
 21
-11.99999999999998
 31
0.0
  0
LINE
  5
609
330
8F9
100
AcDbEntity
  8
DETAIL
  6
Continuous
100
AcDbLine
 10
181.5
 20
-11.99999999999997
 30
0.0
 11
181.5
 21
-145.9999999999998
 31
0.0
  0
LINE
  5
60A
330
8F9
100
AcDbEntity
  8
DETAIL
  6
Continuous
100
AcDbLine
 10
181.5
 20
-145.9999999999998
 30
0.0
 11
108.5
 21
-145.9999999999998
 31
0.0
  0
LINE
  5
60B
330
8F9
100
AcDbEntity
  8
DETAIL
  6
Continuous
100
AcDbLine
 10
215.0000000000002
 20
-968.0
 30
0.0
 11
-215.0
 21
-968.0
 31
0.0
  0
CIRCLE
  5
60C
330
8F9
100
AcDbEntity
  8
DETAIL
  6
Continuous
100
AcDbCircle
 10
-27.0
 20
-1074.0
 30
0.0
 40
13.6
  0
CIRCLE
  5
60D
330
8F9
100
AcDbEntity
  8
DETAIL
  6
Continuous
100
AcDbCircle
 10
107.0000000000002
 20
-1070.0
 30
0.0
 40
10.84999999999999
  0
CIRCLE
  5
60E
330
8F9
100
AcDbEntity
  8
DETAIL
  6
Continuous
100
AcDbCircle
 10
167.0000000000002
 20
-1060.0
 30
0.0
 40
10.84999999999999
  0
CIRCLE
  5
60F
330
8F9
100
AcDbEntity
  8
DETAIL
  6
Continuous
100
AcDbCircle
 10
34.0
 20
-1059.0
 30
0.0
 40
13.6
  0
CIRCLE
  5
610
330
8F9
100
AcDbEntity
  8
DETAIL
  6
Continuous
100
AcDbCircle
 10
-53.0
 20
-1011.0
 30
0.0
 40
10.85
  0
CIRCLE
  5
611
330
8F9
100
AcDbEntity
  8
DETAIL
  6
Continuous
100
AcDbCircle
 10
-145.0
 20
-1011.0
 30
0.0
 40
10.84999999999999
  0
ARC
  5
619
330
8F9
100
AcDbEntity
  8
DETAIL
  6
Continuous
100
AcDbCircle
 10
152.0
 20
-909.0
 30
0.0
 40
22.99999999999997
100
AcDbArc
 50
53.03568410594072
 51
156.9643158940583
  0
LINE
  5
61A
330
8F9
100
AcDbEntity
  8
DETAIL
  6
Continuous
100
AcDbLine
 10
33.30000000000005
 20
-395.5
 30
0.0
 11
-33.29999999999995
 21
-395.5
 31
0.0
  0
LINE
  5
61B
330
8F9
100
AcDbEntity
  8
DETAIL
  6
Continuous
100
AcDbLine
 10
33.30000000000005
 20
-495.5
 30
0.0
 11
-33.29999999999993
 21
-495.5
 31
0.0
  0
LINE
  5
61C
330
8F9
100
AcDbEntity
  8
DETAIL
  6
Continuous
100
AcDbLine
 10
-33.29999999999995
 20
-395.5
 30
0.0
 11
-33.29999999999993
 21
-495.5
 31
0.0
  0
LINE
  5
61D
330
8F9
100
AcDbEntity
  8
DETAIL
  6
Continuous
100
AcDbLine
 10
33.30000000000005
 20
-395.5
 30
0.0
 11
33.30000000000005
 21
-495.5
 31
0.0
  0
CIRCLE
  5
61E
330
8F9
100
AcDbEntity
  8
DETAIL
  6
Continuous
100
AcDbCircle
 10
-68.00000000000003
 20
-925.0
 30
0.0
 40
13.59999999999999
  0
ARC
  5
620
330
8F9
100
AcDbEntity
  8
DETAIL
  6
Continuous
100
AcDbCircle
 10
152.0
 20
-909.0
 30
0.0
 40
24.99999999999997
100
AcDbArc
 50
51.10019602409362
 51
158.8998039759067
  0
LINE
  5
621
330
8F9
100
AcDbEntity
  8
BASIS
  6
DASHDOT
100
AcDbLine
 10
-0.000000000000006
 20
50.0
 30
0.0
 11
0.000000000000143
 21
-1170.0
 31
0.0
  0
TEXT
  5
7AE
330
8F9
100
AcDbEntity
  8
NOTE
  6
Continuous
100
AcDbText
 10
-863.0676879882813
 20
96.1129913330078
 30
0.0
 40
40.0
  1
[4-L型座金(同梱部品)]
 50
359.9999956742889
 41
0.7386363744735723
  7
STANDARD1
100
AcDbText
  0
LINE
  5
7AF
330
8F9
100
AcDbEntity
  8
NOTE
  6
Continuous
100
AcDbLine
 10
-621.25
 20
150.0
 30
0.0
 11
-365.0
 21
150.0
 31
0.0
  0
LINE
  5
7B0
330
8F9
100
AcDbEntity
  8
NOTE
  6
Continuous
100
AcDbLine
 10
-365.0
 20
150.0
 30
0.0
 11
-145.0
 21
-22.0
 31
0.0
  0
LINE
  5
7B1
330
8F9
100
AcDbEntity
  8
NOTE
  6
Continuous
100
AcDbLine
 10
-145.0
 20
-22.0
 30
0.0
 11
-146.8407512522718
 21
-21.21792914179103
 31
0.0
  0
LINE
  5
7B2
330
8F9
100
AcDbEntity
  8
NOTE
  6
Continuous
100
AcDbLine
 10
-145.0
 20
-22.0
 30
0.0
 11
-146.2031018941321
 21
-20.40233112556586
 31
0.0
  0
TEXT
  5
7B3
330
8F9
100
AcDbEntity
  8
NOTE
  6
Continuous
100
AcDbText
 10
-621.25
 20
151.000015258789
 30
0.0
 40
40.0
  1
AH 4-M12
 50
359.9999956742889
 41
0.6447368672019561
  7
STANDARD1
100
AcDbText
  0
LINE
  5
7B4
330
8F9
100
AcDbEntity
  8
NOTE
  6
Continuous
100
AcDbLine
 10
-145.0
 20
-42.0
 30
0.0
 11
-145.0
 21
-2.0
 31
0.0
  0
LINE
  5
7B5
330
8F9
100
AcDbEntity
  8
NOTE
  6
Continuous
100
AcDbLine
 10
-125.0
 20
-22.0
 30
0.0
 11
-165.0
 21
-22.0
 31
0.0
  0
LINE
  5
7B6
330
8F9
100
AcDbEntity
  8
NOTE
  6
Continuous
100
AcDbLine
 10
-125.0
 20
-857.0
 30
0.0
 11
-165.0
 21
-857.0
 31
0.0
  0
LINE
  5
7B7
330
8F9
100
AcDbEntity
  8
NOTE
  6
Continuous
100
AcDbLine
 10
-145.0
 20
-877.0
 30
0.0
 11
-145.0
 21
-837.0
 31
0.0
  0
LINE
  5
7B8
330
8F9
100
AcDbEntity
  8
NOTE
  6
Continuous
100
AcDbLine
 10
125.0000000000001
 20
-857.0
 30
0.0
 11
165.0000000000001
 21
-857.0
 31
0.0
  0
LINE
  5
7B9
330
8F9
100
AcDbEntity
  8
NOTE
  6
Continuous
100
AcDbLine
 10
145.0000000000001
 20
-877.0
 30
0.0
 11
145.0000000000001
 21
-837.0
 31
0.0
  0
LINE
  5
7BA
330
8F9
100
AcDbEntity
  8
NOTE
  6
Continuous
100
AcDbLine
 10
145.0
 20
-41.99999999999999
 30
0.0
 11
145.0
 21
-1.99999999999998
 31
0.0
  0
LINE
  5
7BB
330
8F9
100
AcDbEntity
  8
NOTE
  6
Continuous
100
AcDbLine
 10
125.0
 20
-21.99999999999999
 30
0.0
 11
165.0
 21
-21.99999999999997
 31
0.0
  0
LINE
  5
7BC
330
8F9
100
AcDbEntity
  8
NOTE
  6
Continuous
100
AcDbLine
 10
1034.25
 20
-1270.0
 30
0.0
 11
615.0
 21
-1270.0
 31
0.0
  0
LINE
  5
7BD
330
8F9
100
AcDbEntity
  8
NOTE
  6
Continuous
100
AcDbLine
 10
615.0
 20
-1270.0
 30
0.0
 11
-67.9999465942383
 21
-924.9999389648436
 31
0.0
  0
LINE
  5
7BE
330
8F9
100
AcDbEntity
  8
NOTE
  6
Continuous
100
AcDbLine
 10
-67.9999465942383
 20
-924.9999389648436
 30
0.0
 11
-66.08931729347917
 21
-925.5911205571491
 31
0.0
  0
LINE
  5
7BF
330
8F9
100
AcDbEntity
  8
NOTE
  6
Continuous
100
AcDbLine
 10
-67.9999465942383
 20
-924.9999389648436
 30
0.0
 11
-66.6408839000978
 21
-926.4672319122112
 31
0.0
  0
TEXT
  5
7C0
330
8F9
100
AcDbEntity
  8
NOTE
  6
Continuous
100
AcDbText
 10
675.75
 20
-1269.0
 30
0.0
 40
40.0
  1
WD R3/4(φ27.2)
 50
359.9999956742889
 41
0.6503623413003014
  7
STANDARD1
100
AcDbText
  0
LINE
  5
7C1
330
8F9
100
AcDbEntity
  8
NOTE
  6
Continuous
100
AcDbLine
 10
-68.00000000000003
 20
-945.0
 30
0.0
 11
-68.00000000000003
 21
-905.0
 31
0.0
  0
LINE
  5
7C2
330
8F9
100
AcDbEntity
  8
NOTE
  6
Continuous
100
AcDbLine
 10
-48.00000000000003
 20
-925.0
 30
0.0
 11
-88.00000000000002
 21
-925.0
 31
0.0
  0
LINE
  5
7C3
330
8F9
100
AcDbEntity
  8
NOTE
  6
Continuous
100
AcDbLine
 10
1034.25
 20
-1670.0
 30
0.0
 11
615.0
 21
-1670.0
 31
0.0
  0
LINE
  5
7C4
330
8F9
100
AcDbEntity
  8
NOTE
  6
Continuous
100
AcDbLine
 10
615.0
 20
-1670.0
 30
0.0
 11
-26.99994659423828
 21
-1074.0
 31
0.0
  0
LINE
  5
7C5
330
8F9
100
AcDbEntity
  8
NOTE
  6
Continuous
100
AcDbLine
 10
-26.99994659423828
 20
-1074.0
 30
0.0
 11
-25.23195915335333
 21
-1074.934997544848
 31
0.0
  0
LINE
  5
7C6
330
8F9
100
AcDbEntity
  8
NOTE
  6
Continuous
100
AcDbLine
 10
-26.99994659423828
 20
-1074.0
 30
0.0
 11
-25.93632335396279
 21
-1075.693725362255
 31
0.0
  0
TEXT
  5
7C7
330
8F9
100
AcDbEntity
  8
NOTE
  6
Continuous
100
AcDbText
 10
675.75
 20
-1669.0
 30
0.0
 40
40.0
  1
HW R3/4(φ27.2)
 50
359.9999956742889
 41
0.6503623413003014
  7
STANDARD1
100
AcDbText
  0
LINE
  5
7C8
330
8F9
100
AcDbEntity
  8
NOTE
  6
Continuous
100
AcDbLine
 10
-27.0
 20
-1094.0
 30
0.0
 11
-27.0
 21
-1054.0
 31
0.0
  0
LINE
  5
7C9
330
8F9
100
AcDbEntity
  8
NOTE
  6
Continuous
100
AcDbLine
 10
-7.0
 20
-1074.0
 30
0.0
 11
-47.0
 21
-1074.0
 31
0.0
  0
LINE
  5
7CA
330
8F9
100
AcDbEntity
  8
NOTE
  6
Continuous
100
AcDbLine
 10
107.0000000000002
 20
-1090.0
 30
0.0
 11
107.0000000000002
 21
-1050.0
 31
0.0
  0
LINE
  5
7CB
330
8F9
100
AcDbEntity
  8
NOTE
  6
Continuous
100
AcDbLine
 10
127.0000000000002
 20
-1070.0
 30
0.0
 11
87.00000000000022
 21
-1070.0
 31
0.0
  0
LINE
  5
7CC
330
8F9
100
AcDbEntity
  8
NOTE
  6
Continuous
100
AcDbLine
 10
1034.25
 20
-1470.0
 30
0.0
 11
615.0
 21
-1470.0
 31
0.0
  0
LINE
  5
7CD
330
8F9
100
AcDbEntity
  8
NOTE
  6
Continuous
100
AcDbLine
 10
615.0
 20
-1470.0
 30
0.0
 11
106.9999847412109
 21
-1070.0
 31
0.0
  0
LINE
  5
7CE
330
8F9
100
AcDbEntity
  8
NOTE
  6
Continuous
100
AcDbLine
 10
106.9999847412109
 20
-1070.0
 30
0.0
 11
108.8380222585091
 21
-1070.788427602893
 31
0.0
  0
LINE
  5
7CF
330
8F9
100
AcDbEntity
  8
NOTE
  6
Continuous
100
AcDbLine
 10
106.9999847412109
 20
-1070.0
 30
0.0
 11
108.1975580995141
 21
-1071.601817109248
 31
0.0
  0
TEXT
  5
7D0
330
8F9
100
AcDbEntity
  8
NOTE
  6
Continuous
100
AcDbText
 10
675.75
 20
-1469.0
 30
0.0
 40
40.0
  1
BH R1/2(φ21.7)
 50
359.9999956742889
 41
0.6503623413003014
  7
STANDARD1
100
AcDbText
  0
LINE
  5
7D1
330
8F9
100
AcDbEntity
  8
NOTE
  6
Continuous
100
AcDbLine
 10
1058.75
 20
-1370.0
 30
0.0
 11
615.0
 21
-1370.0
 31
0.0
  0
LINE
  5
7D2
330
8F9
100
AcDbEntity
  8
NOTE
  6
Continuous
100
AcDbLine
 10
615.0
 20
-1370.0
 30
0.0
 11
166.9999847412109
 21
-1060.0
 31
0.0
  0
LINE
  5
7D3
330
8F9
100
AcDbEntity
  8
NOTE
  6
Continuous
100
AcDbLine
 10
166.9999847412109
 20
-1060.0
 30
0.0
 11
168.8831393133161
 21
-1060.673593985691
 31
0.0
  0
LINE
  5
7D4
330
8F9
100
AcDbEntity
  8
NOTE
  6
Continuous
100
AcDbLine
 10
166.9999847412109
 20
-1060.0
 30
0.0
 11
168.2940474248424
 21
-1061.524926808352
 31
0.0
  0
TEXT
  5
7D5
330
8F9
100
AcDbEntity
  8
NOTE
  6
Continuous
100
AcDbText
 10
675.75
 20
-1369.0
 30
0.0
 40
40.0
  1
BHR R1/2(φ21.7)
 50
359.9999956742889
 41
0.6478040766071631
  7
STANDARD1
100
AcDbText
  0
LINE
  5
7D6
330
8F9
100
AcDbEntity
  8
NOTE
  6
Continuous
100
AcDbLine
 10
187.0000000000002
 20
-1060.0
 30
0.0
 11
147.0000000000002
 21
-1060.0
 31
0.0
  0
LINE
  5
7D7
330
8F9
100
AcDbEntity
  8
NOTE
  6
Continuous
100
AcDbLine
 10
167.0000000000002
 20
-1080.0
 30
0.0
 11
167.0000000000002
 21
-1040.0
 31
0.0
  0
LINE
  5
7D8
330
8F9
100
AcDbEntity
  8
NOTE
  6
Continuous
100
AcDbLine
 10
1034.25
 20
-1570.0
 30
0.0
 11
565.7035000203375
 21
-1570.0
 31
0.0
  0
LINE
  5
7D9
330
8F9
100
AcDbEntity
  8
NOTE
  6
Continuous
100
AcDbLine
 10
565.7035000203376
 20
-1570.0
 30
0.0
 11
33.99997711181629
 21
-1058.999962654774
 31
0.0
  0
LINE
  5
7DA
330
8F9
100
AcDbEntity
  8
NOTE
  6
Continuous
100
AcDbLine
 10
33.99997711181629
 20
-1058.999962654774
 30
0.0
 11
35.75766707548576
 21
-1059.954177510881
 31
0.0
  0
LINE
  5
7DB
330
8F9
100
AcDbEntity
  8
NOTE
  6
Continuous
100
AcDbLine
 10
33.99997711181629
 20
-1058.999962654774
 30
0.0
 11
35.04507381943157
 21
-1060.705181957893
 31
0.0
  0
TEXT
  5
7DC
330
8F9
100
AcDbEntity
  8
NOTE
  6
Continuous
100
AcDbText
 10
675.75
 20
-1569.0
 30
0.0
 40
40.0
  1
CW R3/4(φ27.2)
 50
0.000002504478167
 41
0.6503623413003014
  7
STANDARD1
100
AcDbText
  0
LINE
  5
7DD
330
8F9
100
AcDbEntity
  8
NOTE
  6
Continuous
100
AcDbLine
 10
34.0
 20
-1078.999962654774
 30
0.0
 11
34.0
 21
-1038.999962654774
 31
0.0
  0
LINE
  5
7DE
330
8F9
100
AcDbEntity
  8
NOTE
  6
Continuous
100
AcDbLine
 10
54.0
 20
-1058.999962654774
 30
0.0
 11
14.0
 21
-1058.999962654774
 31
0.0
  0
LINE
  5
7DF
330
8F9
100
AcDbEntity
  8
NOTE
  6
Continuous
100
AcDbLine
 10
-33.0
 20
-1011.0
 30
0.0
 11
-73.0
 21
-1011.0
 31
0.0
  0
LINE
  5
7E0
330
8F9
100
AcDbEntity
  8
NOTE
  6
Continuous
100
AcDbLine
 10
-53.0
 20
-1031.0
 30
0.0
 11
-53.0
 21
-991.0
 31
0.0
  0
LINE
  5
7E1
330
8F9
100
AcDbEntity
  8
NOTE
  6
Continuous
100
AcDbLine
 10
-813.25
 20
-1669.0
 30
0.0
 11
-315.0
 21
-1669.0
 31
0.0
  0
LINE
  5
7E2
330
8F9
100
AcDbEntity
  8
NOTE
  6
Continuous
100
AcDbLine
 10
-315.0
 20
-1669.0
 30
0.0
 11
-52.99999237060546
 21
-1011.0
 31
0.0
  0
LINE
  5
7E3
330
8F9
100
AcDbEntity
  8
NOTE
  6
Continuous
100
AcDbLine
 10
-52.99999237060546
 20
-1011.0
 30
0.0
 11
-53.23372471630514
 21
-1012.986295343239
 31
0.0
  0
LINE
  5
7E4
330
8F9
100
AcDbEntity
  8
NOTE
  6
Continuous
100
AcDbLine
 10
-52.99999237060546
 20
-1011.0
 30
0.0
 11
-54.19555821464817
 21
-1012.603316036394
 31
0.0
  0
TEXT
  5
7E5
330
8F9
100
AcDbEntity
  8
NOTE
  6
Continuous
100
AcDbText
 10
-813.25
 20
-1598.0
 30
0.0
 40
40.0
  1
ヒートポンプ配管口(A)
 50
0.000002504478167
 41
0.793478266052578
  7
STANDARD1
100
AcDbText
  0
TEXT
  5
7E6
330
8F9
100
AcDbEntity
  8
NOTE
  6
Continuous
100
AcDbText
 10
-813.25
 20
-1668.0
 30
0.0
 40
40.0
  1
R1/2(φ21.7)
 50
0.000002504478167
 41
0.6372768070016589
  7
STANDARD1
100
AcDbText
  0
LINE
  5
7E7
330
8F9
100
AcDbEntity
  8
NOTE
  6
Continuous
100
AcDbLine
 10
-125.0
 20
-1011.0
 30
0.0
 11
-165.0
 21
-1011.0
 31
0.0
  0
LINE
  5
7E8
330
8F9
100
AcDbEntity
  8
NOTE
  6
Continuous
100
AcDbLine
 10
-145.0
 20
-1031.0
 30
0.0
 11
-145.0
 21
-991.0
 31
0.0
  0
LINE
  5
7E9
330
8F9
100
AcDbEntity
  8
NOTE
  6
Continuous
100
AcDbLine
 10
-813.25
 20
-1419.0
 30
0.0
 11
-315.0
 21
-1419.0
 31
0.0
  0
LINE
  5
7EA
330
8F9
100
AcDbEntity
  8
NOTE
  6
Continuous
100
AcDbLine
 10
-315.0
 20
-1419.0
 30
0.0
 11
-145.0000610351562
 21
-1010.999938964843
 31
0.0
  0
LINE
  5
7EB
330
8F9
100
AcDbEntity
  8
NOTE
  6
Continuous
100
AcDbLine
 10
-145.0000610351562
 20
-1010.999938964843
 30
0.0
 11
-145.2652607535511
 21
-1012.982278267123
 31
0.0
  0
LINE
  5
7EC
330
8F9
100
AcDbEntity
  8
NOTE
  6
Continuous
100
AcDbLine
 10
-145.0000610351562
 20
-1010.999938964843
 30
0.0
 11
-146.2209004025845
 21
-1012.584095282552
 31
0.0
  0
TEXT
  5
7ED
330
8F9
100
AcDbEntity
  8
NOTE
  6
Continuous
100
AcDbText
 10
-813.25
 20
-1348.0
 30
0.0
 40
40.0
  1
ヒートポンプ配管口(B)
 50
0.000002504478167
 41
0.793478266052578
  7
STANDARD1
100
AcDbText
  0
TEXT
  5
7EE
330
8F9
100
AcDbEntity
  8
NOTE
  6
Continuous
100
AcDbText
 10
-813.25
 20
-1418.0
 30
0.0
 40
40.0
  1
R1/2(φ21.7)
 50
0.000002504478167
 41
0.6372768070016589
  7
STANDARD1
100
AcDbText
  0
LINE
  5
7EF
330
8F9
100
AcDbEntity
  8
NOTE
  6
Continuous
100
AcDbLine
 10
-668.25
 20
-1270.0
 30
0.0
 11
-315.0
 21
-1270.0
 31
0.0
  0
LINE
  5
7F0
330
8F9
100
AcDbEntity
  8
NOTE
  6
Continuous
100
AcDbLine
 10
-315.0
 20
-1270.0
 30
0.0
 11
-178.0000610351561
 21
-1059.0
 31
0.0
  0
LINE
  5
7F1
330
8F9
100
AcDbEntity
  8
NOTE
  6
Continuous
100
AcDbLine
 10
-178.0000610351561
 20
-1059.0
 30
0.0
 11
-178.6179360812335
 21
-1060.902164668853
 31
0.0
  0
LINE
  5
7F2
330
8F9
100
AcDbEntity
  8
NOTE
  6
Continuous
100
AcDbLine
 10
-178.0000610351561
 20
-1059.0
 30
0.0
 11
-179.4862388753514
 21
-1060.338385380715
 31
0.0
  0
TEXT
  5
7F3
330
8F9
100
AcDbEntity
  8
NOTE
  6
Continuous
100
AcDbText
 10
-668.25
 20
-1269.0
 30
0.0
 40
40.0
  1
CL 24×47長穴
 50
0.000002504478167
 41
0.7181372712640201
  7
STANDARD1
100
AcDbText
  0
LINE
  5
7F4
330
8F9
100
AcDbEntity
  8
NOTE
  6
Continuous
100
AcDbLine
 10
-178.0
 20
-1079.0
 30
0.0
 11
-178.0
 21
-1039.0
 31
0.0
  0
LINE
  5
7F5
330
8F9
100
AcDbEntity
  8
NOTE
  6
Continuous
100
AcDbLine
 10
-158.0
 20
-1059.0
 30
0.0
 11
-198.0
 21
-1059.0
 31
0.0
  0
LINE
  5
7F6
330
8F9
100
AcDbEntity
  8
NOTE
  6
Continuous
100
AcDbLine
 10
-652.2499999999999
 20
-1520.0
 30
0.0
 11
-315.0
 21
-1520.0
 31
0.0
  0
LINE
  5
7F7
330
8F9
100
AcDbEntity
  8
NOTE
  6
Continuous
100
AcDbLine
 10
-315.0
 20
-1520.0
 30
0.0
 11
-111.0000534057617
 21
-1077.0
 31
0.0
  0
LINE
  5
7F8
330
8F9
100
AcDbEntity
  8
NOTE
  6
Continuous
100
AcDbLine
 10
-111.0000534057617
 20
-1077.0
 30
0.0
 11
-111.3379234315581
 21
-1078.971254383804
 31
0.0
  0
LINE
  5
7F9
330
8F9
100
AcDbEntity
  8
NOTE
  6
Continuous
100
AcDbLine
 10
-111.0000534057617
 20
-1077.0
 30
0.0
 11
-112.2782846455935
 21
-1078.538221342173
 31
0.0
  0
TEXT
  5
7FA
330
8F9
100
AcDbEntity
  8
NOTE
  6
Continuous
100
AcDbText
 10
-652.2499999999999
 20
-1519.0
 30
0.0
 40
40.0
  1
EL φ26,φ32
 50
0.000002504478167
 41
0.692500019073486
  7
STANDARD1
100
AcDbText
  0
LINE
  5
7FB
330
8F9
100
AcDbEntity
  8
NOTE
  6
Continuous
100
AcDbLine
 10
-111.0
 20
-1097.0
 30
0.0
 11
-111.0
 21
-1057.0
 31
0.0
  0
LINE
  5
7FC
330
8F9
100
AcDbEntity
  8
NOTE
  6
Continuous
100
AcDbLine
 10
-131.0
 20
-1077.0
 30
0.0
 11
-91.0
 21
-1077.0
 31
0.0
  0
TEXT
  5
7FD
330
8F9
100
AcDbEntity
  8
NOTE
  6
Continuous
100
AcDbText
 10
499.8288879394531
 20
-892.9216308593749
 30
0.0
 40
40.0
  1
メンテナンススペース
 50
90.00000500895634
 41
0.84375
  7
STANDARD1
100
AcDbText
  0
TEXT
  5
7FE
330
8F9
100
AcDbEntity
  8
NOTE
  6
Continuous
100
AcDbText
 10
-962.8504638671875
 20
-1618.33642578125
 30
0.0
 40
40.0
  1
メンテナンススペース
 50
90.00000500895634
 41
0.84375
  7
STANDARD1
100
AcDbText
  0
TEXT
  5
7FF
330
8F9
100
AcDbEntity
  8
NOTE
  6
Continuous
100
AcDbText
 10
-191.0614917610455
 20
-2272.474523562484
 30
0.0
 40
40.0
  1
メンテナンススペース
 50
359.9999956742889
 41
0.84375
  7
STANDARD1
100
AcDbText
  0
LINE
  5
800
330
8F9
100
AcDbEntity
  8
NOTE
  6
Continuous
100
AcDbLine
 10
744.980899480702
 20
-391.2824789197266
 30
0.0
 11
544.302882868343
 21
-391.2824789197267
 31
0.0
  0
TEXT
  5
804
330
8F9
100
AcDbEntity
  8
NOTE
  6
Continuous
100
AcDbText
 10
606.9809071100967
 20
-390.2824789197265
 30
0.0
 40
40.0
  1
D φ18
 50
0.000002504478167
 41
0.7213541865348822
  7
STANDARD1
100
AcDbText
  0
LINE
  5
806
330
8F9
100
AcDbEntity
  8
NOTE
  6
Continuous
100
AcDbLine
 10
172.0
 20
-909.0
 30
0.0
 11
132.0000000000001
 21
-909.0
 31
0.0
  0
LINE
  5
807
330
8F9
100
AcDbEntity
  8
NOTE
  6
Continuous
100
AcDbLine
 10
152.0000000000001
 20
-929.0
 30
0.0
 11
152.0000000000001
 21
-889.0
 31
0.0
  0
CIRCLE
  5
809
330
8F9
100
AcDbEntity
  8
ARRANGE
  6
Continuous
100
AcDbCircle
 10
0.0
 20
0.0
 30
0.0
 40
15.0
  0
CIRCLE
  5
80A
330
8F9
100
AcDbEntity
  8
FIX
  6
Continuous
100
AcDbCircle
 10
-145.0
 20
-22.0
 30
0.0
 40
6.0
  0
CIRCLE
  5
80B
330
8F9
100
AcDbEntity
  8
FIX
  6
Continuous
100
AcDbCircle
 10
-145.0
 20
-857.0
 30
0.0
 40
6.0
  0
CIRCLE
  5
80C
330
8F9
100
AcDbEntity
  8
FIX
  6
Continuous
100
AcDbCircle
 10
145.0000000000001
 20
-857.0
 30
0.0
 40
6.0
  0
CIRCLE
  5
80D
330
8F9
100
AcDbEntity
  8
FIX
  6
Continuous
100
AcDbCircle
 10
145.0
 20
-21.99999999999999
 30
0.0
 40
6.0
  0
LINE
  5
80E
330
8F9
100
AcDbEntity
  8
SERVICESPACE
  6
Continuous
100
AcDbLine
 10
-215.0
 20
-1720.0
 30
0.0
 11
-215.0
 21
-1120.0
 31
0.0
  0
LINE
  5
80F
330
8F9
100
AcDbEntity
  8
SERVICESPACE
  6
Continuous
100
AcDbLine
 10
515.0000000000001
 20
0.0
 30
0.0
 11
215.0000000000003
 21
-1720.0
 31
0.0
  0
LINE
  5
810
330
8F9
100
AcDbEntity
  8
SERVICESPACE
  6
Continuous
100
AcDbLine
 10
215.0000000000003
 20
0.0
 30
0.0
 11
515.0000000000001
 21
-1720.0
 31
0.0
  0
LINE
  5
811
330
8F9
100
AcDbEntity
  8
SERVICESPACE
  6
Continuous
100
AcDbLine
 10
515.0000000000001
 20
0.0
 30
0.0
 11
215.0000000000003
 21
0.0
 31
0.0
  0
LINE
  5
812
330
8F9
100
AcDbEntity
  8
SERVICESPACE
  6
Continuous
100
AcDbLine
 10
515.0000000000001
 20
-1720.0
 30
0.0
 11
515.0000000000001
 21
0.0
 31
0.0
  0
LINE
  5
813
330
8F9
100
AcDbEntity
  8
SERVICESPACE
  6
Continuous
100
AcDbLine
 10
-215.0
 20
-1720.0
 30
0.0
 11
515.0000000000001
 21
-1720.0
 31
0.0
  0
LINE
  5
814
330
8F9
100
AcDbEntity
  8
SERVICESPACE
  6
Continuous
100
AcDbLine
 10
-215.0
 20
-1720.0
 30
0.0
 11
215.0000000000003
 21
-1120.0
 31
0.0
  0
LINE
  5
815
330
8F9
100
AcDbEntity
  8
SERVICESPACE
  6
Continuous
100
AcDbLine
 10
-215.0
 20
-1120.0
 30
0.0
 11
215.0000000000003
 21
-1720.0
 31
0.0
  0
LINE
  5
816
330
8F9
100
AcDbEntity
  8
SERVICESPACE
  6
Continuous
100
AcDbLine
 10
215.0000000000003
 20
-1720.0
 30
0.0
 11
215.0000000000003
 21
0.0
 31
0.0
  0
LINE
  5
817
330
8F9
100
AcDbEntity
  8
SERVICESPACE
  6
Continuous
100
AcDbLine
 10
-215.0
 20
-1720.0
 30
0.0
 11
-215.0
 21
-1120.0
 31
0.0
  0
LINE
  5
818
330
8F9
100
AcDbEntity
  8
SERVICESPACE
  6
Continuous
100
AcDbLine
 10
-215.0
 20
-1120.0
 30
0.0
 11
215.0000000000003
 21
-1120.0
 31
0.0
  0
TEXT
  5
81B
330
8F9
100
AcDbEntity
  8
ETC
  6
Continuous
100
AcDbText
 10
847.6175537109375
 20
192.8077239990234
 30
0.0
 40
40.0
  1
TST375Z6
 50
359.9999956742889
 41
0.6125000238418579
  7
STANDARD1
100
AcDbText
  0
TEXT
  5
81C
330
8F9
100
AcDbEntity
  8
ETC
  6
Continuous
100
AcDbText
 10
847.6175537109375
 20
122.8077316284179
 30
0.0
 40
40.0
  1
貯湯ユニット
 50
359.9999956742889
 41
0.84375
  7
STANDARD1
100
AcDbText
  0
ARC
  5
821
330
8F9
100
AcDbEntity
  8
DETAIL
  6
Continuous
100
AcDbCircle
 10
-178.0
 20
-1047.5
 30
0.0
 40
12.0
100
AcDbArc
 50
0.0
 51
180.0
  0
ARC
  5
822
330
8F9
100
AcDbEntity
  8
DETAIL
  6
Continuous
100
AcDbCircle
 10
-178.0
 20
-1070.5
 30
0.0
 40
12.0
100
AcDbArc
 50
180.0
 51
0.0
  0
LINE
  5
823
330
8F9
100
AcDbEntity
  8
DETAIL
  6
Continuous
100
AcDbLine
 10
-166.0
 20
-1047.5
 30
0.0
 11
-166.0
 21
-1070.5
 31
0.0
  0
LINE
  5
824
330
8F9
100
AcDbEntity
  8
DETAIL
  6
Continuous
100
AcDbLine
 10
-190.0
 20
-1047.5
 30
0.0
 11
-190.0
 21
-1070.5
 31
0.0
  0
ARC
  5
825
330
8F9
100
AcDbEntity
  8
DETAIL
  6
Continuous
100
AcDbCircle
 10
-126.0
 20
-1077.0
 30
0.0
 40
13.0
100
AcDbArc
 50
90.0
 51
270.0
  0
ARC
  5
826
330
8F9
100
AcDbEntity
  8
DETAIL
  6
Continuous
100
AcDbCircle
 10
-96.0
 20
-1077.0
 30
0.0
 40
16.0
100
AcDbArc
 50
270.0
 51
101.4211862749994
  0
LINE
  5
827
330
8F9
100
AcDbEntity
  8
DETAIL
  6
Continuous
100
AcDbLine
 10
-99.1683168316832
 20
-1061.316831683168
 30
0.0
 11
-126.0
 21
-1064.0
 31
0.0
  0
LINE
  5
828
330
8F9
100
AcDbEntity
  8
DETAIL
  6
Continuous
100
AcDbLine
 10
-126.0
 20
-1090.0
 30
0.0
 11
-96.0
 21
-1093.0
 31
0.0
  0
ARC
  5
9FB
330
8F9
100
AcDbEntity
  8
DETAIL
  6
Continuous
100
AcDbCircle
 10
152.0
 20
-909.0
 30
0.0
 40
34.99999999999977
100
AcDbArc
 50
193.7781463383896
 51
66.10449181383938
  0
ARC
  5
9FC
330
8F9
100
AcDbEntity
  8
DETAIL
  6
Continuous
100
AcDbCircle
 10
152.0
 20
-909.0
 30
0.0
 40
24.99999999999998
100
AcDbArc
 50
201.1001960240931
 51
158.8998039759067
  0
ARC
  5
9FD
330
8F9
100
AcDbEntity
  8
DETAIL
  6
Continuous
100
AcDbCircle
 10
152.0
 20
-909.0
 30
0.0
 40
22.99999999999997
100
AcDbArc
 50
203.0356841059414
 51
156.9643158940583
  0
LINE
  5
A2B
330
8F9
100
AcDbEntity
  8
DETAIL
  6
Continuous
100
AcDbLine
 10
120.0000000000002
 20
-900.0
 30
0.0
 11
117.0000000000002
 21
-901.0
 31
0.0
  0
LINE
  5
A2C
330
8F9
100
AcDbEntity
  8
DETAIL
  6
Continuous
100
AcDbLine
 10
120.0000000000002
 20
-918.0
 30
0.0
 11
117.0000000000002
 21
-917.0
 31
0.0
  0
LINE
  5
A2D
330
8F9
100
AcDbEntity
  8
DETAIL
  6
Continuous
100
AcDbLine
 10
120.0000000000002
 20
-918.0
 30
0.0
 11
120.0000000000002
 21
-900.0
 31
0.0
  0
LINE
  5
A2E
330
8F9
100
AcDbEntity
  8
DETAIL
  6
Continuous
100
AcDbLine
 10
144.0627460668062
 20
-900.0
 30
0.0
 11
120.0000000000002
 21
-900.0
 31
0.0
  0
LINE
  5
A2F
330
8F9
100
AcDbEntity
  8
DETAIL
  6
Continuous
100
AcDbLine
 10
144.0627460668062
 20
-918.0
 30
0.0
 11
120.0000000000002
 21
-918.0
 31
0.0
  0
LINE
  5
A30
330
8F9
100
AcDbEntity
  8
DETAIL
  6
Continuous
100
AcDbLine
 10
117.0000000000002
 20
-917.0
 30
0.0
 11
117.0000000000002
 21
-901.0
 31
0.0
  0
ARC
  5
A34
330
8F9
100
AcDbEntity
  8
DETAIL
  6
Continuous
100
AcDbCircle
 10
152.0
 20
-909.0
 30
0.0
 40
12.0
100
AcDbArc
 50
228.590377890729
 51
131.4096221092701
  0
ARC
  5
A35
330
8F9
100
AcDbEntity
  8
DETAIL
  6
Continuous
100
AcDbCircle
 10
152.0
 20
-909.0
 30
0.0
 40
22.99999999999997
100
AcDbArc
 50
203.0356841059414
 51
6.964315894058947
  0
ARC
  5
A36
330
8F9
100
AcDbEntity
  8
DETAIL
  6
Continuous
100
AcDbCircle
 10
152.0
 20
-909.0
 30
0.0
 40
24.99999999999997
100
AcDbArc
 50
201.1001960240931
 51
8.899803975907232
  0
ARC
  5
A37
330
8F9
100
AcDbEntity
  8
DETAIL
  6
Continuous
100
AcDbCircle
 10
151.9999999999998
 20
-908.9999999999996
 30
0.0
 40
34.99999999999985
100
AcDbArc
 50
193.7781463383899
 51
16.22185366160931
  0
LINE
  5
AA8
330
8F9
100
AcDbEntity
  8
NOTE
  6
Continuous
100
AcDbLine
 10
137.0
 20
-909.0
 30
0.0
 11
97.00000000000029
 21
-909.0
 31
0.0
  0
LINE
  5
AA9
330
8F9
100
AcDbEntity
  8
NOTE
  6
Continuous
100
AcDbLine
 10
117.0000000000003
 20
-929.0
 30
0.0
 11
117.0000000000003
 21
-889.0
 31
0.0
  0
ARC
  5
B98
330
8F9
100
AcDbEntity
  8
DETAIL
  6
Continuous
100
AcDbCircle
 10
152.0
 20
-909.0
 30
0.0
 40
34.99999999999977
100
AcDbArc
 50
113.8955081861606
 51
166.2218536616102
  0
ARC
  5
B99
330
8F9
100
AcDbEntity
  8
DETAIL
  6
DASHED
100
AcDbCircle
 10
152.0
 20
-909.0
 30
0.0
 40
34.99999999999977
100
AcDbArc
 50
66.10449181383852
 51
113.8955081861614
  0
DIMENSION
  5
1180
330
8F9
100
AcDbEntity
  8
SIZE
  6
Continuous
100
AcDbDimension
  2
*D3
 10
-145.0
 20
110.871518711112
 30
0.0
 11
-180.0
 21
135.871518711112
 31
0.0
 70
    32
 71
     5
 42
70.0
 73
     0
 74
     0
 75
     0
  3
STANDARD
100
AcDbAlignedDimension
 13
-215.0
 23
-20.0
 33
0.0
 14
-145.0
 24
-2.0
 34
0.0
100
AcDbRotatedDimension
1001
ACAD
1000
DSTYLE
1002
{
1070
    41
1040
10.0
1070
    42
1040
10.0
1070
    43
1040
8.0
1070
    44
1040
12.5
1070
    73
1070
     0
1070
    74
1070
     0
1070
    77
1070
     3
1070
    78
1070
    12
1070
   140
1040
30.0
1070
   141
1040
2.5
1070
   146
1040
0.7142857313156129
1070
   147
1040
10.0
1070
   171
1070
     4
1070
   172
1070
     1
1070
   173
1070
     1
1070
   271
1070
     4
1070
   272
1070
     4
1070
   274
1070
     2
1070
   279
1070
     0
1070
   284
1070
     0
1070
   285
1070
     0
1070
   286
1070
     0
1070
   340
1005
8DF
1070
   341
1005
961
1070
   343
1005
961
1070
   344
1005
961
1002
}
  0
DIMENSION
  5
118D
330
8F9
100
AcDbEntity
  8
SIZE
  6
Continuous
100
AcDbDimension
  2
*D4
 10
145.0
 20
110.871518711112
 30
0.0
 11
0.0000000000000015
 21
135.871518711112
 31
0.0
 70
    32
 71
     5
 42
290.0
 73
     0
 74
     0
 75
     0
  3
STANDARD
100
AcDbAlignedDimension
 13
-145.0
 23
-2.0
 33
0.0
 14
145.0
 24
-1.99999999999998
 34
0.0
100
AcDbRotatedDimension
1001
ACAD
1000
DSTYLE
1002
{
1070
    41
1040
10.0
1070
    42
1040
10.0
1070
    43
1040
8.0
1070
    44
1040
12.5
1070
    73
1070
     0
1070
    74
1070
     0
1070
    77
1070
     3
1070
    78
1070
    12
1070
   140
1040
30.0
1070
   141
1040
2.5
1070
   146
1040
0.7142857313156129
1070
   147
1040
10.0
1070
   171
1070
     4
1070
   172
1070
     1
1070
   173
1070
     1
1070
   271
1070
     4
1070
   272
1070
     4
1070
   274
1070
     2
1070
   279
1070
     0
1070
   284
1070
     0
1070
   285
1070
     0
1070
   286
1070
     0
1070
   340
1005
8DF
1070
   341
1005
961
1070
   343
1005
961
1070
   344
1005
961
1002
}
  0
DIMENSION
  5
119A
330
8F9
100
AcDbEntity
  8
SIZE
  6
Continuous
100
AcDbDimension
  2
*D5
 10
215.0000000000003
 20
110.871518711112
 30
0.0
 11
180.0000000000002
 21
135.871518711112
 31
0.0
 70
    32
 71
     5
 42
70.00000000000031
 73
     0
 74
     0
 75
     0
  3
STANDARD
100
AcDbAlignedDimension
 13
145.0
 23
-1.99999999999998
 33
0.0
 14
215.0000000000003
 24
0.0
 34
0.0
100
AcDbRotatedDimension
1001
ACAD
1000
DSTYLE
1002
{
1070
    41
1040
10.0
1070
    42
1040
10.0
1070
    43
1040
8.0
1070
    44
1040
12.5
1070
    73
1070
     0
1070
    74
1070
     0
1070
    77
1070
     3
1070
    78
1070
    12
1070
   140
1040
30.0
1070
   141
1040
2.5
1070
   146
1040
0.7142857313156129
1070
   147
1040
10.0
1070
   171
1070
     4
1070
   172
1070
     1
1070
   173
1070
     1
1070
   271
1070
     4
1070
   272
1070
     4
1070
   274
1070
     2
1070
   279
1070
     0
1070
   284
1070
     0
1070
   285
1070
     0
1070
   286
1070
     0
1070
   340
1005
8DF
1070
   341
1005
961
1070
   343
1005
961
1070
   344
1005
961
1002
}
  0
DIMENSION
  5
11A7
330
8F9
100
AcDbEntity
  8
SIZE
  6
Continuous
100
AcDbDimension
  2
*D6
 10
215.0000000000003
 20
210.871518711112
 30
0.0
 11
-0.2122420735104242
 21
210.871518711112
 31
0.0
 70
   160
 71
     5
 42
430.0000000000003
 73
     0
 74
     0
 75
     0
  3
STANDARD
100
AcDbAlignedDimension
 13
-215.0
 23
-20.0
 33
0.0
 14
215.0000000000003
 24
0.0
 34
0.0
100
AcDbRotatedDimension
1001
ACAD
1000
DSTYLE
1002
{
1070
    41
1040
10.0
1070
    42
1040
10.0
1070
    43
1040
8.0
1070
    44
1040
12.5
1070
    73
1070
     0
1070
    74
1070
     0
1070
    77
1070
     3
1070
    78
1070
    12
1070
   140
1040
30.0
1070
   141
1040
2.5
1070
   146
1040
0.7142857313156129
1070
   147
1040
10.0
1070
   171
1070
     4
1070
   172
1070
     1
1070
   173
1070
     1
1070
   271
1070
     4
1070
   272
1070
     4
1070
   274
1070
     2
1070
   279
1070
     0
1070
   284
1070
     0
1070
   285
1070
     0
1070
   286
1070
     0
1070
   340
1005
8DF
1070
   341
1005
961
1070
   343
1005
961
1070
   344
1005
961
1002
}
  0
DIMENSION
  5
11DF
330
8F9
100
AcDbEntity
  8
SIZE
  6
Continuous
100
AcDbDimension
  2
*D7
 10
-1019.203898865075
 20
-1120.0
 30
0.0
 11
-1044.203898865075
 21
-1420.0
 31
0.0
 70
    32
 71
     5
 42
600.0000000000002
 73
     0
 74
     0
 75
     0
  3
STANDARD
100
AcDbAlignedDimension
 13
-215.0
 23
-1720.0
 33
0.0
 14
-215.0
 24
-1120.0
 34
0.0
 50
90.0
100
AcDbRotatedDimension
1001
ACAD
1000
DSTYLE
1002
{
1070
    41
1040
10.0
1070
    42
1040
10.0
1070
    43
1040
100.0
1070
    44
1040
12.5
1070
    73
1070
     0
1070
    74
1070
     0
1070
    77
1070
     3
1070
    78
1070
    12
1070
   140
1040
30.0
1070
   141
1040
2.5
1070
   146
1040
0.7142857313156129
1070
   147
1040
10.0
1070
   171
1070
     4
1070
   172
1070
     1
1070
   173
1070
     1
1070
   271
1070
     4
1070
   272
1070
     4
1070
   274
1070
     2
1070
   279
1070
     0
1070
   284
1070
     0
1070
   285
1070
     0
1070
   286
1070
     0
1070
   340
1005
8DF
1070
   341
1005
961
1070
   343
1005
961
1070
   344
1005
961
1002
}
  0
DIMENSION
  5
11EC
330
8F9
100
AcDbEntity
  8
SIZE
  6
Continuous
100
AcDbDimension
  2
*D8
 10
-1019.203898865076
 20
-0.0000000000001325
 30
0.0
 11
-1044.203898865075
 21
-560.0
 31
0.0
 70
    32
 71
     5
 42
1120.0
 73
     0
 74
     0
 75
     0
  3
STANDARD
100
AcDbAlignedDimension
 13
-215.0
 23
-1120.0
 33
0.0
 14
-195.0
 24
0.0
 34
0.0
 50
90.0
100
AcDbRotatedDimension
1001
ACAD
1000
DSTYLE
1002
{
1070
    41
1040
10.0
1070
    42
1040
10.0
1070
    43
1040
100.0
1070
    44
1040
12.5
1070
    73
1070
     0
1070
    74
1070
     0
1070
    77
1070
     3
1070
    78
1070
    12
1070
   140
1040
30.0
1070
   141
1040
2.5
1070
   146
1040
0.7142857313156129
1070
   147
1040
10.0
1070
   171
1070
     4
1070
   172
1070
     1
1070
   173
1070
     1
1070
   271
1070
     4
1070
   272
1070
     4
1070
   274
1070
     2
1070
   279
1070
     0
1070
   284
1070
     0
1070
   285
1070
     0
1070
   286
1070
     0
1070
   340
1005
8DF
1070
   341
1005
961
1070
   343
1005
961
1070
   344
1005
961
1002
}
  0
DIMENSION
  5
122C
330
8F9
100
AcDbEntity
  8
SIZE
  6
Continuous
100
AcDbDimension
  2
*D9
 10
-916.6414912749901
 20
-0.000000000000116
 30
0.0
 11
-941.6414912749898
 21
55.00000000000014
 31
0.0
 70
    32
 71
     5
 42
22.00000000000001
 73
     0
 74
     0
 75
     0
  3
STANDARD
100
AcDbAlignedDimension
 13
-159.115353147361
 23
-22.0
 33
0.0
 14
-195.0
 24
0.0
 34
0.0
 50
90.0
100
AcDbRotatedDimension
1001
ACAD
1000
DSTYLE
1002
{
1070
    41
1040
10.0
1070
    42
1040
10.0
1070
    43
1040
100.0
1070
    44
1040
12.5
1070
    73
1070
     0
1070
    74
1070
     0
1070
    77
1070
     3
1070
    78
1070
    12
1070
   140
1040
30.0
1070
   141
1040
2.5
1070
   146
1040
0.7142857313156129
1070
   147
1040
10.0
1070
   171
1070
     4
1070
   172
1070
     1
1070
   173
1070
     1
1070
   271
1070
     4
1070
   272
1070
     4
1070
   274
1070
     2
1070
   279
1070
     0
1070
   284
1070
     0
1070
   285
1070
     0
1070
   286
1070
     0
1070
   340
1005
8DF
1070
   341
1005
961
1070
   343
1005
961
1070
   344
1005
961
1002
}
  0
DIMENSION
  5
123B
330
8F9
100
AcDbEntity
  8
SIZE
  6
Continuous
100
AcDbDimension
  2
*D10
 10
-816.6414912749905
 20
-925.0000000000007
 30
0.0
 11
-841.6414912749905
 21
-1022.5
 31
0.0
 70
    32
 71
     5
 42
195.0
 73
     0
 74
     0
 75
     0
  3
STANDARD
100
AcDbAlignedDimension
 13
-215.0
 23
-1120.0
 33
0.0
 14
-88.00000000000002
 24
-925.0
 34
0.0
 50
90.0
100
AcDbRotatedDimension
1001
ACAD
1000
DSTYLE
1002
{
1070
    41
1040
10.0
1070
    42
1040
10.0
1070
    43
1040
100.0
1070
    44
1040
12.5
1070
    73
1070
     0
1070
    74
1070
     0
1070
    77
1070
     3
1070
    78
1070
    12
1070
   140
1040
30.0
1070
   141
1040
2.5
1070
   146
1040
0.7142857313156129
1070
   147
1040
10.0
1070
   171
1070
     4
1070
   172
1070
     1
1070
   173
1070
     1
1070
   271
1070
     4
1070
   272
1070
     4
1070
   274
1070
     2
1070
   279
1070
     0
1070
   284
1070
     0
1070
   285
1070
     0
1070
   286
1070
     0
1070
   340
1005
8DF
1070
   341
1005
961
1070
   343
1005
961
1070
   344
1005
961
1002
}
  0
DIMENSION
  5
1248
330
8F9
100
AcDbEntity
  8
SIZE
  6
Continuous
100
AcDbDimension
  2
*D11
 10
-716.6414912749902
 20
-968.0000000000005
 30
0.0
 11
-741.6414912749904
 21
-1044.0
 31
0.0
 70
    32
 71
     5
 42
152.0
 73
     0
 74
     0
 75
     0
  3
STANDARD
100
AcDbAlignedDimension
 13
-215.0
 23
-1120.0
 33
0.0
 14
-215.0
 24
-968.0
 34
0.0
 50
90.0
100
AcDbRotatedDimension
1001
ACAD
1000
DSTYLE
1002
{
1070
    41
1040
10.0
1070
    42
1040
10.0
1070
    43
1040
100.0
1070
    44
1040
12.5
1070
    73
1070
     0
1070
    74
1070
     0
1070
    77
1070
     3
1070
    78
1070
    12
1070
   140
1040
30.0
1070
   141
1040
2.5
1070
   146
1040
0.7142857313156129
1070
   147
1040
10.0
1070
   171
1070
     4
1070
   172
1070
     1
1070
   173
1070
     1
1070
   271
1070
     4
1070
   272
1070
     4
1070
   274
1070
     2
1070
   279
1070
     0
1070
   284
1070
     0
1070
   285
1070
     0
1070
   286
1070
     0
1070
   340
1005
8DF
1070
   341
1005
961
1070
   343
1005
961
1070
   344
1005
961
1002
}
  0
DIMENSION
  5
1255
330
8F9
100
AcDbEntity
  8
SIZE
  6
Continuous
100
AcDbDimension
  2
*D12
 10
-616.6414912749902
 20
-1011.000000000001
 30
0.0
 11
-641.6414912749904
 21
-1065.5
 31
0.0
 70
    32
 71
     5
 42
109.0
 73
     0
 74
     0
 75
     0
  3
STANDARD
100
AcDbAlignedDimension
 13
-215.0
 23
-1120.0
 33
0.0
 14
-73.0
 24
-1011.0
 34
0.0
 50
90.0
100
AcDbRotatedDimension
1001
ACAD
1000
DSTYLE
1002
{
1070
    41
1040
10.0
1070
    42
1040
10.0
1070
    43
1040
100.0
1070
    44
1040
12.5
1070
    73
1070
     0
1070
    74
1070
     0
1070
    77
1070
     3
1070
    78
1070
    12
1070
   140
1040
30.0
1070
   141
1040
2.5
1070
   146
1040
0.7142857313156129
1070
   147
1040
10.0
1070
   171
1070
     4
1070
   172
1070
     1
1070
   173
1070
     1
1070
   271
1070
     4
1070
   272
1070
     4
1070
   274
1070
     2
1070
   279
1070
     0
1070
   284
1070
     0
1070
   285
1070
     0
1070
   286
1070
     0
1070
   340
1005
8DF
1070
   341
1005
961
1070
   343
1005
961
1070
   344
1005
961
1002
}
  0
DIMENSION
  5
1262
330
8F9
100
AcDbEntity
  8
SIZE
  6
Continuous
100
AcDbDimension
  2
*D13
 10
-516.6414912749899
 20
-1059.000000000001
 30
0.0
 11
-541.6414912749901
 21
-1089.5
 31
0.0
 70
    32
 71
     5
 42
61.0
 73
     0
 74
     0
 75
     0
  3
STANDARD
100
AcDbAlignedDimension
 13
-215.0
 23
-1120.0
 33
0.0
 14
-198.0
 24
-1059.0
 34
0.0
 50
90.0
100
AcDbRotatedDimension
1001
ACAD
1000
DSTYLE
1002
{
1070
    41
1040
10.0
1070
    42
1040
10.0
1070
    43
1040
100.0
1070
    44
1040
12.5
1070
    73
1070
     0
1070
    74
1070
     0
1070
    77
1070
     3
1070
    78
1070
    12
1070
   140
1040
30.0
1070
   141
1040
2.5
1070
   146
1040
0.7142857313156129
1070
   147
1040
10.0
1070
   171
1070
     4
1070
   172
1070
     1
1070
   173
1070
     1
1070
   271
1070
     4
1070
   272
1070
     4
1070
   274
1070
     2
1070
   279
1070
     0
1070
   284
1070
     0
1070
   285
1070
     0
1070
   286
1070
     0
1070
   340
1005
8DF
1070
   341
1005
961
1070
   343
1005
961
1070
   344
1005
961
1002
}
  0
DIMENSION
  5
126F
330
8F9
100
AcDbEntity
  8
SIZE
  6
Continuous
100
AcDbDimension
  2
*D14
 10
890.881629449753
 20
-1058.999962654774
 30
0.0
 11
865.8816294497524
 21
-1089.499981327387
 31
0.0
 70
    32
 71
     5
 42
61.00003734522601
 73
     0
 74
     0
 75
     0
  3
STANDARD
100
AcDbAlignedDimension
 13
215.0000000000003
 23
-1120.0
 33
0.0
 14
54.0
 24
-1058.999962654774
 34
0.0
 50
90.0
100
AcDbRotatedDimension
1001
ACAD
1000
DSTYLE
1002
{
1070
    41
1040
10.0
1070
    42
1040
10.0
1070
    43
1040
100.0
1070
    44
1040
12.5
1070
    73
1070
     0
1070
    74
1070
     0
1070
    77
1070
     3
1070
    78
1070
    12
1070
   140
1040
30.0
1070
   141
1040
2.5
1070
   146
1040
0.7142857313156129
1070
   147
1040
10.0
1070
   171
1070
     4
1070
   172
1070
     1
1070
   173
1070
     1
1070
   271
1070
     4
1070
   272
1070
     4
1070
   274
1070
     2
1070
   279
1070
     0
1070
   284
1070
     0
1070
   285
1070
     0
1070
   286
1070
     0
1070
   340
1005
8DF
1070
   341
1005
961
1070
   343
1005
961
1070
   344
1005
961
1002
}
  0
DIMENSION
  5
128A
330
8F9
100
AcDbEntity
  8
SIZE
  6
Continuous
100
AcDbDimension
  2
*D15
 10
-416.6414912749899
 20
-1074.0
 30
0.0
 11
-416.6414912749901
 21
-1097.0
 31
0.0
 70
   160
 71
     5
 42
46.0
 73
     0
 74
     0
 75
     0
  3
STANDARD
100
AcDbAlignedDimension
 13
-215.0
 23
-1120.0
 33
0.0
 14
-47.0
 24
-1074.0
 34
0.0
 50
90.0
100
AcDbRotatedDimension
1001
ACAD
1000
DSTYLE
1002
{
1070
    41
1040
10.0
1070
    42
1040
10.0
1070
    43
1040
100.0
1070
    44
1040
12.5
1070
    73
1070
     0
1070
    74
1070
     0
1070
    77
1070
     3
1070
    78
1070
    12
1070
   140
1040
30.0
1070
   141
1040
2.5
1070
   146
1040
0.7142857313156129
1070
   147
1040
10.0
1070
   171
1070
     4
1070
   172
1070
     1
1070
   173
1070
     1
1070
   271
1070
     4
1070
   272
1070
     4
1070
   274
1070
     2
1070
   279
1070
     0
1070
   284
1070
     0
1070
   285
1070
     0
1070
   286
1070
     0
1070
   340
1005
8DF
1070
   341
1005
961
1070
   343
1005
961
1070
   344
1005
961
1002
}
  0
DIMENSION
  5
1298
330
8F9
100
AcDbEntity
  8
SIZE
  6
Continuous
100
AcDbDimension
  2
*D16
 10
-316.6414912749897
 20
-1077.0
 30
0.0
 11
-316.6414912749899
 21
-1098.5
 31
0.0
 70
   160
 71
     5
 42
43.0
 73
     0
 74
     0
 75
     0
  3
STANDARD
100
AcDbAlignedDimension
 13
-215.0
 23
-1120.0
 33
0.0
 14
-131.0
 24
-1077.0
 34
0.0
 50
90.0
100
AcDbRotatedDimension
1001
ACAD
1000
DSTYLE
1002
{
1070
    41
1040
10.0
1070
    42
1040
10.0
1070
    43
1040
100.0
1070
    44
1040
12.5
1070
    73
1070
     0
1070
    74
1070
     0
1070
    77
1070
     3
1070
    78
1070
    12
1070
   140
1040
30.0
1070
   141
1040
2.5
1070
   146
1040
0.7142857313156129
1070
   147
1040
10.0
1070
   171
1070
     4
1070
   172
1070
     1
1070
   173
1070
     1
1070
   271
1070
     4
1070
   272
1070
     4
1070
   274
1070
     2
1070
   279
1070
     0
1070
   284
1070
     0
1070
   285
1070
     0
1070
   286
1070
     0
1070
   340
1005
8DF
1070
   341
1005
961
1070
   343
1005
961
1070
   344
1005
961
1002
}
  0
DIMENSION
  5
12A6
330
8F9
100
AcDbEntity
  8
SIZE
  6
Continuous
100
AcDbDimension
  2
*D17
 10
690.8816294497523
 20
-1070.0
 30
0.0
 11
690.8816294497519
 21
-1095.0
 31
0.0
 70
   160
 71
     5
 42
50.0
 73
     0
 74
     0
 75
     0
  3
STANDARD
100
AcDbAlignedDimension
 13
215.0000000000003
 23
-1120.0
 33
0.0
 14
127.0000000000002
 24
-1070.0
 34
0.0
 50
90.0
100
AcDbRotatedDimension
1001
ACAD
1000
DSTYLE
1002
{
1070
    41
1040
10.0
1070
    42
1040
10.0
1070
    43
1040
100.0
1070
    44
1040
12.5
1070
    73
1070
     0
1070
    74
1070
     0
1070
    77
1070
     3
1070
    78
1070
    12
1070
   140
1040
30.0
1070
   141
1040
2.5
1070
   146
1040
0.7142857313156129
1070
   147
1040
10.0
1070
   171
1070
     4
1070
   172
1070
     1
1070
   173
1070
     1
1070
   271
1070
     4
1070
   272
1070
     4
1070
   274
1070
     2
1070
   279
1070
     0
1070
   284
1070
     0
1070
   285
1070
     0
1070
   286
1070
     0
1070
   340
1005
8DF
1070
   341
1005
961
1070
   343
1005
961
1070
   344
1005
961
1002
}
  0
DIMENSION
  5
12B4
330
8F9
100
AcDbEntity
  8
SIZE
  6
Continuous
100
AcDbDimension
  2
*D18
 10
990.8816294497524
 20
-909.0000000000001
 30
0.0
 11
990.8816294497519
 21
-1012.35939532653
 31
0.0
 70
   160
 71
     5
 42
211.0
 73
     0
 74
     0
 75
     0
  3
STANDARD
100
AcDbAlignedDimension
 13
215.0000000000003
 23
-1120.0
 33
0.0
 14
172.0
 24
-909.0
 34
0.0
 50
90.0
100
AcDbRotatedDimension
1001
ACAD
1000
DSTYLE
1002
{
1070
    41
1040
10.0
1070
    42
1040
10.0
1070
    43
1040
100.0
1070
    44
1040
12.5
1070
    73
1070
     0
1070
    74
1070
     0
1070
    77
1070
     3
1070
    78
1070
    12
1070
   140
1040
30.0
1070
   141
1040
2.5
1070
   146
1040
0.7142857313156129
1070
   147
1040
10.0
1070
   171
1070
     4
1070
   172
1070
     1
1070
   173
1070
     1
1070
   271
1070
     4
1070
   272
1070
     4
1070
   274
1070
     2
1070
   279
1070
     0
1070
   284
1070
     0
1070
   285
1070
     0
1070
   286
1070
     0
1070
   340
1005
8DF
1070
   341
1005
961
1070
   343
1005
961
1070
   344
1005
961
1002
}
  0
DIMENSION
  5
131D
330
8F9
100
AcDbEntity
  8
SIZE
  6
Continuous
100
AcDbDimension
  2
*D19
 10
-916.6414912749901
 20
-857.0000000000005
 30
0.0
 11
-941.6414912749901
 21
-988.5000000000001
 31
0.0
 70
    32
 71
     5
 42
263.0
 73
     0
 74
     0
 75
     0
  3
STANDARD
100
AcDbAlignedDimension
 13
-215.0
 23
-1120.0
 33
0.0
 14
113.09999999995
 24
-857.0
 34
0.0
 50
90.0
100
AcDbRotatedDimension
1001
ACAD
1000
DSTYLE
1002
{
1070
    41
1040
10.0
1070
    42
1040
10.0
1070
    43
1040
100.0
1070
    44
1040
12.5
1070
    73
1070
     0
1070
    74
1070
     0
1070
    77
1070
     3
1070
    78
1070
    12
1070
   140
1040
30.0
1070
   141
1040
2.5
1070
   146
1040
0.7142857313156129
1070
   147
1040
10.0
1070
   171
1070
     4
1070
   172
1070
     1
1070
   173
1070
     1
1070
   271
1070
     4
1070
   272
1070
     4
1070
   274
1070
     2
1070
   279
1070
     0
1070
   284
1070
     0
1070
   285
1070
     0
1070
   286
1070
     0
1070
   340
1005
8DF
1070
   341
1005
961
1070
   343
1005
961
1070
   344
1005
961
1002
}
  0
DIMENSION
  5
132A
330
8F9
100
AcDbEntity
  8
SIZE
  6
Continuous
100
AcDbDimension
  2
*D20
 10
-916.6414912749905
 20
-22.00000000000017
 30
0.0
 11
-941.6414912749903
 21
-439.5
 31
0.0
 70
    32
 71
     5
 42
835.0000000000003
 73
     0
 74
     0
 75
     0
  3
STANDARD
100
AcDbAlignedDimension
 13
125.0000000000001
 23
-857.0
 33
0.0
 14
125.0
 24
-21.99999999999999
 34
0.0
 50
90.0
100
AcDbRotatedDimension
1001
ACAD
1000
DSTYLE
1002
{
1070
    41
1040
10.0
1070
    42
1040
10.0
1070
    43
1040
100.0
1070
    44
1040
12.5
1070
    73
1070
     0
1070
    74
1070
     0
1070
    77
1070
     3
1070
    78
1070
    12
1070
   140
1040
30.0
1070
   141
1040
2.5
1070
   146
1040
0.7142857313156129
1070
   147
1040
10.0
1070
   171
1070
     4
1070
   172
1070
     1
1070
   173
1070
     1
1070
   271
1070
     4
1070
   272
1070
     4
1070
   274
1070
     2
1070
   279
1070
     0
1070
   284
1070
     0
1070
   285
1070
     0
1070
   286
1070
     0
1070
   340
1005
8DF
1070
   341
1005
961
1070
   343
1005
961
1070
   344
1005
961
1002
}
  0
DIMENSION
  5
13B3
330
8F9
100
AcDbEntity
  8
SIZE
  6
Continuous
100
AcDbDimension
  2
*D21
 10
215.0000000000003
 20
-2218.563141672217
 30
0.0
 11
6.924393581692129
 21
-2218.563141672217
 31
0.0
 70
   160
 71
     5
 42
430.0000000000003
 73
     0
 74
     0
 75
     0
  3
STANDARD
100
AcDbAlignedDimension
 13
-215.0
 23
-1720.0
 33
0.0
 14
215.0000000000003
 24
-1720.0
 34
0.0
100
AcDbRotatedDimension
1001
ACAD
1000
DSTYLE
1002
{
1070
    41
1040
10.0
1070
    42
1040
10.0
1070
    43
1040
100.0
1070
    44
1040
12.5
1070
    73
1070
     0
1070
    74
1070
     0
1070
    77
1070
     3
1070
    78
1070
    12
1070
   140
1040
30.0
1070
   141
1040
2.5
1070
   146
1040
0.7142857313156129
1070
   147
1040
10.0
1070
   171
1070
     4
1070
   172
1070
     1
1070
   173
1070
     1
1070
   271
1070
     4
1070
   272
1070
     4
1070
   274
1070
     2
1070
   279
1070
     0
1070
   284
1070
     0
1070
   285
1070
     0
1070
   286
1070
     0
1070
   340
1005
8DF
1070
   341
1005
961
1070
   343
1005
961
1070
   344
1005
961
1002
}
  0
DIMENSION
  5
1400
330
8F9
100
AcDbEntity
  8
SIZE
  6
Continuous
100
AcDbDimension
  2
*D23
 10
-178.0
 20
-1201.22130474131
 30
0.0
 11
-321.358675016796
 21
-1201.22130474131
 31
0.0
 70
   160
 71
     5
 42
37.0
 73
     0
 74
     0
 75
     0
  3
STANDARD
100
AcDbAlignedDimension
 13
-215.0
 23
-1120.0
 33
0.0
 14
-178.0
 24
-1079.0
 34
0.0
100
AcDbRotatedDimension
1001
ACAD
1000
DSTYLE
1002
{
1070
    41
1040
10.0
1070
    42
1040
10.0
1070
    43
1040
100.0
1070
    44
1040
12.5
1070
    73
1070
     0
1070
    74
1070
     0
1070
    77
1070
     3
1070
    78
1070
    12
1070
   140
1040
30.0
1070
   141
1040
2.5
1070
   146
1040
0.7142857313156129
1070
   147
1040
10.0
1070
   171
1070
     4
1070
   172
1070
     1
1070
   173
1070
     1
1070
   271
1070
     4
1070
   272
1070
     4
1070
   274
1070
     2
1070
   279
1070
     0
1070
   284
1070
     0
1070
   285
1070
     0
1070
   286
1070
     0
1070
   340
1005
8DF
1070
   341
1005
961
1070
   343
1005
961
1070
   344
1005
961
1002
}
  0
DIMENSION
  5
141A
330
8F9
100
AcDbEntity
  8
SIZE
  6
Continuous
100
AcDbDimension
  2
*D24
 10
-145.0
 20
-1499.239098484174
 30
0.0
 11
-180.0
 21
-1474.239098484174
 31
0.0
 70
    32
 71
     5
 42
70.0
 73
     0
 74
     0
 75
     0
  3
STANDARD
100
AcDbAlignedDimension
 13
-215.0
 23
-1720.0
 33
0.0
 14
-145.0
 24
-1031.0
 34
0.0
100
AcDbRotatedDimension
1001
ACAD
1000
DSTYLE
1002
{
1070
    41
1040
10.0
1070
    42
1040
10.0
1070
    43
1040
100.0
1070
    44
1040
12.5
1070
    73
1070
     0
1070
    74
1070
     0
1070
    77
1070
     3
1070
    78
1070
    12
1070
   140
1040
30.0
1070
   141
1040
2.5
1070
   146
1040
0.7142857313156129
1070
   147
1040
10.0
1070
   171
1070
     4
1070
   172
1070
     1
1070
   173
1070
     1
1070
   271
1070
     4
1070
   272
1070
     4
1070
   274
1070
     2
1070
   279
1070
     0
1070
   284
1070
     0
1070
   285
1070
     0
1070
   286
1070
     0
1070
   340
1005
8DF
1070
   341
1005
961
1070
   343
1005
961
1070
   344
1005
961
1002
}
  0
DIMENSION
  5
1427
330
8F9
100
AcDbEntity
  8
SIZE
  6
Continuous
100
AcDbDimension
  2
*D25
 10
-111.0
 20
-1599.239098484174
 30
0.0
 11
-163.0
 21
-1574.239098484174
 31
0.0
 70
    32
 71
     5
 42
104.0
 73
     0
 74
     0
 75
     0
  3
STANDARD
100
AcDbAlignedDimension
 13
-215.0
 23
-1120.0
 33
0.0
 14
-111.0
 24
-1097.0
 34
0.0
100
AcDbRotatedDimension
1001
ACAD
1000
DSTYLE
1002
{
1070
    41
1040
10.0
1070
    42
1040
10.0
1070
    43
1040
100.0
1070
    44
1040
12.5
1070
    73
1070
     0
1070
    74
1070
     0
1070
    77
1070
     3
1070
    78
1070
    12
1070
   140
1040
30.0
1070
   141
1040
2.5
1070
   146
1040
0.7142857313156129
1070
   147
1040
10.0
1070
   171
1070
     4
1070
   172
1070
     1
1070
   173
1070
     1
1070
   271
1070
     4
1070
   272
1070
     4
1070
   274
1070
     2
1070
   279
1070
     0
1070
   284
1070
     0
1070
   285
1070
     0
1070
   286
1070
     0
1070
   340
1005
8DF
1070
   341
1005
961
1070
   343
1005
961
1070
   344
1005
961
1002
}
  0
DIMENSION
  5
1434
330
8F9
100
AcDbEntity
  8
SIZE
  6
Continuous
100
AcDbDimension
  2
*D26
 10
-53.00000000000004
 20
-1699.239098484174
 30
0.0
 11
-132.804330547553
 21
-1699.239098484174
 31
0.0
 70
   160
 71
     5
 42
162.0
 73
     0
 74
     0
 75
     0
  3
STANDARD
100
AcDbAlignedDimension
 13
-215.0
 23
-1120.0
 33
0.0
 14
-53.0
 24
-1031.0
 34
0.0
100
AcDbRotatedDimension
1001
ACAD
1000
DSTYLE
1002
{
1070
    41
1040
10.0
1070
    42
1040
10.0
1070
    43
1040
100.0
1070
    44
1040
12.5
1070
    73
1070
     0
1070
    74
1070
     0
1070
    77
1070
     3
1070
    78
1070
    12
1070
   140
1040
30.0
1070
   141
1040
2.5
1070
   146
1040
0.7142857313156129
1070
   147
1040
10.0
1070
   171
1070
     4
1070
   172
1070
     1
1070
   173
1070
     1
1070
   271
1070
     4
1070
   272
1070
     4
1070
   274
1070
     2
1070
   279
1070
     0
1070
   284
1070
     0
1070
   285
1070
     0
1070
   286
1070
     0
1070
   340
1005
8DF
1070
   341
1005
961
1070
   343
1005
961
1070
   344
1005
961
1002
}
  0
DIMENSION
  5
1441
330
8F9
100
AcDbEntity
  8
SIZE
  6
Continuous
100
AcDbDimension
  2
*D27
 10
-27.00000000000005
 20
-1818.563141672217
 30
0.0
 11
-121.0
 21
-1793.563141672217
 31
0.0
 70
    32
 71
     5
 42
188.0
 73
     0
 74
     0
 75
     0
  3
STANDARD
100
AcDbAlignedDimension
 13
-215.0
 23
-1120.0
 33
0.0
 14
-27.0
 24
-1094.0
 34
0.0
100
AcDbRotatedDimension
1001
ACAD
1000
DSTYLE
1002
{
1070
    41
1040
10.0
1070
    42
1040
10.0
1070
    43
1040
100.0
1070
    44
1040
12.5
1070
    73
1070
     0
1070
    74
1070
     0
1070
    77
1070
     3
1070
    78
1070
    12
1070
   140
1040
30.0
1070
   141
1040
2.5
1070
   146
1040
0.7142857313156129
1070
   147
1040
10.0
1070
   171
1070
     4
1070
   172
1070
     1
1070
   173
1070
     1
1070
   271
1070
     4
1070
   272
1070
     4
1070
   274
1070
     2
1070
   279
1070
     0
1070
   284
1070
     0
1070
   285
1070
     0
1070
   286
1070
     0
1070
   340
1005
8DF
1070
   341
1005
961
1070
   343
1005
961
1070
   344
1005
961
1002
}
  0
DIMENSION
  5
144E
330
8F9
100
AcDbEntity
  8
SIZE
  6
Continuous
100
AcDbDimension
  2
*D28
 10
33.99999999999995
 20
-1918.563141672217
 30
0.0
 11
-90.50000000000006
 21
-1893.563141672217
 31
0.0
 70
    32
 71
     5
 42
249.0
 73
     0
 74
     0
 75
     0
  3
STANDARD
100
AcDbAlignedDimension
 13
-215.0
 23
-1120.0
 33
0.0
 14
34.0
 24
-1078.999962654774
 34
0.0
100
AcDbRotatedDimension
1001
ACAD
1000
DSTYLE
1002
{
1070
    41
1040
10.0
1070
    42
1040
10.0
1070
    43
1040
100.0
1070
    44
1040
12.5
1070
    73
1070
     0
1070
    74
1070
     0
1070
    77
1070
     3
1070
    78
1070
    12
1070
   140
1040
30.0
1070
   141
1040
2.5
1070
   146
1040
0.7142857313156129
1070
   147
1040
10.0
1070
   171
1070
     4
1070
   172
1070
     1
1070
   173
1070
     1
1070
   271
1070
     4
1070
   272
1070
     4
1070
   274
1070
     2
1070
   279
1070
     0
1070
   284
1070
     0
1070
   285
1070
     0
1070
   286
1070
     0
1070
   340
1005
8DF
1070
   341
1005
961
1070
   343
1005
961
1070
   344
1005
961
1002
}
  0
DIMENSION
  5
145B
330
8F9
100
AcDbEntity
  8
SIZE
  6
Continuous
100
AcDbDimension
  2
*D29
 10
107.0000000000001
 20
-2018.563141672217
 30
0.0
 11
-53.99999999999995
 21
-1993.563141672217
 31
0.0
 70
    32
 71
     5
 42
322.0000000000002
 73
     0
 74
     0
 75
     0
  3
STANDARD
100
AcDbAlignedDimension
 13
-215.0
 23
-1120.0
 33
0.0
 14
107.0000000000002
 24
-1090.0
 34
0.0
100
AcDbRotatedDimension
1001
ACAD
1000
DSTYLE
1002
{
1070
    41
1040
10.0
1070
    42
1040
10.0
1070
    43
1040
100.0
1070
    44
1040
12.5
1070
    73
1070
     0
1070
    74
1070
     0
1070
    77
1070
     3
1070
    78
1070
    12
1070
   140
1040
30.0
1070
   141
1040
2.5
1070
   146
1040
0.7142857313156129
1070
   147
1040
10.0
1070
   171
1070
     4
1070
   172
1070
     1
1070
   173
1070
     1
1070
   271
1070
     4
1070
   272
1070
     4
1070
   274
1070
     2
1070
   279
1070
     0
1070
   284
1070
     0
1070
   285
1070
     0
1070
   286
1070
     0
1070
   340
1005
8DF
1070
   341
1005
961
1070
   343
1005
961
1070
   344
1005
961
1002
}
  0
DIMENSION
  5
1468
330
8F9
100
AcDbEntity
  8
SIZE
  6
Continuous
100
AcDbDimension
  2
*D30
 10
167.0000000000001
 20
-2118.563141672217
 30
0.0
 11
-23.99999999999996
 21
-2093.563141672217
 31
0.0
 70
    32
 71
     5
 42
382.0000000000002
 73
     0
 74
     0
 75
     0
  3
STANDARD
100
AcDbAlignedDimension
 13
-215.0
 23
-1120.0
 33
0.0
 14
167.0000000000002
 24
-1080.0
 34
0.0
100
AcDbRotatedDimension
1001
ACAD
1000
DSTYLE
1002
{
1070
    41
1040
10.0
1070
    42
1040
10.0
1070
    43
1040
100.0
1070
    44
1040
12.5
1070
    73
1070
     0
1070
    74
1070
     0
1070
    77
1070
     3
1070
    78
1070
    12
1070
   140
1040
30.0
1070
   141
1040
2.5
1070
   146
1040
0.7142857313156129
1070
   147
1040
10.0
1070
   171
1070
     4
1070
   172
1070
     1
1070
   173
1070
     1
1070
   271
1070
     4
1070
   272
1070
     4
1070
   274
1070
     2
1070
   279
1070
     0
1070
   284
1070
     0
1070
   285
1070
     0
1070
   286
1070
     0
1070
   340
1005
8DF
1070
   341
1005
961
1070
   343
1005
961
1070
   344
1005
961
1002
}
  0
DIMENSION
  5
14D1
330
8F9
100
AcDbEntity
  8
SIZE
  6
Continuous
100
AcDbDimension
  2
*D31
 10
152.0000000000001
 20
-575.8920790638439
 30
0.0
 11
-49.01975606554334
 21
-575.8920790638439
 31
0.0
 70
   160
 71
     5
 42
367.0000000000001
 73
     0
 74
     0
 75
     0
  3
STANDARD
100
AcDbAlignedDimension
 13
-215.0
 23
-1120.0
 33
0.0
 14
152.0000000000001
 24
-929.0
 34
0.0
100
AcDbRotatedDimension
1001
ACAD
1000
DSTYLE
1002
{
1070
    41
1040
10.0
1070
    42
1040
10.0
1070
    43
1040
100.0
1070
    44
1040
12.5
1070
    73
1070
     0
1070
    74
1070
     0
1070
    77
1070
     3
1070
    78
1070
    12
1070
   140
1040
30.0
1070
   141
1040
2.5
1070
   146
1040
0.7142857313156129
1070
   147
1040
10.0
1070
   171
1070
     4
1070
   172
1070
     1
1070
   173
1070
     1
1070
   271
1070
     4
1070
   272
1070
     4
1070
   274
1070
     2
1070
   279
1070
     0
1070
   284
1070
     0
1070
   285
1070
     0
1070
   286
1070
     0
1070
   340
1005
8DF
1070
   341
1005
961
1070
   343
1005
961
1070
   344
1005
961
1002
}
  0
DIMENSION
  5
14DE
330
8F9
100
AcDbEntity
  8
SIZE
  6
Continuous
100
AcDbDimension
  2
*D32
 10
-68.00000000000001
 20
-675.8920790638439
 30
0.0
 11
-141.5
 21
-650.8920790638439
 31
0.0
 70
    32
 71
     5
 42
146.9999999999999
 73
     0
 74
     0
 75
     0
  3
STANDARD
100
AcDbAlignedDimension
 13
-215.0
 23
-1120.0
 33
0.0
 14
-68.00000000000003
 24
-905.0
 34
0.0
100
AcDbRotatedDimension
1001
ACAD
1000
DSTYLE
1002
{
1070
    41
1040
10.0
1070
    42
1040
10.0
1070
    43
1040
100.0
1070
    44
1040
12.5
1070
    73
1070
     0
1070
    74
1070
     0
1070
    77
1070
     3
1070
    78
1070
    12
1070
   140
1040
30.0
1070
   141
1040
2.5
1070
   146
1040
0.7142857313156129
1070
   147
1040
10.0
1070
   171
1070
     4
1070
   172
1070
     1
1070
   173
1070
     1
1070
   271
1070
     4
1070
   272
1070
     4
1070
   274
1070
     2
1070
   279
1070
     0
1070
   284
1070
     0
1070
   285
1070
     0
1070
   286
1070
     0
1070
   340
1005
8DF
1070
   341
1005
961
1070
   343
1005
961
1070
   344
1005
961
1002
}
  0
DIMENSION
  5
14EB
330
8F9
100
AcDbEntity
  8
SIZE
  6
Continuous
100
AcDbDimension
  2
*D33
 10
151.9999999999501
 20
-675.8920790638439
 30
0.0
 11
62.00000000000031
 21
-675.8920790638439
 31
0.0
 70
   160
 71
     5
 42
34.9999999999498
 73
     0
 74
     0
 75
     0
  3
STANDARD
100
AcDbAlignedDimension
 13
117.0000000000003
 23
-889.0
 33
0.0
 14
151.9999999999501
 24
-890.6227661216819
 34
0.0
100
AcDbRotatedDimension
1001
ACAD
1000
DSTYLE
1002
{
1070
    41
1040
10.0
1070
    42
1040
10.0
1070
    43
1040
100.0
1070
    44
1040
12.5
1070
    73
1070
     0
1070
    74
1070
     0
1070
    77
1070
     3
1070
    78
1070
    12
1070
   140
1040
30.0
1070
   141
1040
2.5
1070
   146
1040
0.7142857313156129
1070
   147
1040
10.0
1070
   171
1070
     4
1070
   172
1070
     1
1070
   173
1070
     1
1070
   271
1070
     4
1070
   272
1070
     4
1070
   274
1070
     2
1070
   279
1070
     0
1070
   284
1070
     0
1070
   285
1070
     0
1070
   286
1070
     0
1070
   340
1005
8DF
1070
   341
1005
961
1070
   343
1005
961
1070
   344
1005
961
1002
}
  0
DIMENSION
  5
153D
330
8F9
100
AcDbEntity
  8
SIZE
  6
Continuous
100
AcDbDimension
  2
*D34
 10
790.8816294497523
 20
-1060.0
 30
0.0
 11
790.8816294497518
 21
-1090.0
 31
0.0
 70
   160
 71
     5
 42
60.0
 73
     0
 74
     0
 75
     0
  3
STANDARD
100
AcDbAlignedDimension
 13
215.0000000000003
 23
-1120.0
 33
0.0
 14
187.0000000000002
 24
-1060.0
 34
0.0
 50
90.0
100
AcDbRotatedDimension
1001
ACAD
1000
DSTYLE
1002
{
1070
    41
1040
10.0
1070
    42
1040
10.0
1070
    43
1040
100.0
1070
    44
1040
12.5
1070
    73
1070
     0
1070
    74
1070
     0
1070
    77
1070
     3
1070
    78
1070
    12
1070
   140
1040
30.0
1070
   141
1040
2.5
1070
   146
1040
0.7142857313156129
1070
   147
1040
10.0
1070
   171
1070
     4
1070
   172
1070
     1
1070
   173
1070
     1
1070
   271
1070
     4
1070
   272
1070
     4
1070
   274
1070
     2
1070
   279
1070
     0
1070
   284
1070
     0
1070
   285
1070
     0
1070
   286
1070
     0
1070
   340
1005
8DF
1070
   341
1005
961
1070
   343
1005
961
1070
   344
1005
961
1002
}
  0
LINE
  5
157E
330
8F9
100
AcDbEntity
  8
NOTE
  6
Continuous
100
AcDbLine
 10
117.0000000000003
 20
-909.0
 30
0.0
 11
544.3028828683428
 21
-391.2824789197267
 31
0.0
  0
ENDSEC
  0
SECTION
  2
OBJECTS
  0
DICTIONARY
  5
896
330
0
100
AcDbDictionary
281
     1
  3
ACAD_CIP_PREVIOUS_PRODUCT_INFO
350
9AA
  3
ACAD_COLOR
350
8EC
  3
ACAD_DETAILVIEWSTYLE
350
8F3
  3
ACAD_GROUP
350
897
  3
ACAD_LAYOUT
350
8EB
  3
ACAD_MATERIAL
350
89A
  3
ACAD_MLEADERSTYLE
350
8EF
  3
ACAD_MLINESTYLE
350
8E8
  3
ACAD_PLOTSETTINGS
350
8EA
  3
ACAD_PLOTSTYLENAME
350
898
  3
ACAD_SCALELIST
350
8CC
  3
ACAD_SECTIONVIEWSTYLE
350
8F1
  3
ACAD_TABLESTYLE
350
8ED
  3
ACAD_VISUALSTYLE
350
8B3
  3
ACDB_RECOMPOSE_DATA
350
15E7
  3
AcDbVariableDictionary
350
9AB
  3
AcDsDecomposeData
350
15ED
  0
DICTIONARY
  5
A1D
330
88C
100
AcDbDictionary
280
     1
281
     1
  3
ACAD_LAYERSTATES
360
A1E
  0
DICTIONARY
  5
AAA
330
8DE
100
AcDbDictionary
280
     1
281
     1
  3
ADSK_XREC_LAYER_RECONCILED
360
AAB
  0
DICTIONARY
  5
AAC
330
8FD
100
AcDbDictionary
280
     1
281
     1
  3
ADSK_XREC_LAYER_RECONCILED
360
AAD
  0
DICTIONARY
  5
AAE
330
904
100
AcDbDictionary
280
     1
281
     1
  3
ADSK_XREC_LAYER_RECONCILED
360
AAF
  0
DICTIONARY
  5
AB0
330
905
100
AcDbDictionary
280
     1
281
     1
  3
ADSK_XREC_LAYER_RECONCILED
360
AB1
  0
DICTIONARY
  5
AB2
330
906
100
AcDbDictionary
280
     1
281
     1
  3
ADSK_XREC_LAYER_RECONCILED
360
AB3
  0
DICTIONARY
  5
AB4
330
907
100
AcDbDictionary
280
     1
281
     1
  3
ADSK_XREC_LAYER_RECONCILED
360
AB5
  0
DICTIONARY
  5
AB6
330
908
100
AcDbDictionary
280
     1
281
     1
  3
ADSK_XREC_LAYER_RECONCILED
360
AB7
  0
DICTIONARY
  5
AB8
330
909
100
AcDbDictionary
280
     1
281
     1
  3
ADSK_XREC_LAYER_RECONCILED
360
AB9
  0
DICTIONARY
  5
ABA
330
90A
100
AcDbDictionary
280
     1
281
     1
  3
ADSK_XREC_LAYER_RECONCILED
360
ABB
  0
DICTIONARY
  5
ABC
330
90B
100
AcDbDictionary
280
     1
281
     1
  3
ADSK_XREC_LAYER_RECONCILED
360
ABD
  0
DICTIONARY
  5
ABE
330
90C
100
AcDbDictionary
280
     1
281
     1
  3
ADSK_XREC_LAYER_RECONCILED
360
ABF
  0
DICTIONARY
  5
9F5
330
8F9
100
AcDbDictionary
280
     1
281
     1
  3
ACAD_SORTENTS
360
9F6
  0
XRECORD
  5
9AA
102
{ACAD_REACTORS
330
896
102
}
330
896
100
AcDbXrecord
280
     1
300
ACDLT
300
2018
300
86831ACDLT_2018_0F
  0
DICTIONARY
  5
8EC
102
{ACAD_REACTORS
330
896
102
}
330
896
100
AcDbDictionary
281
     1
  0
DICTIONARY
  5
8F3
102
{ACAD_REACTORS
330
896
102
}
330
896
100
AcDbDictionary
281
     1
  3
Imperial24
350
8F4
  0
DICTIONARY
  5
897
102
{ACAD_REACTORS
330
896
102
}
330
896
100
AcDbDictionary
281
     1
  0
DICTIONARY
  5
8EB
102
{ACAD_REACTORS
330
896
102
}
330
896
100
AcDbDictionary
281
     1
  3
Model
350
8FC
  3
レイアウト1
350
8F8
  0
DICTIONARY
  5
89A
102
{ACAD_REACTORS
330
896
102
}
330
896
100
AcDbDictionary
281
     1
  3
ByBlock
350
8A3
  3
ByLayer
350
89B
  3
Global
350
8AB
  0
DICTIONARY
  5
8EF
102
{ACAD_REACTORS
330
896
102
}
330
896
100
AcDbDictionary
281
     1
  3
Standard
350
8F0
  0
DICTIONARY
  5
8E8
102
{ACAD_REACTORS
330
896
102
}
330
896
100
AcDbDictionary
281
     1
  3
Standard
350
8E9
  0
DICTIONARY
  5
8EA
102
{ACAD_REACTORS
330
896
102
}
330
896
100
AcDbDictionary
281
     1
  0
ACDBDICTIONARYWDFLT
  5
898
102
{ACAD_REACTORS
330
896
102
}
330
896
100
AcDbDictionary
281
     1
  3
Normal
350
899
100
AcDbDictionaryWithDefault
340
899
  0
DICTIONARY
  5
8CC
102
{ACAD_REACTORS
330
896
102
}
330
896
100
AcDbDictionary
281
     1
  3
A0
350
8CD
  3
A1
350
8CE
  3
A2
350
8CF
  3
A3
350
8D0
  3
A4
350
8D1
  3
A5
350
8D2
  3
A6
350
8D3
  3
A7
350
8D4
  3
A8
350
8D5
  3
A9
350
8D6
  3
B0
350
8D7
  3
B1
350
8D8
  3
B2
350
8D9
  3
B3
350
8DA
  3
B4
350
8DB
  3
B5
350
8DC
  3
B6
350
8DD
  0
DICTIONARY
  5
8F1
102
{ACAD_REACTORS
330
896
102
}
330
896
100
AcDbDictionary
281
     1
  3
Imperial24
350
8F2
  0
DICTIONARY
  5
8ED
102
{ACAD_REACTORS
330
896
102
}
330
896
100
AcDbDictionary
281
     1
  3
Standard
350
8EE
  0
DICTIONARY
  5
8B3
102
{ACAD_REACTORS
330
896
102
}
330
896
100
AcDbDictionary
281
     1
  3
2dWireframe
350
8B9
  3
Basic
350
8B8
  3
Brighten
350
8BF
  3
ColorChange
350
8C3
  3
Conceptual
350
8BC
  3
Dim
350
8BE
  3
EdgeColorOff
350
8CB
  3
Facepattern
350
8C2
  3
Flat
350
8B4
  3
FlatWithEdges
350
8B5
  3
Gouraud
350
8B6
  3
GouraudWithEdges
350
8B7
  3
Hidden
350
8BB
  3
JitterOff
350
8C9
  3
Linepattern
350
8C1
  3
OverhangOff
350
8CA
  3
Realistic
350
8BD
  3
Shaded
350
8C8
  3
Shaded with edges
350
8C7
  3
Shades of Gray
350
8C4
  3
Sketchy
350
8C5
  3
Thicken
350
8C0
  3
Wireframe
350
8BA
  3
X-Ray
350
8C6
  0
XRECORD
  5
15E7
102
{ACAD_REACTORS
330
896
102
}
330
896
100
AcDbXrecord
280
     1
 90
        1
330
8EE
  0
DICTIONARY
  5
9AB
102
{ACAD_REACTORS
330
896
102
}
330
896
100
AcDbDictionary
281
     1
  3
CANNOSCALE
350
9B1
  3
CMLEADERSTYLE
350
9AD
  3
CTABLESTYLE
350
9AC
  3
CVIEWDETAILSTYLE
350
9AE
  3
CVIEWSECTIONSTYLE
350
9AF
  3
LAYEREVAL
350
9B3
  3
LAYERNOTIFY
350
9B4
  3
LIGHTINGUNITS
350
9B2
  3
MSLTSCALE
350
9B0
  3
XCLIPFRAME
350
15E5
  0
DICTIONARY
  5
15ED
102
{ACAD_REACTORS
330
896
102
}
330
896
100
AcDbDictionary
281
     1
  3
AcDsRecords
350
15EF
  3
AcDsSchemas
350
15EE
1001
ACAD
1070
     2
  0
DICTIONARY
  5
A1E
102
{ACAD_REACTORS
330
A1D
102
}
330
A1D
100
AcDbDictionary
281
     1
  0
XRECORD
  5
AAB
102
{ACAD_REACTORS
330
AAA
102
}
330
AAA
100
AcDbXrecord
280
     1
290
     1
  0
XRECORD
  5
AAD
102
{ACAD_REACTORS
330
AAC
102
}
330
AAC
100
AcDbXrecord
280
     1
290
     1
  0
XRECORD
  5
AAF
102
{ACAD_REACTORS
330
AAE
102
}
330
AAE
100
AcDbXrecord
280
     1
290
     1
  0
XRECORD
  5
AB1
102
{ACAD_REACTORS
330
AB0
102
}
330
AB0
100
AcDbXrecord
280
     1
290
     1
  0
XRECORD
  5
AB3
102
{ACAD_REACTORS
330
AB2
102
}
330
AB2
100
AcDbXrecord
280
     1
290
     1
  0
XRECORD
  5
AB5
102
{ACAD_REACTORS
330
AB4
102
}
330
AB4
100
AcDbXrecord
280
     1
290
     1
  0
XRECORD
  5
AB7
102
{ACAD_REACTORS
330
AB6
102
}
330
AB6
100
AcDbXrecord
280
     1
290
     1
  0
XRECORD
  5
AB9
102
{ACAD_REACTORS
330
AB8
102
}
330
AB8
100
AcDbXrecord
280
     1
290
     1
  0
XRECORD
  5
ABB
102
{ACAD_REACTORS
330
ABA
102
}
330
ABA
100
AcDbXrecord
280
     1
290
     1
  0
XRECORD
  5
ABD
102
{ACAD_REACTORS
330
ABC
102
}
330
ABC
100
AcDbXrecord
280
     1
290
     1
  0
XRECORD
  5
ABF
102
{ACAD_REACTORS
330
ABE
102
}
330
ABE
100
AcDbXrecord
280
     1
290
     1
  0
SORTENTSTABLE
  5
9F6
102
{ACAD_REACTORS
330
9F5
102
}
330
9F5
100
AcDbSortentsTable
330
8F9
331
51A
  5
51A
331
51E
  5
51E
331
522
  5
522
331
526
  5
526
331
7DA
  5
7E6
331
7DE
  5
7EA
331
A35
  5
621
331
7E2
  5
7EE
331
AA9
  5
D07
331
7E6
  5
7F2
331
821
  5
9FB
331
825
  5
A0B
331
56B
  5
56B
331
5AA
  5
5AA
331
56F
  5
56F
331
5AE
  5
5AE
331
573
  5
573
331
5B2
  5
5B2
331
5E3
  5
5EA
331
577
  5
577
331
5B6
  5
5B6
331
5E7
  5
5EE
331
5EB
  5
5F2
331
7AE
  5
7BA
331
5EF
  5
5F6
331
52A
  5
52A
331
52E
  5
52E
331
53A
  5
53A
331
53E
  5
53E
331
7EB
  5
7F7
331
7EF
  5
7FB
331
7F3
  5
7FF
331
7F7
  5
803
331
5BB
  5
5BB
331
578
  5
578
331
5BF
  5
5BF
331
57C
  5
57C
331
5C3
  5
5C3
331
580
  5
580
331
7B3
  5
7BF
331
5C7
  5
5C7
331
584
  5
584
331
5F0
  5
5F7
331
7B7
  5
7C3
331
5F4
  5
5FB
331
7BB
  5
7C7
331
5F8
  5
5FF
331
7BF
  5
7CB
331
5FC
  5
603
331
543
  5
543
331
4FC
  5
4FC
331
547
  5
547
331
500
  5
500
331
54B
  5
54B
331
504
  5
504
331
54F
  5
54F
331
7FB
  5
807
331
9FB
  5
A30
331
7FF
  5
80B
331
807
  5
814
331
5CB
  5
5CB
331
588
  5
588
331
5CF
  5
5CF
331
58C
  5
58C
331
590
  5
590
331
7C3
  5
7CF
331
594
  5
594
331
600
  5
607
331
7C7
  5
7D3
331
604
  5
60B
331
608
  5
60F
331
60C
  5
613
331
508
  5
508
331
553
  5
553
331
50C
  5
50C
331
557
  5
557
331
510
  5
510
331
514
  5
514
331
7CB
  5
7D7
331
80A
  5
816
331
7CF
  5
7DB
331
80E
  5
81A
331
7D3
  5
7DF
331
A2E
  5
A5E
331
812
  5
822
331
7D7
  5
7E3
331
816
  5
826
331
59B
  5
59B
331
558
  5
558
331
59F
  5
59F
331
55C
  5
55C
331
5A3
  5
5A3
331
560
  5
560
331
5A7
  5
5A7
331
564
  5
564
331
5D0
  5
5D0
331
B98
  5
A32
331
5D4
  5
5D4
331
61B
  5
623
331
5D8
  5
5DE
331
5DC
  5
5E3
331
51B
  5
51B
331
51F
  5
51F
331
523
  5
523
331
527
  5
527
331
7DB
  5
7E7
331
A36
  5
63F
331
7DF
  5
7EB
331
7E3
  5
7EF
331
822
  5
9FC
331
826
  5
A2B
331
7E7
  5
7F3
331
5AB
  5
5AB
331
568
  5
568
331
5AF
  5
5AF
331
56C
  5
56C
331
5B3
  5
5B3
331
570
  5
570
331
5B7
  5
5B7
331
574
  5
574
331
5E0
  5
5E7
331
5E4
  5
5EB
331
5E8
  5
5EF
331
7AF
  5
7BB
331
5EC
  5
5F3
331
52B
  5
52B
331
52F
  5
52F
331
53B
  5
53B
331
53F
  5
53F
331
7E8
  5
7F4
331
7EC
  5
7F8
331
7F0
  5
7FC
331
7F4
  5
800
331
5B8
  5
5B8
331
579
  5
579
331
5BC
  5
5BC
331
57D
  5
57D
331
5C0
  5
5C0
331
581
  5
581
331
7B0
  5
7BC
331
5C4
  5
5C4
331
585
  5
585
331
5F1
  5
5F8
331
7B4
  5
7C0
331
5F5
  5
5FC
331
7B8
  5
7C4
331
5F9
  5
600
331
7BC
  5
7C8
331
5FD
  5
604
331
540
  5
540
331
4F9
  5
4F9
331
544
  5
544
331
4FD
  5
4FD
331
548
  5
548
331
501
  5
501
331
54C
  5
54C
331
505
  5
505
331
7F8
  5
804
331
7FC
  5
808
331
9FC
  5
A33
331
800
  5
80C
331
804
  5
812
331
5C8
  5
5C8
331
589
  5
589
331
5CC
  5
5CC
331
58D
  5
58D
331
591
  5
591
331
601
  5
608
331
7C0
  5
7CC
331
595
  5
595
331
605
  5
60C
331
7C4
  5
7D0
331
609
  5
610
331
60D
  5
614
331
550
  5
550
331
509
  5
509
331
554
  5
554
331
50D
  5
50D
331
511
  5
511
331
515
  5
515
331
80B
  5
817
331
7C8
  5
7D4
331
A2B
  5
A37
331
80F
  5
81B
331
7CC
  5
7D8
331
A2F
  5
A6B
331
813
  5
823
331
7D0
  5
7DC
331
817
  5
827
331
7D4
  5
7E0
331
598
  5
598
331
559
  5
559
331
59C
  5
59C
331
55D
  5
55D
331
5A0
  5
5A0
331
561
  5
561
331
5D1
  5
5D1
331
5A4
  5
5A4
331
610
  5
61E
331
565
  5
565
331
5D5
  5
5D5
331
B99
  5
A31
331
5D9
  5
5E0
331
5DD
  5
5E4
331
61C
  5
624
331
518
  5
518
331
51C
  5
51C
331
520
  5
520
331
524
  5
524
331
A37
  5
628
331
81B
  5
9F8
331
7D8
  5
7E4
331
7DC
  5
7E8
331
823
  5
9FD
331
7E0
  5
7EC
331
827
  5
A2C
331
7E4
  5
7F0
331
5A8
  5
5A8
331
569
  5
569
331
5AC
  5
5AC
331
56D
  5
56D
331
5B0
  5
5B0
331
571
  5
571
331
5E1
  5
5E8
331
5B4
  5
5B4
331
620
  5
629
331
575
  5
575
331
5E5
  5
5EC
331
5E9
  5
5F0
331
5ED
  5
5F4
331
528
  5
528
331
52C
  5
52C
331
538
  5
538
331
53C
  5
53C
331
828
  5
A2F
331
7E9
  5
7F5
331
7ED
  5
7F9
331
7F1
  5
7FD
331
7F5
  5
801
331
57A
  5
57A
331
57E
  5
57E
331
5B9
  5
5B9
331
582
  5
582
331
5BD
  5
5BD
331
5F2
  5
5F9
331
586
  5
586
331
5C1
  5
5C1
331
5F6
  5
5FD
331
5C5
  5
5C5
331
7B1
  5
7BD
331
5FA
  5
601
331
7B5
  5
7C1
331
5FE
  5
605
331
7B9
  5
7C5
331
7BD
  5
7C9
331
4FA
  5
4FA
331
541
  5
541
331
4FE
  5
4FE
331
545
  5
545
331
502
  5
502
331
549
  5
549
331
506
  5
506
331
54D
  5
54D
331
7F9
  5
805
331
7FD
  5
809
331
9FD
  5
A34
331
58A
  5
58A
331
58E
  5
58E
331
5C9
  5
5C9
331
592
  5
592
331
5CD
  5
5CD
331
596
  5
596
331
602
  5
609
331
606
  5
60D
331
7C1
  5
7CD
331
60A
  5
611
331
7C5
  5
7D1
331
60E
  5
615
331
50A
  5
50A
331
551
  5
551
331
50E
  5
50E
331
555
  5
555
331
512
  5
512
331
516
  5
516
331
7C9
  5
7D5
331
80C
  5
818
331
7CD
  5
7D9
331
810
  5
81C
331
A2C
  5
A38
331
7D1
  5
7DD
331
814
  5
824
331
7D5
  5
7E1
331
55A
  5
55A
331
55E
  5
55E
331
599
  5
599
331
562
  5
562
331
59D
  5
59D
331
5D2
  5
5D2
331
566
  5
566
331
5A1
  5
5A1
331
5D6
  5
5D6
331
5A5
  5
5A5
331
611
  5
61F
331
5DA
  5
5E1
331
5DE
  5
5E5
331
619
  5
620
331
61D
  5
626
331
519
  5
519
331
51D
  5
51D
331
521
  5
521
331
525
  5
525
331
A30
  5
A78
331
7D9
  5
7E5
331
A34
  5
AA8
331
818
  5
828
331
7DD
  5
7E9
331
AA8
  5
C84
331
81C
  5
9F9
331
7E1
  5
7ED
331
7E5
  5
7F1
331
824
  5
9FE
331
56A
  5
56A
331
56E
  5
56E
331
5A9
  5
5A9
331
572
  5
572
331
5AD
  5
5AD
331
5E2
  5
5E9
331
576
  5
576
331
5B1
  5
5B1
331
5E6
  5
5ED
331
5B5
  5
5B5
331
621
  5
640
331
5EA
  5
5F1
331
5EE
  5
5F5
331
529
  5
529
331
52D
  5
52D
331
539
  5
539
331
53D
  5
53D
331
7EA
  5
7F6
331
7EE
  5
7FA
331
7F2
  5
7FE
331
7F6
  5
802
331
57B
  5
57B
331
5BA
  5
5BA
331
57F
  5
57F
331
5BE
  5
5BE
331
583
  5
583
331
5C2
  5
5C2
331
5F3
  5
5FA
331
587
  5
587
331
5C6
  5
5C6
331
7B2
  5
7BE
331
5F7
  5
5FE
331
7B6
  5
7C2
331
5FB
  5
602
331
7BA
  5
7C6
331
5FF
  5
606
331
7BE
  5
7CA
331
4FB
  5
4FB
331
542
  5
542
331
4FF
  5
4FF
331
546
  5
546
331
503
  5
503
331
54A
  5
54A
331
507
  5
507
331
54E
  5
54E
331
7FA
  5
806
331
7FE
  5
80A
331
806
  5
813
331
58B
  5
58B
331
5CA
  5
5CA
331
58F
  5
58F
331
5CE
  5
5CE
331
593
  5
593
331
7C2
  5
7CE
331
597
  5
597
331
603
  5
60A
331
7C6
  5
7D2
331
607
  5
60E
331
60B
  5
612
331
60F
  5
616
331
50B
  5
50B
331
552
  5
552
331
50F
  5
50F
331
556
  5
556
331
513
  5
513
331
517
  5
517
331
7CA
  5
7D6
331
7CE
  5
7DA
331
809
  5
815
331
7D2
  5
7DE
331
80D
  5
819
331
7D6
  5
7E2
331
A2D
  5
A47
331
811
  5
821
331
815
  5
825
331
55B
  5
55B
331
59A
  5
59A
331
55F
  5
55F
331
59E
  5
59E
331
563
  5
563
331
5A2
  5
5A2
331
5D3
  5
5D3
331
567
  5
567
331
5A6
  5
5A6
331
5D7
  5
5D7
331
61A
  5
622
331
5DB
  5
5E2
331
61E
  5
627
331
5DF
  5
5E6
  0
ACDBDETAILVIEWSTYLE
  5
8F4
102
{ACAD_XDICTIONARY
360
1622
102
}
102
{ACAD_REACTORS
330
8F3
102
}
330
8F3
100
AcDbModelDocViewStyle
 70
     0
  3
Imperial24
290
     0
100
AcDbDetailViewStyle
 70
     0
 71
     0
 90
        3
 71
     1
340
8DF
 62
   256
 40
0.24
340
0
 62
   256
 40
0.24
300

 40
0.36
280
     3
 71
     2
340
8E6
 90
       25
 62
   256
 71
     3
340
8DF
 62
   256
 40
0.24
 90
        1
 40
0.75
 90
        1
300
%<\AcVar ViewType \f "%tc1">% %<\AcVar ViewDetailId>%\PSCALE %<\AcVar ViewScale \f "%sn">%
 71
     4
340
8E6
 90
       25
 62
   256
340
8E6
 90
       25
 62
   256
280
     0
  0
LAYOUT
  5
8FC
102
{ACAD_REACTORS
330
8EB
102
}
330
8EB
100
AcDbPlotSettings
  1

  2
EPSON LP-S3200 複合棟
  4

  6

 40
0.0
 41
0.0
 42
0.0
 43
0.0
 44
0.0
 45
0.0
 46
0.0
 47
0.0
 48
0.0
 49
0.0
140
0.0
141
0.0
142
1.0
143
1.0
 70
  1712
 72
     0
 73
     0
 74
     0
  7

 75
     0
147
1.0
 76
     0
 77
     2
 78
   300
148
0.0
149
0.0
100
AcDbLayout
  1
Model
 70
     1
 71
     0
 10
0.0
 20
0.0
 11
12.0
 21
9.0
 12
0.0
 22
0.0
 32
0.0
 14
0.0
 24
0.0
 34
0.0
 15
0.0
 25
0.0
 35
0.0
146
0.0
 13
0.0
 23
0.0
 33
0.0
 16
1.0
 26
0.0
 36
0.0
 17
0.0
 27
1.0
 37
0.0
 76
     0
330
8F9
331
8FF
  0
LAYOUT
  5
8F8
102
{ACAD_REACTORS
330
8EB
102
}
330
8EB
100
AcDbPlotSettings
  1

  2
EPSON LP-S3200 複合棟
  4

  6

 40
0.0
 41
0.0
 42
0.0
 43
0.0
 44
0.0
 45
0.0
 46
0.0
 47
0.0
 48
0.0
 49
0.0
140
0.0
141
0.0
142
1.0
143
1.0
 70
   688
 72
     0
 73
     0
 74
     5
  7

 75
    16
147
1.0
 76
     0
 77
     2
 78
   300
148
0.0
149
0.0
100
AcDbLayout
  1
レイアウト1
 70
     1
 71
     1
 10
0.0
 20
0.0
 11
12.0
 21
9.0
 12
0.0
 22
0.0
 32
0.0
 14
1.000000000000000E+20
 24
1.000000000000000E+20
 34
1.000000000000000E+20
 15
-1.000000000000000E+20
 25
-1.000000000000000E+20
 35
-1.000000000000000E+20
146
0.0
 13
0.0
 23
0.0
 33
0.0
 16
1.0
 26
0.0
 36
0.0
 17
0.0
 27
1.0
 37
0.0
 76
     0
330
8F5
  0
MATERIAL
  5
8A3
102
{ACAD_XDICTIONARY
360
8A4
102
}
102
{ACAD_REACTORS
330
89A
102
}
330
89A
100
AcDbMaterial
  1
ByBlock
 72
     0
 43
0.0208333333333333
 43
0.0
 43
0.0
 43
0.0
 43
0.0
 43
0.0208333333333333
 43
0.0
 43
0.0
 43
0.0
 43
0.0
 43
1.0
 43
0.0
 43
0.0
 43
0.0
 43
0.0
 43
1.0
 77
     0
 47
0.0208333333333333
 47
0.0
 47
0.0
 47
0.0
 47
0.0
 47
0.0208333333333333
 47
0.0
 47
0.0
 47
0.0
 47
0.0
 47
1.0
 47
0.0
 47
0.0
 47
0.0
 47
0.0
 47
1.0
171
     0
 49
0.0208333333333333
 49
0.0
 49
0.0
 49
0.0
 49
0.0
 49
0.0208333333333333
 49
0.0
 49
0.0
 49
0.0
 49
0.0
 49
1.0
 49
0.0
 49
0.0
 49
0.0
 49
0.0
 49
1.0
175
     0
142
0.0208333333333333
142
0.0
142
0.0
142
0.0
142
0.0
142
0.0208333333333333
142
0.0
142
0.0
142
0.0
142
0.0
142
1.0
142
0.0
142
0.0
142
0.0
142
0.0
142
1.0
179
     0
144
0.0208333333333333
144
0.0
144
0.0
144
0.0
144
0.0
144
0.0208333333333333
144
0.0
144
0.0
144
0.0
144
0.0
144
1.0
144
0.0
144
0.0
144
0.0
144
0.0
144
1.0
147
0.0208333333333333
147
0.0
147
0.0
147
0.0
147
0.0
147
0.0208333333333333
147
0.0
147
0.0
147
0.0
147
0.0
147
1.0
147
0.0
147
0.0
147
0.0
147
0.0
147
1.0
  0
MATERIAL
  5
89B
102
{ACAD_XDICTIONARY
360
89C
102
}
102
{ACAD_REACTORS
330
89A
102
}
330
89A
100
AcDbMaterial
  1
ByLayer
 72
     0
 43
0.0208333333333333
 43
0.0
 43
0.0
 43
0.0
 43
0.0
 43
0.0208333333333333
 43
0.0
 43
0.0
 43
0.0
 43
0.0
 43
1.0
 43
0.0
 43
0.0
 43
0.0
 43
0.0
 43
1.0
 77
     0
 47
0.0208333333333333
 47
0.0
 47
0.0
 47
0.0
 47
0.0
 47
0.0208333333333333
 47
0.0
 47
0.0
 47
0.0
 47
0.0
 47
1.0
 47
0.0
 47
0.0
 47
0.0
 47
0.0
 47
1.0
171
     0
 49
0.0208333333333333
 49
0.0
 49
0.0
 49
0.0
 49
0.0
 49
0.0208333333333333
 49
0.0
 49
0.0
 49
0.0
 49
0.0
 49
1.0
 49
0.0
 49
0.0
 49
0.0
 49
0.0
 49
1.0
175
     0
142
0.0208333333333333
142
0.0
142
0.0
142
0.0
142
0.0
142
0.0208333333333333
142
0.0
142
0.0
142
0.0
142
0.0
142
1.0
142
0.0
142
0.0
142
0.0
142
0.0
142
1.0
179
     0
144
0.0208333333333333
144
0.0
144
0.0
144
0.0
144
0.0
144
0.0208333333333333
144
0.0
144
0.0
144
0.0
144
0.0
144
1.0
144
0.0
144
0.0
144
0.0
144
0.0
144
1.0
147
0.0208333333333333
147
0.0
147
0.0
147
0.0
147
0.0
147
0.0208333333333333
147
0.0
147
0.0
147
0.0
147
0.0
147
1.0
147
0.0
147
0.0
147
0.0
147
0.0
147
1.0
  0
MATERIAL
  5
8AB
102
{ACAD_XDICTIONARY
360
8AC
102
}
102
{ACAD_REACTORS
330
89A
102
}
330
89A
100
AcDbMaterial
  1
Global
 72
     0
 43
0.0208333333333333
 43
0.0
 43
0.0
 43
0.0
 43
0.0
 43
0.0208333333333333
 43
0.0
 43
0.0
 43
0.0
 43
0.0
 43
1.0
 43
0.0
 43
0.0
 43
0.0
 43
0.0
 43
1.0
 77
     0
 47
0.0208333333333333
 47
0.0
 47
0.0
 47
0.0
 47
0.0
 47
0.0208333333333333
 47
0.0
 47
0.0
 47
0.0
 47
0.0
 47
1.0
 47
0.0
 47
0.0
 47
0.0
 47
0.0
 47
1.0
171
     0
 49
0.0208333333333333
 49
0.0
 49
0.0
 49
0.0
 49
0.0
 49
0.0208333333333333
 49
0.0
 49
0.0
 49
0.0
 49
0.0
 49
1.0
 49
0.0
 49
0.0
 49
0.0
 49
0.0
 49
1.0
175
     0
142
0.0208333333333333
142
0.0
142
0.0
142
0.0
142
0.0
142
0.0208333333333333
142
0.0
142
0.0
142
0.0
142
0.0
142
1.0
142
0.0
142
0.0
142
0.0
142
0.0
142
1.0
179
     0
144
0.0208333333333333
144
0.0
144
0.0
144
0.0
144
0.0
144
0.0208333333333333
144
0.0
144
0.0
144
0.0
144
0.0
144
1.0
144
0.0
144
0.0
144
0.0
144
0.0
144
1.0
147
0.0208333333333333
147
0.0
147
0.0
147
0.0
147
0.0
147
0.0208333333333333
147
0.0
147
0.0
147
0.0
147
0.0
147
1.0
147
0.0
147
0.0
147
0.0
147
0.0
147
1.0
  0
MLEADERSTYLE
  5
8F0
102
{ACAD_REACTORS
330
8EF
102
}
330
8EF
100
AcDbMLeaderStyle
170
     2
171
     1
172
     0
 90
        2
 40
0.0
 41
0.0
173
     1
 91
-1056964608
340
8E4
 92
       -2
290
     1
 42
0.09
291
     1
 43
0.36
  3
Standard
 44
0.18
300

342
8DF
174
     1
178
     6
175
     1
176
     0
 93
-1056964608
 45
0.18
292
     0
297
     0
 46
0.18
 94
-1056964608
 47
1.0
 49
1.0
140
1.0
293
     1
141
0.0
294
     1
177
     0
142
1.0
295
     0
296
     0
143
0.125
1001
ACAD_MLEADERVER
1070
     2
  0
MLINESTYLE
  5
8E9
102
{ACAD_REACTORS
330
8E8
102
}
330
8E8
100
AcDbMlineStyle
  2
STANDARD
 70
     0
  3

 62
   256
 51
90.0
 52
90.0
 71
     2
 49
0.5
 62
   256
  6
BYLAYER
 49
-0.5
 62
   256
  6
BYLAYER
  0
ACDBPLACEHOLDER
  5
899
102
{ACAD_REACTORS
330
898
102
}
330
898
  0
SCALE
  5
8CD
102
{ACAD_REACTORS
330
8CC
102
}
330
8CC
100
AcDbScale
 70
     0
300
1:1
140
1.0
141
1.0
290
     1
  0
SCALE
  5
8CE
102
{ACAD_REACTORS
330
8CC
102
}
330
8CC
100
AcDbScale
 70
     0
300
1/128" = 1'-0"
140
0.0078125
141
12.0
290
     0
  0
SCALE
  5
8CF
102
{ACAD_REACTORS
330
8CC
102
}
330
8CC
100
AcDbScale
 70
     0
300
1/64" = 1'-0"
140
0.015625
141
12.0
290
     0
  0
SCALE
  5
8D0
102
{ACAD_REACTORS
330
8CC
102
}
330
8CC
100
AcDbScale
 70
     0
300
1/32" = 1'-0"
140
0.03125
141
12.0
290
     0
  0
SCALE
  5
8D1
102
{ACAD_REACTORS
330
8CC
102
}
330
8CC
100
AcDbScale
 70
     0
300
1/16" = 1'-0"
140
0.0625
141
12.0
290
     0
  0
SCALE
  5
8D2
102
{ACAD_REACTORS
330
8CC
102
}
330
8CC
100
AcDbScale
 70
     0
300
3/32" = 1'-0"
140
0.09375
141
12.0
290
     0
  0
SCALE
  5
8D3
102
{ACAD_REACTORS
330
8CC
102
}
330
8CC
100
AcDbScale
 70
     0
300
1/8" = 1'-0"
140
0.125
141
12.0
290
     0
  0
SCALE
  5
8D4
102
{ACAD_REACTORS
330
8CC
102
}
330
8CC
100
AcDbScale
 70
     0
300
3/16" = 1'-0"
140
0.1875
141
12.0
290
     0
  0
SCALE
  5
8D5
102
{ACAD_REACTORS
330
8CC
102
}
330
8CC
100
AcDbScale
 70
     0
300
1/4" = 1'-0"
140
0.25
141
12.0
290
     0
  0
SCALE
  5
8D6
102
{ACAD_REACTORS
330
8CC
102
}
330
8CC
100
AcDbScale
 70
     0
300
3/8" = 1'-0"
140
0.375
141
12.0
290
     0
  0
SCALE
  5
8D7
102
{ACAD_REACTORS
330
8CC
102
}
330
8CC
100
AcDbScale
 70
     0
300
1/2" = 1'-0"
140
0.5
141
12.0
290
     0
  0
SCALE
  5
8D8
102
{ACAD_REACTORS
330
8CC
102
}
330
8CC
100
AcDbScale
 70
     0
300
3/4" = 1'-0"
140
0.75
141
12.0
290
     0
  0
SCALE
  5
8D9
102
{ACAD_REACTORS
330
8CC
102
}
330
8CC
100
AcDbScale
 70
     0
300
1" = 1'-0"
140
1.0
141
12.0
290
     0
  0
SCALE
  5
8DA
102
{ACAD_REACTORS
330
8CC
102
}
330
8CC
100
AcDbScale
 70
     0
300
1-1/2" = 1'-0"
140
1.5
141
12.0
290
     0
  0
SCALE
  5
8DB
102
{ACAD_REACTORS
330
8CC
102
}
330
8CC
100
AcDbScale
 70
     0
300
3" = 1'-0"
140
3.0
141
12.0
290
     0
  0
SCALE
  5
8DC
102
{ACAD_REACTORS
330
8CC
102
}
330
8CC
100
AcDbScale
 70
     0
300
6" = 1'-0"
140
6.0
141
12.0
290
     0
  0
SCALE
  5
8DD
102
{ACAD_REACTORS
330
8CC
102
}
330
8CC
100
AcDbScale
 70
     0
300
1'-0" = 1'-0"
140
12.0
141
12.0
290
     0
  0
ACDBSECTIONVIEWSTYLE
  5
8F2
102
{ACAD_XDICTIONARY
360
1620
102
}
102
{ACAD_REACTORS
330
8F1
102
}
330
8F1
100
AcDbModelDocViewStyle
 70
     0
  3
Imperial24
290
     0
100
AcDbSectionViewStyle
 70
     0
 71
     0
 90
       78
 71
     1
340
8DF
 62
   256
 40
0.24
340
0
340
0
 62
   256
 40
0.24
300
I, O, Q, S, X, Z
 40
0.48
 90
        3
 40
0.18
 90
        1
 71
     2
340
8E6
 90
       25
 62
   256
340
8E6
 90
       50
 62
   256
 40
0.24
 40
0.0
 40
0.24
 71
     3
340
8DF
 62
   256
 40
0.24
 90
        1
 40
0.75
 90
        1
300
%<\AcVar ViewType \f "%tc1">% %<\AcVar ViewSectionStartId>%-%<\AcVar ViewSectionEndId>%\PSCALE %<\AcVar ViewScale \f "%sn">%
 71
     4
 62
   256
 62
   257
300
ANSI31
 40
1.0
 90
        0
290
     0
290
     0
 90
        6
 40
0.0
 40
1.570796326794896
 40
0.2617993877991494
 40
1.308996938995747
 40
-0.2617993877991494
 40
1.832595714594044
  0
TABLESTYLE
  5
8EE
102
{ACAD_XDICTIONARY
360
B53
102
}
102
{ACAD_REACTORS
330
8ED
102
}
330
8ED
100
AcDbTableStyle
  3
Standard
 70
     0
 71
     0
 40
0.06
 41
0.06
280
     0
281
     0
  7
STANDARD
140
0.18
170
     2
 62
     0
 63
     7
283
     0
 90
      512
 91
        0
  1

274
    -2
284
     1
 64
     0
275
    -2
285
     1
 65
     0
276
    -2
286
     1
 66
     0
277
    -2
287
     1
 67
     0
278
    -2
288
     1
 68
     0
279
    -2
289
     1
 69
     0
  7
STANDARD
140
0.25
170
     5
 62
     0
 63
     7
283
     0
 90
      512
 91
        0
  1

274
    -2
284
     1
 64
     0
275
    -2
285
     1
 65
     0
276
    -2
286
     1
 66
     0
277
    -2
287
     1
 67
     0
278
    -2
288
     1
 68
     0
279
    -2
289
     1
 69
     0
  7
STANDARD
140
0.18
170
     5
 62
     0
 63
     7
283
     0
 90
      512
 91
        0
  1

274
    -2
284
     1
 64
     0
275
    -2
285
     1
 65
     0
276
    -2
286
     1
 66
     0
277
    -2
287
     1
 67
     0
278
    -2
288
     1
 68
     0
279
    -2
289
     1
 69
     0
  0
VISUALSTYLE
  5
8B9
102
{ACAD_XDICTIONARY
360
15FA
102
}
102
{ACAD_REACTORS
330
8B3
102
}
330
8B3
100
AcDbVisualStyle
  2

 70
     4
 71
     0
 72
     2
 73
     0
 90
        0
 40
-0.6
 41
-30.0
 62
     5
 63
     7
421
 16777215
 74
     1
 91
        4
 64
     7
 65
   257
 75
     1
175
     1
 42
1.0
 92
        0
 66
   257
 43
1.0
 76
     1
 77
     6
 78
     2
 67
     7
 79
     5
170
     0
171
     0
290
     0
174
     0
 93
        1
 44
0.0
173
     0
291
     0
 45
0.0
1001
ACAD
1000
AcDbSavedByObjectVersion
1070
     0
  0
VISUALSTYLE
  5
8B8
102
{ACAD_XDICTIONARY
360
15F8
102
}
102
{ACAD_REACTORS
330
8B3
102
}
330
8B3
100
AcDbVisualStyle
  2

 70
     7
 71
     1
 72
     0
 73
     1
 90
        0
 40
-0.6
 41
-30.0
 62
     5
 63
     7
421
 16777215
 74
     0
 91
        4
 64
     7
 65
   257
 75
     1
175
     1
 42
1.0
 92
        8
 66
     7
 43
1.0
 76
     1
 77
     6
 78
     2
 67
     7
 79
     5
170
     0
171
     0
290
     0
174
     0
 93
        1
 44
0.0
173
     0
291
     1
 45
0.0
1001
ACAD
1000
AcDbSavedByObjectVersion
1070
     0
  0
VISUALSTYLE
  5
8BF
102
{ACAD_XDICTIONARY
360
1606
102
}
102
{ACAD_REACTORS
330
8B3
102
}
330
8B3
100
AcDbVisualStyle
  2

 70
    12
 71
     2
 72
     2
 73
     0
 90
        0
 40
-0.6
 41
-30.0
 62
     5
 63
     7
421
 16777215
 74
     1
 91
        4
 64
     7
 65
   257
 75
     1
175
     1
 42
1.0
 92
        8
 66
     7
 43
1.0
 76
     1
 77
     6
 78
     2
 67
     7
 79
     5
170
     0
171
     0
290
     0
174
     0
 93
        1
 44
50.0
173
     0
291
     1
 45
0.0
1001
ACAD
1000
AcDbSavedByObjectVersion
1070
     0
  0
VISUALSTYLE
  5
8C3
102
{ACAD_XDICTIONARY
360
160E
102
}
102
{ACAD_REACTORS
330
8B3
102
}
330
8B3
100
AcDbVisualStyle
  2

 70
    16
 71
     2
 72
     2
 73
     3
 90
        0
 40
-0.6
 41
-30.0
 62
     5
 63
     8
421
  8421504
 74
     1
 91
        4
 64
     7
 65
   257
 75
     1
175
     1
 42
1.0
 92
        8
 66
     8
424
  8421504
 43
1.0
 76
     1
 77
     6
 78
     2
 67
     7
 79
     5
170
     0
171
     0
290
     0
174
     0
 93
        1
 44
0.0
173
     0
291
     1
 45
0.0
1001
ACAD
1000
AcDbSavedByObjectVersion
1070
     0
  0
VISUALSTYLE
  5
8BC
102
{ACAD_XDICTIONARY
360
1600
102
}
102
{ACAD_REACTORS
330
8B3
102
}
330
8B3
100
AcDbVisualStyle
  2

 70
     9
 71
     3
 72
     2
 73
     0
 90
        0
 40
-0.6
 41
-30.0
 62
     5
 63
     7
421
 16777215
 74
     2
 91
        2
 64
     7
 65
   257
 75
     1
175
     1
 42
179.0
 92
        8
 66
     7
 43
1.0
 76
     1
 77
     6
 78
     2
 67
     7
 79
     3
170
     0
171
     0
290
     0
174
     0
 93
        1
 44
0.0
173
     0
291
     0
 45
0.0
1001
ACAD
1000
AcDbSavedByObjectVersion
1070
     0
  0
VISUALSTYLE
  5
8BE
102
{ACAD_XDICTIONARY
360
1604
102
}
102
{ACAD_REACTORS
330
8B3
102
}
330
8B3
100
AcDbVisualStyle
  2

 70
    11
 71
     2
 72
     2
 73
     0
 90
        0
 40
-0.6
 41
-30.0
 62
     5
 63
     7
421
 16777215
 74
     1
 91
        4
 64
     7
 65
   257
 75
     1
175
     1
 42
1.0
 92
        8
 66
     7
 43
1.0
 76
     1
 77
     6
 78
     2
 67
     7
 79
     5
170
     0
171
     0
290
     0
174
     0
 93
        1
 44
-50.0
173
     0
291
     1
 45
0.0
1001
ACAD
1000
AcDbSavedByObjectVersion
1070
     0
  0
VISUALSTYLE
  5
8CB
102
{ACAD_XDICTIONARY
360
161E
102
}
102
{ACAD_REACTORS
330
8B3
102
}
330
8B3
100
AcDbVisualStyle
  2

 70
    22
 71
     2
 72
     2
 73
     0
 90
        0
 40
-0.6
 41
-30.0
 62
     5
 63
     7
421
 16777215
 74
     1
 91
        4
 64
     7
 65
   257
 75
     1
175
     1
 42
1.0
 92
        8
 66
     7
 43
1.0
 76
     1
 77
     6
 78
     2
 67
     7
 79
     5
170
     0
171
     0
290
     0
174
     0
 93
        1
 44
0.0
173
     0
291
     1
 45
0.0
1001
ACAD
1000
AcDbSavedByObjectVersion
1070
     0
  0
VISUALSTYLE
  5
8C2
102
{ACAD_XDICTIONARY
360
160C
102
}
102
{ACAD_REACTORS
330
8B3
102
}
330
8B3
100
AcDbVisualStyle
  2

 70
    15
 71
     2
 72
     2
 73
     0
 90
        0
 40
-0.6
 41
-30.0
 62
     5
 63
     7
421
 16777215
 74
     1
 91
        4
 64
     7
 65
   257
 75
     1
175
     1
 42
1.0
 92
        8
 66
     7
 43
1.0
 76
     1
 77
     6
 78
     2
 67
     7
 79
     5
170
     0
171
     0
290
     0
174
     0
 93
        1
 44
0.0
173
     0
291
     1
 45
0.0
1001
ACAD
1000
AcDbSavedByObjectVersion
1070
     0
  0
VISUALSTYLE
  5
8B4
102
{ACAD_XDICTIONARY
360
15F0
102
}
102
{ACAD_REACTORS
330
8B3
102
}
330
8B3
100
AcDbVisualStyle
  2

 70
     0
 71
     2
 72
     1
 73
     1
 90
        2
 40
-0.6
 41
30.0
 62
     5
 63
     7
421
 16777215
 74
     0
 91
        0
 64
     7
 65
   257
 75
     1
175
     1
 42
1.0
 92
        8
 66
     7
 43
1.0
 76
     1
 77
     6
 78
     2
 67
     7
 79
     5
170
     0
171
     0
290
     0
174
     0
 93
       13
 44
0.0
173
     0
291
     1
 45
0.0
1001
ACAD
1000
AcDbSavedByObjectVersion
1070
     0
  0
VISUALSTYLE
  5
8B5
102
{ACAD_XDICTIONARY
360
15F2
102
}
102
{ACAD_REACTORS
330
8B3
102
}
330
8B3
100
AcDbVisualStyle
  2

 70
     1
 71
     2
 72
     1
 73
     1
 90
        2
 40
-0.6
 41
30.0
 62
     5
 63
     7
421
 16777215
 74
     1
 91
        0
 64
     7
 65
   257
 75
     1
175
     1
 42
1.0
 92
        0
 66
   257
 43
1.0
 76
     1
 77
     6
 78
     2
 67
     7
 79
     5
170
     0
171
     0
290
     0
174
     0
 93
       13
 44
0.0
173
     0
291
     1
 45
0.0
1001
ACAD
1000
AcDbSavedByObjectVersion
1070
     0
  0
VISUALSTYLE
  5
8B6
102
{ACAD_XDICTIONARY
360
15F4
102
}
102
{ACAD_REACTORS
330
8B3
102
}
330
8B3
100
AcDbVisualStyle
  2

 70
     2
 71
     2
 72
     2
 73
     1
 90
        2
 40
-0.6
 41
30.0
 62
     5
 63
     7
421
 16777215
 74
     0
 91
        0
 64
     7
 65
   257
 75
     1
175
     1
 42
1.0
 92
        0
 66
     7
 43
1.0
 76
     1
 77
     6
 78
     2
 67
     7
 79
     5
170
     0
171
     0
290
     0
174
     0
 93
       13
 44
0.0
173
     0
291
     1
 45
0.0
1001
ACAD
1000
AcDbSavedByObjectVersion
1070
     0
  0
VISUALSTYLE
  5
8B7
102
{ACAD_XDICTIONARY
360
15F6
102
}
102
{ACAD_REACTORS
330
8B3
102
}
330
8B3
100
AcDbVisualStyle
  2

 70
     3
 71
     2
 72
     2
 73
     1
 90
        2
 40
-0.6
 41
30.0
 62
     5
 63
     7
421
 16777215
 74
     1
 91
        0
 64
     7
 65
   257
 75
     1
175
     1
 42
1.0
 92
        0
 66
   257
 43
1.0
 76
     1
 77
     6
 78
     2
 67
     7
 79
     5
170
     0
171
     0
290
     0
174
     0
 93
       13
 44
0.0
173
     0
291
     1
 45
0.0
1001
ACAD
1000
AcDbSavedByObjectVersion
1070
     0
  0
VISUALSTYLE
  5
8BB
102
{ACAD_XDICTIONARY
360
15FE
102
}
102
{ACAD_REACTORS
330
8B3
102
}
330
8B3
100
AcDbVisualStyle
  2

 70
     6
 71
     1
 72
     2
 73
     2
 90
        0
 40
-0.6
 41
-30.0
 62
     5
 63
     7
421
 16777215
 74
     2
 91
        2
 64
     7
 65
   257
 75
     2
175
     1
 42
40.0
 92
        0
 66
   257
 43
1.0
 76
     1
 77
     6
 78
     2
 67
     7
 79
     3
170
     0
171
     0
290
     0
174
     0
 93
        1
 44
0.0
173
     0
291
     0
 45
0.0
1001
ACAD
1000
AcDbSavedByObjectVersion
1070
     0
  0
VISUALSTYLE
  5
8C9
102
{ACAD_XDICTIONARY
360
161A
102
}
102
{ACAD_REACTORS
330
8B3
102
}
330
8B3
100
AcDbVisualStyle
  2

 70
    20
 71
     2
 72
     2
 73
     0
 90
        0
 40
-0.6
 41
-30.0
 62
     5
 63
     7
421
 16777215
 74
     1
 91
        4
 64
     7
 65
   257
 75
     1
175
     1
 42
1.0
 92
       10
 66
     7
 43
1.0
 76
     1
 77
     6
 78
     2
 67
     7
 79
     5
170
     0
171
     0
290
     0
174
     0
 93
        1
 44
0.0
173
     0
291
     1
 45
0.0
1001
ACAD
1000
AcDbSavedByObjectVersion
1070
     0
  0
VISUALSTYLE
  5
8C1
102
{ACAD_XDICTIONARY
360
160A
102
}
102
{ACAD_REACTORS
330
8B3
102
}
330
8B3
100
AcDbVisualStyle
  2

 70
    14
 71
     2
 72
     2
 73
     0
 90
        0
 40
-0.6
 41
-30.0
 62
     5
 63
     7
421
 16777215
 74
     1
 91
        4
 64
     7
 65
   257
 75
     7
175
     7
 42
1.0
 92
        8
 66
     7
 43
1.0
 76
     1
 77
     6
 78
     2
 67
     7
 79
     5
170
     0
171
     0
290
     0
174
     0
 93
        1
 44
0.0
173
     0
291
     1
 45
0.0
1001
ACAD
1000
AcDbSavedByObjectVersion
1070
     0
  0
VISUALSTYLE
  5
8CA
102
{ACAD_XDICTIONARY
360
161C
102
}
102
{ACAD_REACTORS
330
8B3
102
}
330
8B3
100
AcDbVisualStyle
  2

 70
    21
 71
     2
 72
     2
 73
     0
 90
        0
 40
-0.6
 41
-30.0
 62
     5
 63
     7
421
 16777215
 74
     1
 91
        4
 64
     7
 65
   257
 75
     1
175
     1
 42
1.0
 92
        9
 66
     7
 43
1.0
 76
     1
 77
     6
 78
     2
 67
     7
 79
     5
170
     0
171
     0
290
     0
174
     0
 93
        1
 44
0.0
173
     0
291
     1
 45
0.0
1001
ACAD
1000
AcDbSavedByObjectVersion
1070
     0
  0
VISUALSTYLE
  5
8BD
102
{ACAD_XDICTIONARY
360
1602
102
}
102
{ACAD_REACTORS
330
8B3
102
}
330
8B3
100
AcDbVisualStyle
  2

 70
     8
 71
     2
 72
     3
 73
     0
 90
        2
 40
-0.6
 41
30.0
 62
     5
 63
     7
421
 16777215
 74
     0
 91
        0
 64
     7
 65
   257
 75
     1
175
     1
 42
1.0
 92
        8
 66
   257
 43
1.0
 76
     1
 77
     6
 78
     2
 67
     7
 79
     3
170
     0
171
     0
290
     0
174
     0
 93
       13
 44
0.0
173
     0
291
     0
 45
0.0
1001
ACAD
1000
AcDbSavedByObjectVersion
1070
     0
  0
VISUALSTYLE
  5
8C8
102
{ACAD_XDICTIONARY
360
1618
102
}
102
{ACAD_REACTORS
330
8B3
102
}
330
8B3
100
AcDbVisualStyle
  2

 70
    27
 71
     2
 72
     2
 73
     1
 90
        2
 40
-0.6
 41
30.0
 62
     5
 63
     7
421
 16777215
 74
     0
 91
        4
 64
     7
 65
   257
 75
     1
175
     1
 42
1.0
 92
        8
 66
   257
 43
1.0
 76
     1
 77
     6
 78
     2
 67
     8
425
  7895160
 79
     3
170
     0
171
     0
290
     0
174
     0
 93
        5
 44
0.0
173
     0
291
     0
 45
0.0
1001
ACAD
1000
AcDbSavedByObjectVersion
1070
     0
  0
VISUALSTYLE
  5
8C7
102
{ACAD_XDICTIONARY
360
1616
102
}
102
{ACAD_REACTORS
330
8B3
102
}
330
8B3
100
AcDbVisualStyle
  2

 70
    26
 71
     2
 72
     2
 73
     1
 90
        2
 40
-0.6
 41
30.0
 62
     5
 63
     7
421
 16777215
 74
     1
 91
        2
 64
     7
 65
   257
 75
     2
175
     1
 42
1.0
 92
        8
 66
   257
 43
1.0
 76
     1
 77
     6
 78
     2
 67
     7
 79
     3
170
     0
171
     0
290
     0
174
     0
 93
        5
 44
0.0
173
     0
291
     0
 45
0.0
1001
ACAD
1000
AcDbSavedByObjectVersion
1070
     0
  0
VISUALSTYLE
  5
8C4
102
{ACAD_XDICTIONARY
360
1610
102
}
102
{ACAD_REACTORS
330
8B3
102
}
330
8B3
100
AcDbVisualStyle
  2

 70
    23
 71
     2
 72
     2
 73
     3
 90
        0
 40
-0.6
 41
-30.0
 62
     5
 63
     7
421
 16777215
 74
     2
 91
        2
 64
     7
 65
     7
 75
     1
175
     1
 42
40.0
 92
        8
 66
     7
 43
1.0
 76
     1
 77
     6
 78
     2
 67
     7
 79
     3
170
     0
171
     0
290
     0
174
     0
 93
        1
 44
0.0
173
     0
291
     0
 45
0.0
1001
ACAD
1000
AcDbSavedByObjectVersion
1070
     0
  0
VISUALSTYLE
  5
8C5
102
{ACAD_XDICTIONARY
360
1612
102
}
102
{ACAD_REACTORS
330
8B3
102
}
330
8B3
100
AcDbVisualStyle
  2

 70
    24
 71
     1
 72
     2
 73
     2
 90
        0
 40
-0.6
 41
-30.0
 62
     5
 63
     7
421
 16777215
 74
     2
 91
        2
 64
     7
 65
     7
 75
     1
175
     1
 42
40.0
 92
       11
 66
     7
 43
1.0
 76
     1
 77
     6
 78
     2
 67
     7
 79
     6
170
     0
171
     0
290
     0
174
     0
 93
        1
 44
0.0
173
     0
291
     0
 45
0.0
1001
ACAD
1000
AcDbSavedByObjectVersion
1070
     0
  0
VISUALSTYLE
  5
8C0
102
{ACAD_XDICTIONARY
360
1608
102
}
102
{ACAD_REACTORS
330
8B3
102
}
330
8B3
100
AcDbVisualStyle
  2

 70
    13
 71
     2
 72
     2
 73
     0
 90
        0
 40
-0.6
 41
-30.0
 62
     5
 63
     7
421
 16777215
 74
     1
 91
        4
 64
     7
 65
   257
 75
     1
175
     1
 42
1.0
 92
       12
 66
     7
 43
1.0
 76
     1
 77
     6
 78
     2
 67
     7
 79
     5
170
     0
171
     0
290
     0
174
     0
 93
        1
 44
0.0
173
     0
291
     1
 45
0.0
1001
ACAD
1000
AcDbSavedByObjectVersion
1070
     0
  0
VISUALSTYLE
  5
8BA
102
{ACAD_XDICTIONARY
360
15FC
102
}
102
{ACAD_REACTORS
330
8B3
102
}
330
8B3
100
AcDbVisualStyle
  2

 70
     5
 71
     0
 72
     2
 73
     0
 90
        0
 40
-0.6
 41
-30.0
 62
     5
 63
     7
421
 16777215
 74
     1
 91
        4
 64
     7
 65
   257
 75
     1
175
     1
 42
1.0
 92
        0
 66
   257
 43
1.0
 76
     1
 77
     6
 78
     2
 67
     7
 79
     3
170
     0
171
     0
290
     0
174
     0
 93
        1
 44
0.0
173
     0
291
     0
 45
0.0
1001
ACAD
1000
AcDbSavedByObjectVersion
1070
     0
  0
VISUALSTYLE
  5
8C6
102
{ACAD_XDICTIONARY
360
1614
102
}
102
{ACAD_REACTORS
330
8B3
102
}
330
8B3
100
AcDbVisualStyle
  2

 70
    25
 71
     2
 72
     2
 73
     1
 90
        1
 40
0.5
 41
-30.0
 62
     5
 63
     7
421
 16777215
 74
     1
 91
        0
 64
     7
 65
   257
 75
     1
175
     1
 42
1.0
 92
        8
 66
     7
 43
1.0
 76
     1
 77
     6
 78
     2
 67
     7
 79
     3
170
     0
171
     0
290
     0
174
     0
 93
       13
 44
0.0
173
     0
291
     0
 45
0.0
1001
ACAD
1000
AcDbSavedByObjectVersion
1070
     0
  0
DICTIONARYVAR
  5
9B1
102
{ACAD_REACTORS
330
9AB
102
}
330
9AB
100
DictionaryVariables
280
     0
  1
1:1
  0
DICTIONARYVAR
  5
9AD
102
{ACAD_REACTORS
330
9AB
102
}
330
9AB
100
DictionaryVariables
280
     0
  1
STANDARD
  0
DICTIONARYVAR
  5
9AC
102
{ACAD_REACTORS
330
9AB
102
}
330
9AB
100
DictionaryVariables
280
     0
  1
STANDARD
  0
DICTIONARYVAR
  5
9AE
102
{ACAD_REACTORS
330
9AB
102
}
330
9AB
100
DictionaryVariables
280
     0
  1
Imperial24
  0
DICTIONARYVAR
  5
9AF
102
{ACAD_REACTORS
330
9AB
102
}
330
9AB
100
DictionaryVariables
280
     0
  1
Imperial24
  0
DICTIONARYVAR
  5
9B3
102
{ACAD_REACTORS
330
9AB
102
}
330
9AB
100
DictionaryVariables
280
     0
  1
1
  0
DICTIONARYVAR
  5
9B4
102
{ACAD_REACTORS
330
9AB
102
}
330
9AB
100
DictionaryVariables
280
     0
  1
15
  0
DICTIONARYVAR
  5
9B2
102
{ACAD_REACTORS
330
9AB
102
}
330
9AB
100
DictionaryVariables
280
     0
  1
0
  0
DICTIONARYVAR
  5
9B0
102
{ACAD_REACTORS
330
9AB
102
}
330
9AB
100
DictionaryVariables
280
     0
  1
0
  0
DICTIONARYVAR
  5
15E5
102
{ACAD_REACTORS
330
9AB
102
}
330
9AB
100
DictionaryVariables
280
     0
  1
2
  0
DICTIONARY
  5
15EF
102
{ACAD_REACTORS
330
15ED
102
}
330
15ED
100
AcDbDictionary
281
     1
  0
DICTIONARY
  5
15EE
102
{ACAD_REACTORS
330
15ED
102
}
330
15ED
100
AcDbDictionary
281
     1
  3
2382194436608
350
15E8
  3
2382194436624
350
15E9
  3
2382194436640
350
15EA
  3
2382194436656
350
15EB
  3
2382194436672
350
15EC
  0
DICTIONARY
  5
1622
330
8F4
100
AcDbDictionary
280
     1
281
     1
  3
ACAD_XREC_ROUNDTRIP
360
1623
  0
DICTIONARY
  5
8A4
330
8A3
100
AcDbDictionary
280
     1
281
     1
  3
BUMPTILE
360
8A6
  3
DIFFUSETILE
360
8A5
  3
OPACITYTILE
360
8A9
  3
REFLECTIONTILE
360
8A8
  3
REFRACTIONTILE
360
8AA
  3
SPECULARTILE
360
8A7
  0
DICTIONARY
  5
89C
330
89B
100
AcDbDictionary
280
     1
281
     1
  3
BUMPTILE
360
89E
  3
DIFFUSETILE
360
89D
  3
OPACITYTILE
360
8A1
  3
REFLECTIONTILE
360
8A0
  3
REFRACTIONTILE
360
8A2
  3
SPECULARTILE
360
89F
  0
DICTIONARY
  5
8AC
330
8AB
100
AcDbDictionary
280
     1
281
     1
  3
BUMPTILE
360
8AE
  3
DIFFUSETILE
360
8AD
  3
OPACITYTILE
360
8B1
  3
REFLECTIONTILE
360
8B0
  3
REFRACTIONTILE
360
8B2
  3
SPECULARTILE
360
8AF
  0
DICTIONARY
  5
1620
330
8F2
100
AcDbDictionary
280
     1
281
     1
  3
ACAD_XREC_ROUNDTRIP
360
1621
  0
DICTIONARY
  5
B53
330
8EE
100
AcDbDictionary
280
     1
281
     1
  3
ACAD_ROUNDTRIP_2008_TABLESTYLE_CELLSTYLEMAP
360
15E6
  0
DICTIONARY
  5
15FA
330
8B9
100
AcDbDictionary
280
     1
281
     1
  3
ACAD_XREC_ROUNDTRIP
360
15FB
  0
DICTIONARY
  5
15F8
330
8B8
100
AcDbDictionary
280
     1
281
     1
  3
ACAD_XREC_ROUNDTRIP
360
15F9
  0
DICTIONARY
  5
1606
330
8BF
100
AcDbDictionary
280
     1
281
     1
  3
ACAD_XREC_ROUNDTRIP
360
1607
  0
DICTIONARY
  5
160E
330
8C3
100
AcDbDictionary
280
     1
281
     1
  3
ACAD_XREC_ROUNDTRIP
360
160F
  0
DICTIONARY
  5
1600
330
8BC
100
AcDbDictionary
280
     1
281
     1
  3
ACAD_XREC_ROUNDTRIP
360
1601
  0
DICTIONARY
  5
1604
330
8BE
100
AcDbDictionary
280
     1
281
     1
  3
ACAD_XREC_ROUNDTRIP
360
1605
  0
DICTIONARY
  5
161E
330
8CB
100
AcDbDictionary
280
     1
281
     1
  3
ACAD_XREC_ROUNDTRIP
360
161F
  0
DICTIONARY
  5
160C
330
8C2
100
AcDbDictionary
280
     1
281
     1
  3
ACAD_XREC_ROUNDTRIP
360
160D
  0
DICTIONARY
  5
15F0
330
8B4
100
AcDbDictionary
280
     1
281
     1
  3
ACAD_XREC_ROUNDTRIP
360
15F1
  0
DICTIONARY
  5
15F2
330
8B5
100
AcDbDictionary
280
     1
281
     1
  3
ACAD_XREC_ROUNDTRIP
360
15F3
  0
DICTIONARY
  5
15F4
330
8B6
100
AcDbDictionary
280
     1
281
     1
  3
ACAD_XREC_ROUNDTRIP
360
15F5
  0
DICTIONARY
  5
15F6
330
8B7
100
AcDbDictionary
280
     1
281
     1
  3
ACAD_XREC_ROUNDTRIP
360
15F7
  0
DICTIONARY
  5
15FE
330
8BB
100
AcDbDictionary
280
     1
281
     1
  3
ACAD_XREC_ROUNDTRIP
360
15FF
  0
DICTIONARY
  5
161A
330
8C9
100
AcDbDictionary
280
     1
281
     1
  3
ACAD_XREC_ROUNDTRIP
360
161B
  0
DICTIONARY
  5
160A
330
8C1
100
AcDbDictionary
280
     1
281
     1
  3
ACAD_XREC_ROUNDTRIP
360
160B
  0
DICTIONARY
  5
161C
330
8CA
100
AcDbDictionary
280
     1
281
     1
  3
ACAD_XREC_ROUNDTRIP
360
161D
  0
DICTIONARY
  5
1602
330
8BD
100
AcDbDictionary
280
     1
281
     1
  3
ACAD_XREC_ROUNDTRIP
360
1603
  0
DICTIONARY
  5
1618
330
8C8
100
AcDbDictionary
280
     1
281
     1
  3
ACAD_XREC_ROUNDTRIP
360
1619
  0
DICTIONARY
  5
1616
330
8C7
100
AcDbDictionary
280
     1
281
     1
  3
ACAD_XREC_ROUNDTRIP
360
1617
  0
DICTIONARY
  5
1610
330
8C4
100
AcDbDictionary
280
     1
281
     1
  3
ACAD_XREC_ROUNDTRIP
360
1611
  0
DICTIONARY
  5
1612
330
8C5
100
AcDbDictionary
280
     1
281
     1
  3
ACAD_XREC_ROUNDTRIP
360
1613
  0
DICTIONARY
  5
1608
330
8C0
100
AcDbDictionary
280
     1
281
     1
  3
ACAD_XREC_ROUNDTRIP
360
1609
  0
DICTIONARY
  5
15FC
330
8BA
100
AcDbDictionary
280
     1
281
     1
  3
ACAD_XREC_ROUNDTRIP
360
15FD
  0
DICTIONARY
  5
1614
330
8C6
100
AcDbDictionary
280
     1
281
     1
  3
ACAD_XREC_ROUNDTRIP
360
1615
  0
XRECORD
  5
15E8
102
{ACAD_REACTORS
330
15EE
102
}
330
15EE
100
AcDbXrecord
280
     1
  1
AcDb_Thumbnail_Schema
102
{ATTRRECORD
341
15E9
  2
AcDbDs::TreatedAsObjectData
280
     1
291
     1
102
ATTRRECORD}
102
{ATTRRECORD
341
15EA
  2
AcDbDs::Legacy
280
     1
291
     1
102
ATTRRECORD}
  2
AcDbDs::ID
280
    10
 91
        8
102
{ATTRRECORD
341
15EB
  2
AcDs:Indexable
280
     1
291
     1
102
ATTRRECORD}
102
{ATTRRECORD
341
15EC
  2
AcDbDs::HandleAttribute
280
     7
282
     1
102
ATTRRECORD}
  2
Thumbnail_Data
280
    15
 91
        0
  0
XRECORD
  5
15E9
102
{ACAD_REACTORS
330
15EE
102
}
330
15EE
100
AcDbXrecord
280
     1
  1
AcDbDs::TreatedAsObjectDataSchema
  2
AcDbDs::TreatedAsObjectData
280
     1
 91
        0
  0
XRECORD
  5
15EA
102
{ACAD_REACTORS
330
15EE
102
}
330
15EE
100
AcDbXrecord
280
     1
  1
AcDbDs::LegacySchema
  2
AcDbDs::Legacy
280
     1
 91
        0
  0
XRECORD
  5
15EB
102
{ACAD_REACTORS
330
15EE
102
}
330
15EE
100
AcDbXrecord
280
     1
  1
AcDbDs::IndexedPropertySchema
  2
AcDs:Indexable
280
     1
 91
        0
  0
XRECORD
  5
15EC
102
{ACAD_REACTORS
330
15EE
102
}
330
15EE
100
AcDbXrecord
280
     1
  1
AcDbDs::HandleAttributeSchema
  2
AcDbDs::HandleAttribute
280
     7
 91
        1
284
     1
  0
XRECORD
  5
1623
102
{ACAD_REACTORS
330
1622
102
}
330
1622
100
AcDbXrecord
280
     1
102
DISPLAYNAME
  1
Imperial24
102
FLAGS
 90
        0
  0
XRECORD
  5
8A6
102
{ACAD_REACTORS
330
8A4
102
}
330
8A4
100
AcDbXrecord
280
     1
270
     1
271
     1
  0
XRECORD
  5
8A5
102
{ACAD_REACTORS
330
8A4
102
}
330
8A4
100
AcDbXrecord
280
     1
270
     1
271
     1
  0
XRECORD
  5
8A9
102
{ACAD_REACTORS
330
8A4
102
}
330
8A4
100
AcDbXrecord
280
     1
270
     1
271
     1
  0
XRECORD
  5
8A8
102
{ACAD_REACTORS
330
8A4
102
}
330
8A4
100
AcDbXrecord
280
     1
270
     1
271
     1
  0
XRECORD
  5
8AA
102
{ACAD_REACTORS
330
8A4
102
}
330
8A4
100
AcDbXrecord
280
     1
270
     1
271
     1
  0
XRECORD
  5
8A7
102
{ACAD_REACTORS
330
8A4
102
}
330
8A4
100
AcDbXrecord
280
     1
270
     1
271
     1
  0
XRECORD
  5
89E
102
{ACAD_REACTORS
330
89C
102
}
330
89C
100
AcDbXrecord
280
     1
270
     1
271
     1
  0
XRECORD
  5
89D
102
{ACAD_REACTORS
330
89C
102
}
330
89C
100
AcDbXrecord
280
     1
270
     1
271
     1
  0
XRECORD
  5
8A1
102
{ACAD_REACTORS
330
89C
102
}
330
89C
100
AcDbXrecord
280
     1
270
     1
271
     1
  0
XRECORD
  5
8A0
102
{ACAD_REACTORS
330
89C
102
}
330
89C
100
AcDbXrecord
280
     1
270
     1
271
     1
  0
XRECORD
  5
8A2
102
{ACAD_REACTORS
330
89C
102
}
330
89C
100
AcDbXrecord
280
     1
270
     1
271
     1
  0
XRECORD
  5
89F
102
{ACAD_REACTORS
330
89C
102
}
330
89C
100
AcDbXrecord
280
     1
270
     1
271
     1
  0
XRECORD
  5
8AE
102
{ACAD_REACTORS
330
8AC
102
}
330
8AC
100
AcDbXrecord
280
     1
270
     1
271
     1
  0
XRECORD
  5
8AD
102
{ACAD_REACTORS
330
8AC
102
}
330
8AC
100
AcDbXrecord
280
     1
270
     1
271
     1
  0
XRECORD
  5
8B1
102
{ACAD_REACTORS
330
8AC
102
}
330
8AC
100
AcDbXrecord
280
     1
270
     1
271
     1
  0
XRECORD
  5
8B0
102
{ACAD_REACTORS
330
8AC
102
}
330
8AC
100
AcDbXrecord
280
     1
270
     1
271
     1
  0
XRECORD
  5
8B2
102
{ACAD_REACTORS
330
8AC
102
}
330
8AC
100
AcDbXrecord
280
     1
270
     1
271
     1
  0
XRECORD
  5
8AF
102
{ACAD_REACTORS
330
8AC
102
}
330
8AC
100
AcDbXrecord
280
     1
270
     1
271
     1
  0
XRECORD
  5
1621
102
{ACAD_REACTORS
330
1620
102
}
330
1620
100
AcDbXrecord
280
     1
102
DISPLAYNAME
  1
Imperial24
102
FLAGS
 90
        0
  0
CELLSTYLEMAP
  5
15E6
102
{ACAD_REACTORS
330
B53
102
}
330
B53
100
AcDbCellStyleMap
 90
        3
300
CELLSTYLE
  1
TABLEFORMAT_BEGIN
 90
        5
170
     1
 91
        0
 92
    32768
 62
   257
 93
        1
300
CONTENTFORMAT
  1
CONTENTFORMAT_BEGIN
 90
        0
 91
        0
 92
      512
 93
        0
300

 40
0.0
140
1.0
 94
        5
 62
     0
340
8DF
144
0.25
309
CONTENTFORMAT_END
171
     1
301
MARGIN
  1
CELLMARGIN_BEGIN
 40
0.06
 40
0.06
 40
0.06
 40
0.06
 40
0.18
 40
0.18
309
CELLMARGIN_END
 94
        6
 95
        1
302
GRIDFORMAT
  1
GRIDFORMAT_BEGIN
 90
        0
 91
        1
 62
     0
 92
       -2
340
0
 93
        0
 40
0.045
309
GRIDFORMAT_END
 95
        2
302
GRIDFORMAT
  1
GRIDFORMAT_BEGIN
 90
        0
 91
        1
 62
     0
 92
       -2
340
0
 93
        0
 40
0.045
309
GRIDFORMAT_END
 95
        4
302
GRIDFORMAT
  1
GRIDFORMAT_BEGIN
 90
        0
 91
        1
 62
     0
 92
       -2
340
0
 93
        0
 40
0.045
309
GRIDFORMAT_END
 95
        8
302
GRIDFORMAT
  1
GRIDFORMAT_BEGIN
 90
        0
 91
        1
 62
     0
 92
       -2
340
0
 93
        0
 40
0.045
309
GRIDFORMAT_END
 95
       16
302
GRIDFORMAT
  1
GRIDFORMAT_BEGIN
 90
        0
 91
        1
 62
     0
 92
       -2
340
0
 93
        0
 40
0.045
309
GRIDFORMAT_END
 95
       32
302
GRIDFORMAT
  1
GRIDFORMAT_BEGIN
 90
        0
 91
        1
 62
     0
 92
       -2
340
0
 93
        0
 40
0.045
309
GRIDFORMAT_END
309
TABLEFORMAT_END
  1
CELLSTYLE_BEGIN
 90
        1
 91
        1
300
_TITLE
309
CELLSTYLE_END
300
CELLSTYLE
  1
TABLEFORMAT_BEGIN
 90
        5
170
     1
 91
        0
 92
        0
 62
   257
 93
        1
300
CONTENTFORMAT
  1
CONTENTFORMAT_BEGIN
 90
        0
 91
        0
 92
      512
 93
        0
300

 40
0.0
140
1.0
 94
        5
 62
     0
340
8DF
144
0.18
309
CONTENTFORMAT_END
171
     1
301
MARGIN
  1
CELLMARGIN_BEGIN
 40
0.06
 40
0.06
 40
0.06
 40
0.06
 40
0.18
 40
0.18
309
CELLMARGIN_END
 94
        6
 95
        1
302
GRIDFORMAT
  1
GRIDFORMAT_BEGIN
 90
        0
 91
        1
 62
     0
 92
       -2
340
0
 93
        0
 40
0.045
309
GRIDFORMAT_END
 95
        2
302
GRIDFORMAT
  1
GRIDFORMAT_BEGIN
 90
        0
 91
        1
 62
     0
 92
       -2
340
0
 93
        0
 40
0.045
309
GRIDFORMAT_END
 95
        4
302
GRIDFORMAT
  1
GRIDFORMAT_BEGIN
 90
        0
 91
        1
 62
     0
 92
       -2
340
0
 93
        0
 40
0.045
309
GRIDFORMAT_END
 95
        8
302
GRIDFORMAT
  1
GRIDFORMAT_BEGIN
 90
        0
 91
        1
 62
     0
 92
       -2
340
0
 93
        0
 40
0.045
309
GRIDFORMAT_END
 95
       16
302
GRIDFORMAT
  1
GRIDFORMAT_BEGIN
 90
        0
 91
        1
 62
     0
 92
       -2
340
0
 93
        0
 40
0.045
309
GRIDFORMAT_END
 95
       32
302
GRIDFORMAT
  1
GRIDFORMAT_BEGIN
 90
        0
 91
        1
 62
     0
 92
       -2
340
0
 93
        0
 40
0.045
309
GRIDFORMAT_END
309
TABLEFORMAT_END
  1
CELLSTYLE_BEGIN
 90
        2
 91
        1
300
_HEADER
309
CELLSTYLE_END
300
CELLSTYLE
  1
TABLEFORMAT_BEGIN
 90
        5
170
     1
 91
        0
 92
        0
 62
   257
 93
        1
300
CONTENTFORMAT
  1
CONTENTFORMAT_BEGIN
 90
        0
 91
        0
 92
      512
 93
        0
300

 40
0.0
140
1.0
 94
        2
 62
     0
340
8DF
144
0.18
309
CONTENTFORMAT_END
171
     1
301
MARGIN
  1
CELLMARGIN_BEGIN
 40
0.06
 40
0.06
 40
0.06
 40
0.06
 40
0.18
 40
0.18
309
CELLMARGIN_END
 94
        6
 95
        1
302
GRIDFORMAT
  1
GRIDFORMAT_BEGIN
 90
        0
 91
        1
 62
     0
 92
       -2
340
0
 93
        0
 40
0.045
309
GRIDFORMAT_END
 95
        2
302
GRIDFORMAT
  1
GRIDFORMAT_BEGIN
 90
        0
 91
        1
 62
     0
 92
       -2
340
0
 93
        0
 40
0.045
309
GRIDFORMAT_END
 95
        4
302
GRIDFORMAT
  1
GRIDFORMAT_BEGIN
 90
        0
 91
        1
 62
     0
 92
       -2
340
0
 93
        0
 40
0.045
309
GRIDFORMAT_END
 95
        8
302
GRIDFORMAT
  1
GRIDFORMAT_BEGIN
 90
        0
 91
        1
 62
     0
 92
       -2
340
0
 93
        0
 40
0.045
309
GRIDFORMAT_END
 95
       16
302
GRIDFORMAT
  1
GRIDFORMAT_BEGIN
 90
        0
 91
        1
 62
     0
 92
       -2
340
0
 93
        0
 40
0.045
309
GRIDFORMAT_END
 95
       32
302
GRIDFORMAT
  1
GRIDFORMAT_BEGIN
 90
        0
 91
        1
 62
     0
 92
       -2
340
0
 93
        0
 40
0.045
309
GRIDFORMAT_END
309
TABLEFORMAT_END
  1
CELLSTYLE_BEGIN
 90
        3
 91
        2
300
_DATA
309
CELLSTYLE_END
  0
XRECORD
  5
15FB
102
{ACAD_REACTORS
330
15FA
102
}
330
15FA
100
AcDbXrecord
280
     1
102
RTVSPost2010Prop28
280
     1
102
RTVSPost2010PropOp28
 70
     1
102
RTVSPost2010Prop29
280
     1
102
RTVSPost2010PropOp29
 70
     1
102
RTVSPost2010Prop30
280
     0
102
RTVSPost2010PropOp30
 70
     1
102
RTVSPost2010Prop31
280
     0
102
RTVSPost2010PropOp31
 70
     1
102
RTVSPost2010Prop32
280
     0
102
RTVSPost2010PropOp32
 70
     1
102
RTVSPost2010Prop33
280
     0
102
RTVSPost2010PropOp33
 70
     1
102
RTVSPost2010Prop34
280
     0
102
RTVSPost2010PropOp34
 70
     1
102
RTVSPost2010Prop35
280
     0
102
RTVSPost2010PropOp35
 70
     1
102
RTVSPost2010Prop36
280
     0
102
RTVSPost2010PropOp36
 70
     1
102
RTVSPost2010Prop37
 90
       50
102
RTVSPost2010PropOp37
 70
     1
102
RTVSPost2010Prop38
140
0.0
102
RTVSPost2010PropOp38
 70
     1
102
RTVSPost2010Prop39
140
1.0
102
RTVSPost2010PropOp39
 70
     1
102
RTVSPost2010Prop40
 90
        0
102
RTVSPost2010PropOp40
 70
     1
102
RTVSPost2010Prop41ColorIndex
 90
       18
102
RTVSPost2010Prop41ColorRGB
 90
        0
102
RTVSPost2010PropOp41
 70
     1
102
RTVSPost2010Prop42
 90
       50
102
RTVSPost2010PropOp42
 70
     1
102
RTVSPost2010Prop43
 90
        3
102
RTVSPost2010PropOp43
 70
     1
102
RTVSPost2010Prop44ColorIndex
 90
        5
102
RTVSPost2010Prop44ColorRGB
 90
      255
102
RTVSPost2010PropOp44
 70
     1
102
RTVSPost2010Prop45
280
     0
102
RTVSPost2010PropOp45
 70
     1
102
RTVSPost2010Prop46
 90
       50
102
RTVSPost2010PropOp46
 70
     1
102
RTVSPost2010Prop47
 90
       50
102
RTVSPost2010PropOp47
 70
     1
102
RTVSPost2010Prop48
 90
       50
102
RTVSPost2010PropOp48
 70
     1
102
RTVSPost2010Prop49
280
     0
102
RTVSPost2010PropOp49
 70
     1
102
RTVSPost2010Prop50
 90
       50
102
RTVSPost2010PropOp50
 70
     1
102
RTVSPost2010Prop51ColorIndex
 90
      256
102
RTVSPost2010Prop51ColorRGB
 90
-16777216
102
RTVSPost2010PropOp51
 70
     0
102
RTVSPost2010Prop52
140
1.0
102
RTVSPost2010PropOp52
 70
     0
102
RTVSPost2010Prop53
 90
        2
102
RTVSPost2010PropOp53
 70
     1
102
RTVSPost2010Prop54
  1
strokes_ogs.tif
102
RTVSPost2010PropOp54
 70
     1
102
RTVSPost2010Prop55
280
     0
102
RTVSPost2010PropOp55
 70
     1
102
RTVSPost2010Prop56
140
1.0
102
RTVSPost2010PropOp56
 70
     1
102
RTVSPost2010Prop57
140
1.0
102
RTVSPost2010PropOp57
 70
     1
102
RTVSPropertyOp0
 70
     1
102
RTVSPropertyOp1
 70
     1
102
RTVSPropertyOp2
 70
     1
102
RTVSPropertyOp3
 70
     1
102
RTVSPropertyOp4
 70
     1
102
RTVSPropertyOp5
 70
     1
102
RTVSPropertyOp6
 70
     1
102
RTVSPropertyOp7
 70
     1
102
RTVSPropertyOp8
 70
     1
102
RTVSPropertyOp9
 70
     1
102
RTVSPropertyOp10
 70
     1
102
RTVSPropertyOp11
 70
     1
102
RTVSPropertyOp12
 70
     1
102
RTVSPropertyOp13
 70
     1
102
RTVSPropertyOp14
 70
     1
102
RTVSPropertyOp15
 70
     1
102
RTVSPropertyOp16
 70
     1
102
RTVSPropertyOp17
 70
     1
102
RTVSPropertyOp18
 70
     1
102
RTVSPropertyOp19
 70
     1
102
RTVSPropertyOp20
 70
     1
102
RTVSPropertyOp21
 70
     1
102
RTVSPropertyOp22
 70
     1
102
RTVSPropertyOp23
 70
     1
102
RTVSPropertyOp24
 70
     1
102
RTVSPropertyOp25
 70
     1
102
RTVSPropertyOp26
 70
     1
102
RTVSPropertyOp27
 70
     1
102
RTVSPropertyOp28
 70
     1
102
RTVSPropertyOp29
 70
     1
102
RTVSPropertyOp30
 70
     1
102
RTVSPropertyOp31
 70
     1
102
RTVSPropertyOp32
 70
     1
102
RTVSPropertyOp33
 70
     1
102
RTVSPropertyOp34
 70
     1
102
RTVSPropertyOp35
 70
     1
102
RTVSPropertyOp36
 70
     1
102
RTVSPropertyOp37
 70
     1
102
RTVSPropertyOp38
 70
     1
102
RTVSPropertyOp39
 70
     1
102
RTVSPropertyOp40
 70
     1
102
RTVSPropertyOp41
 70
     1
102
RTVSPropertyOp42
 70
     1
102
RTVSPropertyOp43
 70
     1
102
RTVSPropertyOp44
 70
     1
102
RTVSPropertyOp45
 70
     1
102
RTVSPropertyOp46
 70
     1
102
RTVSPropertyOp47
 70
     1
102
RTVSPropertyOp48
 70
     1
102
RTVSPropertyOp49
 70
     1
102
RTVSPropertyOp50
 70
     1
102
RTVSPropertyOp51
 70
     0
102
RTVSPropertyOp52
 70
     0
102
RTVSPropertyOp53
 70
     1
102
RTVSPropertyOp54
 70
     1
102
RTVSPropertyOp55
 70
     1
102
RTVSPropertyOp56
 70
     1
102
RTVSPropertyOp57
 70
     1
102
RTVSPropertyOp58
 70
     1
102
RTVSPropertyOp59
 70
     1
102
RTVSPropertyOp60
 70
     1
102
RTVSPropertyOp61
 70
     1
102
RTVSPropertyOp62
 70
     1
  0
XRECORD
  5
15F9
102
{ACAD_REACTORS
330
15F8
102
}
330
15F8
100
AcDbXrecord
280
     1
102
RTVSPost2010Prop28
280
     0
102
RTVSPost2010PropOp28
 70
     1
102
RTVSPost2010Prop29
280
     1
102
RTVSPost2010PropOp29
 70
     1
102
RTVSPost2010Prop30
280
     1
102
RTVSPost2010PropOp30
 70
     1
102
RTVSPost2010Prop31
280
     0
102
RTVSPost2010PropOp31
 70
     1
102
RTVSPost2010Prop32
280
     0
102
RTVSPost2010PropOp32
 70
     1
102
RTVSPost2010Prop33
280
     0
102
RTVSPost2010PropOp33
 70
     1
102
RTVSPost2010Prop34
280
     0
102
RTVSPost2010PropOp34
 70
     1
102
RTVSPost2010Prop35
280
     0
102
RTVSPost2010PropOp35
 70
     1
102
RTVSPost2010Prop36
280
     0
102
RTVSPost2010PropOp36
 70
     1
102
RTVSPost2010Prop37
 90
       50
102
RTVSPost2010PropOp37
 70
     1
102
RTVSPost2010Prop38
140
0.0
102
RTVSPost2010PropOp38
 70
     1
102
RTVSPost2010Prop39
140
1.0
102
RTVSPost2010PropOp39
 70
     1
102
RTVSPost2010Prop40
 90
        0
102
RTVSPost2010PropOp40
 70
     1
102
RTVSPost2010Prop41ColorIndex
 90
       18
102
RTVSPost2010Prop41ColorRGB
 90
        0
102
RTVSPost2010PropOp41
 70
     1
102
RTVSPost2010Prop42
 90
       50
102
RTVSPost2010PropOp42
 70
     1
102
RTVSPost2010Prop43
 90
        3
102
RTVSPost2010PropOp43
 70
     1
102
RTVSPost2010Prop44ColorIndex
 90
        5
102
RTVSPost2010Prop44ColorRGB
 90
      255
102
RTVSPost2010PropOp44
 70
     1
102
RTVSPost2010Prop45
280
     0
102
RTVSPost2010PropOp45
 70
     1
102
RTVSPost2010Prop46
 90
       50
102
RTVSPost2010PropOp46
 70
     1
102
RTVSPost2010Prop47
 90
       50
102
RTVSPost2010PropOp47
 70
     1
102
RTVSPost2010Prop48
 90
       50
102
RTVSPost2010PropOp48
 70
     1
102
RTVSPost2010Prop49
280
     0
102
RTVSPost2010PropOp49
 70
     1
102
RTVSPost2010Prop50
 90
       50
102
RTVSPost2010PropOp50
 70
     1
102
RTVSPost2010Prop51ColorIndex
 90
      256
102
RTVSPost2010Prop51ColorRGB
 90
-16777216
102
RTVSPost2010PropOp51
 70
     0
102
RTVSPost2010Prop52
140
1.0
102
RTVSPost2010PropOp52
 70
     0
102
RTVSPost2010Prop53
 90
        2
102
RTVSPost2010PropOp53
 70
     1
102
RTVSPost2010Prop54
  1
strokes_ogs.tif
102
RTVSPost2010PropOp54
 70
     1
102
RTVSPost2010Prop55
280
     0
102
RTVSPost2010PropOp55
 70
     1
102
RTVSPost2010Prop56
140
1.0
102
RTVSPost2010PropOp56
 70
     1
102
RTVSPost2010Prop57
140
1.0
102
RTVSPost2010PropOp57
 70
     1
102
RTVSPropertyOp0
 70
     1
102
RTVSPropertyOp1
 70
     1
102
RTVSPropertyOp2
 70
     1
102
RTVSPropertyOp3
 70
     1
102
RTVSPropertyOp4
 70
     1
102
RTVSPropertyOp5
 70
     1
102
RTVSPropertyOp6
 70
     1
102
RTVSPropertyOp7
 70
     1
102
RTVSPropertyOp8
 70
     1
102
RTVSPropertyOp9
 70
     1
102
RTVSPropertyOp10
 70
     1
102
RTVSPropertyOp11
 70
     1
102
RTVSPropertyOp12
 70
     1
102
RTVSPropertyOp13
 70
     1
102
RTVSPropertyOp14
 70
     1
102
RTVSPropertyOp15
 70
     1
102
RTVSPropertyOp16
 70
     1
102
RTVSPropertyOp17
 70
     1
102
RTVSPropertyOp18
 70
     1
102
RTVSPropertyOp19
 70
     1
102
RTVSPropertyOp20
 70
     1
102
RTVSPropertyOp21
 70
     1
102
RTVSPropertyOp22
 70
     1
102
RTVSPropertyOp23
 70
     1
102
RTVSPropertyOp24
 70
     1
102
RTVSPropertyOp25
 70
     1
102
RTVSPropertyOp26
 70
     1
102
RTVSPropertyOp27
 70
     1
102
RTVSPropertyOp28
 70
     1
102
RTVSPropertyOp29
 70
     1
102
RTVSPropertyOp30
 70
     1
102
RTVSPropertyOp31
 70
     1
102
RTVSPropertyOp32
 70
     1
102
RTVSPropertyOp33
 70
     1
102
RTVSPropertyOp34
 70
     1
102
RTVSPropertyOp35
 70
     1
102
RTVSPropertyOp36
 70
     1
102
RTVSPropertyOp37
 70
     1
102
RTVSPropertyOp38
 70
     1
102
RTVSPropertyOp39
 70
     1
102
RTVSPropertyOp40
 70
     1
102
RTVSPropertyOp41
 70
     1
102
RTVSPropertyOp42
 70
     1
102
RTVSPropertyOp43
 70
     1
102
RTVSPropertyOp44
 70
     1
102
RTVSPropertyOp45
 70
     1
102
RTVSPropertyOp46
 70
     1
102
RTVSPropertyOp47
 70
     1
102
RTVSPropertyOp48
 70
     1
102
RTVSPropertyOp49
 70
     1
102
RTVSPropertyOp50
 70
     1
102
RTVSPropertyOp51
 70
     0
102
RTVSPropertyOp52
 70
     0
102
RTVSPropertyOp53
 70
     1
102
RTVSPropertyOp54
 70
     1
102
RTVSPropertyOp55
 70
     1
102
RTVSPropertyOp56
 70
     1
102
RTVSPropertyOp57
 70
     1
102
RTVSPropertyOp58
 70
     1
102
RTVSPropertyOp59
 70
     1
102
RTVSPropertyOp60
 70
     1
102
RTVSPropertyOp61
 70
     1
102
RTVSPropertyOp62
 70
     1
  0
XRECORD
  5
1607
102
{ACAD_REACTORS
330
1606
102
}
330
1606
100
AcDbXrecord
280
     1
102
RTVSPost2010Prop28
280
     0
102
RTVSPost2010PropOp28
 70
     1
102
RTVSPost2010Prop29
280
     1
102
RTVSPost2010PropOp29
 70
     1
102
RTVSPost2010Prop30
280
     1
102
RTVSPost2010PropOp30
 70
     1
102
RTVSPost2010Prop31
280
     0
102
RTVSPost2010PropOp31
 70
     1
102
RTVSPost2010Prop32
280
     0
102
RTVSPost2010PropOp32
 70
     1
102
RTVSPost2010Prop33
280
     0
102
RTVSPost2010PropOp33
 70
     1
102
RTVSPost2010Prop34
280
     0
102
RTVSPost2010PropOp34
 70
     1
102
RTVSPost2010Prop35
280
     0
102
RTVSPost2010PropOp35
 70
     1
102
RTVSPost2010Prop36
280
     0
102
RTVSPost2010PropOp36
 70
     1
102
RTVSPost2010Prop37
 90
       50
102
RTVSPost2010PropOp37
 70
     1
102
RTVSPost2010Prop38
140
0.0
102
RTVSPost2010PropOp38
 70
     1
102
RTVSPost2010Prop39
140
1.0
102
RTVSPost2010PropOp39
 70
     1
102
RTVSPost2010Prop40
 90
        0
102
RTVSPost2010PropOp40
 70
     1
102
RTVSPost2010Prop41ColorIndex
 90
       18
102
RTVSPost2010Prop41ColorRGB
 90
        0
102
RTVSPost2010PropOp41
 70
     1
102
RTVSPost2010Prop42
 90
       50
102
RTVSPost2010PropOp42
 70
     1
102
RTVSPost2010Prop43
 90
        3
102
RTVSPost2010PropOp43
 70
     1
102
RTVSPost2010Prop44ColorIndex
 90
        5
102
RTVSPost2010Prop44ColorRGB
 90
      255
102
RTVSPost2010PropOp44
 70
     1
102
RTVSPost2010Prop45
280
     0
102
RTVSPost2010PropOp45
 70
     1
102
RTVSPost2010Prop46
 90
       50
102
RTVSPost2010PropOp46
 70
     1
102
RTVSPost2010Prop47
 90
       50
102
RTVSPost2010PropOp47
 70
     1
102
RTVSPost2010Prop48
 90
       50
102
RTVSPost2010PropOp48
 70
     1
102
RTVSPost2010Prop49
280
     0
102
RTVSPost2010PropOp49
 70
     1
102
RTVSPost2010Prop50
 90
       50
102
RTVSPost2010PropOp50
 70
     1
102
RTVSPost2010Prop51ColorIndex
 90
      256
102
RTVSPost2010Prop51ColorRGB
 90
-16777216
102
RTVSPost2010PropOp51
 70
     0
102
RTVSPost2010Prop52
140
1.0
102
RTVSPost2010PropOp52
 70
     0
102
RTVSPost2010Prop53
 90
        2
102
RTVSPost2010PropOp53
 70
     1
102
RTVSPost2010Prop54
  1
strokes_ogs.tif
102
RTVSPost2010PropOp54
 70
     1
102
RTVSPost2010Prop55
280
     0
102
RTVSPost2010PropOp55
 70
     1
102
RTVSPost2010Prop56
140
1.0
102
RTVSPost2010PropOp56
 70
     1
102
RTVSPost2010Prop57
140
1.0
102
RTVSPost2010PropOp57
 70
     1
102
RTVSPropertyOp0
 70
     1
102
RTVSPropertyOp1
 70
     1
102
RTVSPropertyOp2
 70
     1
102
RTVSPropertyOp3
 70
     1
102
RTVSPropertyOp4
 70
     1
102
RTVSPropertyOp5
 70
     1
102
RTVSPropertyOp6
 70
     1
102
RTVSPropertyOp7
 70
     1
102
RTVSPropertyOp8
 70
     1
102
RTVSPropertyOp9
 70
     1
102
RTVSPropertyOp10
 70
     1
102
RTVSPropertyOp11
 70
     1
102
RTVSPropertyOp12
 70
     1
102
RTVSPropertyOp13
 70
     1
102
RTVSPropertyOp14
 70
     1
102
RTVSPropertyOp15
 70
     1
102
RTVSPropertyOp16
 70
     1
102
RTVSPropertyOp17
 70
     1
102
RTVSPropertyOp18
 70
     1
102
RTVSPropertyOp19
 70
     1
102
RTVSPropertyOp20
 70
     1
102
RTVSPropertyOp21
 70
     1
102
RTVSPropertyOp22
 70
     1
102
RTVSPropertyOp23
 70
     1
102
RTVSPropertyOp24
 70
     1
102
RTVSPropertyOp25
 70
     1
102
RTVSPropertyOp26
 70
     1
102
RTVSPropertyOp27
 70
     1
102
RTVSPropertyOp28
 70
     1
102
RTVSPropertyOp29
 70
     1
102
RTVSPropertyOp30
 70
     1
102
RTVSPropertyOp31
 70
     1
102
RTVSPropertyOp32
 70
     1
102
RTVSPropertyOp33
 70
     1
102
RTVSPropertyOp34
 70
     1
102
RTVSPropertyOp35
 70
     1
102
RTVSPropertyOp36
 70
     1
102
RTVSPropertyOp37
 70
     1
102
RTVSPropertyOp38
 70
     1
102
RTVSPropertyOp39
 70
     1
102
RTVSPropertyOp40
 70
     1
102
RTVSPropertyOp41
 70
     1
102
RTVSPropertyOp42
 70
     1
102
RTVSPropertyOp43
 70
     1
102
RTVSPropertyOp44
 70
     1
102
RTVSPropertyOp45
 70
     1
102
RTVSPropertyOp46
 70
     1
102
RTVSPropertyOp47
 70
     1
102
RTVSPropertyOp48
 70
     1
102
RTVSPropertyOp49
 70
     1
102
RTVSPropertyOp50
 70
     1
102
RTVSPropertyOp51
 70
     0
102
RTVSPropertyOp52
 70
     0
102
RTVSPropertyOp53
 70
     1
102
RTVSPropertyOp54
 70
     1
102
RTVSPropertyOp55
 70
     1
102
RTVSPropertyOp56
 70
     1
102
RTVSPropertyOp57
 70
     1
102
RTVSPropertyOp58
 70
     1
102
RTVSPropertyOp59
 70
     1
102
RTVSPropertyOp60
 70
     1
102
RTVSPropertyOp61
 70
     1
102
RTVSPropertyOp62
 70
     1
  0
XRECORD
  5
160F
102
{ACAD_REACTORS
330
160E
102
}
330
160E
100
AcDbXrecord
280
     1
102
RTVSPost2010Prop28
280
     0
102
RTVSPost2010PropOp28
 70
     1
102
RTVSPost2010Prop29
280
     1
102
RTVSPost2010PropOp29
 70
     1
102
RTVSPost2010Prop30
280
     1
102
RTVSPost2010PropOp30
 70
     1
102
RTVSPost2010Prop31
280
     0
102
RTVSPost2010PropOp31
 70
     1
102
RTVSPost2010Prop32
280
     0
102
RTVSPost2010PropOp32
 70
     1
102
RTVSPost2010Prop33
280
     0
102
RTVSPost2010PropOp33
 70
     1
102
RTVSPost2010Prop34
280
     0
102
RTVSPost2010PropOp34
 70
     1
102
RTVSPost2010Prop35
280
     0
102
RTVSPost2010PropOp35
 70
     1
102
RTVSPost2010Prop36
280
     0
102
RTVSPost2010PropOp36
 70
     1
102
RTVSPost2010Prop37
 90
       50
102
RTVSPost2010PropOp37
 70
     1
102
RTVSPost2010Prop38
140
0.0
102
RTVSPost2010PropOp38
 70
     1
102
RTVSPost2010Prop39
140
1.0
102
RTVSPost2010PropOp39
 70
     1
102
RTVSPost2010Prop40
 90
        0
102
RTVSPost2010PropOp40
 70
     1
102
RTVSPost2010Prop41ColorIndex
 90
       18
102
RTVSPost2010Prop41ColorRGB
 90
        0
102
RTVSPost2010PropOp41
 70
     1
102
RTVSPost2010Prop42
 90
       50
102
RTVSPost2010PropOp42
 70
     1
102
RTVSPost2010Prop43
 90
        3
102
RTVSPost2010PropOp43
 70
     1
102
RTVSPost2010Prop44ColorIndex
 90
        5
102
RTVSPost2010Prop44ColorRGB
 90
      255
102
RTVSPost2010PropOp44
 70
     1
102
RTVSPost2010Prop45
280
     0
102
RTVSPost2010PropOp45
 70
     1
102
RTVSPost2010Prop46
 90
       50
102
RTVSPost2010PropOp46
 70
     1
102
RTVSPost2010Prop47
 90
       50
102
RTVSPost2010PropOp47
 70
     1
102
RTVSPost2010Prop48
 90
       50
102
RTVSPost2010PropOp48
 70
     1
102
RTVSPost2010Prop49
280
     0
102
RTVSPost2010PropOp49
 70
     1
102
RTVSPost2010Prop50
 90
       50
102
RTVSPost2010PropOp50
 70
     1
102
RTVSPost2010Prop51ColorIndex
 90
      256
102
RTVSPost2010Prop51ColorRGB
 90
-16777216
102
RTVSPost2010PropOp51
 70
     0
102
RTVSPost2010Prop52
140
1.0
102
RTVSPost2010PropOp52
 70
     0
102
RTVSPost2010Prop53
 90
        2
102
RTVSPost2010PropOp53
 70
     1
102
RTVSPost2010Prop54
  1
strokes_ogs.tif
102
RTVSPost2010PropOp54
 70
     1
102
RTVSPost2010Prop55
280
     0
102
RTVSPost2010PropOp55
 70
     1
102
RTVSPost2010Prop56
140
1.0
102
RTVSPost2010PropOp56
 70
     1
102
RTVSPost2010Prop57
140
1.0
102
RTVSPost2010PropOp57
 70
     1
102
RTVSPropertyOp0
 70
     1
102
RTVSPropertyOp1
 70
     1
102
RTVSPropertyOp2
 70
     1
102
RTVSPropertyOp3
 70
     1
102
RTVSPropertyOp4
 70
     1
102
RTVSPropertyOp5
 70
     1
102
RTVSPropertyOp6
 70
     1
102
RTVSPropertyOp7
 70
     1
102
RTVSPropertyOp8
 70
     1
102
RTVSPropertyOp9
 70
     1
102
RTVSPropertyOp10
 70
     1
102
RTVSPropertyOp11
 70
     1
102
RTVSPropertyOp12
 70
     1
102
RTVSPropertyOp13
 70
     1
102
RTVSPropertyOp14
 70
     1
102
RTVSPropertyOp15
 70
     1
102
RTVSPropertyOp16
 70
     1
102
RTVSPropertyOp17
 70
     1
102
RTVSPropertyOp18
 70
     1
102
RTVSPropertyOp19
 70
     1
102
RTVSPropertyOp20
 70
     1
102
RTVSPropertyOp21
 70
     1
102
RTVSPropertyOp22
 70
     1
102
RTVSPropertyOp23
 70
     1
102
RTVSPropertyOp24
 70
     1
102
RTVSPropertyOp25
 70
     1
102
RTVSPropertyOp26
 70
     1
102
RTVSPropertyOp27
 70
     1
102
RTVSPropertyOp28
 70
     1
102
RTVSPropertyOp29
 70
     1
102
RTVSPropertyOp30
 70
     1
102
RTVSPropertyOp31
 70
     1
102
RTVSPropertyOp32
 70
     1
102
RTVSPropertyOp33
 70
     1
102
RTVSPropertyOp34
 70
     1
102
RTVSPropertyOp35
 70
     1
102
RTVSPropertyOp36
 70
     1
102
RTVSPropertyOp37
 70
     1
102
RTVSPropertyOp38
 70
     1
102
RTVSPropertyOp39
 70
     1
102
RTVSPropertyOp40
 70
     1
102
RTVSPropertyOp41
 70
     1
102
RTVSPropertyOp42
 70
     1
102
RTVSPropertyOp43
 70
     1
102
RTVSPropertyOp44
 70
     1
102
RTVSPropertyOp45
 70
     1
102
RTVSPropertyOp46
 70
     1
102
RTVSPropertyOp47
 70
     1
102
RTVSPropertyOp48
 70
     1
102
RTVSPropertyOp49
 70
     1
102
RTVSPropertyOp50
 70
     1
102
RTVSPropertyOp51
 70
     0
102
RTVSPropertyOp52
 70
     0
102
RTVSPropertyOp53
 70
     1
102
RTVSPropertyOp54
 70
     1
102
RTVSPropertyOp55
 70
     1
102
RTVSPropertyOp56
 70
     1
102
RTVSPropertyOp57
 70
     1
102
RTVSPropertyOp58
 70
     1
102
RTVSPropertyOp59
 70
     1
102
RTVSPropertyOp60
 70
     1
102
RTVSPropertyOp61
 70
     1
102
RTVSPropertyOp62
 70
     1
  0
XRECORD
  5
1601
102
{ACAD_REACTORS
330
1600
102
}
330
1600
100
AcDbXrecord
280
     1
102
RTVSPost2010Prop28
280
     0
102
RTVSPost2010PropOp28
 70
     1
102
RTVSPost2010Prop29
280
     1
102
RTVSPost2010PropOp29
 70
     1
102
RTVSPost2010Prop30
280
     1
102
RTVSPost2010PropOp30
 70
     1
102
RTVSPost2010Prop31
280
     0
102
RTVSPost2010PropOp31
 70
     1
102
RTVSPost2010Prop32
280
     0
102
RTVSPost2010PropOp32
 70
     1
102
RTVSPost2010Prop33
280
     0
102
RTVSPost2010PropOp33
 70
     1
102
RTVSPost2010Prop34
280
     0
102
RTVSPost2010PropOp34
 70
     1
102
RTVSPost2010Prop35
280
     0
102
RTVSPost2010PropOp35
 70
     1
102
RTVSPost2010Prop36
280
     0
102
RTVSPost2010PropOp36
 70
     1
102
RTVSPost2010Prop37
 90
       50
102
RTVSPost2010PropOp37
 70
     1
102
RTVSPost2010Prop38
140
0.0
102
RTVSPost2010PropOp38
 70
     1
102
RTVSPost2010Prop39
140
1.0
102
RTVSPost2010PropOp39
 70
     1
102
RTVSPost2010Prop40
 90
        0
102
RTVSPost2010PropOp40
 70
     1
102
RTVSPost2010Prop41ColorIndex
 90
       18
102
RTVSPost2010Prop41ColorRGB
 90
        0
102
RTVSPost2010PropOp41
 70
     1
102
RTVSPost2010Prop42
 90
       50
102
RTVSPost2010PropOp42
 70
     1
102
RTVSPost2010Prop43
 90
        3
102
RTVSPost2010PropOp43
 70
     1
102
RTVSPost2010Prop44ColorIndex
 90
        5
102
RTVSPost2010Prop44ColorRGB
 90
      255
102
RTVSPost2010PropOp44
 70
     1
102
RTVSPost2010Prop45
280
     0
102
RTVSPost2010PropOp45
 70
     1
102
RTVSPost2010Prop46
 90
       50
102
RTVSPost2010PropOp46
 70
     1
102
RTVSPost2010Prop47
 90
       50
102
RTVSPost2010PropOp47
 70
     1
102
RTVSPost2010Prop48
 90
       50
102
RTVSPost2010PropOp48
 70
     1
102
RTVSPost2010Prop49
280
     0
102
RTVSPost2010PropOp49
 70
     1
102
RTVSPost2010Prop50
 90
       50
102
RTVSPost2010PropOp50
 70
     1
102
RTVSPost2010Prop51ColorIndex
 90
      256
102
RTVSPost2010Prop51ColorRGB
 90
-16777216
102
RTVSPost2010PropOp51
 70
     0
102
RTVSPost2010Prop52
140
1.0
102
RTVSPost2010PropOp52
 70
     0
102
RTVSPost2010Prop53
 90
        2
102
RTVSPost2010PropOp53
 70
     1
102
RTVSPost2010Prop54
  1
strokes_ogs.tif
102
RTVSPost2010PropOp54
 70
     1
102
RTVSPost2010Prop55
280
     0
102
RTVSPost2010PropOp55
 70
     1
102
RTVSPost2010Prop56
140
1.0
102
RTVSPost2010PropOp56
 70
     1
102
RTVSPost2010Prop57
140
1.0
102
RTVSPost2010PropOp57
 70
     1
102
RTVSPropertyOp0
 70
     1
102
RTVSPropertyOp1
 70
     1
102
RTVSPropertyOp2
 70
     1
102
RTVSPropertyOp3
 70
     1
102
RTVSPropertyOp4
 70
     1
102
RTVSPropertyOp5
 70
     1
102
RTVSPropertyOp6
 70
     1
102
RTVSPropertyOp7
 70
     1
102
RTVSPropertyOp8
 70
     1
102
RTVSPropertyOp9
 70
     1
102
RTVSPropertyOp10
 70
     1
102
RTVSPropertyOp11
 70
     1
102
RTVSPropertyOp12
 70
     1
102
RTVSPropertyOp13
 70
     1
102
RTVSPropertyOp14
 70
     1
102
RTVSPropertyOp15
 70
     1
102
RTVSPropertyOp16
 70
     1
102
RTVSPropertyOp17
 70
     1
102
RTVSPropertyOp18
 70
     1
102
RTVSPropertyOp19
 70
     1
102
RTVSPropertyOp20
 70
     1
102
RTVSPropertyOp21
 70
     1
102
RTVSPropertyOp22
 70
     1
102
RTVSPropertyOp23
 70
     1
102
RTVSPropertyOp24
 70
     1
102
RTVSPropertyOp25
 70
     1
102
RTVSPropertyOp26
 70
     1
102
RTVSPropertyOp27
 70
     1
102
RTVSPropertyOp28
 70
     1
102
RTVSPropertyOp29
 70
     1
102
RTVSPropertyOp30
 70
     1
102
RTVSPropertyOp31
 70
     1
102
RTVSPropertyOp32
 70
     1
102
RTVSPropertyOp33
 70
     1
102
RTVSPropertyOp34
 70
     1
102
RTVSPropertyOp35
 70
     1
102
RTVSPropertyOp36
 70
     1
102
RTVSPropertyOp37
 70
     1
102
RTVSPropertyOp38
 70
     1
102
RTVSPropertyOp39
 70
     1
102
RTVSPropertyOp40
 70
     1
102
RTVSPropertyOp41
 70
     1
102
RTVSPropertyOp42
 70
     1
102
RTVSPropertyOp43
 70
     1
102
RTVSPropertyOp44
 70
     1
102
RTVSPropertyOp45
 70
     1
102
RTVSPropertyOp46
 70
     1
102
RTVSPropertyOp47
 70
     1
102
RTVSPropertyOp48
 70
     1
102
RTVSPropertyOp49
 70
     1
102
RTVSPropertyOp50
 70
     1
102
RTVSPropertyOp51
 70
     0
102
RTVSPropertyOp52
 70
     0
102
RTVSPropertyOp53
 70
     1
102
RTVSPropertyOp54
 70
     1
102
RTVSPropertyOp55
 70
     1
102
RTVSPropertyOp56
 70
     1
102
RTVSPropertyOp57
 70
     1
102
RTVSPropertyOp58
 70
     1
102
RTVSPropertyOp59
 70
     1
102
RTVSPropertyOp60
 70
     1
102
RTVSPropertyOp61
 70
     1
102
RTVSPropertyOp62
 70
     1
  0
XRECORD
  5
1605
102
{ACAD_REACTORS
330
1604
102
}
330
1604
100
AcDbXrecord
280
     1
102
RTVSPost2010Prop28
280
     0
102
RTVSPost2010PropOp28
 70
     1
102
RTVSPost2010Prop29
280
     1
102
RTVSPost2010PropOp29
 70
     1
102
RTVSPost2010Prop30
280
     1
102
RTVSPost2010PropOp30
 70
     1
102
RTVSPost2010Prop31
280
     0
102
RTVSPost2010PropOp31
 70
     1
102
RTVSPost2010Prop32
280
     0
102
RTVSPost2010PropOp32
 70
     1
102
RTVSPost2010Prop33
280
     0
102
RTVSPost2010PropOp33
 70
     1
102
RTVSPost2010Prop34
280
     0
102
RTVSPost2010PropOp34
 70
     1
102
RTVSPost2010Prop35
280
     0
102
RTVSPost2010PropOp35
 70
     1
102
RTVSPost2010Prop36
280
     0
102
RTVSPost2010PropOp36
 70
     1
102
RTVSPost2010Prop37
 90
       50
102
RTVSPost2010PropOp37
 70
     1
102
RTVSPost2010Prop38
140
0.0
102
RTVSPost2010PropOp38
 70
     1
102
RTVSPost2010Prop39
140
1.0
102
RTVSPost2010PropOp39
 70
     1
102
RTVSPost2010Prop40
 90
        0
102
RTVSPost2010PropOp40
 70
     1
102
RTVSPost2010Prop41ColorIndex
 90
       18
102
RTVSPost2010Prop41ColorRGB
 90
        0
102
RTVSPost2010PropOp41
 70
     1
102
RTVSPost2010Prop42
 90
       50
102
RTVSPost2010PropOp42
 70
     1
102
RTVSPost2010Prop43
 90
        3
102
RTVSPost2010PropOp43
 70
     1
102
RTVSPost2010Prop44ColorIndex
 90
        5
102
RTVSPost2010Prop44ColorRGB
 90
      255
102
RTVSPost2010PropOp44
 70
     1
102
RTVSPost2010Prop45
280
     0
102
RTVSPost2010PropOp45
 70
     1
102
RTVSPost2010Prop46
 90
       50
102
RTVSPost2010PropOp46
 70
     1
102
RTVSPost2010Prop47
 90
       50
102
RTVSPost2010PropOp47
 70
     1
102
RTVSPost2010Prop48
 90
       50
102
RTVSPost2010PropOp48
 70
     1
102
RTVSPost2010Prop49
280
     0
102
RTVSPost2010PropOp49
 70
     1
102
RTVSPost2010Prop50
 90
       50
102
RTVSPost2010PropOp50
 70
     1
102
RTVSPost2010Prop51ColorIndex
 90
      256
102
RTVSPost2010Prop51ColorRGB
 90
-16777216
102
RTVSPost2010PropOp51
 70
     0
102
RTVSPost2010Prop52
140
1.0
102
RTVSPost2010PropOp52
 70
     0
102
RTVSPost2010Prop53
 90
        2
102
RTVSPost2010PropOp53
 70
     1
102
RTVSPost2010Prop54
  1
strokes_ogs.tif
102
RTVSPost2010PropOp54
 70
     1
102
RTVSPost2010Prop55
280
     0
102
RTVSPost2010PropOp55
 70
     1
102
RTVSPost2010Prop56
140
1.0
102
RTVSPost2010PropOp56
 70
     1
102
RTVSPost2010Prop57
140
1.0
102
RTVSPost2010PropOp57
 70
     1
102
RTVSPropertyOp0
 70
     1
102
RTVSPropertyOp1
 70
     1
102
RTVSPropertyOp2
 70
     1
102
RTVSPropertyOp3
 70
     1
102
RTVSPropertyOp4
 70
     1
102
RTVSPropertyOp5
 70
     1
102
RTVSPropertyOp6
 70
     1
102
RTVSPropertyOp7
 70
     1
102
RTVSPropertyOp8
 70
     1
102
RTVSPropertyOp9
 70
     1
102
RTVSPropertyOp10
 70
     1
102
RTVSPropertyOp11
 70
     1
102
RTVSPropertyOp12
 70
     1
102
RTVSPropertyOp13
 70
     1
102
RTVSPropertyOp14
 70
     1
102
RTVSPropertyOp15
 70
     1
102
RTVSPropertyOp16
 70
     1
102
RTVSPropertyOp17
 70
     1
102
RTVSPropertyOp18
 70
     1
102
RTVSPropertyOp19
 70
     1
102
RTVSPropertyOp20
 70
     1
102
RTVSPropertyOp21
 70
     1
102
RTVSPropertyOp22
 70
     1
102
RTVSPropertyOp23
 70
     1
102
RTVSPropertyOp24
 70
     1
102
RTVSPropertyOp25
 70
     1
102
RTVSPropertyOp26
 70
     1
102
RTVSPropertyOp27
 70
     1
102
RTVSPropertyOp28
 70
     1
102
RTVSPropertyOp29
 70
     1
102
RTVSPropertyOp30
 70
     1
102
RTVSPropertyOp31
 70
     1
102
RTVSPropertyOp32
 70
     1
102
RTVSPropertyOp33
 70
     1
102
RTVSPropertyOp34
 70
     1
102
RTVSPropertyOp35
 70
     1
102
RTVSPropertyOp36
 70
     1
102
RTVSPropertyOp37
 70
     1
102
RTVSPropertyOp38
 70
     1
102
RTVSPropertyOp39
 70
     1
102
RTVSPropertyOp40
 70
     1
102
RTVSPropertyOp41
 70
     1
102
RTVSPropertyOp42
 70
     1
102
RTVSPropertyOp43
 70
     1
102
RTVSPropertyOp44
 70
     1
102
RTVSPropertyOp45
 70
     1
102
RTVSPropertyOp46
 70
     1
102
RTVSPropertyOp47
 70
     1
102
RTVSPropertyOp48
 70
     1
102
RTVSPropertyOp49
 70
     1
102
RTVSPropertyOp50
 70
     1
102
RTVSPropertyOp51
 70
     0
102
RTVSPropertyOp52
 70
     0
102
RTVSPropertyOp53
 70
     1
102
RTVSPropertyOp54
 70
     1
102
RTVSPropertyOp55
 70
     1
102
RTVSPropertyOp56
 70
     1
102
RTVSPropertyOp57
 70
     1
102
RTVSPropertyOp58
 70
     1
102
RTVSPropertyOp59
 70
     1
102
RTVSPropertyOp60
 70
     1
102
RTVSPropertyOp61
 70
     1
102
RTVSPropertyOp62
 70
     1
  0
XRECORD
  5
161F
102
{ACAD_REACTORS
330
161E
102
}
330
161E
100
AcDbXrecord
280
     1
102
RTVSPost2010Prop28
280
     0
102
RTVSPost2010PropOp28
 70
     1
102
RTVSPost2010Prop29
280
     1
102
RTVSPost2010PropOp29
 70
     1
102
RTVSPost2010Prop30
280
     1
102
RTVSPost2010PropOp30
 70
     1
102
RTVSPost2010Prop31
280
     0
102
RTVSPost2010PropOp31
 70
     1
102
RTVSPost2010Prop32
280
     0
102
RTVSPost2010PropOp32
 70
     1
102
RTVSPost2010Prop33
280
     0
102
RTVSPost2010PropOp33
 70
     1
102
RTVSPost2010Prop34
280
     0
102
RTVSPost2010PropOp34
 70
     1
102
RTVSPost2010Prop35
280
     0
102
RTVSPost2010PropOp35
 70
     1
102
RTVSPost2010Prop36
280
     0
102
RTVSPost2010PropOp36
 70
     1
102
RTVSPost2010Prop37
 90
       50
102
RTVSPost2010PropOp37
 70
     0
102
RTVSPost2010Prop38
140
0.0
102
RTVSPost2010PropOp38
 70
     0
102
RTVSPost2010Prop39
140
1.0
102
RTVSPost2010PropOp39
 70
     0
102
RTVSPost2010Prop40
 90
        0
102
RTVSPost2010PropOp40
 70
     0
102
RTVSPost2010Prop41ColorIndex
 90
       18
102
RTVSPost2010Prop41ColorRGB
 90
        0
102
RTVSPost2010PropOp41
 70
     0
102
RTVSPost2010Prop42
 90
       50
102
RTVSPost2010PropOp42
 70
     0
102
RTVSPost2010Prop43
 90
        3
102
RTVSPost2010PropOp43
 70
     0
102
RTVSPost2010Prop44ColorIndex
 90
        5
102
RTVSPost2010Prop44ColorRGB
 90
      255
102
RTVSPost2010PropOp44
 70
     0
102
RTVSPost2010Prop45
280
     0
102
RTVSPost2010PropOp45
 70
     1
102
RTVSPost2010Prop46
 90
       50
102
RTVSPost2010PropOp46
 70
     0
102
RTVSPost2010Prop47
 90
       50
102
RTVSPost2010PropOp47
 70
     0
102
RTVSPost2010Prop48
 90
       50
102
RTVSPost2010PropOp48
 70
     0
102
RTVSPost2010Prop49
280
     0
102
RTVSPost2010PropOp49
 70
     1
102
RTVSPost2010Prop50
 90
       50
102
RTVSPost2010PropOp50
 70
     0
102
RTVSPost2010Prop51ColorIndex
 90
      256
102
RTVSPost2010Prop51ColorRGB
 90
-16777216
102
RTVSPost2010PropOp51
 70
     0
102
RTVSPost2010Prop52
140
1.0
102
RTVSPost2010PropOp52
 70
     0
102
RTVSPost2010Prop53
 90
        2
102
RTVSPost2010PropOp53
 70
     0
102
RTVSPost2010Prop54
  1
strokes_ogs.tif
102
RTVSPost2010PropOp54
 70
     0
102
RTVSPost2010Prop55
280
     0
102
RTVSPost2010PropOp55
 70
     1
102
RTVSPost2010Prop56
140
1.0
102
RTVSPost2010PropOp56
 70
     0
102
RTVSPost2010Prop57
140
1.0
102
RTVSPost2010PropOp57
 70
     0
102
RTVSPropertyOp0
 70
     0
102
RTVSPropertyOp1
 70
     0
102
RTVSPropertyOp2
 70
     0
102
RTVSPropertyOp3
 70
     0
102
RTVSPropertyOp4
 70
     0
102
RTVSPropertyOp5
 70
     0
102
RTVSPropertyOp6
 70
     0
102
RTVSPropertyOp7
 70
     0
102
RTVSPropertyOp8
 70
     0
102
RTVSPropertyOp9
 70
     0
102
RTVSPropertyOp10
 70
     0
102
RTVSPropertyOp11
 70
     0
102
RTVSPropertyOp12
 70
     0
102
RTVSPropertyOp13
 70
     0
102
RTVSPropertyOp14
 70
     2
102
RTVSPropertyOp15
 70
     0
102
RTVSPropertyOp16
 70
     0
102
RTVSPropertyOp17
 70
     0
102
RTVSPropertyOp18
 70
     0
102
RTVSPropertyOp19
 70
     0
102
RTVSPropertyOp20
 70
     0
102
RTVSPropertyOp21
 70
     0
102
RTVSPropertyOp22
 70
     0
102
RTVSPropertyOp23
 70
     0
102
RTVSPropertyOp24
 70
     0
102
RTVSPropertyOp25
 70
     0
102
RTVSPropertyOp26
 70
     0
102
RTVSPropertyOp27
 70
     0
102
RTVSPropertyOp28
 70
     1
102
RTVSPropertyOp29
 70
     1
102
RTVSPropertyOp30
 70
     1
102
RTVSPropertyOp31
 70
     1
102
RTVSPropertyOp32
 70
     1
102
RTVSPropertyOp33
 70
     1
102
RTVSPropertyOp34
 70
     1
102
RTVSPropertyOp35
 70
     1
102
RTVSPropertyOp36
 70
     1
102
RTVSPropertyOp37
 70
     0
102
RTVSPropertyOp38
 70
     0
102
RTVSPropertyOp39
 70
     0
102
RTVSPropertyOp40
 70
     0
102
RTVSPropertyOp41
 70
     0
102
RTVSPropertyOp42
 70
     0
102
RTVSPropertyOp43
 70
     0
102
RTVSPropertyOp44
 70
     0
102
RTVSPropertyOp45
 70
     1
102
RTVSPropertyOp46
 70
     0
102
RTVSPropertyOp47
 70
     0
102
RTVSPropertyOp48
 70
     0
102
RTVSPropertyOp49
 70
     1
102
RTVSPropertyOp50
 70
     0
102
RTVSPropertyOp51
 70
     0
102
RTVSPropertyOp52
 70
     0
102
RTVSPropertyOp53
 70
     0
102
RTVSPropertyOp54
 70
     0
102
RTVSPropertyOp55
 70
     1
102
RTVSPropertyOp56
 70
     0
102
RTVSPropertyOp57
 70
     0
102
RTVSPropertyOp58
 70
     1
102
RTVSPropertyOp59
 70
     1
102
RTVSPropertyOp60
 70
     1
102
RTVSPropertyOp61
 70
     1
102
RTVSPropertyOp62
 70
     1
  0
XRECORD
  5
160D
102
{ACAD_REACTORS
330
160C
102
}
330
160C
100
AcDbXrecord
280
     1
102
RTVSPost2010Prop28
280
     0
102
RTVSPost2010PropOp28
 70
     1
102
RTVSPost2010Prop29
280
     1
102
RTVSPost2010PropOp29
 70
     1
102
RTVSPost2010Prop30
280
     1
102
RTVSPost2010PropOp30
 70
     1
102
RTVSPost2010Prop31
280
     0
102
RTVSPost2010PropOp31
 70
     1
102
RTVSPost2010Prop32
280
     0
102
RTVSPost2010PropOp32
 70
     1
102
RTVSPost2010Prop33
280
     0
102
RTVSPost2010PropOp33
 70
     1
102
RTVSPost2010Prop34
280
     0
102
RTVSPost2010PropOp34
 70
     1
102
RTVSPost2010Prop35
280
     0
102
RTVSPost2010PropOp35
 70
     1
102
RTVSPost2010Prop36
280
     0
102
RTVSPost2010PropOp36
 70
     1
102
RTVSPost2010Prop37
 90
       50
102
RTVSPost2010PropOp37
 70
     1
102
RTVSPost2010Prop38
140
0.0
102
RTVSPost2010PropOp38
 70
     1
102
RTVSPost2010Prop39
140
1.0
102
RTVSPost2010PropOp39
 70
     1
102
RTVSPost2010Prop40
 90
        0
102
RTVSPost2010PropOp40
 70
     1
102
RTVSPost2010Prop41ColorIndex
 90
       18
102
RTVSPost2010Prop41ColorRGB
 90
        0
102
RTVSPost2010PropOp41
 70
     1
102
RTVSPost2010Prop42
 90
       50
102
RTVSPost2010PropOp42
 70
     1
102
RTVSPost2010Prop43
 90
        3
102
RTVSPost2010PropOp43
 70
     1
102
RTVSPost2010Prop44ColorIndex
 90
        5
102
RTVSPost2010Prop44ColorRGB
 90
      255
102
RTVSPost2010PropOp44
 70
     1
102
RTVSPost2010Prop45
280
     0
102
RTVSPost2010PropOp45
 70
     1
102
RTVSPost2010Prop46
 90
       50
102
RTVSPost2010PropOp46
 70
     1
102
RTVSPost2010Prop47
 90
       50
102
RTVSPost2010PropOp47
 70
     1
102
RTVSPost2010Prop48
 90
       50
102
RTVSPost2010PropOp48
 70
     1
102
RTVSPost2010Prop49
280
     0
102
RTVSPost2010PropOp49
 70
     1
102
RTVSPost2010Prop50
 90
       50
102
RTVSPost2010PropOp50
 70
     1
102
RTVSPost2010Prop51ColorIndex
 90
      256
102
RTVSPost2010Prop51ColorRGB
 90
-16777216
102
RTVSPost2010PropOp51
 70
     0
102
RTVSPost2010Prop52
140
1.0
102
RTVSPost2010PropOp52
 70
     0
102
RTVSPost2010Prop53
 90
        2
102
RTVSPost2010PropOp53
 70
     1
102
RTVSPost2010Prop54
  1
strokes_ogs.tif
102
RTVSPost2010PropOp54
 70
     1
102
RTVSPost2010Prop55
280
     0
102
RTVSPost2010PropOp55
 70
     1
102
RTVSPost2010Prop56
140
1.0
102
RTVSPost2010PropOp56
 70
     1
102
RTVSPost2010Prop57
140
1.0
102
RTVSPost2010PropOp57
 70
     1
102
RTVSPropertyOp0
 70
     1
102
RTVSPropertyOp1
 70
     1
102
RTVSPropertyOp2
 70
     1
102
RTVSPropertyOp3
 70
     1
102
RTVSPropertyOp4
 70
     1
102
RTVSPropertyOp5
 70
     1
102
RTVSPropertyOp6
 70
     1
102
RTVSPropertyOp7
 70
     1
102
RTVSPropertyOp8
 70
     1
102
RTVSPropertyOp9
 70
     1
102
RTVSPropertyOp10
 70
     1
102
RTVSPropertyOp11
 70
     1
102
RTVSPropertyOp12
 70
     1
102
RTVSPropertyOp13
 70
     1
102
RTVSPropertyOp14
 70
     1
102
RTVSPropertyOp15
 70
     1
102
RTVSPropertyOp16
 70
     1
102
RTVSPropertyOp17
 70
     1
102
RTVSPropertyOp18
 70
     1
102
RTVSPropertyOp19
 70
     1
102
RTVSPropertyOp20
 70
     1
102
RTVSPropertyOp21
 70
     1
102
RTVSPropertyOp22
 70
     1
102
RTVSPropertyOp23
 70
     1
102
RTVSPropertyOp24
 70
     1
102
RTVSPropertyOp25
 70
     1
102
RTVSPropertyOp26
 70
     1
102
RTVSPropertyOp27
 70
     1
102
RTVSPropertyOp28
 70
     1
102
RTVSPropertyOp29
 70
     1
102
RTVSPropertyOp30
 70
     1
102
RTVSPropertyOp31
 70
     1
102
RTVSPropertyOp32
 70
     1
102
RTVSPropertyOp33
 70
     1
102
RTVSPropertyOp34
 70
     1
102
RTVSPropertyOp35
 70
     1
102
RTVSPropertyOp36
 70
     1
102
RTVSPropertyOp37
 70
     1
102
RTVSPropertyOp38
 70
     1
102
RTVSPropertyOp39
 70
     1
102
RTVSPropertyOp40
 70
     1
102
RTVSPropertyOp41
 70
     1
102
RTVSPropertyOp42
 70
     1
102
RTVSPropertyOp43
 70
     1
102
RTVSPropertyOp44
 70
     1
102
RTVSPropertyOp45
 70
     1
102
RTVSPropertyOp46
 70
     1
102
RTVSPropertyOp47
 70
     1
102
RTVSPropertyOp48
 70
     1
102
RTVSPropertyOp49
 70
     1
102
RTVSPropertyOp50
 70
     1
102
RTVSPropertyOp51
 70
     0
102
RTVSPropertyOp52
 70
     0
102
RTVSPropertyOp53
 70
     1
102
RTVSPropertyOp54
 70
     1
102
RTVSPropertyOp55
 70
     1
102
RTVSPropertyOp56
 70
     1
102
RTVSPropertyOp57
 70
     1
102
RTVSPropertyOp58
 70
     1
102
RTVSPropertyOp59
 70
     1
102
RTVSPropertyOp60
 70
     1
102
RTVSPropertyOp61
 70
     1
102
RTVSPropertyOp62
 70
     1
  0
XRECORD
  5
15F1
102
{ACAD_REACTORS
330
15F0
102
}
330
15F0
100
AcDbXrecord
280
     1
102
RTVSPost2010Prop28
280
     0
102
RTVSPost2010PropOp28
 70
     1
102
RTVSPost2010Prop29
280
     1
102
RTVSPost2010PropOp29
 70
     1
102
RTVSPost2010Prop30
280
     1
102
RTVSPost2010PropOp30
 70
     1
102
RTVSPost2010Prop31
280
     0
102
RTVSPost2010PropOp31
 70
     1
102
RTVSPost2010Prop32
280
     0
102
RTVSPost2010PropOp32
 70
     1
102
RTVSPost2010Prop33
280
     0
102
RTVSPost2010PropOp33
 70
     1
102
RTVSPost2010Prop34
280
     0
102
RTVSPost2010PropOp34
 70
     1
102
RTVSPost2010Prop35
280
     0
102
RTVSPost2010PropOp35
 70
     1
102
RTVSPost2010Prop36
280
     0
102
RTVSPost2010PropOp36
 70
     1
102
RTVSPost2010Prop37
 90
       50
102
RTVSPost2010PropOp37
 70
     1
102
RTVSPost2010Prop38
140
0.0
102
RTVSPost2010PropOp38
 70
     1
102
RTVSPost2010Prop39
140
1.0
102
RTVSPost2010PropOp39
 70
     1
102
RTVSPost2010Prop40
 90
        0
102
RTVSPost2010PropOp40
 70
     1
102
RTVSPost2010Prop41ColorIndex
 90
       18
102
RTVSPost2010Prop41ColorRGB
 90
        0
102
RTVSPost2010PropOp41
 70
     1
102
RTVSPost2010Prop42
 90
       50
102
RTVSPost2010PropOp42
 70
     1
102
RTVSPost2010Prop43
 90
        3
102
RTVSPost2010PropOp43
 70
     1
102
RTVSPost2010Prop44ColorIndex
 90
        5
102
RTVSPost2010Prop44ColorRGB
 90
      255
102
RTVSPost2010PropOp44
 70
     1
102
RTVSPost2010Prop45
280
     0
102
RTVSPost2010PropOp45
 70
     1
102
RTVSPost2010Prop46
 90
       50
102
RTVSPost2010PropOp46
 70
     1
102
RTVSPost2010Prop47
 90
       50
102
RTVSPost2010PropOp47
 70
     1
102
RTVSPost2010Prop48
 90
       50
102
RTVSPost2010PropOp48
 70
     1
102
RTVSPost2010Prop49
280
     0
102
RTVSPost2010PropOp49
 70
     1
102
RTVSPost2010Prop50
 90
       50
102
RTVSPost2010PropOp50
 70
     1
102
RTVSPost2010Prop51ColorIndex
 90
      256
102
RTVSPost2010Prop51ColorRGB
 90
-16777216
102
RTVSPost2010PropOp51
 70
     0
102
RTVSPost2010Prop52
140
1.0
102
RTVSPost2010PropOp52
 70
     0
102
RTVSPost2010Prop53
 90
        2
102
RTVSPost2010PropOp53
 70
     1
102
RTVSPost2010Prop54
  1
strokes_ogs.tif
102
RTVSPost2010PropOp54
 70
     1
102
RTVSPost2010Prop55
280
     0
102
RTVSPost2010PropOp55
 70
     1
102
RTVSPost2010Prop56
140
1.0
102
RTVSPost2010PropOp56
 70
     1
102
RTVSPost2010Prop57
140
1.0
102
RTVSPost2010PropOp57
 70
     1
102
RTVSPropertyOp0
 70
     1
102
RTVSPropertyOp1
 70
     1
102
RTVSPropertyOp2
 70
     1
102
RTVSPropertyOp3
 70
     1
102
RTVSPropertyOp4
 70
     1
102
RTVSPropertyOp5
 70
     1
102
RTVSPropertyOp6
 70
     1
102
RTVSPropertyOp7
 70
     1
102
RTVSPropertyOp8
 70
     1
102
RTVSPropertyOp9
 70
     1
102
RTVSPropertyOp10
 70
     1
102
RTVSPropertyOp11
 70
     1
102
RTVSPropertyOp12
 70
     1
102
RTVSPropertyOp13
 70
     1
102
RTVSPropertyOp14
 70
     1
102
RTVSPropertyOp15
 70
     1
102
RTVSPropertyOp16
 70
     1
102
RTVSPropertyOp17
 70
     1
102
RTVSPropertyOp18
 70
     1
102
RTVSPropertyOp19
 70
     1
102
RTVSPropertyOp20
 70
     1
102
RTVSPropertyOp21
 70
     1
102
RTVSPropertyOp22
 70
     1
102
RTVSPropertyOp23
 70
     1
102
RTVSPropertyOp24
 70
     1
102
RTVSPropertyOp25
 70
     1
102
RTVSPropertyOp26
 70
     1
102
RTVSPropertyOp27
 70
     1
102
RTVSPropertyOp28
 70
     1
102
RTVSPropertyOp29
 70
     1
102
RTVSPropertyOp30
 70
     1
102
RTVSPropertyOp31
 70
     1
102
RTVSPropertyOp32
 70
     1
102
RTVSPropertyOp33
 70
     1
102
RTVSPropertyOp34
 70
     1
102
RTVSPropertyOp35
 70
     1
102
RTVSPropertyOp36
 70
     1
102
RTVSPropertyOp37
 70
     1
102
RTVSPropertyOp38
 70
     1
102
RTVSPropertyOp39
 70
     1
102
RTVSPropertyOp40
 70
     1
102
RTVSPropertyOp41
 70
     1
102
RTVSPropertyOp42
 70
     1
102
RTVSPropertyOp43
 70
     1
102
RTVSPropertyOp44
 70
     1
102
RTVSPropertyOp45
 70
     1
102
RTVSPropertyOp46
 70
     1
102
RTVSPropertyOp47
 70
     1
102
RTVSPropertyOp48
 70
     1
102
RTVSPropertyOp49
 70
     1
102
RTVSPropertyOp50
 70
     1
102
RTVSPropertyOp51
 70
     0
102
RTVSPropertyOp52
 70
     0
102
RTVSPropertyOp53
 70
     1
102
RTVSPropertyOp54
 70
     1
102
RTVSPropertyOp55
 70
     1
102
RTVSPropertyOp56
 70
     1
102
RTVSPropertyOp57
 70
     1
102
RTVSPropertyOp58
 70
     1
102
RTVSPropertyOp59
 70
     1
102
RTVSPropertyOp60
 70
     1
102
RTVSPropertyOp61
 70
     1
102
RTVSPropertyOp62
 70
     1
  0
XRECORD
  5
15F3
102
{ACAD_REACTORS
330
15F2
102
}
330
15F2
100
AcDbXrecord
280
     1
102
RTVSPost2010Prop28
280
     0
102
RTVSPost2010PropOp28
 70
     1
102
RTVSPost2010Prop29
280
     1
102
RTVSPost2010PropOp29
 70
     1
102
RTVSPost2010Prop30
280
     1
102
RTVSPost2010PropOp30
 70
     1
102
RTVSPost2010Prop31
280
     0
102
RTVSPost2010PropOp31
 70
     1
102
RTVSPost2010Prop32
280
     0
102
RTVSPost2010PropOp32
 70
     1
102
RTVSPost2010Prop33
280
     0
102
RTVSPost2010PropOp33
 70
     1
102
RTVSPost2010Prop34
280
     0
102
RTVSPost2010PropOp34
 70
     1
102
RTVSPost2010Prop35
280
     0
102
RTVSPost2010PropOp35
 70
     1
102
RTVSPost2010Prop36
280
     0
102
RTVSPost2010PropOp36
 70
     1
102
RTVSPost2010Prop37
 90
       50
102
RTVSPost2010PropOp37
 70
     1
102
RTVSPost2010Prop38
140
0.0
102
RTVSPost2010PropOp38
 70
     1
102
RTVSPost2010Prop39
140
1.0
102
RTVSPost2010PropOp39
 70
     1
102
RTVSPost2010Prop40
 90
        0
102
RTVSPost2010PropOp40
 70
     1
102
RTVSPost2010Prop41ColorIndex
 90
       18
102
RTVSPost2010Prop41ColorRGB
 90
        0
102
RTVSPost2010PropOp41
 70
     1
102
RTVSPost2010Prop42
 90
       50
102
RTVSPost2010PropOp42
 70
     1
102
RTVSPost2010Prop43
 90
        3
102
RTVSPost2010PropOp43
 70
     1
102
RTVSPost2010Prop44ColorIndex
 90
        5
102
RTVSPost2010Prop44ColorRGB
 90
      255
102
RTVSPost2010PropOp44
 70
     1
102
RTVSPost2010Prop45
280
     0
102
RTVSPost2010PropOp45
 70
     1
102
RTVSPost2010Prop46
 90
       50
102
RTVSPost2010PropOp46
 70
     1
102
RTVSPost2010Prop47
 90
       50
102
RTVSPost2010PropOp47
 70
     1
102
RTVSPost2010Prop48
 90
       50
102
RTVSPost2010PropOp48
 70
     1
102
RTVSPost2010Prop49
280
     0
102
RTVSPost2010PropOp49
 70
     1
102
RTVSPost2010Prop50
 90
       50
102
RTVSPost2010PropOp50
 70
     1
102
RTVSPost2010Prop51ColorIndex
 90
      256
102
RTVSPost2010Prop51ColorRGB
 90
-16777216
102
RTVSPost2010PropOp51
 70
     0
102
RTVSPost2010Prop52
140
1.0
102
RTVSPost2010PropOp52
 70
     0
102
RTVSPost2010Prop53
 90
        2
102
RTVSPost2010PropOp53
 70
     1
102
RTVSPost2010Prop54
  1
strokes_ogs.tif
102
RTVSPost2010PropOp54
 70
     1
102
RTVSPost2010Prop55
280
     0
102
RTVSPost2010PropOp55
 70
     1
102
RTVSPost2010Prop56
140
1.0
102
RTVSPost2010PropOp56
 70
     1
102
RTVSPost2010Prop57
140
1.0
102
RTVSPost2010PropOp57
 70
     1
102
RTVSPropertyOp0
 70
     1
102
RTVSPropertyOp1
 70
     1
102
RTVSPropertyOp2
 70
     1
102
RTVSPropertyOp3
 70
     1
102
RTVSPropertyOp4
 70
     1
102
RTVSPropertyOp5
 70
     1
102
RTVSPropertyOp6
 70
     1
102
RTVSPropertyOp7
 70
     1
102
RTVSPropertyOp8
 70
     1
102
RTVSPropertyOp9
 70
     1
102
RTVSPropertyOp10
 70
     1
102
RTVSPropertyOp11
 70
     1
102
RTVSPropertyOp12
 70
     1
102
RTVSPropertyOp13
 70
     1
102
RTVSPropertyOp14
 70
     1
102
RTVSPropertyOp15
 70
     1
102
RTVSPropertyOp16
 70
     1
102
RTVSPropertyOp17
 70
     1
102
RTVSPropertyOp18
 70
     1
102
RTVSPropertyOp19
 70
     1
102
RTVSPropertyOp20
 70
     1
102
RTVSPropertyOp21
 70
     1
102
RTVSPropertyOp22
 70
     1
102
RTVSPropertyOp23
 70
     1
102
RTVSPropertyOp24
 70
     1
102
RTVSPropertyOp25
 70
     1
102
RTVSPropertyOp26
 70
     1
102
RTVSPropertyOp27
 70
     1
102
RTVSPropertyOp28
 70
     1
102
RTVSPropertyOp29
 70
     1
102
RTVSPropertyOp30
 70
     1
102
RTVSPropertyOp31
 70
     1
102
RTVSPropertyOp32
 70
     1
102
RTVSPropertyOp33
 70
     1
102
RTVSPropertyOp34
 70
     1
102
RTVSPropertyOp35
 70
     1
102
RTVSPropertyOp36
 70
     1
102
RTVSPropertyOp37
 70
     1
102
RTVSPropertyOp38
 70
     1
102
RTVSPropertyOp39
 70
     1
102
RTVSPropertyOp40
 70
     1
102
RTVSPropertyOp41
 70
     1
102
RTVSPropertyOp42
 70
     1
102
RTVSPropertyOp43
 70
     1
102
RTVSPropertyOp44
 70
     1
102
RTVSPropertyOp45
 70
     1
102
RTVSPropertyOp46
 70
     1
102
RTVSPropertyOp47
 70
     1
102
RTVSPropertyOp48
 70
     1
102
RTVSPropertyOp49
 70
     1
102
RTVSPropertyOp50
 70
     1
102
RTVSPropertyOp51
 70
     0
102
RTVSPropertyOp52
 70
     0
102
RTVSPropertyOp53
 70
     1
102
RTVSPropertyOp54
 70
     1
102
RTVSPropertyOp55
 70
     1
102
RTVSPropertyOp56
 70
     1
102
RTVSPropertyOp57
 70
     1
102
RTVSPropertyOp58
 70
     1
102
RTVSPropertyOp59
 70
     1
102
RTVSPropertyOp60
 70
     1
102
RTVSPropertyOp61
 70
     1
102
RTVSPropertyOp62
 70
     1
  0
XRECORD
  5
15F5
102
{ACAD_REACTORS
330
15F4
102
}
330
15F4
100
AcDbXrecord
280
     1
102
RTVSPost2010Prop28
280
     0
102
RTVSPost2010PropOp28
 70
     1
102
RTVSPost2010Prop29
280
     1
102
RTVSPost2010PropOp29
 70
     1
102
RTVSPost2010Prop30
280
     1
102
RTVSPost2010PropOp30
 70
     1
102
RTVSPost2010Prop31
280
     0
102
RTVSPost2010PropOp31
 70
     1
102
RTVSPost2010Prop32
280
     0
102
RTVSPost2010PropOp32
 70
     1
102
RTVSPost2010Prop33
280
     0
102
RTVSPost2010PropOp33
 70
     1
102
RTVSPost2010Prop34
280
     0
102
RTVSPost2010PropOp34
 70
     1
102
RTVSPost2010Prop35
280
     0
102
RTVSPost2010PropOp35
 70
     1
102
RTVSPost2010Prop36
280
     0
102
RTVSPost2010PropOp36
 70
     1
102
RTVSPost2010Prop37
 90
       50
102
RTVSPost2010PropOp37
 70
     1
102
RTVSPost2010Prop38
140
0.0
102
RTVSPost2010PropOp38
 70
     1
102
RTVSPost2010Prop39
140
1.0
102
RTVSPost2010PropOp39
 70
     1
102
RTVSPost2010Prop40
 90
        0
102
RTVSPost2010PropOp40
 70
     1
102
RTVSPost2010Prop41ColorIndex
 90
       18
102
RTVSPost2010Prop41ColorRGB
 90
        0
102
RTVSPost2010PropOp41
 70
     1
102
RTVSPost2010Prop42
 90
       50
102
RTVSPost2010PropOp42
 70
     1
102
RTVSPost2010Prop43
 90
        3
102
RTVSPost2010PropOp43
 70
     1
102
RTVSPost2010Prop44ColorIndex
 90
        5
102
RTVSPost2010Prop44ColorRGB
 90
      255
102
RTVSPost2010PropOp44
 70
     1
102
RTVSPost2010Prop45
280
     0
102
RTVSPost2010PropOp45
 70
     1
102
RTVSPost2010Prop46
 90
       50
102
RTVSPost2010PropOp46
 70
     1
102
RTVSPost2010Prop47
 90
       50
102
RTVSPost2010PropOp47
 70
     1
102
RTVSPost2010Prop48
 90
       50
102
RTVSPost2010PropOp48
 70
     1
102
RTVSPost2010Prop49
280
     0
102
RTVSPost2010PropOp49
 70
     1
102
RTVSPost2010Prop50
 90
       50
102
RTVSPost2010PropOp50
 70
     1
102
RTVSPost2010Prop51ColorIndex
 90
      256
102
RTVSPost2010Prop51ColorRGB
 90
-16777216
102
RTVSPost2010PropOp51
 70
     0
102
RTVSPost2010Prop52
140
1.0
102
RTVSPost2010PropOp52
 70
     0
102
RTVSPost2010Prop53
 90
        2
102
RTVSPost2010PropOp53
 70
     1
102
RTVSPost2010Prop54
  1
strokes_ogs.tif
102
RTVSPost2010PropOp54
 70
     1
102
RTVSPost2010Prop55
280
     0
102
RTVSPost2010PropOp55
 70
     1
102
RTVSPost2010Prop56
140
1.0
102
RTVSPost2010PropOp56
 70
     1
102
RTVSPost2010Prop57
140
1.0
102
RTVSPost2010PropOp57
 70
     1
102
RTVSPropertyOp0
 70
     1
102
RTVSPropertyOp1
 70
     1
102
RTVSPropertyOp2
 70
     1
102
RTVSPropertyOp3
 70
     1
102
RTVSPropertyOp4
 70
     1
102
RTVSPropertyOp5
 70
     1
102
RTVSPropertyOp6
 70
     1
102
RTVSPropertyOp7
 70
     1
102
RTVSPropertyOp8
 70
     1
102
RTVSPropertyOp9
 70
     1
102
RTVSPropertyOp10
 70
     1
102
RTVSPropertyOp11
 70
     1
102
RTVSPropertyOp12
 70
     1
102
RTVSPropertyOp13
 70
     1
102
RTVSPropertyOp14
 70
     1
102
RTVSPropertyOp15
 70
     1
102
RTVSPropertyOp16
 70
     1
102
RTVSPropertyOp17
 70
     1
102
RTVSPropertyOp18
 70
     1
102
RTVSPropertyOp19
 70
     1
102
RTVSPropertyOp20
 70
     1
102
RTVSPropertyOp21
 70
     1
102
RTVSPropertyOp22
 70
     1
102
RTVSPropertyOp23
 70
     1
102
RTVSPropertyOp24
 70
     1
102
RTVSPropertyOp25
 70
     1
102
RTVSPropertyOp26
 70
     1
102
RTVSPropertyOp27
 70
     1
102
RTVSPropertyOp28
 70
     1
102
RTVSPropertyOp29
 70
     1
102
RTVSPropertyOp30
 70
     1
102
RTVSPropertyOp31
 70
     1
102
RTVSPropertyOp32
 70
     1
102
RTVSPropertyOp33
 70
     1
102
RTVSPropertyOp34
 70
     1
102
RTVSPropertyOp35
 70
     1
102
RTVSPropertyOp36
 70
     1
102
RTVSPropertyOp37
 70
     1
102
RTVSPropertyOp38
 70
     1
102
RTVSPropertyOp39
 70
     1
102
RTVSPropertyOp40
 70
     1
102
RTVSPropertyOp41
 70
     1
102
RTVSPropertyOp42
 70
     1
102
RTVSPropertyOp43
 70
     1
102
RTVSPropertyOp44
 70
     1
102
RTVSPropertyOp45
 70
     1
102
RTVSPropertyOp46
 70
     1
102
RTVSPropertyOp47
 70
     1
102
RTVSPropertyOp48
 70
     1
102
RTVSPropertyOp49
 70
     1
102
RTVSPropertyOp50
 70
     1
102
RTVSPropertyOp51
 70
     0
102
RTVSPropertyOp52
 70
     0
102
RTVSPropertyOp53
 70
     1
102
RTVSPropertyOp54
 70
     1
102
RTVSPropertyOp55
 70
     1
102
RTVSPropertyOp56
 70
     1
102
RTVSPropertyOp57
 70
     1
102
RTVSPropertyOp58
 70
     1
102
RTVSPropertyOp59
 70
     1
102
RTVSPropertyOp60
 70
     1
102
RTVSPropertyOp61
 70
     1
102
RTVSPropertyOp62
 70
     1
  0
XRECORD
  5
15F7
102
{ACAD_REACTORS
330
15F6
102
}
330
15F6
100
AcDbXrecord
280
     1
102
RTVSPost2010Prop28
280
     0
102
RTVSPost2010PropOp28
 70
     1
102
RTVSPost2010Prop29
280
     1
102
RTVSPost2010PropOp29
 70
     1
102
RTVSPost2010Prop30
280
     1
102
RTVSPost2010PropOp30
 70
     1
102
RTVSPost2010Prop31
280
     0
102
RTVSPost2010PropOp31
 70
     1
102
RTVSPost2010Prop32
280
     0
102
RTVSPost2010PropOp32
 70
     1
102
RTVSPost2010Prop33
280
     0
102
RTVSPost2010PropOp33
 70
     1
102
RTVSPost2010Prop34
280
     0
102
RTVSPost2010PropOp34
 70
     1
102
RTVSPost2010Prop35
280
     0
102
RTVSPost2010PropOp35
 70
     1
102
RTVSPost2010Prop36
280
     0
102
RTVSPost2010PropOp36
 70
     1
102
RTVSPost2010Prop37
 90
       50
102
RTVSPost2010PropOp37
 70
     1
102
RTVSPost2010Prop38
140
0.0
102
RTVSPost2010PropOp38
 70
     1
102
RTVSPost2010Prop39
140
1.0
102
RTVSPost2010PropOp39
 70
     1
102
RTVSPost2010Prop40
 90
        0
102
RTVSPost2010PropOp40
 70
     1
102
RTVSPost2010Prop41ColorIndex
 90
       18
102
RTVSPost2010Prop41ColorRGB
 90
        0
102
RTVSPost2010PropOp41
 70
     1
102
RTVSPost2010Prop42
 90
       50
102
RTVSPost2010PropOp42
 70
     1
102
RTVSPost2010Prop43
 90
        3
102
RTVSPost2010PropOp43
 70
     1
102
RTVSPost2010Prop44ColorIndex
 90
        5
102
RTVSPost2010Prop44ColorRGB
 90
      255
102
RTVSPost2010PropOp44
 70
     1
102
RTVSPost2010Prop45
280
     0
102
RTVSPost2010PropOp45
 70
     1
102
RTVSPost2010Prop46
 90
       50
102
RTVSPost2010PropOp46
 70
     1
102
RTVSPost2010Prop47
 90
       50
102
RTVSPost2010PropOp47
 70
     1
102
RTVSPost2010Prop48
 90
       50
102
RTVSPost2010PropOp48
 70
     1
102
RTVSPost2010Prop49
280
     0
102
RTVSPost2010PropOp49
 70
     1
102
RTVSPost2010Prop50
 90
       50
102
RTVSPost2010PropOp50
 70
     1
102
RTVSPost2010Prop51ColorIndex
 90
      256
102
RTVSPost2010Prop51ColorRGB
 90
-16777216
102
RTVSPost2010PropOp51
 70
     0
102
RTVSPost2010Prop52
140
1.0
102
RTVSPost2010PropOp52
 70
     0
102
RTVSPost2010Prop53
 90
        2
102
RTVSPost2010PropOp53
 70
     1
102
RTVSPost2010Prop54
  1
strokes_ogs.tif
102
RTVSPost2010PropOp54
 70
     1
102
RTVSPost2010Prop55
280
     0
102
RTVSPost2010PropOp55
 70
     1
102
RTVSPost2010Prop56
140
1.0
102
RTVSPost2010PropOp56
 70
     1
102
RTVSPost2010Prop57
140
1.0
102
RTVSPost2010PropOp57
 70
     1
102
RTVSPropertyOp0
 70
     1
102
RTVSPropertyOp1
 70
     1
102
RTVSPropertyOp2
 70
     1
102
RTVSPropertyOp3
 70
     1
102
RTVSPropertyOp4
 70
     1
102
RTVSPropertyOp5
 70
     1
102
RTVSPropertyOp6
 70
     1
102
RTVSPropertyOp7
 70
     1
102
RTVSPropertyOp8
 70
     1
102
RTVSPropertyOp9
 70
     1
102
RTVSPropertyOp10
 70
     1
102
RTVSPropertyOp11
 70
     1
102
RTVSPropertyOp12
 70
     1
102
RTVSPropertyOp13
 70
     1
102
RTVSPropertyOp14
 70
     1
102
RTVSPropertyOp15
 70
     1
102
RTVSPropertyOp16
 70
     1
102
RTVSPropertyOp17
 70
     1
102
RTVSPropertyOp18
 70
     1
102
RTVSPropertyOp19
 70
     1
102
RTVSPropertyOp20
 70
     1
102
RTVSPropertyOp21
 70
     1
102
RTVSPropertyOp22
 70
     1
102
RTVSPropertyOp23
 70
     1
102
RTVSPropertyOp24
 70
     1
102
RTVSPropertyOp25
 70
     1
102
RTVSPropertyOp26
 70
     1
102
RTVSPropertyOp27
 70
     1
102
RTVSPropertyOp28
 70
     1
102
RTVSPropertyOp29
 70
     1
102
RTVSPropertyOp30
 70
     1
102
RTVSPropertyOp31
 70
     1
102
RTVSPropertyOp32
 70
     1
102
RTVSPropertyOp33
 70
     1
102
RTVSPropertyOp34
 70
     1
102
RTVSPropertyOp35
 70
     1
102
RTVSPropertyOp36
 70
     1
102
RTVSPropertyOp37
 70
     1
102
RTVSPropertyOp38
 70
     1
102
RTVSPropertyOp39
 70
     1
102
RTVSPropertyOp40
 70
     1
102
RTVSPropertyOp41
 70
     1
102
RTVSPropertyOp42
 70
     1
102
RTVSPropertyOp43
 70
     1
102
RTVSPropertyOp44
 70
     1
102
RTVSPropertyOp45
 70
     1
102
RTVSPropertyOp46
 70
     1
102
RTVSPropertyOp47
 70
     1
102
RTVSPropertyOp48
 70
     1
102
RTVSPropertyOp49
 70
     1
102
RTVSPropertyOp50
 70
     1
102
RTVSPropertyOp51
 70
     0
102
RTVSPropertyOp52
 70
     0
102
RTVSPropertyOp53
 70
     1
102
RTVSPropertyOp54
 70
     1
102
RTVSPropertyOp55
 70
     1
102
RTVSPropertyOp56
 70
     1
102
RTVSPropertyOp57
 70
     1
102
RTVSPropertyOp58
 70
     1
102
RTVSPropertyOp59
 70
     1
102
RTVSPropertyOp60
 70
     1
102
RTVSPropertyOp61
 70
     1
102
RTVSPropertyOp62
 70
     1
  0
XRECORD
  5
15FF
102
{ACAD_REACTORS
330
15FE
102
}
330
15FE
100
AcDbXrecord
280
     1
102
RTVSPost2010Prop28
280
     0
102
RTVSPost2010PropOp28
 70
     1
102
RTVSPost2010Prop29
280
     1
102
RTVSPost2010PropOp29
 70
     1
102
RTVSPost2010Prop30
280
     1
102
RTVSPost2010PropOp30
 70
     1
102
RTVSPost2010Prop31
280
     0
102
RTVSPost2010PropOp31
 70
     1
102
RTVSPost2010Prop32
280
     0
102
RTVSPost2010PropOp32
 70
     1
102
RTVSPost2010Prop33
280
     0
102
RTVSPost2010PropOp33
 70
     1
102
RTVSPost2010Prop34
280
     0
102
RTVSPost2010PropOp34
 70
     1
102
RTVSPost2010Prop35
280
     0
102
RTVSPost2010PropOp35
 70
     1
102
RTVSPost2010Prop36
280
     0
102
RTVSPost2010PropOp36
 70
     1
102
RTVSPost2010Prop37
 90
       50
102
RTVSPost2010PropOp37
 70
     1
102
RTVSPost2010Prop38
140
0.0
102
RTVSPost2010PropOp38
 70
     1
102
RTVSPost2010Prop39
140
1.0
102
RTVSPost2010PropOp39
 70
     1
102
RTVSPost2010Prop40
 90
        0
102
RTVSPost2010PropOp40
 70
     1
102
RTVSPost2010Prop41ColorIndex
 90
       18
102
RTVSPost2010Prop41ColorRGB
 90
        0
102
RTVSPost2010PropOp41
 70
     1
102
RTVSPost2010Prop42
 90
       50
102
RTVSPost2010PropOp42
 70
     1
102
RTVSPost2010Prop43
 90
        3
102
RTVSPost2010PropOp43
 70
     1
102
RTVSPost2010Prop44ColorIndex
 90
        5
102
RTVSPost2010Prop44ColorRGB
 90
      255
102
RTVSPost2010PropOp44
 70
     1
102
RTVSPost2010Prop45
280
     0
102
RTVSPost2010PropOp45
 70
     1
102
RTVSPost2010Prop46
 90
       50
102
RTVSPost2010PropOp46
 70
     1
102
RTVSPost2010Prop47
 90
       50
102
RTVSPost2010PropOp47
 70
     1
102
RTVSPost2010Prop48
 90
       50
102
RTVSPost2010PropOp48
 70
     1
102
RTVSPost2010Prop49
280
     0
102
RTVSPost2010PropOp49
 70
     1
102
RTVSPost2010Prop50
 90
       50
102
RTVSPost2010PropOp50
 70
     1
102
RTVSPost2010Prop51ColorIndex
 90
      256
102
RTVSPost2010Prop51ColorRGB
 90
-16777216
102
RTVSPost2010PropOp51
 70
     0
102
RTVSPost2010Prop52
140
1.0
102
RTVSPost2010PropOp52
 70
     0
102
RTVSPost2010Prop53
 90
        2
102
RTVSPost2010PropOp53
 70
     1
102
RTVSPost2010Prop54
  1
strokes_ogs.tif
102
RTVSPost2010PropOp54
 70
     1
102
RTVSPost2010Prop55
280
     0
102
RTVSPost2010PropOp55
 70
     1
102
RTVSPost2010Prop56
140
1.0
102
RTVSPost2010PropOp56
 70
     1
102
RTVSPost2010Prop57
140
1.0
102
RTVSPost2010PropOp57
 70
     1
102
RTVSPropertyOp0
 70
     1
102
RTVSPropertyOp1
 70
     1
102
RTVSPropertyOp2
 70
     1
102
RTVSPropertyOp3
 70
     1
102
RTVSPropertyOp4
 70
     1
102
RTVSPropertyOp5
 70
     1
102
RTVSPropertyOp6
 70
     1
102
RTVSPropertyOp7
 70
     1
102
RTVSPropertyOp8
 70
     1
102
RTVSPropertyOp9
 70
     1
102
RTVSPropertyOp10
 70
     1
102
RTVSPropertyOp11
 70
     1
102
RTVSPropertyOp12
 70
     1
102
RTVSPropertyOp13
 70
     1
102
RTVSPropertyOp14
 70
     1
102
RTVSPropertyOp15
 70
     1
102
RTVSPropertyOp16
 70
     1
102
RTVSPropertyOp17
 70
     1
102
RTVSPropertyOp18
 70
     1
102
RTVSPropertyOp19
 70
     1
102
RTVSPropertyOp20
 70
     1
102
RTVSPropertyOp21
 70
     1
102
RTVSPropertyOp22
 70
     1
102
RTVSPropertyOp23
 70
     1
102
RTVSPropertyOp24
 70
     1
102
RTVSPropertyOp25
 70
     1
102
RTVSPropertyOp26
 70
     1
102
RTVSPropertyOp27
 70
     1
102
RTVSPropertyOp28
 70
     1
102
RTVSPropertyOp29
 70
     1
102
RTVSPropertyOp30
 70
     1
102
RTVSPropertyOp31
 70
     1
102
RTVSPropertyOp32
 70
     1
102
RTVSPropertyOp33
 70
     1
102
RTVSPropertyOp34
 70
     1
102
RTVSPropertyOp35
 70
     1
102
RTVSPropertyOp36
 70
     1
102
RTVSPropertyOp37
 70
     1
102
RTVSPropertyOp38
 70
     1
102
RTVSPropertyOp39
 70
     1
102
RTVSPropertyOp40
 70
     1
102
RTVSPropertyOp41
 70
     1
102
RTVSPropertyOp42
 70
     1
102
RTVSPropertyOp43
 70
     1
102
RTVSPropertyOp44
 70
     1
102
RTVSPropertyOp45
 70
     1
102
RTVSPropertyOp46
 70
     1
102
RTVSPropertyOp47
 70
     1
102
RTVSPropertyOp48
 70
     1
102
RTVSPropertyOp49
 70
     1
102
RTVSPropertyOp50
 70
     1
102
RTVSPropertyOp51
 70
     0
102
RTVSPropertyOp52
 70
     0
102
RTVSPropertyOp53
 70
     1
102
RTVSPropertyOp54
 70
     1
102
RTVSPropertyOp55
 70
     1
102
RTVSPropertyOp56
 70
     1
102
RTVSPropertyOp57
 70
     1
102
RTVSPropertyOp58
 70
     1
102
RTVSPropertyOp59
 70
     1
102
RTVSPropertyOp60
 70
     1
102
RTVSPropertyOp61
 70
     1
102
RTVSPropertyOp62
 70
     1
  0
XRECORD
  5
161B
102
{ACAD_REACTORS
330
161A
102
}
330
161A
100
AcDbXrecord
280
     1
102
RTVSPost2010Prop28
280
     0
102
RTVSPost2010PropOp28
 70
     1
102
RTVSPost2010Prop29
280
     1
102
RTVSPost2010PropOp29
 70
     1
102
RTVSPost2010Prop30
280
     1
102
RTVSPost2010PropOp30
 70
     1
102
RTVSPost2010Prop31
280
     0
102
RTVSPost2010PropOp31
 70
     1
102
RTVSPost2010Prop32
280
     0
102
RTVSPost2010PropOp32
 70
     1
102
RTVSPost2010Prop33
280
     0
102
RTVSPost2010PropOp33
 70
     1
102
RTVSPost2010Prop34
280
     0
102
RTVSPost2010PropOp34
 70
     1
102
RTVSPost2010Prop35
280
     0
102
RTVSPost2010PropOp35
 70
     1
102
RTVSPost2010Prop36
280
     0
102
RTVSPost2010PropOp36
 70
     1
102
RTVSPost2010Prop37
 90
       50
102
RTVSPost2010PropOp37
 70
     0
102
RTVSPost2010Prop38
140
0.0
102
RTVSPost2010PropOp38
 70
     0
102
RTVSPost2010Prop39
140
1.0
102
RTVSPost2010PropOp39
 70
     0
102
RTVSPost2010Prop40
 90
        0
102
RTVSPost2010PropOp40
 70
     0
102
RTVSPost2010Prop41ColorIndex
 90
       18
102
RTVSPost2010Prop41ColorRGB
 90
        0
102
RTVSPost2010PropOp41
 70
     0
102
RTVSPost2010Prop42
 90
       50
102
RTVSPost2010PropOp42
 70
     0
102
RTVSPost2010Prop43
 90
        3
102
RTVSPost2010PropOp43
 70
     0
102
RTVSPost2010Prop44ColorIndex
 90
        5
102
RTVSPost2010Prop44ColorRGB
 90
      255
102
RTVSPost2010PropOp44
 70
     0
102
RTVSPost2010Prop45
280
     0
102
RTVSPost2010PropOp45
 70
     1
102
RTVSPost2010Prop46
 90
       50
102
RTVSPost2010PropOp46
 70
     0
102
RTVSPost2010Prop47
 90
       50
102
RTVSPost2010PropOp47
 70
     0
102
RTVSPost2010Prop48
 90
       50
102
RTVSPost2010PropOp48
 70
     0
102
RTVSPost2010Prop49
280
     0
102
RTVSPost2010PropOp49
 70
     1
102
RTVSPost2010Prop50
 90
       50
102
RTVSPost2010PropOp50
 70
     0
102
RTVSPost2010Prop51ColorIndex
 90
      256
102
RTVSPost2010Prop51ColorRGB
 90
-16777216
102
RTVSPost2010PropOp51
 70
     0
102
RTVSPost2010Prop52
140
1.0
102
RTVSPost2010PropOp52
 70
     0
102
RTVSPost2010Prop53
 90
        2
102
RTVSPost2010PropOp53
 70
     0
102
RTVSPost2010Prop54
  1
strokes_ogs.tif
102
RTVSPost2010PropOp54
 70
     0
102
RTVSPost2010Prop55
280
     0
102
RTVSPost2010PropOp55
 70
     1
102
RTVSPost2010Prop56
140
1.0
102
RTVSPost2010PropOp56
 70
     0
102
RTVSPost2010Prop57
140
1.0
102
RTVSPost2010PropOp57
 70
     0
102
RTVSPropertyOp0
 70
     0
102
RTVSPropertyOp1
 70
     0
102
RTVSPropertyOp2
 70
     0
102
RTVSPropertyOp3
 70
     0
102
RTVSPropertyOp4
 70
     0
102
RTVSPropertyOp5
 70
     0
102
RTVSPropertyOp6
 70
     0
102
RTVSPropertyOp7
 70
     0
102
RTVSPropertyOp8
 70
     0
102
RTVSPropertyOp9
 70
     0
102
RTVSPropertyOp10
 70
     0
102
RTVSPropertyOp11
 70
     0
102
RTVSPropertyOp12
 70
     0
102
RTVSPropertyOp13
 70
     0
102
RTVSPropertyOp14
 70
     2
102
RTVSPropertyOp15
 70
     0
102
RTVSPropertyOp16
 70
     0
102
RTVSPropertyOp17
 70
     0
102
RTVSPropertyOp18
 70
     0
102
RTVSPropertyOp19
 70
     0
102
RTVSPropertyOp20
 70
     0
102
RTVSPropertyOp21
 70
     0
102
RTVSPropertyOp22
 70
     0
102
RTVSPropertyOp23
 70
     0
102
RTVSPropertyOp24
 70
     0
102
RTVSPropertyOp25
 70
     0
102
RTVSPropertyOp26
 70
     0
102
RTVSPropertyOp27
 70
     0
102
RTVSPropertyOp28
 70
     1
102
RTVSPropertyOp29
 70
     1
102
RTVSPropertyOp30
 70
     1
102
RTVSPropertyOp31
 70
     1
102
RTVSPropertyOp32
 70
     1
102
RTVSPropertyOp33
 70
     1
102
RTVSPropertyOp34
 70
     1
102
RTVSPropertyOp35
 70
     1
102
RTVSPropertyOp36
 70
     1
102
RTVSPropertyOp37
 70
     0
102
RTVSPropertyOp38
 70
     0
102
RTVSPropertyOp39
 70
     0
102
RTVSPropertyOp40
 70
     0
102
RTVSPropertyOp41
 70
     0
102
RTVSPropertyOp42
 70
     0
102
RTVSPropertyOp43
 70
     0
102
RTVSPropertyOp44
 70
     0
102
RTVSPropertyOp45
 70
     1
102
RTVSPropertyOp46
 70
     0
102
RTVSPropertyOp47
 70
     0
102
RTVSPropertyOp48
 70
     0
102
RTVSPropertyOp49
 70
     1
102
RTVSPropertyOp50
 70
     0
102
RTVSPropertyOp51
 70
     0
102
RTVSPropertyOp52
 70
     0
102
RTVSPropertyOp53
 70
     0
102
RTVSPropertyOp54
 70
     0
102
RTVSPropertyOp55
 70
     1
102
RTVSPropertyOp56
 70
     0
102
RTVSPropertyOp57
 70
     0
102
RTVSPropertyOp58
 70
     1
102
RTVSPropertyOp59
 70
     1
102
RTVSPropertyOp60
 70
     1
102
RTVSPropertyOp61
 70
     1
102
RTVSPropertyOp62
 70
     1
  0
XRECORD
  5
160B
102
{ACAD_REACTORS
330
160A
102
}
330
160A
100
AcDbXrecord
280
     1
102
RTVSPost2010Prop28
280
     0
102
RTVSPost2010PropOp28
 70
     1
102
RTVSPost2010Prop29
280
     1
102
RTVSPost2010PropOp29
 70
     1
102
RTVSPost2010Prop30
280
     1
102
RTVSPost2010PropOp30
 70
     1
102
RTVSPost2010Prop31
280
     0
102
RTVSPost2010PropOp31
 70
     1
102
RTVSPost2010Prop32
280
     0
102
RTVSPost2010PropOp32
 70
     1
102
RTVSPost2010Prop33
280
     0
102
RTVSPost2010PropOp33
 70
     1
102
RTVSPost2010Prop34
280
     0
102
RTVSPost2010PropOp34
 70
     1
102
RTVSPost2010Prop35
280
     0
102
RTVSPost2010PropOp35
 70
     1
102
RTVSPost2010Prop36
280
     0
102
RTVSPost2010PropOp36
 70
     1
102
RTVSPost2010Prop37
 90
       50
102
RTVSPost2010PropOp37
 70
     1
102
RTVSPost2010Prop38
140
0.0
102
RTVSPost2010PropOp38
 70
     1
102
RTVSPost2010Prop39
140
1.0
102
RTVSPost2010PropOp39
 70
     1
102
RTVSPost2010Prop40
 90
        0
102
RTVSPost2010PropOp40
 70
     1
102
RTVSPost2010Prop41ColorIndex
 90
       18
102
RTVSPost2010Prop41ColorRGB
 90
        0
102
RTVSPost2010PropOp41
 70
     1
102
RTVSPost2010Prop42
 90
       50
102
RTVSPost2010PropOp42
 70
     1
102
RTVSPost2010Prop43
 90
        3
102
RTVSPost2010PropOp43
 70
     1
102
RTVSPost2010Prop44ColorIndex
 90
        5
102
RTVSPost2010Prop44ColorRGB
 90
      255
102
RTVSPost2010PropOp44
 70
     1
102
RTVSPost2010Prop45
280
     0
102
RTVSPost2010PropOp45
 70
     1
102
RTVSPost2010Prop46
 90
       50
102
RTVSPost2010PropOp46
 70
     1
102
RTVSPost2010Prop47
 90
       50
102
RTVSPost2010PropOp47
 70
     1
102
RTVSPost2010Prop48
 90
       50
102
RTVSPost2010PropOp48
 70
     1
102
RTVSPost2010Prop49
280
     0
102
RTVSPost2010PropOp49
 70
     1
102
RTVSPost2010Prop50
 90
       50
102
RTVSPost2010PropOp50
 70
     1
102
RTVSPost2010Prop51ColorIndex
 90
      256
102
RTVSPost2010Prop51ColorRGB
 90
-16777216
102
RTVSPost2010PropOp51
 70
     0
102
RTVSPost2010Prop52
140
1.0
102
RTVSPost2010PropOp52
 70
     0
102
RTVSPost2010Prop53
 90
        2
102
RTVSPost2010PropOp53
 70
     1
102
RTVSPost2010Prop54
  1
strokes_ogs.tif
102
RTVSPost2010PropOp54
 70
     1
102
RTVSPost2010Prop55
280
     0
102
RTVSPost2010PropOp55
 70
     1
102
RTVSPost2010Prop56
140
1.0
102
RTVSPost2010PropOp56
 70
     1
102
RTVSPost2010Prop57
140
1.0
102
RTVSPost2010PropOp57
 70
     1
102
RTVSPropertyOp0
 70
     1
102
RTVSPropertyOp1
 70
     1
102
RTVSPropertyOp2
 70
     1
102
RTVSPropertyOp3
 70
     1
102
RTVSPropertyOp4
 70
     1
102
RTVSPropertyOp5
 70
     1
102
RTVSPropertyOp6
 70
     1
102
RTVSPropertyOp7
 70
     1
102
RTVSPropertyOp8
 70
     1
102
RTVSPropertyOp9
 70
     1
102
RTVSPropertyOp10
 70
     1
102
RTVSPropertyOp11
 70
     1
102
RTVSPropertyOp12
 70
     1
102
RTVSPropertyOp13
 70
     1
102
RTVSPropertyOp14
 70
     1
102
RTVSPropertyOp15
 70
     1
102
RTVSPropertyOp16
 70
     1
102
RTVSPropertyOp17
 70
     1
102
RTVSPropertyOp18
 70
     1
102
RTVSPropertyOp19
 70
     1
102
RTVSPropertyOp20
 70
     1
102
RTVSPropertyOp21
 70
     1
102
RTVSPropertyOp22
 70
     1
102
RTVSPropertyOp23
 70
     1
102
RTVSPropertyOp24
 70
     1
102
RTVSPropertyOp25
 70
     1
102
RTVSPropertyOp26
 70
     1
102
RTVSPropertyOp27
 70
     1
102
RTVSPropertyOp28
 70
     1
102
RTVSPropertyOp29
 70
     1
102
RTVSPropertyOp30
 70
     1
102
RTVSPropertyOp31
 70
     1
102
RTVSPropertyOp32
 70
     1
102
RTVSPropertyOp33
 70
     1
102
RTVSPropertyOp34
 70
     1
102
RTVSPropertyOp35
 70
     1
102
RTVSPropertyOp36
 70
     1
102
RTVSPropertyOp37
 70
     1
102
RTVSPropertyOp38
 70
     1
102
RTVSPropertyOp39
 70
     1
102
RTVSPropertyOp40
 70
     1
102
RTVSPropertyOp41
 70
     1
102
RTVSPropertyOp42
 70
     1
102
RTVSPropertyOp43
 70
     1
102
RTVSPropertyOp44
 70
     1
102
RTVSPropertyOp45
 70
     1
102
RTVSPropertyOp46
 70
     1
102
RTVSPropertyOp47
 70
     1
102
RTVSPropertyOp48
 70
     1
102
RTVSPropertyOp49
 70
     1
102
RTVSPropertyOp50
 70
     1
102
RTVSPropertyOp51
 70
     0
102
RTVSPropertyOp52
 70
     0
102
RTVSPropertyOp53
 70
     1
102
RTVSPropertyOp54
 70
     1
102
RTVSPropertyOp55
 70
     1
102
RTVSPropertyOp56
 70
     1
102
RTVSPropertyOp57
 70
     1
102
RTVSPropertyOp58
 70
     1
102
RTVSPropertyOp59
 70
     1
102
RTVSPropertyOp60
 70
     1
102
RTVSPropertyOp61
 70
     1
102
RTVSPropertyOp62
 70
     1
  0
XRECORD
  5
161D
102
{ACAD_REACTORS
330
161C
102
}
330
161C
100
AcDbXrecord
280
     1
102
RTVSPost2010Prop28
280
     0
102
RTVSPost2010PropOp28
 70
     1
102
RTVSPost2010Prop29
280
     1
102
RTVSPost2010PropOp29
 70
     1
102
RTVSPost2010Prop30
280
     1
102
RTVSPost2010PropOp30
 70
     1
102
RTVSPost2010Prop31
280
     0
102
RTVSPost2010PropOp31
 70
     1
102
RTVSPost2010Prop32
280
     0
102
RTVSPost2010PropOp32
 70
     1
102
RTVSPost2010Prop33
280
     0
102
RTVSPost2010PropOp33
 70
     1
102
RTVSPost2010Prop34
280
     0
102
RTVSPost2010PropOp34
 70
     1
102
RTVSPost2010Prop35
280
     0
102
RTVSPost2010PropOp35
 70
     1
102
RTVSPost2010Prop36
280
     0
102
RTVSPost2010PropOp36
 70
     1
102
RTVSPost2010Prop37
 90
       50
102
RTVSPost2010PropOp37
 70
     0
102
RTVSPost2010Prop38
140
0.0
102
RTVSPost2010PropOp38
 70
     0
102
RTVSPost2010Prop39
140
1.0
102
RTVSPost2010PropOp39
 70
     0
102
RTVSPost2010Prop40
 90
        0
102
RTVSPost2010PropOp40
 70
     0
102
RTVSPost2010Prop41ColorIndex
 90
       18
102
RTVSPost2010Prop41ColorRGB
 90
        0
102
RTVSPost2010PropOp41
 70
     0
102
RTVSPost2010Prop42
 90
       50
102
RTVSPost2010PropOp42
 70
     0
102
RTVSPost2010Prop43
 90
        3
102
RTVSPost2010PropOp43
 70
     0
102
RTVSPost2010Prop44ColorIndex
 90
        5
102
RTVSPost2010Prop44ColorRGB
 90
      255
102
RTVSPost2010PropOp44
 70
     0
102
RTVSPost2010Prop45
280
     0
102
RTVSPost2010PropOp45
 70
     1
102
RTVSPost2010Prop46
 90
       50
102
RTVSPost2010PropOp46
 70
     0
102
RTVSPost2010Prop47
 90
       50
102
RTVSPost2010PropOp47
 70
     0
102
RTVSPost2010Prop48
 90
       50
102
RTVSPost2010PropOp48
 70
     0
102
RTVSPost2010Prop49
280
     0
102
RTVSPost2010PropOp49
 70
     1
102
RTVSPost2010Prop50
 90
       50
102
RTVSPost2010PropOp50
 70
     0
102
RTVSPost2010Prop51ColorIndex
 90
      256
102
RTVSPost2010Prop51ColorRGB
 90
-16777216
102
RTVSPost2010PropOp51
 70
     0
102
RTVSPost2010Prop52
140
1.0
102
RTVSPost2010PropOp52
 70
     0
102
RTVSPost2010Prop53
 90
        2
102
RTVSPost2010PropOp53
 70
     0
102
RTVSPost2010Prop54
  1
strokes_ogs.tif
102
RTVSPost2010PropOp54
 70
     0
102
RTVSPost2010Prop55
280
     0
102
RTVSPost2010PropOp55
 70
     1
102
RTVSPost2010Prop56
140
1.0
102
RTVSPost2010PropOp56
 70
     0
102
RTVSPost2010Prop57
140
1.0
102
RTVSPost2010PropOp57
 70
     0
102
RTVSPropertyOp0
 70
     0
102
RTVSPropertyOp1
 70
     0
102
RTVSPropertyOp2
 70
     0
102
RTVSPropertyOp3
 70
     0
102
RTVSPropertyOp4
 70
     0
102
RTVSPropertyOp5
 70
     0
102
RTVSPropertyOp6
 70
     0
102
RTVSPropertyOp7
 70
     0
102
RTVSPropertyOp8
 70
     0
102
RTVSPropertyOp9
 70
     0
102
RTVSPropertyOp10
 70
     0
102
RTVSPropertyOp11
 70
     0
102
RTVSPropertyOp12
 70
     0
102
RTVSPropertyOp13
 70
     0
102
RTVSPropertyOp14
 70
     2
102
RTVSPropertyOp15
 70
     0
102
RTVSPropertyOp16
 70
     0
102
RTVSPropertyOp17
 70
     0
102
RTVSPropertyOp18
 70
     0
102
RTVSPropertyOp19
 70
     0
102
RTVSPropertyOp20
 70
     0
102
RTVSPropertyOp21
 70
     0
102
RTVSPropertyOp22
 70
     0
102
RTVSPropertyOp23
 70
     0
102
RTVSPropertyOp24
 70
     0
102
RTVSPropertyOp25
 70
     0
102
RTVSPropertyOp26
 70
     0
102
RTVSPropertyOp27
 70
     0
102
RTVSPropertyOp28
 70
     1
102
RTVSPropertyOp29
 70
     1
102
RTVSPropertyOp30
 70
     1
102
RTVSPropertyOp31
 70
     1
102
RTVSPropertyOp32
 70
     1
102
RTVSPropertyOp33
 70
     1
102
RTVSPropertyOp34
 70
     1
102
RTVSPropertyOp35
 70
     1
102
RTVSPropertyOp36
 70
     1
102
RTVSPropertyOp37
 70
     0
102
RTVSPropertyOp38
 70
     0
102
RTVSPropertyOp39
 70
     0
102
RTVSPropertyOp40
 70
     0
102
RTVSPropertyOp41
 70
     0
102
RTVSPropertyOp42
 70
     0
102
RTVSPropertyOp43
 70
     0
102
RTVSPropertyOp44
 70
     0
102
RTVSPropertyOp45
 70
     1
102
RTVSPropertyOp46
 70
     0
102
RTVSPropertyOp47
 70
     0
102
RTVSPropertyOp48
 70
     0
102
RTVSPropertyOp49
 70
     1
102
RTVSPropertyOp50
 70
     0
102
RTVSPropertyOp51
 70
     0
102
RTVSPropertyOp52
 70
     0
102
RTVSPropertyOp53
 70
     0
102
RTVSPropertyOp54
 70
     0
102
RTVSPropertyOp55
 70
     1
102
RTVSPropertyOp56
 70
     0
102
RTVSPropertyOp57
 70
     0
102
RTVSPropertyOp58
 70
     1
102
RTVSPropertyOp59
 70
     1
102
RTVSPropertyOp60
 70
     1
102
RTVSPropertyOp61
 70
     1
102
RTVSPropertyOp62
 70
     1
  0
XRECORD
  5
1603
102
{ACAD_REACTORS
330
1602
102
}
330
1602
100
AcDbXrecord
280
     1
102
RTVSPost2010Prop28
280
     0
102
RTVSPost2010PropOp28
 70
     1
102
RTVSPost2010Prop29
280
     1
102
RTVSPost2010PropOp29
 70
     1
102
RTVSPost2010Prop30
280
     1
102
RTVSPost2010PropOp30
 70
     1
102
RTVSPost2010Prop31
280
     0
102
RTVSPost2010PropOp31
 70
     1
102
RTVSPost2010Prop32
280
     0
102
RTVSPost2010PropOp32
 70
     1
102
RTVSPost2010Prop33
280
     0
102
RTVSPost2010PropOp33
 70
     1
102
RTVSPost2010Prop34
280
     0
102
RTVSPost2010PropOp34
 70
     1
102
RTVSPost2010Prop35
280
     0
102
RTVSPost2010PropOp35
 70
     1
102
RTVSPost2010Prop36
280
     0
102
RTVSPost2010PropOp36
 70
     1
102
RTVSPost2010Prop37
 90
       50
102
RTVSPost2010PropOp37
 70
     1
102
RTVSPost2010Prop38
140
0.0
102
RTVSPost2010PropOp38
 70
     1
102
RTVSPost2010Prop39
140
1.0
102
RTVSPost2010PropOp39
 70
     1
102
RTVSPost2010Prop40
 90
        0
102
RTVSPost2010PropOp40
 70
     1
102
RTVSPost2010Prop41ColorIndex
 90
       18
102
RTVSPost2010Prop41ColorRGB
 90
        0
102
RTVSPost2010PropOp41
 70
     1
102
RTVSPost2010Prop42
 90
       50
102
RTVSPost2010PropOp42
 70
     1
102
RTVSPost2010Prop43
 90
        3
102
RTVSPost2010PropOp43
 70
     1
102
RTVSPost2010Prop44ColorIndex
 90
        5
102
RTVSPost2010Prop44ColorRGB
 90
      255
102
RTVSPost2010PropOp44
 70
     1
102
RTVSPost2010Prop45
280
     0
102
RTVSPost2010PropOp45
 70
     1
102
RTVSPost2010Prop46
 90
       50
102
RTVSPost2010PropOp46
 70
     1
102
RTVSPost2010Prop47
 90
       50
102
RTVSPost2010PropOp47
 70
     1
102
RTVSPost2010Prop48
 90
       50
102
RTVSPost2010PropOp48
 70
     1
102
RTVSPost2010Prop49
280
     0
102
RTVSPost2010PropOp49
 70
     1
102
RTVSPost2010Prop50
 90
       50
102
RTVSPost2010PropOp50
 70
     1
102
RTVSPost2010Prop51ColorIndex
 90
      256
102
RTVSPost2010Prop51ColorRGB
 90
-16777216
102
RTVSPost2010PropOp51
 70
     0
102
RTVSPost2010Prop52
140
1.0
102
RTVSPost2010PropOp52
 70
     0
102
RTVSPost2010Prop53
 90
        2
102
RTVSPost2010PropOp53
 70
     1
102
RTVSPost2010Prop54
  1
strokes_ogs.tif
102
RTVSPost2010PropOp54
 70
     1
102
RTVSPost2010Prop55
280
     0
102
RTVSPost2010PropOp55
 70
     1
102
RTVSPost2010Prop56
140
1.0
102
RTVSPost2010PropOp56
 70
     1
102
RTVSPost2010Prop57
140
1.0
102
RTVSPost2010PropOp57
 70
     1
102
RTVSPropertyOp0
 70
     1
102
RTVSPropertyOp1
 70
     1
102
RTVSPropertyOp2
 70
     1
102
RTVSPropertyOp3
 70
     1
102
RTVSPropertyOp4
 70
     1
102
RTVSPropertyOp5
 70
     1
102
RTVSPropertyOp6
 70
     1
102
RTVSPropertyOp7
 70
     1
102
RTVSPropertyOp8
 70
     1
102
RTVSPropertyOp9
 70
     1
102
RTVSPropertyOp10
 70
     1
102
RTVSPropertyOp11
 70
     1
102
RTVSPropertyOp12
 70
     1
102
RTVSPropertyOp13
 70
     1
102
RTVSPropertyOp14
 70
     1
102
RTVSPropertyOp15
 70
     1
102
RTVSPropertyOp16
 70
     1
102
RTVSPropertyOp17
 70
     1
102
RTVSPropertyOp18
 70
     1
102
RTVSPropertyOp19
 70
     1
102
RTVSPropertyOp20
 70
     1
102
RTVSPropertyOp21
 70
     1
102
RTVSPropertyOp22
 70
     1
102
RTVSPropertyOp23
 70
     1
102
RTVSPropertyOp24
 70
     1
102
RTVSPropertyOp25
 70
     1
102
RTVSPropertyOp26
 70
     1
102
RTVSPropertyOp27
 70
     1
102
RTVSPropertyOp28
 70
     1
102
RTVSPropertyOp29
 70
     1
102
RTVSPropertyOp30
 70
     1
102
RTVSPropertyOp31
 70
     1
102
RTVSPropertyOp32
 70
     1
102
RTVSPropertyOp33
 70
     1
102
RTVSPropertyOp34
 70
     1
102
RTVSPropertyOp35
 70
     1
102
RTVSPropertyOp36
 70
     1
102
RTVSPropertyOp37
 70
     1
102
RTVSPropertyOp38
 70
     1
102
RTVSPropertyOp39
 70
     1
102
RTVSPropertyOp40
 70
     1
102
RTVSPropertyOp41
 70
     1
102
RTVSPropertyOp42
 70
     1
102
RTVSPropertyOp43
 70
     1
102
RTVSPropertyOp44
 70
     1
102
RTVSPropertyOp45
 70
     1
102
RTVSPropertyOp46
 70
     1
102
RTVSPropertyOp47
 70
     1
102
RTVSPropertyOp48
 70
     1
102
RTVSPropertyOp49
 70
     1
102
RTVSPropertyOp50
 70
     1
102
RTVSPropertyOp51
 70
     0
102
RTVSPropertyOp52
 70
     0
102
RTVSPropertyOp53
 70
     1
102
RTVSPropertyOp54
 70
     1
102
RTVSPropertyOp55
 70
     1
102
RTVSPropertyOp56
 70
     1
102
RTVSPropertyOp57
 70
     1
102
RTVSPropertyOp58
 70
     1
102
RTVSPropertyOp59
 70
     1
102
RTVSPropertyOp60
 70
     1
102
RTVSPropertyOp61
 70
     1
102
RTVSPropertyOp62
 70
     1
  0
XRECORD
  5
1619
102
{ACAD_REACTORS
330
1618
102
}
330
1618
100
AcDbXrecord
280
     1
102
RTVSPost2010Prop28
280
     0
102
RTVSPost2010PropOp28
 70
     1
102
RTVSPost2010Prop29
280
     1
102
RTVSPost2010PropOp29
 70
     1
102
RTVSPost2010Prop30
280
     1
102
RTVSPost2010PropOp30
 70
     1
102
RTVSPost2010Prop31
280
     0
102
RTVSPost2010PropOp31
 70
     1
102
RTVSPost2010Prop32
280
     0
102
RTVSPost2010PropOp32
 70
     1
102
RTVSPost2010Prop33
280
     0
102
RTVSPost2010PropOp33
 70
     1
102
RTVSPost2010Prop34
280
     0
102
RTVSPost2010PropOp34
 70
     1
102
RTVSPost2010Prop35
280
     0
102
RTVSPost2010PropOp35
 70
     1
102
RTVSPost2010Prop36
280
     0
102
RTVSPost2010PropOp36
 70
     1
102
RTVSPost2010Prop37
 90
       50
102
RTVSPost2010PropOp37
 70
     1
102
RTVSPost2010Prop38
140
0.0
102
RTVSPost2010PropOp38
 70
     1
102
RTVSPost2010Prop39
140
1.0
102
RTVSPost2010PropOp39
 70
     1
102
RTVSPost2010Prop40
 90
        0
102
RTVSPost2010PropOp40
 70
     1
102
RTVSPost2010Prop41ColorIndex
 90
       18
102
RTVSPost2010Prop41ColorRGB
 90
        0
102
RTVSPost2010PropOp41
 70
     1
102
RTVSPost2010Prop42
 90
       50
102
RTVSPost2010PropOp42
 70
     1
102
RTVSPost2010Prop43
 90
        3
102
RTVSPost2010PropOp43
 70
     1
102
RTVSPost2010Prop44ColorIndex
 90
        5
102
RTVSPost2010Prop44ColorRGB
 90
      255
102
RTVSPost2010PropOp44
 70
     1
102
RTVSPost2010Prop45
280
     0
102
RTVSPost2010PropOp45
 70
     1
102
RTVSPost2010Prop46
 90
       50
102
RTVSPost2010PropOp46
 70
     1
102
RTVSPost2010Prop47
 90
       50
102
RTVSPost2010PropOp47
 70
     1
102
RTVSPost2010Prop48
 90
       50
102
RTVSPost2010PropOp48
 70
     1
102
RTVSPost2010Prop49
280
     0
102
RTVSPost2010PropOp49
 70
     1
102
RTVSPost2010Prop50
 90
       50
102
RTVSPost2010PropOp50
 70
     1
102
RTVSPost2010Prop51ColorIndex
 90
      256
102
RTVSPost2010Prop51ColorRGB
 90
-16777216
102
RTVSPost2010PropOp51
 70
     0
102
RTVSPost2010Prop52
140
1.0
102
RTVSPost2010PropOp52
 70
     0
102
RTVSPost2010Prop53
 90
        2
102
RTVSPost2010PropOp53
 70
     1
102
RTVSPost2010Prop54
  1
strokes_ogs.tif
102
RTVSPost2010PropOp54
 70
     1
102
RTVSPost2010Prop55
280
     0
102
RTVSPost2010PropOp55
 70
     1
102
RTVSPost2010Prop56
140
1.0
102
RTVSPost2010PropOp56
 70
     1
102
RTVSPost2010Prop57
140
1.0
102
RTVSPost2010PropOp57
 70
     1
102
RTVSPropertyOp0
 70
     1
102
RTVSPropertyOp1
 70
     1
102
RTVSPropertyOp2
 70
     1
102
RTVSPropertyOp3
 70
     1
102
RTVSPropertyOp4
 70
     1
102
RTVSPropertyOp5
 70
     1
102
RTVSPropertyOp6
 70
     1
102
RTVSPropertyOp7
 70
     1
102
RTVSPropertyOp8
 70
     1
102
RTVSPropertyOp9
 70
     1
102
RTVSPropertyOp10
 70
     1
102
RTVSPropertyOp11
 70
     1
102
RTVSPropertyOp12
 70
     1
102
RTVSPropertyOp13
 70
     1
102
RTVSPropertyOp14
 70
     1
102
RTVSPropertyOp15
 70
     1
102
RTVSPropertyOp16
 70
     1
102
RTVSPropertyOp17
 70
     1
102
RTVSPropertyOp18
 70
     1
102
RTVSPropertyOp19
 70
     1
102
RTVSPropertyOp20
 70
     1
102
RTVSPropertyOp21
 70
     1
102
RTVSPropertyOp22
 70
     1
102
RTVSPropertyOp23
 70
     1
102
RTVSPropertyOp24
 70
     1
102
RTVSPropertyOp25
 70
     1
102
RTVSPropertyOp26
 70
     1
102
RTVSPropertyOp27
 70
     1
102
RTVSPropertyOp28
 70
     1
102
RTVSPropertyOp29
 70
     1
102
RTVSPropertyOp30
 70
     1
102
RTVSPropertyOp31
 70
     1
102
RTVSPropertyOp32
 70
     1
102
RTVSPropertyOp33
 70
     1
102
RTVSPropertyOp34
 70
     1
102
RTVSPropertyOp35
 70
     1
102
RTVSPropertyOp36
 70
     1
102
RTVSPropertyOp37
 70
     1
102
RTVSPropertyOp38
 70
     1
102
RTVSPropertyOp39
 70
     1
102
RTVSPropertyOp40
 70
     1
102
RTVSPropertyOp41
 70
     1
102
RTVSPropertyOp42
 70
     1
102
RTVSPropertyOp43
 70
     1
102
RTVSPropertyOp44
 70
     1
102
RTVSPropertyOp45
 70
     1
102
RTVSPropertyOp46
 70
     1
102
RTVSPropertyOp47
 70
     1
102
RTVSPropertyOp48
 70
     1
102
RTVSPropertyOp49
 70
     1
102
RTVSPropertyOp50
 70
     1
102
RTVSPropertyOp51
 70
     0
102
RTVSPropertyOp52
 70
     0
102
RTVSPropertyOp53
 70
     1
102
RTVSPropertyOp54
 70
     1
102
RTVSPropertyOp55
 70
     1
102
RTVSPropertyOp56
 70
     1
102
RTVSPropertyOp57
 70
     1
102
RTVSPropertyOp58
 70
     1
102
RTVSPropertyOp59
 70
     1
102
RTVSPropertyOp60
 70
     1
102
RTVSPropertyOp61
 70
     1
102
RTVSPropertyOp62
 70
     1
  0
XRECORD
  5
1617
102
{ACAD_REACTORS
330
1616
102
}
330
1616
100
AcDbXrecord
280
     1
102
RTVSPost2010Prop28
280
     0
102
RTVSPost2010PropOp28
 70
     1
102
RTVSPost2010Prop29
280
     1
102
RTVSPost2010PropOp29
 70
     1
102
RTVSPost2010Prop30
280
     1
102
RTVSPost2010PropOp30
 70
     1
102
RTVSPost2010Prop31
280
     0
102
RTVSPost2010PropOp31
 70
     1
102
RTVSPost2010Prop32
280
     0
102
RTVSPost2010PropOp32
 70
     1
102
RTVSPost2010Prop33
280
     0
102
RTVSPost2010PropOp33
 70
     1
102
RTVSPost2010Prop34
280
     0
102
RTVSPost2010PropOp34
 70
     1
102
RTVSPost2010Prop35
280
     0
102
RTVSPost2010PropOp35
 70
     1
102
RTVSPost2010Prop36
280
     0
102
RTVSPost2010PropOp36
 70
     1
102
RTVSPost2010Prop37
 90
       50
102
RTVSPost2010PropOp37
 70
     1
102
RTVSPost2010Prop38
140
0.0
102
RTVSPost2010PropOp38
 70
     1
102
RTVSPost2010Prop39
140
1.0
102
RTVSPost2010PropOp39
 70
     1
102
RTVSPost2010Prop40
 90
        0
102
RTVSPost2010PropOp40
 70
     1
102
RTVSPost2010Prop41ColorIndex
 90
       18
102
RTVSPost2010Prop41ColorRGB
 90
        0
102
RTVSPost2010PropOp41
 70
     1
102
RTVSPost2010Prop42
 90
       50
102
RTVSPost2010PropOp42
 70
     1
102
RTVSPost2010Prop43
 90
        3
102
RTVSPost2010PropOp43
 70
     1
102
RTVSPost2010Prop44ColorIndex
 90
        5
102
RTVSPost2010Prop44ColorRGB
 90
      255
102
RTVSPost2010PropOp44
 70
     1
102
RTVSPost2010Prop45
280
     0
102
RTVSPost2010PropOp45
 70
     1
102
RTVSPost2010Prop46
 90
       50
102
RTVSPost2010PropOp46
 70
     1
102
RTVSPost2010Prop47
 90
       50
102
RTVSPost2010PropOp47
 70
     1
102
RTVSPost2010Prop48
 90
       50
102
RTVSPost2010PropOp48
 70
     1
102
RTVSPost2010Prop49
280
     0
102
RTVSPost2010PropOp49
 70
     1
102
RTVSPost2010Prop50
 90
       50
102
RTVSPost2010PropOp50
 70
     1
102
RTVSPost2010Prop51ColorIndex
 90
      256
102
RTVSPost2010Prop51ColorRGB
 90
-16777216
102
RTVSPost2010PropOp51
 70
     0
102
RTVSPost2010Prop52
140
1.0
102
RTVSPost2010PropOp52
 70
     0
102
RTVSPost2010Prop53
 90
        2
102
RTVSPost2010PropOp53
 70
     1
102
RTVSPost2010Prop54
  1
strokes_ogs.tif
102
RTVSPost2010PropOp54
 70
     1
102
RTVSPost2010Prop55
280
     0
102
RTVSPost2010PropOp55
 70
     1
102
RTVSPost2010Prop56
140
1.0
102
RTVSPost2010PropOp56
 70
     1
102
RTVSPost2010Prop57
140
1.0
102
RTVSPost2010PropOp57
 70
     1
102
RTVSPropertyOp0
 70
     1
102
RTVSPropertyOp1
 70
     1
102
RTVSPropertyOp2
 70
     1
102
RTVSPropertyOp3
 70
     1
102
RTVSPropertyOp4
 70
     1
102
RTVSPropertyOp5
 70
     1
102
RTVSPropertyOp6
 70
     1
102
RTVSPropertyOp7
 70
     1
102
RTVSPropertyOp8
 70
     1
102
RTVSPropertyOp9
 70
     1
102
RTVSPropertyOp10
 70
     1
102
RTVSPropertyOp11
 70
     1
102
RTVSPropertyOp12
 70
     1
102
RTVSPropertyOp13
 70
     1
102
RTVSPropertyOp14
 70
     1
102
RTVSPropertyOp15
 70
     1
102
RTVSPropertyOp16
 70
     1
102
RTVSPropertyOp17
 70
     1
102
RTVSPropertyOp18
 70
     1
102
RTVSPropertyOp19
 70
     1
102
RTVSPropertyOp20
 70
     1
102
RTVSPropertyOp21
 70
     1
102
RTVSPropertyOp22
 70
     1
102
RTVSPropertyOp23
 70
     1
102
RTVSPropertyOp24
 70
     1
102
RTVSPropertyOp25
 70
     1
102
RTVSPropertyOp26
 70
     1
102
RTVSPropertyOp27
 70
     1
102
RTVSPropertyOp28
 70
     1
102
RTVSPropertyOp29
 70
     1
102
RTVSPropertyOp30
 70
     1
102
RTVSPropertyOp31
 70
     1
102
RTVSPropertyOp32
 70
     1
102
RTVSPropertyOp33
 70
     1
102
RTVSPropertyOp34
 70
     1
102
RTVSPropertyOp35
 70
     1
102
RTVSPropertyOp36
 70
     1
102
RTVSPropertyOp37
 70
     1
102
RTVSPropertyOp38
 70
     1
102
RTVSPropertyOp39
 70
     1
102
RTVSPropertyOp40
 70
     1
102
RTVSPropertyOp41
 70
     1
102
RTVSPropertyOp42
 70
     1
102
RTVSPropertyOp43
 70
     1
102
RTVSPropertyOp44
 70
     1
102
RTVSPropertyOp45
 70
     1
102
RTVSPropertyOp46
 70
     1
102
RTVSPropertyOp47
 70
     1
102
RTVSPropertyOp48
 70
     1
102
RTVSPropertyOp49
 70
     1
102
RTVSPropertyOp50
 70
     1
102
RTVSPropertyOp51
 70
     0
102
RTVSPropertyOp52
 70
     0
102
RTVSPropertyOp53
 70
     1
102
RTVSPropertyOp54
 70
     1
102
RTVSPropertyOp55
 70
     1
102
RTVSPropertyOp56
 70
     1
102
RTVSPropertyOp57
 70
     1
102
RTVSPropertyOp58
 70
     1
102
RTVSPropertyOp59
 70
     1
102
RTVSPropertyOp60
 70
     1
102
RTVSPropertyOp61
 70
     1
102
RTVSPropertyOp62
 70
     1
  0
XRECORD
  5
1611
102
{ACAD_REACTORS
330
1610
102
}
330
1610
100
AcDbXrecord
280
     1
102
RTVSPost2010Prop28
280
     0
102
RTVSPost2010PropOp28
 70
     1
102
RTVSPost2010Prop29
280
     1
102
RTVSPost2010PropOp29
 70
     1
102
RTVSPost2010Prop30
280
     1
102
RTVSPost2010PropOp30
 70
     1
102
RTVSPost2010Prop31
280
     0
102
RTVSPost2010PropOp31
 70
     1
102
RTVSPost2010Prop32
280
     0
102
RTVSPost2010PropOp32
 70
     1
102
RTVSPost2010Prop33
280
     0
102
RTVSPost2010PropOp33
 70
     1
102
RTVSPost2010Prop34
280
     0
102
RTVSPost2010PropOp34
 70
     1
102
RTVSPost2010Prop35
280
     0
102
RTVSPost2010PropOp35
 70
     1
102
RTVSPost2010Prop36
280
     0
102
RTVSPost2010PropOp36
 70
     1
102
RTVSPost2010Prop37
 90
       50
102
RTVSPost2010PropOp37
 70
     1
102
RTVSPost2010Prop38
140
0.0
102
RTVSPost2010PropOp38
 70
     1
102
RTVSPost2010Prop39
140
1.0
102
RTVSPost2010PropOp39
 70
     1
102
RTVSPost2010Prop40
 90
        0
102
RTVSPost2010PropOp40
 70
     1
102
RTVSPost2010Prop41ColorIndex
 90
       18
102
RTVSPost2010Prop41ColorRGB
 90
        0
102
RTVSPost2010PropOp41
 70
     1
102
RTVSPost2010Prop42
 90
       50
102
RTVSPost2010PropOp42
 70
     1
102
RTVSPost2010Prop43
 90
        3
102
RTVSPost2010PropOp43
 70
     1
102
RTVSPost2010Prop44ColorIndex
 90
        5
102
RTVSPost2010Prop44ColorRGB
 90
      255
102
RTVSPost2010PropOp44
 70
     1
102
RTVSPost2010Prop45
280
     0
102
RTVSPost2010PropOp45
 70
     1
102
RTVSPost2010Prop46
 90
       50
102
RTVSPost2010PropOp46
 70
     1
102
RTVSPost2010Prop47
 90
       50
102
RTVSPost2010PropOp47
 70
     1
102
RTVSPost2010Prop48
 90
       50
102
RTVSPost2010PropOp48
 70
     1
102
RTVSPost2010Prop49
280
     0
102
RTVSPost2010PropOp49
 70
     1
102
RTVSPost2010Prop50
 90
       50
102
RTVSPost2010PropOp50
 70
     1
102
RTVSPost2010Prop51ColorIndex
 90
      256
102
RTVSPost2010Prop51ColorRGB
 90
-16777216
102
RTVSPost2010PropOp51
 70
     0
102
RTVSPost2010Prop52
140
1.0
102
RTVSPost2010PropOp52
 70
     0
102
RTVSPost2010Prop53
 90
        2
102
RTVSPost2010PropOp53
 70
     1
102
RTVSPost2010Prop54
  1
strokes_ogs.tif
102
RTVSPost2010PropOp54
 70
     1
102
RTVSPost2010Prop55
280
     0
102
RTVSPost2010PropOp55
 70
     1
102
RTVSPost2010Prop56
140
1.0
102
RTVSPost2010PropOp56
 70
     1
102
RTVSPost2010Prop57
140
1.0
102
RTVSPost2010PropOp57
 70
     1
102
RTVSPropertyOp0
 70
     1
102
RTVSPropertyOp1
 70
     1
102
RTVSPropertyOp2
 70
     1
102
RTVSPropertyOp3
 70
     1
102
RTVSPropertyOp4
 70
     1
102
RTVSPropertyOp5
 70
     1
102
RTVSPropertyOp6
 70
     1
102
RTVSPropertyOp7
 70
     1
102
RTVSPropertyOp8
 70
     1
102
RTVSPropertyOp9
 70
     1
102
RTVSPropertyOp10
 70
     1
102
RTVSPropertyOp11
 70
     1
102
RTVSPropertyOp12
 70
     1
102
RTVSPropertyOp13
 70
     1
102
RTVSPropertyOp14
 70
     1
102
RTVSPropertyOp15
 70
     1
102
RTVSPropertyOp16
 70
     1
102
RTVSPropertyOp17
 70
     1
102
RTVSPropertyOp18
 70
     1
102
RTVSPropertyOp19
 70
     1
102
RTVSPropertyOp20
 70
     1
102
RTVSPropertyOp21
 70
     1
102
RTVSPropertyOp22
 70
     1
102
RTVSPropertyOp23
 70
     1
102
RTVSPropertyOp24
 70
     1
102
RTVSPropertyOp25
 70
     1
102
RTVSPropertyOp26
 70
     1
102
RTVSPropertyOp27
 70
     1
102
RTVSPropertyOp28
 70
     1
102
RTVSPropertyOp29
 70
     1
102
RTVSPropertyOp30
 70
     1
102
RTVSPropertyOp31
 70
     1
102
RTVSPropertyOp32
 70
     1
102
RTVSPropertyOp33
 70
     1
102
RTVSPropertyOp34
 70
     1
102
RTVSPropertyOp35
 70
     1
102
RTVSPropertyOp36
 70
     1
102
RTVSPropertyOp37
 70
     1
102
RTVSPropertyOp38
 70
     1
102
RTVSPropertyOp39
 70
     1
102
RTVSPropertyOp40
 70
     1
102
RTVSPropertyOp41
 70
     1
102
RTVSPropertyOp42
 70
     1
102
RTVSPropertyOp43
 70
     1
102
RTVSPropertyOp44
 70
     1
102
RTVSPropertyOp45
 70
     1
102
RTVSPropertyOp46
 70
     1
102
RTVSPropertyOp47
 70
     1
102
RTVSPropertyOp48
 70
     1
102
RTVSPropertyOp49
 70
     1
102
RTVSPropertyOp50
 70
     1
102
RTVSPropertyOp51
 70
     0
102
RTVSPropertyOp52
 70
     0
102
RTVSPropertyOp53
 70
     1
102
RTVSPropertyOp54
 70
     1
102
RTVSPropertyOp55
 70
     1
102
RTVSPropertyOp56
 70
     1
102
RTVSPropertyOp57
 70
     1
102
RTVSPropertyOp58
 70
     1
102
RTVSPropertyOp59
 70
     1
102
RTVSPropertyOp60
 70
     1
102
RTVSPropertyOp61
 70
     1
102
RTVSPropertyOp62
 70
     1
  0
XRECORD
  5
1613
102
{ACAD_REACTORS
330
1612
102
}
330
1612
100
AcDbXrecord
280
     1
102
RTVSPost2010Prop28
280
     0
102
RTVSPost2010PropOp28
 70
     1
102
RTVSPost2010Prop29
280
     1
102
RTVSPost2010PropOp29
 70
     1
102
RTVSPost2010Prop30
280
     1
102
RTVSPost2010PropOp30
 70
     1
102
RTVSPost2010Prop31
280
     0
102
RTVSPost2010PropOp31
 70
     1
102
RTVSPost2010Prop32
280
     0
102
RTVSPost2010PropOp32
 70
     1
102
RTVSPost2010Prop33
280
     0
102
RTVSPost2010PropOp33
 70
     1
102
RTVSPost2010Prop34
280
     0
102
RTVSPost2010PropOp34
 70
     1
102
RTVSPost2010Prop35
280
     0
102
RTVSPost2010PropOp35
 70
     1
102
RTVSPost2010Prop36
280
     0
102
RTVSPost2010PropOp36
 70
     1
102
RTVSPost2010Prop37
 90
       50
102
RTVSPost2010PropOp37
 70
     1
102
RTVSPost2010Prop38
140
0.0
102
RTVSPost2010PropOp38
 70
     1
102
RTVSPost2010Prop39
140
1.0
102
RTVSPost2010PropOp39
 70
     1
102
RTVSPost2010Prop40
 90
        0
102
RTVSPost2010PropOp40
 70
     1
102
RTVSPost2010Prop41ColorIndex
 90
       18
102
RTVSPost2010Prop41ColorRGB
 90
        0
102
RTVSPost2010PropOp41
 70
     1
102
RTVSPost2010Prop42
 90
       50
102
RTVSPost2010PropOp42
 70
     1
102
RTVSPost2010Prop43
 90
        3
102
RTVSPost2010PropOp43
 70
     1
102
RTVSPost2010Prop44ColorIndex
 90
        5
102
RTVSPost2010Prop44ColorRGB
 90
      255
102
RTVSPost2010PropOp44
 70
     1
102
RTVSPost2010Prop45
280
     0
102
RTVSPost2010PropOp45
 70
     1
102
RTVSPost2010Prop46
 90
       50
102
RTVSPost2010PropOp46
 70
     1
102
RTVSPost2010Prop47
 90
       50
102
RTVSPost2010PropOp47
 70
     1
102
RTVSPost2010Prop48
 90
       50
102
RTVSPost2010PropOp48
 70
     1
102
RTVSPost2010Prop49
280
     0
102
RTVSPost2010PropOp49
 70
     1
102
RTVSPost2010Prop50
 90
       50
102
RTVSPost2010PropOp50
 70
     1
102
RTVSPost2010Prop51ColorIndex
 90
      256
102
RTVSPost2010Prop51ColorRGB
 90
-16777216
102
RTVSPost2010PropOp51
 70
     0
102
RTVSPost2010Prop52
140
1.0
102
RTVSPost2010PropOp52
 70
     0
102
RTVSPost2010Prop53
 90
        2
102
RTVSPost2010PropOp53
 70
     1
102
RTVSPost2010Prop54
  1
strokes_ogs.tif
102
RTVSPost2010PropOp54
 70
     1
102
RTVSPost2010Prop55
280
     0
102
RTVSPost2010PropOp55
 70
     1
102
RTVSPost2010Prop56
140
1.0
102
RTVSPost2010PropOp56
 70
     1
102
RTVSPost2010Prop57
140
1.0
102
RTVSPost2010PropOp57
 70
     1
102
RTVSPropertyOp0
 70
     1
102
RTVSPropertyOp1
 70
     1
102
RTVSPropertyOp2
 70
     1
102
RTVSPropertyOp3
 70
     1
102
RTVSPropertyOp4
 70
     1
102
RTVSPropertyOp5
 70
     1
102
RTVSPropertyOp6
 70
     1
102
RTVSPropertyOp7
 70
     1
102
RTVSPropertyOp8
 70
     1
102
RTVSPropertyOp9
 70
     1
102
RTVSPropertyOp10
 70
     1
102
RTVSPropertyOp11
 70
     1
102
RTVSPropertyOp12
 70
     1
102
RTVSPropertyOp13
 70
     1
102
RTVSPropertyOp14
 70
     1
102
RTVSPropertyOp15
 70
     1
102
RTVSPropertyOp16
 70
     1
102
RTVSPropertyOp17
 70
     1
102
RTVSPropertyOp18
 70
     1
102
RTVSPropertyOp19
 70
     1
102
RTVSPropertyOp20
 70
     1
102
RTVSPropertyOp21
 70
     1
102
RTVSPropertyOp22
 70
     1
102
RTVSPropertyOp23
 70
     1
102
RTVSPropertyOp24
 70
     1
102
RTVSPropertyOp25
 70
     1
102
RTVSPropertyOp26
 70
     1
102
RTVSPropertyOp27
 70
     1
102
RTVSPropertyOp28
 70
     1
102
RTVSPropertyOp29
 70
     1
102
RTVSPropertyOp30
 70
     1
102
RTVSPropertyOp31
 70
     1
102
RTVSPropertyOp32
 70
     1
102
RTVSPropertyOp33
 70
     1
102
RTVSPropertyOp34
 70
     1
102
RTVSPropertyOp35
 70
     1
102
RTVSPropertyOp36
 70
     1
102
RTVSPropertyOp37
 70
     1
102
RTVSPropertyOp38
 70
     1
102
RTVSPropertyOp39
 70
     1
102
RTVSPropertyOp40
 70
     1
102
RTVSPropertyOp41
 70
     1
102
RTVSPropertyOp42
 70
     1
102
RTVSPropertyOp43
 70
     1
102
RTVSPropertyOp44
 70
     1
102
RTVSPropertyOp45
 70
     1
102
RTVSPropertyOp46
 70
     1
102
RTVSPropertyOp47
 70
     1
102
RTVSPropertyOp48
 70
     1
102
RTVSPropertyOp49
 70
     1
102
RTVSPropertyOp50
 70
     1
102
RTVSPropertyOp51
 70
     0
102
RTVSPropertyOp52
 70
     0
102
RTVSPropertyOp53
 70
     1
102
RTVSPropertyOp54
 70
     1
102
RTVSPropertyOp55
 70
     1
102
RTVSPropertyOp56
 70
     1
102
RTVSPropertyOp57
 70
     1
102
RTVSPropertyOp58
 70
     1
102
RTVSPropertyOp59
 70
     1
102
RTVSPropertyOp60
 70
     1
102
RTVSPropertyOp61
 70
     1
102
RTVSPropertyOp62
 70
     1
  0
XRECORD
  5
1609
102
{ACAD_REACTORS
330
1608
102
}
330
1608
100
AcDbXrecord
280
     1
102
RTVSPost2010Prop28
280
     0
102
RTVSPost2010PropOp28
 70
     1
102
RTVSPost2010Prop29
280
     1
102
RTVSPost2010PropOp29
 70
     1
102
RTVSPost2010Prop30
280
     1
102
RTVSPost2010PropOp30
 70
     1
102
RTVSPost2010Prop31
280
     0
102
RTVSPost2010PropOp31
 70
     1
102
RTVSPost2010Prop32
280
     0
102
RTVSPost2010PropOp32
 70
     1
102
RTVSPost2010Prop33
280
     0
102
RTVSPost2010PropOp33
 70
     1
102
RTVSPost2010Prop34
280
     0
102
RTVSPost2010PropOp34
 70
     1
102
RTVSPost2010Prop35
280
     0
102
RTVSPost2010PropOp35
 70
     1
102
RTVSPost2010Prop36
280
     0
102
RTVSPost2010PropOp36
 70
     1
102
RTVSPost2010Prop37
 90
       50
102
RTVSPost2010PropOp37
 70
     1
102
RTVSPost2010Prop38
140
0.0
102
RTVSPost2010PropOp38
 70
     1
102
RTVSPost2010Prop39
140
1.0
102
RTVSPost2010PropOp39
 70
     1
102
RTVSPost2010Prop40
 90
        0
102
RTVSPost2010PropOp40
 70
     1
102
RTVSPost2010Prop41ColorIndex
 90
       18
102
RTVSPost2010Prop41ColorRGB
 90
        0
102
RTVSPost2010PropOp41
 70
     1
102
RTVSPost2010Prop42
 90
       50
102
RTVSPost2010PropOp42
 70
     1
102
RTVSPost2010Prop43
 90
        3
102
RTVSPost2010PropOp43
 70
     1
102
RTVSPost2010Prop44ColorIndex
 90
        5
102
RTVSPost2010Prop44ColorRGB
 90
      255
102
RTVSPost2010PropOp44
 70
     1
102
RTVSPost2010Prop45
280
     0
102
RTVSPost2010PropOp45
 70
     1
102
RTVSPost2010Prop46
 90
       50
102
RTVSPost2010PropOp46
 70
     1
102
RTVSPost2010Prop47
 90
       50
102
RTVSPost2010PropOp47
 70
     1
102
RTVSPost2010Prop48
 90
       50
102
RTVSPost2010PropOp48
 70
     1
102
RTVSPost2010Prop49
280
     0
102
RTVSPost2010PropOp49
 70
     1
102
RTVSPost2010Prop50
 90
       50
102
RTVSPost2010PropOp50
 70
     1
102
RTVSPost2010Prop51ColorIndex
 90
      256
102
RTVSPost2010Prop51ColorRGB
 90
-16777216
102
RTVSPost2010PropOp51
 70
     0
102
RTVSPost2010Prop52
140
1.0
102
RTVSPost2010PropOp52
 70
     0
102
RTVSPost2010Prop53
 90
        2
102
RTVSPost2010PropOp53
 70
     1
102
RTVSPost2010Prop54
  1
strokes_ogs.tif
102
RTVSPost2010PropOp54
 70
     1
102
RTVSPost2010Prop55
280
     0
102
RTVSPost2010PropOp55
 70
     1
102
RTVSPost2010Prop56
140
1.0
102
RTVSPost2010PropOp56
 70
     1
102
RTVSPost2010Prop57
140
1.0
102
RTVSPost2010PropOp57
 70
     1
102
RTVSPropertyOp0
 70
     1
102
RTVSPropertyOp1
 70
     1
102
RTVSPropertyOp2
 70
     1
102
RTVSPropertyOp3
 70
     1
102
RTVSPropertyOp4
 70
     1
102
RTVSPropertyOp5
 70
     1
102
RTVSPropertyOp6
 70
     1
102
RTVSPropertyOp7
 70
     1
102
RTVSPropertyOp8
 70
     1
102
RTVSPropertyOp9
 70
     1
102
RTVSPropertyOp10
 70
     1
102
RTVSPropertyOp11
 70
     1
102
RTVSPropertyOp12
 70
     1
102
RTVSPropertyOp13
 70
     1
102
RTVSPropertyOp14
 70
     1
102
RTVSPropertyOp15
 70
     1
102
RTVSPropertyOp16
 70
     1
102
RTVSPropertyOp17
 70
     1
102
RTVSPropertyOp18
 70
     1
102
RTVSPropertyOp19
 70
     1
102
RTVSPropertyOp20
 70
     1
102
RTVSPropertyOp21
 70
     1
102
RTVSPropertyOp22
 70
     1
102
RTVSPropertyOp23
 70
     1
102
RTVSPropertyOp24
 70
     1
102
RTVSPropertyOp25
 70
     1
102
RTVSPropertyOp26
 70
     1
102
RTVSPropertyOp27
 70
     1
102
RTVSPropertyOp28
 70
     1
102
RTVSPropertyOp29
 70
     1
102
RTVSPropertyOp30
 70
     1
102
RTVSPropertyOp31
 70
     1
102
RTVSPropertyOp32
 70
     1
102
RTVSPropertyOp33
 70
     1
102
RTVSPropertyOp34
 70
     1
102
RTVSPropertyOp35
 70
     1
102
RTVSPropertyOp36
 70
     1
102
RTVSPropertyOp37
 70
     1
102
RTVSPropertyOp38
 70
     1
102
RTVSPropertyOp39
 70
     1
102
RTVSPropertyOp40
 70
     1
102
RTVSPropertyOp41
 70
     1
102
RTVSPropertyOp42
 70
     1
102
RTVSPropertyOp43
 70
     1
102
RTVSPropertyOp44
 70
     1
102
RTVSPropertyOp45
 70
     1
102
RTVSPropertyOp46
 70
     1
102
RTVSPropertyOp47
 70
     1
102
RTVSPropertyOp48
 70
     1
102
RTVSPropertyOp49
 70
     1
102
RTVSPropertyOp50
 70
     1
102
RTVSPropertyOp51
 70
     0
102
RTVSPropertyOp52
 70
     0
102
RTVSPropertyOp53
 70
     1
102
RTVSPropertyOp54
 70
     1
102
RTVSPropertyOp55
 70
     1
102
RTVSPropertyOp56
 70
     1
102
RTVSPropertyOp57
 70
     1
102
RTVSPropertyOp58
 70
     1
102
RTVSPropertyOp59
 70
     1
102
RTVSPropertyOp60
 70
     1
102
RTVSPropertyOp61
 70
     1
102
RTVSPropertyOp62
 70
     1
  0
XRECORD
  5
15FD
102
{ACAD_REACTORS
330
15FC
102
}
330
15FC
100
AcDbXrecord
280
     1
102
RTVSPost2010Prop28
280
     0
102
RTVSPost2010PropOp28
 70
     1
102
RTVSPost2010Prop29
280
     1
102
RTVSPost2010PropOp29
 70
     1
102
RTVSPost2010Prop30
280
     1
102
RTVSPost2010PropOp30
 70
     1
102
RTVSPost2010Prop31
280
     0
102
RTVSPost2010PropOp31
 70
     1
102
RTVSPost2010Prop32
280
     0
102
RTVSPost2010PropOp32
 70
     1
102
RTVSPost2010Prop33
280
     0
102
RTVSPost2010PropOp33
 70
     1
102
RTVSPost2010Prop34
280
     0
102
RTVSPost2010PropOp34
 70
     1
102
RTVSPost2010Prop35
280
     0
102
RTVSPost2010PropOp35
 70
     1
102
RTVSPost2010Prop36
280
     0
102
RTVSPost2010PropOp36
 70
     1
102
RTVSPost2010Prop37
 90
       50
102
RTVSPost2010PropOp37
 70
     1
102
RTVSPost2010Prop38
140
0.0
102
RTVSPost2010PropOp38
 70
     1
102
RTVSPost2010Prop39
140
1.0
102
RTVSPost2010PropOp39
 70
     1
102
RTVSPost2010Prop40
 90
        0
102
RTVSPost2010PropOp40
 70
     1
102
RTVSPost2010Prop41ColorIndex
 90
       18
102
RTVSPost2010Prop41ColorRGB
 90
        0
102
RTVSPost2010PropOp41
 70
     1
102
RTVSPost2010Prop42
 90
       50
102
RTVSPost2010PropOp42
 70
     1
102
RTVSPost2010Prop43
 90
        3
102
RTVSPost2010PropOp43
 70
     1
102
RTVSPost2010Prop44ColorIndex
 90
        5
102
RTVSPost2010Prop44ColorRGB
 90
      255
102
RTVSPost2010PropOp44
 70
     1
102
RTVSPost2010Prop45
280
     0
102
RTVSPost2010PropOp45
 70
     1
102
RTVSPost2010Prop46
 90
       50
102
RTVSPost2010PropOp46
 70
     1
102
RTVSPost2010Prop47
 90
       50
102
RTVSPost2010PropOp47
 70
     1
102
RTVSPost2010Prop48
 90
       50
102
RTVSPost2010PropOp48
 70
     1
102
RTVSPost2010Prop49
280
     0
102
RTVSPost2010PropOp49
 70
     1
102
RTVSPost2010Prop50
 90
       50
102
RTVSPost2010PropOp50
 70
     1
102
RTVSPost2010Prop51ColorIndex
 90
      256
102
RTVSPost2010Prop51ColorRGB
 90
-16777216
102
RTVSPost2010PropOp51
 70
     0
102
RTVSPost2010Prop52
140
1.0
102
RTVSPost2010PropOp52
 70
     0
102
RTVSPost2010Prop53
 90
        2
102
RTVSPost2010PropOp53
 70
     1
102
RTVSPost2010Prop54
  1
strokes_ogs.tif
102
RTVSPost2010PropOp54
 70
     1
102
RTVSPost2010Prop55
280
     0
102
RTVSPost2010PropOp55
 70
     1
102
RTVSPost2010Prop56
140
1.0
102
RTVSPost2010PropOp56
 70
     1
102
RTVSPost2010Prop57
140
1.0
102
RTVSPost2010PropOp57
 70
     1
102
RTVSPropertyOp0
 70
     1
102
RTVSPropertyOp1
 70
     1
102
RTVSPropertyOp2
 70
     1
102
RTVSPropertyOp3
 70
     1
102
RTVSPropertyOp4
 70
     1
102
RTVSPropertyOp5
 70
     1
102
RTVSPropertyOp6
 70
     1
102
RTVSPropertyOp7
 70
     1
102
RTVSPropertyOp8
 70
     1
102
RTVSPropertyOp9
 70
     1
102
RTVSPropertyOp10
 70
     1
102
RTVSPropertyOp11
 70
     1
102
RTVSPropertyOp12
 70
     1
102
RTVSPropertyOp13
 70
     1
102
RTVSPropertyOp14
 70
     1
102
RTVSPropertyOp15
 70
     1
102
RTVSPropertyOp16
 70
     1
102
RTVSPropertyOp17
 70
     1
102
RTVSPropertyOp18
 70
     1
102
RTVSPropertyOp19
 70
     1
102
RTVSPropertyOp20
 70
     1
102
RTVSPropertyOp21
 70
     1
102
RTVSPropertyOp22
 70
     1
102
RTVSPropertyOp23
 70
     1
102
RTVSPropertyOp24
 70
     1
102
RTVSPropertyOp25
 70
     1
102
RTVSPropertyOp26
 70
     1
102
RTVSPropertyOp27
 70
     1
102
RTVSPropertyOp28
 70
     1
102
RTVSPropertyOp29
 70
     1
102
RTVSPropertyOp30
 70
     1
102
RTVSPropertyOp31
 70
     1
102
RTVSPropertyOp32
 70
     1
102
RTVSPropertyOp33
 70
     1
102
RTVSPropertyOp34
 70
     1
102
RTVSPropertyOp35
 70
     1
102
RTVSPropertyOp36
 70
     1
102
RTVSPropertyOp37
 70
     1
102
RTVSPropertyOp38
 70
     1
102
RTVSPropertyOp39
 70
     1
102
RTVSPropertyOp40
 70
     1
102
RTVSPropertyOp41
 70
     1
102
RTVSPropertyOp42
 70
     1
102
RTVSPropertyOp43
 70
     1
102
RTVSPropertyOp44
 70
     1
102
RTVSPropertyOp45
 70
     1
102
RTVSPropertyOp46
 70
     1
102
RTVSPropertyOp47
 70
     1
102
RTVSPropertyOp48
 70
     1
102
RTVSPropertyOp49
 70
     1
102
RTVSPropertyOp50
 70
     1
102
RTVSPropertyOp51
 70
     0
102
RTVSPropertyOp52
 70
     0
102
RTVSPropertyOp53
 70
     1
102
RTVSPropertyOp54
 70
     1
102
RTVSPropertyOp55
 70
     1
102
RTVSPropertyOp56
 70
     1
102
RTVSPropertyOp57
 70
     1
102
RTVSPropertyOp58
 70
     1
102
RTVSPropertyOp59
 70
     1
102
RTVSPropertyOp60
 70
     1
102
RTVSPropertyOp61
 70
     1
102
RTVSPropertyOp62
 70
     1
  0
XRECORD
  5
1615
102
{ACAD_REACTORS
330
1614
102
}
330
1614
100
AcDbXrecord
280
     1
102
RTVSPost2010Prop28
280
     0
102
RTVSPost2010PropOp28
 70
     1
102
RTVSPost2010Prop29
280
     1
102
RTVSPost2010PropOp29
 70
     1
102
RTVSPost2010Prop30
280
     1
102
RTVSPost2010PropOp30
 70
     1
102
RTVSPost2010Prop31
280
     0
102
RTVSPost2010PropOp31
 70
     1
102
RTVSPost2010Prop32
280
     0
102
RTVSPost2010PropOp32
 70
     1
102
RTVSPost2010Prop33
280
     0
102
RTVSPost2010PropOp33
 70
     1
102
RTVSPost2010Prop34
280
     0
102
RTVSPost2010PropOp34
 70
     1
102
RTVSPost2010Prop35
280
     0
102
RTVSPost2010PropOp35
 70
     1
102
RTVSPost2010Prop36
280
     0
102
RTVSPost2010PropOp36
 70
     1
102
RTVSPost2010Prop37
 90
       50
102
RTVSPost2010PropOp37
 70
     1
102
RTVSPost2010Prop38
140
0.0
102
RTVSPost2010PropOp38
 70
     1
102
RTVSPost2010Prop39
140
1.0
102
RTVSPost2010PropOp39
 70
     1
102
RTVSPost2010Prop40
 90
        0
102
RTVSPost2010PropOp40
 70
     1
102
RTVSPost2010Prop41ColorIndex
 90
       18
102
RTVSPost2010Prop41ColorRGB
 90
        0
102
RTVSPost2010PropOp41
 70
     1
102
RTVSPost2010Prop42
 90
       50
102
RTVSPost2010PropOp42
 70
     1
102
RTVSPost2010Prop43
 90
        3
102
RTVSPost2010PropOp43
 70
     1
102
RTVSPost2010Prop44ColorIndex
 90
        5
102
RTVSPost2010Prop44ColorRGB
 90
      255
102
RTVSPost2010PropOp44
 70
     1
102
RTVSPost2010Prop45
280
     0
102
RTVSPost2010PropOp45
 70
     1
102
RTVSPost2010Prop46
 90
       50
102
RTVSPost2010PropOp46
 70
     1
102
RTVSPost2010Prop47
 90
       50
102
RTVSPost2010PropOp47
 70
     1
102
RTVSPost2010Prop48
 90
       50
102
RTVSPost2010PropOp48
 70
     1
102
RTVSPost2010Prop49
280
     0
102
RTVSPost2010PropOp49
 70
     1
102
RTVSPost2010Prop50
 90
       50
102
RTVSPost2010PropOp50
 70
     1
102
RTVSPost2010Prop51ColorIndex
 90
      256
102
RTVSPost2010Prop51ColorRGB
 90
-16777216
102
RTVSPost2010PropOp51
 70
     0
102
RTVSPost2010Prop52
140
1.0
102
RTVSPost2010PropOp52
 70
     0
102
RTVSPost2010Prop53
 90
        2
102
RTVSPost2010PropOp53
 70
     1
102
RTVSPost2010Prop54
  1
strokes_ogs.tif
102
RTVSPost2010PropOp54
 70
     1
102
RTVSPost2010Prop55
280
     0
102
RTVSPost2010PropOp55
 70
     1
102
RTVSPost2010Prop56
140
1.0
102
RTVSPost2010PropOp56
 70
     1
102
RTVSPost2010Prop57
140
1.0
102
RTVSPost2010PropOp57
 70
     1
102
RTVSPropertyOp0
 70
     1
102
RTVSPropertyOp1
 70
     1
102
RTVSPropertyOp2
 70
     1
102
RTVSPropertyOp3
 70
     1
102
RTVSPropertyOp4
 70
     1
102
RTVSPropertyOp5
 70
     1
102
RTVSPropertyOp6
 70
     1
102
RTVSPropertyOp7
 70
     1
102
RTVSPropertyOp8
 70
     1
102
RTVSPropertyOp9
 70
     1
102
RTVSPropertyOp10
 70
     1
102
RTVSPropertyOp11
 70
     1
102
RTVSPropertyOp12
 70
     1
102
RTVSPropertyOp13
 70
     1
102
RTVSPropertyOp14
 70
     1
102
RTVSPropertyOp15
 70
     1
102
RTVSPropertyOp16
 70
     1
102
RTVSPropertyOp17
 70
     1
102
RTVSPropertyOp18
 70
     1
102
RTVSPropertyOp19
 70
     1
102
RTVSPropertyOp20
 70
     1
102
RTVSPropertyOp21
 70
     1
102
RTVSPropertyOp22
 70
     1
102
RTVSPropertyOp23
 70
     1
102
RTVSPropertyOp24
 70
     1
102
RTVSPropertyOp25
 70
     1
102
RTVSPropertyOp26
 70
     1
102
RTVSPropertyOp27
 70
     1
102
RTVSPropertyOp28
 70
     1
102
RTVSPropertyOp29
 70
     1
102
RTVSPropertyOp30
 70
     1
102
RTVSPropertyOp31
 70
     1
102
RTVSPropertyOp32
 70
     1
102
RTVSPropertyOp33
 70
     1
102
RTVSPropertyOp34
 70
     1
102
RTVSPropertyOp35
 70
     1
102
RTVSPropertyOp36
 70
     1
102
RTVSPropertyOp37
 70
     1
102
RTVSPropertyOp38
 70
     1
102
RTVSPropertyOp39
 70
     1
102
RTVSPropertyOp40
 70
     1
102
RTVSPropertyOp41
 70
     1
102
RTVSPropertyOp42
 70
     1
102
RTVSPropertyOp43
 70
     1
102
RTVSPropertyOp44
 70
     1
102
RTVSPropertyOp45
 70
     1
102
RTVSPropertyOp46
 70
     1
102
RTVSPropertyOp47
 70
     1
102
RTVSPropertyOp48
 70
     1
102
RTVSPropertyOp49
 70
     1
102
RTVSPropertyOp50
 70
     1
102
RTVSPropertyOp51
 70
     0
102
RTVSPropertyOp52
 70
     0
102
RTVSPropertyOp53
 70
     1
102
RTVSPropertyOp54
 70
     1
102
RTVSPropertyOp55
 70
     1
102
RTVSPropertyOp56
 70
     1
102
RTVSPropertyOp57
 70
     1
102
RTVSPropertyOp58
 70
     1
102
RTVSPropertyOp59
 70
     1
102
RTVSPropertyOp60
 70
     1
102
RTVSPropertyOp61
 70
     1
102
RTVSPropertyOp62
 70
     1
  0
ENDSEC
  0
EOF
