  0
SECTION
  2
HEADER
  9
$ACADVER
  1
AC1021
  9
$ACADMAINTVER
 70
    50
  9
$DWGCODEPAGE
  3
ANSI_932
  9
$LASTSAVEDBY
  1
SR78302
  9
$INSBASE
 10
0.0
 20
0.0
 30
0.0
  9
$EXTMIN
 10
-851.0311970796852
 20
-1254.338183284494
 30
-0.000000000000013
  9
$EXTMAX
 10
1178.986810772529
 20
2691.272122326666
 30
0.0000000000000023
  9
$LIMMIN
 10
0.0
 20
0.0
  9
$LIMMAX
 10
12.0
 20
9.0
  9
$ORTHOMODE
 70
     1
  9
$REGENMODE
 70
     1
  9
$FILLMODE
 70
     1
  9
$QTEXTMODE
 70
     0
  9
$MIRRTEXT
 70
     0
  9
$LTSCALE
 40
1.0
  9
$ATTMODE
 70
     1
  9
$TEXTSIZE
 40
2.799999952316284
  9
$TRACEWID
 40
0.05
  9
$TEXTSTYLE
  7
STANDARD1
  9
$CLAYER
  8
ARRANGE
  9
$CELTYPE
  6
CONTINUOUS
  9
$CECOLOR
 62
   256
  9
$CELTSCALE
 40
1.0
  9
$DISPSILH
 70
     0
  9
$DIMSCALE
 40
1.0
  9
$DIMASZ
 40
10.0
  9
$DIMEXO
 40
10.0
  9
$DIMDLI
 40
100.0
  9
$DIMRND
 40
0.0
  9
$DIMDLE
 40
0.0
  9
$DIMEXE
 40
12.5
  9
$DIMTP
 40
0.0
  9
$DIMTM
 40
0.0
  9
$DIMTXT
 40
30.0
  9
$DIMCEN
 40
2.5
  9
$DIMTSZ
 40
0.0
  9
$DIMTOL
 70
     0
  9
$DIMLIM
 70
     0
  9
$DIMTIH
 70
     0
  9
$DIMTOH
 70
     0
  9
$DIMSE1
 70
     0
  9
$DIMSE2
 70
     0
  9
$DIMTAD
 70
     3
  9
$DIMZIN
 70
    12
  9
$DIMBLK
  1

  9
$DIMASO
 70
     1
  9
$DIMSHO
 70
     1
  9
$DIMPOST
  1

  9
$DIMAPOST
  1

  9
$DIMALT
 70
     0
  9
$DIMALTD
 70
     4
  9
$DIMALTF
 40
25.4
  9
$DIMLFAC
 40
1.0
  9
$DIMTOFL
 70
     1
  9
$DIMTVP
 40
0.0
  9
$DIMTIX
 70
     0
  9
$DIMSOXD
 70
     0
  9
$DIMSAH
 70
     1
  9
$DIMBLK1
  1
ORIGIN
  9
$DIMBLK2
  1
ORIGIN
  9
$DIMSTYLE
  2
STANDARD
  9
$DIMCLRD
 70
     0
  9
$DIMCLRE
 70
     0
  9
$DIMCLRT
 70
     0
  9
$DIMTFAC
 40
0.7142857313156129
  9
$DIMGAP
 40
10.0
  9
$DIMJUST
 70
     0
  9
$DIMSD1
 70
     0
  9
$DIMSD2
 70
     0
  9
$DIMTOLJ
 70
     1
  9
$DIMTZIN
 70
     0
  9
$DIMALTZ
 70
     0
  9
$DIMALTTZ
 70
     0
  9
$DIMUPT
 70
     0
  9
$DIMDEC
 70
     4
  9
$DIMTDEC
 70
     4
  9
$DIMALTU
 70
     2
  9
$DIMALTTD
 70
     2
  9
$DIMTXSTY
  7
STANDARD
  9
$DIMAUNIT
 70
     0
  9
$DIMADEC
 70
     0
  9
$DIMALTRND
 40
0.0
  9
$DIMAZIN
 70
     0
  9
$DIMDSEP
 70
    46
  9
$DIMATFIT
 70
     3
  9
$DIMFRAC
 70
     0
  9
$DIMLDRBLK
  1
ORIGIN
  9
$DIMLUNIT
 70
     2
  9
$DIMLWD
 70
    -2
  9
$DIMLWE
 70
    -2
  9
$DIMTMOVE
 70
     0
  9
$DIMFXL
 40
1.0
  9
$DIMFXLON
 70
     0
  9
$DIMJOGANG
 40
0.7853981633974483
  9
$DIMTFILL
 70
     0
  9
$DIMTFILLCLR
 70
     0
  9
$DIMARCSYM
 70
     0
  9
$DIMLTYPE
  6

  9
$DIMLTEX1
  6

  9
$DIMLTEX2
  6

  9
$LUNITS
 70
     2
  9
$LUPREC
 70
     3
  9
$SKETCHINC
 40
0.1
  9
$FILLETRAD
 40
0.0
  9
$AUNITS
 70
     0
  9
$AUPREC
 70
     0
  9
$MENU
  1
.
  9
$ELEVATION
 40
0.0
  9
$PELEVATION
 40
0.0
  9
$THICKNESS
 40
0.0
  9
$LIMCHECK
 70
     0
  9
$CHAMFERA
 40
0.0
  9
$CHAMFERB
 40
0.0
  9
$CHAMFERC
 40
0.0
  9
$CHAMFERD
 40
0.0
  9
$SKPOLY
 70
     0
  9
$TDCREATE
 40
2456812.376631944
  9
$TDUCREATE
 40
2456812.001641702
  9
$TDUPDATE
 40
2459052.544710648
  9
$TDUUPDATE
 40
2459052.169710648
  9
$TDINDWG
 40
0.3986761111
  9
$TDUSRTIMER
 40
0.3986756366
  9
$USRTIMER
 70
     1
  9
$ANGBASE
 50
0.0
  9
$ANGDIR
 70
     0
  9
$PDMODE
 70
     0
  9
$PDSIZE
 40
0.0
  9
$PLINEWID
 40
0.0
  9
$SPLFRAME
 70
     0
  9
$SPLINETYPE
 70
     6
  9
$SPLINESEGS
 70
     8
  9
$HANDSEED
  5
146D
  9
$SURFTAB1
 70
     6
  9
$SURFTAB2
 70
     6
  9
$SURFTYPE
 70
     6
  9
$SURFU
 70
     6
  9
$SURFV
 70
     6
  9
$UCSBASE
  2

  9
$UCSNAME
  2

  9
$UCSORG
 10
0.0
 20
0.0
 30
0.0
  9
$UCSXDIR
 10
1.0
 20
0.0
 30
0.0
  9
$UCSYDIR
 10
0.0
 20
1.0
 30
0.0
  9
$UCSORTHOREF
  2

  9
$UCSORTHOVIEW
 70
     0
  9
$UCSORGTOP
 10
0.0
 20
0.0
 30
0.0
  9
$UCSORGBOTTOM
 10
0.0
 20
0.0
 30
0.0
  9
$UCSORGLEFT
 10
0.0
 20
0.0
 30
0.0
  9
$UCSORGRIGHT
 10
0.0
 20
0.0
 30
0.0
  9
$UCSORGFRONT
 10
0.0
 20
0.0
 30
0.0
  9
$UCSORGBACK
 10
0.0
 20
0.0
 30
0.0
  9
$PUCSBASE
  2

  9
$PUCSNAME
  2

  9
$PUCSORG
 10
0.0
 20
0.0
 30
0.0
  9
$PUCSXDIR
 10
1.0
 20
0.0
 30
0.0
  9
$PUCSYDIR
 10
0.0
 20
1.0
 30
0.0
  9
$PUCSORTHOREF
  2

  9
$PUCSORTHOVIEW
 70
     0
  9
$PUCSORGTOP
 10
0.0
 20
0.0
 30
0.0
  9
$PUCSORGBOTTOM
 10
0.0
 20
0.0
 30
0.0
  9
$PUCSORGLEFT
 10
0.0
 20
0.0
 30
0.0
  9
$PUCSORGRIGHT
 10
0.0
 20
0.0
 30
0.0
  9
$PUCSORGFRONT
 10
0.0
 20
0.0
 30
0.0
  9
$PUCSORGBACK
 10
0.0
 20
0.0
 30
0.0
  9
$USERI1
 70
     0
  9
$USERI2
 70
     0
  9
$USERI3
 70
     0
  9
$USERI4
 70
     0
  9
$USERI5
 70
     0
  9
$USERR1
 40
0.0
  9
$USERR2
 40
0.0
  9
$USERR3
 40
0.0
  9
$USERR4
 40
0.0
  9
$USERR5
 40
0.0
  9
$WORLDVIEW
 70
     1
  9
$SHADEDGE
 70
     3
  9
$SHADEDIF
 70
    70
  9
$TILEMODE
 70
     1
  9
$MAXACTVP
 70
    64
  9
$PINSBASE
 10
0.0
 20
0.0
 30
0.0
  9
$PLIMCHECK
 70
     0
  9
$PEXTMIN
 10
1.000000000000000E+20
 20
1.000000000000000E+20
 30
1.000000000000000E+20
  9
$PEXTMAX
 10
-1.000000000000000E+20
 20
-1.000000000000000E+20
 30
-1.000000000000000E+20
  9
$PLIMMIN
 10
0.0
 20
0.0
  9
$PLIMMAX
 10
12.0
 20
9.0
  9
$UNITMODE
 70
     0
  9
$VISRETAIN
 70
     1
  9
$PLINEGEN
 70
     0
  9
$PSLTSCALE
 70
     1
  9
$TREEDEPTH
 70
  3020
  9
$CMLSTYLE
  2
Standard
  9
$CMLJUST
 70
     0
  9
$CMLSCALE
 40
1.0
  9
$PROXYGRAPHICS
 70
     1
  9
$MEASUREMENT
 70
     0
  9
$CELWEIGHT
370
    -1
  9
$ENDCAPS
280
     0
  9
$JOINSTYLE
280
     0
  9
$LWDISPLAY
290
     0
  9
$INSUNITS
 70
     0
  9
$HYPERLINKBASE
  1

  9
$STYLESHEET
  1
MONOCHROME.CTB
  9
$XEDIT
290
     1
  9
$CEPSNTYPE
380
     0
  9
$PSTYLEMODE
290
     1
  9
$FINGERPRINTGUID
  2
{5D18A5EB-05EF-42ED-8CD6-9C08D7401922}
  9
$VERSIONGUID
  2
{8F81E35F-AC74-BC41-B0AA-320F6ED82754}
  9
$EXTNAMES
290
     1
  9
$PSVPSCALE
 40
0.0
  9
$OLESTARTUP
290
     0
  9
$SORTENTS
280
   127
  9
$INDEXCTL
280
     0
  9
$HIDETEXT
280
     0
  9
$XCLIPFRAME
290
     0
  9
$HALOGAP
280
     0
  9
$OBSCOLOR
 70
   257
  9
$OBSLTYPE
280
     0
  9
$INTERSECTIONDISPLAY
280
     0
  9
$INTERSECTIONCOLOR
 70
   257
  9
$DIMASSOC
280
     1
  9
$PROJECTNAME
  1

  9
$CAMERADISPLAY
290
     0
  9
$LENSLENGTH
 40
50.0
  9
$CAMERAHEIGHT
 40
0.0
  9
$STEPSPERSEC
 40
2.0
  9
$STEPSIZE
 40
6.0
  9
$3DDWFPREC
 40
2.0
  9
$PSOLWIDTH
 40
0.25
  9
$PSOLHEIGHT
 40
4.0
  9
$LOFTANG1
 40
1.570796326794896
  9
$LOFTANG2
 40
1.570796326794896
  9
$LOFTMAG1
 40
0.0
  9
$LOFTMAG2
 40
0.0
  9
$LOFTPARAM
 70
     7
  9
$LOFTNORMALS
280
     1
  9
$LATITUDE
 40
37.795
  9
$LONGITUDE
 40
-122.394
  9
$NORTHDIRECTION
 40
0.0
  9
$TIMEZONE
 70
 -8000
  9
$LIGHTGLYPHDISPLAY
280
     1
  9
$TILEMODELIGHTSYNCH
280
     1
  9
$CMATERIAL
347
6E3
  9
$SOLIDHIST
280
     0
  9
$SHOWHIST
280
     1
  9
$DWFFRAME
280
     2
  9
$DGNFRAME
280
     0
  9
$REALWORLDSCALE
290
     1
  9
$INTERFERECOLOR
 62
     1
  9
$INTERFEREOBJVS
345
705
  9
$INTERFEREVPVS
346
702
  9
$CSHADOW
280
     0
  9
$SHADOWPLANELOCATION
 40
0.0
  0
ENDSEC
  0
SECTION
  2
CLASSES
  0
CLASS
  1
ACDBDICTIONARYWDFLT
  2
AcDbDictionaryWithDefault
  3
ObjectDBX Classes
 90
        0
 91
        1
280
     0
281
     0
  0
CLASS
  1
MATERIAL
  2
AcDbMaterial
  3
ObjectDBX Classes
 90
     1153
 91
        3
280
     0
281
     0
  0
CLASS
  1
VISUALSTYLE
  2
AcDbVisualStyle
  3
ObjectDBX Classes
 90
     4095
 91
       24
280
     0
281
     0
  0
CLASS
  1
SCALE
  2
AcDbScale
  3
ObjectDBX Classes
 90
     1153
 91
       17
280
     0
281
     0
  0
CLASS
  1
TABLESTYLE
  2
AcDbTableStyle
  3
ObjectDBX Classes
 90
     4095
 91
        1
280
     0
281
     0
  0
CLASS
  1
MLEADERSTYLE
  2
AcDbMLeaderStyle
  3
ACDB_MLEADERSTYLE_CLASS
 90
     4095
 91
        1
280
     0
281
     0
  0
CLASS
  1
ACDBSECTIONVIEWSTYLE
  2
AcDbSectionViewStyle
  3
ObjectDBX Classes
 90
     1025
 91
        1
280
     0
281
     0
  0
CLASS
  1
ACDBDETAILVIEWSTYLE
  2
AcDbDetailViewStyle
  3
ObjectDBX Classes
 90
     1025
 91
        1
280
     0
281
     0
  0
CLASS
  1
DICTIONARYVAR
  2
AcDbDictionaryVar
  3
ObjectDBX Classes
 90
        0
 91
       10
280
     0
281
     0
  0
CLASS
  1
CELLSTYLEMAP
  2
AcDbCellStyleMap
  3
ObjectDBX Classes
 90
     1152
 91
        1
280
     0
281
     0
  0
CLASS
  1
SORTENTSTABLE
  2
AcDbSortentsTable
  3
ObjectDBX Classes
 90
        0
 91
        2
280
     0
281
     0
  0
ENDSEC
  0
SECTION
  2
TABLES
  0
TABLE
  2
VPORT
  5
6DA
330
0
100
AcDbSymbolTable
 70
     1
  0
VPORT
  5
747
330
6DA
100
AcDbSymbolTableRecord
100
AcDbViewportTableRecord
  2
*ACTIVE
 70
     0
 10
0.0
 20
0.0
 11
1.0
 21
1.0
 12
163.977806846422
 22
718.4669695210855
 13
0.0
 23
0.0
 14
1.0
 24
1.0
 15
0.0
 25
0.0
 16
0.0
 26
0.0
 36
1.0
 17
0.0
 27
0.0
 37
0.0
 40
3973.860498730095
 41
2.283154121863799
 42
50.0
 43
0.0
 44
0.0
 50
0.0
 51
0.0
 71
     0
 72
   100
 73
     1
 74
     3
 75
     0
 76
     0
 77
     0
 78
     0
281
     0
 65
     1
110
0.0
120
0.0
130
0.0
111
1.0
121
0.0
131
0.0
112
0.0
122
1.0
132
0.0
 79
     0
146
0.0
348
701
 60
     3
 61
     5
292
     1
282
     0
141
0.0
142
0.0
 63
   250
421
  3355443
1001
ACAD_NAV_VCDISPLAY
1070
     3
  0
ENDTAB
  0
TABLE
  2
LTYPE
  5
6D7
330
0
100
AcDbSymbolTable
 70
     5
  0
LTYPE
  5
72C
330
6D7
100
AcDbSymbolTableRecord
100
AcDbLinetypeTableRecord
  2
ByBlock
 70
     0
  3

 72
    65
 73
     0
 40
0.0
  0
LTYPE
  5
72D
330
6D7
100
AcDbSymbolTableRecord
100
AcDbLinetypeTableRecord
  2
ByLayer
 70
     0
  3

 72
    65
 73
     0
 40
0.0
  0
LTYPE
  5
72E
330
6D7
100
AcDbSymbolTableRecord
100
AcDbLinetypeTableRecord
  2
CONTINUOUS
 70
     0
  3
Solid line
 72
    65
 73
     0
 40
0.0
  0
LTYPE
  5
73A
330
6D7
100
AcDbSymbolTableRecord
100
AcDbLinetypeTableRecord
  2
PHANTOM2
 70
     0
  3
___ _ _ ___ _ _ ___ _ _ ___ _ _
 72
    65
 73
     6
 40
1.25
 49
0.625
 74
     0
 49
-0.125
 74
     0
 49
0.125
 74
     0
 49
-0.125
 74
     0
 49
0.125
 74
     0
 49
-0.125
 74
     0
  0
LTYPE
  5
748
330
6D7
100
AcDbSymbolTableRecord
100
AcDbLinetypeTableRecord
  2
DASHED
 70
     0
  3
-- -- -- -- -- -- -- -- -- -- -- -- -- -- --
 72
    65
 73
     2
 40
0.75
 49
0.5
 74
     0
 49
-0.25
 74
     0
  0
LTYPE
  5
749
330
6D7
100
AcDbSymbolTableRecord
100
AcDbLinetypeTableRecord
  2
DASHDOT
 70
     0
  3
__ . __ . __ . __ . __ . __ . __ . __ . __ . __
 72
    65
 73
     4
 40
125.0
 49
80.0
 74
     0
 49
-20.0
 74
     0
 49
5.0
 74
     0
 49
-20.0
 74
     0
  0
LTYPE
  5
74A
330
6D7
100
AcDbSymbolTableRecord
100
AcDbLinetypeTableRecord
  2
DIVIDE
 70
     0
  3
__ . . __ . . __ . . __ . . __ . . __ . . __
 72
    65
 73
     6
 40
1.25
 49
0.5
 74
     0
 49
-0.25
 74
     0
 49
0.0
 74
     0
 49
-0.25
 74
     0
 49
0.0
 74
     0
 49
-0.25
 74
     0
  0
ENDTAB
  0
TABLE
  2
LAYER
  5
6D4
102
{ACAD_XDICTIONARY
360
842
102
}
330
0
100
AcDbSymbolTable
 70
    12
  0
LAYER
  5
726
102
{ACAD_XDICTIONARY
360
7D7
102
}
330
6D4
100
AcDbSymbolTableRecord
100
AcDbLayerTableRecord
  2
0
 70
     0
 62
     3
  6
CONTINUOUS
370
    -3
390
6E1
347
6F3
  0
LAYER
  5
74B
102
{ACAD_XDICTIONARY
360
7D9
102
}
330
6D4
100
AcDbSymbolTableRecord
100
AcDbLayerTableRecord
  2
OUTLINE
 70
     0
 62
     3
  6
CONTINUOUS
370
    -3
390
6E1
347
6F3
  0
LAYER
  5
74C
102
{ACAD_XDICTIONARY
360
7DB
102
}
330
6D4
100
AcDbSymbolTableRecord
100
AcDbLayerTableRecord
  2
DETAIL
 70
     0
 62
     5
  6
CONTINUOUS
370
    -3
390
6E1
347
6F3
  0
LAYER
  5
74D
102
{ACAD_XDICTIONARY
360
7DD
102
}
330
6D4
100
AcDbSymbolTableRecord
100
AcDbLayerTableRecord
  2
BASIS
 70
     0
 62
     6
  6
CONTINUOUS
370
    -3
390
6E1
347
6F3
  0
LAYER
  5
74E
102
{ACAD_XDICTIONARY
360
7DF
102
}
330
6D4
100
AcDbSymbolTableRecord
100
AcDbLayerTableRecord
  2
SIZE
 70
     0
 62
    30
  6
CONTINUOUS
370
    -3
390
6E1
347
6F3
  0
LAYER
  5
74F
102
{ACAD_XDICTIONARY
360
7E1
102
}
330
6D4
100
AcDbSymbolTableRecord
100
AcDbLayerTableRecord
  2
NOTE
 70
     0
 62
     4
  6
CONTINUOUS
370
    -3
390
6E1
347
6F3
  0
LAYER
  5
750
102
{ACAD_XDICTIONARY
360
7E3
102
}
330
6D4
100
AcDbSymbolTableRecord
100
AcDbLayerTableRecord
  2
ARRANGE
 70
     0
 62
     1
  6
CONTINUOUS
370
    -3
390
6E1
347
6F3
  0
LAYER
  5
751
102
{ACAD_XDICTIONARY
360
7E5
102
}
330
6D4
100
AcDbSymbolTableRecord
100
AcDbLayerTableRecord
  2
FIX
 70
     0
 62
    11
  6
CONTINUOUS
370
    -3
390
6E1
347
6F3
  0
LAYER
  5
752
102
{ACAD_XDICTIONARY
360
7E7
102
}
330
6D4
100
AcDbSymbolTableRecord
100
AcDbLayerTableRecord
  2
SERVICESPACE
 70
     0
 62
     2
  6
CONTINUOUS
370
    -3
390
6E1
347
6F3
  0
LAYER
  5
753
102
{ACAD_XDICTIONARY
360
7E9
102
}
330
6D4
100
AcDbSymbolTableRecord
100
AcDbLayerTableRecord
  2
ETC
 70
     0
 62
    61
  6
CONTINUOUS
370
    -3
390
6E1
347
6F3
  0
LAYER
  5
754
102
{ACAD_XDICTIONARY
360
7EB
102
}
330
6D4
100
AcDbSymbolTableRecord
100
AcDbLayerTableRecord
  2
SYMBOLLINE
 70
     0
 62
    15
  6
CONTINUOUS
370
    -3
390
6E1
347
6F3
  0
LAYER
  5
755
330
6D4
100
AcDbSymbolTableRecord
100
AcDbLayerTableRecord
  2
DEFPOINTS
 70
     0
 62
     7
  6
CONTINUOUS
290
     0
370
    -3
390
6E1
347
6F3
  0
ENDTAB
  0
TABLE
  2
STYLE
  5
6D5
330
0
100
AcDbSymbolTable
 70
     6
  0
STYLE
  5
727
330
6D5
100
AcDbSymbolTableRecord
100
AcDbTextStyleTableRecord
  2
STANDARD
 70
     0
 40
0.0
 41
1.0
 50
0.0
 71
     0
 42
0.2
  3
txt
  4

  0
STYLE
  5
72B
330
6D5
100
AcDbSymbolTableRecord
100
AcDbTextStyleTableRecord
  2
ANNOTATIVE
 70
     0
 40
0.0
 41
1.0
 50
0.0
 71
     0
 42
0.2
  3
txt
  4

1001
ACADANNOTATIVE
1000
AnnotativeData
1002
{
1070
     1
1070
     1
1002
}
  0
STYLE
  5
746
330
6D5
100
AcDbSymbolTableRecord
100
AcDbTextStyleTableRecord
  2
STANDARD1
 70
     0
 40
0.0
 41
1.0
 50
0.0
 71
     0
 42
2.799999952316284
  3
MONOTXT
  4
BIGFONT
  0
STYLE
  5
756
330
6D5
100
AcDbSymbolTableRecord
100
AcDbTextStyleTableRecord
  2
STANDARD2
 70
     4
 40
0.0
 41
1.0
 50
0.0
 71
     0
 42
2.799999952316284
  3
MONOTXT
  4
BIGFONT
  0
STYLE
  5
757
330
6D5
100
AcDbSymbolTableRecord
100
AcDbTextStyleTableRecord
  2
STANDARD3
 70
     0
 40
0.0
 41
1.0
 50
0.0
 71
     0
 42
2.799999952316284
  3
MONOTXT
  4

  0
STYLE
  5
758
330
6D5
100
AcDbSymbolTableRecord
100
AcDbTextStyleTableRecord
  2
STANDARD4
 70
     4
 40
0.0
 41
1.0
 50
0.0
 71
     0
 42
2.799999952316284
  3
MONOTXT
  4

  0
ENDTAB
  0
TABLE
  2
VIEW
  5
6D8
330
0
100
AcDbSymbolTable
 70
     2
  0
ENDTAB
  0
TABLE
  2
UCS
  5
6D9
330
0
100
AcDbSymbolTable
 70
     0
  0
ENDTAB
  0
TABLE
  2
APPID
  5
6DB
330
0
100
AcDbSymbolTable
 70
     7
  0
APPID
  5
728
330
6DB
100
AcDbSymbolTableRecord
100
AcDbRegAppTableRecord
  2
ACAD
 70
     0
  0
APPID
  5
72F
330
6DB
100
AcDbSymbolTableRecord
100
AcDbRegAppTableRecord
  2
ACADANNOTATIVE
 70
     0
  0
APPID
  5
759
330
6DB
100
AcDbSymbolTableRecord
100
AcDbRegAppTableRecord
  2
ACAD_EXEMPT_FROM_CAD_STANDARDS
 70
     0
  0
APPID
  5
75A
330
6DB
100
AcDbSymbolTableRecord
100
AcDbRegAppTableRecord
  2
ACAD_NAV_VCDISPLAY
 70
     0
  0
APPID
  5
75B
330
6DB
100
AcDbSymbolTableRecord
100
AcDbRegAppTableRecord
  2
ACAD_MLEADERVER
 70
     0
  0
APPID
  5
922
330
6DB
100
AcDbSymbolTableRecord
100
AcDbRegAppTableRecord
  2
ACAD_PSEXT
 70
     0
  0
APPID
  5
10B6
330
6DB
100
AcDbSymbolTableRecord
100
AcDbRegAppTableRecord
  2
AcadAnnoMonitorAlertIconDisabled
 70
     0
  0
ENDTAB
  0
TABLE
  2
DIMSTYLE
  5
6DC
330
0
100
AcDbSymbolTable
 70
     2
100
AcDbDimStyleTable
 71
     1
340
729
  0
DIMSTYLE
105
729
102
{ACAD_REACTORS
330
107B
330
1095
330
10A2
330
10E6
330
10F3
330
1117
330
1124
330
1131
330
113E
330
114B
330
115F
330
118D
330
119A
330
11ED
330
11FC
330
1209
330
1216
330
1223
330
1230
330
123D
330
124A
330
1257
330
1264
330
1271
330
127E
330
128B
330
1298
102
}
330
6DC
100
AcDbSymbolTableRecord
100
AcDbDimStyleTableRecord
  2
STANDARD
 70
     0
271
     3
272
     3
274
     4
279
     2
284
    12
285
    12
286
    12
340
746
  0
DIMSTYLE
105
72A
330
6DC
100
AcDbSymbolTableRecord
100
AcDbDimStyleTableRecord
  2
ANNOTATIVE
 70
     0
271
     3
272
     3
274
     4
279
     2
284
    12
285
    12
286
    12
340
746
1001
ACADANNOTATIVE
1000
AnnotativeData
1002
{
1070
     1
1070
     1
1002
}
  0
ENDTAB
  0
TABLE
  2
BLOCK_RECORD
  5
6D3
330
0
100
AcDbSymbolTable
 70
    31
  0
BLOCK_RECORD
  5
742
102
{ACAD_XDICTIONARY
360
890
102
}
330
6D3
100
AcDbSymbolTableRecord
100
AcDbBlockTableRecord
  2
*Model_Space
340
745
 70
     0
280
     1
281
     0
  0
BLOCK_RECORD
  5
73E
330
6D3
100
AcDbSymbolTableRecord
100
AcDbBlockTableRecord
  2
*Paper_Space
340
741
 70
     0
280
     1
281
     0
  0
BLOCK_RECORD
  5
75F
330
6D3
100
AcDbSymbolTableRecord
100
AcDbBlockTableRecord
  2
$MODEL_SPACE
340
0
 70
     0
280
     1
281
     0
  0
BLOCK_RECORD
  5
761
330
6D3
100
AcDbSymbolTableRecord
100
AcDbBlockTableRecord
  2
$PAPER_SPACE
340
0
 70
     0
280
     1
281
     0
  0
BLOCK_RECORD
  5
79B
330
6D3
100
AcDbSymbolTableRecord
100
AcDbBlockTableRecord
  2
_ORIGIN
340
0
102
{BLKREFS
331
1145
331
1146
331
139D
331
139E
331
13AF
331
13B0
331
13B8
331
13B9
331
13C1
331
13C2
331
13CA
331
13CB
331
13D3
331
13D4
331
13DC
331
13DD
331
1301
331
1302
331
130A
331
130B
331
1313
331
1314
331
131C
331
131D
331
1325
331
1326
331
132E
331
132F
331
1337
331
1338
331
1340
331
1341
331
1349
331
134A
331
1352
331
1353
331
135B
331
135C
331
1364
331
1365
331
12A8
331
12A9
331
12D4
331
12D5
331
11BC
331
11BD
331
11C5
331
11C6
331
11CE
331
11CF
331
11D7
331
11D8
331
11E0
331
11E1
102
}
 70
     0
280
     1
281
     0
  0
BLOCK_RECORD
  5
107C
330
6D3
100
AcDbSymbolTableRecord
100
AcDbBlockTableRecord
  2
*D3
340
0
 70
     0
280
     1
281
     0
  0
BLOCK_RECORD
  5
1096
330
6D3
100
AcDbSymbolTableRecord
100
AcDbBlockTableRecord
  2
*D4
340
0
 70
     0
280
     1
281
     0
  0
BLOCK_RECORD
  5
10A3
330
6D3
100
AcDbSymbolTableRecord
100
AcDbBlockTableRecord
  2
*D5
340
0
 70
     0
280
     1
281
     0
  0
BLOCK_RECORD
  5
10E7
330
6D3
100
AcDbSymbolTableRecord
100
AcDbBlockTableRecord
  2
*D6
340
0
 70
     0
280
     1
281
     0
  0
BLOCK_RECORD
  5
10F4
330
6D3
100
AcDbSymbolTableRecord
100
AcDbBlockTableRecord
  2
*D7
340
0
 70
     0
280
     1
281
     0
  0
BLOCK_RECORD
  5
1118
330
6D3
100
AcDbSymbolTableRecord
100
AcDbBlockTableRecord
  2
*D8
340
0
 70
     0
280
     1
281
     0
  0
BLOCK_RECORD
  5
1125
330
6D3
100
AcDbSymbolTableRecord
100
AcDbBlockTableRecord
  2
*D9
340
0
 70
     0
280
     1
281
     0
  0
BLOCK_RECORD
  5
1132
330
6D3
100
AcDbSymbolTableRecord
100
AcDbBlockTableRecord
  2
*D10
340
0
 70
     0
280
     1
281
     0
  0
BLOCK_RECORD
  5
113F
330
6D3
100
AcDbSymbolTableRecord
100
AcDbBlockTableRecord
  2
*D11
340
0
 70
     0
280
     1
281
     0
  0
BLOCK_RECORD
  5
114C
330
6D3
100
AcDbSymbolTableRecord
100
AcDbBlockTableRecord
  2
*D12
340
0
 70
     0
280
     1
281
     0
  0
BLOCK_RECORD
  5
1160
330
6D3
100
AcDbSymbolTableRecord
100
AcDbBlockTableRecord
  2
*D13
340
0
 70
     0
280
     1
281
     0
  0
BLOCK_RECORD
  5
118E
330
6D3
100
AcDbSymbolTableRecord
100
AcDbBlockTableRecord
  2
*D14
340
0
 70
     0
280
     1
281
     0
  0
BLOCK_RECORD
  5
119B
330
6D3
100
AcDbSymbolTableRecord
100
AcDbBlockTableRecord
  2
*D15
340
0
 70
     0
280
     1
281
     0
  0
BLOCK_RECORD
  5
11EE
330
6D3
100
AcDbSymbolTableRecord
100
AcDbBlockTableRecord
  2
*D16
340
0
 70
     0
280
     1
281
     0
  0
BLOCK_RECORD
  5
11FD
330
6D3
100
AcDbSymbolTableRecord
100
AcDbBlockTableRecord
  2
*D17
340
0
 70
     0
280
     1
281
     0
  0
BLOCK_RECORD
  5
120A
330
6D3
100
AcDbSymbolTableRecord
100
AcDbBlockTableRecord
  2
*D18
340
0
 70
     0
280
     1
281
     0
  0
BLOCK_RECORD
  5
1217
330
6D3
100
AcDbSymbolTableRecord
100
AcDbBlockTableRecord
  2
*D19
340
0
 70
     0
280
     1
281
     0
  0
BLOCK_RECORD
  5
1224
330
6D3
100
AcDbSymbolTableRecord
100
AcDbBlockTableRecord
  2
*D20
340
0
 70
     0
280
     1
281
     0
  0
BLOCK_RECORD
  5
1231
330
6D3
100
AcDbSymbolTableRecord
100
AcDbBlockTableRecord
  2
*D21
340
0
 70
     0
280
     1
281
     0
  0
BLOCK_RECORD
  5
123E
330
6D3
100
AcDbSymbolTableRecord
100
AcDbBlockTableRecord
  2
*D22
340
0
 70
     0
280
     1
281
     0
  0
BLOCK_RECORD
  5
124B
330
6D3
100
AcDbSymbolTableRecord
100
AcDbBlockTableRecord
  2
*D23
340
0
 70
     0
280
     1
281
     0
  0
BLOCK_RECORD
  5
1258
330
6D3
100
AcDbSymbolTableRecord
100
AcDbBlockTableRecord
  2
*D24
340
0
 70
     0
280
     1
281
     0
  0
BLOCK_RECORD
  5
1265
330
6D3
100
AcDbSymbolTableRecord
100
AcDbBlockTableRecord
  2
*D25
340
0
 70
     0
280
     1
281
     0
  0
BLOCK_RECORD
  5
1272
330
6D3
100
AcDbSymbolTableRecord
100
AcDbBlockTableRecord
  2
*D26
340
0
 70
     0
280
     1
281
     0
  0
BLOCK_RECORD
  5
127F
330
6D3
100
AcDbSymbolTableRecord
100
AcDbBlockTableRecord
  2
*D27
340
0
 70
     0
280
     1
281
     0
  0
BLOCK_RECORD
  5
128C
330
6D3
100
AcDbSymbolTableRecord
100
AcDbBlockTableRecord
  2
*D28
340
0
 70
     0
280
     1
281
     0
  0
BLOCK_RECORD
  5
1299
330
6D3
100
AcDbSymbolTableRecord
100
AcDbBlockTableRecord
  2
*D29
340
0
 70
     0
280
     1
281
     0
  0
ENDTAB
  0
ENDSEC
  0
SECTION
  2
BLOCKS
  0
BLOCK
  5
743
330
742
100
AcDbEntity
  8
0
100
AcDbBlockBegin
  2
*Model_Space
 70
     0
 10
0.0
 20
0.0
 30
0.0
  3
*Model_Space
  1

  0
ENDBLK
  5
744
330
742
100
AcDbEntity
  8
0
100
AcDbBlockEnd
  0
BLOCK
  5
73F
330
73E
100
AcDbEntity
 67
     1
  8
0
100
AcDbBlockBegin
  2
*Paper_Space
 70
     0
 10
0.0
 20
0.0
 30
0.0
  3
*Paper_Space
  1

  0
ENDBLK
  5
740
330
73E
100
AcDbEntity
 67
     1
  8
0
100
AcDbBlockEnd
  0
BLOCK
  5
760
330
75F
100
AcDbEntity
  8
0
100
AcDbBlockBegin
  2
$MODEL_SPACE
 70
     0
 10
0.0
 20
0.0
 30
0.0
  3
$MODEL_SPACE
  1

  0
ENDBLK
  5
72
330
75F
100
AcDbEntity
  8
0
100
AcDbBlockEnd
  0
BLOCK
  5
762
330
761
100
AcDbEntity
  8
0
100
AcDbBlockBegin
  2
$PAPER_SPACE
 70
     0
 10
0.0
 20
0.0
 30
0.0
  3
$PAPER_SPACE
  1

  0
ENDBLK
  5
6E
330
761
100
AcDbEntity
  8
0
100
AcDbBlockEnd
  0
BLOCK
  5
79C
330
79B
100
AcDbEntity
  8
0
100
AcDbBlockBegin
  2
_ORIGIN
 70
     0
 10
0.0
 20
0.0
 30
0.0
  3
_ORIGIN
  1

  0
CIRCLE
  5
2B5
330
79B
100
AcDbEntity
  8
0
  6
ByBlock
 62
     0
100
AcDbCircle
 10
0.0
 20
0.0
 30
0.0
 40
0.5
  0
LINE
  5
2B6
330
79B
100
AcDbEntity
  8
0
  6
ByBlock
 62
     0
100
AcDbLine
 10
0.0
 20
0.0
 30
0.0
 11
-1.0
 21
0.0
 31
0.0
  0
ENDBLK
  5
2B7
330
79B
100
AcDbEntity
  8
0
100
AcDbBlockEnd
  0
BLOCK
  5
107D
330
107C
100
AcDbEntity
  8
0
100
AcDbBlockBegin
  2
*D3
 70
     1
 10
0.0
 20
0.0
 30
0.0
  3
*D3
  1

  0
LINE
  5
139A
330
107C
100
AcDbEntity
  8
SIZE
  6
Continuous
 62
     0
440
 16777216
370
    -2
100
AcDbLine
 10
-215.0000000000002
 20
2360.0
 30
0.0
 11
-215.0000000000002
 21
2506.275558441375
 31
0.0
  0
LINE
  5
139B
330
107C
100
AcDbEntity
  8
SIZE
  6
Continuous
 62
     0
440
 16777216
370
    -2
100
AcDbLine
 10
215.0000000000001
 20
2360.0
 30
0.0
 11
215.0000000000001
 21
2506.275558441375
 31
0.0
  0
LINE
  5
139C
330
107C
100
AcDbEntity
  8
SIZE
  6
Continuous
 62
     0
440
 16777216
370
    -2
100
AcDbLine
 10
-205.0000000000002
 20
2493.775558441376
 30
0.0
 11
205.0000000000001
 21
2493.775558441376
 31
0.0
  0
INSERT
  5
139D
330
107C
100
AcDbEntity
  8
SIZE
  6
Continuous
 62
     0
440
 16777216
370
    -2
100
AcDbBlockReference
  2
_ORIGIN
 10
-215.0000000000002
 20
2493.775558441376
 30
0.0
 41
10.0
 42
10.0
 43
10.0
 50
180.0
  0
INSERT
  5
139E
330
107C
100
AcDbEntity
  8
SIZE
  6
Continuous
 62
     0
440
 16777216
370
    -2
100
AcDbBlockReference
  2
_ORIGIN
 10
215.0000000000001
 20
2493.775558441376
 30
0.0
 41
10.0
 42
10.0
 43
10.0
  0
MTEXT
  5
139F
330
107C
100
AcDbEntity
  8
SIZE
  6
Continuous
 62
     0
440
 16777216
100
AcDbMText
 10
-0.0000000000000553
 20
2518.775558441376
 30
0.0
 40
30.0
 41
0.0
 46
0.0
 71
     5
 72
     1
  1
\A1;430
 73
     1
 44
1.0
  0
POINT
  5
13A0
330
107C
100
AcDbEntity
  8
DEFPOINTS
  6
Continuous
 62
     0
440
 16777216
100
AcDbPoint
 10
-215.0000000000002
 20
2350.0
 30
0.0
  0
POINT
  5
13A1
330
107C
100
AcDbEntity
  8
DEFPOINTS
  6
Continuous
 62
     0
440
 16777216
100
AcDbPoint
 10
215.0000000000001
 20
2350.0
 30
0.0
  0
POINT
  5
13A2
330
107C
100
AcDbEntity
  8
DEFPOINTS
  6
Continuous
 62
     0
440
 16777216
100
AcDbPoint
 10
215.0000000000001
 20
2493.775558441376
 30
0.0
  0
ENDBLK
  5
107E
330
107C
100
AcDbEntity
  8
0
100
AcDbBlockEnd
  0
BLOCK
  5
1097
330
1096
100
AcDbEntity
  8
0
100
AcDbBlockBegin
  2
*D4
 70
     1
 10
0.0
 20
0.0
 30
0.0
  3
*D4
  1

  0
LINE
  5
13AC
330
1096
100
AcDbEntity
  8
SIZE
  6
Continuous
 62
     0
440
 16777216
370
    -2
100
AcDbLine
 10
215.0000000000001
 20
2360.0
 30
0.0
 11
215.0000000000001
 21
2506.556886459761
 31
0.0
  0
LINE
  5
13AD
330
1096
100
AcDbEntity
  8
SIZE
  6
Continuous
 62
     0
440
 16777216
370
    -2
100
AcDbLine
 10
365.0
 20
2205.0
 30
0.0
 11
365.0
 21
2506.556886459761
 31
0.0
  0
LINE
  5
13AE
330
1096
100
AcDbEntity
  8
SIZE
  6
Continuous
 62
     0
440
 16777216
370
    -2
100
AcDbLine
 10
225.0000000000001
 20
2494.056886459761
 30
0.0
 11
355.0
 21
2494.056886459761
 31
0.0
  0
INSERT
  5
13AF
330
1096
100
AcDbEntity
  8
SIZE
  6
Continuous
 62
     0
440
 16777216
370
    -2
100
AcDbBlockReference
  2
_ORIGIN
 10
215.0000000000001
 20
2494.056886459761
 30
0.0
 41
10.0
 42
10.0
 43
10.0
 50
180.0
  0
INSERT
  5
13B0
330
1096
100
AcDbEntity
  8
SIZE
  6
Continuous
 62
     0
440
 16777216
370
    -2
100
AcDbBlockReference
  2
_ORIGIN
 10
365.0
 20
2494.056886459761
 30
0.0
 41
10.0
 42
10.0
 43
10.0
  0
MTEXT
  5
13B1
330
1096
100
AcDbEntity
  8
SIZE
  6
Continuous
 62
     0
440
 16777216
100
AcDbMText
 10
290.0000000000001
 20
2519.056886459761
 30
0.0
 40
30.0
 41
0.0
 46
0.0
 71
     5
 72
     1
  1
\A1;150
 73
     1
 44
1.0
  0
POINT
  5
13B2
330
1096
100
AcDbEntity
  8
DEFPOINTS
  6
Continuous
 62
     0
440
 16777216
100
AcDbPoint
 10
215.0000000000001
 20
2350.0
 30
0.0
  0
POINT
  5
13B3
330
1096
100
AcDbEntity
  8
DEFPOINTS
  6
Continuous
 62
     0
440
 16777216
100
AcDbPoint
 10
365.0
 20
2195.0
 30
0.0
  0
POINT
  5
13B4
330
1096
100
AcDbEntity
  8
DEFPOINTS
  6
Continuous
 62
     0
440
 16777216
100
AcDbPoint
 10
365.0
 20
2494.056886459761
 30
0.0
  0
ENDBLK
  5
1098
330
1096
100
AcDbEntity
  8
0
100
AcDbBlockEnd
  0
BLOCK
  5
10A4
330
10A3
100
AcDbEntity
  8
0
100
AcDbBlockBegin
  2
*D5
 70
     1
 10
0.0
 20
0.0
 30
0.0
  3
*D5
  1

  0
LINE
  5
13B5
330
10A3
100
AcDbEntity
  8
SIZE
  6
Continuous
 62
     0
440
 16777216
370
    -2
100
AcDbLine
 10
-525.0000000000002
 20
-0.0000000000000646
 30
0.0
 11
-823.3870617346951
 21
-0.0000000000001126
 31
0.0
  0
LINE
  5
13B6
330
10A3
100
AcDbEntity
  8
SIZE
  6
Continuous
 62
     0
440
 16777216
370
    -2
100
AcDbLine
 10
-525.0000000000003
 20
2350.000000000001
 30
0.0
 11
-823.3870617346957
 21
2350.000000000001
 31
0.0
  0
LINE
  5
13B7
330
10A3
100
AcDbEntity
  8
SIZE
  6
Continuous
 62
     0
440
 16777216
370
    -2
100
AcDbLine
 10
-810.8870617346951
 20
9.999999999999891
 30
0.0
 11
-810.8870617346957
 21
2340.000000000001
 31
0.0
  0
INSERT
  5
13B8
330
10A3
100
AcDbEntity
  8
SIZE
  6
Continuous
 62
     0
440
 16777216
370
    -2
100
AcDbBlockReference
  2
_ORIGIN
 10
-810.8870617346951
 20
-0.0000000000001106
 30
0.0
 41
10.0
 42
10.0
 43
10.0
 50
270.0
  0
INSERT
  5
13B9
330
10A3
100
AcDbEntity
  8
SIZE
  6
Continuous
 62
     0
440
 16777216
370
    -2
100
AcDbBlockReference
  2
_ORIGIN
 10
-810.8870617346957
 20
2350.000000000001
 30
0.0
 41
10.0
 42
10.0
 43
10.0
 50
90.0
  0
MTEXT
  5
13BA
330
10A3
100
AcDbEntity
  8
SIZE
  6
Continuous
 62
     0
440
 16777216
100
AcDbMText
 10
-835.8870617346948
 20
1175.0
 30
0.0
 40
30.0
 41
0.0
 46
0.0
 71
     5
 72
     1
  1
\A1;2350
 11
0.0000000000000001
 21
1.0
 31
0.0
 73
     1
 44
1.0
  0
POINT
  5
13BB
330
10A3
100
AcDbEntity
  8
DEFPOINTS
  6
Continuous
 62
     0
440
 16777216
100
AcDbPoint
 10
-515.0000000000002
 20
-0.000000000000063
 30
0.0
  0
POINT
  5
13BC
330
10A3
100
AcDbEntity
  8
DEFPOINTS
  6
Continuous
 62
     0
440
 16777216
100
AcDbPoint
 10
-515.0000000000003
 20
2350.000000000001
 30
0.0
  0
POINT
  5
13BD
330
10A3
100
AcDbEntity
  8
DEFPOINTS
  6
Continuous
 62
     0
440
 16777216
100
AcDbPoint
 10
-810.8870617346957
 20
2350.000000000001
 30
0.0
  0
ENDBLK
  5
10A5
330
10A3
100
AcDbEntity
  8
0
100
AcDbBlockEnd
  0
BLOCK
  5
10E8
330
10E7
100
AcDbEntity
  8
0
100
AcDbBlockBegin
  2
*D6
 70
     1
 10
0.0
 20
0.0
 30
0.0
  3
*D6
  1

  0
LINE
  5
13BE
330
10E7
100
AcDbEntity
  8
SIZE
  6
Continuous
 62
     0
440
 16777216
370
    -2
100
AcDbLine
 10
191.5
 20
-0.0000000000000334
 30
0.0
 11
816.8383539519219
 21
0.0000000000000672
 31
0.0
  0
LINE
  5
13BF
330
10E7
100
AcDbEntity
  8
SIZE
  6
Continuous
 62
     0
440
 16777216
370
    -2
100
AcDbLine
 10
375.0000000000001
 20
2150.000000000001
 30
0.0
 11
816.8383539519213
 21
2150.000000000001
 31
0.0
  0
LINE
  5
13C0
330
10E7
100
AcDbEntity
  8
SIZE
  6
Continuous
 62
     0
440
 16777216
370
    -2
100
AcDbLine
 10
804.3383539519219
 20
10.00000000000007
 30
0.0
 11
804.3383539519213
 21
2140.000000000001
 31
0.0
  0
INSERT
  5
13C1
330
10E7
100
AcDbEntity
  8
SIZE
  6
Continuous
 62
     0
440
 16777216
370
    -2
100
AcDbBlockReference
  2
_ORIGIN
 10
804.3383539519219
 20
0.0000000000000652
 30
0.0
 41
10.0
 42
10.0
 43
10.0
 50
270.0
  0
INSERT
  5
13C2
330
10E7
100
AcDbEntity
  8
SIZE
  6
Continuous
 62
     0
440
 16777216
370
    -2
100
AcDbBlockReference
  2
_ORIGIN
 10
804.3383539519213
 20
2150.000000000001
 30
0.0
 41
10.0
 42
10.0
 43
10.0
 50
90.0
  0
MTEXT
  5
13C3
330
10E7
100
AcDbEntity
  8
SIZE
  6
Continuous
 62
     0
440
 16777216
100
AcDbMText
 10
779.3383539519217
 20
1075.0
 30
0.0
 40
30.0
 41
0.0
 46
0.0
 71
     5
 72
     1
  1
\A1;2150
 11
0.0000000000000001
 21
1.0
 31
0.0
 73
     1
 44
1.0
  0
POINT
  5
13C4
330
10E7
100
AcDbEntity
  8
DEFPOINTS
  6
Continuous
 62
     0
440
 16777216
100
AcDbPoint
 10
181.5
 20
-0.000000000000035
 30
0.0
  0
POINT
  5
13C5
330
10E7
100
AcDbEntity
  8
DEFPOINTS
  6
Continuous
 62
     0
440
 16777216
100
AcDbPoint
 10
365.0000000000001
 20
2150.000000000001
 30
0.0
  0
POINT
  5
13C6
330
10E7
100
AcDbEntity
  8
DEFPOINTS
  6
Continuous
 62
     0
440
 16777216
100
AcDbPoint
 10
804.3383539519213
 20
2150.000000000001
 30
0.0
  0
ENDBLK
  5
10E9
330
10E7
100
AcDbEntity
  8
0
100
AcDbBlockEnd
  0
BLOCK
  5
10F5
330
10F4
100
AcDbEntity
  8
0
100
AcDbBlockBegin
  2
*D7
 70
     1
 10
0.0
 20
0.0
 30
0.0
  3
*D7
  1

  0
LINE
  5
13C7
330
10F4
100
AcDbEntity
  8
SIZE
  6
Continuous
 62
     0
440
 16777216
370
    -2
100
AcDbLine
 10
225.0000000000002
 20
2350.000000000001
 30
0.0
 11
816.8383539519208
 21
2350.000000000001
 31
0.0
  0
LINE
  5
13C8
330
10F4
100
AcDbEntity
  8
SIZE
  6
Continuous
 62
     0
440
 16777216
370
    -2
100
AcDbLine
 10
375.0000000000001
 20
2150.000000000001
 30
0.0
 11
816.8383539519208
 21
2150.000000000001
 31
0.0
  0
LINE
  5
13C9
330
10F4
100
AcDbEntity
  8
SIZE
  6
Continuous
 62
     0
440
 16777216
370
    -2
100
AcDbLine
 10
804.3383539519208
 20
2340.000000000001
 30
0.0
 11
804.3383539519208
 21
2160.000000000001
 31
0.0
  0
INSERT
  5
13CA
330
10F4
100
AcDbEntity
  8
SIZE
  6
Continuous
 62
     0
440
 16777216
370
    -2
100
AcDbBlockReference
  2
_ORIGIN
 10
804.3383539519208
 20
2350.000000000001
 30
0.0
 41
10.0
 42
10.0
 43
10.0
 50
90.0
  0
INSERT
  5
13CB
330
10F4
100
AcDbEntity
  8
SIZE
  6
Continuous
 62
     0
440
 16777216
370
    -2
100
AcDbBlockReference
  2
_ORIGIN
 10
804.3383539519208
 20
2150.000000000001
 30
0.0
 41
10.0
 42
10.0
 43
10.0
 50
270.0
  0
MTEXT
  5
13CC
330
10F4
100
AcDbEntity
  8
SIZE
  6
Continuous
 62
     0
440
 16777216
100
AcDbMText
 10
779.3383539519212
 20
2250.0
 30
0.0
 40
30.0
 41
0.0
 46
0.0
 71
     5
 72
     1
  1
\A1;200
 11
0.0000000000000001
 21
1.0
 31
0.0
 73
     1
 44
1.0
  0
POINT
  5
13CD
330
10F4
100
AcDbEntity
  8
DEFPOINTS
  6
Continuous
 62
     0
440
 16777216
100
AcDbPoint
 10
215.0000000000002
 20
2350.000000000001
 30
0.0
  0
POINT
  5
13CE
330
10F4
100
AcDbEntity
  8
DEFPOINTS
  6
Continuous
 62
     0
440
 16777216
100
AcDbPoint
 10
365.0000000000001
 20
2150.000000000001
 30
0.0
  0
POINT
  5
13CF
330
10F4
100
AcDbEntity
  8
DEFPOINTS
  6
Continuous
 62
     0
440
 16777216
100
AcDbPoint
 10
804.3383539519208
 20
2150.000000000001
 30
0.0
  0
ENDBLK
  5
10F6
330
10F4
100
AcDbEntity
  8
0
100
AcDbBlockEnd
  0
BLOCK
  5
1119
330
1118
100
AcDbEntity
  8
0
100
AcDbBlockBegin
  2
*D8
 70
     1
 10
0.0
 20
0.0
 30
0.0
  3
*D8
  1

  0
LINE
  5
11CB
330
1118
100
AcDbEntity
  8
SIZE
  6
Continuous
 62
     0
440
 16777216
370
    -2
100
AcDbLine
 10
191.5
 20
-0.0000000000000334
 30
0.0
 11
716.8383539519219
 21
0.0000000000000511
 31
0.0
  0
LINE
  5
11CC
330
1118
100
AcDbEntity
  8
SIZE
  6
Continuous
 62
     0
440
 16777216
370
    -2
100
AcDbLine
 10
225.0000000000003
 20
350.0000000000001
 30
0.0
 11
716.8383539519218
 21
350.0000000000002
 31
0.0
  0
LINE
  5
11CD
330
1118
100
AcDbEntity
  8
SIZE
  6
Continuous
 62
     0
440
 16777216
370
    -2
100
AcDbLine
 10
704.3383539519219
 20
10.00000000000005
 30
0.0
 11
704.3383539519218
 21
340.0000000000002
 31
0.0
  0
INSERT
  5
11CE
330
1118
100
AcDbEntity
  8
SIZE
  6
Continuous
 62
     0
440
 16777216
370
    -2
100
AcDbBlockReference
  2
_ORIGIN
 10
704.3383539519219
 20
0.0000000000000491
 30
0.0
 41
10.0
 42
10.0
 43
10.0
 50
270.0
  0
INSERT
  5
11CF
330
1118
100
AcDbEntity
  8
SIZE
  6
Continuous
 62
     0
440
 16777216
370
    -2
100
AcDbBlockReference
  2
_ORIGIN
 10
704.3383539519218
 20
350.0000000000002
 30
0.0
 41
10.0
 42
10.0
 43
10.0
 50
90.0
  0
MTEXT
  5
11D0
330
1118
100
AcDbEntity
  8
SIZE
  6
Continuous
 62
     0
440
 16777216
100
AcDbMText
 10
679.3383539519218
 20
174.9999999999999
 30
0.0
 40
30.0
 41
0.0
 46
0.0
 71
     5
 72
     1
  1
\A1;350
 11
0.0000000000000001
 21
1.0
 31
0.0
 73
     1
 44
1.0
  0
POINT
  5
11D1
330
1118
100
AcDbEntity
  8
DEFPOINTS
  6
Continuous
 62
     0
440
 16777216
100
AcDbPoint
 10
181.5
 20
-0.000000000000035
 30
0.0
  0
POINT
  5
11D2
330
1118
100
AcDbEntity
  8
DEFPOINTS
  6
Continuous
 62
     0
440
 16777216
100
AcDbPoint
 10
215.0000000000003
 20
350.0000000000001
 30
0.0
  0
POINT
  5
11D3
330
1118
100
AcDbEntity
  8
DEFPOINTS
  6
Continuous
 62
     0
440
 16777216
100
AcDbPoint
 10
704.3383539519218
 20
350.0000000000002
 30
0.0
  0
ENDBLK
  5
111A
330
1118
100
AcDbEntity
  8
0
100
AcDbBlockEnd
  0
BLOCK
  5
1126
330
1125
100
AcDbEntity
  8
0
100
AcDbBlockBegin
  2
*D9
 70
     1
 10
0.0
 20
0.0
 30
0.0
  3
*D9
  1

  0
LINE
  5
11C2
330
1125
100
AcDbEntity
  8
SIZE
  6
Continuous
 62
     0
440
 16777216
370
    -2
100
AcDbLine
 10
191.5
 20
-0.0000000000000334
 30
0.0
 11
616.8383539519218
 21
0.000000000000035
 31
0.0
  0
LINE
  5
11C3
330
1125
100
AcDbEntity
  8
SIZE
  6
Continuous
 62
     0
440
 16777216
370
    -2
100
AcDbLine
 10
-136.9999999999998
 20
301.0000000000001
 30
0.0
 11
616.8383539519217
 21
301.0000000000002
 31
0.0
  0
LINE
  5
11C4
330
1125
100
AcDbEntity
  8
SIZE
  6
Continuous
 62
     0
440
 16777216
370
    -2
100
AcDbLine
 10
604.3383539519218
 20
10.00000000000003
 30
0.0
 11
604.3383539519217
 21
291.0000000000002
 31
0.0
  0
INSERT
  5
11C5
330
1125
100
AcDbEntity
  8
SIZE
  6
Continuous
 62
     0
440
 16777216
370
    -2
100
AcDbBlockReference
  2
_ORIGIN
 10
604.3383539519218
 20
0.000000000000033
 30
0.0
 41
10.0
 42
10.0
 43
10.0
 50
270.0
  0
INSERT
  5
11C6
330
1125
100
AcDbEntity
  8
SIZE
  6
Continuous
 62
     0
440
 16777216
370
    -2
100
AcDbBlockReference
  2
_ORIGIN
 10
604.3383539519217
 20
301.0000000000002
 30
0.0
 41
10.0
 42
10.0
 43
10.0
 50
90.0
  0
MTEXT
  5
11C7
330
1125
100
AcDbEntity
  8
SIZE
  6
Continuous
 62
     0
440
 16777216
100
AcDbMText
 10
579.3383539519217
 20
150.4999999999999
 30
0.0
 40
30.0
 41
0.0
 46
0.0
 71
     5
 72
     1
  1
\A1;301
 11
0.0000000000000001
 21
1.0
 31
0.0
 73
     1
 44
1.0
  0
POINT
  5
11C8
330
1125
100
AcDbEntity
  8
DEFPOINTS
  6
Continuous
 62
     0
440
 16777216
100
AcDbPoint
 10
181.5
 20
-0.000000000000035
 30
0.0
  0
POINT
  5
11C9
330
1125
100
AcDbEntity
  8
DEFPOINTS
  6
Continuous
 62
     0
440
 16777216
100
AcDbPoint
 10
-146.9999999999998
 20
301.0000000000001
 30
0.0
  0
POINT
  5
11CA
330
1125
100
AcDbEntity
  8
DEFPOINTS
  6
Continuous
 62
     0
440
 16777216
100
AcDbPoint
 10
604.3383539519217
 20
301.0000000000002
 30
0.0
  0
ENDBLK
  5
1127
330
1125
100
AcDbEntity
  8
0
100
AcDbBlockEnd
  0
BLOCK
  5
1133
330
1132
100
AcDbEntity
  8
0
100
AcDbBlockBegin
  2
*D10
 70
     1
 10
0.0
 20
0.0
 30
0.0
  3
*D10
  1

  0
LINE
  5
11D4
330
1132
100
AcDbEntity
  8
SIZE
  6
Continuous
 62
     0
440
 16777216
370
    -2
100
AcDbLine
 10
-191.4999999999997
 20
-0.0000000000000236
 30
0.0
 11
-723.3870617346955
 21
-0.0000000000001091
 31
0.0
  0
LINE
  5
11D5
330
1132
100
AcDbEntity
  8
SIZE
  6
Continuous
 62
     0
440
 16777216
370
    -2
100
AcDbLine
 10
-63.99999999999963
 20
250.0000000000001
 30
0.0
 11
-723.3870617346955
 21
250.0
 31
0.0
  0
LINE
  5
11D6
330
1132
100
AcDbEntity
  8
SIZE
  6
Continuous
 62
     0
440
 16777216
370
    -2
100
AcDbLine
 10
-710.8870617346955
 20
9.999999999999895
 30
0.0
 11
-710.8870617346955
 21
240.0
 31
0.0
  0
INSERT
  5
11D7
330
1132
100
AcDbEntity
  8
SIZE
  6
Continuous
 62
     0
440
 16777216
370
    -2
100
AcDbBlockReference
  2
_ORIGIN
 10
-710.8870617346955
 20
-0.0000000000001071
 30
0.0
 41
10.0
 42
10.0
 43
10.0
 50
270.0
  0
INSERT
  5
11D8
330
1132
100
AcDbEntity
  8
SIZE
  6
Continuous
 62
     0
440
 16777216
370
    -2
100
AcDbBlockReference
  2
_ORIGIN
 10
-710.8870617346955
 20
250.0
 30
0.0
 41
10.0
 42
10.0
 43
10.0
 50
90.0
  0
MTEXT
  5
11D9
330
1132
100
AcDbEntity
  8
SIZE
  6
Continuous
 62
     0
440
 16777216
100
AcDbMText
 10
-735.8870617346954
 20
125.0000000000001
 30
0.0
 40
30.0
 41
0.0
 46
0.0
 71
     5
 72
     1
  1
\A1;250
 11
0.0000000000000001
 21
1.0
 31
0.0
 73
     1
 44
1.0
  0
POINT
  5
11DA
330
1132
100
AcDbEntity
  8
DEFPOINTS
  6
Continuous
 62
     0
440
 16777216
100
AcDbPoint
 10
-181.4999999999997
 20
-0.000000000000022
 30
0.0
  0
POINT
  5
11DB
330
1132
100
AcDbEntity
  8
DEFPOINTS
  6
Continuous
 62
     0
440
 16777216
100
AcDbPoint
 10
-53.99999999999963
 20
250.0000000000001
 30
0.0
  0
POINT
  5
11DC
330
1132
100
AcDbEntity
  8
DEFPOINTS
  6
Continuous
 62
     0
440
 16777216
100
AcDbPoint
 10
-710.8870617346955
 20
250.0
 30
0.0
  0
ENDBLK
  5
1134
330
1132
100
AcDbEntity
  8
0
100
AcDbBlockEnd
  0
BLOCK
  5
1140
330
113F
100
AcDbEntity
  8
0
100
AcDbBlockBegin
  2
*D11
 70
     1
 10
0.0
 20
0.0
 30
0.0
  3
*D11
  1

  0
LINE
  5
1142
330
113F
100
AcDbEntity
  8
SIZE
  6
Continuous
 62
     0
440
 16777216
370
    -2
100
AcDbLine
 10
-191.4999999999997
 20
-0.0000000000000236
 30
0.0
 11
-326.4934267953068
 21
-0.0000000000000453
 31
0.0
  0
LINE
  5
1143
330
113F
100
AcDbEntity
  8
SIZE
  6
Continuous
 62
     0
440
 16777216
370
    -2
100
AcDbLine
 10
-181.9999999999997
 20
122.0000000000013
 30
0.0
 11
-326.4934267953068
 21
122.0000000000013
 31
0.0
  0
LINE
  5
1144
330
113F
100
AcDbEntity
  8
SIZE
  6
Continuous
 62
     0
440
 16777216
370
    -2
100
AcDbLine
 10
-313.9934267953068
 20
9.999999999999959
 30
0.0
 11
-313.9934267953068
 21
112.0000000000013
 31
0.0
  0
INSERT
  5
1145
330
113F
100
AcDbEntity
  8
SIZE
  6
Continuous
 62
     0
440
 16777216
370
    -2
100
AcDbBlockReference
  2
_ORIGIN
 10
-313.9934267953068
 20
-0.0000000000000433
 30
0.0
 41
10.0
 42
10.0
 43
10.0
 50
270.0
  0
INSERT
  5
1146
330
113F
100
AcDbEntity
  8
SIZE
  6
Continuous
 62
     0
440
 16777216
370
    -2
100
AcDbBlockReference
  2
_ORIGIN
 10
-313.9934267953068
 20
122.0000000000013
 30
0.0
 41
10.0
 42
10.0
 43
10.0
 50
90.0
  0
MTEXT
  5
1147
330
113F
100
AcDbEntity
  8
SIZE
  6
Continuous
 62
     0
440
 16777216
100
AcDbMText
 10
-338.9934267953068
 20
61.00000000000072
 30
0.0
 40
30.0
 41
0.0
 46
0.0
 71
     5
 72
     1
  1
\A1;122
 11
0.0000000000000001
 21
1.0
 31
0.0
 73
     1
 44
1.0
  0
POINT
  5
1148
330
113F
100
AcDbEntity
  8
DEFPOINTS
  6
Continuous
 62
     0
440
 16777216
100
AcDbPoint
 10
-181.4999999999997
 20
-0.000000000000022
 30
0.0
  0
POINT
  5
1149
330
113F
100
AcDbEntity
  8
DEFPOINTS
  6
Continuous
 62
     0
440
 16777216
100
AcDbPoint
 10
-171.9999999999997
 20
122.0000000000013
 30
0.0
  0
POINT
  5
114A
330
113F
100
AcDbEntity
  8
DEFPOINTS
  6
Continuous
 62
     0
440
 16777216
100
AcDbPoint
 10
-313.9934267953068
 20
122.0000000000013
 30
0.0
  0
ENDBLK
  5
1141
330
113F
100
AcDbEntity
  8
0
100
AcDbBlockEnd
  0
BLOCK
  5
114D
330
114C
100
AcDbEntity
  8
0
100
AcDbBlockBegin
  2
*D12
 70
     1
 10
0.0
 20
0.0
 30
0.0
  3
*D12
  1

  0
LINE
  5
11DD
330
114C
100
AcDbEntity
  8
SIZE
  6
Continuous
 62
     0
440
 16777216
370
    -2
100
AcDbLine
 10
-191.4999999999997
 20
-0.0000000000000236
 30
0.0
 11
-426.493426795307
 21
-0.0000000000000614
 31
0.0
  0
LINE
  5
11DE
330
114C
100
AcDbEntity
  8
SIZE
  6
Continuous
 62
     0
440
 16777216
370
    -2
100
AcDbLine
 10
-225.0
 20
150.0
 30
0.0
 11
-426.493426795307
 21
150.0
 31
0.0
  0
LINE
  5
11DF
330
114C
100
AcDbEntity
  8
SIZE
  6
Continuous
 62
     0
440
 16777216
370
    -2
100
AcDbLine
 10
-413.993426795307
 20
9.999999999999941
 30
0.0
 11
-413.993426795307
 21
140.0
 31
0.0
  0
INSERT
  5
11E0
330
114C
100
AcDbEntity
  8
SIZE
  6
Continuous
 62
     0
440
 16777216
370
    -2
100
AcDbBlockReference
  2
_ORIGIN
 10
-413.993426795307
 20
-0.0000000000000594
 30
0.0
 41
10.0
 42
10.0
 43
10.0
 50
270.0
  0
INSERT
  5
11E1
330
114C
100
AcDbEntity
  8
SIZE
  6
Continuous
 62
     0
440
 16777216
370
    -2
100
AcDbBlockReference
  2
_ORIGIN
 10
-413.993426795307
 20
150.0
 30
0.0
 41
10.0
 42
10.0
 43
10.0
 50
90.0
  0
MTEXT
  5
11E2
330
114C
100
AcDbEntity
  8
SIZE
  6
Continuous
 62
     0
440
 16777216
100
AcDbMText
 10
-438.9934267953068
 20
75.00000000000008
 30
0.0
 40
30.0
 41
0.0
 46
0.0
 71
     5
 72
     1
  1
\A1;150
 11
0.0000000000000001
 21
1.0
 31
0.0
 73
     1
 44
1.0
  0
POINT
  5
11E3
330
114C
100
AcDbEntity
  8
DEFPOINTS
  6
Continuous
 62
     0
440
 16777216
100
AcDbPoint
 10
-181.4999999999997
 20
-0.000000000000022
 30
0.0
  0
POINT
  5
11E4
330
114C
100
AcDbEntity
  8
DEFPOINTS
  6
Continuous
 62
     0
440
 16777216
100
AcDbPoint
 10
-215.0
 20
150.0
 30
0.0
  0
POINT
  5
11E5
330
114C
100
AcDbEntity
  8
DEFPOINTS
  6
Continuous
 62
     0
440
 16777216
100
AcDbPoint
 10
-413.993426795307
 20
150.0
 30
0.0
  0
ENDBLK
  5
114E
330
114C
100
AcDbEntity
  8
0
100
AcDbBlockEnd
  0
BLOCK
  5
1161
330
1160
100
AcDbEntity
  8
0
100
AcDbBlockBegin
  2
*D13
 70
     1
 10
0.0
 20
0.0
 30
0.0
  3
*D13
  1

  0
LINE
  5
11B9
330
1160
100
AcDbEntity
  8
SIZE
  6
Continuous
 62
     0
440
 16777216
370
    -2
100
AcDbLine
 10
191.5
 20
-0.0000000000000334
 30
0.0
 11
516.8383539519217
 21
0.0000000000000189
 31
0.0
  0
LINE
  5
11BA
330
1160
100
AcDbEntity
  8
SIZE
  6
Continuous
 62
     0
440
 16777216
370
    -2
100
AcDbLine
 10
98.0000000000002
 20
110.0000000000014
 30
0.0
 11
516.8383539519218
 21
110.0000000000015
 31
0.0
  0
LINE
  5
11BB
330
1160
100
AcDbEntity
  8
SIZE
  6
Continuous
 62
     0
440
 16777216
370
    -2
100
AcDbLine
 10
504.3383539519218
 20
10.00000000000001
 30
0.0
 11
504.3383539519218
 21
100.0000000000015
 31
0.0
  0
INSERT
  5
11BC
330
1160
100
AcDbEntity
  8
SIZE
  6
Continuous
 62
     0
440
 16777216
370
    -2
100
AcDbBlockReference
  2
_ORIGIN
 10
504.3383539519218
 20
0.0000000000000169
 30
0.0
 41
10.0
 42
10.0
 43
10.0
 50
270.0
  0
INSERT
  5
11BD
330
1160
100
AcDbEntity
  8
SIZE
  6
Continuous
 62
     0
440
 16777216
370
    -2
100
AcDbBlockReference
  2
_ORIGIN
 10
504.3383539519218
 20
110.0000000000015
 30
0.0
 41
10.0
 42
10.0
 43
10.0
 50
90.0
  0
MTEXT
  5
11BE
330
1160
100
AcDbEntity
  8
SIZE
  6
Continuous
 62
     0
440
 16777216
100
AcDbMText
 10
479.3383539519216
 20
55.00000000000062
 30
0.0
 40
30.0
 41
0.0
 46
0.0
 71
     5
 72
     1
  1
\A1;110
 11
0.0000000000000001
 21
1.0
 31
0.0
 73
     1
 44
1.0
  0
POINT
  5
11BF
330
1160
100
AcDbEntity
  8
DEFPOINTS
  6
Continuous
 62
     0
440
 16777216
100
AcDbPoint
 10
181.5
 20
-0.000000000000035
 30
0.0
  0
POINT
  5
11C0
330
1160
100
AcDbEntity
  8
DEFPOINTS
  6
Continuous
 62
     0
440
 16777216
100
AcDbPoint
 10
88.00000000000018
 20
110.0000000000014
 30
0.0
  0
POINT
  5
11C1
330
1160
100
AcDbEntity
  8
DEFPOINTS
  6
Continuous
 62
     0
440
 16777216
100
AcDbPoint
 10
504.3383539519218
 20
110.0000000000015
 30
0.0
  0
ENDBLK
  5
1162
330
1160
100
AcDbEntity
  8
0
100
AcDbBlockEnd
  0
BLOCK
  5
118F
330
118E
100
AcDbEntity
  8
0
100
AcDbBlockBegin
  2
*D14
 70
     1
 10
0.0
 20
0.0
 30
0.0
  3
*D14
  1

  0
LINE
  5
13D0
330
118E
100
AcDbEntity
  8
SIZE
  6
Continuous
 62
     0
440
 16777216
370
    -2
100
AcDbLine
 10
191.5
 20
-0.0000000000000334
 30
0.0
 11
916.8383539519222
 21
0.0000000000000833
 31
0.0
  0
LINE
  5
13D1
330
118E
100
AcDbEntity
  8
SIZE
  6
Continuous
 62
     0
440
 16777216
370
    -2
100
AcDbLine
 10
395.0000000000002
 20
2173.000000000001
 30
0.0
 11
916.8383539519219
 21
2173.000000000001
 31
0.0
  0
LINE
  5
13D2
330
118E
100
AcDbEntity
  8
SIZE
  6
Continuous
 62
     0
440
 16777216
370
    -2
100
AcDbLine
 10
904.3383539519222
 20
10.00000000000008
 30
0.0
 11
904.3383539519219
 21
2163.000000000001
 31
0.0
  0
INSERT
  5
13D3
330
118E
100
AcDbEntity
  8
SIZE
  6
Continuous
 62
     0
440
 16777216
370
    -2
100
AcDbBlockReference
  2
_ORIGIN
 10
904.3383539519222
 20
0.0000000000000812
 30
0.0
 41
10.0
 42
10.0
 43
10.0
 50
270.0
  0
INSERT
  5
13D4
330
118E
100
AcDbEntity
  8
SIZE
  6
Continuous
 62
     0
440
 16777216
370
    -2
100
AcDbBlockReference
  2
_ORIGIN
 10
904.3383539519219
 20
2173.000000000001
 30
0.0
 41
10.0
 42
10.0
 43
10.0
 50
90.0
  0
MTEXT
  5
13D5
330
118E
100
AcDbEntity
  8
SIZE
  6
Continuous
 62
     0
440
 16777216
100
AcDbMText
 10
879.3383539519222
 20
1086.5
 30
0.0
 40
30.0
 41
0.0
 46
0.0
 71
     5
 72
     1
  1
\A1;2173
 11
0.0000000000000001
 21
1.0
 31
0.0
 73
     1
 44
1.0
  0
POINT
  5
13D6
330
118E
100
AcDbEntity
  8
DEFPOINTS
  6
Continuous
 62
     0
440
 16777216
100
AcDbPoint
 10
181.5
 20
-0.000000000000035
 30
0.0
  0
POINT
  5
13D7
330
118E
100
AcDbEntity
  8
DEFPOINTS
  6
Continuous
 62
     0
440
 16777216
100
AcDbPoint
 10
385.0000000000002
 20
2173.000000000001
 30
0.0
  0
POINT
  5
13D8
330
118E
100
AcDbEntity
  8
DEFPOINTS
  6
Continuous
 62
     0
440
 16777216
100
AcDbPoint
 10
904.3383539519219
 20
2173.000000000001
 30
0.0
  0
ENDBLK
  5
1190
330
118E
100
AcDbEntity
  8
0
100
AcDbBlockEnd
  0
BLOCK
  5
119C
330
119B
100
AcDbEntity
  8
0
100
AcDbBlockBegin
  2
*D15
 70
     1
 10
0.0
 20
0.0
 30
0.0
  3
*D15
  1

  0
LINE
  5
13D9
330
119B
100
AcDbEntity
  8
SIZE
  6
Continuous
 62
     0
440
 16777216
370
    -2
100
AcDbLine
 10
375.0000000000001
 20
2195.000000000001
 30
0.0
 11
1016.838353951921
 21
2195.000000000001
 31
0.0
  0
LINE
  5
13DA
330
119B
100
AcDbEntity
  8
SIZE
  6
Continuous
 62
     0
440
 16777216
370
    -2
100
AcDbLine
 10
191.5
 20
-0.0000000000000334
 30
0.0
 11
1016.838353951922
 21
0.0000000000000993
 31
0.0
  0
LINE
  5
13DB
330
119B
100
AcDbEntity
  8
SIZE
  6
Continuous
 62
     0
440
 16777216
370
    -2
100
AcDbLine
 10
1004.338353951921
 20
2185.000000000001
 30
0.0
 11
1004.338353951922
 21
10.0000000000001
 31
0.0
  0
INSERT
  5
13DC
330
119B
100
AcDbEntity
  8
SIZE
  6
Continuous
 62
     0
440
 16777216
370
    -2
100
AcDbBlockReference
  2
_ORIGIN
 10
1004.338353951921
 20
2195.000000000001
 30
0.0
 41
10.0
 42
10.0
 43
10.0
 50
90.0
  0
INSERT
  5
13DD
330
119B
100
AcDbEntity
  8
SIZE
  6
Continuous
 62
     0
440
 16777216
370
    -2
100
AcDbBlockReference
  2
_ORIGIN
 10
1004.338353951922
 20
0.0000000000000973
 30
0.0
 41
10.0
 42
10.0
 43
10.0
 50
270.0
  0
MTEXT
  5
13DE
330
119B
100
AcDbEntity
  8
SIZE
  6
Continuous
 62
     0
440
 16777216
100
AcDbMText
 10
979.338353951922
 20
1097.5
 30
0.0
 40
30.0
 41
0.0
 46
0.0
 71
     5
 72
     1
  1
\A1;2195
 11
0.0000000000000001
 21
1.0
 31
0.0
 73
     1
 44
1.0
  0
POINT
  5
13DF
330
119B
100
AcDbEntity
  8
DEFPOINTS
  6
Continuous
 62
     0
440
 16777216
100
AcDbPoint
 10
365.0000000000001
 20
2195.000000000001
 30
0.0
  0
POINT
  5
13E0
330
119B
100
AcDbEntity
  8
DEFPOINTS
  6
Continuous
 62
     0
440
 16777216
100
AcDbPoint
 10
181.5
 20
-0.000000000000035
 30
0.0
  0
POINT
  5
13E1
330
119B
100
AcDbEntity
  8
DEFPOINTS
  6
Continuous
 62
     0
440
 16777216
100
AcDbPoint
 10
1004.338353951922
 20
0.0000000000000973
 30
0.0
  0
ENDBLK
  5
119D
330
119B
100
AcDbEntity
  8
0
100
AcDbBlockEnd
  0
BLOCK
  5
11EF
330
11EE
100
AcDbEntity
  8
0
100
AcDbBlockBegin
  2
*D16
 70
     1
 10
0.0
 20
0.0
 30
0.0
  3
*D16
  1

  0
LINE
  5
12CF
330
11EE
100
AcDbEntity
  8
SIZE
  6
Continuous
 62
     0
440
 16777216
370
    -2
100
AcDbLine
 10
215.0000000000002
 20
140.0
 30
0.0
 11
215.0000000000002
 21
-102.5268171236639
 31
0.0
  0
LINE
  5
12D0
330
11EE
100
AcDbEntity
  8
SIZE
  6
Continuous
 62
     0
440
 16777216
370
    -2
100
AcDbLine
 10
178.0000000000002
 20
320.0
 30
0.0
 11
178.0000000000002
 21
-102.5268171236639
 31
0.0
  0
LINE
  5
12D1
330
11EE
100
AcDbEntity
  8
SIZE
  6
Continuous
 62
     0
440
 16777216
370
    -2
100
AcDbLine
 10
168.0000000000001
 20
-90.02681712366394
 30
0.0
 11
158.0000000000002
 21
-90.02681712366394
 31
0.0
  0
LINE
  5
12D2
330
11EE
100
AcDbEntity
  8
SIZE
  6
Continuous
 62
     0
440
 16777216
370
    -2
100
AcDbLine
 10
225.0000000000002
 20
-90.02681712366394
 30
0.0
 11
353.4551035705081
 21
-90.02681712366394
 31
0.0
  0
LINE
  5
12D3
330
11EE
100
AcDbEntity
  8
SIZE
  6
Continuous
 62
     0
440
 16777216
370
    -2
100
AcDbLine
 10
178.0000000000002
 20
-90.02681712366394
 30
0.0
 11
215.0000000000002
 21
-90.02681712366394
 31
0.0
  0
INSERT
  5
12D4
330
11EE
100
AcDbEntity
  8
SIZE
  6
Continuous
 62
     0
440
 16777216
370
    -2
100
AcDbBlockReference
  2
_ORIGIN
 10
178.0000000000002
 20
-90.02681712366394
 30
0.0
 41
10.0
 42
10.0
 43
10.0
  0
INSERT
  5
12D5
330
11EE
100
AcDbEntity
  8
SIZE
  6
Continuous
 62
     0
440
 16777216
370
    -2
100
AcDbBlockReference
  2
_ORIGIN
 10
215.0000000000002
 20
-90.02681712366394
 30
0.0
 41
10.0
 42
10.0
 43
10.0
 50
180.0
  0
MTEXT
  5
12D6
330
11EE
100
AcDbEntity
  8
SIZE
  6
Continuous
 62
     0
440
 16777216
100
AcDbMText
 10
318.4551035705081
 20
-65.02681712366393
 30
0.0
 40
30.0
 41
0.0
 46
0.0
 71
     5
 72
     1
  1
\A1;37
 73
     1
 44
1.0
  0
POINT
  5
12D7
330
11EE
100
AcDbEntity
  8
DEFPOINTS
  6
Continuous
 62
     0
440
 16777216
100
AcDbPoint
 10
215.0000000000002
 20
150.0
 30
0.0
  0
POINT
  5
12D8
330
11EE
100
AcDbEntity
  8
DEFPOINTS
  6
Continuous
 62
     0
440
 16777216
100
AcDbPoint
 10
178.0000000000002
 20
330.0
 30
0.0
  0
POINT
  5
12D9
330
11EE
100
AcDbEntity
  8
DEFPOINTS
  6
Continuous
 62
     0
440
 16777216
100
AcDbPoint
 10
178.0000000000002
 20
-90.02681712366394
 30
0.0
  0
ENDBLK
  5
11F0
330
11EE
100
AcDbEntity
  8
0
100
AcDbBlockEnd
  0
BLOCK
  5
11FE
330
11FD
100
AcDbEntity
  8
0
100
AcDbBlockBegin
  2
*D17
 70
     1
 10
0.0
 20
0.0
 30
0.0
  3
*D17
  1

  0
LINE
  5
12A5
330
11FD
100
AcDbEntity
  8
SIZE
  6
Continuous
 62
     0
440
 16777216
370
    -2
100
AcDbLine
 10
215.0000000000002
 20
140.0
 30
0.0
 11
215.0000000000002
 21
-254.0593223581709
 31
0.0
  0
LINE
  5
12A6
330
11FD
100
AcDbEntity
  8
SIZE
  6
Continuous
 62
     0
440
 16777216
370
    -2
100
AcDbLine
 10
145.0000000000002
 20
271.0
 30
0.0
 11
145.0000000000001
 21
-254.0593223581709
 31
0.0
  0
LINE
  5
12A7
330
11FD
100
AcDbEntity
  8
SIZE
  6
Continuous
 62
     0
440
 16777216
370
    -2
100
AcDbLine
 10
205.0000000000002
 20
-241.5593223581709
 30
0.0
 11
155.0000000000002
 21
-241.5593223581709
 31
0.0
  0
INSERT
  5
12A8
330
11FD
100
AcDbEntity
  8
SIZE
  6
Continuous
 62
     0
440
 16777216
370
    -2
100
AcDbBlockReference
  2
_ORIGIN
 10
215.0000000000002
 20
-241.5593223581709
 30
0.0
 41
10.0
 42
10.0
 43
10.0
  0
INSERT
  5
12A9
330
11FD
100
AcDbEntity
  8
SIZE
  6
Continuous
 62
     0
440
 16777216
370
    -2
100
AcDbBlockReference
  2
_ORIGIN
 10
145.0000000000001
 20
-241.5593223581709
 30
0.0
 41
10.0
 42
10.0
 43
10.0
 50
180.0
  0
MTEXT
  5
12AA
330
11FD
100
AcDbEntity
  8
SIZE
  6
Continuous
 62
     0
440
 16777216
100
AcDbMText
 10
180.0000000000002
 20
-216.5593223581709
 30
0.0
 40
30.0
 41
0.0
 46
0.0
 71
     5
 72
     1
  1
\A1;70
 73
     1
 44
1.0
  0
POINT
  5
12AB
330
11FD
100
AcDbEntity
  8
DEFPOINTS
  6
Continuous
 62
     0
440
 16777216
100
AcDbPoint
 10
215.0000000000002
 20
150.0
 30
0.0
  0
POINT
  5
12AC
330
11FD
100
AcDbEntity
  8
DEFPOINTS
  6
Continuous
 62
     0
440
 16777216
100
AcDbPoint
 10
145.0000000000002
 20
281.0
 30
0.0
  0
POINT
  5
12AD
330
11FD
100
AcDbEntity
  8
DEFPOINTS
  6
Continuous
 62
     0
440
 16777216
100
AcDbPoint
 10
145.0000000000001
 20
-241.5593223581709
 30
0.0
  0
ENDBLK
  5
11FF
330
11FD
100
AcDbEntity
  8
0
100
AcDbBlockEnd
  0
BLOCK
  5
120B
330
120A
100
AcDbEntity
  8
0
100
AcDbBlockBegin
  2
*D18
 70
     1
 10
0.0
 20
0.0
 30
0.0
  3
*D18
  1

  0
LINE
  5
12FE
330
120A
100
AcDbEntity
  8
SIZE
  6
Continuous
 62
     0
440
 16777216
370
    -2
100
AcDbLine
 10
215.0000000000002
 20
140.0
 30
0.0
 11
215.0000000000002
 21
-354.0593223581709
 31
0.0
  0
LINE
  5
12FF
330
120A
100
AcDbEntity
  8
SIZE
  6
Continuous
 62
     0
440
 16777216
370
    -2
100
AcDbLine
 10
111.0000000000002
 20
320.0
 30
0.0
 11
111.0000000000001
 21
-354.0593223581709
 31
0.0
  0
LINE
  5
1300
330
120A
100
AcDbEntity
  8
SIZE
  6
Continuous
 62
     0
440
 16777216
370
    -2
100
AcDbLine
 10
205.0000000000002
 20
-341.5593223581709
 30
0.0
 11
121.0000000000001
 21
-341.5593223581709
 31
0.0
  0
INSERT
  5
1301
330
120A
100
AcDbEntity
  8
SIZE
  6
Continuous
 62
     0
440
 16777216
370
    -2
100
AcDbBlockReference
  2
_ORIGIN
 10
215.0000000000002
 20
-341.5593223581709
 30
0.0
 41
10.0
 42
10.0
 43
10.0
  0
INSERT
  5
1302
330
120A
100
AcDbEntity
  8
SIZE
  6
Continuous
 62
     0
440
 16777216
370
    -2
100
AcDbBlockReference
  2
_ORIGIN
 10
111.0000000000001
 20
-341.5593223581709
 30
0.0
 41
10.0
 42
10.0
 43
10.0
 50
180.0
  0
MTEXT
  5
1303
330
120A
100
AcDbEntity
  8
SIZE
  6
Continuous
 62
     0
440
 16777216
100
AcDbMText
 10
181.1758669050759
 20
-316.5593223581709
 30
0.0
 40
30.0
 41
0.0
 46
0.0
 71
     5
 72
     1
  1
\A1;104
 73
     1
 44
1.0
  0
POINT
  5
1304
330
120A
100
AcDbEntity
  8
DEFPOINTS
  6
Continuous
 62
     0
440
 16777216
100
AcDbPoint
 10
215.0000000000002
 20
150.0
 30
0.0
  0
POINT
  5
1305
330
120A
100
AcDbEntity
  8
DEFPOINTS
  6
Continuous
 62
     0
440
 16777216
100
AcDbPoint
 10
111.0000000000002
 20
330.0
 30
0.0
  0
POINT
  5
1306
330
120A
100
AcDbEntity
  8
DEFPOINTS
  6
Continuous
 62
     0
440
 16777216
100
AcDbPoint
 10
111.0000000000001
 20
-341.5593223581709
 30
0.0
  0
ENDBLK
  5
120C
330
120A
100
AcDbEntity
  8
0
100
AcDbBlockEnd
  0
BLOCK
  5
1218
330
1217
100
AcDbEntity
  8
0
100
AcDbBlockBegin
  2
*D19
 70
     1
 10
0.0
 20
0.0
 30
0.0
  3
*D19
  1

  0
LINE
  5
1307
330
1217
100
AcDbEntity
  8
SIZE
  6
Continuous
 62
     0
440
 16777216
370
    -2
100
AcDbLine
 10
215.0000000000002
 20
140.0
 30
0.0
 11
215.0000000000002
 21
-454.0593223581709
 31
0.0
  0
LINE
  5
1308
330
1217
100
AcDbEntity
  8
SIZE
  6
Continuous
 62
     0
440
 16777216
370
    -2
100
AcDbLine
 10
68.00000000000029
 20
80.00000000000133
 30
0.0
 11
68.00000000000025
 21
-454.0593223581709
 31
0.0
  0
LINE
  5
1309
330
1217
100
AcDbEntity
  8
SIZE
  6
Continuous
 62
     0
440
 16777216
370
    -2
100
AcDbLine
 10
205.0000000000002
 20
-441.5593223581709
 30
0.0
 11
78.00000000000025
 21
-441.5593223581709
 31
0.0
  0
INSERT
  5
130A
330
1217
100
AcDbEntity
  8
SIZE
  6
Continuous
 62
     0
440
 16777216
370
    -2
100
AcDbBlockReference
  2
_ORIGIN
 10
215.0000000000002
 20
-441.5593223581709
 30
0.0
 41
10.0
 42
10.0
 43
10.0
  0
INSERT
  5
130B
330
1217
100
AcDbEntity
  8
SIZE
  6
Continuous
 62
     0
440
 16777216
370
    -2
100
AcDbBlockReference
  2
_ORIGIN
 10
68.00000000000025
 20
-441.5593223581709
 30
0.0
 41
10.0
 42
10.0
 43
10.0
 50
180.0
  0
MTEXT
  5
130C
330
1217
100
AcDbEntity
  8
SIZE
  6
Continuous
 62
     0
440
 16777216
100
AcDbMText
 10
106.9562758033425
 20
-416.5593223581709
 30
0.0
 40
30.0
 41
0.0
 46
0.0
 71
     5
 72
     1
  1
\A1;147
 73
     1
 44
1.0
  0
POINT
  5
130D
330
1217
100
AcDbEntity
  8
DEFPOINTS
  6
Continuous
 62
     0
440
 16777216
100
AcDbPoint
 10
215.0000000000002
 20
150.0
 30
0.0
  0
POINT
  5
130E
330
1217
100
AcDbEntity
  8
DEFPOINTS
  6
Continuous
 62
     0
440
 16777216
100
AcDbPoint
 10
68.00000000000029
 20
90.00000000000133
 30
0.0
  0
POINT
  5
130F
330
1217
100
AcDbEntity
  8
DEFPOINTS
  6
Continuous
 62
     0
440
 16777216
100
AcDbPoint
 10
68.00000000000025
 20
-441.5593223581709
 30
0.0
  0
ENDBLK
  5
1219
330
1217
100
AcDbEntity
  8
0
100
AcDbBlockEnd
  0
BLOCK
  5
1225
330
1224
100
AcDbEntity
  8
0
100
AcDbBlockBegin
  2
*D20
 70
     1
 10
0.0
 20
0.0
 30
0.0
  3
*D20
  1

  0
LINE
  5
1310
330
1224
100
AcDbEntity
  8
SIZE
  6
Continuous
 62
     0
440
 16777216
370
    -2
100
AcDbLine
 10
215.0000000000002
 20
140.0
 30
0.0
 11
215.0000000000002
 21
-554.0593223581709
 31
0.0
  0
LINE
  5
1311
330
1224
100
AcDbEntity
  8
SIZE
  6
Continuous
 62
     0
440
 16777216
370
    -2
100
AcDbLine
 10
53.00000000000018
 20
271.0
 30
0.0
 11
53.00000000000014
 21
-554.0593223581709
 31
0.0
  0
LINE
  5
1312
330
1224
100
AcDbEntity
  8
SIZE
  6
Continuous
 62
     0
440
 16777216
370
    -2
100
AcDbLine
 10
205.0000000000002
 20
-541.5593223581709
 30
0.0
 11
63.00000000000014
 21
-541.5593223581709
 31
0.0
  0
INSERT
  5
1313
330
1224
100
AcDbEntity
  8
SIZE
  6
Continuous
 62
     0
440
 16777216
370
    -2
100
AcDbBlockReference
  2
_ORIGIN
 10
215.0000000000002
 20
-541.5593223581709
 30
0.0
 41
10.0
 42
10.0
 43
10.0
  0
INSERT
  5
1314
330
1224
100
AcDbEntity
  8
SIZE
  6
Continuous
 62
     0
440
 16777216
370
    -2
100
AcDbBlockReference
  2
_ORIGIN
 10
53.00000000000014
 20
-541.5593223581709
 30
0.0
 41
10.0
 42
10.0
 43
10.0
 50
180.0
  0
MTEXT
  5
1315
330
1224
100
AcDbEntity
  8
SIZE
  6
Continuous
 62
     0
440
 16777216
100
AcDbMText
 10
99.97164406572119
 20
-516.5593223581709
 30
0.0
 40
30.0
 41
0.0
 46
0.0
 71
     5
 72
     1
  1
\A1;162
 73
     1
 44
1.0
  0
POINT
  5
1316
330
1224
100
AcDbEntity
  8
DEFPOINTS
  6
Continuous
 62
     0
440
 16777216
100
AcDbPoint
 10
215.0000000000002
 20
150.0
 30
0.0
  0
POINT
  5
1317
330
1224
100
AcDbEntity
  8
DEFPOINTS
  6
Continuous
 62
     0
440
 16777216
100
AcDbPoint
 10
53.00000000000018
 20
281.0
 30
0.0
  0
POINT
  5
1318
330
1224
100
AcDbEntity
  8
DEFPOINTS
  6
Continuous
 62
     0
440
 16777216
100
AcDbPoint
 10
53.00000000000014
 20
-541.5593223581709
 30
0.0
  0
ENDBLK
  5
1226
330
1224
100
AcDbEntity
  8
0
100
AcDbBlockEnd
  0
BLOCK
  5
1232
330
1231
100
AcDbEntity
  8
0
100
AcDbBlockBegin
  2
*D21
 70
     1
 10
0.0
 20
0.0
 30
0.0
  3
*D21
  1

  0
LINE
  5
1319
330
1231
100
AcDbEntity
  8
SIZE
  6
Continuous
 62
     0
440
 16777216
370
    -2
100
AcDbLine
 10
215.0000000000002
 20
140.0
 30
0.0
 11
215.0000000000002
 21
-654.0593223581709
 31
0.0
  0
LINE
  5
131A
330
1231
100
AcDbEntity
  8
SIZE
  6
Continuous
 62
     0
440
 16777216
370
    -2
100
AcDbLine
 10
27.0000000000002
 20
271.0
 30
0.0
 11
27.00000000000014
 21
-654.0593223581709
 31
0.0
  0
LINE
  5
131B
330
1231
100
AcDbEntity
  8
SIZE
  6
Continuous
 62
     0
440
 16777216
370
    -2
100
AcDbLine
 10
205.0000000000002
 20
-641.5593223581709
 30
0.0
 11
37.00000000000014
 21
-641.5593223581709
 31
0.0
  0
INSERT
  5
131C
330
1231
100
AcDbEntity
  8
SIZE
  6
Continuous
 62
     0
440
 16777216
370
    -2
100
AcDbBlockReference
  2
_ORIGIN
 10
215.0000000000002
 20
-641.5593223581709
 30
0.0
 41
10.0
 42
10.0
 43
10.0
  0
INSERT
  5
131D
330
1231
100
AcDbEntity
  8
SIZE
  6
Continuous
 62
     0
440
 16777216
370
    -2
100
AcDbBlockReference
  2
_ORIGIN
 10
27.00000000000014
 20
-641.5593223581709
 30
0.0
 41
10.0
 42
10.0
 43
10.0
 50
180.0
  0
MTEXT
  5
131E
330
1231
100
AcDbEntity
  8
SIZE
  6
Continuous
 62
     0
440
 16777216
100
AcDbMText
 10
99.96283780457453
 20
-616.5593223581709
 30
0.0
 40
30.0
 41
0.0
 46
0.0
 71
     5
 72
     1
  1
\A1;188
 73
     1
 44
1.0
  0
POINT
  5
131F
330
1231
100
AcDbEntity
  8
DEFPOINTS
  6
Continuous
 62
     0
440
 16777216
100
AcDbPoint
 10
215.0000000000002
 20
150.0
 30
0.0
  0
POINT
  5
1320
330
1231
100
AcDbEntity
  8
DEFPOINTS
  6
Continuous
 62
     0
440
 16777216
100
AcDbPoint
 10
27.0000000000002
 20
281.0
 30
0.0
  0
POINT
  5
1321
330
1231
100
AcDbEntity
  8
DEFPOINTS
  6
Continuous
 62
     0
440
 16777216
100
AcDbPoint
 10
27.00000000000014
 20
-641.5593223581709
 30
0.0
  0
ENDBLK
  5
1233
330
1231
100
AcDbEntity
  8
0
100
AcDbBlockEnd
  0
BLOCK
  5
123F
330
123E
100
AcDbEntity
  8
0
100
AcDbBlockBegin
  2
*D22
 70
     1
 10
0.0
 20
0.0
 30
0.0
  3
*D22
  1

  0
LINE
  5
1322
330
123E
100
AcDbEntity
  8
SIZE
  6
Continuous
 62
     0
440
 16777216
370
    -2
100
AcDbLine
 10
215.0000000000002
 20
140.0
 30
0.0
 11
215.0000000000002
 21
-754.0593223581709
 31
0.0
  0
LINE
  5
1323
330
123E
100
AcDbEntity
  8
SIZE
  6
Continuous
 62
     0
440
 16777216
370
    -2
100
AcDbLine
 10
-33.9999999999996
 20
218.0
 30
0.0
 11
-33.99999999999966
 21
-754.0593223581709
 31
0.0
  0
LINE
  5
1324
330
123E
100
AcDbEntity
  8
SIZE
  6
Continuous
 62
     0
440
 16777216
370
    -2
100
AcDbLine
 10
205.0000000000002
 20
-741.5593223581709
 30
0.0
 11
-23.99999999999966
 21
-741.5593223581709
 31
0.0
  0
INSERT
  5
1325
330
123E
100
AcDbEntity
  8
SIZE
  6
Continuous
 62
     0
440
 16777216
370
    -2
100
AcDbBlockReference
  2
_ORIGIN
 10
215.0000000000002
 20
-741.5593223581709
 30
0.0
 41
10.0
 42
10.0
 43
10.0
  0
INSERT
  5
1326
330
123E
100
AcDbEntity
  8
SIZE
  6
Continuous
 62
     0
440
 16777216
370
    -2
100
AcDbBlockReference
  2
_ORIGIN
 10
-33.99999999999966
 20
-741.5593223581709
 30
0.0
 41
10.0
 42
10.0
 43
10.0
 50
180.0
  0
MTEXT
  5
1327
330
123E
100
AcDbEntity
  8
SIZE
  6
Continuous
 62
     0
440
 16777216
100
AcDbMText
 10
90.50000000000023
 20
-716.5593223581709
 30
0.0
 40
30.0
 41
0.0
 46
0.0
 71
     5
 72
     1
  1
\A1;249
 73
     1
 44
1.0
  0
POINT
  5
1328
330
123E
100
AcDbEntity
  8
DEFPOINTS
  6
Continuous
 62
     0
440
 16777216
100
AcDbPoint
 10
215.0000000000002
 20
150.0
 30
0.0
  0
POINT
  5
1329
330
123E
100
AcDbEntity
  8
DEFPOINTS
  6
Continuous
 62
     0
440
 16777216
100
AcDbPoint
 10
-33.9999999999996
 20
228.0
 30
0.0
  0
POINT
  5
132A
330
123E
100
AcDbEntity
  8
DEFPOINTS
  6
Continuous
 62
     0
440
 16777216
100
AcDbPoint
 10
-33.99999999999966
 20
-741.5593223581709
 30
0.0
  0
ENDBLK
  5
1240
330
123E
100
AcDbEntity
  8
0
100
AcDbBlockEnd
  0
BLOCK
  5
124C
330
124B
100
AcDbEntity
  8
0
100
AcDbBlockBegin
  2
*D23
 70
     1
 10
0.0
 20
0.0
 30
0.0
  3
*D23
  1

  0
LINE
  5
132B
330
124B
100
AcDbEntity
  8
SIZE
  6
Continuous
 62
     0
440
 16777216
370
    -2
100
AcDbLine
 10
215.0000000000002
 20
140.0
 30
0.0
 11
215.0000000000002
 21
-854.0593223581709
 31
0.0
  0
LINE
  5
132C
330
124B
100
AcDbEntity
  8
SIZE
  6
Continuous
 62
     0
440
 16777216
370
    -2
100
AcDbLine
 10
-106.9999999999998
 20
271.0
 30
0.0
 11
-106.9999999999998
 21
-854.0593223581709
 31
0.0
  0
LINE
  5
132D
330
124B
100
AcDbEntity
  8
SIZE
  6
Continuous
 62
     0
440
 16777216
370
    -2
100
AcDbLine
 10
205.0000000000002
 20
-841.5593223581709
 30
0.0
 11
-96.99999999999986
 21
-841.5593223581709
 31
0.0
  0
INSERT
  5
132E
330
124B
100
AcDbEntity
  8
SIZE
  6
Continuous
 62
     0
440
 16777216
370
    -2
100
AcDbBlockReference
  2
_ORIGIN
 10
215.0000000000002
 20
-841.5593223581709
 30
0.0
 41
10.0
 42
10.0
 43
10.0
  0
INSERT
  5
132F
330
124B
100
AcDbEntity
  8
SIZE
  6
Continuous
 62
     0
440
 16777216
370
    -2
100
AcDbBlockReference
  2
_ORIGIN
 10
-106.9999999999998
 20
-841.5593223581709
 30
0.0
 41
10.0
 42
10.0
 43
10.0
 50
180.0
  0
MTEXT
  5
1330
330
124B
100
AcDbEntity
  8
SIZE
  6
Continuous
 62
     0
440
 16777216
100
AcDbMText
 10
54.00000000000014
 20
-816.5593223581709
 30
0.0
 40
30.0
 41
0.0
 46
0.0
 71
     5
 72
     1
  1
\A1;322
 73
     1
 44
1.0
  0
POINT
  5
1331
330
124B
100
AcDbEntity
  8
DEFPOINTS
  6
Continuous
 62
     0
440
 16777216
100
AcDbPoint
 10
215.0000000000002
 20
150.0
 30
0.0
  0
POINT
  5
1332
330
124B
100
AcDbEntity
  8
DEFPOINTS
  6
Continuous
 62
     0
440
 16777216
100
AcDbPoint
 10
-106.9999999999998
 20
281.0
 30
0.0
  0
POINT
  5
1333
330
124B
100
AcDbEntity
  8
DEFPOINTS
  6
Continuous
 62
     0
440
 16777216
100
AcDbPoint
 10
-106.9999999999998
 20
-841.5593223581709
 30
0.0
  0
ENDBLK
  5
124D
330
124B
100
AcDbEntity
  8
0
100
AcDbBlockEnd
  0
BLOCK
  5
1259
330
1258
100
AcDbEntity
  8
0
100
AcDbBlockBegin
  2
*D24
 70
     1
 10
0.0
 20
0.0
 30
0.0
  3
*D24
  1

  0
LINE
  5
133D
330
1258
100
AcDbEntity
  8
SIZE
  6
Continuous
 62
     0
440
 16777216
370
    -2
100
AcDbLine
 10
215.0000000000002
 20
140.0
 30
0.0
 11
215.0000000000001
 21
-1054.059322358171
 31
0.0
  0
LINE
  5
133E
330
1258
100
AcDbEntity
  8
SIZE
  6
Continuous
 62
     0
440
 16777216
370
    -2
100
AcDbLine
 10
-166.9999999999998
 20
271.0
 30
0.0
 11
-166.9999999999999
 21
-1054.059322358171
 31
0.0
  0
LINE
  5
133F
330
1258
100
AcDbEntity
  8
SIZE
  6
Continuous
 62
     0
440
 16777216
370
    -2
100
AcDbLine
 10
205.0000000000001
 20
-1041.559322358171
 30
0.0
 11
-156.9999999999999
 21
-1041.559322358171
 31
0.0
  0
INSERT
  5
1340
330
1258
100
AcDbEntity
  8
SIZE
  6
Continuous
 62
     0
440
 16777216
370
    -2
100
AcDbBlockReference
  2
_ORIGIN
 10
215.0000000000001
 20
-1041.559322358171
 30
0.0
 41
10.0
 42
10.0
 43
10.0
  0
INSERT
  5
1341
330
1258
100
AcDbEntity
  8
SIZE
  6
Continuous
 62
     0
440
 16777216
370
    -2
100
AcDbBlockReference
  2
_ORIGIN
 10
-166.9999999999999
 20
-1041.559322358171
 30
0.0
 41
10.0
 42
10.0
 43
10.0
 50
180.0
  0
MTEXT
  5
1342
330
1258
100
AcDbEntity
  8
SIZE
  6
Continuous
 62
     0
440
 16777216
100
AcDbMText
 10
24.00000000000011
 20
-1016.559322358171
 30
0.0
 40
30.0
 41
0.0
 46
0.0
 71
     5
 72
     1
  1
\A1;382
 73
     1
 44
1.0
  0
POINT
  5
1343
330
1258
100
AcDbEntity
  8
DEFPOINTS
  6
Continuous
 62
     0
440
 16777216
100
AcDbPoint
 10
215.0000000000002
 20
150.0
 30
0.0
  0
POINT
  5
1344
330
1258
100
AcDbEntity
  8
DEFPOINTS
  6
Continuous
 62
     0
440
 16777216
100
AcDbPoint
 10
-166.9999999999998
 20
281.0
 30
0.0
  0
POINT
  5
1345
330
1258
100
AcDbEntity
  8
DEFPOINTS
  6
Continuous
 62
     0
440
 16777216
100
AcDbPoint
 10
-166.9999999999999
 20
-1041.559322358171
 30
0.0
  0
ENDBLK
  5
125A
330
1258
100
AcDbEntity
  8
0
100
AcDbBlockEnd
  0
BLOCK
  5
1266
330
1265
100
AcDbEntity
  8
0
100
AcDbBlockBegin
  2
*D25
 70
     1
 10
0.0
 20
0.0
 30
0.0
  3
*D25
  1

  0
LINE
  5
1334
330
1265
100
AcDbEntity
  8
SIZE
  6
Continuous
 62
     0
440
 16777216
370
    -2
100
AcDbLine
 10
-151.9999999999998
 20
92.00000000000141
 30
0.0
 11
-151.9999999999998
 21
-954.0593223581709
 31
0.0
  0
LINE
  5
1335
330
1265
100
AcDbEntity
  8
SIZE
  6
Continuous
 62
     0
440
 16777216
370
    -2
100
AcDbLine
 10
215.0000000000002
 20
140.0
 30
0.0
 11
215.0000000000002
 21
-954.0593223581709
 31
0.0
  0
LINE
  5
1336
330
1265
100
AcDbEntity
  8
SIZE
  6
Continuous
 62
     0
440
 16777216
370
    -2
100
AcDbLine
 10
-141.9999999999998
 20
-941.5593223581709
 30
0.0
 11
205.0000000000002
 21
-941.5593223581709
 31
0.0
  0
INSERT
  5
1337
330
1265
100
AcDbEntity
  8
SIZE
  6
Continuous
 62
     0
440
 16777216
370
    -2
100
AcDbBlockReference
  2
_ORIGIN
 10
-151.9999999999998
 20
-941.5593223581709
 30
0.0
 41
10.0
 42
10.0
 43
10.0
 50
180.0
  0
INSERT
  5
1338
330
1265
100
AcDbEntity
  8
SIZE
  6
Continuous
 62
     0
440
 16777216
370
    -2
100
AcDbBlockReference
  2
_ORIGIN
 10
215.0000000000002
 20
-941.5593223581709
 30
0.0
 41
10.0
 42
10.0
 43
10.0
  0
MTEXT
  5
1339
330
1265
100
AcDbEntity
  8
SIZE
  6
Continuous
 62
     0
440
 16777216
100
AcDbMText
 10
31.50000000000015
 20
-916.5593223581709
 30
0.0
 40
30.0
 41
0.0
 46
0.0
 71
     5
 72
     1
  1
\A1;367
 73
     1
 44
1.0
  0
POINT
  5
133A
330
1265
100
AcDbEntity
  8
DEFPOINTS
  6
Continuous
 62
     0
440
 16777216
100
AcDbPoint
 10
-151.9999999999998
 20
102.0000000000014
 30
0.0
  0
POINT
  5
133B
330
1265
100
AcDbEntity
  8
DEFPOINTS
  6
Continuous
 62
     0
440
 16777216
100
AcDbPoint
 10
215.0000000000002
 20
150.0
 30
0.0
  0
POINT
  5
133C
330
1265
100
AcDbEntity
  8
DEFPOINTS
  6
Continuous
 62
     0
440
 16777216
100
AcDbPoint
 10
215.0000000000002
 20
-941.5593223581709
 30
0.0
  0
ENDBLK
  5
1267
330
1265
100
AcDbEntity
  8
0
100
AcDbBlockEnd
  0
BLOCK
  5
1273
330
1272
100
AcDbEntity
  8
0
100
AcDbBlockBegin
  2
*D26
 70
     1
 10
0.0
 20
0.0
 30
0.0
  3
*D26
  1

  0
LINE
  5
1358
330
1272
100
AcDbEntity
  8
SIZE
  6
Continuous
 62
     0
440
 16777216
370
    -2
100
AcDbLine
 10
215.0000000000002
 20
140.0
 30
0.0
 11
215.0000000000001
 21
-1154.059322358171
 31
0.0
  0
LINE
  5
1359
330
1272
100
AcDbEntity
  8
SIZE
  6
Continuous
 62
     0
440
 16777216
370
    -2
100
AcDbLine
 10
145.0
 20
-30.00000000000001
 30
0.0
 11
144.9999999999999
 21
-1154.059322358171
 31
0.0
  0
LINE
  5
135A
330
1272
100
AcDbEntity
  8
SIZE
  6
Continuous
 62
     0
440
 16777216
370
    -2
100
AcDbLine
 10
205.0000000000001
 20
-1141.559322358171
 30
0.0
 11
154.9999999999999
 21
-1141.559322358171
 31
0.0
  0
INSERT
  5
135B
330
1272
100
AcDbEntity
  8
SIZE
  6
Continuous
 62
     0
440
 16777216
370
    -2
100
AcDbBlockReference
  2
_ORIGIN
 10
215.0000000000001
 20
-1141.559322358171
 30
0.0
 41
10.0
 42
10.0
 43
10.0
  0
INSERT
  5
135C
330
1272
100
AcDbEntity
  8
SIZE
  6
Continuous
 62
     0
440
 16777216
370
    -2
100
AcDbBlockReference
  2
_ORIGIN
 10
144.9999999999999
 20
-1141.559322358171
 30
0.0
 41
10.0
 42
10.0
 43
10.0
 50
180.0
  0
MTEXT
  5
135D
330
1272
100
AcDbEntity
  8
SIZE
  6
Continuous
 62
     0
440
 16777216
100
AcDbMText
 10
180.0
 20
-1116.559322358171
 30
0.0
 40
30.0
 41
0.0
 46
0.0
 71
     5
 72
     1
  1
\A1;70
 73
     1
 44
1.0
  0
POINT
  5
135E
330
1272
100
AcDbEntity
  8
DEFPOINTS
  6
Continuous
 62
     0
440
 16777216
100
AcDbPoint
 10
215.0000000000002
 20
150.0
 30
0.0
  0
POINT
  5
135F
330
1272
100
AcDbEntity
  8
DEFPOINTS
  6
Continuous
 62
     0
440
 16777216
100
AcDbPoint
 10
145.0
 20
-20.00000000000001
 30
0.0
  0
POINT
  5
1360
330
1272
100
AcDbEntity
  8
DEFPOINTS
  6
Continuous
 62
     0
440
 16777216
100
AcDbPoint
 10
144.9999999999999
 20
-1141.559322358171
 30
0.0
  0
ENDBLK
  5
1274
330
1272
100
AcDbEntity
  8
0
100
AcDbBlockEnd
  0
BLOCK
  5
1280
330
127F
100
AcDbEntity
  8
0
100
AcDbBlockBegin
  2
*D27
 70
     1
 10
0.0
 20
0.0
 30
0.0
  3
*D27
  1

  0
LINE
  5
1346
330
127F
100
AcDbEntity
  8
SIZE
  6
Continuous
 62
     0
440
 16777216
370
    -2
100
AcDbLine
 10
145.0
 20
-30.00000000000001
 30
0.0
 11
144.9999999999999
 21
-1154.059322358171
 31
0.0
  0
LINE
  5
1347
330
127F
100
AcDbEntity
  8
SIZE
  6
Continuous
 62
     0
440
 16777216
370
    -2
100
AcDbLine
 10
-144.9999999999997
 20
-30.00000000000002
 30
0.0
 11
-144.9999999999997
 21
-1154.059322358171
 31
0.0
  0
LINE
  5
1348
330
127F
100
AcDbEntity
  8
SIZE
  6
Continuous
 62
     0
440
 16777216
370
    -2
100
AcDbLine
 10
134.9999999999999
 20
-1141.559322358171
 30
0.0
 11
-134.9999999999997
 21
-1141.559322358171
 31
0.0
  0
INSERT
  5
1349
330
127F
100
AcDbEntity
  8
SIZE
  6
Continuous
 62
     0
440
 16777216
370
    -2
100
AcDbBlockReference
  2
_ORIGIN
 10
144.9999999999999
 20
-1141.559322358171
 30
0.0
 41
10.0
 42
10.0
 43
10.0
  0
INSERT
  5
134A
330
127F
100
AcDbEntity
  8
SIZE
  6
Continuous
 62
     0
440
 16777216
370
    -2
100
AcDbBlockReference
  2
_ORIGIN
 10
-144.9999999999997
 20
-1141.559322358171
 30
0.0
 41
10.0
 42
10.0
 43
10.0
 50
180.0
  0
MTEXT
  5
134B
330
127F
100
AcDbEntity
  8
SIZE
  6
Continuous
 62
     0
440
 16777216
100
AcDbMText
 10
0.000000000000101
 20
-1116.559322358171
 30
0.0
 40
30.0
 41
0.0
 46
0.0
 71
     5
 72
     1
  1
\A1;290
 73
     1
 44
1.0
  0
POINT
  5
134C
330
127F
100
AcDbEntity
  8
DEFPOINTS
  6
Continuous
 62
     0
440
 16777216
100
AcDbPoint
 10
145.0
 20
-20.00000000000001
 30
0.0
  0
POINT
  5
134D
330
127F
100
AcDbEntity
  8
DEFPOINTS
  6
Continuous
 62
     0
440
 16777216
100
AcDbPoint
 10
-144.9999999999997
 20
-20.00000000000002
 30
0.0
  0
POINT
  5
134E
330
127F
100
AcDbEntity
  8
DEFPOINTS
  6
Continuous
 62
     0
440
 16777216
100
AcDbPoint
 10
-144.9999999999997
 20
-1141.559322358171
 30
0.0
  0
ENDBLK
  5
1281
330
127F
100
AcDbEntity
  8
0
100
AcDbBlockEnd
  0
BLOCK
  5
128D
330
128C
100
AcDbEntity
  8
0
100
AcDbBlockBegin
  2
*D28
 70
     1
 10
0.0
 20
0.0
 30
0.0
  3
*D28
  1

  0
LINE
  5
1361
330
128C
100
AcDbEntity
  8
SIZE
  6
Continuous
 62
     0
440
 16777216
370
    -2
100
AcDbLine
 10
-144.9999999999997
 20
-30.00000000000002
 30
0.0
 11
-144.9999999999997
 21
-1154.059322358171
 31
0.0
  0
LINE
  5
1362
330
128C
100
AcDbEntity
  8
SIZE
  6
Continuous
 62
     0
440
 16777216
370
    -2
100
AcDbLine
 10
-215.0
 20
-10.00000000000002
 30
0.0
 11
-215.0000000000001
 21
-1154.059322358171
 31
0.0
  0
LINE
  5
1363
330
128C
100
AcDbEntity
  8
SIZE
  6
Continuous
 62
     0
440
 16777216
370
    -2
100
AcDbLine
 10
-154.9999999999997
 20
-1141.559322358171
 30
0.0
 11
-205.0000000000001
 21
-1141.559322358171
 31
0.0
  0
INSERT
  5
1364
330
128C
100
AcDbEntity
  8
SIZE
  6
Continuous
 62
     0
440
 16777216
370
    -2
100
AcDbBlockReference
  2
_ORIGIN
 10
-144.9999999999997
 20
-1141.559322358171
 30
0.0
 41
10.0
 42
10.0
 43
10.0
  0
INSERT
  5
1365
330
128C
100
AcDbEntity
  8
SIZE
  6
Continuous
 62
     0
440
 16777216
370
    -2
100
AcDbBlockReference
  2
_ORIGIN
 10
-215.0000000000001
 20
-1141.559322358171
 30
0.0
 41
10.0
 42
10.0
 43
10.0
 50
180.0
  0
MTEXT
  5
1366
330
128C
100
AcDbEntity
  8
SIZE
  6
Continuous
 62
     0
440
 16777216
100
AcDbMText
 10
-179.9999999999999
 20
-1116.559322358171
 30
0.0
 40
30.0
 41
0.0
 46
0.0
 71
     5
 72
     1
  1
\A1;70
 73
     1
 44
1.0
  0
POINT
  5
1367
330
128C
100
AcDbEntity
  8
DEFPOINTS
  6
Continuous
 62
     0
440
 16777216
100
AcDbPoint
 10
-144.9999999999997
 20
-20.00000000000002
 30
0.0
  0
POINT
  5
1368
330
128C
100
AcDbEntity
  8
DEFPOINTS
  6
Continuous
 62
     0
440
 16777216
100
AcDbPoint
 10
-215.0
 20
-0.000000000000026
 30
0.0
  0
POINT
  5
1369
330
128C
100
AcDbEntity
  8
DEFPOINTS
  6
Continuous
 62
     0
440
 16777216
100
AcDbPoint
 10
-215.0000000000001
 20
-1141.559322358171
 30
0.0
  0
ENDBLK
  5
128E
330
128C
100
AcDbEntity
  8
0
100
AcDbBlockEnd
  0
BLOCK
  5
129A
330
1299
100
AcDbEntity
  8
0
100
AcDbBlockBegin
  2
*D29
 70
     1
 10
0.0
 20
0.0
 30
0.0
  3
*D29
  1

  0
LINE
  5
134F
330
1299
100
AcDbEntity
  8
SIZE
  6
Continuous
 62
     0
440
 16777216
370
    -2
100
AcDbLine
 10
-215.0
 20
-10.00000000000002
 30
0.0
 11
-215.0000000000001
 21
-1254.059322358171
 31
0.0
  0
LINE
  5
1350
330
1299
100
AcDbEntity
  8
SIZE
  6
Continuous
 62
     0
440
 16777216
370
    -2
100
AcDbLine
 10
215.0000000000002
 20
140.0
 30
0.0
 11
215.0000000000001
 21
-1254.059322358171
 31
0.0
  0
LINE
  5
1351
330
1299
100
AcDbEntity
  8
SIZE
  6
Continuous
 62
     0
440
 16777216
370
    -2
100
AcDbLine
 10
-205.0000000000001
 20
-1241.559322358171
 30
0.0
 11
205.0000000000001
 21
-1241.559322358171
 31
0.0
  0
INSERT
  5
1352
330
1299
100
AcDbEntity
  8
SIZE
  6
Continuous
 62
     0
440
 16777216
370
    -2
100
AcDbBlockReference
  2
_ORIGIN
 10
-215.0000000000001
 20
-1241.559322358171
 30
0.0
 41
10.0
 42
10.0
 43
10.0
 50
180.0
  0
INSERT
  5
1353
330
1299
100
AcDbEntity
  8
SIZE
  6
Continuous
 62
     0
440
 16777216
370
    -2
100
AcDbBlockReference
  2
_ORIGIN
 10
215.0000000000001
 20
-1241.559322358171
 30
0.0
 41
10.0
 42
10.0
 43
10.0
  0
MTEXT
  5
1354
330
1299
100
AcDbEntity
  8
SIZE
  6
Continuous
 62
     0
440
 16777216
100
AcDbMText
 10
0.0000000000000157
 20
-1216.559322358171
 30
0.0
 40
30.0
 41
0.0
 46
0.0
 71
     5
 72
     1
  1
\A1;430
 73
     1
 44
1.0
  0
POINT
  5
1355
330
1299
100
AcDbEntity
  8
DEFPOINTS
  6
Continuous
 62
     0
440
 16777216
100
AcDbPoint
 10
-215.0
 20
-0.000000000000026
 30
0.0
  0
POINT
  5
1356
330
1299
100
AcDbEntity
  8
DEFPOINTS
  6
Continuous
 62
     0
440
 16777216
100
AcDbPoint
 10
215.0000000000002
 20
150.0
 30
0.0
  0
POINT
  5
1357
330
1299
100
AcDbEntity
  8
DEFPOINTS
  6
Continuous
 62
     0
440
 16777216
100
AcDbPoint
 10
215.0000000000001
 20
-1241.559322358171
 30
0.0
  0
ENDBLK
  5
129B
330
1299
100
AcDbEntity
  8
0
100
AcDbBlockEnd
  0
ENDSEC
  0
SECTION
  2
ENTITIES
  0
LINE
  5
40A
330
742
100
AcDbEntity
  8
OUTLINE
  6
Continuous
100
AcDbLine
 10
-33.29999999999977
 20
-0.000000000000004
 30
0.0
 11
33.30000000000023
 21
0.000000000000004
 31
0.0
  0
LINE
  5
40B
330
742
100
AcDbEntity
  8
OUTLINE
  6
Continuous
100
AcDbLine
 10
33.30000000000021
 20
150.0
 30
0.0
 11
33.30000000000023
 21
0.000000000000004
 31
0.0
  0
LINE
  5
40C
330
742
100
AcDbEntity
  8
OUTLINE
  6
Continuous
100
AcDbLine
 10
-33.29999999999979
 20
150.0
 30
0.0
 11
-33.29999999999977
 21
-0.000000000000004
 31
0.0
  0
LINE
  5
40D
330
742
100
AcDbEntity
  8
OUTLINE
  6
Continuous
100
AcDbLine
 10
181.5
 20
-0.000000000000035
 30
0.0
 11
108.5
 21
0.000000000000013
 31
0.0
  0
LINE
  5
40E
330
742
100
AcDbEntity
  8
OUTLINE
  6
Continuous
100
AcDbLine
 10
108.5
 20
150.0
 30
0.0
 11
108.5
 21
0.000000000000013
 31
0.0
  0
LINE
  5
40F
330
742
100
AcDbEntity
  8
OUTLINE
  6
Continuous
100
AcDbLine
 10
181.5
 20
150.0
 30
0.0
 11
181.5
 21
-0.000000000000035
 31
0.0
  0
LINE
  5
410
330
742
100
AcDbEntity
  8
OUTLINE
  6
Continuous
100
AcDbLine
 10
-108.4999999999997
 20
150.0
 30
0.0
 11
-108.4999999999997
 21
-0.000000000000013
 31
0.0
  0
LINE
  5
411
330
742
100
AcDbEntity
  8
OUTLINE
  6
Continuous
100
AcDbLine
 10
-181.4999999999998
 20
150.0
 30
0.0
 11
-181.4999999999997
 21
-0.000000000000022
 31
0.0
  0
LINE
  5
412
330
742
100
AcDbEntity
  8
OUTLINE
  6
Continuous
100
AcDbLine
 10
215.0
 20
2150.0
 30
0.0
 11
215.0000000000002
 21
150.0
 31
0.0
  0
LINE
  5
413
330
742
100
AcDbEntity
  8
OUTLINE
  6
Continuous
100
AcDbLine
 10
-214.9999999999999
 20
150.0
 30
0.0
 11
-215.0000000000001
 21
2150.0
 31
0.0
  0
LINE
  5
414
330
742
100
AcDbEntity
  8
OUTLINE
  6
Continuous
100
AcDbLine
 10
-215.0000000000001
 20
2150.0
 30
0.0
 11
215.0
 21
2150.0
 31
0.0
  0
LINE
  5
415
330
742
100
AcDbEntity
  8
OUTLINE
  6
Continuous
100
AcDbLine
 10
-214.9999999999999
 20
150.0
 30
0.0
 11
215.0000000000002
 21
150.0
 31
0.0
  0
LINE
  5
416
330
742
100
AcDbEntity
  8
OUTLINE
  6
Continuous
100
AcDbLine
 10
-181.4999999999997
 20
-0.000000000000022
 30
0.0
 11
-108.4999999999997
 21
-0.000000000000013
 31
0.0
  0
LINE
  5
417
330
742
100
AcDbEntity
  8
OUTLINE
  6
DASHED
100
AcDbLine
 10
-215.0
 20
350.0
 30
0.0
 11
215.0000000000002
 21
350.0
 31
0.0
  0
LINE
  5
418
330
742
100
AcDbEntity
  8
DETAIL
  6
Continuous
100
AcDbLine
 10
176.9000000000002
 20
3.199999999999998
 30
0.0
 11
176.9000000000002
 21
6.399999999999987
 31
0.0
  0
LINE
  5
419
330
742
100
AcDbEntity
  8
DETAIL
  6
Continuous
100
AcDbLine
 10
113.1000000000002
 20
6.399999999999987
 30
0.0
 11
113.1000000000002
 21
3.199999999999998
 31
0.0
  0
LINE
  5
41A
330
742
100
AcDbEntity
  8
DETAIL
  6
Continuous
100
AcDbLine
 10
125.8000000000002
 20
8.399999999999986
 30
0.0
 11
126.6551414488002
 21
18.17431148549998
 31
0.0
  0
LINE
  5
41B
330
742
100
AcDbEntity
  8
DETAIL
  6
Continuous
100
AcDbLine
 10
125.8000000000002
 20
6.399999999999987
 30
0.0
 11
125.8000000000002
 21
8.399999999999986
 31
0.0
  0
LINE
  5
41C
330
742
100
AcDbEntity
  8
DETAIL
  6
Continuous
100
AcDbLine
 10
161.3524691551002
 20
20.00000000000001
 30
0.0
 11
128.6475308450002
 21
20.00000000000001
 31
0.0
  0
LINE
  5
41D
330
742
100
AcDbEntity
  8
DETAIL
  6
Continuous
100
AcDbLine
 10
113.1000000000002
 20
6.399999999999987
 30
0.0
 11
176.9000000000002
 21
6.399999999999987
 31
0.0
  0
LINE
  5
41E
330
742
100
AcDbEntity
  8
DETAIL
  6
Continuous
100
AcDbLine
 10
113.1000000000002
 20
3.199999999999998
 30
0.0
 11
176.9000000000002
 21
3.199999999999998
 31
0.0
  0
LINE
  5
41F
330
742
100
AcDbEntity
  8
DETAIL
  6
Continuous
100
AcDbLine
 10
164.2000000000002
 20
8.399999999999986
 30
0.0
 11
164.2000000000002
 21
6.399999999999987
 31
0.0
  0
LINE
  5
420
330
742
100
AcDbEntity
  8
DETAIL
  6
Continuous
100
AcDbLine
 10
163.3448585513002
 20
18.17431148549998
 30
0.0
 11
164.2000000000002
 21
8.399999999999986
 31
0.0
  0
ARC
  5
421
330
742
100
AcDbEntity
  8
DETAIL
  6
Continuous
100
AcDbCircle
 10
128.6475308450002
 20
18.0
 30
0.0
 40
2.0
100
AcDbArc
 50
90.0
 51
175.0000000000002
  0
ARC
  5
422
330
742
100
AcDbEntity
  8
DETAIL
  6
Continuous
100
AcDbCircle
 10
161.3524691551002
 20
18.0
 30
0.0
 40
2.000000000000019
100
AcDbArc
 50
4.999999999999743
 51
90.0
  0
LINE
  5
423
330
742
100
AcDbEntity
  8
DETAIL
  6
Continuous
100
AcDbLine
 10
-176.8999999999998
 20
6.399999999999987
 30
0.0
 11
-176.8999999999998
 21
3.199999999999998
 31
0.0
  0
LINE
  5
424
330
742
100
AcDbEntity
  8
DETAIL
  6
Continuous
100
AcDbLine
 10
-164.1999999999997
 20
8.399999999999986
 30
0.0
 11
-163.3448585511998
 21
18.17431148549998
 31
0.0
  0
LINE
  5
425
330
742
100
AcDbEntity
  8
DETAIL
  6
Continuous
100
AcDbLine
 10
-164.1999999999997
 20
6.399999999999987
 30
0.0
 11
-164.1999999999997
 21
8.399999999999986
 31
0.0
  0
LINE
  5
426
330
742
100
AcDbEntity
  8
DETAIL
  6
Continuous
100
AcDbLine
 10
-128.6475308448998
 20
20.00000000000001
 30
0.0
 11
-161.3524691549998
 21
20.00000000000001
 31
0.0
  0
LINE
  5
427
330
742
100
AcDbEntity
  8
DETAIL
  6
Continuous
100
AcDbLine
 10
-176.8999999999998
 20
6.399999999999987
 30
0.0
 11
-113.0999999999997
 21
6.399999999999987
 31
0.0
  0
LINE
  5
428
330
742
100
AcDbEntity
  8
DETAIL
  6
Continuous
100
AcDbLine
 10
-176.8999999999998
 20
3.199999999999998
 30
0.0
 11
-113.0999999999997
 21
3.199999999999998
 31
0.0
  0
LINE
  5
429
330
742
100
AcDbEntity
  8
DETAIL
  6
Continuous
100
AcDbLine
 10
-125.7999999999998
 20
8.399999999999986
 30
0.0
 11
-125.7999999999998
 21
6.399999999999987
 31
0.0
  0
LINE
  5
42A
330
742
100
AcDbEntity
  8
DETAIL
  6
Continuous
100
AcDbLine
 10
-126.6551414486998
 20
18.17431148549998
 30
0.0
 11
-125.7999999999998
 21
8.399999999999986
 31
0.0
  0
LINE
  5
42B
330
742
100
AcDbEntity
  8
DETAIL
  6
Continuous
100
AcDbLine
 10
-113.0999999999997
 20
3.199999999999998
 30
0.0
 11
-113.0999999999997
 21
6.399999999999987
 31
0.0
  0
ARC
  5
42C
330
742
100
AcDbEntity
  8
DETAIL
  6
Continuous
100
AcDbCircle
 10
-161.3524691549998
 20
18.0
 30
0.0
 40
2.0
100
AcDbArc
 50
90.0
 51
175.0000000000002
  0
ARC
  5
42D
330
742
100
AcDbEntity
  8
DETAIL
  6
Continuous
100
AcDbCircle
 10
-128.6475308448998
 20
18.0
 30
0.0
 40
2.000000000000019
100
AcDbArc
 50
4.999999999999743
 51
90.0
  0
ARC
  5
42E
330
742
100
AcDbEntity
  8
DETAIL
  6
Continuous
100
AcDbCircle
 10
-75.49999999999998
 20
2078.0
 30
0.0
 40
13.0
100
AcDbArc
 50
270.0
 51
0.0
  0
ARC
  5
42F
330
742
100
AcDbEntity
  8
DETAIL
  6
Continuous
100
AcDbCircle
 10
-75.50000000000001
 20
2104.0
 30
0.0
 40
13.0
100
AcDbArc
 50
0.0
 51
90.0
  0
ARC
  5
430
330
742
100
AcDbEntity
  8
DETAIL
  6
Continuous
100
AcDbCircle
 10
-79.50000000000001
 20
2084.0
 30
0.0
 40
7.0
100
AcDbArc
 50
270.0
 51
0.0
  0
ARC
  5
431
330
742
100
AcDbEntity
  8
DETAIL
  6
Continuous
100
AcDbCircle
 10
-79.50000000000001
 20
2103.0
 30
0.0
 40
7.0
100
AcDbArc
 50
0.0
 51
90.0
  0
LINE
  5
432
330
742
100
AcDbEntity
  8
DETAIL
  6
Continuous
100
AcDbLine
 10
-62.5
 20
2104.0
 30
0.0
 11
-62.49999999999998
 21
2078.0
 31
0.0
  0
LINE
  5
433
330
742
100
AcDbEntity
  8
DETAIL
  6
Continuous
100
AcDbLine
 10
-72.50000000000001
 20
2103.0
 30
0.0
 11
-72.49999999999999
 21
2084.0
 31
0.0
  0
LINE
  5
434
330
742
100
AcDbEntity
  8
DETAIL
  6
Continuous
100
AcDbLine
 10
-75.50000000000003
 20
2117.0
 30
0.0
 11
-154.5
 21
2117.0
 31
0.0
  0
LINE
  5
435
330
742
100
AcDbEntity
  8
DETAIL
  6
Continuous
100
AcDbLine
 10
-79.50000000000001
 20
2110.0
 30
0.0
 11
-150.5
 21
2110.0
 31
0.0
  0
LINE
  5
436
330
742
100
AcDbEntity
  8
DETAIL
  6
Continuous
100
AcDbLine
 10
-79.50000000000001
 20
2077.0
 30
0.0
 11
-150.5
 21
2077.0
 31
0.0
  0
LINE
  5
437
330
742
100
AcDbEntity
  8
DETAIL
  6
Continuous
100
AcDbLine
 10
-75.49999999999998
 20
2065.0
 30
0.0
 11
-154.5
 21
2065.0
 31
0.0
  0
ARC
  5
438
330
742
100
AcDbEntity
  8
DETAIL
  6
Continuous
100
AcDbCircle
 10
-154.5
 20
2078.0
 30
0.0
 40
13.0
100
AcDbArc
 50
180.0
 51
270.0
  0
ARC
  5
439
330
742
100
AcDbEntity
  8
DETAIL
  6
Continuous
100
AcDbCircle
 10
-154.5
 20
2104.0
 30
0.0
 40
13.0
100
AcDbArc
 50
90.0
 51
180.0
  0
ARC
  5
43A
330
742
100
AcDbEntity
  8
DETAIL
  6
Continuous
100
AcDbCircle
 10
-150.5
 20
2103.0
 30
0.0
 40
7.0
100
AcDbArc
 50
90.0
 51
180.0
  0
LINE
  5
43B
330
742
100
AcDbEntity
  8
DETAIL
  6
Continuous
100
AcDbLine
 10
-167.5
 20
2104.0
 30
0.0
 11
-167.5
 21
2078.0
 31
0.0
  0
ARC
  5
43C
330
742
100
AcDbEntity
  8
DETAIL
  6
Continuous
100
AcDbCircle
 10
-150.5
 20
2084.0
 30
0.0
 40
7.0
100
AcDbArc
 50
180.0
 51
270.0
  0
LINE
  5
43D
330
742
100
AcDbEntity
  8
DETAIL
  6
Continuous
100
AcDbLine
 10
-157.5
 20
2103.0
 30
0.0
 11
-157.5
 21
2084.0
 31
0.0
  0
LINE
  5
43E
330
742
100
AcDbEntity
  8
DETAIL
  6
Continuous
100
AcDbLine
 10
157.5
 20
2103.0
 30
0.0
 11
157.5
 21
2084.0
 31
0.0
  0
ARC
  5
43F
330
742
100
AcDbEntity
  8
DETAIL
  6
Continuous
100
AcDbCircle
 10
150.5
 20
2084.0
 30
0.0
 40
7.0
100
AcDbArc
 50
270.0
 51
0.0
  0
LINE
  5
440
330
742
100
AcDbEntity
  8
DETAIL
  6
Continuous
100
AcDbLine
 10
167.5
 20
2104.0
 30
0.0
 11
167.5
 21
2078.0
 31
0.0
  0
ARC
  5
441
330
742
100
AcDbEntity
  8
DETAIL
  6
Continuous
100
AcDbCircle
 10
150.5
 20
2103.0
 30
0.0
 40
7.0
100
AcDbArc
 50
0.0
 51
90.0
  0
ARC
  5
442
330
742
100
AcDbEntity
  8
DETAIL
  6
Continuous
100
AcDbCircle
 10
154.5
 20
2104.0
 30
0.0
 40
13.0
100
AcDbArc
 50
0.0
 51
90.0
  0
ARC
  5
443
330
742
100
AcDbEntity
  8
DETAIL
  6
Continuous
100
AcDbCircle
 10
154.5
 20
2078.0
 30
0.0
 40
13.0
100
AcDbArc
 50
270.0
 51
0.0
  0
LINE
  5
444
330
742
100
AcDbEntity
  8
DETAIL
  6
Continuous
100
AcDbLine
 10
75.49999999999998
 20
2065.0
 30
0.0
 11
154.5
 21
2065.0
 31
0.0
  0
LINE
  5
445
330
742
100
AcDbEntity
  8
DETAIL
  6
Continuous
100
AcDbLine
 10
79.50000000000001
 20
2077.0
 30
0.0
 11
150.5
 21
2077.0
 31
0.0
  0
LINE
  5
446
330
742
100
AcDbEntity
  8
DETAIL
  6
Continuous
100
AcDbLine
 10
79.50000000000001
 20
2110.0
 30
0.0
 11
150.5
 21
2110.0
 31
0.0
  0
LINE
  5
447
330
742
100
AcDbEntity
  8
DETAIL
  6
Continuous
100
AcDbLine
 10
75.50000000000003
 20
2117.0
 30
0.0
 11
154.5
 21
2117.0
 31
0.0
  0
LINE
  5
448
330
742
100
AcDbEntity
  8
DETAIL
  6
Continuous
100
AcDbLine
 10
72.50000000000001
 20
2103.0
 30
0.0
 11
72.49999999999999
 21
2084.0
 31
0.0
  0
LINE
  5
449
330
742
100
AcDbEntity
  8
DETAIL
  6
Continuous
100
AcDbLine
 10
62.50000000000002
 20
2104.0
 30
0.0
 11
62.5
 21
2078.0
 31
0.0
  0
ARC
  5
44A
330
742
100
AcDbEntity
  8
DETAIL
  6
Continuous
100
AcDbCircle
 10
79.50000000000001
 20
2103.0
 30
0.0
 40
7.0
100
AcDbArc
 50
90.0
 51
180.0
  0
ARC
  5
44B
330
742
100
AcDbEntity
  8
DETAIL
  6
Continuous
100
AcDbCircle
 10
79.50000000000001
 20
2084.0
 30
0.0
 40
7.000000000000023
100
AcDbArc
 50
180.0
 51
270.0
  0
ARC
  5
44C
330
742
100
AcDbEntity
  8
DETAIL
  6
Continuous
100
AcDbCircle
 10
75.50000000000001
 20
2104.0
 30
0.0
 40
13.00000000000023
100
AcDbArc
 50
90.0
 51
180.0
  0
ARC
  5
44D
330
742
100
AcDbEntity
  8
DETAIL
  6
Continuous
100
AcDbCircle
 10
75.49999999999998
 20
2078.0
 30
0.0
 40
13.0
100
AcDbArc
 50
180.0
 51
270.0
  0
LINE
  5
480
330
742
100
AcDbEntity
  8
DETAIL
  6
DASHED
100
AcDbLine
 10
42.15000000000021
 20
301.0
 30
0.0
 11
63.85000000000019
 21
301.0
 31
0.0
  0
LINE
  5
481
330
742
100
AcDbEntity
  8
DETAIL
  6
DASHED
100
AcDbLine
 10
63.85000000000019
 20
301.0
 30
0.0
 11
63.85000000000021
 21
350.0
 31
0.0
  0
LINE
  5
482
330
742
100
AcDbEntity
  8
DETAIL
  6
DASHED
100
AcDbLine
 10
42.15000000000021
 20
301.0
 30
0.0
 11
42.15000000000014
 21
350.0
 31
0.0
  0
LINE
  5
483
330
742
100
AcDbEntity
  8
DETAIL
  6
DASHED
100
AcDbLine
 10
-156.1499999999998
 20
301.0
 30
0.0
 11
-156.1499999999998
 21
350.0
 31
0.0
  0
LINE
  5
484
330
742
100
AcDbEntity
  8
DETAIL
  6
DASHED
100
AcDbLine
 10
-177.8499999999998
 20
301.0
 30
0.0
 11
-156.1499999999998
 21
301.0
 31
0.0
  0
LINE
  5
485
330
742
100
AcDbEntity
  8
DETAIL
  6
DASHED
100
AcDbLine
 10
-177.8499999999998
 20
301.0
 30
0.0
 11
-177.8499999999999
 21
350.0
 31
0.0
  0
LINE
  5
486
330
742
100
AcDbEntity
  8
DETAIL
  6
DASHED
100
AcDbLine
 10
-96.1499999999998
 20
301.0
 30
0.0
 11
-96.1499999999998
 21
350.0
 31
0.0
  0
LINE
  5
487
330
742
100
AcDbEntity
  8
DETAIL
  6
DASHED
100
AcDbLine
 10
-117.8499999999998
 20
301.0
 30
0.0
 11
-96.1499999999998
 21
301.0
 31
0.0
  0
LINE
  5
488
330
742
100
AcDbEntity
  8
DETAIL
  6
DASHED
100
AcDbLine
 10
-117.8499999999998
 20
301.0
 30
0.0
 11
-117.8499999999998
 21
350.0
 31
0.0
  0
LINE
  5
489
330
742
100
AcDbEntity
  8
DETAIL
  6
DASHED
100
AcDbLine
 10
134.1500000000002
 20
301.0
 30
0.0
 11
134.1500000000002
 21
350.0
 31
0.0
  0
LINE
  5
48A
330
742
100
AcDbEntity
  8
DETAIL
  6
DASHED
100
AcDbLine
 10
155.8500000000002
 20
301.0
 30
0.0
 11
155.8500000000002
 21
350.0
 31
0.0
  0
LINE
  5
48B
330
742
100
AcDbEntity
  8
DETAIL
  6
DASHED
100
AcDbLine
 10
134.1500000000002
 20
301.0
 30
0.0
 11
155.8500000000002
 21
301.0
 31
0.0
  0
LINE
  5
48C
330
742
100
AcDbEntity
  8
DETAIL
100
AcDbLine
 10
-20.39999999999979
 20
250.0
 30
0.0
 11
-20.39999999999981
 21
350.0
 31
0.0
  0
LINE
  5
48D
330
742
100
AcDbEntity
  8
DETAIL
100
AcDbLine
 10
-47.5999999999998
 20
250.0
 30
0.0
 11
-47.59999999999993
 21
350.0
 31
0.0
  0
LINE
  5
48E
330
742
100
AcDbEntity
  8
DETAIL
100
AcDbLine
 10
-47.5999999999998
 20
250.0
 30
0.0
 11
-20.39999999999981
 21
250.0
 31
0.0
  0
LINE
  5
48F
330
742
100
AcDbEntity
  8
DETAIL
  6
DASHED
100
AcDbLine
 10
40.60000000000019
 20
301.0
 30
0.0
 11
40.60000000000019
 21
350.0
 31
0.0
  0
LINE
  5
490
330
742
100
AcDbEntity
  8
DETAIL
  6
DASHED
100
AcDbLine
 10
13.4000000000002
 20
301.0
 30
0.0
 11
13.40000000000012
 21
350.0
 31
0.0
  0
LINE
  5
491
330
742
100
AcDbEntity
  8
DETAIL
  6
DASHED
100
AcDbLine
 10
13.4000000000002
 20
301.0
 30
0.0
 11
40.60000000000019
 21
301.0
 31
0.0
  0
LINE
  5
492
330
742
100
AcDbEntity
  8
DETAIL
  6
Continuous
100
AcDbLine
 10
108.4999999999999
 20
150.0
 30
0.0
 11
108.5
 21
0.000000000000013
 31
0.0
  0
LINE
  5
493
330
742
100
AcDbEntity
  8
DETAIL
  6
Continuous
100
AcDbLine
 10
-33.29999999999977
 20
-0.000000000000004
 30
0.0
 11
33.30000000000023
 21
0.000000000000004
 31
0.0
  0
LINE
  5
494
330
742
100
AcDbEntity
  8
DETAIL
  6
Continuous
100
AcDbLine
 10
33.30000000000021
 20
150.0
 30
0.0
 11
33.30000000000023
 21
0.000000000000004
 31
0.0
  0
LINE
  5
495
330
742
100
AcDbEntity
  8
DETAIL
  6
Continuous
100
AcDbLine
 10
-33.29999999999979
 20
150.0
 30
0.0
 11
-33.29999999999977
 21
-0.000000000000004
 31
0.0
  0
LINE
  5
496
330
742
100
AcDbEntity
  8
DETAIL
  6
Continuous
100
AcDbLine
 10
151.8
 20
2153.2
 30
0.0
 11
151.8
 21
2150.0
 31
0.0
  0
LINE
  5
497
330
742
100
AcDbEntity
  8
DETAIL
  6
Continuous
100
AcDbLine
 10
223.0
 20
2153.2
 30
0.0
 11
361.8
 21
2153.2
 31
0.0
  0
LINE
  5
498
330
742
100
AcDbEntity
  8
DETAIL
  6
Continuous
100
AcDbLine
 10
223.0
 20
2150.0
 30
0.0
 11
365.0
 21
2150.0
 31
0.0
  0
LINE
  5
499
330
742
100
AcDbEntity
  8
DETAIL
  6
Continuous
100
AcDbLine
 10
361.8
 20
2153.2
 30
0.0
 11
361.8
 21
2195.0
 31
0.0
  0
LINE
  5
49A
330
742
100
AcDbEntity
  8
DETAIL
  6
Continuous
100
AcDbLine
 10
365.0
 20
2150.0
 30
0.0
 11
365.0
 21
2195.0
 31
0.0
  0
LINE
  5
49B
330
742
100
AcDbEntity
  8
DETAIL
  6
Continuous
100
AcDbLine
 10
365.0
 20
2150.0
 30
0.0
 11
365.0
 21
2195.0
 31
0.0
  0
LINE
  5
49C
330
742
100
AcDbEntity
  8
DETAIL
  6
Continuous
100
AcDbLine
 10
361.8
 20
2153.2
 30
0.0
 11
361.8
 21
2195.0
 31
0.0
  0
LINE
  5
49D
330
742
100
AcDbEntity
  8
DETAIL
  6
Continuous
100
AcDbLine
 10
361.8
 20
2195.0
 30
0.0
 11
365.0
 21
2195.0
 31
0.0
  0
LINE
  5
49E
330
742
100
AcDbEntity
  8
DETAIL
  6
Continuous
100
AcDbLine
 10
223.0
 20
2150.0
 30
0.0
 11
365.0
 21
2150.0
 31
0.0
  0
LINE
  5
49F
330
742
100
AcDbEntity
  8
DETAIL
  6
Continuous
100
AcDbLine
 10
151.8
 20
2153.2
 30
0.0
 11
361.8
 21
2153.2
 31
0.0
  0
LINE
  5
4A0
330
742
100
AcDbEntity
  8
DETAIL
  6
Continuous
100
AcDbLine
 10
-181.4999999999997
 20
-0.000000000000022
 30
0.0
 11
-108.4999999999997
 21
-0.000000000000013
 31
0.0
  0
LINE
  5
4A2
330
742
100
AcDbEntity
  8
DETAIL
  6
Continuous
100
AcDbLine
 10
-215.0000000000001
 20
2150.0
 30
0.0
 11
215.0
 21
2150.0
 31
0.0
  0
LINE
  5
4A3
330
742
100
AcDbEntity
  8
DETAIL
  6
Continuous
100
AcDbLine
 10
-214.9999999999999
 20
150.0
 30
0.0
 11
-215.0000000000001
 21
2150.0
 31
0.0
  0
LINE
  5
4A4
330
742
100
AcDbEntity
  8
DETAIL
  6
Continuous
100
AcDbLine
 10
215.0
 20
2150.0
 30
0.0
 11
215.0000000000002
 21
150.0
 31
0.0
  0
LINE
  5
4A5
330
742
100
AcDbEntity
  8
DETAIL
  6
Continuous
100
AcDbLine
 10
-181.4999999999998
 20
150.0
 30
0.0
 11
-181.4999999999997
 21
-0.000000000000022
 31
0.0
  0
LINE
  5
4A6
330
742
100
AcDbEntity
  8
DETAIL
  6
Continuous
100
AcDbLine
 10
-108.4999999999997
 20
150.0
 30
0.0
 11
-108.4999999999997
 21
-0.000000000000013
 31
0.0
  0
LINE
  5
4A7
330
742
100
AcDbEntity
  8
DETAIL
  6
Continuous
100
AcDbLine
 10
181.5
 20
150.0
 30
0.0
 11
181.5
 21
-0.000000000000035
 31
0.0
  0
LINE
  5
4A8
330
742
100
AcDbEntity
  8
DETAIL
  6
Continuous
100
AcDbLine
 10
181.5
 20
-0.000000000000035
 30
0.0
 11
108.5
 21
0.000000000000013
 31
0.0
  0
LINE
  5
4A9
330
742
100
AcDbEntity
  8
DETAIL
  6
Continuous
100
AcDbLine
 10
-215.0000000000001
 20
2124.0
 30
0.0
 11
215.0
 21
2124.0
 31
0.0
  0
LINE
  5
4AA
330
742
100
AcDbEntity
  8
DETAIL
  6
DASHED
100
AcDbLine
 10
-215.0
 20
350.0
 30
0.0
 11
215.0000000000002
 21
350.0
 31
0.0
  0
LINE
  5
4AB
330
742
100
AcDbEntity
  8
BASIS
  6
DASHDOT
100
AcDbLine
 10
-0.000000000000003
 20
2200.0
 30
0.0
 11
0.000000000000242
 21
-50.0
 31
0.0
  0
TEXT
  5
5E2
330
742
100
AcDbEntity
  8
NOTE
  6
Continuous
100
AcDbText
 10
-808.6118124594943
 20
-501.3251426891783
 30
0.0
 40
40.0
  1
[4-L型座金(同梱部品)]
 50
0.000002504478167
 41
0.7386363744735723
  7
STANDARD1
100
AcDbText
  0
TEXT
  5
5E3
330
742
100
AcDbEntity
  8
NOTE
  6
Continuous
100
AcDbText
 10
-113.4134063720703
 20
2598.1669921875
 30
0.0
 40
40.0
  1
(別売部品)
 50
0.000002504478167
 41
0.775735301129958
  7
STANDARD1
100
AcDbText
  0
LINE
  5
5E4
330
742
100
AcDbEntity
  8
NOTE
  6
Continuous
100
AcDbLine
 10
68.00000000000029
 20
130.0000000000012
 30
0.0
 11
68.00000000000029
 21
90.00000000000133
 31
0.0
  0
LINE
  5
5E5
330
742
100
AcDbEntity
  8
NOTE
  6
Continuous
100
AcDbLine
 10
88.00000000000016
 20
110.0000000000014
 30
0.0
 11
48.00000000000029
 21
110.0000000000014
 31
0.0
  0
LINE
  5
5E6
330
742
100
AcDbEntity
  8
NOTE
  6
Continuous
100
AcDbLine
 10
145.0000000000002
 20
281.0
 30
0.0
 11
145.0000000000002
 21
321.0
 31
0.0
  0
LINE
  5
5E7
330
742
100
AcDbEntity
  8
NOTE
  6
Continuous
100
AcDbLine
 10
165.0000000000002
 20
301.0
 30
0.0
 11
125.0000000000002
 21
301.0
 31
0.0
  0
LINE
  5
5E8
330
742
100
AcDbEntity
  8
NOTE
  6
Continuous
100
AcDbLine
 10
73.00000000000018
 20
301.0
 30
0.0
 11
33.00000000000018
 21
301.0
 31
0.0
  0
LINE
  5
5E9
330
742
100
AcDbEntity
  8
NOTE
  6
Continuous
100
AcDbLine
 10
53.00000000000018
 20
281.0
 30
0.0
 11
53.00000000000018
 21
321.0
 31
0.0
  0
LINE
  5
5EA
330
742
100
AcDbEntity
  8
NOTE
  6
Continuous
100
AcDbLine
 10
-146.9999999999998
 20
301.0
 30
0.0
 11
-186.9999999999998
 21
301.0
 31
0.0
  0
LINE
  5
5EB
330
742
100
AcDbEntity
  8
NOTE
  6
Continuous
100
AcDbLine
 10
-166.9999999999998
 20
281.0
 30
0.0
 11
-166.9999999999998
 21
321.0
 31
0.0
  0
LINE
  5
5EC
330
742
100
AcDbEntity
  8
NOTE
  6
Continuous
100
AcDbLine
 10
-116.9999999999995
 20
102.0000000000013
 30
0.0
 11
-116.9999999999995
 21
142.0000000000013
 31
0.0
  0
LINE
  5
5ED
330
742
100
AcDbEntity
  8
NOTE
  6
Continuous
100
AcDbLine
 10
-136.9999999999995
 20
122.0000000000013
 30
0.0
 11
-96.99999999999953
 21
122.0000000000013
 31
0.0
  0
LINE
  5
5EE
330
742
100
AcDbEntity
  8
NOTE
  6
Continuous
100
AcDbLine
 10
131.0000000000001
 20
350.0
 30
0.0
 11
91.0000000000002
 21
350.0
 31
0.0
  0
LINE
  5
5EF
330
742
100
AcDbEntity
  8
NOTE
  6
Continuous
100
AcDbLine
 10
111.0000000000002
 20
330.0
 30
0.0
 11
111.0000000000002
 21
370.0
 31
0.0
  0
LINE
  5
5F0
330
742
100
AcDbEntity
  8
NOTE
  6
Continuous
100
AcDbLine
 10
198.0000000000001
 20
350.0
 30
0.0
 11
158.0000000000001
 21
350.0
 31
0.0
  0
LINE
  5
5F1
330
742
100
AcDbEntity
  8
NOTE
  6
Continuous
100
AcDbLine
 10
178.0000000000002
 20
330.0
 30
0.0
 11
178.0000000000001
 21
370.0
 31
0.0
  0
LINE
  5
5F2
330
742
100
AcDbEntity
  8
NOTE
  6
Continuous
100
AcDbLine
 10
47.00000000000018
 20
301.0
 30
0.0
 11
7.000000000000191
 21
301.0
 31
0.0
  0
LINE
  5
5F3
330
742
100
AcDbEntity
  8
NOTE
  6
Continuous
100
AcDbLine
 10
27.0000000000002
 20
281.0
 30
0.0
 11
27.00000000000019
 21
321.0
 31
0.0
  0
LINE
  5
5F4
330
742
100
AcDbEntity
  8
NOTE
  6
Continuous
100
AcDbLine
 10
-106.9999999999998
 20
281.0
 30
0.0
 11
-106.9999999999998
 21
321.0
 31
0.0
  0
LINE
  5
5F5
330
742
100
AcDbEntity
  8
NOTE
  6
Continuous
100
AcDbLine
 10
-86.99999999999981
 20
301.0
 30
0.0
 11
-126.9999999999998
 21
301.0
 31
0.0
  0
LINE
  5
5F6
330
742
100
AcDbEntity
  8
NOTE
  6
Continuous
100
AcDbLine
 10
-13.9999999999996
 20
250.0
 30
0.0
 11
-53.9999999999996
 21
250.0
 31
0.0
  0
LINE
  5
5F7
330
742
100
AcDbEntity
  8
NOTE
  6
Continuous
100
AcDbLine
 10
-33.9999999999996
 20
228.0
 30
0.0
 11
-33.9999999999996
 21
268.0
 31
0.0
  0
LINE
  5
5F8
330
742
100
AcDbEntity
  8
NOTE
  6
Continuous
100
AcDbLine
 10
-169.25
 20
2650.0
 30
0.0
 11
215.0
 21
2650.0
 31
0.0
  0
LINE
  5
5F9
330
742
100
AcDbEntity
  8
NOTE
  6
Continuous
100
AcDbLine
 10
215.0
 20
2650.0
 30
0.0
 11
292.3999938964844
 21
2153.199951171875
 31
0.0
  0
LINE
  5
5FA
330
742
100
AcDbEntity
  8
NOTE
  6
Continuous
100
AcDbLine
 10
292.3999938964844
 20
2153.199951171875
 30
0.0
 11
291.5911366871485
 21
2155.029090317731
 31
0.0
  0
LINE
  5
5FB
330
742
100
AcDbEntity
  8
NOTE
  6
Continuous
100
AcDbLine
 10
292.3999938964844
 20
2153.199951171875
 30
0.0
 11
292.6140726070672
 21
2155.188460740792
 31
0.0
  0
TEXT
  5
5FC
330
742
100
AcDbEntity
  8
NOTE
  6
Continuous
100
AcDbText
 10
-169.25
 20
2651.0
 30
0.0
 40
40.0
  1
上部振れ止め金具
 50
359.9999888440998
 41
0.84375
  7
STANDARD1
100
AcDbText
  0
LINE
  5
5FD
330
742
100
AcDbEntity
  8
NOTE
  6
Continuous
100
AcDbLine
 10
721.25
 20
2500.0
 30
0.0
 11
465.0
 21
2500.0
 31
0.0
  0
LINE
  5
5FE
330
742
100
AcDbEntity
  8
NOTE
  6
Continuous
100
AcDbLine
 10
465.0
 20
2500.0
 30
0.0
 11
364.9999694824217
 21
2173.0
 31
0.0
  0
LINE
  5
5FF
330
742
100
AcDbEntity
  8
NOTE
  6
Continuous
100
AcDbLine
 10
364.9999694824217
 20
2173.0
 30
0.0
 11
365.0699143433292
 21
2174.998776554904
 31
0.0
  0
LINE
  5
600
330
742
100
AcDbEntity
  8
NOTE
  6
Continuous
100
AcDbLine
 10
364.9999694824217
 20
2173.0
 30
0.0
 11
366.0599318109955
 21
2174.696018827138
 31
0.0
  0
TEXT
  5
601
330
742
100
AcDbEntity
  8
NOTE
  6
Continuous
100
AcDbText
 10
525.75
 20
2501.0
 30
0.0
 40
40.0
  1
AH 2-M10
 50
0.000002504478167
 41
0.6447368672019561
  7
STANDARD1
100
AcDbText
  0
LINE
  5
603
330
742
100
AcDbEntity
  8
NOTE
  6
Continuous
100
AcDbLine
 10
315.0
 20
-450.0
 30
0.0
 11
68.00000000000007
 21
110.0000000000014
 31
0.0
  0
LINE
  5
604
330
742
100
AcDbEntity
  8
NOTE
  6
Continuous
100
AcDbLine
 10
68.00000000000007
 20
110.0000000000014
 30
0.0
 11
69.24438360476398
 21
108.4342703157344
 31
0.0
  0
LINE
  5
605
330
742
100
AcDbEntity
  8
NOTE
  6
Continuous
100
AcDbLine
 10
68.00000000000007
 20
110.0000000000014
 30
0.0
 11
68.29480294282237
 21
108.0218465112894
 31
0.0
  0
TEXT
  5
606
330
742
100
AcDbEntity
  8
NOTE
  6
Continuous
100
AcDbText
 10
-524.2516822029426
 20
-347.7362113584741
 30
0.0
 40
40.0
  1
D φ18
 50
0.000029825234847
 41
0.7213541865348822
  7
STANDARD1
100
AcDbText
  0
LINE
  5
607
330
742
100
AcDbEntity
  8
NOTE
  6
Continuous
100
AcDbLine
 10
1123.25
 20
-250.0
 30
0.0
 11
315.0
 21
-250.0
 31
0.0
  0
LINE
  5
608
330
742
100
AcDbEntity
  8
NOTE
  6
Continuous
100
AcDbLine
 10
315.0
 20
-250.0
 30
0.0
 11
53.0
 21
301.0
 31
0.0
  0
LINE
  5
609
330
742
100
AcDbEntity
  8
NOTE
  6
Continuous
100
AcDbLine
 10
53.0
 20
301.0
 30
0.0
 11
54.2970648903422
 21
299.4776259755757
 31
0.0
  0
LINE
  5
60A
330
742
100
AcDbEntity
  8
NOTE
  6
Continuous
100
AcDbLine
 10
53.0
 20
301.0
 30
0.0
 11
53.36210410452181
 21
299.0330529703399
 31
0.0
  0
TEXT
  5
60B
330
742
100
AcDbEntity
  8
NOTE
  6
Continuous
100
AcDbText
 10
375.75
 20
-249.0
 30
0.0
 40
40.0
  1
ヒートポンプ配管口(A) R1/2(φ21.7)
 50
0.000002504478167
 41
0.7304687630385161
  7
STANDARD1
100
AcDbText
  0
LINE
  5
60C
330
742
100
AcDbEntity
  8
NOTE
  6
Continuous
100
AcDbLine
 10
1123.25
 20
-150.0
 30
0.0
 11
311.3123644251627
 21
-150.0
 31
0.0
  0
LINE
  5
60D
330
742
100
AcDbEntity
  8
NOTE
  6
Continuous
100
AcDbLine
 10
311.3123644251626
 20
-150.0
 30
0.0
 11
145.0
 21
301.0
 31
0.0
  0
LINE
  5
60E
330
742
100
AcDbEntity
  8
NOTE
  6
Continuous
100
AcDbLine
 10
145.0
 20
301.0
 30
0.0
 11
146.1540662164786
 21
299.366558489574
 31
0.0
  0
LINE
  5
60F
330
742
100
AcDbEntity
  8
NOTE
  6
Continuous
100
AcDbLine
 10
145.0
 20
301.0
 30
0.0
 11
145.1827298768878
 21
299.0083650454732
 31
0.0
  0
TEXT
  5
610
330
742
100
AcDbEntity
  8
NOTE
  6
Continuous
100
AcDbText
 10
375.75
 20
-149.0
 30
0.0
 40
40.0
  1
ヒートポンプ配管口(B) R1/2(φ21.7)
 50
0.000002504478167
 41
0.7304687630385161
  7
STANDARD1
100
AcDbText
  0
LINE
  5
611
330
742
100
AcDbEntity
  8
NOTE
  6
Continuous
100
AcDbLine
 10
-758.75
 20
-150.0
 30
0.0
 11
-315.0
 21
-150.0
 31
0.0
  0
LINE
  5
612
330
742
100
AcDbEntity
  8
NOTE
  6
Continuous
100
AcDbLine
 10
-315.0
 20
-150.0
 30
0.0
 11
-167.0
 21
301.0
 31
0.0
  0
LINE
  5
613
330
742
100
AcDbEntity
  8
NOTE
  6
Continuous
100
AcDbLine
 10
-167.0
 20
301.0
 30
0.0
 11
-167.1105189466049
 21
299.0030559440882
 31
0.0
  0
LINE
  5
614
330
742
100
AcDbEntity
  8
NOTE
  6
Continuous
100
AcDbLine
 10
-167.0
 20
301.0
 30
0.0
 11
-168.0941842677084
 21
299.3258552068894
 31
0.0
  0
TEXT
  5
615
330
742
100
AcDbEntity
  8
NOTE
  6
Continuous
100
AcDbText
 10
-758.75
 20
-149.000015258789
 30
0.0
 40
40.0
  1
BHR R1/2(φ21.7)
 50
0.000002504478167
 41
0.6478040766071631
  7
STANDARD1
100
AcDbText
  0
LINE
  5
616
330
742
100
AcDbEntity
  8
NOTE
  6
Continuous
100
AcDbLine
 10
-734.25
 20
-250.0
 30
0.0
 11
-315.0
 21
-250.0
 31
0.0
  0
LINE
  5
617
330
742
100
AcDbEntity
  8
NOTE
  6
Continuous
100
AcDbLine
 10
-315.0
 20
-250.0
 30
0.0
 11
-107.0
 21
301.0
 31
0.0
  0
LINE
  5
618
330
742
100
AcDbEntity
  8
NOTE
  6
Continuous
100
AcDbLine
 10
-107.0
 20
301.0
 30
0.0
 11
-107.1979897452464
 21
299.0098241131052
 31
0.0
  0
LINE
  5
619
330
742
100
AcDbEntity
  8
NOTE
  6
Continuous
100
AcDbLine
 10
-107.0
 20
301.0
 30
0.0
 11
-108.16655211619
 21
299.3754520135705
 31
0.0
  0
TEXT
  5
61A
330
742
100
AcDbEntity
  8
NOTE
  6
Continuous
100
AcDbText
 10
-734.25
 20
-249.000015258789
 30
0.0
 40
40.0
  1
BH R1/2(φ21.7)
 50
0.000002504478167
 41
0.6503623413003014
  7
STANDARD1
100
AcDbText
  0
LINE
  5
61C
330
742
100
AcDbEntity
  8
NOTE
  6
Continuous
100
AcDbLine
 10
-315.8823799607244
 20
-350.0
 30
0.0
 11
-116.9999999999998
 21
122.0000000000013
 31
0.0
  0
LINE
  5
61D
330
742
100
AcDbEntity
  8
NOTE
  6
Continuous
100
AcDbLine
 10
-116.9999999999998
 20
122.0000000000013
 30
0.0
 11
-117.1483594294922
 21
120.0055102207143
 31
0.0
  0
LINE
  5
61E
330
742
100
AcDbEntity
  8
NOTE
  6
Continuous
100
AcDbLine
 10
-116.9999999999998
 20
122.0000000000013
 30
0.0
 11
-118.1257279485611
 21
120.3469009146988
 31
0.0
  0
TEXT
  5
61F
330
742
100
AcDbEntity
  8
NOTE
  6
Continuous
100
AcDbText
 10
379.1122837913645
 20
-447.2722871777387
 30
0.0
 40
40.0
  1
WD R3/4(φ27.2)
 50
0.000002504478167
 41
0.6503623413003014
  7
STANDARD1
100
AcDbText
  0
TEXT
  5
620
330
742
100
AcDbEntity
  8
NOTE
  6
Continuous
100
AcDbText
 10
-202.2684783935547
 20
2449.601318359376
 30
0.0
 40
40.0
  1
メンテナンススペース
 50
0.000002504478167
 41
0.84375
  7
STANDARD1
100
AcDbText
  0
LINE
  5
621
330
742
100
AcDbEntity
  8
NOTE
  6
Continuous
100
AcDbLine
 10
385.0
 20
2173.0
 30
0.0
 11
345.0
 21
2173.0
 31
0.0
  0
LINE
  5
622
330
742
100
AcDbEntity
  8
NOTE
  6
Continuous
100
AcDbLine
 10
365.0
 20
2153.0
 30
0.0
 11
365.0
 21
2193.0
 31
0.0
  0
TEXT
  5
623
330
742
100
AcDbEntity
  8
NOTE
  6
Continuous
100
AcDbText
 10
-762.5368447743237
 20
982.6312255859376
 30
0.0
 40
40.0
  1
メンテナンススペース
 50
90.00000500895634
 41
0.84375
  7
STANDARD1
100
AcDbText
  0
LINE
  5
625
330
742
100
AcDbEntity
  8
NOTE
  6
Continuous
100
AcDbLine
 10
-315.0000000000001
 20
-450.0
 30
0.0
 11
-145.0
 21
-0.000000000000018
 31
0.0
  0
LINE
  5
626
330
742
100
AcDbEntity
  8
NOTE
  6
Continuous
100
AcDbLine
 10
-145.0
 20
-0.000000000000018
 30
0.0
 11
-145.1984814701967
 21
-1.990126907005836
 31
0.0
  0
LINE
  5
627
330
742
100
AcDbEntity
  8
NOTE
  6
Continuous
100
AcDbLine
 10
-145.0
 20
-0.000000000000018
 30
0.0
 11
-146.16695347254
 21
-1.62425970612061
 31
0.0
  0
TEXT
  5
628
330
742
100
AcDbEntity
  8
NOTE
  6
Continuous
100
AcDbText
 10
-573.9998844684669
 20
-447.2890980286789
 30
0.0
 40
40.0
  1
AH 4-M12
 50
0.000002504478167
 41
0.6447368672019561
  7
STANDARD1
100
AcDbText
  0
LINE
  5
629
330
742
100
AcDbEntity
  8
NOTE
  6
Continuous
100
AcDbLine
 10
-144.9999999999997
 20
-20.00000000000002
 30
0.0
 11
-144.9999999999997
 21
19.99999999999997
 31
0.0
  0
LINE
  5
62A
330
742
100
AcDbEntity
  8
NOTE
  6
Continuous
100
AcDbLine
 10
-164.9999999999996
 20
-0.00000000000002
 30
0.0
 11
-124.9999999999998
 21
-0.000000000000015
 31
0.0
  0
LINE
  5
62B
330
742
100
AcDbEntity
  8
NOTE
  6
Continuous
100
AcDbLine
 10
165.0
 20
-0.000000000000006
 30
0.0
 11
125.0
 21
-0.000000000000016
 31
0.0
  0
LINE
  5
62C
330
742
100
AcDbEntity
  8
NOTE
  6
Continuous
100
AcDbLine
 10
145.0
 20
-20.00000000000001
 30
0.0
 11
145.0
 21
19.99999999999997
 31
0.0
  0
LINE
  5
62E
330
742
100
AcDbEntity
  8
NOTE
  6
Continuous
100
AcDbLine
 10
314.9999999999999
 20
-350.0
 30
0.0
 11
27.0
 21
301.0
 31
0.0
  0
LINE
  5
62F
330
742
100
AcDbEntity
  8
NOTE
  6
Continuous
100
AcDbLine
 10
27.0
 20
301.0
 30
0.0
 11
28.17504105112304
 21
299.3815814731116
 31
0.0
  0
LINE
  5
630
330
742
100
AcDbEntity
  8
NOTE
  6
Continuous
100
AcDbLine
 10
27.0
 20
301.0
 30
0.0
 11
27.20840610833563
 21
299.0108879131612
 31
0.0
  0
TEXT
  5
631
330
742
100
AcDbEntity
  8
NOTE
  6
Continuous
100
AcDbText
 10
380.1329324151702
 20
-347.5448611140055
 30
0.0
 40
40.0
  1
HW R3/4(φ27.2)
 50
0.000002504478167
 41
0.6503623413003014
  7
STANDARD1
100
AcDbText
  0
LINE
  5
632
330
742
100
AcDbEntity
  8
NOTE
  6
Continuous
100
AcDbLine
 10
666.25
 20
450.0
 30
0.0
 11
313.0
 21
450.0
 31
0.0
  0
LINE
  5
633
330
742
100
AcDbEntity
  8
NOTE
  6
Continuous
100
AcDbLine
 10
313.0
 20
450.0
 30
0.0
 11
178.0
 21
350.0
 31
0.0
  0
LINE
  5
634
330
742
100
AcDbEntity
  8
NOTE
  6
Continuous
100
AcDbLine
 10
178.0
 20
350.0
 30
0.0
 11
179.2442408279532
 21
351.5658431473344
 31
0.0
  0
LINE
  5
635
330
742
100
AcDbEntity
  8
NOTE
  6
Continuous
100
AcDbLine
 10
178.0
 20
350.0
 30
0.0
 11
179.8604657497944
 21
350.7339395028489
 31
0.0
  0
TEXT
  5
636
330
742
100
AcDbEntity
  8
NOTE
  6
Continuous
100
AcDbText
 10
373.75
 20
451.0
 30
0.0
 40
40.0
  1
CL 24×47長穴
 50
0.000002504478167
 41
0.7181372712640201
  7
STANDARD1
100
AcDbText
  0
LINE
  5
637
330
742
100
AcDbEntity
  8
NOTE
  6
Continuous
100
AcDbLine
 10
643.25
 20
550.0
 30
0.0
 11
306.0
 21
550.0
 31
0.0
  0
LINE
  5
638
330
742
100
AcDbEntity
  8
NOTE
  6
Continuous
100
AcDbLine
 10
306.0
 20
550.0
 30
0.0
 11
111.0
 21
350.0
 31
0.0
  0
LINE
  5
639
330
742
100
AcDbEntity
  8
NOTE
  6
Continuous
100
AcDbLine
 10
111.0
 20
350.0
 30
0.0
 11
111.9779969440778
 21
351.7445692813342
 31
0.0
  0
LINE
  5
63A
330
742
100
AcDbEntity
  8
NOTE
  6
Continuous
100
AcDbLine
 10
111.0
 20
350.0
 30
0.0
 11
112.7192548539507
 21
351.021842819208
 31
0.0
  0
TEXT
  5
63B
330
742
100
AcDbEntity
  8
NOTE
  6
Continuous
100
AcDbText
 10
366.75
 20
551.0
 30
0.0
 40
40.0
  1
EL φ26,φ32
 50
0.000002504478167
 41
0.692500019073486
  7
STANDARD1
100
AcDbText
  0
LINE
  5
63D
330
742
100
AcDbEntity
  8
NOTE
  6
Continuous
100
AcDbLine
 10
-299.0000000000001
 20
-600.0
 30
0.0
 11
-33.9999999999998
 21
250.0
 31
0.0
  0
LINE
  5
63E
330
742
100
AcDbEntity
  8
NOTE
  6
Continuous
100
AcDbLine
 10
-33.9999999999998
 20
250.0
 30
0.0
 11
-34.28177133246845
 21
248.0199482541612
 31
0.0
  0
LINE
  5
63F
330
742
100
AcDbEntity
  8
NOTE
  6
Continuous
100
AcDbLine
 10
-33.9999999999998
 20
250.0
 30
0.0
 11
-35.2340470278275
 21
248.4261105715109
 31
0.0
  0
TEXT
  5
640
330
742
100
AcDbEntity
  8
NOTE
  6
Continuous
100
AcDbText
 10
-706.5515635479567
 20
-595.2391501172423
 30
0.0
 40
40.0
  1
CW R3/4(φ27.2)
 50
0.000002504478167
 41
0.6503623413003014
  7
STANDARD1
100
AcDbText
  0
TEXT
  5
641
330
742
100
AcDbEntity
  8
NOTE
  6
Continuous
100
AcDbText
 10
864.155029296875
 20
2206.5224609375
 30
0.0
 40
40.0
  1
メンテナンススペース
 50
90.00000500895634
 41
0.84375
  7
STANDARD1
100
AcDbText
  0
CIRCLE
  5
643
330
742
100
AcDbEntity
  8
FIX
  6
Continuous
100
AcDbCircle
 10
365.0
 20
2173.0
 30
0.0
 40
5.0
  0
CIRCLE
  5
644
330
742
100
AcDbEntity
  8
FIX
  6
Continuous
100
AcDbCircle
 10
145.0000000000002
 20
0.000000000000016
 30
0.0
 40
6.0
  0
CIRCLE
  5
645
330
742
100
AcDbEntity
  8
FIX
  6
Continuous
100
AcDbCircle
 10
-145.0
 20
0.000000000000022
 30
0.0
 40
6.0
  0
LINE
  5
646
330
742
100
AcDbEntity
  8
SERVICESPACE
  6
Continuous
100
AcDbLine
 10
-515.0
 20
-0.000000000000063
 30
0.0
 11
-215.0000000000002
 21
2350.0
 31
0.0
  0
LINE
  5
647
330
742
100
AcDbEntity
  8
SERVICESPACE
  6
Continuous
100
AcDbLine
 10
-515.0000000000001
 20
2350.0
 30
0.0
 11
-215.0
 21
-0.000000000000026
 31
0.0
  0
LINE
  5
648
330
742
100
AcDbEntity
  8
SERVICESPACE
  6
Continuous
100
AcDbLine
 10
-515.0
 20
-0.000000000000063
 30
0.0
 11
-215.0
 21
-0.000000000000026
 31
0.0
  0
LINE
  5
649
330
742
100
AcDbEntity
  8
SERVICESPACE
  6
Continuous
100
AcDbLine
 10
-515.0
 20
-0.000000000000063
 30
0.0
 11
-515.0000000000001
 21
2350.0
 31
0.0
  0
LINE
  5
64A
330
742
100
AcDbEntity
  8
SERVICESPACE
  6
Continuous
100
AcDbLine
 10
-215.0000000000002
 20
2350.0
 30
0.0
 11
215.0000000000001
 21
2150.0
 31
0.0
  0
LINE
  5
64B
330
742
100
AcDbEntity
  8
SERVICESPACE
  6
Continuous
100
AcDbLine
 10
215.0000000000001
 20
2350.0
 30
0.0
 11
-215.0000000000002
 21
2150.0
 31
0.0
  0
LINE
  5
64C
330
742
100
AcDbEntity
  8
SERVICESPACE
  6
Continuous
100
AcDbLine
 10
215.0000000000001
 20
2150.0
 30
0.0
 11
215.0000000000001
 21
2350.0
 31
0.0
  0
LINE
  5
64D
330
742
100
AcDbEntity
  8
SERVICESPACE
  6
Continuous
100
AcDbLine
 10
215.0000000000001
 20
2150.0
 30
0.0
 11
-215.0000000000002
 21
2150.0
 31
0.0
  0
LINE
  5
64E
330
742
100
AcDbEntity
  8
SERVICESPACE
  6
Continuous
100
AcDbLine
 10
-215.0
 20
-0.000000000000026
 30
0.0
 11
-215.0000000000002
 21
2350.0
 31
0.0
  0
LINE
  5
64F
330
742
100
AcDbEntity
  8
SERVICESPACE
  6
Continuous
100
AcDbLine
 10
215.0000000000001
 20
2350.0
 30
0.0
 11
-515.0000000000001
 21
2350.0
 31
0.0
  0
TEXT
  5
650
330
742
100
AcDbEntity
  8
ETC
  6
Continuous
100
AcDbText
 10
951.6449584960936
 20
2637.97119140625
 30
0.0
 40
40.0
  1
TST435Z3
 50
0.000002504478167
 41
0.6125000238418579
  7
STANDARD1
100
AcDbText
  0
TEXT
  5
651
330
742
100
AcDbEntity
  8
ETC
  6
Continuous
100
AcDbText
 10
951.6449584960936
 20
2567.97119140625
 30
0.0
 40
40.0
  1
貯湯ユニット
 50
0.000002504478167
 41
0.84375
  7
STANDARD1
100
AcDbText
  0
LINE
  5
A1F
330
742
100
AcDbEntity
  8
DETAIL
  6
Continuous
100
AcDbLine
 10
-214.9999999999999
 20
150.0
 30
0.0
 11
215.0000000000002
 21
150.0
 31
0.0
  0
LINE
  5
A20
330
742
100
AcDbEntity
  8
DETAIL
  6
Continuous
100
AcDbLine
 10
54.40000000000033
 20
110.0
 30
0.0
 11
54.40000000000019
 21
150.0
 31
0.0
  0
LINE
  5
A21
330
742
100
AcDbEntity
  8
DETAIL
  6
Continuous
100
AcDbLine
 10
81.60000000000025
 20
110.0
 30
0.0
 11
81.60000000000025
 21
150.0
 31
0.0
  0
LINE
  5
A22
330
742
100
AcDbEntity
  8
DETAIL
  6
Continuous
100
AcDbLine
 10
54.40000000000033
 20
110.0
 30
0.0
 11
81.60000000000025
 21
110.0
 31
0.0
  0
LINE
  5
A23
330
742
100
AcDbEntity
  8
DETAIL
  6
DASHED
100
AcDbLine
 10
-120.4607862472445
 20
146.5
 30
0.0
 11
-116.9607862472447
 21
150.0
 31
0.0
  0
LINE
  5
A24
330
742
100
AcDbEntity
  8
DETAIL
  6
DASHED
100
AcDbLine
 10
-176.960786247245
 20
140.0000000000017
 30
0.0
 11
-181.4607862472446
 21
144.5000000000018
 31
0.0
  0
LINE
  5
A25
330
742
100
AcDbEntity
  8
DETAIL
  6
DASHED
100
AcDbLine
 10
-126.960786247245
 20
140.0
 30
0.0
 11
-120.4607862472445
 21
146.5
 31
0.0
  0
LINE
  5
A26
330
742
100
AcDbEntity
  8
DETAIL
  6
DASHED
100
AcDbLine
 10
-174.960786247245
 20
138.0000000000017
 30
0.0
 11
-128.960786247245
 21
137.9999999999999
 31
0.0
  0
LINE
  5
A27
330
742
100
AcDbEntity
  8
DETAIL
  6
DASHED
100
AcDbLine
 10
-174.960786247245
 20
140.0000000000017
 30
0.0
 11
-174.960786247245
 21
138.0000000000017
 31
0.0
  0
LINE
  5
A28
330
742
100
AcDbEntity
  8
DETAIL
  6
DASHED
100
AcDbLine
 10
-128.960786247245
 20
140.0
 30
0.0
 11
-128.960786247245
 21
137.9999999999999
 31
0.0
  0
LINE
  5
A29
330
742
100
AcDbEntity
  8
DETAIL
  6
DASHED
100
AcDbLine
 10
-176.960786247245
 20
140.0000000000017
 30
0.0
 11
-126.960786247245
 21
140.0
 31
0.0
  0
LINE
  5
A2A
330
742
100
AcDbEntity
  8
DETAIL
  6
DASHED
100
AcDbLine
 10
-139.9999999999997
 20
134.4715728752545
 30
0.0
 11
-163.9999999999998
 21
134.4715728752545
 31
0.0
  0
LINE
  5
A2B
330
742
100
AcDbEntity
  8
DETAIL
  6
DASHED
100
AcDbLine
 10
-163.9999999999998
 20
138.0000000000008
 30
0.0
 11
-163.9999999999998
 21
134.4715728752545
 31
0.0
  0
LINE
  5
A2C
330
742
100
AcDbEntity
  8
DETAIL
  6
DASHED
100
AcDbLine
 10
-139.9999999999997
 20
138.0000000000008
 30
0.0
 11
-139.9999999999997
 21
134.4715728752545
 31
0.0
  0
LINE
  5
A2D
330
742
100
AcDbEntity
  8
DETAIL
  6
DASHED
100
AcDbLine
 10
-160.9999999999999
 20
131.4715728752543
 30
0.0
 11
-163.9999999999998
 21
134.4715728752545
 31
0.0
  0
LINE
  5
A2E
330
742
100
AcDbEntity
  8
DETAIL
  6
DASHED
100
AcDbLine
 10
-142.9999999999998
 20
131.4715728752545
 30
0.0
 11
-139.9999999999997
 21
134.4715728752545
 31
0.0
  0
ARC
  5
A2F
330
742
100
AcDbEntity
  8
DETAIL
  6
DASHED
100
AcDbCircle
 10
-151.9999999999998
 20
122.0000000000013
 30
0.0
 40
9.0
100
AcDbArc
 50
180.0
 51
270.0
  0
LINE
  5
A30
330
742
100
AcDbEntity
  8
DETAIL
  6
DASHED
100
AcDbLine
 10
-143.0392137527548
 20
131.0000000000014
 30
0.0
 11
-143.0392137527548
 21
131.4715728752546
 31
0.0
  0
LINE
  5
A31
330
742
100
AcDbEntity
  8
DETAIL
  6
DASHED
100
AcDbLine
 10
-160.9999999999999
 20
131.4715728752543
 30
0.0
 11
-160.9999999999999
 21
122.0000000000013
 31
0.0
  0
LINE
  5
A32
330
742
100
AcDbEntity
  8
DETAIL
  6
DASHED
100
AcDbLine
 10
-119.9999999999998
 20
131.0000000000014
 30
0.0
 11
-116.9999999999998
 21
130.0000000000014
 31
0.0
  0
LINE
  5
A33
330
742
100
AcDbEntity
  8
DETAIL
  6
DASHED
100
AcDbLine
 10
-119.9999999999998
 20
113.0000000000012
 30
0.0
 11
-116.9999999999998
 21
114.0000000000013
 31
0.0
  0
LINE
  5
A34
330
742
100
AcDbEntity
  8
DETAIL
  6
DASHED
100
AcDbLine
 10
-119.9999999999998
 20
113.0000000000012
 30
0.0
 11
-119.9999999999998
 21
131.0000000000014
 31
0.0
  0
LINE
  5
A35
330
742
100
AcDbEntity
  8
DETAIL
  6
DASHED
100
AcDbLine
 10
-142.9999999999998
 20
131.0000000000014
 30
0.0
 11
-119.9999999999998
 21
131.0000000000014
 31
0.0
  0
LINE
  5
A36
330
742
100
AcDbEntity
  8
DETAIL
  6
DASHED
100
AcDbLine
 10
-151.9999999999998
 20
113.0000000000012
 30
0.0
 11
-119.9999999999998
 21
113.0000000000012
 31
0.0
  0
LINE
  5
A37
330
742
100
AcDbEntity
  8
DETAIL
  6
DASHED
100
AcDbLine
 10
-116.9999999999998
 20
114.0000000000013
 30
0.0
 11
-116.9999999999998
 21
130.0000000000014
 31
0.0
  0
LINE
  5
B00
330
742
100
AcDbEntity
  8
DETAIL
  6
Continuous
100
AcDbLine
 10
-181.4607862472446
 20
144.5000000000018
 30
0.0
 11
-186.9607862472447
 21
150.0000000000024
 31
0.0
  0
LINE
  5
CA7
330
742
100
AcDbEntity
  8
NOTE
  6
Continuous
100
AcDbLine
 10
736.0703043459834
 20
-350.0
 30
0.0
 11
315.0
 21
-350.0
 31
0.0
  0
LINE
  5
CA8
330
742
100
AcDbEntity
  8
NOTE
  6
Continuous
100
AcDbLine
 10
739.6415503774988
 20
-450.0
 30
0.0
 11
315.0
 21
-450.0
 31
0.0
  0
LINE
  5
CA9
330
742
100
AcDbEntity
  8
NOTE
  6
Continuous
100
AcDbLine
 10
-529.7231413933623
 20
-350.0
 30
0.0
 11
-315.8823799607244
 21
-350.0
 31
0.0
  0
LINE
  5
CAA
330
742
100
AcDbEntity
  8
NOTE
  6
Continuous
100
AcDbLine
 10
-814.589732009983
 20
-450.0
 30
0.0
 11
-315.0000000000001
 21
-450.0
 31
0.0
  0
LINE
  5
CAE
330
742
100
AcDbEntity
  8
NOTE
  6
Continuous
100
AcDbLine
 10
-718.4334267453198
 20
-600.0
 30
0.0
 11
-299.0000000000001
 21
-600.0
 31
0.0
  0
LINE
  5
FBE
330
742
100
AcDbEntity
  8
NOTE
  6
Continuous
100
AcDbLine
 10
-151.9999999999998
 20
102.0000000000014
 30
0.0
 11
-151.9999999999998
 21
142.0000000000014
 31
0.0
  0
LINE
  5
FBF
330
742
100
AcDbEntity
  8
NOTE
  6
Continuous
100
AcDbLine
 10
-171.9999999999997
 20
122.0000000000013
 30
0.0
 11
-131.9999999999998
 21
122.0000000000013
 31
0.0
  0
DIMENSION
  5
107B
330
742
100
AcDbEntity
  8
SIZE
  6
Continuous
100
AcDbDimension
  2
*D3
 10
215.0000000000001
 20
2493.775558441376
 30
0.0
 11
-0.0000000000000553
 21
2518.775558441376
 31
0.0
 70
    32
 71
     5
 42
430.0000000000003
 73
     0
 74
     0
 75
     0
  3
STANDARD
100
AcDbAlignedDimension
 13
-215.0000000000002
 23
2350.0
 33
0.0
 14
215.0000000000001
 24
2350.0
 34
0.0
100
AcDbRotatedDimension
1001
ACAD
1000
DSTYLE
1002
{
1070
    41
1040
10.0
1070
    42
1040
10.0
1070
    43
1040
8.0
1070
    44
1040
12.5
1070
    73
1070
     0
1070
    74
1070
     0
1070
    77
1070
     3
1070
    78
1070
    12
1070
   140
1040
30.0
1070
   141
1040
2.5
1070
   146
1040
0.7142857313156129
1070
   147
1040
10.0
1070
   171
1070
     4
1070
   172
1070
     1
1070
   173
1070
     1
1070
   271
1070
     4
1070
   272
1070
     4
1070
   274
1070
     2
1070
   279
1070
     0
1070
   284
1070
     0
1070
   285
1070
     0
1070
   286
1070
     0
1070
   340
1005
727
1070
   341
1005
79B
1070
   343
1005
79B
1070
   344
1005
79B
1002
}
  0
DIMENSION
  5
1095
330
742
100
AcDbEntity
  8
SIZE
  6
Continuous
100
AcDbDimension
  2
*D4
 10
365.0
 20
2494.056886459761
 30
0.0
 11
290.0000000000001
 21
2519.056886459761
 31
0.0
 70
    32
 71
     5
 42
149.9999999999999
 73
     0
 74
     0
 75
     0
  3
STANDARD
100
AcDbAlignedDimension
 13
215.0000000000001
 23
2350.0
 33
0.0
 14
365.0
 24
2195.0
 34
0.0
100
AcDbRotatedDimension
1001
ACAD
1000
DSTYLE
1002
{
1070
    41
1040
10.0
1070
    42
1040
10.0
1070
    43
1040
8.0
1070
    44
1040
12.5
1070
    73
1070
     0
1070
    74
1070
     0
1070
    77
1070
     3
1070
    78
1070
    12
1070
   140
1040
30.0
1070
   141
1040
2.5
1070
   146
1040
0.7142857313156129
1070
   147
1040
10.0
1070
   171
1070
     4
1070
   172
1070
     1
1070
   173
1070
     1
1070
   271
1070
     4
1070
   272
1070
     4
1070
   274
1070
     2
1070
   279
1070
     0
1070
   284
1070
     0
1070
   285
1070
     0
1070
   286
1070
     0
1070
   340
1005
727
1070
   341
1005
79B
1070
   343
1005
79B
1070
   344
1005
79B
1002
}
  0
DIMENSION
  5
10A2
330
742
100
AcDbEntity
  8
SIZE
  6
Continuous
100
AcDbDimension
  2
*D5
 10
-810.8870617346957
 20
2350.000000000001
 30
0.0
 11
-835.8870617346948
 21
1175.0
 31
0.0
 70
    32
 71
     5
 42
2350.0
 73
     0
 74
     0
 75
     0
  3
STANDARD
100
AcDbAlignedDimension
 13
-515.0
 23
-0.000000000000063
 33
0.0
 14
-515.0000000000001
 24
2350.0
 34
0.0
 50
90.0
100
AcDbRotatedDimension
1001
ACAD
1000
DSTYLE
1002
{
1070
    41
1040
10.0
1070
    42
1040
10.0
1070
    43
1040
8.0
1070
    44
1040
12.5
1070
    73
1070
     0
1070
    74
1070
     0
1070
    77
1070
     3
1070
    78
1070
    12
1070
   140
1040
30.0
1070
   141
1040
2.5
1070
   146
1040
0.7142857313156129
1070
   147
1040
10.0
1070
   171
1070
     4
1070
   172
1070
     1
1070
   173
1070
     1
1070
   271
1070
     4
1070
   272
1070
     4
1070
   274
1070
     2
1070
   279
1070
     0
1070
   284
1070
     0
1070
   285
1070
     0
1070
   286
1070
     0
1070
   340
1005
727
1070
   341
1005
79B
1070
   343
1005
79B
1070
   344
1005
79B
1002
}
  0
DIMENSION
  5
10E6
330
742
100
AcDbEntity
  8
SIZE
  6
Continuous
100
AcDbDimension
  2
*D6
 10
804.3383539519213
 20
2150.000000000001
 30
0.0
 11
779.3383539519217
 21
1075.0
 31
0.0
 70
    32
 71
     5
 42
2150.0
 73
     0
 74
     0
 75
     0
  3
STANDARD
100
AcDbAlignedDimension
 13
181.5
 23
-0.000000000000035
 33
0.0
 14
365.0
 24
2150.0
 34
0.0
 50
90.0
100
AcDbRotatedDimension
1001
ACAD
1000
DSTYLE
1002
{
1070
    41
1040
10.0
1070
    42
1040
10.0
1070
    43
1040
8.0
1070
    44
1040
12.5
1070
    73
1070
     0
1070
    74
1070
     0
1070
    77
1070
     3
1070
    78
1070
    12
1070
   140
1040
30.0
1070
   141
1040
2.5
1070
   146
1040
0.7142857313156129
1070
   147
1040
10.0
1070
   171
1070
     4
1070
   172
1070
     1
1070
   173
1070
     1
1070
   271
1070
     4
1070
   272
1070
     4
1070
   274
1070
     2
1070
   279
1070
     0
1070
   284
1070
     0
1070
   285
1070
     0
1070
   286
1070
     0
1070
   340
1005
727
1070
   341
1005
79B
1070
   343
1005
79B
1070
   344
1005
79B
1002
}
  0
DIMENSION
  5
10F3
330
742
100
AcDbEntity
  8
SIZE
  6
Continuous
100
AcDbDimension
  2
*D7
 10
804.3383539519208
 20
2150.000000000001
 30
0.0
 11
779.3383539519212
 21
2250.0
 31
0.0
 70
    32
 71
     5
 42
200.0
 73
     0
 74
     0
 75
     0
  3
STANDARD
100
AcDbAlignedDimension
 13
215.0000000000001
 23
2350.0
 33
0.0
 14
365.0
 24
2150.0
 34
0.0
 50
90.0
100
AcDbRotatedDimension
1001
ACAD
1000
DSTYLE
1002
{
1070
    41
1040
10.0
1070
    42
1040
10.0
1070
    43
1040
8.0
1070
    44
1040
12.5
1070
    73
1070
     0
1070
    74
1070
     0
1070
    77
1070
     3
1070
    78
1070
    12
1070
   140
1040
30.0
1070
   141
1040
2.5
1070
   146
1040
0.7142857313156129
1070
   147
1040
10.0
1070
   171
1070
     4
1070
   172
1070
     1
1070
   173
1070
     1
1070
   271
1070
     4
1070
   272
1070
     4
1070
   274
1070
     2
1070
   279
1070
     0
1070
   284
1070
     0
1070
   285
1070
     0
1070
   286
1070
     0
1070
   340
1005
727
1070
   341
1005
79B
1070
   343
1005
79B
1070
   344
1005
79B
1002
}
  0
DIMENSION
  5
1117
330
742
100
AcDbEntity
  8
SIZE
  6
Continuous
100
AcDbDimension
  2
*D8
 10
704.3383539519218
 20
350.0000000000002
 30
0.0
 11
679.3383539519218
 21
174.9999999999999
 31
0.0
 70
    32
 71
     5
 42
350.0
 73
     0
 74
     0
 75
     0
  3
STANDARD
100
AcDbAlignedDimension
 13
181.5
 23
-0.000000000000035
 33
0.0
 14
215.0000000000002
 24
350.0
 34
0.0
 50
90.0
100
AcDbRotatedDimension
1001
ACAD
1000
DSTYLE
1002
{
1070
    41
1040
10.0
1070
    42
1040
10.0
1070
    43
1040
8.0
1070
    44
1040
12.5
1070
    73
1070
     0
1070
    74
1070
     0
1070
    77
1070
     3
1070
    78
1070
    12
1070
   140
1040
30.0
1070
   141
1040
2.5
1070
   146
1040
0.7142857313156129
1070
   147
1040
10.0
1070
   171
1070
     4
1070
   172
1070
     1
1070
   173
1070
     1
1070
   271
1070
     4
1070
   272
1070
     4
1070
   274
1070
     2
1070
   279
1070
     0
1070
   284
1070
     0
1070
   285
1070
     0
1070
   286
1070
     0
1070
   340
1005
727
1070
   341
1005
79B
1070
   343
1005
79B
1070
   344
1005
79B
1002
}
  0
DIMENSION
  5
1124
330
742
100
AcDbEntity
  8
SIZE
  6
Continuous
100
AcDbDimension
  2
*D9
 10
604.3383539519217
 20
301.0000000000002
 30
0.0
 11
579.3383539519217
 21
150.4999999999999
 31
0.0
 70
    32
 71
     5
 42
301.0000000000002
 73
     0
 74
     0
 75
     0
  3
STANDARD
100
AcDbAlignedDimension
 13
181.5
 23
-0.000000000000035
 33
0.0
 14
-146.9999999999998
 24
301.0
 34
0.0
 50
90.0
100
AcDbRotatedDimension
1001
ACAD
1000
DSTYLE
1002
{
1070
    41
1040
10.0
1070
    42
1040
10.0
1070
    43
1040
8.0
1070
    44
1040
12.5
1070
    73
1070
     0
1070
    74
1070
     0
1070
    77
1070
     3
1070
    78
1070
    12
1070
   140
1040
30.0
1070
   141
1040
2.5
1070
   146
1040
0.7142857313156129
1070
   147
1040
10.0
1070
   171
1070
     4
1070
   172
1070
     1
1070
   173
1070
     1
1070
   271
1070
     4
1070
   272
1070
     4
1070
   274
1070
     2
1070
   279
1070
     0
1070
   284
1070
     0
1070
   285
1070
     0
1070
   286
1070
     0
1070
   340
1005
727
1070
   341
1005
79B
1070
   343
1005
79B
1070
   344
1005
79B
1002
}
  0
DIMENSION
  5
1131
330
742
100
AcDbEntity
  8
SIZE
  6
Continuous
100
AcDbDimension
  2
*D10
 10
-710.8870617346955
 20
250.0
 30
0.0
 11
-735.8870617346954
 21
125.0000000000001
 31
0.0
 70
    32
 71
     5
 42
250.0
 73
     0
 74
     0
 75
     0
  3
STANDARD
100
AcDbAlignedDimension
 13
-181.4999999999997
 23
-0.000000000000022
 33
0.0
 14
-53.9999999999996
 24
250.0
 34
0.0
 50
90.0
100
AcDbRotatedDimension
1001
ACAD
1000
DSTYLE
1002
{
1070
    41
1040
10.0
1070
    42
1040
10.0
1070
    43
1040
8.0
1070
    44
1040
12.5
1070
    73
1070
     0
1070
    74
1070
     0
1070
    77
1070
     3
1070
    78
1070
    12
1070
   140
1040
30.0
1070
   141
1040
2.5
1070
   146
1040
0.7142857313156129
1070
   147
1040
10.0
1070
   171
1070
     4
1070
   172
1070
     1
1070
   173
1070
     1
1070
   271
1070
     4
1070
   272
1070
     4
1070
   274
1070
     2
1070
   279
1070
     0
1070
   284
1070
     0
1070
   285
1070
     0
1070
   286
1070
     0
1070
   340
1005
727
1070
   341
1005
79B
1070
   343
1005
79B
1070
   344
1005
79B
1002
}
  0
DIMENSION
  5
113E
330
742
100
AcDbEntity
  8
SIZE
  6
Continuous
100
AcDbDimension
  2
*D11
 10
-313.9934267953068
 20
122.0000000000013
 30
0.0
 11
-338.9934267953068
 21
61.00000000000072
 31
0.0
 70
    32
 71
     5
 42
122.0000000000013
 73
     0
 74
     0
 75
     0
  3
STANDARD
100
AcDbAlignedDimension
 13
-181.4999999999997
 23
-0.000000000000022
 33
0.0
 14
-171.9999999999997
 24
122.0000000000013
 34
0.0
 50
90.0
100
AcDbRotatedDimension
1001
ACAD
1000
DSTYLE
1002
{
1070
    41
1040
10.0
1070
    42
1040
10.0
1070
    43
1040
8.0
1070
    44
1040
12.5
1070
    73
1070
     0
1070
    74
1070
     0
1070
    77
1070
     3
1070
    78
1070
    12
1070
   140
1040
30.0
1070
   141
1040
2.5
1070
   146
1040
0.7142857313156129
1070
   147
1040
10.0
1070
   171
1070
     4
1070
   172
1070
     1
1070
   173
1070
     1
1070
   271
1070
     4
1070
   272
1070
     4
1070
   274
1070
     2
1070
   279
1070
     0
1070
   284
1070
     0
1070
   285
1070
     0
1070
   286
1070
     0
1070
   340
1005
727
1070
   341
1005
79B
1070
   343
1005
79B
1070
   344
1005
79B
1002
}
  0
DIMENSION
  5
114B
330
742
100
AcDbEntity
  8
SIZE
  6
Continuous
100
AcDbDimension
  2
*D12
 10
-413.993426795307
 20
150.0
 30
0.0
 11
-438.9934267953068
 21
75.00000000000008
 31
0.0
 70
    32
 71
     5
 42
150.0
 73
     0
 74
     0
 75
     0
  3
STANDARD
100
AcDbAlignedDimension
 13
-181.4999999999997
 23
-0.000000000000022
 33
0.0
 14
-214.9999999999999
 24
150.0
 34
0.0
 50
90.0
100
AcDbRotatedDimension
1001
ACAD
1000
DSTYLE
1002
{
1070
    41
1040
10.0
1070
    42
1040
10.0
1070
    43
1040
8.0
1070
    44
1040
12.5
1070
    73
1070
     0
1070
    74
1070
     0
1070
    77
1070
     3
1070
    78
1070
    12
1070
   140
1040
30.0
1070
   141
1040
2.5
1070
   146
1040
0.7142857313156129
1070
   147
1040
10.0
1070
   171
1070
     4
1070
   172
1070
     1
1070
   173
1070
     1
1070
   271
1070
     4
1070
   272
1070
     4
1070
   274
1070
     2
1070
   279
1070
     0
1070
   284
1070
     0
1070
   285
1070
     0
1070
   286
1070
     0
1070
   340
1005
727
1070
   341
1005
79B
1070
   343
1005
79B
1070
   344
1005
79B
1002
}
  0
DIMENSION
  5
115F
330
742
100
AcDbEntity
  8
SIZE
  6
Continuous
100
AcDbDimension
  2
*D13
 10
504.3383539519218
 20
110.0000000000015
 30
0.0
 11
479.3383539519216
 21
55.00000000000062
 31
0.0
 70
    32
 71
     5
 42
110.0000000000015
 73
     0
 74
     0
 75
     0
  3
STANDARD
100
AcDbAlignedDimension
 13
181.5
 23
-0.000000000000035
 33
0.0
 14
88.00000000000016
 24
110.0000000000014
 34
0.0
 50
90.0
100
AcDbRotatedDimension
1001
ACAD
1000
DSTYLE
1002
{
1070
    41
1040
10.0
1070
    42
1040
10.0
1070
    43
1040
8.0
1070
    44
1040
12.5
1070
    73
1070
     0
1070
    74
1070
     0
1070
    77
1070
     3
1070
    78
1070
    12
1070
   140
1040
30.0
1070
   141
1040
2.5
1070
   146
1040
0.7142857313156129
1070
   147
1040
10.0
1070
   171
1070
     4
1070
   172
1070
     1
1070
   173
1070
     1
1070
   271
1070
     4
1070
   272
1070
     4
1070
   274
1070
     2
1070
   279
1070
     0
1070
   284
1070
     0
1070
   285
1070
     0
1070
   286
1070
     0
1070
   340
1005
727
1070
   341
1005
79B
1070
   343
1005
79B
1070
   344
1005
79B
1002
}
  0
DIMENSION
  5
118D
330
742
100
AcDbEntity
  8
SIZE
  6
Continuous
100
AcDbDimension
  2
*D14
 10
904.3383539519219
 20
2173.000000000001
 30
0.0
 11
879.3383539519222
 21
1086.5
 31
0.0
 70
    32
 71
     5
 42
2173.0
 73
     0
 74
     0
 75
     0
  3
STANDARD
100
AcDbAlignedDimension
 13
181.5
 23
-0.000000000000035
 33
0.0
 14
385.0
 24
2173.0
 34
0.0
 50
90.0
100
AcDbRotatedDimension
1001
ACAD
1000
DSTYLE
1002
{
1070
    41
1040
10.0
1070
    42
1040
10.0
1070
    43
1040
8.0
1070
    44
1040
12.5
1070
    73
1070
     0
1070
    74
1070
     0
1070
    77
1070
     3
1070
    78
1070
    12
1070
   140
1040
30.0
1070
   141
1040
2.5
1070
   146
1040
0.7142857313156129
1070
   147
1040
10.0
1070
   171
1070
     4
1070
   172
1070
     1
1070
   173
1070
     1
1070
   271
1070
     4
1070
   272
1070
     4
1070
   274
1070
     2
1070
   279
1070
     0
1070
   284
1070
     0
1070
   285
1070
     0
1070
   286
1070
     0
1070
   340
1005
727
1070
   341
1005
79B
1070
   343
1005
79B
1070
   344
1005
79B
1002
}
  0
DIMENSION
  5
119A
330
742
100
AcDbEntity
  8
SIZE
  6
Continuous
100
AcDbDimension
  2
*D15
 10
1004.338353951922
 20
0.0000000000000973
 30
0.0
 11
979.338353951922
 21
1097.5
 31
0.0
 70
    32
 71
     5
 42
2195.000000000001
 73
     0
 74
     0
 75
     0
  3
STANDARD
100
AcDbAlignedDimension
 13
365.0
 23
2195.0
 33
0.0
 14
181.5
 24
-0.000000000000035
 34
0.0
 50
90.0
100
AcDbRotatedDimension
1001
ACAD
1000
DSTYLE
1002
{
1070
    41
1040
10.0
1070
    42
1040
10.0
1070
    43
1040
8.0
1070
    44
1040
12.5
1070
    73
1070
     0
1070
    74
1070
     0
1070
    77
1070
     3
1070
    78
1070
    12
1070
   140
1040
30.0
1070
   141
1040
2.5
1070
   146
1040
0.7142857313156129
1070
   147
1040
10.0
1070
   171
1070
     4
1070
   172
1070
     1
1070
   173
1070
     1
1070
   271
1070
     4
1070
   272
1070
     4
1070
   274
1070
     2
1070
   279
1070
     0
1070
   284
1070
     0
1070
   285
1070
     0
1070
   286
1070
     0
1070
   340
1005
727
1070
   341
1005
79B
1070
   343
1005
79B
1070
   344
1005
79B
1002
}
  0
DIMENSION
  5
11ED
330
742
100
AcDbEntity
  8
SIZE
  6
Continuous
100
AcDbDimension
  2
*D16
 10
178.0000000000002
 20
-90.02681712366394
 30
0.0
 11
318.4551035705081
 21
-90.02681712366394
 31
0.0
 70
   160
 71
     5
 42
37.0
 73
     0
 74
     0
 75
     0
  3
STANDARD
100
AcDbAlignedDimension
 13
215.0000000000002
 23
150.0
 33
0.0
 14
178.0000000000002
 24
330.0
 34
0.0
100
AcDbRotatedDimension
1001
ACAD
1000
DSTYLE
1002
{
1070
    41
1040
10.0
1070
    42
1040
10.0
1070
    43
1040
100.0
1070
    44
1040
12.5
1070
    73
1070
     0
1070
    74
1070
     0
1070
    77
1070
     3
1070
    78
1070
    12
1070
   140
1040
30.0
1070
   141
1040
2.5
1070
   146
1040
0.7142857313156129
1070
   147
1040
10.0
1070
   171
1070
     4
1070
   172
1070
     1
1070
   173
1070
     1
1070
   271
1070
     4
1070
   272
1070
     4
1070
   274
1070
     2
1070
   279
1070
     0
1070
   284
1070
     0
1070
   285
1070
     0
1070
   286
1070
     0
1070
   340
1005
727
1070
   341
1005
79B
1070
   343
1005
79B
1070
   344
1005
79B
1002
}
  0
DIMENSION
  5
11FC
330
742
100
AcDbEntity
  8
SIZE
  6
Continuous
100
AcDbDimension
  2
*D17
 10
145.0000000000001
 20
-241.5593223581709
 30
0.0
 11
180.0000000000002
 21
-241.5593223581709
 31
0.0
 70
   160
 71
     5
 42
70.0
 73
     0
 74
     0
 75
     0
  3
STANDARD
100
AcDbAlignedDimension
 13
215.0000000000002
 23
150.0
 33
0.0
 14
145.0000000000002
 24
281.0
 34
0.0
100
AcDbRotatedDimension
1001
ACAD
1000
DSTYLE
1002
{
1070
    41
1040
10.0
1070
    42
1040
10.0
1070
    43
1040
100.0
1070
    44
1040
12.5
1070
    73
1070
     0
1070
    74
1070
     0
1070
    77
1070
     3
1070
    78
1070
    12
1070
   140
1040
30.0
1070
   141
1040
2.5
1070
   146
1040
0.7142857313156129
1070
   147
1040
10.0
1070
   171
1070
     4
1070
   172
1070
     1
1070
   173
1070
     1
1070
   271
1070
     4
1070
   272
1070
     4
1070
   274
1070
     2
1070
   279
1070
     0
1070
   284
1070
     0
1070
   285
1070
     0
1070
   286
1070
     0
1070
   340
1005
727
1070
   341
1005
79B
1070
   343
1005
79B
1070
   344
1005
79B
1002
}
  0
DIMENSION
  5
1209
330
742
100
AcDbEntity
  8
SIZE
  6
Continuous
100
AcDbDimension
  2
*D18
 10
111.0000000000001
 20
-341.5593223581709
 30
0.0
 11
181.1758669050759
 21
-341.5593223581709
 31
0.0
 70
   160
 71
     5
 42
104.0
 73
     0
 74
     0
 75
     0
  3
STANDARD
100
AcDbAlignedDimension
 13
215.0000000000002
 23
150.0
 33
0.0
 14
111.0000000000002
 24
330.0
 34
0.0
100
AcDbRotatedDimension
1001
ACAD
1000
DSTYLE
1002
{
1070
    41
1040
10.0
1070
    42
1040
10.0
1070
    43
1040
100.0
1070
    44
1040
12.5
1070
    73
1070
     0
1070
    74
1070
     0
1070
    77
1070
     3
1070
    78
1070
    12
1070
   140
1040
30.0
1070
   141
1040
2.5
1070
   146
1040
0.7142857313156129
1070
   147
1040
10.0
1070
   171
1070
     4
1070
   172
1070
     1
1070
   173
1070
     1
1070
   271
1070
     4
1070
   272
1070
     4
1070
   274
1070
     2
1070
   279
1070
     0
1070
   284
1070
     0
1070
   285
1070
     0
1070
   286
1070
     0
1070
   340
1005
727
1070
   341
1005
79B
1070
   343
1005
79B
1070
   344
1005
79B
1002
}
  0
DIMENSION
  5
1216
330
742
100
AcDbEntity
  8
SIZE
  6
Continuous
100
AcDbDimension
  2
*D19
 10
68.00000000000025
 20
-441.5593223581709
 30
0.0
 11
106.9562758033425
 21
-441.5593223581709
 31
0.0
 70
   160
 71
     5
 42
146.9999999999999
 73
     0
 74
     0
 75
     0
  3
STANDARD
100
AcDbAlignedDimension
 13
215.0000000000002
 23
150.0
 33
0.0
 14
68.00000000000029
 24
90.00000000000133
 34
0.0
100
AcDbRotatedDimension
1001
ACAD
1000
DSTYLE
1002
{
1070
    41
1040
10.0
1070
    42
1040
10.0
1070
    43
1040
100.0
1070
    44
1040
12.5
1070
    73
1070
     0
1070
    74
1070
     0
1070
    77
1070
     3
1070
    78
1070
    12
1070
   140
1040
30.0
1070
   141
1040
2.5
1070
   146
1040
0.7142857313156129
1070
   147
1040
10.0
1070
   171
1070
     4
1070
   172
1070
     1
1070
   173
1070
     1
1070
   271
1070
     4
1070
   272
1070
     4
1070
   274
1070
     2
1070
   279
1070
     0
1070
   284
1070
     0
1070
   285
1070
     0
1070
   286
1070
     0
1070
   340
1005
727
1070
   341
1005
79B
1070
   343
1005
79B
1070
   344
1005
79B
1002
}
  0
DIMENSION
  5
1223
330
742
100
AcDbEntity
  8
SIZE
  6
Continuous
100
AcDbDimension
  2
*D20
 10
53.00000000000014
 20
-541.5593223581709
 30
0.0
 11
99.97164406572119
 21
-541.5593223581709
 31
0.0
 70
   160
 71
     5
 42
162.0
 73
     0
 74
     0
 75
     0
  3
STANDARD
100
AcDbAlignedDimension
 13
215.0000000000002
 23
150.0
 33
0.0
 14
53.00000000000018
 24
281.0
 34
0.0
100
AcDbRotatedDimension
1001
ACAD
1000
DSTYLE
1002
{
1070
    41
1040
10.0
1070
    42
1040
10.0
1070
    43
1040
100.0
1070
    44
1040
12.5
1070
    73
1070
     0
1070
    74
1070
     0
1070
    77
1070
     3
1070
    78
1070
    12
1070
   140
1040
30.0
1070
   141
1040
2.5
1070
   146
1040
0.7142857313156129
1070
   147
1040
10.0
1070
   171
1070
     4
1070
   172
1070
     1
1070
   173
1070
     1
1070
   271
1070
     4
1070
   272
1070
     4
1070
   274
1070
     2
1070
   279
1070
     0
1070
   284
1070
     0
1070
   285
1070
     0
1070
   286
1070
     0
1070
   340
1005
727
1070
   341
1005
79B
1070
   343
1005
79B
1070
   344
1005
79B
1002
}
  0
DIMENSION
  5
1230
330
742
100
AcDbEntity
  8
SIZE
  6
Continuous
100
AcDbDimension
  2
*D21
 10
27.00000000000014
 20
-641.5593223581709
 30
0.0
 11
99.96283780457453
 21
-641.5593223581709
 31
0.0
 70
   160
 71
     5
 42
188.0
 73
     0
 74
     0
 75
     0
  3
STANDARD
100
AcDbAlignedDimension
 13
215.0000000000002
 23
150.0
 33
0.0
 14
27.0000000000002
 24
281.0
 34
0.0
100
AcDbRotatedDimension
1001
ACAD
1000
DSTYLE
1002
{
1070
    41
1040
10.0
1070
    42
1040
10.0
1070
    43
1040
100.0
1070
    44
1040
12.5
1070
    73
1070
     0
1070
    74
1070
     0
1070
    77
1070
     3
1070
    78
1070
    12
1070
   140
1040
30.0
1070
   141
1040
2.5
1070
   146
1040
0.7142857313156129
1070
   147
1040
10.0
1070
   171
1070
     4
1070
   172
1070
     1
1070
   173
1070
     1
1070
   271
1070
     4
1070
   272
1070
     4
1070
   274
1070
     2
1070
   279
1070
     0
1070
   284
1070
     0
1070
   285
1070
     0
1070
   286
1070
     0
1070
   340
1005
727
1070
   341
1005
79B
1070
   343
1005
79B
1070
   344
1005
79B
1002
}
  0
DIMENSION
  5
123D
330
742
100
AcDbEntity
  8
SIZE
  6
Continuous
100
AcDbDimension
  2
*D22
 10
-33.99999999999966
 20
-741.5593223581709
 30
0.0
 11
90.50000000000023
 21
-716.5593223581709
 31
0.0
 70
    32
 71
     5
 42
248.9999999999998
 73
     0
 74
     0
 75
     0
  3
STANDARD
100
AcDbAlignedDimension
 13
215.0000000000002
 23
150.0
 33
0.0
 14
-33.9999999999996
 24
228.0
 34
0.0
100
AcDbRotatedDimension
1001
ACAD
1000
DSTYLE
1002
{
1070
    41
1040
10.0
1070
    42
1040
10.0
1070
    43
1040
100.0
1070
    44
1040
12.5
1070
    73
1070
     0
1070
    74
1070
     0
1070
    77
1070
     3
1070
    78
1070
    12
1070
   140
1040
30.0
1070
   141
1040
2.5
1070
   146
1040
0.7142857313156129
1070
   147
1040
10.0
1070
   171
1070
     4
1070
   172
1070
     1
1070
   173
1070
     1
1070
   271
1070
     4
1070
   272
1070
     4
1070
   274
1070
     2
1070
   279
1070
     0
1070
   284
1070
     0
1070
   285
1070
     0
1070
   286
1070
     0
1070
   340
1005
727
1070
   341
1005
79B
1070
   343
1005
79B
1070
   344
1005
79B
1002
}
  0
DIMENSION
  5
124A
330
742
100
AcDbEntity
  8
SIZE
  6
Continuous
100
AcDbDimension
  2
*D23
 10
-106.9999999999998
 20
-841.5593223581709
 30
0.0
 11
54.00000000000014
 21
-816.5593223581709
 31
0.0
 70
    32
 71
     5
 42
322.0
 73
     0
 74
     0
 75
     0
  3
STANDARD
100
AcDbAlignedDimension
 13
215.0000000000002
 23
150.0
 33
0.0
 14
-106.9999999999998
 24
281.0
 34
0.0
100
AcDbRotatedDimension
1001
ACAD
1000
DSTYLE
1002
{
1070
    41
1040
10.0
1070
    42
1040
10.0
1070
    43
1040
100.0
1070
    44
1040
12.5
1070
    73
1070
     0
1070
    74
1070
     0
1070
    77
1070
     3
1070
    78
1070
    12
1070
   140
1040
30.0
1070
   141
1040
2.5
1070
   146
1040
0.7142857313156129
1070
   147
1040
10.0
1070
   171
1070
     4
1070
   172
1070
     1
1070
   173
1070
     1
1070
   271
1070
     4
1070
   272
1070
     4
1070
   274
1070
     2
1070
   279
1070
     0
1070
   284
1070
     0
1070
   285
1070
     0
1070
   286
1070
     0
1070
   340
1005
727
1070
   341
1005
79B
1070
   343
1005
79B
1070
   344
1005
79B
1002
}
  0
DIMENSION
  5
1257
330
742
100
AcDbEntity
  8
SIZE
  6
Continuous
100
AcDbDimension
  2
*D24
 10
-166.9999999999999
 20
-1041.559322358171
 30
0.0
 11
24.00000000000011
 21
-1016.559322358171
 31
0.0
 70
    32
 71
     5
 42
382.0
 73
     0
 74
     0
 75
     0
  3
STANDARD
100
AcDbAlignedDimension
 13
215.0000000000002
 23
150.0
 33
0.0
 14
-166.9999999999998
 24
281.0
 34
0.0
100
AcDbRotatedDimension
1001
ACAD
1000
DSTYLE
1002
{
1070
    41
1040
10.0
1070
    42
1040
10.0
1070
    43
1040
100.0
1070
    44
1040
12.5
1070
    73
1070
     0
1070
    74
1070
     0
1070
    77
1070
     3
1070
    78
1070
    12
1070
   140
1040
30.0
1070
   141
1040
2.5
1070
   146
1040
0.7142857313156129
1070
   147
1040
10.0
1070
   171
1070
     4
1070
   172
1070
     1
1070
   173
1070
     1
1070
   271
1070
     4
1070
   272
1070
     4
1070
   274
1070
     2
1070
   279
1070
     0
1070
   284
1070
     0
1070
   285
1070
     0
1070
   286
1070
     0
1070
   340
1005
727
1070
   341
1005
79B
1070
   343
1005
79B
1070
   344
1005
79B
1002
}
  0
DIMENSION
  5
1264
330
742
100
AcDbEntity
  8
SIZE
  6
Continuous
100
AcDbDimension
  2
*D25
 10
215.0000000000002
 20
-941.5593223581709
 30
0.0
 11
31.50000000000015
 21
-916.5593223581709
 31
0.0
 70
    32
 71
     5
 42
367.0
 73
     0
 74
     0
 75
     0
  3
STANDARD
100
AcDbAlignedDimension
 13
-151.9999999999998
 23
102.0000000000014
 33
0.0
 14
215.0000000000002
 24
150.0
 34
0.0
100
AcDbRotatedDimension
1001
ACAD
1000
DSTYLE
1002
{
1070
    41
1040
10.0
1070
    42
1040
10.0
1070
    43
1040
100.0
1070
    44
1040
12.5
1070
    73
1070
     0
1070
    74
1070
     0
1070
    77
1070
     3
1070
    78
1070
    12
1070
   140
1040
30.0
1070
   141
1040
2.5
1070
   146
1040
0.7142857313156129
1070
   147
1040
10.0
1070
   171
1070
     4
1070
   172
1070
     1
1070
   173
1070
     1
1070
   271
1070
     4
1070
   272
1070
     4
1070
   274
1070
     2
1070
   279
1070
     0
1070
   284
1070
     0
1070
   285
1070
     0
1070
   286
1070
     0
1070
   340
1005
727
1070
   341
1005
79B
1070
   343
1005
79B
1070
   344
1005
79B
1002
}
  0
DIMENSION
  5
1271
330
742
100
AcDbEntity
  8
SIZE
  6
Continuous
100
AcDbDimension
  2
*D26
 10
144.9999999999999
 20
-1141.559322358171
 30
0.0
 11
180.0
 21
-1116.559322358171
 31
0.0
 70
    32
 71
     5
 42
70.0000000000002
 73
     0
 74
     0
 75
     0
  3
STANDARD
100
AcDbAlignedDimension
 13
215.0000000000002
 23
150.0
 33
0.0
 14
145.0
 24
-20.00000000000001
 34
0.0
100
AcDbRotatedDimension
1001
ACAD
1000
DSTYLE
1002
{
1070
    41
1040
10.0
1070
    42
1040
10.0
1070
    43
1040
100.0
1070
    44
1040
12.5
1070
    73
1070
     0
1070
    74
1070
     0
1070
    77
1070
     3
1070
    78
1070
    12
1070
   140
1040
30.0
1070
   141
1040
2.5
1070
   146
1040
0.7142857313156129
1070
   147
1040
10.0
1070
   171
1070
     4
1070
   172
1070
     1
1070
   173
1070
     1
1070
   271
1070
     4
1070
   272
1070
     4
1070
   274
1070
     2
1070
   279
1070
     0
1070
   284
1070
     0
1070
   285
1070
     0
1070
   286
1070
     0
1070
   340
1005
727
1070
   341
1005
79B
1070
   343
1005
79B
1070
   344
1005
79B
1002
}
  0
DIMENSION
  5
127E
330
742
100
AcDbEntity
  8
SIZE
  6
Continuous
100
AcDbDimension
  2
*D27
 10
-144.9999999999997
 20
-1141.559322358171
 30
0.0
 11
0.000000000000101
 21
-1116.559322358171
 31
0.0
 70
    32
 71
     5
 42
289.9999999999997
 73
     0
 74
     0
 75
     0
  3
STANDARD
100
AcDbAlignedDimension
 13
145.0
 23
-20.00000000000001
 33
0.0
 14
-144.9999999999997
 24
-20.00000000000002
 34
0.0
100
AcDbRotatedDimension
1001
ACAD
1000
DSTYLE
1002
{
1070
    41
1040
10.0
1070
    42
1040
10.0
1070
    43
1040
100.0
1070
    44
1040
12.5
1070
    73
1070
     0
1070
    74
1070
     0
1070
    77
1070
     3
1070
    78
1070
    12
1070
   140
1040
30.0
1070
   141
1040
2.5
1070
   146
1040
0.7142857313156129
1070
   147
1040
10.0
1070
   171
1070
     4
1070
   172
1070
     1
1070
   173
1070
     1
1070
   271
1070
     4
1070
   272
1070
     4
1070
   274
1070
     2
1070
   279
1070
     0
1070
   284
1070
     0
1070
   285
1070
     0
1070
   286
1070
     0
1070
   340
1005
727
1070
   341
1005
79B
1070
   343
1005
79B
1070
   344
1005
79B
1002
}
  0
DIMENSION
  5
128B
330
742
100
AcDbEntity
  8
SIZE
  6
Continuous
100
AcDbDimension
  2
*D28
 10
-215.0000000000001
 20
-1141.559322358171
 30
0.0
 11
-179.9999999999999
 21
-1116.559322358171
 31
0.0
 70
    32
 71
     5
 42
70.00000000000031
 73
     0
 74
     0
 75
     0
  3
STANDARD
100
AcDbAlignedDimension
 13
-144.9999999999997
 23
-20.00000000000002
 33
0.0
 14
-215.0
 24
-0.000000000000026
 34
0.0
100
AcDbRotatedDimension
1001
ACAD
1000
DSTYLE
1002
{
1070
    41
1040
10.0
1070
    42
1040
10.0
1070
    43
1040
100.0
1070
    44
1040
12.5
1070
    73
1070
     0
1070
    74
1070
     0
1070
    77
1070
     3
1070
    78
1070
    12
1070
   140
1040
30.0
1070
   141
1040
2.5
1070
   146
1040
0.7142857313156129
1070
   147
1040
10.0
1070
   171
1070
     4
1070
   172
1070
     1
1070
   173
1070
     1
1070
   271
1070
     4
1070
   272
1070
     4
1070
   274
1070
     2
1070
   279
1070
     0
1070
   284
1070
     0
1070
   285
1070
     0
1070
   286
1070
     0
1070
   340
1005
727
1070
   341
1005
79B
1070
   343
1005
79B
1070
   344
1005
79B
1002
}
  0
DIMENSION
  5
1298
330
742
100
AcDbEntity
  8
SIZE
  6
Continuous
100
AcDbDimension
  2
*D29
 10
215.0000000000001
 20
-1241.559322358171
 30
0.0
 11
0.0000000000000157
 21
-1216.559322358171
 31
0.0
 70
    32
 71
     5
 42
430.0000000000002
 73
     0
 74
     0
 75
     0
  3
STANDARD
100
AcDbAlignedDimension
 13
-215.0
 23
-0.000000000000026
 33
0.0
 14
215.0000000000002
 24
150.0
 34
0.0
100
AcDbRotatedDimension
1001
ACAD
1000
DSTYLE
1002
{
1070
    41
1040
10.0
1070
    42
1040
10.0
1070
    43
1040
100.0
1070
    44
1040
12.5
1070
    73
1070
     0
1070
    74
1070
     0
1070
    77
1070
     3
1070
    78
1070
    12
1070
   140
1040
30.0
1070
   141
1040
2.5
1070
   146
1040
0.7142857313156129
1070
   147
1040
10.0
1070
   171
1070
     4
1070
   172
1070
     1
1070
   173
1070
     1
1070
   271
1070
     4
1070
   272
1070
     4
1070
   274
1070
     2
1070
   279
1070
     0
1070
   284
1070
     0
1070
   285
1070
     0
1070
   286
1070
     0
1070
   340
1005
727
1070
   341
1005
79B
1070
   343
1005
79B
1070
   344
1005
79B
1002
}
  0
CIRCLE
  5
141F
330
742
100
AcDbEntity
  8
ARRANGE
  6
Continuous
100
AcDbCircle
 10
0.0000000000002345
 20
0.0
 30
0.0
 40
15.0
  0
ENDSEC
  0
SECTION
  2
OBJECTS
  0
DICTIONARY
  5
6DE
330
0
100
AcDbDictionary
281
     1
  3
ACAD_CIP_PREVIOUS_PRODUCT_INFO
350
7D6
  3
ACAD_COLOR
350
734
  3
ACAD_DETAILVIEWSTYLE
350
73C
  3
ACAD_GROUP
350
6DF
  3
ACAD_LAYOUT
350
733
  3
ACAD_MATERIAL
350
6E2
  3
ACAD_MLEADERSTYLE
350
737
  3
ACAD_MLINESTYLE
350
730
  3
ACAD_PLOTSETTINGS
350
732
  3
ACAD_PLOTSTYLENAME
350
6E0
  3
ACAD_SCALELIST
350
714
  3
ACAD_SECTIONVIEWSTYLE
350
739
  3
ACAD_TABLESTYLE
350
735
  3
ACAD_VISUALSTYLE
350
6FB
  3
ACDB_RECOMPOSE_DATA
350
1430
  3
AcDbVariableDictionary
350
7ED
  3
AcDsDecomposeData
350
1436
  0
DICTIONARY
  5
842
330
6D4
100
AcDbDictionary
280
     1
281
     1
  3
ACAD_LAYERSTATES
360
843
  0
DICTIONARY
  5
7D7
330
726
100
AcDbDictionary
280
     1
281
     1
  3
ADSK_XREC_LAYER_RECONCILED
360
7D8
  0
DICTIONARY
  5
7D9
330
74B
100
AcDbDictionary
280
     1
281
     1
  3
ADSK_XREC_LAYER_RECONCILED
360
7DA
  0
DICTIONARY
  5
7DB
330
74C
100
AcDbDictionary
280
     1
281
     1
  3
ADSK_XREC_LAYER_RECONCILED
360
7DC
  0
DICTIONARY
  5
7DD
330
74D
100
AcDbDictionary
280
     1
281
     1
  3
ADSK_XREC_LAYER_RECONCILED
360
7DE
  0
DICTIONARY
  5
7DF
330
74E
100
AcDbDictionary
280
     1
281
     1
  3
ADSK_XREC_LAYER_RECONCILED
360
7E0
  0
DICTIONARY
  5
7E1
330
74F
100
AcDbDictionary
280
     1
281
     1
  3
ADSK_XREC_LAYER_RECONCILED
360
7E2
  0
DICTIONARY
  5
7E3
330
750
100
AcDbDictionary
280
     1
281
     1
  3
ADSK_XREC_LAYER_RECONCILED
360
7E4
  0
DICTIONARY
  5
7E5
330
751
100
AcDbDictionary
280
     1
281
     1
  3
ADSK_XREC_LAYER_RECONCILED
360
7E6
  0
DICTIONARY
  5
7E7
330
752
100
AcDbDictionary
280
     1
281
     1
  3
ADSK_XREC_LAYER_RECONCILED
360
7E8
  0
DICTIONARY
  5
7E9
330
753
100
AcDbDictionary
280
     1
281
     1
  3
ADSK_XREC_LAYER_RECONCILED
360
7EA
  0
DICTIONARY
  5
7EB
330
754
100
AcDbDictionary
280
     1
281
     1
  3
ADSK_XREC_LAYER_RECONCILED
360
7EC
  0
DICTIONARY
  5
890
330
742
100
AcDbDictionary
280
     1
281
     1
  3
ACAD_SORTENTS
360
891
  0
XRECORD
  5
7D6
102
{ACAD_REACTORS
330
6DE
102
}
330
6DE
100
AcDbXrecord
280
     1
300
ACDLT
300
2018
300
86831ACDLT_2018_0F
  0
DICTIONARY
  5
734
102
{ACAD_REACTORS
330
6DE
102
}
330
6DE
100
AcDbDictionary
281
     1
  0
DICTIONARY
  5
73C
102
{ACAD_REACTORS
330
6DE
102
}
330
6DE
100
AcDbDictionary
281
     1
  3
Imperial24
350
73D
  0
DICTIONARY
  5
6DF
102
{ACAD_REACTORS
330
6DE
102
}
330
6DE
100
AcDbDictionary
281
     1
  0
DICTIONARY
  5
733
102
{ACAD_REACTORS
330
6DE
102
}
330
6DE
100
AcDbDictionary
281
     1
  3
Model
350
745
  3
レイアウト1
350
741
  0
DICTIONARY
  5
6E2
102
{ACAD_REACTORS
330
6DE
102
}
330
6DE
100
AcDbDictionary
281
     1
  3
ByBlock
350
6EB
  3
ByLayer
350
6E3
  3
Global
350
6F3
  0
DICTIONARY
  5
737
102
{ACAD_REACTORS
330
6DE
102
}
330
6DE
100
AcDbDictionary
281
     1
  3
Standard
350
738
  0
DICTIONARY
  5
730
102
{ACAD_REACTORS
330
6DE
102
}
330
6DE
100
AcDbDictionary
281
     1
  3
Standard
350
731
  0
DICTIONARY
  5
732
102
{ACAD_REACTORS
330
6DE
102
}
330
6DE
100
AcDbDictionary
281
     1
  0
ACDBDICTIONARYWDFLT
  5
6E0
102
{ACAD_REACTORS
330
6DE
102
}
330
6DE
100
AcDbDictionary
281
     1
  3
Normal
350
6E1
100
AcDbDictionaryWithDefault
340
6E1
  0
DICTIONARY
  5
714
102
{ACAD_REACTORS
330
6DE
102
}
330
6DE
100
AcDbDictionary
281
     1
  3
A0
350
715
  3
A1
350
716
  3
A2
350
717
  3
A3
350
718
  3
A4
350
719
  3
A5
350
71A
  3
A6
350
71B
  3
A7
350
71C
  3
A8
350
71D
  3
A9
350
71E
  3
B0
350
71F
  3
B1
350
720
  3
B2
350
721
  3
B3
350
722
  3
B4
350
723
  3
B5
350
724
  3
B6
350
725
  0
DICTIONARY
  5
739
102
{ACAD_REACTORS
330
6DE
102
}
330
6DE
100
AcDbDictionary
281
     1
  3
Imperial24
350
73B
  0
DICTIONARY
  5
735
102
{ACAD_REACTORS
330
6DE
102
}
330
6DE
100
AcDbDictionary
281
     1
  3
Standard
350
736
  0
DICTIONARY
  5
6FB
102
{ACAD_REACTORS
330
6DE
102
}
330
6DE
100
AcDbDictionary
281
     1
  3
2dWireframe
350
701
  3
Basic
350
700
  3
Brighten
350
707
  3
ColorChange
350
70B
  3
Conceptual
350
704
  3
Dim
350
706
  3
EdgeColorOff
350
713
  3
Facepattern
350
70A
  3
Flat
350
6FC
  3
FlatWithEdges
350
6FD
  3
Gouraud
350
6FE
  3
GouraudWithEdges
350
6FF
  3
Hidden
350
703
  3
JitterOff
350
711
  3
Linepattern
350
709
  3
OverhangOff
350
712
  3
Realistic
350
705
  3
Shaded
350
710
  3
Shaded with edges
350
70F
  3
Shades of Gray
350
70C
  3
Sketchy
350
70D
  3
Thicken
350
708
  3
Wireframe
350
702
  3
X-Ray
350
70E
  0
XRECORD
  5
1430
102
{ACAD_REACTORS
330
6DE
102
}
330
6DE
100
AcDbXrecord
280
     1
 90
        1
330
736
  0
DICTIONARY
  5
7ED
102
{ACAD_REACTORS
330
6DE
102
}
330
6DE
100
AcDbDictionary
281
     1
  3
CANNOSCALE
350
7F3
  3
CMLEADERSTYLE
350
7EF
  3
CTABLESTYLE
350
7EE
  3
CVIEWDETAILSTYLE
350
7F0
  3
CVIEWSECTIONSTYLE
350
7F1
  3
LAYEREVAL
350
7F5
  3
LAYERNOTIFY
350
7F6
  3
LIGHTINGUNITS
350
7F4
  3
MSLTSCALE
350
7F2
  3
XCLIPFRAME
350
142E
  0
DICTIONARY
  5
1436
102
{ACAD_REACTORS
330
6DE
102
}
330
6DE
100
AcDbDictionary
281
     1
  3
AcDsRecords
350
1438
  3
AcDsSchemas
350
1437
1001
ACAD
1070
     2
  0
DICTIONARY
  5
843
102
{ACAD_REACTORS
330
842
102
}
330
842
100
AcDbDictionary
281
     1
  0
XRECORD
  5
7D8
102
{ACAD_REACTORS
330
7D7
102
}
330
7D7
100
AcDbXrecord
280
     1
290
     1
  0
XRECORD
  5
7DA
102
{ACAD_REACTORS
330
7D9
102
}
330
7D9
100
AcDbXrecord
280
     1
290
     1
  0
XRECORD
  5
7DC
102
{ACAD_REACTORS
330
7DB
102
}
330
7DB
100
AcDbXrecord
280
     1
290
     1
  0
XRECORD
  5
7DE
102
{ACAD_REACTORS
330
7DD
102
}
330
7DD
100
AcDbXrecord
280
     1
290
     1
  0
XRECORD
  5
7E0
102
{ACAD_REACTORS
330
7DF
102
}
330
7DF
100
AcDbXrecord
280
     1
290
     1
  0
XRECORD
  5
7E2
102
{ACAD_REACTORS
330
7E1
102
}
330
7E1
100
AcDbXrecord
280
     1
290
     1
  0
XRECORD
  5
7E4
102
{ACAD_REACTORS
330
7E3
102
}
330
7E3
100
AcDbXrecord
280
     1
290
     1
  0
XRECORD
  5
7E6
102
{ACAD_REACTORS
330
7E5
102
}
330
7E5
100
AcDbXrecord
280
     1
290
     1
  0
XRECORD
  5
7E8
102
{ACAD_REACTORS
330
7E7
102
}
330
7E7
100
AcDbXrecord
280
     1
290
     1
  0
XRECORD
  5
7EA
102
{ACAD_REACTORS
330
7E9
102
}
330
7E9
100
AcDbXrecord
280
     1
290
     1
  0
XRECORD
  5
7EC
102
{ACAD_REACTORS
330
7EB
102
}
330
7EB
100
AcDbXrecord
280
     1
290
     1
  0
SORTENTSTABLE
  5
891
102
{ACAD_REACTORS
330
890
102
}
330
890
100
AcDbSortentsTable
330
742
331
41E
  5
41E
331
48D
  5
48D
331
41A
  5
41A
331
416
  5
416
331
489
  5
489
331
485
  5
485
331
412
  5
412
331
481
  5
481
331
5F7
  5
5FC
331
636
  5
642
331
5F3
  5
5F8
331
632
  5
63E
331
A37
  5
BF1
331
5EF
  5
5F4
331
62E
  5
63A
331
A33
  5
BA8
331
5EB
  5
5F0
331
62A
  5
637
331
A2F
  5
B56
331
A2B
  5
A38
331
40F
  5
40F
331
40B
  5
40B
331
44A
  5
44A
331
446
  5
446
331
442
  5
442
331
627
  5
634
331
5E4
  5
5E9
331
623
  5
630
331
A24
  5
A30
331
61F
  5
62A
331
A20
  5
A2C
331
4A8
  5
4A9
331
64F
  5
A23
331
43E
  5
43E
331
64B
  5
A1F
331
43A
  5
43A
331
647
  5
88B
331
436
  5
436
331
643
  5
64F
331
432
  5
432
331
617
  5
622
331
4A4
  5
4A4
331
613
  5
61A
331
4A0
  5
4A0
331
60F
  5
616
331
49C
  5
49C
331
60B
  5
612
331
498
  5
498
331
42F
  5
42F
331
42B
  5
42B
331
427
  5
427
331
496
  5
496
331
423
  5
423
331
492
  5
492
331
604
  5
609
331
600
  5
605
331
63F
  5
64B
331
5FC
  5
601
331
63B
  5
648
331
5F8
  5
5FD
331
B00
  5
A31
331
41F
  5
41F
331
48E
  5
48E
331
41B
  5
41B
331
48A
  5
48A
331
417
  5
417
331
486
  5
486
331
413
  5
413
331
482
  5
482
331
637
  5
643
331
5F4
  5
5F9
331
633
  5
63F
331
5F0
  5
5F5
331
A34
  5
BC1
331
62F
  5
63B
331
5EC
  5
5F1
331
A30
  5
B60
331
62B
  5
638
331
5E8
  5
5ED
331
A2C
  5
A66
331
A28
  5
A35
331
40C
  5
40C
331
44B
  5
44B
331
447
  5
447
331
650
  5
A24
331
443
  5
443
331
5E5
  5
5EA
331
620
  5
62B
331
A25
  5
A32
331
61C
  5
627
331
A21
  5
A2D
331
4A9
  5
4AA
331
618
  5
623
331
64C
  5
A20
331
43F
  5
43F
331
648
  5
88C
331
43B
  5
43B
331
644
  5
650
331
437
  5
437
331
640
  5
64C
331
433
  5
433
331
4A5
  5
4A6
331
614
  5
61B
331
610
  5
617
331
49D
  5
49D
331
60C
  5
613
331
499
  5
499
331
608
  5
60F
331
CA8
  5
60E
331
42C
  5
42C
331
428
  5
428
331
497
  5
497
331
424
  5
424
331
493
  5
493
331
420
  5
420
331
605
  5
60A
331
601
  5
607
331
5FD
  5
602
331
5F9
  5
5FE
331
638
  5
644
331
48F
  5
48F
331
41C
  5
41C
331
48B
  5
48B
331
418
  5
418
331
487
  5
487
331
414
  5
414
331
483
  5
483
331
410
  5
410
331
5F5
  5
5FA
331
634
  5
640
331
5F1
  5
5F6
331
630
  5
63C
331
A35
  5
BD7
331
5ED
  5
5F2
331
62C
  5
639
331
A31
  5
B91
331
5E9
  5
5EE
331
628
  5
635
331
A2D
  5
A73
331
A29
  5
A36
331
44C
  5
44C
331
40D
  5
40D
331
448
  5
448
331
444
  5
444
331
651
  5
A25
331
440
  5
440
331
5E6
  5
5EB
331
625
  5
631
331
5E2
  5
5E7
331
A26
  5
A33
331
621
  5
62C
331
A22
  5
A2E
331
61D
  5
628
331
4AA
  5
4AB
331
619
  5
625
331
64D
  5
A21
331
649
  5
88D
331
43C
  5
43C
331
645
  5
651
331
438
  5
438
331
641
  5
64D
331
434
  5
434
331
430
  5
430
331
4A6
  5
4A7
331
615
  5
61C
331
4A2
  5
4A2
331
49E
  5
49E
331
611
  5
618
331
60D
  5
614
331
49A
  5
49A
331
609
  5
610
331
CA9
  5
61E
331
42D
  5
42D
331
429
  5
429
331
494
  5
494
331
425
  5
425
331
490
  5
490
331
421
  5
421
331
606
  5
60B
331
5FE
  5
603
331
63D
  5
649
331
5FA
  5
5FF
331
639
  5
645
331
48C
  5
48C
331
41D
  5
41D
331
488
  5
488
331
419
  5
419
331
484
  5
484
331
415
  5
415
331
480
  5
480
331
411
  5
411
331
5F6
  5
5FB
331
635
  5
641
331
5F2
  5
5F7
331
A36
  5
BE4
331
5EE
  5
5F3
331
631
  5
63D
331
A32
  5
BA7
331
5EA
  5
5EF
331
A2E
  5
B00
331
629
  5
636
331
A2A
  5
A37
331
40E
  5
40E
331
44D
  5
44D
331
40A
  5
40A
331
449
  5
449
331
445
  5
445
331
441
  5
441
331
626
  5
632
331
5E7
  5
5EC
331
622
  5
62F
331
5E3
  5
5E8
331
A27
  5
A34
331
61E
  5
629
331
A23
  5
A2F
331
4AB
  5
4B5
331
61A
  5
626
331
A1F
  5
A2B
331
64E
  5
A22
331
64A
  5
88F
331
646
  5
88A
331
43D
  5
43D
331
439
  5
439
331
435
  5
435
331
431
  5
431
331
4A7
  5
4A8
331
616
  5
61D
331
4A3
  5
4A3
331
612
  5
619
331
60E
  5
615
331
49F
  5
49F
331
60A
  5
611
331
49B
  5
49B
331
CAE
  5
621
331
CAA
  5
620
331
42E
  5
42E
331
42A
  5
42A
331
426
  5
426
331
495
  5
495
331
422
  5
422
331
491
  5
491
331
607
  5
60C
331
603
  5
608
331
CA7
  5
60D
331
5FF
  5
604
331
63E
  5
64A
331
5FB
  5
600
331
63A
  5
647
  0
ACDBDETAILVIEWSTYLE
  5
73D
102
{ACAD_XDICTIONARY
360
146B
102
}
102
{ACAD_REACTORS
330
73C
102
}
330
73C
100
AcDbModelDocViewStyle
 70
     0
  3
Imperial24
290
     0
100
AcDbDetailViewStyle
 70
     0
 71
     0
 90
        3
 71
     1
340
727
 62
   256
 40
0.24
340
0
 62
   256
 40
0.24
300

 40
0.36
280
     3
 71
     2
340
72E
 90
       25
 62
   256
 71
     3
340
727
 62
   256
 40
0.24
 90
        1
 40
0.75
 90
        1
300
%<\AcVar ViewType \f "%tc1">% %<\AcVar ViewDetailId>%\PSCALE %<\AcVar ViewScale \f "%sn">%
 71
     4
340
72E
 90
       25
 62
   256
340
72E
 90
       25
 62
   256
280
     0
  0
LAYOUT
  5
745
102
{ACAD_REACTORS
330
733
102
}
330
733
100
AcDbPlotSettings
  1

  2
EPSON LP-S3200(2)
  4
A4
  6

 40
5.873749732971191
 41
5.873717308044432
 42
5.873748779296875
 43
5.873748779296875
 44
209.9733276367186
 45
297.0106506347656
 46
0.0
 47
0.0
 48
0.0
 49
0.0
140
0.0
141
0.0
142
1.0
143
544.1124423698678
 70
 11952
 72
     0
 73
     1
 74
     0
  7
monochrome.ctb
 75
     0
147
0.0018378554176128
 76
     0
 77
     2
 78
   300
148
73524.63782597554
149
29761.91903867866
100
AcDbLayout
  1
Model
 70
     1
 71
     0
 10
0.0
 20
0.0
 11
12.0
 21
9.0
 12
0.0
 22
0.0
 32
0.0
 14
0.0
 24
0.0
 34
0.0
 15
0.0
 25
0.0
 35
0.0
146
0.0
 13
0.0
 23
0.0
 33
0.0
 16
1.0
 26
0.0
 36
0.0
 17
0.0
 27
1.0
 37
0.0
 76
     0
330
742
331
747
1001
ACAD_PSEXT
1000
EPSON LP-S3200(2)
1000
EPSON LP-S3200
1000
10.70.14.11
1000

1070
     0
  0
LAYOUT
  5
741
102
{ACAD_REACTORS
330
733
102
}
330
733
100
AcDbPlotSettings
  1

  2
EPSON LP-S3200(2)
  4

  6

 40
0.0
 41
0.0
 42
0.0
 43
0.0
 44
0.0
 45
0.0
 46
0.0
 47
0.0
 48
0.0
 49
0.0
140
0.0
141
0.0
142
1.0
143
1.0
 70
   688
 72
     0
 73
     0
 74
     5
  7
monochrome.ctb
 75
    16
147
1.0
 76
     0
 77
     2
 78
   300
148
0.0
149
0.0
100
AcDbLayout
  1
レイアウト1
 70
     1
 71
     1
 10
0.0
 20
0.0
 11
12.0
 21
9.0
 12
0.0
 22
0.0
 32
0.0
 14
1.000000000000000E+20
 24
1.000000000000000E+20
 34
1.000000000000000E+20
 15
-1.000000000000000E+20
 25
-1.000000000000000E+20
 35
-1.000000000000000E+20
146
0.0
 13
0.0
 23
0.0
 33
0.0
 16
1.0
 26
0.0
 36
0.0
 17
0.0
 27
1.0
 37
0.0
 76
     0
330
73E
  0
MATERIAL
  5
6EB
102
{ACAD_XDICTIONARY
360
6EC
102
}
102
{ACAD_REACTORS
330
6E2
102
}
330
6E2
100
AcDbMaterial
  1
ByBlock
 72
     0
 43
0.0208333333333333
 43
0.0
 43
0.0
 43
0.0
 43
0.0
 43
0.0208333333333333
 43
0.0
 43
0.0
 43
0.0
 43
0.0
 43
1.0
 43
0.0
 43
0.0
 43
0.0
 43
0.0
 43
1.0
 77
     0
 47
0.0208333333333333
 47
0.0
 47
0.0
 47
0.0
 47
0.0
 47
0.0208333333333333
 47
0.0
 47
0.0
 47
0.0
 47
0.0
 47
1.0
 47
0.0
 47
0.0
 47
0.0
 47
0.0
 47
1.0
171
     0
 49
0.0208333333333333
 49
0.0
 49
0.0
 49
0.0
 49
0.0
 49
0.0208333333333333
 49
0.0
 49
0.0
 49
0.0
 49
0.0
 49
1.0
 49
0.0
 49
0.0
 49
0.0
 49
0.0
 49
1.0
175
     0
142
0.0208333333333333
142
0.0
142
0.0
142
0.0
142
0.0
142
0.0208333333333333
142
0.0
142
0.0
142
0.0
142
0.0
142
1.0
142
0.0
142
0.0
142
0.0
142
0.0
142
1.0
179
     0
144
0.0208333333333333
144
0.0
144
0.0
144
0.0
144
0.0
144
0.0208333333333333
144
0.0
144
0.0
144
0.0
144
0.0
144
1.0
144
0.0
144
0.0
144
0.0
144
0.0
144
1.0
147
0.0208333333333333
147
0.0
147
0.0
147
0.0
147
0.0
147
0.0208333333333333
147
0.0
147
0.0
147
0.0
147
0.0
147
1.0
147
0.0
147
0.0
147
0.0
147
0.0
147
1.0
  0
MATERIAL
  5
6E3
102
{ACAD_XDICTIONARY
360
6E4
102
}
102
{ACAD_REACTORS
330
6E2
102
}
330
6E2
100
AcDbMaterial
  1
ByLayer
 72
     0
 43
0.0208333333333333
 43
0.0
 43
0.0
 43
0.0
 43
0.0
 43
0.0208333333333333
 43
0.0
 43
0.0
 43
0.0
 43
0.0
 43
1.0
 43
0.0
 43
0.0
 43
0.0
 43
0.0
 43
1.0
 77
     0
 47
0.0208333333333333
 47
0.0
 47
0.0
 47
0.0
 47
0.0
 47
0.0208333333333333
 47
0.0
 47
0.0
 47
0.0
 47
0.0
 47
1.0
 47
0.0
 47
0.0
 47
0.0
 47
0.0
 47
1.0
171
     0
 49
0.0208333333333333
 49
0.0
 49
0.0
 49
0.0
 49
0.0
 49
0.0208333333333333
 49
0.0
 49
0.0
 49
0.0
 49
0.0
 49
1.0
 49
0.0
 49
0.0
 49
0.0
 49
0.0
 49
1.0
175
     0
142
0.0208333333333333
142
0.0
142
0.0
142
0.0
142
0.0
142
0.0208333333333333
142
0.0
142
0.0
142
0.0
142
0.0
142
1.0
142
0.0
142
0.0
142
0.0
142
0.0
142
1.0
179
     0
144
0.0208333333333333
144
0.0
144
0.0
144
0.0
144
0.0
144
0.0208333333333333
144
0.0
144
0.0
144
0.0
144
0.0
144
1.0
144
0.0
144
0.0
144
0.0
144
0.0
144
1.0
147
0.0208333333333333
147
0.0
147
0.0
147
0.0
147
0.0
147
0.0208333333333333
147
0.0
147
0.0
147
0.0
147
0.0
147
1.0
147
0.0
147
0.0
147
0.0
147
0.0
147
1.0
  0
MATERIAL
  5
6F3
102
{ACAD_XDICTIONARY
360
6F4
102
}
102
{ACAD_REACTORS
330
6E2
102
}
330
6E2
100
AcDbMaterial
  1
Global
 72
     0
 43
0.0208333333333333
 43
0.0
 43
0.0
 43
0.0
 43
0.0
 43
0.0208333333333333
 43
0.0
 43
0.0
 43
0.0
 43
0.0
 43
1.0
 43
0.0
 43
0.0
 43
0.0
 43
0.0
 43
1.0
 77
     0
 47
0.0208333333333333
 47
0.0
 47
0.0
 47
0.0
 47
0.0
 47
0.0208333333333333
 47
0.0
 47
0.0
 47
0.0
 47
0.0
 47
1.0
 47
0.0
 47
0.0
 47
0.0
 47
0.0
 47
1.0
171
     0
 49
0.0208333333333333
 49
0.0
 49
0.0
 49
0.0
 49
0.0
 49
0.0208333333333333
 49
0.0
 49
0.0
 49
0.0
 49
0.0
 49
1.0
 49
0.0
 49
0.0
 49
0.0
 49
0.0
 49
1.0
175
     0
142
0.0208333333333333
142
0.0
142
0.0
142
0.0
142
0.0
142
0.0208333333333333
142
0.0
142
0.0
142
0.0
142
0.0
142
1.0
142
0.0
142
0.0
142
0.0
142
0.0
142
1.0
179
     0
144
0.0208333333333333
144
0.0
144
0.0
144
0.0
144
0.0
144
0.0208333333333333
144
0.0
144
0.0
144
0.0
144
0.0
144
1.0
144
0.0
144
0.0
144
0.0
144
0.0
144
1.0
147
0.0208333333333333
147
0.0
147
0.0
147
0.0
147
0.0
147
0.0208333333333333
147
0.0
147
0.0
147
0.0
147
0.0
147
1.0
147
0.0
147
0.0
147
0.0
147
0.0
147
1.0
  0
MLEADERSTYLE
  5
738
102
{ACAD_REACTORS
330
737
102
}
330
737
100
AcDbMLeaderStyle
170
     2
171
     1
172
     0
 90
        2
 40
0.0
 41
0.0
173
     1
 91
-1056964608
340
72C
 92
       -2
290
     1
 42
0.09
291
     1
 43
0.36
  3
Standard
 44
0.18
300

342
727
174
     1
178
     6
175
     1
176
     0
 93
-1056964608
 45
0.18
292
     0
297
     0
 46
0.18
 94
-1056964608
 47
1.0
 49
1.0
140
1.0
293
     1
141
0.0
294
     1
177
     0
142
1.0
295
     0
296
     0
143
0.125
1001
ACAD_MLEADERVER
1070
     2
  0
MLINESTYLE
  5
731
102
{ACAD_REACTORS
330
730
102
}
330
730
100
AcDbMlineStyle
  2
STANDARD
 70
     0
  3

 62
   256
 51
90.0
 52
90.0
 71
     2
 49
0.5
 62
   256
  6
BYLAYER
 49
-0.5
 62
   256
  6
BYLAYER
  0
ACDBPLACEHOLDER
  5
6E1
102
{ACAD_REACTORS
330
6E0
102
}
330
6E0
  0
SCALE
  5
715
102
{ACAD_REACTORS
330
714
102
}
330
714
100
AcDbScale
 70
     0
300
1:1
140
1.0
141
1.0
290
     1
  0
SCALE
  5
716
102
{ACAD_REACTORS
330
714
102
}
330
714
100
AcDbScale
 70
     0
300
1/128" = 1'-0"
140
0.0078125
141
12.0
290
     0
  0
SCALE
  5
717
102
{ACAD_REACTORS
330
714
102
}
330
714
100
AcDbScale
 70
     0
300
1/64" = 1'-0"
140
0.015625
141
12.0
290
     0
  0
SCALE
  5
718
102
{ACAD_REACTORS
330
714
102
}
330
714
100
AcDbScale
 70
     0
300
1/32" = 1'-0"
140
0.03125
141
12.0
290
     0
  0
SCALE
  5
719
102
{ACAD_REACTORS
330
714
102
}
330
714
100
AcDbScale
 70
     0
300
1/16" = 1'-0"
140
0.0625
141
12.0
290
     0
  0
SCALE
  5
71A
102
{ACAD_REACTORS
330
714
102
}
330
714
100
AcDbScale
 70
     0
300
3/32" = 1'-0"
140
0.09375
141
12.0
290
     0
  0
SCALE
  5
71B
102
{ACAD_REACTORS
330
714
102
}
330
714
100
AcDbScale
 70
     0
300
1/8" = 1'-0"
140
0.125
141
12.0
290
     0
  0
SCALE
  5
71C
102
{ACAD_REACTORS
330
714
102
}
330
714
100
AcDbScale
 70
     0
300
3/16" = 1'-0"
140
0.1875
141
12.0
290
     0
  0
SCALE
  5
71D
102
{ACAD_REACTORS
330
714
102
}
330
714
100
AcDbScale
 70
     0
300
1/4" = 1'-0"
140
0.25
141
12.0
290
     0
  0
SCALE
  5
71E
102
{ACAD_REACTORS
330
714
102
}
330
714
100
AcDbScale
 70
     0
300
3/8" = 1'-0"
140
0.375
141
12.0
290
     0
  0
SCALE
  5
71F
102
{ACAD_REACTORS
330
714
102
}
330
714
100
AcDbScale
 70
     0
300
1/2" = 1'-0"
140
0.5
141
12.0
290
     0
  0
SCALE
  5
720
102
{ACAD_REACTORS
330
714
102
}
330
714
100
AcDbScale
 70
     0
300
3/4" = 1'-0"
140
0.75
141
12.0
290
     0
  0
SCALE
  5
721
102
{ACAD_REACTORS
330
714
102
}
330
714
100
AcDbScale
 70
     0
300
1" = 1'-0"
140
1.0
141
12.0
290
     0
  0
SCALE
  5
722
102
{ACAD_REACTORS
330
714
102
}
330
714
100
AcDbScale
 70
     0
300
1-1/2" = 1'-0"
140
1.5
141
12.0
290
     0
  0
SCALE
  5
723
102
{ACAD_REACTORS
330
714
102
}
330
714
100
AcDbScale
 70
     0
300
3" = 1'-0"
140
3.0
141
12.0
290
     0
  0
SCALE
  5
724
102
{ACAD_REACTORS
330
714
102
}
330
714
100
AcDbScale
 70
     0
300
6" = 1'-0"
140
6.0
141
12.0
290
     0
  0
SCALE
  5
725
102
{ACAD_REACTORS
330
714
102
}
330
714
100
AcDbScale
 70
     0
300
1'-0" = 1'-0"
140
12.0
141
12.0
290
     0
  0
ACDBSECTIONVIEWSTYLE
  5
73B
102
{ACAD_XDICTIONARY
360
1469
102
}
102
{ACAD_REACTORS
330
739
102
}
330
739
100
AcDbModelDocViewStyle
 70
     0
  3
Imperial24
290
     0
100
AcDbSectionViewStyle
 70
     0
 71
     0
 90
       78
 71
     1
340
727
 62
   256
 40
0.24
340
0
340
0
 62
   256
 40
0.24
300
I, O, Q, S, X, Z
 40
0.48
 90
        3
 40
0.18
 90
        1
 71
     2
340
73A
 90
       25
 62
   256
340
72E
 90
       50
 62
   256
 40
0.24
 40
0.0
 40
0.24
 71
     3
340
727
 62
   256
 40
0.24
 90
        1
 40
0.75
 90
        1
300
%<\AcVar ViewType \f "%tc1">% %<\AcVar ViewSectionStartId>%-%<\AcVar ViewSectionEndId>%\PSCALE %<\AcVar ViewScale \f "%sn">%
 71
     4
 62
   256
 62
   257
300
ANSI31
 40
1.0
 90
        0
290
     0
290
     0
 90
        6
 40
0.0
 40
1.570796326794896
 40
0.2617993877991494
 40
1.308996938995747
 40
-0.2617993877991494
 40
1.832595714594044
  0
TABLESTYLE
  5
736
102
{ACAD_XDICTIONARY
360
848
102
}
102
{ACAD_REACTORS
330
735
102
}
330
735
100
AcDbTableStyle
  3
Standard
 70
     0
 71
     0
 40
0.06
 41
0.06
280
     0
281
     0
  7
STANDARD
140
0.18
170
     2
 62
     0
 63
     7
283
     0
 90
      512
 91
        0
  1

274
    -2
284
     1
 64
     0
275
    -2
285
     1
 65
     0
276
    -2
286
     1
 66
     0
277
    -2
287
     1
 67
     0
278
    -2
288
     1
 68
     0
279
    -2
289
     1
 69
     0
  7
STANDARD
140
0.25
170
     5
 62
     0
 63
     7
283
     0
 90
      512
 91
        0
  1

274
    -2
284
     1
 64
     0
275
    -2
285
     1
 65
     0
276
    -2
286
     1
 66
     0
277
    -2
287
     1
 67
     0
278
    -2
288
     1
 68
     0
279
    -2
289
     1
 69
     0
  7
STANDARD
140
0.18
170
     5
 62
     0
 63
     7
283
     0
 90
      512
 91
        0
  1

274
    -2
284
     1
 64
     0
275
    -2
285
     1
 65
     0
276
    -2
286
     1
 66
     0
277
    -2
287
     1
 67
     0
278
    -2
288
     1
 68
     0
279
    -2
289
     1
 69
     0
  0
VISUALSTYLE
  5
701
102
{ACAD_XDICTIONARY
360
1443
102
}
102
{ACAD_REACTORS
330
6FB
102
}
330
6FB
100
AcDbVisualStyle
  2

 70
     4
 71
     0
 72
     2
 73
     0
 90
        0
 40
-0.6
 41
-30.0
 62
     5
 63
     7
421
 16777215
 74
     1
 91
        4
 64
     7
 65
   257
 75
     1
175
     1
 42
1.0
 92
        0
 66
   257
 43
1.0
 76
     1
 77
     6
 78
     2
 67
     7
 79
     5
170
     0
171
     0
290
     0
174
     0
 93
        1
 44
0.0
173
     0
291
     0
 45
0.0
1001
ACAD
1000
AcDbSavedByObjectVersion
1070
     0
  0
VISUALSTYLE
  5
700
102
{ACAD_XDICTIONARY
360
1441
102
}
102
{ACAD_REACTORS
330
6FB
102
}
330
6FB
100
AcDbVisualStyle
  2

 70
     7
 71
     1
 72
     0
 73
     1
 90
        0
 40
-0.6
 41
-30.0
 62
     5
 63
     7
421
 16777215
 74
     0
 91
        4
 64
     7
 65
   257
 75
     1
175
     1
 42
1.0
 92
        8
 66
     7
 43
1.0
 76
     1
 77
     6
 78
     2
 67
     7
 79
     5
170
     0
171
     0
290
     0
174
     0
 93
        1
 44
0.0
173
     0
291
     1
 45
0.0
1001
ACAD
1000
AcDbSavedByObjectVersion
1070
     0
  0
VISUALSTYLE
  5
707
102
{ACAD_XDICTIONARY
360
144F
102
}
102
{ACAD_REACTORS
330
6FB
102
}
330
6FB
100
AcDbVisualStyle
  2

 70
    12
 71
     2
 72
     2
 73
     0
 90
        0
 40
-0.6
 41
-30.0
 62
     5
 63
     7
421
 16777215
 74
     1
 91
        4
 64
     7
 65
   257
 75
     1
175
     1
 42
1.0
 92
        8
 66
     7
 43
1.0
 76
     1
 77
     6
 78
     2
 67
     7
 79
     5
170
     0
171
     0
290
     0
174
     0
 93
        1
 44
50.0
173
     0
291
     1
 45
0.0
1001
ACAD
1000
AcDbSavedByObjectVersion
1070
     0
  0
VISUALSTYLE
  5
70B
102
{ACAD_XDICTIONARY
360
1457
102
}
102
{ACAD_REACTORS
330
6FB
102
}
330
6FB
100
AcDbVisualStyle
  2

 70
    16
 71
     2
 72
     2
 73
     3
 90
        0
 40
-0.6
 41
-30.0
 62
     5
 63
     8
421
  8421504
 74
     1
 91
        4
 64
     7
 65
   257
 75
     1
175
     1
 42
1.0
 92
        8
 66
     8
424
  8421504
 43
1.0
 76
     1
 77
     6
 78
     2
 67
     7
 79
     5
170
     0
171
     0
290
     0
174
     0
 93
        1
 44
0.0
173
     0
291
     1
 45
0.0
1001
ACAD
1000
AcDbSavedByObjectVersion
1070
     0
  0
VISUALSTYLE
  5
704
102
{ACAD_XDICTIONARY
360
1449
102
}
102
{ACAD_REACTORS
330
6FB
102
}
330
6FB
100
AcDbVisualStyle
  2

 70
     9
 71
     3
 72
     2
 73
     0
 90
        0
 40
-0.6
 41
-30.0
 62
     5
 63
     7
421
 16777215
 74
     2
 91
        2
 64
     7
 65
   257
 75
     1
175
     1
 42
179.0
 92
        8
 66
     7
 43
1.0
 76
     1
 77
     6
 78
     2
 67
     7
 79
     3
170
     0
171
     0
290
     0
174
     0
 93
        1
 44
0.0
173
     0
291
     0
 45
0.0
1001
ACAD
1000
AcDbSavedByObjectVersion
1070
     0
  0
VISUALSTYLE
  5
706
102
{ACAD_XDICTIONARY
360
144D
102
}
102
{ACAD_REACTORS
330
6FB
102
}
330
6FB
100
AcDbVisualStyle
  2

 70
    11
 71
     2
 72
     2
 73
     0
 90
        0
 40
-0.6
 41
-30.0
 62
     5
 63
     7
421
 16777215
 74
     1
 91
        4
 64
     7
 65
   257
 75
     1
175
     1
 42
1.0
 92
        8
 66
     7
 43
1.0
 76
     1
 77
     6
 78
     2
 67
     7
 79
     5
170
     0
171
     0
290
     0
174
     0
 93
        1
 44
-50.0
173
     0
291
     1
 45
0.0
1001
ACAD
1000
AcDbSavedByObjectVersion
1070
     0
  0
VISUALSTYLE
  5
713
102
{ACAD_XDICTIONARY
360
1467
102
}
102
{ACAD_REACTORS
330
6FB
102
}
330
6FB
100
AcDbVisualStyle
  2

 70
    22
 71
     2
 72
     2
 73
     0
 90
        0
 40
-0.6
 41
-30.0
 62
     5
 63
     7
421
 16777215
 74
     1
 91
        4
 64
     7
 65
   257
 75
     1
175
     1
 42
1.0
 92
        8
 66
     7
 43
1.0
 76
     1
 77
     6
 78
     2
 67
     7
 79
     5
170
     0
171
     0
290
     0
174
     0
 93
        1
 44
0.0
173
     0
291
     1
 45
0.0
1001
ACAD
1000
AcDbSavedByObjectVersion
1070
     0
  0
VISUALSTYLE
  5
70A
102
{ACAD_XDICTIONARY
360
1455
102
}
102
{ACAD_REACTORS
330
6FB
102
}
330
6FB
100
AcDbVisualStyle
  2

 70
    15
 71
     2
 72
     2
 73
     0
 90
        0
 40
-0.6
 41
-30.0
 62
     5
 63
     7
421
 16777215
 74
     1
 91
        4
 64
     7
 65
   257
 75
     1
175
     1
 42
1.0
 92
        8
 66
     7
 43
1.0
 76
     1
 77
     6
 78
     2
 67
     7
 79
     5
170
     0
171
     0
290
     0
174
     0
 93
        1
 44
0.0
173
     0
291
     1
 45
0.0
1001
ACAD
1000
AcDbSavedByObjectVersion
1070
     0
  0
VISUALSTYLE
  5
6FC
102
{ACAD_XDICTIONARY
360
1439
102
}
102
{ACAD_REACTORS
330
6FB
102
}
330
6FB
100
AcDbVisualStyle
  2

 70
     0
 71
     2
 72
     1
 73
     1
 90
        2
 40
-0.6
 41
30.0
 62
     5
 63
     7
421
 16777215
 74
     0
 91
        0
 64
     7
 65
   257
 75
     1
175
     1
 42
1.0
 92
        8
 66
     7
 43
1.0
 76
     1
 77
     6
 78
     2
 67
     7
 79
     5
170
     0
171
     0
290
     0
174
     0
 93
       13
 44
0.0
173
     0
291
     1
 45
0.0
1001
ACAD
1000
AcDbSavedByObjectVersion
1070
     0
  0
VISUALSTYLE
  5
6FD
102
{ACAD_XDICTIONARY
360
143B
102
}
102
{ACAD_REACTORS
330
6FB
102
}
330
6FB
100
AcDbVisualStyle
  2

 70
     1
 71
     2
 72
     1
 73
     1
 90
        2
 40
-0.6
 41
30.0
 62
     5
 63
     7
421
 16777215
 74
     1
 91
        0
 64
     7
 65
   257
 75
     1
175
     1
 42
1.0
 92
        0
 66
   257
 43
1.0
 76
     1
 77
     6
 78
     2
 67
     7
 79
     5
170
     0
171
     0
290
     0
174
     0
 93
       13
 44
0.0
173
     0
291
     1
 45
0.0
1001
ACAD
1000
AcDbSavedByObjectVersion
1070
     0
  0
VISUALSTYLE
  5
6FE
102
{ACAD_XDICTIONARY
360
143D
102
}
102
{ACAD_REACTORS
330
6FB
102
}
330
6FB
100
AcDbVisualStyle
  2

 70
     2
 71
     2
 72
     2
 73
     1
 90
        2
 40
-0.6
 41
30.0
 62
     5
 63
     7
421
 16777215
 74
     0
 91
        0
 64
     7
 65
   257
 75
     1
175
     1
 42
1.0
 92
        0
 66
     7
 43
1.0
 76
     1
 77
     6
 78
     2
 67
     7
 79
     5
170
     0
171
     0
290
     0
174
     0
 93
       13
 44
0.0
173
     0
291
     1
 45
0.0
1001
ACAD
1000
AcDbSavedByObjectVersion
1070
     0
  0
VISUALSTYLE
  5
6FF
102
{ACAD_XDICTIONARY
360
143F
102
}
102
{ACAD_REACTORS
330
6FB
102
}
330
6FB
100
AcDbVisualStyle
  2

 70
     3
 71
     2
 72
     2
 73
     1
 90
        2
 40
-0.6
 41
30.0
 62
     5
 63
     7
421
 16777215
 74
     1
 91
        0
 64
     7
 65
   257
 75
     1
175
     1
 42
1.0
 92
        0
 66
   257
 43
1.0
 76
     1
 77
     6
 78
     2
 67
     7
 79
     5
170
     0
171
     0
290
     0
174
     0
 93
       13
 44
0.0
173
     0
291
     1
 45
0.0
1001
ACAD
1000
AcDbSavedByObjectVersion
1070
     0
  0
VISUALSTYLE
  5
703
102
{ACAD_XDICTIONARY
360
1447
102
}
102
{ACAD_REACTORS
330
6FB
102
}
330
6FB
100
AcDbVisualStyle
  2

 70
     6
 71
     1
 72
     2
 73
     2
 90
        0
 40
-0.6
 41
-30.0
 62
     5
 63
     7
421
 16777215
 74
     2
 91
        2
 64
     7
 65
   257
 75
     2
175
     1
 42
40.0
 92
        0
 66
   257
 43
1.0
 76
     1
 77
     6
 78
     2
 67
     7
 79
     3
170
     0
171
     0
290
     0
174
     0
 93
        1
 44
0.0
173
     0
291
     0
 45
0.0
1001
ACAD
1000
AcDbSavedByObjectVersion
1070
     0
  0
VISUALSTYLE
  5
711
102
{ACAD_XDICTIONARY
360
1463
102
}
102
{ACAD_REACTORS
330
6FB
102
}
330
6FB
100
AcDbVisualStyle
  2

 70
    20
 71
     2
 72
     2
 73
     0
 90
        0
 40
-0.6
 41
-30.0
 62
     5
 63
     7
421
 16777215
 74
     1
 91
        4
 64
     7
 65
   257
 75
     1
175
     1
 42
1.0
 92
       10
 66
     7
 43
1.0
 76
     1
 77
     6
 78
     2
 67
     7
 79
     5
170
     0
171
     0
290
     0
174
     0
 93
        1
 44
0.0
173
     0
291
     1
 45
0.0
1001
ACAD
1000
AcDbSavedByObjectVersion
1070
     0
  0
VISUALSTYLE
  5
709
102
{ACAD_XDICTIONARY
360
1453
102
}
102
{ACAD_REACTORS
330
6FB
102
}
330
6FB
100
AcDbVisualStyle
  2

 70
    14
 71
     2
 72
     2
 73
     0
 90
        0
 40
-0.6
 41
-30.0
 62
     5
 63
     7
421
 16777215
 74
     1
 91
        4
 64
     7
 65
   257
 75
     7
175
     7
 42
1.0
 92
        8
 66
     7
 43
1.0
 76
     1
 77
     6
 78
     2
 67
     7
 79
     5
170
     0
171
     0
290
     0
174
     0
 93
        1
 44
0.0
173
     0
291
     1
 45
0.0
1001
ACAD
1000
AcDbSavedByObjectVersion
1070
     0
  0
VISUALSTYLE
  5
712
102
{ACAD_XDICTIONARY
360
1465
102
}
102
{ACAD_REACTORS
330
6FB
102
}
330
6FB
100
AcDbVisualStyle
  2

 70
    21
 71
     2
 72
     2
 73
     0
 90
        0
 40
-0.6
 41
-30.0
 62
     5
 63
     7
421
 16777215
 74
     1
 91
        4
 64
     7
 65
   257
 75
     1
175
     1
 42
1.0
 92
        9
 66
     7
 43
1.0
 76
     1
 77
     6
 78
     2
 67
     7
 79
     5
170
     0
171
     0
290
     0
174
     0
 93
        1
 44
0.0
173
     0
291
     1
 45
0.0
1001
ACAD
1000
AcDbSavedByObjectVersion
1070
     0
  0
VISUALSTYLE
  5
705
102
{ACAD_XDICTIONARY
360
144B
102
}
102
{ACAD_REACTORS
330
6FB
102
}
330
6FB
100
AcDbVisualStyle
  2

 70
     8
 71
     2
 72
     3
 73
     0
 90
        2
 40
-0.6
 41
30.0
 62
     5
 63
     7
421
 16777215
 74
     0
 91
        0
 64
     7
 65
   257
 75
     1
175
     1
 42
1.0
 92
        8
 66
   257
 43
1.0
 76
     1
 77
     6
 78
     2
 67
     7
 79
     3
170
     0
171
     0
290
     0
174
     0
 93
       13
 44
0.0
173
     0
291
     0
 45
0.0
1001
ACAD
1000
AcDbSavedByObjectVersion
1070
     0
  0
VISUALSTYLE
  5
710
102
{ACAD_XDICTIONARY
360
1461
102
}
102
{ACAD_REACTORS
330
6FB
102
}
330
6FB
100
AcDbVisualStyle
  2

 70
    27
 71
     2
 72
     2
 73
     1
 90
        2
 40
-0.6
 41
30.0
 62
     5
 63
     7
421
 16777215
 74
     0
 91
        4
 64
     7
 65
   257
 75
     1
175
     1
 42
1.0
 92
        8
 66
   257
 43
1.0
 76
     1
 77
     6
 78
     2
 67
     8
425
  7895160
 79
     3
170
     0
171
     0
290
     0
174
     0
 93
        5
 44
0.0
173
     0
291
     0
 45
0.0
1001
ACAD
1000
AcDbSavedByObjectVersion
1070
     0
  0
VISUALSTYLE
  5
70F
102
{ACAD_XDICTIONARY
360
145F
102
}
102
{ACAD_REACTORS
330
6FB
102
}
330
6FB
100
AcDbVisualStyle
  2

 70
    26
 71
     2
 72
     2
 73
     1
 90
        2
 40
-0.6
 41
30.0
 62
     5
 63
     7
421
 16777215
 74
     1
 91
        2
 64
     7
 65
   257
 75
     2
175
     1
 42
1.0
 92
        8
 66
   257
 43
1.0
 76
     1
 77
     6
 78
     2
 67
     7
 79
     3
170
     0
171
     0
290
     0
174
     0
 93
        5
 44
0.0
173
     0
291
     0
 45
0.0
1001
ACAD
1000
AcDbSavedByObjectVersion
1070
     0
  0
VISUALSTYLE
  5
70C
102
{ACAD_XDICTIONARY
360
1459
102
}
102
{ACAD_REACTORS
330
6FB
102
}
330
6FB
100
AcDbVisualStyle
  2

 70
    23
 71
     2
 72
     2
 73
     3
 90
        0
 40
-0.6
 41
-30.0
 62
     5
 63
     7
421
 16777215
 74
     2
 91
        2
 64
     7
 65
     7
 75
     1
175
     1
 42
40.0
 92
        8
 66
     7
 43
1.0
 76
     1
 77
     6
 78
     2
 67
     7
 79
     3
170
     0
171
     0
290
     0
174
     0
 93
        1
 44
0.0
173
     0
291
     0
 45
0.0
1001
ACAD
1000
AcDbSavedByObjectVersion
1070
     0
  0
VISUALSTYLE
  5
70D
102
{ACAD_XDICTIONARY
360
145B
102
}
102
{ACAD_REACTORS
330
6FB
102
}
330
6FB
100
AcDbVisualStyle
  2

 70
    24
 71
     1
 72
     2
 73
     2
 90
        0
 40
-0.6
 41
-30.0
 62
     5
 63
     7
421
 16777215
 74
     2
 91
        2
 64
     7
 65
     7
 75
     1
175
     1
 42
40.0
 92
       11
 66
     7
 43
1.0
 76
     1
 77
     6
 78
     2
 67
     7
 79
     6
170
     0
171
     0
290
     0
174
     0
 93
        1
 44
0.0
173
     0
291
     0
 45
0.0
1001
ACAD
1000
AcDbSavedByObjectVersion
1070
     0
  0
VISUALSTYLE
  5
708
102
{ACAD_XDICTIONARY
360
1451
102
}
102
{ACAD_REACTORS
330
6FB
102
}
330
6FB
100
AcDbVisualStyle
  2

 70
    13
 71
     2
 72
     2
 73
     0
 90
        0
 40
-0.6
 41
-30.0
 62
     5
 63
     7
421
 16777215
 74
     1
 91
        4
 64
     7
 65
   257
 75
     1
175
     1
 42
1.0
 92
       12
 66
     7
 43
1.0
 76
     1
 77
     6
 78
     2
 67
     7
 79
     5
170
     0
171
     0
290
     0
174
     0
 93
        1
 44
0.0
173
     0
291
     1
 45
0.0
1001
ACAD
1000
AcDbSavedByObjectVersion
1070
     0
  0
VISUALSTYLE
  5
702
102
{ACAD_XDICTIONARY
360
1445
102
}
102
{ACAD_REACTORS
330
6FB
102
}
330
6FB
100
AcDbVisualStyle
  2

 70
     5
 71
     0
 72
     2
 73
     0
 90
        0
 40
-0.6
 41
-30.0
 62
     5
 63
     7
421
 16777215
 74
     1
 91
        4
 64
     7
 65
   257
 75
     1
175
     1
 42
1.0
 92
        0
 66
   257
 43
1.0
 76
     1
 77
     6
 78
     2
 67
     7
 79
     3
170
     0
171
     0
290
     0
174
     0
 93
        1
 44
0.0
173
     0
291
     0
 45
0.0
1001
ACAD
1000
AcDbSavedByObjectVersion
1070
     0
  0
VISUALSTYLE
  5
70E
102
{ACAD_XDICTIONARY
360
145D
102
}
102
{ACAD_REACTORS
330
6FB
102
}
330
6FB
100
AcDbVisualStyle
  2

 70
    25
 71
     2
 72
     2
 73
     1
 90
        1
 40
0.5
 41
-30.0
 62
     5
 63
     7
421
 16777215
 74
     1
 91
        0
 64
     7
 65
   257
 75
     1
175
     1
 42
1.0
 92
        8
 66
     7
 43
1.0
 76
     1
 77
     6
 78
     2
 67
     7
 79
     3
170
     0
171
     0
290
     0
174
     0
 93
       13
 44
0.0
173
     0
291
     0
 45
0.0
1001
ACAD
1000
AcDbSavedByObjectVersion
1070
     0
  0
DICTIONARYVAR
  5
7F3
102
{ACAD_REACTORS
330
7ED
102
}
330
7ED
100
DictionaryVariables
280
     0
  1
1:1
  0
DICTIONARYVAR
  5
7EF
102
{ACAD_REACTORS
330
7ED
102
}
330
7ED
100
DictionaryVariables
280
     0
  1
STANDARD
  0
DICTIONARYVAR
  5
7EE
102
{ACAD_REACTORS
330
7ED
102
}
330
7ED
100
DictionaryVariables
280
     0
  1
STANDARD
  0
DICTIONARYVAR
  5
7F0
102
{ACAD_REACTORS
330
7ED
102
}
330
7ED
100
DictionaryVariables
280
     0
  1
Imperial24
  0
DICTIONARYVAR
  5
7F1
102
{ACAD_REACTORS
330
7ED
102
}
330
7ED
100
DictionaryVariables
280
     0
  1
Imperial24
  0
DICTIONARYVAR
  5
7F5
102
{ACAD_REACTORS
330
7ED
102
}
330
7ED
100
DictionaryVariables
280
     0
  1
1
  0
DICTIONARYVAR
  5
7F6
102
{ACAD_REACTORS
330
7ED
102
}
330
7ED
100
DictionaryVariables
280
     0
  1
15
  0
DICTIONARYVAR
  5
7F4
102
{ACAD_REACTORS
330
7ED
102
}
330
7ED
100
DictionaryVariables
280
     0
  1
0
  0
DICTIONARYVAR
  5
7F2
102
{ACAD_REACTORS
330
7ED
102
}
330
7ED
100
DictionaryVariables
280
     0
  1
0
  0
DICTIONARYVAR
  5
142E
102
{ACAD_REACTORS
330
7ED
102
}
330
7ED
100
DictionaryVariables
280
     0
  1
2
  0
DICTIONARY
  5
1438
102
{ACAD_REACTORS
330
1436
102
}
330
1436
100
AcDbDictionary
281
     1
  0
DICTIONARY
  5
1437
102
{ACAD_REACTORS
330
1436
102
}
330
1436
100
AcDbDictionary
281
     1
  3
2095365664912
350
1431
  3
2095365664928
350
1432
  3
2095365664944
350
1433
  3
2095365664960
350
1434
  3
2095365664976
350
1435
  0
DICTIONARY
  5
146B
330
73D
100
AcDbDictionary
280
     1
281
     1
  3
ACAD_XREC_ROUNDTRIP
360
146C
  0
DICTIONARY
  5
6EC
330
6EB
100
AcDbDictionary
280
     1
281
     1
  3
BUMPTILE
360
6EE
  3
DIFFUSETILE
360
6ED
  3
OPACITYTILE
360
6F1
  3
REFLECTIONTILE
360
6F0
  3
REFRACTIONTILE
360
6F2
  3
SPECULARTILE
360
6EF
  0
DICTIONARY
  5
6E4
330
6E3
100
AcDbDictionary
280
     1
281
     1
  3
BUMPTILE
360
6E6
  3
DIFFUSETILE
360
6E5
  3
OPACITYTILE
360
6E9
  3
REFLECTIONTILE
360
6E8
  3
REFRACTIONTILE
360
6EA
  3
SPECULARTILE
360
6E7
  0
DICTIONARY
  5
6F4
330
6F3
100
AcDbDictionary
280
     1
281
     1
  3
BUMPTILE
360
6F6
  3
DIFFUSETILE
360
6F5
  3
OPACITYTILE
360
6F9
  3
REFLECTIONTILE
360
6F8
  3
REFRACTIONTILE
360
6FA
  3
SPECULARTILE
360
6F7
  0
DICTIONARY
  5
1469
330
73B
100
AcDbDictionary
280
     1
281
     1
  3
ACAD_XREC_ROUNDTRIP
360
146A
  0
DICTIONARY
  5
848
330
736
100
AcDbDictionary
280
     1
281
     1
  3
ACAD_ROUNDTRIP_2008_TABLESTYLE_CELLSTYLEMAP
360
142F
  0
DICTIONARY
  5
1443
330
701
100
AcDbDictionary
280
     1
281
     1
  3
ACAD_XREC_ROUNDTRIP
360
1444
  0
DICTIONARY
  5
1441
330
700
100
AcDbDictionary
280
     1
281
     1
  3
ACAD_XREC_ROUNDTRIP
360
1442
  0
DICTIONARY
  5
144F
330
707
100
AcDbDictionary
280
     1
281
     1
  3
ACAD_XREC_ROUNDTRIP
360
1450
  0
DICTIONARY
  5
1457
330
70B
100
AcDbDictionary
280
     1
281
     1
  3
ACAD_XREC_ROUNDTRIP
360
1458
  0
DICTIONARY
  5
1449
330
704
100
AcDbDictionary
280
     1
281
     1
  3
ACAD_XREC_ROUNDTRIP
360
144A
  0
DICTIONARY
  5
144D
330
706
100
AcDbDictionary
280
     1
281
     1
  3
ACAD_XREC_ROUNDTRIP
360
144E
  0
DICTIONARY
  5
1467
330
713
100
AcDbDictionary
280
     1
281
     1
  3
ACAD_XREC_ROUNDTRIP
360
1468
  0
DICTIONARY
  5
1455
330
70A
100
AcDbDictionary
280
     1
281
     1
  3
ACAD_XREC_ROUNDTRIP
360
1456
  0
DICTIONARY
  5
1439
330
6FC
100
AcDbDictionary
280
     1
281
     1
  3
ACAD_XREC_ROUNDTRIP
360
143A
  0
DICTIONARY
  5
143B
330
6FD
100
AcDbDictionary
280
     1
281
     1
  3
ACAD_XREC_ROUNDTRIP
360
143C
  0
DICTIONARY
  5
143D
330
6FE
100
AcDbDictionary
280
     1
281
     1
  3
ACAD_XREC_ROUNDTRIP
360
143E
  0
DICTIONARY
  5
143F
330
6FF
100
AcDbDictionary
280
     1
281
     1
  3
ACAD_XREC_ROUNDTRIP
360
1440
  0
DICTIONARY
  5
1447
330
703
100
AcDbDictionary
280
     1
281
     1
  3
ACAD_XREC_ROUNDTRIP
360
1448
  0
DICTIONARY
  5
1463
330
711
100
AcDbDictionary
280
     1
281
     1
  3
ACAD_XREC_ROUNDTRIP
360
1464
  0
DICTIONARY
  5
1453
330
709
100
AcDbDictionary
280
     1
281
     1
  3
ACAD_XREC_ROUNDTRIP
360
1454
  0
DICTIONARY
  5
1465
330
712
100
AcDbDictionary
280
     1
281
     1
  3
ACAD_XREC_ROUNDTRIP
360
1466
  0
DICTIONARY
  5
144B
330
705
100
AcDbDictionary
280
     1
281
     1
  3
ACAD_XREC_ROUNDTRIP
360
144C
  0
DICTIONARY
  5
1461
330
710
100
AcDbDictionary
280
     1
281
     1
  3
ACAD_XREC_ROUNDTRIP
360
1462
  0
DICTIONARY
  5
145F
330
70F
100
AcDbDictionary
280
     1
281
     1
  3
ACAD_XREC_ROUNDTRIP
360
1460
  0
DICTIONARY
  5
1459
330
70C
100
AcDbDictionary
280
     1
281
     1
  3
ACAD_XREC_ROUNDTRIP
360
145A
  0
DICTIONARY
  5
145B
330
70D
100
AcDbDictionary
280
     1
281
     1
  3
ACAD_XREC_ROUNDTRIP
360
145C
  0
DICTIONARY
  5
1451
330
708
100
AcDbDictionary
280
     1
281
     1
  3
ACAD_XREC_ROUNDTRIP
360
1452
  0
DICTIONARY
  5
1445
330
702
100
AcDbDictionary
280
     1
281
     1
  3
ACAD_XREC_ROUNDTRIP
360
1446
  0
DICTIONARY
  5
145D
330
70E
100
AcDbDictionary
280
     1
281
     1
  3
ACAD_XREC_ROUNDTRIP
360
145E
  0
XRECORD
  5
1431
102
{ACAD_REACTORS
330
1437
102
}
330
1437
100
AcDbXrecord
280
     1
  1
AcDb_Thumbnail_Schema
102
{ATTRRECORD
341
1432
  2
AcDbDs::TreatedAsObjectData
280
     1
291
     1
102
ATTRRECORD}
102
{ATTRRECORD
341
1433
  2
AcDbDs::Legacy
280
     1
291
     1
102
ATTRRECORD}
  2
AcDbDs::ID
280
    10
 91
        8
102
{ATTRRECORD
341
1434
  2
AcDs:Indexable
280
     1
291
     1
102
ATTRRECORD}
102
{ATTRRECORD
341
1435
  2
AcDbDs::HandleAttribute
280
     7
282
     1
102
ATTRRECORD}
  2
Thumbnail_Data
280
    15
 91
        0
  0
XRECORD
  5
1432
102
{ACAD_REACTORS
330
1437
102
}
330
1437
100
AcDbXrecord
280
     1
  1
AcDbDs::TreatedAsObjectDataSchema
  2
AcDbDs::TreatedAsObjectData
280
     1
 91
        0
  0
XRECORD
  5
1433
102
{ACAD_REACTORS
330
1437
102
}
330
1437
100
AcDbXrecord
280
     1
  1
AcDbDs::LegacySchema
  2
AcDbDs::Legacy
280
     1
 91
        0
  0
XRECORD
  5
1434
102
{ACAD_REACTORS
330
1437
102
}
330
1437
100
AcDbXrecord
280
     1
  1
AcDbDs::IndexedPropertySchema
  2
AcDs:Indexable
280
     1
 91
        0
  0
XRECORD
  5
1435
102
{ACAD_REACTORS
330
1437
102
}
330
1437
100
AcDbXrecord
280
     1
  1
AcDbDs::HandleAttributeSchema
  2
AcDbDs::HandleAttribute
280
     7
 91
        1
284
     1
  0
XRECORD
  5
146C
102
{ACAD_REACTORS
330
146B
102
}
330
146B
100
AcDbXrecord
280
     1
102
DISPLAYNAME
  1
Imperial24
102
FLAGS
 90
        0
  0
XRECORD
  5
6EE
102
{ACAD_REACTORS
330
6EC
102
}
330
6EC
100
AcDbXrecord
280
     1
270
     1
271
     1
  0
XRECORD
  5
6ED
102
{ACAD_REACTORS
330
6EC
102
}
330
6EC
100
AcDbXrecord
280
     1
270
     1
271
     1
  0
XRECORD
  5
6F1
102
{ACAD_REACTORS
330
6EC
102
}
330
6EC
100
AcDbXrecord
280
     1
270
     1
271
     1
  0
XRECORD
  5
6F0
102
{ACAD_REACTORS
330
6EC
102
}
330
6EC
100
AcDbXrecord
280
     1
270
     1
271
     1
  0
XRECORD
  5
6F2
102
{ACAD_REACTORS
330
6EC
102
}
330
6EC
100
AcDbXrecord
280
     1
270
     1
271
     1
  0
XRECORD
  5
6EF
102
{ACAD_REACTORS
330
6EC
102
}
330
6EC
100
AcDbXrecord
280
     1
270
     1
271
     1
  0
XRECORD
  5
6E6
102
{ACAD_REACTORS
330
6E4
102
}
330
6E4
100
AcDbXrecord
280
     1
270
     1
271
     1
  0
XRECORD
  5
6E5
102
{ACAD_REACTORS
330
6E4
102
}
330
6E4
100
AcDbXrecord
280
     1
270
     1
271
     1
  0
XRECORD
  5
6E9
102
{ACAD_REACTORS
330
6E4
102
}
330
6E4
100
AcDbXrecord
280
     1
270
     1
271
     1
  0
XRECORD
  5
6E8
102
{ACAD_REACTORS
330
6E4
102
}
330
6E4
100
AcDbXrecord
280
     1
270
     1
271
     1
  0
XRECORD
  5
6EA
102
{ACAD_REACTORS
330
6E4
102
}
330
6E4
100
AcDbXrecord
280
     1
270
     1
271
     1
  0
XRECORD
  5
6E7
102
{ACAD_REACTORS
330
6E4
102
}
330
6E4
100
AcDbXrecord
280
     1
270
     1
271
     1
  0
XRECORD
  5
6F6
102
{ACAD_REACTORS
330
6F4
102
}
330
6F4
100
AcDbXrecord
280
     1
270
     1
271
     1
  0
XRECORD
  5
6F5
102
{ACAD_REACTORS
330
6F4
102
}
330
6F4
100
AcDbXrecord
280
     1
270
     1
271
     1
  0
XRECORD
  5
6F9
102
{ACAD_REACTORS
330
6F4
102
}
330
6F4
100
AcDbXrecord
280
     1
270
     1
271
     1
  0
XRECORD
  5
6F8
102
{ACAD_REACTORS
330
6F4
102
}
330
6F4
100
AcDbXrecord
280
     1
270
     1
271
     1
  0
XRECORD
  5
6FA
102
{ACAD_REACTORS
330
6F4
102
}
330
6F4
100
AcDbXrecord
280
     1
270
     1
271
     1
  0
XRECORD
  5
6F7
102
{ACAD_REACTORS
330
6F4
102
}
330
6F4
100
AcDbXrecord
280
     1
270
     1
271
     1
  0
XRECORD
  5
146A
102
{ACAD_REACTORS
330
1469
102
}
330
1469
100
AcDbXrecord
280
     1
102
DISPLAYNAME
  1
Imperial24
102
FLAGS
 90
        0
  0
CELLSTYLEMAP
  5
142F
102
{ACAD_REACTORS
330
848
102
}
330
848
100
AcDbCellStyleMap
 90
        3
300
CELLSTYLE
  1
TABLEFORMAT_BEGIN
 90
        5
170
     1
 91
        0
 92
    32768
 62
   257
 93
        1
300
CONTENTFORMAT
  1
CONTENTFORMAT_BEGIN
 90
        0
 91
        0
 92
      512
 93
        0
300

 40
0.0
140
1.0
 94
        5
 62
     0
340
727
144
0.25
309
CONTENTFORMAT_END
171
     1
301
MARGIN
  1
CELLMARGIN_BEGIN
 40
0.06
 40
0.06
 40
0.06
 40
0.06
 40
0.18
 40
0.18
309
CELLMARGIN_END
 94
        6
 95
        1
302
GRIDFORMAT
  1
GRIDFORMAT_BEGIN
 90
        0
 91
        1
 62
     0
 92
       -2
340
0
 93
        0
 40
0.045
309
GRIDFORMAT_END
 95
        2
302
GRIDFORMAT
  1
GRIDFORMAT_BEGIN
 90
        0
 91
        1
 62
     0
 92
       -2
340
0
 93
        0
 40
0.045
309
GRIDFORMAT_END
 95
        4
302
GRIDFORMAT
  1
GRIDFORMAT_BEGIN
 90
        0
 91
        1
 62
     0
 92
       -2
340
0
 93
        0
 40
0.045
309
GRIDFORMAT_END
 95
        8
302
GRIDFORMAT
  1
GRIDFORMAT_BEGIN
 90
        0
 91
        1
 62
     0
 92
       -2
340
0
 93
        0
 40
0.045
309
GRIDFORMAT_END
 95
       16
302
GRIDFORMAT
  1
GRIDFORMAT_BEGIN
 90
        0
 91
        1
 62
     0
 92
       -2
340
0
 93
        0
 40
0.045
309
GRIDFORMAT_END
 95
       32
302
GRIDFORMAT
  1
GRIDFORMAT_BEGIN
 90
        0
 91
        1
 62
     0
 92
       -2
340
0
 93
        0
 40
0.045
309
GRIDFORMAT_END
309
TABLEFORMAT_END
  1
CELLSTYLE_BEGIN
 90
        1
 91
        1
300
_TITLE
309
CELLSTYLE_END
300
CELLSTYLE
  1
TABLEFORMAT_BEGIN
 90
        5
170
     1
 91
        0
 92
        0
 62
   257
 93
        1
300
CONTENTFORMAT
  1
CONTENTFORMAT_BEGIN
 90
        0
 91
        0
 92
      512
 93
        0
300

 40
0.0
140
1.0
 94
        5
 62
     0
340
727
144
0.18
309
CONTENTFORMAT_END
171
     1
301
MARGIN
  1
CELLMARGIN_BEGIN
 40
0.06
 40
0.06
 40
0.06
 40
0.06
 40
0.18
 40
0.18
309
CELLMARGIN_END
 94
        6
 95
        1
302
GRIDFORMAT
  1
GRIDFORMAT_BEGIN
 90
        0
 91
        1
 62
     0
 92
       -2
340
0
 93
        0
 40
0.045
309
GRIDFORMAT_END
 95
        2
302
GRIDFORMAT
  1
GRIDFORMAT_BEGIN
 90
        0
 91
        1
 62
     0
 92
       -2
340
0
 93
        0
 40
0.045
309
GRIDFORMAT_END
 95
        4
302
GRIDFORMAT
  1
GRIDFORMAT_BEGIN
 90
        0
 91
        1
 62
     0
 92
       -2
340
0
 93
        0
 40
0.045
309
GRIDFORMAT_END
 95
        8
302
GRIDFORMAT
  1
GRIDFORMAT_BEGIN
 90
        0
 91
        1
 62
     0
 92
       -2
340
0
 93
        0
 40
0.045
309
GRIDFORMAT_END
 95
       16
302
GRIDFORMAT
  1
GRIDFORMAT_BEGIN
 90
        0
 91
        1
 62
     0
 92
       -2
340
0
 93
        0
 40
0.045
309
GRIDFORMAT_END
 95
       32
302
GRIDFORMAT
  1
GRIDFORMAT_BEGIN
 90
        0
 91
        1
 62
     0
 92
       -2
340
0
 93
        0
 40
0.045
309
GRIDFORMAT_END
309
TABLEFORMAT_END
  1
CELLSTYLE_BEGIN
 90
        2
 91
        1
300
_HEADER
309
CELLSTYLE_END
300
CELLSTYLE
  1
TABLEFORMAT_BEGIN
 90
        5
170
     1
 91
        0
 92
        0
 62
   257
 93
        1
300
CONTENTFORMAT
  1
CONTENTFORMAT_BEGIN
 90
        0
 91
        0
 92
      512
 93
        0
300

 40
0.0
140
1.0
 94
        2
 62
     0
340
727
144
0.18
309
CONTENTFORMAT_END
171
     1
301
MARGIN
  1
CELLMARGIN_BEGIN
 40
0.06
 40
0.06
 40
0.06
 40
0.06
 40
0.18
 40
0.18
309
CELLMARGIN_END
 94
        6
 95
        1
302
GRIDFORMAT
  1
GRIDFORMAT_BEGIN
 90
        0
 91
        1
 62
     0
 92
       -2
340
0
 93
        0
 40
0.045
309
GRIDFORMAT_END
 95
        2
302
GRIDFORMAT
  1
GRIDFORMAT_BEGIN
 90
        0
 91
        1
 62
     0
 92
       -2
340
0
 93
        0
 40
0.045
309
GRIDFORMAT_END
 95
        4
302
GRIDFORMAT
  1
GRIDFORMAT_BEGIN
 90
        0
 91
        1
 62
     0
 92
       -2
340
0
 93
        0
 40
0.045
309
GRIDFORMAT_END
 95
        8
302
GRIDFORMAT
  1
GRIDFORMAT_BEGIN
 90
        0
 91
        1
 62
     0
 92
       -2
340
0
 93
        0
 40
0.045
309
GRIDFORMAT_END
 95
       16
302
GRIDFORMAT
  1
GRIDFORMAT_BEGIN
 90
        0
 91
        1
 62
     0
 92
       -2
340
0
 93
        0
 40
0.045
309
GRIDFORMAT_END
 95
       32
302
GRIDFORMAT
  1
GRIDFORMAT_BEGIN
 90
        0
 91
        1
 62
     0
 92
       -2
340
0
 93
        0
 40
0.045
309
GRIDFORMAT_END
309
TABLEFORMAT_END
  1
CELLSTYLE_BEGIN
 90
        3
 91
        2
300
_DATA
309
CELLSTYLE_END
  0
XRECORD
  5
1444
102
{ACAD_REACTORS
330
1443
102
}
330
1443
100
AcDbXrecord
280
     1
102
RTVSPost2010Prop28
280
     1
102
RTVSPost2010PropOp28
 70
     1
102
RTVSPost2010Prop29
280
     1
102
RTVSPost2010PropOp29
 70
     1
102
RTVSPost2010Prop30
280
     0
102
RTVSPost2010PropOp30
 70
     1
102
RTVSPost2010Prop31
280
     0
102
RTVSPost2010PropOp31
 70
     1
102
RTVSPost2010Prop32
280
     0
102
RTVSPost2010PropOp32
 70
     1
102
RTVSPost2010Prop33
280
     0
102
RTVSPost2010PropOp33
 70
     1
102
RTVSPost2010Prop34
280
     0
102
RTVSPost2010PropOp34
 70
     1
102
RTVSPost2010Prop35
280
     0
102
RTVSPost2010PropOp35
 70
     1
102
RTVSPost2010Prop36
280
     0
102
RTVSPost2010PropOp36
 70
     1
102
RTVSPost2010Prop37
 90
       50
102
RTVSPost2010PropOp37
 70
     1
102
RTVSPost2010Prop38
140
0.0
102
RTVSPost2010PropOp38
 70
     1
102
RTVSPost2010Prop39
140
1.0
102
RTVSPost2010PropOp39
 70
     1
102
RTVSPost2010Prop40
 90
        0
102
RTVSPost2010PropOp40
 70
     1
102
RTVSPost2010Prop41ColorIndex
 90
       18
102
RTVSPost2010Prop41ColorRGB
 90
        0
102
RTVSPost2010PropOp41
 70
     1
102
RTVSPost2010Prop42
 90
       50
102
RTVSPost2010PropOp42
 70
     1
102
RTVSPost2010Prop43
 90
        3
102
RTVSPost2010PropOp43
 70
     1
102
RTVSPost2010Prop44ColorIndex
 90
        5
102
RTVSPost2010Prop44ColorRGB
 90
      255
102
RTVSPost2010PropOp44
 70
     1
102
RTVSPost2010Prop45
280
     0
102
RTVSPost2010PropOp45
 70
     1
102
RTVSPost2010Prop46
 90
       50
102
RTVSPost2010PropOp46
 70
     1
102
RTVSPost2010Prop47
 90
       50
102
RTVSPost2010PropOp47
 70
     1
102
RTVSPost2010Prop48
 90
       50
102
RTVSPost2010PropOp48
 70
     1
102
RTVSPost2010Prop49
280
     0
102
RTVSPost2010PropOp49
 70
     1
102
RTVSPost2010Prop50
 90
       50
102
RTVSPost2010PropOp50
 70
     1
102
RTVSPost2010Prop51ColorIndex
 90
      256
102
RTVSPost2010Prop51ColorRGB
 90
-16777216
102
RTVSPost2010PropOp51
 70
     0
102
RTVSPost2010Prop52
140
1.0
102
RTVSPost2010PropOp52
 70
     0
102
RTVSPost2010Prop53
 90
        2
102
RTVSPost2010PropOp53
 70
     1
102
RTVSPost2010Prop54
  1
strokes_ogs.tif
102
RTVSPost2010PropOp54
 70
     1
102
RTVSPost2010Prop55
280
     0
102
RTVSPost2010PropOp55
 70
     1
102
RTVSPost2010Prop56
140
1.0
102
RTVSPost2010PropOp56
 70
     1
102
RTVSPost2010Prop57
140
1.0
102
RTVSPost2010PropOp57
 70
     1
102
RTVSPropertyOp0
 70
     1
102
RTVSPropertyOp1
 70
     1
102
RTVSPropertyOp2
 70
     1
102
RTVSPropertyOp3
 70
     1
102
RTVSPropertyOp4
 70
     1
102
RTVSPropertyOp5
 70
     1
102
RTVSPropertyOp6
 70
     1
102
RTVSPropertyOp7
 70
     1
102
RTVSPropertyOp8
 70
     1
102
RTVSPropertyOp9
 70
     1
102
RTVSPropertyOp10
 70
     1
102
RTVSPropertyOp11
 70
     1
102
RTVSPropertyOp12
 70
     1
102
RTVSPropertyOp13
 70
     1
102
RTVSPropertyOp14
 70
     1
102
RTVSPropertyOp15
 70
     1
102
RTVSPropertyOp16
 70
     1
102
RTVSPropertyOp17
 70
     1
102
RTVSPropertyOp18
 70
     1
102
RTVSPropertyOp19
 70
     1
102
RTVSPropertyOp20
 70
     1
102
RTVSPropertyOp21
 70
     1
102
RTVSPropertyOp22
 70
     1
102
RTVSPropertyOp23
 70
     1
102
RTVSPropertyOp24
 70
     1
102
RTVSPropertyOp25
 70
     1
102
RTVSPropertyOp26
 70
     1
102
RTVSPropertyOp27
 70
     1
102
RTVSPropertyOp28
 70
     1
102
RTVSPropertyOp29
 70
     1
102
RTVSPropertyOp30
 70
     1
102
RTVSPropertyOp31
 70
     1
102
RTVSPropertyOp32
 70
     1
102
RTVSPropertyOp33
 70
     1
102
RTVSPropertyOp34
 70
     1
102
RTVSPropertyOp35
 70
     1
102
RTVSPropertyOp36
 70
     1
102
RTVSPropertyOp37
 70
     1
102
RTVSPropertyOp38
 70
     1
102
RTVSPropertyOp39
 70
     1
102
RTVSPropertyOp40
 70
     1
102
RTVSPropertyOp41
 70
     1
102
RTVSPropertyOp42
 70
     1
102
RTVSPropertyOp43
 70
     1
102
RTVSPropertyOp44
 70
     1
102
RTVSPropertyOp45
 70
     1
102
RTVSPropertyOp46
 70
     1
102
RTVSPropertyOp47
 70
     1
102
RTVSPropertyOp48
 70
     1
102
RTVSPropertyOp49
 70
     1
102
RTVSPropertyOp50
 70
     1
102
RTVSPropertyOp51
 70
     0
102
RTVSPropertyOp52
 70
     0
102
RTVSPropertyOp53
 70
     1
102
RTVSPropertyOp54
 70
     1
102
RTVSPropertyOp55
 70
     1
102
RTVSPropertyOp56
 70
     1
102
RTVSPropertyOp57
 70
     1
102
RTVSPropertyOp58
 70
     1
102
RTVSPropertyOp59
 70
     1
102
RTVSPropertyOp60
 70
     1
102
RTVSPropertyOp61
 70
     1
102
RTVSPropertyOp62
 70
     1
  0
XRECORD
  5
1442
102
{ACAD_REACTORS
330
1441
102
}
330
1441
100
AcDbXrecord
280
     1
102
RTVSPost2010Prop28
280
     0
102
RTVSPost2010PropOp28
 70
     1
102
RTVSPost2010Prop29
280
     1
102
RTVSPost2010PropOp29
 70
     1
102
RTVSPost2010Prop30
280
     1
102
RTVSPost2010PropOp30
 70
     1
102
RTVSPost2010Prop31
280
     0
102
RTVSPost2010PropOp31
 70
     1
102
RTVSPost2010Prop32
280
     0
102
RTVSPost2010PropOp32
 70
     1
102
RTVSPost2010Prop33
280
     0
102
RTVSPost2010PropOp33
 70
     1
102
RTVSPost2010Prop34
280
     0
102
RTVSPost2010PropOp34
 70
     1
102
RTVSPost2010Prop35
280
     0
102
RTVSPost2010PropOp35
 70
     1
102
RTVSPost2010Prop36
280
     0
102
RTVSPost2010PropOp36
 70
     1
102
RTVSPost2010Prop37
 90
       50
102
RTVSPost2010PropOp37
 70
     1
102
RTVSPost2010Prop38
140
0.0
102
RTVSPost2010PropOp38
 70
     1
102
RTVSPost2010Prop39
140
1.0
102
RTVSPost2010PropOp39
 70
     1
102
RTVSPost2010Prop40
 90
        0
102
RTVSPost2010PropOp40
 70
     1
102
RTVSPost2010Prop41ColorIndex
 90
       18
102
RTVSPost2010Prop41ColorRGB
 90
        0
102
RTVSPost2010PropOp41
 70
     1
102
RTVSPost2010Prop42
 90
       50
102
RTVSPost2010PropOp42
 70
     1
102
RTVSPost2010Prop43
 90
        3
102
RTVSPost2010PropOp43
 70
     1
102
RTVSPost2010Prop44ColorIndex
 90
        5
102
RTVSPost2010Prop44ColorRGB
 90
      255
102
RTVSPost2010PropOp44
 70
     1
102
RTVSPost2010Prop45
280
     0
102
RTVSPost2010PropOp45
 70
     1
102
RTVSPost2010Prop46
 90
       50
102
RTVSPost2010PropOp46
 70
     1
102
RTVSPost2010Prop47
 90
       50
102
RTVSPost2010PropOp47
 70
     1
102
RTVSPost2010Prop48
 90
       50
102
RTVSPost2010PropOp48
 70
     1
102
RTVSPost2010Prop49
280
     0
102
RTVSPost2010PropOp49
 70
     1
102
RTVSPost2010Prop50
 90
       50
102
RTVSPost2010PropOp50
 70
     1
102
RTVSPost2010Prop51ColorIndex
 90
      256
102
RTVSPost2010Prop51ColorRGB
 90
-16777216
102
RTVSPost2010PropOp51
 70
     0
102
RTVSPost2010Prop52
140
1.0
102
RTVSPost2010PropOp52
 70
     0
102
RTVSPost2010Prop53
 90
        2
102
RTVSPost2010PropOp53
 70
     1
102
RTVSPost2010Prop54
  1
strokes_ogs.tif
102
RTVSPost2010PropOp54
 70
     1
102
RTVSPost2010Prop55
280
     0
102
RTVSPost2010PropOp55
 70
     1
102
RTVSPost2010Prop56
140
1.0
102
RTVSPost2010PropOp56
 70
     1
102
RTVSPost2010Prop57
140
1.0
102
RTVSPost2010PropOp57
 70
     1
102
RTVSPropertyOp0
 70
     1
102
RTVSPropertyOp1
 70
     1
102
RTVSPropertyOp2
 70
     1
102
RTVSPropertyOp3
 70
     1
102
RTVSPropertyOp4
 70
     1
102
RTVSPropertyOp5
 70
     1
102
RTVSPropertyOp6
 70
     1
102
RTVSPropertyOp7
 70
     1
102
RTVSPropertyOp8
 70
     1
102
RTVSPropertyOp9
 70
     1
102
RTVSPropertyOp10
 70
     1
102
RTVSPropertyOp11
 70
     1
102
RTVSPropertyOp12
 70
     1
102
RTVSPropertyOp13
 70
     1
102
RTVSPropertyOp14
 70
     1
102
RTVSPropertyOp15
 70
     1
102
RTVSPropertyOp16
 70
     1
102
RTVSPropertyOp17
 70
     1
102
RTVSPropertyOp18
 70
     1
102
RTVSPropertyOp19
 70
     1
102
RTVSPropertyOp20
 70
     1
102
RTVSPropertyOp21
 70
     1
102
RTVSPropertyOp22
 70
     1
102
RTVSPropertyOp23
 70
     1
102
RTVSPropertyOp24
 70
     1
102
RTVSPropertyOp25
 70
     1
102
RTVSPropertyOp26
 70
     1
102
RTVSPropertyOp27
 70
     1
102
RTVSPropertyOp28
 70
     1
102
RTVSPropertyOp29
 70
     1
102
RTVSPropertyOp30
 70
     1
102
RTVSPropertyOp31
 70
     1
102
RTVSPropertyOp32
 70
     1
102
RTVSPropertyOp33
 70
     1
102
RTVSPropertyOp34
 70
     1
102
RTVSPropertyOp35
 70
     1
102
RTVSPropertyOp36
 70
     1
102
RTVSPropertyOp37
 70
     1
102
RTVSPropertyOp38
 70
     1
102
RTVSPropertyOp39
 70
     1
102
RTVSPropertyOp40
 70
     1
102
RTVSPropertyOp41
 70
     1
102
RTVSPropertyOp42
 70
     1
102
RTVSPropertyOp43
 70
     1
102
RTVSPropertyOp44
 70
     1
102
RTVSPropertyOp45
 70
     1
102
RTVSPropertyOp46
 70
     1
102
RTVSPropertyOp47
 70
     1
102
RTVSPropertyOp48
 70
     1
102
RTVSPropertyOp49
 70
     1
102
RTVSPropertyOp50
 70
     1
102
RTVSPropertyOp51
 70
     0
102
RTVSPropertyOp52
 70
     0
102
RTVSPropertyOp53
 70
     1
102
RTVSPropertyOp54
 70
     1
102
RTVSPropertyOp55
 70
     1
102
RTVSPropertyOp56
 70
     1
102
RTVSPropertyOp57
 70
     1
102
RTVSPropertyOp58
 70
     1
102
RTVSPropertyOp59
 70
     1
102
RTVSPropertyOp60
 70
     1
102
RTVSPropertyOp61
 70
     1
102
RTVSPropertyOp62
 70
     1
  0
XRECORD
  5
1450
102
{ACAD_REACTORS
330
144F
102
}
330
144F
100
AcDbXrecord
280
     1
102
RTVSPost2010Prop28
280
     0
102
RTVSPost2010PropOp28
 70
     1
102
RTVSPost2010Prop29
280
     1
102
RTVSPost2010PropOp29
 70
     1
102
RTVSPost2010Prop30
280
     1
102
RTVSPost2010PropOp30
 70
     1
102
RTVSPost2010Prop31
280
     0
102
RTVSPost2010PropOp31
 70
     1
102
RTVSPost2010Prop32
280
     0
102
RTVSPost2010PropOp32
 70
     1
102
RTVSPost2010Prop33
280
     0
102
RTVSPost2010PropOp33
 70
     1
102
RTVSPost2010Prop34
280
     0
102
RTVSPost2010PropOp34
 70
     1
102
RTVSPost2010Prop35
280
     0
102
RTVSPost2010PropOp35
 70
     1
102
RTVSPost2010Prop36
280
     0
102
RTVSPost2010PropOp36
 70
     1
102
RTVSPost2010Prop37
 90
       50
102
RTVSPost2010PropOp37
 70
     1
102
RTVSPost2010Prop38
140
0.0
102
RTVSPost2010PropOp38
 70
     1
102
RTVSPost2010Prop39
140
1.0
102
RTVSPost2010PropOp39
 70
     1
102
RTVSPost2010Prop40
 90
        0
102
RTVSPost2010PropOp40
 70
     1
102
RTVSPost2010Prop41ColorIndex
 90
       18
102
RTVSPost2010Prop41ColorRGB
 90
        0
102
RTVSPost2010PropOp41
 70
     1
102
RTVSPost2010Prop42
 90
       50
102
RTVSPost2010PropOp42
 70
     1
102
RTVSPost2010Prop43
 90
        3
102
RTVSPost2010PropOp43
 70
     1
102
RTVSPost2010Prop44ColorIndex
 90
        5
102
RTVSPost2010Prop44ColorRGB
 90
      255
102
RTVSPost2010PropOp44
 70
     1
102
RTVSPost2010Prop45
280
     0
102
RTVSPost2010PropOp45
 70
     1
102
RTVSPost2010Prop46
 90
       50
102
RTVSPost2010PropOp46
 70
     1
102
RTVSPost2010Prop47
 90
       50
102
RTVSPost2010PropOp47
 70
     1
102
RTVSPost2010Prop48
 90
       50
102
RTVSPost2010PropOp48
 70
     1
102
RTVSPost2010Prop49
280
     0
102
RTVSPost2010PropOp49
 70
     1
102
RTVSPost2010Prop50
 90
       50
102
RTVSPost2010PropOp50
 70
     1
102
RTVSPost2010Prop51ColorIndex
 90
      256
102
RTVSPost2010Prop51ColorRGB
 90
-16777216
102
RTVSPost2010PropOp51
 70
     0
102
RTVSPost2010Prop52
140
1.0
102
RTVSPost2010PropOp52
 70
     0
102
RTVSPost2010Prop53
 90
        2
102
RTVSPost2010PropOp53
 70
     1
102
RTVSPost2010Prop54
  1
strokes_ogs.tif
102
RTVSPost2010PropOp54
 70
     1
102
RTVSPost2010Prop55
280
     0
102
RTVSPost2010PropOp55
 70
     1
102
RTVSPost2010Prop56
140
1.0
102
RTVSPost2010PropOp56
 70
     1
102
RTVSPost2010Prop57
140
1.0
102
RTVSPost2010PropOp57
 70
     1
102
RTVSPropertyOp0
 70
     1
102
RTVSPropertyOp1
 70
     1
102
RTVSPropertyOp2
 70
     1
102
RTVSPropertyOp3
 70
     1
102
RTVSPropertyOp4
 70
     1
102
RTVSPropertyOp5
 70
     1
102
RTVSPropertyOp6
 70
     1
102
RTVSPropertyOp7
 70
     1
102
RTVSPropertyOp8
 70
     1
102
RTVSPropertyOp9
 70
     1
102
RTVSPropertyOp10
 70
     1
102
RTVSPropertyOp11
 70
     1
102
RTVSPropertyOp12
 70
     1
102
RTVSPropertyOp13
 70
     1
102
RTVSPropertyOp14
 70
     1
102
RTVSPropertyOp15
 70
     1
102
RTVSPropertyOp16
 70
     1
102
RTVSPropertyOp17
 70
     1
102
RTVSPropertyOp18
 70
     1
102
RTVSPropertyOp19
 70
     1
102
RTVSPropertyOp20
 70
     1
102
RTVSPropertyOp21
 70
     1
102
RTVSPropertyOp22
 70
     1
102
RTVSPropertyOp23
 70
     1
102
RTVSPropertyOp24
 70
     1
102
RTVSPropertyOp25
 70
     1
102
RTVSPropertyOp26
 70
     1
102
RTVSPropertyOp27
 70
     1
102
RTVSPropertyOp28
 70
     1
102
RTVSPropertyOp29
 70
     1
102
RTVSPropertyOp30
 70
     1
102
RTVSPropertyOp31
 70
     1
102
RTVSPropertyOp32
 70
     1
102
RTVSPropertyOp33
 70
     1
102
RTVSPropertyOp34
 70
     1
102
RTVSPropertyOp35
 70
     1
102
RTVSPropertyOp36
 70
     1
102
RTVSPropertyOp37
 70
     1
102
RTVSPropertyOp38
 70
     1
102
RTVSPropertyOp39
 70
     1
102
RTVSPropertyOp40
 70
     1
102
RTVSPropertyOp41
 70
     1
102
RTVSPropertyOp42
 70
     1
102
RTVSPropertyOp43
 70
     1
102
RTVSPropertyOp44
 70
     1
102
RTVSPropertyOp45
 70
     1
102
RTVSPropertyOp46
 70
     1
102
RTVSPropertyOp47
 70
     1
102
RTVSPropertyOp48
 70
     1
102
RTVSPropertyOp49
 70
     1
102
RTVSPropertyOp50
 70
     1
102
RTVSPropertyOp51
 70
     0
102
RTVSPropertyOp52
 70
     0
102
RTVSPropertyOp53
 70
     1
102
RTVSPropertyOp54
 70
     1
102
RTVSPropertyOp55
 70
     1
102
RTVSPropertyOp56
 70
     1
102
RTVSPropertyOp57
 70
     1
102
RTVSPropertyOp58
 70
     1
102
RTVSPropertyOp59
 70
     1
102
RTVSPropertyOp60
 70
     1
102
RTVSPropertyOp61
 70
     1
102
RTVSPropertyOp62
 70
     1
  0
XRECORD
  5
1458
102
{ACAD_REACTORS
330
1457
102
}
330
1457
100
AcDbXrecord
280
     1
102
RTVSPost2010Prop28
280
     0
102
RTVSPost2010PropOp28
 70
     1
102
RTVSPost2010Prop29
280
     1
102
RTVSPost2010PropOp29
 70
     1
102
RTVSPost2010Prop30
280
     1
102
RTVSPost2010PropOp30
 70
     1
102
RTVSPost2010Prop31
280
     0
102
RTVSPost2010PropOp31
 70
     1
102
RTVSPost2010Prop32
280
     0
102
RTVSPost2010PropOp32
 70
     1
102
RTVSPost2010Prop33
280
     0
102
RTVSPost2010PropOp33
 70
     1
102
RTVSPost2010Prop34
280
     0
102
RTVSPost2010PropOp34
 70
     1
102
RTVSPost2010Prop35
280
     0
102
RTVSPost2010PropOp35
 70
     1
102
RTVSPost2010Prop36
280
     0
102
RTVSPost2010PropOp36
 70
     1
102
RTVSPost2010Prop37
 90
       50
102
RTVSPost2010PropOp37
 70
     1
102
RTVSPost2010Prop38
140
0.0
102
RTVSPost2010PropOp38
 70
     1
102
RTVSPost2010Prop39
140
1.0
102
RTVSPost2010PropOp39
 70
     1
102
RTVSPost2010Prop40
 90
        0
102
RTVSPost2010PropOp40
 70
     1
102
RTVSPost2010Prop41ColorIndex
 90
       18
102
RTVSPost2010Prop41ColorRGB
 90
        0
102
RTVSPost2010PropOp41
 70
     1
102
RTVSPost2010Prop42
 90
       50
102
RTVSPost2010PropOp42
 70
     1
102
RTVSPost2010Prop43
 90
        3
102
RTVSPost2010PropOp43
 70
     1
102
RTVSPost2010Prop44ColorIndex
 90
        5
102
RTVSPost2010Prop44ColorRGB
 90
      255
102
RTVSPost2010PropOp44
 70
     1
102
RTVSPost2010Prop45
280
     0
102
RTVSPost2010PropOp45
 70
     1
102
RTVSPost2010Prop46
 90
       50
102
RTVSPost2010PropOp46
 70
     1
102
RTVSPost2010Prop47
 90
       50
102
RTVSPost2010PropOp47
 70
     1
102
RTVSPost2010Prop48
 90
       50
102
RTVSPost2010PropOp48
 70
     1
102
RTVSPost2010Prop49
280
     0
102
RTVSPost2010PropOp49
 70
     1
102
RTVSPost2010Prop50
 90
       50
102
RTVSPost2010PropOp50
 70
     1
102
RTVSPost2010Prop51ColorIndex
 90
      256
102
RTVSPost2010Prop51ColorRGB
 90
-16777216
102
RTVSPost2010PropOp51
 70
     0
102
RTVSPost2010Prop52
140
1.0
102
RTVSPost2010PropOp52
 70
     0
102
RTVSPost2010Prop53
 90
        2
102
RTVSPost2010PropOp53
 70
     1
102
RTVSPost2010Prop54
  1
strokes_ogs.tif
102
RTVSPost2010PropOp54
 70
     1
102
RTVSPost2010Prop55
280
     0
102
RTVSPost2010PropOp55
 70
     1
102
RTVSPost2010Prop56
140
1.0
102
RTVSPost2010PropOp56
 70
     1
102
RTVSPost2010Prop57
140
1.0
102
RTVSPost2010PropOp57
 70
     1
102
RTVSPropertyOp0
 70
     1
102
RTVSPropertyOp1
 70
     1
102
RTVSPropertyOp2
 70
     1
102
RTVSPropertyOp3
 70
     1
102
RTVSPropertyOp4
 70
     1
102
RTVSPropertyOp5
 70
     1
102
RTVSPropertyOp6
 70
     1
102
RTVSPropertyOp7
 70
     1
102
RTVSPropertyOp8
 70
     1
102
RTVSPropertyOp9
 70
     1
102
RTVSPropertyOp10
 70
     1
102
RTVSPropertyOp11
 70
     1
102
RTVSPropertyOp12
 70
     1
102
RTVSPropertyOp13
 70
     1
102
RTVSPropertyOp14
 70
     1
102
RTVSPropertyOp15
 70
     1
102
RTVSPropertyOp16
 70
     1
102
RTVSPropertyOp17
 70
     1
102
RTVSPropertyOp18
 70
     1
102
RTVSPropertyOp19
 70
     1
102
RTVSPropertyOp20
 70
     1
102
RTVSPropertyOp21
 70
     1
102
RTVSPropertyOp22
 70
     1
102
RTVSPropertyOp23
 70
     1
102
RTVSPropertyOp24
 70
     1
102
RTVSPropertyOp25
 70
     1
102
RTVSPropertyOp26
 70
     1
102
RTVSPropertyOp27
 70
     1
102
RTVSPropertyOp28
 70
     1
102
RTVSPropertyOp29
 70
     1
102
RTVSPropertyOp30
 70
     1
102
RTVSPropertyOp31
 70
     1
102
RTVSPropertyOp32
 70
     1
102
RTVSPropertyOp33
 70
     1
102
RTVSPropertyOp34
 70
     1
102
RTVSPropertyOp35
 70
     1
102
RTVSPropertyOp36
 70
     1
102
RTVSPropertyOp37
 70
     1
102
RTVSPropertyOp38
 70
     1
102
RTVSPropertyOp39
 70
     1
102
RTVSPropertyOp40
 70
     1
102
RTVSPropertyOp41
 70
     1
102
RTVSPropertyOp42
 70
     1
102
RTVSPropertyOp43
 70
     1
102
RTVSPropertyOp44
 70
     1
102
RTVSPropertyOp45
 70
     1
102
RTVSPropertyOp46
 70
     1
102
RTVSPropertyOp47
 70
     1
102
RTVSPropertyOp48
 70
     1
102
RTVSPropertyOp49
 70
     1
102
RTVSPropertyOp50
 70
     1
102
RTVSPropertyOp51
 70
     0
102
RTVSPropertyOp52
 70
     0
102
RTVSPropertyOp53
 70
     1
102
RTVSPropertyOp54
 70
     1
102
RTVSPropertyOp55
 70
     1
102
RTVSPropertyOp56
 70
     1
102
RTVSPropertyOp57
 70
     1
102
RTVSPropertyOp58
 70
     1
102
RTVSPropertyOp59
 70
     1
102
RTVSPropertyOp60
 70
     1
102
RTVSPropertyOp61
 70
     1
102
RTVSPropertyOp62
 70
     1
  0
XRECORD
  5
144A
102
{ACAD_REACTORS
330
1449
102
}
330
1449
100
AcDbXrecord
280
     1
102
RTVSPost2010Prop28
280
     0
102
RTVSPost2010PropOp28
 70
     1
102
RTVSPost2010Prop29
280
     1
102
RTVSPost2010PropOp29
 70
     1
102
RTVSPost2010Prop30
280
     1
102
RTVSPost2010PropOp30
 70
     1
102
RTVSPost2010Prop31
280
     0
102
RTVSPost2010PropOp31
 70
     1
102
RTVSPost2010Prop32
280
     0
102
RTVSPost2010PropOp32
 70
     1
102
RTVSPost2010Prop33
280
     0
102
RTVSPost2010PropOp33
 70
     1
102
RTVSPost2010Prop34
280
     0
102
RTVSPost2010PropOp34
 70
     1
102
RTVSPost2010Prop35
280
     0
102
RTVSPost2010PropOp35
 70
     1
102
RTVSPost2010Prop36
280
     0
102
RTVSPost2010PropOp36
 70
     1
102
RTVSPost2010Prop37
 90
       50
102
RTVSPost2010PropOp37
 70
     1
102
RTVSPost2010Prop38
140
0.0
102
RTVSPost2010PropOp38
 70
     1
102
RTVSPost2010Prop39
140
1.0
102
RTVSPost2010PropOp39
 70
     1
102
RTVSPost2010Prop40
 90
        0
102
RTVSPost2010PropOp40
 70
     1
102
RTVSPost2010Prop41ColorIndex
 90
       18
102
RTVSPost2010Prop41ColorRGB
 90
        0
102
RTVSPost2010PropOp41
 70
     1
102
RTVSPost2010Prop42
 90
       50
102
RTVSPost2010PropOp42
 70
     1
102
RTVSPost2010Prop43
 90
        3
102
RTVSPost2010PropOp43
 70
     1
102
RTVSPost2010Prop44ColorIndex
 90
        5
102
RTVSPost2010Prop44ColorRGB
 90
      255
102
RTVSPost2010PropOp44
 70
     1
102
RTVSPost2010Prop45
280
     0
102
RTVSPost2010PropOp45
 70
     1
102
RTVSPost2010Prop46
 90
       50
102
RTVSPost2010PropOp46
 70
     1
102
RTVSPost2010Prop47
 90
       50
102
RTVSPost2010PropOp47
 70
     1
102
RTVSPost2010Prop48
 90
       50
102
RTVSPost2010PropOp48
 70
     1
102
RTVSPost2010Prop49
280
     0
102
RTVSPost2010PropOp49
 70
     1
102
RTVSPost2010Prop50
 90
       50
102
RTVSPost2010PropOp50
 70
     1
102
RTVSPost2010Prop51ColorIndex
 90
      256
102
RTVSPost2010Prop51ColorRGB
 90
-16777216
102
RTVSPost2010PropOp51
 70
     0
102
RTVSPost2010Prop52
140
1.0
102
RTVSPost2010PropOp52
 70
     0
102
RTVSPost2010Prop53
 90
        2
102
RTVSPost2010PropOp53
 70
     1
102
RTVSPost2010Prop54
  1
strokes_ogs.tif
102
RTVSPost2010PropOp54
 70
     1
102
RTVSPost2010Prop55
280
     0
102
RTVSPost2010PropOp55
 70
     1
102
RTVSPost2010Prop56
140
1.0
102
RTVSPost2010PropOp56
 70
     1
102
RTVSPost2010Prop57
140
1.0
102
RTVSPost2010PropOp57
 70
     1
102
RTVSPropertyOp0
 70
     1
102
RTVSPropertyOp1
 70
     1
102
RTVSPropertyOp2
 70
     1
102
RTVSPropertyOp3
 70
     1
102
RTVSPropertyOp4
 70
     1
102
RTVSPropertyOp5
 70
     1
102
RTVSPropertyOp6
 70
     1
102
RTVSPropertyOp7
 70
     1
102
RTVSPropertyOp8
 70
     1
102
RTVSPropertyOp9
 70
     1
102
RTVSPropertyOp10
 70
     1
102
RTVSPropertyOp11
 70
     1
102
RTVSPropertyOp12
 70
     1
102
RTVSPropertyOp13
 70
     1
102
RTVSPropertyOp14
 70
     1
102
RTVSPropertyOp15
 70
     1
102
RTVSPropertyOp16
 70
     1
102
RTVSPropertyOp17
 70
     1
102
RTVSPropertyOp18
 70
     1
102
RTVSPropertyOp19
 70
     1
102
RTVSPropertyOp20
 70
     1
102
RTVSPropertyOp21
 70
     1
102
RTVSPropertyOp22
 70
     1
102
RTVSPropertyOp23
 70
     1
102
RTVSPropertyOp24
 70
     1
102
RTVSPropertyOp25
 70
     1
102
RTVSPropertyOp26
 70
     1
102
RTVSPropertyOp27
 70
     1
102
RTVSPropertyOp28
 70
     1
102
RTVSPropertyOp29
 70
     1
102
RTVSPropertyOp30
 70
     1
102
RTVSPropertyOp31
 70
     1
102
RTVSPropertyOp32
 70
     1
102
RTVSPropertyOp33
 70
     1
102
RTVSPropertyOp34
 70
     1
102
RTVSPropertyOp35
 70
     1
102
RTVSPropertyOp36
 70
     1
102
RTVSPropertyOp37
 70
     1
102
RTVSPropertyOp38
 70
     1
102
RTVSPropertyOp39
 70
     1
102
RTVSPropertyOp40
 70
     1
102
RTVSPropertyOp41
 70
     1
102
RTVSPropertyOp42
 70
     1
102
RTVSPropertyOp43
 70
     1
102
RTVSPropertyOp44
 70
     1
102
RTVSPropertyOp45
 70
     1
102
RTVSPropertyOp46
 70
     1
102
RTVSPropertyOp47
 70
     1
102
RTVSPropertyOp48
 70
     1
102
RTVSPropertyOp49
 70
     1
102
RTVSPropertyOp50
 70
     1
102
RTVSPropertyOp51
 70
     0
102
RTVSPropertyOp52
 70
     0
102
RTVSPropertyOp53
 70
     1
102
RTVSPropertyOp54
 70
     1
102
RTVSPropertyOp55
 70
     1
102
RTVSPropertyOp56
 70
     1
102
RTVSPropertyOp57
 70
     1
102
RTVSPropertyOp58
 70
     1
102
RTVSPropertyOp59
 70
     1
102
RTVSPropertyOp60
 70
     1
102
RTVSPropertyOp61
 70
     1
102
RTVSPropertyOp62
 70
     1
  0
XRECORD
  5
144E
102
{ACAD_REACTORS
330
144D
102
}
330
144D
100
AcDbXrecord
280
     1
102
RTVSPost2010Prop28
280
     0
102
RTVSPost2010PropOp28
 70
     1
102
RTVSPost2010Prop29
280
     1
102
RTVSPost2010PropOp29
 70
     1
102
RTVSPost2010Prop30
280
     1
102
RTVSPost2010PropOp30
 70
     1
102
RTVSPost2010Prop31
280
     0
102
RTVSPost2010PropOp31
 70
     1
102
RTVSPost2010Prop32
280
     0
102
RTVSPost2010PropOp32
 70
     1
102
RTVSPost2010Prop33
280
     0
102
RTVSPost2010PropOp33
 70
     1
102
RTVSPost2010Prop34
280
     0
102
RTVSPost2010PropOp34
 70
     1
102
RTVSPost2010Prop35
280
     0
102
RTVSPost2010PropOp35
 70
     1
102
RTVSPost2010Prop36
280
     0
102
RTVSPost2010PropOp36
 70
     1
102
RTVSPost2010Prop37
 90
       50
102
RTVSPost2010PropOp37
 70
     1
102
RTVSPost2010Prop38
140
0.0
102
RTVSPost2010PropOp38
 70
     1
102
RTVSPost2010Prop39
140
1.0
102
RTVSPost2010PropOp39
 70
     1
102
RTVSPost2010Prop40
 90
        0
102
RTVSPost2010PropOp40
 70
     1
102
RTVSPost2010Prop41ColorIndex
 90
       18
102
RTVSPost2010Prop41ColorRGB
 90
        0
102
RTVSPost2010PropOp41
 70
     1
102
RTVSPost2010Prop42
 90
       50
102
RTVSPost2010PropOp42
 70
     1
102
RTVSPost2010Prop43
 90
        3
102
RTVSPost2010PropOp43
 70
     1
102
RTVSPost2010Prop44ColorIndex
 90
        5
102
RTVSPost2010Prop44ColorRGB
 90
      255
102
RTVSPost2010PropOp44
 70
     1
102
RTVSPost2010Prop45
280
     0
102
RTVSPost2010PropOp45
 70
     1
102
RTVSPost2010Prop46
 90
       50
102
RTVSPost2010PropOp46
 70
     1
102
RTVSPost2010Prop47
 90
       50
102
RTVSPost2010PropOp47
 70
     1
102
RTVSPost2010Prop48
 90
       50
102
RTVSPost2010PropOp48
 70
     1
102
RTVSPost2010Prop49
280
     0
102
RTVSPost2010PropOp49
 70
     1
102
RTVSPost2010Prop50
 90
       50
102
RTVSPost2010PropOp50
 70
     1
102
RTVSPost2010Prop51ColorIndex
 90
      256
102
RTVSPost2010Prop51ColorRGB
 90
-16777216
102
RTVSPost2010PropOp51
 70
     0
102
RTVSPost2010Prop52
140
1.0
102
RTVSPost2010PropOp52
 70
     0
102
RTVSPost2010Prop53
 90
        2
102
RTVSPost2010PropOp53
 70
     1
102
RTVSPost2010Prop54
  1
strokes_ogs.tif
102
RTVSPost2010PropOp54
 70
     1
102
RTVSPost2010Prop55
280
     0
102
RTVSPost2010PropOp55
 70
     1
102
RTVSPost2010Prop56
140
1.0
102
RTVSPost2010PropOp56
 70
     1
102
RTVSPost2010Prop57
140
1.0
102
RTVSPost2010PropOp57
 70
     1
102
RTVSPropertyOp0
 70
     1
102
RTVSPropertyOp1
 70
     1
102
RTVSPropertyOp2
 70
     1
102
RTVSPropertyOp3
 70
     1
102
RTVSPropertyOp4
 70
     1
102
RTVSPropertyOp5
 70
     1
102
RTVSPropertyOp6
 70
     1
102
RTVSPropertyOp7
 70
     1
102
RTVSPropertyOp8
 70
     1
102
RTVSPropertyOp9
 70
     1
102
RTVSPropertyOp10
 70
     1
102
RTVSPropertyOp11
 70
     1
102
RTVSPropertyOp12
 70
     1
102
RTVSPropertyOp13
 70
     1
102
RTVSPropertyOp14
 70
     1
102
RTVSPropertyOp15
 70
     1
102
RTVSPropertyOp16
 70
     1
102
RTVSPropertyOp17
 70
     1
102
RTVSPropertyOp18
 70
     1
102
RTVSPropertyOp19
 70
     1
102
RTVSPropertyOp20
 70
     1
102
RTVSPropertyOp21
 70
     1
102
RTVSPropertyOp22
 70
     1
102
RTVSPropertyOp23
 70
     1
102
RTVSPropertyOp24
 70
     1
102
RTVSPropertyOp25
 70
     1
102
RTVSPropertyOp26
 70
     1
102
RTVSPropertyOp27
 70
     1
102
RTVSPropertyOp28
 70
     1
102
RTVSPropertyOp29
 70
     1
102
RTVSPropertyOp30
 70
     1
102
RTVSPropertyOp31
 70
     1
102
RTVSPropertyOp32
 70
     1
102
RTVSPropertyOp33
 70
     1
102
RTVSPropertyOp34
 70
     1
102
RTVSPropertyOp35
 70
     1
102
RTVSPropertyOp36
 70
     1
102
RTVSPropertyOp37
 70
     1
102
RTVSPropertyOp38
 70
     1
102
RTVSPropertyOp39
 70
     1
102
RTVSPropertyOp40
 70
     1
102
RTVSPropertyOp41
 70
     1
102
RTVSPropertyOp42
 70
     1
102
RTVSPropertyOp43
 70
     1
102
RTVSPropertyOp44
 70
     1
102
RTVSPropertyOp45
 70
     1
102
RTVSPropertyOp46
 70
     1
102
RTVSPropertyOp47
 70
     1
102
RTVSPropertyOp48
 70
     1
102
RTVSPropertyOp49
 70
     1
102
RTVSPropertyOp50
 70
     1
102
RTVSPropertyOp51
 70
     0
102
RTVSPropertyOp52
 70
     0
102
RTVSPropertyOp53
 70
     1
102
RTVSPropertyOp54
 70
     1
102
RTVSPropertyOp55
 70
     1
102
RTVSPropertyOp56
 70
     1
102
RTVSPropertyOp57
 70
     1
102
RTVSPropertyOp58
 70
     1
102
RTVSPropertyOp59
 70
     1
102
RTVSPropertyOp60
 70
     1
102
RTVSPropertyOp61
 70
     1
102
RTVSPropertyOp62
 70
     1
  0
XRECORD
  5
1468
102
{ACAD_REACTORS
330
1467
102
}
330
1467
100
AcDbXrecord
280
     1
102
RTVSPost2010Prop28
280
     0
102
RTVSPost2010PropOp28
 70
     1
102
RTVSPost2010Prop29
280
     1
102
RTVSPost2010PropOp29
 70
     1
102
RTVSPost2010Prop30
280
     1
102
RTVSPost2010PropOp30
 70
     1
102
RTVSPost2010Prop31
280
     0
102
RTVSPost2010PropOp31
 70
     1
102
RTVSPost2010Prop32
280
     0
102
RTVSPost2010PropOp32
 70
     1
102
RTVSPost2010Prop33
280
     0
102
RTVSPost2010PropOp33
 70
     1
102
RTVSPost2010Prop34
280
     0
102
RTVSPost2010PropOp34
 70
     1
102
RTVSPost2010Prop35
280
     0
102
RTVSPost2010PropOp35
 70
     1
102
RTVSPost2010Prop36
280
     0
102
RTVSPost2010PropOp36
 70
     1
102
RTVSPost2010Prop37
 90
       50
102
RTVSPost2010PropOp37
 70
     0
102
RTVSPost2010Prop38
140
0.0
102
RTVSPost2010PropOp38
 70
     0
102
RTVSPost2010Prop39
140
1.0
102
RTVSPost2010PropOp39
 70
     0
102
RTVSPost2010Prop40
 90
        0
102
RTVSPost2010PropOp40
 70
     0
102
RTVSPost2010Prop41ColorIndex
 90
       18
102
RTVSPost2010Prop41ColorRGB
 90
        0
102
RTVSPost2010PropOp41
 70
     0
102
RTVSPost2010Prop42
 90
       50
102
RTVSPost2010PropOp42
 70
     0
102
RTVSPost2010Prop43
 90
        3
102
RTVSPost2010PropOp43
 70
     0
102
RTVSPost2010Prop44ColorIndex
 90
        5
102
RTVSPost2010Prop44ColorRGB
 90
      255
102
RTVSPost2010PropOp44
 70
     0
102
RTVSPost2010Prop45
280
     0
102
RTVSPost2010PropOp45
 70
     1
102
RTVSPost2010Prop46
 90
       50
102
RTVSPost2010PropOp46
 70
     0
102
RTVSPost2010Prop47
 90
       50
102
RTVSPost2010PropOp47
 70
     0
102
RTVSPost2010Prop48
 90
       50
102
RTVSPost2010PropOp48
 70
     0
102
RTVSPost2010Prop49
280
     0
102
RTVSPost2010PropOp49
 70
     1
102
RTVSPost2010Prop50
 90
       50
102
RTVSPost2010PropOp50
 70
     0
102
RTVSPost2010Prop51ColorIndex
 90
      256
102
RTVSPost2010Prop51ColorRGB
 90
-16777216
102
RTVSPost2010PropOp51
 70
     0
102
RTVSPost2010Prop52
140
1.0
102
RTVSPost2010PropOp52
 70
     0
102
RTVSPost2010Prop53
 90
        2
102
RTVSPost2010PropOp53
 70
     0
102
RTVSPost2010Prop54
  1
strokes_ogs.tif
102
RTVSPost2010PropOp54
 70
     0
102
RTVSPost2010Prop55
280
     0
102
RTVSPost2010PropOp55
 70
     1
102
RTVSPost2010Prop56
140
1.0
102
RTVSPost2010PropOp56
 70
     0
102
RTVSPost2010Prop57
140
1.0
102
RTVSPost2010PropOp57
 70
     0
102
RTVSPropertyOp0
 70
     0
102
RTVSPropertyOp1
 70
     0
102
RTVSPropertyOp2
 70
     0
102
RTVSPropertyOp3
 70
     0
102
RTVSPropertyOp4
 70
     0
102
RTVSPropertyOp5
 70
     0
102
RTVSPropertyOp6
 70
     0
102
RTVSPropertyOp7
 70
     0
102
RTVSPropertyOp8
 70
     0
102
RTVSPropertyOp9
 70
     0
102
RTVSPropertyOp10
 70
     0
102
RTVSPropertyOp11
 70
     0
102
RTVSPropertyOp12
 70
     0
102
RTVSPropertyOp13
 70
     0
102
RTVSPropertyOp14
 70
     2
102
RTVSPropertyOp15
 70
     0
102
RTVSPropertyOp16
 70
     0
102
RTVSPropertyOp17
 70
     0
102
RTVSPropertyOp18
 70
     0
102
RTVSPropertyOp19
 70
     0
102
RTVSPropertyOp20
 70
     0
102
RTVSPropertyOp21
 70
     0
102
RTVSPropertyOp22
 70
     0
102
RTVSPropertyOp23
 70
     0
102
RTVSPropertyOp24
 70
     0
102
RTVSPropertyOp25
 70
     0
102
RTVSPropertyOp26
 70
     0
102
RTVSPropertyOp27
 70
     0
102
RTVSPropertyOp28
 70
     1
102
RTVSPropertyOp29
 70
     1
102
RTVSPropertyOp30
 70
     1
102
RTVSPropertyOp31
 70
     1
102
RTVSPropertyOp32
 70
     1
102
RTVSPropertyOp33
 70
     1
102
RTVSPropertyOp34
 70
     1
102
RTVSPropertyOp35
 70
     1
102
RTVSPropertyOp36
 70
     1
102
RTVSPropertyOp37
 70
     0
102
RTVSPropertyOp38
 70
     0
102
RTVSPropertyOp39
 70
     0
102
RTVSPropertyOp40
 70
     0
102
RTVSPropertyOp41
 70
     0
102
RTVSPropertyOp42
 70
     0
102
RTVSPropertyOp43
 70
     0
102
RTVSPropertyOp44
 70
     0
102
RTVSPropertyOp45
 70
     1
102
RTVSPropertyOp46
 70
     0
102
RTVSPropertyOp47
 70
     0
102
RTVSPropertyOp48
 70
     0
102
RTVSPropertyOp49
 70
     1
102
RTVSPropertyOp50
 70
     0
102
RTVSPropertyOp51
 70
     0
102
RTVSPropertyOp52
 70
     0
102
RTVSPropertyOp53
 70
     0
102
RTVSPropertyOp54
 70
     0
102
RTVSPropertyOp55
 70
     1
102
RTVSPropertyOp56
 70
     0
102
RTVSPropertyOp57
 70
     0
102
RTVSPropertyOp58
 70
     1
102
RTVSPropertyOp59
 70
     1
102
RTVSPropertyOp60
 70
     1
102
RTVSPropertyOp61
 70
     1
102
RTVSPropertyOp62
 70
     1
  0
XRECORD
  5
1456
102
{ACAD_REACTORS
330
1455
102
}
330
1455
100
AcDbXrecord
280
     1
102
RTVSPost2010Prop28
280
     0
102
RTVSPost2010PropOp28
 70
     1
102
RTVSPost2010Prop29
280
     1
102
RTVSPost2010PropOp29
 70
     1
102
RTVSPost2010Prop30
280
     1
102
RTVSPost2010PropOp30
 70
     1
102
RTVSPost2010Prop31
280
     0
102
RTVSPost2010PropOp31
 70
     1
102
RTVSPost2010Prop32
280
     0
102
RTVSPost2010PropOp32
 70
     1
102
RTVSPost2010Prop33
280
     0
102
RTVSPost2010PropOp33
 70
     1
102
RTVSPost2010Prop34
280
     0
102
RTVSPost2010PropOp34
 70
     1
102
RTVSPost2010Prop35
280
     0
102
RTVSPost2010PropOp35
 70
     1
102
RTVSPost2010Prop36
280
     0
102
RTVSPost2010PropOp36
 70
     1
102
RTVSPost2010Prop37
 90
       50
102
RTVSPost2010PropOp37
 70
     1
102
RTVSPost2010Prop38
140
0.0
102
RTVSPost2010PropOp38
 70
     1
102
RTVSPost2010Prop39
140
1.0
102
RTVSPost2010PropOp39
 70
     1
102
RTVSPost2010Prop40
 90
        0
102
RTVSPost2010PropOp40
 70
     1
102
RTVSPost2010Prop41ColorIndex
 90
       18
102
RTVSPost2010Prop41ColorRGB
 90
        0
102
RTVSPost2010PropOp41
 70
     1
102
RTVSPost2010Prop42
 90
       50
102
RTVSPost2010PropOp42
 70
     1
102
RTVSPost2010Prop43
 90
        3
102
RTVSPost2010PropOp43
 70
     1
102
RTVSPost2010Prop44ColorIndex
 90
        5
102
RTVSPost2010Prop44ColorRGB
 90
      255
102
RTVSPost2010PropOp44
 70
     1
102
RTVSPost2010Prop45
280
     0
102
RTVSPost2010PropOp45
 70
     1
102
RTVSPost2010Prop46
 90
       50
102
RTVSPost2010PropOp46
 70
     1
102
RTVSPost2010Prop47
 90
       50
102
RTVSPost2010PropOp47
 70
     1
102
RTVSPost2010Prop48
 90
       50
102
RTVSPost2010PropOp48
 70
     1
102
RTVSPost2010Prop49
280
     0
102
RTVSPost2010PropOp49
 70
     1
102
RTVSPost2010Prop50
 90
       50
102
RTVSPost2010PropOp50
 70
     1
102
RTVSPost2010Prop51ColorIndex
 90
      256
102
RTVSPost2010Prop51ColorRGB
 90
-16777216
102
RTVSPost2010PropOp51
 70
     0
102
RTVSPost2010Prop52
140
1.0
102
RTVSPost2010PropOp52
 70
     0
102
RTVSPost2010Prop53
 90
        2
102
RTVSPost2010PropOp53
 70
     1
102
RTVSPost2010Prop54
  1
strokes_ogs.tif
102
RTVSPost2010PropOp54
 70
     1
102
RTVSPost2010Prop55
280
     0
102
RTVSPost2010PropOp55
 70
     1
102
RTVSPost2010Prop56
140
1.0
102
RTVSPost2010PropOp56
 70
     1
102
RTVSPost2010Prop57
140
1.0
102
RTVSPost2010PropOp57
 70
     1
102
RTVSPropertyOp0
 70
     1
102
RTVSPropertyOp1
 70
     1
102
RTVSPropertyOp2
 70
     1
102
RTVSPropertyOp3
 70
     1
102
RTVSPropertyOp4
 70
     1
102
RTVSPropertyOp5
 70
     1
102
RTVSPropertyOp6
 70
     1
102
RTVSPropertyOp7
 70
     1
102
RTVSPropertyOp8
 70
     1
102
RTVSPropertyOp9
 70
     1
102
RTVSPropertyOp10
 70
     1
102
RTVSPropertyOp11
 70
     1
102
RTVSPropertyOp12
 70
     1
102
RTVSPropertyOp13
 70
     1
102
RTVSPropertyOp14
 70
     1
102
RTVSPropertyOp15
 70
     1
102
RTVSPropertyOp16
 70
     1
102
RTVSPropertyOp17
 70
     1
102
RTVSPropertyOp18
 70
     1
102
RTVSPropertyOp19
 70
     1
102
RTVSPropertyOp20
 70
     1
102
RTVSPropertyOp21
 70
     1
102
RTVSPropertyOp22
 70
     1
102
RTVSPropertyOp23
 70
     1
102
RTVSPropertyOp24
 70
     1
102
RTVSPropertyOp25
 70
     1
102
RTVSPropertyOp26
 70
     1
102
RTVSPropertyOp27
 70
     1
102
RTVSPropertyOp28
 70
     1
102
RTVSPropertyOp29
 70
     1
102
RTVSPropertyOp30
 70
     1
102
RTVSPropertyOp31
 70
     1
102
RTVSPropertyOp32
 70
     1
102
RTVSPropertyOp33
 70
     1
102
RTVSPropertyOp34
 70
     1
102
RTVSPropertyOp35
 70
     1
102
RTVSPropertyOp36
 70
     1
102
RTVSPropertyOp37
 70
     1
102
RTVSPropertyOp38
 70
     1
102
RTVSPropertyOp39
 70
     1
102
RTVSPropertyOp40
 70
     1
102
RTVSPropertyOp41
 70
     1
102
RTVSPropertyOp42
 70
     1
102
RTVSPropertyOp43
 70
     1
102
RTVSPropertyOp44
 70
     1
102
RTVSPropertyOp45
 70
     1
102
RTVSPropertyOp46
 70
     1
102
RTVSPropertyOp47
 70
     1
102
RTVSPropertyOp48
 70
     1
102
RTVSPropertyOp49
 70
     1
102
RTVSPropertyOp50
 70
     1
102
RTVSPropertyOp51
 70
     0
102
RTVSPropertyOp52
 70
     0
102
RTVSPropertyOp53
 70
     1
102
RTVSPropertyOp54
 70
     1
102
RTVSPropertyOp55
 70
     1
102
RTVSPropertyOp56
 70
     1
102
RTVSPropertyOp57
 70
     1
102
RTVSPropertyOp58
 70
     1
102
RTVSPropertyOp59
 70
     1
102
RTVSPropertyOp60
 70
     1
102
RTVSPropertyOp61
 70
     1
102
RTVSPropertyOp62
 70
     1
  0
XRECORD
  5
143A
102
{ACAD_REACTORS
330
1439
102
}
330
1439
100
AcDbXrecord
280
     1
102
RTVSPost2010Prop28
280
     0
102
RTVSPost2010PropOp28
 70
     1
102
RTVSPost2010Prop29
280
     1
102
RTVSPost2010PropOp29
 70
     1
102
RTVSPost2010Prop30
280
     1
102
RTVSPost2010PropOp30
 70
     1
102
RTVSPost2010Prop31
280
     0
102
RTVSPost2010PropOp31
 70
     1
102
RTVSPost2010Prop32
280
     0
102
RTVSPost2010PropOp32
 70
     1
102
RTVSPost2010Prop33
280
     0
102
RTVSPost2010PropOp33
 70
     1
102
RTVSPost2010Prop34
280
     0
102
RTVSPost2010PropOp34
 70
     1
102
RTVSPost2010Prop35
280
     0
102
RTVSPost2010PropOp35
 70
     1
102
RTVSPost2010Prop36
280
     0
102
RTVSPost2010PropOp36
 70
     1
102
RTVSPost2010Prop37
 90
       50
102
RTVSPost2010PropOp37
 70
     1
102
RTVSPost2010Prop38
140
0.0
102
RTVSPost2010PropOp38
 70
     1
102
RTVSPost2010Prop39
140
1.0
102
RTVSPost2010PropOp39
 70
     1
102
RTVSPost2010Prop40
 90
        0
102
RTVSPost2010PropOp40
 70
     1
102
RTVSPost2010Prop41ColorIndex
 90
       18
102
RTVSPost2010Prop41ColorRGB
 90
        0
102
RTVSPost2010PropOp41
 70
     1
102
RTVSPost2010Prop42
 90
       50
102
RTVSPost2010PropOp42
 70
     1
102
RTVSPost2010Prop43
 90
        3
102
RTVSPost2010PropOp43
 70
     1
102
RTVSPost2010Prop44ColorIndex
 90
        5
102
RTVSPost2010Prop44ColorRGB
 90
      255
102
RTVSPost2010PropOp44
 70
     1
102
RTVSPost2010Prop45
280
     0
102
RTVSPost2010PropOp45
 70
     1
102
RTVSPost2010Prop46
 90
       50
102
RTVSPost2010PropOp46
 70
     1
102
RTVSPost2010Prop47
 90
       50
102
RTVSPost2010PropOp47
 70
     1
102
RTVSPost2010Prop48
 90
       50
102
RTVSPost2010PropOp48
 70
     1
102
RTVSPost2010Prop49
280
     0
102
RTVSPost2010PropOp49
 70
     1
102
RTVSPost2010Prop50
 90
       50
102
RTVSPost2010PropOp50
 70
     1
102
RTVSPost2010Prop51ColorIndex
 90
      256
102
RTVSPost2010Prop51ColorRGB
 90
-16777216
102
RTVSPost2010PropOp51
 70
     0
102
RTVSPost2010Prop52
140
1.0
102
RTVSPost2010PropOp52
 70
     0
102
RTVSPost2010Prop53
 90
        2
102
RTVSPost2010PropOp53
 70
     1
102
RTVSPost2010Prop54
  1
strokes_ogs.tif
102
RTVSPost2010PropOp54
 70
     1
102
RTVSPost2010Prop55
280
     0
102
RTVSPost2010PropOp55
 70
     1
102
RTVSPost2010Prop56
140
1.0
102
RTVSPost2010PropOp56
 70
     1
102
RTVSPost2010Prop57
140
1.0
102
RTVSPost2010PropOp57
 70
     1
102
RTVSPropertyOp0
 70
     1
102
RTVSPropertyOp1
 70
     1
102
RTVSPropertyOp2
 70
     1
102
RTVSPropertyOp3
 70
     1
102
RTVSPropertyOp4
 70
     1
102
RTVSPropertyOp5
 70
     1
102
RTVSPropertyOp6
 70
     1
102
RTVSPropertyOp7
 70
     1
102
RTVSPropertyOp8
 70
     1
102
RTVSPropertyOp9
 70
     1
102
RTVSPropertyOp10
 70
     1
102
RTVSPropertyOp11
 70
     1
102
RTVSPropertyOp12
 70
     1
102
RTVSPropertyOp13
 70
     1
102
RTVSPropertyOp14
 70
     1
102
RTVSPropertyOp15
 70
     1
102
RTVSPropertyOp16
 70
     1
102
RTVSPropertyOp17
 70
     1
102
RTVSPropertyOp18
 70
     1
102
RTVSPropertyOp19
 70
     1
102
RTVSPropertyOp20
 70
     1
102
RTVSPropertyOp21
 70
     1
102
RTVSPropertyOp22
 70
     1
102
RTVSPropertyOp23
 70
     1
102
RTVSPropertyOp24
 70
     1
102
RTVSPropertyOp25
 70
     1
102
RTVSPropertyOp26
 70
     1
102
RTVSPropertyOp27
 70
     1
102
RTVSPropertyOp28
 70
     1
102
RTVSPropertyOp29
 70
     1
102
RTVSPropertyOp30
 70
     1
102
RTVSPropertyOp31
 70
     1
102
RTVSPropertyOp32
 70
     1
102
RTVSPropertyOp33
 70
     1
102
RTVSPropertyOp34
 70
     1
102
RTVSPropertyOp35
 70
     1
102
RTVSPropertyOp36
 70
     1
102
RTVSPropertyOp37
 70
     1
102
RTVSPropertyOp38
 70
     1
102
RTVSPropertyOp39
 70
     1
102
RTVSPropertyOp40
 70
     1
102
RTVSPropertyOp41
 70
     1
102
RTVSPropertyOp42
 70
     1
102
RTVSPropertyOp43
 70
     1
102
RTVSPropertyOp44
 70
     1
102
RTVSPropertyOp45
 70
     1
102
RTVSPropertyOp46
 70
     1
102
RTVSPropertyOp47
 70
     1
102
RTVSPropertyOp48
 70
     1
102
RTVSPropertyOp49
 70
     1
102
RTVSPropertyOp50
 70
     1
102
RTVSPropertyOp51
 70
     0
102
RTVSPropertyOp52
 70
     0
102
RTVSPropertyOp53
 70
     1
102
RTVSPropertyOp54
 70
     1
102
RTVSPropertyOp55
 70
     1
102
RTVSPropertyOp56
 70
     1
102
RTVSPropertyOp57
 70
     1
102
RTVSPropertyOp58
 70
     1
102
RTVSPropertyOp59
 70
     1
102
RTVSPropertyOp60
 70
     1
102
RTVSPropertyOp61
 70
     1
102
RTVSPropertyOp62
 70
     1
  0
XRECORD
  5
143C
102
{ACAD_REACTORS
330
143B
102
}
330
143B
100
AcDbXrecord
280
     1
102
RTVSPost2010Prop28
280
     0
102
RTVSPost2010PropOp28
 70
     1
102
RTVSPost2010Prop29
280
     1
102
RTVSPost2010PropOp29
 70
     1
102
RTVSPost2010Prop30
280
     1
102
RTVSPost2010PropOp30
 70
     1
102
RTVSPost2010Prop31
280
     0
102
RTVSPost2010PropOp31
 70
     1
102
RTVSPost2010Prop32
280
     0
102
RTVSPost2010PropOp32
 70
     1
102
RTVSPost2010Prop33
280
     0
102
RTVSPost2010PropOp33
 70
     1
102
RTVSPost2010Prop34
280
     0
102
RTVSPost2010PropOp34
 70
     1
102
RTVSPost2010Prop35
280
     0
102
RTVSPost2010PropOp35
 70
     1
102
RTVSPost2010Prop36
280
     0
102
RTVSPost2010PropOp36
 70
     1
102
RTVSPost2010Prop37
 90
       50
102
RTVSPost2010PropOp37
 70
     1
102
RTVSPost2010Prop38
140
0.0
102
RTVSPost2010PropOp38
 70
     1
102
RTVSPost2010Prop39
140
1.0
102
RTVSPost2010PropOp39
 70
     1
102
RTVSPost2010Prop40
 90
        0
102
RTVSPost2010PropOp40
 70
     1
102
RTVSPost2010Prop41ColorIndex
 90
       18
102
RTVSPost2010Prop41ColorRGB
 90
        0
102
RTVSPost2010PropOp41
 70
     1
102
RTVSPost2010Prop42
 90
       50
102
RTVSPost2010PropOp42
 70
     1
102
RTVSPost2010Prop43
 90
        3
102
RTVSPost2010PropOp43
 70
     1
102
RTVSPost2010Prop44ColorIndex
 90
        5
102
RTVSPost2010Prop44ColorRGB
 90
      255
102
RTVSPost2010PropOp44
 70
     1
102
RTVSPost2010Prop45
280
     0
102
RTVSPost2010PropOp45
 70
     1
102
RTVSPost2010Prop46
 90
       50
102
RTVSPost2010PropOp46
 70
     1
102
RTVSPost2010Prop47
 90
       50
102
RTVSPost2010PropOp47
 70
     1
102
RTVSPost2010Prop48
 90
       50
102
RTVSPost2010PropOp48
 70
     1
102
RTVSPost2010Prop49
280
     0
102
RTVSPost2010PropOp49
 70
     1
102
RTVSPost2010Prop50
 90
       50
102
RTVSPost2010PropOp50
 70
     1
102
RTVSPost2010Prop51ColorIndex
 90
      256
102
RTVSPost2010Prop51ColorRGB
 90
-16777216
102
RTVSPost2010PropOp51
 70
     0
102
RTVSPost2010Prop52
140
1.0
102
RTVSPost2010PropOp52
 70
     0
102
RTVSPost2010Prop53
 90
        2
102
RTVSPost2010PropOp53
 70
     1
102
RTVSPost2010Prop54
  1
strokes_ogs.tif
102
RTVSPost2010PropOp54
 70
     1
102
RTVSPost2010Prop55
280
     0
102
RTVSPost2010PropOp55
 70
     1
102
RTVSPost2010Prop56
140
1.0
102
RTVSPost2010PropOp56
 70
     1
102
RTVSPost2010Prop57
140
1.0
102
RTVSPost2010PropOp57
 70
     1
102
RTVSPropertyOp0
 70
     1
102
RTVSPropertyOp1
 70
     1
102
RTVSPropertyOp2
 70
     1
102
RTVSPropertyOp3
 70
     1
102
RTVSPropertyOp4
 70
     1
102
RTVSPropertyOp5
 70
     1
102
RTVSPropertyOp6
 70
     1
102
RTVSPropertyOp7
 70
     1
102
RTVSPropertyOp8
 70
     1
102
RTVSPropertyOp9
 70
     1
102
RTVSPropertyOp10
 70
     1
102
RTVSPropertyOp11
 70
     1
102
RTVSPropertyOp12
 70
     1
102
RTVSPropertyOp13
 70
     1
102
RTVSPropertyOp14
 70
     1
102
RTVSPropertyOp15
 70
     1
102
RTVSPropertyOp16
 70
     1
102
RTVSPropertyOp17
 70
     1
102
RTVSPropertyOp18
 70
     1
102
RTVSPropertyOp19
 70
     1
102
RTVSPropertyOp20
 70
     1
102
RTVSPropertyOp21
 70
     1
102
RTVSPropertyOp22
 70
     1
102
RTVSPropertyOp23
 70
     1
102
RTVSPropertyOp24
 70
     1
102
RTVSPropertyOp25
 70
     1
102
RTVSPropertyOp26
 70
     1
102
RTVSPropertyOp27
 70
     1
102
RTVSPropertyOp28
 70
     1
102
RTVSPropertyOp29
 70
     1
102
RTVSPropertyOp30
 70
     1
102
RTVSPropertyOp31
 70
     1
102
RTVSPropertyOp32
 70
     1
102
RTVSPropertyOp33
 70
     1
102
RTVSPropertyOp34
 70
     1
102
RTVSPropertyOp35
 70
     1
102
RTVSPropertyOp36
 70
     1
102
RTVSPropertyOp37
 70
     1
102
RTVSPropertyOp38
 70
     1
102
RTVSPropertyOp39
 70
     1
102
RTVSPropertyOp40
 70
     1
102
RTVSPropertyOp41
 70
     1
102
RTVSPropertyOp42
 70
     1
102
RTVSPropertyOp43
 70
     1
102
RTVSPropertyOp44
 70
     1
102
RTVSPropertyOp45
 70
     1
102
RTVSPropertyOp46
 70
     1
102
RTVSPropertyOp47
 70
     1
102
RTVSPropertyOp48
 70
     1
102
RTVSPropertyOp49
 70
     1
102
RTVSPropertyOp50
 70
     1
102
RTVSPropertyOp51
 70
     0
102
RTVSPropertyOp52
 70
     0
102
RTVSPropertyOp53
 70
     1
102
RTVSPropertyOp54
 70
     1
102
RTVSPropertyOp55
 70
     1
102
RTVSPropertyOp56
 70
     1
102
RTVSPropertyOp57
 70
     1
102
RTVSPropertyOp58
 70
     1
102
RTVSPropertyOp59
 70
     1
102
RTVSPropertyOp60
 70
     1
102
RTVSPropertyOp61
 70
     1
102
RTVSPropertyOp62
 70
     1
  0
XRECORD
  5
143E
102
{ACAD_REACTORS
330
143D
102
}
330
143D
100
AcDbXrecord
280
     1
102
RTVSPost2010Prop28
280
     0
102
RTVSPost2010PropOp28
 70
     1
102
RTVSPost2010Prop29
280
     1
102
RTVSPost2010PropOp29
 70
     1
102
RTVSPost2010Prop30
280
     1
102
RTVSPost2010PropOp30
 70
     1
102
RTVSPost2010Prop31
280
     0
102
RTVSPost2010PropOp31
 70
     1
102
RTVSPost2010Prop32
280
     0
102
RTVSPost2010PropOp32
 70
     1
102
RTVSPost2010Prop33
280
     0
102
RTVSPost2010PropOp33
 70
     1
102
RTVSPost2010Prop34
280
     0
102
RTVSPost2010PropOp34
 70
     1
102
RTVSPost2010Prop35
280
     0
102
RTVSPost2010PropOp35
 70
     1
102
RTVSPost2010Prop36
280
     0
102
RTVSPost2010PropOp36
 70
     1
102
RTVSPost2010Prop37
 90
       50
102
RTVSPost2010PropOp37
 70
     1
102
RTVSPost2010Prop38
140
0.0
102
RTVSPost2010PropOp38
 70
     1
102
RTVSPost2010Prop39
140
1.0
102
RTVSPost2010PropOp39
 70
     1
102
RTVSPost2010Prop40
 90
        0
102
RTVSPost2010PropOp40
 70
     1
102
RTVSPost2010Prop41ColorIndex
 90
       18
102
RTVSPost2010Prop41ColorRGB
 90
        0
102
RTVSPost2010PropOp41
 70
     1
102
RTVSPost2010Prop42
 90
       50
102
RTVSPost2010PropOp42
 70
     1
102
RTVSPost2010Prop43
 90
        3
102
RTVSPost2010PropOp43
 70
     1
102
RTVSPost2010Prop44ColorIndex
 90
        5
102
RTVSPost2010Prop44ColorRGB
 90
      255
102
RTVSPost2010PropOp44
 70
     1
102
RTVSPost2010Prop45
280
     0
102
RTVSPost2010PropOp45
 70
     1
102
RTVSPost2010Prop46
 90
       50
102
RTVSPost2010PropOp46
 70
     1
102
RTVSPost2010Prop47
 90
       50
102
RTVSPost2010PropOp47
 70
     1
102
RTVSPost2010Prop48
 90
       50
102
RTVSPost2010PropOp48
 70
     1
102
RTVSPost2010Prop49
280
     0
102
RTVSPost2010PropOp49
 70
     1
102
RTVSPost2010Prop50
 90
       50
102
RTVSPost2010PropOp50
 70
     1
102
RTVSPost2010Prop51ColorIndex
 90
      256
102
RTVSPost2010Prop51ColorRGB
 90
-16777216
102
RTVSPost2010PropOp51
 70
     0
102
RTVSPost2010Prop52
140
1.0
102
RTVSPost2010PropOp52
 70
     0
102
RTVSPost2010Prop53
 90
        2
102
RTVSPost2010PropOp53
 70
     1
102
RTVSPost2010Prop54
  1
strokes_ogs.tif
102
RTVSPost2010PropOp54
 70
     1
102
RTVSPost2010Prop55
280
     0
102
RTVSPost2010PropOp55
 70
     1
102
RTVSPost2010Prop56
140
1.0
102
RTVSPost2010PropOp56
 70
     1
102
RTVSPost2010Prop57
140
1.0
102
RTVSPost2010PropOp57
 70
     1
102
RTVSPropertyOp0
 70
     1
102
RTVSPropertyOp1
 70
     1
102
RTVSPropertyOp2
 70
     1
102
RTVSPropertyOp3
 70
     1
102
RTVSPropertyOp4
 70
     1
102
RTVSPropertyOp5
 70
     1
102
RTVSPropertyOp6
 70
     1
102
RTVSPropertyOp7
 70
     1
102
RTVSPropertyOp8
 70
     1
102
RTVSPropertyOp9
 70
     1
102
RTVSPropertyOp10
 70
     1
102
RTVSPropertyOp11
 70
     1
102
RTVSPropertyOp12
 70
     1
102
RTVSPropertyOp13
 70
     1
102
RTVSPropertyOp14
 70
     1
102
RTVSPropertyOp15
 70
     1
102
RTVSPropertyOp16
 70
     1
102
RTVSPropertyOp17
 70
     1
102
RTVSPropertyOp18
 70
     1
102
RTVSPropertyOp19
 70
     1
102
RTVSPropertyOp20
 70
     1
102
RTVSPropertyOp21
 70
     1
102
RTVSPropertyOp22
 70
     1
102
RTVSPropertyOp23
 70
     1
102
RTVSPropertyOp24
 70
     1
102
RTVSPropertyOp25
 70
     1
102
RTVSPropertyOp26
 70
     1
102
RTVSPropertyOp27
 70
     1
102
RTVSPropertyOp28
 70
     1
102
RTVSPropertyOp29
 70
     1
102
RTVSPropertyOp30
 70
     1
102
RTVSPropertyOp31
 70
     1
102
RTVSPropertyOp32
 70
     1
102
RTVSPropertyOp33
 70
     1
102
RTVSPropertyOp34
 70
     1
102
RTVSPropertyOp35
 70
     1
102
RTVSPropertyOp36
 70
     1
102
RTVSPropertyOp37
 70
     1
102
RTVSPropertyOp38
 70
     1
102
RTVSPropertyOp39
 70
     1
102
RTVSPropertyOp40
 70
     1
102
RTVSPropertyOp41
 70
     1
102
RTVSPropertyOp42
 70
     1
102
RTVSPropertyOp43
 70
     1
102
RTVSPropertyOp44
 70
     1
102
RTVSPropertyOp45
 70
     1
102
RTVSPropertyOp46
 70
     1
102
RTVSPropertyOp47
 70
     1
102
RTVSPropertyOp48
 70
     1
102
RTVSPropertyOp49
 70
     1
102
RTVSPropertyOp50
 70
     1
102
RTVSPropertyOp51
 70
     0
102
RTVSPropertyOp52
 70
     0
102
RTVSPropertyOp53
 70
     1
102
RTVSPropertyOp54
 70
     1
102
RTVSPropertyOp55
 70
     1
102
RTVSPropertyOp56
 70
     1
102
RTVSPropertyOp57
 70
     1
102
RTVSPropertyOp58
 70
     1
102
RTVSPropertyOp59
 70
     1
102
RTVSPropertyOp60
 70
     1
102
RTVSPropertyOp61
 70
     1
102
RTVSPropertyOp62
 70
     1
  0
XRECORD
  5
1440
102
{ACAD_REACTORS
330
143F
102
}
330
143F
100
AcDbXrecord
280
     1
102
RTVSPost2010Prop28
280
     0
102
RTVSPost2010PropOp28
 70
     1
102
RTVSPost2010Prop29
280
     1
102
RTVSPost2010PropOp29
 70
     1
102
RTVSPost2010Prop30
280
     1
102
RTVSPost2010PropOp30
 70
     1
102
RTVSPost2010Prop31
280
     0
102
RTVSPost2010PropOp31
 70
     1
102
RTVSPost2010Prop32
280
     0
102
RTVSPost2010PropOp32
 70
     1
102
RTVSPost2010Prop33
280
     0
102
RTVSPost2010PropOp33
 70
     1
102
RTVSPost2010Prop34
280
     0
102
RTVSPost2010PropOp34
 70
     1
102
RTVSPost2010Prop35
280
     0
102
RTVSPost2010PropOp35
 70
     1
102
RTVSPost2010Prop36
280
     0
102
RTVSPost2010PropOp36
 70
     1
102
RTVSPost2010Prop37
 90
       50
102
RTVSPost2010PropOp37
 70
     1
102
RTVSPost2010Prop38
140
0.0
102
RTVSPost2010PropOp38
 70
     1
102
RTVSPost2010Prop39
140
1.0
102
RTVSPost2010PropOp39
 70
     1
102
RTVSPost2010Prop40
 90
        0
102
RTVSPost2010PropOp40
 70
     1
102
RTVSPost2010Prop41ColorIndex
 90
       18
102
RTVSPost2010Prop41ColorRGB
 90
        0
102
RTVSPost2010PropOp41
 70
     1
102
RTVSPost2010Prop42
 90
       50
102
RTVSPost2010PropOp42
 70
     1
102
RTVSPost2010Prop43
 90
        3
102
RTVSPost2010PropOp43
 70
     1
102
RTVSPost2010Prop44ColorIndex
 90
        5
102
RTVSPost2010Prop44ColorRGB
 90
      255
102
RTVSPost2010PropOp44
 70
     1
102
RTVSPost2010Prop45
280
     0
102
RTVSPost2010PropOp45
 70
     1
102
RTVSPost2010Prop46
 90
       50
102
RTVSPost2010PropOp46
 70
     1
102
RTVSPost2010Prop47
 90
       50
102
RTVSPost2010PropOp47
 70
     1
102
RTVSPost2010Prop48
 90
       50
102
RTVSPost2010PropOp48
 70
     1
102
RTVSPost2010Prop49
280
     0
102
RTVSPost2010PropOp49
 70
     1
102
RTVSPost2010Prop50
 90
       50
102
RTVSPost2010PropOp50
 70
     1
102
RTVSPost2010Prop51ColorIndex
 90
      256
102
RTVSPost2010Prop51ColorRGB
 90
-16777216
102
RTVSPost2010PropOp51
 70
     0
102
RTVSPost2010Prop52
140
1.0
102
RTVSPost2010PropOp52
 70
     0
102
RTVSPost2010Prop53
 90
        2
102
RTVSPost2010PropOp53
 70
     1
102
RTVSPost2010Prop54
  1
strokes_ogs.tif
102
RTVSPost2010PropOp54
 70
     1
102
RTVSPost2010Prop55
280
     0
102
RTVSPost2010PropOp55
 70
     1
102
RTVSPost2010Prop56
140
1.0
102
RTVSPost2010PropOp56
 70
     1
102
RTVSPost2010Prop57
140
1.0
102
RTVSPost2010PropOp57
 70
     1
102
RTVSPropertyOp0
 70
     1
102
RTVSPropertyOp1
 70
     1
102
RTVSPropertyOp2
 70
     1
102
RTVSPropertyOp3
 70
     1
102
RTVSPropertyOp4
 70
     1
102
RTVSPropertyOp5
 70
     1
102
RTVSPropertyOp6
 70
     1
102
RTVSPropertyOp7
 70
     1
102
RTVSPropertyOp8
 70
     1
102
RTVSPropertyOp9
 70
     1
102
RTVSPropertyOp10
 70
     1
102
RTVSPropertyOp11
 70
     1
102
RTVSPropertyOp12
 70
     1
102
RTVSPropertyOp13
 70
     1
102
RTVSPropertyOp14
 70
     1
102
RTVSPropertyOp15
 70
     1
102
RTVSPropertyOp16
 70
     1
102
RTVSPropertyOp17
 70
     1
102
RTVSPropertyOp18
 70
     1
102
RTVSPropertyOp19
 70
     1
102
RTVSPropertyOp20
 70
     1
102
RTVSPropertyOp21
 70
     1
102
RTVSPropertyOp22
 70
     1
102
RTVSPropertyOp23
 70
     1
102
RTVSPropertyOp24
 70
     1
102
RTVSPropertyOp25
 70
     1
102
RTVSPropertyOp26
 70
     1
102
RTVSPropertyOp27
 70
     1
102
RTVSPropertyOp28
 70
     1
102
RTVSPropertyOp29
 70
     1
102
RTVSPropertyOp30
 70
     1
102
RTVSPropertyOp31
 70
     1
102
RTVSPropertyOp32
 70
     1
102
RTVSPropertyOp33
 70
     1
102
RTVSPropertyOp34
 70
     1
102
RTVSPropertyOp35
 70
     1
102
RTVSPropertyOp36
 70
     1
102
RTVSPropertyOp37
 70
     1
102
RTVSPropertyOp38
 70
     1
102
RTVSPropertyOp39
 70
     1
102
RTVSPropertyOp40
 70
     1
102
RTVSPropertyOp41
 70
     1
102
RTVSPropertyOp42
 70
     1
102
RTVSPropertyOp43
 70
     1
102
RTVSPropertyOp44
 70
     1
102
RTVSPropertyOp45
 70
     1
102
RTVSPropertyOp46
 70
     1
102
RTVSPropertyOp47
 70
     1
102
RTVSPropertyOp48
 70
     1
102
RTVSPropertyOp49
 70
     1
102
RTVSPropertyOp50
 70
     1
102
RTVSPropertyOp51
 70
     0
102
RTVSPropertyOp52
 70
     0
102
RTVSPropertyOp53
 70
     1
102
RTVSPropertyOp54
 70
     1
102
RTVSPropertyOp55
 70
     1
102
RTVSPropertyOp56
 70
     1
102
RTVSPropertyOp57
 70
     1
102
RTVSPropertyOp58
 70
     1
102
RTVSPropertyOp59
 70
     1
102
RTVSPropertyOp60
 70
     1
102
RTVSPropertyOp61
 70
     1
102
RTVSPropertyOp62
 70
     1
  0
XRECORD
  5
1448
102
{ACAD_REACTORS
330
1447
102
}
330
1447
100
AcDbXrecord
280
     1
102
RTVSPost2010Prop28
280
     0
102
RTVSPost2010PropOp28
 70
     1
102
RTVSPost2010Prop29
280
     1
102
RTVSPost2010PropOp29
 70
     1
102
RTVSPost2010Prop30
280
     1
102
RTVSPost2010PropOp30
 70
     1
102
RTVSPost2010Prop31
280
     0
102
RTVSPost2010PropOp31
 70
     1
102
RTVSPost2010Prop32
280
     0
102
RTVSPost2010PropOp32
 70
     1
102
RTVSPost2010Prop33
280
     0
102
RTVSPost2010PropOp33
 70
     1
102
RTVSPost2010Prop34
280
     0
102
RTVSPost2010PropOp34
 70
     1
102
RTVSPost2010Prop35
280
     0
102
RTVSPost2010PropOp35
 70
     1
102
RTVSPost2010Prop36
280
     0
102
RTVSPost2010PropOp36
 70
     1
102
RTVSPost2010Prop37
 90
       50
102
RTVSPost2010PropOp37
 70
     1
102
RTVSPost2010Prop38
140
0.0
102
RTVSPost2010PropOp38
 70
     1
102
RTVSPost2010Prop39
140
1.0
102
RTVSPost2010PropOp39
 70
     1
102
RTVSPost2010Prop40
 90
        0
102
RTVSPost2010PropOp40
 70
     1
102
RTVSPost2010Prop41ColorIndex
 90
       18
102
RTVSPost2010Prop41ColorRGB
 90
        0
102
RTVSPost2010PropOp41
 70
     1
102
RTVSPost2010Prop42
 90
       50
102
RTVSPost2010PropOp42
 70
     1
102
RTVSPost2010Prop43
 90
        3
102
RTVSPost2010PropOp43
 70
     1
102
RTVSPost2010Prop44ColorIndex
 90
        5
102
RTVSPost2010Prop44ColorRGB
 90
      255
102
RTVSPost2010PropOp44
 70
     1
102
RTVSPost2010Prop45
280
     0
102
RTVSPost2010PropOp45
 70
     1
102
RTVSPost2010Prop46
 90
       50
102
RTVSPost2010PropOp46
 70
     1
102
RTVSPost2010Prop47
 90
       50
102
RTVSPost2010PropOp47
 70
     1
102
RTVSPost2010Prop48
 90
       50
102
RTVSPost2010PropOp48
 70
     1
102
RTVSPost2010Prop49
280
     0
102
RTVSPost2010PropOp49
 70
     1
102
RTVSPost2010Prop50
 90
       50
102
RTVSPost2010PropOp50
 70
     1
102
RTVSPost2010Prop51ColorIndex
 90
      256
102
RTVSPost2010Prop51ColorRGB
 90
-16777216
102
RTVSPost2010PropOp51
 70
     0
102
RTVSPost2010Prop52
140
1.0
102
RTVSPost2010PropOp52
 70
     0
102
RTVSPost2010Prop53
 90
        2
102
RTVSPost2010PropOp53
 70
     1
102
RTVSPost2010Prop54
  1
strokes_ogs.tif
102
RTVSPost2010PropOp54
 70
     1
102
RTVSPost2010Prop55
280
     0
102
RTVSPost2010PropOp55
 70
     1
102
RTVSPost2010Prop56
140
1.0
102
RTVSPost2010PropOp56
 70
     1
102
RTVSPost2010Prop57
140
1.0
102
RTVSPost2010PropOp57
 70
     1
102
RTVSPropertyOp0
 70
     1
102
RTVSPropertyOp1
 70
     1
102
RTVSPropertyOp2
 70
     1
102
RTVSPropertyOp3
 70
     1
102
RTVSPropertyOp4
 70
     1
102
RTVSPropertyOp5
 70
     1
102
RTVSPropertyOp6
 70
     1
102
RTVSPropertyOp7
 70
     1
102
RTVSPropertyOp8
 70
     1
102
RTVSPropertyOp9
 70
     1
102
RTVSPropertyOp10
 70
     1
102
RTVSPropertyOp11
 70
     1
102
RTVSPropertyOp12
 70
     1
102
RTVSPropertyOp13
 70
     1
102
RTVSPropertyOp14
 70
     1
102
RTVSPropertyOp15
 70
     1
102
RTVSPropertyOp16
 70
     1
102
RTVSPropertyOp17
 70
     1
102
RTVSPropertyOp18
 70
     1
102
RTVSPropertyOp19
 70
     1
102
RTVSPropertyOp20
 70
     1
102
RTVSPropertyOp21
 70
     1
102
RTVSPropertyOp22
 70
     1
102
RTVSPropertyOp23
 70
     1
102
RTVSPropertyOp24
 70
     1
102
RTVSPropertyOp25
 70
     1
102
RTVSPropertyOp26
 70
     1
102
RTVSPropertyOp27
 70
     1
102
RTVSPropertyOp28
 70
     1
102
RTVSPropertyOp29
 70
     1
102
RTVSPropertyOp30
 70
     1
102
RTVSPropertyOp31
 70
     1
102
RTVSPropertyOp32
 70
     1
102
RTVSPropertyOp33
 70
     1
102
RTVSPropertyOp34
 70
     1
102
RTVSPropertyOp35
 70
     1
102
RTVSPropertyOp36
 70
     1
102
RTVSPropertyOp37
 70
     1
102
RTVSPropertyOp38
 70
     1
102
RTVSPropertyOp39
 70
     1
102
RTVSPropertyOp40
 70
     1
102
RTVSPropertyOp41
 70
     1
102
RTVSPropertyOp42
 70
     1
102
RTVSPropertyOp43
 70
     1
102
RTVSPropertyOp44
 70
     1
102
RTVSPropertyOp45
 70
     1
102
RTVSPropertyOp46
 70
     1
102
RTVSPropertyOp47
 70
     1
102
RTVSPropertyOp48
 70
     1
102
RTVSPropertyOp49
 70
     1
102
RTVSPropertyOp50
 70
     1
102
RTVSPropertyOp51
 70
     0
102
RTVSPropertyOp52
 70
     0
102
RTVSPropertyOp53
 70
     1
102
RTVSPropertyOp54
 70
     1
102
RTVSPropertyOp55
 70
     1
102
RTVSPropertyOp56
 70
     1
102
RTVSPropertyOp57
 70
     1
102
RTVSPropertyOp58
 70
     1
102
RTVSPropertyOp59
 70
     1
102
RTVSPropertyOp60
 70
     1
102
RTVSPropertyOp61
 70
     1
102
RTVSPropertyOp62
 70
     1
  0
XRECORD
  5
1464
102
{ACAD_REACTORS
330
1463
102
}
330
1463
100
AcDbXrecord
280
     1
102
RTVSPost2010Prop28
280
     0
102
RTVSPost2010PropOp28
 70
     1
102
RTVSPost2010Prop29
280
     1
102
RTVSPost2010PropOp29
 70
     1
102
RTVSPost2010Prop30
280
     1
102
RTVSPost2010PropOp30
 70
     1
102
RTVSPost2010Prop31
280
     0
102
RTVSPost2010PropOp31
 70
     1
102
RTVSPost2010Prop32
280
     0
102
RTVSPost2010PropOp32
 70
     1
102
RTVSPost2010Prop33
280
     0
102
RTVSPost2010PropOp33
 70
     1
102
RTVSPost2010Prop34
280
     0
102
RTVSPost2010PropOp34
 70
     1
102
RTVSPost2010Prop35
280
     0
102
RTVSPost2010PropOp35
 70
     1
102
RTVSPost2010Prop36
280
     0
102
RTVSPost2010PropOp36
 70
     1
102
RTVSPost2010Prop37
 90
       50
102
RTVSPost2010PropOp37
 70
     0
102
RTVSPost2010Prop38
140
0.0
102
RTVSPost2010PropOp38
 70
     0
102
RTVSPost2010Prop39
140
1.0
102
RTVSPost2010PropOp39
 70
     0
102
RTVSPost2010Prop40
 90
        0
102
RTVSPost2010PropOp40
 70
     0
102
RTVSPost2010Prop41ColorIndex
 90
       18
102
RTVSPost2010Prop41ColorRGB
 90
        0
102
RTVSPost2010PropOp41
 70
     0
102
RTVSPost2010Prop42
 90
       50
102
RTVSPost2010PropOp42
 70
     0
102
RTVSPost2010Prop43
 90
        3
102
RTVSPost2010PropOp43
 70
     0
102
RTVSPost2010Prop44ColorIndex
 90
        5
102
RTVSPost2010Prop44ColorRGB
 90
      255
102
RTVSPost2010PropOp44
 70
     0
102
RTVSPost2010Prop45
280
     0
102
RTVSPost2010PropOp45
 70
     1
102
RTVSPost2010Prop46
 90
       50
102
RTVSPost2010PropOp46
 70
     0
102
RTVSPost2010Prop47
 90
       50
102
RTVSPost2010PropOp47
 70
     0
102
RTVSPost2010Prop48
 90
       50
102
RTVSPost2010PropOp48
 70
     0
102
RTVSPost2010Prop49
280
     0
102
RTVSPost2010PropOp49
 70
     1
102
RTVSPost2010Prop50
 90
       50
102
RTVSPost2010PropOp50
 70
     0
102
RTVSPost2010Prop51ColorIndex
 90
      256
102
RTVSPost2010Prop51ColorRGB
 90
-16777216
102
RTVSPost2010PropOp51
 70
     0
102
RTVSPost2010Prop52
140
1.0
102
RTVSPost2010PropOp52
 70
     0
102
RTVSPost2010Prop53
 90
        2
102
RTVSPost2010PropOp53
 70
     0
102
RTVSPost2010Prop54
  1
strokes_ogs.tif
102
RTVSPost2010PropOp54
 70
     0
102
RTVSPost2010Prop55
280
     0
102
RTVSPost2010PropOp55
 70
     1
102
RTVSPost2010Prop56
140
1.0
102
RTVSPost2010PropOp56
 70
     0
102
RTVSPost2010Prop57
140
1.0
102
RTVSPost2010PropOp57
 70
     0
102
RTVSPropertyOp0
 70
     0
102
RTVSPropertyOp1
 70
     0
102
RTVSPropertyOp2
 70
     0
102
RTVSPropertyOp3
 70
     0
102
RTVSPropertyOp4
 70
     0
102
RTVSPropertyOp5
 70
     0
102
RTVSPropertyOp6
 70
     0
102
RTVSPropertyOp7
 70
     0
102
RTVSPropertyOp8
 70
     0
102
RTVSPropertyOp9
 70
     0
102
RTVSPropertyOp10
 70
     0
102
RTVSPropertyOp11
 70
     0
102
RTVSPropertyOp12
 70
     0
102
RTVSPropertyOp13
 70
     0
102
RTVSPropertyOp14
 70
     2
102
RTVSPropertyOp15
 70
     0
102
RTVSPropertyOp16
 70
     0
102
RTVSPropertyOp17
 70
     0
102
RTVSPropertyOp18
 70
     0
102
RTVSPropertyOp19
 70
     0
102
RTVSPropertyOp20
 70
     0
102
RTVSPropertyOp21
 70
     0
102
RTVSPropertyOp22
 70
     0
102
RTVSPropertyOp23
 70
     0
102
RTVSPropertyOp24
 70
     0
102
RTVSPropertyOp25
 70
     0
102
RTVSPropertyOp26
 70
     0
102
RTVSPropertyOp27
 70
     0
102
RTVSPropertyOp28
 70
     1
102
RTVSPropertyOp29
 70
     1
102
RTVSPropertyOp30
 70
     1
102
RTVSPropertyOp31
 70
     1
102
RTVSPropertyOp32
 70
     1
102
RTVSPropertyOp33
 70
     1
102
RTVSPropertyOp34
 70
     1
102
RTVSPropertyOp35
 70
     1
102
RTVSPropertyOp36
 70
     1
102
RTVSPropertyOp37
 70
     0
102
RTVSPropertyOp38
 70
     0
102
RTVSPropertyOp39
 70
     0
102
RTVSPropertyOp40
 70
     0
102
RTVSPropertyOp41
 70
     0
102
RTVSPropertyOp42
 70
     0
102
RTVSPropertyOp43
 70
     0
102
RTVSPropertyOp44
 70
     0
102
RTVSPropertyOp45
 70
     1
102
RTVSPropertyOp46
 70
     0
102
RTVSPropertyOp47
 70
     0
102
RTVSPropertyOp48
 70
     0
102
RTVSPropertyOp49
 70
     1
102
RTVSPropertyOp50
 70
     0
102
RTVSPropertyOp51
 70
     0
102
RTVSPropertyOp52
 70
     0
102
RTVSPropertyOp53
 70
     0
102
RTVSPropertyOp54
 70
     0
102
RTVSPropertyOp55
 70
     1
102
RTVSPropertyOp56
 70
     0
102
RTVSPropertyOp57
 70
     0
102
RTVSPropertyOp58
 70
     1
102
RTVSPropertyOp59
 70
     1
102
RTVSPropertyOp60
 70
     1
102
RTVSPropertyOp61
 70
     1
102
RTVSPropertyOp62
 70
     1
  0
XRECORD
  5
1454
102
{ACAD_REACTORS
330
1453
102
}
330
1453
100
AcDbXrecord
280
     1
102
RTVSPost2010Prop28
280
     0
102
RTVSPost2010PropOp28
 70
     1
102
RTVSPost2010Prop29
280
     1
102
RTVSPost2010PropOp29
 70
     1
102
RTVSPost2010Prop30
280
     1
102
RTVSPost2010PropOp30
 70
     1
102
RTVSPost2010Prop31
280
     0
102
RTVSPost2010PropOp31
 70
     1
102
RTVSPost2010Prop32
280
     0
102
RTVSPost2010PropOp32
 70
     1
102
RTVSPost2010Prop33
280
     0
102
RTVSPost2010PropOp33
 70
     1
102
RTVSPost2010Prop34
280
     0
102
RTVSPost2010PropOp34
 70
     1
102
RTVSPost2010Prop35
280
     0
102
RTVSPost2010PropOp35
 70
     1
102
RTVSPost2010Prop36
280
     0
102
RTVSPost2010PropOp36
 70
     1
102
RTVSPost2010Prop37
 90
       50
102
RTVSPost2010PropOp37
 70
     1
102
RTVSPost2010Prop38
140
0.0
102
RTVSPost2010PropOp38
 70
     1
102
RTVSPost2010Prop39
140
1.0
102
RTVSPost2010PropOp39
 70
     1
102
RTVSPost2010Prop40
 90
        0
102
RTVSPost2010PropOp40
 70
     1
102
RTVSPost2010Prop41ColorIndex
 90
       18
102
RTVSPost2010Prop41ColorRGB
 90
        0
102
RTVSPost2010PropOp41
 70
     1
102
RTVSPost2010Prop42
 90
       50
102
RTVSPost2010PropOp42
 70
     1
102
RTVSPost2010Prop43
 90
        3
102
RTVSPost2010PropOp43
 70
     1
102
RTVSPost2010Prop44ColorIndex
 90
        5
102
RTVSPost2010Prop44ColorRGB
 90
      255
102
RTVSPost2010PropOp44
 70
     1
102
RTVSPost2010Prop45
280
     0
102
RTVSPost2010PropOp45
 70
     1
102
RTVSPost2010Prop46
 90
       50
102
RTVSPost2010PropOp46
 70
     1
102
RTVSPost2010Prop47
 90
       50
102
RTVSPost2010PropOp47
 70
     1
102
RTVSPost2010Prop48
 90
       50
102
RTVSPost2010PropOp48
 70
     1
102
RTVSPost2010Prop49
280
     0
102
RTVSPost2010PropOp49
 70
     1
102
RTVSPost2010Prop50
 90
       50
102
RTVSPost2010PropOp50
 70
     1
102
RTVSPost2010Prop51ColorIndex
 90
      256
102
RTVSPost2010Prop51ColorRGB
 90
-16777216
102
RTVSPost2010PropOp51
 70
     0
102
RTVSPost2010Prop52
140
1.0
102
RTVSPost2010PropOp52
 70
     0
102
RTVSPost2010Prop53
 90
        2
102
RTVSPost2010PropOp53
 70
     1
102
RTVSPost2010Prop54
  1
strokes_ogs.tif
102
RTVSPost2010PropOp54
 70
     1
102
RTVSPost2010Prop55
280
     0
102
RTVSPost2010PropOp55
 70
     1
102
RTVSPost2010Prop56
140
1.0
102
RTVSPost2010PropOp56
 70
     1
102
RTVSPost2010Prop57
140
1.0
102
RTVSPost2010PropOp57
 70
     1
102
RTVSPropertyOp0
 70
     1
102
RTVSPropertyOp1
 70
     1
102
RTVSPropertyOp2
 70
     1
102
RTVSPropertyOp3
 70
     1
102
RTVSPropertyOp4
 70
     1
102
RTVSPropertyOp5
 70
     1
102
RTVSPropertyOp6
 70
     1
102
RTVSPropertyOp7
 70
     1
102
RTVSPropertyOp8
 70
     1
102
RTVSPropertyOp9
 70
     1
102
RTVSPropertyOp10
 70
     1
102
RTVSPropertyOp11
 70
     1
102
RTVSPropertyOp12
 70
     1
102
RTVSPropertyOp13
 70
     1
102
RTVSPropertyOp14
 70
     1
102
RTVSPropertyOp15
 70
     1
102
RTVSPropertyOp16
 70
     1
102
RTVSPropertyOp17
 70
     1
102
RTVSPropertyOp18
 70
     1
102
RTVSPropertyOp19
 70
     1
102
RTVSPropertyOp20
 70
     1
102
RTVSPropertyOp21
 70
     1
102
RTVSPropertyOp22
 70
     1
102
RTVSPropertyOp23
 70
     1
102
RTVSPropertyOp24
 70
     1
102
RTVSPropertyOp25
 70
     1
102
RTVSPropertyOp26
 70
     1
102
RTVSPropertyOp27
 70
     1
102
RTVSPropertyOp28
 70
     1
102
RTVSPropertyOp29
 70
     1
102
RTVSPropertyOp30
 70
     1
102
RTVSPropertyOp31
 70
     1
102
RTVSPropertyOp32
 70
     1
102
RTVSPropertyOp33
 70
     1
102
RTVSPropertyOp34
 70
     1
102
RTVSPropertyOp35
 70
     1
102
RTVSPropertyOp36
 70
     1
102
RTVSPropertyOp37
 70
     1
102
RTVSPropertyOp38
 70
     1
102
RTVSPropertyOp39
 70
     1
102
RTVSPropertyOp40
 70
     1
102
RTVSPropertyOp41
 70
     1
102
RTVSPropertyOp42
 70
     1
102
RTVSPropertyOp43
 70
     1
102
RTVSPropertyOp44
 70
     1
102
RTVSPropertyOp45
 70
     1
102
RTVSPropertyOp46
 70
     1
102
RTVSPropertyOp47
 70
     1
102
RTVSPropertyOp48
 70
     1
102
RTVSPropertyOp49
 70
     1
102
RTVSPropertyOp50
 70
     1
102
RTVSPropertyOp51
 70
     0
102
RTVSPropertyOp52
 70
     0
102
RTVSPropertyOp53
 70
     1
102
RTVSPropertyOp54
 70
     1
102
RTVSPropertyOp55
 70
     1
102
RTVSPropertyOp56
 70
     1
102
RTVSPropertyOp57
 70
     1
102
RTVSPropertyOp58
 70
     1
102
RTVSPropertyOp59
 70
     1
102
RTVSPropertyOp60
 70
     1
102
RTVSPropertyOp61
 70
     1
102
RTVSPropertyOp62
 70
     1
  0
XRECORD
  5
1466
102
{ACAD_REACTORS
330
1465
102
}
330
1465
100
AcDbXrecord
280
     1
102
RTVSPost2010Prop28
280
     0
102
RTVSPost2010PropOp28
 70
     1
102
RTVSPost2010Prop29
280
     1
102
RTVSPost2010PropOp29
 70
     1
102
RTVSPost2010Prop30
280
     1
102
RTVSPost2010PropOp30
 70
     1
102
RTVSPost2010Prop31
280
     0
102
RTVSPost2010PropOp31
 70
     1
102
RTVSPost2010Prop32
280
     0
102
RTVSPost2010PropOp32
 70
     1
102
RTVSPost2010Prop33
280
     0
102
RTVSPost2010PropOp33
 70
     1
102
RTVSPost2010Prop34
280
     0
102
RTVSPost2010PropOp34
 70
     1
102
RTVSPost2010Prop35
280
     0
102
RTVSPost2010PropOp35
 70
     1
102
RTVSPost2010Prop36
280
     0
102
RTVSPost2010PropOp36
 70
     1
102
RTVSPost2010Prop37
 90
       50
102
RTVSPost2010PropOp37
 70
     0
102
RTVSPost2010Prop38
140
0.0
102
RTVSPost2010PropOp38
 70
     0
102
RTVSPost2010Prop39
140
1.0
102
RTVSPost2010PropOp39
 70
     0
102
RTVSPost2010Prop40
 90
        0
102
RTVSPost2010PropOp40
 70
     0
102
RTVSPost2010Prop41ColorIndex
 90
       18
102
RTVSPost2010Prop41ColorRGB
 90
        0
102
RTVSPost2010PropOp41
 70
     0
102
RTVSPost2010Prop42
 90
       50
102
RTVSPost2010PropOp42
 70
     0
102
RTVSPost2010Prop43
 90
        3
102
RTVSPost2010PropOp43
 70
     0
102
RTVSPost2010Prop44ColorIndex
 90
        5
102
RTVSPost2010Prop44ColorRGB
 90
      255
102
RTVSPost2010PropOp44
 70
     0
102
RTVSPost2010Prop45
280
     0
102
RTVSPost2010PropOp45
 70
     1
102
RTVSPost2010Prop46
 90
       50
102
RTVSPost2010PropOp46
 70
     0
102
RTVSPost2010Prop47
 90
       50
102
RTVSPost2010PropOp47
 70
     0
102
RTVSPost2010Prop48
 90
       50
102
RTVSPost2010PropOp48
 70
     0
102
RTVSPost2010Prop49
280
     0
102
RTVSPost2010PropOp49
 70
     1
102
RTVSPost2010Prop50
 90
       50
102
RTVSPost2010PropOp50
 70
     0
102
RTVSPost2010Prop51ColorIndex
 90
      256
102
RTVSPost2010Prop51ColorRGB
 90
-16777216
102
RTVSPost2010PropOp51
 70
     0
102
RTVSPost2010Prop52
140
1.0
102
RTVSPost2010PropOp52
 70
     0
102
RTVSPost2010Prop53
 90
        2
102
RTVSPost2010PropOp53
 70
     0
102
RTVSPost2010Prop54
  1
strokes_ogs.tif
102
RTVSPost2010PropOp54
 70
     0
102
RTVSPost2010Prop55
280
     0
102
RTVSPost2010PropOp55
 70
     1
102
RTVSPost2010Prop56
140
1.0
102
RTVSPost2010PropOp56
 70
     0
102
RTVSPost2010Prop57
140
1.0
102
RTVSPost2010PropOp57
 70
     0
102
RTVSPropertyOp0
 70
     0
102
RTVSPropertyOp1
 70
     0
102
RTVSPropertyOp2
 70
     0
102
RTVSPropertyOp3
 70
     0
102
RTVSPropertyOp4
 70
     0
102
RTVSPropertyOp5
 70
     0
102
RTVSPropertyOp6
 70
     0
102
RTVSPropertyOp7
 70
     0
102
RTVSPropertyOp8
 70
     0
102
RTVSPropertyOp9
 70
     0
102
RTVSPropertyOp10
 70
     0
102
RTVSPropertyOp11
 70
     0
102
RTVSPropertyOp12
 70
     0
102
RTVSPropertyOp13
 70
     0
102
RTVSPropertyOp14
 70
     2
102
RTVSPropertyOp15
 70
     0
102
RTVSPropertyOp16
 70
     0
102
RTVSPropertyOp17
 70
     0
102
RTVSPropertyOp18
 70
     0
102
RTVSPropertyOp19
 70
     0
102
RTVSPropertyOp20
 70
     0
102
RTVSPropertyOp21
 70
     0
102
RTVSPropertyOp22
 70
     0
102
RTVSPropertyOp23
 70
     0
102
RTVSPropertyOp24
 70
     0
102
RTVSPropertyOp25
 70
     0
102
RTVSPropertyOp26
 70
     0
102
RTVSPropertyOp27
 70
     0
102
RTVSPropertyOp28
 70
     1
102
RTVSPropertyOp29
 70
     1
102
RTVSPropertyOp30
 70
     1
102
RTVSPropertyOp31
 70
     1
102
RTVSPropertyOp32
 70
     1
102
RTVSPropertyOp33
 70
     1
102
RTVSPropertyOp34
 70
     1
102
RTVSPropertyOp35
 70
     1
102
RTVSPropertyOp36
 70
     1
102
RTVSPropertyOp37
 70
     0
102
RTVSPropertyOp38
 70
     0
102
RTVSPropertyOp39
 70
     0
102
RTVSPropertyOp40
 70
     0
102
RTVSPropertyOp41
 70
     0
102
RTVSPropertyOp42
 70
     0
102
RTVSPropertyOp43
 70
     0
102
RTVSPropertyOp44
 70
     0
102
RTVSPropertyOp45
 70
     1
102
RTVSPropertyOp46
 70
     0
102
RTVSPropertyOp47
 70
     0
102
RTVSPropertyOp48
 70
     0
102
RTVSPropertyOp49
 70
     1
102
RTVSPropertyOp50
 70
     0
102
RTVSPropertyOp51
 70
     0
102
RTVSPropertyOp52
 70
     0
102
RTVSPropertyOp53
 70
     0
102
RTVSPropertyOp54
 70
     0
102
RTVSPropertyOp55
 70
     1
102
RTVSPropertyOp56
 70
     0
102
RTVSPropertyOp57
 70
     0
102
RTVSPropertyOp58
 70
     1
102
RTVSPropertyOp59
 70
     1
102
RTVSPropertyOp60
 70
     1
102
RTVSPropertyOp61
 70
     1
102
RTVSPropertyOp62
 70
     1
  0
XRECORD
  5
144C
102
{ACAD_REACTORS
330
144B
102
}
330
144B
100
AcDbXrecord
280
     1
102
RTVSPost2010Prop28
280
     0
102
RTVSPost2010PropOp28
 70
     1
102
RTVSPost2010Prop29
280
     1
102
RTVSPost2010PropOp29
 70
     1
102
RTVSPost2010Prop30
280
     1
102
RTVSPost2010PropOp30
 70
     1
102
RTVSPost2010Prop31
280
     0
102
RTVSPost2010PropOp31
 70
     1
102
RTVSPost2010Prop32
280
     0
102
RTVSPost2010PropOp32
 70
     1
102
RTVSPost2010Prop33
280
     0
102
RTVSPost2010PropOp33
 70
     1
102
RTVSPost2010Prop34
280
     0
102
RTVSPost2010PropOp34
 70
     1
102
RTVSPost2010Prop35
280
     0
102
RTVSPost2010PropOp35
 70
     1
102
RTVSPost2010Prop36
280
     0
102
RTVSPost2010PropOp36
 70
     1
102
RTVSPost2010Prop37
 90
       50
102
RTVSPost2010PropOp37
 70
     1
102
RTVSPost2010Prop38
140
0.0
102
RTVSPost2010PropOp38
 70
     1
102
RTVSPost2010Prop39
140
1.0
102
RTVSPost2010PropOp39
 70
     1
102
RTVSPost2010Prop40
 90
        0
102
RTVSPost2010PropOp40
 70
     1
102
RTVSPost2010Prop41ColorIndex
 90
       18
102
RTVSPost2010Prop41ColorRGB
 90
        0
102
RTVSPost2010PropOp41
 70
     1
102
RTVSPost2010Prop42
 90
       50
102
RTVSPost2010PropOp42
 70
     1
102
RTVSPost2010Prop43
 90
        3
102
RTVSPost2010PropOp43
 70
     1
102
RTVSPost2010Prop44ColorIndex
 90
        5
102
RTVSPost2010Prop44ColorRGB
 90
      255
102
RTVSPost2010PropOp44
 70
     1
102
RTVSPost2010Prop45
280
     0
102
RTVSPost2010PropOp45
 70
     1
102
RTVSPost2010Prop46
 90
       50
102
RTVSPost2010PropOp46
 70
     1
102
RTVSPost2010Prop47
 90
       50
102
RTVSPost2010PropOp47
 70
     1
102
RTVSPost2010Prop48
 90
       50
102
RTVSPost2010PropOp48
 70
     1
102
RTVSPost2010Prop49
280
     0
102
RTVSPost2010PropOp49
 70
     1
102
RTVSPost2010Prop50
 90
       50
102
RTVSPost2010PropOp50
 70
     1
102
RTVSPost2010Prop51ColorIndex
 90
      256
102
RTVSPost2010Prop51ColorRGB
 90
-16777216
102
RTVSPost2010PropOp51
 70
     0
102
RTVSPost2010Prop52
140
1.0
102
RTVSPost2010PropOp52
 70
     0
102
RTVSPost2010Prop53
 90
        2
102
RTVSPost2010PropOp53
 70
     1
102
RTVSPost2010Prop54
  1
strokes_ogs.tif
102
RTVSPost2010PropOp54
 70
     1
102
RTVSPost2010Prop55
280
     0
102
RTVSPost2010PropOp55
 70
     1
102
RTVSPost2010Prop56
140
1.0
102
RTVSPost2010PropOp56
 70
     1
102
RTVSPost2010Prop57
140
1.0
102
RTVSPost2010PropOp57
 70
     1
102
RTVSPropertyOp0
 70
     1
102
RTVSPropertyOp1
 70
     1
102
RTVSPropertyOp2
 70
     1
102
RTVSPropertyOp3
 70
     1
102
RTVSPropertyOp4
 70
     1
102
RTVSPropertyOp5
 70
     1
102
RTVSPropertyOp6
 70
     1
102
RTVSPropertyOp7
 70
     1
102
RTVSPropertyOp8
 70
     1
102
RTVSPropertyOp9
 70
     1
102
RTVSPropertyOp10
 70
     1
102
RTVSPropertyOp11
 70
     1
102
RTVSPropertyOp12
 70
     1
102
RTVSPropertyOp13
 70
     1
102
RTVSPropertyOp14
 70
     1
102
RTVSPropertyOp15
 70
     1
102
RTVSPropertyOp16
 70
     1
102
RTVSPropertyOp17
 70
     1
102
RTVSPropertyOp18
 70
     1
102
RTVSPropertyOp19
 70
     1
102
RTVSPropertyOp20
 70
     1
102
RTVSPropertyOp21
 70
     1
102
RTVSPropertyOp22
 70
     1
102
RTVSPropertyOp23
 70
     1
102
RTVSPropertyOp24
 70
     1
102
RTVSPropertyOp25
 70
     1
102
RTVSPropertyOp26
 70
     1
102
RTVSPropertyOp27
 70
     1
102
RTVSPropertyOp28
 70
     1
102
RTVSPropertyOp29
 70
     1
102
RTVSPropertyOp30
 70
     1
102
RTVSPropertyOp31
 70
     1
102
RTVSPropertyOp32
 70
     1
102
RTVSPropertyOp33
 70
     1
102
RTVSPropertyOp34
 70
     1
102
RTVSPropertyOp35
 70
     1
102
RTVSPropertyOp36
 70
     1
102
RTVSPropertyOp37
 70
     1
102
RTVSPropertyOp38
 70
     1
102
RTVSPropertyOp39
 70
     1
102
RTVSPropertyOp40
 70
     1
102
RTVSPropertyOp41
 70
     1
102
RTVSPropertyOp42
 70
     1
102
RTVSPropertyOp43
 70
     1
102
RTVSPropertyOp44
 70
     1
102
RTVSPropertyOp45
 70
     1
102
RTVSPropertyOp46
 70
     1
102
RTVSPropertyOp47
 70
     1
102
RTVSPropertyOp48
 70
     1
102
RTVSPropertyOp49
 70
     1
102
RTVSPropertyOp50
 70
     1
102
RTVSPropertyOp51
 70
     0
102
RTVSPropertyOp52
 70
     0
102
RTVSPropertyOp53
 70
     1
102
RTVSPropertyOp54
 70
     1
102
RTVSPropertyOp55
 70
     1
102
RTVSPropertyOp56
 70
     1
102
RTVSPropertyOp57
 70
     1
102
RTVSPropertyOp58
 70
     1
102
RTVSPropertyOp59
 70
     1
102
RTVSPropertyOp60
 70
     1
102
RTVSPropertyOp61
 70
     1
102
RTVSPropertyOp62
 70
     1
  0
XRECORD
  5
1462
102
{ACAD_REACTORS
330
1461
102
}
330
1461
100
AcDbXrecord
280
     1
102
RTVSPost2010Prop28
280
     0
102
RTVSPost2010PropOp28
 70
     1
102
RTVSPost2010Prop29
280
     1
102
RTVSPost2010PropOp29
 70
     1
102
RTVSPost2010Prop30
280
     1
102
RTVSPost2010PropOp30
 70
     1
102
RTVSPost2010Prop31
280
     0
102
RTVSPost2010PropOp31
 70
     1
102
RTVSPost2010Prop32
280
     0
102
RTVSPost2010PropOp32
 70
     1
102
RTVSPost2010Prop33
280
     0
102
RTVSPost2010PropOp33
 70
     1
102
RTVSPost2010Prop34
280
     0
102
RTVSPost2010PropOp34
 70
     1
102
RTVSPost2010Prop35
280
     0
102
RTVSPost2010PropOp35
 70
     1
102
RTVSPost2010Prop36
280
     0
102
RTVSPost2010PropOp36
 70
     1
102
RTVSPost2010Prop37
 90
       50
102
RTVSPost2010PropOp37
 70
     1
102
RTVSPost2010Prop38
140
0.0
102
RTVSPost2010PropOp38
 70
     1
102
RTVSPost2010Prop39
140
1.0
102
RTVSPost2010PropOp39
 70
     1
102
RTVSPost2010Prop40
 90
        0
102
RTVSPost2010PropOp40
 70
     1
102
RTVSPost2010Prop41ColorIndex
 90
       18
102
RTVSPost2010Prop41ColorRGB
 90
        0
102
RTVSPost2010PropOp41
 70
     1
102
RTVSPost2010Prop42
 90
       50
102
RTVSPost2010PropOp42
 70
     1
102
RTVSPost2010Prop43
 90
        3
102
RTVSPost2010PropOp43
 70
     1
102
RTVSPost2010Prop44ColorIndex
 90
        5
102
RTVSPost2010Prop44ColorRGB
 90
      255
102
RTVSPost2010PropOp44
 70
     1
102
RTVSPost2010Prop45
280
     0
102
RTVSPost2010PropOp45
 70
     1
102
RTVSPost2010Prop46
 90
       50
102
RTVSPost2010PropOp46
 70
     1
102
RTVSPost2010Prop47
 90
       50
102
RTVSPost2010PropOp47
 70
     1
102
RTVSPost2010Prop48
 90
       50
102
RTVSPost2010PropOp48
 70
     1
102
RTVSPost2010Prop49
280
     0
102
RTVSPost2010PropOp49
 70
     1
102
RTVSPost2010Prop50
 90
       50
102
RTVSPost2010PropOp50
 70
     1
102
RTVSPost2010Prop51ColorIndex
 90
      256
102
RTVSPost2010Prop51ColorRGB
 90
-16777216
102
RTVSPost2010PropOp51
 70
     0
102
RTVSPost2010Prop52
140
1.0
102
RTVSPost2010PropOp52
 70
     0
102
RTVSPost2010Prop53
 90
        2
102
RTVSPost2010PropOp53
 70
     1
102
RTVSPost2010Prop54
  1
strokes_ogs.tif
102
RTVSPost2010PropOp54
 70
     1
102
RTVSPost2010Prop55
280
     0
102
RTVSPost2010PropOp55
 70
     1
102
RTVSPost2010Prop56
140
1.0
102
RTVSPost2010PropOp56
 70
     1
102
RTVSPost2010Prop57
140
1.0
102
RTVSPost2010PropOp57
 70
     1
102
RTVSPropertyOp0
 70
     1
102
RTVSPropertyOp1
 70
     1
102
RTVSPropertyOp2
 70
     1
102
RTVSPropertyOp3
 70
     1
102
RTVSPropertyOp4
 70
     1
102
RTVSPropertyOp5
 70
     1
102
RTVSPropertyOp6
 70
     1
102
RTVSPropertyOp7
 70
     1
102
RTVSPropertyOp8
 70
     1
102
RTVSPropertyOp9
 70
     1
102
RTVSPropertyOp10
 70
     1
102
RTVSPropertyOp11
 70
     1
102
RTVSPropertyOp12
 70
     1
102
RTVSPropertyOp13
 70
     1
102
RTVSPropertyOp14
 70
     1
102
RTVSPropertyOp15
 70
     1
102
RTVSPropertyOp16
 70
     1
102
RTVSPropertyOp17
 70
     1
102
RTVSPropertyOp18
 70
     1
102
RTVSPropertyOp19
 70
     1
102
RTVSPropertyOp20
 70
     1
102
RTVSPropertyOp21
 70
     1
102
RTVSPropertyOp22
 70
     1
102
RTVSPropertyOp23
 70
     1
102
RTVSPropertyOp24
 70
     1
102
RTVSPropertyOp25
 70
     1
102
RTVSPropertyOp26
 70
     1
102
RTVSPropertyOp27
 70
     1
102
RTVSPropertyOp28
 70
     1
102
RTVSPropertyOp29
 70
     1
102
RTVSPropertyOp30
 70
     1
102
RTVSPropertyOp31
 70
     1
102
RTVSPropertyOp32
 70
     1
102
RTVSPropertyOp33
 70
     1
102
RTVSPropertyOp34
 70
     1
102
RTVSPropertyOp35
 70
     1
102
RTVSPropertyOp36
 70
     1
102
RTVSPropertyOp37
 70
     1
102
RTVSPropertyOp38
 70
     1
102
RTVSPropertyOp39
 70
     1
102
RTVSPropertyOp40
 70
     1
102
RTVSPropertyOp41
 70
     1
102
RTVSPropertyOp42
 70
     1
102
RTVSPropertyOp43
 70
     1
102
RTVSPropertyOp44
 70
     1
102
RTVSPropertyOp45
 70
     1
102
RTVSPropertyOp46
 70
     1
102
RTVSPropertyOp47
 70
     1
102
RTVSPropertyOp48
 70
     1
102
RTVSPropertyOp49
 70
     1
102
RTVSPropertyOp50
 70
     1
102
RTVSPropertyOp51
 70
     0
102
RTVSPropertyOp52
 70
     0
102
RTVSPropertyOp53
 70
     1
102
RTVSPropertyOp54
 70
     1
102
RTVSPropertyOp55
 70
     1
102
RTVSPropertyOp56
 70
     1
102
RTVSPropertyOp57
 70
     1
102
RTVSPropertyOp58
 70
     1
102
RTVSPropertyOp59
 70
     1
102
RTVSPropertyOp60
 70
     1
102
RTVSPropertyOp61
 70
     1
102
RTVSPropertyOp62
 70
     1
  0
XRECORD
  5
1460
102
{ACAD_REACTORS
330
145F
102
}
330
145F
100
AcDbXrecord
280
     1
102
RTVSPost2010Prop28
280
     0
102
RTVSPost2010PropOp28
 70
     1
102
RTVSPost2010Prop29
280
     1
102
RTVSPost2010PropOp29
 70
     1
102
RTVSPost2010Prop30
280
     1
102
RTVSPost2010PropOp30
 70
     1
102
RTVSPost2010Prop31
280
     0
102
RTVSPost2010PropOp31
 70
     1
102
RTVSPost2010Prop32
280
     0
102
RTVSPost2010PropOp32
 70
     1
102
RTVSPost2010Prop33
280
     0
102
RTVSPost2010PropOp33
 70
     1
102
RTVSPost2010Prop34
280
     0
102
RTVSPost2010PropOp34
 70
     1
102
RTVSPost2010Prop35
280
     0
102
RTVSPost2010PropOp35
 70
     1
102
RTVSPost2010Prop36
280
     0
102
RTVSPost2010PropOp36
 70
     1
102
RTVSPost2010Prop37
 90
       50
102
RTVSPost2010PropOp37
 70
     1
102
RTVSPost2010Prop38
140
0.0
102
RTVSPost2010PropOp38
 70
     1
102
RTVSPost2010Prop39
140
1.0
102
RTVSPost2010PropOp39
 70
     1
102
RTVSPost2010Prop40
 90
        0
102
RTVSPost2010PropOp40
 70
     1
102
RTVSPost2010Prop41ColorIndex
 90
       18
102
RTVSPost2010Prop41ColorRGB
 90
        0
102
RTVSPost2010PropOp41
 70
     1
102
RTVSPost2010Prop42
 90
       50
102
RTVSPost2010PropOp42
 70
     1
102
RTVSPost2010Prop43
 90
        3
102
RTVSPost2010PropOp43
 70
     1
102
RTVSPost2010Prop44ColorIndex
 90
        5
102
RTVSPost2010Prop44ColorRGB
 90
      255
102
RTVSPost2010PropOp44
 70
     1
102
RTVSPost2010Prop45
280
     0
102
RTVSPost2010PropOp45
 70
     1
102
RTVSPost2010Prop46
 90
       50
102
RTVSPost2010PropOp46
 70
     1
102
RTVSPost2010Prop47
 90
       50
102
RTVSPost2010PropOp47
 70
     1
102
RTVSPost2010Prop48
 90
       50
102
RTVSPost2010PropOp48
 70
     1
102
RTVSPost2010Prop49
280
     0
102
RTVSPost2010PropOp49
 70
     1
102
RTVSPost2010Prop50
 90
       50
102
RTVSPost2010PropOp50
 70
     1
102
RTVSPost2010Prop51ColorIndex
 90
      256
102
RTVSPost2010Prop51ColorRGB
 90
-16777216
102
RTVSPost2010PropOp51
 70
     0
102
RTVSPost2010Prop52
140
1.0
102
RTVSPost2010PropOp52
 70
     0
102
RTVSPost2010Prop53
 90
        2
102
RTVSPost2010PropOp53
 70
     1
102
RTVSPost2010Prop54
  1
strokes_ogs.tif
102
RTVSPost2010PropOp54
 70
     1
102
RTVSPost2010Prop55
280
     0
102
RTVSPost2010PropOp55
 70
     1
102
RTVSPost2010Prop56
140
1.0
102
RTVSPost2010PropOp56
 70
     1
102
RTVSPost2010Prop57
140
1.0
102
RTVSPost2010PropOp57
 70
     1
102
RTVSPropertyOp0
 70
     1
102
RTVSPropertyOp1
 70
     1
102
RTVSPropertyOp2
 70
     1
102
RTVSPropertyOp3
 70
     1
102
RTVSPropertyOp4
 70
     1
102
RTVSPropertyOp5
 70
     1
102
RTVSPropertyOp6
 70
     1
102
RTVSPropertyOp7
 70
     1
102
RTVSPropertyOp8
 70
     1
102
RTVSPropertyOp9
 70
     1
102
RTVSPropertyOp10
 70
     1
102
RTVSPropertyOp11
 70
     1
102
RTVSPropertyOp12
 70
     1
102
RTVSPropertyOp13
 70
     1
102
RTVSPropertyOp14
 70
     1
102
RTVSPropertyOp15
 70
     1
102
RTVSPropertyOp16
 70
     1
102
RTVSPropertyOp17
 70
     1
102
RTVSPropertyOp18
 70
     1
102
RTVSPropertyOp19
 70
     1
102
RTVSPropertyOp20
 70
     1
102
RTVSPropertyOp21
 70
     1
102
RTVSPropertyOp22
 70
     1
102
RTVSPropertyOp23
 70
     1
102
RTVSPropertyOp24
 70
     1
102
RTVSPropertyOp25
 70
     1
102
RTVSPropertyOp26
 70
     1
102
RTVSPropertyOp27
 70
     1
102
RTVSPropertyOp28
 70
     1
102
RTVSPropertyOp29
 70
     1
102
RTVSPropertyOp30
 70
     1
102
RTVSPropertyOp31
 70
     1
102
RTVSPropertyOp32
 70
     1
102
RTVSPropertyOp33
 70
     1
102
RTVSPropertyOp34
 70
     1
102
RTVSPropertyOp35
 70
     1
102
RTVSPropertyOp36
 70
     1
102
RTVSPropertyOp37
 70
     1
102
RTVSPropertyOp38
 70
     1
102
RTVSPropertyOp39
 70
     1
102
RTVSPropertyOp40
 70
     1
102
RTVSPropertyOp41
 70
     1
102
RTVSPropertyOp42
 70
     1
102
RTVSPropertyOp43
 70
     1
102
RTVSPropertyOp44
 70
     1
102
RTVSPropertyOp45
 70
     1
102
RTVSPropertyOp46
 70
     1
102
RTVSPropertyOp47
 70
     1
102
RTVSPropertyOp48
 70
     1
102
RTVSPropertyOp49
 70
     1
102
RTVSPropertyOp50
 70
     1
102
RTVSPropertyOp51
 70
     0
102
RTVSPropertyOp52
 70
     0
102
RTVSPropertyOp53
 70
     1
102
RTVSPropertyOp54
 70
     1
102
RTVSPropertyOp55
 70
     1
102
RTVSPropertyOp56
 70
     1
102
RTVSPropertyOp57
 70
     1
102
RTVSPropertyOp58
 70
     1
102
RTVSPropertyOp59
 70
     1
102
RTVSPropertyOp60
 70
     1
102
RTVSPropertyOp61
 70
     1
102
RTVSPropertyOp62
 70
     1
  0
XRECORD
  5
145A
102
{ACAD_REACTORS
330
1459
102
}
330
1459
100
AcDbXrecord
280
     1
102
RTVSPost2010Prop28
280
     0
102
RTVSPost2010PropOp28
 70
     1
102
RTVSPost2010Prop29
280
     1
102
RTVSPost2010PropOp29
 70
     1
102
RTVSPost2010Prop30
280
     1
102
RTVSPost2010PropOp30
 70
     1
102
RTVSPost2010Prop31
280
     0
102
RTVSPost2010PropOp31
 70
     1
102
RTVSPost2010Prop32
280
     0
102
RTVSPost2010PropOp32
 70
     1
102
RTVSPost2010Prop33
280
     0
102
RTVSPost2010PropOp33
 70
     1
102
RTVSPost2010Prop34
280
     0
102
RTVSPost2010PropOp34
 70
     1
102
RTVSPost2010Prop35
280
     0
102
RTVSPost2010PropOp35
 70
     1
102
RTVSPost2010Prop36
280
     0
102
RTVSPost2010PropOp36
 70
     1
102
RTVSPost2010Prop37
 90
       50
102
RTVSPost2010PropOp37
 70
     1
102
RTVSPost2010Prop38
140
0.0
102
RTVSPost2010PropOp38
 70
     1
102
RTVSPost2010Prop39
140
1.0
102
RTVSPost2010PropOp39
 70
     1
102
RTVSPost2010Prop40
 90
        0
102
RTVSPost2010PropOp40
 70
     1
102
RTVSPost2010Prop41ColorIndex
 90
       18
102
RTVSPost2010Prop41ColorRGB
 90
        0
102
RTVSPost2010PropOp41
 70
     1
102
RTVSPost2010Prop42
 90
       50
102
RTVSPost2010PropOp42
 70
     1
102
RTVSPost2010Prop43
 90
        3
102
RTVSPost2010PropOp43
 70
     1
102
RTVSPost2010Prop44ColorIndex
 90
        5
102
RTVSPost2010Prop44ColorRGB
 90
      255
102
RTVSPost2010PropOp44
 70
     1
102
RTVSPost2010Prop45
280
     0
102
RTVSPost2010PropOp45
 70
     1
102
RTVSPost2010Prop46
 90
       50
102
RTVSPost2010PropOp46
 70
     1
102
RTVSPost2010Prop47
 90
       50
102
RTVSPost2010PropOp47
 70
     1
102
RTVSPost2010Prop48
 90
       50
102
RTVSPost2010PropOp48
 70
     1
102
RTVSPost2010Prop49
280
     0
102
RTVSPost2010PropOp49
 70
     1
102
RTVSPost2010Prop50
 90
       50
102
RTVSPost2010PropOp50
 70
     1
102
RTVSPost2010Prop51ColorIndex
 90
      256
102
RTVSPost2010Prop51ColorRGB
 90
-16777216
102
RTVSPost2010PropOp51
 70
     0
102
RTVSPost2010Prop52
140
1.0
102
RTVSPost2010PropOp52
 70
     0
102
RTVSPost2010Prop53
 90
        2
102
RTVSPost2010PropOp53
 70
     1
102
RTVSPost2010Prop54
  1
strokes_ogs.tif
102
RTVSPost2010PropOp54
 70
     1
102
RTVSPost2010Prop55
280
     0
102
RTVSPost2010PropOp55
 70
     1
102
RTVSPost2010Prop56
140
1.0
102
RTVSPost2010PropOp56
 70
     1
102
RTVSPost2010Prop57
140
1.0
102
RTVSPost2010PropOp57
 70
     1
102
RTVSPropertyOp0
 70
     1
102
RTVSPropertyOp1
 70
     1
102
RTVSPropertyOp2
 70
     1
102
RTVSPropertyOp3
 70
     1
102
RTVSPropertyOp4
 70
     1
102
RTVSPropertyOp5
 70
     1
102
RTVSPropertyOp6
 70
     1
102
RTVSPropertyOp7
 70
     1
102
RTVSPropertyOp8
 70
     1
102
RTVSPropertyOp9
 70
     1
102
RTVSPropertyOp10
 70
     1
102
RTVSPropertyOp11
 70
     1
102
RTVSPropertyOp12
 70
     1
102
RTVSPropertyOp13
 70
     1
102
RTVSPropertyOp14
 70
     1
102
RTVSPropertyOp15
 70
     1
102
RTVSPropertyOp16
 70
     1
102
RTVSPropertyOp17
 70
     1
102
RTVSPropertyOp18
 70
     1
102
RTVSPropertyOp19
 70
     1
102
RTVSPropertyOp20
 70
     1
102
RTVSPropertyOp21
 70
     1
102
RTVSPropertyOp22
 70
     1
102
RTVSPropertyOp23
 70
     1
102
RTVSPropertyOp24
 70
     1
102
RTVSPropertyOp25
 70
     1
102
RTVSPropertyOp26
 70
     1
102
RTVSPropertyOp27
 70
     1
102
RTVSPropertyOp28
 70
     1
102
RTVSPropertyOp29
 70
     1
102
RTVSPropertyOp30
 70
     1
102
RTVSPropertyOp31
 70
     1
102
RTVSPropertyOp32
 70
     1
102
RTVSPropertyOp33
 70
     1
102
RTVSPropertyOp34
 70
     1
102
RTVSPropertyOp35
 70
     1
102
RTVSPropertyOp36
 70
     1
102
RTVSPropertyOp37
 70
     1
102
RTVSPropertyOp38
 70
     1
102
RTVSPropertyOp39
 70
     1
102
RTVSPropertyOp40
 70
     1
102
RTVSPropertyOp41
 70
     1
102
RTVSPropertyOp42
 70
     1
102
RTVSPropertyOp43
 70
     1
102
RTVSPropertyOp44
 70
     1
102
RTVSPropertyOp45
 70
     1
102
RTVSPropertyOp46
 70
     1
102
RTVSPropertyOp47
 70
     1
102
RTVSPropertyOp48
 70
     1
102
RTVSPropertyOp49
 70
     1
102
RTVSPropertyOp50
 70
     1
102
RTVSPropertyOp51
 70
     0
102
RTVSPropertyOp52
 70
     0
102
RTVSPropertyOp53
 70
     1
102
RTVSPropertyOp54
 70
     1
102
RTVSPropertyOp55
 70
     1
102
RTVSPropertyOp56
 70
     1
102
RTVSPropertyOp57
 70
     1
102
RTVSPropertyOp58
 70
     1
102
RTVSPropertyOp59
 70
     1
102
RTVSPropertyOp60
 70
     1
102
RTVSPropertyOp61
 70
     1
102
RTVSPropertyOp62
 70
     1
  0
XRECORD
  5
145C
102
{ACAD_REACTORS
330
145B
102
}
330
145B
100
AcDbXrecord
280
     1
102
RTVSPost2010Prop28
280
     0
102
RTVSPost2010PropOp28
 70
     1
102
RTVSPost2010Prop29
280
     1
102
RTVSPost2010PropOp29
 70
     1
102
RTVSPost2010Prop30
280
     1
102
RTVSPost2010PropOp30
 70
     1
102
RTVSPost2010Prop31
280
     0
102
RTVSPost2010PropOp31
 70
     1
102
RTVSPost2010Prop32
280
     0
102
RTVSPost2010PropOp32
 70
     1
102
RTVSPost2010Prop33
280
     0
102
RTVSPost2010PropOp33
 70
     1
102
RTVSPost2010Prop34
280
     0
102
RTVSPost2010PropOp34
 70
     1
102
RTVSPost2010Prop35
280
     0
102
RTVSPost2010PropOp35
 70
     1
102
RTVSPost2010Prop36
280
     0
102
RTVSPost2010PropOp36
 70
     1
102
RTVSPost2010Prop37
 90
       50
102
RTVSPost2010PropOp37
 70
     1
102
RTVSPost2010Prop38
140
0.0
102
RTVSPost2010PropOp38
 70
     1
102
RTVSPost2010Prop39
140
1.0
102
RTVSPost2010PropOp39
 70
     1
102
RTVSPost2010Prop40
 90
        0
102
RTVSPost2010PropOp40
 70
     1
102
RTVSPost2010Prop41ColorIndex
 90
       18
102
RTVSPost2010Prop41ColorRGB
 90
        0
102
RTVSPost2010PropOp41
 70
     1
102
RTVSPost2010Prop42
 90
       50
102
RTVSPost2010PropOp42
 70
     1
102
RTVSPost2010Prop43
 90
        3
102
RTVSPost2010PropOp43
 70
     1
102
RTVSPost2010Prop44ColorIndex
 90
        5
102
RTVSPost2010Prop44ColorRGB
 90
      255
102
RTVSPost2010PropOp44
 70
     1
102
RTVSPost2010Prop45
280
     0
102
RTVSPost2010PropOp45
 70
     1
102
RTVSPost2010Prop46
 90
       50
102
RTVSPost2010PropOp46
 70
     1
102
RTVSPost2010Prop47
 90
       50
102
RTVSPost2010PropOp47
 70
     1
102
RTVSPost2010Prop48
 90
       50
102
RTVSPost2010PropOp48
 70
     1
102
RTVSPost2010Prop49
280
     0
102
RTVSPost2010PropOp49
 70
     1
102
RTVSPost2010Prop50
 90
       50
102
RTVSPost2010PropOp50
 70
     1
102
RTVSPost2010Prop51ColorIndex
 90
      256
102
RTVSPost2010Prop51ColorRGB
 90
-16777216
102
RTVSPost2010PropOp51
 70
     0
102
RTVSPost2010Prop52
140
1.0
102
RTVSPost2010PropOp52
 70
     0
102
RTVSPost2010Prop53
 90
        2
102
RTVSPost2010PropOp53
 70
     1
102
RTVSPost2010Prop54
  1
strokes_ogs.tif
102
RTVSPost2010PropOp54
 70
     1
102
RTVSPost2010Prop55
280
     0
102
RTVSPost2010PropOp55
 70
     1
102
RTVSPost2010Prop56
140
1.0
102
RTVSPost2010PropOp56
 70
     1
102
RTVSPost2010Prop57
140
1.0
102
RTVSPost2010PropOp57
 70
     1
102
RTVSPropertyOp0
 70
     1
102
RTVSPropertyOp1
 70
     1
102
RTVSPropertyOp2
 70
     1
102
RTVSPropertyOp3
 70
     1
102
RTVSPropertyOp4
 70
     1
102
RTVSPropertyOp5
 70
     1
102
RTVSPropertyOp6
 70
     1
102
RTVSPropertyOp7
 70
     1
102
RTVSPropertyOp8
 70
     1
102
RTVSPropertyOp9
 70
     1
102
RTVSPropertyOp10
 70
     1
102
RTVSPropertyOp11
 70
     1
102
RTVSPropertyOp12
 70
     1
102
RTVSPropertyOp13
 70
     1
102
RTVSPropertyOp14
 70
     1
102
RTVSPropertyOp15
 70
     1
102
RTVSPropertyOp16
 70
     1
102
RTVSPropertyOp17
 70
     1
102
RTVSPropertyOp18
 70
     1
102
RTVSPropertyOp19
 70
     1
102
RTVSPropertyOp20
 70
     1
102
RTVSPropertyOp21
 70
     1
102
RTVSPropertyOp22
 70
     1
102
RTVSPropertyOp23
 70
     1
102
RTVSPropertyOp24
 70
     1
102
RTVSPropertyOp25
 70
     1
102
RTVSPropertyOp26
 70
     1
102
RTVSPropertyOp27
 70
     1
102
RTVSPropertyOp28
 70
     1
102
RTVSPropertyOp29
 70
     1
102
RTVSPropertyOp30
 70
     1
102
RTVSPropertyOp31
 70
     1
102
RTVSPropertyOp32
 70
     1
102
RTVSPropertyOp33
 70
     1
102
RTVSPropertyOp34
 70
     1
102
RTVSPropertyOp35
 70
     1
102
RTVSPropertyOp36
 70
     1
102
RTVSPropertyOp37
 70
     1
102
RTVSPropertyOp38
 70
     1
102
RTVSPropertyOp39
 70
     1
102
RTVSPropertyOp40
 70
     1
102
RTVSPropertyOp41
 70
     1
102
RTVSPropertyOp42
 70
     1
102
RTVSPropertyOp43
 70
     1
102
RTVSPropertyOp44
 70
     1
102
RTVSPropertyOp45
 70
     1
102
RTVSPropertyOp46
 70
     1
102
RTVSPropertyOp47
 70
     1
102
RTVSPropertyOp48
 70
     1
102
RTVSPropertyOp49
 70
     1
102
RTVSPropertyOp50
 70
     1
102
RTVSPropertyOp51
 70
     0
102
RTVSPropertyOp52
 70
     0
102
RTVSPropertyOp53
 70
     1
102
RTVSPropertyOp54
 70
     1
102
RTVSPropertyOp55
 70
     1
102
RTVSPropertyOp56
 70
     1
102
RTVSPropertyOp57
 70
     1
102
RTVSPropertyOp58
 70
     1
102
RTVSPropertyOp59
 70
     1
102
RTVSPropertyOp60
 70
     1
102
RTVSPropertyOp61
 70
     1
102
RTVSPropertyOp62
 70
     1
  0
XRECORD
  5
1452
102
{ACAD_REACTORS
330
1451
102
}
330
1451
100
AcDbXrecord
280
     1
102
RTVSPost2010Prop28
280
     0
102
RTVSPost2010PropOp28
 70
     1
102
RTVSPost2010Prop29
280
     1
102
RTVSPost2010PropOp29
 70
     1
102
RTVSPost2010Prop30
280
     1
102
RTVSPost2010PropOp30
 70
     1
102
RTVSPost2010Prop31
280
     0
102
RTVSPost2010PropOp31
 70
     1
102
RTVSPost2010Prop32
280
     0
102
RTVSPost2010PropOp32
 70
     1
102
RTVSPost2010Prop33
280
     0
102
RTVSPost2010PropOp33
 70
     1
102
RTVSPost2010Prop34
280
     0
102
RTVSPost2010PropOp34
 70
     1
102
RTVSPost2010Prop35
280
     0
102
RTVSPost2010PropOp35
 70
     1
102
RTVSPost2010Prop36
280
     0
102
RTVSPost2010PropOp36
 70
     1
102
RTVSPost2010Prop37
 90
       50
102
RTVSPost2010PropOp37
 70
     1
102
RTVSPost2010Prop38
140
0.0
102
RTVSPost2010PropOp38
 70
     1
102
RTVSPost2010Prop39
140
1.0
102
RTVSPost2010PropOp39
 70
     1
102
RTVSPost2010Prop40
 90
        0
102
RTVSPost2010PropOp40
 70
     1
102
RTVSPost2010Prop41ColorIndex
 90
       18
102
RTVSPost2010Prop41ColorRGB
 90
        0
102
RTVSPost2010PropOp41
 70
     1
102
RTVSPost2010Prop42
 90
       50
102
RTVSPost2010PropOp42
 70
     1
102
RTVSPost2010Prop43
 90
        3
102
RTVSPost2010PropOp43
 70
     1
102
RTVSPost2010Prop44ColorIndex
 90
        5
102
RTVSPost2010Prop44ColorRGB
 90
      255
102
RTVSPost2010PropOp44
 70
     1
102
RTVSPost2010Prop45
280
     0
102
RTVSPost2010PropOp45
 70
     1
102
RTVSPost2010Prop46
 90
       50
102
RTVSPost2010PropOp46
 70
     1
102
RTVSPost2010Prop47
 90
       50
102
RTVSPost2010PropOp47
 70
     1
102
RTVSPost2010Prop48
 90
       50
102
RTVSPost2010PropOp48
 70
     1
102
RTVSPost2010Prop49
280
     0
102
RTVSPost2010PropOp49
 70
     1
102
RTVSPost2010Prop50
 90
       50
102
RTVSPost2010PropOp50
 70
     1
102
RTVSPost2010Prop51ColorIndex
 90
      256
102
RTVSPost2010Prop51ColorRGB
 90
-16777216
102
RTVSPost2010PropOp51
 70
     0
102
RTVSPost2010Prop52
140
1.0
102
RTVSPost2010PropOp52
 70
     0
102
RTVSPost2010Prop53
 90
        2
102
RTVSPost2010PropOp53
 70
     1
102
RTVSPost2010Prop54
  1
strokes_ogs.tif
102
RTVSPost2010PropOp54
 70
     1
102
RTVSPost2010Prop55
280
     0
102
RTVSPost2010PropOp55
 70
     1
102
RTVSPost2010Prop56
140
1.0
102
RTVSPost2010PropOp56
 70
     1
102
RTVSPost2010Prop57
140
1.0
102
RTVSPost2010PropOp57
 70
     1
102
RTVSPropertyOp0
 70
     1
102
RTVSPropertyOp1
 70
     1
102
RTVSPropertyOp2
 70
     1
102
RTVSPropertyOp3
 70
     1
102
RTVSPropertyOp4
 70
     1
102
RTVSPropertyOp5
 70
     1
102
RTVSPropertyOp6
 70
     1
102
RTVSPropertyOp7
 70
     1
102
RTVSPropertyOp8
 70
     1
102
RTVSPropertyOp9
 70
     1
102
RTVSPropertyOp10
 70
     1
102
RTVSPropertyOp11
 70
     1
102
RTVSPropertyOp12
 70
     1
102
RTVSPropertyOp13
 70
     1
102
RTVSPropertyOp14
 70
     1
102
RTVSPropertyOp15
 70
     1
102
RTVSPropertyOp16
 70
     1
102
RTVSPropertyOp17
 70
     1
102
RTVSPropertyOp18
 70
     1
102
RTVSPropertyOp19
 70
     1
102
RTVSPropertyOp20
 70
     1
102
RTVSPropertyOp21
 70
     1
102
RTVSPropertyOp22
 70
     1
102
RTVSPropertyOp23
 70
     1
102
RTVSPropertyOp24
 70
     1
102
RTVSPropertyOp25
 70
     1
102
RTVSPropertyOp26
 70
     1
102
RTVSPropertyOp27
 70
     1
102
RTVSPropertyOp28
 70
     1
102
RTVSPropertyOp29
 70
     1
102
RTVSPropertyOp30
 70
     1
102
RTVSPropertyOp31
 70
     1
102
RTVSPropertyOp32
 70
     1
102
RTVSPropertyOp33
 70
     1
102
RTVSPropertyOp34
 70
     1
102
RTVSPropertyOp35
 70
     1
102
RTVSPropertyOp36
 70
     1
102
RTVSPropertyOp37
 70
     1
102
RTVSPropertyOp38
 70
     1
102
RTVSPropertyOp39
 70
     1
102
RTVSPropertyOp40
 70
     1
102
RTVSPropertyOp41
 70
     1
102
RTVSPropertyOp42
 70
     1
102
RTVSPropertyOp43
 70
     1
102
RTVSPropertyOp44
 70
     1
102
RTVSPropertyOp45
 70
     1
102
RTVSPropertyOp46
 70
     1
102
RTVSPropertyOp47
 70
     1
102
RTVSPropertyOp48
 70
     1
102
RTVSPropertyOp49
 70
     1
102
RTVSPropertyOp50
 70
     1
102
RTVSPropertyOp51
 70
     0
102
RTVSPropertyOp52
 70
     0
102
RTVSPropertyOp53
 70
     1
102
RTVSPropertyOp54
 70
     1
102
RTVSPropertyOp55
 70
     1
102
RTVSPropertyOp56
 70
     1
102
RTVSPropertyOp57
 70
     1
102
RTVSPropertyOp58
 70
     1
102
RTVSPropertyOp59
 70
     1
102
RTVSPropertyOp60
 70
     1
102
RTVSPropertyOp61
 70
     1
102
RTVSPropertyOp62
 70
     1
  0
XRECORD
  5
1446
102
{ACAD_REACTORS
330
1445
102
}
330
1445
100
AcDbXrecord
280
     1
102
RTVSPost2010Prop28
280
     0
102
RTVSPost2010PropOp28
 70
     1
102
RTVSPost2010Prop29
280
     1
102
RTVSPost2010PropOp29
 70
     1
102
RTVSPost2010Prop30
280
     1
102
RTVSPost2010PropOp30
 70
     1
102
RTVSPost2010Prop31
280
     0
102
RTVSPost2010PropOp31
 70
     1
102
RTVSPost2010Prop32
280
     0
102
RTVSPost2010PropOp32
 70
     1
102
RTVSPost2010Prop33
280
     0
102
RTVSPost2010PropOp33
 70
     1
102
RTVSPost2010Prop34
280
     0
102
RTVSPost2010PropOp34
 70
     1
102
RTVSPost2010Prop35
280
     0
102
RTVSPost2010PropOp35
 70
     1
102
RTVSPost2010Prop36
280
     0
102
RTVSPost2010PropOp36
 70
     1
102
RTVSPost2010Prop37
 90
       50
102
RTVSPost2010PropOp37
 70
     1
102
RTVSPost2010Prop38
140
0.0
102
RTVSPost2010PropOp38
 70
     1
102
RTVSPost2010Prop39
140
1.0
102
RTVSPost2010PropOp39
 70
     1
102
RTVSPost2010Prop40
 90
        0
102
RTVSPost2010PropOp40
 70
     1
102
RTVSPost2010Prop41ColorIndex
 90
       18
102
RTVSPost2010Prop41ColorRGB
 90
        0
102
RTVSPost2010PropOp41
 70
     1
102
RTVSPost2010Prop42
 90
       50
102
RTVSPost2010PropOp42
 70
     1
102
RTVSPost2010Prop43
 90
        3
102
RTVSPost2010PropOp43
 70
     1
102
RTVSPost2010Prop44ColorIndex
 90
        5
102
RTVSPost2010Prop44ColorRGB
 90
      255
102
RTVSPost2010PropOp44
 70
     1
102
RTVSPost2010Prop45
280
     0
102
RTVSPost2010PropOp45
 70
     1
102
RTVSPost2010Prop46
 90
       50
102
RTVSPost2010PropOp46
 70
     1
102
RTVSPost2010Prop47
 90
       50
102
RTVSPost2010PropOp47
 70
     1
102
RTVSPost2010Prop48
 90
       50
102
RTVSPost2010PropOp48
 70
     1
102
RTVSPost2010Prop49
280
     0
102
RTVSPost2010PropOp49
 70
     1
102
RTVSPost2010Prop50
 90
       50
102
RTVSPost2010PropOp50
 70
     1
102
RTVSPost2010Prop51ColorIndex
 90
      256
102
RTVSPost2010Prop51ColorRGB
 90
-16777216
102
RTVSPost2010PropOp51
 70
     0
102
RTVSPost2010Prop52
140
1.0
102
RTVSPost2010PropOp52
 70
     0
102
RTVSPost2010Prop53
 90
        2
102
RTVSPost2010PropOp53
 70
     1
102
RTVSPost2010Prop54
  1
strokes_ogs.tif
102
RTVSPost2010PropOp54
 70
     1
102
RTVSPost2010Prop55
280
     0
102
RTVSPost2010PropOp55
 70
     1
102
RTVSPost2010Prop56
140
1.0
102
RTVSPost2010PropOp56
 70
     1
102
RTVSPost2010Prop57
140
1.0
102
RTVSPost2010PropOp57
 70
     1
102
RTVSPropertyOp0
 70
     1
102
RTVSPropertyOp1
 70
     1
102
RTVSPropertyOp2
 70
     1
102
RTVSPropertyOp3
 70
     1
102
RTVSPropertyOp4
 70
     1
102
RTVSPropertyOp5
 70
     1
102
RTVSPropertyOp6
 70
     1
102
RTVSPropertyOp7
 70
     1
102
RTVSPropertyOp8
 70
     1
102
RTVSPropertyOp9
 70
     1
102
RTVSPropertyOp10
 70
     1
102
RTVSPropertyOp11
 70
     1
102
RTVSPropertyOp12
 70
     1
102
RTVSPropertyOp13
 70
     1
102
RTVSPropertyOp14
 70
     1
102
RTVSPropertyOp15
 70
     1
102
RTVSPropertyOp16
 70
     1
102
RTVSPropertyOp17
 70
     1
102
RTVSPropertyOp18
 70
     1
102
RTVSPropertyOp19
 70
     1
102
RTVSPropertyOp20
 70
     1
102
RTVSPropertyOp21
 70
     1
102
RTVSPropertyOp22
 70
     1
102
RTVSPropertyOp23
 70
     1
102
RTVSPropertyOp24
 70
     1
102
RTVSPropertyOp25
 70
     1
102
RTVSPropertyOp26
 70
     1
102
RTVSPropertyOp27
 70
     1
102
RTVSPropertyOp28
 70
     1
102
RTVSPropertyOp29
 70
     1
102
RTVSPropertyOp30
 70
     1
102
RTVSPropertyOp31
 70
     1
102
RTVSPropertyOp32
 70
     1
102
RTVSPropertyOp33
 70
     1
102
RTVSPropertyOp34
 70
     1
102
RTVSPropertyOp35
 70
     1
102
RTVSPropertyOp36
 70
     1
102
RTVSPropertyOp37
 70
     1
102
RTVSPropertyOp38
 70
     1
102
RTVSPropertyOp39
 70
     1
102
RTVSPropertyOp40
 70
     1
102
RTVSPropertyOp41
 70
     1
102
RTVSPropertyOp42
 70
     1
102
RTVSPropertyOp43
 70
     1
102
RTVSPropertyOp44
 70
     1
102
RTVSPropertyOp45
 70
     1
102
RTVSPropertyOp46
 70
     1
102
RTVSPropertyOp47
 70
     1
102
RTVSPropertyOp48
 70
     1
102
RTVSPropertyOp49
 70
     1
102
RTVSPropertyOp50
 70
     1
102
RTVSPropertyOp51
 70
     0
102
RTVSPropertyOp52
 70
     0
102
RTVSPropertyOp53
 70
     1
102
RTVSPropertyOp54
 70
     1
102
RTVSPropertyOp55
 70
     1
102
RTVSPropertyOp56
 70
     1
102
RTVSPropertyOp57
 70
     1
102
RTVSPropertyOp58
 70
     1
102
RTVSPropertyOp59
 70
     1
102
RTVSPropertyOp60
 70
     1
102
RTVSPropertyOp61
 70
     1
102
RTVSPropertyOp62
 70
     1
  0
XRECORD
  5
145E
102
{ACAD_REACTORS
330
145D
102
}
330
145D
100
AcDbXrecord
280
     1
102
RTVSPost2010Prop28
280
     0
102
RTVSPost2010PropOp28
 70
     1
102
RTVSPost2010Prop29
280
     1
102
RTVSPost2010PropOp29
 70
     1
102
RTVSPost2010Prop30
280
     1
102
RTVSPost2010PropOp30
 70
     1
102
RTVSPost2010Prop31
280
     0
102
RTVSPost2010PropOp31
 70
     1
102
RTVSPost2010Prop32
280
     0
102
RTVSPost2010PropOp32
 70
     1
102
RTVSPost2010Prop33
280
     0
102
RTVSPost2010PropOp33
 70
     1
102
RTVSPost2010Prop34
280
     0
102
RTVSPost2010PropOp34
 70
     1
102
RTVSPost2010Prop35
280
     0
102
RTVSPost2010PropOp35
 70
     1
102
RTVSPost2010Prop36
280
     0
102
RTVSPost2010PropOp36
 70
     1
102
RTVSPost2010Prop37
 90
       50
102
RTVSPost2010PropOp37
 70
     1
102
RTVSPost2010Prop38
140
0.0
102
RTVSPost2010PropOp38
 70
     1
102
RTVSPost2010Prop39
140
1.0
102
RTVSPost2010PropOp39
 70
     1
102
RTVSPost2010Prop40
 90
        0
102
RTVSPost2010PropOp40
 70
     1
102
RTVSPost2010Prop41ColorIndex
 90
       18
102
RTVSPost2010Prop41ColorRGB
 90
        0
102
RTVSPost2010PropOp41
 70
     1
102
RTVSPost2010Prop42
 90
       50
102
RTVSPost2010PropOp42
 70
     1
102
RTVSPost2010Prop43
 90
        3
102
RTVSPost2010PropOp43
 70
     1
102
RTVSPost2010Prop44ColorIndex
 90
        5
102
RTVSPost2010Prop44ColorRGB
 90
      255
102
RTVSPost2010PropOp44
 70
     1
102
RTVSPost2010Prop45
280
     0
102
RTVSPost2010PropOp45
 70
     1
102
RTVSPost2010Prop46
 90
       50
102
RTVSPost2010PropOp46
 70
     1
102
RTVSPost2010Prop47
 90
       50
102
RTVSPost2010PropOp47
 70
     1
102
RTVSPost2010Prop48
 90
       50
102
RTVSPost2010PropOp48
 70
     1
102
RTVSPost2010Prop49
280
     0
102
RTVSPost2010PropOp49
 70
     1
102
RTVSPost2010Prop50
 90
       50
102
RTVSPost2010PropOp50
 70
     1
102
RTVSPost2010Prop51ColorIndex
 90
      256
102
RTVSPost2010Prop51ColorRGB
 90
-16777216
102
RTVSPost2010PropOp51
 70
     0
102
RTVSPost2010Prop52
140
1.0
102
RTVSPost2010PropOp52
 70
     0
102
RTVSPost2010Prop53
 90
        2
102
RTVSPost2010PropOp53
 70
     1
102
RTVSPost2010Prop54
  1
strokes_ogs.tif
102
RTVSPost2010PropOp54
 70
     1
102
RTVSPost2010Prop55
280
     0
102
RTVSPost2010PropOp55
 70
     1
102
RTVSPost2010Prop56
140
1.0
102
RTVSPost2010PropOp56
 70
     1
102
RTVSPost2010Prop57
140
1.0
102
RTVSPost2010PropOp57
 70
     1
102
RTVSPropertyOp0
 70
     1
102
RTVSPropertyOp1
 70
     1
102
RTVSPropertyOp2
 70
     1
102
RTVSPropertyOp3
 70
     1
102
RTVSPropertyOp4
 70
     1
102
RTVSPropertyOp5
 70
     1
102
RTVSPropertyOp6
 70
     1
102
RTVSPropertyOp7
 70
     1
102
RTVSPropertyOp8
 70
     1
102
RTVSPropertyOp9
 70
     1
102
RTVSPropertyOp10
 70
     1
102
RTVSPropertyOp11
 70
     1
102
RTVSPropertyOp12
 70
     1
102
RTVSPropertyOp13
 70
     1
102
RTVSPropertyOp14
 70
     1
102
RTVSPropertyOp15
 70
     1
102
RTVSPropertyOp16
 70
     1
102
RTVSPropertyOp17
 70
     1
102
RTVSPropertyOp18
 70
     1
102
RTVSPropertyOp19
 70
     1
102
RTVSPropertyOp20
 70
     1
102
RTVSPropertyOp21
 70
     1
102
RTVSPropertyOp22
 70
     1
102
RTVSPropertyOp23
 70
     1
102
RTVSPropertyOp24
 70
     1
102
RTVSPropertyOp25
 70
     1
102
RTVSPropertyOp26
 70
     1
102
RTVSPropertyOp27
 70
     1
102
RTVSPropertyOp28
 70
     1
102
RTVSPropertyOp29
 70
     1
102
RTVSPropertyOp30
 70
     1
102
RTVSPropertyOp31
 70
     1
102
RTVSPropertyOp32
 70
     1
102
RTVSPropertyOp33
 70
     1
102
RTVSPropertyOp34
 70
     1
102
RTVSPropertyOp35
 70
     1
102
RTVSPropertyOp36
 70
     1
102
RTVSPropertyOp37
 70
     1
102
RTVSPropertyOp38
 70
     1
102
RTVSPropertyOp39
 70
     1
102
RTVSPropertyOp40
 70
     1
102
RTVSPropertyOp41
 70
     1
102
RTVSPropertyOp42
 70
     1
102
RTVSPropertyOp43
 70
     1
102
RTVSPropertyOp44
 70
     1
102
RTVSPropertyOp45
 70
     1
102
RTVSPropertyOp46
 70
     1
102
RTVSPropertyOp47
 70
     1
102
RTVSPropertyOp48
 70
     1
102
RTVSPropertyOp49
 70
     1
102
RTVSPropertyOp50
 70
     1
102
RTVSPropertyOp51
 70
     0
102
RTVSPropertyOp52
 70
     0
102
RTVSPropertyOp53
 70
     1
102
RTVSPropertyOp54
 70
     1
102
RTVSPropertyOp55
 70
     1
102
RTVSPropertyOp56
 70
     1
102
RTVSPropertyOp57
 70
     1
102
RTVSPropertyOp58
 70
     1
102
RTVSPropertyOp59
 70
     1
102
RTVSPropertyOp60
 70
     1
102
RTVSPropertyOp61
 70
     1
102
RTVSPropertyOp62
 70
     1
  0
ENDSEC
  0
EOF
