  0
SECTION
  2
HEADER
  9
$TEXTSIZE
 40
2.5
  9
$ACADVER
  1
AC1009
  9
$DIMASZ
 40
1.931851648807023
  9
$DIMEXE
 40
2.000000000000000
  9
$DIMEXO
 40
1.000000000000000
  9
$DIMLFAC
 40
1.000000000000000
  9
$DIMSCALE
 40
1.000000000000000
  9
$DIMTAD
 70
1
  9
$DIMTFAC
 40
0.625000000000000
  9
$DIMTXT
 40
3.200000047683716
  9
$LUPREC
 70
3
  9
$REGENMODE
 70
1
  9
$TEXTSTYLE
  7
STANDARD1
  0
ENDSEC
  0
SECTION
  2
TABLES
  0
TABLE
  2
LTYPE
 70
4
  0
LTYPE
  2
CONTINUOUS
 70
64
  3
Solid line
 72
65
 73
0
 40
0.0
  0
LTYPE
  2
DASHED
 70
64
  3
-- -- -- -- -- -- -- -- -- -- -- -- -- -- --
 72
65
 73
2
 40
0.75
 49
0.5
 49
-0.25
  0
LTYPE
  2
DASHDOT
 70
64
  3
__ . __ . __ . __ . __ . __ . __ . __ . __ . __
 72
65
 73
4
 40
1.0
 49
0.5
 49
-0.25
 49
0.0
 49
-0.25
  0
LTYPE
  2
DIVIDE
 70
64
  3
__ . . __ . . __ . . __ . . __ . . __ . . __
 72
65
 73
6
 40
1.25
 49
0.5
 49
-0.25
 49
0.0
 49
-0.25
 49
0.0
 49
-0.25
  0
ENDTAB
  0
TABLE
  2
LAYER
 70
2
  0
LAYER
  2
0
 70
64
 62
3
  6
CONTINUOUS
  0
LAYER
  2
1
 70
64
 62
4
  6
CONTINUOUS
  0
ENDTAB
  0
TABLE
  2
STYLE
 70
4
  0
STYLE
  2
STANDARD1
 70
64
 40
0.0
 41
1.0
 50
0.0
 71
0
 42
4.000000000000000
  3
MONOTXT
  4
BIGFONT
  0
STYLE
  2
STANDARD2
 70
68
 40
0.0
 41
1.0
 50
0.0
 71
0
 42
4.000000000000000
  3
MONOTXT
  4
BIGFONT
  0
STYLE
  2
STANDARD3
 70
64
 40
0.0
 41
1.0
 50
0.0
 71
0
 42
4.000000000000000
  3
MONOTXT
  4

  0
STYLE
  2
STANDARD4
 70
68
 40
0.0
 41
1.0
 50
0.0
 71
0
 42
4.000000000000000
  3
MONOTXT
  4

  0
ENDTAB
  0
TABLE
  2
VIEW
 70
0
  0
ENDTAB
  0
ENDSEC
  0
SECTION
  2
BLOCKS
  0
BLOCK
  8
0
  2
*D1
 70
65
 10
0.000000000000000
 20
0.000000000000000
  0
TEXT
  8
0
  6
CONTINUOUS
 62
3
 10
4.693816731772942
 20
-73.054025292396545
 40
3.200000047683716
  1
68.5
 50
0.000002504478167
 41
0.800000044703483
  7
STANDARD1
  0
LINE
  8
0
  6
CONTINUOUS
 62
4
 10
-24.436180114746094
 20
-47.434837341308594
 11
-24.436180114746094
 21
-75.554023742675781
  0
LINE
  8
0
  6
CONTINUOUS
 62
4
 10
44.063823699951172
 20
-49.589435577392578
 11
44.063823699951172
 21
-75.554023742675781
  0
LINE
  8
0
  6
CONTINUOUS
 62
4
 10
-24.436180114746094
 20
-73.554023742675781
 11
44.063823699951172
 21
-73.554023742675781
  0
LINE
  8
0
  6
CONTINUOUS
 62
4
 10
-24.436180114746094
 20
-73.554023742675781
 11
-22.504328465939071
 21
-73.036385638396752
  0
LINE
  8
0
  6
CONTINUOUS
 62
4
 10
-24.436180114746094
 20
-73.554023742675781
 11
-22.504328465939071
 21
-74.071661846954811
  0
LINE
  8
0
  6
CONTINUOUS
 62
4
 10
44.063823699951172
 20
-73.554023742675781
 11
42.131972051144146
 21
-74.071661846954811
  0
LINE
  8
0
  6
CONTINUOUS
 62
4
 10
44.063823699951172
 20
-73.554023742675781
 11
42.131972051144146
 21
-73.036385638396752
  0
POINT
  8
DEFPOINTS
  6
BYBLOCK
 10
44.063823699951172
 20
-48.589435577392578
  0
POINT
  8
DEFPOINTS
  6
BYBLOCK
 10
-24.436180114746094
 20
-46.434837341308594
  0
POINT
  8
DEFPOINTS
  6
BYBLOCK
 10
-24.436180114746094
 20
-73.554023742675781
  0
ENDBLK
  8
0
  0
BLOCK
  8
0
  2
*D2
 70
65
 10
0.000000000000000
 20
0.000000000000000
  0
TEXT
  8
0
  6
CONTINUOUS
 62
3
 10
-38.806205679573495
 20
-73.554025292396545
 40
3.200000047683716
  1
18.5
 50
0.000002504478167
 41
0.800000044703483
  7
STANDARD1
  0
LINE
  8
0
  6
CONTINUOUS
 62
4
 10
-42.936229705810547
 20
-17.434591293334961
 11
-42.936229705810547
 21
-76.054023742675781
  0
LINE
  8
0
  6
CONTINUOUS
 62
4
 10
-24.436180114746094
 20
-47.434837341308594
 11
-24.436180114746094
 21
-76.054023742675781
  0
LINE
  8
0
  6
CONTINUOUS
 62
4
 10
-42.936229705810547
 20
-74.054023742675781
 11
-24.436180114746094
 21
-74.054023742675781
  0
LINE
  8
0
  6
CONTINUOUS
 62
4
 10
-42.936229705810547
 20
-74.054023742675781
 11
-41.004378057003521
 21
-73.536385638396752
  0
LINE
  8
0
  6
CONTINUOUS
 62
4
 10
-42.936229705810547
 20
-74.054023742675781
 11
-41.004378057003521
 21
-74.571661846954811
  0
LINE
  8
0
  6
CONTINUOUS
 62
4
 10
-24.436180114746094
 20
-74.054023742675781
 11
-26.368031763553116
 21
-74.571661846954811
  0
LINE
  8
0
  6
CONTINUOUS
 62
4
 10
-24.436180114746094
 20
-74.054023742675781
 11
-26.368031763553116
 21
-73.536385638396752
  0
POINT
  8
DEFPOINTS
  6
BYBLOCK
 10
-24.436180114746094
 20
-46.434837341308594
  0
POINT
  8
DEFPOINTS
  6
BYBLOCK
 10
-42.936229705810547
 20
-16.434591293334961
  0
POINT
  8
DEFPOINTS
  6
BYBLOCK
 10
-42.936229705810547
 20
-74.054023742675781
  0
ENDBLK
  8
0
  0
ENDSEC
  0
SECTION
  2
ENTITIES
  0
POINT
  8
0
  6
CONTINUOUS
 62
3
 10
-17.436180117804739
 20
62.565164857008256
  0
DIMENSION
  8
0
  2
*D1
 10
-24.436180114746094
 20
-73.554023742675781
 11
9.813816954292733
 21
-71.454023718833923
 70
128
 13
44.063823699951172
 23
-48.589435577392578
 14
-24.436180114746094
 24
-46.434837341308594
  0
DIMENSION
  8
0
  2
*D2
 10
-42.936229705810547
 20
-74.054023742675781
 11
-33.686206887565177
 21
-71.954023718833923
 70
128
 13
-24.436180114746094
 23
-46.434837341308594
 14
-42.936229705810547
 24
-16.434591293334961
  0
ARC
  8
1
  6
CONTINUOUS
 62
3
 10
14.063819882195332
 20
-49.989517064991709
 40
0.500000000000000
 50
90.000000000000000
 51
180.000000000000000
  0
LINE
  8
1
  6
CONTINUOUS
 62
3
 10
43.163819882195298
 20
-49.489517064991709
 11
14.063819882195332
 21
-49.489517064991709
  0
ARC
  8
1
  6
CONTINUOUS
 62
3
 10
14.063819882195332
 20
60.119846779108300
 40
0.500000000000000
 50
180.000000000000000
 51
270.000000000000000
  0
LINE
  8
1
  6
CONTINUOUS
 62
3
 10
43.163819882195298
 20
59.619846779108300
 11
14.063819882195332
 21
59.619846779108300
  0
LINE
  8
1
  6
CONTINUOUS
 62
3
 10
-25.620217623904772
 20
-14.208001126691808
 11
-27.791227695604697
 21
-14.952839417191765
  0
LINE
  8
1
  6
CONTINUOUS
 62
3
 10
-25.314476006004668
 20
-13.909686806791745
 11
-25.291227695604697
 21
-13.769271399291810
  0
LINE
  8
1
  6
CONTINUOUS
 62
3
 10
-25.381940789504732
 20
-14.037017447191815
 11
-25.314476006004668
 21
-13.909686806791745
  0
LINE
  8
1
  6
CONTINUOUS
 62
3
 10
-25.487236312004690
 20
-14.139608603091750
 11
-25.381940789504732
 21
-14.037017447191815
  0
LINE
  8
1
  6
CONTINUOUS
 62
3
 10
-25.620217623904772
 20
-14.208001126691808
 11
-25.487236312004690
 21
-14.139608603091750
  0
LINE
  8
1
  6
CONTINUOUS
 62
3
 10
-24.436180117804668
 20
-9.270253275091728
 11
-25.291227695604697
 21
-9.255328364191755
  0
LINE
  8
1
  6
CONTINUOUS
 62
3
 10
-25.291227695604697
 20
-11.636656144191784
 11
-27.791227695604697
 21
-11.610110558891776
  0
LINE
  8
1
  6
CONTINUOUS
 62
3
 10
-25.291227695604697
 20
-9.560869245191748
 11
-27.791227695604697
 21
-9.544324070991806
  0
LINE
  8
1
  6
CONTINUOUS
 62
3
 10
-25.747649824204721
 20
-12.047663727691793
 11
-27.791227695604697
 21
-12.081980679391737
  0
LINE
  8
1
  6
CONTINUOUS
 62
3
 10
-24.436180117804668
 20
-13.153128128491787
 11
-27.791227695604697
 21
-13.211690701791806
  0
LINE
  8
1
  6
CONTINUOUS
 62
3
 10
-25.747649824204721
 20
-12.687248720791771
 11
-27.791227695604697
 21
-12.787476687791795
  0
LINE
  8
1
  6
CONTINUOUS
 62
3
 10
-25.325236936204782
 20
-11.932695120391813
 11
-25.291227695604697
 21
-11.863329316691708
  0
LINE
  8
1
  6
CONTINUOUS
 62
3
 10
-25.422992612704682
 20
-11.991560018691780
 11
-25.325236936204782
 21
-11.932695120391813
  0
LINE
  8
1
  6
CONTINUOUS
 62
3
 10
-25.570992768704720
 20
-12.031690858691741
 11
-25.422992612704682
 21
-11.991560018691780
  0
LINE
  8
1
  6
CONTINUOUS
 62
3
 10
-25.747649824204721
 20
-12.047663727691793
 11
-25.570992768704720
 21
-12.031690858691741
  0
LINE
  8
1
  6
CONTINUOUS
 62
3
 10
-25.571049710404715
 20
-12.665589809891822
 11
-25.747649824204721
 21
-12.687248720791771
  0
LINE
  8
1
  6
CONTINUOUS
 62
3
 10
-25.423011939104697
 20
-12.620682326991778
 11
-25.571049710404715
 21
-12.665589809891822
  0
LINE
  8
1
  6
CONTINUOUS
 62
3
 10
-25.325238724704697
 20
-12.558657934991766
 11
-25.423011939104697
 21
-12.620682326991778
  0
LINE
  8
1
  6
CONTINUOUS
 62
3
 10
-25.291227695604697
 20
-12.488193438891741
 11
-25.325238724704697
 21
-12.558657934991766
  0
LINE
  8
1
  6
CONTINUOUS
 62
3
 10
-25.620217623904772
 20
-8.215380276991770
 11
-27.791227695604697
 21
-7.470541986491737
  0
LINE
  8
1
  6
CONTINUOUS
 62
3
 10
-25.620217623904772
 20
-8.478602621391762
 11
-27.791227695604697
 21
-7.762768001391752
  0
LINE
  8
1
  6
CONTINUOUS
 62
3
 10
-25.487236312004690
 20
-8.545218577291756
 11
-25.620217623904772
 21
-8.478602621391762
  0
LINE
  8
1
  6
CONTINUOUS
 62
3
 10
-25.381940789504732
 20
-8.646403034691790
 11
-25.487236312004690
 21
-8.545218577291756
  0
LINE
  8
1
  6
CONTINUOUS
 62
3
 10
-25.314476006004668
 20
-8.772832377391772
 11
-25.381940789504732
 21
-8.646403034691790
  0
LINE
  8
1
  6
CONTINUOUS
 62
3
 10
-25.291227695604697
 20
-8.912937198391795
 11
-25.314476006004668
 21
-8.772832377391772
  0
LINE
  8
1
  6
CONTINUOUS
 62
3
 10
-25.314476006004668
 20
-8.513694596891739
 11
-25.291227695604697
 21
-8.654110004291781
  0
LINE
  8
1
  6
CONTINUOUS
 62
3
 10
-25.381940789504732
 20
-8.386363956491763
 11
-25.314476006004668
 21
-8.513694596891739
  0
LINE
  8
1
  6
CONTINUOUS
 62
3
 10
-25.487236312004690
 20
-8.283772800591752
 11
-25.381940789504732
 21
-8.386363956491763
  0
LINE
  8
1
  6
CONTINUOUS
 62
3
 10
-25.620217623904772
 20
-8.215380276991770
 11
-25.487236312004690
 21
-8.283772800591752
  0
LINE
  8
1
  6
CONTINUOUS
 62
3
 10
-25.291227695604697
 20
-12.488193807591779
 11
-25.291227695604697
 21
-11.636656144191784
  0
LINE
  8
1
  6
CONTINUOUS
 62
3
 10
-25.291227695604697
 20
-13.769271399291810
 11
-25.291227695604697
 21
-13.168053039491824
  0
LINE
  8
1
  6
CONTINUOUS
 62
3
 10
-25.291227695604697
 20
-8.654117239691729
 11
-25.291227695604697
 21
-9.560869245191748
  0
LINE
  8
1
  6
CONTINUOUS
 62
3
 10
-27.791227695604697
 20
-25.434877298291809
 11
-27.791227695604697
 21
20.565207012308200
  0
LINE
  8
1
  6
CONTINUOUS
 62
3
 10
-28.393953062481025
 20
-25.434877298291809
 11
-28.393953062481025
 21
20.565207012308200
  0
LINE
  8
1
  6
CONTINUOUS
 62
3
 10
-17.436180117804739
 20
-52.434835142991723
 11
11.598724695095314
 21
-51.928028994291722
  0
LINE
  8
1
  6
CONTINUOUS
 62
3
 10
-20.936180117804668
 20
-52.434835142991723
 11
-17.436180117804739
 21
-52.434835142991723
  0
LINE
  8
1
  6
CONTINUOUS
 62
3
 10
-24.436180117804668
 20
56.565164857008213
 11
-20.936180117804668
 21
62.565164857008256
  0
LINE
  8
1
  6
CONTINUOUS
 62
3
 10
-20.936180117804668
 20
-52.434835142991723
 11
-24.436180117804668
 21
-46.434835142991737
  0
LINE
  8
1
  6
CONTINUOUS
 62
3
 10
43.140260622695280
 20
-38.380461628591803
 11
43.063819882195332
 21
-38.382463299791738
  0
LINE
  8
1
  6
CONTINUOUS
 62
3
 10
43.863819882195287
 20
-34.434835142991716
 11
43.063819882195332
 21
-34.434835142991716
  0
LINE
  8
1
  6
CONTINUOUS
 62
3
 10
-27.248180117804715
 20
-6.934835142991728
 11
-27.248180117804715
 21
2.065164857008234
  0
LINE
  8
1
  6
CONTINUOUS
 62
3
 10
-24.436180117804668
 20
-46.434835142991737
 11
-24.436180117804668
 21
56.565164857008213
  0
LINE
  8
1
  6
CONTINUOUS
 62
3
 10
-20.936180117804668
 20
-51.434835142991723
 11
-20.936180117804668
 21
61.565164857008256
  0
LINE
  8
1
  6
CONTINUOUS
 62
3
 10
-20.936180117804668
 20
61.565164857008256
 11
-20.946672300004693
 21
61.753976081108306
  0
LINE
  8
1
  6
CONTINUOUS
 62
3
 10
-20.946672300004693
 20
61.753976081108306
 11
-20.979000215404668
 21
61.941227803808317
  0
LINE
  8
1
  6
CONTINUOUS
 62
3
 10
-20.979000215404668
 20
61.941227803808317
 11
-21.032461635204697
 21
62.115496781308309
  0
LINE
  8
1
  6
CONTINUOUS
 62
3
 10
-21.032461635204697
 20
62.115496781308309
 11
-21.107034495404704
 21
62.272271638208224
  0
LINE
  8
1
  6
CONTINUOUS
 62
3
 10
-17.436180117804739
 20
-52.434835142991723
 11
-17.436180117804739
 21
62.565164857008256
  0
LINE
  8
1
  6
CONTINUOUS
 62
3
 10
-24.436180117804668
 20
-6.934835142991728
 11
-27.248180117804715
 21
-6.934835142991728
  0
LINE
  8
1
  6
CONTINUOUS
 62
3
 10
-27.248180117804715
 20
-5.384835142991811
 11
-27.791227695604697
 21
-5.384835142991811
  0
LINE
  8
1
  6
CONTINUOUS
 62
3
 10
-27.248180117804715
 20
0.515164857008243
 11
-27.791227695604697
 21
0.515164857008243
  0
LINE
  8
1
  6
CONTINUOUS
 62
3
 10
-24.436180117804668
 20
2.065164857008234
 11
-27.248180117804715
 21
2.065164857008234
  0
LINE
  8
1
  6
CONTINUOUS
 62
3
 10
-21.107034495404704
 20
-52.141941924191805
 11
-21.032403708704706
 21
-51.985016379091817
  0
LINE
  8
1
  6
CONTINUOUS
 62
3
 10
-21.032403708704706
 20
-51.985016379091817
 11
-20.978965326604694
 21
-51.810750689691773
  0
LINE
  8
1
  6
CONTINUOUS
 62
3
 10
-20.978965326604694
 20
-51.810750689691773
 11
-20.946692934004673
 21
-51.623830248791741
  0
LINE
  8
1
  6
CONTINUOUS
 62
3
 10
-20.946692934004673
 20
-51.623830248791741
 11
-20.936180117804668
 21
-51.434835142991723
  0
LINE
  8
1
  6
CONTINUOUS
 62
3
 10
13.529325019395344
 20
-46.447839124391763
 11
13.554760252695303
 21
-46.820479033391784
  0
LINE
  8
1
  6
CONTINUOUS
 62
3
 10
13.554760252695303
 20
-46.820479033391784
 11
13.563819882195332
 21
-47.143781729391812
  0
LINE
  8
1
  6
CONTINUOUS
 62
3
 10
13.397187151795322
 20
-44.328909905591757
 11
13.411771762095327
 21
-44.945040050491770
  0
LINE
  8
1
  6
CONTINUOUS
 62
3
 10
13.411771762095327
 20
-44.945040050491770
 11
13.448504559195328
 21
-45.519253890991799
  0
LINE
  8
1
  6
CONTINUOUS
 62
3
 10
13.448504559195328
 20
-45.519253890991799
 11
13.529325019395344
 21
-46.447839124391763
  0
LINE
  8
1
  6
CONTINUOUS
 62
3
 10
13.397187151795322
 20
54.459239619608198
 11
13.397187151795322
 21
-44.328909905591757
  0
LINE
  8
1
  6
CONTINUOUS
 62
3
 10
13.563819882195332
 20
60.058663318008385
 11
13.563819882195332
 21
57.274111443408231
  0
LINE
  8
1
  6
CONTINUOUS
 62
3
 10
13.563819882195332
 20
-47.143781729391812
 11
13.563819882195332
 21
-49.928333603991781
  0
LINE
  8
1
  6
CONTINUOUS
 62
3
 10
13.563819882195332
 20
57.274111443408231
 11
13.556512975395322
 21
56.986539335208306
  0
LINE
  8
1
  6
CONTINUOUS
 62
3
 10
13.556512975395322
 20
56.986539335208306
 11
13.535791098195318
 21
56.660016588008347
  0
LINE
  8
1
  6
CONTINUOUS
 62
3
 10
13.535791098195318
 20
56.660016588008347
 11
13.504101921395318
 21
56.286420849408216
  0
LINE
  8
1
  6
CONTINUOUS
 62
3
 10
13.504101921395318
 20
56.286420849408216
 11
13.465838512395294
 21
55.858795650808304
  0
LINE
  8
1
  6
CONTINUOUS
 62
3
 10
13.465838512395294
 20
55.858795650808304
 11
13.428619910495343
 21
55.375369759408215
  0
LINE
  8
1
  6
CONTINUOUS
 62
3
 10
13.428619910495343
 20
55.375369759408215
 11
13.404175407795321
 21
54.883375999908338
  0
LINE
  8
1
  6
CONTINUOUS
 62
3
 10
13.404175407795321
 20
54.883375999908338
 11
13.397187151795322
 21
54.459239619608198
  0
LINE
  8
1
  6
CONTINUOUS
 62
3
 10
43.063819882195332
 20
48.512793013908258
 11
43.063819882195332
 21
-38.382463299791738
  0
LINE
  8
1
  6
CONTINUOUS
 62
3
 10
43.863819882195287
 20
-34.434835142991716
 11
43.863819882195287
 21
44.565164857008284
  0
LINE
  8
1
  6
CONTINUOUS
 62
3
 10
44.063819882195276
 20
58.719846779108309
 11
44.063819882195276
 21
49.410482935008247
  0
LINE
  8
1
  6
CONTINUOUS
 62
3
 10
44.063819882195276
 20
-39.280236379191756
 11
44.063819882195276
 21
-48.589433906791818
  0
LINE
  8
1
  6
CONTINUOUS
 62
3
 10
43.863819882195287
 20
44.565164857008284
 11
43.063819882195332
 21
44.565164857008284
  0
LINE
  8
1
  6
CONTINUOUS
 62
3
 10
43.063819882195332
 20
48.512793013908258
 11
43.140260628695330
 21
48.510791342508291
  0
LINE
  8
1
  6
CONTINUOUS
 62
3
 10
-20.936180117804668
 20
62.565164857008256
 11
-17.436180117804739
 21
62.565164857008256
  0
LINE
  8
1
  6
CONTINUOUS
 62
3
 10
-17.436180117804739
 20
62.565164857008256
 11
11.598724695095314
 21
62.058358708308276
  0
ARC
  8
1
  6
CONTINUOUS
 62
3
 10
43.163819882195298
 20
-39.280153220891762
 40
0.899999999999977
 50
0.000000000000000
 51
91.500000385499945
  0
ARC
  8
1
  6
CONTINUOUS
 62
3
 10
43.163819882195298
 20
-48.589517064991711
 40
0.900000000000003
 50
268.499999614500100
 51
0.000000000000000
  0
ARC
  8
1
  6
CONTINUOUS
 62
3
 10
43.163819882195298
 20
58.719846779108309
 40
0.899999999999977
 50
0.000000000000000
 51
91.500000000204764
  0
ARC
  8
1
  6
CONTINUOUS
 62
3
 10
43.163819882195298
 20
49.410482935008247
 40
0.899999999999941
 50
268.499999999896540
 51
0.000000000000000
  0
ARC
  8
1
  6
CONTINUOUS
 62
3
 10
11.563819882195332
 20
-49.928333603991781
 40
1.999999999999969
 50
271.000000000000110
 51
0.000000000000000
  0
ARC
  8
1
  6
CONTINUOUS
 62
3
 10
11.563819882195332
 20
60.058663318008385
 40
2.000000000000000
 50
0.000000000000000
 51
88.999999999999829
  0
LINE
  8
1
  6
CONTINUOUS
 62
3
 10
-27.791227695604697
 20
20.565164857008220
 11
-38.436227695604700
 21
20.381733288508279
  0
LINE
  8
1
  6
CONTINUOUS
 62
3
 10
-27.791227695604697
 20
-25.434835142991734
 11
-38.436227695604700
 21
-25.251556961191746
  0
LINE
  8
1
  6
CONTINUOUS
 62
4
 10
-38.436227695604700
 20
19.716959283247498
 11
-28.393953062481025
 21
19.716959283247498
  0
LINE
  8
1
  6
CONTINUOUS
 62
4
 10
-38.436227695604700
 20
18.716959283247455
 11
-28.393953062481025
 21
18.716959283247455
  0
LINE
  8
1
  6
CONTINUOUS
 62
4
 10
-38.436227695604700
 20
17.216959283247494
 11
-28.393953062481025
 21
17.216959283247494
  0
LINE
  8
1
  6
CONTINUOUS
 62
4
 10
-38.436227695604700
 20
15.716959283247419
 11
-28.393953062481025
 21
15.716959283247419
  0
LINE
  8
1
  6
CONTINUOUS
 62
4
 10
-38.436227695604700
 20
14.216959283247416
 11
-28.393953062481025
 21
14.216959283247416
  0
LINE
  8
1
  6
CONTINUOUS
 62
4
 10
-38.436227695604700
 20
12.716959283247494
 11
-28.393953062481025
 21
12.716959283247494
  0
LINE
  8
1
  6
CONTINUOUS
 62
4
 10
-38.436227695604700
 20
11.216959283247494
 11
-28.393953062481025
 21
11.216959283247494
  0
LINE
  8
1
  6
CONTINUOUS
 62
4
 10
-38.436227695604700
 20
9.716959283247416
 11
-28.393953062481025
 21
9.716959283247416
  0
LINE
  8
1
  6
CONTINUOUS
 62
4
 10
-38.436227695604700
 20
8.216959283247491
 11
-28.393953062481025
 21
8.216959283247491
  0
LINE
  8
1
  6
CONTINUOUS
 62
4
 10
-38.436227695604700
 20
6.716959283247416
 11
-28.393953062481025
 21
6.716959283247416
  0
LINE
  8
1
  6
CONTINUOUS
 62
4
 10
-38.436227695604700
 20
5.216959283247416
 11
-28.393953062481025
 21
5.216959283247491
  0
LINE
  8
1
  6
CONTINUOUS
 62
4
 10
-38.436227695604700
 20
3.716959283247491
 11
-28.393953062481025
 21
3.716959283247491
  0
LINE
  8
1
  6
CONTINUOUS
 62
4
 10
-38.436227695604700
 20
2.216959283247508
 11
-28.393953062481025
 21
2.216959283247508
  0
LINE
  8
1
  6
CONTINUOUS
 62
4
 10
-38.436227695604700
 20
-23.283040716752499
 11
-28.393953062481025
 21
-23.283040716752499
  0
LINE
  8
1
  6
CONTINUOUS
 62
4
 10
-38.436227695604700
 20
0.716959283247489
 11
-28.393953062481025
 21
0.716959283247489
  0
LINE
  8
1
  6
CONTINUOUS
 62
4
 10
-38.436227695604700
 20
-0.783040716752586
 11
-28.393953062481025
 21
-0.783040716752586
  0
LINE
  8
1
  6
CONTINUOUS
 62
4
 10
-38.436227695604700
 20
-2.283040716752588
 11
-28.393953062481025
 21
-2.283040716752588
  0
LINE
  8
1
  6
CONTINUOUS
 62
4
 10
-38.436227695604700
 20
-3.783040716752550
 11
-28.393953062481025
 21
-3.783040716752550
  0
LINE
  8
1
  6
CONTINUOUS
 62
4
 10
-38.436227695604700
 20
-5.283040716752513
 11
-28.393953062481025
 21
-5.283040716752513
  0
LINE
  8
1
  6
CONTINUOUS
 62
4
 10
-38.436227695604700
 20
-6.783040716752494
 11
-28.393953062481025
 21
-6.783040716752494
  0
LINE
  8
1
  6
CONTINUOUS
 62
4
 10
-38.436227695604700
 20
-8.283040716752513
 11
-28.393953062481025
 21
-8.283040716752513
  0
LINE
  8
1
  6
CONTINUOUS
 62
4
 10
-38.436227695604700
 20
-9.783040716752590
 11
-28.393953062481025
 21
-9.783040716752590
  0
LINE
  8
1
  6
CONTINUOUS
 62
4
 10
-38.436227695604700
 20
-11.283040716752589
 11
-28.393953062481025
 21
-11.283040716752589
  0
LINE
  8
1
  6
CONTINUOUS
 62
4
 10
-38.436227695604700
 20
-12.783040716752552
 11
-28.393953062481025
 21
-12.783040716752552
  0
LINE
  8
1
  6
CONTINUOUS
 62
4
 10
-38.436227695604700
 20
-14.283040716752515
 11
-28.393953062481025
 21
-14.283040716752515
  0
LINE
  8
1
  6
CONTINUOUS
 62
4
 10
-38.436227695604700
 20
-15.783040716752591
 11
-28.393953062481025
 21
-15.783040716752591
  0
LINE
  8
1
  6
CONTINUOUS
 62
4
 10
-38.436227695604700
 20
-17.283040716752517
 11
-28.393953062481025
 21
-17.283040716752517
  0
LINE
  8
1
  6
CONTINUOUS
 62
4
 10
-38.436227695604700
 20
-18.783040716752591
 11
-28.393953062481025
 21
-18.783040716752591
  0
LINE
  8
1
  6
CONTINUOUS
 62
4
 10
-38.436227695604700
 20
-20.283040716752591
 11
-28.393953062481025
 21
-20.283040716752591
  0
LINE
  8
1
  6
CONTINUOUS
 62
4
 10
-38.436227695604700
 20
-21.783040716752552
 11
-28.393953062481025
 21
-21.783040716752552
  0
LINE
  8
1
  6
CONTINUOUS
 62
4
 10
-38.436227695604700
 20
-23.283040716752499
 11
-28.393953062481025
 21
-23.283040716752499
  0
LINE
  8
1
  6
CONTINUOUS
 62
4
 10
-38.436227695604700
 20
-24.783040716752595
 11
-28.393953062481025
 21
-24.783040716752595
  0
LINE
  8
1
  6
CONTINUOUS
 62
3
 10
-38.436227695604700
 20
19.565164857008220
 11
-38.936227695604700
 21
19.565164857008220
  0
LINE
  8
1
  6
CONTINUOUS
 62
3
 10
-38.436227695604700
 20
-24.434835142991751
 11
-38.936227695604700
 21
-24.434835142991751
  0
LINE
  8
1
  6
CONTINUOUS
 62
3
 10
-38.936227695604700
 20
19.565164857008220
 11
-42.936227695604700
 21
11.565164857008259
  0
LINE
  8
1
  6
CONTINUOUS
 62
3
 10
-38.436227695604700
 20
-25.251556933491759
 11
-38.436227695604700
 21
20.381733288508279
  0
LINE
  8
1
  6
CONTINUOUS
 62
3
 10
-38.936227695604700
 20
-24.434835142991751
 11
-38.936227695604700
 21
19.565164857008220
  0
LINE
  8
1
  6
CONTINUOUS
 62
3
 10
-42.936227695604700
 20
-16.434590442391773
 11
-42.936227695604700
 21
11.564920156508173
  0
LINE
  8
1
  6
CONTINUOUS
 62
3
 10
-38.936227695604700
 20
-24.434835142991751
 11
-42.936227695604700
 21
-16.434835142991787
  0
ENDSEC
  0
EOF
