  0
SECTION
  2
HEADER
  9
$TEXTSIZE
 40
2.5
  9
$ACADVER
  1
AC1009
  9
$DIMASZ
 40
1.931851648807023
  9
$DIMEXE
 40
2.000000000000000
  9
$DIMEXO
 40
1.000000000000000
  9
$DIMLFAC
 40
1.000000000000000
  9
$DIMSCALE
 40
1.000000000000000
  9
$DIMTAD
 70
1
  9
$DIMTFAC
 40
0.625000000000000
  9
$DIMTXT
 40
3.200000047683716
  9
$LUPREC
 70
3
  9
$REGENMODE
 70
1
  9
$TEXTSTYLE
  7
STANDARD1
  0
ENDSEC
  0
SECTION
  2
TABLES
  0
TABLE
  2
LTYPE
 70
4
  0
LTYPE
  2
CONTINUOUS
 70
64
  3
Solid line
 72
65
 73
0
 40
0.0
  0
LTYPE
  2
DASHED
 70
64
  3
-- -- -- -- -- -- -- -- -- -- -- -- -- -- --
 72
65
 73
2
 40
0.75
 49
0.5
 49
-0.25
  0
LTYPE
  2
DASHDOT
 70
64
  3
__ . __ . __ . __ . __ . __ . __ . __ . __ . __
 72
65
 73
4
 40
1.0
 49
0.5
 49
-0.25
 49
0.0
 49
-0.25
  0
LTYPE
  2
DIVIDE
 70
64
  3
__ . . __ . . __ . . __ . . __ . . __ . . __
 72
65
 73
6
 40
1.25
 49
0.5
 49
-0.25
 49
0.0
 49
-0.25
 49
0.0
 49
-0.25
  0
ENDTAB
  0
TABLE
  2
LAYER
 70
2
  0
LAYER
  2
0
 70
64
 62
3
  6
CONTINUOUS
  0
LAYER
  2
1
 70
64
 62
4
  6
CONTINUOUS
  0
ENDTAB
  0
TABLE
  2
STYLE
 70
4
  0
STYLE
  2
STANDARD1
 70
64
 40
0.0
 41
1.0
 50
0.0
 71
0
 42
4.000000000000000
  3
MONOTXT
  4
BIGFONT
  0
STYLE
  2
STANDARD2
 70
68
 40
0.0
 41
1.0
 50
0.0
 71
0
 42
4.000000000000000
  3
MONOTXT
  4
BIGFONT
  0
STYLE
  2
STANDARD3
 70
64
 40
0.0
 41
1.0
 50
0.0
 71
0
 42
4.000000000000000
  3
MONOTXT
  4

  0
STYLE
  2
STANDARD4
 70
68
 40
0.0
 41
1.0
 50
0.0
 71
0
 42
4.000000000000000
  3
MONOTXT
  4

  0
ENDTAB
  0
TABLE
  2
VIEW
 70
0
  0
ENDTAB
  0
ENDSEC
  0
SECTION
  2
BLOCKS
  0
BLOCK
  8
0
  2
*D1
 70
65
 10
0.000000000000000
 20
0.000000000000000
  0
TEXT
  8
0
  6
CONTINUOUS
 62
3
 10
-3.420514036812263
 20
-70.227906823158264
 40
3.200000047683716
  1
68.5
 50
0.000002504478167
 41
0.800000044703483
  7
STANDARD1
  0
LINE
  8
0
  6
CONTINUOUS
 62
4
 10
-32.550510406494141
 20
-45.423385620117188
 11
-32.550510406494141
 21
-72.727905273437500
  0
LINE
  8
0
  6
CONTINUOUS
 62
4
 10
35.949485778808594
 20
-47.577983856201172
 11
35.949485778808594
 21
-72.727905273437500
  0
LINE
  8
0
  6
CONTINUOUS
 62
4
 10
-32.550510406494141
 20
-70.727905273437500
 11
35.949485778808594
 21
-70.727905273437500
  0
LINE
  8
0
  6
CONTINUOUS
 62
4
 10
-32.550510406494141
 20
-70.727905273437500
 11
-30.618658757687118
 21
-70.210267169158470
  0
LINE
  8
0
  6
CONTINUOUS
 62
4
 10
-32.550510406494141
 20
-70.727905273437500
 11
-30.618658757687118
 21
-71.245543377716530
  0
LINE
  8
0
  6
CONTINUOUS
 62
4
 10
35.949485778808594
 20
-70.727905273437500
 11
34.017634130001568
 21
-71.245543377716530
  0
LINE
  8
0
  6
CONTINUOUS
 62
4
 10
35.949485778808594
 20
-70.727905273437500
 11
34.017634130001568
 21
-70.210267169158470
  0
POINT
  8
DEFPOINTS
  6
BYBLOCK
 10
35.949485778808594
 20
-46.577983856201172
  0
POINT
  8
DEFPOINTS
  6
BYBLOCK
 10
-32.550510406494141
 20
-44.423385620117188
  0
POINT
  8
DEFPOINTS
  6
BYBLOCK
 10
-32.550510406494141
 20
-70.727905273437500
  0
ENDBLK
  8
0
  0
BLOCK
  8
0
  2
*D2
 70
65
 10
0.000000000000000
 20
0.000000000000000
  0
TEXT
  8
0
  6
CONTINUOUS
 62
3
 10
-46.920532156624276
 20
-70.227906823158264
 40
3.200000047683716
  1
18.5
 50
0.000002504478167
 41
0.800000044703483
  7
STANDARD1
  0
LINE
  8
0
  6
CONTINUOUS
 62
4
 10
-51.050559997558594
 20
-15.423139572143555
 11
-51.050559997558594
 21
-72.727905273437500
  0
LINE
  8
0
  6
CONTINUOUS
 62
4
 10
-32.550510406494141
 20
-45.423385620117188
 11
-32.550510406494141
 21
-72.727905273437500
  0
LINE
  8
0
  6
CONTINUOUS
 62
4
 10
-51.050559997558594
 20
-70.727905273437500
 11
-32.550510406494141
 21
-70.727905273437500
  0
LINE
  8
0
  6
CONTINUOUS
 62
4
 10
-51.050559997558594
 20
-70.727905273437500
 11
-49.118708348751568
 21
-70.210267169158470
  0
LINE
  8
0
  6
CONTINUOUS
 62
4
 10
-51.050559997558594
 20
-70.727905273437500
 11
-49.118708348751568
 21
-71.245543377716530
  0
LINE
  8
0
  6
CONTINUOUS
 62
4
 10
-32.550510406494141
 20
-70.727905273437500
 11
-34.482362055301166
 21
-71.245543377716530
  0
LINE
  8
0
  6
CONTINUOUS
 62
4
 10
-32.550510406494141
 20
-70.727905273437500
 11
-34.482362055301166
 21
-70.210267169158470
  0
POINT
  8
DEFPOINTS
  6
BYBLOCK
 10
-32.550510406494141
 20
-44.423385620117188
  0
POINT
  8
DEFPOINTS
  6
BYBLOCK
 10
-51.050559997558594
 20
-14.423139572143555
  0
POINT
  8
DEFPOINTS
  6
BYBLOCK
 10
-51.050559997558594
 20
-70.727905273437500
  0
ENDBLK
  8
0
  0
ENDSEC
  0
SECTION
  2
ENTITIES
  0
POINT
  8
0
  6
CONTINUOUS
 62
3
 10
-25.550511150963018
 20
64.576616240851408
  0
DIMENSION
  8
0
  2
*D1
 10
-32.550510406494141
 20
-70.727905273437500
 11
1.699486304916817
 21
-68.627905249595642
 70
128
 13
35.949485778808594
 23
-46.577983856201172
 14
-32.550510406494141
 24
-44.423385620117188
  0
DIMENSION
  8
0
  2
*D2
 10
-51.050559997558594
 20
-70.727905273437500
 11
-41.800533364615958
 21
-68.627905249595642
 70
128
 13
-32.550510406494141
 23
-44.423385620117188
 14
-51.050559997558594
 24
-14.423139572143555
  0
ARC
  8
1
  6
CONTINUOUS
 62
3
 10
3.449488849037039
 20
62.070114701851551
 40
2.000000000000000
 50
0.000000000000000
 51
88.999999999999829
  0
ARC
  8
1
  6
CONTINUOUS
 62
3
 10
3.449488849037039
 20
-47.916882220148608
 40
1.999999999999998
 50
271.000000000000110
 51
0.000000000000000
  0
ARC
  8
1
  6
CONTINUOUS
 62
3
 10
35.049488849037004
 20
51.421934318851399
 40
0.899999999999934
 50
268.499999999896540
 51
0.000000000000000
  0
ARC
  8
1
  6
CONTINUOUS
 62
3
 10
35.049488849037004
 20
60.731298162951461
 40
0.899999999999977
 50
0.000000000000000
 51
91.500000000202959
  0
ARC
  8
1
  6
CONTINUOUS
 62
3
 10
35.049488849037004
 20
-46.578065681148558
 40
0.899999999999981
 50
268.499999614500040
 51
0.000000000000000
  0
ARC
  8
1
  6
CONTINUOUS
 62
3
 10
35.049488849037004
 20
-37.268701837048596
 40
0.899999999999977
 50
0.000000000000000
 51
91.500000385499959
  0
LINE
  8
1
  6
CONTINUOUS
 62
3
 10
-25.550511150963018
 20
64.576616240851408
 11
3.484393661937020
 21
64.069810092151428
  0
LINE
  8
1
  6
CONTINUOUS
 62
3
 10
-29.050511150962961
 20
64.576616240851408
 11
-25.550511150963018
 21
64.576616240851408
  0
LINE
  8
1
  6
CONTINUOUS
 62
3
 10
34.949488849037039
 20
50.524244397751417
 11
35.025929595537036
 21
50.522242726351450
  0
LINE
  8
1
  6
CONTINUOUS
 62
3
 10
35.749488849037022
 20
46.576616240851450
 11
34.949488849037039
 21
46.576616240851450
  0
LINE
  8
1
  6
CONTINUOUS
 62
3
 10
35.949488849036982
 20
-37.268784995348597
 11
35.949488849036982
 21
-46.577982522948645
  0
LINE
  8
1
  6
CONTINUOUS
 62
3
 10
35.949488849036982
 20
60.731298162951461
 11
35.949488849036982
 21
51.421934318851399
  0
LINE
  8
1
  6
CONTINUOUS
 62
3
 10
35.749488849037022
 20
-32.423383759148550
 11
35.749488849037022
 21
46.576616240851450
  0
LINE
  8
1
  6
CONTINUOUS
 62
3
 10
34.949488849037039
 20
50.524244397751417
 11
34.949488849037039
 21
-36.371011915948571
  0
LINE
  8
1
  6
CONTINUOUS
 62
3
 10
5.289844374637028
 20
56.894827383751505
 11
5.282856118637028
 21
56.470691003451364
  0
LINE
  8
1
  6
CONTINUOUS
 62
3
 10
5.314288877337049
 20
57.386821143251368
 11
5.289844374637028
 21
56.894827383751505
  0
LINE
  8
1
  6
CONTINUOUS
 62
3
 10
5.351507479237000
 20
57.870247034651456
 11
5.314288877337049
 21
57.386821143251368
  0
LINE
  8
1
  6
CONTINUOUS
 62
3
 10
5.389770888237024
 20
58.297872233251368
 11
5.351507479237000
 21
57.870247034651456
  0
LINE
  8
1
  6
CONTINUOUS
 62
3
 10
5.421460065037024
 20
58.671467971851513
 11
5.389770888237024
 21
58.297872233251368
  0
LINE
  8
1
  6
CONTINUOUS
 62
3
 10
5.442181942237028
 20
58.997990719051458
 11
5.421460065037024
 21
58.671467971851513
  0
LINE
  8
1
  6
CONTINUOUS
 62
3
 10
5.449488849037039
 20
59.285562827251383
 11
5.442181942237028
 21
58.997990719051458
  0
LINE
  8
1
  6
CONTINUOUS
 62
3
 10
5.449488849037039
 20
-45.132330345548638
 11
5.449488849037039
 21
-47.916882220148608
  0
LINE
  8
1
  6
CONTINUOUS
 62
3
 10
5.449488849037039
 20
62.070114701851551
 11
5.449488849037039
 21
59.285562827251383
  0
LINE
  8
1
  6
CONTINUOUS
 62
3
 10
5.282856118637028
 20
56.470691003451364
 11
5.282856118637028
 21
-42.317458521748591
  0
LINE
  8
1
  6
CONTINUOUS
 62
3
 10
5.334173526037034
 20
-43.507802507148625
 11
5.414993986237050
 21
-44.436387740548611
  0
LINE
  8
1
  6
CONTINUOUS
 62
3
 10
5.297440728937033
 20
-42.933588666648603
 11
5.334173526037034
 21
-43.507802507148625
  0
LINE
  8
1
  6
CONTINUOUS
 62
3
 10
5.282856118637028
 20
-42.317458521748591
 11
5.297440728937033
 21
-42.933588666648603
  0
LINE
  8
1
  6
CONTINUOUS
 62
3
 10
5.440429219537009
 20
-44.809027649548625
 11
5.449488849037039
 21
-45.132330345548638
  0
LINE
  8
1
  6
CONTINUOUS
 62
3
 10
5.414993986237050
 20
-44.436387740548611
 11
5.440429219537009
 21
-44.809027649548625
  0
LINE
  8
1
  6
CONTINUOUS
 62
3
 10
-29.061023967162953
 20
-49.612378864948596
 11
-29.050511150962961
 21
-49.423383759148578
  0
LINE
  8
1
  6
CONTINUOUS
 62
3
 10
-29.093296359762974
 20
-49.799299305848621
 11
-29.061023967162953
 21
-49.612378864948596
  0
LINE
  8
1
  6
CONTINUOUS
 62
3
 10
-29.146734741862986
 20
-49.973564995248665
 11
-29.093296359762974
 21
-49.799299305848621
  0
LINE
  8
1
  6
CONTINUOUS
 62
3
 10
-29.221365528562984
 20
-50.130490540348660
 11
-29.146734741862986
 21
-49.973564995248665
  0
LINE
  8
1
  6
CONTINUOUS
 62
3
 10
-32.550511150962961
 20
4.076616240851394
 11
-35.362511150963002
 21
4.076616240851394
  0
LINE
  8
1
  6
CONTINUOUS
 62
3
 10
-35.362511150963002
 20
2.526616240851411
 11
-35.905558728762969
 21
2.526616240851411
  0
LINE
  8
1
  6
CONTINUOUS
 62
3
 10
-35.362511150963002
 20
-3.373383759148652
 11
-35.905558728762969
 21
-3.373383759148652
  0
LINE
  8
1
  6
CONTINUOUS
 62
3
 10
-32.550511150962961
 20
-4.923383759148564
 11
-35.362511150963002
 21
-4.923383759148564
  0
LINE
  8
1
  6
CONTINUOUS
 62
3
 10
-25.550511150963018
 20
-50.423383759148578
 11
-25.550511150963018
 21
64.576616240851408
  0
LINE
  8
1
  6
CONTINUOUS
 62
3
 10
-29.146792668362991
 20
64.126948165151461
 11
-29.221365528562984
 21
64.283723022051376
  0
LINE
  8
1
  6
CONTINUOUS
 62
3
 10
-29.093331248562947
 20
63.952679187651469
 11
-29.146792668362991
 21
64.126948165151461
  0
LINE
  8
1
  6
CONTINUOUS
 62
3
 10
-29.061003333162972
 20
63.765427464951458
 11
-29.093331248562947
 21
63.952679187651469
  0
LINE
  8
1
  6
CONTINUOUS
 62
3
 10
-29.050511150962961
 20
63.576616240851408
 11
-29.061003333162972
 21
63.765427464951458
  0
LINE
  8
1
  6
CONTINUOUS
 62
3
 10
-29.050511150962961
 20
-49.423383759148578
 11
-29.050511150962961
 21
63.576616240851408
  0
LINE
  8
1
  6
CONTINUOUS
 62
3
 10
-32.550511150962961
 20
-44.423383759148578
 11
-32.550511150962961
 21
58.576616240851379
  0
LINE
  8
1
  6
CONTINUOUS
 62
3
 10
-35.362511150963002
 20
-4.923383759148564
 11
-35.362511150963002
 21
4.076616240851394
  0
LINE
  8
1
  6
CONTINUOUS
 62
3
 10
35.749488849037022
 20
-32.423383759148550
 11
34.949488849037039
 21
-32.423383759148550
  0
LINE
  8
1
  6
CONTINUOUS
 62
3
 10
35.025929589537014
 20
-36.369010244748637
 11
34.949488849037039
 21
-36.371011915948571
  0
LINE
  8
1
  6
CONTINUOUS
 62
3
 10
-29.050511150962961
 20
-50.423383759148578
 11
-32.550511150962961
 21
-44.423383759148578
  0
LINE
  8
1
  6
CONTINUOUS
 62
3
 10
-32.550511150962961
 20
58.576616240851379
 11
-29.050511150962961
 21
64.576616240851408
  0
LINE
  8
1
  6
CONTINUOUS
 62
3
 10
-29.050511150962961
 20
-50.423383759148578
 11
-25.550511150963018
 21
-50.423383759148578
  0
LINE
  8
1
  6
CONTINUOUS
 62
3
 10
-25.550511150963018
 20
-50.423383759148578
 11
3.484393661937020
 21
-49.916577610448570
  0
LINE
  8
1
  6
CONTINUOUS
 62
3
 10
-36.508284095639311
 20
-23.423425914448643
 11
-36.508284095639311
 21
22.576658396151366
  0
LINE
  8
1
  6
CONTINUOUS
 62
3
 10
-35.905558728762969
 20
-23.423425914448643
 11
-35.905558728762969
 21
22.576658396151366
  0
LINE
  8
1
  6
CONTINUOUS
 62
3
 10
-33.405558728762969
 20
-6.642665855848563
 11
-33.405558728762969
 21
-7.549417861348587
  0
LINE
  8
1
  6
CONTINUOUS
 62
3
 10
-33.405558728762969
 20
-11.757820015448644
 11
-33.405558728762969
 21
-11.156601655648657
  0
LINE
  8
1
  6
CONTINUOUS
 62
3
 10
-33.405558728762969
 20
-10.476742423748618
 11
-33.405558728762969
 21
-9.625204760348623
  0
LINE
  8
1
  6
CONTINUOUS
 62
3
 10
-33.734548657063044
 20
-6.203928893148614
 11
-33.601567345162977
 21
-6.272321416748596
  0
LINE
  8
1
  6
CONTINUOUS
 62
3
 10
-33.601567345162977
 20
-6.272321416748596
 11
-33.496271822663005
 21
-6.374912572648597
  0
LINE
  8
1
  6
CONTINUOUS
 62
3
 10
-33.496271822663005
 20
-6.374912572648597
 11
-33.428807039162962
 21
-6.502243213048573
  0
LINE
  8
1
  6
CONTINUOUS
 62
3
 10
-33.428807039162962
 20
-6.502243213048573
 11
-33.405558728762969
 21
-6.642658620448614
  0
LINE
  8
1
  6
CONTINUOUS
 62
3
 10
-33.405558728762969
 20
-6.901485814548636
 11
-33.428807039162962
 21
-6.761380993548613
  0
LINE
  8
1
  6
CONTINUOUS
 62
3
 10
-33.428807039162962
 20
-6.761380993548613
 11
-33.496271822663005
 21
-6.634951650848635
  0
LINE
  8
1
  6
CONTINUOUS
 62
3
 10
-33.496271822663005
 20
-6.634951650848635
 11
-33.601567345162977
 21
-6.533767193448597
  0
LINE
  8
1
  6
CONTINUOUS
 62
3
 10
-33.601567345162977
 20
-6.533767193448597
 11
-33.734548657063044
 21
-6.467151237548606
  0
LINE
  8
1
  6
CONTINUOUS
 62
3
 10
-33.734548657063044
 20
-6.467151237548606
 11
-35.905558728762969
 21
-5.751316617548596
  0
LINE
  8
1
  6
CONTINUOUS
 62
3
 10
-33.734548657063044
 20
-6.203928893148614
 11
-35.905558728762969
 21
-5.459090602648573
  0
LINE
  8
1
  6
CONTINUOUS
 62
3
 10
-33.405558728762969
 20
-10.476742055048575
 11
-33.439569757862984
 21
-10.547206551148605
  0
LINE
  8
1
  6
CONTINUOUS
 62
3
 10
-33.439569757862984
 20
-10.547206551148605
 11
-33.537342972262991
 21
-10.609230943148617
  0
LINE
  8
1
  6
CONTINUOUS
 62
3
 10
-33.537342972262991
 20
-10.609230943148617
 11
-33.685380743563002
 21
-10.654138426048661
  0
LINE
  8
1
  6
CONTINUOUS
 62
3
 10
-33.685380743563002
 20
-10.654138426048661
 11
-33.861980857362994
 21
-10.675797336948605
  0
LINE
  8
1
  6
CONTINUOUS
 62
3
 10
-33.861980857362994
 20
-10.036212343848632
 11
-33.685323801863007
 21
-10.020239474848580
  0
LINE
  8
1
  6
CONTINUOUS
 62
3
 10
-33.685323801863007
 20
-10.020239474848580
 11
-33.537323645862955
 21
-9.980108634848619
  0
LINE
  8
1
  6
CONTINUOUS
 62
3
 10
-33.537323645862955
 20
-9.980108634848619
 11
-33.439567969363054
 21
-9.921243736548647
  0
LINE
  8
1
  6
CONTINUOUS
 62
3
 10
-33.439567969363054
 20
-9.921243736548647
 11
-33.405558728762969
 21
-9.851877932848552
  0
LINE
  8
1
  6
CONTINUOUS
 62
3
 10
-33.861980857362994
 20
-10.675797336948605
 11
-35.905558728762969
 21
-10.776025303948629
  0
LINE
  8
1
  6
CONTINUOUS
 62
3
 10
-32.550511150962961
 20
-11.141676744648620
 11
-35.905558728762969
 21
-11.200239317948643
  0
LINE
  8
1
  6
CONTINUOUS
 62
3
 10
-33.861980857362994
 20
-10.036212343848632
 11
-35.905558728762969
 21
-10.070529295548582
  0
LINE
  8
1
  6
CONTINUOUS
 62
3
 10
-33.405558728762969
 20
-7.549417861348587
 11
-35.905558728762969
 21
-7.532872687148640
  0
LINE
  8
1
  6
CONTINUOUS
 62
3
 10
-33.405558728762969
 20
-9.625204760348623
 11
-35.905558728762969
 21
-9.598659175048610
  0
LINE
  8
1
  6
CONTINUOUS
 62
3
 10
-32.550511150962961
 20
-7.258801891248567
 11
-33.405558728762969
 21
-7.243876980348588
  0
LINE
  8
1
  6
CONTINUOUS
 62
3
 10
-33.734548657063044
 20
-12.196549742848646
 11
-33.601567345162977
 21
-12.128157219248592
  0
LINE
  8
1
  6
CONTINUOUS
 62
3
 10
-33.601567345162977
 20
-12.128157219248592
 11
-33.496271822663005
 21
-12.025566063348649
  0
LINE
  8
1
  6
CONTINUOUS
 62
3
 10
-33.496271822663005
 20
-12.025566063348649
 11
-33.428807039162962
 21
-11.898235422948588
  0
LINE
  8
1
  6
CONTINUOUS
 62
3
 10
-33.428807039162962
 20
-11.898235422948588
 11
-33.405558728762969
 21
-11.757820015448644
  0
LINE
  8
1
  6
CONTINUOUS
 62
3
 10
-33.734548657063044
 20
-12.196549742848646
 11
-35.905558728762969
 21
-12.941388033348602
  0
LINE
  8
1
  6
CONTINUOUS
 62
3
 10
35.049488849037004
 20
61.631298162951467
 11
5.949488849037039
 21
61.631298162951467
  0
ARC
  8
1
  6
CONTINUOUS
 62
3
 10
5.949488849037039
 20
62.131298162951467
 40
0.500000000000000
 50
180.000000000000000
 51
270.000000000000000
  0
LINE
  8
1
  6
CONTINUOUS
 62
3
 10
35.049488849037004
 20
-47.478065681148550
 11
5.949488849037039
 21
-47.478065681148550
  0
ARC
  8
1
  6
CONTINUOUS
 62
3
 10
5.949488849037039
 20
-47.978065681148550
 40
0.500000000000000
 50
90.000000000000000
 51
180.000000000000000
  0
LINE
  8
1
  6
CONTINUOUS
 62
4
 10
-46.550558728762994
 20
-22.771589332909429
 11
-36.508284095639311
 21
-22.771589332909429
  0
LINE
  8
1
  6
CONTINUOUS
 62
4
 10
-46.550558728762994
 20
-21.271589332909343
 11
-36.508284095639311
 21
-21.271589332909343
  0
LINE
  8
1
  6
CONTINUOUS
 62
4
 10
-46.550558728762994
 20
-19.771589332909400
 11
-36.508284095639311
 21
-19.771589332909400
  0
LINE
  8
1
  6
CONTINUOUS
 62
4
 10
-46.550558728762994
 20
-18.271589332909429
 11
-36.508284095639311
 21
-18.271589332909429
  0
LINE
  8
1
  6
CONTINUOUS
 62
4
 10
-46.550558728762994
 20
-16.771589332909429
 11
-36.508284095639311
 21
-16.771589332909429
  0
LINE
  8
1
  6
CONTINUOUS
 62
4
 10
-46.550558728762994
 20
-15.271589332909357
 11
-36.508284095639311
 21
-15.271589332909357
  0
LINE
  8
1
  6
CONTINUOUS
 62
4
 10
-46.550558728762994
 20
-13.771589332909429
 11
-36.508284095639311
 21
-13.771589332909429
  0
LINE
  8
1
  6
CONTINUOUS
 62
4
 10
-46.550558728762994
 20
-12.271589332909357
 11
-36.508284095639311
 21
-12.271589332909357
  0
LINE
  8
1
  6
CONTINUOUS
 62
4
 10
-46.550558728762994
 20
-10.771589332909386
 11
-36.508284095639311
 21
-10.771589332909386
  0
LINE
  8
1
  6
CONTINUOUS
 62
4
 10
-46.550558728762994
 20
-9.271589332909429
 11
-36.508284095639311
 21
-9.271589332909429
  0
LINE
  8
1
  6
CONTINUOUS
 62
4
 10
-46.550558728762994
 20
-7.771589332909429
 11
-36.508284095639311
 21
-7.771589332909429
  0
LINE
  8
1
  6
CONTINUOUS
 62
4
 10
-46.550558728762994
 20
-6.271589332909358
 11
-36.508284095639311
 21
-6.271589332909358
  0
LINE
  8
1
  6
CONTINUOUS
 62
4
 10
-46.550558728762994
 20
-4.771589332909329
 11
-36.508284095639311
 21
-4.771589332909329
  0
LINE
  8
1
  6
CONTINUOUS
 62
4
 10
-46.550558728762994
 20
-3.271589332909343
 11
-36.508284095639311
 21
-3.271589332909343
  0
LINE
  8
1
  6
CONTINUOUS
 62
4
 10
-46.550558728762994
 20
-1.771589332909386
 11
-36.508284095639311
 21
-1.771589332909386
  0
LINE
  8
1
  6
CONTINUOUS
 62
4
 10
-46.550558728762994
 20
-0.271589332909429
 11
-36.508284095639311
 21
-0.271589332909429
  0
LINE
  8
1
  6
CONTINUOUS
 62
4
 10
-46.550558728762994
 20
1.228410667090572
 11
-36.508284095639311
 21
1.228410667090572
  0
LINE
  8
1
  6
CONTINUOUS
 62
4
 10
-46.550558728762994
 20
2.728410667090657
 11
-36.508284095639311
 21
2.728410667090657
  0
LINE
  8
1
  6
CONTINUOUS
 62
4
 10
-46.550558728762994
 20
-21.271589332909343
 11
-36.508284095639311
 21
-21.271589332909343
  0
LINE
  8
1
  6
CONTINUOUS
 62
4
 10
-46.550558728762994
 20
4.228410667090671
 11
-36.508284095639311
 21
4.228410667090671
  0
LINE
  8
1
  6
CONTINUOUS
 62
4
 10
-46.550558728762994
 20
5.728410667090657
 11
-36.508284095639311
 21
5.728410667090657
  0
LINE
  8
1
  6
CONTINUOUS
 62
4
 10
-46.550558728762994
 20
7.228410667090572
 11
-36.508284095639311
 21
7.228410667090657
  0
LINE
  8
1
  6
CONTINUOUS
 62
4
 10
-46.550558728762994
 20
8.728410667090572
 11
-36.508284095639311
 21
8.728410667090572
  0
LINE
  8
1
  6
CONTINUOUS
 62
4
 10
-46.550558728762994
 20
10.228410667090657
 11
-36.508284095639311
 21
10.228410667090657
  0
LINE
  8
1
  6
CONTINUOUS
 62
4
 10
-46.550558728762994
 20
11.728410667090571
 11
-36.508284095639311
 21
11.728410667090571
  0
LINE
  8
1
  6
CONTINUOUS
 62
4
 10
-46.550558728762994
 20
13.228410667090657
 11
-36.508284095639311
 21
13.228410667090657
  0
LINE
  8
1
  6
CONTINUOUS
 62
4
 10
-46.550558728762994
 20
14.728410667090657
 11
-36.508284095639311
 21
14.728410667090657
  0
LINE
  8
1
  6
CONTINUOUS
 62
4
 10
-46.550558728762994
 20
16.228410667090579
 11
-36.508284095639311
 21
16.228410667090579
  0
LINE
  8
1
  6
CONTINUOUS
 62
4
 10
-46.550558728762994
 20
17.728410667090579
 11
-36.508284095639311
 21
17.728410667090579
  0
LINE
  8
1
  6
CONTINUOUS
 62
4
 10
-46.550558728762994
 20
19.228410667090657
 11
-36.508284095639311
 21
19.228410667090657
  0
LINE
  8
1
  6
CONTINUOUS
 62
4
 10
-46.550558728762994
 20
20.728410667090614
 11
-36.508284095639311
 21
20.728410667090614
  0
LINE
  8
1
  6
CONTINUOUS
 62
4
 10
-46.550558728762994
 20
21.728410667090657
 11
-36.508284095639311
 21
21.728410667090657
  0
LINE
  8
1
  6
CONTINUOUS
 62
3
 10
-35.905558728762969
 20
-23.423383759148578
 11
-46.550558728762994
 21
-23.240105577348587
  0
LINE
  8
1
  6
CONTINUOUS
 62
3
 10
-35.905558728762969
 20
22.576616240851386
 11
-46.550558728762994
 21
22.393184672351445
  0
LINE
  8
1
  6
CONTINUOUS
 62
3
 10
-47.050558728762994
 20
-22.423383759148592
 11
-51.050558728762994
 21
-14.423383759148621
  0
LINE
  8
1
  6
CONTINUOUS
 62
3
 10
-51.050558728762994
 20
-14.423139058548614
 11
-51.050558728762994
 21
13.576371540351332
  0
LINE
  8
1
  6
CONTINUOUS
 62
3
 10
-47.050558728762994
 20
-22.423383759148592
 11
-47.050558728762994
 21
21.576616240851386
  0
LINE
  8
1
  6
CONTINUOUS
 62
3
 10
-46.550558728762994
 20
-23.240105549648604
 11
-46.550558728762994
 21
22.393184672351445
  0
LINE
  8
1
  6
CONTINUOUS
 62
3
 10
-47.050558728762994
 20
21.576616240851386
 11
-51.050558728762994
 21
13.576616240851422
  0
LINE
  8
1
  6
CONTINUOUS
 62
3
 10
-46.550558728762994
 20
-22.423383759148592
 11
-47.050558728762994
 21
-22.423383759148592
  0
LINE
  8
1
  6
CONTINUOUS
 62
3
 10
-46.550558728762994
 20
21.576616240851386
 11
-47.050558728762994
 21
21.576616240851386
  0
ENDSEC
  0
EOF
