  0
SECTION
  2
HEADER
  9
$ACADVER
  1
AC1021
  9
$ACADMAINTVER
 70
    50
  9
$DWGCODEPAGE
  3
ANSI_932
  9
$LASTSAVEDBY
  1
a080061
  9
$CUSTOMPROPERTYTAG
  1
AmdtFileType
  9
$CUSTOMPROPERTY
  1
84
  9
$INSBASE
 10
0.0
 20
0.0
 30
0.0
  9
$EXTMIN
 10
-2627.558406652467
 20
1033.36471550554
 30
0.0
  9
$EXTMAX
 10
-193.5181200284951
 20
1664.920326732964
 30
50.0
  9
$LIMMIN
 10
-2970.0
 20
-2100.0
  9
$LIMMAX
 10
2970.0
 20
2100.0
  9
$ORTHOMODE
 70
     0
  9
$REGENMODE
 70
     0
  9
$FILLMODE
 70
     1
  9
$QTEXTMODE
 70
     0
  9
$MIRRTEXT
 70
     0
  9
$LTSCALE
 40
20.0
  9
$ATTMODE
 70
     1
  9
$TEXTSIZE
 40
64.0
  9
$TRACEWID
 40
0.05
  9
$TEXTSTYLE
  7
STANDARD
  9
$CLAYER
  8
SIZE
  9
$CELTYPE
  6
BYLAYER
  9
$CECOLOR
 62
   256
  9
$CELTSCALE
 40
1.0
  9
$DISPSILH
 70
     0
  9
$DIMSCALE
 40
1.0
  9
$DIMASZ
 40
0.12
  9
$DIMEXO
 40
0.05
  9
$DIMDLI
 40
0.5
  9
$DIMRND
 40
0.0
  9
$DIMDLE
 40
0.0
  9
$DIMEXE
 40
0.1
  9
$DIMTP
 40
0.1
  9
$DIMTM
 40
0.1
  9
$DIMTXT
 40
0.12
  9
$DIMCEN
 40
0.0
  9
$DIMTSZ
 40
0.0
  9
$DIMTOL
 70
     0
  9
$DIMLIM
 70
     0
  9
$DIMTIH
 70
     1
  9
$DIMTOH
 70
     1
  9
$DIMSE1
 70
     0
  9
$DIMSE2
 70
     0
  9
$DIMTAD
 70
     0
  9
$DIMZIN
 70
     7
  9
$DIMBLK
  1

  9
$DIMASO
 70
     1
  9
$DIMSHO
 70
     0
  9
$DIMPOST
  1

  9
$DIMAPOST
  1
mm
  9
$DIMALT
 70
     0
  9
$DIMALTD
 70
     2
  9
$DIMALTF
 40
25.4
  9
$DIMLFAC
 40
1.0
  9
$DIMTOFL
 70
     0
  9
$DIMTVP
 40
0.0
  9
$DIMTIX
 70
     0
  9
$DIMSOXD
 70
     0
  9
$DIMSAH
 70
     0
  9
$DIMBLK1
  1

  9
$DIMBLK2
  1

  9
$DIMSTYLE
  2
AM_ANSI
  9
$DIMCLRD
 70
   256
  9
$DIMCLRE
 70
   256
  9
$DIMCLRT
 70
     2
  9
$DIMTFAC
 40
0.71
  9
$DIMGAP
 40
0.06
  9
$DIMJUST
 70
     0
  9
$DIMSD1
 70
     0
  9
$DIMSD2
 70
     0
  9
$DIMTOLJ
 70
     1
  9
$DIMTZIN
 70
     7
  9
$DIMALTZ
 70
     0
  9
$DIMALTTZ
 70
     0
  9
$DIMUPT
 70
     0
  9
$DIMDEC
 70
     4
  9
$DIMTDEC
 70
     4
  9
$DIMALTU
 70
     2
  9
$DIMALTTD
 70
     4
  9
$DIMTXSTY
  7
STANDARD
  9
$DIMAUNIT
 70
     0
  9
$DIMADEC
 70
     0
  9
$DIMALTRND
 40
0.0
  9
$DIMAZIN
 70
     2
  9
$DIMDSEP
 70
    46
  9
$DIMATFIT
 70
     3
  9
$DIMFRAC
 70
     0
  9
$DIMLDRBLK
  1

  9
$DIMLUNIT
 70
     2
  9
$DIMLWD
 70
    -1
  9
$DIMLWE
 70
    -1
  9
$DIMTMOVE
 70
     0
  9
$DIMFXL
 40
1.0
  9
$DIMFXLON
 70
     0
  9
$DIMJOGANG
 40
0.7853981633974483
  9
$DIMTFILL
 70
     0
  9
$DIMTFILLCLR
 70
     0
  9
$DIMARCSYM
 70
     1
  9
$DIMLTYPE
  6
BYBLOCK
  9
$DIMLTEX1
  6
BYBLOCK
  9
$DIMLTEX2
  6
BYBLOCK
  9
$LUNITS
 70
     2
  9
$LUPREC
 70
     4
  9
$SKETCHINC
 40
0.1
  9
$FILLETRAD
 40
4.0
  9
$AUNITS
 70
     1
  9
$AUPREC
 70
     3
  9
$MENU
  1
ACAD
  9
$ELEVATION
 40
0.0
  9
$PELEVATION
 40
0.0
  9
$THICKNESS
 40
50.0
  9
$LIMCHECK
 70
     0
  9
$CHAMFERA
 40
0.0
  9
$CHAMFERB
 40
0.0
  9
$CHAMFERC
 40
0.0
  9
$CHAMFERD
 40
0.0
  9
$SKPOLY
 70
     0
  9
$TDCREATE
 40
2452321.396199653
  9
$TDUCREATE
 40
2452321.021199653
  9
$TDUPDATE
 40
2457973.455076586
  9
$TDUUPDATE
 40
2457973.080076586
  9
$TDINDWG
 40
0.9693321875
  9
$TDUSRTIMER
 40
0.9693254977
  9
$USRTIMER
 70
     1
  9
$ANGBASE
 50
0.0
  9
$ANGDIR
 70
     0
  9
$PDMODE
 70
     3
  9
$PDSIZE
 40
-2.0
  9
$PLINEWID
 40
0.0
  9
$SPLFRAME
 70
     0
  9
$SPLINETYPE
 70
     6
  9
$SPLINESEGS
 70
     8
  9
$HANDSEED
  5
4812
  9
$SURFTAB1
 70
     6
  9
$SURFTAB2
 70
     6
  9
$SURFTYPE
 70
     6
  9
$SURFU
 70
     6
  9
$SURFV
 70
     6
  9
$UCSBASE
  2

  9
$UCSNAME
  2

  9
$UCSORG
 10
0.0
 20
0.0
 30
0.0
  9
$UCSXDIR
 10
1.0
 20
0.0
 30
0.0
  9
$UCSYDIR
 10
0.0
 20
1.0
 30
0.0
  9
$UCSORTHOREF
  2

  9
$UCSORTHOVIEW
 70
     0
  9
$UCSORGTOP
 10
0.0
 20
0.0
 30
0.0
  9
$UCSORGBOTTOM
 10
0.0
 20
0.0
 30
0.0
  9
$UCSORGLEFT
 10
0.0
 20
0.0
 30
0.0
  9
$UCSORGRIGHT
 10
0.0
 20
0.0
 30
0.0
  9
$UCSORGFRONT
 10
0.0
 20
0.0
 30
0.0
  9
$UCSORGBACK
 10
0.0
 20
0.0
 30
0.0
  9
$PUCSBASE
  2

  9
$PUCSNAME
  2

  9
$PUCSORG
 10
0.0
 20
0.0
 30
0.0
  9
$PUCSXDIR
 10
1.0
 20
0.0
 30
0.0
  9
$PUCSYDIR
 10
0.0
 20
1.0
 30
0.0
  9
$PUCSORTHOREF
  2

  9
$PUCSORTHOVIEW
 70
     0
  9
$PUCSORGTOP
 10
0.0
 20
0.0
 30
0.0
  9
$PUCSORGBOTTOM
 10
0.0
 20
0.0
 30
0.0
  9
$PUCSORGLEFT
 10
0.0
 20
0.0
 30
0.0
  9
$PUCSORGRIGHT
 10
0.0
 20
0.0
 30
0.0
  9
$PUCSORGFRONT
 10
0.0
 20
0.0
 30
0.0
  9
$PUCSORGBACK
 10
0.0
 20
0.0
 30
0.0
  9
$USERI1
 70
     0
  9
$USERI2
 70
     0
  9
$USERI3
 70
     0
  9
$USERI4
 70
     0
  9
$USERI5
 70
     0
  9
$USERR1
 40
20.0
  9
$USERR2
 40
0.0
  9
$USERR3
 40
0.0
  9
$USERR4
 40
0.0
  9
$USERR5
 40
0.0
  9
$WORLDVIEW
 70
     1
  9
$SHADEDGE
 70
     3
  9
$SHADEDIF
 70
    70
  9
$TILEMODE
 70
     1
  9
$MAXACTVP
 70
    64
  9
$PINSBASE
 10
0.0
 20
0.0
 30
0.0
  9
$PLIMCHECK
 70
     0
  9
$PEXTMIN
 10
1.000000000000000E+20
 20
1.000000000000000E+20
 30
1.000000000000000E+20
  9
$PEXTMAX
 10
-1.000000000000000E+20
 20
-1.000000000000000E+20
 30
-1.000000000000000E+20
  9
$PLIMMIN
 10
0.0
 20
0.0
  9
$PLIMMAX
 10
12.0
 20
9.0
  9
$UNITMODE
 70
     0
  9
$VISRETAIN
 70
     1
  9
$PLINEGEN
 70
     0
  9
$PSLTSCALE
 70
     1
  9
$TREEDEPTH
 70
  3020
  9
$CMLSTYLE
  2
STANDARD
  9
$CMLJUST
 70
     0
  9
$CMLSCALE
 40
1.0
  9
$PROXYGRAPHICS
 70
     1
  9
$MEASUREMENT
 70
     0
  9
$CELWEIGHT
370
    -1
  9
$ENDCAPS
280
     0
  9
$JOINSTYLE
280
     0
  9
$LWDISPLAY
290
     0
  9
$INSUNITS
 70
     0
  9
$HYPERLINKBASE
  1

  9
$STYLESHEET
  1
MONOCHROME.CTB
  9
$XEDIT
290
     1
  9
$CEPSNTYPE
380
     0
  9
$PSTYLEMODE
290
     1
  9
$FINGERPRINTGUID
  2
{68F3F60F-982D-43C0-B084-568AB2094408}
  9
$VERSIONGUID
  2
{0D2E1D22-C33E-4FC3-B711-A710610C2A63}
  9
$EXTNAMES
290
     1
  9
$PSVPSCALE
 40
0.0
  9
$OLESTARTUP
290
     0
  9
$SORTENTS
280
   127
  9
$INDEXCTL
280
     1
  9
$HIDETEXT
280
     0
  9
$XCLIPFRAME
290
     0
  9
$HALOGAP
280
     0
  9
$OBSCOLOR
 70
   257
  9
$OBSLTYPE
280
     0
  9
$INTERSECTIONDISPLAY
280
     0
  9
$INTERSECTIONCOLOR
 70
   257
  9
$DIMASSOC
280
     1
  9
$PROJECTNAME
  1

  9
$CAMERADISPLAY
290
     0
  9
$LENSLENGTH
 40
50.0
  9
$CAMERAHEIGHT
 40
0.0
  9
$STEPSPERSEC
 40
2.0
  9
$STEPSIZE
 40
6.0
  9
$3DDWFPREC
 40
2.0
  9
$PSOLWIDTH
 40
0.25
  9
$PSOLHEIGHT
 40
4.0
  9
$LOFTANG1
 40
1.570796326794896
  9
$LOFTANG2
 40
1.570796326794896
  9
$LOFTMAG1
 40
0.0
  9
$LOFTMAG2
 40
0.0
  9
$LOFTPARAM
 70
     7
  9
$LOFTNORMALS
280
     1
  9
$LATITUDE
 40
37.795
  9
$LONGITUDE
 40
-122.394
  9
$NORTHDIRECTION
 40
0.0
  9
$TIMEZONE
 70
 -8000
  9
$LIGHTGLYPHDISPLAY
280
     1
  9
$TILEMODELIGHTSYNCH
280
     1
  9
$CMATERIAL
347
1712
  9
$SOLIDHIST
280
     0
  9
$SHOWHIST
280
     1
  9
$DWFFRAME
280
     2
  9
$DGNFRAME
280
     0
  9
$REALWORLDSCALE
290
     1
  9
$INTERFERECOLOR
 62
     1
  9
$INTERFEREOBJVS
345
1734
  9
$INTERFEREVPVS
346
178F
  9
$CSHADOW
280
     0
  9
$SHADOWPLANELOCATION
 40
0.0
  0
ENDSEC
  0
SECTION
  2
CLASSES
  0
CLASS
  1
ACDBDICTIONARYWDFLT
  2
AcDbDictionaryWithDefault
  3
ObjectDBX Classes
 90
        0
 91
        1
280
     0
281
     0
  0
CLASS
  1
ACDBPLACEHOLDER
  2
AcDbPlaceHolder
  3
ObjectDBX Classes
 90
        0
 91
        1
280
     0
281
     0
  0
CLASS
  1
LAYOUT
  2
AcDbLayout
  3
ObjectDBX Classes
 90
        0
 91
        2
280
     0
281
     0
  0
CLASS
  1
DICTIONARYVAR
  2
AcDbDictionaryVar
  3
ObjectDBX Classes
 90
        0
 91
       14
280
     0
281
     0
  0
CLASS
  1
TABLESTYLE
  2
AcDbTableStyle
  3
ObjectDBX Classes
 90
     4095
 91
        1
280
     0
281
     0
  0
CLASS
  1
ACME_DOCUMENT
  2
AcMeDbDoc
  3
AcMeServices
 90
     1024
 91
        0
280
     0
281
     0
  0
CLASS
  1
AMGSETTINGSOBJ
  2
AmgSettingsObj
  3
"AcadM|Product Description: AutoCAD Mechanical|Company: Autodesk, Inc."
 90
     1024
 91
        0
280
     0
281
     0
  0
CLASS
  1
ACMESCOPE
  2
AcMeScope
  3
AcMeServices
 90
     1024
 91
        0
280
     0
281
     0
  0
CLASS
  1
ACMECOMMANDHISTORY
  2
AcMeCommandHistory
  3
AcMeServices
 90
     1024
 91
        0
280
     0
281
     0
  0
CLASS
  1
ACIMSYSVARMAN
  2
AcImSysVarManager
  3
AcMeServices
 90
     1024
 91
        0
280
     0
281
     0
  0
CLASS
  1
ACIMREALSYSVAR
  2
AcImRealSysVar
  3
AcMeServices
 90
     1024
 91
        0
280
     0
281
     0
  0
CLASS
  1
ACIMINTSYSVAR
  2
AcImIntSysVar
  3
AcMeServices
 90
     1024
 91
        0
280
     0
281
     0
  0
CLASS
  1
ACMEDRAWINGMAN
  2
AcMeDrawingMan
  3
AcMeServices
 90
     1024
 91
        0
280
     0
281
     0
  0
CLASS
  1
ACMEVIEW
  2
AcMeView
  3
AcMeServices
 90
     1024
 91
        0
280
     0
281
     0
  0
CLASS
  1
ACDBENTITYCACHE
  2
AcMeEntityCache
  3
AcMeServices
 90
     1024
 91
        0
280
     0
281
     0
  0
CLASS
  1
GSMANAGER
  2
AcMeGSManager
  3
AcMeServices
 90
     1024
 91
        0
280
     0
281
     0
  0
CLASS
  1
AMDTINTERNALREACTOR
  2
AmdtInternalReactor
  3
AcMeServices
 90
     1024
 91
        0
280
     0
281
     0
  0
CLASS
  1
ACMESTATEMGR
  2
AcMeStateMgr
  3
AcMeServices
 90
     1024
 91
        0
280
     0
281
     0
  0
CLASS
  1
ACGREFMASTER
  2
AcGrefMaster
  3
AcAttribServices
 90
     1024
 91
        0
280
     0
281
     0
  0
CLASS
  1
AM_DRAWING_MGR
  2
AcDmDwgMgr
  3
AcMechDwgViewMgmt
 90
     1024
 91
        0
280
     0
281
     0
  0
CLASS
  1
AM_DWG_DOCUMENT
  2
AcDmDwgDocument
  3
AcMechDwgViewMgmt
 90
     1024
 91
        0
280
     0
281
     0
  0
CLASS
  1
AM_DWG_SHEET
  2
AcDmSheet
  3
AcMechDwgViewMgmt
 90
     1024
 91
        0
280
     0
281
     0
  0
CLASS
  1
AM_VIEWDIMPARMAP
  2
AcDmViewDimParMap
  3
AcMechDwgViewMgmt
 90
     1024
 91
        0
280
     0
281
     0
  0
CLASS
  1
AM_DWGMGR_NAME
  2
AcDmDwgMgrName
  3
AcMechDwgViewMgmt
 90
     1024
 91
        0
280
     0
281
     0
  0
CLASS
  1
ACME_DATABASE
  2
AcMeDbDatabase
  3
AcMeServices
 90
     1024
 91
        0
280
     0
281
     0
  0
CLASS
  1
ACRFINSADJUSTERMGR
  2
AcRfInsAdjusterMgr
  3
AcMeServices
 90
     1024
 91
        0
280
     0
281
     0
  0
CLASS
  1
ACGREFACADMASTER
  2
AcGrefacadMaster
  3
AcGrefServices
 90
     1024
 91
        0
280
     0
281
     0
  0
CLASS
  1
AMDTMENUSTATEMGR
  2
AmdtMenuStateMgr
  3
McadcomServices
 90
     1024
 91
        0
280
     0
281
     0
  0
CLASS
  1
AMDTMCOMMENUSTATE
  2
AmdtMcomMenuState
  3
McadcomServices
 90
     1024
 91
        0
280
     0
281
     0
  0
CLASS
  1
AMIMASTER
  2
AmiMaster
  3
AmiServices
 90
     1024
 91
        0
280
     0
281
     0
  0
CLASS
  1
ASAPP
  2
AcAsAppObject
  3
AutoSurfServices
 90
     1024
 91
        0
280
     0
281
     0
  0
CLASS
  1
IM_STATIC_MAN
  2
AcImStaticVarManager
  3
AcMeServices
 90
     1024
 91
        0
280
     0
281
     0
  0
CLASS
  1
ACIMSTRSYSVAR
  2
AcImStrSysVar
  3
AcMeServices
 90
     1024
 91
        0
280
     0
281
     0
  0
CLASS
  1
ACIMDBLSTATICVAR
  2
AcImDblStaticVar
  3
AcMeServices
 90
     1024
 91
        0
280
     0
281
     0
  0
CLASS
  1
ACIMSTRSTATICVAR
  2
AcImStrStaticVar
  3
AcMeServices
 90
     1024
 91
        0
280
     0
281
     0
  0
CLASS
  1
ACIMINTSTATICVAR
  2
AcImIntStaticVar
  3
AcMeServices
 90
     1024
 91
        0
280
     0
281
     0
  0
CLASS
  1
ACASGREFMASTER
  2
AcAsGrefMaster
  3
AutoSurfResolverServices
 90
     1024
 91
        0
280
     0
281
     0
  0
CLASS
  1
ACADGREFMODULE
  2
AcAdGrefModule
  3
AdGrefServices
 90
     1024
 91
        0
280
     0
281
     0
  0
CLASS
  1
AMDTMAPISURFMOUDULE
  2
AmdtMApiSurfModule
  3
MApiSurfServices
 90
     1024
 91
        0
280
     0
281
     0
  0
CLASS
  1
MAPIAMMOUDLE
  2
MApiAmModule
  3
MApiAmServices
 90
     1024
 91
        0
280
     0
281
     0
  0
CLASS
  1
AMDTADMENUSTATE
  2
AmdtAdMenuState
  3
DesignerServices
 90
     1024
 91
        0
280
     0
281
     0
  0
CLASS
  1
ADAPPL
  2
AcAdAppl
  3
DesignerServices
 90
     1024
 91
        0
280
     0
281
     0
  0
CLASS
  1
DEPMGR
  2
AcAdDepMgr
  3
DesignerServices
 90
     1024
 91
        0
280
     0
281
     0
  0
CLASS
  1
PARAMMGR
  2
AcAdParamMgr
  3
DesignerServices
 90
     1024
 91
        0
280
     0
281
     0
  0
CLASS
  1
PARAMSCOPE
  2
AcAdParamScope
  3
DesignerServices
 90
     1024
 91
        0
280
     0
281
     0
  0
CLASS
  1
NAMEDAPPL
  2
AcAdNamedAppl
  3
DesignerServices
 90
     1024
 91
        0
280
     0
281
     0
  0
CLASS
  1
AMDTDMMENUSTATE
  2
AmdtDmMenuState
  3
AcMechDwgViewMgmt
 90
     1024
 91
        0
280
     0
281
     0
  0
CLASS
  1
MAPIADMODULE
  2
MApiAdModule
  3
MApiAdServices
 90
     1024
 91
        0
280
     0
281
     0
  0
CLASS
  1
AMDTAMMENUSTATE
  2
AmdtAmMenuState
  3
DesignerAssemblies
 90
     1024
 91
        0
280
     0
281
     0
  0
CLASS
  1
ACAMPROJECT
  2
AcAmProject
  3
DesignerAssemblies
 90
     1024
 91
        0
280
     0
281
     0
  0
CLASS
  1
ACAMGRCOMPDEF
  2
AcAmGrCompDef
  3
DesignerAssemblies
 90
     1024
 91
        0
280
     0
281
     0
  0
CLASS
  1
ACCMCONTEXT
  2
AcCmContext
  3
DesignerAssemblies
 90
     1024
 91
        0
280
     0
281
     0
  0
CLASS
  1
ACAMCOMPDEF
  2
AcAmCompDef
  3
DesignerAssemblies
 90
     1024
 91
        0
280
     0
281
     0
  0
CLASS
  1
ACAMCOMPDEFMGR
  2
AcAmCompDefMgr
  3
DesignerAssemblies
 90
     1024
 91
        0
280
     0
281
     0
  0
CLASS
  1
AMCONTEXTMGR
  2
AcAmContextMgr
  3
DesignerAssemblies
 90
     1024
 91
        0
280
     0
281
     0
  0
CLASS
  1
ACAMCONTEXTMODELER
  2
AcAmContextModeler
  3
DesignerAssemblies
 90
     1024
 91
        0
280
     0
281
     0
  0
CLASS
  1
ACMDATADICTIONARY
  2
AcmDataDictionary
  3
"AcmSymBB|Product Description: AutoCAD Mechanical|Company: Autodesk, Inc."
 90
     1024
 91
        0
280
     0
281
     0
  0
CLASS
  1
ACMDATAENTRYBLOCK
  2
AcmDataEntryBlock
  3
AcmSymBB|Product Description: AutoCAD Mechanical|Company: Autodesk, Inc.
 90
     1024
 91
        0
280
     0
281
     0
  0
CLASS
  1
CATALOGSTATE
  2
AcAmCatalogState
  3
DesignerAssemblies
 90
     1024
 91
        0
280
     0
281
     0
  0
CLASS
  1
ACAMGRCOMPDEFSET
  2
AcAmGrCompDefSet
  3
DesignerAssemblies
 90
     1024
 91
        0
280
     0
281
     0
  0
CLASS
  1
AMDTBROWSERDBTAB
  2
AmdtBrowserDbTab
  3
McadcomServices
 90
     1024
 91
        0
280
     0
281
     0
  0
CLASS
  1
CBROWSERAPPOBJECT
  2
CBrowserAppObject
  3
McadcomServices
 90
     1024
 91
        0
280
     0
281
     0
  0
CLASS
  1
DM_PLACEHOLDER
  2
AcDmSelsetPlaceholder
  3
AcMechDwgViewMgmt
 90
     1024
 91
        0
280
     0
281
     0
  0
CLASS
  1
ACMSTANDARDANSI
  2
AcmStandardANSI
  3
"Amdt_StdImp|Product Description: AutoCAD Mechanical|Company: Autodesk, Inc."
 90
     1024
 91
        0
280
     0
281
     0
  0
CLASS
  1
AMGOBJPROPCFG
  2
AmgObjPropCfg
  3
"AmgLay|Product Description: AutoCAD Mechanical|Company: Autodesk, Inc."
 90
     1025
 91
        0
280
     0
281
     0
  0
CLASS
  1
ACMSURFSTANDARDANSI
  2
AcmSurfTextStdANSI
  3
"Amdt_StdImp|Product Description: AutoCAD Mechanical|Company: Autodesk, Inc."
 90
     1024
 91
        0
280
     0
281
     0
  0
CLASS
  1
ACMFCFSTANDARDANSI
  2
AcmFCFStdANSI
  3
"Amdt_StdImp|Product Description: AutoCAD Mechanical|Company: Autodesk, Inc."
 90
     1024
 91
        0
280
     0
281
     0
  0
CLASS
  1
ACMWELDSTANDARDANSI
  2
AcmWeldingStdANSI
  3
"Amdt_StdImp|Product Description: AutoCAD Mechanical|Company: Autodesk, Inc."
 90
     1024
 91
        0
280
     0
281
     0
  0
CLASS
  1
ACMIDSTANDARDANSI
  2
AcmIdStdANSI
  3
"Amdt_StdImp|Product Description: AutoCAD Mechanical|Company: Autodesk, Inc."
 90
     1024
 91
        0
280
     0
281
     0
  0
CLASS
  1
ACMDATUMSTANDARDANSI
  2
AcmDatumStdANSI
  3
"Amdt_StdImp|Product Description: AutoCAD Mechanical|Company: Autodesk, Inc."
 90
     1024
 91
        0
280
     0
281
     0
  0
CLASS
  1
ACMBOMSTANDARDANSI
  2
AcmBOMStdANSI
  3
"Amdt_StdImp|Product Description: AutoCAD Mechanical|Company: Autodesk, Inc."
 90
     1024
 91
        0
280
     0
281
     0
  0
CLASS
  1
ACMDETAILSTANDARDANSI
  2
AmdtDetailSymStdANSI
  3
"Amdt_StdImp|Product Description: AutoCAD Mechanical|Company: Autodesk, Inc."
 90
     1024
 91
        0
280
     0
281
     0
  0
CLASS
  1
ACMSECTIONSTANDARDANSI
  2
AmdtSectionSymStdANSI
  3
"Amdt_StdImp|Product Description: AutoCAD Mechanical|Company: Autodesk, Inc."
 90
     1024
 91
        0
280
     0
281
     0
  0
CLASS
  1
ACMCENTERLINESTANDARDANSI
  2
AmdtCenterLineStdANSI
  3
"Amdt_StdImp|Product Description: AutoCAD Mechanical|Company: Autodesk, Inc."
 90
     1024
 91
        0
280
     0
281
     0
  0
CLASS
  1
ACMTHREADLINESTANDARDANSI
  2
AmdtThreadLineStdANSI
  3
"Amdt_StdImp|Product Description: AutoCAD Mechanical|Company: Autodesk, Inc."
 90
     1024
 91
        0
280
     0
281
     0
  0
CLASS
  1
ACMNOTESTANDARDANSI
  2
AmdtNoteStdANSI
  3
"Amdt_StdImp|Product Description: AutoCAD Mechanical|Company: Autodesk, Inc."
 90
     1024
 91
        0
280
     0
281
     0
  0
CLASS
  1
AMDTNOTETEMPLATEDB
  2
AmdtNoteTemplateDB
  3
AcmSymBB|Product Description: AutoCAD Mechanical|Company: Autodesk, Inc.
 90
     1024
 91
        0
280
     0
281
     0
  0
CLASS
  1
ACAMGLAYSTD
  2
AcAmgLayStd
  3
"AmgLay|Product Description: AutoCAD Mechanical|Company: Autodesk, Inc."
 90
     1024
 91
        0
280
     0
281
     0
  0
CLASS
  1
ACAMGDIMSTD
  2
AcAmgDimStd
  3
"AmgDim|Product Description: AutoCAD Mechanical|Company: Autodesk, Inc."
 90
     1024
 91
        0
280
     0
281
     0
  0
CLASS
  1
ACAMGHOLECHARTSTDANSI
  2
AcAmgHoleChartStdANSI
  3
AmgDim|Product Description: AutoCAD Mechanical|Company: Autodesk, Inc.
 90
     1024
 91
        0
280
     0
281
     0
  0
CLASS
  1
ACAMGTITLESTD
  2
AcAmgTitleStd
  3
"AmgTitle|Product Description: AutoCAD Mechanical|Company: Autodesk, Inc."
 90
     4095
 91
        0
280
     0
281
     0
  0
CLASS
  1
LAYER_INDEX
  2
AcDbLayerIndex
  3
ObjectDBX Classes
 90
        0
 91
        1
280
     0
281
     0
  0
CLASS
  1
IDBUFFER
  2
AcDbIdBuffer
  3
ObjectDBX Classes
 90
        0
 91
       13
280
     0
281
     0
  0
CLASS
  1
ACAMGFILTERDAT
  2
AcAmgFilterDat
  3
"AcadM|Product Description: AutoCAD Mechanical|Company: Autodesk, Inc."
 90
     1024
 91
        6
280
     0
281
     0
  0
CLASS
  1
MATERIAL
  2
AcDbMaterial
  3
ObjectDBX Classes
 90
     1153
 91
        3
280
     0
281
     0
  0
CLASS
  1
VISUALSTYLE
  2
AcDbVisualStyle
  3
ObjectDBX Classes
 90
     4095
 91
       26
280
     0
281
     0
  0
CLASS
  1
SCALE
  2
AcDbScale
  3
ObjectDBX Classes
 90
     1153
 91
       33
280
     0
281
     0
  0
CLASS
  1
MLEADERSTYLE
  2
AcDbMLeaderStyle
  3
ACDB_MLEADERSTYLE_CLASS
 90
     4095
 91
        1
280
     0
281
     0
  0
CLASS
  1
CELLSTYLEMAP
  2
AcDbCellStyleMap
  3
ObjectDBX Classes
 90
     1152
 91
        1
280
     0
281
     0
  0
CLASS
  1
ACDBSECTIONVIEWSTYLE
  2
AcDbSectionViewStyle
  3
ObjectDBX Classes
 90
     1025
 91
        1
280
     0
281
     0
  0
CLASS
  1
ACDBDETAILVIEWSTYLE
  2
AcDbDetailViewStyle
  3
ObjectDBX Classes
 90
     1025
 91
        1
280
     0
281
     0
  0
CLASS
  1
SORTENTSTABLE
  2
AcDbSortentsTable
  3
ObjectDBX Classes
 90
        0
 91
        1
280
     0
281
     0
  0
CLASS
  1
ACDB_HATCHVIEWCONTEXTDATA_CLASS
  2
AcDbHatchViewContextData
  3
ObjectDBX Classes
 90
     1153
 91
        0
280
     0
281
     0
  0
CLASS
  1
ACDB_HATCHSCALECONTEXTDATA_CLASS
  2
AcDbHatchScaleContextData
  3
ObjectDBX Classes
 90
     1153
 91
        0
280
     0
281
     0
  0
CLASS
  1
ACRFATTGENMGR
  2
AcRfAttGeneralMgr
  3
AcAttribServices
 90
     1024
 91
        0
280
     0
281
     0
  0
CLASS
  1
ACRFOBJATTMGR
  2
AcRfObjAttGroupMgr
  3
AcAttribServices
 90
     1024
 91
        0
280
     0
281
     0
  0
CLASS
  1
ACRFMCADAPIATTHOLDER
  2
AcRfMCADAPIAttHolder
  3
AcAttribServices
 90
     1024
 91
        0
280
     0
281
     0
  0
CLASS
  1
AMDTSYSATTR
  2
AmdtSystemAttribute
  3
AcAttribServices
 90
     1024
 91
        0
280
     0
281
     0
  0
CLASS
  1
ACMTAPERSTANDARDANSI
  2
AcmTaperStdANSI
  3
"Amdt_StdImp|Product Description: AutoCAD Mechanical|Company: Autodesk, Inc."
 90
     1024
 91
        0
280
     0
281
     0
  0
CLASS
  1
ACMANOOTATIONVIEWSTANDARDANSI
  2
AmdtAnViewStdANSI
  3
"Amdt_StdImp|Product Description: AutoCAD Mechanical|Company: Autodesk, Inc."
 90
     1024
 91
        0
280
     0
281
     0
  0
ENDSEC
  0
SECTION
  2
TABLES
  0
TABLE
  2
VPORT
  5
849
330
0
100
AcDbSymbolTable
 70
     1
  0
VPORT
  5
1707
330
849
100
AcDbSymbolTableRecord
100
AcDbViewportTableRecord
  2
*Active
 70
     0
 10
0.0
 20
0.0
 11
1.0
 21
1.0
 12
291.8765945613609
 22
-206.382581327538
 13
0.0
 23
0.0
 14
1.0
 24
1.0
 15
0.0
 25
0.0
 16
0.0
 26
0.0
 36
1.0
 17
-1734.563517826168
 27
1431.406904293217
 37
0.0
 40
2816.763508066739
 41
1.343366778149386
 42
50.0
 43
0.0
 44
0.0
 50
0.0
 51
0.0
 71
     0
 72
   100
 73
     1
 74
     0
 75
     0
 76
     0
 77
     0
 78
     0
281
     0
 65
     0
110
0.0
120
0.0
130
0.0
111
1.0
121
0.0
131
0.0
112
0.0
122
1.0
132
0.0
 79
     0
146
0.0
348
1730
 60
     3
 61
     5
292
     1
282
     1
141
0.0
142
0.0
 63
   250
421
  3355443
1001
ACAD_NAV_VCDISPLAY
1070
     3
  0
ENDTAB
  0
TABLE
  2
LTYPE
  5
846
330
0
100
AcDbSymbolTable
 70
    19
  0
LTYPE
  5
854
330
846
100
AcDbSymbolTableRecord
100
AcDbLinetypeTableRecord
  2
BYBLOCK
 70
     0
  3

 72
    65
 73
     0
 40
0.0
  0
LTYPE
  5
855
330
846
100
AcDbSymbolTableRecord
100
AcDbLinetypeTableRecord
  2
BYLAYER
 70
     0
  3

 72
    65
 73
     0
 40
0.0
  0
LTYPE
  5
856
330
846
100
AcDbSymbolTableRecord
100
AcDbLinetypeTableRecord
  2
CONTINUOUS
 70
     0
  3
実線
 72
    65
 73
     0
 40
0.0
  0
LTYPE
  5
865
330
846
100
AcDbSymbolTableRecord
100
AcDbLinetypeTableRecord
  2
DASHDOT
 70
     0
  3
____ _ ____ _ ____ _ ____ _ ____ _ ____ _ ____
 72
    65
 73
     4
 40
5.5
 49
4.0
 74
     0
 49
-0.6
 74
     0
 49
0.3
 74
     0
 49
-0.6
 74
     0
  0
LTYPE
  5
F7F
330
846
100
AcDbSymbolTableRecord
100
AcDbLinetypeTableRecord
  2
HIDDEN
 70
     0
  3
Hidden __ __ __ __ __ __ __ __ __ __ __ __ __ _
 72
    65
 73
     2
 40
0.375
 49
0.25
 74
     0
 49
-0.125
 74
     0
  0
LTYPE
  5
F80
330
846
100
AcDbSymbolTableRecord
100
AcDbLinetypeTableRecord
  2
PHANTOM2
 70
     0
  3
Phantom (.5x) ___ _ _ ___ _ _ ___ _ _ ___ _ _
 72
    65
 73
     6
 40
1.25
 49
0.625
 74
     0
 49
-0.125
 74
     0
 49
0.125
 74
     0
 49
-0.125
 74
     0
 49
0.125
 74
     0
 49
-0.125
 74
     0
  0
LTYPE
  5
F81
330
846
100
AcDbSymbolTableRecord
100
AcDbLinetypeTableRecord
  2
CENTER
 70
     0
  3
Center ____ _ ____ _ ____ _ ____ _ ____ _ ____
 72
    65
 73
     4
 40
2.0
 49
1.25
 74
     0
 49
-0.25
 74
     0
 49
0.25
 74
     0
 49
-0.25
 74
     0
  0
LTYPE
  5
FD0
330
846
100
AcDbSymbolTableRecord
100
AcDbLinetypeTableRecord
  2
ASULTYPE
 70
     0
  3
実線
 72
    65
 73
     2
 40
3.0
 49
2.5
 74
     0
 49
0.5
 74
     0
  0
LTYPE
  5
FD1
330
846
100
AcDbSymbolTableRecord
100
AcDbLinetypeTableRecord
  2
ASVLTYPE
 70
     0
  3
__ __ __ __ __ __ __ __ __ __ __ __ __ __ __ __ __ __ __ __ __
 72
    65
 73
     2
 40
0.75
 49
0.5
 74
     0
 49
-0.25
 74
     0
  0
LTYPE
  5
1018
330
846
100
AcDbSymbolTableRecord
100
AcDbLinetypeTableRecord
  2
AM_ISO02W050
 70
     0
  3
__ __ __ __ __ __ __ __ __ __ __ __ __ __ __
 72
    65
 73
     2
 40
7.5
 49
6.0
 74
     0
 49
-1.5
 74
     0
  0
LTYPE
  5
1019
330
846
100
AcDbSymbolTableRecord
100
AcDbLinetypeTableRecord
  2
AM_ISO08W050
 70
     0
  3
____ . ____ . ____ . ____ . ____ . ____ . ____
 72
    65
 73
     4
 40
18.0
 49
12.0
 74
     0
 49
-1.5
 74
     0
 49
3.0
 74
     0
 49
-1.5
 74
     0
  0
LTYPE
  5
101A
330
846
100
AcDbSymbolTableRecord
100
AcDbLinetypeTableRecord
  2
AM_ISO09W050
 70
     0
  3
_____ . . _____ . . _____ . . ____ .. ____
 72
    65
 73
     6
 40
22.5
 49
12.0
 74
     0
 49
-1.5
 74
     0
 49
3.0
 74
     0
 49
-1.5
 74
     0
 49
3.0
 74
     0
 49
-1.5
 74
     0
  0
LTYPE
  5
101B
330
846
100
AcDbSymbolTableRecord
100
AcDbLinetypeTableRecord
  2
Amconstr
 70
     0
  3
_______________________
 72
    65
 73
     2
 40
9999.0
 49
9999.0
 74
     0
 49
0.0
 74
     0
  0
LTYPE
  5
101C
330
846
100
AcDbSymbolTableRecord
100
AcDbLinetypeTableRecord
  2
AM_ISO08W050x2
 70
     0
  3
__ . __ . __ . __ . __ . __
 72
    65
 73
     4
 40
9.0
 49
6.0
 74
     0
 49
-0.75
 74
     0
 49
1.5
 74
     0
 49
-0.75
 74
     0
  0
LTYPE
  5
101D
330
846
100
AcDbSymbolTableRecord
100
AcDbLinetypeTableRecord
  2
AM_ISO02W050x2
 70
     0
  3
 _ _ _ _ _ _ _ _ _ _ _ _
 72
    65
 73
     2
 40
3.75
 49
3.0
 74
     0
 49
-0.75
 74
     0
  0
LTYPE
  5
1020
330
846
100
AcDbSymbolTableRecord
100
AcDbLinetypeTableRecord
  2
Amzigzag
 70
     0
  3
/\/-/\/-/\/-/\/-/\/-/\/
 72
    65
 73
     2
 40
11.0001
 49
0.0001
 74
     4
 75
   136
340
101F
 46
0.04
 50
0.0
 44
0.0
 45
0.0
 49
-11.0
 74
     0
  0
LTYPE
  5
1021
330
846
100
AcDbSymbolTableRecord
100
AcDbLinetypeTableRecord
  2
CENTER2
 70
     0
  3
Center (.5x) ___ _ ___ _ ___ _ ___ _ ___ _ ___
 72
    65
 73
     4
 40
1.125
 49
0.75
 74
     0
 49
-0.125
 74
     0
 49
0.125
 74
     0
 49
-0.125
 74
     0
  0
LTYPE
  5
1022
330
846
100
AcDbSymbolTableRecord
100
AcDbLinetypeTableRecord
  2
HIDDEN2
 70
     0
  3
Hidden (.5x) _ _ _ _ _ _ _ _ _ _ _ _ _ _ _ _ _
 72
    65
 73
     2
 40
0.1875
 49
0.125
 74
     0
 49
-0.0625
 74
     0
  0
LTYPE
  5
1023
330
846
100
AcDbSymbolTableRecord
100
AcDbLinetypeTableRecord
  2
Amzigzag2
 70
     0
  3
/\/-/\/-/\/-/\/-/\/-/\/
 72
    65
 73
     2
 40
0.4401
 49
0.0001
 74
     4
 75
   136
340
101F
 46
0.0016
 50
0.0
 44
0.0
 45
0.0
 49
-0.4400000000000003
 74
     0
  0
LTYPE
  5
1031
330
846
100
AcDbSymbolTableRecord
100
AcDbLinetypeTableRecord
  2
ACANSTGB
 70
     0
  3
__ . . __ . .
 72
    65
 73
     6
 40
0.35433070866
 49
0.15748031496
 74
     0
 49
-0.03937007874
 74
     0
 49
0.03937007874
 74
     0
 49
-0.03937007874
 74
     0
 49
0.03937007874
 74
     0
 49
-0.03937007874
 74
     0
  0
LTYPE
  5
1032
330
846
100
AcDbSymbolTableRecord
100
AcDbLinetypeTableRecord
  2
ACANSTGL
 70
     0
  3
_ _ _ _ _
 72
    65
 73
     2
 40
0.11811023622
 49
0.07874015748
 74
     0
 49
-0.03937007874
 74
     0
  0
ENDTAB
  0
TABLE
  2
LAYER
  5
843
102
{ACAD_XDICTIONARY
360
17F3
102
}
330
0
100
AcDbSymbolTable
 70
    13
  0
LAYER
  5
851
102
{ACAD_XDICTIONARY
360
1764
102
}
330
843
100
AcDbSymbolTableRecord
100
AcDbLayerTableRecord
  2
0
 70
     0
 62
     7
  6
CONTINUOUS
370
    -3
390
B83
347
1722
  0
LAYER
  5
863
102
{ACAD_XDICTIONARY
360
1766
102
}
330
843
100
AcDbSymbolTableRecord
100
AcDbLayerTableRecord
  2
OUTLINE
 70
     0
 62
     3
  6
CONTINUOUS
370
    -3
390
B83
347
1722
  0
LAYER
  5
866
102
{ACAD_XDICTIONARY
360
1768
102
}
330
843
100
AcDbSymbolTableRecord
100
AcDbLayerTableRecord
  2
SIZE
 70
     0
 62
    30
  6
CONTINUOUS
370
    -3
390
B83
347
1722
  0
LAYER
  5
867
102
{ACAD_XDICTIONARY
360
176A
102
}
330
843
100
AcDbSymbolTableRecord
100
AcDbLayerTableRecord
  2
BASIS
 70
     0
 62
     6
  6
DASHDOT
370
    -3
390
B83
347
1722
  0
LAYER
  5
868
102
{ACAD_XDICTIONARY
360
176C
102
}
330
843
100
AcDbSymbolTableRecord
100
AcDbLayerTableRecord
  2
DETAIL
 70
     0
 62
     5
  6
CONTINUOUS
370
    -3
390
B83
347
1722
  0
LAYER
  5
869
102
{ACAD_XDICTIONARY
360
176E
102
}
330
843
100
AcDbSymbolTableRecord
100
AcDbLayerTableRecord
  2
ARRANGE
 70
     0
 62
     1
  6
CONTINUOUS
370
    -3
390
B83
347
1722
  0
LAYER
  5
86A
330
843
100
AcDbSymbolTableRecord
100
AcDbLayerTableRecord
  2
DEFPOINTS
 70
     0
 62
     7
  6
CONTINUOUS
290
     0
370
    -3
390
B83
347
1722
  0
LAYER
  5
86B
102
{ACAD_XDICTIONARY
360
1770
102
}
330
843
100
AcDbSymbolTableRecord
100
AcDbLayerTableRecord
  2
ETC
 70
     0
 62
    61
  6
CONTINUOUS
370
    -3
390
B83
347
1722
  0
LAYER
  5
86C
102
{ACAD_XDICTIONARY
360
1772
102
}
330
843
100
AcDbSymbolTableRecord
100
AcDbLayerTableRecord
  2
FIX
 70
     0
 62
    11
  6
CONTINUOUS
370
    -3
390
B83
347
1722
  0
LAYER
  5
86D
102
{ACAD_XDICTIONARY
360
1774
102
}
330
843
100
AcDbSymbolTableRecord
100
AcDbLayerTableRecord
  2
NOTE
 70
     0
 62
     4
  6
CONTINUOUS
370
    -3
390
B83
347
1722
  0
LAYER
  5
86E
102
{ACAD_XDICTIONARY
360
1776
102
}
330
843
100
AcDbSymbolTableRecord
100
AcDbLayerTableRecord
  2
SERVICESPACE
 70
     0
 62
     2
  6
DASHDOT
370
    -3
390
B83
347
1722
  0
LAYER
  5
86F
102
{ACAD_XDICTIONARY
360
1778
102
}
330
843
100
AcDbSymbolTableRecord
100
AcDbLayerTableRecord
  2
SYMBOLLINE
 70
     0
 62
    15
  6
CONTINUOUS
370
    -3
390
B83
347
1722
  0
LAYER
  5
17EC
102
{ACAD_XDICTIONARY
360
17ED
102
}
330
843
100
AcDbSymbolTableRecord
100
AcDbLayerTableRecord
  2
AM_7
 70
     0
 62
     6
  6
CENTER2
370
    25
390
B83
347
1722
  0
ENDTAB
  0
TABLE
  2
STYLE
  5
844
330
0
100
AcDbSymbolTable
 70
     4
  0
STYLE
  5
852
330
844
100
AcDbSymbolTableRecord
100
AcDbTextStyleTableRecord
  2
STANDARD
 70
     0
 40
64.0
 41
0.9
 50
0.0
 71
     0
 42
64.0
  3
SIMPLEX.shx
  4
BIGFONT.shx
  0
STYLE
  5
101F
330
844
100
AcDbSymbolTableRecord
100
AcDbTextStyleTableRecord
  2

 70
     1
 40
0.0
 41
1.0
 50
0.0
 71
     0
 42
64.0
  3
genltshp.shx
  4

  0
STYLE
  5
1024
330
844
100
AcDbSymbolTableRecord
100
AcDbTextStyleTableRecord
  2
ACANSTS
 70
     0
 40
1.0
 41
1.0
 50
0.0
 71
     0
 42
64.0
  3
romans.shx
  4
extfont.shx
  0
STYLE
  5
1030
330
844
100
AcDbSymbolTableRecord
100
AcDbTextStyleTableRecord
  2
ACANSGDT
 70
     0
 40
0.0
 41
1.0
 50
0.0
 71
     0
 42
64.0
  3
amgdt.shx
  4

  0
ENDTAB
  0
TABLE
  2
VIEW
  5
847
330
0
100
AcDbSymbolTable
 70
     3
  0
VIEW
  5
870
330
847
100
AcDbSymbolTableRecord
100
AcDbViewTableRecord
  2
ALL
 70
     0
 40
4282.619807999997
 10
0.0
 20
41.30990399999999
 41
5940.0
 11
0.0
 21
0.0
 31
1.0
 12
0.0
 22
0.0
 32
0.0
 42
50.0
 43
0.0
 44
0.0
 50
0.0
 71
     0
281
     0
 72
     0
 73
     0
348
1730
  0
ENDTAB
  0
TABLE
  2
UCS
  5
848
330
0
100
AcDbSymbolTable
 70
     0
  0
ENDTAB
  0
TABLE
  2
APPID
  5
84A
330
0
100
AcDbSymbolTable
 70
    26
  0
APPID
  5
853
330
84A
100
AcDbSymbolTableRecord
100
AcDbRegAppTableRecord
  2
ACAD
 70
     0
  0
APPID
  5
F4B
330
84A
100
AcDbSymbolTableRecord
100
AcDbRegAppTableRecord
  2
GENIUS_GENDIM_13
 70
     0
  0
APPID
  5
F4C
330
84A
100
AcDbSymbolTableRecord
100
AcDbRegAppTableRecord
  2
GENIUS_GENDTOL_13
 70
     0
  0
APPID
  5
F4D
330
84A
100
AcDbSymbolTableRecord
100
AcDbRegAppTableRecord
  2
GENIUS_GE3DTOL_13
 70
     0
  0
APPID
  5
F50
330
84A
100
AcDbSymbolTableRecord
100
AcDbRegAppTableRecord
  2
MCAD_NO_VIS
 70
     0
  0
APPID
  5
F51
330
84A
100
AcDbSymbolTableRecord
100
AcDbRegAppTableRecord
  2
ACAD_TEMP_GRAPHIC
 70
     0
  0
APPID
  5
F83
330
84A
100
AcDbSymbolTableRecord
100
AcDbRegAppTableRecord
  2
AD_DRAW
 70
     0
  0
APPID
  5
F86
330
84A
100
AcDbSymbolTableRecord
100
AcDbRegAppTableRecord
  2
ACATTRIBSERVICES
 70
     0
  0
APPID
  5
FD2
330
84A
100
AcDbSymbolTableRecord
100
AcDbRegAppTableRecord
  2
ASURF_PCURVE_APPNAME
 70
     0
  0
APPID
  5
FD7
330
84A
100
AcDbSymbolTableRecord
100
AcDbRegAppTableRecord
  2
AMG_3D2D_5.0
 70
     0
  0
APPID
  5
1008
330
84A
100
AcDbSymbolTableRecord
100
AcDbRegAppTableRecord
  2
DESIGNERASSEMBLIES
 70
     0
  0
APPID
  5
100F
330
84A
100
AcDbSymbolTableRecord
100
AcDbRegAppTableRecord
  2
ACADM_DIM_EDIT
 70
     0
  0
APPID
  5
1010
330
84A
100
AcDbSymbolTableRecord
100
AcDbRegAppTableRecord
  2
AMDT_DM_ADJ
 70
     0
  0
APPID
  5
103F
330
84A
100
AcDbSymbolTableRecord
100
AcDbRegAppTableRecord
  2
ACAD_DSTYLE_DIMARC_LENGTH_SYMBOL
 70
     0
  0
APPID
  5
1040
330
84A
100
AcDbSymbolTableRecord
100
AcDbRegAppTableRecord
  2
ACAD_DSTYLE_DIMJOGGED_JOGANGLE_SYMBOL
 70
     0
  0
APPID
  5
1418
330
84A
100
AcDbSymbolTableRecord
100
AcDbRegAppTableRecord
  2
ACAD_PSEXT
 70
     0
  0
APPID
  5
175F
330
84A
100
AcDbSymbolTableRecord
100
AcDbRegAppTableRecord
  2
ACAD_MLEADERVER
 70
     0
  0
APPID
  5
17F0
330
84A
100
AcDbSymbolTableRecord
100
AcDbRegAppTableRecord
  2
ACAD_DSTYLE_DIMJAG
 70
     0
  0
APPID
  5
17F1
330
84A
100
AcDbSymbolTableRecord
100
AcDbRegAppTableRecord
  2
ACAD_DSTYLE_DIMTALN
 70
     0
  0
APPID
  5
17F2
330
84A
100
AcDbSymbolTableRecord
100
AcDbRegAppTableRecord
  2
ACAD_NAV_VCDISPLAY
 70
     0
  0
APPID
  5
1EE7
330
84A
100
AcDbSymbolTableRecord
100
AcDbRegAppTableRecord
  2
AcadAnnotative
 70
     0
  0
APPID
  5
1EE8
330
84A
100
AcDbSymbolTableRecord
100
AcDbRegAppTableRecord
  2
GradientColor1ACI
 70
     0
  0
APPID
  5
1EE9
330
84A
100
AcDbSymbolTableRecord
100
AcDbRegAppTableRecord
  2
GradientColor2ACI
 70
     0
  0
APPID
  5
4533
330
84A
100
AcDbSymbolTableRecord
100
AcDbRegAppTableRecord
  2
GENIUS_GENSCREG_15
 70
     0
  0
APPID
  5
4534
330
84A
100
AcDbSymbolTableRecord
100
AcDbRegAppTableRecord
  2
GENIUS_GENODEF_13
 70
     0
  0
APPID
  5
4535
330
84A
100
AcDbSymbolTableRecord
100
AcDbRegAppTableRecord
  2
GENIUS_GENOBJ-N-SDF_13
 70
     0
  0
ENDTAB
  0
TABLE
  2
DIMSTYLE
  5
84B
330
0
100
AcDbSymbolTable
 70
     9
100
AcDbDimStyleTable
 71
     2
340
103E
340
871
  0
DIMSTYLE
105
871
330
84B
100
AcDbSymbolTableRecord
100
AcDbDimStyleTableRecord
  2
STANDARD
 70
     0
275
     1
284
     8
285
     8
286
     8
340
852
  0
DIMSTYLE
105
103E
330
84B
100
AcDbSymbolTableRecord
100
AcDbDimStyleTableRecord
  2
AM_ANSI
 70
     0
  4
mm
 41
0.12
 42
0.05
 43
0.5
 44
0.1
 47
0.1
 48
0.1
 78
     7
 79
     2
 90
     1
140
0.12
141
0.0
146
0.71
147
0.06
176
   256
177
   256
178
     2
274
     4
284
     7
340
852
345
854
346
854
347
854
371
    -1
372
    -1
1001
ACAD_DSTYLE_DIMJOGGED_JOGANGLE_SYMBOL
1070
   384
1040
0.7853981633974483
  0
DIMSTYLE
105
1047
330
84B
100
AcDbSymbolTableRecord
100
AcDbDimStyleTableRecord
  2
AM_ANSI$3
 70
     0
  4
mm
 41
0.12
 42
0.05
 43
0.5
 44
0.1
 47
0.1
 48
0.1
 78
     7
 79
     2
 90
     1
140
0.12
141
0.0
146
0.71
147
0.06
176
   256
177
   256
178
     2
274
     4
284
     7
288
     1
289
     0
340
852
345
854
346
854
347
854
371
    -1
372
    -1
1001
ACAD_DSTYLE_DIMJOGGED_JOGANGLE_SYMBOL
1070
   384
1040
0.7853981633974483
  0
DIMSTYLE
105
104A
330
84B
100
AcDbSymbolTableRecord
100
AcDbDimStyleTableRecord
  2
AM_ANSI$4
 70
     0
  4
mm
 41
0.12
 42
0.05
 43
0.5
 44
0.1
 47
0.1
 48
0.1
 78
     7
 79
     2
 90
     1
140
0.12
141
0.0
146
0.71
147
0.06
176
   256
177
   256
178
     2
274
     4
284
     7
340
852
345
854
346
854
347
854
371
    -1
372
    -1
1001
ACAD_DSTYLE_DIMJOGGED_JOGANGLE_SYMBOL
1070
   384
1040
0.7853981633974483
  0
DIMSTYLE
105
104F
330
84B
100
AcDbSymbolTableRecord
100
AcDbDimStyleTableRecord
  2
AM_ANSI$7
 70
     0
  4
mm
 41
0.12
 42
0.05
 43
0.5
 44
0.1
 47
0.1
 48
0.1
 78
     7
 79
     2
 90
     1
140
0.12
141
0.0
146
0.71
147
0.06
176
   256
177
   256
178
     2
274
     4
284
     7
340
852
345
854
346
854
347
854
371
    -1
372
    -1
1001
ACAD_DSTYLE_DIMJOGGED_JOGANGLE_SYMBOL
1070
   384
1040
0.7853981633974483
  0
DIMSTYLE
105
1052
330
84B
100
AcDbSymbolTableRecord
100
AcDbDimStyleTableRecord
  2
AM_ANSI$SF
 70
     0
  4
mm
 41
0.12
 42
0.05
 43
0.5
 44
0.1
 47
0.1
 48
0.1
 75
     1
 76
     1
 78
     7
 79
     2
 90
     1
140
0.12
141
0.0
146
0.71
147
0.06
176
   256
177
   256
178
     2
274
     4
284
     7
340
852
345
854
346
854
347
854
371
    -1
372
    -1
1001
ACAD_DSTYLE_DIMJOGGED_JOGANGLE_SYMBOL
1070
   384
1040
0.7853981633974483
  0
DIMSTYLE
105
1059
330
84B
100
AcDbSymbolTableRecord
100
AcDbDimStyleTableRecord
  2
AM_ANSI$SH
 70
     0
  4
mm
 41
0.12
 42
0.05
 43
0.5
 44
0.1
 47
0.1
 48
0.1
 75
     1
 76
     1
 78
     7
 79
     2
 90
     1
140
0.12
141
0.0
146
0.71
147
0.06
173
     1
176
   256
177
   256
178
     2
274
     4
284
     7
340
852
343
1053
345
854
346
854
347
854
371
    -1
372
    -1
1001
ACAD_DSTYLE_DIMJOGGED_JOGANGLE_SYMBOL
1070
   384
1040
0.7853981633974483
  0
DIMSTYLE
105
17EE
330
84B
100
AcDbSymbolTableRecord
100
AcDbDimStyleTableRecord
  2
STANDARD1
 70
     0
 40
6.0
 41
2.5
 42
0.625
 43
6.0
 44
1.25
 47
1.0
 48
0.5
 77
     1
 78
     8
140
2.5
141
0.0
146
0.6
147
1.0
173
     1
284
     1
340
852
341
EE8
343
EE8
344
EE8
  0
DIMSTYLE
105
17EF
102
{ACAD_REACTORS
330
3AF2
330
3AF3
330
3AF4
330
3AF5
330
3AF6
330
4700
330
470B
330
46FC
330
46FD
330
46FE
330
46FF
102
}
330
84B
100
AcDbSymbolTableRecord
100
AcDbDimStyleTableRecord
  2
STANDARD$0
 70
     0
 41
12.0
 42
20.0
 44
20.0
 73
     0
 74
     0
 77
     1
 78
     8
140
64.0
141
0.0
147
10.0
172
     1
275
     1
284
     8
285
     8
286
     8
340
852
341
EE8
342
AB2
1001
ACAD_DSTYLE_DIMJAG
1070
   388
1040
1.5
1001
ACAD_DSTYLE_DIMTALN
1070
   392
1070
     0
  0
ENDTAB
  0
TABLE
  2
BLOCK_RECORD
  5
842
330
0
100
AcDbSymbolTable
 70
   173
  0
BLOCK_RECORD
  5
85F
102
{ACAD_XDICTIONARY
360
B4F
102
}
330
842
100
AcDbSymbolTableRecord
100
AcDbBlockTableRecord
  2
*MODEL_SPACE
340
B84
 70
     0
280
     1
281
     0
  0
BLOCK_RECORD
  5
85B
102
{ACAD_XDICTIONARY
360
B4D
102
}
330
842
100
AcDbSymbolTableRecord
100
AcDbBlockTableRecord
  2
*PAPER_SPACE
340
B85
 70
     0
280
     1
281
     0
  0
BLOCK_RECORD
  5
AB2
330
842
100
AcDbSymbolTableRecord
100
AcDbBlockTableRecord
  2
_DOTBLANK
340
0
102
{BLKREFS
331
39A1
331
39A2
331
39AF
331
39B0
331
39BB
331
39BC
331
39C7
331
39C8
331
39D3
331
39D4
331
4759
331
475A
331
4762
331
4763
331
476B
331
476C
331
4774
331
4775
331
477D
331
477E
331
4788
331
4789
102
}
 70
     0
280
     1
281
     0
  0
BLOCK_RECORD
  5
EE8
330
842
100
AcDbSymbolTableRecord
100
AcDbBlockTableRecord
  2
_Open30
340
0
 70
     0
280
     1
281
     0
  0
BLOCK_RECORD
  5
1053
330
842
100
AcDbSymbolTableRecord
100
AcDbBlockTableRecord
  2
GENAXEH
340
0
 70
     0
280
     1
281
     0
  0
BLOCK_RECORD
  5
399C
330
842
100
AcDbSymbolTableRecord
100
AcDbBlockTableRecord
  2
*D119
340
0
 70
     0
280
     1
281
     0
  0
BLOCK_RECORD
  5
39A8
330
842
100
AcDbSymbolTableRecord
100
AcDbBlockTableRecord
  2
*D120
340
0
 70
     0
280
     1
281
     0
  0
BLOCK_RECORD
  5
39B6
330
842
100
AcDbSymbolTableRecord
100
AcDbBlockTableRecord
  2
*D121
340
0
 70
     0
280
     1
281
     0
  0
BLOCK_RECORD
  5
39C2
330
842
100
AcDbSymbolTableRecord
100
AcDbBlockTableRecord
  2
*D122
340
0
 70
     0
280
     1
281
     0
  0
BLOCK_RECORD
  5
39CE
330
842
100
AcDbSymbolTableRecord
100
AcDbBlockTableRecord
  2
*D123
340
0
 70
     0
280
     1
281
     0
  0
BLOCK_RECORD
  5
39DA
102
{ACAD_XDICTIONARY
360
3AFF
102
}
330
842
100
AcDbSymbolTableRecord
100
AcDbBlockTableRecord
  2
A$C14FA2CA8
340
0
 70
     0
280
     1
281
     0
  0
BLOCK_RECORD
  5
470C
330
842
100
AcDbSymbolTableRecord
100
AcDbBlockTableRecord
  2
*D167
340
0
 70
     0
280
     1
281
     0
  0
BLOCK_RECORD
  5
4718
330
842
100
AcDbSymbolTableRecord
100
AcDbBlockTableRecord
  2
*D168
340
0
 70
     0
280
     1
281
     0
  0
BLOCK_RECORD
  5
4724
330
842
100
AcDbSymbolTableRecord
100
AcDbBlockTableRecord
  2
*D169
340
0
 70
     0
280
     1
281
     0
  0
BLOCK_RECORD
  5
4730
330
842
100
AcDbSymbolTableRecord
100
AcDbBlockTableRecord
  2
*D170
340
0
 70
     0
280
     1
281
     0
  0
BLOCK_RECORD
  5
473C
330
842
100
AcDbSymbolTableRecord
100
AcDbBlockTableRecord
  2
*D171
340
0
 70
     0
280
     1
281
     0
  0
BLOCK_RECORD
  5
4748
330
842
100
AcDbSymbolTableRecord
100
AcDbBlockTableRecord
  2
*D172
340
0
 70
     0
280
     1
281
     0
  0
ENDTAB
  0
ENDSEC
  0
SECTION
  2
BLOCKS
  0
BLOCK
  5
860
330
85F
100
AcDbEntity
  8
0
100
AcDbBlockBegin
  2
*MODEL_SPACE
 70
     0
 10
0.0
 20
0.0
 30
0.0
  3
*MODEL_SPACE
  1

  0
ENDBLK
  5
861
330
85F
100
AcDbEntity
  8
0
100
AcDbBlockEnd
  0
BLOCK
  5
85C
330
85B
100
AcDbEntity
 67
     1
  8
0
100
AcDbBlockBegin
  2
*PAPER_SPACE
 70
     0
 10
0.0
 20
0.0
 30
0.0
  3
*PAPER_SPACE
  1

  0
ENDBLK
  5
85D
330
85B
100
AcDbEntity
 67
     1
  8
0
100
AcDbBlockEnd
  0
BLOCK
  5
AB5
330
AB2
100
AcDbEntity
  8
0
 62
     1
100
AcDbBlockBegin
  2
_DOTBLANK
 70
     0
 10
0.0
 20
0.0
 30
0.0
  3
_DOTBLANK
  1

  0
CIRCLE
  5
AB3
330
AB2
100
AcDbEntity
  8
0
  6
ByBlock
 62
     0
100
AcDbCircle
 10
0.0
 20
0.0
 30
0.0
 40
0.5
  0
LINE
  5
AB4
330
AB2
100
AcDbEntity
  8
0
  6
ByBlock
 62
     0
100
AcDbLine
 10
-0.5
 20
0.0
 30
0.0
 11
-1.0
 21
0.0
 31
0.0
  0
ENDBLK
  5
AB6
330
AB2
100
AcDbEntity
  8
0
 62
     1
100
AcDbBlockEnd
  0
BLOCK
  5
EEC
330
EE8
100
AcDbEntity
  8
0
100
AcDbBlockBegin
  2
_Open30
 70
     0
 10
0.0
 20
0.0
 30
0.0
  3
_Open30
  1

  0
LINE
  5
EE9
330
EE8
100
AcDbEntity
  8
0
  6
ByBlock
 62
     0
370
    -2
100
AcDbLine
 10
-1.0
 20
0.26794919
 30
0.0
 11
0.0
 21
0.0
 31
0.0
  0
LINE
  5
EEA
330
EE8
100
AcDbEntity
  8
0
  6
ByBlock
 62
     0
370
    -2
100
AcDbLine
 10
0.0
 20
0.0
 30
0.0
 11
-1.0
 21
-0.26794919
 31
0.0
  0
LINE
  5
EEB
330
EE8
100
AcDbEntity
  8
0
  6
ByBlock
 62
     0
370
    -2
100
AcDbLine
 10
0.0
 20
0.0
 30
0.0
 11
-1.0
 21
0.0
 31
0.0
  0
ENDBLK
  5
EED
330
EE8
100
AcDbEntity
  8
0
100
AcDbBlockEnd
  0
BLOCK
  5
1055
330
1053
100
AcDbEntity
  8
0
100
AcDbBlockBegin
  2
GENAXEH
 70
     0
 10
0.0
 20
0.0
 30
0.0
  3
GENAXEH
  1

  0
LINE
  5
1054
330
1053
100
AcDbEntity
  8
0
100
AcDbLine
 10
-1.0
 20
0.0
 30
0.0
 11
1.0
 21
0.0
 31
0.0
  0
ENDBLK
  5
1056
330
1053
100
AcDbEntity
  8
0
100
AcDbBlockEnd
  0
BLOCK
  5
399D
330
399C
100
AcDbEntity
  8
0
100
AcDbBlockBegin
  2
*D119
 70
     1
 10
0.0
 20
0.0
 30
0.0
  3
*D119
  1

  0
LINE
  5
399E
330
399C
100
AcDbEntity
  8
SIZE
 62
     0
440
 16777216
370
    -2
100
AcDbLine
 10
-22712.60713069438
 20
-1170.805037422388
 30
0.0
 11
-22712.60713069438
 21
-993.6305454892554
 31
0.0
  0
LINE
  5
399F
330
399C
100
AcDbEntity
  8
SIZE
 62
     0
440
 16777216
370
    -2
100
AcDbLine
 10
-22602.60713069438
 20
-1170.805037422388
 30
0.0
 11
-22602.60713069438
 21
-993.6305454892554
 31
0.0
  0
LINE
  5
39A0
330
399C
100
AcDbEntity
  8
SIZE
 62
     0
440
 16777216
370
    -2
100
AcDbLine
 10
-22700.60713069438
 20
-1013.630545489255
 30
0.0
 11
-22614.60713069438
 21
-1013.630545489255
 31
0.0
  0
INSERT
  5
39A1
330
399C
100
AcDbEntity
  8
SIZE
 62
     0
440
 16777216
370
    -2
100
AcDbBlockReference
  2
_DOTBLANK
 10
-22712.60713069438
 20
-1013.630545489255
 30
0.0
 41
12.0
 42
12.0
 43
12.0
 50
180.0
  0
INSERT
  5
39A2
330
399C
100
AcDbEntity
  8
SIZE
 62
     0
440
 16777216
370
    -2
100
AcDbBlockReference
  2
_DOTBLANK
 10
-22602.60713069438
 20
-1013.630545489255
 30
0.0
 41
12.0
 42
12.0
 43
12.0
  0
MTEXT
  5
39A3
330
399C
100
AcDbEntity
  8
SIZE
 62
     0
440
 16777216
100
AcDbMText
 10
-22657.60713069438
 20
-971.6305454892554
 30
0.0
 40
64.0
 41
0.0
 46
0.0
 71
     5
 72
     1
  1
\A1;110
 73
     1
 44
1.0
  0
POINT
  5
39A4
330
399C
100
AcDbEntity
  8
DEFPOINTS
 62
     0
440
 16777216
100
AcDbPoint
 10
-22712.60713069438
 20
-1190.805037422388
 30
0.0
  0
POINT
  5
39A5
330
399C
100
AcDbEntity
  8
DEFPOINTS
 62
     0
440
 16777216
100
AcDbPoint
 10
-22602.60713069438
 20
-1190.805037422388
 30
0.0
  0
POINT
  5
39A6
330
399C
100
AcDbEntity
  8
DEFPOINTS
 62
     0
440
 16777216
100
AcDbPoint
 10
-22602.60713069438
 20
-1013.630545489255
 30
0.0
  0
ENDBLK
  5
39A7
330
399C
100
AcDbEntity
  8
0
100
AcDbBlockEnd
  0
BLOCK
  5
39A9
330
39A8
100
AcDbEntity
  8
0
100
AcDbBlockBegin
  2
*D120
 70
     1
 10
0.0
 20
0.0
 30
0.0
  3
*D120
  1

  0
LINE
  5
39AA
330
39A8
100
AcDbEntity
  8
SIZE
 62
     0
440
 16777216
370
    -2
100
AcDbLine
 10
-22712.60713069438
 20
-1170.805037422388
 30
0.0
 11
-22712.60713069438
 21
-993.6305454892554
 31
0.0
  0
LINE
  5
39AB
330
39A8
100
AcDbEntity
  8
SIZE
 62
     0
440
 16777216
370
    -2
100
AcDbLine
 10
-22735.60713069438
 20
-1201.805037422388
 30
0.0
 11
-22735.60713069438
 21
-993.6305454892554
 31
0.0
  0
LINE
  5
39AC
330
39A8
100
AcDbEntity
  8
SIZE
 62
     0
440
 16777216
370
    -2
100
AcDbLine
 10
-22700.60713069438
 20
-1013.630545489255
 30
0.0
 11
-22688.60713069438
 21
-1013.630545489255
 31
0.0
  0
LINE
  5
39AD
330
39A8
100
AcDbEntity
  8
SIZE
 62
     0
440
 16777216
370
    -2
100
AcDbLine
 10
-22747.60713069438
 20
-1013.630545489255
 30
0.0
 11
-22872.86427355152
 21
-1013.630545489255
 31
0.0
  0
LINE
  5
39AE
330
39A8
100
AcDbEntity
  8
SIZE
 62
     0
440
 16777216
370
    -2
100
AcDbLine
 10
-22712.60713069438
 20
-1013.630545489255
 30
0.0
 11
-22735.60713069438
 21
-1013.630545489255
 31
0.0
  0
INSERT
  5
39AF
330
39A8
100
AcDbEntity
  8
SIZE
 62
     0
440
 16777216
370
    -2
100
AcDbBlockReference
  2
_DOTBLANK
 10
-22712.60713069438
 20
-1013.630545489255
 30
0.0
 41
12.0
 42
12.0
 43
12.0
 50
180.0
  0
INSERT
  5
39B0
330
39A8
100
AcDbEntity
  8
SIZE
 62
     0
440
 16777216
370
    -2
100
AcDbBlockReference
  2
_DOTBLANK
 10
-22735.60713069438
 20
-1013.630545489255
 30
0.0
 41
12.0
 42
12.0
 43
12.0
  0
MTEXT
  5
39B1
330
39A8
100
AcDbEntity
  8
SIZE
 62
     0
440
 16777216
100
AcDbMText
 10
-22816.23570212296
 20
-971.6305454892554
 30
0.0
 40
64.0
 41
0.0
 46
0.0
 71
     5
 72
     1
  1
\A1;23
 73
     1
 44
1.0
  0
POINT
  5
39B2
330
39A8
100
AcDbEntity
  8
DEFPOINTS
 62
     0
440
 16777216
100
AcDbPoint
 10
-22712.60713069438
 20
-1190.805037422388
 30
0.0
  0
POINT
  5
39B3
330
39A8
100
AcDbEntity
  8
DEFPOINTS
 62
     0
440
 16777216
100
AcDbPoint
 10
-22735.60713069438
 20
-1221.805037422388
 30
0.0
  0
POINT
  5
39B4
330
39A8
100
AcDbEntity
  8
DEFPOINTS
 62
     0
440
 16777216
100
AcDbPoint
 10
-22735.60713069438
 20
-1013.630545489255
 30
0.0
  0
ENDBLK
  5
39B5
330
39A8
100
AcDbEntity
  8
0
100
AcDbBlockEnd
  0
BLOCK
  5
39B7
330
39B6
100
AcDbEntity
  8
0
100
AcDbBlockBegin
  2
*D121
 70
     1
 10
0.0
 20
0.0
 30
0.0
  3
*D121
  1

  0
LINE
  5
39B8
330
39B6
100
AcDbEntity
  8
SIZE
 62
     0
440
 16777216
370
    -2
100
AcDbLine
 10
-22755.60713069438
 20
-1225.805037422388
 30
0.0
 11
-22825.08363471781
 21
-1225.805037422388
 31
0.0
  0
LINE
  5
39B9
330
39B6
100
AcDbEntity
  8
SIZE
 62
     0
440
 16777216
370
    -2
100
AcDbLine
 10
-22755.60713069438
 20
-1555.805037422389
 30
0.0
 11
-22825.08363471781
 21
-1555.805037422389
 31
0.0
  0
LINE
  5
39BA
330
39B6
100
AcDbEntity
  8
SIZE
 62
     0
440
 16777216
370
    -2
100
AcDbLine
 10
-22805.08363471781
 20
-1237.805037422388
 30
0.0
 11
-22805.08363471781
 21
-1543.805037422389
 31
0.0
  0
INSERT
  5
39BB
330
39B6
100
AcDbEntity
  8
SIZE
 62
     0
440
 16777216
370
    -2
100
AcDbBlockReference
  2
_DOTBLANK
 10
-22805.08363471781
 20
-1225.805037422388
 30
0.0
 41
12.0
 42
12.0
 43
12.0
 50
90.0
  0
INSERT
  5
39BC
330
39B6
100
AcDbEntity
  8
SIZE
 62
     0
440
 16777216
370
    -2
100
AcDbBlockReference
  2
_DOTBLANK
 10
-22805.08363471781
 20
-1555.805037422389
 30
0.0
 41
12.0
 42
12.0
 43
12.0
 50
270.0
  0
MTEXT
  5
39BD
330
39B6
100
AcDbEntity
  8
SIZE
 62
     0
440
 16777216
100
AcDbMText
 10
-22847.08363471781
 20
-1390.805037422392
 30
0.0
 40
64.0
 41
0.0
 46
0.0
 71
     5
 72
     1
  1
\A1;330
 11
0.0000000000000001
 21
1.0
 31
0.0
 73
     1
 44
1.0
  0
POINT
  5
39BE
330
39B6
100
AcDbEntity
  8
DEFPOINTS
 62
     0
440
 16777216
100
AcDbPoint
 10
-22735.60713069438
 20
-1225.805037422388
 30
0.0
  0
POINT
  5
39BF
330
39B6
100
AcDbEntity
  8
DEFPOINTS
 62
     0
440
 16777216
100
AcDbPoint
 10
-22735.60713069438
 20
-1555.805037422389
 30
0.0
  0
POINT
  5
39C0
330
39B6
100
AcDbEntity
  8
DEFPOINTS
 62
     0
440
 16777216
100
AcDbPoint
 10
-22805.08363471781
 20
-1555.805037422389
 30
0.0
  0
ENDBLK
  5
39C1
330
39B6
100
AcDbEntity
  8
0
100
AcDbBlockEnd
  0
BLOCK
  5
39C3
330
39C2
100
AcDbEntity
  8
0
100
AcDbBlockBegin
  2
*D122
 70
     1
 10
0.0
 20
0.0
 30
0.0
  3
*D122
  1

  0
LINE
  5
39C4
330
39C2
100
AcDbEntity
  8
SIZE
 62
     0
440
 16777216
370
    -2
100
AcDbLine
 10
-22732.60713069438
 20
-1190.805037422388
 30
0.0
 11
-22946.92751285845
 21
-1190.805037422388
 31
0.0
  0
LINE
  5
39C5
330
39C2
100
AcDbEntity
  8
SIZE
 62
     0
440
 16777216
370
    -2
100
AcDbLine
 10
-22732.60713069438
 20
-1590.805037422388
 30
0.0
 11
-22946.92751285845
 21
-1590.805037422388
 31
0.0
  0
LINE
  5
39C6
330
39C2
100
AcDbEntity
  8
SIZE
 62
     0
440
 16777216
370
    -2
100
AcDbLine
 10
-22926.92751285846
 20
-1202.805037422388
 30
0.0
 11
-22926.92751285846
 21
-1578.805037422388
 31
0.0
  0
INSERT
  5
39C7
330
39C2
100
AcDbEntity
  8
SIZE
 62
     0
440
 16777216
370
    -2
100
AcDbBlockReference
  2
_DOTBLANK
 10
-22926.92751285846
 20
-1190.805037422388
 30
0.0
 41
12.0
 42
12.0
 43
12.0
 50
90.0
  0
INSERT
  5
39C8
330
39C2
100
AcDbEntity
  8
SIZE
 62
     0
440
 16777216
370
    -2
100
AcDbBlockReference
  2
_DOTBLANK
 10
-22926.92751285846
 20
-1590.805037422388
 30
0.0
 41
12.0
 42
12.0
 43
12.0
 50
270.0
  0
MTEXT
  5
39C9
330
39C2
100
AcDbEntity
  8
SIZE
 62
     0
440
 16777216
100
AcDbMText
 10
-22968.92751285846
 20
-1390.805037422392
 30
0.0
 40
64.0
 41
0.0
 46
0.0
 71
     5
 72
     1
  1
\A1;400
 11
0.0000000000000001
 21
1.0
 31
0.0
 73
     1
 44
1.0
  0
POINT
  5
39CA
330
39C2
100
AcDbEntity
  8
DEFPOINTS
 62
     0
440
 16777216
100
AcDbPoint
 10
-22712.60713069438
 20
-1190.805037422388
 30
0.0
  0
POINT
  5
39CB
330
39C2
100
AcDbEntity
  8
DEFPOINTS
 62
     0
440
 16777216
100
AcDbPoint
 10
-22712.60713069438
 20
-1590.805037422388
 30
0.0
  0
POINT
  5
39CC
330
39C2
100
AcDbEntity
  8
DEFPOINTS
 62
     0
440
 16777216
100
AcDbPoint
 10
-22926.92751285846
 20
-1590.805037422388
 30
0.0
  0
ENDBLK
  5
39CD
330
39C2
100
AcDbEntity
  8
0
100
AcDbBlockEnd
  0
BLOCK
  5
39CF
330
39CE
100
AcDbEntity
  8
0
100
AcDbBlockBegin
  2
*D123
 70
     1
 10
0.0
 20
0.0
 30
0.0
  3
*D123
  1

  0
LINE
  5
39D0
330
39CE
100
AcDbEntity
  8
SIZE
 62
     0
440
 16777216
370
    -2
100
AcDbLine
 10
-22582.60713069438
 20
-1555.805037422389
 30
0.0
 11
-22426.98550294656
 21
-1555.805037422389
 31
0.0
  0
LINE
  5
39D1
330
39CE
100
AcDbEntity
  8
SIZE
 62
     0
440
 16777216
370
    -2
100
AcDbLine
 10
-22582.60713069438
 20
-1225.805037422388
 30
0.0
 11
-22426.98550294656
 21
-1225.805037422388
 31
0.0
  0
LINE
  5
39D2
330
39CE
100
AcDbEntity
  8
SIZE
 62
     0
440
 16777216
370
    -2
100
AcDbLine
 10
-22446.98550294656
 20
-1543.805037422389
 30
0.0
 11
-22446.98550294656
 21
-1237.805037422388
 31
0.0
  0
INSERT
  5
39D3
330
39CE
100
AcDbEntity
  8
SIZE
 62
     0
440
 16777216
370
    -2
100
AcDbBlockReference
  2
_DOTBLANK
 10
-22446.98550294656
 20
-1555.805037422389
 30
0.0
 41
12.0
 42
12.0
 43
12.0
 50
270.0
  0
INSERT
  5
39D4
330
39CE
100
AcDbEntity
  8
SIZE
 62
     0
440
 16777216
370
    -2
100
AcDbBlockReference
  2
_DOTBLANK
 10
-22446.98550294656
 20
-1225.805037422388
 30
0.0
 41
12.0
 42
12.0
 43
12.0
 50
90.0
  0
MTEXT
  5
39D5
330
39CE
100
AcDbEntity
  8
SIZE
 62
     0
440
 16777216
100
AcDbMText
 10
-22488.98550294656
 20
-1390.805037422392
 30
0.0
 40
64.0
 41
0.0
 46
0.0
 71
     5
 72
     1
  1
\A1;330
 11
0.0000000000000001
 21
1.0
 31
0.0
 73
     1
 44
1.0
  0
POINT
  5
39D6
330
39CE
100
AcDbEntity
  8
DEFPOINTS
 62
     0
440
 16777216
100
AcDbPoint
 10
-22602.60713069438
 20
-1555.805037422389
 30
0.0
  0
POINT
  5
39D7
330
39CE
100
AcDbEntity
  8
DEFPOINTS
 62
     0
440
 16777216
100
AcDbPoint
 10
-22602.60713069438
 20
-1225.805037422388
 30
0.0
  0
POINT
  5
39D8
330
39CE
100
AcDbEntity
  8
DEFPOINTS
 62
     0
440
 16777216
100
AcDbPoint
 10
-22446.98550294656
 20
-1225.805037422388
 30
0.0
  0
ENDBLK
  5
39D9
330
39CE
100
AcDbEntity
  8
0
100
AcDbBlockEnd
  0
BLOCK
  5
3B01
330
39DA
100
AcDbEntity
  8
0
100
AcDbBlockBegin
  2
A$C14FA2CA8
 70
     0
 10
0.0
 20
0.0
 30
0.0
  3
A$C14FA2CA8
  1

  0
LINE
  5
39DB
330
39DA
100
AcDbEntity
  8
DETAIL
100
AcDbLine
 10
698.8494631398935
 20
159.0925803520949
 30
0.0
 11
709.1201537724664
 21
165.0925803520954
 31
0.0
  0
LINE
  5
39DC
330
39DA
100
AcDbEntity
  8
DETAIL
100
AcDbLine
 10
678.8494631398934
 20
159.0925803520949
 30
0.0
 11
671.1464451654609
 21
163.5925803520954
 31
0.0
  0
LINE
  5
39DD
330
39DA
100
AcDbEntity
  8
DETAIL
100
AcDbLine
 10
678.8494631398934
 20
159.0925803520949
 30
0.0
 11
698.8494631398935
 21
159.0925803520949
 31
0.0
  0
LINE
  5
39DE
330
39DA
100
AcDbEntity
  8
DETAIL
100
AcDbLine
 10
678.8494631398934
 20
571.0925803520947
 30
0.0
 11
671.1464451654648
 21
566.5925803520953
 31
0.0
  0
LINE
  5
39DF
330
39DA
100
AcDbEntity
  8
DETAIL
100
AcDbLine
 10
698.8494631398935
 20
571.0925803520947
 30
0.0
 11
709.1201537724664
 21
565.0925803520943
 31
0.0
  0
LINE
  5
39E0
330
39DA
100
AcDbEntity
  8
DETAIL
100
AcDbLine
 10
698.8494631398935
 20
571.0925803520947
 30
0.0
 11
678.8494631398934
 21
571.0925803520947
 31
0.0
  0
LINE
  5
39E1
330
39DA
100
AcDbEntity
  8
DETAIL
100
AcDbLine
 10
718.8494631398935
 20
165.0925803520949
 30
0.0
 11
718.8494631398935
 21
565.0925803520947
 31
0.0
  0
LINE
  5
39E2
330
39DA
100
AcDbEntity
  8
DETAIL
100
AcDbLine
 10
608.8494631398932
 20
165.0925803520949
 30
0.0
 11
626.8494631398935
 21
165.0925803520949
 31
0.0
  0
LINE
  5
39E3
330
39DA
100
AcDbEntity
  8
DETAIL
100
AcDbLine
 10
678.8494631398934
 20
165.0925803520949
 30
0.0
 11
718.8494631398935
 21
165.0925803520949
 31
0.0
  0
LINE
  5
39E4
330
39DA
100
AcDbEntity
  8
DETAIL
100
AcDbLine
 10
608.8494631398932
 20
165.0925803520949
 30
0.0
 11
608.8494631398932
 21
565.0925803520947
 31
0.0
  0
LINE
  5
39E5
330
39DA
100
AcDbEntity
  8
DETAIL
100
AcDbLine
 10
718.8494631398935
 20
565.0925803520947
 30
0.0
 11
678.8494631398934
 21
565.0925803520947
 31
0.0
  0
LINE
  5
39E6
330
39DA
100
AcDbEntity
  8
DETAIL
100
AcDbLine
 10
626.8494631398935
 20
565.0925803520947
 30
0.0
 11
608.8494631398932
 21
565.0925803520947
 31
0.0
  0
CIRCLE
  5
39E7
330
39DA
100
AcDbEntity
  8
DETAIL
100
AcDbCircle
 10
616.8494631398933
 20
371.842580352095
 30
0.0
 40
1.649999999999999
  0
CIRCLE
  5
39E8
330
39DA
100
AcDbEntity
  8
DETAIL
100
AcDbCircle
 10
616.8494631398933
 20
358.3425803520949
 30
0.0
 40
1.649999999999999
  0
CIRCLE
  5
39E9
330
39DA
100
AcDbEntity
  8
DETAIL
100
AcDbCircle
 10
704.8494631398931
 20
189.0925803520949
 30
0.0
 40
9.0
  0
LINE
  5
39EA
330
39DA
100
AcDbEntity
  8
DETAIL
100
AcDbLine
 10
585.8494631398935
 20
196.092580352094
 30
0.0
 11
608.8494631398932
 21
196.092580352094
 31
0.0
  0
LINE
  5
39EB
330
39DA
100
AcDbEntity
  8
DETAIL
100
AcDbLine
 10
585.8494631398935
 20
204.092580352094
 30
0.0
 11
608.8494631398932
 21
204.092580352094
 31
0.0
  0
LINE
  5
39EC
330
39DA
100
AcDbEntity
  8
DETAIL
100
AcDbLine
 10
585.8494631398935
 20
196.092580352094
 30
0.0
 11
585.8494631398935
 21
204.092580352094
 31
0.0
  0
LINE
  5
39ED
330
39DA
100
AcDbEntity
  8
DETAIL
100
AcDbLine
 10
585.8494631398935
 20
526.0925803520948
 30
0.0
 11
608.8494631398932
 21
526.0925803520948
 31
0.0
  0
LINE
  5
39EE
330
39DA
100
AcDbEntity
  8
DETAIL
100
AcDbLine
 10
585.8494631398935
 20
534.0925803520948
 30
0.0
 11
608.8494631398932
 21
534.0925803520948
 31
0.0
  0
LINE
  5
39EF
330
39DA
100
AcDbEntity
  8
DETAIL
100
AcDbLine
 10
585.8494631398935
 20
526.0925803520948
 30
0.0
 11
585.8494631398935
 21
534.0925803520948
 31
0.0
  0
LINE
  5
39F0
330
39DA
100
AcDbEntity
  8
DETAIL
100
AcDbLine
 10
688.3494631398932
 20
565.0925803520947
 30
0.0
 11
688.3494631398932
 21
565.5925803520952
 31
0.0
  0
LINE
  5
39F1
330
39DA
100
AcDbEntity
  8
DETAIL
100
AcDbLine
 10
688.3494631398932
 20
566.5925803520953
 30
0.0
 11
688.3494631398932
 21
567.0925803520947
 31
0.0
  0
LINE
  5
39F2
330
39DA
100
AcDbEntity
  8
DETAIL
100
AcDbLine
 10
683.3494631398933
 20
565.0925803520947
 30
0.0
 11
683.3494631398933
 21
565.5925803520952
 31
0.0
  0
LINE
  5
39F3
330
39DA
100
AcDbEntity
  8
DETAIL
100
AcDbLine
 10
683.3494631398933
 20
566.5925803520953
 30
0.0
 11
683.3494631398933
 21
567.0925803520947
 31
0.0
  0
LINE
  5
39F4
330
39DA
100
AcDbEntity
  8
DETAIL
100
AcDbLine
 10
683.3494631398933
 20
165.0925803520954
 30
0.0
 11
683.3494631398933
 21
164.5925803520954
 31
0.0
  0
LINE
  5
39F5
330
39DA
100
AcDbEntity
  8
DETAIL
100
AcDbLine
 10
683.3494631398933
 20
163.5925803520954
 30
0.0
 11
683.3494631398933
 21
163.0925803520954
 31
0.0
  0
LINE
  5
39F6
330
39DA
100
AcDbEntity
  8
DETAIL
100
AcDbLine
 10
688.3494631398932
 20
165.0925803520954
 30
0.0
 11
688.3494631398932
 21
164.5925803520954
 31
0.0
  0
LINE
  5
39F7
330
39DA
100
AcDbEntity
  8
DETAIL
100
AcDbLine
 10
688.3494631398932
 20
163.5925803520954
 30
0.0
 11
688.3494631398932
 21
163.0925803520954
 31
0.0
  0
LINE
  5
39F8
330
39DA
100
AcDbEntity
  8
DETAIL
100
AcDbLine
 10
681.8494631398935
 20
163.0925803520954
 30
0.0
 11
681.8494631398935
 21
162.5925803520954
 31
0.0
  0
LINE
  5
39F9
330
39DA
100
AcDbEntity
  8
DETAIL
100
AcDbLine
 10
689.8494631398935
 20
163.0925803520954
 30
0.0
 11
689.8494631398935
 21
162.5925803520954
 31
0.0
  0
LINE
  5
39FA
330
39DA
100
AcDbEntity
  8
DETAIL
100
AcDbLine
 10
681.8494631398935
 20
163.0925803520954
 30
0.0
 11
689.8494631398935
 21
163.0925803520954
 31
0.0
  0
LINE
  5
39FB
330
39DA
100
AcDbEntity
  8
DETAIL
100
AcDbLine
 10
689.8494631398935
 20
162.5925803520954
 30
0.0
 11
681.8494631398935
 21
162.5925803520954
 31
0.0
  0
LINE
  5
39FC
330
39DA
100
AcDbEntity
  8
DETAIL
100
AcDbLine
 10
689.8494631398935
 20
567.0925803520947
 30
0.0
 11
689.8494631398935
 21
567.5925803520946
 31
0.0
  0
LINE
  5
39FD
330
39DA
100
AcDbEntity
  8
DETAIL
100
AcDbLine
 10
681.8494631398935
 20
567.0925803520947
 30
0.0
 11
681.8494631398935
 21
567.5925803520946
 31
0.0
  0
LINE
  5
39FE
330
39DA
100
AcDbEntity
  8
DETAIL
100
AcDbLine
 10
689.8494631398935
 20
567.0925803520947
 30
0.0
 11
681.8494631398935
 21
567.0925803520947
 31
0.0
  0
LINE
  5
39FF
330
39DA
100
AcDbEntity
  8
DETAIL
100
AcDbLine
 10
681.8494631398935
 20
567.5925803520946
 30
0.0
 11
689.8494631398935
 21
567.5925803520946
 31
0.0
  0
LINE
  5
3A00
330
39DA
100
AcDbEntity
  8
DETAIL
100
AcDbLine
 10
682.6494631398928
 20
567.7925803520947
 30
0.0
 11
682.6494631398928
 21
567.5925803520946
 31
0.0
  0
LINE
  5
3A01
330
39DA
100
AcDbEntity
  8
DETAIL
100
AcDbLine
 10
689.0494631398942
 20
567.7925803520947
 30
0.0
 11
689.0494631398942
 21
567.5925803520945
 31
0.0
  0
LINE
  5
3A02
330
39DA
100
AcDbEntity
  8
DETAIL
100
AcDbLine
 10
682.6494631398928
 20
567.7925803520947
 30
0.0
 11
689.0494631398942
 21
567.7925803520947
 31
0.0
  0
ARC
  5
3A03
330
39DA
100
AcDbEntity
  8
DETAIL
100
AcDbCircle
 10
685.849463212191
 20
562.5536913771671
 30
0.0
 40
6.138889072297382
100
AcDbArc
 50
58.5827253364182
 51
121.4172758152241
  0
LINE
  5
3A04
330
39DA
100
AcDbEntity
  8
DETAIL
100
AcDbLine
 10
689.0494631398942
 20
162.3925803520951
 30
0.0
 11
689.0494631398942
 21
162.5925803520954
 31
0.0
  0
LINE
  5
3A05
330
39DA
100
AcDbEntity
  8
DETAIL
100
AcDbLine
 10
682.6494631398928
 20
162.3925803520951
 30
0.0
 11
682.6494631398928
 21
162.5925803520954
 31
0.0
  0
LINE
  5
3A06
330
39DA
100
AcDbEntity
  8
DETAIL
100
AcDbLine
 10
689.0494631398942
 20
162.3925803520951
 30
0.0
 11
682.6494631398928
 21
162.3925803520951
 31
0.0
  0
ARC
  5
3A07
330
39DA
100
AcDbEntity
  8
DETAIL
100
AcDbCircle
 10
685.8494630675959
 20
167.6314693270228
 30
0.0
 40
6.138889072297382
100
AcDbArc
 50
238.5827253364182
 51
301.4172758152242
  0
LINE
  5
3A08
330
39DA
100
AcDbEntity
  8
DETAIL
100
AcDbLine
 10
678.8494631398934
 20
566.5925803520953
 30
0.0
 11
678.8494631398934
 21
163.5925803520954
 31
0.0
  0
LINE
  5
3A09
330
39DA
100
AcDbEntity
  8
DETAIL
100
AcDbLine
 10
626.8494631398935
 20
566.5925803520953
 30
0.0
 11
678.8494631398934
 21
566.5925803520953
 31
0.0
  0
LINE
  5
3A0A
330
39DA
100
AcDbEntity
  8
DETAIL
100
AcDbLine
 10
678.8494631398934
 20
163.5925803520954
 30
0.0
 11
626.8494631398935
 21
163.5925803520954
 31
0.0
  0
LINE
  5
3A0B
330
39DA
100
AcDbEntity
  8
DETAIL
100
AcDbLine
 10
627.8494631398935
 20
565.0925803520952
 30
0.0
 11
626.8494631398935
 21
565.0925803520952
 31
0.0
  0
LINE
  5
3A0C
330
39DA
100
AcDbEntity
  8
DETAIL
100
AcDbLine
 10
626.8494631398935
 20
560.0925803520953
 30
0.0
 11
627.8494631398935
 21
560.0925803520953
 31
0.0
  0
LINE
  5
3A0D
330
39DA
100
AcDbEntity
  8
DETAIL
100
AcDbLine
 10
626.8494631398935
 20
165.0925803520954
 30
0.0
 11
627.8494631398935
 21
165.0925803520954
 31
0.0
  0
LINE
  5
3A0E
330
39DA
100
AcDbEntity
  8
DETAIL
100
AcDbLine
 10
689.8494631398935
 20
163.5925803520954
 30
0.0
 11
678.8494631398934
 21
163.5925803520954
 31
0.0
  0
LINE
  5
3A0F
330
39DA
100
AcDbEntity
  8
DETAIL
100
AcDbLine
 10
678.8494631398934
 20
566.5925803520953
 30
0.0
 11
689.8494631398935
 21
566.5925803520953
 31
0.0
  0
LINE
  5
3A10
330
39DA
100
AcDbEntity
  8
DETAIL
100
AcDbLine
 10
689.8494631398935
 20
566.5925803520953
 30
0.0
 11
689.8494631398935
 21
565.5925803520952
 31
0.0
  0
LINE
  5
3A11
330
39DA
100
AcDbEntity
  8
DETAIL
100
AcDbLine
 10
690.8494631398935
 20
566.5925803520953
 30
0.0
 11
689.8494631398935
 21
566.5925803520953
 31
0.0
  0
LINE
  5
3A12
330
39DA
100
AcDbEntity
  8
DETAIL
100
AcDbLine
 10
690.8494631398935
 20
565.5925803520952
 30
0.0
 11
690.8494631398935
 21
566.5925803520953
 31
0.0
  0
LINE
  5
3A13
330
39DA
100
AcDbEntity
  8
DETAIL
100
AcDbLine
 10
689.8494631398935
 20
565.5925803520952
 30
0.0
 11
678.8494631398934
 21
565.5925803520952
 31
0.0
  0
LINE
  5
3A14
330
39DA
100
AcDbEntity
  8
DETAIL
100
AcDbLine
 10
689.8494631398935
 20
565.5925803520952
 30
0.0
 11
690.8494631398935
 21
565.5925803520952
 31
0.0
  0
LINE
  5
3A15
330
39DA
100
AcDbEntity
  8
DETAIL
100
AcDbLine
 10
689.8494631398935
 20
164.5925803520954
 30
0.0
 11
689.8494631398935
 21
163.5925803520954
 31
0.0
  0
LINE
  5
3A16
330
39DA
100
AcDbEntity
  8
DETAIL
100
AcDbLine
 10
689.8494631398935
 20
163.5925803520954
 30
0.0
 11
690.8494631398935
 21
163.5925803520954
 31
0.0
  0
LINE
  5
3A17
330
39DA
100
AcDbEntity
  8
DETAIL
100
AcDbLine
 10
690.8494631398935
 20
163.5925803520954
 30
0.0
 11
690.8494631398935
 21
164.5925803520954
 31
0.0
  0
LINE
  5
3A18
330
39DA
100
AcDbEntity
  8
DETAIL
100
AcDbLine
 10
690.8494631398935
 20
164.5925803520954
 30
0.0
 11
689.8494631398935
 21
164.5925803520954
 31
0.0
  0
LINE
  5
3A19
330
39DA
100
AcDbEntity
  8
DETAIL
100
AcDbLine
 10
678.8494631398934
 20
164.5925803520954
 30
0.0
 11
689.8494631398935
 21
164.5925803520954
 31
0.0
  0
LINE
  5
3A1A
330
39DA
100
AcDbEntity
  8
DETAIL
100
AcDbLine
 10
627.8494631398935
 20
170.0925803520954
 30
0.0
 11
626.8494631398935
 21
170.0925803520954
 31
0.0
  0
LINE
  5
3A1B
330
39DA
100
AcDbEntity
  8
DETAIL
100
AcDbLine
 10
627.8494631398935
 20
165.0925803520954
 30
0.0
 11
627.8494631398935
 21
170.0925803520954
 31
0.0
  0
LINE
  5
3A1C
330
39DA
100
AcDbEntity
  8
DETAIL
100
AcDbLine
 10
627.8494631398935
 20
345.0925803520954
 30
0.0
 11
627.8494631398935
 21
170.0925803520954
 31
0.0
  0
LINE
  5
3A1D
330
39DA
100
AcDbEntity
  8
DETAIL
100
AcDbLine
 10
627.8494631398935
 20
560.0925803520953
 30
0.0
 11
627.8494631398935
 21
385.0925803520953
 31
0.0
  0
LINE
  5
3A1E
330
39DA
100
AcDbEntity
  8
DETAIL
100
AcDbLine
 10
627.8494631398935
 20
560.0925803520953
 30
0.0
 11
627.8494631398935
 21
565.0925803520952
 31
0.0
  0
LINE
  5
3A1F
330
39DA
100
AcDbEntity
  8
DETAIL
100
AcDbLine
 10
626.8494631398935
 20
380.0925803520954
 30
0.0
 11
627.8494631398935
 21
380.0925803520954
 31
0.0
  0
LINE
  5
3A20
330
39DA
100
AcDbEntity
  8
DETAIL
100
AcDbLine
 10
627.8494631398935
 20
385.0925803520953
 30
0.0
 11
626.8494631398935
 21
385.0925803520953
 31
0.0
  0
LINE
  5
3A21
330
39DA
100
AcDbEntity
  8
DETAIL
100
AcDbLine
 10
627.8494631398935
 20
380.0925803520954
 30
0.0
 11
627.8494631398935
 21
385.0925803520953
 31
0.0
  0
LINE
  5
3A22
330
39DA
100
AcDbEntity
  8
DETAIL
100
AcDbLine
 10
626.8494631398935
 20
170.0925803520954
 30
0.0
 11
626.8494631398935
 21
345.0925803520954
 31
0.0
  0
LINE
  5
3A23
330
39DA
100
AcDbEntity
  8
DETAIL
100
AcDbLine
 10
626.8494631398935
 20
170.0925803520954
 30
0.0
 11
626.8494631398935
 21
165.0925803520954
 31
0.0
  0
LINE
  5
3A24
330
39DA
100
AcDbEntity
  8
DETAIL
100
AcDbLine
 10
626.8494631398935
 20
163.5925803520954
 30
0.0
 11
626.8494631398935
 21
165.0925803520954
 31
0.0
  0
LINE
  5
3A25
330
39DA
100
AcDbEntity
  8
DETAIL
100
AcDbLine
 10
626.8494631398935
 20
565.0925803520952
 30
0.0
 11
626.8494631398935
 21
566.5925803520953
 31
0.0
  0
LINE
  5
3A26
330
39DA
100
AcDbEntity
  8
DETAIL
100
AcDbLine
 10
626.8494631398935
 20
565.0925803520952
 30
0.0
 11
626.8494631398935
 21
560.0925803520953
 31
0.0
  0
LINE
  5
3A27
330
39DA
100
AcDbEntity
  8
DETAIL
100
AcDbLine
 10
626.8494631398935
 20
385.0925803520953
 30
0.0
 11
626.8494631398935
 21
560.0925803520953
 31
0.0
  0
LINE
  5
3A28
330
39DA
100
AcDbEntity
  8
DETAIL
100
AcDbLine
 10
626.8494631398935
 20
385.0925803520953
 30
0.0
 11
626.8494631398935
 21
380.0925803520954
 31
0.0
  0
LINE
  5
3A29
330
39DA
100
AcDbEntity
  8
DETAIL
100
AcDbLine
 10
626.8494631398935
 20
350.0925803520953
 30
0.0
 11
626.8494631398935
 21
356.0044890489138
 31
0.0
  0
LINE
  5
3A2A
330
39DA
100
AcDbEntity
  8
DETAIL
100
AcDbLine
 10
626.8494631398935
 20
358.0287620909912
 30
0.0
 11
626.8494631398935
 21
372.1563986131987
 31
0.0
  0
LINE
  5
3A2B
330
39DA
100
AcDbEntity
  8
DETAIL
100
AcDbLine
 10
626.8494631398935
 20
374.1806716552769
 30
0.0
 11
626.8494631398935
 21
380.0925803520954
 31
0.0
  0
LINE
  5
3A2C
330
39DA
100
AcDbEntity
  8
DETAIL
100
AcDbLine
 10
627.8494631398935
 20
350.0925803520953
 30
0.0
 11
626.8494631398935
 21
350.0925803520953
 31
0.0
  0
LINE
  5
3A2D
330
39DA
100
AcDbEntity
  8
DETAIL
100
AcDbLine
 10
627.8494631398935
 20
345.0925803520954
 30
0.0
 11
627.8494631398935
 21
350.0925803520953
 31
0.0
  0
LINE
  5
3A2E
330
39DA
100
AcDbEntity
  8
DETAIL
100
AcDbLine
 10
626.8494631398935
 20
345.0925803520954
 30
0.0
 11
627.8494631398935
 21
345.0925803520954
 31
0.0
  0
LINE
  5
3A2F
330
39DA
100
AcDbEntity
  8
DETAIL
100
AcDbLine
 10
626.8494631398935
 20
350.0925803520953
 30
0.0
 11
626.8494631398935
 21
345.0925803520954
 31
0.0
  0
LINE
  5
3A30
330
39DA
100
AcDbEntity
  8
DETAIL
100
AcDbLine
 10
621.4244673415524
 20
360.0925803520949
 30
0.0
 11
620.806642816864
 21
360.0925803520949
 31
0.0
  0
ARC
  5
3A31
330
39DA
100
AcDbEntity
  8
DETAIL
100
AcDbCircle
 10
621.5992447420432
 20
358.8428088808059
 30
0.0
 40
1.249683929452573
100
AcDbArc
 50
106.0076736149324
 51
132.8434260703879
  0
ARC
  5
3A32
330
39DA
100
AcDbEntity
  8
DETAIL
100
AcDbCircle
 10
621.5995327214804
 20
371.3427960119043
 30
0.0
 40
1.250205443521406
100
AcDbArc
 50
227.160739620295
 51
253.9854528672053
  0
LINE
  5
3A33
330
39DA
100
AcDbEntity
  8
DETAIL
100
AcDbLine
 10
620.056642816864
 20
361.592580352095
 30
0.0
 11
620.9226682206497
 21
361.592580352095
 31
0.0
  0
LINE
  5
3A34
330
39DA
100
AcDbEntity
  8
DETAIL
100
AcDbLine
 10
620.056642816864
 20
361.592580352095
 30
0.0
 11
620.056642816864
 21
368.5925803520949
 31
0.0
  0
LINE
  5
3A35
330
39DA
100
AcDbEntity
  8
DETAIL
100
AcDbLine
 10
620.9226682206497
 20
368.5925803520949
 30
0.0
 11
620.056642816864
 21
368.5925803520949
 31
0.0
  0
LINE
  5
3A36
330
39DA
100
AcDbEntity
  8
DETAIL
100
AcDbLine
 10
620.9226682206497
 20
361.592580352095
 30
0.0
 11
620.9226682206497
 21
368.5925803520949
 31
0.0
  0
LINE
  5
3A37
330
39DA
100
AcDbEntity
  8
DETAIL
100
AcDbLine
 10
620.806642816864
 20
370.092580352095
 30
0.0
 11
621.4244673415524
 21
370.092580352095
 31
0.0
  0
LINE
  5
3A38
330
39DA
100
AcDbEntity
  8
DETAIL
100
AcDbLine
 10
620.7494631398913
 20
359.7590954910867
 30
0.0
 11
620.7494631398913
 21
360.0969460591727
 31
0.0
  0
LINE
  5
3A39
330
39DA
100
AcDbEntity
  8
DETAIL
100
AcDbLine
 10
620.7494631398913
 20
370.0882146450176
 30
0.0
 11
620.7494631398913
 21
370.4260652131043
 31
0.0
  0
LINE
  5
3A3A
330
39DA
100
AcDbEntity
  8
DETAIL
100
AcDbLine
 10
621.5994631398935
 20
354.0925803520949
 30
0.0
 11
612.7969042566363
 21
354.0925803520949
 31
0.0
  0
LINE
  5
3A3B
330
39DA
100
AcDbEntity
  8
DETAIL
100
AcDbLine
 10
612.7969042566363
 20
376.092580352095
 30
0.0
 11
621.5994631398935
 21
376.092580352095
 31
0.0
  0
LINE
  5
3A3C
330
39DA
100
AcDbEntity
  8
DETAIL
100
AcDbLine
 10
616.8494631398933
 20
355.8425803520949
 30
0.0
 11
616.8494631398933
 21
355.342580352095
 31
0.0
  0
LINE
  5
3A3D
330
39DA
100
AcDbEntity
  8
DETAIL
100
AcDbLine
 10
616.8494631398933
 20
360.842580352095
 30
0.0
 11
616.8494631398933
 21
361.342580352095
 31
0.0
  0
LINE
  5
3A3E
330
39DA
100
AcDbEntity
  8
DETAIL
100
AcDbLine
 10
616.8494631398933
 20
374.342580352095
 30
0.0
 11
616.8494631398933
 21
374.8425803520949
 31
0.0
  0
LINE
  5
3A3F
330
39DA
100
AcDbEntity
  8
DETAIL
100
AcDbLine
 10
616.8494631398933
 20
369.342580352095
 30
0.0
 11
616.8494631398933
 21
368.842580352095
 31
0.0
  0
ELLIPSE
  5
3A40
330
39DA
100
AcDbEntity
  8
DETAIL
100
AcDbEllipse
 10
621.6726682206497
 20
361.592580352095
 30
0.0
 11
0.0
 21
1.5
 31
0.0
210
0.0
220
0.0
230
1.0
 40
0.5000000000000045
 41
1.570796326794896
 42
3.081407216114466
  0
ELLIPSE
  5
3A41
330
39DA
100
AcDbEntity
  8
DETAIL
100
AcDbEllipse
 10
621.6726682206497
 20
368.5925803520949
 30
0.0
 11
0.0
 21
1.499999999999999
 31
0.0
210
0.0
220
0.0
230
1.0
 40
0.5000000000000041
 41
0.060185437475325
 42
1.570796326794896
  0
ELLIPSE
  5
3A42
330
39DA
100
AcDbEntity
  8
DETAIL
100
AcDbEllipse
 10
620.806642816864
 20
361.592580352095
 30
0.0
 11
0.0
 21
-1.5
 31
0.0
210
0.0
220
0.0
230
1.0
 40
0.5000000000000049
 41
4.712388980384688
 42
6.283185307179584
  0
ELLIPSE
  5
3A43
330
39DA
100
AcDbEntity
  8
DETAIL
100
AcDbEllipse
 10
620.806642816864
 20
368.5925803520949
 30
0.0
 11
0.0
 21
-1.5
 31
0.0
210
0.0
220
0.0
230
1.0
 40
0.5000000000000049
 41
3.141592653589792
 42
4.712388980384688
  0
ARC
  5
3A44
330
39DA
100
AcDbEntity
  8
DETAIL
100
AcDbCircle
 10
616.8494631398933
 20
371.842580352095
 30
0.0
 40
2.5
100
AcDbArc
 50
90.0
 51
270.0
  0
ARC
  5
3A45
330
39DA
100
AcDbEntity
  8
DETAIL
100
AcDbCircle
 10
616.8494631398933
 20
358.3425803520949
 30
0.0
 40
2.5
100
AcDbArc
 50
270.0
 51
90.0
  0
ARC
  5
3A46
330
39DA
100
AcDbEntity
  8
DETAIL
100
AcDbCircle
 10
616.8494631398933
 20
371.842580352095
 30
0.0
 40
3.0
100
AcDbArc
 50
90.0
 51
270.0
  0
ARC
  5
3A47
330
39DA
100
AcDbEntity
  8
DETAIL
100
AcDbCircle
 10
616.8494631398933
 20
358.3425803520949
 30
0.0
 40
3.0
100
AcDbArc
 50
270.0
 51
90.0
  0
ARC
  5
3A48
330
39DA
100
AcDbEntity
  8
DETAIL
100
AcDbCircle
 10
621.5994631398935
 20
358.842580352095
 30
0.0
 40
1.249999999999998
100
AcDbArc
 50
132.843643043611
 51
180.0
  0
ARC
  5
3A49
330
39DA
100
AcDbEntity
  8
DETAIL
100
AcDbCircle
 10
621.5994631398935
 20
358.842580352095
 30
0.0
 40
1.249999999999998
100
AcDbArc
 50
180.0
 51
270.0
  0
ARC
  5
3A4A
330
39DA
100
AcDbEntity
  8
DETAIL
100
AcDbCircle
 10
621.5994631398935
 20
355.8425803520949
 30
0.0
 40
1.749999999999999
100
AcDbArc
 50
0.0
 51
27.60109151996534
  0
ARC
  5
3A4B
330
39DA
100
AcDbEntity
  8
DETAIL
100
AcDbCircle
 10
621.5994631398935
 20
355.8425803520949
 30
0.0
 40
1.749999999999999
100
AcDbArc
 50
79.60618751933442
 51
90.0
  0
ARC
  5
3A4C
330
39DA
100
AcDbEntity
  8
DETAIL
100
AcDbCircle
 10
621.5994631398935
 20
355.8425803520949
 30
0.0
 40
1.749999999999999
100
AcDbArc
 50
270.0
 51
0.0
  0
ARC
  5
3A4D
330
39DA
100
AcDbEntity
  8
DETAIL
100
AcDbCircle
 10
631.8494631398935
 20
365.092580352095
 30
0.0
 40
22.0
100
AcDbArc
 50
180.0
 51
209.9999999999131
  0
ARC
  5
3A4E
330
39DA
100
AcDbEntity
  8
DETAIL
100
AcDbCircle
 10
621.5994631398935
 20
374.342580352095
 30
0.0
 40
1.749999999999999
100
AcDbArc
 50
0.0
 51
90.0
  0
ARC
  5
3A4F
330
39DA
100
AcDbEntity
  8
DETAIL
100
AcDbCircle
 10
621.5994631398935
 20
374.342580352095
 30
0.0
 40
1.75
100
AcDbArc
 50
270.0
 51
280.3938124806656
  0
ARC
  5
3A50
330
39DA
100
AcDbEntity
  8
DETAIL
100
AcDbCircle
 10
621.5994631398935
 20
374.342580352095
 30
0.0
 40
1.75
100
AcDbArc
 50
332.3989084800347
 51
0.0
  0
ARC
  5
3A51
330
39DA
100
AcDbEntity
  8
DETAIL
100
AcDbCircle
 10
621.5994631398935
 20
371.342580352095
 30
0.0
 40
1.249999999999998
100
AcDbArc
 50
90.0
 51
180.0
  0
ARC
  5
3A52
330
39DA
100
AcDbEntity
  8
DETAIL
100
AcDbCircle
 10
621.5994631398935
 20
371.342580352095
 30
0.0
 40
1.249999999999998
100
AcDbArc
 50
180.0
 51
227.1563569563889
  0
ARC
  5
3A53
330
39DA
100
AcDbEntity
  8
DETAIL
100
AcDbCircle
 10
631.8494631398935
 20
365.092580352095
 30
0.0
 40
22.0
100
AcDbArc
 50
150.0000000000869
 51
180.0
  0
ARC
  5
3A54
330
39DA
100
AcDbEntity
  8
DETAIL
100
AcDbCircle
 10
616.8494631398933
 20
358.3425803520949
 30
0.0
 40
3.0
100
AcDbArc
 50
90.0
 51
270.0
  0
ARC
  5
3A55
330
39DA
100
AcDbEntity
  8
DETAIL
100
AcDbCircle
 10
616.8494631398933
 20
358.3425803520949
 30
0.0
 40
2.5
100
AcDbArc
 50
90.0
 51
270.0
  0
ARC
  5
3A56
330
39DA
100
AcDbEntity
  8
DETAIL
100
AcDbCircle
 10
616.8494631398933
 20
371.842580352095
 30
0.0
 40
3.0
100
AcDbArc
 50
270.0
 51
90.0
  0
ARC
  5
3A57
330
39DA
100
AcDbEntity
  8
DETAIL
100
AcDbCircle
 10
616.8494631398933
 20
371.842580352095
 30
0.0
 40
2.5
100
AcDbArc
 50
270.0
 51
90.0
  0
LINE
  5
3A58
330
39DA
100
AcDbEntity
  8
DETAIL
100
AcDbLine
 10
632.3494631398935
 20
358.8925803520957
 30
0.0
 11
632.3494631398935
 21
358.9425803520953
 31
0.0
  0
LINE
  5
3A59
330
39DA
100
AcDbEntity
  8
DETAIL
100
AcDbLine
 10
632.3494631398935
 20
359.9425803520953
 30
0.0
 11
632.3494631398935
 21
360.5925803520954
 31
0.0
  0
LINE
  5
3A5A
330
39DA
100
AcDbEntity
  8
DETAIL
100
AcDbLine
 10
632.3494631398935
 20
369.5925803520954
 30
0.0
 11
632.3494631398935
 21
370.2425803520955
 31
0.0
  0
LINE
  5
3A5B
330
39DA
100
AcDbEntity
  8
DETAIL
100
AcDbLine
 10
632.3494631398935
 20
371.2425803520955
 30
0.0
 11
632.3494631398935
 21
371.2925803520958
 31
0.0
  0
LINE
  5
3A5C
330
39DA
100
AcDbEntity
  8
DETAIL
100
AcDbLine
 10
630.3494631398932
 20
358.8925803520951
 30
0.0
 11
630.3494631398932
 21
358.9425803520953
 31
0.0
  0
LINE
  5
3A5D
330
39DA
100
AcDbEntity
  8
DETAIL
100
AcDbLine
 10
630.3494631398932
 20
359.9425803520953
 30
0.0
 11
630.3494631398932
 21
360.5925803520954
 31
0.0
  0
LINE
  5
3A5E
330
39DA
100
AcDbEntity
  8
DETAIL
100
AcDbLine
 10
630.3494631398932
 20
369.5925803520954
 30
0.0
 11
630.3494631398932
 21
370.2425803520955
 31
0.0
  0
LINE
  5
3A5F
330
39DA
100
AcDbEntity
  8
DETAIL
100
AcDbLine
 10
630.3494631398932
 20
371.2425803520955
 30
0.0
 11
630.3494631398932
 21
371.2925803520952
 31
0.0
  0
LINE
  5
3A60
330
39DA
100
AcDbEntity
  8
DETAIL
100
AcDbLine
 10
632.8494631398934
 20
372.0925803520954
 30
0.0
 11
632.8494631398934
 21
372.4925803520955
 31
0.0
  0
LINE
  5
3A61
330
39DA
100
AcDbEntity
  8
DETAIL
100
AcDbLine
 10
629.8494631398932
 20
372.0925803520954
 30
0.0
 11
629.8494631398932
 21
372.4925803520955
 31
0.0
  0
LINE
  5
3A62
330
39DA
100
AcDbEntity
  8
DETAIL
100
AcDbLine
 10
632.8494631398934
 20
372.4925803520955
 30
0.0
 11
629.8494631398932
 21
372.4925803520955
 31
0.0
  0
ARC
  5
3A63
330
39DA
100
AcDbEntity
  8
DETAIL
100
AcDbCircle
 10
631.3494631398935
 20
359.9300803520955
 30
0.0
 40
2.5375
100
AcDbArc
 50
226.3971810273431
 51
270.0
  0
ARC
  5
3A64
330
39DA
100
AcDbEntity
  8
DETAIL
100
AcDbCircle
 10
631.3494631398935
 20
359.9300803520955
 30
0.0
 40
2.5375
100
AcDbArc
 50
270.0
 51
313.6028189726569
  0
LINE
  5
3A65
330
39DA
100
AcDbEntity
  8
DETAIL
100
AcDbLine
 10
628.3494631398935
 20
370.2425803520955
 30
0.0
 11
628.3494631398935
 21
371.2425803520955
 31
0.0
  0
LINE
  5
3A66
330
39DA
100
AcDbEntity
  8
DETAIL
100
AcDbLine
 10
628.3494631398935
 20
358.9425803520953
 30
0.0
 11
628.3494631398935
 21
359.9425803520953
 31
0.0
  0
LINE
  5
3A67
330
39DA
100
AcDbEntity
  8
DETAIL
100
AcDbLine
 10
628.3494631398935
 20
370.2425803520955
 30
0.0
 11
628.3494631398935
 21
369.5925803520954
 31
0.0
  0
LINE
  5
3A68
330
39DA
100
AcDbEntity
  8
DETAIL
100
AcDbLine
 10
628.3494631398935
 20
367.3915848182613
 30
0.0
 11
628.3494631398935
 21
362.7935758859294
 31
0.0
  0
LINE
  5
3A69
330
39DA
100
AcDbEntity
  8
DETAIL
100
AcDbLine
 10
628.3494631398935
 20
360.5925803520954
 30
0.0
 11
628.3494631398935
 21
359.9425803520953
 31
0.0
  0
LINE
  5
3A6A
330
39DA
100
AcDbEntity
  8
DETAIL
100
AcDbLine
 10
633.8239434460156
 20
358.9425803520953
 30
0.0
 11
628.3494631398935
 21
358.9425803520953
 31
0.0
  0
LINE
  5
3A6B
330
39DA
100
AcDbEntity
  8
DETAIL
100
AcDbLine
 10
628.3494631398935
 20
371.2425803520955
 30
0.0
 11
633.8239434460156
 21
371.2425803520955
 31
0.0
  0
LINE
  5
3A6C
330
39DA
100
AcDbEntity
  8
DETAIL
100
AcDbLine
 10
633.8239434460156
 20
370.2425803520955
 30
0.0
 11
628.3494631398935
 21
370.2425803520955
 31
0.0
  0
LINE
  5
3A6D
330
39DA
100
AcDbEntity
  8
DETAIL
100
AcDbLine
 10
628.3494631398935
 20
359.9425803520953
 30
0.0
 11
633.8239434460156
 21
359.9425803520953
 31
0.0
  0
LINE
  5
3A6E
330
39DA
100
AcDbEntity
  8
DETAIL
100
AcDbLine
 10
632.4233368602107
 20
371.2925803520958
 30
0.0
 11
632.4233368602107
 21
372.0925803520954
 31
0.0
  0
LINE
  5
3A6F
330
39DA
100
AcDbEntity
  8
DETAIL
100
AcDbLine
 10
633.8239434460156
 20
371.2925803520958
 30
0.0
 11
632.4233368602107
 21
371.2925803520958
 31
0.0
  0
LINE
  5
3A70
330
39DA
100
AcDbEntity
  8
DETAIL
100
AcDbLine
 10
632.4233368602107
 20
358.8925803520951
 30
0.0
 11
632.4233368602107
 21
358.0925803520953
 31
0.0
  0
LINE
  5
3A71
330
39DA
100
AcDbEntity
  8
DETAIL
100
AcDbLine
 10
633.8239434460156
 20
358.8925803520951
 30
0.0
 11
632.4233368602107
 21
358.8925803520951
 31
0.0
  0
SPLINE
  5
3A72
330
39DA
100
AcDbEntity
  8
DETAIL
100
AcDbSpline
210
0.0
220
0.0
230
1.0
 70
    12
 71
     2
 72
     6
 73
     3
 74
     0
 42
0.000000001
 43
0.0000000001
 40
0.0
 40
0.0
 40
0.0
 40
0.0012497274443144
 40
0.0012497274443144
 40
0.0012497274443144
 10
633.8239434460156
 20
358.0925803520953
 30
0.0
 41
0.9999999999999996
 10
634.1103097714292
 20
358.0925803520953
 30
0.0
 41
0.7071067811865471
 10
634.1103097714331
 20
358.8925803520951
 30
0.0
 41
0.9999999999999996
  0
LINE
  5
3A73
330
39DA
100
AcDbEntity
  8
DETAIL
100
AcDbLine
 10
633.8239434460156
 20
358.0925803520953
 30
0.0
 11
633.8239434460156
 21
358.8925803520951
 31
0.0
  0
LINE
  5
3A74
330
39DA
100
AcDbEntity
  8
DETAIL
100
AcDbLine
 10
633.8239434460156
 20
371.2925803520958
 30
0.0
 11
633.8239434460156
 21
372.0925803520954
 31
0.0
  0
SPLINE
  5
3A75
330
39DA
100
AcDbEntity
  8
DETAIL
100
AcDbSpline
210
0.0
220
0.0
230
1.0
 70
    12
 71
     2
 72
     6
 73
     3
 74
     0
 42
0.000000001
 43
0.0000000001
 40
0.0
 40
0.0
 40
0.0
 40
0.0012497274443144
 40
0.0012497274443144
 40
0.0012497274443144
 10
634.1103097714331
 20
371.2925803520958
 30
0.0
 41
0.9999999999999996
 10
634.1103097714292
 20
372.092580352095
 30
0.0
 41
0.7071067811865471
 10
633.8239434460156
 20
372.0925803520954
 30
0.0
 41
0.9999999999999996
  0
LINE
  5
3A76
330
39DA
100
AcDbEntity
  8
DETAIL
100
AcDbLine
 10
655.7787239480276
 20
372.0925803520954
 30
0.0
 11
656.5021931911287
 21
372.0925803520954
 31
0.0
  0
LINE
  5
3A77
330
39DA
100
AcDbEntity
  8
DETAIL
100
AcDbLine
 10
633.8239434460156
 20
372.0925803520954
 30
0.0
 11
649.7971035324626
 21
372.0925803520954
 31
0.0
  0
LINE
  5
3A78
330
39DA
100
AcDbEntity
  8
DETAIL
100
AcDbLine
 10
633.8239434460156
 20
372.0925803520954
 30
0.0
 11
632.4233368602107
 21
372.0925803520954
 31
0.0
  0
LINE
  5
3A79
330
39DA
100
AcDbEntity
  8
DETAIL
100
AcDbLine
 10
656.5021931911287
 20
358.0925803520953
 30
0.0
 11
655.7787239480276
 21
358.0925803520953
 31
0.0
  0
LINE
  5
3A7A
330
39DA
100
AcDbEntity
  8
DETAIL
100
AcDbLine
 10
633.8239434460156
 20
358.0925803520953
 30
0.0
 11
632.4233368602107
 21
358.0925803520953
 31
0.0
  0
LINE
  5
3A7B
330
39DA
100
AcDbEntity
  8
DETAIL
100
AcDbLine
 10
633.8239434460156
 20
358.0925803520953
 30
0.0
 11
649.7971035324626
 21
358.0925803520953
 31
0.0
  0
LINE
  5
3A7C
330
39DA
100
AcDbEntity
  8
DETAIL
100
AcDbLine
 10
628.3427673987353
 20
369.5925803520954
 30
0.0
 11
629.2018663749914
 21
369.5925803520954
 31
0.0
  0
LINE
  5
3A7D
330
39DA
100
AcDbEntity
  8
DETAIL
100
AcDbLine
 10
628.3427673987353
 20
360.5925803520954
 30
0.0
 11
629.2018663749914
 21
360.5925803520954
 31
0.0
  0
LINE
  5
3A7E
330
39DA
100
AcDbEntity
  8
DETAIL
100
AcDbLine
 10
629.2018663749914
 20
360.5925803520954
 30
0.0
 11
629.2018663749914
 21
369.5925803520954
 31
0.0
  0
SPLINE
  5
3A7F
330
39DA
100
AcDbEntity
  8
DETAIL
100
AcDbSpline
210
0.0
220
0.0
230
1.0
 70
     8
 71
     3
 72
     8
 73
     4
 74
     0
 42
0.000000001
 43
0.0000000001
 40
0.6666666666666669
 40
0.6666666666666669
 40
0.6666666666666669
 40
0.6666666666666669
 40
1.0
 40
1.0
 40
1.0
 40
1.0
 10
634.1103097714331
 20
358.8925803520951
 30
0.0
 10
639.3392410251108
 20
358.8925803520951
 30
0.0
 10
644.5681722787849
 20
358.4925803520955
 30
0.0
 10
649.7971035324626
 20
358.0925803520953
 30
0.0
  0
LINE
  5
3A80
330
39DA
100
AcDbEntity
  8
DETAIL
100
AcDbLine
 10
634.1103097714331
 20
358.8925803520951
 30
0.0
 11
634.1103097714331
 21
360.5925803520954
 31
0.0
  0
LINE
  5
3A81
330
39DA
100
AcDbEntity
  8
DETAIL
100
AcDbLine
 10
634.1103097714331
 20
360.5925803520954
 30
0.0
 11
634.1103097714331
 21
369.5925803520954
 31
0.0
  0
LINE
  5
3A82
330
39DA
100
AcDbEntity
  8
DETAIL
100
AcDbLine
 10
634.1103097714331
 20
369.5925803520954
 30
0.0
 11
634.1103097714331
 21
371.2925803520958
 31
0.0
  0
SPLINE
  5
3A83
330
39DA
100
AcDbEntity
  8
DETAIL
100
AcDbSpline
210
0.0
220
0.0
230
1.0
 70
     8
 71
     3
 72
     8
 73
     4
 74
     0
 42
0.000000001
 43
0.0000000001
 40
0.0
 40
0.0
 40
0.0
 40
0.0
 40
0.3333333333333334
 40
0.3333333333333334
 40
0.3333333333333334
 40
0.3333333333333334
 10
649.7971035324626
 20
372.0925803520954
 30
0.0
 10
644.5681722787849
 20
371.6925803520953
 30
0.0
 10
639.3392410251069
 20
371.2925803520958
 30
0.0
 10
634.1103097714331
 20
371.2925803520958
 30
0.0
  0
SPLINE
  5
3A84
330
39DA
100
AcDbEntity
  8
DETAIL
100
AcDbSpline
210
0.0
220
0.0
230
1.0
 70
     8
 71
     3
 72
    20
 73
    16
 74
     0
 42
0.000000001
 43
0.0000000001
 40
0.0
 40
0.0
 40
0.0
 40
0.0
 40
0.0003952360424173
 40
0.0003952360424173
 40
0.0007904720848346
 40
0.0007904720848346
 40
0.0011857081272519
 40
0.0011857081272519
 40
0.0015809441696693
 40
0.0015809441696693
 40
0.0023714162545039
 40
0.0023714162545039
 40
0.0027666522969212
 40
0.0027666522969212
 40
0.0031618883393385
 40
0.0031618883393385
 40
0.0031618883393385
 40
0.0031618883393385
 10
655.7787239480276
 20
358.0925803520953
 30
0.0
 10
655.8814496007289
 20
358.0925803520953
 30
0.0
 10
655.9797221282751
 20
358.1043713173108
 30
0.0
 10
656.1678155899062
 20
358.1521551048818
 30
0.0
 10
656.2585982337586
 20
358.1887854279803
 30
0.0
 10
656.4262680918362
 20
358.2858280060827
 30
0.0
 10
656.5031762057551
 20
358.3457927195823
 30
0.0
 10
656.6445745865276
 20
358.4890929107241
 30
0.0
 10
656.709095547576
 20
358.5730391926554
 30
0.0
 10
656.8776606851717
 20
358.8494971961769
 30
0.0
 10
656.9613467581692
 20
359.074049063649
 30
0.0
 10
657.0433314515066
 20
359.438572546042
 30
0.0
 10
657.063941775963
 20
359.5667244702254
 30
0.0
 10
657.0911565098468
 20
359.8270906811986
 30
0.0
 10
657.0979097199742
 20
359.95897136966
 30
0.0
 10
657.0979097199742
 20
360.0925803520953
 30
0.0
  0
LINE
  5
3A85
330
39DA
100
AcDbEntity
  8
DETAIL
100
AcDbLine
 10
649.7971035324626
 20
358.0925803520953
 30
0.0
 11
649.7971035324626
 21
372.0925803520954
 31
0.0
  0
SPLINE
  5
3A86
330
39DA
100
AcDbEntity
  8
DETAIL
100
AcDbSpline
210
0.0
220
0.0
230
1.0
 70
     8
 71
     3
 72
    20
 73
    16
 74
     0
 42
0.000000001
 43
0.0000000001
 40
0.0
 40
0.0
 40
0.0
 40
0.0
 40
0.0003951700695143
 40
0.0003951700695143
 40
0.0007903401390285
 40
0.0007903401390285
 40
0.0011855102085428
 40
0.0011855102085428
 40
0.001580680278057
 40
0.001580680278057
 40
0.0023710204170855
 40
0.0023710204170855
 40
0.0027661904865998
 40
0.0027661904865998
 40
0.003161360556114
 40
0.003161360556114
 40
0.003161360556114
 40
0.003161360556114
 10
657.0979097199742
 20
370.0925803520954
 30
0.0
 10
657.0979097199742
 20
370.2261965681064
 30
0.0
 10
657.0911554204212
 20
370.3575576972489
 30
0.0
 10
657.0642554278347
 20
370.6159522144931
 30
0.0
 10
657.0437618876349
 20
370.7443593752078
 30
0.0
 10
656.9889509346576
 20
370.9886878265561
 30
0.0
 10
656.9548794842376
 20
371.1044822727454
 30
0.0
 10
656.8716480398833
 20
371.3233779965567
 30
0.0
 10
656.8220665835288
 20
371.4266684477143
 30
0.0
 10
656.6537571457411
 20
371.7032231832495
 30
0.0
 10
656.5102669463776
 20
371.8504370755536
 30
0.0
 10
656.2602108340143
 20
371.9955802626591
 30
0.0
 10
656.1698623205264
 20
372.0323645130548
 30
0.0
 10
655.9802092751453
 20
372.0807851526152
 30
0.0
 10
655.881484192927
 20
372.0925803520954
 30
0.0
 10
655.7787239480276
 20
372.0925803520954
 30
0.0
  0
LINE
  5
3A87
330
39DA
100
AcDbEntity
  8
DETAIL
100
AcDbLine
 10
657.0979097199742
 20
360.0925803520953
 30
0.0
 11
657.7849842195574
 21
360.0925803520953
 31
0.0
  0
LINE
  5
3A88
330
39DA
100
AcDbEntity
  8
DETAIL
100
AcDbLine
 10
657.0979097199742
 20
360.0925803520953
 30
0.0
 11
657.0979097199742
 21
370.0925803520954
 31
0.0
  0
LINE
  5
3A89
330
39DA
100
AcDbEntity
  8
DETAIL
100
AcDbLine
 10
657.7849842195574
 20
370.0925803520954
 30
0.0
 11
657.0979097199706
 21
370.0925803520954
 31
0.0
  0
SPLINE
  5
3A8A
330
39DA
100
AcDbEntity
  8
DETAIL
100
AcDbSpline
210
0.0
220
0.0
230
1.0
 70
     8
 71
     3
 72
    20
 73
    16
 74
     0
 42
0.000000001
 43
0.0000000001
 40
0.0
 40
0.0
 40
0.0
 40
0.0
 40
0.0003940980050886
 40
0.0003940980050886
 40
0.0007881960101771
 40
0.0007881960101771
 40
0.0011822940152657
 40
0.0011822940152657
 40
0.0015763920203542
 40
0.0015763920203542
 40
0.0023645880305313
 40
0.0023645880305313
 40
0.0027586860356199
 40
0.0027586860356199
 40
0.0031527840407084
 40
0.0031527840407084
 40
0.0031527840407084
 40
0.0031527840407084
 10
657.7849842195574
 20
360.0925803520953
 30
0.0
 10
657.7849842195574
 20
359.9593258139953
 30
0.0
 10
657.7782617375633
 20
359.8283148101164
 30
0.0
 10
657.7515421827956
 20
359.570597900517
 30
0.0
 10
657.7312038740965
 20
359.4425294439825
 30
0.0
 10
657.67695226656
 20
359.1987168974442
 30
0.0
 10
657.6432894600364
 20
359.0831458618227
 30
0.0
 10
657.5613727435848
 20
358.8646121954125
 30
0.0
 10
657.5126900255527
 20
358.7614038037774
 30
0.0
 10
657.348011508202
 20
358.4848043416368
 30
0.0
 10
657.2084035458281
 20
358.3371559423631
 30
0.0
 10
656.9664172423617
 20
358.1909481892817
 30
0.0
 10
656.8792551014412
 20
358.153780118756
 30
0.0
 10
656.6962124643977
 20
358.1046348342775
 30
0.0
 10
656.6010773689412
 20
358.0925803520953
 30
0.0
 10
656.5021931911287
 20
358.0925803520953
 30
0.0
  0
LINE
  5
3A8B
330
39DA
100
AcDbEntity
  8
DETAIL
100
AcDbLine
 10
657.7849842195574
 20
360.0925803520953
 30
0.0
 11
657.7849842195574
 21
370.0925803520954
 31
0.0
  0
SPLINE
  5
3A8C
330
39DA
100
AcDbEntity
  8
DETAIL
100
AcDbSpline
210
0.0
220
0.0
230
1.0
 70
     8
 71
     3
 72
    20
 73
    16
 74
     0
 42
0.000000001
 43
0.0000000001
 40
0.0
 40
0.0
 40
0.0
 40
0.0
 40
0.0003941472082872
 40
0.0003941472082872
 40
0.0007882944165744
 40
0.0007882944165744
 40
0.0011824416248617
 40
0.0011824416248617
 40
0.0015765888331489
 40
0.0015765888331489
 40
0.0023648832497233
 40
0.0023648832497233
 40
0.0027590304580106
 40
0.0027590304580106
 40
0.0031531776662978
 40
0.0031531776662978
 40
0.0031531776662978
 40
0.0031531776662978
 10
656.5021931911287
 20
372.0925803520954
 30
0.0
 10
656.6010495770277
 20
372.0925803520954
 30
0.0
 10
656.6957179342352
 20
372.0805297360203
 30
0.0
 10
656.8771409022265
 20
372.0320752985831
 30
0.0
 10
656.9648149542262
 20
371.9950386740452
 30
0.0
 10
657.1271260037864
 20
371.8972525419999
 30
0.0
 10
657.2017408721585
 20
371.8369640951328
 30
0.0
 10
657.3392232623482
 20
371.6932761753928
 30
0.0
 10
657.4021688123066
 20
371.6092228420913
 30
0.0
 10
657.5670727386458
 20
371.3327491302333
 30
0.0
 10
657.6496378020347
 20
371.1085588438664
 30
0.0
 10
657.7307570425436
 20
370.7449557276909
 30
0.0
 10
657.7511962001842
 20
370.617314568583
 30
0.0
 10
657.7782627063608
 20
370.3574144458877
 30
0.0
 10
657.7849842195574
 20
370.2258282410321
 30
0.0
 10
657.7849842195574
 20
370.0925803520954
 30
0.0
  0
LINE
  5
3A8D
330
39DA
100
AcDbEntity
  8
DETAIL
100
AcDbLine
 10
628.3427673987353
 20
360.5925803520954
 30
0.0
 11
628.3427673987353
 21
362.7780233031617
 31
0.0
  0
LINE
  5
3A8E
330
39DA
100
AcDbEntity
  8
DETAIL
100
AcDbLine
 10
633.8239434460156
 20
369.5925803520954
 30
0.0
 11
633.8239434460156
 21
371.2925803520958
 31
0.0
  0
LINE
  5
3A8F
330
39DA
100
AcDbEntity
  8
DETAIL
100
AcDbLine
 10
633.8239434460156
 20
358.8925803520951
 30
0.0
 11
633.8239434460156
 21
360.5925803520954
 31
0.0
  0
LINE
  5
3A90
330
39DA
100
AcDbEntity
  8
DETAIL
100
AcDbLine
 10
628.3427673987353
 20
367.4071374010291
 30
0.0
 11
628.3427673987353
 21
369.5925803520954
 31
0.0
  0
LINE
  5
3A91
330
39DA
100
AcDbEntity
  8
DETAIL
100
AcDbLine
 10
628.5482499682802
 20
371.2925803520958
 30
0.0
 11
628.5482499682802
 21
372.0925803520954
 31
0.0
  0
LINE
  5
3A92
330
39DA
100
AcDbEntity
  8
DETAIL
100
AcDbLine
 10
628.3494631398935
 20
358.8925803520951
 30
0.0
 11
628.3494631398935
 21
358.0925803520953
 31
0.0
  0
LINE
  5
3A93
330
39DA
100
AcDbEntity
  8
DETAIL
100
AcDbLine
 10
628.3494631398935
 20
371.2925803520958
 30
0.0
 11
628.3494631398935
 21
372.0925803520954
 31
0.0
  0
LINE
  5
3A94
330
39DA
100
AcDbEntity
  8
DETAIL
100
AcDbLine
 10
628.5482499682802
 20
371.2925803520958
 30
0.0
 11
632.4233368602107
 21
371.2925803520958
 31
0.0
  0
LINE
  5
3A95
330
39DA
100
AcDbEntity
  8
DETAIL
100
AcDbLine
 10
628.3494631398935
 20
358.8925803520951
 30
0.0
 11
632.4233368602107
 21
358.8925803520951
 31
0.0
  0
LINE
  5
3A96
330
39DA
100
AcDbEntity
  8
DETAIL
100
AcDbLine
 10
628.5482499682802
 20
372.0925803520954
 30
0.0
 11
632.4233368602107
 21
372.0925803520954
 31
0.0
  0
LINE
  5
3A97
330
39DA
100
AcDbEntity
  8
DETAIL
100
AcDbLine
 10
628.3494631398935
 20
358.0925803520953
 30
0.0
 11
632.4233368602107
 21
358.0925803520953
 31
0.0
  0
ELLIPSE
  5
3A98
330
39DA
100
AcDbEntity
  8
DETAIL
100
AcDbEllipse
 10
627.6595622135572
 20
365.0925803520954
 30
0.0
 11
0.0000000000000078
 21
-3.0
 31
0.0
210
0.0
220
0.0
230
1.0
 40
0.3579579067722796
 41
0.6895710033924392
 42
2.452021650197337
  0
LINE
  5
3A99
330
39DA
100
AcDbEntity
  8
DETAIL
100
AcDbLine
 10
629.2018663749914
 20
369.5925803520954
 30
0.0
 11
634.1103097714331
 21
369.5925803520954
 31
0.0
  0
LINE
  5
3A9A
330
39DA
100
AcDbEntity
  8
DETAIL
100
AcDbLine
 10
634.1103097714331
 20
360.5925803520954
 30
0.0
 11
629.2018663749914
 21
360.5925803520954
 31
0.0
  0
LINE
  5
3A9B
330
39DA
100
AcDbEntity
  8
DETAIL
100
AcDbLine
 10
655.7787239480276
 20
358.0925803520953
 30
0.0
 11
649.7971035324626
 21
358.0925803520953
 31
0.0
  0
LINE
  5
3A9C
330
39DA
100
AcDbEntity
  8
DETAIL
100
AcDbLine
 10
655.7787239480276
 20
372.0925803520954
 30
0.0
 11
649.7971035324626
 21
372.0925803520954
 31
0.0
  0
LINE
  5
3A9D
330
39DA
100
AcDbEntity
  8
DETAIL
100
AcDbLine
 10
628.3494631398935
 20
372.0925803520954
 30
0.0
 11
628.5482499682802
 21
372.0925803520954
 31
0.0
  0
LINE
  5
3A9E
330
39DA
100
AcDbEntity
  8
DETAIL
100
AcDbLine
 10
628.3494631398935
 20
371.2925803520958
 30
0.0
 11
628.5482499682802
 21
371.2925803520958
 31
0.0
  0
LINE
  5
3A9F
330
39DA
100
AcDbEntity
  8
DETAIL
100
AcDbLine
 10
638.0064463610834
 20
372.4269690876363
 30
0.0
 11
638.0064463610834
 21
372.0925803520954
 31
0.0
  0
LINE
  5
3AA0
330
39DA
100
AcDbEntity
  8
DETAIL
100
AcDbLine
 10
624.073903437682
 20
371.7230330929797
 30
0.0
 11
634.903281114868
 21
373.4153407852873
 31
0.0
  0
LINE
  5
3AA1
330
39DA
100
AcDbEntity
  8
DETAIL
100
AcDbLine
 10
623.2391131649201
 20
359.4504993088622
 30
0.0
 11
623.2391131649201
 21
370.7346613953287
 31
0.0
  0
LINE
  5
3AA2
330
39DA
100
AcDbEntity
  8
DETAIL
100
AcDbLine
 10
634.903281114868
 20
356.7698199189035
 30
0.0
 11
624.073903437682
 21
358.4621276112112
 31
0.0
  0
LINE
  5
3AA3
330
39DA
100
AcDbEntity
  8
DETAIL
100
AcDbLine
 10
638.0064463610834
 20
357.7581916165545
 30
0.0
 11
638.0064463610834
 21
358.0925803520953
 31
0.0
  0
LINE
  5
3AA4
330
39DA
100
AcDbEntity
  8
DETAIL
100
AcDbLine
 10
638.0219574813382
 20
357.7581916165545
 30
0.0
 11
638.0219574813382
 21
358.0925803520953
 31
0.0
  0
ARC
  5
3AA5
330
39DA
100
AcDbEntity
  8
DETAIL
100
AcDbCircle
 10
635.0530006968982
 20
357.697256283409
 30
0.0
 40
2.939064666929477
100
AcDbArc
 50
261.1175492741267
 51
269.9995911005784
  0
ARC
  5
3AA6
330
39DA
100
AcDbEntity
  8
DETAIL
100
AcDbCircle
 10
635.0371843474967
 20
357.7429559321978
 30
0.0
 40
0.9848909844320914
100
AcDbArc
 50
270.9189312328148
 51
0.8863673699025708
  0
LINE
  5
3AA7
330
39DA
100
AcDbEntity
  8
DETAIL
100
AcDbLine
 10
634.9079787524315
 20
356.7694572291422
 30
0.0
 11
624.0786010752453
 21
358.4617649214501
 31
0.0
  0
ARC
  5
3AA8
330
39DA
100
AcDbEntity
  8
DETAIL
100
AcDbCircle
 10
624.2453446058971
 20
359.4384437858698
 30
0.0
 40
2.990744618386245
100
AcDbArc
 50
179.7690433166286
 51
260.8509946097441
  0
LINE
  5
3AA9
330
39DA
100
AcDbEntity
  8
DETAIL
100
AcDbLine
 10
623.2546242851785
 20
359.4504993088622
 30
0.0
 11
623.2546242851785
 21
370.7346613953287
 31
0.0
  0
ARC
  5
3AAA
330
39DA
100
AcDbEntity
  8
DETAIL
100
AcDbCircle
 10
624.2453446058971
 20
370.746716918321
 30
0.0
 40
2.990744618385776
100
AcDbArc
 50
99.14900539025593
 51
180.2309566833714
  0
LINE
  5
3AAB
330
39DA
100
AcDbEntity
  8
DETAIL
100
AcDbLine
 10
624.0786010752453
 20
371.7233957827402
 30
0.0
 11
634.9079787524315
 21
373.4157034750483
 31
0.0
  0
ARC
  5
3AAC
330
39DA
100
AcDbEntity
  8
DETAIL
100
AcDbCircle
 10
635.0371840943044
 20
372.4422045266565
 30
0.0
 40
0.9848912337980415
100
AcDbArc
 50
359.1136471286315
 51
89.08105426846907
  0
LINE
  5
3AAD
330
39DA
100
AcDbEntity
  8
DETAIL
100
AcDbLine
 10
638.0219574813382
 20
372.4269690876363
 30
0.0
 11
638.0219574813382
 21
372.092580352095
 31
0.0
  0
LINE
  5
3AAE
330
39DA
100
AcDbEntity
  8
DETAIL
100
AcDbLine
 10
636.0219574813379
 20
372.4269690876363
 30
0.0
 11
636.0219574813379
 21
372.0925803520954
 31
0.0
  0
ARC
  5
3AAF
330
39DA
100
AcDbEntity
  8
DETAIL
100
AcDbCircle
 10
635.0530006968982
 20
372.4879044208251
 30
0.0
 40
2.939064666886221
100
AcDbArc
 50
90.00040889942154
 51
98.88245072608334
  0
LINE
  5
3AB0
330
39DA
100
AcDbEntity
  8
DETAIL
100
AcDbLine
 10
623.7698085861556
 20
373.6994137985194
 30
0.0
 11
634.5991862633417
 21
375.391721490827
 31
0.0
  0
LINE
  5
3AB1
330
39DA
100
AcDbEntity
  8
DETAIL
100
AcDbLine
 10
621.2546242851786
 20
359.4504993088622
 30
0.0
 11
621.2546242851786
 21
360.0925803520949
 31
0.0
  0
LINE
  5
3AB2
330
39DA
100
AcDbEntity
  8
DETAIL
100
AcDbLine
 10
621.2546242851786
 20
370.092580352095
 30
0.0
 11
621.2546242851786
 21
370.7346613953287
 31
0.0
  0
LINE
  5
3AB3
330
39DA
100
AcDbEntity
  8
DETAIL
100
AcDbLine
 10
634.5991862633382
 20
354.7934392133639
 30
0.0
 11
623.7698085861518
 21
356.4857469056715
 31
0.0
  0
LINE
  5
3AB4
330
39DA
100
AcDbEntity
  8
DETAIL
100
AcDbLine
 10
636.0219574813379
 20
357.7581916165545
 30
0.0
 11
636.0219574813379
 21
358.0925803520949
 31
0.0
  0
ARC
  5
3AB5
330
39DA
100
AcDbEntity
  8
DETAIL
100
AcDbCircle
 10
635.0530005465916
 20
372.4879063331937
 30
0.0
 40
0.9390627546738855
100
AcDbArc
 50
90.00127059632083
 51
98.88388369893958
  0
ARC
  5
3AB6
330
39DA
100
AcDbEntity
  8
DETAIL
100
AcDbCircle
 10
635.0371963871728
 20
372.4422108083701
 30
0.0
 40
2.984800009934372
100
AcDbArc
 50
359.7074209116575
 51
89.69702403004067
  0
ARC
  5
3AB7
330
39DA
100
AcDbEntity
  8
DETAIL
100
AcDbCircle
 10
624.2453766779981
 20
370.7467068379419
 30
0.0
 40
0.9908256136001115
100
AcDbArc
 50
99.6901450022286
 51
180.6965605406293
  0
ARC
  5
3AB8
330
39DA
100
AcDbEntity
  8
DETAIL
100
AcDbCircle
 10
624.2453766779981
 20
359.4384538662485
 30
0.0
 40
0.990825613599646
100
AcDbArc
 50
179.3034394593707
 51
260.3098549977714
  0
ARC
  5
3AB9
330
39DA
100
AcDbEntity
  8
DETAIL
100
AcDbCircle
 10
635.0371963871728
 20
357.7429498958208
 30
0.0
 40
2.984800009934372
100
AcDbArc
 50
270.3029759699593
 51
0.2925790883425012
  0
ARC
  5
3ABA
330
39DA
100
AcDbEntity
  8
DETAIL
100
AcDbCircle
 10
635.053000546588
 20
357.6972543709853
 30
0.0
 40
0.9390627546621953
100
AcDbArc
 50
261.1161163010604
 51
269.9987294036792
  0
LINE
  5
3ABB
330
39DA
100
AcDbEntity
  8
DETAIL
100
AcDbLine
 10
636.0219574813379
 20
372.4269690876363
 30
0.0
 11
638.0064463610834
 21
372.4269690876363
 31
0.0
  0
ELLIPSE
  5
3ABC
330
39DA
100
AcDbEntity
  8
DETAIL
100
AcDbEllipse
 10
635.0529797218512
 20
374.4269690876363
 30
0.0
 11
0.0000000000000036
 21
-1.0
 31
0.0
210
0.0
220
0.0
230
1.0
 40
0.1754469881761922
 41
3.141592653589771
 42
6.283185307179563
  0
ELLIPSE
  5
3ABD
330
39DA
100
AcDbEntity
  8
DETAIL
100
AcDbEllipse
 10
634.7535825078847
 20
374.4037124829374
 30
0.0
 11
-0.1543962445452718
 21
0.9880090078892576
 31
0.0
210
0.0
220
0.0
230
1.0
 40
0.1734068375513917
 41
0.0000000000000477
 42
3.114500983592991
  0
ELLIPSE
  5
3ABE
330
39DA
100
AcDbEntity
  8
DETAIL
100
AcDbEllipse
 10
623.9242048306987
 20
372.7114047906298
 30
0.0
 11
-0.1543962445452727
 21
0.988009007889258
 31
0.0
210
0.0
220
0.0
230
1.0
 40
0.1734068375513916
 41
0.0000000000000704
 42
3.114500983592987
  0
LINE
  5
3ABF
330
39DA
100
AcDbEntity
  8
DETAIL
100
AcDbLine
 10
623.2391131649201
 20
370.7346613953287
 30
0.0
 11
621.2546242851786
 21
370.7346613953287
 31
0.0
  0
LINE
  5
3AC0
330
39DA
100
AcDbEntity
  8
DETAIL
100
AcDbLine
 10
623.2391131649201
 20
359.4504993088622
 30
0.0
 11
621.2546242851786
 21
359.4504993088622
 31
0.0
  0
ELLIPSE
  5
3AC1
330
39DA
100
AcDbEntity
  8
DETAIL
100
AcDbEllipse
 10
623.9242048306987
 20
357.473755913561
 30
0.0
 11
-0.1543962445453215
 21
-0.9880090078892497
 31
0.0
210
0.0
220
0.0
230
1.0
 40
0.1734068375513907
 41
3.168684323586858
 42
6.283185307179842
  0
ELLIPSE
  5
3AC2
330
39DA
100
AcDbEntity
  8
DETAIL
100
AcDbEllipse
 10
634.7535825078847
 20
355.7814482212533
 30
0.0
 11
-0.1543962445453211
 21
-0.9880090078892514
 31
0.0
210
0.0
220
0.0
230
1.0
 40
0.1734068375513907
 41
3.168684323586856
 42
6.28318530717981
  0
LINE
  5
3AC3
330
39DA
100
AcDbEntity
  8
DETAIL
100
AcDbLine
 10
636.0219574813379
 20
357.7581916165545
 30
0.0
 11
638.0064463610834
 21
357.7581916165545
 31
0.0
  0
ELLIPSE
  5
3AC4
330
39DA
100
AcDbEntity
  8
DETAIL
100
AcDbEllipse
 10
635.0529797218512
 20
372.4269690876363
 30
0.0
 11
0.0000000000000062
 21
1.0
 31
0.0
210
0.0
220
0.0
230
1.0
 40
0.9844888797441559
 41
0.0000000000000124
 42
0.152649328395365
  0
ELLIPSE
  5
3AC5
330
39DA
100
AcDbEntity
  8
DETAIL
100
AcDbEllipse
 10
634.7535825078847
 20
374.4037124829374
 30
0.0
 11
-0.1543962445452718
 21
0.9880090078892576
 31
0.0
210
0.0
220
0.0
230
1.0
 40
0.1734068375513917
 41
3.114500983592991
 42
3.141592653589863
  0
LINE
  5
3AC6
330
39DA
100
AcDbEntity
  8
DETAIL
100
AcDbLine
 10
638.0064463610834
 20
372.4269690876363
 30
0.0
 11
638.0219574813382
 21
372.4269690876363
 31
0.0
  0
ELLIPSE
  5
3AC7
330
39DA
100
AcDbEntity
  8
DETAIL
100
AcDbEllipse
 10
635.0529797218512
 20
372.4269690876363
 30
0.0
 11
0.0000000000000185
 21
3.0
 31
0.0
210
0.0
220
0.0
230
1.0
 40
0.9844888797441559
 41
4.712388980384702
 42
6.283185307179597
  0
ELLIPSE
  5
3AC8
330
39DA
100
AcDbEntity
  8
DETAIL
100
AcDbEllipse
 10
624.2236020446652
 20
370.7346613953287
 30
0.0
 11
0.0000000000000062
 21
1.0
 31
0.0
210
0.0
220
0.0
230
1.0
 40
0.9844888797441559
 41
0.1526493283953638
 42
1.570796326794908
  0
ELLIPSE
  5
3AC9
330
39DA
100
AcDbEntity
  8
DETAIL
100
AcDbEllipse
 10
623.9242048306987
 20
372.7114047906298
 30
0.0
 11
-0.1543962445452727
 21
0.988009007889258
 31
0.0
210
0.0
220
0.0
230
1.0
 40
0.1734068375513916
 41
3.114500983592987
 42
3.141592653589832
  0
LINE
  5
3ACA
330
39DA
100
AcDbEntity
  8
DETAIL
100
AcDbLine
 10
623.2546242851785
 20
370.7346613953287
 30
0.0
 11
623.2391131649201
 21
370.7346613953287
 31
0.0
  0
ELLIPSE
  5
3ACB
330
39DA
100
AcDbEntity
  8
DETAIL
100
AcDbEllipse
 10
624.2236020446652
 20
359.4504993088622
 30
0.0
 11
0.0000000000000062
 21
0.9999999999999975
 31
0.0
210
0.0
220
0.0
230
1.0
 40
0.9844888797441559
 41
1.570796326794908
 42
2.988943325194453
  0
LINE
  5
3ACC
330
39DA
100
AcDbEntity
  8
DETAIL
100
AcDbLine
 10
623.2546242851785
 20
359.4504993088622
 30
0.0
 11
623.2391131649201
 21
359.4504993088622
 31
0.0
  0
ELLIPSE
  5
3ACD
330
39DA
100
AcDbEntity
  8
DETAIL
100
AcDbEllipse
 10
623.9242048306987
 20
357.473755913561
 30
0.0
 11
-0.1543962445453215
 21
-0.9880090078892497
 31
0.0
210
0.0
220
0.0
230
1.0
 40
0.1734068375513907
 41
3.141592653590024
 42
3.168684323586858
  0
ELLIPSE
  5
3ACE
330
39DA
100
AcDbEntity
  8
DETAIL
100
AcDbEllipse
 10
635.0529797218512
 20
357.7581916165545
 30
0.0
 11
0.0000000000000062
 21
0.9999999999999992
 31
0.0
210
0.0
220
0.0
230
1.0
 40
0.9844888797441559
 41
2.988943325194453
 42
3.141592653589805
  0
ELLIPSE
  5
3ACF
330
39DA
100
AcDbEntity
  8
DETAIL
100
AcDbEllipse
 10
634.7535825078847
 20
355.7814482212533
 30
0.0
 11
-0.1543962445453211
 21
-0.9880090078892514
 31
0.0
210
0.0
220
0.0
230
1.0
 40
0.1734068375513907
 41
3.141592653590024
 42
3.168684323586856
  0
ELLIPSE
  5
3AD0
330
39DA
100
AcDbEntity
  8
DETAIL
100
AcDbEllipse
 10
635.0529797218512
 20
357.7581916165545
 30
0.0
 11
0.0000000000000185
 21
2.999999999999998
 31
0.0
210
0.0
220
0.0
230
1.0
 40
0.9844888797441559
 41
3.141592653589805
 42
4.712388980384702
  0
LINE
  5
3AD1
330
39DA
100
AcDbEntity
  8
DETAIL
100
AcDbLine
 10
638.0064463610834
 20
357.7581916165545
 30
0.0
 11
638.0219574813382
 21
357.7581916165545
 31
0.0
  0
LINE
  5
3AD2
330
39DA
100
AcDbEntity
  8
OUTLINE
100
AcDbLine
 10
698.8494631398935
 20
159.0925803520949
 30
0.0
 11
709.1201537724664
 21
165.0925803520954
 31
0.0
  0
LINE
  5
3AD3
330
39DA
100
AcDbEntity
  8
OUTLINE
100
AcDbLine
 10
678.8494631398934
 20
159.0925803520949
 30
0.0
 11
671.1464451654609
 21
163.5925803520954
 31
0.0
  0
LINE
  5
3AD4
330
39DA
100
AcDbEntity
  8
OUTLINE
100
AcDbLine
 10
678.8494631398934
 20
159.0925803520949
 30
0.0
 11
698.8494631398935
 21
159.0925803520949
 31
0.0
  0
LINE
  5
3AD5
330
39DA
100
AcDbEntity
  8
OUTLINE
100
AcDbLine
 10
718.8494631398935
 20
165.0925803520949
 30
0.0
 11
718.8494631398935
 21
565.0925803520947
 31
0.0
  0
LINE
  5
3AD6
330
39DA
100
AcDbEntity
  8
OUTLINE
100
AcDbLine
 10
608.8494631398932
 20
165.0925803520949
 30
0.0
 11
626.8494631398935
 21
165.0925803520949
 31
0.0
  0
LINE
  5
3AD7
330
39DA
100
AcDbEntity
  8
OUTLINE
100
AcDbLine
 10
626.8494631398935
 20
565.0925803520947
 30
0.0
 11
608.8494631398932
 21
565.0925803520947
 31
0.0
  0
LINE
  5
3AD8
330
39DA
100
AcDbEntity
  8
OUTLINE
100
AcDbLine
 10
585.8494631398935
 20
196.092580352094
 30
0.0
 11
608.8494631398932
 21
196.092580352094
 31
0.0
  0
LINE
  5
3AD9
330
39DA
100
AcDbEntity
  8
OUTLINE
100
AcDbLine
 10
585.8494631398935
 20
204.092580352094
 30
0.0
 11
608.8494631398932
 21
204.092580352094
 31
0.0
  0
LINE
  5
3ADA
330
39DA
100
AcDbEntity
  8
OUTLINE
100
AcDbLine
 10
585.8494631398935
 20
196.092580352094
 30
0.0
 11
585.8494631398935
 21
204.092580352094
 31
0.0
  0
LINE
  5
3ADB
330
39DA
100
AcDbEntity
  8
OUTLINE
100
AcDbLine
 10
585.8494631398935
 20
526.0925803520948
 30
0.0
 11
608.8494631398932
 21
526.0925803520948
 31
0.0
  0
LINE
  5
3ADC
330
39DA
100
AcDbEntity
  8
OUTLINE
100
AcDbLine
 10
585.8494631398935
 20
534.0925803520948
 30
0.0
 11
608.8494631398932
 21
534.0925803520948
 31
0.0
  0
LINE
  5
3ADD
330
39DA
100
AcDbEntity
  8
OUTLINE
100
AcDbLine
 10
585.8494631398935
 20
526.0925803520948
 30
0.0
 11
585.8494631398935
 21
534.0925803520948
 31
0.0
  0
LINE
  5
3ADE
330
39DA
100
AcDbEntity
  8
OUTLINE
100
AcDbLine
 10
671.1464451654609
 20
163.5925803520954
 30
0.0
 11
626.8494631398935
 21
163.5925803520954
 31
0.0
  0
LINE
  5
3ADF
330
39DA
100
AcDbEntity
  8
OUTLINE
100
AcDbLine
 10
626.8494631398935
 20
565.0925803520952
 30
0.0
 11
626.8494631398935
 21
565.0925803520952
 31
0.0
  0
LINE
  5
3AE0
330
39DA
100
AcDbEntity
  8
OUTLINE
100
AcDbLine
 10
626.8494631398935
 20
165.0925803520954
 30
0.0
 11
626.8494631398935
 21
165.0925803520954
 31
0.0
  0
LINE
  5
3AE1
330
39DA
100
AcDbEntity
  8
OUTLINE
100
AcDbLine
 10
626.8494631398935
 20
163.5925803520954
 30
0.0
 11
626.8494631398935
 21
165.0925803520954
 31
0.0
  0
LINE
  5
3AE2
330
39DA
100
AcDbEntity
  8
OUTLINE
100
AcDbLine
 10
626.8494631398935
 20
565.0925803520952
 30
0.0
 11
626.8494631398935
 21
566.5925803520953
 31
0.0
  0
LINE
  5
3AE3
330
39DA
100
AcDbEntity
  8
OUTLINE
100
AcDbLine
 39
50.0
 10
626.8494631398935
 20
566.5925803520953
 30
0.0
 11
671.1464451654648
 21
566.5925803520953
 31
0.0
  0
LINE
  5
3AE4
330
39DA
100
AcDbEntity
  8
OUTLINE
100
AcDbLine
 39
50.0
 10
671.1464451654648
 20
566.5925803520953
 30
0.0
 11
678.8494631398934
 21
571.0925803520947
 31
0.0
  0
LINE
  5
3AE5
330
39DA
100
AcDbEntity
  8
OUTLINE
100
AcDbLine
 39
50.0
 10
678.8494631398934
 20
571.0925803520947
 30
0.0
 11
698.8494631398935
 21
571.0925803520947
 31
0.0
  0
LINE
  5
3AE6
330
39DA
100
AcDbEntity
  8
OUTLINE
100
AcDbLine
 39
50.0
 10
698.8494631398935
 20
571.0925803520947
 30
0.0
 11
709.1201537724664
 21
565.0925803520943
 31
0.0
  0
LINE
  5
3AE7
330
39DA
100
AcDbEntity
  8
OUTLINE
100
AcDbLine
 39
50.0
 10
709.1201537724664
 20
565.0925803520943
 30
0.0
 11
718.8494631398935
 21
565.0925803520947
 31
0.0
  0
LINE
  5
3AE8
330
39DA
100
AcDbEntity
  8
OUTLINE
100
AcDbLine
 39
50.0
 10
608.8494631398932
 20
165.0925803520949
 30
0.0
 11
608.8494631398932
 21
196.092580352094
 31
0.0
  0
LINE
  5
3AE9
330
39DA
100
AcDbEntity
  8
OUTLINE
100
AcDbLine
 39
50.0
 10
608.8494631398932
 20
204.092580352094
 30
0.0
 11
608.8494631398932
 21
526.0925803520948
 31
0.0
  0
LINE
  5
3AEA
330
39DA
100
AcDbEntity
  8
OUTLINE
100
AcDbLine
 39
50.0
 10
608.8494631398932
 20
534.0925803520948
 30
0.0
 11
608.8494631398932
 21
565.0925803520947
 31
0.0
  0
LINE
  5
3AEB
330
39DA
100
AcDbEntity
  8
OUTLINE
100
AcDbLine
 39
50.0
 10
709.1201537724664
 20
165.0925803520954
 30
0.0
 11
718.8494631398935
 21
165.0925803520949
 31
0.0
  0
LINE
  5
3AEC
330
39DA
100
AcDbEntity
  8
NOTE
100
AcDbLine
 10
731.3494631398935
 20
530.0925803520948
 30
0.0
 11
706.3494631398935
 21
530.0925803520948
 31
0.0
  0
LEADER
  5
3AED
330
39DA
100
AcDbEntity
  8
NOTE
100
AcDbLeader
  3
STANDARD
 73
     0
 74
     0
 75
     1
 40
64.00000000000002
 41
483.84
 76
     3
 10
718.8494631398935
 20
530.0925803520948
 30
0.0
 10
905.623605205168
 20
661.0515472746865
 30
0.0
 10
917.6236052051679
 20
661.0515472746865
 30
0.0
340
3AEE
213
0.0
223
32.0
233
0.0
1001
ACAD
1000
DSTYLE
1002
{
1070
    41
1040
12.0
1070
    42
1040
20.0
1070
    43
1040
200.0
1070
    44
1040
20.0
1070
    73
1070
     0
1070
    74
1070
     0
1070
    77
1070
     1
1070
    78
1070
     8
1070
   140
1040
64.0
1070
   147
1040
50.0
1070
   172
1070
     1
1070
   174
1070
     1
1070
   275
1070
     0
1070
   284
1070
     0
1070
   285
1070
     0
1070
   286
1070
     0
1070
   341
1005
EE8
1070
   342
1005
AB2
1002
}
  0
MTEXT
  5
3AEE
102
{ACAD_REACTORS
330
3AED
102
}
330
39DA
100
AcDbEntity
  8
NOTE
100
AcDbMText
 10
1454.206462348025
 20
679.0515472746865
 30
0.0
 40
64.0
 41
0.0
 46
0.0
 71
     9
 72
     1
  1
4×φ12取付穴
 73
     1
 44
1.0
  0
LINE
  5
3AEF
330
39DA
100
AcDbEntity
  8
NOTE
100
AcDbLine
 10
731.3494631398935
 20
200.092580352094
 30
0.0
 11
706.3494631398935
 21
200.092580352094
 31
0.0
  0
LINE
  5
3AF0
330
39DA
100
AcDbEntity
  8
NOTE
100
AcDbLine
 10
704.8494631398931
 20
176.5925803520949
 30
0.0
 11
704.8494631398931
 21
201.5925803520949
 31
0.0
  0
LINE
  5
3AF1
330
39DA
100
AcDbEntity
  8
NOTE
100
AcDbLine
 10
717.3494631398931
 20
189.0925803520949
 30
0.0
 11
692.3494631398931
 21
189.0925803520949
 31
0.0
  0
DIMENSION
  5
3AF2
330
39DA
100
AcDbEntity
  8
SIZE
100
AcDbDimension
  2
*D119
 10
718.8494631398935
 20
742.2670722852281
 30
0.0
 11
663.8494631398932
 21
742.2670722852281
 31
0.0
 12
23321.45659383427
 22
1755.897617774483
 32
0.0
 70
   128
 71
     5
 42
110.0
 73
     0
 74
     0
 75
     0
  3
STANDARD$0
100
AcDbAlignedDimension
 13
608.8494631398932
 23
565.0925803520947
 33
0.0
 14
718.8494631398935
 24
565.0925803520947
 34
0.0
100
AcDbRotatedDimension
  0
DIMENSION
  5
3AF3
330
39DA
100
AcDbEntity
  8
SIZE
100
AcDbDimension
  2
*D120
 10
585.8494631398935
 20
742.2670722852281
 30
0.0
 11
505.2208917113203
 21
784.2670722852281
 31
0.0
 12
23321.45659383427
 22
1755.897617774483
 32
0.0
 71
     5
 42
23.0
 73
     0
 74
     0
 75
     0
  3
STANDARD$0
100
AcDbAlignedDimension
 13
608.8494631398932
 23
565.0925803520947
 33
0.0
 14
585.8494631398935
 24
534.0925803520948
 34
0.0
100
AcDbRotatedDimension
  0
DIMENSION
  5
3AF4
330
39DA
100
AcDbEntity
  8
SIZE
100
AcDbDimension
  2
*D121
 10
516.3729591164665
 20
200.092580352094
 30
0.0
 11
474.3729591164663
 21
365.0925803520909
 31
0.0
 12
23321.45659383427
 22
1755.897617774483
 32
0.0
 71
     5
 42
330.0000000000009
 73
     0
 74
     0
 75
     0
  3
STANDARD$0
100
AcDbAlignedDimension
 13
585.8494631398935
 23
530.0925803520948
 33
0.0
 14
585.8494631398935
 24
200.092580352094
 34
0.0
 50
90.0
100
AcDbRotatedDimension
  0
DIMENSION
  5
3AF5
330
39DA
100
AcDbEntity
  8
SIZE
100
AcDbDimension
  2
*D122
 10
394.5290809758153
 20
165.0925803520949
 30
0.0
 11
352.5290809758153
 21
365.0925803520913
 31
0.0
 12
23321.45659383427
 22
1755.897617774483
 32
0.0
 71
     5
 42
400.0
 73
     0
 74
     0
 75
     0
  3
STANDARD$0
100
AcDbAlignedDimension
 13
608.8494631398932
 23
565.0925803520947
 33
0.0
 14
608.8494631398932
 24
165.0925803520949
 34
0.0
 50
90.0
100
AcDbRotatedDimension
  0
DIMENSION
  5
3AF6
330
39DA
100
AcDbEntity
  8
SIZE
100
AcDbDimension
  2
*D123
 10
874.4710908877166
 20
530.0925803520948
 30
0.0
 11
832.4710908877166
 21
365.0925803520909
 31
0.0
 12
23321.45659383427
 22
1755.897617774483
 32
0.0
 71
     5
 42
330.0000000000009
 73
     0
 74
     0
 75
     0
  3
STANDARD$0
100
AcDbAlignedDimension
 13
718.8494631398935
 23
200.092580352094
 33
0.0
 14
718.8494631398935
 24
530.0925803520948
 34
0.0
 50
90.0
100
AcDbRotatedDimension
  0
LEADER
  5
3AF7
330
39DA
100
AcDbEntity
  8
NOTE
100
AcDbLeader
  3
STANDARD
 73
     0
 75
     1
 40
64.0
 41
425.1428571428571
 76
     3
 10
587.4045099632349
 20
537.632028486405
 30
0.0
 10
478.9142128434432
 20
653.9886785975477
 30
0.0
 10
466.9142128434432
 20
653.9886785975477
 30
0.0
340
3AF8
213
0.0
223
32.0
233
0.0
1001
ACAD
1000
DSTYLE
1002
{
1070
    41
1040
12.0
1070
    42
1040
20.0
1070
    43
1040
200.0
1070
    44
1040
20.0
1070
    73
1070
     0
1070
    74
1070
     0
1070
    77
1070
     1
1070
    78
1070
     8
1070
   140
1040
64.0
1070
   147
1040
50.0
1070
   172
1070
     1
1070
   174
1070
     1
1070
   275
1070
     0
1070
   284
1070
     0
1070
   285
1070
     0
1070
   286
1070
     0
1070
   341
1005
EE8
1070
   342
1005
AB2
1002
}
  0
MTEXT
  5
3AF8
102
{ACAD_REACTORS
330
3AF7
102
}
330
39DA
100
AcDbEntity
  8
NOTE
100
AcDbMText
 10
416.9142128434432
 20
671.9886785975477
 30
0.0
 40
64.0
 41
0.0
 46
0.0
 71
     9
 72
     1
  1
4×M8ボルト
 73
     1
 44
1.0
  0
LINE
  5
3AF9
330
39DA
100
AcDbEntity
  8
BASIS
100
AcDbLine
 39
50.0
 10
743.8494631398935
 20
365.092580352095
 30
0.0
 11
553.8494631398934
 21
365.092580352095
 31
0.0
  0
CIRCLE
  5
3AFA
330
39DA
100
AcDbEntity
  8
ARRANGE
100
AcDbCircle
 39
50.0
 10
718.8494631398935
 20
365.092580352095
 30
0.0
 40
40.0
  0
POINT
  5
3AFB
330
39DA
100
AcDbEntity
  8
ARRANGE
100
AcDbPoint
 10
718.8494631398935
 20
365.092580352095
 30
0.0
 39
50.0
 50
360.0
  0
TEXT
  5
3AFC
330
39DA
100
AcDbEntity
  8
ETC
100
AcDbText
 10
1623.797305222746
 20
824.2971610234272
 30
0.0
 40
64.0
  1
システム部材
 41
0.9
100
AcDbText
  0
TEXT
  5
3AFD
330
39DA
100
AcDbEntity
  8
ETC
100
AcDbText
 10
1630.005303222744
 20
925.1804870234265
 30
0.0
 40
64.0
  1
FU-25PSF-C_4
 41
0.9
100
AcDbText
  0
TEXT
  5
3AFE
330
39DA
100
AcDbEntity
  8
ETC
100
AcDbText
 10
1630.005303222744
 20
725.1804870234264
 30
0.0
 40
64.0
  1
FU-25PSF-C
 41
0.9
100
AcDbText
  0
ENDBLK
  5
3B02
330
39DA
100
AcDbEntity
  8
0
100
AcDbBlockEnd
  0
BLOCK
  5
470D
330
470C
100
AcDbEntity
  8
0
100
AcDbBlockBegin
  2
*D167
 70
     1
 10
0.0
 20
0.0
 30
0.0
  3
*D167
  1

  0
LINE
  5
4756
330
470C
100
AcDbEntity
  8
SIZE
 62
     0
440
 16777216
370
    -2
100
AcDbLine
 10
-1982.326461571256
 20
1178.362393994588
 30
0.0
 11
-1982.326461571256
 21
1083.914553899427
 31
0.0
  0
LINE
  5
4757
330
470C
100
AcDbEntity
  8
SIZE
 62
     0
440
 16777216
370
    -2
100
AcDbLine
 10
-1602.326461571256
 20
1178.362393994588
 30
0.0
 11
-1602.326461571256
 21
1083.914553899427
 31
0.0
  0
LINE
  5
4758
330
470C
100
AcDbEntity
  8
SIZE
 62
     0
440
 16777216
370
    -2
100
AcDbLine
 10
-1970.326461571256
 20
1103.914553899427
 30
0.0
 11
-1614.326461571256
 21
1103.914553899427
 31
0.0
  0
INSERT
  5
4759
330
470C
100
AcDbEntity
  8
SIZE
 62
     0
440
 16777216
370
    -2
100
AcDbBlockReference
  2
_DOTBLANK
 10
-1982.326461571256
 20
1103.914553899427
 30
0.0
 41
12.0
 42
12.0
 43
12.0
 50
180.0
  0
INSERT
  5
475A
330
470C
100
AcDbEntity
  8
SIZE
 62
     0
440
 16777216
370
    -2
100
AcDbBlockReference
  2
_DOTBLANK
 10
-1602.326461571256
 20
1103.914553899427
 30
0.0
 41
12.0
 42
12.0
 43
12.0
  0
MTEXT
  5
475B
330
470C
100
AcDbEntity
  8
SIZE
 62
     0
440
 16777216
100
AcDbMText
 10
-1792.326461571256
 20
1145.914553899427
 30
0.0
 40
64.0
 41
0.0
 46
0.0
 71
     5
 72
     1
  1
\A1;380
 73
     1
 44
1.0
  0
POINT
  5
475C
330
470C
100
AcDbEntity
  8
DEFPOINTS
 62
     0
440
 16777216
100
AcDbPoint
 10
-1982.326461571256
 20
1198.362393994588
 30
0.0
  0
POINT
  5
475D
330
470C
100
AcDbEntity
  8
DEFPOINTS
 62
     0
440
 16777216
100
AcDbPoint
 10
-1602.326461571256
 20
1198.362393994588
 30
0.0
  0
POINT
  5
475E
330
470C
100
AcDbEntity
  8
DEFPOINTS
 62
     0
440
 16777216
100
AcDbPoint
 10
-1602.326461571256
 20
1103.914553899427
 30
0.0
  0
ENDBLK
  5
470E
330
470C
100
AcDbEntity
  8
0
100
AcDbBlockEnd
  0
BLOCK
  5
4719
330
4718
100
AcDbEntity
  8
0
100
AcDbBlockBegin
  2
*D168
 70
     1
 10
0.0
 20
0.0
 30
0.0
  3
*D168
  1

  0
LINE
  5
475F
330
4718
100
AcDbEntity
  8
SIZE
 62
     0
440
 16777216
370
    -2
100
AcDbLine
 10
-2017.326461571256
 20
1351.362393994588
 30
0.0
 11
-2017.326461571256
 21
1610.920326732965
 31
0.0
  0
LINE
  5
4760
330
4718
100
AcDbEntity
  8
SIZE
 62
     0
440
 16777216
370
    -2
100
AcDbLine
 10
-1556.326461571256
 20
1260.362393994588
 30
0.0
 11
-1556.326461571256
 21
1610.920326732965
 31
0.0
  0
LINE
  5
4761
330
4718
100
AcDbEntity
  8
SIZE
 62
     0
440
 16777216
370
    -2
100
AcDbLine
 10
-2005.326461571256
 20
1590.920326732964
 30
0.0
 11
-1568.326461571256
 21
1590.920326732964
 31
0.0
  0
INSERT
  5
4762
330
4718
100
AcDbEntity
  8
SIZE
 62
     0
440
 16777216
370
    -2
100
AcDbBlockReference
  2
_DOTBLANK
 10
-2017.326461571256
 20
1590.920326732964
 30
0.0
 41
12.0
 42
12.0
 43
12.0
 50
180.0
  0
INSERT
  5
4763
330
4718
100
AcDbEntity
  8
SIZE
 62
     0
440
 16777216
370
    -2
100
AcDbBlockReference
  2
_DOTBLANK
 10
-1556.326461571256
 20
1590.920326732964
 30
0.0
 41
12.0
 42
12.0
 43
12.0
  0
MTEXT
  5
4764
330
4718
100
AcDbEntity
  8
SIZE
 62
     0
440
 16777216
100
AcDbMText
 10
-1786.826461571256
 20
1632.920326732964
 30
0.0
 40
64.0
 41
0.0
 46
0.0
 71
     5
 72
     1
  1
\A1;461
 73
     1
 44
1.0
  0
POINT
  5
4765
330
4718
100
AcDbEntity
  8
DEFPOINTS
 62
     0
440
 16777216
100
AcDbPoint
 10
-2017.326461571256
 20
1331.362393994588
 30
0.0
  0
POINT
  5
4766
330
4718
100
AcDbEntity
  8
DEFPOINTS
 62
     0
440
 16777216
100
AcDbPoint
 10
-1556.326461571256
 20
1240.362393994588
 30
0.0
  0
POINT
  5
4767
330
4718
100
AcDbEntity
  8
DEFPOINTS
 62
     0
440
 16777216
100
AcDbPoint
 10
-1556.326461571256
 20
1590.920326732964
 30
0.0
  0
ENDBLK
  5
471A
330
4718
100
AcDbEntity
  8
0
100
AcDbBlockEnd
  0
BLOCK
  5
4725
330
4724
100
AcDbEntity
  8
0
100
AcDbBlockBegin
  2
*D169
 70
     1
 10
0.0
 20
0.0
 30
0.0
  3
*D169
  1

  0
LINE
  5
4768
330
4724
100
AcDbEntity
  8
SIZE
 62
     0
440
 16777216
370
    -2
100
AcDbLine
 10
-1602.326461571256
 20
1351.362393994588
 30
0.0
 11
-1602.326461571256
 21
1409.637077254366
 31
0.0
  0
LINE
  5
4769
330
4724
100
AcDbEntity
  8
SIZE
 62
     0
440
 16777216
370
    -2
100
AcDbLine
 10
-1982.326461571264
 20
1351.362393994588
 30
0.0
 11
-1982.326461571264
 21
1409.637077254366
 31
0.0
  0
LINE
  5
476A
330
4724
100
AcDbEntity
  8
SIZE
 62
     0
440
 16777216
370
    -2
100
AcDbLine
 10
-1614.326461571256
 20
1389.637077254367
 30
0.0
 11
-1970.326461571264
 21
1389.637077254367
 31
0.0
  0
INSERT
  5
476B
330
4724
100
AcDbEntity
  8
SIZE
 62
     0
440
 16777216
370
    -2
100
AcDbBlockReference
  2
_DOTBLANK
 10
-1602.326461571256
 20
1389.637077254367
 30
0.0
 41
12.0
 42
12.0
 43
12.0
  0
INSERT
  5
476C
330
4724
100
AcDbEntity
  8
SIZE
 62
     0
440
 16777216
370
    -2
100
AcDbBlockReference
  2
_DOTBLANK
 10
-1982.326461571264
 20
1389.637077254367
 30
0.0
 41
12.0
 42
12.0
 43
12.0
 50
180.0
  0
MTEXT
  5
476D
330
4724
100
AcDbEntity
  8
SIZE
 62
     0
440
 16777216
100
AcDbMText
 10
-1792.32646157126
 20
1431.637077254366
 30
0.0
 40
64.0
 41
0.0
 46
0.0
 71
     5
 72
     1
  1
\A1;380
 73
     1
 44
1.0
  0
POINT
  5
476E
330
4724
100
AcDbEntity
  8
DEFPOINTS
 62
     0
440
 16777216
100
AcDbPoint
 10
-1602.326461571256
 20
1331.362393994588
 30
0.0
  0
POINT
  5
476F
330
4724
100
AcDbEntity
  8
DEFPOINTS
 62
     0
440
 16777216
100
AcDbPoint
 10
-1982.326461571264
 20
1331.362393994588
 30
0.0
  0
POINT
  5
4770
330
4724
100
AcDbEntity
  8
DEFPOINTS
 62
     0
440
 16777216
100
AcDbPoint
 10
-1982.326461571264
 20
1389.637077254367
 30
0.0
  0
ENDBLK
  5
4726
330
4724
100
AcDbEntity
  8
0
100
AcDbBlockEnd
  0
BLOCK
  5
4731
330
4730
100
AcDbEntity
  8
0
100
AcDbBlockBegin
  2
*D170
 70
     1
 10
0.0
 20
0.0
 30
0.0
  3
*D170
  1

  0
LINE
  5
4771
330
4730
100
AcDbEntity
  8
SIZE
 62
     0
440
 16777216
370
    -2
100
AcDbLine
 10
-2017.326461571256
 20
1351.362393994588
 30
0.0
 11
-2017.326461571256
 21
1509.478862904907
 31
0.0
  0
LINE
  5
4772
330
4730
100
AcDbEntity
  8
SIZE
 62
     0
440
 16777216
370
    -2
100
AcDbLine
 10
-1567.326461571256
 20
1351.362393994588
 30
0.0
 11
-1567.326461571256
 21
1509.478862904907
 31
0.0
  0
LINE
  5
4773
330
4730
100
AcDbEntity
  8
SIZE
 62
     0
440
 16777216
370
    -2
100
AcDbLine
 10
-2005.326461571256
 20
1489.478862904907
 30
0.0
 11
-1579.326461571256
 21
1489.478862904907
 31
0.0
  0
INSERT
  5
4774
330
4730
100
AcDbEntity
  8
SIZE
 62
     0
440
 16777216
370
    -2
100
AcDbBlockReference
  2
_DOTBLANK
 10
-2017.326461571256
 20
1489.478862904907
 30
0.0
 41
12.0
 42
12.0
 43
12.0
 50
180.0
  0
INSERT
  5
4775
330
4730
100
AcDbEntity
  8
SIZE
 62
     0
440
 16777216
370
    -2
100
AcDbBlockReference
  2
_DOTBLANK
 10
-1567.326461571256
 20
1489.478862904907
 30
0.0
 41
12.0
 42
12.0
 43
12.0
  0
MTEXT
  5
4776
330
4730
100
AcDbEntity
  8
SIZE
 62
     0
440
 16777216
100
AcDbMText
 10
-1792.326461571256
 20
1531.478862904907
 30
0.0
 40
64.0
 41
0.0
 46
0.0
 71
     5
 72
     1
  1
\A1;450
 73
     1
 44
1.0
  0
POINT
  5
4777
330
4730
100
AcDbEntity
  8
DEFPOINTS
 62
     0
440
 16777216
100
AcDbPoint
 10
-2017.326461571256
 20
1331.362393994588
 30
0.0
  0
POINT
  5
4778
330
4730
100
AcDbEntity
  8
DEFPOINTS
 62
     0
440
 16777216
100
AcDbPoint
 10
-1567.326461571256
 20
1331.362393994588
 30
0.0
  0
POINT
  5
4779
330
4730
100
AcDbEntity
  8
DEFPOINTS
 62
     0
440
 16777216
100
AcDbPoint
 10
-1567.326461571256
 20
1489.478862904907
 30
0.0
  0
ENDBLK
  5
4732
330
4730
100
AcDbEntity
  8
0
100
AcDbBlockEnd
  0
BLOCK
  5
473D
330
473C
100
AcDbEntity
  8
0
100
AcDbBlockBegin
  2
*D171
 70
     1
 10
0.0
 20
0.0
 30
0.0
  3
*D171
  1

  0
LINE
  5
477A
330
473C
100
AcDbEntity
  8
SIZE
 62
     0
440
 16777216
370
    -2
100
AcDbLine
 10
-2037.326461571256
 20
1331.362393994588
 30
0.0
 11
-2103.17334709989
 21
1331.362393994588
 31
0.0
  0
LINE
  5
477B
330
473C
100
AcDbEntity
  8
SIZE
 62
     0
440
 16777216
370
    -2
100
AcDbLine
 10
-2037.326461571256
 20
1221.362393994588
 30
0.0
 11
-2103.17334709989
 21
1221.362393994588
 31
0.0
  0
LINE
  5
477C
330
473C
100
AcDbEntity
  8
SIZE
 62
     0
440
 16777216
370
    -2
100
AcDbLine
 10
-2083.17334709989
 20
1319.362393994588
 30
0.0
 11
-2083.17334709989
 21
1233.362393994588
 31
0.0
  0
INSERT
  5
477D
330
473C
100
AcDbEntity
  8
SIZE
 62
     0
440
 16777216
370
    -2
100
AcDbBlockReference
  2
_DOTBLANK
 10
-2083.17334709989
 20
1331.362393994588
 30
0.0
 41
12.0
 42
12.0
 43
12.0
 50
90.0
  0
INSERT
  5
477E
330
473C
100
AcDbEntity
  8
SIZE
 62
     0
440
 16777216
370
    -2
100
AcDbBlockReference
  2
_DOTBLANK
 10
-2083.17334709989
 20
1221.362393994588
 30
0.0
 41
12.0
 42
12.0
 43
12.0
 50
270.0
  0
MTEXT
  5
477F
330
473C
100
AcDbEntity
  8
SIZE
 62
     0
440
 16777216
100
AcDbMText
 10
-2125.17334709989
 20
1276.362393994588
 30
0.0
 40
64.0
 41
0.0
 46
0.0
 71
     5
 72
     1
  1
\A1;110
 11
0.0000000000000001
 21
1.0
 31
0.0
 73
     1
 44
1.0
  0
POINT
  5
4780
330
473C
100
AcDbEntity
  8
DEFPOINTS
 62
     0
440
 16777216
100
AcDbPoint
 10
-2017.326461571256
 20
1331.362393994588
 30
0.0
  0
POINT
  5
4781
330
473C
100
AcDbEntity
  8
DEFPOINTS
 62
     0
440
 16777216
100
AcDbPoint
 10
-2017.326461571256
 20
1221.362393994588
 30
0.0
  0
POINT
  5
4782
330
473C
100
AcDbEntity
  8
DEFPOINTS
 62
     0
440
 16777216
100
AcDbPoint
 10
-2083.17334709989
 20
1221.362393994588
 30
0.0
  0
ENDBLK
  5
473E
330
473C
100
AcDbEntity
  8
0
100
AcDbBlockEnd
  0
BLOCK
  5
4749
330
4748
100
AcDbEntity
  8
0
100
AcDbBlockBegin
  2
*D172
 70
     1
 10
0.0
 20
0.0
 30
0.0
  3
*D172
  1

  0
LINE
  5
4783
330
4748
100
AcDbEntity
  8
SIZE
 62
     0
440
 16777216
370
    -2
100
AcDbLine
 10
-2036.326461571257
 20
1222.362393994588
 30
0.0
 11
-2103.17334709989
 21
1222.362393994588
 31
0.0
  0
LINE
  5
4784
330
4748
100
AcDbEntity
  8
SIZE
 62
     0
440
 16777216
370
    -2
100
AcDbLine
 10
-2006.326461571257
 20
1198.362393994588
 30
0.0
 11
-2103.17334709989
 21
1198.362393994588
 31
0.0
  0
LINE
  5
4785
330
4748
100
AcDbEntity
  8
SIZE
 62
     0
440
 16777216
370
    -2
100
AcDbLine
 10
-2083.17334709989
 20
1234.362393994588
 30
0.0
 11
-2083.17334709989
 21
1246.362393994588
 31
0.0
  0
LINE
  5
4786
330
4748
100
AcDbEntity
  8
SIZE
 62
     0
440
 16777216
370
    -2
100
AcDbLine
 10
-2083.17334709989
 20
1186.362393994588
 30
0.0
 11
-2083.17334709989
 21
1058.362393994588
 31
0.0
  0
LINE
  5
4787
330
4748
100
AcDbEntity
  8
SIZE
 62
     0
440
 16777216
370
    -2
100
AcDbLine
 10
-2083.17334709989
 20
1222.362393994588
 30
0.0
 11
-2083.17334709989
 21
1198.362393994588
 31
0.0
  0
INSERT
  5
4788
330
4748
100
AcDbEntity
  8
SIZE
 62
     0
440
 16777216
370
    -2
100
AcDbBlockReference
  2
_DOTBLANK
 10
-2083.17334709989
 20
1222.362393994588
 30
0.0
 41
12.0
 42
12.0
 43
12.0
 50
270.0
  0
INSERT
  5
4789
330
4748
100
AcDbEntity
  8
SIZE
 62
     0
440
 16777216
370
    -2
100
AcDbBlockReference
  2
_DOTBLANK
 10
-2083.17334709989
 20
1198.362393994588
 30
0.0
 41
12.0
 42
12.0
 43
12.0
 50
90.0
  0
MTEXT
  5
478A
330
4748
100
AcDbEntity
  8
SIZE
 62
     0
440
 16777216
100
AcDbMText
 10
-2125.173347099891
 20
1116.362393994588
 30
0.0
 40
64.0
 41
0.0
 46
0.0
 71
     5
 72
     1
  1
\A1;24
 11
0.0000000000000001
 21
1.0
 31
0.0
 73
     1
 44
1.0
  0
POINT
  5
478B
330
4748
100
AcDbEntity
  8
DEFPOINTS
 62
     0
440
 16777216
100
AcDbPoint
 10
-2016.326461571257
 20
1222.362393994588
 30
0.0
  0
POINT
  5
478C
330
4748
100
AcDbEntity
  8
DEFPOINTS
 62
     0
440
 16777216
100
AcDbPoint
 10
-1986.326461571256
 20
1198.362393994588
 30
0.0
  0
POINT
  5
478D
330
4748
100
AcDbEntity
  8
DEFPOINTS
 62
     0
440
 16777216
100
AcDbPoint
 10
-2083.17334709989
 20
1198.362393994588
 30
0.0
  0
ENDBLK
  5
474A
330
4748
100
AcDbEntity
  8
0
100
AcDbBlockEnd
  0
ENDSEC
  0
SECTION
  2
ENTITIES
  0
TEXT
  5
953
330
85F
100
AcDbEntity
  8
OUTLINE
  6
Continuous
 62
     3
100
AcDbText
 10
-418.231467
 20
13.715189
 30
0.0
 40
64.0
  1
 
 41
0.9
100
AcDbText
  0
TEXT
  5
954
330
85F
100
AcDbEntity
  8
OUTLINE
  6
Continuous
 62
     3
100
AcDbText
 10
-418.231467
 20
13.715189
 30
0.0
 40
64.0
  1
 
 41
0.9
100
AcDbText
  0
TEXT
  5
955
330
85F
100
AcDbEntity
  8
OUTLINE
  6
Continuous
 62
     3
100
AcDbText
 10
1341.41903
 20
-706.0588199999997
 30
0.0
 40
64.0
  1
 
 41
0.9
100
AcDbText
  0
TEXT
  5
956
330
85F
100
AcDbEntity
  8
OUTLINE
  6
Continuous
 62
     3
100
AcDbText
 10
1341.41903
 20
-706.0588199999997
 30
0.0
 40
64.0
  1
 
 41
0.9
100
AcDbText
  0
TEXT
  5
957
330
85F
100
AcDbEntity
  8
OUTLINE
  6
Continuous
 62
     3
100
AcDbText
 10
1341.41903
 20
-706.0588199999997
 30
0.0
 40
64.0
  1
 
 41
0.9
100
AcDbText
  0
TEXT
  5
958
330
85F
100
AcDbEntity
  8
OUTLINE
  6
Continuous
 62
     3
100
AcDbText
 10
1341.41903
 20
-706.0588199999997
 30
0.0
 40
64.0
  1
 
 41
0.9
100
AcDbText
  0
LINE
  5
464A
330
85F
100
AcDbEntity
  8
DETAIL
100
AcDbLine
 10
-1567.326461571256
 20
1235.862393994588
 30
0.0
 11
-1566.326461571256
 21
1235.862393994588
 31
0.0
  0
ARC
  5
464B
330
85F
100
AcDbEntity
  8
DETAIL
100
AcDbCircle
 10
-1565.226461571258
 20
1233.262393994588
 30
0.0
 40
1.099999999999655
100
AcDbArc
 50
129.4005687536097
 51
179.9999999999739
  0
LINE
  5
464C
330
85F
100
AcDbEntity
  8
DETAIL
100
AcDbLine
 10
-1561.326461571256
 20
1233.435599075345
 30
0.0
 11
-1561.826461571256
 21
1232.569573671561
 31
0.0
  0
LINE
  5
464D
330
85F
100
AcDbEntity
  8
DETAIL
100
AcDbLine
 10
-1563.125499676937
 20
1233.319573671561
 30
0.0
 11
-1562.768798521293
 21
1233.937398196247
 31
0.0
  0
LINE
  5
464E
330
85F
100
AcDbEntity
  8
DETAIL
100
AcDbLine
 10
-1563.125499676937
 20
1233.319573671561
 30
0.0
 11
-1564.676461571255
 21
1234.215021938751
 31
0.0
  0
LINE
  5
464F
330
85F
100
AcDbEntity
  8
DETAIL
100
AcDbLine
 10
-1566.326461571256
 20
1234.112393994588
 30
0.0
 11
-1565.924673573444
 21
1234.112393994588
 31
0.0
  0
LINE
  5
4650
330
85F
100
AcDbEntity
  8
DETAIL
100
AcDbLine
 10
-1566.326461571256
 20
1234.112393994588
 30
0.0
 11
-1567.326461571256
 21
1234.112393994588
 31
0.0
  0
LINE
  5
4651
330
85F
100
AcDbEntity
  8
DETAIL
100
AcDbLine
 10
-1566.326461571256
 20
1225.309835111331
 30
0.0
 11
-1566.326461571256
 21
1234.112393994588
 31
0.0
  0
LINE
  5
4652
330
85F
100
AcDbEntity
  8
DETAIL
100
AcDbLine
 10
-1567.326461571256
 20
1225.309835111331
 30
0.0
 11
-1566.326461571256
 21
1225.309835111331
 31
0.0
  0
LINE
  5
4653
330
85F
100
AcDbEntity
  8
DETAIL
100
AcDbLine
 10
-1567.326461571256
 20
1222.362393994588
 30
0.0
 11
-1566.326461571256
 21
1222.362393994588
 31
0.0
  0
LINE
  5
4654
330
85F
100
AcDbEntity
  8
DETAIL
100
AcDbLine
 10
-1561.326461571256
 20
1233.435599075345
 30
0.0
 11
-1562.547363692016
 21
1234.140487243419
 31
0.0
  0
LINE
  5
4655
330
85F
100
AcDbEntity
  8
DETAIL
100
AcDbLine
 10
-1563.125499676937
 20
1233.319573671561
 30
0.0
 11
-1561.826461571256
 21
1232.569573671561
 31
0.0
  0
ARC
  5
4656
330
85F
100
AcDbEntity
  8
DETAIL
100
AcDbCircle
 10
-1565.226461571258
 20
1233.262393994588
 30
0.0
 40
1.1
100
AcDbArc
 50
60.00000000000272
 51
129.4005687536097
  0
ARC
  5
4657
330
85F
100
AcDbEntity
  8
DETAIL
100
AcDbCircle
 10
-1565.226461571258
 20
1233.262393994588
 30
0.0
 40
2.1
100
AcDbArc
 50
63.1062350944757
 51
121.5881355051805
  0
LINE
  5
4658
330
85F
100
AcDbEntity
  8
DETAIL
100
AcDbLine
 10
-1566.326461571256
 20
1234.112393994588
 30
0.0
 11
-1566.326461571256
 21
1235.862393994588
 31
0.0
  0
LINE
  5
4659
330
85F
100
AcDbEntity
  8
DETAIL
100
AcDbLine
 10
-1566.326461571256
 20
1222.362393994588
 30
0.0
 11
-1566.326461571256
 21
1225.30983511133
 31
0.0
  0
ARC
  5
465A
330
85F
100
AcDbEntity
  8
DETAIL
100
AcDbCircle
 10
-1560.126461571259
 20
1243.862393994588
 30
0.0
 40
1.499999999999996
100
AcDbArc
 50
270.0
 51
90.0
  0
ARC
  5
465B
330
85F
100
AcDbEntity
  8
DETAIL
100
AcDbCircle
 10
-1560.126461571259
 20
1243.862393994588
 30
0.0
 40
1.499999999999996
100
AcDbArc
 50
90.0
 51
101.5933139043626
  0
ARC
  5
465C
330
85F
100
AcDbEntity
  8
DETAIL
100
AcDbCircle
 10
-1560.126461571259
 20
1243.862393994588
 30
0.0
 40
1.499999999999996
100
AcDbArc
 50
238.1973438971193
 51
270.0
  0
LINE
  5
465D
330
85F
100
AcDbEntity
  8
DETAIL
100
AcDbLine
 10
-1564.326461571256
 20
1267.862393994588
 30
0.0
 11
-1565.326461571256
 21
1267.862393994588
 31
0.0
  0
LINE
  5
465E
330
85F
100
AcDbEntity
  8
DETAIL
100
AcDbLine
 10
-1564.326461571256
 20
1262.362393994588
 30
0.0
 11
-1565.326461571256
 21
1262.362393994588
 31
0.0
  0
LINE
  5
465F
330
85F
100
AcDbEntity
  8
DETAIL
100
AcDbLine
 10
-1565.326461571256
 20
1254.362393994588
 30
0.0
 11
-1564.676461571255
 21
1254.362393994588
 31
0.0
  0
SPLINE
  5
4660
330
85F
100
AcDbEntity
  8
DETAIL
100
AcDbSpline
210
0.0
220
0.0
230
1.0
 70
     8
 71
     3
 72
     8
 73
     4
 74
     0
 42
0.000000001
 43
0.0000000001
 40
0.4
 40
0.4
 40
0.4
 40
0.4
 40
0.6
 40
0.6
 40
0.6
 40
0.6
 10
-1564.676461571255
 20
1254.362393994588
 30
0.0
 10
-1564.676461571255
 20
1249.862393994588
 30
0.0
 10
-1563.326461571256
 20
1245.362393994588
 30
0.0
 10
-1563.326461571256
 20
1240.862393994588
 30
0.0
  0
LINE
  5
4661
330
85F
100
AcDbEntity
  8
DETAIL
100
AcDbLine
 10
-1564.676461571255
 20
1254.362393994588
 30
0.0
 11
-1563.892146147608
 21
1254.362393994588
 31
0.0
  0
LINE
  5
4662
330
85F
100
AcDbEntity
  8
DETAIL
100
AcDbLine
 10
-1565.326461571256
 20
1240.862393994588
 30
0.0
 11
-1563.326461571256
 21
1240.862393994588
 31
0.0
  0
LINE
  5
4663
330
85F
100
AcDbEntity
  8
DETAIL
100
AcDbLine
 10
-1563.326461571256
 20
1240.862393994588
 30
0.0
 11
-1563.255914985546
 21
1240.862393994588
 31
0.0
  0
LINE
  5
4664
330
85F
100
AcDbEntity
  8
DETAIL
100
AcDbLine
 10
-1561.224403973947
 20
1240.862393994588
 30
0.0
 11
-1560.126461571259
 21
1240.862393994588
 31
0.0
  0
LINE
  5
4665
330
85F
100
AcDbEntity
  8
DETAIL
100
AcDbLine
 10
-1564.326461571256
 20
1254.362393994588
 30
0.0
 11
-1564.326461571256
 21
1262.362393994588
 31
0.0
  0
LINE
  5
4666
330
85F
100
AcDbEntity
  8
DETAIL
100
AcDbLine
 10
-1564.326461571256
 20
1262.362393994588
 30
0.0
 11
-1564.326461571256
 21
1267.862393994588
 31
0.0
  0
LINE
  5
4667
330
85F
100
AcDbEntity
  8
DETAIL
100
AcDbLine
 10
-1557.862185259803
 20
1246.336874300711
 30
0.0
 11
-1557.115195080706
 21
1246.623240626129
 31
0.0
  0
LINE
  5
4668
330
85F
100
AcDbEntity
  8
DETAIL
100
AcDbLine
 10
-1563.118677251742
 20
1243.646418714863
 30
0.0
 11
-1564.300395182562
 21
1260.018454102437
 31
0.0
  0
LINE
  5
4669
330
85F
100
AcDbEntity
  8
DETAIL
100
AcDbLine
 10
-1562.141807496761
 20
1268.291654802722
 30
0.0
 11
-1562.573305328269
 21
1269.015124045825
 31
0.0
  0
LINE
  5
466A
330
85F
100
AcDbEntity
  8
DETAIL
100
AcDbLine
 10
-1563.20460617616
 20
1262.285270000737
 30
0.0
 11
-1557.976320960248
 21
1246.299545121101
 31
0.0
  0
LINE
  5
466B
330
85F
100
AcDbEntity
  8
DETAIL
100
AcDbLine
 10
-1557.862185259803
 20
1246.336874300711
 30
0.0
 11
-1557.325248399642
 21
1244.936267714906
 31
0.0
  0
LINE
  5
466C
330
85F
100
AcDbEntity
  8
DETAIL
100
AcDbLine
 10
-1563.12888791448
 20
1262.310034387157
 30
0.0
 11
-1557.115195080706
 21
1246.623240626129
 31
0.0
  0
ARC
  5
466D
330
85F
100
AcDbEntity
  8
DETAIL
100
AcDbCircle
 10
-1557.526461571282
 20
1264.457781827816
 30
0.0
 40
5.999999999967068
100
AcDbArc
 50
120.8130639243706
 51
140.2842845590677
  0
LINE
  5
466E
330
85F
100
AcDbEntity
  8
DETAIL
100
AcDbLine
 10
-1561.009684742918
 20
1270.297915074252
 30
0.0
 11
-1560.599893781541
 21
1269.610840574668
 31
0.0
  0
ARC
  5
466F
330
85F
100
AcDbEntity
  8
DETAIL
100
AcDbCircle
 10
-1557.526461571268
 20
1264.457781827798
 30
0.0
 40
6.799999999989648
100
AcDbArc
 50
120.8130639243706
 51
137.9176991012946
  0
LINE
  5
4670
330
85F
100
AcDbEntity
  8
DETAIL
100
AcDbLine
 10
-1563.708722589358
 20
1261.587640816386
 30
0.0
 11
-1563.875878093577
 21
1262.023668061738
 31
0.0
  0
ARC
  5
4671
330
85F
100
AcDbEntity
  8
DETAIL
100
AcDbCircle
 10
-1560.694623472702
 20
1249.534888336036
 30
0.0
 40
1.05
100
AcDbArc
 50
332.1425387385972
 51
110.9748369394353
  0
ARC
  5
4672
330
85F
100
AcDbEntity
  8
DETAIL
100
AcDbCircle
 10
-1560.126461571259
 20
1243.862393994588
 30
0.0
 40
3.0
100
AcDbArc
 50
290.9748369394353
 51
20.97483693939415
  0
ARC
  5
4673
330
85F
100
AcDbEntity
  8
DETAIL
100
AcDbCircle
 10
-1562.305584728902
 20
1260.162437622253
 30
0.0
 40
2.0
100
AcDbArc
 50
134.5530154176497
 51
184.1283953703944
  0
ARC
  5
4674
330
85F
100
AcDbEntity
  8
DETAIL
100
AcDbCircle
 10
-1560.663398431412
 20
1245.263000580394
 30
0.0
 40
3.799999999999998
100
AcDbArc
 50
338.5547370143314
 51
20.97483693939415
  0
ARC
  5
4675
330
85F
100
AcDbEntity
  8
DETAIL
100
AcDbCircle
 10
-1557.526461571261
 20
1264.45778182779
 30
0.0
 40
5.999999999999997
100
AcDbArc
 50
140.2842845590043
 51
200.9748369393942
  0
ARC
  5
4676
330
85F
100
AcDbEntity
  8
DETAIL
100
AcDbCircle
 10
-1557.526461571261
 20
1264.45778182779
 30
0.0
 40
6.799999999999999
100
AcDbArc
 50
137.9176991012849
 51
200.9748369393942
  0
ARC
  5
4677
330
85F
100
AcDbEntity
  8
DETAIL
100
AcDbCircle
 10
-1560.126461571259
 20
1243.862393994588
 30
0.0
 40
3.0
100
AcDbArc
 50
249.2425312362029
 51
290.9748369394353
  0
ARC
  5
4678
330
85F
100
AcDbEntity
  8
DETAIL
100
AcDbCircle
 10
-1560.126461571259
 20
1243.862393994588
 30
0.0
 40
3.0
100
AcDbArc
 50
184.1283953703944
 51
201.5175439638049
  0
ARC
  5
4679
330
85F
100
AcDbEntity
  8
DETAIL
100
AcDbCircle
 10
-1560.694623472702
 20
1249.534888336036
 30
0.0
 40
1.05
100
AcDbArc
 50
110.9748369394353
 51
187.6481190626826
  0
LINE
  5
467A
330
85F
100
AcDbEntity
  8
DETAIL
100
AcDbLine
 10
-1563.055468244014
 20
1236.287437078412
 30
0.0
 11
-1562.507476346067
 21
1239.362393994588
 31
0.0
  0
LINE
  5
467B
330
85F
100
AcDbEntity
  8
DETAIL
100
AcDbLine
 10
-1562.329265101851
 20
1240.362393994588
 30
0.0
 11
-1561.125551374078
 21
1247.116814755597
 31
0.0
  0
LINE
  5
467C
330
85F
100
AcDbEntity
  8
DETAIL
100
AcDbLine
 10
-1564.013279148751
 20
1236.612582673572
 30
0.0
 11
-1563.523231851871
 21
1239.362393994588
 31
0.0
  0
LINE
  5
467D
330
85F
100
AcDbEntity
  8
DETAIL
100
AcDbLine
 10
-1563.345020607654
 20
1240.362393994588
 30
0.0
 11
-1562.083362278814
 21
1247.441960350757
 31
0.0
  0
LINE
  5
467E
330
85F
100
AcDbEntity
  8
DETAIL
100
AcDbLine
 10
-1562.04430138926
 20
1236.261688697219
 30
0.0
 11
-1561.491720840272
 21
1239.362393994588
 31
0.0
  0
LINE
  5
467F
330
85F
100
AcDbEntity
  8
DETAIL
100
AcDbLine
 10
-1561.313509596056
 20
1240.362393994588
 30
0.0
 11
-1560.114384519324
 21
1247.091066374405
 31
0.0
  0
ARC
  5
4680
330
85F
100
AcDbEntity
  8
DETAIL
100
AcDbCircle
 10
-1560.694623472702
 20
1249.534888336036
 30
0.0
 40
0.9999999999999996
100
AcDbArc
 50
349.8953289007533
 51
79.89532890063333
  0
LINE
  5
4681
330
85F
100
AcDbEntity
  8
DETAIL
100
AcDbLine
 10
-1561.045517449051
 20
1247.565910576547
 30
0.0
 11
-1560.061028569306
 21
1247.390463588371
 31
0.0
  0
ELLIPSE
  5
4682
330
85F
100
AcDbEntity
  8
DETAIL
100
AcDbEllipse
 10
-1561.098873399069
 20
1247.266513362581
 30
0.0
 11
0.9844888797441553
 21
-0.175446988176192
 31
0.0
210
0.0
220
0.0
230
1.0
 40
0.1520571842539047
 41
4.71238898038467
 42
6.283185307179585
  0
ELLIPSE
  5
4683
330
85F
100
AcDbEntity
  8
DETAIL
100
AcDbEllipse
 10
-1563.028790269006
 20
1236.437135685396
 30
0.0
 11
0.9844888797441555
 21
-0.175446988176192
 31
0.0
210
0.0
220
0.0
230
1.0
 40
0.1520571842539056
 41
4.71238898038467
 42
6.283185307179585
  0
ARC
  5
4684
330
85F
100
AcDbEntity
  8
DETAIL
100
AcDbCircle
 10
-1563.326328295343
 20
1234.767555139874
 30
0.0
 40
1.0
100
AcDbArc
 50
259.8953289006333
 51
349.8953289007533
  0
LINE
  5
4685
330
85F
100
AcDbEntity
  8
DETAIL
100
AcDbLine
 10
-1561.045517449051
 20
1247.565910576547
 30
0.0
 11
-1561.125551374078
 21
1247.116814755597
 31
0.0
  0
ELLIPSE
  5
4686
330
85F
100
AcDbEntity
  8
DETAIL
100
AcDbEllipse
 10
-1561.098873399069
 20
1247.266513362581
 30
0.0
 11
0.9844888797441553
 21
-0.175446988176192
 31
0.0
210
0.0
220
0.0
230
1.0
 40
0.1520571842539047
 41
3.141592653589794
 42
4.71238898038467
  0
ARC
  5
4687
330
85F
100
AcDbEntity
  8
DETAIL
100
AcDbCircle
 10
-1560.694623472702
 20
1249.534888336036
 30
0.0
 40
0.9999999999999996
100
AcDbArc
 50
79.89532890063333
 51
169.8953289007533
  0
LINE
  5
4688
330
85F
100
AcDbEntity
  8
DETAIL
100
AcDbLine
 10
-1560.519176484524
 20
1250.51937721578
 30
0.0
 11
-1561.045517449051
 21
1247.565910576547
 31
0.0
  0
LINE
  5
4689
330
85F
100
AcDbEntity
  8
DETAIL
100
AcDbLine
 10
-1562.030006328796
 20
1247.741357564723
 30
0.0
 11
-1561.045517449051
 21
1247.565910576547
 31
0.0
  0
ELLIPSE
  5
468A
330
85F
100
AcDbEntity
  8
DETAIL
100
AcDbEllipse
 10
-1563.028790269006
 20
1236.437135685396
 30
0.0
 11
0.9844888797441555
 21
-0.175446988176192
 31
0.0
210
0.0
220
0.0
230
1.0
 40
0.1520571842539056
 41
3.141592653589794
 42
4.71238898038467
  0
LINE
  5
468B
330
85F
100
AcDbEntity
  8
DETAIL
100
AcDbLine
 10
-1563.055468244014
 20
1236.287437078412
 30
0.0
 11
-1563.501775283521
 21
1233.783066260129
 31
0.0
  0
ARC
  5
468C
330
85F
100
AcDbEntity
  8
DETAIL
100
AcDbCircle
 10
-1563.326328295343
 20
1234.767555139874
 30
0.0
 40
1.0
100
AcDbArc
 50
169.8953289007533
 51
259.8953289006333
  0
LINE
  5
468D
330
85F
100
AcDbEntity
  8
DETAIL
100
AcDbLine
 10
-1562.341839415598
 20
1234.592108151697
 30
0.0
 11
-1562.04430138926
 21
1236.261688697219
 31
0.0
  0
LINE
  5
468E
330
85F
100
AcDbEntity
  8
DETAIL
100
AcDbLine
 10
-1560.061028569306
 20
1247.390463588371
 30
0.0
 11
-1559.710134592957
 21
1249.359441347859
 31
0.0
  0
LINE
  5
468F
330
85F
100
AcDbEntity
  8
DETAIL
100
AcDbLine
 10
-1560.114384519324
 20
1247.091066374405
 30
0.0
 11
-1560.061028569306
 21
1247.390463588371
 31
0.0
  0
LINE
  5
4690
330
85F
100
AcDbEntity
  8
DETAIL
100
AcDbLine
 10
-1562.030006328796
 20
1247.741357564723
 30
0.0
 11
-1562.083362278814
 21
1247.441960350757
 31
0.0
  0
LINE
  5
4691
330
85F
100
AcDbEntity
  8
DETAIL
100
AcDbLine
 10
-1561.67911235244
 20
1249.710335324212
 30
0.0
 11
-1562.030006328796
 21
1247.741357564723
 31
0.0
  0
LINE
  5
4692
330
85F
100
AcDbEntity
  8
DETAIL
100
AcDbLine
 10
-1564.013279148751
 20
1236.612582673572
 30
0.0
 11
-1564.310817175089
 21
1234.94300212805
 31
0.0
  0
LINE
  5
4693
330
85F
100
AcDbEntity
  8
DETAIL
100
AcDbLine
 10
-1566.326461571256
 20
1291.362393994588
 30
0.0
 11
-1565.326461571256
 21
1291.362393994588
 31
0.0
  0
LINE
  5
4694
330
85F
100
AcDbEntity
  8
DETAIL
100
AcDbLine
 10
-1565.326461571256
 20
1239.362393994588
 30
0.0
 11
-1565.326461571256
 21
1291.362393994588
 31
0.0
  0
LINE
  5
4695
330
85F
100
AcDbEntity
  8
DETAIL
100
AcDbLine
 10
-1561.326461571256
 20
1240.362393994588
 30
0.0
 11
-1561.326461571256
 21
1239.362393994588
 31
0.0
  0
LINE
  5
4696
330
85F
100
AcDbEntity
  8
DETAIL
100
AcDbLine
 10
-1556.326461571256
 20
1239.362393994588
 30
0.0
 11
-1556.326461571256
 21
1240.362393994588
 31
0.0
  0
LINE
  5
4697
330
85F
100
AcDbEntity
  8
DETAIL
100
AcDbLine
 10
-1566.326461571256
 20
1291.362393994588
 30
0.0
 11
-1566.326461571256
 21
1302.362393994588
 31
0.0
  0
LINE
  5
4698
330
85F
100
AcDbEntity
  8
DETAIL
100
AcDbLine
 10
-1577.326461571256
 20
1302.362393994588
 30
0.0
 11
-1577.326461571256
 21
1240.362393994588
 31
0.0
  0
LINE
  5
4699
330
85F
100
AcDbEntity
  8
DETAIL
100
AcDbLine
 10
-1567.326461571256
 20
1303.362393994588
 30
0.0
 11
-1566.326461571256
 21
1302.362393994588
 31
0.0
  0
LINE
  5
469A
330
85F
100
AcDbEntity
  8
DETAIL
100
AcDbLine
 10
-1567.326461571256
 20
1303.362393994588
 30
0.0
 11
-1576.326461571256
 21
1303.362393994588
 31
0.0
  0
LINE
  5
469B
330
85F
100
AcDbEntity
  8
DETAIL
100
AcDbLine
 10
-1577.326461571256
 20
1302.362393994588
 30
0.0
 11
-1576.326461571256
 21
1303.362393994588
 31
0.0
  0
LINE
  5
469C
330
85F
100
AcDbEntity
  8
DETAIL
100
AcDbLine
 10
-1576.326461571256
 20
1239.362393994588
 30
0.0
 11
-1577.326461571256
 21
1240.362393994588
 31
0.0
  0
LINE
  5
469D
330
85F
100
AcDbEntity
  8
DETAIL
100
AcDbLine
 10
-1556.326461571256
 20
1240.362393994588
 30
0.0
 11
-1561.326461571256
 21
1240.362393994588
 31
0.0
  0
LINE
  5
469E
330
85F
100
AcDbEntity
  8
DETAIL
100
AcDbLine
 10
-1565.326461571256
 20
1240.362393994588
 30
0.0
 11
-1561.326461571256
 21
1240.362393994588
 31
0.0
  0
LINE
  5
469F
330
85F
100
AcDbEntity
  8
DETAIL
100
AcDbLine
 10
-1565.326461571256
 20
1239.362393994588
 30
0.0
 11
-1576.326461571256
 21
1239.362393994588
 31
0.0
  0
LINE
  5
46A0
330
85F
100
AcDbEntity
  8
DETAIL
100
AcDbLine
 10
-1565.326461571256
 20
1239.362393994588
 30
0.0
 11
-1561.326461571256
 21
1239.362393994588
 31
0.0
  0
LINE
  5
46A1
330
85F
100
AcDbEntity
  8
DETAIL
100
AcDbLine
 10
-1561.326461571256
 20
1239.362393994588
 30
0.0
 11
-1556.326461571256
 21
1239.362393994588
 31
0.0
  0
CIRCLE
  5
46A2
330
85F
100
AcDbEntity
  8
DETAIL
100
AcDbCircle
 10
-1572.326461571256
 20
1298.362393994588
 30
0.0
 40
3.199999999999988
  0
CIRCLE
  5
46A3
330
85F
100
AcDbEntity
  8
DETAIL
100
AcDbCircle
 10
-1572.326461571256
 20
1298.362393994588
 30
0.0
 40
4.0
  0
LINE
  5
46A4
330
85F
100
AcDbEntity
  8
DETAIL
100
AcDbLine
 10
-2016.326461571257
 20
1222.362393994588
 30
0.0
 11
-1990.326461571256
 21
1222.362393994588
 31
0.0
  0
LINE
  5
46A5
330
85F
100
AcDbEntity
  8
DETAIL
100
AcDbLine
 10
-1990.326461571256
 20
1222.362393994588
 30
0.0
 11
-1990.326461571256
 21
1221.362393994588
 31
0.0
  0
LINE
  5
46A6
330
85F
100
AcDbEntity
  8
DETAIL
100
AcDbLine
 10
-1990.326461571256
 20
1221.362393994588
 30
0.0
 11
-2017.326461571256
 21
1221.362393994588
 31
0.0
  0
LINE
  5
46A7
330
85F
100
AcDbEntity
  8
DETAIL
100
AcDbLine
 10
-2017.326461571256
 20
1221.362393994588
 30
0.0
 11
-2017.326461571256
 21
1331.362393994588
 31
0.0
  0
LINE
  5
46A8
330
85F
100
AcDbEntity
  8
DETAIL
100
AcDbLine
 10
-2017.326461571256
 20
1331.362393994588
 30
0.0
 11
-2016.326461571257
 21
1331.362393994588
 31
0.0
  0
LINE
  5
46A9
330
85F
100
AcDbEntity
  8
DETAIL
100
AcDbLine
 10
-2016.326461571257
 20
1222.362393994588
 30
0.0
 11
-2016.326461571257
 21
1331.362393994589
 31
0.0
  0
LINE
  5
46AA
330
85F
100
AcDbEntity
  8
DETAIL
100
AcDbLine
 10
-1594.326461571256
 20
1221.362393994588
 30
0.0
 11
-1990.326461571256
 21
1221.362393994589
 31
0.0
  0
LINE
  5
46AB
330
85F
100
AcDbEntity
  8
DETAIL
100
AcDbLine
 10
-1568.326461571256
 20
1331.362393994588
 30
0.0
 11
-2016.326461571257
 21
1331.362393994589
 31
0.0
  0
LINE
  5
46AC
330
85F
100
AcDbEntity
  8
DETAIL
100
AcDbLine
 10
-1568.326461571256
 20
1222.362393994588
 30
0.0
 11
-1568.326461571256
 21
1239.362393994588
 31
0.0
  0
LINE
  5
46AD
330
85F
100
AcDbEntity
  8
DETAIL
100
AcDbLine
 10
-1568.326461571256
 20
1303.362393994588
 30
0.0
 11
-1568.326461571256
 21
1331.362393994588
 31
0.0
  0
LINE
  5
46AE
330
85F
100
AcDbEntity
  8
DETAIL
100
AcDbLine
 10
-1594.326461571256
 20
1222.362393994588
 30
0.0
 11
-1568.326461571256
 21
1222.362393994588
 31
0.0
  0
LINE
  5
46AF
330
85F
100
AcDbEntity
  8
DETAIL
100
AcDbLine
 10
-1594.326461571256
 20
1221.362393994588
 30
0.0
 11
-1594.326461571256
 21
1222.362393994588
 31
0.0
  0
CIRCLE
  5
46B0
330
85F
100
AcDbEntity
  8
DETAIL
100
AcDbCircle
 10
-1792.326461571256
 20
1301.362393994588
 30
0.0
 40
5.0
  0
CIRCLE
  5
46B1
330
85F
100
AcDbEntity
  8
DETAIL
100
AcDbCircle
 10
-1792.326461571256
 20
1301.362393994588
 30
0.0
 40
20.27069063257501
  0
CIRCLE
  5
46B2
330
85F
100
AcDbEntity
  8
DETAIL
100
AcDbCircle
 10
-1792.326461571256
 20
1301.362393994588
 30
0.0
 40
9.999999999999998
  0
LINE
  5
46B3
330
85F
100
AcDbEntity
  8
DETAIL
100
AcDbLine
 10
-1594.326461571256
 20
1222.362393994588
 30
0.0
 11
-1568.326461571256
 21
1222.362393994588
 31
0.0
  0
LINE
  5
46B4
330
85F
100
AcDbEntity
  8
DETAIL
100
AcDbLine
 10
-1594.326461571256
 20
1221.362393994588
 30
0.0
 11
-1594.326461571256
 21
1222.362393994588
 31
0.0
  0
LINE
  5
46B5
330
85F
100
AcDbEntity
  8
DETAIL
100
AcDbLine
 10
-1567.326461571256
 20
1221.362393994588
 30
0.0
 11
-1594.326461571256
 21
1221.362393994588
 31
0.0
  0
LINE
  5
46B6
330
85F
100
AcDbEntity
  8
DETAIL
100
AcDbLine
 10
-1568.326461571256
 20
1331.362393994588
 30
0.0
 11
-1567.326461571256
 21
1331.362393994588
 31
0.0
  0
LINE
  5
46B7
330
85F
100
AcDbEntity
  8
DETAIL
100
AcDbLine
 10
-1568.326461571256
 20
1331.362393994588
 30
0.0
 11
-1568.326461571256
 21
1303.362393994588
 31
0.0
  0
LINE
  5
46B8
330
85F
100
AcDbEntity
  8
DETAIL
100
AcDbLine
 10
-1568.326461571256
 20
1239.362393994588
 30
0.0
 11
-1568.326461571256
 21
1222.362393994588
 31
0.0
  0
LINE
  5
46B9
330
85F
100
AcDbEntity
  8
DETAIL
100
AcDbLine
 10
-1567.326461571256
 20
1331.362393994588
 30
0.0
 11
-1567.326461571256
 21
1303.362393994588
 31
0.0
  0
LINE
  5
46BA
330
85F
100
AcDbEntity
  8
DETAIL
100
AcDbLine
 10
-1567.326461571256
 20
1239.362393994588
 30
0.0
 11
-1567.326461571256
 21
1221.362393994588
 31
0.0
  0
LINE
  5
46BB
330
85F
100
AcDbEntity
  8
DETAIL
100
AcDbLine
 10
-1598.326461571256
 20
1198.362393994588
 30
0.0
 11
-1598.326461571256
 21
1221.362393994588
 31
0.0
  0
LINE
  5
46BC
330
85F
100
AcDbEntity
  8
DETAIL
100
AcDbLine
 10
-1606.326461571256
 20
1198.362393994588
 30
0.0
 11
-1606.326461571256
 21
1221.362393994588
 31
0.0
  0
LINE
  5
46BD
330
85F
100
AcDbEntity
  8
DETAIL
100
AcDbLine
 10
-1598.326461571256
 20
1198.362393994588
 30
0.0
 11
-1606.326461571256
 21
1198.362393994588
 31
0.0
  0
LINE
  5
46BE
330
85F
100
AcDbEntity
  8
DETAIL
100
AcDbLine
 10
-1978.326461571256
 20
1198.362393994588
 30
0.0
 11
-1978.326461571256
 21
1221.362393994588
 31
0.0
  0
LINE
  5
46BF
330
85F
100
AcDbEntity
  8
DETAIL
100
AcDbLine
 10
-1986.326461571256
 20
1198.362393994588
 30
0.0
 11
-1986.326461571256
 21
1221.362393994589
 31
0.0
  0
LINE
  5
46C0
330
85F
100
AcDbEntity
  8
DETAIL
100
AcDbLine
 10
-1978.326461571256
 20
1198.362393994588
 30
0.0
 11
-1986.326461571256
 21
1198.362393994588
 31
0.0
  0
ARC
  5
46C1
330
85F
100
AcDbEntity
  8
OUTLINE
100
AcDbCircle
 10
-1565.226461571258
 20
1233.262393994588
 30
0.0
 40
1.099999999999655
100
AcDbArc
 50
129.4005687536097
 51
179.9999999999739
  0
LINE
  5
46C2
330
85F
100
AcDbEntity
  8
OUTLINE
100
AcDbLine
 10
-1561.326461571256
 20
1233.435599075345
 30
0.0
 11
-1561.826461571256
 21
1232.569573671561
 31
0.0
  0
LINE
  5
46C3
330
85F
100
AcDbEntity
  8
OUTLINE
100
AcDbLine
 10
-1563.125499676937
 20
1233.319573671561
 30
0.0
 11
-1564.676461571255
 21
1234.215021938751
 31
0.0
  0
LINE
  5
46C4
330
85F
100
AcDbEntity
  8
OUTLINE
100
AcDbLine
 10
-1567.326461571256
 20
1222.362393994588
 30
0.0
 11
-1566.326461571256
 21
1222.362393994588
 31
0.0
  0
LINE
  5
46C5
330
85F
100
AcDbEntity
  8
OUTLINE
100
AcDbLine
 10
-1561.326461571256
 20
1233.435599075345
 30
0.0
 11
-1562.547363692016
 21
1234.140487243419
 31
0.0
  0
LINE
  5
46C6
330
85F
100
AcDbEntity
  8
OUTLINE
100
AcDbLine
 10
-1563.125499676937
 20
1233.319573671561
 30
0.0
 11
-1561.826461571256
 21
1232.569573671561
 31
0.0
  0
ARC
  5
46C7
330
85F
100
AcDbEntity
  8
OUTLINE
100
AcDbCircle
 10
-1565.226461571258
 20
1233.262393994588
 30
0.0
 40
1.1
100
AcDbArc
 50
60.00000000000272
 51
129.4005687536097
  0
LINE
  5
46C8
330
85F
100
AcDbEntity
  8
OUTLINE
100
AcDbLine
 10
-1566.326461571256
 20
1222.362393994588
 30
0.0
 11
-1566.326461571256
 21
1225.30983511133
 31
0.0
  0
LINE
  5
46C9
330
85F
100
AcDbEntity
  8
OUTLINE
100
AcDbLine
 10
-1564.326461571256
 20
1267.862393994588
 30
0.0
 11
-1565.326461571256
 21
1267.862393994588
 31
0.0
  0
LINE
  5
46CA
330
85F
100
AcDbEntity
  8
OUTLINE
100
AcDbLine
 10
-1561.224403973947
 20
1240.862393994588
 30
0.0
 11
-1560.126461571259
 21
1240.862393994588
 31
0.0
  0
LINE
  5
46CB
330
85F
100
AcDbEntity
  8
OUTLINE
100
AcDbLine
 10
-1564.326461571256
 20
1254.362393994588
 30
0.0
 11
-1564.326461571256
 21
1262.362393994588
 31
0.0
  0
LINE
  5
46CC
330
85F
100
AcDbEntity
  8
OUTLINE
100
AcDbLine
 10
-1564.326461571256
 20
1262.362393994588
 30
0.0
 11
-1564.326461571256
 21
1267.862393994588
 31
0.0
  0
LINE
  5
46CD
330
85F
100
AcDbEntity
  8
OUTLINE
100
AcDbLine
 10
-1563.8921461476
 20
1254.362393994588
 30
0.0
 11
-1564.300395182562
 21
1260.018454102437
 31
0.0
  0
LINE
  5
46CE
330
85F
100
AcDbEntity
  8
OUTLINE
100
AcDbLine
 10
-1563.12888791448
 20
1262.310034387157
 30
0.0
 11
-1557.115195080706
 21
1246.623240626129
 31
0.0
  0
ARC
  5
46CF
330
85F
100
AcDbEntity
  8
OUTLINE
100
AcDbCircle
 10
-1557.526461571282
 20
1264.457781827816
 30
0.0
 40
5.999999999967068
100
AcDbArc
 50
120.8130639243706
 51
140.2842845590677
  0
LINE
  5
46D0
330
85F
100
AcDbEntity
  8
OUTLINE
100
AcDbLine
 10
-1561.009684742918
 20
1270.297915074252
 30
0.0
 11
-1560.599893781541
 21
1269.610840574668
 31
0.0
  0
ARC
  5
46D1
330
85F
100
AcDbEntity
  8
OUTLINE
100
AcDbCircle
 10
-1557.526461571268
 20
1264.457781827798
 30
0.0
 40
6.799999999989648
100
AcDbArc
 50
120.8130639243706
 51
137.9176991012849
  0
LINE
  5
46D2
330
85F
100
AcDbEntity
  8
OUTLINE
100
AcDbLine
 10
-1563.708722589358
 20
1261.587640816386
 30
0.0
 11
-1563.875878093577
 21
1262.023668061738
 31
0.0
  0
ARC
  5
46D3
330
85F
100
AcDbEntity
  8
OUTLINE
100
AcDbCircle
 10
-1560.126461571259
 20
1243.862393994588
 30
0.0
 40
3.0
100
AcDbArc
 50
290.9748369394353
 51
0.2154374267976141
  0
ARC
  5
46D4
330
85F
100
AcDbEntity
  8
OUTLINE
100
AcDbCircle
 10
-1562.305584728902
 20
1260.162437622253
 30
0.0
 40
2.0
100
AcDbArc
 50
134.5530154176497
 51
184.1283953703944
  0
ARC
  5
46D5
330
85F
100
AcDbEntity
  8
OUTLINE
100
AcDbCircle
 10
-1560.663398431412
 20
1245.263000580394
 30
0.0
 40
3.799999999999998
100
AcDbArc
 50
338.5547370143314
 51
20.97483693939415
  0
ARC
  5
46D6
330
85F
100
AcDbEntity
  8
OUTLINE
100
AcDbCircle
 10
-1557.526461571261
 20
1264.45778182779
 30
0.0
 40
5.999999999999997
100
AcDbArc
 50
140.2842845590043
 51
200.9748369393942
  0
ARC
  5
46D7
330
85F
100
AcDbEntity
  8
OUTLINE
100
AcDbCircle
 10
-1557.526461571261
 20
1264.45778182779
 30
0.0
 40
6.799999999999999
100
AcDbArc
 50
137.9176991012849
 51
200.9748369393942
  0
ARC
  5
46D8
330
85F
100
AcDbEntity
  8
OUTLINE
100
AcDbCircle
 10
-1560.126461571259
 20
1243.862393994588
 30
0.0
 40
3.0
100
AcDbArc
 50
270.0
 51
290.9748369394353
  0
LINE
  5
46D9
330
85F
100
AcDbEntity
  8
OUTLINE
100
AcDbLine
 10
-1562.04430138926
 20
1236.261688697219
 30
0.0
 11
-1561.491720840272
 21
1239.362393994588
 31
0.0
  0
ARC
  5
46DA
330
85F
100
AcDbEntity
  8
OUTLINE
100
AcDbCircle
 10
-1563.326328295343
 20
1234.767555139874
 30
0.0
 40
1.0
100
AcDbArc
 50
321.1658729739562
 51
349.8953289007533
  0
LINE
  5
46DB
330
85F
100
AcDbEntity
  8
OUTLINE
100
AcDbLine
 10
-1562.341839415598
 20
1234.592108151697
 30
0.0
 11
-1562.04430138926
 21
1236.261688697219
 31
0.0
  0
LINE
  5
46DC
330
85F
100
AcDbEntity
  8
OUTLINE
100
AcDbLine
 10
-1566.326461571256
 20
1291.362393994588
 30
0.0
 11
-1565.326461571256
 21
1291.362393994588
 31
0.0
  0
LINE
  5
46DD
330
85F
100
AcDbEntity
  8
OUTLINE
100
AcDbLine
 10
-1556.326461571256
 20
1239.362393994588
 30
0.0
 11
-1556.326461571256
 21
1240.362393994588
 31
0.0
  0
LINE
  5
46DE
330
85F
100
AcDbEntity
  8
OUTLINE
100
AcDbLine
 10
-1566.326461571256
 20
1291.362393994588
 30
0.0
 11
-1566.326461571256
 21
1302.362393994588
 31
0.0
  0
LINE
  5
46DF
330
85F
100
AcDbEntity
  8
OUTLINE
100
AcDbLine
 10
-1567.326461571256
 20
1303.362393994588
 30
0.0
 11
-1566.326461571256
 21
1302.362393994588
 31
0.0
  0
LINE
  5
46E0
330
85F
100
AcDbEntity
  8
OUTLINE
100
AcDbLine
 10
-1556.326461571256
 20
1240.362393994588
 30
0.0
 11
-1561.326461571256
 21
1240.362393994588
 31
0.0
  0
LINE
  5
46E1
330
85F
100
AcDbEntity
  8
OUTLINE
100
AcDbLine
 10
-1561.326461571256
 20
1239.362393994588
 30
0.0
 11
-1556.326461571256
 21
1239.362393994588
 31
0.0
  0
LINE
  5
46E2
330
85F
100
AcDbEntity
  8
OUTLINE
100
AcDbLine
 10
-1990.326461571256
 20
1221.362393994588
 30
0.0
 11
-2017.326461571256
 21
1221.362393994588
 31
0.0
  0
LINE
  5
46E3
330
85F
100
AcDbEntity
  8
OUTLINE
100
AcDbLine
 10
-2017.326461571256
 20
1221.362393994588
 30
0.0
 11
-2017.326461571256
 21
1331.362393994588
 31
0.0
  0
LINE
  5
46E4
330
85F
100
AcDbEntity
  8
OUTLINE
100
AcDbLine
 10
-2017.326461571256
 20
1331.362393994588
 30
0.0
 11
-2016.326461571257
 21
1331.362393994588
 31
0.0
  0
LINE
  5
46E5
330
85F
100
AcDbEntity
  8
OUTLINE
100
AcDbLine
 10
-1568.326461571256
 20
1331.362393994588
 30
0.0
 11
-2016.326461571257
 21
1331.362393994589
 31
0.0
  0
LINE
  5
46E6
330
85F
100
AcDbEntity
  8
OUTLINE
100
AcDbLine
 10
-1567.326461571256
 20
1221.362393994588
 30
0.0
 11
-1594.326461571256
 21
1221.362393994588
 31
0.0
  0
LINE
  5
46E7
330
85F
100
AcDbEntity
  8
OUTLINE
100
AcDbLine
 10
-1568.326461571256
 20
1331.362393994588
 30
0.0
 11
-1567.326461571256
 21
1331.362393994588
 31
0.0
  0
LINE
  5
46E8
330
85F
100
AcDbEntity
  8
OUTLINE
100
AcDbLine
 10
-1567.326461571256
 20
1331.362393994588
 30
0.0
 11
-1567.326461571256
 21
1303.362393994588
 31
0.0
  0
LINE
  5
46E9
330
85F
100
AcDbEntity
  8
OUTLINE
100
AcDbLine
 10
-1598.326461571256
 20
1198.362393994588
 30
0.0
 11
-1598.326461571256
 21
1221.362393994588
 31
0.0
  0
LINE
  5
46EA
330
85F
100
AcDbEntity
  8
OUTLINE
100
AcDbLine
 10
-1606.326461571256
 20
1198.362393994588
 30
0.0
 11
-1606.326461571256
 21
1221.362393994588
 31
0.0
  0
LINE
  5
46EB
330
85F
100
AcDbEntity
  8
OUTLINE
100
AcDbLine
 10
-1598.326461571256
 20
1198.362393994588
 30
0.0
 11
-1606.326461571256
 21
1198.362393994588
 31
0.0
  0
LINE
  5
46EC
330
85F
100
AcDbEntity
  8
OUTLINE
100
AcDbLine
 10
-1978.326461571256
 20
1198.362393994588
 30
0.0
 11
-1978.326461571256
 21
1221.362393994588
 31
0.0
  0
LINE
  5
46ED
330
85F
100
AcDbEntity
  8
OUTLINE
100
AcDbLine
 10
-1986.326461571256
 20
1198.362393994588
 30
0.0
 11
-1986.326461571256
 21
1221.362393994589
 31
0.0
  0
LINE
  5
46EE
330
85F
100
AcDbEntity
  8
OUTLINE
100
AcDbLine
 10
-1978.326461571256
 20
1198.362393994588
 30
0.0
 11
-1986.326461571256
 21
1198.362393994588
 31
0.0
  0
LINE
  5
46EF
330
85F
100
AcDbEntity
  8
OUTLINE
100
AcDbLine
 39
50.0
 10
-1566.326461571256
 20
1225.30983511133
 30
0.0
 11
-1566.326461571256
 21
1233.262393994589
 31
0.0
  0
LINE
  5
46F0
330
85F
100
AcDbEntity
  8
OUTLINE
100
AcDbLine
 39
50.0
 10
-1561.491720840272
 20
1239.362393994588
 30
0.0
 11
-1561.326461571256
 21
1239.362393994588
 31
0.0
  0
LINE
  5
46F1
330
85F
100
AcDbEntity
  8
OUTLINE
100
AcDbLine
 39
50.0
 10
-1561.224403973947
 20
1240.862393994588
 30
0.0
 11
-1561.313509596056
 21
1240.362393994588
 31
0.0
  0
LINE
  5
46F2
330
85F
100
AcDbEntity
  8
OUTLINE
100
AcDbLine
 39
50.0
 10
-1564.326461571256
 20
1254.362393994588
 30
0.0
 11
-1563.8921461476
 21
1254.362393994588
 31
0.0
  0
LINE
  5
46F3
330
85F
100
AcDbEntity
  8
OUTLINE
100
AcDbLine
 39
50.0
 10
-1565.326461571256
 20
1267.862393994588
 30
0.0
 11
-1565.326461571256
 21
1291.362393994588
 31
0.0
  0
LINE
  5
46F4
330
85F
100
AcDbEntity
  8
OUTLINE
100
AcDbLine
 39
50.0
 10
-1567.326461571256
 20
1222.362393994588
 30
0.0
 11
-1567.326461571256
 21
1221.362393994588
 31
0.0
  0
LINE
  5
46F5
330
85F
100
AcDbEntity
  8
OUTLINE
100
AcDbLine
 39
50.0
 10
-1594.326461571256
 20
1221.362393994588
 30
0.0
 11
-1598.326461571256
 21
1221.362393994588
 31
0.0
  0
LINE
  5
46F6
330
85F
100
AcDbEntity
  8
OUTLINE
100
AcDbLine
 39
50.0
 10
-1606.326461571256
 20
1221.362393994588
 30
0.0
 11
-1978.326461571256
 21
1221.362393994589
 31
0.0
  0
LINE
  5
46F7
330
85F
100
AcDbEntity
  8
OUTLINE
100
AcDbLine
 39
50.0
 10
-1990.326461571256
 20
1221.362393994588
 30
0.0
 11
-1986.326461571256
 21
1221.362393994588
 31
0.0
  0
LEADER
  5
46F8
330
85F
100
AcDbEntity
  8
NOTE
100
AcDbLeader
  3
STANDARD
 73
     0
 75
     1
 40
64.00000000000002
 41
483.84
 76
     3
 10
-1986.326461571271
 20
1331.362393994589
 30
0.0
 10
-2081.718406652467
 20
1426.577809226177
 30
0.0
 10
-2093.718406652467
 20
1426.577809226177
 30
0.0
340
46F9
213
0.0
223
32.0
233
0.0
1001
ACAD
1000
DSTYLE
1002
{
1070
    41
1040
12.0
1070
    42
1040
20.0
1070
    43
1040
200.0
1070
    44
1040
20.0
1070
    73
1070
     0
1070
    74
1070
     0
1070
    77
1070
     1
1070
    78
1070
     8
1070
   140
1040
64.0
1070
   147
1040
50.0
1070
   172
1070
     1
1070
   174
1070
     1
1070
   275
1070
     0
1070
   284
1070
     0
1070
   285
1070
     0
1070
   286
1070
     0
1070
   341
1005
EE8
1070
   342
1005
AB2
1002
}
  0
MTEXT
  5
46F9
102
{ACAD_REACTORS
330
46F8
102
}
330
85F
100
AcDbEntity
  8
NOTE
100
AcDbMText
 10
-2143.718406652467
 20
1444.577809226177
 30
0.0
 40
64.0
 41
0.0
 46
0.0
 71
     9
 72
     1
  1
4×φ12取付穴
 73
     1
 44
1.0
  0
LINE
  5
46FA
330
85F
100
AcDbEntity
  8
NOTE
100
AcDbLine
 10
-1982.326461571264
 20
1318.862393994589
 30
0.0
 11
-1982.326461571264
 21
1343.862393994589
 31
0.0
  0
LINE
  5
46FB
330
85F
100
AcDbEntity
  8
NOTE
100
AcDbLine
 10
-1602.326461571256
 20
1318.862393994588
 30
0.0
 11
-1602.326461571256
 21
1343.862393994588
 31
0.0
  0
DIMENSION
  5
46FC
330
85F
100
AcDbEntity
  8
SIZE
100
AcDbDimension
  2
*D169
 10
-1982.326461571264
 20
1389.637077254367
 30
0.0
 11
-1792.32646157126
 21
1431.637077254366
 31
0.0
 70
    32
 71
     5
 42
380.0000000000073
 73
     0
 74
     0
 75
     0
  3
STANDARD$0
100
AcDbAlignedDimension
 13
-1602.326461571256
 23
1331.362393994588
 33
0.0
 14
-1982.326461571264
 24
1331.362393994588
 34
0.0
100
AcDbRotatedDimension
  0
DIMENSION
  5
46FD
330
85F
100
AcDbEntity
  8
SIZE
100
AcDbDimension
  2
*D170
 10
-1567.326461571256
 20
1489.478862904907
 30
0.0
 11
-1792.326461571256
 21
1531.478862904907
 31
0.0
 70
    32
 71
     5
 42
450.0
 73
     0
 74
     0
 75
     0
  3
STANDARD$0
100
AcDbAlignedDimension
 13
-2017.326461571256
 23
1331.362393994588
 33
0.0
 14
-1567.326461571256
 24
1331.362393994588
 34
0.0
100
AcDbRotatedDimension
  0
DIMENSION
  5
46FE
330
85F
100
AcDbEntity
  8
SIZE
100
AcDbDimension
  2
*D171
 10
-2083.17334709989
 20
1221.362393994588
 30
0.0
 11
-2083.17334709989
 21
1276.362393994588
 31
0.0
 70
   160
 71
     5
 42
110.0
 73
     0
 74
     0
 75
     0
  3
STANDARD$0
100
AcDbAlignedDimension
 13
-2017.326461571256
 23
1331.362393994588
 33
0.0
 14
-2017.326461571256
 24
1221.362393994588
 34
0.0
 50
90.0
100
AcDbRotatedDimension
  0
DIMENSION
  5
46FF
330
85F
100
AcDbEntity
  8
SIZE
100
AcDbDimension
  2
*D172
 10
-2083.17334709989
 20
1198.362393994588
 30
0.0
 11
-2125.173347099891
 21
1116.362393994588
 31
0.0
 70
    32
 71
     5
 42
24.0
 73
     0
 74
     0
 75
     0
  3
STANDARD$0
100
AcDbAlignedDimension
 13
-2016.326461571257
 23
1222.362393994588
 33
0.0
 14
-1986.326461571256
 24
1198.362393994588
 34
0.0
 50
90.0
100
AcDbRotatedDimension
  0
DIMENSION
  5
4700
330
85F
100
AcDbEntity
  8
SIZE
100
AcDbDimension
  2
*D167
 10
-1602.326461571256
 20
1103.914553899427
 30
0.0
 11
-1792.326461571256
 21
1145.914553899427
 31
0.0
 70
    32
 71
     5
 42
380.0
 73
     0
 74
     0
 75
     0
  3
STANDARD$0
100
AcDbAlignedDimension
 13
-1982.326461571256
 23
1198.362393994588
 33
0.0
 14
-1602.326461571256
 24
1198.362393994588
 34
0.0
100
AcDbRotatedDimension
  0
LEADER
  5
4701
330
85F
100
AcDbEntity
  8
NOTE
100
AcDbLeader
  3
STANDARD
 73
     0
 74
     0
 75
     1
 40
64.0
 41
425.1428571428571
 76
     3
 10
-1598.326461571256
 20
1198.362393994588
 30
0.0
 10
-1498.693422089844
 20
1033.36471550554
 30
0.0
 10
-1486.693422089844
 20
1033.36471550554
 30
0.0
340
4702
213
0.0
223
32.0
233
0.0
1001
ACAD
1000
DSTYLE
1002
{
1070
    41
1040
12.0
1070
    42
1040
20.0
1070
    43
1040
200.0
1070
    44
1040
20.0
1070
    73
1070
     0
1070
    74
1070
     0
1070
    77
1070
     1
1070
    78
1070
     8
1070
   140
1040
64.0
1070
   147
1040
50.0
1070
   172
1070
     1
1070
   174
1070
     1
1070
   275
1070
     0
1070
   284
1070
     0
1070
   285
1070
     0
1070
   286
1070
     0
1070
   341
1005
EE8
1070
   342
1005
AB2
1002
}
  0
MTEXT
  5
4702
102
{ACAD_REACTORS
330
4701
102
}
330
85F
100
AcDbEntity
  8
NOTE
100
AcDbMText
 10
-1011.550564946987
 20
1051.364715505541
 30
0.0
 40
64.0
 41
0.0
 46
0.0
 71
     9
 72
     1
  1
4×M8ボルト
 73
     1
 44
1.0
  0
LINE
  5
4703
330
85F
100
AcDbEntity
  8
BASIS
100
AcDbLine
 10
-1792.326461571256
 20
1356.362393994589
 30
0.0
 11
-1792.326461571256
 21
1166.362393994589
 31
0.0
  0
POINT
  5
4704
330
85F
100
AcDbEntity
  8
ARRANGE
100
AcDbPoint
 10
-1792.326461571256
 20
1331.362393994589
 30
0.0
 39
50.0
  0
CIRCLE
  5
4705
330
85F
100
AcDbEntity
  8
ARRANGE
100
AcDbCircle
 10
-1792.326461571256
 20
1331.362393994589
 30
0.0
 40
40.0
  0
LINE
  5
4706
330
85F
100
AcDbEntity
  8
NOTE
100
AcDbLine
 10
-1792.326461571256
 20
1288.862393994588
 30
0.0
 11
-1792.326461571256
 21
1313.862393994588
 31
0.0
  0
LINE
  5
4707
330
85F
100
AcDbEntity
  8
NOTE
100
AcDbLine
 10
-1779.826461571256
 20
1301.362393994588
 30
0.0
 11
-1804.826461571256
 21
1301.362393994588
 31
0.0
  0
TEXT
  5
4708
330
85F
100
AcDbEntity
  8
ETC
100
AcDbText
 10
-860.7546894570646
 20
1441.241477686127
 30
0.0
 40
64.0
  1
システム部材
 41
0.9
100
AcDbText
  0
TEXT
  5
4709
330
85F
100
AcDbEntity
  8
ETC
100
AcDbText
 10
-854.5466914570665
 20
1542.124803686126
 30
0.0
 40
64.0
  1
FU-30PSF-C_1
 41
0.9
100
AcDbText
  0
TEXT
  5
470A
330
85F
100
AcDbEntity
  8
ETC
100
AcDbText
 10
-854.5466914570665
 20
1342.124803686127
 30
0.0
 40
64.0
  1
FU-30PSF-C
 41
0.9
100
AcDbText
  0
DIMENSION
  5
470B
330
85F
100
AcDbEntity
  8
SIZE
100
AcDbDimension
  2
*D168
 10
-1556.326461571256
 20
1590.920326732964
 30
0.0
 11
-1786.826461571256
 21
1632.920326732964
 31
0.0
 70
    32
 71
     5
 42
461.0
 73
     0
 74
     0
 75
     0
  3
STANDARD$0
100
AcDbAlignedDimension
 13
-2017.326461571256
 23
1331.362393994588
 33
0.0
 14
-1556.326461571256
 24
1240.362393994588
 34
0.0
100
AcDbRotatedDimension
  0
VIEWPORT
  5
3995
102
{ACAD_XDICTIONARY
360
3996
102
}
330
85B
100
AcDbEntity
 67
     1
  8
0
100
AcDbViewport
 10
5.304899592581273
 20
5.601023905229417
 30
0.0
 40
16.63503805602474
 41
12.38309471888315
 68
     1
 69
     1
 12
5.304899592581273
 22
5.601023905229417
 13
0.0
 23
0.0
 14
10.0
 24
10.0
 15
10.0
 25
10.0
 16
0.0
 26
0.0
 36
1.0
 17
0.0
 27
0.0
 37
0.0
 42
50.0
 43
0.0
 44
0.0
 45
12.38309471888315
 50
0.0
 51
0.0
 72
   100
 90
   557088
  1

281
     0
 71
     1
 74
     0
110
0.0
120
0.0
130
0.0
111
1.0
121
0.0
131
0.0
112
0.0
122
1.0
132
0.0
 79
     0
146
0.0
170
     0
 61
     5
348
1730
292
     1
282
     1
141
0.0
142
0.0
 63
   250
421
  3355443
1001
GENIUS_GENSCREG_15
1000
PF
1040
1.0
1000
DF
1040
1.0
1000
MIN
1011
-3.012619435431096
1021
-0.5905234542121569
1031
0.0
1000
MAX
1011
13.62241862059364
1021
8.531551229098409
1031
0.0
1000
FLAGS
1070
     4
1001
GENIUS_GENODEF_13
1002
{
1000
HIER
1070
     0
1002
}
1002
{
1000
MANEDIT
1070
     0
1002
}
1002
{
1000
NOSEL
1070
     0
1002
}
1002
{
1000
BEHIND
1070
     0
1002
}
1002
{
1000
OTHER
1070
     0
1002
}
1002
{
1000
REACTOR
1002
}
1001
GENIUS_GENOBJ-N-SDF_13
1002
{
1000
OWNER
1000
GEN
1002
}
  0
ENDSEC
  0
SECTION
  2
OBJECTS
  0
DICTIONARY
  5
84D
330
0
100
AcDbDictionary
281
     1
  3
ACAD_CIP_PREVIOUS_PRODUCT_INFO
350
17A1
  3
ACAD_COLOR
350
F42
  3
ACAD_DETAILVIEWSTYLE
350
179B
  3
ACAD_GROUP
350
84E
  3
ACAD_LAYOUT
350
85A
  3
ACAD_MATERIAL
350
F41
  3
ACAD_MLEADERSTYLE
350
175D
  3
ACAD_MLINESTYLE
350
857
  3
ACAD_PLOTSETTINGS
350
859
  3
ACAD_PLOTSTYLENAME
350
B82
  3
ACAD_SCALELIST
350
173B
  3
ACAD_SECTIONVIEWSTYLE
350
1799
  3
ACAD_TABLESTYLE
350
F43
  3
ACAD_VISUALSTYLE
350
172A
  3
AcadDim
350
EF6
  3
ACDB_RECOMPOSE_DATA
350
47D3
  3
AcDbVariableDictionary
350
B87
  3
AcDsDecomposeData
350
47D9
  3
AcmDictionary
350
1009
  3
AMG
350
F48
  3
AMGSNAPSETTINGS
350
1157
  0
DICTIONARY
  5
17F3
330
843
100
AcDbDictionary
280
     1
281
     1
  3
ACAD_LAYERSTATES
360
17F4
  0
DICTIONARY
  5
1764
330
851
100
AcDbDictionary
280
     1
281
     1
  3
ADSK_XREC_LAYER_RECONCILED
360
1765
  0
DICTIONARY
  5
1766
330
863
100
AcDbDictionary
280
     1
281
     1
  3
ADSK_XREC_LAYER_RECONCILED
360
1767
  0
DICTIONARY
  5
1768
330
866
100
AcDbDictionary
280
     1
281
     1
  3
ADSK_XREC_LAYER_RECONCILED
360
1769
  0
DICTIONARY
  5
176A
330
867
100
AcDbDictionary
280
     1
281
     1
  3
ADSK_XREC_LAYER_RECONCILED
360
176B
  0
DICTIONARY
  5
176C
330
868
100
AcDbDictionary
280
     1
281
     1
  3
ADSK_XREC_LAYER_RECONCILED
360
176D
  0
DICTIONARY
  5
176E
330
869
100
AcDbDictionary
280
     1
281
     1
  3
ADSK_XREC_LAYER_RECONCILED
360
176F
  0
DICTIONARY
  5
1770
330
86B
100
AcDbDictionary
280
     1
281
     1
  3
ADSK_XREC_LAYER_RECONCILED
360
1771
  0
DICTIONARY
  5
1772
330
86C
100
AcDbDictionary
280
     1
281
     1
  3
ADSK_XREC_LAYER_RECONCILED
360
1773
  0
DICTIONARY
  5
1774
330
86D
100
AcDbDictionary
280
     1
281
     1
  3
ADSK_XREC_LAYER_RECONCILED
360
1775
  0
DICTIONARY
  5
1776
330
86E
100
AcDbDictionary
280
     1
281
     1
  3
ADSK_XREC_LAYER_RECONCILED
360
1777
  0
DICTIONARY
  5
1778
330
86F
100
AcDbDictionary
280
     1
281
     1
  3
ADSK_XREC_LAYER_RECONCILED
360
1779
  0
DICTIONARY
  5
17ED
330
17EC
100
AcDbDictionary
280
     1
281
     1
  0
DICTIONARY
  5
B4F
330
85F
100
AcDbDictionary
280
     1
281
     1
  3
ACAD_INDEX
360
4401
  3
ACAD_LAYOUTSELFREF
360
B50
  0
DICTIONARY
  5
B4D
330
85B
100
AcDbDictionary
280
     1
281
     1
  3
ACAD_LAYOUTSELFREF
360
B4E
  0
DICTIONARY
  5
3AFF
330
39DA
100
AcDbDictionary
280
     1
281
     1
  3
ACAD_SORTENTS
360
3B00
  0
DICTIONARY
  5
3996
330
3995
100
AcDbDictionary
280
     1
281
     1
  3
ASDK_XREC_ANNOTATION_SCALE_INFO
360
3997
  0
XRECORD
  5
17A1
102
{ACAD_REACTORS
330
84D
102
}
330
84D
100
AcDbXrecord
280
     1
300
ACDLT
300
2014
300
ACDLT_F_S
  0
DICTIONARY
  5
F42
102
{ACAD_REACTORS
330
84D
102
}
330
84D
100
AcDbDictionary
281
     1
  0
DICTIONARY
  5
179B
102
{ACAD_REACTORS
330
84D
102
}
330
84D
100
AcDbDictionary
281
     1
  3
Imperial24
350
179C
  0
DICTIONARY
  5
84E
102
{ACAD_REACTORS
330
84D
102
}
330
84D
100
AcDbDictionary
281
     1
  0
DICTIONARY
  5
85A
102
{ACAD_REACTORS
330
84D
102
}
330
84D
100
AcDbDictionary
281
     1
  3
Model
350
B84
  3
ﾚｲｱｳﾄ1
350
B85
  0
DICTIONARY
  5
F41
102
{ACAD_REACTORS
330
84D
102
}
330
84D
100
AcDbDictionary
281
     1
  3
ByBlock
350
171A
  3
ByLayer
350
1712
  3
Global
350
1722
  0
DICTIONARY
  5
175D
102
{ACAD_REACTORS
330
84D
102
}
330
84D
100
AcDbDictionary
281
     1
  3
Standard
350
175E
  0
DICTIONARY
  5
857
102
{ACAD_REACTORS
330
84D
102
}
330
84D
100
AcDbDictionary
281
     1
  3
STANDARD
350
858
  0
DICTIONARY
  5
859
102
{ACAD_REACTORS
330
84D
102
}
330
84D
100
AcDbDictionary
281
     1
  0
ACDBDICTIONARYWDFLT
  5
B82
102
{ACAD_REACTORS
330
84D
102
}
330
84D
100
AcDbDictionary
281
     1
  3
Normal
350
B83
100
AcDbDictionaryWithDefault
340
B83
  0
DICTIONARY
  5
173B
102
{ACAD_REACTORS
330
84D
102
}
330
84D
100
AcDbDictionary
281
     1
  3
A0
350
173C
  3
A1
350
173D
  3
A2
350
173E
  3
A3
350
173F
  3
A4
350
1740
  3
A5
350
1741
  3
A6
350
1742
  3
A7
350
1743
  3
A8
350
1744
  3
A9
350
1745
  3
B0
350
1746
  3
B1
350
1747
  3
B2
350
1748
  3
B3
350
1749
  3
B4
350
174A
  3
B5
350
174B
  3
B6
350
174C
  3
B7
350
174D
  3
B8
350
174E
  3
B9
350
174F
  3
C0
350
1750
  3
C1
350
1751
  3
C2
350
1752
  3
C3
350
1753
  3
C4
350
1754
  3
C5
350
1755
  3
C6
350
1756
  3
C7
350
1757
  3
C8
350
1758
  3
C9
350
1759
  3
D0
350
175A
  3
D1
350
175B
  3
D2
350
175C
  0
DICTIONARY
  5
1799
102
{ACAD_REACTORS
330
84D
102
}
330
84D
100
AcDbDictionary
281
     1
  3
Imperial24
350
179A
  0
DICTIONARY
  5
F43
102
{ACAD_REACTORS
330
84D
102
}
330
84D
100
AcDbDictionary
281
     1
  3
Standard
350
F44
  0
DICTIONARY
  5
172A
102
{ACAD_REACTORS
330
84D
102
}
330
84D
100
AcDbDictionary
281
     1
  3
2dWireframe
350
1730
  3
3D Hidden
350
1732
  3
3dWireframe
350
1731
  3
Basic
350
172F
  3
Brighten
350
1736
  3
ColorChange
350
173A
  3
Conceptual
350
1733
  3
Dim
350
1735
  3
EdgeColorOff
350
1798
  3
Facepattern
350
1739
  3
Flat
350
172B
  3
FlatWithEdges
350
172C
  3
Gouraud
350
172D
  3
GouraudWithEdges
350
172E
  3
Hidden
350
1790
  3
JitterOff
350
1796
  3
Linepattern
350
1738
  3
OverhangOff
350
1797
  3
Realistic
350
1734
  3
Shaded
350
1795
  3
Shaded with edges
350
1794
  3
Shades of Gray
350
1791
  3
Sketchy
350
1792
  3
Thicken
350
1737
  3
Wireframe
350
178F
  3
X-Ray
350
1793
  0
XRECORD
  5
EF6
102
{ACAD_REACTORS
330
84D
102
}
330
84D
100
AcDbXrecord
280
     1
 90
   990106
  3

 60
     0
 61
     0
 62
     1
 63
     3
 64
     0
 65
     0
 66
     0
 67
     3
 68
     1
 69
     0
 70
     0
 71
     0
 72
     0
 40
0.0
170
     0
340
0
  0
XRECORD
  5
47D3
102
{ACAD_REACTORS
330
84D
102
}
330
84D
100
AcDbXrecord
280
     1
 90
        1
330
F44
  0
DICTIONARY
  5
B87
102
{ACAD_REACTORS
330
84D
102
}
330
84D
100
AcDbDictionary
281
     1
  3
CANNOSCALE
350
177B
  3
CMLEADERSTYLE
350
177A
  3
CTABLESTYLE
350
106D
  3
CVIEWDETAILSTYLE
350
1C5E
  3
CVIEWSECTIONSTYLE
350
1C5F
  3
DIMASSOC
350
B88
  3
INDEXCTL
350
106E
  3
LAYEREVAL
350
1C62
  3
LAYERNOTIFY
350
1C63
  3
LIGHTINGUNITS
350
1C61
  3
MSLTSCALE
350
1C60
  3
PROJECTNAME
350
106F
  3
SORTENTS
350
177C
  3
XCLIPFRAME
350
47D1
  0
DICTIONARY
  5
47D9
102
{ACAD_REACTORS
330
84D
102
}
330
84D
100
AcDbDictionary
281
     1
  3
AcDsRecords
350
47DB
  3
AcDsSchemas
350
47DA
1001
ACAD
1070
     2
  0
DICTIONARY
  5
1009
102
{ACAD_REACTORS
330
84D
102
}
330
84D
100
AcDbDictionary
281
     1
  3
AcmStdDictionary
350
1015
  3
AMDTSECTSYM_ARROWCOLOR
350
1035
  0
DICTIONARY
  5
F48
102
{ACAD_REACTORS
330
84D
102
}
330
84D
100
AcDbDictionary
281
     1
  3
AcMgSettings
350
F49
  0
DICTIONARY
  5
1157
102
{ACAD_REACTORS
330
84D
102
}
330
84D
100
AcDbDictionary
281
     1
  3
DIMENSION
350
115C
  3
FEA
350
115B
  3
HATCH (1)
350
1158
  3
HATCH (2)
350
1159
  3
SIMPLE WELD
350
115D
  3
SYMBOLS
350
115A
  0
DICTIONARY
  5
17F4
102
{ACAD_REACTORS
330
17F3
102
}
330
17F3
100
AcDbDictionary
281
     1
  0
XRECORD
  5
1765
102
{ACAD_REACTORS
330
1764
102
}
330
1764
100
AcDbXrecord
280
     1
290
     1
  0
XRECORD
  5
1767
102
{ACAD_REACTORS
330
1766
102
}
330
1766
100
AcDbXrecord
280
     1
290
     1
  0
XRECORD
  5
1769
102
{ACAD_REACTORS
330
1768
102
}
330
1768
100
AcDbXrecord
280
     1
290
     1
  0
XRECORD
  5
176B
102
{ACAD_REACTORS
330
176A
102
}
330
176A
100
AcDbXrecord
280
     1
290
     1
  0
XRECORD
  5
176D
102
{ACAD_REACTORS
330
176C
102
}
330
176C
100
AcDbXrecord
280
     1
290
     1
  0
XRECORD
  5
176F
102
{ACAD_REACTORS
330
176E
102
}
330
176E
100
AcDbXrecord
280
     1
290
     1
  0
XRECORD
  5
1771
102
{ACAD_REACTORS
330
1770
102
}
330
1770
100
AcDbXrecord
280
     1
290
     1
  0
XRECORD
  5
1773
102
{ACAD_REACTORS
330
1772
102
}
330
1772
100
AcDbXrecord
280
     1
290
     1
  0
XRECORD
  5
1775
102
{ACAD_REACTORS
330
1774
102
}
330
1774
100
AcDbXrecord
280
     1
290
     1
  0
XRECORD
  5
1777
102
{ACAD_REACTORS
330
1776
102
}
330
1776
100
AcDbXrecord
280
     1
290
     1
  0
XRECORD
  5
1779
102
{ACAD_REACTORS
330
1778
102
}
330
1778
100
AcDbXrecord
280
     1
290
     1
  0
DICTIONARY
  5
4401
102
{ACAD_REACTORS
330
B4F
102
}
330
B4F
100
AcDbDictionary
281
     1
  3
*A1
350
4402
  0
XRECORD
  5
B50
102
{ACAD_REACTORS
330
B4F
102
}
330
B4F
100
AcDbXrecord
280
     1
340
85F
  0
XRECORD
  5
B4E
102
{ACAD_REACTORS
330
B4D
102
}
330
B4D
100
AcDbXrecord
280
     1
340
85B
  0
SORTENTSTABLE
  5
3B00
102
{ACAD_REACTORS
330
3AFF
102
}
330
3AFF
100
AcDbSortentsTable
330
39DA
  0
XRECORD
  5
3997
102
{ACAD_REACTORS
330
3996
102
}
330
3996
100
AcDbXrecord
280
     1
 90
        1
340
173C
  0
ACDBDETAILVIEWSTYLE
  5
179C
102
{ACAD_XDICTIONARY
360
47B6
102
}
102
{ACAD_REACTORS
330
179B
102
}
330
179B
100
AcDbModelDocViewStyle
 70
     0
  3
Imperial24
290
     0
100
AcDbDetailViewStyle
 70
     0
 71
     0
 90
        3
 71
     1
340
852
 62
   256
 40
0.24
340
0
 62
   256
 40
0.24
300

 40
0.36
280
     3
 71
     2
340
856
 90
       25
 62
   256
 71
     3
340
852
 62
   256
 40
0.24
 90
        1
 40
0.75
 90
        1
300
%<\AcVar ViewType \f "%tc1">% %<\AcVar ViewDetailId>%\PSCALE %<\AcVar ViewScale \f "%sn">%
 71
     4
340
856
 90
       25
 62
   256
340
856
 90
       25
 62
   256
280
     0
  0
LAYOUT
  5
B84
102
{ACAD_REACTORS
330
85A
102
}
330
85A
100
AcDbPlotSettings
  1

  2
EPSON LP-9600S
  4
A4
  6

 40
5.873749732971191
 41
5.873747825622557
 42
5.873748779296875
 43
5.873748779296875
 44
209.9733276367186
 45
297.0106506347656
 46
0.0
 47
0.0
 48
0.0
 49
0.0
140
0.0
141
0.0
142
1.0
143
4.861298217758441
 70
 11952
 72
     1
 73
     1
 74
     1
  7
monochrome.ctb
 75
     0
147
0.2057063679712087
 76
     0
 77
     2
 78
   300
148
796.5403350267011
149
455.4977397847657
100
AcDbLayout
  1
Model
 70
     1
 71
     0
 10
0.0
 20
0.0
 11
12.0
 21
9.0
 12
0.0
 22
0.0
 32
0.0
 14
0.0
 24
0.0
 34
0.0
 15
0.0
 25
0.0
 35
0.0
146
0.0
 13
0.0
 23
0.0
 33
0.0
 16
1.0
 26
0.0
 36
0.0
 17
0.0
 27
1.0
 37
0.0
 76
     0
330
85F
331
1707
1001
ACAD_PSEXT
1000
EPSON LP-9600S
1000
EPSON LP-9600S
1000
IP_10.36.3.199
1000

1070
     0
  0
LAYOUT
  5
B85
102
{ACAD_REACTORS
330
85A
102
}
330
85A
100
AcDbPlotSettings
  1

  2
none_device
  4
Letter_(8.50_x_11.00_Inches)
  6

 40
6.349999904632567
 41
6.349999904632567
 42
6.350006103515625
 43
6.350006103515625
 44
215.8999938964844
 45
279.3999938964844
 46
0.0
 47
0.0
 48
0.0
 49
0.0
140
0.0
141
0.0
142
1.0
143
1.0
 70
   688
 72
     0
 73
     1
 74
     5
  7
monochrome.ctb
 75
    16
147
1.0
 76
     0
 77
     2
 78
   300
148
0.0
149
0.0
100
AcDbLayout
  1
ﾚｲｱｳﾄ1
 70
     1
 71
     1
 10
0.0
 20
0.0
 11
12.0
 21
9.0
 12
0.0
 22
0.0
 32
0.0
 14
1.000000000000000E+20
 24
1.000000000000000E+20
 34
1.000000000000000E+20
 15
-1.000000000000000E+20
 25
-1.000000000000000E+20
 35
-1.000000000000000E+20
146
0.0
 13
0.0
 23
0.0
 33
0.0
 16
1.0
 26
0.0
 36
0.0
 17
0.0
 27
1.0
 37
0.0
 76
     0
330
85B
331
3995
1001
ACAD_PSEXT
1000
なし
1000
なし
1000
適切ではありません
1000
新しいプロッタ環境設定名を選択しない限り、レイアウトは印刷されません。
1070
     0
  0
MATERIAL
  5
171A
102
{ACAD_XDICTIONARY
360
171B
102
}
102
{ACAD_REACTORS
330
F41
102
}
330
F41
100
AcDbMaterial
  1
ByBlock
 72
     0
 43
0.0208333333333333
 43
0.0
 43
0.0
 43
0.0
 43
0.0
 43
0.0208333333333333
 43
0.0
 43
0.0
 43
0.0
 43
0.0
 43
1.0
 43
0.0
 43
0.0
 43
0.0
 43
0.0
 43
1.0
 77
     0
 47
0.0208333333333333
 47
0.0
 47
0.0
 47
0.0
 47
0.0
 47
0.0208333333333333
 47
0.0
 47
0.0
 47
0.0
 47
0.0
 47
1.0
 47
0.0
 47
0.0
 47
0.0
 47
0.0
 47
1.0
171
     0
 49
0.0208333333333333
 49
0.0
 49
0.0
 49
0.0
 49
0.0
 49
0.0208333333333333
 49
0.0
 49
0.0
 49
0.0
 49
0.0
 49
1.0
 49
0.0
 49
0.0
 49
0.0
 49
0.0
 49
1.0
175
     0
142
0.0208333333333333
142
0.0
142
0.0
142
0.0
142
0.0
142
0.0208333333333333
142
0.0
142
0.0
142
0.0
142
0.0
142
1.0
142
0.0
142
0.0
142
0.0
142
0.0
142
1.0
179
     0
144
0.0208333333333333
144
0.0
144
0.0
144
0.0
144
0.0
144
0.0208333333333333
144
0.0
144
0.0
144
0.0
144
0.0
144
1.0
144
0.0
144
0.0
144
0.0
144
0.0
144
1.0
147
0.0208333333333333
147
0.0
147
0.0
147
0.0
147
0.0
147
0.0208333333333333
147
0.0
147
0.0
147
0.0
147
0.0
147
1.0
147
0.0
147
0.0
147
0.0
147
0.0
147
1.0
  0
MATERIAL
  5
1712
102
{ACAD_XDICTIONARY
360
1713
102
}
102
{ACAD_REACTORS
330
F41
102
}
330
F41
100
AcDbMaterial
  1
ByLayer
 72
     0
 43
0.0208333333333333
 43
0.0
 43
0.0
 43
0.0
 43
0.0
 43
0.0208333333333333
 43
0.0
 43
0.0
 43
0.0
 43
0.0
 43
1.0
 43
0.0
 43
0.0
 43
0.0
 43
0.0
 43
1.0
 77
     0
 47
0.0208333333333333
 47
0.0
 47
0.0
 47
0.0
 47
0.0
 47
0.0208333333333333
 47
0.0
 47
0.0
 47
0.0
 47
0.0
 47
1.0
 47
0.0
 47
0.0
 47
0.0
 47
0.0
 47
1.0
171
     0
 49
0.0208333333333333
 49
0.0
 49
0.0
 49
0.0
 49
0.0
 49
0.0208333333333333
 49
0.0
 49
0.0
 49
0.0
 49
0.0
 49
1.0
 49
0.0
 49
0.0
 49
0.0
 49
0.0
 49
1.0
175
     0
142
0.0208333333333333
142
0.0
142
0.0
142
0.0
142
0.0
142
0.0208333333333333
142
0.0
142
0.0
142
0.0
142
0.0
142
1.0
142
0.0
142
0.0
142
0.0
142
0.0
142
1.0
179
     0
144
0.0208333333333333
144
0.0
144
0.0
144
0.0
144
0.0
144
0.0208333333333333
144
0.0
144
0.0
144
0.0
144
0.0
144
1.0
144
0.0
144
0.0
144
0.0
144
0.0
144
1.0
147
0.0208333333333333
147
0.0
147
0.0
147
0.0
147
0.0
147
0.0208333333333333
147
0.0
147
0.0
147
0.0
147
0.0
147
1.0
147
0.0
147
0.0
147
0.0
147
0.0
147
1.0
  0
MATERIAL
  5
1722
102
{ACAD_XDICTIONARY
360
1723
102
}
102
{ACAD_REACTORS
330
F41
102
}
330
F41
100
AcDbMaterial
  1
Global
 72
     0
 43
0.0208333333333333
 43
0.0
 43
0.0
 43
0.0
 43
0.0
 43
0.0208333333333333
 43
0.0
 43
0.0
 43
0.0
 43
0.0
 43
1.0
 43
0.0
 43
0.0
 43
0.0
 43
0.0
 43
1.0
 77
     0
 47
0.0208333333333333
 47
0.0
 47
0.0
 47
0.0
 47
0.0
 47
0.0208333333333333
 47
0.0
 47
0.0
 47
0.0
 47
0.0
 47
1.0
 47
0.0
 47
0.0
 47
0.0
 47
0.0
 47
1.0
171
     0
 49
0.0208333333333333
 49
0.0
 49
0.0
 49
0.0
 49
0.0
 49
0.0208333333333333
 49
0.0
 49
0.0
 49
0.0
 49
0.0
 49
1.0
 49
0.0
 49
0.0
 49
0.0
 49
0.0
 49
1.0
175
     0
142
0.0208333333333333
142
0.0
142
0.0
142
0.0
142
0.0
142
0.0208333333333333
142
0.0
142
0.0
142
0.0
142
0.0
142
1.0
142
0.0
142
0.0
142
0.0
142
0.0
142
1.0
179
     0
144
0.0208333333333333
144
0.0
144
0.0
144
0.0
144
0.0
144
0.0208333333333333
144
0.0
144
0.0
144
0.0
144
0.0
144
1.0
144
0.0
144
0.0
144
0.0
144
0.0
144
1.0
147
0.0208333333333333
147
0.0
147
0.0
147
0.0
147
0.0
147
0.0208333333333333
147
0.0
147
0.0
147
0.0
147
0.0
147
1.0
147
0.0
147
0.0
147
0.0
147
0.0
147
1.0
  0
MLEADERSTYLE
  5
175E
102
{ACAD_REACTORS
330
175D
102
}
330
175D
100
AcDbMLeaderStyle
170
     2
171
     1
172
     0
 90
        2
 40
0.0
 41
0.0
173
     1
 91
-1056964608
340
854
 92
       -2
290
     1
 42
0.09
291
     1
 43
0.36
  3
Standard
 44
0.18
300

342
852
174
     1
178
     6
175
     1
176
     0
 93
-1056964608
 45
0.18
292
     0
297
     0
 46
0.18
 94
-1056964608
 47
1.0
 49
1.0
140
1.0
293
     1
141
0.0
294
     1
177
     0
142
1.0
295
     0
296
     0
143
0.125
1001
ACAD_MLEADERVER
1070
     2
  0
MLINESTYLE
  5
858
102
{ACAD_REACTORS
330
857
102
}
330
857
100
AcDbMlineStyle
  2
STANDARD
 70
     0
  3

 62
   256
 51
90.0
 52
90.0
 71
     2
 49
0.5
 62
   256
  6
BYLAYER
 49
-0.5
 62
   256
  6
BYLAYER
  0
ACDBPLACEHOLDER
  5
B83
102
{ACAD_REACTORS
330
B82
102
}
330
B82
  0
SCALE
  5
173C
102
{ACAD_REACTORS
330
173B
102
}
330
173B
100
AcDbScale
 70
     0
300
1:1
140
1.0
141
1.0
290
     1
  0
SCALE
  5
173D
102
{ACAD_REACTORS
330
173B
102
}
330
173B
100
AcDbScale
 70
     0
300
1:2
140
1.0
141
2.0
290
     0
  0
SCALE
  5
173E
102
{ACAD_REACTORS
330
173B
102
}
330
173B
100
AcDbScale
 70
     0
300
1:4
140
1.0
141
4.0
290
     0
  0
SCALE
  5
173F
102
{ACAD_REACTORS
330
173B
102
}
330
173B
100
AcDbScale
 70
     0
300
1:5
140
1.0
141
5.0
290
     0
  0
SCALE
  5
1740
102
{ACAD_REACTORS
330
173B
102
}
330
173B
100
AcDbScale
 70
     0
300
1:8
140
1.0
141
8.0
290
     0
  0
SCALE
  5
1741
102
{ACAD_REACTORS
330
173B
102
}
330
173B
100
AcDbScale
 70
     0
300
1:10
140
1.0
141
10.0
290
     0
  0
SCALE
  5
1742
102
{ACAD_REACTORS
330
173B
102
}
330
173B
100
AcDbScale
 70
     0
300
1:16
140
1.0
141
16.0
290
     0
  0
SCALE
  5
1743
102
{ACAD_REACTORS
330
173B
102
}
330
173B
100
AcDbScale
 70
     0
300
1:20
140
1.0
141
20.0
290
     0
  0
SCALE
  5
1744
102
{ACAD_REACTORS
330
173B
102
}
330
173B
100
AcDbScale
 70
     0
300
1:30
140
1.0
141
30.0
290
     0
  0
SCALE
  5
1745
102
{ACAD_REACTORS
330
173B
102
}
330
173B
100
AcDbScale
 70
     0
300
1:40
140
1.0
141
40.0
290
     0
  0
SCALE
  5
1746
102
{ACAD_REACTORS
330
173B
102
}
330
173B
100
AcDbScale
 70
     0
300
1:50
140
1.0
141
50.0
290
     0
  0
SCALE
  5
1747
102
{ACAD_REACTORS
330
173B
102
}
330
173B
100
AcDbScale
 70
     0
300
1:100
140
1.0
141
100.0
290
     0
  0
SCALE
  5
1748
102
{ACAD_REACTORS
330
173B
102
}
330
173B
100
AcDbScale
 70
     0
300
2:1
140
2.0
141
1.0
290
     0
  0
SCALE
  5
1749
102
{ACAD_REACTORS
330
173B
102
}
330
173B
100
AcDbScale
 70
     0
300
4:1
140
4.0
141
1.0
290
     0
  0
SCALE
  5
174A
102
{ACAD_REACTORS
330
173B
102
}
330
173B
100
AcDbScale
 70
     0
300
8:1
140
8.0
141
1.0
290
     0
  0
SCALE
  5
174B
102
{ACAD_REACTORS
330
173B
102
}
330
173B
100
AcDbScale
 70
     0
300
10:1
140
10.0
141
1.0
290
     0
  0
SCALE
  5
174C
102
{ACAD_REACTORS
330
173B
102
}
330
173B
100
AcDbScale
 70
     0
300
100:1
140
100.0
141
1.0
290
     0
  0
SCALE
  5
174D
102
{ACAD_REACTORS
330
173B
102
}
330
173B
100
AcDbScale
 70
     0
300
1/128" = 1'-0"
140
0.0078125
141
12.0
290
     0
  0
SCALE
  5
174E
102
{ACAD_REACTORS
330
173B
102
}
330
173B
100
AcDbScale
 70
     0
300
1/64" = 1'-0"
140
0.015625
141
12.0
290
     0
  0
SCALE
  5
174F
102
{ACAD_REACTORS
330
173B
102
}
330
173B
100
AcDbScale
 70
     0
300
1/32" = 1'-0"
140
0.03125
141
12.0
290
     0
  0
SCALE
  5
1750
102
{ACAD_REACTORS
330
173B
102
}
330
173B
100
AcDbScale
 70
     0
300
1/16" = 1'-0"
140
0.0625
141
12.0
290
     0
  0
SCALE
  5
1751
102
{ACAD_REACTORS
330
173B
102
}
330
173B
100
AcDbScale
 70
     0
300
3/32" = 1'-0"
140
0.09375
141
12.0
290
     0
  0
SCALE
  5
1752
102
{ACAD_REACTORS
330
173B
102
}
330
173B
100
AcDbScale
 70
     0
300
1/8" = 1'-0"
140
0.125
141
12.0
290
     0
  0
SCALE
  5
1753
102
{ACAD_REACTORS
330
173B
102
}
330
173B
100
AcDbScale
 70
     0
300
3/16" = 1'-0"
140
0.1875
141
12.0
290
     0
  0
SCALE
  5
1754
102
{ACAD_REACTORS
330
173B
102
}
330
173B
100
AcDbScale
 70
     0
300
1/4" = 1'-0"
140
0.25
141
12.0
290
     0
  0
SCALE
  5
1755
102
{ACAD_REACTORS
330
173B
102
}
330
173B
100
AcDbScale
 70
     0
300
3/8" = 1'-0"
140
0.375
141
12.0
290
     0
  0
SCALE
  5
1756
102
{ACAD_REACTORS
330
173B
102
}
330
173B
100
AcDbScale
 70
     0
300
1/2" = 1'-0"
140
0.5
141
12.0
290
     0
  0
SCALE
  5
1757
102
{ACAD_REACTORS
330
173B
102
}
330
173B
100
AcDbScale
 70
     0
300
3/4" = 1'-0"
140
0.75
141
12.0
290
     0
  0
SCALE
  5
1758
102
{ACAD_REACTORS
330
173B
102
}
330
173B
100
AcDbScale
 70
     0
300
1" = 1'-0"
140
1.0
141
12.0
290
     0
  0
SCALE
  5
1759
102
{ACAD_REACTORS
330
173B
102
}
330
173B
100
AcDbScale
 70
     0
300
1-1/2" = 1'-0"
140
1.5
141
12.0
290
     0
  0
SCALE
  5
175A
102
{ACAD_REACTORS
330
173B
102
}
330
173B
100
AcDbScale
 70
     0
300
3" = 1'-0"
140
3.0
141
12.0
290
     0
  0
SCALE
  5
175B
102
{ACAD_REACTORS
330
173B
102
}
330
173B
100
AcDbScale
 70
     0
300
6" = 1'-0"
140
6.0
141
12.0
290
     0
  0
SCALE
  5
175C
102
{ACAD_REACTORS
330
173B
102
}
330
173B
100
AcDbScale
 70
     0
300
1'-0" = 1'-0"
140
12.0
141
12.0
290
     0
  0
ACDBSECTIONVIEWSTYLE
  5
179A
102
{ACAD_XDICTIONARY
360
47B4
102
}
102
{ACAD_REACTORS
330
1799
102
}
330
1799
100
AcDbModelDocViewStyle
 70
     0
  3
Imperial24
290
     0
100
AcDbSectionViewStyle
 70
     0
 71
     0
 90
       78
 71
     1
340
852
 62
   256
 40
0.24
340
0
340
0
 62
   256
 40
0.24
300
I, O, Q, S, X, Z
 40
0.48
 90
        3
 40
0.18
 90
        1
 71
     2
340
856
 90
       25
 62
   256
340
856
 90
       50
 62
   256
 40
0.24
 40
0.0
 40
0.24
 71
     3
340
852
 62
   256
 40
0.24
 90
        1
 40
0.75
 90
        1
300
%<\AcVar ViewType \f "%tc1">% %<\AcVar ViewSectionStartId>%-%<\AcVar ViewSectionEndId>%\PSCALE %<\AcVar ViewScale \f "%sn">%
 71
     4
 62
   256
 62
   257
300
ANSI31
 40
1.0
 90
        0
290
     0
290
     0
 90
        6
 40
0.0
 40
1.570796326794896
 40
0.2617993877991494
 40
1.308996938995747
 40
-0.2617993877991494
 40
1.832595714594044
  0
TABLESTYLE
  5
F44
102
{ACAD_XDICTIONARY
360
177D
102
}
102
{ACAD_REACTORS
330
F43
102
}
330
F43
100
AcDbTableStyle
  3
Standard
 70
     0
 71
     0
 40
0.06
 41
0.06
280
     0
281
     0
  7
STANDARD
140
0.18
170
     2
 62
     0
 63
     7
283
     0
 90
        4
 91
        0
  1

274
    -2
284
     1
 64
     0
275
    -2
285
     1
 65
     0
276
    -2
286
     1
 66
     0
277
    -2
287
     1
 67
     0
278
    -2
288
     1
 68
     0
279
    -2
289
     1
 69
     0
  7
STANDARD
140
0.25
170
     5
 62
     0
 63
     7
283
     0
 90
        4
 91
        0
  1

274
    -2
284
     1
 64
     0
275
    -2
285
     1
 65
     0
276
    -2
286
     1
 66
     0
277
    -2
287
     1
 67
     0
278
    -2
288
     1
 68
     0
279
    -2
289
     1
 69
     0
  7
STANDARD
140
0.18
170
     5
 62
     0
 63
     7
283
     0
 90
        4
 91
        0
  1

274
    -2
284
     1
 64
     0
275
    -2
285
     1
 65
     0
276
    -2
286
     1
 66
     0
277
    -2
287
     1
 67
     0
278
    -2
288
     1
 68
     0
279
    -2
289
     1
 69
     0
  0
VISUALSTYLE
  5
1730
102
{ACAD_XDICTIONARY
360
47E6
102
}
102
{ACAD_REACTORS
330
172A
102
}
330
172A
100
AcDbVisualStyle
  2

 70
     4
 71
     0
 72
     2
 73
     0
 90
        0
 40
-0.6
 41
-30.0
 62
     5
 63
     7
 74
     1
 91
        4
 64
     7
 65
   257
 75
     1
175
     1
 42
1.0
 92
        0
 66
   257
 43
1.0
 76
     1
 77
     6
 78
     2
 67
     7
 79
     5
170
     0
171
     0
290
     0
174
     0
 93
        1
 44
0.0
173
     0
291
     0
 45
0.0
1001
ACAD
1000
AcDbSavedByObjectVersion
1070
     0
  0
VISUALSTYLE
  5
1732
102
{ACAD_XDICTIONARY
360
47EA
102
}
102
{ACAD_REACTORS
330
172A
102
}
330
172A
100
AcDbVisualStyle
  2

 70
     6
 71
     1
 72
     2
 73
     2
 90
        0
 40
-0.6
 41
-30.0
 62
     5
 63
     7
 74
     2
 91
        2
 64
     7
 65
   257
 75
     2
175
     1
 42
40.0
 92
        0
 66
   257
 43
1.0
 76
     1
 77
     6
 78
     2
 67
     7
 79
     3
170
     0
171
     0
290
     0
174
     0
 93
        1
 44
0.0
173
     0
291
     0
 45
0.0
1001
ACAD
1000
AcDbSavedByObjectVersion
1070
     0
  0
VISUALSTYLE
  5
1731
102
{ACAD_XDICTIONARY
360
47E8
102
}
102
{ACAD_REACTORS
330
172A
102
}
330
172A
100
AcDbVisualStyle
  2

 70
     5
 71
     0
 72
     2
 73
     0
 90
        0
 40
-0.6
 41
-30.0
 62
     5
 63
     7
 74
     1
 91
        4
 64
     7
 65
   257
 75
     1
175
     1
 42
1.0
 92
        0
 66
   257
 43
1.0
 76
     1
 77
     6
 78
     2
 67
     7
 79
     5
170
     0
171
     0
290
     0
174
     0
 93
        1
 44
0.0
173
     0
291
     0
 45
0.0
1001
ACAD
1000
AcDbSavedByObjectVersion
1070
     0
  0
VISUALSTYLE
  5
172F
102
{ACAD_XDICTIONARY
360
47E4
102
}
102
{ACAD_REACTORS
330
172A
102
}
330
172A
100
AcDbVisualStyle
  2

 70
     7
 71
     1
 72
     0
 73
     1
 90
        0
 40
-0.6
 41
-30.0
 62
     5
 63
     7
 74
     0
 91
        4
 64
     7
 65
   257
 75
     1
175
     1
 42
1.0
 92
        8
 66
     7
 43
1.0
 76
     1
 77
     6
 78
     2
 67
     7
 79
     5
170
     0
171
     0
290
     0
174
     0
 93
        1
 44
0.0
173
     0
291
     1
 45
0.0
1001
ACAD
1000
AcDbSavedByObjectVersion
1070
     0
  0
VISUALSTYLE
  5
1736
102
{ACAD_XDICTIONARY
360
47F2
102
}
102
{ACAD_REACTORS
330
172A
102
}
330
172A
100
AcDbVisualStyle
  2

 70
    12
 71
     2
 72
     2
 73
     0
 90
        0
 40
-0.6
 41
-30.0
 62
     5
 63
     7
 74
     1
 91
        4
 64
     7
 65
   257
 75
     1
175
     1
 42
1.0
 92
        8
 66
     7
 43
1.0
 76
     1
 77
     6
 78
     2
 67
     7
 79
     5
170
     0
171
     0
290
     0
174
     0
 93
        1
 44
50.0
173
     0
291
     1
 45
0.0
1001
ACAD
1000
AcDbSavedByObjectVersion
1070
     0
  0
VISUALSTYLE
  5
173A
102
{ACAD_XDICTIONARY
360
47FA
102
}
102
{ACAD_REACTORS
330
172A
102
}
330
172A
100
AcDbVisualStyle
  2

 70
    16
 71
     2
 72
     2
 73
     3
 90
        0
 40
-0.6
 41
-30.0
 62
     5
 63
     8
 74
     1
 91
        4
 64
     7
 65
   257
 75
     1
175
     1
 42
1.0
 92
        8
 66
     8
 43
1.0
 76
     1
 77
     6
 78
     2
 67
     7
 79
     5
170
     0
171
     0
290
     0
174
     0
 93
        1
 44
0.0
173
     0
291
     1
 45
0.0
1001
ACAD
1000
AcDbSavedByObjectVersion
1070
     0
  0
VISUALSTYLE
  5
1733
102
{ACAD_XDICTIONARY
360
47EC
102
}
102
{ACAD_REACTORS
330
172A
102
}
330
172A
100
AcDbVisualStyle
  2

 70
     9
 71
     3
 72
     2
 73
     0
 90
        0
 40
-0.6
 41
-30.0
 62
     5
 63
     7
 74
     2
 91
        2
 64
     7
 65
   257
 75
     1
175
     1
 42
40.0
 92
        8
 66
     7
 43
1.0
 76
     1
 77
     6
 78
     2
 67
     7
 79
     3
170
     0
171
     0
290
     0
174
     0
 93
        1
 44
0.0
173
     0
291
     0
 45
0.0
1001
ACAD
1000
AcDbSavedByObjectVersion
1070
     0
  0
VISUALSTYLE
  5
1735
102
{ACAD_XDICTIONARY
360
47F0
102
}
102
{ACAD_REACTORS
330
172A
102
}
330
172A
100
AcDbVisualStyle
  2

 70
    11
 71
     2
 72
     2
 73
     0
 90
        0
 40
-0.6
 41
-30.0
 62
     5
 63
     7
 74
     1
 91
        4
 64
     7
 65
   257
 75
     1
175
     1
 42
1.0
 92
        8
 66
     7
 43
1.0
 76
     1
 77
     6
 78
     2
 67
     7
 79
     5
170
     0
171
     0
290
     0
174
     0
 93
        1
 44
-50.0
173
     0
291
     1
 45
0.0
1001
ACAD
1000
AcDbSavedByObjectVersion
1070
     0
  0
VISUALSTYLE
  5
1798
102
{ACAD_XDICTIONARY
360
480E
102
}
102
{ACAD_REACTORS
330
172A
102
}
330
172A
100
AcDbVisualStyle
  2

 70
    22
 71
     2
 72
     2
 73
     0
 90
        0
 40
-0.6
 41
-30.0
 62
     5
 63
     7
421
 16777215
 74
     1
 91
        4
 64
     7
 65
   257
 75
     1
175
     1
 42
1.0
 92
        8
 66
     7
 43
1.0
 76
     1
 77
     6
 78
     2
 67
     7
 79
     5
170
     0
171
     0
290
     0
174
     0
 93
        1
 44
0.0
173
     0
291
     1
 45
0.0
1001
ACAD
1000
AcDbSavedByObjectVersion
1070
     0
  0
VISUALSTYLE
  5
1739
102
{ACAD_XDICTIONARY
360
47F8
102
}
102
{ACAD_REACTORS
330
172A
102
}
330
172A
100
AcDbVisualStyle
  2

 70
    15
 71
     2
 72
     2
 73
     0
 90
        0
 40
-0.6
 41
-30.0
 62
     5
 63
     7
 74
     1
 91
        4
 64
     7
 65
   257
 75
     1
175
     1
 42
1.0
 92
        8
 66
     7
 43
1.0
 76
     1
 77
     6
 78
     2
 67
     7
 79
     5
170
     0
171
     0
290
     0
174
     0
 93
        1
 44
0.0
173
     0
291
     1
 45
0.0
1001
ACAD
1000
AcDbSavedByObjectVersion
1070
     0
  0
VISUALSTYLE
  5
172B
102
{ACAD_XDICTIONARY
360
47DC
102
}
102
{ACAD_REACTORS
330
172A
102
}
330
172A
100
AcDbVisualStyle
  2

 70
     0
 71
     2
 72
     1
 73
     1
 90
        2
 40
-0.6
 41
30.0
 62
     5
 63
     7
 74
     0
 91
        4
 64
     7
 65
   257
 75
     1
175
     1
 42
1.0
 92
        8
 66
     7
 43
1.0
 76
     1
 77
     6
 78
     2
 67
     7
 79
     5
170
     0
171
     0
290
     0
174
     0
 93
       13
 44
0.0
173
     0
291
     1
 45
0.0
1001
ACAD
1000
AcDbSavedByObjectVersion
1070
     0
  0
VISUALSTYLE
  5
172C
102
{ACAD_XDICTIONARY
360
47DE
102
}
102
{ACAD_REACTORS
330
172A
102
}
330
172A
100
AcDbVisualStyle
  2

 70
     1
 71
     2
 72
     1
 73
     1
 90
        2
 40
-0.6
 41
30.0
 62
     5
 63
     7
 74
     1
 91
        4
 64
     7
 65
   257
 75
     1
175
     1
 42
1.0
 92
        0
 66
   257
 43
1.0
 76
     1
 77
     6
 78
     2
 67
     7
 79
     5
170
     0
171
     0
290
     0
174
     0
 93
       13
 44
0.0
173
     0
291
     1
 45
0.0
1001
ACAD
1000
AcDbSavedByObjectVersion
1070
     0
  0
VISUALSTYLE
  5
172D
102
{ACAD_XDICTIONARY
360
47E0
102
}
102
{ACAD_REACTORS
330
172A
102
}
330
172A
100
AcDbVisualStyle
  2

 70
     2
 71
     2
 72
     2
 73
     1
 90
        2
 40
-0.6
 41
30.0
 62
     5
 63
     7
 74
     0
 91
        4
 64
     7
 65
   257
 75
     1
175
     1
 42
1.0
 92
        0
 66
     7
 43
1.0
 76
     1
 77
     6
 78
     2
 67
     7
 79
     5
170
     0
171
     0
290
     0
174
     0
 93
       13
 44
0.0
173
     0
291
     1
 45
0.0
1001
ACAD
1000
AcDbSavedByObjectVersion
1070
     0
  0
VISUALSTYLE
  5
172E
102
{ACAD_XDICTIONARY
360
47E2
102
}
102
{ACAD_REACTORS
330
172A
102
}
330
172A
100
AcDbVisualStyle
  2

 70
     3
 71
     2
 72
     2
 73
     1
 90
        2
 40
-0.6
 41
30.0
 62
     5
 63
     7
 74
     1
 91
        4
 64
     7
 65
   257
 75
     1
175
     1
 42
1.0
 92
        0
 66
   257
 43
1.0
 76
     1
 77
     6
 78
     2
 67
     7
 79
     5
170
     0
171
     0
290
     0
174
     0
 93
       13
 44
0.0
173
     0
291
     1
 45
0.0
1001
ACAD
1000
AcDbSavedByObjectVersion
1070
     0
  0
VISUALSTYLE
  5
1790
102
{ACAD_XDICTIONARY
360
47FE
102
}
102
{ACAD_REACTORS
330
172A
102
}
330
172A
100
AcDbVisualStyle
  2

 70
     6
 71
     1
 72
     2
 73
     2
 90
        0
 40
-0.6
 41
-30.0
 62
     5
 63
     7
421
 16777215
 74
     2
 91
        2
 64
     7
 65
   257
 75
     2
175
     1
 42
40.0
 92
        0
 66
   257
 43
1.0
 76
     1
 77
     6
 78
     2
 67
     7
 79
     3
170
     0
171
     0
290
     0
174
     0
 93
        1
 44
0.0
173
     0
291
     0
 45
0.0
1001
ACAD
1000
AcDbSavedByObjectVersion
1070
     0
  0
VISUALSTYLE
  5
1796
102
{ACAD_XDICTIONARY
360
480A
102
}
102
{ACAD_REACTORS
330
172A
102
}
330
172A
100
AcDbVisualStyle
  2

 70
    20
 71
     2
 72
     2
 73
     0
 90
        0
 40
-0.6
 41
-30.0
 62
     5
 63
     7
421
 16777215
 74
     1
 91
        4
 64
     7
 65
   257
 75
     1
175
     1
 42
1.0
 92
       10
 66
     7
 43
1.0
 76
     1
 77
     6
 78
     2
 67
     7
 79
     5
170
     0
171
     0
290
     0
174
     0
 93
        1
 44
0.0
173
     0
291
     1
 45
0.0
1001
ACAD
1000
AcDbSavedByObjectVersion
1070
     0
  0
VISUALSTYLE
  5
1738
102
{ACAD_XDICTIONARY
360
47F6
102
}
102
{ACAD_REACTORS
330
172A
102
}
330
172A
100
AcDbVisualStyle
  2

 70
    14
 71
     2
 72
     2
 73
     0
 90
        0
 40
-0.6
 41
-30.0
 62
     5
 63
     7
 74
     1
 91
        4
 64
     7
 65
   257
 75
     7
175
     7
 42
1.0
 92
        8
 66
     7
 43
1.0
 76
     1
 77
     6
 78
     2
 67
     7
 79
     5
170
     0
171
     0
290
     0
174
     0
 93
        1
 44
0.0
173
     0
291
     1
 45
0.0
1001
ACAD
1000
AcDbSavedByObjectVersion
1070
     0
  0
VISUALSTYLE
  5
1797
102
{ACAD_XDICTIONARY
360
480C
102
}
102
{ACAD_REACTORS
330
172A
102
}
330
172A
100
AcDbVisualStyle
  2

 70
    21
 71
     2
 72
     2
 73
     0
 90
        0
 40
-0.6
 41
-30.0
 62
     5
 63
     7
421
 16777215
 74
     1
 91
        4
 64
     7
 65
   257
 75
     1
175
     1
 42
1.0
 92
        9
 66
     7
 43
1.0
 76
     1
 77
     6
 78
     2
 67
     7
 79
     5
170
     0
171
     0
290
     0
174
     0
 93
        1
 44
0.0
173
     0
291
     1
 45
0.0
1001
ACAD
1000
AcDbSavedByObjectVersion
1070
     0
  0
VISUALSTYLE
  5
1734
102
{ACAD_XDICTIONARY
360
47EE
102
}
102
{ACAD_REACTORS
330
172A
102
}
330
172A
100
AcDbVisualStyle
  2

 70
     8
 71
     2
 72
     2
 73
     0
 90
        0
 40
-0.6
 41
-30.0
 62
     5
 63
     7
 74
     1
 91
        0
 64
     7
 65
   257
 75
     1
175
     1
 42
1.0
 92
        8
 66
     8
 43
1.0
 76
     1
 77
     6
 78
     2
 67
     7
 79
     5
170
     0
171
     0
290
     0
174
     0
 93
       13
 44
0.0
173
     0
291
     0
 45
0.0
1001
ACAD
1000
AcDbSavedByObjectVersion
1070
     0
  0
VISUALSTYLE
  5
1795
102
{ACAD_XDICTIONARY
360
4808
102
}
102
{ACAD_REACTORS
330
172A
102
}
330
172A
100
AcDbVisualStyle
  2

 70
    27
 71
     2
 72
     2
 73
     1
 90
        2
 40
-0.6
 41
30.0
 62
     5
 63
     7
421
 16777215
 74
     0
 91
        4
 64
     7
 65
   257
 75
     1
175
     1
 42
1.0
 92
        8
 66
   257
 43
1.0
 76
     1
 77
     6
 78
     2
 67
     8
425
  7895160
 79
     3
170
     0
171
     0
290
     0
174
     0
 93
        5
 44
0.0
173
     0
291
     0
 45
0.0
1001
ACAD
1000
AcDbSavedByObjectVersion
1070
     0
  0
VISUALSTYLE
  5
1794
102
{ACAD_XDICTIONARY
360
4806
102
}
102
{ACAD_REACTORS
330
172A
102
}
330
172A
100
AcDbVisualStyle
  2

 70
    26
 71
     2
 72
     2
 73
     1
 90
        2
 40
-0.6
 41
30.0
 62
     5
 63
     7
421
 16777215
 74
     1
 91
       10
 64
     7
 65
   257
 75
     2
175
     1
 42
1.0
 92
        8
 66
   257
 43
1.0
 76
     1
 77
     6
 78
     2
 67
     7
 79
     3
170
     0
171
     0
290
     0
174
     0
 93
        5
 44
0.0
173
     0
291
     0
 45
0.0
1001
ACAD
1000
AcDbSavedByObjectVersion
1070
     0
  0
VISUALSTYLE
  5
1791
102
{ACAD_XDICTIONARY
360
4800
102
}
102
{ACAD_REACTORS
330
172A
102
}
330
172A
100
AcDbVisualStyle
  2

 70
    23
 71
     2
 72
     2
 73
     3
 90
        0
 40
-0.6
 41
-30.0
 62
     5
 63
     7
421
 16777215
 74
     2
 91
        2
 64
     7
 65
     7
 75
     1
175
     1
 42
40.0
 92
        8
 66
     7
 43
1.0
 76
     1
 77
     6
 78
     2
 67
     7
 79
     3
170
     0
171
     0
290
     0
174
     0
 93
        1
 44
0.0
173
     0
291
     0
 45
0.0
1001
ACAD
1000
AcDbSavedByObjectVersion
1070
     0
  0
VISUALSTYLE
  5
1792
102
{ACAD_XDICTIONARY
360
4802
102
}
102
{ACAD_REACTORS
330
172A
102
}
330
172A
100
AcDbVisualStyle
  2

 70
    24
 71
     1
 72
     2
 73
     2
 90
        0
 40
-0.6
 41
-30.0
 62
     5
 63
     7
421
 16777215
 74
     2
 91
        2
 64
     7
 65
     7
 75
     1
175
     1
 42
40.0
 92
       11
 66
     7
 43
1.0
 76
     1
 77
     6
 78
     2
 67
     7
 79
     6
170
     0
171
     0
290
     0
174
     0
 93
        1
 44
0.0
173
     0
291
     0
 45
0.0
1001
ACAD
1000
AcDbSavedByObjectVersion
1070
     0
  0
VISUALSTYLE
  5
1737
102
{ACAD_XDICTIONARY
360
47F4
102
}
102
{ACAD_REACTORS
330
172A
102
}
330
172A
100
AcDbVisualStyle
  2

 70
    13
 71
     2
 72
     2
 73
     0
 90
        0
 40
-0.6
 41
-30.0
 62
     5
 63
     7
 74
     1
 91
        4
 64
     7
 65
   257
 75
     1
175
     1
 42
1.0
 92
       12
 66
     7
 43
1.0
 76
     1
 77
     6
 78
     2
 67
     7
 79
     5
170
     0
171
     0
290
     0
174
     0
 93
        1
 44
0.0
173
     0
291
     1
 45
0.0
1001
ACAD
1000
AcDbSavedByObjectVersion
1070
     0
  0
VISUALSTYLE
  5
178F
102
{ACAD_XDICTIONARY
360
47FC
102
}
102
{ACAD_REACTORS
330
172A
102
}
330
172A
100
AcDbVisualStyle
  2

 70
     5
 71
     0
 72
     2
 73
     0
 90
        0
 40
-0.6
 41
-30.0
 62
     5
 63
     7
421
 16777215
 74
     1
 91
        4
 64
     7
 65
   257
 75
     1
175
     1
 42
1.0
 92
        0
 66
   257
 43
1.0
 76
     1
 77
     6
 78
     2
 67
     7
 79
     3
170
     0
171
     0
290
     0
174
     0
 93
        1
 44
0.0
173
     0
291
     0
 45
0.0
1001
ACAD
1000
AcDbSavedByObjectVersion
1070
     0
  0
VISUALSTYLE
  5
1793
102
{ACAD_XDICTIONARY
360
4804
102
}
102
{ACAD_REACTORS
330
172A
102
}
330
172A
100
AcDbVisualStyle
  2

 70
    25
 71
     2
 72
     2
 73
     1
 90
        1
 40
0.5
 41
-30.0
 62
     5
 63
     7
421
 16777215
 74
     1
 91
        0
 64
     7
 65
   257
 75
     1
175
     1
 42
1.0
 92
        8
 66
     7
 43
1.0
 76
     1
 77
     6
 78
     2
 67
     7
 79
     3
170
     0
171
     0
290
     0
174
     0
 93
       13
 44
0.0
173
     0
291
     0
 45
0.0
1001
ACAD
1000
AcDbSavedByObjectVersion
1070
     0
  0
DICTIONARYVAR
  5
177B
102
{ACAD_REACTORS
330
B87
102
}
330
B87
100
DictionaryVariables
280
     0
  1
1:1
  0
DICTIONARYVAR
  5
177A
102
{ACAD_REACTORS
330
B87
102
}
330
B87
100
DictionaryVariables
280
     0
  1
STANDARD
  0
DICTIONARYVAR
  5
106D
102
{ACAD_REACTORS
330
B87
102
}
330
B87
100
DictionaryVariables
280
     0
  1
STANDARD
  0
DICTIONARYVAR
  5
1C5E
102
{ACAD_REACTORS
330
B87
102
}
330
B87
100
DictionaryVariables
280
     0
  1
Imperial24
  0
DICTIONARYVAR
  5
1C5F
102
{ACAD_REACTORS
330
B87
102
}
330
B87
100
DictionaryVariables
280
     0
  1
Imperial24
  0
DICTIONARYVAR
  5
B88
102
{ACAD_REACTORS
330
B87
102
}
330
B87
100
DictionaryVariables
280
     0
  1
1
  0
DICTIONARYVAR
  5
106E
102
{ACAD_REACTORS
330
B87
102
}
330
B87
100
DictionaryVariables
280
     0
  1
1
  0
DICTIONARYVAR
  5
1C62
102
{ACAD_REACTORS
330
B87
102
}
330
B87
100
DictionaryVariables
280
     0
  1
1
  0
DICTIONARYVAR
  5
1C63
102
{ACAD_REACTORS
330
B87
102
}
330
B87
100
DictionaryVariables
280
     0
  1
15
  0
DICTIONARYVAR
  5
1C61
102
{ACAD_REACTORS
330
B87
102
}
330
B87
100
DictionaryVariables
280
     0
  1
0
  0
DICTIONARYVAR
  5
1C60
102
{ACAD_REACTORS
330
B87
102
}
330
B87
100
DictionaryVariables
280
     0
  1
0
  0
DICTIONARYVAR
  5
106F
102
{ACAD_REACTORS
330
B87
102
}
330
B87
100
DictionaryVariables
280
     0
  1

  0
DICTIONARYVAR
  5
177C
102
{ACAD_REACTORS
330
B87
102
}
330
B87
100
DictionaryVariables
280
     0
  1
127
  0
DICTIONARYVAR
  5
47D1
102
{ACAD_REACTORS
330
B87
102
}
330
B87
100
DictionaryVariables
280
     0
  1
2
  0
DICTIONARY
  5
47DB
102
{ACAD_REACTORS
330
47D9
102
}
330
47D9
100
AcDbDictionary
281
     1
  0
DICTIONARY
  5
47DA
102
{ACAD_REACTORS
330
47D9
102
}
330
47D9
100
AcDbDictionary
281
     1
  3
8796060819904
350
47D4
  3
8796060819920
350
47D5
  3
8796060819936
350
47D6
  3
8796060819952
350
47D7
  3
8796060819968
350
47D8
  0
DICTIONARY
  5
1015
102
{ACAD_REACTORS
330
1009
102
}
330
1009
100
AcDbDictionary
281
     1
  0
XRECORD
  5
1035
102
{ACAD_REACTORS
330
1009
102
}
330
1009
100
AcDbXrecord
280
     1
 90
-1023410169
  0
DICTIONARY
  5
F49
102
{ACAD_REACTORS
330
F48
102
}
330
F48
100
AcDbDictionary
281
     1
  0
ACAMGFILTERDAT
  5
115C
102
{ACAD_REACTORS
330
1157
102
}
330
1157
100
AcAmgFilterDat
 70
    15
  1
DIMENSION,AMDT_*_DIM
  2
*
  3
*
  4
*
  5
*
290
     1
  0
ACAMGFILTERDAT
  5
115B
102
{ACAD_REACTORS
330
1157
102
}
330
1157
100
AcAmgFilterDat
 70
    15
  1
*
  2
AM_FEA-AM_*
  3
*
  4
*
  5
*
290
     1
  0
ACAMGFILTERDAT
  5
1158
102
{ACAD_REACTORS
330
1157
102
}
330
1157
100
AcAmgFilterDat
 70
    15
  1
HATCH
  2
*
  3
*
  4
*
  5
*
290
     1
  0
ACAMGFILTERDAT
  5
1159
102
{ACAD_REACTORS
330
1157
102
}
330
1157
100
AcAmgFilterDat
 70
    15
  1
LINE
  2
8,8N,*-8,*-8N,AM_8,AM_8N,*-AM_8,*-AM_8N
  3
*
  4
*
  5
INSERT,STDPART2D
290
     1
  0
ACAMGFILTERDAT
  5
115D
102
{ACAD_REACTORS
330
1157
102
}
330
1157
100
AcAmgFilterDat
 70
    15
  1
ARC
  2
AM_5
  3
*
  4
2
  5
INSERT
290
     0
  0
ACAMGFILTERDAT
  5
115A
102
{ACAD_REACTORS
330
1157
102
}
330
1157
100
AcAmgFilterDat
 70
    15
  1
ACMFCFRAME,ACMDATUMTARGET,ACMDATUMID,ACMWELDSYM,ACMSURFSYM,ACMFEATID,ACMPARTREF,ACMBALLOON,AMDTEDGESYM,AMGSCREWCALCTABLE
  2
*
  3
*
  4
*
  5
*
290
     1
  0
LAYER_INDEX
  5
4402
102
{ACAD_REACTORS
330
4401
102
}
330
4401
100
AcDbIndex
 40
2457973.455076586
100
AcDbLayerIndex
  8
0
360
4403
 90
        0
  8
OUTLINE
360
4404
 90
       61
  8
SIZE
360
4405
 90
        6
  8
BASIS
360
4406
 90
        1
  8
DETAIL
360
4407
 90
      119
  8
ARRANGE
360
4408
 90
        2
  8
DEFPOINTS
360
4409
 90
        0
  8
ETC
360
440A
 90
        3
  8
FIX
360
440B
 90
        0
  8
NOTE
360
440C
 90
        8
  8
SERVICESPACE
360
440D
 90
        0
  8
SYMBOLLINE
360
440E
 90
        0
  8
AM_7
360
440F
 90
        0
  0
DICTIONARY
  5
47B6
330
179C
100
AcDbDictionary
280
     1
281
     1
  3
ACAD_XREC_ROUNDTRIP
360
4811
  0
DICTIONARY
  5
171B
330
171A
100
AcDbDictionary
280
     1
281
     1
  3
ACAD_XREC_ROUNDTRIP
360
1789
  3
BUMPTILE
360
171D
  3
DIFFUSETILE
360
171C
  3
OPACITYTILE
360
1720
  3
REFLECTIONTILE
360
171F
  3
REFRACTIONTILE
360
1721
  3
SPECULARTILE
360
171E
  0
DICTIONARY
  5
1713
330
1712
100
AcDbDictionary
280
     1
281
     1
  3
ACAD_XREC_ROUNDTRIP
360
1788
  3
BUMPTILE
360
1715
  3
DIFFUSETILE
360
1714
  3
OPACITYTILE
360
1718
  3
REFLECTIONTILE
360
1717
  3
REFRACTIONTILE
360
1719
  3
SPECULARTILE
360
1716
  0
DICTIONARY
  5
1723
330
1722
100
AcDbDictionary
280
     1
281
     1
  3
ACAD_XREC_ROUNDTRIP
360
178A
  3
BUMPTILE
360
1725
  3
DIFFUSETILE
360
1724
  3
OPACITYTILE
360
1728
  3
REFLECTIONTILE
360
1727
  3
REFRACTIONTILE
360
1729
  3
SPECULARTILE
360
1726
  0
DICTIONARY
  5
47B4
330
179A
100
AcDbDictionary
280
     1
281
     1
  3
ACAD_XREC_ROUNDTRIP
360
4810
  0
DICTIONARY
  5
177D
330
F44
100
AcDbDictionary
280
     1
281
     1
  3
ACAD_ROUNDTRIP_2008_TABLESTYLE_CELLSTYLEMAP
360
47D2
  0
DICTIONARY
  5
47E6
330
1730
100
AcDbDictionary
280
     1
281
     1
  3
ACAD_XREC_ROUNDTRIP
360
47E7
  0
DICTIONARY
  5
47EA
330
1732
100
AcDbDictionary
280
     1
281
     1
  3
ACAD_XREC_ROUNDTRIP
360
47EB
  0
DICTIONARY
  5
47E8
330
1731
100
AcDbDictionary
280
     1
281
     1
  3
ACAD_XREC_ROUNDTRIP
360
47E9
  0
DICTIONARY
  5
47E4
330
172F
100
AcDbDictionary
280
     1
281
     1
  3
ACAD_XREC_ROUNDTRIP
360
47E5
  0
DICTIONARY
  5
47F2
330
1736
100
AcDbDictionary
280
     1
281
     1
  3
ACAD_XREC_ROUNDTRIP
360
47F3
  0
DICTIONARY
  5
47FA
330
173A
100
AcDbDictionary
280
     1
281
     1
  3
ACAD_XREC_ROUNDTRIP
360
47FB
  0
DICTIONARY
  5
47EC
330
1733
100
AcDbDictionary
280
     1
281
     1
  3
ACAD_XREC_ROUNDTRIP
360
47ED
  0
DICTIONARY
  5
47F0
330
1735
100
AcDbDictionary
280
     1
281
     1
  3
ACAD_XREC_ROUNDTRIP
360
47F1
  0
DICTIONARY
  5
480E
330
1798
100
AcDbDictionary
280
     1
281
     1
  3
ACAD_XREC_ROUNDTRIP
360
480F
  0
DICTIONARY
  5
47F8
330
1739
100
AcDbDictionary
280
     1
281
     1
  3
ACAD_XREC_ROUNDTRIP
360
47F9
  0
DICTIONARY
  5
47DC
330
172B
100
AcDbDictionary
280
     1
281
     1
  3
ACAD_XREC_ROUNDTRIP
360
47DD
  0
DICTIONARY
  5
47DE
330
172C
100
AcDbDictionary
280
     1
281
     1
  3
ACAD_XREC_ROUNDTRIP
360
47DF
  0
DICTIONARY
  5
47E0
330
172D
100
AcDbDictionary
280
     1
281
     1
  3
ACAD_XREC_ROUNDTRIP
360
47E1
  0
DICTIONARY
  5
47E2
330
172E
100
AcDbDictionary
280
     1
281
     1
  3
ACAD_XREC_ROUNDTRIP
360
47E3
  0
DICTIONARY
  5
47FE
330
1790
100
AcDbDictionary
280
     1
281
     1
  3
ACAD_XREC_ROUNDTRIP
360
47FF
  0
DICTIONARY
  5
480A
330
1796
100
AcDbDictionary
280
     1
281
     1
  3
ACAD_XREC_ROUNDTRIP
360
480B
  0
DICTIONARY
  5
47F6
330
1738
100
AcDbDictionary
280
     1
281
     1
  3
ACAD_XREC_ROUNDTRIP
360
47F7
  0
DICTIONARY
  5
480C
330
1797
100
AcDbDictionary
280
     1
281
     1
  3
ACAD_XREC_ROUNDTRIP
360
480D
  0
DICTIONARY
  5
47EE
330
1734
100
AcDbDictionary
280
     1
281
     1
  3
ACAD_XREC_ROUNDTRIP
360
47EF
  0
DICTIONARY
  5
4808
330
1795
100
AcDbDictionary
280
     1
281
     1
  3
ACAD_XREC_ROUNDTRIP
360
4809
  0
DICTIONARY
  5
4806
330
1794
100
AcDbDictionary
280
     1
281
     1
  3
ACAD_XREC_ROUNDTRIP
360
4807
  0
DICTIONARY
  5
4800
330
1791
100
AcDbDictionary
280
     1
281
     1
  3
ACAD_XREC_ROUNDTRIP
360
4801
  0
DICTIONARY
  5
4802
330
1792
100
AcDbDictionary
280
     1
281
     1
  3
ACAD_XREC_ROUNDTRIP
360
4803
  0
DICTIONARY
  5
47F4
330
1737
100
AcDbDictionary
280
     1
281
     1
  3
ACAD_XREC_ROUNDTRIP
360
47F5
  0
DICTIONARY
  5
47FC
330
178F
100
AcDbDictionary
280
     1
281
     1
  3
ACAD_XREC_ROUNDTRIP
360
47FD
  0
DICTIONARY
  5
4804
330
1793
100
AcDbDictionary
280
     1
281
     1
  3
ACAD_XREC_ROUNDTRIP
360
4805
  0
XRECORD
  5
47D4
102
{ACAD_REACTORS
330
47DA
102
}
330
47DA
100
AcDbXrecord
280
     1
  1
AcDb_Thumbnail_Schema
102
{ATTRRECORD
341
47D5
  2
AcDbDs::TreatedAsObjectData
280
     1
291
     1
102
ATTRRECORD}
102
{ATTRRECORD
341
47D6
  2
AcDbDs::Legacy
280
     1
291
     1
102
ATTRRECORD}
  2
AcDbDs::ID
280
    10
 91
        8
102
{ATTRRECORD
341
47D7
  2
AcDs:Indexable
280
     1
291
     1
102
ATTRRECORD}
102
{ATTRRECORD
341
47D8
  2
AcDbDs::HandleAttribute
280
     7
282
     1
102
ATTRRECORD}
  2
Thumbnail_Data
280
    15
 91
        0
  0
XRECORD
  5
47D5
102
{ACAD_REACTORS
330
47DA
102
}
330
47DA
100
AcDbXrecord
280
     1
  1
AcDbDs::TreatedAsObjectDataSchema
  2
AcDbDs::TreatedAsObjectData
280
     1
 91
        0
  0
XRECORD
  5
47D6
102
{ACAD_REACTORS
330
47DA
102
}
330
47DA
100
AcDbXrecord
280
     1
  1
AcDbDs::LegacySchema
  2
AcDbDs::Legacy
280
     1
 91
        0
  0
XRECORD
  5
47D7
102
{ACAD_REACTORS
330
47DA
102
}
330
47DA
100
AcDbXrecord
280
     1
  1
AcDbDs::IndexedPropertySchema
  2
AcDs:Indexable
280
     1
 91
        0
  0
XRECORD
  5
47D8
102
{ACAD_REACTORS
330
47DA
102
}
330
47DA
100
AcDbXrecord
280
     1
  1
AcDbDs::HandleAttributeSchema
  2
AcDbDs::HandleAttribute
280
     7
 91
        1
284
     1
  0
IDBUFFER
  5
4403
330
0
100
AcDbIdBuffer
  0
IDBUFFER
  5
4404
330
0
100
AcDbIdBuffer
330
953
330
954
330
955
330
956
330
957
330
958
330
46C1
330
46C2
330
46C3
330
46C4
330
46C5
330
46C6
330
46C7
330
46C8
330
46C9
330
46CA
330
46CB
330
46CC
330
46CD
330
46CE
330
46CF
330
46D0
330
46D1
330
46D2
330
46D3
330
46D4
330
46D5
330
46D6
330
46D7
330
46D8
330
46D9
330
46DA
330
46DB
330
46DC
330
46DD
330
46DE
330
46DF
330
46E0
330
46E1
330
46E2
330
46E3
330
46E4
330
46E5
330
46E6
330
46E7
330
46E8
330
46E9
330
46EA
330
46EB
330
46EC
330
46ED
330
46EE
330
46EF
330
46F0
330
46F1
330
46F2
330
46F3
330
46F4
330
46F5
330
46F6
330
46F7
  0
IDBUFFER
  5
4405
330
0
100
AcDbIdBuffer
330
46FC
330
46FD
330
46FE
330
46FF
330
4700
330
470B
  0
IDBUFFER
  5
4406
330
0
100
AcDbIdBuffer
330
4703
  0
IDBUFFER
  5
4407
330
0
100
AcDbIdBuffer
330
464A
330
464B
330
464C
330
464D
330
464E
330
464F
330
4650
330
4651
330
4652
330
4653
330
4654
330
4655
330
4656
330
4657
330
4658
330
4659
330
465A
330
465B
330
465C
330
465D
330
465E
330
465F
330
4660
330
4661
330
4662
330
4663
330
4664
330
4665
330
4666
330
4667
330
4668
330
4669
330
466A
330
466B
330
466C
330
466D
330
466E
330
466F
330
4670
330
4671
330
4672
330
4673
330
4674
330
4675
330
4676
330
4677
330
4678
330
4679
330
467A
330
467B
330
467C
330
467D
330
467E
330
467F
330
4680
330
4681
330
4682
330
4683
330
4684
330
4685
330
4686
330
4687
330
4688
330
4689
330
468A
330
468B
330
468C
330
468D
330
468E
330
468F
330
4690
330
4691
330
4692
330
4693
330
4694
330
4695
330
4696
330
4697
330
4698
330
4699
330
469A
330
469B
330
469C
330
469D
330
469E
330
469F
330
46A0
330
46A1
330
46A2
330
46A3
330
46A4
330
46A5
330
46A6
330
46A7
330
46A8
330
46A9
330
46AA
330
46AB
330
46AC
330
46AD
330
46AE
330
46AF
330
46B0
330
46B1
330
46B2
330
46B3
330
46B4
330
46B5
330
46B6
330
46B7
330
46B8
330
46B9
330
46BA
330
46BB
330
46BC
330
46BD
330
46BE
330
46BF
330
46C0
  0
IDBUFFER
  5
4408
330
0
100
AcDbIdBuffer
330
4704
330
4705
  0
IDBUFFER
  5
4409
330
0
100
AcDbIdBuffer
  0
IDBUFFER
  5
440A
330
0
100
AcDbIdBuffer
330
4708
330
4709
330
470A
  0
IDBUFFER
  5
440B
330
0
100
AcDbIdBuffer
  0
IDBUFFER
  5
440C
330
0
100
AcDbIdBuffer
330
46F8
330
46F9
330
46FA
330
46FB
330
4701
330
4702
330
4706
330
4707
  0
IDBUFFER
  5
440D
330
0
100
AcDbIdBuffer
  0
IDBUFFER
  5
440E
330
0
100
AcDbIdBuffer
  0
IDBUFFER
  5
440F
330
0
100
AcDbIdBuffer
  0
XRECORD
  5
4811
102
{ACAD_REACTORS
330
47B6
102
}
330
47B6
100
AcDbXrecord
280
     1
102
DISPLAYNAME
  1
Imperial24
102
FLAGS
 90
        0
  0
XRECORD
  5
1789
102
{ACAD_REACTORS
330
171B
102
}
330
171B
100
AcDbXrecord
280
     1
102
MATERIAL
148
0.0
149
0.0
149
0.0
 93
        0
 94
      127
282
     0
 72
     0
 77
     0
171
     0
175
     0
179
     0
273
     0
  0
XRECORD
  5
171D
102
{ACAD_REACTORS
330
171B
102
}
330
171B
100
AcDbXrecord
280
     1
270
     1
271
     1
  0
XRECORD
  5
171C
102
{ACAD_REACTORS
330
171B
102
}
330
171B
100
AcDbXrecord
280
     1
270
     1
271
     1
  0
XRECORD
  5
1720
102
{ACAD_REACTORS
330
171B
102
}
330
171B
100
AcDbXrecord
280
     1
270
     1
271
     1
  0
XRECORD
  5
171F
102
{ACAD_REACTORS
330
171B
102
}
330
171B
100
AcDbXrecord
280
     1
270
     1
271
     1
  0
XRECORD
  5
1721
102
{ACAD_REACTORS
330
171B
102
}
330
171B
100
AcDbXrecord
280
     1
270
     1
271
     1
  0
XRECORD
  5
171E
102
{ACAD_REACTORS
330
171B
102
}
330
171B
100
AcDbXrecord
280
     1
270
     1
271
     1
  0
XRECORD
  5
1788
102
{ACAD_REACTORS
330
1713
102
}
330
1713
100
AcDbXrecord
280
     1
102
MATERIAL
148
0.0
149
0.0
149
0.0
 93
        0
 94
      127
282
     0
 72
     0
 77
     0
171
     0
175
     0
179
     0
273
     0
  0
XRECORD
  5
1715
102
{ACAD_REACTORS
330
1713
102
}
330
1713
100
AcDbXrecord
280
     1
270
     1
271
     1
  0
XRECORD
  5
1714
102
{ACAD_REACTORS
330
1713
102
}
330
1713
100
AcDbXrecord
280
     1
270
     1
271
     1
  0
XRECORD
  5
1718
102
{ACAD_REACTORS
330
1713
102
}
330
1713
100
AcDbXrecord
280
     1
270
     1
271
     1
  0
XRECORD
  5
1717
102
{ACAD_REACTORS
330
1713
102
}
330
1713
100
AcDbXrecord
280
     1
270
     1
271
     1
  0
XRECORD
  5
1719
102
{ACAD_REACTORS
330
1713
102
}
330
1713
100
AcDbXrecord
280
     1
270
     1
271
     1
  0
XRECORD
  5
1716
102
{ACAD_REACTORS
330
1713
102
}
330
1713
100
AcDbXrecord
280
     1
270
     1
271
     1
  0
XRECORD
  5
178A
102
{ACAD_REACTORS
330
1723
102
}
330
1723
100
AcDbXrecord
280
     1
102
MATERIAL
148
0.0
149
0.0
149
0.0
 93
        0
 94
      127
282
     0
 72
     0
 77
     0
171
     0
175
     0
179
     0
273
     0
  0
XRECORD
  5
1725
102
{ACAD_REACTORS
330
1723
102
}
330
1723
100
AcDbXrecord
280
     1
270
     1
271
     1
  0
XRECORD
  5
1724
102
{ACAD_REACTORS
330
1723
102
}
330
1723
100
AcDbXrecord
280
     1
270
     1
271
     1
  0
XRECORD
  5
1728
102
{ACAD_REACTORS
330
1723
102
}
330
1723
100
AcDbXrecord
280
     1
270
     1
271
     1
  0
XRECORD
  5
1727
102
{ACAD_REACTORS
330
1723
102
}
330
1723
100
AcDbXrecord
280
     1
270
     1
271
     1
  0
XRECORD
  5
1729
102
{ACAD_REACTORS
330
1723
102
}
330
1723
100
AcDbXrecord
280
     1
270
     1
271
     1
  0
XRECORD
  5
1726
102
{ACAD_REACTORS
330
1723
102
}
330
1723
100
AcDbXrecord
280
     1
270
     1
271
     1
  0
XRECORD
  5
4810
102
{ACAD_REACTORS
330
47B4
102
}
330
47B4
100
AcDbXrecord
280
     1
102
DISPLAYNAME
  1
Imperial24
102
FLAGS
 90
        0
  0
CELLSTYLEMAP
  5
47D2
102
{ACAD_REACTORS
330
177D
102
}
330
177D
100
AcDbCellStyleMap
 90
        3
300
CELLSTYLE
  1
TABLEFORMAT_BEGIN
 90
        5
170
     1
 91
        0
 92
    32768
 62
   257
 93
        1
300
CONTENTFORMAT
  1
CONTENTFORMAT_BEGIN
 90
        0
 91
        0
 92
        4
 93
        0
300

 40
0.0
140
1.0
 94
        5
 62
     0
340
852
144
0.25
309
CONTENTFORMAT_END
171
     1
301
MARGIN
  1
CELLMARGIN_BEGIN
 40
0.06
 40
0.06
 40
0.06
 40
0.06
 40
0.18
 40
0.18
309
CELLMARGIN_END
 94
        6
 95
        1
302
GRIDFORMAT
  1
GRIDFORMAT_BEGIN
 90
        0
 91
        1
 62
     0
 92
       -2
340
0
 93
        0
 40
0.045
309
GRIDFORMAT_END
 95
        2
302
GRIDFORMAT
  1
GRIDFORMAT_BEGIN
 90
        0
 91
        1
 62
     0
 92
       -2
340
0
 93
        0
 40
0.045
309
GRIDFORMAT_END
 95
        4
302
GRIDFORMAT
  1
GRIDFORMAT_BEGIN
 90
        0
 91
        1
 62
     0
 92
       -2
340
0
 93
        0
 40
0.045
309
GRIDFORMAT_END
 95
        8
302
GRIDFORMAT
  1
GRIDFORMAT_BEGIN
 90
        0
 91
        1
 62
     0
 92
       -2
340
0
 93
        0
 40
0.045
309
GRIDFORMAT_END
 95
       16
302
GRIDFORMAT
  1
GRIDFORMAT_BEGIN
 90
        0
 91
        1
 62
     0
 92
       -2
340
0
 93
        0
 40
0.045
309
GRIDFORMAT_END
 95
       32
302
GRIDFORMAT
  1
GRIDFORMAT_BEGIN
 90
        0
 91
        1
 62
     0
 92
       -2
340
0
 93
        0
 40
0.045
309
GRIDFORMAT_END
309
TABLEFORMAT_END
  1
CELLSTYLE_BEGIN
 90
        1
 91
        1
300
_TITLE
309
CELLSTYLE_END
300
CELLSTYLE
  1
TABLEFORMAT_BEGIN
 90
        5
170
     1
 91
        0
 92
        0
 62
   257
 93
        1
300
CONTENTFORMAT
  1
CONTENTFORMAT_BEGIN
 90
        0
 91
        0
 92
        4
 93
        0
300

 40
0.0
140
1.0
 94
        5
 62
     0
340
852
144
0.18
309
CONTENTFORMAT_END
171
     1
301
MARGIN
  1
CELLMARGIN_BEGIN
 40
0.06
 40
0.06
 40
0.06
 40
0.06
 40
0.18
 40
0.18
309
CELLMARGIN_END
 94
        6
 95
        1
302
GRIDFORMAT
  1
GRIDFORMAT_BEGIN
 90
        0
 91
        1
 62
     0
 92
       -2
340
0
 93
        0
 40
0.045
309
GRIDFORMAT_END
 95
        2
302
GRIDFORMAT
  1
GRIDFORMAT_BEGIN
 90
        0
 91
        1
 62
     0
 92
       -2
340
0
 93
        0
 40
0.045
309
GRIDFORMAT_END
 95
        4
302
GRIDFORMAT
  1
GRIDFORMAT_BEGIN
 90
        0
 91
        1
 62
     0
 92
       -2
340
0
 93
        0
 40
0.045
309
GRIDFORMAT_END
 95
        8
302
GRIDFORMAT
  1
GRIDFORMAT_BEGIN
 90
        0
 91
        1
 62
     0
 92
       -2
340
0
 93
        0
 40
0.045
309
GRIDFORMAT_END
 95
       16
302
GRIDFORMAT
  1
GRIDFORMAT_BEGIN
 90
        0
 91
        1
 62
     0
 92
       -2
340
0
 93
        0
 40
0.045
309
GRIDFORMAT_END
 95
       32
302
GRIDFORMAT
  1
GRIDFORMAT_BEGIN
 90
        0
 91
        1
 62
     0
 92
       -2
340
0
 93
        0
 40
0.045
309
GRIDFORMAT_END
309
TABLEFORMAT_END
  1
CELLSTYLE_BEGIN
 90
        2
 91
        1
300
_HEADER
309
CELLSTYLE_END
300
CELLSTYLE
  1
TABLEFORMAT_BEGIN
 90
        5
170
     1
 91
        0
 92
        0
 62
   257
 93
        1
300
CONTENTFORMAT
  1
CONTENTFORMAT_BEGIN
 90
        0
 91
        0
 92
        4
 93
        0
300

 40
0.0
140
1.0
 94
        2
 62
     0
340
852
144
0.18
309
CONTENTFORMAT_END
171
     1
301
MARGIN
  1
CELLMARGIN_BEGIN
 40
0.06
 40
0.06
 40
0.06
 40
0.06
 40
0.18
 40
0.18
309
CELLMARGIN_END
 94
        6
 95
        1
302
GRIDFORMAT
  1
GRIDFORMAT_BEGIN
 90
        0
 91
        1
 62
     0
 92
       -2
340
0
 93
        0
 40
0.045
309
GRIDFORMAT_END
 95
        2
302
GRIDFORMAT
  1
GRIDFORMAT_BEGIN
 90
        0
 91
        1
 62
     0
 92
       -2
340
0
 93
        0
 40
0.045
309
GRIDFORMAT_END
 95
        4
302
GRIDFORMAT
  1
GRIDFORMAT_BEGIN
 90
        0
 91
        1
 62
     0
 92
       -2
340
0
 93
        0
 40
0.045
309
GRIDFORMAT_END
 95
        8
302
GRIDFORMAT
  1
GRIDFORMAT_BEGIN
 90
        0
 91
        1
 62
     0
 92
       -2
340
0
 93
        0
 40
0.045
309
GRIDFORMAT_END
 95
       16
302
GRIDFORMAT
  1
GRIDFORMAT_BEGIN
 90
        0
 91
        1
 62
     0
 92
       -2
340
0
 93
        0
 40
0.045
309
GRIDFORMAT_END
 95
       32
302
GRIDFORMAT
  1
GRIDFORMAT_BEGIN
 90
        0
 91
        1
 62
     0
 92
       -2
340
0
 93
        0
 40
0.045
309
GRIDFORMAT_END
309
TABLEFORMAT_END
  1
CELLSTYLE_BEGIN
 90
        3
 91
        2
300
_DATA
309
CELLSTYLE_END
  0
XRECORD
  5
47E7
102
{ACAD_REACTORS
330
47E6
102
}
330
47E6
100
AcDbXrecord
280
     1
102
RTVSPost2010Prop28
280
     1
102
RTVSPost2010PropOp28
 70
     1
102
RTVSPost2010Prop29
280
     1
102
RTVSPost2010PropOp29
 70
     1
102
RTVSPost2010Prop30
280
     0
102
RTVSPost2010PropOp30
 70
     1
102
RTVSPost2010Prop31
280
     0
102
RTVSPost2010PropOp31
 70
     1
102
RTVSPost2010Prop32
280
     0
102
RTVSPost2010PropOp32
 70
     1
102
RTVSPost2010Prop33
280
     0
102
RTVSPost2010PropOp33
 70
     1
102
RTVSPost2010Prop34
280
     0
102
RTVSPost2010PropOp34
 70
     1
102
RTVSPost2010Prop35
280
     0
102
RTVSPost2010PropOp35
 70
     1
102
RTVSPost2010Prop36
280
     0
102
RTVSPost2010PropOp36
 70
     1
102
RTVSPost2010Prop37
 90
       50
102
RTVSPost2010PropOp37
 70
     1
102
RTVSPost2010Prop38
140
0.0
102
RTVSPost2010PropOp38
 70
     1
102
RTVSPost2010Prop39
140
1.0
102
RTVSPost2010PropOp39
 70
     1
102
RTVSPost2010Prop40
 90
        0
102
RTVSPost2010PropOp40
 70
     1
102
RTVSPost2010Prop41ColorIndex
 90
       18
102
RTVSPost2010Prop41ColorRGB
 90
        0
102
RTVSPost2010PropOp41
 70
     1
102
RTVSPost2010Prop42
 90
       50
102
RTVSPost2010PropOp42
 70
     1
102
RTVSPost2010Prop43
 90
        3
102
RTVSPost2010PropOp43
 70
     1
102
RTVSPost2010Prop44ColorIndex
 90
        5
102
RTVSPost2010Prop44ColorRGB
 90
      255
102
RTVSPost2010PropOp44
 70
     1
102
RTVSPost2010Prop45
280
     0
102
RTVSPost2010PropOp45
 70
     1
102
RTVSPost2010Prop46
 90
       50
102
RTVSPost2010PropOp46
 70
     1
102
RTVSPost2010Prop47
 90
       50
102
RTVSPost2010PropOp47
 70
     1
102
RTVSPost2010Prop48
 90
       50
102
RTVSPost2010PropOp48
 70
     1
102
RTVSPost2010Prop49
280
     0
102
RTVSPost2010PropOp49
 70
     1
102
RTVSPost2010Prop50
 90
       50
102
RTVSPost2010PropOp50
 70
     1
102
RTVSPost2010Prop51ColorIndex
 90
      256
102
RTVSPost2010Prop51ColorRGB
 90
-16777216
102
RTVSPost2010PropOp51
 70
     0
102
RTVSPost2010Prop52
140
1.0
102
RTVSPost2010PropOp52
 70
     0
102
RTVSPost2010Prop53
 90
        2
102
RTVSPost2010PropOp53
 70
     1
102
RTVSPost2010Prop54
  1
strokes_ogs.tif
102
RTVSPost2010PropOp54
 70
     1
102
RTVSPost2010Prop55
280
     0
102
RTVSPost2010PropOp55
 70
     1
102
RTVSPost2010Prop56
140
1.0
102
RTVSPost2010PropOp56
 70
     1
102
RTVSPost2010Prop57
140
1.0
102
RTVSPost2010PropOp57
 70
     1
102
RTVSPropertyOp0
 70
     1
102
RTVSPropertyOp1
 70
     1
102
RTVSPropertyOp2
 70
     1
102
RTVSPropertyOp3
 70
     1
102
RTVSPropertyOp4
 70
     1
102
RTVSPropertyOp5
 70
     1
102
RTVSPropertyOp6
 70
     1
102
RTVSPropertyOp7
 70
     1
102
RTVSPropertyOp8
 70
     1
102
RTVSPropertyOp9
 70
     1
102
RTVSPropertyOp10
 70
     1
102
RTVSPropertyOp11
 70
     1
102
RTVSPropertyOp12
 70
     1
102
RTVSPropertyOp13
 70
     1
102
RTVSPropertyOp14
 70
     1
102
RTVSPropertyOp15
 70
     1
102
RTVSPropertyOp16
 70
     1
102
RTVSPropertyOp17
 70
     1
102
RTVSPropertyOp18
 70
     1
102
RTVSPropertyOp19
 70
     1
102
RTVSPropertyOp20
 70
     1
102
RTVSPropertyOp21
 70
     1
102
RTVSPropertyOp22
 70
     1
102
RTVSPropertyOp23
 70
     1
102
RTVSPropertyOp24
 70
     1
102
RTVSPropertyOp25
 70
     1
102
RTVSPropertyOp26
 70
     1
102
RTVSPropertyOp27
 70
     1
102
RTVSPropertyOp28
 70
     1
102
RTVSPropertyOp29
 70
     1
102
RTVSPropertyOp30
 70
     1
102
RTVSPropertyOp31
 70
     1
102
RTVSPropertyOp32
 70
     1
102
RTVSPropertyOp33
 70
     1
102
RTVSPropertyOp34
 70
     1
102
RTVSPropertyOp35
 70
     1
102
RTVSPropertyOp36
 70
     1
102
RTVSPropertyOp37
 70
     1
102
RTVSPropertyOp38
 70
     1
102
RTVSPropertyOp39
 70
     1
102
RTVSPropertyOp40
 70
     1
102
RTVSPropertyOp41
 70
     1
102
RTVSPropertyOp42
 70
     1
102
RTVSPropertyOp43
 70
     1
102
RTVSPropertyOp44
 70
     1
102
RTVSPropertyOp45
 70
     1
102
RTVSPropertyOp46
 70
     1
102
RTVSPropertyOp47
 70
     1
102
RTVSPropertyOp48
 70
     1
102
RTVSPropertyOp49
 70
     1
102
RTVSPropertyOp50
 70
     1
102
RTVSPropertyOp51
 70
     0
102
RTVSPropertyOp52
 70
     0
102
RTVSPropertyOp53
 70
     1
102
RTVSPropertyOp54
 70
     1
102
RTVSPropertyOp55
 70
     1
102
RTVSPropertyOp56
 70
     1
102
RTVSPropertyOp57
 70
     1
102
RTVSPropertyOp58
 70
     1
102
RTVSPropertyOp59
 70
     1
102
RTVSPropertyOp60
 70
     1
102
RTVSPropertyOp61
 70
     1
102
RTVSPropertyOp62
 70
     1
  0
XRECORD
  5
47EB
102
{ACAD_REACTORS
330
47EA
102
}
330
47EA
100
AcDbXrecord
280
     1
102
RTVSPost2010Prop28
280
     0
102
RTVSPost2010PropOp28
 70
     1
102
RTVSPost2010Prop29
280
     1
102
RTVSPost2010PropOp29
 70
     1
102
RTVSPost2010Prop30
280
     1
102
RTVSPost2010PropOp30
 70
     1
102
RTVSPost2010Prop31
280
     0
102
RTVSPost2010PropOp31
 70
     1
102
RTVSPost2010Prop32
280
     0
102
RTVSPost2010PropOp32
 70
     1
102
RTVSPost2010Prop33
280
     0
102
RTVSPost2010PropOp33
 70
     1
102
RTVSPost2010Prop34
280
     0
102
RTVSPost2010PropOp34
 70
     1
102
RTVSPost2010Prop35
280
     0
102
RTVSPost2010PropOp35
 70
     1
102
RTVSPost2010Prop36
280
     0
102
RTVSPost2010PropOp36
 70
     1
102
RTVSPost2010Prop37
 90
       50
102
RTVSPost2010PropOp37
 70
     1
102
RTVSPost2010Prop38
140
0.0
102
RTVSPost2010PropOp38
 70
     1
102
RTVSPost2010Prop39
140
1.0
102
RTVSPost2010PropOp39
 70
     1
102
RTVSPost2010Prop40
 90
        0
102
RTVSPost2010PropOp40
 70
     1
102
RTVSPost2010Prop41ColorIndex
 90
       18
102
RTVSPost2010Prop41ColorRGB
 90
        0
102
RTVSPost2010PropOp41
 70
     1
102
RTVSPost2010Prop42
 90
       50
102
RTVSPost2010PropOp42
 70
     1
102
RTVSPost2010Prop43
 90
        3
102
RTVSPost2010PropOp43
 70
     1
102
RTVSPost2010Prop44ColorIndex
 90
        5
102
RTVSPost2010Prop44ColorRGB
 90
      255
102
RTVSPost2010PropOp44
 70
     1
102
RTVSPost2010Prop45
280
     0
102
RTVSPost2010PropOp45
 70
     1
102
RTVSPost2010Prop46
 90
       50
102
RTVSPost2010PropOp46
 70
     1
102
RTVSPost2010Prop47
 90
       50
102
RTVSPost2010PropOp47
 70
     1
102
RTVSPost2010Prop48
 90
       50
102
RTVSPost2010PropOp48
 70
     1
102
RTVSPost2010Prop49
280
     0
102
RTVSPost2010PropOp49
 70
     1
102
RTVSPost2010Prop50
 90
       50
102
RTVSPost2010PropOp50
 70
     1
102
RTVSPost2010Prop51ColorIndex
 90
      256
102
RTVSPost2010Prop51ColorRGB
 90
-16777216
102
RTVSPost2010PropOp51
 70
     0
102
RTVSPost2010Prop52
140
1.0
102
RTVSPost2010PropOp52
 70
     0
102
RTVSPost2010Prop53
 90
        2
102
RTVSPost2010PropOp53
 70
     1
102
RTVSPost2010Prop54
  1
strokes_ogs.tif
102
RTVSPost2010PropOp54
 70
     1
102
RTVSPost2010Prop55
280
     0
102
RTVSPost2010PropOp55
 70
     1
102
RTVSPost2010Prop56
140
1.0
102
RTVSPost2010PropOp56
 70
     1
102
RTVSPost2010Prop57
140
1.0
102
RTVSPost2010PropOp57
 70
     1
102
RTVSPropertyOp0
 70
     1
102
RTVSPropertyOp1
 70
     1
102
RTVSPropertyOp2
 70
     1
102
RTVSPropertyOp3
 70
     1
102
RTVSPropertyOp4
 70
     1
102
RTVSPropertyOp5
 70
     1
102
RTVSPropertyOp6
 70
     1
102
RTVSPropertyOp7
 70
     1
102
RTVSPropertyOp8
 70
     1
102
RTVSPropertyOp9
 70
     1
102
RTVSPropertyOp10
 70
     1
102
RTVSPropertyOp11
 70
     1
102
RTVSPropertyOp12
 70
     1
102
RTVSPropertyOp13
 70
     1
102
RTVSPropertyOp14
 70
     1
102
RTVSPropertyOp15
 70
     1
102
RTVSPropertyOp16
 70
     1
102
RTVSPropertyOp17
 70
     1
102
RTVSPropertyOp18
 70
     1
102
RTVSPropertyOp19
 70
     1
102
RTVSPropertyOp20
 70
     1
102
RTVSPropertyOp21
 70
     1
102
RTVSPropertyOp22
 70
     1
102
RTVSPropertyOp23
 70
     1
102
RTVSPropertyOp24
 70
     1
102
RTVSPropertyOp25
 70
     1
102
RTVSPropertyOp26
 70
     1
102
RTVSPropertyOp27
 70
     1
102
RTVSPropertyOp28
 70
     1
102
RTVSPropertyOp29
 70
     1
102
RTVSPropertyOp30
 70
     1
102
RTVSPropertyOp31
 70
     1
102
RTVSPropertyOp32
 70
     1
102
RTVSPropertyOp33
 70
     1
102
RTVSPropertyOp34
 70
     1
102
RTVSPropertyOp35
 70
     1
102
RTVSPropertyOp36
 70
     1
102
RTVSPropertyOp37
 70
     1
102
RTVSPropertyOp38
 70
     1
102
RTVSPropertyOp39
 70
     1
102
RTVSPropertyOp40
 70
     1
102
RTVSPropertyOp41
 70
     1
102
RTVSPropertyOp42
 70
     1
102
RTVSPropertyOp43
 70
     1
102
RTVSPropertyOp44
 70
     1
102
RTVSPropertyOp45
 70
     1
102
RTVSPropertyOp46
 70
     1
102
RTVSPropertyOp47
 70
     1
102
RTVSPropertyOp48
 70
     1
102
RTVSPropertyOp49
 70
     1
102
RTVSPropertyOp50
 70
     1
102
RTVSPropertyOp51
 70
     0
102
RTVSPropertyOp52
 70
     0
102
RTVSPropertyOp53
 70
     1
102
RTVSPropertyOp54
 70
     1
102
RTVSPropertyOp55
 70
     1
102
RTVSPropertyOp56
 70
     1
102
RTVSPropertyOp57
 70
     1
102
RTVSPropertyOp58
 70
     1
102
RTVSPropertyOp59
 70
     1
102
RTVSPropertyOp60
 70
     1
102
RTVSPropertyOp61
 70
     1
102
RTVSPropertyOp62
 70
     1
  0
XRECORD
  5
47E9
102
{ACAD_REACTORS
330
47E8
102
}
330
47E8
100
AcDbXrecord
280
     1
102
RTVSPost2010Prop28
280
     0
102
RTVSPost2010PropOp28
 70
     1
102
RTVSPost2010Prop29
280
     1
102
RTVSPost2010PropOp29
 70
     1
102
RTVSPost2010Prop30
280
     1
102
RTVSPost2010PropOp30
 70
     1
102
RTVSPost2010Prop31
280
     0
102
RTVSPost2010PropOp31
 70
     1
102
RTVSPost2010Prop32
280
     0
102
RTVSPost2010PropOp32
 70
     1
102
RTVSPost2010Prop33
280
     0
102
RTVSPost2010PropOp33
 70
     1
102
RTVSPost2010Prop34
280
     0
102
RTVSPost2010PropOp34
 70
     1
102
RTVSPost2010Prop35
280
     0
102
RTVSPost2010PropOp35
 70
     1
102
RTVSPost2010Prop36
280
     0
102
RTVSPost2010PropOp36
 70
     1
102
RTVSPost2010Prop37
 90
       50
102
RTVSPost2010PropOp37
 70
     1
102
RTVSPost2010Prop38
140
0.0
102
RTVSPost2010PropOp38
 70
     1
102
RTVSPost2010Prop39
140
1.0
102
RTVSPost2010PropOp39
 70
     1
102
RTVSPost2010Prop40
 90
        0
102
RTVSPost2010PropOp40
 70
     1
102
RTVSPost2010Prop41ColorIndex
 90
       18
102
RTVSPost2010Prop41ColorRGB
 90
        0
102
RTVSPost2010PropOp41
 70
     1
102
RTVSPost2010Prop42
 90
       50
102
RTVSPost2010PropOp42
 70
     1
102
RTVSPost2010Prop43
 90
        3
102
RTVSPost2010PropOp43
 70
     1
102
RTVSPost2010Prop44ColorIndex
 90
        5
102
RTVSPost2010Prop44ColorRGB
 90
      255
102
RTVSPost2010PropOp44
 70
     1
102
RTVSPost2010Prop45
280
     0
102
RTVSPost2010PropOp45
 70
     1
102
RTVSPost2010Prop46
 90
       50
102
RTVSPost2010PropOp46
 70
     1
102
RTVSPost2010Prop47
 90
       50
102
RTVSPost2010PropOp47
 70
     1
102
RTVSPost2010Prop48
 90
       50
102
RTVSPost2010PropOp48
 70
     1
102
RTVSPost2010Prop49
280
     0
102
RTVSPost2010PropOp49
 70
     1
102
RTVSPost2010Prop50
 90
       50
102
RTVSPost2010PropOp50
 70
     1
102
RTVSPost2010Prop51ColorIndex
 90
      256
102
RTVSPost2010Prop51ColorRGB
 90
-16777216
102
RTVSPost2010PropOp51
 70
     0
102
RTVSPost2010Prop52
140
1.0
102
RTVSPost2010PropOp52
 70
     0
102
RTVSPost2010Prop53
 90
        2
102
RTVSPost2010PropOp53
 70
     1
102
RTVSPost2010Prop54
  1
strokes_ogs.tif
102
RTVSPost2010PropOp54
 70
     1
102
RTVSPost2010Prop55
280
     0
102
RTVSPost2010PropOp55
 70
     1
102
RTVSPost2010Prop56
140
1.0
102
RTVSPost2010PropOp56
 70
     1
102
RTVSPost2010Prop57
140
1.0
102
RTVSPost2010PropOp57
 70
     1
102
RTVSPropertyOp0
 70
     1
102
RTVSPropertyOp1
 70
     1
102
RTVSPropertyOp2
 70
     1
102
RTVSPropertyOp3
 70
     1
102
RTVSPropertyOp4
 70
     1
102
RTVSPropertyOp5
 70
     1
102
RTVSPropertyOp6
 70
     1
102
RTVSPropertyOp7
 70
     1
102
RTVSPropertyOp8
 70
     1
102
RTVSPropertyOp9
 70
     1
102
RTVSPropertyOp10
 70
     1
102
RTVSPropertyOp11
 70
     1
102
RTVSPropertyOp12
 70
     1
102
RTVSPropertyOp13
 70
     1
102
RTVSPropertyOp14
 70
     1
102
RTVSPropertyOp15
 70
     1
102
RTVSPropertyOp16
 70
     1
102
RTVSPropertyOp17
 70
     1
102
RTVSPropertyOp18
 70
     1
102
RTVSPropertyOp19
 70
     1
102
RTVSPropertyOp20
 70
     1
102
RTVSPropertyOp21
 70
     1
102
RTVSPropertyOp22
 70
     1
102
RTVSPropertyOp23
 70
     1
102
RTVSPropertyOp24
 70
     1
102
RTVSPropertyOp25
 70
     1
102
RTVSPropertyOp26
 70
     1
102
RTVSPropertyOp27
 70
     1
102
RTVSPropertyOp28
 70
     1
102
RTVSPropertyOp29
 70
     1
102
RTVSPropertyOp30
 70
     1
102
RTVSPropertyOp31
 70
     1
102
RTVSPropertyOp32
 70
     1
102
RTVSPropertyOp33
 70
     1
102
RTVSPropertyOp34
 70
     1
102
RTVSPropertyOp35
 70
     1
102
RTVSPropertyOp36
 70
     1
102
RTVSPropertyOp37
 70
     1
102
RTVSPropertyOp38
 70
     1
102
RTVSPropertyOp39
 70
     1
102
RTVSPropertyOp40
 70
     1
102
RTVSPropertyOp41
 70
     1
102
RTVSPropertyOp42
 70
     1
102
RTVSPropertyOp43
 70
     1
102
RTVSPropertyOp44
 70
     1
102
RTVSPropertyOp45
 70
     1
102
RTVSPropertyOp46
 70
     1
102
RTVSPropertyOp47
 70
     1
102
RTVSPropertyOp48
 70
     1
102
RTVSPropertyOp49
 70
     1
102
RTVSPropertyOp50
 70
     1
102
RTVSPropertyOp51
 70
     0
102
RTVSPropertyOp52
 70
     0
102
RTVSPropertyOp53
 70
     1
102
RTVSPropertyOp54
 70
     1
102
RTVSPropertyOp55
 70
     1
102
RTVSPropertyOp56
 70
     1
102
RTVSPropertyOp57
 70
     1
102
RTVSPropertyOp58
 70
     1
102
RTVSPropertyOp59
 70
     1
102
RTVSPropertyOp60
 70
     1
102
RTVSPropertyOp61
 70
     1
102
RTVSPropertyOp62
 70
     1
  0
XRECORD
  5
47E5
102
{ACAD_REACTORS
330
47E4
102
}
330
47E4
100
AcDbXrecord
280
     1
102
RTVSPost2010Prop28
280
     0
102
RTVSPost2010PropOp28
 70
     1
102
RTVSPost2010Prop29
280
     1
102
RTVSPost2010PropOp29
 70
     1
102
RTVSPost2010Prop30
280
     1
102
RTVSPost2010PropOp30
 70
     1
102
RTVSPost2010Prop31
280
     0
102
RTVSPost2010PropOp31
 70
     1
102
RTVSPost2010Prop32
280
     0
102
RTVSPost2010PropOp32
 70
     1
102
RTVSPost2010Prop33
280
     0
102
RTVSPost2010PropOp33
 70
     1
102
RTVSPost2010Prop34
280
     0
102
RTVSPost2010PropOp34
 70
     1
102
RTVSPost2010Prop35
280
     0
102
RTVSPost2010PropOp35
 70
     1
102
RTVSPost2010Prop36
280
     0
102
RTVSPost2010PropOp36
 70
     1
102
RTVSPost2010Prop37
 90
       50
102
RTVSPost2010PropOp37
 70
     1
102
RTVSPost2010Prop38
140
0.0
102
RTVSPost2010PropOp38
 70
     1
102
RTVSPost2010Prop39
140
1.0
102
RTVSPost2010PropOp39
 70
     1
102
RTVSPost2010Prop40
 90
        0
102
RTVSPost2010PropOp40
 70
     1
102
RTVSPost2010Prop41ColorIndex
 90
       18
102
RTVSPost2010Prop41ColorRGB
 90
        0
102
RTVSPost2010PropOp41
 70
     1
102
RTVSPost2010Prop42
 90
       50
102
RTVSPost2010PropOp42
 70
     1
102
RTVSPost2010Prop43
 90
        3
102
RTVSPost2010PropOp43
 70
     1
102
RTVSPost2010Prop44ColorIndex
 90
        5
102
RTVSPost2010Prop44ColorRGB
 90
      255
102
RTVSPost2010PropOp44
 70
     1
102
RTVSPost2010Prop45
280
     0
102
RTVSPost2010PropOp45
 70
     1
102
RTVSPost2010Prop46
 90
       50
102
RTVSPost2010PropOp46
 70
     1
102
RTVSPost2010Prop47
 90
       50
102
RTVSPost2010PropOp47
 70
     1
102
RTVSPost2010Prop48
 90
       50
102
RTVSPost2010PropOp48
 70
     1
102
RTVSPost2010Prop49
280
     0
102
RTVSPost2010PropOp49
 70
     1
102
RTVSPost2010Prop50
 90
       50
102
RTVSPost2010PropOp50
 70
     1
102
RTVSPost2010Prop51ColorIndex
 90
      256
102
RTVSPost2010Prop51ColorRGB
 90
-16777216
102
RTVSPost2010PropOp51
 70
     0
102
RTVSPost2010Prop52
140
1.0
102
RTVSPost2010PropOp52
 70
     0
102
RTVSPost2010Prop53
 90
        2
102
RTVSPost2010PropOp53
 70
     1
102
RTVSPost2010Prop54
  1
strokes_ogs.tif
102
RTVSPost2010PropOp54
 70
     1
102
RTVSPost2010Prop55
280
     0
102
RTVSPost2010PropOp55
 70
     1
102
RTVSPost2010Prop56
140
1.0
102
RTVSPost2010PropOp56
 70
     1
102
RTVSPost2010Prop57
140
1.0
102
RTVSPost2010PropOp57
 70
     1
102
RTVSPropertyOp0
 70
     1
102
RTVSPropertyOp1
 70
     1
102
RTVSPropertyOp2
 70
     1
102
RTVSPropertyOp3
 70
     1
102
RTVSPropertyOp4
 70
     1
102
RTVSPropertyOp5
 70
     1
102
RTVSPropertyOp6
 70
     1
102
RTVSPropertyOp7
 70
     1
102
RTVSPropertyOp8
 70
     1
102
RTVSPropertyOp9
 70
     1
102
RTVSPropertyOp10
 70
     1
102
RTVSPropertyOp11
 70
     1
102
RTVSPropertyOp12
 70
     1
102
RTVSPropertyOp13
 70
     1
102
RTVSPropertyOp14
 70
     1
102
RTVSPropertyOp15
 70
     1
102
RTVSPropertyOp16
 70
     1
102
RTVSPropertyOp17
 70
     1
102
RTVSPropertyOp18
 70
     1
102
RTVSPropertyOp19
 70
     1
102
RTVSPropertyOp20
 70
     1
102
RTVSPropertyOp21
 70
     1
102
RTVSPropertyOp22
 70
     1
102
RTVSPropertyOp23
 70
     1
102
RTVSPropertyOp24
 70
     1
102
RTVSPropertyOp25
 70
     1
102
RTVSPropertyOp26
 70
     1
102
RTVSPropertyOp27
 70
     1
102
RTVSPropertyOp28
 70
     1
102
RTVSPropertyOp29
 70
     1
102
RTVSPropertyOp30
 70
     1
102
RTVSPropertyOp31
 70
     1
102
RTVSPropertyOp32
 70
     1
102
RTVSPropertyOp33
 70
     1
102
RTVSPropertyOp34
 70
     1
102
RTVSPropertyOp35
 70
     1
102
RTVSPropertyOp36
 70
     1
102
RTVSPropertyOp37
 70
     1
102
RTVSPropertyOp38
 70
     1
102
RTVSPropertyOp39
 70
     1
102
RTVSPropertyOp40
 70
     1
102
RTVSPropertyOp41
 70
     1
102
RTVSPropertyOp42
 70
     1
102
RTVSPropertyOp43
 70
     1
102
RTVSPropertyOp44
 70
     1
102
RTVSPropertyOp45
 70
     1
102
RTVSPropertyOp46
 70
     1
102
RTVSPropertyOp47
 70
     1
102
RTVSPropertyOp48
 70
     1
102
RTVSPropertyOp49
 70
     1
102
RTVSPropertyOp50
 70
     1
102
RTVSPropertyOp51
 70
     0
102
RTVSPropertyOp52
 70
     0
102
RTVSPropertyOp53
 70
     1
102
RTVSPropertyOp54
 70
     1
102
RTVSPropertyOp55
 70
     1
102
RTVSPropertyOp56
 70
     1
102
RTVSPropertyOp57
 70
     1
102
RTVSPropertyOp58
 70
     1
102
RTVSPropertyOp59
 70
     1
102
RTVSPropertyOp60
 70
     1
102
RTVSPropertyOp61
 70
     1
102
RTVSPropertyOp62
 70
     1
  0
XRECORD
  5
47F3
102
{ACAD_REACTORS
330
47F2
102
}
330
47F2
100
AcDbXrecord
280
     1
102
RTVSPost2010Prop28
280
     0
102
RTVSPost2010PropOp28
 70
     1
102
RTVSPost2010Prop29
280
     1
102
RTVSPost2010PropOp29
 70
     1
102
RTVSPost2010Prop30
280
     1
102
RTVSPost2010PropOp30
 70
     1
102
RTVSPost2010Prop31
280
     0
102
RTVSPost2010PropOp31
 70
     1
102
RTVSPost2010Prop32
280
     0
102
RTVSPost2010PropOp32
 70
     1
102
RTVSPost2010Prop33
280
     0
102
RTVSPost2010PropOp33
 70
     1
102
RTVSPost2010Prop34
280
     0
102
RTVSPost2010PropOp34
 70
     1
102
RTVSPost2010Prop35
280
     0
102
RTVSPost2010PropOp35
 70
     1
102
RTVSPost2010Prop36
280
     0
102
RTVSPost2010PropOp36
 70
     1
102
RTVSPost2010Prop37
 90
       50
102
RTVSPost2010PropOp37
 70
     1
102
RTVSPost2010Prop38
140
0.0
102
RTVSPost2010PropOp38
 70
     1
102
RTVSPost2010Prop39
140
1.0
102
RTVSPost2010PropOp39
 70
     1
102
RTVSPost2010Prop40
 90
        0
102
RTVSPost2010PropOp40
 70
     1
102
RTVSPost2010Prop41ColorIndex
 90
       18
102
RTVSPost2010Prop41ColorRGB
 90
        0
102
RTVSPost2010PropOp41
 70
     1
102
RTVSPost2010Prop42
 90
       50
102
RTVSPost2010PropOp42
 70
     1
102
RTVSPost2010Prop43
 90
        3
102
RTVSPost2010PropOp43
 70
     1
102
RTVSPost2010Prop44ColorIndex
 90
        5
102
RTVSPost2010Prop44ColorRGB
 90
      255
102
RTVSPost2010PropOp44
 70
     1
102
RTVSPost2010Prop45
280
     0
102
RTVSPost2010PropOp45
 70
     1
102
RTVSPost2010Prop46
 90
       50
102
RTVSPost2010PropOp46
 70
     1
102
RTVSPost2010Prop47
 90
       50
102
RTVSPost2010PropOp47
 70
     1
102
RTVSPost2010Prop48
 90
       50
102
RTVSPost2010PropOp48
 70
     1
102
RTVSPost2010Prop49
280
     0
102
RTVSPost2010PropOp49
 70
     1
102
RTVSPost2010Prop50
 90
       50
102
RTVSPost2010PropOp50
 70
     1
102
RTVSPost2010Prop51ColorIndex
 90
      256
102
RTVSPost2010Prop51ColorRGB
 90
-16777216
102
RTVSPost2010PropOp51
 70
     0
102
RTVSPost2010Prop52
140
1.0
102
RTVSPost2010PropOp52
 70
     0
102
RTVSPost2010Prop53
 90
        2
102
RTVSPost2010PropOp53
 70
     1
102
RTVSPost2010Prop54
  1
strokes_ogs.tif
102
RTVSPost2010PropOp54
 70
     1
102
RTVSPost2010Prop55
280
     0
102
RTVSPost2010PropOp55
 70
     1
102
RTVSPost2010Prop56
140
1.0
102
RTVSPost2010PropOp56
 70
     1
102
RTVSPost2010Prop57
140
1.0
102
RTVSPost2010PropOp57
 70
     1
102
RTVSPropertyOp0
 70
     1
102
RTVSPropertyOp1
 70
     1
102
RTVSPropertyOp2
 70
     1
102
RTVSPropertyOp3
 70
     1
102
RTVSPropertyOp4
 70
     1
102
RTVSPropertyOp5
 70
     1
102
RTVSPropertyOp6
 70
     1
102
RTVSPropertyOp7
 70
     1
102
RTVSPropertyOp8
 70
     1
102
RTVSPropertyOp9
 70
     1
102
RTVSPropertyOp10
 70
     1
102
RTVSPropertyOp11
 70
     1
102
RTVSPropertyOp12
 70
     1
102
RTVSPropertyOp13
 70
     1
102
RTVSPropertyOp14
 70
     1
102
RTVSPropertyOp15
 70
     1
102
RTVSPropertyOp16
 70
     1
102
RTVSPropertyOp17
 70
     1
102
RTVSPropertyOp18
 70
     1
102
RTVSPropertyOp19
 70
     1
102
RTVSPropertyOp20
 70
     1
102
RTVSPropertyOp21
 70
     1
102
RTVSPropertyOp22
 70
     1
102
RTVSPropertyOp23
 70
     1
102
RTVSPropertyOp24
 70
     1
102
RTVSPropertyOp25
 70
     1
102
RTVSPropertyOp26
 70
     1
102
RTVSPropertyOp27
 70
     1
102
RTVSPropertyOp28
 70
     1
102
RTVSPropertyOp29
 70
     1
102
RTVSPropertyOp30
 70
     1
102
RTVSPropertyOp31
 70
     1
102
RTVSPropertyOp32
 70
     1
102
RTVSPropertyOp33
 70
     1
102
RTVSPropertyOp34
 70
     1
102
RTVSPropertyOp35
 70
     1
102
RTVSPropertyOp36
 70
     1
102
RTVSPropertyOp37
 70
     1
102
RTVSPropertyOp38
 70
     1
102
RTVSPropertyOp39
 70
     1
102
RTVSPropertyOp40
 70
     1
102
RTVSPropertyOp41
 70
     1
102
RTVSPropertyOp42
 70
     1
102
RTVSPropertyOp43
 70
     1
102
RTVSPropertyOp44
 70
     1
102
RTVSPropertyOp45
 70
     1
102
RTVSPropertyOp46
 70
     1
102
RTVSPropertyOp47
 70
     1
102
RTVSPropertyOp48
 70
     1
102
RTVSPropertyOp49
 70
     1
102
RTVSPropertyOp50
 70
     1
102
RTVSPropertyOp51
 70
     0
102
RTVSPropertyOp52
 70
     0
102
RTVSPropertyOp53
 70
     1
102
RTVSPropertyOp54
 70
     1
102
RTVSPropertyOp55
 70
     1
102
RTVSPropertyOp56
 70
     1
102
RTVSPropertyOp57
 70
     1
102
RTVSPropertyOp58
 70
     1
102
RTVSPropertyOp59
 70
     1
102
RTVSPropertyOp60
 70
     1
102
RTVSPropertyOp61
 70
     1
102
RTVSPropertyOp62
 70
     1
  0
XRECORD
  5
47FB
102
{ACAD_REACTORS
330
47FA
102
}
330
47FA
100
AcDbXrecord
280
     1
102
RTVSPost2010Prop28
280
     0
102
RTVSPost2010PropOp28
 70
     1
102
RTVSPost2010Prop29
280
     1
102
RTVSPost2010PropOp29
 70
     1
102
RTVSPost2010Prop30
280
     1
102
RTVSPost2010PropOp30
 70
     1
102
RTVSPost2010Prop31
280
     0
102
RTVSPost2010PropOp31
 70
     1
102
RTVSPost2010Prop32
280
     0
102
RTVSPost2010PropOp32
 70
     1
102
RTVSPost2010Prop33
280
     0
102
RTVSPost2010PropOp33
 70
     1
102
RTVSPost2010Prop34
280
     0
102
RTVSPost2010PropOp34
 70
     1
102
RTVSPost2010Prop35
280
     0
102
RTVSPost2010PropOp35
 70
     1
102
RTVSPost2010Prop36
280
     0
102
RTVSPost2010PropOp36
 70
     1
102
RTVSPost2010Prop37
 90
       50
102
RTVSPost2010PropOp37
 70
     1
102
RTVSPost2010Prop38
140
0.0
102
RTVSPost2010PropOp38
 70
     1
102
RTVSPost2010Prop39
140
1.0
102
RTVSPost2010PropOp39
 70
     1
102
RTVSPost2010Prop40
 90
        0
102
RTVSPost2010PropOp40
 70
     1
102
RTVSPost2010Prop41ColorIndex
 90
       18
102
RTVSPost2010Prop41ColorRGB
 90
        0
102
RTVSPost2010PropOp41
 70
     1
102
RTVSPost2010Prop42
 90
       50
102
RTVSPost2010PropOp42
 70
     1
102
RTVSPost2010Prop43
 90
        3
102
RTVSPost2010PropOp43
 70
     1
102
RTVSPost2010Prop44ColorIndex
 90
        5
102
RTVSPost2010Prop44ColorRGB
 90
      255
102
RTVSPost2010PropOp44
 70
     1
102
RTVSPost2010Prop45
280
     0
102
RTVSPost2010PropOp45
 70
     1
102
RTVSPost2010Prop46
 90
       50
102
RTVSPost2010PropOp46
 70
     1
102
RTVSPost2010Prop47
 90
       50
102
RTVSPost2010PropOp47
 70
     1
102
RTVSPost2010Prop48
 90
       50
102
RTVSPost2010PropOp48
 70
     1
102
RTVSPost2010Prop49
280
     0
102
RTVSPost2010PropOp49
 70
     1
102
RTVSPost2010Prop50
 90
       50
102
RTVSPost2010PropOp50
 70
     1
102
RTVSPost2010Prop51ColorIndex
 90
      256
102
RTVSPost2010Prop51ColorRGB
 90
-16777216
102
RTVSPost2010PropOp51
 70
     0
102
RTVSPost2010Prop52
140
1.0
102
RTVSPost2010PropOp52
 70
     0
102
RTVSPost2010Prop53
 90
        2
102
RTVSPost2010PropOp53
 70
     1
102
RTVSPost2010Prop54
  1
strokes_ogs.tif
102
RTVSPost2010PropOp54
 70
     1
102
RTVSPost2010Prop55
280
     0
102
RTVSPost2010PropOp55
 70
     1
102
RTVSPost2010Prop56
140
1.0
102
RTVSPost2010PropOp56
 70
     1
102
RTVSPost2010Prop57
140
1.0
102
RTVSPost2010PropOp57
 70
     1
102
RTVSPropertyOp0
 70
     1
102
RTVSPropertyOp1
 70
     1
102
RTVSPropertyOp2
 70
     1
102
RTVSPropertyOp3
 70
     1
102
RTVSPropertyOp4
 70
     1
102
RTVSPropertyOp5
 70
     1
102
RTVSPropertyOp6
 70
     1
102
RTVSPropertyOp7
 70
     1
102
RTVSPropertyOp8
 70
     1
102
RTVSPropertyOp9
 70
     1
102
RTVSPropertyOp10
 70
     1
102
RTVSPropertyOp11
 70
     1
102
RTVSPropertyOp12
 70
     1
102
RTVSPropertyOp13
 70
     1
102
RTVSPropertyOp14
 70
     1
102
RTVSPropertyOp15
 70
     1
102
RTVSPropertyOp16
 70
     1
102
RTVSPropertyOp17
 70
     1
102
RTVSPropertyOp18
 70
     1
102
RTVSPropertyOp19
 70
     1
102
RTVSPropertyOp20
 70
     1
102
RTVSPropertyOp21
 70
     1
102
RTVSPropertyOp22
 70
     1
102
RTVSPropertyOp23
 70
     1
102
RTVSPropertyOp24
 70
     1
102
RTVSPropertyOp25
 70
     1
102
RTVSPropertyOp26
 70
     1
102
RTVSPropertyOp27
 70
     1
102
RTVSPropertyOp28
 70
     1
102
RTVSPropertyOp29
 70
     1
102
RTVSPropertyOp30
 70
     1
102
RTVSPropertyOp31
 70
     1
102
RTVSPropertyOp32
 70
     1
102
RTVSPropertyOp33
 70
     1
102
RTVSPropertyOp34
 70
     1
102
RTVSPropertyOp35
 70
     1
102
RTVSPropertyOp36
 70
     1
102
RTVSPropertyOp37
 70
     1
102
RTVSPropertyOp38
 70
     1
102
RTVSPropertyOp39
 70
     1
102
RTVSPropertyOp40
 70
     1
102
RTVSPropertyOp41
 70
     1
102
RTVSPropertyOp42
 70
     1
102
RTVSPropertyOp43
 70
     1
102
RTVSPropertyOp44
 70
     1
102
RTVSPropertyOp45
 70
     1
102
RTVSPropertyOp46
 70
     1
102
RTVSPropertyOp47
 70
     1
102
RTVSPropertyOp48
 70
     1
102
RTVSPropertyOp49
 70
     1
102
RTVSPropertyOp50
 70
     1
102
RTVSPropertyOp51
 70
     0
102
RTVSPropertyOp52
 70
     0
102
RTVSPropertyOp53
 70
     1
102
RTVSPropertyOp54
 70
     1
102
RTVSPropertyOp55
 70
     1
102
RTVSPropertyOp56
 70
     1
102
RTVSPropertyOp57
 70
     1
102
RTVSPropertyOp58
 70
     1
102
RTVSPropertyOp59
 70
     1
102
RTVSPropertyOp60
 70
     1
102
RTVSPropertyOp61
 70
     1
102
RTVSPropertyOp62
 70
     1
  0
XRECORD
  5
47ED
102
{ACAD_REACTORS
330
47EC
102
}
330
47EC
100
AcDbXrecord
280
     1
102
RTVSPost2010Prop28
280
     0
102
RTVSPost2010PropOp28
 70
     1
102
RTVSPost2010Prop29
280
     1
102
RTVSPost2010PropOp29
 70
     1
102
RTVSPost2010Prop30
280
     1
102
RTVSPost2010PropOp30
 70
     1
102
RTVSPost2010Prop31
280
     0
102
RTVSPost2010PropOp31
 70
     1
102
RTVSPost2010Prop32
280
     0
102
RTVSPost2010PropOp32
 70
     1
102
RTVSPost2010Prop33
280
     0
102
RTVSPost2010PropOp33
 70
     1
102
RTVSPost2010Prop34
280
     0
102
RTVSPost2010PropOp34
 70
     1
102
RTVSPost2010Prop35
280
     0
102
RTVSPost2010PropOp35
 70
     1
102
RTVSPost2010Prop36
280
     0
102
RTVSPost2010PropOp36
 70
     1
102
RTVSPost2010Prop37
 90
       50
102
RTVSPost2010PropOp37
 70
     1
102
RTVSPost2010Prop38
140
0.0
102
RTVSPost2010PropOp38
 70
     1
102
RTVSPost2010Prop39
140
1.0
102
RTVSPost2010PropOp39
 70
     1
102
RTVSPost2010Prop40
 90
        0
102
RTVSPost2010PropOp40
 70
     1
102
RTVSPost2010Prop41ColorIndex
 90
       18
102
RTVSPost2010Prop41ColorRGB
 90
        0
102
RTVSPost2010PropOp41
 70
     1
102
RTVSPost2010Prop42
 90
       50
102
RTVSPost2010PropOp42
 70
     1
102
RTVSPost2010Prop43
 90
        3
102
RTVSPost2010PropOp43
 70
     1
102
RTVSPost2010Prop44ColorIndex
 90
        5
102
RTVSPost2010Prop44ColorRGB
 90
      255
102
RTVSPost2010PropOp44
 70
     1
102
RTVSPost2010Prop45
280
     0
102
RTVSPost2010PropOp45
 70
     1
102
RTVSPost2010Prop46
 90
       50
102
RTVSPost2010PropOp46
 70
     1
102
RTVSPost2010Prop47
 90
       50
102
RTVSPost2010PropOp47
 70
     1
102
RTVSPost2010Prop48
 90
       50
102
RTVSPost2010PropOp48
 70
     1
102
RTVSPost2010Prop49
280
     0
102
RTVSPost2010PropOp49
 70
     1
102
RTVSPost2010Prop50
 90
       50
102
RTVSPost2010PropOp50
 70
     1
102
RTVSPost2010Prop51ColorIndex
 90
      256
102
RTVSPost2010Prop51ColorRGB
 90
-16777216
102
RTVSPost2010PropOp51
 70
     0
102
RTVSPost2010Prop52
140
1.0
102
RTVSPost2010PropOp52
 70
     0
102
RTVSPost2010Prop53
 90
        2
102
RTVSPost2010PropOp53
 70
     1
102
RTVSPost2010Prop54
  1
strokes_ogs.tif
102
RTVSPost2010PropOp54
 70
     1
102
RTVSPost2010Prop55
280
     0
102
RTVSPost2010PropOp55
 70
     1
102
RTVSPost2010Prop56
140
1.0
102
RTVSPost2010PropOp56
 70
     1
102
RTVSPost2010Prop57
140
1.0
102
RTVSPost2010PropOp57
 70
     1
102
RTVSPropertyOp0
 70
     1
102
RTVSPropertyOp1
 70
     1
102
RTVSPropertyOp2
 70
     1
102
RTVSPropertyOp3
 70
     1
102
RTVSPropertyOp4
 70
     1
102
RTVSPropertyOp5
 70
     1
102
RTVSPropertyOp6
 70
     1
102
RTVSPropertyOp7
 70
     1
102
RTVSPropertyOp8
 70
     1
102
RTVSPropertyOp9
 70
     1
102
RTVSPropertyOp10
 70
     1
102
RTVSPropertyOp11
 70
     1
102
RTVSPropertyOp12
 70
     1
102
RTVSPropertyOp13
 70
     1
102
RTVSPropertyOp14
 70
     1
102
RTVSPropertyOp15
 70
     1
102
RTVSPropertyOp16
 70
     1
102
RTVSPropertyOp17
 70
     1
102
RTVSPropertyOp18
 70
     1
102
RTVSPropertyOp19
 70
     1
102
RTVSPropertyOp20
 70
     1
102
RTVSPropertyOp21
 70
     1
102
RTVSPropertyOp22
 70
     1
102
RTVSPropertyOp23
 70
     1
102
RTVSPropertyOp24
 70
     1
102
RTVSPropertyOp25
 70
     1
102
RTVSPropertyOp26
 70
     1
102
RTVSPropertyOp27
 70
     1
102
RTVSPropertyOp28
 70
     1
102
RTVSPropertyOp29
 70
     1
102
RTVSPropertyOp30
 70
     1
102
RTVSPropertyOp31
 70
     1
102
RTVSPropertyOp32
 70
     1
102
RTVSPropertyOp33
 70
     1
102
RTVSPropertyOp34
 70
     1
102
RTVSPropertyOp35
 70
     1
102
RTVSPropertyOp36
 70
     1
102
RTVSPropertyOp37
 70
     1
102
RTVSPropertyOp38
 70
     1
102
RTVSPropertyOp39
 70
     1
102
RTVSPropertyOp40
 70
     1
102
RTVSPropertyOp41
 70
     1
102
RTVSPropertyOp42
 70
     1
102
RTVSPropertyOp43
 70
     1
102
RTVSPropertyOp44
 70
     1
102
RTVSPropertyOp45
 70
     1
102
RTVSPropertyOp46
 70
     1
102
RTVSPropertyOp47
 70
     1
102
RTVSPropertyOp48
 70
     1
102
RTVSPropertyOp49
 70
     1
102
RTVSPropertyOp50
 70
     1
102
RTVSPropertyOp51
 70
     0
102
RTVSPropertyOp52
 70
     0
102
RTVSPropertyOp53
 70
     1
102
RTVSPropertyOp54
 70
     1
102
RTVSPropertyOp55
 70
     1
102
RTVSPropertyOp56
 70
     1
102
RTVSPropertyOp57
 70
     1
102
RTVSPropertyOp58
 70
     1
102
RTVSPropertyOp59
 70
     1
102
RTVSPropertyOp60
 70
     1
102
RTVSPropertyOp61
 70
     1
102
RTVSPropertyOp62
 70
     1
  0
XRECORD
  5
47F1
102
{ACAD_REACTORS
330
47F0
102
}
330
47F0
100
AcDbXrecord
280
     1
102
RTVSPost2010Prop28
280
     0
102
RTVSPost2010PropOp28
 70
     1
102
RTVSPost2010Prop29
280
     1
102
RTVSPost2010PropOp29
 70
     1
102
RTVSPost2010Prop30
280
     1
102
RTVSPost2010PropOp30
 70
     1
102
RTVSPost2010Prop31
280
     0
102
RTVSPost2010PropOp31
 70
     1
102
RTVSPost2010Prop32
280
     0
102
RTVSPost2010PropOp32
 70
     1
102
RTVSPost2010Prop33
280
     0
102
RTVSPost2010PropOp33
 70
     1
102
RTVSPost2010Prop34
280
     0
102
RTVSPost2010PropOp34
 70
     1
102
RTVSPost2010Prop35
280
     0
102
RTVSPost2010PropOp35
 70
     1
102
RTVSPost2010Prop36
280
     0
102
RTVSPost2010PropOp36
 70
     1
102
RTVSPost2010Prop37
 90
       50
102
RTVSPost2010PropOp37
 70
     1
102
RTVSPost2010Prop38
140
0.0
102
RTVSPost2010PropOp38
 70
     1
102
RTVSPost2010Prop39
140
1.0
102
RTVSPost2010PropOp39
 70
     1
102
RTVSPost2010Prop40
 90
        0
102
RTVSPost2010PropOp40
 70
     1
102
RTVSPost2010Prop41ColorIndex
 90
       18
102
RTVSPost2010Prop41ColorRGB
 90
        0
102
RTVSPost2010PropOp41
 70
     1
102
RTVSPost2010Prop42
 90
       50
102
RTVSPost2010PropOp42
 70
     1
102
RTVSPost2010Prop43
 90
        3
102
RTVSPost2010PropOp43
 70
     1
102
RTVSPost2010Prop44ColorIndex
 90
        5
102
RTVSPost2010Prop44ColorRGB
 90
      255
102
RTVSPost2010PropOp44
 70
     1
102
RTVSPost2010Prop45
280
     0
102
RTVSPost2010PropOp45
 70
     1
102
RTVSPost2010Prop46
 90
       50
102
RTVSPost2010PropOp46
 70
     1
102
RTVSPost2010Prop47
 90
       50
102
RTVSPost2010PropOp47
 70
     1
102
RTVSPost2010Prop48
 90
       50
102
RTVSPost2010PropOp48
 70
     1
102
RTVSPost2010Prop49
280
     0
102
RTVSPost2010PropOp49
 70
     1
102
RTVSPost2010Prop50
 90
       50
102
RTVSPost2010PropOp50
 70
     1
102
RTVSPost2010Prop51ColorIndex
 90
      256
102
RTVSPost2010Prop51ColorRGB
 90
-16777216
102
RTVSPost2010PropOp51
 70
     0
102
RTVSPost2010Prop52
140
1.0
102
RTVSPost2010PropOp52
 70
     0
102
RTVSPost2010Prop53
 90
        2
102
RTVSPost2010PropOp53
 70
     1
102
RTVSPost2010Prop54
  1
strokes_ogs.tif
102
RTVSPost2010PropOp54
 70
     1
102
RTVSPost2010Prop55
280
     0
102
RTVSPost2010PropOp55
 70
     1
102
RTVSPost2010Prop56
140
1.0
102
RTVSPost2010PropOp56
 70
     1
102
RTVSPost2010Prop57
140
1.0
102
RTVSPost2010PropOp57
 70
     1
102
RTVSPropertyOp0
 70
     1
102
RTVSPropertyOp1
 70
     1
102
RTVSPropertyOp2
 70
     1
102
RTVSPropertyOp3
 70
     1
102
RTVSPropertyOp4
 70
     1
102
RTVSPropertyOp5
 70
     1
102
RTVSPropertyOp6
 70
     1
102
RTVSPropertyOp7
 70
     1
102
RTVSPropertyOp8
 70
     1
102
RTVSPropertyOp9
 70
     1
102
RTVSPropertyOp10
 70
     1
102
RTVSPropertyOp11
 70
     1
102
RTVSPropertyOp12
 70
     1
102
RTVSPropertyOp13
 70
     1
102
RTVSPropertyOp14
 70
     1
102
RTVSPropertyOp15
 70
     1
102
RTVSPropertyOp16
 70
     1
102
RTVSPropertyOp17
 70
     1
102
RTVSPropertyOp18
 70
     1
102
RTVSPropertyOp19
 70
     1
102
RTVSPropertyOp20
 70
     1
102
RTVSPropertyOp21
 70
     1
102
RTVSPropertyOp22
 70
     1
102
RTVSPropertyOp23
 70
     1
102
RTVSPropertyOp24
 70
     1
102
RTVSPropertyOp25
 70
     1
102
RTVSPropertyOp26
 70
     1
102
RTVSPropertyOp27
 70
     1
102
RTVSPropertyOp28
 70
     1
102
RTVSPropertyOp29
 70
     1
102
RTVSPropertyOp30
 70
     1
102
RTVSPropertyOp31
 70
     1
102
RTVSPropertyOp32
 70
     1
102
RTVSPropertyOp33
 70
     1
102
RTVSPropertyOp34
 70
     1
102
RTVSPropertyOp35
 70
     1
102
RTVSPropertyOp36
 70
     1
102
RTVSPropertyOp37
 70
     1
102
RTVSPropertyOp38
 70
     1
102
RTVSPropertyOp39
 70
     1
102
RTVSPropertyOp40
 70
     1
102
RTVSPropertyOp41
 70
     1
102
RTVSPropertyOp42
 70
     1
102
RTVSPropertyOp43
 70
     1
102
RTVSPropertyOp44
 70
     1
102
RTVSPropertyOp45
 70
     1
102
RTVSPropertyOp46
 70
     1
102
RTVSPropertyOp47
 70
     1
102
RTVSPropertyOp48
 70
     1
102
RTVSPropertyOp49
 70
     1
102
RTVSPropertyOp50
 70
     1
102
RTVSPropertyOp51
 70
     0
102
RTVSPropertyOp52
 70
     0
102
RTVSPropertyOp53
 70
     1
102
RTVSPropertyOp54
 70
     1
102
RTVSPropertyOp55
 70
     1
102
RTVSPropertyOp56
 70
     1
102
RTVSPropertyOp57
 70
     1
102
RTVSPropertyOp58
 70
     1
102
RTVSPropertyOp59
 70
     1
102
RTVSPropertyOp60
 70
     1
102
RTVSPropertyOp61
 70
     1
102
RTVSPropertyOp62
 70
     1
  0
XRECORD
  5
480F
102
{ACAD_REACTORS
330
480E
102
}
330
480E
100
AcDbXrecord
280
     1
102
RTVSPost2010Prop28
280
     0
102
RTVSPost2010PropOp28
 70
     1
102
RTVSPost2010Prop29
280
     1
102
RTVSPost2010PropOp29
 70
     1
102
RTVSPost2010Prop30
280
     1
102
RTVSPost2010PropOp30
 70
     1
102
RTVSPost2010Prop31
280
     0
102
RTVSPost2010PropOp31
 70
     1
102
RTVSPost2010Prop32
280
     0
102
RTVSPost2010PropOp32
 70
     1
102
RTVSPost2010Prop33
280
     0
102
RTVSPost2010PropOp33
 70
     1
102
RTVSPost2010Prop34
280
     0
102
RTVSPost2010PropOp34
 70
     1
102
RTVSPost2010Prop35
280
     0
102
RTVSPost2010PropOp35
 70
     1
102
RTVSPost2010Prop36
280
     0
102
RTVSPost2010PropOp36
 70
     1
102
RTVSPost2010Prop37
 90
       50
102
RTVSPost2010PropOp37
 70
     0
102
RTVSPost2010Prop38
140
0.0
102
RTVSPost2010PropOp38
 70
     0
102
RTVSPost2010Prop39
140
1.0
102
RTVSPost2010PropOp39
 70
     0
102
RTVSPost2010Prop40
 90
        0
102
RTVSPost2010PropOp40
 70
     0
102
RTVSPost2010Prop41ColorIndex
 90
       18
102
RTVSPost2010Prop41ColorRGB
 90
        0
102
RTVSPost2010PropOp41
 70
     0
102
RTVSPost2010Prop42
 90
       50
102
RTVSPost2010PropOp42
 70
     0
102
RTVSPost2010Prop43
 90
        3
102
RTVSPost2010PropOp43
 70
     0
102
RTVSPost2010Prop44ColorIndex
 90
        5
102
RTVSPost2010Prop44ColorRGB
 90
      255
102
RTVSPost2010PropOp44
 70
     0
102
RTVSPost2010Prop45
280
     0
102
RTVSPost2010PropOp45
 70
     1
102
RTVSPost2010Prop46
 90
       50
102
RTVSPost2010PropOp46
 70
     0
102
RTVSPost2010Prop47
 90
       50
102
RTVSPost2010PropOp47
 70
     0
102
RTVSPost2010Prop48
 90
       50
102
RTVSPost2010PropOp48
 70
     0
102
RTVSPost2010Prop49
280
     0
102
RTVSPost2010PropOp49
 70
     1
102
RTVSPost2010Prop50
 90
       50
102
RTVSPost2010PropOp50
 70
     0
102
RTVSPost2010Prop51ColorIndex
 90
      256
102
RTVSPost2010Prop51ColorRGB
 90
-16777216
102
RTVSPost2010PropOp51
 70
     0
102
RTVSPost2010Prop52
140
1.0
102
RTVSPost2010PropOp52
 70
     0
102
RTVSPost2010Prop53
 90
        2
102
RTVSPost2010PropOp53
 70
     0
102
RTVSPost2010Prop54
  1
strokes_ogs.tif
102
RTVSPost2010PropOp54
 70
     0
102
RTVSPost2010Prop55
280
     0
102
RTVSPost2010PropOp55
 70
     1
102
RTVSPost2010Prop56
140
1.0
102
RTVSPost2010PropOp56
 70
     0
102
RTVSPost2010Prop57
140
1.0
102
RTVSPost2010PropOp57
 70
     0
102
RTVSPropertyOp0
 70
     0
102
RTVSPropertyOp1
 70
     0
102
RTVSPropertyOp2
 70
     0
102
RTVSPropertyOp3
 70
     0
102
RTVSPropertyOp4
 70
     0
102
RTVSPropertyOp5
 70
     0
102
RTVSPropertyOp6
 70
     0
102
RTVSPropertyOp7
 70
     0
102
RTVSPropertyOp8
 70
     0
102
RTVSPropertyOp9
 70
     0
102
RTVSPropertyOp10
 70
     0
102
RTVSPropertyOp11
 70
     0
102
RTVSPropertyOp12
 70
     0
102
RTVSPropertyOp13
 70
     0
102
RTVSPropertyOp14
 70
     2
102
RTVSPropertyOp15
 70
     0
102
RTVSPropertyOp16
 70
     0
102
RTVSPropertyOp17
 70
     0
102
RTVSPropertyOp18
 70
     0
102
RTVSPropertyOp19
 70
     0
102
RTVSPropertyOp20
 70
     0
102
RTVSPropertyOp21
 70
     0
102
RTVSPropertyOp22
 70
     0
102
RTVSPropertyOp23
 70
     0
102
RTVSPropertyOp24
 70
     0
102
RTVSPropertyOp25
 70
     0
102
RTVSPropertyOp26
 70
     0
102
RTVSPropertyOp27
 70
     0
102
RTVSPropertyOp28
 70
     1
102
RTVSPropertyOp29
 70
     1
102
RTVSPropertyOp30
 70
     1
102
RTVSPropertyOp31
 70
     1
102
RTVSPropertyOp32
 70
     1
102
RTVSPropertyOp33
 70
     1
102
RTVSPropertyOp34
 70
     1
102
RTVSPropertyOp35
 70
     1
102
RTVSPropertyOp36
 70
     1
102
RTVSPropertyOp37
 70
     0
102
RTVSPropertyOp38
 70
     0
102
RTVSPropertyOp39
 70
     0
102
RTVSPropertyOp40
 70
     0
102
RTVSPropertyOp41
 70
     0
102
RTVSPropertyOp42
 70
     0
102
RTVSPropertyOp43
 70
     0
102
RTVSPropertyOp44
 70
     0
102
RTVSPropertyOp45
 70
     1
102
RTVSPropertyOp46
 70
     0
102
RTVSPropertyOp47
 70
     0
102
RTVSPropertyOp48
 70
     0
102
RTVSPropertyOp49
 70
     1
102
RTVSPropertyOp50
 70
     0
102
RTVSPropertyOp51
 70
     0
102
RTVSPropertyOp52
 70
     0
102
RTVSPropertyOp53
 70
     0
102
RTVSPropertyOp54
 70
     0
102
RTVSPropertyOp55
 70
     1
102
RTVSPropertyOp56
 70
     0
102
RTVSPropertyOp57
 70
     0
102
RTVSPropertyOp58
 70
     1
102
RTVSPropertyOp59
 70
     1
102
RTVSPropertyOp60
 70
     1
102
RTVSPropertyOp61
 70
     1
102
RTVSPropertyOp62
 70
     1
  0
XRECORD
  5
47F9
102
{ACAD_REACTORS
330
47F8
102
}
330
47F8
100
AcDbXrecord
280
     1
102
RTVSPost2010Prop28
280
     0
102
RTVSPost2010PropOp28
 70
     1
102
RTVSPost2010Prop29
280
     1
102
RTVSPost2010PropOp29
 70
     1
102
RTVSPost2010Prop30
280
     1
102
RTVSPost2010PropOp30
 70
     1
102
RTVSPost2010Prop31
280
     0
102
RTVSPost2010PropOp31
 70
     1
102
RTVSPost2010Prop32
280
     0
102
RTVSPost2010PropOp32
 70
     1
102
RTVSPost2010Prop33
280
     0
102
RTVSPost2010PropOp33
 70
     1
102
RTVSPost2010Prop34
280
     0
102
RTVSPost2010PropOp34
 70
     1
102
RTVSPost2010Prop35
280
     0
102
RTVSPost2010PropOp35
 70
     1
102
RTVSPost2010Prop36
280
     0
102
RTVSPost2010PropOp36
 70
     1
102
RTVSPost2010Prop37
 90
       50
102
RTVSPost2010PropOp37
 70
     1
102
RTVSPost2010Prop38
140
0.0
102
RTVSPost2010PropOp38
 70
     1
102
RTVSPost2010Prop39
140
1.0
102
RTVSPost2010PropOp39
 70
     1
102
RTVSPost2010Prop40
 90
        0
102
RTVSPost2010PropOp40
 70
     1
102
RTVSPost2010Prop41ColorIndex
 90
       18
102
RTVSPost2010Prop41ColorRGB
 90
        0
102
RTVSPost2010PropOp41
 70
     1
102
RTVSPost2010Prop42
 90
       50
102
RTVSPost2010PropOp42
 70
     1
102
RTVSPost2010Prop43
 90
        3
102
RTVSPost2010PropOp43
 70
     1
102
RTVSPost2010Prop44ColorIndex
 90
        5
102
RTVSPost2010Prop44ColorRGB
 90
      255
102
RTVSPost2010PropOp44
 70
     1
102
RTVSPost2010Prop45
280
     0
102
RTVSPost2010PropOp45
 70
     1
102
RTVSPost2010Prop46
 90
       50
102
RTVSPost2010PropOp46
 70
     1
102
RTVSPost2010Prop47
 90
       50
102
RTVSPost2010PropOp47
 70
     1
102
RTVSPost2010Prop48
 90
       50
102
RTVSPost2010PropOp48
 70
     1
102
RTVSPost2010Prop49
280
     0
102
RTVSPost2010PropOp49
 70
     1
102
RTVSPost2010Prop50
 90
       50
102
RTVSPost2010PropOp50
 70
     1
102
RTVSPost2010Prop51ColorIndex
 90
      256
102
RTVSPost2010Prop51ColorRGB
 90
-16777216
102
RTVSPost2010PropOp51
 70
     0
102
RTVSPost2010Prop52
140
1.0
102
RTVSPost2010PropOp52
 70
     0
102
RTVSPost2010Prop53
 90
        2
102
RTVSPost2010PropOp53
 70
     1
102
RTVSPost2010Prop54
  1
strokes_ogs.tif
102
RTVSPost2010PropOp54
 70
     1
102
RTVSPost2010Prop55
280
     0
102
RTVSPost2010PropOp55
 70
     1
102
RTVSPost2010Prop56
140
1.0
102
RTVSPost2010PropOp56
 70
     1
102
RTVSPost2010Prop57
140
1.0
102
RTVSPost2010PropOp57
 70
     1
102
RTVSPropertyOp0
 70
     1
102
RTVSPropertyOp1
 70
     1
102
RTVSPropertyOp2
 70
     1
102
RTVSPropertyOp3
 70
     1
102
RTVSPropertyOp4
 70
     1
102
RTVSPropertyOp5
 70
     1
102
RTVSPropertyOp6
 70
     1
102
RTVSPropertyOp7
 70
     1
102
RTVSPropertyOp8
 70
     1
102
RTVSPropertyOp9
 70
     1
102
RTVSPropertyOp10
 70
     1
102
RTVSPropertyOp11
 70
     1
102
RTVSPropertyOp12
 70
     1
102
RTVSPropertyOp13
 70
     1
102
RTVSPropertyOp14
 70
     1
102
RTVSPropertyOp15
 70
     1
102
RTVSPropertyOp16
 70
     1
102
RTVSPropertyOp17
 70
     1
102
RTVSPropertyOp18
 70
     1
102
RTVSPropertyOp19
 70
     1
102
RTVSPropertyOp20
 70
     1
102
RTVSPropertyOp21
 70
     1
102
RTVSPropertyOp22
 70
     1
102
RTVSPropertyOp23
 70
     1
102
RTVSPropertyOp24
 70
     1
102
RTVSPropertyOp25
 70
     1
102
RTVSPropertyOp26
 70
     1
102
RTVSPropertyOp27
 70
     1
102
RTVSPropertyOp28
 70
     1
102
RTVSPropertyOp29
 70
     1
102
RTVSPropertyOp30
 70
     1
102
RTVSPropertyOp31
 70
     1
102
RTVSPropertyOp32
 70
     1
102
RTVSPropertyOp33
 70
     1
102
RTVSPropertyOp34
 70
     1
102
RTVSPropertyOp35
 70
     1
102
RTVSPropertyOp36
 70
     1
102
RTVSPropertyOp37
 70
     1
102
RTVSPropertyOp38
 70
     1
102
RTVSPropertyOp39
 70
     1
102
RTVSPropertyOp40
 70
     1
102
RTVSPropertyOp41
 70
     1
102
RTVSPropertyOp42
 70
     1
102
RTVSPropertyOp43
 70
     1
102
RTVSPropertyOp44
 70
     1
102
RTVSPropertyOp45
 70
     1
102
RTVSPropertyOp46
 70
     1
102
RTVSPropertyOp47
 70
     1
102
RTVSPropertyOp48
 70
     1
102
RTVSPropertyOp49
 70
     1
102
RTVSPropertyOp50
 70
     1
102
RTVSPropertyOp51
 70
     0
102
RTVSPropertyOp52
 70
     0
102
RTVSPropertyOp53
 70
     1
102
RTVSPropertyOp54
 70
     1
102
RTVSPropertyOp55
 70
     1
102
RTVSPropertyOp56
 70
     1
102
RTVSPropertyOp57
 70
     1
102
RTVSPropertyOp58
 70
     1
102
RTVSPropertyOp59
 70
     1
102
RTVSPropertyOp60
 70
     1
102
RTVSPropertyOp61
 70
     1
102
RTVSPropertyOp62
 70
     1
  0
XRECORD
  5
47DD
102
{ACAD_REACTORS
330
47DC
102
}
330
47DC
100
AcDbXrecord
280
     1
102
RTVSPost2010Prop28
280
     0
102
RTVSPost2010PropOp28
 70
     1
102
RTVSPost2010Prop29
280
     1
102
RTVSPost2010PropOp29
 70
     1
102
RTVSPost2010Prop30
280
     1
102
RTVSPost2010PropOp30
 70
     1
102
RTVSPost2010Prop31
280
     0
102
RTVSPost2010PropOp31
 70
     1
102
RTVSPost2010Prop32
280
     0
102
RTVSPost2010PropOp32
 70
     1
102
RTVSPost2010Prop33
280
     0
102
RTVSPost2010PropOp33
 70
     1
102
RTVSPost2010Prop34
280
     0
102
RTVSPost2010PropOp34
 70
     1
102
RTVSPost2010Prop35
280
     0
102
RTVSPost2010PropOp35
 70
     1
102
RTVSPost2010Prop36
280
     0
102
RTVSPost2010PropOp36
 70
     1
102
RTVSPost2010Prop37
 90
       50
102
RTVSPost2010PropOp37
 70
     1
102
RTVSPost2010Prop38
140
0.0
102
RTVSPost2010PropOp38
 70
     1
102
RTVSPost2010Prop39
140
1.0
102
RTVSPost2010PropOp39
 70
     1
102
RTVSPost2010Prop40
 90
        0
102
RTVSPost2010PropOp40
 70
     1
102
RTVSPost2010Prop41ColorIndex
 90
       18
102
RTVSPost2010Prop41ColorRGB
 90
        0
102
RTVSPost2010PropOp41
 70
     1
102
RTVSPost2010Prop42
 90
       50
102
RTVSPost2010PropOp42
 70
     1
102
RTVSPost2010Prop43
 90
        3
102
RTVSPost2010PropOp43
 70
     1
102
RTVSPost2010Prop44ColorIndex
 90
        5
102
RTVSPost2010Prop44ColorRGB
 90
      255
102
RTVSPost2010PropOp44
 70
     1
102
RTVSPost2010Prop45
280
     0
102
RTVSPost2010PropOp45
 70
     1
102
RTVSPost2010Prop46
 90
       50
102
RTVSPost2010PropOp46
 70
     1
102
RTVSPost2010Prop47
 90
       50
102
RTVSPost2010PropOp47
 70
     1
102
RTVSPost2010Prop48
 90
       50
102
RTVSPost2010PropOp48
 70
     1
102
RTVSPost2010Prop49
280
     0
102
RTVSPost2010PropOp49
 70
     1
102
RTVSPost2010Prop50
 90
       50
102
RTVSPost2010PropOp50
 70
     1
102
RTVSPost2010Prop51ColorIndex
 90
      256
102
RTVSPost2010Prop51ColorRGB
 90
-16777216
102
RTVSPost2010PropOp51
 70
     0
102
RTVSPost2010Prop52
140
1.0
102
RTVSPost2010PropOp52
 70
     0
102
RTVSPost2010Prop53
 90
        2
102
RTVSPost2010PropOp53
 70
     1
102
RTVSPost2010Prop54
  1
strokes_ogs.tif
102
RTVSPost2010PropOp54
 70
     1
102
RTVSPost2010Prop55
280
     0
102
RTVSPost2010PropOp55
 70
     1
102
RTVSPost2010Prop56
140
1.0
102
RTVSPost2010PropOp56
 70
     1
102
RTVSPost2010Prop57
140
1.0
102
RTVSPost2010PropOp57
 70
     1
102
RTVSPropertyOp0
 70
     1
102
RTVSPropertyOp1
 70
     1
102
RTVSPropertyOp2
 70
     1
102
RTVSPropertyOp3
 70
     1
102
RTVSPropertyOp4
 70
     1
102
RTVSPropertyOp5
 70
     1
102
RTVSPropertyOp6
 70
     1
102
RTVSPropertyOp7
 70
     1
102
RTVSPropertyOp8
 70
     1
102
RTVSPropertyOp9
 70
     1
102
RTVSPropertyOp10
 70
     1
102
RTVSPropertyOp11
 70
     1
102
RTVSPropertyOp12
 70
     1
102
RTVSPropertyOp13
 70
     1
102
RTVSPropertyOp14
 70
     1
102
RTVSPropertyOp15
 70
     1
102
RTVSPropertyOp16
 70
     1
102
RTVSPropertyOp17
 70
     1
102
RTVSPropertyOp18
 70
     1
102
RTVSPropertyOp19
 70
     1
102
RTVSPropertyOp20
 70
     1
102
RTVSPropertyOp21
 70
     1
102
RTVSPropertyOp22
 70
     1
102
RTVSPropertyOp23
 70
     1
102
RTVSPropertyOp24
 70
     1
102
RTVSPropertyOp25
 70
     1
102
RTVSPropertyOp26
 70
     1
102
RTVSPropertyOp27
 70
     1
102
RTVSPropertyOp28
 70
     1
102
RTVSPropertyOp29
 70
     1
102
RTVSPropertyOp30
 70
     1
102
RTVSPropertyOp31
 70
     1
102
RTVSPropertyOp32
 70
     1
102
RTVSPropertyOp33
 70
     1
102
RTVSPropertyOp34
 70
     1
102
RTVSPropertyOp35
 70
     1
102
RTVSPropertyOp36
 70
     1
102
RTVSPropertyOp37
 70
     1
102
RTVSPropertyOp38
 70
     1
102
RTVSPropertyOp39
 70
     1
102
RTVSPropertyOp40
 70
     1
102
RTVSPropertyOp41
 70
     1
102
RTVSPropertyOp42
 70
     1
102
RTVSPropertyOp43
 70
     1
102
RTVSPropertyOp44
 70
     1
102
RTVSPropertyOp45
 70
     1
102
RTVSPropertyOp46
 70
     1
102
RTVSPropertyOp47
 70
     1
102
RTVSPropertyOp48
 70
     1
102
RTVSPropertyOp49
 70
     1
102
RTVSPropertyOp50
 70
     1
102
RTVSPropertyOp51
 70
     0
102
RTVSPropertyOp52
 70
     0
102
RTVSPropertyOp53
 70
     1
102
RTVSPropertyOp54
 70
     1
102
RTVSPropertyOp55
 70
     1
102
RTVSPropertyOp56
 70
     1
102
RTVSPropertyOp57
 70
     1
102
RTVSPropertyOp58
 70
     1
102
RTVSPropertyOp59
 70
     1
102
RTVSPropertyOp60
 70
     1
102
RTVSPropertyOp61
 70
     1
102
RTVSPropertyOp62
 70
     1
  0
XRECORD
  5
47DF
102
{ACAD_REACTORS
330
47DE
102
}
330
47DE
100
AcDbXrecord
280
     1
102
RTVSPost2010Prop28
280
     0
102
RTVSPost2010PropOp28
 70
     1
102
RTVSPost2010Prop29
280
     1
102
RTVSPost2010PropOp29
 70
     1
102
RTVSPost2010Prop30
280
     1
102
RTVSPost2010PropOp30
 70
     1
102
RTVSPost2010Prop31
280
     0
102
RTVSPost2010PropOp31
 70
     1
102
RTVSPost2010Prop32
280
     0
102
RTVSPost2010PropOp32
 70
     1
102
RTVSPost2010Prop33
280
     0
102
RTVSPost2010PropOp33
 70
     1
102
RTVSPost2010Prop34
280
     0
102
RTVSPost2010PropOp34
 70
     1
102
RTVSPost2010Prop35
280
     0
102
RTVSPost2010PropOp35
 70
     1
102
RTVSPost2010Prop36
280
     0
102
RTVSPost2010PropOp36
 70
     1
102
RTVSPost2010Prop37
 90
       50
102
RTVSPost2010PropOp37
 70
     1
102
RTVSPost2010Prop38
140
0.0
102
RTVSPost2010PropOp38
 70
     1
102
RTVSPost2010Prop39
140
1.0
102
RTVSPost2010PropOp39
 70
     1
102
RTVSPost2010Prop40
 90
        0
102
RTVSPost2010PropOp40
 70
     1
102
RTVSPost2010Prop41ColorIndex
 90
       18
102
RTVSPost2010Prop41ColorRGB
 90
        0
102
RTVSPost2010PropOp41
 70
     1
102
RTVSPost2010Prop42
 90
       50
102
RTVSPost2010PropOp42
 70
     1
102
RTVSPost2010Prop43
 90
        3
102
RTVSPost2010PropOp43
 70
     1
102
RTVSPost2010Prop44ColorIndex
 90
        5
102
RTVSPost2010Prop44ColorRGB
 90
      255
102
RTVSPost2010PropOp44
 70
     1
102
RTVSPost2010Prop45
280
     0
102
RTVSPost2010PropOp45
 70
     1
102
RTVSPost2010Prop46
 90
       50
102
RTVSPost2010PropOp46
 70
     1
102
RTVSPost2010Prop47
 90
       50
102
RTVSPost2010PropOp47
 70
     1
102
RTVSPost2010Prop48
 90
       50
102
RTVSPost2010PropOp48
 70
     1
102
RTVSPost2010Prop49
280
     0
102
RTVSPost2010PropOp49
 70
     1
102
RTVSPost2010Prop50
 90
       50
102
RTVSPost2010PropOp50
 70
     1
102
RTVSPost2010Prop51ColorIndex
 90
      256
102
RTVSPost2010Prop51ColorRGB
 90
-16777216
102
RTVSPost2010PropOp51
 70
     0
102
RTVSPost2010Prop52
140
1.0
102
RTVSPost2010PropOp52
 70
     0
102
RTVSPost2010Prop53
 90
        2
102
RTVSPost2010PropOp53
 70
     1
102
RTVSPost2010Prop54
  1
strokes_ogs.tif
102
RTVSPost2010PropOp54
 70
     1
102
RTVSPost2010Prop55
280
     0
102
RTVSPost2010PropOp55
 70
     1
102
RTVSPost2010Prop56
140
1.0
102
RTVSPost2010PropOp56
 70
     1
102
RTVSPost2010Prop57
140
1.0
102
RTVSPost2010PropOp57
 70
     1
102
RTVSPropertyOp0
 70
     1
102
RTVSPropertyOp1
 70
     1
102
RTVSPropertyOp2
 70
     1
102
RTVSPropertyOp3
 70
     1
102
RTVSPropertyOp4
 70
     1
102
RTVSPropertyOp5
 70
     1
102
RTVSPropertyOp6
 70
     1
102
RTVSPropertyOp7
 70
     1
102
RTVSPropertyOp8
 70
     1
102
RTVSPropertyOp9
 70
     1
102
RTVSPropertyOp10
 70
     1
102
RTVSPropertyOp11
 70
     1
102
RTVSPropertyOp12
 70
     1
102
RTVSPropertyOp13
 70
     1
102
RTVSPropertyOp14
 70
     1
102
RTVSPropertyOp15
 70
     1
102
RTVSPropertyOp16
 70
     1
102
RTVSPropertyOp17
 70
     1
102
RTVSPropertyOp18
 70
     1
102
RTVSPropertyOp19
 70
     1
102
RTVSPropertyOp20
 70
     1
102
RTVSPropertyOp21
 70
     1
102
RTVSPropertyOp22
 70
     1
102
RTVSPropertyOp23
 70
     1
102
RTVSPropertyOp24
 70
     1
102
RTVSPropertyOp25
 70
     1
102
RTVSPropertyOp26
 70
     1
102
RTVSPropertyOp27
 70
     1
102
RTVSPropertyOp28
 70
     1
102
RTVSPropertyOp29
 70
     1
102
RTVSPropertyOp30
 70
     1
102
RTVSPropertyOp31
 70
     1
102
RTVSPropertyOp32
 70
     1
102
RTVSPropertyOp33
 70
     1
102
RTVSPropertyOp34
 70
     1
102
RTVSPropertyOp35
 70
     1
102
RTVSPropertyOp36
 70
     1
102
RTVSPropertyOp37
 70
     1
102
RTVSPropertyOp38
 70
     1
102
RTVSPropertyOp39
 70
     1
102
RTVSPropertyOp40
 70
     1
102
RTVSPropertyOp41
 70
     1
102
RTVSPropertyOp42
 70
     1
102
RTVSPropertyOp43
 70
     1
102
RTVSPropertyOp44
 70
     1
102
RTVSPropertyOp45
 70
     1
102
RTVSPropertyOp46
 70
     1
102
RTVSPropertyOp47
 70
     1
102
RTVSPropertyOp48
 70
     1
102
RTVSPropertyOp49
 70
     1
102
RTVSPropertyOp50
 70
     1
102
RTVSPropertyOp51
 70
     0
102
RTVSPropertyOp52
 70
     0
102
RTVSPropertyOp53
 70
     1
102
RTVSPropertyOp54
 70
     1
102
RTVSPropertyOp55
 70
     1
102
RTVSPropertyOp56
 70
     1
102
RTVSPropertyOp57
 70
     1
102
RTVSPropertyOp58
 70
     1
102
RTVSPropertyOp59
 70
     1
102
RTVSPropertyOp60
 70
     1
102
RTVSPropertyOp61
 70
     1
102
RTVSPropertyOp62
 70
     1
  0
XRECORD
  5
47E1
102
{ACAD_REACTORS
330
47E0
102
}
330
47E0
100
AcDbXrecord
280
     1
102
RTVSPost2010Prop28
280
     0
102
RTVSPost2010PropOp28
 70
     1
102
RTVSPost2010Prop29
280
     1
102
RTVSPost2010PropOp29
 70
     1
102
RTVSPost2010Prop30
280
     1
102
RTVSPost2010PropOp30
 70
     1
102
RTVSPost2010Prop31
280
     0
102
RTVSPost2010PropOp31
 70
     1
102
RTVSPost2010Prop32
280
     0
102
RTVSPost2010PropOp32
 70
     1
102
RTVSPost2010Prop33
280
     0
102
RTVSPost2010PropOp33
 70
     1
102
RTVSPost2010Prop34
280
     0
102
RTVSPost2010PropOp34
 70
     1
102
RTVSPost2010Prop35
280
     0
102
RTVSPost2010PropOp35
 70
     1
102
RTVSPost2010Prop36
280
     0
102
RTVSPost2010PropOp36
 70
     1
102
RTVSPost2010Prop37
 90
       50
102
RTVSPost2010PropOp37
 70
     1
102
RTVSPost2010Prop38
140
0.0
102
RTVSPost2010PropOp38
 70
     1
102
RTVSPost2010Prop39
140
1.0
102
RTVSPost2010PropOp39
 70
     1
102
RTVSPost2010Prop40
 90
        0
102
RTVSPost2010PropOp40
 70
     1
102
RTVSPost2010Prop41ColorIndex
 90
       18
102
RTVSPost2010Prop41ColorRGB
 90
        0
102
RTVSPost2010PropOp41
 70
     1
102
RTVSPost2010Prop42
 90
       50
102
RTVSPost2010PropOp42
 70
     1
102
RTVSPost2010Prop43
 90
        3
102
RTVSPost2010PropOp43
 70
     1
102
RTVSPost2010Prop44ColorIndex
 90
        5
102
RTVSPost2010Prop44ColorRGB
 90
      255
102
RTVSPost2010PropOp44
 70
     1
102
RTVSPost2010Prop45
280
     0
102
RTVSPost2010PropOp45
 70
     1
102
RTVSPost2010Prop46
 90
       50
102
RTVSPost2010PropOp46
 70
     1
102
RTVSPost2010Prop47
 90
       50
102
RTVSPost2010PropOp47
 70
     1
102
RTVSPost2010Prop48
 90
       50
102
RTVSPost2010PropOp48
 70
     1
102
RTVSPost2010Prop49
280
     0
102
RTVSPost2010PropOp49
 70
     1
102
RTVSPost2010Prop50
 90
       50
102
RTVSPost2010PropOp50
 70
     1
102
RTVSPost2010Prop51ColorIndex
 90
      256
102
RTVSPost2010Prop51ColorRGB
 90
-16777216
102
RTVSPost2010PropOp51
 70
     0
102
RTVSPost2010Prop52
140
1.0
102
RTVSPost2010PropOp52
 70
     0
102
RTVSPost2010Prop53
 90
        2
102
RTVSPost2010PropOp53
 70
     1
102
RTVSPost2010Prop54
  1
strokes_ogs.tif
102
RTVSPost2010PropOp54
 70
     1
102
RTVSPost2010Prop55
280
     0
102
RTVSPost2010PropOp55
 70
     1
102
RTVSPost2010Prop56
140
1.0
102
RTVSPost2010PropOp56
 70
     1
102
RTVSPost2010Prop57
140
1.0
102
RTVSPost2010PropOp57
 70
     1
102
RTVSPropertyOp0
 70
     1
102
RTVSPropertyOp1
 70
     1
102
RTVSPropertyOp2
 70
     1
102
RTVSPropertyOp3
 70
     1
102
RTVSPropertyOp4
 70
     1
102
RTVSPropertyOp5
 70
     1
102
RTVSPropertyOp6
 70
     1
102
RTVSPropertyOp7
 70
     1
102
RTVSPropertyOp8
 70
     1
102
RTVSPropertyOp9
 70
     1
102
RTVSPropertyOp10
 70
     1
102
RTVSPropertyOp11
 70
     1
102
RTVSPropertyOp12
 70
     1
102
RTVSPropertyOp13
 70
     1
102
RTVSPropertyOp14
 70
     1
102
RTVSPropertyOp15
 70
     1
102
RTVSPropertyOp16
 70
     1
102
RTVSPropertyOp17
 70
     1
102
RTVSPropertyOp18
 70
     1
102
RTVSPropertyOp19
 70
     1
102
RTVSPropertyOp20
 70
     1
102
RTVSPropertyOp21
 70
     1
102
RTVSPropertyOp22
 70
     1
102
RTVSPropertyOp23
 70
     1
102
RTVSPropertyOp24
 70
     1
102
RTVSPropertyOp25
 70
     1
102
RTVSPropertyOp26
 70
     1
102
RTVSPropertyOp27
 70
     1
102
RTVSPropertyOp28
 70
     1
102
RTVSPropertyOp29
 70
     1
102
RTVSPropertyOp30
 70
     1
102
RTVSPropertyOp31
 70
     1
102
RTVSPropertyOp32
 70
     1
102
RTVSPropertyOp33
 70
     1
102
RTVSPropertyOp34
 70
     1
102
RTVSPropertyOp35
 70
     1
102
RTVSPropertyOp36
 70
     1
102
RTVSPropertyOp37
 70
     1
102
RTVSPropertyOp38
 70
     1
102
RTVSPropertyOp39
 70
     1
102
RTVSPropertyOp40
 70
     1
102
RTVSPropertyOp41
 70
     1
102
RTVSPropertyOp42
 70
     1
102
RTVSPropertyOp43
 70
     1
102
RTVSPropertyOp44
 70
     1
102
RTVSPropertyOp45
 70
     1
102
RTVSPropertyOp46
 70
     1
102
RTVSPropertyOp47
 70
     1
102
RTVSPropertyOp48
 70
     1
102
RTVSPropertyOp49
 70
     1
102
RTVSPropertyOp50
 70
     1
102
RTVSPropertyOp51
 70
     0
102
RTVSPropertyOp52
 70
     0
102
RTVSPropertyOp53
 70
     1
102
RTVSPropertyOp54
 70
     1
102
RTVSPropertyOp55
 70
     1
102
RTVSPropertyOp56
 70
     1
102
RTVSPropertyOp57
 70
     1
102
RTVSPropertyOp58
 70
     1
102
RTVSPropertyOp59
 70
     1
102
RTVSPropertyOp60
 70
     1
102
RTVSPropertyOp61
 70
     1
102
RTVSPropertyOp62
 70
     1
  0
XRECORD
  5
47E3
102
{ACAD_REACTORS
330
47E2
102
}
330
47E2
100
AcDbXrecord
280
     1
102
RTVSPost2010Prop28
280
     0
102
RTVSPost2010PropOp28
 70
     1
102
RTVSPost2010Prop29
280
     1
102
RTVSPost2010PropOp29
 70
     1
102
RTVSPost2010Prop30
280
     1
102
RTVSPost2010PropOp30
 70
     1
102
RTVSPost2010Prop31
280
     0
102
RTVSPost2010PropOp31
 70
     1
102
RTVSPost2010Prop32
280
     0
102
RTVSPost2010PropOp32
 70
     1
102
RTVSPost2010Prop33
280
     0
102
RTVSPost2010PropOp33
 70
     1
102
RTVSPost2010Prop34
280
     0
102
RTVSPost2010PropOp34
 70
     1
102
RTVSPost2010Prop35
280
     0
102
RTVSPost2010PropOp35
 70
     1
102
RTVSPost2010Prop36
280
     0
102
RTVSPost2010PropOp36
 70
     1
102
RTVSPost2010Prop37
 90
       50
102
RTVSPost2010PropOp37
 70
     1
102
RTVSPost2010Prop38
140
0.0
102
RTVSPost2010PropOp38
 70
     1
102
RTVSPost2010Prop39
140
1.0
102
RTVSPost2010PropOp39
 70
     1
102
RTVSPost2010Prop40
 90
        0
102
RTVSPost2010PropOp40
 70
     1
102
RTVSPost2010Prop41ColorIndex
 90
       18
102
RTVSPost2010Prop41ColorRGB
 90
        0
102
RTVSPost2010PropOp41
 70
     1
102
RTVSPost2010Prop42
 90
       50
102
RTVSPost2010PropOp42
 70
     1
102
RTVSPost2010Prop43
 90
        3
102
RTVSPost2010PropOp43
 70
     1
102
RTVSPost2010Prop44ColorIndex
 90
        5
102
RTVSPost2010Prop44ColorRGB
 90
      255
102
RTVSPost2010PropOp44
 70
     1
102
RTVSPost2010Prop45
280
     0
102
RTVSPost2010PropOp45
 70
     1
102
RTVSPost2010Prop46
 90
       50
102
RTVSPost2010PropOp46
 70
     1
102
RTVSPost2010Prop47
 90
       50
102
RTVSPost2010PropOp47
 70
     1
102
RTVSPost2010Prop48
 90
       50
102
RTVSPost2010PropOp48
 70
     1
102
RTVSPost2010Prop49
280
     0
102
RTVSPost2010PropOp49
 70
     1
102
RTVSPost2010Prop50
 90
       50
102
RTVSPost2010PropOp50
 70
     1
102
RTVSPost2010Prop51ColorIndex
 90
      256
102
RTVSPost2010Prop51ColorRGB
 90
-16777216
102
RTVSPost2010PropOp51
 70
     0
102
RTVSPost2010Prop52
140
1.0
102
RTVSPost2010PropOp52
 70
     0
102
RTVSPost2010Prop53
 90
        2
102
RTVSPost2010PropOp53
 70
     1
102
RTVSPost2010Prop54
  1
strokes_ogs.tif
102
RTVSPost2010PropOp54
 70
     1
102
RTVSPost2010Prop55
280
     0
102
RTVSPost2010PropOp55
 70
     1
102
RTVSPost2010Prop56
140
1.0
102
RTVSPost2010PropOp56
 70
     1
102
RTVSPost2010Prop57
140
1.0
102
RTVSPost2010PropOp57
 70
     1
102
RTVSPropertyOp0
 70
     1
102
RTVSPropertyOp1
 70
     1
102
RTVSPropertyOp2
 70
     1
102
RTVSPropertyOp3
 70
     1
102
RTVSPropertyOp4
 70
     1
102
RTVSPropertyOp5
 70
     1
102
RTVSPropertyOp6
 70
     1
102
RTVSPropertyOp7
 70
     1
102
RTVSPropertyOp8
 70
     1
102
RTVSPropertyOp9
 70
     1
102
RTVSPropertyOp10
 70
     1
102
RTVSPropertyOp11
 70
     1
102
RTVSPropertyOp12
 70
     1
102
RTVSPropertyOp13
 70
     1
102
RTVSPropertyOp14
 70
     1
102
RTVSPropertyOp15
 70
     1
102
RTVSPropertyOp16
 70
     1
102
RTVSPropertyOp17
 70
     1
102
RTVSPropertyOp18
 70
     1
102
RTVSPropertyOp19
 70
     1
102
RTVSPropertyOp20
 70
     1
102
RTVSPropertyOp21
 70
     1
102
RTVSPropertyOp22
 70
     1
102
RTVSPropertyOp23
 70
     1
102
RTVSPropertyOp24
 70
     1
102
RTVSPropertyOp25
 70
     1
102
RTVSPropertyOp26
 70
     1
102
RTVSPropertyOp27
 70
     1
102
RTVSPropertyOp28
 70
     1
102
RTVSPropertyOp29
 70
     1
102
RTVSPropertyOp30
 70
     1
102
RTVSPropertyOp31
 70
     1
102
RTVSPropertyOp32
 70
     1
102
RTVSPropertyOp33
 70
     1
102
RTVSPropertyOp34
 70
     1
102
RTVSPropertyOp35
 70
     1
102
RTVSPropertyOp36
 70
     1
102
RTVSPropertyOp37
 70
     1
102
RTVSPropertyOp38
 70
     1
102
RTVSPropertyOp39
 70
     1
102
RTVSPropertyOp40
 70
     1
102
RTVSPropertyOp41
 70
     1
102
RTVSPropertyOp42
 70
     1
102
RTVSPropertyOp43
 70
     1
102
RTVSPropertyOp44
 70
     1
102
RTVSPropertyOp45
 70
     1
102
RTVSPropertyOp46
 70
     1
102
RTVSPropertyOp47
 70
     1
102
RTVSPropertyOp48
 70
     1
102
RTVSPropertyOp49
 70
     1
102
RTVSPropertyOp50
 70
     1
102
RTVSPropertyOp51
 70
     0
102
RTVSPropertyOp52
 70
     0
102
RTVSPropertyOp53
 70
     1
102
RTVSPropertyOp54
 70
     1
102
RTVSPropertyOp55
 70
     1
102
RTVSPropertyOp56
 70
     1
102
RTVSPropertyOp57
 70
     1
102
RTVSPropertyOp58
 70
     1
102
RTVSPropertyOp59
 70
     1
102
RTVSPropertyOp60
 70
     1
102
RTVSPropertyOp61
 70
     1
102
RTVSPropertyOp62
 70
     1
  0
XRECORD
  5
47FF
102
{ACAD_REACTORS
330
47FE
102
}
330
47FE
100
AcDbXrecord
280
     1
102
RTVSPost2010Prop28
280
     0
102
RTVSPost2010PropOp28
 70
     1
102
RTVSPost2010Prop29
280
     1
102
RTVSPost2010PropOp29
 70
     1
102
RTVSPost2010Prop30
280
     1
102
RTVSPost2010PropOp30
 70
     1
102
RTVSPost2010Prop31
280
     0
102
RTVSPost2010PropOp31
 70
     1
102
RTVSPost2010Prop32
280
     0
102
RTVSPost2010PropOp32
 70
     1
102
RTVSPost2010Prop33
280
     0
102
RTVSPost2010PropOp33
 70
     1
102
RTVSPost2010Prop34
280
     0
102
RTVSPost2010PropOp34
 70
     1
102
RTVSPost2010Prop35
280
     0
102
RTVSPost2010PropOp35
 70
     1
102
RTVSPost2010Prop36
280
     0
102
RTVSPost2010PropOp36
 70
     1
102
RTVSPost2010Prop37
 90
       50
102
RTVSPost2010PropOp37
 70
     1
102
RTVSPost2010Prop38
140
0.0
102
RTVSPost2010PropOp38
 70
     1
102
RTVSPost2010Prop39
140
1.0
102
RTVSPost2010PropOp39
 70
     1
102
RTVSPost2010Prop40
 90
        0
102
RTVSPost2010PropOp40
 70
     1
102
RTVSPost2010Prop41ColorIndex
 90
       18
102
RTVSPost2010Prop41ColorRGB
 90
        0
102
RTVSPost2010PropOp41
 70
     1
102
RTVSPost2010Prop42
 90
       50
102
RTVSPost2010PropOp42
 70
     1
102
RTVSPost2010Prop43
 90
        3
102
RTVSPost2010PropOp43
 70
     1
102
RTVSPost2010Prop44ColorIndex
 90
        5
102
RTVSPost2010Prop44ColorRGB
 90
      255
102
RTVSPost2010PropOp44
 70
     1
102
RTVSPost2010Prop45
280
     0
102
RTVSPost2010PropOp45
 70
     1
102
RTVSPost2010Prop46
 90
       50
102
RTVSPost2010PropOp46
 70
     1
102
RTVSPost2010Prop47
 90
       50
102
RTVSPost2010PropOp47
 70
     1
102
RTVSPost2010Prop48
 90
       50
102
RTVSPost2010PropOp48
 70
     1
102
RTVSPost2010Prop49
280
     0
102
RTVSPost2010PropOp49
 70
     1
102
RTVSPost2010Prop50
 90
       50
102
RTVSPost2010PropOp50
 70
     1
102
RTVSPost2010Prop51ColorIndex
 90
      256
102
RTVSPost2010Prop51ColorRGB
 90
-16777216
102
RTVSPost2010PropOp51
 70
     0
102
RTVSPost2010Prop52
140
1.0
102
RTVSPost2010PropOp52
 70
     0
102
RTVSPost2010Prop53
 90
        2
102
RTVSPost2010PropOp53
 70
     1
102
RTVSPost2010Prop54
  1
strokes_ogs.tif
102
RTVSPost2010PropOp54
 70
     1
102
RTVSPost2010Prop55
280
     0
102
RTVSPost2010PropOp55
 70
     1
102
RTVSPost2010Prop56
140
1.0
102
RTVSPost2010PropOp56
 70
     1
102
RTVSPost2010Prop57
140
1.0
102
RTVSPost2010PropOp57
 70
     1
102
RTVSPropertyOp0
 70
     1
102
RTVSPropertyOp1
 70
     1
102
RTVSPropertyOp2
 70
     1
102
RTVSPropertyOp3
 70
     1
102
RTVSPropertyOp4
 70
     1
102
RTVSPropertyOp5
 70
     1
102
RTVSPropertyOp6
 70
     1
102
RTVSPropertyOp7
 70
     1
102
RTVSPropertyOp8
 70
     1
102
RTVSPropertyOp9
 70
     1
102
RTVSPropertyOp10
 70
     1
102
RTVSPropertyOp11
 70
     1
102
RTVSPropertyOp12
 70
     1
102
RTVSPropertyOp13
 70
     1
102
RTVSPropertyOp14
 70
     1
102
RTVSPropertyOp15
 70
     1
102
RTVSPropertyOp16
 70
     1
102
RTVSPropertyOp17
 70
     1
102
RTVSPropertyOp18
 70
     1
102
RTVSPropertyOp19
 70
     1
102
RTVSPropertyOp20
 70
     1
102
RTVSPropertyOp21
 70
     1
102
RTVSPropertyOp22
 70
     1
102
RTVSPropertyOp23
 70
     1
102
RTVSPropertyOp24
 70
     1
102
RTVSPropertyOp25
 70
     1
102
RTVSPropertyOp26
 70
     1
102
RTVSPropertyOp27
 70
     1
102
RTVSPropertyOp28
 70
     1
102
RTVSPropertyOp29
 70
     1
102
RTVSPropertyOp30
 70
     1
102
RTVSPropertyOp31
 70
     1
102
RTVSPropertyOp32
 70
     1
102
RTVSPropertyOp33
 70
     1
102
RTVSPropertyOp34
 70
     1
102
RTVSPropertyOp35
 70
     1
102
RTVSPropertyOp36
 70
     1
102
RTVSPropertyOp37
 70
     1
102
RTVSPropertyOp38
 70
     1
102
RTVSPropertyOp39
 70
     1
102
RTVSPropertyOp40
 70
     1
102
RTVSPropertyOp41
 70
     1
102
RTVSPropertyOp42
 70
     1
102
RTVSPropertyOp43
 70
     1
102
RTVSPropertyOp44
 70
     1
102
RTVSPropertyOp45
 70
     1
102
RTVSPropertyOp46
 70
     1
102
RTVSPropertyOp47
 70
     1
102
RTVSPropertyOp48
 70
     1
102
RTVSPropertyOp49
 70
     1
102
RTVSPropertyOp50
 70
     1
102
RTVSPropertyOp51
 70
     0
102
RTVSPropertyOp52
 70
     0
102
RTVSPropertyOp53
 70
     1
102
RTVSPropertyOp54
 70
     1
102
RTVSPropertyOp55
 70
     1
102
RTVSPropertyOp56
 70
     1
102
RTVSPropertyOp57
 70
     1
102
RTVSPropertyOp58
 70
     1
102
RTVSPropertyOp59
 70
     1
102
RTVSPropertyOp60
 70
     1
102
RTVSPropertyOp61
 70
     1
102
RTVSPropertyOp62
 70
     1
  0
XRECORD
  5
480B
102
{ACAD_REACTORS
330
480A
102
}
330
480A
100
AcDbXrecord
280
     1
102
RTVSPost2010Prop28
280
     0
102
RTVSPost2010PropOp28
 70
     1
102
RTVSPost2010Prop29
280
     1
102
RTVSPost2010PropOp29
 70
     1
102
RTVSPost2010Prop30
280
     1
102
RTVSPost2010PropOp30
 70
     1
102
RTVSPost2010Prop31
280
     0
102
RTVSPost2010PropOp31
 70
     1
102
RTVSPost2010Prop32
280
     0
102
RTVSPost2010PropOp32
 70
     1
102
RTVSPost2010Prop33
280
     0
102
RTVSPost2010PropOp33
 70
     1
102
RTVSPost2010Prop34
280
     0
102
RTVSPost2010PropOp34
 70
     1
102
RTVSPost2010Prop35
280
     0
102
RTVSPost2010PropOp35
 70
     1
102
RTVSPost2010Prop36
280
     0
102
RTVSPost2010PropOp36
 70
     1
102
RTVSPost2010Prop37
 90
       50
102
RTVSPost2010PropOp37
 70
     0
102
RTVSPost2010Prop38
140
0.0
102
RTVSPost2010PropOp38
 70
     0
102
RTVSPost2010Prop39
140
1.0
102
RTVSPost2010PropOp39
 70
     0
102
RTVSPost2010Prop40
 90
        0
102
RTVSPost2010PropOp40
 70
     0
102
RTVSPost2010Prop41ColorIndex
 90
       18
102
RTVSPost2010Prop41ColorRGB
 90
        0
102
RTVSPost2010PropOp41
 70
     0
102
RTVSPost2010Prop42
 90
       50
102
RTVSPost2010PropOp42
 70
     0
102
RTVSPost2010Prop43
 90
        3
102
RTVSPost2010PropOp43
 70
     0
102
RTVSPost2010Prop44ColorIndex
 90
        5
102
RTVSPost2010Prop44ColorRGB
 90
      255
102
RTVSPost2010PropOp44
 70
     0
102
RTVSPost2010Prop45
280
     0
102
RTVSPost2010PropOp45
 70
     1
102
RTVSPost2010Prop46
 90
       50
102
RTVSPost2010PropOp46
 70
     0
102
RTVSPost2010Prop47
 90
       50
102
RTVSPost2010PropOp47
 70
     0
102
RTVSPost2010Prop48
 90
       50
102
RTVSPost2010PropOp48
 70
     0
102
RTVSPost2010Prop49
280
     0
102
RTVSPost2010PropOp49
 70
     1
102
RTVSPost2010Prop50
 90
       50
102
RTVSPost2010PropOp50
 70
     0
102
RTVSPost2010Prop51ColorIndex
 90
      256
102
RTVSPost2010Prop51ColorRGB
 90
-16777216
102
RTVSPost2010PropOp51
 70
     0
102
RTVSPost2010Prop52
140
1.0
102
RTVSPost2010PropOp52
 70
     0
102
RTVSPost2010Prop53
 90
        2
102
RTVSPost2010PropOp53
 70
     0
102
RTVSPost2010Prop54
  1
strokes_ogs.tif
102
RTVSPost2010PropOp54
 70
     0
102
RTVSPost2010Prop55
280
     0
102
RTVSPost2010PropOp55
 70
     1
102
RTVSPost2010Prop56
140
1.0
102
RTVSPost2010PropOp56
 70
     0
102
RTVSPost2010Prop57
140
1.0
102
RTVSPost2010PropOp57
 70
     0
102
RTVSPropertyOp0
 70
     0
102
RTVSPropertyOp1
 70
     0
102
RTVSPropertyOp2
 70
     0
102
RTVSPropertyOp3
 70
     0
102
RTVSPropertyOp4
 70
     0
102
RTVSPropertyOp5
 70
     0
102
RTVSPropertyOp6
 70
     0
102
RTVSPropertyOp7
 70
     0
102
RTVSPropertyOp8
 70
     0
102
RTVSPropertyOp9
 70
     0
102
RTVSPropertyOp10
 70
     0
102
RTVSPropertyOp11
 70
     0
102
RTVSPropertyOp12
 70
     0
102
RTVSPropertyOp13
 70
     0
102
RTVSPropertyOp14
 70
     2
102
RTVSPropertyOp15
 70
     0
102
RTVSPropertyOp16
 70
     0
102
RTVSPropertyOp17
 70
     0
102
RTVSPropertyOp18
 70
     0
102
RTVSPropertyOp19
 70
     0
102
RTVSPropertyOp20
 70
     0
102
RTVSPropertyOp21
 70
     0
102
RTVSPropertyOp22
 70
     0
102
RTVSPropertyOp23
 70
     0
102
RTVSPropertyOp24
 70
     0
102
RTVSPropertyOp25
 70
     0
102
RTVSPropertyOp26
 70
     0
102
RTVSPropertyOp27
 70
     0
102
RTVSPropertyOp28
 70
     1
102
RTVSPropertyOp29
 70
     1
102
RTVSPropertyOp30
 70
     1
102
RTVSPropertyOp31
 70
     1
102
RTVSPropertyOp32
 70
     1
102
RTVSPropertyOp33
 70
     1
102
RTVSPropertyOp34
 70
     1
102
RTVSPropertyOp35
 70
     1
102
RTVSPropertyOp36
 70
     1
102
RTVSPropertyOp37
 70
     0
102
RTVSPropertyOp38
 70
     0
102
RTVSPropertyOp39
 70
     0
102
RTVSPropertyOp40
 70
     0
102
RTVSPropertyOp41
 70
     0
102
RTVSPropertyOp42
 70
     0
102
RTVSPropertyOp43
 70
     0
102
RTVSPropertyOp44
 70
     0
102
RTVSPropertyOp45
 70
     1
102
RTVSPropertyOp46
 70
     0
102
RTVSPropertyOp47
 70
     0
102
RTVSPropertyOp48
 70
     0
102
RTVSPropertyOp49
 70
     1
102
RTVSPropertyOp50
 70
     0
102
RTVSPropertyOp51
 70
     0
102
RTVSPropertyOp52
 70
     0
102
RTVSPropertyOp53
 70
     0
102
RTVSPropertyOp54
 70
     0
102
RTVSPropertyOp55
 70
     1
102
RTVSPropertyOp56
 70
     0
102
RTVSPropertyOp57
 70
     0
102
RTVSPropertyOp58
 70
     1
102
RTVSPropertyOp59
 70
     1
102
RTVSPropertyOp60
 70
     1
102
RTVSPropertyOp61
 70
     1
102
RTVSPropertyOp62
 70
     1
  0
XRECORD
  5
47F7
102
{ACAD_REACTORS
330
47F6
102
}
330
47F6
100
AcDbXrecord
280
     1
102
RTVSPost2010Prop28
280
     0
102
RTVSPost2010PropOp28
 70
     1
102
RTVSPost2010Prop29
280
     1
102
RTVSPost2010PropOp29
 70
     1
102
RTVSPost2010Prop30
280
     1
102
RTVSPost2010PropOp30
 70
     1
102
RTVSPost2010Prop31
280
     0
102
RTVSPost2010PropOp31
 70
     1
102
RTVSPost2010Prop32
280
     0
102
RTVSPost2010PropOp32
 70
     1
102
RTVSPost2010Prop33
280
     0
102
RTVSPost2010PropOp33
 70
     1
102
RTVSPost2010Prop34
280
     0
102
RTVSPost2010PropOp34
 70
     1
102
RTVSPost2010Prop35
280
     0
102
RTVSPost2010PropOp35
 70
     1
102
RTVSPost2010Prop36
280
     0
102
RTVSPost2010PropOp36
 70
     1
102
RTVSPost2010Prop37
 90
       50
102
RTVSPost2010PropOp37
 70
     1
102
RTVSPost2010Prop38
140
0.0
102
RTVSPost2010PropOp38
 70
     1
102
RTVSPost2010Prop39
140
1.0
102
RTVSPost2010PropOp39
 70
     1
102
RTVSPost2010Prop40
 90
        0
102
RTVSPost2010PropOp40
 70
     1
102
RTVSPost2010Prop41ColorIndex
 90
       18
102
RTVSPost2010Prop41ColorRGB
 90
        0
102
RTVSPost2010PropOp41
 70
     1
102
RTVSPost2010Prop42
 90
       50
102
RTVSPost2010PropOp42
 70
     1
102
RTVSPost2010Prop43
 90
        3
102
RTVSPost2010PropOp43
 70
     1
102
RTVSPost2010Prop44ColorIndex
 90
        5
102
RTVSPost2010Prop44ColorRGB
 90
      255
102
RTVSPost2010PropOp44
 70
     1
102
RTVSPost2010Prop45
280
     0
102
RTVSPost2010PropOp45
 70
     1
102
RTVSPost2010Prop46
 90
       50
102
RTVSPost2010PropOp46
 70
     1
102
RTVSPost2010Prop47
 90
       50
102
RTVSPost2010PropOp47
 70
     1
102
RTVSPost2010Prop48
 90
       50
102
RTVSPost2010PropOp48
 70
     1
102
RTVSPost2010Prop49
280
     0
102
RTVSPost2010PropOp49
 70
     1
102
RTVSPost2010Prop50
 90
       50
102
RTVSPost2010PropOp50
 70
     1
102
RTVSPost2010Prop51ColorIndex
 90
      256
102
RTVSPost2010Prop51ColorRGB
 90
-16777216
102
RTVSPost2010PropOp51
 70
     0
102
RTVSPost2010Prop52
140
1.0
102
RTVSPost2010PropOp52
 70
     0
102
RTVSPost2010Prop53
 90
        2
102
RTVSPost2010PropOp53
 70
     1
102
RTVSPost2010Prop54
  1
strokes_ogs.tif
102
RTVSPost2010PropOp54
 70
     1
102
RTVSPost2010Prop55
280
     0
102
RTVSPost2010PropOp55
 70
     1
102
RTVSPost2010Prop56
140
1.0
102
RTVSPost2010PropOp56
 70
     1
102
RTVSPost2010Prop57
140
1.0
102
RTVSPost2010PropOp57
 70
     1
102
RTVSPropertyOp0
 70
     1
102
RTVSPropertyOp1
 70
     1
102
RTVSPropertyOp2
 70
     1
102
RTVSPropertyOp3
 70
     1
102
RTVSPropertyOp4
 70
     1
102
RTVSPropertyOp5
 70
     1
102
RTVSPropertyOp6
 70
     1
102
RTVSPropertyOp7
 70
     1
102
RTVSPropertyOp8
 70
     1
102
RTVSPropertyOp9
 70
     1
102
RTVSPropertyOp10
 70
     1
102
RTVSPropertyOp11
 70
     1
102
RTVSPropertyOp12
 70
     1
102
RTVSPropertyOp13
 70
     1
102
RTVSPropertyOp14
 70
     1
102
RTVSPropertyOp15
 70
     1
102
RTVSPropertyOp16
 70
     1
102
RTVSPropertyOp17
 70
     1
102
RTVSPropertyOp18
 70
     1
102
RTVSPropertyOp19
 70
     1
102
RTVSPropertyOp20
 70
     1
102
RTVSPropertyOp21
 70
     1
102
RTVSPropertyOp22
 70
     1
102
RTVSPropertyOp23
 70
     1
102
RTVSPropertyOp24
 70
     1
102
RTVSPropertyOp25
 70
     1
102
RTVSPropertyOp26
 70
     1
102
RTVSPropertyOp27
 70
     1
102
RTVSPropertyOp28
 70
     1
102
RTVSPropertyOp29
 70
     1
102
RTVSPropertyOp30
 70
     1
102
RTVSPropertyOp31
 70
     1
102
RTVSPropertyOp32
 70
     1
102
RTVSPropertyOp33
 70
     1
102
RTVSPropertyOp34
 70
     1
102
RTVSPropertyOp35
 70
     1
102
RTVSPropertyOp36
 70
     1
102
RTVSPropertyOp37
 70
     1
102
RTVSPropertyOp38
 70
     1
102
RTVSPropertyOp39
 70
     1
102
RTVSPropertyOp40
 70
     1
102
RTVSPropertyOp41
 70
     1
102
RTVSPropertyOp42
 70
     1
102
RTVSPropertyOp43
 70
     1
102
RTVSPropertyOp44
 70
     1
102
RTVSPropertyOp45
 70
     1
102
RTVSPropertyOp46
 70
     1
102
RTVSPropertyOp47
 70
     1
102
RTVSPropertyOp48
 70
     1
102
RTVSPropertyOp49
 70
     1
102
RTVSPropertyOp50
 70
     1
102
RTVSPropertyOp51
 70
     0
102
RTVSPropertyOp52
 70
     0
102
RTVSPropertyOp53
 70
     1
102
RTVSPropertyOp54
 70
     1
102
RTVSPropertyOp55
 70
     1
102
RTVSPropertyOp56
 70
     1
102
RTVSPropertyOp57
 70
     1
102
RTVSPropertyOp58
 70
     1
102
RTVSPropertyOp59
 70
     1
102
RTVSPropertyOp60
 70
     1
102
RTVSPropertyOp61
 70
     1
102
RTVSPropertyOp62
 70
     1
  0
XRECORD
  5
480D
102
{ACAD_REACTORS
330
480C
102
}
330
480C
100
AcDbXrecord
280
     1
102
RTVSPost2010Prop28
280
     0
102
RTVSPost2010PropOp28
 70
     1
102
RTVSPost2010Prop29
280
     1
102
RTVSPost2010PropOp29
 70
     1
102
RTVSPost2010Prop30
280
     1
102
RTVSPost2010PropOp30
 70
     1
102
RTVSPost2010Prop31
280
     0
102
RTVSPost2010PropOp31
 70
     1
102
RTVSPost2010Prop32
280
     0
102
RTVSPost2010PropOp32
 70
     1
102
RTVSPost2010Prop33
280
     0
102
RTVSPost2010PropOp33
 70
     1
102
RTVSPost2010Prop34
280
     0
102
RTVSPost2010PropOp34
 70
     1
102
RTVSPost2010Prop35
280
     0
102
RTVSPost2010PropOp35
 70
     1
102
RTVSPost2010Prop36
280
     0
102
RTVSPost2010PropOp36
 70
     1
102
RTVSPost2010Prop37
 90
       50
102
RTVSPost2010PropOp37
 70
     0
102
RTVSPost2010Prop38
140
0.0
102
RTVSPost2010PropOp38
 70
     0
102
RTVSPost2010Prop39
140
1.0
102
RTVSPost2010PropOp39
 70
     0
102
RTVSPost2010Prop40
 90
        0
102
RTVSPost2010PropOp40
 70
     0
102
RTVSPost2010Prop41ColorIndex
 90
       18
102
RTVSPost2010Prop41ColorRGB
 90
        0
102
RTVSPost2010PropOp41
 70
     0
102
RTVSPost2010Prop42
 90
       50
102
RTVSPost2010PropOp42
 70
     0
102
RTVSPost2010Prop43
 90
        3
102
RTVSPost2010PropOp43
 70
     0
102
RTVSPost2010Prop44ColorIndex
 90
        5
102
RTVSPost2010Prop44ColorRGB
 90
      255
102
RTVSPost2010PropOp44
 70
     0
102
RTVSPost2010Prop45
280
     0
102
RTVSPost2010PropOp45
 70
     1
102
RTVSPost2010Prop46
 90
       50
102
RTVSPost2010PropOp46
 70
     0
102
RTVSPost2010Prop47
 90
       50
102
RTVSPost2010PropOp47
 70
     0
102
RTVSPost2010Prop48
 90
       50
102
RTVSPost2010PropOp48
 70
     0
102
RTVSPost2010Prop49
280
     0
102
RTVSPost2010PropOp49
 70
     1
102
RTVSPost2010Prop50
 90
       50
102
RTVSPost2010PropOp50
 70
     0
102
RTVSPost2010Prop51ColorIndex
 90
      256
102
RTVSPost2010Prop51ColorRGB
 90
-16777216
102
RTVSPost2010PropOp51
 70
     0
102
RTVSPost2010Prop52
140
1.0
102
RTVSPost2010PropOp52
 70
     0
102
RTVSPost2010Prop53
 90
        2
102
RTVSPost2010PropOp53
 70
     0
102
RTVSPost2010Prop54
  1
strokes_ogs.tif
102
RTVSPost2010PropOp54
 70
     0
102
RTVSPost2010Prop55
280
     0
102
RTVSPost2010PropOp55
 70
     1
102
RTVSPost2010Prop56
140
1.0
102
RTVSPost2010PropOp56
 70
     0
102
RTVSPost2010Prop57
140
1.0
102
RTVSPost2010PropOp57
 70
     0
102
RTVSPropertyOp0
 70
     0
102
RTVSPropertyOp1
 70
     0
102
RTVSPropertyOp2
 70
     0
102
RTVSPropertyOp3
 70
     0
102
RTVSPropertyOp4
 70
     0
102
RTVSPropertyOp5
 70
     0
102
RTVSPropertyOp6
 70
     0
102
RTVSPropertyOp7
 70
     0
102
RTVSPropertyOp8
 70
     0
102
RTVSPropertyOp9
 70
     0
102
RTVSPropertyOp10
 70
     0
102
RTVSPropertyOp11
 70
     0
102
RTVSPropertyOp12
 70
     0
102
RTVSPropertyOp13
 70
     0
102
RTVSPropertyOp14
 70
     2
102
RTVSPropertyOp15
 70
     0
102
RTVSPropertyOp16
 70
     0
102
RTVSPropertyOp17
 70
     0
102
RTVSPropertyOp18
 70
     0
102
RTVSPropertyOp19
 70
     0
102
RTVSPropertyOp20
 70
     0
102
RTVSPropertyOp21
 70
     0
102
RTVSPropertyOp22
 70
     0
102
RTVSPropertyOp23
 70
     0
102
RTVSPropertyOp24
 70
     0
102
RTVSPropertyOp25
 70
     0
102
RTVSPropertyOp26
 70
     0
102
RTVSPropertyOp27
 70
     0
102
RTVSPropertyOp28
 70
     1
102
RTVSPropertyOp29
 70
     1
102
RTVSPropertyOp30
 70
     1
102
RTVSPropertyOp31
 70
     1
102
RTVSPropertyOp32
 70
     1
102
RTVSPropertyOp33
 70
     1
102
RTVSPropertyOp34
 70
     1
102
RTVSPropertyOp35
 70
     1
102
RTVSPropertyOp36
 70
     1
102
RTVSPropertyOp37
 70
     0
102
RTVSPropertyOp38
 70
     0
102
RTVSPropertyOp39
 70
     0
102
RTVSPropertyOp40
 70
     0
102
RTVSPropertyOp41
 70
     0
102
RTVSPropertyOp42
 70
     0
102
RTVSPropertyOp43
 70
     0
102
RTVSPropertyOp44
 70
     0
102
RTVSPropertyOp45
 70
     1
102
RTVSPropertyOp46
 70
     0
102
RTVSPropertyOp47
 70
     0
102
RTVSPropertyOp48
 70
     0
102
RTVSPropertyOp49
 70
     1
102
RTVSPropertyOp50
 70
     0
102
RTVSPropertyOp51
 70
     0
102
RTVSPropertyOp52
 70
     0
102
RTVSPropertyOp53
 70
     0
102
RTVSPropertyOp54
 70
     0
102
RTVSPropertyOp55
 70
     1
102
RTVSPropertyOp56
 70
     0
102
RTVSPropertyOp57
 70
     0
102
RTVSPropertyOp58
 70
     1
102
RTVSPropertyOp59
 70
     1
102
RTVSPropertyOp60
 70
     1
102
RTVSPropertyOp61
 70
     1
102
RTVSPropertyOp62
 70
     1
  0
XRECORD
  5
47EF
102
{ACAD_REACTORS
330
47EE
102
}
330
47EE
100
AcDbXrecord
280
     1
102
RTVSPost2010Prop28
280
     0
102
RTVSPost2010PropOp28
 70
     1
102
RTVSPost2010Prop29
280
     1
102
RTVSPost2010PropOp29
 70
     1
102
RTVSPost2010Prop30
280
     1
102
RTVSPost2010PropOp30
 70
     1
102
RTVSPost2010Prop31
280
     0
102
RTVSPost2010PropOp31
 70
     1
102
RTVSPost2010Prop32
280
     0
102
RTVSPost2010PropOp32
 70
     1
102
RTVSPost2010Prop33
280
     0
102
RTVSPost2010PropOp33
 70
     1
102
RTVSPost2010Prop34
280
     0
102
RTVSPost2010PropOp34
 70
     1
102
RTVSPost2010Prop35
280
     0
102
RTVSPost2010PropOp35
 70
     1
102
RTVSPost2010Prop36
280
     0
102
RTVSPost2010PropOp36
 70
     1
102
RTVSPost2010Prop37
 90
       50
102
RTVSPost2010PropOp37
 70
     1
102
RTVSPost2010Prop38
140
0.0
102
RTVSPost2010PropOp38
 70
     1
102
RTVSPost2010Prop39
140
1.0
102
RTVSPost2010PropOp39
 70
     1
102
RTVSPost2010Prop40
 90
        0
102
RTVSPost2010PropOp40
 70
     1
102
RTVSPost2010Prop41ColorIndex
 90
       18
102
RTVSPost2010Prop41ColorRGB
 90
        0
102
RTVSPost2010PropOp41
 70
     1
102
RTVSPost2010Prop42
 90
       50
102
RTVSPost2010PropOp42
 70
     1
102
RTVSPost2010Prop43
 90
        3
102
RTVSPost2010PropOp43
 70
     1
102
RTVSPost2010Prop44ColorIndex
 90
        5
102
RTVSPost2010Prop44ColorRGB
 90
      255
102
RTVSPost2010PropOp44
 70
     1
102
RTVSPost2010Prop45
280
     0
102
RTVSPost2010PropOp45
 70
     1
102
RTVSPost2010Prop46
 90
       50
102
RTVSPost2010PropOp46
 70
     1
102
RTVSPost2010Prop47
 90
       50
102
RTVSPost2010PropOp47
 70
     1
102
RTVSPost2010Prop48
 90
       50
102
RTVSPost2010PropOp48
 70
     1
102
RTVSPost2010Prop49
280
     0
102
RTVSPost2010PropOp49
 70
     1
102
RTVSPost2010Prop50
 90
       50
102
RTVSPost2010PropOp50
 70
     1
102
RTVSPost2010Prop51ColorIndex
 90
      256
102
RTVSPost2010Prop51ColorRGB
 90
-16777216
102
RTVSPost2010PropOp51
 70
     0
102
RTVSPost2010Prop52
140
1.0
102
RTVSPost2010PropOp52
 70
     0
102
RTVSPost2010Prop53
 90
        2
102
RTVSPost2010PropOp53
 70
     1
102
RTVSPost2010Prop54
  1
strokes_ogs.tif
102
RTVSPost2010PropOp54
 70
     1
102
RTVSPost2010Prop55
280
     0
102
RTVSPost2010PropOp55
 70
     1
102
RTVSPost2010Prop56
140
1.0
102
RTVSPost2010PropOp56
 70
     1
102
RTVSPost2010Prop57
140
1.0
102
RTVSPost2010PropOp57
 70
     1
102
RTVSPropertyOp0
 70
     1
102
RTVSPropertyOp1
 70
     1
102
RTVSPropertyOp2
 70
     1
102
RTVSPropertyOp3
 70
     1
102
RTVSPropertyOp4
 70
     1
102
RTVSPropertyOp5
 70
     1
102
RTVSPropertyOp6
 70
     1
102
RTVSPropertyOp7
 70
     1
102
RTVSPropertyOp8
 70
     1
102
RTVSPropertyOp9
 70
     1
102
RTVSPropertyOp10
 70
     1
102
RTVSPropertyOp11
 70
     1
102
RTVSPropertyOp12
 70
     1
102
RTVSPropertyOp13
 70
     1
102
RTVSPropertyOp14
 70
     1
102
RTVSPropertyOp15
 70
     1
102
RTVSPropertyOp16
 70
     1
102
RTVSPropertyOp17
 70
     1
102
RTVSPropertyOp18
 70
     1
102
RTVSPropertyOp19
 70
     1
102
RTVSPropertyOp20
 70
     1
102
RTVSPropertyOp21
 70
     1
102
RTVSPropertyOp22
 70
     1
102
RTVSPropertyOp23
 70
     1
102
RTVSPropertyOp24
 70
     1
102
RTVSPropertyOp25
 70
     1
102
RTVSPropertyOp26
 70
     1
102
RTVSPropertyOp27
 70
     1
102
RTVSPropertyOp28
 70
     1
102
RTVSPropertyOp29
 70
     1
102
RTVSPropertyOp30
 70
     1
102
RTVSPropertyOp31
 70
     1
102
RTVSPropertyOp32
 70
     1
102
RTVSPropertyOp33
 70
     1
102
RTVSPropertyOp34
 70
     1
102
RTVSPropertyOp35
 70
     1
102
RTVSPropertyOp36
 70
     1
102
RTVSPropertyOp37
 70
     1
102
RTVSPropertyOp38
 70
     1
102
RTVSPropertyOp39
 70
     1
102
RTVSPropertyOp40
 70
     1
102
RTVSPropertyOp41
 70
     1
102
RTVSPropertyOp42
 70
     1
102
RTVSPropertyOp43
 70
     1
102
RTVSPropertyOp44
 70
     1
102
RTVSPropertyOp45
 70
     1
102
RTVSPropertyOp46
 70
     1
102
RTVSPropertyOp47
 70
     1
102
RTVSPropertyOp48
 70
     1
102
RTVSPropertyOp49
 70
     1
102
RTVSPropertyOp50
 70
     1
102
RTVSPropertyOp51
 70
     0
102
RTVSPropertyOp52
 70
     0
102
RTVSPropertyOp53
 70
     1
102
RTVSPropertyOp54
 70
     1
102
RTVSPropertyOp55
 70
     1
102
RTVSPropertyOp56
 70
     1
102
RTVSPropertyOp57
 70
     1
102
RTVSPropertyOp58
 70
     1
102
RTVSPropertyOp59
 70
     1
102
RTVSPropertyOp60
 70
     1
102
RTVSPropertyOp61
 70
     1
102
RTVSPropertyOp62
 70
     1
  0
XRECORD
  5
4809
102
{ACAD_REACTORS
330
4808
102
}
330
4808
100
AcDbXrecord
280
     1
102
RTVSPost2010Prop28
280
     0
102
RTVSPost2010PropOp28
 70
     1
102
RTVSPost2010Prop29
280
     1
102
RTVSPost2010PropOp29
 70
     1
102
RTVSPost2010Prop30
280
     1
102
RTVSPost2010PropOp30
 70
     1
102
RTVSPost2010Prop31
280
     0
102
RTVSPost2010PropOp31
 70
     1
102
RTVSPost2010Prop32
280
     0
102
RTVSPost2010PropOp32
 70
     1
102
RTVSPost2010Prop33
280
     0
102
RTVSPost2010PropOp33
 70
     1
102
RTVSPost2010Prop34
280
     0
102
RTVSPost2010PropOp34
 70
     1
102
RTVSPost2010Prop35
280
     0
102
RTVSPost2010PropOp35
 70
     1
102
RTVSPost2010Prop36
280
     0
102
RTVSPost2010PropOp36
 70
     1
102
RTVSPost2010Prop37
 90
       50
102
RTVSPost2010PropOp37
 70
     1
102
RTVSPost2010Prop38
140
0.0
102
RTVSPost2010PropOp38
 70
     1
102
RTVSPost2010Prop39
140
1.0
102
RTVSPost2010PropOp39
 70
     1
102
RTVSPost2010Prop40
 90
        0
102
RTVSPost2010PropOp40
 70
     1
102
RTVSPost2010Prop41ColorIndex
 90
       18
102
RTVSPost2010Prop41ColorRGB
 90
        0
102
RTVSPost2010PropOp41
 70
     1
102
RTVSPost2010Prop42
 90
       50
102
RTVSPost2010PropOp42
 70
     1
102
RTVSPost2010Prop43
 90
        3
102
RTVSPost2010PropOp43
 70
     1
102
RTVSPost2010Prop44ColorIndex
 90
        5
102
RTVSPost2010Prop44ColorRGB
 90
      255
102
RTVSPost2010PropOp44
 70
     1
102
RTVSPost2010Prop45
280
     0
102
RTVSPost2010PropOp45
 70
     1
102
RTVSPost2010Prop46
 90
       50
102
RTVSPost2010PropOp46
 70
     1
102
RTVSPost2010Prop47
 90
       50
102
RTVSPost2010PropOp47
 70
     1
102
RTVSPost2010Prop48
 90
       50
102
RTVSPost2010PropOp48
 70
     1
102
RTVSPost2010Prop49
280
     0
102
RTVSPost2010PropOp49
 70
     1
102
RTVSPost2010Prop50
 90
       50
102
RTVSPost2010PropOp50
 70
     1
102
RTVSPost2010Prop51ColorIndex
 90
      256
102
RTVSPost2010Prop51ColorRGB
 90
-16777216
102
RTVSPost2010PropOp51
 70
     0
102
RTVSPost2010Prop52
140
1.0
102
RTVSPost2010PropOp52
 70
     0
102
RTVSPost2010Prop53
 90
        2
102
RTVSPost2010PropOp53
 70
     1
102
RTVSPost2010Prop54
  1
strokes_ogs.tif
102
RTVSPost2010PropOp54
 70
     1
102
RTVSPost2010Prop55
280
     0
102
RTVSPost2010PropOp55
 70
     1
102
RTVSPost2010Prop56
140
1.0
102
RTVSPost2010PropOp56
 70
     1
102
RTVSPost2010Prop57
140
1.0
102
RTVSPost2010PropOp57
 70
     1
102
RTVSPropertyOp0
 70
     1
102
RTVSPropertyOp1
 70
     1
102
RTVSPropertyOp2
 70
     1
102
RTVSPropertyOp3
 70
     1
102
RTVSPropertyOp4
 70
     1
102
RTVSPropertyOp5
 70
     1
102
RTVSPropertyOp6
 70
     1
102
RTVSPropertyOp7
 70
     1
102
RTVSPropertyOp8
 70
     1
102
RTVSPropertyOp9
 70
     1
102
RTVSPropertyOp10
 70
     1
102
RTVSPropertyOp11
 70
     1
102
RTVSPropertyOp12
 70
     1
102
RTVSPropertyOp13
 70
     1
102
RTVSPropertyOp14
 70
     1
102
RTVSPropertyOp15
 70
     1
102
RTVSPropertyOp16
 70
     1
102
RTVSPropertyOp17
 70
     1
102
RTVSPropertyOp18
 70
     1
102
RTVSPropertyOp19
 70
     1
102
RTVSPropertyOp20
 70
     1
102
RTVSPropertyOp21
 70
     1
102
RTVSPropertyOp22
 70
     1
102
RTVSPropertyOp23
 70
     1
102
RTVSPropertyOp24
 70
     1
102
RTVSPropertyOp25
 70
     1
102
RTVSPropertyOp26
 70
     1
102
RTVSPropertyOp27
 70
     1
102
RTVSPropertyOp28
 70
     1
102
RTVSPropertyOp29
 70
     1
102
RTVSPropertyOp30
 70
     1
102
RTVSPropertyOp31
 70
     1
102
RTVSPropertyOp32
 70
     1
102
RTVSPropertyOp33
 70
     1
102
RTVSPropertyOp34
 70
     1
102
RTVSPropertyOp35
 70
     1
102
RTVSPropertyOp36
 70
     1
102
RTVSPropertyOp37
 70
     1
102
RTVSPropertyOp38
 70
     1
102
RTVSPropertyOp39
 70
     1
102
RTVSPropertyOp40
 70
     1
102
RTVSPropertyOp41
 70
     1
102
RTVSPropertyOp42
 70
     1
102
RTVSPropertyOp43
 70
     1
102
RTVSPropertyOp44
 70
     1
102
RTVSPropertyOp45
 70
     1
102
RTVSPropertyOp46
 70
     1
102
RTVSPropertyOp47
 70
     1
102
RTVSPropertyOp48
 70
     1
102
RTVSPropertyOp49
 70
     1
102
RTVSPropertyOp50
 70
     1
102
RTVSPropertyOp51
 70
     0
102
RTVSPropertyOp52
 70
     0
102
RTVSPropertyOp53
 70
     1
102
RTVSPropertyOp54
 70
     1
102
RTVSPropertyOp55
 70
     1
102
RTVSPropertyOp56
 70
     1
102
RTVSPropertyOp57
 70
     1
102
RTVSPropertyOp58
 70
     1
102
RTVSPropertyOp59
 70
     1
102
RTVSPropertyOp60
 70
     1
102
RTVSPropertyOp61
 70
     1
102
RTVSPropertyOp62
 70
     1
  0
XRECORD
  5
4807
102
{ACAD_REACTORS
330
4806
102
}
330
4806
100
AcDbXrecord
280
     1
102
RTVSPost2010Prop28
280
     0
102
RTVSPost2010PropOp28
 70
     1
102
RTVSPost2010Prop29
280
     1
102
RTVSPost2010PropOp29
 70
     1
102
RTVSPost2010Prop30
280
     1
102
RTVSPost2010PropOp30
 70
     1
102
RTVSPost2010Prop31
280
     0
102
RTVSPost2010PropOp31
 70
     1
102
RTVSPost2010Prop32
280
     0
102
RTVSPost2010PropOp32
 70
     1
102
RTVSPost2010Prop33
280
     0
102
RTVSPost2010PropOp33
 70
     1
102
RTVSPost2010Prop34
280
     0
102
RTVSPost2010PropOp34
 70
     1
102
RTVSPost2010Prop35
280
     0
102
RTVSPost2010PropOp35
 70
     1
102
RTVSPost2010Prop36
280
     0
102
RTVSPost2010PropOp36
 70
     1
102
RTVSPost2010Prop37
 90
       50
102
RTVSPost2010PropOp37
 70
     1
102
RTVSPost2010Prop38
140
0.0
102
RTVSPost2010PropOp38
 70
     1
102
RTVSPost2010Prop39
140
1.0
102
RTVSPost2010PropOp39
 70
     1
102
RTVSPost2010Prop40
 90
        0
102
RTVSPost2010PropOp40
 70
     1
102
RTVSPost2010Prop41ColorIndex
 90
       18
102
RTVSPost2010Prop41ColorRGB
 90
        0
102
RTVSPost2010PropOp41
 70
     1
102
RTVSPost2010Prop42
 90
       50
102
RTVSPost2010PropOp42
 70
     1
102
RTVSPost2010Prop43
 90
        3
102
RTVSPost2010PropOp43
 70
     1
102
RTVSPost2010Prop44ColorIndex
 90
        5
102
RTVSPost2010Prop44ColorRGB
 90
      255
102
RTVSPost2010PropOp44
 70
     1
102
RTVSPost2010Prop45
280
     0
102
RTVSPost2010PropOp45
 70
     1
102
RTVSPost2010Prop46
 90
       50
102
RTVSPost2010PropOp46
 70
     1
102
RTVSPost2010Prop47
 90
       50
102
RTVSPost2010PropOp47
 70
     1
102
RTVSPost2010Prop48
 90
       50
102
RTVSPost2010PropOp48
 70
     1
102
RTVSPost2010Prop49
280
     0
102
RTVSPost2010PropOp49
 70
     1
102
RTVSPost2010Prop50
 90
       50
102
RTVSPost2010PropOp50
 70
     1
102
RTVSPost2010Prop51ColorIndex
 90
      256
102
RTVSPost2010Prop51ColorRGB
 90
-16777216
102
RTVSPost2010PropOp51
 70
     0
102
RTVSPost2010Prop52
140
1.0
102
RTVSPost2010PropOp52
 70
     0
102
RTVSPost2010Prop53
 90
        2
102
RTVSPost2010PropOp53
 70
     1
102
RTVSPost2010Prop54
  1
strokes_ogs.tif
102
RTVSPost2010PropOp54
 70
     1
102
RTVSPost2010Prop55
280
     0
102
RTVSPost2010PropOp55
 70
     1
102
RTVSPost2010Prop56
140
1.0
102
RTVSPost2010PropOp56
 70
     1
102
RTVSPost2010Prop57
140
1.0
102
RTVSPost2010PropOp57
 70
     1
102
RTVSPropertyOp0
 70
     1
102
RTVSPropertyOp1
 70
     1
102
RTVSPropertyOp2
 70
     1
102
RTVSPropertyOp3
 70
     1
102
RTVSPropertyOp4
 70
     1
102
RTVSPropertyOp5
 70
     1
102
RTVSPropertyOp6
 70
     1
102
RTVSPropertyOp7
 70
     1
102
RTVSPropertyOp8
 70
     1
102
RTVSPropertyOp9
 70
     1
102
RTVSPropertyOp10
 70
     1
102
RTVSPropertyOp11
 70
     1
102
RTVSPropertyOp12
 70
     1
102
RTVSPropertyOp13
 70
     1
102
RTVSPropertyOp14
 70
     1
102
RTVSPropertyOp15
 70
     1
102
RTVSPropertyOp16
 70
     1
102
RTVSPropertyOp17
 70
     1
102
RTVSPropertyOp18
 70
     1
102
RTVSPropertyOp19
 70
     1
102
RTVSPropertyOp20
 70
     1
102
RTVSPropertyOp21
 70
     1
102
RTVSPropertyOp22
 70
     1
102
RTVSPropertyOp23
 70
     1
102
RTVSPropertyOp24
 70
     1
102
RTVSPropertyOp25
 70
     1
102
RTVSPropertyOp26
 70
     1
102
RTVSPropertyOp27
 70
     1
102
RTVSPropertyOp28
 70
     1
102
RTVSPropertyOp29
 70
     1
102
RTVSPropertyOp30
 70
     1
102
RTVSPropertyOp31
 70
     1
102
RTVSPropertyOp32
 70
     1
102
RTVSPropertyOp33
 70
     1
102
RTVSPropertyOp34
 70
     1
102
RTVSPropertyOp35
 70
     1
102
RTVSPropertyOp36
 70
     1
102
RTVSPropertyOp37
 70
     1
102
RTVSPropertyOp38
 70
     1
102
RTVSPropertyOp39
 70
     1
102
RTVSPropertyOp40
 70
     1
102
RTVSPropertyOp41
 70
     1
102
RTVSPropertyOp42
 70
     1
102
RTVSPropertyOp43
 70
     1
102
RTVSPropertyOp44
 70
     1
102
RTVSPropertyOp45
 70
     1
102
RTVSPropertyOp46
 70
     1
102
RTVSPropertyOp47
 70
     1
102
RTVSPropertyOp48
 70
     1
102
RTVSPropertyOp49
 70
     1
102
RTVSPropertyOp50
 70
     1
102
RTVSPropertyOp51
 70
     0
102
RTVSPropertyOp52
 70
     0
102
RTVSPropertyOp53
 70
     1
102
RTVSPropertyOp54
 70
     1
102
RTVSPropertyOp55
 70
     1
102
RTVSPropertyOp56
 70
     1
102
RTVSPropertyOp57
 70
     1
102
RTVSPropertyOp58
 70
     1
102
RTVSPropertyOp59
 70
     1
102
RTVSPropertyOp60
 70
     1
102
RTVSPropertyOp61
 70
     1
102
RTVSPropertyOp62
 70
     1
  0
XRECORD
  5
4801
102
{ACAD_REACTORS
330
4800
102
}
330
4800
100
AcDbXrecord
280
     1
102
RTVSPost2010Prop28
280
     0
102
RTVSPost2010PropOp28
 70
     1
102
RTVSPost2010Prop29
280
     1
102
RTVSPost2010PropOp29
 70
     1
102
RTVSPost2010Prop30
280
     1
102
RTVSPost2010PropOp30
 70
     1
102
RTVSPost2010Prop31
280
     0
102
RTVSPost2010PropOp31
 70
     1
102
RTVSPost2010Prop32
280
     0
102
RTVSPost2010PropOp32
 70
     1
102
RTVSPost2010Prop33
280
     0
102
RTVSPost2010PropOp33
 70
     1
102
RTVSPost2010Prop34
280
     0
102
RTVSPost2010PropOp34
 70
     1
102
RTVSPost2010Prop35
280
     0
102
RTVSPost2010PropOp35
 70
     1
102
RTVSPost2010Prop36
280
     0
102
RTVSPost2010PropOp36
 70
     1
102
RTVSPost2010Prop37
 90
       50
102
RTVSPost2010PropOp37
 70
     1
102
RTVSPost2010Prop38
140
0.0
102
RTVSPost2010PropOp38
 70
     1
102
RTVSPost2010Prop39
140
1.0
102
RTVSPost2010PropOp39
 70
     1
102
RTVSPost2010Prop40
 90
        0
102
RTVSPost2010PropOp40
 70
     1
102
RTVSPost2010Prop41ColorIndex
 90
       18
102
RTVSPost2010Prop41ColorRGB
 90
        0
102
RTVSPost2010PropOp41
 70
     1
102
RTVSPost2010Prop42
 90
       50
102
RTVSPost2010PropOp42
 70
     1
102
RTVSPost2010Prop43
 90
        3
102
RTVSPost2010PropOp43
 70
     1
102
RTVSPost2010Prop44ColorIndex
 90
        5
102
RTVSPost2010Prop44ColorRGB
 90
      255
102
RTVSPost2010PropOp44
 70
     1
102
RTVSPost2010Prop45
280
     0
102
RTVSPost2010PropOp45
 70
     1
102
RTVSPost2010Prop46
 90
       50
102
RTVSPost2010PropOp46
 70
     1
102
RTVSPost2010Prop47
 90
       50
102
RTVSPost2010PropOp47
 70
     1
102
RTVSPost2010Prop48
 90
       50
102
RTVSPost2010PropOp48
 70
     1
102
RTVSPost2010Prop49
280
     0
102
RTVSPost2010PropOp49
 70
     1
102
RTVSPost2010Prop50
 90
       50
102
RTVSPost2010PropOp50
 70
     1
102
RTVSPost2010Prop51ColorIndex
 90
      256
102
RTVSPost2010Prop51ColorRGB
 90
-16777216
102
RTVSPost2010PropOp51
 70
     0
102
RTVSPost2010Prop52
140
1.0
102
RTVSPost2010PropOp52
 70
     0
102
RTVSPost2010Prop53
 90
        2
102
RTVSPost2010PropOp53
 70
     1
102
RTVSPost2010Prop54
  1
strokes_ogs.tif
102
RTVSPost2010PropOp54
 70
     1
102
RTVSPost2010Prop55
280
     0
102
RTVSPost2010PropOp55
 70
     1
102
RTVSPost2010Prop56
140
1.0
102
RTVSPost2010PropOp56
 70
     1
102
RTVSPost2010Prop57
140
1.0
102
RTVSPost2010PropOp57
 70
     1
102
RTVSPropertyOp0
 70
     1
102
RTVSPropertyOp1
 70
     1
102
RTVSPropertyOp2
 70
     1
102
RTVSPropertyOp3
 70
     1
102
RTVSPropertyOp4
 70
     1
102
RTVSPropertyOp5
 70
     1
102
RTVSPropertyOp6
 70
     1
102
RTVSPropertyOp7
 70
     1
102
RTVSPropertyOp8
 70
     1
102
RTVSPropertyOp9
 70
     1
102
RTVSPropertyOp10
 70
     1
102
RTVSPropertyOp11
 70
     1
102
RTVSPropertyOp12
 70
     1
102
RTVSPropertyOp13
 70
     1
102
RTVSPropertyOp14
 70
     1
102
RTVSPropertyOp15
 70
     1
102
RTVSPropertyOp16
 70
     1
102
RTVSPropertyOp17
 70
     1
102
RTVSPropertyOp18
 70
     1
102
RTVSPropertyOp19
 70
     1
102
RTVSPropertyOp20
 70
     1
102
RTVSPropertyOp21
 70
     1
102
RTVSPropertyOp22
 70
     1
102
RTVSPropertyOp23
 70
     1
102
RTVSPropertyOp24
 70
     1
102
RTVSPropertyOp25
 70
     1
102
RTVSPropertyOp26
 70
     1
102
RTVSPropertyOp27
 70
     1
102
RTVSPropertyOp28
 70
     1
102
RTVSPropertyOp29
 70
     1
102
RTVSPropertyOp30
 70
     1
102
RTVSPropertyOp31
 70
     1
102
RTVSPropertyOp32
 70
     1
102
RTVSPropertyOp33
 70
     1
102
RTVSPropertyOp34
 70
     1
102
RTVSPropertyOp35
 70
     1
102
RTVSPropertyOp36
 70
     1
102
RTVSPropertyOp37
 70
     1
102
RTVSPropertyOp38
 70
     1
102
RTVSPropertyOp39
 70
     1
102
RTVSPropertyOp40
 70
     1
102
RTVSPropertyOp41
 70
     1
102
RTVSPropertyOp42
 70
     1
102
RTVSPropertyOp43
 70
     1
102
RTVSPropertyOp44
 70
     1
102
RTVSPropertyOp45
 70
     1
102
RTVSPropertyOp46
 70
     1
102
RTVSPropertyOp47
 70
     1
102
RTVSPropertyOp48
 70
     1
102
RTVSPropertyOp49
 70
     1
102
RTVSPropertyOp50
 70
     1
102
RTVSPropertyOp51
 70
     0
102
RTVSPropertyOp52
 70
     0
102
RTVSPropertyOp53
 70
     1
102
RTVSPropertyOp54
 70
     1
102
RTVSPropertyOp55
 70
     1
102
RTVSPropertyOp56
 70
     1
102
RTVSPropertyOp57
 70
     1
102
RTVSPropertyOp58
 70
     1
102
RTVSPropertyOp59
 70
     1
102
RTVSPropertyOp60
 70
     1
102
RTVSPropertyOp61
 70
     1
102
RTVSPropertyOp62
 70
     1
  0
XRECORD
  5
4803
102
{ACAD_REACTORS
330
4802
102
}
330
4802
100
AcDbXrecord
280
     1
102
RTVSPost2010Prop28
280
     0
102
RTVSPost2010PropOp28
 70
     1
102
RTVSPost2010Prop29
280
     1
102
RTVSPost2010PropOp29
 70
     1
102
RTVSPost2010Prop30
280
     1
102
RTVSPost2010PropOp30
 70
     1
102
RTVSPost2010Prop31
280
     0
102
RTVSPost2010PropOp31
 70
     1
102
RTVSPost2010Prop32
280
     0
102
RTVSPost2010PropOp32
 70
     1
102
RTVSPost2010Prop33
280
     0
102
RTVSPost2010PropOp33
 70
     1
102
RTVSPost2010Prop34
280
     0
102
RTVSPost2010PropOp34
 70
     1
102
RTVSPost2010Prop35
280
     0
102
RTVSPost2010PropOp35
 70
     1
102
RTVSPost2010Prop36
280
     0
102
RTVSPost2010PropOp36
 70
     1
102
RTVSPost2010Prop37
 90
       50
102
RTVSPost2010PropOp37
 70
     1
102
RTVSPost2010Prop38
140
0.0
102
RTVSPost2010PropOp38
 70
     1
102
RTVSPost2010Prop39
140
1.0
102
RTVSPost2010PropOp39
 70
     1
102
RTVSPost2010Prop40
 90
        0
102
RTVSPost2010PropOp40
 70
     1
102
RTVSPost2010Prop41ColorIndex
 90
       18
102
RTVSPost2010Prop41ColorRGB
 90
        0
102
RTVSPost2010PropOp41
 70
     1
102
RTVSPost2010Prop42
 90
       50
102
RTVSPost2010PropOp42
 70
     1
102
RTVSPost2010Prop43
 90
        3
102
RTVSPost2010PropOp43
 70
     1
102
RTVSPost2010Prop44ColorIndex
 90
        5
102
RTVSPost2010Prop44ColorRGB
 90
      255
102
RTVSPost2010PropOp44
 70
     1
102
RTVSPost2010Prop45
280
     0
102
RTVSPost2010PropOp45
 70
     1
102
RTVSPost2010Prop46
 90
       50
102
RTVSPost2010PropOp46
 70
     1
102
RTVSPost2010Prop47
 90
       50
102
RTVSPost2010PropOp47
 70
     1
102
RTVSPost2010Prop48
 90
       50
102
RTVSPost2010PropOp48
 70
     1
102
RTVSPost2010Prop49
280
     0
102
RTVSPost2010PropOp49
 70
     1
102
RTVSPost2010Prop50
 90
       50
102
RTVSPost2010PropOp50
 70
     1
102
RTVSPost2010Prop51ColorIndex
 90
      256
102
RTVSPost2010Prop51ColorRGB
 90
-16777216
102
RTVSPost2010PropOp51
 70
     0
102
RTVSPost2010Prop52
140
1.0
102
RTVSPost2010PropOp52
 70
     0
102
RTVSPost2010Prop53
 90
        2
102
RTVSPost2010PropOp53
 70
     1
102
RTVSPost2010Prop54
  1
strokes_ogs.tif
102
RTVSPost2010PropOp54
 70
     1
102
RTVSPost2010Prop55
280
     0
102
RTVSPost2010PropOp55
 70
     1
102
RTVSPost2010Prop56
140
1.0
102
RTVSPost2010PropOp56
 70
     1
102
RTVSPost2010Prop57
140
1.0
102
RTVSPost2010PropOp57
 70
     1
102
RTVSPropertyOp0
 70
     1
102
RTVSPropertyOp1
 70
     1
102
RTVSPropertyOp2
 70
     1
102
RTVSPropertyOp3
 70
     1
102
RTVSPropertyOp4
 70
     1
102
RTVSPropertyOp5
 70
     1
102
RTVSPropertyOp6
 70
     1
102
RTVSPropertyOp7
 70
     1
102
RTVSPropertyOp8
 70
     1
102
RTVSPropertyOp9
 70
     1
102
RTVSPropertyOp10
 70
     1
102
RTVSPropertyOp11
 70
     1
102
RTVSPropertyOp12
 70
     1
102
RTVSPropertyOp13
 70
     1
102
RTVSPropertyOp14
 70
     1
102
RTVSPropertyOp15
 70
     1
102
RTVSPropertyOp16
 70
     1
102
RTVSPropertyOp17
 70
     1
102
RTVSPropertyOp18
 70
     1
102
RTVSPropertyOp19
 70
     1
102
RTVSPropertyOp20
 70
     1
102
RTVSPropertyOp21
 70
     1
102
RTVSPropertyOp22
 70
     1
102
RTVSPropertyOp23
 70
     1
102
RTVSPropertyOp24
 70
     1
102
RTVSPropertyOp25
 70
     1
102
RTVSPropertyOp26
 70
     1
102
RTVSPropertyOp27
 70
     1
102
RTVSPropertyOp28
 70
     1
102
RTVSPropertyOp29
 70
     1
102
RTVSPropertyOp30
 70
     1
102
RTVSPropertyOp31
 70
     1
102
RTVSPropertyOp32
 70
     1
102
RTVSPropertyOp33
 70
     1
102
RTVSPropertyOp34
 70
     1
102
RTVSPropertyOp35
 70
     1
102
RTVSPropertyOp36
 70
     1
102
RTVSPropertyOp37
 70
     1
102
RTVSPropertyOp38
 70
     1
102
RTVSPropertyOp39
 70
     1
102
RTVSPropertyOp40
 70
     1
102
RTVSPropertyOp41
 70
     1
102
RTVSPropertyOp42
 70
     1
102
RTVSPropertyOp43
 70
     1
102
RTVSPropertyOp44
 70
     1
102
RTVSPropertyOp45
 70
     1
102
RTVSPropertyOp46
 70
     1
102
RTVSPropertyOp47
 70
     1
102
RTVSPropertyOp48
 70
     1
102
RTVSPropertyOp49
 70
     1
102
RTVSPropertyOp50
 70
     1
102
RTVSPropertyOp51
 70
     0
102
RTVSPropertyOp52
 70
     0
102
RTVSPropertyOp53
 70
     1
102
RTVSPropertyOp54
 70
     1
102
RTVSPropertyOp55
 70
     1
102
RTVSPropertyOp56
 70
     1
102
RTVSPropertyOp57
 70
     1
102
RTVSPropertyOp58
 70
     1
102
RTVSPropertyOp59
 70
     1
102
RTVSPropertyOp60
 70
     1
102
RTVSPropertyOp61
 70
     1
102
RTVSPropertyOp62
 70
     1
  0
XRECORD
  5
47F5
102
{ACAD_REACTORS
330
47F4
102
}
330
47F4
100
AcDbXrecord
280
     1
102
RTVSPost2010Prop28
280
     0
102
RTVSPost2010PropOp28
 70
     1
102
RTVSPost2010Prop29
280
     1
102
RTVSPost2010PropOp29
 70
     1
102
RTVSPost2010Prop30
280
     1
102
RTVSPost2010PropOp30
 70
     1
102
RTVSPost2010Prop31
280
     0
102
RTVSPost2010PropOp31
 70
     1
102
RTVSPost2010Prop32
280
     0
102
RTVSPost2010PropOp32
 70
     1
102
RTVSPost2010Prop33
280
     0
102
RTVSPost2010PropOp33
 70
     1
102
RTVSPost2010Prop34
280
     0
102
RTVSPost2010PropOp34
 70
     1
102
RTVSPost2010Prop35
280
     0
102
RTVSPost2010PropOp35
 70
     1
102
RTVSPost2010Prop36
280
     0
102
RTVSPost2010PropOp36
 70
     1
102
RTVSPost2010Prop37
 90
       50
102
RTVSPost2010PropOp37
 70
     1
102
RTVSPost2010Prop38
140
0.0
102
RTVSPost2010PropOp38
 70
     1
102
RTVSPost2010Prop39
140
1.0
102
RTVSPost2010PropOp39
 70
     1
102
RTVSPost2010Prop40
 90
        0
102
RTVSPost2010PropOp40
 70
     1
102
RTVSPost2010Prop41ColorIndex
 90
       18
102
RTVSPost2010Prop41ColorRGB
 90
        0
102
RTVSPost2010PropOp41
 70
     1
102
RTVSPost2010Prop42
 90
       50
102
RTVSPost2010PropOp42
 70
     1
102
RTVSPost2010Prop43
 90
        3
102
RTVSPost2010PropOp43
 70
     1
102
RTVSPost2010Prop44ColorIndex
 90
        5
102
RTVSPost2010Prop44ColorRGB
 90
      255
102
RTVSPost2010PropOp44
 70
     1
102
RTVSPost2010Prop45
280
     0
102
RTVSPost2010PropOp45
 70
     1
102
RTVSPost2010Prop46
 90
       50
102
RTVSPost2010PropOp46
 70
     1
102
RTVSPost2010Prop47
 90
       50
102
RTVSPost2010PropOp47
 70
     1
102
RTVSPost2010Prop48
 90
       50
102
RTVSPost2010PropOp48
 70
     1
102
RTVSPost2010Prop49
280
     0
102
RTVSPost2010PropOp49
 70
     1
102
RTVSPost2010Prop50
 90
       50
102
RTVSPost2010PropOp50
 70
     1
102
RTVSPost2010Prop51ColorIndex
 90
      256
102
RTVSPost2010Prop51ColorRGB
 90
-16777216
102
RTVSPost2010PropOp51
 70
     0
102
RTVSPost2010Prop52
140
1.0
102
RTVSPost2010PropOp52
 70
     0
102
RTVSPost2010Prop53
 90
        2
102
RTVSPost2010PropOp53
 70
     1
102
RTVSPost2010Prop54
  1
strokes_ogs.tif
102
RTVSPost2010PropOp54
 70
     1
102
RTVSPost2010Prop55
280
     0
102
RTVSPost2010PropOp55
 70
     1
102
RTVSPost2010Prop56
140
1.0
102
RTVSPost2010PropOp56
 70
     1
102
RTVSPost2010Prop57
140
1.0
102
RTVSPost2010PropOp57
 70
     1
102
RTVSPropertyOp0
 70
     1
102
RTVSPropertyOp1
 70
     1
102
RTVSPropertyOp2
 70
     1
102
RTVSPropertyOp3
 70
     1
102
RTVSPropertyOp4
 70
     1
102
RTVSPropertyOp5
 70
     1
102
RTVSPropertyOp6
 70
     1
102
RTVSPropertyOp7
 70
     1
102
RTVSPropertyOp8
 70
     1
102
RTVSPropertyOp9
 70
     1
102
RTVSPropertyOp10
 70
     1
102
RTVSPropertyOp11
 70
     1
102
RTVSPropertyOp12
 70
     1
102
RTVSPropertyOp13
 70
     1
102
RTVSPropertyOp14
 70
     1
102
RTVSPropertyOp15
 70
     1
102
RTVSPropertyOp16
 70
     1
102
RTVSPropertyOp17
 70
     1
102
RTVSPropertyOp18
 70
     1
102
RTVSPropertyOp19
 70
     1
102
RTVSPropertyOp20
 70
     1
102
RTVSPropertyOp21
 70
     1
102
RTVSPropertyOp22
 70
     1
102
RTVSPropertyOp23
 70
     1
102
RTVSPropertyOp24
 70
     1
102
RTVSPropertyOp25
 70
     1
102
RTVSPropertyOp26
 70
     1
102
RTVSPropertyOp27
 70
     1
102
RTVSPropertyOp28
 70
     1
102
RTVSPropertyOp29
 70
     1
102
RTVSPropertyOp30
 70
     1
102
RTVSPropertyOp31
 70
     1
102
RTVSPropertyOp32
 70
     1
102
RTVSPropertyOp33
 70
     1
102
RTVSPropertyOp34
 70
     1
102
RTVSPropertyOp35
 70
     1
102
RTVSPropertyOp36
 70
     1
102
RTVSPropertyOp37
 70
     1
102
RTVSPropertyOp38
 70
     1
102
RTVSPropertyOp39
 70
     1
102
RTVSPropertyOp40
 70
     1
102
RTVSPropertyOp41
 70
     1
102
RTVSPropertyOp42
 70
     1
102
RTVSPropertyOp43
 70
     1
102
RTVSPropertyOp44
 70
     1
102
RTVSPropertyOp45
 70
     1
102
RTVSPropertyOp46
 70
     1
102
RTVSPropertyOp47
 70
     1
102
RTVSPropertyOp48
 70
     1
102
RTVSPropertyOp49
 70
     1
102
RTVSPropertyOp50
 70
     1
102
RTVSPropertyOp51
 70
     0
102
RTVSPropertyOp52
 70
     0
102
RTVSPropertyOp53
 70
     1
102
RTVSPropertyOp54
 70
     1
102
RTVSPropertyOp55
 70
     1
102
RTVSPropertyOp56
 70
     1
102
RTVSPropertyOp57
 70
     1
102
RTVSPropertyOp58
 70
     1
102
RTVSPropertyOp59
 70
     1
102
RTVSPropertyOp60
 70
     1
102
RTVSPropertyOp61
 70
     1
102
RTVSPropertyOp62
 70
     1
  0
XRECORD
  5
47FD
102
{ACAD_REACTORS
330
47FC
102
}
330
47FC
100
AcDbXrecord
280
     1
102
RTVSPost2010Prop28
280
     0
102
RTVSPost2010PropOp28
 70
     1
102
RTVSPost2010Prop29
280
     1
102
RTVSPost2010PropOp29
 70
     1
102
RTVSPost2010Prop30
280
     1
102
RTVSPost2010PropOp30
 70
     1
102
RTVSPost2010Prop31
280
     0
102
RTVSPost2010PropOp31
 70
     1
102
RTVSPost2010Prop32
280
     0
102
RTVSPost2010PropOp32
 70
     1
102
RTVSPost2010Prop33
280
     0
102
RTVSPost2010PropOp33
 70
     1
102
RTVSPost2010Prop34
280
     0
102
RTVSPost2010PropOp34
 70
     1
102
RTVSPost2010Prop35
280
     0
102
RTVSPost2010PropOp35
 70
     1
102
RTVSPost2010Prop36
280
     0
102
RTVSPost2010PropOp36
 70
     1
102
RTVSPost2010Prop37
 90
       50
102
RTVSPost2010PropOp37
 70
     1
102
RTVSPost2010Prop38
140
0.0
102
RTVSPost2010PropOp38
 70
     1
102
RTVSPost2010Prop39
140
1.0
102
RTVSPost2010PropOp39
 70
     1
102
RTVSPost2010Prop40
 90
        0
102
RTVSPost2010PropOp40
 70
     1
102
RTVSPost2010Prop41ColorIndex
 90
       18
102
RTVSPost2010Prop41ColorRGB
 90
        0
102
RTVSPost2010PropOp41
 70
     1
102
RTVSPost2010Prop42
 90
       50
102
RTVSPost2010PropOp42
 70
     1
102
RTVSPost2010Prop43
 90
        3
102
RTVSPost2010PropOp43
 70
     1
102
RTVSPost2010Prop44ColorIndex
 90
        5
102
RTVSPost2010Prop44ColorRGB
 90
      255
102
RTVSPost2010PropOp44
 70
     1
102
RTVSPost2010Prop45
280
     0
102
RTVSPost2010PropOp45
 70
     1
102
RTVSPost2010Prop46
 90
       50
102
RTVSPost2010PropOp46
 70
     1
102
RTVSPost2010Prop47
 90
       50
102
RTVSPost2010PropOp47
 70
     1
102
RTVSPost2010Prop48
 90
       50
102
RTVSPost2010PropOp48
 70
     1
102
RTVSPost2010Prop49
280
     0
102
RTVSPost2010PropOp49
 70
     1
102
RTVSPost2010Prop50
 90
       50
102
RTVSPost2010PropOp50
 70
     1
102
RTVSPost2010Prop51ColorIndex
 90
      256
102
RTVSPost2010Prop51ColorRGB
 90
-16777216
102
RTVSPost2010PropOp51
 70
     0
102
RTVSPost2010Prop52
140
1.0
102
RTVSPost2010PropOp52
 70
     0
102
RTVSPost2010Prop53
 90
        2
102
RTVSPost2010PropOp53
 70
     1
102
RTVSPost2010Prop54
  1
strokes_ogs.tif
102
RTVSPost2010PropOp54
 70
     1
102
RTVSPost2010Prop55
280
     0
102
RTVSPost2010PropOp55
 70
     1
102
RTVSPost2010Prop56
140
1.0
102
RTVSPost2010PropOp56
 70
     1
102
RTVSPost2010Prop57
140
1.0
102
RTVSPost2010PropOp57
 70
     1
102
RTVSPropertyOp0
 70
     1
102
RTVSPropertyOp1
 70
     1
102
RTVSPropertyOp2
 70
     1
102
RTVSPropertyOp3
 70
     1
102
RTVSPropertyOp4
 70
     1
102
RTVSPropertyOp5
 70
     1
102
RTVSPropertyOp6
 70
     1
102
RTVSPropertyOp7
 70
     1
102
RTVSPropertyOp8
 70
     1
102
RTVSPropertyOp9
 70
     1
102
RTVSPropertyOp10
 70
     1
102
RTVSPropertyOp11
 70
     1
102
RTVSPropertyOp12
 70
     1
102
RTVSPropertyOp13
 70
     1
102
RTVSPropertyOp14
 70
     1
102
RTVSPropertyOp15
 70
     1
102
RTVSPropertyOp16
 70
     1
102
RTVSPropertyOp17
 70
     1
102
RTVSPropertyOp18
 70
     1
102
RTVSPropertyOp19
 70
     1
102
RTVSPropertyOp20
 70
     1
102
RTVSPropertyOp21
 70
     1
102
RTVSPropertyOp22
 70
     1
102
RTVSPropertyOp23
 70
     1
102
RTVSPropertyOp24
 70
     1
102
RTVSPropertyOp25
 70
     1
102
RTVSPropertyOp26
 70
     1
102
RTVSPropertyOp27
 70
     1
102
RTVSPropertyOp28
 70
     1
102
RTVSPropertyOp29
 70
     1
102
RTVSPropertyOp30
 70
     1
102
RTVSPropertyOp31
 70
     1
102
RTVSPropertyOp32
 70
     1
102
RTVSPropertyOp33
 70
     1
102
RTVSPropertyOp34
 70
     1
102
RTVSPropertyOp35
 70
     1
102
RTVSPropertyOp36
 70
     1
102
RTVSPropertyOp37
 70
     1
102
RTVSPropertyOp38
 70
     1
102
RTVSPropertyOp39
 70
     1
102
RTVSPropertyOp40
 70
     1
102
RTVSPropertyOp41
 70
     1
102
RTVSPropertyOp42
 70
     1
102
RTVSPropertyOp43
 70
     1
102
RTVSPropertyOp44
 70
     1
102
RTVSPropertyOp45
 70
     1
102
RTVSPropertyOp46
 70
     1
102
RTVSPropertyOp47
 70
     1
102
RTVSPropertyOp48
 70
     1
102
RTVSPropertyOp49
 70
     1
102
RTVSPropertyOp50
 70
     1
102
RTVSPropertyOp51
 70
     0
102
RTVSPropertyOp52
 70
     0
102
RTVSPropertyOp53
 70
     1
102
RTVSPropertyOp54
 70
     1
102
RTVSPropertyOp55
 70
     1
102
RTVSPropertyOp56
 70
     1
102
RTVSPropertyOp57
 70
     1
102
RTVSPropertyOp58
 70
     1
102
RTVSPropertyOp59
 70
     1
102
RTVSPropertyOp60
 70
     1
102
RTVSPropertyOp61
 70
     1
102
RTVSPropertyOp62
 70
     1
  0
XRECORD
  5
4805
102
{ACAD_REACTORS
330
4804
102
}
330
4804
100
AcDbXrecord
280
     1
102
RTVSPost2010Prop28
280
     0
102
RTVSPost2010PropOp28
 70
     1
102
RTVSPost2010Prop29
280
     1
102
RTVSPost2010PropOp29
 70
     1
102
RTVSPost2010Prop30
280
     1
102
RTVSPost2010PropOp30
 70
     1
102
RTVSPost2010Prop31
280
     0
102
RTVSPost2010PropOp31
 70
     1
102
RTVSPost2010Prop32
280
     0
102
RTVSPost2010PropOp32
 70
     1
102
RTVSPost2010Prop33
280
     0
102
RTVSPost2010PropOp33
 70
     1
102
RTVSPost2010Prop34
280
     0
102
RTVSPost2010PropOp34
 70
     1
102
RTVSPost2010Prop35
280
     0
102
RTVSPost2010PropOp35
 70
     1
102
RTVSPost2010Prop36
280
     0
102
RTVSPost2010PropOp36
 70
     1
102
RTVSPost2010Prop37
 90
       50
102
RTVSPost2010PropOp37
 70
     1
102
RTVSPost2010Prop38
140
0.0
102
RTVSPost2010PropOp38
 70
     1
102
RTVSPost2010Prop39
140
1.0
102
RTVSPost2010PropOp39
 70
     1
102
RTVSPost2010Prop40
 90
        0
102
RTVSPost2010PropOp40
 70
     1
102
RTVSPost2010Prop41ColorIndex
 90
       18
102
RTVSPost2010Prop41ColorRGB
 90
        0
102
RTVSPost2010PropOp41
 70
     1
102
RTVSPost2010Prop42
 90
       50
102
RTVSPost2010PropOp42
 70
     1
102
RTVSPost2010Prop43
 90
        3
102
RTVSPost2010PropOp43
 70
     1
102
RTVSPost2010Prop44ColorIndex
 90
        5
102
RTVSPost2010Prop44ColorRGB
 90
      255
102
RTVSPost2010PropOp44
 70
     1
102
RTVSPost2010Prop45
280
     0
102
RTVSPost2010PropOp45
 70
     1
102
RTVSPost2010Prop46
 90
       50
102
RTVSPost2010PropOp46
 70
     1
102
RTVSPost2010Prop47
 90
       50
102
RTVSPost2010PropOp47
 70
     1
102
RTVSPost2010Prop48
 90
       50
102
RTVSPost2010PropOp48
 70
     1
102
RTVSPost2010Prop49
280
     0
102
RTVSPost2010PropOp49
 70
     1
102
RTVSPost2010Prop50
 90
       50
102
RTVSPost2010PropOp50
 70
     1
102
RTVSPost2010Prop51ColorIndex
 90
      256
102
RTVSPost2010Prop51ColorRGB
 90
-16777216
102
RTVSPost2010PropOp51
 70
     0
102
RTVSPost2010Prop52
140
1.0
102
RTVSPost2010PropOp52
 70
     0
102
RTVSPost2010Prop53
 90
        2
102
RTVSPost2010PropOp53
 70
     1
102
RTVSPost2010Prop54
  1
strokes_ogs.tif
102
RTVSPost2010PropOp54
 70
     1
102
RTVSPost2010Prop55
280
     0
102
RTVSPost2010PropOp55
 70
     1
102
RTVSPost2010Prop56
140
1.0
102
RTVSPost2010PropOp56
 70
     1
102
RTVSPost2010Prop57
140
1.0
102
RTVSPost2010PropOp57
 70
     1
102
RTVSPropertyOp0
 70
     1
102
RTVSPropertyOp1
 70
     1
102
RTVSPropertyOp2
 70
     1
102
RTVSPropertyOp3
 70
     1
102
RTVSPropertyOp4
 70
     1
102
RTVSPropertyOp5
 70
     1
102
RTVSPropertyOp6
 70
     1
102
RTVSPropertyOp7
 70
     1
102
RTVSPropertyOp8
 70
     1
102
RTVSPropertyOp9
 70
     1
102
RTVSPropertyOp10
 70
     1
102
RTVSPropertyOp11
 70
     1
102
RTVSPropertyOp12
 70
     1
102
RTVSPropertyOp13
 70
     1
102
RTVSPropertyOp14
 70
     1
102
RTVSPropertyOp15
 70
     1
102
RTVSPropertyOp16
 70
     1
102
RTVSPropertyOp17
 70
     1
102
RTVSPropertyOp18
 70
     1
102
RTVSPropertyOp19
 70
     1
102
RTVSPropertyOp20
 70
     1
102
RTVSPropertyOp21
 70
     1
102
RTVSPropertyOp22
 70
     1
102
RTVSPropertyOp23
 70
     1
102
RTVSPropertyOp24
 70
     1
102
RTVSPropertyOp25
 70
     1
102
RTVSPropertyOp26
 70
     1
102
RTVSPropertyOp27
 70
     1
102
RTVSPropertyOp28
 70
     1
102
RTVSPropertyOp29
 70
     1
102
RTVSPropertyOp30
 70
     1
102
RTVSPropertyOp31
 70
     1
102
RTVSPropertyOp32
 70
     1
102
RTVSPropertyOp33
 70
     1
102
RTVSPropertyOp34
 70
     1
102
RTVSPropertyOp35
 70
     1
102
RTVSPropertyOp36
 70
     1
102
RTVSPropertyOp37
 70
     1
102
RTVSPropertyOp38
 70
     1
102
RTVSPropertyOp39
 70
     1
102
RTVSPropertyOp40
 70
     1
102
RTVSPropertyOp41
 70
     1
102
RTVSPropertyOp42
 70
     1
102
RTVSPropertyOp43
 70
     1
102
RTVSPropertyOp44
 70
     1
102
RTVSPropertyOp45
 70
     1
102
RTVSPropertyOp46
 70
     1
102
RTVSPropertyOp47
 70
     1
102
RTVSPropertyOp48
 70
     1
102
RTVSPropertyOp49
 70
     1
102
RTVSPropertyOp50
 70
     1
102
RTVSPropertyOp51
 70
     0
102
RTVSPropertyOp52
 70
     0
102
RTVSPropertyOp53
 70
     1
102
RTVSPropertyOp54
 70
     1
102
RTVSPropertyOp55
 70
     1
102
RTVSPropertyOp56
 70
     1
102
RTVSPropertyOp57
 70
     1
102
RTVSPropertyOp58
 70
     1
102
RTVSPropertyOp59
 70
     1
102
RTVSPropertyOp60
 70
     1
102
RTVSPropertyOp61
 70
     1
102
RTVSPropertyOp62
 70
     1
  0
ENDSEC
  0
EOF
