  0
SECTION
  2
HEADER
  9
$ACADVER
  1
AC1018
  9
$ACADMAINTVER
 70
   104
  9
$DWGCODEPAGE
  3
ANSI_932
  9
$LASTSAVEDBY
  1
WM109WK
  9
$CUSTOMPROPERTYTAG
  1
AmdtFileType
  9
$CUSTOMPROPERTY
  1
84
  9
$INSBASE
 10
0.0
 20
0.0
 30
0.0
  9
$EXTMIN
 10
-961.4522571351114
 20
-1165.730051376232
 30
0.0
  9
$EXTMAX
 10
882.3405431773633
 20
669.4236260770331
 30
50.0
  9
$LIMMIN
 10
-2970.0
 20
-2100.0
  9
$LIMMAX
 10
2970.0
 20
2100.0
  9
$ORTHOMODE
 70
     0
  9
$REGENMODE
 70
     0
  9
$FILLMODE
 70
     1
  9
$QTEXTMODE
 70
     0
  9
$MIRRTEXT
 70
     0
  9
$LTSCALE
 40
20.0
  9
$ATTMODE
 70
     1
  9
$TEXTSIZE
 40
64.0
  9
$TRACEWID
 40
0.05
  9
$TEXTSTYLE
  7
STANDARD
  9
$CLAYER
  8
SIZE
  9
$CELTYPE
  6
ByLayer
  9
$CECOLOR
 62
   256
  9
$CELTSCALE
 40
1.0
  9
$DISPSILH
 70
     0
  9
$DIMSCALE
 40
1.0
  9
$DIMASZ
 40
0.12
  9
$DIMEXO
 40
0.05
  9
$DIMDLI
 40
0.5
  9
$DIMRND
 40
0.0
  9
$DIMDLE
 40
0.0
  9
$DIMEXE
 40
0.1
  9
$DIMTP
 40
0.1
  9
$DIMTM
 40
0.1
  9
$DIMTXT
 40
0.12
  9
$DIMCEN
 40
0.0
  9
$DIMTSZ
 40
0.0
  9
$DIMTOL
 70
     0
  9
$DIMLIM
 70
     0
  9
$DIMTIH
 70
     1
  9
$DIMTOH
 70
     1
  9
$DIMSE1
 70
     0
  9
$DIMSE2
 70
     0
  9
$DIMTAD
 70
     0
  9
$DIMZIN
 70
     7
  9
$DIMBLK
  1

  9
$DIMASO
 70
     1
  9
$DIMSHO
 70
     0
  9
$DIMPOST
  1

  9
$DIMAPOST
  1
mm
  9
$DIMALT
 70
     0
  9
$DIMALTD
 70
     2
  9
$DIMALTF
 40
25.4
  9
$DIMLFAC
 40
1.0
  9
$DIMTOFL
 70
     0
  9
$DIMTVP
 40
0.0
  9
$DIMTIX
 70
     0
  9
$DIMSOXD
 70
     0
  9
$DIMSAH
 70
     0
  9
$DIMBLK1
  1

  9
$DIMBLK2
  1

  9
$DIMSTYLE
  2
AM_ANSI
  9
$DIMCLRD
 70
   256
  9
$DIMCLRE
 70
   256
  9
$DIMCLRT
 70
     2
  9
$DIMTFAC
 40
0.71
  9
$DIMGAP
 40
0.06
  9
$DIMJUST
 70
     0
  9
$DIMSD1
 70
     0
  9
$DIMSD2
 70
     0
  9
$DIMTOLJ
 70
     1
  9
$DIMTZIN
 70
     7
  9
$DIMALTZ
 70
     0
  9
$DIMALTTZ
 70
     0
  9
$DIMUPT
 70
     0
  9
$DIMDEC
 70
     4
  9
$DIMTDEC
 70
     4
  9
$DIMALTU
 70
     2
  9
$DIMALTTD
 70
     4
  9
$DIMTXSTY
  7
STANDARD
  9
$DIMAUNIT
 70
     0
  9
$DIMADEC
 70
     0
  9
$DIMALTRND
 40
0.0
  9
$DIMAZIN
 70
     2
  9
$DIMDSEP
 70
    46
  9
$DIMATFIT
 70
     3
  9
$DIMFRAC
 70
     0
  9
$DIMLDRBLK
  1

  9
$DIMLUNIT
 70
     2
  9
$DIMLWD
 70
    -1
  9
$DIMLWE
 70
    -1
  9
$DIMTMOVE
 70
     0
  9
$LUNITS
 70
     2
  9
$LUPREC
 70
     4
  9
$SKETCHINC
 40
0.1
  9
$FILLETRAD
 40
4.0
  9
$AUNITS
 70
     1
  9
$AUPREC
 70
     3
  9
$MENU
  1
ACAD
  9
$ELEVATION
 40
0.0
  9
$PELEVATION
 40
0.0
  9
$THICKNESS
 40
50.0
  9
$LIMCHECK
 70
     0
  9
$CHAMFERA
 40
0.0
  9
$CHAMFERB
 40
0.0
  9
$CHAMFERC
 40
0.0
  9
$CHAMFERD
 40
0.0
  9
$SKPOLY
 70
     0
  9
$TDCREATE
 40
2452321.396199653
  9
$TDUCREATE
 40
2452321.021199653
  9
$TDUPDATE
 40
2458467.710370312
  9
$TDUUPDATE
 40
2458467.335370313
  9
$TDINDWG
 40
1.0527564120
  9
$TDUSRTIMER
 40
1.0527508218
  9
$USRTIMER
 70
     1
  9
$ANGBASE
 50
0.0
  9
$ANGDIR
 70
     0
  9
$PDMODE
 70
     3
  9
$PDSIZE
 40
-2.0
  9
$PLINEWID
 40
0.0
  9
$SPLFRAME
 70
     0
  9
$SPLINETYPE
 70
     6
  9
$SPLINESEGS
 70
     8
  9
$HANDSEED
  5
2DBD
  9
$SURFTAB1
 70
     6
  9
$SURFTAB2
 70
     6
  9
$SURFTYPE
 70
     6
  9
$SURFU
 70
     6
  9
$SURFV
 70
     6
  9
$UCSBASE
  2

  9
$UCSNAME
  2

  9
$UCSORG
 10
0.0
 20
0.0
 30
0.0
  9
$UCSXDIR
 10
1.0
 20
0.0
 30
0.0
  9
$UCSYDIR
 10
0.0
 20
1.0
 30
0.0
  9
$UCSORTHOREF
  2

  9
$UCSORTHOVIEW
 70
     0
  9
$UCSORGTOP
 10
0.0
 20
0.0
 30
0.0
  9
$UCSORGBOTTOM
 10
0.0
 20
0.0
 30
0.0
  9
$UCSORGLEFT
 10
0.0
 20
0.0
 30
0.0
  9
$UCSORGRIGHT
 10
0.0
 20
0.0
 30
0.0
  9
$UCSORGFRONT
 10
0.0
 20
0.0
 30
0.0
  9
$UCSORGBACK
 10
0.0
 20
0.0
 30
0.0
  9
$PUCSBASE
  2

  9
$PUCSNAME
  2

  9
$PUCSORG
 10
0.0
 20
0.0
 30
0.0
  9
$PUCSXDIR
 10
1.0
 20
0.0
 30
0.0
  9
$PUCSYDIR
 10
0.0
 20
1.0
 30
0.0
  9
$PUCSORTHOREF
  2

  9
$PUCSORTHOVIEW
 70
     0
  9
$PUCSORGTOP
 10
0.0
 20
0.0
 30
0.0
  9
$PUCSORGBOTTOM
 10
0.0
 20
0.0
 30
0.0
  9
$PUCSORGLEFT
 10
0.0
 20
0.0
 30
0.0
  9
$PUCSORGRIGHT
 10
0.0
 20
0.0
 30
0.0
  9
$PUCSORGFRONT
 10
0.0
 20
0.0
 30
0.0
  9
$PUCSORGBACK
 10
0.0
 20
0.0
 30
0.0
  9
$USERI1
 70
     0
  9
$USERI2
 70
     0
  9
$USERI3
 70
     0
  9
$USERI4
 70
     0
  9
$USERI5
 70
     0
  9
$USERR1
 40
20.0
  9
$USERR2
 40
0.0
  9
$USERR3
 40
0.0
  9
$USERR4
 40
0.0
  9
$USERR5
 40
0.0
  9
$WORLDVIEW
 70
     1
  9
$SHADEDGE
 70
     3
  9
$SHADEDIF
 70
    70
  9
$TILEMODE
 70
     1
  9
$MAXACTVP
 70
    64
  9
$PINSBASE
 10
0.0
 20
0.0
 30
0.0
  9
$PLIMCHECK
 70
     0
  9
$PEXTMIN
 10
1.000000000000000E+20
 20
1.000000000000000E+20
 30
1.000000000000000E+20
  9
$PEXTMAX
 10
-1.000000000000000E+20
 20
-1.000000000000000E+20
 30
-1.000000000000000E+20
  9
$PLIMMIN
 10
0.0
 20
0.0
  9
$PLIMMAX
 10
12.0
 20
9.0
  9
$UNITMODE
 70
     0
  9
$VISRETAIN
 70
     1
  9
$PLINEGEN
 70
     0
  9
$PSLTSCALE
 70
     1
  9
$TREEDEPTH
 70
  3020
  9
$CMLSTYLE
  2
Standard
  9
$CMLJUST
 70
     0
  9
$CMLSCALE
 40
1.0
  9
$PROXYGRAPHICS
 70
     1
  9
$MEASUREMENT
 70
     0
  9
$CELWEIGHT
370
    -1
  9
$ENDCAPS
280
     0
  9
$JOINSTYLE
280
     0
  9
$LWDISPLAY
290
     0
  9
$INSUNITS
 70
     0
  9
$HYPERLINKBASE
  1

  9
$STYLESHEET
  1

  9
$XEDIT
290
     1
  9
$CEPSNTYPE
380
     0
  9
$PSTYLEMODE
290
     1
  9
$FINGERPRINTGUID
  2
{2028A508-413E-43CB-BF29-D76CE5CF06C9}
  9
$VERSIONGUID
  2
{DBA58136-CF1E-43D2-8623-1352130679C0}
  9
$EXTNAMES
290
     1
  9
$PSVPSCALE
 40
0.0
  9
$OLESTARTUP
290
     0
  9
$SORTENTS
280
   127
  9
$INDEXCTL
280
     1
  9
$HIDETEXT
280
     0
  9
$XCLIPFRAME
290
     0
  9
$HALOGAP
280
     0
  9
$OBSCOLOR
 70
   257
  9
$OBSLTYPE
280
     0
  9
$INTERSECTIONDISPLAY
280
     0
  9
$INTERSECTIONCOLOR
 70
   257
  9
$DIMASSOC
280
     1
  9
$PROJECTNAME
  1

  0
ENDSEC
  0
SECTION
  2
CLASSES
  0
CLASS
  1
ACDBDICTIONARYWDFLT
  2
AcDbDictionaryWithDefault
  3
ObjectDBX Classes
 90
        0
 91
        1
280
     0
281
     0
  0
CLASS
  1
MATERIAL
  2
AcDbMaterial
  3
ObjectDBX Classes
 90
     1153
 91
        3
280
     0
281
     0
  0
CLASS
  1
VISUALSTYLE
  2
AcDbVisualStyle
  3
ObjectDBX Classes
 90
     4095
 91
       16
280
     0
281
     0
  0
CLASS
  1
SCALE
  2
AcDbScale
  3
ObjectDBX Classes
 90
     1153
 91
       33
280
     0
281
     0
  0
CLASS
  1
TABLESTYLE
  2
AcDbTableStyle
  3
ObjectDBX Classes
 90
     4095
 91
        1
280
     0
281
     0
  0
CLASS
  1
MLEADERSTYLE
  2
AcDbMLeaderStyle
  3
ACDB_MLEADERSTYLE_CLASS
 90
     4095
 91
        1
280
     0
281
     0
  0
CLASS
  1
AMGSETTINGSOBJ
  2
AmgSettingsObj
  3
"AcadM|Product Description: AutoCAD Mechanical|Company: Autodesk, Inc."
 90
     1024
 91
        2
280
     0
281
     0
  0
CLASS
  1
ACME_DOCUMENT
  2
AcMeDbDoc
  3
AcMeServices
 90
     1024
 91
        2
280
     0
281
     0
  0
CLASS
  1
ACMESCOPE
  2
AcMeScope
  3
AcMeServices
 90
     1024
 91
        1
280
     0
281
     0
  0
CLASS
  1
ACMECOMMANDHISTORY
  2
AcMeCommandHistory
  3
AcMeServices
 90
     1024
 91
        1
280
     0
281
     0
  0
CLASS
  1
ACIMSYSVARMAN
  2
AcImSysVarManager
  3
AcMeServices
 90
     1024
 91
        6
280
     0
281
     0
  0
CLASS
  1
ACIMREALSYSVAR
  2
AcImRealSysVar
  3
AcMeServices
 90
     1024
 91
       16
280
     0
281
     0
  0
CLASS
  1
ACIMINTSYSVAR
  2
AcImIntSysVar
  3
AcMeServices
 90
     1024
 91
       45
280
     0
281
     0
  0
CLASS
  1
ACMEDRAWINGMAN
  2
AcMeDrawingMan
  3
AcMeServices
 90
     1024
 91
        1
280
     0
281
     0
  0
CLASS
  1
ACMEVIEW
  2
AcMeView
  3
AcMeServices
 90
     1024
 91
        1
280
     0
281
     0
  0
CLASS
  1
ACDBENTITYCACHE
  2
AcMeEntityCache
  3
AcMeServices
 90
     1024
 91
        1
280
     0
281
     0
  0
CLASS
  1
GSMANAGER
  2
AcMeGSManager
  3
AcMeServices
 90
     1024
 91
        1
280
     0
281
     0
  0
CLASS
  1
AMDTINTERNALREACTOR
  2
AmdtInternalReactor
  3
AcMeServices
 90
     1024
 91
        2
280
     0
281
     0
  0
CLASS
  1
ACMESTATEMGR
  2
AcMeStateMgr
  3
AcMeServices
 90
     1024
 91
        1
280
     0
281
     0
  0
CLASS
  1
ACGREFMASTER
  2
AcGrefMaster
  3
AcAttribServices
 90
     1024
 91
        1
280
     0
281
     0
  0
CLASS
  1
AM_DRAWING_MGR
  2
AcDmDwgMgr
  3
AcMechDwgViewMgmt
 90
     1024
 91
        1
280
     0
281
     0
  0
CLASS
  1
AM_DWG_DOCUMENT
  2
AcDmDwgDocument
  3
AcMechDwgViewMgmt
 90
     1024
 91
        1
280
     0
281
     0
  0
CLASS
  1
AM_DWG_SHEET
  2
AcDmSheet
  3
AcMechDwgViewMgmt
 90
     1024
 91
        1
280
     0
281
     0
  0
CLASS
  1
AM_VIEWDIMPARMAP
  2
AcDmViewDimParMap
  3
AcMechDwgViewMgmt
 90
     1024
 91
        1
280
     0
281
     0
  0
CLASS
  1
AM_DWGMGR_NAME
  2
AcDmDwgMgrName
  3
AcMechDwgViewMgmt
 90
     1024
 91
        1
280
     0
281
     0
  0
CLASS
  1
ACME_DATABASE
  2
AcMeDbDatabase
  3
AcMeServices
 90
     1024
 91
        1
280
     0
281
     0
  0
CLASS
  1
ACRFINSADJUSTERMGR
  2
AcRfInsAdjusterMgr
  3
AcMeServices
 90
     1024
 91
        1
280
     0
281
     0
  0
CLASS
  1
ACGREFACADMASTER
  2
AcGrefacadMaster
  3
AcGrefServices
 90
     1024
 91
        1
280
     0
281
     0
  0
CLASS
  1
AMDTMENUSTATEMGR
  2
AmdtMenuStateMgr
  3
McadcomServices
 90
     1024
 91
        1
280
     0
281
     0
  0
CLASS
  1
AMDTMCOMMENUSTATE
  2
AmdtMcomMenuState
  3
McadcomServices
 90
     1024
 91
        1
280
     0
281
     0
  0
CLASS
  1
AMIMASTER
  2
AmiMaster
  3
AmiServices
 90
     1024
 91
        1
280
     0
281
     0
  0
CLASS
  1
ASAPP
  2
AcAsAppObject
  3
AutoSurfServices
 90
     1024
 91
        1
280
     0
281
     0
  0
CLASS
  1
IM_STATIC_MAN
  2
AcImStaticVarManager
  3
AcMeServices
 90
     1024
 91
        1
280
     0
281
     0
  0
CLASS
  1
ACIMSTRSYSVAR
  2
AcImStrSysVar
  3
AcMeServices
 90
     1024
 91
       11
280
     0
281
     0
  0
CLASS
  1
ACIMDBLSTATICVAR
  2
AcImDblStaticVar
  3
AcMeServices
 90
     1024
 91
       20
280
     0
281
     0
  0
CLASS
  1
ACIMSTRSTATICVAR
  2
AcImStrStaticVar
  3
AcMeServices
 90
     1024
 91
       12
280
     0
281
     0
  0
CLASS
  1
ACIMINTSTATICVAR
  2
AcImIntStaticVar
  3
AcMeServices
 90
     1024
 91
       17
280
     0
281
     0
  0
CLASS
  1
ACASGREFMASTER
  2
AcAsGrefMaster
  3
AutoSurfResolverServices
 90
     1024
 91
        1
280
     0
281
     0
  0
CLASS
  1
ACADGREFMODULE
  2
AcAdGrefModule
  3
AdGrefServices
 90
     1024
 91
        1
280
     0
281
     0
  0
CLASS
  1
AMDTMAPISURFMOUDULE
  2
AmdtMApiSurfModule
  3
MApiSurfServices
 90
     1024
 91
        1
280
     0
281
     0
  0
CLASS
  1
MAPIAMMOUDLE
  2
MApiAmModule
  3
MApiAmServices
 90
     1024
 91
        1
280
     0
281
     0
  0
CLASS
  1
AMDTADMENUSTATE
  2
AmdtAdMenuState
  3
DesignerServices
 90
     1024
 91
        1
280
     0
281
     0
  0
CLASS
  1
ADAPPL
  2
AcAdAppl
  3
DesignerServices
 90
     1024
 91
        1
280
     0
281
     0
  0
CLASS
  1
DEPMGR
  2
AcAdDepMgr
  3
DesignerServices
 90
     1024
 91
        1
280
     0
281
     0
  0
CLASS
  1
PARAMMGR
  2
AcAdParamMgr
  3
DesignerServices
 90
     1024
 91
        1
280
     0
281
     0
  0
CLASS
  1
PARAMSCOPE
  2
AcAdParamScope
  3
DesignerServices
 90
     1024
 91
        1
280
     0
281
     0
  0
CLASS
  1
NAMEDAPPL
  2
AcAdNamedAppl
  3
DesignerServices
 90
     1024
 91
        1
280
     0
281
     0
  0
CLASS
  1
AMDTDMMENUSTATE
  2
AmdtDmMenuState
  3
AcMechDwgViewMgmt
 90
     1024
 91
        1
280
     0
281
     0
  0
CLASS
  1
MAPIADMODULE
  2
MApiAdModule
  3
MApiAdServices
 90
     1024
 91
        1
280
     0
281
     0
  0
CLASS
  1
AMDTAMMENUSTATE
  2
AmdtAmMenuState
  3
DesignerAssemblies
 90
     1024
 91
        1
280
     0
281
     0
  0
CLASS
  1
ACAMPROJECT
  2
AcAmProject
  3
DesignerAssemblies
 90
     1024
 91
        1
280
     0
281
     0
  0
CLASS
  1
ACAMGRCOMPDEF
  2
AcAmGrCompDef
  3
DesignerAssemblies
 90
     1024
 91
        1
280
     0
281
     0
  0
CLASS
  1
ACCMCONTEXT
  2
AcCmContext
  3
DesignerAssemblies
 90
     1024
 91
        1
280
     0
281
     0
  0
CLASS
  1
ACAMCOMPDEF
  2
AcAmCompDef
  3
DesignerAssemblies
 90
     1024
 91
        1
280
     0
281
     0
  0
CLASS
  1
ACAMCOMPDEFMGR
  2
AcAmCompDefMgr
  3
DesignerAssemblies
 90
     1024
 91
        1
280
     0
281
     0
  0
CLASS
  1
AMCONTEXTMGR
  2
AcAmContextMgr
  3
DesignerAssemblies
 90
     1024
 91
        1
280
     0
281
     0
  0
CLASS
  1
ACAMCONTEXTMODELER
  2
AcAmContextModeler
  3
DesignerAssemblies
 90
     1024
 91
        1
280
     0
281
     0
  0
CLASS
  1
ACMDATADICTIONARY
  2
AcmDataDictionary
  3
"AcmSymBB|Product Description: AutoCAD Mechanical|Company: Autodesk, Inc."
 90
     1024
 91
        1
280
     0
281
     0
  0
CLASS
  1
ACMDATAENTRYBLOCK
  2
AcmDataEntryBlock
  3
AcmSymBB|Product Description: AutoCAD Mechanical|Company: Autodesk, Inc.
 90
     1024
 91
        1
280
     0
281
     0
  0
CLASS
  1
ACRFATTGENMGR
  2
AcRfAttGeneralMgr
  3
AcAttribServices
 90
     1024
 91
        1
280
     0
281
     0
  0
CLASS
  1
ACRFOBJATTMGR
  2
AcRfObjAttGroupMgr
  3
AcAttribServices
 90
     1024
 91
        1
280
     0
281
     0
  0
CLASS
  1
ACRFMCADAPIATTHOLDER
  2
AcRfMCADAPIAttHolder
  3
AcAttribServices
 90
     1024
 91
        1
280
     0
281
     0
  0
CLASS
  1
AMDTSYSATTR
  2
AmdtSystemAttribute
  3
AcAttribServices
 90
     1024
 91
        1
280
     0
281
     0
  0
CLASS
  1
CATALOGSTATE
  2
AcAmCatalogState
  3
DesignerAssemblies
 90
     1024
 91
        1
280
     0
281
     0
  0
CLASS
  1
ACAMGRCOMPDEFSET
  2
AcAmGrCompDefSet
  3
DesignerAssemblies
 90
     1024
 91
        1
280
     0
281
     0
  0
CLASS
  1
AMDTBROWSERDBTAB
  2
AmdtBrowserDbTab
  3
McadcomServices
 90
     1024
 91
        1
280
     0
281
     0
  0
CLASS
  1
CBROWSERAPPOBJECT
  2
CBrowserAppObject
  3
McadcomServices
 90
     1024
 91
        3
280
     0
281
     0
  0
CLASS
  1
DM_PLACEHOLDER
  2
AcDmSelsetPlaceholder
  3
AcMechDwgViewMgmt
 90
     1024
 91
        1
280
     0
281
     0
  0
CLASS
  1
ACMSTANDARDANSI
  2
AcmStandardANSI
  3
"Amdt_StdImp|Product Description: AutoCAD Mechanical|Company: Autodesk, Inc."
 90
     1024
 91
        1
280
     0
281
     0
  0
CLASS
  1
ACMSURFSTANDARDANSI
  2
AcmSurfTextStdANSI
  3
"Amdt_StdImp|Product Description: AutoCAD Mechanical|Company: Autodesk, Inc."
 90
     1024
 91
        1
280
     0
281
     0
  0
CLASS
  1
ACMFCFSTANDARDANSI
  2
AcmFCFStdANSI
  3
"Amdt_StdImp|Product Description: AutoCAD Mechanical|Company: Autodesk, Inc."
 90
     1024
 91
        1
280
     0
281
     0
  0
CLASS
  1
ACMWELDSTANDARDANSI
  2
AcmWeldingStdANSI
  3
"Amdt_StdImp|Product Description: AutoCAD Mechanical|Company: Autodesk, Inc."
 90
     1024
 91
        1
280
     0
281
     0
  0
CLASS
  1
ACMIDSTANDARDANSI
  2
AcmIdStdANSI
  3
"Amdt_StdImp|Product Description: AutoCAD Mechanical|Company: Autodesk, Inc."
 90
     1024
 91
        1
280
     0
281
     0
  0
CLASS
  1
ACMDATUMSTANDARDANSI
  2
AcmDatumStdANSI
  3
"Amdt_StdImp|Product Description: AutoCAD Mechanical|Company: Autodesk, Inc."
 90
     1024
 91
        1
280
     0
281
     0
  0
CLASS
  1
ACMBOMSTANDARDANSI
  2
AcmBOMStdANSI
  3
"Amdt_StdImp|Product Description: AutoCAD Mechanical|Company: Autodesk, Inc."
 90
     1024
 91
        1
280
     0
281
     0
  0
CLASS
  1
ACMDETAILSTANDARDANSI
  2
AmdtDetailSymStdANSI
  3
"Amdt_StdImp|Product Description: AutoCAD Mechanical|Company: Autodesk, Inc."
 90
     1024
 91
        1
280
     0
281
     0
  0
CLASS
  1
ACMSECTIONSTANDARDANSI
  2
AmdtSectionSymStdANSI
  3
"Amdt_StdImp|Product Description: AutoCAD Mechanical|Company: Autodesk, Inc."
 90
     1024
 91
        1
280
     0
281
     0
  0
CLASS
  1
ACMCENTERLINESTANDARDANSI
  2
AmdtCenterLineStdANSI
  3
"Amdt_StdImp|Product Description: AutoCAD Mechanical|Company: Autodesk, Inc."
 90
     1024
 91
        1
280
     0
281
     0
  0
CLASS
  1
ACMTHREADLINESTANDARDANSI
  2
AmdtThreadLineStdANSI
  3
"Amdt_StdImp|Product Description: AutoCAD Mechanical|Company: Autodesk, Inc."
 90
     1024
 91
        1
280
     0
281
     0
  0
CLASS
  1
ACMNOTESTANDARDANSI
  2
AmdtNoteStdANSI
  3
"Amdt_StdImp|Product Description: AutoCAD Mechanical|Company: Autodesk, Inc."
 90
     1024
 91
        1
280
     0
281
     0
  0
CLASS
  1
ACMTAPERSTANDARDANSI
  2
AcmTaperStdANSI
  3
"Amdt_StdImp|Product Description: AutoCAD Mechanical|Company: Autodesk, Inc."
 90
     1024
 91
        1
280
     0
281
     0
  0
CLASS
  1
ACMANOOTATIONVIEWSTANDARDANSI
  2
AmdtAnViewStdANSI
  3
"Amdt_StdImp|Product Description: AutoCAD Mechanical|Company: Autodesk, Inc."
 90
     1024
 91
        1
280
     0
281
     0
  0
CLASS
  1
ACAMGLAYSTD
  2
AcAmgLayStd
  3
"AmgLay|Product Description: AutoCAD Mechanical|Company: Autodesk, Inc."
 90
     1024
 91
        1
280
     0
281
     0
  0
CLASS
  1
ACAMGDIMSTD
  2
AcAmgDimStd
  3
"AmgDim|Product Description: AutoCAD Mechanical|Company: Autodesk, Inc."
 90
     1024
 91
        1
280
     0
281
     0
  0
CLASS
  1
ACAMGHOLECHARTSTDANSI
  2
AcAmgHoleChartStdANSI
  3
AmgDim|Product Description: AutoCAD Mechanical|Company: Autodesk, Inc.
 90
     1024
 91
        1
280
     0
281
     0
  0
CLASS
  1
AMGOBJPROPCFG
  2
AmgObjPropCfg
  3
"AmgLay|Product Description: AutoCAD Mechanical|Company: Autodesk, Inc."
 90
     1025
 91
        1
280
     0
281
     0
  0
CLASS
  1
ACAMGTITLESTD
  2
AcAmgTitleStd
  3
"AmgTitle|Product Description: AutoCAD Mechanical|Company: Autodesk, Inc."
 90
     4095
 91
        1
280
     0
281
     0
  0
CLASS
  1
AMDTNOTETEMPLATEDB
  2
AmdtNoteTemplateDB
  3
AcmSymBB|Product Description: AutoCAD Mechanical|Company: Autodesk, Inc.
 90
     1024
 91
        6
280
     0
281
     0
  0
CLASS
  1
ACAMGFILTERDAT
  2
AcAmgFilterDat
  3
"AcadM|Product Description: AutoCAD Mechanical|Company: Autodesk, Inc."
 90
     1024
 91
        6
280
     0
281
     0
  0
CLASS
  1
LAYER_INDEX
  2
AcDbLayerIndex
  3
ObjectDBX Classes
 90
        0
 91
        1
280
     0
281
     0
  0
CLASS
  1
IDBUFFER
  2
AcDbIdBuffer
  3
ObjectDBX Classes
 90
        0
 91
       15
280
     0
281
     0
  0
CLASS
  1
DICTIONARYVAR
  2
AcDbDictionaryVar
  3
ObjectDBX Classes
 90
        0
 91
       10
280
     0
281
     0
  0
CLASS
  1
CELLSTYLEMAP
  2
AcDbCellStyleMap
  3
ObjectDBX Classes
 90
     1152
 91
        3
280
     0
281
     0
  0
CLASS
  1
ACMSTANDARDISO
  2
AcmStandardISO
  3
"Amdt_StdImp|Product Description: AutoCAD Mechanical|Company: Autodesk, Inc."
 90
     1024
 91
        0
280
     0
281
     0
  0
CLASS
  1
AMDTEDGESTANDARDISO13715
  2
AmdtEdgeStdISO13715
  3
"Amdt_StdImp|Product Description: AutoCAD Mechanical|Company: Autodesk, Inc."
 90
     1024
 91
        0
280
     0
281
     0
  0
CLASS
  1
ACMSURFSTANDARDISO2002
  2
AcmSurfTextStdISO2002
  3
"Amdt_StdImp|Product Description: AutoCAD Mechanical|Company: Autodesk, Inc."
 90
     1024
 91
        0
280
     0
281
     0
  0
CLASS
  1
ACMFCFSTANDARDISO
  2
AcmFCFStdISO
  3
"Amdt_StdImp|Product Description: AutoCAD Mechanical|Company: Autodesk, Inc."
 90
     1024
 91
        0
280
     0
281
     0
  0
CLASS
  1
ACMWELDSTANDARDISO
  2
AcmWeldingStdISO
  3
"Amdt_StdImp|Product Description: AutoCAD Mechanical|Company: Autodesk, Inc."
 90
     1024
 91
        0
280
     0
281
     0
  0
CLASS
  1
ACMIDSTANDARDISO
  2
AcmIdStdISO
  3
"Amdt_StdImp|Product Description: AutoCAD Mechanical|Company: Autodesk, Inc."
 90
     1024
 91
        0
280
     0
281
     0
  0
CLASS
  1
ACMDATUMSTANDARDISO
  2
AcmDatumStdISO
  3
"Amdt_StdImp|Product Description: AutoCAD Mechanical|Company: Autodesk, Inc."
 90
     1024
 91
        0
280
     0
281
     0
  0
CLASS
  1
ACMBOMSTANDARDISO
  2
AcmBOMStdISO
  3
"Amdt_StdImp|Product Description: AutoCAD Mechanical|Company: Autodesk, Inc."
 90
     1024
 91
        0
280
     0
281
     0
  0
CLASS
  1
ACMDETAILSTANDARDISO
  2
AmdtDetailSymStdISO
  3
"Amdt_StdImp|Product Description: AutoCAD Mechanical|Company: Autodesk, Inc."
 90
     1024
 91
        0
280
     0
281
     0
  0
CLASS
  1
ACMSECTIONSTANDARDISO2001
  2
AmdtSectionSymStdISO2001
  3
"Amdt_StdImp|Product Description: AutoCAD Mechanical|Company: Autodesk, Inc."
 90
     1024
 91
        0
280
     0
281
     0
  0
CLASS
  1
ACMCENTERLINESTANDARDISO
  2
AmdtCenterLineStdISO
  3
"Amdt_StdImp|Product Description: AutoCAD Mechanical|Company: Autodesk, Inc."
 90
     1024
 91
        0
280
     0
281
     0
  0
CLASS
  1
ACMTHREADLINESTANDARDISO
  2
AmdtThreadLineStdISO
  3
"Amdt_StdImp|Product Description: AutoCAD Mechanical|Company: Autodesk, Inc."
 90
     1024
 91
        0
280
     0
281
     0
  0
CLASS
  1
ACMNOTESTANDARDISO
  2
AmdtNoteStdISO
  3
"Amdt_StdImp|Product Description: AutoCAD Mechanical|Company: Autodesk, Inc."
 90
     1024
 91
        0
280
     0
281
     0
  0
CLASS
  1
ACMTAPERSTANDARDISO
  2
AcmTaperStdISO
  3
"Amdt_StdImp|Product Description: AutoCAD Mechanical|Company: Autodesk, Inc."
 90
     1024
 91
        0
280
     0
281
     0
  0
CLASS
  1
ACMANOOTATIONVIEWSTANDARDISO
  2
AmdtAnViewStdISO
  3
"Amdt_StdImp|Product Description: AutoCAD Mechanical|Company: Autodesk, Inc."
 90
     1024
 91
        0
280
     0
281
     0
  0
CLASS
  1
ACAMGHOLECHARTSTDISO
  2
AcAmgHoleChartStdISO
  3
AmgDim|Product Description: AutoCAD Mechanical|Company: Autodesk, Inc.
 90
     1024
 91
        0
280
     0
281
     0
  0
ENDSEC
  0
SECTION
  2
TABLES
  0
TABLE
  2
VPORT
  5
2698
330
0
100
AcDbSymbolTable
 70
     1
  0
VPORT
  5
2708
330
2698
100
AcDbSymbolTableRecord
100
AcDbViewportTableRecord
  2
*ACTIVE
 70
     0
 10
0.0
 20
0.0
 11
1.0
 21
1.0
 12
-988.2780659341896
 22
-425.6100800770687
 13
0.0
 23
0.0
 14
1.0
 24
1.0
 15
0.0
 25
0.0
 16
0.0
 26
0.0
 36
1.0
 17
412.9130363640506
 27
-212.6083278709657
 37
0.0
 40
2957.333003166546
 41
1.843184559710494
 42
50.0
 43
0.0
 44
0.0
 50
0.0
 51
0.0
 71
     0
 72
   100
 73
     1
 74
     0
 75
     0
 76
     0
 77
     0
 78
     0
281
     0
 65
     0
110
0.0
120
0.0
130
0.0
111
1.0
121
0.0
131
0.0
112
0.0
122
1.0
132
0.0
 79
     0
146
0.0
  0
ENDTAB
  0
TABLE
  2
LTYPE
  5
2695
330
0
100
AcDbSymbolTable
 70
    22
  0
LTYPE
  5
26F2
330
2695
100
AcDbSymbolTableRecord
100
AcDbLinetypeTableRecord
  2
ByBlock
 70
     0
  3

 72
    65
 73
     0
 40
0.0
  0
LTYPE
  5
26F3
330
2695
100
AcDbSymbolTableRecord
100
AcDbLinetypeTableRecord
  2
ByLayer
 70
     0
  3

 72
    65
 73
     0
 40
0.0
  0
LTYPE
  5
26F4
330
2695
100
AcDbSymbolTableRecord
100
AcDbLinetypeTableRecord
  2
CONTINUOUS
 70
     0
  3
実線
 72
    65
 73
     0
 40
0.0
  0
LTYPE
  5
2709
330
2695
100
AcDbSymbolTableRecord
100
AcDbLinetypeTableRecord
  2
DASHDOT
 70
     0
  3
____ _ ____ _ ____ _ ____ _ ____ _ ____ _ ____
 72
    65
 73
     4
 40
5.5
 49
4.0
 74
     0
 49
-0.6
 74
     0
 49
0.3
 74
     0
 49
-0.6
 74
     0
  0
LTYPE
  5
270A
330
2695
100
AcDbSymbolTableRecord
100
AcDbLinetypeTableRecord
  2
HIDDEN
 70
     0
  3
Hidden __ __ __ __ __ __ __ __ __ __ __ __ __ _
 72
    65
 73
     2
 40
0.375
 49
0.25
 74
     0
 49
-0.125
 74
     0
  0
LTYPE
  5
270B
330
2695
100
AcDbSymbolTableRecord
100
AcDbLinetypeTableRecord
  2
PHANTOM2
 70
     0
  3
Phantom (.5x) ___ _ _ ___ _ _ ___ _ _ ___ _ _
 72
    65
 73
     6
 40
1.25
 49
0.625
 74
     0
 49
-0.125
 74
     0
 49
0.125
 74
     0
 49
-0.125
 74
     0
 49
0.125
 74
     0
 49
-0.125
 74
     0
  0
LTYPE
  5
270C
330
2695
100
AcDbSymbolTableRecord
100
AcDbLinetypeTableRecord
  2
CENTER
 70
     0
  3
Center ____ _ ____ _ ____ _ ____ _ ____ _ ____
 72
    65
 73
     4
 40
2.0
 49
1.25
 74
     0
 49
-0.25
 74
     0
 49
0.25
 74
     0
 49
-0.25
 74
     0
  0
LTYPE
  5
270D
330
2695
100
AcDbSymbolTableRecord
100
AcDbLinetypeTableRecord
  2
ASULTYPE
 70
     0
  3
実線
 72
    65
 73
     2
 40
3.0
 49
2.5
 74
     0
 49
0.5
 74
     0
  0
LTYPE
  5
270E
330
2695
100
AcDbSymbolTableRecord
100
AcDbLinetypeTableRecord
  2
ASVLTYPE
 70
     0
  3
__ __ __ __ __ __ __ __ __ __ __ __ __ __ __ __ __ __ __ __ __
 72
    65
 73
     2
 40
0.75
 49
0.5
 74
     0
 49
-0.25
 74
     0
  0
LTYPE
  5
270F
330
2695
100
AcDbSymbolTableRecord
100
AcDbLinetypeTableRecord
  2
AM_ISO02W050
 70
     0
  3
__ __ __ __ __ __ __ __ __ __ __ __ __ __ __
 72
    65
 73
     2
 40
7.5
 49
6.0
 74
     0
 49
-1.5
 74
     0
  0
LTYPE
  5
2710
330
2695
100
AcDbSymbolTableRecord
100
AcDbLinetypeTableRecord
  2
AM_ISO08W050
 70
     0
  3
____ . ____ . ____ . ____ . ____ . ____ . ____
 72
    65
 73
     4
 40
18.0
 49
12.0
 74
     0
 49
-1.5
 74
     0
 49
3.0
 74
     0
 49
-1.5
 74
     0
  0
LTYPE
  5
2711
330
2695
100
AcDbSymbolTableRecord
100
AcDbLinetypeTableRecord
  2
AM_ISO09W050
 70
     0
  3
_____ . . _____ . . _____ . . ____ .. ____
 72
    65
 73
     6
 40
22.5
 49
12.0
 74
     0
 49
-1.5
 74
     0
 49
3.0
 74
     0
 49
-1.5
 74
     0
 49
3.0
 74
     0
 49
-1.5
 74
     0
  0
LTYPE
  5
2712
330
2695
100
AcDbSymbolTableRecord
100
AcDbLinetypeTableRecord
  2
AMCONSTR
 70
     0
  3
_______________________
 72
    65
 73
     2
 40
9999.0
 49
9999.0
 74
     0
 49
0.0
 74
     0
  0
LTYPE
  5
2713
330
2695
100
AcDbSymbolTableRecord
100
AcDbLinetypeTableRecord
  2
AM_ISO08W050X2
 70
     0
  3
__ . __ . __ . __ . __ . __
 72
    65
 73
     4
 40
9.0
 49
6.0
 74
     0
 49
-0.75
 74
     0
 49
1.5
 74
     0
 49
-0.75
 74
     0
  0
LTYPE
  5
2714
330
2695
100
AcDbSymbolTableRecord
100
AcDbLinetypeTableRecord
  2
AM_ISO02W050X2
 70
     0
  3
 _ _ _ _ _ _ _ _ _ _ _ _
 72
    65
 73
     2
 40
3.75
 49
3.0
 74
     0
 49
-0.75
 74
     0
  0
LTYPE
  5
2715
330
2695
100
AcDbSymbolTableRecord
100
AcDbLinetypeTableRecord
  2
AMZIGZAG
 70
     0
  3
/\/-/\/-/\/-/\/-/\/-/\/
 72
    65
 73
     2
 40
11.0001
 49
0.0001
 74
     0
 49
-11.0
 74
     0
  0
LTYPE
  5
2716
330
2695
100
AcDbSymbolTableRecord
100
AcDbLinetypeTableRecord
  2
CENTER2
 70
     0
  3
Center (.5x) ___ _ ___ _ ___ _ ___ _ ___ _ ___
 72
    65
 73
     4
 40
1.125
 49
0.75
 74
     0
 49
-0.125
 74
     0
 49
0.125
 74
     0
 49
-0.125
 74
     0
  0
LTYPE
  5
2717
330
2695
100
AcDbSymbolTableRecord
100
AcDbLinetypeTableRecord
  2
HIDDEN2
 70
     0
  3
Hidden (.5x) _ _ _ _ _ _ _ _ _ _ _ _ _ _ _ _ _
 72
    65
 73
     2
 40
0.1875
 49
0.125
 74
     0
 49
-0.0625
 74
     0
  0
LTYPE
  5
2718
330
2695
100
AcDbSymbolTableRecord
100
AcDbLinetypeTableRecord
  2
AMZIGZAG2
 70
     0
  3
/\/-/\/-/\/-/\/-/\/-/\/
 72
    65
 73
     2
 40
0.4401
 49
0.0001
 74
     0
 49
-0.4400000000000003
 74
     0
  0
LTYPE
  5
2719
330
2695
100
AcDbSymbolTableRecord
100
AcDbLinetypeTableRecord
  2
ACANSTGB
 70
     0
  3
__ . . __ . .
 72
    65
 73
     6
 40
0.35433070866
 49
0.15748031496
 74
     0
 49
-0.03937007874
 74
     0
 49
0.03937007874
 74
     0
 49
-0.03937007874
 74
     0
 49
0.03937007874
 74
     0
 49
-0.03937007874
 74
     0
  0
LTYPE
  5
271A
330
2695
100
AcDbSymbolTableRecord
100
AcDbLinetypeTableRecord
  2
ACANSTGL
 70
     0
  3
_ _ _ _ _
 72
    65
 73
     2
 40
0.11811023622
 49
0.07874015748
 74
     0
 49
-0.03937007874
 74
     0
  0
LTYPE
  5
297B
330
2695
100
AcDbSymbolTableRecord
100
AcDbLinetypeTableRecord
  2
ACISOWELD
 70
     0
  3
_ _ _ _ _
 72
    65
 73
     2
 40
2.0
 49
2.0
 74
     0
 49
-1.0
 74
     0
  0
LTYPE
  5
297C
330
2695
100
AcDbSymbolTableRecord
100
AcDbLinetypeTableRecord
  2
ACISOTGB
 70
     0
  3
__ . . __ . .
 72
    65
 73
     6
 40
9.0
 49
4.0
 74
     0
 49
-1.0
 74
     0
 49
1.0
 74
     0
 49
-1.0
 74
     0
 49
1.0
 74
     0
 49
-1.0
 74
     0
  0
LTYPE
  5
297D
330
2695
100
AcDbSymbolTableRecord
100
AcDbLinetypeTableRecord
  2
ACISOTGL
 70
     0
  3
_ _ _ _ _
 72
    65
 73
     2
 40
3.0
 49
2.0
 74
     0
 49
-1.0
 74
     0
  0
ENDTAB
  0
TABLE
  2
LAYER
  5
2692
102
{ACAD_XDICTIONARY
360
298D
102
}
330
0
100
AcDbSymbolTable
 70
    15
  0
LAYER
  5
26EC
102
{ACAD_XDICTIONARY
360
285B
102
}
330
2692
100
AcDbSymbolTableRecord
100
AcDbLayerTableRecord
  2
0
 70
     0
 62
     7
  6
CONTINUOUS
370
    -3
390
269F
  0
LAYER
  5
271B
102
{ACAD_XDICTIONARY
360
285D
102
}
330
2692
100
AcDbSymbolTableRecord
100
AcDbLayerTableRecord
  2
OUTLINE
 70
     0
 62
     3
  6
CONTINUOUS
370
    -3
390
269F
  0
LAYER
  5
271C
102
{ACAD_XDICTIONARY
360
285F
102
}
330
2692
100
AcDbSymbolTableRecord
100
AcDbLayerTableRecord
  2
SIZE
 70
     0
 62
    30
  6
CONTINUOUS
370
    -3
390
269F
  0
LAYER
  5
271D
102
{ACAD_XDICTIONARY
360
2861
102
}
330
2692
100
AcDbSymbolTableRecord
100
AcDbLayerTableRecord
  2
BASIS
 70
     0
 62
     6
  6
DASHDOT
370
    -3
390
269F
  0
LAYER
  5
271E
102
{ACAD_XDICTIONARY
360
2863
102
}
330
2692
100
AcDbSymbolTableRecord
100
AcDbLayerTableRecord
  2
DETAIL
 70
     0
 62
     5
  6
CONTINUOUS
370
    -3
390
269F
  0
LAYER
  5
271F
102
{ACAD_XDICTIONARY
360
2865
102
}
330
2692
100
AcDbSymbolTableRecord
100
AcDbLayerTableRecord
  2
ARRANGE
 70
     0
 62
     1
  6
CONTINUOUS
370
    -3
390
269F
  0
LAYER
  5
2720
330
2692
100
AcDbSymbolTableRecord
100
AcDbLayerTableRecord
  2
DEFPOINTS
 70
     0
 62
     7
  6
CONTINUOUS
290
     0
370
    -3
390
269F
  0
LAYER
  5
2721
102
{ACAD_XDICTIONARY
360
2867
102
}
330
2692
100
AcDbSymbolTableRecord
100
AcDbLayerTableRecord
  2
ETC
 70
     0
 62
    61
  6
CONTINUOUS
370
    -3
390
269F
  0
LAYER
  5
2722
102
{ACAD_XDICTIONARY
360
2869
102
}
330
2692
100
AcDbSymbolTableRecord
100
AcDbLayerTableRecord
  2
FIX
 70
     0
 62
    11
  6
CONTINUOUS
370
    -3
390
269F
  0
LAYER
  5
2723
102
{ACAD_XDICTIONARY
360
286B
102
}
330
2692
100
AcDbSymbolTableRecord
100
AcDbLayerTableRecord
  2
NOTE
 70
     0
 62
     4
  6
CONTINUOUS
370
    -3
390
269F
  0
LAYER
  5
2724
102
{ACAD_XDICTIONARY
360
286D
102
}
330
2692
100
AcDbSymbolTableRecord
100
AcDbLayerTableRecord
  2
SERVICESPACE
 70
     0
 62
     2
  6
DASHDOT
370
    -3
390
269F
  0
LAYER
  5
2725
102
{ACAD_XDICTIONARY
360
286F
102
}
330
2692
100
AcDbSymbolTableRecord
100
AcDbLayerTableRecord
  2
SYMBOLLINE
 70
     0
 62
    15
  6
CONTINUOUS
370
    -3
390
269F
  0
LAYER
  5
297E
102
{ACAD_XDICTIONARY
360
297F
102
}
330
2692
100
AcDbSymbolTableRecord
100
AcDbLayerTableRecord
  2
AM_VIS
 70
     0
 62
     4
  6
CONTINUOUS
370
    25
390
269F
  0
LAYER
  5
2980
330
2692
100
AcDbSymbolTableRecord
100
AcDbLayerTableRecord
  2
1
 70
     0
 62
     9
  6
CONTINUOUS
370
    -3
390
269F
1001
AcAecLayerStandard
1000

1000

  0
LAYER
  5
2A38
330
2692
100
AcDbSymbolTableRecord
100
AcDbLayerTableRecord
  2
AM_5
 70
     0
 62
     3
  6
CONTINUOUS
370
    15
390
269F
1001
AcAecLayerStandard
1000

1000

  0
ENDTAB
  0
TABLE
  2
STYLE
  5
2693
330
0
100
AcDbSymbolTable
 70
     8
  0
STYLE
  5
26ED
330
2693
100
AcDbSymbolTableRecord
100
AcDbTextStyleTableRecord
  2
STANDARD
 70
     0
 40
64.0
 41
0.9
 50
0.0
 71
     0
 42
64.0
  3
SIMPLEX.shx
  4
BIGFONT.shx
  0
STYLE
  5
26F1
330
2693
100
AcDbSymbolTableRecord
100
AcDbTextStyleTableRecord
  2
ANNOTATIVE
 70
     0
 40
0.0
 41
1.0
 50
0.0
 71
     0
 42
0.2
  3
txt
  4

1001
ACADANNOTATIVE
1000
AnnotativeData
1002
{
1070
     1
1070
     1
1002
}
  0
STYLE
  5
2726
330
2693
100
AcDbSymbolTableRecord
100
AcDbTextStyleTableRecord
  2

 70
     1
 40
0.0
 41
1.0
 50
0.0
 71
     0
 42
64.0
  3
genltshp.shx
  4

  0
STYLE
  5
2727
330
2693
100
AcDbSymbolTableRecord
100
AcDbTextStyleTableRecord
  2
ACANSTS
 70
     0
 40
1.0
 41
1.0
 50
0.0
 71
     0
 42
64.0
  3
romans.shx
  4
extfont.shx
  0
STYLE
  5
2728
330
2693
100
AcDbSymbolTableRecord
100
AcDbTextStyleTableRecord
  2
ACANSGDT
 70
     0
 40
0.0
 41
1.0
 50
0.0
 71
     0
 42
64.0
  3
amgdt.shx
  4

  0
STYLE
  5
2981
330
2693
100
AcDbSymbolTableRecord
100
AcDbTextStyleTableRecord
  2
0.7
 70
     0
 40
0.0
 41
0.7
 50
0.0
 71
     0
 42
30.0
  3
romans.shx
  4
extfont.shx
  0
STYLE
  5
2982
330
2693
100
AcDbSymbolTableRecord
100
AcDbTextStyleTableRecord
  2
ACISOTS
 70
     0
 40
1.0
 41
1.0
 50
0.0
 71
     0
 42
30.0
  3
isocp.shx
  4
extfont.shx
  0
STYLE
  5
2983
330
2693
100
AcDbSymbolTableRecord
100
AcDbTextStyleTableRecord
  2
ACISOGDT
 70
     0
 40
0.0
 41
1.0
 50
0.0
 71
     0
 42
30.0
  3
amgdt.shx
  4

  0
ENDTAB
  0
TABLE
  2
VIEW
  5
2696
330
0
100
AcDbSymbolTable
 70
     1
  0
VIEW
  5
2729
330
2696
100
AcDbSymbolTableRecord
100
AcDbViewTableRecord
  2
ALL
 70
     0
 40
4282.619807999997
 10
0.0
 20
41.30990399999999
 41
5940.0
 11
0.0
 21
0.0
 31
1.0
 12
0.0
 22
0.0
 32
0.0
 42
50.0
 43
0.0
 44
0.0
 50
0.0
 71
     0
281
     0
 72
     1
110
0.0
120
0.0
130
0.0
111
1.0
121
0.0
131
0.0
112
0.0
122
1.0
132
0.0
 79
     0
146
0.0
  0
ENDTAB
  0
TABLE
  2
UCS
  5
2697
330
0
100
AcDbSymbolTable
 70
     0
  0
ENDTAB
  0
TABLE
  2
APPID
  5
2699
330
0
100
AcDbSymbolTable
 70
    30
  0
APPID
  5
26EE
330
2699
100
AcDbSymbolTableRecord
100
AcDbRegAppTableRecord
  2
ACAD
 70
     0
  0
APPID
  5
26F5
330
2699
100
AcDbSymbolTableRecord
100
AcDbRegAppTableRecord
  2
ACADANNOTATIVE
 70
     0
  0
APPID
  5
26FF
330
2699
100
AcDbSymbolTableRecord
100
AcDbRegAppTableRecord
  2
ACAD_MLEADERVER
 70
     0
  0
APPID
  5
272A
330
2699
100
AcDbSymbolTableRecord
100
AcDbRegAppTableRecord
  2
GENIUS_GENDIM_13
 70
     0
  0
APPID
  5
272B
330
2699
100
AcDbSymbolTableRecord
100
AcDbRegAppTableRecord
  2
GENIUS_GENDTOL_13
 70
     0
  0
APPID
  5
272C
330
2699
100
AcDbSymbolTableRecord
100
AcDbRegAppTableRecord
  2
GENIUS_GE3DTOL_13
 70
     0
  0
APPID
  5
272D
330
2699
100
AcDbSymbolTableRecord
100
AcDbRegAppTableRecord
  2
MCAD_NO_VIS
 70
     0
  0
APPID
  5
272E
330
2699
100
AcDbSymbolTableRecord
100
AcDbRegAppTableRecord
  2
ACAD_TEMP_GRAPHIC
 70
     0
  0
APPID
  5
272F
330
2699
100
AcDbSymbolTableRecord
100
AcDbRegAppTableRecord
  2
AD_DRAW
 70
     0
  0
APPID
  5
2730
330
2699
100
AcDbSymbolTableRecord
100
AcDbRegAppTableRecord
  2
ACATTRIBSERVICES
 70
     0
  0
APPID
  5
2731
330
2699
100
AcDbSymbolTableRecord
100
AcDbRegAppTableRecord
  2
ASURF_PCURVE_APPNAME
 70
     0
  0
APPID
  5
2732
330
2699
100
AcDbSymbolTableRecord
100
AcDbRegAppTableRecord
  2
AMG_3D2D_5_0
 70
     0
  0
APPID
  5
2733
330
2699
100
AcDbSymbolTableRecord
100
AcDbRegAppTableRecord
  2
DESIGNERASSEMBLIES
 70
     0
  0
APPID
  5
2734
330
2699
100
AcDbSymbolTableRecord
100
AcDbRegAppTableRecord
  2
ACADM_DIM_EDIT
 70
     0
  0
APPID
  5
2735
330
2699
100
AcDbSymbolTableRecord
100
AcDbRegAppTableRecord
  2
AMDT_DM_ADJ
 70
     0
  0
APPID
  5
2736
330
2699
100
AcDbSymbolTableRecord
100
AcDbRegAppTableRecord
  2
ACAD_DSTYLE_DIMARC_LENGTH_
 70
     0
  0
APPID
  5
2737
330
2699
100
AcDbSymbolTableRecord
100
AcDbRegAppTableRecord
  2
ACAD_DSTYLE_DIMJOGGED_JOGA
 70
     0
  0
APPID
  5
2738
330
2699
100
AcDbSymbolTableRecord
100
AcDbRegAppTableRecord
  2
ACAD_PSEXT
 70
     0
  0
APPID
  5
2739
330
2699
100
AcDbSymbolTableRecord
100
AcDbRegAppTableRecord
  2
ACAD_EXEMPT_FROM_CAD_STANDARDS
 70
     0
  0
APPID
  5
273A
330
2699
100
AcDbSymbolTableRecord
100
AcDbRegAppTableRecord
  2
ACAD_DSTYLE_DIMJAG
 70
     0
  0
APPID
  5
273B
330
2699
100
AcDbSymbolTableRecord
100
AcDbRegAppTableRecord
  2
ACAD_DSTYLE_DIMTALN
 70
     0
  0
APPID
  5
273C
330
2699
100
AcDbSymbolTableRecord
100
AcDbRegAppTableRecord
  2
AMG_3D2D_5_00
 70
     0
  0
APPID
  5
273D
330
2699
100
AcDbSymbolTableRecord
100
AcDbRegAppTableRecord
  2
AMG_3D2D_5_01
 70
     0
  0
APPID
  5
27FB
330
2699
100
AcDbSymbolTableRecord
100
AcDbRegAppTableRecord
  2
AMG_3D2D_5.0
 70
     0
  0
APPID
  5
2898
330
2699
100
AcDbSymbolTableRecord
100
AcDbRegAppTableRecord
  2
ACAD_DSTYLE_DIMARC_LENGTH_SYMBOL
 70
     0
  0
APPID
  5
2899
330
2699
100
AcDbSymbolTableRecord
100
AcDbRegAppTableRecord
  2
ACAD_DSTYLE_DIM_LINETYPE
 70
     0
  0
APPID
  5
289A
330
2699
100
AcDbSymbolTableRecord
100
AcDbRegAppTableRecord
  2
ACAD_DSTYLE_DIM_EXT1_LINETYPE
 70
     0
  0
APPID
  5
289B
330
2699
100
AcDbSymbolTableRecord
100
AcDbRegAppTableRecord
  2
ACAD_DSTYLE_DIM_EXT2_LINETYPE
 70
     0
  0
APPID
  5
298C
330
2699
100
AcDbSymbolTableRecord
100
AcDbRegAppTableRecord
  2
AcAecLayerStandard
 70
     0
  0
APPID
  5
2C4A
330
2699
100
AcDbSymbolTableRecord
100
AcDbRegAppTableRecord
  2
ACAD_DSTYLE_DIMINSPECT
 70
     0
  0
ENDTAB
  0
TABLE
  2
DIMSTYLE
  5
269A
330
0
100
AcDbSymbolTable
 70
    18
100
AcDbDimStyleTable
 71
     3
340
273E
340
26EF
340
2985
  0
DIMSTYLE
105
26EF
330
269A
100
AcDbSymbolTableRecord
100
AcDbDimStyleTableRecord
  2
STANDARD
 70
     0
 41
12.0
 42
20.0
 44
20.0
 77
     1
 78
     8
140
64.0
141
0.0
147
10.0
172
     1
275
     1
279
     2
284
     7
285
     7
286
     7
340
26ED
342
2751
1001
ACAD_DSTYLE_DIMJAG
1070
   388
1040
1.5
1001
ACAD_DSTYLE_DIMTALN
1070
   392
1070
     0
  0
DIMSTYLE
105
26F0
330
269A
100
AcDbSymbolTableRecord
100
AcDbDimStyleTableRecord
  2
ANNOTATIVE
 70
     0
275
     1
279
     2
284
     7
285
     7
286
     7
340
26ED
1001
ACADANNOTATIVE
1000
AnnotativeData
1002
{
1070
     1
1070
     1
1002
}
  0
DIMSTYLE
105
273E
330
269A
100
AcDbSymbolTableRecord
100
AcDbDimStyleTableRecord
  2
AM_ANSI
 70
     0
  4
mm
 41
0.12
 42
0.05
 43
0.5
 44
0.1
 47
0.1
 48
0.1
 78
     7
 79
     2
140
0.12
141
0.0
146
0.71
147
0.06
176
   256
177
   256
178
     2
274
     4
284
     7
340
26ED
371
    -1
372
    -1
1001
ACAD_DSTYLE_DIMARC_LENGTH_SYMBOL
1070
   379
1070
     1
1001
ACAD_DSTYLE_DIM_LINETYPE
1070
   380
1005
26F2
1001
ACAD_DSTYLE_DIM_EXT1_LINETYPE
1070
   381
1005
26F2
1001
ACAD_DSTYLE_DIM_EXT2_LINETYPE
1070
   382
1005
26F2
  0
DIMSTYLE
105
273F
330
269A
100
AcDbSymbolTableRecord
100
AcDbDimStyleTableRecord
  2
AM_ANSI$3
 70
     0
  4
mm
 41
0.12
 42
0.05
 43
0.5
 44
0.1
 47
0.1
 48
0.1
 78
     7
 79
     2
140
0.12
141
0.0
146
0.71
147
0.06
176
   256
177
   256
178
     2
274
     4
284
     7
288
     1
289
     0
340
26ED
371
    -1
372
    -1
1001
ACAD_DSTYLE_DIMARC_LENGTH_SYMBOL
1070
   379
1070
     1
1001
ACAD_DSTYLE_DIM_LINETYPE
1070
   380
1005
26F2
1001
ACAD_DSTYLE_DIM_EXT1_LINETYPE
1070
   381
1005
26F2
1001
ACAD_DSTYLE_DIM_EXT2_LINETYPE
1070
   382
1005
26F2
  0
DIMSTYLE
105
2740
330
269A
100
AcDbSymbolTableRecord
100
AcDbDimStyleTableRecord
  2
AM_ANSI$4
 70
     0
  4
mm
 41
0.12
 42
0.05
 43
0.5
 44
0.1
 47
0.1
 48
0.1
 78
     7
 79
     2
140
0.12
141
0.0
146
0.71
147
0.06
176
   256
177
   256
178
     2
274
     4
284
     7
340
26ED
371
    -1
372
    -1
1001
ACAD_DSTYLE_DIMARC_LENGTH_SYMBOL
1070
   379
1070
     1
1001
ACAD_DSTYLE_DIM_LINETYPE
1070
   380
1005
26F2
1001
ACAD_DSTYLE_DIM_EXT1_LINETYPE
1070
   381
1005
26F2
1001
ACAD_DSTYLE_DIM_EXT2_LINETYPE
1070
   382
1005
26F2
  0
DIMSTYLE
105
2741
330
269A
100
AcDbSymbolTableRecord
100
AcDbDimStyleTableRecord
  2
AM_ANSI$7
 70
     0
  4
mm
 41
0.12
 42
0.05
 43
0.5
 44
0.1
 47
0.1
 48
0.1
 78
     7
 79
     2
140
0.12
141
0.0
146
0.71
147
0.06
176
   256
177
   256
178
     2
274
     4
284
     7
340
26ED
371
    -1
372
    -1
1001
ACAD_DSTYLE_DIMARC_LENGTH_SYMBOL
1070
   379
1070
     1
1001
ACAD_DSTYLE_DIM_LINETYPE
1070
   380
1005
26F2
1001
ACAD_DSTYLE_DIM_EXT1_LINETYPE
1070
   381
1005
26F2
1001
ACAD_DSTYLE_DIM_EXT2_LINETYPE
1070
   382
1005
26F2
  0
DIMSTYLE
105
2742
330
269A
100
AcDbSymbolTableRecord
100
AcDbDimStyleTableRecord
  2
AM_ANSI$SF
 70
     0
  4
mm
 41
0.12
 42
0.05
 43
0.5
 44
0.1
 47
0.1
 48
0.1
 75
     1
 76
     1
 78
     7
 79
     2
140
0.12
141
0.0
146
0.71
147
0.06
176
   256
177
   256
178
     2
274
     4
284
     7
340
26ED
371
    -1
372
    -1
1001
ACAD_DSTYLE_DIMARC_LENGTH_SYMBOL
1070
   379
1070
     1
1001
ACAD_DSTYLE_DIM_LINETYPE
1070
   380
1005
26F2
1001
ACAD_DSTYLE_DIM_EXT1_LINETYPE
1070
   381
1005
26F2
1001
ACAD_DSTYLE_DIM_EXT2_LINETYPE
1070
   382
1005
26F2
  0
DIMSTYLE
105
2743
330
269A
100
AcDbSymbolTableRecord
100
AcDbDimStyleTableRecord
  2
AM_ANSI$SH
 70
     0
  4
mm
 41
0.12
 42
0.05
 43
0.5
 44
0.1
 47
0.1
 48
0.1
 75
     1
 76
     1
 78
     7
 79
     2
140
0.12
141
0.0
146
0.71
147
0.06
173
     1
176
   256
177
   256
178
     2
274
     4
284
     7
340
26ED
343
2757
371
    -1
372
    -1
1001
ACAD_DSTYLE_DIMARC_LENGTH_SYMBOL
1070
   379
1070
     1
1001
ACAD_DSTYLE_DIM_LINETYPE
1070
   380
1005
26F2
1001
ACAD_DSTYLE_DIM_EXT1_LINETYPE
1070
   381
1005
26F2
1001
ACAD_DSTYLE_DIM_EXT2_LINETYPE
1070
   382
1005
26F2
  0
DIMSTYLE
105
2744
330
269A
100
AcDbSymbolTableRecord
100
AcDbDimStyleTableRecord
  2
STANDARD1
 70
     0
 40
6.0
 41
2.5
 42
0.625
 43
6.0
 44
1.25
 47
1.0
 48
0.5
 77
     1
 78
     8
140
2.5
141
0.0
146
0.6
147
1.0
173
     1
275
     1
279
     2
284
     7
285
     7
286
     7
340
26ED
  0
DIMSTYLE
105
2745
102
{ACAD_REACTORS
330
2A68
330
2AFD
330
2B94
330
2BEF
330
2C0E
330
2C77
102
}
330
269A
100
AcDbSymbolTableRecord
100
AcDbDimStyleTableRecord
  2
STANDARD$0
 70
     0
 41
12.0
 42
20.0
 44
20.0
 73
     0
 74
     0
 77
     1
 78
     8
140
64.0
141
0.0
147
10.0
172
     1
275
     1
279
     2
284
     7
285
     7
286
     7
340
26ED
342
2751
  0
DIMSTYLE
105
2984
330
269A
100
AcDbSymbolTableRecord
100
AcDbDimStyleTableRecord
  2
AM_JIS
 70
     0
  4
"
 40
10.0
 41
2.5
 42
1.0
 43
10.0
 44
1.0
 47
0.1
 48
0.1
 73
     0
 74
     0
 77
     3
 78
     8
 79
     2
140
3.5
141
0.0
143
0.0393701
146
0.71
147
1.5
172
     1
176
   256
177
   256
178
     2
271
     2
272
     3
274
     4
283
     0
284
     8
340
26ED
341
2755
342
2755
343
2755
344
2755
371
    -1
372
    -1
  0
DIMSTYLE
105
2985
330
269A
100
AcDbSymbolTableRecord
100
AcDbDimStyleTableRecord
  2
AM_ISO
 70
     0
  4
"
 41
3.5
 42
1.0
 43
10.0
 44
1.0
 47
0.1
 48
0.1
 73
     0
 74
     0
 77
     1
 78
     8
 79
     2
140
3.5
141
0.0
143
0.0393701
146
0.71
147
1.5
172
     1
176
   256
177
   256
178
     2
271
     2
272
     3
274
     4
283
     0
284
     8
340
26ED
371
    -1
372
    -1
1001
ACAD_DSTYLE_DIMARC_LENGTH_SYMBOL
1070
   379
1070
     1
1001
ACAD_DSTYLE_DIM_LINETYPE
1070
   380
1005
26F2
1001
ACAD_DSTYLE_DIM_EXT1_LINETYPE
1070
   381
1005
26F2
1001
ACAD_DSTYLE_DIM_EXT2_LINETYPE
1070
   382
1005
26F2
  0
DIMSTYLE
105
2986
330
269A
100
AcDbSymbolTableRecord
100
AcDbDimStyleTableRecord
  2
AM_ISO$3
 70
     0
  4
"
 41
3.5
 42
1.0
 43
10.0
 44
1.0
 47
0.1
 48
0.1
 73
     0
 77
     1
 78
     8
 79
     2
140
3.5
141
0.0
143
0.0393701
146
0.71
147
1.5
176
   256
177
   256
178
     2
271
     2
272
     3
274
     4
283
     0
284
     8
288
     1
289
     0
340
26ED
371
    -1
372
    -1
1001
ACAD_DSTYLE_DIMARC_LENGTH_SYMBOL
1070
   379
1070
     1
1001
ACAD_DSTYLE_DIM_LINETYPE
1070
   380
1005
26F2
1001
ACAD_DSTYLE_DIM_EXT1_LINETYPE
1070
   381
1005
26F2
1001
ACAD_DSTYLE_DIM_EXT2_LINETYPE
1070
   382
1005
26F2
  0
DIMSTYLE
105
2987
330
269A
100
AcDbSymbolTableRecord
100
AcDbDimStyleTableRecord
  2
AM_ISO$4
 70
     0
  4
"
 41
3.5
 42
1.0
 43
10.0
 44
1.0
 47
0.1
 48
0.1
 73
     0
 74
     0
 77
     1
 78
     8
 79
     2
140
3.5
141
0.0
143
0.0393701
146
0.71
147
1.5
172
     1
176
   256
177
   256
178
     2
271
     2
272
     3
274
     4
283
     0
284
     8
340
26ED
371
    -1
372
    -1
1001
ACAD_DSTYLE_DIMARC_LENGTH_SYMBOL
1070
   379
1070
     1
1001
ACAD_DSTYLE_DIM_LINETYPE
1070
   380
1005
26F2
1001
ACAD_DSTYLE_DIM_EXT1_LINETYPE
1070
   381
1005
26F2
1001
ACAD_DSTYLE_DIM_EXT2_LINETYPE
1070
   382
1005
26F2
  0
DIMSTYLE
105
2988
330
269A
100
AcDbSymbolTableRecord
100
AcDbDimStyleTableRecord
  2
AM_ISO$6
 70
     0
  4
"
 41
3.5
 42
1.0
 43
10.0
 44
1.0
 47
0.1
 48
0.1
 73
     0
 74
     0
 78
     8
 79
     2
140
3.5
141
0.0
143
0.0393701
146
0.71
147
1.5
172
     1
176
   256
177
   256
178
     2
271
     2
272
     3
274
     4
283
     0
284
     8
340
26ED
371
    -1
372
    -1
1001
ACAD_DSTYLE_DIMARC_LENGTH_SYMBOL
1070
   379
1070
     1
1001
ACAD_DSTYLE_DIM_LINETYPE
1070
   380
1005
26F2
1001
ACAD_DSTYLE_DIM_EXT1_LINETYPE
1070
   381
1005
26F2
1001
ACAD_DSTYLE_DIM_EXT2_LINETYPE
1070
   382
1005
26F2
  0
DIMSTYLE
105
2989
330
269A
100
AcDbSymbolTableRecord
100
AcDbDimStyleTableRecord
  2
AM_ISO$7
 70
     0
  4
"
 41
3.5
 42
1.0
 43
10.0
 44
1.0
 47
0.1
 48
0.1
 73
     0
 74
     0
 77
     1
 78
     8
 79
     2
140
3.5
141
0.0
143
0.0393701
146
0.71
147
1.5
172
     1
176
   256
177
   256
178
     2
271
     2
272
     3
274
     4
283
     0
284
     8
340
26ED
371
    -1
372
    -1
1001
ACAD_DSTYLE_DIMARC_LENGTH_SYMBOL
1070
   379
1070
     1
1001
ACAD_DSTYLE_DIM_LINETYPE
1070
   380
1005
26F2
1001
ACAD_DSTYLE_DIM_EXT1_LINETYPE
1070
   381
1005
26F2
1001
ACAD_DSTYLE_DIM_EXT2_LINETYPE
1070
   382
1005
26F2
  0
DIMSTYLE
105
298A
330
269A
100
AcDbSymbolTableRecord
100
AcDbDimStyleTableRecord
  2
AM_ISO$SF
 70
     0
  4
"
 41
3.5
 42
1.0
 43
10.0
 44
1.0
 47
0.1
 48
0.1
 73
     0
 74
     0
 75
     1
 76
     1
 77
     1
 78
     8
 79
     2
140
3.5
141
0.0
143
0.0393701
146
0.71
147
1.5
172
     1
176
   256
177
   256
178
     2
271
     2
272
     3
274
     4
283
     0
284
     8
340
26ED
371
    -1
372
    -1
1001
ACAD_DSTYLE_DIMARC_LENGTH_SYMBOL
1070
   379
1070
     1
1001
ACAD_DSTYLE_DIM_LINETYPE
1070
   380
1005
26F2
1001
ACAD_DSTYLE_DIM_EXT1_LINETYPE
1070
   381
1005
26F2
1001
ACAD_DSTYLE_DIM_EXT2_LINETYPE
1070
   382
1005
26F2
  0
DIMSTYLE
105
298B
330
269A
100
AcDbSymbolTableRecord
100
AcDbDimStyleTableRecord
  2
AM_ISO$SH
 70
     0
  4
"
 41
3.5
 42
1.0
 43
10.0
 44
1.0
 47
0.1
 48
0.1
 73
     0
 74
     0
 75
     1
 76
     1
 77
     1
 78
     8
 79
     2
140
3.5
141
0.0
143
0.0393701
144
2.0
146
0.71
147
1.5
172
     1
173
     1
176
   256
177
   256
178
     2
271
     2
272
     3
274
     4
283
     0
284
     8
340
26ED
343
2757
371
    -1
372
    -1
1001
ACAD_DSTYLE_DIMARC_LENGTH_SYMBOL
1070
   379
1070
     1
1001
ACAD_DSTYLE_DIM_LINETYPE
1070
   380
1005
26F2
1001
ACAD_DSTYLE_DIM_EXT1_LINETYPE
1070
   381
1005
26F2
1001
ACAD_DSTYLE_DIM_EXT2_LINETYPE
1070
   382
1005
26F2
  0
ENDTAB
  0
TABLE
  2
BLOCK_RECORD
  5
2691
330
0
100
AcDbSymbolTable
 70
    33
  0
BLOCK_RECORD
  5
2704
102
{ACAD_XDICTIONARY
360
2871
102
}
330
2691
100
AcDbSymbolTableRecord
100
AcDbBlockTableRecord
  2
*Model_Space
340
2707
  0
BLOCK_RECORD
  5
2700
330
2691
100
AcDbSymbolTableRecord
100
AcDbBlockTableRecord
  2
*Paper_Space
340
2703
  0
BLOCK_RECORD
  5
274D
330
2691
100
AcDbSymbolTableRecord
100
AcDbBlockTableRecord
  2
$MODEL_SPACE
340
0
  0
BLOCK_RECORD
  5
274F
330
2691
100
AcDbSymbolTableRecord
100
AcDbBlockTableRecord
  2
$PAPER_SPACE
340
0
  0
BLOCK_RECORD
  5
2751
330
2691
100
AcDbSymbolTableRecord
100
AcDbBlockTableRecord
  2
_ORIGIN
340
0
  0
BLOCK_RECORD
  5
2753
330
2691
100
AcDbSymbolTableRecord
100
AcDbBlockTableRecord
  2
_DOTBLANK
340
0
102
{BLKREFS
331
202C
331
202D
331
2035
331
2036
331
203E
331
203F
331
2047
331
2048
331
2052
331
2053
331
205D
331
205E
331
2D7E
331
2D7F
331
2D87
331
2D88
331
2D90
331
2D91
331
2D9C
331
2D9D
331
2DA7
331
2DA8
331
2DAF
331
2DB0
102
}
  0
BLOCK_RECORD
  5
2755
330
2691
100
AcDbSymbolTableRecord
100
AcDbBlockTableRecord
  2
_OPEN30
340
0
102
{BLKREFS
331
2199
331
2586
102
}
  0
BLOCK_RECORD
  5
2757
330
2691
100
AcDbSymbolTableRecord
100
AcDbBlockTableRecord
  2
GENAXEH
340
0
  0
BLOCK_RECORD
  5
275D
330
2691
100
AcDbSymbolTableRecord
100
AcDbBlockTableRecord
  2
*U8
340
0
102
{BLKREFS
331
202E
102
}
  0
BLOCK_RECORD
  5
2761
330
2691
100
AcDbSymbolTableRecord
100
AcDbBlockTableRecord
  2
*U10
340
0
102
{BLKREFS
331
2037
102
}
  0
BLOCK_RECORD
  5
2765
330
2691
100
AcDbSymbolTableRecord
100
AcDbBlockTableRecord
  2
*U12
340
0
102
{BLKREFS
331
2040
102
}
  0
BLOCK_RECORD
  5
2769
330
2691
100
AcDbSymbolTableRecord
100
AcDbBlockTableRecord
  2
*U14
340
0
102
{BLKREFS
331
2049
102
}
  0
BLOCK_RECORD
  5
276D
330
2691
100
AcDbSymbolTableRecord
100
AcDbBlockTableRecord
  2
*U16
340
0
102
{BLKREFS
331
2054
102
}
  0
BLOCK_RECORD
  5
2771
330
2691
100
AcDbSymbolTableRecord
100
AcDbBlockTableRecord
  2
*U18
340
0
102
{BLKREFS
331
205F
102
}
  0
BLOCK_RECORD
  5
2777
330
2691
100
AcDbSymbolTableRecord
100
AcDbBlockTableRecord
  2
*U21
340
0
102
{BLKREFS
331
2ADB
102
}
  0
BLOCK_RECORD
  5
2A69
330
2691
100
AcDbSymbolTableRecord
100
AcDbBlockTableRecord
  2
*D23
340
0
  0
BLOCK_RECORD
  5
2A9A
330
2691
100
AcDbSymbolTableRecord
100
AcDbBlockTableRecord
  2
_Origin2
340
0
  0
BLOCK_RECORD
  5
2AFE
330
2691
100
AcDbSymbolTableRecord
100
AcDbBlockTableRecord
  2
*D25
340
0
  0
BLOCK_RECORD
  5
2B49
330
2691
100
AcDbSymbolTableRecord
100
AcDbBlockTableRecord
  2
_Open90
340
0
  0
BLOCK_RECORD
  5
2B95
330
2691
100
AcDbSymbolTableRecord
100
AcDbBlockTableRecord
  2
*D28
340
0
  0
BLOCK_RECORD
  5
2BF0
330
2691
100
AcDbSymbolTableRecord
100
AcDbBlockTableRecord
  2
*D29
340
0
  0
BLOCK_RECORD
  5
2C0F
330
2691
100
AcDbSymbolTableRecord
100
AcDbBlockTableRecord
  2
*D30
340
0
  0
BLOCK_RECORD
  5
2C78
330
2691
100
AcDbSymbolTableRecord
100
AcDbBlockTableRecord
  2
*D31
340
0
  0
BLOCK_RECORD
  5
2D0C
330
2691
100
AcDbSymbolTableRecord
100
AcDbBlockTableRecord
  2
_Small
340
0
  0
ENDTAB
  0
ENDSEC
  0
SECTION
  2
BLOCKS
  0
BLOCK
  5
2705
330
2704
100
AcDbEntity
  8
0
100
AcDbBlockBegin
  2
*Model_Space
 70
     0
 10
0.0
 20
0.0
 30
0.0
  3
*Model_Space
  1

  0
ENDBLK
  5
2706
330
2704
100
AcDbEntity
  8
0
100
AcDbBlockEnd
  0
BLOCK
  5
2701
330
2700
100
AcDbEntity
 67
     1
  8
0
100
AcDbBlockBegin
  2
*Paper_Space
 70
     0
 10
0.0
 20
0.0
 30
0.0
  3
*Paper_Space
  1

  0
ENDBLK
  5
2702
330
2700
100
AcDbEntity
 67
     1
  8
0
100
AcDbBlockEnd
  0
BLOCK
  5
274E
330
274D
100
AcDbEntity
  8
0
100
AcDbBlockBegin
  2
$MODEL_SPACE
 70
     0
 10
0.0
 20
0.0
 30
0.0
  3
$MODEL_SPACE
  1

  0
ENDBLK
  5
2438
330
274D
100
AcDbEntity
  8
0
100
AcDbBlockEnd
  0
BLOCK
  5
2750
330
274F
100
AcDbEntity
  8
0
100
AcDbBlockBegin
  2
$PAPER_SPACE
 70
     0
 10
0.0
 20
0.0
 30
0.0
  3
$PAPER_SPACE
  1

  0
ENDBLK
  5
2434
330
274F
100
AcDbEntity
  8
0
100
AcDbBlockEnd
  0
BLOCK
  5
2752
330
2751
100
AcDbEntity
  8
0
100
AcDbBlockBegin
  2
_ORIGIN
 70
     0
 10
0.0
 20
0.0
 30
0.0
  3
_ORIGIN
  1

  0
CIRCLE
  5
880
330
2751
100
AcDbEntity
  8
0
  6
Continuous
 62
     7
100
AcDbCircle
 10
0.0
 20
0.0
 30
0.0
 40
0.5
  0
LINE
  5
881
330
2751
100
AcDbEntity
  8
0
  6
Continuous
 62
     7
100
AcDbLine
 10
0.0
 20
0.0
 30
0.0
 11
-1.0
 21
0.0
 31
0.0
  0
ENDBLK
  5
882
330
2751
100
AcDbEntity
  8
0
100
AcDbBlockEnd
  0
BLOCK
  5
2754
330
2753
100
AcDbEntity
  8
0
 62
     1
100
AcDbBlockBegin
  2
_DOTBLANK
 70
     0
 10
0.0
 20
0.0
 30
0.0
  3
_DOTBLANK
  1

  0
CIRCLE
  5
AB3
330
2753
100
AcDbEntity
  8
0
  6
ByBlock
 62
     0
100
AcDbCircle
 10
0.0
 20
0.0
 30
0.0
 40
0.5
  0
LINE
  5
AB4
330
2753
100
AcDbEntity
  8
0
  6
ByBlock
 62
     0
100
AcDbLine
 10
-0.5
 20
0.0
 30
0.0
 11
-1.0
 21
0.0
 31
0.0
  0
ENDBLK
  5
AB6
330
2753
100
AcDbEntity
  8
0
 62
     1
100
AcDbBlockEnd
  0
BLOCK
  5
2756
330
2755
100
AcDbEntity
  8
0
 62
     1
100
AcDbBlockBegin
  2
_OPEN30
 70
     0
 10
0.0
 20
0.0
 30
0.0
  3
_OPEN30
  1

  0
LINE
  5
AB8
330
2755
100
AcDbEntity
  8
0
  6
ByBlock
 62
     0
100
AcDbLine
 10
-1.0
 20
0.26794919
 30
0.0
 11
0.0
 21
0.0
 31
0.0
  0
LINE
  5
AB9
330
2755
100
AcDbEntity
  8
0
  6
ByBlock
 62
     0
100
AcDbLine
 10
0.0
 20
0.0
 30
0.0
 11
-1.0
 21
-0.26794919
 31
0.0
  0
LINE
  5
ABA
330
2755
100
AcDbEntity
  8
0
  6
ByBlock
 62
     0
100
AcDbLine
 10
0.0
 20
0.0
 30
0.0
 11
-1.0
 21
0.0
 31
0.0
  0
ENDBLK
  5
ABC
330
2755
100
AcDbEntity
  8
0
 62
     1
100
AcDbBlockEnd
  0
BLOCK
  5
2758
330
2757
100
AcDbEntity
  8
0
100
AcDbBlockBegin
  2
GENAXEH
 70
     0
 10
0.0
 20
0.0
 30
0.0
  3
GENAXEH
  1

  0
LINE
  5
FDB
330
2757
100
AcDbEntity
  8
0
100
AcDbLine
 10
-1.0
 20
0.0
 30
0.0
 11
1.0
 21
0.0
 31
0.0
  0
ENDBLK
  5
FDD
330
2757
100
AcDbEntity
  8
0
100
AcDbBlockEnd
  0
BLOCK
  5
275E
330
275D
100
AcDbEntity
  8
0
100
AcDbBlockBegin
  2
*U8
 70
     1
 10
0.0
 20
0.0
 30
0.0
  3
*U8
  1

  0
TEXT
  5
21A6
330
275D
100
AcDbEntity
  8
SIZE
 62
     0
100
AcDbText
 10
-61.7142857142857
 20
-608.0173952306003
 30
0.0
 40
64.0
  1
271
 41
0.9
100
AcDbText
  0
ENDBLK
  5
21A8
330
275D
100
AcDbEntity
  8
0
100
AcDbBlockEnd
  0
BLOCK
  5
2762
330
2761
100
AcDbEntity
  8
0
100
AcDbBlockBegin
  2
*U10
 70
     1
 10
0.0
 20
0.0
 30
0.0
  3
*U10
  1

  0
TEXT
  5
21AA
330
2761
100
AcDbEntity
  8
SIZE
 62
     0
100
AcDbText
 10
274.6432844803785
 20
-289.0571428571429
 30
0.0
 40
64.0
  1
430
 50
90.0
 41
0.9
100
AcDbText
  0
ENDBLK
  5
21AC
330
2761
100
AcDbEntity
  8
0
100
AcDbBlockEnd
  0
BLOCK
  5
2766
330
2765
100
AcDbEntity
  8
0
100
AcDbBlockBegin
  2
*U12
 70
     1
 10
0.0
 20
0.0
 30
0.0
  3
*U12
  1

  0
TEXT
  5
21AE
330
2765
100
AcDbEntity
  8
SIZE
 62
     0
100
AcDbText
 10
-74.05714285714283
 20
126.4516878685499
 30
0.0
 40
64.0
  1
280
 41
0.9
100
AcDbText
  0
ENDBLK
  5
21B0
330
2765
100
AcDbEntity
  8
0
100
AcDbBlockEnd
  0
BLOCK
  5
276A
330
2769
100
AcDbEntity
  8
0
100
AcDbBlockBegin
  2
*U14
 70
     1
 10
0.0
 20
0.0
 30
0.0
  3
*U14
  1

  0
TEXT
  5
21B2
330
2769
100
AcDbEntity
  8
SIZE
 62
     0
100
AcDbText
 10
-68.57142857142857
 20
235.5794621189598
 30
0.0
 40
64.0
  1
315
 41
0.9
100
AcDbText
  0
ENDBLK
  5
21B4
330
2769
100
AcDbEntity
  8
0
100
AcDbBlockEnd
  0
BLOCK
  5
276E
330
276D
100
AcDbEntity
  8
0
100
AcDbBlockBegin
  2
*U16
 70
     1
 10
0.0
 20
0.0
 30
0.0
  3
*U16
  1

  0
TEXT
  5
21B6
330
276D
100
AcDbEntity
  8
SIZE
 62
     0
100
AcDbText
 10
-209.7694545525301
 20
-80.4
 30
0.0
 40
64.0
  1
8
 50
90.0
 41
0.9
100
AcDbText
  0
ENDBLK
  5
21B8
330
276D
100
AcDbEntity
  8
0
100
AcDbBlockEnd
  0
BLOCK
  5
2772
330
2771
100
AcDbEntity
  8
0
100
AcDbBlockBegin
  2
*U18
 70
     1
 10
0.0
 20
0.0
 30
0.0
  3
*U18
  1

  0
TEXT
  5
21BA
330
2771
100
AcDbEntity
  8
SIZE
 62
     0
100
AcDbText
 10
274.6264412216261
 20
-532.6
 30
0.0
 40
64.0
  1
11
 50
90.0
 41
0.9
100
AcDbText
  0
ENDBLK
  5
21BC
330
2771
100
AcDbEntity
  8
0
100
AcDbBlockEnd
  0
BLOCK
  5
2778
330
2777
100
AcDbEntity
  8
0
100
AcDbBlockBegin
  2
*U21
 70
     1
 10
0.0
 20
0.0
 30
0.0
  3
*U21
  1

  0
INSERT
  5
2586
330
2777
100
AcDbEntity
  8
NOTE
100
AcDbBlockReference
  2
_OPEN30
 10
-325.0
 20
0.0
 30
0.0
 41
12.0
 42
12.0
 43
12.0
 50
312.6090116116894
  0
POLYLINE
  5
2587
330
2777
100
AcDbEntity
  8
NOTE
100
AcDb2dPolyline
 66
     1
 10
0.0
 20
0.0
 30
0.0
  0
VERTEX
  5
2588
330
2587
100
AcDbEntity
  8
NOTE
100
AcDbVertex
100
AcDb2dVertex
 10
-333.1239008361895
 20
8.831887408915473
 30
0.0
  0
VERTEX
  5
2589
330
2587
100
AcDbEntity
  8
NOTE
100
AcDbVertex
100
AcDb2dVertex
 10
-412.8693999922543
 20
95.5270950580134
 30
0.0
  0
VERTEX
  5
258A
330
2587
100
AcDbEntity
  8
NOTE
100
AcDbVertex
100
AcDb2dVertex
 10
-961.4522571351114
 20
95.5270950580134
 30
0.0
  0
SEQEND
  5
258B
330
2587
100
AcDbEntity
  8
NOTE
  0
ENDBLK
  5
258C
330
2777
100
AcDbEntity
  8
0
100
AcDbBlockEnd
  0
BLOCK
  5
2A6A
330
2A69
100
AcDbEntity
  8
0
100
AcDbBlockBegin
  2
*D23
 70
     1
 10
0.0
 20
0.0
 30
0.0
  3
*D23
  1

  0
LINE
  5
2D8D
330
2A69
100
AcDbEntity
  8
SIZE
 62
     0
370
    -2
100
AcDbLine
 10
-349.9999999999996
 20
20.0
 30
0.0
 11
-349.9999999999996
 21
224.505564987433
 31
0.0
  0
LINE
  5
2D8E
330
2A69
100
AcDbEntity
  8
SIZE
 62
     0
370
    -2
100
AcDbLine
 10
350.0
 20
20.0
 30
0.0
 11
350.0
 21
224.505564987433
 31
0.0
  0
LINE
  5
2D8F
330
2A69
100
AcDbEntity
  8
SIZE
 62
     0
370
    -2
100
AcDbLine
 10
-337.9999999999995
 20
204.505564987433
 30
0.0
 11
338.0
 21
204.505564987433
 31
0.0
  0
INSERT
  5
2D90
330
2A69
100
AcDbEntity
  8
SIZE
 62
     0
370
    -2
100
AcDbBlockReference
  2
_DOTBLANK
 10
-349.9999999999996
 20
204.505564987433
 30
0.0
 41
12.0
 42
12.0
 43
12.0
 50
180.0
  0
INSERT
  5
2D91
330
2A69
100
AcDbEntity
  8
SIZE
 62
     0
370
    -2
100
AcDbBlockReference
  2
_DOTBLANK
 10
350.0
 20
204.505564987433
 30
0.0
 41
12.0
 42
12.0
 43
12.0
  0
MTEXT
  5
2D92
330
2A69
100
AcDbEntity
  8
SIZE
 62
     0
100
AcDbMText
 10
0.0000000000002299
 20
246.505564987433
 30
0.0
 40
64.0
 41
0.0
 71
     5
 72
     1
  1
\A1;700
 73
     1
 44
1.0
  0
POINT
  5
2D93
330
2A69
100
AcDbEntity
  8
DEFPOINTS
 62
     0
100
AcDbPoint
 10
-349.9999999999996
 20
0.0
 30
0.0
  0
POINT
  5
2D94
330
2A69
100
AcDbEntity
  8
DEFPOINTS
 62
     0
100
AcDbPoint
 10
350.0
 20
0.0
 30
0.0
  0
POINT
  5
2D95
330
2A69
100
AcDbEntity
  8
DEFPOINTS
 62
     0
100
AcDbPoint
 10
350.0
 20
204.505564987433
 30
0.0
  0
ENDBLK
  5
2A6B
330
2A69
100
AcDbEntity
  8
0
100
AcDbBlockEnd
  0
BLOCK
  5
2A9E
330
2A9A
100
AcDbEntity
  8
0
100
AcDbBlockBegin
  2
_Origin2
 70
     0
 10
0.0
 20
0.0
 30
0.0
  3
_Origin2
  1

  0
CIRCLE
  5
2A9B
330
2A9A
100
AcDbEntity
  8
0
  6
ByBlock
 62
     0
370
    -2
100
AcDbCircle
 10
0.0
 20
0.0
 30
0.0
 40
0.5
  0
CIRCLE
  5
2A9C
330
2A9A
100
AcDbEntity
  8
0
  6
ByBlock
 62
     0
370
    -2
100
AcDbCircle
 10
0.0
 20
0.0
 30
0.0
 40
0.25
  0
LINE
  5
2A9D
330
2A9A
100
AcDbEntity
  8
0
  6
ByBlock
 62
     0
370
    -2
100
AcDbLine
 10
-0.5
 20
0.0
 30
0.0
 11
-1.0
 21
0.0
 31
0.0
  0
ENDBLK
  5
2A9F
330
2A9A
100
AcDbEntity
  8
0
100
AcDbBlockEnd
  0
BLOCK
  5
2AFF
330
2AFE
100
AcDbEntity
  8
0
100
AcDbBlockBegin
  2
*D25
 70
     1
 10
0.0
 20
0.0
 30
0.0
  3
*D25
  1

  0
LINE
  5
2D84
330
2AFE
100
AcDbEntity
  8
SIZE
370
    -2
100
AcDbLine
 10
-325.0
 20
32.5
 30
0.0
 11
-325.0
 21
121.014655417367
 31
0.0
  0
LINE
  5
2D85
330
2AFE
100
AcDbEntity
  8
SIZE
370
    -2
100
AcDbLine
 10
325.0
 20
32.5
 30
0.0
 11
325.0
 21
121.014655417367
 31
0.0
  0
LINE
  5
2D86
330
2AFE
100
AcDbEntity
  8
SIZE
370
    -2
100
AcDbLine
 10
-313.0
 20
101.014655417367
 30
0.0
 11
313.0
 21
101.014655417367
 31
0.0
  0
INSERT
  5
2D87
330
2AFE
100
AcDbEntity
  8
SIZE
370
    -2
100
AcDbBlockReference
  2
_DOTBLANK
 10
-325.0
 20
101.014655417367
 30
0.0
 41
12.0
 42
12.0
 43
12.0
 50
180.0
  0
INSERT
  5
2D88
330
2AFE
100
AcDbEntity
  8
SIZE
370
    -2
100
AcDbBlockReference
  2
_DOTBLANK
 10
325.0
 20
101.014655417367
 30
0.0
 41
12.0
 42
12.0
 43
12.0
  0
MTEXT
  5
2D89
330
2AFE
100
AcDbEntity
  8
SIZE
100
AcDbMText
 10
0.0000000000000026
 20
143.014655417367
 30
0.0
 40
64.0
 41
0.0
 71
     5
 72
     1
  1
\A1;650
 73
     1
 44
1.0
  0
POINT
  5
2D8A
330
2AFE
100
AcDbEntity
  8
DEFPOINTS
 62
     0
100
AcDbPoint
 10
-325.0
 20
12.5
 30
0.0
  0
POINT
  5
2D8B
330
2AFE
100
AcDbEntity
  8
DEFPOINTS
 62
     0
100
AcDbPoint
 10
325.0
 20
12.5
 30
0.0
  0
POINT
  5
2D8C
330
2AFE
100
AcDbEntity
  8
DEFPOINTS
 62
     0
100
AcDbPoint
 10
325.0
 20
101.014655417367
 30
0.0
  0
ENDBLK
  5
2B00
330
2AFE
100
AcDbEntity
  8
0
100
AcDbBlockEnd
  0
BLOCK
  5
2B4D
330
2B49
100
AcDbEntity
  8
0
100
AcDbBlockBegin
  2
_Open90
 70
     0
 10
0.0
 20
0.0
 30
0.0
  3
_Open90
  1

  0
LINE
  5
2B4A
330
2B49
100
AcDbEntity
  8
0
  6
ByBlock
 62
     0
370
    -2
100
AcDbLine
 10
-0.5
 20
0.5
 30
0.0
 11
0.0
 21
0.0
 31
0.0
  0
LINE
  5
2B4B
330
2B49
100
AcDbEntity
  8
0
  6
ByBlock
 62
     0
370
    -2
100
AcDbLine
 10
0.0
 20
0.0
 30
0.0
 11
-0.5
 21
-0.5
 31
0.0
  0
LINE
  5
2B4C
330
2B49
100
AcDbEntity
  8
0
  6
ByBlock
 62
     0
370
    -2
100
AcDbLine
 10
0.0
 20
0.0
 30
0.0
 11
-1.0
 21
0.0
 31
0.0
  0
ENDBLK
  5
2B4E
330
2B49
100
AcDbEntity
  8
0
100
AcDbBlockEnd
  0
BLOCK
  5
2B96
330
2B95
100
AcDbEntity
  8
0
100
AcDbBlockBegin
  2
*D28
 70
     1
 10
0.0
 20
0.0
 30
0.0
  3
*D28
  1

  0
LINE
  5
2D96
330
2B95
100
AcDbEntity
  8
SIZE
 62
     0
370
    -2
100
AcDbLine
 10
-369.9999999999996
 20
0.0000000000000057
 30
0.0
 11
-469.1362018103827
 21
0.0000000000000337
 31
0.0
  0
LINE
  5
2D97
330
2B95
100
AcDbEntity
  8
SIZE
 62
     0
370
    -2
100
AcDbLine
 10
-369.9999999999996
 20
-7.999999999999994
 30
0.0
 11
-469.1362018103827
 21
-7.999999999999967
 31
0.0
  0
LINE
  5
2D98
330
2B95
100
AcDbEntity
  8
SIZE
 62
     0
370
    -2
100
AcDbLine
 10
-449.1362018103827
 20
12.00000000000003
 30
0.0
 11
-449.1362018103827
 21
24.00000000000003
 31
0.0
  0
LINE
  5
2D99
330
2B95
100
AcDbEntity
  8
SIZE
 62
     0
370
    -2
100
AcDbLine
 10
-449.1362018103827
 20
-19.99999999999997
 30
0.0
 11
-449.1362018103827
 21
-31.99999999999997
 31
0.0
  0
MTEXT
  5
2D9A
330
2B95
100
AcDbEntity
  8
SIZE
 62
     0
100
AcDbMText
 10
-516.1362018103828
 20
-4.000000000000039
 30
0.0
 40
64.0
 41
0.0
 71
     5
 72
     1
  1
\A1;8
 11
0.0000000000000001
 21
1.0
 31
0.0
 73
     1
 44
1.0
  0
LINE
  5
2D9B
330
2B95
100
AcDbEntity
  8
SIZE
 62
     0
370
    -2
100
AcDbLine
 10
-449.1362018103827
 20
0.0000000000000281
 30
0.0
 11
-449.1362018103827
 21
-7.999999999999973
 31
0.0
  0
INSERT
  5
2D9C
330
2B95
100
AcDbEntity
  8
SIZE
 62
     0
370
    -2
100
AcDbBlockReference
  2
_DOTBLANK
 10
-449.1362018103827
 20
0.0000000000000281
 30
0.0
 41
12.0
 42
12.0
 43
12.0
 50
270.0
  0
INSERT
  5
2D9D
330
2B95
100
AcDbEntity
  8
SIZE
 62
     0
370
    -2
100
AcDbBlockReference
  2
_DOTBLANK
 10
-449.1362018103827
 20
-7.999999999999973
 30
0.0
 41
12.0
 42
12.0
 43
12.0
 50
90.0
  0
POINT
  5
2D9E
330
2B95
100
AcDbEntity
  8
DEFPOINTS
 62
     0
100
AcDbPoint
 10
-349.9999999999996
 20
0.0
 30
0.0
  0
POINT
  5
2D9F
330
2B95
100
AcDbEntity
  8
DEFPOINTS
 62
     0
100
AcDbPoint
 10
-349.9999999999996
 20
-8.0
 30
0.0
  0
POINT
  5
2DA0
330
2B95
100
AcDbEntity
  8
DEFPOINTS
 62
     0
100
AcDbPoint
 10
-449.1362018103827
 20
-7.999999999999973
 30
0.0
  0
ENDBLK
  5
2B97
330
2B95
100
AcDbEntity
  8
0
100
AcDbBlockEnd
  0
BLOCK
  5
2BF1
330
2BF0
100
AcDbEntity
  8
0
100
AcDbBlockBegin
  2
*D29
 70
     1
 10
0.0
 20
0.0
 30
0.0
  3
*D29
  1

  0
LINE
  5
2D7B
330
2BF0
100
AcDbEntity
  8
SIZE
 62
     0
370
    -2
100
AcDbLine
 10
331.6000000000004
 20
-940.0000000000002
 30
0.0
 11
531.4493531543737
 21
-940.0000000000002
 31
0.0
  0
LINE
  5
2D7C
330
2BF0
100
AcDbEntity
  8
SIZE
 62
     0
370
    -2
100
AcDbLine
 10
370.0
 20
-0.0000000000000057
 30
0.0
 11
531.4493531543739
 21
-0.0000000000000514
 31
0.0
  0
LINE
  5
2D7D
330
2BF0
100
AcDbEntity
  8
SIZE
 62
     0
370
    -2
100
AcDbLine
 10
511.4493531543737
 20
-928.0000000000002
 30
0.0
 11
511.449353154374
 21
-12.00000000000004
 31
0.0
  0
INSERT
  5
2D7E
330
2BF0
100
AcDbEntity
  8
SIZE
 62
     0
370
    -2
100
AcDbBlockReference
  2
_DOTBLANK
 10
511.4493531543737
 20
-940.0000000000002
 30
0.0
 41
12.0
 42
12.0
 43
12.0
 50
270.0
  0
INSERT
  5
2D7F
330
2BF0
100
AcDbEntity
  8
SIZE
 62
     0
370
    -2
100
AcDbBlockReference
  2
_DOTBLANK
 10
511.449353154374
 20
-0.0000000000000457
 30
0.0
 41
12.0
 42
12.0
 43
12.0
 50
90.0
  0
MTEXT
  5
2D80
330
2BF0
100
AcDbEntity
  8
SIZE
 62
     0
100
AcDbMText
 10
469.4493531543739
 20
-470.0000000000001
 30
0.0
 40
64.0
 41
0.0
 71
     5
 72
     1
  1
\A1;940
 11
0.0000000000000001
 21
1.0
 31
0.0
 73
     1
 44
1.0
  0
POINT
  5
2D81
330
2BF0
100
AcDbEntity
  8
DEFPOINTS
 62
     0
100
AcDbPoint
 10
311.6000000000004
 20
-940.0000000000002
 30
0.0
  0
POINT
  5
2D82
330
2BF0
100
AcDbEntity
  8
DEFPOINTS
 62
     0
100
AcDbPoint
 10
350.0
 20
0.0
 30
0.0
  0
POINT
  5
2D83
330
2BF0
100
AcDbEntity
  8
DEFPOINTS
 62
     0
100
AcDbPoint
 10
511.449353154374
 20
-0.0000000000000457
 30
0.0
  0
ENDBLK
  5
2BF2
330
2BF0
100
AcDbEntity
  8
0
100
AcDbBlockEnd
  0
BLOCK
  5
2C10
330
2C0F
100
AcDbEntity
  8
0
100
AcDbBlockBegin
  2
*D30
 70
     1
 10
0.0
 20
0.0
 30
0.0
  3
*D30
  1

  0
LINE
  5
2DA1
330
2C0F
100
AcDbEntity
  8
SIZE
 62
     0
370
    -2
100
AcDbLine
 10
331.6000000000004
 20
-940.0000000000003
 30
0.0
 11
531.4493531543739
 21
-940.0000000000003
 31
0.0
  0
LINE
  5
2DA2
330
2C0F
100
AcDbEntity
  8
SIZE
 62
     0
370
    -2
100
AcDbLine
 10
330.0000000000005
 20
-954.2000000000003
 30
0.0
 11
531.4493531543739
 21
-954.2000000000003
 31
0.0
  0
LINE
  5
2DA3
330
2C0F
100
AcDbEntity
  8
SIZE
 62
     0
370
    -2
100
AcDbLine
 10
511.449353154374
 20
-928.0000000000004
 30
0.0
 11
511.449353154374
 21
-916.0000000000005
 31
0.0
  0
LINE
  5
2DA4
330
2C0F
100
AcDbEntity
  8
SIZE
 62
     0
370
    -2
100
AcDbLine
 10
511.449353154374
 20
-966.2000000000002
 30
0.0
 11
511.449353154374
 21
-978.2000000000003
 31
0.0
  0
MTEXT
  5
2DA5
330
2C0F
100
AcDbEntity
  8
SIZE
 62
     0
100
AcDbMText
 10
460.6572924032807
 20
-1030.817232835975
 30
0.0
 40
64.0
 41
0.0
 71
     5
 72
     1
  1
\A1;15
 11
0.0000000000000001
 21
1.0
 31
0.0
 73
     1
 44
1.0
  0
LINE
  5
2DA6
330
2C0F
100
AcDbEntity
  8
SIZE
 62
     0
370
    -2
100
AcDbLine
 10
511.449353154374
 20
-940.0000000000003
 30
0.0
 11
511.449353154374
 21
-954.2000000000003
 31
0.0
  0
INSERT
  5
2DA7
330
2C0F
100
AcDbEntity
  8
SIZE
 62
     0
370
    -2
100
AcDbBlockReference
  2
_DOTBLANK
 10
511.449353154374
 20
-940.0000000000003
 30
0.0
 41
12.0
 42
12.0
 43
12.0
 50
270.0
  0
INSERT
  5
2DA8
330
2C0F
100
AcDbEntity
  8
SIZE
 62
     0
370
    -2
100
AcDbBlockReference
  2
_DOTBLANK
 10
511.449353154374
 20
-954.2000000000003
 30
0.0
 41
12.0
 42
12.0
 43
12.0
 50
90.0
  0
POINT
  5
2DA9
330
2C0F
100
AcDbEntity
  8
DEFPOINTS
 62
     0
100
AcDbPoint
 10
311.6000000000004
 20
-940.0000000000003
 30
0.0
  0
POINT
  5
2DAA
330
2C0F
100
AcDbEntity
  8
DEFPOINTS
 62
     0
100
AcDbPoint
 10
310.0000000000004
 20
-954.2000000000003
 30
0.0
  0
POINT
  5
2DAB
330
2C0F
100
AcDbEntity
  8
DEFPOINTS
 62
     0
100
AcDbPoint
 10
511.449353154374
 20
-954.2000000000003
 30
0.0
  0
ENDBLK
  5
2C11
330
2C0F
100
AcDbEntity
  8
0
100
AcDbBlockEnd
  0
BLOCK
  5
2C79
330
2C78
100
AcDbEntity
  8
0
100
AcDbBlockBegin
  2
*D31
 70
     1
 10
0.0
 20
0.0
 30
0.0
  3
*D31
  1

  0
LINE
  5
2DAC
330
2C78
100
AcDbEntity
  8
SIZE
 62
     0
370
    -2
100
AcDbLine
 10
-324.9999999999996
 20
-960.053689857176
 30
0.0
 11
-324.9999999999996
 21
-1165.730051376232
 31
0.0
  0
LINE
  5
2DAD
330
2C78
100
AcDbEntity
  8
SIZE
 62
     0
370
    -2
100
AcDbLine
 10
325.0
 20
-960.0536898571762
 30
0.0
 11
325.0
 21
-1165.730051376232
 31
0.0
  0
LINE
  5
2DAE
330
2C78
100
AcDbEntity
  8
SIZE
 62
     0
370
    -2
100
AcDbLine
 10
-312.9999999999995
 20
-1145.730051376232
 30
0.0
 11
313.0
 21
-1145.730051376232
 31
0.0
  0
INSERT
  5
2DAF
330
2C78
100
AcDbEntity
  8
SIZE
 62
     0
370
    -2
100
AcDbBlockReference
  2
_DOTBLANK
 10
-324.9999999999996
 20
-1145.730051376232
 30
0.0
 41
12.0
 42
12.0
 43
12.0
 50
180.0
  0
INSERT
  5
2DB0
330
2C78
100
AcDbEntity
  8
SIZE
 62
     0
370
    -2
100
AcDbBlockReference
  2
_DOTBLANK
 10
325.0
 20
-1145.730051376232
 30
0.0
 41
12.0
 42
12.0
 43
12.0
  0
MTEXT
  5
2DB1
330
2C78
100
AcDbEntity
  8
SIZE
 62
     0
100
AcDbMText
 10
0.0000000000002299
 20
-1103.730051376232
 30
0.0
 40
64.0
 41
0.0
 71
     5
 72
     1
  1
\A1;650
 73
     1
 44
1.0
  0
POINT
  5
2DB2
330
2C78
100
AcDbEntity
  8
DEFPOINTS
 62
     0
100
AcDbPoint
 10
-324.9999999999996
 20
-940.0536898571761
 30
0.0
  0
POINT
  5
2DB3
330
2C78
100
AcDbEntity
  8
DEFPOINTS
 62
     0
100
AcDbPoint
 10
325.0
 20
-940.0536898571761
 30
0.0
  0
POINT
  5
2DB4
330
2C78
100
AcDbEntity
  8
DEFPOINTS
 62
     0
100
AcDbPoint
 10
325.0
 20
-1145.730051376232
 30
0.0
  0
ENDBLK
  5
2C7A
330
2C78
100
AcDbEntity
  8
0
100
AcDbBlockEnd
  0
BLOCK
  5
2D0E
330
2D0C
100
AcDbEntity
  8
0
100
AcDbBlockBegin
  2
_Small
 70
     0
 10
0.0
 20
0.0
 30
0.0
  3
_Small
  1

  0
CIRCLE
  5
2D0D
330
2D0C
100
AcDbEntity
  8
0
  6
ByBlock
 62
     0
370
    -2
100
AcDbCircle
 10
0.0
 20
0.0
 30
0.0
 40
0.25
  0
ENDBLK
  5
2D0F
330
2D0C
100
AcDbEntity
  8
0
100
AcDbBlockEnd
  0
ENDSEC
  0
SECTION
  2
ENTITIES
  0
TEXT
  5
953
330
2704
100
AcDbEntity
  8
OUTLINE
  6
Continuous
 62
     3
100
AcDbText
 10
-418.231467
 20
13.715189
 30
0.0
 40
64.0
  1
 
 41
0.9
100
AcDbText
  0
TEXT
  5
954
330
2704
100
AcDbEntity
  8
OUTLINE
  6
Continuous
 62
     3
100
AcDbText
 10
-418.231467
 20
13.715189
 30
0.0
 40
64.0
  1
 
 41
0.9
100
AcDbText
  0
TEXT
  5
955
330
2704
100
AcDbEntity
  8
OUTLINE
  6
Continuous
 62
     3
100
AcDbText
 10
1341.41903
 20
-706.0588199999997
 30
0.0
 40
64.0
  1
 
 41
0.9
100
AcDbText
  0
TEXT
  5
956
330
2704
100
AcDbEntity
  8
OUTLINE
  6
Continuous
 62
     3
100
AcDbText
 10
1341.41903
 20
-706.0588199999997
 30
0.0
 40
64.0
  1
 
 41
0.9
100
AcDbText
  0
TEXT
  5
957
330
2704
100
AcDbEntity
  8
OUTLINE
  6
Continuous
 62
     3
100
AcDbText
 10
1341.41903
 20
-706.0588199999997
 30
0.0
 40
64.0
  1
 
 41
0.9
100
AcDbText
  0
TEXT
  5
958
330
2704
100
AcDbEntity
  8
OUTLINE
  6
Continuous
 62
     3
100
AcDbText
 10
1341.41903
 20
-706.0588199999997
 30
0.0
 40
64.0
  1
 
 41
0.9
100
AcDbText
  0
TEXT
  5
25F7
330
2704
100
AcDbEntity
  8
ETC
100
AcDbText
 10
256.2468308916505
 20
504.5403000770328
 30
0.0
 40
64.0
  1
システム部材
 41
0.9
100
AcDbText
  0
TEXT
  5
25F8
330
2704
100
AcDbEntity
  8
ETC
100
AcDbText
 10
262.4548288916485
 20
605.423626077033
 30
0.0
 40
64.0
  1
QWH-60KSA_1
 41
0.9
100
AcDbText
  0
CIRCLE
  5
25FC
330
2704
100
AcDbEntity
  8
ARRANGE
100
AcDbCircle
 10
0.0
 20
0.0
 30
0.0
 40
40.0
  0
TEXT
  5
2611
330
2704
100
AcDbEntity
  8
ETC
100
AcDbText
 10
262.4548288916485
 20
405.4236260770331
 30
0.0
 40
64.0
  1
QWH-60KSA
 41
0.9
100
AcDbText
  0
LINE
  5
29F3
330
2704
100
AcDbEntity
  8
OUTLINE
100
AcDbLine
 10
310.0
 20
0.0
 30
0.0
 11
-309.9999999999998
 21
0.0
 31
0.0
  0
LINE
  5
29F4
330
2704
100
AcDbEntity
  8
OUTLINE
100
AcDbLine
 10
-309.9999999999998
 20
0.0
 30
0.0
 11
-309.9999999999998
 21
-8.000000000000341
 31
0.0
  0
LINE
  5
29F5
330
2704
100
AcDbEntity
  8
OUTLINE
100
AcDbLine
 10
-311.5999999999999
 20
-8.0
 30
0.0
 11
-311.5999999999999
 21
-240.2000000000003
 31
0.0
  0
LINE
  5
29F6
330
2704
100
AcDbEntity
  8
OUTLINE
100
AcDbLine
 10
311.6000000000004
 20
-240.2000000000003
 30
0.0
 11
311.6000000000004
 21
-8.0
 31
0.0
  0
LINE
  5
29F7
330
2704
100
AcDbEntity
  8
OUTLINE
100
AcDbLine
 10
310.0
 20
-8.000000000000227
 30
0.0
 11
310.0
 21
0.0000000000002274
 31
0.0
  0
LINE
  5
29F8
330
2704
100
AcDbEntity
  8
OUTLINE
100
AcDbLine
 10
-309.9999999999998
 20
-8.0
 30
0.0
 11
310.0
 21
-8.0
 31
0.0
  0
LINE
  5
29F9
330
2704
100
AcDbEntity
  8
OUTLINE
100
AcDbLine
 10
-311.5999999999999
 20
-940.0000000000002
 30
0.0
 11
311.6000000000004
 21
-940.0000000000002
 31
0.0
  0
LINE
  5
29FA
330
2704
100
AcDbEntity
  8
OUTLINE
100
AcDbLine
 10
-306.9999999999998
 20
-954.2000000000003
 30
0.0
 11
307.0000000000005
 21
-954.2000000000003
 31
0.0
  0
LINE
  5
29FB
330
2704
100
AcDbEntity
  8
OUTLINE
100
AcDbLine
 10
310.0000000000004
 20
-953.4000000000004
 30
0.0
 11
310.0000000000004
 21
-940.0000000000003
 31
0.0
  0
LINE
  5
29FC
330
2704
100
AcDbEntity
  8
OUTLINE
100
AcDbLine
 10
307.0000000000005
 20
-953.4000000000004
 30
0.0
 11
307.0000000000005
 21
-954.2000000000003
 31
0.0
  0
LINE
  5
29FD
330
2704
100
AcDbEntity
  8
OUTLINE
100
AcDbLine
 10
310.0000000000004
 20
-954.2000000000003
 30
0.0
 11
310.0000000000004
 21
-953.4000000000004
 31
0.0
  0
LINE
  5
29FE
330
2704
100
AcDbEntity
  8
OUTLINE
100
AcDbLine
 10
307.0000000000005
 20
-954.2000000000003
 30
0.0
 11
310.0000000000004
 21
-954.2000000000003
 31
0.0
  0
LINE
  5
29FF
330
2704
100
AcDbEntity
  8
OUTLINE
100
AcDbLine
 10
310.0000000000004
 20
-953.4000000000004
 30
0.0
 11
307.0000000000005
 21
-953.4000000000004
 31
0.0
  0
LINE
  5
2A00
330
2704
100
AcDbEntity
  8
OUTLINE
100
AcDbLine
 10
-306.9999999999998
 20
-953.4000000000004
 30
0.0
 11
307.0000000000005
 21
-953.4000000000004
 31
0.0
  0
LINE
  5
2A01
330
2704
100
AcDbEntity
  8
OUTLINE
100
AcDbLine
 10
-309.9999999999998
 20
-940.0000000000003
 30
0.0
 11
-309.9999999999998
 21
-953.4000000000004
 31
0.0
  0
LINE
  5
2A02
330
2704
100
AcDbEntity
  8
OUTLINE
100
AcDbLine
 10
-309.9999999999998
 20
-953.4000000000004
 30
0.0
 11
-309.9999999999998
 21
-954.2000000000003
 31
0.0
  0
LINE
  5
2A03
330
2704
100
AcDbEntity
  8
OUTLINE
100
AcDbLine
 10
-307.0
 20
-953.4000000000004
 30
0.0
 11
-309.9999999999998
 21
-953.4000000000004
 31
0.0
  0
LINE
  5
2A04
330
2704
100
AcDbEntity
  8
OUTLINE
100
AcDbLine
 10
-306.9999999999998
 20
-954.2000000000003
 30
0.0
 11
-306.9999999999998
 21
-953.4000000000004
 31
0.0
  0
LINE
  5
2A05
330
2704
100
AcDbEntity
  8
OUTLINE
100
AcDbLine
 10
-309.9999999999998
 20
-954.2000000000003
 30
0.0
 11
-306.9999999999998
 21
-954.2000000000003
 31
0.0
  0
LINE
  5
2A06
330
2704
100
AcDbEntity
  8
OUTLINE
100
AcDbLine
 10
-311.5999999999999
 20
-940.0000000000002
 30
0.0
 11
-311.5999999999999
 21
-240.2000000000003
 31
0.0
  0
LINE
  5
2A07
330
2704
100
AcDbEntity
  8
OUTLINE
100
AcDbLine
 10
311.6000000000004
 20
-240.2000000000003
 30
0.0
 11
311.6000000000004
 21
-940.0000000000002
 31
0.0
  0
LINE
  5
2A08
330
2704
100
AcDbEntity
  8
OUTLINE
100
AcDbLine
 10
-311.5999999999999
 20
-939.2975645551059
 30
0.0
 11
-324.1999999999998
 21
-939.2975645551059
 31
0.0
  0
LINE
  5
2A09
330
2704
100
AcDbEntity
  8
OUTLINE
100
AcDbLine
 10
-309.9999999999996
 20
0.0000000000002274
 30
0.0
 11
-310.9999999999995
 21
0.0000000000002274
 31
0.0
  0
LINE
  5
2A0A
330
2704
100
AcDbEntity
  8
OUTLINE
100
AcDbLine
 10
-324.9999999999996
 20
-126.3315237589775
 30
0.0
 11
-324.9999999999996
 21
-125.1119668201547
 31
0.0
  0
LINE
  5
2A0B
330
2704
100
AcDbEntity
  8
OUTLINE
100
AcDbLine
 10
-324.9999999999996
 20
-125.1119668201547
 30
0.0
 11
-324.1999999999998
 21
-125.1119668201547
 31
0.0
  0
LINE
  5
2A0C
330
2704
100
AcDbEntity
  8
OUTLINE
100
AcDbLine
 10
-324.9999999999996
 20
-937.4419503028541
 30
0.0
 11
-324.9999999999996
 21
-126.3315237589775
 31
0.0
  0
LINE
  5
2A0D
330
2704
100
AcDbEntity
  8
OUTLINE
100
AcDbLine
 10
-324.1999999999996
 20
-126.3315237589775
 30
0.0
 11
-324.9999999999996
 21
-126.3315237589775
 31
0.0
  0
LINE
  5
2A0E
330
2704
100
AcDbEntity
  8
OUTLINE
100
AcDbLine
 10
-324.1999999999996
 20
-127.1251083263789
 30
0.0
 11
-324.1999999999998
 21
-937.4419503028539
 31
0.0
  0
LINE
  5
2A0F
330
2704
100
AcDbEntity
  8
OUTLINE
100
AcDbLine
 10
-324.1999999999998
 20
-937.4419503028537
 30
0.0
 11
-324.9999999999996
 21
-937.4419503028537
 31
0.0
  0
LINE
  5
2A10
330
2704
100
AcDbEntity
  8
OUTLINE
100
AcDbLine
 10
-324.1999999999998
 20
-940.0536898571759
 30
0.0
 11
-324.1999999999998
 21
-937.4419503028537
 31
0.0
  0
LINE
  5
2A11
330
2704
100
AcDbEntity
  8
OUTLINE
100
AcDbLine
 10
-324.9999999999996
 20
-940.0536898571761
 30
0.0
 11
-324.1999999999998
 21
-940.0536898571761
 31
0.0
  0
LINE
  5
2A12
330
2704
100
AcDbEntity
  8
OUTLINE
100
AcDbLine
 10
-324.9999999999996
 20
-937.4419503028521
 30
0.0
 11
-324.9999999999996
 21
-940.0536898571761
 31
0.0
  0
LINE
  5
2A13
330
2704
100
AcDbEntity
  8
OUTLINE
100
AcDbLine
 10
311.0
 20
0.0
 30
0.0
 11
310.0
 21
0.0
 31
0.0
  0
LINE
  5
2A14
330
2704
100
AcDbEntity
  8
OUTLINE
100
AcDbLine
 10
325.0
 20
-126.3315237589777
 30
0.0
 11
325.0
 21
-937.4419503028539
 31
0.0
  0
LINE
  5
2A15
330
2704
100
AcDbEntity
  8
OUTLINE
100
AcDbLine
 10
324.2000000000003
 20
-125.1119668201552
 30
0.0
 11
325.0
 21
-125.1119668201552
 31
0.0
  0
LINE
  5
2A16
330
2704
100
AcDbEntity
  8
OUTLINE
100
AcDbLine
 10
325.0
 20
-125.1119668201552
 30
0.0
 11
325.0
 21
-126.3315237589779
 31
0.0
  0
LINE
  5
2A17
330
2704
100
AcDbEntity
  8
OUTLINE
100
AcDbLine
 10
325.0
 20
-126.3315237589777
 30
0.0
 11
324.2000000000003
 21
-126.3315237589777
 31
0.0
  0
LINE
  5
2A18
330
2704
100
AcDbEntity
  8
OUTLINE
100
AcDbLine
 10
324.2000000000003
 20
-937.4419503028539
 30
0.0
 11
324.2000000000003
 21
-127.1251083263789
 31
0.0
  0
LINE
  5
2A19
330
2704
100
AcDbEntity
  8
OUTLINE
100
AcDbLine
 10
311.6000000000004
 20
-939.2975645551057
 30
0.0
 11
324.2000000000003
 21
-939.2975645551057
 31
0.0
  0
LINE
  5
2A1A
330
2704
100
AcDbEntity
  8
OUTLINE
100
AcDbLine
 10
324.2000000000003
 20
-940.0536898571758
 30
0.0
 11
325.0
 21
-940.0536898571758
 31
0.0
  0
LINE
  5
2A1B
330
2704
100
AcDbEntity
  8
OUTLINE
100
AcDbLine
 10
324.2000000000003
 20
-937.4419503028525
 30
0.0
 11
324.2000000000003
 21
-940.0536898571761
 31
0.0
  0
LINE
  5
2A1C
330
2704
100
AcDbEntity
  8
OUTLINE
100
AcDbLine
 10
325.0
 20
-937.4419503028537
 30
0.0
 11
324.2000000000003
 21
-937.4419503028537
 31
0.0
  0
LINE
  5
2A1D
330
2704
100
AcDbEntity
  8
OUTLINE
100
AcDbLine
 10
325.0
 20
-940.0536898571759
 30
0.0
 11
325.0
 21
-937.4419503028537
 31
0.0
  0
LINE
  5
2A1E
330
2704
100
AcDbEntity
  8
OUTLINE
100
AcDbLine
 10
-324.1999999999998
 20
-127.1251083263789
 30
0.0
 11
-311.5999999999999
 21
-127.1251083263789
 31
0.0
  0
LINE
  5
2A1F
330
2704
100
AcDbEntity
  8
OUTLINE
100
AcDbLine
 10
311.6000000000004
 20
-127.1251083263789
 30
0.0
 11
324.2000000000003
 21
-127.1251083263789
 31
0.0
  0
LINE
  5
2A20
330
2704
100
AcDbEntity
  8
OUTLINE
100
AcDbLine
 10
-324.1999999999998
 20
-126.3310761756488
 30
0.0
 11
-311.5999999999999
 21
-126.3310761756488
 31
0.0
  0
LINE
  5
2A21
330
2704
100
AcDbEntity
  8
OUTLINE
100
AcDbLine
 10
311.6000000000004
 20
-126.3310761756488
 30
0.0
 11
324.2000000000003
 21
-126.3310761756488
 31
0.0
  0
LINE
  5
2A22
330
2704
100
AcDbEntity
  8
OUTLINE
100
AcDbLine
 10
-324.1999999999998
 20
-125.1118971738069
 30
0.0
 11
-311.5999999999999
 21
-125.1118971738069
 31
0.0
  0
LINE
  5
2A23
330
2704
100
AcDbEntity
  8
OUTLINE
100
AcDbLine
 10
311.6000000000004
 20
-125.1118971738069
 30
0.0
 11
324.2000000000003
 21
-125.1118971738069
 31
0.0
  0
LINE
  5
2A24
330
2704
100
AcDbEntity
  8
OUTLINE
100
AcDbLine
 10
311.6000000000004
 20
-140.0
 30
0.0
 11
324.2000000000003
 21
-140.0
 31
0.0
  0
LINE
  5
2A25
330
2704
100
AcDbEntity
  8
OUTLINE
100
AcDbLine
 10
-311.5999999999999
 20
-140.0
 30
0.0
 11
-324.1999999999998
 21
-140.0
 31
0.0
  0
LINE
  5
2A26
330
2704
100
AcDbEntity
  8
OUTLINE
100
AcDbLine
 10
-324.1999999999998
 20
-125.1118971738069
 30
0.0
 11
-324.1999999999998
 21
-126.3310761756488
 31
0.0
  0
LINE
  5
2A27
330
2704
100
AcDbEntity
  8
OUTLINE
100
AcDbLine
 10
-324.1999999999998
 20
-126.3310761756488
 30
0.0
 11
-324.1999999999998
 21
-127.1251083263789
 31
0.0
  0
LINE
  5
2A28
330
2704
100
AcDbEntity
  8
OUTLINE
100
AcDbLine
 10
324.2000000000003
 20
-127.1251083263789
 30
0.0
 11
324.2000000000003
 21
-126.3310761756488
 31
0.0
  0
LINE
  5
2A29
330
2704
100
AcDbEntity
  8
OUTLINE
100
AcDbLine
 10
324.2000000000003
 20
-126.3310761756488
 30
0.0
 11
324.2000000000003
 21
-125.1118971738069
 31
0.0
  0
LINE
  5
2A2A
330
2704
100
AcDbEntity
  8
OUTLINE
100
AcDbLine
 10
310.1514718625763
 20
-0.5999999999999091
 30
0.0
 11
310.0
 21
-0.5999999999999091
 31
0.0
  0
LINE
  5
2A2B
330
2704
100
AcDbEntity
  8
OUTLINE
100
AcDbLine
 10
310.1514718625763
 20
-0.5999999999999091
 30
0.0
 11
311.0
 21
0.0000000000001137
 31
0.0
  0
LINE
  5
2A2C
330
2704
100
AcDbEntity
  8
OUTLINE
100
AcDbLine
 10
350.0
 20
0.0
 30
0.0
 11
311.0
 21
0.0
 31
0.0
  0
LINE
  5
2A2D
330
2704
100
AcDbEntity
  8
OUTLINE
100
AcDbLine
 10
311.0
 20
-8.0
 30
0.0
 11
350.0
 21
-8.0
 31
0.0
  0
LINE
  5
2A2E
330
2704
100
AcDbEntity
  8
OUTLINE
100
AcDbLine
 10
311.0
 20
0.0
 30
0.0
 11
311.0
 21
-8.0
 31
0.0
  0
LINE
  5
2A2F
330
2704
100
AcDbEntity
  8
OUTLINE
100
AcDbLine
 10
350.0
 20
0.0
 30
0.0
 11
350.0
 21
-8.0
 31
0.0
  0
LINE
  5
2A30
330
2704
100
AcDbEntity
  8
OUTLINE
100
AcDbLine
 10
310.0
 20
-1.799999999999954
 30
0.0
 11
311.0
 21
-1.799999999999954
 31
0.0
  0
LINE
  5
2A31
330
2704
100
AcDbEntity
  8
OUTLINE
100
AcDbLine
 10
-349.9999999999996
 20
0.0
 30
0.0
 11
-349.9999999999996
 21
-8.0
 31
0.0
  0
LINE
  5
2A32
330
2704
100
AcDbEntity
  8
OUTLINE
100
AcDbLine
 10
-349.9999999999996
 20
0.0
 30
0.0
 11
-310.9999999999995
 21
0.0
 31
0.0
  0
LINE
  5
2A33
330
2704
100
AcDbEntity
  8
OUTLINE
100
AcDbLine
 10
-310.9999999999995
 20
0.0
 30
0.0
 11
-310.9999999999995
 21
-8.0
 31
0.0
  0
LINE
  5
2A34
330
2704
100
AcDbEntity
  8
OUTLINE
100
AcDbLine
 10
-349.9999999999996
 20
-8.0
 30
0.0
 11
-310.9999999999995
 21
-8.0
 31
0.0
  0
LINE
  5
2A35
330
2704
100
AcDbEntity
  8
OUTLINE
100
AcDbLine
 10
-310.9999999999995
 20
-1.799999999999954
 30
0.0
 11
-309.9999999999998
 21
-1.799999999999954
 31
0.0
  0
LINE
  5
2A36
330
2704
100
AcDbEntity
  8
OUTLINE
100
AcDbLine
 10
-310.1514718625758
 20
-0.5999999999999091
 30
0.0
 11
-310.9999999999995
 21
0.0000000000001137
 31
0.0
  0
LINE
  5
2A37
330
2704
100
AcDbEntity
  8
OUTLINE
100
AcDbLine
 10
-309.9999999999998
 20
-0.5999999999999091
 30
0.0
 11
-310.1514718625758
 21
-0.5999999999999091
 31
0.0
  0
DIMENSION
  5
2A68
330
2704
100
AcDbEntity
  8
SIZE
100
AcDbDimension
  2
*D23
 10
350.0
 20
204.505564987433
 30
0.0
 11
0.0000000000002299
 21
246.505564987433
 31
0.0
 70
    32
 71
     5
 42
699.9999999999995
  3
STANDARD$0
100
AcDbAlignedDimension
 13
-349.9999999999996
 23
0.0
 33
0.0
 14
350.0
 24
0.0
 34
0.0
100
AcDbRotatedDimension
1001
ACAD
1000
DSTYLE
1002
{
1070
   342
1005
0
1070
   343
1005
2753
1070
   173
1070
     1
1070
   344
1005
2753
1002
}
  0
POINT
  5
2AD6
330
2704
100
AcDbEntity
  8
ARRANGE
100
AcDbPoint
 10
0.0
 20
0.0
 30
0.0
 39
50.0
  0
LINE
  5
2AD7
330
2704
100
AcDbEntity
  8
NOTE
100
AcDbLine
 10
-325.0
 20
12.5
 30
0.0
 11
-325.0
 21
-12.5
 31
0.0
  0
LINE
  5
2AD8
330
2704
100
AcDbEntity
  8
BASIS
100
AcDbLine
 10
0.0
 20
25.0
 30
0.0
 11
0.0
 21
-982.4077708116483
 31
0.0
  0
LINE
  5
2ADA
330
2704
100
AcDbEntity
  8
NOTE
100
AcDbLine
 10
325.0
 20
-12.5
 30
0.0
 11
325.0
 21
12.5
 31
0.0
  0
INSERT
  5
2ADB
330
2704
100
AcDbEntity
  8
0
100
AcDbBlockReference
  2
*U21
 10
0.0
 20
0.0
 30
0.0
1001
ACAD
1000
DSTYLE
1002
{
1070
    41
1040
12.0
1070
    42
1040
20.0
1070
    43
1040
200.0
1070
    44
1040
20.0
1070
    73
1070
     0
1070
    74
1070
     0
1070
    77
1070
     1
1070
    78
1070
     8
1070
   140
1040
64.0
1070
   147
1040
50.0
1070
   172
1070
     1
1070
   174
1070
     1
1070
   275
1070
     0
1070
   284
1070
     0
1070
   285
1070
     0
1070
   286
1070
     0
1070
   341
1005
0
1070
   342
1005
0
1002
}
  0
TEXT
  5
2ADC
330
2704
100
AcDbEntity
  8
NOTE
100
AcDbText
 10
-958.7093999922544
 20
113.5270950580134
 30
0.0
 40
64.0
  1
4×φ15取付穴
 41
0.9
100
AcDbText
  0
DIMENSION
  5
2AFD
330
2704
100
AcDbEntity
  8
SIZE
100
AcDbDimension
  2
*D25
 10
325.0
 20
101.014655417367
 30
0.0
 11
0.0000000000000026
 21
143.014655417367
 31
0.0
 70
    32
 71
     5
 42
650.0
  3
STANDARD$0
100
AcDbAlignedDimension
 13
-325.0
 23
12.5
 33
0.0
 14
325.0
 24
12.5
 34
0.0
100
AcDbRotatedDimension
1001
ACAD
1000
DSTYLE
1002
{
1070
   342
1005
0
1070
   178
1070
   256
1070
   177
1070
   256
1070
   176
1070
   256
1070
   343
1005
2753
1070
   173
1070
     1
1070
   344
1005
2753
1002
}
  0
DIMENSION
  5
2B94
330
2704
100
AcDbEntity
  8
SIZE
100
AcDbDimension
  2
*D28
 10
-449.1362018103827
 20
-7.999999999999973
 30
0.0
 11
-516.1362018103828
 21
-4.000000000000039
 31
0.0
 70
    32
 71
     5
 42
8.0
  3
STANDARD$0
100
AcDbAlignedDimension
 13
-349.9999999999996
 23
0.0
 33
0.0
 14
-349.9999999999996
 24
-8.0
 34
0.0
 50
90.0
100
AcDbRotatedDimension
1001
ACAD
1000
DSTYLE
1002
{
1070
   343
1005
2753
1070
   342
1005
0
1070
   173
1070
     1
1070
   344
1005
2753
1002
}
  0
DIMENSION
  5
2BEF
330
2704
100
AcDbEntity
  8
SIZE
100
AcDbDimension
  2
*D29
 10
511.449353154374
 20
-0.0000000000000457
 30
0.0
 11
469.4493531543739
 21
-470.0000000000001
 31
0.0
 70
    32
 71
     5
 42
940.0000000000002
  3
STANDARD$0
100
AcDbAlignedDimension
 13
311.6000000000004
 23
-940.0000000000002
 33
0.0
 14
350.0
 24
0.0
 34
0.0
 50
90.0
100
AcDbRotatedDimension
1001
ACAD
1000
DSTYLE
1002
{
1070
   343
1005
2753
1070
   342
1005
0
1070
   173
1070
     1
1070
   344
1005
2753
1002
}
  0
DIMENSION
  5
2C0E
330
2704
100
AcDbEntity
  8
SIZE
100
AcDbDimension
  2
*D30
 10
511.449353154374
 20
-954.2000000000003
 30
0.0
 11
460.6572924032807
 21
-1030.817232835975
 31
0.0
 70
   160
  1
15
 71
     5
 42
14.19999999999982
  3
STANDARD$0
100
AcDbAlignedDimension
 13
311.6000000000004
 23
-940.0000000000003
 33
0.0
 14
310.0000000000004
 24
-954.2000000000003
 34
0.0
 50
90.0
100
AcDbRotatedDimension
1001
ACAD_DSTYLE_DIMINSPECT
1070
   396
1000
100%
1070
   395
1000

1070
   394
1070
    33
1070
   393
1070
     0
1001
ACAD
1000
DSTYLE
1002
{
1070
   343
1005
2753
1070
   342
1005
0
1070
   173
1070
     1
1070
   344
1005
2753
1002
}
  0
DIMENSION
  5
2C77
330
2704
100
AcDbEntity
  8
SIZE
100
AcDbDimension
  2
*D31
 10
325.0
 20
-1145.730051376232
 30
0.0
 11
0.0000000000002299
 21
-1103.730051376232
 31
0.0
 70
    32
 71
     5
 42
649.9999999999995
  3
STANDARD$0
100
AcDbAlignedDimension
 13
-324.9999999999996
 23
-940.0536898571761
 33
0.0
 14
325.0
 24
-940.0536898571761
 34
0.0
100
AcDbRotatedDimension
1001
ACAD
1000
DSTYLE
1002
{
1070
   344
1005
2753
1070
   342
1005
0
1070
   173
1070
     1
1070
   343
1005
2753
1002
}
  0
ENDSEC
  0
SECTION
  2
OBJECTS
  0
DICTIONARY
  5
269C
330
0
100
AcDbDictionary
281
     1
  3
ACAD_2007HEADERVARS_RT
350
2DB7
  3
ACAD_COLOR
350
26FA
  3
ACAD_GROUP
350
269D
  3
ACAD_LAYOUT
350
26F9
  3
ACAD_MATERIAL
350
26A0
  3
ACAD_MLEADERSTYLE
350
26FD
  3
ACAD_MLINESTYLE
350
26F6
  3
ACAD_PLOTSETTINGS
350
26F8
  3
ACAD_PLOTSTYLENAME
350
269E
  3
ACAD_SCALELIST
350
26CA
  3
ACAD_TABLESTYLE
350
26FB
  3
ACAD_VISUALSTYLE
350
26B9
  3
ACDB_RECOMPOSE_DATA
350
2889
  3
AcDbVariableDictionary
350
2880
  3
AcmDictionary
350
282C
  3
AMG
350
2779
  3
AMGSNAPSETTINGS
350
2854
  3
MAPISURF_MODULE
350
2CE7
  0
DICTIONARY
  5
298D
330
2692
100
AcDbDictionary
280
     1
281
     1
  3
ACAD_LAYERSTATES
360
298E
  0
DICTIONARY
  5
285B
330
26EC
100
AcDbDictionary
280
     1
281
     1
  3
ADSK_XREC_LAYER_RECONCILED
360
285C
  0
DICTIONARY
  5
285D
330
271B
100
AcDbDictionary
280
     1
281
     1
  3
ADSK_XREC_LAYER_RECONCILED
360
285E
  0
DICTIONARY
  5
285F
330
271C
100
AcDbDictionary
280
     1
281
     1
  3
ADSK_XREC_LAYER_RECONCILED
360
2860
  0
DICTIONARY
  5
2861
330
271D
100
AcDbDictionary
280
     1
281
     1
  3
ADSK_XREC_LAYER_RECONCILED
360
2862
  0
DICTIONARY
  5
2863
330
271E
100
AcDbDictionary
280
     1
281
     1
  3
ADSK_XREC_LAYER_RECONCILED
360
2864
  0
DICTIONARY
  5
2865
330
271F
100
AcDbDictionary
280
     1
281
     1
  3
ADSK_XREC_LAYER_RECONCILED
360
2866
  0
DICTIONARY
  5
2867
330
2721
100
AcDbDictionary
280
     1
281
     1
  3
ADSK_XREC_LAYER_RECONCILED
360
2868
  0
DICTIONARY
  5
2869
330
2722
100
AcDbDictionary
280
     1
281
     1
  3
ADSK_XREC_LAYER_RECONCILED
360
286A
  0
DICTIONARY
  5
286B
330
2723
100
AcDbDictionary
280
     1
281
     1
  3
ADSK_XREC_LAYER_RECONCILED
360
286C
  0
DICTIONARY
  5
286D
330
2724
100
AcDbDictionary
280
     1
281
     1
  3
ADSK_XREC_LAYER_RECONCILED
360
286E
  0
DICTIONARY
  5
286F
330
2725
100
AcDbDictionary
280
     1
281
     1
  3
ADSK_XREC_LAYER_RECONCILED
360
2870
  0
DICTIONARY
  5
297F
330
297E
100
AcDbDictionary
280
     1
281
     1
  0
DICTIONARY
  5
2871
330
2704
100
AcDbDictionary
280
     1
281
     1
  3
ACAD_INDEX
360
2872
  0
DICTIONARY
  5
2DB7
102
{ACAD_REACTORS
330
269C
102
}
330
269C
100
AcDbDictionary
281
     1
  3
DIMARCSYM
350
2DB8
  3
DIMLTEX1
350
2DBA
  3
DIMLTEX2
350
2DBB
  3
DIMLTYPE
350
2DB9
  0
DICTIONARY
  5
26FA
102
{ACAD_REACTORS
330
269C
102
}
330
269C
100
AcDbDictionary
281
     1
  0
DICTIONARY
  5
269D
102
{ACAD_REACTORS
330
269C
102
}
330
269C
100
AcDbDictionary
281
     1
  0
DICTIONARY
  5
26F9
102
{ACAD_REACTORS
330
269C
102
}
330
269C
100
AcDbDictionary
281
     1
  3
Model
350
2707
  3
レイアウト1
350
2703
  0
DICTIONARY
  5
26A0
102
{ACAD_REACTORS
330
269C
102
}
330
269C
100
AcDbDictionary
281
     1
  3
ByBlock
350
26A9
  3
ByLayer
350
26A1
  3
Global
350
26B1
  0
DICTIONARY
  5
26FD
102
{ACAD_REACTORS
330
269C
102
}
330
269C
100
AcDbDictionary
281
     1
  3
Standard
350
26FE
  0
DICTIONARY
  5
26F6
102
{ACAD_REACTORS
330
269C
102
}
330
269C
100
AcDbDictionary
281
     1
  3
Standard
350
26F7
  0
DICTIONARY
  5
26F8
102
{ACAD_REACTORS
330
269C
102
}
330
269C
100
AcDbDictionary
281
     1
  0
ACDBDICTIONARYWDFLT
  5
269E
102
{ACAD_REACTORS
330
269C
102
}
330
269C
100
AcDbDictionary
281
     1
  3
Normal
350
269F
100
AcDbDictionaryWithDefault
340
269F
  0
DICTIONARY
  5
26CA
102
{ACAD_REACTORS
330
269C
102
}
330
269C
100
AcDbDictionary
281
     1
  3
A0
350
26CB
  3
A1
350
26CC
  3
A2
350
26CD
  3
A3
350
26CE
  3
A4
350
26CF
  3
A5
350
26D0
  3
A6
350
26D1
  3
A7
350
26D2
  3
A8
350
26D3
  3
A9
350
26D4
  3
B0
350
26D5
  3
B1
350
26D6
  3
B2
350
26D7
  3
B3
350
26D8
  3
B4
350
26D9
  3
B5
350
26DA
  3
B6
350
26DB
  3
B7
350
26DC
  3
B8
350
26DD
  3
B9
350
26DE
  3
C0
350
26DF
  3
C1
350
26E0
  3
C2
350
26E1
  3
C3
350
26E2
  3
C4
350
26E3
  3
C5
350
26E4
  3
C6
350
26E5
  3
C7
350
26E6
  3
C8
350
26E7
  3
C9
350
26E8
  3
D0
350
26E9
  3
D1
350
26EA
  3
D2
350
26EB
  0
DICTIONARY
  5
26FB
102
{ACAD_REACTORS
330
269C
102
}
330
269C
100
AcDbDictionary
281
     1
  3
Standard
350
26FC
  0
DICTIONARY
  5
26B9
102
{ACAD_REACTORS
330
269C
102
}
330
269C
100
AcDbDictionary
281
     1
  3
2dWireframe
350
26BF
  3
3D Hidden
350
26C1
  3
3dWireframe
350
26C0
  3
Basic
350
26BE
  3
Brighten
350
26C5
  3
ColorChange
350
26C9
  3
Conceptual
350
26C2
  3
Dim
350
26C4
  3
Facepattern
350
26C8
  3
Flat
350
26BA
  3
FlatWithEdges
350
26BB
  3
Gouraud
350
26BC
  3
GouraudWithEdges
350
26BD
  3
Linepattern
350
26C7
  3
Realistic
350
26C3
  3
Thicken
350
26C6
  0
XRECORD
  5
2889
102
{ACAD_REACTORS
330
269C
102
}
330
269C
100
AcDbXrecord
280
     1
 90
        1
330
26FC
  0
DICTIONARY
  5
2880
102
{ACAD_REACTORS
330
269C
102
}
330
269C
100
AcDbDictionary
281
     1
  3
CANNOSCALE
350
2883
  3
CMLEADERSTYLE
350
2882
  3
CTABLESTYLE
350
2881
  3
DIMASSOC
350
2886
  3
INDEXCTL
350
2885
  3
LAYEREVAL
350
2CD2
  3
LAYERNOTIFY
350
2CD3
  3
LIGHTINGUNITS
350
2CD1
  3
MSLTSCALE
350
2CD0
  3
SORTENTS
350
2884
  0
DICTIONARY
  5
282C
102
{ACAD_REACTORS
330
269C
102
}
330
269C
100
AcDbDictionary
281
     1
  3
AcmStdDictionary
350
283A
  0
DICTIONARY
  5
2779
102
{ACAD_REACTORS
330
269C
102
}
330
269C
100
AcDbDictionary
281
     1
  3
AcMgSettings
350
277A
  0
DICTIONARY
  5
2854
102
{ACAD_REACTORS
330
269C
102
}
330
269C
100
AcDbDictionary
281
     1
  3
DIMENSION
350
2859
  3
FEA
350
2858
  3
HATCH (1)
350
2855
  3
HATCH (2)
350
2856
  3
SIMPLE WELD
350
285A
  3
SYMBOLS
350
2857
  0
DICTIONARY
  5
298E
102
{ACAD_REACTORS
330
298D
102
}
330
298D
100
AcDbDictionary
281
     1
  0
XRECORD
  5
285C
102
{ACAD_REACTORS
330
285B
102
}
330
285B
100
AcDbXrecord
280
     1
290
     1
  0
XRECORD
  5
285E
102
{ACAD_REACTORS
330
285D
102
}
330
285D
100
AcDbXrecord
280
     1
290
     1
  0
XRECORD
  5
2860
102
{ACAD_REACTORS
330
285F
102
}
330
285F
100
AcDbXrecord
280
     1
290
     1
  0
XRECORD
  5
2862
102
{ACAD_REACTORS
330
2861
102
}
330
2861
100
AcDbXrecord
280
     1
290
     1
  0
XRECORD
  5
2864
102
{ACAD_REACTORS
330
2863
102
}
330
2863
100
AcDbXrecord
280
     1
290
     1
  0
XRECORD
  5
2866
102
{ACAD_REACTORS
330
2865
102
}
330
2865
100
AcDbXrecord
280
     1
290
     1
  0
XRECORD
  5
2868
102
{ACAD_REACTORS
330
2867
102
}
330
2867
100
AcDbXrecord
280
     1
290
     1
  0
XRECORD
  5
286A
102
{ACAD_REACTORS
330
2869
102
}
330
2869
100
AcDbXrecord
280
     1
290
     1
  0
XRECORD
  5
286C
102
{ACAD_REACTORS
330
286B
102
}
330
286B
100
AcDbXrecord
280
     1
290
     1
  0
XRECORD
  5
286E
102
{ACAD_REACTORS
330
286D
102
}
330
286D
100
AcDbXrecord
280
     1
290
     1
  0
XRECORD
  5
2870
102
{ACAD_REACTORS
330
286F
102
}
330
286F
100
AcDbXrecord
280
     1
290
     1
  0
DICTIONARY
  5
2872
102
{ACAD_REACTORS
330
2871
102
}
330
2871
100
AcDbDictionary
281
     1
  3
*A1
350
2873
  0
XRECORD
  5
2DB8
102
{ACAD_REACTORS
330
2DB7
102
}
330
2DB7
100
AcDbXrecord
280
     1
 70
     1
  0
XRECORD
  5
2DBA
102
{ACAD_REACTORS
330
2DB7
102
}
330
2DB7
100
AcDbXrecord
280
     1
340
26F2
  0
XRECORD
  5
2DBB
102
{ACAD_REACTORS
330
2DB7
102
}
330
2DB7
100
AcDbXrecord
280
     1
340
26F2
  0
XRECORD
  5
2DB9
102
{ACAD_REACTORS
330
2DB7
102
}
330
2DB7
100
AcDbXrecord
280
     1
340
26F2
  0
LAYOUT
  5
2707
102
{ACAD_REACTORS
330
26F9
102
}
330
26F9
100
AcDbPlotSettings
  1

  2
自動 EPSON LP-9600S (W2450527 上)
  4

  6

 40
0.0
 41
0.0
 42
0.0
 43
0.0
 44
0.0
 45
0.0
 46
0.0
 47
0.0
 48
0.0
 49
0.0
140
0.0
141
0.0
142
1.0
143
1.0
 70
  1712
 72
     0
 73
     0
 74
     0
  7

 75
     0
147
1.0
 76
     0
 77
     2
 78
   300
148
0.0
149
0.0
100
AcDbLayout
  1
Model
 70
     1
 71
     0
 10
0.0
 20
0.0
 11
12.0
 21
9.0
 12
0.0
 22
0.0
 32
0.0
 14
0.0
 24
0.0
 34
0.0
 15
0.0
 25
0.0
 35
0.0
146
0.0
 13
0.0
 23
0.0
 33
0.0
 16
1.0
 26
0.0
 36
0.0
 17
0.0
 27
1.0
 37
0.0
 76
     0
330
2704
331
2708
  0
LAYOUT
  5
2703
102
{ACAD_REACTORS
330
26F9
102
}
330
26F9
100
AcDbPlotSettings
  1

  2
自動 EPSON LP-9600S (W2450527 上)
  4

  6

 40
0.0
 41
0.0
 42
0.0
 43
0.0
 44
0.0
 45
0.0
 46
0.0
 47
0.0
 48
0.0
 49
0.0
140
0.0
141
0.0
142
1.0
143
1.0
 70
   688
 72
     0
 73
     0
 74
     5
  7

 75
    16
147
1.0
 76
     0
 77
     2
 78
   300
148
0.0
149
0.0
100
AcDbLayout
  1
レイアウト1
 70
     1
 71
     1
 10
0.0
 20
0.0
 11
12.0
 21
9.0
 12
0.0
 22
0.0
 32
0.0
 14
1.000000000000000E+20
 24
1.000000000000000E+20
 34
1.000000000000000E+20
 15
-1.000000000000000E+20
 25
-1.000000000000000E+20
 35
-1.000000000000000E+20
146
0.0
 13
0.0
 23
0.0
 33
0.0
 16
1.0
 26
0.0
 36
0.0
 17
0.0
 27
1.0
 37
0.0
 76
     0
330
2700
  0
MATERIAL
  5
26A9
102
{ACAD_XDICTIONARY
360
26AA
102
}
102
{ACAD_REACTORS
330
26A0
102
}
330
26A0
100
AcDbMaterial
  1
ByBlock
 72
     0
 43
0.0208333333333333
 43
0.0
 43
0.0
 43
0.0
 43
0.0
 43
0.0208333333333333
 43
0.0
 43
0.0
 43
0.0
 43
0.0
 43
1.0
 43
0.0
 43
0.0
 43
0.0
 43
0.0
 43
1.0
 77
     0
 47
0.0208333333333333
 47
0.0
 47
0.0
 47
0.0
 47
0.0
 47
0.0208333333333333
 47
0.0
 47
0.0
 47
0.0
 47
0.0
 47
1.0
 47
0.0
 47
0.0
 47
0.0
 47
0.0
 47
1.0
171
     0
 49
0.0208333333333333
 49
0.0
 49
0.0
 49
0.0
 49
0.0
 49
0.0208333333333333
 49
0.0
 49
0.0
 49
0.0
 49
0.0
 49
1.0
 49
0.0
 49
0.0
 49
0.0
 49
0.0
 49
1.0
175
     0
142
0.0208333333333333
142
0.0
142
0.0
142
0.0
142
0.0
142
0.0208333333333333
142
0.0
142
0.0
142
0.0
142
0.0
142
1.0
142
0.0
142
0.0
142
0.0
142
0.0
142
1.0
179
     0
144
0.0208333333333333
144
0.0
144
0.0
144
0.0
144
0.0
144
0.0208333333333333
144
0.0
144
0.0
144
0.0
144
0.0
144
1.0
144
0.0
144
0.0
144
0.0
144
0.0
144
1.0
147
0.0208333333333333
147
0.0
147
0.0
147
0.0
147
0.0
147
0.0208333333333333
147
0.0
147
0.0
147
0.0
147
0.0
147
1.0
147
0.0
147
0.0
147
0.0
147
0.0
147
1.0
  0
MATERIAL
  5
26A1
102
{ACAD_XDICTIONARY
360
26A2
102
}
102
{ACAD_REACTORS
330
26A0
102
}
330
26A0
100
AcDbMaterial
  1
ByLayer
 72
     0
 43
0.0208333333333333
 43
0.0
 43
0.0
 43
0.0
 43
0.0
 43
0.0208333333333333
 43
0.0
 43
0.0
 43
0.0
 43
0.0
 43
1.0
 43
0.0
 43
0.0
 43
0.0
 43
0.0
 43
1.0
 77
     0
 47
0.0208333333333333
 47
0.0
 47
0.0
 47
0.0
 47
0.0
 47
0.0208333333333333
 47
0.0
 47
0.0
 47
0.0
 47
0.0
 47
1.0
 47
0.0
 47
0.0
 47
0.0
 47
0.0
 47
1.0
171
     0
 49
0.0208333333333333
 49
0.0
 49
0.0
 49
0.0
 49
0.0
 49
0.0208333333333333
 49
0.0
 49
0.0
 49
0.0
 49
0.0
 49
1.0
 49
0.0
 49
0.0
 49
0.0
 49
0.0
 49
1.0
175
     0
142
0.0208333333333333
142
0.0
142
0.0
142
0.0
142
0.0
142
0.0208333333333333
142
0.0
142
0.0
142
0.0
142
0.0
142
1.0
142
0.0
142
0.0
142
0.0
142
0.0
142
1.0
179
     0
144
0.0208333333333333
144
0.0
144
0.0
144
0.0
144
0.0
144
0.0208333333333333
144
0.0
144
0.0
144
0.0
144
0.0
144
1.0
144
0.0
144
0.0
144
0.0
144
0.0
144
1.0
147
0.0208333333333333
147
0.0
147
0.0
147
0.0
147
0.0
147
0.0208333333333333
147
0.0
147
0.0
147
0.0
147
0.0
147
1.0
147
0.0
147
0.0
147
0.0
147
0.0
147
1.0
  0
MATERIAL
  5
26B1
102
{ACAD_XDICTIONARY
360
26B2
102
}
102
{ACAD_REACTORS
330
26A0
102
}
330
26A0
100
AcDbMaterial
  1
Global
 72
     0
 43
0.0208333333333333
 43
0.0
 43
0.0
 43
0.0
 43
0.0
 43
0.0208333333333333
 43
0.0
 43
0.0
 43
0.0
 43
0.0
 43
1.0
 43
0.0
 43
0.0
 43
0.0
 43
0.0
 43
1.0
 77
     0
 47
0.0208333333333333
 47
0.0
 47
0.0
 47
0.0
 47
0.0
 47
0.0208333333333333
 47
0.0
 47
0.0
 47
0.0
 47
0.0
 47
1.0
 47
0.0
 47
0.0
 47
0.0
 47
0.0
 47
1.0
171
     0
 49
0.0208333333333333
 49
0.0
 49
0.0
 49
0.0
 49
0.0
 49
0.0208333333333333
 49
0.0
 49
0.0
 49
0.0
 49
0.0
 49
1.0
 49
0.0
 49
0.0
 49
0.0
 49
0.0
 49
1.0
175
     0
142
0.0208333333333333
142
0.0
142
0.0
142
0.0
142
0.0
142
0.0208333333333333
142
0.0
142
0.0
142
0.0
142
0.0
142
1.0
142
0.0
142
0.0
142
0.0
142
0.0
142
1.0
179
     0
144
0.0208333333333333
144
0.0
144
0.0
144
0.0
144
0.0
144
0.0208333333333333
144
0.0
144
0.0
144
0.0
144
0.0
144
1.0
144
0.0
144
0.0
144
0.0
144
0.0
144
1.0
147
0.0208333333333333
147
0.0
147
0.0
147
0.0
147
0.0
147
0.0208333333333333
147
0.0
147
0.0
147
0.0
147
0.0
147
1.0
147
0.0
147
0.0
147
0.0
147
0.0
147
1.0
  0
MLEADERSTYLE
  5
26FE
102
{ACAD_REACTORS
330
26FD
102
}
330
26FD
100
AcDbMLeaderStyle
170
     2
171
     1
172
     0
 90
        2
 40
0.0
 41
0.0
173
     1
 91
-1056964608
340
26F2
 92
       -2
290
     1
 42
0.09
291
     1
 43
0.36
  3
Standard
 44
0.18
300

342
26ED
174
     1
178
     6
175
     1
176
     0
 93
-1056964608
 45
0.18
292
     0
297
     0
 46
0.18
 94
-1056964608
 47
1.0
 49
1.0
140
1.0
293
     1
141
0.0
294
     1
177
     0
142
1.0
295
     0
296
     0
143
0.125
1001
ACAD_MLEADERVER
1070
     2
  0
MLINESTYLE
  5
26F7
102
{ACAD_REACTORS
330
26F6
102
}
330
26F6
100
AcDbMlineStyle
  2
STANDARD
 70
     0
  3

 62
   256
 51
90.0
 52
90.0
 71
     2
 49
0.5
 62
   256
  6
BYLAYER
 49
-0.5
 62
   256
  6
BYLAYER
  0
ACDBPLACEHOLDER
  5
269F
102
{ACAD_REACTORS
330
269E
102
}
330
269E
  0
SCALE
  5
26CB
102
{ACAD_REACTORS
330
26CA
102
}
330
26CA
100
AcDbScale
 70
     0
300
1:1
140
1.0
141
1.0
290
     1
  0
SCALE
  5
26CC
102
{ACAD_REACTORS
330
26CA
102
}
330
26CA
100
AcDbScale
 70
     0
300
1:2
140
1.0
141
2.0
290
     0
  0
SCALE
  5
26CD
102
{ACAD_REACTORS
330
26CA
102
}
330
26CA
100
AcDbScale
 70
     0
300
1:4
140
1.0
141
4.0
290
     0
  0
SCALE
  5
26CE
102
{ACAD_REACTORS
330
26CA
102
}
330
26CA
100
AcDbScale
 70
     0
300
1:5
140
1.0
141
5.0
290
     0
  0
SCALE
  5
26CF
102
{ACAD_REACTORS
330
26CA
102
}
330
26CA
100
AcDbScale
 70
     0
300
1:8
140
1.0
141
8.0
290
     0
  0
SCALE
  5
26D0
102
{ACAD_REACTORS
330
26CA
102
}
330
26CA
100
AcDbScale
 70
     0
300
1:10
140
1.0
141
10.0
290
     0
  0
SCALE
  5
26D1
102
{ACAD_REACTORS
330
26CA
102
}
330
26CA
100
AcDbScale
 70
     0
300
1:16
140
1.0
141
16.0
290
     0
  0
SCALE
  5
26D2
102
{ACAD_REACTORS
330
26CA
102
}
330
26CA
100
AcDbScale
 70
     0
300
1:20
140
1.0
141
20.0
290
     0
  0
SCALE
  5
26D3
102
{ACAD_REACTORS
330
26CA
102
}
330
26CA
100
AcDbScale
 70
     0
300
1:30
140
1.0
141
30.0
290
     0
  0
SCALE
  5
26D4
102
{ACAD_REACTORS
330
26CA
102
}
330
26CA
100
AcDbScale
 70
     0
300
1:40
140
1.0
141
40.0
290
     0
  0
SCALE
  5
26D5
102
{ACAD_REACTORS
330
26CA
102
}
330
26CA
100
AcDbScale
 70
     0
300
1:50
140
1.0
141
50.0
290
     0
  0
SCALE
  5
26D6
102
{ACAD_REACTORS
330
26CA
102
}
330
26CA
100
AcDbScale
 70
     0
300
1:100
140
1.0
141
100.0
290
     0
  0
SCALE
  5
26D7
102
{ACAD_REACTORS
330
26CA
102
}
330
26CA
100
AcDbScale
 70
     0
300
2:1
140
2.0
141
1.0
290
     0
  0
SCALE
  5
26D8
102
{ACAD_REACTORS
330
26CA
102
}
330
26CA
100
AcDbScale
 70
     0
300
4:1
140
4.0
141
1.0
290
     0
  0
SCALE
  5
26D9
102
{ACAD_REACTORS
330
26CA
102
}
330
26CA
100
AcDbScale
 70
     0
300
8:1
140
8.0
141
1.0
290
     0
  0
SCALE
  5
26DA
102
{ACAD_REACTORS
330
26CA
102
}
330
26CA
100
AcDbScale
 70
     0
300
10:1
140
10.0
141
1.0
290
     0
  0
SCALE
  5
26DB
102
{ACAD_REACTORS
330
26CA
102
}
330
26CA
100
AcDbScale
 70
     0
300
100:1
140
100.0
141
1.0
290
     0
  0
SCALE
  5
26DC
102
{ACAD_REACTORS
330
26CA
102
}
330
26CA
100
AcDbScale
 70
     0
300
1/128" = 1'-0"
140
0.0078125
141
12.0
290
     0
  0
SCALE
  5
26DD
102
{ACAD_REACTORS
330
26CA
102
}
330
26CA
100
AcDbScale
 70
     0
300
1/64" = 1'-0"
140
0.015625
141
12.0
290
     0
  0
SCALE
  5
26DE
102
{ACAD_REACTORS
330
26CA
102
}
330
26CA
100
AcDbScale
 70
     0
300
1/32" = 1'-0"
140
0.03125
141
12.0
290
     0
  0
SCALE
  5
26DF
102
{ACAD_REACTORS
330
26CA
102
}
330
26CA
100
AcDbScale
 70
     0
300
1/16" = 1'-0"
140
0.0625
141
12.0
290
     0
  0
SCALE
  5
26E0
102
{ACAD_REACTORS
330
26CA
102
}
330
26CA
100
AcDbScale
 70
     0
300
3/32" = 1'-0"
140
0.09375
141
12.0
290
     0
  0
SCALE
  5
26E1
102
{ACAD_REACTORS
330
26CA
102
}
330
26CA
100
AcDbScale
 70
     0
300
1/8" = 1'-0"
140
0.125
141
12.0
290
     0
  0
SCALE
  5
26E2
102
{ACAD_REACTORS
330
26CA
102
}
330
26CA
100
AcDbScale
 70
     0
300
3/16" = 1'-0"
140
0.1875
141
12.0
290
     0
  0
SCALE
  5
26E3
102
{ACAD_REACTORS
330
26CA
102
}
330
26CA
100
AcDbScale
 70
     0
300
1/4" = 1'-0"
140
0.25
141
12.0
290
     0
  0
SCALE
  5
26E4
102
{ACAD_REACTORS
330
26CA
102
}
330
26CA
100
AcDbScale
 70
     0
300
3/8" = 1'-0"
140
0.375
141
12.0
290
     0
  0
SCALE
  5
26E5
102
{ACAD_REACTORS
330
26CA
102
}
330
26CA
100
AcDbScale
 70
     0
300
1/2" = 1'-0"
140
0.5
141
12.0
290
     0
  0
SCALE
  5
26E6
102
{ACAD_REACTORS
330
26CA
102
}
330
26CA
100
AcDbScale
 70
     0
300
3/4" = 1'-0"
140
0.75
141
12.0
290
     0
  0
SCALE
  5
26E7
102
{ACAD_REACTORS
330
26CA
102
}
330
26CA
100
AcDbScale
 70
     0
300
1" = 1'-0"
140
1.0
141
12.0
290
     0
  0
SCALE
  5
26E8
102
{ACAD_REACTORS
330
26CA
102
}
330
26CA
100
AcDbScale
 70
     0
300
1-1/2" = 1'-0"
140
1.5
141
12.0
290
     0
  0
SCALE
  5
26E9
102
{ACAD_REACTORS
330
26CA
102
}
330
26CA
100
AcDbScale
 70
     0
300
3" = 1'-0"
140
3.0
141
12.0
290
     0
  0
SCALE
  5
26EA
102
{ACAD_REACTORS
330
26CA
102
}
330
26CA
100
AcDbScale
 70
     0
300
6" = 1'-0"
140
6.0
141
12.0
290
     0
  0
SCALE
  5
26EB
102
{ACAD_REACTORS
330
26CA
102
}
330
26CA
100
AcDbScale
 70
     0
300
1'-0" = 1'-0"
140
12.0
141
12.0
290
     0
  0
TABLESTYLE
  5
26FC
102
{ACAD_XDICTIONARY
360
2887
102
}
102
{ACAD_REACTORS
330
26FB
102
}
330
26FB
100
AcDbTableStyle
  3
Standard
 70
     0
 71
     0
 40
0.06
 41
0.06
280
     0
281
     0
  7
STANDARD
140
0.18
170
     2
 62
     0
 63
     7
283
     0
274
    -2
284
     1
 64
     0
275
    -2
285
     1
 65
     0
276
    -2
286
     1
 66
     0
277
    -2
287
     1
 67
     0
278
    -2
288
     1
 68
     0
279
    -2
289
     1
 69
     0
  7
STANDARD
140
0.25
170
     5
 62
     0
 63
     7
283
     0
274
    -2
284
     1
 64
     0
275
    -2
285
     1
 65
     0
276
    -2
286
     1
 66
     0
277
    -2
287
     1
 67
     0
278
    -2
288
     1
 68
     0
279
    -2
289
     1
 69
     0
  7
STANDARD
140
0.18
170
     5
 62
     0
 63
     7
283
     0
274
    -2
284
     1
 64
     0
275
    -2
285
     1
 65
     0
276
    -2
286
     1
 66
     0
277
    -2
287
     1
 67
     0
278
    -2
288
     1
 68
     0
279
    -2
289
     1
 69
     0
  0
VISUALSTYLE
  5
26BF
102
{ACAD_REACTORS
330
26B9
102
}
330
26B9
100
AcDbVisualStyle
  2
2dWireframe
 70
     4
 71
     0
 72
     2
 73
     0
 90
        0
 40
-0.6
 41
-30.0
 62
     5
 63
     7
 74
     1
 91
        4
 64
     7
 65
   257
 75
     1
175
     1
 42
1.0
 92
        0
 66
   257
 43
1.0
 76
     1
 77
     6
 78
     2
 67
     7
 79
     5
170
     0
171
     0
290
     0
174
     0
 93
        1
 44
0.0
173
     0
291
     0
 45
0.0
1001
ACAD
1000
AcDbSavedByObjectVersion
1070
     0
  0
VISUALSTYLE
  5
26C1
102
{ACAD_REACTORS
330
26B9
102
}
330
26B9
100
AcDbVisualStyle
  2
3D Hidden
 70
     6
 71
     1
 72
     2
 73
     2
 90
        0
 40
-0.6
 41
-30.0
 62
     5
 63
     7
 74
     2
 91
        2
 64
     7
 65
   257
 75
     2
175
     1
 42
40.0
 92
        0
 66
   257
 43
1.0
 76
     1
 77
     6
 78
     2
 67
     7
 79
     3
170
     0
171
     0
290
     0
174
     0
 93
        1
 44
0.0
173
     0
291
     0
 45
0.0
1001
ACAD
1000
AcDbSavedByObjectVersion
1070
     0
  0
VISUALSTYLE
  5
26C0
102
{ACAD_REACTORS
330
26B9
102
}
330
26B9
100
AcDbVisualStyle
  2
3dWireframe
 70
     5
 71
     0
 72
     2
 73
     0
 90
        0
 40
-0.6
 41
-30.0
 62
     5
 63
     7
 74
     1
 91
        4
 64
     7
 65
   257
 75
     1
175
     1
 42
1.0
 92
        0
 66
   257
 43
1.0
 76
     1
 77
     6
 78
     2
 67
     7
 79
     5
170
     0
171
     0
290
     0
174
     0
 93
        1
 44
0.0
173
     0
291
     0
 45
0.0
1001
ACAD
1000
AcDbSavedByObjectVersion
1070
     0
  0
VISUALSTYLE
  5
26BE
102
{ACAD_REACTORS
330
26B9
102
}
330
26B9
100
AcDbVisualStyle
  2
Basic
 70
     7
 71
     1
 72
     0
 73
     1
 90
        0
 40
-0.6
 41
-30.0
 62
     5
 63
     7
 74
     0
 91
        4
 64
     7
 65
   257
 75
     1
175
     1
 42
1.0
 92
        8
 66
     7
 43
1.0
 76
     1
 77
     6
 78
     2
 67
     7
 79
     5
170
     0
171
     0
290
     0
174
     0
 93
        1
 44
0.0
173
     0
291
     1
 45
0.0
1001
ACAD
1000
AcDbSavedByObjectVersion
1070
     0
  0
VISUALSTYLE
  5
26C5
102
{ACAD_REACTORS
330
26B9
102
}
330
26B9
100
AcDbVisualStyle
  2
Brighten
 70
    12
 71
     2
 72
     2
 73
     0
 90
        0
 40
-0.6
 41
-30.0
 62
     5
 63
     7
 74
     1
 91
        4
 64
     7
 65
   257
 75
     1
175
     1
 42
1.0
 92
        8
 66
     7
 43
1.0
 76
     1
 77
     6
 78
     2
 67
     7
 79
     5
170
     0
171
     0
290
     0
174
     0
 93
        1
 44
50.0
173
     0
291
     1
 45
0.0
1001
ACAD
1000
AcDbSavedByObjectVersion
1070
     0
  0
VISUALSTYLE
  5
26C9
102
{ACAD_REACTORS
330
26B9
102
}
330
26B9
100
AcDbVisualStyle
  2
ColorChange
 70
    16
 71
     2
 72
     2
 73
     3
 90
        0
 40
-0.6
 41
-30.0
 62
     5
 63
     8
 74
     1
 91
        4
 64
     7
 65
   257
 75
     1
175
     1
 42
1.0
 92
        8
 66
     8
 43
1.0
 76
     1
 77
     6
 78
     2
 67
     7
 79
     5
170
     0
171
     0
290
     0
174
     0
 93
        1
 44
0.0
173
     0
291
     1
 45
0.0
1001
ACAD
1000
AcDbSavedByObjectVersion
1070
     0
  0
VISUALSTYLE
  5
26C2
102
{ACAD_REACTORS
330
26B9
102
}
330
26B9
100
AcDbVisualStyle
  2
Conceptual
 70
     9
 71
     3
 72
     2
 73
     0
 90
        0
 40
-0.6
 41
-30.0
 62
     5
 63
     7
 74
     2
 91
        2
 64
     7
 65
   257
 75
     1
175
     1
 42
40.0
 92
        8
 66
     7
 43
1.0
 76
     1
 77
     6
 78
     2
 67
     7
 79
     3
170
     0
171
     0
290
     0
174
     0
 93
        1
 44
0.0
173
     0
291
     0
 45
0.0
1001
ACAD
1000
AcDbSavedByObjectVersion
1070
     0
  0
VISUALSTYLE
  5
26C4
102
{ACAD_REACTORS
330
26B9
102
}
330
26B9
100
AcDbVisualStyle
  2
Dim
 70
    11
 71
     2
 72
     2
 73
     0
 90
        0
 40
-0.6
 41
-30.0
 62
     5
 63
     7
 74
     1
 91
        4
 64
     7
 65
   257
 75
     1
175
     1
 42
1.0
 92
        8
 66
     7
 43
1.0
 76
     1
 77
     6
 78
     2
 67
     7
 79
     5
170
     0
171
     0
290
     0
174
     0
 93
        1
 44
-50.0
173
     0
291
     1
 45
0.0
1001
ACAD
1000
AcDbSavedByObjectVersion
1070
     0
  0
VISUALSTYLE
  5
26C8
102
{ACAD_REACTORS
330
26B9
102
}
330
26B9
100
AcDbVisualStyle
  2
Facepattern
 70
    15
 71
     2
 72
     2
 73
     0
 90
        0
 40
-0.6
 41
-30.0
 62
     5
 63
     7
 74
     1
 91
        4
 64
     7
 65
   257
 75
     1
175
     1
 42
1.0
 92
        8
 66
     7
 43
1.0
 76
     1
 77
     6
 78
     2
 67
     7
 79
     5
170
     0
171
     0
290
     0
174
     0
 93
        1
 44
0.0
173
     0
291
     1
 45
0.0
1001
ACAD
1000
AcDbSavedByObjectVersion
1070
     0
  0
VISUALSTYLE
  5
26BA
102
{ACAD_REACTORS
330
26B9
102
}
330
26B9
100
AcDbVisualStyle
  2
Flat
 70
     0
 71
     2
 72
     1
 73
     1
 90
        2
 40
-0.6
 41
30.0
 62
     5
 63
     7
 74
     0
 91
        4
 64
     7
 65
   257
 75
     1
175
     1
 42
1.0
 92
        8
 66
     7
 43
1.0
 76
     1
 77
     6
 78
     2
 67
     7
 79
     5
170
     0
171
     0
290
     0
174
     0
 93
       13
 44
0.0
173
     0
291
     1
 45
0.0
1001
ACAD
1000
AcDbSavedByObjectVersion
1070
     0
  0
VISUALSTYLE
  5
26BB
102
{ACAD_REACTORS
330
26B9
102
}
330
26B9
100
AcDbVisualStyle
  2
FlatWithEdges
 70
     1
 71
     2
 72
     1
 73
     1
 90
        2
 40
-0.6
 41
30.0
 62
     5
 63
     7
 74
     1
 91
        4
 64
     7
 65
   257
 75
     1
175
     1
 42
1.0
 92
        0
 66
   257
 43
1.0
 76
     1
 77
     6
 78
     2
 67
     7
 79
     5
170
     0
171
     0
290
     0
174
     0
 93
       13
 44
0.0
173
     0
291
     1
 45
0.0
1001
ACAD
1000
AcDbSavedByObjectVersion
1070
     0
  0
VISUALSTYLE
  5
26BC
102
{ACAD_REACTORS
330
26B9
102
}
330
26B9
100
AcDbVisualStyle
  2
Gouraud
 70
     2
 71
     2
 72
     2
 73
     1
 90
        2
 40
-0.6
 41
30.0
 62
     5
 63
     7
 74
     0
 91
        4
 64
     7
 65
   257
 75
     1
175
     1
 42
1.0
 92
        0
 66
     7
 43
1.0
 76
     1
 77
     6
 78
     2
 67
     7
 79
     5
170
     0
171
     0
290
     0
174
     0
 93
       13
 44
0.0
173
     0
291
     1
 45
0.0
1001
ACAD
1000
AcDbSavedByObjectVersion
1070
     0
  0
VISUALSTYLE
  5
26BD
102
{ACAD_REACTORS
330
26B9
102
}
330
26B9
100
AcDbVisualStyle
  2
GouraudWithEdges
 70
     3
 71
     2
 72
     2
 73
     1
 90
        2
 40
-0.6
 41
30.0
 62
     5
 63
     7
 74
     1
 91
        4
 64
     7
 65
   257
 75
     1
175
     1
 42
1.0
 92
        0
 66
   257
 43
1.0
 76
     1
 77
     6
 78
     2
 67
     7
 79
     5
170
     0
171
     0
290
     0
174
     0
 93
       13
 44
0.0
173
     0
291
     1
 45
0.0
1001
ACAD
1000
AcDbSavedByObjectVersion
1070
     0
  0
VISUALSTYLE
  5
26C7
102
{ACAD_REACTORS
330
26B9
102
}
330
26B9
100
AcDbVisualStyle
  2
Linepattern
 70
    14
 71
     2
 72
     2
 73
     0
 90
        0
 40
-0.6
 41
-30.0
 62
     5
 63
     7
 74
     1
 91
        4
 64
     7
 65
   257
 75
     7
175
     7
 42
1.0
 92
        8
 66
     7
 43
1.0
 76
     1
 77
     6
 78
     2
 67
     7
 79
     5
170
     0
171
     0
290
     0
174
     0
 93
        1
 44
0.0
173
     0
291
     1
 45
0.0
1001
ACAD
1000
AcDbSavedByObjectVersion
1070
     0
  0
VISUALSTYLE
  5
26C3
102
{ACAD_REACTORS
330
26B9
102
}
330
26B9
100
AcDbVisualStyle
  2
Realistic
 70
     8
 71
     2
 72
     2
 73
     0
 90
        0
 40
-0.6
 41
-30.0
 62
     5
 63
     7
 74
     1
 91
        0
 64
     7
 65
   257
 75
     1
175
     1
 42
1.0
 92
        8
 66
     8
 43
1.0
 76
     1
 77
     6
 78
     2
 67
     7
 79
     5
170
     0
171
     0
290
     0
174
     0
 93
       13
 44
0.0
173
     0
291
     0
 45
0.0
1001
ACAD
1000
AcDbSavedByObjectVersion
1070
     0
  0
VISUALSTYLE
  5
26C6
102
{ACAD_REACTORS
330
26B9
102
}
330
26B9
100
AcDbVisualStyle
  2
Thicken
 70
    13
 71
     2
 72
     2
 73
     0
 90
        0
 40
-0.6
 41
-30.0
 62
     5
 63
     7
 74
     1
 91
        4
 64
     7
 65
   257
 75
     1
175
     1
 42
1.0
 92
       12
 66
     7
 43
1.0
 76
     1
 77
     6
 78
     2
 67
     7
 79
     5
170
     0
171
     0
290
     0
174
     0
 93
        1
 44
0.0
173
     0
291
     1
 45
0.0
1001
ACAD
1000
AcDbSavedByObjectVersion
1070
     0
  0
DICTIONARYVAR
  5
2883
102
{ACAD_REACTORS
330
2880
102
}
330
2880
100
DictionaryVariables
280
     0
  1
1:1
  0
DICTIONARYVAR
  5
2882
102
{ACAD_REACTORS
330
2880
102
}
330
2880
100
DictionaryVariables
280
     0
  1
STANDARD
  0
DICTIONARYVAR
  5
2881
102
{ACAD_REACTORS
330
2880
102
}
330
2880
100
DictionaryVariables
280
     0
  1
STANDARD
  0
DICTIONARYVAR
  5
2886
102
{ACAD_REACTORS
330
2880
102
}
330
2880
100
DictionaryVariables
280
     0
  1
1
  0
DICTIONARYVAR
  5
2885
102
{ACAD_REACTORS
330
2880
102
}
330
2880
100
DictionaryVariables
280
     0
  1
1
  0
DICTIONARYVAR
  5
2CD2
102
{ACAD_REACTORS
330
2880
102
}
330
2880
100
DictionaryVariables
280
     0
  1
1
  0
DICTIONARYVAR
  5
2CD3
102
{ACAD_REACTORS
330
2880
102
}
330
2880
100
DictionaryVariables
280
     0
  1
15
  0
DICTIONARYVAR
  5
2CD1
102
{ACAD_REACTORS
330
2880
102
}
330
2880
100
DictionaryVariables
280
     0
  1
0
  0
DICTIONARYVAR
  5
2CD0
102
{ACAD_REACTORS
330
2880
102
}
330
2880
100
DictionaryVariables
280
     0
  1
0
  0
DICTIONARYVAR
  5
2884
102
{ACAD_REACTORS
330
2880
102
}
330
2880
100
DictionaryVariables
280
     0
  1
127
  0
DICTIONARY
  5
283A
102
{ACAD_REACTORS
330
282C
102
}
330
282C
100
AcDbDictionary
281
     1
  0
DICTIONARY
  5
277A
102
{ACAD_REACTORS
330
2779
102
}
330
2779
100
AcDbDictionary
281
     1
  3
DWGSETTINGS
350
28A5
  3
TRANSSETTINGS
350
28A6
  0
ACAMGFILTERDAT
  5
2859
102
{ACAD_REACTORS
330
2854
102
}
330
2854
100
AcAmgFilterDat
 70
    15
  1
DIMENSION,AMDT_*_DIM
  2
*
  3
*
  4
*
  5
*
290
     1
  0
ACAMGFILTERDAT
  5
2858
102
{ACAD_REACTORS
330
2854
102
}
330
2854
100
AcAmgFilterDat
 70
    15
  1
*
  2
AM_FEA-AM_*
  3
*
  4
*
  5
*
290
     1
  0
ACAMGFILTERDAT
  5
2855
102
{ACAD_REACTORS
330
2854
102
}
330
2854
100
AcAmgFilterDat
 70
    15
  1
HATCH
  2
*
  3
*
  4
*
  5
*
290
     1
  0
ACAMGFILTERDAT
  5
2856
102
{ACAD_REACTORS
330
2854
102
}
330
2854
100
AcAmgFilterDat
 70
    15
  1
LINE
  2
8,8N,*-8,*-8N,AM_8,AM_8N,*-AM_8,*-AM_8N
  3
*
  4
*
  5
INSERT,STDPART2D
290
     1
  0
ACAMGFILTERDAT
  5
285A
102
{ACAD_REACTORS
330
2854
102
}
330
2854
100
AcAmgFilterDat
 70
    15
  1
ARC
  2
AM_5
  3
*
  4
2
  5
INSERT
290
     0
  0
ACAMGFILTERDAT
  5
2857
102
{ACAD_REACTORS
330
2854
102
}
330
2854
100
AcAmgFilterDat
 70
    15
  1
ACMFCFRAME,ACMDATUMTARGET,ACMDATUMID,ACMWELDSYM,ACMSURFSYM,ACMFEATID,ACMPARTREF,ACMBALLOON,AMDTEDGESYM,AMGSCREWCALCTABLE,ACMMARKSTAMP
  2
*
  3
*
  4
*
  5
*
290
     1
  0
LAYER_INDEX
  5
2873
102
{ACAD_REACTORS
330
2872
102
}
330
2872
100
AcDbIndex
 40
2458467.710370312
100
AcDbLayerIndex
  8
0
360
2874
 90
        1
  8
OUTLINE
360
2875
 90
       75
  8
SIZE
360
2876
 90
        6
  8
BASIS
360
2877
 90
        1
  8
DETAIL
360
2878
 90
        0
  8
ARRANGE
360
2879
 90
        2
  8
DEFPOINTS
360
287A
 90
        0
  8
ETC
360
287B
 90
        3
  8
FIX
360
287C
 90
        0
  8
NOTE
360
287D
 90
        3
  8
SERVICESPACE
360
287E
 90
        0
  8
SYMBOLLINE
360
287F
 90
        0
  8
AM_VIS
360
2AE3
 90
        0
  8
1
360
2AE4
 90
        0
  8
AM_5
360
2AE5
 90
        0
  0
DICTIONARY
  5
26AA
330
26A9
100
AcDbDictionary
280
     1
281
     1
  3
ACAD_XREC_ROUNDTRIP
360
2891
  3
BUMPTILE
360
26AC
  3
DIFFUSETILE
360
26AB
  3
OPACITYTILE
360
26AF
  3
REFLECTIONTILE
360
26AE
  3
REFRACTIONTILE
360
26B0
  3
SPECULARTILE
360
26AD
  0
DICTIONARY
  5
26A2
330
26A1
100
AcDbDictionary
280
     1
281
     1
  3
ACAD_XREC_ROUNDTRIP
360
2890
  3
BUMPTILE
360
26A4
  3
DIFFUSETILE
360
26A3
  3
OPACITYTILE
360
26A7
  3
REFLECTIONTILE
360
26A6
  3
REFRACTIONTILE
360
26A8
  3
SPECULARTILE
360
26A5
  0
DICTIONARY
  5
26B2
330
26B1
100
AcDbDictionary
280
     1
281
     1
  3
ACAD_XREC_ROUNDTRIP
360
2892
  3
BUMPTILE
360
26B4
  3
DIFFUSETILE
360
26B3
  3
OPACITYTILE
360
26B7
  3
REFLECTIONTILE
360
26B6
  3
REFRACTIONTILE
360
26B8
  3
SPECULARTILE
360
26B5
  0
DICTIONARY
  5
2887
330
26FC
100
AcDbDictionary
280
     1
281
     1
  3
ACAD_ROUNDTRIP_2008_TABLESTYLE_CELLSTYLEMAP
360
2DB6
  3
ACAD_XREC_ROUNDTRIP
360
2DBC
  0
IDBUFFER
  5
2874
330
0
100
AcDbIdBuffer
330
2ADB
  0
IDBUFFER
  5
2875
330
0
100
AcDbIdBuffer
330
953
330
954
330
955
330
956
330
957
330
958
330
29F3
330
29F4
330
29F5
330
29F6
330
29F7
330
29F8
330
29F9
330
29FA
330
29FB
330
29FC
330
29FD
330
29FE
330
29FF
330
2A00
330
2A01
330
2A02
330
2A03
330
2A04
330
2A05
330
2A06
330
2A07
330
2A08
330
2A09
330
2A0A
330
2A0B
330
2A0C
330
2A0D
330
2A0E
330
2A0F
330
2A10
330
2A11
330
2A12
330
2A13
330
2A14
330
2A15
330
2A16
330
2A17
330
2A18
330
2A19
330
2A1A
330
2A1B
330
2A1C
330
2A1D
330
2A1E
330
2A1F
330
2A20
330
2A21
330
2A22
330
2A23
330
2A24
330
2A25
330
2A26
330
2A27
330
2A28
330
2A29
330
2A2A
330
2A2B
330
2A2C
330
2A2D
330
2A2E
330
2A2F
330
2A30
330
2A31
330
2A32
330
2A33
330
2A34
330
2A35
330
2A36
330
2A37
  0
IDBUFFER
  5
2876
330
0
100
AcDbIdBuffer
330
2A68
330
2AFD
330
2B94
330
2BEF
330
2C0E
330
2C77
  0
IDBUFFER
  5
2877
330
0
100
AcDbIdBuffer
330
2AD8
  0
IDBUFFER
  5
2878
330
0
100
AcDbIdBuffer
  0
IDBUFFER
  5
2879
330
0
100
AcDbIdBuffer
330
25FC
330
2AD6
  0
IDBUFFER
  5
287A
330
0
100
AcDbIdBuffer
  0
IDBUFFER
  5
287B
330
0
100
AcDbIdBuffer
330
25F7
330
25F8
330
2611
  0
IDBUFFER
  5
287C
330
0
100
AcDbIdBuffer
  0
IDBUFFER
  5
287D
330
0
100
AcDbIdBuffer
330
2AD7
330
2ADA
330
2ADC
  0
IDBUFFER
  5
287E
330
0
100
AcDbIdBuffer
  0
IDBUFFER
  5
287F
330
0
100
AcDbIdBuffer
  0
IDBUFFER
  5
2AE3
330
0
100
AcDbIdBuffer
  0
IDBUFFER
  5
2AE4
330
0
100
AcDbIdBuffer
  0
IDBUFFER
  5
2AE5
330
0
100
AcDbIdBuffer
  0
XRECORD
  5
2891
102
{ACAD_REACTORS
330
26AA
102
}
330
26AA
100
AcDbXrecord
280
     1
102
MATERIAL
148
0.0
149
0.0
149
0.0
 93
        0
 94
      127
282
     0
 72
     0
 77
     0
171
     0
175
     0
179
     0
273
     0
  0
XRECORD
  5
26AC
102
{ACAD_REACTORS
330
26AA
102
}
330
26AA
100
AcDbXrecord
280
     1
270
     1
271
     1
  0
XRECORD
  5
26AB
102
{ACAD_REACTORS
330
26AA
102
}
330
26AA
100
AcDbXrecord
280
     1
270
     1
271
     1
  0
XRECORD
  5
26AF
102
{ACAD_REACTORS
330
26AA
102
}
330
26AA
100
AcDbXrecord
280
     1
270
     1
271
     1
  0
XRECORD
  5
26AE
102
{ACAD_REACTORS
330
26AA
102
}
330
26AA
100
AcDbXrecord
280
     1
270
     1
271
     1
  0
XRECORD
  5
26B0
102
{ACAD_REACTORS
330
26AA
102
}
330
26AA
100
AcDbXrecord
280
     1
270
     1
271
     1
  0
XRECORD
  5
26AD
102
{ACAD_REACTORS
330
26AA
102
}
330
26AA
100
AcDbXrecord
280
     1
270
     1
271
     1
  0
XRECORD
  5
2890
102
{ACAD_REACTORS
330
26A2
102
}
330
26A2
100
AcDbXrecord
280
     1
102
MATERIAL
148
0.0
149
0.0
149
0.0
 93
        0
 94
      127
282
     0
 72
     0
 77
     0
171
     0
175
     0
179
     0
273
     0
  0
XRECORD
  5
26A4
102
{ACAD_REACTORS
330
26A2
102
}
330
26A2
100
AcDbXrecord
280
     1
270
     1
271
     1
  0
XRECORD
  5
26A3
102
{ACAD_REACTORS
330
26A2
102
}
330
26A2
100
AcDbXrecord
280
     1
270
     1
271
     1
  0
XRECORD
  5
26A7
102
{ACAD_REACTORS
330
26A2
102
}
330
26A2
100
AcDbXrecord
280
     1
270
     1
271
     1
  0
XRECORD
  5
26A6
102
{ACAD_REACTORS
330
26A2
102
}
330
26A2
100
AcDbXrecord
280
     1
270
     1
271
     1
  0
XRECORD
  5
26A8
102
{ACAD_REACTORS
330
26A2
102
}
330
26A2
100
AcDbXrecord
280
     1
270
     1
271
     1
  0
XRECORD
  5
26A5
102
{ACAD_REACTORS
330
26A2
102
}
330
26A2
100
AcDbXrecord
280
     1
270
     1
271
     1
  0
XRECORD
  5
2892
102
{ACAD_REACTORS
330
26B2
102
}
330
26B2
100
AcDbXrecord
280
     1
102
MATERIAL
148
0.0
149
0.0
149
0.0
 93
        0
 94
      127
282
     0
 72
     0
 77
     0
171
     0
175
     0
179
     0
273
     0
  0
XRECORD
  5
26B4
102
{ACAD_REACTORS
330
26B2
102
}
330
26B2
100
AcDbXrecord
280
     1
270
     1
271
     1
  0
XRECORD
  5
26B3
102
{ACAD_REACTORS
330
26B2
102
}
330
26B2
100
AcDbXrecord
280
     1
270
     1
271
     1
  0
XRECORD
  5
26B7
102
{ACAD_REACTORS
330
26B2
102
}
330
26B2
100
AcDbXrecord
280
     1
270
     1
271
     1
  0
XRECORD
  5
26B6
102
{ACAD_REACTORS
330
26B2
102
}
330
26B2
100
AcDbXrecord
280
     1
270
     1
271
     1
  0
XRECORD
  5
26B8
102
{ACAD_REACTORS
330
26B2
102
}
330
26B2
100
AcDbXrecord
280
     1
270
     1
271
     1
  0
XRECORD
  5
26B5
102
{ACAD_REACTORS
330
26B2
102
}
330
26B2
100
AcDbXrecord
280
     1
270
     1
271
     1
  0
CELLSTYLEMAP
  5
2DB6
102
{ACAD_REACTORS
330
2887
102
}
330
2887
100
AcDbCellStyleMap
 90
        3
300
CELLSTYLE
  1
TABLEFORMAT_BEGIN
 90
        5
170
     1
 91
        0
 92
    32768
 62
   257
 93
        1
300
CONTENTFORMAT
  1
CONTENTFORMAT_BEGIN
 90
        0
 91
        0
 92
      512
 93
        0
300

 40
0.0
140
1.0
 94
        5
 62
     0
340
26ED
144
0.25
309
CONTENTFORMAT_END
171
     1
301
MARGIN
  1
CELLMARGIN_BEGIN
 40
0.06
 40
0.06
 40
0.06
 40
0.06
 40
0.18
 40
0.18
309
CELLMARGIN_END
 94
        6
 95
        1
302
GRIDFORMAT
  1
GRIDFORMAT_BEGIN
 90
        0
 91
        1
 62
     0
 92
       -2
340
0
 93
        0
 40
0.045
309
GRIDFORMAT_END
 95
        2
302
GRIDFORMAT
  1
GRIDFORMAT_BEGIN
 90
        0
 91
        1
 62
     0
 92
       -2
340
0
 93
        0
 40
0.045
309
GRIDFORMAT_END
 95
        4
302
GRIDFORMAT
  1
GRIDFORMAT_BEGIN
 90
        0
 91
        1
 62
     0
 92
       -2
340
0
 93
        0
 40
0.045
309
GRIDFORMAT_END
 95
        8
302
GRIDFORMAT
  1
GRIDFORMAT_BEGIN
 90
        0
 91
        1
 62
     0
 92
       -2
340
0
 93
        0
 40
0.045
309
GRIDFORMAT_END
 95
       16
302
GRIDFORMAT
  1
GRIDFORMAT_BEGIN
 90
        0
 91
        1
 62
     0
 92
       -2
340
0
 93
        0
 40
0.045
309
GRIDFORMAT_END
 95
       32
302
GRIDFORMAT
  1
GRIDFORMAT_BEGIN
 90
        0
 91
        1
 62
     0
 92
       -2
340
0
 93
        0
 40
0.045
309
GRIDFORMAT_END
309
TABLEFORMAT_END
  1
CELLSTYLE_BEGIN
 90
        1
 91
        1
300
_TITLE
309
CELLSTYLE_END
300
CELLSTYLE
  1
TABLEFORMAT_BEGIN
 90
        5
170
     1
 91
        0
 92
        0
 62
   257
 93
        1
300
CONTENTFORMAT
  1
CONTENTFORMAT_BEGIN
 90
        0
 91
        0
 92
      512
 93
        0
300

 40
0.0
140
1.0
 94
        5
 62
     0
340
26ED
144
0.18
309
CONTENTFORMAT_END
171
     1
301
MARGIN
  1
CELLMARGIN_BEGIN
 40
0.06
 40
0.06
 40
0.06
 40
0.06
 40
0.18
 40
0.18
309
CELLMARGIN_END
 94
        6
 95
        1
302
GRIDFORMAT
  1
GRIDFORMAT_BEGIN
 90
        0
 91
        1
 62
     0
 92
       -2
340
0
 93
        0
 40
0.045
309
GRIDFORMAT_END
 95
        2
302
GRIDFORMAT
  1
GRIDFORMAT_BEGIN
 90
        0
 91
        1
 62
     0
 92
       -2
340
0
 93
        0
 40
0.045
309
GRIDFORMAT_END
 95
        4
302
GRIDFORMAT
  1
GRIDFORMAT_BEGIN
 90
        0
 91
        1
 62
     0
 92
       -2
340
0
 93
        0
 40
0.045
309
GRIDFORMAT_END
 95
        8
302
GRIDFORMAT
  1
GRIDFORMAT_BEGIN
 90
        0
 91
        1
 62
     0
 92
       -2
340
0
 93
        0
 40
0.045
309
GRIDFORMAT_END
 95
       16
302
GRIDFORMAT
  1
GRIDFORMAT_BEGIN
 90
        0
 91
        1
 62
     0
 92
       -2
340
0
 93
        0
 40
0.045
309
GRIDFORMAT_END
 95
       32
302
GRIDFORMAT
  1
GRIDFORMAT_BEGIN
 90
        0
 91
        1
 62
     0
 92
       -2
340
0
 93
        0
 40
0.045
309
GRIDFORMAT_END
309
TABLEFORMAT_END
  1
CELLSTYLE_BEGIN
 90
        2
 91
        1
300
_HEADER
309
CELLSTYLE_END
300
CELLSTYLE
  1
TABLEFORMAT_BEGIN
 90
        5
170
     1
 91
        0
 92
        0
 62
   257
 93
        1
300
CONTENTFORMAT
  1
CONTENTFORMAT_BEGIN
 90
        0
 91
        0
 92
      512
 93
        0
300

 40
0.0
140
1.0
 94
        2
 62
     0
340
26ED
144
0.18
309
CONTENTFORMAT_END
171
     1
301
MARGIN
  1
CELLMARGIN_BEGIN
 40
0.06
 40
0.06
 40
0.06
 40
0.06
 40
0.18
 40
0.18
309
CELLMARGIN_END
 94
        6
 95
        1
302
GRIDFORMAT
  1
GRIDFORMAT_BEGIN
 90
        0
 91
        1
 62
     0
 92
       -2
340
0
 93
        0
 40
0.045
309
GRIDFORMAT_END
 95
        2
302
GRIDFORMAT
  1
GRIDFORMAT_BEGIN
 90
        0
 91
        1
 62
     0
 92
       -2
340
0
 93
        0
 40
0.045
309
GRIDFORMAT_END
 95
        4
302
GRIDFORMAT
  1
GRIDFORMAT_BEGIN
 90
        0
 91
        1
 62
     0
 92
       -2
340
0
 93
        0
 40
0.045
309
GRIDFORMAT_END
 95
        8
302
GRIDFORMAT
  1
GRIDFORMAT_BEGIN
 90
        0
 91
        1
 62
     0
 92
       -2
340
0
 93
        0
 40
0.045
309
GRIDFORMAT_END
 95
       16
302
GRIDFORMAT
  1
GRIDFORMAT_BEGIN
 90
        0
 91
        1
 62
     0
 92
       -2
340
0
 93
        0
 40
0.045
309
GRIDFORMAT_END
 95
       32
302
GRIDFORMAT
  1
GRIDFORMAT_BEGIN
 90
        0
 91
        1
 62
     0
 92
       -2
340
0
 93
        0
 40
0.045
309
GRIDFORMAT_END
309
TABLEFORMAT_END
  1
CELLSTYLE_BEGIN
 90
        3
 91
        2
300
_DATA
309
CELLSTYLE_END
  0
XRECORD
  5
2DBC
102
{ACAD_REACTORS
330
2887
102
}
330
2887
100
AcDbXrecord
280
     1
102
ACAD_ROUNDTRIP_PRE2007_TABLESTYLE
 90
      512
 91
        0
  1

 92
      512
 93
        0
  2

 94
      512
 95
        0
  3

  0
ENDSEC
  0
EOF
