  0
SECTION
  2
HEADER
  9
$ACADVER
  1
AC1018
  9
$ACADMAINTVER
 70
   104
  9
$DWGCODEPAGE
  3
ANSI_932
  9
$LASTSAVEDBY
  1
WM109WK
  9
$CUSTOMPROPERTYTAG
  1
AmdtFileType
  9
$CUSTOMPROPERTY
  1
84
  9
$INSBASE
 10
0.0
 20
0.0
 30
0.0
  9
$EXTMIN
 10
-798.0605915515462
 20
-999.1149791738898
 30
-0.0015257624927045
  9
$EXTMAX
 10
1156.983959473417
 20
865.1733481851097
 30
50.00152599532333
  9
$LIMMIN
 10
-2970.0
 20
-2100.0
  9
$LIMMAX
 10
2970.0
 20
2100.0
  9
$ORTHOMODE
 70
     1
  9
$REGENMODE
 70
     0
  9
$FILLMODE
 70
     1
  9
$QTEXTMODE
 70
     0
  9
$MIRRTEXT
 70
     0
  9
$LTSCALE
 40
20.0
  9
$ATTMODE
 70
     1
  9
$TEXTSIZE
 40
64.0
  9
$TRACEWID
 40
0.05
  9
$TEXTSTYLE
  7
STANDARD
  9
$CLAYER
  8
SIZE
  9
$CELTYPE
  6
ByLayer
  9
$CECOLOR
 62
   256
  9
$CELTSCALE
 40
1.0
  9
$DISPSILH
 70
     0
  9
$DIMSCALE
 40
1.0
  9
$DIMASZ
 40
0.12
  9
$DIMEXO
 40
0.05
  9
$DIMDLI
 40
0.5
  9
$DIMRND
 40
0.0
  9
$DIMDLE
 40
0.0
  9
$DIMEXE
 40
0.1
  9
$DIMTP
 40
0.1
  9
$DIMTM
 40
0.1
  9
$DIMTXT
 40
0.12
  9
$DIMCEN
 40
0.0
  9
$DIMTSZ
 40
0.0
  9
$DIMTOL
 70
     0
  9
$DIMLIM
 70
     0
  9
$DIMTIH
 70
     1
  9
$DIMTOH
 70
     1
  9
$DIMSE1
 70
     0
  9
$DIMSE2
 70
     0
  9
$DIMTAD
 70
     0
  9
$DIMZIN
 70
     7
  9
$DIMBLK
  1

  9
$DIMASO
 70
     1
  9
$DIMSHO
 70
     0
  9
$DIMPOST
  1

  9
$DIMAPOST
  1
mm
  9
$DIMALT
 70
     0
  9
$DIMALTD
 70
     2
  9
$DIMALTF
 40
25.4
  9
$DIMLFAC
 40
1.0
  9
$DIMTOFL
 70
     0
  9
$DIMTVP
 40
0.0
  9
$DIMTIX
 70
     0
  9
$DIMSOXD
 70
     0
  9
$DIMSAH
 70
     0
  9
$DIMBLK1
  1

  9
$DIMBLK2
  1

  9
$DIMSTYLE
  2
AM_ANSI
  9
$DIMCLRD
 70
   256
  9
$DIMCLRE
 70
   256
  9
$DIMCLRT
 70
     2
  9
$DIMTFAC
 40
0.71
  9
$DIMGAP
 40
0.06
  9
$DIMJUST
 70
     0
  9
$DIMSD1
 70
     0
  9
$DIMSD2
 70
     0
  9
$DIMTOLJ
 70
     1
  9
$DIMTZIN
 70
     7
  9
$DIMALTZ
 70
     0
  9
$DIMALTTZ
 70
     0
  9
$DIMUPT
 70
     0
  9
$DIMDEC
 70
     4
  9
$DIMTDEC
 70
     4
  9
$DIMALTU
 70
     2
  9
$DIMALTTD
 70
     4
  9
$DIMTXSTY
  7
STANDARD
  9
$DIMAUNIT
 70
     0
  9
$DIMADEC
 70
     0
  9
$DIMALTRND
 40
0.0
  9
$DIMAZIN
 70
     2
  9
$DIMDSEP
 70
    46
  9
$DIMATFIT
 70
     3
  9
$DIMFRAC
 70
     0
  9
$DIMLDRBLK
  1

  9
$DIMLUNIT
 70
     2
  9
$DIMLWD
 70
    -1
  9
$DIMLWE
 70
    -1
  9
$DIMTMOVE
 70
     0
  9
$LUNITS
 70
     2
  9
$LUPREC
 70
     4
  9
$SKETCHINC
 40
0.1
  9
$FILLETRAD
 40
4.0
  9
$AUNITS
 70
     1
  9
$AUPREC
 70
     3
  9
$MENU
  1
ACAD
  9
$ELEVATION
 40
0.0
  9
$PELEVATION
 40
0.0
  9
$THICKNESS
 40
50.0
  9
$LIMCHECK
 70
     0
  9
$CHAMFERA
 40
0.0
  9
$CHAMFERB
 40
0.0
  9
$CHAMFERC
 40
0.0
  9
$CHAMFERD
 40
0.0
  9
$SKPOLY
 70
     0
  9
$TDCREATE
 40
2452321.396199653
  9
$TDUCREATE
 40
2452321.021199653
  9
$TDUPDATE
 40
2458467.710779931
  9
$TDUUPDATE
 40
2458467.335779931
  9
$TDINDWG
 40
1.0477314005
  9
$TDUSRTIMER
 40
1.0477254398
  9
$USRTIMER
 70
     1
  9
$ANGBASE
 50
0.0
  9
$ANGDIR
 70
     0
  9
$PDMODE
 70
     3
  9
$PDSIZE
 40
-2.0
  9
$PLINEWID
 40
0.0
  9
$SPLFRAME
 70
     0
  9
$SPLINETYPE
 70
     6
  9
$SPLINESEGS
 70
     8
  9
$HANDSEED
  5
319F
  9
$SURFTAB1
 70
     6
  9
$SURFTAB2
 70
     6
  9
$SURFTYPE
 70
     6
  9
$SURFU
 70
     6
  9
$SURFV
 70
     6
  9
$UCSBASE
  2

  9
$UCSNAME
  2

  9
$UCSORG
 10
0.0
 20
0.0
 30
0.0
  9
$UCSXDIR
 10
1.0
 20
0.0
 30
0.0
  9
$UCSYDIR
 10
0.0
 20
1.0
 30
0.0
  9
$UCSORTHOREF
  2

  9
$UCSORTHOVIEW
 70
     0
  9
$UCSORGTOP
 10
0.0
 20
0.0
 30
0.0
  9
$UCSORGBOTTOM
 10
0.0
 20
0.0
 30
0.0
  9
$UCSORGLEFT
 10
0.0
 20
0.0
 30
0.0
  9
$UCSORGRIGHT
 10
0.0
 20
0.0
 30
0.0
  9
$UCSORGFRONT
 10
0.0
 20
0.0
 30
0.0
  9
$UCSORGBACK
 10
0.0
 20
0.0
 30
0.0
  9
$PUCSBASE
  2

  9
$PUCSNAME
  2

  9
$PUCSORG
 10
0.0
 20
0.0
 30
0.0
  9
$PUCSXDIR
 10
1.0
 20
0.0
 30
0.0
  9
$PUCSYDIR
 10
0.0
 20
1.0
 30
0.0
  9
$PUCSORTHOREF
  2

  9
$PUCSORTHOVIEW
 70
     0
  9
$PUCSORGTOP
 10
0.0
 20
0.0
 30
0.0
  9
$PUCSORGBOTTOM
 10
0.0
 20
0.0
 30
0.0
  9
$PUCSORGLEFT
 10
0.0
 20
0.0
 30
0.0
  9
$PUCSORGRIGHT
 10
0.0
 20
0.0
 30
0.0
  9
$PUCSORGFRONT
 10
0.0
 20
0.0
 30
0.0
  9
$PUCSORGBACK
 10
0.0
 20
0.0
 30
0.0
  9
$USERI1
 70
     0
  9
$USERI2
 70
     0
  9
$USERI3
 70
     0
  9
$USERI4
 70
     0
  9
$USERI5
 70
     0
  9
$USERR1
 40
20.0
  9
$USERR2
 40
0.0
  9
$USERR3
 40
0.0
  9
$USERR4
 40
0.0
  9
$USERR5
 40
0.0
  9
$WORLDVIEW
 70
     1
  9
$SHADEDGE
 70
     3
  9
$SHADEDIF
 70
    70
  9
$TILEMODE
 70
     1
  9
$MAXACTVP
 70
    64
  9
$PINSBASE
 10
0.0
 20
0.0
 30
0.0
  9
$PLIMCHECK
 70
     0
  9
$PEXTMIN
 10
1.000000000000000E+20
 20
1.000000000000000E+20
 30
1.000000000000000E+20
  9
$PEXTMAX
 10
-1.000000000000000E+20
 20
-1.000000000000000E+20
 30
-1.000000000000000E+20
  9
$PLIMMIN
 10
0.0
 20
0.0
  9
$PLIMMAX
 10
12.0
 20
9.0
  9
$UNITMODE
 70
     0
  9
$VISRETAIN
 70
     1
  9
$PLINEGEN
 70
     0
  9
$PSLTSCALE
 70
     1
  9
$TREEDEPTH
 70
  3020
  9
$CMLSTYLE
  2
Standard
  9
$CMLJUST
 70
     0
  9
$CMLSCALE
 40
1.0
  9
$PROXYGRAPHICS
 70
     1
  9
$MEASUREMENT
 70
     0
  9
$CELWEIGHT
370
    -1
  9
$ENDCAPS
280
     0
  9
$JOINSTYLE
280
     0
  9
$LWDISPLAY
290
     0
  9
$INSUNITS
 70
     0
  9
$HYPERLINKBASE
  1

  9
$STYLESHEET
  1

  9
$XEDIT
290
     1
  9
$CEPSNTYPE
380
     0
  9
$PSTYLEMODE
290
     1
  9
$FINGERPRINTGUID
  2
{0B324CAA-5C24-481B-A8E1-7C5E51E493E6}
  9
$VERSIONGUID
  2
{D8C79909-EF04-44AF-A581-689D8D4FD988}
  9
$EXTNAMES
290
     1
  9
$PSVPSCALE
 40
0.0
  9
$OLESTARTUP
290
     0
  9
$SORTENTS
280
   127
  9
$INDEXCTL
280
     1
  9
$HIDETEXT
280
     0
  9
$XCLIPFRAME
290
     0
  9
$HALOGAP
280
     0
  9
$OBSCOLOR
 70
   257
  9
$OBSLTYPE
280
     0
  9
$INTERSECTIONDISPLAY
280
     0
  9
$INTERSECTIONCOLOR
 70
   257
  9
$DIMASSOC
280
     1
  9
$PROJECTNAME
  1

  0
ENDSEC
  0
SECTION
  2
CLASSES
  0
CLASS
  1
ACDBDICTIONARYWDFLT
  2
AcDbDictionaryWithDefault
  3
ObjectDBX Classes
 90
        0
 91
        1
280
     0
281
     0
  0
CLASS
  1
MATERIAL
  2
AcDbMaterial
  3
ObjectDBX Classes
 90
     1153
 91
        3
280
     0
281
     0
  0
CLASS
  1
VISUALSTYLE
  2
AcDbVisualStyle
  3
ObjectDBX Classes
 90
     4095
 91
       16
280
     0
281
     0
  0
CLASS
  1
SCALE
  2
AcDbScale
  3
ObjectDBX Classes
 90
     1153
 91
       33
280
     0
281
     0
  0
CLASS
  1
TABLESTYLE
  2
AcDbTableStyle
  3
ObjectDBX Classes
 90
     4095
 91
        1
280
     0
281
     0
  0
CLASS
  1
MLEADERSTYLE
  2
AcDbMLeaderStyle
  3
ACDB_MLEADERSTYLE_CLASS
 90
     4095
 91
        1
280
     0
281
     0
  0
CLASS
  1
AMGSETTINGSOBJ
  2
AmgSettingsObj
  3
"AcadM|Product Description: AutoCAD Mechanical|Company: Autodesk, Inc."
 90
     1024
 91
        2
280
     0
281
     0
  0
CLASS
  1
ACME_DOCUMENT
  2
AcMeDbDoc
  3
AcMeServices
 90
     1024
 91
        2
280
     0
281
     0
  0
CLASS
  1
ACMESCOPE
  2
AcMeScope
  3
AcMeServices
 90
     1024
 91
        1
280
     0
281
     0
  0
CLASS
  1
ACMECOMMANDHISTORY
  2
AcMeCommandHistory
  3
AcMeServices
 90
     1024
 91
        1
280
     0
281
     0
  0
CLASS
  1
ACIMSYSVARMAN
  2
AcImSysVarManager
  3
AcMeServices
 90
     1024
 91
        6
280
     0
281
     0
  0
CLASS
  1
ACIMREALSYSVAR
  2
AcImRealSysVar
  3
AcMeServices
 90
     1024
 91
       16
280
     0
281
     0
  0
CLASS
  1
ACIMINTSYSVAR
  2
AcImIntSysVar
  3
AcMeServices
 90
     1024
 91
       45
280
     0
281
     0
  0
CLASS
  1
ACMEDRAWINGMAN
  2
AcMeDrawingMan
  3
AcMeServices
 90
     1024
 91
        1
280
     0
281
     0
  0
CLASS
  1
ACMEVIEW
  2
AcMeView
  3
AcMeServices
 90
     1024
 91
        1
280
     0
281
     0
  0
CLASS
  1
ACDBENTITYCACHE
  2
AcMeEntityCache
  3
AcMeServices
 90
     1024
 91
        1
280
     0
281
     0
  0
CLASS
  1
GSMANAGER
  2
AcMeGSManager
  3
AcMeServices
 90
     1024
 91
        1
280
     0
281
     0
  0
CLASS
  1
AMDTINTERNALREACTOR
  2
AmdtInternalReactor
  3
AcMeServices
 90
     1024
 91
        2
280
     0
281
     0
  0
CLASS
  1
ACMESTATEMGR
  2
AcMeStateMgr
  3
AcMeServices
 90
     1024
 91
        1
280
     0
281
     0
  0
CLASS
  1
ACGREFMASTER
  2
AcGrefMaster
  3
AcAttribServices
 90
     1024
 91
        1
280
     0
281
     0
  0
CLASS
  1
AM_DRAWING_MGR
  2
AcDmDwgMgr
  3
AcMechDwgViewMgmt
 90
     1024
 91
        1
280
     0
281
     0
  0
CLASS
  1
AM_DWG_DOCUMENT
  2
AcDmDwgDocument
  3
AcMechDwgViewMgmt
 90
     1024
 91
        1
280
     0
281
     0
  0
CLASS
  1
AM_DWG_SHEET
  2
AcDmSheet
  3
AcMechDwgViewMgmt
 90
     1024
 91
        1
280
     0
281
     0
  0
CLASS
  1
AM_VIEWDIMPARMAP
  2
AcDmViewDimParMap
  3
AcMechDwgViewMgmt
 90
     1024
 91
        1
280
     0
281
     0
  0
CLASS
  1
AM_DWGMGR_NAME
  2
AcDmDwgMgrName
  3
AcMechDwgViewMgmt
 90
     1024
 91
        1
280
     0
281
     0
  0
CLASS
  1
ACME_DATABASE
  2
AcMeDbDatabase
  3
AcMeServices
 90
     1024
 91
        1
280
     0
281
     0
  0
CLASS
  1
ACRFINSADJUSTERMGR
  2
AcRfInsAdjusterMgr
  3
AcMeServices
 90
     1024
 91
        1
280
     0
281
     0
  0
CLASS
  1
ACGREFACADMASTER
  2
AcGrefacadMaster
  3
AcGrefServices
 90
     1024
 91
        1
280
     0
281
     0
  0
CLASS
  1
AMDTMENUSTATEMGR
  2
AmdtMenuStateMgr
  3
McadcomServices
 90
     1024
 91
        1
280
     0
281
     0
  0
CLASS
  1
AMDTMCOMMENUSTATE
  2
AmdtMcomMenuState
  3
McadcomServices
 90
     1024
 91
        1
280
     0
281
     0
  0
CLASS
  1
AMIMASTER
  2
AmiMaster
  3
AmiServices
 90
     1024
 91
        1
280
     0
281
     0
  0
CLASS
  1
ASAPP
  2
AcAsAppObject
  3
AutoSurfServices
 90
     1024
 91
        1
280
     0
281
     0
  0
CLASS
  1
IM_STATIC_MAN
  2
AcImStaticVarManager
  3
AcMeServices
 90
     1024
 91
        1
280
     0
281
     0
  0
CLASS
  1
ACIMSTRSYSVAR
  2
AcImStrSysVar
  3
AcMeServices
 90
     1024
 91
       11
280
     0
281
     0
  0
CLASS
  1
ACIMDBLSTATICVAR
  2
AcImDblStaticVar
  3
AcMeServices
 90
     1024
 91
       20
280
     0
281
     0
  0
CLASS
  1
ACIMSTRSTATICVAR
  2
AcImStrStaticVar
  3
AcMeServices
 90
     1024
 91
       12
280
     0
281
     0
  0
CLASS
  1
ACIMINTSTATICVAR
  2
AcImIntStaticVar
  3
AcMeServices
 90
     1024
 91
       17
280
     0
281
     0
  0
CLASS
  1
ACASGREFMASTER
  2
AcAsGrefMaster
  3
AutoSurfResolverServices
 90
     1024
 91
        1
280
     0
281
     0
  0
CLASS
  1
ACADGREFMODULE
  2
AcAdGrefModule
  3
AdGrefServices
 90
     1024
 91
        1
280
     0
281
     0
  0
CLASS
  1
AMDTMAPISURFMOUDULE
  2
AmdtMApiSurfModule
  3
MApiSurfServices
 90
     1024
 91
        1
280
     0
281
     0
  0
CLASS
  1
MAPIAMMOUDLE
  2
MApiAmModule
  3
MApiAmServices
 90
     1024
 91
        1
280
     0
281
     0
  0
CLASS
  1
AMDTADMENUSTATE
  2
AmdtAdMenuState
  3
DesignerServices
 90
     1024
 91
        1
280
     0
281
     0
  0
CLASS
  1
ADAPPL
  2
AcAdAppl
  3
DesignerServices
 90
     1024
 91
        1
280
     0
281
     0
  0
CLASS
  1
DEPMGR
  2
AcAdDepMgr
  3
DesignerServices
 90
     1024
 91
        1
280
     0
281
     0
  0
CLASS
  1
PARAMMGR
  2
AcAdParamMgr
  3
DesignerServices
 90
     1024
 91
        1
280
     0
281
     0
  0
CLASS
  1
PARAMSCOPE
  2
AcAdParamScope
  3
DesignerServices
 90
     1024
 91
        1
280
     0
281
     0
  0
CLASS
  1
NAMEDAPPL
  2
AcAdNamedAppl
  3
DesignerServices
 90
     1024
 91
        1
280
     0
281
     0
  0
CLASS
  1
AMDTDMMENUSTATE
  2
AmdtDmMenuState
  3
AcMechDwgViewMgmt
 90
     1024
 91
        1
280
     0
281
     0
  0
CLASS
  1
MAPIADMODULE
  2
MApiAdModule
  3
MApiAdServices
 90
     1024
 91
        1
280
     0
281
     0
  0
CLASS
  1
AMDTAMMENUSTATE
  2
AmdtAmMenuState
  3
DesignerAssemblies
 90
     1024
 91
        1
280
     0
281
     0
  0
CLASS
  1
ACAMPROJECT
  2
AcAmProject
  3
DesignerAssemblies
 90
     1024
 91
        1
280
     0
281
     0
  0
CLASS
  1
ACAMGRCOMPDEF
  2
AcAmGrCompDef
  3
DesignerAssemblies
 90
     1024
 91
        1
280
     0
281
     0
  0
CLASS
  1
ACCMCONTEXT
  2
AcCmContext
  3
DesignerAssemblies
 90
     1024
 91
        1
280
     0
281
     0
  0
CLASS
  1
ACAMCOMPDEF
  2
AcAmCompDef
  3
DesignerAssemblies
 90
     1024
 91
        1
280
     0
281
     0
  0
CLASS
  1
ACAMCOMPDEFMGR
  2
AcAmCompDefMgr
  3
DesignerAssemblies
 90
     1024
 91
        1
280
     0
281
     0
  0
CLASS
  1
AMCONTEXTMGR
  2
AcAmContextMgr
  3
DesignerAssemblies
 90
     1024
 91
        1
280
     0
281
     0
  0
CLASS
  1
ACAMCONTEXTMODELER
  2
AcAmContextModeler
  3
DesignerAssemblies
 90
     1024
 91
        1
280
     0
281
     0
  0
CLASS
  1
ACMDATADICTIONARY
  2
AcmDataDictionary
  3
"AcmSymBB|Product Description: AutoCAD Mechanical|Company: Autodesk, Inc."
 90
     1024
 91
        1
280
     0
281
     0
  0
CLASS
  1
ACMDATAENTRYBLOCK
  2
AcmDataEntryBlock
  3
AcmSymBB|Product Description: AutoCAD Mechanical|Company: Autodesk, Inc.
 90
     1024
 91
        1
280
     0
281
     0
  0
CLASS
  1
ACRFATTGENMGR
  2
AcRfAttGeneralMgr
  3
AcAttribServices
 90
     1024
 91
        1
280
     0
281
     0
  0
CLASS
  1
ACRFOBJATTMGR
  2
AcRfObjAttGroupMgr
  3
AcAttribServices
 90
     1024
 91
        1
280
     0
281
     0
  0
CLASS
  1
ACRFMCADAPIATTHOLDER
  2
AcRfMCADAPIAttHolder
  3
AcAttribServices
 90
     1024
 91
        1
280
     0
281
     0
  0
CLASS
  1
AMDTSYSATTR
  2
AmdtSystemAttribute
  3
AcAttribServices
 90
     1024
 91
        1
280
     0
281
     0
  0
CLASS
  1
CATALOGSTATE
  2
AcAmCatalogState
  3
DesignerAssemblies
 90
     1024
 91
        1
280
     0
281
     0
  0
CLASS
  1
ACAMGRCOMPDEFSET
  2
AcAmGrCompDefSet
  3
DesignerAssemblies
 90
     1024
 91
        1
280
     0
281
     0
  0
CLASS
  1
AMDTBROWSERDBTAB
  2
AmdtBrowserDbTab
  3
McadcomServices
 90
     1024
 91
        1
280
     0
281
     0
  0
CLASS
  1
CBROWSERAPPOBJECT
  2
CBrowserAppObject
  3
McadcomServices
 90
     1024
 91
        3
280
     0
281
     0
  0
CLASS
  1
DM_PLACEHOLDER
  2
AcDmSelsetPlaceholder
  3
AcMechDwgViewMgmt
 90
     1024
 91
        1
280
     0
281
     0
  0
CLASS
  1
ACMSTANDARDANSI
  2
AcmStandardANSI
  3
"Amdt_StdImp|Product Description: AutoCAD Mechanical|Company: Autodesk, Inc."
 90
     1024
 91
        1
280
     0
281
     0
  0
CLASS
  1
ACMSURFSTANDARDANSI
  2
AcmSurfTextStdANSI
  3
"Amdt_StdImp|Product Description: AutoCAD Mechanical|Company: Autodesk, Inc."
 90
     1024
 91
        1
280
     0
281
     0
  0
CLASS
  1
ACMFCFSTANDARDANSI
  2
AcmFCFStdANSI
  3
"Amdt_StdImp|Product Description: AutoCAD Mechanical|Company: Autodesk, Inc."
 90
     1024
 91
        1
280
     0
281
     0
  0
CLASS
  1
ACMWELDSTANDARDANSI
  2
AcmWeldingStdANSI
  3
"Amdt_StdImp|Product Description: AutoCAD Mechanical|Company: Autodesk, Inc."
 90
     1024
 91
        1
280
     0
281
     0
  0
CLASS
  1
ACMIDSTANDARDANSI
  2
AcmIdStdANSI
  3
"Amdt_StdImp|Product Description: AutoCAD Mechanical|Company: Autodesk, Inc."
 90
     1024
 91
        1
280
     0
281
     0
  0
CLASS
  1
ACMDATUMSTANDARDANSI
  2
AcmDatumStdANSI
  3
"Amdt_StdImp|Product Description: AutoCAD Mechanical|Company: Autodesk, Inc."
 90
     1024
 91
        1
280
     0
281
     0
  0
CLASS
  1
ACMBOMSTANDARDANSI
  2
AcmBOMStdANSI
  3
"Amdt_StdImp|Product Description: AutoCAD Mechanical|Company: Autodesk, Inc."
 90
     1024
 91
        1
280
     0
281
     0
  0
CLASS
  1
ACMDETAILSTANDARDANSI
  2
AmdtDetailSymStdANSI
  3
"Amdt_StdImp|Product Description: AutoCAD Mechanical|Company: Autodesk, Inc."
 90
     1024
 91
        1
280
     0
281
     0
  0
CLASS
  1
ACMSECTIONSTANDARDANSI
  2
AmdtSectionSymStdANSI
  3
"Amdt_StdImp|Product Description: AutoCAD Mechanical|Company: Autodesk, Inc."
 90
     1024
 91
        1
280
     0
281
     0
  0
CLASS
  1
ACMCENTERLINESTANDARDANSI
  2
AmdtCenterLineStdANSI
  3
"Amdt_StdImp|Product Description: AutoCAD Mechanical|Company: Autodesk, Inc."
 90
     1024
 91
        1
280
     0
281
     0
  0
CLASS
  1
ACMTHREADLINESTANDARDANSI
  2
AmdtThreadLineStdANSI
  3
"Amdt_StdImp|Product Description: AutoCAD Mechanical|Company: Autodesk, Inc."
 90
     1024
 91
        1
280
     0
281
     0
  0
CLASS
  1
ACMNOTESTANDARDANSI
  2
AmdtNoteStdANSI
  3
"Amdt_StdImp|Product Description: AutoCAD Mechanical|Company: Autodesk, Inc."
 90
     1024
 91
        1
280
     0
281
     0
  0
CLASS
  1
ACMTAPERSTANDARDANSI
  2
AcmTaperStdANSI
  3
"Amdt_StdImp|Product Description: AutoCAD Mechanical|Company: Autodesk, Inc."
 90
     1024
 91
        1
280
     0
281
     0
  0
CLASS
  1
ACMANOOTATIONVIEWSTANDARDANSI
  2
AmdtAnViewStdANSI
  3
"Amdt_StdImp|Product Description: AutoCAD Mechanical|Company: Autodesk, Inc."
 90
     1024
 91
        1
280
     0
281
     0
  0
CLASS
  1
ACAMGLAYSTD
  2
AcAmgLayStd
  3
"AmgLay|Product Description: AutoCAD Mechanical|Company: Autodesk, Inc."
 90
     1024
 91
        1
280
     0
281
     0
  0
CLASS
  1
ACAMGDIMSTD
  2
AcAmgDimStd
  3
"AmgDim|Product Description: AutoCAD Mechanical|Company: Autodesk, Inc."
 90
     1024
 91
        1
280
     0
281
     0
  0
CLASS
  1
ACAMGHOLECHARTSTDANSI
  2
AcAmgHoleChartStdANSI
  3
AmgDim|Product Description: AutoCAD Mechanical|Company: Autodesk, Inc.
 90
     1024
 91
        1
280
     0
281
     0
  0
CLASS
  1
AMGOBJPROPCFG
  2
AmgObjPropCfg
  3
"AmgLay|Product Description: AutoCAD Mechanical|Company: Autodesk, Inc."
 90
     1025
 91
        1
280
     0
281
     0
  0
CLASS
  1
ACAMGTITLESTD
  2
AcAmgTitleStd
  3
"AmgTitle|Product Description: AutoCAD Mechanical|Company: Autodesk, Inc."
 90
     4095
 91
        1
280
     0
281
     0
  0
CLASS
  1
AMDTNOTETEMPLATEDB
  2
AmdtNoteTemplateDB
  3
AcmSymBB|Product Description: AutoCAD Mechanical|Company: Autodesk, Inc.
 90
     1024
 91
        6
280
     0
281
     0
  0
CLASS
  1
LAYER_INDEX
  2
AcDbLayerIndex
  3
ObjectDBX Classes
 90
        0
 91
        1
280
     0
281
     0
  0
CLASS
  1
IDBUFFER
  2
AcDbIdBuffer
  3
ObjectDBX Classes
 90
        0
 91
       15
280
     0
281
     0
  0
CLASS
  1
DICTIONARYVAR
  2
AcDbDictionaryVar
  3
ObjectDBX Classes
 90
        0
 91
       10
280
     0
281
     0
  0
CLASS
  1
CELLSTYLEMAP
  2
AcDbCellStyleMap
  3
ObjectDBX Classes
 90
     1152
 91
        4
280
     0
281
     0
  0
CLASS
  1
ACAMGFILTERDAT
  2
AcAmgFilterDat
  3
"AcadM|Product Description: AutoCAD Mechanical|Company: Autodesk, Inc."
 90
     1024
 91
        6
280
     0
281
     0
  0
CLASS
  1
ACMSTANDARDISO
  2
AcmStandardISO
  3
"Amdt_StdImp|Product Description: AutoCAD Mechanical|Company: Autodesk, Inc."
 90
     1024
 91
        0
280
     0
281
     0
  0
CLASS
  1
AMDTEDGESTANDARDISO13715
  2
AmdtEdgeStdISO13715
  3
"Amdt_StdImp|Product Description: AutoCAD Mechanical|Company: Autodesk, Inc."
 90
     1024
 91
        0
280
     0
281
     0
  0
CLASS
  1
ACMSURFSTANDARDISO2002
  2
AcmSurfTextStdISO2002
  3
"Amdt_StdImp|Product Description: AutoCAD Mechanical|Company: Autodesk, Inc."
 90
     1024
 91
        0
280
     0
281
     0
  0
CLASS
  1
ACMFCFSTANDARDISO
  2
AcmFCFStdISO
  3
"Amdt_StdImp|Product Description: AutoCAD Mechanical|Company: Autodesk, Inc."
 90
     1024
 91
        0
280
     0
281
     0
  0
CLASS
  1
ACMWELDSTANDARDISO
  2
AcmWeldingStdISO
  3
"Amdt_StdImp|Product Description: AutoCAD Mechanical|Company: Autodesk, Inc."
 90
     1024
 91
        0
280
     0
281
     0
  0
CLASS
  1
ACMIDSTANDARDISO
  2
AcmIdStdISO
  3
"Amdt_StdImp|Product Description: AutoCAD Mechanical|Company: Autodesk, Inc."
 90
     1024
 91
        0
280
     0
281
     0
  0
CLASS
  1
ACMDATUMSTANDARDISO
  2
AcmDatumStdISO
  3
"Amdt_StdImp|Product Description: AutoCAD Mechanical|Company: Autodesk, Inc."
 90
     1024
 91
        0
280
     0
281
     0
  0
CLASS
  1
ACMBOMSTANDARDISO
  2
AcmBOMStdISO
  3
"Amdt_StdImp|Product Description: AutoCAD Mechanical|Company: Autodesk, Inc."
 90
     1024
 91
        0
280
     0
281
     0
  0
CLASS
  1
ACMDETAILSTANDARDISO
  2
AmdtDetailSymStdISO
  3
"Amdt_StdImp|Product Description: AutoCAD Mechanical|Company: Autodesk, Inc."
 90
     1024
 91
        0
280
     0
281
     0
  0
CLASS
  1
ACMSECTIONSTANDARDISO2001
  2
AmdtSectionSymStdISO2001
  3
"Amdt_StdImp|Product Description: AutoCAD Mechanical|Company: Autodesk, Inc."
 90
     1024
 91
        0
280
     0
281
     0
  0
CLASS
  1
ACMCENTERLINESTANDARDISO
  2
AmdtCenterLineStdISO
  3
"Amdt_StdImp|Product Description: AutoCAD Mechanical|Company: Autodesk, Inc."
 90
     1024
 91
        0
280
     0
281
     0
  0
CLASS
  1
ACMTHREADLINESTANDARDISO
  2
AmdtThreadLineStdISO
  3
"Amdt_StdImp|Product Description: AutoCAD Mechanical|Company: Autodesk, Inc."
 90
     1024
 91
        0
280
     0
281
     0
  0
CLASS
  1
ACMNOTESTANDARDISO
  2
AmdtNoteStdISO
  3
"Amdt_StdImp|Product Description: AutoCAD Mechanical|Company: Autodesk, Inc."
 90
     1024
 91
        0
280
     0
281
     0
  0
CLASS
  1
ACMTAPERSTANDARDISO
  2
AcmTaperStdISO
  3
"Amdt_StdImp|Product Description: AutoCAD Mechanical|Company: Autodesk, Inc."
 90
     1024
 91
        0
280
     0
281
     0
  0
CLASS
  1
ACMANOOTATIONVIEWSTANDARDISO
  2
AmdtAnViewStdISO
  3
"Amdt_StdImp|Product Description: AutoCAD Mechanical|Company: Autodesk, Inc."
 90
     1024
 91
        0
280
     0
281
     0
  0
CLASS
  1
ACAMGHOLECHARTSTDISO
  2
AcAmgHoleChartStdISO
  3
AmgDim|Product Description: AutoCAD Mechanical|Company: Autodesk, Inc.
 90
     1024
 91
        0
280
     0
281
     0
  0
ENDSEC
  0
SECTION
  2
TABLES
  0
TABLE
  2
VPORT
  5
29C1
330
0
100
AcDbSymbolTable
 70
     1
  0
VPORT
  5
2A31
330
29C1
100
AcDbSymbolTableRecord
100
AcDbViewportTableRecord
  2
*ACTIVE
 70
     0
 10
0.0
 20
0.0
 11
1.0
 21
1.0
 12
-497.0298979231511
 22
15.06042482221971
 13
0.0
 23
0.0
 14
1.0
 24
1.0
 15
0.0
 25
0.0
 16
0.0
 26
0.0
 36
1.0
 17
676.4915818840863
 27
-82.03124031660983
 37
0.0
 40
1877.765110448342
 41
1.843184559710494
 42
50.0
 43
0.0
 44
0.0
 50
0.0
 51
0.0
 71
     0
 72
   100
 73
     1
 74
     0
 75
     0
 76
     0
 77
     0
 78
     0
281
     0
 65
     0
110
0.0
120
0.0
130
0.0
111
1.0
121
0.0
131
0.0
112
0.0
122
1.0
132
0.0
 79
     0
146
0.0
  0
ENDTAB
  0
TABLE
  2
LTYPE
  5
29BE
330
0
100
AcDbSymbolTable
 70
    22
  0
LTYPE
  5
2A1B
330
29BE
100
AcDbSymbolTableRecord
100
AcDbLinetypeTableRecord
  2
ByBlock
 70
     0
  3

 72
    65
 73
     0
 40
0.0
  0
LTYPE
  5
2A1C
330
29BE
100
AcDbSymbolTableRecord
100
AcDbLinetypeTableRecord
  2
ByLayer
 70
     0
  3

 72
    65
 73
     0
 40
0.0
  0
LTYPE
  5
2A1D
330
29BE
100
AcDbSymbolTableRecord
100
AcDbLinetypeTableRecord
  2
CONTINUOUS
 70
     0
  3
実線
 72
    65
 73
     0
 40
0.0
  0
LTYPE
  5
2A32
330
29BE
100
AcDbSymbolTableRecord
100
AcDbLinetypeTableRecord
  2
DASHDOT
 70
     0
  3
____ _ ____ _ ____ _ ____ _ ____ _ ____ _ ____
 72
    65
 73
     4
 40
5.5
 49
4.0
 74
     0
 49
-0.6
 74
     0
 49
0.3
 74
     0
 49
-0.6
 74
     0
  0
LTYPE
  5
2A33
330
29BE
100
AcDbSymbolTableRecord
100
AcDbLinetypeTableRecord
  2
HIDDEN
 70
     0
  3
Hidden __ __ __ __ __ __ __ __ __ __ __ __ __ _
 72
    65
 73
     2
 40
0.375
 49
0.25
 74
     0
 49
-0.125
 74
     0
  0
LTYPE
  5
2A34
330
29BE
100
AcDbSymbolTableRecord
100
AcDbLinetypeTableRecord
  2
PHANTOM2
 70
     0
  3
Phantom (.5x) ___ _ _ ___ _ _ ___ _ _ ___ _ _
 72
    65
 73
     6
 40
1.25
 49
0.625
 74
     0
 49
-0.125
 74
     0
 49
0.125
 74
     0
 49
-0.125
 74
     0
 49
0.125
 74
     0
 49
-0.125
 74
     0
  0
LTYPE
  5
2A35
330
29BE
100
AcDbSymbolTableRecord
100
AcDbLinetypeTableRecord
  2
CENTER
 70
     0
  3
Center ____ _ ____ _ ____ _ ____ _ ____ _ ____
 72
    65
 73
     4
 40
2.0
 49
1.25
 74
     0
 49
-0.25
 74
     0
 49
0.25
 74
     0
 49
-0.25
 74
     0
  0
LTYPE
  5
2A36
330
29BE
100
AcDbSymbolTableRecord
100
AcDbLinetypeTableRecord
  2
ASULTYPE
 70
     0
  3
実線
 72
    65
 73
     2
 40
3.0
 49
2.5
 74
     0
 49
0.5
 74
     0
  0
LTYPE
  5
2A37
330
29BE
100
AcDbSymbolTableRecord
100
AcDbLinetypeTableRecord
  2
ASVLTYPE
 70
     0
  3
__ __ __ __ __ __ __ __ __ __ __ __ __ __ __ __ __ __ __ __ __
 72
    65
 73
     2
 40
0.75
 49
0.5
 74
     0
 49
-0.25
 74
     0
  0
LTYPE
  5
2A38
330
29BE
100
AcDbSymbolTableRecord
100
AcDbLinetypeTableRecord
  2
AM_ISO02W050
 70
     0
  3
__ __ __ __ __ __ __ __ __ __ __ __ __ __ __
 72
    65
 73
     2
 40
7.5
 49
6.0
 74
     0
 49
-1.5
 74
     0
  0
LTYPE
  5
2A39
330
29BE
100
AcDbSymbolTableRecord
100
AcDbLinetypeTableRecord
  2
AM_ISO08W050
 70
     0
  3
____ . ____ . ____ . ____ . ____ . ____ . ____
 72
    65
 73
     4
 40
18.0
 49
12.0
 74
     0
 49
-1.5
 74
     0
 49
3.0
 74
     0
 49
-1.5
 74
     0
  0
LTYPE
  5
2A3A
330
29BE
100
AcDbSymbolTableRecord
100
AcDbLinetypeTableRecord
  2
AM_ISO09W050
 70
     0
  3
_____ . . _____ . . _____ . . ____ .. ____
 72
    65
 73
     6
 40
22.5
 49
12.0
 74
     0
 49
-1.5
 74
     0
 49
3.0
 74
     0
 49
-1.5
 74
     0
 49
3.0
 74
     0
 49
-1.5
 74
     0
  0
LTYPE
  5
2A3B
330
29BE
100
AcDbSymbolTableRecord
100
AcDbLinetypeTableRecord
  2
AMCONSTR
 70
     0
  3
_______________________
 72
    65
 73
     2
 40
9999.0
 49
9999.0
 74
     0
 49
0.0
 74
     0
  0
LTYPE
  5
2A3C
330
29BE
100
AcDbSymbolTableRecord
100
AcDbLinetypeTableRecord
  2
AM_ISO08W050X2
 70
     0
  3
__ . __ . __ . __ . __ . __
 72
    65
 73
     4
 40
9.0
 49
6.0
 74
     0
 49
-0.75
 74
     0
 49
1.5
 74
     0
 49
-0.75
 74
     0
  0
LTYPE
  5
2A3D
330
29BE
100
AcDbSymbolTableRecord
100
AcDbLinetypeTableRecord
  2
AM_ISO02W050X2
 70
     0
  3
 _ _ _ _ _ _ _ _ _ _ _ _
 72
    65
 73
     2
 40
3.75
 49
3.0
 74
     0
 49
-0.75
 74
     0
  0
LTYPE
  5
2A3E
330
29BE
100
AcDbSymbolTableRecord
100
AcDbLinetypeTableRecord
  2
AMZIGZAG
 70
     0
  3
/\/-/\/-/\/-/\/-/\/-/\/
 72
    65
 73
     2
 40
11.0001
 49
0.0001
 74
     0
 49
-11.0
 74
     0
  0
LTYPE
  5
2A3F
330
29BE
100
AcDbSymbolTableRecord
100
AcDbLinetypeTableRecord
  2
CENTER2
 70
     0
  3
Center (.5x) ___ _ ___ _ ___ _ ___ _ ___ _ ___
 72
    65
 73
     4
 40
1.125
 49
0.75
 74
     0
 49
-0.125
 74
     0
 49
0.125
 74
     0
 49
-0.125
 74
     0
  0
LTYPE
  5
2A40
330
29BE
100
AcDbSymbolTableRecord
100
AcDbLinetypeTableRecord
  2
HIDDEN2
 70
     0
  3
Hidden (.5x) _ _ _ _ _ _ _ _ _ _ _ _ _ _ _ _ _
 72
    65
 73
     2
 40
0.1875
 49
0.125
 74
     0
 49
-0.0625
 74
     0
  0
LTYPE
  5
2A41
330
29BE
100
AcDbSymbolTableRecord
100
AcDbLinetypeTableRecord
  2
AMZIGZAG2
 70
     0
  3
/\/-/\/-/\/-/\/-/\/-/\/
 72
    65
 73
     2
 40
0.4401
 49
0.0001
 74
     0
 49
-0.4400000000000003
 74
     0
  0
LTYPE
  5
2A42
330
29BE
100
AcDbSymbolTableRecord
100
AcDbLinetypeTableRecord
  2
ACANSTGB
 70
     0
  3
__ . . __ . .
 72
    65
 73
     6
 40
0.35433070866
 49
0.15748031496
 74
     0
 49
-0.03937007874
 74
     0
 49
0.03937007874
 74
     0
 49
-0.03937007874
 74
     0
 49
0.03937007874
 74
     0
 49
-0.03937007874
 74
     0
  0
LTYPE
  5
2A43
330
29BE
100
AcDbSymbolTableRecord
100
AcDbLinetypeTableRecord
  2
ACANSTGL
 70
     0
  3
_ _ _ _ _
 72
    65
 73
     2
 40
0.11811023622
 49
0.07874015748
 74
     0
 49
-0.03937007874
 74
     0
  0
LTYPE
  5
2CA7
330
29BE
100
AcDbSymbolTableRecord
100
AcDbLinetypeTableRecord
  2
ACISOWELD
 70
     0
  3
_ _ _ _ _
 72
    65
 73
     2
 40
2.0
 49
2.0
 74
     0
 49
-1.0
 74
     0
  0
LTYPE
  5
2CA8
330
29BE
100
AcDbSymbolTableRecord
100
AcDbLinetypeTableRecord
  2
ACISOTGB
 70
     0
  3
__ . . __ . .
 72
    65
 73
     6
 40
9.0
 49
4.0
 74
     0
 49
-1.0
 74
     0
 49
1.0
 74
     0
 49
-1.0
 74
     0
 49
1.0
 74
     0
 49
-1.0
 74
     0
  0
LTYPE
  5
2CA9
330
29BE
100
AcDbSymbolTableRecord
100
AcDbLinetypeTableRecord
  2
ACISOTGL
 70
     0
  3
_ _ _ _ _
 72
    65
 73
     2
 40
3.0
 49
2.0
 74
     0
 49
-1.0
 74
     0
  0
ENDTAB
  0
TABLE
  2
LAYER
  5
29BB
102
{ACAD_XDICTIONARY
360
2CBB
102
}
330
0
100
AcDbSymbolTable
 70
    15
  0
LAYER
  5
2A15
102
{ACAD_XDICTIONARY
360
2B80
102
}
330
29BB
100
AcDbSymbolTableRecord
100
AcDbLayerTableRecord
  2
0
 70
     0
 62
     7
  6
CONTINUOUS
370
    -3
390
29C8
  0
LAYER
  5
2A44
102
{ACAD_XDICTIONARY
360
2B82
102
}
330
29BB
100
AcDbSymbolTableRecord
100
AcDbLayerTableRecord
  2
OUTLINE
 70
     0
 62
     3
  6
CONTINUOUS
370
    -3
390
29C8
  0
LAYER
  5
2A45
102
{ACAD_XDICTIONARY
360
2B84
102
}
330
29BB
100
AcDbSymbolTableRecord
100
AcDbLayerTableRecord
  2
SIZE
 70
     0
 62
    30
  6
CONTINUOUS
370
    -3
390
29C8
  0
LAYER
  5
2A46
102
{ACAD_XDICTIONARY
360
2B86
102
}
330
29BB
100
AcDbSymbolTableRecord
100
AcDbLayerTableRecord
  2
BASIS
 70
     0
 62
     6
  6
DASHDOT
370
    -3
390
29C8
  0
LAYER
  5
2A47
102
{ACAD_XDICTIONARY
360
2B88
102
}
330
29BB
100
AcDbSymbolTableRecord
100
AcDbLayerTableRecord
  2
DETAIL
 70
     0
 62
     5
  6
CONTINUOUS
370
    -3
390
29C8
  0
LAYER
  5
2A48
102
{ACAD_XDICTIONARY
360
2B8A
102
}
330
29BB
100
AcDbSymbolTableRecord
100
AcDbLayerTableRecord
  2
ARRANGE
 70
     0
 62
     1
  6
CONTINUOUS
370
    -3
390
29C8
  0
LAYER
  5
2A49
330
29BB
100
AcDbSymbolTableRecord
100
AcDbLayerTableRecord
  2
DEFPOINTS
 70
     0
 62
     7
  6
CONTINUOUS
290
     0
370
    -3
390
29C8
  0
LAYER
  5
2A4A
102
{ACAD_XDICTIONARY
360
2B8C
102
}
330
29BB
100
AcDbSymbolTableRecord
100
AcDbLayerTableRecord
  2
ETC
 70
     0
 62
    61
  6
CONTINUOUS
370
    -3
390
29C8
  0
LAYER
  5
2A4B
102
{ACAD_XDICTIONARY
360
2B8E
102
}
330
29BB
100
AcDbSymbolTableRecord
100
AcDbLayerTableRecord
  2
FIX
 70
     0
 62
    11
  6
CONTINUOUS
370
    -3
390
29C8
  0
LAYER
  5
2A4C
102
{ACAD_XDICTIONARY
360
2B90
102
}
330
29BB
100
AcDbSymbolTableRecord
100
AcDbLayerTableRecord
  2
NOTE
 70
     0
 62
     4
  6
CONTINUOUS
370
    -3
390
29C8
  0
LAYER
  5
2A4D
102
{ACAD_XDICTIONARY
360
2B92
102
}
330
29BB
100
AcDbSymbolTableRecord
100
AcDbLayerTableRecord
  2
SERVICESPACE
 70
     0
 62
     2
  6
DASHDOT
370
    -3
390
29C8
  0
LAYER
  5
2A4E
102
{ACAD_XDICTIONARY
360
2B94
102
}
330
29BB
100
AcDbSymbolTableRecord
100
AcDbLayerTableRecord
  2
SYMBOLLINE
 70
     0
 62
    15
  6
CONTINUOUS
370
    -3
390
29C8
  0
LAYER
  5
2CAA
102
{ACAD_XDICTIONARY
360
2CAB
102
}
330
29BB
100
AcDbSymbolTableRecord
100
AcDbLayerTableRecord
  2
AM_VIS
 70
     0
 62
     4
  6
CONTINUOUS
370
    25
390
29C8
  0
LAYER
  5
2CAC
102
{ACAD_XDICTIONARY
360
2CAD
102
}
330
29BB
100
AcDbSymbolTableRecord
100
AcDbLayerTableRecord
  2
AM_7
 70
     0
 62
     6
  6
AM_ISO08W050
370
    25
390
29C8
  0
LAYER
  5
2CAE
330
29BB
100
AcDbSymbolTableRecord
100
AcDbLayerTableRecord
  2
1
 70
     0
 62
     9
  6
CONTINUOUS
370
    -3
390
29C8
1001
AcAecLayerStandard
1000

1000

  0
ENDTAB
  0
TABLE
  2
STYLE
  5
29BC
330
0
100
AcDbSymbolTable
 70
     8
  0
STYLE
  5
2A16
330
29BC
100
AcDbSymbolTableRecord
100
AcDbTextStyleTableRecord
  2
STANDARD
 70
     0
 40
64.0
 41
0.9
 50
0.0
 71
     0
 42
64.0
  3
SIMPLEX.shx
  4
BIGFONT.shx
  0
STYLE
  5
2A1A
330
29BC
100
AcDbSymbolTableRecord
100
AcDbTextStyleTableRecord
  2
ANNOTATIVE
 70
     0
 40
0.0
 41
1.0
 50
0.0
 71
     0
 42
0.2
  3
txt
  4

1001
ACADANNOTATIVE
1000
AnnotativeData
1002
{
1070
     1
1070
     1
1002
}
  0
STYLE
  5
2A4F
330
29BC
100
AcDbSymbolTableRecord
100
AcDbTextStyleTableRecord
  2

 70
     1
 40
0.0
 41
1.0
 50
0.0
 71
     0
 42
64.0
  3
genltshp.shx
  4

  0
STYLE
  5
2A50
330
29BC
100
AcDbSymbolTableRecord
100
AcDbTextStyleTableRecord
  2
ACANSTS
 70
     0
 40
1.0
 41
1.0
 50
0.0
 71
     0
 42
64.0
  3
romans.shx
  4
extfont.shx
  0
STYLE
  5
2A51
330
29BC
100
AcDbSymbolTableRecord
100
AcDbTextStyleTableRecord
  2
ACANSGDT
 70
     0
 40
0.0
 41
1.0
 50
0.0
 71
     0
 42
64.0
  3
amgdt.shx
  4

  0
STYLE
  5
2CAF
330
29BC
100
AcDbSymbolTableRecord
100
AcDbTextStyleTableRecord
  2
0.7
 70
     0
 40
0.0
 41
0.7
 50
0.0
 71
     0
 42
30.0
  3
romans.shx
  4
extfont.shx
  0
STYLE
  5
2CB0
330
29BC
100
AcDbSymbolTableRecord
100
AcDbTextStyleTableRecord
  2
ACISOTS
 70
     0
 40
1.0
 41
1.0
 50
0.0
 71
     0
 42
30.0
  3
isocp.shx
  4
extfont.shx
  0
STYLE
  5
2CB1
330
29BC
100
AcDbSymbolTableRecord
100
AcDbTextStyleTableRecord
  2
ACISOGDT
 70
     0
 40
0.0
 41
1.0
 50
0.0
 71
     0
 42
30.0
  3
amgdt.shx
  4

  0
ENDTAB
  0
TABLE
  2
VIEW
  5
29BF
330
0
100
AcDbSymbolTable
 70
     1
  0
VIEW
  5
2A52
330
29BF
100
AcDbSymbolTableRecord
100
AcDbViewTableRecord
  2
ALL
 70
     0
 40
4282.619807999997
 10
0.0
 20
41.30990399999999
 41
5940.0
 11
0.0
 21
0.0
 31
1.0
 12
0.0
 22
0.0
 32
0.0
 42
50.0
 43
0.0
 44
0.0
 50
0.0
 71
     0
281
     0
 72
     1
110
0.0
120
0.0
130
0.0
111
1.0
121
0.0
131
0.0
112
0.0
122
1.0
132
0.0
 79
     0
146
0.0
  0
ENDTAB
  0
TABLE
  2
UCS
  5
29C0
330
0
100
AcDbSymbolTable
 70
     0
  0
ENDTAB
  0
TABLE
  2
APPID
  5
29C2
330
0
100
AcDbSymbolTable
 70
    31
  0
APPID
  5
2A17
330
29C2
100
AcDbSymbolTableRecord
100
AcDbRegAppTableRecord
  2
ACAD
 70
     0
  0
APPID
  5
2A1E
330
29C2
100
AcDbSymbolTableRecord
100
AcDbRegAppTableRecord
  2
ACADANNOTATIVE
 70
     0
  0
APPID
  5
2A28
330
29C2
100
AcDbSymbolTableRecord
100
AcDbRegAppTableRecord
  2
ACAD_MLEADERVER
 70
     0
  0
APPID
  5
2A53
330
29C2
100
AcDbSymbolTableRecord
100
AcDbRegAppTableRecord
  2
GENIUS_GENDIM_13
 70
     0
  0
APPID
  5
2A54
330
29C2
100
AcDbSymbolTableRecord
100
AcDbRegAppTableRecord
  2
GENIUS_GENDTOL_13
 70
     0
  0
APPID
  5
2A55
330
29C2
100
AcDbSymbolTableRecord
100
AcDbRegAppTableRecord
  2
GENIUS_GE3DTOL_13
 70
     0
  0
APPID
  5
2A56
330
29C2
100
AcDbSymbolTableRecord
100
AcDbRegAppTableRecord
  2
MCAD_NO_VIS
 70
     0
  0
APPID
  5
2A57
330
29C2
100
AcDbSymbolTableRecord
100
AcDbRegAppTableRecord
  2
ACAD_TEMP_GRAPHIC
 70
     0
  0
APPID
  5
2A58
330
29C2
100
AcDbSymbolTableRecord
100
AcDbRegAppTableRecord
  2
AD_DRAW
 70
     0
  0
APPID
  5
2A59
330
29C2
100
AcDbSymbolTableRecord
100
AcDbRegAppTableRecord
  2
ACATTRIBSERVICES
 70
     0
  0
APPID
  5
2A5A
330
29C2
100
AcDbSymbolTableRecord
100
AcDbRegAppTableRecord
  2
ASURF_PCURVE_APPNAME
 70
     0
  0
APPID
  5
2A5B
330
29C2
100
AcDbSymbolTableRecord
100
AcDbRegAppTableRecord
  2
AMG_3D2D_5_0
 70
     0
  0
APPID
  5
2A5C
330
29C2
100
AcDbSymbolTableRecord
100
AcDbRegAppTableRecord
  2
DESIGNERASSEMBLIES
 70
     0
  0
APPID
  5
2A5D
330
29C2
100
AcDbSymbolTableRecord
100
AcDbRegAppTableRecord
  2
ACADM_DIM_EDIT
 70
     0
  0
APPID
  5
2A5E
330
29C2
100
AcDbSymbolTableRecord
100
AcDbRegAppTableRecord
  2
AMDT_DM_ADJ
 70
     0
  0
APPID
  5
2A5F
330
29C2
100
AcDbSymbolTableRecord
100
AcDbRegAppTableRecord
  2
ACAD_DSTYLE_DIMARC_LENGTH_
 70
     0
  0
APPID
  5
2A60
330
29C2
100
AcDbSymbolTableRecord
100
AcDbRegAppTableRecord
  2
ACAD_DSTYLE_DIMJOGGED_JOGA
 70
     0
  0
APPID
  5
2A61
330
29C2
100
AcDbSymbolTableRecord
100
AcDbRegAppTableRecord
  2
ACAD_PSEXT
 70
     0
  0
APPID
  5
2A62
330
29C2
100
AcDbSymbolTableRecord
100
AcDbRegAppTableRecord
  2
ACAD_EXEMPT_FROM_CAD_STANDARDS
 70
     0
  0
APPID
  5
2A63
330
29C2
100
AcDbSymbolTableRecord
100
AcDbRegAppTableRecord
  2
ACAD_DSTYLE_DIMJAG
 70
     0
  0
APPID
  5
2A64
330
29C2
100
AcDbSymbolTableRecord
100
AcDbRegAppTableRecord
  2
ACAD_DSTYLE_DIMTALN
 70
     0
  0
APPID
  5
2A65
330
29C2
100
AcDbSymbolTableRecord
100
AcDbRegAppTableRecord
  2
AMG_3D2D_5_00
 70
     0
  0
APPID
  5
2A66
330
29C2
100
AcDbSymbolTableRecord
100
AcDbRegAppTableRecord
  2
AMG_3D2D_5_01
 70
     0
  0
APPID
  5
2A67
330
29C2
100
AcDbSymbolTableRecord
100
AcDbRegAppTableRecord
  2
AMG_3D2D_5_02
 70
     0
  0
APPID
  5
2B27
330
29C2
100
AcDbSymbolTableRecord
100
AcDbRegAppTableRecord
  2
AMG_3D2D_5.0
 70
     0
  0
APPID
  5
2BBD
330
29C2
100
AcDbSymbolTableRecord
100
AcDbRegAppTableRecord
  2
ACAD_DSTYLE_DIMARC_LENGTH_SYMBOL
 70
     0
  0
APPID
  5
2BBE
330
29C2
100
AcDbSymbolTableRecord
100
AcDbRegAppTableRecord
  2
ACAD_DSTYLE_DIM_LINETYPE
 70
     0
  0
APPID
  5
2BBF
330
29C2
100
AcDbSymbolTableRecord
100
AcDbRegAppTableRecord
  2
ACAD_DSTYLE_DIM_EXT1_LINETYPE
 70
     0
  0
APPID
  5
2BC0
330
29C2
100
AcDbSymbolTableRecord
100
AcDbRegAppTableRecord
  2
ACAD_DSTYLE_DIM_EXT2_LINETYPE
 70
     0
  0
APPID
  5
2CBA
330
29C2
100
AcDbSymbolTableRecord
100
AcDbRegAppTableRecord
  2
AcAecLayerStandard
 70
     0
  0
APPID
  5
303F
330
29C2
100
AcDbSymbolTableRecord
100
AcDbRegAppTableRecord
  2
ACAD_DSTYLE_DIMINSPECT
 70
     0
  0
ENDTAB
  0
TABLE
  2
DIMSTYLE
  5
29C3
330
0
100
AcDbSymbolTable
 70
    18
100
AcDbDimStyleTable
 71
     2
340
2A68
340
2A18
  0
DIMSTYLE
105
2A18
330
29C3
100
AcDbSymbolTableRecord
100
AcDbDimStyleTableRecord
  2
STANDARD
 70
     0
 41
12.0
 42
20.0
 44
20.0
 77
     1
 78
     8
140
64.0
141
0.0
147
10.0
172
     1
275
     1
279
     2
284
     7
285
     7
286
     7
340
2A16
342
2A7B
1001
ACAD_DSTYLE_DIMJAG
1070
   388
1040
1.5
1001
ACAD_DSTYLE_DIMTALN
1070
   392
1070
     0
  0
DIMSTYLE
105
2A19
330
29C3
100
AcDbSymbolTableRecord
100
AcDbDimStyleTableRecord
  2
ANNOTATIVE
 70
     0
275
     1
279
     2
284
     7
285
     7
286
     7
340
2A16
1001
ACADANNOTATIVE
1000
AnnotativeData
1002
{
1070
     1
1070
     1
1002
}
  0
DIMSTYLE
105
2A68
330
29C3
100
AcDbSymbolTableRecord
100
AcDbDimStyleTableRecord
  2
AM_ANSI
 70
     0
  4
mm
 41
0.12
 42
0.05
 43
0.5
 44
0.1
 47
0.1
 48
0.1
 78
     7
 79
     2
140
0.12
141
0.0
146
0.71
147
0.06
176
   256
177
   256
178
     2
274
     4
284
     7
340
2A16
371
    -1
372
    -1
1001
ACAD_DSTYLE_DIMARC_LENGTH_SYMBOL
1070
   379
1070
     1
1001
ACAD_DSTYLE_DIM_LINETYPE
1070
   380
1005
2A1B
1001
ACAD_DSTYLE_DIM_EXT1_LINETYPE
1070
   381
1005
2A1B
1001
ACAD_DSTYLE_DIM_EXT2_LINETYPE
1070
   382
1005
2A1B
  0
DIMSTYLE
105
2A69
330
29C3
100
AcDbSymbolTableRecord
100
AcDbDimStyleTableRecord
  2
AM_ANSI$3
 70
     0
  4
mm
 41
0.12
 42
0.05
 43
0.5
 44
0.1
 47
0.1
 48
0.1
 78
     7
 79
     2
140
0.12
141
0.0
146
0.71
147
0.06
176
   256
177
   256
178
     2
274
     4
284
     7
288
     1
289
     0
340
2A16
371
    -1
372
    -1
1001
ACAD_DSTYLE_DIMARC_LENGTH_SYMBOL
1070
   379
1070
     1
1001
ACAD_DSTYLE_DIM_LINETYPE
1070
   380
1005
2A1B
1001
ACAD_DSTYLE_DIM_EXT1_LINETYPE
1070
   381
1005
2A1B
1001
ACAD_DSTYLE_DIM_EXT2_LINETYPE
1070
   382
1005
2A1B
  0
DIMSTYLE
105
2A6A
330
29C3
100
AcDbSymbolTableRecord
100
AcDbDimStyleTableRecord
  2
AM_ANSI$4
 70
     0
  4
mm
 41
0.12
 42
0.05
 43
0.5
 44
0.1
 47
0.1
 48
0.1
 78
     7
 79
     2
140
0.12
141
0.0
146
0.71
147
0.06
176
   256
177
   256
178
     2
274
     4
284
     7
340
2A16
371
    -1
372
    -1
1001
ACAD_DSTYLE_DIMARC_LENGTH_SYMBOL
1070
   379
1070
     1
1001
ACAD_DSTYLE_DIM_LINETYPE
1070
   380
1005
2A1B
1001
ACAD_DSTYLE_DIM_EXT1_LINETYPE
1070
   381
1005
2A1B
1001
ACAD_DSTYLE_DIM_EXT2_LINETYPE
1070
   382
1005
2A1B
  0
DIMSTYLE
105
2A6B
330
29C3
100
AcDbSymbolTableRecord
100
AcDbDimStyleTableRecord
  2
AM_ANSI$7
 70
     0
  4
mm
 41
0.12
 42
0.05
 43
0.5
 44
0.1
 47
0.1
 48
0.1
 78
     7
 79
     2
140
0.12
141
0.0
146
0.71
147
0.06
176
   256
177
   256
178
     2
274
     4
284
     7
340
2A16
371
    -1
372
    -1
1001
ACAD_DSTYLE_DIMARC_LENGTH_SYMBOL
1070
   379
1070
     1
1001
ACAD_DSTYLE_DIM_LINETYPE
1070
   380
1005
2A1B
1001
ACAD_DSTYLE_DIM_EXT1_LINETYPE
1070
   381
1005
2A1B
1001
ACAD_DSTYLE_DIM_EXT2_LINETYPE
1070
   382
1005
2A1B
  0
DIMSTYLE
105
2A6C
330
29C3
100
AcDbSymbolTableRecord
100
AcDbDimStyleTableRecord
  2
AM_ANSI$SF
 70
     0
  4
mm
 41
0.12
 42
0.05
 43
0.5
 44
0.1
 47
0.1
 48
0.1
 75
     1
 76
     1
 78
     7
 79
     2
140
0.12
141
0.0
146
0.71
147
0.06
176
   256
177
   256
178
     2
274
     4
284
     7
340
2A16
371
    -1
372
    -1
1001
ACAD_DSTYLE_DIMARC_LENGTH_SYMBOL
1070
   379
1070
     1
1001
ACAD_DSTYLE_DIM_LINETYPE
1070
   380
1005
2A1B
1001
ACAD_DSTYLE_DIM_EXT1_LINETYPE
1070
   381
1005
2A1B
1001
ACAD_DSTYLE_DIM_EXT2_LINETYPE
1070
   382
1005
2A1B
  0
DIMSTYLE
105
2A6D
330
29C3
100
AcDbSymbolTableRecord
100
AcDbDimStyleTableRecord
  2
AM_ANSI$SH
 70
     0
  4
mm
 41
0.12
 42
0.05
 43
0.5
 44
0.1
 47
0.1
 48
0.1
 75
     1
 76
     1
 78
     7
 79
     2
140
0.12
141
0.0
146
0.71
147
0.06
173
     1
176
   256
177
   256
178
     2
274
     4
284
     7
340
2A16
343
2A81
371
    -1
372
    -1
1001
ACAD_DSTYLE_DIMARC_LENGTH_SYMBOL
1070
   379
1070
     1
1001
ACAD_DSTYLE_DIM_LINETYPE
1070
   380
1005
2A1B
1001
ACAD_DSTYLE_DIM_EXT1_LINETYPE
1070
   381
1005
2A1B
1001
ACAD_DSTYLE_DIM_EXT2_LINETYPE
1070
   382
1005
2A1B
  0
DIMSTYLE
105
2A6E
330
29C3
100
AcDbSymbolTableRecord
100
AcDbDimStyleTableRecord
  2
STANDARD1
 70
     0
 40
6.0
 41
2.5
 42
0.625
 43
6.0
 44
1.25
 47
1.0
 48
0.5
 77
     1
 78
     8
140
2.5
141
0.0
146
0.6
147
1.0
173
     1
275
     1
279
     2
284
     7
285
     7
286
     7
340
2A16
  0
DIMSTYLE
105
2A6F
102
{ACAD_REACTORS
330
2FFE
330
300B
330
3018
330
3025
330
3032
102
}
330
29C3
100
AcDbSymbolTableRecord
100
AcDbDimStyleTableRecord
  2
STANDARD$0
 70
     0
 41
12.0
 42
20.0
 44
20.0
 73
     0
 74
     0
 77
     1
 78
     8
140
64.0
141
0.0
147
10.0
172
     1
275
     1
279
     2
284
     7
285
     7
286
     7
340
2A16
342
2A7B
  0
DIMSTYLE
105
2CB2
330
29C3
100
AcDbSymbolTableRecord
100
AcDbDimStyleTableRecord
  2
AM_JIS
 70
     0
  4
"
 40
10.0
 41
2.5
 42
1.0
 43
10.0
 44
1.0
 47
0.1
 48
0.1
 73
     0
 74
     0
 77
     3
 78
     8
 79
     2
140
3.5
141
0.0
143
0.0393701
146
0.71
147
1.5
172
     1
176
   256
177
   256
178
     2
271
     2
272
     3
274
     4
283
     0
284
     8
340
2A16
341
2A7F
342
2A7F
343
2A7F
344
2A7F
371
    -1
372
    -1
  0
DIMSTYLE
105
2CB3
330
29C3
100
AcDbSymbolTableRecord
100
AcDbDimStyleTableRecord
  2
AM_ISO
 70
     0
  4
"
 41
3.5
 42
1.0
 43
10.0
 44
1.0
 47
0.1
 48
0.1
 73
     0
 74
     0
 77
     1
 78
     8
 79
     2
140
3.5
141
0.0
143
0.0393701
146
0.71
147
1.5
172
     1
176
   256
177
   256
178
     2
271
     2
272
     3
274
     4
283
     0
284
     8
340
2A16
371
    -1
372
    -1
1001
ACAD_DSTYLE_DIMARC_LENGTH_SYMBOL
1070
   379
1070
     1
1001
ACAD_DSTYLE_DIM_LINETYPE
1070
   380
1005
2A1B
1001
ACAD_DSTYLE_DIM_EXT1_LINETYPE
1070
   381
1005
2A1B
1001
ACAD_DSTYLE_DIM_EXT2_LINETYPE
1070
   382
1005
2A1B
  0
DIMSTYLE
105
2CB4
330
29C3
100
AcDbSymbolTableRecord
100
AcDbDimStyleTableRecord
  2
AM_ISO$3
 70
     0
  4
"
 41
3.5
 42
1.0
 43
10.0
 44
1.0
 47
0.1
 48
0.1
 73
     0
 77
     1
 78
     8
 79
     2
140
3.5
141
0.0
143
0.0393701
146
0.71
147
1.5
176
   256
177
   256
178
     2
271
     2
272
     3
274
     4
283
     0
284
     8
288
     1
289
     0
340
2A16
371
    -1
372
    -1
1001
ACAD_DSTYLE_DIMARC_LENGTH_SYMBOL
1070
   379
1070
     1
1001
ACAD_DSTYLE_DIM_LINETYPE
1070
   380
1005
2A1B
1001
ACAD_DSTYLE_DIM_EXT1_LINETYPE
1070
   381
1005
2A1B
1001
ACAD_DSTYLE_DIM_EXT2_LINETYPE
1070
   382
1005
2A1B
  0
DIMSTYLE
105
2CB5
330
29C3
100
AcDbSymbolTableRecord
100
AcDbDimStyleTableRecord
  2
AM_ISO$4
 70
     0
  4
"
 41
3.5
 42
1.0
 43
10.0
 44
1.0
 47
0.1
 48
0.1
 73
     0
 74
     0
 77
     1
 78
     8
 79
     2
140
3.5
141
0.0
143
0.0393701
146
0.71
147
1.5
172
     1
176
   256
177
   256
178
     2
271
     2
272
     3
274
     4
283
     0
284
     8
340
2A16
371
    -1
372
    -1
1001
ACAD_DSTYLE_DIMARC_LENGTH_SYMBOL
1070
   379
1070
     1
1001
ACAD_DSTYLE_DIM_LINETYPE
1070
   380
1005
2A1B
1001
ACAD_DSTYLE_DIM_EXT1_LINETYPE
1070
   381
1005
2A1B
1001
ACAD_DSTYLE_DIM_EXT2_LINETYPE
1070
   382
1005
2A1B
  0
DIMSTYLE
105
2CB6
330
29C3
100
AcDbSymbolTableRecord
100
AcDbDimStyleTableRecord
  2
AM_ISO$6
 70
     0
  4
"
 41
3.5
 42
1.0
 43
10.0
 44
1.0
 47
0.1
 48
0.1
 73
     0
 74
     0
 78
     8
 79
     2
140
3.5
141
0.0
143
0.0393701
146
0.71
147
1.5
172
     1
176
   256
177
   256
178
     2
271
     2
272
     3
274
     4
283
     0
284
     8
340
2A16
371
    -1
372
    -1
1001
ACAD_DSTYLE_DIMARC_LENGTH_SYMBOL
1070
   379
1070
     1
1001
ACAD_DSTYLE_DIM_LINETYPE
1070
   380
1005
2A1B
1001
ACAD_DSTYLE_DIM_EXT1_LINETYPE
1070
   381
1005
2A1B
1001
ACAD_DSTYLE_DIM_EXT2_LINETYPE
1070
   382
1005
2A1B
  0
DIMSTYLE
105
2CB7
330
29C3
100
AcDbSymbolTableRecord
100
AcDbDimStyleTableRecord
  2
AM_ISO$7
 70
     0
  4
"
 41
3.5
 42
1.0
 43
10.0
 44
1.0
 47
0.1
 48
0.1
 73
     0
 74
     0
 77
     1
 78
     8
 79
     2
140
3.5
141
0.0
143
0.0393701
146
0.71
147
1.5
172
     1
176
   256
177
   256
178
     2
271
     2
272
     3
274
     4
283
     0
284
     8
340
2A16
371
    -1
372
    -1
1001
ACAD_DSTYLE_DIMARC_LENGTH_SYMBOL
1070
   379
1070
     1
1001
ACAD_DSTYLE_DIM_LINETYPE
1070
   380
1005
2A1B
1001
ACAD_DSTYLE_DIM_EXT1_LINETYPE
1070
   381
1005
2A1B
1001
ACAD_DSTYLE_DIM_EXT2_LINETYPE
1070
   382
1005
2A1B
  0
DIMSTYLE
105
2CB8
330
29C3
100
AcDbSymbolTableRecord
100
AcDbDimStyleTableRecord
  2
AM_ISO$SF
 70
     0
  4
"
 41
3.5
 42
1.0
 43
10.0
 44
1.0
 47
0.1
 48
0.1
 73
     0
 74
     0
 75
     1
 76
     1
 77
     1
 78
     8
 79
     2
140
3.5
141
0.0
143
0.0393701
146
0.71
147
1.5
172
     1
176
   256
177
   256
178
     2
271
     2
272
     3
274
     4
283
     0
284
     8
340
2A16
371
    -1
372
    -1
1001
ACAD_DSTYLE_DIMARC_LENGTH_SYMBOL
1070
   379
1070
     1
1001
ACAD_DSTYLE_DIM_LINETYPE
1070
   380
1005
2A1B
1001
ACAD_DSTYLE_DIM_EXT1_LINETYPE
1070
   381
1005
2A1B
1001
ACAD_DSTYLE_DIM_EXT2_LINETYPE
1070
   382
1005
2A1B
  0
DIMSTYLE
105
2CB9
330
29C3
100
AcDbSymbolTableRecord
100
AcDbDimStyleTableRecord
  2
AM_ISO$SH
 70
     0
  4
"
 41
3.5
 42
1.0
 43
10.0
 44
1.0
 47
0.1
 48
0.1
 73
     0
 74
     0
 75
     1
 76
     1
 77
     1
 78
     8
 79
     2
140
3.5
141
0.0
143
0.0393701
144
2.0
146
0.71
147
1.5
172
     1
173
     1
176
   256
177
   256
178
     2
271
     2
272
     3
274
     4
283
     0
284
     8
340
2A16
343
2A81
371
    -1
372
    -1
1001
ACAD_DSTYLE_DIMARC_LENGTH_SYMBOL
1070
   379
1070
     1
1001
ACAD_DSTYLE_DIM_LINETYPE
1070
   380
1005
2A1B
1001
ACAD_DSTYLE_DIM_EXT1_LINETYPE
1070
   381
1005
2A1B
1001
ACAD_DSTYLE_DIM_EXT2_LINETYPE
1070
   382
1005
2A1B
  0
ENDTAB
  0
TABLE
  2
BLOCK_RECORD
  5
29BA
330
0
100
AcDbSymbolTable
 70
    29
  0
BLOCK_RECORD
  5
2A2D
102
{ACAD_XDICTIONARY
360
2B96
102
}
330
29BA
100
AcDbSymbolTableRecord
100
AcDbBlockTableRecord
  2
*Model_Space
340
2A30
  0
BLOCK_RECORD
  5
2A29
330
29BA
100
AcDbSymbolTableRecord
100
AcDbBlockTableRecord
  2
*Paper_Space
340
2A2C
  0
BLOCK_RECORD
  5
2A77
330
29BA
100
AcDbSymbolTableRecord
100
AcDbBlockTableRecord
  2
$MODEL_SPACE
340
0
  0
BLOCK_RECORD
  5
2A79
330
29BA
100
AcDbSymbolTableRecord
100
AcDbBlockTableRecord
  2
$PAPER_SPACE
340
0
  0
BLOCK_RECORD
  5
2A7B
330
29BA
100
AcDbSymbolTableRecord
100
AcDbBlockTableRecord
  2
_ORIGIN
340
0
  0
BLOCK_RECORD
  5
2A7D
330
29BA
100
AcDbSymbolTableRecord
100
AcDbBlockTableRecord
  2
_DOTBLANK
340
0
102
{BLKREFS
331
202C
331
202D
331
2035
331
2036
331
203E
331
203F
331
2047
331
2048
331
2052
331
2053
331
205D
331
205E
331
316C
331
316D
331
3175
331
3176
331
317E
331
317F
331
3187
331
3188
331
3190
331
3191
102
}
  0
BLOCK_RECORD
  5
2A7F
330
29BA
100
AcDbSymbolTableRecord
100
AcDbBlockTableRecord
  2
_OPEN30
340
0
102
{BLKREFS
331
2199
331
2586
331
2882
102
}
  0
BLOCK_RECORD
  5
2A81
330
29BA
100
AcDbSymbolTableRecord
100
AcDbBlockTableRecord
  2
GENAXEH
340
0
  0
BLOCK_RECORD
  5
2A87
330
29BA
100
AcDbSymbolTableRecord
100
AcDbBlockTableRecord
  2
*U8
340
0
102
{BLKREFS
331
202E
102
}
  0
BLOCK_RECORD
  5
2A8B
330
29BA
100
AcDbSymbolTableRecord
100
AcDbBlockTableRecord
  2
*U10
340
0
102
{BLKREFS
331
2037
102
}
  0
BLOCK_RECORD
  5
2A8F
330
29BA
100
AcDbSymbolTableRecord
100
AcDbBlockTableRecord
  2
*U12
340
0
102
{BLKREFS
331
2040
102
}
  0
BLOCK_RECORD
  5
2A93
330
29BA
100
AcDbSymbolTableRecord
100
AcDbBlockTableRecord
  2
*U14
340
0
102
{BLKREFS
331
2049
102
}
  0
BLOCK_RECORD
  5
2A97
330
29BA
100
AcDbSymbolTableRecord
100
AcDbBlockTableRecord
  2
*U16
340
0
102
{BLKREFS
331
2054
102
}
  0
BLOCK_RECORD
  5
2A9B
330
29BA
100
AcDbSymbolTableRecord
100
AcDbBlockTableRecord
  2
*U18
340
0
102
{BLKREFS
331
205F
102
}
  0
BLOCK_RECORD
  5
2AA3
330
29BA
100
AcDbSymbolTableRecord
100
AcDbBlockTableRecord
  2
*U22
340
0
102
{BLKREFS
331
2FEC
102
}
  0
BLOCK_RECORD
  5
2FFF
330
29BA
100
AcDbSymbolTableRecord
100
AcDbBlockTableRecord
  2
*D24
340
0
  0
BLOCK_RECORD
  5
300C
330
29BA
100
AcDbSymbolTableRecord
100
AcDbBlockTableRecord
  2
*D25
340
0
  0
BLOCK_RECORD
  5
3019
330
29BA
100
AcDbSymbolTableRecord
100
AcDbBlockTableRecord
  2
*D26
340
0
  0
BLOCK_RECORD
  5
3026
330
29BA
100
AcDbSymbolTableRecord
100
AcDbBlockTableRecord
  2
*D27
340
0
  0
BLOCK_RECORD
  5
3033
330
29BA
100
AcDbSymbolTableRecord
100
AcDbBlockTableRecord
  2
*D28
340
0
  0
ENDTAB
  0
ENDSEC
  0
SECTION
  2
BLOCKS
  0
BLOCK
  5
2A2E
330
2A2D
100
AcDbEntity
  8
0
100
AcDbBlockBegin
  2
*Model_Space
 70
     0
 10
0.0
 20
0.0
 30
0.0
  3
*Model_Space
  1

  0
ENDBLK
  5
2A2F
330
2A2D
100
AcDbEntity
  8
0
100
AcDbBlockEnd
  0
BLOCK
  5
2A2A
330
2A29
100
AcDbEntity
 67
     1
  8
0
100
AcDbBlockBegin
  2
*Paper_Space
 70
     0
 10
0.0
 20
0.0
 30
0.0
  3
*Paper_Space
  1

  0
ENDBLK
  5
2A2B
330
2A29
100
AcDbEntity
 67
     1
  8
0
100
AcDbBlockEnd
  0
BLOCK
  5
2A78
330
2A77
100
AcDbEntity
  8
0
100
AcDbBlockBegin
  2
$MODEL_SPACE
 70
     0
 10
0.0
 20
0.0
 30
0.0
  3
$MODEL_SPACE
  1

  0
ENDBLK
  5
2731
330
2A77
100
AcDbEntity
  8
0
100
AcDbBlockEnd
  0
BLOCK
  5
2A7A
330
2A79
100
AcDbEntity
  8
0
100
AcDbBlockBegin
  2
$PAPER_SPACE
 70
     0
 10
0.0
 20
0.0
 30
0.0
  3
$PAPER_SPACE
  1

  0
ENDBLK
  5
272D
330
2A79
100
AcDbEntity
  8
0
100
AcDbBlockEnd
  0
BLOCK
  5
2A7C
330
2A7B
100
AcDbEntity
  8
0
100
AcDbBlockBegin
  2
_ORIGIN
 70
     0
 10
0.0
 20
0.0
 30
0.0
  3
_ORIGIN
  1

  0
CIRCLE
  5
880
330
2A7B
100
AcDbEntity
  8
0
  6
Continuous
 62
     7
100
AcDbCircle
 10
0.0
 20
0.0
 30
0.0
 40
0.5
  0
LINE
  5
881
330
2A7B
100
AcDbEntity
  8
0
  6
Continuous
 62
     7
100
AcDbLine
 10
0.0
 20
0.0
 30
0.0
 11
-1.0
 21
0.0
 31
0.0
  0
ENDBLK
  5
882
330
2A7B
100
AcDbEntity
  8
0
100
AcDbBlockEnd
  0
BLOCK
  5
2A7E
330
2A7D
100
AcDbEntity
  8
0
 62
     1
100
AcDbBlockBegin
  2
_DOTBLANK
 70
     0
 10
0.0
 20
0.0
 30
0.0
  3
_DOTBLANK
  1

  0
CIRCLE
  5
AB3
330
2A7D
100
AcDbEntity
  8
0
  6
ByBlock
 62
     0
100
AcDbCircle
 10
0.0
 20
0.0
 30
0.0
 40
0.5
  0
LINE
  5
AB4
330
2A7D
100
AcDbEntity
  8
0
  6
ByBlock
 62
     0
100
AcDbLine
 10
-0.5
 20
0.0
 30
0.0
 11
-1.0
 21
0.0
 31
0.0
  0
ENDBLK
  5
AB6
330
2A7D
100
AcDbEntity
  8
0
 62
     1
100
AcDbBlockEnd
  0
BLOCK
  5
2A80
330
2A7F
100
AcDbEntity
  8
0
 62
     1
100
AcDbBlockBegin
  2
_OPEN30
 70
     0
 10
0.0
 20
0.0
 30
0.0
  3
_OPEN30
  1

  0
LINE
  5
AB8
330
2A7F
100
AcDbEntity
  8
0
  6
ByBlock
 62
     0
100
AcDbLine
 10
-1.0
 20
0.26794919
 30
0.0
 11
0.0
 21
0.0
 31
0.0
  0
LINE
  5
AB9
330
2A7F
100
AcDbEntity
  8
0
  6
ByBlock
 62
     0
100
AcDbLine
 10
0.0
 20
0.0
 30
0.0
 11
-1.0
 21
-0.26794919
 31
0.0
  0
LINE
  5
ABA
330
2A7F
100
AcDbEntity
  8
0
  6
ByBlock
 62
     0
100
AcDbLine
 10
0.0
 20
0.0
 30
0.0
 11
-1.0
 21
0.0
 31
0.0
  0
ENDBLK
  5
ABC
330
2A7F
100
AcDbEntity
  8
0
 62
     1
100
AcDbBlockEnd
  0
BLOCK
  5
2A82
330
2A81
100
AcDbEntity
  8
0
100
AcDbBlockBegin
  2
GENAXEH
 70
     0
 10
0.0
 20
0.0
 30
0.0
  3
GENAXEH
  1

  0
LINE
  5
FDB
330
2A81
100
AcDbEntity
  8
0
100
AcDbLine
 10
-1.0
 20
0.0
 30
0.0
 11
1.0
 21
0.0
 31
0.0
  0
ENDBLK
  5
FDD
330
2A81
100
AcDbEntity
  8
0
100
AcDbBlockEnd
  0
BLOCK
  5
2A88
330
2A87
100
AcDbEntity
  8
0
100
AcDbBlockBegin
  2
*U8
 70
     1
 10
0.0
 20
0.0
 30
0.0
  3
*U8
  1

  0
TEXT
  5
21A6
330
2A87
100
AcDbEntity
  8
SIZE
 62
     0
100
AcDbText
 10
-61.7142857142857
 20
-608.0173952306003
 30
0.0
 40
64.0
  1
271
 41
0.9
100
AcDbText
  0
ENDBLK
  5
21A8
330
2A87
100
AcDbEntity
  8
0
100
AcDbBlockEnd
  0
BLOCK
  5
2A8C
330
2A8B
100
AcDbEntity
  8
0
100
AcDbBlockBegin
  2
*U10
 70
     1
 10
0.0
 20
0.0
 30
0.0
  3
*U10
  1

  0
TEXT
  5
21AA
330
2A8B
100
AcDbEntity
  8
SIZE
 62
     0
100
AcDbText
 10
274.6432844803785
 20
-289.0571428571429
 30
0.0
 40
64.0
  1
430
 50
90.0
 41
0.9
100
AcDbText
  0
ENDBLK
  5
21AC
330
2A8B
100
AcDbEntity
  8
0
100
AcDbBlockEnd
  0
BLOCK
  5
2A90
330
2A8F
100
AcDbEntity
  8
0
100
AcDbBlockBegin
  2
*U12
 70
     1
 10
0.0
 20
0.0
 30
0.0
  3
*U12
  1

  0
TEXT
  5
21AE
330
2A8F
100
AcDbEntity
  8
SIZE
 62
     0
100
AcDbText
 10
-74.05714285714283
 20
126.4516878685499
 30
0.0
 40
64.0
  1
280
 41
0.9
100
AcDbText
  0
ENDBLK
  5
21B0
330
2A8F
100
AcDbEntity
  8
0
100
AcDbBlockEnd
  0
BLOCK
  5
2A94
330
2A93
100
AcDbEntity
  8
0
100
AcDbBlockBegin
  2
*U14
 70
     1
 10
0.0
 20
0.0
 30
0.0
  3
*U14
  1

  0
TEXT
  5
21B2
330
2A93
100
AcDbEntity
  8
SIZE
 62
     0
100
AcDbText
 10
-68.57142857142857
 20
235.5794621189598
 30
0.0
 40
64.0
  1
315
 41
0.9
100
AcDbText
  0
ENDBLK
  5
21B4
330
2A93
100
AcDbEntity
  8
0
100
AcDbBlockEnd
  0
BLOCK
  5
2A98
330
2A97
100
AcDbEntity
  8
0
100
AcDbBlockBegin
  2
*U16
 70
     1
 10
0.0
 20
0.0
 30
0.0
  3
*U16
  1

  0
TEXT
  5
21B6
330
2A97
100
AcDbEntity
  8
SIZE
 62
     0
100
AcDbText
 10
-209.7694545525301
 20
-80.4
 30
0.0
 40
64.0
  1
8
 50
90.0
 41
0.9
100
AcDbText
  0
ENDBLK
  5
21B8
330
2A97
100
AcDbEntity
  8
0
100
AcDbBlockEnd
  0
BLOCK
  5
2A9C
330
2A9B
100
AcDbEntity
  8
0
100
AcDbBlockBegin
  2
*U18
 70
     1
 10
0.0
 20
0.0
 30
0.0
  3
*U18
  1

  0
TEXT
  5
21BA
330
2A9B
100
AcDbEntity
  8
SIZE
 62
     0
100
AcDbText
 10
274.6264412216261
 20
-532.6
 30
0.0
 40
64.0
  1
11
 50
90.0
 41
0.9
100
AcDbText
  0
ENDBLK
  5
21BC
330
2A9B
100
AcDbEntity
  8
0
100
AcDbBlockEnd
  0
BLOCK
  5
2AA4
330
2AA3
100
AcDbEntity
  8
0
100
AcDbBlockBegin
  2
*U22
 70
     1
 10
0.0
 20
0.0
 30
0.0
  3
*U22
  1

  0
INSERT
  5
2882
330
2AA3
100
AcDbEntity
  8
NOTE
100
AcDbBlockReference
  2
_OPEN30
 10
325.0
 20
325.0
 30
0.0
 41
12.0
 42
12.0
 43
12.0
 50
230.7091310502217
  0
POLYLINE
  5
2883
330
2AA3
100
AcDbEntity
  8
NOTE
100
AcDb2dPolyline
 66
     1
 10
0.0
 20
0.0
 30
0.0
  0
VERTEX
  5
2884
330
2883
100
AcDbEntity
  8
NOTE
100
AcDbVertex
100
AcDb2dVertex
 10
332.599090480922
 20
334.2872936780722
 30
0.0
  0
VERTEX
  5
2885
330
2883
100
AcDbEntity
  8
NOTE
100
AcDbVertex
100
AcDb2dVertex
 10
388.4345623698608
 20
402.5270950580134
 30
0.0
  0
VERTEX
  5
2886
330
2883
100
AcDbEntity
  8
NOTE
100
AcDbVertex
100
AcDb2dVertex
 10
937.0174195127182
 20
402.5270950580134
 30
0.0
  0
SEQEND
  5
2887
330
2883
100
AcDbEntity
  8
NOTE
  0
ENDBLK
  5
2888
330
2AA3
100
AcDbEntity
  8
0
100
AcDbBlockEnd
  0
BLOCK
  5
3000
330
2FFF
100
AcDbEntity
  8
0
100
AcDbBlockBegin
  2
*D24
 70
     1
 10
0.0
 20
0.0
 30
0.0
  3
*D24
  1

  0
LINE
  5
318D
330
2FFF
100
AcDbEntity
  8
SIZE
 62
     0
370
    -2
100
AcDbLine
 10
-325.0
 20
357.5
 30
0.0
 11
-325.0
 21
532.2221546632752
 31
0.0
  0
LINE
  5
318E
330
2FFF
100
AcDbEntity
  8
SIZE
 62
     0
370
    -2
100
AcDbLine
 10
325.0
 20
357.5
 30
0.0
 11
325.0
 21
532.2221546632752
 31
0.0
  0
LINE
  5
318F
330
2FFF
100
AcDbEntity
  8
SIZE
 62
     0
370
    -2
100
AcDbLine
 10
-313.0
 20
512.2221546632752
 30
0.0
 11
313.0
 21
512.2221546632752
 31
0.0
  0
INSERT
  5
3190
330
2FFF
100
AcDbEntity
  8
SIZE
 62
     0
370
    -2
100
AcDbBlockReference
  2
_DOTBLANK
 10
-325.0
 20
512.2221546632752
 30
0.0
 41
12.0
 42
12.0
 43
12.0
 50
180.0
  0
INSERT
  5
3191
330
2FFF
100
AcDbEntity
  8
SIZE
 62
     0
370
    -2
100
AcDbBlockReference
  2
_DOTBLANK
 10
325.0
 20
512.2221546632752
 30
0.0
 41
12.0
 42
12.0
 43
12.0
  0
MTEXT
  5
3192
330
2FFF
100
AcDbEntity
  8
SIZE
 62
     0
100
AcDbMText
 10
0.0000000000000026
 20
554.2221546632752
 30
0.0
 40
64.0
 41
0.0
 71
     5
 72
     1
  1
\A1;650
 73
     1
 44
1.0
  0
POINT
  5
3193
330
2FFF
100
AcDbEntity
  8
DEFPOINTS
 62
     0
100
AcDbPoint
 10
-325.0
 20
337.5
 30
0.0
  0
POINT
  5
3194
330
2FFF
100
AcDbEntity
  8
DEFPOINTS
 62
     0
100
AcDbPoint
 10
325.0
 20
337.5
 30
0.0
  0
POINT
  5
3195
330
2FFF
100
AcDbEntity
  8
DEFPOINTS
 62
     0
100
AcDbPoint
 10
325.0
 20
512.2221546632752
 30
0.0
  0
ENDBLK
  5
3001
330
2FFF
100
AcDbEntity
  8
0
100
AcDbBlockEnd
  0
BLOCK
  5
300D
330
300C
100
AcDbEntity
  8
0
100
AcDbBlockBegin
  2
*D25
 70
     1
 10
0.0
 20
0.0
 30
0.0
  3
*D25
  1

  0
LINE
  5
3184
330
300C
100
AcDbEntity
  8
SIZE
 62
     0
370
    -2
100
AcDbLine
 10
-349.9999999999996
 20
369.9999999999996
 30
0.0
 11
-349.9999999999996
 21
662.2221546632752
 31
0.0
  0
LINE
  5
3185
330
300C
100
AcDbEntity
  8
SIZE
 62
     0
370
    -2
100
AcDbLine
 10
350.0
 20
369.9999999999996
 30
0.0
 11
350.0
 21
662.2221546632752
 31
0.0
  0
LINE
  5
3186
330
300C
100
AcDbEntity
  8
SIZE
 62
     0
370
    -2
100
AcDbLine
 10
-337.9999999999995
 20
642.2221546632751
 30
0.0
 11
338.0
 21
642.2221546632751
 31
0.0
  0
INSERT
  5
3187
330
300C
100
AcDbEntity
  8
SIZE
 62
     0
370
    -2
100
AcDbBlockReference
  2
_DOTBLANK
 10
-349.9999999999996
 20
642.2221546632751
 30
0.0
 41
12.0
 42
12.0
 43
12.0
 50
180.0
  0
INSERT
  5
3188
330
300C
100
AcDbEntity
  8
SIZE
 62
     0
370
    -2
100
AcDbBlockReference
  2
_DOTBLANK
 10
350.0
 20
642.2221546632751
 30
0.0
 41
12.0
 42
12.0
 43
12.0
  0
MTEXT
  5
3189
330
300C
100
AcDbEntity
  8
SIZE
 62
     0
100
AcDbMText
 10
0.0000000000002299
 20
684.2221546632751
 30
0.0
 40
64.0
 41
0.0
 71
     5
 72
     1
  1
\A1;700
 73
     1
 44
1.0
  0
POINT
  5
318A
330
300C
100
AcDbEntity
  8
DEFPOINTS
 62
     0
100
AcDbPoint
 10
-349.9999999999996
 20
349.9999999999996
 30
0.0
  0
POINT
  5
318B
330
300C
100
AcDbEntity
  8
DEFPOINTS
 62
     0
100
AcDbPoint
 10
350.0
 20
349.9999999999996
 30
0.0
  0
POINT
  5
318C
330
300C
100
AcDbEntity
  8
DEFPOINTS
 62
     0
100
AcDbPoint
 10
350.0
 20
642.2221546632751
 30
0.0
  0
ENDBLK
  5
300E
330
300C
100
AcDbEntity
  8
0
100
AcDbBlockEnd
  0
BLOCK
  5
301A
330
3019
100
AcDbEntity
  8
0
100
AcDbBlockBegin
  2
*D26
 70
     1
 10
0.0
 20
0.0
 30
0.0
  3
*D26
  1

  0
LINE
  5
3172
330
3019
100
AcDbEntity
  8
SIZE
 62
     0
370
    -2
100
AcDbLine
 10
-357.5
 20
325.0
 30
0.0
 11
-484.0049142691586
 21
325.0
 31
0.0
  0
LINE
  5
3173
330
3019
100
AcDbEntity
  8
SIZE
 62
     0
370
    -2
100
AcDbLine
 10
-357.5
 20
-325.0
 30
0.0
 11
-484.0049142691587
 21
-325.0
 31
0.0
  0
LINE
  5
3174
330
3019
100
AcDbEntity
  8
SIZE
 62
     0
370
    -2
100
AcDbLine
 10
-464.0049142691585
 20
313.0000000000001
 30
0.0
 11
-464.0049142691586
 21
-312.9999999999999
 31
0.0
  0
INSERT
  5
3175
330
3019
100
AcDbEntity
  8
SIZE
 62
     0
370
    -2
100
AcDbBlockReference
  2
_DOTBLANK
 10
-464.0049142691585
 20
325.0
 30
0.0
 41
12.0
 42
12.0
 43
12.0
 50
90.0
  0
INSERT
  5
3176
330
3019
100
AcDbEntity
  8
SIZE
 62
     0
370
    -2
100
AcDbBlockReference
  2
_DOTBLANK
 10
-464.0049142691586
 20
-325.0
 30
0.0
 41
12.0
 42
12.0
 43
12.0
 50
270.0
  0
MTEXT
  5
3177
330
3019
100
AcDbEntity
  8
SIZE
 62
     0
100
AcDbMText
 10
-506.0049142691586
 20
-0.0000000000000233
 30
0.0
 40
64.0
 41
0.0
 71
     5
 72
     1
  1
\A1;650
 11
0.0000000000000001
 21
1.0
 31
0.0
 73
     1
 44
1.0
  0
POINT
  5
3178
330
3019
100
AcDbEntity
  8
DEFPOINTS
 62
     0
100
AcDbPoint
 10
-337.5
 20
325.0
 30
0.0
  0
POINT
  5
3179
330
3019
100
AcDbEntity
  8
DEFPOINTS
 62
     0
100
AcDbPoint
 10
-337.5
 20
-325.0
 30
0.0
  0
POINT
  5
317A
330
3019
100
AcDbEntity
  8
DEFPOINTS
 62
     0
100
AcDbPoint
 10
-464.0049142691586
 20
-325.0
 30
0.0
  0
ENDBLK
  5
301B
330
3019
100
AcDbEntity
  8
0
100
AcDbBlockEnd
  0
BLOCK
  5
3027
330
3026
100
AcDbEntity
  8
0
100
AcDbBlockBegin
  2
*D27
 70
     1
 10
0.0
 20
0.0
 30
0.0
  3
*D27
  1

  0
LINE
  5
3169
330
3026
100
AcDbEntity
  8
SIZE
 62
     0
370
    -2
100
AcDbLine
 10
-369.9999999999996
 20
349.9999999999996
 30
0.0
 11
-614.0049142691585
 21
349.9999999999996
 31
0.0
  0
LINE
  5
316A
330
3026
100
AcDbEntity
  8
SIZE
 62
     0
370
    -2
100
AcDbLine
 10
-369.9999999999993
 20
-350.0000000000002
 30
0.0
 11
-614.0049142691587
 21
-350.0000000000002
 31
0.0
  0
LINE
  5
316B
330
3026
100
AcDbEntity
  8
SIZE
 62
     0
370
    -2
100
AcDbLine
 10
-594.0049142691585
 20
337.9999999999996
 30
0.0
 11
-594.0049142691588
 21
-338.0000000000002
 31
0.0
  0
INSERT
  5
316C
330
3026
100
AcDbEntity
  8
SIZE
 62
     0
370
    -2
100
AcDbBlockReference
  2
_DOTBLANK
 10
-594.0049142691585
 20
349.9999999999996
 30
0.0
 41
12.0
 42
12.0
 43
12.0
 50
90.0
  0
INSERT
  5
316D
330
3026
100
AcDbEntity
  8
SIZE
 62
     0
370
    -2
100
AcDbBlockReference
  2
_DOTBLANK
 10
-594.0049142691588
 20
-350.0000000000002
 30
0.0
 41
12.0
 42
12.0
 43
12.0
 50
270.0
  0
MTEXT
  5
316E
330
3026
100
AcDbEntity
  8
SIZE
 62
     0
100
AcDbMText
 10
-636.0049142691586
 20
-0.0000000000000233
 30
0.0
 40
64.0
 41
0.0
 71
     5
 72
     1
  1
\A1;700
 11
0.0000000000000001
 21
1.0
 31
0.0
 73
     1
 44
1.0
  0
POINT
  5
316F
330
3026
100
AcDbEntity
  8
DEFPOINTS
 62
     0
100
AcDbPoint
 10
-349.9999999999996
 20
349.9999999999996
 30
0.0
  0
POINT
  5
3170
330
3026
100
AcDbEntity
  8
DEFPOINTS
 62
     0
100
AcDbPoint
 10
-349.9999999999993
 20
-350.0000000000002
 30
0.0
  0
POINT
  5
3171
330
3026
100
AcDbEntity
  8
DEFPOINTS
 62
     0
100
AcDbPoint
 10
-594.0049142691588
 20
-350.0000000000002
 30
0.0
  0
ENDBLK
  5
3028
330
3026
100
AcDbEntity
  8
0
100
AcDbBlockEnd
  0
BLOCK
  5
3034
330
3033
100
AcDbEntity
  8
0
100
AcDbBlockBegin
  2
*D28
 70
     1
 10
0.0
 20
0.0
 30
0.0
  3
*D28
  1

  0
LINE
  5
317B
330
3033
100
AcDbEntity
  8
SIZE
 62
     0
370
    -2
100
AcDbLine
 10
-369.9999999999996
 20
349.9999999999996
 30
0.0
 11
-744.0049142691585
 21
349.9999999999996
 31
0.0
  0
LINE
  5
317C
330
3033
100
AcDbEntity
  8
SIZE
 62
     0
370
    -2
100
AcDbLine
 10
-329.9999999999998
 20
-968.1999999999996
 30
0.0
 11
-744.0049142691589
 21
-968.1999999999996
 31
0.0
  0
LINE
  5
317D
330
3033
100
AcDbEntity
  8
SIZE
 62
     0
370
    -2
100
AcDbLine
 10
-724.0049142691585
 20
337.9999999999997
 30
0.0
 11
-724.0049142691589
 21
-956.1999999999995
 31
0.0
  0
INSERT
  5
317E
330
3033
100
AcDbEntity
  8
SIZE
 62
     0
370
    -2
100
AcDbBlockReference
  2
_DOTBLANK
 10
-724.0049142691585
 20
349.9999999999996
 30
0.0
 41
12.0
 42
12.0
 43
12.0
 50
90.0
  0
INSERT
  5
317F
330
3033
100
AcDbEntity
  8
SIZE
 62
     0
370
    -2
100
AcDbBlockReference
  2
_DOTBLANK
 10
-724.0049142691589
 20
-968.1999999999996
 30
0.0
 41
12.0
 42
12.0
 43
12.0
 50
270.0
  0
MTEXT
  5
3180
330
3033
100
AcDbEntity
  8
SIZE
 62
     0
100
AcDbMText
 10
-766.0049142691587
 20
-309.0999999999996
 30
0.0
 40
64.0
 41
0.0
 71
     5
 72
     1
  1
\A1;1318
 11
0.0000000000000001
 21
1.0
 31
0.0
 73
     1
 44
1.0
  0
POINT
  5
3181
330
3033
100
AcDbEntity
  8
DEFPOINTS
 62
     0
100
AcDbPoint
 10
-349.9999999999996
 20
349.9999999999996
 30
0.0
  0
POINT
  5
3182
330
3033
100
AcDbEntity
  8
DEFPOINTS
 62
     0
100
AcDbPoint
 10
-309.9999999999998
 20
-968.1999999999996
 30
0.0
  0
POINT
  5
3183
330
3033
100
AcDbEntity
  8
DEFPOINTS
 62
     0
100
AcDbPoint
 10
-724.0049142691589
 20
-968.1999999999996
 30
0.0
  0
ENDBLK
  5
3035
330
3033
100
AcDbEntity
  8
0
100
AcDbBlockEnd
  0
ENDSEC
  0
SECTION
  2
ENTITIES
  0
TEXT
  5
953
330
2A2D
100
AcDbEntity
  8
OUTLINE
  6
Continuous
 62
     3
100
AcDbText
 10
-418.231467
 20
13.715189
 30
0.0
 40
64.0
  1
 
 41
0.9
100
AcDbText
  0
TEXT
  5
954
330
2A2D
100
AcDbEntity
  8
OUTLINE
  6
Continuous
 62
     3
100
AcDbText
 10
-418.231467
 20
13.715189
 30
0.0
 40
64.0
  1
 
 41
0.9
100
AcDbText
  0
TEXT
  5
955
330
2A2D
100
AcDbEntity
  8
OUTLINE
  6
Continuous
 62
     3
100
AcDbText
 10
1341.41903
 20
-706.0588199999997
 30
0.0
 40
64.0
  1
 
 41
0.9
100
AcDbText
  0
TEXT
  5
956
330
2A2D
100
AcDbEntity
  8
OUTLINE
  6
Continuous
 62
     3
100
AcDbText
 10
1341.41903
 20
-706.0588199999997
 30
0.0
 40
64.0
  1
 
 41
0.9
100
AcDbText
  0
TEXT
  5
957
330
2A2D
100
AcDbEntity
  8
OUTLINE
  6
Continuous
 62
     3
100
AcDbText
 10
1341.41903
 20
-706.0588199999997
 30
0.0
 40
64.0
  1
 
 41
0.9
100
AcDbText
  0
TEXT
  5
958
330
2A2D
100
AcDbEntity
  8
OUTLINE
  6
Continuous
 62
     3
100
AcDbText
 10
1341.41903
 20
-706.0588199999997
 30
0.0
 40
64.0
  1
 
 41
0.9
100
AcDbText
  0
TEXT
  5
290C
330
2A2D
100
AcDbEntity
  8
ETC
100
AcDbText
 10
506.1940324723363
 20
699.9789906412561
 30
0.0
 40
64.0
  1
システム部材
 41
0.9
100
AcDbText
  0
TEXT
  5
290D
330
2A2D
100
AcDbEntity
  8
ETC
100
AcDbText
 10
512.4020304723345
 20
800.8623166412562
 30
0.0
 40
64.0
  1
QWH-60KSA_2
 41
0.9
100
AcDbText
  0
CIRCLE
  5
290F
330
2A2D
100
AcDbEntity
  8
ARRANGE
100
AcDbCircle
 10
0.0
 20
0.0
 30
0.0
 40
40.0
  0
TEXT
  5
2934
330
2A2D
100
AcDbEntity
  8
ETC
100
AcDbText
 10
512.4020304723345
 20
600.8623166412562
 30
0.0
 40
64.0
  1
QWH-60KSA
 41
0.9
100
AcDbText
  0
LINE
  5
2E5C
330
2A2D
100
AcDbEntity
  8
OUTLINE
100
AcDbLine
 10
311.6000000000004
 20
310.8000000000004
 30
0.0
 11
-311.5999999999999
 21
310.8000000000004
 31
0.0
  0
LINE
  5
2E5D
330
2A2D
100
AcDbEntity
  8
OUTLINE
100
AcDbLine
 10
-309.9999999999998
 20
349.1999999999998
 30
0.0
 11
-309.9999999999998
 21
348.7999999999995
 31
0.0
  0
LINE
  5
2E5E
330
2A2D
100
AcDbEntity
  8
OUTLINE
100
AcDbLine
 10
-309.9999999999998
 20
310.9999999999998
 30
0.0
 11
-309.9999999999998
 21
310.8000000000002
 31
0.0
  0
LINE
  5
2E5F
330
2A2D
100
AcDbEntity
  8
OUTLINE
100
AcDbLine
 10
310.0
 20
310.8
 30
0.0
 11
310.0
 21
310.9999999999998
 31
0.0
  0
LINE
  5
2E60
330
2A2D
100
AcDbEntity
  8
OUTLINE
100
AcDbLine
 10
310.0
 20
348.7999999999995
 30
0.0
 11
310.0
 21
349.1999999999998
 31
0.0
  0
LINE
  5
2E61
330
2A2D
100
AcDbEntity
  8
OUTLINE
100
AcDbLine
 10
-309.9999999999998
 20
349.2
 30
0.0
 11
-309.9999999999998
 21
350.0
 31
0.0
  0
LINE
  5
2E62
330
2A2D
100
AcDbEntity
  8
OUTLINE
100
AcDbLine
 10
-309.9999999999998
 20
350.0
 30
0.0
 11
310.0
 21
350.0
 31
0.0
  0
LINE
  5
2E63
330
2A2D
100
AcDbEntity
  8
OUTLINE
100
AcDbLine
 10
310.0
 20
350.0
 30
0.0
 11
310.0
 21
349.2
 31
0.0
  0
LINE
  5
2E64
330
2A2D
100
AcDbEntity
  8
OUTLINE
100
AcDbLine
 10
310.0
 20
349.2
 30
0.0
 11
-309.9999999999998
 21
349.2
 31
0.0
  0
LINE
  5
2E65
330
2A2D
100
AcDbEntity
  8
OUTLINE
100
AcDbLine
 10
-311.5999999999997
 20
-866.1999999999995
 30
0.0
 11
-309.9999999999998
 21
-866.1999999999995
 31
0.0
  0
LINE
  5
2E66
330
2A2D
100
AcDbEntity
  8
OUTLINE
100
AcDbLine
 10
-311.5999999999999
 20
-388.9999999999996
 30
0.0
 11
-311.5999999999999
 21
-866.1999999999995
 31
0.0
  0
LINE
  5
2E67
330
2A2D
100
AcDbEntity
  8
OUTLINE
100
AcDbLine
 10
311.6000000000004
 20
-866.1999999999995
 30
0.0
 11
311.6000000000004
 21
-388.9999999999998
 31
0.0
  0
LINE
  5
2E68
330
2A2D
100
AcDbEntity
  8
OUTLINE
100
AcDbLine
 10
310.0000000000004
 20
-866.1999999999995
 30
0.0
 11
311.6000000000004
 21
-866.1999999999995
 31
0.0
  0
LINE
  5
2E69
330
2A2D
100
AcDbEntity
  8
OUTLINE
100
AcDbLine
 10
-306.9999999999998
 20
-958.1999999999995
 30
0.0
 11
307.0000000000005
 21
-958.1999999999995
 31
0.0
  0
LINE
  5
2E6A
330
2A2D
100
AcDbEntity
  8
OUTLINE
100
AcDbLine
 10
-309.9999999999998
 20
-968.1999999999996
 30
0.0
 11
310.0000000000004
 21
-968.1999999999996
 31
0.0
  0
LINE
  5
2E6B
330
2A2D
100
AcDbEntity
  8
OUTLINE
100
AcDbLine
 10
310.0000000000004
 20
-961.1999999999996
 30
0.0
 11
310.0000000000004
 21
-866.1999999999995
 31
0.0
  0
LINE
  5
2E6C
330
2A2D
100
AcDbEntity
  8
OUTLINE
100
AcDbLine
 10
310.0000000000004
 20
-968.1999999999996
 30
0.0
 11
310.0000000000004
 21
-961.1999999999996
 31
0.0
  0
LINE
  5
2E6D
330
2A2D
100
AcDbEntity
  8
OUTLINE
100
AcDbLine
 10
307.0000000000005
 20
-958.1999999999995
 30
0.0
 11
310.0000000000004
 21
-961.1999999999996
 31
0.0
  0
LINE
  5
2E6E
330
2A2D
100
AcDbEntity
  8
OUTLINE
100
AcDbLine
 10
-309.9999999999998
 20
-961.1999999999996
 30
0.0
 11
-309.9999999999998
 21
-968.1999999999996
 31
0.0
  0
LINE
  5
2E6F
330
2A2D
100
AcDbEntity
  8
OUTLINE
100
AcDbLine
 10
-309.9999999999998
 20
-866.1999999999995
 30
0.0
 11
-309.9999999999998
 21
-961.1999999999996
 31
0.0
  0
LINE
  5
2E70
330
2A2D
100
AcDbEntity
  8
OUTLINE
100
AcDbLine
 10
-309.9999999999998
 20
-961.1999999999996
 30
0.0
 11
-306.9999999999998
 21
-958.1999999999995
 31
0.0
  0
LINE
  5
2E71
330
2A2D
100
AcDbEntity
  8
OUTLINE
100
AcDbLine
 10
-311.5999999999999
 20
-388.9999999999998
 30
0.0
 11
-311.5999999999999
 21
310.8000000000002
 31
0.0
  0
LINE
  5
2E72
330
2A2D
100
AcDbEntity
  8
OUTLINE
100
AcDbLine
 10
311.6000000000004
 20
310.8000000000004
 30
0.0
 11
311.6000000000004
 21
-388.9999999999998
 31
0.0
  0
LINE
  5
2E7B
330
2A2D
100
AcDbEntity
  8
OUTLINE
100
AcDbLine
 10
-348.7999999999997
 20
-310.0000000000002
 30
0.0
 11
-349.1999999999996
 21
-310.0000000000002
 31
0.0
  0
LINE
  5
2E7C
330
2A2D
100
AcDbEntity
  8
OUTLINE
100
AcDbLine
 10
-324.9999999999996
 20
-861.2522511827389
 30
0.0
 11
-324.9999999999996
 21
-868.2
 31
0.0
  0
LINE
  5
2E7D
330
2A2D
100
AcDbEntity
  8
OUTLINE
100
AcDbLine
 10
-310.7999999999997
 20
-867.3939835265652
 30
0.0
 11
-309.9999999999996
 21
-867.3939835265652
 31
0.0
  0
LINE
  5
2E7E
330
2A2D
100
AcDbEntity
  8
OUTLINE
100
AcDbLine
 10
-309.9999999999996
 20
-867.4059715637421
 30
0.0
 11
-324.1999999999998
 21
-867.4059715637421
 31
0.0
  0
LINE
  5
2E7F
330
2A2D
100
AcDbEntity
  8
OUTLINE
100
AcDbLine
 10
-348.7999999999995
 20
309.9999999999998
 30
0.0
 11
-349.1999999999996
 21
309.9999999999998
 31
0.0
  0
LINE
  5
2E80
330
2A2D
100
AcDbEntity
  8
OUTLINE
100
AcDbLine
 10
-349.1999999999996
 20
-310.0000000000002
 30
0.0
 11
-349.9999999999996
 21
-310.0000000000002
 31
0.0
  0
LINE
  5
2E81
330
2A2D
100
AcDbEntity
  8
OUTLINE
100
AcDbLine
 10
-349.9999999999996
 20
-310.0000000000002
 30
0.0
 11
-349.9999999999996
 21
309.9999999999998
 31
0.0
  0
LINE
  5
2E82
330
2A2D
100
AcDbEntity
  8
OUTLINE
100
AcDbLine
 10
-349.9999999999996
 20
309.9999999999998
 30
0.0
 11
-349.1999999999996
 21
309.9999999999998
 31
0.0
  0
LINE
  5
2E83
330
2A2D
100
AcDbEntity
  8
OUTLINE
100
AcDbLine
 10
-349.1999999999996
 20
309.9999999999998
 30
0.0
 11
-349.1999999999998
 21
-310.0000000000002
 31
0.0
  0
LINE
  5
2E84
330
2A2D
100
AcDbEntity
  8
OUTLINE
100
AcDbLine
 10
-309.9999999999996
 20
-868.2000000000005
 30
0.0
 11
-324.9999999999996
 21
-868.2000000000005
 31
0.0
  0
LINE
  5
2E85
330
2A2D
100
AcDbEntity
  8
OUTLINE
100
AcDbLine
 10
-310.7999999999997
 20
-866.1999999999995
 30
0.0
 11
-310.7999999999997
 21
-867.3939835265652
 31
0.0
  0
LINE
  5
2E86
330
2A2D
100
AcDbEntity
  8
OUTLINE
100
AcDbLine
 10
-324.1999999999998
 20
-867.4059715637421
 30
0.0
 11
-324.1999999999998
 21
-861.2522511827394
 31
0.0
  0
LINE
  5
2E87
330
2A2D
100
AcDbEntity
  8
OUTLINE
100
AcDbLine
 10
-324.9999999999996
 20
-857.9087774651195
 30
0.0
 11
-324.9999999999996
 21
-758.2453091385348
 31
0.0
  0
LINE
  5
2E88
330
2A2D
100
AcDbEntity
  8
OUTLINE
100
AcDbLine
 10
-324.1999999999996
 20
-758.2453091385348
 30
0.0
 11
-324.9999999999996
 21
-758.2453091385348
 31
0.0
  0
LINE
  5
2E89
330
2A2D
100
AcDbEntity
  8
OUTLINE
100
AcDbLine
 10
-324.1999999999996
 20
-758.3309323885921
 30
0.0
 11
-324.1999999999998
 21
-857.9087774651231
 31
0.0
  0
LINE
  5
2E8A
330
2A2D
100
AcDbEntity
  8
OUTLINE
100
AcDbLine
 10
-324.1999999999998
 20
-857.9087774651231
 30
0.0
 11
-324.9999999999996
 21
-857.9087774651231
 31
0.0
  0
LINE
  5
2E8B
330
2A2D
100
AcDbEntity
  8
OUTLINE
100
AcDbLine
 10
-324.1999999999998
 20
-861.2522511827389
 30
0.0
 11
-324.1999999999998
 21
-857.9087774651231
 31
0.0
  0
LINE
  5
2E8C
330
2A2D
100
AcDbEntity
  8
OUTLINE
100
AcDbLine
 10
-324.9999999999996
 20
-861.2522511827389
 30
0.0
 11
-324.1999999999998
 21
-861.2522511827389
 31
0.0
  0
LINE
  5
2E8D
330
2A2D
100
AcDbEntity
  8
OUTLINE
100
AcDbLine
 10
-324.9999999999996
 20
-857.9087774651213
 30
0.0
 11
-324.9999999999996
 21
-861.2522511827394
 31
0.0
  0
LINE
  5
2E8E
330
2A2D
100
AcDbEntity
  8
OUTLINE
100
AcDbLine
 10
310.8000000000002
 20
-867.3939835265652
 30
0.0
 11
310.8000000000002
 21
-866.1999999999995
 31
0.0
  0
LINE
  5
2E8F
330
2A2D
100
AcDbEntity
  8
OUTLINE
100
AcDbLine
 10
310.0
 20
-867.3939835265652
 30
0.0
 11
310.8000000000002
 21
-867.3939835265652
 31
0.0
  0
LINE
  5
2E90
330
2A2D
100
AcDbEntity
  8
OUTLINE
100
AcDbLine
 10
348.8000000000002
 20
309.9999999999998
 30
0.0
 11
349.2000000000003
 21
309.9999999999998
 31
0.0
  0
LINE
  5
2E91
330
2A2D
100
AcDbEntity
  8
OUTLINE
100
AcDbLine
 10
348.8000000000002
 20
-310.0000000000002
 30
0.0
 11
349.2000000000003
 21
-310.0000000000002
 31
0.0
  0
LINE
  5
2E92
330
2A2D
100
AcDbEntity
  8
OUTLINE
100
AcDbLine
 10
350.0
 20
-310.0000000000002
 30
0.0
 11
349.2000000000003
 21
-310.0000000000002
 31
0.0
  0
LINE
  5
2E93
330
2A2D
100
AcDbEntity
  8
OUTLINE
100
AcDbLine
 10
349.2000000000003
 20
309.9999999999998
 30
0.0
 11
350.0000000000004
 21
309.9999999999998
 31
0.0
  0
LINE
  5
2E94
330
2A2D
100
AcDbEntity
  8
OUTLINE
100
AcDbLine
 10
350.0
 20
309.9999999999998
 30
0.0
 11
350.0
 21
-310.0000000000002
 31
0.0
  0
LINE
  5
2E95
330
2A2D
100
AcDbEntity
  8
OUTLINE
100
AcDbLine
 10
349.2000000000003
 20
-310.0000000000002
 30
0.0
 11
349.2000000000003
 21
309.9999999999998
 31
0.0
  0
LINE
  5
2E96
330
2A2D
100
AcDbEntity
  8
OUTLINE
100
AcDbLine
 10
325.0
 20
-758.2453091385357
 30
0.0
 11
325.0
 21
-857.9087774651231
 31
0.0
  0
LINE
  5
2E97
330
2A2D
100
AcDbEntity
  8
OUTLINE
100
AcDbLine
 10
325.0
 20
-758.2453091385357
 30
0.0
 11
324.2000000000003
 21
-758.2453091385357
 31
0.0
  0
LINE
  5
2E98
330
2A2D
100
AcDbEntity
  8
OUTLINE
100
AcDbLine
 10
324.2000000000003
 20
-857.9087774651199
 30
0.0
 11
324.2000000000003
 21
-758.3309323885921
 31
0.0
  0
LINE
  5
2E99
330
2A2D
100
AcDbEntity
  8
OUTLINE
100
AcDbLine
 10
325.0
 20
-861.2522511827389
 30
0.0
 11
325.0
 21
-868.2000000000005
 31
0.0
  0
LINE
  5
2E9A
330
2A2D
100
AcDbEntity
  8
OUTLINE
100
AcDbLine
 10
325.0
 20
-868.2000000000005
 30
0.0
 11
310.0
 21
-868.2000000000005
 31
0.0
  0
LINE
  5
2E9B
330
2A2D
100
AcDbEntity
  8
OUTLINE
100
AcDbLine
 10
310.0
 20
-867.4059715637421
 30
0.0
 11
324.2000000000003
 21
-867.4059715637421
 31
0.0
  0
LINE
  5
2E9C
330
2A2D
100
AcDbEntity
  8
OUTLINE
100
AcDbLine
 10
324.2000000000003
 20
-867.4059715637421
 30
0.0
 11
324.2000000000003
 21
-861.2522511827389
 31
0.0
  0
LINE
  5
2E9D
330
2A2D
100
AcDbEntity
  8
OUTLINE
100
AcDbLine
 10
324.2000000000003
 20
-861.2522511827389
 30
0.0
 11
325.0
 21
-861.2522511827389
 31
0.0
  0
LINE
  5
2E9E
330
2A2D
100
AcDbEntity
  8
OUTLINE
100
AcDbLine
 10
324.2000000000003
 20
-857.9087774651213
 30
0.0
 11
324.2000000000003
 21
-861.2522511827389
 31
0.0
  0
LINE
  5
2E9F
330
2A2D
100
AcDbEntity
  8
OUTLINE
100
AcDbLine
 10
325.0
 20
-857.9087774651231
 30
0.0
 11
324.2000000000003
 21
-857.9087774651231
 31
0.0
  0
LINE
  5
2EA0
330
2A2D
100
AcDbEntity
  8
OUTLINE
100
AcDbLine
 10
325.0
 20
-861.2522511827389
 30
0.0
 11
325.0
 21
-857.9087774651231
 31
0.0
  0
LINE
  5
2EA3
330
2A2D
100
AcDbEntity
  8
OUTLINE
100
AcDbLine
 10
-324.1999999999998
 20
-766.6747336666542
 30
0.0
 11
-311.5999999999999
 21
-766.6747336666542
 31
0.0
  0
LINE
  5
2EA4
330
2A2D
100
AcDbEntity
  8
OUTLINE
100
AcDbLine
 10
311.6000000000004
 20
-766.6747336666542
 30
0.0
 11
324.2000000000003
 21
-766.6747336666542
 31
0.0
  0
LINE
  5
2EA5
330
2A2D
100
AcDbEntity
  8
OUTLINE
100
AcDbLine
 10
-324.1999999999998
 20
-757.5433639332556
 30
0.0
 11
-311.5999999999999
 21
-757.5433639332556
 31
0.0
  0
LINE
  5
2EA6
330
2A2D
100
AcDbEntity
  8
OUTLINE
100
AcDbLine
 10
311.6000000000004
 20
-757.5433639332556
 30
0.0
 11
324.2000000000003
 21
-757.5433639332556
 31
0.0
  0
LINE
  5
2EA7
330
2A2D
100
AcDbEntity
  8
OUTLINE
100
AcDbLine
 10
-324.1999999999998
 20
-757.4458296131085
 30
0.0
 11
-311.5999999999999
 21
-757.4458296131085
 31
0.0
  0
LINE
  5
2EA8
330
2A2D
100
AcDbEntity
  8
OUTLINE
100
AcDbLine
 10
311.6000000000004
 20
-757.4458296131085
 30
0.0
 11
324.2000000000003
 21
-757.4458296131085
 31
0.0
  0
LINE
  5
2EA9
330
2A2D
100
AcDbEntity
  8
OUTLINE
100
AcDbLine
 10
311.6000000000004
 20
-768.3939872970998
 30
0.0
 11
324.2000000000003
 21
-768.3939872970998
 31
0.0
  0
LINE
  5
2EAA
330
2A2D
100
AcDbEntity
  8
OUTLINE
100
AcDbLine
 10
-311.5999999999999
 20
-768.3939872970998
 30
0.0
 11
-324.1999999999998
 21
-768.3939872970998
 31
0.0
  0
LINE
  5
2EAB
330
2A2D
100
AcDbEntity
  8
OUTLINE
100
AcDbLine
 10
-324.1999999999998
 20
-757.4458296131085
 30
0.0
 11
-324.1999999999998
 21
-757.5433639332556
 31
0.0
  0
LINE
  5
2EAC
330
2A2D
100
AcDbEntity
  8
OUTLINE
100
AcDbLine
 10
-324.1999999999998
 20
-757.5433639332556
 30
0.0
 11
-324.1999999999998
 21
-758.3309323885917
 31
0.0
  0
LINE
  5
2EAD
330
2A2D
100
AcDbEntity
  8
OUTLINE
100
AcDbLine
 10
324.2000000000003
 20
-757.5433639332556
 30
0.0
 11
324.2000000000003
 21
-757.4458296131085
 31
0.0
  0
LINE
  5
2EAE
330
2A2D
100
AcDbEntity
  8
OUTLINE
100
AcDbLine
 10
324.2000000000003
 20
-758.3309323885921
 30
0.0
 11
324.2000000000003
 21
-757.5433639332556
 31
0.0
  0
LINE
  5
2EAF
330
2A2D
100
AcDbEntity
  8
OUTLINE
100
AcDbLine
 10
348.8000000000002
 20
-311.8485281374242
 30
0.0
 11
311.8485281374242
 21
-311.8485281374242
 31
0.0
  0
LINE
  5
2EB0
330
2A2D
100
AcDbEntity
  8
OUTLINE
100
AcDbLine
 10
311.8485281374242
 20
-311.8485281374242
 30
0.0
 11
311.8485281374242
 21
-348.8000000000004
 31
0.0
  0
LINE
  5
2EB1
330
2A2D
100
AcDbEntity
  8
OUTLINE
100
AcDbLine
 10
311.6000000000004
 20
-311.6000000000006
 30
0.0
 11
311.8485281374242
 21
-311.8485281374242
 31
0.0
  0
LINE
  5
2EB2
330
2A2D
100
AcDbEntity
  8
OUTLINE
100
AcDbLine
 10
350.0
 20
-311.0000000000005
 30
0.0
 11
350.0
 21
-350.0000000000004
 31
0.0
  0
LINE
  5
2EB3
330
2A2D
100
AcDbEntity
  8
OUTLINE
100
AcDbLine
 10
348.8000000000002
 20
-311.0000000000005
 30
0.0
 11
350.0
 21
-311.0000000000005
 31
0.0
  0
LINE
  5
2EB4
330
2A2D
100
AcDbEntity
  8
OUTLINE
100
AcDbLine
 10
348.8000000000002
 20
-348.8000000000004
 30
0.0
 11
348.8000000000002
 21
-311.0000000000005
 31
0.0
  0
LINE
  5
2EB5
330
2A2D
100
AcDbEntity
  8
OUTLINE
100
AcDbLine
 10
311.6000000000004
 20
-348.8000000000004
 30
0.0
 11
348.8000000000002
 21
-348.8000000000004
 31
0.0
  0
LINE
  5
2EB6
330
2A2D
100
AcDbEntity
  8
OUTLINE
100
AcDbLine
 10
350.0
 20
-350.0000000000004
 30
0.0
 11
311.6000000000004
 21
-350.0000000000004
 31
0.0
  0
LINE
  5
2EB7
330
2A2D
100
AcDbEntity
  8
OUTLINE
100
AcDbLine
 10
348.8000000000002
 20
-271.0182540694802
 30
0.0
 11
348.8000000000002
 21
-311.0000000000005
 31
0.0
  0
LINE
  5
2EB8
330
2A2D
100
AcDbEntity
  8
OUTLINE
100
AcDbLine
 10
311.6000000000004
 20
-311.0000000000005
 30
0.0
 11
348.8000000000002
 21
-311.0000000000005
 31
0.0
  0
LINE
  5
2EB9
330
2A2D
100
AcDbEntity
  8
OUTLINE
100
AcDbLine
 10
311.6000000000004
 20
-250.0000000000004
 30
0.0
 11
327.7817459305202
 21
-250.0000000000004
 31
0.0
  0
LINE
  5
2EBA
330
2A2D
100
AcDbEntity
  8
OUTLINE
100
AcDbLine
 10
348.8000000000002
 20
-271.0182540694802
 30
0.0
 11
327.7817459305202
 21
-250.0000000000002
 31
0.0
  0
CIRCLE
  5
2EBB
330
2A2D
100
AcDbEntity
  8
OUTLINE
100
AcDbCircle
 10
325.0
 20
-325.0000000000004
 30
0.0
 40
7.5
  0
LINE
  5
2EC0
330
2A2D
100
AcDbEntity
  8
OUTLINE
100
AcDbLine
 10
327.7817459305206
 20
249.9999999999998
 30
0.0
 11
311.6000000000004
 21
249.9999999999998
 31
0.0
  0
LINE
  5
2EC1
330
2A2D
100
AcDbEntity
  8
OUTLINE
100
AcDbLine
 10
311.0
 20
310.8
 30
0.0
 11
311.0
 21
310.9999999999998
 31
0.0
  0
LINE
  5
2EC2
330
2A2D
100
AcDbEntity
  8
OUTLINE
100
AcDbLine
 10
311.8485281374242
 20
348.7999999999997
 30
0.0
 11
311.8485281374242
 21
311.8485281374235
 31
0.0
  0
LINE
  5
2EC3
330
2A2D
100
AcDbEntity
  8
OUTLINE
100
AcDbLine
 10
311.8485281374242
 20
311.8485281374237
 30
0.0
 11
348.8000000000002
 21
311.8485281374237
 31
0.0
  0
LINE
  5
2EC4
330
2A2D
100
AcDbEntity
  8
OUTLINE
100
AcDbLine
 10
348.8000000000002
 20
310.9999999999998
 30
0.0
 11
311.0000000000005
 21
310.9999999999998
 31
0.0
  0
LINE
  5
2EC5
330
2A2D
100
AcDbEntity
  8
OUTLINE
100
AcDbLine
 10
311.0
 20
311.0
 30
0.0
 11
311.8485281374242
 21
311.8485281374237
 31
0.0
  0
LINE
  5
2EC6
330
2A2D
100
AcDbEntity
  8
OUTLINE
100
AcDbLine
 10
311.0
 20
349.9999999999998
 30
0.0
 11
350.0
 21
349.9999999999998
 31
0.0
  0
LINE
  5
2EC7
330
2A2D
100
AcDbEntity
  8
OUTLINE
100
AcDbLine
 10
311.0
 20
348.7999999999999
 30
0.0
 11
311.0
 21
349.9999999999998
 31
0.0
  0
LINE
  5
2EC8
330
2A2D
100
AcDbEntity
  8
OUTLINE
100
AcDbLine
 10
348.8000000000002
 20
348.7999999999999
 30
0.0
 11
311.0
 21
348.7999999999999
 31
0.0
  0
LINE
  5
2EC9
330
2A2D
100
AcDbEntity
  8
OUTLINE
100
AcDbLine
 10
348.8000000000002
 20
310.9999999999998
 30
0.0
 11
348.8000000000002
 21
348.7999999999997
 31
0.0
  0
LINE
  5
2ECA
330
2A2D
100
AcDbEntity
  8
OUTLINE
100
AcDbLine
 10
350.0
 20
310.9999999999998
 30
0.0
 11
348.8000000000002
 21
310.9999999999998
 31
0.0
  0
LINE
  5
2ECB
330
2A2D
100
AcDbEntity
  8
OUTLINE
100
AcDbLine
 10
350.0
 20
349.9999999999998
 30
0.0
 11
350.0
 21
310.9999999999998
 31
0.0
  0
LINE
  5
2ECC
330
2A2D
100
AcDbEntity
  8
OUTLINE
100
AcDbLine
 10
348.8000000000002
 20
310.9999999999998
 30
0.0
 11
348.8000000000002
 21
271.0182540694796
 31
0.0
  0
LINE
  5
2ECD
330
2A2D
100
AcDbEntity
  8
OUTLINE
100
AcDbLine
 10
271.0182540694805
 20
348.7999999999999
 30
0.0
 11
311.0
 21
348.7999999999999
 31
0.0
  0
LINE
  5
2ECE
330
2A2D
100
AcDbEntity
  8
OUTLINE
100
AcDbLine
 10
311.0
 20
310.9999999999998
 30
0.0
 11
311.0
 21
348.7999999999997
 31
0.0
  0
LINE
  5
2ECF
330
2A2D
100
AcDbEntity
  8
OUTLINE
100
AcDbLine
 10
311.0000000000005
 20
310.9999999999998
 30
0.0
 11
250.0
 21
310.9999999999998
 31
0.0
  0
LINE
  5
2ED0
330
2A2D
100
AcDbEntity
  8
OUTLINE
100
AcDbLine
 10
250.0
 20
310.9999999999998
 30
0.0
 11
250.0
 21
327.7817459305199
 31
0.0
  0
LINE
  5
2ED1
330
2A2D
100
AcDbEntity
  8
OUTLINE
100
AcDbLine
 10
327.7817459305206
 20
250.0
 30
0.0
 11
348.8000000000002
 21
271.0182540694796
 31
0.0
  0
LINE
  5
2ED2
330
2A2D
100
AcDbEntity
  8
OUTLINE
100
AcDbLine
 10
271.01825406948
 20
348.7999999999999
 30
0.0
 11
250.0
 21
327.7817459305199
 31
0.0
  0
CIRCLE
  5
2ED3
330
2A2D
100
AcDbEntity
  8
OUTLINE
100
AcDbCircle
 10
325.0
 20
324.9999999999998
 30
0.0
 40
7.5
  0
LINE
  5
2EDC
330
2A2D
100
AcDbEntity
  8
OUTLINE
100
AcDbLine
 10
-327.7817459305202
 20
-250.0000000000002
 30
0.0
 11
-311.5999999999999
 21
-250.0000000000002
 31
0.0
  0
LINE
  5
2EDD
330
2A2D
100
AcDbEntity
  8
OUTLINE
100
AcDbLine
 10
-311.8485281374235
 20
-348.8000000000002
 30
0.0
 11
-311.8485281374235
 21
-311.848528137424
 31
0.0
  0
LINE
  5
2EDE
330
2A2D
100
AcDbEntity
  8
OUTLINE
100
AcDbLine
 10
-311.8485281374235
 20
-311.8485281374242
 30
0.0
 11
-348.7999999999997
 21
-311.8485281374242
 31
0.0
  0
LINE
  5
2EDF
330
2A2D
100
AcDbEntity
  8
OUTLINE
100
AcDbLine
 10
-348.7999999999997
 20
-311.0000000000002
 30
0.0
 11
-311.5999999999997
 21
-311.0000000000002
 31
0.0
  0
LINE
  5
2EE0
330
2A2D
100
AcDbEntity
  8
OUTLINE
100
AcDbLine
 10
-311.5999999999997
 20
-311.6000000000004
 30
0.0
 11
-311.8485281374235
 21
-311.8485281374242
 31
0.0
  0
LINE
  5
2EE1
330
2A2D
100
AcDbEntity
  8
OUTLINE
100
AcDbLine
 10
-311.5999999999999
 20
-350.0000000000002
 30
0.0
 11
-349.9999999999998
 21
-350.0000000000002
 31
0.0
  0
LINE
  5
2EE2
330
2A2D
100
AcDbEntity
  8
OUTLINE
100
AcDbLine
 10
-348.7999999999997
 20
-348.8000000000004
 30
0.0
 11
-311.5999999999999
 21
-348.8000000000004
 31
0.0
  0
LINE
  5
2EE3
330
2A2D
100
AcDbEntity
  8
OUTLINE
100
AcDbLine
 10
-348.7999999999997
 20
-311.0000000000002
 30
0.0
 11
-348.7999999999997
 21
-348.8000000000002
 31
0.0
  0
LINE
  5
2EE4
330
2A2D
100
AcDbEntity
  8
OUTLINE
100
AcDbLine
 10
-349.9999999999998
 20
-311.0000000000002
 30
0.0
 11
-348.7999999999997
 21
-311.0000000000002
 31
0.0
  0
LINE
  5
2EE5
330
2A2D
100
AcDbEntity
  8
OUTLINE
100
AcDbLine
 10
-349.9999999999998
 20
-350.0000000000002
 30
0.0
 11
-349.9999999999998
 21
-311.0000000000002
 31
0.0
  0
LINE
  5
2EE6
330
2A2D
100
AcDbEntity
  8
OUTLINE
100
AcDbLine
 10
-348.7999999999997
 20
-311.0000000000002
 30
0.0
 11
-348.7999999999997
 21
-271.01825406948
 31
0.0
  0
LINE
  5
2EE7
330
2A2D
100
AcDbEntity
  8
OUTLINE
100
AcDbLine
 10
-327.7817459305202
 20
-250.0000000000004
 30
0.0
 11
-348.7999999999997
 21
-271.01825406948
 31
0.0
  0
CIRCLE
  5
2EE8
330
2A2D
100
AcDbEntity
  8
OUTLINE
100
AcDbCircle
 10
-324.9999999999998
 20
-325.0000000000002
 30
0.0
 40
7.5
  0
LINE
  5
2EED
330
2A2D
100
AcDbEntity
  8
OUTLINE
100
AcDbLine
 10
-249.9999999999996
 20
327.7817459305197
 30
0.0
 11
-249.9999999999996
 21
310.9999999999995
 31
0.0
  0
LINE
  5
2EEE
330
2A2D
100
AcDbEntity
  8
OUTLINE
100
AcDbLine
 10
-249.9999999999996
 20
310.9999999999995
 30
0.0
 11
-310.9999999999995
 21
310.9999999999995
 31
0.0
  0
LINE
  5
2EEF
330
2A2D
100
AcDbEntity
  8
OUTLINE
100
AcDbLine
 10
-348.7999999999995
 20
311.8485281374233
 30
0.0
 11
-311.8485281374233
 21
311.8485281374233
 31
0.0
  0
LINE
  5
2EF0
330
2A2D
100
AcDbEntity
  8
OUTLINE
100
AcDbLine
 10
-311.8485281374233
 20
311.8485281374233
 30
0.0
 11
-311.8485281374233
 21
348.7999999999995
 31
0.0
  0
LINE
  5
2EF1
330
2A2D
100
AcDbEntity
  8
OUTLINE
100
AcDbLine
 10
-310.9999999999995
 20
348.7999999999995
 30
0.0
 11
-310.9999999999995
 21
310.9999999999998
 31
0.0
  0
LINE
  5
2EF2
330
2A2D
100
AcDbEntity
  8
OUTLINE
100
AcDbLine
 10
-310.9999999999995
 20
310.9999999999995
 30
0.0
 11
-311.8485281374233
 21
311.8485281374233
 31
0.0
  0
LINE
  5
2EF3
330
2A2D
100
AcDbEntity
  8
OUTLINE
100
AcDbLine
 10
-349.9999999999996
 20
310.9999999999995
 30
0.0
 11
-349.9999999999996
 21
349.9999999999996
 31
0.0
  0
LINE
  5
2EF4
330
2A2D
100
AcDbEntity
  8
OUTLINE
100
AcDbLine
 10
-348.7999999999995
 20
310.9999999999995
 30
0.0
 11
-349.9999999999996
 21
310.9999999999995
 31
0.0
  0
LINE
  5
2EF5
330
2A2D
100
AcDbEntity
  8
OUTLINE
100
AcDbLine
 10
-348.7999999999995
 20
348.7999999999995
 30
0.0
 11
-348.7999999999995
 21
310.9999999999995
 31
0.0
  0
LINE
  5
2EF6
330
2A2D
100
AcDbEntity
  8
OUTLINE
100
AcDbLine
 10
-310.9999999999995
 20
348.7999999999995
 30
0.0
 11
-348.7999999999995
 21
348.7999999999995
 31
0.0
  0
LINE
  5
2EF7
330
2A2D
100
AcDbEntity
  8
OUTLINE
100
AcDbLine
 10
-310.9999999999995
 20
349.9999999999996
 30
0.0
 11
-310.9999999999995
 21
348.7999999999995
 31
0.0
  0
LINE
  5
2EF8
330
2A2D
100
AcDbEntity
  8
OUTLINE
100
AcDbLine
 10
-349.9999999999996
 20
349.9999999999996
 30
0.0
 11
-310.9999999999995
 21
349.9999999999996
 31
0.0
  0
LINE
  5
2EF9
330
2A2D
100
AcDbEntity
  8
OUTLINE
100
AcDbLine
 10
-310.9999999999995
 20
348.7999999999995
 30
0.0
 11
-271.0182540694793
 21
348.7999999999995
 31
0.0
  0
LINE
  5
2EFA
330
2A2D
100
AcDbEntity
  8
OUTLINE
100
AcDbLine
 10
-348.7999999999995
 20
271.0182540694793
 30
0.0
 11
-348.7999999999995
 21
310.9999999999995
 31
0.0
  0
LINE
  5
2EFB
330
2A2D
100
AcDbEntity
  8
OUTLINE
100
AcDbLine
 10
-310.9999999999995
 20
310.9999999999995
 30
0.0
 11
-348.7999999999995
 21
310.9999999999995
 31
0.0
  0
LINE
  5
2EFC
330
2A2D
100
AcDbEntity
  8
OUTLINE
100
AcDbLine
 10
-310.9999999999995
 20
310.9999999999998
 30
0.0
 11
-310.9999999999995
 21
310.8
 31
0.0
  0
LINE
  5
2EFD
330
2A2D
100
AcDbEntity
  8
OUTLINE
100
AcDbLine
 10
-311.5999999999999
 20
249.9999999999996
 30
0.0
 11
-327.7817459305197
 21
249.9999999999996
 31
0.0
  0
LINE
  5
2EFE
330
2A2D
100
AcDbEntity
  8
OUTLINE
100
AcDbLine
 10
-249.9999999999996
 20
327.7817459305199
 30
0.0
 11
-271.0182540694793
 21
348.7999999999995
 31
0.0
  0
LINE
  5
2EFF
330
2A2D
100
AcDbEntity
  8
OUTLINE
100
AcDbLine
 10
-348.7999999999995
 20
271.0182540694793
 30
0.0
 11
-327.7817459305197
 21
249.9999999999993
 31
0.0
  0
CIRCLE
  5
2F00
330
2A2D
100
AcDbEntity
  8
OUTLINE
100
AcDbCircle
 10
-324.9999999999996
 20
324.9999999999996
 30
0.0
 40
7.5
  0
LINE
  5
2FEA
330
2A2D
100
AcDbEntity
  8
NOTE
100
AcDbLine
 10
337.5
 20
-325.0
 30
0.0
 11
312.5
 21
-325.0
 31
0.0
  0
LINE
  5
2FEB
330
2A2D
100
AcDbEntity
  8
NOTE
100
AcDbLine
 10
325.0
 20
-312.5
 30
0.0
 11
325.0
 21
-337.5
 31
0.0
  0
INSERT
  5
2FEC
330
2A2D
100
AcDbEntity
  8
0
100
AcDbBlockReference
  2
*U22
 10
0.0
 20
0.0
 30
0.0
1001
ACAD
1000
DSTYLE
1002
{
1070
    41
1040
12.0
1070
    42
1040
20.0
1070
    43
1040
200.0
1070
    44
1040
20.0
1070
    73
1070
     0
1070
    74
1070
     0
1070
    77
1070
     1
1070
    78
1070
     8
1070
   140
1040
64.0
1070
   147
1040
50.0
1070
   172
1070
     1
1070
   174
1070
     1
1070
   275
1070
     0
1070
   284
1070
     0
1070
   285
1070
     0
1070
   286
1070
     0
1070
   341
1005
0
1070
   342
1005
0
1002
}
  0
LINE
  5
2FED
330
2A2D
100
AcDbEntity
  8
NOTE
100
AcDbLine
 10
337.5
 20
325.0
 30
0.0
 11
312.5
 21
325.0
 31
0.0
  0
LINE
  5
2FEE
330
2A2D
100
AcDbEntity
  8
NOTE
100
AcDbLine
 10
325.0
 20
337.5
 30
0.0
 11
325.0
 21
312.5
 31
0.0
  0
LINE
  5
2FEF
330
2A2D
100
AcDbEntity
  8
NOTE
100
AcDbLine
 10
-312.5
 20
325.0
 30
0.0
 11
-337.5
 21
325.0
 31
0.0
  0
LINE
  5
2FF0
330
2A2D
100
AcDbEntity
  8
NOTE
100
AcDbLine
 10
-325.0
 20
337.5
 30
0.0
 11
-325.0
 21
312.5
 31
0.0
  0
LINE
  5
2FF1
330
2A2D
100
AcDbEntity
  8
NOTE
100
AcDbLine
 10
-312.5
 20
-325.0
 30
0.0
 11
-337.5
 21
-325.0
 31
0.0
  0
LINE
  5
2FF2
330
2A2D
100
AcDbEntity
  8
NOTE
100
AcDbLine
 10
-325.0
 20
-312.5
 30
0.0
 11
-325.0
 21
-337.5
 31
0.0
  0
TEXT
  5
2FF3
330
2A2D
100
AcDbEntity
  8
NOTE
100
AcDbText
 10
450.4345623698609
 20
420.5270950580134
 30
0.0
 40
64.0
  1
4×φ15取付穴
 41
0.9
100
AcDbText
  0
LINE
  5
2FF4
330
2A2D
100
AcDbEntity
  8
BASIS
100
AcDbLine
 10
0.0
 20
-999.0751614609955
 30
0.0
 11
0.0
 21
375.0
 31
0.0
  0
POINT
  5
2FF6
330
2A2D
100
AcDbEntity
  8
ARRANGE
100
AcDbPoint
 10
0.0
 20
0.0000000000009095
 30
0.0
 39
50.0
  0
LINE
  5
2FF7
330
2A2D
100
AcDbEntity
  8
BASIS
100
AcDbLine
 10
375.0
 20
0.0
 30
0.0
 11
-375.0
 21
0.0
 31
0.0
  0
DIMENSION
  5
2FFE
330
2A2D
100
AcDbEntity
  8
SIZE
100
AcDbDimension
  2
*D24
 10
325.0
 20
512.2221546632752
 30
0.0
 11
0.0000000000000026
 21
554.2221546632752
 31
0.0
 70
    32
 71
     5
 42
650.0
  3
STANDARD$0
100
AcDbAlignedDimension
 13
-325.0
 23
337.5
 33
0.0
 14
325.0
 24
337.5
 34
0.0
100
AcDbRotatedDimension
1001
ACAD
1000
DSTYLE
1002
{
1070
   343
1005
2A7D
1070
   342
1005
0
1070
   173
1070
     1
1070
   344
1005
2A7D
1070
   279
1070
     0
1002
}
  0
DIMENSION
  5
300B
330
2A2D
100
AcDbEntity
  8
SIZE
100
AcDbDimension
  2
*D25
 10
350.0
 20
642.2221546632751
 30
0.0
 11
0.0000000000002274
 21
642.2221546632751
 31
0.0
 70
   160
 71
     5
 42
699.9999999999995
  3
STANDARD$0
100
AcDbAlignedDimension
 13
-349.9999999999996
 23
349.9999999999996
 33
0.0
 14
350.0
 24
349.9999999999996
 34
0.0
100
AcDbRotatedDimension
1001
ACAD
1000
DSTYLE
1002
{
1070
   343
1005
2A7D
1070
   342
1005
0
1070
   173
1070
     1
1070
   344
1005
2A7D
1070
   279
1070
     0
1002
}
  0
DIMENSION
  5
3018
330
2A2D
100
AcDbEntity
  8
SIZE
100
AcDbDimension
  2
*D26
 10
-464.0049142691586
 20
-325.0
 30
0.0
 11
-506.0049142691586
 21
-0.0000000000000233
 31
0.0
 70
    32
 71
     5
 42
650.0
  3
STANDARD$0
100
AcDbAlignedDimension
 13
-337.5
 23
325.0
 33
0.0
 14
-337.5
 24
-325.0
 34
0.0
 50
90.0
100
AcDbRotatedDimension
1001
ACAD
1000
DSTYLE
1002
{
1070
   343
1005
2A7D
1070
   342
1005
0
1070
   173
1070
     1
1070
   344
1005
2A7D
1070
   279
1070
     0
1002
}
  0
DIMENSION
  5
3025
330
2A2D
100
AcDbEntity
  8
SIZE
100
AcDbDimension
  2
*D27
 10
-594.0049142691588
 20
-350.0000000000002
 30
0.0
 11
-594.0049142691586
 21
-0.0000000000000284
 31
0.0
 70
   160
 71
     5
 42
699.9999999999998
  3
STANDARD$0
100
AcDbAlignedDimension
 13
-349.9999999999996
 23
349.9999999999996
 33
0.0
 14
-349.9999999999993
 24
-350.0000000000002
 34
0.0
 50
90.0
100
AcDbRotatedDimension
1001
ACAD
1000
DSTYLE
1002
{
1070
   343
1005
2A7D
1070
   342
1005
0
1070
   173
1070
     1
1070
   344
1005
2A7D
1070
   279
1070
     0
1002
}
  0
DIMENSION
  5
3032
330
2A2D
100
AcDbEntity
  8
SIZE
100
AcDbDimension
  2
*D28
 10
-724.0049142691589
 20
-968.1999999999996
 30
0.0
 11
-724.0049142691587
 21
-309.0999999999996
 31
0.0
 70
   160
  1
1318
 71
     5
 42
1318.199999999999
  3
STANDARD$0
100
AcDbAlignedDimension
 13
-349.9999999999996
 23
349.9999999999996
 33
0.0
 14
-309.9999999999998
 24
-968.1999999999996
 34
0.0
 50
90.0
100
AcDbRotatedDimension
1001
ACAD_DSTYLE_DIMINSPECT
1070
   396
1000
100%
1070
   395
1000

1070
   394
1070
    33
1070
   393
1070
     0
1001
ACAD
1000
DSTYLE
1002
{
1070
   343
1005
2A7D
1070
   342
1005
0
1070
   173
1070
     1
1070
   344
1005
2A7D
1070
   279
1070
     0
1002
}
  0
ENDSEC
  0
SECTION
  2
OBJECTS
  0
DICTIONARY
  5
29C5
330
0
100
AcDbDictionary
281
     1
  3
ACAD_2007HEADERVARS_RT
350
3199
  3
ACAD_COLOR
350
2A23
  3
ACAD_GROUP
350
29C6
  3
ACAD_LAYOUT
350
2A22
  3
ACAD_MATERIAL
350
29C9
  3
ACAD_MLEADERSTYLE
350
2A26
  3
ACAD_MLINESTYLE
350
2A1F
  3
ACAD_PLOTSETTINGS
350
2A21
  3
ACAD_PLOTSTYLENAME
350
29C7
  3
ACAD_SCALELIST
350
29F3
  3
ACAD_TABLESTYLE
350
2A24
  3
ACAD_VISUALSTYLE
350
29E2
  3
ACDB_RECOMPOSE_DATA
350
2BAE
  3
AcDbVariableDictionary
350
2BA5
  3
AcmDictionary
350
2B58
  3
AMG
350
2AA5
  3
AMGSNAPSETTINGS
350
2C9F
  3
MAPISURF_MODULE
350
3117
  0
DICTIONARY
  5
2CBB
330
29BB
100
AcDbDictionary
280
     1
281
     1
  3
ACAD_LAYERSTATES
360
2CBC
  0
DICTIONARY
  5
2B80
330
2A15
100
AcDbDictionary
280
     1
281
     1
  3
ADSK_XREC_LAYER_RECONCILED
360
2B81
  0
DICTIONARY
  5
2B82
330
2A44
100
AcDbDictionary
280
     1
281
     1
  3
ADSK_XREC_LAYER_RECONCILED
360
2B83
  0
DICTIONARY
  5
2B84
330
2A45
100
AcDbDictionary
280
     1
281
     1
  3
ADSK_XREC_LAYER_RECONCILED
360
2B85
  0
DICTIONARY
  5
2B86
330
2A46
100
AcDbDictionary
280
     1
281
     1
  3
ADSK_XREC_LAYER_RECONCILED
360
2B87
  0
DICTIONARY
  5
2B88
330
2A47
100
AcDbDictionary
280
     1
281
     1
  3
ADSK_XREC_LAYER_RECONCILED
360
2B89
  0
DICTIONARY
  5
2B8A
330
2A48
100
AcDbDictionary
280
     1
281
     1
  3
ADSK_XREC_LAYER_RECONCILED
360
2B8B
  0
DICTIONARY
  5
2B8C
330
2A4A
100
AcDbDictionary
280
     1
281
     1
  3
ADSK_XREC_LAYER_RECONCILED
360
2B8D
  0
DICTIONARY
  5
2B8E
330
2A4B
100
AcDbDictionary
280
     1
281
     1
  3
ADSK_XREC_LAYER_RECONCILED
360
2B8F
  0
DICTIONARY
  5
2B90
330
2A4C
100
AcDbDictionary
280
     1
281
     1
  3
ADSK_XREC_LAYER_RECONCILED
360
2B91
  0
DICTIONARY
  5
2B92
330
2A4D
100
AcDbDictionary
280
     1
281
     1
  3
ADSK_XREC_LAYER_RECONCILED
360
2B93
  0
DICTIONARY
  5
2B94
330
2A4E
100
AcDbDictionary
280
     1
281
     1
  3
ADSK_XREC_LAYER_RECONCILED
360
2B95
  0
DICTIONARY
  5
2CAB
330
2CAA
100
AcDbDictionary
280
     1
281
     1
  0
DICTIONARY
  5
2CAD
330
2CAC
100
AcDbDictionary
280
     1
281
     1
  0
DICTIONARY
  5
2B96
330
2A2D
100
AcDbDictionary
280
     1
281
     1
  3
ACAD_INDEX
360
2B97
  0
DICTIONARY
  5
3199
102
{ACAD_REACTORS
330
29C5
102
}
330
29C5
100
AcDbDictionary
281
     1
  3
DIMARCSYM
350
319A
  3
DIMLTEX1
350
319C
  3
DIMLTEX2
350
319D
  3
DIMLTYPE
350
319B
  0
DICTIONARY
  5
2A23
102
{ACAD_REACTORS
330
29C5
102
}
330
29C5
100
AcDbDictionary
281
     1
  0
DICTIONARY
  5
29C6
102
{ACAD_REACTORS
330
29C5
102
}
330
29C5
100
AcDbDictionary
281
     1
  0
DICTIONARY
  5
2A22
102
{ACAD_REACTORS
330
29C5
102
}
330
29C5
100
AcDbDictionary
281
     1
  3
Model
350
2A30
  3
レイアウト1
350
2A2C
  0
DICTIONARY
  5
29C9
102
{ACAD_REACTORS
330
29C5
102
}
330
29C5
100
AcDbDictionary
281
     1
  3
ByBlock
350
29D2
  3
ByLayer
350
29CA
  3
Global
350
29DA
  0
DICTIONARY
  5
2A26
102
{ACAD_REACTORS
330
29C5
102
}
330
29C5
100
AcDbDictionary
281
     1
  3
Standard
350
2A27
  0
DICTIONARY
  5
2A1F
102
{ACAD_REACTORS
330
29C5
102
}
330
29C5
100
AcDbDictionary
281
     1
  3
Standard
350
2A20
  0
DICTIONARY
  5
2A21
102
{ACAD_REACTORS
330
29C5
102
}
330
29C5
100
AcDbDictionary
281
     1
  0
ACDBDICTIONARYWDFLT
  5
29C7
102
{ACAD_REACTORS
330
29C5
102
}
330
29C5
100
AcDbDictionary
281
     1
  3
Normal
350
29C8
100
AcDbDictionaryWithDefault
340
29C8
  0
DICTIONARY
  5
29F3
102
{ACAD_REACTORS
330
29C5
102
}
330
29C5
100
AcDbDictionary
281
     1
  3
A0
350
29F4
  3
A1
350
29F5
  3
A2
350
29F6
  3
A3
350
29F7
  3
A4
350
29F8
  3
A5
350
29F9
  3
A6
350
29FA
  3
A7
350
29FB
  3
A8
350
29FC
  3
A9
350
29FD
  3
B0
350
29FE
  3
B1
350
29FF
  3
B2
350
2A00
  3
B3
350
2A01
  3
B4
350
2A02
  3
B5
350
2A03
  3
B6
350
2A04
  3
B7
350
2A05
  3
B8
350
2A06
  3
B9
350
2A07
  3
C0
350
2A08
  3
C1
350
2A09
  3
C2
350
2A0A
  3
C3
350
2A0B
  3
C4
350
2A0C
  3
C5
350
2A0D
  3
C6
350
2A0E
  3
C7
350
2A0F
  3
C8
350
2A10
  3
C9
350
2A11
  3
D0
350
2A12
  3
D1
350
2A13
  3
D2
350
2A14
  0
DICTIONARY
  5
2A24
102
{ACAD_REACTORS
330
29C5
102
}
330
29C5
100
AcDbDictionary
281
     1
  3
Standard
350
2A25
  0
DICTIONARY
  5
29E2
102
{ACAD_REACTORS
330
29C5
102
}
330
29C5
100
AcDbDictionary
281
     1
  3
2dWireframe
350
29E8
  3
3D Hidden
350
29EA
  3
3dWireframe
350
29E9
  3
Basic
350
29E7
  3
Brighten
350
29EE
  3
ColorChange
350
29F2
  3
Conceptual
350
29EB
  3
Dim
350
29ED
  3
Facepattern
350
29F1
  3
Flat
350
29E3
  3
FlatWithEdges
350
29E4
  3
Gouraud
350
29E5
  3
GouraudWithEdges
350
29E6
  3
Linepattern
350
29F0
  3
Realistic
350
29EC
  3
Thicken
350
29EF
  0
XRECORD
  5
2BAE
102
{ACAD_REACTORS
330
29C5
102
}
330
29C5
100
AcDbXrecord
280
     1
 90
        1
330
2A25
  0
DICTIONARY
  5
2BA5
102
{ACAD_REACTORS
330
29C5
102
}
330
29C5
100
AcDbDictionary
281
     1
  3
CANNOSCALE
350
2BA8
  3
CMLEADERSTYLE
350
2BA7
  3
CTABLESTYLE
350
2BA6
  3
DIMASSOC
350
2BAB
  3
INDEXCTL
350
2BAA
  3
LAYEREVAL
350
3102
  3
LAYERNOTIFY
350
3103
  3
LIGHTINGUNITS
350
3101
  3
MSLTSCALE
350
3100
  3
SORTENTS
350
2BA9
  0
DICTIONARY
  5
2B58
102
{ACAD_REACTORS
330
29C5
102
}
330
29C5
100
AcDbDictionary
281
     1
  3
AcmStdDictionary
350
2B66
  0
DICTIONARY
  5
2AA5
102
{ACAD_REACTORS
330
29C5
102
}
330
29C5
100
AcDbDictionary
281
     1
  3
AcMgSettings
350
2AA6
  0
DICTIONARY
  5
2C9F
102
{ACAD_REACTORS
330
29C5
102
}
330
29C5
100
AcDbDictionary
281
     1
  3
DIMENSION
350
2CA4
  3
FEA
350
2CA3
  3
HATCH (1)
350
2CA0
  3
HATCH (2)
350
2CA1
  3
SIMPLE WELD
350
2CA5
  3
SYMBOLS
350
2CA2
  0
DICTIONARY
  5
2CBC
102
{ACAD_REACTORS
330
2CBB
102
}
330
2CBB
100
AcDbDictionary
281
     1
  0
XRECORD
  5
2B81
102
{ACAD_REACTORS
330
2B80
102
}
330
2B80
100
AcDbXrecord
280
     1
290
     1
  0
XRECORD
  5
2B83
102
{ACAD_REACTORS
330
2B82
102
}
330
2B82
100
AcDbXrecord
280
     1
290
     1
  0
XRECORD
  5
2B85
102
{ACAD_REACTORS
330
2B84
102
}
330
2B84
100
AcDbXrecord
280
     1
290
     1
  0
XRECORD
  5
2B87
102
{ACAD_REACTORS
330
2B86
102
}
330
2B86
100
AcDbXrecord
280
     1
290
     1
  0
XRECORD
  5
2B89
102
{ACAD_REACTORS
330
2B88
102
}
330
2B88
100
AcDbXrecord
280
     1
290
     1
  0
XRECORD
  5
2B8B
102
{ACAD_REACTORS
330
2B8A
102
}
330
2B8A
100
AcDbXrecord
280
     1
290
     1
  0
XRECORD
  5
2B8D
102
{ACAD_REACTORS
330
2B8C
102
}
330
2B8C
100
AcDbXrecord
280
     1
290
     1
  0
XRECORD
  5
2B8F
102
{ACAD_REACTORS
330
2B8E
102
}
330
2B8E
100
AcDbXrecord
280
     1
290
     1
  0
XRECORD
  5
2B91
102
{ACAD_REACTORS
330
2B90
102
}
330
2B90
100
AcDbXrecord
280
     1
290
     1
  0
XRECORD
  5
2B93
102
{ACAD_REACTORS
330
2B92
102
}
330
2B92
100
AcDbXrecord
280
     1
290
     1
  0
XRECORD
  5
2B95
102
{ACAD_REACTORS
330
2B94
102
}
330
2B94
100
AcDbXrecord
280
     1
290
     1
  0
DICTIONARY
  5
2B97
102
{ACAD_REACTORS
330
2B96
102
}
330
2B96
100
AcDbDictionary
281
     1
  3
*A1
350
2B98
  0
XRECORD
  5
319A
102
{ACAD_REACTORS
330
3199
102
}
330
3199
100
AcDbXrecord
280
     1
 70
     1
  0
XRECORD
  5
319C
102
{ACAD_REACTORS
330
3199
102
}
330
3199
100
AcDbXrecord
280
     1
340
2A1B
  0
XRECORD
  5
319D
102
{ACAD_REACTORS
330
3199
102
}
330
3199
100
AcDbXrecord
280
     1
340
2A1B
  0
XRECORD
  5
319B
102
{ACAD_REACTORS
330
3199
102
}
330
3199
100
AcDbXrecord
280
     1
340
2A1B
  0
LAYOUT
  5
2A30
102
{ACAD_REACTORS
330
2A22
102
}
330
2A22
100
AcDbPlotSettings
  1

  2
自動 EPSON LP-9600S (W2450527 上)
  4

  6

 40
0.0
 41
0.0
 42
0.0
 43
0.0
 44
0.0
 45
0.0
 46
0.0
 47
0.0
 48
0.0
 49
0.0
140
0.0
141
0.0
142
1.0
143
1.0
 70
  1712
 72
     0
 73
     0
 74
     0
  7

 75
     0
147
1.0
 76
     0
 77
     2
 78
   300
148
0.0
149
0.0
100
AcDbLayout
  1
Model
 70
     1
 71
     0
 10
0.0
 20
0.0
 11
12.0
 21
9.0
 12
0.0
 22
0.0
 32
0.0
 14
0.0
 24
0.0
 34
0.0
 15
0.0
 25
0.0
 35
0.0
146
0.0
 13
0.0
 23
0.0
 33
0.0
 16
1.0
 26
0.0
 36
0.0
 17
0.0
 27
1.0
 37
0.0
 76
     0
330
2A2D
331
2A31
  0
LAYOUT
  5
2A2C
102
{ACAD_REACTORS
330
2A22
102
}
330
2A22
100
AcDbPlotSettings
  1

  2
自動 EPSON LP-9600S (W2450527 上)
  4

  6

 40
0.0
 41
0.0
 42
0.0
 43
0.0
 44
0.0
 45
0.0
 46
0.0
 47
0.0
 48
0.0
 49
0.0
140
0.0
141
0.0
142
1.0
143
1.0
 70
   688
 72
     0
 73
     0
 74
     5
  7

 75
    16
147
1.0
 76
     0
 77
     2
 78
   300
148
0.0
149
0.0
100
AcDbLayout
  1
レイアウト1
 70
     1
 71
     1
 10
0.0
 20
0.0
 11
12.0
 21
9.0
 12
0.0
 22
0.0
 32
0.0
 14
1.000000000000000E+20
 24
1.000000000000000E+20
 34
1.000000000000000E+20
 15
-1.000000000000000E+20
 25
-1.000000000000000E+20
 35
-1.000000000000000E+20
146
0.0
 13
0.0
 23
0.0
 33
0.0
 16
1.0
 26
0.0
 36
0.0
 17
0.0
 27
1.0
 37
0.0
 76
     0
330
2A29
  0
MATERIAL
  5
29D2
102
{ACAD_XDICTIONARY
360
29D3
102
}
102
{ACAD_REACTORS
330
29C9
102
}
330
29C9
100
AcDbMaterial
  1
ByBlock
 72
     0
 43
0.0208333333333333
 43
0.0
 43
0.0
 43
0.0
 43
0.0
 43
0.0208333333333333
 43
0.0
 43
0.0
 43
0.0
 43
0.0
 43
1.0
 43
0.0
 43
0.0
 43
0.0
 43
0.0
 43
1.0
 77
     0
 47
0.0208333333333333
 47
0.0
 47
0.0
 47
0.0
 47
0.0
 47
0.0208333333333333
 47
0.0
 47
0.0
 47
0.0
 47
0.0
 47
1.0
 47
0.0
 47
0.0
 47
0.0
 47
0.0
 47
1.0
171
     0
 49
0.0208333333333333
 49
0.0
 49
0.0
 49
0.0
 49
0.0
 49
0.0208333333333333
 49
0.0
 49
0.0
 49
0.0
 49
0.0
 49
1.0
 49
0.0
 49
0.0
 49
0.0
 49
0.0
 49
1.0
175
     0
142
0.0208333333333333
142
0.0
142
0.0
142
0.0
142
0.0
142
0.0208333333333333
142
0.0
142
0.0
142
0.0
142
0.0
142
1.0
142
0.0
142
0.0
142
0.0
142
0.0
142
1.0
179
     0
144
0.0208333333333333
144
0.0
144
0.0
144
0.0
144
0.0
144
0.0208333333333333
144
0.0
144
0.0
144
0.0
144
0.0
144
1.0
144
0.0
144
0.0
144
0.0
144
0.0
144
1.0
147
0.0208333333333333
147
0.0
147
0.0
147
0.0
147
0.0
147
0.0208333333333333
147
0.0
147
0.0
147
0.0
147
0.0
147
1.0
147
0.0
147
0.0
147
0.0
147
0.0
147
1.0
  0
MATERIAL
  5
29CA
102
{ACAD_XDICTIONARY
360
29CB
102
}
102
{ACAD_REACTORS
330
29C9
102
}
330
29C9
100
AcDbMaterial
  1
ByLayer
 72
     0
 43
0.0208333333333333
 43
0.0
 43
0.0
 43
0.0
 43
0.0
 43
0.0208333333333333
 43
0.0
 43
0.0
 43
0.0
 43
0.0
 43
1.0
 43
0.0
 43
0.0
 43
0.0
 43
0.0
 43
1.0
 77
     0
 47
0.0208333333333333
 47
0.0
 47
0.0
 47
0.0
 47
0.0
 47
0.0208333333333333
 47
0.0
 47
0.0
 47
0.0
 47
0.0
 47
1.0
 47
0.0
 47
0.0
 47
0.0
 47
0.0
 47
1.0
171
     0
 49
0.0208333333333333
 49
0.0
 49
0.0
 49
0.0
 49
0.0
 49
0.0208333333333333
 49
0.0
 49
0.0
 49
0.0
 49
0.0
 49
1.0
 49
0.0
 49
0.0
 49
0.0
 49
0.0
 49
1.0
175
     0
142
0.0208333333333333
142
0.0
142
0.0
142
0.0
142
0.0
142
0.0208333333333333
142
0.0
142
0.0
142
0.0
142
0.0
142
1.0
142
0.0
142
0.0
142
0.0
142
0.0
142
1.0
179
     0
144
0.0208333333333333
144
0.0
144
0.0
144
0.0
144
0.0
144
0.0208333333333333
144
0.0
144
0.0
144
0.0
144
0.0
144
1.0
144
0.0
144
0.0
144
0.0
144
0.0
144
1.0
147
0.0208333333333333
147
0.0
147
0.0
147
0.0
147
0.0
147
0.0208333333333333
147
0.0
147
0.0
147
0.0
147
0.0
147
1.0
147
0.0
147
0.0
147
0.0
147
0.0
147
1.0
  0
MATERIAL
  5
29DA
102
{ACAD_XDICTIONARY
360
29DB
102
}
102
{ACAD_REACTORS
330
29C9
102
}
330
29C9
100
AcDbMaterial
  1
Global
 72
     0
 43
0.0208333333333333
 43
0.0
 43
0.0
 43
0.0
 43
0.0
 43
0.0208333333333333
 43
0.0
 43
0.0
 43
0.0
 43
0.0
 43
1.0
 43
0.0
 43
0.0
 43
0.0
 43
0.0
 43
1.0
 77
     0
 47
0.0208333333333333
 47
0.0
 47
0.0
 47
0.0
 47
0.0
 47
0.0208333333333333
 47
0.0
 47
0.0
 47
0.0
 47
0.0
 47
1.0
 47
0.0
 47
0.0
 47
0.0
 47
0.0
 47
1.0
171
     0
 49
0.0208333333333333
 49
0.0
 49
0.0
 49
0.0
 49
0.0
 49
0.0208333333333333
 49
0.0
 49
0.0
 49
0.0
 49
0.0
 49
1.0
 49
0.0
 49
0.0
 49
0.0
 49
0.0
 49
1.0
175
     0
142
0.0208333333333333
142
0.0
142
0.0
142
0.0
142
0.0
142
0.0208333333333333
142
0.0
142
0.0
142
0.0
142
0.0
142
1.0
142
0.0
142
0.0
142
0.0
142
0.0
142
1.0
179
     0
144
0.0208333333333333
144
0.0
144
0.0
144
0.0
144
0.0
144
0.0208333333333333
144
0.0
144
0.0
144
0.0
144
0.0
144
1.0
144
0.0
144
0.0
144
0.0
144
0.0
144
1.0
147
0.0208333333333333
147
0.0
147
0.0
147
0.0
147
0.0
147
0.0208333333333333
147
0.0
147
0.0
147
0.0
147
0.0
147
1.0
147
0.0
147
0.0
147
0.0
147
0.0
147
1.0
  0
MLEADERSTYLE
  5
2A27
102
{ACAD_REACTORS
330
2A26
102
}
330
2A26
100
AcDbMLeaderStyle
170
     2
171
     1
172
     0
 90
        2
 40
0.0
 41
0.0
173
     1
 91
-1056964608
340
2A1B
 92
       -2
290
     1
 42
0.09
291
     1
 43
0.36
  3
Standard
 44
0.18
300

342
2A16
174
     1
178
     6
175
     1
176
     0
 93
-1056964608
 45
0.18
292
     0
297
     0
 46
0.18
 94
-1056964608
 47
1.0
 49
1.0
140
1.0
293
     1
141
0.0
294
     1
177
     0
142
1.0
295
     0
296
     0
143
0.125
1001
ACAD_MLEADERVER
1070
     2
  0
MLINESTYLE
  5
2A20
102
{ACAD_REACTORS
330
2A1F
102
}
330
2A1F
100
AcDbMlineStyle
  2
STANDARD
 70
     0
  3

 62
   256
 51
90.0
 52
90.0
 71
     2
 49
0.5
 62
   256
  6
BYLAYER
 49
-0.5
 62
   256
  6
BYLAYER
  0
ACDBPLACEHOLDER
  5
29C8
102
{ACAD_REACTORS
330
29C7
102
}
330
29C7
  0
SCALE
  5
29F4
102
{ACAD_REACTORS
330
29F3
102
}
330
29F3
100
AcDbScale
 70
     0
300
1:1
140
1.0
141
1.0
290
     1
  0
SCALE
  5
29F5
102
{ACAD_REACTORS
330
29F3
102
}
330
29F3
100
AcDbScale
 70
     0
300
1:2
140
1.0
141
2.0
290
     0
  0
SCALE
  5
29F6
102
{ACAD_REACTORS
330
29F3
102
}
330
29F3
100
AcDbScale
 70
     0
300
1:4
140
1.0
141
4.0
290
     0
  0
SCALE
  5
29F7
102
{ACAD_REACTORS
330
29F3
102
}
330
29F3
100
AcDbScale
 70
     0
300
1:5
140
1.0
141
5.0
290
     0
  0
SCALE
  5
29F8
102
{ACAD_REACTORS
330
29F3
102
}
330
29F3
100
AcDbScale
 70
     0
300
1:8
140
1.0
141
8.0
290
     0
  0
SCALE
  5
29F9
102
{ACAD_REACTORS
330
29F3
102
}
330
29F3
100
AcDbScale
 70
     0
300
1:10
140
1.0
141
10.0
290
     0
  0
SCALE
  5
29FA
102
{ACAD_REACTORS
330
29F3
102
}
330
29F3
100
AcDbScale
 70
     0
300
1:16
140
1.0
141
16.0
290
     0
  0
SCALE
  5
29FB
102
{ACAD_REACTORS
330
29F3
102
}
330
29F3
100
AcDbScale
 70
     0
300
1:20
140
1.0
141
20.0
290
     0
  0
SCALE
  5
29FC
102
{ACAD_REACTORS
330
29F3
102
}
330
29F3
100
AcDbScale
 70
     0
300
1:30
140
1.0
141
30.0
290
     0
  0
SCALE
  5
29FD
102
{ACAD_REACTORS
330
29F3
102
}
330
29F3
100
AcDbScale
 70
     0
300
1:40
140
1.0
141
40.0
290
     0
  0
SCALE
  5
29FE
102
{ACAD_REACTORS
330
29F3
102
}
330
29F3
100
AcDbScale
 70
     0
300
1:50
140
1.0
141
50.0
290
     0
  0
SCALE
  5
29FF
102
{ACAD_REACTORS
330
29F3
102
}
330
29F3
100
AcDbScale
 70
     0
300
1:100
140
1.0
141
100.0
290
     0
  0
SCALE
  5
2A00
102
{ACAD_REACTORS
330
29F3
102
}
330
29F3
100
AcDbScale
 70
     0
300
2:1
140
2.0
141
1.0
290
     0
  0
SCALE
  5
2A01
102
{ACAD_REACTORS
330
29F3
102
}
330
29F3
100
AcDbScale
 70
     0
300
4:1
140
4.0
141
1.0
290
     0
  0
SCALE
  5
2A02
102
{ACAD_REACTORS
330
29F3
102
}
330
29F3
100
AcDbScale
 70
     0
300
8:1
140
8.0
141
1.0
290
     0
  0
SCALE
  5
2A03
102
{ACAD_REACTORS
330
29F3
102
}
330
29F3
100
AcDbScale
 70
     0
300
10:1
140
10.0
141
1.0
290
     0
  0
SCALE
  5
2A04
102
{ACAD_REACTORS
330
29F3
102
}
330
29F3
100
AcDbScale
 70
     0
300
100:1
140
100.0
141
1.0
290
     0
  0
SCALE
  5
2A05
102
{ACAD_REACTORS
330
29F3
102
}
330
29F3
100
AcDbScale
 70
     0
300
1/128" = 1'-0"
140
0.0078125
141
12.0
290
     0
  0
SCALE
  5
2A06
102
{ACAD_REACTORS
330
29F3
102
}
330
29F3
100
AcDbScale
 70
     0
300
1/64" = 1'-0"
140
0.015625
141
12.0
290
     0
  0
SCALE
  5
2A07
102
{ACAD_REACTORS
330
29F3
102
}
330
29F3
100
AcDbScale
 70
     0
300
1/32" = 1'-0"
140
0.03125
141
12.0
290
     0
  0
SCALE
  5
2A08
102
{ACAD_REACTORS
330
29F3
102
}
330
29F3
100
AcDbScale
 70
     0
300
1/16" = 1'-0"
140
0.0625
141
12.0
290
     0
  0
SCALE
  5
2A09
102
{ACAD_REACTORS
330
29F3
102
}
330
29F3
100
AcDbScale
 70
     0
300
3/32" = 1'-0"
140
0.09375
141
12.0
290
     0
  0
SCALE
  5
2A0A
102
{ACAD_REACTORS
330
29F3
102
}
330
29F3
100
AcDbScale
 70
     0
300
1/8" = 1'-0"
140
0.125
141
12.0
290
     0
  0
SCALE
  5
2A0B
102
{ACAD_REACTORS
330
29F3
102
}
330
29F3
100
AcDbScale
 70
     0
300
3/16" = 1'-0"
140
0.1875
141
12.0
290
     0
  0
SCALE
  5
2A0C
102
{ACAD_REACTORS
330
29F3
102
}
330
29F3
100
AcDbScale
 70
     0
300
1/4" = 1'-0"
140
0.25
141
12.0
290
     0
  0
SCALE
  5
2A0D
102
{ACAD_REACTORS
330
29F3
102
}
330
29F3
100
AcDbScale
 70
     0
300
3/8" = 1'-0"
140
0.375
141
12.0
290
     0
  0
SCALE
  5
2A0E
102
{ACAD_REACTORS
330
29F3
102
}
330
29F3
100
AcDbScale
 70
     0
300
1/2" = 1'-0"
140
0.5
141
12.0
290
     0
  0
SCALE
  5
2A0F
102
{ACAD_REACTORS
330
29F3
102
}
330
29F3
100
AcDbScale
 70
     0
300
3/4" = 1'-0"
140
0.75
141
12.0
290
     0
  0
SCALE
  5
2A10
102
{ACAD_REACTORS
330
29F3
102
}
330
29F3
100
AcDbScale
 70
     0
300
1" = 1'-0"
140
1.0
141
12.0
290
     0
  0
SCALE
  5
2A11
102
{ACAD_REACTORS
330
29F3
102
}
330
29F3
100
AcDbScale
 70
     0
300
1-1/2" = 1'-0"
140
1.5
141
12.0
290
     0
  0
SCALE
  5
2A12
102
{ACAD_REACTORS
330
29F3
102
}
330
29F3
100
AcDbScale
 70
     0
300
3" = 1'-0"
140
3.0
141
12.0
290
     0
  0
SCALE
  5
2A13
102
{ACAD_REACTORS
330
29F3
102
}
330
29F3
100
AcDbScale
 70
     0
300
6" = 1'-0"
140
6.0
141
12.0
290
     0
  0
SCALE
  5
2A14
102
{ACAD_REACTORS
330
29F3
102
}
330
29F3
100
AcDbScale
 70
     0
300
1'-0" = 1'-0"
140
12.0
141
12.0
290
     0
  0
TABLESTYLE
  5
2A25
102
{ACAD_XDICTIONARY
360
2BAC
102
}
102
{ACAD_REACTORS
330
2A24
102
}
330
2A24
100
AcDbTableStyle
  3
Standard
 70
     0
 71
     0
 40
0.06
 41
0.06
280
     0
281
     0
  7
STANDARD
140
0.18
170
     2
 62
     0
 63
     7
283
     0
274
    -2
284
     1
 64
     0
275
    -2
285
     1
 65
     0
276
    -2
286
     1
 66
     0
277
    -2
287
     1
 67
     0
278
    -2
288
     1
 68
     0
279
    -2
289
     1
 69
     0
  7
STANDARD
140
0.25
170
     5
 62
     0
 63
     7
283
     0
274
    -2
284
     1
 64
     0
275
    -2
285
     1
 65
     0
276
    -2
286
     1
 66
     0
277
    -2
287
     1
 67
     0
278
    -2
288
     1
 68
     0
279
    -2
289
     1
 69
     0
  7
STANDARD
140
0.18
170
     5
 62
     0
 63
     7
283
     0
274
    -2
284
     1
 64
     0
275
    -2
285
     1
 65
     0
276
    -2
286
     1
 66
     0
277
    -2
287
     1
 67
     0
278
    -2
288
     1
 68
     0
279
    -2
289
     1
 69
     0
  0
VISUALSTYLE
  5
29E8
102
{ACAD_REACTORS
330
29E2
102
}
330
29E2
100
AcDbVisualStyle
  2
2dWireframe
 70
     4
 71
     0
 72
     2
 73
     0
 90
        0
 40
-0.6
 41
-30.0
 62
     5
 63
     7
 74
     1
 91
        4
 64
     7
 65
   257
 75
     1
175
     1
 42
1.0
 92
        0
 66
   257
 43
1.0
 76
     1
 77
     6
 78
     2
 67
     7
 79
     5
170
     0
171
     0
290
     0
174
     0
 93
        1
 44
0.0
173
     0
291
     0
 45
0.0
1001
ACAD
1000
AcDbSavedByObjectVersion
1070
     0
  0
VISUALSTYLE
  5
29EA
102
{ACAD_REACTORS
330
29E2
102
}
330
29E2
100
AcDbVisualStyle
  2
3D Hidden
 70
     6
 71
     1
 72
     2
 73
     2
 90
        0
 40
-0.6
 41
-30.0
 62
     5
 63
     7
 74
     2
 91
        2
 64
     7
 65
   257
 75
     2
175
     1
 42
40.0
 92
        0
 66
   257
 43
1.0
 76
     1
 77
     6
 78
     2
 67
     7
 79
     3
170
     0
171
     0
290
     0
174
     0
 93
        1
 44
0.0
173
     0
291
     0
 45
0.0
1001
ACAD
1000
AcDbSavedByObjectVersion
1070
     0
  0
VISUALSTYLE
  5
29E9
102
{ACAD_REACTORS
330
29E2
102
}
330
29E2
100
AcDbVisualStyle
  2
3dWireframe
 70
     5
 71
     0
 72
     2
 73
     0
 90
        0
 40
-0.6
 41
-30.0
 62
     5
 63
     7
 74
     1
 91
        4
 64
     7
 65
   257
 75
     1
175
     1
 42
1.0
 92
        0
 66
   257
 43
1.0
 76
     1
 77
     6
 78
     2
 67
     7
 79
     5
170
     0
171
     0
290
     0
174
     0
 93
        1
 44
0.0
173
     0
291
     0
 45
0.0
1001
ACAD
1000
AcDbSavedByObjectVersion
1070
     0
  0
VISUALSTYLE
  5
29E7
102
{ACAD_REACTORS
330
29E2
102
}
330
29E2
100
AcDbVisualStyle
  2
Basic
 70
     7
 71
     1
 72
     0
 73
     1
 90
        0
 40
-0.6
 41
-30.0
 62
     5
 63
     7
 74
     0
 91
        4
 64
     7
 65
   257
 75
     1
175
     1
 42
1.0
 92
        8
 66
     7
 43
1.0
 76
     1
 77
     6
 78
     2
 67
     7
 79
     5
170
     0
171
     0
290
     0
174
     0
 93
        1
 44
0.0
173
     0
291
     1
 45
0.0
1001
ACAD
1000
AcDbSavedByObjectVersion
1070
     0
  0
VISUALSTYLE
  5
29EE
102
{ACAD_REACTORS
330
29E2
102
}
330
29E2
100
AcDbVisualStyle
  2
Brighten
 70
    12
 71
     2
 72
     2
 73
     0
 90
        0
 40
-0.6
 41
-30.0
 62
     5
 63
     7
 74
     1
 91
        4
 64
     7
 65
   257
 75
     1
175
     1
 42
1.0
 92
        8
 66
     7
 43
1.0
 76
     1
 77
     6
 78
     2
 67
     7
 79
     5
170
     0
171
     0
290
     0
174
     0
 93
        1
 44
50.0
173
     0
291
     1
 45
0.0
1001
ACAD
1000
AcDbSavedByObjectVersion
1070
     0
  0
VISUALSTYLE
  5
29F2
102
{ACAD_REACTORS
330
29E2
102
}
330
29E2
100
AcDbVisualStyle
  2
ColorChange
 70
    16
 71
     2
 72
     2
 73
     3
 90
        0
 40
-0.6
 41
-30.0
 62
     5
 63
     8
 74
     1
 91
        4
 64
     7
 65
   257
 75
     1
175
     1
 42
1.0
 92
        8
 66
     8
 43
1.0
 76
     1
 77
     6
 78
     2
 67
     7
 79
     5
170
     0
171
     0
290
     0
174
     0
 93
        1
 44
0.0
173
     0
291
     1
 45
0.0
1001
ACAD
1000
AcDbSavedByObjectVersion
1070
     0
  0
VISUALSTYLE
  5
29EB
102
{ACAD_REACTORS
330
29E2
102
}
330
29E2
100
AcDbVisualStyle
  2
Conceptual
 70
     9
 71
     3
 72
     2
 73
     0
 90
        0
 40
-0.6
 41
-30.0
 62
     5
 63
     7
 74
     2
 91
        2
 64
     7
 65
   257
 75
     1
175
     1
 42
40.0
 92
        8
 66
     7
 43
1.0
 76
     1
 77
     6
 78
     2
 67
     7
 79
     3
170
     0
171
     0
290
     0
174
     0
 93
        1
 44
0.0
173
     0
291
     0
 45
0.0
1001
ACAD
1000
AcDbSavedByObjectVersion
1070
     0
  0
VISUALSTYLE
  5
29ED
102
{ACAD_REACTORS
330
29E2
102
}
330
29E2
100
AcDbVisualStyle
  2
Dim
 70
    11
 71
     2
 72
     2
 73
     0
 90
        0
 40
-0.6
 41
-30.0
 62
     5
 63
     7
 74
     1
 91
        4
 64
     7
 65
   257
 75
     1
175
     1
 42
1.0
 92
        8
 66
     7
 43
1.0
 76
     1
 77
     6
 78
     2
 67
     7
 79
     5
170
     0
171
     0
290
     0
174
     0
 93
        1
 44
-50.0
173
     0
291
     1
 45
0.0
1001
ACAD
1000
AcDbSavedByObjectVersion
1070
     0
  0
VISUALSTYLE
  5
29F1
102
{ACAD_REACTORS
330
29E2
102
}
330
29E2
100
AcDbVisualStyle
  2
Facepattern
 70
    15
 71
     2
 72
     2
 73
     0
 90
        0
 40
-0.6
 41
-30.0
 62
     5
 63
     7
 74
     1
 91
        4
 64
     7
 65
   257
 75
     1
175
     1
 42
1.0
 92
        8
 66
     7
 43
1.0
 76
     1
 77
     6
 78
     2
 67
     7
 79
     5
170
     0
171
     0
290
     0
174
     0
 93
        1
 44
0.0
173
     0
291
     1
 45
0.0
1001
ACAD
1000
AcDbSavedByObjectVersion
1070
     0
  0
VISUALSTYLE
  5
29E3
102
{ACAD_REACTORS
330
29E2
102
}
330
29E2
100
AcDbVisualStyle
  2
Flat
 70
     0
 71
     2
 72
     1
 73
     1
 90
        2
 40
-0.6
 41
30.0
 62
     5
 63
     7
 74
     0
 91
        4
 64
     7
 65
   257
 75
     1
175
     1
 42
1.0
 92
        8
 66
     7
 43
1.0
 76
     1
 77
     6
 78
     2
 67
     7
 79
     5
170
     0
171
     0
290
     0
174
     0
 93
       13
 44
0.0
173
     0
291
     1
 45
0.0
1001
ACAD
1000
AcDbSavedByObjectVersion
1070
     0
  0
VISUALSTYLE
  5
29E4
102
{ACAD_REACTORS
330
29E2
102
}
330
29E2
100
AcDbVisualStyle
  2
FlatWithEdges
 70
     1
 71
     2
 72
     1
 73
     1
 90
        2
 40
-0.6
 41
30.0
 62
     5
 63
     7
 74
     1
 91
        4
 64
     7
 65
   257
 75
     1
175
     1
 42
1.0
 92
        0
 66
   257
 43
1.0
 76
     1
 77
     6
 78
     2
 67
     7
 79
     5
170
     0
171
     0
290
     0
174
     0
 93
       13
 44
0.0
173
     0
291
     1
 45
0.0
1001
ACAD
1000
AcDbSavedByObjectVersion
1070
     0
  0
VISUALSTYLE
  5
29E5
102
{ACAD_REACTORS
330
29E2
102
}
330
29E2
100
AcDbVisualStyle
  2
Gouraud
 70
     2
 71
     2
 72
     2
 73
     1
 90
        2
 40
-0.6
 41
30.0
 62
     5
 63
     7
 74
     0
 91
        4
 64
     7
 65
   257
 75
     1
175
     1
 42
1.0
 92
        0
 66
     7
 43
1.0
 76
     1
 77
     6
 78
     2
 67
     7
 79
     5
170
     0
171
     0
290
     0
174
     0
 93
       13
 44
0.0
173
     0
291
     1
 45
0.0
1001
ACAD
1000
AcDbSavedByObjectVersion
1070
     0
  0
VISUALSTYLE
  5
29E6
102
{ACAD_REACTORS
330
29E2
102
}
330
29E2
100
AcDbVisualStyle
  2
GouraudWithEdges
 70
     3
 71
     2
 72
     2
 73
     1
 90
        2
 40
-0.6
 41
30.0
 62
     5
 63
     7
 74
     1
 91
        4
 64
     7
 65
   257
 75
     1
175
     1
 42
1.0
 92
        0
 66
   257
 43
1.0
 76
     1
 77
     6
 78
     2
 67
     7
 79
     5
170
     0
171
     0
290
     0
174
     0
 93
       13
 44
0.0
173
     0
291
     1
 45
0.0
1001
ACAD
1000
AcDbSavedByObjectVersion
1070
     0
  0
VISUALSTYLE
  5
29F0
102
{ACAD_REACTORS
330
29E2
102
}
330
29E2
100
AcDbVisualStyle
  2
Linepattern
 70
    14
 71
     2
 72
     2
 73
     0
 90
        0
 40
-0.6
 41
-30.0
 62
     5
 63
     7
 74
     1
 91
        4
 64
     7
 65
   257
 75
     7
175
     7
 42
1.0
 92
        8
 66
     7
 43
1.0
 76
     1
 77
     6
 78
     2
 67
     7
 79
     5
170
     0
171
     0
290
     0
174
     0
 93
        1
 44
0.0
173
     0
291
     1
 45
0.0
1001
ACAD
1000
AcDbSavedByObjectVersion
1070
     0
  0
VISUALSTYLE
  5
29EC
102
{ACAD_REACTORS
330
29E2
102
}
330
29E2
100
AcDbVisualStyle
  2
Realistic
 70
     8
 71
     2
 72
     2
 73
     0
 90
        0
 40
-0.6
 41
-30.0
 62
     5
 63
     7
 74
     1
 91
        0
 64
     7
 65
   257
 75
     1
175
     1
 42
1.0
 92
        8
 66
     8
 43
1.0
 76
     1
 77
     6
 78
     2
 67
     7
 79
     5
170
     0
171
     0
290
     0
174
     0
 93
       13
 44
0.0
173
     0
291
     0
 45
0.0
1001
ACAD
1000
AcDbSavedByObjectVersion
1070
     0
  0
VISUALSTYLE
  5
29EF
102
{ACAD_REACTORS
330
29E2
102
}
330
29E2
100
AcDbVisualStyle
  2
Thicken
 70
    13
 71
     2
 72
     2
 73
     0
 90
        0
 40
-0.6
 41
-30.0
 62
     5
 63
     7
 74
     1
 91
        4
 64
     7
 65
   257
 75
     1
175
     1
 42
1.0
 92
       12
 66
     7
 43
1.0
 76
     1
 77
     6
 78
     2
 67
     7
 79
     5
170
     0
171
     0
290
     0
174
     0
 93
        1
 44
0.0
173
     0
291
     1
 45
0.0
1001
ACAD
1000
AcDbSavedByObjectVersion
1070
     0
  0
DICTIONARYVAR
  5
2BA8
102
{ACAD_REACTORS
330
2BA5
102
}
330
2BA5
100
DictionaryVariables
280
     0
  1
1:1
  0
DICTIONARYVAR
  5
2BA7
102
{ACAD_REACTORS
330
2BA5
102
}
330
2BA5
100
DictionaryVariables
280
     0
  1
STANDARD
  0
DICTIONARYVAR
  5
2BA6
102
{ACAD_REACTORS
330
2BA5
102
}
330
2BA5
100
DictionaryVariables
280
     0
  1
STANDARD
  0
DICTIONARYVAR
  5
2BAB
102
{ACAD_REACTORS
330
2BA5
102
}
330
2BA5
100
DictionaryVariables
280
     0
  1
1
  0
DICTIONARYVAR
  5
2BAA
102
{ACAD_REACTORS
330
2BA5
102
}
330
2BA5
100
DictionaryVariables
280
     0
  1
1
  0
DICTIONARYVAR
  5
3102
102
{ACAD_REACTORS
330
2BA5
102
}
330
2BA5
100
DictionaryVariables
280
     0
  1
1
  0
DICTIONARYVAR
  5
3103
102
{ACAD_REACTORS
330
2BA5
102
}
330
2BA5
100
DictionaryVariables
280
     0
  1
15
  0
DICTIONARYVAR
  5
3101
102
{ACAD_REACTORS
330
2BA5
102
}
330
2BA5
100
DictionaryVariables
280
     0
  1
0
  0
DICTIONARYVAR
  5
3100
102
{ACAD_REACTORS
330
2BA5
102
}
330
2BA5
100
DictionaryVariables
280
     0
  1
0
  0
DICTIONARYVAR
  5
2BA9
102
{ACAD_REACTORS
330
2BA5
102
}
330
2BA5
100
DictionaryVariables
280
     0
  1
127
  0
DICTIONARY
  5
2B66
102
{ACAD_REACTORS
330
2B58
102
}
330
2B58
100
AcDbDictionary
281
     1
  0
DICTIONARY
  5
2AA6
102
{ACAD_REACTORS
330
2AA5
102
}
330
2AA5
100
AcDbDictionary
281
     1
  3
DWGSETTINGS
350
2BCA
  3
TRANSSETTINGS
350
2BCB
  0
ACAMGFILTERDAT
  5
2CA4
102
{ACAD_REACTORS
330
2C9F
102
}
330
2C9F
100
AcAmgFilterDat
 70
    15
  1
DIMENSION,AMDT_*_DIM
  2
*
  3
*
  4
*
  5
*
290
     1
  0
ACAMGFILTERDAT
  5
2CA3
102
{ACAD_REACTORS
330
2C9F
102
}
330
2C9F
100
AcAmgFilterDat
 70
    15
  1
*
  2
AM_FEA-AM_*
  3
*
  4
*
  5
*
290
     1
  0
ACAMGFILTERDAT
  5
2CA0
102
{ACAD_REACTORS
330
2C9F
102
}
330
2C9F
100
AcAmgFilterDat
 70
    15
  1
HATCH
  2
*
  3
*
  4
*
  5
*
290
     1
  0
ACAMGFILTERDAT
  5
2CA1
102
{ACAD_REACTORS
330
2C9F
102
}
330
2C9F
100
AcAmgFilterDat
 70
    15
  1
LINE
  2
8,8N,*-8,*-8N,AM_8,AM_8N,*-AM_8,*-AM_8N
  3
*
  4
*
  5
INSERT,STDPART2D
290
     1
  0
ACAMGFILTERDAT
  5
2CA5
102
{ACAD_REACTORS
330
2C9F
102
}
330
2C9F
100
AcAmgFilterDat
 70
    15
  1
ARC
  2
AM_5
  3
*
  4
2
  5
INSERT
290
     0
  0
ACAMGFILTERDAT
  5
2CA2
102
{ACAD_REACTORS
330
2C9F
102
}
330
2C9F
100
AcAmgFilterDat
 70
    15
  1
ACMFCFRAME,ACMDATUMTARGET,ACMDATUMID,ACMWELDSYM,ACMSURFSYM,ACMFEATID,ACMPARTREF,ACMBALLOON,AMDTEDGESYM,AMGSCREWCALCTABLE,ACMMARKSTAMP
  2
*
  3
*
  4
*
  5
*
290
     1
  0
LAYER_INDEX
  5
2B98
102
{ACAD_REACTORS
330
2B97
102
}
330
2B97
100
AcDbIndex
 40
2458467.710779931
100
AcDbLayerIndex
  8
0
360
2B99
 90
        1
  8
OUTLINE
360
2B9A
 90
      145
  8
SIZE
360
2B9B
 90
        5
  8
BASIS
360
2B9C
 90
        2
  8
DETAIL
360
2B9D
 90
        0
  8
ARRANGE
360
2B9E
 90
        2
  8
DEFPOINTS
360
2B9F
 90
        0
  8
ETC
360
2BA0
 90
        3
  8
FIX
360
2BA1
 90
        0
  8
NOTE
360
2BA2
 90
        9
  8
SERVICESPACE
360
2BA3
 90
        0
  8
SYMBOLLINE
360
2BA4
 90
        0
  8
AM_VIS
360
30F5
 90
        0
  8
AM_7
360
30F6
 90
        0
  8
1
360
30F7
 90
        0
  0
DICTIONARY
  5
29D3
330
29D2
100
AcDbDictionary
280
     1
281
     1
  3
ACAD_XREC_ROUNDTRIP
360
2BB6
  3
BUMPTILE
360
29D5
  3
DIFFUSETILE
360
29D4
  3
OPACITYTILE
360
29D8
  3
REFLECTIONTILE
360
29D7
  3
REFRACTIONTILE
360
29D9
  3
SPECULARTILE
360
29D6
  0
DICTIONARY
  5
29CB
330
29CA
100
AcDbDictionary
280
     1
281
     1
  3
ACAD_XREC_ROUNDTRIP
360
2BB5
  3
BUMPTILE
360
29CD
  3
DIFFUSETILE
360
29CC
  3
OPACITYTILE
360
29D0
  3
REFLECTIONTILE
360
29CF
  3
REFRACTIONTILE
360
29D1
  3
SPECULARTILE
360
29CE
  0
DICTIONARY
  5
29DB
330
29DA
100
AcDbDictionary
280
     1
281
     1
  3
ACAD_XREC_ROUNDTRIP
360
2BB7
  3
BUMPTILE
360
29DD
  3
DIFFUSETILE
360
29DC
  3
OPACITYTILE
360
29E0
  3
REFLECTIONTILE
360
29DF
  3
REFRACTIONTILE
360
29E1
  3
SPECULARTILE
360
29DE
  0
DICTIONARY
  5
2BAC
330
2A25
100
AcDbDictionary
280
     1
281
     1
  3
ACAD_ROUNDTRIP_2008_TABLESTYLE_CELLSTYLEMAP
360
3198
  3
ACAD_XREC_ROUNDTRIP
360
319E
  0
IDBUFFER
  5
2B99
330
0
100
AcDbIdBuffer
330
2FEC
  0
IDBUFFER
  5
2B9A
330
0
100
AcDbIdBuffer
330
953
330
954
330
955
330
956
330
957
330
958
330
2E5C
330
2E5D
330
2E5E
330
2E5F
330
2E60
330
2E61
330
2E62
330
2E63
330
2E64
330
2E65
330
2E66
330
2E67
330
2E68
330
2E69
330
2E6A
330
2E6B
330
2E6C
330
2E6D
330
2E6E
330
2E6F
330
2E70
330
2E71
330
2E72
330
2E7B
330
2E7C
330
2E7D
330
2E7E
330
2E7F
330
2E80
330
2E81
330
2E82
330
2E83
330
2E84
330
2E85
330
2E86
330
2E87
330
2E88
330
2E89
330
2E8A
330
2E8B
330
2E8C
330
2E8D
330
2E8E
330
2E8F
330
2E90
330
2E91
330
2E92
330
2E93
330
2E94
330
2E95
330
2E96
330
2E97
330
2E98
330
2E99
330
2E9A
330
2E9B
330
2E9C
330
2E9D
330
2E9E
330
2E9F
330
2EA0
330
2EA3
330
2EA4
330
2EA5
330
2EA6
330
2EA7
330
2EA8
330
2EA9
330
2EAA
330
2EAB
330
2EAC
330
2EAD
330
2EAE
330
2EAF
330
2EB0
330
2EB1
330
2EB2
330
2EB3
330
2EB4
330
2EB5
330
2EB6
330
2EB7
330
2EB8
330
2EB9
330
2EBA
330
2EBB
330
2EC0
330
2EC1
330
2EC2
330
2EC3
330
2EC4
330
2EC5
330
2EC6
330
2EC7
330
2EC8
330
2EC9
330
2ECA
330
2ECB
330
2ECC
330
2ECD
330
2ECE
330
2ECF
330
2ED0
330
2ED1
330
2ED2
330
2ED3
330
2EDC
330
2EDD
330
2EDE
330
2EDF
330
2EE0
330
2EE1
330
2EE2
330
2EE3
330
2EE4
330
2EE5
330
2EE6
330
2EE7
330
2EE8
330
2EED
330
2EEE
330
2EEF
330
2EF0
330
2EF1
330
2EF2
330
2EF3
330
2EF4
330
2EF5
330
2EF6
330
2EF7
330
2EF8
330
2EF9
330
2EFA
330
2EFB
330
2EFC
330
2EFD
330
2EFE
330
2EFF
330
2F00
  0
IDBUFFER
  5
2B9B
330
0
100
AcDbIdBuffer
330
2FFE
330
300B
330
3018
330
3025
330
3032
  0
IDBUFFER
  5
2B9C
330
0
100
AcDbIdBuffer
330
2FF4
330
2FF7
  0
IDBUFFER
  5
2B9D
330
0
100
AcDbIdBuffer
  0
IDBUFFER
  5
2B9E
330
0
100
AcDbIdBuffer
330
290F
330
2FF6
  0
IDBUFFER
  5
2B9F
330
0
100
AcDbIdBuffer
  0
IDBUFFER
  5
2BA0
330
0
100
AcDbIdBuffer
330
290C
330
290D
330
2934
  0
IDBUFFER
  5
2BA1
330
0
100
AcDbIdBuffer
  0
IDBUFFER
  5
2BA2
330
0
100
AcDbIdBuffer
330
2FEA
330
2FEB
330
2FED
330
2FEE
330
2FEF
330
2FF0
330
2FF1
330
2FF2
330
2FF3
  0
IDBUFFER
  5
2BA3
330
0
100
AcDbIdBuffer
  0
IDBUFFER
  5
2BA4
330
0
100
AcDbIdBuffer
  0
IDBUFFER
  5
30F5
330
0
100
AcDbIdBuffer
  0
IDBUFFER
  5
30F6
330
0
100
AcDbIdBuffer
  0
IDBUFFER
  5
30F7
330
0
100
AcDbIdBuffer
  0
XRECORD
  5
2BB6
102
{ACAD_REACTORS
330
29D3
102
}
330
29D3
100
AcDbXrecord
280
     1
102
MATERIAL
148
0.0
149
0.0
149
0.0
 93
        0
 94
      127
282
     0
 72
     0
 77
     0
171
     0
175
     0
179
     0
273
     0
  0
XRECORD
  5
29D5
102
{ACAD_REACTORS
330
29D3
102
}
330
29D3
100
AcDbXrecord
280
     1
270
     1
271
     1
  0
XRECORD
  5
29D4
102
{ACAD_REACTORS
330
29D3
102
}
330
29D3
100
AcDbXrecord
280
     1
270
     1
271
     1
  0
XRECORD
  5
29D8
102
{ACAD_REACTORS
330
29D3
102
}
330
29D3
100
AcDbXrecord
280
     1
270
     1
271
     1
  0
XRECORD
  5
29D7
102
{ACAD_REACTORS
330
29D3
102
}
330
29D3
100
AcDbXrecord
280
     1
270
     1
271
     1
  0
XRECORD
  5
29D9
102
{ACAD_REACTORS
330
29D3
102
}
330
29D3
100
AcDbXrecord
280
     1
270
     1
271
     1
  0
XRECORD
  5
29D6
102
{ACAD_REACTORS
330
29D3
102
}
330
29D3
100
AcDbXrecord
280
     1
270
     1
271
     1
  0
XRECORD
  5
2BB5
102
{ACAD_REACTORS
330
29CB
102
}
330
29CB
100
AcDbXrecord
280
     1
102
MATERIAL
148
0.0
149
0.0
149
0.0
 93
        0
 94
      127
282
     0
 72
     0
 77
     0
171
     0
175
     0
179
     0
273
     0
  0
XRECORD
  5
29CD
102
{ACAD_REACTORS
330
29CB
102
}
330
29CB
100
AcDbXrecord
280
     1
270
     1
271
     1
  0
XRECORD
  5
29CC
102
{ACAD_REACTORS
330
29CB
102
}
330
29CB
100
AcDbXrecord
280
     1
270
     1
271
     1
  0
XRECORD
  5
29D0
102
{ACAD_REACTORS
330
29CB
102
}
330
29CB
100
AcDbXrecord
280
     1
270
     1
271
     1
  0
XRECORD
  5
29CF
102
{ACAD_REACTORS
330
29CB
102
}
330
29CB
100
AcDbXrecord
280
     1
270
     1
271
     1
  0
XRECORD
  5
29D1
102
{ACAD_REACTORS
330
29CB
102
}
330
29CB
100
AcDbXrecord
280
     1
270
     1
271
     1
  0
XRECORD
  5
29CE
102
{ACAD_REACTORS
330
29CB
102
}
330
29CB
100
AcDbXrecord
280
     1
270
     1
271
     1
  0
XRECORD
  5
2BB7
102
{ACAD_REACTORS
330
29DB
102
}
330
29DB
100
AcDbXrecord
280
     1
102
MATERIAL
148
0.0
149
0.0
149
0.0
 93
        0
 94
      127
282
     0
 72
     0
 77
     0
171
     0
175
     0
179
     0
273
     0
  0
XRECORD
  5
29DD
102
{ACAD_REACTORS
330
29DB
102
}
330
29DB
100
AcDbXrecord
280
     1
270
     1
271
     1
  0
XRECORD
  5
29DC
102
{ACAD_REACTORS
330
29DB
102
}
330
29DB
100
AcDbXrecord
280
     1
270
     1
271
     1
  0
XRECORD
  5
29E0
102
{ACAD_REACTORS
330
29DB
102
}
330
29DB
100
AcDbXrecord
280
     1
270
     1
271
     1
  0
XRECORD
  5
29DF
102
{ACAD_REACTORS
330
29DB
102
}
330
29DB
100
AcDbXrecord
280
     1
270
     1
271
     1
  0
XRECORD
  5
29E1
102
{ACAD_REACTORS
330
29DB
102
}
330
29DB
100
AcDbXrecord
280
     1
270
     1
271
     1
  0
XRECORD
  5
29DE
102
{ACAD_REACTORS
330
29DB
102
}
330
29DB
100
AcDbXrecord
280
     1
270
     1
271
     1
  0
CELLSTYLEMAP
  5
3198
102
{ACAD_REACTORS
330
2BAC
102
}
330
2BAC
100
AcDbCellStyleMap
 90
        3
300
CELLSTYLE
  1
TABLEFORMAT_BEGIN
 90
        5
170
     1
 91
        0
 92
    32768
 62
   257
 93
        1
300
CONTENTFORMAT
  1
CONTENTFORMAT_BEGIN
 90
        0
 91
        0
 92
      512
 93
        0
300

 40
0.0
140
1.0
 94
        5
 62
     0
340
2A16
144
0.25
309
CONTENTFORMAT_END
171
     1
301
MARGIN
  1
CELLMARGIN_BEGIN
 40
0.06
 40
0.06
 40
0.06
 40
0.06
 40
0.18
 40
0.18
309
CELLMARGIN_END
 94
        6
 95
        1
302
GRIDFORMAT
  1
GRIDFORMAT_BEGIN
 90
        0
 91
        1
 62
     0
 92
       -2
340
0
 93
        0
 40
0.045
309
GRIDFORMAT_END
 95
        2
302
GRIDFORMAT
  1
GRIDFORMAT_BEGIN
 90
        0
 91
        1
 62
     0
 92
       -2
340
0
 93
        0
 40
0.045
309
GRIDFORMAT_END
 95
        4
302
GRIDFORMAT
  1
GRIDFORMAT_BEGIN
 90
        0
 91
        1
 62
     0
 92
       -2
340
0
 93
        0
 40
0.045
309
GRIDFORMAT_END
 95
        8
302
GRIDFORMAT
  1
GRIDFORMAT_BEGIN
 90
        0
 91
        1
 62
     0
 92
       -2
340
0
 93
        0
 40
0.045
309
GRIDFORMAT_END
 95
       16
302
GRIDFORMAT
  1
GRIDFORMAT_BEGIN
 90
        0
 91
        1
 62
     0
 92
       -2
340
0
 93
        0
 40
0.045
309
GRIDFORMAT_END
 95
       32
302
GRIDFORMAT
  1
GRIDFORMAT_BEGIN
 90
        0
 91
        1
 62
     0
 92
       -2
340
0
 93
        0
 40
0.045
309
GRIDFORMAT_END
309
TABLEFORMAT_END
  1
CELLSTYLE_BEGIN
 90
        1
 91
        1
300
_TITLE
309
CELLSTYLE_END
300
CELLSTYLE
  1
TABLEFORMAT_BEGIN
 90
        5
170
     1
 91
        0
 92
        0
 62
   257
 93
        1
300
CONTENTFORMAT
  1
CONTENTFORMAT_BEGIN
 90
        0
 91
        0
 92
      512
 93
        0
300

 40
0.0
140
1.0
 94
        5
 62
     0
340
2A16
144
0.18
309
CONTENTFORMAT_END
171
     1
301
MARGIN
  1
CELLMARGIN_BEGIN
 40
0.06
 40
0.06
 40
0.06
 40
0.06
 40
0.18
 40
0.18
309
CELLMARGIN_END
 94
        6
 95
        1
302
GRIDFORMAT
  1
GRIDFORMAT_BEGIN
 90
        0
 91
        1
 62
     0
 92
       -2
340
0
 93
        0
 40
0.045
309
GRIDFORMAT_END
 95
        2
302
GRIDFORMAT
  1
GRIDFORMAT_BEGIN
 90
        0
 91
        1
 62
     0
 92
       -2
340
0
 93
        0
 40
0.045
309
GRIDFORMAT_END
 95
        4
302
GRIDFORMAT
  1
GRIDFORMAT_BEGIN
 90
        0
 91
        1
 62
     0
 92
       -2
340
0
 93
        0
 40
0.045
309
GRIDFORMAT_END
 95
        8
302
GRIDFORMAT
  1
GRIDFORMAT_BEGIN
 90
        0
 91
        1
 62
     0
 92
       -2
340
0
 93
        0
 40
0.045
309
GRIDFORMAT_END
 95
       16
302
GRIDFORMAT
  1
GRIDFORMAT_BEGIN
 90
        0
 91
        1
 62
     0
 92
       -2
340
0
 93
        0
 40
0.045
309
GRIDFORMAT_END
 95
       32
302
GRIDFORMAT
  1
GRIDFORMAT_BEGIN
 90
        0
 91
        1
 62
     0
 92
       -2
340
0
 93
        0
 40
0.045
309
GRIDFORMAT_END
309
TABLEFORMAT_END
  1
CELLSTYLE_BEGIN
 90
        2
 91
        1
300
_HEADER
309
CELLSTYLE_END
300
CELLSTYLE
  1
TABLEFORMAT_BEGIN
 90
        5
170
     1
 91
        0
 92
        0
 62
   257
 93
        1
300
CONTENTFORMAT
  1
CONTENTFORMAT_BEGIN
 90
        0
 91
        0
 92
      512
 93
        0
300

 40
0.0
140
1.0
 94
        2
 62
     0
340
2A16
144
0.18
309
CONTENTFORMAT_END
171
     1
301
MARGIN
  1
CELLMARGIN_BEGIN
 40
0.06
 40
0.06
 40
0.06
 40
0.06
 40
0.18
 40
0.18
309
CELLMARGIN_END
 94
        6
 95
        1
302
GRIDFORMAT
  1
GRIDFORMAT_BEGIN
 90
        0
 91
        1
 62
     0
 92
       -2
340
0
 93
        0
 40
0.045
309
GRIDFORMAT_END
 95
        2
302
GRIDFORMAT
  1
GRIDFORMAT_BEGIN
 90
        0
 91
        1
 62
     0
 92
       -2
340
0
 93
        0
 40
0.045
309
GRIDFORMAT_END
 95
        4
302
GRIDFORMAT
  1
GRIDFORMAT_BEGIN
 90
        0
 91
        1
 62
     0
 92
       -2
340
0
 93
        0
 40
0.045
309
GRIDFORMAT_END
 95
        8
302
GRIDFORMAT
  1
GRIDFORMAT_BEGIN
 90
        0
 91
        1
 62
     0
 92
       -2
340
0
 93
        0
 40
0.045
309
GRIDFORMAT_END
 95
       16
302
GRIDFORMAT
  1
GRIDFORMAT_BEGIN
 90
        0
 91
        1
 62
     0
 92
       -2
340
0
 93
        0
 40
0.045
309
GRIDFORMAT_END
 95
       32
302
GRIDFORMAT
  1
GRIDFORMAT_BEGIN
 90
        0
 91
        1
 62
     0
 92
       -2
340
0
 93
        0
 40
0.045
309
GRIDFORMAT_END
309
TABLEFORMAT_END
  1
CELLSTYLE_BEGIN
 90
        3
 91
        2
300
_DATA
309
CELLSTYLE_END
  0
XRECORD
  5
319E
102
{ACAD_REACTORS
330
2BAC
102
}
330
2BAC
100
AcDbXrecord
280
     1
102
ACAD_ROUNDTRIP_PRE2007_TABLESTYLE
 90
      512
 91
        0
  1

 92
      512
 93
        0
  2

 94
      512
 95
        0
  3

  0
ENDSEC
  0
EOF
