  0
SECTION
  2
HEADER
  9
$ACADVER
  1
AC1018
  9
$ACADMAINTVER
 70
   104
  9
$DWGCODEPAGE
  3
ANSI_932
  9
$LASTSAVEDBY
  1
WM109WK
  9
$CUSTOMPROPERTYTAG
  1
AmdtFileType
  9
$CUSTOMPROPERTY
  1
84
  9
$INSBASE
 10
0.0
 20
0.0
 30
0.0
  9
$EXTMIN
 10
-961.494089736403
 20
-1142.388161198261
 30
-0.0015257624927045
  9
$EXTMAX
 10
5046.722886594485
 20
1257.745017903642
 30
50.00152599532333
  9
$LIMMIN
 10
-2970.0
 20
-2100.0
  9
$LIMMAX
 10
2970.0
 20
2100.0
  9
$ORTHOMODE
 70
     1
  9
$REGENMODE
 70
     0
  9
$FILLMODE
 70
     1
  9
$QTEXTMODE
 70
     0
  9
$MIRRTEXT
 70
     0
  9
$LTSCALE
 40
20.0
  9
$ATTMODE
 70
     1
  9
$TEXTSIZE
 40
64.0
  9
$TRACEWID
 40
0.05
  9
$TEXTSTYLE
  7
STANDARD
  9
$CLAYER
  8
SIZE
  9
$CELTYPE
  6
ByLayer
  9
$CECOLOR
 62
   256
  9
$CELTSCALE
 40
1.0
  9
$DISPSILH
 70
     0
  9
$DIMSCALE
 40
1.0
  9
$DIMASZ
 40
12.0
  9
$DIMEXO
 40
20.0
  9
$DIMDLI
 40
0.38
  9
$DIMRND
 40
0.0
  9
$DIMDLE
 40
0.0
  9
$DIMEXE
 40
20.0
  9
$DIMTP
 40
0.0
  9
$DIMTM
 40
0.0
  9
$DIMTXT
 40
64.0
  9
$DIMCEN
 40
0.0
  9
$DIMTSZ
 40
0.0
  9
$DIMTOL
 70
     0
  9
$DIMLIM
 70
     0
  9
$DIMTIH
 70
     1
  9
$DIMTOH
 70
     1
  9
$DIMSE1
 70
     0
  9
$DIMSE2
 70
     0
  9
$DIMTAD
 70
     1
  9
$DIMZIN
 70
     8
  9
$DIMBLK
  1
DOTBLANK
  9
$DIMASO
 70
     1
  9
$DIMSHO
 70
     0
  9
$DIMPOST
  1

  9
$DIMAPOST
  1

  9
$DIMALT
 70
     0
  9
$DIMALTD
 70
     2
  9
$DIMALTF
 40
25.4
  9
$DIMLFAC
 40
1.0
  9
$DIMTOFL
 70
     1
  9
$DIMTVP
 40
0.0
  9
$DIMTIX
 70
     0
  9
$DIMSOXD
 70
     0
  9
$DIMSAH
 70
     0
  9
$DIMBLK1
  1

  9
$DIMBLK2
  1

  9
$DIMSTYLE
  2
STANDARD
  9
$DIMCLRD
 70
     0
  9
$DIMCLRE
 70
     0
  9
$DIMCLRT
 70
     0
  9
$DIMTFAC
 40
1.0
  9
$DIMGAP
 40
10.0
  9
$DIMJUST
 70
     0
  9
$DIMSD1
 70
     0
  9
$DIMSD2
 70
     0
  9
$DIMTOLJ
 70
     1
  9
$DIMTZIN
 70
     7
  9
$DIMALTZ
 70
     7
  9
$DIMALTTZ
 70
     7
  9
$DIMUPT
 70
     0
  9
$DIMDEC
 70
     4
  9
$DIMTDEC
 70
     4
  9
$DIMALTU
 70
     2
  9
$DIMALTTD
 70
     2
  9
$DIMTXSTY
  7
STANDARD
  9
$DIMAUNIT
 70
     1
  9
$DIMADEC
 70
     0
  9
$DIMALTRND
 40
0.0
  9
$DIMAZIN
 70
     0
  9
$DIMDSEP
 70
    46
  9
$DIMATFIT
 70
     3
  9
$DIMFRAC
 70
     0
  9
$DIMLDRBLK
  1

  9
$DIMLUNIT
 70
     2
  9
$DIMLWD
 70
    -2
  9
$DIMLWE
 70
    -2
  9
$DIMTMOVE
 70
     2
  9
$LUNITS
 70
     2
  9
$LUPREC
 70
     4
  9
$SKETCHINC
 40
0.1
  9
$FILLETRAD
 40
4.0
  9
$AUNITS
 70
     1
  9
$AUPREC
 70
     3
  9
$MENU
  1
ACAD
  9
$ELEVATION
 40
0.0
  9
$PELEVATION
 40
0.0
  9
$THICKNESS
 40
50.0
  9
$LIMCHECK
 70
     0
  9
$CHAMFERA
 40
0.0
  9
$CHAMFERB
 40
0.0
  9
$CHAMFERC
 40
0.0
  9
$CHAMFERD
 40
0.0
  9
$SKPOLY
 70
     0
  9
$TDCREATE
 40
2452321.396199653
  9
$TDUCREATE
 40
2452321.021199653
  9
$TDUPDATE
 40
2458467.709375856
  9
$TDUUPDATE
 40
2458467.334375857
  9
$TDINDWG
 40
1.0505885301
  9
$TDUSRTIMER
 40
1.0505831250
  9
$USRTIMER
 70
     1
  9
$ANGBASE
 50
0.0
  9
$ANGDIR
 70
     0
  9
$PDMODE
 70
     3
  9
$PDSIZE
 40
-2.0
  9
$PLINEWID
 40
0.0
  9
$SPLFRAME
 70
     0
  9
$SPLINETYPE
 70
     6
  9
$SPLINESEGS
 70
     8
  9
$HANDSEED
  5
35D2
  9
$SURFTAB1
 70
     6
  9
$SURFTAB2
 70
     6
  9
$SURFTYPE
 70
     6
  9
$SURFU
 70
     6
  9
$SURFV
 70
     6
  9
$UCSBASE
  2

  9
$UCSNAME
  2

  9
$UCSORG
 10
0.0
 20
0.0
 30
0.0
  9
$UCSXDIR
 10
1.0
 20
0.0
 30
0.0
  9
$UCSYDIR
 10
0.0
 20
1.0
 30
0.0
  9
$UCSORTHOREF
  2

  9
$UCSORTHOVIEW
 70
     0
  9
$UCSORGTOP
 10
0.0
 20
0.0
 30
0.0
  9
$UCSORGBOTTOM
 10
0.0
 20
0.0
 30
0.0
  9
$UCSORGLEFT
 10
0.0
 20
0.0
 30
0.0
  9
$UCSORGRIGHT
 10
0.0
 20
0.0
 30
0.0
  9
$UCSORGFRONT
 10
0.0
 20
0.0
 30
0.0
  9
$UCSORGBACK
 10
0.0
 20
0.0
 30
0.0
  9
$PUCSBASE
  2

  9
$PUCSNAME
  2

  9
$PUCSORG
 10
0.0
 20
0.0
 30
0.0
  9
$PUCSXDIR
 10
1.0
 20
0.0
 30
0.0
  9
$PUCSYDIR
 10
0.0
 20
1.0
 30
0.0
  9
$PUCSORTHOREF
  2

  9
$PUCSORTHOVIEW
 70
     0
  9
$PUCSORGTOP
 10
0.0
 20
0.0
 30
0.0
  9
$PUCSORGBOTTOM
 10
0.0
 20
0.0
 30
0.0
  9
$PUCSORGLEFT
 10
0.0
 20
0.0
 30
0.0
  9
$PUCSORGRIGHT
 10
0.0
 20
0.0
 30
0.0
  9
$PUCSORGFRONT
 10
0.0
 20
0.0
 30
0.0
  9
$PUCSORGBACK
 10
0.0
 20
0.0
 30
0.0
  9
$USERI1
 70
     0
  9
$USERI2
 70
     0
  9
$USERI3
 70
     0
  9
$USERI4
 70
     0
  9
$USERI5
 70
     0
  9
$USERR1
 40
20.0
  9
$USERR2
 40
0.0
  9
$USERR3
 40
0.0
  9
$USERR4
 40
0.0
  9
$USERR5
 40
0.0
  9
$WORLDVIEW
 70
     1
  9
$SHADEDGE
 70
     3
  9
$SHADEDIF
 70
    70
  9
$TILEMODE
 70
     1
  9
$MAXACTVP
 70
    64
  9
$PINSBASE
 10
0.0
 20
0.0
 30
0.0
  9
$PLIMCHECK
 70
     0
  9
$PEXTMIN
 10
1.000000000000000E+20
 20
1.000000000000000E+20
 30
1.000000000000000E+20
  9
$PEXTMAX
 10
-1.000000000000000E+20
 20
-1.000000000000000E+20
 30
-1.000000000000000E+20
  9
$PLIMMIN
 10
-0.2500002402958907
 20
-0.2499999962453767
  9
$PLIMMAX
 10
10.74999951940822
 20
8.249999763458733
  9
$UNITMODE
 70
     0
  9
$VISRETAIN
 70
     1
  9
$PLINEGEN
 70
     0
  9
$PSLTSCALE
 70
     1
  9
$TREEDEPTH
 70
  3020
  9
$CMLSTYLE
  2
Standard
  9
$CMLJUST
 70
     0
  9
$CMLSCALE
 40
1.0
  9
$PROXYGRAPHICS
 70
     1
  9
$MEASUREMENT
 70
     0
  9
$CELWEIGHT
370
    -1
  9
$ENDCAPS
280
     0
  9
$JOINSTYLE
280
     0
  9
$LWDISPLAY
290
     0
  9
$INSUNITS
 70
     0
  9
$HYPERLINKBASE
  1

  9
$STYLESHEET
  1

  9
$XEDIT
290
     1
  9
$CEPSNTYPE
380
     0
  9
$PSTYLEMODE
290
     1
  9
$FINGERPRINTGUID
  2
{F9332727-940B-4463-9BF2-3020EE0D055A}
  9
$VERSIONGUID
  2
{DF433113-2445-47BA-A40E-A89CE124E479}
  9
$EXTNAMES
290
     1
  9
$PSVPSCALE
 40
0.0
  9
$OLESTARTUP
290
     0
  9
$SORTENTS
280
   127
  9
$INDEXCTL
280
     1
  9
$HIDETEXT
280
     0
  9
$XCLIPFRAME
290
     0
  9
$HALOGAP
280
     0
  9
$OBSCOLOR
 70
   257
  9
$OBSLTYPE
280
     0
  9
$INTERSECTIONDISPLAY
280
     0
  9
$INTERSECTIONCOLOR
 70
   257
  9
$DIMASSOC
280
     1
  9
$PROJECTNAME
  1

  0
ENDSEC
  0
SECTION
  2
CLASSES
  0
CLASS
  1
ACDBDICTIONARYWDFLT
  2
AcDbDictionaryWithDefault
  3
ObjectDBX Classes
 90
        0
 91
        1
280
     0
281
     0
  0
CLASS
  1
MATERIAL
  2
AcDbMaterial
  3
ObjectDBX Classes
 90
     1153
 91
        3
280
     0
281
     0
  0
CLASS
  1
VISUALSTYLE
  2
AcDbVisualStyle
  3
ObjectDBX Classes
 90
     4095
 91
       16
280
     0
281
     0
  0
CLASS
  1
SCALE
  2
AcDbScale
  3
ObjectDBX Classes
 90
     1153
 91
       33
280
     0
281
     0
  0
CLASS
  1
TABLESTYLE
  2
AcDbTableStyle
  3
ObjectDBX Classes
 90
     4095
 91
        1
280
     0
281
     0
  0
CLASS
  1
MLEADERSTYLE
  2
AcDbMLeaderStyle
  3
ACDB_MLEADERSTYLE_CLASS
 90
     4095
 91
        1
280
     0
281
     0
  0
CLASS
  1
AMGSETTINGSOBJ
  2
AmgSettingsObj
  3
"AcadM|Product Description: AutoCAD Mechanical|Company: Autodesk, Inc."
 90
     1024
 91
        2
280
     0
281
     0
  0
CLASS
  1
ACME_DOCUMENT
  2
AcMeDbDoc
  3
AcMeServices
 90
     1024
 91
        1
280
     0
281
     0
  0
CLASS
  1
ACMESCOPE
  2
AcMeScope
  3
AcMeServices
 90
     1024
 91
        1
280
     0
281
     0
  0
CLASS
  1
ACMECOMMANDHISTORY
  2
AcMeCommandHistory
  3
AcMeServices
 90
     1024
 91
        1
280
     0
281
     0
  0
CLASS
  1
ACIMSYSVARMAN
  2
AcImSysVarManager
  3
AcMeServices
 90
     1024
 91
        6
280
     0
281
     0
  0
CLASS
  1
ACIMREALSYSVAR
  2
AcImRealSysVar
  3
AcMeServices
 90
     1024
 91
       16
280
     0
281
     0
  0
CLASS
  1
ACIMINTSYSVAR
  2
AcImIntSysVar
  3
AcMeServices
 90
     1024
 91
       45
280
     0
281
     0
  0
CLASS
  1
ACMEDRAWINGMAN
  2
AcMeDrawingMan
  3
AcMeServices
 90
     1024
 91
        1
280
     0
281
     0
  0
CLASS
  1
ACMEVIEW
  2
AcMeView
  3
AcMeServices
 90
     1024
 91
        1
280
     0
281
     0
  0
CLASS
  1
ACDBENTITYCACHE
  2
AcMeEntityCache
  3
AcMeServices
 90
     1024
 91
        1
280
     0
281
     0
  0
CLASS
  1
GSMANAGER
  2
AcMeGSManager
  3
AcMeServices
 90
     1024
 91
        1
280
     0
281
     0
  0
CLASS
  1
AMDTINTERNALREACTOR
  2
AmdtInternalReactor
  3
AcMeServices
 90
     1024
 91
        2
280
     0
281
     0
  0
CLASS
  1
ACMESTATEMGR
  2
AcMeStateMgr
  3
AcMeServices
 90
     1024
 91
        1
280
     0
281
     0
  0
CLASS
  1
ACGREFMASTER
  2
AcGrefMaster
  3
AcAttribServices
 90
     1024
 91
        1
280
     0
281
     0
  0
CLASS
  1
AM_DRAWING_MGR
  2
AcDmDwgMgr
  3
AcMechDwgViewMgmt
 90
     1024
 91
        1
280
     0
281
     0
  0
CLASS
  1
AM_DWG_DOCUMENT
  2
AcDmDwgDocument
  3
AcMechDwgViewMgmt
 90
     1024
 91
        1
280
     0
281
     0
  0
CLASS
  1
AM_DWG_SHEET
  2
AcDmSheet
  3
AcMechDwgViewMgmt
 90
     1024
 91
        1
280
     0
281
     0
  0
CLASS
  1
AM_VIEWDIMPARMAP
  2
AcDmViewDimParMap
  3
AcMechDwgViewMgmt
 90
     1024
 91
        1
280
     0
281
     0
  0
CLASS
  1
AM_DWGMGR_NAME
  2
AcDmDwgMgrName
  3
AcMechDwgViewMgmt
 90
     1024
 91
        1
280
     0
281
     0
  0
CLASS
  1
ACME_DATABASE
  2
AcMeDbDatabase
  3
AcMeServices
 90
     1024
 91
        2
280
     0
281
     0
  0
CLASS
  1
ACRFINSADJUSTERMGR
  2
AcRfInsAdjusterMgr
  3
AcMeServices
 90
     1024
 91
        1
280
     0
281
     0
  0
CLASS
  1
ACGREFACADMASTER
  2
AcGrefacadMaster
  3
AcGrefServices
 90
     1024
 91
        1
280
     0
281
     0
  0
CLASS
  1
AMDTMENUSTATEMGR
  2
AmdtMenuStateMgr
  3
McadcomServices
 90
     1024
 91
        1
280
     0
281
     0
  0
CLASS
  1
AMDTMCOMMENUSTATE
  2
AmdtMcomMenuState
  3
McadcomServices
 90
     1024
 91
        1
280
     0
281
     0
  0
CLASS
  1
AMIMASTER
  2
AmiMaster
  3
AmiServices
 90
     1024
 91
        1
280
     0
281
     0
  0
CLASS
  1
ASAPP
  2
AcAsAppObject
  3
AutoSurfServices
 90
     1024
 91
        1
280
     0
281
     0
  0
CLASS
  1
IM_STATIC_MAN
  2
AcImStaticVarManager
  3
AcMeServices
 90
     1024
 91
        1
280
     0
281
     0
  0
CLASS
  1
ACIMSTRSYSVAR
  2
AcImStrSysVar
  3
AcMeServices
 90
     1024
 91
       11
280
     0
281
     0
  0
CLASS
  1
ACIMDBLSTATICVAR
  2
AcImDblStaticVar
  3
AcMeServices
 90
     1024
 91
       20
280
     0
281
     0
  0
CLASS
  1
ACIMSTRSTATICVAR
  2
AcImStrStaticVar
  3
AcMeServices
 90
     1024
 91
       12
280
     0
281
     0
  0
CLASS
  1
ACIMINTSTATICVAR
  2
AcImIntStaticVar
  3
AcMeServices
 90
     1024
 91
       17
280
     0
281
     0
  0
CLASS
  1
ACASGREFMASTER
  2
AcAsGrefMaster
  3
AutoSurfResolverServices
 90
     1024
 91
        1
280
     0
281
     0
  0
CLASS
  1
ACADGREFMODULE
  2
AcAdGrefModule
  3
AdGrefServices
 90
     1024
 91
        1
280
     0
281
     0
  0
CLASS
  1
AMDTMAPISURFMOUDULE
  2
AmdtMApiSurfModule
  3
MApiSurfServices
 90
     1024
 91
        0
280
     0
281
     0
  0
CLASS
  1
MAPIAMMOUDLE
  2
MApiAmModule
  3
MApiAmServices
 90
     1024
 91
        1
280
     0
281
     0
  0
CLASS
  1
AMDTADMENUSTATE
  2
AmdtAdMenuState
  3
DesignerServices
 90
     1024
 91
        1
280
     0
281
     0
  0
CLASS
  1
ADAPPL
  2
AcAdAppl
  3
DesignerServices
 90
     1024
 91
        1
280
     0
281
     0
  0
CLASS
  1
DEPMGR
  2
AcAdDepMgr
  3
DesignerServices
 90
     1024
 91
        1
280
     0
281
     0
  0
CLASS
  1
PARAMMGR
  2
AcAdParamMgr
  3
DesignerServices
 90
     1024
 91
        1
280
     0
281
     0
  0
CLASS
  1
PARAMSCOPE
  2
AcAdParamScope
  3
DesignerServices
 90
     1024
 91
        1
280
     0
281
     0
  0
CLASS
  1
NAMEDAPPL
  2
AcAdNamedAppl
  3
DesignerServices
 90
     1024
 91
        1
280
     0
281
     0
  0
CLASS
  1
AMDTDMMENUSTATE
  2
AmdtDmMenuState
  3
AcMechDwgViewMgmt
 90
     1024
 91
        1
280
     0
281
     0
  0
CLASS
  1
MAPIADMODULE
  2
MApiAdModule
  3
MApiAdServices
 90
     1024
 91
        1
280
     0
281
     0
  0
CLASS
  1
AMDTAMMENUSTATE
  2
AmdtAmMenuState
  3
DesignerAssemblies
 90
     1024
 91
        1
280
     0
281
     0
  0
CLASS
  1
ACAMPROJECT
  2
AcAmProject
  3
DesignerAssemblies
 90
     1024
 91
        1
280
     0
281
     0
  0
CLASS
  1
ACAMGRCOMPDEF
  2
AcAmGrCompDef
  3
DesignerAssemblies
 90
     1024
 91
        1
280
     0
281
     0
  0
CLASS
  1
ACCMCONTEXT
  2
AcCmContext
  3
DesignerAssemblies
 90
     1024
 91
        1
280
     0
281
     0
  0
CLASS
  1
ACAMCOMPDEF
  2
AcAmCompDef
  3
DesignerAssemblies
 90
     1024
 91
        1
280
     0
281
     0
  0
CLASS
  1
ACAMCOMPDEFMGR
  2
AcAmCompDefMgr
  3
DesignerAssemblies
 90
     1024
 91
        1
280
     0
281
     0
  0
CLASS
  1
AMCONTEXTMGR
  2
AcAmContextMgr
  3
DesignerAssemblies
 90
     1024
 91
        1
280
     0
281
     0
  0
CLASS
  1
ACAMCONTEXTMODELER
  2
AcAmContextModeler
  3
DesignerAssemblies
 90
     1024
 91
        1
280
     0
281
     0
  0
CLASS
  1
ACMDATADICTIONARY
  2
AcmDataDictionary
  3
"AcmSymBB|Product Description: AutoCAD Mechanical|Company: Autodesk, Inc."
 90
     1024
 91
        1
280
     0
281
     0
  0
CLASS
  1
ACMDATAENTRYBLOCK
  2
AcmDataEntryBlock
  3
AcmSymBB|Product Description: AutoCAD Mechanical|Company: Autodesk, Inc.
 90
     1024
 91
        1
280
     0
281
     0
  0
CLASS
  1
ACRFATTGENMGR
  2
AcRfAttGeneralMgr
  3
AcAttribServices
 90
     1024
 91
        1
280
     0
281
     0
  0
CLASS
  1
ACRFOBJATTMGR
  2
AcRfObjAttGroupMgr
  3
AcAttribServices
 90
     1024
 91
        1
280
     0
281
     0
  0
CLASS
  1
ACRFMCADAPIATTHOLDER
  2
AcRfMCADAPIAttHolder
  3
AcAttribServices
 90
     1024
 91
        1
280
     0
281
     0
  0
CLASS
  1
AMDTSYSATTR
  2
AmdtSystemAttribute
  3
AcAttribServices
 90
     1024
 91
        1
280
     0
281
     0
  0
CLASS
  1
CATALOGSTATE
  2
AcAmCatalogState
  3
DesignerAssemblies
 90
     1024
 91
        1
280
     0
281
     0
  0
CLASS
  1
ACAMGRCOMPDEFSET
  2
AcAmGrCompDefSet
  3
DesignerAssemblies
 90
     1024
 91
        1
280
     0
281
     0
  0
CLASS
  1
AMDTBROWSERDBTAB
  2
AmdtBrowserDbTab
  3
McadcomServices
 90
     1024
 91
        1
280
     0
281
     0
  0
CLASS
  1
CBROWSERAPPOBJECT
  2
CBrowserAppObject
  3
McadcomServices
 90
     1024
 91
        3
280
     0
281
     0
  0
CLASS
  1
DM_PLACEHOLDER
  2
AcDmSelsetPlaceholder
  3
AcMechDwgViewMgmt
 90
     1024
 91
        1
280
     0
281
     0
  0
CLASS
  1
ACMSTANDARDANSI
  2
AcmStandardANSI
  3
"Amdt_StdImp|Product Description: AutoCAD Mechanical|Company: Autodesk, Inc."
 90
     1024
 91
        1
280
     0
281
     0
  0
CLASS
  1
ACMSURFSTANDARDANSI
  2
AcmSurfTextStdANSI
  3
"Amdt_StdImp|Product Description: AutoCAD Mechanical|Company: Autodesk, Inc."
 90
     1024
 91
        1
280
     0
281
     0
  0
CLASS
  1
ACMFCFSTANDARDANSI
  2
AcmFCFStdANSI
  3
"Amdt_StdImp|Product Description: AutoCAD Mechanical|Company: Autodesk, Inc."
 90
     1024
 91
        1
280
     0
281
     0
  0
CLASS
  1
ACMWELDSTANDARDANSI
  2
AcmWeldingStdANSI
  3
"Amdt_StdImp|Product Description: AutoCAD Mechanical|Company: Autodesk, Inc."
 90
     1024
 91
        1
280
     0
281
     0
  0
CLASS
  1
ACMIDSTANDARDANSI
  2
AcmIdStdANSI
  3
"Amdt_StdImp|Product Description: AutoCAD Mechanical|Company: Autodesk, Inc."
 90
     1024
 91
        1
280
     0
281
     0
  0
CLASS
  1
ACMDATUMSTANDARDANSI
  2
AcmDatumStdANSI
  3
"Amdt_StdImp|Product Description: AutoCAD Mechanical|Company: Autodesk, Inc."
 90
     1024
 91
        1
280
     0
281
     0
  0
CLASS
  1
ACMBOMSTANDARDANSI
  2
AcmBOMStdANSI
  3
"Amdt_StdImp|Product Description: AutoCAD Mechanical|Company: Autodesk, Inc."
 90
     1024
 91
        1
280
     0
281
     0
  0
CLASS
  1
ACMDETAILSTANDARDANSI
  2
AmdtDetailSymStdANSI
  3
"Amdt_StdImp|Product Description: AutoCAD Mechanical|Company: Autodesk, Inc."
 90
     1024
 91
        1
280
     0
281
     0
  0
CLASS
  1
ACMSECTIONSTANDARDANSI
  2
AmdtSectionSymStdANSI
  3
"Amdt_StdImp|Product Description: AutoCAD Mechanical|Company: Autodesk, Inc."
 90
     1024
 91
        1
280
     0
281
     0
  0
CLASS
  1
ACMCENTERLINESTANDARDANSI
  2
AmdtCenterLineStdANSI
  3
"Amdt_StdImp|Product Description: AutoCAD Mechanical|Company: Autodesk, Inc."
 90
     1024
 91
        1
280
     0
281
     0
  0
CLASS
  1
ACMTHREADLINESTANDARDANSI
  2
AmdtThreadLineStdANSI
  3
"Amdt_StdImp|Product Description: AutoCAD Mechanical|Company: Autodesk, Inc."
 90
     1024
 91
        1
280
     0
281
     0
  0
CLASS
  1
ACMNOTESTANDARDANSI
  2
AmdtNoteStdANSI
  3
"Amdt_StdImp|Product Description: AutoCAD Mechanical|Company: Autodesk, Inc."
 90
     1024
 91
        1
280
     0
281
     0
  0
CLASS
  1
ACMTAPERSTANDARDANSI
  2
AcmTaperStdANSI
  3
"Amdt_StdImp|Product Description: AutoCAD Mechanical|Company: Autodesk, Inc."
 90
     1024
 91
        1
280
     0
281
     0
  0
CLASS
  1
ACMANOOTATIONVIEWSTANDARDANSI
  2
AmdtAnViewStdANSI
  3
"Amdt_StdImp|Product Description: AutoCAD Mechanical|Company: Autodesk, Inc."
 90
     1024
 91
        1
280
     0
281
     0
  0
CLASS
  1
ACAMGLAYSTD
  2
AcAmgLayStd
  3
"AmgLay|Product Description: AutoCAD Mechanical|Company: Autodesk, Inc."
 90
     1024
 91
        2
280
     0
281
     0
  0
CLASS
  1
ACAMGDIMSTD
  2
AcAmgDimStd
  3
"AmgDim|Product Description: AutoCAD Mechanical|Company: Autodesk, Inc."
 90
     1024
 91
        2
280
     0
281
     0
  0
CLASS
  1
ACAMGHOLECHARTSTDANSI
  2
AcAmgHoleChartStdANSI
  3
AmgDim|Product Description: AutoCAD Mechanical|Company: Autodesk, Inc.
 90
     1024
 91
        1
280
     0
281
     0
  0
CLASS
  1
AMGOBJPROPCFG
  2
AmgObjPropCfg
  3
"AmgLay|Product Description: AutoCAD Mechanical|Company: Autodesk, Inc."
 90
     1025
 91
        1
280
     0
281
     0
  0
CLASS
  1
ACAMGTITLESTD
  2
AcAmgTitleStd
  3
"AmgTitle|Product Description: AutoCAD Mechanical|Company: Autodesk, Inc."
 90
     4095
 91
        2
280
     0
281
     0
  0
CLASS
  1
AMDTNOTETEMPLATEDB
  2
AmdtNoteTemplateDB
  3
AcmSymBB|Product Description: AutoCAD Mechanical|Company: Autodesk, Inc.
 90
     1024
 91
       12
280
     0
281
     0
  0
CLASS
  1
LAYER_INDEX
  2
AcDbLayerIndex
  3
ObjectDBX Classes
 90
        0
 91
        1
280
     0
281
     0
  0
CLASS
  1
IDBUFFER
  2
AcDbIdBuffer
  3
ObjectDBX Classes
 90
        0
 91
       16
280
     0
281
     0
  0
CLASS
  1
DICTIONARYVAR
  2
AcDbDictionaryVar
  3
ObjectDBX Classes
 90
        0
 91
       22
280
     0
281
     0
  0
CLASS
  1
CELLSTYLEMAP
  2
AcDbCellStyleMap
  3
ObjectDBX Classes
 90
     1152
 91
        6
280
     0
281
     0
  0
CLASS
  1
ACMSTANDARDISO
  2
AcmStandardISO
  3
"Amdt_StdImp|Product Description: AutoCAD Mechanical|Company: Autodesk, Inc."
 90
     1024
 91
        1
280
     0
281
     0
  0
CLASS
  1
AMDTEDGESTANDARDISO13715
  2
AmdtEdgeStdISO13715
  3
"Amdt_StdImp|Product Description: AutoCAD Mechanical|Company: Autodesk, Inc."
 90
     1024
 91
        1
280
     0
281
     0
  0
CLASS
  1
ACMSURFSTANDARDISO2002
  2
AcmSurfTextStdISO2002
  3
"Amdt_StdImp|Product Description: AutoCAD Mechanical|Company: Autodesk, Inc."
 90
     1024
 91
        1
280
     0
281
     0
  0
CLASS
  1
ACMFCFSTANDARDISO
  2
AcmFCFStdISO
  3
"Amdt_StdImp|Product Description: AutoCAD Mechanical|Company: Autodesk, Inc."
 90
     1024
 91
        1
280
     0
281
     0
  0
CLASS
  1
ACMWELDSTANDARDISO
  2
AcmWeldingStdISO
  3
"Amdt_StdImp|Product Description: AutoCAD Mechanical|Company: Autodesk, Inc."
 90
     1024
 91
        1
280
     0
281
     0
  0
CLASS
  1
ACMIDSTANDARDISO
  2
AcmIdStdISO
  3
"Amdt_StdImp|Product Description: AutoCAD Mechanical|Company: Autodesk, Inc."
 90
     1024
 91
        1
280
     0
281
     0
  0
CLASS
  1
ACMDATUMSTANDARDISO
  2
AcmDatumStdISO
  3
"Amdt_StdImp|Product Description: AutoCAD Mechanical|Company: Autodesk, Inc."
 90
     1024
 91
        1
280
     0
281
     0
  0
CLASS
  1
ACMBOMSTANDARDISO
  2
AcmBOMStdISO
  3
"Amdt_StdImp|Product Description: AutoCAD Mechanical|Company: Autodesk, Inc."
 90
     1024
 91
        1
280
     0
281
     0
  0
CLASS
  1
ACMDETAILSTANDARDISO
  2
AmdtDetailSymStdISO
  3
"Amdt_StdImp|Product Description: AutoCAD Mechanical|Company: Autodesk, Inc."
 90
     1024
 91
        1
280
     0
281
     0
  0
CLASS
  1
ACMSECTIONSTANDARDISO2001
  2
AmdtSectionSymStdISO2001
  3
"Amdt_StdImp|Product Description: AutoCAD Mechanical|Company: Autodesk, Inc."
 90
     1024
 91
        1
280
     0
281
     0
  0
CLASS
  1
ACMCENTERLINESTANDARDISO
  2
AmdtCenterLineStdISO
  3
"Amdt_StdImp|Product Description: AutoCAD Mechanical|Company: Autodesk, Inc."
 90
     1024
 91
        1
280
     0
281
     0
  0
CLASS
  1
ACMTHREADLINESTANDARDISO
  2
AmdtThreadLineStdISO
  3
"Amdt_StdImp|Product Description: AutoCAD Mechanical|Company: Autodesk, Inc."
 90
     1024
 91
        1
280
     0
281
     0
  0
CLASS
  1
ACMNOTESTANDARDISO
  2
AmdtNoteStdISO
  3
"Amdt_StdImp|Product Description: AutoCAD Mechanical|Company: Autodesk, Inc."
 90
     1024
 91
        1
280
     0
281
     0
  0
CLASS
  1
ACMTAPERSTANDARDISO
  2
AcmTaperStdISO
  3
"Amdt_StdImp|Product Description: AutoCAD Mechanical|Company: Autodesk, Inc."
 90
     1024
 91
        1
280
     0
281
     0
  0
CLASS
  1
ACMANOOTATIONVIEWSTANDARDISO
  2
AmdtAnViewStdISO
  3
"Amdt_StdImp|Product Description: AutoCAD Mechanical|Company: Autodesk, Inc."
 90
     1024
 91
        1
280
     0
281
     0
  0
CLASS
  1
ACAMGHOLECHARTSTDISO
  2
AcAmgHoleChartStdISO
  3
AmgDim|Product Description: AutoCAD Mechanical|Company: Autodesk, Inc.
 90
     1024
 91
        1
280
     0
281
     0
  0
CLASS
  1
ACAMGFILTERDAT
  2
AcAmgFilterDat
  3
"AcadM|Product Description: AutoCAD Mechanical|Company: Autodesk, Inc."
 90
     1024
 91
        6
280
     0
281
     0
  0
CLASS
  1
SORTENTSTABLE
  2
AcDbSortentsTable
  3
ObjectDBX Classes
 90
        0
 91
        1
280
     0
281
     0
  0
ENDSEC
  0
SECTION
  2
TABLES
  0
TABLE
  2
VPORT
  5
2AC7
330
0
100
AcDbSymbolTable
 70
     1
  0
VPORT
  5
2B37
330
2AC7
100
AcDbSymbolTableRecord
100
AcDbViewportTableRecord
  2
*ACTIVE
 70
     0
 10
0.0
 20
0.0
 11
1.0
 21
1.0
 12
-583.185519781764
 22
-59.72362528468465
 13
0.0
 23
0.0
 14
1.0
 24
1.0
 15
0.0
 25
0.0
 16
0.0
 26
0.0
 36
1.0
 17
518.7930089533142
 27
-260.9939480444818
 37
0.0
 40
1873.711583862169
 41
2.254523522316043
 42
50.0
 43
0.0
 44
0.0
 50
0.0
 51
0.0
 71
     0
 72
   100
 73
     1
 74
     0
 75
     0
 76
     0
 77
     0
 78
     0
281
     0
 65
     0
110
0.0
120
0.0
130
0.0
111
1.0
121
0.0
131
0.0
112
0.0
122
1.0
132
0.0
 79
     0
146
0.0
  0
ENDTAB
  0
TABLE
  2
LTYPE
  5
2AC4
330
0
100
AcDbSymbolTable
 70
    23
  0
LTYPE
  5
2B21
330
2AC4
100
AcDbSymbolTableRecord
100
AcDbLinetypeTableRecord
  2
ByBlock
 70
     0
  3

 72
    65
 73
     0
 40
0.0
  0
LTYPE
  5
2B22
330
2AC4
100
AcDbSymbolTableRecord
100
AcDbLinetypeTableRecord
  2
ByLayer
 70
     0
  3

 72
    65
 73
     0
 40
0.0
  0
LTYPE
  5
2B23
330
2AC4
100
AcDbSymbolTableRecord
100
AcDbLinetypeTableRecord
  2
CONTINUOUS
 70
     0
  3
実線
 72
    65
 73
     0
 40
0.0
  0
LTYPE
  5
2B38
330
2AC4
100
AcDbSymbolTableRecord
100
AcDbLinetypeTableRecord
  2
DASHDOT
 70
     0
  3
____ _ ____ _ ____ _ ____ _ ____ _ ____ _ ____
 72
    65
 73
     4
 40
5.5
 49
4.0
 74
     0
 49
-0.6
 74
     0
 49
0.3
 74
     0
 49
-0.6
 74
     0
  0
LTYPE
  5
2B39
330
2AC4
100
AcDbSymbolTableRecord
100
AcDbLinetypeTableRecord
  2
HIDDEN
 70
     0
  3
Hidden __ __ __ __ __ __ __ __ __ __ __ __ __ _
 72
    65
 73
     2
 40
0.375
 49
0.25
 74
     0
 49
-0.125
 74
     0
  0
LTYPE
  5
2B3A
330
2AC4
100
AcDbSymbolTableRecord
100
AcDbLinetypeTableRecord
  2
PHANTOM2
 70
     0
  3
Phantom (.5x) ___ _ _ ___ _ _ ___ _ _ ___ _ _
 72
    65
 73
     6
 40
1.25
 49
0.625
 74
     0
 49
-0.125
 74
     0
 49
0.125
 74
     0
 49
-0.125
 74
     0
 49
0.125
 74
     0
 49
-0.125
 74
     0
  0
LTYPE
  5
2B3B
330
2AC4
100
AcDbSymbolTableRecord
100
AcDbLinetypeTableRecord
  2
CENTER
 70
     0
  3
Center ____ _ ____ _ ____ _ ____ _ ____ _ ____
 72
    65
 73
     4
 40
2.0
 49
1.25
 74
     0
 49
-0.25
 74
     0
 49
0.25
 74
     0
 49
-0.25
 74
     0
  0
LTYPE
  5
2B3C
330
2AC4
100
AcDbSymbolTableRecord
100
AcDbLinetypeTableRecord
  2
ASULTYPE
 70
     0
  3
実線
 72
    65
 73
     2
 40
3.0
 49
2.5
 74
     0
 49
0.5
 74
     0
  0
LTYPE
  5
2B3D
330
2AC4
100
AcDbSymbolTableRecord
100
AcDbLinetypeTableRecord
  2
ASVLTYPE
 70
     0
  3
__ __ __ __ __ __ __ __ __ __ __ __ __ __ __ __ __ __ __ __ __
 72
    65
 73
     2
 40
0.75
 49
0.5
 74
     0
 49
-0.25
 74
     0
  0
LTYPE
  5
2B3E
330
2AC4
100
AcDbSymbolTableRecord
100
AcDbLinetypeTableRecord
  2
AM_ISO02W050
 70
     0
  3
__ __ __ __ __ __ __ __ __ __ __ __ __ __ __
 72
    65
 73
     2
 40
7.5
 49
6.0
 74
     0
 49
-1.5
 74
     0
  0
LTYPE
  5
2B3F
330
2AC4
100
AcDbSymbolTableRecord
100
AcDbLinetypeTableRecord
  2
AM_ISO08W050
 70
     0
  3
____ . ____ . ____ . ____ . ____ . ____ . ____
 72
    65
 73
     4
 40
18.0
 49
12.0
 74
     0
 49
-1.5
 74
     0
 49
3.0
 74
     0
 49
-1.5
 74
     0
  0
LTYPE
  5
2B40
330
2AC4
100
AcDbSymbolTableRecord
100
AcDbLinetypeTableRecord
  2
AM_ISO09W050
 70
     0
  3
_____ . . _____ . . _____ . . ____ .. ____
 72
    65
 73
     6
 40
22.5
 49
12.0
 74
     0
 49
-1.5
 74
     0
 49
3.0
 74
     0
 49
-1.5
 74
     0
 49
3.0
 74
     0
 49
-1.5
 74
     0
  0
LTYPE
  5
2B41
330
2AC4
100
AcDbSymbolTableRecord
100
AcDbLinetypeTableRecord
  2
AMCONSTR
 70
     0
  3
_______________________
 72
    65
 73
     2
 40
9999.0
 49
9999.0
 74
     0
 49
0.0
 74
     0
  0
LTYPE
  5
2B42
330
2AC4
100
AcDbSymbolTableRecord
100
AcDbLinetypeTableRecord
  2
AM_ISO08W050X2
 70
     0
  3
__ . __ . __ . __ . __ . __
 72
    65
 73
     4
 40
9.0
 49
6.0
 74
     0
 49
-0.75
 74
     0
 49
1.5
 74
     0
 49
-0.75
 74
     0
  0
LTYPE
  5
2B43
330
2AC4
100
AcDbSymbolTableRecord
100
AcDbLinetypeTableRecord
  2
AM_ISO02W050X2
 70
     0
  3
 _ _ _ _ _ _ _ _ _ _ _ _
 72
    65
 73
     2
 40
3.75
 49
3.0
 74
     0
 49
-0.75
 74
     0
  0
LTYPE
  5
2B44
330
2AC4
100
AcDbSymbolTableRecord
100
AcDbLinetypeTableRecord
  2
AMZIGZAG
 70
     0
  3
/\/-/\/-/\/-/\/-/\/-/\/
 72
    65
 73
     2
 40
11.0001
 49
0.0001
 74
     0
 49
-11.0
 74
     0
  0
LTYPE
  5
2B45
330
2AC4
100
AcDbSymbolTableRecord
100
AcDbLinetypeTableRecord
  2
CENTER2
 70
     0
  3
Center (.5x) ___ _ ___ _ ___ _ ___ _ ___ _ ___
 72
    65
 73
     4
 40
1.125
 49
0.75
 74
     0
 49
-0.125
 74
     0
 49
0.125
 74
     0
 49
-0.125
 74
     0
  0
LTYPE
  5
2B46
330
2AC4
100
AcDbSymbolTableRecord
100
AcDbLinetypeTableRecord
  2
HIDDEN2
 70
     0
  3
Hidden (.5x) _ _ _ _ _ _ _ _ _ _ _ _ _ _ _ _ _
 72
    65
 73
     2
 40
0.1875
 49
0.125
 74
     0
 49
-0.0625
 74
     0
  0
LTYPE
  5
2B47
330
2AC4
100
AcDbSymbolTableRecord
100
AcDbLinetypeTableRecord
  2
AMZIGZAG2
 70
     0
  3
/\/-/\/-/\/-/\/-/\/-/\/
 72
    65
 73
     2
 40
0.4401
 49
0.0001
 74
     0
 49
-0.4400000000000003
 74
     0
  0
LTYPE
  5
2B48
330
2AC4
100
AcDbSymbolTableRecord
100
AcDbLinetypeTableRecord
  2
ACANSTGB
 70
     0
  3
__ . . __ . .
 72
    65
 73
     6
 40
0.35433070866
 49
0.15748031496
 74
     0
 49
-0.03937007874
 74
     0
 49
0.03937007874
 74
     0
 49
-0.03937007874
 74
     0
 49
0.03937007874
 74
     0
 49
-0.03937007874
 74
     0
  0
LTYPE
  5
2B49
330
2AC4
100
AcDbSymbolTableRecord
100
AcDbLinetypeTableRecord
  2
ACANSTGL
 70
     0
  3
_ _ _ _ _
 72
    65
 73
     2
 40
0.11811023622
 49
0.07874015748
 74
     0
 49
-0.03937007874
 74
     0
  0
LTYPE
  5
2DC7
330
2AC4
100
AcDbSymbolTableRecord
100
AcDbLinetypeTableRecord
  2
ACISOWELD
 70
     0
  3
_ _ _ _ _
 72
    65
 73
     2
 40
2.0
 49
2.0
 74
     0
 49
-1.0
 74
     0
  0
LTYPE
  5
2DC8
330
2AC4
100
AcDbSymbolTableRecord
100
AcDbLinetypeTableRecord
  2
ACISOTGB
 70
     0
  3
__ . . __ . .
 72
    65
 73
     6
 40
9.0
 49
4.0
 74
     0
 49
-1.0
 74
     0
 49
1.0
 74
     0
 49
-1.0
 74
     0
 49
1.0
 74
     0
 49
-1.0
 74
     0
  0
LTYPE
  5
2DC9
330
2AC4
100
AcDbSymbolTableRecord
100
AcDbLinetypeTableRecord
  2
ACISOTGL
 70
     0
  3
_ _ _ _ _
 72
    65
 73
     2
 40
3.0
 49
2.0
 74
     0
 49
-1.0
 74
     0
  0
ENDTAB
  0
TABLE
  2
LAYER
  5
2AC1
102
{ACAD_XDICTIONARY
360
2DB6
102
}
330
0
100
AcDbSymbolTable
 70
    16
  0
LAYER
  5
2B1B
102
{ACAD_XDICTIONARY
360
2C8B
102
}
330
2AC1
100
AcDbSymbolTableRecord
100
AcDbLayerTableRecord
  2
0
 70
     0
 62
     7
  6
CONTINUOUS
370
    -3
390
2ACE
  0
LAYER
  5
2B4A
102
{ACAD_XDICTIONARY
360
2C8D
102
}
330
2AC1
100
AcDbSymbolTableRecord
100
AcDbLayerTableRecord
  2
OUTLINE
 70
     0
 62
     3
  6
CONTINUOUS
370
    -3
390
2ACE
  0
LAYER
  5
2B4B
102
{ACAD_XDICTIONARY
360
2C8F
102
}
330
2AC1
100
AcDbSymbolTableRecord
100
AcDbLayerTableRecord
  2
SIZE
 70
     0
 62
    30
  6
CONTINUOUS
370
    -3
390
2ACE
  0
LAYER
  5
2B4C
102
{ACAD_XDICTIONARY
360
2C91
102
}
330
2AC1
100
AcDbSymbolTableRecord
100
AcDbLayerTableRecord
  2
BASIS
 70
     0
 62
     6
  6
DASHDOT
370
    -3
390
2ACE
  0
LAYER
  5
2B4D
102
{ACAD_XDICTIONARY
360
2C93
102
}
330
2AC1
100
AcDbSymbolTableRecord
100
AcDbLayerTableRecord
  2
DETAIL
 70
     0
 62
     5
  6
CONTINUOUS
370
    -3
390
2ACE
  0
LAYER
  5
2B4E
102
{ACAD_XDICTIONARY
360
2C95
102
}
330
2AC1
100
AcDbSymbolTableRecord
100
AcDbLayerTableRecord
  2
ARRANGE
 70
     0
 62
     1
  6
CONTINUOUS
370
    -3
390
2ACE
  0
LAYER
  5
2B4F
330
2AC1
100
AcDbSymbolTableRecord
100
AcDbLayerTableRecord
  2
DEFPOINTS
 70
     0
 62
     7
  6
CONTINUOUS
290
     0
370
    -3
390
2ACE
  0
LAYER
  5
2B50
102
{ACAD_XDICTIONARY
360
2C97
102
}
330
2AC1
100
AcDbSymbolTableRecord
100
AcDbLayerTableRecord
  2
ETC
 70
     0
 62
    61
  6
CONTINUOUS
370
    -3
390
2ACE
  0
LAYER
  5
2B51
102
{ACAD_XDICTIONARY
360
2C99
102
}
330
2AC1
100
AcDbSymbolTableRecord
100
AcDbLayerTableRecord
  2
FIX
 70
     0
 62
    11
  6
CONTINUOUS
370
    -3
390
2ACE
  0
LAYER
  5
2B52
102
{ACAD_XDICTIONARY
360
2C9B
102
}
330
2AC1
100
AcDbSymbolTableRecord
100
AcDbLayerTableRecord
  2
NOTE
 70
     0
 62
     4
  6
CONTINUOUS
370
    -3
390
2ACE
  0
LAYER
  5
2B53
102
{ACAD_XDICTIONARY
360
2C9D
102
}
330
2AC1
100
AcDbSymbolTableRecord
100
AcDbLayerTableRecord
  2
SERVICESPACE
 70
     0
 62
     2
  6
DASHDOT
370
    -3
390
2ACE
  0
LAYER
  5
2B54
102
{ACAD_XDICTIONARY
360
2C9F
102
}
330
2AC1
100
AcDbSymbolTableRecord
100
AcDbLayerTableRecord
  2
SYMBOLLINE
 70
     0
 62
    15
  6
CONTINUOUS
370
    -3
390
2ACE
  0
LAYER
  5
2B55
102
{ACAD_XDICTIONARY
360
2CA1
102
}
330
2AC1
100
AcDbSymbolTableRecord
100
AcDbLayerTableRecord
  2
DETAIL___1
 70
     0
 62
     5
  6
CONTINUOUS
370
    -3
390
2ACE
  0
LAYER
  5
2DCA
102
{ACAD_XDICTIONARY
360
2DCB
102
}
330
2AC1
100
AcDbSymbolTableRecord
100
AcDbLayerTableRecord
  2
AM_VIS
 70
     0
 62
     4
  6
CONTINUOUS
370
    25
390
2ACE
  0
LAYER
  5
2DCC
102
{ACAD_XDICTIONARY
360
2DCD
102
}
330
2AC1
100
AcDbSymbolTableRecord
100
AcDbLayerTableRecord
  2
AM_7
 70
     0
 62
     6
  6
AM_ISO08W050
370
    25
390
2ACE
  0
LAYER
  5
2DCE
330
2AC1
100
AcDbSymbolTableRecord
100
AcDbLayerTableRecord
  2
1
 70
     0
 62
     9
  6
CONTINUOUS
370
    -3
390
2ACE
1001
AcAecLayerStandard
1000

1000

  0
ENDTAB
  0
TABLE
  2
STYLE
  5
2AC2
330
0
100
AcDbSymbolTable
 70
     8
  0
STYLE
  5
2B1C
330
2AC2
100
AcDbSymbolTableRecord
100
AcDbTextStyleTableRecord
  2
STANDARD
 70
     0
 40
64.0
 41
0.9
 50
0.0
 71
     0
 42
64.0
  3
SIMPLEX.shx
  4
BIGFONT.shx
  0
STYLE
  5
2B20
330
2AC2
100
AcDbSymbolTableRecord
100
AcDbTextStyleTableRecord
  2
ANNOTATIVE
 70
     0
 40
0.0
 41
1.0
 50
0.0
 71
     0
 42
0.2
  3
txt
  4

1001
ACADANNOTATIVE
1000
AnnotativeData
1002
{
1070
     1
1070
     1
1002
}
  0
STYLE
  5
2B56
330
2AC2
100
AcDbSymbolTableRecord
100
AcDbTextStyleTableRecord
  2

 70
     1
 40
0.0
 41
1.0
 50
0.0
 71
     0
 42
64.0
  3
genltshp.shx
  4

  0
STYLE
  5
2B57
330
2AC2
100
AcDbSymbolTableRecord
100
AcDbTextStyleTableRecord
  2
ACANSTS
 70
     0
 40
1.0
 41
1.0
 50
0.0
 71
     0
 42
64.0
  3
romans.shx
  4
extfont.shx
  0
STYLE
  5
2B58
330
2AC2
100
AcDbSymbolTableRecord
100
AcDbTextStyleTableRecord
  2
ACANSGDT
 70
     0
 40
0.0
 41
1.0
 50
0.0
 71
     0
 42
64.0
  3
amgdt.shx
  4

  0
STYLE
  5
2DCF
330
2AC2
100
AcDbSymbolTableRecord
100
AcDbTextStyleTableRecord
  2
0.7
 70
     0
 40
0.0
 41
0.7
 50
0.0
 71
     0
 42
30.0
  3
romans.shx
  4
extfont.shx
  0
STYLE
  5
2DD0
330
2AC2
100
AcDbSymbolTableRecord
100
AcDbTextStyleTableRecord
  2
ACISOTS
 70
     0
 40
1.0
 41
1.0
 50
0.0
 71
     0
 42
30.0
  3
isocp.shx
  4
extfont.shx
  0
STYLE
  5
2DD1
330
2AC2
100
AcDbSymbolTableRecord
100
AcDbTextStyleTableRecord
  2
ACISOGDT
 70
     0
 40
0.0
 41
1.0
 50
0.0
 71
     0
 42
30.0
  3
amgdt.shx
  4

  0
ENDTAB
  0
TABLE
  2
VIEW
  5
2AC5
330
0
100
AcDbSymbolTable
 70
     3
  0
VIEW
  5
2B59
330
2AC5
100
AcDbSymbolTableRecord
100
AcDbViewTableRecord
  2
ALL
 70
     0
 40
4282.619807999997
 10
0.0
 20
41.30990399999999
 41
5940.0
 11
0.0
 21
0.0
 31
1.0
 12
0.0
 22
0.0
 32
0.0
 42
50.0
 43
0.0
 44
0.0
 50
0.0
 71
     0
281
     0
 72
     1
110
0.0
120
0.0
130
0.0
111
1.0
121
0.0
131
0.0
112
0.0
122
1.0
132
0.0
 79
     0
146
0.0
  0
ENDTAB
  0
TABLE
  2
UCS
  5
2AC6
330
0
100
AcDbSymbolTable
 70
     0
  0
ENDTAB
  0
TABLE
  2
APPID
  5
2AC8
330
0
100
AcDbSymbolTable
 70
    31
  0
APPID
  5
2B1D
330
2AC8
100
AcDbSymbolTableRecord
100
AcDbRegAppTableRecord
  2
ACAD
 70
     0
  0
APPID
  5
2B24
330
2AC8
100
AcDbSymbolTableRecord
100
AcDbRegAppTableRecord
  2
ACADANNOTATIVE
 70
     0
  0
APPID
  5
2B2E
330
2AC8
100
AcDbSymbolTableRecord
100
AcDbRegAppTableRecord
  2
ACAD_MLEADERVER
 70
     0
  0
APPID
  5
2B5A
330
2AC8
100
AcDbSymbolTableRecord
100
AcDbRegAppTableRecord
  2
GENIUS_GENDIM_13
 70
     0
  0
APPID
  5
2B5B
330
2AC8
100
AcDbSymbolTableRecord
100
AcDbRegAppTableRecord
  2
GENIUS_GENDTOL_13
 70
     0
  0
APPID
  5
2B5C
330
2AC8
100
AcDbSymbolTableRecord
100
AcDbRegAppTableRecord
  2
GENIUS_GE3DTOL_13
 70
     0
  0
APPID
  5
2B5D
330
2AC8
100
AcDbSymbolTableRecord
100
AcDbRegAppTableRecord
  2
MCAD_NO_VIS
 70
     0
  0
APPID
  5
2B5E
330
2AC8
100
AcDbSymbolTableRecord
100
AcDbRegAppTableRecord
  2
ACAD_TEMP_GRAPHIC
 70
     0
  0
APPID
  5
2B5F
330
2AC8
100
AcDbSymbolTableRecord
100
AcDbRegAppTableRecord
  2
AD_DRAW
 70
     0
  0
APPID
  5
2B60
330
2AC8
100
AcDbSymbolTableRecord
100
AcDbRegAppTableRecord
  2
ACATTRIBSERVICES
 70
     0
  0
APPID
  5
2B61
330
2AC8
100
AcDbSymbolTableRecord
100
AcDbRegAppTableRecord
  2
ASURF_PCURVE_APPNAME
 70
     0
  0
APPID
  5
2B62
330
2AC8
100
AcDbSymbolTableRecord
100
AcDbRegAppTableRecord
  2
AMG_3D2D_5_0
 70
     0
  0
APPID
  5
2B63
330
2AC8
100
AcDbSymbolTableRecord
100
AcDbRegAppTableRecord
  2
DESIGNERASSEMBLIES
 70
     0
  0
APPID
  5
2B64
330
2AC8
100
AcDbSymbolTableRecord
100
AcDbRegAppTableRecord
  2
ACADM_DIM_EDIT
 70
     0
  0
APPID
  5
2B65
330
2AC8
100
AcDbSymbolTableRecord
100
AcDbRegAppTableRecord
  2
AMDT_DM_ADJ
 70
     0
  0
APPID
  5
2B66
330
2AC8
100
AcDbSymbolTableRecord
100
AcDbRegAppTableRecord
  2
ACAD_DSTYLE_DIMARC_LENGTH_
 70
     0
  0
APPID
  5
2B67
330
2AC8
100
AcDbSymbolTableRecord
100
AcDbRegAppTableRecord
  2
ACAD_DSTYLE_DIMJOGGED_JOGA
 70
     0
  0
APPID
  5
2B68
330
2AC8
100
AcDbSymbolTableRecord
100
AcDbRegAppTableRecord
  2
ACAD_PSEXT
 70
     0
  0
APPID
  5
2B69
330
2AC8
100
AcDbSymbolTableRecord
100
AcDbRegAppTableRecord
  2
ACAD_EXEMPT_FROM_CAD_STANDARDS
 70
     0
  0
APPID
  5
2B6A
330
2AC8
100
AcDbSymbolTableRecord
100
AcDbRegAppTableRecord
  2
ACAD_DSTYLE_DIMJAG
 70
     0
  0
APPID
  5
2B6B
330
2AC8
100
AcDbSymbolTableRecord
100
AcDbRegAppTableRecord
  2
ACAD_DSTYLE_DIMTALN
 70
     0
  0
APPID
  5
2B6C
330
2AC8
100
AcDbSymbolTableRecord
100
AcDbRegAppTableRecord
  2
AMG_3D2D_5_00
 70
     0
  0
APPID
  5
2B6D
330
2AC8
100
AcDbSymbolTableRecord
100
AcDbRegAppTableRecord
  2
AMG_3D2D_5_01
 70
     0
  0
APPID
  5
2B6E
330
2AC8
100
AcDbSymbolTableRecord
100
AcDbRegAppTableRecord
  2
AMG_3D2D_5_02
 70
     0
  0
APPID
  5
2C32
330
2AC8
100
AcDbSymbolTableRecord
100
AcDbRegAppTableRecord
  2
AMG_3D2D_5.0
 70
     0
  0
APPID
  5
2CCB
330
2AC8
100
AcDbSymbolTableRecord
100
AcDbRegAppTableRecord
  2
ACAD_DSTYLE_DIMARC_LENGTH_SYMBOL
 70
     0
  0
APPID
  5
2CCC
330
2AC8
100
AcDbSymbolTableRecord
100
AcDbRegAppTableRecord
  2
ACAD_DSTYLE_DIM_LINETYPE
 70
     0
  0
APPID
  5
2CCD
330
2AC8
100
AcDbSymbolTableRecord
100
AcDbRegAppTableRecord
  2
ACAD_DSTYLE_DIM_EXT1_LINETYPE
 70
     0
  0
APPID
  5
2CCE
330
2AC8
100
AcDbSymbolTableRecord
100
AcDbRegAppTableRecord
  2
ACAD_DSTYLE_DIM_EXT2_LINETYPE
 70
     0
  0
APPID
  5
2DDA
330
2AC8
100
AcDbSymbolTableRecord
100
AcDbRegAppTableRecord
  2
AcAecLayerStandard
 70
     0
  0
APPID
  5
3538
330
2AC8
100
AcDbSymbolTableRecord
100
AcDbRegAppTableRecord
  2
ACAD_DSTYLE_DIMINSPECT
 70
     0
  0
ENDTAB
  0
TABLE
  2
DIMSTYLE
  5
2AC9
330
0
100
AcDbSymbolTable
 70
    18
100
AcDbDimStyleTable
 71
     2
340
2B1E
340
2B6F
  0
DIMSTYLE
105
2B1E
330
2AC9
100
AcDbSymbolTableRecord
100
AcDbDimStyleTableRecord
  2
STANDARD
 70
     0
 41
12.0
 42
20.0
 44
20.0
 77
     1
 78
     8
140
64.0
141
0.0
147
10.0
172
     1
275
     1
279
     2
284
     7
285
     7
286
     7
340
2B1C
342
2B84
1001
ACAD_DSTYLE_DIMJAG
1070
   388
1040
1.5
1001
ACAD_DSTYLE_DIMTALN
1070
   392
1070
     0
  0
DIMSTYLE
105
2B1F
330
2AC9
100
AcDbSymbolTableRecord
100
AcDbDimStyleTableRecord
  2
ANNOTATIVE
 70
     0
275
     1
279
     2
284
     7
285
     7
286
     7
340
2B1C
1001
ACADANNOTATIVE
1000
AnnotativeData
1002
{
1070
     1
1070
     1
1002
}
  0
DIMSTYLE
105
2B6F
330
2AC9
100
AcDbSymbolTableRecord
100
AcDbDimStyleTableRecord
  2
AM_ANSI
 70
     0
  4
mm
 41
0.12
 42
0.05
 43
0.5
 44
0.1
 47
0.1
 48
0.1
 78
     7
 79
     2
140
0.12
141
0.0
146
0.71
147
0.06
176
   256
177
   256
178
     2
274
     4
284
     7
340
2B1C
371
    -1
372
    -1
1001
ACAD_DSTYLE_DIMARC_LENGTH_SYMBOL
1070
   379
1070
     1
1001
ACAD_DSTYLE_DIM_LINETYPE
1070
   380
1005
2B21
1001
ACAD_DSTYLE_DIM_EXT1_LINETYPE
1070
   381
1005
2B21
1001
ACAD_DSTYLE_DIM_EXT2_LINETYPE
1070
   382
1005
2B21
  0
DIMSTYLE
105
2B70
330
2AC9
100
AcDbSymbolTableRecord
100
AcDbDimStyleTableRecord
  2
AM_ANSI$3
 70
     0
  4
mm
 41
0.12
 42
0.05
 43
0.5
 44
0.1
 47
0.1
 48
0.1
 78
     7
 79
     2
140
0.12
141
0.0
146
0.71
147
0.06
176
   256
177
   256
178
     2
274
     4
284
     7
288
     1
289
     0
340
2B1C
371
    -1
372
    -1
1001
ACAD_DSTYLE_DIMARC_LENGTH_SYMBOL
1070
   379
1070
     1
1001
ACAD_DSTYLE_DIM_LINETYPE
1070
   380
1005
2B21
1001
ACAD_DSTYLE_DIM_EXT1_LINETYPE
1070
   381
1005
2B21
1001
ACAD_DSTYLE_DIM_EXT2_LINETYPE
1070
   382
1005
2B21
  0
DIMSTYLE
105
2B71
330
2AC9
100
AcDbSymbolTableRecord
100
AcDbDimStyleTableRecord
  2
AM_ANSI$4
 70
     0
  4
mm
 41
0.12
 42
0.05
 43
0.5
 44
0.1
 47
0.1
 48
0.1
 78
     7
 79
     2
140
0.12
141
0.0
146
0.71
147
0.06
176
   256
177
   256
178
     2
274
     4
284
     7
340
2B1C
371
    -1
372
    -1
1001
ACAD_DSTYLE_DIMARC_LENGTH_SYMBOL
1070
   379
1070
     1
1001
ACAD_DSTYLE_DIM_LINETYPE
1070
   380
1005
2B21
1001
ACAD_DSTYLE_DIM_EXT1_LINETYPE
1070
   381
1005
2B21
1001
ACAD_DSTYLE_DIM_EXT2_LINETYPE
1070
   382
1005
2B21
  0
DIMSTYLE
105
2B72
330
2AC9
100
AcDbSymbolTableRecord
100
AcDbDimStyleTableRecord
  2
AM_ANSI$7
 70
     0
  4
mm
 41
0.12
 42
0.05
 43
0.5
 44
0.1
 47
0.1
 48
0.1
 78
     7
 79
     2
140
0.12
141
0.0
146
0.71
147
0.06
176
   256
177
   256
178
     2
274
     4
284
     7
340
2B1C
371
    -1
372
    -1
1001
ACAD_DSTYLE_DIMARC_LENGTH_SYMBOL
1070
   379
1070
     1
1001
ACAD_DSTYLE_DIM_LINETYPE
1070
   380
1005
2B21
1001
ACAD_DSTYLE_DIM_EXT1_LINETYPE
1070
   381
1005
2B21
1001
ACAD_DSTYLE_DIM_EXT2_LINETYPE
1070
   382
1005
2B21
  0
DIMSTYLE
105
2B73
330
2AC9
100
AcDbSymbolTableRecord
100
AcDbDimStyleTableRecord
  2
AM_ANSI$SF
 70
     0
  4
mm
 41
0.12
 42
0.05
 43
0.5
 44
0.1
 47
0.1
 48
0.1
 75
     1
 76
     1
 78
     7
 79
     2
140
0.12
141
0.0
146
0.71
147
0.06
176
   256
177
   256
178
     2
274
     4
284
     7
340
2B1C
371
    -1
372
    -1
1001
ACAD_DSTYLE_DIMARC_LENGTH_SYMBOL
1070
   379
1070
     1
1001
ACAD_DSTYLE_DIM_LINETYPE
1070
   380
1005
2B21
1001
ACAD_DSTYLE_DIM_EXT1_LINETYPE
1070
   381
1005
2B21
1001
ACAD_DSTYLE_DIM_EXT2_LINETYPE
1070
   382
1005
2B21
  0
DIMSTYLE
105
2B74
330
2AC9
100
AcDbSymbolTableRecord
100
AcDbDimStyleTableRecord
  2
AM_ANSI$SH
 70
     0
  4
mm
 41
0.12
 42
0.05
 43
0.5
 44
0.1
 47
0.1
 48
0.1
 75
     1
 76
     1
 78
     7
 79
     2
140
0.12
141
0.0
146
0.71
147
0.06
173
     1
176
   256
177
   256
178
     2
274
     4
284
     7
340
2B1C
343
2B88
371
    -1
372
    -1
1001
ACAD_DSTYLE_DIMARC_LENGTH_SYMBOL
1070
   379
1070
     1
1001
ACAD_DSTYLE_DIM_LINETYPE
1070
   380
1005
2B21
1001
ACAD_DSTYLE_DIM_EXT1_LINETYPE
1070
   381
1005
2B21
1001
ACAD_DSTYLE_DIM_EXT2_LINETYPE
1070
   382
1005
2B21
  0
DIMSTYLE
105
2B75
330
2AC9
100
AcDbSymbolTableRecord
100
AcDbDimStyleTableRecord
  2
STANDARD1
 70
     0
 40
6.0
 41
2.5
 42
0.625
 43
6.0
 44
1.25
 47
1.0
 48
0.5
 77
     1
 78
     8
140
2.5
141
0.0
146
0.6
147
1.0
173
     1
275
     1
279
     2
284
     7
285
     7
286
     7
340
2B1C
  0
DIMSTYLE
105
2B76
102
{ACAD_REACTORS
330
34E8
330
34F5
330
3502
330
3511
330
351E
330
356C
102
}
330
2AC9
100
AcDbSymbolTableRecord
100
AcDbDimStyleTableRecord
  2
STANDARD$0
 70
     0
 41
12.0
 42
20.0
 44
20.0
 73
     0
 74
     0
 77
     1
 78
     8
140
64.0
141
0.0
147
10.0
172
     1
275
     1
279
     2
284
     7
285
     7
286
     7
340
2B1C
342
2B84
  0
DIMSTYLE
105
2DD2
330
2AC9
100
AcDbSymbolTableRecord
100
AcDbDimStyleTableRecord
  2
AM_JIS
 70
     0
  4
"
 40
10.0
 41
2.5
 42
1.0
 43
10.0
 44
1.0
 47
0.1
 48
0.1
 73
     0
 74
     0
 77
     3
 78
     8
 79
     2
140
3.5
141
0.0
143
0.0393701
146
0.71
147
1.5
172
     1
176
   256
177
   256
178
     2
271
     2
272
     3
274
     4
283
     0
284
     8
340
2B1C
341
2B86
342
2B86
343
2B86
344
2B86
371
    -1
372
    -1
  0
DIMSTYLE
105
2DD3
330
2AC9
100
AcDbSymbolTableRecord
100
AcDbDimStyleTableRecord
  2
AM_ISO
 70
     0
  4
"
 41
3.5
 42
1.0
 43
10.0
 44
1.0
 47
0.1
 48
0.1
 73
     0
 74
     0
 77
     1
 78
     8
 79
     2
140
3.5
141
0.0
143
0.0393701
146
0.71
147
1.5
172
     1
176
   256
177
   256
178
     2
271
     2
272
     3
274
     4
283
     0
284
     8
340
2B1C
371
    -1
372
    -1
1001
ACAD_DSTYLE_DIMARC_LENGTH_SYMBOL
1070
   379
1070
     1
1001
ACAD_DSTYLE_DIM_LINETYPE
1070
   380
1005
2B21
1001
ACAD_DSTYLE_DIM_EXT1_LINETYPE
1070
   381
1005
2B21
1001
ACAD_DSTYLE_DIM_EXT2_LINETYPE
1070
   382
1005
2B21
  0
DIMSTYLE
105
2DD4
330
2AC9
100
AcDbSymbolTableRecord
100
AcDbDimStyleTableRecord
  2
AM_ISO$3
 70
     0
  4
"
 41
3.5
 42
1.0
 43
10.0
 44
1.0
 47
0.1
 48
0.1
 73
     0
 77
     1
 78
     8
 79
     2
140
3.5
141
0.0
143
0.0393701
146
0.71
147
1.5
176
   256
177
   256
178
     2
271
     2
272
     3
274
     4
283
     0
284
     8
288
     1
289
     0
340
2B1C
371
    -1
372
    -1
1001
ACAD_DSTYLE_DIMARC_LENGTH_SYMBOL
1070
   379
1070
     1
1001
ACAD_DSTYLE_DIM_LINETYPE
1070
   380
1005
2B21
1001
ACAD_DSTYLE_DIM_EXT1_LINETYPE
1070
   381
1005
2B21
1001
ACAD_DSTYLE_DIM_EXT2_LINETYPE
1070
   382
1005
2B21
  0
DIMSTYLE
105
2DD5
330
2AC9
100
AcDbSymbolTableRecord
100
AcDbDimStyleTableRecord
  2
AM_ISO$4
 70
     0
  4
"
 41
3.5
 42
1.0
 43
10.0
 44
1.0
 47
0.1
 48
0.1
 73
     0
 74
     0
 77
     1
 78
     8
 79
     2
140
3.5
141
0.0
143
0.0393701
146
0.71
147
1.5
172
     1
176
   256
177
   256
178
     2
271
     2
272
     3
274
     4
283
     0
284
     8
340
2B1C
371
    -1
372
    -1
1001
ACAD_DSTYLE_DIMARC_LENGTH_SYMBOL
1070
   379
1070
     1
1001
ACAD_DSTYLE_DIM_LINETYPE
1070
   380
1005
2B21
1001
ACAD_DSTYLE_DIM_EXT1_LINETYPE
1070
   381
1005
2B21
1001
ACAD_DSTYLE_DIM_EXT2_LINETYPE
1070
   382
1005
2B21
  0
DIMSTYLE
105
2DD6
330
2AC9
100
AcDbSymbolTableRecord
100
AcDbDimStyleTableRecord
  2
AM_ISO$6
 70
     0
  4
"
 41
3.5
 42
1.0
 43
10.0
 44
1.0
 47
0.1
 48
0.1
 73
     0
 74
     0
 78
     8
 79
     2
140
3.5
141
0.0
143
0.0393701
146
0.71
147
1.5
172
     1
176
   256
177
   256
178
     2
271
     2
272
     3
274
     4
283
     0
284
     8
340
2B1C
371
    -1
372
    -1
1001
ACAD_DSTYLE_DIMARC_LENGTH_SYMBOL
1070
   379
1070
     1
1001
ACAD_DSTYLE_DIM_LINETYPE
1070
   380
1005
2B21
1001
ACAD_DSTYLE_DIM_EXT1_LINETYPE
1070
   381
1005
2B21
1001
ACAD_DSTYLE_DIM_EXT2_LINETYPE
1070
   382
1005
2B21
  0
DIMSTYLE
105
2DD7
330
2AC9
100
AcDbSymbolTableRecord
100
AcDbDimStyleTableRecord
  2
AM_ISO$7
 70
     0
  4
"
 41
3.5
 42
1.0
 43
10.0
 44
1.0
 47
0.1
 48
0.1
 73
     0
 74
     0
 77
     1
 78
     8
 79
     2
140
3.5
141
0.0
143
0.0393701
146
0.71
147
1.5
172
     1
176
   256
177
   256
178
     2
271
     2
272
     3
274
     4
283
     0
284
     8
340
2B1C
371
    -1
372
    -1
1001
ACAD_DSTYLE_DIMARC_LENGTH_SYMBOL
1070
   379
1070
     1
1001
ACAD_DSTYLE_DIM_LINETYPE
1070
   380
1005
2B21
1001
ACAD_DSTYLE_DIM_EXT1_LINETYPE
1070
   381
1005
2B21
1001
ACAD_DSTYLE_DIM_EXT2_LINETYPE
1070
   382
1005
2B21
  0
DIMSTYLE
105
2DD8
330
2AC9
100
AcDbSymbolTableRecord
100
AcDbDimStyleTableRecord
  2
AM_ISO$SF
 70
     0
  4
"
 41
3.5
 42
1.0
 43
10.0
 44
1.0
 47
0.1
 48
0.1
 73
     0
 74
     0
 75
     1
 76
     1
 77
     1
 78
     8
 79
     2
140
3.5
141
0.0
143
0.0393701
146
0.71
147
1.5
172
     1
176
   256
177
   256
178
     2
271
     2
272
     3
274
     4
283
     0
284
     8
340
2B1C
371
    -1
372
    -1
1001
ACAD_DSTYLE_DIMARC_LENGTH_SYMBOL
1070
   379
1070
     1
1001
ACAD_DSTYLE_DIM_LINETYPE
1070
   380
1005
2B21
1001
ACAD_DSTYLE_DIM_EXT1_LINETYPE
1070
   381
1005
2B21
1001
ACAD_DSTYLE_DIM_EXT2_LINETYPE
1070
   382
1005
2B21
  0
DIMSTYLE
105
2DD9
330
2AC9
100
AcDbSymbolTableRecord
100
AcDbDimStyleTableRecord
  2
AM_ISO$SH
 70
     0
  4
"
 41
3.5
 42
1.0
 43
10.0
 44
1.0
 47
0.1
 48
0.1
 73
     0
 74
     0
 75
     1
 76
     1
 77
     1
 78
     8
 79
     2
140
3.5
141
0.0
143
0.0393701
144
2.0
146
0.71
147
1.5
172
     1
173
     1
176
   256
177
   256
178
     2
271
     2
272
     3
274
     4
283
     0
284
     8
340
2B1C
343
2B88
371
    -1
372
    -1
1001
ACAD_DSTYLE_DIMARC_LENGTH_SYMBOL
1070
   379
1070
     1
1001
ACAD_DSTYLE_DIM_LINETYPE
1070
   380
1005
2B21
1001
ACAD_DSTYLE_DIM_EXT1_LINETYPE
1070
   381
1005
2B21
1001
ACAD_DSTYLE_DIM_EXT2_LINETYPE
1070
   382
1005
2B21
  0
ENDTAB
  0
TABLE
  2
BLOCK_RECORD
  5
2AC0
330
0
100
AcDbSymbolTable
 70
    33
  0
BLOCK_RECORD
  5
2B33
102
{ACAD_XDICTIONARY
360
2CA3
102
}
330
2AC0
100
AcDbSymbolTableRecord
100
AcDbBlockTableRecord
  2
*Model_Space
340
2B36
  0
BLOCK_RECORD
  5
2B2F
330
2AC0
100
AcDbSymbolTableRecord
100
AcDbBlockTableRecord
  2
*Paper_Space
340
2B32
  0
BLOCK_RECORD
  5
2B7E
330
2AC0
100
AcDbSymbolTableRecord
100
AcDbBlockTableRecord
  2
$MODEL_SPACE
340
0
  0
BLOCK_RECORD
  5
2B80
330
2AC0
100
AcDbSymbolTableRecord
100
AcDbBlockTableRecord
  2
$PAPER_SPACE
340
0
  0
BLOCK_RECORD
  5
2B82
330
2AC0
100
AcDbSymbolTableRecord
100
AcDbBlockTableRecord
  2
_ORIGIN
340
0
  0
BLOCK_RECORD
  5
2B84
330
2AC0
100
AcDbSymbolTableRecord
100
AcDbBlockTableRecord
  2
_DOTBLANK
340
0
102
{BLKREFS
331
202C
331
202D
331
2035
331
2036
331
203E
331
203F
331
2047
331
2048
331
2052
331
2053
331
205D
331
205E
331
358E
331
358F
331
3597
331
3598
331
35A3
331
35A4
331
35AB
331
35AC
331
35B7
331
35B8
331
35BF
331
35C0
102
}
  0
BLOCK_RECORD
  5
2B86
330
2AC0
100
AcDbSymbolTableRecord
100
AcDbBlockTableRecord
  2
_OPEN30
340
0
102
{BLKREFS
331
2199
331
2586
331
2857
102
}
  0
BLOCK_RECORD
  5
2B88
330
2AC0
100
AcDbSymbolTableRecord
100
AcDbBlockTableRecord
  2
GENAXEH
340
0
  0
BLOCK_RECORD
  5
2B8A
330
2AC0
100
AcDbSymbolTableRecord
100
AcDbBlockTableRecord
  2
*U6
340
0
  0
BLOCK_RECORD
  5
2B8C
330
2AC0
100
AcDbSymbolTableRecord
100
AcDbBlockTableRecord
  2
*D7
340
0
  0
BLOCK_RECORD
  5
2B8E
330
2AC0
100
AcDbSymbolTableRecord
100
AcDbBlockTableRecord
  2
*U8
340
0
102
{BLKREFS
331
202E
102
}
  0
BLOCK_RECORD
  5
2B90
330
2AC0
100
AcDbSymbolTableRecord
100
AcDbBlockTableRecord
  2
*D9
340
0
  0
BLOCK_RECORD
  5
2B92
330
2AC0
100
AcDbSymbolTableRecord
100
AcDbBlockTableRecord
  2
*U10
340
0
102
{BLKREFS
331
2037
102
}
  0
BLOCK_RECORD
  5
2B94
330
2AC0
100
AcDbSymbolTableRecord
100
AcDbBlockTableRecord
  2
*D11
340
0
  0
BLOCK_RECORD
  5
2B96
330
2AC0
100
AcDbSymbolTableRecord
100
AcDbBlockTableRecord
  2
*U12
340
0
102
{BLKREFS
331
2040
102
}
  0
BLOCK_RECORD
  5
2B98
330
2AC0
100
AcDbSymbolTableRecord
100
AcDbBlockTableRecord
  2
*D13
340
0
  0
BLOCK_RECORD
  5
2B9A
330
2AC0
100
AcDbSymbolTableRecord
100
AcDbBlockTableRecord
  2
*U14
340
0
102
{BLKREFS
331
2049
102
}
  0
BLOCK_RECORD
  5
2B9C
330
2AC0
100
AcDbSymbolTableRecord
100
AcDbBlockTableRecord
  2
*D15
340
0
  0
BLOCK_RECORD
  5
2B9E
330
2AC0
100
AcDbSymbolTableRecord
100
AcDbBlockTableRecord
  2
*U16
340
0
102
{BLKREFS
331
2054
102
}
  0
BLOCK_RECORD
  5
2BA0
330
2AC0
100
AcDbSymbolTableRecord
100
AcDbBlockTableRecord
  2
*D17
340
0
  0
BLOCK_RECORD
  5
2BA2
330
2AC0
100
AcDbSymbolTableRecord
100
AcDbBlockTableRecord
  2
*U18
340
0
102
{BLKREFS
331
205F
102
}
  0
BLOCK_RECORD
  5
2BA4
330
2AC0
100
AcDbSymbolTableRecord
100
AcDbBlockTableRecord
  2
*U19
340
0
  0
BLOCK_RECORD
  5
2BA6
330
2AC0
100
AcDbSymbolTableRecord
100
AcDbBlockTableRecord
  2
*U20
340
0
  0
BLOCK_RECORD
  5
2BA8
330
2AC0
100
AcDbSymbolTableRecord
100
AcDbBlockTableRecord
  2
*U21
340
0
  0
BLOCK_RECORD
  5
2BAA
330
2AC0
100
AcDbSymbolTableRecord
100
AcDbBlockTableRecord
  2
*U22
340
0
102
{BLKREFS
331
34E1
102
}
  0
BLOCK_RECORD
  5
2BAC
330
2AC0
100
AcDbSymbolTableRecord
100
AcDbBlockTableRecord
  2
*X23
340
0
  0
BLOCK_RECORD
  5
2BAE
330
2AC0
100
AcDbSymbolTableRecord
100
AcDbBlockTableRecord
  2
*X24
340
0
  0
BLOCK_RECORD
  5
34E9
330
2AC0
100
AcDbSymbolTableRecord
100
AcDbBlockTableRecord
  2
*D27
340
0
  0
BLOCK_RECORD
  5
34F6
330
2AC0
100
AcDbSymbolTableRecord
100
AcDbBlockTableRecord
  2
*D28
340
0
  0
BLOCK_RECORD
  5
3503
330
2AC0
100
AcDbSymbolTableRecord
100
AcDbBlockTableRecord
  2
*D29
340
0
  0
BLOCK_RECORD
  5
3512
330
2AC0
100
AcDbSymbolTableRecord
100
AcDbBlockTableRecord
  2
*D30
340
0
  0
BLOCK_RECORD
  5
351F
330
2AC0
100
AcDbSymbolTableRecord
100
AcDbBlockTableRecord
  2
*D31
340
0
  0
BLOCK_RECORD
  5
356D
330
2AC0
100
AcDbSymbolTableRecord
100
AcDbBlockTableRecord
  2
*D32
340
0
  0
ENDTAB
  0
ENDSEC
  0
SECTION
  2
BLOCKS
  0
BLOCK
  5
2B34
330
2B33
100
AcDbEntity
  8
0
100
AcDbBlockBegin
  2
*Model_Space
 70
     0
 10
0.0
 20
0.0
 30
0.0
  3
*Model_Space
  1

  0
ENDBLK
  5
2B35
330
2B33
100
AcDbEntity
  8
0
100
AcDbBlockEnd
  0
BLOCK
  5
2B30
330
2B2F
100
AcDbEntity
 67
     1
  8
0
100
AcDbBlockBegin
  2
*Paper_Space
 70
     0
 10
0.0
 20
0.0
 30
0.0
  3
*Paper_Space
  1

  0
ENDBLK
  5
2B31
330
2B2F
100
AcDbEntity
 67
     1
  8
0
100
AcDbBlockEnd
  0
BLOCK
  5
2B7F
330
2B7E
100
AcDbEntity
  8
0
100
AcDbBlockBegin
  2
$MODEL_SPACE
 70
     0
 10
0.0
 20
0.0
 30
0.0
  3
$MODEL_SPACE
  1

  0
ENDBLK
  5
2706
330
2B7E
100
AcDbEntity
  8
0
100
AcDbBlockEnd
  0
BLOCK
  5
2B81
330
2B80
100
AcDbEntity
  8
0
100
AcDbBlockBegin
  2
$PAPER_SPACE
 70
     0
 10
0.0
 20
0.0
 30
0.0
  3
$PAPER_SPACE
  1

  0
ENDBLK
  5
2702
330
2B80
100
AcDbEntity
  8
0
100
AcDbBlockEnd
  0
BLOCK
  5
2B83
330
2B82
100
AcDbEntity
  8
0
100
AcDbBlockBegin
  2
_ORIGIN
 70
     0
 10
0.0
 20
0.0
 30
0.0
  3
_ORIGIN
  1

  0
CIRCLE
  5
880
330
2B82
100
AcDbEntity
  8
0
  6
Continuous
 62
     7
100
AcDbCircle
 10
0.0
 20
0.0
 30
0.0
 40
0.5
  0
LINE
  5
881
330
2B82
100
AcDbEntity
  8
0
  6
Continuous
 62
     7
100
AcDbLine
 10
0.0
 20
0.0
 30
0.0
 11
-1.0
 21
0.0
 31
0.0
  0
ENDBLK
  5
882
330
2B82
100
AcDbEntity
  8
0
100
AcDbBlockEnd
  0
BLOCK
  5
2B85
330
2B84
100
AcDbEntity
  8
0
 62
     1
100
AcDbBlockBegin
  2
_DOTBLANK
 70
     0
 10
0.0
 20
0.0
 30
0.0
  3
_DOTBLANK
  1

  0
CIRCLE
  5
AB3
330
2B84
100
AcDbEntity
  8
0
  6
ByBlock
 62
     0
100
AcDbCircle
 10
0.0
 20
0.0
 30
0.0
 40
0.5
  0
LINE
  5
AB4
330
2B84
100
AcDbEntity
  8
0
  6
ByBlock
 62
     0
100
AcDbLine
 10
-0.5
 20
0.0
 30
0.0
 11
-1.0
 21
0.0
 31
0.0
  0
ENDBLK
  5
AB6
330
2B84
100
AcDbEntity
  8
0
 62
     1
100
AcDbBlockEnd
  0
BLOCK
  5
2B87
330
2B86
100
AcDbEntity
  8
0
 62
     1
100
AcDbBlockBegin
  2
_OPEN30
 70
     0
 10
0.0
 20
0.0
 30
0.0
  3
_OPEN30
  1

  0
LINE
  5
AB8
330
2B86
100
AcDbEntity
  8
0
  6
ByBlock
 62
     0
100
AcDbLine
 10
-1.0
 20
0.26794919
 30
0.0
 11
0.0
 21
0.0
 31
0.0
  0
LINE
  5
AB9
330
2B86
100
AcDbEntity
  8
0
  6
ByBlock
 62
     0
100
AcDbLine
 10
0.0
 20
0.0
 30
0.0
 11
-1.0
 21
-0.26794919
 31
0.0
  0
LINE
  5
ABA
330
2B86
100
AcDbEntity
  8
0
  6
ByBlock
 62
     0
100
AcDbLine
 10
0.0
 20
0.0
 30
0.0
 11
-1.0
 21
0.0
 31
0.0
  0
ENDBLK
  5
ABC
330
2B86
100
AcDbEntity
  8
0
 62
     1
100
AcDbBlockEnd
  0
BLOCK
  5
2B89
330
2B88
100
AcDbEntity
  8
0
100
AcDbBlockBegin
  2
GENAXEH
 70
     0
 10
0.0
 20
0.0
 30
0.0
  3
GENAXEH
  1

  0
LINE
  5
FDB
330
2B88
100
AcDbEntity
  8
0
100
AcDbLine
 10
-1.0
 20
0.0
 30
0.0
 11
1.0
 21
0.0
 31
0.0
  0
ENDBLK
  5
FDD
330
2B88
100
AcDbEntity
  8
0
100
AcDbBlockEnd
  0
BLOCK
  5
2B8B
330
2B8A
100
AcDbEntity
  8
0
100
AcDbBlockBegin
  2
*U6
 70
     1
 10
0.0
 20
0.0
 30
0.0
  3
*U6
  1

  0
ENDBLK
  5
1ED4
330
2B8A
100
AcDbEntity
  8
0
100
AcDbBlockEnd
  0
BLOCK
  5
2B8D
330
2B8C
100
AcDbEntity
  8
0
100
AcDbBlockBegin
  2
*D7
 70
     1
 10
0.0
 20
0.0
 30
0.0
  3
*D7
  1

  0
LINE
  5
2029
330
2B8C
100
AcDbEntity
  8
SIZE
 62
     0
100
AcDbLine
 10
-135.5
 20
-449.4732256776551
 30
0.0
 11
-135.5
 21
-638.0173952306003
 31
0.0
  0
LINE
  5
202A
330
2B8C
100
AcDbEntity
  8
SIZE
 62
     0
100
AcDbLine
 10
135.5
 20
-449.4732256776551
 30
0.0
 11
135.5
 21
-638.0173952306003
 31
0.0
  0
LINE
  5
202B
330
2B8C
100
AcDbEntity
  8
SIZE
 62
     0
100
AcDbLine
 10
-123.5
 20
-618.0173952306001
 30
0.0
 11
123.5
 21
-618.0173952306001
 31
0.0
  0
INSERT
  5
202C
330
2B8C
100
AcDbEntity
  8
SIZE
 62
     0
100
AcDbBlockReference
  2
_DOTBLANK
 10
-135.5
 20
-618.0173952306001
 30
0.0
 41
12.0
 42
12.0
 43
12.0
 50
180.0
  0
INSERT
  5
202D
330
2B8C
100
AcDbEntity
  8
SIZE
 62
     0
100
AcDbBlockReference
  2
_DOTBLANK
 10
135.5
 20
-618.0173952306001
 30
0.0
 41
12.0
 42
12.0
 43
12.0
  0
INSERT
  5
202E
330
2B8C
100
AcDbEntity
  8
0
100
AcDbBlockReference
  2
*U8
 10
0.0
 20
0.0
 30
0.0
  0
POINT
  5
202F
330
2B8C
100
AcDbEntity
  8
DEFPOINTS
 62
     0
100
AcDbPoint
 10
-135.5
 20
-429.473225677655
 30
0.0
  0
POINT
  5
2030
330
2B8C
100
AcDbEntity
  8
DEFPOINTS
 62
     0
100
AcDbPoint
 10
135.5
 20
-429.473225677655
 30
0.0
  0
POINT
  5
2031
330
2B8C
100
AcDbEntity
  8
DEFPOINTS
 62
     0
100
AcDbPoint
 10
135.5
 20
-618.0173952306001
 30
0.0
  0
ENDBLK
  5
1FDF
330
2B8C
100
AcDbEntity
  8
0
100
AcDbBlockEnd
  0
BLOCK
  5
2B8F
330
2B8E
100
AcDbEntity
  8
0
100
AcDbBlockBegin
  2
*U8
 70
     1
 10
0.0
 20
0.0
 30
0.0
  3
*U8
  1

  0
TEXT
  5
21A6
330
2B8E
100
AcDbEntity
  8
SIZE
 62
     0
100
AcDbText
 10
-61.7142857142857
 20
-608.0173952306003
 30
0.0
 40
64.0
  1
271
 41
0.9
100
AcDbText
  0
ENDBLK
  5
21A8
330
2B8E
100
AcDbEntity
  8
0
100
AcDbBlockEnd
  0
BLOCK
  5
2B91
330
2B90
100
AcDbEntity
  8
0
100
AcDbBlockBegin
  2
*D9
 70
     1
 10
0.0
 20
0.0
 30
0.0
  3
*D9
  1

  0
LINE
  5
2032
330
2B90
100
AcDbEntity
  8
SIZE
 62
     0
100
AcDbLine
 10
143.7000000000007
 20
-430.0
 30
0.0
 11
304.6432844803784
 21
-430.0
 31
0.0
  0
LINE
  5
2033
330
2B90
100
AcDbEntity
  8
SIZE
 62
     0
100
AcDbLine
 10
177.5
 20
-0.0000000000000057
 30
0.0
 11
304.6432844803785
 21
-0.0000000000000417
 31
0.0
  0
LINE
  5
2034
330
2B90
100
AcDbEntity
  8
SIZE
 62
     0
100
AcDbLine
 10
284.6432844803784
 20
-418.0
 30
0.0
 11
284.6432844803785
 21
-12.00000000000003
 31
0.0
  0
INSERT
  5
2035
330
2B90
100
AcDbEntity
  8
SIZE
 62
     0
100
AcDbBlockReference
  2
_DOTBLANK
 10
284.6432844803784
 20
-430.0
 30
0.0
 41
12.0
 42
12.0
 43
12.0
 50
270.0
  0
INSERT
  5
2036
330
2B90
100
AcDbEntity
  8
SIZE
 62
     0
100
AcDbBlockReference
  2
_DOTBLANK
 10
284.6432844803785
 20
-0.000000000000036
 30
0.0
 41
12.0
 42
12.0
 43
12.0
 50
90.0
  0
INSERT
  5
2037
330
2B90
100
AcDbEntity
  8
0
100
AcDbBlockReference
  2
*U10
 10
0.0
 20
0.0
 30
0.0
  0
POINT
  5
2038
330
2B90
100
AcDbEntity
  8
DEFPOINTS
 62
     0
100
AcDbPoint
 10
123.7000000000007
 20
-430.0
 30
0.0
  0
POINT
  5
2039
330
2B90
100
AcDbEntity
  8
DEFPOINTS
 62
     0
100
AcDbPoint
 10
157.5
 20
0.0
 30
0.0
  0
POINT
  5
203A
330
2B90
100
AcDbEntity
  8
DEFPOINTS
 62
     0
100
AcDbPoint
 10
284.6432844803785
 20
-0.000000000000036
 30
0.0
  0
ENDBLK
  5
1FEB
330
2B90
100
AcDbEntity
  8
0
100
AcDbBlockEnd
  0
BLOCK
  5
2B93
330
2B92
100
AcDbEntity
  8
0
100
AcDbBlockBegin
  2
*U10
 70
     1
 10
0.0
 20
0.0
 30
0.0
  3
*U10
  1

  0
TEXT
  5
21AA
330
2B92
100
AcDbEntity
  8
SIZE
 62
     0
100
AcDbText
 10
274.6432844803785
 20
-289.0571428571429
 30
0.0
 40
64.0
  1
430
 50
90.0
 41
0.9
100
AcDbText
  0
ENDBLK
  5
21AC
330
2B92
100
AcDbEntity
  8
0
100
AcDbBlockEnd
  0
BLOCK
  5
2B95
330
2B94
100
AcDbEntity
  8
0
100
AcDbBlockBegin
  2
*D11
 70
     1
 10
0.0
 20
0.0
 30
0.0
  3
*D11
  1

  0
LINE
  5
203B
330
2B94
100
AcDbEntity
  8
SIZE
 62
     0
100
AcDbLine
 10
-140.0
 20
32.5
 30
0.0
 11
-140.0
 21
136.4516878685499
 31
0.0
  0
LINE
  5
203C
330
2B94
100
AcDbEntity
  8
SIZE
 62
     0
100
AcDbLine
 10
140.0
 20
32.5
 30
0.0
 11
140.0
 21
136.4516878685499
 31
0.0
  0
LINE
  5
203D
330
2B94
100
AcDbEntity
  8
SIZE
 62
     0
100
AcDbLine
 10
-128.0
 20
116.4516878685499
 30
0.0
 11
128.0
 21
116.4516878685499
 31
0.0
  0
INSERT
  5
203E
330
2B94
100
AcDbEntity
  8
SIZE
 62
     0
100
AcDbBlockReference
  2
_DOTBLANK
 10
-140.0
 20
116.4516878685499
 30
0.0
 41
12.0
 42
12.0
 43
12.0
 50
180.0
  0
INSERT
  5
203F
330
2B94
100
AcDbEntity
  8
SIZE
 62
     0
100
AcDbBlockReference
  2
_DOTBLANK
 10
140.0
 20
116.4516878685499
 30
0.0
 41
12.0
 42
12.0
 43
12.0
  0
INSERT
  5
2040
330
2B94
100
AcDbEntity
  8
0
100
AcDbBlockReference
  2
*U12
 10
0.0
 20
0.0
 30
0.0
  0
POINT
  5
2041
330
2B94
100
AcDbEntity
  8
DEFPOINTS
 62
     0
100
AcDbPoint
 10
-140.0
 20
12.5
 30
0.0
  0
POINT
  5
2042
330
2B94
100
AcDbEntity
  8
DEFPOINTS
 62
     0
100
AcDbPoint
 10
140.0
 20
12.5
 30
0.0
  0
POINT
  5
2043
330
2B94
100
AcDbEntity
  8
DEFPOINTS
 62
     0
100
AcDbPoint
 10
140.0
 20
116.4516878685499
 30
0.0
  0
ENDBLK
  5
1FF7
330
2B94
100
AcDbEntity
  8
0
100
AcDbBlockEnd
  0
BLOCK
  5
2B97
330
2B96
100
AcDbEntity
  8
0
100
AcDbBlockBegin
  2
*U12
 70
     1
 10
0.0
 20
0.0
 30
0.0
  3
*U12
  1

  0
TEXT
  5
21AE
330
2B96
100
AcDbEntity
  8
SIZE
 62
     0
100
AcDbText
 10
-74.05714285714283
 20
126.4516878685499
 30
0.0
 40
64.0
  1
280
 41
0.9
100
AcDbText
  0
ENDBLK
  5
21B0
330
2B96
100
AcDbEntity
  8
0
100
AcDbBlockEnd
  0
BLOCK
  5
2B99
330
2B98
100
AcDbEntity
  8
0
100
AcDbBlockBegin
  2
*D13
 70
     1
 10
0.0
 20
0.0
 30
0.0
  3
*D13
  1

  0
LINE
  5
2044
330
2B98
100
AcDbEntity
  8
SIZE
 62
     0
100
AcDbLine
 10
-157.5
 20
20.0
 30
0.0
 11
-157.5
 21
245.5794621189598
 31
0.0
  0
LINE
  5
2045
330
2B98
100
AcDbEntity
  8
SIZE
 62
     0
100
AcDbLine
 10
157.5
 20
20.0
 30
0.0
 11
157.5
 21
245.5794621189598
 31
0.0
  0
LINE
  5
2046
330
2B98
100
AcDbEntity
  8
SIZE
 62
     0
100
AcDbLine
 10
-145.5
 20
225.5794621189598
 30
0.0
 11
145.5
 21
225.5794621189598
 31
0.0
  0
INSERT
  5
2047
330
2B98
100
AcDbEntity
  8
SIZE
 62
     0
100
AcDbBlockReference
  2
_DOTBLANK
 10
-157.5
 20
225.5794621189598
 30
0.0
 41
12.0
 42
12.0
 43
12.0
 50
180.0
  0
INSERT
  5
2048
330
2B98
100
AcDbEntity
  8
SIZE
 62
     0
100
AcDbBlockReference
  2
_DOTBLANK
 10
157.5
 20
225.5794621189598
 30
0.0
 41
12.0
 42
12.0
 43
12.0
  0
INSERT
  5
2049
330
2B98
100
AcDbEntity
  8
0
100
AcDbBlockReference
  2
*U14
 10
0.0
 20
0.0
 30
0.0
  0
POINT
  5
204A
330
2B98
100
AcDbEntity
  8
DEFPOINTS
 62
     0
100
AcDbPoint
 10
-157.5
 20
0.0
 30
0.0
  0
POINT
  5
204B
330
2B98
100
AcDbEntity
  8
DEFPOINTS
 62
     0
100
AcDbPoint
 10
157.5
 20
0.0
 30
0.0
  0
POINT
  5
204C
330
2B98
100
AcDbEntity
  8
DEFPOINTS
 62
     0
100
AcDbPoint
 10
157.5
 20
225.5794621189598
 30
0.0
  0
ENDBLK
  5
2003
330
2B98
100
AcDbEntity
  8
0
100
AcDbBlockEnd
  0
BLOCK
  5
2B9B
330
2B9A
100
AcDbEntity
  8
0
100
AcDbBlockBegin
  2
*U14
 70
     1
 10
0.0
 20
0.0
 30
0.0
  3
*U14
  1

  0
TEXT
  5
21B2
330
2B9A
100
AcDbEntity
  8
SIZE
 62
     0
100
AcDbText
 10
-68.57142857142857
 20
235.5794621189598
 30
0.0
 40
64.0
  1
315
 41
0.9
100
AcDbText
  0
ENDBLK
  5
21B4
330
2B9A
100
AcDbEntity
  8
0
100
AcDbBlockEnd
  0
BLOCK
  5
2B9D
330
2B9C
100
AcDbEntity
  8
0
100
AcDbBlockBegin
  2
*D15
 70
     1
 10
0.0
 20
0.0
 30
0.0
  3
*D15
  1

  0
LINE
  5
204D
330
2B9C
100
AcDbEntity
  8
SIZE
 62
     0
100
AcDbLine
 10
-177.5
 20
0.0000000000000057
 30
0.0
 11
-219.7694545525301
 21
0.0000000000000176
 31
0.0
  0
LINE
  5
204E
330
2B9C
100
AcDbEntity
  8
SIZE
 62
     0
100
AcDbLine
 10
-177.5
 20
-7.999999999999992
 30
0.0
 11
-219.7694545525301
 21
-7.999999999999982
 31
0.0
  0
LINE
  5
204F
330
2B9C
100
AcDbEntity
  8
SIZE
 62
     0
100
AcDbLine
 10
-199.76945455253
 20
12.00000000000001
 30
0.0
 11
-199.76945455253
 21
24.00000000000001
 31
0.0
  0
LINE
  5
2050
330
2B9C
100
AcDbEntity
  8
SIZE
 62
     0
100
AcDbLine
 10
-199.76945455253
 20
-19.99999999999999
 30
0.0
 11
-199.7694545525301
 21
-90.4
 31
0.0
  0
LINE
  5
2051
330
2B9C
100
AcDbEntity
  8
SIZE
 62
     0
100
AcDbLine
 10
-199.76945455253
 20
0.000000000000012
 30
0.0
 11
-199.76945455253
 21
-7.999999999999985
 31
0.0
  0
INSERT
  5
2052
330
2B9C
100
AcDbEntity
  8
SIZE
 62
     0
100
AcDbBlockReference
  2
_DOTBLANK
 10
-199.76945455253
 20
0.000000000000012
 30
0.0
 41
12.0
 42
12.0
 43
12.0
 50
270.0
  0
INSERT
  5
2053
330
2B9C
100
AcDbEntity
  8
SIZE
 62
     0
100
AcDbBlockReference
  2
_DOTBLANK
 10
-199.76945455253
 20
-7.999999999999985
 30
0.0
 41
12.0
 42
12.0
 43
12.0
 50
90.0
  0
INSERT
  5
2054
330
2B9C
100
AcDbEntity
  8
0
100
AcDbBlockReference
  2
*U16
 10
0.0
 20
0.0
 30
0.0
  0
POINT
  5
2055
330
2B9C
100
AcDbEntity
  8
DEFPOINTS
 62
     0
100
AcDbPoint
 10
-157.5
 20
0.0
 30
0.0
  0
POINT
  5
2056
330
2B9C
100
AcDbEntity
  8
DEFPOINTS
 62
     0
100
AcDbPoint
 10
-157.5
 20
-8.0
 30
0.0
  0
POINT
  5
2057
330
2B9C
100
AcDbEntity
  8
DEFPOINTS
 62
     0
100
AcDbPoint
 10
-199.76945455253
 20
-7.999999999999985
 30
0.0
  0
ENDBLK
  5
200F
330
2B9C
100
AcDbEntity
  8
0
100
AcDbBlockEnd
  0
BLOCK
  5
2B9F
330
2B9E
100
AcDbEntity
  8
0
100
AcDbBlockBegin
  2
*U16
 70
     1
 10
0.0
 20
0.0
 30
0.0
  3
*U16
  1

  0
TEXT
  5
21B6
330
2B9E
100
AcDbEntity
  8
SIZE
 62
     0
100
AcDbText
 10
-209.7694545525301
 20
-80.4
 30
0.0
 40
64.0
  1
8
 50
90.0
 41
0.9
100
AcDbText
  0
ENDBLK
  5
21B8
330
2B9E
100
AcDbEntity
  8
0
100
AcDbBlockEnd
  0
BLOCK
  5
2BA1
330
2BA0
100
AcDbEntity
  8
0
100
AcDbBlockBegin
  2
*D17
 70
     1
 10
0.0
 20
0.0
 30
0.0
  3
*D17
  1

  0
LINE
  5
2058
330
2BA0
100
AcDbEntity
  8
SIZE
 62
     0
100
AcDbLine
 10
143.7000000000007
 20
-430.0
 30
0.0
 11
304.626441221626
 21
-430.0
 31
0.0
  0
LINE
  5
2059
330
2BA0
100
AcDbEntity
  8
SIZE
 62
     0
100
AcDbLine
 10
143.1000000000022
 20
-441.0000000000001
 30
0.0
 11
304.626441221626
 21
-441.0000000000001
 31
0.0
  0
LINE
  5
205A
330
2BA0
100
AcDbEntity
  8
SIZE
 62
     0
100
AcDbLine
 10
284.626441221626
 20
-418.0
 30
0.0
 11
284.626441221626
 21
-406.0
 31
0.0
  0
LINE
  5
205B
330
2BA0
100
AcDbEntity
  8
SIZE
 62
     0
100
AcDbLine
 10
284.626441221626
 20
-453.0
 30
0.0
 11
284.626441221626
 21
-542.6000000000001
 31
0.0
  0
LINE
  5
205C
330
2BA0
100
AcDbEntity
  8
SIZE
 62
     0
100
AcDbLine
 10
284.626441221626
 20
-430.0
 30
0.0
 11
284.626441221626
 21
-441.0000000000001
 31
0.0
  0
INSERT
  5
205D
330
2BA0
100
AcDbEntity
  8
SIZE
 62
     0
100
AcDbBlockReference
  2
_DOTBLANK
 10
284.626441221626
 20
-430.0
 30
0.0
 41
12.0
 42
12.0
 43
12.0
 50
270.0
  0
INSERT
  5
205E
330
2BA0
100
AcDbEntity
  8
SIZE
 62
     0
100
AcDbBlockReference
  2
_DOTBLANK
 10
284.626441221626
 20
-441.0000000000001
 30
0.0
 41
12.0
 42
12.0
 43
12.0
 50
90.0
  0
INSERT
  5
205F
330
2BA0
100
AcDbEntity
  8
0
100
AcDbBlockReference
  2
*U18
 10
0.0
 20
0.0
 30
0.0
  0
POINT
  5
2060
330
2BA0
100
AcDbEntity
  8
DEFPOINTS
 62
     0
100
AcDbPoint
 10
123.7000000000007
 20
-430.0
 30
0.0
  0
POINT
  5
2061
330
2BA0
100
AcDbEntity
  8
DEFPOINTS
 62
     0
100
AcDbPoint
 10
123.1000000000022
 20
-441.0
 30
0.0
  0
POINT
  5
2062
330
2BA0
100
AcDbEntity
  8
DEFPOINTS
 62
     0
100
AcDbPoint
 10
284.626441221626
 20
-441.0000000000001
 30
0.0
  0
ENDBLK
  5
201D
330
2BA0
100
AcDbEntity
  8
0
100
AcDbBlockEnd
  0
BLOCK
  5
2BA3
330
2BA2
100
AcDbEntity
  8
0
100
AcDbBlockBegin
  2
*U18
 70
     1
 10
0.0
 20
0.0
 30
0.0
  3
*U18
  1

  0
TEXT
  5
21BA
330
2BA2
100
AcDbEntity
  8
SIZE
 62
     0
100
AcDbText
 10
274.6264412216261
 20
-532.6
 30
0.0
 40
64.0
  1
11
 50
90.0
 41
0.9
100
AcDbText
  0
ENDBLK
  5
21BC
330
2BA2
100
AcDbEntity
  8
0
100
AcDbBlockEnd
  0
BLOCK
  5
2BA5
330
2BA4
100
AcDbEntity
  8
0
100
AcDbBlockBegin
  2
*U19
 70
     1
 10
0.0
 20
0.0
 30
0.0
  3
*U19
  1

  0
INSERT
  5
2199
330
2BA4
100
AcDbEntity
  8
NOTE
100
AcDbBlockReference
  2
_OPEN30
 10
-140.0
 20
0.0
 30
0.0
 41
12.0
 42
12.0
 43
12.0
 50
312.6090116116894
  0
POLYLINE
  5
219A
330
2BA4
100
AcDbEntity
  8
NOTE
100
AcDb2dPolyline
 66
     1
 10
0.0
 20
0.0
 30
0.0
  0
VERTEX
  5
219B
330
219A
100
AcDbEntity
  8
NOTE
100
AcDbVertex
100
AcDb2dVertex
 10
-148.1239008361894
 20
8.831887408915473
 30
0.0
  0
VERTEX
  5
219C
330
219A
100
AcDbEntity
  8
NOTE
100
AcDbVertex
100
AcDb2dVertex
 10
-227.8693999922543
 20
95.5270950580134
 30
0.0
  0
VERTEX
  5
219D
330
219A
100
AcDbEntity
  8
NOTE
100
AcDbVertex
100
AcDb2dVertex
 10
-776.4522571351115
 20
95.5270950580134
 30
0.0
  0
SEQEND
  5
219E
330
219A
100
AcDbEntity
  8
NOTE
  0
ENDBLK
  5
21A0
330
2BA4
100
AcDbEntity
  8
0
100
AcDbBlockEnd
  0
BLOCK
  5
2BA7
330
2BA6
100
AcDbEntity
  8
0
100
AcDbBlockBegin
  2
*U20
 70
     1
 10
0.0
 20
0.0
 30
0.0
  3
*U20
  1

  0
TEXT
  5
21A2
330
2BA6
100
AcDbEntity
  8
NOTE
100
AcDbText
 10
-773.7093999922541
 20
113.5270950580134
 30
0.0
 40
64.0
  1
4×φ10取付穴
 41
0.9
100
AcDbText
  0
ENDBLK
  5
21A4
330
2BA6
100
AcDbEntity
  8
0
100
AcDbBlockEnd
  0
BLOCK
  5
2BA9
330
2BA8
100
AcDbEntity
  8
0
100
AcDbBlockBegin
  2
*U21
 70
     1
 10
0.0
 20
0.0
 30
0.0
  3
*U21
  1

  0
INSERT
  5
2586
330
2BA8
100
AcDbEntity
  8
NOTE
100
AcDbBlockReference
  2
_OPEN30
 10
-325.0
 20
0.0
 30
0.0
 41
12.0
 42
12.0
 43
12.0
 50
312.6090116116894
  0
POLYLINE
  5
2587
330
2BA8
100
AcDbEntity
  8
NOTE
100
AcDb2dPolyline
 66
     1
 10
0.0
 20
0.0
 30
0.0
  0
VERTEX
  5
2588
330
2587
100
AcDbEntity
  8
NOTE
100
AcDbVertex
100
AcDb2dVertex
 10
-333.1239008361895
 20
8.831887408915473
 30
0.0
  0
VERTEX
  5
2589
330
2587
100
AcDbEntity
  8
NOTE
100
AcDbVertex
100
AcDb2dVertex
 10
-412.8693999922543
 20
95.5270950580134
 30
0.0
  0
VERTEX
  5
258A
330
2587
100
AcDbEntity
  8
NOTE
100
AcDbVertex
100
AcDb2dVertex
 10
-961.4522571351114
 20
95.5270950580134
 30
0.0
  0
SEQEND
  5
258B
330
2587
100
AcDbEntity
  8
NOTE
  0
ENDBLK
  5
258C
330
2BA8
100
AcDbEntity
  8
0
100
AcDbBlockEnd
  0
BLOCK
  5
2BAB
330
2BAA
100
AcDbEntity
  8
0
100
AcDbBlockBegin
  2
*U22
 70
     1
 10
0.0
 20
0.0
 30
0.0
  3
*U22
  1

  0
INSERT
  5
2857
330
2BAA
100
AcDbEntity
  8
NOTE
100
AcDbBlockReference
  2
_OPEN30
 10
-325.0
 20
0.0
 30
0.0
 41
12.0
 42
12.0
 43
12.0
 50
312.6090116116894
  0
POLYLINE
  5
2858
330
2BAA
100
AcDbEntity
  8
NOTE
100
AcDb2dPolyline
 66
     1
 10
0.0
 20
0.0
 30
0.0
  0
VERTEX
  5
2859
330
2858
100
AcDbEntity
  8
NOTE
100
AcDbVertex
100
AcDb2dVertex
 10
-333.1239008361895
 20
8.831887408915473
 30
0.0
  0
VERTEX
  5
285A
330
2858
100
AcDbEntity
  8
NOTE
100
AcDbVertex
100
AcDb2dVertex
 10
-412.8693999922543
 20
95.5270950580134
 30
0.0
  0
VERTEX
  5
285B
330
2858
100
AcDbEntity
  8
NOTE
100
AcDbVertex
100
AcDb2dVertex
 10
-961.4522571351114
 20
95.5270950580134
 30
0.0
  0
SEQEND
  5
285C
330
2858
100
AcDbEntity
  8
NOTE
  0
ENDBLK
  5
285D
330
2BAA
100
AcDbEntity
  8
0
100
AcDbBlockEnd
  0
BLOCK
  5
2BAD
330
2BAC
100
AcDbEntity
  8
0
100
AcDbBlockBegin
  2
*X23
 70
     1
 10
0.0
 20
0.0
 30
0.0
  3
*X23
  1

  0
LINE
  5
2860
330
2BAC
100
AcDbEntity
  8
0
 62
     0
100
AcDbLine
 10
-298.8000000000068
 20
-852.8712180246794
 30
0.0
 11
-294.7325860243545
 21
-854.8080808012025
 31
0.0
  0
LINE
  5
2861
330
2BAC
100
AcDbEntity
  8
0
 62
     0
100
AcDbLine
 10
-298.8000000000047
 20
-842.8712662805462
 30
0.0
 11
-273.7326762873654
 21
-854.8080808012025
 31
0.0
  0
LINE
  5
2862
330
2BAC
100
AcDbEntity
  8
0
 62
     0
100
AcDbLine
 10
-298.8000000000047
 20
-832.8713145364114
 30
0.0
 11
-252.7327665503744
 21
-854.8080808012025
 31
0.0
  0
LINE
  5
2863
330
2BAC
100
AcDbEntity
  8
0
 62
     0
100
AcDbLine
 10
-298.8000000000047
 20
-822.871362792277
 30
0.0
 11
-231.7328568133871
 21
-854.8080808012008
 31
0.0
  0
LINE
  5
2864
330
2BAC
100
AcDbEntity
  8
0
 62
     0
100
AcDbLine
 10
-298.8000000000068
 20
-812.8714110481412
 30
0.0
 11
-210.7329470763961
 21
-854.8080808012008
 31
0.0
  0
LINE
  5
2865
330
2BAC
100
AcDbEntity
  8
0
 62
     0
100
AcDbLine
 10
-298.8000000000047
 20
-802.8714593040074
 30
0.0
 11
-189.7330373394034
 21
-854.8080808012008
 31
0.0
  0
LINE
  5
2866
330
2BAC
100
AcDbEntity
  8
0
 62
     0
100
AcDbLine
 10
-298.8000000000068
 20
-792.8715075598717
 30
0.0
 11
-168.7331276024142
 21
-854.8080808012008
 31
0.0
  0
LINE
  5
2867
330
2BAC
100
AcDbEntity
  8
0
 62
     0
100
AcDbLine
 10
-298.8000000000068
 20
-782.8715558157386
 30
0.0
 11
-147.7332178654233
 21
-854.8080808012025
 31
0.0
  0
LINE
  5
2868
330
2BAC
100
AcDbEntity
  8
0
 62
     0
100
AcDbLine
 10
-298.8000000000047
 20
-772.8716040716045
 30
0.0
 11
-126.7333081284305
 21
-854.8080808012025
 31
0.0
  0
LINE
  5
2869
330
2BAC
100
AcDbEntity
  8
0
 62
     0
100
AcDbLine
 10
-298.8000000000068
 20
-762.8716523274697
 30
0.0
 11
-105.7333983914414
 21
-854.8080808012016
 31
0.0
  0
LINE
  5
286A
330
2BAC
100
AcDbEntity
  8
0
 62
     0
100
AcDbLine
 10
-298.8000000000028
 20
-752.8717005833348
 30
0.0
 11
-84.73348865444673
 21
-854.8080808012016
 31
0.0
  0
LINE
  5
286B
330
2BAC
100
AcDbEntity
  8
0
 62
     0
100
AcDbLine
 10
-298.8000000000068
 20
-742.8717488392004
 30
0.0
 11
-63.73357891745762
 21
-854.8080808012016
 31
0.0
  0
LINE
  5
286C
330
2BAC
100
AcDbEntity
  8
0
 62
     0
100
AcDbLine
 10
-298.8000000000068
 20
-732.8717970950674
 30
0.0
 11
-42.73366918046849
 21
-854.8080808012032
 31
0.0
  0
LINE
  5
286D
330
2BAC
100
AcDbEntity
  8
0
 62
     0
100
AcDbLine
 10
-298.8000000000047
 20
-722.8718453509326
 30
0.0
 11
-21.7337594434739
 21
-854.8080808012032
 31
0.0
  0
LINE
  5
286E
330
2BAC
100
AcDbEntity
  8
0
 62
     0
100
AcDbLine
 10
-298.8000000000068
 20
-712.8718936067979
 30
0.0
 11
-0.7338497064847616
 21
-854.8080808012032
 31
0.0
  0
LINE
  5
286F
330
2BAC
100
AcDbEntity
  8
0
 62
     0
100
AcDbLine
 10
-298.8000000000047
 20
-702.8719418626632
 30
0.0
 11
20.26606003050438
 21
-854.8080808012016
 31
0.0
  0
LINE
  5
2870
330
2BAC
100
AcDbEntity
  8
0
 62
     0
100
AcDbLine
 10
-298.8000000000047
 20
-692.8719901185286
 30
0.0
 11
41.26596976749532
 21
-854.8080808012016
 31
0.0
  0
LINE
  5
2871
330
2BAC
100
AcDbEntity
  8
0
 62
     0
100
AcDbLine
 10
-298.8000000000068
 20
-682.8720383743938
 30
0.0
 11
62.26587950448629
 21
-854.8080808012016
 31
0.0
  0
LINE
  5
2872
330
2BAC
100
AcDbEntity
  8
0
 62
     0
100
AcDbLine
 10
-298.8000000000047
 20
-672.872086630261
 30
0.0
 11
83.26578924147725
 21
-854.8080808012032
 31
0.0
  0
LINE
  5
2873
330
2BAC
100
AcDbEntity
  8
0
 62
     0
100
AcDbLine
 10
-298.8000000000047
 20
-662.8721348861264
 30
0.0
 11
104.26569897847
 21
-854.8080808012025
 31
0.0
  0
LINE
  5
2874
330
2BAC
100
AcDbEntity
  8
0
 62
     0
100
AcDbLine
 10
-298.8000000000047
 20
-652.8721831419916
 30
0.0
 11
125.2656087154591
 21
-854.8080808012025
 31
0.0
  0
LINE
  5
2875
330
2BAC
100
AcDbEntity
  8
0
 62
     0
100
AcDbLine
 10
-298.8000000000047
 20
-642.8722313978567
 30
0.0
 11
146.2655184524501
 21
-854.8080808012025
 31
0.0
  0
LINE
  5
2876
330
2BAC
100
AcDbEntity
  8
0
 62
     0
100
AcDbLine
 10
-298.8000000000068
 20
-632.8722796537212
 30
0.0
 11
167.2654281894429
 21
-854.8080808012025
 31
0.0
  0
LINE
  5
2877
330
2BAC
100
AcDbEntity
  8
0
 62
     0
100
AcDbLine
 10
-298.8000000000068
 20
-622.8723279095884
 30
0.0
 11
188.265337926432
 21
-854.8080808012045
 31
0.0
  0
LINE
  5
2878
330
2BAC
100
AcDbEntity
  8
0
 62
     0
100
AcDbLine
 10
-298.8000000000068
 20
-612.8723761654534
 30
0.0
 11
209.2652476634248
 21
-854.8080808012045
 31
0.0
  0
LINE
  5
2879
330
2BAC
100
AcDbEntity
  8
0
 62
     0
100
AcDbLine
 10
-298.8000000000047
 20
-602.872424421319
 30
0.0
 11
230.2651574004158
 21
-854.8080808012045
 31
0.0
  0
LINE
  5
287A
330
2BAC
100
AcDbEntity
  8
0
 62
     0
100
AcDbLine
 10
-298.8000000000068
 20
-592.8724726771844
 30
0.0
 11
251.2650671374067
 21
-854.8080808012045
 31
0.0
  0
LINE
  5
287B
330
2BAC
100
AcDbEntity
  8
0
 62
     0
100
AcDbLine
 10
-298.8000000000047
 20
-582.8725209330496
 30
0.0
 11
272.2649768743961
 21
-854.8080808012025
 31
0.0
  0
LINE
  5
287C
330
2BAC
100
AcDbEntity
  8
0
 62
     0
100
AcDbLine
 10
-298.8000000000047
 20
-572.8725691889168
 30
0.0
 11
293.2648866113868
 21
-854.8080808012045
 31
0.0
  0
LINE
  5
287D
330
2BAC
100
AcDbEntity
  8
0
 62
     0
100
AcDbLine
 10
-298.8000000000068
 20
-562.872617444782
 30
0.0
 11
298.799999999992
 21
-847.4438959473856
 31
0.0
  0
LINE
  5
287E
330
2BAC
100
AcDbEntity
  8
0
 62
     0
100
AcDbLine
 10
-298.8000000000028
 20
-552.8726657006473
 30
0.0
 11
298.799999999992
 21
-837.4439442032498
 31
0.0
  0
LINE
  5
287F
330
2BAC
100
AcDbEntity
  8
0
 62
     0
100
AcDbLine
 10
-298.8000000000068
 20
-542.8727139565117
 30
0.0
 11
298.799999999992
 21
-827.4439924591147
 31
0.0
  0
LINE
  5
2880
330
2BAC
100
AcDbEntity
  8
0
 62
     0
100
AcDbLine
 10
-298.8000000000068
 20
-532.872762212377
 30
0.0
 11
298.799999999992
 21
-817.4440407149804
 31
0.0
  0
LINE
  5
2881
330
2BAC
100
AcDbEntity
  8
0
 62
     0
100
AcDbLine
 10
-298.8000000000047
 20
-522.8728104682422
 30
0.0
 11
298.7999999999938
 21
-807.4440889708457
 31
0.0
  0
LINE
  5
2882
330
2BAC
100
AcDbEntity
  8
0
 62
     0
100
AcDbLine
 10
-298.8000000000068
 20
-512.8728587241103
 30
0.0
 11
298.799999999992
 21
-797.4441372267127
 31
0.0
  0
LINE
  5
2883
330
2BAC
100
AcDbEntity
  8
0
 62
     0
100
AcDbLine
 10
-298.8000000000047
 20
-502.8729069799756
 30
0.0
 11
298.799999999992
 21
-787.4441854825778
 31
0.0
  0
LINE
  5
2884
330
2BAC
100
AcDbEntity
  8
0
 62
     0
100
AcDbLine
 10
-298.8000000000047
 20
-492.8729552358409
 30
0.0
 11
298.7999999999938
 21
-777.4442337384434
 31
0.0
  0
LINE
  5
2885
330
2BAC
100
AcDbEntity
  8
0
 62
     0
100
AcDbLine
 10
-298.8000000000068
 20
-482.8730034917062
 30
0.0
 11
298.7999999999902
 21
-767.4442819943075
 31
0.0
  0
LINE
  5
2886
330
2BAC
100
AcDbEntity
  8
0
 62
     0
100
AcDbLine
 10
-298.8000000000068
 20
-472.8730517475705
 30
0.0
 11
298.799999999992
 21
-757.4443302501739
 31
0.0
  0
LINE
  5
2887
330
2BAC
100
AcDbEntity
  8
0
 62
     0
100
AcDbLine
 10
-298.8000000000047
 20
-462.8731000034385
 30
0.0
 11
298.799999999992
 21
-747.4443785060401
 31
0.0
  0
LINE
  5
2888
330
2BAC
100
AcDbEntity
  8
0
 62
     0
100
AcDbLine
 10
-298.8000000000068
 20
-452.8731482593029
 30
0.0
 11
298.7999999999902
 21
-737.4444267619055
 31
0.0
  0
LINE
  5
2889
330
2BAC
100
AcDbEntity
  8
0
 62
     0
100
AcDbLine
 10
-298.8000000000068
 20
-442.8731965151682
 30
0.0
 11
298.799999999992
 21
-727.4444750177707
 31
0.0
  0
LINE
  5
288A
330
2BAC
100
AcDbEntity
  8
0
 62
     0
100
AcDbLine
 10
-298.8000000000047
 20
-432.8732447710335
 30
0.0
 11
298.799999999992
 21
-717.4445232736369
 31
0.0
  0
LINE
  5
288B
330
2BAC
100
AcDbEntity
  8
0
 62
     0
100
AcDbLine
 10
-298.8000000000068
 20
-422.8732930268986
 30
0.0
 11
298.799999999992
 21
-707.4445715295022
 31
0.0
  0
LINE
  5
288C
330
2BAC
100
AcDbEntity
  8
0
 62
     0
100
AcDbLine
 10
-298.8000000000047
 20
-412.873341282764
 30
0.0
 11
298.7999999999938
 21
-697.4446197853674
 31
0.0
  0
LINE
  5
288D
330
2BAC
100
AcDbEntity
  8
0
 62
     0
100
AcDbLine
 10
-298.8000000000047
 20
-402.8733895386312
 30
0.0
 11
298.799999999992
 21
-687.4446680412344
 31
0.0
  0
LINE
  5
288E
330
2BAC
100
AcDbEntity
  8
0
 62
     0
100
AcDbLine
 10
-298.8000000000068
 20
-392.8734377944966
 30
0.0
 11
298.7999999999902
 21
-677.4447162970992
 31
0.0
  0
LINE
  5
288F
330
2BAC
100
AcDbEntity
  8
0
 62
     0
100
AcDbLine
 10
-298.8000000000047
 20
-382.873486050361
 30
0.0
 11
298.7999999999938
 21
-667.4447645529652
 31
0.0
  0
LINE
  5
2890
330
2BAC
100
AcDbEntity
  8
0
 62
     0
100
AcDbLine
 10
-298.8000000000047
 20
-372.8735343062272
 30
0.0
 11
298.799999999992
 21
-657.4448128088297
 31
0.0
  0
LINE
  5
2891
330
2BAC
100
AcDbEntity
  8
0
 62
     0
100
AcDbLine
 10
-298.8000000000068
 20
-362.8735825620915
 30
0.0
 11
298.799999999992
 21
-647.444861064695
 31
0.0
  0
LINE
  5
2892
330
2BAC
100
AcDbEntity
  8
0
 62
     0
100
AcDbLine
 10
-298.8000000000047
 20
-352.8736308179588
 30
0.0
 11
298.799999999992
 21
-637.4449093205621
 31
0.0
  0
LINE
  5
2893
330
2BAC
100
AcDbEntity
  8
0
 62
     0
100
AcDbLine
 10
-298.8000000000068
 20
-342.873679073824
 30
0.0
 11
298.799999999992
 21
-627.4449575764272
 31
0.0
  0
LINE
  5
2894
330
2BAC
100
AcDbEntity
  8
0
 62
     0
100
AcDbLine
 10
-298.8000000000047
 20
-332.8737273296892
 30
0.0
 11
298.799999999992
 21
-617.4450058322927
 31
0.0
  0
LINE
  5
2895
330
2BAC
100
AcDbEntity
  8
0
 62
     0
100
AcDbLine
 10
-298.8000000000047
 20
-322.8737755855545
 30
0.0
 11
298.7999999999938
 21
-607.445054088158
 31
0.0
  0
LINE
  5
2896
330
2BAC
100
AcDbEntity
  8
0
 62
     0
100
AcDbLine
 10
-298.8000000000068
 20
-312.8738238414198
 30
0.0
 11
298.799999999992
 21
-597.4451023440233
 31
0.0
  0
LINE
  5
2897
330
2BAC
100
AcDbEntity
  8
0
 62
     0
100
AcDbLine
 10
-298.8000000000047
 20
-302.873872097287
 30
0.0
 11
298.7999999999902
 21
-587.4451505998895
 31
0.0
  0
LINE
  5
2898
330
2BAC
100
AcDbEntity
  8
0
 62
     0
100
AcDbLine
 10
-298.8000000000047
 20
-292.8739203531522
 30
0.0
 11
298.7999999999938
 21
-577.4451988557556
 31
0.0
  0
LINE
  5
2899
330
2BAC
100
AcDbEntity
  8
0
 62
     0
100
AcDbLine
 10
-298.8000000000068
 20
-282.8739686090175
 30
0.0
 11
298.7999999999902
 21
-567.4452471116201
 31
0.0
  0
LINE
  5
289A
330
2BAC
100
AcDbEntity
  8
0
 62
     0
100
AcDbLine
 10
-298.8000000000068
 20
-272.8740168648828
 30
0.0
 11
298.799999999992
 21
-557.4452953674852
 31
0.0
  0
LINE
  5
289B
330
2BAC
100
AcDbEntity
  8
0
 62
     0
100
AcDbLine
 10
-298.8000000000068
 20
-262.8740651207481
 30
0.0
 11
298.799999999992
 21
-547.4453436233507
 31
0.0
  0
LINE
  5
289C
330
2BAC
100
AcDbEntity
  8
0
 62
     0
100
AcDbLine
 10
-298.8000000000068
 20
-252.8741133766134
 30
0.0
 11
298.7999999999902
 21
-537.445391879216
 31
0.0
  0
LINE
  5
289D
330
2BAC
100
AcDbEntity
  8
0
 62
     0
100
AcDbLine
 10
-298.8000000000047
 20
-242.8741616324805
 30
0.0
 11
298.7999999999938
 21
-527.4454401350831
 31
0.0
  0
LINE
  5
289E
330
2BAC
100
AcDbEntity
  8
0
 62
     0
100
AcDbLine
 10
-298.8000000000047
 20
-232.8742098883458
 30
0.0
 11
298.799999999992
 21
-517.4454883909484
 31
0.0
  0
LINE
  5
289F
330
2BAC
100
AcDbEntity
  8
0
 62
     0
100
AcDbLine
 10
-298.8000000000047
 20
-222.8742581442111
 30
0.0
 11
298.7999999999938
 21
-507.4455366468136
 31
0.0
  0
LINE
  5
28A0
330
2BAC
100
AcDbEntity
  8
0
 62
     0
100
AcDbLine
 10
-298.8000000000047
 20
-212.8743064000764
 30
0.0
 11
298.799999999992
 21
-497.445584902679
 31
0.0
  0
LINE
  5
28A1
330
2BAC
100
AcDbEntity
  8
0
 62
     0
100
AcDbLine
 10
-298.8000000000047
 20
-202.8743546559417
 30
0.0
 11
298.799999999992
 21
-487.4456331585443
 31
0.0
  0
LINE
  5
28A2
330
2BAC
100
AcDbEntity
  8
0
 62
     0
100
AcDbLine
 10
-298.8000000000068
 20
-192.8744029118078
 30
0.0
 11
298.799999999992
 21
-477.4456814144114
 31
0.0
  0
LINE
  5
28A3
330
2BAC
100
AcDbEntity
  8
0
 62
     0
100
AcDbLine
 10
-298.8000000000047
 20
-182.8744511676731
 30
0.0
 11
298.799999999992
 21
-467.4457296702767
 31
0.0
  0
LINE
  5
28A4
330
2BAC
100
AcDbEntity
  8
0
 62
     0
100
AcDbLine
 10
-298.8000000000068
 20
-172.8744994235385
 30
0.0
 11
298.799999999992
 21
-457.4457779261418
 31
0.0
  0
LINE
  5
28A5
330
2BAC
100
AcDbEntity
  8
0
 62
     0
100
AcDbLine
 10
82.99999999999634
 20
-344.6839756116243
 30
0.0
 11
87.42973092208194
 21
-346.7933701764168
 31
0.0
  0
LINE
  5
28A6
330
2BAC
100
AcDbEntity
  8
0
 62
     0
100
AcDbLine
 10
87.42973092208194
 20
-346.7933701764168
 30
0.0
 11
298.799999999992
 21
-447.4458261820072
 31
0.0
  0
LINE
  5
28A7
330
2BAC
100
AcDbEntity
  8
0
 62
     0
100
AcDbLine
 10
-298.8000000000068
 20
-162.8745476794038
 30
0.0
 11
82.99999999999634
 21
-344.6839756116243
 31
0.0
  0
LINE
  5
28A8
330
2BAC
100
AcDbEntity
  8
0
 62
     0
100
AcDbLine
 10
82.99999999999455
 20
-334.6840238674886
 30
0.0
 11
108.4296406590729
 21
-346.7933701764168
 31
0.0
  0
LINE
  5
28A9
330
2BAC
100
AcDbEntity
  8
0
 62
     0
100
AcDbLine
 10
108.4296406590729
 20
-346.7933701764168
 30
0.0
 11
298.7999999999938
 21
-437.4458744378724
 31
0.0
  0
LINE
  5
28AA
330
2BAC
100
AcDbEntity
  8
0
 62
     0
100
AcDbLine
 10
-298.5505739620603
 20
-152.9933701764166
 30
0.0
 11
82.99999999999455
 21
-334.6840238674886
 31
0.0
  0
LINE
  5
28AB
330
2BAC
100
AcDbEntity
  8
0
 62
     0
100
AcDbLine
 10
82.99999999999455
 20
-324.6840721233557
 30
0.0
 11
129.4295503960638
 21
-346.7933701764187
 31
0.0
  0
LINE
  5
28AC
330
2BAC
100
AcDbEntity
  8
0
 62
     0
100
AcDbLine
 10
129.4295503960638
 20
-346.7933701764187
 30
0.0
 11
298.799999999992
 21
-427.4459226937397
 31
0.0
  0
LINE
  5
28AD
330
2BAC
100
AcDbEntity
  8
0
 62
     0
100
AcDbLine
 10
-277.5506642250693
 20
-152.9933701764185
 30
0.0
 11
82.99999999999455
 21
-324.6840721233557
 31
0.0
  0
LINE
  5
28AE
330
2BAC
100
AcDbEntity
  8
0
 62
     0
100
AcDbLine
 10
82.99999999999455
 20
-314.6841203792209
 30
0.0
 11
150.4294601330548
 21
-346.7933701764187
 31
0.0
  0
LINE
  5
28AF
330
2BAC
100
AcDbEntity
  8
0
 62
     0
100
AcDbLine
 10
150.4294601330548
 20
-346.7933701764187
 30
0.0
 11
298.799999999992
 21
-417.445970949605
 31
0.0
  0
LINE
  5
28B0
330
2BAC
100
AcDbEntity
  8
0
 62
     0
100
AcDbLine
 10
-256.5507544880784
 20
-152.9933701764185
 30
0.0
 11
82.99999999999455
 21
-314.6841203792209
 31
0.0
  0
LINE
  5
28B1
330
2BAC
100
AcDbEntity
  8
0
 62
     0
100
AcDbLine
 10
82.99999999999455
 20
-304.6841686350862
 30
0.0
 11
171.4293698700458
 21
-346.7933701764187
 31
0.0
  0
LINE
  5
28B2
330
2BAC
100
AcDbEntity
  8
0
 62
     0
100
AcDbLine
 10
171.4293698700458
 20
-346.7933701764187
 30
0.0
 11
298.799999999992
 21
-407.4460192054694
 31
0.0
  0
LINE
  5
28B3
330
2BAC
100
AcDbEntity
  8
0
 62
     0
100
AcDbLine
 10
-235.5508447510874
 20
-152.9933701764185
 30
0.0
 11
82.99999999999455
 21
-304.6841686350862
 31
0.0
  0
LINE
  5
28B4
330
2BAC
100
AcDbEntity
  8
0
 62
     0
100
AcDbLine
 10
82.99999999999455
 20
-294.6842168909516
 30
0.0
 11
192.4292796070367
 21
-346.7933701764187
 31
0.0
  0
LINE
  5
28B5
330
2BAC
100
AcDbEntity
  8
0
 62
     0
100
AcDbLine
 10
192.4292796070367
 20
-346.7933701764187
 30
0.0
 11
298.7999999999902
 21
-397.4460674613345
 31
0.0
  0
LINE
  5
28B6
330
2BAC
100
AcDbEntity
  8
0
 62
     0
100
AcDbLine
 10
-214.5509350140965
 20
-152.9933701764185
 30
0.0
 11
82.99999999999455
 21
-294.6842168909516
 31
0.0
  0
LINE
  5
28B7
330
2BAC
100
AcDbEntity
  8
0
 62
     0
100
AcDbLine
 10
82.99999999999455
 20
-284.6842651468169
 30
0.0
 11
213.4291893440277
 21
-346.7933701764187
 31
0.0
  0
LINE
  5
28B8
330
2BAC
100
AcDbEntity
  8
0
 62
     0
100
AcDbLine
 10
213.4291893440277
 20
-346.7933701764187
 30
0.0
 11
298.799999999992
 21
-387.4461157172
 31
0.0
  0
LINE
  5
28B9
330
2BAC
100
AcDbEntity
  8
0
 62
     0
100
AcDbLine
 10
-193.5510252771054
 20
-152.9933701764185
 30
0.0
 11
82.99999999999455
 21
-284.6842651468169
 31
0.0
  0
LINE
  5
28BA
330
2BAC
100
AcDbEntity
  8
0
 62
     0
100
AcDbLine
 10
82.99999999999634
 20
-274.6843134026823
 30
0.0
 11
234.4290990810204
 21
-346.7933701764177
 31
0.0
  0
LINE
  5
28BB
330
2BAC
100
AcDbEntity
  8
0
 62
     0
100
AcDbLine
 10
234.4290990810204
 20
-346.7933701764177
 30
0.0
 11
298.799999999992
 21
-377.4461639730653
 31
0.0
  0
LINE
  5
28BC
330
2BAC
100
AcDbEntity
  8
0
 62
     0
100
AcDbLine
 10
-172.5511155401127
 20
-152.9933701764175
 30
0.0
 11
82.99999999999634
 21
-274.6843134026823
 31
0.0
  0
LINE
  5
28BD
330
2BAC
100
AcDbEntity
  8
0
 62
     0
100
AcDbLine
 10
82.99999999999272
 20
-264.6843616585484
 30
0.0
 11
255.4290088180096
 21
-346.7933701764196
 31
0.0
  0
LINE
  5
28BE
330
2BAC
100
AcDbEntity
  8
0
 62
     0
100
AcDbLine
 10
255.4290088180096
 20
-346.7933701764196
 30
0.0
 11
298.7999999999902
 21
-367.4462122289323
 31
0.0
  0
LINE
  5
28BF
330
2BAC
100
AcDbEntity
  8
0
 62
     0
100
AcDbLine
 10
-151.5512058031272
 20
-152.9933701764185
 30
0.0
 11
82.99999999999272
 21
-264.6843616585484
 31
0.0
  0
LINE
  5
28C0
330
2BAC
100
AcDbEntity
  8
0
 62
     0
100
AcDbLine
 10
82.99999999999634
 20
-254.6844099144137
 30
0.0
 11
276.4289185550006
 21
-346.7933701764187
 31
0.0
  0
LINE
  5
28C1
330
2BAC
100
AcDbEntity
  8
0
 62
     0
100
AcDbLine
 10
276.4289185550006
 20
-346.7933701764187
 30
0.0
 11
298.7999999999938
 21
-357.4462604847977
 31
0.0
  0
LINE
  5
28C2
330
2BAC
100
AcDbEntity
  8
0
 62
     0
100
AcDbLine
 10
-130.5512960661326
 20
-152.9933701764185
 30
0.0
 11
82.99999999999634
 21
-254.6844099144137
 31
0.0
  0
LINE
  5
28C3
330
2BAC
100
AcDbEntity
  8
0
 62
     0
100
AcDbLine
 10
82.99999999999455
 20
-244.6844581702789
 30
0.0
 11
297.4288282919896
 21
-346.7933701764177
 31
0.0
  0
LINE
  5
28C4
330
2BAC
100
AcDbEntity
  8
0
 62
     0
100
AcDbLine
 10
297.4288282919896
 20
-346.7933701764177
 30
0.0
 11
298.799999999992
 21
-347.4463087406631
 31
0.0
  0
LINE
  5
28C5
330
2BAC
100
AcDbEntity
  8
0
 62
     0
100
AcDbLine
 10
-109.5513863291435
 20
-152.9933701764175
 30
0.0
 11
82.99999999999455
 21
-244.6844581702789
 31
0.0
  0
LINE
  5
28C6
330
2BAC
100
AcDbEntity
  8
0
 62
     0
100
AcDbLine
 10
82.99999999999455
 20
-234.6845064261442
 30
0.0
 11
298.7999999999956
 21
-337.4463569965301
 31
0.0
  0
LINE
  5
28C7
330
2BAC
100
AcDbEntity
  8
0
 62
     0
100
AcDbLine
 10
-88.55147659215438
 20
-152.9933701764166
 30
0.0
 11
82.99999999999455
 21
-234.6845064261442
 31
0.0
  0
LINE
  5
28C8
330
2BAC
100
AcDbEntity
  8
0
 62
     0
100
AcDbLine
 10
82.99999999999634
 20
-224.6845546820094
 30
0.0
 11
298.7999999999975
 21
-327.4464052523954
 31
0.0
  0
LINE
  5
28C9
330
2BAC
100
AcDbEntity
  8
0
 62
     0
100
AcDbLine
 10
-67.5515668551634
 20
-152.9933701764156
 30
0.0
 11
82.99999999999634
 21
-224.6845546820094
 31
0.0
  0
LINE
  5
28CA
330
2BAC
100
AcDbEntity
  8
0
 62
     0
100
AcDbLine
 10
82.99999999999455
 20
-214.6846029378767
 30
0.0
 11
298.7999999999956
 21
-317.4464535082625
 31
0.0
  0
LINE
  5
28CB
330
2BAC
100
AcDbEntity
  8
0
 62
     0
100
AcDbLine
 10
-46.55165711817242
 20
-152.9933701764175
 30
0.0
 11
82.99999999999455
 21
-214.6846029378767
 31
0.0
  0
LINE
  5
28CC
330
2BAC
100
AcDbEntity
  8
0
 62
     0
100
AcDbLine
 10
82.99999999999455
 20
-204.6846511937429
 30
0.0
 11
298.7999999999975
 21
-307.4465017641277
 31
0.0
  0
LINE
  5
28CD
330
2BAC
100
AcDbEntity
  8
0
 62
     0
100
AcDbLine
 10
-25.55174738118149
 20
-152.9933701764175
 30
0.0
 11
82.99999999999455
 21
-204.6846511937429
 31
0.0
  0
LINE
  5
28CE
330
2BAC
100
AcDbEntity
  8
0
 62
     0
100
AcDbLine
 10
82.99999999999634
 20
-194.6846994496081
 30
0.0
 11
298.7999999999975
 21
-297.4465500199931
 31
0.0
  0
LINE
  5
28CF
330
2BAC
100
AcDbEntity
  8
0
 62
     0
100
AcDbLine
 10
-4.551837644190527
 20
-152.9933701764175
 30
0.0
 11
82.99999999999634
 21
-194.6846994496081
 31
0.0
  0
LINE
  5
28D0
330
2BAC
100
AcDbEntity
  8
0
 62
     0
100
AcDbLine
 10
82.99999999999455
 20
-184.6847477054734
 30
0.0
 11
298.7999999999956
 21
-287.4465982758584
 31
0.0
  0
LINE
  5
28D1
330
2BAC
100
AcDbEntity
  8
0
 62
     0
100
AcDbLine
 10
16.44807209280043
 20
-152.9933701764175
 30
0.0
 11
82.99999999999455
 21
-184.6847477054734
 31
0.0
  0
LINE
  5
28D2
330
2BAC
100
AcDbEntity
  8
0
 62
     0
100
AcDbLine
 10
82.99999999999455
 20
-174.6847959613378
 30
0.0
 11
298.7999999999975
 21
-277.4466465317237
 31
0.0
  0
LINE
  5
28D3
330
2BAC
100
AcDbEntity
  8
0
 62
     0
100
AcDbLine
 10
37.44798182979137
 20
-152.9933701764175
 30
0.0
 11
82.99999999999455
 21
-174.6847959613378
 31
0.0
  0
LINE
  5
28D4
330
2BAC
100
AcDbEntity
  8
0
 62
     0
100
AcDbLine
 10
82.99999999999455
 20
-164.6848442172031
 30
0.0
 11
298.7999999999975
 21
-267.446694787589
 31
0.0
  0
LINE
  5
28D5
330
2BAC
100
AcDbEntity
  8
0
 62
     0
100
AcDbLine
 10
58.44789156678415
 20
-152.9933701764175
 30
0.0
 11
82.99999999999455
 21
-164.6848442172031
 31
0.0
  0
LINE
  5
28D6
330
2BAC
100
AcDbEntity
  8
0
 62
     0
100
AcDbLine
 10
82.99999999999455
 20
-154.6848924730702
 30
0.0
 11
298.7999999999956
 21
-257.4467430434552
 31
0.0
  0
LINE
  5
28D7
330
2BAC
100
AcDbEntity
  8
0
 62
     0
100
AcDbLine
 10
79.4478013037733
 20
-152.9933701764194
 30
0.0
 11
82.99999999999455
 21
-154.6848924730702
 31
0.0
  0
LINE
  5
28D8
330
2BAC
100
AcDbEntity
  8
0
 62
     0
100
AcDbLine
 10
100.4477110407642
 20
-152.9933701764185
 30
0.0
 11
298.7999999999956
 21
-247.4467912993204
 31
0.0
  0
LINE
  5
28D9
330
2BAC
100
AcDbEntity
  8
0
 62
     0
100
AcDbLine
 10
121.4476207777534
 20
-152.9933701764175
 30
0.0
 11
298.7999999999956
 21
-237.4468395551857
 31
0.0
  0
LINE
  5
28DA
330
2BAC
100
AcDbEntity
  8
0
 62
     0
100
AcDbLine
 10
142.4475305147443
 20
-152.9933701764166
 30
0.0
 11
298.7999999999956
 21
-227.4468878110512
 31
0.0
  0
LINE
  5
28DB
330
2BAC
100
AcDbEntity
  8
0
 62
     0
100
AcDbLine
 10
163.4474402517335
 20
-152.9933701764156
 30
0.0
 11
298.7999999999975
 21
-217.4469360669164
 31
0.0
  0
LINE
  5
28DC
330
2BAC
100
AcDbEntity
  8
0
 62
     0
100
AcDbLine
 10
184.4473499887244
 20
-152.9933701764175
 30
0.0
 11
298.7999999999975
 21
-207.4469843227845
 31
0.0
  0
LINE
  5
28DD
330
2BAC
100
AcDbEntity
  8
0
 62
     0
100
AcDbLine
 10
205.4472597257136
 20
-152.9933701764166
 30
0.0
 11
298.7999999999956
 21
-197.4470325786496
 31
0.0
  0
LINE
  5
28DE
330
2BAC
100
AcDbEntity
  8
0
 62
     0
100
AcDbLine
 10
226.4471694627064
 20
-152.9933701764166
 30
0.0
 11
298.7999999999975
 21
-187.4470808345149
 31
0.0
  0
LINE
  5
28DF
330
2BAC
100
AcDbEntity
  8
0
 62
     0
100
AcDbLine
 10
247.4470791996973
 20
-152.9933701764166
 30
0.0
 11
298.7999999999975
 21
-177.4471290903802
 31
0.0
  0
LINE
  5
28E0
330
2BAC
100
AcDbEntity
  8
0
 62
     0
100
AcDbLine
 10
268.4469889366883
 20
-152.9933701764166
 30
0.0
 11
298.7999999999975
 21
-167.4471773462455
 31
0.0
  0
LINE
  5
28E1
330
2BAC
100
AcDbEntity
  8
0
 62
     0
100
AcDbLine
 10
289.4468986736811
 20
-152.9933701764185
 30
0.0
 11
298.7999999999975
 21
-157.4472256021117
 31
0.0
  0
ENDBLK
  5
28E2
330
2BAC
100
AcDbEntity
  8
0
100
AcDbBlockEnd
  0
BLOCK
  5
2BAF
330
2BAE
100
AcDbEntity
  8
0
100
AcDbBlockBegin
  2
*X24
 70
     1
 10
0.0
 20
0.0
 30
0.0
  3
*X24
  1

  0
LINE
  5
28E5
330
2BAE
100
AcDbEntity
  8
0
 62
     0
100
AcDbLine
 10
292.3771001863606
 20
-854.8080808012016
 30
0.0
 11
298.8000000000028
 21
-851.7495586933344
 31
0.0
  0
LINE
  5
28E6
330
2BAE
100
AcDbEntity
  8
0
 62
     0
100
AcDbLine
 10
271.3771904493733
 20
-854.8080808012025
 30
0.0
 11
298.8000000000028
 21
-841.7496069492019
 31
0.0
  0
LINE
  5
28E7
330
2BAE
100
AcDbEntity
  8
0
 62
     0
100
AcDbLine
 10
250.3772807123787
 20
-854.8080808012032
 30
0.0
 11
298.7999999999956
 21
-831.7496552050688
 31
0.0
  0
LINE
  5
28E8
330
2BAE
100
AcDbEntity
  8
0
 62
     0
100
AcDbLine
 10
229.3773709753878
 20
-854.8080808012032
 30
0.0
 11
298.7999999999992
 21
-821.7497034609332
 31
0.0
  0
LINE
  5
28E9
330
2BAE
100
AcDbEntity
  8
0
 62
     0
100
AcDbLine
 10
208.3774612384004
 20
-854.8080808012016
 30
0.0
 11
298.8000000000028
 21
-811.7497517167976
 31
0.0
  0
LINE
  5
28EA
330
2BAE
100
AcDbEntity
  8
0
 62
     0
100
AcDbLine
 10
187.3775515014131
 20
-854.8080808011999
 30
0.0
 11
298.7999999999992
 21
-801.7497999726638
 31
0.0
  0
LINE
  5
28EB
330
2BAE
100
AcDbEntity
  8
0
 62
     0
100
AcDbLine
 10
166.3776417644221
 20
-854.8080808012008
 30
0.0
 11
298.7999999999992
 21
-791.749848228529
 31
0.0
  0
LINE
  5
28EC
330
2BAE
100
AcDbEntity
  8
0
 62
     0
100
AcDbLine
 10
145.3777320274312
 20
-854.8080808012008
 30
0.0
 11
298.7999999999992
 21
-781.7498964843954
 31
0.0
  0
LINE
  5
28ED
330
2BAE
100
AcDbEntity
  8
0
 62
     0
100
AcDbLine
 10
124.3778222904366
 20
-854.8080808012016
 30
0.0
 11
298.7999999999992
 21
-771.7499447402606
 31
0.0
  0
LINE
  5
28EE
330
2BAE
100
AcDbEntity
  8
0
 62
     0
100
AcDbLine
 10
103.3779125534529
 20
-854.8080808011999
 30
0.0
 11
298.7999999999992
 21
-761.7499929961267
 31
0.0
  0
LINE
  5
28EF
330
2BAE
100
AcDbEntity
  8
0
 62
     0
100
AcDbLine
 10
82.3780028164583
 20
-854.8080808011999
 30
0.0
 11
298.7999999999992
 21
-751.7500412519914
 31
0.0
  0
LINE
  5
28F0
330
2BAE
100
AcDbEntity
  8
0
 62
     0
100
AcDbLine
 10
61.37809307946736
 20
-854.8080808011999
 30
0.0
 11
298.7999999999992
 21
-741.7500895078553
 31
0.0
  0
LINE
  5
28F1
330
2BAE
100
AcDbEntity
  8
0
 62
     0
100
AcDbLine
 10
40.37818334248004
 20
-854.8080808012008
 30
0.0
 11
298.7999999999992
 21
-731.7501377637227
 31
0.0
  0
LINE
  5
28F2
330
2BAE
100
AcDbEntity
  8
0
 62
     0
100
AcDbLine
 10
19.37827360548545
 20
-854.8080808012016
 30
0.0
 11
298.7999999999992
 21
-721.750186019588
 31
0.0
  0
LINE
  5
28F3
330
2BAE
100
AcDbEntity
  8
0
 62
     0
100
AcDbLine
 10
-1.621636131505511
 20
-854.8080808012016
 30
0.0
 11
298.7999999999992
 21
-711.7502342754542
 31
0.0
  0
LINE
  5
28F4
330
2BAE
100
AcDbEntity
  8
0
 62
     0
100
AcDbLine
 10
-22.62154586849647
 20
-854.8080808012016
 30
0.0
 11
298.8000000000028
 21
-701.7502825313185
 31
0.0
  0
LINE
  5
28F5
330
2BAE
100
AcDbEntity
  8
0
 62
     0
100
AcDbLine
 10
-43.62145560548738
 20
-854.8080808012016
 30
0.0
 11
298.7999999999956
 21
-691.7503307871847
 31
0.0
  0
LINE
  5
28F6
330
2BAE
100
AcDbEntity
  8
0
 62
     0
100
AcDbLine
 10
-64.62136534247838
 20
-854.8080808012025
 30
0.0
 11
298.7999999999992
 21
-681.75037904305
 31
0.0
  0
LINE
  5
28F7
330
2BAE
100
AcDbEntity
  8
0
 62
     0
100
AcDbLine
 10
-85.62127507946206
 20
-854.8080808011999
 30
0.0
 11
298.8000000000028
 21
-671.7504272989152
 31
0.0
  0
LINE
  5
28F8
330
2BAE
100
AcDbEntity
  8
0
 62
     0
100
AcDbLine
 10
-106.6211848164566
 20
-854.8080808011999
 30
0.0
 11
298.7999999999992
 21
-661.7504755547813
 31
0.0
  0
LINE
  5
28F9
330
2BAE
100
AcDbEntity
  8
0
 62
     0
100
AcDbLine
 10
-127.621094553444
 20
-854.8080808011999
 30
0.0
 11
298.8000000000028
 21
-651.7505238106457
 31
0.0
  0
LINE
  5
28FA
330
2BAE
100
AcDbEntity
  8
0
 62
     0
100
AcDbLine
 10
-148.6210042904349
 20
-854.8080808011999
 30
0.0
 11
298.7999999999992
 21
-641.7505720665121
 31
0.0
  0
LINE
  5
28FB
330
2BAE
100
AcDbEntity
  8
0
 62
     0
100
AcDbLine
 10
-169.6209140274295
 20
-854.8080808012008
 30
0.0
 11
298.7999999999992
 21
-631.7506203223772
 31
0.0
  0
LINE
  5
28FC
330
2BAE
100
AcDbEntity
  8
0
 62
     0
100
AcDbLine
 10
-190.6208237644168
 20
-854.8080808011992
 30
0.0
 11
298.7999999999992
 21
-621.7506685782437
 31
0.0
  0
LINE
  5
28FD
330
2BAE
100
AcDbEntity
  8
0
 62
     0
100
AcDbLine
 10
-211.6207335014078
 20
-854.8080808011999
 30
0.0
 11
298.8000000000028
 21
-611.750716834109
 31
0.0
  0
LINE
  5
28FE
330
2BAE
100
AcDbEntity
  8
0
 62
     0
100
AcDbLine
 10
-232.6206432384024
 20
-854.8080808011999
 30
0.0
 11
298.8000000000028
 21
-601.7507650899752
 31
0.0
  0
LINE
  5
28FF
330
2BAE
100
AcDbEntity
  8
0
 62
     0
100
AcDbLine
 10
-253.6205529753934
 20
-854.8080808011999
 30
0.0
 11
298.8000000000028
 21
-591.7508133458396
 31
0.0
  0
LINE
  5
2900
330
2BAE
100
AcDbEntity
  8
0
 62
     0
100
AcDbLine
 10
-274.6204627123843
 20
-854.8080808011999
 30
0.0
 11
298.8000000000028
 21
-581.7508616017041
 31
0.0
  0
LINE
  5
2901
330
2BAE
100
AcDbEntity
  8
0
 62
     0
100
AcDbLine
 10
-295.6203724493753
 20
-854.8080808012008
 30
0.0
 11
298.8000000000028
 21
-571.750909857571
 31
0.0
  0
LINE
  5
2902
330
2BAE
100
AcDbEntity
  8
0
 62
     0
100
AcDbLine
 10
-298.7999999999956
 20
-846.3222366160406
 30
0.0
 11
298.8000000000068
 21
-561.7509581134362
 31
0.0
  0
LINE
  5
2903
330
2BAE
100
AcDbEntity
  8
0
 62
     0
100
AcDbLine
 10
-298.7999999999992
 20
-836.3222848719066
 30
0.0
 11
298.8000000000028
 21
-551.7510063693022
 31
0.0
  0
LINE
  5
2904
330
2BAE
100
AcDbEntity
  8
0
 62
     0
100
AcDbLine
 10
-298.7999999999992
 20
-826.3223331277732
 30
0.0
 11
298.8000000000028
 21
-541.7510546251668
 31
0.0
  0
LINE
  5
2905
330
2BAE
100
AcDbEntity
  8
0
 62
     0
100
AcDbLine
 10
-298.7999999999956
 20
-816.3223813836376
 30
0.0
 11
298.8000000000028
 21
-531.7511028810331
 31
0.0
  0
LINE
  5
2906
330
2BAE
100
AcDbEntity
  8
0
 62
     0
100
AcDbLine
 10
-298.7999999999992
 20
-806.3224296395047
 30
0.0
 11
298.8000000000028
 21
-521.7511511368983
 31
0.0
  0
LINE
  5
2907
330
2BAE
100
AcDbEntity
  8
0
 62
     0
100
AcDbLine
 10
-298.7999999999956
 20
-796.3224778953697
 30
0.0
 11
298.8000000000068
 21
-511.7511993927634
 31
0.0
  0
LINE
  5
2908
330
2BAE
100
AcDbEntity
  8
0
 62
     0
100
AcDbLine
 10
-298.7999999999992
 20
-786.3225261512358
 30
0.0
 11
298.8000000000028
 21
-501.7512476486296
 31
0.0
  0
LINE
  5
2909
330
2BAE
100
AcDbEntity
  8
0
 62
     0
100
AcDbLine
 10
-298.7999999999992
 20
-776.3225744071005
 30
0.0
 11
298.8000000000028
 21
-491.7512959044943
 31
0.0
  0
LINE
  5
290A
330
2BAE
100
AcDbEntity
  8
0
 62
     0
100
AcDbLine
 10
-298.7999999999992
 20
-766.3226226629667
 30
0.0
 11
298.8000000000028
 21
-481.7513441603605
 31
0.0
  0
LINE
  5
290B
330
2BAE
100
AcDbEntity
  8
0
 62
     0
100
AcDbLine
 10
-298.7999999999956
 20
-756.3226709188319
 30
0.0
 11
298.8000000000068
 21
-471.7513924162256
 31
0.0
  0
LINE
  5
290C
330
2BAE
100
AcDbEntity
  8
0
 62
     0
100
AcDbLine
 10
-298.7999999999992
 20
-746.3227191746972
 30
0.0
 11
298.8000000000028
 21
-461.7514406720927
 31
0.0
  0
LINE
  5
290D
330
2BAE
100
AcDbEntity
  8
0
 62
     0
100
AcDbLine
 10
-298.7999999999992
 20
-736.3227674305635
 30
0.0
 11
298.8000000000028
 21
-451.7514889279572
 31
0.0
  0
LINE
  5
290E
330
2BAE
100
AcDbEntity
  8
0
 62
     0
100
AcDbLine
 10
-298.7999999999956
 20
-726.3228156864279
 30
0.0
 11
298.8000000000028
 21
-441.7515371838232
 31
0.0
  0
LINE
  5
290F
330
2BAE
100
AcDbEntity
  8
0
 62
     0
100
AcDbLine
 10
-298.7999999999992
 20
-716.3228639422941
 30
0.0
 11
298.8000000000028
 21
-431.7515854396878
 31
0.0
  0
LINE
  5
2910
330
2BAE
100
AcDbEntity
  8
0
 62
     0
100
AcDbLine
 10
-298.7999999999956
 20
-706.3229121981592
 30
0.0
 11
298.8000000000068
 21
-421.7516336955531
 31
0.0
  0
LINE
  5
2911
330
2BAE
100
AcDbEntity
  8
0
 62
     0
100
AcDbLine
 10
-298.7999999999992
 20
-696.3229604540255
 30
0.0
 11
298.8000000000028
 21
-411.7516819514192
 31
0.0
  0
LINE
  5
2912
330
2BAE
100
AcDbEntity
  8
0
 62
     0
100
AcDbLine
 10
-298.7999999999992
 20
-686.3230087098909
 30
0.0
 11
298.8000000000028
 21
-401.7517302072847
 31
0.0
  0
LINE
  5
2913
330
2BAE
100
AcDbEntity
  8
0
 62
     0
100
AcDbLine
 10
-298.7999999999992
 20
-676.3230569657571
 30
0.0
 11
298.8000000000028
 21
-391.7517784631509
 31
0.0
  0
LINE
  5
2914
330
2BAE
100
AcDbEntity
  8
0
 62
     0
100
AcDbLine
 10
-298.7999999999992
 20
-666.3231052216215
 30
0.0
 11
298.8000000000028
 21
-381.7518267190154
 31
0.0
  0
LINE
  5
2915
330
2BAE
100
AcDbEntity
  8
0
 62
     0
100
AcDbLine
 10
-298.7999999999956
 20
-656.3231534774859
 30
0.0
 11
298.8000000000028
 21
-371.7518749748815
 31
0.0
  0
LINE
  5
2916
330
2BAE
100
AcDbEntity
  8
0
 62
     0
100
AcDbLine
 10
-298.7999999999956
 20
-646.323201733353
 30
0.0
 11
298.8000000000068
 21
-361.7519232307468
 31
0.0
  0
LINE
  5
2917
330
2BAE
100
AcDbEntity
  8
0
 62
     0
100
AcDbLine
 10
-298.7999999999992
 20
-636.3232499892184
 30
0.0
 11
298.7999999999992
 21
-351.7519714866139
 31
0.0
  0
LINE
  5
2918
330
2BAE
100
AcDbEntity
  8
0
 62
     0
100
AcDbLine
 10
288.2131585057614
 20
-346.7933701764177
 30
0.0
 11
298.8000000000028
 21
-341.7520197424783
 31
0.0
  0
LINE
  5
2919
330
2BAE
100
AcDbEntity
  8
0
 62
     0
100
AcDbLine
 10
-298.7999999999992
 20
-626.3232982450845
 30
0.0
 11
288.2131585057614
 21
-346.7933701764177
 31
0.0
  0
LINE
  5
291A
330
2BAE
100
AcDbEntity
  8
0
 62
     0
100
AcDbLine
 10
267.2132487687704
 20
-346.7933701764159
 30
0.0
 11
298.8000000000068
 21
-331.7520679983427
 31
0.0
  0
LINE
  5
291B
330
2BAE
100
AcDbEntity
  8
0
 62
     0
100
AcDbLine
 10
-298.7999999999956
 20
-616.3233465009489
 30
0.0
 11
267.2132487687704
 21
-346.7933701764159
 31
0.0
  0
LINE
  5
291C
330
2BAE
100
AcDbEntity
  8
0
 62
     0
100
AcDbLine
 10
246.2133390317758
 20
-346.7933701764159
 30
0.0
 11
298.8000000000028
 21
-321.7521162542089
 31
0.0
  0
LINE
  5
291D
330
2BAE
100
AcDbEntity
  8
0
 62
     0
100
AcDbLine
 10
-298.7999999999992
 20
-606.3233947568151
 30
0.0
 11
246.2133390317758
 21
-346.7933701764159
 31
0.0
  0
LINE
  5
291E
330
2BAE
100
AcDbEntity
  8
0
 62
     0
100
AcDbLine
 10
225.2134292947849
 20
-346.7933701764168
 30
0.0
 11
298.8000000000068
 21
-311.7521645100742
 31
0.0
  0
LINE
  5
291F
330
2BAE
100
AcDbEntity
  8
0
 62
     0
100
AcDbLine
 10
-298.7999999999992
 20
-596.3234430126804
 30
0.0
 11
225.2134292947849
 21
-346.7933701764168
 31
0.0
  0
LINE
  5
2920
330
2BAE
100
AcDbEntity
  8
0
 62
     0
100
AcDbLine
 10
204.2135195577976
 20
-346.7933701764177
 30
0.0
 11
298.8000000000028
 21
-301.7522127659412
 31
0.0
  0
LINE
  5
2921
330
2BAE
100
AcDbEntity
  8
0
 62
     0
100
AcDbLine
 10
-298.7999999999992
 20
-586.3234912685475
 30
0.0
 11
204.2135195577976
 21
-346.7933701764177
 31
0.0
  0
LINE
  5
2922
330
2BAE
100
AcDbEntity
  8
0
 62
     0
100
AcDbLine
 10
183.2136098208064
 20
-346.7933701764159
 30
0.0
 11
298.8000000000028
 21
-291.7522610218057
 31
0.0
  0
LINE
  5
2923
330
2BAE
100
AcDbEntity
  8
0
 62
     0
100
AcDbLine
 10
-298.7999999999992
 20
-576.3235395244119
 30
0.0
 11
183.2136098208064
 21
-346.7933701764159
 31
0.0
  0
LINE
  5
2924
330
2BAE
100
AcDbEntity
  8
0
 62
     0
100
AcDbLine
 10
162.2137000838156
 20
-346.7933701764159
 30
0.0
 11
298.8000000000028
 21
-281.7523092776719
 31
0.0
  0
LINE
  5
2925
330
2BAE
100
AcDbEntity
  8
0
 62
     0
100
AcDbLine
 10
-298.7999999999956
 20
-566.3235877802763
 30
0.0
 11
162.2137000838156
 21
-346.7933701764159
 31
0.0
  0
LINE
  5
2926
330
2BAE
100
AcDbEntity
  8
0
 62
     0
100
AcDbLine
 10
141.2137903468247
 20
-346.7933701764159
 30
0.0
 11
298.8000000000068
 21
-271.7523575335365
 31
0.0
  0
LINE
  5
2927
330
2BAE
100
AcDbEntity
  8
0
 62
     0
100
AcDbLine
 10
-298.7999999999956
 20
-556.3236360361424
 30
0.0
 11
141.2137903468247
 21
-346.7933701764159
 31
0.0
  0
LINE
  5
2928
330
2BAE
100
AcDbEntity
  8
0
 62
     0
100
AcDbLine
 10
120.2138806098337
 20
-346.7933701764168
 30
0.0
 11
298.8000000000028
 21
-261.7524057894034
 31
0.0
  0
LINE
  5
2929
330
2BAE
100
AcDbEntity
  8
0
 62
     0
100
AcDbLine
 10
-298.7999999999992
 20
-546.3236842920077
 30
0.0
 11
120.2138806098337
 21
-346.7933701764168
 31
0.0
  0
LINE
  5
292A
330
2BAE
100
AcDbEntity
  8
0
 62
     0
100
AcDbLine
 10
99.21397087284276
 20
-346.7933701764168
 30
0.0
 11
298.8000000000028
 21
-251.7524540452678
 31
0.0
  0
LINE
  5
292B
330
2BAE
100
AcDbEntity
  8
0
 62
     0
100
AcDbLine
 10
-298.7999999999992
 20
-536.3237325478736
 30
0.0
 11
99.21397087284276
 21
-346.7933701764168
 31
0.0
  0
LINE
  5
292C
330
2BAE
100
AcDbEntity
  8
0
 62
     0
100
AcDbLine
 10
83.0
 20
-344.5143528715216
 30
0.0
 11
298.7999999999956
 21
-241.7525023011367
 31
0.0
  0
LINE
  5
292D
330
2BAE
100
AcDbEntity
  8
0
 62
     0
100
AcDbLine
 10
-298.7999999999992
 20
-526.323780803739
 30
0.0
 11
83.0
 21
-344.5143528715216
 31
0.0
  0
LINE
  5
292E
330
2BAE
100
AcDbEntity
  8
0
 62
     0
100
AcDbLine
 10
83.0
 20
-334.514401127386
 30
0.0
 11
298.7999999999992
 21
-231.7525505570011
 31
0.0
  0
LINE
  5
292F
330
2BAE
100
AcDbEntity
  8
0
 62
     0
100
AcDbLine
 10
-298.7999999999992
 20
-516.3238290596051
 30
0.0
 11
83.0
 21
-334.514401127386
 31
0.0
  0
LINE
  5
2930
330
2BAE
100
AcDbEntity
  8
0
 62
     0
100
AcDbLine
 10
83.00000000000364
 20
-324.5144493832504
 30
0.0
 11
298.8000000000028
 21
-221.7525988128655
 31
0.0
  0
LINE
  5
2931
330
2BAE
100
AcDbEntity
  8
0
 62
     0
100
AcDbLine
 10
-298.7999999999956
 20
-506.3238773154695
 30
0.0
 11
83.00000000000364
 21
-324.5144493832504
 31
0.0
  0
LINE
  5
2932
330
2BAE
100
AcDbEntity
  8
0
 62
     0
100
AcDbLine
 10
83.0
 20
-314.5144976391168
 30
0.0
 11
298.7999999999992
 21
-211.7526470687317
 31
0.0
  0
LINE
  5
2933
330
2BAE
100
AcDbEntity
  8
0
 62
     0
100
AcDbLine
 10
-298.8000000000028
 20
-496.3239255713359
 30
0.0
 11
83.0
 21
-314.5144976391168
 31
0.0
  0
LINE
  5
2934
330
2BAE
100
AcDbEntity
  8
0
 62
     0
100
AcDbLine
 10
83.00000000000364
 20
-304.5145458949819
 30
0.0
 11
298.7999999999992
 21
-201.752695324597
 31
0.0
  0
LINE
  5
2935
330
2BAE
100
AcDbEntity
  8
0
 62
     0
100
AcDbLine
 10
-298.7999999999992
 20
-486.3239738272011
 30
0.0
 11
83.00000000000364
 21
-304.5145458949819
 31
0.0
  0
LINE
  5
2936
330
2BAE
100
AcDbEntity
  8
0
 62
     0
100
AcDbLine
 10
83.00000000000364
 20
-294.514594150849
 30
0.0
 11
298.7999999999992
 21
-191.7527435804641
 31
0.0
  0
LINE
  5
2937
330
2BAE
100
AcDbEntity
  8
0
 62
     0
100
AcDbLine
 10
-298.7999999999956
 20
-476.3240220830665
 30
0.0
 11
83.00000000000364
 21
-294.514594150849
 31
0.0
  0
LINE
  5
2938
330
2BAE
100
AcDbEntity
  8
0
 62
     0
100
AcDbLine
 10
83.0
 20
-284.5146424067134
 30
0.0
 11
298.7999999999992
 21
-181.7527918363284
 31
0.0
  0
LINE
  5
2939
330
2BAE
100
AcDbEntity
  8
0
 62
     0
100
AcDbLine
 10
-298.7999999999992
 20
-466.3240703389329
 30
0.0
 11
83.0
 21
-284.5146424067134
 31
0.0
  0
LINE
  5
293A
330
2BAE
100
AcDbEntity
  8
0
 62
     0
100
AcDbLine
 10
83.0
 20
-274.5146906625796
 30
0.0
 11
298.7999999999992
 21
-171.7528400921946
 31
0.0
  0
LINE
  5
293B
330
2BAE
100
AcDbEntity
  8
0
 62
     0
100
AcDbLine
 10
-298.7999999999956
 20
-456.3241185947972
 30
0.0
 11
83.0
 21
-274.5146906625796
 31
0.0
  0
LINE
  5
293C
330
2BAE
100
AcDbEntity
  8
0
 62
     0
100
AcDbLine
 10
83.00000000000364
 20
-264.514738918444
 30
0.0
 11
298.8000000000028
 21
-161.752888348059
 31
0.0
  0
LINE
  5
293D
330
2BAE
100
AcDbEntity
  8
0
 62
     0
100
AcDbLine
 10
-298.7999999999992
 20
-446.3241668506634
 30
0.0
 11
83.00000000000364
 21
-264.514738918444
 31
0.0
  0
LINE
  5
293E
330
2BAE
100
AcDbEntity
  8
0
 62
     0
100
AcDbLine
 10
83.00000000000364
 20
-254.5147871743093
 30
0.0
 11
296.19508812407
 21
-152.9933701764156
 31
0.0
  0
LINE
  5
293F
330
2BAE
100
AcDbEntity
  8
0
 62
     0
100
AcDbLine
 10
-298.7999999999992
 20
-436.3242151065287
 30
0.0
 11
83.00000000000364
 21
-254.5147871743093
 31
0.0
  0
LINE
  5
2940
330
2BAE
100
AcDbEntity
  8
0
 62
     0
100
AcDbLine
 10
83.00000000000364
 20
-244.5148354301764
 30
0.0
 11
275.195178387079
 21
-152.9933701764166
 31
0.0
  0
LINE
  5
2941
330
2BAE
100
AcDbEntity
  8
0
 62
     0
100
AcDbLine
 10
-298.7999999999992
 20
-426.3242633623956
 30
0.0
 11
83.00000000000364
 21
-244.5148354301764
 31
0.0
  0
LINE
  5
2942
330
2BAE
100
AcDbEntity
  8
0
 62
     0
100
AcDbLine
 10
83.00000000000364
 20
-234.5148836860408
 30
0.0
 11
254.1952686500918
 21
-152.9933701764166
 31
0.0
  0
LINE
  5
2943
330
2BAE
100
AcDbEntity
  8
0
 62
     0
100
AcDbLine
 10
-298.7999999999956
 20
-416.32431161826
 30
0.0
 11
83.00000000000364
 21
-234.5148836860408
 31
0.0
  0
LINE
  5
2944
330
2BAE
100
AcDbEntity
  8
0
 62
     0
100
AcDbLine
 10
83.0
 20
-224.514931941907
 30
0.0
 11
233.1953589130971
 21
-152.9933701764166
 31
0.0
  0
LINE
  5
2945
330
2BAE
100
AcDbEntity
  8
0
 62
     0
100
AcDbLine
 10
-298.7999999999992
 20
-406.3243598741262
 30
0.0
 11
83.0
 21
-224.514931941907
 31
0.0
  0
LINE
  5
2946
330
2BAE
100
AcDbEntity
  8
0
 62
     0
100
AcDbLine
 10
83.00000000000364
 20
-214.5149801977713
 30
0.0
 11
212.1954491761061
 21
-152.9933701764166
 31
0.0
  0
LINE
  5
2947
330
2BAE
100
AcDbEntity
  8
0
 62
     0
100
AcDbLine
 10
-298.7999999999992
 20
-396.3244081299908
 30
0.0
 11
83.00000000000364
 21
-214.5149801977713
 31
0.0
  0
LINE
  5
2948
330
2BAE
100
AcDbEntity
  8
0
 62
     0
100
AcDbLine
 10
83.00000000000364
 20
-204.5150284536385
 30
0.0
 11
191.1955394391189
 21
-152.9933701764175
 31
0.0
  0
LINE
  5
2949
330
2BAE
100
AcDbEntity
  8
0
 62
     0
100
AcDbLine
 10
-298.7999999999956
 20
-386.324456385858
 30
0.0
 11
83.00000000000364
 21
-204.5150284536385
 31
0.0
  0
LINE
  5
294A
330
2BAE
100
AcDbEntity
  8
0
 62
     0
100
AcDbLine
 10
83.00000000000364
 20
-194.5150767095029
 30
0.0
 11
170.1956297021243
 21
-152.9933701764156
 31
0.0
  0
LINE
  5
294B
330
2BAE
100
AcDbEntity
  8
0
 62
     0
100
AcDbLine
 10
-298.7999999999992
 20
-376.3245046417242
 30
0.0
 11
83.00000000000364
 21
-194.5150767095029
 31
0.0
  0
LINE
  5
294C
330
2BAE
100
AcDbEntity
  8
0
 62
     0
100
AcDbLine
 10
83.0
 20
-184.51512496537
 30
0.0
 11
149.1957199651333
 21
-152.9933701764166
 31
0.0
  0
LINE
  5
294D
330
2BAE
100
AcDbEntity
  8
0
 62
     0
100
AcDbLine
 10
-298.7999999999956
 20
-366.3245528975894
 30
0.0
 11
83.0
 21
-184.51512496537
 31
0.0
  0
LINE
  5
294E
330
2BAE
100
AcDbEntity
  8
0
 62
     0
100
AcDbLine
 10
83.0
 20
-174.5151732212343
 30
0.0
 11
128.1958102281423
 21
-152.9933701764166
 31
0.0
  0
LINE
  5
294F
330
2BAE
100
AcDbEntity
  8
0
 62
     0
100
AcDbLine
 10
-298.7999999999992
 20
-356.3246011534557
 30
0.0
 11
83.0
 21
-174.5151732212343
 31
0.0
  0
LINE
  5
2950
330
2BAE
100
AcDbEntity
  8
0
 62
     0
100
AcDbLine
 10
83.00000000000364
 20
-164.5152214770987
 30
0.0
 11
107.195900491155
 21
-152.9933701764148
 31
0.0
  0
LINE
  5
2951
330
2BAE
100
AcDbEntity
  8
0
 62
     0
100
AcDbLine
 10
-298.7999999999992
 20
-346.32464940932
 30
0.0
 11
83.00000000000364
 21
-164.5152214770987
 31
0.0
  0
LINE
  5
2952
330
2BAE
100
AcDbEntity
  8
0
 62
     0
100
AcDbLine
 10
83.00000000000364
 20
-154.5152697329649
 30
0.0
 11
86.19599075416408
 21
-152.9933701764148
 31
0.0
  0
LINE
  5
2953
330
2BAE
100
AcDbEntity
  8
0
 62
     0
100
AcDbLine
 10
-298.7999999999992
 20
-336.3246976651863
 30
0.0
 11
83.00000000000364
 21
-154.5152697329649
 31
0.0
  0
LINE
  5
2954
330
2BAE
100
AcDbEntity
  8
0
 62
     0
100
AcDbLine
 10
-298.7999999999992
 20
-326.3247459210524
 30
0.0
 11
65.19608101717313
 21
-152.9933701764148
 31
0.0
  0
LINE
  5
2955
330
2BAE
100
AcDbEntity
  8
0
 62
     0
100
AcDbLine
 10
-298.7999999999992
 20
-316.3247941769188
 30
0.0
 11
44.19617128018217
 21
-152.9933701764148
 31
0.0
  0
LINE
  5
2956
330
2BAE
100
AcDbEntity
  8
0
 62
     0
100
AcDbLine
 10
-298.7999999999956
 20
-306.3248424327829
 30
0.0
 11
23.19626154319485
 21
-152.9933701764148
 31
0.0
  0
LINE
  5
2957
330
2BAE
100
AcDbEntity
  8
0
 62
     0
100
AcDbLine
 10
-298.7999999999992
 20
-296.3248906886473
 30
0.0
 11
2.196351806200254
 21
-152.9933701764148
 31
0.0
  0
LINE
  5
2958
330
2BAE
100
AcDbEntity
  8
0
 62
     0
100
AcDbLine
 10
-298.7999999999992
 20
-286.3249389445136
 30
0.0
 11
-18.80355793079068
 21
-152.9933701764148
 31
0.0
  0
LINE
  5
2959
330
2BAE
100
AcDbEntity
  8
0
 62
     0
100
AcDbLine
 10
-298.7999999999956
 20
-276.324987200378
 30
0.0
 11
-39.80346766777802
 21
-152.9933701764148
 31
0.0
  0
LINE
  5
295A
330
2BAE
100
AcDbEntity
  8
0
 62
     0
100
AcDbLine
 10
-298.7999999999992
 20
-266.3250354562442
 30
0.0
 11
-60.8033774047726
 21
-152.9933701764148
 31
0.0
  0
LINE
  5
295B
330
2BAE
100
AcDbEntity
  8
0
 62
     0
100
AcDbLine
 10
-298.7999999999956
 20
-256.3250837121104
 30
0.0
 11
-81.80328714176354
 21
-152.9933701764166
 31
0.0
  0
LINE
  5
295C
330
2BAE
100
AcDbEntity
  8
0
 62
     0
100
AcDbLine
 10
-298.8000000000028
 20
-246.3251319679766
 30
0.0
 11
-102.8031968787545
 21
-152.9933701764166
 31
0.0
  0
LINE
  5
295D
330
2BAE
100
AcDbEntity
  8
0
 62
     0
100
AcDbLine
 10
-298.7999999999992
 20
-236.325180223841
 30
0.0
 11
-123.8031066157455
 21
-152.9933701764166
 31
0.0
  0
LINE
  5
295E
330
2BAE
100
AcDbEntity
  8
0
 62
     0
100
AcDbLine
 10
-298.7999999999992
 20
-226.325228479709
 30
0.0
 11
-144.8030163527364
 21
-152.9933701764185
 31
0.0
  0
LINE
  5
295F
330
2BAE
100
AcDbEntity
  8
0
 62
     0
100
AcDbLine
 10
-298.7999999999992
 20
-216.3252767355734
 30
0.0
 11
-165.802926089731
 21
-152.9933701764185
 31
0.0
  0
LINE
  5
2960
330
2BAE
100
AcDbEntity
  8
0
 62
     0
100
AcDbLine
 10
-298.7999999999956
 20
-206.3253249914378
 30
0.0
 11
-186.8028358267183
 21
-152.9933701764185
 31
0.0
  0
LINE
  5
2961
330
2BAE
100
AcDbEntity
  8
0
 62
     0
100
AcDbLine
 10
-298.7999999999992
 20
-196.325373247304
 30
0.0
 11
-207.8027455637093
 21
-152.9933701764185
 31
0.0
  0
LINE
  5
2962
330
2BAE
100
AcDbEntity
  8
0
 62
     0
100
AcDbLine
 10
-298.7999999999992
 20
-186.3254215031684
 30
0.0
 11
-228.8026553007039
 21
-152.9933701764185
 31
0.0
  0
LINE
  5
2963
330
2BAE
100
AcDbEntity
  8
0
 62
     0
100
AcDbLine
 10
-298.7999999999992
 20
-176.3254697590346
 30
0.0
 11
-249.8025650376912
 21
-152.9933701764185
 31
0.0
  0
LINE
  5
2964
330
2BAE
100
AcDbEntity
  8
0
 62
     0
100
AcDbLine
 10
-298.7999999999956
 20
-166.325518014899
 30
0.0
 11
-270.8024747746748
 21
-152.9933701764148
 31
0.0
  0
LINE
  5
2965
330
2BAE
100
AcDbEntity
  8
0
 62
     0
100
AcDbLine
 10
-298.7999999999992
 20
-156.325566270767
 30
0.0
 11
-291.8023845116695
 21
-152.9933701764166
 31
0.0
  0
ENDBLK
  5
2966
330
2BAE
100
AcDbEntity
  8
0
100
AcDbBlockEnd
  0
BLOCK
  5
34EA
330
34E9
100
AcDbEntity
  8
0
100
AcDbBlockBegin
  2
*D27
 70
     1
 10
0.0
 20
0.0
 30
0.0
  3
*D27
  1

  0
LINE
  5
358B
330
34E9
100
AcDbEntity
  8
SIZE
 62
     0
370
    -2
100
AcDbLine
 10
-325.0
 20
32.5
 30
0.0
 11
-325.0
 21
192.3487245902183
 31
0.0
  0
LINE
  5
358C
330
34E9
100
AcDbEntity
  8
SIZE
 62
     0
370
    -2
100
AcDbLine
 10
325.0
 20
32.5
 30
0.0
 11
325.0
 21
192.3487245902183
 31
0.0
  0
LINE
  5
358D
330
34E9
100
AcDbEntity
  8
SIZE
 62
     0
370
    -2
100
AcDbLine
 10
-313.0
 20
172.3487245902183
 30
0.0
 11
313.0
 21
172.3487245902183
 31
0.0
  0
INSERT
  5
358E
330
34E9
100
AcDbEntity
  8
SIZE
 62
     0
370
    -2
100
AcDbBlockReference
  2
_DOTBLANK
 10
-325.0
 20
172.3487245902183
 30
0.0
 41
12.0
 42
12.0
 43
12.0
 50
180.0
  0
INSERT
  5
358F
330
34E9
100
AcDbEntity
  8
SIZE
 62
     0
370
    -2
100
AcDbBlockReference
  2
_DOTBLANK
 10
325.0
 20
172.3487245902183
 30
0.0
 41
12.0
 42
12.0
 43
12.0
  0
MTEXT
  5
3590
330
34E9
100
AcDbEntity
  8
SIZE
 62
     0
100
AcDbMText
 10
0.0000000000000026
 20
214.3487245902183
 30
0.0
 40
64.0
 41
0.0
 71
     5
 72
     1
  1
\A1;650
 73
     1
 44
1.0
  0
POINT
  5
3591
330
34E9
100
AcDbEntity
  8
DEFPOINTS
 62
     0
100
AcDbPoint
 10
-325.0
 20
12.5
 30
0.0
  0
POINT
  5
3592
330
34E9
100
AcDbEntity
  8
DEFPOINTS
 62
     0
100
AcDbPoint
 10
325.0
 20
12.5
 30
0.0
  0
POINT
  5
3593
330
34E9
100
AcDbEntity
  8
DEFPOINTS
 62
     0
100
AcDbPoint
 10
325.0
 20
172.3487245902183
 30
0.0
  0
ENDBLK
  5
34EB
330
34E9
100
AcDbEntity
  8
0
100
AcDbBlockEnd
  0
BLOCK
  5
34F7
330
34F6
100
AcDbEntity
  8
0
100
AcDbBlockBegin
  2
*D28
 70
     1
 10
0.0
 20
0.0
 30
0.0
  3
*D28
  1

  0
LINE
  5
3594
330
34F6
100
AcDbEntity
  8
SIZE
 62
     0
370
    -2
100
AcDbLine
 10
-350.0
 20
20.0
 30
0.0
 11
-350.0
 21
322.3487245902183
 31
0.0
  0
LINE
  5
3595
330
34F6
100
AcDbEntity
  8
SIZE
 62
     0
370
    -2
100
AcDbLine
 10
350.0
 20
20.0
 30
0.0
 11
350.0
 21
322.3487245902183
 31
0.0
  0
LINE
  5
3596
330
34F6
100
AcDbEntity
  8
SIZE
 62
     0
370
    -2
100
AcDbLine
 10
-338.0
 20
302.3487245902184
 30
0.0
 11
338.0
 21
302.3487245902184
 31
0.0
  0
INSERT
  5
3597
330
34F6
100
AcDbEntity
  8
SIZE
 62
     0
370
    -2
100
AcDbBlockReference
  2
_DOTBLANK
 10
-350.0
 20
302.3487245902184
 30
0.0
 41
12.0
 42
12.0
 43
12.0
 50
180.0
  0
INSERT
  5
3598
330
34F6
100
AcDbEntity
  8
SIZE
 62
     0
370
    -2
100
AcDbBlockReference
  2
_DOTBLANK
 10
350.0
 20
302.3487245902184
 30
0.0
 41
12.0
 42
12.0
 43
12.0
  0
MTEXT
  5
3599
330
34F6
100
AcDbEntity
  8
SIZE
 62
     0
100
AcDbMText
 10
0.0000000000000026
 20
344.3487245902184
 30
0.0
 40
64.0
 41
0.0
 71
     5
 72
     1
  1
\A1;700
 73
     1
 44
1.0
  0
POINT
  5
359A
330
34F6
100
AcDbEntity
  8
DEFPOINTS
 62
     0
100
AcDbPoint
 10
-350.0
 20
0.0
 30
0.0
  0
POINT
  5
359B
330
34F6
100
AcDbEntity
  8
DEFPOINTS
 62
     0
100
AcDbPoint
 10
350.0
 20
0.0
 30
0.0
  0
POINT
  5
359C
330
34F6
100
AcDbEntity
  8
DEFPOINTS
 62
     0
100
AcDbPoint
 10
350.0
 20
302.3487245902184
 30
0.0
  0
ENDBLK
  5
34F8
330
34F6
100
AcDbEntity
  8
0
100
AcDbBlockEnd
  0
BLOCK
  5
3504
330
3503
100
AcDbEntity
  8
0
100
AcDbBlockBegin
  2
*D29
 70
     1
 10
0.0
 20
0.0
 30
0.0
  3
*D29
  1

  0
LINE
  5
359D
330
3503
100
AcDbEntity
  8
SIZE
 62
     0
370
    -2
100
AcDbLine
 10
370.0
 20
-8.000000000000119
 30
0.0
 11
459.069599768989
 21
-8.000000000000143
 31
0.0
  0
LINE
  5
359E
330
3503
100
AcDbEntity
  8
SIZE
 62
     0
370
    -2
100
AcDbLine
 10
370.0
 20
-0.0000000000001194
 30
0.0
 11
459.069599768989
 21
-0.0000000000001446
 31
0.0
  0
LINE
  5
359F
330
3503
100
AcDbEntity
  8
SIZE
 62
     0
370
    -2
100
AcDbLine
 10
439.069599768989
 20
-20.00000000000014
 30
0.0
 11
439.069599768989
 21
-32.00000000000014
 31
0.0
  0
LINE
  5
35A0
330
3503
100
AcDbEntity
  8
SIZE
 62
     0
370
    -2
100
AcDbLine
 10
439.069599768989
 20
11.99999999999986
 30
0.0
 11
439.069599768989
 21
23.99999999999986
 31
0.0
  0
MTEXT
  5
35A1
330
3503
100
AcDbEntity
  8
SIZE
 62
     0
100
AcDbMText
 10
570.069599768989
 20
-4.000000000000075
 30
0.0
 40
64.0
 41
0.0
 71
     5
 72
     1
  1
\A1;8
 11
0.0000000000000001
 21
1.0
 31
0.0
 73
     1
 44
1.0
  0
LINE
  5
35A2
330
3503
100
AcDbEntity
  8
SIZE
 62
     0
370
    -2
100
AcDbLine
 10
439.069599768989
 20
-8.000000000000138
 30
0.0
 11
439.069599768989
 21
-0.0000000000001389
 31
0.0
  0
INSERT
  5
35A3
330
3503
100
AcDbEntity
  8
SIZE
 62
     0
370
    -2
100
AcDbBlockReference
  2
_DOTBLANK
 10
439.069599768989
 20
-8.000000000000138
 30
0.0
 41
12.0
 42
12.0
 43
12.0
 50
90.0
  0
INSERT
  5
35A4
330
3503
100
AcDbEntity
  8
SIZE
 62
     0
370
    -2
100
AcDbBlockReference
  2
_DOTBLANK
 10
439.069599768989
 20
-0.0000000000001389
 30
0.0
 41
12.0
 42
12.0
 43
12.0
 50
270.0
  0
POINT
  5
35A5
330
3503
100
AcDbEntity
  8
DEFPOINTS
 62
     0
100
AcDbPoint
 10
350.0
 20
-8.000000000000113
 30
0.0
  0
POINT
  5
35A6
330
3503
100
AcDbEntity
  8
DEFPOINTS
 62
     0
100
AcDbPoint
 10
350.0
 20
-0.0000000000001137
 30
0.0
  0
POINT
  5
35A7
330
3503
100
AcDbEntity
  8
DEFPOINTS
 62
     0
100
AcDbPoint
 10
439.069599768989
 20
-0.0000000000001389
 30
0.0
  0
ENDBLK
  5
3505
330
3503
100
AcDbEntity
  8
0
100
AcDbBlockEnd
  0
BLOCK
  5
3513
330
3512
100
AcDbEntity
  8
0
100
AcDbBlockBegin
  2
*D30
 70
     1
 10
0.0
 20
0.0
 30
0.0
  3
*D30
  1

  0
LINE
  5
35A8
330
3512
100
AcDbEntity
  8
SIZE
 62
     0
370
    -2
100
AcDbLine
 10
-370.0
 20
0.0000000000000057
 30
0.0
 11
-530.7279519459646
 21
0.0000000000000512
 31
0.0
  0
LINE
  5
35A9
330
3512
100
AcDbEntity
  8
SIZE
 62
     0
370
    -2
100
AcDbLine
 10
-345.0
 20
-940.0536898571763
 30
0.0
 11
-530.7279519459648
 21
-940.0536898571763
 31
0.0
  0
LINE
  5
35AA
330
3512
100
AcDbEntity
  8
SIZE
 62
     0
370
    -2
100
AcDbLine
 10
-510.7279519459646
 20
-11.99999999999995
 30
0.0
 11
-510.7279519459648
 21
-928.0536898571764
 31
0.0
  0
INSERT
  5
35AB
330
3512
100
AcDbEntity
  8
SIZE
 62
     0
370
    -2
100
AcDbBlockReference
  2
_DOTBLANK
 10
-510.7279519459646
 20
0.0000000000000455
 30
0.0
 41
12.0
 42
12.0
 43
12.0
 50
90.0
  0
INSERT
  5
35AC
330
3512
100
AcDbEntity
  8
SIZE
 62
     0
370
    -2
100
AcDbBlockReference
  2
_DOTBLANK
 10
-510.7279519459648
 20
-940.0536898571763
 30
0.0
 41
12.0
 42
12.0
 43
12.0
 50
270.0
  0
MTEXT
  5
35AD
330
3512
100
AcDbEntity
  8
SIZE
 62
     0
100
AcDbMText
 10
-552.7279519459646
 20
-470.0268449285882
 30
0.0
 40
64.0
 41
0.0
 71
     5
 72
     1
  1
\A1;940
 11
0.0000000000000001
 21
1.0
 31
0.0
 73
     1
 44
1.0
  0
POINT
  5
35AE
330
3512
100
AcDbEntity
  8
DEFPOINTS
 62
     0
100
AcDbPoint
 10
-350.0
 20
0.0
 30
0.0
  0
POINT
  5
35AF
330
3512
100
AcDbEntity
  8
DEFPOINTS
 62
     0
100
AcDbPoint
 10
-325.0
 20
-940.0536898571763
 30
0.0
  0
POINT
  5
35B0
330
3512
100
AcDbEntity
  8
DEFPOINTS
 62
     0
100
AcDbPoint
 10
-510.7279519459648
 20
-940.0536898571763
 30
0.0
  0
ENDBLK
  5
3514
330
3512
100
AcDbEntity
  8
0
100
AcDbBlockEnd
  0
BLOCK
  5
3520
330
351F
100
AcDbEntity
  8
0
100
AcDbBlockBegin
  2
*D31
 70
     1
 10
0.0
 20
0.0
 30
0.0
  3
*D31
  1

  0
LINE
  5
35B1
330
351F
100
AcDbEntity
  8
SIZE
 62
     0
370
    -2
100
AcDbLine
 10
-330.0
 20
-954.2000000000006
 30
0.0
 11
-530.7279519459648
 21
-954.2000000000006
 31
0.0
  0
LINE
  5
35B2
330
351F
100
AcDbEntity
  8
SIZE
 62
     0
370
    -2
100
AcDbLine
 10
-345.0
 20
-940.0536898571763
 30
0.0
 11
-530.7279519459648
 21
-940.0536898571763
 31
0.0
  0
LINE
  5
35B3
330
351F
100
AcDbEntity
  8
SIZE
 62
     0
370
    -2
100
AcDbLine
 10
-510.7279519459648
 20
-966.2000000000007
 30
0.0
 11
-510.7279519459648
 21
-978.2000000000007
 31
0.0
  0
LINE
  5
35B4
330
351F
100
AcDbEntity
  8
SIZE
 62
     0
370
    -2
100
AcDbLine
 10
-510.7279519459648
 20
-928.0536898571764
 30
0.0
 11
-510.7279519459648
 21
-916.0536898571763
 31
0.0
  0
MTEXT
  5
35B5
330
351F
100
AcDbEntity
  8
SIZE
 62
     0
100
AcDbMText
 10
-577.7279519459648
 20
-1014.955720885649
 30
0.0
 40
64.0
 41
0.0
 71
     5
 72
     1
  1
\A1;15
 11
0.0000000000000001
 21
1.0
 31
0.0
 73
     1
 44
1.0
  0
LINE
  5
35B6
330
351F
100
AcDbEntity
  8
SIZE
 62
     0
370
    -2
100
AcDbLine
 10
-510.7279519459648
 20
-954.2000000000006
 30
0.0
 11
-510.7279519459648
 21
-940.0536898571763
 31
0.0
  0
INSERT
  5
35B7
330
351F
100
AcDbEntity
  8
SIZE
 62
     0
370
    -2
100
AcDbBlockReference
  2
_DOTBLANK
 10
-510.7279519459648
 20
-954.2000000000006
 30
0.0
 41
12.0
 42
12.0
 43
12.0
 50
90.0
  0
INSERT
  5
35B8
330
351F
100
AcDbEntity
  8
SIZE
 62
     0
370
    -2
100
AcDbBlockReference
  2
_DOTBLANK
 10
-510.7279519459648
 20
-940.0536898571763
 30
0.0
 41
12.0
 42
12.0
 43
12.0
 50
270.0
  0
POINT
  5
35B9
330
351F
100
AcDbEntity
  8
DEFPOINTS
 62
     0
100
AcDbPoint
 10
-310.0
 20
-954.2000000000006
 30
0.0
  0
POINT
  5
35BA
330
351F
100
AcDbEntity
  8
DEFPOINTS
 62
     0
100
AcDbPoint
 10
-325.0
 20
-940.0536898571763
 30
0.0
  0
POINT
  5
35BB
330
351F
100
AcDbEntity
  8
DEFPOINTS
 62
     0
100
AcDbPoint
 10
-510.7279519459648
 20
-940.0536898571763
 30
0.0
  0
ENDBLK
  5
3521
330
351F
100
AcDbEntity
  8
0
100
AcDbBlockEnd
  0
BLOCK
  5
356E
330
356D
100
AcDbEntity
  8
0
100
AcDbBlockBegin
  2
*D32
 70
     1
 10
0.0
 20
0.0
 30
0.0
  3
*D32
  1

  0
LINE
  5
35BC
330
356D
100
AcDbEntity
  8
SIZE
 62
     0
370
    -2
100
AcDbLine
 10
-325.0
 20
-960.0536898571762
 30
0.0
 11
-325.0
 21
-1142.176929840723
 31
0.0
  0
LINE
  5
35BD
330
356D
100
AcDbEntity
  8
SIZE
 62
     0
370
    -2
100
AcDbLine
 10
325.0
 20
-960.0536898571762
 30
0.0
 11
325.0
 21
-1142.176929840723
 31
0.0
  0
LINE
  5
35BE
330
356D
100
AcDbEntity
  8
SIZE
 62
     0
370
    -2
100
AcDbLine
 10
-313.0
 20
-1122.176929840723
 30
0.0
 11
313.0
 21
-1122.176929840723
 31
0.0
  0
INSERT
  5
35BF
330
356D
100
AcDbEntity
  8
SIZE
 62
     0
370
    -2
100
AcDbBlockReference
  2
_DOTBLANK
 10
-325.0
 20
-1122.176929840723
 30
0.0
 41
12.0
 42
12.0
 43
12.0
 50
180.0
  0
INSERT
  5
35C0
330
356D
100
AcDbEntity
  8
SIZE
 62
     0
370
    -2
100
AcDbBlockReference
  2
_DOTBLANK
 10
325.0
 20
-1122.176929840723
 30
0.0
 41
12.0
 42
12.0
 43
12.0
  0
MTEXT
  5
35C1
330
356D
100
AcDbEntity
  8
SIZE
 62
     0
100
AcDbMText
 10
0.0000000000000026
 20
-1080.176929840723
 30
0.0
 40
64.0
 41
0.0
 71
     5
 72
     1
  1
\A1;650
 73
     1
 44
1.0
  0
POINT
  5
35C2
330
356D
100
AcDbEntity
  8
DEFPOINTS
 62
     0
100
AcDbPoint
 10
-325.0
 20
-940.0536898571763
 30
0.0
  0
POINT
  5
35C3
330
356D
100
AcDbEntity
  8
DEFPOINTS
 62
     0
100
AcDbPoint
 10
325.0
 20
-940.0536898571763
 30
0.0
  0
POINT
  5
35C4
330
356D
100
AcDbEntity
  8
DEFPOINTS
 62
     0
100
AcDbPoint
 10
325.0
 20
-1122.176929840723
 30
0.0
  0
ENDBLK
  5
356F
330
356D
100
AcDbEntity
  8
0
100
AcDbBlockEnd
  0
ENDSEC
  0
SECTION
  2
ENTITIES
  0
TEXT
  5
953
330
2B33
100
AcDbEntity
  8
OUTLINE
  6
Continuous
 62
     3
100
AcDbText
 10
-418.231467
 20
13.715189
 30
0.0
 40
64.0
  1
 
 41
0.9
100
AcDbText
  0
TEXT
  5
954
330
2B33
100
AcDbEntity
  8
OUTLINE
  6
Continuous
 62
     3
100
AcDbText
 10
-418.231467
 20
13.715189
 30
0.0
 40
64.0
  1
 
 41
0.9
100
AcDbText
  0
TEXT
  5
955
330
2B33
100
AcDbEntity
  8
OUTLINE
  6
Continuous
 62
     3
100
AcDbText
 10
1341.41903
 20
-706.0588199999997
 30
0.0
 40
64.0
  1
 
 41
0.9
100
AcDbText
  0
TEXT
  5
956
330
2B33
100
AcDbEntity
  8
OUTLINE
  6
Continuous
 62
     3
100
AcDbText
 10
1341.41903
 20
-706.0588199999997
 30
0.0
 40
64.0
  1
 
 41
0.9
100
AcDbText
  0
TEXT
  5
957
330
2B33
100
AcDbEntity
  8
OUTLINE
  6
Continuous
 62
     3
100
AcDbText
 10
1341.41903
 20
-706.0588199999997
 30
0.0
 40
64.0
  1
 
 41
0.9
100
AcDbText
  0
TEXT
  5
958
330
2B33
100
AcDbEntity
  8
OUTLINE
  6
Continuous
 62
     3
100
AcDbText
 10
1341.41903
 20
-706.0588199999997
 30
0.0
 40
64.0
  1
 
 41
0.9
100
AcDbText
  0
TEXT
  5
29FB
330
2B33
100
AcDbEntity
  8
ETC
100
AcDbText
 10
559.2987359845865
 20
352.0879826302129
 30
0.0
 40
64.0
  1
システム部材
 41
0.9
100
AcDbText
  0
TEXT
  5
29FC
330
2B33
100
AcDbEntity
  8
ETC
100
AcDbText
 10
565.5067339845843
 20
452.9713086302128
 30
0.0
 40
64.0
  1
QWH-60KSA_6
 41
0.9
100
AcDbText
  0
TEXT
  5
29FD
330
2B33
100
AcDbEntity
  8
ETC
100
AcDbText
 10
565.5067339845843
 20
252.9713086302131
 30
0.0
 40
64.0
  1
QWH-60KSA
 41
0.9
100
AcDbText
  0
CIRCLE
  5
2A05
330
2B33
100
AcDbEntity
  8
ARRANGE
100
AcDbCircle
 10
0.0
 20
0.0
 30
0.0
 40
40.0
  0
LINE
  5
31ED
330
2B33
100
AcDbEntity
  8
OUTLINE
100
AcDbLine
 10
310.0
 20
-954.2000000000006
 30
0.0
 11
310.0
 21
-939.2000000000008
 31
0.0
  0
LINE
  5
31EE
330
2B33
100
AcDbEntity
  8
OUTLINE
100
AcDbLine
 10
-310.0
 20
-939.2000000000008
 30
0.0
 11
-310.0
 21
-954.2000000000006
 31
0.0
  0
LINE
  5
31EF
330
2B33
100
AcDbEntity
  8
OUTLINE
100
AcDbLine
 10
310.0
 20
-954.2000000000006
 30
0.0
 11
-310.0
 21
-954.2000000000006
 31
0.0
  0
LINE
  5
31F0
330
2B33
100
AcDbEntity
  8
OUTLINE
100
AcDbLine
 10
-310.0
 20
-939.2000000000008
 30
0.0
 11
310.0
 21
-939.2000000000008
 31
0.0
  0
LINE
  5
31F1
330
2B33
100
AcDbEntity
  8
OUTLINE
100
AcDbLine
 10
-310.0
 20
-940.0000000000003
 30
0.0
 11
-311.6000000000004
 21
-940.0000000000003
 31
0.0
  0
LINE
  5
31F2
330
2B33
100
AcDbEntity
  8
OUTLINE
100
AcDbLine
 10
311.6000000000004
 20
-940.0000000000003
 30
0.0
 11
310.0
 21
-940.0000000000003
 31
0.0
  0
LINE
  5
31F3
330
2B33
100
AcDbEntity
  8
OUTLINE
100
AcDbLine
 10
-311.6000000000004
 20
-939.2975645551059
 30
0.0
 11
-311.6000000000004
 21
-940.0000000000003
 31
0.0
  0
LINE
  5
31F4
330
2B33
100
AcDbEntity
  8
OUTLINE
100
AcDbLine
 10
311.6000000000004
 20
-940.0000000000003
 30
0.0
 11
311.6000000000004
 21
-939.2975645551059
 31
0.0
  0
LINE
  5
31F5
330
2B33
100
AcDbEntity
  8
OUTLINE
100
AcDbLine
 10
325.0
 20
-940.0536898571763
 30
0.0
 11
324.2000000000007
 21
-940.0536898571763
 31
0.0
  0
LINE
  5
31F6
330
2B33
100
AcDbEntity
  8
OUTLINE
100
AcDbLine
 10
324.2000000000007
 20
-939.2975645551059
 30
0.0
 11
324.2000000000007
 21
-940.0536898571763
 31
0.0
  0
LINE
  5
31F7
330
2B33
100
AcDbEntity
  8
OUTLINE
100
AcDbLine
 10
310.8000000000002
 20
-140.0000000000001
 30
0.0
 11
310.8000000000002
 21
-125.1119668201551
 31
0.0
  0
LINE
  5
31F8
330
2B33
100
AcDbEntity
  8
OUTLINE
100
AcDbLine
 10
325.0
 20
-125.1119668201551
 30
0.0
 11
310.8000000000002
 21
-125.1119668201551
 31
0.0
  0
LINE
  5
31F9
330
2B33
100
AcDbEntity
  8
OUTLINE
100
AcDbLine
 10
310.0
 20
-140.0000000000001
 30
0.0
 11
310.8000000000002
 21
-140.0000000000001
 31
0.0
  0
LINE
  5
31FA
330
2B33
100
AcDbEntity
  8
OUTLINE
100
AcDbLine
 10
310.0
 20
-140.0000000000001
 30
0.0
 11
310.0
 21
-813.7905848787459
 31
0.0
  0
LINE
  5
31FB
330
2B33
100
AcDbEntity
  8
OUTLINE
100
AcDbLine
 10
310.0
 20
-939.2000000000003
 30
0.0
 11
325.0
 21
-939.2000000000003
 31
0.0
  0
LINE
  5
31FC
330
2B33
100
AcDbEntity
  8
OUTLINE
100
AcDbLine
 10
325.0
 20
-939.2000000000008
 30
0.0
 11
325.0
 21
-125.1119668201551
 31
0.0
  0
LINE
  5
31FD
330
2B33
100
AcDbEntity
  8
OUTLINE
100
AcDbLine
 10
310.0
 20
-0.0000000000001137
 30
0.0
 11
311.0
 21
-0.0000000000001137
 31
0.0
  0
LINE
  5
31FE
330
2B33
100
AcDbEntity
  8
OUTLINE
100
AcDbLine
 10
310.0
 20
-939.2975645551059
 30
0.0
 11
324.2000000000007
 21
-939.2975645551059
 31
0.0
  0
LINE
  5
31FF
330
2B33
100
AcDbEntity
  8
OUTLINE
100
AcDbLine
 10
325.0
 20
-940.0536898571763
 30
0.0
 11
325.0
 21
-939.2000000000003
 31
0.0
  0
LINE
  5
3200
330
2B33
100
AcDbEntity
  8
OUTLINE
100
AcDbLine
 10
-324.1999999999998
 20
-940.0536898571763
 30
0.0
 11
-325.0
 21
-940.0536898571763
 31
0.0
  0
LINE
  5
3201
330
2B33
100
AcDbEntity
  8
OUTLINE
100
AcDbLine
 10
-324.1999999999998
 20
-939.2975645551059
 30
0.0
 11
-324.1999999999998
 21
-940.0536898571763
 31
0.0
  0
LINE
  5
3202
330
2B33
100
AcDbEntity
  8
OUTLINE
100
AcDbLine
 10
-310.0
 20
-939.2975645551059
 30
0.0
 11
-324.1999999999998
 21
-939.2975645551059
 31
0.0
  0
LINE
  5
3203
330
2B33
100
AcDbEntity
  8
OUTLINE
100
AcDbLine
 10
-325.0
 20
-939.2000000000003
 30
0.0
 11
-310.0
 21
-939.2000000000003
 31
0.0
  0
LINE
  5
3204
330
2B33
100
AcDbEntity
  8
OUTLINE
100
AcDbLine
 10
-325.0
 20
-940.0536898571763
 30
0.0
 11
-325.0
 21
-939.2000000000003
 31
0.0
  0
LINE
  5
3205
330
2B33
100
AcDbEntity
  8
OUTLINE
100
AcDbLine
 10
-310.7999999999993
 20
-140.0000000000004
 30
0.0
 11
-310.7999999999993
 21
-125.1119668201554
 31
0.0
  0
LINE
  5
3206
330
2B33
100
AcDbEntity
  8
OUTLINE
100
AcDbLine
 10
-310.7999999999993
 20
-125.1119668201554
 30
0.0
 11
-325.0
 21
-125.1119668201554
 31
0.0
  0
LINE
  5
3207
330
2B33
100
AcDbEntity
  8
OUTLINE
100
AcDbLine
 10
-310.0
 20
-813.7905848787454
 30
0.0
 11
-310.0
 21
-140.0000000000004
 31
0.0
  0
LINE
  5
3208
330
2B33
100
AcDbEntity
  8
OUTLINE
100
AcDbLine
 10
-310.7999999999993
 20
-140.0000000000004
 30
0.0
 11
-310.0
 21
-140.0000000000004
 31
0.0
  0
LINE
  5
3209
330
2B33
100
AcDbEntity
  8
OUTLINE
100
AcDbLine
 10
-325.0
 20
-125.1119668201554
 30
0.0
 11
-325.0
 21
-939.2000000000003
 31
0.0
  0
LINE
  5
320A
330
2B33
100
AcDbEntity
  8
OUTLINE
100
AcDbLine
 10
-311.0
 20
0.0
 30
0.0
 11
-310.0
 21
0.0
 31
0.0
  0
LINE
  5
320D
330
2B33
100
AcDbEntity
  8
OUTLINE
100
AcDbLine
 10
308.9999999999991
 20
-141.0000000000001
 30
0.0
 11
-309.0000000000009
 21
-141.0
 31
0.0
  0
LINE
  5
320E
330
2B33
100
AcDbEntity
  8
OUTLINE
100
AcDbLine
 10
-309.0000000000009
 20
-141.0
 30
0.0
 11
-309.0000000000009
 21
-156.0
 31
0.0
  0
LINE
  5
320F
330
2B33
100
AcDbEntity
  8
OUTLINE
100
AcDbLine
 10
-307.0
 20
-156.0
 30
0.0
 11
-309.0000000000009
 21
-156.0
 31
0.0
  0
LINE
  5
3210
330
2B33
100
AcDbEntity
  8
OUTLINE
100
AcDbLine
 10
308.9999999999991
 20
-156.0000000000001
 30
0.0
 11
307.0
 21
-156.0000000000001
 31
0.0
  0
LINE
  5
3211
330
2B33
100
AcDbEntity
  8
OUTLINE
100
AcDbLine
 10
308.9999999999991
 20
-141.0000000000001
 30
0.0
 11
308.9999999999991
 21
-156.0000000000001
 31
0.0
  0
LINE
  5
3214
330
2B33
100
AcDbEntity
  8
OUTLINE
100
AcDbLine
 10
-235.7717433063581
 20
-938.1999999999997
 30
0.0
 11
235.5725031010388
 21
-938.1999999999997
 31
0.0
  0
LINE
  5
3217
330
2B33
100
AcDbEntity
  8
OUTLINE
100
AcDbLine
 10
309.0
 20
-799.2000000000007
 30
0.0
 11
308.9999999999991
 21
-156.0000000000001
 31
0.0
  0
LINE
  5
3218
330
2B33
100
AcDbEntity
  8
OUTLINE
100
AcDbLine
 10
309.0
 20
-865.1245846437545
 30
0.0
 11
309.0
 21
-849.2000000000002
 31
0.0
  0
LINE
  5
321B
330
2B33
100
AcDbEntity
  8
OUTLINE
100
AcDbLine
 10
-309.0
 20
-849.1999999999999
 30
0.0
 11
-309.0
 21
-865.1688329864878
 31
0.0
  0
LINE
  5
321C
330
2B33
100
AcDbEntity
  8
OUTLINE
100
AcDbLine
 10
-309.0000000000009
 20
-156.0
 30
0.0
 11
-309.0
 21
-799.1999999999998
 31
0.0
  0
LINE
  5
3225
330
2B33
100
AcDbEntity
  8
OUTLINE
100
AcDbLine
 10
-307.0
 20
-155.9999999999999
 30
0.0
 11
-294.0
 21
-156.0
 31
0.0
  0
LINE
  5
3226
102
{ACAD_REACTORS
330
34D2
330
34D3
102
}
330
2B33
100
AcDbEntity
  8
OUTLINE
100
AcDbLine
 10
294.0
 20
-156.0000000000001
 30
0.0
 11
294.0
 21
-864.5664684217139
 31
0.0
  0
LINE
  5
3227
102
{ACAD_REACTORS
330
34D2
330
34D3
102
}
330
2B33
100
AcDbEntity
  8
OUTLINE
100
AcDbLine
 10
235.581417916932
 20
-923.2000000000002
 30
0.0
 11
-235.771450798698
 21
-923.2000000000002
 31
0.0
  0
LINE
  5
3228
102
{ACAD_REACTORS
330
34D2
330
34D3
102
}
330
2B33
100
AcDbEntity
  8
OUTLINE
100
AcDbLine
 10
-294.0
 20
-864.5660660341313
 30
0.0
 11
-294.0
 21
-156.0
 31
0.0
  0
LINE
  5
3229
330
2B33
100
AcDbEntity
  8
OUTLINE
100
AcDbLine
 10
-307.0
 20
-143.0
 30
0.0
 11
307.0
 21
-143.0000000000001
 31
0.0
  0
LINE
  5
322A
330
2B33
100
AcDbEntity
  8
OUTLINE
100
AcDbLine
 10
307.0
 20
-849.2000000000007
 30
0.0
 11
307.0
 21
-864.7413607104212
 31
0.0
  0
LINE
  5
322B
330
2B33
100
AcDbEntity
  8
OUTLINE
100
AcDbLine
 10
307.0
 20
-143.0000000000001
 30
0.0
 11
307.0
 21
-799.2000000000002
 31
0.0
  0
LINE
  5
322C
330
2B33
100
AcDbEntity
  8
OUTLINE
100
AcDbLine
 10
235.5543648736111
 20
-936.2000000000003
 30
0.0
 11
-235.7514556369115
 21
-936.2000000000003
 31
0.0
  0
LINE
  5
322D
330
2B33
100
AcDbEntity
  8
OUTLINE
100
AcDbLine
 10
-307.0
 20
-799.1999999999998
 30
0.0
 11
-307.0
 21
-143.0
 31
0.0
  0
LINE
  5
322E
330
2B33
100
AcDbEntity
  8
OUTLINE
100
AcDbLine
 10
-307.0
 20
-864.7412444691763
 30
0.0
 11
-307.0
 21
-849.1999999999999
 31
0.0
  0
LINE
  5
322F
330
2B33
100
AcDbEntity
  8
OUTLINE
100
AcDbLine
 10
309.5000000000037
 20
-655.4425625842204
 30
0.0
 11
309.5000000000037
 21
-643.9717967697243
 31
0.0
  0
LINE
  5
3230
330
2B33
100
AcDbEntity
  8
OUTLINE
100
AcDbLine
 10
309.5000000000037
 20
-655.9621778264909
 30
0.0
 11
309.5000000000037
 21
-655.4425625842204
 31
0.0
  0
LINE
  5
3231
330
2B33
100
AcDbEntity
  8
OUTLINE
100
AcDbLine
 10
309.5000000000037
 20
-655.9621778264909
 30
0.0
 11
309.5000000000037
 21
-693.9717967697234
 31
0.0
  0
LINE
  5
3232
330
2B33
100
AcDbEntity
  8
OUTLINE
100
AcDbLine
 10
309.0
 20
-655.4425625842204
 30
0.0
 11
309.5000000000037
 21
-655.4425625842204
 31
0.0
  0
LINE
  5
3234
330
2B33
100
AcDbEntity
  8
OUTLINE
100
AcDbLine
 10
-309.4999999999964
 20
-655.4425625842204
 30
0.0
 11
-309.0
 21
-655.4425625842204
 31
0.0
  0
LINE
  5
3235
330
2B33
100
AcDbEntity
  8
OUTLINE
100
AcDbLine
 10
-309.4999999999964
 20
-693.9717967697234
 30
0.0
 11
-309.4999999999964
 21
-655.9621778264909
 31
0.0
  0
LINE
  5
3236
330
2B33
100
AcDbEntity
  8
OUTLINE
100
AcDbLine
 10
-309.4999999999964
 20
-655.9621778264909
 30
0.0
 11
-309.4999999999964
 21
-655.4425625842204
 31
0.0
  0
LINE
  5
3237
330
2B33
100
AcDbEntity
  8
OUTLINE
100
AcDbLine
 10
-309.4999999999964
 20
-655.4425625842204
 30
0.0
 11
-309.4999999999964
 21
-643.9717967697243
 31
0.0
  0
LINE
  5
3238
330
2B33
100
AcDbEntity
  8
OUTLINE
100
AcDbLine
 10
309.5000000000037
 20
-643.9717967697243
 30
0.0
 11
309.0
 21
-643.9717967697243
 31
0.0
  0
LINE
  5
3239
330
2B33
100
AcDbEntity
  8
OUTLINE
100
AcDbLine
 10
309.0
 20
-655.9621778264909
 30
0.0
 11
309.5000000000037
 21
-655.9621778264909
 31
0.0
  0
LINE
  5
323A
330
2B33
100
AcDbEntity
  8
OUTLINE
100
AcDbLine
 10
-309.4999999999964
 20
-655.9621778264909
 30
0.0
 11
-309.0
 21
-655.9621778264909
 31
0.0
  0
LINE
  5
323C
330
2B33
100
AcDbEntity
  8
OUTLINE
100
AcDbLine
 10
-309.0000000000009
 20
-643.9717967697243
 30
0.0
 11
-309.4999999999964
 21
-643.9717967697243
 31
0.0
  0
LINE
  5
323E
330
2B33
100
AcDbEntity
  8
OUTLINE
100
AcDbLine
 10
-324.1999999999998
 20
-125.1118971738069
 30
0.0
 11
-324.1999999999998
 21
-125.1119668201554
 31
0.0
  0
LINE
  5
323F
330
2B33
100
AcDbEntity
  8
OUTLINE
100
AcDbLine
 10
324.2000000000007
 20
-125.1119668201555
 30
0.0
 11
324.2000000000007
 21
-125.1118971738075
 31
0.0
  0
LINE
  5
3240
330
2B33
100
AcDbEntity
  8
OUTLINE
100
AcDbLine
 10
-310.0
 20
-8.0
 30
0.0
 11
310.0
 21
-8.000000000000113
 31
0.0
  0
LINE
  5
3241
330
2B33
100
AcDbEntity
  8
OUTLINE
100
AcDbLine
 10
-310.0
 20
0.0
 30
0.0
 11
310.0
 21
-0.0000000000001137
 31
0.0
  0
LINE
  5
3242
330
2B33
100
AcDbEntity
  8
OUTLINE
100
AcDbLine
 10
-310.7999999999993
 20
-99.66862915010189
 30
0.0
 11
-311.6000000000004
 21
-99.66862915010189
 31
0.0
  0
LINE
  5
3243
330
2B33
100
AcDbEntity
  8
OUTLINE
100
AcDbLine
 10
-311.6000000000004
 20
-8.0
 30
0.0
 11
-311.6000000000004
 21
-99.66862915010189
 31
0.0
  0
LINE
  5
3244
330
2B33
100
AcDbEntity
  8
OUTLINE
100
AcDbLine
 10
310.8000000000002
 20
-99.66862915010199
 30
0.0
 11
311.6000000000004
 21
-99.66862915010199
 31
0.0
  0
LINE
  5
3245
330
2B33
100
AcDbEntity
  8
OUTLINE
100
AcDbLine
 10
311.6000000000004
 20
-125.111897173807
 30
0.0
 11
311.6000000000004
 21
-99.66862915010199
 31
0.0
  0
LINE
  5
3246
330
2B33
100
AcDbEntity
  8
OUTLINE
100
AcDbLine
 10
311.6000000000004
 20
-99.66862915010199
 30
0.0
 11
311.6000000000004
 21
-8.000000000000113
 31
0.0
  0
LINE
  5
3247
330
2B33
100
AcDbEntity
  8
OUTLINE
100
AcDbLine
 10
-311.6000000000004
 20
-99.66862915010189
 30
0.0
 11
-311.6000000000004
 21
-125.1118971738069
 31
0.0
  0
LINE
  5
3248
330
2B33
100
AcDbEntity
  8
OUTLINE
100
AcDbLine
 10
-310.0
 20
0.0
 30
0.0
 11
-310.0
 21
-8.0
 31
0.0
  0
LINE
  5
3249
330
2B33
100
AcDbEntity
  8
OUTLINE
100
AcDbLine
 10
310.0
 20
-0.0000000000001137
 30
0.0
 11
310.0
 21
-8.000000000000113
 31
0.0
  0
LINE
  5
324A
330
2B33
100
AcDbEntity
  8
OUTLINE
100
AcDbLine
 10
-310.7999999999993
 20
-99.66862915010189
 30
0.0
 11
310.8000000000002
 21
-99.66862915010199
 31
0.0
  0
LINE
  5
324B
330
2B33
100
AcDbEntity
  8
OUTLINE
100
AcDbLine
 10
310.0
 20
-140.0000000000001
 30
0.0
 11
-310.0
 21
-140.0
 31
0.0
  0
LINE
  5
324C
330
2B33
100
AcDbEntity
  8
OUTLINE
100
AcDbLine
 10
324.2000000000007
 20
-125.111897173807
 30
0.0
 11
-324.1999999999998
 21
-125.1118971738069
 31
0.0
  0
LINE
  5
324D
330
2B33
100
AcDbEntity
  8
OUTLINE
100
AcDbLine
 10
309.5
 20
-155.442562584221
 30
0.0
 11
309.5
 21
-143.9717967697248
 31
0.0
  0
LINE
  5
324E
330
2B33
100
AcDbEntity
  8
OUTLINE
100
AcDbLine
 10
309.5
 20
-155.9621778264919
 30
0.0
 11
309.5
 21
-155.4425625842215
 31
0.0
  0
LINE
  5
324F
330
2B33
100
AcDbEntity
  8
OUTLINE
100
AcDbLine
 10
309.5
 20
-155.9621778264919
 30
0.0
 11
309.5
 21
-193.9717967697244
 31
0.0
  0
LINE
  5
3250
330
2B33
100
AcDbEntity
  8
OUTLINE
100
AcDbLine
 10
308.9999999999991
 20
-155.442562584221
 30
0.0
 11
309.5
 21
-155.442562584221
 31
0.0
  0
LINE
  5
3251
330
2B33
100
AcDbEntity
  8
OUTLINE
100
AcDbLine
 10
-309.5
 20
-155.4425625842209
 30
0.0
 11
-309.0000000000009
 21
-155.4425625842209
 31
0.0
  0
LINE
  5
3252
330
2B33
100
AcDbEntity
  8
OUTLINE
100
AcDbLine
 10
-309.5
 20
-193.9717967697243
 30
0.0
 11
-309.5
 21
-155.9621778264918
 31
0.0
  0
LINE
  5
3253
330
2B33
100
AcDbEntity
  8
OUTLINE
100
AcDbLine
 10
-309.5
 20
-155.9621778264918
 30
0.0
 11
-309.5
 21
-155.4425625842213
 31
0.0
  0
LINE
  5
3254
330
2B33
100
AcDbEntity
  8
OUTLINE
100
AcDbLine
 10
-309.5
 20
-155.4425625842209
 30
0.0
 11
-309.5
 21
-143.9717967697247
 31
0.0
  0
LINE
  5
3255
330
2B33
100
AcDbEntity
  8
OUTLINE
100
AcDbLine
 10
309.5
 20
-143.9717967697248
 30
0.0
 11
308.9999999999991
 21
-143.9717967697248
 31
0.0
  0
LINE
  5
3256
330
2B33
100
AcDbEntity
  8
OUTLINE
100
AcDbLine
 10
308.9999999999991
 20
-155.9621778264915
 30
0.0
 11
309.5
 21
-155.9621778264915
 31
0.0
  0
LINE
  5
3257
330
2B33
100
AcDbEntity
  8
OUTLINE
100
AcDbLine
 10
-309.5
 20
-155.9621778264913
 30
0.0
 11
-309.0000000000009
 21
-155.9621778264913
 31
0.0
  0
LINE
  5
3259
330
2B33
100
AcDbEntity
  8
OUTLINE
100
AcDbLine
 10
-309.0000000000009
 20
-143.9717967697247
 30
0.0
 11
-309.5
 21
-143.9717967697247
 31
0.0
  0
LINE
  5
325B
330
2B33
100
AcDbEntity
  8
OUTLINE
100
AcDbLine
 10
309.5000000000037
 20
-205.4425625842206
 30
0.0
 11
309.5000000000037
 21
-193.9717967697244
 31
0.0
  0
LINE
  5
325C
330
2B33
100
AcDbEntity
  8
OUTLINE
100
AcDbLine
 10
309.5000000000037
 20
-205.962177826491
 30
0.0
 11
309.5000000000037
 21
-205.4425625842206
 31
0.0
  0
LINE
  5
325D
330
2B33
100
AcDbEntity
  8
OUTLINE
100
AcDbLine
 10
309.5000000000037
 20
-205.962177826491
 30
0.0
 11
309.5000000000037
 21
-243.9717967697244
 31
0.0
  0
LINE
  5
325E
330
2B33
100
AcDbEntity
  8
OUTLINE
100
AcDbLine
 10
308.9999999999991
 20
-205.4425625842206
 30
0.0
 11
309.5000000000037
 21
-205.4425625842206
 31
0.0
  0
LINE
  5
3260
330
2B33
100
AcDbEntity
  8
OUTLINE
100
AcDbLine
 10
-309.4999999999964
 20
-205.4425625842205
 30
0.0
 11
-309.0000000000009
 21
-205.4425625842205
 31
0.0
  0
LINE
  5
3261
330
2B33
100
AcDbEntity
  8
OUTLINE
100
AcDbLine
 10
-309.4999999999964
 20
-243.9717967697243
 30
0.0
 11
-309.4999999999964
 21
-205.9621778264909
 31
0.0
  0
LINE
  5
3262
330
2B33
100
AcDbEntity
  8
OUTLINE
100
AcDbLine
 10
-309.4999999999964
 20
-205.9621778264909
 30
0.0
 11
-309.4999999999964
 21
-205.4425625842205
 31
0.0
  0
LINE
  5
3263
330
2B33
100
AcDbEntity
  8
OUTLINE
100
AcDbLine
 10
-309.4999999999964
 20
-205.4425625842205
 30
0.0
 11
-309.4999999999964
 21
-193.9717967697243
 31
0.0
  0
LINE
  5
3264
330
2B33
100
AcDbEntity
  8
OUTLINE
100
AcDbLine
 10
309.5000000000037
 20
-193.9717967697244
 30
0.0
 11
308.9999999999991
 21
-193.9717967697244
 31
0.0
  0
LINE
  5
3265
330
2B33
100
AcDbEntity
  8
OUTLINE
100
AcDbLine
 10
308.9999999999991
 20
-205.962177826491
 30
0.0
 11
309.5000000000037
 21
-205.962177826491
 31
0.0
  0
LINE
  5
3266
330
2B33
100
AcDbEntity
  8
OUTLINE
100
AcDbLine
 10
-309.4999999999964
 20
-205.9621778264909
 30
0.0
 11
-309.0000000000009
 21
-205.9621778264909
 31
0.0
  0
LINE
  5
3268
330
2B33
100
AcDbEntity
  8
OUTLINE
100
AcDbLine
 10
-309.0000000000009
 20
-193.9717967697243
 30
0.0
 11
-309.4999999999964
 21
-193.9717967697243
 31
0.0
  0
LINE
  5
326A
330
2B33
100
AcDbEntity
  8
OUTLINE
100
AcDbLine
 10
309.5000000000037
 20
-255.4425625842206
 30
0.0
 11
309.5000000000037
 21
-243.9717967697244
 31
0.0
  0
LINE
  5
326B
330
2B33
100
AcDbEntity
  8
OUTLINE
100
AcDbLine
 10
309.5000000000037
 20
-255.962177826491
 30
0.0
 11
309.5000000000037
 21
-255.4425625842206
 31
0.0
  0
LINE
  5
326C
330
2B33
100
AcDbEntity
  8
OUTLINE
100
AcDbLine
 10
309.5000000000037
 20
-255.962177826491
 30
0.0
 11
309.5000000000037
 21
-293.9717967697244
 31
0.0
  0
LINE
  5
326D
330
2B33
100
AcDbEntity
  8
OUTLINE
100
AcDbLine
 10
308.9999999999991
 20
-255.4425625842206
 30
0.0
 11
309.5000000000037
 21
-255.4425625842206
 31
0.0
  0
LINE
  5
326F
330
2B33
100
AcDbEntity
  8
OUTLINE
100
AcDbLine
 10
-309.4999999999964
 20
-255.4425625842205
 30
0.0
 11
-309.0000000000009
 21
-255.4425625842205
 31
0.0
  0
LINE
  5
3270
330
2B33
100
AcDbEntity
  8
OUTLINE
100
AcDbLine
 10
-309.4999999999964
 20
-293.9717967697243
 30
0.0
 11
-309.4999999999964
 21
-255.9621778264909
 31
0.0
  0
LINE
  5
3271
330
2B33
100
AcDbEntity
  8
OUTLINE
100
AcDbLine
 10
-309.4999999999964
 20
-255.9621778264909
 30
0.0
 11
-309.4999999999964
 21
-255.4425625842205
 31
0.0
  0
LINE
  5
3272
330
2B33
100
AcDbEntity
  8
OUTLINE
100
AcDbLine
 10
-309.4999999999964
 20
-255.4425625842205
 30
0.0
 11
-309.4999999999964
 21
-243.9717967697243
 31
0.0
  0
LINE
  5
3273
330
2B33
100
AcDbEntity
  8
OUTLINE
100
AcDbLine
 10
309.5000000000037
 20
-243.9717967697244
 30
0.0
 11
308.9999999999991
 21
-243.9717967697244
 31
0.0
  0
LINE
  5
3274
330
2B33
100
AcDbEntity
  8
OUTLINE
100
AcDbLine
 10
308.9999999999991
 20
-255.962177826491
 30
0.0
 11
309.5000000000037
 21
-255.962177826491
 31
0.0
  0
LINE
  5
3275
330
2B33
100
AcDbEntity
  8
OUTLINE
100
AcDbLine
 10
-309.4999999999964
 20
-255.9621778264909
 30
0.0
 11
-309.0000000000009
 21
-255.9621778264909
 31
0.0
  0
LINE
  5
3277
330
2B33
100
AcDbEntity
  8
OUTLINE
100
AcDbLine
 10
-309.0000000000009
 20
-243.9717967697243
 30
0.0
 11
-309.4999999999964
 21
-243.9717967697243
 31
0.0
  0
LINE
  5
3279
330
2B33
100
AcDbEntity
  8
OUTLINE
100
AcDbLine
 10
309.5000000000037
 20
-305.4425625842206
 30
0.0
 11
309.5000000000037
 21
-293.9717967697244
 31
0.0
  0
LINE
  5
327A
330
2B33
100
AcDbEntity
  8
OUTLINE
100
AcDbLine
 10
309.5000000000037
 20
-305.962177826491
 30
0.0
 11
309.5000000000037
 21
-305.4425625842206
 31
0.0
  0
LINE
  5
327B
330
2B33
100
AcDbEntity
  8
OUTLINE
100
AcDbLine
 10
309.5000000000037
 20
-305.962177826491
 30
0.0
 11
309.5000000000037
 21
-343.9717967697235
 31
0.0
  0
LINE
  5
327C
330
2B33
100
AcDbEntity
  8
OUTLINE
100
AcDbLine
 10
308.9999999999991
 20
-305.4425625842206
 30
0.0
 11
309.5000000000037
 21
-305.4425625842206
 31
0.0
  0
LINE
  5
327E
330
2B33
100
AcDbEntity
  8
OUTLINE
100
AcDbLine
 10
-309.4999999999964
 20
-305.4425625842205
 30
0.0
 11
-309.0000000000009
 21
-305.4425625842205
 31
0.0
  0
LINE
  5
327F
330
2B33
100
AcDbEntity
  8
OUTLINE
100
AcDbLine
 10
-309.4999999999964
 20
-343.9717967697234
 30
0.0
 11
-309.4999999999964
 21
-305.9621778264909
 31
0.0
  0
LINE
  5
3280
330
2B33
100
AcDbEntity
  8
OUTLINE
100
AcDbLine
 10
-309.4999999999964
 20
-305.9621778264909
 30
0.0
 11
-309.4999999999964
 21
-305.4425625842205
 31
0.0
  0
LINE
  5
3281
330
2B33
100
AcDbEntity
  8
OUTLINE
100
AcDbLine
 10
-309.4999999999964
 20
-305.4425625842205
 30
0.0
 11
-309.4999999999964
 21
-293.9717967697243
 31
0.0
  0
LINE
  5
3282
330
2B33
100
AcDbEntity
  8
OUTLINE
100
AcDbLine
 10
309.5000000000037
 20
-293.9717967697244
 30
0.0
 11
308.9999999999991
 21
-293.9717967697244
 31
0.0
  0
LINE
  5
3283
330
2B33
100
AcDbEntity
  8
OUTLINE
100
AcDbLine
 10
308.9999999999991
 20
-305.962177826491
 30
0.0
 11
309.5000000000037
 21
-305.962177826491
 31
0.0
  0
LINE
  5
33C2
330
2B33
100
AcDbEntity
  8
OUTLINE
100
AcDbLine
 10
-309.4999999999964
 20
-305.9621778264909
 30
0.0
 11
-309.0000000000009
 21
-305.9621778264909
 31
0.0
  0
LINE
  5
33C4
330
2B33
100
AcDbEntity
  8
OUTLINE
100
AcDbLine
 10
-309.0000000000009
 20
-293.9717967697243
 30
0.0
 11
-309.4999999999964
 21
-293.9717967697243
 31
0.0
  0
LINE
  5
33C6
330
2B33
100
AcDbEntity
  8
OUTLINE
100
AcDbLine
 10
309.5000000000037
 20
-355.4425625842197
 30
0.0
 11
309.5000000000037
 21
-343.9717967697235
 31
0.0
  0
LINE
  5
33C7
330
2B33
100
AcDbEntity
  8
OUTLINE
100
AcDbLine
 10
309.5000000000037
 20
-355.9621778264901
 30
0.0
 11
309.5000000000037
 21
-355.4425625842197
 31
0.0
  0
LINE
  5
33C8
330
2B33
100
AcDbEntity
  8
OUTLINE
100
AcDbLine
 10
309.5000000000037
 20
-355.9621778264901
 30
0.0
 11
309.5000000000037
 21
-393.9717967697244
 31
0.0
  0
LINE
  5
33C9
330
2B33
100
AcDbEntity
  8
OUTLINE
100
AcDbLine
 10
308.9999999999991
 20
-355.4425625842197
 30
0.0
 11
309.5000000000037
 21
-355.4425625842197
 31
0.0
  0
LINE
  5
33CB
330
2B33
100
AcDbEntity
  8
OUTLINE
100
AcDbLine
 10
-309.4999999999964
 20
-355.4425625842196
 30
0.0
 11
-309.0000000000009
 21
-355.4425625842196
 31
0.0
  0
LINE
  5
33CC
330
2B33
100
AcDbEntity
  8
OUTLINE
100
AcDbLine
 10
-309.4999999999964
 20
-393.9717967697243
 30
0.0
 11
-309.4999999999964
 21
-355.96217782649
 31
0.0
  0
LINE
  5
33CD
330
2B33
100
AcDbEntity
  8
OUTLINE
100
AcDbLine
 10
-309.4999999999964
 20
-355.96217782649
 30
0.0
 11
-309.4999999999964
 21
-355.4425625842196
 31
0.0
  0
LINE
  5
33CE
330
2B33
100
AcDbEntity
  8
OUTLINE
100
AcDbLine
 10
-309.4999999999964
 20
-355.4425625842196
 30
0.0
 11
-309.4999999999964
 21
-343.9717967697234
 31
0.0
  0
LINE
  5
33CF
330
2B33
100
AcDbEntity
  8
OUTLINE
100
AcDbLine
 10
309.5000000000037
 20
-343.9717967697235
 30
0.0
 11
308.9999999999991
 21
-343.9717967697235
 31
0.0
  0
LINE
  5
33D0
330
2B33
100
AcDbEntity
  8
OUTLINE
100
AcDbLine
 10
308.9999999999991
 20
-355.9621778264901
 30
0.0
 11
309.5000000000037
 21
-355.9621778264901
 31
0.0
  0
LINE
  5
33D1
330
2B33
100
AcDbEntity
  8
OUTLINE
100
AcDbLine
 10
-309.4999999999964
 20
-355.96217782649
 30
0.0
 11
-309.0000000000009
 21
-355.96217782649
 31
0.0
  0
LINE
  5
33D3
330
2B33
100
AcDbEntity
  8
OUTLINE
100
AcDbLine
 10
-309.0000000000009
 20
-343.9717967697234
 30
0.0
 11
-309.4999999999964
 21
-343.9717967697234
 31
0.0
  0
LINE
  5
33D5
330
2B33
100
AcDbEntity
  8
OUTLINE
100
AcDbLine
 10
309.5000000000037
 20
-405.4425625842205
 30
0.0
 11
309.5000000000037
 21
-393.9717967697244
 31
0.0
  0
LINE
  5
33D6
330
2B33
100
AcDbEntity
  8
OUTLINE
100
AcDbLine
 10
309.5000000000037
 20
-405.962177826491
 30
0.0
 11
309.5000000000037
 21
-405.4425625842205
 31
0.0
  0
LINE
  5
33D7
330
2B33
100
AcDbEntity
  8
OUTLINE
100
AcDbLine
 10
309.5000000000037
 20
-405.962177826491
 30
0.0
 11
309.5000000000037
 21
-443.9717967697243
 31
0.0
  0
LINE
  5
33D8
330
2B33
100
AcDbEntity
  8
OUTLINE
100
AcDbLine
 10
308.9999999999991
 20
-405.4425625842205
 30
0.0
 11
309.5000000000037
 21
-405.4425625842205
 31
0.0
  0
LINE
  5
33DA
330
2B33
100
AcDbEntity
  8
OUTLINE
100
AcDbLine
 10
-309.4999999999964
 20
-405.4425625842204
 30
0.0
 11
-309.0000000000009
 21
-405.4425625842204
 31
0.0
  0
LINE
  5
33DB
330
2B33
100
AcDbEntity
  8
OUTLINE
100
AcDbLine
 10
-309.4999999999964
 20
-443.9717967697243
 30
0.0
 11
-309.4999999999964
 21
-405.9621778264909
 31
0.0
  0
LINE
  5
33DC
330
2B33
100
AcDbEntity
  8
OUTLINE
100
AcDbLine
 10
-309.4999999999964
 20
-405.9621778264909
 30
0.0
 11
-309.4999999999964
 21
-405.4425625842204
 31
0.0
  0
LINE
  5
33DD
330
2B33
100
AcDbEntity
  8
OUTLINE
100
AcDbLine
 10
-309.4999999999964
 20
-405.4425625842204
 30
0.0
 11
-309.4999999999964
 21
-393.9717967697243
 31
0.0
  0
LINE
  5
33DE
330
2B33
100
AcDbEntity
  8
OUTLINE
100
AcDbLine
 10
309.5000000000037
 20
-393.9717967697244
 30
0.0
 11
308.9999999999991
 21
-393.9717967697244
 31
0.0
  0
LINE
  5
33DF
330
2B33
100
AcDbEntity
  8
OUTLINE
100
AcDbLine
 10
308.9999999999991
 20
-405.962177826491
 30
0.0
 11
309.5000000000037
 21
-405.962177826491
 31
0.0
  0
LINE
  5
33E0
330
2B33
100
AcDbEntity
  8
OUTLINE
100
AcDbLine
 10
-309.4999999999964
 20
-405.9621778264909
 30
0.0
 11
-309.0000000000009
 21
-405.9621778264909
 31
0.0
  0
LINE
  5
33E2
330
2B33
100
AcDbEntity
  8
OUTLINE
100
AcDbLine
 10
-309.0000000000009
 20
-393.9717967697243
 30
0.0
 11
-309.4999999999964
 21
-393.9717967697243
 31
0.0
  0
LINE
  5
33E4
330
2B33
100
AcDbEntity
  8
OUTLINE
100
AcDbLine
 10
309.5000000000037
 20
-455.4425625842204
 30
0.0
 11
309.5000000000037
 21
-443.9717967697243
 31
0.0
  0
LINE
  5
33E5
330
2B33
100
AcDbEntity
  8
OUTLINE
100
AcDbLine
 10
309.5000000000037
 20
-455.9621778264909
 30
0.0
 11
309.5000000000037
 21
-455.4425625842204
 31
0.0
  0
LINE
  5
33E6
330
2B33
100
AcDbEntity
  8
OUTLINE
100
AcDbLine
 10
309.5000000000037
 20
-455.9621778264909
 30
0.0
 11
309.5000000000037
 21
-493.9717967697243
 31
0.0
  0
LINE
  5
33E7
330
2B33
100
AcDbEntity
  8
OUTLINE
100
AcDbLine
 10
308.9999999999991
 20
-455.4425625842204
 30
0.0
 11
309.5000000000037
 21
-455.4425625842204
 31
0.0
  0
LINE
  5
33E9
330
2B33
100
AcDbEntity
  8
OUTLINE
100
AcDbLine
 10
-309.4999999999964
 20
-455.4425625842204
 30
0.0
 11
-309.0000000000009
 21
-455.4425625842204
 31
0.0
  0
LINE
  5
33EA
330
2B33
100
AcDbEntity
  8
OUTLINE
100
AcDbLine
 10
-309.4999999999964
 20
-493.9717967697242
 30
0.0
 11
-309.4999999999964
 21
-455.9621778264909
 31
0.0
  0
LINE
  5
33EB
330
2B33
100
AcDbEntity
  8
OUTLINE
100
AcDbLine
 10
-309.4999999999964
 20
-455.9621778264909
 30
0.0
 11
-309.4999999999964
 21
-455.4425625842204
 31
0.0
  0
LINE
  5
33EC
330
2B33
100
AcDbEntity
  8
OUTLINE
100
AcDbLine
 10
-309.4999999999964
 20
-455.4425625842204
 30
0.0
 11
-309.4999999999964
 21
-443.9717967697243
 31
0.0
  0
LINE
  5
33ED
330
2B33
100
AcDbEntity
  8
OUTLINE
100
AcDbLine
 10
309.5000000000037
 20
-443.9717967697243
 30
0.0
 11
308.9999999999991
 21
-443.9717967697243
 31
0.0
  0
LINE
  5
33EE
330
2B33
100
AcDbEntity
  8
OUTLINE
100
AcDbLine
 10
308.9999999999991
 20
-455.9621778264909
 30
0.0
 11
309.5000000000037
 21
-455.9621778264909
 31
0.0
  0
LINE
  5
33EF
330
2B33
100
AcDbEntity
  8
OUTLINE
100
AcDbLine
 10
-309.4999999999964
 20
-455.9621778264909
 30
0.0
 11
-309.0
 21
-455.9621778264909
 31
0.0
  0
LINE
  5
33F1
330
2B33
100
AcDbEntity
  8
OUTLINE
100
AcDbLine
 10
-309.0000000000009
 20
-443.9717967697243
 30
0.0
 11
-309.4999999999964
 21
-443.9717967697243
 31
0.0
  0
LINE
  5
33F3
330
2B33
100
AcDbEntity
  8
OUTLINE
100
AcDbLine
 10
309.5000000000037
 20
-505.4425625842204
 30
0.0
 11
309.5000000000037
 21
-493.9717967697243
 31
0.0
  0
LINE
  5
33F4
330
2B33
100
AcDbEntity
  8
OUTLINE
100
AcDbLine
 10
309.5000000000037
 20
-505.9621778264909
 30
0.0
 11
309.5000000000037
 21
-505.4425625842204
 31
0.0
  0
LINE
  5
33F5
330
2B33
100
AcDbEntity
  8
OUTLINE
100
AcDbLine
 10
309.5000000000037
 20
-505.9621778264909
 30
0.0
 11
309.5000000000037
 21
-543.9717967697243
 31
0.0
  0
LINE
  5
33F6
330
2B33
100
AcDbEntity
  8
OUTLINE
100
AcDbLine
 10
308.9999999999991
 20
-505.4425625842204
 30
0.0
 11
309.5000000000037
 21
-505.4425625842204
 31
0.0
  0
LINE
  5
33F8
330
2B33
100
AcDbEntity
  8
OUTLINE
100
AcDbLine
 10
-309.4999999999964
 20
-505.4425625842204
 30
0.0
 11
-309.0
 21
-505.4425625842204
 31
0.0
  0
LINE
  5
33F9
330
2B33
100
AcDbEntity
  8
OUTLINE
100
AcDbLine
 10
-309.4999999999964
 20
-543.9717967697243
 30
0.0
 11
-309.4999999999964
 21
-505.9621778264908
 31
0.0
  0
LINE
  5
33FA
330
2B33
100
AcDbEntity
  8
OUTLINE
100
AcDbLine
 10
-309.4999999999964
 20
-505.9621778264908
 30
0.0
 11
-309.4999999999964
 21
-505.4425625842204
 31
0.0
  0
LINE
  5
33FB
330
2B33
100
AcDbEntity
  8
OUTLINE
100
AcDbLine
 10
-309.4999999999964
 20
-505.4425625842204
 30
0.0
 11
-309.4999999999964
 21
-493.9717967697242
 31
0.0
  0
LINE
  5
33FC
330
2B33
100
AcDbEntity
  8
OUTLINE
100
AcDbLine
 10
309.5000000000037
 20
-493.9717967697243
 30
0.0
 11
308.9999999999991
 21
-493.9717967697243
 31
0.0
  0
LINE
  5
33FD
330
2B33
100
AcDbEntity
  8
OUTLINE
100
AcDbLine
 10
308.9999999999991
 20
-505.9621778264909
 30
0.0
 11
309.5000000000037
 21
-505.9621778264909
 31
0.0
  0
LINE
  5
33FE
330
2B33
100
AcDbEntity
  8
OUTLINE
100
AcDbLine
 10
-309.4999999999964
 20
-505.9621778264908
 30
0.0
 11
-309.0
 21
-505.9621778264908
 31
0.0
  0
LINE
  5
3400
330
2B33
100
AcDbEntity
  8
OUTLINE
100
AcDbLine
 10
-309.0000000000009
 20
-493.9717967697242
 30
0.0
 11
-309.4999999999964
 21
-493.9717967697242
 31
0.0
  0
LINE
  5
3402
330
2B33
100
AcDbEntity
  8
OUTLINE
100
AcDbLine
 10
309.5000000000037
 20
-555.4425625842204
 30
0.0
 11
309.5000000000037
 21
-543.9717967697243
 31
0.0
  0
LINE
  5
3403
330
2B33
100
AcDbEntity
  8
OUTLINE
100
AcDbLine
 10
309.5000000000037
 20
-555.9621778264909
 30
0.0
 11
309.5000000000037
 21
-555.4425625842204
 31
0.0
  0
LINE
  5
3404
330
2B33
100
AcDbEntity
  8
OUTLINE
100
AcDbLine
 10
309.5000000000037
 20
-555.9621778264909
 30
0.0
 11
309.5000000000037
 21
-593.9717967697243
 31
0.0
  0
LINE
  5
3405
330
2B33
100
AcDbEntity
  8
OUTLINE
100
AcDbLine
 10
308.9999999999991
 20
-555.4425625842204
 30
0.0
 11
309.5000000000037
 21
-555.4425625842204
 31
0.0
  0
LINE
  5
3407
330
2B33
100
AcDbEntity
  8
OUTLINE
100
AcDbLine
 10
-309.4999999999964
 20
-555.4425625842204
 30
0.0
 11
-309.0
 21
-555.4425625842204
 31
0.0
  0
LINE
  5
3408
330
2B33
100
AcDbEntity
  8
OUTLINE
100
AcDbLine
 10
-309.4999999999964
 20
-593.9717967697243
 30
0.0
 11
-309.4999999999964
 21
-555.9621778264909
 31
0.0
  0
LINE
  5
3409
330
2B33
100
AcDbEntity
  8
OUTLINE
100
AcDbLine
 10
-309.4999999999964
 20
-555.9621778264909
 30
0.0
 11
-309.4999999999964
 21
-555.4425625842204
 31
0.0
  0
LINE
  5
340A
330
2B33
100
AcDbEntity
  8
OUTLINE
100
AcDbLine
 10
-309.4999999999964
 20
-555.4425625842204
 30
0.0
 11
-309.4999999999964
 21
-543.9717967697243
 31
0.0
  0
LINE
  5
340B
330
2B33
100
AcDbEntity
  8
OUTLINE
100
AcDbLine
 10
309.5000000000037
 20
-543.9717967697243
 30
0.0
 11
308.9999999999991
 21
-543.9717967697243
 31
0.0
  0
LINE
  5
340C
330
2B33
100
AcDbEntity
  8
OUTLINE
100
AcDbLine
 10
308.9999999999991
 20
-555.9621778264909
 30
0.0
 11
309.5000000000037
 21
-555.9621778264909
 31
0.0
  0
LINE
  5
340D
330
2B33
100
AcDbEntity
  8
OUTLINE
100
AcDbLine
 10
-309.4999999999964
 20
-555.9621778264909
 30
0.0
 11
-309.0
 21
-555.9621778264909
 31
0.0
  0
LINE
  5
340F
330
2B33
100
AcDbEntity
  8
OUTLINE
100
AcDbLine
 10
-309.0000000000009
 20
-543.9717967697243
 30
0.0
 11
-309.4999999999964
 21
-543.9717967697243
 31
0.0
  0
LINE
  5
3411
330
2B33
100
AcDbEntity
  8
OUTLINE
100
AcDbLine
 10
309.5000000000037
 20
-605.4425625842204
 30
0.0
 11
309.5000000000037
 21
-593.9717967697243
 31
0.0
  0
LINE
  5
3412
330
2B33
100
AcDbEntity
  8
OUTLINE
100
AcDbLine
 10
309.5000000000037
 20
-605.9621778264909
 30
0.0
 11
309.5000000000037
 21
-605.4425625842204
 31
0.0
  0
LINE
  5
3413
330
2B33
100
AcDbEntity
  8
OUTLINE
100
AcDbLine
 10
309.5000000000037
 20
-605.9621778264909
 30
0.0
 11
309.5000000000037
 21
-643.9717967697243
 31
0.0
  0
LINE
  5
3414
330
2B33
100
AcDbEntity
  8
OUTLINE
100
AcDbLine
 10
308.9999999999991
 20
-605.4425625842204
 30
0.0
 11
309.5000000000037
 21
-605.4425625842204
 31
0.0
  0
LINE
  5
3416
330
2B33
100
AcDbEntity
  8
OUTLINE
100
AcDbLine
 10
-309.4999999999964
 20
-605.4425625842204
 30
0.0
 11
-309.0
 21
-605.4425625842204
 31
0.0
  0
LINE
  5
3417
330
2B33
100
AcDbEntity
  8
OUTLINE
100
AcDbLine
 10
-309.4999999999964
 20
-643.9717967697243
 30
0.0
 11
-309.4999999999964
 21
-605.9621778264909
 31
0.0
  0
LINE
  5
3418
330
2B33
100
AcDbEntity
  8
OUTLINE
100
AcDbLine
 10
-309.4999999999964
 20
-605.9621778264909
 30
0.0
 11
-309.4999999999964
 21
-605.4425625842204
 31
0.0
  0
LINE
  5
3419
330
2B33
100
AcDbEntity
  8
OUTLINE
100
AcDbLine
 10
-309.4999999999964
 20
-605.4425625842204
 30
0.0
 11
-309.4999999999964
 21
-593.9717967697243
 31
0.0
  0
LINE
  5
341A
330
2B33
100
AcDbEntity
  8
OUTLINE
100
AcDbLine
 10
309.5000000000037
 20
-593.9717967697243
 30
0.0
 11
308.9999999999991
 21
-593.9717967697243
 31
0.0
  0
LINE
  5
341B
330
2B33
100
AcDbEntity
  8
OUTLINE
100
AcDbLine
 10
309.0
 20
-605.9621778264909
 30
0.0
 11
309.5000000000037
 21
-605.9621778264909
 31
0.0
  0
LINE
  5
341C
330
2B33
100
AcDbEntity
  8
OUTLINE
100
AcDbLine
 10
-309.4999999999964
 20
-605.9621778264909
 30
0.0
 11
-309.0
 21
-605.9621778264909
 31
0.0
  0
LINE
  5
341E
330
2B33
100
AcDbEntity
  8
OUTLINE
100
AcDbLine
 10
-309.0000000000009
 20
-593.9717967697243
 30
0.0
 11
-309.4999999999964
 21
-593.9717967697243
 31
0.0
  0
LINE
  5
3420
330
2B33
100
AcDbEntity
  8
OUTLINE
100
AcDbLine
 10
-310.0
 20
-0.6000000000003638
 30
0.0
 11
-310.1514718625758
 21
-0.6000000000003638
 31
0.0
  0
LINE
  5
3421
330
2B33
100
AcDbEntity
  8
OUTLINE
100
AcDbLine
 10
-310.1514718625758
 20
-0.6000000000003638
 30
0.0
 11
-311.0
 21
-0.0000000000004547
 31
0.0
  0
LINE
  5
3422
330
2B33
100
AcDbEntity
  8
OUTLINE
100
AcDbLine
 10
-311.0
 20
-1.800000000000181
 30
0.0
 11
-310.0
 21
-1.800000000000181
 31
0.0
  0
LINE
  5
3423
330
2B33
100
AcDbEntity
  8
OUTLINE
100
AcDbLine
 10
-350.0
 20
-8.0
 30
0.0
 11
-311.0
 21
-8.0
 31
0.0
  0
LINE
  5
3424
330
2B33
100
AcDbEntity
  8
OUTLINE
100
AcDbLine
 10
-311.0
 20
0.0
 30
0.0
 11
-311.0
 21
-8.0
 31
0.0
  0
LINE
  5
3425
330
2B33
100
AcDbEntity
  8
OUTLINE
100
AcDbLine
 10
-350.0
 20
0.0
 30
0.0
 11
-311.0
 21
0.0
 31
0.0
  0
LINE
  5
3426
330
2B33
100
AcDbEntity
  8
OUTLINE
100
AcDbLine
 10
-350.0
 20
0.0
 30
0.0
 11
-350.0
 21
-8.0
 31
0.0
  0
LINE
  5
3427
330
2B33
100
AcDbEntity
  8
OUTLINE
100
AcDbLine
 10
310.0
 20
-1.800000000000295
 30
0.0
 11
311.0
 21
-1.800000000000295
 31
0.0
  0
LINE
  5
3428
330
2B33
100
AcDbEntity
  8
OUTLINE
100
AcDbLine
 10
350.0
 20
-0.0000000000001137
 30
0.0
 11
350.0
 21
-8.000000000000113
 31
0.0
  0
LINE
  5
3429
330
2B33
100
AcDbEntity
  8
OUTLINE
100
AcDbLine
 10
311.0
 20
-0.0000000000001137
 30
0.0
 11
311.0
 21
-8.000000000000113
 31
0.0
  0
LINE
  5
342A
330
2B33
100
AcDbEntity
  8
OUTLINE
100
AcDbLine
 10
311.0
 20
-8.000000000000113
 30
0.0
 11
350.0
 21
-8.000000000000113
 31
0.0
  0
LINE
  5
342B
330
2B33
100
AcDbEntity
  8
OUTLINE
100
AcDbLine
 10
350.0
 20
-0.0000000000001137
 30
0.0
 11
311.0
 21
-0.0000000000001137
 31
0.0
  0
LINE
  5
342C
330
2B33
100
AcDbEntity
  8
OUTLINE
100
AcDbLine
 10
310.1514718625767
 20
-0.6000000000004775
 30
0.0
 11
311.0
 21
-0.0000000000005684
 31
0.0
  0
LINE
  5
342D
330
2B33
100
AcDbEntity
  8
OUTLINE
100
AcDbLine
 10
310.1514718625767
 20
-0.6000000000004775
 30
0.0
 11
310.0
 21
-0.6000000000004775
 31
0.0
  0
LINE
  5
342E
330
2B33
100
AcDbEntity
  8
OUTLINE
100
AcDbLine
 10
309.5000000000037
 20
-705.4425625842196
 30
0.0
 11
309.5000000000037
 21
-693.9717967697234
 31
0.0
  0
LINE
  5
342F
330
2B33
100
AcDbEntity
  8
OUTLINE
100
AcDbLine
 10
309.5000000000037
 20
-705.96217782649
 30
0.0
 11
309.5000000000037
 21
-705.4425625842196
 31
0.0
  0
LINE
  5
3430
330
2B33
100
AcDbEntity
  8
OUTLINE
100
AcDbLine
 10
309.5000000000037
 20
-705.96217782649
 30
0.0
 11
309.5000000000037
 21
-743.9717967697243
 31
0.0
  0
LINE
  5
3431
330
2B33
100
AcDbEntity
  8
OUTLINE
100
AcDbLine
 10
309.0
 20
-705.4425625842196
 30
0.0
 11
309.5000000000037
 21
-705.4425625842196
 31
0.0
  0
LINE
  5
3435
330
2B33
100
AcDbEntity
  8
OUTLINE
100
AcDbLine
 10
-309.4999999999964
 20
-705.4425625842196
 30
0.0
 11
-309.0
 21
-705.4425625842196
 31
0.0
  0
LINE
  5
3436
330
2B33
100
AcDbEntity
  8
OUTLINE
100
AcDbLine
 10
-309.4999999999964
 20
-743.9717967697243
 30
0.0
 11
-309.4999999999964
 21
-705.96217782649
 31
0.0
  0
LINE
  5
3437
330
2B33
100
AcDbEntity
  8
OUTLINE
100
AcDbLine
 10
-309.4999999999964
 20
-705.96217782649
 30
0.0
 11
-309.4999999999964
 21
-705.4425625842196
 31
0.0
  0
LINE
  5
3438
330
2B33
100
AcDbEntity
  8
OUTLINE
100
AcDbLine
 10
-309.4999999999964
 20
-705.4425625842196
 30
0.0
 11
-309.4999999999964
 21
-693.9717967697234
 31
0.0
  0
LINE
  5
3439
330
2B33
100
AcDbEntity
  8
OUTLINE
100
AcDbLine
 10
309.5000000000037
 20
-693.9717967697234
 30
0.0
 11
309.0
 21
-693.9717967697234
 31
0.0
  0
LINE
  5
343A
330
2B33
100
AcDbEntity
  8
OUTLINE
100
AcDbLine
 10
309.0
 20
-705.96217782649
 30
0.0
 11
309.5000000000037
 21
-705.96217782649
 31
0.0
  0
LINE
  5
343B
330
2B33
100
AcDbEntity
  8
OUTLINE
100
AcDbLine
 10
-309.4999999999964
 20
-705.96217782649
 30
0.0
 11
-309.0
 21
-705.96217782649
 31
0.0
  0
LINE
  5
343D
330
2B33
100
AcDbEntity
  8
OUTLINE
100
AcDbLine
 10
-309.0000000000009
 20
-693.9717967697234
 30
0.0
 11
-309.4999999999964
 21
-693.9717967697234
 31
0.0
  0
LINE
  5
343F
330
2B33
100
AcDbEntity
  8
OUTLINE
100
AcDbLine
 10
309.5000000000037
 20
-755.4425625842204
 30
0.0
 11
309.5000000000037
 21
-743.9717967697243
 31
0.0
  0
LINE
  5
3440
330
2B33
100
AcDbEntity
  8
OUTLINE
100
AcDbLine
 10
309.5000000000037
 20
-755.9621778264909
 30
0.0
 11
309.5000000000037
 21
-755.4425625842204
 31
0.0
  0
LINE
  5
3441
330
2B33
100
AcDbEntity
  8
OUTLINE
100
AcDbLine
 10
309.5000000000037
 20
-755.9621778264909
 30
0.0
 11
309.5000000000037
 21
-793.9717967697243
 31
0.0
  0
LINE
  5
3442
330
2B33
100
AcDbEntity
  8
OUTLINE
100
AcDbLine
 10
309.0
 20
-755.4425625842204
 30
0.0
 11
309.5000000000037
 21
-755.4425625842204
 31
0.0
  0
LINE
  5
3444
330
2B33
100
AcDbEntity
  8
OUTLINE
100
AcDbLine
 10
-309.4999999999964
 20
-755.4425625842204
 30
0.0
 11
-309.0
 21
-755.4425625842204
 31
0.0
  0
LINE
  5
3445
330
2B33
100
AcDbEntity
  8
OUTLINE
100
AcDbLine
 10
-309.4999999999964
 20
-793.9717967697243
 30
0.0
 11
-309.4999999999964
 21
-755.9621778264909
 31
0.0
  0
LINE
  5
3446
330
2B33
100
AcDbEntity
  8
OUTLINE
100
AcDbLine
 10
-309.4999999999964
 20
-755.9621778264909
 30
0.0
 11
-309.4999999999964
 21
-755.4425625842204
 31
0.0
  0
LINE
  5
3447
330
2B33
100
AcDbEntity
  8
OUTLINE
100
AcDbLine
 10
-309.4999999999964
 20
-755.4425625842204
 30
0.0
 11
-309.4999999999964
 21
-743.9717967697243
 31
0.0
  0
LINE
  5
3448
330
2B33
100
AcDbEntity
  8
OUTLINE
100
AcDbLine
 10
309.5000000000037
 20
-743.9717967697243
 30
0.0
 11
309.0
 21
-743.9717967697243
 31
0.0
  0
LINE
  5
3449
330
2B33
100
AcDbEntity
  8
OUTLINE
100
AcDbLine
 10
309.0
 20
-755.9621778264909
 30
0.0
 11
309.5000000000037
 21
-755.9621778264909
 31
0.0
  0
LINE
  5
344A
330
2B33
100
AcDbEntity
  8
OUTLINE
100
AcDbLine
 10
-309.4999999999964
 20
-755.9621778264909
 30
0.0
 11
-309.0
 21
-755.9621778264909
 31
0.0
  0
LINE
  5
344C
330
2B33
100
AcDbEntity
  8
OUTLINE
100
AcDbLine
 10
-309.0000000000009
 20
-743.9717967697243
 30
0.0
 11
-309.4999999999964
 21
-743.9717967697243
 31
0.0
  0
LINE
  5
344E
330
2B33
100
AcDbEntity
  8
OUTLINE
100
AcDbLine
 10
309.5000000000037
 20
-799.2000000000002
 30
0.0
 11
309.5000000000037
 21
-793.9717967697243
 31
0.0
  0
LINE
  5
3450
330
2B33
100
AcDbEntity
  8
OUTLINE
100
AcDbLine
 10
-309.4999999999964
 20
-799.2000000000002
 30
0.0
 11
-309.4999999999964
 21
-793.9717967697247
 31
0.0
  0
LINE
  5
3451
330
2B33
100
AcDbEntity
  8
OUTLINE
100
AcDbLine
 10
309.5000000000037
 20
-793.9717967697243
 30
0.0
 11
309.0
 21
-793.9717967697243
 31
0.0
  0
LINE
  5
3453
330
2B33
100
AcDbEntity
  8
OUTLINE
100
AcDbLine
 10
-309.0
 20
-793.9717967697243
 30
0.0
 11
-309.4999999999964
 21
-793.9717967697243
 31
0.0
  0
LINE
  5
3456
330
2B33
100
AcDbEntity
  8
OUTLINE
100
AcDbLine
 10
309.0
 20
-855.4425625842213
 30
0.0
 11
309.2000000000007
 21
-855.4425625842213
 31
0.0
  0
LINE
  5
3458
330
2B33
100
AcDbEntity
  8
OUTLINE
100
AcDbLine
 10
-309.1999999999998
 20
-855.4425625842213
 30
0.0
 11
-309.0
 21
-855.4425625842213
 31
0.0
  0
LINE
  5
3459
330
2B33
100
AcDbEntity
  8
OUTLINE
100
AcDbLine
 10
309.0
 20
-855.9621778264919
 30
0.0
 11
309.2000000000007
 21
-855.9621778264919
 31
0.0
  0
LINE
  5
345A
330
2B33
100
AcDbEntity
  8
OUTLINE
100
AcDbLine
 10
-309.1999999999998
 20
-855.9621778264919
 30
0.0
 11
-309.0
 21
-855.9621778264919
 31
0.0
  0
ELLIPSE
  5
345D
102
{ACAD_REACTORS
330
34D2
330
34D3
102
}
330
2B33
100
AcDbEntity
  8
OUTLINE
100
AcDbEllipse
 10
-245.0893429166854
 20
-873.8301914795757
 30
0.0
 11
5.427745534960115
 21
8.398784341065113
 31
0.0
210
0.0
220
0.0
230
1.0
 40
0.97446250496396
 41
5.287729285782978
 42
6.858525612577873
  0
LINE
  5
345F
330
2B33
100
AcDbEntity
  8
OUTLINE
100
AcDbLine
 10
-239.5107214344252
 20
-865.5289112791137
 30
0.0
 11
-239.6615973817252
 21
-865.4314071385106
 31
0.0
  0
LINE
  5
3461
102
{ACAD_REACTORS
330
34D2
330
34D3
102
}
330
2B33
100
AcDbEntity
  8
OUTLINE
100
AcDbLine
 10
-235.2693093119806
 20
-873.6978639319636
 30
0.0
 11
-235.7714507986984
 21
-923.2000000000002
 31
0.0
  0
LINE
  5
3462
330
2B33
100
AcDbEntity
  8
OUTLINE
100
AcDbLine
 10
-308.8188882020804
 20
-864.7657557238931
 30
0.0
 11
-308.818888189342
 21
-864.7657544681401
 31
0.0
  0
LINE
  5
3463
330
2B33
100
AcDbEntity
  8
OUTLINE
100
AcDbLine
 10
-308.818888189342
 20
-864.7657544681401
 30
0.0
 11
-294.0000000000004
 21
-864.5660660341317
 31
0.0
  0
LINE
  5
3464
330
2B33
100
AcDbEntity
  8
OUTLINE
100
AcDbLine
 10
-309.1999999999998
 20
-902.3365423686204
 30
0.0
 11
-308.8188881799506
 21
-864.7657557241178
 31
0.0
  0
LINE
  5
3465
330
2B33
100
AcDbEntity
  8
OUTLINE
100
AcDbLine
 10
-308.8188881799506
 20
-864.7657557241178
 30
0.0
 11
-309.1999999999998
 21
-865.6139472393933
 31
0.0
  0
LINE
  5
3466
330
2B33
100
AcDbEntity
  8
OUTLINE
100
AcDbLine
 10
-232.1335220783549
 20
-939.2000000000017
 30
0.0
 11
-232.1335220783549
 21
-938.4000000000014
 31
0.0
  0
LINE
  5
3467
330
2B33
100
AcDbEntity
  8
OUTLINE
100
AcDbLine
 10
-232.1335220783549
 20
-938.4000000000014
 30
0.0
 11
-235.9337521542675
 21
-938.4000000000014
 31
0.0
  0
LINE
  5
3468
330
2B33
100
AcDbEntity
  8
OUTLINE
100
AcDbLine
 10
-235.9337521542675
 20
-939.2000000000017
 30
0.0
 11
-235.9337521542675
 21
-938.4000000000014
 31
0.0
  0
LINE
  5
3469
330
2B33
100
AcDbEntity
  8
OUTLINE
100
AcDbLine
 10
-235.9337521542675
 20
-938.4000000000014
 30
0.0
 11
-295.0
 21
-938.4000000000014
 31
0.0
  0
LINE
  5
346A
330
2B33
100
AcDbEntity
  8
OUTLINE
100
AcDbLine
 10
-309.1999999999998
 20
-799.2000000000002
 30
0.0
 11
-309.1999999999998
 21
-929.2000000000003
 31
0.0
  0
LINE
  5
346B
330
2B33
100
AcDbEntity
  8
OUTLINE
100
AcDbLine
 10
-309.1999999999998
 20
-929.2000000000003
 30
0.0
 11
-309.1999999999998
 21
-938.4
 31
0.0
  0
LINE
  5
346C
330
2B33
100
AcDbEntity
  8
OUTLINE
100
AcDbLine
 10
-309.1999999999998
 20
-938.4
 30
0.0
 11
-295.0
 21
-938.4
 31
0.0
  0
LINE
  5
346D
330
2B33
100
AcDbEntity
  8
OUTLINE
100
AcDbLine
 10
-309.1999999999998
 20
-799.2000000000002
 30
0.0
 11
-310.0
 21
-799.2000000000002
 31
0.0
  0
LINE
  5
346E
330
2B33
100
AcDbEntity
  8
OUTLINE
100
AcDbLine
 10
-310.0
 20
-929.2000000000003
 30
0.0
 11
-310.0
 21
-813.7905848787454
 31
0.0
  0
LINE
  5
346F
330
2B33
100
AcDbEntity
  8
OUTLINE
100
AcDbLine
 10
-309.1999999999998
 20
-929.2000000000003
 30
0.0
 11
-310.0
 21
-929.2000000000003
 31
0.0
  0
LINE
  5
3470
330
2B33
100
AcDbEntity
  8
OUTLINE
100
AcDbLine
 10
-310.0
 20
-939.2000000000003
 30
0.0
 11
-310.0
 21
-929.2000000000003
 31
0.0
  0
LINE
  5
3471
330
2B33
100
AcDbEntity
  8
OUTLINE
100
AcDbLine
 10
-295.0
 20
-939.2000000000003
 30
0.0
 11
-310.0
 21
-939.2000000000003
 31
0.0
  0
LINE
  5
3472
330
2B33
100
AcDbEntity
  8
OUTLINE
100
AcDbLine
 10
-295.0
 20
-938.4
 30
0.0
 11
-295.0
 21
-939.2000000000003
 31
0.0
  0
LINE
  5
3473
330
2B33
100
AcDbEntity
  8
OUTLINE
100
AcDbLine
 10
-300.0
 20
-849.1999999999999
 30
0.0
 11
-309.1999999999998
 21
-849.1999999999999
 31
0.0
  0
LINE
  5
3474
330
2B33
100
AcDbEntity
  8
OUTLINE
100
AcDbLine
 10
-300.0
 20
-799.1999999999998
 30
0.0
 11
-300.0
 21
-849.1999999999999
 31
0.0
  0
LINE
  5
3475
330
2B33
100
AcDbEntity
  8
OUTLINE
100
AcDbLine
 10
-309.1999999999998
 20
-799.1999999999998
 30
0.0
 11
-300.0
 21
-799.1999999999998
 31
0.0
  0
ELLIPSE
  5
3477
330
2B33
100
AcDbEntity
  8
OUTLINE
100
AcDbEllipse
 10
244.9685778619132
 20
-873.8301914795748
 30
0.0
 11
5.604942602600353
 21
-8.281583086678269
 31
0.0
210
0.0
220
0.0
230
1.0
 40
0.9760711834886045
 41
2.544468503785861
 42
4.115264830580755
  0
LINE
  5
3479
330
2B33
100
AcDbEntity
  8
OUTLINE
100
AcDbLine
 10
235.1324774158747
 20
-873.6978639319623
 30
0.0
 11
235.7192684453766
 21
-938.4000000000005
 31
0.0
  0
LINE
  5
347A
330
2B33
100
AcDbEntity
  8
OUTLINE
100
AcDbLine
 10
309.2000000000007
 20
-907.4133900938113
 30
0.0
 11
308.8132237429026
 21
-864.7657544681392
 31
0.0
  0
LINE
  5
347B
330
2B33
100
AcDbEntity
  8
OUTLINE
100
AcDbLine
 10
308.8132237429026
 20
-864.7657544681392
 30
0.0
 11
244.878570843659
 21
-863.9056254086598
 31
0.0
  0
LINE
  5
347D
330
2B33
100
AcDbEntity
  8
OUTLINE
100
AcDbLine
 10
308.813223768675
 20
-864.7657544679054
 30
0.0
 11
308.8132237572863
 21
-864.7657532121616
 31
0.0
  0
LINE
  5
347E
330
2B33
100
AcDbEntity
  8
OUTLINE
100
AcDbLine
 10
308.8131820698636
 20
-864.7657539075012
 30
0.0
 11
308.8132237572863
 21
-864.7657532121616
 31
0.0
  0
LINE
  5
347F
330
2B33
100
AcDbEntity
  8
OUTLINE
100
AcDbLine
 10
308.8132237572863
 20
-864.7657532121616
 30
0.0
 11
309.2000000000007
 21
-865.5088213393664
 31
0.0
  0
LINE
  5
3480
330
2B33
100
AcDbEntity
  8
OUTLINE
100
AcDbLine
 10
232.0977892190076
 20
-938.4000000000005
 30
0.0
 11
232.0977892190076
 21
-939.2000000000008
 31
0.0
  0
LINE
  5
3481
330
2B33
100
AcDbEntity
  8
OUTLINE
100
AcDbLine
 10
235.7265235080513
 20
-938.4000000000005
 30
0.0
 11
235.7265235080513
 21
-939.2000000000008
 31
0.0
  0
LINE
  5
3482
330
2B33
100
AcDbEntity
  8
OUTLINE
100
AcDbLine
 10
232.0977892190076
 20
-938.4000000000005
 30
0.0
 11
235.7265235080513
 21
-938.4000000000005
 31
0.0
  0
LINE
  5
3483
330
2B33
100
AcDbEntity
  8
OUTLINE
100
AcDbLine
 10
235.7265235080513
 20
-938.4000000000005
 30
0.0
 11
295.0
 21
-938.4000000000005
 31
0.0
  0
ELLIPSE
  5
3485
102
{ACAD_REACTORS
330
34D2
330
34D3
102
}
330
2B33
100
AcDbEntity
  8
OUTLINE
100
AcDbEllipse
 10
244.9685778619132
 20
-873.8301914795748
 30
0.0
 11
5.604942602600353
 21
-8.281583086678269
 31
0.0
210
0.0
220
0.0
230
1.0
 40
0.9760711834886045
 41
2.544468503785861
 42
4.115264830580755
  0
LINE
  5
3487
102
{ACAD_REACTORS
330
34D2
330
34D3
102
}
330
2B33
100
AcDbEntity
  8
OUTLINE
100
AcDbLine
 10
235.1324774158747
 20
-873.6978639319623
 30
0.0
 11
235.5814192894759
 21
-923.2001513425455
 31
0.0
  0
LINE
  5
3488
330
2B33
100
AcDbEntity
  8
OUTLINE
100
AcDbLine
 10
309.2000000000007
 20
-907.4133900938113
 30
0.0
 11
308.8132237429026
 21
-864.7657544681392
 31
0.0
  0
LINE
  5
3489
330
2B33
100
AcDbEntity
  8
OUTLINE
100
AcDbLine
 10
308.8132237429026
 20
-864.7657544681392
 30
0.0
 11
294.0002081263683
 21
-864.5664712216911
 31
0.0
  0
LINE
  5
348B
330
2B33
100
AcDbEntity
  8
OUTLINE
100
AcDbLine
 10
309.2000000000007
 20
-799.2000000000002
 30
0.0
 11
309.2000000000007
 21
-929.2000000000003
 31
0.0
  0
LINE
  5
348C
330
2B33
100
AcDbEntity
  8
OUTLINE
100
AcDbLine
 10
309.2000000000007
 20
-929.2000000000003
 30
0.0
 11
309.2000000000007
 21
-938.4
 31
0.0
  0
LINE
  5
348D
330
2B33
100
AcDbEntity
  8
OUTLINE
100
AcDbLine
 10
309.2000000000007
 20
-938.4
 30
0.0
 11
295.0
 21
-938.4
 31
0.0
  0
LINE
  5
348E
330
2B33
100
AcDbEntity
  8
OUTLINE
100
AcDbLine
 10
309.2000000000007
 20
-799.2000000000002
 30
0.0
 11
310.0
 21
-799.2000000000002
 31
0.0
  0
LINE
  5
348F
330
2B33
100
AcDbEntity
  8
OUTLINE
100
AcDbLine
 10
309.2000000000007
 20
-929.2000000000003
 30
0.0
 11
310.0
 21
-929.2000000000003
 31
0.0
  0
LINE
  5
3490
330
2B33
100
AcDbEntity
  8
OUTLINE
100
AcDbLine
 10
310.0
 20
-929.2000000000003
 30
0.0
 11
310.0
 21
-813.7905848787454
 31
0.0
  0
LINE
  5
3491
330
2B33
100
AcDbEntity
  8
OUTLINE
100
AcDbLine
 10
295.0
 20
-938.4
 30
0.0
 11
295.0
 21
-939.2000000000003
 31
0.0
  0
LINE
  5
3492
330
2B33
100
AcDbEntity
  8
OUTLINE
100
AcDbLine
 10
295.0
 20
-939.2000000000003
 30
0.0
 11
310.0
 21
-939.2000000000003
 31
0.0
  0
LINE
  5
3493
330
2B33
100
AcDbEntity
  8
OUTLINE
100
AcDbLine
 10
310.0
 20
-939.2000000000003
 30
0.0
 11
310.0
 21
-929.2000000000003
 31
0.0
  0
LINE
  5
3494
330
2B33
100
AcDbEntity
  8
OUTLINE
100
AcDbLine
 10
300.0
 20
-799.2000000000007
 30
0.0
 11
309.2000000000007
 21
-799.2000000000007
 31
0.0
  0
LINE
  5
3495
330
2B33
100
AcDbEntity
  8
OUTLINE
100
AcDbLine
 10
300.0
 20
-849.2000000000002
 30
0.0
 11
300.0
 21
-799.2000000000002
 31
0.0
  0
LINE
  5
3496
330
2B33
100
AcDbEntity
  8
OUTLINE
100
AcDbLine
 10
309.2000000000007
 20
-849.2000000000002
 30
0.0
 11
300.0
 21
-849.2000000000002
 31
0.0
  0
LINE
  5
34CB
102
{ACAD_REACTORS
330
34D2
330
34D3
102
}
330
2B33
100
AcDbEntity
  8
OUTLINE
100
AcDbLine
 10
294.0002081263683
 20
-864.5664712216911
 30
0.0
 11
244.878570843659
 21
-863.9056254086598
 31
0.0
  0
LINE
  5
34CD
102
{ACAD_REACTORS
330
34D2
330
34D3
102
}
330
2B33
100
AcDbEntity
  8
OUTLINE
100
AcDbLine
 10
-294.0000000000004
 20
-864.5660660341317
 30
0.0
 11
-244.9886697587626
 21
-863.9056254086609
 31
0.0
  0
LINE
  5
34CE
102
{ACAD_REACTORS
330
34D2
330
34D3
102
}
330
2B33
100
AcDbEntity
  8
OUTLINE
100
AcDbLine
 10
-294.0
 20
-156.0
 30
0.0
 11
294.0
 21
-156.0000000000002
 31
0.0
  0
LINE
  5
34CF
330
2B33
100
AcDbEntity
  8
OUTLINE
100
AcDbLine
 10
294.0
 20
-156.0000000000002
 30
0.0
 11
307.0
 21
-156.0000000000001
 31
0.0
  0
LINE
  5
34D0
330
2B33
100
AcDbEntity
  8
OUTLINE
100
AcDbLine
 10
235.5814192894759
 20
-923.2001513425455
 30
0.0
 11
235.7192684453766
 21
-938.4000000000005
 31
0.0
  0
LINE
  5
34D1
330
2B33
100
AcDbEntity
  8
OUTLINE
100
AcDbLine
 10
-235.7714507986984
 20
-923.2000000000002
 30
0.0
 11
-235.9256370864896
 21
-938.4000000000014
 31
0.0
  0
HATCH
  5
34D2
330
2B33
100
AcDbEntity
  8
DETAIL___1
100
AcDbHatch
 10
0.0
 20
0.0
 30
0.0
210
0.0
220
0.0
230
1.0
  2
LINE
 70
     0
 71
     1
 91
        1
 92
       33
 93
       10
 72
     1
 10
-294.0
 20
-864.5660660341313
 11
-294.0
 21
-156.0
 72
     1
 10
-294.0000000000004
 20
-864.5660660341317
 11
-244.9886697587626
 21
-863.9056254086609
 72
     3
 10
-245.0893429166854
 20
-873.8301914795757
 11
5.427745534960115
 21
8.398784341065113
 40
0.97446250496396
 50
303.6447442522869
 51
392.2915362263026
 73
     1
 72
     1
 10
-235.2693093119806
 20
-873.6978639319636
 11
-235.7714507986984
 21
-923.2000000000002
 72
     1
 10
235.581417916932
 20
-923.2000000000002
 11
-235.771450798698
 21
-923.2000000000002
 72
     1
 10
235.1324774158747
 20
-873.6978639319623
 11
235.5814192894759
 21
-923.2001513425455
 72
     3
 10
244.9685778619132
 20
-873.8301914795748
 11
5.604942602600354
 21
-8.281583086678271
 40
0.9760711834886045
 50
146.4296216676892
 51
235.1392458552516
 73
     1
 72
     1
 10
294.0002081263683
 20
-864.5664712216911
 11
244.878570843659
 21
-863.9056254086598
 72
     1
 10
294.0
 20
-156.0000000000001
 11
294.0
 21
-864.5664684217139
 72
     1
 10
-294.0
 20
-156.0
 11
294.0
 21
-156.0000000000002
 97
       10
330
3228
330
34CD
330
345D
330
3461
330
3227
330
3487
330
3485
330
34CB
330
3226
330
34CE
 75
     0
 76
     1
 52
30.0
 41
100.0
 77
     0
 78
     1
 53
30.0
 43
-4289.517980152491
 44
-978.4974605552074
 45
-6.249999999999999
 46
10.82531754730548
 79
     0
 98
        1
 10
-4289.517980152491
 20
-978.4974605552074
1001
ACAD
1010
0.0
1020
0.0
1030
0.0
  0
HATCH
  5
34D3
330
2B33
100
AcDbEntity
  8
DETAIL___1
100
AcDbHatch
 10
0.0
 20
0.0
 30
0.0
210
0.0
220
0.0
230
1.0
  2
LINE
 70
     0
 71
     1
 91
        1
 92
       33
 93
       10
 72
     1
 10
-294.0
 20
-156.0
 11
294.0
 21
-156.0000000000002
 72
     1
 10
294.0
 20
-156.0000000000001
 11
294.0
 21
-864.5664684217139
 72
     1
 10
294.0002081263683
 20
-864.5664712216911
 11
244.878570843659
 21
-863.9056254086598
 72
     3
 10
244.9685778619132
 20
-873.8301914795748
 11
5.604942602600354
 21
-8.281583086678271
 40
0.9760711834886045
 50
146.4296216676892
 51
235.1392458552516
 73
     1
 72
     1
 10
235.1324774158747
 20
-873.6978639319623
 11
235.5814192894759
 21
-923.2001513425455
 72
     1
 10
235.581417916932
 20
-923.2000000000002
 11
-235.771450798698
 21
-923.2000000000002
 72
     1
 10
-235.2693093119806
 20
-873.6978639319636
 11
-235.7714507986984
 21
-923.2000000000002
 72
     3
 10
-245.0893429166854
 20
-873.8301914795757
 11
5.427745534960115
 21
8.398784341065113
 40
0.97446250496396
 50
303.6447442522869
 51
392.2915362263026
 73
     1
 72
     1
 10
-294.0000000000004
 20
-864.5660660341317
 11
-244.9886697587626
 21
-863.9056254086609
 72
     1
 10
-294.0
 20
-864.5660660341313
 11
-294.0
 21
-156.0
 97
       10
330
34CE
330
3226
330
34CB
330
3485
330
3487
330
3227
330
3461
330
345D
330
34CD
330
3228
 75
     0
 76
     1
 52
330.0
 41
100.0
 77
     0
 78
     1
 53
330.0
 43
-4289.517980152491
 44
-978.4974605552074
 45
6.250000000000005
 46
10.82531754730548
 79
     0
 98
        1
 10
-4289.517980152491
 20
-978.4974605552074
1001
ACAD
1010
0.0
1020
0.0
1030
0.0
  0
POINT
  5
34DC
330
2B33
100
AcDbEntity
  8
ARRANGE
100
AcDbPoint
 10
0.0
 20
0.0000000986738087
 30
0.0
 39
50.0
  0
LINE
  5
34DD
330
2B33
100
AcDbEntity
  8
NOTE
100
AcDbLine
 10
-325.0
 20
12.5
 30
0.0
 11
-325.0
 21
-12.5
 31
0.0
  0
LINE
  5
34DE
330
2B33
100
AcDbEntity
  8
BASIS
100
AcDbLine
 10
0.0
 20
25.0
 30
0.0
 11
0.0
 21
-906.0000000000004
 31
0.0
  0
LINE
  5
34E0
330
2B33
100
AcDbEntity
  8
NOTE
100
AcDbLine
 10
325.0
 20
-12.5
 30
0.0
 11
325.0
 21
12.5
 31
0.0
  0
INSERT
  5
34E1
330
2B33
100
AcDbEntity
  8
0
100
AcDbBlockReference
  2
*U22
 10
0.0
 20
0.0
 30
0.0
1001
ACAD
1000
DSTYLE
1002
{
1070
    41
1040
12.0
1070
    42
1040
20.0
1070
    43
1040
200.0
1070
    44
1040
20.0
1070
    73
1070
     0
1070
    74
1070
     0
1070
    77
1070
     1
1070
    78
1070
     8
1070
   140
1040
64.0
1070
   147
1040
50.0
1070
   172
1070
     1
1070
   174
1070
     1
1070
   275
1070
     0
1070
   284
1070
     0
1070
   285
1070
     0
1070
   286
1070
     0
1070
   341
1005
0
1070
   342
1005
0
1002
}
  0
TEXT
  5
34E2
330
2B33
100
AcDbEntity
  8
NOTE
100
AcDbText
 10
-958.7093999922544
 20
113.5270950580134
 30
0.0
 40
64.0
  1
4×φ15取付穴
 41
0.9
100
AcDbText
  0
DIMENSION
  5
34E8
330
2B33
100
AcDbEntity
  8
SIZE
100
AcDbDimension
  2
*D27
 10
325.0
 20
172.3487245902183
 30
0.0
 11
0.0000000000000026
 21
214.3487245902183
 31
0.0
 70
    32
 71
     5
 42
650.0
  3
STANDARD$0
100
AcDbAlignedDimension
 13
-325.0
 23
12.5
 33
0.0
 14
325.0
 24
12.5
 34
0.0
100
AcDbRotatedDimension
1001
ACAD
1000
DSTYLE
1002
{
1070
   279
1070
     0
1002
}
  0
DIMENSION
  5
34F5
330
2B33
100
AcDbEntity
  8
SIZE
100
AcDbDimension
  2
*D28
 10
350.0
 20
302.3487245902184
 30
0.0
 11
0.0
 21
302.3487245902184
 31
0.0
 70
   160
 71
     5
 42
700.0
  3
STANDARD$0
100
AcDbAlignedDimension
 13
-350.0
 23
0.0
 33
0.0
 14
350.0
 24
0.0
 34
0.0
100
AcDbRotatedDimension
1001
ACAD
1000
DSTYLE
1002
{
1070
   279
1070
     0
1002
}
  0
DIMENSION
  5
3502
330
2B33
100
AcDbEntity
  8
SIZE
100
AcDbDimension
  2
*D29
 10
439.069599768989
 20
-0.0000000000001389
 30
0.0
 11
570.069599768989
 21
-4.000000000000075
 31
0.0
 70
    32
 71
     5
 42
8.0
  3
STANDARD$0
100
AcDbAlignedDimension
 13
350.0
 23
-8.000000000000113
 33
0.0
 14
350.0
 24
-0.0000000000001137
 34
0.0
 50
90.0
100
AcDbRotatedDimension
  0
DIMENSION
  5
3511
330
2B33
100
AcDbEntity
  8
SIZE
100
AcDbDimension
  2
*D30
 10
-510.7279519459648
 20
-940.0536898571763
 30
0.0
 11
-552.7279519459646
 21
-470.0268449285882
 31
0.0
 70
    32
  1
940
 71
     5
 42
940.0536898571763
  3
STANDARD$0
100
AcDbAlignedDimension
 13
-350.0
 23
0.0
 33
0.0
 14
-325.0
 24
-940.0536898571763
 34
0.0
 50
90.0
100
AcDbRotatedDimension
1001
ACAD_DSTYLE_DIMINSPECT
1070
   396
1000
100%
1070
   395
1000

1070
   394
1070
    33
1070
   393
1070
     0
  0
DIMENSION
  5
351E
330
2B33
100
AcDbEntity
  8
SIZE
100
AcDbDimension
  2
*D31
 10
-510.7279519459648
 20
-940.0536898571763
 30
0.0
 11
-577.7279519459648
 21
-1014.955720885649
 31
0.0
 70
   160
  1
15
 71
     5
 42
14.1463101428244
  3
STANDARD$0
100
AcDbAlignedDimension
 13
-310.0
 23
-954.2000000000006
 33
0.0
 14
-325.0
 24
-940.0536898571763
 34
0.0
 50
90.0
100
AcDbRotatedDimension
1001
ACAD_DSTYLE_DIMINSPECT
1070
   396
1000
100%
1070
   395
1000

1070
   394
1070
    33
1070
   393
1070
     0
  0
DIMENSION
  5
356C
330
2B33
100
AcDbEntity
  8
SIZE
100
AcDbDimension
  2
*D32
 10
325.0
 20
-1122.176929840723
 30
0.0
 11
0.0000000000000026
 21
-1080.176929840723
 31
0.0
 70
    32
 71
     5
 42
650.0
  3
STANDARD$0
100
AcDbAlignedDimension
 13
-325.0
 23
-940.0536898571763
 33
0.0
 14
325.0
 24
-940.0536898571763
 34
0.0
100
AcDbRotatedDimension
  0
VIEWPORT
  5
2DAF
102
{ACAD_XDICTIONARY
360
2DB0
102
}
330
2B2F
100
AcDbEntity
 67
     1
  8
0
100
AcDbViewport
 10
5.249999639556165
 20
3.999999883606678
 30
0.0
 40
20.27492946301379
 41
8.992999745766949
 68
     1
 69
     1
 12
5.249999639556165
 22
3.999999883606678
 13
0.0
 23
0.0
 14
10.0
 24
10.0
 15
10.0
 25
10.0
 16
0.0
 26
0.0
 36
1.0
 17
0.0
 27
0.0
 37
0.0
 42
50.0
 43
0.0
 44
0.0
 45
8.992999745766949
 50
0.0
 51
0.0
 72
   100
 90
   819232
  1

281
     0
 71
     1
 74
     0
110
0.0
120
0.0
130
0.0
111
1.0
121
0.0
131
0.0
112
0.0
122
1.0
132
0.0
 79
     0
146
0.0
170
     0
  0
ENDSEC
  0
SECTION
  2
OBJECTS
  0
DICTIONARY
  5
2ACB
330
0
100
AcDbDictionary
281
     1
  3
ACAD_COLOR
350
2B29
  3
ACAD_GROUP
350
2ACC
  3
ACAD_LAYOUT
350
2B28
  3
ACAD_MATERIAL
350
2ACF
  3
ACAD_MLEADERSTYLE
350
2B2C
  3
ACAD_MLINESTYLE
350
2B25
  3
ACAD_PLOTSETTINGS
350
2B27
  3
ACAD_PLOTSTYLENAME
350
2ACD
  3
ACAD_SCALELIST
350
2AF9
  3
ACAD_TABLESTYLE
350
2B2A
  3
ACAD_VISUALSTYLE
350
2AE8
  3
ACDB_RECOMPOSE_DATA
350
2CBC
  3
AcDbVariableDictionary
350
2CB3
  3
AcmDictionary
350
2C63
  3
AMG
350
2BB0
  3
AMGSNAPSETTINGS
350
315C
  0
DICTIONARY
  5
2DB6
330
2AC1
100
AcDbDictionary
280
     1
281
     1
  3
ACAD_LAYERSTATES
360
2DB7
  0
DICTIONARY
  5
2C8B
330
2B1B
100
AcDbDictionary
280
     1
281
     1
  3
ADSK_XREC_LAYER_RECONCILED
360
2C8C
  0
DICTIONARY
  5
2C8D
330
2B4A
100
AcDbDictionary
280
     1
281
     1
  3
ADSK_XREC_LAYER_RECONCILED
360
2C8E
  0
DICTIONARY
  5
2C8F
330
2B4B
100
AcDbDictionary
280
     1
281
     1
  3
ADSK_XREC_LAYER_RECONCILED
360
2C90
  0
DICTIONARY
  5
2C91
330
2B4C
100
AcDbDictionary
280
     1
281
     1
  3
ADSK_XREC_LAYER_RECONCILED
360
2C92
  0
DICTIONARY
  5
2C93
330
2B4D
100
AcDbDictionary
280
     1
281
     1
  3
ADSK_XREC_LAYER_RECONCILED
360
2C94
  0
DICTIONARY
  5
2C95
330
2B4E
100
AcDbDictionary
280
     1
281
     1
  3
ADSK_XREC_LAYER_RECONCILED
360
2C96
  0
DICTIONARY
  5
2C97
330
2B50
100
AcDbDictionary
280
     1
281
     1
  3
ADSK_XREC_LAYER_RECONCILED
360
2C98
  0
DICTIONARY
  5
2C99
330
2B51
100
AcDbDictionary
280
     1
281
     1
  3
ADSK_XREC_LAYER_RECONCILED
360
2C9A
  0
DICTIONARY
  5
2C9B
330
2B52
100
AcDbDictionary
280
     1
281
     1
  3
ADSK_XREC_LAYER_RECONCILED
360
2C9C
  0
DICTIONARY
  5
2C9D
330
2B53
100
AcDbDictionary
280
     1
281
     1
  3
ADSK_XREC_LAYER_RECONCILED
360
2C9E
  0
DICTIONARY
  5
2C9F
330
2B54
100
AcDbDictionary
280
     1
281
     1
  3
ADSK_XREC_LAYER_RECONCILED
360
2CA0
  0
DICTIONARY
  5
2CA1
330
2B55
100
AcDbDictionary
280
     1
281
     1
  3
ADSK_XREC_LAYER_RECONCILED
360
2CA2
  0
DICTIONARY
  5
2DCB
330
2DCA
100
AcDbDictionary
280
     1
281
     1
  0
DICTIONARY
  5
2DCD
330
2DCC
100
AcDbDictionary
280
     1
281
     1
  0
DICTIONARY
  5
2CA3
330
2B33
100
AcDbDictionary
280
     1
281
     1
  3
ACAD_INDEX
360
2CA4
  3
ACAD_SORTENTS
360
34CA
  0
DICTIONARY
  5
2DB0
330
2DAF
100
AcDbDictionary
280
     1
281
     1
  3
ASDK_XREC_ANNOTATION_SCALE_INFO
360
2DB1
  0
DICTIONARY
  5
2B29
102
{ACAD_REACTORS
330
2ACB
102
}
330
2ACB
100
AcDbDictionary
281
     1
  0
DICTIONARY
  5
2ACC
102
{ACAD_REACTORS
330
2ACB
102
}
330
2ACB
100
AcDbDictionary
281
     1
  0
DICTIONARY
  5
2B28
102
{ACAD_REACTORS
330
2ACB
102
}
330
2ACB
100
AcDbDictionary
281
     1
  3
Model
350
2B36
  3
レイアウト1
350
2B32
  0
DICTIONARY
  5
2ACF
102
{ACAD_REACTORS
330
2ACB
102
}
330
2ACB
100
AcDbDictionary
281
     1
  3
ByBlock
350
2AD8
  3
ByLayer
350
2AD0
  3
Global
350
2AE0
  0
DICTIONARY
  5
2B2C
102
{ACAD_REACTORS
330
2ACB
102
}
330
2ACB
100
AcDbDictionary
281
     1
  3
Standard
350
2B2D
  0
DICTIONARY
  5
2B25
102
{ACAD_REACTORS
330
2ACB
102
}
330
2ACB
100
AcDbDictionary
281
     1
  3
Standard
350
2B26
  0
DICTIONARY
  5
2B27
102
{ACAD_REACTORS
330
2ACB
102
}
330
2ACB
100
AcDbDictionary
281
     1
  0
ACDBDICTIONARYWDFLT
  5
2ACD
102
{ACAD_REACTORS
330
2ACB
102
}
330
2ACB
100
AcDbDictionary
281
     1
  3
Normal
350
2ACE
100
AcDbDictionaryWithDefault
340
2ACE
  0
DICTIONARY
  5
2AF9
102
{ACAD_REACTORS
330
2ACB
102
}
330
2ACB
100
AcDbDictionary
281
     1
  3
A0
350
2AFA
  3
A1
350
2AFB
  3
A2
350
2AFC
  3
A3
350
2AFD
  3
A4
350
2AFE
  3
A5
350
2AFF
  3
A6
350
2B00
  3
A7
350
2B01
  3
A8
350
2B02
  3
A9
350
2B03
  3
B0
350
2B04
  3
B1
350
2B05
  3
B2
350
2B06
  3
B3
350
2B07
  3
B4
350
2B08
  3
B5
350
2B09
  3
B6
350
2B0A
  3
B7
350
2B0B
  3
B8
350
2B0C
  3
B9
350
2B0D
  3
C0
350
2B0E
  3
C1
350
2B0F
  3
C2
350
2B10
  3
C3
350
2B11
  3
C4
350
2B12
  3
C5
350
2B13
  3
C6
350
2B14
  3
C7
350
2B15
  3
C8
350
2B16
  3
C9
350
2B17
  3
D0
350
2B18
  3
D1
350
2B19
  3
D2
350
2B1A
  0
DICTIONARY
  5
2B2A
102
{ACAD_REACTORS
330
2ACB
102
}
330
2ACB
100
AcDbDictionary
281
     1
  3
Standard
350
2B2B
  0
DICTIONARY
  5
2AE8
102
{ACAD_REACTORS
330
2ACB
102
}
330
2ACB
100
AcDbDictionary
281
     1
  3
2dWireframe
350
2AEE
  3
3D Hidden
350
2AF0
  3
3dWireframe
350
2AEF
  3
Basic
350
2AED
  3
Brighten
350
2AF4
  3
ColorChange
350
2AF8
  3
Conceptual
350
2AF1
  3
Dim
350
2AF3
  3
Facepattern
350
2AF7
  3
Flat
350
2AE9
  3
FlatWithEdges
350
2AEA
  3
Gouraud
350
2AEB
  3
GouraudWithEdges
350
2AEC
  3
Linepattern
350
2AF6
  3
Realistic
350
2AF2
  3
Thicken
350
2AF5
  0
XRECORD
  5
2CBC
102
{ACAD_REACTORS
330
2ACB
102
}
330
2ACB
100
AcDbXrecord
280
     1
 90
        1
330
2B2B
  0
DICTIONARY
  5
2CB3
102
{ACAD_REACTORS
330
2ACB
102
}
330
2ACB
100
AcDbDictionary
281
     1
  3
CANNOSCALE
350
2CB6
  3
CMLEADERSTYLE
350
2CB5
  3
CTABLESTYLE
350
2CB4
  3
DIMASSOC
350
2CB9
  3
INDEXCTL
350
2CB8
  3
SORTENTS
350
2CB7
  0
DICTIONARY
  5
2C63
102
{ACAD_REACTORS
330
2ACB
102
}
330
2ACB
100
AcDbDictionary
281
     1
  3
AcmStdDictionary
350
2C71
  0
DICTIONARY
  5
2BB0
102
{ACAD_REACTORS
330
2ACB
102
}
330
2ACB
100
AcDbDictionary
281
     1
  3
AcMgSettings
350
2BB1
  0
DICTIONARY
  5
315C
102
{ACAD_REACTORS
330
2ACB
102
}
330
2ACB
100
AcDbDictionary
281
     1
  3
DIMENSION
350
3161
  3
FEA
350
3160
  3
HATCH (1)
350
315D
  3
HATCH (2)
350
315E
  3
SIMPLE WELD
350
3162
  3
SYMBOLS
350
315F
  0
DICTIONARY
  5
2DB7
102
{ACAD_REACTORS
330
2DB6
102
}
330
2DB6
100
AcDbDictionary
281
     1
  0
XRECORD
  5
2C8C
102
{ACAD_REACTORS
330
2C8B
102
}
330
2C8B
100
AcDbXrecord
280
     1
290
     1
  0
XRECORD
  5
2C8E
102
{ACAD_REACTORS
330
2C8D
102
}
330
2C8D
100
AcDbXrecord
280
     1
290
     1
  0
XRECORD
  5
2C90
102
{ACAD_REACTORS
330
2C8F
102
}
330
2C8F
100
AcDbXrecord
280
     1
290
     1
  0
XRECORD
  5
2C92
102
{ACAD_REACTORS
330
2C91
102
}
330
2C91
100
AcDbXrecord
280
     1
290
     1
  0
XRECORD
  5
2C94
102
{ACAD_REACTORS
330
2C93
102
}
330
2C93
100
AcDbXrecord
280
     1
290
     1
  0
XRECORD
  5
2C96
102
{ACAD_REACTORS
330
2C95
102
}
330
2C95
100
AcDbXrecord
280
     1
290
     1
  0
XRECORD
  5
2C98
102
{ACAD_REACTORS
330
2C97
102
}
330
2C97
100
AcDbXrecord
280
     1
290
     1
  0
XRECORD
  5
2C9A
102
{ACAD_REACTORS
330
2C99
102
}
330
2C99
100
AcDbXrecord
280
     1
290
     1
  0
XRECORD
  5
2C9C
102
{ACAD_REACTORS
330
2C9B
102
}
330
2C9B
100
AcDbXrecord
280
     1
290
     1
  0
XRECORD
  5
2C9E
102
{ACAD_REACTORS
330
2C9D
102
}
330
2C9D
100
AcDbXrecord
280
     1
290
     1
  0
XRECORD
  5
2CA0
102
{ACAD_REACTORS
330
2C9F
102
}
330
2C9F
100
AcDbXrecord
280
     1
290
     1
  0
XRECORD
  5
2CA2
102
{ACAD_REACTORS
330
2CA1
102
}
330
2CA1
100
AcDbXrecord
280
     1
290
     1
  0
DICTIONARY
  5
2CA4
102
{ACAD_REACTORS
330
2CA3
102
}
330
2CA3
100
AcDbDictionary
281
     1
  3
*A1
350
2CA5
  0
SORTENTSTABLE
  5
34CA
102
{ACAD_REACTORS
330
2CA3
102
}
330
2CA3
100
AcDbSortentsTable
330
2B33
331
34D0
  5
3491
331
3428
  5
342C
331
3439
  5
343F
331
31F1
  5
31F1
331
344A
  5
3451
331
3202
  5
3202
331
346C
  5
3473
331
347D
  5
3484
331
3235
  5
3239
331
348E
  5
34CB
331
3246
  5
324A
331
324F
  5
3253
331
3260
  5
3264
331
3271
  5
3275
331
3282
  5
3286
331
33DB
  5
33DF
331
33EC
  5
33F1
331
33FD
  5
3403
331
29FC
  5
29FC
331
953
  5
953
331
3420
  5
3424
331
34D1
  5
3467
331
3429
  5
342D
331
343A
  5
3440
331
31F2
  5
31F2
331
3203
  5
3203
331
3214
  5
3214
331
346D
  5
3474
331
3225
  5
3225
331
347E
  5
3485
331
3236
  5
323A
331
348F
  5
34CC
331
3247
  5
324B
331
3250
  5
3254
331
3261
  5
3265
331
3272
  5
3277
331
33CB
  5
33CF
331
3283
  5
3287
331
33DC
  5
33E0
331
33ED
  5
33F3
331
33FE
  5
3404
331
340F
  5
3414
331
29FD
  5
29FD
331
954
  5
954
331
3421
  5
3425
331
34D2
  5
3226
331
342A
  5
342E
331
343B
  5
3441
331
31F3
  5
31F3
331
344C
  5
3453
331
3204
  5
3204
331
345D
  5
3464
331
346E
  5
3475
331
3226
  5
322A
331
347F
  5
3486
331
3237
  5
323C
331
3490
  5
34CD
331
3251
  5
3255
331
3262
  5
3266
331
3273
  5
3279
331
33CC
  5
33D0
331
33DD
  5
33E2
331
33EE
  5
33F4
331
955
  5
955
331
3400
  5
3405
331
3411
  5
3416
331
3422
  5
3426
331
34D3
  5
3227
331
342B
  5
342F
331
31F4
  5
31F4
331
3205
  5
3205
331
346F
  5
3476
331
3227
  5
322B
331
3480
  5
3487
331
3238
  5
323E
331
3491
  5
34CE
331
3252
  5
3256
331
3263
  5
3268
331
3274
  5
327A
331
33CD
  5
33D1
331
33DE
  5
33E4
331
33EF
  5
33F5
331
956
  5
956
331
3412
  5
3417
331
3423
  5
3427
331
342C
  5
3430
331
343D
  5
3442
331
31F5
  5
31F5
331
344E
  5
3456
331
3206
  5
3206
331
3217
  5
3217
331
345F
  5
3465
331
3470
  5
3477
331
3228
  5
322C
331
3481
  5
3489
331
3239
  5
323F
331
3492
  5
34CF
331
3253
  5
3257
331
3264
  5
326A
331
3275
  5
327B
331
33CE
  5
33D3
331
33DF
  5
33E5
331
957
  5
957
331
33E0
  5
33E6
331
33F1
  5
33F6
331
3402
  5
3407
331
3413
  5
3418
331
3424
  5
3428
331
342D
  5
3431
331
31F6
  5
31F6
331
3207
  5
3207
331
3218
  5
3218
331
3471
  5
3478
331
3229
  5
322D
331
3482
  5
348B
331
323A
  5
3240
331
3493
  5
34D0
331
3254
  5
3259
331
3265
  5
326B
331
33CF
  5
33D5
331
958
  5
958
331
33D0
  5
33D6
331
3403
  5
3408
331
3414
  5
3419
331
3425
  5
3429
331
342E
  5
3435
331
343F
  5
3444
331
31F7
  5
31F7
331
3450
  5
3458
331
3208
  5
3208
331
3461
  5
3466
331
3472
  5
3479
331
322A
  5
322E
331
3483
  5
348C
331
3494
  5
34D1
331
3255
  5
325B
331
3266
  5
326C
331
3277
  5
327C
331
33D1
  5
33D7
331
33E2
  5
33E7
331
33F3
  5
33F8
331
3404
  5
3409
331
3426
  5
342A
331
342F
  5
3436
331
3440
  5
3445
331
31F8
  5
31F8
331
3451
  5
3459
331
3209
  5
3209
331
3462
  5
3468
331
3473
  5
347B
331
322B
  5
322F
331
323C
  5
3241
331
3495
  5
34D2
331
3256
  5
325C
331
3268
  5
326D
331
3279
  5
327E
331
33F4
  5
33F9
331
3405
  5
340A
331
3416
  5
341A
331
3427
  5
342B
331
3430
  5
3437
331
3441
  5
3446
331
31F9
  5
31F9
331
320A
  5
320A
331
321B
  5
321B
331
3463
  5
3469
331
3474
  5
347D
331
322C
  5
3230
331
3485
  5
348D
331
3496
  5
34D3
331
3257
  5
325D
331
33C2
  5
33C8
331
327A
  5
327F
331
33D3
  5
33D8
331
33E4
  5
33E9
331
33F5
  5
33FA
331
3417
  5
341B
331
3431
  5
3438
331
3442
  5
3447
331
31FA
  5
31FA
331
3453
  5
345A
331
321C
  5
321C
331
3464
  5
346B
331
3475
  5
347E
331
322D
  5
3231
331
323E
  5
3242
331
2A05
  5
2A05
331
3248
  5
324C
331
3259
  5
325E
331
326A
  5
326F
331
327B
  5
3280
331
33E5
  5
33EA
331
33F6
  5
33FB
331
3407
  5
340B
331
3418
  5
341C
331
31FB
  5
31FB
331
3465
  5
346C
331
322E
  5
3232
331
3487
  5
348E
331
323F
  5
3243
331
3488
  5
3492
331
3240
  5
3244
331
3249
  5
324D
331
326B
  5
3270
331
33C4
  5
33C9
331
327C
  5
3281
331
33D5
  5
33DA
331
33E6
  5
33EB
331
3408
  5
340C
331
3419
  5
341E
331
3444
  5
3448
331
31FC
  5
31FC
331
320D
  5
320D
331
3466
  5
346D
331
3477
  5
347F
331
322F
  5
3234
331
3230
  5
3235
331
3489
  5
3493
331
3241
  5
3245
331
324A
  5
324E
331
325B
  5
3260
331
326C
  5
3271
331
33D6
  5
33DB
331
33E7
  5
33EC
331
33F8
  5
33FC
331
3409
  5
340D
331
341A
  5
3420
331
34CB
  5
3494
331
3445
  5
3449
331
31FD
  5
31FD
331
3456
  5
345D
331
320E
  5
320E
331
3467
  5
346E
331
3468
  5
346F
331
3479
  5
3481
331
3231
  5
3236
331
3242
  5
3246
331
324B
  5
324F
331
325C
  5
3261
331
326D
  5
3272
331
33C6
  5
33CB
331
327E
  5
3282
331
33D7
  5
33DC
331
33F9
  5
33FD
331
340A
  5
340F
331
341B
  5
3421
331
31ED
  5
31ED
331
3435
  5
3439
331
3446
  5
344A
331
31FE
  5
31FE
331
320F
  5
320F
331
3210
  5
3210
331
3458
  5
345E
331
3469
  5
3470
331
347A
  5
3482
331
3232
  5
3237
331
348B
  5
3495
331
3243
  5
3247
331
324C
  5
3250
331
325D
  5
3262
331
33C7
  5
33CC
331
327F
  5
3283
331
33D8
  5
33DD
331
33E9
  5
33ED
331
33FA
  5
33FE
331
340B
  5
3411
331
341C
  5
3422
331
34CD
  5
346A
331
31EE
  5
31EE
331
3436
  5
343A
331
3447
  5
344C
331
31FF
  5
31FF
331
3448
  5
344E
331
3200
  5
3200
331
3211
  5
3211
331
3459
  5
345F
331
346A
  5
3471
331
347B
  5
3483
331
348C
  5
3496
331
3244
  5
3248
331
324D
  5
3251
331
325E
  5
3263
331
326F
  5
3273
331
33C8
  5
33CD
331
3280
  5
3284
331
33EA
  5
33EE
331
33FB
  5
3400
331
340C
  5
3412
331
34CE
  5
3228
331
31EF
  5
31EF
331
3437
  5
343B
331
3438
  5
343D
331
31F0
  5
31F0
331
3449
  5
3450
331
3201
  5
3201
331
345A
  5
3461
331
346B
  5
3472
331
3234
  5
3238
331
348D
  5
34C9
331
3245
  5
3249
331
324E
  5
3252
331
3270
  5
3274
331
33C9
  5
33CE
331
3281
  5
3285
331
33DA
  5
33DE
331
33EB
  5
33EF
331
33FC
  5
3402
331
340D
  5
3413
331
341E
  5
3423
331
34CF
  5
3229
331
29FB
  5
29FB
  0
XRECORD
  5
2DB1
102
{ACAD_REACTORS
330
2DB0
102
}
330
2DB0
100
AcDbXrecord
280
     1
 90
        1
340
2AFA
  0
LAYOUT
  5
2B36
102
{ACAD_REACTORS
330
2B28
102
}
330
2B28
100
AcDbPlotSettings
  1

  2
自動 EPSON LP-9600S (W2450527 上)
  4

  6

 40
0.0
 41
0.0
 42
0.0
 43
0.0
 44
0.0
 45
0.0
 46
0.0
 47
0.0
 48
0.0
 49
0.0
140
0.0
141
0.0
142
1.0
143
1.0
 70
  1712
 72
     0
 73
     0
 74
     0
  7

 75
     0
147
1.0
 76
     0
 77
     2
 78
   300
148
0.0
149
0.0
100
AcDbLayout
  1
Model
 70
     1
 71
     0
 10
0.0
 20
0.0
 11
12.0
 21
9.0
 12
0.0
 22
0.0
 32
0.0
 14
0.0
 24
0.0
 34
0.0
 15
0.0
 25
0.0
 35
0.0
146
0.0
 13
0.0
 23
0.0
 33
0.0
 16
1.0
 26
0.0
 36
0.0
 17
0.0
 27
1.0
 37
0.0
 76
     0
330
2B33
331
2B37
  0
LAYOUT
  5
2B32
102
{ACAD_XDICTIONARY
360
2DBB
102
}
102
{ACAD_REACTORS
330
2B28
102
}
330
2B28
100
AcDbPlotSettings
  1

  2
none_device
  4
Letter_(8.50_x_11.00_Inches)
  6

 40
6.349999904632568
 41
6.349999904632568
 42
6.350006103515625
 43
6.350006103515625
 44
215.8999938964844
 45
279.3999938964844
 46
0.0
 47
0.0
 48
0.0
 49
0.0
140
0.0
141
0.0
142
1.0
143
1.0
 70
   688
 72
     0
 73
     1
 74
     5
  7

 75
    16
147
1.0
 76
     0
 77
     2
 78
   300
148
0.0
149
0.0
100
AcDbLayout
  1
レイアウト1
 70
     1
 71
     1
 10
-0.2500002402958907
 20
-0.2499999962453767
 11
10.74999951940822
 21
8.249999763458733
 12
0.0
 22
0.0
 32
0.0
 14
1.000000000000000E+20
 24
1.000000000000000E+20
 34
1.000000000000000E+20
 15
-1.000000000000000E+20
 25
-1.000000000000000E+20
 35
-1.000000000000000E+20
146
0.0
 13
0.0
 23
0.0
 33
0.0
 16
1.0
 26
0.0
 36
0.0
 17
0.0
 27
1.0
 37
0.0
 76
     0
330
2B2F
331
2DAF
1001
ACAD_PSEXT
1000
なし
1000
なし
1000
適切ではありません
1000
新しいプロッタ環境設定名を選択しない限り、レイアウトは印刷されません。
1070
     0
  0
MATERIAL
  5
2AD8
102
{ACAD_XDICTIONARY
360
2AD9
102
}
102
{ACAD_REACTORS
330
2ACF
102
}
330
2ACF
100
AcDbMaterial
  1
ByBlock
 72
     0
 43
0.0208333333333333
 43
0.0
 43
0.0
 43
0.0
 43
0.0
 43
0.0208333333333333
 43
0.0
 43
0.0
 43
0.0
 43
0.0
 43
1.0
 43
0.0
 43
0.0
 43
0.0
 43
0.0
 43
1.0
 77
     0
 47
0.0208333333333333
 47
0.0
 47
0.0
 47
0.0
 47
0.0
 47
0.0208333333333333
 47
0.0
 47
0.0
 47
0.0
 47
0.0
 47
1.0
 47
0.0
 47
0.0
 47
0.0
 47
0.0
 47
1.0
171
     0
 49
0.0208333333333333
 49
0.0
 49
0.0
 49
0.0
 49
0.0
 49
0.0208333333333333
 49
0.0
 49
0.0
 49
0.0
 49
0.0
 49
1.0
 49
0.0
 49
0.0
 49
0.0
 49
0.0
 49
1.0
175
     0
142
0.0208333333333333
142
0.0
142
0.0
142
0.0
142
0.0
142
0.0208333333333333
142
0.0
142
0.0
142
0.0
142
0.0
142
1.0
142
0.0
142
0.0
142
0.0
142
0.0
142
1.0
179
     0
144
0.0208333333333333
144
0.0
144
0.0
144
0.0
144
0.0
144
0.0208333333333333
144
0.0
144
0.0
144
0.0
144
0.0
144
1.0
144
0.0
144
0.0
144
0.0
144
0.0
144
1.0
147
0.0208333333333333
147
0.0
147
0.0
147
0.0
147
0.0
147
0.0208333333333333
147
0.0
147
0.0
147
0.0
147
0.0
147
1.0
147
0.0
147
0.0
147
0.0
147
0.0
147
1.0
  0
MATERIAL
  5
2AD0
102
{ACAD_XDICTIONARY
360
2AD1
102
}
102
{ACAD_REACTORS
330
2ACF
102
}
330
2ACF
100
AcDbMaterial
  1
ByLayer
 72
     0
 43
0.0208333333333333
 43
0.0
 43
0.0
 43
0.0
 43
0.0
 43
0.0208333333333333
 43
0.0
 43
0.0
 43
0.0
 43
0.0
 43
1.0
 43
0.0
 43
0.0
 43
0.0
 43
0.0
 43
1.0
 77
     0
 47
0.0208333333333333
 47
0.0
 47
0.0
 47
0.0
 47
0.0
 47
0.0208333333333333
 47
0.0
 47
0.0
 47
0.0
 47
0.0
 47
1.0
 47
0.0
 47
0.0
 47
0.0
 47
0.0
 47
1.0
171
     0
 49
0.0208333333333333
 49
0.0
 49
0.0
 49
0.0
 49
0.0
 49
0.0208333333333333
 49
0.0
 49
0.0
 49
0.0
 49
0.0
 49
1.0
 49
0.0
 49
0.0
 49
0.0
 49
0.0
 49
1.0
175
     0
142
0.0208333333333333
142
0.0
142
0.0
142
0.0
142
0.0
142
0.0208333333333333
142
0.0
142
0.0
142
0.0
142
0.0
142
1.0
142
0.0
142
0.0
142
0.0
142
0.0
142
1.0
179
     0
144
0.0208333333333333
144
0.0
144
0.0
144
0.0
144
0.0
144
0.0208333333333333
144
0.0
144
0.0
144
0.0
144
0.0
144
1.0
144
0.0
144
0.0
144
0.0
144
0.0
144
1.0
147
0.0208333333333333
147
0.0
147
0.0
147
0.0
147
0.0
147
0.0208333333333333
147
0.0
147
0.0
147
0.0
147
0.0
147
1.0
147
0.0
147
0.0
147
0.0
147
0.0
147
1.0
  0
MATERIAL
  5
2AE0
102
{ACAD_XDICTIONARY
360
2AE1
102
}
102
{ACAD_REACTORS
330
2ACF
102
}
330
2ACF
100
AcDbMaterial
  1
Global
 72
     0
 43
0.0208333333333333
 43
0.0
 43
0.0
 43
0.0
 43
0.0
 43
0.0208333333333333
 43
0.0
 43
0.0
 43
0.0
 43
0.0
 43
1.0
 43
0.0
 43
0.0
 43
0.0
 43
0.0
 43
1.0
 77
     0
 47
0.0208333333333333
 47
0.0
 47
0.0
 47
0.0
 47
0.0
 47
0.0208333333333333
 47
0.0
 47
0.0
 47
0.0
 47
0.0
 47
1.0
 47
0.0
 47
0.0
 47
0.0
 47
0.0
 47
1.0
171
     0
 49
0.0208333333333333
 49
0.0
 49
0.0
 49
0.0
 49
0.0
 49
0.0208333333333333
 49
0.0
 49
0.0
 49
0.0
 49
0.0
 49
1.0
 49
0.0
 49
0.0
 49
0.0
 49
0.0
 49
1.0
175
     0
142
0.0208333333333333
142
0.0
142
0.0
142
0.0
142
0.0
142
0.0208333333333333
142
0.0
142
0.0
142
0.0
142
0.0
142
1.0
142
0.0
142
0.0
142
0.0
142
0.0
142
1.0
179
     0
144
0.0208333333333333
144
0.0
144
0.0
144
0.0
144
0.0
144
0.0208333333333333
144
0.0
144
0.0
144
0.0
144
0.0
144
1.0
144
0.0
144
0.0
144
0.0
144
0.0
144
1.0
147
0.0208333333333333
147
0.0
147
0.0
147
0.0
147
0.0
147
0.0208333333333333
147
0.0
147
0.0
147
0.0
147
0.0
147
1.0
147
0.0
147
0.0
147
0.0
147
0.0
147
1.0
  0
MLEADERSTYLE
  5
2B2D
102
{ACAD_REACTORS
330
2B2C
102
}
330
2B2C
100
AcDbMLeaderStyle
170
     2
171
     1
172
     0
 90
        2
 40
0.0
 41
0.0
173
     1
 91
-1056964608
340
2B21
 92
       -2
290
     1
 42
0.09
291
     1
 43
0.36
  3
Standard
 44
0.18
300

342
2B1C
174
     1
178
     6
175
     1
176
     0
 93
-1056964608
 45
0.18
292
     0
297
     0
 46
0.18
 94
-1056964608
 47
1.0
 49
1.0
140
1.0
293
     1
141
0.0
294
     1
177
     0
142
1.0
295
     0
296
     0
143
0.125
1001
ACAD_MLEADERVER
1070
     2
  0
MLINESTYLE
  5
2B26
102
{ACAD_REACTORS
330
2B25
102
}
330
2B25
100
AcDbMlineStyle
  2
STANDARD
 70
     0
  3

 62
   256
 51
90.0
 52
90.0
 71
     2
 49
0.5
 62
   256
  6
BYLAYER
 49
-0.5
 62
   256
  6
BYLAYER
  0
ACDBPLACEHOLDER
  5
2ACE
102
{ACAD_REACTORS
330
2ACD
102
}
330
2ACD
  0
SCALE
  5
2AFA
102
{ACAD_REACTORS
330
2AF9
102
}
330
2AF9
100
AcDbScale
 70
     0
300
1:1
140
1.0
141
1.0
290
     1
  0
SCALE
  5
2AFB
102
{ACAD_REACTORS
330
2AF9
102
}
330
2AF9
100
AcDbScale
 70
     0
300
1:2
140
1.0
141
2.0
290
     0
  0
SCALE
  5
2AFC
102
{ACAD_REACTORS
330
2AF9
102
}
330
2AF9
100
AcDbScale
 70
     0
300
1:4
140
1.0
141
4.0
290
     0
  0
SCALE
  5
2AFD
102
{ACAD_REACTORS
330
2AF9
102
}
330
2AF9
100
AcDbScale
 70
     0
300
1:5
140
1.0
141
5.0
290
     0
  0
SCALE
  5
2AFE
102
{ACAD_REACTORS
330
2AF9
102
}
330
2AF9
100
AcDbScale
 70
     0
300
1:8
140
1.0
141
8.0
290
     0
  0
SCALE
  5
2AFF
102
{ACAD_REACTORS
330
2AF9
102
}
330
2AF9
100
AcDbScale
 70
     0
300
1:10
140
1.0
141
10.0
290
     0
  0
SCALE
  5
2B00
102
{ACAD_REACTORS
330
2AF9
102
}
330
2AF9
100
AcDbScale
 70
     0
300
1:16
140
1.0
141
16.0
290
     0
  0
SCALE
  5
2B01
102
{ACAD_REACTORS
330
2AF9
102
}
330
2AF9
100
AcDbScale
 70
     0
300
1:20
140
1.0
141
20.0
290
     0
  0
SCALE
  5
2B02
102
{ACAD_REACTORS
330
2AF9
102
}
330
2AF9
100
AcDbScale
 70
     0
300
1:30
140
1.0
141
30.0
290
     0
  0
SCALE
  5
2B03
102
{ACAD_REACTORS
330
2AF9
102
}
330
2AF9
100
AcDbScale
 70
     0
300
1:40
140
1.0
141
40.0
290
     0
  0
SCALE
  5
2B04
102
{ACAD_REACTORS
330
2AF9
102
}
330
2AF9
100
AcDbScale
 70
     0
300
1:50
140
1.0
141
50.0
290
     0
  0
SCALE
  5
2B05
102
{ACAD_REACTORS
330
2AF9
102
}
330
2AF9
100
AcDbScale
 70
     0
300
1:100
140
1.0
141
100.0
290
     0
  0
SCALE
  5
2B06
102
{ACAD_REACTORS
330
2AF9
102
}
330
2AF9
100
AcDbScale
 70
     0
300
2:1
140
2.0
141
1.0
290
     0
  0
SCALE
  5
2B07
102
{ACAD_REACTORS
330
2AF9
102
}
330
2AF9
100
AcDbScale
 70
     0
300
4:1
140
4.0
141
1.0
290
     0
  0
SCALE
  5
2B08
102
{ACAD_REACTORS
330
2AF9
102
}
330
2AF9
100
AcDbScale
 70
     0
300
8:1
140
8.0
141
1.0
290
     0
  0
SCALE
  5
2B09
102
{ACAD_REACTORS
330
2AF9
102
}
330
2AF9
100
AcDbScale
 70
     0
300
10:1
140
10.0
141
1.0
290
     0
  0
SCALE
  5
2B0A
102
{ACAD_REACTORS
330
2AF9
102
}
330
2AF9
100
AcDbScale
 70
     0
300
100:1
140
100.0
141
1.0
290
     0
  0
SCALE
  5
2B0B
102
{ACAD_REACTORS
330
2AF9
102
}
330
2AF9
100
AcDbScale
 70
     0
300
1/128" = 1'-0"
140
0.0078125
141
12.0
290
     0
  0
SCALE
  5
2B0C
102
{ACAD_REACTORS
330
2AF9
102
}
330
2AF9
100
AcDbScale
 70
     0
300
1/64" = 1'-0"
140
0.015625
141
12.0
290
     0
  0
SCALE
  5
2B0D
102
{ACAD_REACTORS
330
2AF9
102
}
330
2AF9
100
AcDbScale
 70
     0
300
1/32" = 1'-0"
140
0.03125
141
12.0
290
     0
  0
SCALE
  5
2B0E
102
{ACAD_REACTORS
330
2AF9
102
}
330
2AF9
100
AcDbScale
 70
     0
300
1/16" = 1'-0"
140
0.0625
141
12.0
290
     0
  0
SCALE
  5
2B0F
102
{ACAD_REACTORS
330
2AF9
102
}
330
2AF9
100
AcDbScale
 70
     0
300
3/32" = 1'-0"
140
0.09375
141
12.0
290
     0
  0
SCALE
  5
2B10
102
{ACAD_REACTORS
330
2AF9
102
}
330
2AF9
100
AcDbScale
 70
     0
300
1/8" = 1'-0"
140
0.125
141
12.0
290
     0
  0
SCALE
  5
2B11
102
{ACAD_REACTORS
330
2AF9
102
}
330
2AF9
100
AcDbScale
 70
     0
300
3/16" = 1'-0"
140
0.1875
141
12.0
290
     0
  0
SCALE
  5
2B12
102
{ACAD_REACTORS
330
2AF9
102
}
330
2AF9
100
AcDbScale
 70
     0
300
1/4" = 1'-0"
140
0.25
141
12.0
290
     0
  0
SCALE
  5
2B13
102
{ACAD_REACTORS
330
2AF9
102
}
330
2AF9
100
AcDbScale
 70
     0
300
3/8" = 1'-0"
140
0.375
141
12.0
290
     0
  0
SCALE
  5
2B14
102
{ACAD_REACTORS
330
2AF9
102
}
330
2AF9
100
AcDbScale
 70
     0
300
1/2" = 1'-0"
140
0.5
141
12.0
290
     0
  0
SCALE
  5
2B15
102
{ACAD_REACTORS
330
2AF9
102
}
330
2AF9
100
AcDbScale
 70
     0
300
3/4" = 1'-0"
140
0.75
141
12.0
290
     0
  0
SCALE
  5
2B16
102
{ACAD_REACTORS
330
2AF9
102
}
330
2AF9
100
AcDbScale
 70
     0
300
1" = 1'-0"
140
1.0
141
12.0
290
     0
  0
SCALE
  5
2B17
102
{ACAD_REACTORS
330
2AF9
102
}
330
2AF9
100
AcDbScale
 70
     0
300
1-1/2" = 1'-0"
140
1.5
141
12.0
290
     0
  0
SCALE
  5
2B18
102
{ACAD_REACTORS
330
2AF9
102
}
330
2AF9
100
AcDbScale
 70
     0
300
3" = 1'-0"
140
3.0
141
12.0
290
     0
  0
SCALE
  5
2B19
102
{ACAD_REACTORS
330
2AF9
102
}
330
2AF9
100
AcDbScale
 70
     0
300
6" = 1'-0"
140
6.0
141
12.0
290
     0
  0
SCALE
  5
2B1A
102
{ACAD_REACTORS
330
2AF9
102
}
330
2AF9
100
AcDbScale
 70
     0
300
1'-0" = 1'-0"
140
12.0
141
12.0
290
     0
  0
TABLESTYLE
  5
2B2B
102
{ACAD_XDICTIONARY
360
2CBA
102
}
102
{ACAD_REACTORS
330
2B2A
102
}
330
2B2A
100
AcDbTableStyle
  3
Standard
 70
     0
 71
     0
 40
0.06
 41
0.06
280
     0
281
     0
  7
STANDARD
140
0.18
170
     2
 62
     0
 63
     7
283
     0
274
    -2
284
     1
 64
     0
275
    -2
285
     1
 65
     0
276
    -2
286
     1
 66
     0
277
    -2
287
     1
 67
     0
278
    -2
288
     1
 68
     0
279
    -2
289
     1
 69
     0
  7
STANDARD
140
0.25
170
     5
 62
     0
 63
     7
283
     0
274
    -2
284
     1
 64
     0
275
    -2
285
     1
 65
     0
276
    -2
286
     1
 66
     0
277
    -2
287
     1
 67
     0
278
    -2
288
     1
 68
     0
279
    -2
289
     1
 69
     0
  7
STANDARD
140
0.18
170
     5
 62
     0
 63
     7
283
     0
274
    -2
284
     1
 64
     0
275
    -2
285
     1
 65
     0
276
    -2
286
     1
 66
     0
277
    -2
287
     1
 67
     0
278
    -2
288
     1
 68
     0
279
    -2
289
     1
 69
     0
  0
VISUALSTYLE
  5
2AEE
102
{ACAD_REACTORS
330
2AE8
102
}
330
2AE8
100
AcDbVisualStyle
  2
2dWireframe
 70
     4
 71
     0
 72
     2
 73
     0
 90
        0
 40
-0.6
 41
-30.0
 62
     5
 63
     7
 74
     1
 91
        4
 64
     7
 65
   257
 75
     1
175
     1
 42
1.0
 92
        0
 66
   257
 43
1.0
 76
     1
 77
     6
 78
     2
 67
     7
 79
     5
170
     0
171
     0
290
     0
174
     0
 93
        1
 44
0.0
173
     0
291
     0
 45
0.0
1001
ACAD
1000
AcDbSavedByObjectVersion
1070
     0
1000
AcDbSavedByObjectVersion
1070
     0
  0
VISUALSTYLE
  5
2AF0
102
{ACAD_REACTORS
330
2AE8
102
}
330
2AE8
100
AcDbVisualStyle
  2
3D Hidden
 70
     6
 71
     1
 72
     2
 73
     2
 90
        0
 40
-0.6
 41
-30.0
 62
     5
 63
     7
 74
     2
 91
        2
 64
     7
 65
   257
 75
     2
175
     1
 42
40.0
 92
        0
 66
   257
 43
1.0
 76
     1
 77
     6
 78
     2
 67
     7
 79
     3
170
     0
171
     0
290
     0
174
     0
 93
        1
 44
0.0
173
     0
291
     0
 45
0.0
1001
ACAD
1000
AcDbSavedByObjectVersion
1070
     0
1000
AcDbSavedByObjectVersion
1070
     0
  0
VISUALSTYLE
  5
2AEF
102
{ACAD_REACTORS
330
2AE8
102
}
330
2AE8
100
AcDbVisualStyle
  2
3dWireframe
 70
     5
 71
     0
 72
     2
 73
     0
 90
        0
 40
-0.6
 41
-30.0
 62
     5
 63
     7
 74
     1
 91
        4
 64
     7
 65
   257
 75
     1
175
     1
 42
1.0
 92
        0
 66
   257
 43
1.0
 76
     1
 77
     6
 78
     2
 67
     7
 79
     5
170
     0
171
     0
290
     0
174
     0
 93
        1
 44
0.0
173
     0
291
     0
 45
0.0
1001
ACAD
1000
AcDbSavedByObjectVersion
1070
     0
1000
AcDbSavedByObjectVersion
1070
     0
  0
VISUALSTYLE
  5
2AED
102
{ACAD_REACTORS
330
2AE8
102
}
330
2AE8
100
AcDbVisualStyle
  2
Basic
 70
     7
 71
     1
 72
     0
 73
     1
 90
        0
 40
-0.6
 41
-30.0
 62
     5
 63
     7
 74
     0
 91
        4
 64
     7
 65
   257
 75
     1
175
     1
 42
1.0
 92
        8
 66
     7
 43
1.0
 76
     1
 77
     6
 78
     2
 67
     7
 79
     5
170
     0
171
     0
290
     0
174
     0
 93
        1
 44
0.0
173
     0
291
     1
 45
0.0
1001
ACAD
1000
AcDbSavedByObjectVersion
1070
     0
1000
AcDbSavedByObjectVersion
1070
     0
  0
VISUALSTYLE
  5
2AF4
102
{ACAD_REACTORS
330
2AE8
102
}
330
2AE8
100
AcDbVisualStyle
  2
Brighten
 70
    12
 71
     2
 72
     2
 73
     0
 90
        0
 40
-0.6
 41
-30.0
 62
     5
 63
     7
 74
     1
 91
        4
 64
     7
 65
   257
 75
     1
175
     1
 42
1.0
 92
        8
 66
     7
 43
1.0
 76
     1
 77
     6
 78
     2
 67
     7
 79
     5
170
     0
171
     0
290
     0
174
     0
 93
        1
 44
50.0
173
     0
291
     1
 45
0.0
1001
ACAD
1000
AcDbSavedByObjectVersion
1070
     0
1000
AcDbSavedByObjectVersion
1070
     0
  0
VISUALSTYLE
  5
2AF8
102
{ACAD_REACTORS
330
2AE8
102
}
330
2AE8
100
AcDbVisualStyle
  2
ColorChange
 70
    16
 71
     2
 72
     2
 73
     3
 90
        0
 40
-0.6
 41
-30.0
 62
     5
 63
     8
 74
     1
 91
        4
 64
     7
 65
   257
 75
     1
175
     1
 42
1.0
 92
        8
 66
     8
 43
1.0
 76
     1
 77
     6
 78
     2
 67
     7
 79
     5
170
     0
171
     0
290
     0
174
     0
 93
        1
 44
0.0
173
     0
291
     1
 45
0.0
1001
ACAD
1000
AcDbSavedByObjectVersion
1070
     0
1000
AcDbSavedByObjectVersion
1070
     0
  0
VISUALSTYLE
  5
2AF1
102
{ACAD_REACTORS
330
2AE8
102
}
330
2AE8
100
AcDbVisualStyle
  2
Conceptual
 70
     9
 71
     3
 72
     2
 73
     0
 90
        0
 40
-0.6
 41
-30.0
 62
     5
 63
     7
 74
     2
 91
        2
 64
     7
 65
   257
 75
     1
175
     1
 42
40.0
 92
        8
 66
     7
 43
1.0
 76
     1
 77
     6
 78
     2
 67
     7
 79
     3
170
     0
171
     0
290
     0
174
     0
 93
        1
 44
0.0
173
     0
291
     0
 45
0.0
1001
ACAD
1000
AcDbSavedByObjectVersion
1070
     0
1000
AcDbSavedByObjectVersion
1070
     0
  0
VISUALSTYLE
  5
2AF3
102
{ACAD_REACTORS
330
2AE8
102
}
330
2AE8
100
AcDbVisualStyle
  2
Dim
 70
    11
 71
     2
 72
     2
 73
     0
 90
        0
 40
-0.6
 41
-30.0
 62
     5
 63
     7
 74
     1
 91
        4
 64
     7
 65
   257
 75
     1
175
     1
 42
1.0
 92
        8
 66
     7
 43
1.0
 76
     1
 77
     6
 78
     2
 67
     7
 79
     5
170
     0
171
     0
290
     0
174
     0
 93
        1
 44
-50.0
173
     0
291
     1
 45
0.0
1001
ACAD
1000
AcDbSavedByObjectVersion
1070
     0
1000
AcDbSavedByObjectVersion
1070
     0
  0
VISUALSTYLE
  5
2AF7
102
{ACAD_REACTORS
330
2AE8
102
}
330
2AE8
100
AcDbVisualStyle
  2
Facepattern
 70
    15
 71
     2
 72
     2
 73
     0
 90
        0
 40
-0.6
 41
-30.0
 62
     5
 63
     7
 74
     1
 91
        4
 64
     7
 65
   257
 75
     1
175
     1
 42
1.0
 92
        8
 66
     7
 43
1.0
 76
     1
 77
     6
 78
     2
 67
     7
 79
     5
170
     0
171
     0
290
     0
174
     0
 93
        1
 44
0.0
173
     0
291
     1
 45
0.0
1001
ACAD
1000
AcDbSavedByObjectVersion
1070
     0
1000
AcDbSavedByObjectVersion
1070
     0
  0
VISUALSTYLE
  5
2AE9
102
{ACAD_REACTORS
330
2AE8
102
}
330
2AE8
100
AcDbVisualStyle
  2
Flat
 70
     0
 71
     2
 72
     1
 73
     1
 90
        2
 40
-0.6
 41
30.0
 62
     5
 63
     7
 74
     0
 91
        4
 64
     7
 65
   257
 75
     1
175
     1
 42
1.0
 92
        8
 66
     7
 43
1.0
 76
     1
 77
     6
 78
     2
 67
     7
 79
     5
170
     0
171
     0
290
     0
174
     0
 93
       13
 44
0.0
173
     0
291
     1
 45
0.0
1001
ACAD
1000
AcDbSavedByObjectVersion
1070
     0
1000
AcDbSavedByObjectVersion
1070
     0
  0
VISUALSTYLE
  5
2AEA
102
{ACAD_REACTORS
330
2AE8
102
}
330
2AE8
100
AcDbVisualStyle
  2
FlatWithEdges
 70
     1
 71
     2
 72
     1
 73
     1
 90
        2
 40
-0.6
 41
30.0
 62
     5
 63
     7
 74
     1
 91
        4
 64
     7
 65
   257
 75
     1
175
     1
 42
1.0
 92
        0
 66
   257
 43
1.0
 76
     1
 77
     6
 78
     2
 67
     7
 79
     5
170
     0
171
     0
290
     0
174
     0
 93
       13
 44
0.0
173
     0
291
     1
 45
0.0
1001
ACAD
1000
AcDbSavedByObjectVersion
1070
     0
1000
AcDbSavedByObjectVersion
1070
     0
  0
VISUALSTYLE
  5
2AEB
102
{ACAD_REACTORS
330
2AE8
102
}
330
2AE8
100
AcDbVisualStyle
  2
Gouraud
 70
     2
 71
     2
 72
     2
 73
     1
 90
        2
 40
-0.6
 41
30.0
 62
     5
 63
     7
 74
     0
 91
        4
 64
     7
 65
   257
 75
     1
175
     1
 42
1.0
 92
        0
 66
     7
 43
1.0
 76
     1
 77
     6
 78
     2
 67
     7
 79
     5
170
     0
171
     0
290
     0
174
     0
 93
       13
 44
0.0
173
     0
291
     1
 45
0.0
1001
ACAD
1000
AcDbSavedByObjectVersion
1070
     0
1000
AcDbSavedByObjectVersion
1070
     0
  0
VISUALSTYLE
  5
2AEC
102
{ACAD_REACTORS
330
2AE8
102
}
330
2AE8
100
AcDbVisualStyle
  2
GouraudWithEdges
 70
     3
 71
     2
 72
     2
 73
     1
 90
        2
 40
-0.6
 41
30.0
 62
     5
 63
     7
 74
     1
 91
        4
 64
     7
 65
   257
 75
     1
175
     1
 42
1.0
 92
        0
 66
   257
 43
1.0
 76
     1
 77
     6
 78
     2
 67
     7
 79
     5
170
     0
171
     0
290
     0
174
     0
 93
       13
 44
0.0
173
     0
291
     1
 45
0.0
1001
ACAD
1000
AcDbSavedByObjectVersion
1070
     0
1000
AcDbSavedByObjectVersion
1070
     0
  0
VISUALSTYLE
  5
2AF6
102
{ACAD_REACTORS
330
2AE8
102
}
330
2AE8
100
AcDbVisualStyle
  2
Linepattern
 70
    14
 71
     2
 72
     2
 73
     0
 90
        0
 40
-0.6
 41
-30.0
 62
     5
 63
     7
 74
     1
 91
        4
 64
     7
 65
   257
 75
     7
175
     7
 42
1.0
 92
        8
 66
     7
 43
1.0
 76
     1
 77
     6
 78
     2
 67
     7
 79
     5
170
     0
171
     0
290
     0
174
     0
 93
        1
 44
0.0
173
     0
291
     1
 45
0.0
1001
ACAD
1000
AcDbSavedByObjectVersion
1070
     0
1000
AcDbSavedByObjectVersion
1070
     0
  0
VISUALSTYLE
  5
2AF2
102
{ACAD_REACTORS
330
2AE8
102
}
330
2AE8
100
AcDbVisualStyle
  2
Realistic
 70
     8
 71
     2
 72
     2
 73
     0
 90
        0
 40
-0.6
 41
-30.0
 62
     5
 63
     7
 74
     1
 91
        0
 64
     7
 65
   257
 75
     1
175
     1
 42
1.0
 92
        8
 66
     8
 43
1.0
 76
     1
 77
     6
 78
     2
 67
     7
 79
     5
170
     0
171
     0
290
     0
174
     0
 93
       13
 44
0.0
173
     0
291
     0
 45
0.0
1001
ACAD
1000
AcDbSavedByObjectVersion
1070
     0
1000
AcDbSavedByObjectVersion
1070
     0
  0
VISUALSTYLE
  5
2AF5
102
{ACAD_REACTORS
330
2AE8
102
}
330
2AE8
100
AcDbVisualStyle
  2
Thicken
 70
    13
 71
     2
 72
     2
 73
     0
 90
        0
 40
-0.6
 41
-30.0
 62
     5
 63
     7
 74
     1
 91
        4
 64
     7
 65
   257
 75
     1
175
     1
 42
1.0
 92
       12
 66
     7
 43
1.0
 76
     1
 77
     6
 78
     2
 67
     7
 79
     5
170
     0
171
     0
290
     0
174
     0
 93
        1
 44
0.0
173
     0
291
     1
 45
0.0
1001
ACAD
1000
AcDbSavedByObjectVersion
1070
     0
1000
AcDbSavedByObjectVersion
1070
     0
  0
DICTIONARYVAR
  5
2CB6
102
{ACAD_REACTORS
330
2CB3
102
}
330
2CB3
100
DictionaryVariables
280
     0
  1
1:1
  0
DICTIONARYVAR
  5
2CB5
102
{ACAD_REACTORS
330
2CB3
102
}
330
2CB3
100
DictionaryVariables
280
     0
  1
STANDARD
  0
DICTIONARYVAR
  5
2CB4
102
{ACAD_REACTORS
330
2CB3
102
}
330
2CB3
100
DictionaryVariables
280
     0
  1
STANDARD
  0
DICTIONARYVAR
  5
2CB9
102
{ACAD_REACTORS
330
2CB3
102
}
330
2CB3
100
DictionaryVariables
280
     0
  1
1
  0
DICTIONARYVAR
  5
2CB8
102
{ACAD_REACTORS
330
2CB3
102
}
330
2CB3
100
DictionaryVariables
280
     0
  1
1
  0
DICTIONARYVAR
  5
2CB7
102
{ACAD_REACTORS
330
2CB3
102
}
330
2CB3
100
DictionaryVariables
280
     0
  1
127
  0
DICTIONARY
  5
2C71
102
{ACAD_REACTORS
330
2C63
102
}
330
2C63
100
AcDbDictionary
281
     1
  0
DICTIONARY
  5
2BB1
102
{ACAD_REACTORS
330
2BB0
102
}
330
2BB0
100
AcDbDictionary
281
     1
  3
DWGSETTINGS
350
2CD8
  3
TRANSSETTINGS
350
2CD9
  0
ACAMGFILTERDAT
  5
3161
102
{ACAD_REACTORS
330
315C
102
}
330
315C
100
AcAmgFilterDat
 70
    15
  1
DIMENSION,AMDT_*_DIM
  2
*
  3
*
  4
*
  5
*
290
     1
  0
ACAMGFILTERDAT
  5
3160
102
{ACAD_REACTORS
330
315C
102
}
330
315C
100
AcAmgFilterDat
 70
    15
  1
*
  2
AM_FEA-AM_*
  3
*
  4
*
  5
*
290
     1
  0
ACAMGFILTERDAT
  5
315D
102
{ACAD_REACTORS
330
315C
102
}
330
315C
100
AcAmgFilterDat
 70
    15
  1
HATCH
  2
*
  3
*
  4
*
  5
*
290
     1
  0
ACAMGFILTERDAT
  5
315E
102
{ACAD_REACTORS
330
315C
102
}
330
315C
100
AcAmgFilterDat
 70
    15
  1
LINE
  2
8,8N,*-8,*-8N,AM_8,AM_8N,*-AM_8,*-AM_8N
  3
*
  4
*
  5
INSERT,STDPART2D
290
     1
  0
ACAMGFILTERDAT
  5
3162
102
{ACAD_REACTORS
330
315C
102
}
330
315C
100
AcAmgFilterDat
 70
    15
  1
ARC
  2
AM_5
  3
*
  4
2
  5
INSERT
290
     0
  0
ACAMGFILTERDAT
  5
315F
102
{ACAD_REACTORS
330
315C
102
}
330
315C
100
AcAmgFilterDat
 70
    15
  1
ACMFCFRAME,ACMDATUMTARGET,ACMDATUMID,ACMWELDSYM,ACMSURFSYM,ACMFEATID,ACMPARTREF,ACMBALLOON,AMDTEDGESYM,AMGSCREWCALCTABLE,ACMMARKSTAMP
  2
*
  3
*
  4
*
  5
*
290
     1
  0
LAYER_INDEX
  5
2CA5
102
{ACAD_REACTORS
330
2CA4
102
}
330
2CA4
100
AcDbIndex
 40
2458467.709375856
100
AcDbLayerIndex
  8
0
360
2CA6
 90
        1
  8
OUTLINE
360
2CA7
 90
      305
  8
SIZE
360
2CA8
 90
        6
  8
BASIS
360
2CA9
 90
        1
  8
DETAIL
360
2CAA
 90
        0
  8
ARRANGE
360
2CAB
 90
        2
  8
DEFPOINTS
360
2CAC
 90
        0
  8
ETC
360
2CAD
 90
        3
  8
FIX
360
2CAE
 90
        0
  8
NOTE
360
2CAF
 90
        3
  8
SERVICESPACE
360
2CB0
 90
        0
  8
SYMBOLLINE
360
2CB1
 90
        0
  8
DETAIL___1
360
2CB2
 90
        2
  8
AM_VIS
360
34D4
 90
        0
  8
AM_7
360
34D5
 90
        0
  8
1
360
34D6
 90
        0
  0
DICTIONARY
  5
2DBB
330
2B32
100
AcDbDictionary
280
     1
281
     1
  3
ADSK_XREC_LAYOUTTHUMBNAIL
360
2DBC
  0
DICTIONARY
  5
2AD9
330
2AD8
100
AcDbDictionary
280
     1
281
     1
  3
ACAD_XREC_ROUNDTRIP
360
2CC4
  3
BUMPTILE
360
2ADB
  3
DIFFUSETILE
360
2ADA
  3
OPACITYTILE
360
2ADE
  3
REFLECTIONTILE
360
2ADD
  3
REFRACTIONTILE
360
2ADF
  3
SPECULARTILE
360
2ADC
  0
DICTIONARY
  5
2AD1
330
2AD0
100
AcDbDictionary
280
     1
281
     1
  3
ACAD_XREC_ROUNDTRIP
360
2CC3
  3
BUMPTILE
360
2AD3
  3
DIFFUSETILE
360
2AD2
  3
OPACITYTILE
360
2AD6
  3
REFLECTIONTILE
360
2AD5
  3
REFRACTIONTILE
360
2AD7
  3
SPECULARTILE
360
2AD4
  0
DICTIONARY
  5
2AE1
330
2AE0
100
AcDbDictionary
280
     1
281
     1
  3
ACAD_XREC_ROUNDTRIP
360
2CC5
  3
BUMPTILE
360
2AE3
  3
DIFFUSETILE
360
2AE2
  3
OPACITYTILE
360
2AE6
  3
REFLECTIONTILE
360
2AE5
  3
REFRACTIONTILE
360
2AE7
  3
SPECULARTILE
360
2AE4
  0
DICTIONARY
  5
2CBA
330
2B2B
100
AcDbDictionary
280
     1
281
     1
  3
ACAD_ROUNDTRIP_2008_TABLESTYLE_CELLSTYLEMAP
360
35D0
  3
ACAD_XREC_ROUNDTRIP
360
35D1
  0
IDBUFFER
  5
2CA6
330
0
100
AcDbIdBuffer
330
34E1
  0
IDBUFFER
  5
2CA7
330
0
100
AcDbIdBuffer
330
953
330
954
330
955
330
956
330
957
330
958
330
31ED
330
31EE
330
31EF
330
31F0
330
31F1
330
31F2
330
31F3
330
31F4
330
31F5
330
31F6
330
31F7
330
31F8
330
31F9
330
31FA
330
31FB
330
31FC
330
31FD
330
31FE
330
31FF
330
3200
330
3201
330
3202
330
3203
330
3204
330
3205
330
3206
330
3207
330
3208
330
3209
330
320A
330
320D
330
320E
330
320F
330
3210
330
3211
330
3214
330
3217
330
3218
330
321B
330
321C
330
3225
330
3226
330
3227
330
3228
330
3229
330
322A
330
322B
330
322C
330
322D
330
322E
330
322F
330
3230
330
3231
330
3232
330
3234
330
3235
330
3236
330
3237
330
3238
330
3239
330
323A
330
323C
330
323E
330
323F
330
3240
330
3241
330
3242
330
3243
330
3244
330
3245
330
3246
330
3247
330
3248
330
3249
330
324A
330
324B
330
324C
330
324D
330
324E
330
324F
330
3250
330
3251
330
3252
330
3253
330
3254
330
3255
330
3256
330
3257
330
3259
330
325B
330
325C
330
325D
330
325E
330
3260
330
3261
330
3262
330
3263
330
3264
330
3265
330
3266
330
3268
330
326A
330
326B
330
326C
330
326D
330
326F
330
3270
330
3271
330
3272
330
3273
330
3274
330
3275
330
3277
330
3279
330
327A
330
327B
330
327C
330
327E
330
327F
330
3280
330
3281
330
3282
330
3283
330
33C2
330
33C4
330
33C6
330
33C7
330
33C8
330
33C9
330
33CB
330
33CC
330
33CD
330
33CE
330
33CF
330
33D0
330
33D1
330
33D3
330
33D5
330
33D6
330
33D7
330
33D8
330
33DA
330
33DB
330
33DC
330
33DD
330
33DE
330
33DF
330
33E0
330
33E2
330
33E4
330
33E5
330
33E6
330
33E7
330
33E9
330
33EA
330
33EB
330
33EC
330
33ED
330
33EE
330
33EF
330
33F1
330
33F3
330
33F4
330
33F5
330
33F6
330
33F8
330
33F9
330
33FA
330
33FB
330
33FC
330
33FD
330
33FE
330
3400
330
3402
330
3403
330
3404
330
3405
330
3407
330
3408
330
3409
330
340A
330
340B
330
340C
330
340D
330
340F
330
3411
330
3412
330
3413
330
3414
330
3416
330
3417
330
3418
330
3419
330
341A
330
341B
330
341C
330
341E
330
3420
330
3421
330
3422
330
3423
330
3424
330
3425
330
3426
330
3427
330
3428
330
3429
330
342A
330
342B
330
342C
330
342D
330
342E
330
342F
330
3430
330
3431
330
3435
330
3436
330
3437
330
3438
330
3439
330
343A
330
343B
330
343D
330
343F
330
3440
330
3441
330
3442
330
3444
330
3445
330
3446
330
3447
330
3448
330
3449
330
344A
330
344C
330
344E
330
3450
330
3451
330
3453
330
3456
330
3458
330
3459
330
345A
330
345D
330
345F
330
3461
330
3462
330
3463
330
3464
330
3465
330
3466
330
3467
330
3468
330
3469
330
346A
330
346B
330
346C
330
346D
330
346E
330
346F
330
3470
330
3471
330
3472
330
3473
330
3474
330
3475
330
3477
330
3479
330
347A
330
347B
330
347D
330
347E
330
347F
330
3480
330
3481
330
3482
330
3483
330
3485
330
3487
330
3488
330
3489
330
348B
330
348C
330
348D
330
348E
330
348F
330
3490
330
3491
330
3492
330
3493
330
3494
330
3495
330
3496
330
34CB
330
34CD
330
34CE
330
34CF
330
34D0
330
34D1
  0
IDBUFFER
  5
2CA8
330
0
100
AcDbIdBuffer
330
34E8
330
34F5
330
3502
330
3511
330
351E
330
356C
  0
IDBUFFER
  5
2CA9
330
0
100
AcDbIdBuffer
330
34DE
  0
IDBUFFER
  5
2CAA
330
0
100
AcDbIdBuffer
  0
IDBUFFER
  5
2CAB
330
0
100
AcDbIdBuffer
330
2A05
330
34DC
  0
IDBUFFER
  5
2CAC
330
0
100
AcDbIdBuffer
  0
IDBUFFER
  5
2CAD
330
0
100
AcDbIdBuffer
330
29FB
330
29FC
330
29FD
  0
IDBUFFER
  5
2CAE
330
0
100
AcDbIdBuffer
  0
IDBUFFER
  5
2CAF
330
0
100
AcDbIdBuffer
330
34DD
330
34E0
330
34E2
  0
IDBUFFER
  5
2CB0
330
0
100
AcDbIdBuffer
  0
IDBUFFER
  5
2CB1
330
0
100
AcDbIdBuffer
  0
IDBUFFER
  5
2CB2
330
0
100
AcDbIdBuffer
330
34D2
330
34D3
  0
IDBUFFER
  5
34D4
330
0
100
AcDbIdBuffer
  0
IDBUFFER
  5
34D5
330
0
100
AcDbIdBuffer
  0
IDBUFFER
  5
34D6
330
0
100
AcDbIdBuffer
  0
XRECORD
  5
2DBC
102
{ACAD_REACTORS
330
2DBB
102
}
330
2DBB
100
AcDbXrecord
280
     1
310
2800000000010000C5000000010008000000000000C50000000000000000000000010000000000000000000000000000FFFFFF000000000000000000000000000000000000000000000000000000000000000000330000006600000099000000CC000000FF00000000330000333300006633000099330000CC330000FF3300
310
0000660000336600006666000099660000CC660000FF66000000990000339900006699000099990000CC990000FF99000000CC000033CC000066CC000099CC0000CCCC0000FFCC000000FF000033FF000066FF000099FF0000CCFF0000FFFF000000003300330033006600330099003300CC003300FF003300003333003333
310
33006633330099333300CC333300FF33330000663300336633006666330099663300CC663300FF66330000993300339933006699330099993300CC993300FF99330000CC330033CC330066CC330099CC3300CCCC3300FFCC330000FF330033FF330066FF330099FF3300CCFF3300FFFF330000006600330066006600660099
310
006600CC006600FF00660000336600333366006633660099336600CC336600FF33660000666600336666006666660099666600CC666600FF66660000996600339966006699660099996600CC996600FF99660000CC660033CC660066CC660099CC6600CCCC6600FFCC660000FF660033FF660066FF660099FF6600CCFF6600
310
FFFF660000009900330099006600990099009900CC009900FF00990000339900333399006633990099339900CC339900FF33990000669900336699006666990099669900CC669900FF66990000999900339999006699990099999900CC999900FF99990000CC990033CC990066CC990099CC9900CCCC9900FFCC990000FF99
310
0033FF990066FF990099FF9900CCFF9900FFFF99000000CC003300CC006600CC009900CC00CC00CC00FF00CC000033CC003333CC006633CC009933CC00CC33CC00FF33CC000066CC003366CC006666CC009966CC00CC66CC00FF66CC000099CC003399CC006699CC009999CC00CC99CC00FF99CC0000CCCC0033CCCC0066CC
310
CC0099CCCC00CCCCCC00FFCCCC0000FFCC0033FFCC0066FFCC0099FFCC00CCFFCC00FFFFCC000000FF003300FF006600FF009900FF00CC00FF00FF00FF000033FF003333FF006633FF009933FF00CC33FF00FF33FF000066FF003366FF006666FF009966FF00CC66FF00FF66FF000099FF003399FF006699FF009999FF00CC
310
99FF00FF99FF0000CCFF0033CCFF0066CCFF0099CCFF00CCCCFF00FFCCFF0000FFFF0033FFFF0066FFFF0099FFFF00CCFFFF00FFFFFF00000000000D0D0D001A1A1A00282828003535350043434300505050005D5D5D006B6B6B00787878008686860093939300A1A1A100AEAEAE00BBBBBB00C9C9C900D6D6D600E4E4E400
310
F1F1F100FFFFFF0000000000000000000000000000000000000000000000000000000000000000000000000000000000EFEFF5F5F5F5F5F5F5F5F5F5F5F5F5F5F5F5F5F5F5F5F5F5F5F5F5F5F5F5F5F5F5F5F5F5F5F5F5F5F5F5F5F5F5F5F5F5F5F5F5F5F5F5F5F5F5F5F5F5F5F5F5F5F5F5F5F5F5F5F5F5F5F5F5F5F5F5F5
310
F5F5F5F5F5F5F5F5F5F5F5F5F5F5F5F5F5F5F5F5F5F5F5F5F5F5F5F5F5F5F5F5F5F5F5F5F5F5F5F5F5F5F5F5F5F5F5F5F5F5F5F5F5F5F5F5F5F5F5F5F5F5F5F5F5F5F5F5F5F5F5F5F5F5F5F5F5F5F5F5F5F5F5F5F5F5F5F5F5F5F5F5F5F5F5F5F5F5F5F5F5F5F5F5F5F5F5F5F5F5F5F5F5F5F5F5F5F5F5F5F5F5F5F5F5F5F5
310
F5F5F5F5F5F5F5F5F5F5F5F5F5F5F5F5F5F5F5F5F5F5F5F5F5F5F5F5F5F5F5F5F5F5F5F5F5F5F5F5F5F5F5F5F5F5F5F5F5EFF5F5F5F5F5F5F5F5F5F5F5F5F5F5F5F5F5F5F5F5F5F5F5F5F5F5F5F5F5F5F5F5F5F5F5F5F5F5F5F5F5F5F5F5F5F5F5F5F5F5F5F5F5F5F5F5F5F5F5F5F5F5F5F5F5F5F5F5F5F5F5F5F5F5F5F5F5
310
F5F5F5F5F5F5F5F5F5F5F5F5F5F5F5F5F5F5F5F5F5F5F5F5F5F5F5F5F5F5F5F5F5F5F5F5F5F5F5F5F5F5F5F5F5F5F5F5F5F5F5F5F5F5F5F5F5F5F5F5F5F5F5F5F5F5F5F5F5F5F5F5F5F5F5F5F5F5F5F5F5F5F5F5F5F5F5F5F5F5F5F5F5F5F5F5F5F5F5F5F5F5F5F5F5F5F5F5F5F5F5F5F5F5F5F5F5F5F5F5F5F5F5F5F5F5F5
310
F5F5F5F5F5F5F5F5F5F5F5F5F5F5F5F5F5F5F5F5F5F5F5F5F5F5F5F5F5F5F5F5F5F5F5F5F5F5F5F5F5F5F5F5F5F5F5F5F5F5F5EFE2E2E2E2E2E2E2E2E2E2E2E2E2E2E2E2E2E2E2E2E2E2E2E2E2E2E2E2E2E2E2E2E2E2E2E2E2E2E2E2E2E2E2E2E2E2E2E2E2E2E2E2E2E2E2E2E2E2E2E2E2E2E2E2E2E2E2E2E2E2E2E2E2E2E2
310
E2E2E2E2E2E2E2E2E2E2E2E2E2E2E2E2E2E2E2E2E2E2E2E2E2E2E2E2E2E2E2E2E2E2E2E2E2E2E2E2E2E2E2E2E2E2E2E2E2E2E2E2E2E2E2E2E2E2E2E2E2E2E2E2E2E2E2E2E2E2E2E2E2E2E2E2E2E2E2E2E2E2E2E2E2E2E2E2E2E2E2E2E2E2E2E2E2E2E2E2E2E2E2E2E2E2E2E2E2E2E2E2E2E2E2E2E2E2E2E2E2E2E2E2E2E2E2
310
E2E2E2E2E2E2E2E2E2E2E2E2E2E2E2E2E2E2E2E2E2E2E2E2E2E2E2E2E2E2E2E2E2E2E2E2E2E2E2E2E2E2E2E2E2E2E2E2E2E2F5F5F5EFE2E2E2E2E2E2E2E2E2E2E2E2E2E2E2E2E2E2E2E2E2E2E2E2E2E2E2E2E2E2E2E2E2E2E2E2E2E2E2E2E2E2E2E2E2E2E2E2E2E2E2E2E2E2E2E2E2E2E2E2E2E2E2E2E2E2E2E2E2E2E2E2E2
310
E2E2E2E2E2E2E2E2E2E2E2E2E2E2E2E2E2E2E2E2E2E2E2E2E2E2E2E2E2E2E2E2E2E2E2E2E2E2E2E2E2E2E2E2E2E2E2E2E2E2E2E2E2E2E2E2E2E2E2E2E2E2E2E2E2E2E2E2E2E2E2E2E2E2E2E2E2E2E2E2E2E2E2E2E2E2E2E2E2E2E2E2E2E2E2E2E2E2E2E2E2E2E2E2E2E2E2E2E2E2E2E2E2E2E2E2E2E2E2E2E2E2E2E2E2E2E2
310
E2E2E2E2E2E2E2E2E2E2E2E2E2E2E2E2E2E2E2E2E2E2E2E2E2E2E2E2E2E2E2E2E2E2E2E2E2E2E2E2E2E2E2E2E2E2E2E2E2E2E2E2F5F5F5EFE2E2E2E2E2E2E2E2E2E2E2E2E2E2E2E2E2E2E2E2E2E2E2E2E2E2E2E2E2E2E2E2E2E2E2E2E2E2E2E2E2E2E2E2E2E2E2E2E2E2E2E2E2E2E2E2E2E2E2E2E2E2E2E2E2E2E2E2E2E2E2
310
E2E2E2E2E2E2E2E2E2E2E2E2E2E2E2E2E2E2E2E2E2E2E2E2E2E2E2E2E2E2E2E2E2E2E2E2E2E2E2E2E2E2E2E2E2E2E2E2E2E2E2E2E2E2E2E2E2E2E2E2E2E2E2E2E2E2E2E2E2E2E2E2E2E2E2E2E2E2E2E2E2E2E2E2E2E2E2E2E2E2E2E2E2E2E2E2E2E2E2E2E2E2E2E2E2E2E2E2E2E2E2E2E2E2E2E2E2E2E2E2E2E2E2E2E2E2E2
310
E2E2E2E2E2E2E2E2E2E2E2E2E2E2E2E2E2E2E2E2E2E2E2E2E2E2E2E2E2E2E2E2E2E2E2E2E2E2E2E2E2E2E2E2E2E2E2E2E2E2E2E2E2E2F5F5F5EFE2E2E2E2E2E2E2E2E2E2E2E2E2E2E2E2E2E2E2E2E2E2E2E2E2E2E2E2E2E2E2E2E2E2E2E2E2E2E2E2E2E2E2E2E2E2E2E2E2E2E2E2E2E2E2E2E2E2E2E2E2E2E2E2E2E2E2E2E2
310
E2E2E2E2E2E2E2E2E2E2E2E2E2E2E2E2E2E2E2E2E2E2E2E2E2E2E2E2E2E2E2E2E2E2E2E2E2E2E2E2E2E2E2E2E2E2E2E2E2E2E2E2E2E2E2E2E2E2E2E2E2E2E2E2E2E2E2E2E2E2E2E2E2E2E2E2E2E2E2E2E2E2E2E2E2E2E2E2E2E2E2E2E2E2E2E2E2E2E2E2E2E2E2E2E2E2E2E2E2E2E2E2E2E2E2E2E2E2E2E2E2E2E2E2E2E2E2
310
E2E2E2E2E2E2E2E2E2E2E2E2E2E2E2E2E2E2E2E2E2E2E2E2E2E2E2E2E2E2E2E2E2E2E2E2E2E2E2E2E2E2E2E2E2E2E2E2E2E2E2E2E2E2E2E2F5F5F5EFE2E2E2E2E2E2E2E2E2E2E2E2E2E2E2E2E2E2E2E2E2E2E2E2E2E2E2E2E2E2E2E2E2E2E2E2E2E2E2E2E2E2E2E2E2E2E2E2E2E2E2E2E2E2E2E2E2E2E2E2E2E2E2E2E2E2E2
310
E2E2E2E2E2E2E2E2E2E2E2E2E2E2E2E2E2E2E2E2E2E2E2E2E2E2E2E2E2E2E2E2E2E2E2E2E2E2E2E2E2E2E2E2E2E2E2E2E2E2E2E2E2E2E2E2E2E2E2E2E2E2E2E2E2E2E2E2E2E2E2E2E2E2E2E2E2E2E2E2E2E2E2E2E2E2E2E2E2E2E2E2E2E2E2E2E2E2E2E2E2E2E2E2E2E2E2E2E2E2E2E2E2E2E2E2E2E2E2E2E2E2E2E2E2E2E2
310
E2E2E2E2E2E2E2E2E2E2E2E2E2E2E2E2E2E2E2E2E2E2E2E2E2E2E2E2E2E2E2E2E2E2E2E2E2E2E2E2E2E2E2E2E2E2E2E2E2E2E2E2E2E2E2E2E2E2F5F5F5EFE2E2E2E2E2F5F5F5F5F5F5F5F5E2E2E2E2E2E2E2E2E2F5F5F5F5F5F5F5F5F5F5F5F5F5F5F5E2E2E2E2E2E2E2E2E2F5F5F5F5F5F5F5F5F5F5F5F5F5F5F5E2E2E2E2
310
E2E2E2E2E2F5F5F5F5F5F5F5F5F5F5F5F5F5F5F5F5E2E2E2E2E2E2E2E2F5F5F5F5F5F5F5F5F5F5F5F5F5F5F5F5E2E2E2E2E2E2E2E2F5F5F5F5F5F5F5F5F5F5F5F5F5F5F5F5E2E2E2E2E2E2E2E2F5F5F5F5F5F5F5F5F5F5F5F5F5F5F5F5E2E2E2E2E2E2E2E2F5F5F5F5F5F5F5F5F5F5F5F5F5F5F5F5E2E2E2E2E2E2E2E2E2F5
310
F5F5F5F5F5F5F5F5F5F5F5F5F5F5E2E2E2E2E2E2E2E2E2F5F5F5F5F5F5F5F5F5F5F5F5F5F5F5E2E2E2E2E2E2E2E2E2F5F5F5F5F5F5F5F5E2E2E2E2E2F5F5F5EFE2E2E2E2E2F5E2E2E2E2E2E2E2E2E2E2E2E2E2E2E2E2E2E2E2E2E2E2E2E2E2E2E2E2E2E2E2E2E2E2E2E2E2E2E2E2E2E2E2E2E2E2E2E2E2E2E2E2E2E2E2E2E2
310
E2E2E2E2E2E2E2E2E2E2E2E2E2E2E2E2E2E2E2E2E2E2E2E2E2E2E2E2E2E2E2E2E2E2E2E2E2E2E2E2E2E2E2E2E2E2E2E2E2E2E2E2E2E2E2E2E2E2E2E2E2E2E2E2E2E2E2E2E2E2E2E2E2E2E2E2E2E2E2E2E2E2E2E2E2E2E2E2E2E2E2E2E2E2E2E2E2E2E2E2E2E2E2E2E2E2E2E2E2E2E2E2E2E2E2E2E2E2E2E2E2E2E2E2E2E2E2
310
E2E2E2E2E2E2E2E2E2E2E2E2E2E2E2E2E2E2E2E2E2E2E2E2E2E2E2E2E2E2E2E2E2E2E2E2E2E2E2E2E2E2E2E2E2E2E2E2E2E2E2E2E2E2E2E2F5E2E2E2E2E2F5F5F5EFE2E2E2E2E2F5E2E2E2E2E2E2E2E2E2E2E2E2E2E2E2E2E2E2E2E2E2E2E2E2E2E2E2E2E2E2E2E2E2E2E2E2E2E2E2E2E2E2E2E2E2E2E2E2E2E2E2E2E2E2E2
310
E2E2E2E2E2E2E2E2E2E2E2E2E2E2E2E2E2E2E2E2E2E2E2E2E2E2E2E2E2E2E2E2E2E2E2E2E2E2E2E2E2E2E2E2E2E2E2E2E2E2E2E2E2E2E2E2E2E2E2E2E2E2E2E2E2E2E2E2E2E2E2E2E2E2E2E2E2E2E2E2E2E2E2E2E2E2E2E2E2E2E2E2E2E2E2E2E2E2E2E2E2E2E2E2E2E2E2E2E2E2E2E2E2E2E2E2E2E2E2E2E2E2E2E2E2E2E2
310
E2E2E2E2E2E2E2E2E2E2E2E2E2E2E2E2E2E2E2E2E2E2E2E2E2E2E2E2E2E2E2E2E2E2E2E2E2E2E2E2E2E2E2E2E2E2E2E2E2E2E2E2E2E2E2E2E2E2F5E2E2E2E2E2F5F5F5EFE2E2E2E2E2F5E2E2E2E2E2E2E2E2E2E2E2E2E2E2E2E2E2E2E2E2E2E2E2E2E2E2E2E2E2E2E2E2E2E2E2E2E2E2E2E2E2E2E2E2E2E2E2E2E2E2E2E2E2
310
E2E2E2E2E2E2E2E2E2E2E2E2E2E2E2E2E2E2E2E2E2E2E2E2E2E2E2E2E2E2E2E2E2E2E2E2E2E2E2E2E2E2E2E2E2E2E2E2E2E2E2E2E2E2E2E2E2E2E2E2E2E2E2E2E2E2E2E2E2E2E2E2E2E2E2E2E2E2E2E2E2E2E2E2E2E2E2E2E2E2E2E2E2E2E2E2E2E2E2E2E2E2E2E2E2E2E2E2E2E2E2E2E2E2E2E2E2E2E2E2E2E2E2E2E2E2E2
310
E2E2E2E2E2E2E2E2E2E2E2E2E2E2E2E2E2E2E2E2E2E2E2E2E2E2E2E2E2E2E2E2E2E2E2E2E2E2E2E2E2E2E2E2E2E2E2E2E2E2E2E2E2E2E2E2E2E2E2E2F5E2E2E2E2E2F5F5F5EFE2E2E2E2E2F5E2E2E2E2E2E2E2E2E2E2E2E2E2E2E2E2E2E2E2E2E2E2E2E2E2E2E2E2E2E2E2E2E2E2E2E2E2E2E2E2E2E2E2E2E2E2E2E2E2E2E2
310
E2E2E2E2E2E2E2E2E2E2E2E2E2E2E2E2E2E2E2E2E2E2E2E2E2E2E2E2E2E2E2E2E2E2E2E2E2E2E2E2E2E2E2E2E2E2E2E2E2E2E2E2E2E2E2E2E2E2E2E2E2E2E2E2E2E2E2E2E2E2E2E2E2E2E2E2E2E2E2E2E2E2E2E2E2E2E2E2E2E2E2E2E2E2E2E2E2E2E2E2E2E2E2E2E2E2E2E2E2E2E2E2E2E2E2E2E2E2E2E2E2E2E2E2E2E2E2
310
E2E2E2E2E2E2E2E2E2E2E2E2E2E2E2E2E2E2E2E2E2E2E2E2E2E2E2E2E2E2E2E2E2E2E2E2E2E2E2E2E2E2E2E2E2E2E2E2E2E2E2E2E2E2E2E2E2E2E2E2E2E2F5E2E2E2E2E2F5F5F5EFE2E2E2E2E2F5E2E2E2E2E2E2E2E2E2E2E2E2E2E2E2E2E2E2E2E2E2E2E2E2E2E2E2E2E2E2E2E2E2E2E2E2E2E2E2E2E2E2E2E2E2E2E2E2E2
310
E2E2E2E2E2E2E2E2E2E2E2E2E2E2E2E2E2E2E2E2E2E2E2E2E2E2E2E2E2E2E2E2E2E2E2E2E2E2E2E2E2E2E2E2E2E2E2E2E2E2E2E2E2E2E2E2E2E2E2E2E2E2E2E2E2E2E2E2E2E2E2E2E2E2E2E2E2E2E2E2E2E2E2E2E2E2E2E2E2E2E2E2E2E2E2E2E2E2E2E2E2E2E2E2E2E2E2E2E2E2E2E2E2E2E2E2E2E2E2E2E2E2E2E2E2E2E2
310
E2E2E2E2E2E2E2E2E2E2E2E2E2E2E2E2E2E2E2E2E2E2E2E2E2E2E2E2E2E2E2E2E2E2E2E2E2E2E2E2E2E2E2E2E2E2E2E2E2E2E2E2E2E2E2E2E2E2E2E2E2E2E2E2F5E2E2E2E2E2F5F5F5EFE2E2E2E2E2F5E2E2E2E2E2E2E2E2E2E2E2E2E2E2E2E2E2E2E2E2E2E2E2E2E2E2E2E2E2E2E2E2E2E2E2E2E2E2E2E2E2E2E2E2E2E2E2
310
E2E2E2E2E2E2E2E2E2E2E2E2E2E2E2E2E2E2E2E2E2E2E2E2E2E2E2E2E2E2E2E2E2E2E2E2E2E2E2E2E2E2E2E2E2E2E2E2E2E2E2E2E2E2E2E2E2E2E2E2E2E2E2E2E2E2E2E2E2E2E2E2E2E2E2E2E2E2E2E2E2E2E2E2E2E2E2E2E2E2E2E2E2E2E2E2E2E2E2E2E2E2E2E2E2E2E2E2E2E2E2E2E2E2E2E2E2E2E2E2E2E2E2E2E2E2E2
310
E2E2E2E2E2E2E2E2E2E2E2E2E2E2E2E2E2E2E2E2E2E2E2E2E2E2E2E2E2E2E2E2E2E2E2E2E2E2E2E2E2E2E2E2E2E2E2E2E2E2E2E2E2E2E2E2E2E2E2E2E2E2E2E2E2E2F5E2E2E2E2E2F5F5F5EFE2E2E2E2E2F5E2E2E2E2E2E2E2E2E2E2E2E2E2E2E2E2E2E2E2E2E2E2E2E2E2E2E2E2E2E2E2E2E2E2E2E2E2E2E2E2E2E2E2E2E2
310
E2E2E2E2E2E2E2E2E2E2E2E2E2E2E2E2E2E2E2E2E2E2E2E2E2E2E2E2E2E2E2E2E2E2E2E2E2E2E2E2E2E2E2E2E2E2E2E2E2E2E2E2E2E2E2E2E2E2E2E2E2E2E2E2E2E2E2E2E2E2E2E2E2E2E2E2E2E2E2E2E2E2E2E2E2E2E2E2E2E2E2E2E2E2E2E2E2E2E2E2E2E2E2E2E2E2E2E2E2E2E2E2E2E2E2E2E2E2E2E2E2E2E2E2E2E2E2
310
E2E2E2E2E2E2E2E2E2E2E2E2E2E2E2E2E2E2E2E2E2E2E2E2E2E2E2E2E2E2E2E2E2E2E2E2E2E2E2E2E2E2E2E2E2E2E2E2E2E2E2E2E2E2E2E2E2E2E2E2E2E2E2E2E2E2E2E2F5E2E2E2E2E2F5F5F5EFE2E2E2E2E2F5E2E2E2E2E2E2E2E2E2E2E2E2E2E2E2E2E2E2E2E2E2E2E2E2E2E2E2E2E2E2E2E2E2E2E2E2E2E2E2E2E2E2E2
310
E2E2E2E2E2E2E2E2E2E2E2E2E2E2E2E2E2E2E2E2E2E2E2E2E2E2E2E2E2E2E2E2E2E2E2E2E2E2E2E2E2E2E2E2E2E2E2E2E2E2E2E2E2E2E2E2E2E2E2E2E2E2E2E2E2E2E2E2E2E2E2E2E2E2E2E2E2E2E2E2E2E2E2E2E2E2E2E2E2E2E2E2E2E2E2E2E2E2E2E2E2E2E2E2E2E2E2E2E2E2E2E2E2E2E2E2E2E2E2E2E2E2E2E2E2E2E2
310
E2E2E2E2E2E2E2E2E2E2E2E2E2E2E2E2E2E2E2E2E2E2E2E2E2E2E2E2E2E2E2E2E2E2E2E2E2E2E2E2E2E2E2E2E2E2E2E2E2E2E2E2E2E2E2E2E2E2E2E2E2E2E2E2E2E2E2E2E2E2F5E2E2E2E2E2F5F5F5EFE2E2E2E2E2E2E2E2E2E2E2E2E2E2E2E2E2E2E2E2E2E2E2E2E2E2E2E2E2E2E2E2E2E2E2E2E2E2E2E2E2E2E2E2E2E2E2
310
E2E2E2E2E2E2E2E2E2E2E2E2E2E2E2E2E2E2E2E2E2E2E2E2E2E2E2E2E2E2E2E2E2E2E2E2E2E2E2E2E2E2E2E2E2E2E2E2E2E2E2E2E2E2E2E2E2E2E2E2E2E2E2E2E2E2E2E2E2E2E2E2E2E2E2E2E2E2E2E2E2E2E2E2E2E2E2E2E2E2E2E2E2E2E2E2E2E2E2E2E2E2E2E2E2E2E2E2E2E2E2E2E2E2E2E2E2E2E2E2E2E2E2E2E2E2E2
310
E2E2E2E2E2E2E2E2E2E2E2E2E2E2E2E2E2E2E2E2E2E2E2E2E2E2E2E2E2E2E2E2E2E2E2E2E2E2E2E2E2E2E2E2E2E2E2E2E2E2E2E2E2E2E2E2E2E2E2E2E2E2E2E2E2E2E2E2E2E2E2E2E2E2E2E2E2E2F5F5F5EFE2E2E2E2E2E2E2E2E2E2E2E2E2E2E2E2E2E2E2E2E2E2E2E2E2E2E2E2E2E2E2E2E2E2E2E2E2E2E2E2E2E2E2E2E2
310
E2E2E2E2E2E2E2E2E2E2E2E2E2E2E2E2E2E2E2E2E2E2E2E2E2E2E2E2E2E2E2E2E2E2E2E2E2E2E2E2E2E2E2E2E2E2E2E2E2E2E2E2E2E2E2E2E2E2E2E2E2E2E2E2E2E2E2E2E2E2E2E2E2E2E2E2E2E2E2E2E2E2E2E2E2E2E2E2E2E2E2E2E2E2E2E2E2E2E2E2E2E2E2E2E2E2E2E2E2E2E2E2E2E2E2E2E2E2E2E2E2E2E2E2E2E2E2
310
E2E2E2E2E2E2E2E2E2E2E2E2E2E2E2E2E2E2E2E2E2E2E2E2E2E2E2E2E2E2E2E2E2E2E2E2E2E2E2E2E2E2E2E2E2E2E2E2E2E2E2E2E2E2E2E2E2E2E2E2E2E2E2E2E2E2E2E2E2E2E2E2E2E2E2E2E2E2E2E2F5F5F5EFE2E2E2E2E2E2E2E2E2E2E2E2E2E2E2E2E2E2E2E2E2E2E2E2E2E2E2E2E2E2E2E2E2E2E2E2E2E2E2E2E2E2E2
310
E2E2E2E2E2E2E2E2E2E2E2E2E2E2E2E2E2E2E2E2E2E2E2E2E2E2E2E2E2E2E2E2E2E2E2E2E2E2E2E2E2E2E2E2E2E2E2E2E2E2E2E2E2E2E2E2E2E2E2E2E2E2E2E2E2E2E2E2E2E2E2E2E2E2E2E2E2E2E2E2E2E2E2E2E2E2E2E2E2E2E2E2E2E2E2E2E2E2E2E2E2E2E2E2E2E2E2E2E2E2E2E2E2E2E2E2E2E2E2E2E2E2E2E2E2E2E2
310
E2E2E2E2E2E2E2E2E2E2E2E2E2E2E2E2E2E2E2E2E2E2E2E2E2E2E2E2E2E2E2E2E2E2E2E2E2E2E2E2E2E2E2E2E2E2E2E2E2E2E2E2E2E2E2E2E2E2E2E2E2E2E2E2E2E2E2E2E2E2E2E2E2E2E2E2E2E2E2E2E2E2F5F5F5EFE2E2E2E2E2E2E2E2E2E2E2E2E2E2E2E2E2E2E2E2E2E2E2E2E2E2E2E2E2E2E2E2E2E2E2E2E2E2E2E2E2
310
E2E2E2E2E2E2E2E2E2E2E2E2E2E2E2E2E2E2E2E2E2E2E2E2E2E2E2E2E2E2E2E2E2E2E2E2E2E2E2E2E2E2E2E2E2E2E2E2E2E2E2E2E2E2E2E2E2E2E2E2E2E2E2E2E2E2E2E2E2E2E2E2E2E2E2E2E2E2E2E2E2E2E2E2E2E2E2E2E2E2E2E2E2E2E2E2E2E2E2E2E2E2E2E2E2E2E2E2E2E2E2E2E2E2E2E2E2E2E2E2E2E2E2E2E2E2E2
310
E2E2E2E2E2E2E2E2E2E2E2E2E2E2E2E2E2E2E2E2E2E2E2E2E2E2E2E2E2E2E2E2E2E2E2E2E2E2E2E2E2E2E2E2E2E2E2E2E2E2E2E2E2E2E2E2E2E2E2E2E2E2E2E2E2E2E2E2E2E2E2E2E2E2E2E2E2E2E2E2E2E2E2E2F5F5F5EFE2E2E2E2E2E2E2E2E2E2E2E2E2E2E2E2E2E2E2E2E2E2E2E2E2E2E2E2E2E2E2E2E2E2E2E2E2E2E2
310
E2E2E2E2E2E2E2E2E2E2E2E2E2E2E2E2E2E2E2E2E2E2E2E2E2E2E2E2E2E2E2E2E2E2E2E2E2E2E2E2E2E2E2E2E2E2E2E2E2E2E2E2E2E2E2E2E2E2E2E2E2E2E2E2E2E2E2E2E2E2E2E2E2E2E2E2E2E2E2E2E2E2E2E2E2E2E2E2E2E2E2E2E2E2E2E2E2E2E2E2E2E2E2E2E2E2E2E2E2E2E2E2E2E2E2E2E2E2E2E2E2E2E2E2E2E2E2
310
E2E2E2E2E2E2E2E2E2E2E2E2E2E2E2E2E2E2E2E2E2E2E2E2E2E2E2E2E2E2E2E2E2E2E2E2E2E2E2E2E2E2E2E2E2E2E2E2E2E2E2E2E2E2E2E2E2E2E2E2E2E2E2E2E2E2E2E2E2E2E2E2E2E2E2E2E2E2E2E2E2E2E2E2E2E2F5F5F5EFE2E2E2E2E2E2E2E2E2E2E2E2E2E2E2E2E2E2E2E2E2E2E2E2E2E2E2E2E2E2E2E2E2E2E2E2E2
310
E2E2E2E2E2E2E2E2E2E2E2E2E2E2E2E2E2E2E2E2E2E2E2E2E2E2E2E2E2E2E2E2E2E2E2E2E2E2E2E2E2E2E2E2E2E2E2E2E2E2E2E2E2E2E2E2E2E2E2E2E2E2E2E2E2E2E2E2E2E2E2E2E2E2E2E2E2E2E2E2E2E2E2E2E2E2E2E2E2E2E2E2E2E2E2E2E2E2E2E2E2E2E2E2E2E2E2E2E2E2E2E2E2E2E2E2E2E2E2E2E2E2E2E2E2E2E2
310
E2E2E2E2E2E2E2E2E2E2E2E2E2E2E2E2E2E2E2E2E2E2E2E2E2E2E2E2E2E2E2E2E2E2E2E2E2E2E2E2E2E2E2E2E2E2E2E2E2E2E2E2E2E2E2E2E2E2E2E2E2E2E2E2E2E2E2E2E2E2E2E2E2E2E2E2E2E2E2E2E2E2E2E2E2E2E2E2F5F5F5EFE2E2E2E2E2E2E2E2E2E2E2E2E2E2E2E2E2E2E2E2E2E2E2E2E2E2E2E2E2E2E2E2E2E2E2
310
E2E2E2E2E2E2E2E2E2E2E2E2E2E2E2E2E2E2E2E2E2E2E2E2E2E2E2E2E2E2E2E2E2E2E2E2E2E2E2E2E2E2E2E2E2E2E2E2E2E2E2E2E2E2E2E2E2E2E2E2E2E2E2E2E2E2E2E2E2E2E2E2E2E2E2E2E2E2E2E2E2E2E2E2E2E2E2E2E2E2E2E2E2E2E2E2E2E2E2E2E2E2E2E2E2E2E2E2E2E2E2E2E2E2E2E2E2E2E2E2E2E2E2E2E2E2E2
310
E2E2E2E2E2E2E2E2E2E2E2E2E2E2E2E2E2E2E2E2E2E2E2E2E2E2E2E2E2E2E2E2E2E2E2E2E2E2E2E2E2E2E2E2E2E2E2E2E2E2E2E2E2E2E2E2E2E2E2E2E2E2E2E2E2E2E2E2E2E2E2E2E2E2E2E2E2E2E2E2E2E2E2E2E2E2E2E2E2E2F5F5F5EFE2E2E2E2E2E2E2E2E2E2E2E2E2E2E2E2E2E2E2E2E2E2E2E2E2E2E2E2E2E2E2E2E2
310
E2E2E2E2E2E2E2E2E2E2E2E2E2E2E2E2E2E2E2E2E2E2E2E2E2E2E2E2E2E2E2E2E2E2E2E2E2E2E2E2E2E2E2E2E2E2E2E2E2E2E2E2E2E2E2E2E2E2E2E2E2E2E2E2E2E2E2E2E2E2E2E2E2E2E2E2E2E2E2E2E2E2E2E2E2E2E2E2E2E2E2E2E2E2E2E2E2E2E2E2E2E2E2E2E2E2E2E2E2E2E2E2E2E2E2E2E2E2E2E2E2E2E2E2E2E2E2
310
E2E2E2E2E2E2E2E2E2E2E2E2E2E2E2E2E2E2E2E2E2E2E2E2E2E2E2E2E2E2E2E2E2E2E2E2E2E2E2E2E2E2E2E2E2E2E2E2E2E2E2E2E2E2E2E2E2E2E2E2E2E2E2E2E2E2E2E2E2E2E2E2E2E2E2E2E2E2E2E2E2E2E2E2E2E2E2E2E2E2E2E2F5F5F5EFE2E2E2E2E2E2E2E2E2E2E2E2E2E2E2E2E2E2E2E2E2E2E2E2E2E2E2E2E2E2E2
310
E2E2E2E2E2E2E2E2E2E2E2E2E2E2E2E2E2E2E2E2E2E2E2E2E2E2E2E2E2E2E2E2E2E2E2E2E2E2E2E2E2E2E2E2E2E2E2E2E2E2E2E2E2E2E2E2E2E2E2E2E2E2E2E2E2E2E2E2E2E2E2E2E2E2E2E2E2E2E2E2E2E2E2E2E2E2E2E2E2E2E2E2E2E2E2E2E2E2E2E2E2E2E2E2E2E2E2E2E2E2E2E2E2E2E2E2E2E2E2E2E2E2E2E2E2E2E2
310
E2E2E2E2E2E2E2E2E2E2E2E2E2E2E2E2E2E2E2E2E2E2E2E2E2E2E2E2E2E2E2E2E2E2E2E2E2E2E2E2E2E2E2E2E2E2E2E2E2E2E2E2E2E2E2E2E2E2E2E2E2E2E2E2E2E2E2E2E2E2E2E2E2E2E2E2E2E2E2E2E2E2E2E2E2E2E2E2E2E2E2E2E2E2F5F5F5EFE2E2E2E2E2F5E2E2E2E2E2E2E2E2E2E2E2E2E2E2E2E2E2E2E2E2E2E2E2
310
E2E2E2E2E2E2E2E2E2E2E2E2E2E2E2E2E2E2E2E2E2E2E2E2E2E2E2E2E2E2E2E2E2E2E2E2E2E2E2E2E2E2E2E2E2E2E2E2E2E2E2E2E2E2E2E2E2E2E2E2E2E2E2E2E2E2E2E2E2E2E2E2E2E2E2E2E2E2E2E2E2E2E2E2E2E2E2E2E2E2E2E2E2E2E2E2E2E2E2E2E2E2E2E2E2E2E2E2E2E2E2E2E2E2E2E2E2E2E2E2E2E2E2E2E2E2E2
310
E2E2E2E2E2E2E2E2E2E2E2E2E2E2E2E2E2E2E2E2E2E2E2E2E2E2E2E2E2E2E2E2E2E2E2E2E2E2E2E2E2E2E2E2E2E2E2E2E2E2E2E2E2E2E2E2E2E2E2E2E2E2E2E2E2E2E2E2E2E2E2E2E2E2E2E2E2E2E2E2E2E2E2E2E2E2E2E2E2E2F5E2E2E2E2E2F5F5F5EFE2E2E2E2E2F5E2E2E2E2E2E2E2E2E2E2E2E2E2E2E2E2E2E2E2E2E2
310
E2E2E2E2E2E2E2E2E2E2E2E2E2E2E2E2E2E2E2E2E2E2E2E2E2E2E2E2E2E2E2E2E2E2E2E2E2E2E2E2E2E2E2E2E2E2E2E2E2E2E2E2E2E2E2E2E2E2E2E2E2E2E2E2E2E2E2E2E2E2E2E2E2E2E2E2E2E2E2E2E2E2E2E2E2E2E2E2E2E2E2E2E2E2E2E2E2E2E2E2E2E2E2E2E2E2E2E2E2E2E2E2E2E2E2E2E2E2E2E2E2E2E2E2E2E2E2
310
E2E2E2E2E2E2E2E2E2E2E2E2E2E2E2E2E2E2E2E2E2E2E2E2E2E2E2E2E2E2E2E2E2E2E2E2E2E2E2E2E2E2E2E2E2E2E2E2E2E2E2E2E2E2E2E2E2E2E2E2E2E2E2E2E2E2E2E2E2E2E2E2E2E2E2E2E2E2E2E2E2E2E2E2E2E2E2E2E2E2E2E2F5E2E2E2E2E2F5F5F5EFE2E2E2E2E2F5E2E2E2E2E2E2E2E2E2E2E2E2E2E2E2E2E2E2E2
310
E2E2E2E2E2E2E2E2E2E2E2E2E2E2E2E2E2E2E2E2E2E2E2E2E2E2E2E2E2E2E2E2E2E2E2E2E2E2E2E2E2E2E2E2E2E2E2E2E2E2E2E2E2E2E2E2E2E2E2E2E2E2E2E2E2E2E2E2E2E2E2E2E2E2E2E2E2E2E2E2E2E2E2E2E2E2E2E2E2E2E2E2E2E2E2E2E2E2E2E2E2E2E2E2E2E2E2E2E2E2E2E2E2E2E2E2E2E2E2E2E2E2E2E2E2E2E2
310
E2E2E2E2E2E2E2E2E2E2E2E2E2E2E2E2E2E2E2E2E2E2E2E2E2E2E2E2E2E2E2E2E2E2E2E2E2E2E2E2E2E2E2E2E2E2E2E2E2E2E2E2E2E2E2E2E2E2E2E2E2E2E2E2E2E2E2E2E2E2E2E2E2E2E2E2E2E2E2E2E2E2E2E2E2E2E2E2E2E2E2E2E2E2F5E2E2E2E2E2F5F5F5EFE2E2E2E2E2F5E2E2E2E2E2E2E2E2E2E2E2E2E2E2E2E2E2
310
E2E2E2E2E2E2E2E2E2E2E2E2E2E2E2E2E2E2E2E2E2E2E2E2E2E2E2E2E2E2E2E2E2E2E2E2E2E2E2E2E2E2E2E2E2E2E2E2E2E2E2E2E2E2E2E2E2E2E2E2E2E2E2E2E2E2E2E2E2E2E2E2E2E2E2E2E2E2E2E2E2E2E2E2E2E2E2E2E2E2E2E2E2E2E2E2E2E2E2E2E2E2E2E2E2E2E2E2E2E2E2E2E2E2E2E2E2E2E2E2E2E2E2E2E2E2E2
310
E2E2E2E2E2E2E2E2E2E2E2E2E2E2E2E2E2E2E2E2E2E2E2E2E2E2E2E2E2E2E2E2E2E2E2E2E2E2E2E2E2E2E2E2E2E2E2E2E2E2E2E2E2E2E2E2E2E2E2E2E2E2E2E2E2E2E2E2E2E2E2E2E2E2E2E2E2E2E2E2E2E2E2E2E2E2E2E2E2E2E2E2E2E2E2E2F5E2E2E2E2E2F5F5F5EFE2E2E2E2E2F5E2E2E2E2E2E2E2E2E2E2E2E2E2E2E2
310
E2E2E2E2E2E2E2E2E2E2E2E2E2E2E2E2E2E2E2E2E2E2E2E2E2E2E2E2E2E2E2E2E2E2E2E2E2E2E2E2E2E2E2E2E2E2E2E2E2E2E2E2E2E2E2E2E2E2E2E2E2E2E2E2E2E2E2E2E2E2E2E2E2E2E2E2E2E2E2E2E2E2E2E2E2E2E2E2E2E2E2E2E2E2E2E2E2E2E2E2E2E2E2E2E2E2E2E2E2E2E2E2E2E2E2E2E2E2E2E2E2E2E2E2E2E2E2
310
E2E2E2E2E2E2E2E2E2E2E2E2E2E2E2E2E2E2E2E2E2E2E2E2E2E2E2E2E2E2E2E2E2E2E2E2E2E2E2E2E2E2E2E2E2E2E2E2E2E2E2E2E2E2E2E2E2E2E2E2E2E2E2E2E2E2E2E2E2E2E2E2E2E2E2E2E2E2E2E2E2E2E2E2E2E2E2E2E2E2E2E2E2E2E2E2E2E2F5E2E2E2E2E2F5F5F5EFE2E2E2E2E2F5E2E2E2E2E2E2E2E2E2E2E2E2E2
310
E2E2E2E2E2E2E2E2E2E2E2E2E2E2E2E2E2E2E2E2E2E2E2E2E2E2E2E2E2E2E2E2E2E2E2E2E2E2E2E2E2E2E2E2E2E2E2E2E2E2E2E2E2E2E2E2E2E2E2E2E2E2E2E2E2E2E2E2E2E2E2E2E2E2E2E2E2E2E2E2E2E2E2E2E2E2E2E2E2E2E2E2E2E2E2E2E2E2E2E2E2E2E2E2E2E2E2E2E2E2E2E2E2E2E2E2E2E2E2E2E2E2E2E2E2E2E2
310
E2E2E2E2E2E2E2E2E2E2E2E2E2E2E2E2E2E2E2E2E2E2E2E2E2E2E2E2E2E2E2E2E2E2E2E2E2E2E2E2E2E2E2E2E2E2E2E2E2E2E2E2E2E2E2E2E2E2E2E2E2E2E2E2E2E2E2E2E2E2E2E2E2E2E2E2E2E2E2E2E2E2E2E2E2E2E2E2E2E2E2E2E2E2E2E2E2E2E2E2F5E2E2E2E2E2F5F5F5EFE2E2E2E2E2F5E2E2E2E2E2E2E2E2E2E2E2
310
E2E2E2E2E2E2E2E2E2E2E2E2E2E2E2E2E2E2E2E2E2E2E2E2E2E2E2E2E2E2E2E2E2E2E2E2E2E2E2E2E2E2E2E2E2E2E2E2E2E2E2E2E2E2E2E2E2E2E2E2E2E2E2E2E2E2E2E2E2E2E2E2E2E2E2E2E2E2E2E2E2E2E2E2E2E2E2E2E2E2E2E2E2E2E2E2E2E2E2E2E2E2E2E2E2E2E2E2E2E2E2E2E2E2E2E2E2E2E2E2E2E2E2E2E2E2E2
310
E2E2E2E2E2E2E2E2E2E2E2E2E2E2E2E2E2E2E2E2E2E2E2E2E2E2E2E2E2E2E2E2E2E2E2E2E2E2E2E2E2E2E2E2E2E2E2E2E2E2E2E2E2E2E2E2E2E2E2E2E2E2E2E2E2E2E2E2E2E2E2E2E2E2E2E2E2E2E2E2E2E2E2E2E2E2E2E2E2E2E2E2E2E2E2E2E2E2E2E2E2E2F5E2E2E2E2E2F5F5F5EFE2E2E2E2E2F5E2E2E2E2E2E2E2E2E2
310
E2E2E2E2E2E2E2E2E2E2E2E2E2E2E2E2E2E2E2E2E2E2E2E2E2E2E2E2E2E2E2E2E2E2E2E2E2E2E2E2E2E2E2E2E2E2E2E2E2E2E2E2E2E2E2E2E2E2E2E2E2E2E2E2E2E2E2E2E2E2E2E2E2E2E2E2E2E2E2E2E2E2E2E2E2E2E2E2E2E2E2E2E2E2E2E2E2E2E2E2E2E2E2E2E2E2E2E2E2E2E2E2E2E2E2E2E2E2E2E2E2E2E2E2E2E2E2
310
E2E2E2E2E2E2E2E2E2E2E2E2E2E2E2E2E2E2E2E2E2E2E2E2E2E2E2E2E2E2E2E2E2E2E2E2E2E2E2E2E2E2E2E2E2E2E2E2E2E2E2E2E2E2E2E2E2E2E2E2E2E2E2E2E2E2E2E2E2E2E2E2E2E2E2E2E2E2E2E2E2E2E2E2E2E2E2E2E2E2E2E2E2E2E2E2E2E2E2E2E2E2E2E2F5E2E2E2E2E2F5F5F5EFE2E2E2E2E2F5E2E2E2E2E2E2E2
310
E2E2E2E2E2E2E2E2E2E2E2E2E2E2E2E2E2E2E2E2E2E2E2E2E2E2E2E2E2E2E2E2E2E2E2E2E2E2E2E2E2E2E2E2E2E2E2E2E2E2E2E2E2E2E2E2E2E2E2E2E2E2E2E2E2E2E2E2E2E2E2E2E2E2E2E2E2E2E2E2E2E2E2E2E2E2E2E2E2E2E2E2E2E2E2E2E2E2E2E2E2E2E2E2E2E2E2E2E2E2E2E2E2E2E2E2E2E2E2E2E2E2E2E2E2E2E2
310
E2E2E2E2E2E2E2E2E2E2E2E2E2E2E2E2E2E2E2E2E2E2E2E2E2E2E2E2E2E2E2E2E2E2E2E2E2E2E2E2E2E2E2E2E2E2E2E2E2E2E2E2E2E2E2E2E2E2E2E2E2E2E2E2E2E2E2E2E2E2E2E2E2E2E2E2E2E2E2E2E2E2E2E2E2E2E2E2E2E2E2E2E2E2E2E2E2E2E2E2E2E2E2E2E2E2F5E2E2E2E2E2F5F5F5EFE2E2E2E2E2F5E2E2E2E2E2
310
E2E2E2E2E2E2E2E2E2E2E2E2E2E2E2E2E2E2E2E2E2E2E2E2E2E2E2E2E2E2E2E2E2E2E2E2E2E2E2E2E2E2E2E2E2E2E2E2E2E2E2E2E2E2E2E2E2E2E2E2E2E2E2E2E2E2E2E2E2E2E2E2E2E2E2E2E2E2E2E2E2E2E2E2E2E2E2E2E2E2E2E2E2E2E2E2E2E2E2E2E2E2E2E2E2E2E2E2E2E2E2E2E2E2E2E2E2E2E2E2E2E2E2E2E2E2E2
310
E2E2E2E2E2E2E2E2E2E2E2E2E2E2E2E2E2E2E2E2E2E2E2E2E2E2E2E2E2E2E2E2E2E2E2E2E2E2E2E2E2E2E2E2E2E2E2E2E2E2E2E2E2E2E2E2E2E2E2E2E2E2E2E2E2E2E2E2E2E2E2E2E2E2E2E2E2E2E2E2E2E2E2E2E2E2E2E2E2E2E2E2E2E2E2E2E2E2E2E2E2E2E2E2E2E2E2E2F5E2E2E2E2E2F5F5F5EFE2E2E2E2E2F5E2E2E2
310
E2E2E2E2E2E2E2E2E2E2E2E2E2E2E2E2E2E2E2E2E2E2E2E2E2E2E2E2E2E2E2E2E2E2E2E2E2E2E2E2E2E2E2E2E2E2E2E2E2E2E2E2E2E2E2E2E2E2E2E2E2E2E2E2E2E2E2E2E2E2E2E2E2E2E2E2E2E2E2E2E2E2E2E2E2E2E2E2E2E2E2E2E2E2E2E2E2E2E2E2E2E2E2E2E2E2E2E2E2E2E2E2E2E2E2E2E2E2E2E2E2E2E2E2E2E2E2
310
E2E2E2E2E2E2E2E2E2E2E2E2E2E2E2E2E2E2E2E2E2E2E2E2E2E2E2E2E2E2E2E2E2E2E2E2E2E2E2E2E2E2E2E2E2E2E2E2E2E2E2E2E2E2E2E2E2E2E2E2E2E2E2E2E2E2E2E2E2E2E2E2E2E2E2E2E2E2E2E2E2E2E2E2E2E2E2E2E2E2E2E2E2E2E2E2E2E2E2E2E2E2E2E2E2E2E2E2E2E2F5E2E2E2E2E2F5F5F5EFE2E2E2E2E2F5E2
310
E2E2E2E2E2E2E2E2E2E2E2E2E2E2E2E2E2E2E2E2E2E2E2E2E2E2E2E2E2E2E2E2E2E2E2E2E2E2E2E2E2E2E2E2E2E2E2E2E2E2E2E2E2E2E2E2E2E2E2E2E2E2E2E2E2E2E2E2E2E2E2E2E2E2E2E2E2E2E2E2E2E2E2E2E2E2E2E2E2E2E2E2E2E2E2E2E2E2E2E2E2E2E2E2E2E2E2E2E2E2E2E2E2E2E2E2E2E2E2E2E2E2E2E2E2E2E2
310
E2E2E2E2E2E2E2E2E2E2E2E2E2E2E2E2E2E2E2E2E2E2E2E2E2E2E2E2E2E2E2E2E2E2E2E2E2E2E2E2E2E2E2E2E2E2E2E2E2E2E2E2E2E2E2E2E2E2E2E2E2E2E2E2E2E2E2E2E2E2E2E2E2E2E2E2E2E2E2E2E2E2E2E2E2E2E2E2E2E2E2E2E2E2E2E2E2E2E2E2E2E2E2E2E2E2E2E2E2E2E2E2F5E2E2E2E2E2F5F5F5EFE2E2E2E2E2
310
F5E2E2E2E2E2E2E2E2E2E2E2E2E2E2E2E2E2E2E2E2E2E2E2E2E2E2E2E2E2E2E2E2E2E2E2E2E2E2E2E2E2E2E2E2E2E2E2E2E2E2E2E2E2E2E2E2E2E2E2E2E2E2E2E2E2E2E2E2E2E2E2E2E2E2E2E2E2E2E2E2E2E2E2E2E2E2E2E2E2E2E2E2E2E2E2E2E2E2E2E2E2E2E2E2E2E2E2E2E2E2E2E2E2E2E2E2E2E2E2E2E2E2E2E2E2E2
310
E2E2E2E2E2E2E2E2E2E2E2E2E2E2E2E2E2E2E2E2E2E2E2E2E2E2E2E2E2E2E2E2E2E2E2E2E2E2E2E2E2E2E2E2E2E2E2E2E2E2E2E2E2E2E2E2E2E2E2E2E2E2E2E2E2E2E2E2E2E2E2E2E2E2E2E2E2E2E2E2E2E2E2E2E2E2E2E2E2E2E2E2E2E2E2E2E2E2E2E2E2E2E2E2E2E2E2E2E2E2E2E2E2E2F5E2E2E2E2E2F5F5F5EFE2E2E2
310
E2E2F5E2E2E2E2E2E2E2E2E2E2E2E2E2E2E2E2E2E2E2E2E2E2E2E2E2E2E2E2E2E2E2E2E2E2E2E2E2E2E2E2E2E2E2E2E2E2E2E2E2E2E2E2E2E2E2E2E2E2E2E2E2E2E2E2E2E2E2E2E2E2E2E2E2E2E2E2E2E2E2E2E2E2E2E2E2E2E2E2E2E2E2E2E2E2E2E2E2E2E2E2E2E2E2E2E2E2E2E2E2E2E2E2E2E2E2E2E2E2E2E2E2E2E2E2
310
E2E2E2E2E2E2E2E2E2E2E2E2E2E2E2E2E2E2E2E2E2E2E2E2E2E2E2E2E2E2E2E2E2E2E2E2E2E2E2E2E2E2E2E2E2E2E2E2E2E2E2E2E2E2E2E2E2E2E2E2E2E2E2E2E2E2E2E2E2E2E2E2E2E2E2E2E2E2E2E2E2E2E2E2E2E2E2E2E2E2E2E2E2E2E2E2E2E2E2E2E2E2E2E2E2E2E2E2E2E2E2E2E2E2E2E2F5E2E2E2E2E2F5F5F5EFE2
310
E2E2E2E2F5E2E2E2E2E2E2E2E2E2E2E2E2E2E2E2E2E2E2E2E2E2E2E2E2E2E2E2E2E2E2E2E2E2E2E2E2E2E2E2E2E2E2E2E2E2E2E2E2E2E2E2E2E2E2E2E2E2E2E2E2E2E2E2E2E2E2E2E2E2E2E2E2E2E2E2E2E2E2E2E2E2E2E2E2E2E2E2E2E2E2E2E2E2E2E2E2E2E2E2E2E2E2E2E2E2E2E2E2E2E2E2E2E2E2E2E2E2E2E2E2E2E2
310
E2E2E2E2E2E2E2E2E2E2E2E2E2E2E2E2E2E2E2E2E2E2E2E2E2E2E2E2E2E2E2E2E2E2E2E2E2E2E2E2E2E2E2E2E2E2E2E2E2E2E2E2E2E2E2E2E2E2E2E2E2E2E2E2E2E2E2E2E2E2E2E2E2E2E2E2E2E2E2E2E2E2E2E2E2E2E2E2E2E2E2E2E2E2E2E2E2E2E2E2E2E2E2E2E2E2E2E2E2E2E2E2E2E2E2E2E2E2F5E2E2E2E2E2F5F5F5
310
EFE2E2E2E2E2F5E2E2E2E2E2E2E2E2E2E2E2E2E2E2E2E2E2E2E2E2E2E2E2E2E2E2E2E2E2E2E2E2E2E2E2E2E2E2E2E2E2E2E2E2E2E2E2E2E2E2E2E2E2E2E2E2E2E2E2E2E2E2E2E2E2E2E2E2E2E2E2E2E2E2E2E2E2E2E2E2E2E2E2E2E2E2E2E2E2E2E2E2E2E2E2E2E2E2E2E2E2E2E2E2E2E2E2E2E2E2E2E2E2E2E2E2E2E2E2E2
310
E2E2E2E2E2E2E2E2E2E2E2E2E2E2E2E2E2E2E2E2E2E2E2E2E2E2E2E2E2E2E2E2E2E2E2E2E2E2E2E2E2E2E2E2E2E2E2E2E2E2E2E2E2E2E2E2E2E2E2E2E2E2E2E2E2E2E2E2E2E2E2E2E2E2E2E2E2E2E2E2E2E2E2E2E2E2E2E2E2E2E2E2E2E2E2E2E2E2E2E2E2E2E2E2E2E2E2E2E2E2E2E2E2E2E2E2E2E2E2E2F5E2E2E2E2E2F5
310
F5F5EFE2E2E2E2E2F5E2E2E2E2E2E2E2E2E2E2E2E2E2E2E2E2E2E2E2E2E2E2E2E2E2E2E2E2E2E2E2E2E2E2E2E2E2E2E2E2E2E2E2E2E2E2E2E2E2E2E2E2E2E2E2E2E2E2E2E2E2E2E2E2E2E2E2E2E2E2E2E2E2E2E2E2E2E2E2E2E2E2E2E2E2E2E2E2E2E2E2E2E2E2E2E2E2E2E2E2E2E2E2E2E2E2E2E2E2E2E2E2E2E2E2E2E2E2
310
E2E2E2E2E2E2E2E2E2E2E2E2E2E2E2E2E2E2E2E2E2E2E2E2E2E2E2E2E2E2E2E2E2E2E2E2E2E2E2E2E2E2E2E2E2E2E2E2E2E2E2E2E2E2E2E2E2E2E2E2E2E2E2E2E2E2E2E2E2E2E2E2E2E2E2E2E2E2E2E2E2E2E2E2E2E2E2E2E2E2E2E2E2E2E2E2E2E2E2E2E2E2E2E2E2E2E2E2E2E2E2E2E2E2E2E2E2E2E2E2E2E2F5E2E2E2E2
310
E2F5F5F5EFE2E2E2E2E2E2E2E2E2E2E2E2E2E2E2E2E2E2E2E2E2E2E2E2E2E2E2E2E2E2E2E2E2E2E2E2E2E2E2E2E2E2E2E2E2E2E2E2E2E2E2E2E2E2E2E2E2E2E2E2E2E2E2E2E2E2E2E2E2E2E2E2E2E2E2E2E2E2E2E2E2E2E2E2E2E2E2E2E2E2E2E2E2E2E2E2E2E2E2E2E2E2E2E2E2E2E2E2E2E2E2E2E2E2E2E2E2E2E2E2E2E2
310
E2E2E2E2E2E2E2E2E2E2E2E2E2E2E2E2E2E2E2E2E2E2E2E2E2E2E2E2E2E2E2E2E2E2E2E2E2E2E2E2E2E2E2E2E2E2E2E2E2E2E2E2E2E2E2E2E2E2E2E2E2E2E2E2E2E2E2E2E2E2E2E2E2E2E2E2E2E2E2E2E2E2E2E2E2E2E2E2E2E2E2E2E2E2E2E2E2E2E2E2E2E2E2E2E2E2E2E2E2E2E2E2E2E2E2E2E2E2E2E2E2E2E2E2E2E2E2
310
E2E2E2F5F5F5EFE2E2E2E2E2E2E2E2E2E2E2E2E2E2E2E2E2E2E2E2E2E2E2E2E2E2E2E2E2E2E2E2E2E2E2E2E2E2E2E2E2E2E2E2E2E2E2E2E2E2E2E2E2E2E2E2E2E2E2E2E2E2E2E2E2E2E2E2E2E2E2E2E2E2E2E2E2E2E2E2E2E2E2E2E2E2E2E2E2E2E2E2E2E2E2E2E2E2E2E2E2E2E2E2E2E2E2E2E2E2E2E2E2E2E2E2E2E2E2E2
310
E2E2E2E2E2E2E2E2E2E2E2E2E2E2E2E2E2E2E2E2E2E2E2E2E2E2E2E2E2E2E2E2E2E2E2E2E2E2E2E2E2E2E2E2E2E2E2E2E2E2E2E2E2E2E2E2E2E2E2E2E2E2E2E2E2E2E2E2E2E2E2E2E2E2E2E2E2E2E2E2E2E2E2E2E2E2E2E2E2E2E2E2E2E2E2E2E2E2E2E2E2E2E2E2E2E2E2E2E2E2E2E2E2E2E2E2E2E2E2E2E2E2E2E2E2E2E2
310
E2E2E2E2E2F5F5F5EFE2E2E2E2E2E2E2E2E2E2E2E2E2E2E2E2E2E2E2E2E2E2E2E2E2E2E2E2E2E2E2E2E2E2E2E2E2E2E2E2E2E2E2E2E2E2E2E2E2E2E2E2E2E2E2E2E2E2E2E2E2E2E2E2E2E2E2E2E2E2E2E2E2E2E2E2E2E2E2E2E2E2E2E2E2E2E2E2E2E2E2E2E2E2E2E2E2E2E2E2E2E2E2E2E2E2E2E2E2E2E2E2E2E2E2E2E2E2
310
E2E2E2E2E2E2E2E2E2E2E2E2E2E2E2E2E2E2E2E2E2E2E2E2E2E2E2E2E2E2E2E2E2E2E2E2E2E2E2E2E2E2E2E2E2E2E2E2E2E2E2E2E2E2E2E2E2E2E2E2E2E2E2E2E2E2E2E2E2E2E2E2E2E2E2E2E2E2E2E2E2E2E2E2E2E2E2E2E2E2E2E2E2E2E2E2E2E2E2E2E2E2E2E2E2E2E2E2E2E2E2E2E2E2E2E2E2E2E2E2E2E2E2E2E2E2E2
310
E2E2E2E2E2E2E2F5F5F5EFE2E2E2E2E2E2E2E2E2E2E2E2E2E2E2E2E2E2E2E2E2E2E2E2E2E2E2E2E2E2E2E2E2E2E2E2E2E2E2E2E2E2E2E2E2E2E2E2E2E2E2E2E2E2E2E2E2E2E2E2E2E2E2E2E2E2E2E2E2E2E2E2E2E2E2E2E2E2E2E2E2E2E2E2E2E2E2E2E2E2E2E2E2E2E2E2E2E2E2E2E2E2E2E2E2E2E2E2E2E2E2E2E2E2E2E2
310
E2E2E2E2E2E2E2E2E2E2E2E2E2E2E2E2E2E2E2E2E2E2E2E2E2E2E2E2E2E2E2E2E2E2E2E2E2E2E2E2E2E2E2E2E2E2E2E2E2E2E2E2E2E2E2E2E2E2E2E2E2E2E2E2E2E2E2E2E2E2E2E2E2E2E2E2E2E2E2E2E2E2E2E2E2E2E2E2E2E2E2E2E2E2E2E2E2E2E2E2E2E2E2E2E2E2E2E2E2E2E2E2E2E2E2E2E2E2E2E2E2E2E2E2E2E2E2
310
E2E2E2E2E2E2E2E2E2F5F5F5EFE2E2E2E2E2E2E2E2E2E2E2E2E2E2E2E2E2E2E2E2E2E2E2E2E2E2E2E2E2E2E2E2E2E2E2E2E2E2E2E2E2E2E2E2E2E2E2E2E2E2E2E2E2E2E2E2E2E2E2E2E2E2E2E2E2E2E2E2E2E2E2E2E2E2E2E2E2E2E2E2E2E2E2E2E2E2E2E2E2E2E2E2E2E2E2E2E2E2E2E2E2E2E2E2E2E2E2E2E2E2E2E2E2E2
310
E2E2E2E2E2E2E2E2E2E2E2E2E2E2E2E2E2E2E2E2E2E2E2E2E2E2E2E2E2E2E2E2E2E2E2E2E2E2E2E2E2E2E2E2E2E2E2E2E2E2E2E2E2E2E2E2E2E2E2E2E2E2E2E2E2E2E2E2E2E2E2E2E2E2E2E2E2E2E2E2E2E2E2E2E2E2E2E2E2E2E2E2E2E2E2E2E2E2E2E2E2E2E2E2E2E2E2E2E2E2E2E2E2E2E2E2E2E2E2E2E2E2E2E2E2E2E2
310
E2E2E2E2E2E2E2E2E2E2E2F5F5F5EFE2E2E2E2E2E2E2E2E2E2E2E2E2E2E2E2E2E2E2E2E2E2E2E2E2E2E2E2E2E2E2E2E2E2E2E2E2E2E2E2E2E2E2E2E2E2E2E2E2E2E2E2E2E2E2E2E2E2E2E2E2E2E2E2E2E2E2E2E2E2E2E2E2E2E2E2E2E2E2E2E2E2E2E2E2E2E2E2E2E2E2E2E2E2E2E2E2E2E2E2E2E2E2E2E2E2E2E2E2E2E2E2
310
E2E2E2E2E2E2E2E2E2E2E2E2E2E2E2E2E2E2E2E2E2E2E2E2E2E2E2E2E2E2E2E2E2E2E2E2E2E2E2E2E2E2E2E2E2E2E2E2E2E2E2E2E2E2E2E2E2E2E2E2E2E2E2E2E2E2E2E2E2E2E2E2E2E2E2E2E2E2E2E2E2E2E2E2E2E2E2E2E2E2E2E2E2E2E2E2E2E2E2E2E2E2E2E2E2E2E2E2E2E2E2E2E2E2E2E2E2E2E2E2E2E2E2E2E2E2E2
310
E2E2E2E2E2E2E2E2E2E2E2E2E2F5F5F5EFE2E2E2E2E2E2E2E2E2E2E2E2E2E2E2E2E2E2E2E2E2E2E2E2E2E2E2E2E2E2E2E2E2E2E2E2E2E2E2E2E2E2E2E2E2E2E2E2E2E2E2E2E2E2E2E2E2E2E2E2E2E2E2E2E2E2E2E2E2E2E2E2E2E2E2E2E2E2E2E2E2E2E2E2E2E2E2E2E2E2E2E2E2E2E2E2E2E2E2E2E2E2E2E2E2E2E2E2E2E2
310
E2E2E2E2E2E2E2E2E2E2E2E2E2E2E2E2E2E2E2E2E2E2E2E2E2E2E2E2E2E2E2E2E2E2E2E2E2E2E2E2E2E2E2E2E2E2E2E2E2E2E2E2E2E2E2E2E2E2E2E2E2E2E2E2E2E2E2E2E2E2E2E2E2E2E2E2E2E2E2E2E2E2E2E2E2E2E2E2E2E2E2E2E2E2E2E2E2E2E2E2E2E2E2E2E2E2E2E2E2E2E2E2E2E2E2E2E2E2E2E2E2E2E2E2E2E2E2
310
E2E2E2E2E2E2E2E2E2E2E2E2E2E2E2F5F5F5EFE2E2E2E2E2E2E2E2E2E2E2E2E2E2E2E2E2E2E2E2E2E2E2E2E2E2E2E2E2E2E2E2E2E2E2E2E2E2E2E2E2E2E2E2E2E2E2E2E2E2E2E2E2E2E2E2E2E2E2E2E2E2E2E2E2E2E2E2E2E2E2E2E2E2E2E2E2E2E2E2E2E2E2E2E2E2E2E2E2E2E2E2E2E2E2E2E2E2E2E2E2E2E2E2E2E2E2E2
310
E2E2E2E2E2E2E2E2E2E2E2E2E2E2E2E2E2E2E2E2E2E2E2E2E2E2E2E2E2E2E2E2E2E2E2E2E2E2E2E2E2E2E2E2E2E2E2E2E2E2E2E2E2E2E2E2E2E2E2E2E2E2E2E2E2E2E2E2E2E2E2E2E2E2E2E2E2E2E2E2E2E2E2E2E2E2E2E2E2E2E2E2E2E2E2E2E2E2E2E2E2E2E2E2E2E2E2E2E2E2E2E2E2E2E2E2E2E2E2E2E2E2E2E2E2E2E2
310
E2E2E2E2E2E2E2E2E2E2E2E2E2E2E2E2E2F5F5F5EFE2E2E2E2E2E2E2E2E2E2E2E2E2E2E2E2E2E2E2E2E2E2E2E2E2E2E2E2E2E2E2E2E2E2E2E2E2E2E2E2E2E2E2E2E2E2E2E2E2E2E2E2E2E2E2E2E2E2E2E2E2E2E2E2E2E2E2E2E2E2E2E2E2E2E2E2E2E2E2E2E2E2E2E2E2E2E2E2E2E2E2E2E2E2E2E2E2E2E2E2E2E2E2E2E2E2
310
E2E2E2E2E2E2E2E2E2E2E2E2E2E2E2E2E2E2E2E2E2E2E2E2E2E2E2E2E2E2E2E2E2E2E2E2E2E2E2E2E2E2E2E2E2E2E2E2E2E2E2E2E2E2E2E2E2E2E2E2E2E2E2E2E2E2E2E2E2E2E2E2E2E2E2E2E2E2E2E2E2E2E2E2E2E2E2E2E2E2E2E2E2E2E2E2E2E2E2E2E2E2E2E2E2E2E2E2E2E2E2E2E2E2E2E2E2E2E2E2E2E2E2E2E2E2E2
310
E2E2E2E2E2E2E2E2E2E2E2E2E2E2E2E2E2E2E2F5F5F5EFE2E2E2E2E2F5E2E2E2E2E2E2E2E2E2E2E2E2E2E2E2E2E2E2E2E2E2E2E2E2E2E2E2E2E2E2E2E2E2E2E2E2E2E2E2E2E2E2E2E2E2E2E2E2E2E2E2E2E2E2E2E2E2E2E2E2E2E2E2E2E2E2E2E2E2E2E2E2E2E2E2E2E2E2E2E2E2E2E2E2E2E2E2E2E2E2E2E2E2E2E2E2E2E2
310
E2E2E2E2E2E2E2E2E2E2E2E2E2E2E2E2E2E2E2E2E2E2E2E2E2E2E2E2E2E2E2E2E2E2E2E2E2E2E2E2E2E2E2E2E2E2E2E2E2E2E2E2E2E2E2E2E2E2E2E2E2E2E2E2E2E2E2E2E2E2E2E2E2E2E2E2E2E2E2E2E2E2E2E2E2E2E2E2E2E2E2E2E2E2E2E2E2E2E2E2E2E2E2E2E2E2E2E2E2E2E2E2E2E2E2E2E2E2E2E2E2E2E2E2E2E2E2
310
E2E2E2E2E2E2E2E2E2E2E2E2E2E2E2F5E2E2E2E2E2F5F5F5EFE2E2E2E2E2F5E2E2E2E2E2E2E2E2E2E2E2E2E2E2E2E2E2E2E2E2E2E2E2E2E2E2E2E2E2E2E2E2E2E2E2E2E2E2E2E2E2E2E2E2E2E2E2E2E2E2E2E2E2E2E2E2E2E2E2E2E2E2E2E2E2E2E2E2E2E2E2E2E2E2E2E2E2E2E2E2E2E2E2E2E2E2E2E2E2E2E2E2E2E2E2E2
310
E2E2E2E2E2E2E2E2E2E2E2E2E2E2E2E2E2E2E2E2E2E2E2E2E2E2E2E2E2E2E2E2E2E2E2E2E2E2E2E2E2E2E2E2E2E2E2E2E2E2E2E2E2E2E2E2E2E2E2E2E2E2E2E2E2E2E2E2E2E2E2E2E2E2E2E2E2E2E2E2E2E2E2E2E2E2E2E2E2E2E2E2E2E2E2E2E2E2E2E2E2E2E2E2E2E2E2E2E2E2E2E2E2E2E2E2E2E2E2E2E2E2E2E2E2E2E2
310
E2E2E2E2E2E2E2E2E2E2E2E2E2E2E2E2E2F5E2E2E2E2E2F5F5F5EFE2E2E2E2E2F5E2E2E2E2E2E2E2E2E2E2E2E2E2E2E2E2E2E2E2E2E2E2E2E2E2E2E2E2E2E2E2E2E2E2E2E2E2E2E2E2E2E2E2E2E2E2E2E2E2E2E2E2E2E2E2E2E2E2E2E2E2E2E2E2E2E2E2E2E2E2E2E2E2E2E2E2E2E2E2E2E2E2E2E2E2E2E2E2E2E2E2E2E2E2
310
E2E2E2E2E2E2E2E2E2E2E2E2E2E2E2E2E2E2E2E2E2E2E2E2E2E2E2E2E2E2E2E2E2E2E2E2E2E2E2E2E2E2E2E2E2E2E2E2E2E2E2E2E2E2E2E2E2E2E2E2E2E2E2E2E2E2E2E2E2E2E2E2E2E2E2E2E2E2E2E2E2E2E2E2E2E2E2E2E2E2E2E2E2E2E2E2E2E2E2E2E2E2E2E2E2E2E2E2E2E2E2E2E2E2E2E2E2E2E2E2E2E2E2E2E2E2E2
310
E2E2E2E2E2E2E2E2E2E2E2E2E2E2E2E2E2E2E2F5E2E2E2E2E2F5F5F5EFE2E2E2E2E2F5E2E2E2E2E2E2E2E2E2E2E2E2E2E2E2E2E2E2E2E2E2E2E2E2E2E2E2E2E2E2E2E2E2E2E2E2E2E2E2E2E2E2E2E2E2E2E2E2E2E2E2E2E2E2E2E2E2E2E2E2E2E2E2E2E2E2E2E2E2E2E2E2E2E2E2E2E2E2E2E2E2E2E2E2E2E2E2E2E2E2E2E2
310
E2E2E2E2E2E2E2E2E2E2E2E2E2E2E2E2E2E2E2E2E2E2E2E2E2E2E2E2E2E2E2E2E2E2E2E2E2E2E2E2E2E2E2E2E2E2E2E2E2E2E2E2E2E2E2E2E2E2E2E2E2E2E2E2E2E2E2E2E2E2E2E2E2E2E2E2E2E2E2E2E2E2E2E2E2E2E2E2E2E2E2E2E2E2E2E2E2E2E2E2E2E2E2E2E2E2E2E2E2E2E2E2E2E2E2E2E2E2E2E2E2E2E2E2E2E2E2
310
E2E2E2E2E2E2E2E2E2E2E2E2E2E2E2E2E2E2E2E2E2F5E2E2E2E2E2F5F5F5EFE2E2E2E2E2F5E2E2E2E2E2E2E2E2E2E2E2E2E2E2E2E2E2E2E2E2E2E2E2E2E2E2E2E2E2E2E2E2E2E2E2E2E2E2E2E2E2E2E2E2E2E2E2E2E2E2E2E2E2E2E2E2E2E2E2E2E2E2E2E2E2E2E2E2E2E2E2E2E2E2E2E2E2E2E2E2E2E2E2E2E2E2E2E2E2E2
310
E2E2E2E2E2E2E2E2E2E2E2E2E2E2E2E2E2E2E2E2E2E2E2E2E2E2E2E2E2E2E2E2E2E2E2E2E2E2E2E2E2E2E2E2E2E2E2E2E2E2E2E2E2E2E2E2E2E2E2E2E2E2E2E2E2E2E2E2E2E2E2E2E2E2E2E2E2E2E2E2E2E2E2E2E2E2E2E2E2E2E2E2E2E2E2E2E2E2E2E2E2E2E2E2E2E2E2E2E2E2E2E2E2E2E2E2E2E2E2E2E2E2E2E2E2E2E2
310
E2E2E2E2E2E2E2E2E2E2E2E2E2E2E2E2E2E2E2E2E2E2E2F5E2E2E2E2E2F5F5F5EFE2E2E2E2E2F5E2E2E2E2E2E2E2E2E2E2E2E2E2E2E2E2E2E2E2E2E2E2E2E2E2E2E2E2E2E2E2E2E2E2E2E2E2E2E2E2E2E2E2E2E2E2E2E2E2E2E2E2E2E2E2E2E2E2E2E2E2E2E2E2E2E2E2E2E2E2E2E2E2E2E2E2E2E2E2E2E2E2E2E2E2E2E2E2
310
E2E2E2E2E2E2E2E2E2E2E2E2E2E2E2E2E2E2E2E2E2E2E2E2E2E2E2E2E2E2E2E2E2E2E2E2E2E2E2E2E2E2E2E2E2E2E2E2E2E2E2E2E2E2E2E2E2E2E2E2E2E2E2E2E2E2E2E2E2E2E2E2E2E2E2E2E2E2E2E2E2E2E2E2E2E2E2E2E2E2E2E2E2E2E2E2E2E2E2E2E2E2E2E2E2E2E2E2E2E2E2E2E2E2E2E2E2E2E2E2E2E2E2E2E2E2E2
310
E2E2E2E2E2E2E2E2E2E2E2E2E2E2E2E2E2E2E2E2E2E2E2E2E2F5E2E2E2E2E2F5F5F5EFE2E2E2E2E2F5E2E2E2E2E2E2E2E2E2E2E2E2E2E2E2E2E2E2E2E2E2E2E2E2E2E2E2E2E2E2E2E2E2E2E2E2E2E2E2E2E2E2E2E2E2E2E2E2E2E2E2E2E2E2E2E2E2E2E2E2E2E2E2E2E2E2E2E2E2E2E2E2E2E2E2E2E2E2E2E2E2E2E2E2E2E2
310
E2E2E2E2E2E2E2E2E2E2E2E2E2E2E2E2E2E2E2E2E2E2E2E2E2E2E2E2E2E2E2E2E2E2E2E2E2E2E2E2E2E2E2E2E2E2E2E2E2E2E2E2E2E2E2E2E2E2E2E2E2E2E2E2E2E2E2E2E2E2E2E2E2E2E2E2E2E2E2E2E2E2E2E2E2E2E2E2E2E2E2E2E2E2E2E2E2E2E2E2E2E2E2E2E2E2E2E2E2E2E2E2E2E2E2E2E2E2E2E2E2E2E2E2E2E2E2
310
E2E2E2E2E2E2E2E2E2E2E2E2E2E2E2E2E2E2E2E2E2E2E2E2E2E2E2F5E2E2E2E2E2F5F5F5EFE2E2E2E2E2F5E2E2E2E2E2E2E2E2E2E2E2E2E2E2E2E2E2E2E2E2E2E2E2E2E2E2E2E2E2E2E2E2E2E2E2E2E2E2E2E2E2E2E2E2E2E2E2E2E2E2E2E2E2E2E2E2E2E2E2E2E2E2E2E2E2E2E2E2E2E2E2E2E2E2E2E2E2E2E2E2E2E2E2E2
310
E2E2E2E2E2E2E2E2E2E2E2E2E2E2E2E2E2E2E2E2E2E2E2E2E2E2E2E2E2E2E2E2E2E2E2E2E2E2E2E2E2E2E2E2E2E2E2E2E2E2E2E2E2E2E2E2E2E2E2E2E2E2E2E2E2E2E2E2E2E2E2E2E2E2E2E2E2E2E2E2E2E2E2E2E2E2E2E2E2E2E2E2E2E2E2E2E2E2E2E2E2E2E2E2E2E2E2E2E2E2E2E2E2E2E2E2E2E2E2E2E2E2E2E2E2E2E2
310
E2E2E2E2E2E2E2E2E2E2E2E2E2E2E2E2E2E2E2E2E2E2E2E2E2E2E2E2E2F5E2E2E2E2E2F5F5F5EFE2E2E2E2E2F5E2E2E2E2E2E2E2E2E2E2E2E2E2E2E2E2E2E2E2E2E2E2E2E2E2E2E2E2E2E2E2E2E2E2E2E2E2E2E2E2E2E2E2E2E2E2E2E2E2E2E2E2E2E2E2E2E2E2E2E2E2E2E2E2E2E2E2E2E2E2E2E2E2E2E2E2E2E2E2E2E2E2
310
E2E2E2E2E2E2E2E2E2E2E2E2E2E2E2E2E2E2E2E2E2E2E2E2E2E2E2E2E2E2E2E2E2E2E2E2E2E2E2E2E2E2E2E2E2E2E2E2E2E2E2E2E2E2E2E2E2E2E2E2E2E2E2E2E2E2E2E2E2E2E2E2E2E2E2E2E2E2E2E2E2E2E2E2E2E2E2E2E2E2E2E2E2E2E2E2E2E2E2E2E2E2E2E2E2E2E2E2E2E2E2E2E2E2E2E2E2E2E2E2E2E2E2E2E2E2E2
310
E2E2E2E2E2E2E2E2E2E2E2E2E2E2E2E2E2E2E2E2E2E2E2E2E2E2E2E2E2E2E2F5E2E2E2E2E2F5F5F5EFE2E2E2E2E2F5E2E2E2E2E2E2E2E2E2E2E2E2E2E2E2E2E2E2E2E2E2E2E2E2E2E2E2E2E2E2E2E2E2E2E2E2E2E2E2E2E2E2E2E2E2E2E2E2E2E2E2E2E2E2E2E2E2E2E2E2E2E2E2E2E2E2E2E2E2E2E2E2E2E2E2E2E2E2E2E2
310
E2E2E2E2E2E2E2E2E2E2E2E2E2E2E2E2E2E2E2E2E2E2E2E2E2E2E2E2E2E2E2E2E2E2E2E2E2E2E2E2E2E2E2E2E2E2E2E2E2E2E2E2E2E2E2E2E2E2E2E2E2E2E2E2E2E2E2E2E2E2E2E2E2E2E2E2E2E2E2E2E2E2E2E2E2E2E2E2E2E2E2E2E2E2E2E2E2E2E2E2E2E2E2E2E2E2E2E2E2E2E2E2E2E2E2E2E2E2E2E2E2E2E2E2E2E2E2
310
E2E2E2E2E2E2E2E2E2E2E2E2E2E2E2E2E2E2E2E2E2E2E2E2E2E2E2E2E2E2E2E2E2F5E2E2E2E2E2F5F5F5EFE2E2E2E2E2F5E2E2E2E2E2E2E2E2E2E2E2E2E2E2E2E2E2E2E2E2E2E2E2E2E2E2E2E2E2E2E2E2E2E2E2E2E2E2E2E2E2E2E2E2E2E2E2E2E2E2E2E2E2E2E2E2E2E2E2E2E2E2E2E2E2E2E2E2E2E2E2E2E2E2E2E2E2E2
310
E2E2E2E2E2E2E2E2E2E2E2E2E2E2E2E2E2E2E2E2E2E2E2E2E2E2E2E2E2E2E2E2E2E2E2E2E2E2E2E2E2E2E2E2E2E2E2E2E2E2E2E2E2E2E2E2E2E2E2E2E2E2E2E2E2E2E2E2E2E2E2E2E2E2E2E2E2E2E2E2E2E2E2E2E2E2E2E2E2E2E2E2E2E2E2E2E2E2E2E2E2E2E2E2E2E2E2E2E2E2E2E2E2E2E2E2E2E2E2E2E2E2E2E2E2E2E2
310
E2E2E2E2E2E2E2E2E2E2E2E2E2E2E2E2E2E2E2E2E2E2E2E2E2E2E2E2E2E2E2E2E2E2E2F5E2E2E2E2E2F5F5F5EFE2E2E2E2E2F5E2E2E2E2E2E2E2E2E2E2E2E2E2E2E2E2E2E2E2E2E2E2E2E2E2E2E2E2E2E2E2E2E2E2E2E2E2E2E2E2E2E2E2E2E2E2E2E2E2E2E2E2E2E2E2E2E2E2E2E2E2E2E2E2E2E2E2E2E2E2E2E2E2E2E2E2
310
E2E2E2E2E2E2E2E2E2E2E2E2E2E2E2E2E2E2E2E2E2E2E2E2E2E2E2E2E2E2E2E2E2E2E2E2E2E2E2E2E2E2E2E2E2E2E2E2E2E2E2E2E2E2E2E2E2E2E2E2E2E2E2E2E2E2E2E2E2E2E2E2E2E2E2E2E2E2E2E2E2E2E2E2E2E2E2E2E2E2E2E2E2E2E2E2E2E2E2E2E2E2E2E2E2E2E2E2E2E2E2E2E2E2E2E2E2E2E2E2E2E2E2E2E2E2E2
310
E2E2E2E2E2E2E2E2E2E2E2E2E2E2E2E2E2E2E2E2E2E2E2E2E2E2E2E2E2E2E2E2E2E2E2E2E2F5E2E2E2E2E2F5F5F5EFE2E2E2E2E2F5E2E2E2E2E2E2E2E2E2E2E2E2E2E2E2E2E2E2E2E2E2E2E2E2E2E2E2E2E2E2E2E2E2E2E2E2E2E2E2E2E2E2E2E2E2E2E2E2E2E2E2E2E2E2E2E2E2E2E2E2E2E2E2E2E2E2E2E2E2E2E2E2E2E2
310
E2E2E2E2E2E2E2E2E2E2E2E2E2E2E2E2E2E2E2E2E2E2E2E2E2E2E2E2E2E2E2E2E2E2E2E2E2E2E2E2E2E2E2E2E2E2E2E2E2E2E2E2E2E2E2E2E2E2E2E2E2E2E2E2E2E2E2E2E2E2E2E2E2E2E2E2E2E2E2E2E2E2E2E2E2E2E2E2E2E2E2E2E2E2E2E2E2E2E2E2E2E2E2E2E2E2E2E2E2E2E2E2E2E2E2E2E2E2E2E2E2E2E2E2E2E2E2
310
E2E2E2E2E2E2E2E2E2E2E2E2E2E2E2E2E2E2E2E2E2E2E2E2E2E2E2E2E2E2E2E2E2E2E2E2E2E2E2F5E2E2E2E2E2F5F5F5EFE2E2E2E2E2F5E2E2E2E2E2E2E2E2E2E2E2E2E2E2E2E2E2E2E2E2E2E2E2E2E2E2E2E2E2E2E2E2E2E2E2E2E2E2E2E2E2E2E2E2E2E2E2E2E2E2E2E2E2E2E2E2E2E2E2E2E2E2E2E2E2E2E2E2E2E2E2E2
310
E2E2E2E2E2E2E2E2E2E2E2E2E2E2E2E2E2E2E2E2E2E2E2E2E2E2E2E2E2E2E2E2E2E2E2E2E2E2E2E2E2E2E2E2E2E2E2E2E2E2E2E2E2E2E2E2E2E2E2E2E2E2E2E2E2E2E2E2E2E2E2E2E2E2E2E2E2E2E2E2E2E2E2E2E2E2E2E2E2E2E2E2E2E2E2E2E2E2E2E2E2E2E2E2E2E2E2E2E2E2E2E2E2E2E2E2E2E2E2E2E2E2E2E2E2E2E2
310
E2E2E2E2E2E2E2E2E2E2E2E2E2E2E2E2E2E2E2E2E2E2E2E2E2E2E2E2E2E2E2E2E2E2E2E2E2E2E2E2E2F5E2E2E2E2E2F5F5F5EFE2E2E2E2E2F5E2E2E2E2E2E2E2E2E2E2E2E2E2E2E2E2E2E2E2E2E2E2E2E2E2E2E2E2E2E2E2E2E2E2E2E2E2E2E2E2E2E2E2E2E2E2E2E2E2E2E2E2E2E2E2E2E2E2E2E2E2E2E2E2E2E2E2E2E2E2
310
E2E2E2E2E2E2E2E2E2E2E2E2E2E2E2E2E2E2E2E2E2E2E2E2E2E2E2E2E2E2E2E2E2E2E2E2E2E2E2E2E2E2E2E2E2E2E2E2E2E2E2E2E2E2E2E2E2E2E2E2E2E2E2E2E2E2E2E2E2E2E2E2E2E2E2E2E2E2E2E2E2E2E2E2E2E2E2E2E2E2E2E2E2E2E2E2E2E2E2E2E2E2E2E2E2E2E2E2E2E2E2E2E2E2E2E2E2E2E2E2E2E2E2E2E2E2E2
310
E2E2E2E2E2E2E2E2E2E2E2E2E2E2E2E2E2E2E2E2E2E2E2E2E2E2E2E2E2E2E2E2E2E2E2E2E2E2E2E2E2E2E2F5E2E2E2E2E2F5F5F5EFE2E2E2E2E2F5E2E2E2E2E2E2E2E2E2E2E2E2E2E2E2E2E2E2E2E2E2E2E2E2E2E2E2E2E2E2E2E2E2E2E2E2E2E2E2E2E2E2E2E2E2E2E2E2E2E2E2E2E2E2E2E2E2E2E2E2E2E2E2E2E2E2E2E2
310
E2E2E2E2E2E2E2E2E2E2E2E2E2E2E2E2E2E2E2E2E2E2E2E2E2E2E2E2E2E2E2E2E2E2E2E2E2E2E2E2E2E2E2E2E2E2E2E2E2E2E2E2E2E2E2E2E2E2E2E2E2E2E2E2E2E2E2E2E2E2E2E2E2E2E2E2E2E2E2E2E2E2E2E2E2E2E2E2E2E2E2E2E2E2E2E2E2E2E2E2E2E2E2E2E2E2E2E2E2E2E2E2E2E2E2E2E2E2E2E2E2E2E2E2E2E2E2
310
E2E2E2E2E2E2E2E2E2E2E2E2E2E2E2E2E2E2E2E2E2E2E2E2E2E2E2E2E2E2E2E2E2E2E2E2E2E2E2E2E2E2E2E2E2F5E2E2E2E2E2F5F5F5EFE2E2E2E2E2F5E2E2E2E2E2E2E2E2E2E2E2E2E2E2E2E2E2E2E2E2E2E2E2E2E2E2E2E2E2E2E2E2E2E2E2E2E2E2E2E2E2E2E2E2E2E2E2E2E2E2E2E2E2E2E2E2E2E2E2E2E2E2E2E2E2E2
310
E2E2E2E2E2E2E2E2E2E2E2E2E2E2E2E2E2E2E2E2E2E2E2E2E2E2E2E2E2E2E2E2E2E2E2E2E2E2E2E2E2E2E2E2E2E2E2E2E2E2E2E2E2E2E2E2E2E2E2E2E2E2E2E2E2E2E2E2E2E2E2E2E2E2E2E2E2E2E2E2E2E2E2E2E2E2E2E2E2E2E2E2E2E2E2E2E2E2E2E2E2E2E2E2E2E2E2E2E2E2E2E2E2E2E2E2E2E2E2E2E2E2E2E2E2E2E2
310
E2E2E2E2E2E2E2E2E2E2E2E2E2E2E2E2E2E2E2E2E2E2E2E2E2E2E2E2E2E2E2E2E2E2E2E2E2E2E2E2E2E2E2E2E2E2E2F5E2E2E2E2E2F5F5F5EFE2E2E2E2E2E2E2E2E2E2E2E2E2E2E2E2E2E2E2E2E2E2E2E2E2E2E2E2E2E2E2E2E2E2E2E2E2E2E2E2E2E2E2E2E2E2E2E2E2E2E2E2E2E2E2E2E2E2E2E2E2E2E2E2E2E2E2E2E2E2
310
E2E2E2E2E2E2E2E2E2E2E2E2E2E2E2E2E2E2E2E2E2E2E2E2E2E2E2E2E2E2E2E2E2E2E2E2E2E2E2E2E2E2E2E2E2E2E2E2E2E2E2E2E2E2E2E2E2E2E2E2E2E2E2E2E2E2E2E2E2E2E2E2E2E2E2E2E2E2E2E2E2E2E2E2E2E2E2E2E2E2E2E2E2E2E2E2E2E2E2E2E2E2E2E2E2E2E2E2E2E2E2E2E2E2E2E2E2E2E2E2E2E2E2E2E2E2E2
310
E2E2E2E2E2E2E2E2E2E2E2E2E2E2E2E2E2E2E2E2E2E2E2E2E2E2E2E2E2E2E2E2E2E2E2E2E2E2E2E2E2E2E2E2E2E2E2E2E2E2E2E2E2E2E2F5F5F5EFE2E2E2E2E2E2E2E2E2E2E2E2E2E2E2E2E2E2E2E2E2E2E2E2E2E2E2E2E2E2E2E2E2E2E2E2E2E2E2E2E2E2E2E2E2E2E2E2E2E2E2E2E2E2E2E2E2E2E2E2E2E2E2E2E2E2E2E2
310
E2E2E2E2E2E2E2E2E2E2E2E2E2E2E2E2E2E2E2E2E2E2E2E2E2E2E2E2E2E2E2E2E2E2E2E2E2E2E2E2E2E2E2E2E2E2E2E2E2E2E2E2E2E2E2E2E2E2E2E2E2E2E2E2E2E2E2E2E2E2E2E2E2E2E2E2E2E2E2E2E2E2E2E2E2E2E2E2E2E2E2E2E2E2E2E2E2E2E2E2E2E2E2E2E2E2E2E2E2E2E2E2E2E2E2E2E2E2E2E2E2E2E2E2E2E2E2
310
E2E2E2E2E2E2E2E2E2E2E2E2E2E2E2E2E2E2E2E2E2E2E2E2E2E2E2E2E2E2E2E2E2E2E2E2E2E2E2E2E2E2E2E2E2E2E2E2E2E2E2E2E2E2E2E2E2F5F5F5EFE2E2E2E2E2E2E2E2E2E2E2E2E2E2E2E2E2E2E2E2E2E2E2E2E2E2E2E2E2E2E2E2E2E2E2E2E2E2E2E2E2E2E2E2E2E2E2E2E2E2E2E2E2E2E2E2E2E2E2E2E2E2E2E2E2E2
310
E2E2E2E2E2E2E2E2E2E2E2E2E2E2E2E2E2E2E2E2E2E2E2E2E2E2E2E2E2E2E2E2E2E2E2E2E2E2E2E2E2E2E2E2E2E2E2E2E2E2E2E2E2E2E2E2E2E2E2E2E2E2E2E2E2E2E2E2E2E2E2E2E2E2E2E2E2E2E2E2E2E2E2E2E2E2E2E2E2E2E2E2E2E2E2E2E2E2E2E2E2E2E2E2E2E2E2E2E2E2E2E2E2E2E2E2E2E2E2E2E2E2E2E2E2E2E2
310
E2E2E2E2E2E2E2E2E2E2E2E2E2E2E2E2E2E2E2E2E2E2E2E2E2E2E2E2E2E2E2E2E2E2E2E2E2E2E2E2E2E2E2E2E2E2E2E2E2E2E2E2E2E2E2E2E2E2E2F5F5F5EFE2E2E2E2E2E2E2E2E2E2E2E2E2E2E2E2E2E2E2E2E2E2E2E2E2E2E2E2E2E2E2E2E2E2E2E2E2E2E2E2E2E2E2E2E2E2E2E2E2E2E2E2E2E2E2E2E2E2E2E2E2E2E2E2
310
E2E2E2E2E2E2E2E2E2E2E2E2E2E2E2E2E2E2E2E2E2E2E2E2E2E2E2E2E2E2E2E2E2E2E2E2E2E2E2E2E2E2E2E2E2E2E2E2E2E2E2E2E2E2E2E2E2E2E2E2E2E2E2E2E2E2E2E2E2E2E2E2E2E2E2E2E2E2E2E2E2E2E2E2E2E2E2E2E2E2E2E2E2E2E2E2E2E2E2E2E2E2E2E2E2E2E2E2E2E2E2E2E2E2E2E2E2E2E2E2E2E2E2E2E2E2E2
310
E2E2E2E2E2E2E2E2E2E2E2E2E2E2E2E2E2E2E2E2E2E2E2E2E2E2E2E2E2E2E2E2E2E2E2E2E2E2E2E2E2E2E2E2E2E2E2E2E2E2E2E2E2E2E2E2E2E2E2E2E2F5F5F5EFE2E2E2E2E2E2E2E2E2E2E2E2E2E2E2E2E2E2E2E2E2E2E2E2E2E2E2E2E2E2E2E2E2E2E2E2E2E2E2E2E2E2E2E2E2E2E2E2E2E2E2E2E2E2E2E2E2E2E2E2E2E2
310
E2E2E2E2E2E2E2E2E2E2E2E2E2E2E2E2E2E2E2E2E2E2E2E2E2E2E2E2E2E2E2E2E2E2E2E2E2E2E2E2E2E2E2E2E2E2E2E2E2E2E2E2E2E2E2E2E2E2E2E2E2E2E2E2E2E2E2E2E2E2E2E2E2E2E2E2E2E2E2E2E2E2E2E2E2E2E2E2E2E2E2E2E2E2E2E2E2E2E2E2E2E2E2E2E2E2E2E2E2E2E2E2E2E2E2E2E2E2E2E2E2E2E2E2E2E2E2
310
E2E2E2E2E2E2E2E2E2E2E2E2E2E2E2E2E2E2E2E2E2E2E2E2E2E2E2E2E2E2E2E2E2E2E2E2E2E2E2E2E2E2E2E2E2E2E2E2E2E2E2E2E2E2E2E2E2E2E2E2E2E2E2F5F5F5EFE2E2E2E2E2E2E2E2E2E2E2E2E2E2E2E2E2E2E2E2E2E2E2E2E2E2E2E2E2E2E2E2E2E2E2E2E2E2E2E2E2E2E2E2E2E2E2E2E2E2E2E2E2E2E2E2E2E2E2E2
310
E2E2E2E2E2E2E2E2E2E2E2E2E2E2E2E2E2E2E2E2E2E2E2E2E2E2E2E2E2E2E2E2E2E2E2E2E2E2E2E2E2E2E2E2E2E2E2E2E2E2E2E2E2E2E2E2E2E2E2E2E2E2E2E2E2E2E2E2E2E2E2E2E2E2E2E2E2E2E2E2E2E2E2E2E2E2E2E2E2E2E2E2E2E2E2E2E2E2E2E2E2E2E2E2E2E2E2E2E2E2E2E2E2E2E2E2E2E2E2E2E2E2E2E2E2E2E2
310
E2E2E2E2E2E2E2E2E2E2E2E2E2E2E2E2E2E2E2E2E2E2E2E2E2E2E2E2E2E2E2E2E2E2E2E2E2E2E2E2E2E2E2E2E2E2E2E2E2E2E2E2E2E2E2E2E2E2E2E2E2E2E2E2E2F5F5F5EFE2E2E2E2E2E2E2E2E2E2E2E2E2E2E2E2E2E2E2E2E2E2E2E2E2E2E2E2E2E2E2E2E2E2E2E2E2E2E2E2E2E2E2E2E2E2E2E2E2E2E2E2E2E2E2E2E2E2
310
E2E2E2E2E2E2E2E2E2E2E2E2E2E2E2E2E2E2E2E2E2E2E2E2E2E2E2E2E2E2E2E2E2E2E2E2E2E2E2E2E2E2E2E2E2E2E2E2E2E2E2E2E2E2E2E2E2E2E2E2E2E2E2E2E2E2E2E2E2E2E2E2E2E2E2E2E2E2E2E2E2E2E2E2E2E2E2E2E2E2E2E2E2E2E2E2E2E2E2E2E2E2E2E2E2E2E2E2E2E2E2E2E2E2E2E2E2E2E2E2E2E2E2E2E2E2E2
310
E2E2E2E2E2E2E2E2E2E2E2E2E2E2E2E2E2E2E2E2E2E2E2E2E2E2E2E2E2E2E2E2E2E2E2E2E2E2E2E2E2E2E2E2E2E2E2E2E2E2E2E2E2E2E2E2E2E2E2E2E2E2E2E2E2E2E2F5F5F5EFE2E2E2E2E2E2E2E2E2E2E2E2E2E2E2E2E2E2E2E2E2E2E2E2E2E2E2E2E2E2E2E2E2E2E2E2E2E2E2E2E2E2E2E2E2E2E2E2E2E2E2E2E2E2E2E2
310
E2E2E2E2E2E2E2E2E2E2E2E2E2E2E2E2E2E2E2E2E2E2E2E2E2E2E2E2E2E2E2E2E2E2E2E2E2E2E2E2E2E2E2E2E2E2E2E2E2E2E2E2E2E2E2E2E2E2E2E2E2E2E2E2E2E2E2E2E2E2E2E2E2E2E2E2E2E2E2E2E2E2E2E2E2E2E2E2E2E2E2E2E2E2E2E2E2E2E2E2E2E2E2E2E2E2E2E2E2E2E2E2E2E2E2E2E2E2E2E2E2E2E2E2E2E2E2
310
E2E2E2E2E2E2E2E2E2E2E2E2E2E2E2E2E2E2E2E2E2E2E2E2E2E2E2E2E2E2E2E2E2E2E2E2E2E2E2E2E2E2E2E2E2E2E2E2E2E2E2E2E2E2E2E2E2E2E2E2E2E2E2E2E2E2E2E2E2F5F5F5EFE2E2E2E2E2E2E2E2E2E2E2E2E2E2E2E2E2E2E2E2E2E2E2E2E2E2E2E2E2E2E2E2E2E2E2E2E2E2E2E2E2E2E2E2E2E2E2E2E2E2E2E2E2E2
310
E2E2E2E2E2E2E2E2E2E2E2E2E2E2E2E2E2E2E2E2E2E2E2E2E2E2E2E2E2E2E2E2E2E2E2E2E2E2E2E2E2E2E2E2E2E2E2E2E2E2E2E2E2E2E2E2E2E2E2E2E2E2E2E2E2E2E2E2E2E2E2E2E2E2E2E2E2E2E2E2E2E2E2E2E2E2E2E2E2E2E2E2E2E2E2E2E2E2E2E2E2E2E2E2E2E2E2E2E2E2E2E2E2E2E2E2E2E2E2E2E2E2E2E2E2E2E2
310
E2E2E2E2E2E2E2E2E2E2E2E2E2E2E2E2E2E2E2E2E2E2E2E2E2E2E2E2E2E2E2E2E2E2E2E2E2E2E2E2E2E2E2E2E2E2E2E2E2E2E2E2E2E2E2E2E2E2E2E2E2E2E2E2E2E2E2E2E2E2E2F5F5F5EFE2E2E2E2E2E2E2E2E2E2E2E2E2E2E2E2E2E2E2E2E2E2E2E2E2E2E2E2E2E2E2E2E2E2E2E2E2E2E2E2E2E2E2E2E2E2E2E2E2E2E2E2
310
E2E2E2E2E2E2E2E2E2E2E2E2E2E2E2E2E2E2E2E2E2E2E2E2E2E2E2E2E2E2E2E2E2E2E2E2E2E2E2E2E2E2E2E2E2E2E2E2E2E2E2E2E2E2E2E2E2E2E2E2E2E2E2E2E2E2E2E2E2E2E2E2E2E2E2E2E2E2E2E2E2E2E2E2E2E2E2E2E2E2E2E2E2E2E2E2E2E2E2E2E2E2E2E2E2E2E2E2E2E2E2E2E2E2E2E2E2E2E2E2E2E2E2E2E2E2E2
310
E2E2E2E2E2E2E2E2E2E2E2E2E2E2E2E2E2E2E2E2E2E2E2E2E2E2E2E2E2E2E2E2E2E2E2E2E2E2E2E2E2E2E2E2E2E2E2E2E2E2E2E2E2E2E2E2E2E2E2E2E2E2E2E2E2E2E2E2E2E2E2E2E2F5F5F5EFE2E2E2E2E2F5E2E2E2E2E2E2E2E2E2E2E2E2E2E2E2E2E2E2E2E2E2E2E2E2E2E2E2E2E2E2E2E2E2E2E2E2E2E2E2E2E2E2E2E2
310
E2E2E2E2E2E2E2E2E2E2E2E2E2E2E2E2E2E2E2E2E2E2E2E2E2E2E2E2E2E2E2E2E2E2E2E2E2E2E2E2E2E2E2E2E2E2E2E2E2E2E2E2E2E2E2E2E2E2E2E2E2E2E2E2E2E2E2E2E2E2E2E2E2E2E2E2E2E2E2E2E2E2E2E2E2E2E2E2E2E2E2E2E2E2E2E2E2E2E2E2E2E2E2E2E2E2E2E2E2E2E2E2E2E2E2E2E2E2E2E2E2E2E2E2E2E2E2
310
E2E2E2E2E2E2E2E2E2E2E2E2E2E2E2E2E2E2E2E2E2E2E2E2E2E2E2E2E2E2E2E2E2E2E2E2E2E2E2E2E2E2E2E2E2E2E2E2E2E2E2E2E2E2E2E2E2E2E2E2E2E2E2E2E2E2E2E2E2F5E2E2E2E2E2F5F5F5EFE2E2E2E2E2F5E2E2E2E2E2E2E2E2E2E2E2E2E2E2E2E2E2E2E2E2E2E2E2E2E2E2E2E2E2E2E2E2E2E2E2E2E2E2E2E2E2E2
310
E2E2E2E2E2E2E2E2E2E2E2E2E2E2E2E2E2E2E2E2E2E2E2E2E2E2E2E2E2E2E2E2E2E2E2E2E2E2E2E2E2E2E2E2E2E2E2E2E2E2E2E2E2E2E2E2E2E2E2E2E2E2E2E2E2E2E2E2E2E2E2E2E2E2E2E2E2E2E2E2E2E2E2E2E2E2E2E2E2E2E2E2E2E2E2E2E2E2E2E2E2E2E2E2E2E2E2E2E2E2E2E2E2E2E2E2E2E2E2E2E2E2E2E2E2E2E2
310
E2E2E2E2E2E2E2E2E2E2E2E2E2E2E2E2E2E2E2E2E2E2E2E2E2E2E2E2E2E2E2E2E2E2E2E2E2E2E2E2E2E2E2E2E2E2E2E2E2E2E2E2E2E2E2E2E2E2E2E2E2E2E2E2E2E2E2E2E2E2E2F5E2E2E2E2E2F5F5F5EFE2E2E2E2E2F5E2E2E2E2E2E2E2E2E2E2E2E2E2E2E2E2E2E2E2E2E2E2E2E2E2E2E2E2E2E2E2E2E2E2E2E2E2E2E2E2
310
E2E2E2E2E2E2E2E2E2E2E2E2E2E2E2E2E2E2E2E2E2E2E2E2E2E2E2E2E2E2E2E2E2E2E2E2E2E2E2E2E2E2E2E2E2E2E2E2E2E2E2E2E2E2E2E2E2E2E2E2E2E2E2E2E2E2E2E2E2E2E2E2E2E2E2E2E2E2E2E2E2E2E2E2E2E2E2E2E2E2E2E2E2E2E2E2E2E2E2E2E2E2E2E2E2E2E2E2E2E2E2E2E2E2E2E2E2E2E2E2E2E2E2E2E2E2E2
310
E2E2E2E2E2E2E2E2E2E2E2E2E2E2E2E2E2E2E2E2E2E2E2E2E2E2E2E2E2E2E2E2E2E2E2E2E2E2E2E2E2E2E2E2E2E2E2E2E2E2E2E2E2E2E2E2E2E2E2E2E2E2E2E2E2E2E2E2E2E2E2E2E2F5E2E2E2E2E2F5F5F5EFE2E2E2E2E2F5E2E2E2E2E2E2E2E2E2E2E2E2E2E2E2E2E2E2E2E2E2E2E2E2E2E2E2E2E2E2E2E2E2E2E2E2E2E2
310
E2E2E2E2E2E2E2E2E2E2E2E2E2E2E2E2E2E2E2E2E2E2E2E2E2E2E2E2E2E2E2E2E2E2E2E2E2E2E2E2E2E2E2E2E2E2E2E2E2E2E2E2E2E2E2E2E2E2E2E2E2E2E2E2E2E2E2E2E2E2E2E2E2E2E2E2E2E2E2E2E2E2E2E2E2E2E2E2E2E2E2E2E2E2E2E2E2E2E2E2E2E2E2E2E2E2E2E2E2E2E2E2E2E2E2E2E2E2E2E2E2E2E2E2E2E2E2
310
E2E2E2E2E2E2E2E2E2E2E2E2E2E2E2E2E2E2E2E2E2E2E2E2E2E2E2E2E2E2E2E2E2E2E2E2E2E2E2E2E2E2E2E2E2E2E2E2E2E2E2E2E2E2E2E2E2E2E2E2E2E2E2E2E2E2E2E2E2E2E2E2E2E2E2F5E2E2E2E2E2F5F5F5EFE2E2E2E2E2F5E2E2E2E2E2E2E2E2E2E2E2E2E2E2E2E2E2E2E2E2E2E2E2E2E2E2E2E2E2E2E2E2E2E2E2E2
310
E2E2E2E2E2E2E2E2E2E2E2E2E2E2E2E2E2E2E2E2E2E2E2E2E2E2E2E2E2E2E2E2E2E2E2E2E2E2E2E2E2E2E2E2E2E2E2E2E2E2E2E2E2E2E2E2E2E2E2E2E2E2E2E2E2E2E2E2E2E2E2E2E2E2E2E2E2E2E2E2E2E2E2E2E2E2E2E2E2E2E2E2E2E2E2E2E2E2E2E2E2E2E2E2E2E2E2E2E2E2E2E2E2E2E2E2E2E2E2E2E2E2E2E2E2E2E2
310
E2E2E2E2E2E2E2E2E2E2E2E2E2E2E2E2E2E2E2E2E2E2E2E2E2E2E2E2E2E2E2E2E2E2E2E2E2E2E2E2E2E2E2E2E2E2E2E2E2E2E2E2E2E2E2E2E2E2E2E2E2E2E2E2E2E2E2E2E2E2E2E2E2E2E2E2E2F5E2E2E2E2E2F5F5F5EFE2E2E2E2E2F5E2E2E2E2E2E2E2E2E2E2E2E2E2E2E2E2E2E2E2E2E2E2E2E2E2E2E2E2E2E2E2E2E2E2
310
E2E2E2E2E2E2E2E2E2E2E2E2E2E2E2E2E2E2E2E2E2E2E2E2E2E2E2E2E2E2E2E2E2E2E2E2E2E2E2E2E2E2E2E2E2E2E2E2E2E2E2E2E2E2E2E2E2E2E2E2E2E2E2E2E2E2E2E2E2E2E2E2E2E2E2E2E2E2E2E2E2E2E2E2E2E2E2E2E2E2E2E2E2E2E2E2E2E2E2E2E2E2E2E2E2E2E2E2E2E2E2E2E2E2E2E2E2E2E2E2E2E2E2E2E2E2E2
310
E2E2E2E2E2E2E2E2E2E2E2E2E2E2E2E2E2E2E2E2E2E2E2E2E2E2E2E2E2E2E2E2E2E2E2E2E2E2E2E2E2E2E2E2E2E2E2E2E2E2E2E2E2E2E2E2E2E2E2E2E2E2E2E2E2E2E2E2E2E2E2E2E2E2E2E2E2E2E2F5E2E2E2E2E2F5F5F5EFE2E2E2E2E2F5E2E2E2E2E2E2E2E2E2E2E2E2E2E2E2E2E2E2E2E2E2E2E2E2E2E2E2E2E2E2E2E2
310
E2E2E2E2E2E2E2E2E2E2E2E2E2E2E2E2E2E2E2E2E2E2E2E2E2E2E2E2E2E2E2E2E2E2E2E2E2E2E2E2E2E2E2E2E2E2E2E2E2E2E2E2E2E2E2E2E2E2E2E2E2E2E2E2E2E2E2E2E2E2E2E2E2E2E2E2E2E2E2E2E2E2E2E2E2E2E2E2E2E2E2E2E2E2E2E2E2E2E2E2E2E2E2E2E2E2E2E2E2E2E2E2E2E2E2E2E2E2E2E2E2E2E2E2E2E2E2
310
E2E2E2E2E2E2E2E2E2E2E2E2E2E2E2E2E2E2E2E2E2E2E2E2E2E2E2E2E2E2E2E2E2E2E2E2E2E2E2E2E2E2E2E2E2E2E2E2E2E2E2E2E2E2E2E2E2E2E2E2E2E2E2E2E2E2E2E2E2E2E2E2E2E2E2E2E2E2E2E2E2F5E2E2E2E2E2F5F5F5EFE2E2E2E2E2F5E2E2E2E2E2E2E2E2E2E2E2E2E2E2E2E2E2E2E2E2E2E2E2E2E2E2E2E2E2E2
310
E2E2E2E2E2E2E2E2E2E2E2E2E2E2E2E2E2E2E2E2E2E2E2E2E2E2E2E2E2E2E2E2E2E2E2E2E2E2E2E2E2E2E2E2E2E2E2E2E2E2E2E2E2E2E2E2E2E2E2E2E2E2E2E2E2E2E2E2E2E2E2E2E2E2E2E2E2E2E2E2E2E2E2E2E2E2E2E2E2E2E2E2E2E2E2E2E2E2E2E2E2E2E2E2E2E2E2E2E2E2E2E2E2E2E2E2E2E2E2E2E2E2E2E2E2E2E2
310
E2E2E2E2E2E2E2E2E2E2E2E2E2E2E2E2E2E2E2E2E2E2E2E2E2E2E2E2E2E2E2E2E2E2E2E2E2E2E2E2E2E2E2E2E2E2E2E2E2E2E2E2E2E2E2E2E2E2E2E2E2E2E2E2E2E2E2E2E2E2E2E2E2E2E2E2E2E2E2E2E2E2E2F5E2E2E2E2E2F5F5F5EFE2E2E2E2E2F5E2E2E2E2E2E2E2E2E2E2E2E2E2E2E2E2E2E2E2E2E2E2E2E2E2E2E2E2
310
E2E2E2E2E2E2E2E2E2E2E2E2E2E2E2E2E2E2E2E2E2E2E2E2E2E2E2E2E2E2E2E2E2E2E2E2E2E2E2E2E2E2E2E2E2E2E2E2E2E2E2E2E2E2E2E2E2E2E2E2E2E2E2E2E2E2E2E2E2E2E2E2E2E2E2E2E2E2E2E2E2E2E2E2E2E2E2E2E2E2E2E2E2E2E2E2E2E2E2E2E2E2E2E2E2E2E2E2E2E2E2E2E2E2E2E2E2E2E2E2E2E2E2E2E2E2E2
310
E2E2E2E2E2E2E2E2E2E2E2E2E2E2E2E2E2E2E2E2E2E2E2E2E2E2E2E2E2E2E2E2E2E2E2E2E2E2E2E2E2E2E2E2E2E2E2E2E2E2E2E2E2E2E2E2E2E2E2E2E2E2E2E2E2E2E2E2E2E2E2E2E2E2E2E2E2E2E2E2E2E2E2E2E2F5E2E2E2E2E2F5F5F5EFE2E2E2E2E2F5E2E2E2E2E2E2E2E2E2E2E2E2E2E2E2E2E2E2E2E2E2E2E2E2E2E2
310
E2E2E2E2E2E2E2E2E2E2E2E2E2E2E2E2E2E2E2E2E2E2E2E2E2E2E2E2E2E2E2E2E2E2E2E2E2E2E2E2E2E2E2E2E2E2E2E2E2E2E2E2E2E2E2E2E2E2E2E2E2E2E2E2E2E2E2E2E2E2E2E2E2E2E2E2E2E2E2E2E2E2E2E2E2E2E2E2E2E2E2E2E2E2E2E2E2E2E2E2E2E2E2E2E2E2E2E2E2E2E2E2E2E2E2E2E2E2E2E2E2E2E2E2E2E2E2
310
E2E2E2E2E2E2E2E2E2E2E2E2E2E2E2E2E2E2E2E2E2E2E2E2E2E2E2E2E2E2E2E2E2E2E2E2E2E2E2E2E2E2E2E2E2E2E2E2E2E2E2E2E2E2E2E2E2E2E2E2E2E2E2E2E2E2E2E2E2E2E2E2E2E2E2E2E2E2E2E2E2E2E2E2E2E2E2F5E2E2E2E2E2F5F5F5EFE2E2E2E2E2F5E2E2E2E2E2E2E2E2E2E2E2E2E2E2E2E2E2E2E2E2E2E2E2E2
310
E2E2E2E2E2E2E2E2E2E2E2E2E2E2E2E2E2E2E2E2E2E2E2E2E2E2E2E2E2E2E2E2E2E2E2E2E2E2E2E2E2E2E2E2E2E2E2E2E2E2E2E2E2E2E2E2E2E2E2E2E2E2E2E2E2E2E2E2E2E2E2E2E2E2E2E2E2E2E2E2E2E2E2E2E2E2E2E2E2E2E2E2E2E2E2E2E2E2E2E2E2E2E2E2E2E2E2E2E2E2E2E2E2E2E2E2E2E2E2E2E2E2E2E2E2E2E2
310
E2E2E2E2E2E2E2E2E2E2E2E2E2E2E2E2E2E2E2E2E2E2E2E2E2E2E2E2E2E2E2E2E2E2E2E2E2E2E2E2E2E2E2E2E2E2E2E2E2E2E2E2E2E2E2E2E2E2E2E2E2E2E2E2E2E2E2E2E2E2E2E2E2E2E2E2E2E2E2E2E2E2E2E2E2E2E2E2E2F5E2E2E2E2E2F5F5F5EFE2E2E2E2E2F5E2E2E2E2E2E2E2E2E2E2E2E2E2E2E2E2E2E2E2E2E2E2
310
E2E2E2E2E2E2E2E2E2E2E2E2E2E2E2E2E2E2E2E2E2E2E2E2E2E2E2E2E2E2E2E2E2E2E2E2E2E2E2E2E2E2E2E2E2E2E2E2E2E2E2E2E2E2E2E2E2E2E2E2E2E2E2E2E2E2E2E2E2E2E2E2E2E2E2E2E2E2E2E2E2E2E2E2E2E2E2E2E2E2E2E2E2E2E2E2E2E2E2E2E2E2E2E2E2E2E2E2E2E2E2E2E2E2E2E2E2E2E2E2E2E2E2E2E2E2E2
310
E2E2E2E2E2E2E2E2E2E2E2E2E2E2E2E2E2E2E2E2E2E2E2E2E2E2E2E2E2E2E2E2E2E2E2E2E2E2E2E2E2E2E2E2E2E2E2E2E2E2E2E2E2E2E2E2E2E2E2E2E2E2E2E2E2E2E2E2E2E2E2E2E2E2E2E2E2E2E2E2E2E2E2E2E2E2E2E2E2E2E2F5E2E2E2E2E2F5F5F5EFE2E2E2E2E2F5E2E2E2E2E2E2E2E2E2E2E2E2E2E2E2E2E2E2E2E2
310
E2E2E2E2E2E2E2E2E2E2E2E2E2E2E2E2E2E2E2E2E2E2E2E2E2E2E2E2E2E2E2E2E2E2E2E2E2E2E2E2E2E2E2E2E2E2E2E2E2E2E2E2E2E2E2E2E2E2E2E2E2E2E2E2E2E2E2E2E2E2E2E2E2E2E2E2E2E2E2E2E2E2E2E2E2E2E2E2E2E2E2E2E2E2E2E2E2E2E2E2E2E2E2E2E2E2E2E2E2E2E2E2E2E2E2E2E2E2E2E2E2E2E2E2E2E2E2
310
E2E2E2E2E2E2E2E2E2E2E2E2E2E2E2E2E2E2E2E2E2E2E2E2E2E2E2E2E2E2E2E2E2E2E2E2E2E2E2E2E2E2E2E2E2E2E2E2E2E2E2E2E2E2E2E2E2E2E2E2E2E2E2E2E2E2E2E2E2E2E2E2E2E2E2E2E2E2E2E2E2E2E2E2E2E2E2E2E2E2E2E2E2F5E2E2E2E2E2F5F5F5EFE2E2E2E2E2F5E2E2E2E2E2E2E2E2E2E2E2E2E2E2E2E2E2E2
310
E2E2E2E2E2E2E2E2E2E2E2E2E2E2E2E2E2E2E2E2E2E2E2E2E2E2E2E2E2E2E2E2E2E2E2E2E2E2E2E2E2E2E2E2E2E2E2E2E2E2E2E2E2E2E2E2E2E2E2E2E2E2E2E2E2E2E2E2E2E2E2E2E2E2E2E2E2E2E2E2E2E2E2E2E2E2E2E2E2E2E2E2E2E2E2E2E2E2E2E2E2E2E2E2E2E2E2E2E2E2E2E2E2E2E2E2E2E2E2E2E2E2E2E2E2E2E2
310
E2E2E2E2E2E2E2E2E2E2E2E2E2E2E2E2E2E2E2E2E2E2E2E2E2E2E2E2E2E2E2E2E2E2E2E2E2E2E2E2E2E2E2E2E2E2E2E2E2E2E2E2E2E2E2E2E2E2E2E2E2E2E2E2E2E2E2E2E2E2E2E2E2E2E2E2E2E2E2E2E2E2E2E2E2E2E2E2E2E2E2E2E2E2E2F5E2E2E2E2E2F5F5F5EFE2E2E2E2E2F5E2E2E2E2E2E2E2E2E2E2E2E2E2E2E2E2
310
E2E2E2E2E2E2E2E2E2E2E2E2E2E2E2E2E2E2E2E2E2E2E2E2E2E2E2E2E2E2E2E2E2E2E2E2E2E2E2E2E2E2E2E2E2E2E2E2E2E2E2E2E2E2E2E2E2E2E2E2E2E2E2E2E2E2E2E2E2E2E2E2E2E2E2E2E2E2E2E2E2E2E2E2E2E2E2E2E2E2E2E2E2E2E2E2E2E2E2E2E2E2E2E2E2E2E2E2E2E2E2E2E2E2E2E2E2E2E2E2E2E2E2E2E2E2E2
310
E2E2E2E2E2E2E2E2E2E2E2E2E2E2E2E2E2E2E2E2E2E2E2E2E2E2E2E2E2E2E2E2E2E2E2E2E2E2E2E2E2E2E2E2E2E2E2E2E2E2E2E2E2E2E2E2E2E2E2E2E2E2E2E2E2E2E2E2E2E2E2E2E2E2E2E2E2E2E2E2E2E2E2E2E2E2E2E2E2E2E2E2E2E2E2E2E2F5E2E2E2E2E2F5F5F5EFE2E2E2E2E2F5E2E2E2E2E2E2E2E2E2E2E2E2E2E2
310
E2E2E2E2E2E2E2E2E2E2E2E2E2E2E2E2E2E2E2E2E2E2E2E2E2E2E2E2E2E2E2E2E2E2E2E2E2E2E2E2E2E2E2E2E2E2E2E2E2E2E2E2E2E2E2E2E2E2E2E2E2E2E2E2E2E2E2E2E2E2E2E2E2E2E2E2E2E2E2E2E2E2E2E2E2E2E2E2E2E2E2E2E2E2E2E2E2E2E2E2E2E2E2E2E2E2E2E2E2E2E2E2E2E2E2E2E2E2E2E2E2E2E2E2E2E2E2
310
E2E2E2E2E2E2E2E2E2E2E2E2E2E2E2E2E2E2E2E2E2E2E2E2E2E2E2E2E2E2E2E2E2E2E2E2E2E2E2E2E2E2E2E2E2E2E2E2E2E2E2E2E2E2E2E2E2E2E2E2E2E2E2E2E2E2E2E2E2E2E2E2E2E2E2E2E2E2E2E2E2E2E2E2E2E2E2E2E2E2E2E2E2E2E2E2E2E2E2F5E2E2E2E2E2F5F5F5EFE2E2E2E2E2E2E2E2E2E2E2E2E2E2E2E2E2E2
310
E2E2E2E2E2E2E2E2E2E2E2E2E2E2E2E2E2E2E2E2E2E2E2E2E2E2E2E2E2E2E2E2E2E2E2E2E2E2E2E2E2E2E2E2E2E2E2E2E2E2E2E2E2E2E2E2E2E2E2E2E2E2E2E2E2E2E2E2E2E2E2E2E2E2E2E2E2E2E2E2E2E2E2E2E2E2E2E2E2E2E2E2E2E2E2E2E2E2E2E2E2E2E2E2E2E2E2E2E2E2E2E2E2E2E2E2E2E2E2E2E2E2E2E2E2E2E2
310
E2E2E2E2E2E2E2E2E2E2E2E2E2E2E2E2E2E2E2E2E2E2E2E2E2E2E2E2E2E2E2E2E2E2E2E2E2E2E2E2E2E2E2E2E2E2E2E2E2E2E2E2E2E2E2E2E2E2E2E2E2E2E2E2E2E2E2E2E2E2E2E2E2E2E2E2E2E2E2E2E2E2E2E2E2E2E2E2E2E2E2E2E2E2E2E2E2E2E2E2E2E2E2E2E2E2E2F5F5F5EFE2E2E2E2E2E2E2E2E2E2E2E2E2E2E2E2
310
E2E2E2E2E2E2E2E2E2E2E2E2E2E2E2E2E2E2E2E2E2E2E2E2E2E2E2E2E2E2E2E2E2E2E2E2E2E2E2E2E2E2E2E2E2E2E2E2E2E2E2E2E2E2E2E2E2E2E2E2E2E2E2E2E2E2E2E2E2E2E2E2E2E2E2E2E2E2E2E2E2E2E2E2E2E2E2E2E2E2E2E2E2E2E2E2E2E2E2E2E2E2E2E2E2E2E2E2E2E2E2E2E2E2E2E2E2E2E2E2E2E2E2E2E2E2E2
310
E2E2E2E2E2E2E2E2E2E2E2E2E2E2E2E2E2E2E2E2E2E2E2E2E2E2E2E2E2E2E2E2E2E2E2E2E2E2E2E2E2E2E2E2E2E2E2E2E2E2E2E2E2E2E2E2E2E2E2E2E2E2E2E2E2E2E2E2E2E2E2E2E2E2E2E2E2E2E2E2E2E2E2E2E2E2E2E2E2E2E2E2E2E2E2E2E2E2E2E2E2E2E2E2E2E2E2E2E2F5F5F5EFE2E2E2E2E2E2E2E2E2E2E2E2E2E2
310
E2E2E2E2E2E2E2E2E2E2E2E2E2E2E2E2E2E2E2E2E2E2E2E2E2E2E2E2E2E2E2E2E2E2E2E2E2E2E2E2E2E2E2E2E2E2E2E2E2E2E2E2E2E2E2E2E2E2E2E2E2E2E2E2E2E2E2E2E2E2E2E2E2E2E2E2E2E2E2E2E2E2E2E2E2E2E2E2E2E2E2E2E2E2E2E2E2E2E2E2E2E2E2E2E2E2E2E2E2E2E2E2E2E2E2E2E2E2E2E2E2E2E2E2E2E2E2
310
E2E2E2E2E2E2E2E2E2E2E2E2E2E2E2E2E2E2E2E2E2E2E2E2E2E2E2E2E2E2E2E2E2E2E2E2E2E2E2E2E2E2E2E2E2E2E2E2E2E2E2E2E2E2E2E2E2E2E2E2E2E2E2E2E2E2E2E2E2E2E2E2E2E2E2E2E2E2E2E2E2E2E2E2E2E2E2E2E2E2E2E2E2E2E2E2E2E2E2E2E2E2E2E2E2E2E2E2E2E2E2F5F5F5EFE2E2E2E2E2E2E2E2E2E2E2E2
310
E2E2E2E2E2E2E2E2E2E2E2E2E2E2E2E2E2E2E2E2E2E2E2E2E2E2E2E2E2E2E2E2E2E2E2E2E2E2E2E2E2E2E2E2E2E2E2E2E2E2E2E2E2E2E2E2E2E2E2E2E2E2E2E2E2E2E2E2E2E2E2E2E2E2E2E2E2E2E2E2E2E2E2E2E2E2E2E2E2E2E2E2E2E2E2E2E2E2E2E2E2E2E2E2E2E2E2E2E2E2E2E2E2E2E2E2E2E2E2E2E2E2E2E2E2E2E2
310
E2E2E2E2E2E2E2E2E2E2E2E2E2E2E2E2E2E2E2E2E2E2E2E2E2E2E2E2E2E2E2E2E2E2E2E2E2E2E2E2E2E2E2E2E2E2E2E2E2E2E2E2E2E2E2E2E2E2E2E2E2E2E2E2E2E2E2E2E2E2E2E2E2E2E2E2E2E2E2E2E2E2E2E2E2E2E2E2E2E2E2E2E2E2E2E2E2E2E2E2E2E2E2E2E2E2E2E2E2E2E2E2E2F5F5F5EFE2E2E2E2E2E2E2E2E2E2
310
E2E2E2E2E2E2E2E2E2E2E2E2E2E2E2E2E2E2E2E2E2E2E2E2E2E2E2E2E2E2E2E2E2E2E2E2E2E2E2E2E2E2E2E2E2E2E2E2E2E2E2E2E2E2E2E2E2E2E2E2E2E2E2E2E2E2E2E2E2E2E2E2E2E2E2E2E2E2E2E2E2E2E2E2E2E2E2E2E2E2E2E2E2E2E2E2E2E2E2E2E2E2E2E2E2E2E2E2E2E2E2E2E2E2E2E2E2E2E2E2E2E2E2E2E2E2E2
310
E2E2E2E2E2E2E2E2E2E2E2E2E2E2E2E2E2E2E2E2E2E2E2E2E2E2E2E2E2E2E2E2E2E2E2E2E2E2E2E2E2E2E2E2E2E2E2E2E2E2E2E2E2E2E2E2E2E2E2E2E2E2E2E2E2E2E2E2E2E2E2E2E2E2E2E2E2E2E2E2E2E2E2E2E2E2E2E2E2E2E2E2E2E2E2E2E2E2E2E2E2E2E2E2E2E2E2E2E2E2E2E2E2E2E2F5F5F5EFE2E2E2E2E2E2E2E2
310
E2E2E2E2E2E2E2E2E2E2E2E2E2E2E2E2E2E2E2E2E2E2E2E2E2E2E2E2E2E2E2E2E2E2E2E2E2E2E2E2E2E2E2E2E2E2E2E2E2E2E2E2E2E2E2E2E2E2E2E2E2E2E2E2E2E2E2E2E2E2E2E2E2E2E2E2E2E2E2E2E2E2E2E2E2E2E2E2E2E2E2E2E2E2E2E2E2E2E2E2E2E2E2E2E2E2E2E2E2E2E2E2E2E2E2E2E2E2E2E2E2E2E2E2E2E2E2
310
E2E2E2E2E2E2E2E2E2E2E2E2E2E2E2E2E2E2E2E2E2E2E2E2E2E2E2E2E2E2E2E2E2E2E2E2E2E2E2E2E2E2E2E2E2E2E2E2E2E2E2E2E2E2E2E2E2E2E2E2E2E2E2E2E2E2E2E2E2E2E2E2E2E2E2E2E2E2E2E2E2E2E2E2E2E2E2E2E2E2E2E2E2E2E2E2E2E2E2E2E2E2E2E2E2E2E2E2E2E2E2E2E2E2E2E2E2F5F5F5EFE2E2E2E2E2E2
310
E2E2E2E2E2E2E2E2E2E2E2E2E2E2E2E2E2E2E2E2E2E2E2E2E2E2E2E2E2E2E2E2E2E2E2E2E2E2E2E2E2E2E2E2E2E2E2E2E2E2E2E2E2E2E2E2E2E2E2E2E2E2E2E2E2E2E2E2E2E2E2E2E2E2E2E2E2E2E2E2E2E2E2E2E2E2E2E2E2E2E2E2E2E2E2E2E2E2E2E2E2E2E2E2E2E2E2E2E2E2E2E2E2E2E2E2E2E2E2E2E2E2E2E2E2E2E2
310
E2E2E2E2E2E2E2E2E2E2E2E2E2E2E2E2E2E2E2E2E2E2E2E2E2E2E2E2E2E2E2E2E2E2E2E2E2E2E2E2E2E2E2E2E2E2E2E2E2E2E2E2E2E2E2E2E2E2E2E2E2E2E2E2E2E2E2E2E2E2E2E2E2E2E2E2E2E2E2E2E2E2E2E2E2E2E2E2E2E2E2E2E2E2E2E2E2E2E2E2E2E2E2E2E2E2E2E2E2E2E2E2E2E2E2E2E2E2E2F5F5F5EFE2E2E2E2
310
E2E2E2E2E2E2E2E2E2E2E2E2E2E2E2E2E2E2E2E2E2E2E2E2E2E2E2E2E2E2E2E2E2E2E2E2E2E2E2E2E2E2E2E2E2E2E2E2E2E2E2E2E2E2E2E2E2E2E2E2E2E2E2E2E2E2E2E2E2E2E2E2E2E2E2E2E2E2E2E2E2E2E2E2E2E2E2E2E2E2E2E2E2E2E2E2E2E2E2E2E2E2E2E2E2E2E2E2E2E2E2E2E2E2E2E2E2E2E2E2E2E2E2E2E2E2E2
310
E2E2E2E2E2E2E2E2E2E2E2E2E2E2E2E2E2E2E2E2E2E2E2E2E2E2E2E2E2E2E2E2E2E2E2E2E2E2E2E2E2E2E2E2E2E2E2E2E2E2E2E2E2E2E2E2E2E2E2E2E2E2E2E2E2E2E2E2E2E2E2E2E2E2E2E2E2E2E2E2E2E2E2E2E2E2E2E2E2E2E2E2E2E2E2E2E2E2E2E2E2E2E2E2E2E2E2E2E2E2E2E2E2E2E2E2E2E2E2E2E2F5F5F5EFE2E2
310
E2E2E2E2E2E2E2E2E2E2E2E2E2E2E2E2E2E2E2E2E2E2E2E2E2E2E2E2E2E2E2E2E2E2E2E2E2E2E2E2E2E2E2E2E2E2E2E2E2E2E2E2E2E2E2E2E2E2E2E2E2E2E2E2E2E2E2E2E2E2E2E2E2E2E2E2E2E2E2E2E2E2E2E2E2E2E2E2E2E2E2E2E2E2E2E2E2E2E2E2E2E2E2E2E2E2E2E2E2E2E2E2E2E2E2E2E2E2E2E2E2E2E2E2E2E2E2
310
E2E2E2E2E2E2E2E2E2E2E2E2E2E2E2E2E2E2E2E2E2E2E2E2E2E2E2E2E2E2E2E2E2E2E2E2E2E2E2E2E2E2E2E2E2E2E2E2E2E2E2E2E2E2E2E2E2E2E2E2E2E2E2E2E2E2E2E2E2E2E2E2E2E2E2E2E2E2E2E2E2E2E2E2E2E2E2E2E2E2E2E2E2E2E2E2E2E2E2E2E2E2E2E2E2E2E2E2E2E2E2E2E2E2E2E2E2E2E2E2E2E2E2F5F5F5EF
310
E2E2E2E2E2E2E2E2E2E2E2E2E2E2E2E2E2E2E2E2E2E2E2E2E2E2E2E2E2E2E2E2E2E2E2E2E2E2E2E2E2E2E2E2E2E2E2E2E2E2E2E2E2E2E2E2E2E2E2E2E2E2E2E2E2E2E2E2E2E2E2E2E2E2E2E2E2E2E2E2E2E2E2E2E2E2E2E2E2E2E2E2E2E2E2E2E2E2E2E2E2E2E2E2E2E2E2E2E2E2E2E2E2E2E2E2E2E2E2E2E2E2E2E2E2E2E2
310
E2E2E2E2E2E2E2E2E2E2E2E2E2E2E2E2E2E2E2E2E2E2E2E2E2E2E2E2E2E2E2E2E2E2E2E2E2E2E2E2E2E2E2E2E2E2E2E2E2E2E2E2E2E2E2E2E2E2E2E2E2E2E2E2E2E2E2E2E2E2E2E2E2E2E2E2E2E2E2E2E2E2E2E2E2E2E2E2E2E2E2E2E2E2E2E2E2E2E2E2E2E2E2E2E2E2E2E2E2E2E2E2E2E2E2E2E2E2E2E2E2E2E2E2E2F5F5
310
F5EFE2E2E2E2E2F5E2E2E2E2E2E2E2E2E2E2E2E2E2E2E2E2E2E2E2E2E2E2E2E2E2E2E2E2E2E2E2E2E2E2E2E2E2E2E2E2E2E2E2E2E2E2E2E2E2E2E2E2E2E2E2E2E2E2E2E2E2E2E2E2E2E2E2E2E2E2E2E2E2E2E2E2E2E2E2E2E2E2E2E2E2E2E2E2E2E2E2E2E2E2E2E2E2E2E2E2E2E2E2E2E2E2E2E2E2E2E2E2E2E2E2E2E2E2E2
310
E2E2E2E2E2E2E2E2E2E2E2E2E2E2E2E2E2E2E2E2E2E2E2E2E2E2E2E2E2E2E2E2E2E2E2E2E2E2E2E2E2E2E2E2E2E2E2E2E2E2E2E2E2E2E2E2E2E2E2E2E2E2E2E2E2E2E2E2E2E2E2E2E2E2E2E2E2E2E2E2E2E2E2E2E2E2E2E2E2E2E2E2E2E2E2E2E2E2E2E2E2E2E2E2E2E2E2E2E2E2E2E2E2E2E2E2E2E2E2E2E2F5E2E2E2E2E2
310
F5F5F5EFE2E2E2E2E2F5E2E2E2E2E2E2E2E2E2E2E2E2E2E2E2E2E2E2E2E2E2E2E2E2E2E2E2E2E2E2E2E2E2E2E2E2E2E2E2E2E2E2E2E2E2E2E2E2E2E2E2E2E2E2E2E2E2E2E2E2E2E2E2E2E2E2E2E2E2E2E2E2E2E2E2E2E2E2E2E2E2E2E2E2E2E2E2E2E2E2E2E2E2E2E2E2E2E2E2E2E2E2E2E2E2E2E2E2E2E2E2E2E2E2E2E2E2
310
E2E2E2E2E2E2E2E2E2E2E2E2E2E2E2E2E2E2E2E2E2E2E2E2E2E2E2E2E2E2E2E2E2E2E2E2E2E2E2E2E2E2E2E2E2E2E2E2E2E2E2E2E2E2E2E2E2E2E2E2E2E2E2E2E2E2E2E2E2E2E2E2E2E2E2E2E2E2E2E2E2E2E2E2E2E2E2E2E2E2E2E2E2E2E2E2E2E2E2E2E2E2E2E2E2E2E2E2E2E2E2E2E2E2E2E2E2E2E2E2E2E2E2F5E2E2E2
310
E2E2F5F5F5EFE2E2E2E2E2F5E2E2E2E2E2E2E2E2E2E2E2E2E2E2E2E2E2E2E2E2E2E2E2E2E2E2E2E2E2E2E2E2E2E2E2E2E2E2E2E2E2E2E2E2E2E2E2E2E2E2E2E2E2E2E2E2E2E2E2E2E2E2E2E2E2E2E2E2E2E2E2E2E2E2E2E2E2E2E2E2E2E2E2E2E2E2E2E2E2E2E2E2E2E2E2E2E2E2E2E2E2E2E2E2E2E2E2E2E2E2E2E2E2E2E2
310
E2E2E2E2E2E2E2E2E2E2E2E2E2E2E2E2E2E2E2E2E2E2E2E2E2E2E2E2E2E2E2E2E2E2E2E2E2E2E2E2E2E2E2E2E2E2E2E2E2E2E2E2E2E2E2E2E2E2E2E2E2E2E2E2E2E2E2E2E2E2E2E2E2E2E2E2E2E2E2E2E2E2E2E2E2E2E2E2E2E2E2E2E2E2E2E2E2E2E2E2E2E2E2E2E2E2E2E2E2E2E2E2E2E2E2E2E2E2E2E2E2E2E2E2E2F5E2
310
E2E2E2E2F5F5F5EFE2E2E2E2E2F5E2E2E2E2E2E2E2E2E2E2E2E2E2E2E2E2E2E2E2E2E2E2E2E2E2E2E2E2E2E2E2E2E2E2E2E2E2E2E2E2E2E2E2E2E2E2E2E2E2E2E2E2E2E2E2E2E2E2E2E2E2E2E2E2E2E2E2E2E2E2E2E2E2E2E2E2E2E2E2E2E2E2E2E2E2E2E2E2E2E2E2E2E2E2E2E2E2E2E2E2E2E2E2E2E2E2E2E2E2E2E2E2E2
310
E2E2E2E2E2E2E2E2E2E2E2E2E2E2E2E2E2E2E2E2E2E2E2E2E2E2E2E2E2E2E2E2E2E2E2E2E2E2E2E2E2E2E2E2E2E2E2E2E2E2E2E2E2E2E2E2E2E2E2E2E2E2E2E2E2E2E2E2E2E2E2E2E2E2E2E2E2E2E2E2E2E2E2E2E2E2E2E2E2E2E2E2E2E2E2E2E2E2E2E2E2E2E2E2E2E2E2E2E2E2E2E2E2E2E2E2E2E2E2E2E2E2E2E2E2E2E2
310
F5E2E2E2E2E2F5F5F5EFE2E2E2E2E2F5E2E2E2E2E2E2E2E2E2E2E2E2E2E2E2E2E2E2E2E2E2E2E2E2E2E2E2E2E2E2E2E2E2E2E2E2E2E2E2E2E2E2E2E2E2E2E2E2E2E2E2E2E2E2E2E2E2E2E2E2E2E2E2E2E2E2E2E2E2E2E2E2E2E2E2E2E2E2E2E2E2E2E2E2E2E2E2E2E2E2E2E2E2E2E2E2E2E2E2E2E2E2E2E2E2E2E2E2E2E2E2
310
E2E2E2E2E2E2E2E2E2E2E2E2E2E2E2E2E2E2E2E2E2E2E2E2E2E2E2E2E2E2E2E2E2E2E2E2E2E2E2E2E2E2E2E2E2E2E2E2E2E2E2E2E2E2E2E2E2E2E2E2E2E2E2E2E2E2E2E2E2E2E2E2E2E2E2E2E2E2E2E2E2E2E2E2E2E2E2E2E2E2E2E2E2E2E2E2E2E2E2E2E2E2E2E2E2E2E2E2E2E2E2E2E2E2E2E2E2E2E2E2E2E2E2E2E2E2E2
310
E2E2F5E2E2E2E2E2F5F5F5EFE2E2E2E2E2F5E2E2E2E2E2E2E2E2E2E2E2E2E2E2E2E2E2E2E2E2E2E2E2E2E2E2E2E2E2E2E2E2E2E2E2E2E2E2E2E2E2E2E2E2E2E2E2E2E2E2E2E2E2E2E2E2E2E2E2E2E2E2E2E2E2E2E2E2E2E2E2E2E2E2E2E2E2E2E2E2E2E2E2E2E2E2E2E2E2E2E2E2E2E2E2E2E2E2E2E2E2E2E2E2E2E2E2E2E2
310
E2E2E2E2E2E2E2E2E2E2E2E2E2E2E2E2E2E2E2E2E2E2E2E2E2E2E2E2E2E2E2E2E2E2E2E2E2E2E2E2E2E2E2E2E2E2E2E2E2E2E2E2E2E2E2E2E2E2E2E2E2E2E2E2E2E2E2E2E2E2E2E2E2E2E2E2E2E2E2E2E2E2E2E2E2E2E2E2E2E2E2E2E2E2E2E2E2E2E2E2E2E2E2E2E2E2E2E2E2E2E2E2E2E2E2E2E2E2E2E2E2E2E2E2E2E2E2
310
E2E2E2E2F5E2E2E2E2E2F5F5F5EFE2E2E2E2E2F5E2E2E2E2E2E2E2E2E2E2E2E2E2E2E2E2E2E2E2E2E2E2E2E2E2E2E2E2E2E2E2E2E2E2E2E2E2E2E2E2E2E2E2E2E2E2E2E2E2E2E2E2E2E2E2E2E2E2E2E2E2E2E2E2E2E2E2E2E2E2E2E2E2E2E2E2E2E2E2E2E2E2E2E2E2E2E2E2E2E2E2E2E2E2E2E2E2E2E2E2E2E2E2E2E2E2E2
310
E2E2E2E2E2E2E2E2E2E2E2E2E2E2E2E2E2E2E2E2E2E2E2E2E2E2E2E2E2E2E2E2E2E2E2E2E2E2E2E2E2E2E2E2E2E2E2E2E2E2E2E2E2E2E2E2E2E2E2E2E2E2E2E2E2E2E2E2E2E2E2E2E2E2E2E2E2E2E2E2E2E2E2E2E2E2E2E2E2E2E2E2E2E2E2E2E2E2E2E2E2E2E2E2E2E2E2E2E2E2E2E2E2E2E2E2E2E2E2E2E2E2E2E2E2E2E2
310
E2E2E2E2E2E2F5E2E2E2E2E2F5F5F5EFE2E2E2E2E2F5E2E2E2E2E2E2E2E2E2E2E2E2E2E2E2E2E2E2E2E2E2E2E2E2E2E2E2E2E2E2E2E2E2E2E2E2E2E2E2E2E2E2E2E2E2E2E2E2E2E2E2E2E2E2E2E2E2E2E2E2E2E2E2E2E2E2E2E2E2E2E2E2E2E2E2E2E2E2E2E2E2E2E2E2E2E2E2E2E2E2E2E2E2E2E2E2E2E2E2E2E2E2E2E2E2
310
E2E2E2E2E2E2E2E2E2E2E2E2E2E2E2E2E2E2E2E2E2E2E2E2E2E2E2E2E2E2E2E2E2E2E2E2E2E2E2E2E2E2E2E2E2E2E2E2E2E2E2E2E2E2E2E2E2E2E2E2E2E2E2E2E2E2E2E2E2E2E2E2E2E2E2E2E2E2E2E2E2E2E2E2E2E2E2E2E2E2E2E2E2E2E2E2E2E2E2E2E2E2E2E2E2E2E2E2E2E2E2E2E2E2E2E2E2E2E2E2E2E2E2E2E2E2E2
310
E2E2E2E2E2E2E2E2F5E2E2E2E2E2F5F5F5EFE2E2E2E2E2F5E2E2E2E2E2E2E2E2E2E2E2E2E2E2E2E2E2E2E2E2E2E2E2E2E2E2E2E2E2E2E2E2E2E2E2E2E2E2E2E2E2E2E2E2E2E2E2E2E2E2E2E2E2E2E2E2E2E2E2E2E2E2E2E2E2E2E2E2E2E2E2E2E2E2E2E2E2E2E2E2E2E2E2E2E2E2E2E2E2E2E2E2E2E2E2E2E2E2E2E2E2E2E2
310
E2E2E2E2E2E2E2E2E2E2E2E2E2E2E2E2E2E2E2E2E2E2E2E2E2E2E2E2E2E2E2E2E2E2E2E2E2E2E2E2E2E2E2E2E2E2E2E2E2E2E2E2E2E2E2E2E2E2E2E2E2E2E2E2E2E2E2E2E2E2E2E2E2E2E2E2E2E2E2E2E2E2E2E2E2E2E2E2E2E2E2E2E2E2E2E2E2E2E2E2E2E2E2E2E2E2E2E2E2E2E2E2E2E2E2E2E2E2E2E2E2E2E2E2E2E2E2
310
E2E2E2E2E2E2E2E2E2E2F5E2E2E2E2E2F5F5F5EFE2E2E2E2E2F5E2E2E2E2E2E2E2E2E2E2E2E2E2E2E2E2E2E2E2E2E2E2E2E2E2E2E2E2E2E2E2E2E2E2E2E2E2E2E2E2E2E2E2E2E2E2E2E2E2E2E2E2E2E2E2E2E2E2E2E2E2E2E2E2E2E2E2E2E2E2E2E2E2E2E2E2E2E2E2E2E2E2E2E2E2E2E2E2E2E2E2E2E2E2E2E2E2E2E2E2E2
310
E2E2E2E2E2E2E2E2E2E2E2E2E2E2E2E2E2E2E2E2E2E2E2E2E2E2E2E2E2E2E2E2E2E2E2E2E2E2E2E2E2E2E2E2E2E2E2E2E2E2E2E2E2E2E2E2E2E2E2E2E2E2E2E2E2E2E2E2E2E2E2E2E2E2E2E2E2E2E2E2E2E2E2E2E2E2E2E2E2E2E2E2E2E2E2E2E2E2E2E2E2E2E2E2E2E2E2E2E2E2E2E2E2E2E2E2E2E2E2E2E2E2E2E2E2E2E2
310
E2E2E2E2E2E2E2E2E2E2E2E2F5E2E2E2E2E2F5F5F5EFE2E2E2E2E2F5E2E2E2E2E2E2E2E2E2E2E2E2E2E2E2E2E2E2E2E2E2E2E2E2E2E2E2E2E2E2E2E2E2E2E2E2E2E2E2E2E2E2E2E2E2E2E2E2E2E2E2E2E2E2E2E2E2E2E2E2E2E2E2E2E2E2E2E2E2E2E2E2E2E2E2E2E2E2E2E2E2E2E2E2E2E2E2E2E2E2E2E2E2E2E2E2E2E2E2
310
E2E2E2E2E2E2E2E2E2E2E2E2E2E2E2E2E2E2E2E2E2E2E2E2E2E2E2E2E2E2E2E2E2E2E2E2E2E2E2E2E2E2E2E2E2E2E2E2E2E2E2E2E2E2E2E2E2E2E2E2E2E2E2E2E2E2E2E2E2E2E2E2E2E2E2E2E2E2E2E2E2E2E2E2E2E2E2E2E2E2E2E2E2E2E2E2E2E2E2E2E2E2E2E2E2E2E2E2E2E2E2E2E2E2E2E2E2E2E2E2E2E2E2E2E2E2E2
310
E2E2E2E2E2E2E2E2E2E2E2E2E2E2F5E2E2E2E2E2F5F5F5EFE2E2E2E2E2F5E2E2E2E2E2E2E2E2E2E2E2E2E2E2E2E2E2E2E2E2E2E2E2E2E2E2E2E2E2E2E2E2E2E2E2E2E2E2E2E2E2E2E2E2E2E2E2E2E2E2E2E2E2E2E2E2E2E2E2E2E2E2E2E2E2E2E2E2E2E2E2E2E2E2E2E2E2E2E2E2E2E2E2E2E2E2E2E2E2E2E2E2E2E2E2E2E2
310
E2E2E2E2E2E2E2E2E2E2E2E2E2E2E2E2E2E2E2E2E2E2E2E2E2E2E2E2E2E2E2E2E2E2E2E2E2E2E2E2E2E2E2E2E2E2E2E2E2E2E2E2E2E2E2E2E2E2E2E2E2E2E2E2E2E2E2E2E2E2E2E2E2E2E2E2E2E2E2E2E2E2E2E2E2E2E2E2E2E2E2E2E2E2E2E2E2E2E2E2E2E2E2E2E2E2E2E2E2E2E2E2E2E2E2E2E2E2E2E2E2E2E2E2E2E2E2
310
E2E2E2E2E2E2E2E2E2E2E2E2E2E2E2E2F5E2E2E2E2E2F5F5F5EFE2E2E2E2E2F5E2E2E2E2E2E2E2E2E2E2E2E2E2E2E2E2E2E2E2E2E2E2E2E2E2E2E2E2E2E2E2E2E2E2E2E2E2E2E2E2E2E2E2E2E2E2E2E2E2E2E2E2E2E2E2E2E2E2E2E2E2E2E2E2E2E2E2E2E2E2E2E2E2E2E2E2E2E2E2E2E2E2E2E2E2E2E2E2E2E2E2E2E2E2E2
310
E2E2E2E2E2E2E2E2E2E2E2E2E2E2E2E2E2E2E2E2E2E2E2E2E2E2E2E2E2E2E2E2E2E2E2E2E2E2E2E2E2E2E2E2E2E2E2E2E2E2E2E2E2E2E2E2E2E2E2E2E2E2E2E2E2E2E2E2E2E2E2E2E2E2E2E2E2E2E2E2E2E2E2E2E2E2E2E2E2E2E2E2E2E2E2E2E2E2E2E2E2E2E2E2E2E2E2E2E2E2E2E2E2E2E2E2E2E2E2E2E2E2E2E2E2E2E2
310
E2E2E2E2E2E2E2E2E2E2E2E2E2E2E2E2E2E2F5E2E2E2E2E2F5F5F5EFE2E2E2E2E2F5E2E2E2E2E2E2E2E2E2E2E2E2E2E2E2E2E2E2E2E2E2E2E2E2E2E2E2E2E2E2E2E2E2E2E2E2E2E2E2E2E2E2E2E2E2E2E2E2E2E2E2E2E2E2E2E2E2E2E2E2E2E2E2E2E2E2E2E2E2E2E2E2E2E2E2E2E2E2E2E2E2E2E2E2E2E2E2E2E2E2E2E2E2
310
E2E2E2E2E2E2E2E2E2E2E2E2E2E2E2E2E2E2E2E2E2E2E2E2E2E2E2E2E2E2E2E2E2E2E2E2E2E2E2E2E2E2E2E2E2E2E2E2E2E2E2E2E2E2E2E2E2E2E2E2E2E2E2E2E2E2E2E2E2E2E2E2E2E2E2E2E2E2E2E2E2E2E2E2E2E2E2E2E2E2E2E2E2E2E2E2E2E2E2E2E2E2E2E2E2E2E2E2E2E2E2E2E2E2E2E2E2E2E2E2E2E2E2E2E2E2E2
310
E2E2E2E2E2E2E2E2E2E2E2E2E2E2E2E2E2E2E2E2F5E2E2E2E2E2F5F5F5EFE2E2E2E2E2F5E2E2E2E2E2E2E2E2E2E2E2E2E2E2E2E2E2E2E2E2E2E2E2E2E2E2E2E2E2E2E2E2E2E2E2E2E2E2E2E2E2E2E2E2E2E2E2E2E2E2E2E2E2E2E2E2E2E2E2E2E2E2E2E2E2E2E2E2E2E2E2E2E2E2E2E2E2E2E2E2E2E2E2E2E2E2E2E2E2E2E2
310
E2E2E2E2E2E2E2E2E2E2E2E2E2E2E2E2E2E2E2E2E2E2E2E2E2E2E2E2E2E2E2E2E2E2E2E2E2E2E2E2E2E2E2E2E2E2E2E2E2E2E2E2E2E2E2E2E2E2E2E2E2E2E2E2E2E2E2E2E2E2E2E2E2E2E2E2E2E2E2E2E2E2E2E2E2E2E2E2E2E2E2E2E2E2E2E2E2E2E2E2E2E2E2E2E2E2E2E2E2E2E2E2E2E2E2E2E2E2E2E2E2E2E2E2E2E2E2
310
E2E2E2E2E2E2E2E2E2E2E2E2E2E2E2E2E2E2E2E2E2E2F5E2E2E2E2E2F5F5F5EFE2E2E2E2E2F5E2E2E2E2E2E2E2E2E2E2E2E2E2E2E2E2E2E2E2E2E2E2E2E2E2E2E2E2E2E2E2E2E2E2E2E2E2E2E2E2E2E2E2E2E2E2E2E2E2E2E2E2E2E2E2E2E2E2E2E2E2E2E2E2E2E2E2E2E2E2E2E2E2E2E2E2E2E2E2E2E2E2E2E2E2E2E2E2E2
310
E2E2E2E2E2E2E2E2E2E2E2E2E2E2E2E2E2E2E2E2E2E2E2E2E2E2E2E2E2E2E2E2E2E2E2E2E2E2E2E2E2E2E2E2E2E2E2E2E2E2E2E2E2E2E2E2E2E2E2E2E2E2E2E2E2E2E2E2E2E2E2E2E2E2E2E2E2E2E2E2E2E2E2E2E2E2E2E2E2E2E2E2E2E2E2E2E2E2E2E2E2E2E2E2E2E2E2E2E2E2E2E2E2E2E2E2E2E2E2E2E2E2E2E2E2E2E2
310
E2E2E2E2E2E2E2E2E2E2E2E2E2E2E2E2E2E2E2E2E2E2E2E2F5E2E2E2E2E2F5F5F5EFE2E2E2E2E2E2E2E2E2E2E2E2E2E2E2E2E2E2E2E2E2E2E2E2E2E2E2E2E2E2E2E2E2E2E2E2E2E2E2E2E2E2E2E2E2E2E2E2E2E2E2E2E2E2E2E2E2E2E2E2E2E2E2E2E2E2E2E2E2E2E2E2E2E2E2E2E2E2E2E2E2E2E2E2E2E2E2E2E2E2E2E2E2
310
E2E2E2E2E2E2E2E2E2E2E2E2E2E2E2E2E2E2E2E2E2E2E2E2E2E2E2E2E2E2E2E2E2E2E2E2E2E2E2E2E2E2E2E2E2E2E2E2E2E2E2E2E2E2E2E2E2E2E2E2E2E2E2E2E2E2E2E2E2E2E2E2E2E2E2E2E2E2E2E2E2E2E2E2E2E2E2E2E2E2E2E2E2E2E2E2E2E2E2E2E2E2E2E2E2E2E2E2E2E2E2E2E2E2E2E2E2E2E2E2E2E2E2E2E2E2E2
310
E2E2E2E2E2E2E2E2E2E2E2E2E2E2E2E2E2E2E2E2E2E2E2E2E2E2E2E2E2E2E2E2F5F5F5EFE2E2E2E2E2E2E2E2E2E2E2E2E2E2E2E2E2E2E2E2E2E2E2E2E2E2E2E2E2E2E2E2E2E2E2E2E2E2E2E2E2E2E2E2E2E2E2E2E2E2E2E2E2E2E2E2E2E2E2E2E2E2E2E2E2E2E2E2E2E2E2E2E2E2E2E2E2E2E2E2E2E2E2E2E2E2E2E2E2E2E2
310
E2E2E2E2E2E2E2E2E2E2E2E2E2E2E2E2E2E2E2E2E2E2E2E2E2E2E2E2E2E2E2E2E2E2E2E2E2E2E2E2E2E2E2E2E2E2E2E2E2E2E2E2E2E2E2E2E2E2E2E2E2E2E2E2E2E2E2E2E2E2E2E2E2E2E2E2E2E2E2E2E2E2E2E2E2E2E2E2E2E2E2E2E2E2E2E2E2E2E2E2E2E2E2E2E2E2E2E2E2E2E2E2E2E2E2E2E2E2E2E2E2E2E2E2E2E2E2
310
E2E2E2E2E2E2E2E2E2E2E2E2E2E2E2E2E2E2E2E2E2E2E2E2E2E2E2E2E2E2E2E2E2E2F5F5F5EFE2E2E2E2E2E2E2E2E2E2E2E2E2E2E2E2E2E2E2E2E2E2E2E2E2E2E2E2E2E2E2E2E2E2E2E2E2E2E2E2E2E2E2E2E2E2E2E2E2E2E2E2E2E2E2E2E2E2E2E2E2E2E2E2E2E2E2E2E2E2E2E2E2E2E2E2E2E2E2E2E2E2E2E2E2E2E2E2E2
310
E2E2E2E2E2E2E2E2E2E2E2E2E2E2E2E2E2E2E2E2E2E2E2E2E2E2E2E2E2E2E2E2E2E2E2E2E2E2E2E2E2E2E2E2E2E2E2E2E2E2E2E2E2E2E2E2E2E2E2E2E2E2E2E2E2E2E2E2E2E2E2E2E2E2E2E2E2E2E2E2E2E2E2E2E2E2E2E2E2E2E2E2E2E2E2E2E2E2E2E2E2E2E2E2E2E2E2E2E2E2E2E2E2E2E2E2E2E2E2E2E2E2E2E2E2E2E2
310
E2E2E2E2E2E2E2E2E2E2E2E2E2E2E2E2E2E2E2E2E2E2E2E2E2E2E2E2E2E2E2E2E2E2E2E2F5F5F5EFE2E2E2E2E2E2E2E2E2E2E2E2E2E2E2E2E2E2E2E2E2E2E2E2E2E2E2E2E2E2E2E2E2E2E2E2E2E2E2E2E2E2E2E2E2E2E2E2E2E2E2E2E2E2E2E2E2E2E2E2E2E2E2E2E2E2E2E2E2E2E2E2E2E2E2E2E2E2E2E2E2E2E2E2E2E2E2
310
E2E2E2E2E2E2E2E2E2E2E2E2E2E2E2E2E2E2E2E2E2E2E2E2E2E2E2E2E2E2E2E2E2E2E2E2E2E2E2E2E2E2E2E2E2E2E2E2E2E2E2E2E2E2E2E2E2E2E2E2E2E2E2E2E2E2E2E2E2E2E2E2E2E2E2E2E2E2E2E2E2E2E2E2E2E2E2E2E2E2E2E2E2E2E2E2E2E2E2E2E2E2E2E2E2E2E2E2E2E2E2E2E2E2E2E2E2E2E2E2E2E2E2E2E2E2E2
310
E2E2E2E2E2E2E2E2E2E2E2E2E2E2E2E2E2E2E2E2E2E2E2E2E2E2E2E2E2E2E2E2E2E2E2E2E2E2F5F5F5EFE2E2E2E2E2E2E2E2E2E2E2E2E2E2E2E2E2E2E2E2E2E2E2E2E2E2E2E2E2E2E2E2E2E2E2E2E2E2E2E2E2E2E2E2E2E2E2E2E2E2E2E2E2E2E2E2E2E2E2E2E2E2E2E2E2E2E2E2E2E2E2E2E2E2E2E2E2E2E2E2E2E2E2E2E2
310
E2E2E2E2E2E2E2E2E2E2E2E2E2E2E2E2E2E2E2E2E2E2E2E2E2E2E2E2E2E2E2E2E2E2E2E2E2E2E2E2E2E2E2E2E2E2E2E2E2E2E2E2E2E2E2E2E2E2E2E2E2E2E2E2E2E2E2E2E2E2E2E2E2E2E2E2E2E2E2E2E2E2E2E2E2E2E2E2E2E2E2E2E2E2E2E2E2E2E2E2E2E2E2E2E2E2E2E2E2E2E2E2E2E2E2E2E2E2E2E2E2E2E2E2E2E2E2
310
E2E2E2E2E2E2E2E2E2E2E2E2E2E2E2E2E2E2E2E2E2E2E2E2E2E2E2E2E2E2E2E2E2E2E2E2E2E2E2E2F5F5F5EFE2E2E2E2E2E2E2E2E2E2E2E2E2E2E2E2E2E2E2E2E2E2E2E2E2E2E2E2E2E2E2E2E2E2E2E2E2E2E2E2E2E2E2E2E2E2E2E2E2E2E2E2E2E2E2E2E2E2E2E2E2E2E2E2E2E2E2E2E2E2E2E2E2E2E2E2E2E2E2E2E2E2E2
310
E2E2E2E2E2E2E2E2E2E2E2E2E2E2E2E2E2E2E2E2E2E2E2E2E2E2E2E2E2E2E2E2E2E2E2E2E2E2E2E2E2E2E2E2E2E2E2E2E2E2E2E2E2E2E2E2E2E2E2E2E2E2E2E2E2E2E2E2E2E2E2E2E2E2E2E2E2E2E2E2E2E2E2E2E2E2E2E2E2E2E2E2E2E2E2E2E2E2E2E2E2E2E2E2E2E2E2E2E2E2E2E2E2E2E2E2E2E2E2E2E2E2E2E2E2E2E2
310
E2E2E2E2E2E2E2E2E2E2E2E2E2E2E2E2E2E2E2E2E2E2E2E2E2E2E2E2E2E2E2E2E2E2E2E2E2E2E2E2E2E2F5F5F5EFE2E2E2E2E2E2E2E2E2E2E2E2E2E2E2E2E2E2E2E2E2E2E2E2E2E2E2E2E2E2E2E2E2E2E2E2E2E2E2E2E2E2E2E2E2E2E2E2E2E2E2E2E2E2E2E2E2E2E2E2E2E2E2E2E2E2E2E2E2E2E2E2E2E2E2E2E2E2E2E2E2
310
E2E2E2E2E2E2E2E2E2E2E2E2E2E2E2E2E2E2E2E2E2E2E2E2E2E2E2E2E2E2E2E2E2E2E2E2E2E2E2E2E2E2E2E2E2E2E2E2E2E2E2E2E2E2E2E2E2E2E2E2E2E2E2E2E2E2E2E2E2E2E2E2E2E2E2E2E2E2E2E2E2E2E2E2E2E2E2E2E2E2E2E2E2E2E2E2E2E2E2E2E2E2E2E2E2E2E2E2E2E2E2E2E2E2E2E2E2E2E2E2E2E2E2E2E2E2E2
310
E2E2E2E2E2E2E2E2E2E2E2E2E2E2E2E2E2E2E2E2E2E2E2E2E2E2E2E2E2E2E2E2E2E2E2E2E2E2E2E2E2E2E2E2F5F5F5EFE2E2E2E2E2E2E2E2E2E2E2E2E2E2E2E2E2E2E2E2E2E2E2E2E2E2E2E2E2E2E2E2E2E2E2E2E2E2E2E2E2E2E2E2E2E2E2E2E2E2E2E2E2E2E2E2E2E2E2E2E2E2E2E2E2E2E2E2E2E2E2E2E2E2E2E2E2E2E2
310
E2E2E2E2E2E2E2E2E2E2E2E2E2E2E2E2E2E2E2E2E2E2E2E2E2E2E2E2E2E2E2E2E2E2E2E2E2E2E2E2E2E2E2E2E2E2E2E2E2E2E2E2E2E2E2E2E2E2E2E2E2E2E2E2E2E2E2E2E2E2E2E2E2E2E2E2E2E2E2E2E2E2E2E2E2E2E2E2E2E2E2E2E2E2E2E2E2E2E2E2E2E2E2E2E2E2E2E2E2E2E2E2E2E2E2E2E2E2E2E2E2E2E2E2E2E2E2
310
E2E2E2E2E2E2E2E2E2E2E2E2E2E2E2E2E2E2E2E2E2E2E2E2E2E2E2E2E2E2E2E2E2E2E2E2E2E2E2E2E2E2E2E2E2E2F5F5F5EFE2E2E2E2E2E2E2E2E2E2E2E2E2E2E2E2E2E2E2E2E2E2E2E2E2E2E2E2E2E2E2E2E2E2E2E2E2E2E2E2E2E2E2E2E2E2E2E2E2E2E2E2E2E2E2E2E2E2E2E2E2E2E2E2E2E2E2E2E2E2E2E2E2E2E2E2E2
310
E2E2E2E2E2E2E2E2E2E2E2E2E2E2E2E2E2E2E2E2E2E2E2E2E2E2E2E2E2E2E2E2E2E2E2E2E2E2E2E2E2E2E2E2E2E2E2E2E2E2E2E2E2E2E2E2E2E2E2E2E2E2E2E2E2E2E2E2E2E2E2E2E2E2E2E2E2E2E2E2E2E2E2E2E2E2E2E2E2E2E2E2E2E2E2E2E2E2E2E2E2E2E2E2E2E2E2E2E2E2E2E2E2E2E2E2E2E2E2E2E2E2E2E2E2E2E2
310
E2E2E2E2E2E2E2E2E2E2E2E2E2E2E2E2E2E2E2E2E2E2E2E2E2E2E2E2E2E2E2E2E2E2E2E2E2E2E2E2E2E2E2E2E2E2E2E2F5F5F5EFE2E2E2E2E2E2E2E2E2E2E2E2E2E2E2E2E2E2E2E2E2E2E2E2E2E2E2E2E2E2E2E2E2E2E2E2E2E2E2E2E2E2E2E2E2E2E2E2E2E2E2E2E2E2E2E2E2E2E2E2E2E2E2E2E2E2E2E2E2E2E2E2E2E2E2
310
E2E2E2E2E2E2E2E2E2E2E2E2E2E2E2E2E2E2E2E2E2E2E2E2E2E2E2E2E2E2E2E2E2E2E2E2E2E2E2E2E2E2E2E2E2E2E2E2E2E2E2E2E2E2E2E2E2E2E2E2E2E2E2E2E2E2E2E2E2E2E2E2E2E2E2E2E2E2E2E2E2E2E2E2E2E2E2E2E2E2E2E2E2E2E2E2E2E2E2E2E2E2E2E2E2E2E2E2E2E2E2E2E2E2E2E2E2E2E2E2E2E2E2E2E2E2E2
310
E2E2E2E2E2E2E2E2E2E2E2E2E2E2E2E2E2E2E2E2E2E2E2E2E2E2E2E2E2E2E2E2E2E2E2E2E2E2E2E2E2E2E2E2E2E2E2E2E2E2F5F5F5EFE2E2E2E2E2F5E2E2E2E2E2E2E2E2E2E2E2E2E2E2E2E2E2E2E2E2E2E2E2E2E2E2E2E2E2E2E2E2E2E2E2E2E2E2E2E2E2E2E2E2E2E2E2E2E2E2E2E2E2E2E2E2E2E2E2E2E2E2E2E2E2E2E2
310
E2E2E2E2E2E2E2E2E2E2E2E2E2E2E2E2E2E2E2E2E2E2E2E2E2E2E2E2E2E2E2E2E2E2E2E2E2E2E2E2E2E2E2E2E2E2E2E2E2E2E2E2E2E2E2E2E2E2E2E2E2E2E2E2E2E2E2E2E2E2E2E2E2E2E2E2E2E2E2E2E2E2E2E2E2E2E2E2E2E2E2E2E2E2E2E2E2E2E2E2E2E2E2E2E2E2E2E2E2E2E2E2E2E2E2E2E2E2E2E2E2E2E2E2E2E2E2
310
E2E2E2E2E2E2E2E2E2E2E2E2E2E2E2E2E2E2E2E2E2E2E2E2E2E2E2E2E2E2E2E2E2E2E2E2E2E2E2E2E2E2E2E2E2E2F5E2E2E2E2E2F5F5F5EFE2E2E2E2E2F5E2E2E2E2E2E2E2E2E2E2E2E2E2E2E2E2E2E2E2E2E2E2E2E2E2E2E2E2E2E2E2E2E2E2E2E2E2E2E2E2E2E2E2E2E2E2E2E2E2E2E2E2E2E2E2E2E2E2E2E2E2E2E2E2E2
310
E2E2E2E2E2E2E2E2E2E2E2E2E2E2E2E2E2E2E2E2E2E2E2E2E2E2E2E2E2E2E2E2E2E2E2E2E2E2E2E2E2E2E2E2E2E2E2E2E2E2E2E2E2E2E2E2E2E2E2E2E2E2E2E2E2E2E2E2E2E2E2E2E2E2E2E2E2E2E2E2E2E2E2E2E2E2E2E2E2E2E2E2E2E2E2E2E2E2E2E2E2E2E2E2E2E2E2E2E2E2E2E2E2E2E2E2E2E2E2E2E2E2E2E2E2E2E2
310
E2E2E2E2E2E2E2E2E2E2E2E2E2E2E2E2E2E2E2E2E2E2E2E2E2E2E2E2E2E2E2E2E2E2E2E2E2E2E2E2E2E2E2E2E2E2E2E2F5E2E2E2E2E2F5F5F5EFE2E2E2E2E2F5E2E2E2E2E2E2E2E2E2E2E2E2E2E2E2E2E2E2E2E2E2E2E2E2E2E2E2E2E2E2E2E2E2E2E2E2E2E2E2E2E2E2E2E2E2E2E2E2E2E2E2E2E2E2E2E2E2E2E2E2E2E2E2
310
E2E2E2E2E2E2E2E2E2E2E2E2E2E2E2E2E2E2E2E2E2E2E2E2E2E2E2E2E2E2E2E2E2E2E2E2E2E2E2E2E2E2E2E2E2E2E2E2E2E2E2E2E2E2E2E2E2E2E2E2E2E2E2E2E2E2E2E2E2E2E2E2E2E2E2E2E2E2E2E2E2E2E2E2E2E2E2E2E2E2E2E2E2E2E2E2E2E2E2E2E2E2E2E2E2E2E2E2E2E2E2E2E2E2E2E2E2E2E2E2E2E2E2E2E2E2E2
310
E2E2E2E2E2E2E2E2E2E2E2E2E2E2E2E2E2E2E2E2E2E2E2E2E2E2E2E2E2E2E2E2E2E2E2E2E2E2E2E2E2E2E2E2E2E2E2E2E2E2F5E2E2E2E2E2F5F5F5EFE2E2E2E2E2F5E2E2E2E2E2E2E2E2E2E2E2E2E2E2E2E2E2E2E2E2E2E2E2E2E2E2E2E2E2E2E2E2E2E2E2E2E2E2E2E2E2E2E2E2E2E2E2E2E2E2E2E2E2E2E2E2E2E2E2E2E2
310
E2E2E2E2E2E2E2E2E2E2E2E2E2E2E2E2E2E2E2E2E2E2E2E2E2E2E2E2E2E2E2E2E2E2E2E2E2E2E2E2E2E2E2E2E2E2E2E2E2E2E2E2E2E2E2E2E2E2E2E2E2E2E2E2E2E2E2E2E2E2E2E2E2E2E2E2E2E2E2E2E2E2E2E2E2E2E2E2E2E2E2E2E2E2E2E2E2E2E2E2E2E2E2E2E2E2E2E2E2E2E2E2E2E2E2E2E2E2E2E2E2E2E2E2E2E2E2
310
E2E2E2E2E2E2E2E2E2E2E2E2E2E2E2E2E2E2E2E2E2E2E2E2E2E2E2E2E2E2E2E2E2E2E2E2E2E2E2E2E2E2E2E2E2E2E2E2E2E2E2E2F5E2E2E2E2E2F5F5F5EFE2E2E2E2E2F5E2E2E2E2E2E2E2E2E2E2E2E2E2E2E2E2E2E2E2E2E2E2E2E2E2E2E2E2E2E2E2E2E2E2E2E2E2E2E2E2E2E2E2E2E2E2E2E2E2E2E2E2E2E2E2E2E2E2E2
310
E2E2E2E2E2E2E2E2E2E2E2E2E2E2E2E2E2E2E2E2E2E2E2E2E2E2E2E2E2E2E2E2E2E2E2E2E2E2E2E2E2E2E2E2E2E2E2E2E2E2E2E2E2E2E2E2E2E2E2E2E2E2E2E2E2E2E2E2E2E2E2E2E2E2E2E2E2E2E2E2E2E2E2E2E2E2E2E2E2E2E2E2E2E2E2E2E2E2E2E2E2E2E2E2E2E2E2E2E2E2E2E2E2E2E2E2E2E2E2E2E2E2E2E2E2E2E2
310
E2E2E2E2E2E2E2E2E2E2E2E2E2E2E2E2E2E2E2E2E2E2E2E2E2E2E2E2E2E2E2E2E2E2E2E2E2E2E2E2E2E2E2E2E2E2E2E2E2E2E2E2E2E2F5E2E2E2E2E2F5F5F5EFE2E2E2E2E2F5E2E2E2E2E2E2E2E2E2E2E2E2E2E2E2E2E2E2E2E2E2E2E2E2E2E2E2E2E2E2E2E2E2E2E2E2E2E2E2E2E2E2E2E2E2E2E2E2E2E2E2E2E2E2E2E2E2
310
E2E2E2E2E2E2E2E2E2E2E2E2E2E2E2E2E2E2E2E2E2E2E2E2E2E2E2E2E2E2E2E2E2E2E2E2E2E2E2E2E2E2E2E2E2E2E2E2E2E2E2E2E2E2E2E2E2E2E2E2E2E2E2E2E2E2E2E2E2E2E2E2E2E2E2E2E2E2E2E2E2E2E2E2E2E2E2E2E2E2E2E2E2E2E2E2E2E2E2E2E2E2E2E2E2E2E2E2E2E2E2E2E2E2E2E2E2E2E2E2E2E2E2E2E2E2E2
310
E2E2E2E2E2E2E2E2E2E2E2E2E2E2E2E2E2E2E2E2E2E2E2E2E2E2E2E2E2E2E2E2E2E2E2E2E2E2E2E2E2E2E2E2E2E2E2E2E2E2E2E2E2E2E2E2F5E2E2E2E2E2F5F5F5EFE2E2E2E2E2F5E2E2E2E2E2E2E2E2E2E2E2E2E2E2E2E2E2E2E2E2E2E2E2E2E2E2E2E2E2E2E2E2E2E2E2E2E2E2E2E2E2E2E2E2E2E2E2E2E2E2E2E2E2E2E2
310
E2E2E2E2E2E2E2E2E2E2E2E2E2E2E2E2E2E2E2E2E2E2E2E2E2E2E2E2E2E2E2E2E2E2E2E2E2E2E2E2E2E2E2E2E2E2E2E2E2E2E2E2E2E2E2E2E2E2E2E2E2E2E2E2E2E2E2E2E2E2E2E2E2E2E2E2E2E2E2E2E2E2E2E2E2E2E2E2E2E2E2E2E2E2E2E2E2E2E2E2E2E2E2E2E2E2E2E2E2E2E2E2E2E2E2E2E2E2E2E2E2E2E2E2E2E2E2
310
E2E2E2E2E2E2E2E2E2E2E2E2E2E2E2E2E2E2E2E2E2E2E2E2E2E2E2E2E2E2E2E2E2E2E2E2E2E2E2E2E2E2E2E2E2E2E2E2E2E2E2E2E2E2E2E2E2E2F5E2E2E2E2E2F5F5F5EFE2E2E2E2E2F5E2E2E2E2E2E2E2E2E2E2E2E2E2E2E2E2E2E2E2E2E2E2E2E2E2E2E2E2E2E2E2E2E2E2E2E2E2E2E2E2E2E2E2E2E2E2E2E2E2E2E2E2E2
310
E2E2E2E2E2E2E2E2E2E2E2E2E2E2E2E2E2E2E2E2E2E2E2E2E2E2E2E2E2E2E2E2E2E2E2E2E2E2E2E2E2E2E2E2E2E2E2E2E2E2E2E2E2E2E2E2E2E2E2E2E2E2E2E2E2E2E2E2E2E2E2E2E2E2E2E2E2E2E2E2E2E2E2E2E2E2E2E2E2E2E2E2E2E2E2E2E2E2E2E2E2E2E2E2E2E2E2E2E2E2E2E2E2E2E2E2E2E2E2E2E2E2E2E2E2E2E2
310
E2E2E2E2E2E2E2E2E2E2E2E2E2E2E2E2E2E2E2E2E2E2E2E2E2E2E2E2E2E2E2E2E2E2E2E2E2E2E2E2E2E2E2E2E2E2E2E2E2E2E2E2E2E2E2E2E2E2E2E2F5E2E2E2E2E2F5F5F5EFE2E2E2E2E2F5E2E2E2E2E2E2E2E2E2E2E2E2E2E2E2E2E2E2E2E2E2E2E2E2E2E2E2E2E2E2E2E2E2E2E2E2E2E2E2E2E2E2E2E2E2E2E2E2E2E2E2
310
E2E2E2E2E2E2E2E2E2E2E2E2E2E2E2E2E2E2E2E2E2E2E2E2E2E2E2E2E2E2E2E2E2E2E2E2E2E2E2E2E2E2E2E2E2E2E2E2E2E2E2E2E2E2E2E2E2E2E2E2E2E2E2E2E2E2E2E2E2E2E2E2E2E2E2E2E2E2E2E2E2E2E2E2E2E2E2E2E2E2E2E2E2E2E2E2E2E2E2E2E2E2E2E2E2E2E2E2E2E2E2E2E2E2E2E2E2E2E2E2E2E2E2E2E2E2E2
310
E2E2E2E2E2E2E2E2E2E2E2E2E2E2E2E2E2E2E2E2E2E2E2E2E2E2E2E2E2E2E2E2E2E2E2E2E2E2E2E2E2E2E2E2E2E2E2E2E2E2E2E2E2E2E2E2E2E2E2E2E2E2F5E2E2E2E2E2F5F5F5EFE2E2E2E2E2F5E2E2E2E2E2E2E2E2E2E2E2E2E2E2E2E2E2E2E2E2E2E2E2E2E2E2E2E2E2E2E2E2E2E2E2E2E2E2E2E2E2E2E2E2E2E2E2E2E2
310
E2E2E2E2E2E2E2E2E2E2E2E2E2E2E2E2E2E2E2E2E2E2E2E2E2E2E2E2E2E2E2E2E2E2E2E2E2E2E2E2E2E2E2E2E2E2E2E2E2E2E2E2E2E2E2E2E2E2E2E2E2E2E2E2E2E2E2E2E2E2E2E2E2E2E2E2E2E2E2E2E2E2E2E2E2E2E2E2E2E2E2E2E2E2E2E2E2E2E2E2E2E2E2E2E2E2E2E2E2E2E2E2E2E2E2E2E2E2E2E2E2E2E2E2E2E2E2
310
E2E2E2E2E2E2E2E2E2E2E2E2E2E2E2E2E2E2E2E2E2E2E2E2E2E2E2E2E2E2E2E2E2E2E2E2E2E2E2E2E2E2E2E2E2E2E2E2E2E2E2E2E2E2E2E2E2E2E2E2E2E2E2E2F5E2E2E2E2E2F5F5F5EFE2E2E2E2E2F5E2E2E2E2E2E2E2E2E2E2E2E2E2E2E2E2E2E2E2E2E2E2E2E2E2E2E2E2E2E2E2E2E2E2E2E2E2E2E2E2E2E2E2E2E2E2E2
310
E2E2E2E2E2E2E2E2E2E2E2E2E2E2E2E2E2E2E2E2E2E2E2E2E2E2E2E2E2E2E2E2E2E2E2E2E2E2E2E2E2E2E2E2E2E2E2E2E2E2E2E2E2E2E2E2E2E2E2E2E2E2E2E2E2E2E2E2E2E2E2E2E2E2E2E2E2E2E2E2E2E2E2E2E2E2E2E2E2E2E2E2E2E2E2E2E2E2E2E2E2E2E2E2E2E2E2E2E2E2E2E2E2E2E2E2E2E2E2E2E2E2E2E2E2E2E2
310
E2E2E2E2E2E2E2E2E2E2E2E2E2E2E2E2E2E2E2E2E2E2E2E2E2E2E2E2E2E2E2E2E2E2E2E2E2E2E2E2E2E2E2E2E2E2E2E2E2E2E2E2E2E2E2E2E2E2E2E2E2E2E2E2E2E2F5E2E2E2E2E2F5F5F5EFE2E2E2E2E2F5E2E2E2E2E2E2E2E2E2E2E2E2E2E2E2E2E2E2E2E2E2E2E2E2E2E2E2E2E2E2E2E2E2E2E2E2E2E2E2E2E2E2E2E2E2
310
E2E2E2E2E2E2E2E2E2E2E2E2E2E2E2E2E2E2E2E2E2E2E2E2E2E2E2E2E2E2E2E2E2E2E2E2E2E2E2E2E2E2E2E2E2E2E2E2E2E2E2E2E2E2E2E2E2E2E2E2E2E2E2E2E2E2E2E2E2E2E2E2E2E2E2E2E2E2E2E2E2E2E2E2E2E2E2E2E2E2E2E2E2E2E2E2E2E2E2E2E2E2E2E2E2E2E2E2E2E2E2E2E2E2E2E2E2E2E2E2E2E2E2E2E2E2E2
310
E2E2E2E2E2E2E2E2E2E2E2E2E2E2E2E2E2E2E2E2E2E2E2E2E2E2E2E2E2E2E2E2E2E2E2E2E2E2E2E2E2E2E2E2E2E2E2E2E2E2E2E2E2E2E2E2E2E2E2E2E2E2E2E2E2E2E2E2F5E2E2E2E2E2F5F5F5EFE2E2E2E2E2F5E2E2E2E2E2E2E2E2E2E2E2E2E2E2E2E2E2E2E2E2E2E2E2E2E2E2E2E2E2E2E2E2E2E2E2E2E2E2E2E2E2E2E2
310
E2E2E2E2E2E2E2E2E2E2E2E2E2E2E2E2E2E2E2E2E2E2E2E2E2E2E2E2E2E2E2E2E2E2E2E2E2E2E2E2E2E2E2E2E2E2E2E2E2E2E2E2E2E2E2E2E2E2E2E2E2E2E2E2E2E2E2E2E2E2E2E2E2E2E2E2E2E2E2E2E2E2E2E2E2E2E2E2E2E2E2E2E2E2E2E2E2E2E2E2E2E2E2E2E2E2E2E2E2E2E2E2E2E2E2E2E2E2E2E2E2E2E2E2E2E2E2
310
E2E2E2E2E2E2E2E2E2E2E2E2E2E2E2E2E2E2E2E2E2E2E2E2E2E2E2E2E2E2E2E2E2E2E2E2E2E2E2E2E2E2E2E2E2E2E2E2E2E2E2E2E2E2E2E2E2E2E2E2E2E2E2E2E2E2E2E2E2E2F5E2E2E2E2E2F5F5F5EFE2E2E2E2E2F5E2E2E2E2E2E2E2E2E2E2E2E2E2E2E2E2E2E2E2E2E2E2E2E2E2E2E2E2E2E2E2E2E2E2E2E2E2E2E2E2E2
310
E2E2E2E2E2E2E2E2E2E2E2E2E2E2E2E2E2E2E2E2E2E2E2E2E2E2E2E2E2E2E2E2E2E2E2E2E2E2E2E2E2E2E2E2E2E2E2E2E2E2E2E2E2E2E2E2E2E2E2E2E2E2E2E2E2E2E2E2E2E2E2E2E2E2E2E2E2E2E2E2E2E2E2E2E2E2E2E2E2E2E2E2E2E2E2E2E2E2E2E2E2E2E2E2E2E2E2E2E2E2E2E2E2E2E2E2E2E2E2E2E2E2E2E2E2E2E2
310
E2E2E2E2E2E2E2E2E2E2E2E2E2E2E2E2E2E2E2E2E2E2E2E2E2E2E2E2E2E2E2E2E2E2E2E2E2E2E2E2E2E2E2E2E2E2E2E2E2E2E2E2E2E2E2E2E2E2E2E2E2E2E2E2E2E2E2E2E2E2E2E2F5E2E2E2E2E2F5F5F5EFE2E2E2E2E2F5E2E2E2E2E2E2E2E2E2E2E2E2E2E2E2E2E2E2E2E2E2E2E2E2E2E2E2E2E2E2E2E2E2E2E2E2E2E2E2
310
E2E2E2E2E2E2E2E2E2E2E2E2E2E2E2E2E2E2E2E2E2E2E2E2E2E2E2E2E2E2E2E2E2E2E2E2E2E2E2E2E2E2E2E2E2E2E2E2E2E2E2E2E2E2E2E2E2E2E2E2E2E2E2E2E2E2E2E2E2E2E2E2E2E2E2E2E2E2E2E2E2E2E2E2E2E2E2E2E2E2E2E2E2E2E2E2E2E2E2E2E2E2E2E2E2E2E2E2E2E2E2E2E2E2E2E2E2E2E2E2E2E2E2E2E2E2E2
310
E2E2E2E2E2E2E2E2E2E2E2E2E2E2E2E2E2E2E2E2E2E2E2E2E2E2E2E2E2E2E2E2E2E2E2E2E2E2E2E2E2E2E2E2E2E2E2E2E2E2E2E2E2E2E2E2E2E2E2E2E2E2E2E2E2E2E2E2E2E2E2E2E2E2F5E2E2E2E2E2F5F5F5EFE2E2E2E2E2F5E2E2E2E2E2E2E2E2E2E2E2E2E2E2E2E2E2E2E2E2E2E2E2E2E2E2E2E2E2E2E2E2E2E2E2E2E2
310
E2E2E2E2E2E2E2E2E2E2E2E2E2E2E2E2E2E2E2E2E2E2E2E2E2E2E2E2E2E2E2E2E2E2E2E2E2E2E2E2E2E2E2E2E2E2E2E2E2E2E2E2E2E2E2E2E2E2E2E2E2E2E2E2E2E2E2E2E2E2E2E2E2E2E2E2E2E2E2E2E2E2E2E2E2E2E2E2E2E2E2E2E2E2E2E2E2E2E2E2E2E2E2E2E2E2E2E2E2E2E2E2E2E2E2E2E2E2E2E2E2E2E2E2E2E2E2
310
E2E2E2E2E2E2E2E2E2E2E2E2E2E2E2E2E2E2E2E2E2E2E2E2E2E2E2E2E2E2E2E2E2E2E2E2E2E2E2E2E2E2E2E2E2E2E2E2E2E2E2E2E2E2E2E2E2E2E2E2E2E2E2E2E2E2E2E2E2E2E2E2E2E2E2E2F5E2E2E2E2E2F5F5F5EFE2E2E2E2E2F5E2E2E2E2E2E2E2E2E2E2E2E2E2E2E2E2E2E2E2E2E2E2E2E2E2E2E2E2E2E2E2E2E2E2E2
310
E2E2E2E2E2E2E2E2E2E2E2E2E2E2E2E2E2E2E2E2E2E2E2E2E2E2E2E2E2E2E2E2E2E2E2E2E2E2E2E2E2E2E2E2E2E2E2E2E2E2E2E2E2E2E2E2E2E2E2E2E2E2E2E2E2E2E2E2E2E2E2E2E2E2E2E2E2E2E2E2E2E2E2E2E2E2E2E2E2E2E2E2E2E2E2E2E2E2E2E2E2E2E2E2E2E2E2E2E2E2E2E2E2E2E2E2E2E2E2E2E2E2E2E2E2E2E2
310
E2E2E2E2E2E2E2E2E2E2E2E2E2E2E2E2E2E2E2E2E2E2E2E2E2E2E2E2E2E2E2E2E2E2E2E2E2E2E2E2E2E2E2E2E2E2E2E2E2E2E2E2E2E2E2E2E2E2E2E2E2E2E2E2E2E2E2E2E2E2E2E2E2E2E2E2E2E2F5E2E2E2E2E2F5F5F5EFE2E2E2E2E2E2E2E2E2E2E2E2E2E2E2E2E2E2E2E2E2E2E2E2E2E2E2E2E2E2E2E2E2E2E2E2E2E2E2
310
E2E2E2E2E2E2E2E2E2E2E2E2E2E2E2E2E2E2E2E2E2E2E2E2E2E2E2E2E2E2E2E2E2E2E2E2E2E2E2E2E2E2E2E2E2E2E2E2E2E2E2E2E2E2E2E2E2E2E2E2E2E2E2E2E2E2E2E2E2E2E2E2E2E2E2E2E2E2E2E2E2E2E2E2E2E2E2E2E2E2E2E2E2E2E2E2E2E2E2E2E2E2E2E2E2E2E2E2E2E2E2E2E2E2E2E2E2E2E2E2E2E2E2E2E2E2E2
310
E2E2E2E2E2E2E2E2E2E2E2E2E2E2E2E2E2E2E2E2E2E2E2E2E2E2E2E2E2E2E2E2E2E2E2E2E2E2E2E2E2E2E2E2E2E2E2E2E2E2E2E2E2E2E2E2E2E2E2E2E2E2E2E2E2E2E2E2E2E2E2E2E2E2E2E2E2E2E2E2E2E2E2E2E2E2F5F5F5EFE2E2E2E2E2E2E2E2E2E2E2E2E2E2E2E2E2E2E2E2E2E2E2E2E2E2E2E2E2E2E2E2E2E2E2E2E2
310
E2E2E2E2E2E2E2E2E2E2E2E2E2E2E2E2E2E2E2E2E2E2E2E2E2E2E2E2E2E2E2E2E2E2E2E2E2E2E2E2E2E2E2E2E2E2E2E2E2E2E2E2E2E2E2E2E2E2E2E2E2E2E2E2E2E2E2E2E2E2E2E2E2E2E2E2E2E2E2E2E2E2E2E2E2E2E2E2E2E2E2E2E2E2E2E2E2E2E2E2E2E2E2E2E2E2E2E2E2E2E2E2E2E2E2E2E2E2E2E2E2E2E2E2E2E2E2
310
E2E2E2E2E2E2E2E2E2E2E2E2E2E2E2E2E2E2E2E2E2E2E2E2E2E2E2E2E2E2E2E2E2E2E2E2E2E2E2E2E2E2E2E2E2E2E2E2E2E2E2E2E2E2E2E2E2E2E2E2E2E2E2E2E2E2E2E2E2E2E2E2E2E2E2E2E2E2E2E2E2E2E2E2E2E2E2E2F5F5F5EFE2E2E2E2E2E2E2E2E2E2E2E2E2E2E2E2E2E2E2E2E2E2E2E2E2E2E2E2E2E2E2E2E2E2E2
310
E2E2E2E2E2E2E2E2E2E2E2E2E2E2E2E2E2E2E2E2E2E2E2E2E2E2E2E2E2E2E2E2E2E2E2E2E2E2E2E2E2E2E2E2E2E2E2E2E2E2E2E2E2E2E2E2E2E2E2E2E2E2E2E2E2E2E2E2E2E2E2E2E2E2E2E2E2E2E2E2E2E2E2E2E2E2E2E2E2E2E2E2E2E2E2E2E2E2E2E2E2E2E2E2E2E2E2E2E2E2E2E2E2E2E2E2E2E2E2E2E2E2E2E2E2E2E2
310
E2E2E2E2E2E2E2E2E2E2E2E2E2E2E2E2E2E2E2E2E2E2E2E2E2E2E2E2E2E2E2E2E2E2E2E2E2E2E2E2E2E2E2E2E2E2E2E2E2E2E2E2E2E2E2E2E2E2E2E2E2E2E2E2E2E2E2E2E2E2E2E2E2E2E2E2E2E2E2E2E2E2E2E2E2E2E2E2E2E2F5F5F5EFE2E2E2E2E2E2E2E2E2E2E2E2E2E2E2E2E2E2E2E2E2E2E2E2E2E2E2E2E2E2E2E2E2
310
E2E2E2E2E2E2E2E2E2E2E2E2E2E2E2E2E2E2E2E2E2E2E2E2E2E2E2E2E2E2E2E2E2E2E2E2E2E2E2E2E2E2E2E2E2E2E2E2E2E2E2E2E2E2E2E2E2E2E2E2E2E2E2E2E2E2E2E2E2E2E2E2E2E2E2E2E2E2E2E2E2E2E2E2E2E2E2E2E2E2E2E2E2E2E2E2E2E2E2E2E2E2E2E2E2E2E2E2E2E2E2E2E2E2E2E2E2E2E2E2E2E2E2E2E2E2E2
310
E2E2E2E2E2E2E2E2E2E2E2E2E2E2E2E2E2E2E2E2E2E2E2E2E2E2E2E2E2E2E2E2E2E2E2E2E2E2E2E2E2E2E2E2E2E2E2E2E2E2E2E2E2E2E2E2E2E2E2E2E2E2E2E2E2E2E2E2E2E2E2E2E2E2E2E2E2E2E2E2E2E2E2E2E2E2E2E2E2E2E2E2F5F5F5EFE2E2E2E2E2E2E2E2E2E2E2E2E2E2E2E2E2E2E2E2E2E2E2E2E2E2E2E2E2E2E2
310
E2E2E2E2E2E2E2E2E2E2E2E2E2E2E2E2E2E2E2E2E2E2E2E2E2E2E2E2E2E2E2E2E2E2E2E2E2E2E2E2E2E2E2E2E2E2E2E2E2E2E2E2E2E2E2E2E2E2E2E2E2E2E2E2E2E2E2E2E2E2E2E2E2E2E2E2E2E2E2E2E2E2E2E2E2E2E2E2E2E2E2E2E2E2E2E2E2E2E2E2E2E2E2E2E2E2E2E2E2E2E2E2E2E2E2E2E2E2E2E2E2E2E2E2E2E2E2
310
E2E2E2E2E2E2E2E2E2E2E2E2E2E2E2E2E2E2E2E2E2E2E2E2E2E2E2E2E2E2E2E2E2E2E2E2E2E2E2E2E2E2E2E2E2E2E2E2E2E2E2E2E2E2E2E2E2E2E2E2E2E2E2E2E2E2E2E2E2E2E2E2E2E2E2E2E2E2E2E2E2E2E2E2E2E2E2E2E2E2E2E2E2E2F5F5F5EFE2E2E2E2E2E2E2E2E2E2E2E2E2E2E2E2E2E2E2E2E2E2E2E2E2E2E2E2E2
310
E2E2E2E2E2E2E2E2E2E2E2E2E2E2E2E2E2E2E2E2E2E2E2E2E2E2E2E2E2E2E2E2E2E2E2E2E2E2E2E2E2E2E2E2E2E2E2E2E2E2E2E2E2E2E2E2E2E2E2E2E2E2E2E2E2E2E2E2E2E2E2E2E2E2E2E2E2E2E2E2E2E2E2E2E2E2E2E2E2E2E2E2E2E2E2E2E2E2E2E2E2E2E2E2E2E2E2E2E2E2E2E2E2E2E2E2E2E2E2E2E2E2E2E2E2E2E2
310
E2E2E2E2E2E2E2E2E2E2E2E2E2E2E2E2E2E2E2E2E2E2E2E2E2E2E2E2E2E2E2E2E2E2E2E2E2E2E2E2E2E2E2E2E2E2E2E2E2E2E2E2E2E2E2E2E2E2E2E2E2E2E2E2E2E2E2E2E2E2E2E2E2E2E2E2E2E2E2E2E2E2E2E2E2E2E2E2E2E2E2E2E2E2E2E2F5F5F5EFE2E2E2E2E2E2E2E2E2E2E2E2E2E2E2E2E2E2E2E2E2E2E2E2E2E2E2
310
E2E2E2E2E2E2E2E2E2E2E2E2E2E2E2E2E2E2E2E2E2E2E2E2E2E2E2E2E2E2E2E2E2E2E2E2E2E2E2E2E2E2E2E2E2E2E2E2E2E2E2E2E2E2E2E2E2E2E2E2E2E2E2E2E2E2E2E2E2E2E2E2E2E2E2E2E2E2E2E2E2E2E2E2E2E2E2E2E2E2E2E2E2E2E2E2E2E2E2E2E2E2E2E2E2E2E2E2E2E2E2E2E2E2E2E2E2E2E2E2E2E2E2E2E2E2E2
310
E2E2E2E2E2E2E2E2E2E2E2E2E2E2E2E2E2E2E2E2E2E2E2E2E2E2E2E2E2E2E2E2E2E2E2E2E2E2E2E2E2E2E2E2E2E2E2E2E2E2E2E2E2E2E2E2E2E2E2E2E2E2E2E2E2E2E2E2E2E2E2E2E2E2E2E2E2E2E2E2E2E2E2E2E2E2E2E2E2E2E2E2E2E2E2E2E2E2F5F5F5EFE2E2E2E2E2E2E2E2E2E2E2E2E2E2E2E2E2E2E2E2E2E2E2E2E2
310
E2E2E2E2E2E2E2E2E2E2E2E2E2E2E2E2E2E2E2E2E2E2E2E2E2E2E2E2E2E2E2E2E2E2E2E2E2E2E2E2E2E2E2E2E2E2E2E2E2E2E2E2E2E2E2E2E2E2E2E2E2E2E2E2E2E2E2E2E2E2E2E2E2E2E2E2E2E2E2E2E2E2E2E2E2E2E2E2E2E2E2E2E2E2E2E2E2E2E2E2E2E2E2E2E2E2E2E2E2E2E2E2E2E2E2E2E2E2E2E2E2E2E2E2E2E2E2
310
E2E2E2E2E2E2E2E2E2E2E2E2E2E2E2E2E2E2E2E2E2E2E2E2E2E2E2E2E2E2E2E2E2E2E2E2E2E2E2E2E2E2E2E2E2E2E2E2E2E2E2E2E2E2E2E2E2E2E2E2E2E2E2E2E2E2E2E2E2E2E2E2E2E2E2E2E2E2E2E2E2E2E2E2E2E2E2E2E2E2E2E2E2E2E2E2E2E2E2E2F5F5F5EFE2E2E2E2E2E2E2E2E2E2E2E2E2E2E2E2E2E2E2E2E2E2E2
310
E2E2E2E2E2E2E2E2E2E2E2E2E2E2E2E2E2E2E2E2E2E2E2E2E2E2E2E2E2E2E2E2E2E2E2E2E2E2E2E2E2E2E2E2E2E2E2E2E2E2E2E2E2E2E2E2E2E2E2E2E2E2E2E2E2E2E2E2E2E2E2E2E2E2E2E2E2E2E2E2E2E2E2E2E2E2E2E2E2E2E2E2E2E2E2E2E2E2E2E2E2E2E2E2E2E2E2E2E2E2E2E2E2E2E2E2E2E2E2E2E2E2E2E2E2E2E2
310
E2E2E2E2E2E2E2E2E2E2E2E2E2E2E2E2E2E2E2E2E2E2E2E2E2E2E2E2E2E2E2E2E2E2E2E2E2E2E2E2E2E2E2E2E2E2E2E2E2E2E2E2E2E2E2E2E2E2E2E2E2E2E2E2E2E2E2E2E2E2E2E2E2E2E2E2E2E2E2E2E2E2E2E2E2E2E2E2E2E2E2E2E2E2E2E2E2E2E2E2E2E2F5F5F5EFE2E2E2E2E2F5E2E2E2E2E2E2E2E2E2E2E2E2E2E2E2
310
E2E2E2E2E2E2E2E2E2E2E2E2E2E2E2E2E2E2E2E2E2E2E2E2E2E2E2E2E2E2E2E2E2E2E2E2E2E2E2E2E2E2E2E2E2E2E2E2E2E2E2E2E2E2E2E2E2E2E2E2E2E2E2E2E2E2E2E2E2E2E2E2E2E2E2E2E2E2E2E2E2E2E2E2E2E2E2E2E2E2E2E2E2E2E2E2E2E2E2E2E2E2E2E2E2E2E2E2E2E2E2E2E2E2E2E2E2E2E2E2E2E2E2E2E2E2E2
310
E2E2E2E2E2E2E2E2E2E2E2E2E2E2E2E2E2E2E2E2E2E2E2E2E2E2E2E2E2E2E2E2E2E2E2E2E2E2E2E2E2E2E2E2E2E2E2E2E2E2E2E2E2E2E2E2E2E2E2E2E2E2E2E2E2E2E2E2E2E2E2E2E2E2E2E2E2E2E2E2E2E2E2E2E2E2E2E2E2E2E2E2E2E2E2E2E2E2F5E2E2E2E2E2F5F5F5EFE2E2E2E2E2F5E2E2E2E2E2E2E2E2E2E2E2E2E2
310
E2E2E2E2E2E2E2E2E2E2E2E2E2E2E2E2E2E2E2E2E2E2E2E2E2E2E2E2E2E2E2E2E2E2E2E2E2E2E2E2E2E2E2E2E2E2E2E2E2E2E2E2E2E2E2E2E2E2E2E2E2E2E2E2E2E2E2E2E2E2E2E2E2E2E2E2E2E2E2E2E2E2E2E2E2E2E2E2E2E2E2E2E2E2E2E2E2E2E2E2E2E2E2E2E2E2E2E2E2E2E2E2E2E2E2E2E2E2E2E2E2E2E2E2E2E2E2
310
E2E2E2E2E2E2E2E2E2E2E2E2E2E2E2E2E2E2E2E2E2E2E2E2E2E2E2E2E2E2E2E2E2E2E2E2E2E2E2E2E2E2E2E2E2E2E2E2E2E2E2E2E2E2E2E2E2E2E2E2E2E2E2E2E2E2E2E2E2E2E2E2E2E2E2E2E2E2E2E2E2E2E2E2E2E2E2E2E2E2E2E2E2E2E2E2E2E2E2E2F5E2E2E2E2E2F5F5F5EFE2E2E2E2E2F5E2E2E2E2E2E2E2E2E2E2E2
310
E2E2E2E2E2E2E2E2E2E2E2E2E2E2E2E2E2E2E2E2E2E2E2E2E2E2E2E2E2E2E2E2E2E2E2E2E2E2E2E2E2E2E2E2E2E2E2E2E2E2E2E2E2E2E2E2E2E2E2E2E2E2E2E2E2E2E2E2E2E2E2E2E2E2E2E2E2E2E2E2E2E2E2E2E2E2E2E2E2E2E2E2E2E2E2E2E2E2E2E2E2E2E2E2E2E2E2E2E2E2E2E2E2E2E2E2E2E2E2E2E2E2E2E2E2E2E2
310
E2E2E2E2E2E2E2E2E2E2E2E2E2E2E2E2E2E2E2E2E2E2E2E2E2E2E2E2E2E2E2E2E2E2E2E2E2E2E2E2E2E2E2E2E2E2E2E2E2E2E2E2E2E2E2E2E2E2E2E2E2E2E2E2E2E2E2E2E2E2E2E2E2E2E2E2E2E2E2E2E2E2E2E2E2E2E2E2E2E2E2E2E2E2E2E2E2E2E2E2E2E2F5E2E2E2E2E2F5F5F5EFE2E2E2E2E2F5E2E2E2E2E2E2E2E2E2
310
E2E2E2E2E2E2E2E2E2E2E2E2E2E2E2E2E2E2E2E2E2E2E2E2E2E2E2E2E2E2E2E2E2E2E2E2E2E2E2E2E2E2E2E2E2E2E2E2E2E2E2E2E2E2E2E2E2E2E2E2E2E2E2E2E2E2E2E2E2E2E2E2E2E2E2E2E2E2E2E2E2E2E2E2E2E2E2E2E2E2E2E2E2E2E2E2E2E2E2E2E2E2E2E2E2E2E2E2E2E2E2E2E2E2E2E2E2E2E2E2E2E2E2E2E2E2E2
310
E2E2E2E2E2E2E2E2E2E2E2E2E2E2E2E2E2E2E2E2E2E2E2E2E2E2E2E2E2E2E2E2E2E2E2E2E2E2E2E2E2E2E2E2E2E2E2E2E2E2E2E2E2E2E2E2E2E2E2E2E2E2E2E2E2E2E2E2E2E2E2E2E2E2E2E2E2E2E2E2E2E2E2E2E2E2E2E2E2E2E2E2E2E2E2E2E2E2E2E2E2E2E2E2F5E2E2E2E2E2F5F5F5EFE2E2E2E2E2F5E2E2E2E2E2E2E2
310
E2E2E2E2E2E2E2E2E2E2E2E2E2E2E2E2E2E2E2E2E2E2E2E2E2E2E2E2E2E2E2E2E2E2E2E2E2E2E2E2E2E2E2E2E2E2E2E2E2E2E2E2E2E2E2E2E2E2E2E2E2E2E2E2E2E2E2E2E2E2E2E2E2E2E2E2E2E2E2E2E2E2E2E2E2E2E2E2E2E2E2E2E2E2E2E2E2E2E2E2E2E2E2E2E2E2E2E2E2E2E2E2E2E2E2E2E2E2E2E2E2E2E2E2E2E2E2
310
E2E2E2E2E2E2E2E2E2E2E2E2E2E2E2E2E2E2E2E2E2E2E2E2E2E2E2E2E2E2E2E2E2E2E2E2E2E2E2E2E2E2E2E2E2E2E2E2E2E2E2E2E2E2E2E2E2E2E2E2E2E2E2E2E2E2E2E2E2E2E2E2E2E2E2E2E2E2E2E2E2E2E2E2E2E2E2E2E2E2E2E2E2E2E2E2E2E2E2E2E2E2E2E2E2E2F5E2E2E2E2E2F5F5F5EFE2E2E2E2E2F5E2E2E2E2E2
310
E2E2E2E2E2E2E2E2E2E2E2E2E2E2E2E2E2E2E2E2E2E2E2E2E2E2E2E2E2E2E2E2E2E2E2E2E2E2E2E2E2E2E2E2E2E2E2E2E2E2E2E2E2E2E2E2E2E2E2E2E2E2E2E2E2E2E2E2E2E2E2E2E2E2E2E2E2E2E2E2E2E2E2E2E2E2E2E2E2E2E2E2E2E2E2E2E2E2E2E2E2E2E2E2E2E2E2E2E2E2E2E2E2E2E2E2E2E2E2E2E2E2E2E2E2E2E2
310
E2E2E2E2E2E2E2E2E2E2E2E2E2E2E2E2E2E2E2E2E2E2E2E2E2E2E2E2E2E2E2E2E2E2E2E2E2E2E2E2E2E2E2E2E2E2E2E2E2E2E2E2E2E2E2E2E2E2E2E2E2E2E2E2E2E2E2E2E2E2E2E2E2E2E2E2E2E2E2E2E2E2E2E2E2E2E2E2E2E2E2E2E2E2E2E2E2E2E2E2E2E2E2E2E2E2E2E2F5E2E2E2E2E2F5F5F5EFE2E2E2E2E2F5E2E2E2
310
E2E2E2E2E2E2E2E2E2E2E2E2E2E2E2E2E2E2E2E2E2E2E2E2E2E2E2E2E2E2E2E2E2E2E2E2E2E2E2E2E2E2E2E2E2E2E2E2E2E2E2E2E2E2E2E2E2E2E2E2E2E2E2E2E2E2E2E2E2E2E2E2E2E2E2E2E2E2E2E2E2E2E2E2E2E2E2E2E2E2E2E2E2E2E2E2E2E2E2E2E2E2E2E2E2E2E2E2E2E2E2E2E2E2E2E2E2E2E2E2E2E2E2E2E2E2E2
310
E2E2E2E2E2E2E2E2E2E2E2E2E2E2E2E2E2E2E2E2E2E2E2E2E2E2E2E2E2E2E2E2E2E2E2E2E2E2E2E2E2E2E2E2E2E2E2E2E2E2E2E2E2E2E2E2E2E2E2E2E2E2E2E2E2E2E2E2E2E2E2E2E2E2E2E2E2E2E2E2E2E2E2E2E2E2E2E2E2E2E2E2E2E2E2E2E2E2E2E2E2E2E2E2E2E2E2E2E2E2F5E2E2E2E2E2F5F5F5EFE2E2E2E2E2F5E2
310
E2E2E2E2E2E2E2E2E2E2E2E2E2E2E2E2E2E2E2E2E2E2E2E2E2E2E2E2E2E2E2E2E2E2E2E2E2E2E2E2E2E2E2E2E2E2E2E2E2E2E2E2E2E2E2E2E2E2E2E2E2E2E2E2E2E2E2E2E2E2E2E2E2E2E2E2E2E2E2E2E2E2E2E2E2E2E2E2E2E2E2E2E2E2E2E2E2E2E2E2E2E2E2E2E2E2E2E2E2E2E2E2E2E2E2E2E2E2E2E2E2E2E2E2E2E2E2
310
E2E2E2E2E2E2E2E2E2E2E2E2E2E2E2E2E2E2E2E2E2E2E2E2E2E2E2E2E2E2E2E2E2E2E2E2E2E2E2E2E2E2E2E2E2E2E2E2E2E2E2E2E2E2E2E2E2E2E2E2E2E2E2E2E2E2E2E2E2E2E2E2E2E2E2E2E2E2E2E2E2E2E2E2E2E2E2E2E2E2E2E2E2E2E2E2E2E2E2E2E2E2E2E2E2E2E2E2E2E2E2E2F5E2E2E2E2E2F5F5F5EFE2E2E2E2E2
310
F5E2E2E2E2E2E2E2E2E2E2E2E2E2E2E2E2E2E2E2E2E2E2E2E2E2E2E2E2E2E2E2E2E2E2E2E2E2E2E2E2E2E2E2E2E2E2E2E2E2E2E2E2E2E2E2E2E2E2E2E2E2E2E2E2E2E2E2E2E2E2E2E2E2E2E2E2E2E2E2E2E2E2E2E2E2E2E2E2E2E2E2E2E2E2E2E2E2E2E2E2E2E2E2E2E2E2E2E2E2E2E2E2E2E2E2E2E2E2E2E2E2E2E2E2E2E2
310
E2E2E2E2E2E2E2E2E2E2E2E2E2E2E2E2E2E2E2E2E2E2E2E2E2E2E2E2E2E2E2E2E2E2E2E2E2E2E2E2E2E2E2E2E2E2E2E2E2E2E2E2E2E2E2E2E2E2E2E2E2E2E2E2E2E2E2E2E2E2E2E2E2E2E2E2E2E2E2E2E2E2E2E2E2E2E2E2E2E2E2E2E2E2E2E2E2E2E2E2E2E2E2E2E2E2E2E2E2E2E2E2E2E2F5E2E2E2E2E2F5F5F5EFE2E2E2
310
E2E2F5E2E2E2E2E2E2E2E2E2E2E2E2E2E2E2E2E2E2E2E2E2E2E2E2E2E2E2E2E2E2E2E2E2E2E2E2E2E2E2E2E2E2E2E2E2E2E2E2E2E2E2E2E2E2E2E2E2E2E2E2E2E2E2E2E2E2E2E2E2E2E2E2E2E2E2E2E2E2E2E2E2E2E2E2E2E2E2E2E2E2E2E2E2E2E2E2E2E2E2E2E2E2E2E2E2E2E2E2E2E2E2E2E2E2E2E2E2E2E2E2E2E2E2E2
310
E2E2E2E2E2E2E2E2E2E2E2E2E2E2E2E2E2E2E2E2E2E2E2E2E2E2E2E2E2E2E2E2E2E2E2E2E2E2E2E2E2E2E2E2E2E2E2E2E2E2E2E2E2E2E2E2E2E2E2E2E2E2E2E2E2E2E2E2E2E2E2E2E2E2E2E2E2E2E2E2E2E2E2E2E2E2E2E2E2E2E2E2E2E2E2E2E2E2E2E2E2E2E2E2E2E2E2E2E2E2E2E2E2E2E2E2F5E2E2E2E2E2F5F5F5EFE2
310
E2E2E2E2F5E2E2E2E2E2E2E2E2E2E2E2E2E2E2E2E2E2E2E2E2E2E2E2E2E2E2E2E2E2E2E2E2E2E2E2E2E2E2E2E2E2E2E2E2E2E2E2E2E2E2E2E2E2E2E2E2E2E2E2E2E2E2E2E2E2E2E2E2E2E2E2E2E2E2E2E2E2E2E2E2E2E2E2E2E2E2E2E2E2E2E2E2E2E2E2E2E2E2E2E2E2E2E2E2E2E2E2E2E2E2E2E2E2E2E2E2E2E2E2E2E2E2
310
E2E2E2E2E2E2E2E2E2E2E2E2E2E2E2E2E2E2E2E2E2E2E2E2E2E2E2E2E2E2E2E2E2E2E2E2E2E2E2E2E2E2E2E2E2E2E2E2E2E2E2E2E2E2E2E2E2E2E2E2E2E2E2E2E2E2E2E2E2E2E2E2E2E2E2E2E2E2E2E2E2E2E2E2E2E2E2E2E2E2E2E2E2E2E2E2E2E2E2E2E2E2E2E2E2E2E2E2E2E2E2E2E2E2E2E2E2E2F5E2E2E2E2E2F5F5F5
310
EFE2E2E2E2E2F5E2E2E2E2E2E2E2E2E2E2E2E2E2E2E2E2E2E2E2E2E2E2E2E2E2E2E2E2E2E2E2E2E2E2E2E2E2E2E2E2E2E2E2E2E2E2E2E2E2E2E2E2E2E2E2E2E2E2E2E2E2E2E2E2E2E2E2E2E2E2E2E2E2E2E2E2E2E2E2E2E2E2E2E2E2E2E2E2E2E2E2E2E2E2E2E2E2E2E2E2E2E2E2E2E2E2E2E2E2E2E2E2E2E2E2E2E2E2E2E2
310
E2E2E2E2E2E2E2E2E2E2E2E2E2E2E2E2E2E2E2E2E2E2E2E2E2E2E2E2E2E2E2E2E2E2E2E2E2E2E2E2E2E2E2E2E2E2E2E2E2E2E2E2E2E2E2E2E2E2E2E2E2E2E2E2E2E2E2E2E2E2E2E2E2E2E2E2E2E2E2E2E2E2E2E2E2E2E2E2E2E2E2E2E2E2E2E2E2E2E2E2E2E2E2E2E2E2E2E2E2E2E2E2E2E2E2E2E2E2E2E2F5E2E2E2E2E2F5
310
F5F5EFE2E2E2E2E2F5E2E2E2E2E2E2E2E2E2E2E2E2E2E2E2E2E2E2E2E2E2E2E2E2E2E2E2E2E2E2E2E2E2E2E2E2E2E2E2E2E2E2E2E2E2E2E2E2E2E2E2E2E2E2E2E2E2E2E2E2E2E2E2E2E2E2E2E2E2E2E2E2E2E2E2E2E2E2E2E2E2E2E2E2E2E2E2E2E2E2E2E2E2E2E2E2E2E2E2E2E2E2E2E2E2E2E2E2E2E2E2E2E2E2E2E2E2E2
310
E2E2E2E2E2E2E2E2E2E2E2E2E2E2E2E2E2E2E2E2E2E2E2E2E2E2E2E2E2E2E2E2E2E2E2E2E2E2E2E2E2E2E2E2E2E2E2E2E2E2E2E2E2E2E2E2E2E2E2E2E2E2E2E2E2E2E2E2E2E2E2E2E2E2E2E2E2E2E2E2E2E2E2E2E2E2E2E2E2E2E2E2E2E2E2E2E2E2E2E2E2E2E2E2E2E2E2E2E2E2E2E2E2E2E2E2E2E2E2E2E2E2F5E2E2E2E2
310
E2F5F5F5EFE2E2E2E2E2F5E2E2E2E2E2E2E2E2E2E2E2E2E2E2E2E2E2E2E2E2E2E2E2E2E2E2E2E2E2E2E2E2E2E2E2E2E2E2E2E2E2E2E2E2E2E2E2E2E2E2E2E2E2E2E2E2E2E2E2E2E2E2E2E2E2E2E2E2E2E2E2E2E2E2E2E2E2E2E2E2E2E2E2E2E2E2E2E2E2E2E2E2E2E2E2E2E2E2E2E2E2E2E2E2E2E2E2E2E2E2E2E2E2E2E2E2
310
E2E2E2E2E2E2E2E2E2E2E2E2E2E2E2E2E2E2E2E2E2E2E2E2E2E2E2E2E2E2E2E2E2E2E2E2E2E2E2E2E2E2E2E2E2E2E2E2E2E2E2E2E2E2E2E2E2E2E2E2E2E2E2E2E2E2E2E2E2E2E2E2E2E2E2E2E2E2E2E2E2E2E2E2E2E2E2E2E2E2E2E2E2E2E2E2E2E2E2E2E2E2E2E2E2E2E2E2E2E2E2E2E2E2E2E2E2E2E2E2E2E2E2E2F5E2E2
310
E2E2E2F5F5F5EFE2E2E2E2E2F5E2E2E2E2E2E2E2E2E2E2E2E2E2E2E2E2E2E2E2E2E2E2E2E2E2E2E2E2E2E2E2E2E2E2E2E2E2E2E2E2E2E2E2E2E2E2E2E2E2E2E2E2E2E2E2E2E2E2E2E2E2E2E2E2E2E2E2E2E2E2E2E2E2E2E2E2E2E2E2E2E2E2E2E2E2E2E2E2E2E2E2E2E2E2E2E2E2E2E2E2E2E2E2E2E2E2E2E2E2E2E2E2E2E2
310
E2E2E2E2E2E2E2E2E2E2E2E2E2E2E2E2E2E2E2E2E2E2E2E2E2E2E2E2E2E2E2E2E2E2E2E2E2E2E2E2E2E2E2E2E2E2E2E2E2E2E2E2E2E2E2E2E2E2E2E2E2E2E2E2E2E2E2E2E2E2E2E2E2E2E2E2E2E2E2E2E2E2E2E2E2E2E2E2E2E2E2E2E2E2E2E2E2E2E2E2E2E2E2E2E2E2E2E2E2E2E2E2E2E2E2E2E2E2E2E2E2E2E2E2E2E2F5
310
E2E2E2E2E2F5F5F5EFE2E2E2E2E2F5E2E2E2E2E2E2E2E2E2E2E2E2E2E2E2E2E2E2E2E2E2E2E2E2E2E2E2E2E2E2E2E2E2E2E2E2E2E2E2E2E2E2E2E2E2E2E2E2E2E2E2E2E2E2E2E2E2E2E2E2E2E2E2E2E2E2E2E2E2E2E2E2E2E2E2E2E2E2E2E2E2E2E2E2E2E2E2E2E2E2E2E2E2E2E2E2E2E2E2E2E2E2E2E2E2E2E2E2E2E2E2E2
310
E2E2E2E2E2E2E2E2E2E2E2E2E2E2E2E2E2E2E2E2E2E2E2E2E2E2E2E2E2E2E2E2E2E2E2E2E2E2E2E2E2E2E2E2E2E2E2E2E2E2E2E2E2E2E2E2E2E2E2E2E2E2E2E2E2E2E2E2E2E2E2E2E2E2E2E2E2E2E2E2E2E2E2E2E2E2E2E2E2E2E2E2E2E2E2E2E2E2E2E2E2E2E2E2E2E2E2E2E2E2E2E2E2E2E2E2E2E2E2E2E2E2E2E2E2E2E2
310
E2F5E2E2E2E2E2F5F5F5EFE2E2E2E2E2F5E2E2E2E2E2E2E2E2E2E2E2E2E2E2E2E2E2E2E2E2E2E2E2E2E2E2E2E2E2E2E2E2E2E2E2E2E2E2E2E2E2E2E2E2E2E2E2E2E2E2E2E2E2E2E2E2E2E2E2E2E2E2E2E2E2E2E2E2E2E2E2E2E2E2E2E2E2E2E2E2E2E2E2E2E2E2E2E2E2E2E2E2E2E2E2E2E2E2E2E2E2E2E2E2E2E2E2E2E2E2
310
E2E2E2E2E2E2E2E2E2E2E2E2E2E2E2E2E2E2E2E2E2E2E2E2E2E2E2E2E2E2E2E2E2E2E2E2E2E2E2E2E2E2E2E2E2E2E2E2E2E2E2E2E2E2E2E2E2E2E2E2E2E2E2E2E2E2E2E2E2E2E2E2E2E2E2E2E2E2E2E2E2E2E2E2E2E2E2E2E2E2E2E2E2E2E2E2E2E2E2E2E2E2E2E2E2E2E2E2E2E2E2E2E2E2E2E2E2E2E2E2E2E2E2E2E2E2E2
310
E2E2E2F5E2E2E2E2E2F5F5F5EFE2E2E2E2E2E2E2E2E2E2E2E2E2E2E2E2E2E2E2E2E2E2E2E2E2E2E2E2E2E2E2E2E2E2E2E2E2E2E2E2E2E2E2E2E2E2E2E2E2E2E2E2E2E2E2E2E2E2E2E2E2E2E2E2E2E2E2E2E2E2E2E2E2E2E2E2E2E2E2E2E2E2E2E2E2E2E2E2E2E2E2E2E2E2E2E2E2E2E2E2E2E2E2E2E2E2E2E2E2E2E2E2E2E2
310
E2E2E2E2E2E2E2E2E2E2E2E2E2E2E2E2E2E2E2E2E2E2E2E2E2E2E2E2E2E2E2E2E2E2E2E2E2E2E2E2E2E2E2E2E2E2E2E2E2E2E2E2E2E2E2E2E2E2E2E2E2E2E2E2E2E2E2E2E2E2E2E2E2E2E2E2E2E2E2E2E2E2E2E2E2E2E2E2E2E2E2E2E2E2E2E2E2E2E2E2E2E2E2E2E2E2E2E2E2E2E2E2E2E2E2E2E2E2E2E2E2E2E2E2E2E2E2
310
E2E2E2E2E2E2E2E2E2E2E2F5F5F5EFE2E2E2E2E2E2E2E2E2E2E2E2E2E2E2E2E2E2E2E2E2E2E2E2E2E2E2E2E2E2E2E2E2E2E2E2E2E2E2E2E2E2E2E2E2E2E2E2E2E2E2E2E2E2E2E2E2E2E2E2E2E2E2E2E2E2E2E2E2E2E2E2E2E2E2E2E2E2E2E2E2E2E2E2E2E2E2E2E2E2E2E2E2E2E2E2E2E2E2E2E2E2E2E2E2E2E2E2E2E2E2E2
310
E2E2E2E2E2E2E2E2E2E2E2E2E2E2E2E2E2E2E2E2E2E2E2E2E2E2E2E2E2E2E2E2E2E2E2E2E2E2E2E2E2E2E2E2E2E2E2E2E2E2E2E2E2E2E2E2E2E2E2E2E2E2E2E2E2E2E2E2E2E2E2E2E2E2E2E2E2E2E2E2E2E2E2E2E2E2E2E2E2E2E2E2E2E2E2E2E2E2E2E2E2E2E2E2E2E2E2E2E2E2E2E2E2E2E2E2E2E2E2E2E2E2E2E2E2E2E2
310
E2E2E2E2E2E2E2E2E2E2E2E2E2F5F5F5EFE2E2E2E2E2E2E2E2E2E2E2E2E2E2E2E2E2E2E2E2E2E2E2E2E2E2E2E2E2E2E2E2E2E2E2E2E2E2E2E2E2E2E2E2E2E2E2E2E2E2E2E2E2E2E2E2E2E2E2E2E2E2E2E2E2E2E2E2E2E2E2E2E2E2E2E2E2E2E2E2E2E2E2E2E2E2E2E2E2E2E2E2E2E2E2E2E2E2E2E2E2E2E2E2E2E2E2E2E2E2
310
E2E2E2E2E2E2E2E2E2E2E2E2E2E2E2E2E2E2E2E2E2E2E2E2E2E2E2E2E2E2E2E2E2E2E2E2E2E2E2E2E2E2E2E2E2E2E2E2E2E2E2E2E2E2E2E2E2E2E2E2E2E2E2E2E2E2E2E2E2E2E2E2E2E2E2E2E2E2E2E2E2E2E2E2E2E2E2E2E2E2E2E2E2E2E2E2E2E2E2E2E2E2E2E2E2E2E2E2E2E2E2E2E2E2E2E2E2E2E2E2E2E2E2E2E2E2E2
310
E2E2E2E2E2E2E2E2E2E2E2E2E2E2E2F5F5F5EFE2E2E2E2E2E2E2E2E2E2E2E2E2E2E2E2E2E2E2E2E2E2E2E2E2E2E2E2E2E2E2E2E2E2E2E2E2E2E2E2E2E2E2E2E2E2E2E2E2E2E2E2E2E2E2E2E2E2E2E2E2E2E2E2E2E2E2E2E2E2E2E2E2E2E2E2E2E2E2E2E2E2E2E2E2E2E2E2E2E2E2E2E2E2E2E2E2E2E2E2E2E2E2E2E2E2E2E2
310
E2E2E2E2E2E2E2E2E2E2E2E2E2E2E2E2E2E2E2E2E2E2E2E2E2E2E2E2E2E2E2E2E2E2E2E2E2E2E2E2E2E2E2E2E2E2E2E2E2E2E2E2E2E2E2E2E2E2E2E2E2E2E2E2E2E2E2E2E2E2E2E2E2E2E2E2E2E2E2E2E2E2E2E2E2E2E2E2E2E2E2E2E2E2E2E2E2E2E2E2E2E2E2E2E2E2E2E2E2E2E2E2E2E2E2E2E2E2E2E2E2E2E2E2E2E2E2
310
E2E2E2E2E2E2E2E2E2E2E2E2E2E2E2E2E2F5F5F5EFE2E2E2E2E2E2E2E2E2E2E2E2E2E2E2E2E2E2E2E2E2E2E2E2E2E2E2E2E2E2E2E2E2E2E2E2E2E2E2E2E2E2E2E2E2E2E2E2E2E2E2E2E2E2E2E2E2E2E2E2E2E2E2E2E2E2E2E2E2E2E2E2E2E2E2E2E2E2E2E2E2E2E2E2E2E2E2E2E2E2E2E2E2E2E2E2E2E2E2E2E2E2E2E2E2E2
310
E2E2E2E2E2E2E2E2E2E2E2E2E2E2E2E2E2E2E2E2E2E2E2E2E2E2E2E2E2E2E2E2E2E2E2E2E2E2E2E2E2E2E2E2E2E2E2E2E2E2E2E2E2E2E2E2E2E2E2E2E2E2E2E2E2E2E2E2E2E2E2E2E2E2E2E2E2E2E2E2E2E2E2E2E2E2E2E2E2E2E2E2E2E2E2E2E2E2E2E2E2E2E2E2E2E2E2E2E2E2E2E2E2E2E2E2E2E2E2E2E2E2E2E2E2E2E2
310
E2E2E2E2E2E2E2E2E2E2E2E2E2E2E2E2E2E2E2F5F5F5EFE2E2E2E2E2E2E2E2E2E2E2E2E2E2E2E2E2E2E2E2E2E2E2E2E2E2E2E2E2E2E2E2E2E2E2E2E2E2E2E2E2E2E2E2E2E2E2E2E2E2E2E2E2E2E2E2E2E2E2E2E2E2E2E2E2E2E2E2E2E2E2E2E2E2E2E2E2E2E2E2E2E2E2E2E2E2E2E2E2E2E2E2E2E2E2E2E2E2E2E2E2E2E2E2
310
E2E2E2E2E2E2E2E2E2E2E2E2E2E2E2E2E2E2E2E2E2E2E2E2E2E2E2E2E2E2E2E2E2E2E2E2E2E2E2E2E2E2E2E2E2E2E2E2E2E2E2E2E2E2E2E2E2E2E2E2E2E2E2E2E2E2E2E2E2E2E2E2E2E2E2E2E2E2E2E2E2E2E2E2E2E2E2E2E2E2E2E2E2E2E2E2E2E2E2E2E2E2E2E2E2E2E2E2E2E2E2E2E2E2E2E2E2E2E2E2E2E2E2E2E2E2E2
310
E2E2E2E2E2E2E2E2E2E2E2E2E2E2E2E2E2E2E2E2E2F5F5F5EFE2E2E2E2E2E2E2E2E2E2E2E2E2E2E2E2E2E2E2E2E2E2E2E2E2E2E2E2E2E2E2E2E2E2E2E2E2E2E2E2E2E2E2E2E2E2E2E2E2E2E2E2E2E2E2E2E2E2E2E2E2E2E2E2E2E2E2E2E2E2E2E2E2E2E2E2E2E2E2E2E2E2E2E2E2E2E2E2E2E2E2E2E2E2E2E2E2E2E2E2E2E2
310
E2E2E2E2E2E2E2E2E2E2E2E2E2E2E2E2E2E2E2E2E2E2E2E2E2E2E2E2E2E2E2E2E2E2E2E2E2E2E2E2E2E2E2E2E2E2E2E2E2E2E2E2E2E2E2E2E2E2E2E2E2E2E2E2E2E2E2E2E2E2E2E2E2E2E2E2E2E2E2E2E2E2E2E2E2E2E2E2E2E2E2E2E2E2E2E2E2E2E2E2E2E2E2E2E2E2E2E2E2E2E2E2E2E2E2E2E2E2E2E2E2E2E2E2E2E2E2
310
E2E2E2E2E2E2E2E2E2E2E2E2E2E2E2E2E2E2E2E2E2E2E2F5F5F5EFE2E2E2E2E2E2E2E2E2E2E2E2E2E2E2E2E2E2E2E2E2E2E2E2E2E2E2E2E2E2E2E2E2E2E2E2E2E2E2E2E2E2E2E2E2E2E2E2E2E2E2E2E2E2E2E2E2E2E2E2E2E2E2E2E2E2E2E2E2E2E2E2E2E2E2E2E2E2E2E2E2E2E2E2E2E2E2E2E2E2E2E2E2E2E2E2E2E2E2E2
310
E2E2E2E2E2E2E2E2E2E2E2E2E2E2E2E2E2E2E2E2E2E2E2E2E2E2E2E2E2E2E2E2E2E2E2E2E2E2E2E2E2E2E2E2E2E2E2E2E2E2E2E2E2E2E2E2E2E2E2E2E2E2E2E2E2E2E2E2E2E2E2E2E2E2E2E2E2E2E2E2E2E2E2E2E2E2E2E2E2E2E2E2E2E2E2E2E2E2E2E2E2E2E2E2E2E2E2E2E2E2E2E2E2E2E2E2E2E2E2E2E2E2E2E2E2E2E2
310
E2E2E2E2E2E2E2E2E2E2E2E2E2E2E2E2E2E2E2E2E2E2E2E2E2F5F5F5EFE2E2E2E2E2E2E2E2E2E2E2E2E2E2E2E2E2E2E2E2E2E2E2E2E2E2E2E2E2E2E2E2E2E2E2E2E2E2E2E2E2E2E2E2E2E2E2E2E2E2E2E2E2E2E2E2E2E2E2E2E2E2E2E2E2E2E2E2E2E2E2E2E2E2E2E2E2E2E2E2E2E2E2E2E2E2E2E2E2E2E2E2E2E2E2E2E2E2
310
E2E2E2E2E2E2E2E2E2E2E2E2E2E2E2E2E2E2E2E2E2E2E2E2E2E2E2E2E2E2E2E2E2E2E2E2E2E2E2E2E2E2E2E2E2E2E2E2E2E2E2E2E2E2E2E2E2E2E2E2E2E2E2E2E2E2E2E2E2E2E2E2E2E2E2E2E2E2E2E2E2E2E2E2E2E2E2E2E2E2E2E2E2E2E2E2E2E2E2E2E2E2E2E2E2E2E2E2E2E2E2E2E2E2E2E2E2E2E2E2E2E2E2E2E2E2E2
310
E2E2E2E2E2E2E2E2E2E2E2E2E2E2E2E2E2E2E2E2E2E2E2E2E2E2E2F5F5F5EFE2E2E2E2E2F5E2E2E2E2E2E2E2E2E2E2E2E2E2E2E2E2E2E2E2E2E2E2E2E2E2E2E2E2E2E2E2E2E2E2E2E2E2E2E2E2E2E2E2E2E2E2E2E2E2E2E2E2E2E2E2E2E2E2E2E2E2E2E2E2E2E2E2E2E2E2E2E2E2E2E2E2E2E2E2E2E2E2E2E2E2E2E2E2E2E2
310
E2E2E2E2E2E2E2E2E2E2E2E2E2E2E2E2E2E2E2E2E2E2E2E2E2E2E2E2E2E2E2E2E2E2E2E2E2E2E2E2E2E2E2E2E2E2E2E2E2E2E2E2E2E2E2E2E2E2E2E2E2E2E2E2E2E2E2E2E2E2E2E2E2E2E2E2E2E2E2E2E2E2E2E2E2E2E2E2E2E2E2E2E2E2E2E2E2E2E2E2E2E2E2E2E2E2E2E2E2E2E2E2E2E2E2E2E2E2E2E2E2E2E2E2E2E2E2
310
E2E2E2E2E2E2E2E2E2E2E2E2E2E2E2E2E2E2E2E2E2E2E2F5E2E2E2E2E2F5F5F5EFE2E2E2E2E2F5E2E2E2E2E2E2E2E2E2E2E2E2E2E2E2E2E2E2E2E2E2E2E2E2E2E2E2E2E2E2E2E2E2E2E2E2E2E2E2E2E2E2E2E2E2E2E2E2E2E2E2E2E2E2E2E2E2E2E2E2E2E2E2E2E2E2E2E2E2E2E2E2E2E2E2E2E2E2E2E2E2E2E2E2E2E2E2E2
310
E2E2E2E2E2E2E2E2E2E2E2E2E2E2E2E2E2E2E2E2E2E2E2E2E2E2E2E2E2E2E2E2E2E2E2E2E2E2E2E2E2E2E2E2E2E2E2E2E2E2E2E2E2E2E2E2E2E2E2E2E2E2E2E2E2E2E2E2E2E2E2E2E2E2E2E2E2E2E2E2E2E2E2E2E2E2E2E2E2E2E2E2E2E2E2E2E2E2E2E2E2E2E2E2E2E2E2E2E2E2E2E2E2E2E2E2E2E2E2E2E2E2E2E2E2E2E2
310
E2E2E2E2E2E2E2E2E2E2E2E2E2E2E2E2E2E2E2E2E2E2E2E2E2F5E2E2E2E2E2F5F5F5EFE2E2E2E2E2F5E2E2E2E2E2E2E2E2E2E2E2E2E2E2E2E2E2E2E2E2E2E2E2E2E2E2E2E2E2E2E2E2E2E2E2E2E2E2E2E2E2E2E2E2E2E2E2E2E2E2E2E2E2E2E2E2E2E2E2E2E2E2E2E2E2E2E2E2E2E2E2E2E2E2E2E2E2E2E2E2E2E2E2E2E2E2
310
E2E2E2E2E2E2E2E2E2E2E2E2E2E2E2E2E2E2E2E2E2E2E2E2E2E2E2E2E2E2E2E2E2E2E2E2E2E2E2E2E2E2E2E2E2E2E2E2E2E2E2E2E2E2E2E2E2E2E2E2E2E2E2E2E2E2E2E2E2E2E2E2E2E2E2E2E2E2E2E2E2E2E2E2E2E2E2E2E2E2E2E2E2E2E2E2E2E2E2E2E2E2E2E2E2E2E2E2E2E2E2E2E2E2E2E2E2E2E2E2E2E2E2E2E2E2E2
310
E2E2E2E2E2E2E2E2E2E2E2E2E2E2E2E2E2E2E2E2E2E2E2E2E2E2E2F5E2E2E2E2E2F5F5F5EFE2E2E2E2E2F5E2E2E2E2E2E2E2E2E2E2E2E2E2E2E2E2E2E2E2E2E2E2E2E2E2E2E2E2E2E2E2E2E2E2E2E2E2E2E2E2E2E2E2E2E2E2E2E2E2E2E2E2E2E2E2E2E2E2E2E2E2E2E2E2E2E2E2E2E2E2E2E2E2E2E2E2E2E2E2E2E2E2E2E2
310
E2E2E2E2E2E2E2E2E2E2E2E2E2E2E2E2E2E2E2E2E2E2E2E2E2E2E2E2E2E2E2E2E2E2E2E2E2E2E2E2E2E2E2E2E2E2E2E2E2E2E2E2E2E2E2E2E2E2E2E2E2E2E2E2E2E2E2E2E2E2E2E2E2E2E2E2E2E2E2E2E2E2E2E2E2E2E2E2E2E2E2E2E2E2E2E2E2E2E2E2E2E2E2E2E2E2E2E2E2E2E2E2E2E2E2E2E2E2E2E2E2E2E2E2E2E2E2
310
E2E2E2E2E2E2E2E2E2E2E2E2E2E2E2E2E2E2E2E2E2E2E2E2E2E2E2E2E2F5E2E2E2E2E2F5F5F5EFE2E2E2E2E2F5E2E2E2E2E2E2E2E2E2E2E2E2E2E2E2E2E2E2E2E2E2E2E2E2E2E2E2E2E2E2E2E2E2E2E2E2E2E2E2E2E2E2E2E2E2E2E2E2E2E2E2E2E2E2E2E2E2E2E2E2E2E2E2E2E2E2E2E2E2E2E2E2E2E2E2E2E2E2E2E2E2E2
310
E2E2E2E2E2E2E2E2E2E2E2E2E2E2E2E2E2E2E2E2E2E2E2E2E2E2E2E2E2E2E2E2E2E2E2E2E2E2E2E2E2E2E2E2E2E2E2E2E2E2E2E2E2E2E2E2E2E2E2E2E2E2E2E2E2E2E2E2E2E2E2E2E2E2E2E2E2E2E2E2E2E2E2E2E2E2E2E2E2E2E2E2E2E2E2E2E2E2E2E2E2E2E2E2E2E2E2E2E2E2E2E2E2E2E2E2E2E2E2E2E2E2E2E2E2E2E2
310
E2E2E2E2E2E2E2E2E2E2E2E2E2E2E2E2E2E2E2E2E2E2E2E2E2E2E2E2E2E2E2F5E2E2E2E2E2F5F5F5EFE2E2E2E2E2F5E2E2E2E2E2E2E2E2E2E2E2E2E2E2E2E2E2E2E2E2E2E2E2E2E2E2E2E2E2E2E2E2E2E2E2E2E2E2E2E2E2E2E2E2E2E2E2E2E2E2E2E2E2E2E2E2E2E2E2E2E2E2E2E2E2E2E2E2E2E2E2E2E2E2E2E2E2E2E2E2
310
E2E2E2E2E2E2E2E2E2E2E2E2E2E2E2E2E2E2E2E2E2E2E2E2E2E2E2E2E2E2E2E2E2E2E2E2E2E2E2E2E2E2E2E2E2E2E2E2E2E2E2E2E2E2E2E2E2E2E2E2E2E2E2E2E2E2E2E2E2E2E2E2E2E2E2E2E2E2E2E2E2E2E2E2E2E2E2E2E2E2E2E2E2E2E2E2E2E2E2E2E2E2E2E2E2E2E2E2E2E2E2E2E2E2E2E2E2E2E2E2E2E2E2E2E2E2E2
310
E2E2E2E2E2E2E2E2E2E2E2E2E2E2E2E2E2E2E2E2E2E2E2E2E2E2E2E2E2E2E2E2E2F5E2E2E2E2E2F5F5F5EFE2E2E2E2E2F5E2E2E2E2E2E2E2E2E2E2E2E2E2E2E2E2E2E2E2E2E2E2E2E2E2E2E2E2E2E2E2E2E2E2E2E2E2E2E2E2E2E2E2E2E2E2E2E2E2E2E2E2E2E2E2E2E2E2E2E2E2E2E2E2E2E2E2E2E2E2E2E2E2E2E2E2E2E2
310
E2E2E2E2E2E2E2E2E2E2E2E2E2E2E2E2E2E2E2E2E2E2E2E2E2E2E2E2E2E2E2E2E2E2E2E2E2E2E2E2E2E2E2E2E2E2E2E2E2E2E2E2E2E2E2E2E2E2E2E2E2E2E2E2E2E2E2E2E2E2E2E2E2E2E2E2E2E2E2E2E2E2E2E2E2E2E2E2E2E2E2E2E2E2E2E2E2E2E2E2E2E2E2E2E2E2E2E2E2E2E2E2E2E2E2E2E2E2E2E2E2E2E2E2E2E2E2
310
E2E2E2E2E2E2E2E2E2E2E2E2E2E2E2E2E2E2E2E2E2E2E2E2E2E2E2E2E2E2E2E2E2E2E2F5E2E2E2E2E2F5F5F5EFE2E2E2E2E2F5E2E2E2E2E2E2E2E2E2E2E2E2E2E2E2E2E2E2E2E2E2E2E2E2E2E2E2E2E2E2E2E2E2E2E2E2E2E2E2E2E2E2E2E2E2E2E2E2E2E2E2E2E2E2E2E2E2E2E2E2E2E2E2E2E2E2E2E2E2E2E2E2E2E2E2E2
310
E2E2E2E2E2E2E2E2E2E2E2E2E2E2E2E2E2E2E2E2E2E2E2E2E2E2E2E2E2E2E2E2E2E2E2E2E2E2E2E2E2E2E2E2E2E2E2E2E2E2E2E2E2E2E2E2E2E2E2E2E2E2E2E2E2E2E2E2E2E2E2E2E2E2E2E2E2E2E2E2E2E2E2E2E2E2E2E2E2E2E2E2E2E2E2E2E2E2E2E2E2E2E2E2E2E2E2E2E2E2E2E2E2E2E2E2E2E2E2E2E2E2E2E2E2E2E2
310
E2E2E2E2E2E2E2E2E2E2E2E2E2E2E2E2E2E2E2E2E2E2E2E2E2E2E2E2E2E2E2E2E2E2E2E2E2F5E2E2E2E2E2F5F5F5EFE2E2E2E2E2F5F5F5F5F5F5F5F5E2E2E2E2E2E2E2E2E2F5F5F5F5F5F5F5F5F5F5F5F5F5F5F5E2E2E2E2E2E2E2E2E2F5F5F5F5F5F5F5F5F5F5F5F5F5F5F5E2E2E2E2E2E2E2E2E2F5F5F5F5F5F5F5F5F5F5
310
F5F5F5F5F5F5E2E2E2E2E2E2E2E2F5F5F5F5F5F5F5F5F5F5F5F5F5F5F5F5E2E2E2E2E2E2E2E2F5F5F5F5F5F5F5F5F5F5F5F5F5F5F5F5E2E2E2E2E2E2E2E2F5F5F5F5F5F5F5F5F5F5F5F5F5F5F5F5E2E2E2E2E2E2E2E2F5F5F5F5F5F5F5F5F5F5F5F5F5F5F5F5E2E2E2E2E2E2E2E2E2F5F5F5F5F5F5F5F5F5F5F5F5F5F5F5E2
310
E2E2E2E2E2E2E2E2F5F5F5F5F5F5F5F5F5F5F5F5F5F5F5E2E2E2E2E2E2E2E2E2F5F5F5F5F5F5F5F5E2E2E2E2E2F5F5F5EFE2E2E2E2E2E2E2E2E2E2E2E2E2E2E2E2E2E2E2E2E2E2E2E2E2E2E2E2E2E2E2E2E2E2E2E2E2E2E2E2E2E2E2E2E2E2E2E2E2E2E2E2E2E2E2E2E2E2E2E2E2E2E2E2E2E2E2E2E2E2E2E2E2E2E2E2E2E2
310
E2E2E2E2E2E2E2E2E2E2E2E2E2E2E2E2E2E2E2E2E2E2E2E2E2E2E2E2E2E2E2E2E2E2E2E2E2E2E2E2E2E2E2E2E2E2E2E2E2E2E2E2E2E2E2E2E2E2E2E2E2E2E2E2E2E2E2E2E2E2E2E2E2E2E2E2E2E2E2E2E2E2E2E2E2E2E2E2E2E2E2E2E2E2E2E2E2E2E2E2E2E2E2E2E2E2E2E2E2E2E2E2E2E2E2E2E2E2E2E2E2E2E2E2E2E2E2
310
E2E2E2E2E2E2E2E2E2E2E2E2E2E2E2E2E2E2E2E2E2E2E2E2E2E2E2E2E2E2E2E2E2E2E2E2E2E2E2E2E2E2E2E2E2E2E2F5F5F5EFE2E2E2E2E2E2E2E2E2E2E2E2E2E2E2E2E2E2E2E2E2E2E2E2E2E2E2E2E2E2E2E2E2E2E2E2E2E2E2E2E2E2E2E2E2E2E2E2E2E2E2E2E2E2E2E2E2E2E2E2E2E2E2E2E2E2E2E2E2E2E2E2E2E2E2E2
310
E2E2E2E2E2E2E2E2E2E2E2E2E2E2E2E2E2E2E2E2E2E2E2E2E2E2E2E2E2E2E2E2E2E2E2E2E2E2E2E2E2E2E2E2E2E2E2E2E2E2E2E2E2E2E2E2E2E2E2E2E2E2E2E2E2E2E2E2E2E2E2E2E2E2E2E2E2E2E2E2E2E2E2E2E2E2E2E2E2E2E2E2E2E2E2E2E2E2E2E2E2E2E2E2E2E2E2E2E2E2E2E2E2E2E2E2E2E2E2E2E2E2E2E2E2E2E2
310
E2E2E2E2E2E2E2E2E2E2E2E2E2E2E2E2E2E2E2E2E2E2E2E2E2E2E2E2E2E2E2E2E2E2E2E2E2E2E2E2E2E2E2E2E2E2E2E2E2F5F5F5EFE2E2E2E2E2E2E2E2E2E2E2E2E2E2E2E2E2E2E2E2E2E2E2E2E2E2E2E2E2E2E2E2E2E2E2E2E2E2E2E2E2E2E2E2E2E2E2E2E2E2E2E2E2E2E2E2E2E2E2E2E2E2E2E2E2E2E2E2E2E2E2E2E2E2
310
E2E2E2E2E2E2E2E2E2E2E2E2E2E2E2E2E2E2E2E2E2E2E2E2E2E2E2E2E2E2E2E2E2E2E2E2E2E2E2E2E2E2E2E2E2E2E2E2E2E2E2E2E2E2E2E2E2E2E2E2E2E2E2E2E2E2E2E2E2E2E2E2E2E2E2E2E2E2E2E2E2E2E2E2E2E2E2E2E2E2E2E2E2E2E2E2E2E2E2E2E2E2E2E2E2E2E2E2E2E2E2E2E2E2E2E2E2E2E2E2E2E2E2E2E2E2E2
310
E2E2E2E2E2E2E2E2E2E2E2E2E2E2E2E2E2E2E2E2E2E2E2E2E2E2E2E2E2E2E2E2E2E2E2E2E2E2E2E2E2E2E2E2E2E2E2E2E2E2E2F5F5F5EFE2E2E2E2E2E2E2E2E2E2E2E2E2E2E2E2E2E2E2E2E2E2E2E2E2E2E2E2E2E2E2E2E2E2E2E2E2E2E2E2E2E2E2E2E2E2E2E2E2E2E2E2E2E2E2E2E2E2E2E2E2E2E2E2E2E2E2E2E2E2E2E2
310
E2E2E2E2E2E2E2E2E2E2E2E2E2E2E2E2E2E2E2E2E2E2E2E2E2E2E2E2E2E2E2E2E2E2E2E2E2E2E2E2E2E2E2E2E2E2E2E2E2E2E2E2E2E2E2E2E2E2E2E2E2E2E2E2E2E2E2E2E2E2E2E2E2E2E2E2E2E2E2E2E2E2E2E2E2E2E2E2E2E2E2E2E2E2E2E2E2E2E2E2E2E2E2E2E2E2E2E2E2E2E2E2E2E2E2E2E2E2E2E2E2E2E2E2E2E2E2
310
E2E2E2E2E2E2E2E2E2E2E2E2E2E2E2E2E2E2E2E2E2E2E2E2E2E2E2E2E2E2E2E2E2E2E2E2E2E2E2E2E2E2E2E2E2E2E2E2E2E2E2E2E2F5EFEFEFE2E2E2E2E2E2E2E2E2E2E2E2E2E2E2E2E2E2E2E2E2E2E2E2E2E2E2E2E2E2E2E2E2E2E2E2E2E2E2E2E2E2E2E2E2E2E2E2E2E2E2E2E2E2E2E2E2E2E2E2E2E2E2E2E2E2E2E2E2E2
310
E2E2E2E2E2E2E2E2E2E2E2E2E2E2E2E2E2E2E2E2E2E2E2E2E2E2E2E2E2E2E2E2E2E2E2E2E2E2E2E2E2E2E2E2E2E2E2E2E2E2E2E2E2E2E2E2E2E2E2E2E2E2E2E2E2E2E2E2E2E2E2E2E2E2E2E2E2E2E2E2E2E2E2E2E2E2E2E2E2E2E2E2E2E2E2E2E2E2E2E2E2E2E2E2E2E2E2E2E2E2E2E2E2E2E2E2E2E2E2E2E2E2E2E2E2E2E2
310
E2E2E2E2E2E2E2E2E2E2E2E2E2E2E2E2E2E2E2E2E2E2E2E2E2E2E2E2E2E2E2E2E2E2E2E2E2E2E2E2E2E2E2E2E2E2E2E2E2E2E2E2E2E2E2F5EFEFEFF5F5F5F5F5F5F5F5F5F5F5F5F5F5F5F5F5F5F5F5F5F5F5F5F5F5F5F5F5F5F5F5F5F5F5F5F5F5F5F5F5F5F5F5F5F5F5F5F5F5F5F5F5F5F5F5F5F5F5F5F5F5F5F5F5F5F5F5
310
F5F5F5F5F5F5F5F5F5F5F5F5F5F5F5F5F5F5F5F5F5F5F5F5F5F5F5F5F5F5F5F5F5F5F5F5F5F5F5F5F5F5F5F5F5F5F5F5F5F5F5F5F5F5F5F5F5F5F5F5F5F5F5F5F5F5F5F5F5F5F5F5F5F5F5F5F5F5F5F5F5F5F5F5F5F5F5F5F5F5F5F5F5F5F5F5F5F5F5F5F5F5F5F5F5F5F5F5F5F5F5F5F5F5F5F5F5F5F5F5F5F5F5F5F5F5F5
310
F5F5F5F5F5F5F5F5F5F5F5F5F5F5F5F5F5F5F5F5F5F5F5F5F5F5F5F5F5F5F5F5F5F5F5F5F5F5F5F5F5F5F5F5F5F5F5F5F5F5F5F5F5F5F5F5F5F5EFEFEF
  0
XRECORD
  5
2CC4
102
{ACAD_REACTORS
330
2AD9
102
}
330
2AD9
100
AcDbXrecord
280
     1
102
MATERIAL
148
0.0
149
0.0
149
0.0
 93
        0
 94
      127
282
     0
 72
     0
 77
     0
171
     0
175
     0
179
     0
273
     0
  0
XRECORD
  5
2ADB
102
{ACAD_REACTORS
330
2AD9
102
}
330
2AD9
100
AcDbXrecord
280
     1
270
     1
271
     1
  0
XRECORD
  5
2ADA
102
{ACAD_REACTORS
330
2AD9
102
}
330
2AD9
100
AcDbXrecord
280
     1
270
     1
271
     1
  0
XRECORD
  5
2ADE
102
{ACAD_REACTORS
330
2AD9
102
}
330
2AD9
100
AcDbXrecord
280
     1
270
     1
271
     1
  0
XRECORD
  5
2ADD
102
{ACAD_REACTORS
330
2AD9
102
}
330
2AD9
100
AcDbXrecord
280
     1
270
     1
271
     1
  0
XRECORD
  5
2ADF
102
{ACAD_REACTORS
330
2AD9
102
}
330
2AD9
100
AcDbXrecord
280
     1
270
     1
271
     1
  0
XRECORD
  5
2ADC
102
{ACAD_REACTORS
330
2AD9
102
}
330
2AD9
100
AcDbXrecord
280
     1
270
     1
271
     1
  0
XRECORD
  5
2CC3
102
{ACAD_REACTORS
330
2AD1
102
}
330
2AD1
100
AcDbXrecord
280
     1
102
MATERIAL
148
0.0
149
0.0
149
0.0
 93
        0
 94
      127
282
     0
 72
     0
 77
     0
171
     0
175
     0
179
     0
273
     0
  0
XRECORD
  5
2AD3
102
{ACAD_REACTORS
330
2AD1
102
}
330
2AD1
100
AcDbXrecord
280
     1
270
     1
271
     1
  0
XRECORD
  5
2AD2
102
{ACAD_REACTORS
330
2AD1
102
}
330
2AD1
100
AcDbXrecord
280
     1
270
     1
271
     1
  0
XRECORD
  5
2AD6
102
{ACAD_REACTORS
330
2AD1
102
}
330
2AD1
100
AcDbXrecord
280
     1
270
     1
271
     1
  0
XRECORD
  5
2AD5
102
{ACAD_REACTORS
330
2AD1
102
}
330
2AD1
100
AcDbXrecord
280
     1
270
     1
271
     1
  0
XRECORD
  5
2AD7
102
{ACAD_REACTORS
330
2AD1
102
}
330
2AD1
100
AcDbXrecord
280
     1
270
     1
271
     1
  0
XRECORD
  5
2AD4
102
{ACAD_REACTORS
330
2AD1
102
}
330
2AD1
100
AcDbXrecord
280
     1
270
     1
271
     1
  0
XRECORD
  5
2CC5
102
{ACAD_REACTORS
330
2AE1
102
}
330
2AE1
100
AcDbXrecord
280
     1
102
MATERIAL
148
0.0
149
0.0
149
0.0
 93
        0
 94
      127
282
     0
 72
     0
 77
     0
171
     0
175
     0
179
     0
273
     0
  0
XRECORD
  5
2AE3
102
{ACAD_REACTORS
330
2AE1
102
}
330
2AE1
100
AcDbXrecord
280
     1
270
     1
271
     1
  0
XRECORD
  5
2AE2
102
{ACAD_REACTORS
330
2AE1
102
}
330
2AE1
100
AcDbXrecord
280
     1
270
     1
271
     1
  0
XRECORD
  5
2AE6
102
{ACAD_REACTORS
330
2AE1
102
}
330
2AE1
100
AcDbXrecord
280
     1
270
     1
271
     1
  0
XRECORD
  5
2AE5
102
{ACAD_REACTORS
330
2AE1
102
}
330
2AE1
100
AcDbXrecord
280
     1
270
     1
271
     1
  0
XRECORD
  5
2AE7
102
{ACAD_REACTORS
330
2AE1
102
}
330
2AE1
100
AcDbXrecord
280
     1
270
     1
271
     1
  0
XRECORD
  5
2AE4
102
{ACAD_REACTORS
330
2AE1
102
}
330
2AE1
100
AcDbXrecord
280
     1
270
     1
271
     1
  0
CELLSTYLEMAP
  5
35D0
102
{ACAD_REACTORS
330
2CBA
102
}
330
2CBA
100
AcDbCellStyleMap
 90
        3
300
CELLSTYLE
  1
TABLEFORMAT_BEGIN
 90
        5
170
     1
 91
        0
 92
    32768
 62
   257
 93
        1
300
CONTENTFORMAT
  1
CONTENTFORMAT_BEGIN
 90
        0
 91
        0
 92
      512
 93
        0
300

 40
0.0
140
1.0
 94
        5
 62
     0
340
2B1C
144
0.25
309
CONTENTFORMAT_END
171
     1
301
MARGIN
  1
CELLMARGIN_BEGIN
 40
0.06
 40
0.06
 40
0.06
 40
0.06
 40
0.18
 40
0.18
309
CELLMARGIN_END
 94
        6
 95
        1
302
GRIDFORMAT
  1
GRIDFORMAT_BEGIN
 90
        0
 91
        1
 62
     0
 92
       -2
340
0
 93
        0
 40
0.045
309
GRIDFORMAT_END
 95
        2
302
GRIDFORMAT
  1
GRIDFORMAT_BEGIN
 90
        0
 91
        1
 62
     0
 92
       -2
340
0
 93
        0
 40
0.045
309
GRIDFORMAT_END
 95
        4
302
GRIDFORMAT
  1
GRIDFORMAT_BEGIN
 90
        0
 91
        1
 62
     0
 92
       -2
340
0
 93
        0
 40
0.045
309
GRIDFORMAT_END
 95
        8
302
GRIDFORMAT
  1
GRIDFORMAT_BEGIN
 90
        0
 91
        1
 62
     0
 92
       -2
340
0
 93
        0
 40
0.045
309
GRIDFORMAT_END
 95
       16
302
GRIDFORMAT
  1
GRIDFORMAT_BEGIN
 90
        0
 91
        1
 62
     0
 92
       -2
340
0
 93
        0
 40
0.045
309
GRIDFORMAT_END
 95
       32
302
GRIDFORMAT
  1
GRIDFORMAT_BEGIN
 90
        0
 91
        1
 62
     0
 92
       -2
340
0
 93
        0
 40
0.045
309
GRIDFORMAT_END
309
TABLEFORMAT_END
  1
CELLSTYLE_BEGIN
 90
        1
 91
        1
300
_TITLE
309
CELLSTYLE_END
300
CELLSTYLE
  1
TABLEFORMAT_BEGIN
 90
        5
170
     1
 91
        0
 92
        0
 62
   257
 93
        1
300
CONTENTFORMAT
  1
CONTENTFORMAT_BEGIN
 90
        0
 91
        0
 92
      512
 93
        0
300

 40
0.0
140
1.0
 94
        5
 62
     0
340
2B1C
144
0.18
309
CONTENTFORMAT_END
171
     1
301
MARGIN
  1
CELLMARGIN_BEGIN
 40
0.06
 40
0.06
 40
0.06
 40
0.06
 40
0.18
 40
0.18
309
CELLMARGIN_END
 94
        6
 95
        1
302
GRIDFORMAT
  1
GRIDFORMAT_BEGIN
 90
        0
 91
        1
 62
     0
 92
       -2
340
0
 93
        0
 40
0.045
309
GRIDFORMAT_END
 95
        2
302
GRIDFORMAT
  1
GRIDFORMAT_BEGIN
 90
        0
 91
        1
 62
     0
 92
       -2
340
0
 93
        0
 40
0.045
309
GRIDFORMAT_END
 95
        4
302
GRIDFORMAT
  1
GRIDFORMAT_BEGIN
 90
        0
 91
        1
 62
     0
 92
       -2
340
0
 93
        0
 40
0.045
309
GRIDFORMAT_END
 95
        8
302
GRIDFORMAT
  1
GRIDFORMAT_BEGIN
 90
        0
 91
        1
 62
     0
 92
       -2
340
0
 93
        0
 40
0.045
309
GRIDFORMAT_END
 95
       16
302
GRIDFORMAT
  1
GRIDFORMAT_BEGIN
 90
        0
 91
        1
 62
     0
 92
       -2
340
0
 93
        0
 40
0.045
309
GRIDFORMAT_END
 95
       32
302
GRIDFORMAT
  1
GRIDFORMAT_BEGIN
 90
        0
 91
        1
 62
     0
 92
       -2
340
0
 93
        0
 40
0.045
309
GRIDFORMAT_END
309
TABLEFORMAT_END
  1
CELLSTYLE_BEGIN
 90
        2
 91
        1
300
_HEADER
309
CELLSTYLE_END
300
CELLSTYLE
  1
TABLEFORMAT_BEGIN
 90
        5
170
     1
 91
        0
 92
        0
 62
   257
 93
        1
300
CONTENTFORMAT
  1
CONTENTFORMAT_BEGIN
 90
        0
 91
        0
 92
      512
 93
        0
300

 40
0.0
140
1.0
 94
        2
 62
     0
340
2B1C
144
0.18
309
CONTENTFORMAT_END
171
     1
301
MARGIN
  1
CELLMARGIN_BEGIN
 40
0.06
 40
0.06
 40
0.06
 40
0.06
 40
0.18
 40
0.18
309
CELLMARGIN_END
 94
        6
 95
        1
302
GRIDFORMAT
  1
GRIDFORMAT_BEGIN
 90
        0
 91
        1
 62
     0
 92
       -2
340
0
 93
        0
 40
0.045
309
GRIDFORMAT_END
 95
        2
302
GRIDFORMAT
  1
GRIDFORMAT_BEGIN
 90
        0
 91
        1
 62
     0
 92
       -2
340
0
 93
        0
 40
0.045
309
GRIDFORMAT_END
 95
        4
302
GRIDFORMAT
  1
GRIDFORMAT_BEGIN
 90
        0
 91
        1
 62
     0
 92
       -2
340
0
 93
        0
 40
0.045
309
GRIDFORMAT_END
 95
        8
302
GRIDFORMAT
  1
GRIDFORMAT_BEGIN
 90
        0
 91
        1
 62
     0
 92
       -2
340
0
 93
        0
 40
0.045
309
GRIDFORMAT_END
 95
       16
302
GRIDFORMAT
  1
GRIDFORMAT_BEGIN
 90
        0
 91
        1
 62
     0
 92
       -2
340
0
 93
        0
 40
0.045
309
GRIDFORMAT_END
 95
       32
302
GRIDFORMAT
  1
GRIDFORMAT_BEGIN
 90
        0
 91
        1
 62
     0
 92
       -2
340
0
 93
        0
 40
0.045
309
GRIDFORMAT_END
309
TABLEFORMAT_END
  1
CELLSTYLE_BEGIN
 90
        3
 91
        2
300
_DATA
309
CELLSTYLE_END
  0
XRECORD
  5
35D1
102
{ACAD_REACTORS
330
2CBA
102
}
330
2CBA
100
AcDbXrecord
280
     1
102
ACAD_ROUNDTRIP_PRE2007_TABLESTYLE
 90
      512
 91
        0
  1

 92
      512
 93
        0
  2

 94
      512
 95
        0
  3

  0
ENDSEC
  0
EOF
