  0
SECTION
  2
HEADER
  9
$ACADVER
  1
AC1024
  9
$ACADMAINTVER
 70
   226
  9
$DWGCODEPAGE
  3
ANSI_932
  9
$LASTSAVEDBY
  1
seikai-user
  9
$CUSTOMPROPERTYTAG
  1
AmdtFileType
  9
$CUSTOMPROPERTY
  1
84
  9
$INSBASE
 10
0.0
 20
0.0
 30
0.0
  9
$EXTMIN
 10
-936.7355184707976
 20
-651.1230354093986
 30
-0.0167648942401684
  9
$EXTMAX
 10
1539.472973590567
 20
1186.248788012015
 30
549.4107367100266
  9
$LIMMIN
 10
-2970.0
 20
-2100.0
  9
$LIMMAX
 10
2970.0
 20
2100.0
  9
$ORTHOMODE
 70
     0
  9
$REGENMODE
 70
     0
  9
$FILLMODE
 70
     1
  9
$QTEXTMODE
 70
     0
  9
$MIRRTEXT
 70
     0
  9
$LTSCALE
 40
20.0
  9
$ATTMODE
 70
     1
  9
$TEXTSIZE
 40
64.0
  9
$TRACEWID
 40
0.05
  9
$TEXTSTYLE
  7
STANDARD
  9
$CLAYER
  8
SIZE
  9
$CELTYPE
  6
ByLayer
  9
$CECOLOR
 62
   256
  9
$CELTSCALE
 40
1.0
  9
$DISPSILH
 70
     0
  9
$DIMSCALE
 40
1.0
  9
$DIMASZ
 40
12.0
  9
$DIMEXO
 40
20.0
  9
$DIMDLI
 40
0.38
  9
$DIMRND
 40
0.0
  9
$DIMDLE
 40
0.0
  9
$DIMEXE
 40
20.0
  9
$DIMTP
 40
0.0
  9
$DIMTM
 40
0.0
  9
$DIMTXT
 40
64.0
  9
$DIMCEN
 40
0.0
  9
$DIMTSZ
 40
0.0
  9
$DIMTOL
 70
     0
  9
$DIMLIM
 70
     0
  9
$DIMTIH
 70
     1
  9
$DIMTOH
 70
     1
  9
$DIMSE1
 70
     0
  9
$DIMSE2
 70
     0
  9
$DIMTAD
 70
     1
  9
$DIMZIN
 70
     8
  9
$DIMBLK
  1
DOTBLANK
  9
$DIMASO
 70
     1
  9
$DIMSHO
 70
     0
  9
$DIMPOST
  1

  9
$DIMAPOST
  1

  9
$DIMALT
 70
     0
  9
$DIMALTD
 70
     2
  9
$DIMALTF
 40
25.4
  9
$DIMLFAC
 40
1.0
  9
$DIMTOFL
 70
     1
  9
$DIMTVP
 40
0.0
  9
$DIMTIX
 70
     0
  9
$DIMSOXD
 70
     0
  9
$DIMSAH
 70
     0
  9
$DIMBLK1
  1

  9
$DIMBLK2
  1

  9
$DIMSTYLE
  2
STANDARD
  9
$DIMCLRD
 70
     0
  9
$DIMCLRE
 70
     0
  9
$DIMCLRT
 70
     0
  9
$DIMTFAC
 40
1.0
  9
$DIMGAP
 40
10.0
  9
$DIMJUST
 70
     0
  9
$DIMSD1
 70
     0
  9
$DIMSD2
 70
     0
  9
$DIMTOLJ
 70
     1
  9
$DIMTZIN
 70
     7
  9
$DIMALTZ
 70
     7
  9
$DIMALTTZ
 70
     7
  9
$DIMUPT
 70
     0
  9
$DIMDEC
 70
     4
  9
$DIMTDEC
 70
     4
  9
$DIMALTU
 70
     2
  9
$DIMALTTD
 70
     2
  9
$DIMTXSTY
  7
STANDARD
  9
$DIMAUNIT
 70
     1
  9
$DIMADEC
 70
     0
  9
$DIMALTRND
 40
0.0
  9
$DIMAZIN
 70
     0
  9
$DIMDSEP
 70
    46
  9
$DIMATFIT
 70
     3
  9
$DIMFRAC
 70
     0
  9
$DIMLDRBLK
  1

  9
$DIMLUNIT
 70
     2
  9
$DIMLWD
 70
    -2
  9
$DIMLWE
 70
    -2
  9
$DIMTMOVE
 70
     2
  9
$DIMFXL
 40
1.0
  9
$DIMFXLON
 70
     0
  9
$DIMJOGANG
 40
0.7853981633974483
  9
$DIMTFILL
 70
     0
  9
$DIMTFILLCLR
 70
     0
  9
$DIMARCSYM
 70
     1
  9
$DIMLTYPE
  6
ByBlock
  9
$DIMLTEX1
  6
ByBlock
  9
$DIMLTEX2
  6
ByBlock
  9
$DIMTXTDIRECTION
 70
     0
  9
$LUNITS
 70
     2
  9
$LUPREC
 70
     4
  9
$SKETCHINC
 40
0.1
  9
$FILLETRAD
 40
4.0
  9
$AUNITS
 70
     1
  9
$AUPREC
 70
     3
  9
$MENU
  1
ACAD
  9
$ELEVATION
 40
0.0
  9
$PELEVATION
 40
0.0
  9
$THICKNESS
 40
50.0
  9
$LIMCHECK
 70
     0
  9
$CHAMFERA
 40
0.0
  9
$CHAMFERB
 40
0.0
  9
$CHAMFERC
 40
0.0
  9
$CHAMFERD
 40
0.0
  9
$SKPOLY
 70
     0
  9
$TDCREATE
 40
2452321.396192130
  9
$TDUCREATE
 40
2452321.021199653
  9
$TDUPDATE
 40
2460363.574143519
  9
$TDUUPDATE
 40
2460363.199143519
  9
$TDINDWG
 40
1.3143428356
  9
$TDUSRTIMER
 40
1.3143358218
  9
$USRTIMER
 70
     1
  9
$ANGBASE
 50
0.0
  9
$ANGDIR
 70
     0
  9
$PDMODE
 70
     3
  9
$PDSIZE
 40
-2.0
  9
$PLINEWID
 40
0.0
  9
$SPLFRAME
 70
     0
  9
$SPLINETYPE
 70
     6
  9
$SPLINESEGS
 70
     8
  9
$HANDSEED
  5
5824
  9
$SURFTAB1
 70
     6
  9
$SURFTAB2
 70
     6
  9
$SURFTYPE
 70
     6
  9
$SURFU
 70
     6
  9
$SURFV
 70
     6
  9
$UCSBASE
  2

  9
$UCSNAME
  2

  9
$UCSORG
 10
0.0
 20
0.0
 30
0.0
  9
$UCSXDIR
 10
1.0
 20
0.0
 30
0.0
  9
$UCSYDIR
 10
0.0
 20
1.0
 30
0.0
  9
$UCSORTHOREF
  2

  9
$UCSORTHOVIEW
 70
     0
  9
$UCSORGTOP
 10
0.0
 20
0.0
 30
0.0
  9
$UCSORGBOTTOM
 10
0.0
 20
0.0
 30
0.0
  9
$UCSORGLEFT
 10
0.0
 20
0.0
 30
0.0
  9
$UCSORGRIGHT
 10
0.0
 20
0.0
 30
0.0
  9
$UCSORGFRONT
 10
0.0
 20
0.0
 30
0.0
  9
$UCSORGBACK
 10
0.0
 20
0.0
 30
0.0
  9
$PUCSBASE
  2

  9
$PUCSNAME
  2

  9
$PUCSORG
 10
0.0
 20
0.0
 30
0.0
  9
$PUCSXDIR
 10
1.0
 20
0.0
 30
0.0
  9
$PUCSYDIR
 10
0.0
 20
1.0
 30
0.0
  9
$PUCSORTHOREF
  2

  9
$PUCSORTHOVIEW
 70
     0
  9
$PUCSORGTOP
 10
0.0
 20
0.0
 30
0.0
  9
$PUCSORGBOTTOM
 10
0.0
 20
0.0
 30
0.0
  9
$PUCSORGLEFT
 10
0.0
 20
0.0
 30
0.0
  9
$PUCSORGRIGHT
 10
0.0
 20
0.0
 30
0.0
  9
$PUCSORGFRONT
 10
0.0
 20
0.0
 30
0.0
  9
$PUCSORGBACK
 10
0.0
 20
0.0
 30
0.0
  9
$USERI1
 70
     0
  9
$USERI2
 70
     0
  9
$USERI3
 70
     0
  9
$USERI4
 70
     0
  9
$USERI5
 70
     0
  9
$USERR1
 40
20.0
  9
$USERR2
 40
0.0
  9
$USERR3
 40
0.0
  9
$USERR4
 40
0.0
  9
$USERR5
 40
0.0
  9
$WORLDVIEW
 70
     1
  9
$SHADEDGE
 70
     3
  9
$SHADEDIF
 70
    70
  9
$TILEMODE
 70
     1
  9
$MAXACTVP
 70
    64
  9
$PINSBASE
 10
0.0
 20
0.0
 30
0.0
  9
$PLIMCHECK
 70
     0
  9
$PEXTMIN
 10
1.000000000000000E+20
 20
1.000000000000000E+20
 30
1.000000000000000E+20
  9
$PEXTMAX
 10
-1.000000000000000E+20
 20
-1.000000000000000E+20
 30
-1.000000000000000E+20
  9
$PLIMMIN
 10
-0.2500002402958907
 20
-0.2499999962453767
  9
$PLIMMAX
 10
10.74999951940822
 20
8.249999763458731
  9
$UNITMODE
 70
     0
  9
$VISRETAIN
 70
     1
  9
$PLINEGEN
 70
     0
  9
$PSLTSCALE
 70
     1
  9
$TREEDEPTH
 70
  3020
  9
$CMLSTYLE
  2
Standard
  9
$CMLJUST
 70
     0
  9
$CMLSCALE
 40
1.0
  9
$PROXYGRAPHICS
 70
     1
  9
$MEASUREMENT
 70
     0
  9
$CELWEIGHT
370
    -1
  9
$ENDCAPS
280
     0
  9
$JOINSTYLE
280
     0
  9
$LWDISPLAY
290
     0
  9
$INSUNITS
 70
     0
  9
$HYPERLINKBASE
  1

  9
$STYLESHEET
  1
KIHON1.CTB
  9
$XEDIT
290
     1
  9
$CEPSNTYPE
380
     0
  9
$PSTYLEMODE
290
     1
  9
$FINGERPRINTGUID
  2
{21981388-1B24-495C-9745-69C6BBFD5BCF}
  9
$VERSIONGUID
  2
{B5681789-0539-9249-9B1B-6C5C4896597A}
  9
$EXTNAMES
290
     1
  9
$PSVPSCALE
 40
0.0
  9
$OLESTARTUP
290
     0
  9
$SORTENTS
280
   127
  9
$INDEXCTL
280
     1
  9
$HIDETEXT
280
     0
  9
$XCLIPFRAME
280
     0
  9
$HALOGAP
280
     0
  9
$OBSCOLOR
 70
   257
  9
$OBSLTYPE
280
     0
  9
$INTERSECTIONDISPLAY
280
     0
  9
$INTERSECTIONCOLOR
 70
   257
  9
$DIMASSOC
280
     1
  9
$PROJECTNAME
  1

  9
$CAMERADISPLAY
290
     0
  9
$LENSLENGTH
 40
50.0
  9
$CAMERAHEIGHT
 40
0.0
  9
$STEPSPERSEC
 40
2.0
  9
$STEPSIZE
 40
6.0
  9
$3DDWFPREC
 40
2.0
  9
$PSOLWIDTH
 40
0.25
  9
$PSOLHEIGHT
 40
4.0
  9
$LOFTANG1
 40
1.570796326794896
  9
$LOFTANG2
 40
1.570796326794896
  9
$LOFTMAG1
 40
0.0
  9
$LOFTMAG2
 40
0.0
  9
$LOFTPARAM
 70
     7
  9
$LOFTNORMALS
280
     1
  9
$LATITUDE
 40
37.795
  9
$LONGITUDE
 40
-122.394
  9
$NORTHDIRECTION
 40
0.0
  9
$TIMEZONE
 70
 -8000
  9
$LIGHTGLYPHDISPLAY
280
     1
  9
$TILEMODELIGHTSYNCH
280
     1
  9
$CMATERIAL
347
2A4B
  9
$SOLIDHIST
280
     0
  9
$SHOWHIST
280
     1
  9
$DWFFRAME
280
     2
  9
$DGNFRAME
280
     0
  9
$REALWORLDSCALE
290
     1
  9
$INTERFERECOLOR
 62
     1
  9
$INTERFEREOBJVS
345
2A6D
  9
$INTERFEREVPVS
346
33F6
  9
$CSHADOW
280
     0
  9
$SHADOWPLANELOCATION
 40
0.0
  0
ENDSEC
  0
SECTION
  2
CLASSES
  0
CLASS
  1
ACDBDICTIONARYWDFLT
  2
AcDbDictionaryWithDefault
  3
ObjectDBX Classes
 90
        0
 91
        1
280
     0
281
     0
  0
CLASS
  1
MATERIAL
  2
AcDbMaterial
  3
ObjectDBX Classes
 90
     1153
 91
        3
280
     0
281
     0
  0
CLASS
  1
VISUALSTYLE
  2
AcDbVisualStyle
  3
ObjectDBX Classes
 90
     4095
 91
       26
280
     0
281
     0
  0
CLASS
  1
SCALE
  2
AcDbScale
  3
ObjectDBX Classes
 90
     1153
 91
       33
280
     0
281
     0
  0
CLASS
  1
TABLESTYLE
  2
AcDbTableStyle
  3
ObjectDBX Classes
 90
     4095
 91
        1
280
     0
281
     0
  0
CLASS
  1
MLEADERSTYLE
  2
AcDbMLeaderStyle
  3
ACDB_MLEADERSTYLE_CLASS
 90
     4095
 91
        1
280
     0
281
     0
  0
CLASS
  1
AMGSETTINGSOBJ
  2
AmgSettingsObj
  3
"AcadM|Product Description: AutoCAD Mechanical|Company: Autodesk, Inc."
 90
     1024
 91
        0
280
     0
281
     0
  0
CLASS
  1
ACME_DOCUMENT
  2
AcMeDbDoc
  3
AcMeServices
 90
     1024
 91
        0
280
     0
281
     0
  0
CLASS
  1
ACMESCOPE
  2
AcMeScope
  3
AcMeServices
 90
     1024
 91
        0
280
     0
281
     0
  0
CLASS
  1
ACMECOMMANDHISTORY
  2
AcMeCommandHistory
  3
AcMeServices
 90
     1024
 91
        0
280
     0
281
     0
  0
CLASS
  1
ACIMSYSVARMAN
  2
AcImSysVarManager
  3
AcMeServices
 90
     1024
 91
        0
280
     0
281
     0
  0
CLASS
  1
ACIMREALSYSVAR
  2
AcImRealSysVar
  3
AcMeServices
 90
     1024
 91
        0
280
     0
281
     0
  0
CLASS
  1
ACIMINTSYSVAR
  2
AcImIntSysVar
  3
AcMeServices
 90
     1024
 91
        0
280
     0
281
     0
  0
CLASS
  1
ACMEDRAWINGMAN
  2
AcMeDrawingMan
  3
AcMeServices
 90
     1024
 91
        0
280
     0
281
     0
  0
CLASS
  1
ACMEVIEW
  2
AcMeView
  3
AcMeServices
 90
     1024
 91
        0
280
     0
281
     0
  0
CLASS
  1
ACDBENTITYCACHE
  2
AcMeEntityCache
  3
AcMeServices
 90
     1024
 91
        0
280
     0
281
     0
  0
CLASS
  1
GSMANAGER
  2
AcMeGSManager
  3
AcMeServices
 90
     1024
 91
        0
280
     0
281
     0
  0
CLASS
  1
AMDTINTERNALREACTOR
  2
AmdtInternalReactor
  3
AcMeServices
 90
     1024
 91
        0
280
     0
281
     0
  0
CLASS
  1
ACMESTATEMGR
  2
AcMeStateMgr
  3
AcMeServices
 90
     1024
 91
        0
280
     0
281
     0
  0
CLASS
  1
ACGREFMASTER
  2
AcGrefMaster
  3
AcAttribServices
 90
     1024
 91
        0
280
     0
281
     0
  0
CLASS
  1
AM_DRAWING_MGR
  2
AcDmDwgMgr
  3
AcMechDwgViewMgmt
 90
     1024
 91
        0
280
     0
281
     0
  0
CLASS
  1
AM_DWG_DOCUMENT
  2
AcDmDwgDocument
  3
AcMechDwgViewMgmt
 90
     1024
 91
        0
280
     0
281
     0
  0
CLASS
  1
AM_DWG_SHEET
  2
AcDmSheet
  3
AcMechDwgViewMgmt
 90
     1024
 91
        0
280
     0
281
     0
  0
CLASS
  1
AM_VIEWDIMPARMAP
  2
AcDmViewDimParMap
  3
AcMechDwgViewMgmt
 90
     1024
 91
        0
280
     0
281
     0
  0
CLASS
  1
AM_DWGMGR_NAME
  2
AcDmDwgMgrName
  3
AcMechDwgViewMgmt
 90
     1024
 91
        0
280
     0
281
     0
  0
CLASS
  1
ACME_DATABASE
  2
AcMeDbDatabase
  3
AcMeServices
 90
     1024
 91
        0
280
     0
281
     0
  0
CLASS
  1
ACRFINSADJUSTERMGR
  2
AcRfInsAdjusterMgr
  3
AcMeServices
 90
     1024
 91
        0
280
     0
281
     0
  0
CLASS
  1
ACGREFACADMASTER
  2
AcGrefacadMaster
  3
AcGrefServices
 90
     1024
 91
        0
280
     0
281
     0
  0
CLASS
  1
AMDTMENUSTATEMGR
  2
AmdtMenuStateMgr
  3
McadcomServices
 90
     1024
 91
        0
280
     0
281
     0
  0
CLASS
  1
AMDTMCOMMENUSTATE
  2
AmdtMcomMenuState
  3
McadcomServices
 90
     1024
 91
        0
280
     0
281
     0
  0
CLASS
  1
AMIMASTER
  2
AmiMaster
  3
AmiServices
 90
     1024
 91
        0
280
     0
281
     0
  0
CLASS
  1
ASAPP
  2
AcAsAppObject
  3
AutoSurfServices
 90
     1024
 91
        0
280
     0
281
     0
  0
CLASS
  1
IM_STATIC_MAN
  2
AcImStaticVarManager
  3
AcMeServices
 90
     1024
 91
        0
280
     0
281
     0
  0
CLASS
  1
ACIMSTRSYSVAR
  2
AcImStrSysVar
  3
AcMeServices
 90
     1024
 91
        0
280
     0
281
     0
  0
CLASS
  1
ACIMDBLSTATICVAR
  2
AcImDblStaticVar
  3
AcMeServices
 90
     1024
 91
        0
280
     0
281
     0
  0
CLASS
  1
ACIMSTRSTATICVAR
  2
AcImStrStaticVar
  3
AcMeServices
 90
     1024
 91
        0
280
     0
281
     0
  0
CLASS
  1
ACIMINTSTATICVAR
  2
AcImIntStaticVar
  3
AcMeServices
 90
     1024
 91
        0
280
     0
281
     0
  0
CLASS
  1
ACASGREFMASTER
  2
AcAsGrefMaster
  3
AutoSurfResolverServices
 90
     1024
 91
        0
280
     0
281
     0
  0
CLASS
  1
ACADGREFMODULE
  2
AcAdGrefModule
  3
AdGrefServices
 90
     1024
 91
        0
280
     0
281
     0
  0
CLASS
  1
AMDTMAPISURFMOUDULE
  2
AmdtMApiSurfModule
  3
MApiSurfServices
 90
     1024
 91
        0
280
     0
281
     0
  0
CLASS
  1
MAPIAMMOUDLE
  2
MApiAmModule
  3
MApiAmServices
 90
     1024
 91
        0
280
     0
281
     0
  0
CLASS
  1
AMDTADMENUSTATE
  2
AmdtAdMenuState
  3
DesignerServices
 90
     1024
 91
        0
280
     0
281
     0
  0
CLASS
  1
ADAPPL
  2
AcAdAppl
  3
DesignerServices
 90
     1024
 91
        0
280
     0
281
     0
  0
CLASS
  1
DEPMGR
  2
AcAdDepMgr
  3
DesignerServices
 90
     1024
 91
        0
280
     0
281
     0
  0
CLASS
  1
PARAMMGR
  2
AcAdParamMgr
  3
DesignerServices
 90
     1024
 91
        0
280
     0
281
     0
  0
CLASS
  1
PARAMSCOPE
  2
AcAdParamScope
  3
DesignerServices
 90
     1024
 91
        0
280
     0
281
     0
  0
CLASS
  1
NAMEDAPPL
  2
AcAdNamedAppl
  3
DesignerServices
 90
     1024
 91
        0
280
     0
281
     0
  0
CLASS
  1
AMDTDMMENUSTATE
  2
AmdtDmMenuState
  3
AcMechDwgViewMgmt
 90
     1024
 91
        0
280
     0
281
     0
  0
CLASS
  1
MAPIADMODULE
  2
MApiAdModule
  3
MApiAdServices
 90
     1024
 91
        0
280
     0
281
     0
  0
CLASS
  1
AMDTAMMENUSTATE
  2
AmdtAmMenuState
  3
DesignerAssemblies
 90
     1024
 91
        0
280
     0
281
     0
  0
CLASS
  1
ACAMPROJECT
  2
AcAmProject
  3
DesignerAssemblies
 90
     1024
 91
        0
280
     0
281
     0
  0
CLASS
  1
ACAMGRCOMPDEF
  2
AcAmGrCompDef
  3
DesignerAssemblies
 90
     1024
 91
        0
280
     0
281
     0
  0
CLASS
  1
ACCMCONTEXT
  2
AcCmContext
  3
DesignerAssemblies
 90
     1024
 91
        0
280
     0
281
     0
  0
CLASS
  1
ACAMCOMPDEF
  2
AcAmCompDef
  3
DesignerAssemblies
 90
     1024
 91
        0
280
     0
281
     0
  0
CLASS
  1
ACAMCOMPDEFMGR
  2
AcAmCompDefMgr
  3
DesignerAssemblies
 90
     1024
 91
        0
280
     0
281
     0
  0
CLASS
  1
AMCONTEXTMGR
  2
AcAmContextMgr
  3
DesignerAssemblies
 90
     1024
 91
        0
280
     0
281
     0
  0
CLASS
  1
ACAMCONTEXTMODELER
  2
AcAmContextModeler
  3
DesignerAssemblies
 90
     1024
 91
        0
280
     0
281
     0
  0
CLASS
  1
ACMDATADICTIONARY
  2
AcmDataDictionary
  3
"AcmSymBB|Product Description: AutoCAD Mechanical|Company: Autodesk, Inc."
 90
     1024
 91
        0
280
     0
281
     0
  0
CLASS
  1
ACMDATAENTRYBLOCK
  2
AcmDataEntryBlock
  3
AcmSymBB|Product Description: AutoCAD Mechanical|Company: Autodesk, Inc.
 90
     1024
 91
        0
280
     0
281
     0
  0
CLASS
  1
ACRFATTGENMGR
  2
AcRfAttGeneralMgr
  3
AcAttribServices
 90
     1024
 91
        0
280
     0
281
     0
  0
CLASS
  1
ACRFOBJATTMGR
  2
AcRfObjAttGroupMgr
  3
AcAttribServices
 90
     1024
 91
        0
280
     0
281
     0
  0
CLASS
  1
ACRFMCADAPIATTHOLDER
  2
AcRfMCADAPIAttHolder
  3
AcAttribServices
 90
     1024
 91
        0
280
     0
281
     0
  0
CLASS
  1
AMDTSYSATTR
  2
AmdtSystemAttribute
  3
AcAttribServices
 90
     1024
 91
        0
280
     0
281
     0
  0
CLASS
  1
CATALOGSTATE
  2
AcAmCatalogState
  3
DesignerAssemblies
 90
     1024
 91
        0
280
     0
281
     0
  0
CLASS
  1
ACAMGRCOMPDEFSET
  2
AcAmGrCompDefSet
  3
DesignerAssemblies
 90
     1024
 91
        0
280
     0
281
     0
  0
CLASS
  1
AMDTBROWSERDBTAB
  2
AmdtBrowserDbTab
  3
McadcomServices
 90
     1024
 91
        0
280
     0
281
     0
  0
CLASS
  1
CBROWSERAPPOBJECT
  2
CBrowserAppObject
  3
McadcomServices
 90
     1024
 91
        0
280
     0
281
     0
  0
CLASS
  1
DM_PLACEHOLDER
  2
AcDmSelsetPlaceholder
  3
AcMechDwgViewMgmt
 90
     1024
 91
        0
280
     0
281
     0
  0
CLASS
  1
ACMSTANDARDANSI
  2
AcmStandardANSI
  3
"Amdt_StdImp|Product Description: AutoCAD Mechanical|Company: Autodesk, Inc."
 90
     1024
 91
        0
280
     0
281
     0
  0
CLASS
  1
ACMSURFSTANDARDANSI
  2
AcmSurfTextStdANSI
  3
"Amdt_StdImp|Product Description: AutoCAD Mechanical|Company: Autodesk, Inc."
 90
     1024
 91
        0
280
     0
281
     0
  0
CLASS
  1
ACMFCFSTANDARDANSI
  2
AcmFCFStdANSI
  3
"Amdt_StdImp|Product Description: AutoCAD Mechanical|Company: Autodesk, Inc."
 90
     1024
 91
        0
280
     0
281
     0
  0
CLASS
  1
ACMWELDSTANDARDANSI
  2
AcmWeldingStdANSI
  3
"Amdt_StdImp|Product Description: AutoCAD Mechanical|Company: Autodesk, Inc."
 90
     1024
 91
        0
280
     0
281
     0
  0
CLASS
  1
ACMIDSTANDARDANSI
  2
AcmIdStdANSI
  3
"Amdt_StdImp|Product Description: AutoCAD Mechanical|Company: Autodesk, Inc."
 90
     1024
 91
        0
280
     0
281
     0
  0
CLASS
  1
ACMDATUMSTANDARDANSI
  2
AcmDatumStdANSI
  3
"Amdt_StdImp|Product Description: AutoCAD Mechanical|Company: Autodesk, Inc."
 90
     1024
 91
        0
280
     0
281
     0
  0
CLASS
  1
ACMBOMSTANDARDANSI
  2
AcmBOMStdANSI
  3
"Amdt_StdImp|Product Description: AutoCAD Mechanical|Company: Autodesk, Inc."
 90
     1024
 91
        0
280
     0
281
     0
  0
CLASS
  1
ACMDETAILSTANDARDANSI
  2
AmdtDetailSymStdANSI
  3
"Amdt_StdImp|Product Description: AutoCAD Mechanical|Company: Autodesk, Inc."
 90
     1024
 91
        0
280
     0
281
     0
  0
CLASS
  1
ACMSECTIONSTANDARDANSI
  2
AmdtSectionSymStdANSI
  3
"Amdt_StdImp|Product Description: AutoCAD Mechanical|Company: Autodesk, Inc."
 90
     1024
 91
        0
280
     0
281
     0
  0
CLASS
  1
ACMCENTERLINESTANDARDANSI
  2
AmdtCenterLineStdANSI
  3
"Amdt_StdImp|Product Description: AutoCAD Mechanical|Company: Autodesk, Inc."
 90
     1024
 91
        0
280
     0
281
     0
  0
CLASS
  1
ACMTHREADLINESTANDARDANSI
  2
AmdtThreadLineStdANSI
  3
"Amdt_StdImp|Product Description: AutoCAD Mechanical|Company: Autodesk, Inc."
 90
     1024
 91
        0
280
     0
281
     0
  0
CLASS
  1
ACMNOTESTANDARDANSI
  2
AmdtNoteStdANSI
  3
"Amdt_StdImp|Product Description: AutoCAD Mechanical|Company: Autodesk, Inc."
 90
     1024
 91
        0
280
     0
281
     0
  0
CLASS
  1
ACMTAPERSTANDARDANSI
  2
AcmTaperStdANSI
  3
"Amdt_StdImp|Product Description: AutoCAD Mechanical|Company: Autodesk, Inc."
 90
     1024
 91
        0
280
     0
281
     0
  0
CLASS
  1
ACMANOOTATIONVIEWSTANDARDANSI
  2
AmdtAnViewStdANSI
  3
"Amdt_StdImp|Product Description: AutoCAD Mechanical|Company: Autodesk, Inc."
 90
     1024
 91
        0
280
     0
281
     0
  0
CLASS
  1
ACAMGLAYSTD
  2
AcAmgLayStd
  3
"AmgLay|Product Description: AutoCAD Mechanical|Company: Autodesk, Inc."
 90
     1024
 91
        0
280
     0
281
     0
  0
CLASS
  1
ACAMGDIMSTD
  2
AcAmgDimStd
  3
"AmgDim|Product Description: AutoCAD Mechanical|Company: Autodesk, Inc."
 90
     1024
 91
        0
280
     0
281
     0
  0
CLASS
  1
ACAMGHOLECHARTSTDANSI
  2
AcAmgHoleChartStdANSI
  3
AmgDim|Product Description: AutoCAD Mechanical|Company: Autodesk, Inc.
 90
     1024
 91
        0
280
     0
281
     0
  0
CLASS
  1
AMGOBJPROPCFG
  2
AmgObjPropCfg
  3
"AmgLay|Product Description: AutoCAD Mechanical|Company: Autodesk, Inc."
 90
     1025
 91
        0
280
     0
281
     0
  0
CLASS
  1
ACAMGTITLESTD
  2
AcAmgTitleStd
  3
"AmgTitle|Product Description: AutoCAD Mechanical|Company: Autodesk, Inc."
 90
     4095
 91
        0
280
     0
281
     0
  0
CLASS
  1
AMDTNOTETEMPLATEDB
  2
AmdtNoteTemplateDB
  3
AcmSymBB|Product Description: AutoCAD Mechanical|Company: Autodesk, Inc.
 90
     1024
 91
        0
280
     0
281
     0
  0
CLASS
  1
LAYER_INDEX
  2
AcDbLayerIndex
  3
ObjectDBX Classes
 90
        0
 91
        2
280
     0
281
     0
  0
CLASS
  1
IDBUFFER
  2
AcDbIdBuffer
  3
ObjectDBX Classes
 90
        0
 91
       58
280
     0
281
     0
  0
CLASS
  1
DICTIONARYVAR
  2
AcDbDictionaryVar
  3
ObjectDBX Classes
 90
        0
 91
       12
280
     0
281
     0
  0
CLASS
  1
CELLSTYLEMAP
  2
AcDbCellStyleMap
  3
ObjectDBX Classes
 90
     1152
 91
        1
280
     0
281
     0
  0
CLASS
  1
ACMSTANDARDISO
  2
AcmStandardISO
  3
"Amdt_StdImp|Product Description: AutoCAD Mechanical|Company: Autodesk, Inc."
 90
     1024
 91
        0
280
     0
281
     0
  0
CLASS
  1
AMDTEDGESTANDARDISO13715
  2
AmdtEdgeStdISO13715
  3
"Amdt_StdImp|Product Description: AutoCAD Mechanical|Company: Autodesk, Inc."
 90
     1024
 91
        0
280
     0
281
     0
  0
CLASS
  1
ACMSURFSTANDARDISO2002
  2
AcmSurfTextStdISO2002
  3
"Amdt_StdImp|Product Description: AutoCAD Mechanical|Company: Autodesk, Inc."
 90
     1024
 91
        0
280
     0
281
     0
  0
CLASS
  1
ACMFCFSTANDARDISO
  2
AcmFCFStdISO
  3
"Amdt_StdImp|Product Description: AutoCAD Mechanical|Company: Autodesk, Inc."
 90
     1024
 91
        0
280
     0
281
     0
  0
CLASS
  1
ACMWELDSTANDARDISO
  2
AcmWeldingStdISO
  3
"Amdt_StdImp|Product Description: AutoCAD Mechanical|Company: Autodesk, Inc."
 90
     1024
 91
        0
280
     0
281
     0
  0
CLASS
  1
ACMIDSTANDARDISO
  2
AcmIdStdISO
  3
"Amdt_StdImp|Product Description: AutoCAD Mechanical|Company: Autodesk, Inc."
 90
     1024
 91
        0
280
     0
281
     0
  0
CLASS
  1
ACMDATUMSTANDARDISO
  2
AcmDatumStdISO
  3
"Amdt_StdImp|Product Description: AutoCAD Mechanical|Company: Autodesk, Inc."
 90
     1024
 91
        0
280
     0
281
     0
  0
CLASS
  1
ACMBOMSTANDARDISO
  2
AcmBOMStdISO
  3
"Amdt_StdImp|Product Description: AutoCAD Mechanical|Company: Autodesk, Inc."
 90
     1024
 91
        0
280
     0
281
     0
  0
CLASS
  1
ACMDETAILSTANDARDISO
  2
AmdtDetailSymStdISO
  3
"Amdt_StdImp|Product Description: AutoCAD Mechanical|Company: Autodesk, Inc."
 90
     1024
 91
        0
280
     0
281
     0
  0
CLASS
  1
ACMSECTIONSTANDARDISO2001
  2
AmdtSectionSymStdISO2001
  3
"Amdt_StdImp|Product Description: AutoCAD Mechanical|Company: Autodesk, Inc."
 90
     1024
 91
        0
280
     0
281
     0
  0
CLASS
  1
ACMCENTERLINESTANDARDISO
  2
AmdtCenterLineStdISO
  3
"Amdt_StdImp|Product Description: AutoCAD Mechanical|Company: Autodesk, Inc."
 90
     1024
 91
        0
280
     0
281
     0
  0
CLASS
  1
ACMTHREADLINESTANDARDISO
  2
AmdtThreadLineStdISO
  3
"Amdt_StdImp|Product Description: AutoCAD Mechanical|Company: Autodesk, Inc."
 90
     1024
 91
        0
280
     0
281
     0
  0
CLASS
  1
ACMNOTESTANDARDISO
  2
AmdtNoteStdISO
  3
"Amdt_StdImp|Product Description: AutoCAD Mechanical|Company: Autodesk, Inc."
 90
     1024
 91
        0
280
     0
281
     0
  0
CLASS
  1
ACMTAPERSTANDARDISO
  2
AcmTaperStdISO
  3
"Amdt_StdImp|Product Description: AutoCAD Mechanical|Company: Autodesk, Inc."
 90
     1024
 91
        0
280
     0
281
     0
  0
CLASS
  1
ACMANOOTATIONVIEWSTANDARDISO
  2
AmdtAnViewStdISO
  3
"Amdt_StdImp|Product Description: AutoCAD Mechanical|Company: Autodesk, Inc."
 90
     1024
 91
        0
280
     0
281
     0
  0
CLASS
  1
ACAMGHOLECHARTSTDISO
  2
AcAmgHoleChartStdISO
  3
AmgDim|Product Description: AutoCAD Mechanical|Company: Autodesk, Inc.
 90
     1024
 91
        0
280
     0
281
     0
  0
CLASS
  1
ACAMGFILTERDAT
  2
AcAmgFilterDat
  3
"AcadM|Product Description: AutoCAD Mechanical|Company: Autodesk, Inc."
 90
     1024
 91
        6
280
     0
281
     0
  0
CLASS
  1
ACDBSECTIONVIEWSTYLE
  2
AcDbSectionViewStyle
  3
ObjectDBX Classes
 90
     1025
 91
        2
280
     0
281
     0
  0
CLASS
  1
ACDBDETAILVIEWSTYLE
  2
AcDbDetailViewStyle
  3
ObjectDBX Classes
 90
     1025
 91
        2
280
     0
281
     0
  0
CLASS
  1
SORTENTSTABLE
  2
AcDbSortentsTable
  3
ObjectDBX Classes
 90
        0
 91
        3
280
     0
281
     0
  0
CLASS
  1
MULTILEADER
  2
AcDbMLeader
  3
ACDB_MLEADER_CLASS
 90
     1025
 91
        3
280
     0
281
     1
  0
ENDSEC
  0
SECTION
  2
TABLES
  0
TABLE
  2
VPORT
  5
2A42
330
0
100
AcDbSymbolTable
 70
     1
1001
ACAD
1000
DbSaveVer
1071
      300
  0
VPORT
  5
2AB2
330
2A42
100
AcDbSymbolTableRecord
100
AcDbViewportTableRecord
  2
*ACTIVE
 70
     0
 10
0.0
 20
0.0
 11
1.0
 21
1.0
 12
-104.7191131953015
 22
467.1936040595102
 13
0.0
 23
0.0
 14
1.0
 24
1.0
 15
0.0
 25
0.0
 16
0.0
 26
0.0
 36
1.0
 17
406.0878407551866
 27
-199.6307277582018
 37
0.0
 40
1809.523563229357
 41
1.797297297297297
 42
50.0
 43
0.0
 44
0.0
 50
0.0
 51
0.0
 71
     0
 72
   100
 73
     1
 74
     3
 75
     0
 76
     0
 77
     0
 78
     1
281
     0
 65
     0
110
0.0
120
0.0
130
0.0
111
1.0
121
0.0
131
0.0
112
0.0
122
1.0
132
0.0
 79
     0
146
0.0
348
2A69
 60
     3
 61
     5
292
     1
282
     1
141
0.0
142
0.0
 63
   250
421
  3355443
1001
ACAD_NAV_VCDISPLAY
1070
     3
  0
ENDTAB
  0
TABLE
  2
LTYPE
  5
2A3F
330
0
100
AcDbSymbolTable
 70
    25
  0
LTYPE
  5
2A9C
330
2A3F
100
AcDbSymbolTableRecord
100
AcDbLinetypeTableRecord
  2
ByBlock
 70
     0
  3

 72
    65
 73
     0
 40
0.0
  0
LTYPE
  5
2A9D
330
2A3F
100
AcDbSymbolTableRecord
100
AcDbLinetypeTableRecord
  2
ByLayer
 70
     0
  3

 72
    65
 73
     0
 40
0.0
  0
LTYPE
  5
2A9E
330
2A3F
100
AcDbSymbolTableRecord
100
AcDbLinetypeTableRecord
  2
CONTINUOUS
 70
     0
  3
実線
 72
    65
 73
     0
 40
0.0
  0
LTYPE
  5
2AB3
330
2A3F
100
AcDbSymbolTableRecord
100
AcDbLinetypeTableRecord
  2
DASHDOT
 70
     0
  3
____ _ ____ _ ____ _ ____ _ ____ _ ____ _ ____
 72
    65
 73
     4
 40
5.5
 49
4.0
 74
     0
 49
-0.6
 74
     0
 49
0.3
 74
     0
 49
-0.6
 74
     0
  0
LTYPE
  5
2AB4
330
2A3F
100
AcDbSymbolTableRecord
100
AcDbLinetypeTableRecord
  2
HIDDEN
 70
     0
  3
Hidden __ __ __ __ __ __ __ __ __ __ __ __ __ _
 72
    65
 73
     2
 40
0.375
 49
0.25
 74
     0
 49
-0.125
 74
     0
  0
LTYPE
  5
2AB5
330
2A3F
100
AcDbSymbolTableRecord
100
AcDbLinetypeTableRecord
  2
PHANTOM2
 70
     0
  3
Phantom (.5x) ___ _ _ ___ _ _ ___ _ _ ___ _ _
 72
    65
 73
     6
 40
1.25
 49
0.625
 74
     0
 49
-0.125
 74
     0
 49
0.125
 74
     0
 49
-0.125
 74
     0
 49
0.125
 74
     0
 49
-0.125
 74
     0
  0
LTYPE
  5
2AB6
330
2A3F
100
AcDbSymbolTableRecord
100
AcDbLinetypeTableRecord
  2
CENTER
 70
     0
  3
Center ____ _ ____ _ ____ _ ____ _ ____ _ ____
 72
    65
 73
     4
 40
2.0
 49
1.25
 74
     0
 49
-0.25
 74
     0
 49
0.25
 74
     0
 49
-0.25
 74
     0
  0
LTYPE
  5
2AB7
330
2A3F
100
AcDbSymbolTableRecord
100
AcDbLinetypeTableRecord
  2
ASULTYPE
 70
     0
  3
実線
 72
    65
 73
     2
 40
3.0
 49
2.5
 74
     0
 49
0.5
 74
     0
  0
LTYPE
  5
2AB8
330
2A3F
100
AcDbSymbolTableRecord
100
AcDbLinetypeTableRecord
  2
ASVLTYPE
 70
     0
  3
__ __ __ __ __ __ __ __ __ __ __ __ __ __ __ __ __ __ __ __ __
 72
    65
 73
     2
 40
0.75
 49
0.5
 74
     0
 49
-0.25
 74
     0
  0
LTYPE
  5
2AB9
330
2A3F
100
AcDbSymbolTableRecord
100
AcDbLinetypeTableRecord
  2
AM_ISO02W050
 70
     0
  3
__ __ __ __ __ __ __ __ __ __ __ __ __ __ __
 72
    65
 73
     2
 40
7.5
 49
6.0
 74
     0
 49
-1.5
 74
     0
  0
LTYPE
  5
2ABA
330
2A3F
100
AcDbSymbolTableRecord
100
AcDbLinetypeTableRecord
  2
AM_ISO08W050
 70
     0
  3
____ . ____ . ____ . ____ . ____ . ____ . ____
 72
    65
 73
     4
 40
18.0
 49
12.0
 74
     0
 49
-1.5
 74
     0
 49
3.0
 74
     0
 49
-1.5
 74
     0
  0
LTYPE
  5
2ABB
330
2A3F
100
AcDbSymbolTableRecord
100
AcDbLinetypeTableRecord
  2
AM_ISO09W050
 70
     0
  3
_____ . . _____ . . _____ . . ____ .. ____
 72
    65
 73
     6
 40
22.5
 49
12.0
 74
     0
 49
-1.5
 74
     0
 49
3.0
 74
     0
 49
-1.5
 74
     0
 49
3.0
 74
     0
 49
-1.5
 74
     0
  0
LTYPE
  5
2ABC
330
2A3F
100
AcDbSymbolTableRecord
100
AcDbLinetypeTableRecord
  2
AMCONSTR
 70
     0
  3
_______________________
 72
    65
 73
     2
 40
9999.0
 49
9999.0
 74
     0
 49
0.0
 74
     0
  0
LTYPE
  5
2ABD
330
2A3F
100
AcDbSymbolTableRecord
100
AcDbLinetypeTableRecord
  2
AM_ISO08W050X2
 70
     0
  3
__ . __ . __ . __ . __ . __
 72
    65
 73
     4
 40
9.0
 49
6.0
 74
     0
 49
-0.75
 74
     0
 49
1.5
 74
     0
 49
-0.75
 74
     0
  0
LTYPE
  5
2ABE
330
2A3F
100
AcDbSymbolTableRecord
100
AcDbLinetypeTableRecord
  2
AM_ISO02W050X2
 70
     0
  3
 _ _ _ _ _ _ _ _ _ _ _ _
 72
    65
 73
     2
 40
3.75
 49
3.0
 74
     0
 49
-0.75
 74
     0
  0
LTYPE
  5
2ABF
330
2A3F
100
AcDbSymbolTableRecord
100
AcDbLinetypeTableRecord
  2
AMZIGZAG
 70
     0
  3
/\/-/\/-/\/-/\/-/\/-/\/
 72
    65
 73
     2
 40
11.0001
 49
0.0001
 74
     0
 49
-11.0
 74
     0
  0
LTYPE
  5
2AC0
330
2A3F
100
AcDbSymbolTableRecord
100
AcDbLinetypeTableRecord
  2
CENTER2
 70
     0
  3
Center (.5x) ___ _ ___ _ ___ _ ___ _ ___ _ ___
 72
    65
 73
     4
 40
1.125
 49
0.75
 74
     0
 49
-0.125
 74
     0
 49
0.125
 74
     0
 49
-0.125
 74
     0
  0
LTYPE
  5
2AC1
330
2A3F
100
AcDbSymbolTableRecord
100
AcDbLinetypeTableRecord
  2
HIDDEN2
 70
     0
  3
Hidden (.5x) _ _ _ _ _ _ _ _ _ _ _ _ _ _ _ _ _
 72
    65
 73
     2
 40
0.1875
 49
0.125
 74
     0
 49
-0.0625
 74
     0
  0
LTYPE
  5
2AC2
330
2A3F
100
AcDbSymbolTableRecord
100
AcDbLinetypeTableRecord
  2
AMZIGZAG2
 70
     0
  3
/\/-/\/-/\/-/\/-/\/-/\/
 72
    65
 73
     2
 40
0.4401
 49
0.0001
 74
     0
 49
-0.4400000000000003
 74
     0
  0
LTYPE
  5
2AC3
330
2A3F
100
AcDbSymbolTableRecord
100
AcDbLinetypeTableRecord
  2
ACANSTGB
 70
     0
  3
__ . . __ . .
 72
    65
 73
     6
 40
0.35433070866
 49
0.15748031496
 74
     0
 49
-0.03937007874
 74
     0
 49
0.03937007874
 74
     0
 49
-0.03937007874
 74
     0
 49
0.03937007874
 74
     0
 49
-0.03937007874
 74
     0
  0
LTYPE
  5
2AC4
330
2A3F
100
AcDbSymbolTableRecord
100
AcDbLinetypeTableRecord
  2
ACANSTGL
 70
     0
  3
_ _ _ _ _
 72
    65
 73
     2
 40
0.11811023622
 49
0.07874015748
 74
     0
 49
-0.03937007874
 74
     0
  0
LTYPE
  5
2D21
330
2A3F
100
AcDbSymbolTableRecord
100
AcDbLinetypeTableRecord
  2
ACISOWELD
 70
     0
  3
_ _ _ _ _
 72
    65
 73
     2
 40
2.0
 49
2.0
 74
     0
 49
-1.0
 74
     0
  0
LTYPE
  5
2D22
330
2A3F
100
AcDbSymbolTableRecord
100
AcDbLinetypeTableRecord
  2
ACISOTGB
 70
     0
  3
__ . . __ . .
 72
    65
 73
     6
 40
9.0
 49
4.0
 74
     0
 49
-1.0
 74
     0
 49
1.0
 74
     0
 49
-1.0
 74
     0
 49
1.0
 74
     0
 49
-1.0
 74
     0
  0
LTYPE
  5
2D23
330
2A3F
100
AcDbSymbolTableRecord
100
AcDbLinetypeTableRecord
  2
ACISOTGL
 70
     0
  3
_ _ _ _ _
 72
    65
 73
     2
 40
3.0
 49
2.0
 74
     0
 49
-1.0
 74
     0
  0
LTYPE
  5
340B
330
2A3F
100
AcDbSymbolTableRecord
100
AcDbLinetypeTableRecord
  2
CHAIN
 70
     0
  3
Chain ____ _ ____ _ ____ _ ____ _ ____ _ ____
 72
    65
 73
     4
 40
0.3543
 49
0.2362
 74
     0
 49
-0.0295
 74
     0
 49
0.0591
 74
     0
 49
-0.0295
 74
     0
  0
LTYPE
  5
54F8
330
2A3F
100
AcDbSymbolTableRecord
100
AcDbLinetypeTableRecord
  2
実線
 70
     0
  3

 72
    65
 73
     0
 40
0.0
  0
ENDTAB
  0
TABLE
  2
LAYER
  5
2A3C
102
{ACAD_XDICTIONARY
360
2D35
102
}
330
0
100
AcDbSymbolTable
 70
    19
  0
LAYER
  5
2A96
102
{ACAD_XDICTIONARY
360
2C01
102
}
330
2A3C
100
AcDbSymbolTableRecord
100
AcDbLayerTableRecord
  2
0
 70
     0
 62
     7
  6
CONTINUOUS
370
    -3
390
2A49
347
2A5B
  0
LAYER
  5
2AC5
102
{ACAD_XDICTIONARY
360
2C03
102
}
330
2A3C
100
AcDbSymbolTableRecord
100
AcDbLayerTableRecord
  2
OUTLINE
 70
     0
 62
     3
  6
CONTINUOUS
370
    -3
390
2A49
347
2A5B
  0
LAYER
  5
2AC6
102
{ACAD_XDICTIONARY
360
2C05
102
}
330
2A3C
100
AcDbSymbolTableRecord
100
AcDbLayerTableRecord
  2
SIZE
 70
     0
 62
    30
  6
CONTINUOUS
370
    -3
390
2A49
347
2A5B
  0
LAYER
  5
2AC7
102
{ACAD_XDICTIONARY
360
2C07
102
}
330
2A3C
100
AcDbSymbolTableRecord
100
AcDbLayerTableRecord
  2
BASIS
 70
     0
 62
     6
  6
DASHDOT
370
    -3
390
2A49
347
2A5B
  0
LAYER
  5
2AC8
102
{ACAD_XDICTIONARY
360
2C09
102
}
330
2A3C
100
AcDbSymbolTableRecord
100
AcDbLayerTableRecord
  2
DETAIL
 70
     0
 62
     5
  6
CONTINUOUS
370
    -3
390
2A49
347
2A5B
  0
LAYER
  5
2AC9
102
{ACAD_XDICTIONARY
360
2C0B
102
}
330
2A3C
100
AcDbSymbolTableRecord
100
AcDbLayerTableRecord
  2
ARRANGE
 70
     0
 62
     1
  6
CONTINUOUS
370
    -3
390
2A49
347
2A5B
  0
LAYER
  5
2ACA
330
2A3C
100
AcDbSymbolTableRecord
100
AcDbLayerTableRecord
  2
DEFPOINTS
 70
     0
 62
     7
  6
CONTINUOUS
290
     0
370
    -3
390
2A49
347
2A5B
  0
LAYER
  5
2ACB
102
{ACAD_XDICTIONARY
360
2C0D
102
}
330
2A3C
100
AcDbSymbolTableRecord
100
AcDbLayerTableRecord
  2
ETC
 70
     0
 62
    61
  6
CONTINUOUS
370
    -3
390
2A49
347
2A5B
  0
LAYER
  5
2ACC
102
{ACAD_XDICTIONARY
360
2C0F
102
}
330
2A3C
100
AcDbSymbolTableRecord
100
AcDbLayerTableRecord
  2
FIX
 70
     0
 62
    11
  6
CONTINUOUS
370
    -3
390
2A49
347
2A5B
  0
LAYER
  5
2ACD
102
{ACAD_XDICTIONARY
360
2C11
102
}
330
2A3C
100
AcDbSymbolTableRecord
100
AcDbLayerTableRecord
  2
NOTE
 70
     0
 62
     4
  6
CONTINUOUS
370
    -3
390
2A49
347
2A5B
  0
LAYER
  5
2ACE
102
{ACAD_XDICTIONARY
360
2C13
102
}
330
2A3C
100
AcDbSymbolTableRecord
100
AcDbLayerTableRecord
  2
SERVICESPACE
 70
     0
 62
     2
  6
DASHDOT
370
    -3
390
2A49
347
2A5B
  0
LAYER
  5
2ACF
102
{ACAD_XDICTIONARY
360
2C15
102
}
330
2A3C
100
AcDbSymbolTableRecord
100
AcDbLayerTableRecord
  2
SYMBOLLINE
 70
     0
 62
    15
  6
CONTINUOUS
370
    -3
390
2A49
347
2A5B
  0
LAYER
  5
2D24
102
{ACAD_XDICTIONARY
360
2D25
102
}
330
2A3C
100
AcDbSymbolTableRecord
100
AcDbLayerTableRecord
  2
AM_VIS
 70
     0
 62
     4
  6
CONTINUOUS
370
    25
390
2A49
347
2A5B
  0
LAYER
  5
2D26
102
{ACAD_XDICTIONARY
360
2D27
102
}
330
2A3C
100
AcDbSymbolTableRecord
100
AcDbLayerTableRecord
  2
AM_7
 70
     0
 62
     6
  6
AM_ISO08W050
370
    25
390
2A49
347
2A5B
  0
LAYER
  5
2D28
330
2A3C
100
AcDbSymbolTableRecord
100
AcDbLayerTableRecord
  2
1
 70
     0
 62
     9
  6
CONTINUOUS
370
    -3
390
2A49
347
2A5B
1001
AcAecLayerStandard
1000

1000

  0
LAYER
  5
340C
330
2A3C
100
AcDbSymbolTableRecord
100
AcDbLayerTableRecord
  2
Centerline (ISO)
 70
     0
 62
     7
  6
CONTINUOUS
370
     9
390
2A49
347
2A5B
  0
LAYER
  5
340D
330
2A3C
100
AcDbSymbolTableRecord
100
AcDbLayerTableRecord
  2
Visible (ISO)
 70
     0
 62
     7
  6
CONTINUOUS
370
    25
390
2A49
347
2A5B
  0
LAYER
  5
340E
330
2A3C
100
AcDbSymbolTableRecord
100
AcDbLayerTableRecord
  2
Visible Narrow (ISO)
 70
     0
 62
     7
  6
CONTINUOUS
370
    35
390
2A49
347
2A5B
  0
LAYER
  5
54F9
102
{ACAD_XDICTIONARY
360
54FA
102
}
330
2A3C
100
AcDbSymbolTableRecord
100
AcDbLayerTableRecord
  2
外形線
 70
     0
 62
     4
  6
CONTINUOUS
370
    -3
390
2A49
347
2A5B
  0
ENDTAB
  0
TABLE
  2
STYLE
  5
2A3D
330
0
100
AcDbSymbolTable
 70
    11
  0
STYLE
  5
2A97
330
2A3D
100
AcDbSymbolTableRecord
100
AcDbTextStyleTableRecord
  2
STANDARD
 70
     0
 40
64.0
 41
0.9
 50
0.0
 71
     0
 42
64.0
  3
SIMPLEX.shx
  4
BIGFONT.shx
  0
STYLE
  5
2A9B
330
2A3D
100
AcDbSymbolTableRecord
100
AcDbTextStyleTableRecord
  2
ANNOTATIVE
 70
     0
 40
0.0
 41
1.0
 50
0.0
 71
     0
 42
0.2
  3
txt
  4

1001
ACADANNOTATIVE
1000
AnnotativeData
1002
{
1070
     1
1070
     1
1002
}
  0
STYLE
  5
2AD0
330
2A3D
100
AcDbSymbolTableRecord
100
AcDbTextStyleTableRecord
  2

 70
     1
 40
0.0
 41
1.0
 50
0.0
 71
     0
 42
64.0
  3
genltshp.shx
  4

  0
STYLE
  5
2AD1
330
2A3D
100
AcDbSymbolTableRecord
100
AcDbTextStyleTableRecord
  2
ACANSTS
 70
     0
 40
1.0
 41
1.0
 50
0.0
 71
     0
 42
64.0
  3
romans.shx
  4
extfont.shx
  0
STYLE
  5
2AD2
330
2A3D
100
AcDbSymbolTableRecord
100
AcDbTextStyleTableRecord
  2
ACANSGDT
 70
     0
 40
0.0
 41
1.0
 50
0.0
 71
     0
 42
64.0
  3
amgdt.shx
  4

  0
STYLE
  5
2D29
330
2A3D
100
AcDbSymbolTableRecord
100
AcDbTextStyleTableRecord
  2
0.7
 70
     0
 40
0.0
 41
0.7
 50
0.0
 71
     0
 42
30.0
  3
romans.shx
  4
extfont.shx
  0
STYLE
  5
2D2A
330
2A3D
100
AcDbSymbolTableRecord
100
AcDbTextStyleTableRecord
  2
ACISOTS
 70
     0
 40
1.0
 41
1.0
 50
0.0
 71
     0
 42
30.0
  3
isocp.shx
  4
extfont.shx
  0
STYLE
  5
2D2B
330
2A3D
100
AcDbSymbolTableRecord
100
AcDbTextStyleTableRecord
  2
ACISOGDT
 70
     0
 40
0.0
 41
1.0
 50
0.0
 71
     0
 42
30.0
  3
amgdt.shx
  4

  0
STYLE
  5
340F
330
2A3D
100
AcDbSymbolTableRecord
100
AcDbTextStyleTableRecord
  2
寸法 Text1 (JIS)
 70
     0
 40
0.0
 41
1.0
 50
0.0
 71
     0
 42
0.2
  3

  4

1001
ACAD
1000
MS Gothic
1071
      256
  0
STYLE
  5
54FB
330
2A3D
100
AcDbSymbolTableRecord
100
AcDbTextStyleTableRecord
  2
Note Text1 (JIS)
 70
     0
 40
0.0
 41
1.0
 50
0.0
 71
     0
 42
0.2
  3
tahoma.ttf
  4

1001
ACAD
1000
Tahoma
1071
      256
  0
STYLE
  5
54FC
330
2A3D
100
AcDbSymbolTableRecord
100
AcDbTextStyleTableRecord
  2
STANDARDSTANDARD
 70
     0
 40
0.0
 41
1.0
 50
0.0
 71
     0
 42
0.2
  3
romans__.ttf
  4

1001
ACAD
1000
romans
1071
      256
  0
ENDTAB
  0
TABLE
  2
VIEW
  5
2A40
330
0
100
AcDbSymbolTable
 70
     2
  0
VIEW
  5
2AD3
330
2A40
100
AcDbSymbolTableRecord
100
AcDbViewTableRecord
  2
ALL
 70
     0
 40
4282.619807999997
 10
0.0
 20
41.30990399999999
 41
5940.0
 11
0.0
 21
0.0
 31
1.0
 12
0.0
 22
0.0
 32
0.0
 42
50.0
 43
0.0
 44
0.0
 50
0.0
 71
     0
281
     0
 72
     1
110
0.0
120
0.0
130
0.0
111
1.0
121
0.0
131
0.0
112
0.0
122
1.0
132
0.0
 79
     0
146
0.0
 73
     0
348
2A69
  0
ENDTAB
  0
TABLE
  2
UCS
  5
2A41
330
0
100
AcDbSymbolTable
 70
     0
  0
ENDTAB
  0
TABLE
  2
APPID
  5
2A43
330
0
100
AcDbSymbolTable
 70
    34
  0
APPID
  5
2A98
330
2A43
100
AcDbSymbolTableRecord
100
AcDbRegAppTableRecord
  2
ACAD
 70
     0
  0
APPID
  5
2A9F
330
2A43
100
AcDbSymbolTableRecord
100
AcDbRegAppTableRecord
  2
ACADANNOTATIVE
 70
     0
  0
APPID
  5
2AA9
330
2A43
100
AcDbSymbolTableRecord
100
AcDbRegAppTableRecord
  2
ACAD_MLEADERVER
 70
     0
  0
APPID
  5
2AD4
330
2A43
100
AcDbSymbolTableRecord
100
AcDbRegAppTableRecord
  2
GENIUS_GENDIM_13
 70
     0
  0
APPID
  5
2AD5
330
2A43
100
AcDbSymbolTableRecord
100
AcDbRegAppTableRecord
  2
GENIUS_GENDTOL_13
 70
     0
  0
APPID
  5
2AD6
330
2A43
100
AcDbSymbolTableRecord
100
AcDbRegAppTableRecord
  2
GENIUS_GE3DTOL_13
 70
     0
  0
APPID
  5
2AD7
330
2A43
100
AcDbSymbolTableRecord
100
AcDbRegAppTableRecord
  2
MCAD_NO_VIS
 70
     0
  0
APPID
  5
2AD8
330
2A43
100
AcDbSymbolTableRecord
100
AcDbRegAppTableRecord
  2
ACAD_TEMP_GRAPHIC
 70
     0
  0
APPID
  5
2AD9
330
2A43
100
AcDbSymbolTableRecord
100
AcDbRegAppTableRecord
  2
AD_DRAW
 70
     0
  0
APPID
  5
2ADA
330
2A43
100
AcDbSymbolTableRecord
100
AcDbRegAppTableRecord
  2
ACATTRIBSERVICES
 70
     0
  0
APPID
  5
2ADB
330
2A43
100
AcDbSymbolTableRecord
100
AcDbRegAppTableRecord
  2
ASURF_PCURVE_APPNAME
 70
     0
  0
APPID
  5
2ADC
330
2A43
100
AcDbSymbolTableRecord
100
AcDbRegAppTableRecord
  2
AMG_3D2D_5_0
 70
     0
  0
APPID
  5
2ADD
330
2A43
100
AcDbSymbolTableRecord
100
AcDbRegAppTableRecord
  2
DESIGNERASSEMBLIES
 70
     0
  0
APPID
  5
2ADE
330
2A43
100
AcDbSymbolTableRecord
100
AcDbRegAppTableRecord
  2
ACADM_DIM_EDIT
 70
     0
  0
APPID
  5
2ADF
330
2A43
100
AcDbSymbolTableRecord
100
AcDbRegAppTableRecord
  2
AMDT_DM_ADJ
 70
     0
  0
APPID
  5
2AE0
330
2A43
100
AcDbSymbolTableRecord
100
AcDbRegAppTableRecord
  2
ACAD_DSTYLE_DIMARC_LENGTH_
 70
     0
  0
APPID
  5
2AE1
330
2A43
100
AcDbSymbolTableRecord
100
AcDbRegAppTableRecord
  2
ACAD_DSTYLE_DIMJOGGED_JOGA
 70
     0
  0
APPID
  5
2AE2
330
2A43
100
AcDbSymbolTableRecord
100
AcDbRegAppTableRecord
  2
ACAD_PSEXT
 70
     0
  0
APPID
  5
2AE3
330
2A43
100
AcDbSymbolTableRecord
100
AcDbRegAppTableRecord
  2
ACAD_EXEMPT_FROM_CAD_STANDARDS
 70
     0
  0
APPID
  5
2AE4
330
2A43
100
AcDbSymbolTableRecord
100
AcDbRegAppTableRecord
  2
ACAD_DSTYLE_DIMJAG
 70
     0
  0
APPID
  5
2AE5
330
2A43
100
AcDbSymbolTableRecord
100
AcDbRegAppTableRecord
  2
ACAD_DSTYLE_DIMTALN
 70
     0
  0
APPID
  5
2AE6
330
2A43
100
AcDbSymbolTableRecord
100
AcDbRegAppTableRecord
  2
AMG_3D2D_5_00
 70
     0
  0
APPID
  5
2AE7
330
2A43
100
AcDbSymbolTableRecord
100
AcDbRegAppTableRecord
  2
AMG_3D2D_5_01
 70
     0
  0
APPID
  5
2AE8
330
2A43
100
AcDbSymbolTableRecord
100
AcDbRegAppTableRecord
  2
AMG_3D2D_5_02
 70
     0
  0
APPID
  5
2BA8
330
2A43
100
AcDbSymbolTableRecord
100
AcDbRegAppTableRecord
  2
AMG_3D2D_5.0
 70
     0
  0
APPID
  5
2C3E
330
2A43
100
AcDbSymbolTableRecord
100
AcDbRegAppTableRecord
  2
ACAD_DSTYLE_DIMARC_LENGTH_SYMBOL
 70
     0
  0
APPID
  5
2C3F
330
2A43
100
AcDbSymbolTableRecord
100
AcDbRegAppTableRecord
  2
ACAD_DSTYLE_DIM_LINETYPE
 70
     0
  0
APPID
  5
2C40
330
2A43
100
AcDbSymbolTableRecord
100
AcDbRegAppTableRecord
  2
ACAD_DSTYLE_DIM_EXT1_LINETYPE
 70
     0
  0
APPID
  5
2C41
330
2A43
100
AcDbSymbolTableRecord
100
AcDbRegAppTableRecord
  2
ACAD_DSTYLE_DIM_EXT2_LINETYPE
 70
     0
  0
APPID
  5
2D34
330
2A43
100
AcDbSymbolTableRecord
100
AcDbRegAppTableRecord
  2
AcAecLayerStandard
 70
     0
  0
APPID
  5
3219
330
2A43
100
AcDbSymbolTableRecord
100
AcDbRegAppTableRecord
  2
ACAD_DSTYLE_DIMINSPECT
 70
     0
  0
APPID
  5
3411
330
2A43
100
AcDbSymbolTableRecord
100
AcDbRegAppTableRecord
  2
ACAD_NAV_VCDISPLAY
 70
     0
  0
APPID
  5
35FE
330
2A43
100
AcDbSymbolTableRecord
100
AcDbRegAppTableRecord
  2
AcadAnnoMonitorAlertIconDisabled
 70
     0
  0
APPID
  5
4BDE
330
2A43
100
AcDbSymbolTableRecord
100
AcDbRegAppTableRecord
  2
Acad_TC
 70
     0
  0
ENDTAB
  0
TABLE
  2
DIMSTYLE
  5
2A44
330
0
100
AcDbSymbolTable
 70
    20
100
AcDbDimStyleTable
 71
     2
340
2A99
340
2AE9
  0
DIMSTYLE
105
2A99
330
2A44
100
AcDbSymbolTableRecord
100
AcDbDimStyleTableRecord
  2
STANDARD
 70
     0
 41
12.0
 42
20.0
 44
20.0
 77
     1
 78
     8
140
64.0
141
0.0
147
10.0
172
     1
275
     1
279
     2
284
     7
285
     7
286
     7
340
2A97
342
2AFE
1001
ACAD_DSTYLE_DIMJAG
1070
   388
1040
1.5
1001
ACAD_DSTYLE_DIMTALN
1070
   392
1070
     0
  0
DIMSTYLE
105
2A9A
330
2A44
100
AcDbSymbolTableRecord
100
AcDbDimStyleTableRecord
  2
ANNOTATIVE
 70
     0
275
     1
279
     2
284
     7
285
     7
286
     7
340
2A97
1001
ACADANNOTATIVE
1000
AnnotativeData
1002
{
1070
     1
1070
     1
1002
}
  0
DIMSTYLE
105
2AE9
330
2A44
100
AcDbSymbolTableRecord
100
AcDbDimStyleTableRecord
  2
AM_ANSI
 70
     0
  4
mm
 41
0.12
 42
0.05
 43
0.5
 44
0.1
 47
0.1
 48
0.1
 78
     7
 79
     2
 90
        1
140
0.12
141
0.0
146
0.71
147
0.06
176
   256
177
   256
178
     2
274
     4
284
     7
340
2A97
345
2A9C
346
2A9C
347
2A9C
371
    -1
372
    -1
  0
DIMSTYLE
105
2AEA
330
2A44
100
AcDbSymbolTableRecord
100
AcDbDimStyleTableRecord
  2
AM_ANSI$3
 70
     0
  4
mm
 41
0.12
 42
0.05
 43
0.5
 44
0.1
 47
0.1
 48
0.1
 78
     7
 79
     2
 90
        1
140
0.12
141
0.0
146
0.71
147
0.06
176
   256
177
   256
178
     2
274
     4
284
     7
288
     1
289
     0
340
2A97
345
2A9C
346
2A9C
347
2A9C
371
    -1
372
    -1
  0
DIMSTYLE
105
2AEB
330
2A44
100
AcDbSymbolTableRecord
100
AcDbDimStyleTableRecord
  2
AM_ANSI$4
 70
     0
  4
mm
 41
0.12
 42
0.05
 43
0.5
 44
0.1
 47
0.1
 48
0.1
 78
     7
 79
     2
 90
        1
140
0.12
141
0.0
146
0.71
147
0.06
176
   256
177
   256
178
     2
274
     4
284
     7
340
2A97
345
2A9C
346
2A9C
347
2A9C
371
    -1
372
    -1
  0
DIMSTYLE
105
2AEC
330
2A44
100
AcDbSymbolTableRecord
100
AcDbDimStyleTableRecord
  2
AM_ANSI$7
 70
     0
  4
mm
 41
0.12
 42
0.05
 43
0.5
 44
0.1
 47
0.1
 48
0.1
 78
     7
 79
     2
 90
        1
140
0.12
141
0.0
146
0.71
147
0.06
176
   256
177
   256
178
     2
274
     4
284
     7
340
2A97
345
2A9C
346
2A9C
347
2A9C
371
    -1
372
    -1
  0
DIMSTYLE
105
2AED
330
2A44
100
AcDbSymbolTableRecord
100
AcDbDimStyleTableRecord
  2
AM_ANSI$SF
 70
     0
  4
mm
 41
0.12
 42
0.05
 43
0.5
 44
0.1
 47
0.1
 48
0.1
 75
     1
 76
     1
 78
     7
 79
     2
 90
        1
140
0.12
141
0.0
146
0.71
147
0.06
176
   256
177
   256
178
     2
274
     4
284
     7
340
2A97
345
2A9C
346
2A9C
347
2A9C
371
    -1
372
    -1
  0
DIMSTYLE
105
2AEE
330
2A44
100
AcDbSymbolTableRecord
100
AcDbDimStyleTableRecord
  2
AM_ANSI$SH
 70
     0
  4
mm
 41
0.12
 42
0.05
 43
0.5
 44
0.1
 47
0.1
 48
0.1
 75
     1
 76
     1
 78
     7
 79
     2
 90
        1
140
0.12
141
0.0
146
0.71
147
0.06
173
     1
176
   256
177
   256
178
     2
274
     4
284
     7
340
2A97
343
2B02
345
2A9C
346
2A9C
347
2A9C
371
    -1
372
    -1
  0
DIMSTYLE
105
2AEF
330
2A44
100
AcDbSymbolTableRecord
100
AcDbDimStyleTableRecord
  2
STANDARD1
 70
     0
 40
6.0
 41
2.5
 42
0.625
 43
6.0
 44
1.25
 47
1.0
 48
0.5
 77
     1
 78
     8
140
2.5
141
0.0
146
0.6
147
1.0
173
     1
275
     1
279
     2
284
     7
285
     7
286
     7
340
2A97
  0
DIMSTYLE
105
2AF0
102
{ACAD_REACTORS
330
35BA
330
3631
330
3662
330
367B
330
3688
330
394A
330
3A03
330
3A10
330
3A1D
330
3A2A
330
3D8D
330
4AC5
330
4C3C
330
4C3D
330
4993
330
553C
330
5579
330
55B4
330
55C1
102
}
330
2A44
100
AcDbSymbolTableRecord
100
AcDbDimStyleTableRecord
  2
STANDARD$0
 70
     0
 41
12.0
 42
20.0
 44
20.0
 73
     0
 74
     0
 77
     1
 78
     8
140
64.0
141
0.0
147
10.0
172
     1
275
     1
279
     2
284
     7
285
     7
286
     7
340
2A97
342
2AFE
  0
DIMSTYLE
105
2D2C
330
2A44
100
AcDbSymbolTableRecord
100
AcDbDimStyleTableRecord
  2
AM_JIS
 70
     0
  4
"
 40
10.0
 41
2.5
 42
1.0
 43
10.0
 44
1.0
 47
0.1
 48
0.1
 73
     0
 74
     0
 77
     3
 78
     8
 79
     2
140
3.5
141
0.0
143
0.0393701
146
0.71
147
1.5
172
     1
176
   256
177
   256
178
     2
271
     2
272
     3
274
     4
283
     0
284
     8
340
2A97
341
2B00
342
2B00
343
2B00
344
2B00
371
    -1
372
    -1
  0
DIMSTYLE
105
2D2D
330
2A44
100
AcDbSymbolTableRecord
100
AcDbDimStyleTableRecord
  2
AM_ISO
 70
     0
  4
"
 41
3.5
 42
1.0
 43
10.0
 44
1.0
 47
0.1
 48
0.1
 73
     0
 74
     0
 77
     1
 78
     8
 79
     2
 90
        1
140
3.5
141
0.0
143
0.0393701
146
0.71
147
1.5
172
     1
176
   256
177
   256
178
     2
271
     2
272
     3
274
     4
283
     0
284
     8
340
2A97
345
2A9C
346
2A9C
347
2A9C
371
    -1
372
    -1
  0
DIMSTYLE
105
2D2E
330
2A44
100
AcDbSymbolTableRecord
100
AcDbDimStyleTableRecord
  2
AM_ISO$3
 70
     0
  4
"
 41
3.5
 42
1.0
 43
10.0
 44
1.0
 47
0.1
 48
0.1
 73
     0
 77
     1
 78
     8
 79
     2
 90
        1
140
3.5
141
0.0
143
0.0393701
146
0.71
147
1.5
176
   256
177
   256
178
     2
271
     2
272
     3
274
     4
283
     0
284
     8
288
     1
289
     0
340
2A97
345
2A9C
346
2A9C
347
2A9C
371
    -1
372
    -1
  0
DIMSTYLE
105
2D2F
330
2A44
100
AcDbSymbolTableRecord
100
AcDbDimStyleTableRecord
  2
AM_ISO$4
 70
     0
  4
"
 41
3.5
 42
1.0
 43
10.0
 44
1.0
 47
0.1
 48
0.1
 73
     0
 74
     0
 77
     1
 78
     8
 79
     2
 90
        1
140
3.5
141
0.0
143
0.0393701
146
0.71
147
1.5
172
     1
176
   256
177
   256
178
     2
271
     2
272
     3
274
     4
283
     0
284
     8
340
2A97
345
2A9C
346
2A9C
347
2A9C
371
    -1
372
    -1
  0
DIMSTYLE
105
2D30
330
2A44
100
AcDbSymbolTableRecord
100
AcDbDimStyleTableRecord
  2
AM_ISO$6
 70
     0
  4
"
 41
3.5
 42
1.0
 43
10.0
 44
1.0
 47
0.1
 48
0.1
 73
     0
 74
     0
 78
     8
 79
     2
 90
        1
140
3.5
141
0.0
143
0.0393701
146
0.71
147
1.5
172
     1
176
   256
177
   256
178
     2
271
     2
272
     3
274
     4
283
     0
284
     8
340
2A97
345
2A9C
346
2A9C
347
2A9C
371
    -1
372
    -1
  0
DIMSTYLE
105
2D31
330
2A44
100
AcDbSymbolTableRecord
100
AcDbDimStyleTableRecord
  2
AM_ISO$7
 70
     0
  4
"
 41
3.5
 42
1.0
 43
10.0
 44
1.0
 47
0.1
 48
0.1
 73
     0
 74
     0
 77
     1
 78
     8
 79
     2
 90
        1
140
3.5
141
0.0
143
0.0393701
146
0.71
147
1.5
172
     1
176
   256
177
   256
178
     2
271
     2
272
     3
274
     4
283
     0
284
     8
340
2A97
345
2A9C
346
2A9C
347
2A9C
371
    -1
372
    -1
  0
DIMSTYLE
105
2D32
330
2A44
100
AcDbSymbolTableRecord
100
AcDbDimStyleTableRecord
  2
AM_ISO$SF
 70
     0
  4
"
 41
3.5
 42
1.0
 43
10.0
 44
1.0
 47
0.1
 48
0.1
 73
     0
 74
     0
 75
     1
 76
     1
 77
     1
 78
     8
 79
     2
 90
        1
140
3.5
141
0.0
143
0.0393701
146
0.71
147
1.5
172
     1
176
   256
177
   256
178
     2
271
     2
272
     3
274
     4
283
     0
284
     8
340
2A97
345
2A9C
346
2A9C
347
2A9C
371
    -1
372
    -1
  0
DIMSTYLE
105
2D33
330
2A44
100
AcDbSymbolTableRecord
100
AcDbDimStyleTableRecord
  2
AM_ISO$SH
 70
     0
  4
"
 41
3.5
 42
1.0
 43
10.0
 44
1.0
 47
0.1
 48
0.1
 73
     0
 74
     0
 75
     1
 76
     1
 77
     1
 78
     8
 79
     2
 90
        1
140
3.5
141
0.0
143
0.0393701
144
2.0
146
0.71
147
1.5
172
     1
173
     1
176
   256
177
   256
178
     2
271
     2
272
     3
274
     4
283
     0
284
     8
340
2A97
343
2B02
345
2A9C
346
2A9C
347
2A9C
371
    -1
372
    -1
  0
DIMSTYLE
105
3410
330
2A44
100
AcDbSymbolTableRecord
100
AcDbDimStyleTableRecord
  2
Default (JIS)
 70
     0
 40
20.0
 41
2.5
 42
0.5
 43
10.0
 44
1.5
 45
0.00000001
 46
10.0
 73
     0
 77
     1
 78
     8
 79
     2
140
2.0
143
0.03937
146
0.75
147
0.1
171
     3
172
     1
176
   256
177
   256
178
   256
271
     2
272
     2
274
     3
340
340F
371
    -1
372
    -1
  0
ENDTAB
  0
TABLE
  2
BLOCK_RECORD
  5
2A3B
330
0
100
AcDbSymbolTable
 70
    33
  0
BLOCK_RECORD
  5
2AAE
102
{ACAD_XDICTIONARY
360
2C17
102
}
330
2A3B
100
AcDbSymbolTableRecord
100
AcDbBlockTableRecord
  2
*Model_Space
340
2AB1
 70
     0
280
     1
281
     0
  0
BLOCK_RECORD
  5
2AAA
330
2A3B
100
AcDbSymbolTableRecord
100
AcDbBlockTableRecord
  2
*Paper_Space
340
2AAD
 70
     0
280
     1
281
     0
  0
BLOCK_RECORD
  5
2AF8
330
2A3B
100
AcDbSymbolTableRecord
100
AcDbBlockTableRecord
  2
$MODEL_SPACE
340
0
 70
     0
280
     1
281
     0
  0
BLOCK_RECORD
  5
2AFA
330
2A3B
100
AcDbSymbolTableRecord
100
AcDbBlockTableRecord
  2
$PAPER_SPACE
340
0
 70
     0
280
     1
281
     0
  0
BLOCK_RECORD
  5
2AFC
330
2A3B
100
AcDbSymbolTableRecord
100
AcDbBlockTableRecord
  2
_ORIGIN
340
0
 70
     0
280
     1
281
     0
  0
BLOCK_RECORD
  5
2AFE
330
2A3B
100
AcDbSymbolTableRecord
100
AcDbBlockTableRecord
  2
_DOTBLANK
340
0
102
{BLKREFS
331
55E9
331
55EA
331
5154
331
5155
331
515D
331
515E
331
5168
331
5169
331
517B
331
517C
331
4B47
331
4B48
331
49FD
331
49FE
331
4A60
331
4A61
331
4A69
331
4A6A
331
4A8D
331
4A8E
331
4A97
331
4A98
331
4AFE
331
4AFF
331
4B3E
331
4B3F
331
5764
331
5765
331
576D
331
576E
331
5778
331
5779
331
5511
331
5512
331
552D
331
552E
331
5536
331
5537
331
555E
331
555F
331
54EB
331
54EC
102
}
 70
     0
280
     1
281
     0
  0
BLOCK_RECORD
  5
2B00
330
2A3B
100
AcDbSymbolTableRecord
100
AcDbBlockTableRecord
  2
_OPEN30
340
0
 70
     0
280
     1
281
     0
  0
BLOCK_RECORD
  5
2B02
330
2A3B
100
AcDbSymbolTableRecord
100
AcDbBlockTableRecord
  2
GENAXEH
340
0
 70
     0
280
     1
281
     0
  0
BLOCK_RECORD
  5
35BB
330
2A3B
100
AcDbSymbolTableRecord
100
AcDbBlockTableRecord
  2
*D6
340
0
 70
     0
280
     1
281
     0
  0
BLOCK_RECORD
  5
3632
330
2A3B
100
AcDbSymbolTableRecord
100
AcDbBlockTableRecord
  2
*D7
340
0
 70
     0
280
     1
281
     0
  0
BLOCK_RECORD
  5
3663
330
2A3B
100
AcDbSymbolTableRecord
100
AcDbBlockTableRecord
  2
*D8
340
0
 70
     0
280
     1
281
     0
  0
BLOCK_RECORD
  5
367C
330
2A3B
100
AcDbSymbolTableRecord
100
AcDbBlockTableRecord
  2
*D9
340
0
 70
     0
280
     1
281
     0
  0
BLOCK_RECORD
  5
3689
330
2A3B
100
AcDbSymbolTableRecord
100
AcDbBlockTableRecord
  2
*D10
340
0
 70
     0
280
     1
281
     0
  0
BLOCK_RECORD
  5
394B
330
2A3B
100
AcDbSymbolTableRecord
100
AcDbBlockTableRecord
  2
*D11
340
0
 70
     0
280
     1
281
     0
  0
BLOCK_RECORD
  5
3A04
330
2A3B
100
AcDbSymbolTableRecord
100
AcDbBlockTableRecord
  2
*D12
340
0
 70
     0
280
     1
281
     0
  0
BLOCK_RECORD
  5
3A11
330
2A3B
100
AcDbSymbolTableRecord
100
AcDbBlockTableRecord
  2
*D13
340
0
 70
     0
280
     1
281
     0
  0
BLOCK_RECORD
  5
3A1E
330
2A3B
100
AcDbSymbolTableRecord
100
AcDbBlockTableRecord
  2
*D14
340
0
 70
     0
280
     1
281
     0
  0
BLOCK_RECORD
  5
3A2B
330
2A3B
100
AcDbSymbolTableRecord
100
AcDbBlockTableRecord
  2
*D15
340
0
 70
     0
280
     1
281
     0
  0
BLOCK_RECORD
  5
3D8E
330
2A3B
100
AcDbSymbolTableRecord
100
AcDbBlockTableRecord
  2
*D16
340
0
 70
     0
280
     1
281
     0
  0
BLOCK_RECORD
  5
3E85
330
2A3B
100
AcDbSymbolTableRecord
100
AcDbBlockTableRecord
  2
_Open
340
0
 70
     0
280
     1
281
     0
  0
BLOCK_RECORD
  5
4994
330
2A3B
100
AcDbSymbolTableRecord
100
AcDbBlockTableRecord
  2
*D18
340
0
 70
     0
280
     1
281
     0
  0
BLOCK_RECORD
  5
4AC6
330
2A3B
100
AcDbSymbolTableRecord
100
AcDbBlockTableRecord
  2
*D19
340
0
 70
     0
280
     1
281
     0
  0
BLOCK_RECORD
  5
4C40
330
2A3B
100
AcDbSymbolTableRecord
100
AcDbBlockTableRecord
  2
*D20
340
0
 70
     0
280
     1
281
     0
  0
BLOCK_RECORD
  5
4C4E
330
2A3B
100
AcDbSymbolTableRecord
100
AcDbBlockTableRecord
  2
*D21
340
0
 70
     0
280
     1
281
     0
  0
BLOCK_RECORD
  5
4FD8
102
{ACAD_XDICTIONARY
360
50A1
102
}
330
2A3B
100
AcDbSymbolTableRecord
100
AcDbBlockTableRecord
  2
A$Cc32cecd2
340
0
 70
     0
280
     1
281
     0
  0
BLOCK_RECORD
  5
54E4
330
2A3B
100
AcDbSymbolTableRecord
100
AcDbBlockTableRecord
  2
*D24
340
0
 70
     0
280
     1
281
     0
  0
BLOCK_RECORD
  5
54F2
330
2A3B
100
AcDbSymbolTableRecord
100
AcDbBlockTableRecord
  2
Open-1
340
0
 70
     0
280
     1
281
     0
  0
BLOCK_RECORD
  5
5508
330
2A3B
100
AcDbSymbolTableRecord
100
AcDbBlockTableRecord
  2
*D27
340
0
 70
     0
280
     1
281
     0
  0
BLOCK_RECORD
  5
553D
330
2A3B
100
AcDbSymbolTableRecord
100
AcDbBlockTableRecord
  2
*D29
340
0
 70
     0
280
     1
281
     0
  0
BLOCK_RECORD
  5
557A
330
2A3B
100
AcDbSymbolTableRecord
100
AcDbBlockTableRecord
  2
*D30
340
0
 70
     0
280
     1
281
     0
  0
BLOCK_RECORD
  5
55B5
330
2A3B
100
AcDbSymbolTableRecord
100
AcDbBlockTableRecord
  2
*D31
340
0
 70
     0
280
     1
281
     0
  0
BLOCK_RECORD
  5
55C2
330
2A3B
100
AcDbSymbolTableRecord
100
AcDbBlockTableRecord
  2
*D32
340
0
 70
     0
280
     1
281
     0
  0
ENDTAB
  0
ENDSEC
  0
SECTION
  2
BLOCKS
  0
BLOCK
  5
2AAF
330
2AAE
100
AcDbEntity
  8
0
100
AcDbBlockBegin
  2
*Model_Space
 70
     0
 10
0.0
 20
0.0
 30
0.0
  3
*Model_Space
  1

  0
ENDBLK
  5
2AB0
330
2AAE
100
AcDbEntity
  8
0
100
AcDbBlockEnd
  0
BLOCK
  5
2AAB
330
2AAA
100
AcDbEntity
 67
     1
  8
0
100
AcDbBlockBegin
  2
*Paper_Space
 70
     0
 10
0.0
 20
0.0
 30
0.0
  3
*Paper_Space
  1

  0
ENDBLK
  5
2AAC
330
2AAA
100
AcDbEntity
 67
     1
  8
0
100
AcDbBlockEnd
  0
BLOCK
  5
2AF9
330
2AF8
100
AcDbEntity
  8
0
100
AcDbBlockBegin
  2
$MODEL_SPACE
 70
     0
 10
0.0
 20
0.0
 30
0.0
  3
$MODEL_SPACE
  1

  0
ENDBLK
  5
277D
330
2AF8
100
AcDbEntity
  8
0
100
AcDbBlockEnd
  0
BLOCK
  5
2AFB
330
2AFA
100
AcDbEntity
  8
0
100
AcDbBlockBegin
  2
$PAPER_SPACE
 70
     0
 10
0.0
 20
0.0
 30
0.0
  3
$PAPER_SPACE
  1

  0
ENDBLK
  5
2779
330
2AFA
100
AcDbEntity
  8
0
100
AcDbBlockEnd
  0
BLOCK
  5
2AFD
330
2AFC
100
AcDbEntity
  8
0
100
AcDbBlockBegin
  2
_ORIGIN
 70
     0
 10
0.0
 20
0.0
 30
0.0
  3
_ORIGIN
  1

  0
CIRCLE
  5
880
330
2AFC
100
AcDbEntity
  8
0
  6
Continuous
 62
     7
100
AcDbCircle
 10
0.0
 20
0.0
 30
0.0
 40
0.5
  0
LINE
  5
881
330
2AFC
100
AcDbEntity
  8
0
  6
Continuous
 62
     7
100
AcDbLine
 10
0.0
 20
0.0
 30
0.0
 11
-1.0
 21
0.0
 31
0.0
  0
ENDBLK
  5
882
330
2AFC
100
AcDbEntity
  8
0
100
AcDbBlockEnd
  0
BLOCK
  5
2AFF
330
2AFE
100
AcDbEntity
  8
0
 62
     1
100
AcDbBlockBegin
  2
_DOTBLANK
 70
     0
 10
0.0
 20
0.0
 30
0.0
  3
_DOTBLANK
  1

  0
CIRCLE
  5
AB3
330
2AFE
100
AcDbEntity
  8
0
  6
ByBlock
 62
     0
100
AcDbCircle
 10
0.0
 20
0.0
 30
0.0
 40
0.5
  0
LINE
  5
AB4
330
2AFE
100
AcDbEntity
  8
0
  6
ByBlock
 62
     0
100
AcDbLine
 10
-0.5
 20
0.0
 30
0.0
 11
-1.0
 21
0.0
 31
0.0
  0
ENDBLK
  5
AB6
330
2AFE
100
AcDbEntity
  8
0
 62
     1
100
AcDbBlockEnd
  0
BLOCK
  5
2B01
330
2B00
100
AcDbEntity
  8
0
 62
     1
100
AcDbBlockBegin
  2
_OPEN30
 70
     0
 10
0.0
 20
0.0
 30
0.0
  3
_OPEN30
  1

  0
LINE
  5
AB8
330
2B00
100
AcDbEntity
  8
0
  6
ByBlock
 62
     0
100
AcDbLine
 10
-1.0
 20
0.26794919
 30
0.0
 11
0.0
 21
0.0
 31
0.0
  0
LINE
  5
AB9
330
2B00
100
AcDbEntity
  8
0
  6
ByBlock
 62
     0
100
AcDbLine
 10
0.0
 20
0.0
 30
0.0
 11
-1.0
 21
-0.26794919
 31
0.0
  0
LINE
  5
ABA
330
2B00
100
AcDbEntity
  8
0
  6
ByBlock
 62
     0
100
AcDbLine
 10
0.0
 20
0.0
 30
0.0
 11
-1.0
 21
0.0
 31
0.0
  0
ENDBLK
  5
ABC
330
2B00
100
AcDbEntity
  8
0
 62
     1
100
AcDbBlockEnd
  0
BLOCK
  5
2B03
330
2B02
100
AcDbEntity
  8
0
100
AcDbBlockBegin
  2
GENAXEH
 70
     0
 10
0.0
 20
0.0
 30
0.0
  3
GENAXEH
  1

  0
LINE
  5
FDB
330
2B02
100
AcDbEntity
  8
0
100
AcDbLine
 10
-1.0
 20
0.0
 30
0.0
 11
1.0
 21
0.0
 31
0.0
  0
ENDBLK
  5
FDD
330
2B02
100
AcDbEntity
  8
0
100
AcDbBlockEnd
  0
BLOCK
  5
35BC
330
35BB
100
AcDbEntity
  8
0
100
AcDbBlockBegin
  2
*D6
 70
     1
 10
0.0
 20
0.0
 30
0.0
  3
*D6
  1

  0
LINE
  5
49FA
330
35BB
100
AcDbEntity
  8
SIZE
  6
ByBlock
 62
     0
440
 16777216
370
    -2
100
AcDbLine
 10
347.4999999999969
 20
483.4999999999983
 30
0.0
 11
645.0000000000002
 21
483.4999999999986
 31
0.0
  0
LINE
  5
49FB
330
35BB
100
AcDbEntity
  8
SIZE
  6
ByBlock
 62
     0
440
 16777216
370
    -2
100
AcDbLine
 10
347.4999999999974
 20
-166.4993247340841
 30
0.0
 11
645.0000000000002
 21
-166.499324734084
 31
0.0
  0
LINE
  5
49FC
330
35BB
100
AcDbEntity
  8
SIZE
  6
ByBlock
 62
     0
440
 16777216
370
    -2
100
AcDbLine
 10
625.0000000000002
 20
471.4999999999986
 30
0.0
 11
625.0000000000002
 21
-154.499324734084
 31
0.0
  0
INSERT
  5
49FD
330
35BB
100
AcDbEntity
  8
SIZE
 62
     0
440
 16777216
370
    -2
100
AcDbBlockReference
  2
_DOTBLANK
 10
625.0000000000002
 20
483.4999999999986
 30
0.0
 41
12.0
 42
12.0
 43
12.0
 50
90.0
  0
INSERT
  5
49FE
330
35BB
100
AcDbEntity
  8
SIZE
 62
     0
440
 16777216
370
    -2
100
AcDbBlockReference
  2
_DOTBLANK
 10
625.0000000000002
 20
-166.499324734084
 30
0.0
 41
12.0
 42
12.0
 43
12.0
 50
270.0
  0
MTEXT
  5
49FF
330
35BB
100
AcDbEntity
  8
SIZE
 62
     0
440
 16777216
100
AcDbMText
 10
590.0000000000002
 20
158.5003376329571
 30
0.0
 40
64.0
 41
0.0
 46
0.0
 71
     5
 72
     1
  1
\A1;{\H0.78125x;650}
 11
0.0000000000000001
 21
1.0
 31
0.0
 73
     1
 44
1.0
  0
POINT
  5
4A00
330
35BB
100
AcDbEntity
  8
DEFPOINTS
 62
     0
440
 16777216
100
AcDbPoint
 10
327.4999999999969
 20
483.4999999999983
 30
0.0
  0
POINT
  5
4A01
330
35BB
100
AcDbEntity
  8
DEFPOINTS
 62
     0
440
 16777216
100
AcDbPoint
 10
327.4999999999974
 20
-166.4993247340841
 30
0.0
  0
POINT
  5
4A02
330
35BB
100
AcDbEntity
  8
DEFPOINTS
 62
     0
440
 16777216
100
AcDbPoint
 10
625.0000000000002
 20
-166.499324734084
 30
0.0
  0
ENDBLK
  5
35BD
330
35BB
100
AcDbEntity
  8
0
100
AcDbBlockEnd
  0
BLOCK
  5
3633
330
3632
100
AcDbEntity
  8
0
100
AcDbBlockBegin
  2
*D7
 70
     1
 10
0.0
 20
0.0
 30
0.0
  3
*D7
  1

  0
LINE
  5
552A
330
3632
100
AcDbEntity
  8
SIZE
  6
ByBlock
 62
     0
440
 16777216
370
    -2
100
AcDbLine
 10
-210.0000000000047
 20
-311.5000000000002
 30
0.0
 11
-545.0000000000007
 21
-311.5000000000003
 31
0.0
  0
LINE
  5
552B
330
3632
100
AcDbEntity
  8
SIZE
  6
ByBlock
 62
     0
440
 16777216
370
    -2
100
AcDbLine
 10
-210.0000000000046
 20
350.0000000000001
 30
0.0
 11
-545.0000000000009
 21
350.0
 31
0.0
  0
LINE
  5
552C
330
3632
100
AcDbEntity
  8
SIZE
  6
ByBlock
 62
     0
440
 16777216
370
    -2
100
AcDbLine
 10
-525.0000000000007
 20
-299.5000000000003
 30
0.0
 11
-525.0000000000008
 21
338.0000000000001
 31
0.0
  0
INSERT
  5
552D
330
3632
100
AcDbEntity
  8
SIZE
 62
     0
440
 16777216
370
    -2
100
AcDbBlockReference
  2
_DOTBLANK
 10
-525.0000000000007
 20
-311.5000000000003
 30
0.0
 41
12.0
 42
12.0
 43
12.0
 50
270.0
  0
INSERT
  5
552E
330
3632
100
AcDbEntity
  8
SIZE
 62
     0
440
 16777216
370
    -2
100
AcDbBlockReference
  2
_DOTBLANK
 10
-525.0000000000008
 20
350.0
 30
0.0
 41
12.0
 42
12.0
 43
12.0
 50
90.0
  0
MTEXT
  5
552F
330
3632
100
AcDbEntity
  8
SIZE
 62
     0
440
 16777216
100
AcDbMText
 10
-560.0000000000006
 20
19.25000000000004
 30
0.0
 40
64.0
 41
0.0
 46
0.0
 71
     5
 72
     1
  1
\A1;{\H0.78125x;661.5}
 11
0.0000000000000001
 21
1.0
 31
0.0
 73
     1
 44
1.0
  0
POINT
  5
5530
330
3632
100
AcDbEntity
  8
DEFPOINTS
 62
     0
440
 16777216
100
AcDbPoint
 10
-190.0000000000046
 20
-311.5000000000002
 30
0.0
  0
POINT
  5
5531
330
3632
100
AcDbEntity
  8
DEFPOINTS
 62
     0
440
 16777216
100
AcDbPoint
 10
-190.0000000000045
 20
350.0000000000001
 30
0.0
  0
POINT
  5
5532
330
3632
100
AcDbEntity
  8
DEFPOINTS
 62
     0
440
 16777216
100
AcDbPoint
 10
-525.0000000000008
 20
350.0
 30
0.0
  0
ENDBLK
  5
3634
330
3632
100
AcDbEntity
  8
0
100
AcDbBlockEnd
  0
BLOCK
  5
3664
330
3663
100
AcDbEntity
  8
0
100
AcDbBlockBegin
  2
*D8
 70
     1
 10
0.0
 20
0.0
 30
0.0
  3
*D8
  1

  0
LINE
  5
4A93
330
3663
100
AcDbEntity
  8
SIZE
  6
ByBlock
 62
     0
440
 16777216
370
    -2
100
AcDbLine
 10
-70.0
 20
396.7499999999995
 30
0.0
 11
-69.99999999999999
 21
645.0
 31
0.0
  0
LINE
  5
4A94
330
3663
100
AcDbEntity
  8
SIZE
  6
ByBlock
 62
     0
440
 16777216
370
    -2
100
AcDbLine
 10
0.0000000000095509
 20
435.7499999999998
 30
0.0
 11
0.0000000000095637
 21
645.0
 31
0.0
  0
LINE
  5
4A95
330
3663
100
AcDbEntity
  8
SIZE
  6
ByBlock
 62
     0
440
 16777216
370
    -2
100
AcDbLine
 10
-57.99999999999998
 20
625.0
 30
0.0
 11
-11.99999999999044
 21
625.0
 31
0.0
  0
LINE
  5
4A96
330
3663
100
AcDbEntity
  8
SIZE
  6
ByBlock
 62
     0
440
 16777216
370
    -2
100
AcDbLine
 10
0.0000000000095625
 20
625.0
 30
0.0
 11
106.2784918831397
 21
625.0
 31
0.0
  0
INSERT
  5
4A97
330
3663
100
AcDbEntity
  8
SIZE
 62
     0
440
 16777216
370
    -2
100
AcDbBlockReference
  2
_DOTBLANK
 10
-69.99999999999999
 20
625.0
 30
0.0
 41
12.0
 42
12.0
 43
12.0
 50
180.0
  0
INSERT
  5
4A98
330
3663
100
AcDbEntity
  8
SIZE
 62
     0
440
 16777216
370
    -2
100
AcDbBlockReference
  2
_DOTBLANK
 10
0.0000000000095625
 20
625.0
 30
0.0
 41
12.0
 42
12.0
 43
12.0
  0
MTEXT
  5
4A99
330
3663
100
AcDbEntity
  8
SIZE
 62
     0
440
 16777216
100
AcDbMText
 10
59.84992045456827
 20
660.0
 30
0.0
 40
64.0
 41
0.0
 46
0.0
 71
     5
 72
     1
  1
\A1;{\H0.78125x;70}
 73
     1
 44
1.0
  0
POINT
  5
4A9A
330
3663
100
AcDbEntity
  8
DEFPOINTS
 62
     0
440
 16777216
100
AcDbPoint
 10
-70.0
 20
376.7499999999995
 30
0.0
  0
POINT
  5
4A9B
330
3663
100
AcDbEntity
  8
DEFPOINTS
 62
     0
440
 16777216
100
AcDbPoint
 10
0.0000000000095497
 20
415.7499999999997
 30
0.0
  0
POINT
  5
4A9C
330
3663
100
AcDbEntity
  8
DEFPOINTS
 62
     0
440
 16777216
100
AcDbPoint
 10
0.0000000000095625
 20
625.0
 30
0.0
  0
ENDBLK
  5
3665
330
3663
100
AcDbEntity
  8
0
100
AcDbBlockEnd
  0
BLOCK
  5
367D
330
367C
100
AcDbEntity
  8
0
100
AcDbBlockBegin
  2
*D9
 70
     1
 10
0.0
 20
0.0
 30
0.0
  3
*D9
  1

  0
LINE
  5
5151
330
367C
100
AcDbEntity
  8
SIZE
  6
ByBlock
 62
     0
440
 16777216
370
    -2
100
AcDbLine
 10
-190.0000000000009
 20
413.0000000000001
 30
0.0
 11
-190.0000000000009
 21
894.8215520546877
 31
0.0
  0
LINE
  5
5152
330
367C
100
AcDbEntity
  8
SIZE
  6
ByBlock
 62
     0
440
 16777216
370
    -2
100
AcDbLine
 10
0.0000000000095509
 20
435.7499999999997
 30
0.0
 11
0.000000000009579
 21
894.8215520546877
 31
0.0
  0
LINE
  5
5153
330
367C
100
AcDbEntity
  8
SIZE
  6
ByBlock
 62
     0
440
 16777216
370
    -2
100
AcDbLine
 10
-178.0000000000009
 20
874.8215520546878
 30
0.0
 11
-11.99999999999042
 21
874.8215520546878
 31
0.0
  0
INSERT
  5
5154
330
367C
100
AcDbEntity
  8
SIZE
 62
     0
440
 16777216
370
    -2
100
AcDbBlockReference
  2
_DOTBLANK
 10
-190.0000000000009
 20
874.8215520546878
 30
0.0
 41
12.0
 42
12.0
 43
12.0
 50
180.0
  0
INSERT
  5
5155
330
367C
100
AcDbEntity
  8
SIZE
 62
     0
440
 16777216
370
    -2
100
AcDbBlockReference
  2
_DOTBLANK
 10
0.0000000000095778
 20
874.8215520546878
 30
0.0
 41
12.0
 42
12.0
 43
12.0
  0
MTEXT
  5
5156
330
367C
100
AcDbEntity
  8
SIZE
 62
     0
440
 16777216
100
AcDbMText
 10
-94.99999999999564
 20
909.8215520546878
 30
0.0
 40
64.0
 41
0.0
 46
0.0
 71
     5
 72
     1
  1
\A1;{\H0.78125x;190}
 73
     1
 44
1.0
  0
POINT
  5
5157
330
367C
100
AcDbEntity
  8
DEFPOINTS
 62
     0
440
 16777216
100
AcDbPoint
 10
-190.0000000000009
 20
393.0000000000002
 30
0.0
  0
POINT
  5
5158
330
367C
100
AcDbEntity
  8
DEFPOINTS
 62
     0
440
 16777216
100
AcDbPoint
 10
0.0000000000095497
 20
415.7499999999997
 30
0.0
  0
POINT
  5
5159
330
367C
100
AcDbEntity
  8
DEFPOINTS
 62
     0
440
 16777216
100
AcDbPoint
 10
0.0000000000095778
 20
874.8215520546878
 30
0.0
  0
ENDBLK
  5
367E
330
367C
100
AcDbEntity
  8
0
100
AcDbBlockEnd
  0
BLOCK
  5
368A
330
3689
100
AcDbEntity
  8
0
100
AcDbBlockBegin
  2
*D10
 70
     1
 10
0.0
 20
0.0
 30
0.0
  3
*D10
  1

  0
LINE
  5
4AFB
330
3689
100
AcDbEntity
  8
SIZE
  6
ByBlock
 62
     0
440
 16777216
370
    -2
100
AcDbLine
 10
0.0000000000095509
 20
435.7499999999998
 30
0.0
 11
0.000000000009579
 21
894.7996204344544
 31
0.0
  0
LINE
  5
4AFC
330
3689
100
AcDbEntity
  8
SIZE
  6
ByBlock
 62
     0
440
 16777216
370
    -2
100
AcDbLine
 10
293.9999999999945
 20
533.5000000000007
 30
0.0
 11
293.9999999999945
 21
894.7996204344544
 31
0.0
  0
LINE
  5
4AFD
330
3689
100
AcDbEntity
  8
SIZE
  6
ByBlock
 62
     0
440
 16777216
370
    -2
100
AcDbLine
 10
12.00000000000958
 20
874.7996204344541
 30
0.0
 11
281.9999999999945
 21
874.7996204344541
 31
0.0
  0
INSERT
  5
4AFE
330
3689
100
AcDbEntity
  8
SIZE
 62
     0
440
 16777216
370
    -2
100
AcDbBlockReference
  2
_DOTBLANK
 10
0.0000000000095778
 20
874.7996204344541
 30
0.0
 41
12.0
 42
12.0
 43
12.0
 50
180.0
  0
INSERT
  5
4AFF
330
3689
100
AcDbEntity
  8
SIZE
 62
     0
440
 16777216
370
    -2
100
AcDbBlockReference
  2
_DOTBLANK
 10
293.9999999999945
 20
874.7996204344541
 30
0.0
 41
12.0
 42
12.0
 43
12.0
  0
MTEXT
  5
4B00
330
3689
100
AcDbEntity
  8
SIZE
 62
     0
440
 16777216
100
AcDbMText
 10
147.000000000002
 20
909.7996204344543
 30
0.0
 40
64.0
 41
0.0
 46
0.0
 71
     5
 72
     1
  1
\A1;{\H0.78125x;294}
 73
     1
 44
1.0
  0
POINT
  5
4B01
330
3689
100
AcDbEntity
  8
DEFPOINTS
 62
     0
440
 16777216
100
AcDbPoint
 10
0.0000000000095497
 20
415.7499999999997
 30
0.0
  0
POINT
  5
4B02
330
3689
100
AcDbEntity
  8
DEFPOINTS
 62
     0
440
 16777216
100
AcDbPoint
 10
293.9999999999945
 20
513.5000000000006
 30
0.0
  0
POINT
  5
4B03
330
3689
100
AcDbEntity
  8
DEFPOINTS
 62
     0
440
 16777216
100
AcDbPoint
 10
293.9999999999945
 20
874.7996204344541
 30
0.0
  0
ENDBLK
  5
368B
330
3689
100
AcDbEntity
  8
0
100
AcDbBlockEnd
  0
BLOCK
  5
394C
330
394B
100
AcDbEntity
  8
0
100
AcDbBlockBegin
  2
*D11
 70
     1
 10
0.0
 20
0.0
 30
0.0
  3
*D11
  1

  0
LINE
  5
4B3A
330
394B
100
AcDbEntity
  8
SIZE
  6
ByBlock
 62
     0
440
 16777216
370
    -2
100
AcDbLine
 10
24.00000000000547
 20
-218.2500000000006
 30
0.0
 11
520.0000000000001
 21
-218.2500000000005
 31
0.0
  0
LINE
  5
4B3B
330
394B
100
AcDbEntity
  8
SIZE
  6
ByBlock
 62
     0
440
 16777216
370
    -2
100
AcDbLine
 10
24.00000000000638
 20
-358.2500000000002
 30
0.0
 11
520.0000000000001
 21
-358.25
 31
0.0
  0
LINE
  5
4B3C
330
394B
100
AcDbEntity
  8
SIZE
  6
ByBlock
 62
     0
440
 16777216
370
    -2
100
AcDbLine
 10
500.0000000000001
 20
-230.2500000000005
 30
0.0
 11
500.0000000000001
 21
-346.2500000000002
 31
0.0
  0
LINE
  5
4B3D
330
394B
100
AcDbEntity
  8
SIZE
  6
ByBlock
 62
     0
440
 16777216
370
    -2
100
AcDbLine
 10
500.0000000000001
 20
-358.25
 30
0.0
 11
500.0000000000001
 21
-497.3928571428571
 31
0.0
  0
INSERT
  5
4B3E
330
394B
100
AcDbEntity
  8
SIZE
 62
     0
440
 16777216
370
    -2
100
AcDbBlockReference
  2
_DOTBLANK
 10
500.0000000000001
 20
-218.2500000000005
 30
0.0
 41
12.0
 42
12.0
 43
12.0
 50
90.0
  0
INSERT
  5
4B3F
330
394B
100
AcDbEntity
  8
SIZE
 62
     0
440
 16777216
370
    -2
100
AcDbBlockReference
  2
_DOTBLANK
 10
500.0000000000001
 20
-358.25
 30
0.0
 41
12.0
 42
12.0
 43
12.0
 50
270.0
  0
MTEXT
  5
4B40
330
394B
100
AcDbEntity
  8
SIZE
 62
     0
440
 16777216
100
AcDbMText
 10
465.0
 20
-433.8214285714285
 30
0.0
 40
64.0
 41
0.0
 46
0.0
 71
     5
 72
     1
  1
\A1;{\H0.78125x;140}
 11
0.0000000000000001
 21
1.0
 31
0.0
 73
     1
 44
1.0
  0
POINT
  5
4B41
330
394B
100
AcDbEntity
  8
DEFPOINTS
 62
     0
440
 16777216
100
AcDbPoint
 10
4.000000000005456
 20
-218.2500000000006
 30
0.0
  0
POINT
  5
4B42
330
394B
100
AcDbEntity
  8
DEFPOINTS
 62
     0
440
 16777216
100
AcDbPoint
 10
4.000000000006368
 20
-358.2500000000002
 30
0.0
  0
POINT
  5
4B43
330
394B
100
AcDbEntity
  8
DEFPOINTS
 62
     0
440
 16777216
100
AcDbPoint
 10
500.0000000000001
 20
-358.25
 30
0.0
  0
ENDBLK
  5
394D
330
394B
100
AcDbEntity
  8
0
100
AcDbBlockEnd
  0
BLOCK
  5
3A05
330
3A04
100
AcDbEntity
  8
0
100
AcDbBlockBegin
  2
*D12
 70
     1
 10
0.0
 20
0.0
 30
0.0
  3
*D12
  1

  0
LINE
  5
4B44
330
3A04
100
AcDbEntity
  8
SIZE
  6
ByBlock
 62
     0
440
 16777216
370
    -2
100
AcDbLine
 10
27.81143908332252
 20
-218.25
 30
0.0
 11
520.0000000000001
 21
-218.2499999999999
 31
0.0
  0
LINE
  5
4B45
330
3A04
100
AcDbEntity
  8
SIZE
  6
ByBlock
 62
     0
440
 16777216
370
    -2
100
AcDbLine
 10
27.89972847574655
 20
-78.25000000000009
 30
0.0
 11
520.0000000000001
 21
-78.25
 31
0.0
  0
LINE
  5
4B46
330
3A04
100
AcDbEntity
  8
SIZE
  6
ByBlock
 62
     0
440
 16777216
370
    -2
100
AcDbLine
 10
500.0000000000001
 20
-206.2499999999999
 30
0.0
 11
500.0
 21
-90.25
 31
0.0
  0
INSERT
  5
4B47
330
3A04
100
AcDbEntity
  8
SIZE
 62
     0
440
 16777216
370
    -2
100
AcDbBlockReference
  2
_DOTBLANK
 10
500.0000000000001
 20
-218.2499999999999
 30
0.0
 41
12.0
 42
12.0
 43
12.0
 50
270.0
  0
INSERT
  5
4B48
330
3A04
100
AcDbEntity
  8
SIZE
 62
     0
440
 16777216
370
    -2
100
AcDbBlockReference
  2
_DOTBLANK
 10
500.0
 20
-78.25
 30
0.0
 41
12.0
 42
12.0
 43
12.0
 50
90.0
  0
MTEXT
  5
4B49
330
3A04
100
AcDbEntity
  8
SIZE
 62
     0
440
 16777216
100
AcDbMText
 10
465.0
 20
-140.0
 30
0.0
 40
64.0
 41
0.0
 46
0.0
 71
     5
 72
     1
  1
\A1;{\H0.78125x;140}
 11
0.0000000000000001
 21
1.0
 31
0.0
 73
     1
 44
1.0
  0
POINT
  5
4B4A
330
3A04
100
AcDbEntity
  8
DEFPOINTS
 62
     0
440
 16777216
100
AcDbPoint
 10
7.811439083322513
 20
-218.25
 30
0.0
  0
POINT
  5
4B4B
330
3A04
100
AcDbEntity
  8
DEFPOINTS
 62
     0
440
 16777216
100
AcDbPoint
 10
7.899728475746543
 20
-78.25000000000009
 30
-0.0000000000000071
  0
POINT
  5
4B4C
330
3A04
100
AcDbEntity
  8
DEFPOINTS
 62
     0
440
 16777216
100
AcDbPoint
 10
500.0
 20
-78.25
 30
0.0
  0
ENDBLK
  5
3A06
330
3A04
100
AcDbEntity
  8
0
100
AcDbBlockEnd
  0
BLOCK
  5
3A12
330
3A11
100
AcDbEntity
  8
0
100
AcDbBlockBegin
  2
*D13
 70
     1
 10
0.0
 20
0.0
 30
0.0
  3
*D13
  1

  0
LINE
  5
4A5D
330
3A11
100
AcDbEntity
  8
SIZE
  6
ByBlock
 62
     0
440
 16777216
370
    -2
100
AcDbLine
 10
27.89972847574655
 20
-78.25000000000009
 30
0.0
 11
520.0000000000001
 21
-78.25
 31
0.0
  0
LINE
  5
4A5E
330
3A11
100
AcDbEntity
  8
SIZE
  6
ByBlock
 62
     0
440
 16777216
370
    -2
100
AcDbLine
 10
38.15357331142923
 20
116.7499999999996
 30
0.0
 11
520.0000000000001
 21
116.7499999999997
 31
0.0
  0
LINE
  5
4A5F
330
3A11
100
AcDbEntity
  8
SIZE
  6
ByBlock
 62
     0
440
 16777216
370
    -2
100
AcDbLine
 10
500.0000000000001
 20
-66.25
 30
0.0
 11
500.0000000000001
 21
104.7499999999997
 31
0.0
  0
INSERT
  5
4A60
330
3A11
100
AcDbEntity
  8
SIZE
 62
     0
440
 16777216
370
    -2
100
AcDbBlockReference
  2
_DOTBLANK
 10
500.0000000000001
 20
-78.25
 30
0.0
 41
12.0
 42
12.0
 43
12.0
 50
270.0
  0
INSERT
  5
4A61
330
3A11
100
AcDbEntity
  8
SIZE
 62
     0
440
 16777216
370
    -2
100
AcDbBlockReference
  2
_DOTBLANK
 10
500.0000000000001
 20
116.7499999999997
 30
0.0
 41
12.0
 42
12.0
 43
12.0
 50
90.0
  0
MTEXT
  5
4A62
330
3A11
100
AcDbEntity
  8
SIZE
 62
     0
440
 16777216
100
AcDbMText
 10
465.0000000000002
 20
19.24999999999972
 30
0.0
 40
64.0
 41
0.0
 46
0.0
 71
     5
 72
     1
  1
\A1;{\H0.78125x;195}
 11
0.0000000000000001
 21
1.0
 31
0.0
 73
     1
 44
1.0
  0
POINT
  5
4A63
330
3A11
100
AcDbEntity
  8
DEFPOINTS
 62
     0
440
 16777216
100
AcDbPoint
 10
7.899728475746543
 20
-78.25000000000009
 30
-0.0000000000000071
  0
POINT
  5
4A64
330
3A11
100
AcDbEntity
  8
DEFPOINTS
 62
     0
440
 16777216
100
AcDbPoint
 10
18.15357331142924
 20
116.7499999999996
 30
0.0
  0
POINT
  5
4A65
330
3A11
100
AcDbEntity
  8
DEFPOINTS
 62
     0
440
 16777216
100
AcDbPoint
 10
500.0000000000001
 20
116.7499999999997
 30
0.0
  0
ENDBLK
  5
3A13
330
3A11
100
AcDbEntity
  8
0
100
AcDbBlockEnd
  0
BLOCK
  5
3A1F
330
3A1E
100
AcDbEntity
  8
0
100
AcDbBlockBegin
  2
*D14
 70
     1
 10
0.0
 20
0.0
 30
0.0
  3
*D14
  1

  0
LINE
  5
4A66
330
3A1E
100
AcDbEntity
  8
SIZE
  6
ByBlock
 62
     0
440
 16777216
370
    -2
100
AcDbLine
 10
28.00583340628419
 20
256.7499999999999
 30
0.0
 11
519.9999999999999
 21
256.7499999999999
 31
0.0
  0
LINE
  5
4A67
330
3A1E
100
AcDbEntity
  8
SIZE
  6
ByBlock
 62
     0
440
 16777216
370
    -2
100
AcDbLine
 10
28.0227029866228
 20
116.7500000000002
 30
0.0
 11
520.0
 21
116.7500000000003
 31
0.0
  0
LINE
  5
4A68
330
3A1E
100
AcDbEntity
  8
SIZE
  6
ByBlock
 62
     0
440
 16777216
370
    -2
100
AcDbLine
 10
499.9999999999998
 20
244.7499999999999
 30
0.0
 11
499.9999999999998
 21
128.7500000000003
 31
0.0
  0
INSERT
  5
4A69
330
3A1E
100
AcDbEntity
  8
SIZE
 62
     0
440
 16777216
370
    -2
100
AcDbBlockReference
  2
_DOTBLANK
 10
499.9999999999998
 20
256.7499999999999
 30
0.0
 41
12.0
 42
12.0
 43
12.0
 50
90.0
  0
INSERT
  5
4A6A
330
3A1E
100
AcDbEntity
  8
SIZE
 62
     0
440
 16777216
370
    -2
100
AcDbBlockReference
  2
_DOTBLANK
 10
500.0
 20
116.7500000000003
 30
0.0
 41
12.0
 42
12.0
 43
12.0
 50
270.0
  0
MTEXT
  5
4A6B
330
3A1E
100
AcDbEntity
  8
SIZE
 62
     0
440
 16777216
100
AcDbMText
 10
464.9999999999998
 20
185.1985967710825
 30
0.0
 40
64.0
 41
0.0
 46
0.0
 71
     5
 72
     1
  1
\A1;{\H0.78125x;140}
 11
0.0000000000000001
 21
1.0
 31
0.0
 73
     1
 44
1.0
  0
POINT
  5
4A6C
330
3A1E
100
AcDbEntity
  8
DEFPOINTS
 62
     0
440
 16777216
100
AcDbPoint
 10
8.005833406284184
 20
256.7499999999999
 30
0.0
  0
POINT
  5
4A6D
330
3A1E
100
AcDbEntity
  8
DEFPOINTS
 62
     0
440
 16777216
100
AcDbPoint
 10
8.022702986622793
 20
116.7500000000002
 30
-0.0000000000000036
  0
POINT
  5
4A6E
330
3A1E
100
AcDbEntity
  8
DEFPOINTS
 62
     0
440
 16777216
100
AcDbPoint
 10
500.0
 20
116.7500000000003
 30
0.0
  0
ENDBLK
  5
3A20
330
3A1E
100
AcDbEntity
  8
0
100
AcDbBlockEnd
  0
BLOCK
  5
3A2C
330
3A2B
100
AcDbEntity
  8
0
100
AcDbBlockBegin
  2
*D15
 70
     1
 10
0.0
 20
0.0
 30
0.0
  3
*D15
  1

  0
LINE
  5
4A8A
330
3A2B
100
AcDbEntity
  8
SIZE
  6
ByBlock
 62
     0
440
 16777216
370
    -2
100
AcDbLine
 10
28.00583340628419
 20
256.7499999999999
 30
0.0
 11
520.0
 21
256.7499999999999
 31
0.0
  0
LINE
  5
4A8B
330
3A2B
100
AcDbEntity
  8
SIZE
  6
ByBlock
 62
     0
440
 16777216
370
    -2
100
AcDbLine
 10
27.98896382594558
 20
396.7500000000002
 30
0.0
 11
520.0
 21
396.7500000000002
 31
0.0
  0
LINE
  5
4A8C
330
3A2B
100
AcDbEntity
  8
SIZE
  6
ByBlock
 62
     0
440
 16777216
370
    -2
100
AcDbLine
 10
500.0
 20
268.75
 30
0.0
 11
500.0
 21
384.7500000000002
 31
0.0
  0
INSERT
  5
4A8D
330
3A2B
100
AcDbEntity
  8
SIZE
 62
     0
440
 16777216
370
    -2
100
AcDbBlockReference
  2
_DOTBLANK
 10
500.0
 20
256.7499999999999
 30
0.0
 41
12.0
 42
12.0
 43
12.0
 50
270.0
  0
INSERT
  5
4A8E
330
3A2B
100
AcDbEntity
  8
SIZE
 62
     0
440
 16777216
370
    -2
100
AcDbBlockReference
  2
_DOTBLANK
 10
500.0
 20
396.7500000000002
 30
0.0
 41
12.0
 42
12.0
 43
12.0
 50
90.0
  0
MTEXT
  5
4A8F
330
3A2B
100
AcDbEntity
  8
SIZE
 62
     0
440
 16777216
100
AcDbMText
 10
465.0
 20
337.2499999999996
 30
0.0
 40
64.0
 41
0.0
 46
0.0
 71
     5
 72
     1
  1
\A1;{\H0.78125x;140}
 11
0.0000000000000001
 21
1.0
 31
0.0
 73
     1
 44
1.0
  0
POINT
  5
4A90
330
3A2B
100
AcDbEntity
  8
DEFPOINTS
 62
     0
440
 16777216
100
AcDbPoint
 10
8.005833406284184
 20
256.7499999999999
 30
0.0
  0
POINT
  5
4A91
330
3A2B
100
AcDbEntity
  8
DEFPOINTS
 62
     0
440
 16777216
100
AcDbPoint
 10
7.988963825945577
 20
396.7500000000002
 30
-0.000000000000019
  0
POINT
  5
4A92
330
3A2B
100
AcDbEntity
  8
DEFPOINTS
 62
     0
440
 16777216
100
AcDbPoint
 10
500.0
 20
396.7500000000002
 30
0.0
  0
ENDBLK
  5
3A2D
330
3A2B
100
AcDbEntity
  8
0
100
AcDbBlockEnd
  0
BLOCK
  5
3D8F
330
3D8E
100
AcDbEntity
  8
0
100
AcDbBlockBegin
  2
*D16
 70
     1
 10
0.0
 20
0.0
 30
0.0
  3
*D16
  1

  0
LINE
  5
515A
330
3D8E
100
AcDbEntity
  8
SIZE
  6
ByBlock
 62
     0
440
 16777216
370
    -2
100
AcDbLine
 10
-243.3853124043563
 20
-325.0000000000001
 30
0.0
 11
-420.0000000000002
 21
-325.0000000000002
 31
0.0
  0
LINE
  5
515B
330
3D8E
100
AcDbEntity
  8
SIZE
  6
ByBlock
 62
     0
440
 16777216
370
    -2
100
AcDbLine
 10
-243.5000000000007
 20
325.0000000000001
 30
0.0
 11
-420.0000000000003
 21
325.0
 31
0.0
  0
LINE
  5
515C
330
3D8E
100
AcDbEntity
  8
SIZE
  6
ByBlock
 62
     0
440
 16777216
370
    -2
100
AcDbLine
 10
-400.0000000000002
 20
-313.0000000000002
 30
0.0
 11
-400.0000000000004
 21
313.0000000000001
 31
0.0
  0
INSERT
  5
515D
330
3D8E
100
AcDbEntity
  8
SIZE
 62
     0
440
 16777216
370
    -2
100
AcDbBlockReference
  2
_DOTBLANK
 10
-400.0000000000002
 20
-325.0000000000002
 30
0.0
 41
12.0
 42
12.0
 43
12.0
 50
270.0
  0
INSERT
  5
515E
330
3D8E
100
AcDbEntity
  8
SIZE
 62
     0
440
 16777216
370
    -2
100
AcDbBlockReference
  2
_DOTBLANK
 10
-400.0000000000004
 20
325.0
 30
0.0
 41
12.0
 42
12.0
 43
12.0
 50
90.0
  0
MTEXT
  5
515F
330
3D8E
100
AcDbEntity
  8
SIZE
 62
     0
440
 16777216
100
AcDbMText
 10
-435.0000000000002
 20
0.0000000000000856
 30
0.0
 40
64.0
 41
0.0
 46
0.0
 71
     5
 72
     1
  1
\A1;{\H0.78125x;650}
 11
0.0000000000000001
 21
1.0
 31
0.0
 73
     1
 44
1.0
  0
POINT
  5
5160
330
3D8E
100
AcDbEntity
  8
DEFPOINTS
 62
     0
440
 16777216
100
AcDbPoint
 10
-223.3853124043563
 20
-325.0000000000001
 30
0.0
  0
POINT
  5
5161
330
3D8E
100
AcDbEntity
  8
DEFPOINTS
 62
     0
440
 16777216
100
AcDbPoint
 10
-223.5000000000007
 20
325.0000000000001
 30
0.0
  0
POINT
  5
5162
330
3D8E
100
AcDbEntity
  8
DEFPOINTS
 62
     0
440
 16777216
100
AcDbPoint
 10
-400.0000000000004
 20
325.0
 30
0.0
  0
ENDBLK
  5
3D90
330
3D8E
100
AcDbEntity
  8
0
100
AcDbBlockEnd
  0
BLOCK
  5
3E86
330
3E85
100
AcDbEntity
  8
0
100
AcDbBlockBegin
  2
_Open
 70
     0
 10
0.0
 20
0.0
 30
0.0
  3
_Open
  1

  0
LINE
  5
3E87
330
3E85
100
AcDbEntity
  8
0
  6
ByBlock
 62
     0
370
    -2
100
AcDbLine
 10
-1.0
 20
0.1666666666666666
 30
0.0
 11
0.0
 21
0.0
 31
0.0
  0
LINE
  5
3E88
330
3E85
100
AcDbEntity
  8
0
  6
ByBlock
 62
     0
370
    -2
100
AcDbLine
 10
-1.0
 20
-0.1666666666666666
 30
0.0
 11
0.0
 21
0.0
 31
0.0
  0
LINE
  5
3E89
330
3E85
100
AcDbEntity
  8
0
  6
ByBlock
 62
     0
370
    -2
100
AcDbLine
 10
0.0
 20
0.0
 30
0.0
 11
-1.0
 21
0.0
 31
0.0
  0
ENDBLK
  5
3E8A
330
3E85
100
AcDbEntity
  8
0
100
AcDbBlockEnd
  0
BLOCK
  5
4995
330
4994
100
AcDbEntity
  8
0
100
AcDbBlockBegin
  2
*D18
 70
     1
 10
0.0
 20
0.0
 30
0.0
  3
*D18
  1

  0
LINE
  5
55E6
330
4994
100
AcDbEntity
  8
SIZE
  6
ByBlock
 62
     0
440
 16777216
370
    -2
100
AcDbLine
 10
313.9999999999946
 20
513.5000000000007
 30
0.0
 11
770.0000000000007
 21
513.5000000000009
 31
0.0
  0
LINE
  5
55E7
330
4994
100
AcDbEntity
  8
SIZE
  6
ByBlock
 62
     0
440
 16777216
370
    -2
100
AcDbLine
 10
314.0000000000001
 20
-289.5411404803988
 30
0.0
 11
770.0000000000009
 21
-289.5411404803987
 31
0.0
  0
LINE
  5
55E8
330
4994
100
AcDbEntity
  8
SIZE
  6
ByBlock
 62
     0
440
 16777216
370
    -2
100
AcDbLine
 10
750.0000000000006
 20
501.5000000000008
 30
0.0
 11
750.0000000000007
 21
-277.5411404803987
 31
0.0
  0
INSERT
  5
55E9
330
4994
100
AcDbEntity
  8
SIZE
 62
     0
440
 16777216
370
    -2
100
AcDbBlockReference
  2
_DOTBLANK
 10
750.0000000000006
 20
513.5000000000007
 30
0.0
 41
12.0
 42
12.0
 43
12.0
 50
90.0
  0
INSERT
  5
55EA
330
4994
100
AcDbEntity
  8
SIZE
 62
     0
440
 16777216
370
    -2
100
AcDbBlockReference
  2
_DOTBLANK
 10
750.0000000000007
 20
-289.5411404803986
 30
0.0
 41
12.0
 42
12.0
 43
12.0
 50
270.0
  0
MTEXT
  5
55EB
330
4994
100
AcDbEntity
  8
SIZE
 62
     0
440
 16777216
100
AcDbMText
 10
715.0000000000005
 20
111.9794297598008
 30
0.0
 40
64.0
 41
0.0
 46
0.0
 71
     5
 72
     1
  1
\A1;{\H0.78125x;803}
 11
0.0000000000000001
 21
1.0
 31
0.0
 73
     1
 44
1.0
  0
POINT
  5
55EC
330
4994
100
AcDbEntity
  8
DEFPOINTS
 62
     0
440
 16777216
100
AcDbPoint
 10
293.9999999999946
 20
513.5000000000007
 30
0.0
  0
POINT
  5
55ED
330
4994
100
AcDbEntity
  8
DEFPOINTS
 62
     0
440
 16777216
100
AcDbPoint
 10
294.0000000000001
 20
-289.5411404803988
 30
0.0
  0
POINT
  5
55EE
330
4994
100
AcDbEntity
  8
DEFPOINTS
 62
     0
440
 16777216
100
AcDbPoint
 10
750.0000000000007
 20
-289.5411404803986
 30
0.0
  0
ENDBLK
  5
4996
330
4994
100
AcDbEntity
  8
0
100
AcDbBlockEnd
  0
BLOCK
  5
4AC7
330
4AC6
100
AcDbEntity
  8
0
100
AcDbBlockBegin
  2
*D19
 70
     1
 10
0.0
 20
0.0
 30
0.0
  3
*D19
  1

  0
LINE
  5
5177
330
4AC6
100
AcDbEntity
  8
SIZE
  6
ByBlock
 62
     0
440
 16777216
370
    -2
100
AcDbLine
 10
-135.0000000000009
 20
374.9999999999997
 30
0.0
 11
-135.0000000000008
 21
770.0
 31
0.0
  0
LINE
  5
5178
330
4AC6
100
AcDbEntity
  8
SIZE
  6
ByBlock
 62
     0
440
 16777216
370
    -2
100
AcDbLine
 10
0.0000000000095509
 20
435.7499999999997
 30
0.0
 11
0.0000000000095714
 21
770.0
 31
0.0
  0
LINE
  5
5179
330
4AC6
100
AcDbEntity
  8
SIZE
  6
ByBlock
 62
     0
440
 16777216
370
    -2
100
AcDbLine
 10
-123.0000000000009
 20
750.0
 30
0.0
 11
-11.99999999999043
 21
750.0
 31
0.0
  0
LINE
  5
517A
330
4AC6
100
AcDbEntity
  8
SIZE
  6
ByBlock
 62
     0
440
 16777216
370
    -2
100
AcDbLine
 10
0.0000000000095702
 20
750.0
 30
0.0
 11
139.1428571428667
 21
750.0
 31
0.0
  0
INSERT
  5
517B
330
4AC6
100
AcDbEntity
  8
SIZE
 62
     0
440
 16777216
370
    -2
100
AcDbBlockReference
  2
_DOTBLANK
 10
-135.0000000000008
 20
750.0
 30
0.0
 41
12.0
 42
12.0
 43
12.0
 50
180.0
  0
INSERT
  5
517C
330
4AC6
100
AcDbEntity
  8
SIZE
 62
     0
440
 16777216
370
    -2
100
AcDbBlockReference
  2
_DOTBLANK
 10
0.0000000000095702
 20
750.0
 30
0.0
 41
12.0
 42
12.0
 43
12.0
  0
MTEXT
  5
517D
330
4AC6
100
AcDbEntity
  8
SIZE
 62
     0
440
 16777216
100
AcDbMText
 10
75.57142857143813
 20
785.0
 30
0.0
 40
64.0
 41
0.0
 46
0.0
 71
     5
 72
     1
  1
\A1;{\H0.78125x;135}
 73
     1
 44
1.0
  0
POINT
  5
517E
330
4AC6
100
AcDbEntity
  8
DEFPOINTS
 62
     0
440
 16777216
100
AcDbPoint
 10
-135.0000000000009
 20
354.9999999999997
 30
0.0
  0
POINT
  5
517F
330
4AC6
100
AcDbEntity
  8
DEFPOINTS
 62
     0
440
 16777216
100
AcDbPoint
 10
0.0000000000095497
 20
415.7499999999997
 30
0.0
  0
POINT
  5
5180
330
4AC6
100
AcDbEntity
  8
DEFPOINTS
 62
     0
440
 16777216
100
AcDbPoint
 10
0.0000000000095702
 20
750.0
 30
0.0
  0
ENDBLK
  5
4AC8
330
4AC6
100
AcDbEntity
  8
0
100
AcDbBlockEnd
  0
BLOCK
  5
4C41
330
4C40
100
AcDbEntity
  8
0
100
AcDbBlockBegin
  2
*D20
 70
     1
 10
0.0
 20
0.0
 30
0.0
  3
*D20
  1

  0
LINE
  5
5163
330
4C40
100
AcDbEntity
  8
SIZE
  6
ByBlock
 62
     0
440
 16777216
370
    -2
100
AcDbLine
 10
-190.0000000000009
 20
413.4999999999998
 30
0.0
 11
-190.0000000000009
 21
894.8215520546877
 31
0.0
  0
LINE
  5
5164
330
4C40
100
AcDbEntity
  8
SIZE
  6
ByBlock
 62
     0
440
 16777216
370
    -2
100
AcDbLine
 10
-198.0000000000009
 20
415.5000000000008
 30
0.0
 11
-198.0000000000009
 21
894.8215520546877
 31
0.0
  0
LINE
  5
5165
330
4C40
100
AcDbEntity
  8
SIZE
  6
ByBlock
 62
     0
440
 16777216
370
    -2
100
AcDbLine
 10
-178.0000000000009
 20
874.8215520546876
 30
0.0
 11
-166.0000000000009
 21
874.8215520546876
 31
0.0
  0
LINE
  5
5166
330
4C40
100
AcDbEntity
  8
SIZE
  6
ByBlock
 62
     0
440
 16777216
370
    -2
100
AcDbLine
 10
-210.0000000000009
 20
874.8215520546876
 30
0.0
 11
-272.0000000000009
 21
874.8215520546876
 31
0.0
  0
LINE
  5
5167
330
4C40
100
AcDbEntity
  8
SIZE
  6
ByBlock
 62
     0
440
 16777216
370
    -2
100
AcDbLine
 10
-190.0000000000009
 20
874.8215520546876
 30
0.0
 11
-198.0000000000009
 21
874.8215520546876
 31
0.0
  0
INSERT
  5
5168
330
4C40
100
AcDbEntity
  8
SIZE
 62
     0
440
 16777216
370
    -2
100
AcDbBlockReference
  2
_DOTBLANK
 10
-190.0000000000009
 20
874.8215520546876
 30
0.0
 41
12.0
 42
12.0
 43
12.0
 50
180.0
  0
INSERT
  5
5169
330
4C40
100
AcDbEntity
  8
SIZE
 62
     0
440
 16777216
370
    -2
100
AcDbBlockReference
  2
_DOTBLANK
 10
-198.0000000000009
 20
874.8215520546876
 30
0.0
 41
12.0
 42
12.0
 43
12.0
  0
MTEXT
  5
516A
330
4C40
100
AcDbEntity
  8
SIZE
 62
     0
440
 16777216
100
AcDbMText
 10
-247.0000000000009
 20
909.8215520546876
 30
0.0
 40
64.0
 41
0.0
 46
0.0
 71
     5
 72
     1
  1
\A1;{\H0.78125x;8}
 73
     1
 44
1.0
  0
POINT
  5
516B
330
4C40
100
AcDbEntity
  8
DEFPOINTS
 62
     0
440
 16777216
100
AcDbPoint
 10
-190.0000000000009
 20
393.4999999999998
 30
0.0
  0
POINT
  5
516C
330
4C40
100
AcDbEntity
  8
DEFPOINTS
 62
     0
440
 16777216
100
AcDbPoint
 10
-198.0000000000009
 20
395.5000000000008
 30
0.0
  0
POINT
  5
516D
330
4C40
100
AcDbEntity
  8
DEFPOINTS
 62
     0
440
 16777216
100
AcDbPoint
 10
-198.0000000000009
 20
874.8215520546876
 30
0.0
  0
ENDBLK
  5
4C42
330
4C40
100
AcDbEntity
  8
0
100
AcDbBlockEnd
  0
BLOCK
  5
4C4F
330
4C4E
100
AcDbEntity
  8
0
100
AcDbBlockBegin
  2
*D21
 70
     1
 10
0.0
 20
0.0
 30
0.0
  3
*D21
  1

  0
LINE
  5
5533
330
4C4E
100
AcDbEntity
  8
SIZE
  6
ByBlock
 62
     0
440
 16777216
370
    -2
100
AcDbLine
 10
-218.000000000001
 20
395.5000000000011
 30
0.0
 11
-801.6072060229745
 21
395.500000000001
 31
0.0
  0
LINE
  5
5534
330
4C4E
100
AcDbEntity
  8
SIZE
  6
ByBlock
 62
     0
440
 16777216
370
    -2
100
AcDbLine
 10
-218.000000000001
 20
-356.0000000000003
 30
0.0
 11
-801.6072060229742
 21
-356.0000000000004
 31
0.0
  0
LINE
  5
5535
330
4C4E
100
AcDbEntity
  8
SIZE
  6
ByBlock
 62
     0
440
 16777216
370
    -2
100
AcDbLine
 10
-781.6072060229745
 20
383.500000000001
 30
0.0
 11
-781.6072060229743
 21
-344.0000000000003
 31
0.0
  0
INSERT
  5
5536
330
4C4E
100
AcDbEntity
  8
SIZE
 62
     0
440
 16777216
370
    -2
100
AcDbBlockReference
  2
_DOTBLANK
 10
-781.6072060229745
 20
395.500000000001
 30
0.0
 41
12.0
 42
12.0
 43
12.0
 50
90.0
  0
INSERT
  5
5537
330
4C4E
100
AcDbEntity
  8
SIZE
 62
     0
440
 16777216
370
    -2
100
AcDbBlockReference
  2
_DOTBLANK
 10
-781.6072060229743
 20
-356.0000000000004
 30
0.0
 41
12.0
 42
12.0
 43
12.0
 50
270.0
  0
MTEXT
  5
5538
330
4C4E
100
AcDbEntity
  8
SIZE
 62
     0
440
 16777216
100
AcDbMText
 10
-816.6072060229742
 20
10.60792490478144
 30
0.0
 40
64.0
 41
0.0
 46
0.0
 71
     5
 72
     1
  1
\A1;{\H0.78125x;752}
 11
0.0000000000000001
 21
1.0
 31
0.0
 73
     1
 44
1.0
  0
POINT
  5
5539
330
4C4E
100
AcDbEntity
  8
DEFPOINTS
 62
     0
440
 16777216
100
AcDbPoint
 10
-198.000000000001
 20
395.5000000000011
 30
0.0
  0
POINT
  5
553A
330
4C4E
100
AcDbEntity
  8
DEFPOINTS
 62
     0
440
 16777216
100
AcDbPoint
 10
-198.000000000001
 20
-356.0000000000003
 30
0.0
  0
POINT
  5
553B
330
4C4E
100
AcDbEntity
  8
DEFPOINTS
 62
     0
440
 16777216
100
AcDbPoint
 10
-781.6072060229743
 20
-356.0000000000004
 30
0.0
  0
ENDBLK
  5
4C50
330
4C4E
100
AcDbEntity
  8
0
100
AcDbBlockEnd
  0
BLOCK
  5
50A2
330
4FD8
100
AcDbEntity
  8
0
100
AcDbBlockBegin
  2
A$Cc32cecd2
 70
     0
 10
0.0
 20
0.0
 30
0.0
  3
A$Cc32cecd2
  1

  0
LINE
  5
4FD9
330
4FD8
100
AcDbEntity
  8
OUTLINE
100
AcDbLine
 10
497.4999999999929
 20
81.47233378491279
 30
0.0
 11
497.4999999999929
 21
81.47027526591529
 31
0.0
  0
CIRCLE
  5
4FDA
330
4FD8
100
AcDbEntity
  8
ARRANGE
100
AcDbCircle
 10
203.5915211788821
 20
376.9724635974601
 30
0.0
 40
40.0
  0
LINE
  5
4FDB
330
4FD8
100
AcDbEntity
  8
ARRANGE
 62
     1
100
AcDbLine
 39
549.3939692574713
 10
182.4229520378664
 20
356.172952037865
 30
0.0
 11
224.5770479621371
 21
398.3270479621377
 31
0.0
  0
LINE
  5
4FDC
330
4FD8
100
AcDbEntity
  8
ARRANGE
 62
     1
100
AcDbLine
 39
549.3939692574713
 10
182.4229520378641
 20
398.3270479621362
 30
0.0
 11
224.5770479621371
 21
356.1729520378628
 31
0.0
  0
LINE
  5
4FDD
330
4FD8
100
AcDbEntity
  8
OUTLINE
100
AcDbLine
 10
38.49999999999955
 20
727.2499999999993
 30
0.0
 11
93.49999999999884
 21
727.2499999999995
 31
0.0
  0
LINE
  5
4FDE
330
4FD8
100
AcDbEntity
  8
OUTLINE
100
AcDbLine
 10
103.4999999999988
 20
727.2499999999995
 30
0.0
 11
203.4999999999997
 21
727.2499999999995
 31
0.0
  0
LINE
  5
4FDF
330
4FD8
100
AcDbEntity
  8
OUTLINE
100
AcDbLine
 10
216.2805053258041
 20
792.999999999999
 30
0.0
 11
235.2811805440162
 21
890.7499999999995
 31
0.0
  0
LINE
  5
4FE0
330
4FD8
100
AcDbEntity
  8
OUTLINE
100
AcDbLine
 10
235.2811805440162
 20
890.7499999999995
 30
0.0
 11
497.4999999999988
 21
890.75
 31
0.0
  0
LINE
  5
4FE1
330
4FD8
100
AcDbEntity
  8
OUTLINE
100
AcDbLine
 10
497.4999999999988
 20
890.7499999999998
 30
0.0
 11
497.5000000000006
 21
86.39866503751852
 31
0.0
  0
LINE
  5
4FE2
330
4FD8
100
AcDbEntity
  8
OUTLINE
100
AcDbLine
 10
497.5000000000006
 20
86.39866503751852
 30
0.0
 11
253.5000000000006
 21
73.61116689245585
 31
0.0
  0
LINE
  5
4FE3
330
4FD8
100
AcDbEntity
  8
OUTLINE
100
AcDbLine
 10
203.5000000000006
 20
70.99077792830377
 30
0.0
 11
201.5000000000006
 21
70.88596236973763
 31
0.0
  0
LINE
  5
4FE4
330
4FD8
100
AcDbEntity
  8
OUTLINE
100
AcDbLine
 10
155.5000000000006
 20
68.47520452271766
 30
0.0
 11
103.5000000000006
 21
65.74999999999943
 31
0.0
  0
LINE
  5
4FE5
330
4FD8
100
AcDbEntity
  8
OUTLINE
100
AcDbLine
 10
93.50000000000063
 20
65.74999999999943
 30
0.0
 11
38.50000000000111
 21
65.74999999999921
 31
0.0
  0
LINE
  5
4FE6
330
4FD8
100
AcDbEntity
  8
OUTLINE
100
AcDbLine
 10
38.50000000000111
 20
65.74999999999921
 30
0.0
 11
38.49999999999955
 21
727.2499999999993
 31
0.0
  0
LINE
  5
4FE7
330
4FD8
100
AcDbEntity
  8
OUTLINE
100
AcDbLine
 10
40.00000000000111
 20
42.24999999999932
 30
0.0
 11
38.50000000000111
 21
42.24999999999932
 31
0.0
  0
LINE
  5
4FE8
330
4FD8
100
AcDbEntity
  8
OUTLINE
100
AcDbLine
 10
40.00000000000111
 20
65.74999999999943
 30
0.0
 11
40.00000000000111
 21
42.24999999999932
 31
0.0
  0
LINE
  5
4FE9
330
4FD8
100
AcDbEntity
  8
OUTLINE
100
AcDbLine
 10
497.4999999999979
 20
86.39866503751852
 30
0.0
 11
497.4999999999979
 21
86.39660651852114
 31
0.0
  0
LINE
  5
4FEA
330
4FD8
100
AcDbEntity
  8
OUTLINE
100
AcDbLine
 10
497.4999999999979
 20
86.39660651852114
 30
0.0
 11
253.4999999999993
 21
73.60910837345881
 31
0.0
  0
LINE
  5
4FEB
330
4FD8
100
AcDbEntity
  8
OUTLINE
100
AcDbLine
 10
203.4999999999997
 20
70.98871940930667
 30
0.0
 11
201.4999999999997
 21
70.88390385074063
 31
0.0
  0
LINE
  5
4FEC
330
4FD8
100
AcDbEntity
  8
OUTLINE
100
AcDbLine
 10
155.4999999999997
 20
68.47314600372062
 30
0.0
 11
103.5392788823525
 21
65.74999999999943
 31
0.0
  0
LINE
  5
4FED
330
4FD8
100
AcDbEntity
  8
OUTLINE
100
AcDbLine
 10
103.5392788823525
 20
65.74999999999943
 30
0.0
 11
103.5000000000002
 21
65.74999999999943
 31
0.0
  0
LINE
  5
4FEE
330
4FD8
100
AcDbEntity
  8
OUTLINE
100
AcDbLine
 10
38.50000000000111
 20
42.24999999999932
 30
0.0
 11
38.50000000000111
 21
65.74999999999921
 31
0.0
  0
LINE
  5
4FEF
330
4FD8
100
AcDbEntity
  8
OUTLINE
100
AcDbLine
 10
206.5000000000011
 20
1.50000000000017
 30
0.0
 11
206.5000000000011
 21
0.0
 31
0.0
  0
LINE
  5
4FF0
330
4FD8
100
AcDbEntity
  8
OUTLINE
100
AcDbLine
 10
203.5000000000015
 20
1.50000000000017
 30
0.0
 11
206.5000000000011
 21
1.50000000000017
 31
0.0
  0
LINE
  5
4FF1
330
4FD8
100
AcDbEntity
  8
OUTLINE
100
AcDbLine
 10
203.5000000000015
 20
0.0
 30
0.0
 11
203.5000000000015
 21
1.50000000000017
 31
0.0
  0
LINE
  5
4FF2
330
4FD8
100
AcDbEntity
  8
OUTLINE
100
AcDbLine
 10
206.5000000000011
 20
0.0
 30
0.0
 11
203.5000000000015
 21
0.0
 31
0.0
  0
LINE
  5
4FF3
330
4FD8
100
AcDbEntity
  8
OUTLINE
100
AcDbLine
 10
206.4999999999993
 20
792.999999999999
 30
0.0
 11
206.4999999999993
 21
791.4999999999991
 31
0.0
  0
LINE
  5
4FF4
330
4FD8
100
AcDbEntity
  8
OUTLINE
100
AcDbLine
 10
203.4999999999993
 20
792.999999999999
 30
0.0
 11
206.4999999999993
 21
792.999999999999
 31
0.0
  0
LINE
  5
4FF5
330
4FD8
100
AcDbEntity
  8
OUTLINE
100
AcDbLine
 10
203.4999999999993
 20
791.4999999999991
 30
0.0
 11
203.4999999999993
 21
792.999999999999
 31
0.0
  0
LINE
  5
4FF6
330
4FD8
100
AcDbEntity
  8
OUTLINE
100
AcDbLine
 10
206.4999999999993
 20
791.4999999999991
 30
0.0
 11
203.4999999999993
 21
791.4999999999991
 31
0.0
  0
LINE
  5
4FF7
330
4FD8
100
AcDbEntity
  8
OUTLINE
100
AcDbLine
 10
206.5000000000006
 20
334.9999999999998
 30
0.0
 11
206.5000000000011
 21
1.50000000000017
 31
0.0
  0
LINE
  5
4FF8
330
4FD8
100
AcDbEntity
  8
OUTLINE
100
AcDbLine
 10
203.5000000000006
 20
334.9999999999998
 30
0.0
 11
203.5000000000015
 21
1.50000000000017
 31
0.0
  0
LINE
  5
4FF9
330
4FD8
100
AcDbEntity
  8
OUTLINE
100
AcDbLine
 10
211.0000000000011
 20
0.0
 30
0.0
 11
253.5000000000011
 21
0.0000000000001705
 31
0.0
  0
LINE
  5
4FFA
330
4FD8
100
AcDbEntity
  8
OUTLINE
100
AcDbLine
 10
206.5000000000011
 20
0.0
 30
0.0
 11
211.0000000000011
 21
0.0
 31
0.0
  0
LINE
  5
4FFB
330
4FD8
100
AcDbEntity
  8
OUTLINE
100
AcDbLine
 10
203.4999999999993
 20
791.4999999999991
 30
0.0
 11
203.5000000000002
 21
457.9999999999994
 31
0.0
  0
LINE
  5
4FFC
330
4FD8
100
AcDbEntity
  8
OUTLINE
100
AcDbLine
 10
206.4999999999993
 20
791.4999999999991
 30
0.0
 11
206.5000000000002
 21
457.9999999999994
 31
0.0
  0
LINE
  5
4FFD
330
4FD8
100
AcDbEntity
  8
OUTLINE
100
AcDbLine
 10
206.4999999999993
 20
792.999999999999
 30
0.0
 11
210.9999999999993
 21
792.999999999999
 31
0.0
  0
LINE
  5
4FFE
330
4FD8
100
AcDbEntity
  8
OUTLINE
100
AcDbLine
 10
253.4999999999988
 20
792.9999999999995
 30
0.0
 11
253.5000000000011
 21
0.0000000000001705
 31
0.0
  0
LINE
  5
4FFF
330
4FD8
100
AcDbEntity
  8
OUTLINE
100
AcDbLine
 10
210.9999999999993
 20
792.999999999999
 30
0.0
 11
253.4999999999988
 21
792.9999999999995
 31
0.0
  0
LINE
  5
5000
330
4FD8
100
AcDbEntity
  8
OUTLINE
100
AcDbLine
 10
206.5000000000006
 20
334.9999999999998
 30
0.0
 11
203.5000000000006
 21
334.9999999999998
 31
0.0
  0
LINE
  5
5001
330
4FD8
100
AcDbEntity
  8
OUTLINE
100
AcDbLine
 10
203.5000000000002
 20
457.9999999999994
 30
0.0
 11
206.5000000000002
 21
457.9999999999994
 31
0.0
  0
LINE
  5
5002
330
4FD8
100
AcDbEntity
  8
OUTLINE
100
AcDbLine
 10
203.5000000000006
 20
334.9999999999998
 30
0.0
 11
203.5000000000006
 21
336.4999999999997
 31
0.0
  0
LINE
  5
5003
330
4FD8
100
AcDbEntity
  8
OUTLINE
100
AcDbLine
 10
206.5000000000006
 20
336.4999999999997
 30
0.0
 11
206.5000000000006
 21
334.9999999999998
 31
0.0
  0
LINE
  5
5004
330
4FD8
100
AcDbEntity
  8
OUTLINE
100
AcDbLine
 10
203.5000000000006
 20
336.4999999999999
 30
0.0
 11
206.5000000000006
 21
336.4999999999999
 31
0.0
  0
LINE
  5
5005
330
4FD8
100
AcDbEntity
  8
OUTLINE
100
AcDbLine
 10
203.5000000000002
 20
456.4999999999996
 30
0.0
 11
203.5000000000002
 21
457.9999999999994
 31
0.0
  0
LINE
  5
5006
330
4FD8
100
AcDbEntity
  8
OUTLINE
100
AcDbLine
 10
206.5000000000002
 20
456.4999999999996
 30
0.0
 11
203.5000000000002
 21
456.4999999999996
 31
0.0
  0
LINE
  5
5007
330
4FD8
100
AcDbEntity
  8
OUTLINE
100
AcDbLine
 10
206.5000000000002
 20
457.9999999999994
 30
0.0
 11
206.5000000000002
 21
456.4999999999996
 31
0.0
  0
LINE
  5
5008
330
4FD8
100
AcDbEntity
  8
OUTLINE
100
AcDbLine
 10
203.5000000000006
 20
336.4999999999999
 30
0.0
 11
203.5000000000002
 21
456.4999999999996
 31
0.0
  0
LINE
  5
5009
330
4FD8
100
AcDbEntity
  8
OUTLINE
100
AcDbLine
 10
206.5000000000002
 20
456.4999999999996
 30
0.0
 11
206.5000000000006
 21
336.4999999999997
 31
0.0
  0
LINE
  5
500A
330
4FD8
100
AcDbEntity
  8
OUTLINE
100
AcDbLine
 10
155.5000000000006
 20
43.99999999999931
 30
0.0
 11
157.5000000000006
 21
43.99999999999931
 31
0.0
  0
LINE
  5
500B
330
4FD8
100
AcDbEntity
  8
OUTLINE
100
AcDbLine
 10
157.5000000000006
 20
43.99999999999931
 30
0.0
 11
157.5000000000006
 21
45.49999999999942
 31
0.0
  0
LINE
  5
500C
330
4FD8
100
AcDbEntity
  8
OUTLINE
100
AcDbLine
 10
157.5000000000006
 20
45.49999999999942
 30
0.0
 11
155.5000000000006
 21
45.49999999999942
 31
0.0
  0
LINE
  5
500D
330
4FD8
100
AcDbEntity
  8
OUTLINE
100
AcDbLine
 10
155.5000000000006
 20
45.49999999999942
 30
0.0
 11
155.5000000000006
 21
43.99999999999931
 31
0.0
  0
LINE
  5
500E
330
4FD8
100
AcDbEntity
  8
OUTLINE
100
AcDbLine
 10
201.5000000000006
 20
45.49999999999942
 30
0.0
 11
199.5000000000006
 21
45.49999999999942
 31
0.0
  0
LINE
  5
500F
330
4FD8
100
AcDbEntity
  8
OUTLINE
100
AcDbLine
 10
199.5000000000006
 20
43.99999999999948
 30
0.0
 11
201.5000000000006
 21
43.99999999999948
 31
0.0
  0
LINE
  5
5010
330
4FD8
100
AcDbEntity
  8
OUTLINE
100
AcDbLine
 10
201.5000000000006
 20
43.99999999999948
 30
0.0
 11
201.5000000000006
 21
45.49999999999942
 31
0.0
  0
LINE
  5
5011
330
4FD8
100
AcDbEntity
  8
OUTLINE
100
AcDbLine
 10
199.5000000000006
 20
45.49999999999942
 30
0.0
 11
199.5000000000006
 21
43.99999999999948
 31
0.0
  0
LINE
  5
5012
330
4FD8
100
AcDbEntity
  8
OUTLINE
100
AcDbLine
 10
157.5000000000006
 20
45.49999999999942
 30
0.0
 11
199.5000000000006
 21
45.49999999999942
 31
0.0
  0
LINE
  5
5013
330
4FD8
100
AcDbEntity
  8
OUTLINE
100
AcDbLine
 10
157.5000000000006
 20
43.99999999999931
 30
0.0
 11
199.5000000000006
 21
43.99999999999948
 31
0.0
  0
CIRCLE
  5
5014
330
4FD8
100
AcDbEntity
  8
OUTLINE
100
AcDbCircle
 10
163.5000000000006
 20
81.99999999999949
 30
0.0
 40
1.250000000000001
  0
CIRCLE
  5
5015
330
4FD8
100
AcDbEntity
  8
OUTLINE
100
AcDbCircle
 10
193.5000000000006
 20
81.9999999999996
 30
0.0
 40
1.250000000000001
  0
LINE
  5
5016
330
4FD8
100
AcDbEntity
  8
OUTLINE
100
AcDbLine
 10
155.5000000000006
 20
45.49999999999942
 30
0.0
 11
155.5000000000006
 21
46.99999999999943
 31
0.0
  0
LINE
  5
5017
330
4FD8
100
AcDbEntity
  8
OUTLINE
100
AcDbLine
 10
201.5000000000006
 20
45.49999999999942
 30
0.0
 11
201.5000000000006
 21
46.99999999999948
 31
0.0
  0
LINE
  5
5018
330
4FD8
100
AcDbEntity
  8
OUTLINE
100
AcDbLine
 10
201.5000000000006
 20
93.99999999999961
 30
0.0
 11
201.5000000000006
 21
46.99999999999948
 31
0.0
  0
LINE
  5
5019
330
4FD8
100
AcDbEntity
  8
OUTLINE
100
AcDbLine
 10
155.5000000000006
 20
46.99999999999943
 30
0.0
 11
155.5000000000006
 21
93.99999999999948
 31
0.0
  0
LINE
  5
501A
330
4FD8
100
AcDbEntity
  8
OUTLINE
100
AcDbLine
 10
155.5000000000006
 20
93.99999999999948
 30
0.0
 11
201.5000000000006
 21
93.99999999999961
 31
0.0
  0
LINE
  5
501B
330
4FD8
100
AcDbEntity
  8
OUTLINE
100
AcDbLine
 10
93.50000000000063
 20
65.74999999999971
 30
0.0
 11
94.50000000000063
 21
65.74999999999971
 31
0.0
  0
LINE
  5
501C
330
4FD8
100
AcDbEntity
  8
OUTLINE
100
AcDbLine
 10
94.49999999999972
 20
727.2499999999991
 30
0.0
 11
94.50000000000063
 21
65.74999999999971
 31
0.0
  0
LINE
  5
501D
330
4FD8
100
AcDbEntity
  8
OUTLINE
100
AcDbLine
 10
94.49999999999972
 20
727.2499999999991
 30
0.0
 11
93.49999999999971
 21
727.2499999999991
 31
0.0
  0
LINE
  5
501E
330
4FD8
100
AcDbEntity
  8
OUTLINE
100
AcDbLine
 10
93.49999999999971
 20
727.2499999999991
 30
0.0
 11
93.50000000000063
 21
65.74999999999971
 31
0.0
  0
LINE
  5
501F
330
4FD8
100
AcDbEntity
  8
OUTLINE
100
AcDbLine
 10
94.50000000000063
 20
65.74999999999971
 30
0.0
 11
103.5000000000006
 21
65.74999999999971
 31
0.0
  0
LINE
  5
5020
330
4FD8
100
AcDbEntity
  8
OUTLINE
100
AcDbLine
 10
103.4999999999997
 20
727.2499999999991
 30
0.0
 11
103.5000000000006
 21
65.74999999999971
 31
0.0
  0
LINE
  5
5021
330
4FD8
100
AcDbEntity
  8
OUTLINE
100
AcDbLine
 10
103.4999999999997
 20
727.2499999999991
 30
0.0
 11
94.49999999999972
 21
727.2499999999991
 31
0.0
  0
LINE
  5
5022
330
4FD8
100
AcDbEntity
  8
OUTLINE
100
AcDbLine
 10
93.49999999999971
 20
732.249999999999
 30
0.0
 11
94.49999999999972
 21
732.249999999999
 31
0.0
  0
LINE
  5
5023
330
4FD8
100
AcDbEntity
  8
OUTLINE
100
AcDbLine
 10
94.49999999999972
 20
732.249999999999
 30
0.0
 11
94.49999999999972
 21
728.249999999999
 31
0.0
  0
LINE
  5
5024
330
4FD8
100
AcDbEntity
  8
OUTLINE
100
AcDbLine
 10
94.49999999999972
 20
728.249999999999
 30
0.0
 11
103.4999999999997
 21
728.249999999999
 31
0.0
  0
LINE
  5
5025
330
4FD8
100
AcDbEntity
  8
OUTLINE
100
AcDbLine
 10
103.4999999999997
 20
728.249999999999
 30
0.0
 11
103.4999999999997
 21
727.2499999999991
 31
0.0
  0
LINE
  5
5026
330
4FD8
100
AcDbEntity
  8
OUTLINE
100
AcDbLine
 10
93.49999999999971
 20
727.2499999999991
 30
0.0
 11
93.49999999999971
 21
732.249999999999
 31
0.0
  0
LINE
  5
5027
330
4FD8
100
AcDbEntity
  8
OUTLINE
100
AcDbLine
 10
94.50000000000063
 20
60.74999999999931
 30
0.0
 11
93.50000000000063
 21
60.74999999999931
 31
0.0
  0
LINE
  5
5028
330
4FD8
100
AcDbEntity
  8
OUTLINE
100
AcDbLine
 10
94.50000000000063
 20
64.74999999999932
 30
0.0
 11
94.50000000000063
 21
60.74999999999931
 31
0.0
  0
LINE
  5
5029
330
4FD8
100
AcDbEntity
  8
OUTLINE
100
AcDbLine
 10
103.5000000000006
 20
64.74999999999932
 30
0.0
 11
94.50000000000063
 21
64.74999999999932
 31
0.0
  0
LINE
  5
502A
330
4FD8
100
AcDbEntity
  8
OUTLINE
100
AcDbLine
 10
103.5000000000006
 20
65.74999999999943
 30
0.0
 11
103.5000000000006
 21
64.74999999999932
 31
0.0
  0
LINE
  5
502B
330
4FD8
100
AcDbEntity
  8
OUTLINE
100
AcDbLine
 10
93.50000000000063
 20
60.74999999999931
 30
0.0
 11
93.50000000000063
 21
65.74999999999943
 31
0.0
  0
LINE
  5
502C
330
4FD8
100
AcDbEntity
  8
OUTLINE
100
AcDbLine
 10
10.00000000000111
 20
47.34999999999945
 30
0.0
 11
10.00000000000111
 21
57.14999999999941
 31
0.0
  0
LINE
  5
502D
330
4FD8
100
AcDbEntity
  8
OUTLINE
100
AcDbLine
 10
30.49999999999881
 20
47.34999999999945
 30
0.0
 11
10.00000000000111
 21
47.34999999999945
 31
0.0
  0
LINE
  5
502E
330
4FD8
100
AcDbEntity
  8
OUTLINE
100
AcDbLine
 10
30.49999999999881
 20
57.14999999999941
 30
0.0
 11
10.00000000000111
 21
57.14999999999941
 31
0.0
  0
LINE
  5
502F
330
4FD8
100
AcDbEntity
  8
OUTLINE
100
AcDbLine
 10
40.00000000000111
 20
42.43504542377571
 30
0.0
 11
47.00000000000111
 21
42.43504542377571
 31
0.0
  0
LINE
  5
5030
330
4FD8
100
AcDbEntity
  8
OUTLINE
100
AcDbLine
 10
47.00000000000111
 20
42.43504542377571
 30
0.0
 11
47.00000000000111
 21
47.34252271188762
 31
0.0
  0
LINE
  5
5031
330
4FD8
100
AcDbEntity
  8
OUTLINE
100
AcDbLine
 10
40.00000000000111
 20
47.34252271188762
 30
0.0
 11
47.00000000000111
 21
47.34252271188762
 31
0.0
  0
LINE
  5
5032
330
4FD8
100
AcDbEntity
  8
OUTLINE
100
AcDbLine
 10
47.00000000000111
 20
47.34252271188762
 30
0.0
 11
47.00000000000111
 21
57.15747728811118
 31
0.0
  0
LINE
  5
5033
330
4FD8
100
AcDbEntity
  8
OUTLINE
100
AcDbLine
 10
40.00000000000111
 20
57.15747728811118
 30
0.0
 11
47.00000000000111
 21
57.15747728811118
 31
0.0
  0
LINE
  5
5034
330
4FD8
100
AcDbEntity
  8
OUTLINE
100
AcDbLine
 10
47.00000000000111
 20
57.15747728811118
 30
0.0
 11
47.00000000000111
 21
62.06495457622316
 31
0.0
  0
LINE
  5
5035
330
4FD8
100
AcDbEntity
  8
OUTLINE
100
AcDbLine
 10
40.00000000000111
 20
62.06495457622316
 30
0.0
 11
47.00000000000111
 21
62.06495457622316
 31
0.0
  0
LINE
  5
5036
330
4FD8
100
AcDbEntity
  8
OUTLINE
100
AcDbLine
 10
9.999999999999943
 20
697.3499999999994
 30
0.0
 11
9.999999999999943
 21
707.1499999999992
 31
0.0
  0
LINE
  5
5037
330
4FD8
100
AcDbEntity
  8
OUTLINE
100
AcDbLine
 10
30.49999999999883
 20
697.3499999999994
 30
0.0
 11
9.999999999999943
 21
697.3499999999994
 31
0.0
  0
LINE
  5
5038
330
4FD8
100
AcDbEntity
  8
OUTLINE
100
AcDbLine
 10
30.49999999999883
 20
707.1499999999993
 30
0.0
 11
9.999999999999943
 21
707.1499999999993
 31
0.0
  0
LINE
  5
5039
330
4FD8
100
AcDbEntity
  8
OUTLINE
100
AcDbLine
 10
239.9999999999997
 20
681.4074772881114
 30
0.0
 11
239.9999999999997
 21
671.5925227118876
 31
0.0
  0
LINE
  5
503A
330
4FD8
100
AcDbEntity
  8
OUTLINE
100
AcDbLine
 10
239.9999999999997
 20
671.5925227118876
 30
0.0
 11
231.4999999999997
 21
666.685045423776
 31
0.0
  0
LINE
  5
503B
330
4FD8
100
AcDbEntity
  8
OUTLINE
100
AcDbLine
 10
231.4999999999997
 20
666.685045423776
 30
0.0
 11
222.9999999999997
 21
671.5925227118876
 31
0.0
  0
LINE
  5
503C
330
4FD8
100
AcDbEntity
  8
OUTLINE
100
AcDbLine
 10
222.9999999999997
 20
671.5925227118876
 30
0.0
 11
222.9999999999997
 21
681.4074772881114
 31
0.0
  0
LINE
  5
503D
330
4FD8
100
AcDbEntity
  8
OUTLINE
100
AcDbLine
 10
222.9999999999997
 20
681.4074772881114
 30
0.0
 11
231.4999999999997
 21
686.3149545762232
 31
0.0
  0
LINE
  5
503E
330
4FD8
100
AcDbEntity
  8
OUTLINE
100
AcDbLine
 10
231.4999999999997
 20
686.3149545762232
 30
0.0
 11
239.9999999999997
 21
681.4074772881114
 31
0.0
  0
LINE
  5
503F
330
4FD8
100
AcDbEntity
  8
OUTLINE
100
AcDbLine
 10
239.9999999999997
 20
541.4074772881114
 30
0.0
 11
239.9999999999997
 21
531.5925227118878
 31
0.0
  0
LINE
  5
5040
330
4FD8
100
AcDbEntity
  8
OUTLINE
100
AcDbLine
 10
239.9999999999997
 20
531.5925227118878
 30
0.0
 11
231.4999999999997
 21
526.685045423776
 31
0.0
  0
LINE
  5
5041
330
4FD8
100
AcDbEntity
  8
OUTLINE
100
AcDbLine
 10
231.4999999999997
 20
526.685045423776
 30
0.0
 11
222.9999999999997
 21
531.5925227118878
 31
0.0
  0
LINE
  5
5042
330
4FD8
100
AcDbEntity
  8
OUTLINE
100
AcDbLine
 10
222.9999999999997
 20
531.5925227118878
 30
0.0
 11
222.9999999999997
 21
541.4074772881114
 31
0.0
  0
LINE
  5
5043
330
4FD8
100
AcDbEntity
  8
OUTLINE
100
AcDbLine
 10
222.9999999999997
 20
541.4074772881114
 30
0.0
 11
231.4999999999997
 21
546.3149545762233
 31
0.0
  0
LINE
  5
5044
330
4FD8
100
AcDbEntity
  8
OUTLINE
100
AcDbLine
 10
231.4999999999997
 20
546.3149545762233
 30
0.0
 11
239.9999999999997
 21
541.4074772881114
 31
0.0
  0
LINE
  5
5045
330
4FD8
100
AcDbEntity
  8
OUTLINE
100
AcDbLine
 10
240.0000000000006
 20
401.4074772881117
 30
0.0
 11
240.0000000000006
 21
391.5925227118881
 31
0.0
  0
LINE
  5
5046
330
4FD8
100
AcDbEntity
  8
OUTLINE
100
AcDbLine
 10
240.0000000000006
 20
391.5925227118881
 30
0.0
 11
231.5000000000002
 21
386.6850454237762
 31
0.0
  0
LINE
  5
5047
330
4FD8
100
AcDbEntity
  8
OUTLINE
100
AcDbLine
 10
231.5000000000002
 20
386.6850454237762
 30
0.0
 11
223.0000000000002
 21
391.5925227118881
 31
0.0
  0
LINE
  5
5048
330
4FD8
100
AcDbEntity
  8
OUTLINE
100
AcDbLine
 10
223.0000000000002
 20
391.5925227118881
 30
0.0
 11
223.0000000000006
 21
401.4074772881117
 31
0.0
  0
LINE
  5
5049
330
4FD8
100
AcDbEntity
  8
OUTLINE
100
AcDbLine
 10
223.0000000000006
 20
401.4074772881117
 30
0.0
 11
231.5000000000002
 21
406.3149545762235
 31
0.0
  0
LINE
  5
504A
330
4FD8
100
AcDbEntity
  8
OUTLINE
100
AcDbLine
 10
231.5000000000002
 20
406.3149545762235
 30
0.0
 11
240.0000000000006
 21
401.4074772881117
 31
0.0
  0
LINE
  5
504B
330
4FD8
100
AcDbEntity
  8
OUTLINE
100
AcDbLine
 10
240.0000000000006
 20
261.4074772881118
 30
0.0
 11
240.0000000000006
 21
251.5925227118882
 31
0.0
  0
LINE
  5
504C
330
4FD8
100
AcDbEntity
  8
OUTLINE
100
AcDbLine
 10
240.0000000000006
 20
251.5925227118882
 30
0.0
 11
231.5000000000006
 21
246.6850454237763
 31
0.0
  0
LINE
  5
504D
330
4FD8
100
AcDbEntity
  8
OUTLINE
100
AcDbLine
 10
231.5000000000006
 20
246.6850454237763
 30
0.0
 11
223.0000000000006
 21
251.5925227118882
 31
0.0
  0
LINE
  5
504E
330
4FD8
100
AcDbEntity
  8
OUTLINE
100
AcDbLine
 10
223.0000000000006
 20
251.5925227118882
 30
0.0
 11
223.0000000000006
 21
261.4074772881118
 31
0.0
  0
LINE
  5
504F
330
4FD8
100
AcDbEntity
  8
OUTLINE
100
AcDbLine
 10
223.0000000000006
 20
261.4074772881118
 30
0.0
 11
231.5000000000006
 21
266.3149545762237
 31
0.0
  0
LINE
  5
5050
330
4FD8
100
AcDbEntity
  8
OUTLINE
100
AcDbLine
 10
231.5000000000006
 20
266.3149545762237
 30
0.0
 11
240.0000000000006
 21
261.4074772881118
 31
0.0
  0
LINE
  5
5051
330
4FD8
100
AcDbEntity
  8
OUTLINE
100
AcDbLine
 10
240.0000000000006
 20
121.4074772881117
 30
0.0
 11
240.0000000000006
 21
111.5925227118879
 31
0.0
  0
LINE
  5
5052
330
4FD8
100
AcDbEntity
  8
OUTLINE
100
AcDbLine
 10
240.0000000000006
 20
111.5925227118879
 30
0.0
 11
231.5000000000006
 21
106.6850454237761
 31
0.0
  0
LINE
  5
5053
330
4FD8
100
AcDbEntity
  8
OUTLINE
100
AcDbLine
 10
231.5000000000006
 20
106.6850454237761
 30
0.0
 11
223.0000000000006
 21
111.5925227118879
 31
0.0
  0
LINE
  5
5054
330
4FD8
100
AcDbEntity
  8
OUTLINE
100
AcDbLine
 10
223.0000000000006
 20
111.5925227118879
 30
0.0
 11
223.0000000000006
 21
121.4074772881117
 31
0.0
  0
LINE
  5
5055
330
4FD8
100
AcDbEntity
  8
OUTLINE
100
AcDbLine
 10
223.0000000000006
 20
121.4074772881117
 30
0.0
 11
231.5000000000006
 21
126.3149545762234
 31
0.0
  0
LINE
  5
5056
330
4FD8
100
AcDbEntity
  8
OUTLINE
100
AcDbLine
 10
231.5000000000006
 20
126.3149545762234
 30
0.0
 11
240.0000000000006
 21
121.4074772881117
 31
0.0
  0
LINE
  5
5057
330
4FD8
100
AcDbEntity
  8
OUTLINE
100
AcDbLine
 10
128.600000000001
 20
748.9999999999988
 30
0.0
 11
138.4000000000007
 21
748.9999999999988
 31
0.0
  0
LINE
  5
5058
330
4FD8
100
AcDbEntity
  8
OUTLINE
100
AcDbLine
 10
128.600000000001
 20
727.2499999999998
 30
0.0
 11
128.600000000001
 21
748.9999999999988
 31
0.0
  0
LINE
  5
5059
330
4FD8
100
AcDbEntity
  8
OUTLINE
100
AcDbLine
 10
138.4000000000007
 20
727.2499999999998
 30
0.0
 11
138.4000000000007
 21
748.9999999999988
 31
0.0
  0
LINE
  5
505A
330
4FD8
100
AcDbEntity
  8
OUTLINE
100
AcDbLine
 10
525.9999999999979
 20
866.7499999999979
 30
0.0
 11
525.9999999999979
 21
854.7499999999976
 31
0.0
  0
LINE
  5
505B
330
4FD8
100
AcDbEntity
  8
OUTLINE
100
AcDbLine
 10
497.4999999999998
 20
866.7499999999975
 30
0.0
 11
525.9999999999979
 21
866.7499999999975
 31
0.0
  0
LINE
  5
505C
330
4FD8
100
AcDbEntity
  8
OUTLINE
100
AcDbLine
 10
497.4999999999998
 20
854.7499999999979
 30
0.0
 11
525.9999999999979
 21
854.7499999999979
 31
0.0
  0
LINE
  5
505D
330
4FD8
100
AcDbEntity
  8
OUTLINE
100
AcDbLine
 10
525.9999999999979
 20
216.7506752659154
 30
0.0
 11
525.9999999999979
 21
204.7506752659153
 31
0.0
  0
LINE
  5
505E
330
4FD8
100
AcDbEntity
  8
OUTLINE
100
AcDbLine
 10
497.5000000000014
 20
216.7506752659154
 30
0.0
 11
525.9999999999979
 21
216.7506752659154
 31
0.0
  0
LINE
  5
505F
330
4FD8
100
AcDbEntity
  8
OUTLINE
100
AcDbLine
 10
497.5000000000014
 20
204.7506752659153
 30
0.0
 11
525.9999999999979
 21
204.7506752659153
 31
0.0
  0
LINE
  5
5060
330
4FD8
100
AcDbEntity
  8
OUTLINE
100
AcDbLine
 10
525.9999999999982
 20
106.3966065185212
 30
0.0
 11
525.9999999999982
 21
94.39660651852131
 31
0.0
  0
LINE
  5
5061
330
4FD8
100
AcDbEntity
  8
OUTLINE
100
AcDbLine
 10
508.9999999999979
 20
106.3966065185213
 30
0.0
 11
525.9999999999982
 21
106.3966065185213
 31
0.0
  0
LINE
  5
5062
330
4FD8
100
AcDbEntity
  8
OUTLINE
100
AcDbLine
 10
508.9999999999979
 20
94.39660651852131
 30
0.0
 11
525.9999999999982
 21
94.39660651852131
 31
0.0
  0
LINE
  5
5063
330
4FD8
100
AcDbEntity
  8
OUTLINE
100
AcDbLine
 10
508.9999999999979
 20
111.3662616331241
 30
0.0
 11
498.9999999999979
 21
111.3662616331241
 31
0.0
  0
LINE
  5
5064
330
4FD8
100
AcDbEntity
  8
OUTLINE
100
AcDbLine
 10
498.9999999999979
 20
111.3662616331241
 30
0.0
 11
498.9999999999979
 21
105.8814340758227
 31
0.0
  0
LINE
  5
5065
330
4FD8
100
AcDbEntity
  8
OUTLINE
100
AcDbLine
 10
508.9999999999979
 20
105.8814340758227
 30
0.0
 11
498.9999999999979
 21
105.8814340758227
 31
0.0
  0
LINE
  5
5066
330
4FD8
100
AcDbEntity
  8
OUTLINE
100
AcDbLine
 10
508.9999999999979
 20
111.3662616331241
 30
0.0
 11
508.9999999999979
 21
105.8814340758227
 31
0.0
  0
LINE
  5
5067
330
4FD8
100
AcDbEntity
  8
OUTLINE
100
AcDbLine
 10
498.9999999999979
 20
105.8814340758227
 30
0.0
 11
498.9999999999979
 21
94.91177896121985
 31
0.0
  0
LINE
  5
5068
330
4FD8
100
AcDbEntity
  8
OUTLINE
100
AcDbLine
 10
508.9999999999979
 20
94.91177896121985
 30
0.0
 11
498.9999999999979
 21
94.91177896121985
 31
0.0
  0
LINE
  5
5069
330
4FD8
100
AcDbEntity
  8
OUTLINE
100
AcDbLine
 10
508.9999999999979
 20
105.8814340758227
 30
0.0
 11
508.9999999999979
 21
94.91177896121985
 31
0.0
  0
LINE
  5
506A
330
4FD8
100
AcDbEntity
  8
OUTLINE
100
AcDbLine
 10
498.9999999999979
 20
94.91177896121985
 30
0.0
 11
498.9999999999979
 21
89.42695140391846
 31
0.0
  0
LINE
  5
506B
330
4FD8
100
AcDbEntity
  8
OUTLINE
100
AcDbLine
 10
508.9999999999979
 20
89.42695140391846
 30
0.0
 11
498.9999999999979
 21
89.42695140391846
 31
0.0
  0
LINE
  5
506C
330
4FD8
100
AcDbEntity
  8
OUTLINE
100
AcDbLine
 10
508.9999999999979
 20
94.91177896121985
 30
0.0
 11
508.9999999999979
 21
89.42695140391846
 31
0.0
  0
CIRCLE
  5
506D
330
4FD8
100
AcDbEntity
  8
OUTLINE
100
AcDbCircle
 10
231.4999999999997
 20
676.4999999999997
 30
0.0
 40
10.99999999999999
  0
CIRCLE
  5
506E
330
4FD8
100
AcDbEntity
  8
OUTLINE
100
AcDbCircle
 10
231.4999999999997
 20
536.4999999999995
 30
0.0
 40
10.99999999999999
  0
CIRCLE
  5
506F
330
4FD8
100
AcDbEntity
  8
OUTLINE
100
AcDbCircle
 10
231.5000000000002
 20
396.4999999999998
 30
0.0
 40
10.99999999999999
  0
CIRCLE
  5
5070
330
4FD8
100
AcDbEntity
  8
OUTLINE
100
AcDbCircle
 10
231.5000000000006
 20
256.5000000000001
 30
0.0
 40
10.99999999999999
  0
CIRCLE
  5
5071
330
4FD8
100
AcDbEntity
  8
OUTLINE
100
AcDbCircle
 10
231.5000000000006
 20
116.4999999999998
 30
0.0
 40
10.99999999999999
  0
LINE
  5
5072
330
4FD8
100
AcDbEntity
  8
OUTLINE
100
AcDbLine
 10
497.4999999999982
 20
109.3966065185213
 30
0.0
 11
498.9999999999982
 21
109.3966065185213
 31
0.0
  0
LINE
  5
5073
330
4FD8
100
AcDbEntity
  8
OUTLINE
100
AcDbLine
 10
497.4999999999982
 20
91.3966065185213
 30
0.0
 11
498.9999999999982
 21
91.3966065185213
 31
0.0
  0
LINE
  5
5074
330
4FD8
100
AcDbEntity
  8
NOTE
100
AcDbLine
 10
198.5033987018534
 20
773.9999999999991
 30
-0.000000000000022
 11
211.4889638259462
 21
773.9999999999991
 31
-0.000000000000019
  0
LINE
  5
5075
330
4FD8
100
AcDbEntity
  8
NOTE
100
AcDbLine
 10
198.5058334062848
 20
633.999999999999
 30
0.0
 11
211.5058334062848
 21
633.999999999999
 31
0.0
  0
LINE
  5
5076
330
4FD8
100
AcDbEntity
  8
NOTE
100
AcDbLine
 10
198.5029150207912
 20
493.9999999999994
 30
-0.0000000000000036
 11
211.5227029866234
 21
493.9999999999994
 31
-0.0000000000000036
  0
LINE
  5
5077
330
4FD8
100
AcDbEntity
  8
NOTE
100
AcDbLine
 10
198.395637523866
 20
298.9999999999993
 30
-0.0000000000000071
 11
211.3997284757472
 21
298.9999999999993
 31
-0.0000000000000071
  0
LINE
  5
5078
330
4FD8
100
AcDbEntity
  8
NOTE
100
AcDbLine
 10
198.3114390833231
 20
158.9999999999995
 30
0.0
 11
211.3114390833231
 21
158.9999999999995
 31
0.0
  0
LINE
  5
5079
330
4FD8
100
AcDbEntity
  8
NOTE
100
AcDbLine
 10
198.2231496908995
 20
18.99999999999949
 30
-0.0000000000000178
 11
211.2231496908996
 21
18.99999999999949
 31
-0.0000000000000178
  0
LINE
  5
507A
330
4FD8
100
AcDbEntity
  8
NOTE
100
AcDbLine
 10
133.5000000000006
 20
753.9999999999988
 30
0.0
 11
133.5000000000006
 21
722.2499999999995
 31
0.0
  0
LINE
  5
507B
330
4FD8
100
AcDbEntity
  8
NOTE
100
AcDbLine
 10
43.50000000000003
 20
702.2499999999993
 30
0.0
 11
5.000000000000028
 21
702.2499999999993
 31
0.0
  0
LINE
  5
507C
330
4FD8
100
AcDbEntity
  8
NOTE
100
AcDbLine
 10
52.00000000000111
 20
52.24999999999949
 30
0.0
 11
5.000000000001108
 21
52.24999999999949
 31
0.0
  0
LINE
  5
507D
330
4FD8
100
AcDbEntity
  8
BASIS
100
AcDbLine
 10
535.9999999999979
 20
377.2499999999995
 30
0.0
 11
-0.0000000000000568
 21
377.2499999999995
 31
0.0
  0
LINE
  5
507E
330
4FD8
100
AcDbEntity
  8
NOTE
100
AcDbLine
 10
492.4999999999988
 20
860.7499999999976
 30
0.0
 11
530.9999999999974
 21
860.7499999999976
 31
0.0
  0
LINE
  5
507F
330
4FD8
100
AcDbEntity
  8
NOTE
100
AcDbLine
 10
492.4999999999992
 20
210.7506752659153
 30
0.0
 11
530.999999999998
 21
210.7506752659153
 31
0.0
  0
LINE
  5
5080
330
4FD8
100
AcDbEntity
  8
NOTE
100
AcDbLine
 10
492.5000000000006
 20
100.3966065185213
 30
0.0
 11
530.9999999999982
 21
100.3966065185213
 31
0.0
  0
LINE
  5
5081
330
4FD8
100
AcDbEntity
  8
OUTLINE
100
AcDbLine
 10
38.50000000000063
 20
65.74999999999943
 30
0.0
 11
38.49999999999972
 21
727.2499999999991
 31
0.0
  0
LINE
  5
5082
330
4FD8
100
AcDbEntity
  8
OUTLINE
100
AcDbLine
 10
39.50000000011664
 20
41.24999999999767
 30
0.0
 11
38.5000000001188
 21
41.24999999999767
 31
0.0
  0
LINE
  5
5083
330
4FD8
100
AcDbEntity
  8
OUTLINE
100
AcDbLine
 10
39.50000000011664
 20
21.24999999999915
 30
0.0
 11
39.50000000011664
 21
41.24999999999767
 31
0.0
  0
LINE
  5
5084
330
4FD8
100
AcDbEntity
  8
OUTLINE
100
AcDbLine
 10
39.50000000011664
 20
21.24999999999915
 30
0.0
 11
38.5000000001188
 21
21.24999999999915
 31
0.0
  0
LINE
  5
5085
330
4FD8
100
AcDbEntity
  8
OUTLINE
100
AcDbLine
 10
38.5000000001188
 20
21.24999999999915
 30
0.0
 11
38.5000000001188
 21
23.24999999999812
 31
0.0
  0
LINE
  5
5086
330
4FD8
100
AcDbEntity
  8
OUTLINE
100
AcDbLine
 10
39.50000000012252
 20
21.24999999999915
 30
0.0
 11
40.50000000012253
 21
21.24999999999915
 31
0.0
  0
LINE
  5
5087
330
4FD8
100
AcDbEntity
  8
OUTLINE
100
AcDbLine
 10
39.50000000012252
 20
41.24999999999767
 30
0.0
 11
40.50000000012253
 21
41.24999999999767
 31
0.0
  0
LINE
  5
5088
330
4FD8
100
AcDbEntity
  8
OUTLINE
100
AcDbLine
 10
46.50000000012252
 20
41.24999999999767
 30
0.0
 11
40.50000000012253
 21
41.24999999999767
 31
0.0
  0
LINE
  5
5089
330
4FD8
100
AcDbEntity
  8
OUTLINE
100
AcDbLine
 10
40.50000000012253
 20
21.24999999999915
 30
0.0
 11
46.50000000012252
 21
21.24999999999915
 31
0.0
  0
LINE
  5
508A
330
4FD8
100
AcDbEntity
  8
OUTLINE
100
AcDbLine
 10
46.50000000012252
 20
41.24999999999767
 30
0.0
 11
48.50000000012343
 21
41.24999999999767
 31
0.0
  0
LINE
  5
508B
330
4FD8
100
AcDbEntity
  8
OUTLINE
100
AcDbLine
 10
48.50000000012343
 20
21.24999999999915
 30
0.0
 11
48.50000000012343
 21
41.24999999999767
 31
0.0
  0
LINE
  5
508C
330
4FD8
100
AcDbEntity
  8
OUTLINE
100
AcDbLine
 10
48.50000000012343
 20
21.24999999999915
 30
0.0
 11
46.50000000012252
 21
21.24999999999915
 31
0.0
  0
ARC
  5
508D
330
4FD8
100
AcDbEntity
  8
OUTLINE
100
AcDbCircle
 10
36.49999999999881
 20
770.749999999999
 30
0.0
 40
1.999999999999956
100
AcDbArc
 50
0.0
 51
90.0
  0
LINE
  5
508E
330
4FD8
100
AcDbEntity
  8
OUTLINE
100
AcDbLine
 10
36.49999999999881
 20
771.7499999999995
 30
0.0
 11
30.49999999999972
 21
771.7499999999995
 31
0.0
  0
LINE
  5
508F
330
4FD8
100
AcDbEntity
  8
OUTLINE
100
AcDbLine
 10
30.49999999999972
 20
772.7500000000002
 30
0.0
 11
36.49999999999881
 21
772.7499999999977
 31
0.0
  0
LINE
  5
5090
330
4FD8
100
AcDbEntity
  8
OUTLINE
100
AcDbLine
 10
36.49999999999881
 20
771.7499999999995
 30
0.0
 11
36.49999999999881
 21
772.7499999999977
 31
0.0
  0
LINE
  5
5091
330
4FD8
100
AcDbEntity
  8
OUTLINE
100
AcDbLine
 10
30.49999999999972
 20
771.7499999999995
 30
0.0
 11
30.49999999999972
 21
772.7500000000002
 31
0.0
  0
ARC
  5
5092
330
4FD8
100
AcDbEntity
  8
OUTLINE
100
AcDbCircle
 10
36.49999999999881
 20
770.749999999999
 30
0.0
 40
1.000000000000085
100
AcDbArc
 50
0.0
 51
89.99999999997395
  0
ARC
  5
5093
330
4FD8
100
AcDbEntity
  8
OUTLINE
100
AcDbCircle
 10
36.49999999999881
 20
23.24999999999812
 30
0.0
 40
1.999999999999999
100
AcDbArc
 50
270.0
 51
0.0
  0
LINE
  5
5094
330
4FD8
100
AcDbEntity
  8
OUTLINE
100
AcDbLine
 10
36.49999999999881
 20
22.24999999999903
 30
0.0
 11
30.49999999999972
 21
22.24999999999801
 31
0.0
  0
ARC
  5
5095
330
4FD8
100
AcDbEntity
  8
OUTLINE
100
AcDbCircle
 10
36.49999999999881
 20
23.24999999999915
 30
0.0
 40
1.000000000000085
100
AcDbArc
 50
270.000000000026
 51
0.0
  0
LINE
  5
5096
330
4FD8
100
AcDbEntity
  8
OUTLINE
100
AcDbLine
 10
36.49999999999881
 20
22.24999999999903
 30
0.0
 11
36.49999999999881
 21
21.24999999999915
 31
0.0
  0
LINE
  5
5097
330
4FD8
100
AcDbEntity
  8
OUTLINE
100
AcDbLine
 10
36.49999999999881
 20
21.24999999999915
 30
0.0
 11
30.49999999999972
 21
21.24999999999915
 31
0.0
  0
LINE
  5
5098
330
4FD8
100
AcDbEntity
  8
OUTLINE
100
AcDbLine
 10
30.49999999999972
 20
22.24999999999801
 30
0.0
 11
30.49999999999972
 21
21.24999999999915
 31
0.0
  0
LINE
  5
5099
330
4FD8
100
AcDbEntity
  8
OUTLINE
100
AcDbLine
 10
36.49999999999881
 20
770.749999999999
 30
0.0
 11
38.49999999999972
 21
770.749999999999
 31
0.0
  0
LINE
  5
509A
330
4FD8
100
AcDbEntity
  8
OUTLINE
100
AcDbLine
 10
38.49999999999972
 20
23.24999999999915
 30
0.0
 11
36.49999999999881
 21
23.24999999999915
 31
0.0
  0
LINE
  5
509B
330
4FD8
100
AcDbEntity
  8
OUTLINE
100
AcDbLine
 10
30.49999999999881
 20
22.95710678118468
 30
0.0
 11
36.49999999999881
 21
22.95710678118468
 31
0.0
  0
LINE
  5
509C
330
4FD8
100
AcDbEntity
  8
OUTLINE
100
AcDbLine
 10
36.49999999999881
 20
22.95710678118468
 30
0.0
 11
36.49999999999881
 21
23.24999999999915
 31
0.0
  0
LINE
  5
509D
330
4FD8
100
AcDbEntity
  8
OUTLINE
100
AcDbLine
 10
36.49999999999881
 20
770.749999999999
 30
0.0
 11
36.49999999999881
 21
771.0428932188122
 31
0.0
  0
LINE
  5
509E
330
4FD8
100
AcDbEntity
  8
OUTLINE
100
AcDbLine
 10
36.49999999999881
 20
771.0428932188122
 30
0.0
 11
30.49999999999881
 21
771.0428932188122
 31
0.0
  0
LINE
  5
509F
330
4FD8
100
AcDbEntity
  8
OUTLINE
100
AcDbLine
 10
38.49999999999972
 20
23.24999999999915
 30
0.0
 11
38.49999999999972
 21
770.749999999999
 31
0.0
  0
LINE
  5
50A0
330
4FD8
100
AcDbEntity
  8
OUTLINE
100
AcDbLine
 10
30.49999999999881
 20
771.0428932188122
 30
0.0
 11
30.49999999999881
 21
22.95710678118468
 31
0.0
  0
ENDBLK
  5
50A3
330
4FD8
100
AcDbEntity
  8
0
100
AcDbBlockEnd
  0
BLOCK
  5
54E5
330
54E4
100
AcDbEntity
  8
0
100
AcDbBlockBegin
  2
*D24
 70
     1
 10
0.0
 20
0.0
 30
0.0
  3
*D24
  1

  0
LINE
  5
54E7
330
54E4
100
AcDbEntity
  8
BASIS
  6
ByBlock
 62
     0
440
 16777216
370
    -2
100
AcDbLine
 10
347.4999999999974
 20
-166.499324734084
 30
0.0
 11
947.0000000000004
 21
-166.4993247340839
 31
0.0
  0
LINE
  5
54E8
330
54E4
100
AcDbEntity
  8
BASIS
  6
ByBlock
 62
     0
440
 16777216
370
    -2
100
AcDbLine
 10
313.9999999999974
 20
-290.8533934814783
 30
0.0
 11
947.0000000000005
 21
-290.8533934814782
 31
0.0
  0
LINE
  5
54E9
330
54E4
100
AcDbEntity
  8
BASIS
  6
ByBlock
 62
     0
440
 16777216
370
    -2
100
AcDbLine
 10
927.0000000000004
 20
-178.4993247340839
 30
0.0
 11
927.0000000000006
 21
-278.8533934814782
 31
0.0
  0
MTEXT
  5
54EA
330
54E4
100
AcDbEntity
  8
BASIS
 62
     0
440
 16777216
100
AcDbMText
 10
1058.0
 20
-228.6763591077813
 30
0.0
 40
64.0
 41
0.0
 46
0.0
 71
     5
 72
     1
  1
\A1;124.3541
 11
0.0000000000000001
 21
1.0
 31
0.0
 73
     1
 44
1.0
  0
INSERT
  5
54EB
330
54E4
100
AcDbEntity
  8
BASIS
 62
     0
440
 16777216
370
    -2
100
AcDbBlockReference
  2
_DOTBLANK
 10
927.0000000000004
 20
-166.4993247340839
 30
0.0
 41
12.0
 42
12.0
 43
12.0
 50
90.0
  0
INSERT
  5
54EC
330
54E4
100
AcDbEntity
  8
BASIS
 62
     0
440
 16777216
370
    -2
100
AcDbBlockReference
  2
_DOTBLANK
 10
927.0000000000006
 20
-290.8533934814782
 30
0.0
 41
12.0
 42
12.0
 43
12.0
 50
270.0
  0
POINT
  5
54ED
330
54E4
100
AcDbEntity
  8
DEFPOINTS
 62
     0
440
 16777216
100
AcDbPoint
 10
327.4999999999975
 20
-166.499324734084
 30
0.0
  0
POINT
  5
54EE
330
54E4
100
AcDbEntity
  8
DEFPOINTS
 62
     0
440
 16777216
100
AcDbPoint
 10
293.9999999999974
 20
-290.8533934814783
 30
0.0
  0
POINT
  5
54EF
330
54E4
100
AcDbEntity
  8
DEFPOINTS
 62
     0
440
 16777216
100
AcDbPoint
 10
927.0000000000006
 20
-290.8533934814782
 30
0.0
  0
ENDBLK
  5
54E6
330
54E4
100
AcDbEntity
  8
0
100
AcDbBlockEnd
  0
BLOCK
  5
54F3
330
54F2
100
AcDbEntity
  8
0
100
AcDbBlockBegin
  2
Open-1
 70
     0
 10
0.0
 20
0.0
 30
0.0
  3
Open-1
  1

  0
LINE
  5
54F4
330
54F2
100
AcDbEntity
  8
0
 62
     0
100
AcDbLine
 10
-1.0
 20
0.0
 30
0.0
 11
0.0
 21
0.0
 31
0.0
  0
LINE
  5
54F5
330
54F2
100
AcDbEntity
  8
0
 62
     0
100
AcDbLine
 10
-1.0
 20
-0.2
 30
0.0
 11
0.0
 21
0.0
 31
0.0
  0
LINE
  5
54F6
330
54F2
100
AcDbEntity
  8
0
 62
     0
100
AcDbLine
 10
0.0
 20
0.0
 30
0.0
 11
-1.0
 21
0.2
 31
0.0
  0
ENDBLK
  5
54F7
330
54F2
100
AcDbEntity
  8
0
100
AcDbBlockEnd
  0
BLOCK
  5
5509
330
5508
100
AcDbEntity
  8
0
100
AcDbBlockBegin
  2
*D27
 70
     1
 10
0.0
 20
0.0
 30
0.0
  3
*D27
  1

  0
LINE
  5
550B
330
5508
100
AcDbEntity
  8
BASIS
  6
ByBlock
 62
     0
440
 16777216
370
    -2
100
AcDbLine
 10
313.9607211176482
 20
-289.5431989993955
 30
0.0
 11
1427.0
 21
-289.5431989993953
 31
0.0
  0
LINE
  5
550C
330
5508
100
AcDbEntity
  8
BASIS
  6
ByBlock
 62
     0
440
 16777216
370
    -2
100
AcDbLine
 10
347.4999999999978
 20
-276.8533934814781
 30
0.0
 11
1427.0
 21
-276.8533934814779
 31
0.0
  0
LINE
  5
550D
330
5508
100
AcDbEntity
  8
BASIS
  6
ByBlock
 62
     0
440
 16777216
370
    -2
100
AcDbLine
 10
1407.0
 20
-301.5431989993954
 30
0.0
 11
1407.0
 21
-313.5431989993954
 31
0.0
  0
LINE
  5
550E
330
5508
100
AcDbEntity
  8
BASIS
  6
ByBlock
 62
     0
440
 16777216
370
    -2
100
AcDbLine
 10
1407.0
 20
-264.8533934814779
 30
0.0
 11
1407.0
 21
-252.8533934814779
 31
0.0
  0
MTEXT
  5
550F
330
5508
100
AcDbEntity
  8
BASIS
 62
     0
440
 16777216
100
AcDbMText
 10
1538.0
 20
-283.198296240437
 30
0.0
 40
64.0
 41
0.0
 46
0.0
 71
     5
 72
     1
  1
\A1;12.6898
 11
0.0000000000000001
 21
1.0
 31
0.0
 73
     1
 44
1.0
  0
LINE
  5
5510
330
5508
100
AcDbEntity
  8
BASIS
  6
ByBlock
 62
     0
440
 16777216
370
    -2
100
AcDbLine
 10
1407.0
 20
-289.5431989993954
 30
0.0
 11
1407.0
 21
-276.8533934814779
 31
0.0
  0
INSERT
  5
5511
330
5508
100
AcDbEntity
  8
BASIS
 62
     0
440
 16777216
370
    -2
100
AcDbBlockReference
  2
_DOTBLANK
 10
1407.0
 20
-289.5431989993954
 30
0.0
 41
12.0
 42
12.0
 43
12.0
 50
90.0
  0
INSERT
  5
5512
330
5508
100
AcDbEntity
  8
BASIS
 62
     0
440
 16777216
370
    -2
100
AcDbBlockReference
  2
_DOTBLANK
 10
1407.0
 20
-276.8533934814779
 30
0.0
 41
12.0
 42
12.0
 43
12.0
 50
270.0
  0
POINT
  5
5513
330
5508
100
AcDbEntity
  8
DEFPOINTS
 62
     0
440
 16777216
100
AcDbPoint
 10
293.9607211176482
 20
-289.5431989993955
 30
0.0
  0
POINT
  5
5514
330
5508
100
AcDbEntity
  8
DEFPOINTS
 62
     0
440
 16777216
100
AcDbPoint
 10
327.4999999999978
 20
-276.8533934814781
 30
0.0
  0
POINT
  5
5515
330
5508
100
AcDbEntity
  8
DEFPOINTS
 62
     0
440
 16777216
100
AcDbPoint
 10
1407.0
 20
-276.8533934814779
 30
0.0
  0
ENDBLK
  5
550A
330
5508
100
AcDbEntity
  8
0
100
AcDbBlockEnd
  0
BLOCK
  5
553E
330
553D
100
AcDbEntity
  8
0
100
AcDbBlockBegin
  2
*D29
 70
     1
 10
0.0
 20
0.0
 30
0.0
  3
*D29
  1

  0
LINE
  5
555B
330
553D
100
AcDbEntity
  8
SIZE
  6
ByBlock
 62
     0
440
 16777216
370
    -2
100
AcDbLine
 10
-155.0000000000009
 20
354.9999999999998
 30
0.0
 11
-682.4339677949392
 21
354.9999999999998
 31
0.0
  0
LINE
  5
555C
330
553D
100
AcDbEntity
  8
SIZE
  6
ByBlock
 62
     0
440
 16777216
370
    -2
100
AcDbLine
 10
-210.000000000001
 20
-335.0000000000001
 30
0.0
 11
-682.433967794939
 21
-335.0000000000002
 31
0.0
  0
LINE
  5
555D
330
553D
100
AcDbEntity
  8
SIZE
  6
ByBlock
 62
     0
440
 16777216
370
    -2
100
AcDbLine
 10
-662.4339677949392
 20
342.9999999999998
 30
0.0
 11
-662.4339677949389
 21
-323.0000000000002
 31
0.0
  0
INSERT
  5
555E
330
553D
100
AcDbEntity
  8
SIZE
 62
     0
440
 16777216
370
    -2
100
AcDbBlockReference
  2
_DOTBLANK
 10
-662.4339677949392
 20
354.9999999999998
 30
0.0
 41
12.0
 42
12.0
 43
12.0
 50
90.0
  0
INSERT
  5
555F
330
553D
100
AcDbEntity
  8
SIZE
 62
     0
440
 16777216
370
    -2
100
AcDbBlockReference
  2
_DOTBLANK
 10
-662.4339677949389
 20
-335.0000000000002
 30
0.0
 41
12.0
 42
12.0
 43
12.0
 50
270.0
  0
MTEXT
  5
5560
330
553D
100
AcDbEntity
  8
SIZE
 62
     0
440
 16777216
100
AcDbMText
 10
-697.433967794939
 20
-29.89207509521935
 30
0.0
 40
64.0
 41
0.0
 46
0.0
 71
     5
 72
     1
  1
\A1;{\H0.78125x;690}
 11
0.0000000000000001
 21
1.0
 31
0.0
 73
     1
 44
1.0
  0
POINT
  5
5561
330
553D
100
AcDbEntity
  8
DEFPOINTS
 62
     0
440
 16777216
100
AcDbPoint
 10
-135.0000000000009
 20
354.9999999999998
 30
0.0
  0
POINT
  5
5562
330
553D
100
AcDbEntity
  8
DEFPOINTS
 62
     0
440
 16777216
100
AcDbPoint
 10
-190.0000000000009
 20
-335.0000000000001
 30
0.0
  0
POINT
  5
5563
330
553D
100
AcDbEntity
  8
DEFPOINTS
 62
     0
440
 16777216
100
AcDbPoint
 10
-662.4339677949389
 20
-335.0000000000002
 30
0.0
  0
ENDBLK
  5
553F
330
553D
100
AcDbEntity
  8
0
100
AcDbBlockEnd
  0
BLOCK
  5
557B
330
557A
100
AcDbEntity
  8
0
100
AcDbBlockBegin
  2
*D30
 70
     1
 10
0.0
 20
0.0
 30
0.0
  3
*D30
  1

  0
LINE
  5
5773
330
557A
100
AcDbEntity
  8
SIZE
  6
ByBlock
 62
     0
440
 16777216
370
    -2
100
AcDbLine
 10
-218.4999999999995
 20
-349.8999999999999
 30
0.0
 11
-218.4999999999996
 21
-650.0774725930824
 31
0.0
  0
LINE
  5
5774
330
557A
100
AcDbEntity
  8
SIZE
  6
ByBlock
 62
     0
440
 16777216
370
    -2
100
AcDbLine
 10
-189.9999999998818
 20
-376.0000000000002
 30
0.0
 11
-189.9999999998818
 21
-650.0774725930824
 31
0.0
  0
LINE
  5
5775
330
557A
100
AcDbEntity
  8
SIZE
  6
ByBlock
 62
     0
440
 16777216
370
    -2
100
AcDbLine
 10
-177.9999999998818
 20
-630.0774725930824
 30
0.0
 11
-165.9999999998818
 21
-630.0774725930824
 31
0.0
  0
LINE
  5
5776
330
557A
100
AcDbEntity
  8
SIZE
  6
ByBlock
 62
     0
440
 16777216
370
    -2
100
AcDbLine
 10
-230.4999999999996
 20
-630.0774725930824
 30
0.0
 11
-436.6758112786489
 21
-630.0774725930824
 31
0.0
  0
LINE
  5
5777
330
557A
100
AcDbEntity
  8
SIZE
  6
ByBlock
 62
     0
440
 16777216
370
    -2
100
AcDbLine
 10
-189.9999999998818
 20
-630.0774725930824
 30
0.0
 11
-218.4999999999996
 21
-630.0774725930824
 31
0.0
  0
INSERT
  5
5778
330
557A
100
AcDbEntity
  8
SIZE
 62
     0
440
 16777216
370
    -2
100
AcDbBlockReference
  2
_DOTBLANK
 10
-189.9999999998818
 20
-630.0774725930824
 30
0.0
 41
12.0
 42
12.0
 43
12.0
 50
180.0
  0
INSERT
  5
5779
330
557A
100
AcDbEntity
  8
SIZE
 62
     0
440
 16777216
370
    -2
100
AcDbBlockReference
  2
_DOTBLANK
 10
-218.4999999999996
 20
-630.0774725930824
 30
0.0
 41
12.0
 42
12.0
 43
12.0
  0
MTEXT
  5
577A
330
557A
100
AcDbEntity
  8
SIZE
 62
     0
440
 16777216
100
AcDbMText
 10
-358.1043827072204
 20
-595.0774725930824
 30
0.0
 40
64.0
 41
0.0
 46
0.0
 71
     5
 72
     1
  1
\A1;{\H0.78125x;28.5}
 73
     1
 44
1.0
  0
POINT
  5
577B
330
557A
100
AcDbEntity
  8
DEFPOINTS
 62
     0
440
 16777216
100
AcDbPoint
 10
-218.4999999999995
 20
-329.8999999999999
 30
0.0
  0
POINT
  5
577C
330
557A
100
AcDbEntity
  8
DEFPOINTS
 62
     0
440
 16777216
100
AcDbPoint
 10
-189.9999999998818
 20
-356.0000000000002
 30
0.0
  0
POINT
  5
577D
330
557A
100
AcDbEntity
  8
DEFPOINTS
 62
     0
440
 16777216
100
AcDbPoint
 10
-189.9999999998818
 20
-630.0774725930824
 30
0.0
  0
ENDBLK
  5
557C
330
557A
100
AcDbEntity
  8
0
100
AcDbBlockEnd
  0
BLOCK
  5
55B6
330
55B5
100
AcDbEntity
  8
0
100
AcDbBlockBegin
  2
*D31
 70
     1
 10
0.0
 20
0.0
 30
0.0
  3
*D31
  1

  0
LINE
  5
576A
330
55B5
100
AcDbEntity
  8
SIZE
  6
ByBlock
 62
     0
440
 16777216
370
    -2
100
AcDbLine
 10
-189.9999999998818
 20
-376.0000000000002
 30
0.0
 11
-189.9999999998818
 21
-650.8374725930824
 31
0.0
  0
LINE
  5
576B
330
55B5
100
AcDbEntity
  8
SIZE
  6
ByBlock
 62
     0
440
 16777216
370
    -2
100
AcDbLine
 10
294.0
 20
-309.5411404803987
 30
0.0
 11
294.0
 21
-650.8374725930824
 31
0.0
  0
LINE
  5
576C
330
55B5
100
AcDbEntity
  8
SIZE
  6
ByBlock
 62
     0
440
 16777216
370
    -2
100
AcDbLine
 10
-177.9999999998818
 20
-630.8374725930824
 30
0.0
 11
282.0
 21
-630.8374725930824
 31
0.0
  0
INSERT
  5
576D
330
55B5
100
AcDbEntity
  8
SIZE
 62
     0
440
 16777216
370
    -2
100
AcDbBlockReference
  2
_DOTBLANK
 10
-189.9999999998818
 20
-630.8374725930824
 30
0.0
 41
12.0
 42
12.0
 43
12.0
 50
180.0
  0
INSERT
  5
576E
330
55B5
100
AcDbEntity
  8
SIZE
 62
     0
440
 16777216
370
    -2
100
AcDbBlockReference
  2
_DOTBLANK
 10
294.0
 20
-630.8374725930824
 30
0.0
 41
12.0
 42
12.0
 43
12.0
  0
MTEXT
  5
576F
330
55B5
100
AcDbEntity
  8
SIZE
 62
     0
440
 16777216
100
AcDbMText
 10
52.00000000005907
 20
-595.8374725930824
 30
0.0
 40
64.0
 41
0.0
 46
0.0
 71
     5
 72
     1
  1
\A1;{\H0.78125x;484}
 73
     1
 44
1.0
  0
POINT
  5
5770
330
55B5
100
AcDbEntity
  8
DEFPOINTS
 62
     0
440
 16777216
100
AcDbPoint
 10
-189.9999999998818
 20
-356.0000000000002
 30
0.0
  0
POINT
  5
5771
330
55B5
100
AcDbEntity
  8
DEFPOINTS
 62
     0
440
 16777216
100
AcDbPoint
 10
294.0
 20
-289.5411404803986
 30
0.0
  0
POINT
  5
5772
330
55B5
100
AcDbEntity
  8
DEFPOINTS
 62
     0
440
 16777216
100
AcDbPoint
 10
294.0
 20
-630.8374725930824
 30
0.0
  0
ENDBLK
  5
55B7
330
55B5
100
AcDbEntity
  8
0
100
AcDbBlockEnd
  0
BLOCK
  5
55C3
330
55C2
100
AcDbEntity
  8
0
100
AcDbBlockBegin
  2
*D32
 70
     1
 10
0.0
 20
0.0
 30
0.0
  3
*D32
  1

  0
LINE
  5
575F
330
55C2
100
AcDbEntity
  8
SIZE
  6
ByBlock
 62
     0
440
 16777216
370
    -2
100
AcDbLine
 10
294.0
 20
-309.5411404803987
 30
0.0
 11
294.0
 21
-650.4574725930824
 31
0.0
  0
LINE
  5
5760
330
55C2
100
AcDbEntity
  8
SIZE
  6
ByBlock
 62
     0
440
 16777216
370
    -2
100
AcDbLine
 10
322.4999999999973
 20
-192.499324734084
 30
0.0
 11
322.4999999999973
 21
-650.4574725930824
 31
0.0
  0
LINE
  5
5761
330
55C2
100
AcDbEntity
  8
SIZE
  6
ByBlock
 62
     0
440
 16777216
370
    -2
100
AcDbLine
 10
282.0
 20
-630.4574725930824
 30
0.0
 11
270.0
 21
-630.4574725930824
 31
0.0
  0
LINE
  5
5762
330
55C2
100
AcDbEntity
  8
SIZE
  6
ByBlock
 62
     0
440
 16777216
370
    -2
100
AcDbLine
 10
334.4999999999973
 20
-630.4574725930824
 30
0.0
 11
547.363954251548
 21
-630.4574725930824
 31
0.0
  0
LINE
  5
5763
330
55C2
100
AcDbEntity
  8
SIZE
  6
ByBlock
 62
     0
440
 16777216
370
    -2
100
AcDbLine
 10
294.0
 20
-630.4574725930824
 30
0.0
 11
322.4999999999973
 21
-630.4574725930824
 31
0.0
  0
INSERT
  5
5764
330
55C2
100
AcDbEntity
  8
SIZE
 62
     0
440
 16777216
370
    -2
100
AcDbBlockReference
  2
_DOTBLANK
 10
294.0
 20
-630.4574725930824
 30
0.0
 41
12.0
 42
12.0
 43
12.0
  0
INSERT
  5
5765
330
55C2
100
AcDbEntity
  8
SIZE
 62
     0
440
 16777216
370
    -2
100
AcDbBlockReference
  2
_DOTBLANK
 10
322.4999999999973
 20
-630.4574725930824
 30
0.0
 41
12.0
 42
12.0
 43
12.0
 50
180.0
  0
MTEXT
  5
5766
330
55C2
100
AcDbEntity
  8
SIZE
 62
     0
440
 16777216
100
AcDbMText
 10
468.7925256801193
 20
-595.4574725930824
 30
0.0
 40
64.0
 41
0.0
 46
0.0
 71
     5
 72
     1
  1
\A1;{\H0.78125x;28.5}
 73
     1
 44
1.0
  0
POINT
  5
5767
330
55C2
100
AcDbEntity
  8
DEFPOINTS
 62
     0
440
 16777216
100
AcDbPoint
 10
294.0
 20
-289.5411404803986
 30
0.0
  0
POINT
  5
5768
330
55C2
100
AcDbEntity
  8
DEFPOINTS
 62
     0
440
 16777216
100
AcDbPoint
 10
322.4999999999973
 20
-172.499324734084
 30
0.0
  0
POINT
  5
5769
330
55C2
100
AcDbEntity
  8
DEFPOINTS
 62
     0
440
 16777216
100
AcDbPoint
 10
322.4999999999973
 20
-630.4574725930824
 30
0.0
  0
ENDBLK
  5
55C4
330
55C2
100
AcDbEntity
  8
0
100
AcDbBlockEnd
  0
ENDSEC
  0
SECTION
  2
ENTITIES
  0
TEXT
  5
953
330
2AAE
100
AcDbEntity
  8
OUTLINE
  6
Continuous
 62
     3
100
AcDbText
 10
-418.231467
 20
13.715189
 30
0.0
 40
64.0
  1
 
 41
0.9
100
AcDbText
  0
TEXT
  5
954
330
2AAE
100
AcDbEntity
  8
OUTLINE
  6
Continuous
 62
     3
100
AcDbText
 10
-418.231467
 20
13.715189
 30
0.0
 40
64.0
  1
 
 41
0.9
100
AcDbText
  0
TEXT
  5
955
330
2AAE
100
AcDbEntity
  8
OUTLINE
  6
Continuous
 62
     3
100
AcDbText
 10
1341.41903
 20
-706.0588199999997
 30
0.0
 40
64.0
  1
 
 41
0.9
100
AcDbText
  0
TEXT
  5
956
330
2AAE
100
AcDbEntity
  8
OUTLINE
  6
Continuous
 62
     3
100
AcDbText
 10
1341.41903
 20
-706.0588199999997
 30
0.0
 40
64.0
  1
 
 41
0.9
100
AcDbText
  0
TEXT
  5
957
330
2AAE
100
AcDbEntity
  8
OUTLINE
  6
Continuous
 62
     3
100
AcDbText
 10
1341.41903
 20
-706.0588199999997
 30
0.0
 40
64.0
  1
 
 41
0.9
100
AcDbText
  0
TEXT
  5
958
330
2AAE
100
AcDbEntity
  8
OUTLINE
  6
Continuous
 62
     3
100
AcDbText
 10
1341.41903
 20
-706.0588199999997
 30
0.0
 40
64.0
  1
 
 41
0.9
100
AcDbText
  0
DIMENSION
  5
35BA
330
2AAE
100
AcDbEntity
  8
SIZE
100
AcDbDimension
280
     0
  2
*D6
 10
625.0000000000002
 20
-166.499324734084
 30
0.0
 11
590.0000000000002
 21
158.5003376329571
 31
0.0
 70
    32
  1
{\H0.78125x;<>}
 71
     5
 42
649.9993247340825
 73
     0
 74
     0
 75
     0
  3
STANDARD$0
100
AcDbAlignedDimension
 13
327.4999999999968
 23
483.4999999999983
 33
0.0
 14
327.4999999999973
 24
-166.499324734084
 34
0.0
 50
90.0
100
AcDbRotatedDimension
1001
ACAD
1000
DSTYLE
1002
{
1070
    90
1070
     1
1070
   271
1070
     2
1070
   345
1005
2A9C
1070
   346
1005
2A9C
1070
   347
1005
2A9C
1002
}
  0
DIMENSION
  5
3631
330
2AAE
100
AcDbEntity
  8
SIZE
100
AcDbDimension
280
     0
  2
*D7
 10
-525.0000000000008
 20
350.0
 30
0.0
 11
-560.0000000000006
 21
19.25000000000004
 31
0.0
 70
    32
  1
{\H0.78125x;<>}
 71
     5
 42
661.5000000000001
 73
     0
 74
     0
 75
     0
  3
STANDARD$0
100
AcDbAlignedDimension
 13
-190.0000000000046
 23
-311.5000000000001
 33
0.0
 14
-190.0000000000045
 24
350.0
 34
0.0
 50
90.0
100
AcDbRotatedDimension
1001
ACAD
1000
DSTYLE
1002
{
1070
    90
1070
     1
1070
   279
1070
     0
1070
   345
1005
2A9C
1070
   346
1005
2A9C
1070
   347
1005
2A9C
1002
}
  0
DIMENSION
  5
3662
330
2AAE
100
AcDbEntity
  8
SIZE
100
AcDbDimension
280
     0
  2
*D8
 10
0.0000000000095625
 20
625.0
 30
0.0
 11
59.84992045456827
 21
625.0
 31
0.0
 70
   160
  1
{\H0.78125x;<>}
 71
     5
 42
70.00000000000955
 73
     0
 74
     0
 75
     0
  3
STANDARD$0
100
AcDbAlignedDimension
 13
-70.0
 23
376.7499999999995
 33
0.0
 14
0.0000000000095497
 24
415.7499999999997
 34
0.0
100
AcDbRotatedDimension
1001
ACAD
1000
DSTYLE
1002
{
1070
    90
1070
     1
1070
   279
1070
     0
1070
   345
1005
2A9C
1070
   346
1005
2A9C
1070
   347
1005
2A9C
1002
}
  0
DIMENSION
  5
367B
330
2AAE
100
AcDbEntity
  8
SIZE
100
AcDbDimension
280
     0
  2
*D9
 10
0.0000000000095778
 20
874.8215520546878
 30
0.0
 11
-94.99999999999564
 21
909.8215520546878
 31
0.0
 70
    32
  1
{\H0.78125x;<>}
 71
     5
 42
190.0000000000104
 73
     0
 74
     0
 75
     0
  3
STANDARD$0
100
AcDbAlignedDimension
 13
-190.0000000000009
 23
393.0000000000002
 33
0.0
 14
0.0000000000095497
 24
415.7499999999997
 34
0.0
100
AcDbRotatedDimension
1001
ACAD
1000
DSTYLE
1002
{
1070
    90
1070
     1
1070
   279
1070
     0
1070
   345
1005
2A9C
1070
   346
1005
2A9C
1070
   347
1005
2A9C
1002
}
  0
DIMENSION
  5
3688
330
2AAE
100
AcDbEntity
  8
SIZE
100
AcDbDimension
280
     0
  2
*D10
 10
293.9999999999945
 20
874.7996204344541
 30
0.0
 11
147.000000000002
 21
909.7996204344543
 31
0.0
 70
    32
  1
{\H0.78125x;<>}
 71
     5
 42
293.9999999999849
 73
     0
 74
     0
 75
     0
  3
STANDARD$0
100
AcDbAlignedDimension
 13
0.0000000000095497
 23
415.7499999999997
 33
0.0
 14
293.9999999999945
 24
513.5000000000006
 34
0.0
100
AcDbRotatedDimension
1001
ACAD
1000
DSTYLE
1002
{
1070
    90
1070
     1
1070
   279
1070
     0
1070
   345
1005
2A9C
1070
   346
1005
2A9C
1070
   347
1005
2A9C
1002
}
  0
TEXT
  5
36A7
330
2AAE
100
AcDbEntity
  8
ETC
100
AcDbText
 10
770.5856735205234
 20
1021.161225279437
 30
0.0
 40
64.0
  1
システム部材
 41
0.9
100
AcDbText
  0
TEXT
  5
36A8
330
2AAE
100
AcDbEntity
  8
ETC
100
AcDbText
 10
776.7936715205212
 20
1122.044551279437
 30
0.0
 40
64.0
  1
SPW-60S-075-4
 41
0.9
100
AcDbText
  0
TEXT
  5
36A9
330
2AAE
100
AcDbEntity
  8
ETC
100
AcDbText
 10
776.7936715205212
 20
922.0445512794372
 30
0.0
 40
64.0
  1
SPW-60S-075
 41
0.9
100
AcDbText
  0
DIMENSION
  5
394A
330
2AAE
100
AcDbEntity
  8
SIZE
100
AcDbDimension
280
     0
  2
*D11
 10
500.0000000000001
 20
-358.25
 30
0.0
 11
500.0
 21
-433.8214285714285
 31
0.0
 70
   160
  1
{\H0.78125x;<>}
 71
     5
 42
139.9999999999995
 73
     0
 74
     0
 75
     0
  3
STANDARD$0
100
AcDbAlignedDimension
 13
4.000000000005456
 23
-218.2500000000005
 33
0.0
 14
4.000000000006366
 24
-358.25
 34
0.0
 50
90.0
100
AcDbRotatedDimension
1001
ACAD
1000
DSTYLE
1002
{
1070
    90
1070
     1
1070
   279
1070
     0
1070
   345
1005
2A9C
1070
   346
1005
2A9C
1070
   347
1005
2A9C
1002
}
  0
DIMENSION
  5
3A03
330
2AAE
100
AcDbEntity
  8
SIZE
100
AcDbDimension
280
     0
  2
*D12
 10
500.0
 20
-78.25
 30
0.0
 11
500.0
 21
-140.0
 31
0.0
 70
   160
  1
{\H0.78125x;<>}
 71
     5
 42
139.9999999999998
 73
     0
 74
     0
 75
     0
  3
STANDARD$0
100
AcDbAlignedDimension
 13
7.811439083322511
 23
-218.2499999999998
 33
0.0
 14
7.899728475746543
 24
-78.25000000000007
 34
-0.0000000000000071
 50
90.0
100
AcDbRotatedDimension
1001
ACAD
1000
DSTYLE
1002
{
1070
    90
1070
     1
1070
   279
1070
     0
1070
   345
1005
2A9C
1070
   346
1005
2A9C
1070
   347
1005
2A9C
1002
}
  0
DIMENSION
  5
3A10
330
2AAE
100
AcDbEntity
  8
SIZE
100
AcDbDimension
280
     0
  2
*D13
 10
500.0000000000001
 20
116.7499999999997
 30
0.0
 11
465.0000000000002
 21
19.24999999999972
 31
0.0
 70
    32
  1
{\H0.78125x;<>}
 71
     5
 42
194.9999999999997
 73
     0
 74
     0
 75
     0
  3
STANDARD$0
100
AcDbAlignedDimension
 13
7.899728475746543
 23
-78.25000000000007
 33
-0.0000000000000071
 14
18.15357331142923
 24
116.7499999999996
 34
0.0
 50
90.0
100
AcDbRotatedDimension
1001
ACAD
1000
DSTYLE
1002
{
1070
    90
1070
     1
1070
   279
1070
     0
1070
   345
1005
2A9C
1070
   346
1005
2A9C
1070
   347
1005
2A9C
1002
}
  0
DIMENSION
  5
3A1D
330
2AAE
100
AcDbEntity
  8
SIZE
100
AcDbDimension
280
     0
  2
*D14
 10
500.0
 20
116.7500000000003
 30
0.0
 11
499.9999999999998
 21
185.1985967710825
 31
0.0
 70
   160
  1
{\H0.78125x;<>}
 71
     5
 42
139.9999999999995
 73
     0
 74
     0
 75
     0
  3
STANDARD$0
100
AcDbAlignedDimension
 13
8.005833406284182
 23
256.7499999999997
 33
0.0
 14
8.022702986622789
 24
116.7500000000001
 34
-0.0000000000000036
 50
90.0
100
AcDbRotatedDimension
1001
ACAD
1000
DSTYLE
1002
{
1070
    90
1070
     1
1070
   271
1070
     0
1070
   279
1070
     0
1070
   345
1005
2A9C
1070
   346
1005
2A9C
1070
   347
1005
2A9C
1002
}
  0
DIMENSION
  5
3A2A
330
2AAE
100
AcDbEntity
  8
SIZE
100
AcDbDimension
280
     0
  2
*D15
 10
500.0
 20
396.7500000000002
 30
0.0
 11
500.0
 21
337.2499999999996
 31
0.0
 70
   160
  1
{\H0.78125x;<>}
 71
     5
 42
140.0000000000003
 73
     0
 74
     0
 75
     0
  3
STANDARD$0
100
AcDbAlignedDimension
 13
8.005833406284182
 23
256.7499999999997
 33
0.0
 14
7.988963825945575
 24
396.7499999999999
 34
-0.000000000000019
 50
90.0
100
AcDbRotatedDimension
1001
ACAD
1000
DSTYLE
1002
{
1070
    90
1070
     1
1070
   279
1070
     0
1070
   345
1005
2A9C
1070
   346
1005
2A9C
1070
   347
1005
2A9C
1002
}
  0
DIMENSION
  5
3D8D
330
2AAE
100
AcDbEntity
  8
SIZE
100
AcDbDimension
280
     0
  2
*D16
 10
-400.0000000000004
 20
325.0
 30
0.0
 11
-435.0000000000002
 21
0.0000000000000856
 31
0.0
 70
    32
  1
{\H0.78125x;<>}
 71
     5
 42
650.0
 73
     0
 74
     0
 75
     0
  3
STANDARD$0
100
AcDbAlignedDimension
 13
-223.3853124043562
 23
-325.0
 33
0.0
 14
-223.5000000000006
 24
325.0
 34
0.0
 50
90.0
100
AcDbRotatedDimension
1001
ACAD
1000
DSTYLE
1002
{
1070
    90
1070
     1
1070
   279
1070
     0
1070
   345
1005
2A9C
1070
   346
1005
2A9C
1070
   347
1005
2A9C
1002
}
  0
MULTILEADER
  5
3E92
330
2AAE
100
AcDbEntity
  8
SIZE
 62
     4
160
              1148
310
7C040000250000000C00000016000000040000C30C00000033000000000000000C00000013000000993A00000C00000016000000040000C3E400000026000000E93676FC2F448DC04FBD4053EDA27FC0000000000000000000000000000000000000000000000000000000000000F03F000000000000F03F00000000000000
310
0000000000000000003400D7004D0031003000DC30EB30C8300000000008000000010000000000000000004E40CDCCCCCCCCCCEC3F0000000000000000000000000000F03F00000000000000000000000000000000000000000000000000000000010000000000000000000000730069006D0070006C00650078002E007300
310
68007800000042004900470046004F004E0054002E0073006800780000000C00000033000000000000000C00000010000000020000000C00000016000000040000C30C00000012000000FF7F00000C0000001300000001000000880000001D00000070F5F8DAB9A13840835DC44B162031C00000000000000000FE01000000
310
506BC0835DC44B1620314070F5F8DAB9A13840000000000000000000000000005074C0000000000000000000000000000000000000000000003E400000000000000000000000000000000000000000000000000000000000000000000000000000F03F0C00000016000000040000C30C00000017000000FDFFFFFF54000000
310
2000000002000000000000000000F0BF535555555555C53F000000000000000000000000000000000000000000000000000000000000000000000000000000000000000000000000000000000000F03F0C00000016000000040000C30C00000017000000FDFFFFFF540000002000000002000000000000000000F0BF535555
310
555555C5BF000000000000000000000000000000000000000000000000000000000000000000000000000000000000000000000000000000000000F03F0C00000016000000040000C30C00000017000000FDFFFFFF540000002000000002000000000000000000000000000000000000000000000000000000000000000000
310
F0BF0000000000000000000000000000000000000000000000000000000000000000000000000000F03F080000001F0000000C00000016000000040000C30C00000012000000FF7F00000C00000033000000000000000C00000013000000891300003C0000000600000002000000AC205F3B37646EC0D845BC64016275C000
310
00000000000000E7CCDD0EBF057FC0A85EA0A9763180C000000000000000000C00000013000000112700003C0000000600000002000000E7CCDD0EBF057FC0A85EA0A9763180C00000000000000000DDF5399E810B7FC0A85EA0A9763180C000000000000000000C00000016000000040000C30C00000012000000FF7F0000
310
0C00000017000000000000000C000000130000009A3A00003C0000000600000002000000E93676FC2F448DC0A85EA0A9763180C00000000000000000DFF5399E810B7FC0A85EA0A9763180C000000000000000000C00000016000000040000C30C00000012000000FF7F00000C00000017000000FFFFFFFF0C000000330000
310
0000000000
100
AcDbMLeader
270
     2
300
CONTEXT_DATA{
 40
1.0
 10
-936.6134307513721
 20
-476.1829407242666
 30
0.0
 41
60.0
140
30.0
145
0.09
174
     1
175
     6
176
     2
177
     0
290
     1
304
4×M10ボルト
 11
0.0
 21
0.0
 31
1.0
340
2A97
 12
-496.8091450370864
 22
-446.1829407242666
 32
0.0
 13
1.0
 23
0.0
 33
0.0
 42
0.0
 43
1.0
 44
0.0
 45
1.0
170
     1
 90
-1023410172
171
     3
172
     1
 91
-1073741824
141
0.0
 92
        0
291
     0
292
     0
173
     0
293
     0
142
0.0
143
0.0
294
     0
295
     0
296
     0
110
-378.2266987851458
120
-577.8909058937447
130
0.0
111
1.0
121
0.0
131
0.0
112
0.0
122
1.0
132
0.0
297
     0
302
LEADER{
290
     1
291
     1
 10
-496.3591450370863
 20
-518.1829407242666
 30
0.0
 11
-1.0
 21
0.0
 31
0.0
 90
        0
 40
0.36
304
LEADER_LINE{
 10
-218.5000000000145
 20
-325.0
 30
0.0
 91
        0
305
}
271
     0
303
}
272
     9
273
     9
301
}
340
2AA8
 90
   345856
170
     1
 91
-1056964608
341
2A9C
171
    -2
290
     1
291
     1
 41
0.36
342
3E85
 42
30.0
172
     2
343
2A97
173
     1
 95
        6
174
     1
175
     2
 92
-1056964608
292
     0
 93
-1056964608
 10
1.0
 20
1.0
 30
1.0
 43
0.0
176
     0
293
     0
294
     0
178
     0
179
     3
 45
1.0
271
     0
272
     9
273
     9
1001
ACAD_MLEADERVER
1070
     2
  0
MULTILEADER
  5
3E93
330
2AAE
100
AcDbEntity
  8
SIZE
 62
     4
160
              1148
310
7C040000250000000C00000016000000040000C30C00000033000000000000000C00000013000000993A00000C00000016000000040000C3E400000026000000E1F4AB3352AD7C4040609C70DD9C8440000000000000000000000000000000000000000000000000000000000000F03F000000000000F03F00000000000000
310
0000000000000000003400D7004D0031003200DC30EB30C8300000000008000000010000000000000000004E40CDCCCCCCCCCCEC3F0000000000000000000000000000F03F00000000000000000000000000000000000000000000000000000000010000000000000000000000730069006D0070006C00650078002E007300
310
68007800000042004900470046004F004E0054002E0073006800780000000C00000033000000000000000C00000010000000020000000C00000016000000040000C30C00000012000000FF7F00000C0000001300000001000000880000001D0000006E87C2B3FE2133C0B020A650681B37400000000000000000F0FEFFFFFF
310
277440B020A650681B37C06E87C2B3FE2133C00000000000000000E2FFFFFFFF377E40000000000000000000000000000000000000000000003E400000000000000000000000000000000000000000000000000000000000000000000000000000F03F0C00000016000000040000C30C00000017000000FDFFFFFF54000000
310
2000000002000000000000000000F0BF535555555555C53F000000000000000000000000000000000000000000000000000000000000000000000000000000000000000000000000000000000000F03F0C00000016000000040000C30C00000017000000FDFFFFFF540000002000000002000000000000000000F0BF535555
310
555555C5BF000000000000000000000000000000000000000000000000000000000000000000000000000000000000000000000000000000000000F03F0C00000016000000040000C30C00000017000000FDFFFFFF540000002000000002000000000000000000000000000000000000000000000000000000000000000000
310
F0BF0000000000000000000000000000000000000000000000000000000000000000000000000000F03F080000001F0000000C00000016000000040000C30C00000012000000FF7F00000C00000033000000000000000C00000013000000891300003C000000060000000200000067273CEB1F5A7540ED610A85B6A97F4000
310
00000000000000B4C178001FA67C4040609C70DD3C844000000000000000000C00000013000000122700003C0000000600000002000000B4C178001FA67C4040609C70DD3C84400000000000000000AAEAD48FE1AB7C4040609C70DD3C844000000000000000000C00000016000000040000C30C00000012000000FF7F0000
310
0C00000017000000000000000C000000130000009A3A00003C0000000600000002000000A8EAD48FE1AB7C4040609C70DD3C844000000000000000004EB143F55F148C4040609C70DD3C844000000000000000000C00000016000000040000C30C00000012000000FF7F00000C00000017000000FFFFFFFF0C000000330000
310
0000000000
100
AcDbMLeader
270
     2
300
CONTEXT_DATA{
 40
1.0
 10
458.7425688092285
 20
647.6081249443886
 30
0.0
 41
60.0
140
30.0
145
0.09
174
     5
175
     6
176
     0
177
     0
290
     1
304
4×M12ボルト
 11
0.0
 21
0.0
 31
1.0
340
2A97
 12
458.8325688092282
 22
719.6081249443887
 32
0.0
 13
1.0
 23
0.0
 33
0.0
 42
0.0
 43
1.0
 44
0.0
 45
1.0
170
     1
 90
-1023410172
171
     1
172
     1
 91
-1073741824
141
0.0
 92
        0
291
     0
292
     0
173
     0
293
     0
142
0.0
143
0.0
294
     0
295
     0
296
     0
110
1057.470690604829
120
497.7134161189875
130
0.0
111
1.0
121
0.0
131
0.0
112
0.0
122
1.0
132
0.0
297
     0
302
LEADER{
290
     1
291
     1
 10
458.3825688092286
 20
647.6081249443886
 30
0.0
 11
1.0
 21
0.0
 31
0.0
 90
        1
 40
0.36
304
LEADER_LINE{
 10
322.4999999999845
 20
483.4999999999983
 30
0.0
 91
        0
305
}
271
     0
303
}
272
     9
273
     9
301
}
340
2AA8
 90
   349952
170
     1
 91
-1056964608
341
2A9C
171
    -2
290
     1
291
     1
 41
0.36
342
3E85
 42
30.0
172
     2
343
2A97
173
     5
 95
        6
174
     1
175
     2
 92
-1056964608
292
     0
 93
-1056964608
 10
1.0
 20
1.0
 30
1.0
 43
0.0
176
     0
293
     0
294
     0
178
     0
179
     3
 45
1.0
271
     0
272
     9
273
     9
1001
ACAD_MLEADERVER
1070
     2
  0
CIRCLE
  5
3EF1
330
2AAE
100
AcDbEntity
  8
ARRANGE
100
AcDbCircle
 10
0.0915211788815214
 20
-0.2775364025392264
 30
0.0
 40
40.0
  0
LINE
  5
3EF2
330
2AAE
100
AcDbEntity
  8
ARRANGE
 62
     1
100
AcDbLine
 39
549.3939692574713
 10
-21.0770479621342
 20
-21.07704796213432
 30
0.0
 11
21.07704796213647
 21
21.07704796213841
 31
0.0
  0
LINE
  5
3EF3
330
2AAE
100
AcDbEntity
  8
ARRANGE
 62
     1
100
AcDbLine
 39
549.3939692574713
 10
-21.07704796213647
 20
21.07704796213687
 30
0.0
 11
21.07704796213647
 21
-21.07704796213653
 31
0.0
  0
MULTILEADER
  5
40B8
330
2AAE
100
AcDbEntity
  8
SIZE
 62
     4
160
              1148
310
7C040000250000000C00000016000000040000C30C00000033000000000000000C00000013000000993A00000C00000016000000040000C3E400000026000000E2205DAB7E9887C0610599A098F18040000000000000000000000000000000000000000000000000000000000000F03F000000000000F03F00000000000000
310
00000000000000000031003200D700C60331003000D653D84E747A000009000000010000000000000000004E40CDCCCCCCCCCCEC3F0000000000000000000000000000F03F00000000000000000000000000000000000000000000000000000000010000000000000000004600730069006D0070006C00650078002E007300
310
68007800000042004900470046004F004E0054002E0073006800780000000C00000033000000000000000C00000010000000020000000C00000016000000040000C30C00000012000000FF7F00000C0000001300000001000000880000001D000000BC42A84BC4AF3A40627038B5F0682B400000000000000000A6EBC2CF00
310
00A53D627038B5F0682BC0BC42A84BC4AF3A4000000000000000002AC56014E4CB7840000000000000000000000000000000000000000000003E400000000000000000000000000000000000000000000000000000000000000000000000000000F03F0C00000016000000040000C30C00000017000000FDFFFFFF54000000
310
2000000002000000000000000000F0BF535555555555C53F000000000000000000000000000000000000000000000000000000000000000000000000000000000000000000000000000000000000F03F0C00000016000000040000C30C00000017000000FDFFFFFF540000002000000002000000000000000000F0BF535555
310
555555C5BF000000000000000000000000000000000000000000000000000000000000000000000000000000000000000000000000000000000000F03F0C00000016000000040000C30C00000017000000FDFFFFFF540000002000000002000000000000000000000000000000000000000000000000000000000000000000
310
F0BF0000000000000000000000000000000000000000000000000000000000000000000000000000F03F080000001F0000000C00000016000000040000C30C00000012000000FF7F00000C00000033000000000000000C00000013000000891300003C00000006000000020000003D38A84BC4AF3AC0AD880A9A2BA7794000
310
00000000000000D82B5B65E73D70C0610599A09891804000000000000000000C00000013000000112700003C0000000600000002000000D82B5B65E73D70C0610599A0989180400000000000000000CE54B7F4A94370C0610599A09891804000000000000000000C00000016000000040000C30C00000012000000FF7F0000
310
0C00000017000000000000000C000000130000009A3A00003C0000000600000002000000E2205DAB7E9887C0610599A0989180400000000000000000CC54B7F4A94370C0610599A09891804000000000000000000C00000016000000040000C30C00000012000000FF7F00000C00000017000000FFFFFFFF0C000000330000
310
0000000000
100
AcDbMLeader
270
     2
300
CONTEXT_DATA{
 40
1.0
 10
-755.1518502879773
 20
530.1995250658766
 30
0.0
 41
60.0
140
30.0
145
0.09
174
     5
175
     6
176
     2
177
     0
290
     1
304
12×φ10取付穴
 11
0.0
 21
0.0
 31
1.0
340
2A97
 12
-260.3189931451203
 22
602.1995250658766
 32
0.0
 13
1.0
 23
0.0
 33
0.0
 42
0.0
 43
1.0
 44
0.0
 45
1.0
170
     1
 90
-1023410172
171
     3
172
     1
 91
-1073741824
141
0.0
 92
        0
291
     0
292
     0
173
     0
293
     0
142
0.0
143
0.0
294
     0
295
     0
296
     0
110
-497.2410792643277
120
713.1669683533767
130
0.0
111
1.0
121
0.0
131
0.0
112
0.0
122
1.0
132
0.0
297
     0
302
LEADER{
290
     1
291
     1
 10
-259.8689931451204
 20
530.1995250658766
 30
0.0
 11
-1.0
 21
0.0
 31
0.0
 90
        0
 40
0.36
304
LEADER_LINE{
 10
0.0000000000095497
 20
396.7431834964833
 30
0.0
 91
        0
305
}
271
     0
303
}
272
     9
273
     9
301
}
340
2AA8
 90
   349952
170
     1
 91
-1056964608
341
2A9C
171
    -2
290
     1
291
     1
 41
0.36
342
3E85
 42
30.0
172
     2
343
2A97
173
     5
 95
        6
174
     1
175
     2
 92
-1056964608
292
     0
 93
-1056964608
 10
1.0
 20
1.0
 30
1.0
 43
0.0
176
     0
293
     0
294
     0
178
     0
179
     3
 45
1.0
271
     0
272
     9
273
     9
1001
ACAD_MLEADERVER
1070
     2
  0
LINE
  5
478E
330
2AAE
100
AcDbEntity
  8
OUTLINE
100
AcDbLine
 10
-190.0000000000011
 20
350.0
 30
0.0
 11
-135.0000000000018
 21
350.0000000000002
 31
0.0
  0
LINE
  5
478F
330
2AAE
100
AcDbEntity
  8
OUTLINE
100
AcDbLine
 10
-125.0000000000018
 20
350.0000000000002
 30
0.0
 11
-0.0000000000009095
 21
350.0000000000002
 31
0.0
  0
LINE
  5
4790
330
2AAE
100
AcDbEntity
  8
OUTLINE
100
AcDbLine
 10
12.78050532580346
 20
415.7499999999997
 30
0.0
 11
31.78118054401557
 21
513.5000000000001
 31
0.0
  0
LINE
  5
4791
330
2AAE
100
AcDbEntity
  8
OUTLINE
100
AcDbLine
 10
31.78118054401557
 20
513.5000000000001
 30
0.0
 11
293.9999999999982
 21
513.5000000000006
 31
0.0
  0
LINE
  5
4792
330
2AAE
100
AcDbEntity
  8
OUTLINE
100
AcDbLine
 10
293.9999999999982
 20
513.5000000000006
 30
0.0
 11
294.0
 21
-289.5411404803986
 31
0.0
  0
LINE
  5
4796
330
2AAE
100
AcDbEntity
  8
OUTLINE
100
AcDbLine
 10
-135.0
 20
-311.4999999999999
 30
0.0
 11
-189.9999999999995
 21
-311.5000000000001
 31
0.0
  0
LINE
  5
4797
330
2AAE
100
AcDbEntity
  8
OUTLINE
100
AcDbLine
 10
-189.9999999999995
 20
-311.5000000000001
 30
0.0
 11
-190.0000000000011
 21
350.0
 31
0.0
  0
LINE
  5
4798
330
2AAE
100
AcDbEntity
  8
OUTLINE
100
AcDbLine
 10
-188.4999999999995
 20
-335.0
 30
0.0
 11
-189.9999999999995
 21
-335.0
 31
0.0
  0
LINE
  5
4799
330
2AAE
100
AcDbEntity
  8
OUTLINE
100
AcDbLine
 10
-188.4999999999995
 20
-311.4999999999999
 30
0.0
 11
-188.4999999999995
 21
-335.0
 31
0.0
  0
LINE
  5
479E
330
2AAE
100
AcDbEntity
  8
OUTLINE
100
AcDbLine
 10
-124.9607211176481
 20
-311.4999999999999
 30
0.0
 11
-125.0000000000004
 21
-311.4999999999999
 31
0.0
  0
LINE
  5
479F
330
2AAE
100
AcDbEntity
  8
OUTLINE
100
AcDbLine
 10
-189.9999999999995
 20
-335.0
 30
0.0
 11
-189.9999999999995
 21
-311.5000000000001
 31
0.0
  0
LINE
  5
47A0
330
2AAE
100
AcDbEntity
  8
OUTLINE
100
AcDbLine
 10
3.000000000000452
 20
-375.7499999999991
 30
0.0
 11
3.000000000000452
 21
-377.2499999999993
 31
0.0
  0
LINE
  5
47A1
330
2AAE
100
AcDbEntity
  8
OUTLINE
100
AcDbLine
 10
0.0000000000009095
 20
-375.7499999999991
 30
0.0
 11
3.000000000000452
 21
-375.7499999999991
 31
0.0
  0
LINE
  5
47A2
330
2AAE
100
AcDbEntity
  8
OUTLINE
100
AcDbLine
 10
0.0000000000009095
 20
-377.2499999999993
 30
0.0
 11
0.0000000000009095
 21
-375.7499999999991
 31
0.0
  0
LINE
  5
47A3
330
2AAE
100
AcDbEntity
  8
OUTLINE
100
AcDbLine
 10
3.000000000000452
 20
-377.2499999999993
 30
0.0
 11
0.0000000000009095
 21
-377.2499999999993
 31
0.0
  0
LINE
  5
47A4
330
2AAE
100
AcDbEntity
  8
OUTLINE
100
AcDbLine
 10
2.999999999998633
 20
415.7499999999997
 30
0.0
 11
2.999999999998633
 21
414.2499999999998
 31
0.0
  0
LINE
  5
47A5
330
2AAE
100
AcDbEntity
  8
OUTLINE
100
AcDbLine
 10
-0.0000000000013642
 20
415.7499999999997
 30
0.0
 11
2.999999999998633
 21
415.7499999999997
 31
0.0
  0
LINE
  5
47A6
330
2AAE
100
AcDbEntity
  8
OUTLINE
100
AcDbLine
 10
-0.0000000000013642
 20
414.2499999999998
 30
0.0
 11
-0.0000000000013642
 21
415.7499999999997
 31
0.0
  0
LINE
  5
47A7
330
2AAE
100
AcDbEntity
  8
OUTLINE
100
AcDbLine
 10
2.999999999998633
 20
414.2499999999998
 30
0.0
 11
-0.0000000000013642
 21
414.2499999999998
 31
0.0
  0
LINE
  5
47A8
330
2AAE
100
AcDbEntity
  8
OUTLINE
100
AcDbLine
 10
3.0
 20
-42.24999999999949
 30
0.0
 11
3.000000000000452
 21
-375.7499999999991
 31
0.0
  0
LINE
  5
47A9
330
2AAE
100
AcDbEntity
  8
OUTLINE
100
AcDbLine
 10
0.0
 20
-42.24999999999949
 30
0.0
 11
0.0000000000009095
 21
-375.7499999999991
 31
0.0
  0
LINE
  5
47AA
330
2AAE
100
AcDbEntity
  8
OUTLINE
100
AcDbLine
 10
7.500000000000452
 20
-377.2499999999993
 30
0.0
 11
50.00000000000046
 21
-377.2499999999991
 31
0.0
  0
LINE
  5
47AB
330
2AAE
100
AcDbEntity
  8
OUTLINE
100
AcDbLine
 10
3.000000000000452
 20
-377.2499999999993
 30
0.0
 11
7.500000000000452
 21
-377.2499999999993
 31
0.0
  0
LINE
  5
47AC
330
2AAE
100
AcDbEntity
  8
OUTLINE
100
AcDbLine
 10
-0.0000000000013642
 20
414.2499999999998
 30
0.0
 11
-0.0000000000004547
 21
80.75000000000017
 31
0.0
  0
LINE
  5
47AD
330
2AAE
100
AcDbEntity
  8
OUTLINE
100
AcDbLine
 10
2.999999999998633
 20
414.2499999999998
 30
0.0
 11
2.999999999999545
 21
80.75000000000017
 31
0.0
  0
LINE
  5
47AE
330
2AAE
100
AcDbEntity
  8
OUTLINE
100
AcDbLine
 10
2.999999999998633
 20
415.7499999999997
 30
0.0
 11
7.499999999998633
 21
415.7499999999997
 31
0.0
  0
LINE
  5
47AF
330
2AAE
100
AcDbEntity
  8
OUTLINE
100
AcDbLine
 10
49.99999999999818
 20
415.7500000000001
 30
0.0
 11
50.00000000000046
 21
-377.2499999999991
 31
0.0
  0
LINE
  5
47B0
330
2AAE
100
AcDbEntity
  8
OUTLINE
100
AcDbLine
 10
7.499999999998633
 20
415.7499999999997
 30
0.0
 11
49.99999999999818
 21
415.7500000000001
 31
0.0
  0
LINE
  5
47B1
330
2AAE
100
AcDbEntity
  8
OUTLINE
100
AcDbLine
 10
3.0
 20
-42.24999999999949
 30
0.0
 11
0.0
 21
-42.24999999999949
 31
0.0
  0
LINE
  5
47B2
330
2AAE
100
AcDbEntity
  8
OUTLINE
100
AcDbLine
 10
-0.0000000000004547
 20
80.75000000000017
 30
0.0
 11
2.999999999999545
 21
80.75000000000017
 31
0.0
  0
LINE
  5
47B3
330
2AAE
100
AcDbEntity
  8
OUTLINE
100
AcDbLine
 10
0.0
 20
-42.24999999999949
 30
0.0
 11
0.0
 21
-40.7499999999996
 31
0.0
  0
LINE
  5
47B4
330
2AAE
100
AcDbEntity
  8
OUTLINE
100
AcDbLine
 10
3.0
 20
-40.7499999999996
 30
0.0
 11
3.0
 21
-42.24999999999949
 31
0.0
  0
LINE
  5
47B5
330
2AAE
100
AcDbEntity
  8
OUTLINE
100
AcDbLine
 10
0.0
 20
-40.74999999999938
 30
0.0
 11
3.0
 21
-40.74999999999938
 31
0.0
  0
LINE
  5
47B6
330
2AAE
100
AcDbEntity
  8
OUTLINE
100
AcDbLine
 10
-0.0000000000004547
 20
79.25000000000039
 30
0.0
 11
-0.0000000000004547
 21
80.75000000000017
 31
0.0
  0
LINE
  5
47B7
330
2AAE
100
AcDbEntity
  8
OUTLINE
100
AcDbLine
 10
2.999999999999545
 20
79.25000000000039
 30
0.0
 11
-0.0000000000004547
 21
79.25000000000039
 31
0.0
  0
LINE
  5
47B8
330
2AAE
100
AcDbEntity
  8
OUTLINE
100
AcDbLine
 10
2.999999999999545
 20
80.75000000000017
 30
0.0
 11
2.999999999999545
 21
79.25000000000039
 31
0.0
  0
LINE
  5
47B9
330
2AAE
100
AcDbEntity
  8
OUTLINE
100
AcDbLine
 10
0.0
 20
-40.74999999999938
 30
0.0
 11
-0.0000000000004547
 21
79.25000000000039
 31
0.0
  0
LINE
  5
47BA
330
2AAE
100
AcDbEntity
  8
OUTLINE
100
AcDbLine
 10
2.999999999999545
 20
79.25000000000039
 30
0.0
 11
3.0
 21
-40.7499999999996
 31
0.0
  0
LINE
  5
47BB
330
2AAE
100
AcDbEntity
  8
OUTLINE
100
AcDbLine
 10
-48.0
 20
-333.25
 30
0.0
 11
-46.0
 21
-333.25
 31
0.0
  0
LINE
  5
47BC
330
2AAE
100
AcDbEntity
  8
OUTLINE
100
AcDbLine
 10
-46.0
 20
-333.25
 30
0.0
 11
-46.0
 21
-331.7499999999999
 31
0.0
  0
LINE
  5
47BD
330
2AAE
100
AcDbEntity
  8
OUTLINE
100
AcDbLine
 10
-46.0
 20
-331.7499999999999
 30
0.0
 11
-48.0
 21
-331.7499999999999
 31
0.0
  0
LINE
  5
47BE
330
2AAE
100
AcDbEntity
  8
OUTLINE
100
AcDbLine
 10
-48.0
 20
-331.7499999999999
 30
0.0
 11
-48.0
 21
-333.25
 31
0.0
  0
LINE
  5
47BF
330
2AAE
100
AcDbEntity
  8
OUTLINE
100
AcDbLine
 10
-2.0
 20
-331.7499999999999
 30
0.0
 11
-4.0
 21
-331.7499999999999
 31
0.0
  0
LINE
  5
47C0
330
2AAE
100
AcDbEntity
  8
OUTLINE
100
AcDbLine
 10
-4.0
 20
-333.2499999999998
 30
0.0
 11
-2.0
 21
-333.2499999999998
 31
0.0
  0
LINE
  5
47C1
330
2AAE
100
AcDbEntity
  8
OUTLINE
100
AcDbLine
 10
-2.0
 20
-333.2499999999998
 30
0.0
 11
-2.0
 21
-331.7499999999999
 31
0.0
  0
LINE
  5
47C2
330
2AAE
100
AcDbEntity
  8
OUTLINE
100
AcDbLine
 10
-4.0
 20
-331.7499999999999
 30
0.0
 11
-4.0
 21
-333.2499999999998
 31
0.0
  0
LINE
  5
47C3
330
2AAE
100
AcDbEntity
  8
OUTLINE
100
AcDbLine
 10
-46.0
 20
-331.7499999999999
 30
0.0
 11
-4.0
 21
-331.7499999999999
 31
0.0
  0
LINE
  5
47C4
330
2AAE
100
AcDbEntity
  8
OUTLINE
100
AcDbLine
 10
-46.0
 20
-333.25
 30
0.0
 11
-4.0
 21
-333.2499999999998
 31
0.0
  0
CIRCLE
  5
47C5
330
2AAE
100
AcDbEntity
  8
OUTLINE
100
AcDbCircle
 10
-40.0
 20
-295.2499999999998
 30
0.0
 40
1.250000000000001
  0
CIRCLE
  5
47C6
330
2AAE
100
AcDbEntity
  8
OUTLINE
100
AcDbCircle
 10
-10.0
 20
-295.2499999999997
 30
0.0
 40
1.250000000000001
  0
LINE
  5
47C7
330
2AAE
100
AcDbEntity
  8
OUTLINE
100
AcDbLine
 10
-48.0
 20
-331.7499999999999
 30
0.0
 11
-48.0
 21
-330.2499999999999
 31
0.0
  0
LINE
  5
47C8
330
2AAE
100
AcDbEntity
  8
OUTLINE
100
AcDbLine
 10
-2.0
 20
-331.7499999999999
 30
0.0
 11
-2.0
 21
-330.2499999999998
 31
0.0
  0
LINE
  5
47C9
330
2AAE
100
AcDbEntity
  8
OUTLINE
100
AcDbLine
 10
-2.0
 20
-283.2499999999997
 30
0.0
 11
-2.0
 21
-330.2499999999998
 31
0.0
  0
LINE
  5
47CA
330
2AAE
100
AcDbEntity
  8
OUTLINE
100
AcDbLine
 10
-48.0
 20
-330.2499999999999
 30
0.0
 11
-48.0
 21
-283.2499999999998
 31
0.0
  0
LINE
  5
47CB
330
2AAE
100
AcDbEntity
  8
OUTLINE
100
AcDbLine
 10
-48.0
 20
-283.2499999999998
 30
0.0
 11
-2.0
 21
-283.2499999999997
 31
0.0
  0
LINE
  5
47CC
330
2AAE
100
AcDbEntity
  8
OUTLINE
100
AcDbLine
 10
-135.0
 20
-311.4999999999996
 30
0.0
 11
-134.0
 21
-311.4999999999996
 31
0.0
  0
LINE
  5
47CD
330
2AAE
100
AcDbEntity
  8
OUTLINE
100
AcDbLine
 10
-134.0000000000009
 20
349.9999999999997
 30
0.0
 11
-134.0
 21
-311.4999999999996
 31
0.0
  0
LINE
  5
47CE
330
2AAE
100
AcDbEntity
  8
OUTLINE
100
AcDbLine
 10
-134.0000000000009
 20
349.9999999999997
 30
0.0
 11
-135.0000000000009
 21
349.9999999999997
 31
0.0
  0
LINE
  5
47CF
330
2AAE
100
AcDbEntity
  8
OUTLINE
100
AcDbLine
 10
-135.0000000000009
 20
349.9999999999997
 30
0.0
 11
-135.0
 21
-311.4999999999996
 31
0.0
  0
LINE
  5
47D0
330
2AAE
100
AcDbEntity
  8
OUTLINE
100
AcDbLine
 10
-134.0
 20
-311.4999999999996
 30
0.0
 11
-125.0
 21
-311.4999999999996
 31
0.0
  0
LINE
  5
47D1
330
2AAE
100
AcDbEntity
  8
OUTLINE
100
AcDbLine
 10
-125.0000000000009
 20
349.9999999999997
 30
0.0
 11
-125.0
 21
-311.4999999999996
 31
0.0
  0
LINE
  5
47D2
330
2AAE
100
AcDbEntity
  8
OUTLINE
100
AcDbLine
 10
-125.0000000000009
 20
349.9999999999997
 30
0.0
 11
-134.0000000000009
 21
349.9999999999997
 31
0.0
  0
LINE
  5
47D3
330
2AAE
100
AcDbEntity
  8
OUTLINE
100
AcDbLine
 10
-135.0000000000009
 20
354.9999999999997
 30
0.0
 11
-134.0000000000009
 21
354.9999999999997
 31
0.0
  0
LINE
  5
47D4
330
2AAE
100
AcDbEntity
  8
OUTLINE
100
AcDbLine
 10
-134.0000000000009
 20
354.9999999999997
 30
0.0
 11
-134.0000000000009
 21
350.9999999999997
 31
0.0
  0
LINE
  5
47D5
330
2AAE
100
AcDbEntity
  8
OUTLINE
100
AcDbLine
 10
-134.0000000000009
 20
350.9999999999997
 30
0.0
 11
-125.0000000000009
 21
350.9999999999997
 31
0.0
  0
LINE
  5
47D6
330
2AAE
100
AcDbEntity
  8
OUTLINE
100
AcDbLine
 10
-125.0000000000009
 20
350.9999999999997
 30
0.0
 11
-125.0000000000009
 21
349.9999999999997
 31
0.0
  0
LINE
  5
47D7
330
2AAE
100
AcDbEntity
  8
OUTLINE
100
AcDbLine
 10
-135.0000000000009
 20
349.9999999999997
 30
0.0
 11
-135.0000000000009
 21
354.9999999999997
 31
0.0
  0
LINE
  5
47D8
330
2AAE
100
AcDbEntity
  8
OUTLINE
100
AcDbLine
 10
-134.0
 20
-316.5
 30
0.0
 11
-135.0
 21
-316.5
 31
0.0
  0
LINE
  5
47D9
330
2AAE
100
AcDbEntity
  8
OUTLINE
100
AcDbLine
 10
-134.0
 20
-312.5
 30
0.0
 11
-134.0
 21
-316.5
 31
0.0
  0
LINE
  5
47DA
330
2AAE
100
AcDbEntity
  8
OUTLINE
100
AcDbLine
 10
-125.0
 20
-312.5
 30
0.0
 11
-134.0
 21
-312.5
 31
0.0
  0
LINE
  5
47DB
330
2AAE
100
AcDbEntity
  8
OUTLINE
100
AcDbLine
 10
-125.0
 20
-311.4999999999999
 30
0.0
 11
-125.0
 21
-312.5
 31
0.0
  0
LINE
  5
47DC
330
2AAE
100
AcDbEntity
  8
OUTLINE
100
AcDbLine
 10
-135.0
 20
-316.5
 30
0.0
 11
-135.0
 21
-311.4999999999999
 31
0.0
  0
LINE
  5
47DE
330
2AAE
100
AcDbEntity
  8
OUTLINE
100
AcDbLine
 10
-218.4999999999995
 20
-329.8999999999999
 30
0.0
 11
-218.4999999999995
 21
-320.0999999999999
 31
0.0
  0
LINE
  5
47DF
330
2AAE
100
AcDbEntity
  8
OUTLINE
100
AcDbLine
 10
-198.0000000000018
 20
-329.8999999999999
 30
0.0
 11
-218.4999999999995
 21
-329.8999999999999
 31
0.0
  0
LINE
  5
47E0
330
2AAE
100
AcDbEntity
  8
OUTLINE
100
AcDbLine
 10
-198.0000000000018
 20
-320.0999999999999
 30
0.0
 11
-218.4999999999995
 21
-320.0999999999999
 31
0.0
  0
LINE
  5
47E1
330
2AAE
100
AcDbEntity
  8
OUTLINE
100
AcDbLine
 10
-188.4999999999995
 20
-334.8149545762236
 30
0.0
 11
-181.4999999999995
 21
-334.8149545762236
 31
0.0
  0
LINE
  5
47E2
330
2AAE
100
AcDbEntity
  8
OUTLINE
100
AcDbLine
 10
-181.4999999999995
 20
-334.8149545762236
 30
0.0
 11
-181.4999999999995
 21
-329.9074772881117
 31
0.0
  0
LINE
  5
47E3
330
2AAE
100
AcDbEntity
  8
OUTLINE
100
AcDbLine
 10
-188.4999999999995
 20
-329.9074772881117
 30
0.0
 11
-181.4999999999995
 21
-329.9074772881117
 31
0.0
  0
LINE
  5
47E4
330
2AAE
100
AcDbEntity
  8
OUTLINE
100
AcDbLine
 10
-181.4999999999995
 20
-329.9074772881117
 30
0.0
 11
-181.4999999999995
 21
-320.0925227118881
 31
0.0
  0
LINE
  5
47E5
330
2AAE
100
AcDbEntity
  8
OUTLINE
100
AcDbLine
 10
-188.4999999999995
 20
-320.0925227118881
 30
0.0
 11
-181.4999999999995
 21
-320.0925227118881
 31
0.0
  0
LINE
  5
47E6
330
2AAE
100
AcDbEntity
  8
OUTLINE
100
AcDbLine
 10
-181.4999999999995
 20
-320.0925227118881
 30
0.0
 11
-181.4999999999995
 21
-315.1850454237762
 31
0.0
  0
LINE
  5
47E7
330
2AAE
100
AcDbEntity
  8
OUTLINE
100
AcDbLine
 10
-188.4999999999995
 20
-315.1850454237762
 30
0.0
 11
-181.4999999999995
 21
-315.1850454237762
 31
0.0
  0
LINE
  5
47E8
330
2AAE
100
AcDbEntity
  8
OUTLINE
100
AcDbLine
 10
-218.5000000000007
 20
320.1000000000001
 30
0.0
 11
-218.5000000000007
 21
329.8999999999998
 31
0.0
  0
LINE
  5
47E9
330
2AAE
100
AcDbEntity
  8
OUTLINE
100
AcDbLine
 10
-198.0000000000018
 20
320.1000000000001
 30
0.0
 11
-218.5000000000007
 21
320.1000000000001
 31
0.0
  0
LINE
  5
47EA
330
2AAE
100
AcDbEntity
  8
OUTLINE
100
AcDbLine
 10
-198.0000000000018
 20
329.9
 30
0.0
 11
-218.5000000000007
 21
329.9
 31
0.0
  0
LINE
  5
47EB
330
2AAE
100
AcDbEntity
  8
OUTLINE
100
AcDbLine
 10
36.49999999999909
 20
304.1574772881121
 30
0.0
 11
36.49999999999909
 21
294.3425227118884
 31
0.0
  0
LINE
  5
47EC
330
2AAE
100
AcDbEntity
  8
OUTLINE
100
AcDbLine
 10
36.49999999999909
 20
294.3425227118884
 30
0.0
 11
27.99999999999909
 21
289.4350454237767
 31
0.0
  0
LINE
  5
47ED
330
2AAE
100
AcDbEntity
  8
OUTLINE
100
AcDbLine
 10
27.99999999999909
 20
289.4350454237767
 30
0.0
 11
19.49999999999909
 21
294.3425227118884
 31
0.0
  0
LINE
  5
47EE
330
2AAE
100
AcDbEntity
  8
OUTLINE
100
AcDbLine
 10
19.49999999999909
 20
294.3425227118884
 30
0.0
 11
19.49999999999909
 21
304.1574772881121
 31
0.0
  0
LINE
  5
47EF
330
2AAE
100
AcDbEntity
  8
OUTLINE
100
AcDbLine
 10
19.49999999999909
 20
304.1574772881121
 30
0.0
 11
27.99999999999909
 21
309.0649545762239
 31
0.0
  0
LINE
  5
47F0
330
2AAE
100
AcDbEntity
  8
OUTLINE
100
AcDbLine
 10
27.99999999999909
 20
309.0649545762239
 30
0.0
 11
36.49999999999909
 21
304.1574772881121
 31
0.0
  0
LINE
  5
47F1
330
2AAE
100
AcDbEntity
  8
OUTLINE
100
AcDbLine
 10
36.49999999999909
 20
164.1574772881121
 30
0.0
 11
36.49999999999909
 21
154.3425227118884
 31
0.0
  0
LINE
  5
47F2
330
2AAE
100
AcDbEntity
  8
OUTLINE
100
AcDbLine
 10
36.49999999999909
 20
154.3425227118884
 30
0.0
 11
27.99999999999909
 21
149.4350454237767
 31
0.0
  0
LINE
  5
47F3
330
2AAE
100
AcDbEntity
  8
OUTLINE
100
AcDbLine
 10
27.99999999999909
 20
149.4350454237767
 30
0.0
 11
19.49999999999909
 21
154.3425227118884
 31
0.0
  0
LINE
  5
47F4
330
2AAE
100
AcDbEntity
  8
OUTLINE
100
AcDbLine
 10
19.49999999999909
 20
154.3425227118884
 30
0.0
 11
19.49999999999909
 21
164.1574772881121
 31
0.0
  0
LINE
  5
47F5
330
2AAE
100
AcDbEntity
  8
OUTLINE
100
AcDbLine
 10
19.49999999999909
 20
164.1574772881121
 30
0.0
 11
27.99999999999909
 21
169.0649545762239
 31
0.0
  0
LINE
  5
47F6
330
2AAE
100
AcDbEntity
  8
OUTLINE
100
AcDbLine
 10
27.99999999999909
 20
169.0649545762239
 30
0.0
 11
36.49999999999909
 21
164.1574772881121
 31
0.0
  0
LINE
  5
47F7
330
2AAE
100
AcDbEntity
  8
OUTLINE
100
AcDbLine
 10
36.5
 20
24.15747728811238
 30
0.0
 11
36.5
 21
14.34252271188876
 31
0.0
  0
LINE
  5
47F8
330
2AAE
100
AcDbEntity
  8
OUTLINE
100
AcDbLine
 10
36.5
 20
14.34252271188876
 30
0.0
 11
27.99999999999954
 21
9.435045423776898
 31
0.0
  0
LINE
  5
47F9
330
2AAE
100
AcDbEntity
  8
OUTLINE
100
AcDbLine
 10
27.99999999999954
 20
9.435045423776898
 30
0.0
 11
19.49999999999954
 21
14.34252271188876
 31
0.0
  0
LINE
  5
47FA
330
2AAE
100
AcDbEntity
  8
OUTLINE
100
AcDbLine
 10
19.49999999999954
 20
14.34252271188876
 30
0.0
 11
19.5
 21
24.15747728811238
 31
0.0
  0
LINE
  5
47FB
330
2AAE
100
AcDbEntity
  8
OUTLINE
100
AcDbLine
 10
19.5
 20
24.15747728811238
 30
0.0
 11
27.99999999999954
 21
29.06495457622424
 31
0.0
  0
LINE
  5
47FC
330
2AAE
100
AcDbEntity
  8
OUTLINE
100
AcDbLine
 10
27.99999999999954
 20
29.06495457622424
 30
0.0
 11
36.5
 21
24.15747728811238
 31
0.0
  0
LINE
  5
47FD
330
2AAE
100
AcDbEntity
  8
OUTLINE
100
AcDbLine
 10
36.5
 20
-115.8425227118875
 30
0.0
 11
36.5
 21
-125.6574772881111
 31
0.0
  0
LINE
  5
47FE
330
2AAE
100
AcDbEntity
  8
OUTLINE
100
AcDbLine
 10
36.5
 20
-125.6574772881111
 30
0.0
 11
28.0
 21
-130.564954576223
 31
0.0
  0
LINE
  5
47FF
330
2AAE
100
AcDbEntity
  8
OUTLINE
100
AcDbLine
 10
28.0
 20
-130.564954576223
 30
0.0
 11
19.5
 21
-125.6574772881111
 31
0.0
  0
LINE
  5
4800
330
2AAE
100
AcDbEntity
  8
OUTLINE
100
AcDbLine
 10
19.5
 20
-125.6574772881111
 30
0.0
 11
19.5
 21
-115.8425227118875
 31
0.0
  0
LINE
  5
4801
330
2AAE
100
AcDbEntity
  8
OUTLINE
100
AcDbLine
 10
19.5
 20
-115.8425227118875
 30
0.0
 11
28.0
 21
-110.9350454237756
 31
0.0
  0
LINE
  5
4802
330
2AAE
100
AcDbEntity
  8
OUTLINE
100
AcDbLine
 10
28.0
 20
-110.9350454237756
 30
0.0
 11
36.5
 21
-115.8425227118875
 31
0.0
  0
LINE
  5
4803
330
2AAE
100
AcDbEntity
  8
OUTLINE
100
AcDbLine
 10
36.5
 20
-255.8425227118876
 30
0.0
 11
36.5
 21
-265.6574772881114
 31
0.0
  0
LINE
  5
4804
330
2AAE
100
AcDbEntity
  8
OUTLINE
100
AcDbLine
 10
36.5
 20
-265.6574772881114
 30
0.0
 11
28.0
 21
-270.5649545762232
 31
0.0
  0
LINE
  5
4805
330
2AAE
100
AcDbEntity
  8
OUTLINE
100
AcDbLine
 10
28.0
 20
-270.5649545762232
 30
0.0
 11
19.5
 21
-265.6574772881114
 31
0.0
  0
LINE
  5
4806
330
2AAE
100
AcDbEntity
  8
OUTLINE
100
AcDbLine
 10
19.5
 20
-265.6574772881114
 30
0.0
 11
19.5
 21
-255.8425227118876
 31
0.0
  0
LINE
  5
4807
330
2AAE
100
AcDbEntity
  8
OUTLINE
100
AcDbLine
 10
19.5
 20
-255.8425227118876
 30
0.0
 11
28.0
 21
-250.9350454237759
 31
0.0
  0
LINE
  5
4808
330
2AAE
100
AcDbEntity
  8
OUTLINE
100
AcDbLine
 10
28.0
 20
-250.9350454237759
 30
0.0
 11
36.5
 21
-255.8425227118876
 31
0.0
  0
LINE
  5
4809
330
2AAE
100
AcDbEntity
  8
OUTLINE
100
AcDbLine
 10
-74.89999999999962
 20
371.7499999999995
 30
0.0
 11
-65.0999999999999
 21
371.7499999999995
 31
0.0
  0
LINE
  5
480A
330
2AAE
100
AcDbEntity
  8
OUTLINE
100
AcDbLine
 10
-74.89999999999962
 20
350.0000000000004
 30
0.0
 11
-74.89999999999962
 21
371.7499999999995
 31
0.0
  0
LINE
  5
480B
330
2AAE
100
AcDbEntity
  8
OUTLINE
100
AcDbLine
 10
-65.0999999999999
 20
350.0000000000004
 30
0.0
 11
-65.0999999999999
 21
371.7499999999995
 31
0.0
  0
LINE
  5
480C
330
2AAE
100
AcDbEntity
  8
OUTLINE
100
AcDbLine
 10
322.4999999999973
 20
489.4999999999986
 30
0.0
 11
322.4999999999973
 21
477.4999999999983
 31
0.0
  0
LINE
  5
480D
330
2AAE
100
AcDbEntity
  8
OUTLINE
100
AcDbLine
 10
293.9999999999992
 20
489.4999999999981
 30
0.0
 11
322.4999999999973
 21
489.4999999999981
 31
0.0
  0
LINE
  5
480E
330
2AAE
100
AcDbEntity
  8
OUTLINE
100
AcDbLine
 10
293.9999999999992
 20
477.4999999999986
 30
0.0
 11
322.4999999999973
 21
477.4999999999986
 31
0.0
  0
LINE
  5
480F
330
2AAE
100
AcDbEntity
  8
OUTLINE
100
AcDbLine
 10
322.4999999999973
 20
-160.499324734084
 30
0.0
 11
322.4999999999973
 21
-172.499324734084
 31
0.0
  0
LINE
  5
4810
330
2AAE
100
AcDbEntity
  8
OUTLINE
100
AcDbLine
 10
294.0000000000008
 20
-160.499324734084
 30
0.0
 11
322.4999999999973
 21
-160.499324734084
 31
0.0
  0
LINE
  5
4811
330
2AAE
100
AcDbEntity
  8
OUTLINE
100
AcDbLine
 10
294.0000000000008
 20
-172.499324734084
 30
0.0
 11
322.4999999999973
 21
-172.499324734084
 31
0.0
  0
LINE
  5
4812
330
2AAE
100
AcDbEntity
  8
OUTLINE
100
AcDbLine
 10
322.476640430661
 20
-269.5432080502744
 30
0.0
 11
322.476640430661
 21
-281.5432080502743
 31
0.0
  0
LINE
  5
4813
330
2AAE
100
AcDbEntity
  8
OUTLINE
100
AcDbLine
 10
305.4766404306607
 20
-269.5432080502743
 30
0.0
 11
322.476640430661
 21
-269.5432080502743
 31
0.0
  0
LINE
  5
4814
330
2AAE
100
AcDbEntity
  8
OUTLINE
100
AcDbLine
 10
305.4766404306607
 20
-281.5432080502743
 30
0.0
 11
322.476640430661
 21
-281.5432080502743
 31
0.0
  0
LINE
  5
4815
330
2AAE
100
AcDbEntity
  8
OUTLINE
100
AcDbLine
 10
305.4766404306607
 20
-264.5735529356715
 30
0.0
 11
295.4766404306607
 21
-264.5735529356715
 31
0.0
  0
LINE
  5
4816
330
2AAE
100
AcDbEntity
  8
OUTLINE
100
AcDbLine
 10
295.4766404306607
 20
-264.5735529356715
 30
0.0
 11
295.4766404306607
 21
-270.0583804929729
 31
0.0
  0
LINE
  5
4817
330
2AAE
100
AcDbEntity
  8
OUTLINE
100
AcDbLine
 10
305.4766404306607
 20
-270.0583804929729
 30
0.0
 11
295.4766404306607
 21
-270.0583804929729
 31
0.0
  0
LINE
  5
4818
330
2AAE
100
AcDbEntity
  8
OUTLINE
100
AcDbLine
 10
305.4766404306607
 20
-264.5735529356715
 30
0.0
 11
305.4766404306607
 21
-270.0583804929729
 31
0.0
  0
LINE
  5
4819
330
2AAE
100
AcDbEntity
  8
OUTLINE
100
AcDbLine
 10
295.4766404306607
 20
-270.0583804929729
 30
0.0
 11
295.4766404306607
 21
-281.0280356075757
 31
0.0
  0
LINE
  5
481A
330
2AAE
100
AcDbEntity
  8
OUTLINE
100
AcDbLine
 10
305.4766404306607
 20
-281.0280356075757
 30
0.0
 11
295.4766404306607
 21
-281.0280356075757
 31
0.0
  0
LINE
  5
481B
330
2AAE
100
AcDbEntity
  8
OUTLINE
100
AcDbLine
 10
305.4766404306607
 20
-270.0583804929729
 30
0.0
 11
305.4766404306607
 21
-281.0280356075757
 31
0.0
  0
LINE
  5
481C
330
2AAE
100
AcDbEntity
  8
OUTLINE
100
AcDbLine
 10
295.4766404306607
 20
-281.0280356075757
 30
0.0
 11
295.4766404306607
 21
-286.5128631648772
 31
0.0
  0
LINE
  5
481D
330
2AAE
100
AcDbEntity
  8
OUTLINE
100
AcDbLine
 10
305.4766404306607
 20
-286.5128631648772
 30
0.0
 11
295.4766404306607
 21
-286.5128631648772
 31
0.0
  0
LINE
  5
481E
330
2AAE
100
AcDbEntity
  8
OUTLINE
100
AcDbLine
 10
305.4766404306607
 20
-281.0280356075757
 30
0.0
 11
305.4766404306607
 21
-286.5128631648772
 31
0.0
  0
CIRCLE
  5
481F
330
2AAE
100
AcDbEntity
  8
OUTLINE
100
AcDbCircle
 10
27.99999999999909
 20
299.2500000000004
 30
0.0
 40
10.99999999999999
  0
CIRCLE
  5
4820
330
2AAE
100
AcDbEntity
  8
OUTLINE
100
AcDbCircle
 10
27.99999999999909
 20
159.2500000000002
 30
0.0
 40
10.99999999999999
  0
CIRCLE
  5
4821
330
2AAE
100
AcDbEntity
  8
OUTLINE
100
AcDbCircle
 10
27.99999999999954
 20
19.25000000000051
 30
0.0
 40
10.99999999999999
  0
CIRCLE
  5
4822
330
2AAE
100
AcDbEntity
  8
OUTLINE
100
AcDbCircle
 10
28.0
 20
-120.7499999999992
 30
0.0
 40
10.99999999999999
  0
CIRCLE
  5
4823
330
2AAE
100
AcDbEntity
  8
OUTLINE
100
AcDbCircle
 10
28.0
 20
-260.7499999999995
 30
0.0
 40
10.99999999999999
  0
LINE
  5
4824
330
2AAE
100
AcDbEntity
  8
OUTLINE
100
AcDbLine
 10
293.976640430661
 20
-266.5432080502743
 30
0.0
 11
295.476640430661
 21
-266.5432080502743
 31
0.0
  0
LINE
  5
4825
330
2AAE
100
AcDbEntity
  8
OUTLINE
100
AcDbLine
 10
293.976640430661
 20
-284.5432080502743
 30
0.0
 11
295.476640430661
 21
-284.5432080502743
 31
0.0
  0
LINE
  5
4826
330
2AAE
100
AcDbEntity
  8
NOTE
100
AcDbLine
 10
-4.996601298147197
 20
396.7499999999999
 30
-0.000000000000022
 11
7.988963825945575
 21
396.7499999999999
 31
-0.000000000000019
  0
LINE
  5
4827
330
2AAE
100
AcDbEntity
  8
NOTE
100
AcDbLine
 10
-4.994166593715815
 20
256.7499999999997
 30
0.0
 11
8.005833406284182
 21
256.7499999999997
 31
0.0
  0
LINE
  5
4828
330
2AAE
100
AcDbEntity
  8
NOTE
100
AcDbLine
 10
-4.997084979209374
 20
116.7500000000001
 30
-0.0000000000000036
 11
8.022702986622789
 21
116.7500000000001
 31
-0.0000000000000036
  0
LINE
  5
4829
330
2AAE
100
AcDbEntity
  8
NOTE
100
AcDbLine
 10
-5.10436247613461
 20
-78.25000000000007
 30
-0.0000000000000071
 11
7.899728475746543
 21
-78.25000000000007
 31
-0.0000000000000071
  0
LINE
  5
482A
330
2AAE
100
AcDbEntity
  8
NOTE
100
AcDbLine
 10
-5.188560916677488
 20
-218.2499999999998
 30
0.0
 11
7.811439083322511
 21
-218.2499999999998
 31
0.0
  0
LINE
  5
482B
330
2AAE
100
AcDbEntity
  8
NOTE
100
AcDbLine
 10
-5.276850309101063
 20
-358.2499999999998
 30
-0.0000000000000178
 11
7.723149690898932
 21
-358.2499999999998
 31
-0.0000000000000178
  0
LINE
  5
482C
330
2AAE
100
AcDbEntity
  8
NOTE
100
AcDbLine
 10
-70.0
 20
376.7499999999995
 30
0.0
 11
-70.0
 21
345.0000000000002
 31
0.0
  0
LINE
  5
482D
330
2AAE
100
AcDbEntity
  8
NOTE
100
AcDbLine
 10
-185.0000000000006
 20
325.0
 30
0.0
 11
-223.5000000000006
 21
325.0
 31
0.0
  0
LINE
  5
482E
330
2AAE
100
AcDbEntity
  8
NOTE
100
AcDbLine
 10
-176.4999999999995
 20
-324.9999999999998
 30
0.0
 11
-223.4999999999995
 21
-324.9999999999998
 31
0.0
  0
LINE
  5
482F
330
2AAE
100
AcDbEntity
  8
BASIS
100
AcDbLine
 10
332.4999999999973
 20
0.0000000000001705
 30
0.0
 11
-228.5000000000007
 21
0.0000000000001705
 31
0.0
  0
LINE
  5
4830
330
2AAE
100
AcDbEntity
  8
NOTE
100
AcDbLine
 10
288.9999999999982
 20
483.4999999999983
 30
0.0
 11
327.4999999999968
 21
483.4999999999983
 31
0.0
  0
LINE
  5
4831
330
2AAE
100
AcDbEntity
  8
NOTE
100
AcDbLine
 10
288.9999999999986
 20
-166.499324734084
 30
0.0
 11
327.4999999999973
 21
-166.499324734084
 31
0.0
  0
LINE
  5
4832
330
2AAE
100
AcDbEntity
  8
NOTE
100
AcDbLine
 10
288.9766404306633
 20
-275.5432080502743
 30
0.0
 11
327.476640430661
 21
-275.5432080502743
 31
0.0
  0
DIMENSION
  5
4993
330
2AAE
100
AcDbEntity
  8
SIZE
100
AcDbDimension
280
     0
  2
*D18
 10
750.0000000000007
 20
-289.5411404803986
 30
0.0
 11
715.0000000000005
 21
111.9794297598008
 31
0.0
 70
    32
  1
{\H0.78125x;<>}
 71
     5
 42
803.0411404803993
 73
     0
 74
     0
 75
     0
  3
STANDARD$0
100
AcDbAlignedDimension
 13
293.9999999999945
 23
513.5000000000006
 33
0.0
 14
294.0
 24
-289.5411404803986
 34
0.0
 50
90.0
100
AcDbRotatedDimension
1001
ACAD
1000
DSTYLE
1002
{
1070
    90
1070
     1
1070
   271
1070
     0
1070
   345
1005
2A9C
1070
   346
1005
2A9C
1070
   347
1005
2A9C
1002
}
  0
DIMENSION
  5
4AC5
330
2AAE
100
AcDbEntity
  8
SIZE
100
AcDbDimension
280
     0
  2
*D19
 10
0.0000000000095702
 20
750.0
 30
0.0
 11
75.57142857143813
 21
750.0
 31
0.0
 70
   160
  1
{\H0.78125x;<>}
 71
     5
 42
135.0000000000104
 73
     0
 74
     0
 75
     0
  3
STANDARD$0
100
AcDbAlignedDimension
 13
-135.0000000000009
 23
354.9999999999997
 33
0.0
 14
0.0000000000095497
 24
415.7499999999997
 34
0.0
100
AcDbRotatedDimension
1001
ACAD
1000
DSTYLE
1002
{
1070
    90
1070
     1
1070
   279
1070
     0
1070
   345
1005
2A9C
1070
   346
1005
2A9C
1070
   347
1005
2A9C
1002
}
  0
LINE
  5
4C12
330
2AAE
100
AcDbEntity
  8
OUTLINE
100
AcDbLine
 10
-190.0
 20
-311.4999999999999
 30
0.0
 11
-190.0000000000009
 21
349.9999999999998
 31
0.0
  0
LINE
  5
4C1D
330
2AAE
100
AcDbEntity
  8
OUTLINE
100
AcDbLine
 10
-188.999999999884
 20
-336.0000000000017
 30
0.0
 11
-189.9999999998818
 21
-336.0000000000017
 31
0.0
  0
LINE
  5
4C1E
330
2AAE
100
AcDbEntity
  8
OUTLINE
100
AcDbLine
 10
-188.999999999884
 20
-356.0000000000002
 30
0.0
 11
-188.999999999884
 21
-336.0000000000017
 31
0.0
  0
LINE
  5
4C1F
330
2AAE
100
AcDbEntity
  8
OUTLINE
100
AcDbLine
 10
-188.999999999884
 20
-356.0000000000002
 30
0.0
 11
-189.9999999998818
 21
-356.0000000000002
 31
0.0
  0
LINE
  5
4C20
330
2AAE
100
AcDbEntity
  8
OUTLINE
100
AcDbLine
 10
-189.9999999998818
 20
-356.0000000000002
 30
0.0
 11
-189.9999999998818
 21
-354.0000000000012
 31
0.0
  0
LINE
  5
4C21
330
2AAE
100
AcDbEntity
  8
OUTLINE
100
AcDbLine
 10
-188.9999999998781
 20
-356.0000000000002
 30
0.0
 11
-187.9999999998781
 21
-356.0000000000002
 31
0.0
  0
LINE
  5
4C22
330
2AAE
100
AcDbEntity
  8
OUTLINE
100
AcDbLine
 10
-188.9999999998781
 20
-336.0000000000017
 30
0.0
 11
-187.9999999998781
 21
-336.0000000000017
 31
0.0
  0
LINE
  5
4C23
330
2AAE
100
AcDbEntity
  8
OUTLINE
100
AcDbLine
 10
-181.9999999998781
 20
-336.0000000000017
 30
0.0
 11
-187.9999999998781
 21
-336.0000000000017
 31
0.0
  0
LINE
  5
4C24
330
2AAE
100
AcDbEntity
  8
OUTLINE
100
AcDbLine
 10
-187.9999999998781
 20
-356.0000000000002
 30
0.0
 11
-181.9999999998781
 21
-356.0000000000002
 31
0.0
  0
LINE
  5
4C25
330
2AAE
100
AcDbEntity
  8
OUTLINE
100
AcDbLine
 10
-181.9999999998781
 20
-336.0000000000017
 30
0.0
 11
-179.9999999998772
 21
-336.0000000000017
 31
0.0
  0
LINE
  5
4C26
330
2AAE
100
AcDbEntity
  8
OUTLINE
100
AcDbLine
 10
-179.9999999998772
 20
-356.0000000000002
 30
0.0
 11
-179.9999999998772
 21
-336.0000000000017
 31
0.0
  0
LINE
  5
4C27
330
2AAE
100
AcDbEntity
  8
OUTLINE
100
AcDbLine
 10
-179.9999999998772
 20
-356.0000000000002
 30
0.0
 11
-181.9999999998781
 21
-356.0000000000002
 31
0.0
  0
ARC
  5
4C28
330
2AAE
100
AcDbEntity
  8
OUTLINE
100
AcDbCircle
 10
-192.0000000000018
 20
393.4999999999998
 30
0.0
 40
1.999999999999956
100
AcDbArc
 50
0.0
 51
90.0
  0
LINE
  5
4C29
330
2AAE
100
AcDbEntity
  8
OUTLINE
100
AcDbLine
 10
-192.0000000000018
 20
394.5000000000002
 30
0.0
 11
-198.0000000000009
 21
394.5000000000002
 31
0.0
  0
LINE
  5
4C2A
330
2AAE
100
AcDbEntity
  8
OUTLINE
100
AcDbLine
 10
-198.0000000000009
 20
395.5000000000008
 30
0.0
 11
-192.0000000000018
 21
395.4999999999984
 31
0.0
  0
LINE
  5
4C2B
330
2AAE
100
AcDbEntity
  8
OUTLINE
100
AcDbLine
 10
-192.0000000000018
 20
394.5000000000002
 30
0.0
 11
-192.0000000000018
 21
395.4999999999984
 31
0.0
  0
LINE
  5
4C2C
330
2AAE
100
AcDbEntity
  8
OUTLINE
100
AcDbLine
 10
-198.0000000000009
 20
394.5000000000002
 30
0.0
 11
-198.0000000000009
 21
395.5000000000008
 31
0.0
  0
ARC
  5
4C2D
330
2AAE
100
AcDbEntity
  8
OUTLINE
100
AcDbCircle
 10
-192.0000000000018
 20
393.4999999999998
 30
0.0
 40
1.000000000000085
100
AcDbArc
 50
0.0
 51
89.99999999997395
  0
ARC
  5
4C2E
330
2AAE
100
AcDbEntity
  8
OUTLINE
100
AcDbCircle
 10
-192.0000000000018
 20
-354.0000000000012
 30
0.0
 40
1.999999999999999
100
AcDbArc
 50
270.0
 51
0.0
  0
LINE
  5
4C2F
330
2AAE
100
AcDbEntity
  8
OUTLINE
100
AcDbLine
 10
-192.0000000000018
 20
-355.0000000000003
 30
0.0
 11
-198.0000000000009
 21
-355.0000000000013
 31
0.0
  0
ARC
  5
4C30
330
2AAE
100
AcDbEntity
  8
OUTLINE
100
AcDbCircle
 10
-192.0000000000018
 20
-354.0000000000002
 30
0.0
 40
1.000000000000085
100
AcDbArc
 50
270.000000000026
 51
0.0
  0
LINE
  5
4C31
330
2AAE
100
AcDbEntity
  8
OUTLINE
100
AcDbLine
 10
-192.0000000000018
 20
-355.0000000000003
 30
0.0
 11
-192.0000000000018
 21
-356.0000000000002
 31
0.0
  0
LINE
  5
4C32
330
2AAE
100
AcDbEntity
  8
OUTLINE
100
AcDbLine
 10
-192.0000000000018
 20
-356.0000000000002
 30
0.0
 11
-198.0000000000009
 21
-356.0000000000002
 31
0.0
  0
LINE
  5
4C33
330
2AAE
100
AcDbEntity
  8
OUTLINE
100
AcDbLine
 10
-198.0000000000009
 20
-355.0000000000013
 30
0.0
 11
-198.0000000000009
 21
-356.0000000000002
 31
0.0
  0
LINE
  5
4C34
330
2AAE
100
AcDbEntity
  8
OUTLINE
100
AcDbLine
 10
-192.0000000000018
 20
393.4999999999998
 30
0.0
 11
-190.0000000000009
 21
393.4999999999998
 31
0.0
  0
LINE
  5
4C35
330
2AAE
100
AcDbEntity
  8
OUTLINE
100
AcDbLine
 10
-190.0000000000009
 20
-354.0000000000002
 30
0.0
 11
-192.0000000000018
 21
-354.0000000000002
 31
0.0
  0
LINE
  5
4C36
330
2AAE
100
AcDbEntity
  8
OUTLINE
100
AcDbLine
 10
-198.0000000000018
 20
-354.2928932188146
 30
0.0
 11
-192.0000000000018
 21
-354.2928932188146
 31
0.0
  0
LINE
  5
4C37
330
2AAE
100
AcDbEntity
  8
OUTLINE
100
AcDbLine
 10
-192.0000000000018
 20
-354.2928932188146
 30
0.0
 11
-192.0000000000018
 21
-354.0000000000002
 31
0.0
  0
LINE
  5
4C38
330
2AAE
100
AcDbEntity
  8
OUTLINE
100
AcDbLine
 10
-192.0000000000018
 20
393.4999999999998
 30
0.0
 11
-192.0000000000018
 21
393.7928932188129
 31
0.0
  0
LINE
  5
4C39
330
2AAE
100
AcDbEntity
  8
OUTLINE
100
AcDbLine
 10
-192.0000000000018
 20
393.7928932188129
 30
0.0
 11
-198.0000000000018
 21
393.7928932188129
 31
0.0
  0
LINE
  5
4C3A
330
2AAE
100
AcDbEntity
  8
OUTLINE
100
AcDbLine
 10
-190.0000000000009
 20
-354.0000000000002
 30
0.0
 11
-190.0000000000009
 21
393.4999999999998
 31
0.0
  0
LINE
  5
4C3B
330
2AAE
100
AcDbEntity
  8
OUTLINE
100
AcDbLine
 10
-198.0000000000018
 20
393.7928932188129
 30
0.0
 11
-198.0000000000018
 21
-354.2928932188146
 31
0.0
  0
DIMENSION
  5
4C3C
330
2AAE
100
AcDbEntity
  8
SIZE
100
AcDbDimension
280
     0
  2
*D20
 10
-198.0000000000009
 20
874.8215520546876
 30
0.0
 11
-247.0000000000009
 21
909.8215520546876
 31
0.0
 70
    32
  1
{\H0.78125x;<>}
 71
     5
 42
8.0
 73
     0
 74
     0
 75
     0
  3
STANDARD$0
100
AcDbAlignedDimension
 13
-190.0000000000009
 23
393.4999999999998
 33
0.0
 14
-198.0000000000009
 24
395.5000000000008
 34
0.0
 50
180.0
100
AcDbRotatedDimension
1001
ACAD
1000
DSTYLE
1002
{
1070
    90
1070
     1
1070
   279
1070
     0
1070
   345
1005
2A9C
1070
   346
1005
2A9C
1070
   347
1005
2A9C
1002
}
  0
DIMENSION
  5
4C3D
330
2AAE
100
AcDbEntity
  8
SIZE
100
AcDbDimension
280
     0
  2
*D21
 10
-781.6072060229743
 20
-356.0000000000004
 30
0.0
 11
-781.6072060229742
 21
10.60792490478144
 31
0.0
 70
   160
  1
{\H0.78125x;<>}
 71
     5
 42
751.5000000000011
 73
     0
 74
     0
 75
     0
  3
STANDARD$0
100
AcDbAlignedDimension
 13
-198.0000000000009
 23
395.5000000000008
 33
0.0
 14
-198.0000000000009
 24
-356.0000000000002
 34
0.0
 50
90.0
100
AcDbRotatedDimension
1001
ACAD
1000
DSTYLE
1002
{
1070
    90
1070
     1
1070
   271
1070
     0
1070
   279
1070
     0
1070
   345
1005
2A9C
1070
   346
1005
2A9C
1070
   347
1005
2A9C
1002
}
  0
LINE
  5
5505
330
2AAE
100
AcDbEntity
  8
OUTLINE
100
AcDbLine
 10
294.0
 20
-289.5411404803986
 30
0.0
 11
49.96072111764807
 21
-302.3306971444686
 31
0.0
  0
LINE
  5
5506
330
2AAE
100
AcDbEntity
  8
OUTLINE
100
AcDbLine
 10
-48.03927888235193
 20
-307.466659514204
 30
0.0
 11
-125.0
 21
-311.4999999999996
 31
0.0
  0
LINE
  5
5528
330
2AAE
100
AcDbEntity
  8
OUTLINE
100
AcDbLine
 10
-0.0000000000000284
 20
-304.9510861086309
 30
0.0
 11
-2.000000000000028
 21
-305.0559016671904
 31
0.0
  0
DIMENSION
  5
553C
330
2AAE
100
AcDbEntity
  8
SIZE
100
AcDbDimension
280
     0
  2
*D29
 10
-662.4339677949389
 20
-335.0000000000002
 30
0.0
 11
-662.4339677949389
 21
-29.89207509521936
 31
0.0
 70
   160
  1
{\H0.78125x;<>}
 71
     5
 42
689.9999999999997
 73
     0
 74
     0
 75
     0
  3
STANDARD$0
100
AcDbAlignedDimension
 13
-135.0000000000009
 23
354.9999999999997
 33
0.0
 14
-190.0000000000009
 24
-335.0
 34
0.0
 50
90.0
100
AcDbRotatedDimension
1001
ACAD
1000
DSTYLE
1002
{
1070
    90
1070
     1
1070
   271
1070
     0
1070
   279
1070
     0
1070
   345
1005
2A9C
1070
   346
1005
2A9C
1070
   347
1005
2A9C
1002
}
  0
DIMENSION
  5
5579
330
2AAE
100
AcDbEntity
  8
SIZE
100
AcDbDimension
280
     0
  2
*D30
 10
-189.9999999998818
 20
-630.0774725930824
 30
0.0
 11
-358.1043827072204
 21
-630.0774725930824
 31
0.0
 70
   160
  1
{\H0.78125x;<>}
 71
     5
 42
28.5000000001177
 73
     0
 74
     0
 75
     0
  3
STANDARD$0
100
AcDbAlignedDimension
 13
-218.4999999999995
 23
-329.8999999999999
 33
0.0
 14
-189.9999999998818
 24
-356.0000000000002
 34
0.0
100
AcDbRotatedDimension
1001
ACAD
1000
DSTYLE
1002
{
1070
    90
1070
     1
1070
   279
1070
     0
1070
   345
1005
2A9C
1070
   346
1005
2A9C
1070
   347
1005
2A9C
1002
}
  0
DIMENSION
  5
55B4
330
2AAE
100
AcDbEntity
  8
SIZE
100
AcDbDimension
280
     0
  2
*D31
 10
294.0
 20
-630.8374725930824
 30
0.0
 11
52.00000000005907
 21
-595.8374725930824
 31
0.0
 70
    32
  1
{\H0.78125x;<>}
 71
     5
 42
483.9999999998818
 73
     0
 74
     0
 75
     0
  3
STANDARD$0
100
AcDbAlignedDimension
 13
-189.9999999998818
 23
-356.0000000000002
 33
0.0
 14
294.0
 24
-289.5411404803986
 34
0.0
100
AcDbRotatedDimension
1001
ACAD
1000
DSTYLE
1002
{
1070
   279
1070
     0
1070
    90
1070
     1
1070
   345
1005
2A9C
1070
   346
1005
2A9C
1070
   347
1005
2A9C
1002
}
  0
DIMENSION
  5
55C1
330
2AAE
100
AcDbEntity
  8
SIZE
100
AcDbDimension
280
     0
  2
*D32
 10
322.4999999999973
 20
-630.4574725930824
 30
0.0
 11
468.7925256801193
 21
-630.4574725930824
 31
0.0
 70
   160
  1
{\H0.78125x;<>}
 71
     5
 42
28.49999999999733
 73
     0
 74
     0
 75
     0
  3
STANDARD$0
100
AcDbAlignedDimension
 13
294.0
 23
-289.5411404803986
 33
0.0
 14
322.4999999999973
 24
-172.499324734084
 34
0.0
100
AcDbRotatedDimension
1001
ACAD
1000
DSTYLE
1002
{
1070
    90
1070
     1
1070
   279
1070
     0
1070
   345
1005
2A9C
1070
   346
1005
2A9C
1070
   347
1005
2A9C
1002
}
  0
VIEWPORT
  5
31AE
102
{ACAD_XDICTIONARY
360
31AF
102
}
330
2AAA
100
AcDbEntity
 67
     1
  8
0
100
AcDbViewport
 10
5.249999639556164
 20
3.999999883606678
 30
0.0
 40
20.27492946301379
 41
8.992999745766949
 68
     1
 69
     1
 12
5.249999639556164
 22
3.999999883606678
 13
0.0
 23
0.0
 14
10.0
 24
10.0
 15
10.0
 25
10.0
 16
0.0
 26
0.0
 36
1.0
 17
0.0
 27
0.0
 37
0.0
 42
50.0
 43
0.0
 44
0.0
 45
8.992999745766949
 50
0.0
 51
0.0
 72
   100
 90
   819232
  1

281
     0
 71
     1
 74
     0
110
0.0
120
0.0
130
0.0
111
1.0
121
0.0
131
0.0
112
0.0
122
1.0
132
0.0
 79
     0
146
0.0
170
     0
 61
     5
292
     1
282
     1
141
0.0
142
0.0
 63
   250
421
  3355443
  0
ENDSEC
  0
SECTION
  2
OBJECTS
  0
DICTIONARY
  5
2A46
330
0
100
AcDbDictionary
281
     1
  3
ACAD_CIP_PREVIOUS_PRODUCT_INFO
350
340A
  3
ACAD_COLOR
350
2AA4
  3
ACAD_DETAILVIEWSTYLE
350
3402
  3
ACAD_GROUP
350
2A47
  3
ACAD_LAST_SAVED_VERSION_INFO
350
4B4D
  3
ACAD_LAYOUT
350
2AA3
  3
ACAD_MATERIAL
350
2A4A
  3
ACAD_MLEADERSTYLE
350
2AA7
  3
ACAD_MLINESTYLE
350
2AA0
  3
ACAD_PLOTSETTINGS
350
2AA2
  3
ACAD_PLOTSTYLENAME
350
2A48
  3
ACAD_SCALELIST
350
2A74
  3
ACAD_SECTIONVIEWSTYLE
350
3400
  3
ACAD_TABLESTYLE
350
2AA5
  3
ACAD_VISUALSTYLE
350
2A63
  3
ACDB_RECOMPOSE_DATA
350
57DF
  3
AcDbVariableDictionary
350
2C26
  3
AcDsDecomposeData
350
57E5
  3
AcmDictionary
350
2BD9
  3
AMG
350
2B26
  3
AMGSNAPSETTINGS
350
2F76
  0
DICTIONARY
  5
2D35
330
2A3C
100
AcDbDictionary
280
     1
281
     1
  3
ACAD_LAYERSTATES
360
2D36
  0
DICTIONARY
  5
2C01
330
2A96
100
AcDbDictionary
280
     1
281
     1
  3
ADSK_XREC_LAYER_RECONCILED
360
2C02
  0
DICTIONARY
  5
2C03
330
2AC5
100
AcDbDictionary
280
     1
281
     1
  3
ADSK_XREC_LAYER_RECONCILED
360
2C04
  0
DICTIONARY
  5
2C05
330
2AC6
100
AcDbDictionary
280
     1
281
     1
  3
ADSK_XREC_LAYER_RECONCILED
360
2C06
  0
DICTIONARY
  5
2C07
330
2AC7
100
AcDbDictionary
280
     1
281
     1
  3
ADSK_XREC_LAYER_RECONCILED
360
2C08
  0
DICTIONARY
  5
2C09
330
2AC8
100
AcDbDictionary
280
     1
281
     1
  3
ADSK_XREC_LAYER_RECONCILED
360
2C0A
  0
DICTIONARY
  5
2C0B
330
2AC9
100
AcDbDictionary
280
     1
281
     1
  3
ADSK_XREC_LAYER_RECONCILED
360
2C0C
  0
DICTIONARY
  5
2C0D
330
2ACB
100
AcDbDictionary
280
     1
281
     1
  3
ADSK_XREC_LAYER_RECONCILED
360
2C0E
  0
DICTIONARY
  5
2C0F
330
2ACC
100
AcDbDictionary
280
     1
281
     1
  3
ADSK_XREC_LAYER_RECONCILED
360
2C10
  0
DICTIONARY
  5
2C11
330
2ACD
100
AcDbDictionary
280
     1
281
     1
  3
ADSK_XREC_LAYER_RECONCILED
360
2C12
  0
DICTIONARY
  5
2C13
330
2ACE
100
AcDbDictionary
280
     1
281
     1
  3
ADSK_XREC_LAYER_RECONCILED
360
2C14
  0
DICTIONARY
  5
2C15
330
2ACF
100
AcDbDictionary
280
     1
281
     1
  3
ADSK_XREC_LAYER_RECONCILED
360
2C16
  0
DICTIONARY
  5
2D25
330
2D24
100
AcDbDictionary
280
     1
281
     1
  0
DICTIONARY
  5
2D27
330
2D26
100
AcDbDictionary
280
     1
281
     1
  0
DICTIONARY
  5
54FA
330
54F9
100
AcDbDictionary
280
     1
281
     1
  0
DICTIONARY
  5
2C17
330
2AAE
100
AcDbDictionary
280
     1
281
     1
  3
ACAD_INDEX
360
5564
  0
DICTIONARY
  5
50A1
330
4FD8
100
AcDbDictionary
280
     1
281
     1
  0
DICTIONARY
  5
31AF
330
31AE
100
AcDbDictionary
280
     1
281
     1
  3
ASDK_XREC_ANNOTATION_SCALE_INFO
360
31B0
  0
XRECORD
  5
340A
102
{ACAD_REACTORS
330
2A46
102
}
330
2A46
100
AcDbXrecord
280
     1
300
ACD
300
2022
300

  0
DICTIONARY
  5
2AA4
102
{ACAD_REACTORS
330
2A46
102
}
330
2A46
100
AcDbDictionary
281
     1
  0
DICTIONARY
  5
3402
102
{ACAD_REACTORS
330
2A46
102
}
330
2A46
100
AcDbDictionary
281
     1
  3
Imperial24
350
3403
  3
Metric50
350
3413
  0
DICTIONARY
  5
2A47
102
{ACAD_REACTORS
330
2A46
102
}
330
2A46
100
AcDbDictionary
281
     1
  0
XRECORD
  5
4B4D
102
{ACAD_REACTORS
330
2A46
102
}
330
2A46
100
AcDbXrecord
280
     1
300
{2061CA7A-07CA-0C46-BDDE-F64C2C54D7F6}
301
{DC8003EE-A54B-A743-BEDC-FD68B4CA0CD1}
302
{2061CA7A-07CA-0C46-BDDE-F64C2C54D7F6}
303
\\x90s322080\X00000_本社（中部支３）\X90300_機本\X90350_産シC\10_所属員_社外秘\510_機マ部製開課\000_開発\000_WC\070_取付枠ほか\110_取付枠ﾗｲﾝｱｯﾌﾟ追加_改良\110_図面\量産図面\CAD図\SPW-60S-075(未完)\spw-60s-075_4.dwg
301
{36E6E128-0985-5745-9C27-716993D45B96}
302
{2762573B-EBAD-4949-BA29-124262D14930}
303
\\x90s322080\X00000_本社（中部支３）\X90300_機本\X90350_産シC\10_所属員_社外秘\510_機マ部製開課\000_開発\000_WC\070_取付枠ほか\110_取付枠ﾗｲﾝｱｯﾌﾟ追加_改良\110_図面\量産図面\CAD図\SPW-60S-050\spw-60s-050_4.dxf
  0
DICTIONARY
  5
2AA3
102
{ACAD_REACTORS
330
2A46
102
}
330
2A46
100
AcDbDictionary
281
     1
  3
Model
350
2AB1
  3
レイアウト1
350
2AAD
  0
DICTIONARY
  5
2A4A
102
{ACAD_REACTORS
330
2A46
102
}
330
2A46
100
AcDbDictionary
281
     1
  3
ByBlock
350
2A53
  3
ByLayer
350
2A4B
  3
Global
350
2A5B
  0
DICTIONARY
  5
2AA7
102
{ACAD_REACTORS
330
2A46
102
}
330
2A46
100
AcDbDictionary
281
     1
  3
Standard
350
2AA8
  0
DICTIONARY
  5
2AA0
102
{ACAD_REACTORS
330
2A46
102
}
330
2A46
100
AcDbDictionary
281
     1
  3
Standard
350
2AA1
  0
DICTIONARY
  5
2AA2
102
{ACAD_REACTORS
330
2A46
102
}
330
2A46
100
AcDbDictionary
281
     1
  0
ACDBDICTIONARYWDFLT
  5
2A48
102
{ACAD_REACTORS
330
2A46
102
}
330
2A46
100
AcDbDictionary
281
     1
  3
Normal
350
2A49
100
AcDbDictionaryWithDefault
340
2A49
  0
DICTIONARY
  5
2A74
102
{ACAD_REACTORS
330
2A46
102
}
330
2A46
100
AcDbDictionary
281
     1
  3
A0
350
2A75
  3
A1
350
2A76
  3
A2
350
2A77
  3
A3
350
2A78
  3
A4
350
2A79
  3
A5
350
2A7A
  3
A6
350
2A7B
  3
A7
350
2A7C
  3
A8
350
2A7D
  3
A9
350
2A7E
  3
B0
350
2A7F
  3
B1
350
2A80
  3
B2
350
2A81
  3
B3
350
2A82
  3
B4
350
2A83
  3
B5
350
2A84
  3
B6
350
2A85
  3
B7
350
2A86
  3
B8
350
2A87
  3
B9
350
2A88
  3
C0
350
2A89
  3
C1
350
2A8A
  3
C2
350
2A8B
  3
C3
350
2A8C
  3
C4
350
2A8D
  3
C5
350
2A8E
  3
C6
350
2A8F
  3
C7
350
2A90
  3
C8
350
2A91
  3
C9
350
2A92
  3
D0
350
2A93
  3
D1
350
2A94
  3
D2
350
2A95
  0
DICTIONARY
  5
3400
102
{ACAD_REACTORS
330
2A46
102
}
330
2A46
100
AcDbDictionary
281
     1
  3
Imperial24
350
3401
  3
Metric50
350
3412
  0
DICTIONARY
  5
2AA5
102
{ACAD_REACTORS
330
2A46
102
}
330
2A46
100
AcDbDictionary
281
     1
  3
Standard
350
2AA6
  0
DICTIONARY
  5
2A63
102
{ACAD_REACTORS
330
2A46
102
}
330
2A46
100
AcDbDictionary
281
     1
  3
2dWireframe
350
2A69
  3
3D Hidden
350
2A6B
  3
3dWireframe
350
2A6A
  3
Basic
350
2A68
  3
Brighten
350
2A6F
  3
ColorChange
350
2A73
  3
Conceptual
350
2A6C
  3
Dim
350
2A6E
  3
EdgeColorOff
350
33FF
  3
Facepattern
350
2A72
  3
Flat
350
2A64
  3
FlatWithEdges
350
2A65
  3
Gouraud
350
2A66
  3
GouraudWithEdges
350
2A67
  3
Hidden
350
33F7
  3
JitterOff
350
33FD
  3
Linepattern
350
2A71
  3
OverhangOff
350
33FE
  3
Realistic
350
2A6D
  3
Shaded
350
33FC
  3
Shaded with edges
350
33FB
  3
Shades of Gray
350
33F8
  3
Sketchy
350
33F9
  3
Thicken
350
2A70
  3
Wireframe
350
33F6
  3
X-Ray
350
33FA
  0
XRECORD
  5
57DF
102
{ACAD_REACTORS
330
2A46
102
}
330
2A46
100
AcDbXrecord
280
     1
 90
        1
330
2AA6
  0
DICTIONARY
  5
2C26
102
{ACAD_REACTORS
330
2A46
102
}
330
2A46
100
AcDbDictionary
281
     1
  3
CANNOSCALE
350
2C29
  3
CMLEADERSTYLE
350
2C28
  3
CTABLESTYLE
350
2C27
  3
CVIEWDETAILSTYLE
350
3896
  3
CVIEWSECTIONSTYLE
350
3897
  3
DIMASSOC
350
2C2C
  3
INDEXCTL
350
2C2B
  3
LAYEREVAL
350
389A
  3
LAYERNOTIFY
350
389B
  3
LIGHTINGUNITS
350
3899
  3
MSLTSCALE
350
3898
  3
SORTENTS
350
2C2A
  0
DICTIONARY
  5
57E5
102
{ACAD_REACTORS
330
2A46
102
}
330
2A46
100
AcDbDictionary
281
     1
  3
AcDsRecords
350
57E7
  3
AcDsSchemas
350
57E6
1001
ACAD
1070
     2
  0
DICTIONARY
  5
2BD9
102
{ACAD_REACTORS
330
2A46
102
}
330
2A46
100
AcDbDictionary
281
     1
  3
AcmStdDictionary
350
2BE7
  0
DICTIONARY
  5
2B26
102
{ACAD_REACTORS
330
2A46
102
}
330
2A46
100
AcDbDictionary
281
     1
  3
AcMgSettings
350
2B27
  0
DICTIONARY
  5
2F76
102
{ACAD_REACTORS
330
2A46
102
}
330
2A46
100
AcDbDictionary
281
     1
  3
DIMENSION
350
2F7B
  3
FEA
350
2F7A
  3
HATCH (1)
350
2F77
  3
HATCH (2)
350
2F78
  3
SIMPLE WELD
350
2F7C
  3
SYMBOLS
350
2F79
  0
DICTIONARY
  5
2D36
102
{ACAD_REACTORS
330
2D35
102
}
330
2D35
100
AcDbDictionary
281
     1
  0
XRECORD
  5
2C02
102
{ACAD_REACTORS
330
2C01
102
}
330
2C01
100
AcDbXrecord
280
     1
290
     1
  0
XRECORD
  5
2C04
102
{ACAD_REACTORS
330
2C03
102
}
330
2C03
100
AcDbXrecord
280
     1
290
     1
  0
XRECORD
  5
2C06
102
{ACAD_REACTORS
330
2C05
102
}
330
2C05
100
AcDbXrecord
280
     1
290
     1
  0
XRECORD
  5
2C08
102
{ACAD_REACTORS
330
2C07
102
}
330
2C07
100
AcDbXrecord
280
     1
290
     1
  0
XRECORD
  5
2C0A
102
{ACAD_REACTORS
330
2C09
102
}
330
2C09
100
AcDbXrecord
280
     1
290
     1
  0
XRECORD
  5
2C0C
102
{ACAD_REACTORS
330
2C0B
102
}
330
2C0B
100
AcDbXrecord
280
     1
290
     1
  0
XRECORD
  5
2C0E
102
{ACAD_REACTORS
330
2C0D
102
}
330
2C0D
100
AcDbXrecord
280
     1
290
     1
  0
XRECORD
  5
2C10
102
{ACAD_REACTORS
330
2C0F
102
}
330
2C0F
100
AcDbXrecord
280
     1
290
     1
  0
XRECORD
  5
2C12
102
{ACAD_REACTORS
330
2C11
102
}
330
2C11
100
AcDbXrecord
280
     1
290
     1
  0
XRECORD
  5
2C14
102
{ACAD_REACTORS
330
2C13
102
}
330
2C13
100
AcDbXrecord
280
     1
290
     1
  0
XRECORD
  5
2C16
102
{ACAD_REACTORS
330
2C15
102
}
330
2C15
100
AcDbXrecord
280
     1
290
     1
  0
DICTIONARY
  5
5564
102
{ACAD_REACTORS
330
2C17
102
}
330
2C17
100
AcDbDictionary
281
     1
  3
*A1
350
5565
  0
XRECORD
  5
31B0
102
{ACAD_REACTORS
330
31AF
102
}
330
31AF
100
AcDbXrecord
280
     1
 90
        1
340
2A75
  0
ACDBDETAILVIEWSTYLE
  5
3403
102
{ACAD_XDICTIONARY
360
581E
102
}
102
{ACAD_REACTORS
330
3402
102
}
330
3402
100
AcDbModelDocViewStyle
 70
     0
  3
Imperial24
290
     0
100
AcDbDetailViewStyle
 70
     0
 71
     0
 90
        3
 71
     1
340
2A97
 62
   256
 40
0.24
340
0
 62
   256
 40
0.24
300

 40
0.36
280
     3
 71
     2
340
2A9E
 90
       25
 62
   256
 71
     3
340
2A97
 62
   256
 40
0.24
 90
        1
 40
0.75
 90
        1
300
%<\AcVar ViewType \f "%tc1">% %<\AcVar ViewDetailId>%\PSCALE %<\AcVar ViewScale \f "%sn">%
 71
     4
340
2A9E
 90
       25
 62
   256
340
2A9E
 90
       25
 62
   256
280
     0
  0
ACDBDETAILVIEWSTYLE
  5
3413
102
{ACAD_XDICTIONARY
360
5822
102
}
102
{ACAD_REACTORS
330
3402
102
}
330
3402
100
AcDbModelDocViewStyle
 70
     0
  3
Metric50
290
     0
100
AcDbDetailViewStyle
 70
     0
 71
     0
 90
        3
 71
     1
340
2A97
 62
   256
 40
5.0
340
0
 62
   256
 40
5.0
300

 40
0.0
280
     1
 71
     2
340
2A9E
 90
       25
 62
   256
 71
     3
340
2A97
 62
   256
 40
5.0
 90
        0
 40
15.0
 90
        1
300
%<\AcVar ViewDetailId>% (%<\AcVar ViewScale \f "%sn">%)
 71
     4
340
2A9E
 90
       25
 62
   256
340
2A9E
 90
       25
 62
   256
280
     0
  0
LAYOUT
  5
2AB1
102
{ACAD_REACTORS
330
2AA3
102
}
330
2AA3
100
AcDbPlotSettings
  1

  2
iR-ADV 6565
  4
A4
  6

 40
5.873749732971191
 41
5.873748779296875
 42
5.873733520507812
 43
5.873748779296875
 44
209.9733276367186
 45
296.9259948730469
 46
0.0
 47
0.0
 48
-3784.064354206846
 49
-825.2487026210342
140
-1377.441415525914
141
1021.218862528823
142
1.0
143
9.314968847250774
 70
 11952
 72
     1
 73
     1
 74
     4
  7
KIHON1.ctb
 75
     0
147
0.1073540895732723
 76
     0
 77
     2
 78
   300
148
3784.064354206846
149
825.2487026210342
100
AcDbLayout
  1
Model
 70
     1
 71
     0
 10
0.0
 20
0.0
 11
12.0
 21
9.0
 12
0.0
 22
0.0
 32
0.0
 14
0.0
 24
0.0
 34
0.0
 15
0.0
 25
0.0
 35
0.0
146
0.0
 13
0.0
 23
0.0
 33
0.0
 16
1.0
 26
0.0
 36
0.0
 17
0.0
 27
1.0
 37
0.0
 76
     0
330
2AAE
331
2AB2
1001
ACAD_PSEXT
1000
iR-ADV 6565
1000
Canon Generic Plus LIPSLX
1000
IP_10.100.103.245
1000

1070
     0
  0
LAYOUT
  5
2AAD
102
{ACAD_XDICTIONARY
360
31B8
102
}
102
{ACAD_REACTORS
330
2AA3
102
}
330
2AA3
100
AcDbPlotSettings
  1

  2
none_device
  4
Letter_(8.50_x_11.00_Inches)
  6

 40
6.349999904632567
 41
6.349999904632567
 42
6.350006103515625
 43
6.350006103515625
 44
215.8999938964844
 45
279.3999938964844
 46
0.0
 47
0.0
 48
0.0
 49
0.0
140
0.0
141
0.0
142
1.0
143
1.0
 70
   688
 72
     0
 73
     1
 74
     5
  7
KIHON1.ctb
 75
    16
147
1.0
 76
     0
 77
     2
 78
   300
148
0.0
149
0.0
100
AcDbLayout
  1
レイアウト1
 70
     1
 71
     1
 10
-0.2500002402958907
 20
-0.2499999962453767
 11
10.74999951940822
 21
8.249999763458731
 12
0.0
 22
0.0
 32
0.0
 14
1.000000000000000E+20
 24
1.000000000000000E+20
 34
1.000000000000000E+20
 15
-1.000000000000000E+20
 25
-1.000000000000000E+20
 35
-1.000000000000000E+20
146
0.0
 13
0.0
 23
0.0
 33
0.0
 16
1.0
 26
0.0
 36
0.0
 17
0.0
 27
1.0
 37
0.0
 76
     0
330
2AAA
331
31AE
1001
ACAD_PSEXT
1000
なし
1000
なし
1000
適切ではありません
1000
新しいプロッタ環境設定名を選択しない限り、レイアウトは印刷されません。
1070
     0
  0
MATERIAL
  5
2A53
102
{ACAD_XDICTIONARY
360
2A54
102
}
102
{ACAD_REACTORS
330
2A4A
102
}
330
2A4A
100
AcDbMaterial
  1
ByBlock
 72
     0
 43
0.0208333333333333
 43
0.0
 43
0.0
 43
0.0
 43
0.0
 43
0.0208333333333333
 43
0.0
 43
0.0
 43
0.0
 43
0.0
 43
1.0
 43
0.0
 43
0.0
 43
0.0
 43
0.0
 43
1.0
 77
     0
 47
0.0208333333333333
 47
0.0
 47
0.0
 47
0.0
 47
0.0
 47
0.0208333333333333
 47
0.0
 47
0.0
 47
0.0
 47
0.0
 47
1.0
 47
0.0
 47
0.0
 47
0.0
 47
0.0
 47
1.0
171
     0
 49
0.0208333333333333
 49
0.0
 49
0.0
 49
0.0
 49
0.0
 49
0.0208333333333333
 49
0.0
 49
0.0
 49
0.0
 49
0.0
 49
1.0
 49
0.0
 49
0.0
 49
0.0
 49
0.0
 49
1.0
175
     0
142
0.0208333333333333
142
0.0
142
0.0
142
0.0
142
0.0
142
0.0208333333333333
142
0.0
142
0.0
142
0.0
142
0.0
142
1.0
142
0.0
142
0.0
142
0.0
142
0.0
142
1.0
179
     0
144
0.0208333333333333
144
0.0
144
0.0
144
0.0
144
0.0
144
0.0208333333333333
144
0.0
144
0.0
144
0.0
144
0.0
144
1.0
144
0.0
144
0.0
144
0.0
144
0.0
144
1.0
147
0.0208333333333333
147
0.0
147
0.0
147
0.0
147
0.0
147
0.0208333333333333
147
0.0
147
0.0
147
0.0
147
0.0
147
1.0
147
0.0
147
0.0
147
0.0
147
0.0
147
1.0
  0
MATERIAL
  5
2A4B
102
{ACAD_XDICTIONARY
360
2A4C
102
}
102
{ACAD_REACTORS
330
2A4A
102
}
330
2A4A
100
AcDbMaterial
  1
ByLayer
 72
     0
 43
0.0208333333333333
 43
0.0
 43
0.0
 43
0.0
 43
0.0
 43
0.0208333333333333
 43
0.0
 43
0.0
 43
0.0
 43
0.0
 43
1.0
 43
0.0
 43
0.0
 43
0.0
 43
0.0
 43
1.0
 77
     0
 47
0.0208333333333333
 47
0.0
 47
0.0
 47
0.0
 47
0.0
 47
0.0208333333333333
 47
0.0
 47
0.0
 47
0.0
 47
0.0
 47
1.0
 47
0.0
 47
0.0
 47
0.0
 47
0.0
 47
1.0
171
     0
 49
0.0208333333333333
 49
0.0
 49
0.0
 49
0.0
 49
0.0
 49
0.0208333333333333
 49
0.0
 49
0.0
 49
0.0
 49
0.0
 49
1.0
 49
0.0
 49
0.0
 49
0.0
 49
0.0
 49
1.0
175
     0
142
0.0208333333333333
142
0.0
142
0.0
142
0.0
142
0.0
142
0.0208333333333333
142
0.0
142
0.0
142
0.0
142
0.0
142
1.0
142
0.0
142
0.0
142
0.0
142
0.0
142
1.0
179
     0
144
0.0208333333333333
144
0.0
144
0.0
144
0.0
144
0.0
144
0.0208333333333333
144
0.0
144
0.0
144
0.0
144
0.0
144
1.0
144
0.0
144
0.0
144
0.0
144
0.0
144
1.0
147
0.0208333333333333
147
0.0
147
0.0
147
0.0
147
0.0
147
0.0208333333333333
147
0.0
147
0.0
147
0.0
147
0.0
147
1.0
147
0.0
147
0.0
147
0.0
147
0.0
147
1.0
  0
MATERIAL
  5
2A5B
102
{ACAD_XDICTIONARY
360
2A5C
102
}
102
{ACAD_REACTORS
330
2A4A
102
}
330
2A4A
100
AcDbMaterial
  1
Global
 72
     0
 43
0.0208333333333333
 43
0.0
 43
0.0
 43
0.0
 43
0.0
 43
0.0208333333333333
 43
0.0
 43
0.0
 43
0.0
 43
0.0
 43
1.0
 43
0.0
 43
0.0
 43
0.0
 43
0.0
 43
1.0
 77
     0
 47
0.0208333333333333
 47
0.0
 47
0.0
 47
0.0
 47
0.0
 47
0.0208333333333333
 47
0.0
 47
0.0
 47
0.0
 47
0.0
 47
1.0
 47
0.0
 47
0.0
 47
0.0
 47
0.0
 47
1.0
171
     0
 49
0.0208333333333333
 49
0.0
 49
0.0
 49
0.0
 49
0.0
 49
0.0208333333333333
 49
0.0
 49
0.0
 49
0.0
 49
0.0
 49
1.0
 49
0.0
 49
0.0
 49
0.0
 49
0.0
 49
1.0
175
     0
142
0.0208333333333333
142
0.0
142
0.0
142
0.0
142
0.0
142
0.0208333333333333
142
0.0
142
0.0
142
0.0
142
0.0
142
1.0
142
0.0
142
0.0
142
0.0
142
0.0
142
1.0
179
     0
144
0.0208333333333333
144
0.0
144
0.0
144
0.0
144
0.0
144
0.0208333333333333
144
0.0
144
0.0
144
0.0
144
0.0
144
1.0
144
0.0
144
0.0
144
0.0
144
0.0
144
1.0
147
0.0208333333333333
147
0.0
147
0.0
147
0.0
147
0.0
147
0.0208333333333333
147
0.0
147
0.0
147
0.0
147
0.0
147
1.0
147
0.0
147
0.0
147
0.0
147
0.0
147
1.0
  0
MLEADERSTYLE
  5
2AA8
102
{ACAD_REACTORS
330
2AA7
330
3E92
330
3E93
330
40B8
102
}
330
2AA7
100
AcDbMLeaderStyle
179
     2
170
     2
171
     1
172
     0
 90
        2
 40
0.0
 41
0.0
173
     1
 91
-1056964608
340
2A9C
 92
       -2
290
     1
 42
0.09
291
     1
 43
0.36
  3
Standard
 44
0.18
300

342
2A97
174
     1
178
     6
175
     1
176
     0
 93
-1056964608
 45
0.18
292
     0
297
     0
 46
0.18
 94
-1056964608
 47
1.0
 49
1.0
140
1.0
293
     1
141
0.0
294
     1
177
     0
142
1.0
295
     0
296
     0
143
0.125
271
     0
272
     9
273
     9
1001
ACAD_MLEADERVER
1070
     2
  0
MLINESTYLE
  5
2AA1
102
{ACAD_REACTORS
330
2AA0
102
}
330
2AA0
100
AcDbMlineStyle
  2
STANDARD
 70
     0
  3

 62
   256
 51
90.0
 52
90.0
 71
     2
 49
0.5
 62
   256
  6
BYLAYER
 49
-0.5
 62
   256
  6
BYLAYER
  0
ACDBPLACEHOLDER
  5
2A49
102
{ACAD_REACTORS
330
2A48
102
}
330
2A48
  0
SCALE
  5
2A75
102
{ACAD_REACTORS
330
2A74
102
}
330
2A74
100
AcDbScale
 70
     0
300
1:1
140
1.0
141
1.0
290
     1
  0
SCALE
  5
2A76
102
{ACAD_REACTORS
330
2A74
102
}
330
2A74
100
AcDbScale
 70
     0
300
1:2
140
1.0
141
2.0
290
     0
  0
SCALE
  5
2A77
102
{ACAD_REACTORS
330
2A74
102
}
330
2A74
100
AcDbScale
 70
     0
300
1:4
140
1.0
141
4.0
290
     0
  0
SCALE
  5
2A78
102
{ACAD_REACTORS
330
2A74
102
}
330
2A74
100
AcDbScale
 70
     0
300
1:5
140
1.0
141
5.0
290
     0
  0
SCALE
  5
2A79
102
{ACAD_REACTORS
330
2A74
102
}
330
2A74
100
AcDbScale
 70
     0
300
1:8
140
1.0
141
8.0
290
     0
  0
SCALE
  5
2A7A
102
{ACAD_REACTORS
330
2A74
102
}
330
2A74
100
AcDbScale
 70
     0
300
1:10
140
1.0
141
10.0
290
     0
  0
SCALE
  5
2A7B
102
{ACAD_REACTORS
330
2A74
102
}
330
2A74
100
AcDbScale
 70
     0
300
1:16
140
1.0
141
16.0
290
     0
  0
SCALE
  5
2A7C
102
{ACAD_REACTORS
330
2A74
102
}
330
2A74
100
AcDbScale
 70
     0
300
1:20
140
1.0
141
20.0
290
     0
  0
SCALE
  5
2A7D
102
{ACAD_REACTORS
330
2A74
102
}
330
2A74
100
AcDbScale
 70
     0
300
1:30
140
1.0
141
30.0
290
     0
  0
SCALE
  5
2A7E
102
{ACAD_REACTORS
330
2A74
102
}
330
2A74
100
AcDbScale
 70
     0
300
1:40
140
1.0
141
40.0
290
     0
  0
SCALE
  5
2A7F
102
{ACAD_REACTORS
330
2A74
102
}
330
2A74
100
AcDbScale
 70
     0
300
1:50
140
1.0
141
50.0
290
     0
  0
SCALE
  5
2A80
102
{ACAD_REACTORS
330
2A74
102
}
330
2A74
100
AcDbScale
 70
     0
300
1:100
140
1.0
141
100.0
290
     0
  0
SCALE
  5
2A81
102
{ACAD_REACTORS
330
2A74
102
}
330
2A74
100
AcDbScale
 70
     0
300
2:1
140
2.0
141
1.0
290
     0
  0
SCALE
  5
2A82
102
{ACAD_REACTORS
330
2A74
102
}
330
2A74
100
AcDbScale
 70
     0
300
4:1
140
4.0
141
1.0
290
     0
  0
SCALE
  5
2A83
102
{ACAD_REACTORS
330
2A74
102
}
330
2A74
100
AcDbScale
 70
     0
300
8:1
140
8.0
141
1.0
290
     0
  0
SCALE
  5
2A84
102
{ACAD_REACTORS
330
2A74
102
}
330
2A74
100
AcDbScale
 70
     0
300
10:1
140
10.0
141
1.0
290
     0
  0
SCALE
  5
2A85
102
{ACAD_REACTORS
330
2A74
102
}
330
2A74
100
AcDbScale
 70
     0
300
100:1
140
100.0
141
1.0
290
     0
  0
SCALE
  5
2A86
102
{ACAD_REACTORS
330
2A74
102
}
330
2A74
100
AcDbScale
 70
     0
300
1/128" = 1'-0"
140
0.0078125
141
12.0
290
     0
  0
SCALE
  5
2A87
102
{ACAD_REACTORS
330
2A74
102
}
330
2A74
100
AcDbScale
 70
     0
300
1/64" = 1'-0"
140
0.015625
141
12.0
290
     0
  0
SCALE
  5
2A88
102
{ACAD_REACTORS
330
2A74
102
}
330
2A74
100
AcDbScale
 70
     0
300
1/32" = 1'-0"
140
0.03125
141
12.0
290
     0
  0
SCALE
  5
2A89
102
{ACAD_REACTORS
330
2A74
102
}
330
2A74
100
AcDbScale
 70
     0
300
1/16" = 1'-0"
140
0.0625
141
12.0
290
     0
  0
SCALE
  5
2A8A
102
{ACAD_REACTORS
330
2A74
102
}
330
2A74
100
AcDbScale
 70
     0
300
3/32" = 1'-0"
140
0.09375
141
12.0
290
     0
  0
SCALE
  5
2A8B
102
{ACAD_REACTORS
330
2A74
102
}
330
2A74
100
AcDbScale
 70
     0
300
1/8" = 1'-0"
140
0.125
141
12.0
290
     0
  0
SCALE
  5
2A8C
102
{ACAD_REACTORS
330
2A74
102
}
330
2A74
100
AcDbScale
 70
     0
300
3/16" = 1'-0"
140
0.1875
141
12.0
290
     0
  0
SCALE
  5
2A8D
102
{ACAD_REACTORS
330
2A74
102
}
330
2A74
100
AcDbScale
 70
     0
300
1/4" = 1'-0"
140
0.25
141
12.0
290
     0
  0
SCALE
  5
2A8E
102
{ACAD_REACTORS
330
2A74
102
}
330
2A74
100
AcDbScale
 70
     0
300
3/8" = 1'-0"
140
0.375
141
12.0
290
     0
  0
SCALE
  5
2A8F
102
{ACAD_REACTORS
330
2A74
102
}
330
2A74
100
AcDbScale
 70
     0
300
1/2" = 1'-0"
140
0.5
141
12.0
290
     0
  0
SCALE
  5
2A90
102
{ACAD_REACTORS
330
2A74
102
}
330
2A74
100
AcDbScale
 70
     0
300
3/4" = 1'-0"
140
0.75
141
12.0
290
     0
  0
SCALE
  5
2A91
102
{ACAD_REACTORS
330
2A74
102
}
330
2A74
100
AcDbScale
 70
     0
300
1" = 1'-0"
140
1.0
141
12.0
290
     0
  0
SCALE
  5
2A92
102
{ACAD_REACTORS
330
2A74
102
}
330
2A74
100
AcDbScale
 70
     0
300
1-1/2" = 1'-0"
140
1.5
141
12.0
290
     0
  0
SCALE
  5
2A93
102
{ACAD_REACTORS
330
2A74
102
}
330
2A74
100
AcDbScale
 70
     0
300
3" = 1'-0"
140
3.0
141
12.0
290
     0
  0
SCALE
  5
2A94
102
{ACAD_REACTORS
330
2A74
102
}
330
2A74
100
AcDbScale
 70
     0
300
6" = 1'-0"
140
6.0
141
12.0
290
     0
  0
SCALE
  5
2A95
102
{ACAD_REACTORS
330
2A74
102
}
330
2A74
100
AcDbScale
 70
     0
300
1'-0" = 1'-0"
140
12.0
141
12.0
290
     0
  0
ACDBSECTIONVIEWSTYLE
  5
3401
102
{ACAD_XDICTIONARY
360
581C
102
}
102
{ACAD_REACTORS
330
3400
102
}
330
3400
100
AcDbModelDocViewStyle
 70
     0
  3
Imperial24
290
     0
100
AcDbSectionViewStyle
 70
     0
 71
     0
 90
       78
 71
     1
340
2A97
 62
   256
 40
0.24
340
0
340
0
 62
   256
 40
0.24
300
I, O, Q, S, X, Z
 40
0.48
 90
        3
 40
0.18
 90
        1
 71
     2
340
2A9E
 90
       25
 62
   256
340
2A9E
 90
       50
 62
   256
 40
0.24
 40
0.0
 40
0.24
 71
     3
340
2A97
 62
   256
 40
0.24
 90
        1
 40
0.75
 90
        1
300
%<\AcVar ViewType \f "%tc1">% %<\AcVar ViewSectionStartId>%-%<\AcVar ViewSectionEndId>%\PSCALE %<\AcVar ViewScale \f "%sn">%
 71
     4
 62
   256
 62
   257
300
ANSI31
 40
1.0
 90
        0
290
     0
290
     0
 90
        6
 40
0.0
 40
1.570796326794896
 40
0.2617993877991494
 40
1.308996938995747
 40
-0.2617993877991494
 40
1.832595714594044
  0
ACDBSECTIONVIEWSTYLE
  5
3412
102
{ACAD_XDICTIONARY
360
5820
102
}
102
{ACAD_REACTORS
330
3400
102
}
330
3400
100
AcDbModelDocViewStyle
 70
     0
  3
Metric50
290
     0
100
AcDbSectionViewStyle
 70
     0
 71
     0
 90
      102
 71
     1
340
2A97
 62
   256
 40
5.0
340
0
340
0
 62
   256
 40
5.0
300
I, O, Q, S, X, Z
 40
10.0
 90
        0
 40
2.5
 90
        0
 71
     2
340
2A9E
 90
       25
 62
   256
340
2A9E
 90
       50
 62
   256
 40
5.0
 40
2.5
 40
5.0
 71
     3
340
2A97
 62
   256
 40
5.0
 90
        0
 40
15.0
 90
        1
300
%<\AcVar ViewSectionStartId>%-%<\AcVar ViewSectionEndId>% (%<\AcVar ViewScale \f "%sn">%)
 71
     4
 62
   256
 62
   257
300
ANSI31
 40
1.0
 90
        0
290
     0
290
     0
 90
        6
 40
0.0
 40
1.570796326794896
 40
0.2617993877991494
 40
1.308996938995747
 40
-0.2617993877991494
 40
1.832595714594044
  0
TABLESTYLE
  5
2AA6
102
{ACAD_XDICTIONARY
360
2C2D
102
}
102
{ACAD_REACTORS
330
2AA5
102
}
330
2AA5
100
AcDbTableStyle
280
     0
  3
Standard
 70
     0
 71
     0
 40
0.06
 41
0.06
280
     0
281
     0
  7
STANDARD
140
0.18
170
     2
 62
     0
 63
     7
283
     0
 90
      512
 91
        0
  1

274
    -2
284
     1
 64
     0
275
    -2
285
     1
 65
     0
276
    -2
286
     1
 66
     0
277
    -2
287
     1
 67
     0
278
    -2
288
     1
 68
     0
279
    -2
289
     1
 69
     0
  7
STANDARD
140
0.25
170
     5
 62
     0
 63
     7
283
     0
 90
      512
 91
        0
  1

274
    -2
284
     1
 64
     0
275
    -2
285
     1
 65
     0
276
    -2
286
     1
 66
     0
277
    -2
287
     1
 67
     0
278
    -2
288
     1
 68
     0
279
    -2
289
     1
 69
     0
  7
STANDARD
140
0.18
170
     5
 62
     0
 63
     7
283
     0
 90
      512
 91
        0
  1

274
    -2
284
     1
 64
     0
275
    -2
285
     1
 65
     0
276
    -2
286
     1
 66
     0
277
    -2
287
     1
 67
     0
278
    -2
288
     1
 68
     0
279
    -2
289
     1
 69
     0
  0
VISUALSTYLE
  5
2A69
102
{ACAD_XDICTIONARY
360
57F2
102
}
102
{ACAD_REACTORS
330
2A63
102
}
330
2A63
100
AcDbVisualStyle
  2

 70
     4
177
     2
291
     0
 71
     0
176
     1
 72
     2
176
     1
 73
     0
176
     1
 90
        0
176
     1
 40
0.6
176
     1
 41
30.0
176
     1
 63
     7
176
     1
 74
     1
176
     1
 91
        4
176
     1
 64
     7
176
     1
 65
   257
176
     1
 75
     1
176
     1
175
     1
176
     1
 42
1.0
176
     1
 92
        0
176
     1
 66
   257
176
     1
 43
1.0
176
     1
 76
     1
176
     1
 77
     6
176
     1
 78
     2
176
     1
 67
     7
176
     1
 79
     5
176
     1
170
     0
176
     1
171
     0
176
     1
290
     0
176
     1
 93
        1
176
     1
 44
0.0
176
     1
173
     0
176
     1
1001
ACAD
1000
AcDbSavedByObjectVersion
1070
     0
  0
VISUALSTYLE
  5
2A6B
102
{ACAD_XDICTIONARY
360
57F6
102
}
102
{ACAD_REACTORS
330
2A63
102
}
330
2A63
100
AcDbVisualStyle
  2

 70
     6
177
     2
291
     0
 71
     1
176
     1
 72
     2
176
     1
 73
     2
176
     1
 90
        0
176
     1
 40
0.6
176
     1
 41
30.0
176
     1
 63
     7
176
     1
 74
     2
176
     1
 91
        2
176
     1
 64
     7
176
     1
 65
   257
176
     1
 75
     2
176
     1
175
     1
176
     1
 42
40.0
176
     1
 92
        0
176
     1
 66
   257
176
     1
 43
1.0
176
     1
 76
     1
176
     1
 77
     6
176
     1
 78
     2
176
     1
 67
     7
176
     1
 79
     3
176
     1
170
     0
176
     1
171
     0
176
     1
290
     0
176
     1
 93
        1
176
     1
 44
0.0
176
     1
173
     0
176
     1
1001
ACAD
1000
AcDbSavedByObjectVersion
1070
     0
  0
VISUALSTYLE
  5
2A6A
102
{ACAD_XDICTIONARY
360
57F4
102
}
102
{ACAD_REACTORS
330
2A63
102
}
330
2A63
100
AcDbVisualStyle
  2

 70
     5
177
     2
291
     0
 71
     0
176
     1
 72
     2
176
     1
 73
     0
176
     1
 90
        0
176
     1
 40
0.6
176
     1
 41
30.0
176
     1
 63
     7
176
     1
 74
     1
176
     1
 91
        4
176
     1
 64
     7
176
     1
 65
   257
176
     1
 75
     1
176
     1
175
     1
176
     1
 42
1.0
176
     1
 92
        0
176
     1
 66
   257
176
     1
 43
1.0
176
     1
 76
     1
176
     1
 77
     6
176
     1
 78
     2
176
     1
 67
     7
176
     1
 79
     5
176
     1
170
     0
176
     1
171
     0
176
     1
290
     0
176
     1
 93
        1
176
     1
 44
0.0
176
     1
173
     0
176
     1
1001
ACAD
1000
AcDbSavedByObjectVersion
1070
     0
  0
VISUALSTYLE
  5
2A68
102
{ACAD_XDICTIONARY
360
57F0
102
}
102
{ACAD_REACTORS
330
2A63
102
}
330
2A63
100
AcDbVisualStyle
  2

 70
     7
177
     2
291
     1
 71
     1
176
     1
 72
     0
176
     1
 73
     1
176
     1
 90
        0
176
     1
 40
0.6
176
     1
 41
30.0
176
     1
 63
     7
176
     1
 74
     0
176
     1
 91
        4
176
     1
 64
     7
176
     1
 65
   257
176
     1
 75
     1
176
     1
175
     1
176
     1
 42
1.0
176
     1
 92
        8
176
     1
 66
     7
176
     1
 43
1.0
176
     1
 76
     1
176
     1
 77
     6
176
     1
 78
     2
176
     1
 67
     7
176
     1
 79
     5
176
     1
170
     0
176
     1
171
     0
176
     1
290
     0
176
     1
 93
        1
176
     1
 44
0.0
176
     1
173
     0
176
     1
1001
ACAD
1000
AcDbSavedByObjectVersion
1070
     0
  0
VISUALSTYLE
  5
2A6F
102
{ACAD_XDICTIONARY
360
57FE
102
}
102
{ACAD_REACTORS
330
2A63
102
}
330
2A63
100
AcDbVisualStyle
  2

 70
    12
177
     2
291
     1
 71
     2
176
     1
 72
     2
176
     1
 73
     0
176
     1
 90
        0
176
     1
 40
0.6
176
     1
 41
30.0
176
     1
 63
     7
176
     1
 74
     1
176
     1
 91
        4
176
     1
 64
     7
176
     1
 65
   257
176
     1
 75
     1
176
     1
175
     1
176
     1
 42
1.0
176
     1
 92
        8
176
     1
 66
     7
176
     1
 43
1.0
176
     1
 76
     1
176
     1
 77
     6
176
     1
 78
     2
176
     1
 67
     7
176
     1
 79
     5
176
     1
170
     0
176
     1
171
     0
176
     1
290
     0
176
     1
 93
        1
176
     1
 44
50.0
176
     1
173
     0
176
     1
1001
ACAD
1000
AcDbSavedByObjectVersion
1070
     0
  0
VISUALSTYLE
  5
2A73
102
{ACAD_XDICTIONARY
360
5806
102
}
102
{ACAD_REACTORS
330
2A63
102
}
330
2A63
100
AcDbVisualStyle
  2

 70
    16
177
     2
291
     1
 71
     2
176
     1
 72
     2
176
     1
 73
     3
176
     1
 90
        0
176
     1
 40
0.6
176
     1
 41
30.0
176
     1
 63
     8
176
     1
 74
     1
176
     1
 91
        4
176
     1
 64
     7
176
     1
 65
   257
176
     1
 75
     1
176
     1
175
     1
176
     1
 42
1.0
176
     1
 92
        8
176
     1
 66
     8
176
     1
 43
1.0
176
     1
 76
     1
176
     1
 77
     6
176
     1
 78
     2
176
     1
 67
     7
176
     1
 79
     5
176
     1
170
     0
176
     1
171
     0
176
     1
290
     0
176
     1
 93
        1
176
     1
 44
0.0
176
     1
173
     0
176
     1
1001
ACAD
1000
AcDbSavedByObjectVersion
1070
     0
  0
VISUALSTYLE
  5
2A6C
102
{ACAD_XDICTIONARY
360
57F8
102
}
102
{ACAD_REACTORS
330
2A63
102
}
330
2A63
100
AcDbVisualStyle
  2

 70
     9
177
     2
291
     0
 71
     3
176
     1
 72
     2
176
     1
 73
     0
176
     1
 90
        0
176
     1
 40
0.6
176
     1
 41
30.0
176
     1
 63
     7
176
     1
 74
     2
176
     1
 91
        2
176
     1
 64
     7
176
     1
 65
   257
176
     1
 75
     1
176
     1
175
     1
176
     1
 42
40.0
176
     1
 92
        8
176
     1
 66
     7
176
     1
 43
1.0
176
     1
 76
     1
176
     1
 77
     6
176
     1
 78
     2
176
     1
 67
     7
176
     1
 79
     3
176
     1
170
     0
176
     1
171
     0
176
     1
290
     0
176
     1
 93
        1
176
     1
 44
0.0
176
     1
173
     0
176
     1
1001
ACAD
1000
AcDbSavedByObjectVersion
1070
     0
  0
VISUALSTYLE
  5
2A6E
102
{ACAD_XDICTIONARY
360
57FC
102
}
102
{ACAD_REACTORS
330
2A63
102
}
330
2A63
100
AcDbVisualStyle
  2

 70
    11
177
     2
291
     1
 71
     2
176
     1
 72
     2
176
     1
 73
     0
176
     1
 90
        0
176
     1
 40
0.6
176
     1
 41
30.0
176
     1
 63
     7
176
     1
 74
     1
176
     1
 91
        4
176
     1
 64
     7
176
     1
 65
   257
176
     1
 75
     1
176
     1
175
     1
176
     1
 42
1.0
176
     1
 92
        8
176
     1
 66
     7
176
     1
 43
1.0
176
     1
 76
     1
176
     1
 77
     6
176
     1
 78
     2
176
     1
 67
     7
176
     1
 79
     5
176
     1
170
     0
176
     1
171
     0
176
     1
290
     0
176
     1
 93
        1
176
     1
 44
-50.0
176
     1
173
     0
176
     1
1001
ACAD
1000
AcDbSavedByObjectVersion
1070
     0
  0
VISUALSTYLE
  5
33FF
102
{ACAD_XDICTIONARY
360
581A
102
}
102
{ACAD_REACTORS
330
2A63
102
}
330
2A63
100
AcDbVisualStyle
  2

 70
    22
177
     2
291
     1
 71
     2
176
     0
 72
     2
176
     0
 73
     0
176
     0
 90
        0
176
     0
 40
0.6
176
     0
 41
30.0
176
     0
 63
     7
421
 16777215
176
     0
 74
     1
176
     0
 91
        4
176
     0
 64
     7
176
     0
 65
   257
176
     0
 75
     1
176
     0
175
     1
176
     0
 42
1.0
176
     0
 92
        8
176
     2
 66
     7
176
     0
 43
1.0
176
     0
 76
     1
176
     0
 77
     6
176
     0
 78
     2
176
     0
 67
     7
176
     0
 79
     5
176
     0
170
     0
176
     0
171
     0
176
     0
290
     0
176
     0
 93
        1
176
     0
 44
0.0
176
     0
173
     0
176
     0
1001
ACAD
1000
AcDbSavedByObjectVersion
1070
     0
  0
VISUALSTYLE
  5
2A72
102
{ACAD_XDICTIONARY
360
5804
102
}
102
{ACAD_REACTORS
330
2A63
102
}
330
2A63
100
AcDbVisualStyle
  2

 70
    15
177
     2
291
     1
 71
     2
176
     1
 72
     2
176
     1
 73
     0
176
     1
 90
        0
176
     1
 40
0.6
176
     1
 41
30.0
176
     1
 63
     7
176
     1
 74
     1
176
     1
 91
        4
176
     1
 64
     7
176
     1
 65
   257
176
     1
 75
     1
176
     1
175
     1
176
     1
 42
1.0
176
     1
 92
        8
176
     1
 66
     7
176
     1
 43
1.0
176
     1
 76
     1
176
     1
 77
     6
176
     1
 78
     2
176
     1
 67
     7
176
     1
 79
     5
176
     1
170
     0
176
     1
171
     0
176
     1
290
     0
176
     1
 93
        1
176
     1
 44
0.0
176
     1
173
     0
176
     1
1001
ACAD
1000
AcDbSavedByObjectVersion
1070
     0
  0
VISUALSTYLE
  5
2A64
102
{ACAD_XDICTIONARY
360
57E8
102
}
102
{ACAD_REACTORS
330
2A63
102
}
330
2A63
100
AcDbVisualStyle
  2

 70
     0
177
     2
291
     1
 71
     2
176
     1
 72
     1
176
     1
 73
     1
176
     1
 90
        2
176
     1
 40
0.6
176
     1
 41
30.0
176
     1
 63
     7
176
     1
 74
     0
176
     1
 91
        4
176
     1
 64
     7
176
     1
 65
   257
176
     1
 75
     1
176
     1
175
     1
176
     1
 42
1.0
176
     1
 92
        8
176
     1
 66
     7
176
     1
 43
1.0
176
     1
 76
     1
176
     1
 77
     6
176
     1
 78
     2
176
     1
 67
     7
176
     1
 79
     5
176
     1
170
     0
176
     1
171
     0
176
     1
290
     0
176
     1
 93
       13
176
     1
 44
0.0
176
     1
173
     0
176
     1
1001
ACAD
1000
AcDbSavedByObjectVersion
1070
     0
  0
VISUALSTYLE
  5
2A65
102
{ACAD_XDICTIONARY
360
57EA
102
}
102
{ACAD_REACTORS
330
2A63
102
}
330
2A63
100
AcDbVisualStyle
  2

 70
     1
177
     2
291
     1
 71
     2
176
     1
 72
     1
176
     1
 73
     1
176
     1
 90
        2
176
     1
 40
0.6
176
     1
 41
30.0
176
     1
 63
     7
176
     1
 74
     1
176
     1
 91
        4
176
     1
 64
     7
176
     1
 65
   257
176
     1
 75
     1
176
     1
175
     1
176
     1
 42
1.0
176
     1
 92
        0
176
     1
 66
   257
176
     1
 43
1.0
176
     1
 76
     1
176
     1
 77
     6
176
     1
 78
     2
176
     1
 67
     7
176
     1
 79
     5
176
     1
170
     0
176
     1
171
     0
176
     1
290
     0
176
     1
 93
       13
176
     1
 44
0.0
176
     1
173
     0
176
     1
1001
ACAD
1000
AcDbSavedByObjectVersion
1070
     0
  0
VISUALSTYLE
  5
2A66
102
{ACAD_XDICTIONARY
360
57EC
102
}
102
{ACAD_REACTORS
330
2A63
102
}
330
2A63
100
AcDbVisualStyle
  2

 70
     2
177
     2
291
     1
 71
     2
176
     1
 72
     2
176
     1
 73
     1
176
     1
 90
        2
176
     1
 40
0.6
176
     1
 41
30.0
176
     1
 63
     7
176
     1
 74
     0
176
     1
 91
        4
176
     1
 64
     7
176
     1
 65
   257
176
     1
 75
     1
176
     1
175
     1
176
     1
 42
1.0
176
     1
 92
        0
176
     1
 66
     7
176
     1
 43
1.0
176
     1
 76
     1
176
     1
 77
     6
176
     1
 78
     2
176
     1
 67
     7
176
     1
 79
     5
176
     1
170
     0
176
     1
171
     0
176
     1
290
     0
176
     1
 93
       13
176
     1
 44
0.0
176
     1
173
     0
176
     1
1001
ACAD
1000
AcDbSavedByObjectVersion
1070
     0
  0
VISUALSTYLE
  5
2A67
102
{ACAD_XDICTIONARY
360
57EE
102
}
102
{ACAD_REACTORS
330
2A63
102
}
330
2A63
100
AcDbVisualStyle
  2

 70
     3
177
     2
291
     1
 71
     2
176
     1
 72
     2
176
     1
 73
     1
176
     1
 90
        2
176
     1
 40
0.6
176
     1
 41
30.0
176
     1
 63
     7
176
     1
 74
     1
176
     1
 91
        4
176
     1
 64
     7
176
     1
 65
   257
176
     1
 75
     1
176
     1
175
     1
176
     1
 42
1.0
176
     1
 92
        0
176
     1
 66
   257
176
     1
 43
1.0
176
     1
 76
     1
176
     1
 77
     6
176
     1
 78
     2
176
     1
 67
     7
176
     1
 79
     5
176
     1
170
     0
176
     1
171
     0
176
     1
290
     0
176
     1
 93
       13
176
     1
 44
0.0
176
     1
173
     0
176
     1
1001
ACAD
1000
AcDbSavedByObjectVersion
1070
     0
  0
VISUALSTYLE
  5
33F7
102
{ACAD_XDICTIONARY
360
580A
102
}
102
{ACAD_REACTORS
330
2A63
102
}
330
2A63
100
AcDbVisualStyle
  2

 70
     6
177
     2
291
     0
 71
     1
176
     1
 72
     2
176
     1
 73
     2
176
     1
 90
        0
176
     1
 40
0.6
176
     1
 41
30.0
176
     1
 63
     7
421
 16777215
176
     1
 74
     2
176
     1
 91
        2
176
     1
 64
     7
176
     1
 65
   257
176
     1
 75
     2
176
     1
175
     1
176
     1
 42
40.0
176
     1
 92
        0
176
     1
 66
   257
176
     1
 43
1.0
176
     1
 76
     1
176
     1
 77
     6
176
     1
 78
     2
176
     1
 67
     7
176
     1
 79
     3
176
     1
170
     0
176
     1
171
     0
176
     1
290
     0
176
     1
 93
        1
176
     1
 44
0.0
176
     1
173
     0
176
     1
1001
ACAD
1000
AcDbSavedByObjectVersion
1070
     0
  0
VISUALSTYLE
  5
33FD
102
{ACAD_XDICTIONARY
360
5816
102
}
102
{ACAD_REACTORS
330
2A63
102
}
330
2A63
100
AcDbVisualStyle
  2

 70
    20
177
     2
291
     1
 71
     2
176
     0
 72
     2
176
     0
 73
     0
176
     0
 90
        0
176
     0
 40
0.6
176
     0
 41
30.0
176
     0
 63
     7
421
 16777215
176
     0
 74
     1
176
     0
 91
        4
176
     0
 64
     7
176
     0
 65
   257
176
     0
 75
     1
176
     0
175
     1
176
     0
 42
1.0
176
     0
 92
       10
176
     2
 66
     7
176
     0
 43
1.0
176
     0
 76
     1
176
     0
 77
     6
176
     0
 78
     2
176
     0
 67
     7
176
     0
 79
     5
176
     0
170
     0
176
     0
171
     0
176
     0
290
     0
176
     0
 93
        1
176
     0
 44
0.0
176
     0
173
     0
176
     0
1001
ACAD
1000
AcDbSavedByObjectVersion
1070
     0
  0
VISUALSTYLE
  5
2A71
102
{ACAD_XDICTIONARY
360
5802
102
}
102
{ACAD_REACTORS
330
2A63
102
}
330
2A63
100
AcDbVisualStyle
  2

 70
    14
177
     2
291
     1
 71
     2
176
     1
 72
     2
176
     1
 73
     0
176
     1
 90
        0
176
     1
 40
0.6
176
     1
 41
30.0
176
     1
 63
     7
176
     1
 74
     1
176
     1
 91
        4
176
     1
 64
     7
176
     1
 65
   257
176
     1
 75
     7
176
     1
175
     7
176
     1
 42
1.0
176
     1
 92
        8
176
     1
 66
     7
176
     1
 43
1.0
176
     1
 76
     1
176
     1
 77
     6
176
     1
 78
     2
176
     1
 67
     7
176
     1
 79
     5
176
     1
170
     0
176
     1
171
     0
176
     1
290
     0
176
     1
 93
        1
176
     1
 44
0.0
176
     1
173
     0
176
     1
1001
ACAD
1000
AcDbSavedByObjectVersion
1070
     0
  0
VISUALSTYLE
  5
33FE
102
{ACAD_XDICTIONARY
360
5818
102
}
102
{ACAD_REACTORS
330
2A63
102
}
330
2A63
100
AcDbVisualStyle
  2

 70
    21
177
     2
291
     1
 71
     2
176
     0
 72
     2
176
     0
 73
     0
176
     0
 90
        0
176
     0
 40
0.6
176
     0
 41
30.0
176
     0
 63
     7
421
 16777215
176
     0
 74
     1
176
     0
 91
        4
176
     0
 64
     7
176
     0
 65
   257
176
     0
 75
     1
176
     0
175
     1
176
     0
 42
1.0
176
     0
 92
        9
176
     2
 66
     7
176
     0
 43
1.0
176
     0
 76
     1
176
     0
 77
     6
176
     0
 78
     2
176
     0
 67
     7
176
     0
 79
     5
176
     0
170
     0
176
     0
171
     0
176
     0
290
     0
176
     0
 93
        1
176
     0
 44
0.0
176
     0
173
     0
176
     0
1001
ACAD
1000
AcDbSavedByObjectVersion
1070
     0
  0
VISUALSTYLE
  5
2A6D
102
{ACAD_XDICTIONARY
360
57FA
102
}
102
{ACAD_REACTORS
330
2A63
102
}
330
2A63
100
AcDbVisualStyle
  2

 70
     8
177
     2
291
     0
 71
     2
176
     1
 72
     2
176
     1
 73
     0
176
     1
 90
        0
176
     1
 40
0.6
176
     1
 41
30.0
176
     1
 63
     7
176
     1
 74
     1
176
     1
 91
        0
176
     1
 64
     7
176
     1
 65
   257
176
     1
 75
     1
176
     1
175
     1
176
     1
 42
1.0
176
     1
 92
        8
176
     1
 66
     8
176
     1
 43
1.0
176
     1
 76
     1
176
     1
 77
     6
176
     1
 78
     2
176
     1
 67
     7
176
     1
 79
     5
176
     1
170
     0
176
     1
171
     0
176
     1
290
     0
176
     1
 93
       13
176
     1
 44
0.0
176
     1
173
     0
176
     1
1001
ACAD
1000
AcDbSavedByObjectVersion
1070
     0
  0
VISUALSTYLE
  5
33FC
102
{ACAD_XDICTIONARY
360
5814
102
}
102
{ACAD_REACTORS
330
2A63
102
}
330
2A63
100
AcDbVisualStyle
  2

 70
    27
177
     2
291
     0
 71
     2
176
     1
 72
     2
176
     1
 73
     1
176
     1
 90
        2
176
     1
 40
0.6
176
     1
 41
30.0
176
     1
 63
     7
421
 16777215
176
     1
 74
     0
176
     1
 91
        4
176
     1
 64
     7
176
     1
 65
   257
176
     1
 75
     1
176
     1
175
     1
176
     1
 42
1.0
176
     1
 92
        8
176
     1
 66
   257
176
     1
 43
1.0
176
     1
 76
     1
176
     1
 77
     6
176
     1
 78
     2
176
     1
 67
     8
425
  7895160
176
     1
 79
     3
176
     1
170
     0
176
     1
171
     0
176
     1
290
     0
176
     1
 93
        5
176
     1
 44
0.0
176
     1
173
     0
176
     1
1001
ACAD
1000
AcDbSavedByObjectVersion
1070
     0
  0
VISUALSTYLE
  5
33FB
102
{ACAD_XDICTIONARY
360
5812
102
}
102
{ACAD_REACTORS
330
2A63
102
}
330
2A63
100
AcDbVisualStyle
  2

 70
    26
177
     2
291
     0
 71
     2
176
     1
 72
     2
176
     1
 73
     1
176
     1
 90
        2
176
     1
 40
0.6
176
     1
 41
30.0
176
     1
 63
     7
421
 16777215
176
     1
 74
     1
176
     1
 91
        2
176
     1
 64
     7
176
     1
 65
   257
176
     1
 75
     2
176
     1
175
     1
176
     1
 42
1.0
176
     1
 92
        8
176
     1
 66
   257
176
     1
 43
1.0
176
     1
 76
     1
176
     1
 77
     6
176
     1
 78
     2
176
     1
 67
     7
176
     1
 79
     3
176
     1
170
     0
176
     1
171
     0
176
     1
290
     0
176
     1
 93
        5
176
     1
 44
0.0
176
     1
173
     0
176
     1
1001
ACAD
1000
AcDbSavedByObjectVersion
1070
     0
  0
VISUALSTYLE
  5
33F8
102
{ACAD_XDICTIONARY
360
580C
102
}
102
{ACAD_REACTORS
330
2A63
102
}
330
2A63
100
AcDbVisualStyle
  2

 70
    23
177
     2
291
     0
 71
     2
176
     1
 72
     2
176
     1
 73
     3
176
     1
 90
        0
176
     1
 40
0.6
176
     1
 41
30.0
176
     1
 63
     7
421
 16777215
176
     1
 74
     2
176
     1
 91
        2
176
     1
 64
     7
176
     1
 65
     7
176
     1
 75
     1
176
     1
175
     1
176
     1
 42
40.0
176
     1
 92
        8
176
     1
 66
     7
176
     1
 43
1.0
176
     1
 76
     1
176
     1
 77
     6
176
     1
 78
     2
176
     1
 67
     7
176
     1
 79
     3
176
     1
170
     0
176
     1
171
     0
176
     1
290
     0
176
     1
 93
        1
176
     1
 44
0.0
176
     1
173
     0
176
     1
1001
ACAD
1000
AcDbSavedByObjectVersion
1070
     0
  0
VISUALSTYLE
  5
33F9
102
{ACAD_XDICTIONARY
360
580E
102
}
102
{ACAD_REACTORS
330
2A63
102
}
330
2A63
100
AcDbVisualStyle
  2

 70
    24
177
     2
291
     0
 71
     1
176
     1
 72
     2
176
     1
 73
     2
176
     1
 90
        0
176
     1
 40
0.6
176
     1
 41
30.0
176
     1
 63
     7
421
 16777215
176
     1
 74
     2
176
     1
 91
        2
176
     1
 64
     7
176
     1
 65
     7
176
     1
 75
     1
176
     1
175
     1
176
     1
 42
40.0
176
     1
 92
       11
176
     1
 66
     7
176
     1
 43
1.0
176
     1
 76
     1
176
     1
 77
     6
176
     1
 78
     2
176
     1
 67
     7
176
     1
 79
     6
176
     1
170
     0
176
     1
171
     0
176
     1
290
     0
176
     1
 93
        1
176
     1
 44
0.0
176
     1
173
     0
176
     1
1001
ACAD
1000
AcDbSavedByObjectVersion
1070
     0
  0
VISUALSTYLE
  5
2A70
102
{ACAD_XDICTIONARY
360
5800
102
}
102
{ACAD_REACTORS
330
2A63
102
}
330
2A63
100
AcDbVisualStyle
  2

 70
    13
177
     2
291
     1
 71
     2
176
     1
 72
     2
176
     1
 73
     0
176
     1
 90
        0
176
     1
 40
0.6
176
     1
 41
30.0
176
     1
 63
     7
176
     1
 74
     1
176
     1
 91
        4
176
     1
 64
     7
176
     1
 65
   257
176
     1
 75
     1
176
     1
175
     1
176
     1
 42
1.0
176
     1
 92
       12
176
     1
 66
     7
176
     1
 43
1.0
176
     1
 76
     1
176
     1
 77
     6
176
     1
 78
     2
176
     1
 67
     7
176
     1
 79
     5
176
     1
170
     0
176
     1
171
     0
176
     1
290
     0
176
     1
 93
        1
176
     1
 44
0.0
176
     1
173
     0
176
     1
1001
ACAD
1000
AcDbSavedByObjectVersion
1070
     0
  0
VISUALSTYLE
  5
33F6
102
{ACAD_XDICTIONARY
360
5808
102
}
102
{ACAD_REACTORS
330
2A63
102
}
330
2A63
100
AcDbVisualStyle
  2

 70
     5
177
     2
291
     0
 71
     0
176
     1
 72
     2
176
     1
 73
     0
176
     1
 90
        0
176
     1
 40
0.6
176
     1
 41
30.0
176
     1
 63
     7
421
 16777215
176
     1
 74
     1
176
     1
 91
        4
176
     1
 64
     7
176
     1
 65
   257
176
     1
 75
     1
176
     1
175
     1
176
     1
 42
1.0
176
     1
 92
        0
176
     1
 66
   257
176
     1
 43
1.0
176
     1
 76
     1
176
     1
 77
     6
176
     1
 78
     2
176
     1
 67
     7
176
     1
 79
     3
176
     1
170
     0
176
     1
171
     0
176
     1
290
     0
176
     1
 93
        1
176
     1
 44
0.0
176
     1
173
     0
176
     1
1001
ACAD
1000
AcDbSavedByObjectVersion
1070
     0
  0
VISUALSTYLE
  5
33FA
102
{ACAD_XDICTIONARY
360
5810
102
}
102
{ACAD_REACTORS
330
2A63
102
}
330
2A63
100
AcDbVisualStyle
  2

 70
    25
177
     2
291
     0
 71
     2
176
     1
 72
     2
176
     1
 73
     1
176
     1
 90
        1
176
     1
 40
0.5
176
     1
 41
30.0
176
     1
 63
     7
421
 16777215
176
     1
 74
     1
176
     1
 91
        0
176
     1
 64
     7
176
     1
 65
   257
176
     1
 75
     1
176
     1
175
     1
176
     1
 42
1.0
176
     1
 92
        8
176
     1
 66
     7
176
     1
 43
1.0
176
     1
 76
     1
176
     1
 77
     6
176
     1
 78
     2
176
     1
 67
     7
176
     1
 79
     3
176
     1
170
     0
176
     1
171
     0
176
     1
290
     0
176
     1
 93
       13
176
     1
 44
0.0
176
     1
173
     0
176
     1
1001
ACAD
1000
AcDbSavedByObjectVersion
1070
     0
  0
DICTIONARYVAR
  5
2C29
102
{ACAD_REACTORS
330
2C26
102
}
330
2C26
100
DictionaryVariables
280
     0
  1
1:1
  0
DICTIONARYVAR
  5
2C28
102
{ACAD_REACTORS
330
2C26
102
}
330
2C26
100
DictionaryVariables
280
     0
  1
STANDARD
  0
DICTIONARYVAR
  5
2C27
102
{ACAD_REACTORS
330
2C26
102
}
330
2C26
100
DictionaryVariables
280
     0
  1
STANDARD
  0
DICTIONARYVAR
  5
3896
102
{ACAD_REACTORS
330
2C26
102
}
330
2C26
100
DictionaryVariables
280
     0
  1
Imperial24
  0
DICTIONARYVAR
  5
3897
102
{ACAD_REACTORS
330
2C26
102
}
330
2C26
100
DictionaryVariables
280
     0
  1
Imperial24
  0
DICTIONARYVAR
  5
2C2C
102
{ACAD_REACTORS
330
2C26
102
}
330
2C26
100
DictionaryVariables
280
     0
  1
1
  0
DICTIONARYVAR
  5
2C2B
102
{ACAD_REACTORS
330
2C26
102
}
330
2C26
100
DictionaryVariables
280
     0
  1
1
  0
DICTIONARYVAR
  5
389A
102
{ACAD_REACTORS
330
2C26
102
}
330
2C26
100
DictionaryVariables
280
     0
  1
1
  0
DICTIONARYVAR
  5
389B
102
{ACAD_REACTORS
330
2C26
102
}
330
2C26
100
DictionaryVariables
280
     0
  1
15
  0
DICTIONARYVAR
  5
3899
102
{ACAD_REACTORS
330
2C26
102
}
330
2C26
100
DictionaryVariables
280
     0
  1
0
  0
DICTIONARYVAR
  5
3898
102
{ACAD_REACTORS
330
2C26
102
}
330
2C26
100
DictionaryVariables
280
     0
  1
0
  0
DICTIONARYVAR
  5
2C2A
102
{ACAD_REACTORS
330
2C26
102
}
330
2C26
100
DictionaryVariables
280
     0
  1
127
  0
DICTIONARY
  5
57E7
102
{ACAD_REACTORS
330
57E5
102
}
330
57E5
100
AcDbDictionary
281
     1
  0
DICTIONARY
  5
57E6
102
{ACAD_REACTORS
330
57E5
102
}
330
57E5
100
AcDbDictionary
281
     1
  3
2758681409792
350
57E0
  3
2758681409808
350
57E1
  3
2758681409824
350
57E2
  3
2758681409840
350
57E3
  3
2758681409856
350
57E4
  0
DICTIONARY
  5
2BE7
102
{ACAD_REACTORS
330
2BD9
102
}
330
2BD9
100
AcDbDictionary
281
     1
  0
DICTIONARY
  5
2B27
102
{ACAD_REACTORS
330
2B26
102
}
330
2B26
100
AcDbDictionary
281
     1
  0
ACAD_PROXY_OBJECT
  5
2F7B
102
{ACAD_REACTORS
330
2F76
102
}
330
2F76
100
AcDbProxyObject
 90
      499
 91
      608
 95
  6815769
 70
     1
100
AcAmgFilterDat
 70
    15
  1
DIMENSION,AMDT_*_DIM
  2
*
  3
*
  4
*
  5
*
290
     1
  0
ACAD_PROXY_OBJECT
  5
2F7A
102
{ACAD_REACTORS
330
2F76
102
}
330
2F76
100
AcDbProxyObject
 90
      499
 91
      608
 95
  6815769
 70
     1
100
AcAmgFilterDat
 70
    15
  1
*
  2
AM_FEA-AM_*
  3
*
  4
*
  5
*
290
     1
  0
ACAD_PROXY_OBJECT
  5
2F77
102
{ACAD_REACTORS
330
2F76
102
}
330
2F76
100
AcDbProxyObject
 90
      499
 91
      608
 95
  6815769
 70
     1
100
AcAmgFilterDat
 70
    15
  1
HATCH
  2
*
  3
*
  4
*
  5
*
290
     1
  0
ACAD_PROXY_OBJECT
  5
2F78
102
{ACAD_REACTORS
330
2F76
102
}
330
2F76
100
AcDbProxyObject
 90
      499
 91
      608
 95
  6815769
 70
     1
100
AcAmgFilterDat
 70
    15
  1
LINE
  2
8,8N,*-8,*-8N,AM_8,AM_8N,*-AM_8,*-AM_8N
  3
*
  4
*
  5
INSERT,STDPART2D
290
     1
  0
ACAD_PROXY_OBJECT
  5
2F7C
102
{ACAD_REACTORS
330
2F76
102
}
330
2F76
100
AcDbProxyObject
 90
      499
 91
      608
 95
  6815769
 70
     1
100
AcAmgFilterDat
 70
    15
  1
ARC
  2
AM_5
  3
*
  4
2
  5
INSERT
290
     0
  0
ACAD_PROXY_OBJECT
  5
2F79
102
{ACAD_REACTORS
330
2F76
102
}
330
2F76
100
AcDbProxyObject
 90
      499
 91
      608
 95
  6815769
 70
     1
100
AcAmgFilterDat
 70
    15
  1
ACMFCFRAME,ACMDATUMTARGET,ACMDATUMID,ACMWELDSYM,ACMSURFSYM,ACMFEATID,ACMPARTREF,ACMBALLOON,AMDTEDGESYM,AMGSCREWCALCTABLE,ACMMARKSTAMP
  2
*
  3
*
  4
*
  5
*
290
     1
  0
LAYER_INDEX
  5
5565
102
{ACAD_REACTORS
330
5564
102
}
330
5564
100
AcDbIndex
 40
2460363.574143519
100
AcDbLayerIndex
  8
0
360
5785
 90
        0
  8
OUTLINE
360
5786
 90
      185
  8
SIZE
360
5787
 90
       22
  8
BASIS
360
5788
 90
        1
  8
DETAIL
360
5789
 90
        0
  8
ARRANGE
360
578A
 90
        3
  8
DEFPOINTS
360
578B
 90
        0
  8
ETC
360
578C
 90
        3
  8
FIX
360
578D
 90
        0
  8
NOTE
360
578E
 90
       12
  8
SERVICESPACE
360
578F
 90
        0
  8
SYMBOLLINE
360
5790
 90
        0
  8
AM_VIS
360
5791
 90
        0
  8
AM_7
360
5792
 90
        0
  8
1
360
5793
 90
        0
  8
Centerline (ISO)
360
5794
 90
        0
  8
Visible (ISO)
360
5795
 90
        0
  8
Visible Narrow (ISO)
360
5796
 90
        0
  8
外形線
360
5797
 90
        0
  0
DICTIONARY
  5
581E
330
3403
100
AcDbDictionary
280
     1
281
     1
  3
ACAD_XREC_ROUNDTRIP
360
581F
  0
DICTIONARY
  5
5822
330
3413
100
AcDbDictionary
280
     1
281
     1
  3
ACAD_XREC_ROUNDTRIP
360
5823
  0
DICTIONARY
  5
31B8
330
2AAD
100
AcDbDictionary
280
     1
281
     1
  0
DICTIONARY
  5
2A54
330
2A53
100
AcDbDictionary
280
     1
281
     1
  3
ACAD_XREC_ROUNDTRIP
360
2C37
  3
BUMPTILE
360
2A56
  3
DIFFUSETILE
360
2A55
  3
OPACITYTILE
360
2A59
  3
REFLECTIONTILE
360
2A58
  3
REFRACTIONTILE
360
2A5A
  3
SPECULARTILE
360
2A57
  0
DICTIONARY
  5
2A4C
330
2A4B
100
AcDbDictionary
280
     1
281
     1
  3
ACAD_XREC_ROUNDTRIP
360
2C36
  3
BUMPTILE
360
2A4E
  3
DIFFUSETILE
360
2A4D
  3
OPACITYTILE
360
2A51
  3
REFLECTIONTILE
360
2A50
  3
REFRACTIONTILE
360
2A52
  3
SPECULARTILE
360
2A4F
  0
DICTIONARY
  5
2A5C
330
2A5B
100
AcDbDictionary
280
     1
281
     1
  3
ACAD_XREC_ROUNDTRIP
360
2C38
  3
BUMPTILE
360
2A5E
  3
DIFFUSETILE
360
2A5D
  3
OPACITYTILE
360
2A61
  3
REFLECTIONTILE
360
2A60
  3
REFRACTIONTILE
360
2A62
  3
SPECULARTILE
360
2A5F
  0
DICTIONARY
  5
581C
330
3401
100
AcDbDictionary
280
     1
281
     1
  3
ACAD_XREC_ROUNDTRIP
360
581D
  0
DICTIONARY
  5
5820
330
3412
100
AcDbDictionary
280
     1
281
     1
  3
ACAD_XREC_ROUNDTRIP
360
5821
  0
DICTIONARY
  5
2C2D
330
2AA6
100
AcDbDictionary
280
     1
281
     1
  3
ACAD_ROUNDTRIP_2008_TABLESTYLE_CELLSTYLEMAP
360
57DE
  0
DICTIONARY
  5
57F2
330
2A69
100
AcDbDictionary
280
     1
281
     1
  3
ACAD_XREC_ROUNDTRIP
360
57F3
  0
DICTIONARY
  5
57F6
330
2A6B
100
AcDbDictionary
280
     1
281
     1
  3
ACAD_XREC_ROUNDTRIP
360
57F7
  0
DICTIONARY
  5
57F4
330
2A6A
100
AcDbDictionary
280
     1
281
     1
  3
ACAD_XREC_ROUNDTRIP
360
57F5
  0
DICTIONARY
  5
57F0
330
2A68
100
AcDbDictionary
280
     1
281
     1
  3
ACAD_XREC_ROUNDTRIP
360
57F1
  0
DICTIONARY
  5
57FE
330
2A6F
100
AcDbDictionary
280
     1
281
     1
  3
ACAD_XREC_ROUNDTRIP
360
57FF
  0
DICTIONARY
  5
5806
330
2A73
100
AcDbDictionary
280
     1
281
     1
  3
ACAD_XREC_ROUNDTRIP
360
5807
  0
DICTIONARY
  5
57F8
330
2A6C
100
AcDbDictionary
280
     1
281
     1
  3
ACAD_XREC_ROUNDTRIP
360
57F9
  0
DICTIONARY
  5
57FC
330
2A6E
100
AcDbDictionary
280
     1
281
     1
  3
ACAD_XREC_ROUNDTRIP
360
57FD
  0
DICTIONARY
  5
581A
330
33FF
100
AcDbDictionary
280
     1
281
     1
  3
ACAD_XREC_ROUNDTRIP
360
581B
  0
DICTIONARY
  5
5804
330
2A72
100
AcDbDictionary
280
     1
281
     1
  3
ACAD_XREC_ROUNDTRIP
360
5805
  0
DICTIONARY
  5
57E8
330
2A64
100
AcDbDictionary
280
     1
281
     1
  3
ACAD_XREC_ROUNDTRIP
360
57E9
  0
DICTIONARY
  5
57EA
330
2A65
100
AcDbDictionary
280
     1
281
     1
  3
ACAD_XREC_ROUNDTRIP
360
57EB
  0
DICTIONARY
  5
57EC
330
2A66
100
AcDbDictionary
280
     1
281
     1
  3
ACAD_XREC_ROUNDTRIP
360
57ED
  0
DICTIONARY
  5
57EE
330
2A67
100
AcDbDictionary
280
     1
281
     1
  3
ACAD_XREC_ROUNDTRIP
360
57EF
  0
DICTIONARY
  5
580A
330
33F7
100
AcDbDictionary
280
     1
281
     1
  3
ACAD_XREC_ROUNDTRIP
360
580B
  0
DICTIONARY
  5
5816
330
33FD
100
AcDbDictionary
280
     1
281
     1
  3
ACAD_XREC_ROUNDTRIP
360
5817
  0
DICTIONARY
  5
5802
330
2A71
100
AcDbDictionary
280
     1
281
     1
  3
ACAD_XREC_ROUNDTRIP
360
5803
  0
DICTIONARY
  5
5818
330
33FE
100
AcDbDictionary
280
     1
281
     1
  3
ACAD_XREC_ROUNDTRIP
360
5819
  0
DICTIONARY
  5
57FA
330
2A6D
100
AcDbDictionary
280
     1
281
     1
  3
ACAD_XREC_ROUNDTRIP
360
57FB
  0
DICTIONARY
  5
5814
330
33FC
100
AcDbDictionary
280
     1
281
     1
  3
ACAD_XREC_ROUNDTRIP
360
5815
  0
DICTIONARY
  5
5812
330
33FB
100
AcDbDictionary
280
     1
281
     1
  3
ACAD_XREC_ROUNDTRIP
360
5813
  0
DICTIONARY
  5
580C
330
33F8
100
AcDbDictionary
280
     1
281
     1
  3
ACAD_XREC_ROUNDTRIP
360
580D
  0
DICTIONARY
  5
580E
330
33F9
100
AcDbDictionary
280
     1
281
     1
  3
ACAD_XREC_ROUNDTRIP
360
580F
  0
DICTIONARY
  5
5800
330
2A70
100
AcDbDictionary
280
     1
281
     1
  3
ACAD_XREC_ROUNDTRIP
360
5801
  0
DICTIONARY
  5
5808
330
33F6
100
AcDbDictionary
280
     1
281
     1
  3
ACAD_XREC_ROUNDTRIP
360
5809
  0
DICTIONARY
  5
5810
330
33FA
100
AcDbDictionary
280
     1
281
     1
  3
ACAD_XREC_ROUNDTRIP
360
5811
  0
XRECORD
  5
57E0
102
{ACAD_REACTORS
330
57E6
102
}
330
57E6
100
AcDbXrecord
280
     1
  1
AcDb_Thumbnail_Schema
102
{ATTRRECORD
341
57E1
  2
AcDbDs::TreatedAsObjectData
280
     1
291
     1
102
ATTRRECORD}
102
{ATTRRECORD
341
57E2
  2
AcDbDs::Legacy
280
     1
291
     1
102
ATTRRECORD}
  2
AcDbDs::ID
280
    10
 91
        8
102
{ATTRRECORD
341
57E3
  2
AcDs:Indexable
280
     1
291
     1
102
ATTRRECORD}
102
{ATTRRECORD
341
57E4
  2
AcDbDs::HandleAttribute
280
     7
282
     1
102
ATTRRECORD}
  2
Thumbnail_Data
280
    15
 91
        0
  0
XRECORD
  5
57E1
102
{ACAD_REACTORS
330
57E6
102
}
330
57E6
100
AcDbXrecord
280
     1
  1
AcDbDs::TreatedAsObjectDataSchema
  2
AcDbDs::TreatedAsObjectData
280
     1
 91
        0
  0
XRECORD
  5
57E2
102
{ACAD_REACTORS
330
57E6
102
}
330
57E6
100
AcDbXrecord
280
     1
  1
AcDbDs::LegacySchema
  2
AcDbDs::Legacy
280
     1
 91
        0
  0
XRECORD
  5
57E3
102
{ACAD_REACTORS
330
57E6
102
}
330
57E6
100
AcDbXrecord
280
     1
  1
AcDbDs::IndexedPropertySchema
  2
AcDs:Indexable
280
     1
 91
        0
  0
XRECORD
  5
57E4
102
{ACAD_REACTORS
330
57E6
102
}
330
57E6
100
AcDbXrecord
280
     1
  1
AcDbDs::HandleAttributeSchema
  2
AcDbDs::HandleAttribute
280
     7
 91
        1
284
     1
  0
IDBUFFER
  5
5785
330
0
100
AcDbIdBuffer
  0
IDBUFFER
  5
5786
330
0
100
AcDbIdBuffer
330
4800
330
4801
330
4802
330
4803
330
4804
330
4805
330
4806
330
4807
330
4808
330
4809
330
480A
330
480B
330
480C
330
480D
330
480E
330
480F
330
4810
330
4811
330
4812
330
4813
330
4814
330
4815
330
4816
330
4817
330
4818
330
4819
330
481A
330
481B
330
481C
330
481D
330
481E
330
481F
330
4820
330
4821
330
4822
330
4823
330
4824
330
4825
330
4C12
330
4C1D
330
4C1E
330
4C1F
330
4C20
330
4C21
330
4C22
330
4C23
330
4C24
330
4C25
330
4C26
330
4C27
330
4C28
330
4C29
330
4C2A
330
4C2B
330
4C2C
330
4C2D
330
4C2E
330
4C2F
330
4C30
330
4C31
330
4C32
330
4C33
330
4C34
330
4C35
330
4C36
330
4C37
330
4C38
330
4C39
330
4C3A
330
4C3B
330
5505
330
5506
330
5528
330
953
330
954
330
955
330
956
330
957
330
958
330
478E
330
478F
330
4790
330
4791
330
4792
330
4796
330
4797
330
4798
330
4799
330
479E
330
479F
330
47A0
330
47A1
330
47A2
330
47A3
330
47A4
330
47A5
330
47A6
330
47A7
330
47A8
330
47A9
330
47AA
330
47AB
330
47AC
330
47AD
330
47AE
330
47AF
330
47B0
330
47B1
330
47B2
330
47B3
330
47B4
330
47B5
330
47B6
330
47B7
330
47B8
330
47B9
330
47BA
330
47BB
330
47BC
330
47BD
330
47BE
330
47BF
330
47C0
330
47C1
330
47C2
330
47C3
330
47C4
330
47C5
330
47C6
330
47C7
330
47C8
330
47C9
330
47CA
330
47CB
330
47CC
330
47CD
330
47CE
330
47CF
330
47D0
330
47D1
330
47D2
330
47D3
330
47D4
330
47D5
330
47D6
330
47D7
330
47D8
330
47D9
330
47DA
330
47DB
330
47DC
330
47DE
330
47DF
330
47E0
330
47E1
330
47E2
330
47E3
330
47E4
330
47E5
330
47E6
330
47E7
330
47E8
330
47E9
330
47EA
330
47EB
330
47EC
330
47ED
330
47EE
330
47EF
330
47F0
330
47F1
330
47F2
330
47F3
330
47F4
330
47F5
330
47F6
330
47F7
330
47F8
330
47F9
330
47FA
330
47FB
330
47FC
330
47FD
330
47FE
330
47FF
  0
IDBUFFER
  5
5787
330
0
100
AcDbIdBuffer
330
4C3C
330
4C3D
330
553C
330
5579
330
55B4
330
55C1
330
35BA
330
3631
330
3662
330
367B
330
3688
330
394A
330
3A03
330
3A10
330
3A1D
330
3A2A
330
3D8D
330
3E92
330
3E93
330
40B8
330
4993
330
4AC5
  0
IDBUFFER
  5
5788
330
0
100
AcDbIdBuffer
330
482F
  0
IDBUFFER
  5
5789
330
0
100
AcDbIdBuffer
  0
IDBUFFER
  5
578A
330
0
100
AcDbIdBuffer
330
3EF1
330
3EF2
330
3EF3
  0
IDBUFFER
  5
578B
330
0
100
AcDbIdBuffer
  0
IDBUFFER
  5
578C
330
0
100
AcDbIdBuffer
330
36A7
330
36A8
330
36A9
  0
IDBUFFER
  5
578D
330
0
100
AcDbIdBuffer
  0
IDBUFFER
  5
578E
330
0
100
AcDbIdBuffer
330
4826
330
4827
330
4828
330
4829
330
482A
330
482B
330
482C
330
482D
330
482E
330
4830
330
4831
330
4832
  0
IDBUFFER
  5
578F
330
0
100
AcDbIdBuffer
  0
IDBUFFER
  5
5790
330
0
100
AcDbIdBuffer
  0
IDBUFFER
  5
5791
330
0
100
AcDbIdBuffer
  0
IDBUFFER
  5
5792
330
0
100
AcDbIdBuffer
  0
IDBUFFER
  5
5793
330
0
100
AcDbIdBuffer
  0
IDBUFFER
  5
5794
330
0
100
AcDbIdBuffer
  0
IDBUFFER
  5
5795
330
0
100
AcDbIdBuffer
  0
IDBUFFER
  5
5796
330
0
100
AcDbIdBuffer
  0
IDBUFFER
  5
5797
330
0
100
AcDbIdBuffer
  0
XRECORD
  5
581F
102
{ACAD_REACTORS
330
581E
102
}
330
581E
100
AcDbXrecord
280
     1
102
DISPLAYNAME
  1
Imperial24
102
FLAGS
 90
        0
  0
XRECORD
  5
5823
102
{ACAD_REACTORS
330
5822
102
}
330
5822
100
AcDbXrecord
280
     1
102
DISPLAYNAME
  1
Metric50
102
FLAGS
 90
        0
  0
XRECORD
  5
2C37
102
{ACAD_REACTORS
330
2A54
102
}
330
2A54
100
AcDbXrecord
280
     1
102
MATERIAL
148
0.0
149
0.0
149
0.0
 93
        0
 94
      127
282
     0
 72
     0
 77
     0
171
     0
175
     0
179
     0
273
     0
  0
XRECORD
  5
2A56
102
{ACAD_REACTORS
330
2A54
102
}
330
2A54
100
AcDbXrecord
280
     1
270
     1
271
     1
  0
XRECORD
  5
2A55
102
{ACAD_REACTORS
330
2A54
102
}
330
2A54
100
AcDbXrecord
280
     1
270
     1
271
     1
  0
XRECORD
  5
2A59
102
{ACAD_REACTORS
330
2A54
102
}
330
2A54
100
AcDbXrecord
280
     1
270
     1
271
     1
  0
XRECORD
  5
2A58
102
{ACAD_REACTORS
330
2A54
102
}
330
2A54
100
AcDbXrecord
280
     1
270
     1
271
     1
  0
XRECORD
  5
2A5A
102
{ACAD_REACTORS
330
2A54
102
}
330
2A54
100
AcDbXrecord
280
     1
270
     1
271
     1
  0
XRECORD
  5
2A57
102
{ACAD_REACTORS
330
2A54
102
}
330
2A54
100
AcDbXrecord
280
     1
270
     1
271
     1
  0
XRECORD
  5
2C36
102
{ACAD_REACTORS
330
2A4C
102
}
330
2A4C
100
AcDbXrecord
280
     1
102
MATERIAL
148
0.0
149
0.0
149
0.0
 93
        0
 94
      127
282
     0
 72
     0
 77
     0
171
     0
175
     0
179
     0
273
     0
  0
XRECORD
  5
2A4E
102
{ACAD_REACTORS
330
2A4C
102
}
330
2A4C
100
AcDbXrecord
280
     1
270
     1
271
     1
  0
XRECORD
  5
2A4D
102
{ACAD_REACTORS
330
2A4C
102
}
330
2A4C
100
AcDbXrecord
280
     1
270
     1
271
     1
  0
XRECORD
  5
2A51
102
{ACAD_REACTORS
330
2A4C
102
}
330
2A4C
100
AcDbXrecord
280
     1
270
     1
271
     1
  0
XRECORD
  5
2A50
102
{ACAD_REACTORS
330
2A4C
102
}
330
2A4C
100
AcDbXrecord
280
     1
270
     1
271
     1
  0
XRECORD
  5
2A52
102
{ACAD_REACTORS
330
2A4C
102
}
330
2A4C
100
AcDbXrecord
280
     1
270
     1
271
     1
  0
XRECORD
  5
2A4F
102
{ACAD_REACTORS
330
2A4C
102
}
330
2A4C
100
AcDbXrecord
280
     1
270
     1
271
     1
  0
XRECORD
  5
2C38
102
{ACAD_REACTORS
330
2A5C
102
}
330
2A5C
100
AcDbXrecord
280
     1
102
MATERIAL
148
0.0
149
0.0
149
0.0
 93
        0
 94
      127
282
     0
 72
     0
 77
     0
171
     0
175
     0
179
     0
273
     0
  0
XRECORD
  5
2A5E
102
{ACAD_REACTORS
330
2A5C
102
}
330
2A5C
100
AcDbXrecord
280
     1
270
     1
271
     1
  0
XRECORD
  5
2A5D
102
{ACAD_REACTORS
330
2A5C
102
}
330
2A5C
100
AcDbXrecord
280
     1
270
     1
271
     1
  0
XRECORD
  5
2A61
102
{ACAD_REACTORS
330
2A5C
102
}
330
2A5C
100
AcDbXrecord
280
     1
270
     1
271
     1
  0
XRECORD
  5
2A60
102
{ACAD_REACTORS
330
2A5C
102
}
330
2A5C
100
AcDbXrecord
280
     1
270
     1
271
     1
  0
XRECORD
  5
2A62
102
{ACAD_REACTORS
330
2A5C
102
}
330
2A5C
100
AcDbXrecord
280
     1
270
     1
271
     1
  0
XRECORD
  5
2A5F
102
{ACAD_REACTORS
330
2A5C
102
}
330
2A5C
100
AcDbXrecord
280
     1
270
     1
271
     1
  0
XRECORD
  5
581D
102
{ACAD_REACTORS
330
581C
102
}
330
581C
100
AcDbXrecord
280
     1
102
DISPLAYNAME
  1
Imperial24
102
FLAGS
 90
        0
  0
XRECORD
  5
5821
102
{ACAD_REACTORS
330
5820
102
}
330
5820
100
AcDbXrecord
280
     1
102
DISPLAYNAME
  1
Metric50
102
FLAGS
 90
        0
  0
CELLSTYLEMAP
  5
57DE
102
{ACAD_REACTORS
330
2C2D
102
}
330
2C2D
100
AcDbCellStyleMap
 90
        3
300
CELLSTYLE
  1
TABLEFORMAT_BEGIN
 90
        5
170
     1
 91
        0
 92
    32768
 62
   257
 93
        1
300
CONTENTFORMAT
  1
CONTENTFORMAT_BEGIN
 90
        0
 91
        0
 92
      512
 93
        0
300

 40
0.0
140
1.0
 94
        5
 62
     0
340
2A97
144
0.25
309
CONTENTFORMAT_END
171
     1
301
MARGIN
  1
CELLMARGIN_BEGIN
 40
0.06
 40
0.06
 40
0.06
 40
0.06
 40
0.18
 40
0.18
309
CELLMARGIN_END
 94
        6
 95
        1
302
GRIDFORMAT
  1
GRIDFORMAT_BEGIN
 90
        0
 91
        1
 62
     0
 92
       -2
340
0
 93
        0
 40
0.045
309
GRIDFORMAT_END
 95
        2
302
GRIDFORMAT
  1
GRIDFORMAT_BEGIN
 90
        0
 91
        1
 62
     0
 92
       -2
340
0
 93
        0
 40
0.045
309
GRIDFORMAT_END
 95
        4
302
GRIDFORMAT
  1
GRIDFORMAT_BEGIN
 90
        0
 91
        1
 62
     0
 92
       -2
340
0
 93
        0
 40
0.045
309
GRIDFORMAT_END
 95
        8
302
GRIDFORMAT
  1
GRIDFORMAT_BEGIN
 90
        0
 91
        1
 62
     0
 92
       -2
340
0
 93
        0
 40
0.045
309
GRIDFORMAT_END
 95
       16
302
GRIDFORMAT
  1
GRIDFORMAT_BEGIN
 90
        0
 91
        1
 62
     0
 92
       -2
340
0
 93
        0
 40
0.045
309
GRIDFORMAT_END
 95
       32
302
GRIDFORMAT
  1
GRIDFORMAT_BEGIN
 90
        0
 91
        1
 62
     0
 92
       -2
340
0
 93
        0
 40
0.045
309
GRIDFORMAT_END
309
TABLEFORMAT_END
  1
CELLSTYLE_BEGIN
 90
        1
 91
        1
300
_TITLE
309
CELLSTYLE_END
300
CELLSTYLE
  1
TABLEFORMAT_BEGIN
 90
        5
170
     1
 91
        0
 92
        0
 62
   257
 93
        1
300
CONTENTFORMAT
  1
CONTENTFORMAT_BEGIN
 90
        0
 91
        0
 92
      512
 93
        0
300

 40
0.0
140
1.0
 94
        5
 62
     0
340
2A97
144
0.18
309
CONTENTFORMAT_END
171
     1
301
MARGIN
  1
CELLMARGIN_BEGIN
 40
0.06
 40
0.06
 40
0.06
 40
0.06
 40
0.18
 40
0.18
309
CELLMARGIN_END
 94
        6
 95
        1
302
GRIDFORMAT
  1
GRIDFORMAT_BEGIN
 90
        0
 91
        1
 62
     0
 92
       -2
340
0
 93
        0
 40
0.045
309
GRIDFORMAT_END
 95
        2
302
GRIDFORMAT
  1
GRIDFORMAT_BEGIN
 90
        0
 91
        1
 62
     0
 92
       -2
340
0
 93
        0
 40
0.045
309
GRIDFORMAT_END
 95
        4
302
GRIDFORMAT
  1
GRIDFORMAT_BEGIN
 90
        0
 91
        1
 62
     0
 92
       -2
340
0
 93
        0
 40
0.045
309
GRIDFORMAT_END
 95
        8
302
GRIDFORMAT
  1
GRIDFORMAT_BEGIN
 90
        0
 91
        1
 62
     0
 92
       -2
340
0
 93
        0
 40
0.045
309
GRIDFORMAT_END
 95
       16
302
GRIDFORMAT
  1
GRIDFORMAT_BEGIN
 90
        0
 91
        1
 62
     0
 92
       -2
340
0
 93
        0
 40
0.045
309
GRIDFORMAT_END
 95
       32
302
GRIDFORMAT
  1
GRIDFORMAT_BEGIN
 90
        0
 91
        1
 62
     0
 92
       -2
340
0
 93
        0
 40
0.045
309
GRIDFORMAT_END
309
TABLEFORMAT_END
  1
CELLSTYLE_BEGIN
 90
        2
 91
        1
300
_HEADER
309
CELLSTYLE_END
300
CELLSTYLE
  1
TABLEFORMAT_BEGIN
 90
        5
170
     1
 91
        0
 92
        0
 62
   257
 93
        1
300
CONTENTFORMAT
  1
CONTENTFORMAT_BEGIN
 90
        0
 91
        0
 92
      512
 93
        0
300

 40
0.0
140
1.0
 94
        2
 62
     0
340
2A97
144
0.18
309
CONTENTFORMAT_END
171
     1
301
MARGIN
  1
CELLMARGIN_BEGIN
 40
0.06
 40
0.06
 40
0.06
 40
0.06
 40
0.18
 40
0.18
309
CELLMARGIN_END
 94
        6
 95
        1
302
GRIDFORMAT
  1
GRIDFORMAT_BEGIN
 90
        0
 91
        1
 62
     0
 92
       -2
340
0
 93
        0
 40
0.045
309
GRIDFORMAT_END
 95
        2
302
GRIDFORMAT
  1
GRIDFORMAT_BEGIN
 90
        0
 91
        1
 62
     0
 92
       -2
340
0
 93
        0
 40
0.045
309
GRIDFORMAT_END
 95
        4
302
GRIDFORMAT
  1
GRIDFORMAT_BEGIN
 90
        0
 91
        1
 62
     0
 92
       -2
340
0
 93
        0
 40
0.045
309
GRIDFORMAT_END
 95
        8
302
GRIDFORMAT
  1
GRIDFORMAT_BEGIN
 90
        0
 91
        1
 62
     0
 92
       -2
340
0
 93
        0
 40
0.045
309
GRIDFORMAT_END
 95
       16
302
GRIDFORMAT
  1
GRIDFORMAT_BEGIN
 90
        0
 91
        1
 62
     0
 92
       -2
340
0
 93
        0
 40
0.045
309
GRIDFORMAT_END
 95
       32
302
GRIDFORMAT
  1
GRIDFORMAT_BEGIN
 90
        0
 91
        1
 62
     0
 92
       -2
340
0
 93
        0
 40
0.045
309
GRIDFORMAT_END
309
TABLEFORMAT_END
  1
CELLSTYLE_BEGIN
 90
        3
 91
        2
300
_DATA
309
CELLSTYLE_END
  0
XRECORD
  5
57F3
102
{ACAD_REACTORS
330
57F2
102
}
330
57F2
100
AcDbXrecord
280
     1
102
RTVSPost2010Prop28
280
     1
102
RTVSPost2010PropOp28
 70
     1
102
RTVSPost2010Prop29
280
     1
102
RTVSPost2010PropOp29
 70
     1
102
RTVSPost2010Prop30
280
     0
102
RTVSPost2010PropOp30
 70
     1
102
RTVSPost2010Prop31
280
     0
102
RTVSPost2010PropOp31
 70
     1
102
RTVSPost2010Prop32
280
     0
102
RTVSPost2010PropOp32
 70
     1
102
RTVSPost2010Prop33
280
     0
102
RTVSPost2010PropOp33
 70
     1
102
RTVSPost2010Prop34
280
     0
102
RTVSPost2010PropOp34
 70
     1
102
RTVSPost2010Prop35
280
     0
102
RTVSPost2010PropOp35
 70
     1
102
RTVSPost2010Prop36
280
     0
102
RTVSPost2010PropOp36
 70
     1
102
RTVSPost2010Prop37
 90
       50
102
RTVSPost2010PropOp37
 70
     1
102
RTVSPost2010Prop38
140
0.0
102
RTVSPost2010PropOp38
 70
     1
102
RTVSPost2010Prop39
140
1.0
102
RTVSPost2010PropOp39
 70
     1
102
RTVSPost2010Prop40
 90
        0
102
RTVSPost2010PropOp40
 70
     1
102
RTVSPost2010Prop41ColorIndex
 90
       18
102
RTVSPost2010Prop41ColorRGB
 90
-16777216
102
RTVSPost2010PropOp41
 70
     1
102
RTVSPost2010Prop42
 90
       50
102
RTVSPost2010PropOp42
 70
     1
102
RTVSPost2010Prop43
 90
        3
102
RTVSPost2010PropOp43
 70
     1
102
RTVSPost2010Prop44ColorIndex
 90
        5
102
RTVSPost2010Prop44ColorRGB
 90
      255
102
RTVSPost2010PropOp44
 70
     1
102
RTVSPost2010Prop45
280
     0
102
RTVSPost2010PropOp45
 70
     1
102
RTVSPost2010Prop46
 90
       50
102
RTVSPost2010PropOp46
 70
     1
102
RTVSPost2010Prop47
 90
       50
102
RTVSPost2010PropOp47
 70
     1
102
RTVSPost2010Prop48
 90
       50
102
RTVSPost2010PropOp48
 70
     1
102
RTVSPost2010Prop49
280
     0
102
RTVSPost2010PropOp49
 70
     1
102
RTVSPost2010Prop50
 90
       50
102
RTVSPost2010PropOp50
 70
     1
102
RTVSPost2010Prop51ColorIndex
 90
      256
102
RTVSPost2010Prop51ColorRGB
 90
-16777216
102
RTVSPost2010PropOp51
 70
     0
102
RTVSPost2010Prop52
140
1.0
102
RTVSPost2010PropOp52
 70
     0
102
RTVSPost2010Prop53
 90
        2
102
RTVSPost2010PropOp53
 70
     1
102
RTVSPost2010Prop54
  1
strokes_ogs.tif
102
RTVSPost2010PropOp54
 70
     1
102
RTVSPost2010Prop55
280
     0
102
RTVSPost2010PropOp55
 70
     1
102
RTVSPost2010Prop56
140
1.0
102
RTVSPost2010PropOp56
 70
     1
102
RTVSPost2010Prop57
140
1.0
102
RTVSPost2010PropOp57
 70
     1
  0
XRECORD
  5
57F7
102
{ACAD_REACTORS
330
57F6
102
}
330
57F6
100
AcDbXrecord
280
     1
102
RTVSPost2010Prop28
280
     0
102
RTVSPost2010PropOp28
 70
     1
102
RTVSPost2010Prop29
280
     1
102
RTVSPost2010PropOp29
 70
     1
102
RTVSPost2010Prop30
280
     1
102
RTVSPost2010PropOp30
 70
     1
102
RTVSPost2010Prop31
280
     0
102
RTVSPost2010PropOp31
 70
     1
102
RTVSPost2010Prop32
280
     0
102
RTVSPost2010PropOp32
 70
     1
102
RTVSPost2010Prop33
280
     0
102
RTVSPost2010PropOp33
 70
     1
102
RTVSPost2010Prop34
280
     0
102
RTVSPost2010PropOp34
 70
     1
102
RTVSPost2010Prop35
280
     0
102
RTVSPost2010PropOp35
 70
     1
102
RTVSPost2010Prop36
280
     0
102
RTVSPost2010PropOp36
 70
     1
102
RTVSPost2010Prop37
 90
       50
102
RTVSPost2010PropOp37
 70
     1
102
RTVSPost2010Prop38
140
0.0
102
RTVSPost2010PropOp38
 70
     1
102
RTVSPost2010Prop39
140
1.0
102
RTVSPost2010PropOp39
 70
     1
102
RTVSPost2010Prop40
 90
        0
102
RTVSPost2010PropOp40
 70
     1
102
RTVSPost2010Prop41ColorIndex
 90
       18
102
RTVSPost2010Prop41ColorRGB
 90
-16777216
102
RTVSPost2010PropOp41
 70
     1
102
RTVSPost2010Prop42
 90
       50
102
RTVSPost2010PropOp42
 70
     1
102
RTVSPost2010Prop43
 90
        3
102
RTVSPost2010PropOp43
 70
     1
102
RTVSPost2010Prop44ColorIndex
 90
        5
102
RTVSPost2010Prop44ColorRGB
 90
      255
102
RTVSPost2010PropOp44
 70
     1
102
RTVSPost2010Prop45
280
     0
102
RTVSPost2010PropOp45
 70
     1
102
RTVSPost2010Prop46
 90
       50
102
RTVSPost2010PropOp46
 70
     1
102
RTVSPost2010Prop47
 90
       50
102
RTVSPost2010PropOp47
 70
     1
102
RTVSPost2010Prop48
 90
       50
102
RTVSPost2010PropOp48
 70
     1
102
RTVSPost2010Prop49
280
     0
102
RTVSPost2010PropOp49
 70
     1
102
RTVSPost2010Prop50
 90
       50
102
RTVSPost2010PropOp50
 70
     1
102
RTVSPost2010Prop51ColorIndex
 90
      256
102
RTVSPost2010Prop51ColorRGB
 90
-16777216
102
RTVSPost2010PropOp51
 70
     0
102
RTVSPost2010Prop52
140
1.0
102
RTVSPost2010PropOp52
 70
     0
102
RTVSPost2010Prop53
 90
        2
102
RTVSPost2010PropOp53
 70
     1
102
RTVSPost2010Prop54
  1
strokes_ogs.tif
102
RTVSPost2010PropOp54
 70
     1
102
RTVSPost2010Prop55
280
     0
102
RTVSPost2010PropOp55
 70
     1
102
RTVSPost2010Prop56
140
1.0
102
RTVSPost2010PropOp56
 70
     1
102
RTVSPost2010Prop57
140
1.0
102
RTVSPost2010PropOp57
 70
     1
  0
XRECORD
  5
57F5
102
{ACAD_REACTORS
330
57F4
102
}
330
57F4
100
AcDbXrecord
280
     1
102
RTVSPost2010Prop28
280
     0
102
RTVSPost2010PropOp28
 70
     1
102
RTVSPost2010Prop29
280
     1
102
RTVSPost2010PropOp29
 70
     1
102
RTVSPost2010Prop30
280
     1
102
RTVSPost2010PropOp30
 70
     1
102
RTVSPost2010Prop31
280
     0
102
RTVSPost2010PropOp31
 70
     1
102
RTVSPost2010Prop32
280
     0
102
RTVSPost2010PropOp32
 70
     1
102
RTVSPost2010Prop33
280
     0
102
RTVSPost2010PropOp33
 70
     1
102
RTVSPost2010Prop34
280
     0
102
RTVSPost2010PropOp34
 70
     1
102
RTVSPost2010Prop35
280
     0
102
RTVSPost2010PropOp35
 70
     1
102
RTVSPost2010Prop36
280
     0
102
RTVSPost2010PropOp36
 70
     1
102
RTVSPost2010Prop37
 90
       50
102
RTVSPost2010PropOp37
 70
     1
102
RTVSPost2010Prop38
140
0.0
102
RTVSPost2010PropOp38
 70
     1
102
RTVSPost2010Prop39
140
1.0
102
RTVSPost2010PropOp39
 70
     1
102
RTVSPost2010Prop40
 90
        0
102
RTVSPost2010PropOp40
 70
     1
102
RTVSPost2010Prop41ColorIndex
 90
       18
102
RTVSPost2010Prop41ColorRGB
 90
-16777216
102
RTVSPost2010PropOp41
 70
     1
102
RTVSPost2010Prop42
 90
       50
102
RTVSPost2010PropOp42
 70
     1
102
RTVSPost2010Prop43
 90
        3
102
RTVSPost2010PropOp43
 70
     1
102
RTVSPost2010Prop44ColorIndex
 90
        5
102
RTVSPost2010Prop44ColorRGB
 90
      255
102
RTVSPost2010PropOp44
 70
     1
102
RTVSPost2010Prop45
280
     0
102
RTVSPost2010PropOp45
 70
     1
102
RTVSPost2010Prop46
 90
       50
102
RTVSPost2010PropOp46
 70
     1
102
RTVSPost2010Prop47
 90
       50
102
RTVSPost2010PropOp47
 70
     1
102
RTVSPost2010Prop48
 90
       50
102
RTVSPost2010PropOp48
 70
     1
102
RTVSPost2010Prop49
280
     0
102
RTVSPost2010PropOp49
 70
     1
102
RTVSPost2010Prop50
 90
       50
102
RTVSPost2010PropOp50
 70
     1
102
RTVSPost2010Prop51ColorIndex
 90
      256
102
RTVSPost2010Prop51ColorRGB
 90
-16777216
102
RTVSPost2010PropOp51
 70
     0
102
RTVSPost2010Prop52
140
1.0
102
RTVSPost2010PropOp52
 70
     0
102
RTVSPost2010Prop53
 90
        2
102
RTVSPost2010PropOp53
 70
     1
102
RTVSPost2010Prop54
  1
strokes_ogs.tif
102
RTVSPost2010PropOp54
 70
     1
102
RTVSPost2010Prop55
280
     0
102
RTVSPost2010PropOp55
 70
     1
102
RTVSPost2010Prop56
140
1.0
102
RTVSPost2010PropOp56
 70
     1
102
RTVSPost2010Prop57
140
1.0
102
RTVSPost2010PropOp57
 70
     1
  0
XRECORD
  5
57F1
102
{ACAD_REACTORS
330
57F0
102
}
330
57F0
100
AcDbXrecord
280
     1
102
RTVSPost2010Prop28
280
     0
102
RTVSPost2010PropOp28
 70
     1
102
RTVSPost2010Prop29
280
     1
102
RTVSPost2010PropOp29
 70
     1
102
RTVSPost2010Prop30
280
     1
102
RTVSPost2010PropOp30
 70
     1
102
RTVSPost2010Prop31
280
     0
102
RTVSPost2010PropOp31
 70
     1
102
RTVSPost2010Prop32
280
     0
102
RTVSPost2010PropOp32
 70
     1
102
RTVSPost2010Prop33
280
     0
102
RTVSPost2010PropOp33
 70
     1
102
RTVSPost2010Prop34
280
     0
102
RTVSPost2010PropOp34
 70
     1
102
RTVSPost2010Prop35
280
     0
102
RTVSPost2010PropOp35
 70
     1
102
RTVSPost2010Prop36
280
     0
102
RTVSPost2010PropOp36
 70
     1
102
RTVSPost2010Prop37
 90
       50
102
RTVSPost2010PropOp37
 70
     1
102
RTVSPost2010Prop38
140
0.0
102
RTVSPost2010PropOp38
 70
     1
102
RTVSPost2010Prop39
140
1.0
102
RTVSPost2010PropOp39
 70
     1
102
RTVSPost2010Prop40
 90
        0
102
RTVSPost2010PropOp40
 70
     1
102
RTVSPost2010Prop41ColorIndex
 90
       18
102
RTVSPost2010Prop41ColorRGB
 90
-16777216
102
RTVSPost2010PropOp41
 70
     1
102
RTVSPost2010Prop42
 90
       50
102
RTVSPost2010PropOp42
 70
     1
102
RTVSPost2010Prop43
 90
        3
102
RTVSPost2010PropOp43
 70
     1
102
RTVSPost2010Prop44ColorIndex
 90
        5
102
RTVSPost2010Prop44ColorRGB
 90
      255
102
RTVSPost2010PropOp44
 70
     1
102
RTVSPost2010Prop45
280
     0
102
RTVSPost2010PropOp45
 70
     1
102
RTVSPost2010Prop46
 90
       50
102
RTVSPost2010PropOp46
 70
     1
102
RTVSPost2010Prop47
 90
       50
102
RTVSPost2010PropOp47
 70
     1
102
RTVSPost2010Prop48
 90
       50
102
RTVSPost2010PropOp48
 70
     1
102
RTVSPost2010Prop49
280
     0
102
RTVSPost2010PropOp49
 70
     1
102
RTVSPost2010Prop50
 90
       50
102
RTVSPost2010PropOp50
 70
     1
102
RTVSPost2010Prop51ColorIndex
 90
      256
102
RTVSPost2010Prop51ColorRGB
 90
-16777216
102
RTVSPost2010PropOp51
 70
     0
102
RTVSPost2010Prop52
140
1.0
102
RTVSPost2010PropOp52
 70
     0
102
RTVSPost2010Prop53
 90
        2
102
RTVSPost2010PropOp53
 70
     1
102
RTVSPost2010Prop54
  1
strokes_ogs.tif
102
RTVSPost2010PropOp54
 70
     1
102
RTVSPost2010Prop55
280
     0
102
RTVSPost2010PropOp55
 70
     1
102
RTVSPost2010Prop56
140
1.0
102
RTVSPost2010PropOp56
 70
     1
102
RTVSPost2010Prop57
140
1.0
102
RTVSPost2010PropOp57
 70
     1
  0
XRECORD
  5
57FF
102
{ACAD_REACTORS
330
57FE
102
}
330
57FE
100
AcDbXrecord
280
     1
102
RTVSPost2010Prop28
280
     0
102
RTVSPost2010PropOp28
 70
     1
102
RTVSPost2010Prop29
280
     1
102
RTVSPost2010PropOp29
 70
     1
102
RTVSPost2010Prop30
280
     1
102
RTVSPost2010PropOp30
 70
     1
102
RTVSPost2010Prop31
280
     0
102
RTVSPost2010PropOp31
 70
     1
102
RTVSPost2010Prop32
280
     0
102
RTVSPost2010PropOp32
 70
     1
102
RTVSPost2010Prop33
280
     0
102
RTVSPost2010PropOp33
 70
     1
102
RTVSPost2010Prop34
280
     0
102
RTVSPost2010PropOp34
 70
     1
102
RTVSPost2010Prop35
280
     0
102
RTVSPost2010PropOp35
 70
     1
102
RTVSPost2010Prop36
280
     0
102
RTVSPost2010PropOp36
 70
     1
102
RTVSPost2010Prop37
 90
       50
102
RTVSPost2010PropOp37
 70
     1
102
RTVSPost2010Prop38
140
0.0
102
RTVSPost2010PropOp38
 70
     1
102
RTVSPost2010Prop39
140
1.0
102
RTVSPost2010PropOp39
 70
     1
102
RTVSPost2010Prop40
 90
        0
102
RTVSPost2010PropOp40
 70
     1
102
RTVSPost2010Prop41ColorIndex
 90
       18
102
RTVSPost2010Prop41ColorRGB
 90
-16777216
102
RTVSPost2010PropOp41
 70
     1
102
RTVSPost2010Prop42
 90
       50
102
RTVSPost2010PropOp42
 70
     1
102
RTVSPost2010Prop43
 90
        3
102
RTVSPost2010PropOp43
 70
     1
102
RTVSPost2010Prop44ColorIndex
 90
        5
102
RTVSPost2010Prop44ColorRGB
 90
      255
102
RTVSPost2010PropOp44
 70
     1
102
RTVSPost2010Prop45
280
     0
102
RTVSPost2010PropOp45
 70
     1
102
RTVSPost2010Prop46
 90
       50
102
RTVSPost2010PropOp46
 70
     1
102
RTVSPost2010Prop47
 90
       50
102
RTVSPost2010PropOp47
 70
     1
102
RTVSPost2010Prop48
 90
       50
102
RTVSPost2010PropOp48
 70
     1
102
RTVSPost2010Prop49
280
     0
102
RTVSPost2010PropOp49
 70
     1
102
RTVSPost2010Prop50
 90
       50
102
RTVSPost2010PropOp50
 70
     1
102
RTVSPost2010Prop51ColorIndex
 90
      256
102
RTVSPost2010Prop51ColorRGB
 90
-16777216
102
RTVSPost2010PropOp51
 70
     0
102
RTVSPost2010Prop52
140
1.0
102
RTVSPost2010PropOp52
 70
     0
102
RTVSPost2010Prop53
 90
        2
102
RTVSPost2010PropOp53
 70
     1
102
RTVSPost2010Prop54
  1
strokes_ogs.tif
102
RTVSPost2010PropOp54
 70
     1
102
RTVSPost2010Prop55
280
     0
102
RTVSPost2010PropOp55
 70
     1
102
RTVSPost2010Prop56
140
1.0
102
RTVSPost2010PropOp56
 70
     1
102
RTVSPost2010Prop57
140
1.0
102
RTVSPost2010PropOp57
 70
     1
  0
XRECORD
  5
5807
102
{ACAD_REACTORS
330
5806
102
}
330
5806
100
AcDbXrecord
280
     1
102
RTVSPost2010Prop28
280
     0
102
RTVSPost2010PropOp28
 70
     1
102
RTVSPost2010Prop29
280
     1
102
RTVSPost2010PropOp29
 70
     1
102
RTVSPost2010Prop30
280
     1
102
RTVSPost2010PropOp30
 70
     1
102
RTVSPost2010Prop31
280
     0
102
RTVSPost2010PropOp31
 70
     1
102
RTVSPost2010Prop32
280
     0
102
RTVSPost2010PropOp32
 70
     1
102
RTVSPost2010Prop33
280
     0
102
RTVSPost2010PropOp33
 70
     1
102
RTVSPost2010Prop34
280
     0
102
RTVSPost2010PropOp34
 70
     1
102
RTVSPost2010Prop35
280
     0
102
RTVSPost2010PropOp35
 70
     1
102
RTVSPost2010Prop36
280
     0
102
RTVSPost2010PropOp36
 70
     1
102
RTVSPost2010Prop37
 90
       50
102
RTVSPost2010PropOp37
 70
     1
102
RTVSPost2010Prop38
140
0.0
102
RTVSPost2010PropOp38
 70
     1
102
RTVSPost2010Prop39
140
1.0
102
RTVSPost2010PropOp39
 70
     1
102
RTVSPost2010Prop40
 90
        0
102
RTVSPost2010PropOp40
 70
     1
102
RTVSPost2010Prop41ColorIndex
 90
       18
102
RTVSPost2010Prop41ColorRGB
 90
-16777216
102
RTVSPost2010PropOp41
 70
     1
102
RTVSPost2010Prop42
 90
       50
102
RTVSPost2010PropOp42
 70
     1
102
RTVSPost2010Prop43
 90
        3
102
RTVSPost2010PropOp43
 70
     1
102
RTVSPost2010Prop44ColorIndex
 90
        5
102
RTVSPost2010Prop44ColorRGB
 90
      255
102
RTVSPost2010PropOp44
 70
     1
102
RTVSPost2010Prop45
280
     0
102
RTVSPost2010PropOp45
 70
     1
102
RTVSPost2010Prop46
 90
       50
102
RTVSPost2010PropOp46
 70
     1
102
RTVSPost2010Prop47
 90
       50
102
RTVSPost2010PropOp47
 70
     1
102
RTVSPost2010Prop48
 90
       50
102
RTVSPost2010PropOp48
 70
     1
102
RTVSPost2010Prop49
280
     0
102
RTVSPost2010PropOp49
 70
     1
102
RTVSPost2010Prop50
 90
       50
102
RTVSPost2010PropOp50
 70
     1
102
RTVSPost2010Prop51ColorIndex
 90
      256
102
RTVSPost2010Prop51ColorRGB
 90
-16777216
102
RTVSPost2010PropOp51
 70
     0
102
RTVSPost2010Prop52
140
1.0
102
RTVSPost2010PropOp52
 70
     0
102
RTVSPost2010Prop53
 90
        2
102
RTVSPost2010PropOp53
 70
     1
102
RTVSPost2010Prop54
  1
strokes_ogs.tif
102
RTVSPost2010PropOp54
 70
     1
102
RTVSPost2010Prop55
280
     0
102
RTVSPost2010PropOp55
 70
     1
102
RTVSPost2010Prop56
140
1.0
102
RTVSPost2010PropOp56
 70
     1
102
RTVSPost2010Prop57
140
1.0
102
RTVSPost2010PropOp57
 70
     1
  0
XRECORD
  5
57F9
102
{ACAD_REACTORS
330
57F8
102
}
330
57F8
100
AcDbXrecord
280
     1
102
RTVSPost2010Prop28
280
     0
102
RTVSPost2010PropOp28
 70
     1
102
RTVSPost2010Prop29
280
     1
102
RTVSPost2010PropOp29
 70
     1
102
RTVSPost2010Prop30
280
     1
102
RTVSPost2010PropOp30
 70
     1
102
RTVSPost2010Prop31
280
     0
102
RTVSPost2010PropOp31
 70
     1
102
RTVSPost2010Prop32
280
     0
102
RTVSPost2010PropOp32
 70
     1
102
RTVSPost2010Prop33
280
     0
102
RTVSPost2010PropOp33
 70
     1
102
RTVSPost2010Prop34
280
     0
102
RTVSPost2010PropOp34
 70
     1
102
RTVSPost2010Prop35
280
     0
102
RTVSPost2010PropOp35
 70
     1
102
RTVSPost2010Prop36
280
     0
102
RTVSPost2010PropOp36
 70
     1
102
RTVSPost2010Prop37
 90
       50
102
RTVSPost2010PropOp37
 70
     1
102
RTVSPost2010Prop38
140
0.0
102
RTVSPost2010PropOp38
 70
     1
102
RTVSPost2010Prop39
140
1.0
102
RTVSPost2010PropOp39
 70
     1
102
RTVSPost2010Prop40
 90
        0
102
RTVSPost2010PropOp40
 70
     1
102
RTVSPost2010Prop41ColorIndex
 90
       18
102
RTVSPost2010Prop41ColorRGB
 90
-16777216
102
RTVSPost2010PropOp41
 70
     1
102
RTVSPost2010Prop42
 90
       50
102
RTVSPost2010PropOp42
 70
     1
102
RTVSPost2010Prop43
 90
        3
102
RTVSPost2010PropOp43
 70
     1
102
RTVSPost2010Prop44ColorIndex
 90
        5
102
RTVSPost2010Prop44ColorRGB
 90
      255
102
RTVSPost2010PropOp44
 70
     1
102
RTVSPost2010Prop45
280
     0
102
RTVSPost2010PropOp45
 70
     1
102
RTVSPost2010Prop46
 90
       50
102
RTVSPost2010PropOp46
 70
     1
102
RTVSPost2010Prop47
 90
       50
102
RTVSPost2010PropOp47
 70
     1
102
RTVSPost2010Prop48
 90
       50
102
RTVSPost2010PropOp48
 70
     1
102
RTVSPost2010Prop49
280
     0
102
RTVSPost2010PropOp49
 70
     1
102
RTVSPost2010Prop50
 90
       50
102
RTVSPost2010PropOp50
 70
     1
102
RTVSPost2010Prop51ColorIndex
 90
      256
102
RTVSPost2010Prop51ColorRGB
 90
-16777216
102
RTVSPost2010PropOp51
 70
     0
102
RTVSPost2010Prop52
140
1.0
102
RTVSPost2010PropOp52
 70
     0
102
RTVSPost2010Prop53
 90
        2
102
RTVSPost2010PropOp53
 70
     1
102
RTVSPost2010Prop54
  1
strokes_ogs.tif
102
RTVSPost2010PropOp54
 70
     1
102
RTVSPost2010Prop55
280
     0
102
RTVSPost2010PropOp55
 70
     1
102
RTVSPost2010Prop56
140
1.0
102
RTVSPost2010PropOp56
 70
     1
102
RTVSPost2010Prop57
140
1.0
102
RTVSPost2010PropOp57
 70
     1
  0
XRECORD
  5
57FD
102
{ACAD_REACTORS
330
57FC
102
}
330
57FC
100
AcDbXrecord
280
     1
102
RTVSPost2010Prop28
280
     0
102
RTVSPost2010PropOp28
 70
     1
102
RTVSPost2010Prop29
280
     1
102
RTVSPost2010PropOp29
 70
     1
102
RTVSPost2010Prop30
280
     1
102
RTVSPost2010PropOp30
 70
     1
102
RTVSPost2010Prop31
280
     0
102
RTVSPost2010PropOp31
 70
     1
102
RTVSPost2010Prop32
280
     0
102
RTVSPost2010PropOp32
 70
     1
102
RTVSPost2010Prop33
280
     0
102
RTVSPost2010PropOp33
 70
     1
102
RTVSPost2010Prop34
280
     0
102
RTVSPost2010PropOp34
 70
     1
102
RTVSPost2010Prop35
280
     0
102
RTVSPost2010PropOp35
 70
     1
102
RTVSPost2010Prop36
280
     0
102
RTVSPost2010PropOp36
 70
     1
102
RTVSPost2010Prop37
 90
       50
102
RTVSPost2010PropOp37
 70
     1
102
RTVSPost2010Prop38
140
0.0
102
RTVSPost2010PropOp38
 70
     1
102
RTVSPost2010Prop39
140
1.0
102
RTVSPost2010PropOp39
 70
     1
102
RTVSPost2010Prop40
 90
        0
102
RTVSPost2010PropOp40
 70
     1
102
RTVSPost2010Prop41ColorIndex
 90
       18
102
RTVSPost2010Prop41ColorRGB
 90
-16777216
102
RTVSPost2010PropOp41
 70
     1
102
RTVSPost2010Prop42
 90
       50
102
RTVSPost2010PropOp42
 70
     1
102
RTVSPost2010Prop43
 90
        3
102
RTVSPost2010PropOp43
 70
     1
102
RTVSPost2010Prop44ColorIndex
 90
        5
102
RTVSPost2010Prop44ColorRGB
 90
      255
102
RTVSPost2010PropOp44
 70
     1
102
RTVSPost2010Prop45
280
     0
102
RTVSPost2010PropOp45
 70
     1
102
RTVSPost2010Prop46
 90
       50
102
RTVSPost2010PropOp46
 70
     1
102
RTVSPost2010Prop47
 90
       50
102
RTVSPost2010PropOp47
 70
     1
102
RTVSPost2010Prop48
 90
       50
102
RTVSPost2010PropOp48
 70
     1
102
RTVSPost2010Prop49
280
     0
102
RTVSPost2010PropOp49
 70
     1
102
RTVSPost2010Prop50
 90
       50
102
RTVSPost2010PropOp50
 70
     1
102
RTVSPost2010Prop51ColorIndex
 90
      256
102
RTVSPost2010Prop51ColorRGB
 90
-16777216
102
RTVSPost2010PropOp51
 70
     0
102
RTVSPost2010Prop52
140
1.0
102
RTVSPost2010PropOp52
 70
     0
102
RTVSPost2010Prop53
 90
        2
102
RTVSPost2010PropOp53
 70
     1
102
RTVSPost2010Prop54
  1
strokes_ogs.tif
102
RTVSPost2010PropOp54
 70
     1
102
RTVSPost2010Prop55
280
     0
102
RTVSPost2010PropOp55
 70
     1
102
RTVSPost2010Prop56
140
1.0
102
RTVSPost2010PropOp56
 70
     1
102
RTVSPost2010Prop57
140
1.0
102
RTVSPost2010PropOp57
 70
     1
  0
XRECORD
  5
581B
102
{ACAD_REACTORS
330
581A
102
}
330
581A
100
AcDbXrecord
280
     1
102
RTVSPost2010Prop28
280
     0
102
RTVSPost2010PropOp28
 70
     1
102
RTVSPost2010Prop29
280
     1
102
RTVSPost2010PropOp29
 70
     1
102
RTVSPost2010Prop30
280
     1
102
RTVSPost2010PropOp30
 70
     1
102
RTVSPost2010Prop31
280
     0
102
RTVSPost2010PropOp31
 70
     1
102
RTVSPost2010Prop32
280
     0
102
RTVSPost2010PropOp32
 70
     1
102
RTVSPost2010Prop33
280
     0
102
RTVSPost2010PropOp33
 70
     1
102
RTVSPost2010Prop34
280
     0
102
RTVSPost2010PropOp34
 70
     1
102
RTVSPost2010Prop35
280
     0
102
RTVSPost2010PropOp35
 70
     1
102
RTVSPost2010Prop36
280
     0
102
RTVSPost2010PropOp36
 70
     1
102
RTVSPost2010Prop37
 90
       50
102
RTVSPost2010PropOp37
 70
     0
102
RTVSPost2010Prop38
140
0.0
102
RTVSPost2010PropOp38
 70
     0
102
RTVSPost2010Prop39
140
1.0
102
RTVSPost2010PropOp39
 70
     0
102
RTVSPost2010Prop40
 90
        0
102
RTVSPost2010PropOp40
 70
     0
102
RTVSPost2010Prop41ColorIndex
 90
       18
102
RTVSPost2010Prop41ColorRGB
 90
-16777216
102
RTVSPost2010PropOp41
 70
     0
102
RTVSPost2010Prop42
 90
       50
102
RTVSPost2010PropOp42
 70
     0
102
RTVSPost2010Prop43
 90
        3
102
RTVSPost2010PropOp43
 70
     0
102
RTVSPost2010Prop44ColorIndex
 90
        5
102
RTVSPost2010Prop44ColorRGB
 90
      255
102
RTVSPost2010PropOp44
 70
     0
102
RTVSPost2010Prop45
280
     0
102
RTVSPost2010PropOp45
 70
     1
102
RTVSPost2010Prop46
 90
       50
102
RTVSPost2010PropOp46
 70
     0
102
RTVSPost2010Prop47
 90
       50
102
RTVSPost2010PropOp47
 70
     0
102
RTVSPost2010Prop48
 90
       50
102
RTVSPost2010PropOp48
 70
     0
102
RTVSPost2010Prop49
280
     0
102
RTVSPost2010PropOp49
 70
     1
102
RTVSPost2010Prop50
 90
       50
102
RTVSPost2010PropOp50
 70
     0
102
RTVSPost2010Prop51ColorIndex
 90
      256
102
RTVSPost2010Prop51ColorRGB
 90
-16777216
102
RTVSPost2010PropOp51
 70
     0
102
RTVSPost2010Prop52
140
1.0
102
RTVSPost2010PropOp52
 70
     0
102
RTVSPost2010Prop53
 90
        2
102
RTVSPost2010PropOp53
 70
     0
102
RTVSPost2010Prop54
  1
strokes_ogs.tif
102
RTVSPost2010PropOp54
 70
     0
102
RTVSPost2010Prop55
280
     0
102
RTVSPost2010PropOp55
 70
     1
102
RTVSPost2010Prop56
140
1.0
102
RTVSPost2010PropOp56
 70
     0
102
RTVSPost2010Prop57
140
1.0
102
RTVSPost2010PropOp57
 70
     0
  0
XRECORD
  5
5805
102
{ACAD_REACTORS
330
5804
102
}
330
5804
100
AcDbXrecord
280
     1
102
RTVSPost2010Prop28
280
     0
102
RTVSPost2010PropOp28
 70
     1
102
RTVSPost2010Prop29
280
     1
102
RTVSPost2010PropOp29
 70
     1
102
RTVSPost2010Prop30
280
     1
102
RTVSPost2010PropOp30
 70
     1
102
RTVSPost2010Prop31
280
     0
102
RTVSPost2010PropOp31
 70
     1
102
RTVSPost2010Prop32
280
     0
102
RTVSPost2010PropOp32
 70
     1
102
RTVSPost2010Prop33
280
     0
102
RTVSPost2010PropOp33
 70
     1
102
RTVSPost2010Prop34
280
     0
102
RTVSPost2010PropOp34
 70
     1
102
RTVSPost2010Prop35
280
     0
102
RTVSPost2010PropOp35
 70
     1
102
RTVSPost2010Prop36
280
     0
102
RTVSPost2010PropOp36
 70
     1
102
RTVSPost2010Prop37
 90
       50
102
RTVSPost2010PropOp37
 70
     1
102
RTVSPost2010Prop38
140
0.0
102
RTVSPost2010PropOp38
 70
     1
102
RTVSPost2010Prop39
140
1.0
102
RTVSPost2010PropOp39
 70
     1
102
RTVSPost2010Prop40
 90
        0
102
RTVSPost2010PropOp40
 70
     1
102
RTVSPost2010Prop41ColorIndex
 90
       18
102
RTVSPost2010Prop41ColorRGB
 90
-16777216
102
RTVSPost2010PropOp41
 70
     1
102
RTVSPost2010Prop42
 90
       50
102
RTVSPost2010PropOp42
 70
     1
102
RTVSPost2010Prop43
 90
        3
102
RTVSPost2010PropOp43
 70
     1
102
RTVSPost2010Prop44ColorIndex
 90
        5
102
RTVSPost2010Prop44ColorRGB
 90
      255
102
RTVSPost2010PropOp44
 70
     1
102
RTVSPost2010Prop45
280
     0
102
RTVSPost2010PropOp45
 70
     1
102
RTVSPost2010Prop46
 90
       50
102
RTVSPost2010PropOp46
 70
     1
102
RTVSPost2010Prop47
 90
       50
102
RTVSPost2010PropOp47
 70
     1
102
RTVSPost2010Prop48
 90
       50
102
RTVSPost2010PropOp48
 70
     1
102
RTVSPost2010Prop49
280
     0
102
RTVSPost2010PropOp49
 70
     1
102
RTVSPost2010Prop50
 90
       50
102
RTVSPost2010PropOp50
 70
     1
102
RTVSPost2010Prop51ColorIndex
 90
      256
102
RTVSPost2010Prop51ColorRGB
 90
-16777216
102
RTVSPost2010PropOp51
 70
     0
102
RTVSPost2010Prop52
140
1.0
102
RTVSPost2010PropOp52
 70
     0
102
RTVSPost2010Prop53
 90
        2
102
RTVSPost2010PropOp53
 70
     1
102
RTVSPost2010Prop54
  1
strokes_ogs.tif
102
RTVSPost2010PropOp54
 70
     1
102
RTVSPost2010Prop55
280
     0
102
RTVSPost2010PropOp55
 70
     1
102
RTVSPost2010Prop56
140
1.0
102
RTVSPost2010PropOp56
 70
     1
102
RTVSPost2010Prop57
140
1.0
102
RTVSPost2010PropOp57
 70
     1
  0
XRECORD
  5
57E9
102
{ACAD_REACTORS
330
57E8
102
}
330
57E8
100
AcDbXrecord
280
     1
102
RTVSPost2010Prop28
280
     0
102
RTVSPost2010PropOp28
 70
     1
102
RTVSPost2010Prop29
280
     1
102
RTVSPost2010PropOp29
 70
     1
102
RTVSPost2010Prop30
280
     1
102
RTVSPost2010PropOp30
 70
     1
102
RTVSPost2010Prop31
280
     0
102
RTVSPost2010PropOp31
 70
     1
102
RTVSPost2010Prop32
280
     0
102
RTVSPost2010PropOp32
 70
     1
102
RTVSPost2010Prop33
280
     0
102
RTVSPost2010PropOp33
 70
     1
102
RTVSPost2010Prop34
280
     0
102
RTVSPost2010PropOp34
 70
     1
102
RTVSPost2010Prop35
280
     0
102
RTVSPost2010PropOp35
 70
     1
102
RTVSPost2010Prop36
280
     0
102
RTVSPost2010PropOp36
 70
     1
102
RTVSPost2010Prop37
 90
       50
102
RTVSPost2010PropOp37
 70
     1
102
RTVSPost2010Prop38
140
0.0
102
RTVSPost2010PropOp38
 70
     1
102
RTVSPost2010Prop39
140
1.0
102
RTVSPost2010PropOp39
 70
     1
102
RTVSPost2010Prop40
 90
        0
102
RTVSPost2010PropOp40
 70
     1
102
RTVSPost2010Prop41ColorIndex
 90
       18
102
RTVSPost2010Prop41ColorRGB
 90
-16777216
102
RTVSPost2010PropOp41
 70
     1
102
RTVSPost2010Prop42
 90
       50
102
RTVSPost2010PropOp42
 70
     1
102
RTVSPost2010Prop43
 90
        3
102
RTVSPost2010PropOp43
 70
     1
102
RTVSPost2010Prop44ColorIndex
 90
        5
102
RTVSPost2010Prop44ColorRGB
 90
      255
102
RTVSPost2010PropOp44
 70
     1
102
RTVSPost2010Prop45
280
     0
102
RTVSPost2010PropOp45
 70
     1
102
RTVSPost2010Prop46
 90
       50
102
RTVSPost2010PropOp46
 70
     1
102
RTVSPost2010Prop47
 90
       50
102
RTVSPost2010PropOp47
 70
     1
102
RTVSPost2010Prop48
 90
       50
102
RTVSPost2010PropOp48
 70
     1
102
RTVSPost2010Prop49
280
     0
102
RTVSPost2010PropOp49
 70
     1
102
RTVSPost2010Prop50
 90
       50
102
RTVSPost2010PropOp50
 70
     1
102
RTVSPost2010Prop51ColorIndex
 90
      256
102
RTVSPost2010Prop51ColorRGB
 90
-16777216
102
RTVSPost2010PropOp51
 70
     0
102
RTVSPost2010Prop52
140
1.0
102
RTVSPost2010PropOp52
 70
     0
102
RTVSPost2010Prop53
 90
        2
102
RTVSPost2010PropOp53
 70
     1
102
RTVSPost2010Prop54
  1
strokes_ogs.tif
102
RTVSPost2010PropOp54
 70
     1
102
RTVSPost2010Prop55
280
     0
102
RTVSPost2010PropOp55
 70
     1
102
RTVSPost2010Prop56
140
1.0
102
RTVSPost2010PropOp56
 70
     1
102
RTVSPost2010Prop57
140
1.0
102
RTVSPost2010PropOp57
 70
     1
  0
XRECORD
  5
57EB
102
{ACAD_REACTORS
330
57EA
102
}
330
57EA
100
AcDbXrecord
280
     1
102
RTVSPost2010Prop28
280
     0
102
RTVSPost2010PropOp28
 70
     1
102
RTVSPost2010Prop29
280
     1
102
RTVSPost2010PropOp29
 70
     1
102
RTVSPost2010Prop30
280
     1
102
RTVSPost2010PropOp30
 70
     1
102
RTVSPost2010Prop31
280
     0
102
RTVSPost2010PropOp31
 70
     1
102
RTVSPost2010Prop32
280
     0
102
RTVSPost2010PropOp32
 70
     1
102
RTVSPost2010Prop33
280
     0
102
RTVSPost2010PropOp33
 70
     1
102
RTVSPost2010Prop34
280
     0
102
RTVSPost2010PropOp34
 70
     1
102
RTVSPost2010Prop35
280
     0
102
RTVSPost2010PropOp35
 70
     1
102
RTVSPost2010Prop36
280
     0
102
RTVSPost2010PropOp36
 70
     1
102
RTVSPost2010Prop37
 90
       50
102
RTVSPost2010PropOp37
 70
     1
102
RTVSPost2010Prop38
140
0.0
102
RTVSPost2010PropOp38
 70
     1
102
RTVSPost2010Prop39
140
1.0
102
RTVSPost2010PropOp39
 70
     1
102
RTVSPost2010Prop40
 90
        0
102
RTVSPost2010PropOp40
 70
     1
102
RTVSPost2010Prop41ColorIndex
 90
       18
102
RTVSPost2010Prop41ColorRGB
 90
-16777216
102
RTVSPost2010PropOp41
 70
     1
102
RTVSPost2010Prop42
 90
       50
102
RTVSPost2010PropOp42
 70
     1
102
RTVSPost2010Prop43
 90
        3
102
RTVSPost2010PropOp43
 70
     1
102
RTVSPost2010Prop44ColorIndex
 90
        5
102
RTVSPost2010Prop44ColorRGB
 90
      255
102
RTVSPost2010PropOp44
 70
     1
102
RTVSPost2010Prop45
280
     0
102
RTVSPost2010PropOp45
 70
     1
102
RTVSPost2010Prop46
 90
       50
102
RTVSPost2010PropOp46
 70
     1
102
RTVSPost2010Prop47
 90
       50
102
RTVSPost2010PropOp47
 70
     1
102
RTVSPost2010Prop48
 90
       50
102
RTVSPost2010PropOp48
 70
     1
102
RTVSPost2010Prop49
280
     0
102
RTVSPost2010PropOp49
 70
     1
102
RTVSPost2010Prop50
 90
       50
102
RTVSPost2010PropOp50
 70
     1
102
RTVSPost2010Prop51ColorIndex
 90
      256
102
RTVSPost2010Prop51ColorRGB
 90
-16777216
102
RTVSPost2010PropOp51
 70
     0
102
RTVSPost2010Prop52
140
1.0
102
RTVSPost2010PropOp52
 70
     0
102
RTVSPost2010Prop53
 90
        2
102
RTVSPost2010PropOp53
 70
     1
102
RTVSPost2010Prop54
  1
strokes_ogs.tif
102
RTVSPost2010PropOp54
 70
     1
102
RTVSPost2010Prop55
280
     0
102
RTVSPost2010PropOp55
 70
     1
102
RTVSPost2010Prop56
140
1.0
102
RTVSPost2010PropOp56
 70
     1
102
RTVSPost2010Prop57
140
1.0
102
RTVSPost2010PropOp57
 70
     1
  0
XRECORD
  5
57ED
102
{ACAD_REACTORS
330
57EC
102
}
330
57EC
100
AcDbXrecord
280
     1
102
RTVSPost2010Prop28
280
     0
102
RTVSPost2010PropOp28
 70
     1
102
RTVSPost2010Prop29
280
     1
102
RTVSPost2010PropOp29
 70
     1
102
RTVSPost2010Prop30
280
     1
102
RTVSPost2010PropOp30
 70
     1
102
RTVSPost2010Prop31
280
     0
102
RTVSPost2010PropOp31
 70
     1
102
RTVSPost2010Prop32
280
     0
102
RTVSPost2010PropOp32
 70
     1
102
RTVSPost2010Prop33
280
     0
102
RTVSPost2010PropOp33
 70
     1
102
RTVSPost2010Prop34
280
     0
102
RTVSPost2010PropOp34
 70
     1
102
RTVSPost2010Prop35
280
     0
102
RTVSPost2010PropOp35
 70
     1
102
RTVSPost2010Prop36
280
     0
102
RTVSPost2010PropOp36
 70
     1
102
RTVSPost2010Prop37
 90
       50
102
RTVSPost2010PropOp37
 70
     1
102
RTVSPost2010Prop38
140
0.0
102
RTVSPost2010PropOp38
 70
     1
102
RTVSPost2010Prop39
140
1.0
102
RTVSPost2010PropOp39
 70
     1
102
RTVSPost2010Prop40
 90
        0
102
RTVSPost2010PropOp40
 70
     1
102
RTVSPost2010Prop41ColorIndex
 90
       18
102
RTVSPost2010Prop41ColorRGB
 90
-16777216
102
RTVSPost2010PropOp41
 70
     1
102
RTVSPost2010Prop42
 90
       50
102
RTVSPost2010PropOp42
 70
     1
102
RTVSPost2010Prop43
 90
        3
102
RTVSPost2010PropOp43
 70
     1
102
RTVSPost2010Prop44ColorIndex
 90
        5
102
RTVSPost2010Prop44ColorRGB
 90
      255
102
RTVSPost2010PropOp44
 70
     1
102
RTVSPost2010Prop45
280
     0
102
RTVSPost2010PropOp45
 70
     1
102
RTVSPost2010Prop46
 90
       50
102
RTVSPost2010PropOp46
 70
     1
102
RTVSPost2010Prop47
 90
       50
102
RTVSPost2010PropOp47
 70
     1
102
RTVSPost2010Prop48
 90
       50
102
RTVSPost2010PropOp48
 70
     1
102
RTVSPost2010Prop49
280
     0
102
RTVSPost2010PropOp49
 70
     1
102
RTVSPost2010Prop50
 90
       50
102
RTVSPost2010PropOp50
 70
     1
102
RTVSPost2010Prop51ColorIndex
 90
      256
102
RTVSPost2010Prop51ColorRGB
 90
-16777216
102
RTVSPost2010PropOp51
 70
     0
102
RTVSPost2010Prop52
140
1.0
102
RTVSPost2010PropOp52
 70
     0
102
RTVSPost2010Prop53
 90
        2
102
RTVSPost2010PropOp53
 70
     1
102
RTVSPost2010Prop54
  1
strokes_ogs.tif
102
RTVSPost2010PropOp54
 70
     1
102
RTVSPost2010Prop55
280
     0
102
RTVSPost2010PropOp55
 70
     1
102
RTVSPost2010Prop56
140
1.0
102
RTVSPost2010PropOp56
 70
     1
102
RTVSPost2010Prop57
140
1.0
102
RTVSPost2010PropOp57
 70
     1
  0
XRECORD
  5
57EF
102
{ACAD_REACTORS
330
57EE
102
}
330
57EE
100
AcDbXrecord
280
     1
102
RTVSPost2010Prop28
280
     0
102
RTVSPost2010PropOp28
 70
     1
102
RTVSPost2010Prop29
280
     1
102
RTVSPost2010PropOp29
 70
     1
102
RTVSPost2010Prop30
280
     1
102
RTVSPost2010PropOp30
 70
     1
102
RTVSPost2010Prop31
280
     0
102
RTVSPost2010PropOp31
 70
     1
102
RTVSPost2010Prop32
280
     0
102
RTVSPost2010PropOp32
 70
     1
102
RTVSPost2010Prop33
280
     0
102
RTVSPost2010PropOp33
 70
     1
102
RTVSPost2010Prop34
280
     0
102
RTVSPost2010PropOp34
 70
     1
102
RTVSPost2010Prop35
280
     0
102
RTVSPost2010PropOp35
 70
     1
102
RTVSPost2010Prop36
280
     0
102
RTVSPost2010PropOp36
 70
     1
102
RTVSPost2010Prop37
 90
       50
102
RTVSPost2010PropOp37
 70
     1
102
RTVSPost2010Prop38
140
0.0
102
RTVSPost2010PropOp38
 70
     1
102
RTVSPost2010Prop39
140
1.0
102
RTVSPost2010PropOp39
 70
     1
102
RTVSPost2010Prop40
 90
        0
102
RTVSPost2010PropOp40
 70
     1
102
RTVSPost2010Prop41ColorIndex
 90
       18
102
RTVSPost2010Prop41ColorRGB
 90
-16777216
102
RTVSPost2010PropOp41
 70
     1
102
RTVSPost2010Prop42
 90
       50
102
RTVSPost2010PropOp42
 70
     1
102
RTVSPost2010Prop43
 90
        3
102
RTVSPost2010PropOp43
 70
     1
102
RTVSPost2010Prop44ColorIndex
 90
        5
102
RTVSPost2010Prop44ColorRGB
 90
      255
102
RTVSPost2010PropOp44
 70
     1
102
RTVSPost2010Prop45
280
     0
102
RTVSPost2010PropOp45
 70
     1
102
RTVSPost2010Prop46
 90
       50
102
RTVSPost2010PropOp46
 70
     1
102
RTVSPost2010Prop47
 90
       50
102
RTVSPost2010PropOp47
 70
     1
102
RTVSPost2010Prop48
 90
       50
102
RTVSPost2010PropOp48
 70
     1
102
RTVSPost2010Prop49
280
     0
102
RTVSPost2010PropOp49
 70
     1
102
RTVSPost2010Prop50
 90
       50
102
RTVSPost2010PropOp50
 70
     1
102
RTVSPost2010Prop51ColorIndex
 90
      256
102
RTVSPost2010Prop51ColorRGB
 90
-16777216
102
RTVSPost2010PropOp51
 70
     0
102
RTVSPost2010Prop52
140
1.0
102
RTVSPost2010PropOp52
 70
     0
102
RTVSPost2010Prop53
 90
        2
102
RTVSPost2010PropOp53
 70
     1
102
RTVSPost2010Prop54
  1
strokes_ogs.tif
102
RTVSPost2010PropOp54
 70
     1
102
RTVSPost2010Prop55
280
     0
102
RTVSPost2010PropOp55
 70
     1
102
RTVSPost2010Prop56
140
1.0
102
RTVSPost2010PropOp56
 70
     1
102
RTVSPost2010Prop57
140
1.0
102
RTVSPost2010PropOp57
 70
     1
  0
XRECORD
  5
580B
102
{ACAD_REACTORS
330
580A
102
}
330
580A
100
AcDbXrecord
280
     1
102
RTVSPost2010Prop28
280
     0
102
RTVSPost2010PropOp28
 70
     1
102
RTVSPost2010Prop29
280
     1
102
RTVSPost2010PropOp29
 70
     1
102
RTVSPost2010Prop30
280
     1
102
RTVSPost2010PropOp30
 70
     1
102
RTVSPost2010Prop31
280
     0
102
RTVSPost2010PropOp31
 70
     1
102
RTVSPost2010Prop32
280
     0
102
RTVSPost2010PropOp32
 70
     1
102
RTVSPost2010Prop33
280
     0
102
RTVSPost2010PropOp33
 70
     1
102
RTVSPost2010Prop34
280
     0
102
RTVSPost2010PropOp34
 70
     1
102
RTVSPost2010Prop35
280
     0
102
RTVSPost2010PropOp35
 70
     1
102
RTVSPost2010Prop36
280
     0
102
RTVSPost2010PropOp36
 70
     1
102
RTVSPost2010Prop37
 90
       50
102
RTVSPost2010PropOp37
 70
     1
102
RTVSPost2010Prop38
140
0.0
102
RTVSPost2010PropOp38
 70
     1
102
RTVSPost2010Prop39
140
1.0
102
RTVSPost2010PropOp39
 70
     1
102
RTVSPost2010Prop40
 90
        0
102
RTVSPost2010PropOp40
 70
     1
102
RTVSPost2010Prop41ColorIndex
 90
       18
102
RTVSPost2010Prop41ColorRGB
 90
-16777216
102
RTVSPost2010PropOp41
 70
     1
102
RTVSPost2010Prop42
 90
       50
102
RTVSPost2010PropOp42
 70
     1
102
RTVSPost2010Prop43
 90
        3
102
RTVSPost2010PropOp43
 70
     1
102
RTVSPost2010Prop44ColorIndex
 90
        5
102
RTVSPost2010Prop44ColorRGB
 90
      255
102
RTVSPost2010PropOp44
 70
     1
102
RTVSPost2010Prop45
280
     0
102
RTVSPost2010PropOp45
 70
     1
102
RTVSPost2010Prop46
 90
       50
102
RTVSPost2010PropOp46
 70
     1
102
RTVSPost2010Prop47
 90
       50
102
RTVSPost2010PropOp47
 70
     1
102
RTVSPost2010Prop48
 90
       50
102
RTVSPost2010PropOp48
 70
     1
102
RTVSPost2010Prop49
280
     0
102
RTVSPost2010PropOp49
 70
     1
102
RTVSPost2010Prop50
 90
       50
102
RTVSPost2010PropOp50
 70
     1
102
RTVSPost2010Prop51ColorIndex
 90
      256
102
RTVSPost2010Prop51ColorRGB
 90
-16777216
102
RTVSPost2010PropOp51
 70
     0
102
RTVSPost2010Prop52
140
1.0
102
RTVSPost2010PropOp52
 70
     0
102
RTVSPost2010Prop53
 90
        2
102
RTVSPost2010PropOp53
 70
     1
102
RTVSPost2010Prop54
  1
strokes_ogs.tif
102
RTVSPost2010PropOp54
 70
     1
102
RTVSPost2010Prop55
280
     0
102
RTVSPost2010PropOp55
 70
     1
102
RTVSPost2010Prop56
140
1.0
102
RTVSPost2010PropOp56
 70
     1
102
RTVSPost2010Prop57
140
1.0
102
RTVSPost2010PropOp57
 70
     1
  0
XRECORD
  5
5817
102
{ACAD_REACTORS
330
5816
102
}
330
5816
100
AcDbXrecord
280
     1
102
RTVSPost2010Prop28
280
     0
102
RTVSPost2010PropOp28
 70
     1
102
RTVSPost2010Prop29
280
     1
102
RTVSPost2010PropOp29
 70
     1
102
RTVSPost2010Prop30
280
     1
102
RTVSPost2010PropOp30
 70
     1
102
RTVSPost2010Prop31
280
     0
102
RTVSPost2010PropOp31
 70
     1
102
RTVSPost2010Prop32
280
     0
102
RTVSPost2010PropOp32
 70
     1
102
RTVSPost2010Prop33
280
     0
102
RTVSPost2010PropOp33
 70
     1
102
RTVSPost2010Prop34
280
     0
102
RTVSPost2010PropOp34
 70
     1
102
RTVSPost2010Prop35
280
     0
102
RTVSPost2010PropOp35
 70
     1
102
RTVSPost2010Prop36
280
     0
102
RTVSPost2010PropOp36
 70
     1
102
RTVSPost2010Prop37
 90
       50
102
RTVSPost2010PropOp37
 70
     0
102
RTVSPost2010Prop38
140
0.0
102
RTVSPost2010PropOp38
 70
     0
102
RTVSPost2010Prop39
140
1.0
102
RTVSPost2010PropOp39
 70
     0
102
RTVSPost2010Prop40
 90
        0
102
RTVSPost2010PropOp40
 70
     0
102
RTVSPost2010Prop41ColorIndex
 90
       18
102
RTVSPost2010Prop41ColorRGB
 90
-16777216
102
RTVSPost2010PropOp41
 70
     0
102
RTVSPost2010Prop42
 90
       50
102
RTVSPost2010PropOp42
 70
     0
102
RTVSPost2010Prop43
 90
        3
102
RTVSPost2010PropOp43
 70
     0
102
RTVSPost2010Prop44ColorIndex
 90
        5
102
RTVSPost2010Prop44ColorRGB
 90
      255
102
RTVSPost2010PropOp44
 70
     0
102
RTVSPost2010Prop45
280
     0
102
RTVSPost2010PropOp45
 70
     1
102
RTVSPost2010Prop46
 90
       50
102
RTVSPost2010PropOp46
 70
     0
102
RTVSPost2010Prop47
 90
       50
102
RTVSPost2010PropOp47
 70
     0
102
RTVSPost2010Prop48
 90
       50
102
RTVSPost2010PropOp48
 70
     0
102
RTVSPost2010Prop49
280
     0
102
RTVSPost2010PropOp49
 70
     1
102
RTVSPost2010Prop50
 90
       50
102
RTVSPost2010PropOp50
 70
     0
102
RTVSPost2010Prop51ColorIndex
 90
      256
102
RTVSPost2010Prop51ColorRGB
 90
-16777216
102
RTVSPost2010PropOp51
 70
     0
102
RTVSPost2010Prop52
140
1.0
102
RTVSPost2010PropOp52
 70
     0
102
RTVSPost2010Prop53
 90
        2
102
RTVSPost2010PropOp53
 70
     0
102
RTVSPost2010Prop54
  1
strokes_ogs.tif
102
RTVSPost2010PropOp54
 70
     0
102
RTVSPost2010Prop55
280
     0
102
RTVSPost2010PropOp55
 70
     1
102
RTVSPost2010Prop56
140
1.0
102
RTVSPost2010PropOp56
 70
     0
102
RTVSPost2010Prop57
140
1.0
102
RTVSPost2010PropOp57
 70
     0
  0
XRECORD
  5
5803
102
{ACAD_REACTORS
330
5802
102
}
330
5802
100
AcDbXrecord
280
     1
102
RTVSPost2010Prop28
280
     0
102
RTVSPost2010PropOp28
 70
     1
102
RTVSPost2010Prop29
280
     1
102
RTVSPost2010PropOp29
 70
     1
102
RTVSPost2010Prop30
280
     1
102
RTVSPost2010PropOp30
 70
     1
102
RTVSPost2010Prop31
280
     0
102
RTVSPost2010PropOp31
 70
     1
102
RTVSPost2010Prop32
280
     0
102
RTVSPost2010PropOp32
 70
     1
102
RTVSPost2010Prop33
280
     0
102
RTVSPost2010PropOp33
 70
     1
102
RTVSPost2010Prop34
280
     0
102
RTVSPost2010PropOp34
 70
     1
102
RTVSPost2010Prop35
280
     0
102
RTVSPost2010PropOp35
 70
     1
102
RTVSPost2010Prop36
280
     0
102
RTVSPost2010PropOp36
 70
     1
102
RTVSPost2010Prop37
 90
       50
102
RTVSPost2010PropOp37
 70
     1
102
RTVSPost2010Prop38
140
0.0
102
RTVSPost2010PropOp38
 70
     1
102
RTVSPost2010Prop39
140
1.0
102
RTVSPost2010PropOp39
 70
     1
102
RTVSPost2010Prop40
 90
        0
102
RTVSPost2010PropOp40
 70
     1
102
RTVSPost2010Prop41ColorIndex
 90
       18
102
RTVSPost2010Prop41ColorRGB
 90
-16777216
102
RTVSPost2010PropOp41
 70
     1
102
RTVSPost2010Prop42
 90
       50
102
RTVSPost2010PropOp42
 70
     1
102
RTVSPost2010Prop43
 90
        3
102
RTVSPost2010PropOp43
 70
     1
102
RTVSPost2010Prop44ColorIndex
 90
        5
102
RTVSPost2010Prop44ColorRGB
 90
      255
102
RTVSPost2010PropOp44
 70
     1
102
RTVSPost2010Prop45
280
     0
102
RTVSPost2010PropOp45
 70
     1
102
RTVSPost2010Prop46
 90
       50
102
RTVSPost2010PropOp46
 70
     1
102
RTVSPost2010Prop47
 90
       50
102
RTVSPost2010PropOp47
 70
     1
102
RTVSPost2010Prop48
 90
       50
102
RTVSPost2010PropOp48
 70
     1
102
RTVSPost2010Prop49
280
     0
102
RTVSPost2010PropOp49
 70
     1
102
RTVSPost2010Prop50
 90
       50
102
RTVSPost2010PropOp50
 70
     1
102
RTVSPost2010Prop51ColorIndex
 90
      256
102
RTVSPost2010Prop51ColorRGB
 90
-16777216
102
RTVSPost2010PropOp51
 70
     0
102
RTVSPost2010Prop52
140
1.0
102
RTVSPost2010PropOp52
 70
     0
102
RTVSPost2010Prop53
 90
        2
102
RTVSPost2010PropOp53
 70
     1
102
RTVSPost2010Prop54
  1
strokes_ogs.tif
102
RTVSPost2010PropOp54
 70
     1
102
RTVSPost2010Prop55
280
     0
102
RTVSPost2010PropOp55
 70
     1
102
RTVSPost2010Prop56
140
1.0
102
RTVSPost2010PropOp56
 70
     1
102
RTVSPost2010Prop57
140
1.0
102
RTVSPost2010PropOp57
 70
     1
  0
XRECORD
  5
5819
102
{ACAD_REACTORS
330
5818
102
}
330
5818
100
AcDbXrecord
280
     1
102
RTVSPost2010Prop28
280
     0
102
RTVSPost2010PropOp28
 70
     1
102
RTVSPost2010Prop29
280
     1
102
RTVSPost2010PropOp29
 70
     1
102
RTVSPost2010Prop30
280
     1
102
RTVSPost2010PropOp30
 70
     1
102
RTVSPost2010Prop31
280
     0
102
RTVSPost2010PropOp31
 70
     1
102
RTVSPost2010Prop32
280
     0
102
RTVSPost2010PropOp32
 70
     1
102
RTVSPost2010Prop33
280
     0
102
RTVSPost2010PropOp33
 70
     1
102
RTVSPost2010Prop34
280
     0
102
RTVSPost2010PropOp34
 70
     1
102
RTVSPost2010Prop35
280
     0
102
RTVSPost2010PropOp35
 70
     1
102
RTVSPost2010Prop36
280
     0
102
RTVSPost2010PropOp36
 70
     1
102
RTVSPost2010Prop37
 90
       50
102
RTVSPost2010PropOp37
 70
     0
102
RTVSPost2010Prop38
140
0.0
102
RTVSPost2010PropOp38
 70
     0
102
RTVSPost2010Prop39
140
1.0
102
RTVSPost2010PropOp39
 70
     0
102
RTVSPost2010Prop40
 90
        0
102
RTVSPost2010PropOp40
 70
     0
102
RTVSPost2010Prop41ColorIndex
 90
       18
102
RTVSPost2010Prop41ColorRGB
 90
-16777216
102
RTVSPost2010PropOp41
 70
     0
102
RTVSPost2010Prop42
 90
       50
102
RTVSPost2010PropOp42
 70
     0
102
RTVSPost2010Prop43
 90
        3
102
RTVSPost2010PropOp43
 70
     0
102
RTVSPost2010Prop44ColorIndex
 90
        5
102
RTVSPost2010Prop44ColorRGB
 90
      255
102
RTVSPost2010PropOp44
 70
     0
102
RTVSPost2010Prop45
280
     0
102
RTVSPost2010PropOp45
 70
     1
102
RTVSPost2010Prop46
 90
       50
102
RTVSPost2010PropOp46
 70
     0
102
RTVSPost2010Prop47
 90
       50
102
RTVSPost2010PropOp47
 70
     0
102
RTVSPost2010Prop48
 90
       50
102
RTVSPost2010PropOp48
 70
     0
102
RTVSPost2010Prop49
280
     0
102
RTVSPost2010PropOp49
 70
     1
102
RTVSPost2010Prop50
 90
       50
102
RTVSPost2010PropOp50
 70
     0
102
RTVSPost2010Prop51ColorIndex
 90
      256
102
RTVSPost2010Prop51ColorRGB
 90
-16777216
102
RTVSPost2010PropOp51
 70
     0
102
RTVSPost2010Prop52
140
1.0
102
RTVSPost2010PropOp52
 70
     0
102
RTVSPost2010Prop53
 90
        2
102
RTVSPost2010PropOp53
 70
     0
102
RTVSPost2010Prop54
  1
strokes_ogs.tif
102
RTVSPost2010PropOp54
 70
     0
102
RTVSPost2010Prop55
280
     0
102
RTVSPost2010PropOp55
 70
     1
102
RTVSPost2010Prop56
140
1.0
102
RTVSPost2010PropOp56
 70
     0
102
RTVSPost2010Prop57
140
1.0
102
RTVSPost2010PropOp57
 70
     0
  0
XRECORD
  5
57FB
102
{ACAD_REACTORS
330
57FA
102
}
330
57FA
100
AcDbXrecord
280
     1
102
RTVSPost2010Prop28
280
     0
102
RTVSPost2010PropOp28
 70
     1
102
RTVSPost2010Prop29
280
     1
102
RTVSPost2010PropOp29
 70
     1
102
RTVSPost2010Prop30
280
     1
102
RTVSPost2010PropOp30
 70
     1
102
RTVSPost2010Prop31
280
     0
102
RTVSPost2010PropOp31
 70
     1
102
RTVSPost2010Prop32
280
     0
102
RTVSPost2010PropOp32
 70
     1
102
RTVSPost2010Prop33
280
     0
102
RTVSPost2010PropOp33
 70
     1
102
RTVSPost2010Prop34
280
     0
102
RTVSPost2010PropOp34
 70
     1
102
RTVSPost2010Prop35
280
     0
102
RTVSPost2010PropOp35
 70
     1
102
RTVSPost2010Prop36
280
     0
102
RTVSPost2010PropOp36
 70
     1
102
RTVSPost2010Prop37
 90
       50
102
RTVSPost2010PropOp37
 70
     1
102
RTVSPost2010Prop38
140
0.0
102
RTVSPost2010PropOp38
 70
     1
102
RTVSPost2010Prop39
140
1.0
102
RTVSPost2010PropOp39
 70
     1
102
RTVSPost2010Prop40
 90
        0
102
RTVSPost2010PropOp40
 70
     1
102
RTVSPost2010Prop41ColorIndex
 90
       18
102
RTVSPost2010Prop41ColorRGB
 90
-16777216
102
RTVSPost2010PropOp41
 70
     1
102
RTVSPost2010Prop42
 90
       50
102
RTVSPost2010PropOp42
 70
     1
102
RTVSPost2010Prop43
 90
        3
102
RTVSPost2010PropOp43
 70
     1
102
RTVSPost2010Prop44ColorIndex
 90
        5
102
RTVSPost2010Prop44ColorRGB
 90
      255
102
RTVSPost2010PropOp44
 70
     1
102
RTVSPost2010Prop45
280
     0
102
RTVSPost2010PropOp45
 70
     1
102
RTVSPost2010Prop46
 90
       50
102
RTVSPost2010PropOp46
 70
     1
102
RTVSPost2010Prop47
 90
       50
102
RTVSPost2010PropOp47
 70
     1
102
RTVSPost2010Prop48
 90
       50
102
RTVSPost2010PropOp48
 70
     1
102
RTVSPost2010Prop49
280
     0
102
RTVSPost2010PropOp49
 70
     1
102
RTVSPost2010Prop50
 90
       50
102
RTVSPost2010PropOp50
 70
     1
102
RTVSPost2010Prop51ColorIndex
 90
      256
102
RTVSPost2010Prop51ColorRGB
 90
-16777216
102
RTVSPost2010PropOp51
 70
     0
102
RTVSPost2010Prop52
140
1.0
102
RTVSPost2010PropOp52
 70
     0
102
RTVSPost2010Prop53
 90
        2
102
RTVSPost2010PropOp53
 70
     1
102
RTVSPost2010Prop54
  1
strokes_ogs.tif
102
RTVSPost2010PropOp54
 70
     1
102
RTVSPost2010Prop55
280
     0
102
RTVSPost2010PropOp55
 70
     1
102
RTVSPost2010Prop56
140
1.0
102
RTVSPost2010PropOp56
 70
     1
102
RTVSPost2010Prop57
140
1.0
102
RTVSPost2010PropOp57
 70
     1
  0
XRECORD
  5
5815
102
{ACAD_REACTORS
330
5814
102
}
330
5814
100
AcDbXrecord
280
     1
102
RTVSPost2010Prop28
280
     0
102
RTVSPost2010PropOp28
 70
     1
102
RTVSPost2010Prop29
280
     1
102
RTVSPost2010PropOp29
 70
     1
102
RTVSPost2010Prop30
280
     1
102
RTVSPost2010PropOp30
 70
     1
102
RTVSPost2010Prop31
280
     0
102
RTVSPost2010PropOp31
 70
     1
102
RTVSPost2010Prop32
280
     0
102
RTVSPost2010PropOp32
 70
     1
102
RTVSPost2010Prop33
280
     0
102
RTVSPost2010PropOp33
 70
     1
102
RTVSPost2010Prop34
280
     0
102
RTVSPost2010PropOp34
 70
     1
102
RTVSPost2010Prop35
280
     0
102
RTVSPost2010PropOp35
 70
     1
102
RTVSPost2010Prop36
280
     0
102
RTVSPost2010PropOp36
 70
     1
102
RTVSPost2010Prop37
 90
       50
102
RTVSPost2010PropOp37
 70
     1
102
RTVSPost2010Prop38
140
0.0
102
RTVSPost2010PropOp38
 70
     1
102
RTVSPost2010Prop39
140
1.0
102
RTVSPost2010PropOp39
 70
     1
102
RTVSPost2010Prop40
 90
        0
102
RTVSPost2010PropOp40
 70
     1
102
RTVSPost2010Prop41ColorIndex
 90
       18
102
RTVSPost2010Prop41ColorRGB
 90
-16777216
102
RTVSPost2010PropOp41
 70
     1
102
RTVSPost2010Prop42
 90
       50
102
RTVSPost2010PropOp42
 70
     1
102
RTVSPost2010Prop43
 90
        3
102
RTVSPost2010PropOp43
 70
     1
102
RTVSPost2010Prop44ColorIndex
 90
        5
102
RTVSPost2010Prop44ColorRGB
 90
      255
102
RTVSPost2010PropOp44
 70
     1
102
RTVSPost2010Prop45
280
     0
102
RTVSPost2010PropOp45
 70
     1
102
RTVSPost2010Prop46
 90
       50
102
RTVSPost2010PropOp46
 70
     1
102
RTVSPost2010Prop47
 90
       50
102
RTVSPost2010PropOp47
 70
     1
102
RTVSPost2010Prop48
 90
       50
102
RTVSPost2010PropOp48
 70
     1
102
RTVSPost2010Prop49
280
     0
102
RTVSPost2010PropOp49
 70
     1
102
RTVSPost2010Prop50
 90
       50
102
RTVSPost2010PropOp50
 70
     1
102
RTVSPost2010Prop51ColorIndex
 90
      256
102
RTVSPost2010Prop51ColorRGB
 90
-16777216
102
RTVSPost2010PropOp51
 70
     0
102
RTVSPost2010Prop52
140
1.0
102
RTVSPost2010PropOp52
 70
     0
102
RTVSPost2010Prop53
 90
        2
102
RTVSPost2010PropOp53
 70
     1
102
RTVSPost2010Prop54
  1
strokes_ogs.tif
102
RTVSPost2010PropOp54
 70
     1
102
RTVSPost2010Prop55
280
     0
102
RTVSPost2010PropOp55
 70
     1
102
RTVSPost2010Prop56
140
1.0
102
RTVSPost2010PropOp56
 70
     1
102
RTVSPost2010Prop57
140
1.0
102
RTVSPost2010PropOp57
 70
     1
  0
XRECORD
  5
5813
102
{ACAD_REACTORS
330
5812
102
}
330
5812
100
AcDbXrecord
280
     1
102
RTVSPost2010Prop28
280
     0
102
RTVSPost2010PropOp28
 70
     1
102
RTVSPost2010Prop29
280
     1
102
RTVSPost2010PropOp29
 70
     1
102
RTVSPost2010Prop30
280
     1
102
RTVSPost2010PropOp30
 70
     1
102
RTVSPost2010Prop31
280
     0
102
RTVSPost2010PropOp31
 70
     1
102
RTVSPost2010Prop32
280
     0
102
RTVSPost2010PropOp32
 70
     1
102
RTVSPost2010Prop33
280
     0
102
RTVSPost2010PropOp33
 70
     1
102
RTVSPost2010Prop34
280
     0
102
RTVSPost2010PropOp34
 70
     1
102
RTVSPost2010Prop35
280
     0
102
RTVSPost2010PropOp35
 70
     1
102
RTVSPost2010Prop36
280
     0
102
RTVSPost2010PropOp36
 70
     1
102
RTVSPost2010Prop37
 90
       50
102
RTVSPost2010PropOp37
 70
     1
102
RTVSPost2010Prop38
140
0.0
102
RTVSPost2010PropOp38
 70
     1
102
RTVSPost2010Prop39
140
1.0
102
RTVSPost2010PropOp39
 70
     1
102
RTVSPost2010Prop40
 90
        0
102
RTVSPost2010PropOp40
 70
     1
102
RTVSPost2010Prop41ColorIndex
 90
       18
102
RTVSPost2010Prop41ColorRGB
 90
-16777216
102
RTVSPost2010PropOp41
 70
     1
102
RTVSPost2010Prop42
 90
       50
102
RTVSPost2010PropOp42
 70
     1
102
RTVSPost2010Prop43
 90
        3
102
RTVSPost2010PropOp43
 70
     1
102
RTVSPost2010Prop44ColorIndex
 90
        5
102
RTVSPost2010Prop44ColorRGB
 90
      255
102
RTVSPost2010PropOp44
 70
     1
102
RTVSPost2010Prop45
280
     0
102
RTVSPost2010PropOp45
 70
     1
102
RTVSPost2010Prop46
 90
       50
102
RTVSPost2010PropOp46
 70
     1
102
RTVSPost2010Prop47
 90
       50
102
RTVSPost2010PropOp47
 70
     1
102
RTVSPost2010Prop48
 90
       50
102
RTVSPost2010PropOp48
 70
     1
102
RTVSPost2010Prop49
280
     0
102
RTVSPost2010PropOp49
 70
     1
102
RTVSPost2010Prop50
 90
       50
102
RTVSPost2010PropOp50
 70
     1
102
RTVSPost2010Prop51ColorIndex
 90
      256
102
RTVSPost2010Prop51ColorRGB
 90
-16777216
102
RTVSPost2010PropOp51
 70
     0
102
RTVSPost2010Prop52
140
1.0
102
RTVSPost2010PropOp52
 70
     0
102
RTVSPost2010Prop53
 90
        2
102
RTVSPost2010PropOp53
 70
     1
102
RTVSPost2010Prop54
  1
strokes_ogs.tif
102
RTVSPost2010PropOp54
 70
     1
102
RTVSPost2010Prop55
280
     0
102
RTVSPost2010PropOp55
 70
     1
102
RTVSPost2010Prop56
140
1.0
102
RTVSPost2010PropOp56
 70
     1
102
RTVSPost2010Prop57
140
1.0
102
RTVSPost2010PropOp57
 70
     1
  0
XRECORD
  5
580D
102
{ACAD_REACTORS
330
580C
102
}
330
580C
100
AcDbXrecord
280
     1
102
RTVSPost2010Prop28
280
     0
102
RTVSPost2010PropOp28
 70
     1
102
RTVSPost2010Prop29
280
     1
102
RTVSPost2010PropOp29
 70
     1
102
RTVSPost2010Prop30
280
     1
102
RTVSPost2010PropOp30
 70
     1
102
RTVSPost2010Prop31
280
     0
102
RTVSPost2010PropOp31
 70
     1
102
RTVSPost2010Prop32
280
     0
102
RTVSPost2010PropOp32
 70
     1
102
RTVSPost2010Prop33
280
     0
102
RTVSPost2010PropOp33
 70
     1
102
RTVSPost2010Prop34
280
     0
102
RTVSPost2010PropOp34
 70
     1
102
RTVSPost2010Prop35
280
     0
102
RTVSPost2010PropOp35
 70
     1
102
RTVSPost2010Prop36
280
     0
102
RTVSPost2010PropOp36
 70
     1
102
RTVSPost2010Prop37
 90
       50
102
RTVSPost2010PropOp37
 70
     1
102
RTVSPost2010Prop38
140
0.0
102
RTVSPost2010PropOp38
 70
     1
102
RTVSPost2010Prop39
140
1.0
102
RTVSPost2010PropOp39
 70
     1
102
RTVSPost2010Prop40
 90
        0
102
RTVSPost2010PropOp40
 70
     1
102
RTVSPost2010Prop41ColorIndex
 90
       18
102
RTVSPost2010Prop41ColorRGB
 90
-16777216
102
RTVSPost2010PropOp41
 70
     1
102
RTVSPost2010Prop42
 90
       50
102
RTVSPost2010PropOp42
 70
     1
102
RTVSPost2010Prop43
 90
        3
102
RTVSPost2010PropOp43
 70
     1
102
RTVSPost2010Prop44ColorIndex
 90
        5
102
RTVSPost2010Prop44ColorRGB
 90
      255
102
RTVSPost2010PropOp44
 70
     1
102
RTVSPost2010Prop45
280
     0
102
RTVSPost2010PropOp45
 70
     1
102
RTVSPost2010Prop46
 90
       50
102
RTVSPost2010PropOp46
 70
     1
102
RTVSPost2010Prop47
 90
       50
102
RTVSPost2010PropOp47
 70
     1
102
RTVSPost2010Prop48
 90
       50
102
RTVSPost2010PropOp48
 70
     1
102
RTVSPost2010Prop49
280
     0
102
RTVSPost2010PropOp49
 70
     1
102
RTVSPost2010Prop50
 90
       50
102
RTVSPost2010PropOp50
 70
     1
102
RTVSPost2010Prop51ColorIndex
 90
      256
102
RTVSPost2010Prop51ColorRGB
 90
-16777216
102
RTVSPost2010PropOp51
 70
     0
102
RTVSPost2010Prop52
140
1.0
102
RTVSPost2010PropOp52
 70
     0
102
RTVSPost2010Prop53
 90
        2
102
RTVSPost2010PropOp53
 70
     1
102
RTVSPost2010Prop54
  1
strokes_ogs.tif
102
RTVSPost2010PropOp54
 70
     1
102
RTVSPost2010Prop55
280
     0
102
RTVSPost2010PropOp55
 70
     1
102
RTVSPost2010Prop56
140
1.0
102
RTVSPost2010PropOp56
 70
     1
102
RTVSPost2010Prop57
140
1.0
102
RTVSPost2010PropOp57
 70
     1
  0
XRECORD
  5
580F
102
{ACAD_REACTORS
330
580E
102
}
330
580E
100
AcDbXrecord
280
     1
102
RTVSPost2010Prop28
280
     0
102
RTVSPost2010PropOp28
 70
     1
102
RTVSPost2010Prop29
280
     1
102
RTVSPost2010PropOp29
 70
     1
102
RTVSPost2010Prop30
280
     1
102
RTVSPost2010PropOp30
 70
     1
102
RTVSPost2010Prop31
280
     0
102
RTVSPost2010PropOp31
 70
     1
102
RTVSPost2010Prop32
280
     0
102
RTVSPost2010PropOp32
 70
     1
102
RTVSPost2010Prop33
280
     0
102
RTVSPost2010PropOp33
 70
     1
102
RTVSPost2010Prop34
280
     0
102
RTVSPost2010PropOp34
 70
     1
102
RTVSPost2010Prop35
280
     0
102
RTVSPost2010PropOp35
 70
     1
102
RTVSPost2010Prop36
280
     0
102
RTVSPost2010PropOp36
 70
     1
102
RTVSPost2010Prop37
 90
       50
102
RTVSPost2010PropOp37
 70
     1
102
RTVSPost2010Prop38
140
0.0
102
RTVSPost2010PropOp38
 70
     1
102
RTVSPost2010Prop39
140
1.0
102
RTVSPost2010PropOp39
 70
     1
102
RTVSPost2010Prop40
 90
        0
102
RTVSPost2010PropOp40
 70
     1
102
RTVSPost2010Prop41ColorIndex
 90
       18
102
RTVSPost2010Prop41ColorRGB
 90
-16777216
102
RTVSPost2010PropOp41
 70
     1
102
RTVSPost2010Prop42
 90
       50
102
RTVSPost2010PropOp42
 70
     1
102
RTVSPost2010Prop43
 90
        3
102
RTVSPost2010PropOp43
 70
     1
102
RTVSPost2010Prop44ColorIndex
 90
        5
102
RTVSPost2010Prop44ColorRGB
 90
      255
102
RTVSPost2010PropOp44
 70
     1
102
RTVSPost2010Prop45
280
     0
102
RTVSPost2010PropOp45
 70
     1
102
RTVSPost2010Prop46
 90
       50
102
RTVSPost2010PropOp46
 70
     1
102
RTVSPost2010Prop47
 90
       50
102
RTVSPost2010PropOp47
 70
     1
102
RTVSPost2010Prop48
 90
       50
102
RTVSPost2010PropOp48
 70
     1
102
RTVSPost2010Prop49
280
     0
102
RTVSPost2010PropOp49
 70
     1
102
RTVSPost2010Prop50
 90
       50
102
RTVSPost2010PropOp50
 70
     1
102
RTVSPost2010Prop51ColorIndex
 90
      256
102
RTVSPost2010Prop51ColorRGB
 90
-16777216
102
RTVSPost2010PropOp51
 70
     0
102
RTVSPost2010Prop52
140
1.0
102
RTVSPost2010PropOp52
 70
     0
102
RTVSPost2010Prop53
 90
        2
102
RTVSPost2010PropOp53
 70
     1
102
RTVSPost2010Prop54
  1
strokes_ogs.tif
102
RTVSPost2010PropOp54
 70
     1
102
RTVSPost2010Prop55
280
     0
102
RTVSPost2010PropOp55
 70
     1
102
RTVSPost2010Prop56
140
1.0
102
RTVSPost2010PropOp56
 70
     1
102
RTVSPost2010Prop57
140
1.0
102
RTVSPost2010PropOp57
 70
     1
  0
XRECORD
  5
5801
102
{ACAD_REACTORS
330
5800
102
}
330
5800
100
AcDbXrecord
280
     1
102
RTVSPost2010Prop28
280
     0
102
RTVSPost2010PropOp28
 70
     1
102
RTVSPost2010Prop29
280
     1
102
RTVSPost2010PropOp29
 70
     1
102
RTVSPost2010Prop30
280
     1
102
RTVSPost2010PropOp30
 70
     1
102
RTVSPost2010Prop31
280
     0
102
RTVSPost2010PropOp31
 70
     1
102
RTVSPost2010Prop32
280
     0
102
RTVSPost2010PropOp32
 70
     1
102
RTVSPost2010Prop33
280
     0
102
RTVSPost2010PropOp33
 70
     1
102
RTVSPost2010Prop34
280
     0
102
RTVSPost2010PropOp34
 70
     1
102
RTVSPost2010Prop35
280
     0
102
RTVSPost2010PropOp35
 70
     1
102
RTVSPost2010Prop36
280
     0
102
RTVSPost2010PropOp36
 70
     1
102
RTVSPost2010Prop37
 90
       50
102
RTVSPost2010PropOp37
 70
     1
102
RTVSPost2010Prop38
140
0.0
102
RTVSPost2010PropOp38
 70
     1
102
RTVSPost2010Prop39
140
1.0
102
RTVSPost2010PropOp39
 70
     1
102
RTVSPost2010Prop40
 90
        0
102
RTVSPost2010PropOp40
 70
     1
102
RTVSPost2010Prop41ColorIndex
 90
       18
102
RTVSPost2010Prop41ColorRGB
 90
-16777216
102
RTVSPost2010PropOp41
 70
     1
102
RTVSPost2010Prop42
 90
       50
102
RTVSPost2010PropOp42
 70
     1
102
RTVSPost2010Prop43
 90
        3
102
RTVSPost2010PropOp43
 70
     1
102
RTVSPost2010Prop44ColorIndex
 90
        5
102
RTVSPost2010Prop44ColorRGB
 90
      255
102
RTVSPost2010PropOp44
 70
     1
102
RTVSPost2010Prop45
280
     0
102
RTVSPost2010PropOp45
 70
     1
102
RTVSPost2010Prop46
 90
       50
102
RTVSPost2010PropOp46
 70
     1
102
RTVSPost2010Prop47
 90
       50
102
RTVSPost2010PropOp47
 70
     1
102
RTVSPost2010Prop48
 90
       50
102
RTVSPost2010PropOp48
 70
     1
102
RTVSPost2010Prop49
280
     0
102
RTVSPost2010PropOp49
 70
     1
102
RTVSPost2010Prop50
 90
       50
102
RTVSPost2010PropOp50
 70
     1
102
RTVSPost2010Prop51ColorIndex
 90
      256
102
RTVSPost2010Prop51ColorRGB
 90
-16777216
102
RTVSPost2010PropOp51
 70
     0
102
RTVSPost2010Prop52
140
1.0
102
RTVSPost2010PropOp52
 70
     0
102
RTVSPost2010Prop53
 90
        2
102
RTVSPost2010PropOp53
 70
     1
102
RTVSPost2010Prop54
  1
strokes_ogs.tif
102
RTVSPost2010PropOp54
 70
     1
102
RTVSPost2010Prop55
280
     0
102
RTVSPost2010PropOp55
 70
     1
102
RTVSPost2010Prop56
140
1.0
102
RTVSPost2010PropOp56
 70
     1
102
RTVSPost2010Prop57
140
1.0
102
RTVSPost2010PropOp57
 70
     1
  0
XRECORD
  5
5809
102
{ACAD_REACTORS
330
5808
102
}
330
5808
100
AcDbXrecord
280
     1
102
RTVSPost2010Prop28
280
     0
102
RTVSPost2010PropOp28
 70
     1
102
RTVSPost2010Prop29
280
     1
102
RTVSPost2010PropOp29
 70
     1
102
RTVSPost2010Prop30
280
     1
102
RTVSPost2010PropOp30
 70
     1
102
RTVSPost2010Prop31
280
     0
102
RTVSPost2010PropOp31
 70
     1
102
RTVSPost2010Prop32
280
     0
102
RTVSPost2010PropOp32
 70
     1
102
RTVSPost2010Prop33
280
     0
102
RTVSPost2010PropOp33
 70
     1
102
RTVSPost2010Prop34
280
     0
102
RTVSPost2010PropOp34
 70
     1
102
RTVSPost2010Prop35
280
     0
102
RTVSPost2010PropOp35
 70
     1
102
RTVSPost2010Prop36
280
     0
102
RTVSPost2010PropOp36
 70
     1
102
RTVSPost2010Prop37
 90
       50
102
RTVSPost2010PropOp37
 70
     1
102
RTVSPost2010Prop38
140
0.0
102
RTVSPost2010PropOp38
 70
     1
102
RTVSPost2010Prop39
140
1.0
102
RTVSPost2010PropOp39
 70
     1
102
RTVSPost2010Prop40
 90
        0
102
RTVSPost2010PropOp40
 70
     1
102
RTVSPost2010Prop41ColorIndex
 90
       18
102
RTVSPost2010Prop41ColorRGB
 90
-16777216
102
RTVSPost2010PropOp41
 70
     1
102
RTVSPost2010Prop42
 90
       50
102
RTVSPost2010PropOp42
 70
     1
102
RTVSPost2010Prop43
 90
        3
102
RTVSPost2010PropOp43
 70
     1
102
RTVSPost2010Prop44ColorIndex
 90
        5
102
RTVSPost2010Prop44ColorRGB
 90
      255
102
RTVSPost2010PropOp44
 70
     1
102
RTVSPost2010Prop45
280
     0
102
RTVSPost2010PropOp45
 70
     1
102
RTVSPost2010Prop46
 90
       50
102
RTVSPost2010PropOp46
 70
     1
102
RTVSPost2010Prop47
 90
       50
102
RTVSPost2010PropOp47
 70
     1
102
RTVSPost2010Prop48
 90
       50
102
RTVSPost2010PropOp48
 70
     1
102
RTVSPost2010Prop49
280
     0
102
RTVSPost2010PropOp49
 70
     1
102
RTVSPost2010Prop50
 90
       50
102
RTVSPost2010PropOp50
 70
     1
102
RTVSPost2010Prop51ColorIndex
 90
      256
102
RTVSPost2010Prop51ColorRGB
 90
-16777216
102
RTVSPost2010PropOp51
 70
     0
102
RTVSPost2010Prop52
140
1.0
102
RTVSPost2010PropOp52
 70
     0
102
RTVSPost2010Prop53
 90
        2
102
RTVSPost2010PropOp53
 70
     1
102
RTVSPost2010Prop54
  1
strokes_ogs.tif
102
RTVSPost2010PropOp54
 70
     1
102
RTVSPost2010Prop55
280
     0
102
RTVSPost2010PropOp55
 70
     1
102
RTVSPost2010Prop56
140
1.0
102
RTVSPost2010PropOp56
 70
     1
102
RTVSPost2010Prop57
140
1.0
102
RTVSPost2010PropOp57
 70
     1
  0
XRECORD
  5
5811
102
{ACAD_REACTORS
330
5810
102
}
330
5810
100
AcDbXrecord
280
     1
102
RTVSPost2010Prop28
280
     0
102
RTVSPost2010PropOp28
 70
     1
102
RTVSPost2010Prop29
280
     1
102
RTVSPost2010PropOp29
 70
     1
102
RTVSPost2010Prop30
280
     1
102
RTVSPost2010PropOp30
 70
     1
102
RTVSPost2010Prop31
280
     0
102
RTVSPost2010PropOp31
 70
     1
102
RTVSPost2010Prop32
280
     0
102
RTVSPost2010PropOp32
 70
     1
102
RTVSPost2010Prop33
280
     0
102
RTVSPost2010PropOp33
 70
     1
102
RTVSPost2010Prop34
280
     0
102
RTVSPost2010PropOp34
 70
     1
102
RTVSPost2010Prop35
280
     0
102
RTVSPost2010PropOp35
 70
     1
102
RTVSPost2010Prop36
280
     0
102
RTVSPost2010PropOp36
 70
     1
102
RTVSPost2010Prop37
 90
       50
102
RTVSPost2010PropOp37
 70
     1
102
RTVSPost2010Prop38
140
0.0
102
RTVSPost2010PropOp38
 70
     1
102
RTVSPost2010Prop39
140
1.0
102
RTVSPost2010PropOp39
 70
     1
102
RTVSPost2010Prop40
 90
        0
102
RTVSPost2010PropOp40
 70
     1
102
RTVSPost2010Prop41ColorIndex
 90
       18
102
RTVSPost2010Prop41ColorRGB
 90
-16777216
102
RTVSPost2010PropOp41
 70
     1
102
RTVSPost2010Prop42
 90
       50
102
RTVSPost2010PropOp42
 70
     1
102
RTVSPost2010Prop43
 90
        3
102
RTVSPost2010PropOp43
 70
     1
102
RTVSPost2010Prop44ColorIndex
 90
        5
102
RTVSPost2010Prop44ColorRGB
 90
      255
102
RTVSPost2010PropOp44
 70
     1
102
RTVSPost2010Prop45
280
     0
102
RTVSPost2010PropOp45
 70
     1
102
RTVSPost2010Prop46
 90
       50
102
RTVSPost2010PropOp46
 70
     1
102
RTVSPost2010Prop47
 90
       50
102
RTVSPost2010PropOp47
 70
     1
102
RTVSPost2010Prop48
 90
       50
102
RTVSPost2010PropOp48
 70
     1
102
RTVSPost2010Prop49
280
     0
102
RTVSPost2010PropOp49
 70
     1
102
RTVSPost2010Prop50
 90
       50
102
RTVSPost2010PropOp50
 70
     1
102
RTVSPost2010Prop51ColorIndex
 90
      256
102
RTVSPost2010Prop51ColorRGB
 90
-16777216
102
RTVSPost2010PropOp51
 70
     0
102
RTVSPost2010Prop52
140
1.0
102
RTVSPost2010PropOp52
 70
     0
102
RTVSPost2010Prop53
 90
        2
102
RTVSPost2010PropOp53
 70
     1
102
RTVSPost2010Prop54
  1
strokes_ogs.tif
102
RTVSPost2010PropOp54
 70
     1
102
RTVSPost2010Prop55
280
     0
102
RTVSPost2010PropOp55
 70
     1
102
RTVSPost2010Prop56
140
1.0
102
RTVSPost2010PropOp56
 70
     1
102
RTVSPost2010Prop57
140
1.0
102
RTVSPost2010PropOp57
 70
     1
  0
ENDSEC
  0
EOF
