  0
SECTION
  2
HEADER
  9
$ACADVER
  1
AC1018
  9
$ACADMAINTVER
 70
   104
  9
$DWGCODEPAGE
  3
ANSI_932
  9
$LASTSAVEDBY
  1
a080061
  9
$CUSTOMPROPERTYTAG
  1
AmdtFileType
  9
$CUSTOMPROPERTY
  1
84
  9
$INSBASE
 10
0.0
 20
0.0
 30
0.0
  9
$EXTMIN
 10
-1213.179000237933
 20
-65.36864019624045
 30
-0.0015257624927045
  9
$EXTMAX
 10
658.9325062568896
 20
1210.601815384116
 30
50.00152599532333
  9
$LIMMIN
 10
-2970.0
 20
-2100.0
  9
$LIMMAX
 10
2970.0
 20
2100.0
  9
$ORTHOMODE
 70
     1
  9
$REGENMODE
 70
     0
  9
$FILLMODE
 70
     1
  9
$QTEXTMODE
 70
     0
  9
$MIRRTEXT
 70
     0
  9
$LTSCALE
 40
20.0
  9
$ATTMODE
 70
     1
  9
$TEXTSIZE
 40
64.0
  9
$TRACEWID
 40
0.05
  9
$TEXTSTYLE
  7
STANDARD
  9
$CLAYER
  8
0
  9
$CELTYPE
  6
ByLayer
  9
$CECOLOR
 62
   256
  9
$CELTSCALE
 40
1.0
  9
$DISPSILH
 70
     0
  9
$DIMSCALE
 40
1.0
  9
$DIMASZ
 40
0.12
  9
$DIMEXO
 40
0.05
  9
$DIMDLI
 40
0.5
  9
$DIMRND
 40
0.0
  9
$DIMDLE
 40
0.0
  9
$DIMEXE
 40
0.1
  9
$DIMTP
 40
0.1
  9
$DIMTM
 40
0.1
  9
$DIMTXT
 40
0.12
  9
$DIMCEN
 40
0.0
  9
$DIMTSZ
 40
0.0
  9
$DIMTOL
 70
     0
  9
$DIMLIM
 70
     0
  9
$DIMTIH
 70
     1
  9
$DIMTOH
 70
     1
  9
$DIMSE1
 70
     0
  9
$DIMSE2
 70
     0
  9
$DIMTAD
 70
     0
  9
$DIMZIN
 70
     7
  9
$DIMBLK
  1

  9
$DIMASO
 70
     1
  9
$DIMSHO
 70
     0
  9
$DIMPOST
  1

  9
$DIMAPOST
  1
mm
  9
$DIMALT
 70
     0
  9
$DIMALTD
 70
     2
  9
$DIMALTF
 40
25.4
  9
$DIMLFAC
 40
1.0
  9
$DIMTOFL
 70
     0
  9
$DIMTVP
 40
0.0
  9
$DIMTIX
 70
     0
  9
$DIMSOXD
 70
     0
  9
$DIMSAH
 70
     0
  9
$DIMBLK1
  1

  9
$DIMBLK2
  1

  9
$DIMSTYLE
  2
AM_ANSI
  9
$DIMCLRD
 70
   256
  9
$DIMCLRE
 70
   256
  9
$DIMCLRT
 70
     2
  9
$DIMTFAC
 40
0.71
  9
$DIMGAP
 40
0.06
  9
$DIMJUST
 70
     0
  9
$DIMSD1
 70
     0
  9
$DIMSD2
 70
     0
  9
$DIMTOLJ
 70
     1
  9
$DIMTZIN
 70
     7
  9
$DIMALTZ
 70
     0
  9
$DIMALTTZ
 70
     0
  9
$DIMUPT
 70
     0
  9
$DIMDEC
 70
     4
  9
$DIMTDEC
 70
     4
  9
$DIMALTU
 70
     2
  9
$DIMALTTD
 70
     4
  9
$DIMTXSTY
  7
STANDARD
  9
$DIMAUNIT
 70
     0
  9
$DIMADEC
 70
     0
  9
$DIMALTRND
 40
0.0
  9
$DIMAZIN
 70
     2
  9
$DIMDSEP
 70
    46
  9
$DIMATFIT
 70
     3
  9
$DIMFRAC
 70
     0
  9
$DIMLDRBLK
  1

  9
$DIMLUNIT
 70
     2
  9
$DIMLWD
 70
    -1
  9
$DIMLWE
 70
    -1
  9
$DIMTMOVE
 70
     0
  9
$LUNITS
 70
     2
  9
$LUPREC
 70
     4
  9
$SKETCHINC
 40
0.1
  9
$FILLETRAD
 40
4.0
  9
$AUNITS
 70
     1
  9
$AUPREC
 70
     3
  9
$MENU
  1
ACAD
  9
$ELEVATION
 40
0.0
  9
$PELEVATION
 40
0.0
  9
$THICKNESS
 40
50.0
  9
$LIMCHECK
 70
     0
  9
$CHAMFERA
 40
0.0
  9
$CHAMFERB
 40
0.0
  9
$CHAMFERC
 40
0.0
  9
$CHAMFERD
 40
0.0
  9
$SKPOLY
 70
     0
  9
$TDCREATE
 40
2452321.396199653
  9
$TDUCREATE
 40
2452321.021199653
  9
$TDUPDATE
 40
2457491.828651829
  9
$TDUUPDATE
 40
2457491.453651829
  9
$TDINDWG
 40
1.0448681250
  9
$TDUSRTIMER
 40
1.0448621875
  9
$USRTIMER
 70
     1
  9
$ANGBASE
 50
0.0
  9
$ANGDIR
 70
     0
  9
$PDMODE
 70
     3
  9
$PDSIZE
 40
-2.0
  9
$PLINEWID
 40
0.0
  9
$SPLFRAME
 70
     0
  9
$SPLINETYPE
 70
     6
  9
$SPLINESEGS
 70
     8
  9
$HANDSEED
  5
33F8
  9
$SURFTAB1
 70
     6
  9
$SURFTAB2
 70
     6
  9
$SURFTYPE
 70
     6
  9
$SURFU
 70
     6
  9
$SURFV
 70
     6
  9
$UCSBASE
  2

  9
$UCSNAME
  2

  9
$UCSORG
 10
0.0
 20
0.0
 30
0.0
  9
$UCSXDIR
 10
1.0
 20
0.0
 30
0.0
  9
$UCSYDIR
 10
0.0
 20
1.0
 30
0.0
  9
$UCSORTHOREF
  2

  9
$UCSORTHOVIEW
 70
     0
  9
$UCSORGTOP
 10
0.0
 20
0.0
 30
0.0
  9
$UCSORGBOTTOM
 10
0.0
 20
0.0
 30
0.0
  9
$UCSORGLEFT
 10
0.0
 20
0.0
 30
0.0
  9
$UCSORGRIGHT
 10
0.0
 20
0.0
 30
0.0
  9
$UCSORGFRONT
 10
0.0
 20
0.0
 30
0.0
  9
$UCSORGBACK
 10
0.0
 20
0.0
 30
0.0
  9
$PUCSBASE
  2

  9
$PUCSNAME
  2

  9
$PUCSORG
 10
0.0
 20
0.0
 30
0.0
  9
$PUCSXDIR
 10
1.0
 20
0.0
 30
0.0
  9
$PUCSYDIR
 10
0.0
 20
1.0
 30
0.0
  9
$PUCSORTHOREF
  2

  9
$PUCSORTHOVIEW
 70
     0
  9
$PUCSORGTOP
 10
0.0
 20
0.0
 30
0.0
  9
$PUCSORGBOTTOM
 10
0.0
 20
0.0
 30
0.0
  9
$PUCSORGLEFT
 10
0.0
 20
0.0
 30
0.0
  9
$PUCSORGRIGHT
 10
0.0
 20
0.0
 30
0.0
  9
$PUCSORGFRONT
 10
0.0
 20
0.0
 30
0.0
  9
$PUCSORGBACK
 10
0.0
 20
0.0
 30
0.0
  9
$USERI1
 70
     0
  9
$USERI2
 70
     0
  9
$USERI3
 70
     0
  9
$USERI4
 70
     0
  9
$USERI5
 70
     0
  9
$USERR1
 40
20.0
  9
$USERR2
 40
0.0
  9
$USERR3
 40
0.0
  9
$USERR4
 40
0.0
  9
$USERR5
 40
0.0
  9
$WORLDVIEW
 70
     1
  9
$SHADEDGE
 70
     3
  9
$SHADEDIF
 70
    70
  9
$TILEMODE
 70
     1
  9
$MAXACTVP
 70
    64
  9
$PINSBASE
 10
0.0
 20
0.0
 30
0.0
  9
$PLIMCHECK
 70
     0
  9
$PEXTMIN
 10
1.000000000000000E+20
 20
1.000000000000000E+20
 30
1.000000000000000E+20
  9
$PEXTMAX
 10
-1.000000000000000E+20
 20
-1.000000000000000E+20
 30
-1.000000000000000E+20
  9
$PLIMMIN
 10
0.0
 20
0.0
  9
$PLIMMAX
 10
12.0
 20
9.0
  9
$UNITMODE
 70
     0
  9
$VISRETAIN
 70
     1
  9
$PLINEGEN
 70
     0
  9
$PSLTSCALE
 70
     1
  9
$TREEDEPTH
 70
  3020
  9
$CMLSTYLE
  2
Standard
  9
$CMLJUST
 70
     0
  9
$CMLSCALE
 40
1.0
  9
$PROXYGRAPHICS
 70
     1
  9
$MEASUREMENT
 70
     0
  9
$CELWEIGHT
370
    -1
  9
$ENDCAPS
280
     0
  9
$JOINSTYLE
280
     0
  9
$LWDISPLAY
290
     0
  9
$INSUNITS
 70
     0
  9
$HYPERLINKBASE
  1

  9
$STYLESHEET
  1

  9
$XEDIT
290
     1
  9
$CEPSNTYPE
380
     0
  9
$PSTYLEMODE
290
     1
  9
$FINGERPRINTGUID
  2
{EF56F0EF-F411-4F22-8B29-54F8098E68BC}
  9
$VERSIONGUID
  2
{EEF17BA4-8F19-43AF-9B23-51C518B620CC}
  9
$EXTNAMES
290
     1
  9
$PSVPSCALE
 40
0.0
  9
$OLESTARTUP
290
     0
  9
$SORTENTS
280
   127
  9
$INDEXCTL
280
     1
  9
$HIDETEXT
280
     0
  9
$XCLIPFRAME
290
     0
  9
$HALOGAP
280
     0
  9
$OBSCOLOR
 70
   257
  9
$OBSLTYPE
280
     0
  9
$INTERSECTIONDISPLAY
280
     0
  9
$INTERSECTIONCOLOR
 70
   257
  9
$DIMASSOC
280
     1
  9
$PROJECTNAME
  1

  0
ENDSEC
  0
SECTION
  2
CLASSES
  0
CLASS
  1
ACDBDICTIONARYWDFLT
  2
AcDbDictionaryWithDefault
  3
ObjectDBX Classes
 90
        0
 91
        1
280
     0
281
     0
  0
CLASS
  1
MATERIAL
  2
AcDbMaterial
  3
ObjectDBX Classes
 90
     1153
 91
        3
280
     0
281
     0
  0
CLASS
  1
VISUALSTYLE
  2
AcDbVisualStyle
  3
ObjectDBX Classes
 90
     4095
 91
       16
280
     0
281
     0
  0
CLASS
  1
SCALE
  2
AcDbScale
  3
ObjectDBX Classes
 90
     1153
 91
       33
280
     0
281
     0
  0
CLASS
  1
TABLESTYLE
  2
AcDbTableStyle
  3
ObjectDBX Classes
 90
     4095
 91
        1
280
     0
281
     0
  0
CLASS
  1
MLEADERSTYLE
  2
AcDbMLeaderStyle
  3
ACDB_MLEADERSTYLE_CLASS
 90
     4095
 91
        1
280
     0
281
     0
  0
CLASS
  1
AMGSETTINGSOBJ
  2
AmgSettingsObj
  3
"AcadM|Product Description: AutoCAD Mechanical|Company: Autodesk, Inc."
 90
     1024
 91
        2
280
     0
281
     0
  0
CLASS
  1
ACME_DOCUMENT
  2
AcMeDbDoc
  3
AcMeServices
 90
     1024
 91
        1
280
     0
281
     0
  0
CLASS
  1
ACMESCOPE
  2
AcMeScope
  3
AcMeServices
 90
     1024
 91
        1
280
     0
281
     0
  0
CLASS
  1
ACMECOMMANDHISTORY
  2
AcMeCommandHistory
  3
AcMeServices
 90
     1024
 91
        1
280
     0
281
     0
  0
CLASS
  1
ACIMSYSVARMAN
  2
AcImSysVarManager
  3
AcMeServices
 90
     1024
 91
        6
280
     0
281
     0
  0
CLASS
  1
ACIMREALSYSVAR
  2
AcImRealSysVar
  3
AcMeServices
 90
     1024
 91
        1
280
     0
281
     0
  0
CLASS
  1
ACIMINTSYSVAR
  2
AcImIntSysVar
  3
AcMeServices
 90
     1024
 91
       27
280
     0
281
     0
  0
CLASS
  1
ACMEDRAWINGMAN
  2
AcMeDrawingMan
  3
AcMeServices
 90
     1024
 91
        1
280
     0
281
     0
  0
CLASS
  1
ACMEVIEW
  2
AcMeView
  3
AcMeServices
 90
     1024
 91
        1
280
     0
281
     0
  0
CLASS
  1
ACDBENTITYCACHE
  2
AcMeEntityCache
  3
AcMeServices
 90
     1024
 91
        1
280
     0
281
     0
  0
CLASS
  1
GSMANAGER
  2
AcMeGSManager
  3
AcMeServices
 90
     1024
 91
        1
280
     0
281
     0
  0
CLASS
  1
AMDTINTERNALREACTOR
  2
AmdtInternalReactor
  3
AcMeServices
 90
     1024
 91
        2
280
     0
281
     0
  0
CLASS
  1
ACMESTATEMGR
  2
AcMeStateMgr
  3
AcMeServices
 90
     1024
 91
        1
280
     0
281
     0
  0
CLASS
  1
ACGREFMASTER
  2
AcGrefMaster
  3
AcAttribServices
 90
     1024
 91
        1
280
     0
281
     0
  0
CLASS
  1
AM_DRAWING_MGR
  2
AcDmDwgMgr
  3
AcMechDwgViewMgmt
 90
     1024
 91
        1
280
     0
281
     0
  0
CLASS
  1
AM_DWG_DOCUMENT
  2
AcDmDwgDocument
  3
AcMechDwgViewMgmt
 90
     1024
 91
        1
280
     0
281
     0
  0
CLASS
  1
AM_DWG_SHEET
  2
AcDmSheet
  3
AcMechDwgViewMgmt
 90
     1024
 91
        1
280
     0
281
     0
  0
CLASS
  1
AM_VIEWDIMPARMAP
  2
AcDmViewDimParMap
  3
AcMechDwgViewMgmt
 90
     1024
 91
        1
280
     0
281
     0
  0
CLASS
  1
AM_DWGMGR_NAME
  2
AcDmDwgMgrName
  3
AcMechDwgViewMgmt
 90
     1024
 91
        1
280
     0
281
     0
  0
CLASS
  1
ACME_DATABASE
  2
AcMeDbDatabase
  3
AcMeServices
 90
     1024
 91
        2
280
     0
281
     0
  0
CLASS
  1
ACRFINSADJUSTERMGR
  2
AcRfInsAdjusterMgr
  3
AcMeServices
 90
     1024
 91
        1
280
     0
281
     0
  0
CLASS
  1
ACGREFACADMASTER
  2
AcGrefacadMaster
  3
AcGrefServices
 90
     1024
 91
        1
280
     0
281
     0
  0
CLASS
  1
AMDTMENUSTATEMGR
  2
AmdtMenuStateMgr
  3
McadcomServices
 90
     1024
 91
        1
280
     0
281
     0
  0
CLASS
  1
AMDTMCOMMENUSTATE
  2
AmdtMcomMenuState
  3
McadcomServices
 90
     1024
 91
        1
280
     0
281
     0
  0
CLASS
  1
AMIMASTER
  2
AmiMaster
  3
AmiServices
 90
     1024
 91
        1
280
     0
281
     0
  0
CLASS
  1
ASAPP
  2
AcAsAppObject
  3
AutoSurfServices
 90
     1024
 91
        0
280
     0
281
     0
  0
CLASS
  1
IM_STATIC_MAN
  2
AcImStaticVarManager
  3
AcMeServices
 90
     1024
 91
        0
280
     0
281
     0
  0
CLASS
  1
ACIMSTRSYSVAR
  2
AcImStrSysVar
  3
AcMeServices
 90
     1024
 91
        6
280
     0
281
     0
  0
CLASS
  1
ACIMDBLSTATICVAR
  2
AcImDblStaticVar
  3
AcMeServices
 90
     1024
 91
        0
280
     0
281
     0
  0
CLASS
  1
ACIMSTRSTATICVAR
  2
AcImStrStaticVar
  3
AcMeServices
 90
     1024
 91
        0
280
     0
281
     0
  0
CLASS
  1
ACIMINTSTATICVAR
  2
AcImIntStaticVar
  3
AcMeServices
 90
     1024
 91
        0
280
     0
281
     0
  0
CLASS
  1
ACASGREFMASTER
  2
AcAsGrefMaster
  3
AutoSurfResolverServices
 90
     1024
 91
        0
280
     0
281
     0
  0
CLASS
  1
ACADGREFMODULE
  2
AcAdGrefModule
  3
AdGrefServices
 90
     1024
 91
        0
280
     0
281
     0
  0
CLASS
  1
AMDTMAPISURFMOUDULE
  2
AmdtMApiSurfModule
  3
MApiSurfServices
 90
     1024
 91
        0
280
     0
281
     0
  0
CLASS
  1
MAPIAMMOUDLE
  2
MApiAmModule
  3
MApiAmServices
 90
     1024
 91
        1
280
     0
281
     0
  0
CLASS
  1
AMDTADMENUSTATE
  2
AmdtAdMenuState
  3
DesignerServices
 90
     1024
 91
        1
280
     0
281
     0
  0
CLASS
  1
ADAPPL
  2
AcAdAppl
  3
DesignerServices
 90
     1024
 91
        1
280
     0
281
     0
  0
CLASS
  1
DEPMGR
  2
AcAdDepMgr
  3
DesignerServices
 90
     1024
 91
        1
280
     0
281
     0
  0
CLASS
  1
PARAMMGR
  2
AcAdParamMgr
  3
DesignerServices
 90
     1024
 91
        1
280
     0
281
     0
  0
CLASS
  1
PARAMSCOPE
  2
AcAdParamScope
  3
DesignerServices
 90
     1024
 91
        1
280
     0
281
     0
  0
CLASS
  1
NAMEDAPPL
  2
AcAdNamedAppl
  3
DesignerServices
 90
     1024
 91
        1
280
     0
281
     0
  0
CLASS
  1
AMDTDMMENUSTATE
  2
AmdtDmMenuState
  3
AcMechDwgViewMgmt
 90
     1024
 91
        1
280
     0
281
     0
  0
CLASS
  1
MAPIADMODULE
  2
MApiAdModule
  3
MApiAdServices
 90
     1024
 91
        0
280
     0
281
     0
  0
CLASS
  1
AMDTAMMENUSTATE
  2
AmdtAmMenuState
  3
DesignerAssemblies
 90
     1024
 91
        1
280
     0
281
     0
  0
CLASS
  1
ACAMPROJECT
  2
AcAmProject
  3
DesignerAssemblies
 90
     1024
 91
        1
280
     0
281
     0
  0
CLASS
  1
ACAMGRCOMPDEF
  2
AcAmGrCompDef
  3
DesignerAssemblies
 90
     1024
 91
        1
280
     0
281
     0
  0
CLASS
  1
ACCMCONTEXT
  2
AcCmContext
  3
DesignerAssemblies
 90
     1024
 91
        1
280
     0
281
     0
  0
CLASS
  1
ACAMCOMPDEF
  2
AcAmCompDef
  3
DesignerAssemblies
 90
     1024
 91
        1
280
     0
281
     0
  0
CLASS
  1
ACAMCOMPDEFMGR
  2
AcAmCompDefMgr
  3
DesignerAssemblies
 90
     1024
 91
        1
280
     0
281
     0
  0
CLASS
  1
AMCONTEXTMGR
  2
AcAmContextMgr
  3
DesignerAssemblies
 90
     1024
 91
        1
280
     0
281
     0
  0
CLASS
  1
ACAMCONTEXTMODELER
  2
AcAmContextModeler
  3
DesignerAssemblies
 90
     1024
 91
        1
280
     0
281
     0
  0
CLASS
  1
ACMDATADICTIONARY
  2
AcmDataDictionary
  3
"AcmSymBB|Product Description: AutoCAD Mechanical|Company: Autodesk, Inc."
 90
     1024
 91
        1
280
     0
281
     0
  0
CLASS
  1
ACMDATAENTRYBLOCK
  2
AcmDataEntryBlock
  3
AcmSymBB|Product Description: AutoCAD Mechanical|Company: Autodesk, Inc.
 90
     1024
 91
        0
280
     0
281
     0
  0
CLASS
  1
ACRFATTGENMGR
  2
AcRfAttGeneralMgr
  3
AcAttribServices
 90
     1024
 91
        0
280
     0
281
     0
  0
CLASS
  1
ACRFOBJATTMGR
  2
AcRfObjAttGroupMgr
  3
AcAttribServices
 90
     1024
 91
        0
280
     0
281
     0
  0
CLASS
  1
ACRFMCADAPIATTHOLDER
  2
AcRfMCADAPIAttHolder
  3
AcAttribServices
 90
     1024
 91
        0
280
     0
281
     0
  0
CLASS
  1
AMDTSYSATTR
  2
AmdtSystemAttribute
  3
AcAttribServices
 90
     1024
 91
        0
280
     0
281
     0
  0
CLASS
  1
CATALOGSTATE
  2
AcAmCatalogState
  3
DesignerAssemblies
 90
     1024
 91
        1
280
     0
281
     0
  0
CLASS
  1
ACAMGRCOMPDEFSET
  2
AcAmGrCompDefSet
  3
DesignerAssemblies
 90
     1024
 91
        1
280
     0
281
     0
  0
CLASS
  1
AMDTBROWSERDBTAB
  2
AmdtBrowserDbTab
  3
McadcomServices
 90
     1024
 91
        1
280
     0
281
     0
  0
CLASS
  1
CBROWSERAPPOBJECT
  2
CBrowserAppObject
  3
McadcomServices
 90
     1024
 91
        3
280
     0
281
     0
  0
CLASS
  1
DM_PLACEHOLDER
  2
AcDmSelsetPlaceholder
  3
AcMechDwgViewMgmt
 90
     1024
 91
        1
280
     0
281
     0
  0
CLASS
  1
ACMSTANDARDANSI
  2
AcmStandardANSI
  3
"Amdt_StdImp|Product Description: AutoCAD Mechanical|Company: Autodesk, Inc."
 90
     1024
 91
        1
280
     0
281
     0
  0
CLASS
  1
ACMSURFSTANDARDANSI
  2
AcmSurfTextStdANSI
  3
"Amdt_StdImp|Product Description: AutoCAD Mechanical|Company: Autodesk, Inc."
 90
     1024
 91
        1
280
     0
281
     0
  0
CLASS
  1
ACMFCFSTANDARDANSI
  2
AcmFCFStdANSI
  3
"Amdt_StdImp|Product Description: AutoCAD Mechanical|Company: Autodesk, Inc."
 90
     1024
 91
        1
280
     0
281
     0
  0
CLASS
  1
ACMWELDSTANDARDANSI
  2
AcmWeldingStdANSI
  3
"Amdt_StdImp|Product Description: AutoCAD Mechanical|Company: Autodesk, Inc."
 90
     1024
 91
        1
280
     0
281
     0
  0
CLASS
  1
ACMIDSTANDARDANSI
  2
AcmIdStdANSI
  3
"Amdt_StdImp|Product Description: AutoCAD Mechanical|Company: Autodesk, Inc."
 90
     1024
 91
        1
280
     0
281
     0
  0
CLASS
  1
ACMDATUMSTANDARDANSI
  2
AcmDatumStdANSI
  3
"Amdt_StdImp|Product Description: AutoCAD Mechanical|Company: Autodesk, Inc."
 90
     1024
 91
        1
280
     0
281
     0
  0
CLASS
  1
ACMBOMSTANDARDANSI
  2
AcmBOMStdANSI
  3
"Amdt_StdImp|Product Description: AutoCAD Mechanical|Company: Autodesk, Inc."
 90
     1024
 91
        1
280
     0
281
     0
  0
CLASS
  1
ACMDETAILSTANDARDANSI
  2
AmdtDetailSymStdANSI
  3
"Amdt_StdImp|Product Description: AutoCAD Mechanical|Company: Autodesk, Inc."
 90
     1024
 91
        1
280
     0
281
     0
  0
CLASS
  1
ACMSECTIONSTANDARDANSI
  2
AmdtSectionSymStdANSI
  3
"Amdt_StdImp|Product Description: AutoCAD Mechanical|Company: Autodesk, Inc."
 90
     1024
 91
        1
280
     0
281
     0
  0
CLASS
  1
ACMCENTERLINESTANDARDANSI
  2
AmdtCenterLineStdANSI
  3
"Amdt_StdImp|Product Description: AutoCAD Mechanical|Company: Autodesk, Inc."
 90
     1024
 91
        1
280
     0
281
     0
  0
CLASS
  1
ACMTHREADLINESTANDARDANSI
  2
AmdtThreadLineStdANSI
  3
"Amdt_StdImp|Product Description: AutoCAD Mechanical|Company: Autodesk, Inc."
 90
     1024
 91
        1
280
     0
281
     0
  0
CLASS
  1
ACMNOTESTANDARDANSI
  2
AmdtNoteStdANSI
  3
"Amdt_StdImp|Product Description: AutoCAD Mechanical|Company: Autodesk, Inc."
 90
     1024
 91
        1
280
     0
281
     0
  0
CLASS
  1
ACMTAPERSTANDARDANSI
  2
AcmTaperStdANSI
  3
"Amdt_StdImp|Product Description: AutoCAD Mechanical|Company: Autodesk, Inc."
 90
     1024
 91
        1
280
     0
281
     0
  0
CLASS
  1
ACMANOOTATIONVIEWSTANDARDANSI
  2
AmdtAnViewStdANSI
  3
"Amdt_StdImp|Product Description: AutoCAD Mechanical|Company: Autodesk, Inc."
 90
     1024
 91
        1
280
     0
281
     0
  0
CLASS
  1
ACAMGLAYSTD
  2
AcAmgLayStd
  3
"AmgLay|Product Description: AutoCAD Mechanical|Company: Autodesk, Inc."
 90
     1024
 91
        1
280
     0
281
     0
  0
CLASS
  1
ACAMGDIMSTD
  2
AcAmgDimStd
  3
"AmgDim|Product Description: AutoCAD Mechanical|Company: Autodesk, Inc."
 90
     1024
 91
        1
280
     0
281
     0
  0
CLASS
  1
ACAMGHOLECHARTSTDANSI
  2
AcAmgHoleChartStdANSI
  3
AmgDim|Product Description: AutoCAD Mechanical|Company: Autodesk, Inc.
 90
     1024
 91
        1
280
     0
281
     0
  0
CLASS
  1
AMGOBJPROPCFG
  2
AmgObjPropCfg
  3
"AmgLay|Product Description: AutoCAD Mechanical|Company: Autodesk, Inc."
 90
     1025
 91
        1
280
     0
281
     0
  0
CLASS
  1
ACAMGTITLESTD
  2
AcAmgTitleStd
  3
"AmgTitle|Product Description: AutoCAD Mechanical|Company: Autodesk, Inc."
 90
     4095
 91
        1
280
     0
281
     0
  0
CLASS
  1
AMDTNOTETEMPLATEDB
  2
AmdtNoteTemplateDB
  3
AcmSymBB|Product Description: AutoCAD Mechanical|Company: Autodesk, Inc.
 90
     1024
 91
        6
280
     0
281
     0
  0
CLASS
  1
LAYER_INDEX
  2
AcDbLayerIndex
  3
ObjectDBX Classes
 90
        0
 91
        1
280
     0
281
     0
  0
CLASS
  1
IDBUFFER
  2
AcDbIdBuffer
  3
ObjectDBX Classes
 90
        0
 91
       12
280
     0
281
     0
  0
CLASS
  1
DICTIONARYVAR
  2
AcDbDictionaryVar
  3
ObjectDBX Classes
 90
        0
 91
       13
280
     0
281
     0
  0
CLASS
  1
CELLSTYLEMAP
  2
AcDbCellStyleMap
  3
ObjectDBX Classes
 90
     1152
 91
        2
280
     0
281
     0
  0
CLASS
  1
ACAMGFILTERDAT
  2
AcAmgFilterDat
  3
"AcadM|Product Description: AutoCAD Mechanical|Company: Autodesk, Inc."
 90
     1024
 91
        6
280
     0
281
     0
  0
CLASS
  1
SORTENTSTABLE
  2
AcDbSortentsTable
  3
ObjectDBX Classes
 90
        0
 91
        1
280
     0
281
     0
  0
CLASS
  1
ACDB_HATCHSCALECONTEXTDATA_CLASS
  2
AcDbHatchScaleContextData
  3
ObjectDBX Classes
 90
     1153
 91
        2
280
     0
281
     0
  0
CLASS
  1
ACDB_HATCHVIEWCONTEXTDATA_CLASS
  2
AcDbHatchViewContextData
  3
ObjectDBX Classes
 90
     1153
 91
        2
280
     0
281
     0
  0
ENDSEC
  0
SECTION
  2
TABLES
  0
TABLE
  2
VPORT
  5
2A22
330
0
100
AcDbSymbolTable
 70
     1
  0
VPORT
  5
2A92
330
2A22
100
AcDbSymbolTableRecord
100
AcDbViewportTableRecord
  2
*ACTIVE
 70
     0
 10
0.0
 20
0.0
 11
1.0
 21
1.0
 12
24.69863894476873
 22
-449.7163081774171
 13
0.0
 23
0.0
 14
1.0
 24
1.0
 15
0.0
 25
0.0
 16
0.0
 26
0.0
 36
1.0
 17
-301.8218859352903
 27
1022.332895771355
 37
0.0
 40
1685.478158957925
 41
1.118758434547908
 42
50.0
 43
0.0
 44
0.0
 50
0.0
 51
0.0
 71
     0
 72
   100
 73
     1
 74
     0
 75
     0
 76
     0
 77
     0
 78
     0
281
     0
 65
     0
110
0.0
120
0.0
130
0.0
111
1.0
121
0.0
131
0.0
112
0.0
122
1.0
132
0.0
 79
     0
146
0.0
  0
ENDTAB
  0
TABLE
  2
LTYPE
  5
2A1F
330
0
100
AcDbSymbolTable
 70
    19
  0
LTYPE
  5
2A7C
330
2A1F
100
AcDbSymbolTableRecord
100
AcDbLinetypeTableRecord
  2
ByBlock
 70
     0
  3

 72
    65
 73
     0
 40
0.0
  0
LTYPE
  5
2A7D
330
2A1F
100
AcDbSymbolTableRecord
100
AcDbLinetypeTableRecord
  2
ByLayer
 70
     0
  3

 72
    65
 73
     0
 40
0.0
  0
LTYPE
  5
2A7E
330
2A1F
100
AcDbSymbolTableRecord
100
AcDbLinetypeTableRecord
  2
CONTINUOUS
 70
     0
  3
実線
 72
    65
 73
     0
 40
0.0
  0
LTYPE
  5
2A93
330
2A1F
100
AcDbSymbolTableRecord
100
AcDbLinetypeTableRecord
  2
DASHDOT
 70
     0
  3
____ _ ____ _ ____ _ ____ _ ____ _ ____ _ ____
 72
    65
 73
     4
 40
5.5
 49
4.0
 74
     0
 49
-0.6
 74
     0
 49
0.3
 74
     0
 49
-0.6
 74
     0
  0
LTYPE
  5
2A94
330
2A1F
100
AcDbSymbolTableRecord
100
AcDbLinetypeTableRecord
  2
HIDDEN
 70
     0
  3
Hidden __ __ __ __ __ __ __ __ __ __ __ __ __ _
 72
    65
 73
     2
 40
0.375
 49
0.25
 74
     0
 49
-0.125
 74
     0
  0
LTYPE
  5
2A95
330
2A1F
100
AcDbSymbolTableRecord
100
AcDbLinetypeTableRecord
  2
PHANTOM2
 70
     0
  3
Phantom (.5x) ___ _ _ ___ _ _ ___ _ _ ___ _ _
 72
    65
 73
     6
 40
1.25
 49
0.625
 74
     0
 49
-0.125
 74
     0
 49
0.125
 74
     0
 49
-0.125
 74
     0
 49
0.125
 74
     0
 49
-0.125
 74
     0
  0
LTYPE
  5
2A96
330
2A1F
100
AcDbSymbolTableRecord
100
AcDbLinetypeTableRecord
  2
CENTER
 70
     0
  3
Center ____ _ ____ _ ____ _ ____ _ ____ _ ____
 72
    65
 73
     4
 40
2.0
 49
1.25
 74
     0
 49
-0.25
 74
     0
 49
0.25
 74
     0
 49
-0.25
 74
     0
  0
LTYPE
  5
2A97
330
2A1F
100
AcDbSymbolTableRecord
100
AcDbLinetypeTableRecord
  2
ASULTYPE
 70
     0
  3
実線
 72
    65
 73
     2
 40
3.0
 49
2.5
 74
     0
 49
0.5
 74
     0
  0
LTYPE
  5
2A98
330
2A1F
100
AcDbSymbolTableRecord
100
AcDbLinetypeTableRecord
  2
ASVLTYPE
 70
     0
  3
__ __ __ __ __ __ __ __ __ __ __ __ __ __ __ __ __ __ __ __ __
 72
    65
 73
     2
 40
0.75
 49
0.5
 74
     0
 49
-0.25
 74
     0
  0
LTYPE
  5
2A99
330
2A1F
100
AcDbSymbolTableRecord
100
AcDbLinetypeTableRecord
  2
AM_ISO02W050
 70
     0
  3
__ __ __ __ __ __ __ __ __ __ __ __ __ __ __
 72
    65
 73
     2
 40
7.5
 49
6.0
 74
     0
 49
-1.5
 74
     0
  0
LTYPE
  5
2A9A
330
2A1F
100
AcDbSymbolTableRecord
100
AcDbLinetypeTableRecord
  2
AM_ISO08W050
 70
     0
  3
____ . ____ . ____ . ____ . ____ . ____ . ____
 72
    65
 73
     4
 40
18.0
 49
12.0
 74
     0
 49
-1.5
 74
     0
 49
3.0
 74
     0
 49
-1.5
 74
     0
  0
LTYPE
  5
2A9B
330
2A1F
100
AcDbSymbolTableRecord
100
AcDbLinetypeTableRecord
  2
AM_ISO09W050
 70
     0
  3
_____ . . _____ . . _____ . . ____ .. ____
 72
    65
 73
     6
 40
22.5
 49
12.0
 74
     0
 49
-1.5
 74
     0
 49
3.0
 74
     0
 49
-1.5
 74
     0
 49
3.0
 74
     0
 49
-1.5
 74
     0
  0
LTYPE
  5
2A9C
330
2A1F
100
AcDbSymbolTableRecord
100
AcDbLinetypeTableRecord
  2
AMCONSTR
 70
     0
  3
_______________________
 72
    65
 73
     2
 40
9999.0
 49
9999.0
 74
     0
 49
0.0
 74
     0
  0
LTYPE
  5
2A9D
330
2A1F
100
AcDbSymbolTableRecord
100
AcDbLinetypeTableRecord
  2
AM_ISO08W050X2
 70
     0
  3
__ . __ . __ . __ . __ . __
 72
    65
 73
     4
 40
9.0
 49
6.0
 74
     0
 49
-0.75
 74
     0
 49
1.5
 74
     0
 49
-0.75
 74
     0
  0
LTYPE
  5
2A9E
330
2A1F
100
AcDbSymbolTableRecord
100
AcDbLinetypeTableRecord
  2
AM_ISO02W050X2
 70
     0
  3
 _ _ _ _ _ _ _ _ _ _ _ _
 72
    65
 73
     2
 40
3.75
 49
3.0
 74
     0
 49
-0.75
 74
     0
  0
LTYPE
  5
2A9F
330
2A1F
100
AcDbSymbolTableRecord
100
AcDbLinetypeTableRecord
  2
AMZIGZAG
 70
     0
  3
/\/-/\/-/\/-/\/-/\/-/\/
 72
    65
 73
     2
 40
11.0001
 49
0.0001
 74
     0
 49
-11.0
 74
     0
  0
LTYPE
  5
2AA0
330
2A1F
100
AcDbSymbolTableRecord
100
AcDbLinetypeTableRecord
  2
CENTER2
 70
     0
  3
Center (.5x) ___ _ ___ _ ___ _ ___ _ ___ _ ___
 72
    65
 73
     4
 40
1.125
 49
0.75
 74
     0
 49
-0.125
 74
     0
 49
0.125
 74
     0
 49
-0.125
 74
     0
  0
LTYPE
  5
2AA1
330
2A1F
100
AcDbSymbolTableRecord
100
AcDbLinetypeTableRecord
  2
HIDDEN2
 70
     0
  3
Hidden (.5x) _ _ _ _ _ _ _ _ _ _ _ _ _ _ _ _ _
 72
    65
 73
     2
 40
0.1875
 49
0.125
 74
     0
 49
-0.0625
 74
     0
  0
LTYPE
  5
2AA2
330
2A1F
100
AcDbSymbolTableRecord
100
AcDbLinetypeTableRecord
  2
AMZIGZAG2
 70
     0
  3
/\/-/\/-/\/-/\/-/\/-/\/
 72
    65
 73
     2
 40
0.4401
 49
0.0001
 74
     0
 49
-0.4400000000000003
 74
     0
  0
LTYPE
  5
2AA3
330
2A1F
100
AcDbSymbolTableRecord
100
AcDbLinetypeTableRecord
  2
ACANSTGB
 70
     0
  3
__ . . __ . .
 72
    65
 73
     6
 40
0.35433070866
 49
0.15748031496
 74
     0
 49
-0.03937007874
 74
     0
 49
0.03937007874
 74
     0
 49
-0.03937007874
 74
     0
 49
0.03937007874
 74
     0
 49
-0.03937007874
 74
     0
  0
LTYPE
  5
2AA4
330
2A1F
100
AcDbSymbolTableRecord
100
AcDbLinetypeTableRecord
  2
ACANSTGL
 70
     0
  3
_ _ _ _ _
 72
    65
 73
     2
 40
0.11811023622
 49
0.07874015748
 74
     0
 49
-0.03937007874
 74
     0
  0
ENDTAB
  0
TABLE
  2
LAYER
  5
2A1C
102
{ACAD_XDICTIONARY
360
2D6B
102
}
330
0
100
AcDbSymbolTable
 70
    14
  0
LAYER
  5
2A76
102
{ACAD_XDICTIONARY
360
2C43
102
}
330
2A1C
100
AcDbSymbolTableRecord
100
AcDbLayerTableRecord
  2
0
 70
     0
 62
     7
  6
CONTINUOUS
370
    -3
390
2A29
  0
LAYER
  5
2AA5
102
{ACAD_XDICTIONARY
360
2C45
102
}
330
2A1C
100
AcDbSymbolTableRecord
100
AcDbLayerTableRecord
  2
OUTLINE
 70
     0
 62
     3
  6
CONTINUOUS
370
    -3
390
2A29
  0
LAYER
  5
2AA6
102
{ACAD_XDICTIONARY
360
2C47
102
}
330
2A1C
100
AcDbSymbolTableRecord
100
AcDbLayerTableRecord
  2
SIZE
 70
     0
 62
    30
  6
CONTINUOUS
370
    -3
390
2A29
  0
LAYER
  5
2AA7
102
{ACAD_XDICTIONARY
360
2C49
102
}
330
2A1C
100
AcDbSymbolTableRecord
100
AcDbLayerTableRecord
  2
BASIS
 70
     0
 62
     6
  6
DASHDOT
370
    -3
390
2A29
  0
LAYER
  5
2AA8
102
{ACAD_XDICTIONARY
360
2C4B
102
}
330
2A1C
100
AcDbSymbolTableRecord
100
AcDbLayerTableRecord
  2
DETAIL
 70
     0
 62
     5
  6
CONTINUOUS
370
    -3
390
2A29
  0
LAYER
  5
2AA9
102
{ACAD_XDICTIONARY
360
2C4D
102
}
330
2A1C
100
AcDbSymbolTableRecord
100
AcDbLayerTableRecord
  2
ARRANGE
 70
     0
 62
     1
  6
CONTINUOUS
370
    -3
390
2A29
  0
LAYER
  5
2AAA
330
2A1C
100
AcDbSymbolTableRecord
100
AcDbLayerTableRecord
  2
DEFPOINTS
 70
     0
 62
     7
  6
CONTINUOUS
290
     0
370
    -3
390
2A29
  0
LAYER
  5
2AAB
102
{ACAD_XDICTIONARY
360
2C4F
102
}
330
2A1C
100
AcDbSymbolTableRecord
100
AcDbLayerTableRecord
  2
ETC
 70
     0
 62
    61
  6
CONTINUOUS
370
    -3
390
2A29
  0
LAYER
  5
2AAC
102
{ACAD_XDICTIONARY
360
2C51
102
}
330
2A1C
100
AcDbSymbolTableRecord
100
AcDbLayerTableRecord
  2
FIX
 70
     0
 62
    11
  6
CONTINUOUS
370
    -3
390
2A29
  0
LAYER
  5
2AAD
102
{ACAD_XDICTIONARY
360
2C53
102
}
330
2A1C
100
AcDbSymbolTableRecord
100
AcDbLayerTableRecord
  2
NOTE
 70
     0
 62
     4
  6
CONTINUOUS
370
    -3
390
2A29
  0
LAYER
  5
2AAE
102
{ACAD_XDICTIONARY
360
2C55
102
}
330
2A1C
100
AcDbSymbolTableRecord
100
AcDbLayerTableRecord
  2
SERVICESPACE
 70
     0
 62
     2
  6
DASHDOT
370
    -3
390
2A29
  0
LAYER
  5
2AAF
102
{ACAD_XDICTIONARY
360
2C57
102
}
330
2A1C
100
AcDbSymbolTableRecord
100
AcDbLayerTableRecord
  2
SYMBOLLINE
 70
     0
 62
    15
  6
CONTINUOUS
370
    -3
390
2A29
  0
LAYER
  5
33ED
102
{ACAD_XDICTIONARY
360
33EE
102
}
330
2A1C
100
AcDbSymbolTableRecord
100
AcDbLayerTableRecord
  2
DETAIL @ 1
 70
     0
 62
     5
  6
CONTINUOUS
370
    -3
390
2A29
1001
AcadAnnotativeDecomposition
1000
AnnotativeData
1002
{
1070
     1
1070
     1
1002
}
  0
ENDTAB
  0
TABLE
  2
STYLE
  5
2A1D
330
0
100
AcDbSymbolTable
 70
     5
  0
STYLE
  5
2A77
330
2A1D
100
AcDbSymbolTableRecord
100
AcDbTextStyleTableRecord
  2
STANDARD
 70
     0
 40
64.0
 41
0.9
 50
0.0
 71
     0
 42
64.0
  3
SIMPLEX.shx
  4
BIGFONT.shx
  0
STYLE
  5
2A7B
330
2A1D
100
AcDbSymbolTableRecord
100
AcDbTextStyleTableRecord
  2
ANNOTATIVE
 70
     0
 40
0.0
 41
1.0
 50
0.0
 71
     0
 42
0.2
  3
txt
  4

1001
ACADANNOTATIVE
1000
AnnotativeData
1002
{
1070
     1
1070
     1
1002
}
  0
STYLE
  5
2AB0
330
2A1D
100
AcDbSymbolTableRecord
100
AcDbTextStyleTableRecord
  2

 70
     1
 40
0.0
 41
1.0
 50
0.0
 71
     0
 42
64.0
  3
genltshp.shx
  4

  0
STYLE
  5
2AB1
330
2A1D
100
AcDbSymbolTableRecord
100
AcDbTextStyleTableRecord
  2
ACANSTS
 70
     0
 40
1.0
 41
1.0
 50
0.0
 71
     0
 42
64.0
  3
romans.shx
  4
extfont.shx
  0
STYLE
  5
2AB2
330
2A1D
100
AcDbSymbolTableRecord
100
AcDbTextStyleTableRecord
  2
ACANSGDT
 70
     0
 40
0.0
 41
1.0
 50
0.0
 71
     0
 42
64.0
  3
amgdt.shx
  4

  0
ENDTAB
  0
TABLE
  2
VIEW
  5
2A20
330
0
100
AcDbSymbolTable
 70
     1
  0
VIEW
  5
2AB3
330
2A20
100
AcDbSymbolTableRecord
100
AcDbViewTableRecord
  2
ALL
 70
     0
 40
4282.619807999997
 10
0.0
 20
41.30990399999999
 41
5940.0
 11
0.0
 21
0.0
 31
1.0
 12
0.0
 22
0.0
 32
0.0
 42
50.0
 43
0.0
 44
0.0
 50
0.0
 71
     0
281
     0
 72
     1
110
0.0
120
0.0
130
0.0
111
1.0
121
0.0
131
0.0
112
0.0
122
1.0
132
0.0
 79
     0
146
0.0
  0
ENDTAB
  0
TABLE
  2
UCS
  5
2A21
330
0
100
AcDbSymbolTable
 70
     0
  0
ENDTAB
  0
TABLE
  2
APPID
  5
2A23
330
0
100
AcDbSymbolTable
 70
    31
  0
APPID
  5
2A78
330
2A23
100
AcDbSymbolTableRecord
100
AcDbRegAppTableRecord
  2
ACAD
 70
     0
  0
APPID
  5
2A7F
330
2A23
100
AcDbSymbolTableRecord
100
AcDbRegAppTableRecord
  2
ACADANNOTATIVE
 70
     0
  0
APPID
  5
2A89
330
2A23
100
AcDbSymbolTableRecord
100
AcDbRegAppTableRecord
  2
ACAD_MLEADERVER
 70
     0
  0
APPID
  5
2AB4
330
2A23
100
AcDbSymbolTableRecord
100
AcDbRegAppTableRecord
  2
GENIUS_GENDIM_13
 70
     0
  0
APPID
  5
2AB5
330
2A23
100
AcDbSymbolTableRecord
100
AcDbRegAppTableRecord
  2
GENIUS_GENDTOL_13
 70
     0
  0
APPID
  5
2AB6
330
2A23
100
AcDbSymbolTableRecord
100
AcDbRegAppTableRecord
  2
GENIUS_GE3DTOL_13
 70
     0
  0
APPID
  5
2AB7
330
2A23
100
AcDbSymbolTableRecord
100
AcDbRegAppTableRecord
  2
MCAD_NO_VIS
 70
     0
  0
APPID
  5
2AB8
330
2A23
100
AcDbSymbolTableRecord
100
AcDbRegAppTableRecord
  2
ACAD_TEMP_GRAPHIC
 70
     0
  0
APPID
  5
2AB9
330
2A23
100
AcDbSymbolTableRecord
100
AcDbRegAppTableRecord
  2
AD_DRAW
 70
     0
  0
APPID
  5
2ABA
330
2A23
100
AcDbSymbolTableRecord
100
AcDbRegAppTableRecord
  2
ACATTRIBSERVICES
 70
     0
  0
APPID
  5
2ABB
330
2A23
100
AcDbSymbolTableRecord
100
AcDbRegAppTableRecord
  2
ASURF_PCURVE_APPNAME
 70
     0
  0
APPID
  5
2ABC
330
2A23
100
AcDbSymbolTableRecord
100
AcDbRegAppTableRecord
  2
AMG_3D2D_5_0
 70
     0
  0
APPID
  5
2ABD
330
2A23
100
AcDbSymbolTableRecord
100
AcDbRegAppTableRecord
  2
DESIGNERASSEMBLIES
 70
     0
  0
APPID
  5
2ABE
330
2A23
100
AcDbSymbolTableRecord
100
AcDbRegAppTableRecord
  2
ACADM_DIM_EDIT
 70
     0
  0
APPID
  5
2ABF
330
2A23
100
AcDbSymbolTableRecord
100
AcDbRegAppTableRecord
  2
AMDT_DM_ADJ
 70
     0
  0
APPID
  5
2AC0
330
2A23
100
AcDbSymbolTableRecord
100
AcDbRegAppTableRecord
  2
ACAD_DSTYLE_DIMARC_LENGTH_
 70
     0
  0
APPID
  5
2AC1
330
2A23
100
AcDbSymbolTableRecord
100
AcDbRegAppTableRecord
  2
ACAD_DSTYLE_DIMJOGGED_JOGA
 70
     0
  0
APPID
  5
2AC2
330
2A23
100
AcDbSymbolTableRecord
100
AcDbRegAppTableRecord
  2
ACAD_PSEXT
 70
     0
  0
APPID
  5
2AC3
330
2A23
100
AcDbSymbolTableRecord
100
AcDbRegAppTableRecord
  2
ACAD_EXEMPT_FROM_CAD_STANDARDS
 70
     0
  0
APPID
  5
2AC4
330
2A23
100
AcDbSymbolTableRecord
100
AcDbRegAppTableRecord
  2
ACAD_DSTYLE_DIMJAG
 70
     0
  0
APPID
  5
2AC5
330
2A23
100
AcDbSymbolTableRecord
100
AcDbRegAppTableRecord
  2
ACAD_DSTYLE_DIMTALN
 70
     0
  0
APPID
  5
2AC6
330
2A23
100
AcDbSymbolTableRecord
100
AcDbRegAppTableRecord
  2
AMG_3D2D_5_00
 70
     0
  0
APPID
  5
2AC7
330
2A23
100
AcDbSymbolTableRecord
100
AcDbRegAppTableRecord
  2
AMG_3D2D_5_01
 70
     0
  0
APPID
  5
2AC8
330
2A23
100
AcDbSymbolTableRecord
100
AcDbRegAppTableRecord
  2
AMG_3D2D_5_02
 70
     0
  0
APPID
  5
2BEA
330
2A23
100
AcDbSymbolTableRecord
100
AcDbRegAppTableRecord
  2
AMG_3D2D_5.0
 70
     0
  0
APPID
  5
2C80
330
2A23
100
AcDbSymbolTableRecord
100
AcDbRegAppTableRecord
  2
ACAD_DSTYLE_DIMARC_LENGTH_SYMBOL
 70
     0
  0
APPID
  5
2C81
330
2A23
100
AcDbSymbolTableRecord
100
AcDbRegAppTableRecord
  2
ACAD_DSTYLE_DIM_LINETYPE
 70
     0
  0
APPID
  5
2C82
330
2A23
100
AcDbSymbolTableRecord
100
AcDbRegAppTableRecord
  2
ACAD_DSTYLE_DIM_EXT1_LINETYPE
 70
     0
  0
APPID
  5
2C83
330
2A23
100
AcDbSymbolTableRecord
100
AcDbRegAppTableRecord
  2
ACAD_DSTYLE_DIM_EXT2_LINETYPE
 70
     0
  0
APPID
  5
2D6A
330
2A23
100
AcDbSymbolTableRecord
100
AcDbRegAppTableRecord
  2
ACAD_DSTYLE_DIMJOGGED_JOGANGLE_SYMBOL
 70
     0
  0
APPID
  5
3174
330
2A23
100
AcDbSymbolTableRecord
100
AcDbRegAppTableRecord
  2
AcadAnnotativeDecomposition
 70
     0
  0
ENDTAB
  0
TABLE
  2
DIMSTYLE
  5
2A24
330
0
100
AcDbSymbolTable
 70
    10
100
AcDbDimStyleTable
 71
     1
340
2AC9
  0
DIMSTYLE
105
2A79
102
{ACAD_REACTORS
330
31C4
102
}
330
2A24
100
AcDbSymbolTableRecord
100
AcDbDimStyleTableRecord
  2
STANDARD
 70
     0
 41
12.0
 42
20.0
 44
20.0
 77
     1
 78
     8
140
64.0
141
0.0
147
10.0
275
     1
279
     2
284
     7
285
     7
286
     7
340
2A77
  0
DIMSTYLE
105
2A7A
330
2A24
100
AcDbSymbolTableRecord
100
AcDbDimStyleTableRecord
  2
ANNOTATIVE
 70
     0
275
     1
279
     2
284
     7
285
     7
286
     7
340
2A77
1001
ACADANNOTATIVE
1000
AnnotativeData
1002
{
1070
     1
1070
     1
1002
}
  0
DIMSTYLE
105
2AC9
102
{ACAD_REACTORS
330
339D
102
}
330
2A24
100
AcDbSymbolTableRecord
100
AcDbDimStyleTableRecord
  2
AM_ANSI
 70
     0
  4
mm
 41
0.12
 42
0.05
 43
0.5
 44
0.1
 47
0.1
 48
0.1
 78
     7
 79
     2
140
0.12
141
0.0
146
0.71
147
0.06
176
   256
177
   256
178
     2
274
     4
284
     7
340
2A77
371
    -1
372
    -1
1001
ACAD_DSTYLE_DIMARC_LENGTH_SYMBOL
1070
   379
1070
     1
1001
ACAD_DSTYLE_DIM_LINETYPE
1070
   380
1005
2A7C
1001
ACAD_DSTYLE_DIM_EXT1_LINETYPE
1070
   381
1005
2A7C
1001
ACAD_DSTYLE_DIM_EXT2_LINETYPE
1070
   382
1005
2A7C
  0
DIMSTYLE
105
2ACA
330
2A24
100
AcDbSymbolTableRecord
100
AcDbDimStyleTableRecord
  2
AM_ANSI$3
 70
     0
  4
mm
 41
0.12
 42
0.05
 43
0.5
 44
0.1
 47
0.1
 48
0.1
 78
     7
 79
     2
140
0.12
141
0.0
146
0.71
147
0.06
176
   256
177
   256
178
     2
274
     4
284
     7
288
     1
289
     0
340
2A77
371
    -1
372
    -1
1001
ACAD_DSTYLE_DIMARC_LENGTH_SYMBOL
1070
   379
1070
     1
1001
ACAD_DSTYLE_DIM_LINETYPE
1070
   380
1005
2A7C
1001
ACAD_DSTYLE_DIM_EXT1_LINETYPE
1070
   381
1005
2A7C
1001
ACAD_DSTYLE_DIM_EXT2_LINETYPE
1070
   382
1005
2A7C
  0
DIMSTYLE
105
2ACB
330
2A24
100
AcDbSymbolTableRecord
100
AcDbDimStyleTableRecord
  2
AM_ANSI$4
 70
     0
  4
mm
 41
0.12
 42
0.05
 43
0.5
 44
0.1
 47
0.1
 48
0.1
 78
     7
 79
     2
140
0.12
141
0.0
146
0.71
147
0.06
176
   256
177
   256
178
     2
274
     4
284
     7
340
2A77
371
    -1
372
    -1
1001
ACAD_DSTYLE_DIMARC_LENGTH_SYMBOL
1070
   379
1070
     1
1001
ACAD_DSTYLE_DIM_LINETYPE
1070
   380
1005
2A7C
1001
ACAD_DSTYLE_DIM_EXT1_LINETYPE
1070
   381
1005
2A7C
1001
ACAD_DSTYLE_DIM_EXT2_LINETYPE
1070
   382
1005
2A7C
  0
DIMSTYLE
105
2ACC
330
2A24
100
AcDbSymbolTableRecord
100
AcDbDimStyleTableRecord
  2
AM_ANSI$7
 70
     0
  4
mm
 41
0.12
 42
0.05
 43
0.5
 44
0.1
 47
0.1
 48
0.1
 78
     7
 79
     2
140
0.12
141
0.0
146
0.71
147
0.06
176
   256
177
   256
178
     2
274
     4
284
     7
340
2A77
371
    -1
372
    -1
1001
ACAD_DSTYLE_DIMARC_LENGTH_SYMBOL
1070
   379
1070
     1
1001
ACAD_DSTYLE_DIM_LINETYPE
1070
   380
1005
2A7C
1001
ACAD_DSTYLE_DIM_EXT1_LINETYPE
1070
   381
1005
2A7C
1001
ACAD_DSTYLE_DIM_EXT2_LINETYPE
1070
   382
1005
2A7C
  0
DIMSTYLE
105
2ACD
330
2A24
100
AcDbSymbolTableRecord
100
AcDbDimStyleTableRecord
  2
AM_ANSI$SF
 70
     0
  4
mm
 41
0.12
 42
0.05
 43
0.5
 44
0.1
 47
0.1
 48
0.1
 75
     1
 76
     1
 78
     7
 79
     2
140
0.12
141
0.0
146
0.71
147
0.06
176
   256
177
   256
178
     2
274
     4
284
     7
340
2A77
371
    -1
372
    -1
1001
ACAD_DSTYLE_DIMARC_LENGTH_SYMBOL
1070
   379
1070
     1
1001
ACAD_DSTYLE_DIM_LINETYPE
1070
   380
1005
2A7C
1001
ACAD_DSTYLE_DIM_EXT1_LINETYPE
1070
   381
1005
2A7C
1001
ACAD_DSTYLE_DIM_EXT2_LINETYPE
1070
   382
1005
2A7C
  0
DIMSTYLE
105
2ACE
330
2A24
100
AcDbSymbolTableRecord
100
AcDbDimStyleTableRecord
  2
AM_ANSI$SH
 70
     0
  4
mm
 41
0.12
 42
0.05
 43
0.5
 44
0.1
 47
0.1
 48
0.1
 75
     1
 76
     1
 78
     7
 79
     2
140
0.12
141
0.0
146
0.71
147
0.06
173
     1
176
   256
177
   256
178
     2
274
     4
284
     7
340
2A77
343
2AEE
371
    -1
372
    -1
1001
ACAD_DSTYLE_DIMARC_LENGTH_SYMBOL
1070
   379
1070
     1
1001
ACAD_DSTYLE_DIM_LINETYPE
1070
   380
1005
2A7C
1001
ACAD_DSTYLE_DIM_EXT1_LINETYPE
1070
   381
1005
2A7C
1001
ACAD_DSTYLE_DIM_EXT2_LINETYPE
1070
   382
1005
2A7C
  0
DIMSTYLE
105
2ACF
330
2A24
100
AcDbSymbolTableRecord
100
AcDbDimStyleTableRecord
  2
STANDARD1
 70
     0
 40
6.0
 41
2.5
 42
0.625
 43
6.0
 44
1.25
 47
1.0
 48
0.5
 77
     1
 78
     8
140
2.5
141
0.0
146
0.6
147
1.0
173
     1
275
     1
279
     2
284
     7
285
     7
286
     7
340
2A77
  0
DIMSTYLE
105
2AD0
102
{ACAD_REACTORS
330
31DE
102
}
330
2A24
100
AcDbSymbolTableRecord
100
AcDbDimStyleTableRecord
  2
STANDARD$0
 70
     0
 41
12.0
 42
20.0
 44
20.0
 73
     0
 74
     0
 77
     1
 78
     8
140
64.0
141
0.0
147
10.0
275
     1
279
     2
284
     7
285
     7
286
     7
340
2A77
  0
ENDTAB
  0
TABLE
  2
BLOCK_RECORD
  5
2A1B
330
0
100
AcDbSymbolTable
 70
    88
  0
BLOCK_RECORD
  5
2A8E
102
{ACAD_XDICTIONARY
360
2C59
102
}
330
2A1B
100
AcDbSymbolTableRecord
100
AcDbBlockTableRecord
  2
*Model_Space
340
2A91
  0
BLOCK_RECORD
  5
2A8A
330
2A1B
100
AcDbSymbolTableRecord
100
AcDbBlockTableRecord
  2
*Paper_Space
340
2A8D
  0
BLOCK_RECORD
  5
2AD8
330
2A1B
100
AcDbSymbolTableRecord
100
AcDbBlockTableRecord
  2
$MODEL_SPACE
340
0
  0
BLOCK_RECORD
  5
2ADA
330
2A1B
100
AcDbSymbolTableRecord
100
AcDbBlockTableRecord
  2
$PAPER_SPACE
340
0
  0
BLOCK_RECORD
  5
2ADC
330
2A1B
100
AcDbSymbolTableRecord
100
AcDbBlockTableRecord
  2
_ORIGIN
340
0
  0
BLOCK_RECORD
  5
2ADE
330
2A1B
100
AcDbSymbolTableRecord
100
AcDbBlockTableRecord
  2
_DOTBLANK
340
0
102
{BLKREFS
331
1299
331
129A
331
11AA
331
11AB
331
E80
331
E81
331
1123
331
1124
331
11C2
331
11C3
331
11EC
331
11ED
331
11F9
331
11FA
331
1287
331
1288
331
1417
331
1418
331
1423
331
1424
331
142F
331
1430
331
143B
331
143C
331
166E
331
166F
331
1677
331
1678
331
1680
331
1681
331
1689
331
168A
331
1696
331
1697
331
16A3
331
16A4
331
16AF
331
16B0
331
16BB
331
16BC
331
16C7
331
16C8
331
16D3
331
16D4
331
1D86
331
1D87
331
1D8F
331
1D90
331
1D98
331
1D99
331
1DA1
331
1DA2
331
1DAB
331
1DAC
331
1DB5
331
1DB6
331
3149
331
314A
331
3155
331
3156
331
3161
331
3162
331
316D
331
316E
331
313D
331
313E
331
3212
331
3213
331
321F
331
3220
331
322C
331
322D
331
33C2
331
33C3
331
33C8
331
33C9
331
33CF
331
33D0
331
33D9
331
33DA
331
33DF
331
33E0
331
33E6
331
33E7
102
}
  0
BLOCK_RECORD
  5
2AE0
330
2A1B
100
AcDbSymbolTableRecord
100
AcDbBlockTableRecord
  2
_OPEN30
340
0
102
{BLKREFS
331
2088
331
25A0
331
287C
102
}
  0
BLOCK_RECORD
  5
2AE2
330
2A1B
100
AcDbSymbolTableRecord
100
AcDbBlockTableRecord
  2
*D5
340
0
  0
BLOCK_RECORD
  5
2AE4
330
2A1B
100
AcDbSymbolTableRecord
100
AcDbBlockTableRecord
  2
*U6
340
0
102
{BLKREFS
331
129B
102
}
  0
BLOCK_RECORD
  5
2AE6
330
2A1B
100
AcDbSymbolTableRecord
100
AcDbBlockTableRecord
  2
*D7
340
0
  0
BLOCK_RECORD
  5
2AE8
330
2A1B
100
AcDbSymbolTableRecord
100
AcDbBlockTableRecord
  2
*U8
340
0
102
{BLKREFS
331
11AC
102
}
  0
BLOCK_RECORD
  5
2AEA
330
2A1B
100
AcDbSymbolTableRecord
100
AcDbBlockTableRecord
  2
*D9
340
0
  0
BLOCK_RECORD
  5
2AEC
330
2A1B
100
AcDbSymbolTableRecord
100
AcDbBlockTableRecord
  2
*U10
340
0
102
{BLKREFS
331
E82
102
}
  0
BLOCK_RECORD
  5
2AEE
330
2A1B
100
AcDbSymbolTableRecord
100
AcDbBlockTableRecord
  2
GENAXEH
340
0
  0
BLOCK_RECORD
  5
2AF0
330
2A1B
100
AcDbSymbolTableRecord
100
AcDbBlockTableRecord
  2
*D12
340
0
  0
BLOCK_RECORD
  5
2AF2
330
2A1B
100
AcDbSymbolTableRecord
100
AcDbBlockTableRecord
  2
*U13
340
0
102
{BLKREFS
331
1125
102
}
  0
BLOCK_RECORD
  5
2AF4
330
2A1B
100
AcDbSymbolTableRecord
100
AcDbBlockTableRecord
  2
*D14
340
0
  0
BLOCK_RECORD
  5
2AF6
330
2A1B
100
AcDbSymbolTableRecord
100
AcDbBlockTableRecord
  2
*U15
340
0
102
{BLKREFS
331
11C4
102
}
  0
BLOCK_RECORD
  5
2AF8
330
2A1B
100
AcDbSymbolTableRecord
100
AcDbBlockTableRecord
  2
*D16
340
0
  0
BLOCK_RECORD
  5
2AFA
330
2A1B
100
AcDbSymbolTableRecord
100
AcDbBlockTableRecord
  2
*U17
340
0
102
{BLKREFS
331
11EE
102
}
  0
BLOCK_RECORD
  5
2AFC
330
2A1B
100
AcDbSymbolTableRecord
100
AcDbBlockTableRecord
  2
*D18
340
0
  0
BLOCK_RECORD
  5
2AFE
330
2A1B
100
AcDbSymbolTableRecord
100
AcDbBlockTableRecord
  2
*U19
340
0
102
{BLKREFS
331
11FB
102
}
  0
BLOCK_RECORD
  5
2B00
330
2A1B
100
AcDbSymbolTableRecord
100
AcDbBlockTableRecord
  2
*D20
340
0
  0
BLOCK_RECORD
  5
2B02
330
2A1B
100
AcDbSymbolTableRecord
100
AcDbBlockTableRecord
  2
*U21
340
0
102
{BLKREFS
331
1289
102
}
  0
BLOCK_RECORD
  5
2B04
330
2A1B
100
AcDbSymbolTableRecord
100
AcDbBlockTableRecord
  2
*D22
340
0
  0
BLOCK_RECORD
  5
2B06
330
2A1B
100
AcDbSymbolTableRecord
100
AcDbBlockTableRecord
  2
*U23
340
0
102
{BLKREFS
331
1419
102
}
  0
BLOCK_RECORD
  5
2B08
330
2A1B
100
AcDbSymbolTableRecord
100
AcDbBlockTableRecord
  2
*D24
340
0
  0
BLOCK_RECORD
  5
2B0A
330
2A1B
100
AcDbSymbolTableRecord
100
AcDbBlockTableRecord
  2
*U25
340
0
102
{BLKREFS
331
1425
102
}
  0
BLOCK_RECORD
  5
2B0C
330
2A1B
100
AcDbSymbolTableRecord
100
AcDbBlockTableRecord
  2
*D26
340
0
  0
BLOCK_RECORD
  5
2B0E
330
2A1B
100
AcDbSymbolTableRecord
100
AcDbBlockTableRecord
  2
*U27
340
0
102
{BLKREFS
331
1431
102
}
  0
BLOCK_RECORD
  5
2B10
330
2A1B
100
AcDbSymbolTableRecord
100
AcDbBlockTableRecord
  2
*D28
340
0
  0
BLOCK_RECORD
  5
2B12
330
2A1B
100
AcDbSymbolTableRecord
100
AcDbBlockTableRecord
  2
*U29
340
0
102
{BLKREFS
331
143D
102
}
  0
BLOCK_RECORD
  5
2B14
330
2A1B
100
AcDbSymbolTableRecord
100
AcDbBlockTableRecord
  2
*D30
340
0
  0
BLOCK_RECORD
  5
2B16
330
2A1B
100
AcDbSymbolTableRecord
100
AcDbBlockTableRecord
  2
*U31
340
0
102
{BLKREFS
331
1670
102
}
  0
BLOCK_RECORD
  5
2B18
330
2A1B
100
AcDbSymbolTableRecord
100
AcDbBlockTableRecord
  2
*D32
340
0
  0
BLOCK_RECORD
  5
2B1A
330
2A1B
100
AcDbSymbolTableRecord
100
AcDbBlockTableRecord
  2
*U33
340
0
102
{BLKREFS
331
1679
102
}
  0
BLOCK_RECORD
  5
2B1C
330
2A1B
100
AcDbSymbolTableRecord
100
AcDbBlockTableRecord
  2
*D34
340
0
  0
BLOCK_RECORD
  5
2B1E
330
2A1B
100
AcDbSymbolTableRecord
100
AcDbBlockTableRecord
  2
*U35
340
0
102
{BLKREFS
331
1682
102
}
  0
BLOCK_RECORD
  5
2B20
330
2A1B
100
AcDbSymbolTableRecord
100
AcDbBlockTableRecord
  2
*D36
340
0
  0
BLOCK_RECORD
  5
2B22
330
2A1B
100
AcDbSymbolTableRecord
100
AcDbBlockTableRecord
  2
*U37
340
0
102
{BLKREFS
331
168B
102
}
  0
BLOCK_RECORD
  5
2B24
330
2A1B
100
AcDbSymbolTableRecord
100
AcDbBlockTableRecord
  2
*U38
340
0
  0
BLOCK_RECORD
  5
2B26
330
2A1B
100
AcDbSymbolTableRecord
100
AcDbBlockTableRecord
  2
*D39
340
0
  0
BLOCK_RECORD
  5
2B28
330
2A1B
100
AcDbSymbolTableRecord
100
AcDbBlockTableRecord
  2
*U40
340
0
102
{BLKREFS
331
1698
102
}
  0
BLOCK_RECORD
  5
2B2A
330
2A1B
100
AcDbSymbolTableRecord
100
AcDbBlockTableRecord
  2
*D41
340
0
  0
BLOCK_RECORD
  5
2B2C
330
2A1B
100
AcDbSymbolTableRecord
100
AcDbBlockTableRecord
  2
*U42
340
0
102
{BLKREFS
331
16A5
102
}
  0
BLOCK_RECORD
  5
2B2E
330
2A1B
100
AcDbSymbolTableRecord
100
AcDbBlockTableRecord
  2
*D43
340
0
  0
BLOCK_RECORD
  5
2B30
330
2A1B
100
AcDbSymbolTableRecord
100
AcDbBlockTableRecord
  2
*U44
340
0
102
{BLKREFS
331
16B1
102
}
  0
BLOCK_RECORD
  5
2B32
330
2A1B
100
AcDbSymbolTableRecord
100
AcDbBlockTableRecord
  2
*D45
340
0
  0
BLOCK_RECORD
  5
2B34
330
2A1B
100
AcDbSymbolTableRecord
100
AcDbBlockTableRecord
  2
*U46
340
0
102
{BLKREFS
331
16BD
102
}
  0
BLOCK_RECORD
  5
2B36
330
2A1B
100
AcDbSymbolTableRecord
100
AcDbBlockTableRecord
  2
*D47
340
0
  0
BLOCK_RECORD
  5
2B38
330
2A1B
100
AcDbSymbolTableRecord
100
AcDbBlockTableRecord
  2
*U48
340
0
102
{BLKREFS
331
16C9
102
}
  0
BLOCK_RECORD
  5
2B3A
330
2A1B
100
AcDbSymbolTableRecord
100
AcDbBlockTableRecord
  2
*D49
340
0
  0
BLOCK_RECORD
  5
2B3C
330
2A1B
100
AcDbSymbolTableRecord
100
AcDbBlockTableRecord
  2
*U50
340
0
102
{BLKREFS
331
16D5
102
}
  0
BLOCK_RECORD
  5
2B3E
330
2A1B
100
AcDbSymbolTableRecord
100
AcDbBlockTableRecord
  2
*D51
340
0
  0
BLOCK_RECORD
  5
2B40
330
2A1B
100
AcDbSymbolTableRecord
100
AcDbBlockTableRecord
  2
*U52
340
0
102
{BLKREFS
331
1D88
102
}
  0
BLOCK_RECORD
  5
2B42
330
2A1B
100
AcDbSymbolTableRecord
100
AcDbBlockTableRecord
  2
*D53
340
0
  0
BLOCK_RECORD
  5
2B44
330
2A1B
100
AcDbSymbolTableRecord
100
AcDbBlockTableRecord
  2
*U54
340
0
102
{BLKREFS
331
1D91
102
}
  0
BLOCK_RECORD
  5
2B46
330
2A1B
100
AcDbSymbolTableRecord
100
AcDbBlockTableRecord
  2
*D55
340
0
  0
BLOCK_RECORD
  5
2B48
330
2A1B
100
AcDbSymbolTableRecord
100
AcDbBlockTableRecord
  2
*U56
340
0
102
{BLKREFS
331
1D9A
102
}
  0
BLOCK_RECORD
  5
2B4A
330
2A1B
100
AcDbSymbolTableRecord
100
AcDbBlockTableRecord
  2
*D57
340
0
  0
BLOCK_RECORD
  5
2B4C
330
2A1B
100
AcDbSymbolTableRecord
100
AcDbBlockTableRecord
  2
*U58
340
0
102
{BLKREFS
331
1DA3
102
}
  0
BLOCK_RECORD
  5
2B4E
330
2A1B
100
AcDbSymbolTableRecord
100
AcDbBlockTableRecord
  2
*D59
340
0
  0
BLOCK_RECORD
  5
2B50
330
2A1B
100
AcDbSymbolTableRecord
100
AcDbBlockTableRecord
  2
*U60
340
0
102
{BLKREFS
331
1DAD
102
}
  0
BLOCK_RECORD
  5
2B52
330
2A1B
100
AcDbSymbolTableRecord
100
AcDbBlockTableRecord
  2
*D61
340
0
  0
BLOCK_RECORD
  5
2B54
330
2A1B
100
AcDbSymbolTableRecord
100
AcDbBlockTableRecord
  2
*U62
340
0
102
{BLKREFS
331
1DB7
102
}
  0
BLOCK_RECORD
  5
2B56
330
2A1B
100
AcDbSymbolTableRecord
100
AcDbBlockTableRecord
  2
*U63
340
0
  0
BLOCK_RECORD
  5
2B58
330
2A1B
100
AcDbSymbolTableRecord
100
AcDbBlockTableRecord
  2
*U64
340
0
  0
BLOCK_RECORD
  5
2B5A
330
2A1B
100
AcDbSymbolTableRecord
100
AcDbBlockTableRecord
  2
*U65
340
0
  0
BLOCK_RECORD
  5
2B5C
330
2A1B
100
AcDbSymbolTableRecord
100
AcDbBlockTableRecord
  2
*U66
340
0
  0
BLOCK_RECORD
  5
2B5E
330
2A1B
100
AcDbSymbolTableRecord
100
AcDbBlockTableRecord
  2
*U67
340
0
  0
BLOCK_RECORD
  5
2B60
330
2A1B
100
AcDbSymbolTableRecord
100
AcDbBlockTableRecord
  2
*U68
340
0
  0
BLOCK_RECORD
  5
2B62
330
2A1B
100
AcDbSymbolTableRecord
100
AcDbBlockTableRecord
  2
*U69
340
0
  0
BLOCK_RECORD
  5
2B64
330
2A1B
100
AcDbSymbolTableRecord
100
AcDbBlockTableRecord
  2
*X70
340
0
  0
BLOCK_RECORD
  5
2B66
330
2A1B
100
AcDbSymbolTableRecord
100
AcDbBlockTableRecord
  2
*X71
340
0
  0
BLOCK_RECORD
  5
2D33
330
2A1B
100
AcDbSymbolTableRecord
100
AcDbBlockTableRecord
  2
*U72
340
0
  0
BLOCK_RECORD
  5
3027
330
2A1B
100
AcDbSymbolTableRecord
100
AcDbBlockTableRecord
  2
*U73
340
0
  0
BLOCK_RECORD
  5
3107
330
2A1B
100
AcDbSymbolTableRecord
100
AcDbBlockTableRecord
  2
*U74
340
0
  0
BLOCK_RECORD
  5
3137
330
2A1B
100
AcDbSymbolTableRecord
100
AcDbBlockTableRecord
  2
*D75
340
0
  0
BLOCK_RECORD
  5
3144
330
2A1B
100
AcDbSymbolTableRecord
100
AcDbBlockTableRecord
  2
*D76
340
0
  0
BLOCK_RECORD
  5
3150
330
2A1B
100
AcDbSymbolTableRecord
100
AcDbBlockTableRecord
  2
*D77
340
0
  0
BLOCK_RECORD
  5
315C
330
2A1B
100
AcDbSymbolTableRecord
100
AcDbBlockTableRecord
  2
*D78
340
0
  0
BLOCK_RECORD
  5
3168
330
2A1B
100
AcDbSymbolTableRecord
100
AcDbBlockTableRecord
  2
*D79
340
0
  0
BLOCK_RECORD
  5
320A
330
2A1B
100
AcDbSymbolTableRecord
100
AcDbBlockTableRecord
  2
*D80
340
0
  0
BLOCK_RECORD
  5
3217
330
2A1B
100
AcDbSymbolTableRecord
100
AcDbBlockTableRecord
  2
*D81
340
0
  0
BLOCK_RECORD
  5
3224
330
2A1B
100
AcDbSymbolTableRecord
100
AcDbBlockTableRecord
  2
*D82
340
0
  0
BLOCK_RECORD
  5
3231
330
2A1B
100
AcDbSymbolTableRecord
100
AcDbBlockTableRecord
  2
*D83
340
0
  0
BLOCK_RECORD
  5
323D
330
2A1B
100
AcDbSymbolTableRecord
100
AcDbBlockTableRecord
  2
*D84
340
0
  0
BLOCK_RECORD
  5
3302
330
2A1B
100
AcDbSymbolTableRecord
100
AcDbBlockTableRecord
  2
*U85
340
0
  0
ENDTAB
  0
ENDSEC
  0
SECTION
  2
BLOCKS
  0
BLOCK
  5
2A8F
330
2A8E
100
AcDbEntity
  8
0
100
AcDbBlockBegin
  2
*Model_Space
 70
     0
 10
0.0
 20
0.0
 30
0.0
  3
*Model_Space
  1

  0
ENDBLK
  5
2A90
330
2A8E
100
AcDbEntity
  8
0
100
AcDbBlockEnd
  0
BLOCK
  5
2A8B
330
2A8A
100
AcDbEntity
 67
     1
  8
0
100
AcDbBlockBegin
  2
*Paper_Space
 70
     0
 10
0.0
 20
0.0
 30
0.0
  3
*Paper_Space
  1

  0
ENDBLK
  5
2A8C
330
2A8A
100
AcDbEntity
 67
     1
  8
0
100
AcDbBlockEnd
  0
BLOCK
  5
2AD9
330
2AD8
100
AcDbEntity
  8
0
100
AcDbBlockBegin
  2
$MODEL_SPACE
 70
     0
 10
0.0
 20
0.0
 30
0.0
  3
$MODEL_SPACE
  1

  0
ENDBLK
  5
26CF
330
2AD8
100
AcDbEntity
  8
0
100
AcDbBlockEnd
  0
BLOCK
  5
2ADB
330
2ADA
100
AcDbEntity
  8
0
100
AcDbBlockBegin
  2
$PAPER_SPACE
 70
     0
 10
0.0
 20
0.0
 30
0.0
  3
$PAPER_SPACE
  1

  0
ENDBLK
  5
26CB
330
2ADA
100
AcDbEntity
  8
0
100
AcDbBlockEnd
  0
BLOCK
  5
2ADD
330
2ADC
100
AcDbEntity
  8
0
100
AcDbBlockBegin
  2
_ORIGIN
 70
     0
 10
0.0
 20
0.0
 30
0.0
  3
_ORIGIN
  1

  0
CIRCLE
  5
880
330
2ADC
100
AcDbEntity
  8
0
  6
Continuous
 62
     7
100
AcDbCircle
 10
0.0
 20
0.0
 30
0.0
 40
0.5
  0
LINE
  5
881
330
2ADC
100
AcDbEntity
  8
0
  6
Continuous
 62
     7
100
AcDbLine
 10
0.0
 20
0.0
 30
0.0
 11
-1.0
 21
0.0
 31
0.0
  0
ENDBLK
  5
882
330
2ADC
100
AcDbEntity
  8
0
100
AcDbBlockEnd
  0
BLOCK
  5
2ADF
330
2ADE
100
AcDbEntity
  8
0
 62
     1
100
AcDbBlockBegin
  2
_DOTBLANK
 70
     0
 10
0.0
 20
0.0
 30
0.0
  3
_DOTBLANK
  1

  0
CIRCLE
  5
AB3
330
2ADE
100
AcDbEntity
  8
0
  6
ByBlock
 62
     0
100
AcDbCircle
 10
0.0
 20
0.0
 30
0.0
 40
0.5
  0
LINE
  5
AB4
330
2ADE
100
AcDbEntity
  8
0
  6
ByBlock
 62
     0
100
AcDbLine
 10
-0.5
 20
0.0
 30
0.0
 11
-1.0
 21
0.0
 31
0.0
  0
ENDBLK
  5
AB6
330
2ADE
100
AcDbEntity
  8
0
 62
     1
100
AcDbBlockEnd
  0
BLOCK
  5
2AE1
330
2AE0
100
AcDbEntity
  8
0
 62
     1
100
AcDbBlockBegin
  2
_OPEN30
 70
     0
 10
0.0
 20
0.0
 30
0.0
  3
_OPEN30
  1

  0
LINE
  5
AB8
330
2AE0
100
AcDbEntity
  8
0
  6
ByBlock
 62
     0
100
AcDbLine
 10
-1.0
 20
0.26794919
 30
0.0
 11
0.0
 21
0.0
 31
0.0
  0
LINE
  5
AB9
330
2AE0
100
AcDbEntity
  8
0
  6
ByBlock
 62
     0
100
AcDbLine
 10
0.0
 20
0.0
 30
0.0
 11
-1.0
 21
-0.26794919
 31
0.0
  0
LINE
  5
ABA
330
2AE0
100
AcDbEntity
  8
0
  6
ByBlock
 62
     0
100
AcDbLine
 10
0.0
 20
0.0
 30
0.0
 11
-1.0
 21
0.0
 31
0.0
  0
ENDBLK
  5
ABC
330
2AE0
100
AcDbEntity
  8
0
 62
     1
100
AcDbBlockEnd
  0
BLOCK
  5
2AE3
330
2AE2
100
AcDbEntity
  8
0
100
AcDbBlockBegin
  2
*D5
 70
     1
 10
0.0
 20
0.0
 30
0.0
  3
*D5
  1

  0
LINE
  5
1296
330
2AE2
100
AcDbEntity
  8
SIZE
 62
     0
100
AcDbLine
 10
-134.5
 20
-320.0
 30
0.0
 11
-134.5
 21
-468.0173952306001
 31
0.0
  0
LINE
  5
1297
330
2AE2
100
AcDbEntity
  8
SIZE
 62
     0
100
AcDbLine
 10
134.5
 20
-320.0
 30
0.0
 11
134.5
 21
-468.0173952306001
 31
0.0
  0
LINE
  5
1298
330
2AE2
100
AcDbEntity
  8
SIZE
 62
     0
100
AcDbLine
 10
-122.5
 20
-448.0173952306
 30
0.0
 11
122.5
 21
-448.0173952306
 31
0.0
  0
INSERT
  5
1299
330
2AE2
100
AcDbEntity
  8
SIZE
 62
     0
100
AcDbBlockReference
  2
_DOTBLANK
 10
-134.5
 20
-448.0173952306
 30
0.0
 41
12.0
 42
12.0
 43
12.0
 50
180.0
  0
INSERT
  5
129A
330
2AE2
100
AcDbEntity
  8
SIZE
 62
     0
100
AcDbBlockReference
  2
_DOTBLANK
 10
134.5
 20
-448.0173952306
 30
0.0
 41
12.0
 42
12.0
 43
12.0
  0
INSERT
  5
129B
330
2AE2
100
AcDbEntity
  8
0
100
AcDbBlockReference
  2
*U6
 10
0.0
 20
0.0
 30
0.0
  0
POINT
  5
129C
330
2AE2
100
AcDbEntity
  8
DEFPOINTS
 62
     0
100
AcDbPoint
 10
-134.5
 20
-300.0
 30
0.0
  0
POINT
  5
129D
330
2AE2
100
AcDbEntity
  8
DEFPOINTS
 62
     0
100
AcDbPoint
 10
134.5
 20
-300.0
 30
0.0
  0
POINT
  5
129E
330
2AE2
100
AcDbEntity
  8
DEFPOINTS
 62
     0
100
AcDbPoint
 10
134.5
 20
-448.0173952306
 30
0.0
  0
ENDBLK
  5
D72
330
2AE2
100
AcDbEntity
  8
0
100
AcDbBlockEnd
  0
BLOCK
  5
2AE5
330
2AE4
100
AcDbEntity
  8
0
100
AcDbBlockBegin
  2
*U6
 70
     1
 10
0.0
 20
0.0
 30
0.0
  3
*U6
  1

  0
TEXT
  5
1EF5
330
2AE4
100
AcDbEntity
  8
SIZE
 62
     0
100
AcDbText
 10
-72.68571428571426
 20
-438.0173952305999
 30
0.0
 40
64.0
  1
269
 41
0.9
100
AcDbText
  0
ENDBLK
  5
1EF7
330
2AE4
100
AcDbEntity
  8
0
100
AcDbBlockEnd
  0
BLOCK
  5
2AE7
330
2AE6
100
AcDbEntity
  8
0
100
AcDbBlockBegin
  2
*D7
 70
     1
 10
0.0
 20
0.0
 30
0.0
  3
*D7
  1

  0
LINE
  5
11A7
330
2AE6
100
AcDbEntity
  8
SIZE
  6
Continuous
 62
     0
100
AcDbLine
 10
143.5
 20
-300.0
 30
0.0
 11
304.6432844803791
 21
-300.0
 31
0.0
  0
LINE
  5
11A8
330
2AE6
100
AcDbEntity
  8
SIZE
  6
Continuous
 62
     0
100
AcDbLine
 10
177.5
 20
-0.0000000000000057
 30
0.0
 11
304.6432844803792
 21
-0.0000000000000417
 31
0.0
  0
LINE
  5
11A9
330
2AE6
100
AcDbEntity
  8
SIZE
  6
Continuous
 62
     0
100
AcDbLine
 10
284.6432844803791
 20
-288.0000000000001
 30
0.0
 11
284.6432844803792
 21
-12.00000000000003
 31
0.0
  0
INSERT
  5
11AA
330
2AE6
100
AcDbEntity
  8
SIZE
  6
Continuous
 62
     0
100
AcDbBlockReference
  2
_DOTBLANK
 10
284.6432844803791
 20
-300.0
 30
0.0
 41
12.0
 42
12.0
 43
12.0
 50
270.0
  0
INSERT
  5
11AB
330
2AE6
100
AcDbEntity
  8
SIZE
  6
Continuous
 62
     0
100
AcDbBlockReference
  2
_DOTBLANK
 10
284.6432844803792
 20
-0.000000000000036
 30
0.0
 41
12.0
 42
12.0
 43
12.0
 50
90.0
  0
INSERT
  5
11AC
330
2AE6
100
AcDbEntity
  8
0
100
AcDbBlockReference
  2
*U8
 10
0.0
 20
0.0
 30
0.0
  0
POINT
  5
11AD
330
2AE6
100
AcDbEntity
  8
DEFPOINTS
  6
Continuous
 62
     0
100
AcDbPoint
 10
123.5
 20
-300.0
 30
0.0
  0
POINT
  5
11AE
330
2AE6
100
AcDbEntity
  8
DEFPOINTS
  6
Continuous
 62
     0
100
AcDbPoint
 10
157.5
 20
0.0
 30
0.0
  0
POINT
  5
11AF
330
2AE6
100
AcDbEntity
  8
DEFPOINTS
  6
Continuous
 62
     0
100
AcDbPoint
 10
284.6432844803792
 20
-0.000000000000036
 30
0.0
  0
ENDBLK
  5
E11
330
2AE6
100
AcDbEntity
  8
0
100
AcDbBlockEnd
  0
BLOCK
  5
2AE9
330
2AE8
100
AcDbEntity
  8
0
100
AcDbBlockBegin
  2
*U8
 70
     1
 10
0.0
 20
0.0
 30
0.0
  3
*U8
  1

  0
TEXT
  5
1EE1
330
2AE8
100
AcDbEntity
  8
SIZE
 62
     0
100
AcDbText
 10
274.6432844803792
 20
-224.0571428571429
 30
0.0
 40
64.0
  1
300
 50
90.0
 41
0.9
100
AcDbText
  0
ENDBLK
  5
1EE3
330
2AE8
100
AcDbEntity
  8
0
100
AcDbBlockEnd
  0
BLOCK
  5
2AEB
330
2AEA
100
AcDbEntity
  8
0
100
AcDbBlockBegin
  2
*D9
 70
     1
 10
0.0
 20
0.0
 30
0.0
  3
*D9
  1

  0
LINE
  5
E7D
330
2AEA
100
AcDbEntity
  8
SIZE
 62
     0
100
AcDbLine
 10
-139.9999999999998
 20
32.46448280219375
 30
0.0
 11
-139.9999999999998
 21
136.4516878685508
 31
0.0
  0
LINE
  5
E7E
330
2AEA
100
AcDbEntity
  8
SIZE
 62
     0
100
AcDbLine
 10
140.0
 20
32.46448280219375
 30
0.0
 11
140.0
 21
136.4516878685508
 31
0.0
  0
LINE
  5
E7F
330
2AEA
100
AcDbEntity
  8
SIZE
 62
     0
100
AcDbLine
 10
-128.0
 20
116.4516878685508
 30
0.0
 11
128.0
 21
116.4516878685508
 31
0.0
  0
INSERT
  5
E80
330
2AEA
100
AcDbEntity
  8
SIZE
 62
     0
100
AcDbBlockReference
  2
_DOTBLANK
 10
-139.9999999999998
 20
116.4516878685508
 30
0.0
 41
12.0
 42
12.0
 43
12.0
 50
180.0
  0
INSERT
  5
E81
330
2AEA
100
AcDbEntity
  8
SIZE
 62
     0
100
AcDbBlockReference
  2
_DOTBLANK
 10
140.0
 20
116.4516878685508
 30
0.0
 41
12.0
 42
12.0
 43
12.0
  0
INSERT
  5
E82
330
2AEA
100
AcDbEntity
  8
0
100
AcDbBlockReference
  2
*U10
 10
0.0
 20
0.0
 30
0.0
  0
POINT
  5
E83
330
2AEA
100
AcDbEntity
  8
DEFPOINTS
 62
     0
100
AcDbPoint
 10
-139.9999999999998
 20
12.46448280219374
 30
0.0
  0
POINT
  5
E84
330
2AEA
100
AcDbEntity
  8
DEFPOINTS
 62
     0
100
AcDbPoint
 10
140.0
 20
12.46448280219374
 30
0.0
  0
POINT
  5
E85
330
2AEA
100
AcDbEntity
  8
DEFPOINTS
 62
     0
100
AcDbPoint
 10
140.0
 20
116.4516878685508
 30
0.0
  0
ENDBLK
  5
E7C
330
2AEA
100
AcDbEntity
  8
0
100
AcDbBlockEnd
  0
BLOCK
  5
2AED
330
2AEC
100
AcDbEntity
  8
0
100
AcDbBlockBegin
  2
*U10
 70
     1
 10
0.0
 20
0.0
 30
0.0
  3
*U10
  1

  0
TEXT
  5
1ED8
330
2AEC
100
AcDbEntity
  8
SIZE
 62
     0
100
AcDbText
 10
-74.05714285714281
 20
126.4516878685508
 30
0.0
 40
64.0
  1
280
 41
0.9
100
AcDbText
  0
ENDBLK
  5
1EDA
330
2AEC
100
AcDbEntity
  8
0
100
AcDbBlockEnd
  0
BLOCK
  5
2AEF
330
2AEE
100
AcDbEntity
  8
0
100
AcDbBlockBegin
  2
GENAXEH
 70
     0
 10
0.0
 20
0.0
 30
0.0
  3
GENAXEH
  1

  0
LINE
  5
FDB
330
2AEE
100
AcDbEntity
  8
0
100
AcDbLine
 10
-1.0
 20
0.0
 30
0.0
 11
1.0
 21
0.0
 31
0.0
  0
ENDBLK
  5
FDD
330
2AEE
100
AcDbEntity
  8
0
100
AcDbBlockEnd
  0
BLOCK
  5
2AF1
330
2AF0
100
AcDbEntity
  8
0
100
AcDbBlockBegin
  2
*D12
 70
     1
 10
0.0
 20
0.0
 30
0.0
  3
*D12
  1

  0
LINE
  5
1120
330
2AF0
100
AcDbEntity
  8
SIZE
 62
     0
100
AcDbLine
 10
-157.5
 20
20.0
 30
0.0
 11
-157.5
 21
245.5794621189598
 31
0.0
  0
LINE
  5
1121
330
2AF0
100
AcDbEntity
  8
SIZE
 62
     0
100
AcDbLine
 10
157.5
 20
20.0
 30
0.0
 11
157.5
 21
245.5794621189598
 31
0.0
  0
LINE
  5
1122
330
2AF0
100
AcDbEntity
  8
SIZE
 62
     0
100
AcDbLine
 10
-145.5
 20
225.5794621189598
 30
0.0
 11
145.5
 21
225.5794621189598
 31
0.0
  0
INSERT
  5
1123
330
2AF0
100
AcDbEntity
  8
SIZE
 62
     0
100
AcDbBlockReference
  2
_DOTBLANK
 10
-157.5
 20
225.5794621189598
 30
0.0
 41
12.0
 42
12.0
 43
12.0
 50
180.0
  0
INSERT
  5
1124
330
2AF0
100
AcDbEntity
  8
SIZE
 62
     0
100
AcDbBlockReference
  2
_DOTBLANK
 10
157.5
 20
225.5794621189598
 30
0.0
 41
12.0
 42
12.0
 43
12.0
  0
INSERT
  5
1125
330
2AF0
100
AcDbEntity
  8
0
100
AcDbBlockReference
  2
*U13
 10
0.0
 20
0.0
 30
0.0
  0
POINT
  5
1126
330
2AF0
100
AcDbEntity
  8
DEFPOINTS
 62
     0
100
AcDbPoint
 10
-157.5
 20
0.0
 30
0.0
  0
POINT
  5
1127
330
2AF0
100
AcDbEntity
  8
DEFPOINTS
 62
     0
100
AcDbPoint
 10
157.5
 20
0.0
 30
0.0
  0
POINT
  5
1128
330
2AF0
100
AcDbEntity
  8
DEFPOINTS
 62
     0
100
AcDbPoint
 10
157.5
 20
225.5794621189598
 30
0.0
  0
ENDBLK
  5
111F
330
2AF0
100
AcDbEntity
  8
0
100
AcDbBlockEnd
  0
BLOCK
  5
2AF3
330
2AF2
100
AcDbEntity
  8
0
100
AcDbBlockBegin
  2
*U13
 70
     1
 10
0.0
 20
0.0
 30
0.0
  3
*U13
  1

  0
TEXT
  5
1EDD
330
2AF2
100
AcDbEntity
  8
SIZE
 62
     0
100
AcDbText
 10
-68.57142857142857
 20
235.5794621189599
 30
0.0
 40
64.0
  1
315
 41
0.9
100
AcDbText
  0
ENDBLK
  5
1EDF
330
2AF2
100
AcDbEntity
  8
0
100
AcDbBlockEnd
  0
BLOCK
  5
2AF5
330
2AF4
100
AcDbEntity
  8
0
100
AcDbBlockBegin
  2
*D14
 70
     1
 10
0.0
 20
0.0
 30
0.0
  3
*D14
  1

  0
LINE
  5
11BD
330
2AF4
100
AcDbEntity
  8
NOTE
 62
     0
100
AcDbLine
 10
-123.4999999999999
 20
-320.0
 30
0.0
 11
-123.4999999999999
 21
-354.9529861856111
 31
0.0
  0
LINE
  5
11BE
330
2AF4
100
AcDbEntity
  8
NOTE
 62
     0
100
AcDbLine
 10
-133.4999999999998
 20
-331.2126909923287
 30
0.0
 11
-133.4999999999998
 21
-354.9529861856111
 31
0.0
  0
LINE
  5
11BF
330
2AF4
100
AcDbEntity
  8
NOTE
 62
     0
100
AcDbLine
 10
-111.4999999999999
 20
-334.9529861856112
 30
0.0
 11
-99.4999999999999
 21
-334.9529861856112
 31
0.0
  0
LINE
  5
11C0
330
2AF4
100
AcDbEntity
  8
NOTE
 62
     0
100
AcDbLine
 10
-145.4999999999998
 20
-334.9529861856112
 30
0.0
 11
-157.4999999999998
 21
-334.9529861856112
 31
0.0
  0
LINE
  5
11C1
330
2AF4
100
AcDbEntity
  8
NOTE
 62
     0
100
AcDbLine
 10
-123.4999999999999
 20
-334.9529861856112
 30
0.0
 11
-133.4999999999998
 21
-334.9529861856112
 31
0.0
  0
INSERT
  5
11C2
330
2AF4
100
AcDbEntity
  8
NOTE
 62
     0
100
AcDbBlockReference
  2
_DOTBLANK
 10
-123.4999999999999
 20
-334.9529861856112
 30
0.0
 41
12.0
 42
12.0
 43
12.0
 50
180.0
  0
INSERT
  5
11C3
330
2AF4
100
AcDbEntity
  8
NOTE
 62
     0
100
AcDbBlockReference
  2
_DOTBLANK
 10
-133.4999999999998
 20
-334.9529861856112
 30
0.0
 41
12.0
 42
12.0
 43
12.0
  0
INSERT
  5
11C4
330
2AF4
100
AcDbEntity
  8
0
100
AcDbBlockReference
  2
*U15
 10
0.0
 20
0.0
 30
0.0
  0
POINT
  5
11C5
330
2AF4
100
AcDbEntity
  8
DEFPOINTS
 62
     0
100
AcDbPoint
 10
-123.4999999999999
 20
-300.0
 30
0.0
  0
POINT
  5
11C6
330
2AF4
100
AcDbEntity
  8
DEFPOINTS
 62
     0
100
AcDbPoint
 10
-133.4999999999998
 20
-311.2126909923287
 30
0.0
  0
POINT
  5
11C7
330
2AF4
100
AcDbEntity
  8
DEFPOINTS
 62
     0
100
AcDbPoint
 10
-133.4999999999998
 20
-334.9529861856112
 30
0.0
  0
ENDBLK
  5
11BC
330
2AF4
100
AcDbEntity
  8
0
100
AcDbBlockEnd
  0
BLOCK
  5
2AF7
330
2AF6
100
AcDbEntity
  8
0
100
AcDbBlockBegin
  2
*U15
 70
     1
 10
0.0
 20
0.0
 30
0.0
  3
*U15
  1

  0
TEXT
  5
1EE5
330
2AF6
100
AcDbEntity
  8
NOTE
 62
     0
100
AcDbText
 10
-169.642857142857
 20
-324.9529861856112
 30
0.0
 40
64.0
  1
10
 41
0.9
100
AcDbText
  0
ENDBLK
  5
1EE7
330
2AF6
100
AcDbEntity
  8
0
100
AcDbBlockEnd
  0
BLOCK
  5
2AF9
330
2AF8
100
AcDbEntity
  8
0
100
AcDbBlockBegin
  2
*D16
 70
     1
 10
0.0
 20
0.0
 30
0.0
  3
*D16
  1

  0
LINE
  5
11E7
330
2AF8
100
AcDbEntity
  8
NOTE
 62
     0
100
AcDbLine
 10
-135.5
 20
-333.2126909923287
 30
0.0
 11
-135.5
 21
-386.2569421441843
 31
0.0
  0
LINE
  5
11E8
330
2AF8
100
AcDbEntity
  8
NOTE
 62
     0
100
AcDbLine
 10
-123.4999999999999
 20
-320.0
 30
0.0
 11
-123.4999999999999
 21
-386.2569421441843
 31
0.0
  0
LINE
  5
11E9
330
2AF8
100
AcDbEntity
  8
NOTE
 62
     0
100
AcDbLine
 10
-147.5
 20
-366.2569421441844
 30
0.0
 11
-159.5
 21
-366.2569421441844
 31
0.0
  0
LINE
  5
11EA
330
2AF8
100
AcDbEntity
  8
NOTE
 62
     0
100
AcDbLine
 10
-111.4999999999999
 20
-366.2569421441844
 30
0.0
 11
-99.4999999999999
 21
-366.2569421441844
 31
0.0
  0
LINE
  5
11EB
330
2AF8
100
AcDbEntity
  8
NOTE
 62
     0
100
AcDbLine
 10
-135.5
 20
-366.2569421441844
 30
0.0
 11
-123.4999999999999
 21
-366.2569421441844
 31
0.0
  0
INSERT
  5
11EC
330
2AF8
100
AcDbEntity
  8
NOTE
 62
     0
100
AcDbBlockReference
  2
_DOTBLANK
 10
-135.5
 20
-366.2569421441844
 30
0.0
 41
12.0
 42
12.0
 43
12.0
  0
INSERT
  5
11ED
330
2AF8
100
AcDbEntity
  8
NOTE
 62
     0
100
AcDbBlockReference
  2
_DOTBLANK
 10
-123.4999999999999
 20
-366.2569421441844
 30
0.0
 41
12.0
 42
12.0
 43
12.0
 50
180.0
  0
INSERT
  5
11EE
330
2AF8
100
AcDbEntity
  8
0
100
AcDbBlockReference
  2
*U17
 10
0.0
 20
0.0
 30
0.0
  0
POINT
  5
11EF
330
2AF8
100
AcDbEntity
  8
DEFPOINTS
 62
     0
100
AcDbPoint
 10
-135.5
 20
-313.2126909923287
 30
0.0
  0
POINT
  5
11F0
330
2AF8
100
AcDbEntity
  8
DEFPOINTS
 62
     0
100
AcDbPoint
 10
-123.4999999999999
 20
-300.0
 30
0.0
  0
POINT
  5
11F1
330
2AF8
100
AcDbEntity
  8
DEFPOINTS
 62
     0
100
AcDbPoint
 10
-123.4999999999999
 20
-366.2569421441844
 30
0.0
  0
ENDBLK
  5
11E6
330
2AF8
100
AcDbEntity
  8
0
100
AcDbBlockEnd
  0
BLOCK
  5
2AFB
330
2AFA
100
AcDbEntity
  8
0
100
AcDbBlockBegin
  2
*U17
 70
     1
 10
0.0
 20
0.0
 30
0.0
  3
*U17
  1

  0
TEXT
  5
1EE9
330
2AFA
100
AcDbEntity
  8
NOTE
 62
     0
100
AcDbText
 10
-170.642857142857
 20
-356.2569421441843
 30
0.0
 40
64.0
  1
12
 41
0.9
100
AcDbText
  0
ENDBLK
  5
1EEB
330
2AFA
100
AcDbEntity
  8
0
100
AcDbBlockEnd
  0
BLOCK
  5
2AFD
330
2AFC
100
AcDbEntity
  8
0
100
AcDbBlockBegin
  2
*D18
 70
     1
 10
0.0
 20
0.0
 30
0.0
  3
*D18
  1

  0
LINE
  5
11F6
330
2AFC
100
AcDbEntity
  8
NOTE
 62
     0
100
AcDbLine
 10
-123.4999999999999
 20
-320.0
 30
0.0
 11
-123.4999999999999
 21
-583.8286022818904
 31
0.0
  0
LINE
  5
11F7
330
2AFC
100
AcDbEntity
  8
NOTE
 62
     0
100
AcDbLine
 10
123.5
 20
-320.0
 30
0.0
 11
123.5
 21
-583.8286022818904
 31
0.0
  0
LINE
  5
11F8
330
2AFC
100
AcDbEntity
  8
NOTE
 62
     0
100
AcDbLine
 10
-111.4999999999999
 20
-563.8286022818904
 30
0.0
 11
111.5
 21
-563.8286022818904
 31
0.0
  0
INSERT
  5
11F9
330
2AFC
100
AcDbEntity
  8
NOTE
 62
     0
100
AcDbBlockReference
  2
_DOTBLANK
 10
-123.4999999999999
 20
-563.8286022818904
 30
0.0
 41
12.0
 42
12.0
 43
12.0
 50
180.0
  0
INSERT
  5
11FA
330
2AFC
100
AcDbEntity
  8
NOTE
 62
     0
100
AcDbBlockReference
  2
_DOTBLANK
 10
123.5
 20
-563.8286022818904
 30
0.0
 41
12.0
 42
12.0
 43
12.0
  0
INSERT
  5
11FB
330
2AFC
100
AcDbEntity
  8
0
100
AcDbBlockReference
  2
*U19
 10
0.0
 20
0.0
 30
0.0
  0
POINT
  5
11FC
330
2AFC
100
AcDbEntity
  8
DEFPOINTS
 62
     0
100
AcDbPoint
 10
-123.4999999999999
 20
-300.0
 30
0.0
  0
POINT
  5
11FD
330
2AFC
100
AcDbEntity
  8
DEFPOINTS
 62
     0
100
AcDbPoint
 10
123.5
 20
-300.0
 30
0.0
  0
POINT
  5
11FE
330
2AFC
100
AcDbEntity
  8
DEFPOINTS
 62
     0
100
AcDbPoint
 10
123.5
 20
-563.8286022818904
 30
0.0
  0
ENDBLK
  5
11F5
330
2AFC
100
AcDbEntity
  8
0
100
AcDbBlockEnd
  0
BLOCK
  5
2AFF
330
2AFE
100
AcDbEntity
  8
0
100
AcDbBlockBegin
  2
*U19
 70
     1
 10
0.0
 20
0.0
 30
0.0
  3
*U19
  1

  0
TEXT
  5
1EED
330
2AFE
100
AcDbEntity
  8
NOTE
 62
     0
100
AcDbText
 10
-74.05714285714281
 20
-553.8286022818904
 30
0.0
 40
64.0
  1
247
 41
0.9
100
AcDbText
  0
ENDBLK
  5
1EEF
330
2AFE
100
AcDbEntity
  8
0
100
AcDbBlockEnd
  0
BLOCK
  5
2B01
330
2B00
100
AcDbEntity
  8
0
100
AcDbBlockBegin
  2
*D20
 70
     1
 10
0.0
 20
0.0
 30
0.0
  3
*D20
  1

  0
LINE
  5
1284
330
2B00
100
AcDbEntity
  8
NOTE
 62
     0
100
AcDbLine
 10
-123.5
 20
12.0
 30
0.0
 11
-123.5
 21
71.83630134534229
 31
0.0
  0
LINE
  5
1285
330
2B00
100
AcDbEntity
  8
NOTE
 62
     0
100
AcDbLine
 10
123.5
 20
12.0
 30
0.0
 11
123.5
 21
71.83630134534229
 31
0.0
  0
LINE
  5
1286
330
2B00
100
AcDbEntity
  8
NOTE
 62
     0
100
AcDbLine
 10
-111.5
 20
51.83630134534229
 30
0.0
 11
111.5
 21
51.83630134534229
 31
0.0
  0
INSERT
  5
1287
330
2B00
100
AcDbEntity
  8
NOTE
 62
     0
100
AcDbBlockReference
  2
_DOTBLANK
 10
-123.5
 20
51.83630134534229
 30
0.0
 41
12.0
 42
12.0
 43
12.0
 50
180.0
  0
INSERT
  5
1288
330
2B00
100
AcDbEntity
  8
NOTE
 62
     0
100
AcDbBlockReference
  2
_DOTBLANK
 10
123.5
 20
51.83630134534229
 30
0.0
 41
12.0
 42
12.0
 43
12.0
  0
INSERT
  5
1289
330
2B00
100
AcDbEntity
  8
0
100
AcDbBlockReference
  2
*U21
 10
0.0
 20
0.0
 30
0.0
  0
POINT
  5
128A
330
2B00
100
AcDbEntity
  8
DEFPOINTS
 62
     0
100
AcDbPoint
 10
-123.5
 20
-8.0
 30
0.0
  0
POINT
  5
128B
330
2B00
100
AcDbEntity
  8
DEFPOINTS
 62
     0
100
AcDbPoint
 10
123.5
 20
-8.0
 30
0.0
  0
POINT
  5
128C
330
2B00
100
AcDbEntity
  8
DEFPOINTS
 62
     0
100
AcDbPoint
 10
123.5
 20
51.83630134534229
 30
0.0
  0
ENDBLK
  5
1283
330
2B00
100
AcDbEntity
  8
0
100
AcDbBlockEnd
  0
BLOCK
  5
2B03
330
2B02
100
AcDbEntity
  8
0
100
AcDbBlockBegin
  2
*U21
 70
     1
 10
0.0
 20
0.0
 30
0.0
  3
*U21
  1

  0
TEXT
  5
1EF1
330
2B02
100
AcDbEntity
  8
NOTE
 62
     0
100
AcDbText
 10
-74.05714285714283
 20
61.83630134534229
 30
0.0
 40
64.0
  1
247
 41
0.9
100
AcDbText
  0
ENDBLK
  5
1EF3
330
2B02
100
AcDbEntity
  8
0
100
AcDbBlockEnd
  0
BLOCK
  5
2B05
330
2B04
100
AcDbEntity
  8
0
100
AcDbBlockBegin
  2
*D22
 70
     1
 10
0.0
 20
0.0
 30
0.0
  3
*D22
  1

  0
LINE
  5
1414
330
2B04
100
AcDbEntity
  8
SIZE
 62
     0
100
AcDbLine
 10
-22313.11521613997
 20
7365.702971374808
 30
0.0
 11
-22313.11521613997
 21
7217.685576144207
 31
0.0
  0
LINE
  5
1415
330
2B04
100
AcDbEntity
  8
SIZE
 62
     0
100
AcDbLine
 10
-22044.11521613997
 20
7365.702971374808
 30
0.0
 11
-22044.11521613997
 21
7217.685576144207
 31
0.0
  0
LINE
  5
1416
330
2B04
100
AcDbEntity
  8
SIZE
 62
     0
100
AcDbLine
 10
-22301.11521613997
 20
7237.685576144207
 30
0.0
 11
-22056.11521613997
 21
7237.685576144207
 31
0.0
  0
INSERT
  5
1417
330
2B04
100
AcDbEntity
  8
SIZE
 62
     0
100
AcDbBlockReference
  2
_DOTBLANK
 10
-22313.11521613997
 20
7237.685576144207
 30
0.0
 41
12.0
 42
12.0
 43
12.0
 50
180.0
  0
INSERT
  5
1418
330
2B04
100
AcDbEntity
  8
SIZE
 62
     0
100
AcDbBlockReference
  2
_DOTBLANK
 10
-22044.11521613997
 20
7237.685576144207
 30
0.0
 41
12.0
 42
12.0
 43
12.0
  0
INSERT
  5
1419
330
2B04
100
AcDbEntity
  8
0
100
AcDbBlockReference
  2
*U23
 10
0.0
 20
0.0
 30
0.0
  0
POINT
  5
141A
330
2B04
100
AcDbEntity
  8
DEFPOINTS
 62
     0
100
AcDbPoint
 10
-22313.11521613997
 20
7385.702971374808
 30
0.0
  0
POINT
  5
141B
330
2B04
100
AcDbEntity
  8
DEFPOINTS
 62
     0
100
AcDbPoint
 10
-22044.11521613997
 20
7385.702971374808
 30
0.0
  0
POINT
  5
141C
330
2B04
100
AcDbEntity
  8
DEFPOINTS
 62
     0
100
AcDbPoint
 10
-22044.11521613997
 20
7237.685576144207
 30
0.0
  0
ENDBLK
  5
141D
330
2B04
100
AcDbEntity
  8
0
100
AcDbBlockEnd
  0
BLOCK
  5
2B07
330
2B06
100
AcDbEntity
  8
0
100
AcDbBlockBegin
  2
*U23
 70
     1
 10
0.0
 20
0.0
 30
0.0
  3
*U23
  1

  0
TEXT
  5
1EF9
330
2B06
100
AcDbEntity
  8
SIZE
 62
     0
100
AcDbText
 10
-22251.30093042568
 20
7247.685576144205
 30
0.0
 40
64.0
  1
269
 41
0.9
100
AcDbText
  0
ENDBLK
  5
1EFB
330
2B06
100
AcDbEntity
  8
0
100
AcDbBlockEnd
  0
BLOCK
  5
2B09
330
2B08
100
AcDbEntity
  8
0
100
AcDbBlockBegin
  2
*D24
 70
     1
 10
0.0
 20
0.0
 30
0.0
  3
*D24
  1

  0
LINE
  5
1420
330
2B08
100
AcDbEntity
  8
SIZE
  6
Continuous
 62
     0
100
AcDbLine
 10
-22035.11521613997
 20
7385.702971374808
 30
0.0
 11
-21873.97193165959
 21
7385.702971374808
 31
0.0
  0
LINE
  5
1421
330
2B08
100
AcDbEntity
  8
SIZE
  6
Continuous
 62
     0
100
AcDbLine
 10
-22001.11521613997
 20
7685.702971374808
 30
0.0
 11
-21873.97193165959
 21
7685.702971374808
 31
0.0
  0
LINE
  5
1422
330
2B08
100
AcDbEntity
  8
SIZE
  6
Continuous
 62
     0
100
AcDbLine
 10
-21893.97193165959
 20
7397.702971374808
 30
0.0
 11
-21893.97193165959
 21
7673.702971374808
 31
0.0
  0
INSERT
  5
1423
330
2B08
100
AcDbEntity
  8
SIZE
  6
Continuous
 62
     0
100
AcDbBlockReference
  2
_DOTBLANK
 10
-21893.97193165959
 20
7385.702971374808
 30
0.0
 41
12.0
 42
12.0
 43
12.0
 50
270.0
  0
INSERT
  5
1424
330
2B08
100
AcDbEntity
  8
SIZE
  6
Continuous
 62
     0
100
AcDbBlockReference
  2
_DOTBLANK
 10
-21893.97193165959
 20
7685.702971374808
 30
0.0
 41
12.0
 42
12.0
 43
12.0
 50
90.0
  0
INSERT
  5
1425
330
2B08
100
AcDbEntity
  8
0
100
AcDbBlockReference
  2
*U25
 10
0.0
 20
0.0
 30
0.0
  0
POINT
  5
1426
330
2B08
100
AcDbEntity
  8
DEFPOINTS
  6
Continuous
 62
     0
100
AcDbPoint
 10
-22055.11521613997
 20
7385.702971374808
 30
0.0
  0
POINT
  5
1427
330
2B08
100
AcDbEntity
  8
DEFPOINTS
  6
Continuous
 62
     0
100
AcDbPoint
 10
-22021.11521613997
 20
7685.702971374808
 30
0.0
  0
POINT
  5
1428
330
2B08
100
AcDbEntity
  8
DEFPOINTS
  6
Continuous
 62
     0
100
AcDbPoint
 10
-21893.97193165959
 20
7685.702971374808
 30
0.0
  0
ENDBLK
  5
1429
330
2B08
100
AcDbEntity
  8
0
100
AcDbBlockEnd
  0
BLOCK
  5
2B0B
330
2B0A
100
AcDbEntity
  8
0
100
AcDbBlockBegin
  2
*U25
 70
     1
 10
0.0
 20
0.0
 30
0.0
  3
*U25
  1

  0
TEXT
  5
1EFD
330
2B0A
100
AcDbEntity
  8
SIZE
 62
     0
100
AcDbText
 10
-21903.97193165959
 20
7461.645828517662
 30
0.0
 40
64.0
  1
300
 50
90.0
 41
0.9
100
AcDbText
  0
ENDBLK
  5
1EFF
330
2B0A
100
AcDbEntity
  8
0
100
AcDbBlockEnd
  0
BLOCK
  5
2B0D
330
2B0C
100
AcDbEntity
  8
0
100
AcDbBlockBegin
  2
*D26
 70
     1
 10
0.0
 20
0.0
 30
0.0
  3
*D26
  1

  0
LINE
  5
142C
330
2B0C
100
AcDbEntity
  8
SIZE
 62
     0
100
AcDbLine
 10
-22318.61521613997
 20
7718.167454177002
 30
0.0
 11
-22318.61521613997
 21
7822.154659243358
 31
0.0
  0
LINE
  5
142D
330
2B0C
100
AcDbEntity
  8
SIZE
 62
     0
100
AcDbLine
 10
-22038.61521613997
 20
7718.167454177002
 30
0.0
 11
-22038.61521613997
 21
7822.154659243358
 31
0.0
  0
LINE
  5
142E
330
2B0C
100
AcDbEntity
  8
SIZE
 62
     0
100
AcDbLine
 10
-22306.61521613997
 20
7802.154659243358
 30
0.0
 11
-22050.61521613997
 21
7802.154659243358
 31
0.0
  0
INSERT
  5
142F
330
2B0C
100
AcDbEntity
  8
SIZE
 62
     0
100
AcDbBlockReference
  2
_DOTBLANK
 10
-22318.61521613997
 20
7802.154659243358
 30
0.0
 41
12.0
 42
12.0
 43
12.0
 50
180.0
  0
INSERT
  5
1430
330
2B0C
100
AcDbEntity
  8
SIZE
 62
     0
100
AcDbBlockReference
  2
_DOTBLANK
 10
-22038.61521613997
 20
7802.154659243358
 30
0.0
 41
12.0
 42
12.0
 43
12.0
  0
INSERT
  5
1431
330
2B0C
100
AcDbEntity
  8
0
100
AcDbBlockReference
  2
*U27
 10
0.0
 20
0.0
 30
0.0
  0
POINT
  5
1432
330
2B0C
100
AcDbEntity
  8
DEFPOINTS
 62
     0
100
AcDbPoint
 10
-22318.61521613997
 20
7698.167454177002
 30
0.0
  0
POINT
  5
1433
330
2B0C
100
AcDbEntity
  8
DEFPOINTS
 62
     0
100
AcDbPoint
 10
-22038.61521613997
 20
7698.167454177002
 30
0.0
  0
POINT
  5
1434
330
2B0C
100
AcDbEntity
  8
DEFPOINTS
 62
     0
100
AcDbPoint
 10
-22038.61521613997
 20
7802.154659243358
 30
0.0
  0
ENDBLK
  5
1435
330
2B0C
100
AcDbEntity
  8
0
100
AcDbBlockEnd
  0
BLOCK
  5
2B0F
330
2B0E
100
AcDbEntity
  8
0
100
AcDbBlockBegin
  2
*U27
 70
     1
 10
0.0
 20
0.0
 30
0.0
  3
*U27
  1

  0
TEXT
  5
1F01
330
2B0E
100
AcDbEntity
  8
SIZE
 62
     0
100
AcDbText
 10
-22252.6723589971
 20
7812.154659243358
 30
0.0
 40
64.0
  1
280
 41
0.9
100
AcDbText
  0
ENDBLK
  5
1F03
330
2B0E
100
AcDbEntity
  8
0
100
AcDbBlockEnd
  0
BLOCK
  5
2B11
330
2B10
100
AcDbEntity
  8
0
100
AcDbBlockBegin
  2
*D28
 70
     1
 10
0.0
 20
0.0
 30
0.0
  3
*D28
  1

  0
LINE
  5
1438
330
2B10
100
AcDbEntity
  8
SIZE
 62
     0
100
AcDbLine
 10
-22336.11521613997
 20
7705.702971374808
 30
0.0
 11
-22336.11521613997
 21
7931.282433493766
 31
0.0
  0
LINE
  5
1439
330
2B10
100
AcDbEntity
  8
SIZE
 62
     0
100
AcDbLine
 10
-22021.11521613997
 20
7705.702971374808
 30
0.0
 11
-22021.11521613997
 21
7931.282433493766
 31
0.0
  0
LINE
  5
143A
330
2B10
100
AcDbEntity
  8
SIZE
 62
     0
100
AcDbLine
 10
-22324.11521613997
 20
7911.282433493766
 30
0.0
 11
-22033.11521613997
 21
7911.282433493766
 31
0.0
  0
INSERT
  5
143B
330
2B10
100
AcDbEntity
  8
SIZE
 62
     0
100
AcDbBlockReference
  2
_DOTBLANK
 10
-22336.11521613997
 20
7911.282433493766
 30
0.0
 41
12.0
 42
12.0
 43
12.0
 50
180.0
  0
INSERT
  5
143C
330
2B10
100
AcDbEntity
  8
SIZE
 62
     0
100
AcDbBlockReference
  2
_DOTBLANK
 10
-22021.11521613997
 20
7911.282433493766
 30
0.0
 41
12.0
 42
12.0
 43
12.0
  0
INSERT
  5
143D
330
2B10
100
AcDbEntity
  8
0
100
AcDbBlockReference
  2
*U29
 10
0.0
 20
0.0
 30
0.0
  0
POINT
  5
143E
330
2B10
100
AcDbEntity
  8
DEFPOINTS
 62
     0
100
AcDbPoint
 10
-22336.11521613997
 20
7685.702971374808
 30
0.0
  0
POINT
  5
143F
330
2B10
100
AcDbEntity
  8
DEFPOINTS
 62
     0
100
AcDbPoint
 10
-22021.11521613997
 20
7685.702971374808
 30
0.0
  0
POINT
  5
1440
330
2B10
100
AcDbEntity
  8
DEFPOINTS
 62
     0
100
AcDbPoint
 10
-22021.11521613997
 20
7911.282433493766
 30
0.0
  0
ENDBLK
  5
1441
330
2B10
100
AcDbEntity
  8
0
100
AcDbBlockEnd
  0
BLOCK
  5
2B13
330
2B12
100
AcDbEntity
  8
0
100
AcDbBlockBegin
  2
*U29
 70
     1
 10
0.0
 20
0.0
 30
0.0
  3
*U29
  1

  0
TEXT
  5
1F05
330
2B12
100
AcDbEntity
  8
SIZE
 62
     0
100
AcDbText
 10
-22247.18664471139
 20
7921.282433493766
 30
0.0
 40
64.0
  1
315
 41
0.9
100
AcDbText
  0
ENDBLK
  5
1F07
330
2B12
100
AcDbEntity
  8
0
100
AcDbBlockEnd
  0
BLOCK
  5
2B15
330
2B14
100
AcDbEntity
  8
0
100
AcDbBlockBegin
  2
*D30
 70
     1
 10
0.0
 20
0.0
 30
0.0
  3
*D30
  1

  0
LINE
  5
166B
330
2B14
100
AcDbEntity
  8
SIZE
 62
     0
100
AcDbLine
 10
-134.5
 20
-320.0
 30
0.0
 11
-134.5
 21
-468.0173952306001
 31
0.0
  0
LINE
  5
166C
330
2B14
100
AcDbEntity
  8
SIZE
 62
     0
100
AcDbLine
 10
134.5
 20
-320.0
 30
0.0
 11
134.5
 21
-468.0173952306001
 31
0.0
  0
LINE
  5
166D
330
2B14
100
AcDbEntity
  8
SIZE
 62
     0
100
AcDbLine
 10
-122.5
 20
-448.0173952306
 30
0.0
 11
122.5
 21
-448.0173952306
 31
0.0
  0
INSERT
  5
166E
330
2B14
100
AcDbEntity
  8
SIZE
 62
     0
100
AcDbBlockReference
  2
_DOTBLANK
 10
-134.5
 20
-448.0173952306
 30
0.0
 41
12.0
 42
12.0
 43
12.0
 50
180.0
  0
INSERT
  5
166F
330
2B14
100
AcDbEntity
  8
SIZE
 62
     0
100
AcDbBlockReference
  2
_DOTBLANK
 10
134.5
 20
-448.0173952306
 30
0.0
 41
12.0
 42
12.0
 43
12.0
  0
INSERT
  5
1670
330
2B14
100
AcDbEntity
  8
0
100
AcDbBlockReference
  2
*U31
 10
0.0
 20
0.0
 30
0.0
  0
POINT
  5
1671
330
2B14
100
AcDbEntity
  8
DEFPOINTS
 62
     0
100
AcDbPoint
 10
-134.5
 20
-300.0
 30
0.0
  0
POINT
  5
1672
330
2B14
100
AcDbEntity
  8
DEFPOINTS
 62
     0
100
AcDbPoint
 10
134.5
 20
-300.0
 30
0.0
  0
POINT
  5
1673
330
2B14
100
AcDbEntity
  8
DEFPOINTS
 62
     0
100
AcDbPoint
 10
134.5
 20
-448.0173952306
 30
0.0
  0
ENDBLK
  5
14A7
330
2B14
100
AcDbEntity
  8
0
100
AcDbBlockEnd
  0
BLOCK
  5
2B17
330
2B16
100
AcDbEntity
  8
0
100
AcDbBlockBegin
  2
*U31
 70
     1
 10
0.0
 20
0.0
 30
0.0
  3
*U31
  1

  0
TEXT
  5
1F09
330
2B16
100
AcDbEntity
  8
SIZE
 62
     0
100
AcDbText
 10
-72.68571428571426
 20
-438.0173952306002
 30
0.0
 40
64.0
  1
269
 41
0.9
100
AcDbText
  0
ENDBLK
  5
1F0B
330
2B16
100
AcDbEntity
  8
0
100
AcDbBlockEnd
  0
BLOCK
  5
2B19
330
2B18
100
AcDbEntity
  8
0
100
AcDbBlockBegin
  2
*D32
 70
     1
 10
0.0
 20
0.0
 30
0.0
  3
*D32
  1

  0
LINE
  5
1674
330
2B18
100
AcDbEntity
  8
SIZE
  6
Continuous
 62
     0
100
AcDbLine
 10
143.5
 20
-300.0
 30
0.0
 11
304.6432844803784
 21
-300.0
 31
0.0
  0
LINE
  5
1675
330
2B18
100
AcDbEntity
  8
SIZE
  6
Continuous
 62
     0
100
AcDbLine
 10
177.5
 20
-0.0000000000000057
 30
0.0
 11
304.6432844803785
 21
-0.0000000000000417
 31
0.0
  0
LINE
  5
1676
330
2B18
100
AcDbEntity
  8
SIZE
  6
Continuous
 62
     0
100
AcDbLine
 10
284.6432844803784
 20
-288.0000000000001
 30
0.0
 11
284.6432844803785
 21
-12.00000000000003
 31
0.0
  0
INSERT
  5
1677
330
2B18
100
AcDbEntity
  8
SIZE
  6
Continuous
 62
     0
100
AcDbBlockReference
  2
_DOTBLANK
 10
284.6432844803784
 20
-300.0
 30
0.0
 41
12.0
 42
12.0
 43
12.0
 50
270.0
  0
INSERT
  5
1678
330
2B18
100
AcDbEntity
  8
SIZE
  6
Continuous
 62
     0
100
AcDbBlockReference
  2
_DOTBLANK
 10
284.6432844803785
 20
-0.000000000000036
 30
0.0
 41
12.0
 42
12.0
 43
12.0
 50
90.0
  0
INSERT
  5
1679
330
2B18
100
AcDbEntity
  8
0
100
AcDbBlockReference
  2
*U33
 10
0.0
 20
0.0
 30
0.0
  0
POINT
  5
167A
330
2B18
100
AcDbEntity
  8
DEFPOINTS
  6
Continuous
 62
     0
100
AcDbPoint
 10
123.5
 20
-300.0
 30
0.0
  0
POINT
  5
167B
330
2B18
100
AcDbEntity
  8
DEFPOINTS
  6
Continuous
 62
     0
100
AcDbPoint
 10
157.5
 20
0.0
 30
0.0
  0
POINT
  5
167C
330
2B18
100
AcDbEntity
  8
DEFPOINTS
  6
Continuous
 62
     0
100
AcDbPoint
 10
284.6432844803785
 20
-0.000000000000036
 30
0.0
  0
ENDBLK
  5
14B3
330
2B18
100
AcDbEntity
  8
0
100
AcDbBlockEnd
  0
BLOCK
  5
2B1B
330
2B1A
100
AcDbEntity
  8
0
100
AcDbBlockBegin
  2
*U33
 70
     1
 10
0.0
 20
0.0
 30
0.0
  3
*U33
  1

  0
TEXT
  5
1F0D
330
2B1A
100
AcDbEntity
  8
SIZE
 62
     0
100
AcDbText
 10
274.6432844803785
 20
-224.0571428571429
 30
0.0
 40
64.0
  1
300
 50
90.0
 41
0.9
100
AcDbText
  0
ENDBLK
  5
1F0F
330
2B1A
100
AcDbEntity
  8
0
100
AcDbBlockEnd
  0
BLOCK
  5
2B1D
330
2B1C
100
AcDbEntity
  8
0
100
AcDbBlockBegin
  2
*D34
 70
     1
 10
0.0
 20
0.0
 30
0.0
  3
*D34
  1

  0
LINE
  5
167D
330
2B1C
100
AcDbEntity
  8
SIZE
 62
     0
100
AcDbLine
 10
-140.0
 20
32.46448280219375
 30
0.0
 11
-140.0
 21
136.4516878685507
 31
0.0
  0
LINE
  5
167E
330
2B1C
100
AcDbEntity
  8
SIZE
 62
     0
100
AcDbLine
 10
140.0
 20
32.46448280219375
 30
0.0
 11
140.0
 21
136.4516878685507
 31
0.0
  0
LINE
  5
167F
330
2B1C
100
AcDbEntity
  8
SIZE
 62
     0
100
AcDbLine
 10
-128.0
 20
116.4516878685508
 30
0.0
 11
128.0
 21
116.4516878685508
 31
0.0
  0
INSERT
  5
1680
330
2B1C
100
AcDbEntity
  8
SIZE
 62
     0
100
AcDbBlockReference
  2
_DOTBLANK
 10
-140.0
 20
116.4516878685508
 30
0.0
 41
12.0
 42
12.0
 43
12.0
 50
180.0
  0
INSERT
  5
1681
330
2B1C
100
AcDbEntity
  8
SIZE
 62
     0
100
AcDbBlockReference
  2
_DOTBLANK
 10
140.0
 20
116.4516878685508
 30
0.0
 41
12.0
 42
12.0
 43
12.0
  0
INSERT
  5
1682
330
2B1C
100
AcDbEntity
  8
0
100
AcDbBlockReference
  2
*U35
 10
0.0
 20
0.0
 30
0.0
  0
POINT
  5
1683
330
2B1C
100
AcDbEntity
  8
DEFPOINTS
 62
     0
100
AcDbPoint
 10
-140.0
 20
12.46448280219374
 30
0.0
  0
POINT
  5
1684
330
2B1C
100
AcDbEntity
  8
DEFPOINTS
 62
     0
100
AcDbPoint
 10
140.0
 20
12.46448280219374
 30
0.0
  0
POINT
  5
1685
330
2B1C
100
AcDbEntity
  8
DEFPOINTS
 62
     0
100
AcDbPoint
 10
140.0
 20
116.4516878685508
 30
0.0
  0
ENDBLK
  5
14BF
330
2B1C
100
AcDbEntity
  8
0
100
AcDbBlockEnd
  0
BLOCK
  5
2B1F
330
2B1E
100
AcDbEntity
  8
0
100
AcDbBlockBegin
  2
*U35
 70
     1
 10
0.0
 20
0.0
 30
0.0
  3
*U35
  1

  0
TEXT
  5
1F11
330
2B1E
100
AcDbEntity
  8
SIZE
 62
     0
100
AcDbText
 10
-74.05714285714283
 20
126.4516878685507
 30
0.0
 40
64.0
  1
280
 41
0.9
100
AcDbText
  0
ENDBLK
  5
1F13
330
2B1E
100
AcDbEntity
  8
0
100
AcDbBlockEnd
  0
BLOCK
  5
2B21
330
2B20
100
AcDbEntity
  8
0
100
AcDbBlockBegin
  2
*D36
 70
     1
 10
0.0
 20
0.0
 30
0.0
  3
*D36
  1

  0
LINE
  5
1686
330
2B20
100
AcDbEntity
  8
SIZE
 62
     0
100
AcDbLine
 10
-157.5
 20
20.0
 30
0.0
 11
-157.5
 21
245.5794621189598
 31
0.0
  0
LINE
  5
1687
330
2B20
100
AcDbEntity
  8
SIZE
 62
     0
100
AcDbLine
 10
157.5
 20
20.0
 30
0.0
 11
157.5
 21
245.5794621189598
 31
0.0
  0
LINE
  5
1688
330
2B20
100
AcDbEntity
  8
SIZE
 62
     0
100
AcDbLine
 10
-145.5
 20
225.5794621189598
 30
0.0
 11
145.5
 21
225.5794621189598
 31
0.0
  0
INSERT
  5
1689
330
2B20
100
AcDbEntity
  8
SIZE
 62
     0
100
AcDbBlockReference
  2
_DOTBLANK
 10
-157.5
 20
225.5794621189598
 30
0.0
 41
12.0
 42
12.0
 43
12.0
 50
180.0
  0
INSERT
  5
168A
330
2B20
100
AcDbEntity
  8
SIZE
 62
     0
100
AcDbBlockReference
  2
_DOTBLANK
 10
157.5
 20
225.5794621189598
 30
0.0
 41
12.0
 42
12.0
 43
12.0
  0
INSERT
  5
168B
330
2B20
100
AcDbEntity
  8
0
100
AcDbBlockReference
  2
*U37
 10
0.0
 20
0.0
 30
0.0
  0
POINT
  5
168C
330
2B20
100
AcDbEntity
  8
DEFPOINTS
 62
     0
100
AcDbPoint
 10
-157.5
 20
0.0
 30
0.0
  0
POINT
  5
168D
330
2B20
100
AcDbEntity
  8
DEFPOINTS
 62
     0
100
AcDbPoint
 10
157.5
 20
0.0
 30
0.0
  0
POINT
  5
168E
330
2B20
100
AcDbEntity
  8
DEFPOINTS
 62
     0
100
AcDbPoint
 10
157.5
 20
225.5794621189598
 30
0.0
  0
ENDBLK
  5
14CB
330
2B20
100
AcDbEntity
  8
0
100
AcDbBlockEnd
  0
BLOCK
  5
2B23
330
2B22
100
AcDbEntity
  8
0
100
AcDbBlockBegin
  2
*U37
 70
     1
 10
0.0
 20
0.0
 30
0.0
  3
*U37
  1

  0
TEXT
  5
1F15
330
2B22
100
AcDbEntity
  8
SIZE
 62
     0
100
AcDbText
 10
-68.57142857142857
 20
235.5794621189598
 30
0.0
 40
64.0
  1
315
 41
0.9
100
AcDbText
  0
ENDBLK
  5
1F17
330
2B22
100
AcDbEntity
  8
0
100
AcDbBlockEnd
  0
BLOCK
  5
2B25
330
2B24
100
AcDbEntity
  8
0
100
AcDbBlockBegin
  2
*U38
 70
     1
 10
0.0
 20
0.0
 30
0.0
  3
*U38
  1

  0
ENDBLK
  5
15CF
330
2B24
100
AcDbEntity
  8
0
100
AcDbBlockEnd
  0
BLOCK
  5
2B27
330
2B26
100
AcDbEntity
  8
0
100
AcDbBlockBegin
  2
*D39
 70
     1
 10
0.0
 20
0.0
 30
0.0
  3
*D39
  1

  0
LINE
  5
1692
330
2B26
100
AcDbEntity
  8
SIZE
 62
     0
100
AcDbLine
 10
-25844.51823276502
 20
7685.702971374808
 30
0.0
 11
-25981.04465488371
 21
7685.702971374808
 31
0.0
  0
LINE
  5
1693
330
2B26
100
AcDbEntity
  8
SIZE
 62
     0
100
AcDbLine
 10
-25844.51823276502
 20
7677.702971374808
 30
0.0
 11
-25981.04465488371
 21
7677.702971374808
 31
0.0
  0
LINE
  5
1694
330
2B26
100
AcDbEntity
  8
SIZE
 62
     0
100
AcDbLine
 10
-25961.04465488371
 20
7697.702971374808
 30
0.0
 11
-25961.04465488371
 21
7709.702971374809
 31
0.0
  0
LINE
  5
1695
330
2B26
100
AcDbEntity
  8
SIZE
 62
     0
100
AcDbLine
 10
-25961.04465488371
 20
7665.70297137481
 30
0.0
 11
-25961.04465488371
 21
7595.302971374808
 31
0.0
  0
INSERT
  5
1696
330
2B26
100
AcDbEntity
  8
SIZE
 62
     0
100
AcDbBlockReference
  2
_DOTBLANK
 10
-25961.04465488371
 20
7685.702971374808
 30
0.0
 41
12.0
 42
12.0
 43
12.0
 50
270.0
  0
INSERT
  5
1697
330
2B26
100
AcDbEntity
  8
SIZE
 62
     0
100
AcDbBlockReference
  2
_DOTBLANK
 10
-25961.04465488371
 20
7677.702971374808
 30
0.0
 41
12.0
 42
12.0
 43
12.0
 50
90.0
  0
INSERT
  5
1698
330
2B26
100
AcDbEntity
  8
0
100
AcDbBlockReference
  2
*U40
 10
0.0
 20
0.0
 30
0.0
  0
POINT
  5
1699
330
2B26
100
AcDbEntity
  8
DEFPOINTS
 62
     0
100
AcDbPoint
 10
-25824.51823276501
 20
7685.702971374808
 30
0.0
  0
POINT
  5
169A
330
2B26
100
AcDbEntity
  8
DEFPOINTS
 62
     0
100
AcDbPoint
 10
-25824.51823276501
 20
7677.702971374808
 30
0.0
  0
POINT
  5
169B
330
2B26
100
AcDbEntity
  8
DEFPOINTS
 62
     0
100
AcDbPoint
 10
-25961.04465488371
 20
7677.702971374808
 30
0.0
  0
ENDBLK
  5
169C
330
2B26
100
AcDbEntity
  8
0
100
AcDbBlockEnd
  0
BLOCK
  5
2B29
330
2B28
100
AcDbEntity
  8
0
100
AcDbBlockBegin
  2
*U40
 70
     1
 10
0.0
 20
0.0
 30
0.0
  3
*U40
  1

  0
TEXT
  5
1F19
330
2B28
100
AcDbEntity
  8
SIZE
 62
     0
100
AcDbText
 10
-25971.04465488371
 20
7605.302971374804
 30
0.0
 40
64.0
  1
8
 50
90.0
 41
0.9
100
AcDbText
  0
ENDBLK
  5
1F1B
330
2B28
100
AcDbEntity
  8
0
100
AcDbBlockEnd
  0
BLOCK
  5
2B2B
330
2B2A
100
AcDbEntity
  8
0
100
AcDbBlockBegin
  2
*D41
 70
     1
 10
0.0
 20
0.0
 30
0.0
  3
*D41
  1

  0
LINE
  5
169F
330
2B2A
100
AcDbEntity
  8
SIZE
 62
     0
100
AcDbLine
 10
-25512.51823276502
 20
7385.702971374808
 30
0.0
 11
-25362.37494828464
 21
7385.702971374808
 31
0.0
  0
LINE
  5
16A0
330
2B2A
100
AcDbEntity
  8
SIZE
 62
     0
100
AcDbLine
 10
-25523.51823276501
 20
7373.702971374808
 30
0.0
 11
-25362.37494828464
 21
7373.702971374808
 31
0.0
  0
LINE
  5
16A1
330
2B2A
100
AcDbEntity
  8
SIZE
 62
     0
100
AcDbLine
 10
-25382.37494828464
 20
7397.702971374808
 30
0.0
 11
-25382.37494828464
 21
7409.70297137481
 31
0.0
  0
LINE
  5
16A2
330
2B2A
100
AcDbEntity
  8
SIZE
 62
     0
100
AcDbLine
 10
-25382.37494828464
 20
7361.702971374808
 30
0.0
 11
-25382.37494828464
 21
7244.674399946238
 31
0.0
  0
INSERT
  5
16A3
330
2B2A
100
AcDbEntity
  8
SIZE
 62
     0
100
AcDbBlockReference
  2
_DOTBLANK
 10
-25382.37494828464
 20
7385.702971374808
 30
0.0
 41
12.0
 42
12.0
 43
12.0
 50
270.0
  0
INSERT
  5
16A4
330
2B2A
100
AcDbEntity
  8
SIZE
 62
     0
100
AcDbBlockReference
  2
_DOTBLANK
 10
-25382.37494828464
 20
7373.702971374808
 30
0.0
 41
12.0
 42
12.0
 43
12.0
 50
90.0
  0
INSERT
  5
16A5
330
2B2A
100
AcDbEntity
  8
0
100
AcDbBlockReference
  2
*U42
 10
0.0
 20
0.0
 30
0.0
  0
POINT
  5
16A6
330
2B2A
100
AcDbEntity
  8
DEFPOINTS
 62
     0
100
AcDbPoint
 10
-25532.51823276502
 20
7385.702971374808
 30
0.0
  0
POINT
  5
16A7
330
2B2A
100
AcDbEntity
  8
DEFPOINTS
 62
     0
100
AcDbPoint
 10
-25543.51823276502
 20
7373.702971374808
 30
0.0
  0
POINT
  5
16A8
330
2B2A
100
AcDbEntity
  8
DEFPOINTS
 62
     0
100
AcDbPoint
 10
-25382.37494828464
 20
7373.702971374808
 30
0.0
  0
ENDBLK
  5
16A9
330
2B2A
100
AcDbEntity
  8
0
100
AcDbBlockEnd
  0
BLOCK
  5
2B2D
330
2B2C
100
AcDbEntity
  8
0
100
AcDbBlockBegin
  2
*U42
 70
     1
 10
0.0
 20
0.0
 30
0.0
  3
*U42
  1

  0
TEXT
  5
1F1D
330
2B2C
100
AcDbEntity
  8
SIZE
 62
     0
100
AcDbText
 10
-25392.37494828464
 20
7256.045828517662
 30
0.0
 40
64.0
  1
12
 50
90.0
 41
0.9
100
AcDbText
  0
ENDBLK
  5
1F1F
330
2B2C
100
AcDbEntity
  8
0
100
AcDbBlockEnd
  0
BLOCK
  5
2B2F
330
2B2E
100
AcDbEntity
  8
0
100
AcDbBlockBegin
  2
*D43
 70
     1
 10
0.0
 20
0.0
 30
0.0
  3
*D43
  1

  0
LINE
  5
16AC
330
2B2E
100
AcDbEntity
  8
SIZE
 62
     0
100
AcDbLine
 10
-25801.51823276501
 20
7365.702971374808
 30
0.0
 11
-25801.51823276501
 21
7217.685576144207
 31
0.0
  0
LINE
  5
16AD
330
2B2E
100
AcDbEntity
  8
SIZE
 62
     0
100
AcDbLine
 10
-25532.51823276502
 20
7365.702971374808
 30
0.0
 11
-25532.51823276502
 21
7217.685576144207
 31
0.0
  0
LINE
  5
16AE
330
2B2E
100
AcDbEntity
  8
SIZE
 62
     0
100
AcDbLine
 10
-25789.51823276502
 20
7237.685576144207
 30
0.0
 11
-25544.51823276501
 21
7237.685576144207
 31
0.0
  0
INSERT
  5
16AF
330
2B2E
100
AcDbEntity
  8
SIZE
 62
     0
100
AcDbBlockReference
  2
_DOTBLANK
 10
-25801.51823276501
 20
7237.685576144207
 30
0.0
 41
12.0
 42
12.0
 43
12.0
 50
180.0
  0
INSERT
  5
16B0
330
2B2E
100
AcDbEntity
  8
SIZE
 62
     0
100
AcDbBlockReference
  2
_DOTBLANK
 10
-25532.51823276502
 20
7237.685576144207
 30
0.0
 41
12.0
 42
12.0
 43
12.0
  0
INSERT
  5
16B1
330
2B2E
100
AcDbEntity
  8
0
100
AcDbBlockReference
  2
*U44
 10
0.0
 20
0.0
 30
0.0
  0
POINT
  5
16B2
330
2B2E
100
AcDbEntity
  8
DEFPOINTS
 62
     0
100
AcDbPoint
 10
-25801.51823276501
 20
7385.702971374808
 30
0.0
  0
POINT
  5
16B3
330
2B2E
100
AcDbEntity
  8
DEFPOINTS
 62
     0
100
AcDbPoint
 10
-25532.51823276502
 20
7385.702971374808
 30
0.0
  0
POINT
  5
16B4
330
2B2E
100
AcDbEntity
  8
DEFPOINTS
 62
     0
100
AcDbPoint
 10
-25532.51823276502
 20
7237.685576144207
 30
0.0
  0
ENDBLK
  5
16B5
330
2B2E
100
AcDbEntity
  8
0
100
AcDbBlockEnd
  0
BLOCK
  5
2B31
330
2B30
100
AcDbEntity
  8
0
100
AcDbBlockBegin
  2
*U44
 70
     1
 10
0.0
 20
0.0
 30
0.0
  3
*U44
  1

  0
TEXT
  5
1F21
330
2B30
100
AcDbEntity
  8
SIZE
 62
     0
100
AcDbText
 10
-25739.70394705074
 20
7247.685576144205
 30
0.0
 40
64.0
  1
269
 41
0.9
100
AcDbText
  0
ENDBLK
  5
1F23
330
2B30
100
AcDbEntity
  8
0
100
AcDbBlockEnd
  0
BLOCK
  5
2B33
330
2B32
100
AcDbEntity
  8
0
100
AcDbBlockBegin
  2
*D45
 70
     1
 10
0.0
 20
0.0
 30
0.0
  3
*D45
  1

  0
LINE
  5
16B8
330
2B32
100
AcDbEntity
  8
SIZE
 62
     0
100
AcDbLine
 10
-25512.51823276502
 20
7385.702971374808
 30
0.0
 11
-25362.37494828464
 21
7385.702971374808
 31
0.0
  0
LINE
  5
16B9
330
2B32
100
AcDbEntity
  8
SIZE
 62
     0
100
AcDbLine
 10
-25489.51823276501
 20
7685.702971374808
 30
0.0
 11
-25362.37494828464
 21
7685.702971374808
 31
0.0
  0
LINE
  5
16BA
330
2B32
100
AcDbEntity
  8
SIZE
 62
     0
100
AcDbLine
 10
-25382.37494828464
 20
7397.702971374808
 30
0.0
 11
-25382.37494828464
 21
7673.702971374808
 31
0.0
  0
INSERT
  5
16BB
330
2B32
100
AcDbEntity
  8
SIZE
 62
     0
100
AcDbBlockReference
  2
_DOTBLANK
 10
-25382.37494828464
 20
7385.702971374808
 30
0.0
 41
12.0
 42
12.0
 43
12.0
 50
270.0
  0
INSERT
  5
16BC
330
2B32
100
AcDbEntity
  8
SIZE
 62
     0
100
AcDbBlockReference
  2
_DOTBLANK
 10
-25382.37494828464
 20
7685.702971374808
 30
0.0
 41
12.0
 42
12.0
 43
12.0
 50
90.0
  0
INSERT
  5
16BD
330
2B32
100
AcDbEntity
  8
0
100
AcDbBlockReference
  2
*U46
 10
0.0
 20
0.0
 30
0.0
  0
POINT
  5
16BE
330
2B32
100
AcDbEntity
  8
DEFPOINTS
 62
     0
100
AcDbPoint
 10
-25532.51823276502
 20
7385.702971374808
 30
0.0
  0
POINT
  5
16BF
330
2B32
100
AcDbEntity
  8
DEFPOINTS
 62
     0
100
AcDbPoint
 10
-25509.51823276502
 20
7685.702971374808
 30
0.0
  0
POINT
  5
16C0
330
2B32
100
AcDbEntity
  8
DEFPOINTS
 62
     0
100
AcDbPoint
 10
-25382.37494828464
 20
7685.702971374808
 30
0.0
  0
ENDBLK
  5
16C1
330
2B32
100
AcDbEntity
  8
0
100
AcDbBlockEnd
  0
BLOCK
  5
2B35
330
2B34
100
AcDbEntity
  8
0
100
AcDbBlockBegin
  2
*U46
 70
     1
 10
0.0
 20
0.0
 30
0.0
  3
*U46
  1

  0
TEXT
  5
1F25
330
2B34
100
AcDbEntity
  8
SIZE
 62
     0
100
AcDbText
 10
-25392.37494828464
 20
7461.645828517662
 30
0.0
 40
64.0
  1
300
 50
90.0
 41
0.9
100
AcDbText
  0
ENDBLK
  5
1F27
330
2B34
100
AcDbEntity
  8
0
100
AcDbBlockEnd
  0
BLOCK
  5
2B37
330
2B36
100
AcDbEntity
  8
0
100
AcDbBlockBegin
  2
*D47
 70
     1
 10
0.0
 20
0.0
 30
0.0
  3
*D47
  1

  0
LINE
  5
16C4
330
2B36
100
AcDbEntity
  8
SIZE
 62
     0
100
AcDbLine
 10
-25807.01823276501
 20
7718.167454177002
 30
0.0
 11
-25807.01823276501
 21
7822.154659243358
 31
0.0
  0
LINE
  5
16C5
330
2B36
100
AcDbEntity
  8
SIZE
 62
     0
100
AcDbLine
 10
-25527.01823276501
 20
7718.167454177002
 30
0.0
 11
-25527.01823276501
 21
7822.154659243358
 31
0.0
  0
LINE
  5
16C6
330
2B36
100
AcDbEntity
  8
SIZE
 62
     0
100
AcDbLine
 10
-25795.01823276502
 20
7802.154659243358
 30
0.0
 11
-25539.01823276501
 21
7802.154659243358
 31
0.0
  0
INSERT
  5
16C7
330
2B36
100
AcDbEntity
  8
SIZE
 62
     0
100
AcDbBlockReference
  2
_DOTBLANK
 10
-25807.01823276501
 20
7802.154659243358
 30
0.0
 41
12.0
 42
12.0
 43
12.0
 50
180.0
  0
INSERT
  5
16C8
330
2B36
100
AcDbEntity
  8
SIZE
 62
     0
100
AcDbBlockReference
  2
_DOTBLANK
 10
-25527.01823276501
 20
7802.154659243358
 30
0.0
 41
12.0
 42
12.0
 43
12.0
  0
INSERT
  5
16C9
330
2B36
100
AcDbEntity
  8
0
100
AcDbBlockReference
  2
*U48
 10
0.0
 20
0.0
 30
0.0
  0
POINT
  5
16CA
330
2B36
100
AcDbEntity
  8
DEFPOINTS
 62
     0
100
AcDbPoint
 10
-25807.01823276501
 20
7698.167454177002
 30
0.0
  0
POINT
  5
16CB
330
2B36
100
AcDbEntity
  8
DEFPOINTS
 62
     0
100
AcDbPoint
 10
-25527.01823276501
 20
7698.167454177002
 30
0.0
  0
POINT
  5
16CC
330
2B36
100
AcDbEntity
  8
DEFPOINTS
 62
     0
100
AcDbPoint
 10
-25527.01823276501
 20
7802.154659243358
 30
0.0
  0
ENDBLK
  5
16CD
330
2B36
100
AcDbEntity
  8
0
100
AcDbBlockEnd
  0
BLOCK
  5
2B39
330
2B38
100
AcDbEntity
  8
0
100
AcDbBlockBegin
  2
*U48
 70
     1
 10
0.0
 20
0.0
 30
0.0
  3
*U48
  1

  0
TEXT
  5
1F29
330
2B38
100
AcDbEntity
  8
SIZE
 62
     0
100
AcDbText
 10
-25741.07537562216
 20
7812.154659243358
 30
0.0
 40
64.0
  1
280
 41
0.9
100
AcDbText
  0
ENDBLK
  5
1F2B
330
2B38
100
AcDbEntity
  8
0
100
AcDbBlockEnd
  0
BLOCK
  5
2B3B
330
2B3A
100
AcDbEntity
  8
0
100
AcDbBlockBegin
  2
*D49
 70
     1
 10
0.0
 20
0.0
 30
0.0
  3
*D49
  1

  0
LINE
  5
16D0
330
2B3A
100
AcDbEntity
  8
SIZE
 62
     0
100
AcDbLine
 10
-25824.51823276501
 20
7705.702971374808
 30
0.0
 11
-25824.51823276501
 21
7931.282433493766
 31
0.0
  0
LINE
  5
16D1
330
2B3A
100
AcDbEntity
  8
SIZE
 62
     0
100
AcDbLine
 10
-25509.51823276502
 20
7705.702971374808
 30
0.0
 11
-25509.51823276502
 21
7931.282433493766
 31
0.0
  0
LINE
  5
16D2
330
2B3A
100
AcDbEntity
  8
SIZE
 62
     0
100
AcDbLine
 10
-25812.51823276502
 20
7911.282433493766
 30
0.0
 11
-25521.51823276501
 21
7911.282433493766
 31
0.0
  0
INSERT
  5
16D3
330
2B3A
100
AcDbEntity
  8
SIZE
 62
     0
100
AcDbBlockReference
  2
_DOTBLANK
 10
-25824.51823276501
 20
7911.282433493766
 30
0.0
 41
12.0
 42
12.0
 43
12.0
 50
180.0
  0
INSERT
  5
16D4
330
2B3A
100
AcDbEntity
  8
SIZE
 62
     0
100
AcDbBlockReference
  2
_DOTBLANK
 10
-25509.51823276502
 20
7911.282433493766
 30
0.0
 41
12.0
 42
12.0
 43
12.0
  0
INSERT
  5
16D5
330
2B3A
100
AcDbEntity
  8
0
100
AcDbBlockReference
  2
*U50
 10
0.0
 20
0.0
 30
0.0
  0
POINT
  5
16D6
330
2B3A
100
AcDbEntity
  8
DEFPOINTS
 62
     0
100
AcDbPoint
 10
-25824.51823276501
 20
7685.702971374808
 30
0.0
  0
POINT
  5
16D7
330
2B3A
100
AcDbEntity
  8
DEFPOINTS
 62
     0
100
AcDbPoint
 10
-25509.51823276502
 20
7685.702971374808
 30
0.0
  0
POINT
  5
16D8
330
2B3A
100
AcDbEntity
  8
DEFPOINTS
 62
     0
100
AcDbPoint
 10
-25509.51823276502
 20
7911.282433493766
 30
0.0
  0
ENDBLK
  5
16D9
330
2B3A
100
AcDbEntity
  8
0
100
AcDbBlockEnd
  0
BLOCK
  5
2B3D
330
2B3C
100
AcDbEntity
  8
0
100
AcDbBlockBegin
  2
*U50
 70
     1
 10
0.0
 20
0.0
 30
0.0
  3
*U50
  1

  0
TEXT
  5
1F2D
330
2B3C
100
AcDbEntity
  8
SIZE
 62
     0
100
AcDbText
 10
-25735.58966133645
 20
7921.282433493766
 30
0.0
 40
64.0
  1
315
 41
0.9
100
AcDbText
  0
ENDBLK
  5
1F2F
330
2B3C
100
AcDbEntity
  8
0
100
AcDbBlockEnd
  0
BLOCK
  5
2B3F
330
2B3E
100
AcDbEntity
  8
0
100
AcDbBlockBegin
  2
*D51
 70
     1
 10
0.0
 20
0.0
 30
0.0
  3
*D51
  1

  0
LINE
  5
1D83
330
2B3E
100
AcDbEntity
  8
SIZE
 62
     0
100
AcDbLine
 10
-134.5
 20
-320.0
 30
0.0
 11
-134.5
 21
-468.0173952306001
 31
0.0
  0
LINE
  5
1D84
330
2B3E
100
AcDbEntity
  8
SIZE
 62
     0
100
AcDbLine
 10
134.5
 20
-320.0
 30
0.0
 11
134.5
 21
-468.0173952306001
 31
0.0
  0
LINE
  5
1D85
330
2B3E
100
AcDbEntity
  8
SIZE
 62
     0
100
AcDbLine
 10
-122.5
 20
-448.0173952306
 30
0.0
 11
122.5
 21
-448.0173952306
 31
0.0
  0
INSERT
  5
1D86
330
2B3E
100
AcDbEntity
  8
SIZE
 62
     0
100
AcDbBlockReference
  2
_DOTBLANK
 10
-134.5
 20
-448.0173952306
 30
0.0
 41
12.0
 42
12.0
 43
12.0
 50
180.0
  0
INSERT
  5
1D87
330
2B3E
100
AcDbEntity
  8
SIZE
 62
     0
100
AcDbBlockReference
  2
_DOTBLANK
 10
134.5
 20
-448.0173952306
 30
0.0
 41
12.0
 42
12.0
 43
12.0
  0
INSERT
  5
1D88
330
2B3E
100
AcDbEntity
  8
0
100
AcDbBlockReference
  2
*U52
 10
0.0
 20
0.0
 30
0.0
  0
POINT
  5
1D89
330
2B3E
100
AcDbEntity
  8
DEFPOINTS
 62
     0
100
AcDbPoint
 10
-134.5
 20
-300.0
 30
0.0
  0
POINT
  5
1D8A
330
2B3E
100
AcDbEntity
  8
DEFPOINTS
 62
     0
100
AcDbPoint
 10
134.5
 20
-300.0
 30
0.0
  0
POINT
  5
1D8B
330
2B3E
100
AcDbEntity
  8
DEFPOINTS
 62
     0
100
AcDbPoint
 10
134.5
 20
-448.0173952306
 30
0.0
  0
ENDBLK
  5
173D
330
2B3E
100
AcDbEntity
  8
0
100
AcDbBlockEnd
  0
BLOCK
  5
2B41
330
2B40
100
AcDbEntity
  8
0
100
AcDbBlockBegin
  2
*U52
 70
     1
 10
0.0
 20
0.0
 30
0.0
  3
*U52
  1

  0
TEXT
  5
1F31
330
2B40
100
AcDbEntity
  8
SIZE
 62
     0
100
AcDbText
 10
-72.68571428571426
 20
-438.0173952306003
 30
0.0
 40
64.0
  1
269
 41
0.9
100
AcDbText
  0
ENDBLK
  5
1F33
330
2B40
100
AcDbEntity
  8
0
100
AcDbBlockEnd
  0
BLOCK
  5
2B43
330
2B42
100
AcDbEntity
  8
0
100
AcDbBlockBegin
  2
*D53
 70
     1
 10
0.0
 20
0.0
 30
0.0
  3
*D53
  1

  0
LINE
  5
1D8C
330
2B42
100
AcDbEntity
  8
SIZE
 62
     0
100
AcDbLine
 10
154.5
 20
-300.0
 30
0.0
 11
304.6432844803784
 21
-300.0
 31
0.0
  0
LINE
  5
1D8D
330
2B42
100
AcDbEntity
  8
SIZE
 62
     0
100
AcDbLine
 10
177.5
 20
-0.0000000000000057
 30
0.0
 11
304.6432844803785
 21
-0.0000000000000417
 31
0.0
  0
LINE
  5
1D8E
330
2B42
100
AcDbEntity
  8
SIZE
 62
     0
100
AcDbLine
 10
284.6432844803784
 20
-288.0
 30
0.0
 11
284.6432844803785
 21
-12.00000000000003
 31
0.0
  0
INSERT
  5
1D8F
330
2B42
100
AcDbEntity
  8
SIZE
 62
     0
100
AcDbBlockReference
  2
_DOTBLANK
 10
284.6432844803784
 20
-300.0
 30
0.0
 41
12.0
 42
12.0
 43
12.0
 50
270.0
  0
INSERT
  5
1D90
330
2B42
100
AcDbEntity
  8
SIZE
 62
     0
100
AcDbBlockReference
  2
_DOTBLANK
 10
284.6432844803785
 20
-0.000000000000036
 30
0.0
 41
12.0
 42
12.0
 43
12.0
 50
90.0
  0
INSERT
  5
1D91
330
2B42
100
AcDbEntity
  8
0
100
AcDbBlockReference
  2
*U54
 10
0.0
 20
0.0
 30
0.0
  0
POINT
  5
1D92
330
2B42
100
AcDbEntity
  8
DEFPOINTS
 62
     0
100
AcDbPoint
 10
134.5
 20
-300.0
 30
0.0
  0
POINT
  5
1D93
330
2B42
100
AcDbEntity
  8
DEFPOINTS
 62
     0
100
AcDbPoint
 10
157.5
 20
0.0
 30
0.0
  0
POINT
  5
1D94
330
2B42
100
AcDbEntity
  8
DEFPOINTS
 62
     0
100
AcDbPoint
 10
284.6432844803785
 20
-0.000000000000036
 30
0.0
  0
ENDBLK
  5
1749
330
2B42
100
AcDbEntity
  8
0
100
AcDbBlockEnd
  0
BLOCK
  5
2B45
330
2B44
100
AcDbEntity
  8
0
100
AcDbBlockBegin
  2
*U54
 70
     1
 10
0.0
 20
0.0
 30
0.0
  3
*U54
  1

  0
TEXT
  5
1F35
330
2B44
100
AcDbEntity
  8
SIZE
 62
     0
100
AcDbText
 10
274.6432844803785
 20
-224.0571428571429
 30
0.0
 40
64.0
  1
300
 50
90.0
 41
0.9
100
AcDbText
  0
ENDBLK
  5
1F37
330
2B44
100
AcDbEntity
  8
0
100
AcDbBlockEnd
  0
BLOCK
  5
2B47
330
2B46
100
AcDbEntity
  8
0
100
AcDbBlockBegin
  2
*D55
 70
     1
 10
0.0
 20
0.0
 30
0.0
  3
*D55
  1

  0
LINE
  5
1D95
330
2B46
100
AcDbEntity
  8
SIZE
 62
     0
100
AcDbLine
 10
-140.0
 20
32.46448280219375
 30
0.0
 11
-140.0
 21
136.4516878685508
 31
0.0
  0
LINE
  5
1D96
330
2B46
100
AcDbEntity
  8
SIZE
 62
     0
100
AcDbLine
 10
140.0
 20
32.46448280219375
 30
0.0
 11
140.0
 21
136.4516878685508
 31
0.0
  0
LINE
  5
1D97
330
2B46
100
AcDbEntity
  8
SIZE
 62
     0
100
AcDbLine
 10
-128.0
 20
116.4516878685508
 30
0.0
 11
128.0
 21
116.4516878685508
 31
0.0
  0
INSERT
  5
1D98
330
2B46
100
AcDbEntity
  8
SIZE
 62
     0
100
AcDbBlockReference
  2
_DOTBLANK
 10
-140.0
 20
116.4516878685508
 30
0.0
 41
12.0
 42
12.0
 43
12.0
 50
180.0
  0
INSERT
  5
1D99
330
2B46
100
AcDbEntity
  8
SIZE
 62
     0
100
AcDbBlockReference
  2
_DOTBLANK
 10
140.0
 20
116.4516878685508
 30
0.0
 41
12.0
 42
12.0
 43
12.0
  0
INSERT
  5
1D9A
330
2B46
100
AcDbEntity
  8
0
100
AcDbBlockReference
  2
*U56
 10
0.0
 20
0.0
 30
0.0
  0
POINT
  5
1D9B
330
2B46
100
AcDbEntity
  8
DEFPOINTS
 62
     0
100
AcDbPoint
 10
-140.0
 20
12.46448280219374
 30
0.0
  0
POINT
  5
1D9C
330
2B46
100
AcDbEntity
  8
DEFPOINTS
 62
     0
100
AcDbPoint
 10
140.0
 20
12.46448280219374
 30
0.0
  0
POINT
  5
1D9D
330
2B46
100
AcDbEntity
  8
DEFPOINTS
 62
     0
100
AcDbPoint
 10
140.0
 20
116.4516878685508
 30
0.0
  0
ENDBLK
  5
1755
330
2B46
100
AcDbEntity
  8
0
100
AcDbBlockEnd
  0
BLOCK
  5
2B49
330
2B48
100
AcDbEntity
  8
0
100
AcDbBlockBegin
  2
*U56
 70
     1
 10
0.0
 20
0.0
 30
0.0
  3
*U56
  1

  0
TEXT
  5
1F39
330
2B48
100
AcDbEntity
  8
SIZE
 62
     0
100
AcDbText
 10
-74.05714285714283
 20
126.4516878685508
 30
0.0
 40
64.0
  1
280
 41
0.9
100
AcDbText
  0
ENDBLK
  5
1F3B
330
2B48
100
AcDbEntity
  8
0
100
AcDbBlockEnd
  0
BLOCK
  5
2B4B
330
2B4A
100
AcDbEntity
  8
0
100
AcDbBlockBegin
  2
*D57
 70
     1
 10
0.0
 20
0.0
 30
0.0
  3
*D57
  1

  0
LINE
  5
1D9E
330
2B4A
100
AcDbEntity
  8
SIZE
 62
     0
100
AcDbLine
 10
-157.5
 20
20.0
 30
0.0
 11
-157.5
 21
245.5794621189598
 31
0.0
  0
LINE
  5
1D9F
330
2B4A
100
AcDbEntity
  8
SIZE
 62
     0
100
AcDbLine
 10
157.5
 20
20.0
 30
0.0
 11
157.5
 21
245.5794621189598
 31
0.0
  0
LINE
  5
1DA0
330
2B4A
100
AcDbEntity
  8
SIZE
 62
     0
100
AcDbLine
 10
-145.5
 20
225.5794621189598
 30
0.0
 11
145.5
 21
225.5794621189598
 31
0.0
  0
INSERT
  5
1DA1
330
2B4A
100
AcDbEntity
  8
SIZE
 62
     0
100
AcDbBlockReference
  2
_DOTBLANK
 10
-157.5
 20
225.5794621189598
 30
0.0
 41
12.0
 42
12.0
 43
12.0
 50
180.0
  0
INSERT
  5
1DA2
330
2B4A
100
AcDbEntity
  8
SIZE
 62
     0
100
AcDbBlockReference
  2
_DOTBLANK
 10
157.5
 20
225.5794621189598
 30
0.0
 41
12.0
 42
12.0
 43
12.0
  0
INSERT
  5
1DA3
330
2B4A
100
AcDbEntity
  8
0
100
AcDbBlockReference
  2
*U58
 10
0.0
 20
0.0
 30
0.0
  0
POINT
  5
1DA4
330
2B4A
100
AcDbEntity
  8
DEFPOINTS
 62
     0
100
AcDbPoint
 10
-157.5
 20
0.0
 30
0.0
  0
POINT
  5
1DA5
330
2B4A
100
AcDbEntity
  8
DEFPOINTS
 62
     0
100
AcDbPoint
 10
157.5
 20
0.0
 30
0.0
  0
POINT
  5
1DA6
330
2B4A
100
AcDbEntity
  8
DEFPOINTS
 62
     0
100
AcDbPoint
 10
157.5
 20
225.5794621189598
 30
0.0
  0
ENDBLK
  5
1761
330
2B4A
100
AcDbEntity
  8
0
100
AcDbBlockEnd
  0
BLOCK
  5
2B4D
330
2B4C
100
AcDbEntity
  8
0
100
AcDbBlockBegin
  2
*U58
 70
     1
 10
0.0
 20
0.0
 30
0.0
  3
*U58
  1

  0
TEXT
  5
1F3D
330
2B4C
100
AcDbEntity
  8
SIZE
 62
     0
100
AcDbText
 10
-68.57142857142857
 20
235.5794621189599
 30
0.0
 40
64.0
  1
315
 41
0.9
100
AcDbText
  0
ENDBLK
  5
1F3F
330
2B4C
100
AcDbEntity
  8
0
100
AcDbBlockEnd
  0
BLOCK
  5
2B4F
330
2B4E
100
AcDbEntity
  8
0
100
AcDbBlockBegin
  2
*D59
 70
     1
 10
0.0
 20
0.0
 30
0.0
  3
*D59
  1

  0
LINE
  5
1DA7
330
2B4E
100
AcDbEntity
  8
SIZE
 62
     0
100
AcDbLine
 10
-177.5
 20
0.0000000000000057
 30
0.0
 11
-314.0264221186908
 21
0.0000000000000443
 31
0.0
  0
LINE
  5
1DA8
330
2B4E
100
AcDbEntity
  8
SIZE
 62
     0
100
AcDbLine
 10
-177.5
 20
-7.999999999999992
 30
0.0
 11
-314.0264221186908
 21
-7.999999999999957
 31
0.0
  0
LINE
  5
1DA9
330
2B4E
100
AcDbEntity
  8
SIZE
 62
     0
100
AcDbLine
 10
-294.0264221186908
 20
12.00000000000003
 30
0.0
 11
-294.0264221186908
 21
24.00000000000004
 31
0.0
  0
LINE
  5
1DAA
330
2B4E
100
AcDbEntity
  8
SIZE
 62
     0
100
AcDbLine
 10
-294.0264221186908
 20
-19.99999999999996
 30
0.0
 11
-294.0264221186908
 21
-90.39999999999997
 31
0.0
  0
INSERT
  5
1DAB
330
2B4E
100
AcDbEntity
  8
SIZE
 62
     0
100
AcDbBlockReference
  2
_DOTBLANK
 10
-294.0264221186908
 20
0.0000000000000387
 30
0.0
 41
12.0
 42
12.0
 43
12.0
 50
270.0
  0
INSERT
  5
1DAC
330
2B4E
100
AcDbEntity
  8
SIZE
 62
     0
100
AcDbBlockReference
  2
_DOTBLANK
 10
-294.0264221186908
 20
-7.999999999999959
 30
0.0
 41
12.0
 42
12.0
 43
12.0
 50
90.0
  0
INSERT
  5
1DAD
330
2B4E
100
AcDbEntity
  8
0
100
AcDbBlockReference
  2
*U60
 10
0.0
 20
0.0
 30
0.0
  0
POINT
  5
1DAE
330
2B4E
100
AcDbEntity
  8
DEFPOINTS
 62
     0
100
AcDbPoint
 10
-157.5
 20
0.0
 30
0.0
  0
POINT
  5
1DAF
330
2B4E
100
AcDbEntity
  8
DEFPOINTS
 62
     0
100
AcDbPoint
 10
-157.5
 20
-8.000000000000001
 30
0.0
  0
POINT
  5
1DB0
330
2B4E
100
AcDbEntity
  8
DEFPOINTS
 62
     0
100
AcDbPoint
 10
-294.0264221186908
 20
-7.999999999999959
 30
0.0
  0
ENDBLK
  5
176D
330
2B4E
100
AcDbEntity
  8
0
100
AcDbBlockEnd
  0
BLOCK
  5
2B51
330
2B50
100
AcDbEntity
  8
0
100
AcDbBlockBegin
  2
*U60
 70
     1
 10
0.0
 20
0.0
 30
0.0
  3
*U60
  1

  0
TEXT
  5
1F41
330
2B50
100
AcDbEntity
  8
SIZE
 62
     0
100
AcDbText
 10
-304.0264221186908
 20
-80.4
 30
0.0
 40
64.0
  1
8
 50
90.0
 41
0.9
100
AcDbText
  0
ENDBLK
  5
1F43
330
2B50
100
AcDbEntity
  8
0
100
AcDbBlockEnd
  0
BLOCK
  5
2B53
330
2B52
100
AcDbEntity
  8
0
100
AcDbBlockBegin
  2
*D61
 70
     1
 10
0.0
 20
0.0
 30
0.0
  3
*D61
  1

  0
LINE
  5
1DB1
330
2B52
100
AcDbEntity
  8
SIZE
 62
     0
100
AcDbLine
 10
154.5
 20
-300.0
 30
0.0
 11
304.6432844803785
 21
-300.0
 31
0.0
  0
LINE
  5
1DB2
330
2B52
100
AcDbEntity
  8
SIZE
 62
     0
100
AcDbLine
 10
143.5
 20
-312.0
 30
0.0
 11
304.6432844803785
 21
-312.0
 31
0.0
  0
LINE
  5
1DB3
330
2B52
100
AcDbEntity
  8
SIZE
 62
     0
100
AcDbLine
 10
284.6432844803785
 20
-288.0
 30
0.0
 11
284.6432844803785
 21
-276.0
 31
0.0
  0
LINE
  5
1DB4
330
2B52
100
AcDbEntity
  8
SIZE
 62
     0
100
AcDbLine
 10
284.6432844803785
 20
-324.0000000000001
 30
0.0
 11
284.6432844803784
 21
-438.2857142857143
 31
0.0
  0
INSERT
  5
1DB5
330
2B52
100
AcDbEntity
  8
SIZE
 62
     0
100
AcDbBlockReference
  2
_DOTBLANK
 10
284.6432844803785
 20
-300.0
 30
0.0
 41
12.0
 42
12.0
 43
12.0
 50
270.0
  0
INSERT
  5
1DB6
330
2B52
100
AcDbEntity
  8
SIZE
 62
     0
100
AcDbBlockReference
  2
_DOTBLANK
 10
284.6432844803785
 20
-312.0
 30
0.0
 41
12.0
 42
12.0
 43
12.0
 50
90.0
  0
INSERT
  5
1DB7
330
2B52
100
AcDbEntity
  8
0
100
AcDbBlockReference
  2
*U62
 10
0.0
 20
0.0
 30
0.0
  0
POINT
  5
1DB8
330
2B52
100
AcDbEntity
  8
DEFPOINTS
 62
     0
100
AcDbPoint
 10
134.5
 20
-300.0
 30
0.0
  0
POINT
  5
1DB9
330
2B52
100
AcDbEntity
  8
DEFPOINTS
 62
     0
100
AcDbPoint
 10
123.5
 20
-312.0
 30
0.0
  0
POINT
  5
1DBA
330
2B52
100
AcDbEntity
  8
DEFPOINTS
 62
     0
100
AcDbPoint
 10
284.6432844803785
 20
-312.0
 30
0.0
  0
ENDBLK
  5
177B
330
2B52
100
AcDbEntity
  8
0
100
AcDbBlockEnd
  0
BLOCK
  5
2B55
330
2B54
100
AcDbEntity
  8
0
100
AcDbBlockBegin
  2
*U62
 70
     1
 10
0.0
 20
0.0
 30
0.0
  3
*U62
  1

  0
TEXT
  5
1F45
330
2B54
100
AcDbEntity
  8
SIZE
 62
     0
100
AcDbText
 10
274.6432844803785
 20
-428.2857142857142
 30
0.0
 40
64.0
  1
12
 50
90.0
 41
0.9
100
AcDbText
  0
ENDBLK
  5
1F47
330
2B54
100
AcDbEntity
  8
0
100
AcDbBlockEnd
  0
BLOCK
  5
2B57
330
2B56
100
AcDbEntity
  8
0
100
AcDbBlockBegin
  2
*U63
 70
     1
 10
0.0
 20
0.0
 30
0.0
  3
*U63
  1

  0
ENDBLK
  5
1D57
330
2B56
100
AcDbEntity
  8
0
100
AcDbBlockEnd
  0
BLOCK
  5
2B59
330
2B58
100
AcDbEntity
  8
0
100
AcDbBlockBegin
  2
*U64
 70
     1
 10
0.0
 20
0.0
 30
0.0
  3
*U64
  1

  0
INSERT
  5
2088
330
2B58
100
AcDbEntity
  8
NOTE
100
AcDbBlockReference
  2
_OPEN30
 10
-140.0
 20
0.0
 30
0.0
 41
12.0
 42
12.0
 43
12.0
 50
312.6090116116894
  0
POLYLINE
  5
2089
330
2B58
100
AcDbEntity
  8
NOTE
100
AcDb2dPolyline
 66
     1
 10
0.0
 20
0.0
 30
0.0
  0
VERTEX
  5
2124
330
2089
100
AcDbEntity
  8
NOTE
100
AcDbVertex
100
AcDb2dVertex
 10
-148.1239008361894
 20
8.831887408915473
 30
0.0
  0
VERTEX
  5
2125
330
2089
100
AcDbEntity
  8
NOTE
100
AcDbVertex
100
AcDb2dVertex
 10
-227.8693999922543
 20
95.52709505801338
 30
0.0
  0
VERTEX
  5
2126
330
2089
100
AcDbEntity
  8
NOTE
100
AcDbVertex
100
AcDb2dVertex
 10
-773.7093999922541
 20
95.52709505801338
 30
0.0
  0
SEQEND
  5
2127
330
2089
100
AcDbEntity
  8
NOTE
  0
ENDBLK
  5
208A
330
2B58
100
AcDbEntity
  8
0
100
AcDbBlockEnd
  0
BLOCK
  5
2B5B
330
2B5A
100
AcDbEntity
  8
0
100
AcDbBlockBegin
  2
*U65
 70
     1
 10
0.0
 20
0.0
 30
0.0
  3
*U65
  1

  0
TEXT
  5
208D
330
2B5A
100
AcDbEntity
  8
NOTE
100
AcDbText
 10
-773.7093999922541
 20
113.5270950580134
 30
0.0
 40
64.0
  1
4×φ10取付穴
 41
0.9
100
AcDbText
  0
ENDBLK
  5
208E
330
2B5A
100
AcDbEntity
  8
0
100
AcDbBlockEnd
  0
BLOCK
  5
2B5D
330
2B5C
100
AcDbEntity
  8
0
100
AcDbBlockBegin
  2
*U66
 70
     1
 10
0.0
 20
0.0
 30
0.0
  3
*U66
  1

  0
INSERT
  5
25A0
330
2B5C
100
AcDbEntity
  8
NOTE
100
AcDbBlockReference
  2
_OPEN30
 10
-230.0
 20
0.0
 30
0.0
 41
12.0
 42
12.0
 43
12.0
 50
312.6090116116894
  0
POLYLINE
  5
25A1
330
2B5C
100
AcDbEntity
  8
NOTE
100
AcDb2dPolyline
 66
     1
 10
0.0
 20
0.0
 30
0.0
  0
VERTEX
  5
25A2
330
25A1
100
AcDbEntity
  8
NOTE
100
AcDbVertex
100
AcDb2dVertex
 10
-238.1239008361895
 20
8.831887408915473
 30
0.0
  0
VERTEX
  5
25A3
330
25A1
100
AcDbEntity
  8
NOTE
100
AcDbVertex
100
AcDb2dVertex
 10
-317.8693999922543
 20
95.52709505801338
 30
0.0
  0
VERTEX
  5
25A4
330
25A1
100
AcDbEntity
  8
NOTE
100
AcDbVertex
100
AcDb2dVertex
 10
-863.7093999922541
 20
95.52709505801338
 30
0.0
  0
SEQEND
  5
25A5
330
25A1
100
AcDbEntity
  8
NOTE
  0
ENDBLK
  5
25A6
330
2B5C
100
AcDbEntity
  8
0
100
AcDbBlockEnd
  0
BLOCK
  5
2B5F
330
2B5E
100
AcDbEntity
  8
0
100
AcDbBlockBegin
  2
*U67
 70
     1
 10
0.0
 20
0.0
 30
0.0
  3
*U67
  1

  0
TEXT
  5
25A9
330
2B5E
100
AcDbEntity
  8
NOTE
100
AcDbText
 10
-863.7093999922541
 20
113.5270950580134
 30
0.0
 40
64.0
  1
4×φ15取付穴
 41
0.9
100
AcDbText
  0
ENDBLK
  5
25AA
330
2B5E
100
AcDbEntity
  8
0
100
AcDbBlockEnd
  0
BLOCK
  5
2B61
330
2B60
100
AcDbEntity
  8
0
100
AcDbBlockBegin
  2
*U68
 70
     1
 10
0.0
 20
0.0
 30
0.0
  3
*U68
  1

  0
INSERT
  5
287C
330
2B60
100
AcDbEntity
  8
NOTE
100
AcDbBlockReference
  2
_OPEN30
 10
-230.0
 20
0.0
 30
0.0
 41
12.0
 42
12.0
 43
12.0
 50
312.6090116116894
  0
POLYLINE
  5
287D
330
2B60
100
AcDbEntity
  8
NOTE
100
AcDb2dPolyline
 66
     1
 10
0.0
 20
0.0
 30
0.0
  0
VERTEX
  5
287E
330
287D
100
AcDbEntity
  8
NOTE
100
AcDbVertex
100
AcDb2dVertex
 10
-238.1239008361895
 20
8.831887408915473
 30
0.0
  0
VERTEX
  5
287F
330
287D
100
AcDbEntity
  8
NOTE
100
AcDbVertex
100
AcDb2dVertex
 10
-317.8693999922543
 20
95.52709505801338
 30
0.0
  0
VERTEX
  5
2880
330
287D
100
AcDbEntity
  8
NOTE
100
AcDbVertex
100
AcDb2dVertex
 10
-863.7093999922541
 20
95.52709505801338
 30
0.0
  0
SEQEND
  5
2881
330
287D
100
AcDbEntity
  8
NOTE
  0
ENDBLK
  5
2882
330
2B60
100
AcDbEntity
  8
0
100
AcDbBlockEnd
  0
BLOCK
  5
2B63
330
2B62
100
AcDbEntity
  8
0
100
AcDbBlockBegin
  2
*U69
 70
     1
 10
0.0
 20
0.0
 30
0.0
  3
*U69
  1

  0
TEXT
  5
2885
330
2B62
100
AcDbEntity
  8
NOTE
100
AcDbText
 10
-863.7093999922541
 20
113.5270950580134
 30
0.0
 40
64.0
  1
4×φ15取付穴
 41
0.9
100
AcDbText
  0
ENDBLK
  5
2886
330
2B62
100
AcDbEntity
  8
0
100
AcDbBlockEnd
  0
BLOCK
  5
2B65
330
2B64
100
AcDbEntity
  8
0
100
AcDbBlockBegin
  2
*X70
 70
     1
 10
0.0
 20
0.0
 30
0.0
  3
*X70
  1

  0
LINE
  5
2889
330
2B64
100
AcDbEntity
  8
0
 62
     0
100
AcDbLine
 10
-200.3999999999978
 20
-419.5893329897326
 30
0.0
 11
-186.0975917360574
 21
-426.3999999999996
 31
0.0
  0
LINE
  5
288A
330
2B64
100
AcDbEntity
  8
0
 62
     0
100
AcDbLine
 10
-200.3999999999996
 20
-409.589381245597
 30
0.0
 11
-165.0976819990701
 21
-426.3999999999986
 31
0.0
  0
LINE
  5
288B
330
2B64
100
AcDbEntity
  8
0
 62
     0
100
AcDbLine
 10
-200.3999999999978
 20
-399.5894295014632
 30
0.0
 11
-144.097772262079
 21
-426.3999999999978
 31
0.0
  0
LINE
  5
288C
330
2B64
100
AcDbEntity
  8
0
 62
     0
100
AcDbLine
 10
-200.3999999999978
 20
-389.5894777573285
 30
0.0
 11
-123.0978625250864
 21
-426.3999999999978
 31
0.0
  0
LINE
  5
288D
330
2B64
100
AcDbEntity
  8
0
 62
     0
100
AcDbLine
 10
-200.4000000000015
 20
-379.5895260131946
 30
0.0
 11
-102.0979527880972
 21
-426.3999999999996
 31
0.0
  0
LINE
  5
288E
330
2B64
100
AcDbEntity
  8
0
 62
     0
100
AcDbLine
 10
-200.3999999999996
 20
-369.5895742690609
 30
0.0
 11
-81.09804305110626
 21
-426.3999999999996
 31
0.0
  0
LINE
  5
288F
330
2B64
100
AcDbEntity
  8
0
 62
     0
100
AcDbLine
 10
-200.3999999999996
 20
-359.5896225249252
 30
0.0
 11
-60.09813331411351
 21
-426.3999999999996
 31
0.0
  0
LINE
  5
2890
330
2B64
100
AcDbEntity
  8
0
 62
     0
100
AcDbLine
 10
-200.3999999999996
 20
-349.5896707807915
 30
0.0
 11
-39.09822357712437
 21
-426.3999999999996
 31
0.0
  0
LINE
  5
2891
330
2B64
100
AcDbEntity
  8
0
 62
     0
100
AcDbLine
 10
-200.3999999999996
 20
-339.5897190366559
 30
0.0
 11
-18.09831384013158
 21
-426.3999999999996
 31
0.0
  0
LINE
  5
2892
330
2B64
100
AcDbEntity
  8
0
 62
     0
100
AcDbLine
 10
-200.3999999999978
 20
-329.5897672925239
 30
0.0
 11
2.901595896859359
 21
-426.4000000000014
 31
0.0
  0
LINE
  5
2893
330
2B64
100
AcDbEntity
  8
0
 62
     0
100
AcDbLine
 10
-200.4000000000015
 20
-319.5898155483882
 30
0.0
 11
23.9015056338485
 21
-426.4000000000005
 31
0.0
  0
LINE
  5
2894
330
2B64
100
AcDbEntity
  8
0
 62
     0
100
AcDbLine
 10
-200.3999999999978
 20
-309.5898638042545
 30
0.0
 11
44.90141537083764
 21
-426.3999999999996
 31
0.0
  0
LINE
  5
2895
330
2B64
100
AcDbEntity
  8
0
 62
     0
100
AcDbLine
 10
-200.3999999999996
 20
-299.5899120601189
 30
0.0
 11
65.90132510783042
 21
-426.3999999999996
 31
0.0
  0
LINE
  5
2896
330
2B64
100
AcDbEntity
  8
0
 62
     0
100
AcDbLine
 10
-200.4000000000015
 20
-289.5899603159833
 30
0.0
 11
86.90123484481954
 21
-426.3999999999986
 31
0.0
  0
LINE
  5
2897
330
2B64
100
AcDbEntity
  8
0
 62
     0
100
AcDbLine
 10
-200.3999999999978
 20
-279.5900085718513
 30
0.0
 11
107.9011445818123
 21
-426.4000000000005
 31
0.0
  0
LINE
  5
2898
330
2B64
100
AcDbEntity
  8
0
 62
     0
100
AcDbLine
 10
-200.4000000000015
 20
-269.5900568277157
 30
0.0
 11
128.9010543188032
 21
-426.4000000000005
 31
0.0
  0
LINE
  5
2899
330
2B64
100
AcDbEntity
  8
0
 62
     0
100
AcDbLine
 10
-200.3999999999978
 20
-259.590105083582
 30
0.0
 11
149.9009640557942
 21
-426.4000000000005
 31
0.0
  0
LINE
  5
289A
330
2B64
100
AcDbEntity
  8
0
 62
     0
100
AcDbLine
 10
-200.3999999999996
 20
-249.5901533394463
 30
0.0
 11
170.900873792787
 21
-426.4000000000005
 31
0.0
  0
LINE
  5
289B
330
2B64
100
AcDbEntity
  8
0
 62
     0
100
AcDbLine
 10
-200.3999999999978
 20
-239.5902015953125
 30
0.0
 11
191.9007835297762
 21
-426.4000000000005
 31
0.0
  0
LINE
  5
289C
330
2B64
100
AcDbEntity
  8
0
 62
     0
100
AcDbLine
 10
-200.3999999999996
 20
-229.5902498511769
 30
0.0
 11
200.3999999999978
 21
-420.4472920597488
 31
0.0
  0
LINE
  5
289D
330
2B64
100
AcDbEntity
  8
0
 62
     0
100
AcDbLine
 10
-200.3999999999978
 20
-219.5902981070449
 30
0.0
 11
200.3999999999996
 21
-410.4473403156172
 31
0.0
  0
LINE
  5
289E
330
2B64
100
AcDbEntity
  8
0
 62
     0
100
AcDbLine
 10
-200.3999999999996
 20
-209.5903463629093
 30
0.0
 11
200.399999999996
 21
-400.4473885714815
 31
0.0
  0
LINE
  5
289F
330
2B64
100
AcDbEntity
  8
0
 62
     0
100
AcDbLine
 10
-200.4000000000015
 20
-199.5903946187745
 30
0.0
 11
200.3999999999996
 21
-390.4474368273477
 31
0.0
  0
LINE
  5
28A0
330
2B64
100
AcDbEntity
  8
0
 62
     0
100
AcDbLine
 10
-200.3999999999978
 20
-189.5904428746397
 30
0.0
 11
200.3999999999978
 21
-380.4474850832129
 31
0.0
  0
LINE
  5
28A1
330
2B64
100
AcDbEntity
  8
0
 62
     0
100
AcDbLine
 10
-200.4000000000015
 20
-179.5904911305051
 30
0.0
 11
200.3999999999996
 21
-370.4475333390783
 31
0.0
  0
LINE
  5
28A2
330
2B64
100
AcDbEntity
  8
0
 62
     0
100
AcDbLine
 10
-200.3999999999996
 20
-169.5905393863722
 30
0.0
 11
200.3999999999978
 21
-360.4475815949454
 31
0.0
  0
LINE
  5
28A3
330
2B64
100
AcDbEntity
  8
0
 62
     0
100
AcDbLine
 10
-15.40000000000145
 20
-247.6857792804258
 30
0.0
 11
-7.60013237562998
 21
-251.4000000000014
 31
0.0
  0
LINE
  5
28A4
330
2B64
100
AcDbEntity
  8
0
 62
     0
100
AcDbLine
 10
-7.60013237562998
 20
-251.4000000000014
 30
0.0
 11
200.3999999999996
 21
-350.4476298508107
 31
0.0
  0
LINE
  5
28A5
330
2B64
100
AcDbEntity
  8
0
 62
     0
100
AcDbLine
 10
-200.3999999999996
 20
-159.5905876422374
 30
0.0
 11
-15.40000000000145
 21
-247.6857792804258
 31
0.0
  0
LINE
  5
28A6
330
2B64
100
AcDbEntity
  8
0
 62
     0
100
AcDbLine
 10
-15.40000000000327
 20
-237.6858275362902
 30
0.0
 11
13.39977736135734
 21
-251.3999999999996
 31
0.0
  0
LINE
  5
28A7
330
2B64
100
AcDbEntity
  8
0
 62
     0
100
AcDbLine
 10
13.39977736135734
 20
-251.3999999999996
 30
0.0
 11
200.3999999999978
 21
-340.447678106676
 31
0.0
  0
LINE
  5
28A8
330
2B64
100
AcDbEntity
  8
0
 62
     0
100
AcDbLine
 10
-200.3999999999996
 20
-149.5906358981037
 30
0.0
 11
-15.40000000000327
 21
-237.6858275362902
 31
0.0
  0
LINE
  5
28A9
330
2B64
100
AcDbEntity
  8
0
 62
     0
100
AcDbLine
 10
-15.40000000000327
 20
-227.6858757921544
 30
0.0
 11
34.39968709835012
 21
-251.3999999999996
 31
0.0
  0
LINE
  5
28AA
330
2B64
100
AcDbEntity
  8
0
 62
     0
100
AcDbLine
 10
34.39968709835012
 20
-251.3999999999996
 30
0.0
 11
200.4000000000015
 21
-330.4477263625422
 31
0.0
  0
LINE
  5
28AB
330
2B64
100
AcDbEntity
  8
0
 62
     0
100
AcDbLine
 10
-200.3999999999978
 20
-139.5906841539681
 30
0.0
 11
-15.40000000000327
 21
-227.6858757921544
 31
0.0
  0
LINE
  5
28AC
330
2B64
100
AcDbEntity
  8
0
 62
     0
100
AcDbLine
 10
-15.40000000000145
 20
-217.6859240480208
 30
0.0
 11
55.39959683534107
 21
-251.3999999999996
 31
0.0
  0
LINE
  5
28AD
330
2B64
100
AcDbEntity
  8
0
 62
     0
100
AcDbLine
 10
55.39959683534107
 20
-251.3999999999996
 30
0.0
 11
200.3999999999996
 21
-320.4477746184066
 31
0.0
  0
LINE
  5
28AE
330
2B64
100
AcDbEntity
  8
0
 62
     0
100
AcDbLine
 10
-200.4000000000015
 20
-129.5907324098325
 30
0.0
 11
-15.40000000000145
 21
-217.6859240480208
 31
0.0
  0
LINE
  5
28AF
330
2B64
100
AcDbEntity
  8
0
 62
     0
100
AcDbLine
 10
-15.40000000000509
 20
-207.6859723038869
 30
0.0
 11
76.39950657233021
 21
-251.4000000000014
 31
0.0
  0
LINE
  5
28B0
330
2B64
100
AcDbEntity
  8
0
 62
     0
100
AcDbLine
 10
76.39950657233021
 20
-251.4000000000014
 30
0.0
 11
200.399999999996
 21
-310.4478228742728
 31
0.0
  0
LINE
  5
28B1
330
2B64
100
AcDbEntity
  8
0
 62
     0
100
AcDbLine
 10
-200.4000000000015
 20
-119.5907806657005
 30
0.0
 11
-15.40000000000509
 21
-207.6859723038869
 31
0.0
  0
LINE
  5
28B2
330
2B64
100
AcDbEntity
  8
0
 62
     0
100
AcDbLine
 10
-15.40000000000145
 20
-197.6860205597531
 30
0.0
 11
97.39941630932479
 21
-251.4000000000014
 31
0.0
  0
LINE
  5
28B3
330
2B64
100
AcDbEntity
  8
0
 62
     0
100
AcDbLine
 10
97.39941630932479
 20
-251.4000000000014
 30
0.0
 11
200.3999999999996
 21
-300.4478711301389
 31
0.0
  0
LINE
  5
28B4
330
2B64
100
AcDbEntity
  8
0
 62
     0
100
AcDbLine
 10
-200.3999999999996
 20
-109.5908289215649
 30
0.0
 11
-15.40000000000145
 21
-197.6860205597531
 31
0.0
  0
LINE
  5
28B5
330
2B64
100
AcDbEntity
  8
0
 62
     0
100
AcDbLine
 10
-15.40000000000327
 20
-187.6860688156175
 30
0.0
 11
118.3993260463139
 21
-251.4000000000014
 31
0.0
  0
LINE
  5
28B6
330
2B64
100
AcDbEntity
  8
0
 62
     0
100
AcDbLine
 10
118.3993260463139
 20
-251.4000000000014
 30
0.0
 11
200.3999999999978
 21
-290.4479193860034
 31
0.0
  0
LINE
  5
28B7
330
2B64
100
AcDbEntity
  8
0
 62
     0
100
AcDbLine
 10
-200.3999999999996
 20
-99.59087717743114
 30
0.0
 11
-15.40000000000327
 21
-187.6860688156175
 31
0.0
  0
LINE
  5
28B8
330
2B64
100
AcDbEntity
  8
0
 62
     0
100
AcDbLine
 10
-15.40000000000145
 20
-177.6861170714837
 30
0.0
 11
139.3992357833049
 21
-251.4000000000006
 31
0.0
  0
LINE
  5
28B9
330
2B64
100
AcDbEntity
  8
0
 62
     0
100
AcDbLine
 10
139.3992357833049
 20
-251.4000000000006
 30
0.0
 11
200.3999999999996
 21
-280.4479676418696
 31
0.0
  0
LINE
  5
28BA
330
2B64
100
AcDbEntity
  8
0
 62
     0
100
AcDbLine
 10
-200.3999999999996
 20
-89.59092543329552
 30
0.0
 11
-15.40000000000145
 21
-177.6861170714837
 31
0.0
  0
LINE
  5
28BB
330
2B64
100
AcDbEntity
  8
0
 62
     0
100
AcDbLine
 10
-15.40000000000145
 20
-167.6861653273481
 30
0.0
 11
160.3991455202977
 21
-251.4000000000006
 31
0.0
  0
LINE
  5
28BC
330
2B64
100
AcDbEntity
  8
0
 62
     0
100
AcDbLine
 10
160.3991455202977
 20
-251.4000000000006
 30
0.0
 11
200.3999999999996
 21
-270.4480158977339
 31
0.0
  0
LINE
  5
28BD
330
2B64
100
AcDbEntity
  8
0
 62
     0
100
AcDbLine
 10
-200.3999999999978
 20
-79.59097368916173
 30
0.0
 11
-15.40000000000145
 21
-167.6861653273481
 31
0.0
  0
LINE
  5
28BE
330
2B64
100
AcDbEntity
  8
0
 62
     0
100
AcDbLine
 10
-15.40000000000145
 20
-157.6862135832143
 30
0.0
 11
181.3990552572832
 21
-251.3999999999987
 31
0.0
  0
LINE
  5
28BF
330
2B64
100
AcDbEntity
  8
0
 62
     0
100
AcDbLine
 10
181.3990552572832
 20
-251.3999999999987
 30
0.0
 11
200.3999999999996
 21
-260.4480641536002
 31
0.0
  0
LINE
  5
28C0
330
2B64
100
AcDbEntity
  8
0
 62
     0
100
AcDbLine
 10
-200.3999999999996
 20
-69.59102194502611
 30
0.0
 11
-15.40000000000509
 21
-157.6862135832134
 31
0.0
  0
LINE
  5
28C1
330
2B64
100
AcDbEntity
  8
0
 62
     0
100
AcDbLine
 10
-15.39999999999963
 20
-147.6862618390823
 30
0.0
 11
200.3999999999978
 21
-250.4481124094664
 31
0.0
  0
LINE
  5
28C2
330
2B64
100
AcDbEntity
  8
0
 62
     0
100
AcDbLine
 10
-200.3999999999978
 20
-59.59107020089414
 30
0.0
 11
-15.40000000000327
 21
-147.6862618390814
 31
0.0
  0
LINE
  5
28C3
330
2B64
100
AcDbEntity
  8
0
 62
     0
100
AcDbLine
 10
-15.399999999996
 20
-137.6863100949485
 30
0.0
 11
200.4000000000015
 21
-240.4481606653326
 31
0.0
  0
LINE
  5
28C4
330
2B64
100
AcDbEntity
  8
0
 62
     0
100
AcDbLine
 10
-183.5813398898643
 20
-57.60000000000128
 30
0.0
 11
-15.40000000000327
 21
-137.6863100949458
 31
0.0
  0
LINE
  5
28C5
330
2B64
100
AcDbEntity
  8
0
 62
     0
100
AcDbLine
 10
-15.39999999999963
 20
-127.6863583508129
 30
0.0
 11
200.3999999999978
 21
-230.4482089211969
 31
0.0
  0
LINE
  5
28C6
330
2B64
100
AcDbEntity
  8
0
 62
     0
100
AcDbLine
 10
-162.5814301528735
 20
-57.60000000000128
 30
0.0
 11
-15.40000000000327
 21
-127.686358350812
 31
0.0
  0
LINE
  5
28C7
330
2B64
100
AcDbEntity
  8
0
 62
     0
100
AcDbLine
 10
-15.40000000000145
 20
-117.6864066066773
 30
0.0
 11
200.3999999999978
 21
-220.4482571770614
 31
0.0
  0
LINE
  5
28C8
330
2B64
100
AcDbEntity
  8
0
 62
     0
100
AcDbLine
 10
-141.5815204158825
 20
-57.60000000000128
 30
0.0
 11
-15.40000000000327
 21
-117.6864066066764
 31
0.0
  0
LINE
  5
28C9
330
2B64
100
AcDbEntity
  8
0
 62
     0
100
AcDbLine
 10
-15.39999999999781
 20
-107.6864548625435
 30
0.0
 11
200.3999999999996
 21
-210.4483054329275
 31
0.0
  0
LINE
  5
28CA
330
2B64
100
AcDbEntity
  8
0
 62
     0
100
AcDbLine
 10
-120.5816106788916
 20
-57.60000000000128
 30
0.0
 11
-15.40000000000145
 21
-107.6864548625426
 31
0.0
  0
LINE
  5
28CB
330
2B64
100
AcDbEntity
  8
0
 62
     0
100
AcDbLine
 10
-15.40000000000145
 20
-97.68650311841064
 30
0.0
 11
200.3999999999978
 21
-200.4483536887939
 31
0.0
  0
LINE
  5
28CC
330
2B64
100
AcDbEntity
  8
0
 62
     0
100
AcDbLine
 10
-99.58170094190064
 20
-57.60000000000309
 30
0.0
 11
-15.40000000000509
 21
-97.68650311840886
 31
0.0
  0
LINE
  5
28CD
330
2B64
100
AcDbEntity
  8
0
 62
     0
100
AcDbLine
 10
-15.39999999999781
 20
-87.68655137427595
 30
0.0
 11
200.3999999999996
 21
-190.4484019446599
 31
0.0
  0
LINE
  5
28CE
330
2B64
100
AcDbEntity
  8
0
 62
     0
100
AcDbLine
 10
-78.58179120490966
 20
-57.60000000000218
 30
0.0
 11
-15.40000000000145
 21
-87.68655137427506
 31
0.0
  0
LINE
  5
28CF
330
2B64
100
AcDbEntity
  8
0
 62
     0
100
AcDbLine
 10
-15.39999999999963
 20
-77.68659963014123
 30
0.0
 11
200.3999999999978
 21
-180.4484502005243
 31
0.0
  0
LINE
  5
28D0
330
2B64
100
AcDbEntity
  8
0
 62
     0
100
AcDbLine
 10
-57.5818814679169
 20
-57.60000000000218
 30
0.0
 11
-15.40000000000327
 21
-77.68659963013941
 31
0.0
  0
LINE
  5
28D1
330
2B64
100
AcDbEntity
  8
0
 62
     0
100
AcDbLine
 10
-15.39999999999963
 20
-67.68664788600744
 30
0.0
 11
200.3999999999996
 21
-170.4484984563905
 31
0.0
  0
LINE
  5
28D2
330
2B64
100
AcDbEntity
  8
0
 62
     0
100
AcDbLine
 10
-36.58197173093139
 20
-57.60000000000037
 30
0.0
 11
-15.40000000000509
 21
-67.68664788600381
 31
0.0
  0
LINE
  5
28D3
330
2B64
100
AcDbEntity
  8
0
 62
     0
100
AcDbLine
 10
-15.39999999999781
 20
-57.68669614187182
 30
0.0
 11
200.3999999999996
 21
-160.4485467122549
 31
0.0
  0
LINE
  5
28D4
330
2B64
100
AcDbEntity
  8
0
 62
     0
100
AcDbLine
 10
-15.5820619939368
 20
-57.60000000000037
 30
0.0
 11
-15.40000000000145
 21
-57.68669614187001
 31
0.0
  0
LINE
  5
28D5
330
2B64
100
AcDbEntity
  8
0
 62
     0
100
AcDbLine
 10
5.417847743052333
 20
-57.60000000000037
 30
0.0
 11
200.3999999999996
 21
-150.4485949681211
 31
0.0
  0
LINE
  5
28D6
330
2B64
100
AcDbEntity
  8
0
 62
     0
100
AcDbLine
 10
26.41775748003965
 20
-57.60000000000037
 30
0.0
 11
200.3999999999978
 21
-140.4486432239882
 31
0.0
  0
LINE
  5
28D7
330
2B64
100
AcDbEntity
  8
0
 62
     0
100
AcDbLine
 10
47.41766721703243
 20
-57.60000000000037
 30
0.0
 11
200.3999999999978
 21
-130.4486914798526
 31
0.0
  0
LINE
  5
28D8
330
2B64
100
AcDbEntity
  8
0
 62
     0
100
AcDbLine
 10
68.41757695402337
 20
-57.60000000000037
 30
0.0
 11
200.3999999999996
 21
-120.4487397357188
 31
0.0
  0
LINE
  5
28D9
330
2B64
100
AcDbEntity
  8
0
 62
     0
100
AcDbLine
 10
89.41748669101434
 20
-57.60000000000037
 30
0.0
 11
200.3999999999978
 21
-110.4487879915832
 31
0.0
  0
LINE
  5
28DA
330
2B64
100
AcDbEntity
  8
0
 62
     0
100
AcDbLine
 10
110.4173964280053
 20
-57.60000000000037
 30
0.0
 11
200.3999999999996
 21
-100.4488362474494
 31
0.0
  0
LINE
  5
28DB
330
2B64
100
AcDbEntity
  8
0
 62
     0
100
AcDbLine
 10
131.4173061649962
 20
-57.60000000000218
 30
0.0
 11
200.3999999999978
 21
-90.44888450331564
 31
0.0
  0
LINE
  5
28DC
330
2B64
100
AcDbEntity
  8
0
 62
     0
100
AcDbLine
 10
152.4172159019872
 20
-57.60000000000218
 30
0.0
 11
200.3999999999996
 21
-80.44893275918184
 31
0.0
  0
LINE
  5
28DD
330
2B64
100
AcDbEntity
  8
0
 62
     0
100
AcDbLine
 10
173.41712563898
 20
-57.60000000000218
 30
0.0
 11
200.3999999999996
 21
-70.44898101504623
 31
0.0
  0
LINE
  5
28DE
330
2B64
100
AcDbEntity
  8
0
 62
     0
100
AcDbLine
 10
194.4170353759691
 20
-57.60000000000128
 30
0.0
 11
200.3999999999996
 21
-60.44902927091243
 31
0.0
  0
ENDBLK
  5
28DF
330
2B64
100
AcDbEntity
  8
0
100
AcDbBlockEnd
  0
BLOCK
  5
2B67
330
2B66
100
AcDbEntity
  8
0
100
AcDbBlockBegin
  2
*X71
 70
     1
 10
0.0
 20
0.0
 30
0.0
  3
*X71
  1

  0
LINE
  5
28E2
330
2B66
100
AcDbEntity
  8
0
 62
     0
100
AcDbLine
 10
191.45749784902
 20
-426.4000000000005
 30
0.0
 11
200.4000000000015
 21
-422.1416678880238
 31
0.0
  0
LINE
  5
28E3
330
2B66
100
AcDbEntity
  8
0
 62
     0
100
AcDbLine
 10
170.4575881120254
 20
-426.4000000000005
 30
0.0
 11
200.4000000000015
 21
-412.1417161438883
 31
0.0
  0
LINE
  5
28E4
330
2B66
100
AcDbEntity
  8
0
 62
     0
100
AcDbLine
 10
149.4576783750381
 20
-426.4000000000005
 30
0.0
 11
200.4000000000051
 21
-402.1417643997526
 31
0.0
  0
LINE
  5
28E5
330
2B66
100
AcDbEntity
  8
0
 62
     0
100
AcDbLine
 10
128.457768638047
 20
-426.4000000000014
 30
0.0
 11
200.4000000000051
 21
-392.14181265562
 31
0.0
  0
LINE
  5
28E6
330
2B66
100
AcDbEntity
  8
0
 62
     0
100
AcDbLine
 10
107.4578589010525
 20
-426.4000000000014
 30
0.0
 11
200.4000000000015
 21
-382.1418609114844
 31
0.0
  0
LINE
  5
28E7
330
2B66
100
AcDbEntity
  8
0
 62
     0
100
AcDbLine
 10
86.45794916406519
 20
-426.4000000000014
 30
0.0
 11
200.4000000000015
 21
-372.1419091673506
 31
0.0
  0
LINE
  5
28E8
330
2B66
100
AcDbEntity
  8
0
 62
     0
100
AcDbLine
 10
65.45803942707426
 20
-426.4000000000023
 30
0.0
 11
200.4000000000051
 21
-362.1419574232159
 31
0.0
  0
LINE
  5
28E9
330
2B66
100
AcDbEntity
  8
0
 62
     0
100
AcDbLine
 10
44.45812969007966
 20
-426.4000000000014
 30
0.0
 11
200.4000000000015
 21
-352.1420056790821
 31
0.0
  0
LINE
  5
28EA
330
2B66
100
AcDbEntity
  8
0
 62
     0
100
AcDbLine
 10
23.4582199530887
 20
-426.4000000000023
 30
0.0
 11
200.4000000000051
 21
-342.1420539349472
 31
0.0
  0
LINE
  5
28EB
330
2B66
100
AcDbEntity
  8
0
 62
     0
100
AcDbLine
 10
2.458310216097741
 20
-426.4000000000023
 30
0.0
 11
200.4000000000015
 21
-332.1421021908137
 31
0.0
  0
LINE
  5
28EC
330
2B66
100
AcDbEntity
  8
0
 62
     0
100
AcDbLine
 10
-18.54159952088958
 20
-426.4000000000005
 30
0.0
 11
200.4000000000015
 21
-322.1421504466789
 31
0.0
  0
LINE
  5
28ED
330
2B66
100
AcDbEntity
  8
0
 62
     0
100
AcDbLine
 10
-39.54150925788054
 20
-426.4000000000014
 30
0.0
 11
200.4000000000051
 21
-312.1421987025442
 31
0.0
  0
LINE
  5
28EE
330
2B66
100
AcDbEntity
  8
0
 62
     0
100
AcDbLine
 10
-60.54141899486785
 20
-426.4000000000014
 30
0.0
 11
200.4000000000051
 21
-302.1422469584104
 31
0.0
  0
LINE
  5
28EF
330
2B66
100
AcDbEntity
  8
0
 62
     0
100
AcDbLine
 10
-81.54132873185881
 20
-426.3999999999996
 30
0.0
 11
200.4000000000051
 21
-292.1422952142748
 31
0.0
  0
LINE
  5
28F0
330
2B66
100
AcDbEntity
  8
0
 62
     0
100
AcDbLine
 10
-102.5412384688497
 20
-426.4000000000005
 30
0.0
 11
200.4000000000015
 21
-282.1423434701419
 31
0.0
  0
LINE
  5
28F1
330
2B66
100
AcDbEntity
  8
0
 62
     0
100
AcDbLine
 10
-123.5411482058443
 20
-426.4000000000005
 30
0.0
 11
200.4000000000015
 21
-272.1423917260064
 31
0.0
  0
LINE
  5
28F2
330
2B66
100
AcDbEntity
  8
0
 62
     0
100
AcDbLine
 10
-144.5410579428317
 20
-426.4000000000014
 30
0.0
 11
200.4000000000015
 21
-262.1424399818733
 31
0.0
  0
LINE
  5
28F3
330
2B66
100
AcDbEntity
  8
0
 62
     0
100
AcDbLine
 10
-165.5409676798226
 20
-426.4000000000014
 30
0.0
 11
200.4000000000051
 21
-252.1424882377378
 31
0.0
  0
LINE
  5
28F4
330
2B66
100
AcDbEntity
  8
0
 62
     0
100
AcDbLine
 10
180.9593163845202
 20
-251.3999999999996
 30
0.0
 11
200.4000000000051
 21
-242.1425364936022
 31
0.0
  0
LINE
  5
28F5
330
2B66
100
AcDbEntity
  8
0
 62
     0
100
AcDbLine
 10
-186.5408774168171
 20
-426.4000000000014
 30
0.0
 11
180.9593163845202
 21
-251.3999999999996
 31
0.0
  0
LINE
  5
28F6
330
2B66
100
AcDbEntity
  8
0
 62
     0
100
AcDbLine
 10
159.9594066475292
 20
-251.4000000000006
 30
0.0
 11
200.4000000000015
 21
-232.1425847494693
 31
0.0
  0
LINE
  5
28F7
330
2B66
100
AcDbEntity
  8
0
 62
     0
100
AcDbLine
 10
-200.3999999999942
 20
-422.9996269580415
 30
0.0
 11
159.9594066475292
 21
-251.4000000000006
 31
0.0
  0
LINE
  5
28F8
330
2B66
100
AcDbEntity
  8
0
 62
     0
100
AcDbLine
 10
138.9594969105382
 20
-251.4000000000006
 30
0.0
 11
200.4000000000051
 21
-222.1426330053337
 31
0.0
  0
LINE
  5
28F9
330
2B66
100
AcDbEntity
  8
0
 62
     0
100
AcDbLine
 10
-200.3999999999904
 20
-412.9996752139057
 30
0.0
 11
138.9594969105382
 21
-251.4000000000006
 31
0.0
  0
LINE
  5
28FA
330
2B66
100
AcDbEntity
  8
0
 62
     0
100
AcDbLine
 10
117.9595871735473
 20
-251.3999999999996
 30
0.0
 11
200.4000000000015
 21
-212.1426812611999
 31
0.0
  0
LINE
  5
28FB
330
2B66
100
AcDbEntity
  8
0
 62
     0
100
AcDbLine
 10
-200.3999999999904
 20
-402.9997234697701
 30
0.0
 11
117.9595871735473
 21
-251.3999999999996
 31
0.0
  0
LINE
  5
28FC
330
2B66
100
AcDbEntity
  8
0
 62
     0
100
AcDbLine
 10
96.95967743655636
 20
-251.4000000000006
 30
0.0
 11
200.4000000000051
 21
-202.1427295170652
 31
0.0
  0
LINE
  5
28FD
330
2B66
100
AcDbEntity
  8
0
 62
     0
100
AcDbLine
 10
-200.3999999999904
 20
-392.9997717256373
 30
0.0
 11
96.95967743655636
 21
-251.4000000000006
 31
0.0
  0
LINE
  5
28FE
330
2B66
100
AcDbEntity
  8
0
 62
     0
100
AcDbLine
 10
75.9597676995654
 20
-251.4000000000006
 30
0.0
 11
200.4000000000051
 21
-192.1427777729313
 31
0.0
  0
LINE
  5
28FF
330
2B66
100
AcDbEntity
  8
0
 62
     0
100
AcDbLine
 10
-200.3999999999904
 20
-382.9998199815019
 30
0.0
 11
75.9597676995654
 21
-251.4000000000006
 31
0.0
  0
LINE
  5
2900
330
2B66
100
AcDbEntity
  8
0
 62
     0
100
AcDbLine
 10
54.95985796257446
 20
-251.3999999999996
 30
0.0
 11
200.4000000000015
 21
-182.1428260287966
 31
0.0
  0
LINE
  5
2901
330
2B66
100
AcDbEntity
  8
0
 62
     0
100
AcDbLine
 10
-200.3999999999942
 20
-372.9998682373688
 30
0.0
 11
54.95985796257446
 21
-251.3999999999996
 31
0.0
  0
LINE
  5
2902
330
2B66
100
AcDbEntity
  8
0
 62
     0
100
AcDbLine
 10
33.95994822558714
 20
-251.3999999999996
 30
0.0
 11
200.4000000000015
 21
-172.1428742846628
 31
0.0
  0
LINE
  5
2903
330
2B66
100
AcDbEntity
  8
0
 62
     0
100
AcDbLine
 10
-200.3999999999904
 20
-362.9999164932333
 30
0.0
 11
33.95994822558714
 21
-251.3999999999996
 31
0.0
  0
LINE
  5
2904
330
2B66
100
AcDbEntity
  8
0
 62
     0
100
AcDbLine
 10
12.96003848859618
 20
-251.3999999999978
 30
0.0
 11
200.4000000000015
 21
-162.1429225405272
 31
0.0
  0
LINE
  5
2905
330
2B66
100
AcDbEntity
  8
0
 62
     0
100
AcDbLine
 10
-200.3999999999942
 20
-352.9999647490995
 30
0.0
 11
12.96003848859618
 21
-251.3999999999978
 31
0.0
  0
LINE
  5
2906
330
2B66
100
AcDbEntity
  8
0
 62
     0
100
AcDbLine
 10
-8.039871248394772
 20
-251.3999999999987
 30
0.0
 11
200.4000000000051
 21
-152.1429707963925
 31
0.0
  0
LINE
  5
2907
330
2B66
100
AcDbEntity
  8
0
 62
     0
100
AcDbLine
 10
-200.3999999999904
 20
-343.0000130049648
 30
0.0
 11
-8.039871248394772
 21
-251.3999999999987
 31
0.0
  0
LINE
  5
2908
330
2B66
100
AcDbEntity
  8
0
 62
     0
100
AcDbLine
 10
-15.39999999999418
 20
-244.9048696226427
 30
0.0
 11
200.4000000000051
 21
-142.1430190522587
 31
0.0
  0
LINE
  5
2909
330
2B66
100
AcDbEntity
  8
0
 62
     0
100
AcDbLine
 10
-200.3999999999942
 20
-333.0000612608309
 30
0.0
 11
-15.39999999999418
 21
-244.9048696226427
 31
0.0
  0
LINE
  5
290A
330
2B66
100
AcDbEntity
  8
0
 62
     0
100
AcDbLine
 10
-15.39999999999418
 20
-234.904917878509
 30
0.0
 11
200.4000000000051
 21
-132.143067308124
 31
0.0
  0
LINE
  5
290B
330
2B66
100
AcDbEntity
  8
0
 62
     0
100
AcDbLine
 10
-200.3999999999904
 20
-323.0001095166954
 30
0.0
 11
-15.39999999999418
 21
-234.904917878509
 31
0.0
  0
LINE
  5
290C
330
2B66
100
AcDbEntity
  8
0
 62
     0
100
AcDbLine
 10
-15.39999999999418
 20
-224.9049661343743
 30
0.0
 11
200.4000000000015
 21
-122.1431155639902
 31
0.0
  0
LINE
  5
290D
330
2B66
100
AcDbEntity
  8
0
 62
     0
100
AcDbLine
 10
-200.3999999999904
 20
-313.0001577725608
 30
0.0
 11
-15.39999999999418
 21
-224.9049661343743
 31
0.0
  0
LINE
  5
290E
330
2B66
100
AcDbEntity
  8
0
 62
     0
100
AcDbLine
 10
-15.39999999999418
 20
-214.9050143902385
 30
0.0
 11
200.4000000000051
 21
-112.1431638198555
 31
0.0
  0
LINE
  5
290F
330
2B66
100
AcDbEntity
  8
0
 62
     0
100
AcDbLine
 10
-200.3999999999904
 20
-303.0002060284269
 30
0.0
 11
-15.39999999999418
 21
-214.9050143902385
 31
0.0
  0
LINE
  5
2910
330
2B66
100
AcDbEntity
  8
0
 62
     0
100
AcDbLine
 10
-15.39999999999781
 20
-204.9050626461057
 30
0.0
 11
200.4000000000015
 21
-102.1432120757217
 31
0.0
  0
LINE
  5
2911
330
2B66
100
AcDbEntity
  8
0
 62
     0
100
AcDbLine
 10
-200.3999999999942
 20
-293.0002542842923
 30
0.0
 11
-15.39999999999781
 21
-204.9050626461057
 31
0.0
  0
LINE
  5
2912
330
2B66
100
AcDbEntity
  8
0
 62
     0
100
AcDbLine
 10
-15.39999999999418
 20
-194.905110901971
 30
0.0
 11
200.4000000000051
 21
-92.14326033158704
 31
0.0
  0
LINE
  5
2913
330
2B66
100
AcDbEntity
  8
0
 62
     0
100
AcDbLine
 10
-200.3999999999942
 20
-283.0003025401584
 30
0.0
 11
-15.39999999999418
 21
-194.905110901971
 31
0.0
  0
LINE
  5
2914
330
2B66
100
AcDbEntity
  8
0
 62
     0
100
AcDbLine
 10
-15.39999999999418
 20
-184.9051591578362
 30
0.0
 11
200.4000000000015
 21
-82.14330858745325
 31
0.0
  0
LINE
  5
2915
330
2B66
100
AcDbEntity
  8
0
 62
     0
100
AcDbLine
 10
-200.3999999999904
 20
-273.0003507960237
 30
0.0
 11
-15.39999999999418
 21
-184.9051591578362
 31
0.0
  0
LINE
  5
2916
330
2B66
100
AcDbEntity
  8
0
 62
     0
100
AcDbLine
 10
-15.39999999999418
 20
-174.9052074137025
 30
0.0
 11
200.4000000000015
 21
-72.14335684331854
 31
0.0
  0
LINE
  5
2917
330
2B66
100
AcDbEntity
  8
0
 62
     0
100
AcDbLine
 10
-200.3999999999942
 20
-263.0003990518908
 30
0.0
 11
-15.39999999999418
 21
-174.9052074137025
 31
0.0
  0
LINE
  5
2918
330
2B66
100
AcDbEntity
  8
0
 62
     0
100
AcDbLine
 10
-15.39999999999781
 20
-164.9052556695678
 30
0.0
 11
200.4000000000015
 21
-62.14340509918474
 31
0.0
  0
LINE
  5
2919
330
2B66
100
AcDbEntity
  8
0
 62
     0
100
AcDbLine
 10
-200.3999999999904
 20
-253.0004473077552
 30
0.0
 11
-15.39999999999781
 21
-164.9052556695678
 31
0.0
  0
LINE
  5
291A
330
2B66
100
AcDbEntity
  8
0
 62
     0
100
AcDbLine
 10
-15.39999999999418
 20
-154.9053039254331
 30
0.0
 11
188.9412460028324
 21
-57.59999999999945
 31
0.0
  0
LINE
  5
291B
330
2B66
100
AcDbEntity
  8
0
 62
     0
100
AcDbLine
 10
-200.3999999999942
 20
-243.0004955636232
 30
0.0
 11
-15.39999999999418
 21
-154.9053039254331
 31
0.0
  0
LINE
  5
291C
330
2B66
100
AcDbEntity
  8
0
 62
     0
100
AcDbLine
 10
-15.39999999999781
 20
-144.9053521813002
 30
0.0
 11
167.9413362658379
 21
-57.60000000000037
 31
0.0
  0
LINE
  5
291D
330
2B66
100
AcDbEntity
  8
0
 62
     0
100
AcDbLine
 10
-200.3999999999978
 20
-233.0005438194885
 30
0.0
 11
-15.39999999999781
 21
-144.9053521813002
 31
0.0
  0
LINE
  5
291E
330
2B66
100
AcDbEntity
  8
0
 62
     0
100
AcDbLine
 10
-15.39999999999418
 20
-134.9054004371646
 30
0.0
 11
146.9414265288469
 21
-57.60000000000037
 31
0.0
  0
LINE
  5
291F
330
2B66
100
AcDbEntity
  8
0
 62
     0
100
AcDbLine
 10
-200.3999999999978
 20
-223.0005920753547
 30
0.0
 11
-15.39999999999418
 21
-134.9054004371646
 31
0.0
  0
LINE
  5
2920
330
2B66
100
AcDbEntity
  8
0
 62
     0
100
AcDbLine
 10
-15.39999999999054
 20
-124.9054486930299
 30
0.0
 11
125.9415167918559
 21
-57.60000000000128
 31
0.0
  0
LINE
  5
2921
330
2B66
100
AcDbEntity
  8
0
 62
     0
100
AcDbLine
 10
-200.3999999999942
 20
-213.00064033122
 30
0.0
 11
-15.39999999999054
 21
-124.9054486930299
 31
0.0
  0
LINE
  5
2922
330
2B66
100
AcDbEntity
  8
0
 62
     0
100
AcDbLine
 10
-15.39999999999781
 20
-114.9054969488961
 30
0.0
 11
104.941607054865
 21
-57.60000000000128
 31
0.0
  0
LINE
  5
2923
330
2B66
100
AcDbEntity
  8
0
 62
     0
100
AcDbLine
 10
-200.3999999999942
 20
-203.0006885870843
 30
0.0
 11
-15.39999999999781
 21
-114.9054969488961
 31
0.0
  0
LINE
  5
2924
330
2B66
100
AcDbEntity
  8
0
 62
     0
100
AcDbLine
 10
-15.39999999999418
 20
-104.9055452047605
 30
0.0
 11
83.94169731787405
 21
-57.60000000000128
 31
0.0
  0
LINE
  5
2925
330
2B66
100
AcDbEntity
  8
0
 62
     0
100
AcDbLine
 10
-200.3999999999942
 20
-193.0007368429506
 30
0.0
 11
-15.39999999999418
 21
-104.9055452047605
 31
0.0
  0
LINE
  5
2926
330
2B66
100
AcDbEntity
  8
0
 62
     0
100
AcDbLine
 10
-15.39999999999781
 20
-94.90559346062763
 30
0.0
 11
62.94178758087944
 21
-57.60000000000128
 31
0.0
  0
LINE
  5
2927
330
2B66
100
AcDbEntity
  8
0
 62
     0
100
AcDbLine
 10
-200.3999999999978
 20
-183.0007850988159
 30
0.0
 11
-15.39999999999781
 21
-94.90559346062763
 31
0.0
  0
LINE
  5
2928
330
2B66
100
AcDbEntity
  8
0
 62
     0
100
AcDbLine
 10
-15.39999999999418
 20
-84.90564171649202
 30
0.0
 11
41.94187784389213
 21
-57.60000000000128
 31
0.0
  0
LINE
  5
2929
330
2B66
100
AcDbEntity
  8
0
 62
     0
100
AcDbLine
 10
-200.3999999999978
 20
-173.0008333546821
 30
0.0
 11
-15.39999999999418
 21
-84.90564171649202
 31
0.0
  0
LINE
  5
292A
330
2B66
100
AcDbEntity
  8
0
 62
     0
100
AcDbLine
 10
-15.39999999999418
 20
-74.9056899723582
 30
0.0
 11
20.94196810690119
 21
-57.60000000000128
 31
0.0
  0
LINE
  5
292B
330
2B66
100
AcDbEntity
  8
0
 62
     0
100
AcDbLine
 10
-200.3999999999942
 20
-163.0008816105464
 30
0.0
 11
-15.39999999999418
 21
-74.9056899723582
 31
0.0
  0
LINE
  5
292C
330
2B66
100
AcDbEntity
  8
0
 62
     0
100
AcDbLine
 10
-15.39999999999781
 20
-64.90573822822352
 30
0.0
 11
-0.0579416300934099
 21
-57.60000000000218
 31
0.0
  0
LINE
  5
292D
330
2B66
100
AcDbEntity
  8
0
 62
     0
100
AcDbLine
 10
-200.3999999999978
 20
-153.0009298664134
 30
0.0
 11
-15.39999999999781
 21
-64.90573822822352
 31
0.0
  0
LINE
  5
292E
330
2B66
100
AcDbEntity
  8
0
 62
     0
100
AcDbLine
 10
-200.3999999999942
 20
-143.0009781222779
 30
0.0
 11
-21.05785136708073
 21
-57.60000000000037
 31
0.0
  0
LINE
  5
292F
330
2B66
100
AcDbEntity
  8
0
 62
     0
100
AcDbLine
 10
-200.3999999999978
 20
-133.0010263781451
 30
0.0
 11
-42.05776110406804
 21
-57.60000000000128
 31
0.0
  0
LINE
  5
2930
330
2B66
100
AcDbEntity
  8
0
 62
     0
100
AcDbLine
 10
-200.3999999999978
 20
-123.0010746340094
 30
0.0
 11
-63.05767084105901
 21
-57.59999999999945
 31
0.0
  0
LINE
  5
2931
330
2B66
100
AcDbEntity
  8
0
 62
     0
100
AcDbLine
 10
-200.3999999999942
 20
-113.0011228898747
 30
0.0
 11
-84.05758057804995
 21
-57.59999999999945
 31
0.0
  0
LINE
  5
2932
330
2B66
100
AcDbEntity
  8
0
 62
     0
100
AcDbLine
 10
-200.3999999999942
 20
-103.0011711457409
 30
0.0
 11
-105.0574903150409
 21
-57.60000000000037
 31
0.0
  0
LINE
  5
2933
330
2B66
100
AcDbEntity
  8
0
 62
     0
100
AcDbLine
 10
-200.3999999999942
 20
-93.00121940160627
 30
0.0
 11
-126.0574000520318
 21
-57.60000000000037
 31
0.0
  0
LINE
  5
2934
330
2B66
100
AcDbEntity
  8
0
 62
     0
100
AcDbLine
 10
-200.3999999999978
 20
-83.00126765747155
 30
0.0
 11
-147.0573097890228
 21
-57.60000000000037
 31
0.0
  0
LINE
  5
2935
330
2B66
100
AcDbEntity
  8
0
 62
     0
100
AcDbLine
 10
-200.3999999999942
 20
-73.00131591333776
 30
0.0
 11
-168.0572195260138
 21
-57.60000000000128
 31
0.0
  0
LINE
  5
2936
330
2B66
100
AcDbEntity
  8
0
 62
     0
100
AcDbLine
 10
-200.3999999999978
 20
-63.00136416920395
 30
0.0
 11
-189.0571292630047
 21
-57.60000000000128
 31
0.0
  0
ENDBLK
  5
2937
330
2B66
100
AcDbEntity
  8
0
100
AcDbBlockEnd
  0
BLOCK
  5
2D34
330
2D33
100
AcDbEntity
  8
0
100
AcDbBlockBegin
  2
*U72
 70
     1
 10
0.0
 20
0.0
 30
0.0
  3
*U72
  1

  0
ENDBLK
  5
2D35
330
2D33
100
AcDbEntity
  8
0
100
AcDbBlockEnd
  0
BLOCK
  5
3028
330
3027
100
AcDbEntity
  8
0
100
AcDbBlockBegin
  2
*U73
 70
     1
 10
0.0
 20
0.0
 30
0.0
  3
*U73
  1

  0
ENDBLK
  5
3029
330
3027
100
AcDbEntity
  8
0
100
AcDbBlockEnd
  0
BLOCK
  5
3108
330
3107
100
AcDbEntity
  8
0
100
AcDbBlockBegin
  2
*U74
 70
     1
 10
0.0
 20
0.0
 30
0.0
  3
*U74
  1

  0
ENDBLK
  5
3109
330
3107
100
AcDbEntity
  8
0
100
AcDbBlockEnd
  0
BLOCK
  5
3138
330
3137
100
AcDbEntity
  8
0
100
AcDbBlockBegin
  2
*D75
 70
     1
 10
0.0
 20
0.0
 30
0.0
  3
*D75
  1

  0
LINE
  5
3139
330
3137
100
AcDbEntity
  8
SIZE
 62
     0
370
    -2
100
AcDbLine
 10
-17236.60019115515
 20
-1774.064618510194
 30
0.0
 11
-17113.55422321046
 21
-1774.064618510194
 31
0.0
  0
LINE
  5
313A
330
3137
100
AcDbEntity
  8
SIZE
 62
     0
370
    -2
100
AcDbLine
 10
-17236.60019115515
 20
-1786.064618510194
 30
0.0
 11
-17113.55422321046
 21
-1786.064618510194
 31
0.0
  0
LINE
  5
313B
330
3137
100
AcDbEntity
  8
SIZE
 62
     0
370
    -2
100
AcDbLine
 10
-17133.55422321046
 20
-1762.064618510194
 30
0.0
 11
-17133.55422321046
 21
-1750.064618510194
 31
0.0
  0
LINE
  5
313C
330
3137
100
AcDbEntity
  8
SIZE
 62
     0
370
    -2
100
AcDbLine
 10
-17133.55422321046
 20
-1798.064618510194
 30
0.0
 11
-17133.55422321046
 21
-1915.093189938765
 31
0.0
  0
INSERT
  5
313D
330
3137
100
AcDbEntity
  8
SIZE
 62
     0
370
    -2
100
AcDbBlockReference
  2
_DOTBLANK
 10
-17133.55422321046
 20
-1774.064618510194
 30
0.0
 41
12.0
 42
12.0
 43
12.0
 50
270.0
  0
INSERT
  5
313E
330
3137
100
AcDbEntity
  8
SIZE
 62
     0
370
    -2
100
AcDbBlockReference
  2
_DOTBLANK
 10
-17133.55422321046
 20
-1786.064618510194
 30
0.0
 41
12.0
 42
12.0
 43
12.0
 50
90.0
  0
MTEXT
  5
313F
330
3137
100
AcDbEntity
  8
SIZE
 62
     0
100
AcDbMText
 10
-17175.55422321046
 20
-1862.578904224482
 30
0.0
 40
64.0
 41
0.0
 71
     5
 72
     1
  1
\A1;12
 11
0.0000000000000001
 21
1.0
 31
0.0
 73
     1
 44
1.0
  0
POINT
  5
3140
330
3137
100
AcDbEntity
  8
DEFPOINTS
 62
     0
100
AcDbPoint
 10
-17256.60019115515
 20
-1774.064618510194
 30
0.0
  0
POINT
  5
3141
330
3137
100
AcDbEntity
  8
DEFPOINTS
 62
     0
100
AcDbPoint
 10
-17256.60019115515
 20
-1786.064618510194
 30
0.0
  0
POINT
  5
3142
330
3137
100
AcDbEntity
  8
DEFPOINTS
 62
     0
100
AcDbPoint
 10
-17133.55422321046
 20
-1786.064618510194
 30
0.0
  0
ENDBLK
  5
3143
330
3137
100
AcDbEntity
  8
0
100
AcDbBlockEnd
  0
BLOCK
  5
3145
330
3144
100
AcDbEntity
  8
0
100
AcDbBlockBegin
  2
*D76
 70
     1
 10
0.0
 20
0.0
 30
0.0
  3
*D76
  1

  0
LINE
  5
3146
330
3144
100
AcDbEntity
  8
SIZE
 62
     0
370
    -2
100
AcDbLine
 10
-17290.60019115515
 20
-2236.064618510194
 30
0.0
 11
-17290.60019115515
 21
-2388.209391435444
 31
0.0
  0
LINE
  5
3147
330
3144
100
AcDbEntity
  8
SIZE
 62
     0
370
    -2
100
AcDbLine
 10
-17722.60019115515
 20
-2236.064618510194
 30
0.0
 11
-17722.60019115515
 21
-2388.209391435444
 31
0.0
  0
LINE
  5
3148
330
3144
100
AcDbEntity
  8
SIZE
 62
     0
370
    -2
100
AcDbLine
 10
-17302.60019115515
 20
-2368.209391435444
 30
0.0
 11
-17710.60019115515
 21
-2368.209391435444
 31
0.0
  0
INSERT
  5
3149
330
3144
100
AcDbEntity
  8
SIZE
 62
     0
370
    -2
100
AcDbBlockReference
  2
_DOTBLANK
 10
-17290.60019115515
 20
-2368.209391435444
 30
0.0
 41
12.0
 42
12.0
 43
12.0
  0
INSERT
  5
314A
330
3144
100
AcDbEntity
  8
SIZE
 62
     0
370
    -2
100
AcDbBlockReference
  2
_DOTBLANK
 10
-17722.60019115515
 20
-2368.209391435444
 30
0.0
 41
12.0
 42
12.0
 43
12.0
 50
180.0
  0
MTEXT
  5
314B
330
3144
100
AcDbEntity
  8
SIZE
 62
     0
100
AcDbMText
 10
-17506.60019115515
 20
-2326.209391435444
 30
0.0
 40
64.0
 41
0.0
 71
     5
 72
     1
  1
\A1;432
 73
     1
 44
1.0
  0
POINT
  5
314C
330
3144
100
AcDbEntity
  8
DEFPOINTS
 62
     0
100
AcDbPoint
 10
-17290.60019115515
 20
-2216.064618510194
 30
0.0
  0
POINT
  5
314D
330
3144
100
AcDbEntity
  8
DEFPOINTS
 62
     0
100
AcDbPoint
 10
-17722.60019115515
 20
-2216.064618510194
 30
0.0
  0
POINT
  5
314E
330
3144
100
AcDbEntity
  8
DEFPOINTS
 62
     0
100
AcDbPoint
 10
-17722.60019115515
 20
-2368.209391435444
 30
0.0
  0
ENDBLK
  5
314F
330
3144
100
AcDbEntity
  8
0
100
AcDbBlockEnd
  0
BLOCK
  5
3151
330
3150
100
AcDbEntity
  8
0
100
AcDbBlockBegin
  2
*D77
 70
     1
 10
0.0
 20
0.0
 30
0.0
  3
*D77
  1

  0
LINE
  5
3152
330
3150
100
AcDbEntity
  8
SIZE
 62
     0
370
    -2
100
AcDbLine
 10
-17276.60019115515
 20
-1741.564618510194
 30
0.0
 11
-17276.60019115515
 21
-1593.732527500577
 31
0.0
  0
LINE
  5
3153
330
3150
100
AcDbEntity
  8
SIZE
 62
     0
370
    -2
100
AcDbLine
 10
-17736.60019115515
 20
-1741.564618510194
 30
0.0
 11
-17736.60019115515
 21
-1593.732527500577
 31
0.0
  0
LINE
  5
3154
330
3150
100
AcDbEntity
  8
SIZE
 62
     0
370
    -2
100
AcDbLine
 10
-17288.60019115515
 20
-1613.732527500577
 30
0.0
 11
-17724.60019115515
 21
-1613.732527500577
 31
0.0
  0
INSERT
  5
3155
330
3150
100
AcDbEntity
  8
SIZE
 62
     0
370
    -2
100
AcDbBlockReference
  2
_DOTBLANK
 10
-17276.60019115515
 20
-1613.732527500577
 30
0.0
 41
12.0
 42
12.0
 43
12.0
  0
INSERT
  5
3156
330
3150
100
AcDbEntity
  8
SIZE
 62
     0
370
    -2
100
AcDbBlockReference
  2
_DOTBLANK
 10
-17736.60019115515
 20
-1613.732527500577
 30
0.0
 41
12.0
 42
12.0
 43
12.0
 50
180.0
  0
MTEXT
  5
3157
330
3150
100
AcDbEntity
  8
SIZE
 62
     0
100
AcDbMText
 10
-17507.15606878914
 20
-1571.732527500577
 30
0.0
 40
64.0
 41
0.0
 71
     5
 72
     1
  1
\A1;460
 73
     1
 44
1.0
  0
POINT
  5
3158
330
3150
100
AcDbEntity
  8
DEFPOINTS
 62
     0
100
AcDbPoint
 10
-17276.60019115515
 20
-1761.564618510194
 30
0.0
  0
POINT
  5
3159
330
3150
100
AcDbEntity
  8
DEFPOINTS
 62
     0
100
AcDbPoint
 10
-17736.60019115515
 20
-1761.564618510194
 30
0.0
  0
POINT
  5
315A
330
3150
100
AcDbEntity
  8
DEFPOINTS
 62
     0
100
AcDbPoint
 10
-17736.60019115515
 20
-1613.732527500577
 30
0.0
  0
ENDBLK
  5
315B
330
3150
100
AcDbEntity
  8
0
100
AcDbBlockEnd
  0
BLOCK
  5
315D
330
315C
100
AcDbEntity
  8
0
100
AcDbBlockBegin
  2
*D78
 70
     1
 10
0.0
 20
0.0
 30
0.0
  3
*D78
  1

  0
LINE
  5
315E
330
315C
100
AcDbEntity
  8
SIZE
 62
     0
370
    -2
100
AcDbLine
 10
-17256.60019115515
 20
-1754.064618510194
 30
0.0
 11
-17256.60019115515
 21
-1475.178025573677
 31
0.0
  0
LINE
  5
315F
330
315C
100
AcDbEntity
  8
SIZE
 62
     0
370
    -2
100
AcDbLine
 10
-17756.60019115515
 20
-1754.064618510194
 30
0.0
 11
-17756.60019115515
 21
-1475.178025573677
 31
0.0
  0
LINE
  5
3160
330
315C
100
AcDbEntity
  8
SIZE
 62
     0
370
    -2
100
AcDbLine
 10
-17268.60019115515
 20
-1495.178025573677
 30
0.0
 11
-17744.60019115515
 21
-1495.178025573677
 31
0.0
  0
INSERT
  5
3161
330
315C
100
AcDbEntity
  8
SIZE
 62
     0
370
    -2
100
AcDbBlockReference
  2
_DOTBLANK
 10
-17256.60019115515
 20
-1495.178025573677
 30
0.0
 41
12.0
 42
12.0
 43
12.0
  0
INSERT
  5
3162
330
315C
100
AcDbEntity
  8
SIZE
 62
     0
370
    -2
100
AcDbBlockReference
  2
_DOTBLANK
 10
-17756.60019115515
 20
-1495.178025573677
 30
0.0
 41
12.0
 42
12.0
 43
12.0
 50
180.0
  0
MTEXT
  5
3163
330
315C
100
AcDbEntity
  8
SIZE
 62
     0
100
AcDbMText
 10
-17506.60019115515
 20
-1453.178025573677
 30
0.0
 40
64.0
 41
0.0
 71
     5
 72
     1
  1
\A1;500
 73
     1
 44
1.0
  0
POINT
  5
3164
330
315C
100
AcDbEntity
  8
DEFPOINTS
 62
     0
100
AcDbPoint
 10
-17256.60019115515
 20
-1774.064618510194
 30
0.0
  0
POINT
  5
3165
330
315C
100
AcDbEntity
  8
DEFPOINTS
 62
     0
100
AcDbPoint
 10
-17756.60019115515
 20
-1774.064618510194
 30
0.0
  0
POINT
  5
3166
330
315C
100
AcDbEntity
  8
DEFPOINTS
 62
     0
100
AcDbPoint
 10
-17756.60019115515
 20
-1495.178025573677
 30
0.0
  0
ENDBLK
  5
3167
330
315C
100
AcDbEntity
  8
0
100
AcDbBlockEnd
  0
BLOCK
  5
3169
330
3168
100
AcDbEntity
  8
0
100
AcDbBlockBegin
  2
*D79
 70
     1
 10
0.0
 20
0.0
 30
0.0
  3
*D79
  1

  0
LINE
  5
316A
330
3168
100
AcDbEntity
  8
SIZE
 62
     0
370
    -2
100
AcDbLine
 10
-17781.60019115515
 20
-1774.064618510194
 30
0.0
 11
-17955.58495828851
 21
-1774.064618510194
 31
0.0
  0
LINE
  5
316B
330
3168
100
AcDbEntity
  8
SIZE
 62
     0
370
    -2
100
AcDbLine
 10
-17742.60019115515
 20
-2216.064618510194
 30
0.0
 11
-17955.58495828851
 21
-2216.064618510194
 31
0.0
  0
LINE
  5
316C
330
3168
100
AcDbEntity
  8
SIZE
 62
     0
370
    -2
100
AcDbLine
 10
-17935.58495828851
 20
-1786.064618510194
 30
0.0
 11
-17935.58495828851
 21
-2204.064618510194
 31
0.0
  0
INSERT
  5
316D
330
3168
100
AcDbEntity
  8
SIZE
 62
     0
370
    -2
100
AcDbBlockReference
  2
_DOTBLANK
 10
-17935.58495828851
 20
-1774.064618510194
 30
0.0
 41
12.0
 42
12.0
 43
12.0
 50
90.0
  0
INSERT
  5
316E
330
3168
100
AcDbEntity
  8
SIZE
 62
     0
370
    -2
100
AcDbBlockReference
  2
_DOTBLANK
 10
-17935.58495828851
 20
-2216.064618510194
 30
0.0
 41
12.0
 42
12.0
 43
12.0
 50
270.0
  0
MTEXT
  5
316F
330
3168
100
AcDbEntity
  8
SIZE
 62
     0
100
AcDbMText
 10
-17977.58495828851
 20
-1995.064618510197
 30
0.0
 40
64.0
 41
0.0
 71
     5
 72
     1
  1
\A1;442
 11
0.0000000000000001
 21
1.0
 31
0.0
 73
     1
 44
1.0
  0
POINT
  5
3170
330
3168
100
AcDbEntity
  8
DEFPOINTS
 62
     0
100
AcDbPoint
 10
-17761.60019115515
 20
-1774.064618510194
 30
0.0
  0
POINT
  5
3171
330
3168
100
AcDbEntity
  8
DEFPOINTS
 62
     0
100
AcDbPoint
 10
-17722.60019115515
 20
-2216.064618510194
 30
0.0
  0
POINT
  5
3172
330
3168
100
AcDbEntity
  8
DEFPOINTS
 62
     0
100
AcDbPoint
 10
-17935.58495828851
 20
-2216.064618510194
 30
0.0
  0
ENDBLK
  5
3173
330
3168
100
AcDbEntity
  8
0
100
AcDbBlockEnd
  0
BLOCK
  5
320B
330
320A
100
AcDbEntity
  8
0
100
AcDbBlockBegin
  2
*D80
 70
     1
 10
0.0
 20
0.0
 30
0.0
  3
*D80
  1

  0
LINE
  5
320D
330
320A
100
AcDbEntity
  8
SIZE
 62
     0
370
    -2
100
AcDbLine
 10
-133.2535046713556
 20
98.98132024211328
 30
0.0
 11
-133.2535046713556
 21
-53.16345268313625
 31
0.0
  0
LINE
  5
320E
330
320A
100
AcDbEntity
  8
SIZE
 62
     0
370
    -2
100
AcDbLine
 10
-565.2535046713555
 20
98.98132024211328
 30
0.0
 11
-565.2535046713555
 21
-53.16345268313625
 31
0.0
  0
LINE
  5
320F
330
320A
100
AcDbEntity
  8
SIZE
 62
     0
370
    -2
100
AcDbLine
 10
-145.2535046713555
 20
-33.16345268313626
 30
0.0
 11
-265.1963618142127
 21
-33.16345268313626
 31
0.0
  0
LINE
  5
3210
330
320A
100
AcDbEntity
  8
SIZE
 62
     0
370
    -2
100
AcDbLine
 10
-553.2535046713555
 20
-33.16345268313626
 30
0.0
 11
-433.3106475284984
 21
-33.16345268313626
 31
0.0
  0
MTEXT
  5
3211
330
320A
100
AcDbEntity
  8
SIZE
 62
     0
100
AcDbMText
 10
-349.2535046713556
 20
-33.16345268313626
 30
0.0
 40
64.0
 41
0.0
 71
     5
 72
     1
  1
\A1;432
 73
     1
 44
1.0
  0
INSERT
  5
3212
330
320A
100
AcDbEntity
  8
SIZE
 62
     0
370
    -2
100
AcDbBlockReference
  2
_DOTBLANK
 10
-133.2535046713556
 20
-33.16345268313626
 30
0.0
 41
12.0
 42
12.0
 43
12.0
  0
INSERT
  5
3213
330
320A
100
AcDbEntity
  8
SIZE
 62
     0
370
    -2
100
AcDbBlockReference
  2
_DOTBLANK
 10
-565.2535046713555
 20
-33.16345268313626
 30
0.0
 41
12.0
 42
12.0
 43
12.0
 50
180.0
  0
POINT
  5
3214
330
320A
100
AcDbEntity
  8
DEFPOINTS
 62
     0
100
AcDbPoint
 10
-133.2535046713556
 20
118.9813202421132
 30
0.0
  0
POINT
  5
3215
330
320A
100
AcDbEntity
  8
DEFPOINTS
 62
     0
100
AcDbPoint
 10
-565.2535046713555
 20
118.9813202421132
 30
0.0
  0
POINT
  5
3216
330
320A
100
AcDbEntity
  8
DEFPOINTS
 62
     0
100
AcDbPoint
 10
-565.2535046713555
 20
-33.16345268313626
 30
0.0
  0
ENDBLK
  5
320C
330
320A
100
AcDbEntity
  8
0
100
AcDbBlockEnd
  0
BLOCK
  5
3218
330
3217
100
AcDbEntity
  8
0
100
AcDbBlockBegin
  2
*D81
 70
     1
 10
0.0
 20
0.0
 30
0.0
  3
*D81
  1

  0
LINE
  5
321A
330
3217
100
AcDbEntity
  8
SIZE
 62
     0
370
    -2
100
AcDbLine
 10
-119.2535046713556
 20
593.4813202421132
 30
0.0
 11
-119.2535046713556
 21
741.31341125173
 31
0.0
  0
LINE
  5
321B
330
3217
100
AcDbEntity
  8
SIZE
 62
     0
370
    -2
100
AcDbLine
 10
-579.2535046713553
 20
593.4813202421132
 30
0.0
 11
-579.2535046713553
 21
741.31341125173
 31
0.0
  0
LINE
  5
321C
330
3217
100
AcDbEntity
  8
SIZE
 62
     0
370
    -2
100
AcDbLine
 10
-131.2535046713556
 20
721.31341125173
 30
0.0
 11
-265.7522394482021
 21
721.31341125173
 31
0.0
  0
LINE
  5
321D
330
3217
100
AcDbEntity
  8
SIZE
 62
     0
370
    -2
100
AcDbLine
 10
-567.2535046713553
 20
721.31341125173
 30
0.0
 11
-433.8665251624878
 21
721.31341125173
 31
0.0
  0
MTEXT
  5
321E
330
3217
100
AcDbEntity
  8
SIZE
 62
     0
100
AcDbMText
 10
-349.809382305345
 20
721.31341125173
 30
0.0
 40
64.0
 41
0.0
 71
     5
 72
     1
  1
\A1;460
 73
     1
 44
1.0
  0
INSERT
  5
321F
330
3217
100
AcDbEntity
  8
SIZE
 62
     0
370
    -2
100
AcDbBlockReference
  2
_DOTBLANK
 10
-119.2535046713556
 20
721.31341125173
 30
0.0
 41
12.0
 42
12.0
 43
12.0
  0
INSERT
  5
3220
330
3217
100
AcDbEntity
  8
SIZE
 62
     0
370
    -2
100
AcDbBlockReference
  2
_DOTBLANK
 10
-579.2535046713553
 20
721.31341125173
 30
0.0
 41
12.0
 42
12.0
 43
12.0
 50
180.0
  0
POINT
  5
3221
330
3217
100
AcDbEntity
  8
DEFPOINTS
 62
     0
100
AcDbPoint
 10
-119.2535046713556
 20
573.4813202421133
 30
0.0
  0
POINT
  5
3222
330
3217
100
AcDbEntity
  8
DEFPOINTS
 62
     0
100
AcDbPoint
 10
-579.2535046713553
 20
573.4813202421133
 30
0.0
  0
POINT
  5
3223
330
3217
100
AcDbEntity
  8
DEFPOINTS
 62
     0
100
AcDbPoint
 10
-579.2535046713553
 20
721.31341125173
 30
0.0
  0
ENDBLK
  5
3219
330
3217
100
AcDbEntity
  8
0
100
AcDbBlockEnd
  0
BLOCK
  5
3225
330
3224
100
AcDbEntity
  8
0
100
AcDbBlockBegin
  2
*D82
 70
     1
 10
0.0
 20
0.0
 30
0.0
  3
*D82
  1

  0
LINE
  5
3227
330
3224
100
AcDbEntity
  8
SIZE
 62
     0
370
    -2
100
AcDbLine
 10
-99.25350467135558
 20
580.9813202421132
 30
0.0
 11
-99.25350467135558
 21
859.8679131786298
 31
0.0
  0
LINE
  5
3228
330
3224
100
AcDbEntity
  8
SIZE
 62
     0
370
    -2
100
AcDbLine
 10
-599.2535046713554
 20
580.9813202421132
 30
0.0
 11
-599.2535046713554
 21
859.8679131786298
 31
0.0
  0
LINE
  5
3229
330
3224
100
AcDbEntity
  8
SIZE
 62
     0
370
    -2
100
AcDbLine
 10
-111.2535046713555
 20
839.8679131786298
 30
0.0
 11
-265.1963618142091
 21
839.8679131786298
 31
0.0
  0
LINE
  5
322A
330
3224
100
AcDbEntity
  8
SIZE
 62
     0
370
    -2
100
AcDbLine
 10
-587.2535046713553
 20
839.8679131786298
 30
0.0
 11
-433.3106475284948
 21
839.8679131786298
 31
0.0
  0
MTEXT
  5
322B
330
3224
100
AcDbEntity
  8
SIZE
 62
     0
100
AcDbMText
 10
-349.2535046713518
 20
839.8679131786298
 30
0.0
 40
64.0
 41
0.0
 71
     5
 72
     1
  1
\A1;500
 73
     1
 44
1.0
  0
INSERT
  5
322C
330
3224
100
AcDbEntity
  8
SIZE
 62
     0
370
    -2
100
AcDbBlockReference
  2
_DOTBLANK
 10
-99.25350467135558
 20
839.8679131786298
 30
0.0
 41
12.0
 42
12.0
 43
12.0
  0
INSERT
  5
322D
330
3224
100
AcDbEntity
  8
SIZE
 62
     0
370
    -2
100
AcDbBlockReference
  2
_DOTBLANK
 10
-599.2535046713554
 20
839.8679131786298
 30
0.0
 41
12.0
 42
12.0
 43
12.0
 50
180.0
  0
POINT
  5
322E
330
3224
100
AcDbEntity
  8
DEFPOINTS
 62
     0
100
AcDbPoint
 10
-99.25350467135558
 20
560.9813202421134
 30
0.0
  0
POINT
  5
322F
330
3224
100
AcDbEntity
  8
DEFPOINTS
 62
     0
100
AcDbPoint
 10
-599.2535046713554
 20
560.9813202421134
 30
0.0
  0
POINT
  5
3230
330
3224
100
AcDbEntity
  8
DEFPOINTS
 62
     0
100
AcDbPoint
 10
-599.2535046713554
 20
839.8679131786298
 30
0.0
  0
ENDBLK
  5
3226
330
3224
100
AcDbEntity
  8
0
100
AcDbBlockEnd
  0
BLOCK
  5
3232
330
3231
100
AcDbEntity
  8
0
100
AcDbBlockBegin
  2
*D83
 70
     1
 10
0.0
 20
0.0
 30
0.0
  3
*D83
  1

  0
LINE
  5
3234
330
3231
100
AcDbEntity
  8
SIZE
 62
     0
370
    -2
100
AcDbLine
 10
-624.2535046713554
 20
560.9813202421134
 30
0.0
 11
-798.2382718047148
 21
560.9813202421134
 31
0.0
  0
LINE
  5
3235
330
3231
100
AcDbEntity
  8
SIZE
 62
     0
370
    -2
100
AcDbLine
 10
-585.2535046713556
 20
118.9813202421132
 30
0.0
 11
-798.2382718047148
 21
118.9813202421133
 31
0.0
  0
LINE
  5
3236
330
3231
100
AcDbEntity
  8
SIZE
 62
     0
370
    -2
100
AcDbLine
 10
-778.2382718047148
 20
548.9813202421133
 30
0.0
 11
-778.2382718047148
 21
130.9813202421133
 31
0.0
  0
SOLID
  5
3237
330
3231
100
AcDbEntity
  8
SIZE
 62
     0
100
AcDbTrace
 10
-780.2382718047145
 20
548.9813202421133
 30
0.0
 11
-776.2382718047144
 21
548.9813202421133
 31
0.0
 12
-778.2382718047148
 22
560.9813202421134
 32
0.0
 13
-778.2382718047148
 23
560.9813202421134
 33
0.0
  0
SOLID
  5
3238
330
3231
100
AcDbEntity
  8
SIZE
 62
     0
100
AcDbTrace
 10
-780.2382718047148
 20
130.9813202421133
 30
0.0
 11
-776.2382718047148
 21
130.9813202421133
 31
0.0
 12
-778.2382718047148
 22
118.9813202421133
 32
0.0
 13
-778.2382718047148
 23
118.9813202421133
 33
0.0
  0
MTEXT
  5
3239
330
3231
100
AcDbEntity
  8
SIZE
 62
     0
100
AcDbMText
 10
-820.2382718047148
 20
339.9813202421132
 30
0.0
 40
64.0
 41
0.0
 71
     5
 72
     1
  1
\A1;442
 11
0.0000000000000001
 21
1.0
 31
0.0
 73
     1
 44
1.0
  0
POINT
  5
323A
330
3231
100
AcDbEntity
  8
DEFPOINTS
 62
     0
100
AcDbPoint
 10
-604.2535046713553
 20
560.9813202421134
 30
0.0
  0
POINT
  5
323B
330
3231
100
AcDbEntity
  8
DEFPOINTS
 62
     0
100
AcDbPoint
 10
-565.2535046713555
 20
118.9813202421132
 30
0.0
  0
POINT
  5
323C
330
3231
100
AcDbEntity
  8
DEFPOINTS
 62
     0
100
AcDbPoint
 10
-778.2382718047148
 20
118.9813202421133
 30
0.0
  0
ENDBLK
  5
3233
330
3231
100
AcDbEntity
  8
0
100
AcDbBlockEnd
  0
BLOCK
  5
323E
330
323D
100
AcDbEntity
  8
0
100
AcDbBlockBegin
  2
*D84
 70
     1
 10
0.0
 20
0.0
 30
0.0
  3
*D84
  1

  0
LINE
  5
3240
330
323D
100
AcDbEntity
  8
SIZE
 62
     0
370
    -2
100
AcDbLine
 10
-79.25350467135558
 20
560.9813202421134
 30
0.0
 11
43.79246327332021
 21
560.9813202421134
 31
0.0
  0
LINE
  5
3241
330
323D
100
AcDbEntity
  8
SIZE
 62
     0
370
    -2
100
AcDbLine
 10
-79.25350467135558
 20
548.9813202421133
 30
0.0
 11
43.79246327332021
 21
548.9813202421133
 31
0.0
  0
LINE
  5
3242
330
323D
100
AcDbEntity
  8
SIZE
 62
     0
370
    -2
100
AcDbLine
 10
23.79246327332022
 20
572.9813202421133
 30
0.0
 11
23.79246327332022
 21
584.9813202421132
 31
0.0
  0
LINE
  5
3243
330
323D
100
AcDbEntity
  8
SIZE
 62
     0
370
    -2
100
AcDbLine
 10
23.79246327332021
 20
536.9813202421132
 30
0.0
 11
23.79246327332021
 21
524.9813202421131
 31
0.0
  0
MTEXT
  5
3244
330
323D
100
AcDbEntity
  8
SIZE
 62
     0
100
AcDbMText
 10
154.7924632733201
 20
554.9813202421131
 30
0.0
 40
64.0
 41
0.0
 71
     5
 72
     1
  1
\A1;12
 11
0.0000000000000001
 21
1.0
 31
0.0
 73
     1
 44
1.0
  0
SOLID
  5
3245
330
323D
100
AcDbEntity
  8
SIZE
 62
     0
100
AcDbTrace
 10
21.79246327332021
 20
572.9813202421133
 30
0.0
 11
25.79246327332022
 21
572.9813202421133
 31
0.0
 12
23.79246327332021
 22
560.9813202421134
 32
0.0
 13
23.79246327332021
 23
560.9813202421134
 33
0.0
  0
SOLID
  5
3246
330
323D
100
AcDbEntity
  8
SIZE
 62
     0
100
AcDbTrace
 10
21.79246327332021
 20
536.9813202421132
 30
0.0
 11
25.79246327332021
 21
536.9813202421132
 31
0.0
 12
23.79246327332021
 22
548.9813202421133
 32
0.0
 13
23.79246327332021
 23
548.9813202421133
 33
0.0
  0
POINT
  5
3247
330
323D
100
AcDbEntity
  8
DEFPOINTS
 62
     0
100
AcDbPoint
 10
-99.25350467135558
 20
560.9813202421134
 30
0.0
  0
POINT
  5
3248
330
323D
100
AcDbEntity
  8
DEFPOINTS
 62
     0
100
AcDbPoint
 10
-99.25350467135558
 20
548.9813202421133
 30
0.0
  0
POINT
  5
3249
330
323D
100
AcDbEntity
  8
DEFPOINTS
 62
     0
100
AcDbPoint
 10
23.79246327332021
 20
548.9813202421133
 30
0.0
  0
ENDBLK
  5
323F
330
323D
100
AcDbEntity
  8
0
100
AcDbBlockEnd
  0
BLOCK
  5
3303
330
3302
100
AcDbEntity
  8
0
100
AcDbBlockBegin
  2
*U85
 70
     1
 10
0.0
 20
0.0
 30
0.0
  3
*U85
  1

  0
ENDBLK
  5
3304
330
3302
100
AcDbEntity
  8
0
100
AcDbBlockEnd
  0
ENDSEC
  0
SECTION
  2
ENTITIES
  0
TEXT
  5
953
330
2A8E
100
AcDbEntity
  8
OUTLINE
  6
Continuous
 62
     3
100
AcDbText
 10
-418.231467
 20
13.715189
 30
0.0
 40
64.0
  1
 
 41
0.9
100
AcDbText
  0
TEXT
  5
954
330
2A8E
100
AcDbEntity
  8
OUTLINE
  6
Continuous
 62
     3
100
AcDbText
 10
-418.231467
 20
13.715189
 30
0.0
 40
64.0
  1
 
 41
0.9
100
AcDbText
  0
TEXT
  5
955
330
2A8E
100
AcDbEntity
  8
OUTLINE
  6
Continuous
 62
     3
100
AcDbText
 10
1341.41903
 20
-706.0588199999997
 30
0.0
 40
64.0
  1
 
 41
0.9
100
AcDbText
  0
TEXT
  5
956
330
2A8E
100
AcDbEntity
  8
OUTLINE
  6
Continuous
 62
     3
100
AcDbText
 10
1341.41903
 20
-706.0588199999997
 30
0.0
 40
64.0
  1
 
 41
0.9
100
AcDbText
  0
TEXT
  5
957
330
2A8E
100
AcDbEntity
  8
OUTLINE
  6
Continuous
 62
     3
100
AcDbText
 10
1341.41903
 20
-706.0588199999997
 30
0.0
 40
64.0
  1
 
 41
0.9
100
AcDbText
  0
TEXT
  5
958
330
2A8E
100
AcDbEntity
  8
OUTLINE
  6
Continuous
 62
     3
100
AcDbText
 10
1341.41903
 20
-706.0588199999997
 30
0.0
 40
64.0
  1
 
 41
0.9
100
AcDbText
  0
TEXT
  5
31C1
330
2A8E
100
AcDbEntity
  8
ETC
100
AcDbText
 10
18.97990914487036
 20
1045.611423012052
 30
0.0
 40
64.0
  1
システム部材
 41
0.9
100
AcDbText
  0
TEXT
  5
31C2
330
2A8E
100
AcDbEntity
  8
ETC
100
AcDbText
 10
25.1879071448684
 20
1146.494749012052
 30
0.0
 40
64.0
  1
W-40SDBFM_6
 41
0.9
100
AcDbText
  0
TEXT
  5
31C3
330
2A8E
100
AcDbEntity
  8
ETC
100
AcDbText
 10
18.97990914487036
 20
945.6114230120522
 30
0.0
 40
64.0
  1
W-40SDBFM
 41
0.9
100
AcDbText
  0
DIMENSION
  5
31C4
330
2A8E
100
AcDbEntity
  8
SIZE
100
AcDbDimension
  2
*D80
 10
-565.2535046713555
 20
-33.16345268313626
 30
0.0
 11
-349.2535046713556
 21
-33.16345268313626
 31
0.0
 70
   160
 71
     5
 42
432.0
  3
STANDARD
100
AcDbAlignedDimension
 13
-133.2535046713556
 23
118.9813202421132
 33
0.0
 14
-565.2535046713555
 24
118.9813202421132
 34
0.0
 50
180.0
100
AcDbRotatedDimension
1001
ACAD
1000
DSTYLE
1002
{
1070
    41
1040
12.0
1070
    42
1040
20.0
1070
    43
1040
200.0
1070
    44
1040
20.0
1070
    73
1070
     0
1070
    74
1070
     0
1070
    77
1070
     1
1070
    78
1070
     8
1070
   140
1040
64.0
1070
   147
1040
10.0
1070
   172
1070
     1
1070
   174
1070
     1
1070
   275
1070
     0
1070
   284
1070
     0
1070
   285
1070
     0
1070
   286
1070
     0
1070
   341
1005
2ADC
1070
     5
1000
DOTBLANK
1070
     6
1000
DOTBLANK
1070
     7
1000
ORIGIN
1002
}
  0
CIRCLE
  5
31C5
330
2A8E
100
AcDbEntity
  8
ARRANGE
100
AcDbCircle
 10
-349.2535046713556
 20
560.9813202421134
 30
0.0
 40
40.0
  0
LINE
  5
31C6
330
2A8E
100
AcDbEntity
  8
BASIS
100
AcDbLine
 10
-349.2535046713556
 20
585.9813202421126
 30
0.0
 11
-349.2535046713556
 21
93.98132024211326
 31
0.0
  0
POINT
  5
31C7
330
2A8E
100
AcDbEntity
  8
ARRANGE
100
AcDbPoint
 10
-349.2535046713556
 20
560.9813202421134
 30
0.0
 39
50.0
  0
LINE
  5
31CA
330
2A8E
100
AcDbEntity
  8
DETAIL
100
AcDbLine
 10
-549.6535046713569
 20
134.5813202421127
 30
0.0
 11
-549.6535046713569
 21
503.3813202421129
 31
0.0
  0
LINE
  5
31CB
330
2A8E
100
AcDbEntity
  8
DETAIL
100
AcDbLine
 10
-148.8535046713505
 20
134.5813202421127
 30
0.0
 11
-148.8535046713505
 21
503.3813202421129
 31
0.0
  0
LINE
  5
31CC
330
2A8E
100
AcDbEntity
  8
DETAIL
100
AcDbLine
 10
-565.2535046713555
 20
118.9813202421132
 30
0.0
 11
-565.2535046713555
 21
548.9813202421133
 31
0.0
  0
LINE
  5
31CD
330
2A8E
100
AcDbEntity
  8
DETAIL
100
AcDbLine
 10
-133.2535046713556
 20
118.9813202421132
 30
0.0
 11
-133.2535046713556
 21
548.9813202421133
 31
0.0
  0
LINE
  5
31CE
330
2A8E
100
AcDbEntity
  8
DETAIL
100
AcDbLine
 10
-549.6535046713569
 20
503.3813202421129
 30
0.0
 11
-148.8535046713505
 21
503.3813202421129
 31
0.0
  0
LINE
  5
31CF
330
2A8E
100
AcDbEntity
  8
DETAIL
100
AcDbLine
 10
-565.2535046713516
 20
518.9813202421134
 30
0.0
 11
-133.2535046713556
 21
518.9813202421134
 31
0.0
  0
LINE
  5
31D0
330
2A8E
100
AcDbEntity
  8
DETAIL
100
AcDbLine
 10
-599.2535046713554
 20
548.9813202421133
 30
0.0
 11
-99.25350467135558
 21
548.9813202421133
 31
0.0
  0
LINE
  5
31D1
330
2A8E
100
AcDbEntity
  8
DETAIL
100
AcDbLine
 10
-599.2535046713554
 20
560.9813202421134
 30
0.0
 11
-99.25350467135558
 21
560.9813202421134
 31
0.0
  0
LINE
  5
31D2
330
2A8E
100
AcDbEntity
  8
DETAIL
100
AcDbLine
 10
-565.2535046713555
 20
418.3813202421129
 30
0.0
 11
-565.2535046713555
 21
548.9813202421133
 31
0.0
  0
LINE
  5
31D3
330
2A8E
100
AcDbEntity
  8
DETAIL
100
AcDbLine
 10
-599.2535046713554
 20
548.9813202421133
 30
0.0
 11
-599.2535046713554
 21
560.9813202421134
 31
0.0
  0
LINE
  5
31D4
330
2A8E
100
AcDbEntity
  8
NOTE
100
AcDbLine
 10
-579.2535046713553
 20
573.4813202421133
 30
0.0
 11
-579.2535046713553
 21
548.4813202421134
 31
0.0
  0
LINE
  5
31D5
330
2A8E
100
AcDbEntity
  8
NOTE
100
AcDbLine
 10
-119.2535046713556
 20
548.4813202421134
 30
0.0
 11
-119.2535046713556
 21
573.4813202421133
 31
0.0
  0
LINE
  5
31D6
330
2A8E
100
AcDbEntity
  8
DETAIL
100
AcDbLine
 10
-99.25350467135558
 20
548.9813202421133
 30
0.0
 11
-99.25350467135558
 21
560.9813202421134
 31
0.0
  0
LINE
  5
31D7
330
2A8E
100
AcDbEntity
  8
DETAIL
100
AcDbLine
 10
-549.6535046713569
 20
134.5813202421127
 30
0.0
 11
-148.8535046713505
 21
134.5813202421127
 31
0.0
  0
LINE
  5
31D8
330
2A8E
100
AcDbEntity
  8
DETAIL
100
AcDbLine
 10
-565.2535046713555
 20
118.9813202421132
 30
0.0
 11
-133.2535046713556
 21
118.9813202421132
 31
0.0
  0
LINE
  5
31D9
330
2A8E
100
AcDbEntity
  8
DETAIL
100
AcDbLine
 10
-265.2535046713556
 20
118.9813202421132
 30
0.0
 11
-144.2535046713556
 21
118.9813202421132
 31
0.0
  0
LEADER
  5
31DA
330
2A8E
100
AcDbEntity
  8
NOTE
100
AcDbLeader
  3
STANDARD
 73
     0
 75
     1
 40
64.00000000000002
 41
483.8400000000001
 76
     3
 10
-579.2535046713553
 20
560.9813202421134
 30
0.0
 10
-667.1229046636097
 20
656.5084153001262
 30
0.0
 10
-679.1229046636098
 20
656.5084153001262
 30
0.0
340
31DB
213
0.0
223
32.0
233
0.0
1001
ACAD
1000
DSTYLE
1002
{
1070
    41
1040
12.0
1070
    42
1040
20.0
1070
    43
1040
200.0
1070
    44
1040
20.0
1070
    73
1070
     0
1070
    74
1070
     0
1070
    77
1070
     1
1070
    78
1070
     8
1070
   140
1040
64.0
1070
   147
1040
50.0
1070
   172
1070
     1
1070
   174
1070
     1
1070
   275
1070
     0
1070
   284
1070
     0
1070
   285
1070
     0
1070
   286
1070
     0
1070
   341
1005
2AE0
1070
   342
1005
2ADE
1002
}
  0
MTEXT
  5
31DB
102
{ACAD_REACTORS
330
31DA
102
}
330
2A8E
100
AcDbEntity
  8
NOTE
100
AcDbMText
 10
-729.1229046636098
 20
674.5084153001262
 30
0.0
 40
64.0
 41
0.0
 71
     9
 72
     1
  1
4×φ15取付穴
 73
     1
 44
1.0
  0
LINE
  5
31DC
330
2A8E
100
AcDbEntity
  8
NOTE
100
AcDbLine
 39
50.0
 10
-106.7535046713556
 20
560.9813202421134
 30
0.0
 11
-131.7535046713556
 21
560.9813202421134
 31
0.0
  0
LINE
  5
31DD
330
2A8E
100
AcDbEntity
  8
NOTE
100
AcDbLine
 39
50.0
 10
-566.7535046713553
 20
560.9813202421134
 30
0.0
 11
-591.7535046713553
 21
560.9813202421134
 31
0.0
  0
DIMENSION
  5
31DE
330
2A8E
100
AcDbEntity
  8
SIZE
100
AcDbDimension
  2
*D83
 10
-778.2382718047148
 20
118.9813202421133
 30
0.0
 11
-820.2382718047148
 21
339.9813202421132
 31
0.0
 70
    32
 71
     5
 42
442.0
  3
STANDARD$0
100
AcDbAlignedDimension
 13
-604.2535046713553
 23
560.9813202421134
 33
0.0
 14
-565.2535046713555
 24
118.9813202421132
 34
0.0
 50
90.0
100
AcDbRotatedDimension
  0
LINE
  5
31DF
330
2A8E
100
AcDbEntity
  8
OUTLINE
100
AcDbLine
 10
-565.2535046713555
 20
118.9813202421132
 30
0.0
 11
-565.2535046713555
 21
548.9813202421133
 31
0.0
  0
LINE
  5
31E0
330
2A8E
100
AcDbEntity
  8
OUTLINE
100
AcDbLine
 10
-133.2535046713556
 20
118.9813202421132
 30
0.0
 11
-133.2535046713556
 21
548.9813202421133
 31
0.0
  0
LINE
  5
31E1
330
2A8E
100
AcDbEntity
  8
OUTLINE
100
AcDbLine
 10
-565.2535046713516
 20
518.9813202421134
 30
0.0
 11
-133.2535046713556
 21
518.9813202421134
 31
0.0
  0
LINE
  5
31E2
330
2A8E
100
AcDbEntity
  8
OUTLINE
100
AcDbLine
 10
-599.2535046713554
 20
548.9813202421133
 30
0.0
 11
-99.25350467135558
 21
548.9813202421133
 31
0.0
  0
LINE
  5
31E3
330
2A8E
100
AcDbEntity
  8
OUTLINE
100
AcDbLine
 10
-565.2535046713555
 20
418.3813202421129
 30
0.0
 11
-565.2535046713555
 21
548.9813202421133
 31
0.0
  0
LINE
  5
31E4
330
2A8E
100
AcDbEntity
  8
OUTLINE
100
AcDbLine
 10
-565.2535046713555
 20
118.9813202421132
 30
0.0
 11
-133.2535046713556
 21
118.9813202421132
 31
0.0
  0
LINE
  5
31E5
330
2A8E
100
AcDbEntity
  8
OUTLINE
100
AcDbLine
 10
-265.2535046713556
 20
118.9813202421132
 30
0.0
 11
-144.2535046713556
 21
118.9813202421132
 31
0.0
  0
LINE
  5
31E6
330
2A8E
100
AcDbEntity
  8
OUTLINE
100
AcDbLine
 39
50.0
 10
-599.2535046713554
 20
548.9813202421133
 30
0.0
 11
-599.2535046713554
 21
560.9813202421134
 31
0.0
  0
LINE
  5
31E7
330
2A8E
100
AcDbEntity
  8
OUTLINE
100
AcDbLine
 39
50.0
 10
-599.2535046713554
 20
560.9813202421134
 30
0.0
 11
-99.25350467135558
 21
560.9813202421134
 31
0.0
  0
LINE
  5
31E8
330
2A8E
100
AcDbEntity
  8
OUTLINE
100
AcDbLine
 39
50.0
 10
-99.25350467135558
 20
560.9813202421134
 30
0.0
 11
-99.25350467135558
 21
548.9813202421133
 31
0.0
  0
LINE
  5
31E9
330
2A8E
100
AcDbEntity
  8
DETAIL
100
AcDbLine
 10
-549.6535046713569
 20
134.5813202421127
 30
0.0
 11
-549.6535046713569
 21
503.3813202421129
 31
0.0
  0
LINE
  5
31EA
330
2A8E
100
AcDbEntity
  8
DETAIL
100
AcDbLine
 10
-148.8535046713505
 20
134.5813202421127
 30
0.0
 11
-148.8535046713505
 21
503.3813202421129
 31
0.0
  0
LINE
  5
31EB
330
2A8E
100
AcDbEntity
  8
DETAIL
100
AcDbLine
 10
-549.6535046713569
 20
503.3813202421129
 30
0.0
 11
-148.8535046713505
 21
503.3813202421129
 31
0.0
  0
LINE
  5
31EC
330
2A8E
100
AcDbEntity
  8
DETAIL
100
AcDbLine
 10
-549.6535046713569
 20
134.5813202421127
 30
0.0
 11
-148.8535046713505
 21
134.5813202421127
 31
0.0
  0
LINE
  5
31ED
330
2A8E
100
AcDbEntity
  8
DETAIL
100
AcDbLine
 10
-148.8535046713505
 20
134.5813202421118
 30
0.0
 11
-148.8535046713505
 21
503.3813202421129
 31
0.0
  0
LINE
  5
31EE
330
2A8E
100
AcDbEntity
  8
DETAIL
100
AcDbLine
 10
-549.6535046713497
 20
134.5813202421118
 30
0.0
 11
-549.6535046713497
 21
503.381320242112
 31
0.0
  0
LINE
  5
31EF
330
2A8E
100
AcDbEntity
  8
DETAIL
100
AcDbLine
 10
-549.6535046713497
 20
503.381320242112
 30
0.0
 11
-148.8535046713505
 21
503.3813202421129
 31
0.0
  0
LINE
  5
31F0
330
2A8E
100
AcDbEntity
  8
DETAIL
100
AcDbLine
 10
-549.6535046713497
 20
134.5813202421118
 30
0.0
 11
-148.8535046713505
 21
134.5813202421118
 31
0.0
  0
HATCH
  5
31F1
102
{ACAD_XDICTIONARY
360
31F2
102
}
330
2A8E
100
AcDbEntity
  8
DETAIL @ 1
100
AcDbHatch
 10
0.0
 20
0.0
 30
0.0
210
0.0
220
0.0
230
1.0
  2
LINE
 70
     0
 71
     0
 91
        2
 92
        7
 72
     0
 73
     1
 93
        6
 10
-364.6535046713498
 20
503.3813202421129
 10
-549.6535046713497
 20
503.381320242112
 10
-549.6535046713423
 20
134.5813202421118
 10
-148.8535046713468
 20
134.5813202421118
 10
-148.8535046713468
 20
309.5813202421127
 10
-364.6535046713498
 20
309.5813202421127
 97
        0
 92
       23
 72
     0
 73
     1
 93
        4
 10
-148.8535046713505
 20
503.3813202421129
 10
-364.6535046713498
 20
503.3813202421129
 10
-364.6535046713498
 20
309.5813202421118
 10
-148.8535046713505
 20
309.5813202421118
 97
        0
 75
     0
 76
     1
 52
33.69
 41
19.969
 77
     0
 78
     1
 53
33.69
 43
19404.29666827827
 44
3978.149435694999
 45
-1.384598579568018
 46
2.076903172775085
 79
     0
 47
0.9703301130971906
 98
        2
 10
-469.6334528253673
 20
446.1585512116376
 10
-218.2701957863019
 20
384.6598987578896
1001
ACAD
1010
0.0
1020
0.0
1030
0.0
1001
ACADANNOTATIVE
1000
AnnotativeData
1002
{
1070
     1
1070
     0
1002
}
  0
HATCH
  5
31F7
102
{ACAD_XDICTIONARY
360
31F8
102
}
330
2A8E
100
AcDbEntity
  8
DETAIL @ 1
100
AcDbHatch
 10
0.0
 20
0.0
 30
0.0
210
0.0
220
0.0
230
1.0
  2
LINE
 70
     0
 71
     0
 91
        2
 92
        7
 72
     0
 73
     1
 93
        6
 10
-364.6535046713498
 20
503.381320242112
 10
-549.6535046713497
 20
503.3813202421111
 10
-549.6535046713497
 20
134.5813202421118
 10
-148.8535046713468
 20
134.5813202421118
 10
-148.8535046713468
 20
309.5813202421127
 10
-364.6535046713498
 20
309.5813202421127
 97
        0
 92
        7
 72
     0
 73
     1
 93
        4
 10
-364.6535046713534
 20
503.381320242112
 10
-364.6535046713498
 20
309.5813202421118
 10
-148.8535046713505
 20
309.5813202421118
 10
-148.8535046713468
 20
503.3813202421129
 97
        0
 75
     0
 76
     1
 52
326.31
 41
19.969
 77
     0
 78
     1
 53
326.31
 43
19404.29666827827
 44
3978.149435694999
 45
1.384598579568018
 46
2.076903172775085
 79
     0
 47
0.9893960273053558
 98
        2
 10
-455.5500252798256
 20
436.1985154418958
 10
-253.2754864386652
 20
458.0119972138693
1001
ACAD
1010
0.0
1020
0.0
1030
0.0
1001
ACADANNOTATIVE
1000
AnnotativeData
1002
{
1070
     1
1070
     0
1002
}
  0
LINE
  5
31FD
330
2A8E
100
AcDbEntity
  8
DETAIL
100
AcDbLine
 10
-148.8535046713505
 20
134.5813202421118
 30
0.0
 11
-148.8535046713505
 21
503.3813202421129
 31
0.0
  0
LINE
  5
31FE
330
2A8E
100
AcDbEntity
  8
DETAIL
100
AcDbLine
 10
-549.6535046713461
 20
134.5813202421118
 30
0.0
 11
-549.6535046713461
 21
503.381320242112
 31
0.0
  0
LINE
  5
31FF
330
2A8E
100
AcDbEntity
  8
DETAIL
100
AcDbLine
 10
-549.6535046713461
 20
503.381320242112
 30
0.0
 11
-148.8535046713505
 21
503.3813202421129
 31
0.0
  0
LINE
  5
3200
330
2A8E
100
AcDbEntity
  8
DETAIL
100
AcDbLine
 10
-549.6535046713461
 20
134.5813202421118
 30
0.0
 11
-148.8535046713505
 21
134.5813202421118
 31
0.0
  0
LINE
  5
3201
330
2A8E
100
AcDbEntity
  8
DETAIL
100
AcDbLine
 10
-148.8535046713505
 20
134.5813202421118
 30
0.0
 11
-148.8535046713505
 21
503.3813202421129
 31
0.0
  0
LINE
  5
3202
330
2A8E
100
AcDbEntity
  8
DETAIL
100
AcDbLine
 10
-549.6535046713461
 20
134.5813202421118
 30
0.0
 11
-549.6535046713461
 21
503.381320242112
 31
0.0
  0
LINE
  5
3203
330
2A8E
100
AcDbEntity
  8
DETAIL
100
AcDbLine
 10
-549.6535046713461
 20
503.381320242112
 30
0.0
 11
-148.8535046713505
 21
503.3813202421129
 31
0.0
  0
LINE
  5
3204
330
2A8E
100
AcDbEntity
  8
DETAIL
100
AcDbLine
 10
-549.6535046713461
 20
134.5813202421118
 30
0.0
 11
-148.8535046713505
 21
134.5813202421118
 31
0.0
  0
LINE
  5
33B5
330
2A8E
100
AcDbEntity
  8
SIZE
100
AcDbLine
 10
-119.2535046713556
 20
593.4813202421132
 30
0.0
 11
-119.2535046713556
 21
741.31341125173
 31
0.0
  0
LINE
  5
33D6
330
2A8E
100
AcDbEntity
  8
SIZE
100
AcDbLine
 10
-119.2535046713556
 20
593.4813202421132
 30
0.0
 11
-119.2535046713556
 21
741.3134112517305
 31
0.0
  0
LINE
  5
33D7
330
2A8E
100
AcDbEntity
  8
SIZE
100
AcDbLine
 10
-579.2535046713555
 20
593.4813202421132
 30
0.0
 11
-579.2535046713555
 21
741.3134112517305
 31
0.0
  0
LINE
  5
33D8
330
2A8E
100
AcDbEntity
  8
SIZE
100
AcDbLine
 10
-131.2535046713555
 20
721.3134112517304
 30
0.0
 11
-567.2535046713555
 21
721.3134112517304
 31
0.0
  0
INSERT
  5
33D9
330
2A8E
100
AcDbEntity
  8
SIZE
100
AcDbBlockReference
  2
_DOTBLANK
 10
-119.2535046713556
 20
721.3134112517304
 30
0.0
 41
12.0
 42
12.0
 43
12.0
  0
INSERT
  5
33DA
330
2A8E
100
AcDbEntity
  8
SIZE
100
AcDbBlockReference
  2
_DOTBLANK
 10
-579.2535046713555
 20
721.3134112517304
 30
0.0
 41
12.0
 42
12.0
 43
12.0
 50
180.0
  0
MTEXT
  5
33DB
330
2A8E
100
AcDbEntity
  8
SIZE
100
AcDbMText
 10
-349.8093823053449
 20
763.3134112517304
 30
0.0
 40
64.0
 41
0.0
 71
     5
 72
     1
  1
\A1;460
 73
     1
 44
1.0
  0
LINE
  5
33DC
330
2A8E
100
AcDbEntity
  8
SIZE
100
AcDbLine
 10
-99.25350467135558
 20
580.9813202421132
 30
0.0
 11
-99.25350467135558
 21
859.8679131786301
 31
0.0
  0
LINE
  5
33DD
330
2A8E
100
AcDbEntity
  8
SIZE
100
AcDbLine
 10
-599.2535046713552
 20
580.9813202421132
 30
0.0
 11
-599.2535046713552
 21
859.8679131786301
 31
0.0
  0
LINE
  5
33DE
330
2A8E
100
AcDbEntity
  8
SIZE
100
AcDbLine
 10
-111.2535046713556
 20
839.8679131786302
 30
0.0
 11
-587.2535046713555
 21
839.8679131786302
 31
0.0
  0
INSERT
  5
33DF
330
2A8E
100
AcDbEntity
  8
SIZE
100
AcDbBlockReference
  2
_DOTBLANK
 10
-99.25350467135558
 20
839.8679131786302
 30
0.0
 41
12.0
 42
12.0
 43
12.0
  0
INSERT
  5
33E0
330
2A8E
100
AcDbEntity
  8
SIZE
100
AcDbBlockReference
  2
_DOTBLANK
 10
-599.2535046713552
 20
839.8679131786302
 30
0.0
 41
12.0
 42
12.0
 43
12.0
 50
180.0
  0
MTEXT
  5
33E1
330
2A8E
100
AcDbEntity
  8
SIZE
100
AcDbMText
 10
-349.2535046713519
 20
881.8679131786302
 30
0.0
 40
64.0
 41
0.0
 71
     5
 72
     1
  1
\A1;500
 73
     1
 44
1.0
  0
LINE
  5
33E2
330
2A8E
100
AcDbEntity
  8
SIZE
100
AcDbLine
 10
-79.25350467135558
 20
560.9813202421133
 30
0.0
 11
20.01541620096487
 21
560.9813202421133
 31
0.0
  0
LINE
  5
33E3
330
2A8E
100
AcDbEntity
  8
SIZE
100
AcDbLine
 10
-79.25350467135558
 20
548.9813202421133
 30
0.0
 11
20.01541620096487
 21
548.9813202421133
 31
0.0
  0
LINE
  5
33E4
330
2A8E
100
AcDbEntity
  8
SIZE
100
AcDbLine
 10
0.0154162009648644
 20
572.9813202421133
 30
0.0
 11
0.0154162009648644
 21
584.9813202421132
 31
0.0
  0
LINE
  5
33E5
330
2A8E
100
AcDbEntity
  8
SIZE
100
AcDbLine
 10
0.0154162009648644
 20
536.9813202421132
 30
0.0
 11
0.0154162009648644
 21
419.9527488135418
 31
0.0
  0
INSERT
  5
33E6
330
2A8E
100
AcDbEntity
  8
SIZE
100
AcDbBlockReference
  2
_DOTBLANK
 10
0.0154162009648644
 20
560.9813202421133
 30
0.0
 41
12.0
 42
12.0
 43
12.0
 50
270.0
  0
INSERT
  5
33E7
330
2A8E
100
AcDbEntity
  8
SIZE
100
AcDbBlockReference
  2
_DOTBLANK
 10
0.0154162009648644
 20
548.9813202421133
 30
0.0
 41
12.0
 42
12.0
 43
12.0
 50
90.0
  0
MTEXT
  5
33E8
330
2A8E
100
AcDbEntity
  8
SIZE
100
AcDbMText
 10
-41.98458379903513
 20
472.4670345278245
 30
0.0
 40
64.0
 41
0.0
 71
     5
 72
     1
  1
\A1;12
 11
0.0000000000000001
 21
1.0
 31
0.0
 73
     1
 44
1.0
  0
ENDSEC
  0
SECTION
  2
OBJECTS
  0
DICTIONARY
  5
2A26
330
0
100
AcDbDictionary
281
     1
  3
ACAD_2007HEADERVARS_RT
350
33F0
  3
ACAD_COLOR
350
2A84
  3
ACAD_GROUP
350
2A27
  3
ACAD_LAYOUT
350
2A83
  3
ACAD_MATERIAL
350
2A2A
  3
ACAD_MLEADERSTYLE
350
2A87
  3
ACAD_MLINESTYLE
350
2A80
  3
ACAD_PLOTSETTINGS
350
2A82
  3
ACAD_PLOTSTYLENAME
350
2A28
  3
ACAD_SCALELIST
350
2A54
  3
ACAD_TABLESTYLE
350
2A85
  3
ACAD_VISUALSTYLE
350
2A43
  3
ACDB_RECOMPOSE_DATA
350
2C71
  3
AcDbVariableDictionary
350
2C68
  3
AcmDictionary
350
2C1B
  3
AcmSystemVariableManager
350
33F6
  3
AMG
350
2B68
  3
AMGSNAPSETTINGS
350
2D62
  0
DICTIONARY
  5
2D6B
330
2A1C
100
AcDbDictionary
280
     1
281
     1
  3
ACAD_LAYERSTATES
360
2D6C
  0
DICTIONARY
  5
2C43
330
2A76
100
AcDbDictionary
280
     1
281
     1
  3
ADSK_XREC_LAYER_RECONCILED
360
2C44
  0
DICTIONARY
  5
2C45
330
2AA5
100
AcDbDictionary
280
     1
281
     1
  3
ADSK_XREC_LAYER_RECONCILED
360
2C46
  0
DICTIONARY
  5
2C47
330
2AA6
100
AcDbDictionary
280
     1
281
     1
  3
ADSK_XREC_LAYER_RECONCILED
360
2C48
  0
DICTIONARY
  5
2C49
330
2AA7
100
AcDbDictionary
280
     1
281
     1
  3
ADSK_XREC_LAYER_RECONCILED
360
2C4A
  0
DICTIONARY
  5
2C4B
330
2AA8
100
AcDbDictionary
280
     1
281
     1
  3
ADSK_XREC_LAYER_RECONCILED
360
2C4C
  0
DICTIONARY
  5
2C4D
330
2AA9
100
AcDbDictionary
280
     1
281
     1
  3
ADSK_XREC_LAYER_RECONCILED
360
2C4E
  0
DICTIONARY
  5
2C4F
330
2AAB
100
AcDbDictionary
280
     1
281
     1
  3
ADSK_XREC_LAYER_RECONCILED
360
2C50
  0
DICTIONARY
  5
2C51
330
2AAC
100
AcDbDictionary
280
     1
281
     1
  3
ADSK_XREC_LAYER_RECONCILED
360
2C52
  0
DICTIONARY
  5
2C53
330
2AAD
100
AcDbDictionary
280
     1
281
     1
  3
ADSK_XREC_LAYER_RECONCILED
360
2C54
  0
DICTIONARY
  5
2C55
330
2AAE
100
AcDbDictionary
280
     1
281
     1
  3
ADSK_XREC_LAYER_RECONCILED
360
2C56
  0
DICTIONARY
  5
2C57
330
2AAF
100
AcDbDictionary
280
     1
281
     1
  3
ADSK_XREC_LAYER_RECONCILED
360
2C58
  0
DICTIONARY
  5
33EE
330
33ED
100
AcDbDictionary
280
     1
281
     1
  3
ASDK_XREC_ANNO_SCALE_INFO
360
33EF
  0
DICTIONARY
  5
2C59
330
2A8E
100
AcDbDictionary
280
     1
281
     1
  3
ACAD_INDEX
360
2C5A
  3
ACAD_SORTENTS
360
33BC
  0
DICTIONARY
  5
31F2
330
31F1
100
AcDbDictionary
280
     1
281
     1
  3
AcDbContextDataManager
360
31F3
  0
DICTIONARY
  5
31F8
330
31F7
100
AcDbDictionary
280
     1
281
     1
  3
AcDbContextDataManager
360
31F9
  0
DICTIONARY
  5
33F0
102
{ACAD_REACTORS
330
2A26
102
}
330
2A26
100
AcDbDictionary
281
     1
  3
DIMARCSYM
350
33F1
  3
DIMLTEX1
350
33F3
  3
DIMLTEX2
350
33F4
  3
DIMLTYPE
350
33F2
  0
DICTIONARY
  5
2A84
102
{ACAD_REACTORS
330
2A26
102
}
330
2A26
100
AcDbDictionary
281
     1
  0
DICTIONARY
  5
2A27
102
{ACAD_REACTORS
330
2A26
102
}
330
2A26
100
AcDbDictionary
281
     1
  0
DICTIONARY
  5
2A83
102
{ACAD_REACTORS
330
2A26
102
}
330
2A26
100
AcDbDictionary
281
     1
  3
Model
350
2A91
  3
レイアウト1
350
2A8D
  0
DICTIONARY
  5
2A2A
102
{ACAD_REACTORS
330
2A26
102
}
330
2A26
100
AcDbDictionary
281
     1
  3
ByBlock
350
2A33
  3
ByLayer
350
2A2B
  3
Global
350
2A3B
  0
DICTIONARY
  5
2A87
102
{ACAD_REACTORS
330
2A26
102
}
330
2A26
100
AcDbDictionary
281
     1
  3
Standard
350
2A88
  0
DICTIONARY
  5
2A80
102
{ACAD_REACTORS
330
2A26
102
}
330
2A26
100
AcDbDictionary
281
     1
  3
Standard
350
2A81
  0
DICTIONARY
  5
2A82
102
{ACAD_REACTORS
330
2A26
102
}
330
2A26
100
AcDbDictionary
281
     1
  0
ACDBDICTIONARYWDFLT
  5
2A28
102
{ACAD_REACTORS
330
2A26
102
}
330
2A26
100
AcDbDictionary
281
     1
  3
Normal
350
2A29
100
AcDbDictionaryWithDefault
340
2A29
  0
DICTIONARY
  5
2A54
102
{ACAD_REACTORS
330
2A26
102
}
330
2A26
100
AcDbDictionary
281
     1
  3
A0
350
2A55
  3
A1
350
2A56
  3
A2
350
2A57
  3
A3
350
2A58
  3
A4
350
2A59
  3
A5
350
2A5A
  3
A6
350
2A5B
  3
A7
350
2A5C
  3
A8
350
2A5D
  3
A9
350
2A5E
  3
B0
350
2A5F
  3
B1
350
2A60
  3
B2
350
2A61
  3
B3
350
2A62
  3
B4
350
2A63
  3
B5
350
2A64
  3
B6
350
2A65
  3
B7
350
2A66
  3
B8
350
2A67
  3
B9
350
2A68
  3
C0
350
2A69
  3
C1
350
2A6A
  3
C2
350
2A6B
  3
C3
350
2A6C
  3
C4
350
2A6D
  3
C5
350
2A6E
  3
C6
350
2A6F
  3
C7
350
2A70
  3
C8
350
2A71
  3
C9
350
2A72
  3
D0
350
2A73
  3
D1
350
2A74
  3
D2
350
2A75
  0
DICTIONARY
  5
2A85
102
{ACAD_REACTORS
330
2A26
102
}
330
2A26
100
AcDbDictionary
281
     1
  3
Standard
350
2A86
  0
DICTIONARY
  5
2A43
102
{ACAD_REACTORS
330
2A26
102
}
330
2A26
100
AcDbDictionary
281
     1
  3
2dWireframe
350
2A49
  3
3D Hidden
350
2A4B
  3
3dWireframe
350
2A4A
  3
Basic
350
2A48
  3
Brighten
350
2A4F
  3
ColorChange
350
2A53
  3
Conceptual
350
2A4C
  3
Dim
350
2A4E
  3
Facepattern
350
2A52
  3
Flat
350
2A44
  3
FlatWithEdges
350
2A45
  3
Gouraud
350
2A46
  3
GouraudWithEdges
350
2A47
  3
Linepattern
350
2A51
  3
Realistic
350
2A4D
  3
Thicken
350
2A50
  0
XRECORD
  5
2C71
102
{ACAD_REACTORS
330
2A26
102
}
330
2A26
100
AcDbXrecord
280
     1
 90
        1
330
2A86
330
31F1
330
31F7
  0
DICTIONARY
  5
2C68
102
{ACAD_REACTORS
330
2A26
102
}
330
2A26
100
AcDbDictionary
281
     1
  3
CANNOSCALE
350
2C6B
  3
CMLEADERSTYLE
350
2C6A
  3
CTABLESTYLE
350
2C69
  3
DIMASSOC
350
2C6E
  3
INDEXCTL
350
2C6D
  3
LAYEREVAL
350
2F74
  3
LAYERNOTIFY
350
2F75
  3
LIGHTINGUNITS
350
2F73
  3
LOFTANG1
350
33E9
  3
LOFTANG2
350
33EA
  3
LONGITUDE
350
33EB
  3
MSLTSCALE
350
2F72
  3
SORTENTS
350
2C6C
  0
DICTIONARY
  5
2C1B
102
{ACAD_REACTORS
330
2A26
102
}
330
2A26
100
AcDbDictionary
281
     1
  3
AcmStdDictionary
350
2C29
  0
DICTIONARY
  5
2B68
102
{ACAD_REACTORS
330
2A26
102
}
330
2A26
100
AcDbDictionary
281
     1
  0
DICTIONARY
  5
2D62
102
{ACAD_REACTORS
330
2A26
102
}
330
2A26
100
AcDbDictionary
281
     1
  0
DICTIONARY
  5
2D6C
102
{ACAD_REACTORS
330
2D6B
102
}
330
2D6B
100
AcDbDictionary
281
     1
  0
XRECORD
  5
2C44
102
{ACAD_REACTORS
330
2C43
102
}
330
2C43
100
AcDbXrecord
280
     1
290
     1
  0
XRECORD
  5
2C46
102
{ACAD_REACTORS
330
2C45
102
}
330
2C45
100
AcDbXrecord
280
     1
290
     1
  0
XRECORD
  5
2C48
102
{ACAD_REACTORS
330
2C47
102
}
330
2C47
100
AcDbXrecord
280
     1
290
     1
  0
XRECORD
  5
2C4A
102
{ACAD_REACTORS
330
2C49
102
}
330
2C49
100
AcDbXrecord
280
     1
290
     1
  0
XRECORD
  5
2C4C
102
{ACAD_REACTORS
330
2C4B
102
}
330
2C4B
100
AcDbXrecord
280
     1
290
     1
  0
XRECORD
  5
2C4E
102
{ACAD_REACTORS
330
2C4D
102
}
330
2C4D
100
AcDbXrecord
280
     1
290
     1
  0
XRECORD
  5
2C50
102
{ACAD_REACTORS
330
2C4F
102
}
330
2C4F
100
AcDbXrecord
280
     1
290
     1
  0
XRECORD
  5
2C52
102
{ACAD_REACTORS
330
2C51
102
}
330
2C51
100
AcDbXrecord
280
     1
290
     1
  0
XRECORD
  5
2C54
102
{ACAD_REACTORS
330
2C53
102
}
330
2C53
100
AcDbXrecord
280
     1
290
     1
  0
XRECORD
  5
2C56
102
{ACAD_REACTORS
330
2C55
102
}
330
2C55
100
AcDbXrecord
280
     1
290
     1
  0
XRECORD
  5
2C58
102
{ACAD_REACTORS
330
2C57
102
}
330
2C57
100
AcDbXrecord
280
     1
290
     1
  0
XRECORD
  5
33EF
102
{ACAD_REACTORS
330
33EE
102
}
330
33EE
100
AcDbXrecord
280
     1
 70
     1
340
2A55
340
2AA8
 70
    -1
  0
DICTIONARY
  5
2C5A
102
{ACAD_REACTORS
330
2C59
102
}
330
2C59
100
AcDbDictionary
281
     1
  3
*A1
350
2C5B
  0
SORTENTSTABLE
  5
33BC
102
{ACAD_REACTORS
330
2C59
102
}
330
2C59
100
AcDbSortentsTable
330
2A8E
331
31E2
  5
31E9
331
31C4
  5
31C4
331
33B5
  5
31C9
331
31E3
  5
31EA
331
31C5
  5
31C5
331
31E4
  5
31EB
331
31C6
  5
31C6
331
31E5
  5
31EC
331
31D8
  5
31DF
331
31C7
  5
31C7
331
31F7
  5
3203
331
31E6
  5
31ED
331
31D9
  5
31E0
331
31E7
  5
31EE
331
31DA
  5
31E1
331
31E8
  5
31EF
331
31DB
  5
31E2
331
31CA
  5
31D1
331
31E9
  5
31F0
331
31D0
  5
31D7
331
31DC
  5
31E3
331
31CB
  5
31D2
331
31EA
  5
31F1
331
31D1
  5
31D8
331
31DD
  5
31E4
331
31CC
  5
31D3
331
31EB
  5
31F7
331
31D2
  5
31D9
331
31DE
  5
31E5
331
31CD
  5
31D4
331
31FD
  5
3204
331
31EC
  5
31FD
331
31D3
  5
31DA
331
31DF
  5
31E6
331
31CE
  5
31D5
331
3200
  5
33B6
331
31FE
  5
3205
331
31ED
  5
31FE
331
31D4
  5
31DB
331
31CF
  5
31D6
331
953
  5
953
331
3201
  5
33B7
331
31FF
  5
33B5
331
31EE
  5
31FF
331
31D5
  5
31DC
331
954
  5
954
331
3202
  5
33B8
331
31EF
  5
3200
331
31D6
  5
31DD
331
955
  5
955
331
3203
  5
33B9
331
31C1
  5
31C1
331
31F0
  5
3201
331
31D7
  5
31DE
331
956
  5
956
331
3204
  5
33BA
331
31C2
  5
31C2
331
31F1
  5
3202
331
31E0
  5
31E7
331
957
  5
957
331
31C3
  5
31C3
331
31E1
  5
31E8
331
958
  5
958
  0
DICTIONARY
  5
31F3
102
{ACAD_REACTORS
330
31F2
102
}
330
31F2
100
AcDbDictionary
281
     1
  3
ACDB_ANNOTATIONSCALE_VIEW_COLLECTION
350
31F4
  3
ACDB_ANNOTATIONSCALES
350
31F5
  0
DICTIONARY
  5
31F9
102
{ACAD_REACTORS
330
31F8
102
}
330
31F8
100
AcDbDictionary
281
     1
  3
ACDB_ANNOTATIONSCALE_VIEW_COLLECTION
350
31FA
  3
ACDB_ANNOTATIONSCALES
350
31FB
  0
XRECORD
  5
33F1
102
{ACAD_REACTORS
330
33F0
102
}
330
33F0
100
AcDbXrecord
280
     1
 70
     1
  0
XRECORD
  5
33F3
102
{ACAD_REACTORS
330
33F0
102
}
330
33F0
100
AcDbXrecord
280
     1
340
2A7C
  0
XRECORD
  5
33F4
102
{ACAD_REACTORS
330
33F0
102
}
330
33F0
100
AcDbXrecord
280
     1
340
2A7C
  0
XRECORD
  5
33F2
102
{ACAD_REACTORS
330
33F0
102
}
330
33F0
100
AcDbXrecord
280
     1
340
2A7C
  0
LAYOUT
  5
2A91
102
{ACAD_REACTORS
330
2A83
102
}
330
2A83
100
AcDbPlotSettings
  1

  2
自動 EPSON LP-9600S (W2450527 上)
  4

  6

 40
0.0
 41
0.0
 42
0.0
 43
0.0
 44
0.0
 45
0.0
 46
0.0
 47
0.0
 48
0.0
 49
0.0
140
0.0
141
0.0
142
1.0
143
1.0
 70
  1712
 72
     0
 73
     0
 74
     0
  7

 75
     0
147
1.0
 76
     0
 77
     2
 78
   300
148
0.0
149
0.0
100
AcDbLayout
  1
Model
 70
     1
 71
     0
 10
0.0
 20
0.0
 11
12.0
 21
9.0
 12
0.0
 22
0.0
 32
0.0
 14
0.0
 24
0.0
 34
0.0
 15
0.0
 25
0.0
 35
0.0
146
0.0
 13
0.0
 23
0.0
 33
0.0
 16
1.0
 26
0.0
 36
0.0
 17
0.0
 27
1.0
 37
0.0
 76
     0
330
2A8E
331
2A92
  0
LAYOUT
  5
2A8D
102
{ACAD_REACTORS
330
2A83
102
}
330
2A83
100
AcDbPlotSettings
  1

  2
自動 EPSON LP-9600S (W2450527 上)
  4

  6

 40
0.0
 41
0.0
 42
0.0
 43
0.0
 44
0.0
 45
0.0
 46
0.0
 47
0.0
 48
0.0
 49
0.0
140
0.0
141
0.0
142
1.0
143
1.0
 70
   688
 72
     0
 73
     0
 74
     5
  7

 75
    16
147
1.0
 76
     0
 77
     2
 78
   300
148
0.0
149
0.0
100
AcDbLayout
  1
レイアウト1
 70
     1
 71
     1
 10
0.0
 20
0.0
 11
12.0
 21
9.0
 12
0.0
 22
0.0
 32
0.0
 14
1.000000000000000E+20
 24
1.000000000000000E+20
 34
1.000000000000000E+20
 15
-1.000000000000000E+20
 25
-1.000000000000000E+20
 35
-1.000000000000000E+20
146
0.0
 13
0.0
 23
0.0
 33
0.0
 16
1.0
 26
0.0
 36
0.0
 17
0.0
 27
1.0
 37
0.0
 76
     0
330
2A8A
  0
MATERIAL
  5
2A33
102
{ACAD_XDICTIONARY
360
2A34
102
}
102
{ACAD_REACTORS
330
2A2A
102
}
330
2A2A
100
AcDbMaterial
  1
ByBlock
 72
     0
 43
0.0208333333333333
 43
0.0
 43
0.0
 43
0.0
 43
0.0
 43
0.0208333333333333
 43
0.0
 43
0.0
 43
0.0
 43
0.0
 43
1.0
 43
0.0
 43
0.0
 43
0.0
 43
0.0
 43
1.0
 77
     0
 47
0.0208333333333333
 47
0.0
 47
0.0
 47
0.0
 47
0.0
 47
0.0208333333333333
 47
0.0
 47
0.0
 47
0.0
 47
0.0
 47
1.0
 47
0.0
 47
0.0
 47
0.0
 47
0.0
 47
1.0
171
     0
 49
0.0208333333333333
 49
0.0
 49
0.0
 49
0.0
 49
0.0
 49
0.0208333333333333
 49
0.0
 49
0.0
 49
0.0
 49
0.0
 49
1.0
 49
0.0
 49
0.0
 49
0.0
 49
0.0
 49
1.0
175
     0
142
0.0208333333333333
142
0.0
142
0.0
142
0.0
142
0.0
142
0.0208333333333333
142
0.0
142
0.0
142
0.0
142
0.0
142
1.0
142
0.0
142
0.0
142
0.0
142
0.0
142
1.0
179
     0
144
0.0208333333333333
144
0.0
144
0.0
144
0.0
144
0.0
144
0.0208333333333333
144
0.0
144
0.0
144
0.0
144
0.0
144
1.0
144
0.0
144
0.0
144
0.0
144
0.0
144
1.0
147
0.0208333333333333
147
0.0
147
0.0
147
0.0
147
0.0
147
0.0208333333333333
147
0.0
147
0.0
147
0.0
147
0.0
147
1.0
147
0.0
147
0.0
147
0.0
147
0.0
147
1.0
  0
MATERIAL
  5
2A2B
102
{ACAD_XDICTIONARY
360
2A2C
102
}
102
{ACAD_REACTORS
330
2A2A
102
}
330
2A2A
100
AcDbMaterial
  1
ByLayer
 72
     0
 43
0.0208333333333333
 43
0.0
 43
0.0
 43
0.0
 43
0.0
 43
0.0208333333333333
 43
0.0
 43
0.0
 43
0.0
 43
0.0
 43
1.0
 43
0.0
 43
0.0
 43
0.0
 43
0.0
 43
1.0
 77
     0
 47
0.0208333333333333
 47
0.0
 47
0.0
 47
0.0
 47
0.0
 47
0.0208333333333333
 47
0.0
 47
0.0
 47
0.0
 47
0.0
 47
1.0
 47
0.0
 47
0.0
 47
0.0
 47
0.0
 47
1.0
171
     0
 49
0.0208333333333333
 49
0.0
 49
0.0
 49
0.0
 49
0.0
 49
0.0208333333333333
 49
0.0
 49
0.0
 49
0.0
 49
0.0
 49
1.0
 49
0.0
 49
0.0
 49
0.0
 49
0.0
 49
1.0
175
     0
142
0.0208333333333333
142
0.0
142
0.0
142
0.0
142
0.0
142
0.0208333333333333
142
0.0
142
0.0
142
0.0
142
0.0
142
1.0
142
0.0
142
0.0
142
0.0
142
0.0
142
1.0
179
     0
144
0.0208333333333333
144
0.0
144
0.0
144
0.0
144
0.0
144
0.0208333333333333
144
0.0
144
0.0
144
0.0
144
0.0
144
1.0
144
0.0
144
0.0
144
0.0
144
0.0
144
1.0
147
0.0208333333333333
147
0.0
147
0.0
147
0.0
147
0.0
147
0.0208333333333333
147
0.0
147
0.0
147
0.0
147
0.0
147
1.0
147
0.0
147
0.0
147
0.0
147
0.0
147
1.0
  0
MATERIAL
  5
2A3B
102
{ACAD_XDICTIONARY
360
2A3C
102
}
102
{ACAD_REACTORS
330
2A2A
102
}
330
2A2A
100
AcDbMaterial
  1
Global
 72
     0
 43
0.0208333333333333
 43
0.0
 43
0.0
 43
0.0
 43
0.0
 43
0.0208333333333333
 43
0.0
 43
0.0
 43
0.0
 43
0.0
 43
1.0
 43
0.0
 43
0.0
 43
0.0
 43
0.0
 43
1.0
 77
     0
 47
0.0208333333333333
 47
0.0
 47
0.0
 47
0.0
 47
0.0
 47
0.0208333333333333
 47
0.0
 47
0.0
 47
0.0
 47
0.0
 47
1.0
 47
0.0
 47
0.0
 47
0.0
 47
0.0
 47
1.0
171
     0
 49
0.0208333333333333
 49
0.0
 49
0.0
 49
0.0
 49
0.0
 49
0.0208333333333333
 49
0.0
 49
0.0
 49
0.0
 49
0.0
 49
1.0
 49
0.0
 49
0.0
 49
0.0
 49
0.0
 49
1.0
175
     0
142
0.0208333333333333
142
0.0
142
0.0
142
0.0
142
0.0
142
0.0208333333333333
142
0.0
142
0.0
142
0.0
142
0.0
142
1.0
142
0.0
142
0.0
142
0.0
142
0.0
142
1.0
179
     0
144
0.0208333333333333
144
0.0
144
0.0
144
0.0
144
0.0
144
0.0208333333333333
144
0.0
144
0.0
144
0.0
144
0.0
144
1.0
144
0.0
144
0.0
144
0.0
144
0.0
144
1.0
147
0.0208333333333333
147
0.0
147
0.0
147
0.0
147
0.0
147
0.0208333333333333
147
0.0
147
0.0
147
0.0
147
0.0
147
1.0
147
0.0
147
0.0
147
0.0
147
0.0
147
1.0
  0
MLEADERSTYLE
  5
2A88
102
{ACAD_REACTORS
330
2A87
102
}
330
2A87
100
AcDbMLeaderStyle
170
     2
171
     1
172
     0
 90
        2
 40
0.0
 41
0.0
173
     1
 91
-1056964608
340
2A7C
 92
       -2
290
     1
 42
0.09
291
     1
 43
0.36
  3
Standard
 44
0.18
300

342
2A77
174
     1
178
     6
175
     1
176
     0
 93
-1056964608
 45
0.18
292
     0
297
     0
 46
0.18
 94
-1056964608
 47
1.0
 49
1.0
140
1.0
293
     1
141
0.0
294
     1
177
     0
142
1.0
295
     0
296
     0
143
0.125
1001
ACAD_MLEADERVER
1070
     2
  0
MLINESTYLE
  5
2A81
102
{ACAD_REACTORS
330
2A80
102
}
330
2A80
100
AcDbMlineStyle
  2
STANDARD
 70
     0
  3

 62
   256
 51
90.0
 52
90.0
 71
     2
 49
0.5
 62
   256
  6
BYLAYER
 49
-0.5
 62
   256
  6
BYLAYER
  0
ACDBPLACEHOLDER
  5
2A29
102
{ACAD_REACTORS
330
2A28
102
}
330
2A28
  0
SCALE
  5
2A55
102
{ACAD_REACTORS
330
2A54
102
}
330
2A54
100
AcDbScale
 70
     0
300
1:1
140
1.0
141
1.0
290
     1
  0
SCALE
  5
2A56
102
{ACAD_REACTORS
330
2A54
102
}
330
2A54
100
AcDbScale
 70
     0
300
1:2
140
1.0
141
2.0
290
     0
  0
SCALE
  5
2A57
102
{ACAD_REACTORS
330
2A54
102
}
330
2A54
100
AcDbScale
 70
     0
300
1:4
140
1.0
141
4.0
290
     0
  0
SCALE
  5
2A58
102
{ACAD_REACTORS
330
2A54
102
}
330
2A54
100
AcDbScale
 70
     0
300
1:5
140
1.0
141
5.0
290
     0
  0
SCALE
  5
2A59
102
{ACAD_REACTORS
330
2A54
102
}
330
2A54
100
AcDbScale
 70
     0
300
1:8
140
1.0
141
8.0
290
     0
  0
SCALE
  5
2A5A
102
{ACAD_REACTORS
330
2A54
102
}
330
2A54
100
AcDbScale
 70
     0
300
1:10
140
1.0
141
10.0
290
     0
  0
SCALE
  5
2A5B
102
{ACAD_REACTORS
330
2A54
102
}
330
2A54
100
AcDbScale
 70
     0
300
1:16
140
1.0
141
16.0
290
     0
  0
SCALE
  5
2A5C
102
{ACAD_REACTORS
330
2A54
102
}
330
2A54
100
AcDbScale
 70
     0
300
1:20
140
1.0
141
20.0
290
     0
  0
SCALE
  5
2A5D
102
{ACAD_REACTORS
330
2A54
102
}
330
2A54
100
AcDbScale
 70
     0
300
1:30
140
1.0
141
30.0
290
     0
  0
SCALE
  5
2A5E
102
{ACAD_REACTORS
330
2A54
102
}
330
2A54
100
AcDbScale
 70
     0
300
1:40
140
1.0
141
40.0
290
     0
  0
SCALE
  5
2A5F
102
{ACAD_REACTORS
330
2A54
102
}
330
2A54
100
AcDbScale
 70
     0
300
1:50
140
1.0
141
50.0
290
     0
  0
SCALE
  5
2A60
102
{ACAD_REACTORS
330
2A54
102
}
330
2A54
100
AcDbScale
 70
     0
300
1:100
140
1.0
141
100.0
290
     0
  0
SCALE
  5
2A61
102
{ACAD_REACTORS
330
2A54
102
}
330
2A54
100
AcDbScale
 70
     0
300
2:1
140
2.0
141
1.0
290
     0
  0
SCALE
  5
2A62
102
{ACAD_REACTORS
330
2A54
102
}
330
2A54
100
AcDbScale
 70
     0
300
4:1
140
4.0
141
1.0
290
     0
  0
SCALE
  5
2A63
102
{ACAD_REACTORS
330
2A54
102
}
330
2A54
100
AcDbScale
 70
     0
300
8:1
140
8.0
141
1.0
290
     0
  0
SCALE
  5
2A64
102
{ACAD_REACTORS
330
2A54
102
}
330
2A54
100
AcDbScale
 70
     0
300
10:1
140
10.0
141
1.0
290
     0
  0
SCALE
  5
2A65
102
{ACAD_REACTORS
330
2A54
102
}
330
2A54
100
AcDbScale
 70
     0
300
100:1
140
100.0
141
1.0
290
     0
  0
SCALE
  5
2A66
102
{ACAD_REACTORS
330
2A54
102
}
330
2A54
100
AcDbScale
 70
     0
300
1/128" = 1'-0"
140
0.0078125
141
12.0
290
     0
  0
SCALE
  5
2A67
102
{ACAD_REACTORS
330
2A54
102
}
330
2A54
100
AcDbScale
 70
     0
300
1/64" = 1'-0"
140
0.015625
141
12.0
290
     0
  0
SCALE
  5
2A68
102
{ACAD_REACTORS
330
2A54
102
}
330
2A54
100
AcDbScale
 70
     0
300
1/32" = 1'-0"
140
0.03125
141
12.0
290
     0
  0
SCALE
  5
2A69
102
{ACAD_REACTORS
330
2A54
102
}
330
2A54
100
AcDbScale
 70
     0
300
1/16" = 1'-0"
140
0.0625
141
12.0
290
     0
  0
SCALE
  5
2A6A
102
{ACAD_REACTORS
330
2A54
102
}
330
2A54
100
AcDbScale
 70
     0
300
3/32" = 1'-0"
140
0.09375
141
12.0
290
     0
  0
SCALE
  5
2A6B
102
{ACAD_REACTORS
330
2A54
102
}
330
2A54
100
AcDbScale
 70
     0
300
1/8" = 1'-0"
140
0.125
141
12.0
290
     0
  0
SCALE
  5
2A6C
102
{ACAD_REACTORS
330
2A54
102
}
330
2A54
100
AcDbScale
 70
     0
300
3/16" = 1'-0"
140
0.1875
141
12.0
290
     0
  0
SCALE
  5
2A6D
102
{ACAD_REACTORS
330
2A54
102
}
330
2A54
100
AcDbScale
 70
     0
300
1/4" = 1'-0"
140
0.25
141
12.0
290
     0
  0
SCALE
  5
2A6E
102
{ACAD_REACTORS
330
2A54
102
}
330
2A54
100
AcDbScale
 70
     0
300
3/8" = 1'-0"
140
0.375
141
12.0
290
     0
  0
SCALE
  5
2A6F
102
{ACAD_REACTORS
330
2A54
102
}
330
2A54
100
AcDbScale
 70
     0
300
1/2" = 1'-0"
140
0.5
141
12.0
290
     0
  0
SCALE
  5
2A70
102
{ACAD_REACTORS
330
2A54
102
}
330
2A54
100
AcDbScale
 70
     0
300
3/4" = 1'-0"
140
0.75
141
12.0
290
     0
  0
SCALE
  5
2A71
102
{ACAD_REACTORS
330
2A54
102
}
330
2A54
100
AcDbScale
 70
     0
300
1" = 1'-0"
140
1.0
141
12.0
290
     0
  0
SCALE
  5
2A72
102
{ACAD_REACTORS
330
2A54
102
}
330
2A54
100
AcDbScale
 70
     0
300
1-1/2" = 1'-0"
140
1.5
141
12.0
290
     0
  0
SCALE
  5
2A73
102
{ACAD_REACTORS
330
2A54
102
}
330
2A54
100
AcDbScale
 70
     0
300
3" = 1'-0"
140
3.0
141
12.0
290
     0
  0
SCALE
  5
2A74
102
{ACAD_REACTORS
330
2A54
102
}
330
2A54
100
AcDbScale
 70
     0
300
6" = 1'-0"
140
6.0
141
12.0
290
     0
  0
SCALE
  5
2A75
102
{ACAD_REACTORS
330
2A54
102
}
330
2A54
100
AcDbScale
 70
     0
300
1'-0" = 1'-0"
140
12.0
141
12.0
290
     0
  0
TABLESTYLE
  5
2A86
102
{ACAD_XDICTIONARY
360
2C6F
102
}
102
{ACAD_REACTORS
330
2A85
102
}
330
2A85
100
AcDbTableStyle
  3
Standard
 70
     0
 71
     0
 40
0.06
 41
0.06
280
     0
281
     0
  7
STANDARD
140
0.18
170
     2
 62
     0
 63
     7
283
     0
274
    -2
284
     1
 64
     0
275
    -2
285
     1
 65
     0
276
    -2
286
     1
 66
     0
277
    -2
287
     1
 67
     0
278
    -2
288
     1
 68
     0
279
    -2
289
     1
 69
     0
  7
STANDARD
140
0.25
170
     5
 62
     0
 63
     7
283
     0
274
    -2
284
     1
 64
     0
275
    -2
285
     1
 65
     0
276
    -2
286
     1
 66
     0
277
    -2
287
     1
 67
     0
278
    -2
288
     1
 68
     0
279
    -2
289
     1
 69
     0
  7
STANDARD
140
0.18
170
     5
 62
     0
 63
     7
283
     0
274
    -2
284
     1
 64
     0
275
    -2
285
     1
 65
     0
276
    -2
286
     1
 66
     0
277
    -2
287
     1
 67
     0
278
    -2
288
     1
 68
     0
279
    -2
289
     1
 69
     0
  0
VISUALSTYLE
  5
2A49
102
{ACAD_REACTORS
330
2A43
102
}
330
2A43
100
AcDbVisualStyle
  2
2dWireframe
 70
     4
 71
     0
 72
     2
 73
     0
 90
        0
 40
-0.6
 41
-30.0
 62
     5
 63
     7
 74
     1
 91
        4
 64
     7
 65
   257
 75
     1
175
     1
 42
1.0
 92
        0
 66
   257
 43
1.0
 76
     1
 77
     6
 78
     2
 67
     7
 79
     5
170
     0
171
     0
290
     0
174
     0
 93
        1
 44
0.0
173
     0
291
     0
 45
0.0
1001
ACAD
1000
AcDbSavedByObjectVersion
1070
     0
1000
AcDbSavedByObjectVersion
1070
     0
  0
VISUALSTYLE
  5
2A4B
102
{ACAD_REACTORS
330
2A43
102
}
330
2A43
100
AcDbVisualStyle
  2
3D Hidden
 70
     6
 71
     1
 72
     2
 73
     2
 90
        0
 40
-0.6
 41
-30.0
 62
     5
 63
     7
 74
     2
 91
        2
 64
     7
 65
   257
 75
     2
175
     1
 42
40.0
 92
        0
 66
   257
 43
1.0
 76
     1
 77
     6
 78
     2
 67
     7
 79
     3
170
     0
171
     0
290
     0
174
     0
 93
        1
 44
0.0
173
     0
291
     0
 45
0.0
1001
ACAD
1000
AcDbSavedByObjectVersion
1070
     0
1000
AcDbSavedByObjectVersion
1070
     0
  0
VISUALSTYLE
  5
2A4A
102
{ACAD_REACTORS
330
2A43
102
}
330
2A43
100
AcDbVisualStyle
  2
3dWireframe
 70
     5
 71
     0
 72
     2
 73
     0
 90
        0
 40
-0.6
 41
-30.0
 62
     5
 63
     7
 74
     1
 91
        4
 64
     7
 65
   257
 75
     1
175
     1
 42
1.0
 92
        0
 66
   257
 43
1.0
 76
     1
 77
     6
 78
     2
 67
     7
 79
     5
170
     0
171
     0
290
     0
174
     0
 93
        1
 44
0.0
173
     0
291
     0
 45
0.0
1001
ACAD
1000
AcDbSavedByObjectVersion
1070
     0
1000
AcDbSavedByObjectVersion
1070
     0
  0
VISUALSTYLE
  5
2A48
102
{ACAD_REACTORS
330
2A43
102
}
330
2A43
100
AcDbVisualStyle
  2
Basic
 70
     7
 71
     1
 72
     0
 73
     1
 90
        0
 40
-0.6
 41
-30.0
 62
     5
 63
     7
 74
     0
 91
        4
 64
     7
 65
   257
 75
     1
175
     1
 42
1.0
 92
        8
 66
     7
 43
1.0
 76
     1
 77
     6
 78
     2
 67
     7
 79
     5
170
     0
171
     0
290
     0
174
     0
 93
        1
 44
0.0
173
     0
291
     1
 45
0.0
1001
ACAD
1000
AcDbSavedByObjectVersion
1070
     0
1000
AcDbSavedByObjectVersion
1070
     0
  0
VISUALSTYLE
  5
2A4F
102
{ACAD_REACTORS
330
2A43
102
}
330
2A43
100
AcDbVisualStyle
  2
Brighten
 70
    12
 71
     2
 72
     2
 73
     0
 90
        0
 40
-0.6
 41
-30.0
 62
     5
 63
     7
 74
     1
 91
        4
 64
     7
 65
   257
 75
     1
175
     1
 42
1.0
 92
        8
 66
     7
 43
1.0
 76
     1
 77
     6
 78
     2
 67
     7
 79
     5
170
     0
171
     0
290
     0
174
     0
 93
        1
 44
50.0
173
     0
291
     1
 45
0.0
1001
ACAD
1000
AcDbSavedByObjectVersion
1070
     0
1000
AcDbSavedByObjectVersion
1070
     0
  0
VISUALSTYLE
  5
2A53
102
{ACAD_REACTORS
330
2A43
102
}
330
2A43
100
AcDbVisualStyle
  2
ColorChange
 70
    16
 71
     2
 72
     2
 73
     3
 90
        0
 40
-0.6
 41
-30.0
 62
     5
 63
     8
 74
     1
 91
        4
 64
     7
 65
   257
 75
     1
175
     1
 42
1.0
 92
        8
 66
     8
 43
1.0
 76
     1
 77
     6
 78
     2
 67
     7
 79
     5
170
     0
171
     0
290
     0
174
     0
 93
        1
 44
0.0
173
     0
291
     1
 45
0.0
1001
ACAD
1000
AcDbSavedByObjectVersion
1070
     0
1000
AcDbSavedByObjectVersion
1070
     0
  0
VISUALSTYLE
  5
2A4C
102
{ACAD_REACTORS
330
2A43
102
}
330
2A43
100
AcDbVisualStyle
  2
Conceptual
 70
     9
 71
     3
 72
     2
 73
     0
 90
        0
 40
-0.6
 41
-30.0
 62
     5
 63
     7
 74
     2
 91
        2
 64
     7
 65
   257
 75
     1
175
     1
 42
40.0
 92
        8
 66
     7
 43
1.0
 76
     1
 77
     6
 78
     2
 67
     7
 79
     3
170
     0
171
     0
290
     0
174
     0
 93
        1
 44
0.0
173
     0
291
     0
 45
0.0
1001
ACAD
1000
AcDbSavedByObjectVersion
1070
     0
1000
AcDbSavedByObjectVersion
1070
     0
  0
VISUALSTYLE
  5
2A4E
102
{ACAD_REACTORS
330
2A43
102
}
330
2A43
100
AcDbVisualStyle
  2
Dim
 70
    11
 71
     2
 72
     2
 73
     0
 90
        0
 40
-0.6
 41
-30.0
 62
     5
 63
     7
 74
     1
 91
        4
 64
     7
 65
   257
 75
     1
175
     1
 42
1.0
 92
        8
 66
     7
 43
1.0
 76
     1
 77
     6
 78
     2
 67
     7
 79
     5
170
     0
171
     0
290
     0
174
     0
 93
        1
 44
-50.0
173
     0
291
     1
 45
0.0
1001
ACAD
1000
AcDbSavedByObjectVersion
1070
     0
1000
AcDbSavedByObjectVersion
1070
     0
  0
VISUALSTYLE
  5
2A52
102
{ACAD_REACTORS
330
2A43
102
}
330
2A43
100
AcDbVisualStyle
  2
Facepattern
 70
    15
 71
     2
 72
     2
 73
     0
 90
        0
 40
-0.6
 41
-30.0
 62
     5
 63
     7
 74
     1
 91
        4
 64
     7
 65
   257
 75
     1
175
     1
 42
1.0
 92
        8
 66
     7
 43
1.0
 76
     1
 77
     6
 78
     2
 67
     7
 79
     5
170
     0
171
     0
290
     0
174
     0
 93
        1
 44
0.0
173
     0
291
     1
 45
0.0
1001
ACAD
1000
AcDbSavedByObjectVersion
1070
     0
1000
AcDbSavedByObjectVersion
1070
     0
  0
VISUALSTYLE
  5
2A44
102
{ACAD_REACTORS
330
2A43
102
}
330
2A43
100
AcDbVisualStyle
  2
Flat
 70
     0
 71
     2
 72
     1
 73
     1
 90
        2
 40
-0.6
 41
30.0
 62
     5
 63
     7
 74
     0
 91
        4
 64
     7
 65
   257
 75
     1
175
     1
 42
1.0
 92
        8
 66
     7
 43
1.0
 76
     1
 77
     6
 78
     2
 67
     7
 79
     5
170
     0
171
     0
290
     0
174
     0
 93
       13
 44
0.0
173
     0
291
     1
 45
0.0
1001
ACAD
1000
AcDbSavedByObjectVersion
1070
     0
1000
AcDbSavedByObjectVersion
1070
     0
  0
VISUALSTYLE
  5
2A45
102
{ACAD_REACTORS
330
2A43
102
}
330
2A43
100
AcDbVisualStyle
  2
FlatWithEdges
 70
     1
 71
     2
 72
     1
 73
     1
 90
        2
 40
-0.6
 41
30.0
 62
     5
 63
     7
 74
     1
 91
        4
 64
     7
 65
   257
 75
     1
175
     1
 42
1.0
 92
        0
 66
   257
 43
1.0
 76
     1
 77
     6
 78
     2
 67
     7
 79
     5
170
     0
171
     0
290
     0
174
     0
 93
       13
 44
0.0
173
     0
291
     1
 45
0.0
1001
ACAD
1000
AcDbSavedByObjectVersion
1070
     0
1000
AcDbSavedByObjectVersion
1070
     0
  0
VISUALSTYLE
  5
2A46
102
{ACAD_REACTORS
330
2A43
102
}
330
2A43
100
AcDbVisualStyle
  2
Gouraud
 70
     2
 71
     2
 72
     2
 73
     1
 90
        2
 40
-0.6
 41
30.0
 62
     5
 63
     7
 74
     0
 91
        4
 64
     7
 65
   257
 75
     1
175
     1
 42
1.0
 92
        0
 66
     7
 43
1.0
 76
     1
 77
     6
 78
     2
 67
     7
 79
     5
170
     0
171
     0
290
     0
174
     0
 93
       13
 44
0.0
173
     0
291
     1
 45
0.0
1001
ACAD
1000
AcDbSavedByObjectVersion
1070
     0
1000
AcDbSavedByObjectVersion
1070
     0
  0
VISUALSTYLE
  5
2A47
102
{ACAD_REACTORS
330
2A43
102
}
330
2A43
100
AcDbVisualStyle
  2
GouraudWithEdges
 70
     3
 71
     2
 72
     2
 73
     1
 90
        2
 40
-0.6
 41
30.0
 62
     5
 63
     7
 74
     1
 91
        4
 64
     7
 65
   257
 75
     1
175
     1
 42
1.0
 92
        0
 66
   257
 43
1.0
 76
     1
 77
     6
 78
     2
 67
     7
 79
     5
170
     0
171
     0
290
     0
174
     0
 93
       13
 44
0.0
173
     0
291
     1
 45
0.0
1001
ACAD
1000
AcDbSavedByObjectVersion
1070
     0
1000
AcDbSavedByObjectVersion
1070
     0
  0
VISUALSTYLE
  5
2A51
102
{ACAD_REACTORS
330
2A43
102
}
330
2A43
100
AcDbVisualStyle
  2
Linepattern
 70
    14
 71
     2
 72
     2
 73
     0
 90
        0
 40
-0.6
 41
-30.0
 62
     5
 63
     7
 74
     1
 91
        4
 64
     7
 65
   257
 75
     7
175
     7
 42
1.0
 92
        8
 66
     7
 43
1.0
 76
     1
 77
     6
 78
     2
 67
     7
 79
     5
170
     0
171
     0
290
     0
174
     0
 93
        1
 44
0.0
173
     0
291
     1
 45
0.0
1001
ACAD
1000
AcDbSavedByObjectVersion
1070
     0
1000
AcDbSavedByObjectVersion
1070
     0
  0
VISUALSTYLE
  5
2A4D
102
{ACAD_REACTORS
330
2A43
102
}
330
2A43
100
AcDbVisualStyle
  2
Realistic
 70
     8
 71
     2
 72
     2
 73
     0
 90
        0
 40
-0.6
 41
-30.0
 62
     5
 63
     7
 74
     1
 91
        0
 64
     7
 65
   257
 75
     1
175
     1
 42
1.0
 92
        8
 66
     8
 43
1.0
 76
     1
 77
     6
 78
     2
 67
     7
 79
     5
170
     0
171
     0
290
     0
174
     0
 93
       13
 44
0.0
173
     0
291
     0
 45
0.0
1001
ACAD
1000
AcDbSavedByObjectVersion
1070
     0
1000
AcDbSavedByObjectVersion
1070
     0
  0
VISUALSTYLE
  5
2A50
102
{ACAD_REACTORS
330
2A43
102
}
330
2A43
100
AcDbVisualStyle
  2
Thicken
 70
    13
 71
     2
 72
     2
 73
     0
 90
        0
 40
-0.6
 41
-30.0
 62
     5
 63
     7
 74
     1
 91
        4
 64
     7
 65
   257
 75
     1
175
     1
 42
1.0
 92
       12
 66
     7
 43
1.0
 76
     1
 77
     6
 78
     2
 67
     7
 79
     5
170
     0
171
     0
290
     0
174
     0
 93
        1
 44
0.0
173
     0
291
     1
 45
0.0
1001
ACAD
1000
AcDbSavedByObjectVersion
1070
     0
1000
AcDbSavedByObjectVersion
1070
     0
  0
DICTIONARYVAR
  5
2C6B
102
{ACAD_REACTORS
330
2C68
102
}
330
2C68
100
DictionaryVariables
280
     0
  1
1:1
  0
DICTIONARYVAR
  5
2C6A
102
{ACAD_REACTORS
330
2C68
102
}
330
2C68
100
DictionaryVariables
280
     0
  1
STANDARD
  0
DICTIONARYVAR
  5
2C69
102
{ACAD_REACTORS
330
2C68
102
}
330
2C68
100
DictionaryVariables
280
     0
  1
STANDARD
  0
DICTIONARYVAR
  5
2C6E
102
{ACAD_REACTORS
330
2C68
102
}
330
2C68
100
DictionaryVariables
280
     0
  1
1
  0
DICTIONARYVAR
  5
2C6D
102
{ACAD_REACTORS
330
2C68
102
}
330
2C68
100
DictionaryVariables
280
     0
  1
1
  0
DICTIONARYVAR
  5
2F74
102
{ACAD_REACTORS
330
2C68
102
}
330
2C68
100
DictionaryVariables
280
     0
  1
1
  0
DICTIONARYVAR
  5
2F75
102
{ACAD_REACTORS
330
2C68
102
}
330
2C68
100
DictionaryVariables
280
     0
  1
15
  0
DICTIONARYVAR
  5
2F73
102
{ACAD_REACTORS
330
2C68
102
}
330
2C68
100
DictionaryVariables
280
     0
  1
0
  0
DICTIONARYVAR
  5
33E9
102
{ACAD_REACTORS
330
2C68
102
}
330
2C68
100
DictionaryVariables
280
     0
  1
1.570796
  0
DICTIONARYVAR
  5
33EA
102
{ACAD_REACTORS
330
2C68
102
}
330
2C68
100
DictionaryVariables
280
     0
  1
1.570796
  0
DICTIONARYVAR
  5
33EB
102
{ACAD_REACTORS
330
2C68
102
}
330
2C68
100
DictionaryVariables
280
     0
  1
-122.394000
  0
DICTIONARYVAR
  5
2F72
102
{ACAD_REACTORS
330
2C68
102
}
330
2C68
100
DictionaryVariables
280
     0
  1
0
  0
DICTIONARYVAR
  5
2C6C
102
{ACAD_REACTORS
330
2C68
102
}
330
2C68
100
DictionaryVariables
280
     0
  1
127
  0
DICTIONARY
  5
2C29
102
{ACAD_REACTORS
330
2C1B
102
}
330
2C1B
100
AcDbDictionary
281
     1
  0
LAYER_INDEX
  5
2C5B
102
{ACAD_REACTORS
330
2C5A
102
}
330
2C5A
100
AcDbIndex
 40
2457491.828651829
100
AcDbLayerIndex
  8
0
360
2C5C
 90
        0
  8
OUTLINE
360
2C5D
 90
       16
  8
SIZE
360
2C5E
 90
       22
  8
BASIS
360
2C5F
 90
        1
  8
DETAIL
360
2C60
 90
       32
  8
ARRANGE
360
2C61
 90
        2
  8
DEFPOINTS
360
2C62
 90
        0
  8
ETC
360
2C63
 90
        3
  8
FIX
360
2C64
 90
        0
  8
NOTE
360
2C65
 90
        6
  8
SERVICESPACE
360
2C66
 90
        0
  8
SYMBOLLINE
360
2C67
 90
        0
  0
DICTIONARY
  5
31F4
102
{ACAD_REACTORS
330
31F3
102
}
330
31F3
100
AcDbDictionary
281
     1
  0
DICTIONARY
  5
31F5
102
{ACAD_REACTORS
330
31F3
102
}
330
31F3
100
AcDbDictionary
281
     1
  0
DICTIONARY
  5
31FA
102
{ACAD_REACTORS
330
31F9
102
}
330
31F9
100
AcDbDictionary
281
     1
  0
DICTIONARY
  5
31FB
102
{ACAD_REACTORS
330
31F9
102
}
330
31F9
100
AcDbDictionary
281
     1
  0
DICTIONARY
  5
2A34
330
2A33
100
AcDbDictionary
280
     1
281
     1
  3
ACAD_XREC_ROUNDTRIP
360
2C79
  3
BUMPTILE
360
2A36
  3
DIFFUSETILE
360
2A35
  3
OPACITYTILE
360
2A39
  3
REFLECTIONTILE
360
2A38
  3
REFRACTIONTILE
360
2A3A
  3
SPECULARTILE
360
2A37
  0
DICTIONARY
  5
2A2C
330
2A2B
100
AcDbDictionary
280
     1
281
     1
  3
ACAD_XREC_ROUNDTRIP
360
2C78
  3
BUMPTILE
360
2A2E
  3
DIFFUSETILE
360
2A2D
  3
OPACITYTILE
360
2A31
  3
REFLECTIONTILE
360
2A30
  3
REFRACTIONTILE
360
2A32
  3
SPECULARTILE
360
2A2F
  0
DICTIONARY
  5
2A3C
330
2A3B
100
AcDbDictionary
280
     1
281
     1
  3
ACAD_XREC_ROUNDTRIP
360
2C7A
  3
BUMPTILE
360
2A3E
  3
DIFFUSETILE
360
2A3D
  3
OPACITYTILE
360
2A41
  3
REFLECTIONTILE
360
2A40
  3
REFRACTIONTILE
360
2A42
  3
SPECULARTILE
360
2A3F
  0
DICTIONARY
  5
2C6F
330
2A86
100
AcDbDictionary
280
     1
281
     1
  3
ACAD_ROUNDTRIP_2008_TABLESTYLE_CELLSTYLEMAP
360
33EC
  3
ACAD_XREC_ROUNDTRIP
360
33F5
  0
IDBUFFER
  5
2C5C
330
0
100
AcDbIdBuffer
  0
IDBUFFER
  5
2C5D
330
0
100
AcDbIdBuffer
330
953
330
954
330
955
330
956
330
957
330
958
330
31DF
330
31E0
330
31E1
330
31E2
330
31E3
330
31E4
330
31E5
330
31E6
330
31E7
330
31E8
  0
IDBUFFER
  5
2C5E
330
0
100
AcDbIdBuffer
330
33E2
330
33E3
330
33E4
330
33E5
330
33E6
330
33E7
330
33E8
330
31C4
330
31DE
330
33B5
330
33D6
330
33D7
330
33D8
330
33D9
330
33DA
330
33DB
330
33DC
330
33DD
330
33DE
330
33DF
330
33E0
330
33E1
  0
IDBUFFER
  5
2C5F
330
0
100
AcDbIdBuffer
330
31C6
  0
IDBUFFER
  5
2C60
330
0
100
AcDbIdBuffer
330
31CA
330
31CB
330
31CC
330
31CD
330
31CE
330
31CF
330
31D0
330
31D1
330
31D2
330
31D3
330
31D6
330
31D7
330
31D8
330
31D9
330
31E9
330
31EA
330
31EB
330
31EC
330
31ED
330
31EE
330
31EF
330
31F0
330
31F1
330
31F7
330
31FD
330
31FE
330
31FF
330
3200
330
3201
330
3202
330
3203
330
3204
  0
IDBUFFER
  5
2C61
330
0
100
AcDbIdBuffer
330
31C5
330
31C7
  0
IDBUFFER
  5
2C62
330
0
100
AcDbIdBuffer
  0
IDBUFFER
  5
2C63
330
0
100
AcDbIdBuffer
330
31C1
330
31C2
330
31C3
  0
IDBUFFER
  5
2C64
330
0
100
AcDbIdBuffer
  0
IDBUFFER
  5
2C65
330
0
100
AcDbIdBuffer
330
31D4
330
31D5
330
31DA
330
31DB
330
31DC
330
31DD
  0
IDBUFFER
  5
2C66
330
0
100
AcDbIdBuffer
  0
IDBUFFER
  5
2C67
330
0
100
AcDbIdBuffer
  0
XRECORD
  5
2C79
102
{ACAD_REACTORS
330
2A34
102
}
330
2A34
100
AcDbXrecord
280
     1
102
MATERIAL
148
0.0
149
0.0
149
0.0
 93
        0
 94
      127
282
     0
 72
     0
 77
     0
171
     0
175
     0
179
     0
273
     0
  0
XRECORD
  5
2A36
102
{ACAD_REACTORS
330
2A34
102
}
330
2A34
100
AcDbXrecord
280
     1
270
     1
271
     1
  0
XRECORD
  5
2A35
102
{ACAD_REACTORS
330
2A34
102
}
330
2A34
100
AcDbXrecord
280
     1
270
     1
271
     1
  0
XRECORD
  5
2A39
102
{ACAD_REACTORS
330
2A34
102
}
330
2A34
100
AcDbXrecord
280
     1
270
     1
271
     1
  0
XRECORD
  5
2A38
102
{ACAD_REACTORS
330
2A34
102
}
330
2A34
100
AcDbXrecord
280
     1
270
     1
271
     1
  0
XRECORD
  5
2A3A
102
{ACAD_REACTORS
330
2A34
102
}
330
2A34
100
AcDbXrecord
280
     1
270
     1
271
     1
  0
XRECORD
  5
2A37
102
{ACAD_REACTORS
330
2A34
102
}
330
2A34
100
AcDbXrecord
280
     1
270
     1
271
     1
  0
XRECORD
  5
2C78
102
{ACAD_REACTORS
330
2A2C
102
}
330
2A2C
100
AcDbXrecord
280
     1
102
MATERIAL
148
0.0
149
0.0
149
0.0
 93
        0
 94
      127
282
     0
 72
     0
 77
     0
171
     0
175
     0
179
     0
273
     0
  0
XRECORD
  5
2A2E
102
{ACAD_REACTORS
330
2A2C
102
}
330
2A2C
100
AcDbXrecord
280
     1
270
     1
271
     1
  0
XRECORD
  5
2A2D
102
{ACAD_REACTORS
330
2A2C
102
}
330
2A2C
100
AcDbXrecord
280
     1
270
     1
271
     1
  0
XRECORD
  5
2A31
102
{ACAD_REACTORS
330
2A2C
102
}
330
2A2C
100
AcDbXrecord
280
     1
270
     1
271
     1
  0
XRECORD
  5
2A30
102
{ACAD_REACTORS
330
2A2C
102
}
330
2A2C
100
AcDbXrecord
280
     1
270
     1
271
     1
  0
XRECORD
  5
2A32
102
{ACAD_REACTORS
330
2A2C
102
}
330
2A2C
100
AcDbXrecord
280
     1
270
     1
271
     1
  0
XRECORD
  5
2A2F
102
{ACAD_REACTORS
330
2A2C
102
}
330
2A2C
100
AcDbXrecord
280
     1
270
     1
271
     1
  0
XRECORD
  5
2C7A
102
{ACAD_REACTORS
330
2A3C
102
}
330
2A3C
100
AcDbXrecord
280
     1
102
MATERIAL
148
0.0
149
0.0
149
0.0
 93
        0
 94
      127
282
     0
 72
     0
 77
     0
171
     0
175
     0
179
     0
273
     0
  0
XRECORD
  5
2A3E
102
{ACAD_REACTORS
330
2A3C
102
}
330
2A3C
100
AcDbXrecord
280
     1
270
     1
271
     1
  0
XRECORD
  5
2A3D
102
{ACAD_REACTORS
330
2A3C
102
}
330
2A3C
100
AcDbXrecord
280
     1
270
     1
271
     1
  0
XRECORD
  5
2A41
102
{ACAD_REACTORS
330
2A3C
102
}
330
2A3C
100
AcDbXrecord
280
     1
270
     1
271
     1
  0
XRECORD
  5
2A40
102
{ACAD_REACTORS
330
2A3C
102
}
330
2A3C
100
AcDbXrecord
280
     1
270
     1
271
     1
  0
XRECORD
  5
2A42
102
{ACAD_REACTORS
330
2A3C
102
}
330
2A3C
100
AcDbXrecord
280
     1
270
     1
271
     1
  0
XRECORD
  5
2A3F
102
{ACAD_REACTORS
330
2A3C
102
}
330
2A3C
100
AcDbXrecord
280
     1
270
     1
271
     1
  0
CELLSTYLEMAP
  5
33EC
102
{ACAD_REACTORS
330
2C6F
102
}
330
2C6F
100
AcDbCellStyleMap
 90
        3
300
CELLSTYLE
  1
TABLEFORMAT_BEGIN
 90
        5
170
     1
 91
        0
 92
    32768
 62
   257
 93
        1
300
CONTENTFORMAT
  1
CONTENTFORMAT_BEGIN
 90
        0
 91
        0
 92
      512
 93
        0
300

 40
0.0
140
1.0
 94
        5
 62
     0
340
2A77
144
0.25
309
CONTENTFORMAT_END
171
     1
301
MARGIN
  1
CELLMARGIN_BEGIN
 40
0.06
 40
0.06
 40
0.06
 40
0.06
 40
0.18
 40
0.18
309
CELLMARGIN_END
 94
        6
 95
        1
302
GRIDFORMAT
  1
GRIDFORMAT_BEGIN
 90
        0
 91
        1
 62
     0
 92
       -2
340
0
 93
        0
 40
0.045
309
GRIDFORMAT_END
 95
        2
302
GRIDFORMAT
  1
GRIDFORMAT_BEGIN
 90
        0
 91
        1
 62
     0
 92
       -2
340
0
 93
        0
 40
0.045
309
GRIDFORMAT_END
 95
        4
302
GRIDFORMAT
  1
GRIDFORMAT_BEGIN
 90
        0
 91
        1
 62
     0
 92
       -2
340
0
 93
        0
 40
0.045
309
GRIDFORMAT_END
 95
        8
302
GRIDFORMAT
  1
GRIDFORMAT_BEGIN
 90
        0
 91
        1
 62
     0
 92
       -2
340
0
 93
        0
 40
0.045
309
GRIDFORMAT_END
 95
       16
302
GRIDFORMAT
  1
GRIDFORMAT_BEGIN
 90
        0
 91
        1
 62
     0
 92
       -2
340
0
 93
        0
 40
0.045
309
GRIDFORMAT_END
 95
       32
302
GRIDFORMAT
  1
GRIDFORMAT_BEGIN
 90
        0
 91
        1
 62
     0
 92
       -2
340
0
 93
        0
 40
0.045
309
GRIDFORMAT_END
309
TABLEFORMAT_END
  1
CELLSTYLE_BEGIN
 90
        1
 91
        1
300
_TITLE
309
CELLSTYLE_END
300
CELLSTYLE
  1
TABLEFORMAT_BEGIN
 90
        5
170
     1
 91
        0
 92
        0
 62
   257
 93
        1
300
CONTENTFORMAT
  1
CONTENTFORMAT_BEGIN
 90
        0
 91
        0
 92
      512
 93
        0
300

 40
0.0
140
1.0
 94
        5
 62
     0
340
2A77
144
0.18
309
CONTENTFORMAT_END
171
     1
301
MARGIN
  1
CELLMARGIN_BEGIN
 40
0.06
 40
0.06
 40
0.06
 40
0.06
 40
0.18
 40
0.18
309
CELLMARGIN_END
 94
        6
 95
        1
302
GRIDFORMAT
  1
GRIDFORMAT_BEGIN
 90
        0
 91
        1
 62
     0
 92
       -2
340
0
 93
        0
 40
0.045
309
GRIDFORMAT_END
 95
        2
302
GRIDFORMAT
  1
GRIDFORMAT_BEGIN
 90
        0
 91
        1
 62
     0
 92
       -2
340
0
 93
        0
 40
0.045
309
GRIDFORMAT_END
 95
        4
302
GRIDFORMAT
  1
GRIDFORMAT_BEGIN
 90
        0
 91
        1
 62
     0
 92
       -2
340
0
 93
        0
 40
0.045
309
GRIDFORMAT_END
 95
        8
302
GRIDFORMAT
  1
GRIDFORMAT_BEGIN
 90
        0
 91
        1
 62
     0
 92
       -2
340
0
 93
        0
 40
0.045
309
GRIDFORMAT_END
 95
       16
302
GRIDFORMAT
  1
GRIDFORMAT_BEGIN
 90
        0
 91
        1
 62
     0
 92
       -2
340
0
 93
        0
 40
0.045
309
GRIDFORMAT_END
 95
       32
302
GRIDFORMAT
  1
GRIDFORMAT_BEGIN
 90
        0
 91
        1
 62
     0
 92
       -2
340
0
 93
        0
 40
0.045
309
GRIDFORMAT_END
309
TABLEFORMAT_END
  1
CELLSTYLE_BEGIN
 90
        2
 91
        1
300
_HEADER
309
CELLSTYLE_END
300
CELLSTYLE
  1
TABLEFORMAT_BEGIN
 90
        5
170
     1
 91
        0
 92
        0
 62
   257
 93
        1
300
CONTENTFORMAT
  1
CONTENTFORMAT_BEGIN
 90
        0
 91
        0
 92
      512
 93
        0
300

 40
0.0
140
1.0
 94
        2
 62
     0
340
2A77
144
0.18
309
CONTENTFORMAT_END
171
     1
301
MARGIN
  1
CELLMARGIN_BEGIN
 40
0.06
 40
0.06
 40
0.06
 40
0.06
 40
0.18
 40
0.18
309
CELLMARGIN_END
 94
        6
 95
        1
302
GRIDFORMAT
  1
GRIDFORMAT_BEGIN
 90
        0
 91
        1
 62
     0
 92
       -2
340
0
 93
        0
 40
0.045
309
GRIDFORMAT_END
 95
        2
302
GRIDFORMAT
  1
GRIDFORMAT_BEGIN
 90
        0
 91
        1
 62
     0
 92
       -2
340
0
 93
        0
 40
0.045
309
GRIDFORMAT_END
 95
        4
302
GRIDFORMAT
  1
GRIDFORMAT_BEGIN
 90
        0
 91
        1
 62
     0
 92
       -2
340
0
 93
        0
 40
0.045
309
GRIDFORMAT_END
 95
        8
302
GRIDFORMAT
  1
GRIDFORMAT_BEGIN
 90
        0
 91
        1
 62
     0
 92
       -2
340
0
 93
        0
 40
0.045
309
GRIDFORMAT_END
 95
       16
302
GRIDFORMAT
  1
GRIDFORMAT_BEGIN
 90
        0
 91
        1
 62
     0
 92
       -2
340
0
 93
        0
 40
0.045
309
GRIDFORMAT_END
 95
       32
302
GRIDFORMAT
  1
GRIDFORMAT_BEGIN
 90
        0
 91
        1
 62
     0
 92
       -2
340
0
 93
        0
 40
0.045
309
GRIDFORMAT_END
309
TABLEFORMAT_END
  1
CELLSTYLE_BEGIN
 90
        3
 91
        2
300
_DATA
309
CELLSTYLE_END
  0
XRECORD
  5
33F5
102
{ACAD_REACTORS
330
2C6F
102
}
330
2C6F
100
AcDbXrecord
280
     1
102
ACAD_ROUNDTRIP_PRE2007_TABLESTYLE
 90
      512
 91
        0
  1

 92
      512
 93
        0
  2

 94
      512
 95
        0
  3

  0
ENDSEC
  0
EOF
