  0
SECTION
  2
HEADER
  9
$ACADVER
  1
AC1009
  9
$INSBASE
 10
0.0
 20
0.0
 30
0.0
  9
$EXTMIN
 10
-963.12648165547955
 20
-483.92472244631421
 30
-0.0015258207003583
  9
$EXTMAX
 10
853.7591287742689
 20
606.16823134641515
 30
0.0000000349246037
  9
$LIMMIN
 10
-3510.803897264997
 20
-4478.002163694061
  9
$LIMMAX
 10
5939.3084795201548
 20
1852.5545239068399
  9
$ORTHOMODE
 70
     0
  9
$REGENMODE
 70
     0
  9
$FILLMODE
 70
     1
  9
$QTEXTMODE
 70
     0
  9
$MIRRTEXT
 70
     0
  9
$DRAGMODE
 70
     2
  9
$LTSCALE
 40
20.0
  9
$OSMODE
 70
    63
  9
$ATTMODE
 70
     1
  9
$TEXTSIZE
 40
64.0
  9
$TRACEWID
 40
0.05
  9
$TEXTSTYLE
  7
STANDARD
  9
$CLAYER
  8
DETAIL
  9
$CELTYPE
  6
CONTINUOUS
  9
$CECOLOR
 62
   256
  9
$DIMSCALE
 40
1.0
  9
$DIMASZ
 40
10.0
  9
$DIMEXO
 40
20.0
  9
$DIMDLI
 40
200.0
  9
$DIMRND
 40
0.0
  9
$DIMDLE
 40
0.0
  9
$DIMEXE
 40
30.0
  9
$DIMTP
 40
0.0
  9
$DIMTM
 40
0.0
  9
$DIMTXT
 40
64.0
  9
$DIMCEN
 40
0.09
  9
$DIMTSZ
 40
0.0
  9
$DIMTOL
 70
     0
  9
$DIMLIM
 70
     0
  9
$DIMTIH
 70
     0
  9
$DIMTOH
 70
     0
  9
$DIMSE1
 70
     0
  9
$DIMSE2
 70
     0
  9
$DIMTAD
 70
     1
  9
$DIMZIN
 70
     8
  9
$DIMBLK
  1
ORIGIN
  9
$DIMASO
 70
     1
  9
$DIMSHO
 70
     0
  9
$DIMPOST
  1

  9
$DIMAPOST
  1

  9
$DIMALT
 70
     0
  9
$DIMALTD
 70
     2
  9
$DIMALTF
 40
25.399999999999999
  9
$DIMLFAC
 40
1.0
  9
$DIMTOFL
 70
     1
  9
$DIMTVP
 40
0.0
  9
$DIMTIX
 70
     1
  9
$DIMSOXD
 70
     0
  9
$DIMSAH
 70
     0
  9
$DIMBLK1
  1

  9
$DIMBLK2
  1

  9
$DIMSTYLE
  2
STANDARD
  9
$DIMCLRD
 70
     0
  9
$DIMCLRE
 70
     0
  9
$DIMCLRT
 70
     0
  9
$DIMTFAC
 40
1.0
  9
$DIMGAP
 40
10.0
  9
$LUNITS
 70
     2
  9
$LUPREC
 70
     4
  9
$SKETCHINC
 40
0.1
  9
$FILLETRAD
 40
0.0
  9
$AUNITS
 70
     1
  9
$AUPREC
 70
     3
  9
$MENU
  1
ACAD
  9
$ELEVATION
 40
0.0
  9
$PELEVATION
 40
0.0
  9
$THICKNESS
 40
0.0
  9
$LIMCHECK
 70
     0
  9
$BLIPMODE
 70
     0
  9
$CHAMFERA
 40
0.0
  9
$CHAMFERB
 40
0.0
  9
$SKPOLY
 70
     0
  9
$TDCREATE
 40
2450527.3900000001
  9
$TDUPDATE
 40
2452979.471962708
  9
$TDINDWG
 40
0.1872411574
  9
$TDUSRTIMER
 40
0.1872409838
  9
$USRTIMER
 70
     1
  9
$ANGBASE
 50
0.0
  9
$ANGDIR
 70
     0
  9
$PDMODE
 70
     3
  9
$PDSIZE
 40
-2.0
  9
$PLINEWID
 40
0.0
  9
$COORDS
 70
     2
  9
$SPLFRAME
 70
     0
  9
$SPLINETYPE
 70
     6
  9
$SPLINESEGS
 70
     8
  9
$ATTDIA
 70
     0
  9
$ATTREQ
 70
     1
  9
$HANDLING
 70
-16383
  9
$HANDSEED
  5
15CF
  9
$SURFTAB1
 70
     6
  9
$SURFTAB2
 70
     6
  9
$SURFTYPE
 70
     6
  9
$SURFU
 70
     6
  9
$SURFV
 70
     6
  9
$UCSNAME
  2

  9
$UCSORG
 10
0.0
 20
0.0
 30
0.0
  9
$UCSXDIR
 10
1.0
 20
0.0
 30
0.0
  9
$UCSYDIR
 10
0.0
 20
1.0
 30
0.0
  9
$PUCSNAME
  2

  9
$PUCSORG
 10
0.0
 20
0.0
 30
0.0
  9
$PUCSXDIR
 10
1.0
 20
0.0
 30
0.0
  9
$PUCSYDIR
 10
0.0
 20
1.0
 30
0.0
  9
$USERI1
 70
     0
  9
$USERI2
 70
     0
  9
$USERI3
 70
     0
  9
$USERI4
 70
     0
  9
$USERI5
 70
     0
  9
$USERR1
 40
20.0
  9
$USERR2
 40
0.0
  9
$USERR3
 40
0.0
  9
$USERR4
 40
0.0
  9
$USERR5
 40
0.0
  9
$WORLDVIEW
 70
     1
  9
$SHADEDGE
 70
     3
  9
$SHADEDIF
 70
    70
  9
$TILEMODE
 70
     1
  9
$MAXACTVP
 70
    64
  9
$PLIMCHECK
 70
     0
  9
$PEXTMIN
 10
1.0000000000000000E+020
 20
1.0000000000000000E+020
 30
1.0000000000000000E+020
  9
$PEXTMAX
 10
-1.0000000000000000E+020
 20
-1.0000000000000000E+020
 30
-1.0000000000000000E+020
  9
$PLIMMIN
 10
0.0
 20
0.0
  9
$PLIMMAX
 10
12.0
 20
9.0
  9
$UNITMODE
 70
     0
  9
$VISRETAIN
 70
     1
  9
$PLINEGEN
 70
     0
  9
$PSLTSCALE
 70
     1
  0
ENDSEC
  0
SECTION
  2
TABLES
  0
TABLE
  2
VPORT
 70
     2
  0
VPORT
  2
*ACTIVE
 70
     0
 10
0.0
 20
0.0
 11
1.0
 21
1.0
 12
105.473105437388
 22
-153.104990034986
 13
0.0
 23
0.0
 14
100.0
 24
100.0
 15
100.0
 25
100.0
 16
0.0
 26
0.0
 36
1.0
 17
0.0
 27
0.0
 37
0.0
 40
2412.708096803341
 41
1.2953367875647659
 42
50.0
 43
0.0
 44
0.0
 50
0.0
 51
0.0
 71
     0
 72
  1000
 73
     1
 74
     0
 75
     0
 76
     0
 77
     0
 78
     2
  0
ENDTAB
  0
TABLE
  2
LTYPE
 70
     7
  0
LTYPE
  2
CONTINUOUS
 70
     0
  3
実線
 72
    65
 73
     0
 40
0.0
  0
LTYPE
  2
DASHDOT
 70
     0
  3
____ _ ____ _ ____ _ ____ _ ____ _ ____ _ ____
 72
    65
 73
     4
 40
5.5
 49
4.0
 49
-0.6
 49
0.3
 49
-0.6
  0
LTYPE
  2
DASHED
 70
     0
  3
_ _ _ _ _ _ _ _ _ _ _ _ _ _ _ _ _ _ _ _ _ _ _
 72
    65
 73
     2
 40
2.0
 49
1.1999999999999991
 49
-0.8
  0
LTYPE
  2
DOT
 70
     0
  3
...............................................
 72
    65
 73
     2
 40
0.8
 49
0.5
 49
-0.3
  0
LTYPE
  2
DASHDOT1
 70
     0
  3
____ _ ____ _ ____ _ ____ _ ____ _ ____ _ ____
 72
    65
 73
     4
 40
2.0
 49
1.5
 49
-0.2
 49
0.1
 49
-0.2
  0
LTYPE
  2
DIVIDE
 70
     0
  3
_____ _ _ _____ _ _ _____ _ _ _____ _ _ ____
 72
    65
 73
     6
 40
6.4000000000000004
 49
4.0
 49
-0.6
 49
0.3
 49
-0.6
 49
0.3
 49
-0.6
  0
LTYPE
  2
DIVIDE1
 70
     0
  3
_____ _ _ _____ _ _ _____ _ _ _____ _ _ ____
 72
    65
 73
     6
 40
3.2000000000000002
 49
2.0
 49
-0.3
 49
0.15
 49
-0.3
 49
0.15
 49
-0.3
  0
ENDTAB
  0
TABLE
  2
LAYER
 70
    12
  0
LAYER
  2
0
 70
     0
 62
     7
  6
CONTINUOUS
  0
LAYER
  2
OUTLINE
 70
     0
 62
     3
  6
CONTINUOUS
  0
LAYER
  2
DETAIL
 70
     0
 62
     5
  6
CONTINUOUS
  0
LAYER
  2
BASIS
 70
     0
 62
     6
  6
CONTINUOUS
  0
LAYER
  2
NOTE
 70
     0
 62
     4
  6
CONTINUOUS
  0
LAYER
  2
DEFPOINTS
 70
     0
 62
     7
  6
CONTINUOUS
  0
LAYER
  2
SIZE
 70
     0
 62
    32
  6
CONTINUOUS
  0
LAYER
  2
ARRANGE
 70
     0
 62
     1
  6
CONTINUOUS
  0
LAYER
  2
ETC
 70
     0
 62
    83
  6
CONTINUOUS
  0
LAYER
  2
FIX
 70
     0
 62
   241
  6
CONTINUOUS
  0
LAYER
  2
SERVICESPACE
 70
     0
 62
     2
  6
CONTINUOUS
  0
LAYER
  2
SYMBOLLINE
 70
     0
 62
    38
  6
CONTINUOUS
  0
ENDTAB
  0
TABLE
  2
STYLE
 70
     2
  0
STYLE
  2
STANDARD
 70
     0
 40
0.0
 41
0.9
 50
0.0
 71
     0
 42
64.0
  3
SIMPLEX
  4
BIGFONT
  0
STYLE
  2
STANDARD1
 70
     0
 40
0.0
 41
1.0
 50
0.0
 71
     0
 42
3.5
  3
MONOTXT
  4
BIGFONT
  0
ENDTAB
  0
TABLE
  2
VIEW
 70
     1
  0
VIEW
  2
ALL
 70
     0
 40
4282.6199999999999
 10
0.0
 20
41.309903999999989
 41
5940.0
 11
0.0
 21
0.0
 31
1.0
 12
0.0
 22
0.0
 32
0.0
 42
50.0
 43
0.0
 44
0.0
 50
0.0
 71
     0
  0
ENDTAB
  0
TABLE
  2
UCS
 70
     0
  0
ENDTAB
  0
TABLE
  2
APPID
 70
     1
  0
APPID
  2
ACAD
 70
     0
  0
ENDTAB
  0
TABLE
  2
DIMSTYLE
 70
     1
  0
DIMSTYLE
  2
STANDARD
 70
     0
  3

  4

  5

  6

  7

 40
1.0
 41
0.18
 42
0.0625
 43
0.38
 44
0.18
 45
0.0
 46
0.0
 47
0.0
 48
0.0
140
0.18
141
0.09
142
0.0
143
25.399999999999999
144
1.0
145
0.0
146
1.0
147
0.09
 71
     0
 72
     0
 73
     1
 74
     1
 75
     0
 76
     0
 77
     0
 78
     0
170
     0
171
     2
172
     0
173
     0
174
     0
175
     0
176
     0
177
     0
178
     0
  0
ENDTAB
  0
ENDSEC
  0
SECTION
  2
BLOCKS
  0
BLOCK
  8
0
  2
$MODEL_SPACE
 70
     0
 10
0.0
 20
0.0
 30
0.0
  3
$MODEL_SPACE
  1

  0
ENDBLK
  5
20
  8
0
  0
BLOCK
 67
     1
  8
0
  2
$PAPER_SPACE
 70
     0
 10
0.0
 20
0.0
 30
0.0
  3
$PAPER_SPACE
  1

  0
ENDBLK
  5
1C
 67
     1
  8
0
  0
BLOCK
  8
0
  2
_ORIGIN
 70
     0
 10
0.0
 20
0.0
 30
0.0
  3
_ORIGIN
  1

  0
CIRCLE
  5
485
  8
0
  6
BYBLOCK
 62
     0
 10
0.0
 20
0.0
 30
0.0
 40
0.5
  0
LINE
  5
486
  8
0
  6
BYBLOCK
 62
     0
 10
0.0
 20
0.0
 30
0.0
 11
-1.0
 21
0.0
 31
0.0
  0
ENDBLK
  5
488
  8
0
  0
BLOCK
  8
0
  2
_DOTBLANK
 70
     0
 10
0.0
 20
0.0
 30
0.0
  3
_DOTBLANK
  1

  0
CIRCLE
  5
48A
  8
0
  6
BYBLOCK
 62
     0
 10
0.0
 20
0.0
 30
0.0
 40
0.5
  0
LINE
  5
48B
  8
0
  6
BYBLOCK
 62
     0
 10
-0.5
 20
0.0
 30
0.0
 11
-1.0
 21
0.0
 31
0.0
  0
ENDBLK
  5
48D
  8
0
  0
BLOCK
  8
0
  2
_NONE
 70
     0
 10
0.0
 20
0.0
 30
0.0
  3
_NONE
  1

  0
ENDBLK
  5
4BA
  8
0
  0
BLOCK
  8
0
  2
*D5
 70
     1
 10
0.0
 20
0.0
 30
0.0
  3
*D5
  1

  0
LINE
  5
59A
  8
SIZE
  6
CONTINUOUS
 62
     0
 10
-388.5
 20
-239.0
 30
0.0
 11
-388.5
 21
-658.17053973335715
 31
0.0
  0
LINE
  5
59B
  8
SIZE
  6
CONTINUOUS
 62
     0
 10
388.49999999999989
 20
-234.0
 30
0.0
 11
388.49999999999989
 21
-658.17053973335715
 31
0.0
  0
LINE
  5
59C
  8
SIZE
  6
CONTINUOUS
 62
     0
 10
-378.5
 20
-628.17053973335715
 30
0.0
 11
378.49999999999989
 21
-628.17053973335715
 31
0.0
  0
INSERT
  5
59D
  8
SIZE
  6
CONTINUOUS
 62
     0
  2
_ORIGIN
 10
-388.5
 20
-628.17053973335715
 30
0.0
 41
10.0
 42
10.0
 43
10.0
 50
180.0
  0
INSERT
  5
59E
  8
SIZE
  6
CONTINUOUS
 62
     0
  2
_ORIGIN
 10
388.49999999999989
 20
-628.17053973335715
 30
0.0
 41
10.0
 42
10.0
 43
10.0
  0
TEXT
  5
59F
  8
DETAIL
  6
CONTINUOUS
 62
     0
 10
-74.057142857142921
 20
-618.17053973335715
 30
0.0
 40
64.0
  1
777
 41
0.9
  0
POINT
  5
5A0
  8
DEFPOINTS
  6
CONTINUOUS
 62
     0
 10
-388.5
 20
-219.0
 30
0.0
  0
POINT
  5
5A1
  8
DEFPOINTS
  6
CONTINUOUS
 62
     0
 10
388.49999999999989
 20
-214.0
 30
0.0
  0
POINT
  5
5A2
  8
DEFPOINTS
  6
CONTINUOUS
 62
     0
 10
388.49999999999989
 20
-628.17053973335715
 30
0.0
  0
ENDBLK
  5
5A4
  8
0
  0
BLOCK
  8
0
  2
*D6
 70
     1
 10
0.0
 20
0.0
 30
0.0
  3
*D6
  1

  0
LINE
  5
5A7
  8
SIZE
  6
CONTINUOUS
 62
     0
 10
-361.49999999999989
 20
-242.99999999999989
 30
0.0
 11
-361.49999999999989
 21
-552.55659966129315
 31
0.0
  0
LINE
  5
5A8
  8
SIZE
  6
CONTINUOUS
 62
     0
 10
408.49999999999989
 20
-242.99999999999989
 30
0.0
 11
408.49999999999989
 21
-552.55659966129315
 31
0.0
  0
LINE
  5
5A9
  8
SIZE
  6
CONTINUOUS
 62
     0
 10
-351.49999999999989
 20
-522.55659966129315
 30
0.0
 11
398.49999999999989
 21
-522.55659966129315
 31
0.0
  0
INSERT
  5
5AA
  8
SIZE
  6
CONTINUOUS
 62
     0
  2
_ORIGIN
 10
-361.49999999999989
 20
-522.55659966129315
 30
0.0
 41
10.0
 42
10.0
 43
10.0
 50
180.0
  0
INSERT
  5
5AB
  8
SIZE
  6
CONTINUOUS
 62
     0
  2
_ORIGIN
 10
408.49999999999989
 20
-522.55659966129315
 30
0.0
 41
10.0
 42
10.0
 43
10.0
  0
TEXT
  5
5AC
  8
DETAIL
  6
CONTINUOUS
 62
     0
 10
-50.557142857142843
 20
-512.55659966129315
 30
0.0
 40
64.0
  1
770
 41
0.9
  0
POINT
  5
5AD
  8
DEFPOINTS
  6
CONTINUOUS
 62
     0
 10
-361.49999999999989
 20
-222.99999999999989
 30
0.0
  0
POINT
  5
5AE
  8
DEFPOINTS
  6
CONTINUOUS
 62
     0
 10
408.49999999999989
 20
-222.99999999999989
 30
0.0
  0
POINT
  5
5AF
  8
DEFPOINTS
  6
CONTINUOUS
 62
     0
 10
408.49999999999989
 20
-522.55659966129315
 30
0.0
  0
ENDBLK
  5
5B1
  8
0
  0
BLOCK
  8
0
  2
*D7
 70
     1
 10
0.0
 20
0.0
 30
0.0
  3
*D7
  1

  0
LINE
  5
68D
  8
SIZE
  6
CONTINUOUS
 62
     0
 10
388.49999999999977
 20
-239.0
 30
0.0
 11
388.49999999999977
 21
-657.52760100167495
 31
0.0
  0
LINE
  5
68E
  8
SIZE
  6
CONTINUOUS
 62
     0
 10
408.49999999999989
 20
-242.99999999999989
 30
0.0
 11
408.49999999999989
 21
-657.52760100167495
 31
0.0
  0
LINE
  5
68F
  8
SIZE
  6
CONTINUOUS
 62
     0
 10
378.49999999999977
 20
-627.52760100167495
 30
0.0
 11
368.49999999999977
 21
-627.52760100167495
 31
0.0
  0
LINE
  5
690
  8
SIZE
  6
CONTINUOUS
 62
     0
 10
418.5
 20
-627.52760100167495
 30
0.0
 11
541.75714285714275
 21
-627.52760100167495
 31
0.0
  0
LINE
  5
691
  8
SIZE
  6
CONTINUOUS
 62
     0
 10
388.49999999999977
 20
-627.52760100167495
 30
0.0
 11
408.49999999999989
 21
-627.52760100167495
 31
0.0
  0
INSERT
  5
692
  8
SIZE
  6
CONTINUOUS
 62
     0
  2
_ORIGIN
 10
388.49999999999977
 20
-627.52760100167495
 30
0.0
 41
10.0
 42
10.0
 43
10.0
  0
INSERT
  5
693
  8
SIZE
  6
CONTINUOUS
 62
     0
  2
_ORIGIN
 10
408.49999999999989
 20
-627.52760100167495
 30
0.0
 41
10.0
 42
10.0
 43
10.0
 50
180.0
  0
TEXT
  5
694
  8
DETAIL
  6
CONTINUOUS
 62
     0
 10
438.49999999999989
 20
-617.52760100167507
 30
0.0
 40
64.0
  1
20
 41
0.9
  0
POINT
  5
695
  8
DEFPOINTS
  6
CONTINUOUS
 62
     0
 10
388.49999999999977
 20
-219.0
 30
0.0
  0
POINT
  5
696
  8
DEFPOINTS
  6
CONTINUOUS
 62
     0
 10
408.49999999999989
 20
-222.99999999999989
 30
0.0
  0
POINT
  5
697
  8
DEFPOINTS
  6
CONTINUOUS
 62
     0
 10
408.49999999999989
 20
-627.52760100167495
 30
0.0
  0
ENDBLK
  5
5C0
  8
0
  0
BLOCK
  8
0
  2
*D8
 70
     1
 10
0.0
 20
0.0
 30
0.0
  3
*D8
  1

  0
LINE
  5
5F1
  8
SIZE
  6
CONTINUOUS
 62
     0
 10
-388.5
 20
-239.0
 30
0.0
 11
-388.5
 21
-657.9788646279776
 31
0.0
  0
LINE
  5
5F2
  8
SIZE
  6
CONTINUOUS
 62
     0
 10
-408.49999999999989
 20
-242.99999999999989
 30
0.0
 11
-408.49999999999989
 21
-657.9788646279776
 31
0.0
  0
LINE
  5
5F3
  8
SIZE
  6
CONTINUOUS
 62
     0
 10
-378.5
 20
-627.9788646279776
 30
0.0
 11
-368.5
 21
-627.9788646279776
 31
0.0
  0
LINE
  5
5F4
  8
SIZE
  6
CONTINUOUS
 62
     0
 10
-418.5
 20
-627.9788646279776
 30
0.0
 11
-541.75714285714275
 21
-627.9788646279776
 31
0.0
  0
LINE
  5
5F5
  8
SIZE
  6
CONTINUOUS
 62
     0
 10
-388.5
 20
-627.9788646279776
 30
0.0
 11
-408.49999999999989
 21
-627.9788646279776
 31
0.0
  0
INSERT
  5
5F6
  8
SIZE
  6
CONTINUOUS
 62
     0
  2
_ORIGIN
 10
-388.5
 20
-627.9788646279776
 30
0.0
 41
10.0
 42
10.0
 43
10.0
 50
180.0
  0
INSERT
  5
5F7
  8
SIZE
  6
CONTINUOUS
 62
     0
  2
_ORIGIN
 10
-408.49999999999989
 20
-627.9788646279776
 30
0.0
 41
10.0
 42
10.0
 43
10.0
  0
TEXT
  5
5F8
  8
DETAIL
  6
CONTINUOUS
 62
     0
 10
-531.75714285714287
 20
-617.97886462797749
 30
0.0
 40
64.0
  1
20
 41
0.9
  0
POINT
  5
5F9
  8
DEFPOINTS
  6
CONTINUOUS
 62
     0
 10
-388.5
 20
-219.0
 30
0.0
  0
POINT
  5
5FA
  8
DEFPOINTS
  6
CONTINUOUS
 62
     0
 10
-408.49999999999989
 20
-222.99999999999989
 30
0.0
  0
POINT
  5
5FB
  8
DEFPOINTS
  6
CONTINUOUS
 62
     0
 10
-408.49999999999989
 20
-627.9788646279776
 30
0.0
  0
ENDBLK
  5
5E5
  8
0
  0
BLOCK
  8
0
  2
*D9
 70
     1
 10
0.0
 20
0.0
 30
0.0
  3
*D9
  1

  0
LINE
  5
1429
  8
SIZE
  6
CONTINUOUS
 62
     0
 10
-428.49999999999989
 20
203.0
 30
0.0
 11
-505.370411303418
 21
203.0
 31
0.0
  0
LINE
  5
142A
  8
SIZE
  6
CONTINUOUS
 62
     0
 10
-428.50000000000011
 20
-195.0
 30
0.0
 11
-505.37041130341822
 21
-194.99999999999989
 31
0.0
  0
LINE
  5
142B
  8
SIZE
  6
CONTINUOUS
 62
     0
 10
-475.37041130341811
 20
193.0
 30
0.0
 11
-475.37041130341811
 21
-184.99999999999989
 31
0.0
  0
INSERT
  5
142C
  8
SIZE
  6
CONTINUOUS
 62
     0
  2
_ORIGIN
 10
-475.37041130341811
 20
203.0
 30
0.0
 41
10.0
 42
10.0
 43
10.0
 50
90.0
  0
INSERT
  5
142D
  8
SIZE
  6
CONTINUOUS
 62
     0
  2
_ORIGIN
 10
-475.37041130341811
 20
-194.99999999999989
 30
0.0
 41
10.0
 42
10.0
 43
10.0
 50
270.0
  0
TEXT
  5
142E
  8
DETAIL
  6
CONTINUOUS
 62
     0
 10
-485.37041130341822
 20
-70.057142857142907
 30
0.0
 40
64.0
  1
398
 50
90.0
 41
0.9
  0
POINT
  5
142F
  8
DEFPOINTS
  6
CONTINUOUS
 62
     0
 10
-408.49999999999989
 20
203.0
 30
0.0
  0
POINT
  5
1430
  8
DEFPOINTS
  6
CONTINUOUS
 62
     0
 10
-408.5
 20
-195.0
 30
0.0
  0
POINT
  5
1431
  8
DEFPOINTS
  6
CONTINUOUS
 62
     0
 10
-475.37041130341811
 20
-194.99999999999989
 30
0.0
  0
ENDBLK
  5
608
  8
0
  0
BLOCK
  8
0
  2
*D10
 70
     1
 10
0.0
 20
0.0
 30
0.0
  3
*D10
  1

  0
LINE
  5
60B
  8
SIZE
  6
CONTINUOUS
 62
     0
 10
-381.49999999999989
 20
-224.99999999999989
 30
0.0
 11
-618.16603949373518
 21
-224.99999999999989
 31
0.0
  0
LINE
  5
60C
  8
SIZE
  6
CONTINUOUS
 62
     0
 10
-381.49999999999989
 20
225.0
 30
0.0
 11
-618.16603949373518
 21
225.0
 31
0.0
  0
LINE
  5
60D
  8
SIZE
  6
CONTINUOUS
 62
     0
 10
-588.1660394937353
 20
-214.99999999999989
 30
0.0
 11
-588.1660394937353
 21
215.0
 31
0.0
  0
INSERT
  5
60E
  8
SIZE
  6
CONTINUOUS
 62
     0
  2
_ORIGIN
 10
-588.1660394937353
 20
-224.99999999999989
 30
0.0
 41
10.0
 42
10.0
 43
10.0
 50
270.0
  0
INSERT
  5
60F
  8
SIZE
  6
CONTINUOUS
 62
     0
  2
_ORIGIN
 10
-588.1660394937353
 20
225.0
 30
0.0
 41
10.0
 42
10.0
 43
10.0
 50
90.0
  0
TEXT
  5
610
  8
DETAIL
  6
CONTINUOUS
 62
     0
 10
-598.16603949373518
 20
-74.057142857142878
 30
0.0
 40
64.0
  1
450
 50
90.0
 41
0.9
  0
POINT
  5
611
  8
DEFPOINTS
  6
CONTINUOUS
 62
     0
 10
-361.5
 20
-224.99999999999989
 30
0.0
  0
POINT
  5
612
  8
DEFPOINTS
  6
CONTINUOUS
 62
     0
 10
-361.5
 20
225.0
 30
0.0
  0
POINT
  5
613
  8
DEFPOINTS
  6
CONTINUOUS
 62
     0
 10
-588.1660394937353
 20
225.0
 30
0.0
  0
ENDBLK
  5
615
  8
0
  0
BLOCK
  8
0
  2
*D11
 70
     1
 10
0.0
 20
0.0
 30
0.0
  3
*D11
  1

  0
LINE
  5
764
  8
SIZE
  6
CONTINUOUS
 62
     0
 10
348.50000000000011
 20
340.0
 30
0.0
 11
696.1634914288444
 21
339.99999999999989
 31
0.0
  0
LINE
  5
765
  8
SIZE
  6
CONTINUOUS
 62
     0
 10
278.5
 20
225.0
 30
0.0
 11
696.16349142884428
 21
224.99999999999989
 31
0.0
  0
LINE
  5
766
  8
SIZE
  6
CONTINUOUS
 62
     0
 10
666.1634914288444
 20
329.99999999999977
 30
0.0
 11
666.16349142884417
 21
234.9999999999998
 31
0.0
  0
INSERT
  5
767
  8
SIZE
  6
CONTINUOUS
 62
     0
  2
_ORIGIN
 10
666.1634914288444
 20
339.99999999999989
 30
0.0
 41
10.0
 42
10.0
 43
10.0
 50
90.0
  0
INSERT
  5
768
  8
SIZE
  6
CONTINUOUS
 62
     0
  2
_ORIGIN
 10
666.16349142884417
 20
224.99999999999989
 30
0.0
 41
10.0
 42
10.0
 43
10.0
 50
270.0
  0
TEXT
  5
769
  8
DETAIL
  6
CONTINUOUS
 62
     0
 10
656.16349142884417
 20
186.1134359357589
 30
0.0
 40
64.0
  1
115
 50
90.0
 41
0.9
  0
POINT
  5
76A
  8
DEFPOINTS
  6
CONTINUOUS
 62
     0
 10
328.50000000000011
 20
340.0
 30
0.0
  0
POINT
  5
76B
  8
DEFPOINTS
  6
CONTINUOUS
 62
     0
 10
258.49999999999989
 20
225.0
 30
0.0
  0
POINT
  5
76C
  8
DEFPOINTS
  6
CONTINUOUS
 62
     0
 10
666.16349142884417
 20
224.99999999999989
 30
0.0
  0
ENDBLK
  5
631
  8
0
  0
BLOCK
  8
0
  2
*D12
 70
     1
 10
0.0
 20
0.0
 30
0.0
  3
*D12
  1

  0
LINE
  5
66C
  8
SIZE
  6
CONTINUOUS
 62
     0
 10
404.5
 20
96.000000000000014
 30
0.0
 11
761.86547460009751
 21
95.999999999999901
 31
0.0
  0
LINE
  5
66D
  8
SIZE
  6
CONTINUOUS
 62
     0
 10
381.49999999999989
 20
-224.99999999999989
 30
0.0
 11
761.86547460009751
 21
-225.0
 31
0.0
  0
LINE
  5
66E
  8
SIZE
  6
CONTINUOUS
 62
     0
 10
731.86547460009751
 20
85.999999999999915
 30
0.0
 11
731.86547460009751
 21
-215.0
 31
0.0
  0
INSERT
  5
66F
  8
SIZE
  6
CONTINUOUS
 62
     0
  2
_ORIGIN
 10
731.86547460009751
 20
95.999999999999915
 30
0.0
 41
10.0
 42
10.0
 43
10.0
 50
90.0
  0
INSERT
  5
670
  8
SIZE
  6
CONTINUOUS
 62
     0
  2
_ORIGIN
 10
731.86547460009751
 20
-225.0
 30
0.0
 41
10.0
 42
10.0
 43
10.0
 50
270.0
  0
TEXT
  5
671
  8
DETAIL
  6
CONTINUOUS
 62
     0
 10
721.86547460009751
 20
-134.65522748778619
 30
0.0
 40
64.0
  1
321
 50
90.0
 41
0.9
  0
POINT
  5
672
  8
DEFPOINTS
  6
CONTINUOUS
 62
     0
 10
384.5
 20
96.000000000000014
 30
0.0
  0
POINT
  5
673
  8
DEFPOINTS
  6
CONTINUOUS
 62
     0
 10
361.49999999999989
 20
-224.99999999999989
 30
0.0
  0
POINT
  5
674
  8
DEFPOINTS
  6
CONTINUOUS
 62
     0
 10
731.86547460009751
 20
-225.0
 30
0.0
  0
ENDBLK
  5
63E
  8
0
  0
BLOCK
  8
0
  2
*D13
 70
     1
 10
0.0
 20
0.0
 30
0.0
  3
*D13
  1

  0
LINE
  5
74F
  8
SIZE
  6
CONTINUOUS
 62
     0
 10
381.49999999999989
 20
-224.99999999999989
 30
0.0
 11
643.74310929889896
 21
-225.0
 31
0.0
  0
LINE
  5
750
  8
SIZE
  6
CONTINUOUS
 62
     0
 10
493.5
 20
-171.99999999999989
 30
0.0
 11
643.74310929889896
 21
-172.0
 31
0.0
  0
LINE
  5
751
  8
SIZE
  6
CONTINUOUS
 62
     0
 10
613.74310929889907
 20
-182.0
 30
0.0
 11
613.74310929889907
 21
-215.0
 31
0.0
  0
LINE
  5
752
  8
SIZE
  6
CONTINUOUS
 62
     0
 10
613.74310929889907
 20
-225.0
 30
0.0
 11
613.74310929889896
 21
-353.62151060524963
 31
0.0
  0
INSERT
  5
753
  8
SIZE
  6
CONTINUOUS
 62
     0
  2
_ORIGIN
 10
613.74310929889907
 20
-172.0
 30
0.0
 41
10.0
 42
10.0
 43
10.0
 50
90.0
  0
INSERT
  5
754
  8
SIZE
  6
CONTINUOUS
 62
     0
  2
_ORIGIN
 10
613.74310929889907
 20
-225.0
 30
0.0
 41
10.0
 42
10.0
 43
10.0
 50
270.0
  0
TEXT
  5
755
  8
DETAIL
  6
CONTINUOUS
 62
     0
 10
603.74310929889896
 20
-343.62151060524963
 30
0.0
 40
64.0
  1
53
 50
90.0
 41
0.9
  0
POINT
  5
756
  8
DEFPOINTS
  6
CONTINUOUS
 62
     0
 10
361.49999999999989
 20
-224.99999999999989
 30
0.0
  0
POINT
  5
757
  8
DEFPOINTS
  6
CONTINUOUS
 62
     0
 10
473.5
 20
-171.99999999999989
 30
0.0
  0
POINT
  5
758
  8
DEFPOINTS
  6
CONTINUOUS
 62
     0
 10
613.74310929889907
 20
-172.0
 30
0.0
  0
ENDBLK
  5
64D
  8
0
  0
BLOCK
  8
0
  2
*D14
 70
     1
 10
0.0
 20
0.0
 30
0.0
  3
*D14
  1

  0
LINE
  5
73C
  8
SIZE
  6
CONTINUOUS
 62
     0
 10
493.5
 20
70.000000000000014
 30
0.0
 11
643.74310929889896
 21
69.999999999999972
 31
0.0
  0
LINE
  5
73D
  8
SIZE
  6
CONTINUOUS
 62
     0
 10
493.5
 20
-171.99999999999989
 30
0.0
 11
643.74310929889896
 21
-172.0
 31
0.0
  0
LINE
  5
73E
  8
SIZE
  6
CONTINUOUS
 62
     0
 10
613.74310929889907
 20
59.999999999999979
 30
0.0
 11
613.74310929889907
 21
-162.0
 31
0.0
  0
INSERT
  5
73F
  8
SIZE
  6
CONTINUOUS
 62
     0
  2
_ORIGIN
 10
613.74310929889907
 20
69.999999999999972
 30
0.0
 41
10.0
 42
10.0
 43
10.0
 50
90.0
  0
INSERT
  5
740
  8
SIZE
  6
CONTINUOUS
 62
     0
  2
_ORIGIN
 10
613.74310929889907
 20
-172.0
 30
0.0
 41
10.0
 42
10.0
 43
10.0
 50
270.0
  0
TEXT
  5
741
  8
DETAIL
  6
CONTINUOUS
 62
     0
 10
603.74310929889896
 20
-131.9641325038618
 30
0.0
 40
64.0
  1
242
 50
90.0
 41
0.9
  0
POINT
  5
742
  8
DEFPOINTS
  6
CONTINUOUS
 62
     0
 10
473.5
 20
70.000000000000028
 30
0.0
  0
POINT
  5
743
  8
DEFPOINTS
  6
CONTINUOUS
 62
     0
 10
473.5
 20
-171.99999999999989
 30
0.0
  0
POINT
  5
744
  8
DEFPOINTS
  6
CONTINUOUS
 62
     0
 10
613.74310929889907
 20
-172.0
 30
0.0
  0
ENDBLK
  5
681
  8
0
  0
BLOCK
  8
0
  2
*D15
 70
     1
 10
0.0
 20
0.0
 30
0.0
  3
*D15
  1

  0
LINE
  5
6B8
  8
SIZE
  6
CONTINUOUS
 62
     0
 10
408.49999999999989
 20
242.9999999999998
 30
0.0
 11
408.49999999999989
 21
483.74311300066609
 31
0.0
  0
LINE
  5
6B9
  8
SIZE
  6
CONTINUOUS
 62
     0
 10
308.50000000000011
 20
380.0
 30
0.0
 11
308.50000000000011
 21
483.74311300066609
 31
0.0
  0
LINE
  5
6BA
  8
SIZE
  6
CONTINUOUS
 62
     0
 10
418.5
 20
453.7431130006662
 30
0.0
 11
428.5
 21
453.7431130006662
 31
0.0
  0
LINE
  5
6BB
  8
SIZE
  6
CONTINUOUS
 62
     0
 10
298.50000000000011
 20
453.7431130006662
 30
0.0
 11
288.50000000000011
 21
453.7431130006662
 31
0.0
  0
LINE
  5
6BC
  8
SIZE
  6
CONTINUOUS
 62
     0
 10
408.49999999999989
 20
453.7431130006662
 30
0.0
 11
308.50000000000011
 21
453.7431130006662
 31
0.0
  0
INSERT
  5
6BD
  8
SIZE
  6
CONTINUOUS
 62
     0
  2
_ORIGIN
 10
408.49999999999989
 20
453.7431130006662
 30
0.0
 41
10.0
 42
10.0
 43
10.0
 50
180.0
  0
INSERT
  5
6BE
  8
SIZE
  6
CONTINUOUS
 62
     0
  2
_ORIGIN
 10
308.50000000000011
 20
453.7431130006662
 30
0.0
 41
10.0
 42
10.0
 43
10.0
  0
TEXT
  5
6BF
  8
DETAIL
  6
CONTINUOUS
 62
     0
 10
289.92857142857139
 20
463.74311300066609
 30
0.0
 40
64.0
  1
100
 41
0.9
  0
POINT
  5
6C0
  8
DEFPOINTS
  6
CONTINUOUS
 62
     0
 10
408.49999999999989
 20
222.99999999999989
 30
0.0
  0
POINT
  5
6C1
  8
DEFPOINTS
  6
CONTINUOUS
 62
     0
 10
308.50000000000011
 20
360.0
 30
0.0
  0
POINT
  5
6C2
  8
DEFPOINTS
  6
CONTINUOUS
 62
     0
 10
308.50000000000011
 20
453.7431130006662
 30
0.0
  0
ENDBLK
  5
6C4
  8
0
  0
BLOCK
  8
0
  2
*D16
 70
     1
 10
0.0
 20
0.0
 30
0.0
  3
*D16
  1

  0
LINE
  5
729
  8
SIZE
  6
CONTINUOUS
 62
     0
 10
408.49999999999989
 20
50.000000000000028
 30
0.0
 11
408.49999999999989
 21
-122.60325981861379
 31
0.0
  0
LINE
  5
72A
  8
SIZE
  6
CONTINUOUS
 62
     0
 10
364.5
 20
56.000000000000007
 30
0.0
 11
364.5
 21
-122.60325981861379
 31
0.0
  0
LINE
  5
72B
  8
SIZE
  6
CONTINUOUS
 62
     0
 10
374.5
 20
-92.603259818613878
 30
0.0
 11
398.49999999999989
 21
-92.603259818613878
 31
0.0
  0
LINE
  5
72C
  8
SIZE
  6
CONTINUOUS
 62
     0
 10
408.49999999999989
 20
-92.603259818613878
 30
0.0
 11
534.49999999999989
 21
-92.603259818613878
 31
0.0
  0
INSERT
  5
72D
  8
SIZE
  6
CONTINUOUS
 62
     0
  2
_ORIGIN
 10
364.5
 20
-92.603259818613878
 30
0.0
 41
10.0
 42
10.0
 43
10.0
 50
180.0
  0
INSERT
  5
72E
  8
SIZE
  6
CONTINUOUS
 62
     0
  2
_ORIGIN
 10
408.49999999999989
 20
-92.603259818613878
 30
0.0
 41
10.0
 42
10.0
 43
10.0
  0
TEXT
  5
72F
  8
DETAIL
  6
CONTINUOUS
 62
     0
 10
428.5
 20
-82.603259818613878
 30
0.0
 40
64.0
  1
44
 41
0.9
  0
POINT
  5
730
  8
DEFPOINTS
  6
CONTINUOUS
 62
     0
 10
408.49999999999989
 20
70.000000000000028
 30
0.0
  0
POINT
  5
731
  8
DEFPOINTS
  6
CONTINUOUS
 62
     0
 10
364.5
 20
76.000000000000014
 30
0.0
  0
POINT
  5
732
  8
DEFPOINTS
  6
CONTINUOUS
 62
     0
 10
364.5
 20
-92.603259818613878
 30
0.0
  0
ENDBLK
  5
6D3
  8
0
  0
BLOCK
  8
0
  2
*D17
 70
     1
 10
0.0
 20
0.0
 30
0.0
  3
*D17
  1

  0
LINE
  5
702
  8
SIZE
  6
CONTINUOUS
 62
     0
 10
364.5
 20
56.000000000000007
 30
0.0
 11
364.5
 21
-122.3267185779477
 31
0.0
  0
LINE
  5
703
  8
SIZE
  6
CONTINUOUS
 62
     0
 10
309.49999999999989
 20
56.0
 30
0.0
 11
309.49999999999989
 21
-122.3267185779477
 31
0.0
  0
LINE
  5
704
  8
SIZE
  6
CONTINUOUS
 62
     0
 10
354.5
 20
-92.326718577947744
 30
0.0
 11
319.49999999999989
 21
-92.326718577947744
 31
0.0
  0
LINE
  5
705
  8
SIZE
  6
CONTINUOUS
 62
     0
 10
309.49999999999989
 20
-92.326718577947744
 30
0.0
 11
186.2428571428571
 21
-92.326718577947744
 31
0.0
  0
INSERT
  5
706
  8
SIZE
  6
CONTINUOUS
 62
     0
  2
_ORIGIN
 10
364.5
 20
-92.326718577947744
 30
0.0
 41
10.0
 42
10.0
 43
10.0
  0
INSERT
  5
707
  8
SIZE
  6
CONTINUOUS
 62
     0
  2
_ORIGIN
 10
309.49999999999989
 20
-92.326718577947744
 30
0.0
 41
10.0
 42
10.0
 43
10.0
 50
180.0
  0
TEXT
  5
708
  8
DETAIL
  6
CONTINUOUS
 62
     0
 10
196.24285714285699
 20
-82.326718577947744
 30
0.0
 40
64.0
  1
55
 41
0.9
  0
POINT
  5
709
  8
DEFPOINTS
  6
CONTINUOUS
 62
     0
 10
364.5
 20
76.000000000000014
 30
0.0
  0
POINT
  5
70A
  8
DEFPOINTS
  6
CONTINUOUS
 62
     0
 10
309.49999999999989
 20
76.0
 30
0.0
  0
POINT
  5
70B
  8
DEFPOINTS
  6
CONTINUOUS
 62
     0
 10
309.49999999999989
 20
-92.326718577947744
 30
0.0
  0
ENDBLK
  5
6E2
  8
0
  0
BLOCK
  8
0
  2
*D18
 70
     1
 10
0.0
 20
0.0
 30
0.0
  3
*D18
  1

  0
LINE
  5
7E6
  8
SIZE
  6
CONTINUOUS
 62
     0
 10
-388.5
 20
-1820.2728349499209
 30
0.0
 11
-388.5
 21
-1624.945334817304
 31
0.0
  0
LINE
  5
7E7
  8
SIZE
  6
CONTINUOUS
 62
     0
 10
388.49999999999989
 20
-1820.2728349499209
 30
0.0
 11
388.49999999999989
 21
-1624.945334817304
 31
0.0
  0
LINE
  5
7E8
  8
SIZE
  6
CONTINUOUS
 62
     0
 10
-378.5
 20
-1654.945334817304
 30
0.0
 11
378.49999999999989
 21
-1654.945334817304
 31
0.0
  0
INSERT
  5
7E9
  8
SIZE
  6
CONTINUOUS
 62
     0
  2
_ORIGIN
 10
-388.5
 20
-1654.945334817304
 30
0.0
 41
10.0
 42
10.0
 43
10.0
 50
180.0
  0
INSERT
  5
7EA
  8
SIZE
  6
CONTINUOUS
 62
     0
  2
_ORIGIN
 10
388.49999999999989
 20
-1654.945334817304
 30
0.0
 41
10.0
 42
10.0
 43
10.0
  0
TEXT
  5
7EB
  8
DETAIL
  6
CONTINUOUS
 62
     0
 10
-74.057142857142921
 20
-1644.945334817304
 30
0.0
 40
64.0
  1
777
 41
0.9
  0
POINT
  5
7EC
  8
DEFPOINTS
  6
CONTINUOUS
 62
     0
 10
-388.5
 20
-1840.2728349499209
 30
0.0
  0
POINT
  5
7ED
  8
DEFPOINTS
  6
CONTINUOUS
 62
     0
 10
388.49999999999989
 20
-1840.2728349499209
 30
0.0
  0
POINT
  5
7EE
  8
DEFPOINTS
  6
CONTINUOUS
 62
     0
 10
388.49999999999989
 20
-1654.945334817304
 30
0.0
  0
ENDBLK
  5
7A1
  8
0
  0
BLOCK
  8
0
  2
*D19
 70
     1
 10
0.0
 20
0.0
 30
0.0
  3
*D19
  1

  0
LINE
  5
7D2
  8
SIZE
  6
CONTINUOUS
 62
     0
 10
-408.5
 20
-1835.2728349499209
 30
0.0
 11
-408.5
 21
-1625.08991143923
 31
0.0
  0
LINE
  5
7D3
  8
SIZE
  6
CONTINUOUS
 62
     0
 10
-388.5
 20
-1820.2728349499209
 30
0.0
 11
-388.5
 21
-1625.08991143923
 31
0.0
  0
LINE
  5
7D4
  8
SIZE
  6
CONTINUOUS
 62
     0
 10
-378.5
 20
-1655.08991143923
 30
0.0
 11
-368.5
 21
-1655.08991143923
 31
0.0
  0
LINE
  5
7D5
  8
SIZE
  6
CONTINUOUS
 62
     0
 10
-418.5
 20
-1655.08991143923
 30
0.0
 11
-541.75714285714275
 21
-1655.08991143923
 31
0.0
  0
LINE
  5
7D6
  8
SIZE
  6
CONTINUOUS
 62
     0
 10
-388.5
 20
-1655.08991143923
 30
0.0
 11
-408.5
 21
-1655.08991143923
 31
0.0
  0
INSERT
  5
7D7
  8
SIZE
  6
CONTINUOUS
 62
     0
  2
_ORIGIN
 10
-388.5
 20
-1655.08991143923
 30
0.0
 41
10.0
 42
10.0
 43
10.0
 50
180.0
  0
INSERT
  5
7D8
  8
SIZE
  6
CONTINUOUS
 62
     0
  2
_ORIGIN
 10
-408.5
 20
-1655.08991143923
 30
0.0
 41
10.0
 42
10.0
 43
10.0
  0
TEXT
  5
7D9
  8
DETAIL
  6
CONTINUOUS
 62
     0
 10
-531.75714285714287
 20
-1645.08991143923
 30
0.0
 40
64.0
  1
20
 41
0.9
  0
POINT
  5
7DA
  8
DEFPOINTS
  6
CONTINUOUS
 62
     0
 10
-408.5
 20
-1855.2728349499209
 30
0.0
  0
POINT
  5
7DB
  8
DEFPOINTS
  6
CONTINUOUS
 62
     0
 10
-388.5
 20
-1840.2728349499209
 30
0.0
  0
POINT
  5
7DC
  8
DEFPOINTS
  6
CONTINUOUS
 62
     0
 10
-388.5
 20
-1655.08991143923
 30
0.0
  0
ENDBLK
  5
7B0
  8
0
  0
BLOCK
  8
0
  2
*D20
 70
     1
 10
0.0
 20
0.0
 30
0.0
  3
*D20
  1

  0
LINE
  5
8A0
  8
SIZE
  6
CONTINUOUS
 62
     0
 10
388.49999999999989
 20
-1820.2728349499209
 30
0.0
 11
388.49999999999989
 21
-1625.020015649199
 31
0.0
  0
LINE
  5
8A1
  8
SIZE
  6
CONTINUOUS
 62
     0
 10
408.5
 20
-1812.2728349499209
 30
0.0
 11
408.5
 21
-1625.020015649199
 31
0.0
  0
LINE
  5
8A2
  8
SIZE
  6
CONTINUOUS
 62
     0
 10
378.49999999999989
 20
-1655.020015649199
 30
0.0
 11
368.49999999999989
 21
-1655.020015649199
 31
0.0
  0
LINE
  5
8A3
  8
SIZE
  6
CONTINUOUS
 62
     0
 10
418.5
 20
-1655.020015649199
 30
0.0
 11
541.75714285714275
 21
-1655.020015649199
 31
0.0
  0
LINE
  5
8A4
  8
SIZE
  6
CONTINUOUS
 62
     0
 10
388.49999999999989
 20
-1655.020015649199
 30
0.0
 11
408.5
 21
-1655.020015649199
 31
0.0
  0
INSERT
  5
8A5
  8
SIZE
  6
CONTINUOUS
 62
     0
  2
_ORIGIN
 10
388.49999999999989
 20
-1655.020015649199
 30
0.0
 41
10.0
 42
10.0
 43
10.0
  0
INSERT
  5
8A6
  8
SIZE
  6
CONTINUOUS
 62
     0
  2
_ORIGIN
 10
408.5
 20
-1655.020015649199
 30
0.0
 41
10.0
 42
10.0
 43
10.0
 50
180.0
  0
TEXT
  5
8A7
  8
DETAIL
  6
CONTINUOUS
 62
     0
 10
438.5
 20
-1645.020015649199
 30
0.0
 40
64.0
  1
20
 41
0.9
  0
POINT
  5
8A8
  8
DEFPOINTS
  6
CONTINUOUS
 62
     0
 10
388.49999999999989
 20
-1840.2728349499209
 30
0.0
  0
POINT
  5
8A9
  8
DEFPOINTS
  6
CONTINUOUS
 62
     0
 10
408.5
 20
-1832.2728349499209
 30
0.0
  0
POINT
  5
8AA
  8
DEFPOINTS
  6
CONTINUOUS
 62
     0
 10
408.5
 20
-1655.020015649199
 30
0.0
  0
ENDBLK
  5
7FD
  8
0
  0
BLOCK
  8
0
  2
*D21
 70
     1
 10
0.0
 20
0.0
 30
0.0
  3
*D21
  1

  0
LINE
  5
816
  8
SIZE
  6
CONTINUOUS
 62
     0
 10
-428.50000000000011
 20
-1860.2728349499209
 30
0.0
 11
-500.36176728809357
 21
-1860.2728349499209
 31
0.0
  0
LINE
  5
817
  8
SIZE
  6
CONTINUOUS
 62
     0
 10
-381.49999999999989
 20
-2062.2728349499212
 30
0.0
 11
-500.36176728809357
 21
-2062.2728349499212
 31
0.0
  0
LINE
  5
818
  8
SIZE
  6
CONTINUOUS
 62
     0
 10
-470.36176728809357
 20
-1870.2728349499209
 30
0.0
 11
-470.36176728809369
 21
-2052.2728349499212
 31
0.0
  0
INSERT
  5
819
  8
SIZE
  6
CONTINUOUS
 62
     0
  2
_ORIGIN
 10
-470.36176728809357
 20
-1860.2728349499209
 30
0.0
 41
10.0
 42
10.0
 43
10.0
 50
90.0
  0
INSERT
  5
81A
  8
SIZE
  6
CONTINUOUS
 62
     0
  2
_ORIGIN
 10
-470.36176728809369
 20
-2062.2728349499212
 30
0.0
 41
10.0
 42
10.0
 43
10.0
 50
270.0
  0
TEXT
  5
81B
  8
DETAIL
  6
CONTINUOUS
 62
     0
 10
-480.36176728809329
 20
-2035.3299778070641
 30
0.0
 40
64.0
  1
202
 50
90.0
 41
0.9
  0
POINT
  5
81C
  8
DEFPOINTS
  6
CONTINUOUS
 62
     0
 10
-408.5
 20
-1860.2728349499209
 30
0.0
  0
POINT
  5
81D
  8
DEFPOINTS
  6
CONTINUOUS
 62
     0
 10
-361.49999999999989
 20
-2062.2728349499212
 30
0.0
  0
POINT
  5
81E
  8
DEFPOINTS
  6
CONTINUOUS
 62
     0
 10
-470.36176728809369
 20
-2062.2728349499212
 30
0.0
  0
ENDBLK
  5
820
  8
0
  0
BLOCK
  8
0
  2
*D22
 70
     1
 10
0.0
 20
0.0
 30
0.0
  3
*D22
  1

  0
LINE
  5
823
  8
SIZE
  6
CONTINUOUS
 62
     0
 10
-381.49999999999989
 20
-1832.2728349499209
 30
0.0
 11
-623.93532213966682
 21
-1832.2728349499209
 31
0.0
  0
LINE
  5
824
  8
SIZE
  6
CONTINUOUS
 62
     0
 10
-381.49999999999989
 20
-2062.2728349499212
 30
0.0
 11
-623.93532213966682
 21
-2062.2728349499212
 31
0.0
  0
LINE
  5
825
  8
SIZE
  6
CONTINUOUS
 62
     0
 10
-593.93532213966682
 20
-1842.2728349499209
 30
0.0
 11
-593.93532213966682
 21
-2052.2728349499212
 31
0.0
  0
INSERT
  5
826
  8
SIZE
  6
CONTINUOUS
 62
     0
  2
_ORIGIN
 10
-593.93532213966682
 20
-1832.2728349499209
 30
0.0
 41
10.0
 42
10.0
 43
10.0
 50
90.0
  0
INSERT
  5
827
  8
SIZE
  6
CONTINUOUS
 62
     0
  2
_ORIGIN
 10
-593.93532213966682
 20
-2062.2728349499212
 30
0.0
 41
10.0
 42
10.0
 43
10.0
 50
270.0
  0
TEXT
  5
828
  8
DETAIL
  6
CONTINUOUS
 62
     0
 10
-603.93532213966637
 20
-2021.3299778070641
 30
0.0
 40
64.0
  1
230
 50
90.0
 41
0.9
  0
POINT
  5
829
  8
DEFPOINTS
  6
CONTINUOUS
 62
     0
 10
-361.49999999999977
 20
-1832.2728349499209
 30
0.0
  0
POINT
  5
82A
  8
DEFPOINTS
  6
CONTINUOUS
 62
     0
 10
-361.49999999999989
 20
-2062.2728349499212
 30
0.0
  0
POINT
  5
82B
  8
DEFPOINTS
  6
CONTINUOUS
 62
     0
 10
-593.93532213966682
 20
-2062.2728349499212
 30
0.0
  0
ENDBLK
  5
82D
  8
0
  0
BLOCK
  8
0
  2
*D23
 70
     1
 10
0.0
 20
0.0
 30
0.0
  3
*D23
  1

  0
LINE
  5
830
  8
SIZE
  6
CONTINUOUS
 62
     0
 10
404.5
 20
-1917.2728349499209
 30
0.0
 11
718.95717699427769
 21
-1917.2728349499209
 31
0.0
  0
LINE
  5
831
  8
SIZE
  6
CONTINUOUS
 62
     0
 10
493.5
 20
-2062.2728349499212
 30
0.0
 11
718.95717699427769
 21
-2062.2728349499212
 31
0.0
  0
LINE
  5
832
  8
SIZE
  6
CONTINUOUS
 62
     0
 10
688.95717699427769
 20
-1907.2728349499209
 30
0.0
 11
688.95717699427769
 21
-1897.2728349499209
 31
0.0
  0
LINE
  5
833
  8
SIZE
  6
CONTINUOUS
 62
     0
 10
688.95717699427769
 20
-2072.2728349499212
 30
0.0
 11
688.95717699427769
 21
-2082.2728349499212
 31
0.0
  0
LINE
  5
834
  8
SIZE
  6
CONTINUOUS
 62
     0
 10
688.95717699427769
 20
-1917.2728349499209
 30
0.0
 11
688.95717699427769
 21
-2062.2728349499212
 31
0.0
  0
INSERT
  5
835
  8
SIZE
  6
CONTINUOUS
 62
     0
  2
_ORIGIN
 10
688.95717699427769
 20
-1917.2728349499209
 30
0.0
 41
10.0
 42
10.0
 43
10.0
 50
270.0
  0
INSERT
  5
836
  8
SIZE
  6
CONTINUOUS
 62
     0
  2
_ORIGIN
 10
688.95717699427769
 20
-2062.2728349499212
 30
0.0
 41
10.0
 42
10.0
 43
10.0
 50
90.0
  0
TEXT
  5
837
  8
DETAIL
  6
CONTINUOUS
 62
     0
 10
678.95717699427803
 20
-2058.3442635213501
 30
0.0
 40
64.0
  1
145
 50
90.0
 41
0.9
  0
POINT
  5
838
  8
DEFPOINTS
  6
CONTINUOUS
 62
     0
 10
384.5
 20
-1917.2728349499209
 30
0.0
  0
POINT
  5
839
  8
DEFPOINTS
  6
CONTINUOUS
 62
     0
 10
473.5
 20
-2062.2728349499212
 30
0.0
  0
POINT
  5
83A
  8
DEFPOINTS
  6
CONTINUOUS
 62
     0
 10
688.95717699427769
 20
-2062.2728349499212
 30
0.0
  0
ENDBLK
  5
83C
  8
0
  0
BLOCK
  8
0
  2
*D24
 70
     1
 10
0.0
 20
0.0
 30
0.0
  3
*D24
  1

  0
LINE
  5
857
  8
SIZE
  6
CONTINUOUS
 62
     0
 10
404.5
 20
-1917.2728349499209
 30
0.0
 11
596.356736599089
 21
-1917.2728349499209
 31
0.0
  0
LINE
  5
858
  8
SIZE
  6
CONTINUOUS
 62
     0
 10
349.49999999999989
 20
-1941.2728349499209
 30
0.0
 11
596.356736599089
 21
-1941.2728349499209
 31
0.0
  0
LINE
  5
859
  8
SIZE
  6
CONTINUOUS
 62
     0
 10
566.356736599089
 20
-1951.2728349499209
 30
0.0
 11
566.356736599089
 21
-1961.2728349499209
 31
0.0
  0
LINE
  5
85A
  8
SIZE
  6
CONTINUOUS
 62
     0
 10
566.356736599089
 20
-1907.2728349499209
 30
0.0
 11
566.35673659908912
 21
-1781.2728349499209
 31
0.0
  0
LINE
  5
85B
  8
SIZE
  6
CONTINUOUS
 62
     0
 10
566.356736599089
 20
-1941.2728349499209
 30
0.0
 11
566.356736599089
 21
-1917.2728349499209
 31
0.0
  0
INSERT
  5
85C
  8
SIZE
  6
CONTINUOUS
 62
     0
  2
_ORIGIN
 10
566.356736599089
 20
-1941.2728349499209
 30
0.0
 41
10.0
 42
10.0
 43
10.0
 50
90.0
  0
INSERT
  5
85D
  8
SIZE
  6
CONTINUOUS
 62
     0
  2
_ORIGIN
 10
566.356736599089
 20
-1917.2728349499209
 30
0.0
 41
10.0
 42
10.0
 43
10.0
 50
270.0
  0
TEXT
  5
85E
  8
DETAIL
  6
CONTINUOUS
 62
     0
 10
556.35673659908934
 20
-1887.2728349499209
 30
0.0
 40
64.0
  1
24
 50
90.0
 41
0.9
  0
POINT
  5
85F
  8
DEFPOINTS
  6
CONTINUOUS
 62
     0
 10
384.5
 20
-1917.2728349499209
 30
0.0
  0
POINT
  5
860
  8
DEFPOINTS
  6
CONTINUOUS
 62
     0
 10
329.49999999999989
 20
-1941.2728349499209
 30
0.0
  0
POINT
  5
861
  8
DEFPOINTS
  6
CONTINUOUS
 62
     0
 10
566.356736599089
 20
-1941.2728349499209
 30
0.0
  0
ENDBLK
  5
84B
  8
0
  0
BLOCK
  8
0
  2
*D25
 70
     1
 10
0.0
 20
0.0
 30
0.0
  3
*D25
  1

  0
LINE
  5
88B
  8
SIZE
  6
CONTINUOUS
 62
     0
 10
408.5
 20
-1812.2728349499209
 30
0.0
 11
408.5
 21
-1711.2116758831901
 31
0.0
  0
LINE
  5
88C
  8
SIZE
  6
CONTINUOUS
 62
     0
 10
473.50000000000011
 20
-1812.2728349499209
 30
0.0
 11
473.50000000000011
 21
-1711.2116758831901
 31
0.0
  0
LINE
  5
88D
  8
SIZE
  6
CONTINUOUS
 62
     0
 10
418.5
 20
-1741.2116758831901
 30
0.0
 11
463.50000000000011
 21
-1741.2116758831901
 31
0.0
  0
LINE
  5
88E
  8
SIZE
  6
CONTINUOUS
 62
     0
 10
473.50000000000011
 20
-1741.2116758831901
 30
0.0
 11
596.75714285714275
 21
-1741.2116758831901
 31
0.0
  0
INSERT
  5
88F
  8
SIZE
  6
CONTINUOUS
 62
     0
  2
_ORIGIN
 10
408.5
 20
-1741.2116758831901
 30
0.0
 41
10.0
 42
10.0
 43
10.0
 50
180.0
  0
INSERT
  5
890
  8
SIZE
  6
CONTINUOUS
 62
     0
  2
_ORIGIN
 10
473.50000000000011
 20
-1741.2116758831901
 30
0.0
 41
10.0
 42
10.0
 43
10.0
  0
TEXT
  5
891
  8
DETAIL
  6
CONTINUOUS
 62
     0
 10
493.5
 20
-1731.211675883191
 30
0.0
 40
64.0
  1
65
 41
0.9
  0
POINT
  5
892
  8
DEFPOINTS
  6
CONTINUOUS
 62
     0
 10
408.5
 20
-1832.2728349499209
 30
0.0
  0
POINT
  5
893
  8
DEFPOINTS
  6
CONTINUOUS
 62
     0
 10
473.50000000000011
 20
-1832.2728349499209
 30
0.0
  0
POINT
  5
894
  8
DEFPOINTS
  6
CONTINUOUS
 62
     0
 10
473.50000000000011
 20
-1741.2116758831901
 30
0.0
  0
ENDBLK
  5
87F
  8
0
  0
BLOCK
  8
0
  2
*D26
 70
     1
 10
0.0
 20
0.0
 30
0.0
  3
*D26
  1

  0
LINE
  5
1487
  8
SIZE
  6
CONTINUOUS
 62
     0
 10
2359.2654251900472
 20
-1820.2728349499221
 30
0.0
 11
2359.2654251900472
 21
-1712.973472141038
 31
0.0
  0
LINE
  5
1488
  8
SIZE
  6
CONTINUOUS
 62
     0
 10
1961.2654251900481
 20
-1820.2728349499221
 30
0.0
 11
1961.2654251900481
 21
-1712.973472141038
 31
0.0
  0
LINE
  5
1489
  8
SIZE
  6
CONTINUOUS
 62
     0
 10
2349.2654251900472
 20
-1742.973472141038
 30
0.0
 11
1971.2654251900469
 21
-1742.973472141038
 31
0.0
  0
INSERT
  5
148A
  8
SIZE
  6
CONTINUOUS
 62
     0
  2
_ORIGIN
 10
2359.2654251900472
 20
-1742.973472141038
 30
0.0
 41
10.0
 42
10.0
 43
10.0
  0
INSERT
  5
148B
  8
SIZE
  6
CONTINUOUS
 62
     0
  2
_ORIGIN
 10
1961.2654251900481
 20
-1742.973472141038
 30
0.0
 41
10.0
 42
10.0
 43
10.0
 50
180.0
  0
TEXT
  5
148C
  8
DETAIL
  6
CONTINUOUS
 62
     0
 10
2086.2082823329042
 20
-1732.973472141038
 30
0.0
 40
64.0
  1
398
 41
0.9
  0
POINT
  5
148D
  8
DEFPOINTS
  6
CONTINUOUS
 62
     0
 10
2359.2654251900472
 20
-1840.2728349499221
 30
0.0
  0
POINT
  5
148E
  8
DEFPOINTS
  6
CONTINUOUS
 62
     0
 10
1961.2654251900481
 20
-1840.2728349499221
 30
0.0
  0
POINT
  5
148F
  8
DEFPOINTS
  6
CONTINUOUS
 62
     0
 10
1961.2654251900481
 20
-1742.973472141038
 30
0.0
  0
ENDBLK
  5
8FB
  8
0
  0
BLOCK
  8
0
  2
*D27
 70
     1
 10
0.0
 20
0.0
 30
0.0
  3
*D27
  1

  0
LINE
  5
939
  8
SIZE
  6
CONTINUOUS
 62
     0
 10
1931.2654251900469
 20
-1812.2728349499209
 30
0.0
 11
1931.2654251900469
 21
-1587.260162442373
 31
0.0
  0
LINE
  5
93A
  8
SIZE
  6
CONTINUOUS
 62
     0
 10
2381.2654251900472
 20
-1812.2728349499209
 30
0.0
 11
2381.2654251900472
 21
-1587.260162442373
 31
0.0
  0
LINE
  5
93B
  8
SIZE
  6
CONTINUOUS
 62
     0
 10
1941.2654251900469
 20
-1617.260162442373
 30
0.0
 11
2371.2654251900472
 21
-1617.260162442373
 31
0.0
  0
INSERT
  5
93C
  8
SIZE
  6
CONTINUOUS
 62
     0
  2
_ORIGIN
 10
1931.2654251900469
 20
-1617.260162442373
 30
0.0
 41
10.0
 42
10.0
 43
10.0
 50
180.0
  0
INSERT
  5
93D
  8
SIZE
  6
CONTINUOUS
 62
     0
  2
_ORIGIN
 10
2381.2654251900472
 20
-1617.260162442373
 30
0.0
 41
10.0
 42
10.0
 43
10.0
  0
TEXT
  5
93E
  8
DETAIL
  6
CONTINUOUS
 62
     0
 10
2082.2082823329042
 20
-1607.260162442373
 30
0.0
 40
64.0
  1
450
 41
0.9
  0
POINT
  5
93F
  8
DEFPOINTS
  6
CONTINUOUS
 62
     0
 10
1931.2654251900469
 20
-1832.2728349499209
 30
0.0
  0
POINT
  5
940
  8
DEFPOINTS
  6
CONTINUOUS
 62
     0
 10
2381.2654251900472
 20
-1832.2728349499209
 30
0.0
  0
POINT
  5
941
  8
DEFPOINTS
  6
CONTINUOUS
 62
     0
 10
2381.2654251900472
 20
-1617.260162442373
 30
0.0
  0
ENDBLK
  5
943
  8
0
  0
BLOCK
  8
0
  2
*D28
 70
     1
 10
0.0
 20
0.0
 30
0.0
  3
*D28
  1

  0
LINE
  5
946
  8
SIZE
  6
CONTINUOUS
 62
     0
 10
2381.2654251900472
 20
-1812.2728349499209
 30
0.0
 11
2381.2654251900472
 21
-1587.2885059017931
 31
0.0
  0
LINE
  5
947
  8
SIZE
  6
CONTINUOUS
 62
     0
 10
2496.2654251900472
 20
-1822.2728349499209
 30
0.0
 11
2496.2654251900472
 21
-1587.2885059017931
 31
0.0
  0
LINE
  5
948
  8
SIZE
  6
CONTINUOUS
 62
     0
 10
2371.2654251900472
 20
-1617.2885059017931
 30
0.0
 11
2361.2654251900472
 21
-1617.2885059017931
 31
0.0
  0
LINE
  5
949
  8
SIZE
  6
CONTINUOUS
 62
     0
 10
2506.2654251900472
 20
-1617.2885059017931
 30
0.0
 11
2516.2654251900472
 21
-1617.2885059017931
 31
0.0
  0
LINE
  5
94A
  8
SIZE
  6
CONTINUOUS
 62
     0
 10
2381.2654251900472
 20
-1617.2885059017931
 30
0.0
 11
2496.2654251900472
 21
-1617.2885059017931
 31
0.0
  0
INSERT
  5
94B
  8
SIZE
  6
CONTINUOUS
 62
     0
  2
_ORIGIN
 10
2381.2654251900472
 20
-1617.2885059017931
 30
0.0
 41
10.0
 42
10.0
 43
10.0
  0
INSERT
  5
94C
  8
SIZE
  6
CONTINUOUS
 62
     0
  2
_ORIGIN
 10
2496.2654251900472
 20
-1617.2885059017931
 30
0.0
 41
10.0
 42
10.0
 43
10.0
 50
180.0
  0
TEXT
  5
94D
  8
DETAIL
  6
CONTINUOUS
 62
     0
 10
2375.6797109043332
 20
-1607.2885059017931
 30
0.0
 40
64.0
  1
115
 41
0.9
  0
POINT
  5
94E
  8
DEFPOINTS
  6
CONTINUOUS
 62
     0
 10
2381.2654251900472
 20
-1832.2728349499209
 30
0.0
  0
POINT
  5
94F
  8
DEFPOINTS
  6
CONTINUOUS
 62
     0
 10
2496.2654251900472
 20
-1842.2728349499221
 30
0.0
  0
POINT
  5
950
  8
DEFPOINTS
  6
CONTINUOUS
 62
     0
 10
2496.2654251900472
 20
-1617.2885059017931
 30
0.0
  0
ENDBLK
  5
952
  8
0
  0
BLOCK
  8
0
  2
*D29
 70
     1
 10
0.0
 20
0.0
 30
0.0
  3
*D29
  1

  0
LINE
  5
9B5
  8
SIZE
  6
CONTINUOUS
 62
     0
 10
1931.2654251900469
 20
-2082.2728349499212
 30
0.0
 11
1931.2654251900469
 21
-2236.1292805721018
 31
0.0
  0
LINE
  5
9B6
  8
SIZE
  6
CONTINUOUS
 62
     0
 10
2252.2654251900472
 20
-1981.2728349499221
 30
0.0
 11
2252.2654251900472
 21
-2236.1292805721018
 31
0.0
  0
LINE
  5
9B7
  8
SIZE
  6
CONTINUOUS
 62
     0
 10
1941.2654251900469
 20
-2206.1292805721018
 30
0.0
 11
2242.2654251900472
 21
-2206.1292805721018
 31
0.0
  0
INSERT
  5
9B8
  8
SIZE
  6
CONTINUOUS
 62
     0
  2
_ORIGIN
 10
1931.2654251900469
 20
-2206.1292805721018
 30
0.0
 41
10.0
 42
10.0
 43
10.0
 50
180.0
  0
INSERT
  5
9B9
  8
SIZE
  6
CONTINUOUS
 62
     0
  2
_ORIGIN
 10
2252.2654251900472
 20
-2206.1292805721018
 30
0.0
 41
10.0
 42
10.0
 43
10.0
  0
TEXT
  5
9BA
  8
DETAIL
  6
CONTINUOUS
 62
     0
 10
2030.0511394757609
 20
-2196.1292805721018
 30
0.0
 40
64.0
  1
321
 41
0.9
  0
POINT
  5
9BB
  8
DEFPOINTS
  6
CONTINUOUS
 62
     0
 10
1931.2654251900469
 20
-2062.2728349499212
 30
0.0
  0
POINT
  5
9BC
  8
DEFPOINTS
  6
CONTINUOUS
 62
     0
 10
2252.2654251900472
 20
-1961.2728349499209
 30
0.0
  0
POINT
  5
9BD
  8
DEFPOINTS
  6
CONTINUOUS
 62
     0
 10
2252.2654251900472
 20
-2206.1292805721018
 30
0.0
  0
ENDBLK
  5
9BF
  8
0
  0
BLOCK
  8
0
  2
*D30
 70
     1
 10
0.0
 20
0.0
 30
0.0
  3
*D30
  1

  0
LINE
  5
1331
  8
SIZE
  6
CONTINUOUS
 62
     0
 10
1911.2654251900469
 20
-2062.2728349499212
 30
0.0
 11
1667.231581628406
 21
-2062.2728349499212
 31
0.0
  0
LINE
  5
1332
  8
SIZE
  6
CONTINUOUS
 62
     0
 10
1917.2654251900481
 20
-1860.2728349499209
 30
0.0
 11
1667.231581628406
 21
-1860.2728349499209
 31
0.0
  0
LINE
  5
1333
  8
SIZE
  6
CONTINUOUS
 62
     0
 10
1697.231581628406
 20
-2052.2728349499212
 30
0.0
 11
1697.231581628406
 21
-1870.2728349499221
 31
0.0
  0
INSERT
  5
1334
  8
SIZE
  6
CONTINUOUS
 62
     0
  2
_ORIGIN
 10
1697.231581628406
 20
-2062.2728349499212
 30
0.0
 41
10.0
 42
10.0
 43
10.0
 50
270.0
  0
INSERT
  5
1335
  8
SIZE
  6
CONTINUOUS
 62
     0
  2
_ORIGIN
 10
1697.231581628406
 20
-1860.2728349499209
 30
0.0
 41
10.0
 42
10.0
 43
10.0
 50
90.0
  0
TEXT
  5
1336
  8
DETAIL
  6
CONTINUOUS
 62
     0
 10
1687.231581628406
 20
-2033.690460084174
 30
0.0
 40
64.0
  1
202
 50
90.0
 41
0.9
  0
POINT
  5
1337
  8
DEFPOINTS
  6
CONTINUOUS
 62
     0
 10
1931.2654251900469
 20
-2062.2728349499212
 30
0.0
  0
POINT
  5
1338
  8
DEFPOINTS
  6
CONTINUOUS
 62
     0
 10
1937.2654251900469
 20
-1860.2728349499209
 30
0.0
  0
POINT
  5
1339
  8
DEFPOINTS
  6
CONTINUOUS
 62
     0
 10
1697.231581628406
 20
-1860.2728349499209
 30
0.0
  0
ENDBLK
  5
9CC
  8
0
  0
BLOCK
  8
0
  2
*D31
 70
     1
 10
0.0
 20
0.0
 30
0.0
  3
*D31
  1

  0
LINE
  5
A1B
  8
SIZE
  6
CONTINUOUS
 62
     0
 10
2292.2654251900472
 20
-1917.2728349499221
 30
0.0
 11
2637.9769908857152
 21
-1917.2728349499221
 31
0.0
  0
LINE
  5
A1C
  8
SIZE
  6
CONTINUOUS
 62
     0
 10
2401.2654251900472
 20
-2062.2728349499212
 30
0.0
 11
2637.9769908857152
 21
-2062.2728349499212
 31
0.0
  0
LINE
  5
A1D
  8
SIZE
  6
CONTINUOUS
 62
     0
 10
2607.9769908857152
 20
-1927.2728349499221
 30
0.0
 11
2607.9769908857152
 21
-2052.2728349499212
 31
0.0
  0
INSERT
  5
A1E
  8
SIZE
  6
CONTINUOUS
 62
     0
  2
_ORIGIN
 10
2607.9769908857152
 20
-1917.2728349499221
 30
0.0
 41
10.0
 42
10.0
 43
10.0
 50
90.0
  0
INSERT
  5
A1F
  8
SIZE
  6
CONTINUOUS
 62
     0
  2
_ORIGIN
 10
2607.9769908857152
 20
-2062.2728349499212
 30
0.0
 41
10.0
 42
10.0
 43
10.0
 50
270.0
  0
TEXT
  5
A20
  8
DETAIL
  6
CONTINUOUS
 62
     0
 10
2597.9769908857161
 20
-2058.3442635213501
 30
0.0
 40
64.0
  1
145
 50
90.0
 41
0.9
  0
POINT
  5
A21
  8
DEFPOINTS
  6
CONTINUOUS
 62
     0
 10
2272.2654251900472
 20
-1917.2728349499221
 30
0.0
  0
POINT
  5
A22
  8
DEFPOINTS
  6
CONTINUOUS
 62
     0
 10
2381.2654251900472
 20
-2062.2728349499212
 30
0.0
  0
POINT
  5
A23
  8
DEFPOINTS
  6
CONTINUOUS
 62
     0
 10
2607.9769908857152
 20
-2062.2728349499212
 30
0.0
  0
ENDBLK
  5
9EA
  8
0
  0
BLOCK
  8
0
  2
*D32
 70
     1
 10
0.0
 20
0.0
 30
0.0
  3
*D32
  1

  0
LINE
  5
A2F
  8
SIZE
  6
CONTINUOUS
 62
     0
 10
2292.2654251900472
 20
-1917.2728349499221
 30
0.0
 11
2521.2608630959539
 21
-1917.2728349499221
 31
0.0
  0
LINE
  5
A30
  8
SIZE
  6
CONTINUOUS
 62
     0
 10
2292.2654251900472
 20
-1941.2728349499221
 30
0.0
 11
2521.2608630959539
 21
-1941.2728349499221
 31
0.0
  0
LINE
  5
A31
  8
SIZE
  6
CONTINUOUS
 62
     0
 10
2491.2608630959539
 20
-1907.2728349499209
 30
0.0
 11
2491.2608630959539
 21
-1897.2728349499209
 31
0.0
  0
LINE
  5
A32
  8
SIZE
  6
CONTINUOUS
 62
     0
 10
2491.2608630959539
 20
-1951.2728349499209
 30
0.0
 11
2491.2608630959539
 21
-2077.2728349499212
 31
0.0
  0
LINE
  5
A33
  8
SIZE
  6
CONTINUOUS
 62
     0
 10
2491.2608630959539
 20
-1917.2728349499221
 30
0.0
 11
2491.2608630959539
 21
-1941.2728349499221
 31
0.0
  0
INSERT
  5
A34
  8
SIZE
  6
CONTINUOUS
 62
     0
  2
_ORIGIN
 10
2491.2608630959539
 20
-1917.2728349499221
 30
0.0
 41
10.0
 42
10.0
 43
10.0
 50
270.0
  0
INSERT
  5
A35
  8
SIZE
  6
CONTINUOUS
 62
     0
  2
_ORIGIN
 10
2491.2608630959539
 20
-1941.2728349499221
 30
0.0
 41
10.0
 42
10.0
 43
10.0
 50
90.0
  0
TEXT
  5
A36
  8
DETAIL
  6
CONTINUOUS
 62
     0
 10
2481.2608630959539
 20
-2067.2728349499212
 30
0.0
 40
64.0
  1
24
 50
90.0
 41
0.9
  0
POINT
  5
A37
  8
DEFPOINTS
  6
CONTINUOUS
 62
     0
 10
2272.2654251900472
 20
-1917.2728349499221
 30
0.0
  0
POINT
  5
A38
  8
DEFPOINTS
  6
CONTINUOUS
 62
     0
 10
2272.2654251900472
 20
-1941.2728349499221
 30
0.0
  0
POINT
  5
A39
  8
DEFPOINTS
  6
CONTINUOUS
 62
     0
 10
2491.2608630959539
 20
-1941.2728349499221
 30
0.0
  0
ENDBLK
  5
9F9
  8
0
  0
BLOCK
  8
0
  2
*D33
 70
     1
 10
0.0
 20
0.0
 30
0.0
  3
*D33
  1

  0
LINE
  5
A3C
  8
SIZE
  6
CONTINUOUS
 62
     0
 10
2536.2654251900472
 20
-1862.2728349499209
 30
0.0
 11
2765.3325367259308
 21
-1862.2728349499221
 31
0.0
  0
LINE
  5
A3D
  8
SIZE
  6
CONTINUOUS
 62
     0
 10
2401.2654251900472
 20
-2062.2728349499212
 30
0.0
 11
2765.3325367259308
 21
-2062.2728349499212
 31
0.0
  0
LINE
  5
A3E
  8
SIZE
  6
CONTINUOUS
 62
     0
 10
2735.3325367259308
 20
-1872.2728349499221
 30
0.0
 11
2735.3325367259308
 21
-2052.2728349499212
 31
0.0
  0
INSERT
  5
A3F
  8
SIZE
  6
CONTINUOUS
 62
     0
  2
_ORIGIN
 10
2735.3325367259308
 20
-1862.2728349499221
 30
0.0
 41
10.0
 42
10.0
 43
10.0
 50
90.0
  0
INSERT
  5
A40
  8
SIZE
  6
CONTINUOUS
 62
     0
  2
_ORIGIN
 10
2735.3325367259308
 20
-2062.2728349499212
 30
0.0
 41
10.0
 42
10.0
 43
10.0
 50
270.0
  0
TEXT
  5
A41
  8
DETAIL
  6
CONTINUOUS
 62
     0
 10
2725.3325367259322
 20
-2036.3299778070641
 30
0.0
 40
64.0
  1
200
 50
90.0
 41
0.9
  0
POINT
  5
A42
  8
DEFPOINTS
  6
CONTINUOUS
 62
     0
 10
2516.2654251900472
 20
-1862.2728349499209
 30
0.0
  0
POINT
  5
A43
  8
DEFPOINTS
  6
CONTINUOUS
 62
     0
 10
2381.2654251900472
 20
-2062.2728349499212
 30
0.0
  0
POINT
  5
A44
  8
DEFPOINTS
  6
CONTINUOUS
 62
     0
 10
2735.3325367259308
 20
-2062.2728349499212
 30
0.0
  0
ENDBLK
  5
A46
  8
0
  0
BLOCK
  8
0
  2
*D34
 70
     1
 10
0.0
 20
0.0
 30
0.0
  3
*D34
  1

  0
LINE
  5
1562
  8
SIZE
  6
CONTINUOUS
 62
     0
 10
388.5
 20
12.0
 30
0.0
 11
388.5
 21
207.32750013261639
 31
0.0
  0
LINE
  5
1563
  8
SIZE
  6
CONTINUOUS
 62
     0
 10
-388.5
 20
12.0
 30
0.0
 11
-388.5
 21
207.32750013261639
 31
0.0
  0
LINE
  5
1564
  8
SIZE
  6
CONTINUOUS
 62
     0
 10
378.5
 20
177.32750013261639
 30
0.0
 11
-378.5
 21
177.32750013261639
 31
0.0
  0
INSERT
  5
1565
  8
SIZE
  6
CONTINUOUS
 62
     0
  2
_ORIGIN
 10
388.5
 20
177.32750013261639
 30
0.0
 41
10.0
 42
10.0
 43
10.0
  0
INSERT
  5
1566
  8
SIZE
  6
CONTINUOUS
 62
     0
  2
_ORIGIN
 10
-388.5
 20
177.32750013261639
 30
0.0
 41
10.0
 42
10.0
 43
10.0
 50
180.0
  0
TEXT
  8
0
  40
64
  5
15C5
  62
0
  72
0
  71
0
 10
-128.000
 20
106.048
 30
0.000000
  1
777
  0
POINT
  5
1568
  8
DEFPOINTS
  6
CONTINUOUS
 62
     0
 10
388.5
 20
-8.0
 30
0.0
  0
POINT
  5
1569
  8
DEFPOINTS
  6
CONTINUOUS
 62
     0
 10
-388.5
 20
-8.0
 30
0.0
  0
POINT
  5
156A
  8
DEFPOINTS
  6
CONTINUOUS
 62
     0
 10
-388.5
 20
177.32750013261639
 30
0.0
  0
ENDBLK
  5
B70
  8
0
  0
BLOCK
  8
0
  2
*D35
 70
     1
 10
0.0
 20
0.0
 30
0.0
  3
*D35
  1

  0
LINE
  5
156B
  8
SIZE
  6
CONTINUOUS
 62
     0
 10
408.49999999999989
 20
-3.0000000000002269
 30
0.0
 11
408.49999999999989
 21
207.18292351069061
 31
0.0
  0
LINE
  5
156C
  8
SIZE
  6
CONTINUOUS
 62
     0
 10
388.5
 20
12.0
 30
0.0
 11
388.5
 21
207.18292351069061
 31
0.0
  0
LINE
  5
156D
  8
SIZE
  6
CONTINUOUS
 62
     0
 10
378.5
 20
177.18292351069061
 30
0.0
 11
368.5
 21
177.18292351069061
 31
0.0
  0
LINE
  5
156E
  8
SIZE
  6
CONTINUOUS
 62
     0
 10
418.5
 20
177.18292351069061
 30
0.0
 11
541.75714285714275
 21
177.18292351069061
 31
0.0
  0
LINE
  5
156F
  8
SIZE
  6
CONTINUOUS
 62
     0
 10
388.5
 20
177.18292351069061
 30
0.0
 11
408.49999999999989
 21
177.18292351069061
 31
0.0
  0
INSERT
  5
1570
  8
SIZE
  6
CONTINUOUS
 62
     0
  2
_ORIGIN
 10
388.5
 20
177.18292351069061
 30
0.0
 41
10.0
 42
10.0
 43
10.0
  0
INSERT
  5
1571
  8
SIZE
  6
CONTINUOUS
 62
     0
  2
_ORIGIN
 10
408.49999999999989
 20
177.18292351069061
 30
0.0
 41
10.0
 42
10.0
 43
10.0
 50
180.0
  0
TEXT
  8
0
  40
64
  5
15C6
  62
0
  72
0
  71
0
 10
357.129
 20
105.903
 30
0.000000
  1
20
  0
POINT
  5
1573
  8
DEFPOINTS
  6
CONTINUOUS
 62
     0
 10
408.49999999999989
 20
-23.00000000000022
 30
0.0
  0
POINT
  5
1574
  8
DEFPOINTS
  6
CONTINUOUS
 62
     0
 10
388.5
 20
-8.0
 30
0.0
  0
POINT
  5
1575
  8
DEFPOINTS
  6
CONTINUOUS
 62
     0
 10
388.5
 20
177.18292351069061
 30
0.0
  0
ENDBLK
  5
B7E
  8
0
  0
BLOCK
  8
0
  2
*D36
 70
     1
 10
0.0
 20
0.0
 30
0.0
  3
*D36
  1

  0
LINE
  5
15A8
  8
SIZE
  6
CONTINUOUS
 62
     0
 10
-388.5
 20
12.0
 30
0.0
 11
-388.5
 21
207.25281930072191
 31
0.0
  0
LINE
  5
15A9
  8
SIZE
  6
CONTINUOUS
 62
     0
 10
-408.49999999999989
 20
20.0
 30
0.0
 11
-408.49999999999989
 21
207.25281930072191
 31
0.0
  0
LINE
  5
15AA
  8
SIZE
  6
CONTINUOUS
 62
     0
 10
-378.5
 20
177.25281930072191
 30
0.0
 11
-368.5
 21
177.25281930072191
 31
0.0
  0
LINE
  5
15AB
  8
SIZE
  6
CONTINUOUS
 62
     0
 10
-418.5
 20
177.25281930072191
 30
0.0
 11
-541.75714285714275
 21
177.25281930072191
 31
0.0
  0
LINE
  5
15AC
  8
SIZE
  6
CONTINUOUS
 62
     0
 10
-388.5
 20
177.25281930072191
 30
0.0
 11
-408.49999999999989
 21
177.25281930072191
 31
0.0
  0
INSERT
  5
15AD
  8
SIZE
  6
CONTINUOUS
 62
     0
  2
_ORIGIN
 10
-388.5
 20
177.25281930072191
 30
0.0
 41
10.0
 42
10.0
 43
10.0
 50
180.0
  0
INSERT
  5
15AE
  8
SIZE
  6
CONTINUOUS
 62
     0
  2
_ORIGIN
 10
-408.49999999999989
 20
177.25281930072191
 30
0.0
 41
10.0
 42
10.0
 43
10.0
  0
TEXT
  8
0
  40
64
  5
15C7
  62
0
  72
0
  71
0
 10
-613.129
 20
105.973
 30
0.000000
  1
20
  0
POINT
  5
15B0
  8
DEFPOINTS
  6
CONTINUOUS
 62
     0
 10
-388.5
 20
-8.0
 30
0.0
  0
POINT
  5
15B1
  8
DEFPOINTS
  6
CONTINUOUS
 62
     0
 10
-408.49999999999989
 20
0.0
 30
0.0
  0
POINT
  5
15B2
  8
DEFPOINTS
  6
CONTINUOUS
 62
     0
 10
-408.49999999999989
 20
177.25281930072191
 30
0.0
  0
ENDBLK
  5
B8C
  8
0
  0
BLOCK
  8
0
  2
*D37
 70
     1
 10
0.0
 20
0.0
 30
0.0
  3
*D37
  1

  0
LINE
  5
157F
  8
SIZE
  6
CONTINUOUS
 62
     0
 10
428.5
 20
-28.0
 30
0.0
 11
500.36176728809369
 21
-28.000000000000021
 31
0.0
  0
LINE
  5
1580
  8
SIZE
  6
CONTINUOUS
 62
     0
 10
381.49999999999989
 20
-230.0
 30
0.0
 11
500.36176728809357
 21
-230.0
 31
0.0
  0
LINE
  5
1581
  8
SIZE
  6
CONTINUOUS
 62
     0
 10
470.36176728809369
 20
-38.000000000000021
 30
0.0
 11
470.36176728809369
 21
-220.0
 31
0.0
  0
INSERT
  5
1582
  8
SIZE
  6
CONTINUOUS
 62
     0
  2
_ORIGIN
 10
470.36176728809369
 20
-28.000000000000011
 30
0.0
 41
10.0
 42
10.0
 43
10.0
 50
90.0
  0
INSERT
  5
1583
  8
SIZE
  6
CONTINUOUS
 62
     0
  2
_ORIGIN
 10
470.36176728809369
 20
-230.0
 30
0.0
 41
10.0
 42
10.0
 43
10.0
 50
270.0
  0
TEXT
  8
0
  40
64
  5
15C8
  62
0
  72
0
  71
0
 10
300.362
 20
-242.280
 30
0.000000
  1
202
  0
POINT
  5
1585
  8
DEFPOINTS
  6
CONTINUOUS
 62
     0
 10
408.49999999999989
 20
-28.0
 30
0.0
  0
POINT
  5
1586
  8
DEFPOINTS
  6
CONTINUOUS
 62
     0
 10
361.5
 20
-230.0
 30
0.0
  0
POINT
  5
1587
  8
DEFPOINTS
  6
CONTINUOUS
 62
     0
 10
470.36176728809369
 20
-230.0
 30
0.0
  0
ENDBLK
  5
B98
  8
0
  0
BLOCK
  8
0
  2
*D38
 70
     1
 10
0.0
 20
0.0
 30
0.0
  3
*D38
  1

  0
LINE
  5
1576
  8
SIZE
  6
CONTINUOUS
 62
     0
 10
381.49999999999989
 20
-0.0000000000000057
 30
0.0
 11
623.93532213966682
 21
-0.0000000000000743
 31
0.0
  0
LINE
  5
1577
  8
SIZE
  6
CONTINUOUS
 62
     0
 10
381.49999999999989
 20
-230.0
 30
0.0
 11
623.93532213966682
 21
-230.0
 31
0.0
  0
LINE
  5
1578
  8
SIZE
  6
CONTINUOUS
 62
     0
 10
593.93532213966682
 20
-10.00000000000006
 30
0.0
 11
593.93532213966682
 21
-220.00000000000011
 31
0.0
  0
INSERT
  5
1579
  8
SIZE
  6
CONTINUOUS
 62
     0
  2
_ORIGIN
 10
593.93532213966682
 20
-0.0000000000000658
 30
0.0
 41
10.0
 42
10.0
 43
10.0
 50
90.0
  0
INSERT
  5
157A
  8
SIZE
  6
CONTINUOUS
 62
     0
  2
_ORIGIN
 10
593.93532213966682
 20
-230.0
 30
0.0
 41
10.0
 42
10.0
 43
10.0
 50
270.0
  0
TEXT
  8
0
  40
64
  5
15C9
  62
0
  72
0
  71
0
 10
423.935
 20
-228.280
 30
0.000000
  1
230
  0
POINT
  5
157C
  8
DEFPOINTS
  6
CONTINUOUS
 62
     0
 10
361.5
 20
0.0
 30
0.0
  0
POINT
  5
157D
  8
DEFPOINTS
  6
CONTINUOUS
 62
     0
 10
361.5
 20
-230.0
 30
0.0
  0
POINT
  5
157E
  8
DEFPOINTS
  6
CONTINUOUS
 62
     0
 10
593.93532213966682
 20
-230.0
 30
0.0
  0
ENDBLK
  5
BA4
  8
0
  0
BLOCK
  8
0
  2
*D39
 70
     1
 10
0.0
 20
0.0
 30
0.0
  3
*D39
  1

  0
LINE
  5
159D
  8
SIZE
  6
CONTINUOUS
 62
     0
 10
-404.49999999999989
 20
-85.0
 30
0.0
 11
-718.95717699427769
 21
-84.999999999999915
 31
0.0
  0
LINE
  5
159E
  8
SIZE
  6
CONTINUOUS
 62
     0
 10
-493.5
 20
-230.0
 30
0.0
 11
-718.95717699427769
 21
-229.99999999999989
 31
0.0
  0
LINE
  5
159F
  8
SIZE
  6
CONTINUOUS
 62
     0
 10
-688.95717699427769
 20
-74.999999999999915
 30
0.0
 11
-688.95717699427769
 21
-64.999999999999915
 31
0.0
  0
LINE
  5
15A0
  8
SIZE
  6
CONTINUOUS
 62
     0
 10
-688.95717699427769
 20
-239.99999999999989
 30
0.0
 11
-688.95717699427769
 21
-249.99999999999989
 31
0.0
  0
LINE
  5
15A1
  8
SIZE
  6
CONTINUOUS
 62
     0
 10
-688.95717699427769
 20
-84.999999999999915
 30
0.0
 11
-688.95717699427769
 21
-229.99999999999989
 31
0.0
  0
INSERT
  5
15A2
  8
SIZE
  6
CONTINUOUS
 62
     0
  2
_ORIGIN
 10
-688.95717699427769
 20
-84.999999999999915
 30
0.0
 41
10.0
 42
10.0
 43
10.0
 50
270.0
  0
INSERT
  5
15A3
  8
SIZE
  6
CONTINUOUS
 62
     0
  2
_ORIGIN
 10
-688.95717699427769
 20
-229.99999999999989
 30
0.0
 41
10.0
 42
10.0
 43
10.0
 50
90.0
  0
TEXT
  8
0
  40
64
  5
15CA
  62
0
  72
0
  71
0
 10
-858.957
 20
-270.780
 30
0.000000
  1
145
  0
POINT
  5
15A5
  8
DEFPOINTS
  6
CONTINUOUS
 62
     0
 10
-384.5
 20
-85.0
 30
0.0
  0
POINT
  5
15A6
  8
DEFPOINTS
  6
CONTINUOUS
 62
     0
 10
-473.5
 20
-230.0
 30
0.0
  0
POINT
  5
15A7
  8
DEFPOINTS
  6
CONTINUOUS
 62
     0
 10
-688.95717699427769
 20
-229.99999999999989
 30
0.0
  0
ENDBLK
  5
BB2
  8
0
  0
BLOCK
  8
0
  2
*D40
 70
     1
 10
0.0
 20
0.0
 30
0.0
  3
*D40
  1

  0
LINE
  5
1592
  8
SIZE
  6
CONTINUOUS
 62
     0
 10
-404.49999999999989
 20
-85.0
 30
0.0
 11
-594.00472918361265
 21
-84.999999999999943
 31
0.0
  0
LINE
  5
1593
  8
SIZE
  6
CONTINUOUS
 62
     0
 10
-349.5
 20
-109.0
 30
0.0
 11
-594.00472918361265
 21
-108.9999999999999
 31
0.0
  0
LINE
  5
1594
  8
SIZE
  6
CONTINUOUS
 62
     0
 10
-564.00472918361265
 20
-74.999999999999943
 30
0.0
 11
-564.00472918361265
 21
-64.999999999999943
 31
0.0
  0
LINE
  5
1595
  8
SIZE
  6
CONTINUOUS
 62
     0
 10
-564.00472918361265
 20
-118.9999999999999
 30
0.0
 11
-564.00472918361265
 21
-244.99999999999989
 31
0.0
  0
LINE
  5
1596
  8
SIZE
  6
CONTINUOUS
 62
     0
 10
-564.00472918361265
 20
-84.999999999999943
 30
0.0
 11
-564.00472918361265
 21
-108.9999999999999
 31
0.0
  0
INSERT
  5
1597
  8
SIZE
  6
CONTINUOUS
 62
     0
  2
_ORIGIN
 10
-564.00472918361265
 20
-84.999999999999943
 30
0.0
 41
10.0
 42
10.0
 43
10.0
 50
270.0
  0
INSERT
  5
1598
  8
SIZE
  6
CONTINUOUS
 62
     0
  2
_ORIGIN
 10
-564.00472918361265
 20
-108.9999999999999
 30
0.0
 41
10.0
 42
10.0
 43
10.0
 50
90.0
  0
TEXT
  8
0
  40
64
  5
15CB
  62
0
  72
0
  71
0
 10
-734.005
 20
-300.280
 30
0.000000
  1
24
  0
POINT
  5
159A
  8
DEFPOINTS
  6
CONTINUOUS
 62
     0
 10
-384.5
 20
-85.0
 30
0.0
  0
POINT
  5
159B
  8
DEFPOINTS
  6
CONTINUOUS
 62
     0
 10
-329.49999999999989
 20
-109.0
 30
0.0
  0
POINT
  5
159C
  8
DEFPOINTS
  6
CONTINUOUS
 62
     0
 10
-564.00472918361265
 20
-108.9999999999999
 30
0.0
  0
ENDBLK
  5
BC0
  8
0
  0
BLOCK
  8
0
  2
*D41
 70
     1
 10
0.0
 20
0.0
 30
0.0
  3
*D41
  1

  0
LINE
  5
1588
  8
SIZE
  6
CONTINUOUS
 62
     0
 10
-408.49999999999989
 20
20.0
 30
0.0
 11
-408.49999999999989
 21
121.0611590667304
 31
0.0
  0
LINE
  5
1589
  8
SIZE
  6
CONTINUOUS
 62
     0
 10
-473.5
 20
20.0
 30
0.0
 11
-473.5
 21
121.0611590667304
 31
0.0
  0
LINE
  5
158A
  8
SIZE
  6
CONTINUOUS
 62
     0
 10
-418.5
 20
91.061159066730383
 30
0.0
 11
-463.49999999999989
 21
91.061159066730383
 31
0.0
  0
LINE
  5
158B
  8
SIZE
  6
CONTINUOUS
 62
     0
 10
-473.5
 20
91.061159066730383
 30
0.0
 11
-596.75714285714275
 21
91.061159066730383
 31
0.0
  0
INSERT
  5
158C
  8
SIZE
  6
CONTINUOUS
 62
     0
  2
_ORIGIN
 10
-408.49999999999989
 20
91.061159066730383
 30
0.0
 41
10.0
 42
10.0
 43
10.0
  0
INSERT
  5
158D
  8
SIZE
  6
CONTINUOUS
 62
     0
  2
_ORIGIN
 10
-473.5
 20
91.061159066730383
 30
0.0
 41
10.0
 42
10.0
 43
10.0
 50
180.0
  0
TEXT
  8
0
  40
64
  5
15CC
  62
0
  72
0
  71
0
 10
-668.129
 20
19.7812
 30
0.000000
  1
65
  0
POINT
  5
158F
  8
DEFPOINTS
  6
CONTINUOUS
 62
     0
 10
-408.49999999999989
 20
0.0
 30
0.0
  0
POINT
  5
1590
  8
DEFPOINTS
  6
CONTINUOUS
 62
     0
 10
-473.5
 20
0.0
 30
0.0
  0
POINT
  5
1591
  8
DEFPOINTS
  6
CONTINUOUS
 62
     0
 10
-473.5
 20
91.061159066730383
 30
0.0
  0
ENDBLK
  5
BCD
  8
0
  0
BLOCK
  8
0
  2
*D42
 70
     1
 10
0.0
 20
0.0
 30
0.0
  3
*D42
  1

  0
LINE
  5
15B3
  8
SIZE
  6
CONTINUOUS
 62
     0
 10
-408.49999999999989
 20
20.0
 30
0.0
 11
-408.49999999999989
 21
120.90958548063089
 31
0.0
  0
LINE
  5
15B4
  8
SIZE
  6
CONTINUOUS
 62
     0
 10
-308.49999999999989
 20
9.9999999999986358
 30
0.0
 11
-308.49999999999989
 21
120.90958548063089
 31
0.0
  0
LINE
  5
15B5
  8
SIZE
  6
CONTINUOUS
 62
     0
 10
-398.49999999999989
 20
90.909585480630994
 30
0.0
 11
-318.5
 21
90.909585480630994
 31
0.0
  0
INSERT
  5
15B6
  8
SIZE
  6
CONTINUOUS
 62
     0
  2
_ORIGIN
 10
-408.49999999999989
 20
90.909585480630994
 30
0.0
 41
10.0
 42
10.0
 43
10.0
 50
180.0
  0
INSERT
  5
15B7
  8
SIZE
  6
CONTINUOUS
 62
     0
  2
_ORIGIN
 10
-308.49999999999989
 20
90.909585480630994
 30
0.0
 41
10.0
 42
10.0
 43
10.0
  0
TEXT
  8
0
  40
64
  5
15CD
  62
0
  72
0
  71
0
 10
-453.814
 20
19.6296
 30
0.000000
  1
100
  0
POINT
  5
15B9
  8
DEFPOINTS
  6
CONTINUOUS
 62
     0
 10
-408.49999999999989
 20
0.0
 30
0.0
  0
POINT
  5
15BA
  8
DEFPOINTS
  6
CONTINUOUS
 62
     0
 10
-308.49999999999989
 20
-10.000000000001361
 30
0.0
  0
POINT
  5
15BB
  8
DEFPOINTS
  6
CONTINUOUS
 62
     0
 10
-308.49999999999989
 20
90.909585480630994
 30
0.0
  0
ENDBLK
  5
C3F
  8
0
  0
BLOCK
  8
0
  2
*D43
 70
     1
 10
0.0
 20
0.0
 30
0.0
  3
*D43
  1

  0
LINE
  5
15BC
  8
SIZE
  6
CONTINUOUS
 62
     0
 10
-348.49999999999989
 20
-30.000000000001361
 30
0.0
 11
-834.16244142757557
 21
-30.000000000001219
 31
0.0
  0
LINE
  5
15BD
  8
SIZE
  6
CONTINUOUS
 62
     0
 10
-493.5
 20
-230.0
 30
0.0
 11
-834.16244142757557
 21
-229.9999999999998
 31
0.0
  0
LINE
  5
15BE
  8
SIZE
  6
CONTINUOUS
 62
     0
 10
-804.16244142757569
 20
-40.000000000001229
 30
0.0
 11
-804.16244142757569
 21
-219.99999999999989
 31
0.0
  0
INSERT
  5
15BF
  8
SIZE
  6
CONTINUOUS
 62
     0
  2
_ORIGIN
 10
-804.16244142757569
 20
-30.000000000001229
 30
0.0
 41
10.0
 42
10.0
 43
10.0
 50
90.0
  0
INSERT
  5
15C0
  8
SIZE
  6
CONTINUOUS
 62
     0
  2
_ORIGIN
 10
-804.16244142757569
 20
-229.99999999999989
 30
0.0
 41
10.0
 42
10.0
 43
10.0
 50
270.0
  0
TEXT
  8
0
  40
64
  5
15CE
  62
0
  72
0
  71
0
 10
-974.162
 20
-243.280
 30
0.000000
  1
200
  0
POINT
  5
15C2
  8
DEFPOINTS
  6
CONTINUOUS
 62
     0
 10
-328.5
 20
-30.000000000001361
 30
0.0
  0
POINT
  5
15C3
  8
DEFPOINTS
  6
CONTINUOUS
 62
     0
 10
-473.5
 20
-230.0
 30
0.0
  0
POINT
  5
15C4
  8
DEFPOINTS
  6
CONTINUOUS
 62
     0
 10
-804.16244142757569
 20
-229.99999999999989
 30
0.0
  0
ENDBLK
  5
C83
  8
0
  0
BLOCK
  8
0
  2
*D44
 70
     1
 10
0.0
 20
0.0
 30
0.0
  3
*D44
  1

  0
LINE
  5
14B6
  8
SIZE
  6
CONTINUOUS
 62
     0
 10
-2359.2654251900472
 20
-1820.2728349499209
 30
0.0
 11
-2359.2654251900472
 21
-1712.973472141038
 31
0.0
  0
LINE
  5
14B7
  8
SIZE
  6
CONTINUOUS
 62
     0
 10
-1961.2654251900481
 20
-1820.2728349499209
 30
0.0
 11
-1961.2654251900481
 21
-1712.973472141038
 31
0.0
  0
LINE
  5
14B8
  8
SIZE
  6
CONTINUOUS
 62
     0
 10
-2349.2654251900472
 20
-1742.973472141038
 30
0.0
 11
-1971.2654251900469
 21
-1742.973472141038
 31
0.0
  0
INSERT
  5
14B9
  8
SIZE
  6
CONTINUOUS
 62
     0
  2
_ORIGIN
 10
-2359.2654251900472
 20
-1742.973472141038
 30
0.0
 41
10.0
 42
10.0
 43
10.0
 50
180.0
  0
INSERT
  5
14BA
  8
SIZE
  6
CONTINUOUS
 62
     0
  2
_ORIGIN
 10
-1961.2654251900481
 20
-1742.973472141038
 30
0.0
 41
10.0
 42
10.0
 43
10.0
  0
TEXT
  5
14BB
  8
DETAIL
  6
CONTINUOUS
 62
     0
 10
-2234.3225680471901
 20
-1732.9734721410371
 30
0.0
 40
64.0
  1
398
 41
0.9
  0
POINT
  5
14BC
  8
DEFPOINTS
  6
CONTINUOUS
 62
     0
 10
-2359.2654251900472
 20
-1840.2728349499209
 30
0.0
  0
POINT
  5
14BD
  8
DEFPOINTS
  6
CONTINUOUS
 62
     0
 10
-1961.2654251900481
 20
-1840.2728349499209
 30
0.0
  0
POINT
  5
14BE
  8
DEFPOINTS
  6
CONTINUOUS
 62
     0
 10
-1961.2654251900481
 20
-1742.973472141038
 30
0.0
  0
ENDBLK
  5
D60
  8
0
  0
BLOCK
  8
0
  2
*D45
 70
     1
 10
0.0
 20
0.0
 30
0.0
  3
*D45
  1

  0
LINE
  5
DD0
  8
SIZE
  6
CONTINUOUS
 62
     0
 10
-1931.2654251900469
 20
-1812.2728349499209
 30
0.0
 11
-1931.2654251900469
 21
-1587.260162442373
 31
0.0
  0
LINE
  5
DD1
  8
SIZE
  6
CONTINUOUS
 62
     0
 10
-2381.2654251900472
 20
-1812.2728349499209
 30
0.0
 11
-2381.2654251900472
 21
-1587.260162442373
 31
0.0
  0
LINE
  5
DD2
  8
SIZE
  6
CONTINUOUS
 62
     0
 10
-1941.2654251900469
 20
-1617.260162442373
 30
0.0
 11
-2371.2654251900472
 21
-1617.260162442373
 31
0.0
  0
INSERT
  5
DD3
  8
SIZE
  6
CONTINUOUS
 62
     0
  2
_ORIGIN
 10
-1931.2654251900469
 20
-1617.260162442373
 30
0.0
 41
10.0
 42
10.0
 43
10.0
  0
INSERT
  5
DD4
  8
SIZE
  6
CONTINUOUS
 62
     0
  2
_ORIGIN
 10
-2381.2654251900472
 20
-1617.260162442373
 30
0.0
 41
10.0
 42
10.0
 43
10.0
 50
180.0
  0
TEXT
  5
DD5
  8
DETAIL
  6
CONTINUOUS
 62
     0
 10
-2230.3225680471901
 20
-1607.260162442373
 30
0.0
 40
64.0
  1
450
 41
0.9
  0
POINT
  5
DD6
  8
DEFPOINTS
  6
CONTINUOUS
 62
     0
 10
-1931.2654251900469
 20
-1832.2728349499209
 30
0.0
  0
POINT
  5
DD7
  8
DEFPOINTS
  6
CONTINUOUS
 62
     0
 10
-2381.2654251900472
 20
-1832.2728349499209
 30
0.0
  0
POINT
  5
DD8
  8
DEFPOINTS
  6
CONTINUOUS
 62
     0
 10
-2381.2654251900472
 20
-1617.260162442373
 30
0.0
  0
ENDBLK
  5
D6C
  8
0
  0
BLOCK
  8
0
  2
*D46
 70
     1
 10
0.0
 20
0.0
 30
0.0
  3
*D46
  1

  0
LINE
  5
DD9
  8
SIZE
  6
CONTINUOUS
 62
     0
 10
-2381.2654251900472
 20
-1812.2728349499209
 30
0.0
 11
-2381.2654251900472
 21
-1587.2885059017931
 31
0.0
  0
LINE
  5
DDA
  8
SIZE
  6
CONTINUOUS
 62
     0
 10
-2496.2654251900472
 20
-1822.2728349499209
 30
0.0
 11
-2496.2654251900472
 21
-1587.2885059017931
 31
0.0
  0
LINE
  5
DDB
  8
SIZE
  6
CONTINUOUS
 62
     0
 10
-2371.2654251900472
 20
-1617.2885059017931
 30
0.0
 11
-2361.2654251900472
 21
-1617.2885059017931
 31
0.0
  0
LINE
  5
DDC
  8
SIZE
  6
CONTINUOUS
 62
     0
 10
-2506.2654251900472
 20
-1617.2885059017931
 30
0.0
 11
-2516.2654251900472
 21
-1617.2885059017931
 31
0.0
  0
LINE
  5
DDD
  8
SIZE
  6
CONTINUOUS
 62
     0
 10
-2381.2654251900472
 20
-1617.2885059017931
 30
0.0
 11
-2496.2654251900472
 21
-1617.2885059017931
 31
0.0
  0
INSERT
  5
DDE
  8
SIZE
  6
CONTINUOUS
 62
     0
  2
_ORIGIN
 10
-2381.2654251900472
 20
-1617.2885059017931
 30
0.0
 41
10.0
 42
10.0
 43
10.0
 50
180.0
  0
INSERT
  5
DDF
  8
SIZE
  6
CONTINUOUS
 62
     0
  2
_ORIGIN
 10
-2496.2654251900472
 20
-1617.2885059017931
 30
0.0
 41
10.0
 42
10.0
 43
10.0
  0
TEXT
  5
DE0
  8
DETAIL
  6
CONTINUOUS
 62
     0
 10
-2501.851139475762
 20
-1607.2885059017931
 30
0.0
 40
64.0
  1
115
 41
0.9
  0
POINT
  5
DE1
  8
DEFPOINTS
  6
CONTINUOUS
 62
     0
 10
-2381.2654251900472
 20
-1832.2728349499209
 30
0.0
  0
POINT
  5
DE2
  8
DEFPOINTS
  6
CONTINUOUS
 62
     0
 10
-2496.2654251900472
 20
-1842.2728349499221
 30
0.0
  0
POINT
  5
DE3
  8
DEFPOINTS
  6
CONTINUOUS
 62
     0
 10
-2496.2654251900472
 20
-1617.2885059017931
 30
0.0
  0
ENDBLK
  5
D7A
  8
0
  0
BLOCK
  8
0
  2
*D47
 70
     1
 10
0.0
 20
0.0
 30
0.0
  3
*D47
  1

  0
LINE
  5
DEF
  8
SIZE
  6
CONTINUOUS
 62
     0
 10
-1931.2654251900469
 20
-2082.2728349499212
 30
0.0
 11
-1931.2654251900469
 21
-2236.1292805721018
 31
0.0
  0
LINE
  5
DF0
  8
SIZE
  6
CONTINUOUS
 62
     0
 10
-2252.2654251900472
 20
-1981.2728349499221
 30
0.0
 11
-2252.2654251900472
 21
-2236.1292805721018
 31
0.0
  0
LINE
  5
DF1
  8
SIZE
  6
CONTINUOUS
 62
     0
 10
-1941.2654251900469
 20
-2206.1292805721018
 30
0.0
 11
-2242.2654251900472
 21
-2206.1292805721018
 31
0.0
  0
INSERT
  5
DF2
  8
SIZE
  6
CONTINUOUS
 62
     0
  2
_ORIGIN
 10
-1931.2654251900469
 20
-2206.1292805721018
 30
0.0
 41
10.0
 42
10.0
 43
10.0
  0
INSERT
  5
DF3
  8
SIZE
  6
CONTINUOUS
 62
     0
  2
_ORIGIN
 10
-2252.2654251900472
 20
-2206.1292805721018
 30
0.0
 41
10.0
 42
10.0
 43
10.0
 50
180.0
  0
TEXT
  5
DF4
  8
DETAIL
  6
CONTINUOUS
 62
     0
 10
-2153.4797109043329
 20
-2196.1292805721018
 30
0.0
 40
64.0
  1
321
 41
0.9
  0
POINT
  5
DF5
  8
DEFPOINTS
  6
CONTINUOUS
 62
     0
 10
-1931.2654251900469
 20
-2062.2728349499212
 30
0.0
  0
POINT
  5
DF6
  8
DEFPOINTS
  6
CONTINUOUS
 62
     0
 10
-2252.2654251900472
 20
-1961.2728349499209
 30
0.0
  0
POINT
  5
DF7
  8
DEFPOINTS
  6
CONTINUOUS
 62
     0
 10
-2252.2654251900472
 20
-2206.1292805721018
 30
0.0
  0
ENDBLK
  5
D94
  8
0
  0
BLOCK
  8
0
  2
*D48
 70
     1
 10
0.0
 20
0.0
 30
0.0
  3
*D48
  1

  0
LINE
  5
E01
  8
SIZE
  6
CONTINUOUS
 62
     0
 10
-2292.2654251900472
 20
-1917.2728349499221
 30
0.0
 11
-2637.9769908857161
 21
-1917.2728349499209
 31
0.0
  0
LINE
  5
E02
  8
SIZE
  6
CONTINUOUS
 62
     0
 10
-2401.2654251900472
 20
-2062.2728349499212
 30
0.0
 11
-2637.9769908857161
 21
-2062.2728349499212
 31
0.0
  0
LINE
  5
E03
  8
SIZE
  6
CONTINUOUS
 62
     0
 10
-2607.9769908857161
 20
-1927.2728349499209
 30
0.0
 11
-2607.9769908857161
 21
-2052.2728349499212
 31
0.0
  0
INSERT
  5
E04
  8
SIZE
  6
CONTINUOUS
 62
     0
  2
_ORIGIN
 10
-2607.9769908857161
 20
-1917.2728349499209
 30
0.0
 41
10.0
 42
10.0
 43
10.0
 50
90.0
  0
INSERT
  5
E05
  8
SIZE
  6
CONTINUOUS
 62
     0
  2
_ORIGIN
 10
-2607.9769908857161
 20
-2062.2728349499212
 30
0.0
 41
10.0
 42
10.0
 43
10.0
 50
270.0
  0
TEXT
  5
E06
  8
DETAIL
  6
CONTINUOUS
 62
     0
 10
-2617.9769908857161
 20
-2058.3442635213501
 30
0.0
 40
64.0
  1
145
 50
90.0
 41
0.9
  0
POINT
  5
E07
  8
DEFPOINTS
  6
CONTINUOUS
 62
     0
 10
-2272.2654251900472
 20
-1917.2728349499221
 30
0.0
  0
POINT
  5
E08
  8
DEFPOINTS
  6
CONTINUOUS
 62
     0
 10
-2381.2654251900472
 20
-2062.2728349499212
 30
0.0
  0
POINT
  5
E09
  8
DEFPOINTS
  6
CONTINUOUS
 62
     0
 10
-2607.9769908857161
 20
-2062.2728349499212
 30
0.0
  0
ENDBLK
  5
DAC
  8
0
  0
BLOCK
  8
0
  2
*D49
 70
     1
 10
0.0
 20
0.0
 30
0.0
  3
*D49
  1

  0
LINE
  5
E0A
  8
SIZE
  6
CONTINUOUS
 62
     0
 10
-2292.2654251900472
 20
-1917.2728349499221
 30
0.0
 11
-2521.2608630959548
 21
-1917.2728349499221
 31
0.0
  0
LINE
  5
E0B
  8
SIZE
  6
CONTINUOUS
 62
     0
 10
-2292.2654251900472
 20
-1941.2728349499221
 30
0.0
 11
-2521.2608630959548
 21
-1941.2728349499221
 31
0.0
  0
LINE
  5
E0C
  8
SIZE
  6
CONTINUOUS
 62
     0
 10
-2491.2608630959548
 20
-1907.2728349499209
 30
0.0
 11
-2491.2608630959548
 21
-1897.2728349499209
 31
0.0
  0
LINE
  5
E0D
  8
SIZE
  6
CONTINUOUS
 62
     0
 10
-2491.2608630959548
 20
-1951.2728349499209
 30
0.0
 11
-2491.2608630959548
 21
-2077.2728349499212
 31
0.0
  0
LINE
  5
E0E
  8
SIZE
  6
CONTINUOUS
 62
     0
 10
-2491.2608630959548
 20
-1917.2728349499221
 30
0.0
 11
-2491.2608630959548
 21
-1941.2728349499221
 31
0.0
  0
INSERT
  5
E0F
  8
SIZE
  6
CONTINUOUS
 62
     0
  2
_ORIGIN
 10
-2491.2608630959548
 20
-1917.2728349499221
 30
0.0
 41
10.0
 42
10.0
 43
10.0
 50
270.0
  0
INSERT
  5
E10
  8
SIZE
  6
CONTINUOUS
 62
     0
  2
_ORIGIN
 10
-2491.2608630959548
 20
-1941.2728349499221
 30
0.0
 41
10.0
 42
10.0
 43
10.0
 50
90.0
  0
TEXT
  5
E11
  8
DETAIL
  6
CONTINUOUS
 62
     0
 10
-2501.2608630959539
 20
-2067.2728349499221
 30
0.0
 40
64.0
  1
24
 50
90.0
 41
0.9
  0
POINT
  5
E12
  8
DEFPOINTS
  6
CONTINUOUS
 62
     0
 10
-2272.2654251900472
 20
-1917.2728349499221
 30
0.0
  0
POINT
  5
E13
  8
DEFPOINTS
  6
CONTINUOUS
 62
     0
 10
-2272.2654251900472
 20
-1941.2728349499221
 30
0.0
  0
POINT
  5
E14
  8
DEFPOINTS
  6
CONTINUOUS
 62
     0
 10
-2491.2608630959548
 20
-1941.2728349499221
 30
0.0
  0
ENDBLK
  5
DBA
  8
0
  0
BLOCK
  8
0
  2
*D50
 70
     1
 10
0.0
 20
0.0
 30
0.0
  3
*D50
  1

  0
LINE
  5
E15
  8
SIZE
  6
CONTINUOUS
 62
     0
 10
-2536.2654251900472
 20
-1862.2728349499209
 30
0.0
 11
-2765.3325367259308
 21
-1862.2728349499209
 31
0.0
  0
LINE
  5
E16
  8
SIZE
  6
CONTINUOUS
 62
     0
 10
-2401.2654251900472
 20
-2062.2728349499212
 30
0.0
 11
-2765.3325367259308
 21
-2062.2728349499212
 31
0.0
  0
LINE
  5
E17
  8
SIZE
  6
CONTINUOUS
 62
     0
 10
-2735.3325367259308
 20
-1872.2728349499209
 30
0.0
 11
-2735.3325367259308
 21
-2052.2728349499212
 31
0.0
  0
INSERT
  5
E18
  8
SIZE
  6
CONTINUOUS
 62
     0
  2
_ORIGIN
 10
-2735.3325367259308
 20
-1862.2728349499209
 30
0.0
 41
10.0
 42
10.0
 43
10.0
 50
90.0
  0
INSERT
  5
E19
  8
SIZE
  6
CONTINUOUS
 62
     0
  2
_ORIGIN
 10
-2735.3325367259308
 20
-2062.2728349499212
 30
0.0
 41
10.0
 42
10.0
 43
10.0
 50
270.0
  0
TEXT
  5
E1A
  8
DETAIL
  6
CONTINUOUS
 62
     0
 10
-2745.3325367259308
 20
-2036.3299778070641
 30
0.0
 40
64.0
  1
200
 50
90.0
 41
0.9
  0
POINT
  5
E1B
  8
DEFPOINTS
  6
CONTINUOUS
 62
     0
 10
-2516.2654251900472
 20
-1862.2728349499209
 30
0.0
  0
POINT
  5
E1C
  8
DEFPOINTS
  6
CONTINUOUS
 62
     0
 10
-2381.2654251900472
 20
-2062.2728349499212
 30
0.0
  0
POINT
  5
E1D
  8
DEFPOINTS
  6
CONTINUOUS
 62
     0
 10
-2735.3325367259308
 20
-2062.2728349499212
 30
0.0
  0
ENDBLK
  5
DC6
  8
0
  0
BLOCK
  8
0
  2
*D51
 70
     1
 10
0.0
 20
0.0
 30
0.0
  3
*D51
  1

  0
LINE
  5
102E
  8
SIZE
  6
CONTINUOUS
 62
     0
 10
-388.5
 20
-3903.5456698998419
 30
0.0
 11
-388.5
 21
-4322.7162096331986
 31
0.0
  0
LINE
  5
102F
  8
SIZE
  6
CONTINUOUS
 62
     0
 10
388.49999999999989
 20
-3898.5456698998419
 30
0.0
 11
388.49999999999989
 21
-4322.7162096331986
 31
0.0
  0
LINE
  5
1030
  8
SIZE
  6
CONTINUOUS
 62
     0
 10
-378.5
 20
-4292.7162096332004
 30
0.0
 11
378.49999999999989
 21
-4292.7162096332004
 31
0.0
  0
INSERT
  5
1031
  8
SIZE
  6
CONTINUOUS
 62
     0
  2
_ORIGIN
 10
-388.5
 20
-4292.7162096332004
 30
0.0
 41
10.0
 42
10.0
 43
10.0
 50
180.0
  0
INSERT
  5
1032
  8
SIZE
  6
CONTINUOUS
 62
     0
  2
_ORIGIN
 10
388.49999999999989
 20
-4292.7162096332004
 30
0.0
 41
10.0
 42
10.0
 43
10.0
  0
TEXT
  5
1033
  8
DETAIL
  6
CONTINUOUS
 62
     0
 10
-74.057142857142921
 20
-4282.7162096331986
 30
0.0
 40
64.0
  1
777
 41
0.9
  0
POINT
  5
1034
  8
DEFPOINTS
  6
CONTINUOUS
 62
     0
 10
-388.5
 20
-3883.5456698998419
 30
0.0
  0
POINT
  5
1035
  8
DEFPOINTS
  6
CONTINUOUS
 62
     0
 10
388.49999999999989
 20
-3878.5456698998419
 30
0.0
  0
POINT
  5
1036
  8
DEFPOINTS
  6
CONTINUOUS
 62
     0
 10
388.49999999999989
 20
-4292.7162096332004
 30
0.0
  0
ENDBLK
  5
EE7
  8
0
  0
BLOCK
  8
0
  2
*D52
 70
     1
 10
0.0
 20
0.0
 30
0.0
  3
*D52
  1

  0
LINE
  5
1037
  8
SIZE
  6
CONTINUOUS
 62
     0
 10
-361.49999999999989
 20
-3907.5456698998419
 30
0.0
 11
-361.49999999999989
 21
-4217.1022695611346
 31
0.0
  0
LINE
  5
1038
  8
SIZE
  6
CONTINUOUS
 62
     0
 10
408.49999999999989
 20
-3907.5456698998419
 30
0.0
 11
408.49999999999989
 21
-4217.1022695611346
 31
0.0
  0
LINE
  5
1039
  8
SIZE
  6
CONTINUOUS
 62
     0
 10
-351.49999999999989
 20
-4187.1022695611364
 30
0.0
 11
398.49999999999989
 21
-4187.1022695611364
 31
0.0
  0
INSERT
  5
103A
  8
SIZE
  6
CONTINUOUS
 62
     0
  2
_ORIGIN
 10
-361.49999999999989
 20
-4187.1022695611364
 30
0.0
 41
10.0
 42
10.0
 43
10.0
 50
180.0
  0
INSERT
  5
103B
  8
SIZE
  6
CONTINUOUS
 62
     0
  2
_ORIGIN
 10
408.49999999999989
 20
-4187.1022695611364
 30
0.0
 41
10.0
 42
10.0
 43
10.0
  0
TEXT
  5
103C
  8
DETAIL
  6
CONTINUOUS
 62
     0
 10
-50.557142857142843
 20
-4177.1022695611346
 30
0.0
 40
64.0
  1
770
 41
0.9
  0
POINT
  5
103D
  8
DEFPOINTS
  6
CONTINUOUS
 62
     0
 10
-361.49999999999989
 20
-3887.5456698998428
 30
0.0
  0
POINT
  5
103E
  8
DEFPOINTS
  6
CONTINUOUS
 62
     0
 10
408.49999999999989
 20
-3887.5456698998428
 30
0.0
  0
POINT
  5
103F
  8
DEFPOINTS
  6
CONTINUOUS
 62
     0
 10
408.49999999999989
 20
-4187.1022695611364
 30
0.0
  0
ENDBLK
  5
EF3
  8
0
  0
BLOCK
  8
0
  2
*D53
 70
     1
 10
0.0
 20
0.0
 30
0.0
  3
*D53
  1

  0
LINE
  5
1018
  8
SIZE
  6
CONTINUOUS
 62
     0
 10
388.49999999999977
 20
-3903.5456698998419
 30
0.0
 11
388.49999999999977
 21
-4322.0732709015174
 31
0.0
  0
LINE
  5
1019
  8
SIZE
  6
CONTINUOUS
 62
     0
 10
408.49999999999989
 20
-3907.5456698998419
 30
0.0
 11
408.49999999999989
 21
-4322.0732709015174
 31
0.0
  0
LINE
  5
101A
  8
SIZE
  6
CONTINUOUS
 62
     0
 10
378.49999999999977
 20
-4292.0732709015174
 30
0.0
 11
368.49999999999977
 21
-4292.0732709015174
 31
0.0
  0
LINE
  5
101B
  8
SIZE
  6
CONTINUOUS
 62
     0
 10
418.5
 20
-4292.0732709015174
 30
0.0
 11
541.75714285714275
 21
-4292.0732709015174
 31
0.0
  0
LINE
  5
101C
  8
SIZE
  6
CONTINUOUS
 62
     0
 10
388.49999999999977
 20
-4292.0732709015174
 30
0.0
 11
408.49999999999989
 21
-4292.0732709015174
 31
0.0
  0
INSERT
  5
101D
  8
SIZE
  6
CONTINUOUS
 62
     0
  2
_ORIGIN
 10
388.49999999999977
 20
-4292.0732709015174
 30
0.0
 41
10.0
 42
10.0
 43
10.0
  0
INSERT
  5
101E
  8
SIZE
  6
CONTINUOUS
 62
     0
  2
_ORIGIN
 10
408.49999999999989
 20
-4292.0732709015174
 30
0.0
 41
10.0
 42
10.0
 43
10.0
 50
180.0
  0
TEXT
  5
101F
  8
DETAIL
  6
CONTINUOUS
 62
     0
 10
438.49999999999989
 20
-4282.0732709015174
 30
0.0
 40
64.0
  1
20
 41
0.9
  0
POINT
  5
1020
  8
DEFPOINTS
  6
CONTINUOUS
 62
     0
 10
388.49999999999977
 20
-3883.5456698998419
 30
0.0
  0
POINT
  5
1021
  8
DEFPOINTS
  6
CONTINUOUS
 62
     0
 10
408.49999999999989
 20
-3887.5456698998428
 30
0.0
  0
POINT
  5
1022
  8
DEFPOINTS
  6
CONTINUOUS
 62
     0
 10
408.49999999999989
 20
-4292.0732709015174
 30
0.0
  0
ENDBLK
  5
F01
  8
0
  0
BLOCK
  8
0
  2
*D54
 70
     1
 10
0.0
 20
0.0
 30
0.0
  3
*D54
  1

  0
LINE
  5
1023
  8
SIZE
  6
CONTINUOUS
 62
     0
 10
-388.5
 20
-3903.5456698998419
 30
0.0
 11
-388.5
 21
-4322.5245345278199
 31
0.0
  0
LINE
  5
1024
  8
SIZE
  6
CONTINUOUS
 62
     0
 10
-408.49999999999989
 20
-3907.5456698998419
 30
0.0
 11
-408.49999999999989
 21
-4322.5245345278199
 31
0.0
  0
LINE
  5
1025
  8
SIZE
  6
CONTINUOUS
 62
     0
 10
-378.5
 20
-4292.5245345278199
 30
0.0
 11
-368.5
 21
-4292.5245345278199
 31
0.0
  0
LINE
  5
1026
  8
SIZE
  6
CONTINUOUS
 62
     0
 10
-418.5
 20
-4292.5245345278199
 30
0.0
 11
-541.75714285714275
 21
-4292.5245345278199
 31
0.0
  0
LINE
  5
1027
  8
SIZE
  6
CONTINUOUS
 62
     0
 10
-388.5
 20
-4292.5245345278199
 30
0.0
 11
-408.49999999999989
 21
-4292.5245345278199
 31
0.0
  0
INSERT
  5
1028
  8
SIZE
  6
CONTINUOUS
 62
     0
  2
_ORIGIN
 10
-388.5
 20
-4292.5245345278199
 30
0.0
 41
10.0
 42
10.0
 43
10.0
 50
180.0
  0
INSERT
  5
1029
  8
SIZE
  6
CONTINUOUS
 62
     0
  2
_ORIGIN
 10
-408.49999999999989
 20
-4292.5245345278199
 30
0.0
 41
10.0
 42
10.0
 43
10.0
  0
TEXT
  5
102A
  8
DETAIL
  6
CONTINUOUS
 62
     0
 10
-531.75714285714287
 20
-4282.524534527819
 30
0.0
 40
64.0
  1
20
 41
0.9
  0
POINT
  5
102B
  8
DEFPOINTS
  6
CONTINUOUS
 62
     0
 10
-388.5
 20
-3883.5456698998419
 30
0.0
  0
POINT
  5
102C
  8
DEFPOINTS
  6
CONTINUOUS
 62
     0
 10
-408.49999999999989
 20
-3887.5456698998428
 30
0.0
  0
POINT
  5
102D
  8
DEFPOINTS
  6
CONTINUOUS
 62
     0
 10
-408.49999999999989
 20
-4292.5245345278199
 30
0.0
  0
ENDBLK
  5
F0F
  8
0
  0
BLOCK
  8
0
  2
*D55
 70
     1
 10
0.0
 20
0.0
 30
0.0
  3
*D55
  1

  0
LINE
  5
1458
  8
SIZE
  6
CONTINUOUS
 62
     0
 10
-428.49999999999989
 20
-3461.5456698998419
 30
0.0
 11
-505.37041130341811
 21
-3461.5456698998419
 31
0.0
  0
LINE
  5
1459
  8
SIZE
  6
CONTINUOUS
 62
     0
 10
-428.50000000000011
 20
-3859.5456698998419
 30
0.0
 11
-505.37041130341822
 21
-3859.5456698998419
 31
0.0
  0
LINE
  5
145A
  8
SIZE
  6
CONTINUOUS
 62
     0
 10
-475.37041130341811
 20
-3471.5456698998419
 30
0.0
 11
-475.37041130341811
 21
-3849.5456698998419
 31
0.0
  0
INSERT
  5
145B
  8
SIZE
  6
CONTINUOUS
 62
     0
  2
_ORIGIN
 10
-475.37041130341811
 20
-3461.5456698998419
 30
0.0
 41
10.0
 42
10.0
 43
10.0
 50
90.0
  0
INSERT
  5
145C
  8
SIZE
  6
CONTINUOUS
 62
     0
  2
_ORIGIN
 10
-475.37041130341811
 20
-3859.5456698998419
 30
0.0
 41
10.0
 42
10.0
 43
10.0
 50
270.0
  0
TEXT
  5
145D
  8
DETAIL
  6
CONTINUOUS
 62
     0
 10
-485.3704113034176
 20
-3734.6028127569848
 30
0.0
 40
64.0
  1
398
 50
90.0
 41
0.9
  0
POINT
  5
145E
  8
DEFPOINTS
  6
CONTINUOUS
 62
     0
 10
-408.49999999999989
 20
-3461.5456698998419
 30
0.0
  0
POINT
  5
145F
  8
DEFPOINTS
  6
CONTINUOUS
 62
     0
 10
-408.5
 20
-3859.5456698998419
 30
0.0
  0
POINT
  5
1460
  8
DEFPOINTS
  6
CONTINUOUS
 62
     0
 10
-475.37041130341811
 20
-3859.5456698998419
 30
0.0
  0
ENDBLK
  5
F1B
  8
0
  0
BLOCK
  8
0
  2
*D56
 70
     1
 10
0.0
 20
0.0
 30
0.0
  3
*D56
  1

  0
LINE
  5
1049
  8
SIZE
  6
CONTINUOUS
 62
     0
 10
-381.49999999999989
 20
-3889.5456698998419
 30
0.0
 11
-618.1660394937353
 21
-3889.5456698998419
 31
0.0
  0
LINE
  5
104A
  8
SIZE
  6
CONTINUOUS
 62
     0
 10
-381.49999999999989
 20
-3439.5456698998419
 30
0.0
 11
-618.16603949373518
 21
-3439.5456698998419
 31
0.0
  0
LINE
  5
104B
  8
SIZE
  6
CONTINUOUS
 62
     0
 10
-588.16603949373541
 20
-3879.5456698998419
 30
0.0
 11
-588.1660394937353
 21
-3449.5456698998419
 31
0.0
  0
INSERT
  5
104C
  8
SIZE
  6
CONTINUOUS
 62
     0
  2
_ORIGIN
 10
-588.16603949373541
 20
-3889.5456698998419
 30
0.0
 41
10.0
 42
10.0
 43
10.0
 50
270.0
  0
INSERT
  5
104D
  8
SIZE
  6
CONTINUOUS
 62
     0
  2
_ORIGIN
 10
-588.1660394937353
 20
-3439.5456698998419
 30
0.0
 41
10.0
 42
10.0
 43
10.0
 50
90.0
  0
TEXT
  5
104E
  8
DETAIL
  6
CONTINUOUS
 62
     0
 10
-598.16603949373473
 20
-3738.6028127569848
 30
0.0
 40
64.0
  1
450
 50
90.0
 41
0.9
  0
POINT
  5
104F
  8
DEFPOINTS
  6
CONTINUOUS
 62
     0
 10
-361.5
 20
-3889.5456698998419
 30
0.0
  0
POINT
  5
1050
  8
DEFPOINTS
  6
CONTINUOUS
 62
     0
 10
-361.5
 20
-3439.5456698998419
 30
0.0
  0
POINT
  5
1051
  8
DEFPOINTS
  6
CONTINUOUS
 62
     0
 10
-588.1660394937353
 20
-3439.5456698998419
 30
0.0
  0
ENDBLK
  5
F27
  8
0
  0
BLOCK
  8
0
  2
*D57
 70
     1
 10
0.0
 20
0.0
 30
0.0
  3
*D57
  1

  0
LINE
  5
105D
  8
SIZE
  6
CONTINUOUS
 62
     0
 10
348.50000000000011
 20
-3324.5456698998419
 30
0.0
 11
696.16349142884383
 21
-3324.5456698998419
 31
0.0
  0
LINE
  5
105E
  8
SIZE
  6
CONTINUOUS
 62
     0
 10
278.5
 20
-3439.5456698998419
 30
0.0
 11
696.16349142884371
 21
-3439.5456698998419
 31
0.0
  0
LINE
  5
105F
  8
SIZE
  6
CONTINUOUS
 62
     0
 10
666.16349142884371
 20
-3334.5456698998419
 30
0.0
 11
666.16349142884371
 21
-3429.5456698998419
 31
0.0
  0
INSERT
  5
1060
  8
SIZE
  6
CONTINUOUS
 62
     0
  2
_ORIGIN
 10
666.16349142884383
 20
-3324.5456698998419
 30
0.0
 41
10.0
 42
10.0
 43
10.0
 50
90.0
  0
INSERT
  5
1061
  8
SIZE
  6
CONTINUOUS
 62
     0
  2
_ORIGIN
 10
666.16349142884371
 20
-3439.5456698998419
 30
0.0
 41
10.0
 42
10.0
 43
10.0
 50
270.0
  0
TEXT
  5
1062
  8
DETAIL
  6
CONTINUOUS
 62
     0
 10
656.16349142884417
 20
-3478.432233964083
 30
0.0
 40
64.0
  1
115
 50
90.0
 41
0.9
  0
POINT
  5
1063
  8
DEFPOINTS
  6
CONTINUOUS
 62
     0
 10
328.50000000000011
 20
-3324.5456698998419
 30
0.0
  0
POINT
  5
1064
  8
DEFPOINTS
  6
CONTINUOUS
 62
     0
 10
258.49999999999989
 20
-3439.5456698998419
 30
0.0
  0
POINT
  5
1065
  8
DEFPOINTS
  6
CONTINUOUS
 62
     0
 10
666.16349142884371
 20
-3439.5456698998419
 30
0.0
  0
ENDBLK
  5
F33
  8
0
  0
BLOCK
  8
0
  2
*D58
 70
     1
 10
0.0
 20
0.0
 30
0.0
  3
*D58
  1

  0
LINE
  5
1066
  8
SIZE
  6
CONTINUOUS
 62
     0
 10
404.5
 20
-3568.5456698998419
 30
0.0
 11
761.86547460009695
 21
-3568.5456698998419
 31
0.0
  0
LINE
  5
1067
  8
SIZE
  6
CONTINUOUS
 62
     0
 10
381.49999999999989
 20
-3889.5456698998419
 30
0.0
 11
761.86547460009683
 21
-3889.5456698998419
 31
0.0
  0
LINE
  5
1068
  8
SIZE
  6
CONTINUOUS
 62
     0
 10
731.86547460009695
 20
-3578.5456698998419
 30
0.0
 11
731.86547460009683
 21
-3879.5456698998419
 31
0.0
  0
INSERT
  5
1069
  8
SIZE
  6
CONTINUOUS
 62
     0
  2
_ORIGIN
 10
731.86547460009695
 20
-3568.5456698998419
 30
0.0
 41
10.0
 42
10.0
 43
10.0
 50
90.0
  0
INSERT
  5
106A
  8
SIZE
  6
CONTINUOUS
 62
     0
  2
_ORIGIN
 10
731.86547460009683
 20
-3889.5456698998419
 30
0.0
 41
10.0
 42
10.0
 43
10.0
 50
270.0
  0
TEXT
  5
106B
  8
DETAIL
  6
CONTINUOUS
 62
     0
 10
721.86547460009751
 20
-3799.2008973876291
 30
0.0
 40
64.0
  1
321
 50
90.0
 41
0.9
  0
POINT
  5
106C
  8
DEFPOINTS
  6
CONTINUOUS
 62
     0
 10
384.5
 20
-3568.5456698998419
 30
0.0
  0
POINT
  5
106D
  8
DEFPOINTS
  6
CONTINUOUS
 62
     0
 10
361.49999999999989
 20
-3889.5456698998419
 30
0.0
  0
POINT
  5
106E
  8
DEFPOINTS
  6
CONTINUOUS
 62
     0
 10
731.86547460009683
 20
-3889.5456698998419
 30
0.0
  0
ENDBLK
  5
F3F
  8
0
  0
BLOCK
  8
0
  2
*D59
 70
     1
 10
0.0
 20
0.0
 30
0.0
  3
*D59
  1

  0
LINE
  5
1082
  8
SIZE
  6
CONTINUOUS
 62
     0
 10
381.49999999999989
 20
-3889.5456698998419
 30
0.0
 11
643.74310929889828
 21
-3889.5456698998419
 31
0.0
  0
LINE
  5
1083
  8
SIZE
  6
CONTINUOUS
 62
     0
 10
493.5
 20
-3836.5456698998419
 30
0.0
 11
643.7431092988985
 21
-3836.5456698998419
 31
0.0
  0
LINE
  5
1084
  8
SIZE
  6
CONTINUOUS
 62
     0
 10
613.74310929889828
 20
-3846.5456698998419
 30
0.0
 11
613.74310929889828
 21
-3879.5456698998419
 31
0.0
  0
LINE
  5
1085
  8
SIZE
  6
CONTINUOUS
 62
     0
 10
613.74310929889828
 20
-3889.5456698998419
 30
0.0
 11
613.74310929889828
 21
-4018.167180505091
 31
0.0
  0
INSERT
  5
1086
  8
SIZE
  6
CONTINUOUS
 62
     0
  2
_ORIGIN
 10
613.74310929889839
 20
-3836.5456698998419
 30
0.0
 41
10.0
 42
10.0
 43
10.0
 50
90.0
  0
INSERT
  5
1087
  8
SIZE
  6
CONTINUOUS
 62
     0
  2
_ORIGIN
 10
613.74310929889828
 20
-3889.5456698998419
 30
0.0
 41
10.0
 42
10.0
 43
10.0
 50
270.0
  0
TEXT
  5
1088
  8
DETAIL
  6
CONTINUOUS
 62
     0
 10
603.74310929889896
 20
-4008.1671805050919
 30
0.0
 40
64.0
  1
53
 50
90.0
 41
0.9
  0
POINT
  5
1089
  8
DEFPOINTS
  6
CONTINUOUS
 62
     0
 10
361.49999999999989
 20
-3889.5456698998419
 30
0.0
  0
POINT
  5
108A
  8
DEFPOINTS
  6
CONTINUOUS
 62
     0
 10
473.5
 20
-3836.5456698998419
 30
0.0
  0
POINT
  5
108B
  8
DEFPOINTS
  6
CONTINUOUS
 62
     0
 10
613.74310929889839
 20
-3836.5456698998419
 30
0.0
  0
ENDBLK
  5
F4C
  8
0
  0
BLOCK
  8
0
  2
*D60
 70
     1
 10
0.0
 20
0.0
 30
0.0
  3
*D60
  1

  0
LINE
  5
106F
  8
SIZE
  6
CONTINUOUS
 62
     0
 10
493.5
 20
-3594.5456698998419
 30
0.0
 11
643.7431092988985
 21
-3594.5456698998419
 31
0.0
  0
LINE
  5
1070
  8
SIZE
  6
CONTINUOUS
 62
     0
 10
493.5
 20
-3836.5456698998419
 30
0.0
 11
643.7431092988985
 21
-3836.5456698998419
 31
0.0
  0
LINE
  5
1071
  8
SIZE
  6
CONTINUOUS
 62
     0
 10
613.74310929889839
 20
-3604.5456698998419
 30
0.0
 11
613.74310929889839
 21
-3826.5456698998428
 31
0.0
  0
INSERT
  5
1072
  8
SIZE
  6
CONTINUOUS
 62
     0
  2
_ORIGIN
 10
613.74310929889839
 20
-3594.5456698998419
 30
0.0
 41
10.0
 42
10.0
 43
10.0
 50
90.0
  0
INSERT
  5
1073
  8
SIZE
  6
CONTINUOUS
 62
     0
  2
_ORIGIN
 10
613.74310929889839
 20
-3836.5456698998419
 30
0.0
 41
10.0
 42
10.0
 43
10.0
 50
270.0
  0
TEXT
  5
1074
  8
DETAIL
  6
CONTINUOUS
 62
     0
 10
603.74310929889896
 20
-3796.5098024037038
 30
0.0
 40
64.0
  1
242
 50
90.0
 41
0.9
  0
POINT
  5
1075
  8
DEFPOINTS
  6
CONTINUOUS
 62
     0
 10
473.5
 20
-3594.5456698998419
 30
0.0
  0
POINT
  5
1076
  8
DEFPOINTS
  6
CONTINUOUS
 62
     0
 10
473.5
 20
-3836.5456698998419
 30
0.0
  0
POINT
  5
1077
  8
DEFPOINTS
  6
CONTINUOUS
 62
     0
 10
613.74310929889839
 20
-3836.5456698998419
 30
0.0
  0
ENDBLK
  5
F58
  8
0
  0
BLOCK
  8
0
  2
*D61
 70
     1
 10
0.0
 20
0.0
 30
0.0
  3
*D61
  1

  0
LINE
  5
108C
  8
SIZE
  6
CONTINUOUS
 62
     0
 10
408.49999999999989
 20
-3421.5456698998419
 30
0.0
 11
408.49999999999989
 21
-3180.8025568991761
 31
0.0
  0
LINE
  5
108D
  8
SIZE
  6
CONTINUOUS
 62
     0
 10
308.50000000000011
 20
-3284.5456698998419
 30
0.0
 11
308.50000000000011
 21
-3180.8025568991761
 31
0.0
  0
LINE
  5
108E
  8
SIZE
  6
CONTINUOUS
 62
     0
 10
418.5
 20
-3210.8025568991761
 30
0.0
 11
428.5
 21
-3210.8025568991761
 31
0.0
  0
LINE
  5
108F
  8
SIZE
  6
CONTINUOUS
 62
     0
 10
298.50000000000011
 20
-3210.8025568991761
 30
0.0
 11
288.50000000000011
 21
-3210.8025568991761
 31
0.0
  0
LINE
  5
1090
  8
SIZE
  6
CONTINUOUS
 62
     0
 10
408.49999999999989
 20
-3210.8025568991761
 30
0.0
 11
308.50000000000011
 21
-3210.8025568991761
 31
0.0
  0
INSERT
  5
1091
  8
SIZE
  6
CONTINUOUS
 62
     0
  2
_ORIGIN
 10
408.49999999999989
 20
-3210.8025568991761
 30
0.0
 41
10.0
 42
10.0
 43
10.0
 50
180.0
  0
INSERT
  5
1092
  8
SIZE
  6
CONTINUOUS
 62
     0
  2
_ORIGIN
 10
308.50000000000011
 20
-3210.8025568991761
 30
0.0
 41
10.0
 42
10.0
 43
10.0
  0
TEXT
  5
1093
  8
DETAIL
  6
CONTINUOUS
 62
     0
 10
289.92857142857139
 20
-3200.8025568991761
 30
0.0
 40
64.0
  1
100
 41
0.9
  0
POINT
  5
1094
  8
DEFPOINTS
  6
CONTINUOUS
 62
     0
 10
408.49999999999989
 20
-3441.5456698998419
 30
0.0
  0
POINT
  5
1095
  8
DEFPOINTS
  6
CONTINUOUS
 62
     0
 10
308.50000000000011
 20
-3304.5456698998419
 30
0.0
  0
POINT
  5
1096
  8
DEFPOINTS
  6
CONTINUOUS
 62
     0
 10
308.50000000000011
 20
-3210.8025568991761
 30
0.0
  0
ENDBLK
  5
F66
  8
0
  0
BLOCK
  8
0
  2
*D62
 70
     1
 10
0.0
 20
0.0
 30
0.0
  3
*D62
  1

  0
LINE
  5
1078
  8
SIZE
  6
CONTINUOUS
 62
     0
 10
408.49999999999989
 20
-3614.5456698998419
 30
0.0
 11
408.49999999999989
 21
-3787.1489297184562
 31
0.0
  0
LINE
  5
1079
  8
SIZE
  6
CONTINUOUS
 62
     0
 10
364.5
 20
-3608.5456698998419
 30
0.0
 11
364.5
 21
-3787.1489297184562
 31
0.0
  0
LINE
  5
107A
  8
SIZE
  6
CONTINUOUS
 62
     0
 10
374.5
 20
-3757.1489297184562
 30
0.0
 11
398.49999999999989
 21
-3757.1489297184562
 31
0.0
  0
LINE
  5
107B
  8
SIZE
  6
CONTINUOUS
 62
     0
 10
408.49999999999989
 20
-3757.1489297184562
 30
0.0
 11
534.49999999999989
 21
-3757.1489297184562
 31
0.0
  0
INSERT
  5
107C
  8
SIZE
  6
CONTINUOUS
 62
     0
  2
_ORIGIN
 10
364.5
 20
-3757.1489297184562
 30
0.0
 41
10.0
 42
10.0
 43
10.0
 50
180.0
  0
INSERT
  5
107D
  8
SIZE
  6
CONTINUOUS
 62
     0
  2
_ORIGIN
 10
408.49999999999989
 20
-3757.1489297184562
 30
0.0
 41
10.0
 42
10.0
 43
10.0
  0
TEXT
  5
107E
  8
DETAIL
  6
CONTINUOUS
 62
     0
 10
428.5
 20
-3747.1489297184562
 30
0.0
 40
64.0
  1
44
 41
0.9
  0
POINT
  5
107F
  8
DEFPOINTS
  6
CONTINUOUS
 62
     0
 10
408.49999999999989
 20
-3594.5456698998419
 30
0.0
  0
POINT
  5
1080
  8
DEFPOINTS
  6
CONTINUOUS
 62
     0
 10
364.5
 20
-3588.5456698998419
 30
0.0
  0
POINT
  5
1081
  8
DEFPOINTS
  6
CONTINUOUS
 62
     0
 10
364.5
 20
-3757.1489297184562
 30
0.0
  0
ENDBLK
  5
F73
  8
0
  0
BLOCK
  8
0
  2
*D63
 70
     1
 10
0.0
 20
0.0
 30
0.0
  3
*D63
  1

  0
LINE
  5
1097
  8
SIZE
  6
CONTINUOUS
 62
     0
 10
364.5
 20
-3608.5456698998419
 30
0.0
 11
364.5
 21
-3786.8723884777901
 31
0.0
  0
LINE
  5
1098
  8
SIZE
  6
CONTINUOUS
 62
     0
 10
309.49999999999989
 20
-3608.5456698998419
 30
0.0
 11
309.49999999999989
 21
-3786.8723884777901
 31
0.0
  0
LINE
  5
1099
  8
SIZE
  6
CONTINUOUS
 62
     0
 10
354.5
 20
-3756.8723884777901
 30
0.0
 11
319.49999999999989
 21
-3756.8723884777901
 31
0.0
  0
LINE
  5
109A
  8
SIZE
  6
CONTINUOUS
 62
     0
 10
309.49999999999989
 20
-3756.8723884777901
 30
0.0
 11
186.2428571428571
 21
-3756.8723884777901
 31
0.0
  0
INSERT
  5
109B
  8
SIZE
  6
CONTINUOUS
 62
     0
  2
_ORIGIN
 10
364.5
 20
-3756.8723884777901
 30
0.0
 41
10.0
 42
10.0
 43
10.0
  0
INSERT
  5
109C
  8
SIZE
  6
CONTINUOUS
 62
     0
  2
_ORIGIN
 10
309.49999999999989
 20
-3756.8723884777901
 30
0.0
 41
10.0
 42
10.0
 43
10.0
 50
180.0
  0
TEXT
  5
109D
  8
DETAIL
  6
CONTINUOUS
 62
     0
 10
196.24285714285699
 20
-3746.8723884777901
 30
0.0
 40
64.0
  1
55
 41
0.9
  0
POINT
  5
109E
  8
DEFPOINTS
  6
CONTINUOUS
 62
     0
 10
364.5
 20
-3588.5456698998419
 30
0.0
  0
POINT
  5
109F
  8
DEFPOINTS
  6
CONTINUOUS
 62
     0
 10
309.49999999999989
 20
-3588.5456698998419
 30
0.0
  0
POINT
  5
10A0
  8
DEFPOINTS
  6
CONTINUOUS
 62
     0
 10
309.49999999999989
 20
-3756.8723884777901
 30
0.0
  0
ENDBLK
  5
F80
  8
0
  0
BLOCK
  8
0
  2
*D64
 70
     1
 10
0.0
 20
0.0
 30
0.0
  3
*D64
  1

  0
LINE
  5
1250
  8
SIZE
  6
CONTINUOUS
 62
     0
 10
-350.50000000000051
 20
-1840.2728349499209
 30
0.0
 11
-350.50000000000051
 21
-1716.5566182910329
 31
0.0
  0
LINE
  5
1251
  8
SIZE
  6
CONTINUOUS
 62
     0
 10
304.5
 20
-1840.2728349499221
 30
0.0
 11
304.5
 21
-1716.5566182910329
 31
0.0
  0
LINE
  5
1252
  8
SIZE
  6
CONTINUOUS
 62
     0
 10
-340.50000000000051
 20
-1746.5566182910329
 30
0.0
 11
294.5
 21
-1746.5566182910329
 31
0.0
  0
INSERT
  5
1253
  8
SIZE
  6
CONTINUOUS
 62
     0
  2
_ORIGIN
 10
-350.50000000000051
 20
-1746.5566182910329
 30
0.0
 41
10.0
 42
10.0
 43
10.0
 50
180.0
  0
INSERT
  5
1254
  8
SIZE
  6
CONTINUOUS
 62
     0
  2
_ORIGIN
 10
304.5
 20
-1746.5566182910329
 30
0.0
 41
10.0
 42
10.0
 43
10.0
  0
TEXT
  5
1255
  8
DETAIL
  6
CONTINUOUS
 62
     0
 10
-97.057142857143063
 20
-1736.5566182910329
 30
0.0
 40
64.0
  1
655
 41
0.9
  0
POINT
  5
1256
  8
DEFPOINTS
  6
CONTINUOUS
 62
     0
 10
-350.50000000000051
 20
-1860.2728349499209
 30
0.0
  0
POINT
  5
1257
  8
DEFPOINTS
  6
CONTINUOUS
 62
     0
 10
304.5
 20
-1860.2728349499209
 30
0.0
  0
POINT
  5
1258
  8
DEFPOINTS
  6
CONTINUOUS
 62
     0
 10
304.5
 20
-1746.5566182910329
 30
0.0
  0
ENDBLK
  5
125A
  8
0
  0
BLOCK
  8
0
  2
*D65
 70
     1
 10
0.0
 20
0.0
 30
0.0
  3
*D65
  1

  0
LINE
  5
125D
  8
SIZE
  6
CONTINUOUS
 62
     0
 10
-361.49999999999977
 20
-1812.2728349499209
 30
0.0
 11
-361.49999999999977
 21
-1716.5566182910329
 31
0.0
  0
LINE
  5
125E
  8
SIZE
  6
CONTINUOUS
 62
     0
 10
-350.50000000000051
 20
-1840.2728349499209
 30
0.0
 11
-350.50000000000051
 21
-1716.5566182910329
 31
0.0
  0
LINE
  5
125F
  8
SIZE
  6
CONTINUOUS
 62
     0
 10
-371.49999999999977
 20
-1746.5566182910329
 30
0.0
 11
-381.49999999999989
 21
-1746.5566182910329
 31
0.0
  0
LINE
  5
1260
  8
SIZE
  6
CONTINUOUS
 62
     0
 10
-340.50000000000051
 20
-1746.5566182910329
 30
0.0
 11
-330.50000000000051
 21
-1746.5566182910329
 31
0.0
  0
LINE
  5
1261
  8
SIZE
  6
CONTINUOUS
 62
     0
 10
-361.49999999999977
 20
-1746.5566182910329
 30
0.0
 11
-350.50000000000051
 21
-1746.5566182910329
 31
0.0
  0
INSERT
  5
1262
  8
SIZE
  6
CONTINUOUS
 62
     0
  2
_ORIGIN
 10
-361.49999999999977
 20
-1746.5566182910329
 30
0.0
 41
10.0
 42
10.0
 43
10.0
  0
INSERT
  5
1263
  8
SIZE
  6
CONTINUOUS
 62
     0
  2
_ORIGIN
 10
-350.50000000000051
 20
-1746.5566182910329
 30
0.0
 41
10.0
 42
10.0
 43
10.0
 50
180.0
  0
TEXT
  5
1264
  8
DETAIL
  6
CONTINUOUS
 62
     0
 10
-384.80000000000018
 20
-1736.5566182910329
 30
0.0
 40
64.0
  1
11
 41
0.9
  0
POINT
  5
1265
  8
DEFPOINTS
  6
CONTINUOUS
 62
     0
 10
-361.49999999999977
 20
-1832.2728349499209
 30
0.0
  0
POINT
  5
1266
  8
DEFPOINTS
  6
CONTINUOUS
 62
     0
 10
-350.50000000000051
 20
-1860.2728349499209
 30
0.0
  0
POINT
  5
1267
  8
DEFPOINTS
  6
CONTINUOUS
 62
     0
 10
-350.50000000000051
 20
-1746.5566182910329
 30
0.0
  0
ENDBLK
  5
1269
  8
0
  0
BLOCK
  8
0
  2
*D66
 70
     1
 10
0.0
 20
0.0
 30
0.0
  3
*D66
  1

  0
LINE
  5
12A8
  8
SIZE
  6
CONTINUOUS
 62
     0
 10
-310.50000000000051
 20
-1880.2728349499209
 30
0.0
 11
-180.63150277531199
 21
-1880.2728349499209
 31
0.0
  0
LINE
  5
12A9
  8
SIZE
  6
CONTINUOUS
 62
     0
 10
-310.49999999999989
 20
-1989.2728349499221
 30
0.0
 11
-180.63150277531199
 21
-1989.2728349499221
 31
0.0
  0
LINE
  5
12AA
  8
SIZE
  6
CONTINUOUS
 62
     0
 10
-210.6315027753119
 20
-1890.2728349499209
 30
0.0
 11
-210.6315027753119
 21
-1979.2728349499209
 31
0.0
  0
INSERT
  5
12AB
  8
SIZE
  6
CONTINUOUS
 62
     0
  2
_ORIGIN
 10
-210.6315027753119
 20
-1880.2728349499209
 30
0.0
 41
10.0
 42
10.0
 43
10.0
 50
90.0
  0
INSERT
  5
12AC
  8
SIZE
  6
CONTINUOUS
 62
     0
  2
_ORIGIN
 10
-210.63150277531199
 20
-1989.2728349499221
 30
0.0
 41
10.0
 42
10.0
 43
10.0
 50
270.0
  0
TEXT
  5
12AD
  8
DETAIL
  6
CONTINUOUS
 62
     0
 10
-220.63150277531159
 20
-2027.4903367112449
 30
0.0
 40
64.0
  1
109
 50
90.0
 41
0.9
  0
POINT
  5
12AE
  8
DEFPOINTS
  6
CONTINUOUS
 62
     0
 10
-330.50000000000051
 20
-1880.2728349499209
 30
0.0
  0
POINT
  5
12AF
  8
DEFPOINTS
  6
CONTINUOUS
 62
     0
 10
-330.49999999999989
 20
-1989.2728349499221
 30
0.0
  0
POINT
  5
12B0
  8
DEFPOINTS
  6
CONTINUOUS
 62
     0
 10
-210.63150277531199
 20
-1989.2728349499221
 30
0.0
  0
ENDBLK
  5
1278
  8
0
  0
BLOCK
  8
0
  2
*D67
 70
     1
 10
0.0
 20
0.0
 30
0.0
  3
*D67
  1

  0
LINE
  5
1293
  8
SIZE
  6
CONTINUOUS
 62
     0
 10
-310.49999999999989
 20
-1989.2728349499221
 30
0.0
 11
-179.99774419940181
 21
-1989.2728349499221
 31
0.0
  0
LINE
  5
1294
  8
SIZE
  6
CONTINUOUS
 62
     0
 10
-341.49999999999989
 20
-2062.2728349499212
 30
0.0
 11
-179.99774419940181
 21
-2062.2728349499212
 31
0.0
  0
LINE
  5
1295
  8
SIZE
  6
CONTINUOUS
 62
     0
 10
-209.99774419940181
 20
-1999.2728349499221
 30
0.0
 11
-209.99774419940181
 21
-2052.2728349499212
 31
0.0
  0
LINE
  5
1296
  8
SIZE
  6
CONTINUOUS
 62
     0
 10
-209.99774419940181
 20
-2062.2728349499212
 30
0.0
 11
-209.99774419940181
 21
-2185.5299778070639
 31
0.0
  0
INSERT
  5
1297
  8
SIZE
  6
CONTINUOUS
 62
     0
  2
_ORIGIN
 10
-209.99774419940181
 20
-1989.2728349499221
 30
0.0
 41
10.0
 42
10.0
 43
10.0
 50
90.0
  0
INSERT
  5
1298
  8
SIZE
  6
CONTINUOUS
 62
     0
  2
_ORIGIN
 10
-209.99774419940181
 20
-2062.2728349499212
 30
0.0
 41
10.0
 42
10.0
 43
10.0
 50
270.0
  0
TEXT
  5
1299
  8
DETAIL
  6
CONTINUOUS
 62
     0
 10
-219.99774419940141
 20
-2175.5299778070639
 30
0.0
 40
64.0
  1
73
 50
90.0
 41
0.9
  0
POINT
  5
129A
  8
DEFPOINTS
  6
CONTINUOUS
 62
     0
 10
-330.49999999999989
 20
-1989.2728349499221
 30
0.0
  0
POINT
  5
129B
  8
DEFPOINTS
  6
CONTINUOUS
 62
     0
 10
-361.49999999999989
 20
-2062.2728349499212
 30
0.0
  0
POINT
  5
129C
  8
DEFPOINTS
  6
CONTINUOUS
 62
     0
 10
-209.99774419940181
 20
-2062.2728349499212
 30
0.0
  0
ENDBLK
  5
1287
  8
0
  0
BLOCK
  8
0
  2
*D68
 70
     1
 10
0.0
 20
0.0
 30
0.0
  3
*D68
  1

  0
LINE
  5
12EF
  8
SIZE
  6
CONTINUOUS
 62
     0
 10
-361.5
 20
-242.99999999999989
 30
0.0
 11
-361.5
 21
-384.09720379612912
 31
0.0
  0
LINE
  5
12F0
  8
SIZE
  6
CONTINUOUS
 62
     0
 10
-350.50000000000068
 20
-265.0
 30
0.0
 11
-350.50000000000068
 21
-384.09720379612912
 31
0.0
  0
LINE
  5
12F1
  8
SIZE
  6
CONTINUOUS
 62
     0
 10
-371.49999999999989
 20
-354.09720379612912
 30
0.0
 11
-381.49999999999989
 21
-354.09720379612912
 31
0.0
  0
LINE
  5
12F2
  8
SIZE
  6
CONTINUOUS
 62
     0
 10
-340.50000000000068
 20
-354.09720379612912
 30
0.0
 11
-252.90000000000069
 21
-354.09720379612912
 31
0.0
  0
LINE
  5
12F3
  8
SIZE
  6
CONTINUOUS
 62
     0
 10
-361.5
 20
-354.09720379612912
 30
0.0
 11
-350.50000000000068
 21
-354.09720379612912
 31
0.0
  0
INSERT
  5
12F4
  8
SIZE
  6
CONTINUOUS
 62
     0
  2
_ORIGIN
 10
-361.5
 20
-354.09720379612912
 30
0.0
 41
10.0
 42
10.0
 43
10.0
  0
INSERT
  5
12F5
  8
SIZE
  6
CONTINUOUS
 62
     0
  2
_ORIGIN
 10
-350.50000000000068
 20
-354.09720379612912
 30
0.0
 41
10.0
 42
10.0
 43
10.0
 50
180.0
  0
TEXT
  5
12F6
  8
DETAIL
  6
CONTINUOUS
 62
     0
 10
-320.50000000000068
 20
-344.09720379612912
 30
0.0
 40
64.0
  1
11
 41
0.9
  0
POINT
  5
12F7
  8
DEFPOINTS
  6
CONTINUOUS
 62
     0
 10
-361.5
 20
-222.99999999999989
 30
0.0
  0
POINT
  5
12F8
  8
DEFPOINTS
  6
CONTINUOUS
 62
     0
 10
-350.50000000000068
 20
-245.0
 30
0.0
  0
POINT
  5
12F9
  8
DEFPOINTS
  6
CONTINUOUS
 62
     0
 10
-350.50000000000068
 20
-354.09720379612912
 30
0.0
  0
ENDBLK
  5
12E3
  8
0
  0
BLOCK
  8
0
  2
*D69
 70
     1
 10
0.0
 20
0.0
 30
0.0
  3
*D69
  1

  0
LINE
  5
12FC
  8
SIZE
  6
CONTINUOUS
 62
     0
 10
-350.50000000000068
 20
-265.0
 30
0.0
 11
-350.50000000000068
 21
-450.09167077032538
 31
0.0
  0
LINE
  5
12FD
  8
SIZE
  6
CONTINUOUS
 62
     0
 10
304.5
 20
-265.0
 30
0.0
 11
304.5
 21
-450.09167077032538
 31
0.0
  0
LINE
  5
12FE
  8
SIZE
  6
CONTINUOUS
 62
     0
 10
-340.50000000000068
 20
-420.09167077032538
 30
0.0
 11
294.5
 21
-420.09167077032538
 31
0.0
  0
INSERT
  5
12FF
  8
SIZE
  6
CONTINUOUS
 62
     0
  2
_ORIGIN
 10
-350.50000000000068
 20
-420.09167077032538
 30
0.0
 41
10.0
 42
10.0
 43
10.0
 50
180.0
  0
INSERT
  5
1300
  8
SIZE
  6
CONTINUOUS
 62
     0
  2
_ORIGIN
 10
304.5
 20
-420.09167077032538
 30
0.0
 41
10.0
 42
10.0
 43
10.0
  0
TEXT
  5
1301
  8
DETAIL
  6
CONTINUOUS
 62
     0
 10
-97.057142857143205
 20
-410.09167077032538
 30
0.0
 40
64.0
  1
655
 41
0.9
  0
POINT
  5
1302
  8
DEFPOINTS
  6
CONTINUOUS
 62
     0
 10
-350.50000000000068
 20
-245.0
 30
0.0
  0
POINT
  5
1303
  8
DEFPOINTS
  6
CONTINUOUS
 62
     0
 10
304.5
 20
-245.0
 30
0.0
  0
POINT
  5
1304
  8
DEFPOINTS
  6
CONTINUOUS
 62
     0
 10
304.5
 20
-420.09167077032538
 30
0.0
  0
ENDBLK
  5
1306
  8
0
  0
BLOCK
  8
0
  2
*D70
 70
     1
 10
0.0
 20
0.0
 30
0.0
  3
*D70
  1

  0
LINE
  5
1390
  8
SIZE
  6
CONTINUOUS
 62
     0
 10
1911.2654251900469
 20
-2062.2728349499212
 30
0.0
 11
1777.137231980053
 21
-2062.2728349499212
 31
0.0
  0
LINE
  5
1391
  8
SIZE
  6
CONTINUOUS
 62
     0
 10
1891.2654251900481
 20
-1989.2728349499221
 30
0.0
 11
1777.137231980053
 21
-1989.2728349499221
 31
0.0
  0
LINE
  5
1392
  8
SIZE
  6
CONTINUOUS
 62
     0
 10
1807.137231980053
 20
-1999.2728349499221
 30
0.0
 11
1807.137231980053
 21
-2052.2728349499212
 31
0.0
  0
LINE
  5
1393
  8
SIZE
  6
CONTINUOUS
 62
     0
 10
1807.137231980053
 20
-2062.2728349499212
 30
0.0
 11
1807.137231980053
 21
-2188.3675590810981
 31
0.0
  0
INSERT
  5
1394
  8
SIZE
  6
CONTINUOUS
 62
     0
  2
_ORIGIN
 10
1807.137231980053
 20
-1989.2728349499221
 30
0.0
 41
10.0
 42
10.0
 43
10.0
 50
90.0
  0
INSERT
  5
1395
  8
SIZE
  6
CONTINUOUS
 62
     0
  2
_ORIGIN
 10
1807.137231980053
 20
-2062.2728349499212
 30
0.0
 41
10.0
 42
10.0
 43
10.0
 50
270.0
  0
TEXT
  5
1396
  8
DETAIL
  6
CONTINUOUS
 62
     0
 10
1797.1372319800539
 20
-2178.3675590810981
 30
0.0
 40
64.0
  1
73
 50
90.0
 41
0.9
  0
POINT
  5
1397
  8
DEFPOINTS
  6
CONTINUOUS
 62
     0
 10
1931.2654251900469
 20
-2062.2728349499212
 30
0.0
  0
POINT
  5
1398
  8
DEFPOINTS
  6
CONTINUOUS
 62
     0
 10
1911.2654251900481
 20
-1989.2728349499221
 30
0.0
  0
POINT
  5
1399
  8
DEFPOINTS
  6
CONTINUOUS
 62
     0
 10
1807.137231980053
 20
-1989.2728349499221
 30
0.0
  0
ENDBLK
  5
1327
  8
0
  0
BLOCK
  8
0
  2
*D71
 70
     1
 10
0.0
 20
0.0
 30
0.0
  3
*D71
  1

  0
LINE
  5
137D
  8
SIZE
  6
CONTINUOUS
 62
     0
 10
1891.265425190046
 20
-1880.2728349499221
 30
0.0
 11
1777.137231980053
 21
-1880.2728349499221
 31
0.0
  0
LINE
  5
137E
  8
SIZE
  6
CONTINUOUS
 62
     0
 10
1891.2654251900481
 20
-1989.2728349499221
 30
0.0
 11
1777.137231980053
 21
-1989.2728349499221
 31
0.0
  0
LINE
  5
137F
  8
SIZE
  6
CONTINUOUS
 62
     0
 10
1807.137231980053
 20
-1890.2728349499221
 30
0.0
 11
1807.137231980053
 21
-1979.2728349499221
 31
0.0
  0
INSERT
  5
1380
  8
SIZE
  6
CONTINUOUS
 62
     0
  2
_ORIGIN
 10
1807.137231980053
 20
-1880.2728349499221
 30
0.0
 41
10.0
 42
10.0
 43
10.0
 50
90.0
  0
INSERT
  5
1381
  8
SIZE
  6
CONTINUOUS
 62
     0
  2
_ORIGIN
 10
1807.137231980053
 20
-1989.2728349499221
 30
0.0
 41
10.0
 42
10.0
 43
10.0
 50
270.0
  0
TEXT
  5
1382
  8
DETAIL
  6
CONTINUOUS
 62
     0
 10
1797.1372319800539
 20
-2027.5870062541931
 30
0.0
 40
64.0
  1
109
 50
90.0
 41
0.9
  0
POINT
  5
1383
  8
DEFPOINTS
  6
CONTINUOUS
 62
     0
 10
1911.265425190046
 20
-1880.2728349499221
 30
0.0
  0
POINT
  5
1384
  8
DEFPOINTS
  6
CONTINUOUS
 62
     0
 10
1911.2654251900481
 20
-1989.2728349499221
 30
0.0
  0
POINT
  5
1385
  8
DEFPOINTS
  6
CONTINUOUS
 62
     0
 10
1807.137231980053
 20
-1989.2728349499221
 30
0.0
  0
ENDBLK
  5
1371
  8
0
  0
BLOCK
  8
0
  2
*D72
 70
     1
 10
0.0
 20
0.0
 30
0.0
  3
*D72
  1

  0
LINE
  5
13CE
  8
SIZE
  6
CONTINUOUS
 62
     0
 10
-1911.2654251900469
 20
-2062.2728349499212
 30
0.0
 11
-1667.231581628406
 21
-2062.2728349499212
 31
0.0
  0
LINE
  5
13CF
  8
SIZE
  6
CONTINUOUS
 62
     0
 10
-1917.2654251900481
 20
-1860.2728349499209
 30
0.0
 11
-1667.231581628406
 21
-1860.2728349499209
 31
0.0
  0
LINE
  5
13D0
  8
SIZE
  6
CONTINUOUS
 62
     0
 10
-1697.231581628406
 20
-2052.2728349499212
 30
0.0
 11
-1697.231581628406
 21
-1870.2728349499221
 31
0.0
  0
INSERT
  5
13D1
  8
SIZE
  6
CONTINUOUS
 62
     0
  2
_ORIGIN
 10
-1697.231581628406
 20
-2062.2728349499212
 30
0.0
 41
10.0
 42
10.0
 43
10.0
 50
270.0
  0
INSERT
  5
13D2
  8
SIZE
  6
CONTINUOUS
 62
     0
  2
_ORIGIN
 10
-1697.231581628406
 20
-1860.2728349499209
 30
0.0
 41
10.0
 42
10.0
 43
10.0
 50
90.0
  0
TEXT
  5
13D3
  8
DETAIL
  6
CONTINUOUS
 62
     0
 10
-1707.231581628406
 20
-2033.690460084174
 30
0.0
 40
64.0
  1
202
 50
90.0
 41
0.9
  0
POINT
  5
13D4
  8
DEFPOINTS
  6
CONTINUOUS
 62
     0
 10
-1931.2654251900469
 20
-2062.2728349499212
 30
0.0
  0
POINT
  5
13D5
  8
DEFPOINTS
  6
CONTINUOUS
 62
     0
 10
-1937.2654251900469
 20
-1860.2728349499209
 30
0.0
  0
POINT
  5
13D6
  8
DEFPOINTS
  6
CONTINUOUS
 62
     0
 10
-1697.231581628406
 20
-1860.2728349499209
 30
0.0
  0
ENDBLK
  5
13B4
  8
0
  0
BLOCK
  8
0
  2
*D73
 70
     1
 10
0.0
 20
0.0
 30
0.0
  3
*D73
  1

  0
LINE
  5
13D7
  8
SIZE
  6
CONTINUOUS
 62
     0
 10
-1911.2654251900469
 20
-2062.2728349499212
 30
0.0
 11
-1777.1372319800539
 21
-2062.2728349499212
 31
0.0
  0
LINE
  5
13D8
  8
SIZE
  6
CONTINUOUS
 62
     0
 10
-1891.2654251900481
 20
-1989.2728349499221
 30
0.0
 11
-1777.1372319800539
 21
-1989.2728349499221
 31
0.0
  0
LINE
  5
13D9
  8
SIZE
  6
CONTINUOUS
 62
     0
 10
-1807.1372319800539
 20
-1999.2728349499221
 30
0.0
 11
-1807.1372319800539
 21
-2052.2728349499212
 31
0.0
  0
LINE
  5
13DA
  8
SIZE
  6
CONTINUOUS
 62
     0
 10
-1807.1372319800539
 20
-2062.2728349499212
 30
0.0
 11
-1807.1372319800539
 21
-2188.3675590810972
 31
0.0
  0
INSERT
  5
13DB
  8
SIZE
  6
CONTINUOUS
 62
     0
  2
_ORIGIN
 10
-1807.1372319800539
 20
-1989.2728349499221
 30
0.0
 41
10.0
 42
10.0
 43
10.0
 50
90.0
  0
INSERT
  5
13DC
  8
SIZE
  6
CONTINUOUS
 62
     0
  2
_ORIGIN
 10
-1807.1372319800539
 20
-2062.2728349499212
 30
0.0
 41
10.0
 42
10.0
 43
10.0
 50
270.0
  0
TEXT
  5
13DD
  8
DETAIL
  6
CONTINUOUS
 62
     0
 10
-1817.137231980053
 20
-2178.3675590810981
 30
0.0
 40
64.0
  1
73
 50
90.0
 41
0.9
  0
POINT
  5
13DE
  8
DEFPOINTS
  6
CONTINUOUS
 62
     0
 10
-1931.2654251900469
 20
-2062.2728349499212
 30
0.0
  0
POINT
  5
13DF
  8
DEFPOINTS
  6
CONTINUOUS
 62
     0
 10
-1911.2654251900481
 20
-1989.2728349499221
 30
0.0
  0
POINT
  5
13E0
  8
DEFPOINTS
  6
CONTINUOUS
 62
     0
 10
-1807.1372319800539
 20
-1989.2728349499221
 30
0.0
  0
ENDBLK
  5
13C1
  8
0
  0
BLOCK
  8
0
  2
*D74
 70
     1
 10
0.0
 20
0.0
 30
0.0
  3
*D74
  1

  0
LINE
  5
13E1
  8
SIZE
  6
CONTINUOUS
 62
     0
 10
-1891.265425190046
 20
-1880.2728349499221
 30
0.0
 11
-1777.1372319800539
 21
-1880.2728349499221
 31
0.0
  0
LINE
  5
13E2
  8
SIZE
  6
CONTINUOUS
 62
     0
 10
-1891.2654251900481
 20
-1989.2728349499221
 30
0.0
 11
-1777.1372319800539
 21
-1989.2728349499221
 31
0.0
  0
LINE
  5
13E3
  8
SIZE
  6
CONTINUOUS
 62
     0
 10
-1807.1372319800539
 20
-1890.2728349499221
 30
0.0
 11
-1807.1372319800539
 21
-1979.2728349499221
 31
0.0
  0
INSERT
  5
13E4
  8
SIZE
  6
CONTINUOUS
 62
     0
  2
_ORIGIN
 10
-1807.1372319800539
 20
-1880.2728349499221
 30
0.0
 41
10.0
 42
10.0
 43
10.0
 50
90.0
  0
INSERT
  5
13E5
  8
SIZE
  6
CONTINUOUS
 62
     0
  2
_ORIGIN
 10
-1807.1372319800539
 20
-1989.2728349499221
 30
0.0
 41
10.0
 42
10.0
 43
10.0
 50
270.0
  0
TEXT
  5
13E6
  8
DETAIL
  6
CONTINUOUS
 62
     0
 10
-1817.137231980053
 20
-2027.5870062541931
 30
0.0
 40
64.0
  1
109
 50
90.0
 41
0.9
  0
POINT
  5
13E7
  8
DEFPOINTS
  6
CONTINUOUS
 62
     0
 10
-1911.265425190046
 20
-1880.2728349499221
 30
0.0
  0
POINT
  5
13E8
  8
DEFPOINTS
  6
CONTINUOUS
 62
     0
 10
-1911.2654251900481
 20
-1989.2728349499221
 30
0.0
  0
POINT
  5
13E9
  8
DEFPOINTS
  6
CONTINUOUS
 62
     0
 10
-1807.1372319800539
 20
-1989.2728349499221
 30
0.0
  0
ENDBLK
  5
13CD
  8
0
  0
BLOCK
  8
0
  2
*D75
 70
     1
 10
0.0
 20
0.0
 30
0.0
  3
*D75
  1

  0
LINE
  5
140F
  8
SIZE
  6
CONTINUOUS
 62
     0
 10
-361.5
 20
-3907.5456698998419
 30
0.0
 11
-361.5
 21
-4048.642873695971
 31
0.0
  0
LINE
  5
1410
  8
SIZE
  6
CONTINUOUS
 62
     0
 10
-350.50000000000068
 20
-3929.5456698998419
 30
0.0
 11
-350.50000000000068
 21
-4048.642873695971
 31
0.0
  0
LINE
  5
1411
  8
SIZE
  6
CONTINUOUS
 62
     0
 10
-371.49999999999989
 20
-4018.642873695972
 30
0.0
 11
-381.49999999999989
 21
-4018.642873695972
 31
0.0
  0
LINE
  5
1412
  8
SIZE
  6
CONTINUOUS
 62
     0
 10
-340.5000000000008
 20
-4018.642873695972
 30
0.0
 11
-252.90000000000069
 21
-4018.642873695972
 31
0.0
  0
LINE
  5
1413
  8
SIZE
  6
CONTINUOUS
 62
     0
 10
-361.5
 20
-4018.642873695972
 30
0.0
 11
-350.50000000000068
 21
-4018.642873695972
 31
0.0
  0
INSERT
  5
1414
  8
SIZE
  6
CONTINUOUS
 62
     0
  2
_ORIGIN
 10
-361.5
 20
-4018.642873695972
 30
0.0
 41
10.0
 42
10.0
 43
10.0
  0
INSERT
  5
1415
  8
SIZE
  6
CONTINUOUS
 62
     0
  2
_ORIGIN
 10
-350.50000000000068
 20
-4018.642873695972
 30
0.0
 41
10.0
 42
10.0
 43
10.0
 50
180.0
  0
TEXT
  5
1416
  8
DETAIL
  6
CONTINUOUS
 62
     0
 10
-320.50000000000068
 20
-4008.642873695971
 30
0.0
 40
64.0
  1
11
 41
0.9
  0
POINT
  5
1417
  8
DEFPOINTS
  6
CONTINUOUS
 62
     0
 10
-361.5
 20
-3887.5456698998428
 30
0.0
  0
POINT
  5
1418
  8
DEFPOINTS
  6
CONTINUOUS
 62
     0
 10
-350.50000000000068
 20
-3909.5456698998419
 30
0.0
  0
POINT
  5
1419
  8
DEFPOINTS
  6
CONTINUOUS
 62
     0
 10
-350.50000000000068
 20
-4018.642873695972
 30
0.0
  0
ENDBLK
  5
1402
  8
0
  0
BLOCK
  8
0
  2
*D76
 70
     1
 10
0.0
 20
0.0
 30
0.0
  3
*D76
  1

  0
LINE
  5
141A
  8
SIZE
  6
CONTINUOUS
 62
     0
 10
-350.50000000000068
 20
-3929.5456698998419
 30
0.0
 11
-350.50000000000068
 21
-4114.6373406701669
 31
0.0
  0
LINE
  5
141B
  8
SIZE
  6
CONTINUOUS
 62
     0
 10
304.49999999999989
 20
-3929.5456698998419
 30
0.0
 11
304.49999999999989
 21
-4114.6373406701669
 31
0.0
  0
LINE
  5
141C
  8
SIZE
  6
CONTINUOUS
 62
     0
 10
-340.5000000000008
 20
-4084.6373406701682
 30
0.0
 11
294.49999999999989
 21
-4084.6373406701682
 31
0.0
  0
INSERT
  5
141D
  8
SIZE
  6
CONTINUOUS
 62
     0
  2
_ORIGIN
 10
-350.50000000000068
 20
-4084.6373406701682
 30
0.0
 41
10.0
 42
10.0
 43
10.0
 50
180.0
  0
INSERT
  5
141E
  8
SIZE
  6
CONTINUOUS
 62
     0
  2
_ORIGIN
 10
304.49999999999989
 20
-4084.6373406701682
 30
0.0
 41
10.0
 42
10.0
 43
10.0
  0
TEXT
  5
141F
  8
DETAIL
  6
CONTINUOUS
 62
     0
 10
-97.057142857143248
 20
-4074.6373406701669
 30
0.0
 40
64.0
  1
655
 41
0.9
  0
POINT
  5
1420
  8
DEFPOINTS
  6
CONTINUOUS
 62
     0
 10
-350.50000000000068
 20
-3909.5456698998419
 30
0.0
  0
POINT
  5
1421
  8
DEFPOINTS
  6
CONTINUOUS
 62
     0
 10
304.49999999999989
 20
-3909.5456698998419
 30
0.0
  0
POINT
  5
1422
  8
DEFPOINTS
  6
CONTINUOUS
 62
     0
 10
304.49999999999989
 20
-4084.6373406701682
 30
0.0
  0
ENDBLK
  5
140E
  8
0
  0
BLOCK
  8
0
  2
*D77
 70
     1
 10
0.0
 20
0.0
 30
0.0
  3
*D77
  1

  0
LINE
  5
144C
  8
SIZE
  6
CONTINUOUS
 62
     0
 10
-428.49999999999989
 20
-195.0
 30
0.0
 11
-505.10323267387139
 21
-194.99999999999989
 31
0.0
  0
LINE
  5
144D
  8
SIZE
  6
CONTINUOUS
 62
     0
 10
-390.50000000000068
 20
-225.0
 30
0.0
 11
-505.10323267387139
 21
-224.99999999999989
 31
0.0
  0
LINE
  5
144E
  8
SIZE
  6
CONTINUOUS
 62
     0
 10
-475.10323267387139
 20
-184.99999999999989
 30
0.0
 11
-475.10323267387139
 21
-174.99999999999989
 31
0.0
  0
LINE
  5
144F
  8
SIZE
  6
CONTINUOUS
 62
     0
 10
-475.10323267387139
 20
-234.99999999999989
 30
0.0
 11
-475.10323267387139
 21
-358.2571428571427
 31
0.0
  0
LINE
  5
1450
  8
SIZE
  6
CONTINUOUS
 62
     0
 10
-475.10323267387139
 20
-194.99999999999989
 30
0.0
 11
-475.10323267387139
 21
-224.99999999999989
 31
0.0
  0
INSERT
  5
1451
  8
SIZE
  6
CONTINUOUS
 62
     0
  2
_ORIGIN
 10
-475.10323267387139
 20
-194.99999999999989
 30
0.0
 41
10.0
 42
10.0
 43
10.0
 50
270.0
  0
INSERT
  5
1452
  8
SIZE
  6
CONTINUOUS
 62
     0
  2
_ORIGIN
 10
-475.10323267387139
 20
-224.99999999999989
 30
0.0
 41
10.0
 42
10.0
 43
10.0
 50
90.0
  0
TEXT
  5
1453
  8
DETAIL
  6
CONTINUOUS
 62
     0
 10
-485.10323267387139
 20
-348.25714285714281
 30
0.0
 40
64.0
  1
30
 50
90.0
 41
0.9
  0
POINT
  5
1454
  8
DEFPOINTS
  6
CONTINUOUS
 62
     0
 10
-408.49999999999989
 20
-195.0
 30
0.0
  0
POINT
  5
1455
  8
DEFPOINTS
  6
CONTINUOUS
 62
     0
 10
-370.50000000000068
 20
-225.0
 30
0.0
  0
POINT
  5
1456
  8
DEFPOINTS
  6
CONTINUOUS
 62
     0
 10
-475.10323267387139
 20
-224.99999999999989
 30
0.0
  0
ENDBLK
  5
1440
  8
0
  0
BLOCK
  8
0
  2
*D78
 70
     1
 10
0.0
 20
0.0
 30
0.0
  3
*D78
  1

  0
LINE
  5
147B
  8
SIZE
  6
CONTINUOUS
 62
     0
 10
-428.49999999999989
 20
-3859.5456698998419
 30
0.0
 11
-505.47247902000947
 21
-3859.5456698998419
 31
0.0
  0
LINE
  5
147C
  8
SIZE
  6
CONTINUOUS
 62
     0
 10
-390.5000000000008
 20
-3889.5456698998419
 30
0.0
 11
-505.47247902000947
 21
-3889.5456698998419
 31
0.0
  0
LINE
  5
147D
  8
SIZE
  6
CONTINUOUS
 62
     0
 10
-475.47247902000947
 20
-3849.5456698998419
 30
0.0
 11
-475.47247902000947
 21
-3839.5456698998419
 31
0.0
  0
LINE
  5
147E
  8
SIZE
  6
CONTINUOUS
 62
     0
 10
-475.47247902000947
 20
-3899.5456698998419
 30
0.0
 11
-475.47247902000947
 21
-4022.8028127569842
 31
0.0
  0
LINE
  5
147F
  8
SIZE
  6
CONTINUOUS
 62
     0
 10
-475.47247902000947
 20
-3859.5456698998419
 30
0.0
 11
-475.47247902000947
 21
-3889.5456698998419
 31
0.0
  0
INSERT
  5
1480
  8
SIZE
  6
CONTINUOUS
 62
     0
  2
_ORIGIN
 10
-475.47247902000947
 20
-3859.5456698998419
 30
0.0
 41
10.0
 42
10.0
 43
10.0
 50
270.0
  0
INSERT
  5
1481
  8
SIZE
  6
CONTINUOUS
 62
     0
  2
_ORIGIN
 10
-475.47247902000947
 20
-3889.5456698998419
 30
0.0
 41
10.0
 42
10.0
 43
10.0
 50
90.0
  0
TEXT
  5
1482
  8
DETAIL
  6
CONTINUOUS
 62
     0
 10
-485.4724790200089
 20
-4012.8028127569851
 30
0.0
 40
64.0
  1
30
 50
90.0
 41
0.9
  0
POINT
  5
1483
  8
DEFPOINTS
  6
CONTINUOUS
 62
     0
 10
-408.49999999999989
 20
-3859.5456698998419
 30
0.0
  0
POINT
  5
1484
  8
DEFPOINTS
  6
CONTINUOUS
 62
     0
 10
-370.5000000000008
 20
-3889.5456698998419
 30
0.0
  0
POINT
  5
1485
  8
DEFPOINTS
  6
CONTINUOUS
 62
     0
 10
-475.47247902000947
 20
-3889.5456698998419
 30
0.0
  0
ENDBLK
  5
146F
  8
0
  0
BLOCK
  8
0
  2
*D79
 70
     1
 10
0.0
 20
0.0
 30
0.0
  3
*D79
  1

  0
LINE
  5
14AA
  8
SIZE
  6
CONTINUOUS
 62
     0
 10
1931.2654251900469
 20
-1812.2728349499209
 30
0.0
 11
1931.2654251900469
 21
-1712.434652508563
 31
0.0
  0
LINE
  5
14AB
  8
SIZE
  6
CONTINUOUS
 62
     0
 10
1961.2654251900481
 20
-1820.2728349499221
 30
0.0
 11
1961.2654251900481
 21
-1712.434652508563
 31
0.0
  0
LINE
  5
14AC
  8
SIZE
  6
CONTINUOUS
 62
     0
 10
1971.2654251900469
 20
-1742.434652508563
 30
0.0
 11
1981.2654251900481
 21
-1742.434652508563
 31
0.0
  0
LINE
  5
14AD
  8
SIZE
  6
CONTINUOUS
 62
     0
 10
1921.2654251900469
 20
-1742.434652508563
 30
0.0
 11
1798.0082823329039
 21
-1742.434652508563
 31
0.0
  0
LINE
  5
14AE
  8
SIZE
  6
CONTINUOUS
 62
     0
 10
1961.2654251900481
 20
-1742.434652508563
 30
0.0
 11
1931.2654251900469
 21
-1742.434652508563
 31
0.0
  0
INSERT
  5
14AF
  8
SIZE
  6
CONTINUOUS
 62
     0
  2
_ORIGIN
 10
1961.2654251900481
 20
-1742.434652508563
 30
0.0
 41
10.0
 42
10.0
 43
10.0
 50
180.0
  0
INSERT
  5
14B0
  8
SIZE
  6
CONTINUOUS
 62
     0
  2
_ORIGIN
 10
1931.2654251900469
 20
-1742.434652508563
 30
0.0
 41
10.0
 42
10.0
 43
10.0
  0
TEXT
  5
14B1
  8
DETAIL
  6
CONTINUOUS
 62
     0
 10
1808.0082823329051
 20
-1732.4346525085641
 30
0.0
 40
64.0
  1
30
 41
0.9
  0
POINT
  5
14B2
  8
DEFPOINTS
  6
CONTINUOUS
 62
     0
 10
1931.2654251900469
 20
-1832.2728349499209
 30
0.0
  0
POINT
  5
14B3
  8
DEFPOINTS
  6
CONTINUOUS
 62
     0
 10
1961.2654251900481
 20
-1840.2728349499221
 30
0.0
  0
POINT
  5
14B4
  8
DEFPOINTS
  6
CONTINUOUS
 62
     0
 10
1961.2654251900481
 20
-1742.434652508563
 30
0.0
  0
ENDBLK
  5
149E
  8
0
  0
BLOCK
  8
0
  2
*D80
 70
     1
 10
0.0
 20
0.0
 30
0.0
  3
*D80
  1

  0
LINE
  5
14D9
  8
SIZE
  6
CONTINUOUS
 62
     0
 10
-1961.2654251900481
 20
-1820.2728349499209
 30
0.0
 11
-1961.2654251900481
 21
-1712.8777019920819
 31
0.0
  0
LINE
  5
14DA
  8
SIZE
  6
CONTINUOUS
 62
     0
 10
-1931.2654251900469
 20
-1812.2728349499209
 30
0.0
 11
-1931.2654251900469
 21
-1712.8777019920819
 31
0.0
  0
LINE
  5
14DB
  8
SIZE
  6
CONTINUOUS
 62
     0
 10
-1971.2654251900469
 20
-1742.8777019920819
 30
0.0
 11
-1981.2654251900481
 21
-1742.8777019920819
 31
0.0
  0
LINE
  5
14DC
  8
SIZE
  6
CONTINUOUS
 62
     0
 10
-1921.2654251900469
 20
-1742.8777019920819
 30
0.0
 11
-1798.0082823329039
 21
-1742.8777019920819
 31
0.0
  0
LINE
  5
14DD
  8
SIZE
  6
CONTINUOUS
 62
     0
 10
-1961.2654251900481
 20
-1742.8777019920819
 30
0.0
 11
-1931.2654251900469
 21
-1742.8777019920819
 31
0.0
  0
INSERT
  5
14DE
  8
SIZE
  6
CONTINUOUS
 62
     0
  2
_ORIGIN
 10
-1961.2654251900481
 20
-1742.8777019920819
 30
0.0
 41
10.0
 42
10.0
 43
10.0
  0
INSERT
  5
14DF
  8
SIZE
  6
CONTINUOUS
 62
     0
  2
_ORIGIN
 10
-1931.2654251900469
 20
-1742.8777019920819
 30
0.0
 41
10.0
 42
10.0
 43
10.0
 50
180.0
  0
TEXT
  5
14E0
  8
DETAIL
  6
CONTINUOUS
 62
     0
 10
-1901.2654251900469
 20
-1732.877701992081
 30
0.0
 40
64.0
  1
30
 41
0.9
  0
POINT
  5
14E1
  8
DEFPOINTS
  6
CONTINUOUS
 62
     0
 10
-1961.2654251900481
 20
-1840.2728349499209
 30
0.0
  0
POINT
  5
14E2
  8
DEFPOINTS
  6
CONTINUOUS
 62
     0
 10
-1931.2654251900469
 20
-1832.2728349499209
 30
0.0
  0
POINT
  5
14E3
  8
DEFPOINTS
  6
CONTINUOUS
 62
     0
 10
-1931.2654251900469
 20
-1742.8777019920819
 30
0.0
  0
ENDBLK
  5
14CD
  8
0
  0
ENDSEC
  0
SECTION
  2
ENTITIES
  0
TEXT
  5
2B0
  8
ETC
  6
CONTINUOUS
 10
400.17221974531458
 20
541.86578669437506
 30
0.0
 40
64.0
  1
HAC
 41
0.9
  0
TEXT
  5
2B1
  8
ETC
  6
CONTINUOUS
 10
405.52120274531438
 20
422.33497369437509
 30
0.0
 40
64.0
  1
SMBZ2793
 41
0.9
  0
DIMENSION
  5
B34
  8
SIZE
  6
CONTINUOUS
  2
*D34
 10
-388.5
 20
177.32750013261639
 30
0.0
 11
0.0000000000000026
 21
219.32750013261639
 31
0.0
 70
     0
 13
388.5
 23
-8.0
 33
0.0
 14
-388.5
 24
-8.0
 34
0.0
 50
180.0
1001
ACAD
1000
DSTYLE
1002
{
1070
    41
1040
10.0
1070
    42
1040
20.0
1070
    43
1040
200.0
1070
    44
1040
30.0
1070
    73
1070
     0
1070
    74
1070
     0
1070
    77
1070
     1
1070
    78
1070
     8
1070
   140
1040
64.0
1070
   147
1040
10.0
1070
   172
1070
     1
1070
   174
1070
     1
1070
   341
1005
489
1070
     5
1000
ORIGIN
1002
}
  0
LINE
  5
B35
  8
DETAIL
  6
CONTINUOUS
 10
-473.5
 20
-230.0
 30
0.0
 11
361.5
 21
-230.0
 31
0.0
  0
LINE
  5
B36
  8
DETAIL
  6
CONTINUOUS
 10
-473.5
 20
0.0
 30
0.0
 11
361.5
 21
0.0
 31
0.0
  0
DIMENSION
  5
B37
  8
SIZE
  6
CONTINUOUS
  2
*D35
 10
388.5
 20
177.18292351069061
 30
0.0
 11
485.12857142857138
 21
177.18292351069061
 31
0.0
 70
   128
 13
408.49999999999989
 23
-23.00000000000022
 33
0.0
 14
388.5
 24
-8.0
 34
0.0
 50
180.0
1001
ACAD
1000
DSTYLE
1002
{
1070
    41
1040
10.0
1070
    42
1040
20.0
1070
    43
1040
200.0
1070
    44
1040
30.0
1070
    73
1070
     0
1070
    74
1070
     0
1070
    77
1070
     1
1070
    78
1070
     8
1070
   140
1040
64.0
1070
   147
1040
10.0
1070
   172
1070
     1
1070
   174
1070
     1
1070
   341
1005
489
1070
     5
1000
ORIGIN
1002
}
  0
LINE
  5
B38
  8
NOTE
  6
CONTINUOUS
 10
598.91136499999993
 20
231.7158789999998
 30
0.0
 11
388.5
 21
-28.0
 31
0.0
  0
DIMENSION
  5
B39
  8
SIZE
  6
CONTINUOUS
  2
*D38
 10
593.93532213966682
 20
-230.0
 30
0.0
 11
551.93532213966682
 21
-114.9999999999999
 31
0.0
 70
     0
 13
361.5
 23
0.0
 33
0.0
 14
361.5
 24
-230.0
 34
0.0
 50
90.0
1001
ACAD
1000
DSTYLE
1002
{
1070
    41
1040
10.0
1070
    42
1040
20.0
1070
    43
1040
200.0
1070
    44
1040
30.0
1070
    73
1070
     0
1070
    74
1070
     0
1070
    77
1070
     1
1070
    78
1070
     8
1070
   140
1040
64.0
1070
   147
1040
10.0
1070
   172
1070
     1
1070
   174
1070
     1
1070
   341
1005
489
1070
     5
1000
ORIGIN
1002
}
  0
DIMENSION
  5
B3A
  8
SIZE
  6
CONTINUOUS
  2
*D37
 10
470.36176728809369
 20
-230.0
 30
0.0
 11
428.36176728809369
 21
-128.99999999999989
 31
0.0
 70
     0
 13
408.49999999999989
 23
-28.0
 33
0.0
 14
361.5
 24
-230.0
 34
0.0
 50
90.0
1001
ACAD
1000
DSTYLE
1002
{
1070
    41
1040
10.0
1070
    42
1040
20.0
1070
    43
1040
200.0
1070
    44
1040
30.0
1070
    73
1070
     0
1070
    74
1070
     0
1070
    77
1070
     1
1070
    78
1070
     8
1070
   140
1040
64.0
1070
   147
1040
10.0
1070
   172
1070
     1
1070
   174
1070
     1
1070
   341
1005
489
1070
     5
1000
ORIGIN
1002
}
  0
LINE
  5
B3B
  8
DETAIL
  6
CONTINUOUS
 10
361.5
 20
0.0
 30
0.0
 11
361.5
 21
-230.0
 31
0.0
  0
LINE
  5
B3C
  8
NOTE
  6
CONTINUOUS
 10
388.5
 20
-8.0
 30
0.0
 11
388.5
 21
-48.0
 31
0.0
  0
CIRCLE
  5
B3D
  8
FIX
  6
CONTINUOUS
 10
388.5
 20
-28.0
 30
0.0
 40
15.0
  0
LINE
  5
B3E
  8
NOTE
  6
CONTINUOUS
 10
408.49999999999989
 20
-28.0
 30
0.0
 11
368.5
 21
-28.0
 31
0.0
  0
LINE
  5
B3F
  8
DETAIL
  6
CONTINUOUS
 10
361.5
 20
-23.0
 30
0.0
 11
408.49999999999989
 21
-23.00000000000022
 31
0.0
  0
LINE
  5
B40
  8
DETAIL
  6
CONTINUOUS
 10
361.5
 20
-28.0
 30
0.0
 11
408.49999999999989
 21
-28.0
 31
0.0
  0
LINE
  5
B41
  8
DETAIL
  6
CONTINUOUS
 10
408.49999999999989
 20
-23.00000000000022
 30
0.0
 11
408.49999999999989
 21
-28.0
 31
0.0
  0
LINE
  5
B42
  8
NOTE
  6
CONTINUOUS
 10
388.5
 20
-28.0
 30
0.0
 11
419.26351899999997
 21
-2.4342819999999392
 31
0.0
  0
LINE
  5
B43
  8
NOTE
  6
CONTINUOUS
 10
388.5
 20
-28.0
 30
0.0
 11
402.35912900000039
 21
9.5223200000000361
 31
0.0
  0
LINE
  5
B44
  8
NOTE
  6
CONTINUOUS
 10
853.44597860425802
 20
231.7158789999998
 30
0.0
 11
598.91136499999993
 21
231.7158789999998
 31
0.0
  0
TEXT
  5
B45
  8
NOTE
  6
CONTINUOUS
 10
706.88401077309754
 20
255.10550869302051
 30
0.0
 40
64.0
  1
AH
 41
0.9
  0
LINE
  5
B46
  8
NOTE
  6
CONTINUOUS
 10
-562.63865647325326
 20
-483.73933579259659
 30
0.0
 11
-309.5
 21
-108.9999999999995
 31
0.0
  0
LINE
  5
B47
  8
NOTE
  6
CONTINUOUS
 10
-562.63865647325326
 20
-483.73933579259659
 30
0.0
 11
-947.25304010735908
 21
-483.73933579259659
 31
0.0
  0
DIMENSION
  5
B48
  8
SIZE
  6
CONTINUOUS
  2
*D41
 10
-473.5
 20
91.061159066730383
 30
0.0
 11
-540.12857142857126
 21
91.061159066730383
 31
0.0
 70
   128
 13
-408.49999999999989
 23
0.0
 33
0.0
 14
-473.5
 24
0.0
 34
0.0
 50
180.0
1001
ACAD
1000
DSTYLE
1002
{
1070
    41
1040
10.0
1070
    42
1040
20.0
1070
    43
1040
200.0
1070
    44
1040
30.0
1070
    73
1070
     0
1070
    74
1070
     0
1070
    77
1070
     1
1070
    78
1070
     8
1070
   140
1040
64.0
1070
   147
1040
10.0
1070
   172
1070
     1
1070
   174
1070
     1
1070
   341
1005
489
1070
     5
1000
ORIGIN
1002
}
  0
LINE
  5
B49
  8
NOTE
  6
CONTINUOUS
 10
-577.3175146046915
 20
-361.42142385762691
 30
0.0
 11
-364.5
 21
-84.999999999999318
 31
0.0
  0
DIMENSION
  5
B4A
  8
SIZE
  6
CONTINUOUS
  2
*D40
 10
-564.00472918361265
 20
-108.9999999999999
 30
0.0
 11
-564.00472918361265
 21
-187.0
 31
0.0
 70
   128
 13
-384.5
 23
-85.0
 33
0.0
 14
-329.49999999999989
 24
-109.0
 34
0.0
 50
90.0
1001
ACAD
1000
DSTYLE
1002
{
1070
    41
1040
10.0
1070
    42
1040
20.0
1070
    43
1040
200.0
1070
    44
1040
30.0
1070
    73
1070
     0
1070
    74
1070
     0
1070
    77
1070
     1
1070
    78
1070
     8
1070
   140
1040
64.0
1070
   147
1040
10.0
1070
   172
1070
     1
1070
   174
1070
     1
1070
   341
1005
489
1070
     5
1000
ORIGIN
1002
}
  0
DIMENSION
  5
B4B
  8
SIZE
  6
CONTINUOUS
  2
*D39
 10
-688.95717699427769
 20
-229.99999999999989
 30
0.0
 11
-730.95717699427769
 21
-157.5
 31
0.0
 70
     0
 13
-384.5
 23
-85.0
 33
0.0
 14
-473.5
 24
-230.0
 34
0.0
 50
90.0
1001
ACAD
1000
DSTYLE
1002
{
1070
    41
1040
10.0
1070
    42
1040
20.0
1070
    43
1040
200.0
1070
    44
1040
30.0
1070
    73
1070
     0
1070
    74
1070
     0
1070
    77
1070
     1
1070
    78
1070
     8
1070
   140
1040
64.0
1070
   147
1040
10.0
1070
   172
1070
     1
1070
   174
1070
     1
1070
   341
1005
489
1070
     5
1000
ORIGIN
1002
}
  0
DIMENSION
  5
B4C
  8
SIZE
  6
CONTINUOUS
  2
*D36
 10
-408.49999999999989
 20
177.25281930072191
 30
0.0
 11
-485.12857142857138
 21
177.25281930072191
 31
0.0
 70
   128
 13
-388.5
 23
-8.0
 33
0.0
 14
-408.49999999999989
 24
0.0
 34
0.0
 50
180.0
1001
ACAD
1000
DSTYLE
1002
{
1070
    41
1040
10.0
1070
    42
1040
20.0
1070
    43
1040
200.0
1070
    44
1040
30.0
1070
    73
1070
     0
1070
    74
1070
     0
1070
    77
1070
     1
1070
    78
1070
     8
1070
   140
1040
64.0
1070
   147
1040
10.0
1070
   172
1070
     1
1070
   174
1070
     1
1070
   341
1005
489
1070
     5
1000
ORIGIN
1002
}
  0
LINE
  5
B4D
  8
BASIS
  6
DASHDOT
 10
0.0
 20
-319.60232499999978
 30
0.0
 11
0.0
 21
113.3119839999999
 31
0.0
  0
POINT
  5
B4E
  8
ARRANGE
  6
DASHDOT
 10
0.0
 20
0.0
 30
0.0
  0
CIRCLE
  5
B4F
  8
ARRANGE
  6
CONTINUOUS
 10
0.0
 20
0.0
 30
0.0
 40
40.0
  0
LINE
  5
B50
  8
DETAIL
  6
CONTINUOUS
 10
-268.5
 20
0.0
 30
0.0
 11
-268.5
 21
-230.0
 31
0.0
  0
LINE
  5
B51
  8
DETAIL
  6
CONTINUOUS
 10
-473.5
 20
0.0
 30
0.0
 11
-473.5
 21
-230.0
 31
0.0
  0
LINE
  5
B52
  8
DETAIL
  6
CONTINUOUS
 10
-408.49999999999989
 20
0.0
 30
0.0
 11
-408.49999999999989
 21
-230.0
 31
0.0
  0
LINE
  5
B54
  8
NOTE
  6
CONTINUOUS
 10
-289.49999999999989
 20
-109.0
 30
0.0
 11
-329.49999999999989
 21
-109.0
 31
0.0
  0
LINE
  5
B55
  8
NOTE
  6
CONTINUOUS
 10
-364.5
 20
-84.999999999999318
 30
0.0
 11
-396.2735137155023
 21
-109.2990486200719
 31
0.0
  0
LINE
  5
B56
  8
NOTE
  6
CONTINUOUS
 10
-364.5
 20
-84.999999999999318
 30
0.0
 11
-379.86714569263989
 21
-121.9303502721672
 31
0.0
  0
LINE
  5
B57
  8
NOTE
  6
CONTINUOUS
 10
-309.5
 20
-89.0
 30
0.0
 11
-309.5
 21
-129.0
 31
0.0
  0
LINE
  5
B58
  8
NOTE
  6
CONTINUOUS
 10
-364.5
 20
-65.0
 30
0.0
 11
-364.5
 21
-105.0
 31
0.0
  0
LINE
  5
B59
  8
DETAIL
  6
CONTINUOUS
 10
-342.0000000000004
 20
-28.0
 30
0.0
 11
-342.0
 21
-23.00000000000022
 31
0.0
  0
LINE
  5
B5A
  8
NOTE
  6
CONTINUOUS
 10
-309.5
 20
-108.9999999999995
 30
0.0
 11
-322.54863841422679
 21
-146.8118099738503
 31
0.0
  0
LINE
  5
B5B
  8
NOTE
  6
CONTINUOUS
 10
-309.5
 20
-108.9999999999995
 30
0.0
 11
-339.70635736680561
 21
-135.2216687550326
 31
0.0
  0
LINE
  5
B5C
  8
NOTE
  6
CONTINUOUS
 10
-344.5
 20
-85.0
 30
0.0
 11
-384.5
 21
-85.0
 31
0.0
  0
CIRCLE
  5
B5D
  8
FIX
  6
CONTINUOUS
 10
-388.5
 20
-28.0
 30
0.0
 40
15.0
  0
LINE
  5
B5E
  8
NOTE
  6
CONTINUOUS
 10
-368.5
 20
-28.0
 30
0.0
 11
-408.49999999999989
 21
-28.0
 31
0.0
  0
LINE
  5
B5F
  8
DETAIL
  6
CONTINUOUS
 10
-408.49999999999989
 20
-22.999999999999769
 30
0.0
 11
-342.0
 21
-23.00000000000022
 31
0.0
  0
LINE
  5
B60
  8
DETAIL
  6
CONTINUOUS
 10
-408.49999999999989
 20
-28.0
 30
0.0
 11
-342.0000000000004
 21
-28.0
 31
0.0
  0
LINE
  5
B61
  8
NOTE
  6
CONTINUOUS
 10
-388.5
 20
-8.0
 30
0.0
 11
-388.5
 21
-48.0
 31
0.0
  0
TEXT
  5
B62
  8
NOTE
  6
CONTINUOUS
 10
-935.05373367878781
 20
-463.20192079259681
 30
0.0
 40
64.0
  1
RL%%C6.35　　　　　　　 
 41
0.9
  0
TEXT
  5
B63
  8
NOTE
  6
CONTINUOUS
 10
-949.96634963512167
 20
-341.65398985762698
 30
0.0
 40
64.0
  1
RG%%C9.52
 41
0.9
  0
LINE
  5
B64
  8
NOTE
  6
CONTINUOUS
 10
-577.3175146046915
 20
-361.42142385762691
 30
0.0
 11
-962.51258349226475
 21
-361.42142385762691
 31
0.0
  0
LINE
  5
C21
  8
NOTE
  6
CONTINUOUS
 10
-288.5
 20
-30.000000000001361
 30
0.0
 11
-328.5
 21
-30.000000000001361
 31
0.0
  0
LINE
  5
C22
  8
NOTE
  6
CONTINUOUS
 10
-308.49999999999989
 20
-10.000000000001361
 30
0.0
 11
-308.49999999999989
 21
-50.000000000001357
 31
0.0
  0
CIRCLE
  5
C24
  8
DETAIL
  6
CONTINUOUS
 10
-308.49999999999989
 20
-30.000000000001361
 30
0.0
 40
16.0
  0
CIRCLE
  5
C25
  8
DETAIL
  6
CONTINUOUS
 10
-308.49999999999989
 20
-30.000000000001361
 30
0.0
 40
10.0
  0
LINE
  5
C27
  8
DETAIL
  6
CONTINUOUS
 10
-408.49999999999989
 20
-58.447845275011787
 30
0.0
 11
-268.5
 21
-110.70038127933729
 31
0.0
  0
CIRCLE
  5
C2A
  8
DETAIL
  6
CONTINUOUS
 10
-364.50000000000091
 20
-85.0
 30
0.0
 40
4.7599999999999989
  0
CIRCLE
  5
C2B
  8
DETAIL
  6
CONTINUOUS
 10
-309.5
 20
-109.0
 30
0.0
 40
3.1749999999999989
  0
TEXT
  5
C2C
  8
NOTE
  6
CONTINUOUS
 10
-129.9276471207622
 20
355.70575222702632
 30
0.0
 40
64.0
  1
D VP20　　　　 
 41
0.9
  0
LINE
  5
C2D
  8
NOTE
  6
CONTINUOUS
 10
176.3272000904326
 20
334.85653822702619
 30
0.0
 11
-107.47542148830139
 21
334.85653822702619
 31
0.0
  0
LINE
  5
C2E
  8
NOTE
  6
CONTINUOUS
 10
-107.47542148830139
 20
334.85653822702619
 30
0.0
 11
-308.49999999999989
 21
-30.000000000001361
 31
0.0
  0
LINE
  5
C2F
  8
NOTE
  6
CONTINUOUS
 10
-308.49999999999989
 20
-30.000000000001361
 30
0.0
 11
-296.40897384882368
 21
8.1288227556319725
 31
0.0
  0
LINE
  5
C30
  8
NOTE
  6
CONTINUOUS
 10
-308.49999999999989
 20
-30.000000000001361
 30
0.0
 11
-278.96445315273832
 21
-3.0249851296757688
 31
0.0
  0
DIMENSION
  5
C31
  8
SIZE
  6
CONTINUOUS
  2
*D42
 10
-308.49999999999989
 20
90.909585480630994
 30
0.0
 11
-325.81382607733389
 21
90.909585480630994
 31
0.0
 70
   128
 13
-408.49999999999989
 23
0.0
 33
0.0
 14
-308.49999999999989
 24
-10.000000000001361
 34
0.0
1001
ACAD
1000
DSTYLE
1002
{
1070
    41
1040
10.0
1070
    42
1040
20.0
1070
    43
1040
200.0
1070
    44
1040
30.0
1070
    73
1070
     0
1070
    74
1070
     0
1070
    77
1070
     1
1070
    78
1070
     8
1070
   140
1040
64.0
1070
   147
1040
10.0
1070
   172
1070
     1
1070
   174
1070
     1
1070
   341
1005
489
1070
     5
1000
ORIGIN
1002
}
  0
DIMENSION
  5
C77
  8
SIZE
  6
CONTINUOUS
  2
*D43
 10
-804.16244142757569
 20
-229.99999999999989
 30
0.0
 11
-846.16244142757569
 21
-130.0000000000006
 31
0.0
 70
     0
 13
-328.5
 23
-30.000000000001361
 33
0.0
 14
-473.5
 24
-230.0
 34
0.0
 50
90.0
1001
ACAD
1000
DSTYLE
1002
{
1070
    41
1040
10.0
1070
    42
1040
20.0
1070
    43
1040
200.0
1070
    44
1040
30.0
1070
    73
1070
     0
1070
    74
1070
     0
1070
    77
1070
     1
1070
    78
1070
     8
1070
   140
1040
64.0
1070
   147
1040
10.0
1070
   172
1070
     1
1070
   174
1070
     1
1070
   341
1005
489
1070
     5
1000
ORIGIN
1002
}
  0
LINE
  5
C91
  8
DETAIL
  6
CONTINUOUS
 10
333.49999999999989
 20
-20.0
 30
0.0
 11
333.49999999999989
 21
-210.0000000000002
 31
0.0
  0
LINE
  5
C92
  8
DETAIL
  6
CONTINUOUS
 10
-240.49999999999949
 20
-20.0
 30
0.0
 11
-240.5
 21
-210.0
 31
0.0
  0
LINE
  5
C93
  8
DETAIL
  6
CONTINUOUS
 10
-240.5
 20
-210.0
 30
0.0
 11
333.49999999999989
 21
-210.0000000000002
 31
0.0
  0
LINE
  5
C94
  8
DETAIL
  6
CONTINUOUS
 10
-240.49999999999949
 20
-20.0
 30
0.0
 11
333.49999999999989
 21
-20.0
 31
0.0
  0
LINE
  5
C99
  8
DETAIL
  6
CONTINUOUS
 10
-240.49999999999949
 20
-39.0
 30
0.0
 11
333.49999999999989
 21
-39.0
 31
0.0
  0
LINE
  5
C9A
  8
DETAIL
  6
CONTINUOUS
 10
-240.49999999999949
 20
-58.0
 30
0.0
 11
333.49999999999989
 21
-58.0
 31
0.0
  0
LINE
  5
C9B
  8
DETAIL
  6
CONTINUOUS
 10
-240.49999999999949
 20
-77.0
 30
0.0
 11
333.49999999999989
 21
-77.0
 31
0.0
  0
LINE
  5
C9C
  8
DETAIL
  6
CONTINUOUS
 10
-240.49999999999949
 20
-96.0
 30
0.0
 11
333.49999999999989
 21
-96.0
 31
0.0
  0
LINE
  5
C9D
  8
DETAIL
  6
CONTINUOUS
 10
-240.49999999999949
 20
-115.0
 30
0.0
 11
333.49999999999989
 21
-115.0
 31
0.0
  0
LINE
  5
C9E
  8
DETAIL
  6
CONTINUOUS
 10
-240.49999999999949
 20
-134.0
 30
0.0
 11
333.49999999999989
 21
-134.0
 31
0.0
  0
LINE
  5
C9F
  8
DETAIL
  6
CONTINUOUS
 10
-240.49999999999949
 20
-153.0
 30
0.0
 11
333.49999999999989
 21
-153.0
 31
0.0
  0
LINE
  5
CA0
  8
DETAIL
  6
CONTINUOUS
 10
-240.49999999999949
 20
-172.0
 30
0.0
 11
333.49999999999989
 21
-172.0
 31
0.0
  0
LINE
  5
CA1
  8
DETAIL
  6
CONTINUOUS
 10
-240.49999999999949
 20
-191.0
 30
0.0
 11
333.49999999999989
 21
-191.0
 31
0.0
  0
LINE
  5
CA2
  8
DETAIL
  6
CONTINUOUS
 10
-211.79999999999919
 20
-20.0
 30
0.0
 11
-211.8000000000001
 21
-210.0
 31
0.0
  0
LINE
  5
CA3
  8
DETAIL
  6
CONTINUOUS
 10
-240.49999999999901
 20
-19.999999999999769
 30
0.0
 11
-240.5
 21
-209.99999999999969
 31
0.0
  0
LINE
  5
CA4
  8
DETAIL
  6
CONTINUOUS
 10
-240.49999999999901
 20
-19.999999999999769
 30
0.0
 11
-240.5
 21
-209.99999999999969
 31
0.0
  0
LINE
  5
CA5
  8
DETAIL
  6
CONTINUOUS
 10
-183.0999999999994
 20
-20.00000000000022
 30
0.0
 11
-183.10000000000031
 21
-210.0000000000002
 31
0.0
  0
LINE
  5
CA6
  8
DETAIL
  6
CONTINUOUS
 10
-154.39999999999961
 20
-20.000000000000451
 30
0.0
 11
-154.40000000000049
 21
-210.0000000000004
 31
0.0
  0
LINE
  5
CA7
  8
DETAIL
  6
CONTINUOUS
 10
-125.6999999999998
 20
-20.000000000000679
 30
0.0
 11
-125.7000000000007
 21
-210.0000000000006
 31
0.0
  0
LINE
  5
CA8
  8
DETAIL
  6
CONTINUOUS
 10
-97.0
 20
-20.000000000000909
 30
0.0
 11
-97.000000000000909
 21
-210.0000000000008
 31
0.0
  0
LINE
  5
CA9
  8
DETAIL
  6
CONTINUOUS
 10
-68.300000000000182
 20
-20.00000000000113
 30
0.0
 11
-68.300000000001091
 21
-210.00000000000111
 31
0.0
  0
LINE
  5
CAA
  8
DETAIL
  6
CONTINUOUS
 10
-39.600000000000357
 20
-20.000000000001361
 30
0.0
 11
-39.600000000001273
 21
-210.00000000000131
 31
0.0
  0
LINE
  5
CAB
  8
DETAIL
  6
CONTINUOUS
 10
-10.90000000000054
 20
-20.000000000001592
 30
0.0
 11
-10.90000000000145
 21
-210.00000000000159
 31
0.0
  0
LINE
  5
CAC
  8
DETAIL
  6
CONTINUOUS
 10
17.799999999999269
 20
-20.000000000001819
 30
0.0
 11
17.799999999998359
 21
-210.00000000000179
 31
0.0
  0
LINE
  5
CAD
  8
DETAIL
  6
CONTINUOUS
 10
46.499999999999083
 20
-20.000000000002039
 30
0.0
 11
46.499999999998181
 21
-210.00000000000199
 31
0.0
  0
LINE
  5
CAE
  8
DETAIL
  6
CONTINUOUS
 10
75.199999999998909
 20
-20.00000000000227
 30
0.0
 11
75.199999999997999
 21
-210.00000000000219
 31
0.0
  0
LINE
  5
CAF
  8
DETAIL
  6
CONTINUOUS
 10
103.8999999999987
 20
-20.000000000002501
 30
0.0
 11
103.8999999999978
 21
-210.00000000000239
 31
0.0
  0
LINE
  5
CB0
  8
DETAIL
  6
CONTINUOUS
 10
132.59999999999849
 20
-20.000000000002728
 30
0.0
 11
132.59999999999761
 21
-210.0000000000027
 31
0.0
  0
LINE
  5
CB1
  8
DETAIL
  6
CONTINUOUS
 10
161.29999999999831
 20
-20.000000000002949
 30
0.0
 11
161.2999999999974
 21
-210.0000000000029
 31
0.0
  0
LINE
  5
CB2
  8
DETAIL
  6
CONTINUOUS
 10
189.9999999999981
 20
-20.00000000000318
 30
0.0
 11
189.99999999999719
 21
-210.00000000000321
 31
0.0
  0
LINE
  5
CB3
  8
DETAIL
  6
CONTINUOUS
 10
218.69999999999791
 20
-20.000000000003411
 30
0.0
 11
218.699999999997
 21
-210.00000000000341
 31
0.0
  0
LINE
  5
CB4
  8
DETAIL
  6
CONTINUOUS
 10
247.39999999999779
 20
-20.000000000003631
 30
0.0
 11
247.39999999999691
 21
-210.00000000000361
 31
0.0
  0
LINE
  5
CB5
  8
DETAIL
  6
CONTINUOUS
 10
276.09999999999758
 20
-20.000000000003858
 30
0.0
 11
276.09999999999673
 21
-210.00000000000381
 31
0.0
  0
LINE
  5
CB6
  8
DETAIL
  6
CONTINUOUS
 10
304.7999999999974
 20
-20.000000000004089
 30
0.0
 11
304.79999999999649
 21
-210.00000000000401
 31
0.0
  0
LINE
  5
11D5
  8
OUTLINE
  6
CONTINUOUS
 10
-473.5
 20
0.0
 30
0.0
 11
361.5
 21
0.0
 31
0.0
  0
LINE
  5
11D6
  8
OUTLINE
  6
CONTINUOUS
 10
-473.5
 20
-230.0
 30
0.0
 11
361.5
 21
-230.0
 31
0.0
  0
LINE
  5
11D8
  8
OUTLINE
  6
CONTINUOUS
 10
-473.5
 20
0.0
 30
0.0
 11
-473.5
 21
-230.0
 31
0.0
  0
LINE
  5
11F6
  8
OUTLINE
  6
CONTINUOUS
 10
361.5
 20
0.0
 30
0.0
 11
361.5
 21
-22.999999999999769
 31
0.0
  0
LINE
  5
11FB
  8
OUTLINE
  6
CONTINUOUS
 10
408.49999999999989
 20
-23.00000000000022
 30
0.0
 11
408.49999999999989
 21
-28.0
 31
0.0
  0
LINE
  5
11FC
  8
OUTLINE
  6
CONTINUOUS
 10
361.5
 20
-27.999999999999769
 30
0.0
 11
408.49999999999989
 21
-28.0
 31
0.0
  0
LINE
  5
11FD
  8
OUTLINE
  6
CONTINUOUS
 10
361.5
 20
-22.999999999999769
 30
0.0
 11
408.49999999999989
 21
-23.00000000000022
 31
0.0
  0
LINE
  5
11FE
  8
OUTLINE
  6
CONTINUOUS
 10
361.5
 20
-27.999999999999769
 30
0.0
 11
361.5
 21
-230.0
 31
0.0
  0
ENDSEC
  0
EOF
