  0
SECTION
  2
HEADER
  9
$ACADVER
  1
AC1009
  9
$INSBASE
 10
0.0
 20
0.0
 30
0.0
  9
$EXTMIN
 10
-785.00944246423364
 20
-470.2437502376477
 30
0.0
  9
$EXTMAX
 10
745.5483089296124
 20
661.26522209731831
 30
0.0
  9
$LIMMIN
 10
-3510.803897264997
 20
-4478.002163694061
  9
$LIMMAX
 10
5939.308479520153
 20
1852.5545239068399
  9
$ORTHOMODE
 70
     0
  9
$REGENMODE
 70
     0
  9
$FILLMODE
 70
     1
  9
$QTEXTMODE
 70
     0
  9
$MIRRTEXT
 70
     0
  9
$DRAGMODE
 70
     2
  9
$LTSCALE
 40
20.0
  9
$OSMODE
 70
    37
  9
$ATTMODE
 70
     1
  9
$TEXTSIZE
 40
64.0
  9
$TRACEWID
 40
0.05
  9
$TEXTSTYLE
  7
STANDARD
  9
$CLAYER
  8
DETAIL
  9
$CELTYPE
  6
CONTINUOUS
  9
$CECOLOR
 62
   256
  9
$DIMSCALE
 40
1.0
  9
$DIMASZ
 40
10.0
  9
$DIMEXO
 40
20.0
  9
$DIMDLI
 40
200.0
  9
$DIMRND
 40
0.0
  9
$DIMDLE
 40
0.0
  9
$DIMEXE
 40
30.0
  9
$DIMTP
 40
0.0
  9
$DIMTM
 40
0.0
  9
$DIMTXT
 40
64.0
  9
$DIMCEN
 40
0.09
  9
$DIMTSZ
 40
0.0
  9
$DIMTOL
 70
     0
  9
$DIMLIM
 70
     0
  9
$DIMTIH
 70
     0
  9
$DIMTOH
 70
     0
  9
$DIMSE1
 70
     0
  9
$DIMSE2
 70
     0
  9
$DIMTAD
 70
     1
  9
$DIMZIN
 70
     8
  9
$DIMBLK
  1
ORIGIN
  9
$DIMASO
 70
     1
  9
$DIMSHO
 70
     0
  9
$DIMPOST
  1

  9
$DIMAPOST
  1

  9
$DIMALT
 70
     0
  9
$DIMALTD
 70
     2
  9
$DIMALTF
 40
25.399999999999999
  9
$DIMLFAC
 40
1.0
  9
$DIMTOFL
 70
     1
  9
$DIMTVP
 40
0.0
  9
$DIMTIX
 70
     1
  9
$DIMSOXD
 70
     0
  9
$DIMSAH
 70
     0
  9
$DIMBLK1
  1

  9
$DIMBLK2
  1

  9
$DIMSTYLE
  2
STANDARD
  9
$DIMCLRD
 70
     0
  9
$DIMCLRE
 70
     0
  9
$DIMCLRT
 70
     0
  9
$DIMTFAC
 40
1.0
  9
$DIMGAP
 40
10.0
  9
$LUNITS
 70
     2
  9
$LUPREC
 70
     4
  9
$SKETCHINC
 40
0.1
  9
$FILLETRAD
 40
0.0
  9
$AUNITS
 70
     1
  9
$AUPREC
 70
     3
  9
$MENU
  1
ACAD
  9
$ELEVATION
 40
0.0
  9
$PELEVATION
 40
0.0
  9
$THICKNESS
 40
0.0
  9
$LIMCHECK
 70
     0
  9
$BLIPMODE
 70
     0
  9
$CHAMFERA
 40
0.0
  9
$CHAMFERB
 40
0.0
  9
$SKPOLY
 70
     0
  9
$TDCREATE
 40
2450527.3900000001
  9
$TDUPDATE
 40
2453090.6066163769
  9
$TDINDWG
 40
0.1890044097
  9
$TDUSRTIMER
 40
0.1890040046
  9
$USRTIMER
 70
     1
  9
$ANGBASE
 50
0.0
  9
$ANGDIR
 70
     0
  9
$PDMODE
 70
     3
  9
$PDSIZE
 40
-2.0
  9
$PLINEWID
 40
0.0
  9
$COORDS
 70
     1
  9
$SPLFRAME
 70
     0
  9
$SPLINETYPE
 70
     6
  9
$SPLINESEGS
 70
     8
  9
$ATTDIA
 70
     0
  9
$ATTREQ
 70
     1
  9
$HANDLING
 70
 10241
  9
$HANDSEED
  5
1AEF
  9
$SURFTAB1
 70
     6
  9
$SURFTAB2
 70
     6
  9
$SURFTYPE
 70
     6
  9
$SURFU
 70
     6
  9
$SURFV
 70
     6
  9
$UCSNAME
  2

  9
$UCSORG
 10
0.0
 20
0.0
 30
0.0
  9
$UCSXDIR
 10
1.0
 20
0.0
 30
0.0
  9
$UCSYDIR
 10
0.0
 20
1.0
 30
0.0
  9
$PUCSNAME
  2

  9
$PUCSORG
 10
0.0
 20
0.0
 30
0.0
  9
$PUCSXDIR
 10
1.0
 20
0.0
 30
0.0
  9
$PUCSYDIR
 10
0.0
 20
1.0
 30
0.0
  9
$USERI1
 70
     0
  9
$USERI2
 70
     0
  9
$USERI3
 70
     0
  9
$USERI4
 70
     0
  9
$USERI5
 70
     0
  9
$USERR1
 40
20.0
  9
$USERR2
 40
0.0
  9
$USERR3
 40
0.0
  9
$USERR4
 40
0.0
  9
$USERR5
 40
0.0
  9
$WORLDVIEW
 70
     1
  9
$SHADEDGE
 70
     3
  9
$SHADEDIF
 70
    70
  9
$TILEMODE
 70
     1
  9
$MAXACTVP
 70
    64
  9
$PLIMCHECK
 70
     0
  9
$PEXTMIN
 10
1.0000000000000000E+020
 20
1.0000000000000000E+020
 30
1.0000000000000000E+020
  9
$PEXTMAX
 10
-1.0000000000000000E+020
 20
-1.0000000000000000E+020
 30
-1.0000000000000000E+020
  9
$PLIMMIN
 10
0.0
 20
0.0
  9
$PLIMMAX
 10
12.0
 20
9.0
  9
$UNITMODE
 70
     0
  9
$VISRETAIN
 70
     1
  9
$PLINEGEN
 70
     0
  9
$PSLTSCALE
 70
     1
  0
ENDSEC
  0
SECTION
  2
TABLES
  0
TABLE
  2
VPORT
 70
     2
  0
VPORT
  2
*ACTIVE
 70
     0
 10
0.0
 20
0.0
 11
1.0
 21
1.0
 12
318.9113806406221
 22
-110.00063865773259
 13
0.0
 23
0.0
 14
100.0
 24
100.0
 15
100.0
 25
100.0
 16
0.0
 26
0.0
 36
1.0
 17
0.0
 27
0.0
 37
0.0
 40
1655.622142508915
 41
1.5100250626566409
 42
50.0
 43
0.0
 44
0.0
 50
0.0
 51
0.0
 71
     0
 72
  1000
 73
     1
 74
     0
 75
     0
 76
     0
 77
     0
 78
     2
  0
ENDTAB
  0
TABLE
  2
LTYPE
 70
     7
  0
LTYPE
  2
CONTINUOUS
 70
     0
  3
実線
 72
    65
 73
     0
 40
0.0
  0
LTYPE
  2
DASHDOT
 70
     0
  3
____ _ ____ _ ____ _ ____ _ ____ _ ____ _ ____
 72
    65
 73
     4
 40
5.5
 49
4.0
 49
-0.6
 49
0.3
 49
-0.6
  0
LTYPE
  2
DASHED
 70
     0
  3
_ _ _ _ _ _ _ _ _ _ _ _ _ _ _ _ _ _ _ _ _ _ _
 72
    65
 73
     2
 40
2.0
 49
1.1999999999999991
 49
-0.8
  0
LTYPE
  2
DOT
 70
     0
  3
...............................................
 72
    65
 73
     2
 40
0.8
 49
0.5
 49
-0.3
  0
LTYPE
  2
DASHDOT1
 70
     0
  3
____ _ ____ _ ____ _ ____ _ ____ _ ____ _ ____
 72
    65
 73
     4
 40
2.0
 49
1.5
 49
-0.2
 49
0.1
 49
-0.2
  0
LTYPE
  2
DIVIDE
 70
     0
  3
_____ _ _ _____ _ _ _____ _ _ _____ _ _ ____
 72
    65
 73
     6
 40
6.4000000000000004
 49
4.0
 49
-0.6
 49
0.3
 49
-0.6
 49
0.3
 49
-0.6
  0
LTYPE
  2
DIVIDE1
 70
     0
  3
_____ _ _ _____ _ _ _____ _ _ _____ _ _ ____
 72
    65
 73
     6
 40
3.2000000000000002
 49
2.0
 49
-0.3
 49
0.15
 49
-0.3
 49
0.15
 49
-0.3
  0
ENDTAB
  0
TABLE
  2
LAYER
 70
    12
  0
LAYER
  2
0
 70
     0
 62
     7
  6
CONTINUOUS
  0
LAYER
  2
DETAIL
 70
     0
 62
     5
  6
CONTINUOUS
  0
LAYER
  2
OUTLINE
 70
     0
 62
     3
  6
CONTINUOUS
  0
LAYER
  2
BASIS
 70
     0
 62
     6
  6
CONTINUOUS
  0
LAYER
  2
NOTE
 70
     0
 62
     4
  6
CONTINUOUS
  0
LAYER
  2
DEFPOINTS
 70
     0
 62
     7
  6
CONTINUOUS
  0
LAYER
  2
SIZE
 70
     0
 62
    32
  6
CONTINUOUS
  0
LAYER
  2
ARRANGE
 70
     0
 62
     1
  6
CONTINUOUS
  0
LAYER
  2
ETC
 70
     0
 62
    83
  6
CONTINUOUS
  0
LAYER
  2
FIX
 70
     0
 62
   241
  6
CONTINUOUS
  0
LAYER
  2
SERVICESPACE
 70
     0
 62
     2
  6
CONTINUOUS
  0
LAYER
  2
SYMBOLLINE
 70
     0
 62
    38
  6
CONTINUOUS
  0
ENDTAB
  0
TABLE
  2
STYLE
 70
     2
  0
STYLE
  2
STANDARD
 70
     0
 40
0.0
 41
0.9
 50
0.0
 71
     0
 42
64.0
  3
SIMPLEX
  4
BIGFONT
  0
STYLE
  2
STANDARD1
 70
     0
 40
0.0
 41
1.0
 50
0.0
 71
     0
 42
3.5
  3
MONOTXT
  4
BIGFONT
  0
ENDTAB
  0
TABLE
  2
VIEW
 70
     1
  0
VIEW
  2
ALL
 70
     0
 40
4282.6199999999999
 10
0.0
 20
41.309903999999989
 41
5940.0
 11
0.0
 21
0.0
 31
1.0
 12
0.0
 22
0.0
 32
0.0
 42
50.0
 43
0.0
 44
0.0
 50
0.0
 71
     0
  0
ENDTAB
  0
TABLE
  2
UCS
 70
     0
  0
ENDTAB
  0
TABLE
  2
APPID
 70
     1
  0
APPID
  2
ACAD
 70
     0
  0
ENDTAB
  0
TABLE
  2
DIMSTYLE
 70
     1
  0
DIMSTYLE
  2
STANDARD
 70
     0
  3

  4

  5

  6

  7

 40
1.0
 41
0.18
 42
0.0625
 43
0.38
 44
0.18
 45
0.0
 46
0.0
 47
0.0
 48
0.0
140
0.18
141
0.09
142
0.0
143
25.399999999999999
144
1.0
145
0.0
146
1.0
147
0.09
 71
     0
 72
     0
 73
     1
 74
     1
 75
     0
 76
     0
 77
     0
 78
     0
170
     0
171
     2
172
     0
173
     0
174
     0
175
     0
176
     0
177
     0
178
     0
  0
ENDTAB
  0
ENDSEC
  0
SECTION
  2
BLOCKS
  0
BLOCK
  8
0
  2
$MODEL_SPACE
 70
     0
 10
0.0
 20
0.0
 30
0.0
  3
$MODEL_SPACE
  1

  0
ENDBLK
  5
15FE
  8
0
  0
BLOCK
 67
     1
  8
0
  2
$PAPER_SPACE
 70
     0
 10
0.0
 20
0.0
 30
0.0
  3
$PAPER_SPACE
  1

  0
ENDBLK
  5
15FA
 67
     1
  8
0
  0
BLOCK
  8
0
  2
_ORIGIN
 70
     0
 10
0.0
 20
0.0
 30
0.0
  3
_ORIGIN
  1

  0
CIRCLE
  5
1620
  8
0
  6
BYBLOCK
 62
     0
 10
0.0
 20
0.0
 30
0.0
 40
0.5
  0
LINE
  5
1621
  8
0
  6
BYBLOCK
 62
     0
 10
0.0
 20
0.0
 30
0.0
 11
-1.0
 21
0.0
 31
0.0
  0
ENDBLK
  5
1622
  8
0
  0
BLOCK
  8
0
  2
_DOTBLANK
 70
     0
 10
0.0
 20
0.0
 30
0.0
  3
_DOTBLANK
  1

  0
CIRCLE
  5
1625
  8
0
  6
BYBLOCK
 62
     0
 10
0.0
 20
0.0
 30
0.0
 40
0.5
  0
LINE
  5
1626
  8
0
  6
BYBLOCK
 62
     0
 10
-0.5
 20
0.0
 30
0.0
 11
-1.0
 21
0.0
 31
0.0
  0
ENDBLK
  5
1627
  8
0
  0
BLOCK
  8
0
  2
_NONE
 70
     0
 10
0.0
 20
0.0
 30
0.0
  3
_NONE
  1

  0
ENDBLK
  5
162A
  8
0
  0
BLOCK
  8
0
  2
*D5
 70
     1
 10
0.0
 20
0.0
 30
0.0
  3
*D5
  1

  0
LINE
  5
162D
  8
SIZE
  6
CONTINUOUS
 62
     0
 10
-388.5
 20
-239.0
 30
0.0
 11
-388.5
 21
-658.17053973335715
 31
0.0
  0
LINE
  5
162E
  8
SIZE
  6
CONTINUOUS
 62
     0
 10
388.49999999999989
 20
-234.0
 30
0.0
 11
388.49999999999989
 21
-658.17053973335715
 31
0.0
  0
LINE
  5
162F
  8
SIZE
  6
CONTINUOUS
 62
     0
 10
-378.5
 20
-628.17053973335715
 30
0.0
 11
378.49999999999989
 21
-628.17053973335715
 31
0.0
  0
INSERT
  5
1630
  8
SIZE
  6
CONTINUOUS
 62
     0
  2
_ORIGIN
 10
-388.5
 20
-628.17053973335715
 30
0.0
 41
10.0
 42
10.0
 43
10.0
 50
180.0
  0
INSERT
  5
1631
  8
SIZE
  6
CONTINUOUS
 62
     0
  2
_ORIGIN
 10
388.49999999999989
 20
-628.17053973335715
 30
0.0
 41
10.0
 42
10.0
 43
10.0
  0
TEXT
  5
1632
  8
DETAIL
  6
CONTINUOUS
 62
     0
 10
-74.057142857142907
 20
-618.17053973335726
 30
0.0
 40
64.0
  1
777
 41
0.9
  0
POINT
  5
1633
  8
DEFPOINTS
  6
CONTINUOUS
 62
     0
 10
-388.5
 20
-219.0
 30
0.0
  0
POINT
  5
1634
  8
DEFPOINTS
  6
CONTINUOUS
 62
     0
 10
388.49999999999989
 20
-214.0
 30
0.0
  0
POINT
  5
1635
  8
DEFPOINTS
  6
CONTINUOUS
 62
     0
 10
388.49999999999989
 20
-628.17053973335715
 30
0.0
  0
ENDBLK
  5
1636
  8
0
  0
BLOCK
  8
0
  2
*D6
 70
     1
 10
0.0
 20
0.0
 30
0.0
  3
*D6
  1

  0
LINE
  5
1639
  8
SIZE
  6
CONTINUOUS
 62
     0
 10
-361.49999999999989
 20
-242.9999999999998
 30
0.0
 11
-361.49999999999989
 21
-552.55659966129315
 31
0.0
  0
LINE
  5
163A
  8
SIZE
  6
CONTINUOUS
 62
     0
 10
408.49999999999989
 20
-242.9999999999998
 30
0.0
 11
408.49999999999989
 21
-552.55659966129315
 31
0.0
  0
LINE
  5
163B
  8
SIZE
  6
CONTINUOUS
 62
     0
 10
-351.49999999999977
 20
-522.55659966129315
 30
0.0
 11
398.49999999999989
 21
-522.55659966129315
 31
0.0
  0
INSERT
  5
163C
  8
SIZE
  6
CONTINUOUS
 62
     0
  2
_ORIGIN
 10
-361.49999999999989
 20
-522.55659966129315
 30
0.0
 41
10.0
 42
10.0
 43
10.0
 50
180.0
  0
INSERT
  5
163D
  8
SIZE
  6
CONTINUOUS
 62
     0
  2
_ORIGIN
 10
408.49999999999989
 20
-522.55659966129315
 30
0.0
 41
10.0
 42
10.0
 43
10.0
  0
TEXT
  5
163E
  8
DETAIL
  6
CONTINUOUS
 62
     0
 10
-50.557142857142843
 20
-512.55659966129315
 30
0.0
 40
64.0
  1
770
 41
0.9
  0
POINT
  5
163F
  8
DEFPOINTS
  6
CONTINUOUS
 62
     0
 10
-361.49999999999989
 20
-222.99999999999989
 30
0.0
  0
POINT
  5
1640
  8
DEFPOINTS
  6
CONTINUOUS
 62
     0
 10
408.49999999999989
 20
-222.99999999999989
 30
0.0
  0
POINT
  5
1641
  8
DEFPOINTS
  6
CONTINUOUS
 62
     0
 10
408.49999999999989
 20
-522.55659966129315
 30
0.0
  0
ENDBLK
  5
1642
  8
0
  0
BLOCK
  8
0
  2
*D7
 70
     1
 10
0.0
 20
0.0
 30
0.0
  3
*D7
  1

  0
LINE
  5
1645
  8
SIZE
  6
CONTINUOUS
 62
     0
 10
388.49999999999977
 20
-239.0
 30
0.0
 11
388.49999999999977
 21
-657.52760100167495
 31
0.0
  0
LINE
  5
1646
  8
SIZE
  6
CONTINUOUS
 62
     0
 10
408.49999999999989
 20
-242.9999999999998
 30
0.0
 11
408.49999999999989
 21
-657.52760100167495
 31
0.0
  0
LINE
  5
1647
  8
SIZE
  6
CONTINUOUS
 62
     0
 10
378.49999999999972
 20
-627.52760100167495
 30
0.0
 11
368.49999999999972
 21
-627.52760100167495
 31
0.0
  0
LINE
  5
1648
  8
SIZE
  6
CONTINUOUS
 62
     0
 10
418.5
 20
-627.52760100167495
 30
0.0
 11
541.75714285714275
 21
-627.52760100167495
 31
0.0
  0
LINE
  5
1649
  8
SIZE
  6
CONTINUOUS
 62
     0
 10
388.49999999999977
 20
-627.52760100167495
 30
0.0
 11
408.49999999999989
 21
-627.52760100167495
 31
0.0
  0
INSERT
  5
164A
  8
SIZE
  6
CONTINUOUS
 62
     0
  2
_ORIGIN
 10
388.49999999999977
 20
-627.52760100167495
 30
0.0
 41
10.0
 42
10.0
 43
10.0
  0
INSERT
  5
164B
  8
SIZE
  6
CONTINUOUS
 62
     0
  2
_ORIGIN
 10
408.49999999999989
 20
-627.52760100167495
 30
0.0
 41
10.0
 42
10.0
 43
10.0
 50
180.0
  0
TEXT
  5
164C
  8
DETAIL
  6
CONTINUOUS
 62
     0
 10
438.49999999999989
 20
-617.52760100167507
 30
0.0
 40
64.0
  1
20
 41
0.9
  0
POINT
  5
164D
  8
DEFPOINTS
  6
CONTINUOUS
 62
     0
 10
388.49999999999977
 20
-219.0
 30
0.0
  0
POINT
  5
164E
  8
DEFPOINTS
  6
CONTINUOUS
 62
     0
 10
408.49999999999989
 20
-222.99999999999989
 30
0.0
  0
POINT
  5
164F
  8
DEFPOINTS
  6
CONTINUOUS
 62
     0
 10
408.49999999999989
 20
-627.52760100167495
 30
0.0
  0
ENDBLK
  5
1650
  8
0
  0
BLOCK
  8
0
  2
*D8
 70
     1
 10
0.0
 20
0.0
 30
0.0
  3
*D8
  1

  0
LINE
  5
1653
  8
SIZE
  6
CONTINUOUS
 62
     0
 10
-388.5
 20
-239.0
 30
0.0
 11
-388.5
 21
-657.9788646279776
 31
0.0
  0
LINE
  5
1654
  8
SIZE
  6
CONTINUOUS
 62
     0
 10
-408.49999999999989
 20
-242.9999999999998
 30
0.0
 11
-408.49999999999989
 21
-657.9788646279776
 31
0.0
  0
LINE
  5
1655
  8
SIZE
  6
CONTINUOUS
 62
     0
 10
-378.5
 20
-627.9788646279776
 30
0.0
 11
-368.5
 21
-627.9788646279776
 31
0.0
  0
LINE
  5
1656
  8
SIZE
  6
CONTINUOUS
 62
     0
 10
-418.5
 20
-627.9788646279776
 30
0.0
 11
-541.75714285714275
 21
-627.9788646279776
 31
0.0
  0
LINE
  5
1657
  8
SIZE
  6
CONTINUOUS
 62
     0
 10
-388.5
 20
-627.9788646279776
 30
0.0
 11
-408.49999999999989
 21
-627.9788646279776
 31
0.0
  0
INSERT
  5
1658
  8
SIZE
  6
CONTINUOUS
 62
     0
  2
_ORIGIN
 10
-388.5
 20
-627.9788646279776
 30
0.0
 41
10.0
 42
10.0
 43
10.0
 50
180.0
  0
INSERT
  5
1659
  8
SIZE
  6
CONTINUOUS
 62
     0
  2
_ORIGIN
 10
-408.49999999999989
 20
-627.9788646279776
 30
0.0
 41
10.0
 42
10.0
 43
10.0
  0
TEXT
  5
165A
  8
DETAIL
  6
CONTINUOUS
 62
     0
 10
-531.75714285714287
 20
-617.97886462797737
 30
0.0
 40
64.0
  1
20
 41
0.9
  0
POINT
  5
165B
  8
DEFPOINTS
  6
CONTINUOUS
 62
     0
 10
-388.5
 20
-219.0
 30
0.0
  0
POINT
  5
165C
  8
DEFPOINTS
  6
CONTINUOUS
 62
     0
 10
-408.49999999999989
 20
-222.99999999999989
 30
0.0
  0
POINT
  5
165D
  8
DEFPOINTS
  6
CONTINUOUS
 62
     0
 10
-408.49999999999989
 20
-627.9788646279776
 30
0.0
  0
ENDBLK
  5
165E
  8
0
  0
BLOCK
  8
0
  2
*D9
 70
     1
 10
0.0
 20
0.0
 30
0.0
  3
*D9
  1

  0
LINE
  5
1661
  8
SIZE
  6
CONTINUOUS
 62
     0
 10
-428.49999999999989
 20
203.0
 30
0.0
 11
-505.37041130341788
 21
203.0
 31
0.0
  0
LINE
  5
1662
  8
SIZE
  6
CONTINUOUS
 62
     0
 10
-428.50000000000011
 20
-195.0
 30
0.0
 11
-505.37041130341822
 21
-194.9999999999998
 31
0.0
  0
LINE
  5
1663
  8
SIZE
  6
CONTINUOUS
 62
     0
 10
-475.37041130341811
 20
193.0
 30
0.0
 11
-475.37041130341811
 21
-184.9999999999998
 31
0.0
  0
INSERT
  5
1664
  8
SIZE
  6
CONTINUOUS
 62
     0
  2
_ORIGIN
 10
-475.37041130341811
 20
203.0
 30
0.0
 41
10.0
 42
10.0
 43
10.0
 50
90.0
  0
INSERT
  5
1665
  8
SIZE
  6
CONTINUOUS
 62
     0
  2
_ORIGIN
 10
-475.37041130341811
 20
-194.9999999999998
 30
0.0
 41
10.0
 42
10.0
 43
10.0
 50
270.0
  0
TEXT
  5
1666
  8
DETAIL
  6
CONTINUOUS
 62
     0
 10
-485.37041130341822
 20
-70.057142857142892
 30
0.0
 40
64.0
  1
398
 50
90.0
 41
0.9
  0
POINT
  5
1667
  8
DEFPOINTS
  6
CONTINUOUS
 62
     0
 10
-408.49999999999989
 20
203.0
 30
0.0
  0
POINT
  5
1668
  8
DEFPOINTS
  6
CONTINUOUS
 62
     0
 10
-408.49999999999989
 20
-195.0
 30
0.0
  0
POINT
  5
1669
  8
DEFPOINTS
  6
CONTINUOUS
 62
     0
 10
-475.37041130341811
 20
-194.9999999999998
 30
0.0
  0
ENDBLK
  5
166A
  8
0
  0
BLOCK
  8
0
  2
*D10
 70
     1
 10
0.0
 20
0.0
 30
0.0
  3
*D10
  1

  0
LINE
  5
166D
  8
SIZE
  6
CONTINUOUS
 62
     0
 10
-381.49999999999989
 20
-224.99999999999989
 30
0.0
 11
-618.16603949373518
 21
-224.99999999999989
 31
0.0
  0
LINE
  5
166E
  8
SIZE
  6
CONTINUOUS
 62
     0
 10
-381.49999999999989
 20
225.0
 30
0.0
 11
-618.16603949373518
 21
225.0
 31
0.0
  0
LINE
  5
166F
  8
SIZE
  6
CONTINUOUS
 62
     0
 10
-588.1660394937353
 20
-214.99999999999989
 30
0.0
 11
-588.1660394937353
 21
215.0
 31
0.0
  0
INSERT
  5
1670
  8
SIZE
  6
CONTINUOUS
 62
     0
  2
_ORIGIN
 10
-588.1660394937353
 20
-224.99999999999989
 30
0.0
 41
10.0
 42
10.0
 43
10.0
 50
270.0
  0
INSERT
  5
1671
  8
SIZE
  6
CONTINUOUS
 62
     0
  2
_ORIGIN
 10
-588.1660394937353
 20
225.0
 30
0.0
 41
10.0
 42
10.0
 43
10.0
 50
90.0
  0
TEXT
  5
1672
  8
DETAIL
  6
CONTINUOUS
 62
     0
 10
-598.16603949373518
 20
-74.057142857142878
 30
0.0
 40
64.0
  1
450
 50
90.0
 41
0.9
  0
POINT
  5
1673
  8
DEFPOINTS
  6
CONTINUOUS
 62
     0
 10
-361.5
 20
-224.99999999999989
 30
0.0
  0
POINT
  5
1674
  8
DEFPOINTS
  6
CONTINUOUS
 62
     0
 10
-361.5
 20
225.0
 30
0.0
  0
POINT
  5
1675
  8
DEFPOINTS
  6
CONTINUOUS
 62
     0
 10
-588.1660394937353
 20
225.0
 30
0.0
  0
ENDBLK
  5
1676
  8
0
  0
BLOCK
  8
0
  2
*D11
 70
     1
 10
0.0
 20
0.0
 30
0.0
  3
*D11
  1

  0
LINE
  5
1679
  8
SIZE
  6
CONTINUOUS
 62
     0
 10
348.5
 20
340.0
 30
0.0
 11
696.16349142884428
 21
339.99999999999989
 31
0.0
  0
LINE
  5
167A
  8
SIZE
  6
CONTINUOUS
 62
     0
 10
278.5
 20
225.0
 30
0.0
 11
696.16349142884428
 21
224.99999999999989
 31
0.0
  0
LINE
  5
167B
  8
SIZE
  6
CONTINUOUS
 62
     0
 10
666.1634914288444
 20
329.99999999999972
 30
0.0
 11
666.16349142884405
 21
234.99999999999969
 31
0.0
  0
INSERT
  5
167C
  8
SIZE
  6
CONTINUOUS
 62
     0
  2
_ORIGIN
 10
666.1634914288444
 20
339.99999999999989
 30
0.0
 41
10.0
 42
10.0
 43
10.0
 50
90.0
  0
INSERT
  5
167D
  8
SIZE
  6
CONTINUOUS
 62
     0
  2
_ORIGIN
 10
666.16349142884405
 20
224.99999999999989
 30
0.0
 41
10.0
 42
10.0
 43
10.0
 50
270.0
  0
TEXT
  5
167E
  8
DETAIL
  6
CONTINUOUS
 62
     0
 10
656.16349142884417
 20
186.1134359357589
 30
0.0
 40
64.0
  1
115
 50
90.0
 41
0.9
  0
POINT
  5
167F
  8
DEFPOINTS
  6
CONTINUOUS
 62
     0
 10
328.5
 20
340.0
 30
0.0
  0
POINT
  5
1680
  8
DEFPOINTS
  6
CONTINUOUS
 62
     0
 10
258.49999999999989
 20
225.0
 30
0.0
  0
POINT
  5
1681
  8
DEFPOINTS
  6
CONTINUOUS
 62
     0
 10
666.16349142884405
 20
224.99999999999989
 30
0.0
  0
ENDBLK
  5
1682
  8
0
  0
BLOCK
  8
0
  2
*D12
 70
     1
 10
0.0
 20
0.0
 30
0.0
  3
*D12
  1

  0
LINE
  5
1685
  8
SIZE
  6
CONTINUOUS
 62
     0
 10
404.49999999999989
 20
96.0
 30
0.0
 11
761.86547460009751
 21
95.999999999999901
 31
0.0
  0
LINE
  5
1686
  8
SIZE
  6
CONTINUOUS
 62
     0
 10
381.49999999999989
 20
-224.99999999999989
 30
0.0
 11
761.86547460009751
 21
-225.0
 31
0.0
  0
LINE
  5
1687
  8
SIZE
  6
CONTINUOUS
 62
     0
 10
731.86547460009751
 20
85.999999999999901
 30
0.0
 11
731.86547460009751
 21
-215.0
 31
0.0
  0
INSERT
  5
1688
  8
SIZE
  6
CONTINUOUS
 62
     0
  2
_ORIGIN
 10
731.86547460009751
 20
95.999999999999915
 30
0.0
 41
10.0
 42
10.0
 43
10.0
 50
90.0
  0
INSERT
  5
1689
  8
SIZE
  6
CONTINUOUS
 62
     0
  2
_ORIGIN
 10
731.86547460009751
 20
-225.0
 30
0.0
 41
10.0
 42
10.0
 43
10.0
 50
270.0
  0
TEXT
  5
168A
  8
DETAIL
  6
CONTINUOUS
 62
     0
 10
721.86547460009751
 20
-134.65522748778611
 30
0.0
 40
64.0
  1
321
 50
90.0
 41
0.9
  0
POINT
  5
168B
  8
DEFPOINTS
  6
CONTINUOUS
 62
     0
 10
384.5
 20
96.0
 30
0.0
  0
POINT
  5
168C
  8
DEFPOINTS
  6
CONTINUOUS
 62
     0
 10
361.49999999999989
 20
-224.99999999999989
 30
0.0
  0
POINT
  5
168D
  8
DEFPOINTS
  6
CONTINUOUS
 62
     0
 10
731.86547460009751
 20
-225.0
 30
0.0
  0
ENDBLK
  5
168E
  8
0
  0
BLOCK
  8
0
  2
*D13
 70
     1
 10
0.0
 20
0.0
 30
0.0
  3
*D13
  1

  0
LINE
  5
1691
  8
SIZE
  6
CONTINUOUS
 62
     0
 10
381.49999999999989
 20
-224.99999999999989
 30
0.0
 11
643.74310929889884
 21
-225.0
 31
0.0
  0
LINE
  5
1692
  8
SIZE
  6
CONTINUOUS
 62
     0
 10
493.5
 20
-171.9999999999998
 30
0.0
 11
643.74310929889884
 21
-172.0
 31
0.0
  0
LINE
  5
1693
  8
SIZE
  6
CONTINUOUS
 62
     0
 10
613.74310929889907
 20
-182.0
 30
0.0
 11
613.74310929889907
 21
-215.0
 31
0.0
  0
LINE
  5
1694
  8
SIZE
  6
CONTINUOUS
 62
     0
 10
613.74310929889907
 20
-225.0
 30
0.0
 11
613.74310929889896
 21
-353.62151060524963
 31
0.0
  0
INSERT
  5
1695
  8
SIZE
  6
CONTINUOUS
 62
     0
  2
_ORIGIN
 10
613.74310929889907
 20
-172.0
 30
0.0
 41
10.0
 42
10.0
 43
10.0
 50
90.0
  0
INSERT
  5
1696
  8
SIZE
  6
CONTINUOUS
 62
     0
  2
_ORIGIN
 10
613.74310929889907
 20
-225.0
 30
0.0
 41
10.0
 42
10.0
 43
10.0
 50
270.0
  0
TEXT
  5
1697
  8
DETAIL
  6
CONTINUOUS
 62
     0
 10
603.74310929889884
 20
-343.62151060524963
 30
0.0
 40
64.0
  1
53
 50
90.0
 41
0.9
  0
POINT
  5
1698
  8
DEFPOINTS
  6
CONTINUOUS
 62
     0
 10
361.49999999999989
 20
-224.99999999999989
 30
0.0
  0
POINT
  5
1699
  8
DEFPOINTS
  6
CONTINUOUS
 62
     0
 10
473.5
 20
-171.9999999999998
 30
0.0
  0
POINT
  5
169A
  8
DEFPOINTS
  6
CONTINUOUS
 62
     0
 10
613.74310929889907
 20
-172.0
 30
0.0
  0
ENDBLK
  5
169B
  8
0
  0
BLOCK
  8
0
  2
*D14
 70
     1
 10
0.0
 20
0.0
 30
0.0
  3
*D14
  1

  0
LINE
  5
169E
  8
SIZE
  6
CONTINUOUS
 62
     0
 10
493.5
 20
70.000000000000014
 30
0.0
 11
643.74310929889884
 21
69.999999999999972
 31
0.0
  0
LINE
  5
169F
  8
SIZE
  6
CONTINUOUS
 62
     0
 10
493.5
 20
-171.9999999999998
 30
0.0
 11
643.74310929889884
 21
-172.0
 31
0.0
  0
LINE
  5
16A0
  8
SIZE
  6
CONTINUOUS
 62
     0
 10
613.74310929889907
 20
59.999999999999979
 30
0.0
 11
613.74310929889907
 21
-162.0
 31
0.0
  0
INSERT
  5
16A1
  8
SIZE
  6
CONTINUOUS
 62
     0
  2
_ORIGIN
 10
613.74310929889907
 20
69.999999999999972
 30
0.0
 41
10.0
 42
10.0
 43
10.0
 50
90.0
  0
INSERT
  5
16A2
  8
SIZE
  6
CONTINUOUS
 62
     0
  2
_ORIGIN
 10
613.74310929889907
 20
-172.0
 30
0.0
 41
10.0
 42
10.0
 43
10.0
 50
270.0
  0
TEXT
  5
16A3
  8
DETAIL
  6
CONTINUOUS
 62
     0
 10
603.74310929889884
 20
-131.96413250386169
 30
0.0
 40
64.0
  1
242
 50
90.0
 41
0.9
  0
POINT
  5
16A4
  8
DEFPOINTS
  6
CONTINUOUS
 62
     0
 10
473.5
 20
70.000000000000014
 30
0.0
  0
POINT
  5
16A5
  8
DEFPOINTS
  6
CONTINUOUS
 62
     0
 10
473.5
 20
-171.9999999999998
 30
0.0
  0
POINT
  5
16A6
  8
DEFPOINTS
  6
CONTINUOUS
 62
     0
 10
613.74310929889907
 20
-172.0
 30
0.0
  0
ENDBLK
  5
16A7
  8
0
  0
BLOCK
  8
0
  2
*D15
 70
     1
 10
0.0
 20
0.0
 30
0.0
  3
*D15
  1

  0
LINE
  5
16AA
  8
SIZE
  6
CONTINUOUS
 62
     0
 10
408.49999999999989
 20
242.99999999999969
 30
0.0
 11
408.49999999999989
 21
483.74311300066603
 31
0.0
  0
LINE
  5
16AB
  8
SIZE
  6
CONTINUOUS
 62
     0
 10
308.5
 20
380.0
 30
0.0
 11
308.5
 21
483.74311300066603
 31
0.0
  0
LINE
  5
16AC
  8
SIZE
  6
CONTINUOUS
 62
     0
 10
418.5
 20
453.7431130006662
 30
0.0
 11
428.5
 21
453.7431130006662
 31
0.0
  0
LINE
  5
16AD
  8
SIZE
  6
CONTINUOUS
 62
     0
 10
298.5
 20
453.7431130006662
 30
0.0
 11
288.5
 21
453.7431130006662
 31
0.0
  0
LINE
  5
16AE
  8
SIZE
  6
CONTINUOUS
 62
     0
 10
408.49999999999989
 20
453.7431130006662
 30
0.0
 11
308.5
 21
453.7431130006662
 31
0.0
  0
INSERT
  5
16AF
  8
SIZE
  6
CONTINUOUS
 62
     0
  2
_ORIGIN
 10
408.49999999999989
 20
453.7431130006662
 30
0.0
 41
10.0
 42
10.0
 43
10.0
 50
180.0
  0
INSERT
  5
16B0
  8
SIZE
  6
CONTINUOUS
 62
     0
  2
_ORIGIN
 10
308.5
 20
453.7431130006662
 30
0.0
 41
10.0
 42
10.0
 43
10.0
  0
TEXT
  5
16B1
  8
DETAIL
  6
CONTINUOUS
 62
     0
 10
289.92857142857127
 20
463.74311300066591
 30
0.0
 40
64.0
  1
100
 41
0.9
  0
POINT
  5
16B2
  8
DEFPOINTS
  6
CONTINUOUS
 62
     0
 10
408.49999999999989
 20
222.99999999999989
 30
0.0
  0
POINT
  5
16B3
  8
DEFPOINTS
  6
CONTINUOUS
 62
     0
 10
308.5
 20
360.0
 30
0.0
  0
POINT
  5
16B4
  8
DEFPOINTS
  6
CONTINUOUS
 62
     0
 10
308.5
 20
453.7431130006662
 30
0.0
  0
ENDBLK
  5
16B5
  8
0
  0
BLOCK
  8
0
  2
*D16
 70
     1
 10
0.0
 20
0.0
 30
0.0
  3
*D16
  1

  0
LINE
  5
16B8
  8
SIZE
  6
CONTINUOUS
 62
     0
 10
408.49999999999989
 20
50.000000000000021
 30
0.0
 11
408.49999999999989
 21
-122.60325981861369
 31
0.0
  0
LINE
  5
16B9
  8
SIZE
  6
CONTINUOUS
 62
     0
 10
364.5
 20
56.000000000000007
 30
0.0
 11
364.5
 21
-122.60325981861369
 31
0.0
  0
LINE
  5
16BA
  8
SIZE
  6
CONTINUOUS
 62
     0
 10
374.5
 20
-92.603259818613878
 30
0.0
 11
398.49999999999989
 21
-92.603259818613878
 31
0.0
  0
LINE
  5
16BB
  8
SIZE
  6
CONTINUOUS
 62
     0
 10
408.49999999999989
 20
-92.603259818613878
 30
0.0
 11
534.49999999999977
 21
-92.603259818613878
 31
0.0
  0
INSERT
  5
16BC
  8
SIZE
  6
CONTINUOUS
 62
     0
  2
_ORIGIN
 10
364.5
 20
-92.603259818613878
 30
0.0
 41
10.0
 42
10.0
 43
10.0
 50
180.0
  0
INSERT
  5
16BD
  8
SIZE
  6
CONTINUOUS
 62
     0
  2
_ORIGIN
 10
408.49999999999989
 20
-92.603259818613878
 30
0.0
 41
10.0
 42
10.0
 43
10.0
  0
TEXT
  5
16BE
  8
DETAIL
  6
CONTINUOUS
 62
     0
 10
428.5
 20
-82.603259818613907
 30
0.0
 40
64.0
  1
44
 41
0.9
  0
POINT
  5
16BF
  8
DEFPOINTS
  6
CONTINUOUS
 62
     0
 10
408.49999999999989
 20
70.000000000000014
 30
0.0
  0
POINT
  5
16C0
  8
DEFPOINTS
  6
CONTINUOUS
 62
     0
 10
364.5
 20
76.000000000000014
 30
0.0
  0
POINT
  5
16C1
  8
DEFPOINTS
  6
CONTINUOUS
 62
     0
 10
364.5
 20
-92.603259818613878
 30
0.0
  0
ENDBLK
  5
16C2
  8
0
  0
BLOCK
  8
0
  2
*D17
 70
     1
 10
0.0
 20
0.0
 30
0.0
  3
*D17
  1

  0
LINE
  5
16C5
  8
SIZE
  6
CONTINUOUS
 62
     0
 10
364.5
 20
56.000000000000007
 30
0.0
 11
364.5
 21
-122.3267185779477
 31
0.0
  0
LINE
  5
16C6
  8
SIZE
  6
CONTINUOUS
 62
     0
 10
309.49999999999977
 20
56.0
 30
0.0
 11
309.49999999999977
 21
-122.3267185779477
 31
0.0
  0
LINE
  5
16C7
  8
SIZE
  6
CONTINUOUS
 62
     0
 10
354.49999999999989
 20
-92.32671857794773
 30
0.0
 11
319.49999999999977
 21
-92.32671857794773
 31
0.0
  0
LINE
  5
16C8
  8
SIZE
  6
CONTINUOUS
 62
     0
 10
309.49999999999977
 20
-92.32671857794773
 30
0.0
 11
186.2428571428571
 21
-92.32671857794773
 31
0.0
  0
INSERT
  5
16C9
  8
SIZE
  6
CONTINUOUS
 62
     0
  2
_ORIGIN
 10
364.5
 20
-92.32671857794773
 30
0.0
 41
10.0
 42
10.0
 43
10.0
  0
INSERT
  5
16CA
  8
SIZE
  6
CONTINUOUS
 62
     0
  2
_ORIGIN
 10
309.49999999999977
 20
-92.32671857794773
 30
0.0
 41
10.0
 42
10.0
 43
10.0
 50
180.0
  0
TEXT
  5
16CB
  8
DETAIL
  6
CONTINUOUS
 62
     0
 10
196.24285714285691
 20
-82.32671857794773
 30
0.0
 40
64.0
  1
55
 41
0.9
  0
POINT
  5
16CC
  8
DEFPOINTS
  6
CONTINUOUS
 62
     0
 10
364.5
 20
76.000000000000014
 30
0.0
  0
POINT
  5
16CD
  8
DEFPOINTS
  6
CONTINUOUS
 62
     0
 10
309.49999999999977
 20
76.0
 30
0.0
  0
POINT
  5
16CE
  8
DEFPOINTS
  6
CONTINUOUS
 62
     0
 10
309.49999999999977
 20
-92.32671857794773
 30
0.0
  0
ENDBLK
  5
16CF
  8
0
  0
BLOCK
  8
0
  2
*D18
 70
     1
 10
0.0
 20
0.0
 30
0.0
  3
*D18
  1

  0
LINE
  5
16D2
  8
SIZE
  6
CONTINUOUS
 62
     0
 10
-388.5
 20
-1820.27283494992
 30
0.0
 11
-388.5
 21
-1624.945334817304
 31
0.0
  0
LINE
  5
16D3
  8
SIZE
  6
CONTINUOUS
 62
     0
 10
388.49999999999989
 20
-1820.27283494992
 30
0.0
 11
388.49999999999989
 21
-1624.945334817304
 31
0.0
  0
LINE
  5
16D4
  8
SIZE
  6
CONTINUOUS
 62
     0
 10
-378.5
 20
-1654.945334817304
 30
0.0
 11
378.49999999999989
 21
-1654.945334817304
 31
0.0
  0
INSERT
  5
16D5
  8
SIZE
  6
CONTINUOUS
 62
     0
  2
_ORIGIN
 10
-388.5
 20
-1654.945334817304
 30
0.0
 41
10.0
 42
10.0
 43
10.0
 50
180.0
  0
INSERT
  5
16D6
  8
SIZE
  6
CONTINUOUS
 62
     0
  2
_ORIGIN
 10
388.49999999999989
 20
-1654.945334817304
 30
0.0
 41
10.0
 42
10.0
 43
10.0
  0
TEXT
  5
16D7
  8
DETAIL
  6
CONTINUOUS
 62
     0
 10
-74.057142857142907
 20
-1644.945334817304
 30
0.0
 40
64.0
  1
777
 41
0.9
  0
POINT
  5
16D8
  8
DEFPOINTS
  6
CONTINUOUS
 62
     0
 10
-388.5
 20
-1840.27283494992
 30
0.0
  0
POINT
  5
16D9
  8
DEFPOINTS
  6
CONTINUOUS
 62
     0
 10
388.49999999999989
 20
-1840.27283494992
 30
0.0
  0
POINT
  5
16DA
  8
DEFPOINTS
  6
CONTINUOUS
 62
     0
 10
388.49999999999989
 20
-1654.945334817304
 30
0.0
  0
ENDBLK
  5
16DB
  8
0
  0
BLOCK
  8
0
  2
*D19
 70
     1
 10
0.0
 20
0.0
 30
0.0
  3
*D19
  1

  0
LINE
  5
16DE
  8
SIZE
  6
CONTINUOUS
 62
     0
 10
-408.49999999999989
 20
-1835.27283494992
 30
0.0
 11
-408.49999999999989
 21
-1625.08991143923
 31
0.0
  0
LINE
  5
16DF
  8
SIZE
  6
CONTINUOUS
 62
     0
 10
-388.5
 20
-1820.27283494992
 30
0.0
 11
-388.5
 21
-1625.08991143923
 31
0.0
  0
LINE
  5
16E0
  8
SIZE
  6
CONTINUOUS
 62
     0
 10
-378.5
 20
-1655.08991143923
 30
0.0
 11
-368.5
 21
-1655.08991143923
 31
0.0
  0
LINE
  5
16E1
  8
SIZE
  6
CONTINUOUS
 62
     0
 10
-418.5
 20
-1655.08991143923
 30
0.0
 11
-541.75714285714275
 21
-1655.08991143923
 31
0.0
  0
LINE
  5
16E2
  8
SIZE
  6
CONTINUOUS
 62
     0
 10
-388.5
 20
-1655.08991143923
 30
0.0
 11
-408.49999999999989
 21
-1655.08991143923
 31
0.0
  0
INSERT
  5
16E3
  8
SIZE
  6
CONTINUOUS
 62
     0
  2
_ORIGIN
 10
-388.5
 20
-1655.08991143923
 30
0.0
 41
10.0
 42
10.0
 43
10.0
 50
180.0
  0
INSERT
  5
16E4
  8
SIZE
  6
CONTINUOUS
 62
     0
  2
_ORIGIN
 10
-408.49999999999989
 20
-1655.08991143923
 30
0.0
 41
10.0
 42
10.0
 43
10.0
  0
TEXT
  5
16E5
  8
DETAIL
  6
CONTINUOUS
 62
     0
 10
-531.75714285714287
 20
-1645.08991143923
 30
0.0
 40
64.0
  1
20
 41
0.9
  0
POINT
  5
16E6
  8
DEFPOINTS
  6
CONTINUOUS
 62
     0
 10
-408.49999999999989
 20
-1855.2728349499209
 30
0.0
  0
POINT
  5
16E7
  8
DEFPOINTS
  6
CONTINUOUS
 62
     0
 10
-388.5
 20
-1840.27283494992
 30
0.0
  0
POINT
  5
16E8
  8
DEFPOINTS
  6
CONTINUOUS
 62
     0
 10
-388.5
 20
-1655.08991143923
 30
0.0
  0
ENDBLK
  5
16E9
  8
0
  0
BLOCK
  8
0
  2
*D20
 70
     1
 10
0.0
 20
0.0
 30
0.0
  3
*D20
  1

  0
LINE
  5
16EC
  8
SIZE
  6
CONTINUOUS
 62
     0
 10
388.49999999999989
 20
-1820.27283494992
 30
0.0
 11
388.49999999999989
 21
-1625.0200156491981
 31
0.0
  0
LINE
  5
16ED
  8
SIZE
  6
CONTINUOUS
 62
     0
 10
408.49999999999989
 20
-1812.27283494992
 30
0.0
 11
408.49999999999989
 21
-1625.0200156491981
 31
0.0
  0
LINE
  5
16EE
  8
SIZE
  6
CONTINUOUS
 62
     0
 10
378.49999999999989
 20
-1655.0200156491981
 30
0.0
 11
368.49999999999989
 21
-1655.0200156491981
 31
0.0
  0
LINE
  5
16EF
  8
SIZE
  6
CONTINUOUS
 62
     0
 10
418.5
 20
-1655.0200156491981
 30
0.0
 11
541.75714285714275
 21
-1655.0200156491981
 31
0.0
  0
LINE
  5
16F0
  8
SIZE
  6
CONTINUOUS
 62
     0
 10
388.49999999999989
 20
-1655.0200156491981
 30
0.0
 11
408.49999999999989
 21
-1655.0200156491981
 31
0.0
  0
INSERT
  5
16F1
  8
SIZE
  6
CONTINUOUS
 62
     0
  2
_ORIGIN
 10
388.49999999999989
 20
-1655.0200156491981
 30
0.0
 41
10.0
 42
10.0
 43
10.0
  0
INSERT
  5
16F2
  8
SIZE
  6
CONTINUOUS
 62
     0
  2
_ORIGIN
 10
408.49999999999989
 20
-1655.0200156491981
 30
0.0
 41
10.0
 42
10.0
 43
10.0
 50
180.0
  0
TEXT
  5
16F3
  8
DETAIL
  6
CONTINUOUS
 62
     0
 10
438.49999999999989
 20
-1645.020015649199
 30
0.0
 40
64.0
  1
20
 41
0.9
  0
POINT
  5
16F4
  8
DEFPOINTS
  6
CONTINUOUS
 62
     0
 10
388.49999999999989
 20
-1840.27283494992
 30
0.0
  0
POINT
  5
16F5
  8
DEFPOINTS
  6
CONTINUOUS
 62
     0
 10
408.49999999999989
 20
-1832.27283494992
 30
0.0
  0
POINT
  5
16F6
  8
DEFPOINTS
  6
CONTINUOUS
 62
     0
 10
408.49999999999989
 20
-1655.0200156491981
 30
0.0
  0
ENDBLK
  5
16F7
  8
0
  0
BLOCK
  8
0
  2
*D21
 70
     1
 10
0.0
 20
0.0
 30
0.0
  3
*D21
  1

  0
LINE
  5
16FA
  8
SIZE
  6
CONTINUOUS
 62
     0
 10
-428.50000000000011
 20
-1860.27283494992
 30
0.0
 11
-500.36176728809357
 21
-1860.27283494992
 31
0.0
  0
LINE
  5
16FB
  8
SIZE
  6
CONTINUOUS
 62
     0
 10
-381.49999999999989
 20
-2062.2728349499198
 30
0.0
 11
-500.36176728809357
 21
-2062.2728349499198
 31
0.0
  0
LINE
  5
16FC
  8
SIZE
  6
CONTINUOUS
 62
     0
 10
-470.36176728809357
 20
-1870.27283494992
 30
0.0
 11
-470.36176728809369
 21
-2052.2728349499198
 31
0.0
  0
INSERT
  5
16FD
  8
SIZE
  6
CONTINUOUS
 62
     0
  2
_ORIGIN
 10
-470.36176728809357
 20
-1860.27283494992
 30
0.0
 41
10.0
 42
10.0
 43
10.0
 50
90.0
  0
INSERT
  5
16FE
  8
SIZE
  6
CONTINUOUS
 62
     0
  2
_ORIGIN
 10
-470.36176728809369
 20
-2062.2728349499198
 30
0.0
 41
10.0
 42
10.0
 43
10.0
 50
270.0
  0
TEXT
  5
16FF
  8
DETAIL
  6
CONTINUOUS
 62
     0
 10
-480.36176728809329
 20
-2035.3299778070641
 30
0.0
 40
64.0
  1
202
 50
90.0
 41
0.9
  0
POINT
  5
1700
  8
DEFPOINTS
  6
CONTINUOUS
 62
     0
 10
-408.49999999999989
 20
-1860.27283494992
 30
0.0
  0
POINT
  5
1701
  8
DEFPOINTS
  6
CONTINUOUS
 62
     0
 10
-361.49999999999989
 20
-2062.2728349499198
 30
0.0
  0
POINT
  5
1702
  8
DEFPOINTS
  6
CONTINUOUS
 62
     0
 10
-470.36176728809369
 20
-2062.2728349499198
 30
0.0
  0
ENDBLK
  5
1703
  8
0
  0
BLOCK
  8
0
  2
*D22
 70
     1
 10
0.0
 20
0.0
 30
0.0
  3
*D22
  1

  0
LINE
  5
1706
  8
SIZE
  6
CONTINUOUS
 62
     0
 10
-381.49999999999989
 20
-1832.27283494992
 30
0.0
 11
-623.93532213966671
 21
-1832.27283494992
 31
0.0
  0
LINE
  5
1707
  8
SIZE
  6
CONTINUOUS
 62
     0
 10
-381.49999999999989
 20
-2062.2728349499198
 30
0.0
 11
-623.93532213966671
 21
-2062.2728349499198
 31
0.0
  0
LINE
  5
1708
  8
SIZE
  6
CONTINUOUS
 62
     0
 10
-593.9353221396666
 20
-1842.27283494992
 30
0.0
 11
-593.9353221396666
 21
-2052.2728349499198
 31
0.0
  0
INSERT
  5
1709
  8
SIZE
  6
CONTINUOUS
 62
     0
  2
_ORIGIN
 10
-593.9353221396666
 20
-1832.27283494992
 30
0.0
 41
10.0
 42
10.0
 43
10.0
 50
90.0
  0
INSERT
  5
170A
  8
SIZE
  6
CONTINUOUS
 62
     0
  2
_ORIGIN
 10
-593.9353221396666
 20
-2062.2728349499198
 30
0.0
 41
10.0
 42
10.0
 43
10.0
 50
270.0
  0
TEXT
  5
170B
  8
DETAIL
  6
CONTINUOUS
 62
     0
 10
-603.93532213966625
 20
-2021.329977807063
 30
0.0
 40
64.0
  1
230
 50
90.0
 41
0.9
  0
POINT
  5
170C
  8
DEFPOINTS
  6
CONTINUOUS
 62
     0
 10
-361.49999999999972
 20
-1832.27283494992
 30
0.0
  0
POINT
  5
170D
  8
DEFPOINTS
  6
CONTINUOUS
 62
     0
 10
-361.49999999999989
 20
-2062.2728349499198
 30
0.0
  0
POINT
  5
170E
  8
DEFPOINTS
  6
CONTINUOUS
 62
     0
 10
-593.9353221396666
 20
-2062.2728349499198
 30
0.0
  0
ENDBLK
  5
170F
  8
0
  0
BLOCK
  8
0
  2
*D23
 70
     1
 10
0.0
 20
0.0
 30
0.0
  3
*D23
  1

  0
LINE
  5
1712
  8
SIZE
  6
CONTINUOUS
 62
     0
 10
404.49999999999989
 20
-1917.27283494992
 30
0.0
 11
718.95717699427769
 21
-1917.27283494992
 31
0.0
  0
LINE
  5
1713
  8
SIZE
  6
CONTINUOUS
 62
     0
 10
493.5
 20
-2062.2728349499198
 30
0.0
 11
718.95717699427769
 21
-2062.2728349499198
 31
0.0
  0
LINE
  5
1714
  8
SIZE
  6
CONTINUOUS
 62
     0
 10
688.95717699427769
 20
-1907.27283494992
 30
0.0
 11
688.95717699427769
 21
-1897.27283494992
 31
0.0
  0
LINE
  5
1715
  8
SIZE
  6
CONTINUOUS
 62
     0
 10
688.95717699427769
 20
-2072.2728349499198
 30
0.0
 11
688.95717699427769
 21
-2082.2728349499198
 31
0.0
  0
LINE
  5
1716
  8
SIZE
  6
CONTINUOUS
 62
     0
 10
688.95717699427769
 20
-1917.27283494992
 30
0.0
 11
688.95717699427769
 21
-2062.2728349499198
 31
0.0
  0
INSERT
  5
1717
  8
SIZE
  6
CONTINUOUS
 62
     0
  2
_ORIGIN
 10
688.95717699427769
 20
-1917.27283494992
 30
0.0
 41
10.0
 42
10.0
 43
10.0
 50
270.0
  0
INSERT
  5
1718
  8
SIZE
  6
CONTINUOUS
 62
     0
  2
_ORIGIN
 10
688.95717699427769
 20
-2062.2728349499198
 30
0.0
 41
10.0
 42
10.0
 43
10.0
 50
90.0
  0
TEXT
  5
1719
  8
DETAIL
  6
CONTINUOUS
 62
     0
 10
678.95717699427803
 20
-2058.3442635213501
 30
0.0
 40
64.0
  1
145
 50
90.0
 41
0.9
  0
POINT
  5
171A
  8
DEFPOINTS
  6
CONTINUOUS
 62
     0
 10
384.5
 20
-1917.27283494992
 30
0.0
  0
POINT
  5
171B
  8
DEFPOINTS
  6
CONTINUOUS
 62
     0
 10
473.5
 20
-2062.2728349499198
 30
0.0
  0
POINT
  5
171C
  8
DEFPOINTS
  6
CONTINUOUS
 62
     0
 10
688.95717699427769
 20
-2062.2728349499198
 30
0.0
  0
ENDBLK
  5
171D
  8
0
  0
BLOCK
  8
0
  2
*D24
 70
     1
 10
0.0
 20
0.0
 30
0.0
  3
*D24
  1

  0
LINE
  5
1720
  8
SIZE
  6
CONTINUOUS
 62
     0
 10
404.49999999999989
 20
-1917.27283494992
 30
0.0
 11
596.356736599089
 21
-1917.27283494992
 31
0.0
  0
LINE
  5
1721
  8
SIZE
  6
CONTINUOUS
 62
     0
 10
349.49999999999977
 20
-1941.27283494992
 30
0.0
 11
596.356736599089
 21
-1941.27283494992
 31
0.0
  0
LINE
  5
1722
  8
SIZE
  6
CONTINUOUS
 62
     0
 10
566.356736599089
 20
-1951.2728349499209
 30
0.0
 11
566.356736599089
 21
-1961.27283494992
 31
0.0
  0
LINE
  5
1723
  8
SIZE
  6
CONTINUOUS
 62
     0
 10
566.356736599089
 20
-1907.27283494992
 30
0.0
 11
566.35673659908912
 21
-1781.27283494992
 31
0.0
  0
LINE
  5
1724
  8
SIZE
  6
CONTINUOUS
 62
     0
 10
566.356736599089
 20
-1941.27283494992
 30
0.0
 11
566.356736599089
 21
-1917.27283494992
 31
0.0
  0
INSERT
  5
1725
  8
SIZE
  6
CONTINUOUS
 62
     0
  2
_ORIGIN
 10
566.356736599089
 20
-1941.27283494992
 30
0.0
 41
10.0
 42
10.0
 43
10.0
 50
90.0
  0
INSERT
  5
1726
  8
SIZE
  6
CONTINUOUS
 62
     0
  2
_ORIGIN
 10
566.356736599089
 20
-1917.27283494992
 30
0.0
 41
10.0
 42
10.0
 43
10.0
 50
270.0
  0
TEXT
  5
1727
  8
DETAIL
  6
CONTINUOUS
 62
     0
 10
556.35673659908923
 20
-1887.2728349499209
 30
0.0
 40
64.0
  1
24
 50
90.0
 41
0.9
  0
POINT
  5
1728
  8
DEFPOINTS
  6
CONTINUOUS
 62
     0
 10
384.5
 20
-1917.27283494992
 30
0.0
  0
POINT
  5
1729
  8
DEFPOINTS
  6
CONTINUOUS
 62
     0
 10
329.49999999999989
 20
-1941.27283494992
 30
0.0
  0
POINT
  5
172A
  8
DEFPOINTS
  6
CONTINUOUS
 62
     0
 10
566.356736599089
 20
-1941.27283494992
 30
0.0
  0
ENDBLK
  5
172B
  8
0
  0
BLOCK
  8
0
  2
*D25
 70
     1
 10
0.0
 20
0.0
 30
0.0
  3
*D25
  1

  0
LINE
  5
172E
  8
SIZE
  6
CONTINUOUS
 62
     0
 10
408.49999999999989
 20
-1812.27283494992
 30
0.0
 11
408.49999999999989
 21
-1711.2116758831901
 31
0.0
  0
LINE
  5
172F
  8
SIZE
  6
CONTINUOUS
 62
     0
 10
473.5
 20
-1812.27283494992
 30
0.0
 11
473.5
 21
-1711.2116758831901
 31
0.0
  0
LINE
  5
1730
  8
SIZE
  6
CONTINUOUS
 62
     0
 10
418.5
 20
-1741.2116758831901
 30
0.0
 11
463.5
 21
-1741.2116758831901
 31
0.0
  0
LINE
  5
1731
  8
SIZE
  6
CONTINUOUS
 62
     0
 10
473.5
 20
-1741.2116758831901
 30
0.0
 11
596.75714285714275
 21
-1741.2116758831901
 31
0.0
  0
INSERT
  5
1732
  8
SIZE
  6
CONTINUOUS
 62
     0
  2
_ORIGIN
 10
408.49999999999989
 20
-1741.2116758831901
 30
0.0
 41
10.0
 42
10.0
 43
10.0
 50
180.0
  0
INSERT
  5
1733
  8
SIZE
  6
CONTINUOUS
 62
     0
  2
_ORIGIN
 10
473.5
 20
-1741.2116758831901
 30
0.0
 41
10.0
 42
10.0
 43
10.0
  0
TEXT
  5
1734
  8
DETAIL
  6
CONTINUOUS
 62
     0
 10
493.5
 20
-1731.211675883191
 30
0.0
 40
64.0
  1
65
 41
0.9
  0
POINT
  5
1735
  8
DEFPOINTS
  6
CONTINUOUS
 62
     0
 10
408.49999999999989
 20
-1832.27283494992
 30
0.0
  0
POINT
  5
1736
  8
DEFPOINTS
  6
CONTINUOUS
 62
     0
 10
473.5
 20
-1832.27283494992
 30
0.0
  0
POINT
  5
1737
  8
DEFPOINTS
  6
CONTINUOUS
 62
     0
 10
473.5
 20
-1741.2116758831901
 30
0.0
  0
ENDBLK
  5
1738
  8
0
  0
BLOCK
  8
0
  2
*D26
 70
     1
 10
0.0
 20
0.0
 30
0.0
  3
*D26
  1

  0
LINE
  5
173B
  8
SIZE
  6
CONTINUOUS
 62
     0
 10
203.0
 20
11.999999999999091
 30
0.0
 11
203.0
 21
119.29936280888251
 31
0.0
  0
LINE
  5
173C
  8
SIZE
  6
CONTINUOUS
 62
     0
 10
-194.9999999999996
 20
11.999999999999091
 30
0.0
 11
-194.9999999999996
 21
119.29936280888251
 31
0.0
  0
LINE
  5
173D
  8
SIZE
  6
CONTINUOUS
 62
     0
 10
193.0
 20
89.299362808882506
 30
0.0
 11
-184.9999999999996
 21
89.299362808882506
 31
0.0
  0
INSERT
  5
173E
  8
SIZE
  6
CONTINUOUS
 62
     0
  2
_ORIGIN
 10
203.0
 20
89.299362808882506
 30
0.0
 41
10.0
 42
10.0
 43
10.0
  0
INSERT
  5
173F
  8
SIZE
  6
CONTINUOUS
 62
     0
  2
_ORIGIN
 10
-194.9999999999996
 20
89.299362808882506
 30
0.0
 41
10.0
 42
10.0
 43
10.0
 50
180.0
  0
TEXT
  5
1740
  8
0
 62
     0
 10
-124.0
 20
18.019400000000001
 30
0.0
 40
64.0
  1
398
  0
POINT
  5
1741
  8
DEFPOINTS
  6
CONTINUOUS
 62
     0
 10
203.0
 20
-8.0000000000009095
 30
0.0
  0
POINT
  5
1742
  8
DEFPOINTS
  6
CONTINUOUS
 62
     0
 10
-194.9999999999996
 20
-8.0000000000009095
 30
0.0
  0
POINT
  5
1743
  8
DEFPOINTS
  6
CONTINUOUS
 62
     0
 10
-194.9999999999996
 20
89.299362808882506
 30
0.0
  0
ENDBLK
  5
1744
  8
0
  0
BLOCK
  8
0
  2
*D27
 70
     1
 10
0.0
 20
0.0
 30
0.0
  3
*D27
  1

  0
LINE
  5
1747
  8
SIZE
  6
CONTINUOUS
 62
     0
 10
-225.0
 20
20.0
 30
0.0
 11
-224.99999999999989
 21
245.0126725075479
 31
0.0
  0
LINE
  5
1748
  8
SIZE
  6
CONTINUOUS
 62
     0
 10
225.0
 20
20.0
 30
0.0
 11
225.0
 21
245.0126725075479
 31
0.0
  0
LINE
  5
1749
  8
SIZE
  6
CONTINUOUS
 62
     0
 10
-215.0
 20
215.01267250754771
 30
0.0
 11
215.0
 21
215.01267250754771
 31
0.0
  0
INSERT
  5
174A
  8
SIZE
  6
CONTINUOUS
 62
     0
  2
_ORIGIN
 10
-225.0
 20
215.01267250754771
 30
0.0
 41
10.0
 42
10.0
 43
10.0
 50
180.0
  0
INSERT
  5
174B
  8
SIZE
  6
CONTINUOUS
 62
     0
  2
_ORIGIN
 10
225.0
 20
215.01267250754771
 30
0.0
 41
10.0
 42
10.0
 43
10.0
  0
TEXT
  5
174C
  8
0
 62
     0
 10
-128.0
 20
143.733
 30
0.0
 40
64.0
  1
450
  0
POINT
  5
174D
  8
DEFPOINTS
  6
CONTINUOUS
 62
     0
 10
-225.0
 20
0.0
 30
0.0
  0
POINT
  5
174E
  8
DEFPOINTS
  6
CONTINUOUS
 62
     0
 10
225.0
 20
0.0
 30
0.0
  0
POINT
  5
174F
  8
DEFPOINTS
  6
CONTINUOUS
 62
     0
 10
225.0
 20
215.01267250754771
 30
0.0
  0
ENDBLK
  5
1750
  8
0
  0
BLOCK
  8
0
  2
*D28
 70
     1
 10
0.0
 20
0.0
 30
0.0
  3
*D28
  1

  0
LINE
  5
1753
  8
SIZE
  6
CONTINUOUS
 62
     0
 10
225.0
 20
20.0
 30
0.0
 11
225.0
 21
244.98432904812751
 31
0.0
  0
LINE
  5
1754
  8
SIZE
  6
CONTINUOUS
 62
     0
 10
340.0
 20
9.9999999999993161
 30
0.0
 11
340.0
 21
244.98432904812751
 31
0.0
  0
LINE
  5
1755
  8
SIZE
  6
CONTINUOUS
 62
     0
 10
215.0
 20
214.98432904812759
 30
0.0
 11
205.0
 21
214.98432904812759
 31
0.0
  0
LINE
  5
1756
  8
SIZE
  6
CONTINUOUS
 62
     0
 10
350.0
 20
214.98432904812759
 30
0.0
 11
360.0
 21
214.98432904812759
 31
0.0
  0
LINE
  5
1757
  8
SIZE
  6
CONTINUOUS
 62
     0
 10
225.0
 20
214.98432904812759
 30
0.0
 11
340.0
 21
214.98432904812759
 31
0.0
  0
INSERT
  5
1758
  8
SIZE
  6
CONTINUOUS
 62
     0
  2
_ORIGIN
 10
225.0
 20
214.98432904812759
 30
0.0
 41
10.0
 42
10.0
 43
10.0
  0
INSERT
  5
1759
  8
SIZE
  6
CONTINUOUS
 62
     0
  2
_ORIGIN
 10
340.0
 20
214.98432904812759
 30
0.0
 41
10.0
 42
10.0
 43
10.0
 50
180.0
  0
TEXT
  5
175A
  8
0
 62
     0
 10
154.49999999999989
 20
143.70400000000001
 30
0.0
 40
64.0
  1
115
  0
POINT
  5
175B
  8
DEFPOINTS
  6
CONTINUOUS
 62
     0
 10
225.0
 20
0.0
 30
0.0
  0
POINT
  5
175C
  8
DEFPOINTS
  6
CONTINUOUS
 62
     0
 10
340.0
 20
-10.00000000000068
 30
0.0
  0
POINT
  5
175D
  8
DEFPOINTS
  6
CONTINUOUS
 62
     0
 10
340.0
 20
214.98432904812759
 30
0.0
  0
ENDBLK
  5
175E
  8
0
  0
BLOCK
  8
0
  2
*D29
 70
     1
 10
0.0
 20
0.0
 30
0.0
  3
*D29
  1

  0
LINE
  5
1761
  8
SIZE
  6
CONTINUOUS
 62
     0
 10
-225.0
 20
-250.0
 30
0.0
 11
-225.0
 21
-403.85644562218101
 31
0.0
  0
LINE
  5
1762
  8
SIZE
  6
CONTINUOUS
 62
     0
 10
96.0
 20
-149.00000000000051
 30
0.0
 11
95.999999999999986
 21
-403.85644562218101
 31
0.0
  0
LINE
  5
1763
  8
SIZE
  6
CONTINUOUS
 62
     0
 10
-215.0
 20
-373.85644562218101
 30
0.0
 11
85.999999999999986
 21
-373.85644562218101
 31
0.0
  0
INSERT
  5
1764
  8
SIZE
  6
CONTINUOUS
 62
     0
  2
_ORIGIN
 10
-225.0
 20
-373.85644562218101
 30
0.0
 41
10.0
 42
10.0
 43
10.0
 50
180.0
  0
INSERT
  5
1765
  8
SIZE
  6
CONTINUOUS
 62
     0
  2
_ORIGIN
 10
95.999999999999986
 20
-373.85644562218101
 30
0.0
 41
10.0
 42
10.0
 43
10.0
  0
TEXT
  5
1766
  8
0
 62
     0
 10
-192.5
 20
-445.13600000000002
 30
0.0
 40
64.0
  1
321
  0
POINT
  5
1767
  8
DEFPOINTS
  6
CONTINUOUS
 62
     0
 10
-225.0
 20
-230.0
 30
0.0
  0
POINT
  5
1768
  8
DEFPOINTS
  6
CONTINUOUS
 62
     0
 10
96.0
 20
-129.0000000000006
 30
0.0
  0
POINT
  5
1769
  8
DEFPOINTS
  6
CONTINUOUS
 62
     0
 10
95.999999999999986
 20
-373.85644562218101
 30
0.0
  0
ENDBLK
  5
176A
  8
0
  0
BLOCK
  8
0
  2
*D30
 70
     1
 10
0.0
 20
0.0
 30
0.0
  3
*D30
  1

  0
LINE
  5
176D
  8
SIZE
  6
CONTINUOUS
 62
     0
 10
-245.0
 20
-230.0
 30
0.0
 11
-489.03384356164122
 21
-229.9999999999998
 31
0.0
  0
LINE
  5
176E
  8
SIZE
  6
CONTINUOUS
 62
     0
 10
-238.99999999999969
 20
-28.000000000000892
 30
0.0
 11
-489.03384356164122
 21
-28.000000000000831
 31
0.0
  0
LINE
  5
176F
  8
SIZE
  6
CONTINUOUS
 62
     0
 10
-459.03384356164139
 20
-219.9999999999998
 30
0.0
 11
-459.03384356164122
 21
-38.000000000000838
 31
0.0
  0
INSERT
  5
1770
  8
SIZE
  6
CONTINUOUS
 62
     0
  2
_ORIGIN
 10
-459.03384356164139
 20
-229.9999999999998
 30
0.0
 41
10.0
 42
10.0
 43
10.0
 50
270.0
  0
INSERT
  5
1771
  8
SIZE
  6
CONTINUOUS
 62
     0
  2
_ORIGIN
 10
-459.03384356164122
 20
-28.000000000000838
 30
0.0
 41
10.0
 42
10.0
 43
10.0
 50
90.0
  0
TEXT
  5
1772
  8
0
 62
     0
 10
-629.03399999999999
 20
-240.63999999999999
 30
0.0
 40
64.0
  1
202
  0
POINT
  5
1773
  8
DEFPOINTS
  6
CONTINUOUS
 62
     0
 10
-225.0
 20
-230.0
 30
0.0
  0
POINT
  5
1774
  8
DEFPOINTS
  6
CONTINUOUS
 62
     0
 10
-218.9999999999996
 20
-28.000000000000909
 30
0.0
  0
POINT
  5
1775
  8
DEFPOINTS
  6
CONTINUOUS
 62
     0
 10
-459.03384356164122
 20
-28.000000000000838
 30
0.0
  0
ENDBLK
  5
1776
  8
0
  0
BLOCK
  8
0
  2
*D31
 70
     1
 10
0.0
 20
0.0
 30
0.0
  3
*D31
  1

  0
LINE
  5
1779
  8
SIZE
  6
CONTINUOUS
 62
     0
 10
135.9999999999998
 20
-85.000000000000696
 30
0.0
 11
481.7115656956683
 21
-85.000000000000782
 31
0.0
  0
LINE
  5
177A
  8
SIZE
  6
CONTINUOUS
 62
     0
 10
245.0
 20
-230.0
 30
0.0
 11
481.7115656956683
 21
-230.0
 31
0.0
  0
LINE
  5
177B
  8
SIZE
  6
CONTINUOUS
 62
     0
 10
451.71156569566853
 20
-95.000000000000753
 30
0.0
 11
451.71156569566841
 21
-220.0
 31
0.0
  0
INSERT
  5
177C
  8
SIZE
  6
CONTINUOUS
 62
     0
  2
_ORIGIN
 10
451.71156569566853
 20
-85.000000000000753
 30
0.0
 41
10.0
 42
10.0
 43
10.0
 50
90.0
  0
INSERT
  5
177D
  8
SIZE
  6
CONTINUOUS
 62
     0
  2
_ORIGIN
 10
451.71156569566841
 20
-230.0
 30
0.0
 41
10.0
 42
10.0
 43
10.0
 50
270.0
  0
TEXT
  5
177E
  8
0
 62
     0
 10
281.71199999999999
 20
-270.77999999999992
 30
0.0
 40
64.0
  1
145
  0
POINT
  5
177F
  8
DEFPOINTS
  6
CONTINUOUS
 62
     0
 10
116.0
 20
-85.000000000000696
 30
0.0
  0
POINT
  5
1780
  8
DEFPOINTS
  6
CONTINUOUS
 62
     0
 10
225.0
 20
-230.0
 30
0.0
  0
POINT
  5
1781
  8
DEFPOINTS
  6
CONTINUOUS
 62
     0
 10
451.71156569566841
 20
-230.0
 30
0.0
  0
ENDBLK
  5
1782
  8
0
  0
BLOCK
  8
0
  2
*D32
 70
     1
 10
0.0
 20
0.0
 30
0.0
  3
*D32
  1

  0
LINE
  5
1785
  8
SIZE
  6
CONTINUOUS
 62
     0
 10
135.9999999999998
 20
-85.000000000000696
 30
0.0
 11
364.99543790590718
 21
-85.000000000000753
 31
0.0
  0
LINE
  5
1786
  8
SIZE
  6
CONTINUOUS
 62
     0
 10
136.0
 20
-109.0000000000006
 30
0.0
 11
364.99543790590718
 21
-109.0000000000007
 31
0.0
  0
LINE
  5
1787
  8
SIZE
  6
CONTINUOUS
 62
     0
 10
334.99543790590718
 20
-75.000000000000753
 30
0.0
 11
334.99543790590718
 21
-65.000000000000739
 31
0.0
  0
LINE
  5
1788
  8
SIZE
  6
CONTINUOUS
 62
     0
 10
334.99543790590718
 20
-119.0000000000007
 30
0.0
 11
334.99543790590718
 21
-245.00000000000071
 31
0.0
  0
LINE
  5
1789
  8
SIZE
  6
CONTINUOUS
 62
     0
 10
334.99543790590718
 20
-85.000000000000753
 30
0.0
 11
334.99543790590718
 21
-109.0000000000007
 31
0.0
  0
INSERT
  5
178A
  8
SIZE
  6
CONTINUOUS
 62
     0
  2
_ORIGIN
 10
334.99543790590718
 20
-85.000000000000753
 30
0.0
 41
10.0
 42
10.0
 43
10.0
 50
270.0
  0
INSERT
  5
178B
  8
SIZE
  6
CONTINUOUS
 62
     0
  2
_ORIGIN
 10
334.99543790590718
 20
-109.0000000000007
 30
0.0
 41
10.0
 42
10.0
 43
10.0
 50
90.0
  0
TEXT
  5
178C
  8
0
 62
     0
 10
164.995
 20
-300.27999999999992
 30
0.0
 40
64.0
  1
24
  0
POINT
  5
178D
  8
DEFPOINTS
  6
CONTINUOUS
 62
     0
 10
116.0
 20
-85.000000000000696
 30
0.0
  0
POINT
  5
178E
  8
DEFPOINTS
  6
CONTINUOUS
 62
     0
 10
116.0
 20
-109.0000000000006
 30
0.0
  0
POINT
  5
178F
  8
DEFPOINTS
  6
CONTINUOUS
 62
     0
 10
334.99543790590718
 20
-109.0000000000007
 30
0.0
  0
ENDBLK
  5
1790
  8
0
  0
BLOCK
  8
0
  2
*D33
 70
     1
 10
0.0
 20
0.0
 30
0.0
  3
*D33
  1

  0
LINE
  5
1793
  8
SIZE
  6
CONTINUOUS
 62
     0
 10
380.0
 20
-30.000000000000689
 30
0.0
 11
609.06711153588356
 21
-30.00000000000075
 31
0.0
  0
LINE
  5
1794
  8
SIZE
  6
CONTINUOUS
 62
     0
 10
245.0
 20
-230.0
 30
0.0
 11
609.06711153588356
 21
-230.0
 31
0.0
  0
LINE
  5
1795
  8
SIZE
  6
CONTINUOUS
 62
     0
 10
579.06711153588356
 20
-40.000000000000732
 30
0.0
 11
579.06711153588356
 21
-220.00000000000011
 31
0.0
  0
INSERT
  5
1796
  8
SIZE
  6
CONTINUOUS
 62
     0
  2
_ORIGIN
 10
579.06711153588356
 20
-30.000000000000728
 30
0.0
 41
10.0
 42
10.0
 43
10.0
 50
90.0
  0
INSERT
  5
1797
  8
SIZE
  6
CONTINUOUS
 62
     0
  2
_ORIGIN
 10
579.06711153588356
 20
-230.0
 30
0.0
 41
10.0
 42
10.0
 43
10.0
 50
270.0
  0
TEXT
  5
1798
  8
0
 62
     0
 10
409.06699999999989
 20
-243.27999999999989
 30
0.0
 40
64.0
  1
200
  0
POINT
  5
1799
  8
DEFPOINTS
  6
CONTINUOUS
 62
     0
 10
360.0
 20
-30.000000000000679
 30
0.0
  0
POINT
  5
179A
  8
DEFPOINTS
  6
CONTINUOUS
 62
     0
 10
225.0
 20
-230.0
 30
0.0
  0
POINT
  5
179B
  8
DEFPOINTS
  6
CONTINUOUS
 62
     0
 10
579.06711153588356
 20
-230.0
 30
0.0
  0
ENDBLK
  5
179C
  8
0
  0
BLOCK
  8
0
  2
*D34
 70
     1
 10
0.0
 20
0.0
 30
0.0
  3
*D34
  1

  0
LINE
  5
179F
  8
SIZE
  6
CONTINUOUS
 62
     0
 10
4701.0308503800952
 20
-1820.27283494992
 30
0.0
 11
4701.0308503800952
 21
-1624.945334817304
 31
0.0
  0
LINE
  5
17A0
  8
SIZE
  6
CONTINUOUS
 62
     0
 10
3924.0308503800952
 20
-1820.27283494992
 30
0.0
 11
3924.0308503800952
 21
-1624.945334817304
 31
0.0
  0
LINE
  5
17A1
  8
SIZE
  6
CONTINUOUS
 62
     0
 10
4691.0308503800952
 20
-1654.945334817304
 30
0.0
 11
3934.0308503800952
 21
-1654.945334817304
 31
0.0
  0
INSERT
  5
17A2
  8
SIZE
  6
CONTINUOUS
 62
     0
  2
_ORIGIN
 10
4701.0308503800952
 20
-1654.945334817304
 30
0.0
 41
10.0
 42
10.0
 43
10.0
  0
INSERT
  5
17A3
  8
SIZE
  6
CONTINUOUS
 62
     0
  2
_ORIGIN
 10
3924.0308503800952
 20
-1654.945334817304
 30
0.0
 41
10.0
 42
10.0
 43
10.0
 50
180.0
  0
TEXT
  5
17A4
  8
DETAIL
  6
CONTINUOUS
 62
     0
 10
4238.4737075229523
 20
-1644.945334817304
 30
0.0
 40
64.0
  1
777
 41
0.9
  0
POINT
  5
17A5
  8
DEFPOINTS
  6
CONTINUOUS
 62
     0
 10
4701.0308503800952
 20
-1840.27283494992
 30
0.0
  0
POINT
  5
17A6
  8
DEFPOINTS
  6
CONTINUOUS
 62
     0
 10
3924.0308503800952
 20
-1840.27283494992
 30
0.0
  0
POINT
  5
17A7
  8
DEFPOINTS
  6
CONTINUOUS
 62
     0
 10
3924.0308503800952
 20
-1654.945334817304
 30
0.0
  0
ENDBLK
  5
17A8
  8
0
  0
BLOCK
  8
0
  2
*D35
 70
     1
 10
0.0
 20
0.0
 30
0.0
  3
*D35
  1

  0
LINE
  5
17AB
  8
SIZE
  6
CONTINUOUS
 62
     0
 10
4721.0308503800952
 20
-1835.27283494992
 30
0.0
 11
4721.0308503800952
 21
-1625.08991143923
 31
0.0
  0
LINE
  5
17AC
  8
SIZE
  6
CONTINUOUS
 62
     0
 10
4701.0308503800952
 20
-1820.27283494992
 30
0.0
 11
4701.0308503800952
 21
-1625.08991143923
 31
0.0
  0
LINE
  5
17AD
  8
SIZE
  6
CONTINUOUS
 62
     0
 10
4691.0308503800952
 20
-1655.08991143923
 30
0.0
 11
4681.0308503800952
 21
-1655.08991143923
 31
0.0
  0
LINE
  5
17AE
  8
SIZE
  6
CONTINUOUS
 62
     0
 10
4731.0308503800952
 20
-1655.08991143923
 30
0.0
 11
4854.287993237238
 21
-1655.08991143923
 31
0.0
  0
LINE
  5
17AF
  8
SIZE
  6
CONTINUOUS
 62
     0
 10
4701.0308503800952
 20
-1655.08991143923
 30
0.0
 11
4721.0308503800952
 21
-1655.08991143923
 31
0.0
  0
INSERT
  5
17B0
  8
SIZE
  6
CONTINUOUS
 62
     0
  2
_ORIGIN
 10
4701.0308503800952
 20
-1655.08991143923
 30
0.0
 41
10.0
 42
10.0
 43
10.0
  0
INSERT
  5
17B1
  8
SIZE
  6
CONTINUOUS
 62
     0
  2
_ORIGIN
 10
4721.0308503800952
 20
-1655.08991143923
 30
0.0
 41
10.0
 42
10.0
 43
10.0
 50
180.0
  0
TEXT
  5
17B2
  8
DETAIL
  6
CONTINUOUS
 62
     0
 10
4751.0308503800952
 20
-1645.08991143923
 30
0.0
 40
64.0
  1
20
 41
0.9
  0
POINT
  5
17B3
  8
DEFPOINTS
  6
CONTINUOUS
 62
     0
 10
4721.0308503800952
 20
-1855.2728349499209
 30
0.0
  0
POINT
  5
17B4
  8
DEFPOINTS
  6
CONTINUOUS
 62
     0
 10
4701.0308503800952
 20
-1840.27283494992
 30
0.0
  0
POINT
  5
17B5
  8
DEFPOINTS
  6
CONTINUOUS
 62
     0
 10
4701.0308503800952
 20
-1655.08991143923
 30
0.0
  0
ENDBLK
  5
17B6
  8
0
  0
BLOCK
  8
0
  2
*D36
 70
     1
 10
0.0
 20
0.0
 30
0.0
  3
*D36
  1

  0
LINE
  5
17B9
  8
SIZE
  6
CONTINUOUS
 62
     0
 10
3924.0308503800952
 20
-1820.27283494992
 30
0.0
 11
3924.0308503800952
 21
-1625.0200156491981
 31
0.0
  0
LINE
  5
17BA
  8
SIZE
  6
CONTINUOUS
 62
     0
 10
3904.0308503800952
 20
-1812.27283494992
 30
0.0
 11
3904.0308503800952
 21
-1625.0200156491981
 31
0.0
  0
LINE
  5
17BB
  8
SIZE
  6
CONTINUOUS
 62
     0
 10
3934.0308503800952
 20
-1655.0200156491981
 30
0.0
 11
3944.0308503800952
 21
-1655.0200156491981
 31
0.0
  0
LINE
  5
17BC
  8
SIZE
  6
CONTINUOUS
 62
     0
 10
3894.0308503800952
 20
-1655.0200156491981
 30
0.0
 11
3770.773707522952
 21
-1655.0200156491981
 31
0.0
  0
LINE
  5
17BD
  8
SIZE
  6
CONTINUOUS
 62
     0
 10
3924.0308503800952
 20
-1655.0200156491981
 30
0.0
 11
3904.0308503800952
 21
-1655.0200156491981
 31
0.0
  0
INSERT
  5
17BE
  8
SIZE
  6
CONTINUOUS
 62
     0
  2
_ORIGIN
 10
3924.0308503800952
 20
-1655.0200156491981
 30
0.0
 41
10.0
 42
10.0
 43
10.0
 50
180.0
  0
INSERT
  5
17BF
  8
SIZE
  6
CONTINUOUS
 62
     0
  2
_ORIGIN
 10
3904.0308503800952
 20
-1655.0200156491981
 30
0.0
 41
10.0
 42
10.0
 43
10.0
  0
TEXT
  5
17C0
  8
DETAIL
  6
CONTINUOUS
 62
     0
 10
3780.773707522952
 20
-1645.020015649199
 30
0.0
 40
64.0
  1
20
 41
0.9
  0
POINT
  5
17C1
  8
DEFPOINTS
  6
CONTINUOUS
 62
     0
 10
3924.0308503800952
 20
-1840.27283494992
 30
0.0
  0
POINT
  5
17C2
  8
DEFPOINTS
  6
CONTINUOUS
 62
     0
 10
3904.0308503800952
 20
-1832.27283494992
 30
0.0
  0
POINT
  5
17C3
  8
DEFPOINTS
  6
CONTINUOUS
 62
     0
 10
3904.0308503800952
 20
-1655.0200156491981
 30
0.0
  0
ENDBLK
  5
17C4
  8
0
  0
BLOCK
  8
0
  2
*D37
 70
     1
 10
0.0
 20
0.0
 30
0.0
  3
*D37
  1

  0
LINE
  5
17C7
  8
SIZE
  6
CONTINUOUS
 62
     0
 10
4741.0308503800952
 20
-1860.27283494992
 30
0.0
 11
4812.8926176681898
 21
-1860.27283494992
 31
0.0
  0
LINE
  5
17C8
  8
SIZE
  6
CONTINUOUS
 62
     0
 10
4694.0308503800952
 20
-2062.2728349499198
 30
0.0
 11
4812.8926176681889
 21
-2062.2728349499198
 31
0.0
  0
LINE
  5
17C9
  8
SIZE
  6
CONTINUOUS
 62
     0
 10
4782.892617668188
 20
-1870.27283494992
 30
0.0
 11
4782.892617668188
 21
-2052.2728349499198
 31
0.0
  0
INSERT
  5
17CA
  8
SIZE
  6
CONTINUOUS
 62
     0
  2
_ORIGIN
 10
4782.892617668188
 20
-1860.27283494992
 30
0.0
 41
10.0
 42
10.0
 43
10.0
 50
90.0
  0
INSERT
  5
17CB
  8
SIZE
  6
CONTINUOUS
 62
     0
  2
_ORIGIN
 10
4782.892617668188
 20
-2062.2728349499198
 30
0.0
 41
10.0
 42
10.0
 43
10.0
 50
270.0
  0
TEXT
  5
17CC
  8
DETAIL
  6
CONTINUOUS
 62
     0
 10
4772.8926176681898
 20
-2035.329977807063
 30
0.0
 40
64.0
  1
202
 50
90.0
 41
0.9
  0
POINT
  5
17CD
  8
DEFPOINTS
  6
CONTINUOUS
 62
     0
 10
4721.0308503800952
 20
-1860.27283494992
 30
0.0
  0
POINT
  5
17CE
  8
DEFPOINTS
  6
CONTINUOUS
 62
     0
 10
4674.0308503800952
 20
-2062.2728349499198
 30
0.0
  0
POINT
  5
17CF
  8
DEFPOINTS
  6
CONTINUOUS
 62
     0
 10
4782.892617668188
 20
-2062.2728349499198
 30
0.0
  0
ENDBLK
  5
17D0
  8
0
  0
BLOCK
  8
0
  2
*D38
 70
     1
 10
0.0
 20
0.0
 30
0.0
  3
*D38
  1

  0
LINE
  5
17D3
  8
SIZE
  6
CONTINUOUS
 62
     0
 10
4694.0308503800952
 20
-1832.27283494992
 30
0.0
 11
4936.466172519762
 21
-1832.27283494992
 31
0.0
  0
LINE
  5
17D4
  8
SIZE
  6
CONTINUOUS
 62
     0
 10
4694.0308503800952
 20
-2062.2728349499198
 30
0.0
 11
4936.466172519762
 21
-2062.2728349499198
 31
0.0
  0
LINE
  5
17D5
  8
SIZE
  6
CONTINUOUS
 62
     0
 10
4906.466172519762
 20
-1842.27283494992
 30
0.0
 11
4906.466172519762
 21
-2052.2728349499198
 31
0.0
  0
INSERT
  5
17D6
  8
SIZE
  6
CONTINUOUS
 62
     0
  2
_ORIGIN
 10
4906.466172519762
 20
-1832.27283494992
 30
0.0
 41
10.0
 42
10.0
 43
10.0
 50
90.0
  0
INSERT
  5
17D7
  8
SIZE
  6
CONTINUOUS
 62
     0
  2
_ORIGIN
 10
4906.466172519762
 20
-2062.2728349499198
 30
0.0
 41
10.0
 42
10.0
 43
10.0
 50
270.0
  0
TEXT
  5
17D8
  8
DETAIL
  6
CONTINUOUS
 62
     0
 10
4896.466172519762
 20
-2021.329977807063
 30
0.0
 40
64.0
  1
230
 50
90.0
 41
0.9
  0
POINT
  5
17D9
  8
DEFPOINTS
  6
CONTINUOUS
 62
     0
 10
4674.0308503800952
 20
-1832.27283494992
 30
0.0
  0
POINT
  5
17DA
  8
DEFPOINTS
  6
CONTINUOUS
 62
     0
 10
4674.0308503800952
 20
-2062.2728349499198
 30
0.0
  0
POINT
  5
17DB
  8
DEFPOINTS
  6
CONTINUOUS
 62
     0
 10
4906.466172519762
 20
-2062.2728349499198
 30
0.0
  0
ENDBLK
  5
17DC
  8
0
  0
BLOCK
  8
0
  2
*D39
 70
     1
 10
0.0
 20
0.0
 30
0.0
  3
*D39
  1

  0
LINE
  5
17DF
  8
SIZE
  6
CONTINUOUS
 62
     0
 10
3908.0308503800952
 20
-1917.27283494992
 30
0.0
 11
3593.5736733858171
 21
-1917.27283494992
 31
0.0
  0
LINE
  5
17E0
  8
SIZE
  6
CONTINUOUS
 62
     0
 10
3819.0308503800952
 20
-2062.2728349499198
 30
0.0
 11
3593.5736733858171
 21
-2062.2728349499198
 31
0.0
  0
LINE
  5
17E1
  8
SIZE
  6
CONTINUOUS
 62
     0
 10
3623.5736733858162
 20
-1907.27283494992
 30
0.0
 11
3623.5736733858162
 21
-1897.27283494992
 31
0.0
  0
LINE
  5
17E2
  8
SIZE
  6
CONTINUOUS
 62
     0
 10
3623.5736733858162
 20
-2072.2728349499198
 30
0.0
 11
3623.5736733858162
 21
-2082.2728349499198
 31
0.0
  0
LINE
  5
17E3
  8
SIZE
  6
CONTINUOUS
 62
     0
 10
3623.5736733858162
 20
-1917.27283494992
 30
0.0
 11
3623.5736733858162
 21
-2062.2728349499198
 31
0.0
  0
INSERT
  5
17E4
  8
SIZE
  6
CONTINUOUS
 62
     0
  2
_ORIGIN
 10
3623.5736733858162
 20
-1917.27283494992
 30
0.0
 41
10.0
 42
10.0
 43
10.0
 50
270.0
  0
INSERT
  5
17E5
  8
SIZE
  6
CONTINUOUS
 62
     0
  2
_ORIGIN
 10
3623.5736733858162
 20
-2062.2728349499198
 30
0.0
 41
10.0
 42
10.0
 43
10.0
 50
90.0
  0
TEXT
  5
17E6
  8
DETAIL
  6
CONTINUOUS
 62
     0
 10
3613.573673385818
 20
-2058.3442635213478
 30
0.0
 40
64.0
  1
145
 50
90.0
 41
0.9
  0
POINT
  5
17E7
  8
DEFPOINTS
  6
CONTINUOUS
 62
     0
 10
3928.0308503800952
 20
-1917.27283494992
 30
0.0
  0
POINT
  5
17E8
  8
DEFPOINTS
  6
CONTINUOUS
 62
     0
 10
3839.0308503800952
 20
-2062.2728349499198
 30
0.0
  0
POINT
  5
17E9
  8
DEFPOINTS
  6
CONTINUOUS
 62
     0
 10
3623.5736733858162
 20
-2062.2728349499198
 30
0.0
  0
ENDBLK
  5
17EA
  8
0
  0
BLOCK
  8
0
  2
*D40
 70
     1
 10
0.0
 20
0.0
 30
0.0
  3
*D40
  1

  0
LINE
  5
17ED
  8
SIZE
  6
CONTINUOUS
 62
     0
 10
3908.0308503800952
 20
-1917.27283494992
 30
0.0
 11
3718.5261211964812
 21
-1917.27283494992
 31
0.0
  0
LINE
  5
17EE
  8
SIZE
  6
CONTINUOUS
 62
     0
 10
3963.0308503800952
 20
-1941.27283494992
 30
0.0
 11
3718.5261211964812
 21
-1941.27283494992
 31
0.0
  0
LINE
  5
17EF
  8
SIZE
  6
CONTINUOUS
 62
     0
 10
3748.5261211964812
 20
-1907.27283494992
 30
0.0
 11
3748.5261211964812
 21
-1897.27283494992
 31
0.0
  0
LINE
  5
17F0
  8
SIZE
  6
CONTINUOUS
 62
     0
 10
3748.5261211964812
 20
-1951.2728349499209
 30
0.0
 11
3748.5261211964812
 21
-2077.2728349499198
 31
0.0
  0
LINE
  5
17F1
  8
SIZE
  6
CONTINUOUS
 62
     0
 10
3748.5261211964812
 20
-1917.27283494992
 30
0.0
 11
3748.5261211964812
 21
-1941.27283494992
 31
0.0
  0
INSERT
  5
17F2
  8
SIZE
  6
CONTINUOUS
 62
     0
  2
_ORIGIN
 10
3748.5261211964812
 20
-1917.27283494992
 30
0.0
 41
10.0
 42
10.0
 43
10.0
 50
270.0
  0
INSERT
  5
17F3
  8
SIZE
  6
CONTINUOUS
 62
     0
  2
_ORIGIN
 10
3748.5261211964812
 20
-1941.27283494992
 30
0.0
 41
10.0
 42
10.0
 43
10.0
 50
90.0
  0
TEXT
  5
17F4
  8
DETAIL
  6
CONTINUOUS
 62
     0
 10
3738.5261211964812
 20
-2067.2728349499198
 30
0.0
 40
64.0
  1
24
 50
90.0
 41
0.9
  0
POINT
  5
17F5
  8
DEFPOINTS
  6
CONTINUOUS
 62
     0
 10
3928.0308503800952
 20
-1917.27283494992
 30
0.0
  0
POINT
  5
17F6
  8
DEFPOINTS
  6
CONTINUOUS
 62
     0
 10
3983.0308503800929
 20
-1941.27283494992
 30
0.0
  0
POINT
  5
17F7
  8
DEFPOINTS
  6
CONTINUOUS
 62
     0
 10
3748.5261211964812
 20
-1941.27283494992
 30
0.0
  0
ENDBLK
  5
17F8
  8
0
  0
BLOCK
  8
0
  2
*D41
 70
     1
 10
0.0
 20
0.0
 30
0.0
  3
*D41
  1

  0
LINE
  5
17FB
  8
SIZE
  6
CONTINUOUS
 62
     0
 10
3904.0308503800952
 20
-1812.27283494992
 30
0.0
 11
3904.0308503800952
 21
-1711.2116758831901
 31
0.0
  0
LINE
  5
17FC
  8
SIZE
  6
CONTINUOUS
 62
     0
 10
3839.0308503800952
 20
-1812.27283494992
 30
0.0
 11
3839.0308503800952
 21
-1711.2116758831901
 31
0.0
  0
LINE
  5
17FD
  8
SIZE
  6
CONTINUOUS
 62
     0
 10
3894.0308503800952
 20
-1741.2116758831901
 30
0.0
 11
3849.0308503800952
 21
-1741.2116758831901
 31
0.0
  0
LINE
  5
17FE
  8
SIZE
  6
CONTINUOUS
 62
     0
 10
3839.0308503800952
 20
-1741.2116758831901
 30
0.0
 11
3715.773707522952
 21
-1741.2116758831901
 31
0.0
  0
INSERT
  5
17FF
  8
SIZE
  6
CONTINUOUS
 62
     0
  2
_ORIGIN
 10
3904.0308503800952
 20
-1741.2116758831901
 30
0.0
 41
10.0
 42
10.0
 43
10.0
  0
INSERT
  5
1800
  8
SIZE
  6
CONTINUOUS
 62
     0
  2
_ORIGIN
 10
3839.0308503800952
 20
-1741.2116758831901
 30
0.0
 41
10.0
 42
10.0
 43
10.0
 50
180.0
  0
TEXT
  5
1801
  8
DETAIL
  6
CONTINUOUS
 62
     0
 10
3725.773707522952
 20
-1731.211675883191
 30
0.0
 40
64.0
  1
65
 41
0.9
  0
POINT
  5
1802
  8
DEFPOINTS
  6
CONTINUOUS
 62
     0
 10
3904.0308503800952
 20
-1832.27283494992
 30
0.0
  0
POINT
  5
1803
  8
DEFPOINTS
  6
CONTINUOUS
 62
     0
 10
3839.0308503800952
 20
-1832.27283494992
 30
0.0
  0
POINT
  5
1804
  8
DEFPOINTS
  6
CONTINUOUS
 62
     0
 10
3839.0308503800952
 20
-1741.2116758831901
 30
0.0
  0
ENDBLK
  5
1805
  8
0
  0
BLOCK
  8
0
  2
*D42
 70
     1
 10
0.0
 20
0.0
 30
0.0
  3
*D42
  1

  0
LINE
  5
1808
  8
SIZE
  6
CONTINUOUS
 62
     0
 10
3904.0308503800952
 20
-1812.27283494992
 30
0.0
 11
3904.0308503800952
 21
-1711.3632494692899
 31
0.0
  0
LINE
  5
1809
  8
SIZE
  6
CONTINUOUS
 62
     0
 10
4004.0308503800952
 20
-1822.2728349499209
 30
0.0
 11
4004.0308503800952
 21
-1711.3632494692899
 31
0.0
  0
LINE
  5
180A
  8
SIZE
  6
CONTINUOUS
 62
     0
 10
3914.0308503800952
 20
-1741.3632494692899
 30
0.0
 11
3994.0308503800952
 21
-1741.3632494692899
 31
0.0
  0
INSERT
  5
180B
  8
SIZE
  6
CONTINUOUS
 62
     0
  2
_ORIGIN
 10
3904.0308503800952
 20
-1741.3632494692899
 30
0.0
 41
10.0
 42
10.0
 43
10.0
 50
180.0
  0
INSERT
  5
180C
  8
SIZE
  6
CONTINUOUS
 62
     0
  2
_ORIGIN
 10
4004.0308503800952
 20
-1741.3632494692899
 30
0.0
 41
10.0
 42
10.0
 43
10.0
  0
TEXT
  5
180D
  8
DETAIL
  6
CONTINUOUS
 62
     0
 10
3918.1455957313328
 20
-1731.3632494692899
 30
0.0
 40
64.0
  1
100
 41
0.9
  0
POINT
  5
180E
  8
DEFPOINTS
  6
CONTINUOUS
 62
     0
 10
3904.0308503800952
 20
-1832.27283494992
 30
0.0
  0
POINT
  5
180F
  8
DEFPOINTS
  6
CONTINUOUS
 62
     0
 10
4004.0308503800952
 20
-1842.2728349499221
 30
0.0
  0
POINT
  5
1810
  8
DEFPOINTS
  6
CONTINUOUS
 62
     0
 10
4004.0308503800952
 20
-1741.3632494692899
 30
0.0
  0
ENDBLK
  5
1811
  8
0
  0
BLOCK
  8
0
  2
*D43
 70
     1
 10
0.0
 20
0.0
 30
0.0
  3
*D43
  1

  0
LINE
  5
1814
  8
SIZE
  6
CONTINUOUS
 62
     0
 10
3964.0308503800952
 20
-1862.2728349499209
 30
0.0
 11
3478.3684089525191
 21
-1862.2728349499209
 31
0.0
  0
LINE
  5
1815
  8
SIZE
  6
CONTINUOUS
 62
     0
 10
3819.0308503800952
 20
-2062.2728349499198
 30
0.0
 11
3478.3684089525191
 21
-2062.2728349499198
 31
0.0
  0
LINE
  5
1816
  8
SIZE
  6
CONTINUOUS
 62
     0
 10
3508.36840895252
 20
-1872.2728349499209
 30
0.0
 11
3508.36840895252
 21
-2052.2728349499198
 31
0.0
  0
INSERT
  5
1817
  8
SIZE
  6
CONTINUOUS
 62
     0
  2
_ORIGIN
 10
3508.36840895252
 20
-1862.2728349499209
 30
0.0
 41
10.0
 42
10.0
 43
10.0
 50
90.0
  0
INSERT
  5
1818
  8
SIZE
  6
CONTINUOUS
 62
     0
  2
_ORIGIN
 10
3508.36840895252
 20
-2062.2728349499198
 30
0.0
 41
10.0
 42
10.0
 43
10.0
 50
270.0
  0
TEXT
  5
1819
  8
DETAIL
  6
CONTINUOUS
 62
     0
 10
3498.3684089525191
 20
-2036.3299778070641
 30
0.0
 40
64.0
  1
200
 50
90.0
 41
0.9
  0
POINT
  5
181A
  8
DEFPOINTS
  6
CONTINUOUS
 62
     0
 10
3984.0308503800952
 20
-1862.2728349499209
 30
0.0
  0
POINT
  5
181B
  8
DEFPOINTS
  6
CONTINUOUS
 62
     0
 10
3839.0308503800952
 20
-2062.2728349499198
 30
0.0
  0
POINT
  5
181C
  8
DEFPOINTS
  6
CONTINUOUS
 62
     0
 10
3508.36840895252
 20
-2062.2728349499198
 30
0.0
  0
ENDBLK
  5
181D
  8
0
  0
BLOCK
  8
0
  2
*D44
 70
     1
 10
0.0
 20
0.0
 30
0.0
  3
*D44
  1

  0
LINE
  5
1820
  8
SIZE
  6
CONTINUOUS
 62
     0
 10
-2359.2654251900472
 20
-1820.27283494992
 30
0.0
 11
-2359.2654251900472
 21
-1712.973472141038
 31
0.0
  0
LINE
  5
1821
  8
SIZE
  6
CONTINUOUS
 62
     0
 10
-1961.2654251900481
 20
-1820.27283494992
 30
0.0
 11
-1961.2654251900481
 21
-1712.973472141038
 31
0.0
  0
LINE
  5
1822
  8
SIZE
  6
CONTINUOUS
 62
     0
 10
-2349.2654251900472
 20
-1742.973472141038
 30
0.0
 11
-1971.265425190046
 21
-1742.973472141038
 31
0.0
  0
INSERT
  5
1823
  8
SIZE
  6
CONTINUOUS
 62
     0
  2
_ORIGIN
 10
-2359.2654251900472
 20
-1742.973472141038
 30
0.0
 41
10.0
 42
10.0
 43
10.0
 50
180.0
  0
INSERT
  5
1824
  8
SIZE
  6
CONTINUOUS
 62
     0
  2
_ORIGIN
 10
-1961.2654251900481
 20
-1742.973472141038
 30
0.0
 41
10.0
 42
10.0
 43
10.0
  0
TEXT
  5
1825
  8
DETAIL
  6
CONTINUOUS
 62
     0
 10
-2234.3225680471892
 20
-1732.9734721410371
 30
0.0
 40
64.0
  1
398
 41
0.9
  0
POINT
  5
1826
  8
DEFPOINTS
  6
CONTINUOUS
 62
     0
 10
-2359.2654251900472
 20
-1840.27283494992
 30
0.0
  0
POINT
  5
1827
  8
DEFPOINTS
  6
CONTINUOUS
 62
     0
 10
-1961.2654251900481
 20
-1840.27283494992
 30
0.0
  0
POINT
  5
1828
  8
DEFPOINTS
  6
CONTINUOUS
 62
     0
 10
-1961.2654251900481
 20
-1742.973472141038
 30
0.0
  0
ENDBLK
  5
1829
  8
0
  0
BLOCK
  8
0
  2
*D45
 70
     1
 10
0.0
 20
0.0
 30
0.0
  3
*D45
  1

  0
LINE
  5
182C
  8
SIZE
  6
CONTINUOUS
 62
     0
 10
-1931.265425190046
 20
-1812.27283494992
 30
0.0
 11
-1931.265425190046
 21
-1587.260162442373
 31
0.0
  0
LINE
  5
182D
  8
SIZE
  6
CONTINUOUS
 62
     0
 10
-2381.2654251900472
 20
-1812.27283494992
 30
0.0
 11
-2381.2654251900472
 21
-1587.260162442373
 31
0.0
  0
LINE
  5
182E
  8
SIZE
  6
CONTINUOUS
 62
     0
 10
-1941.265425190046
 20
-1617.260162442373
 30
0.0
 11
-2371.2654251900472
 21
-1617.260162442373
 31
0.0
  0
INSERT
  5
182F
  8
SIZE
  6
CONTINUOUS
 62
     0
  2
_ORIGIN
 10
-1931.265425190046
 20
-1617.260162442373
 30
0.0
 41
10.0
 42
10.0
 43
10.0
  0
INSERT
  5
1830
  8
SIZE
  6
CONTINUOUS
 62
     0
  2
_ORIGIN
 10
-2381.2654251900472
 20
-1617.260162442373
 30
0.0
 41
10.0
 42
10.0
 43
10.0
 50
180.0
  0
TEXT
  5
1831
  8
DETAIL
  6
CONTINUOUS
 62
     0
 10
-2230.3225680471901
 20
-1607.260162442373
 30
0.0
 40
64.0
  1
450
 41
0.9
  0
POINT
  5
1832
  8
DEFPOINTS
  6
CONTINUOUS
 62
     0
 10
-1931.265425190046
 20
-1832.27283494992
 30
0.0
  0
POINT
  5
1833
  8
DEFPOINTS
  6
CONTINUOUS
 62
     0
 10
-2381.2654251900472
 20
-1832.27283494992
 30
0.0
  0
POINT
  5
1834
  8
DEFPOINTS
  6
CONTINUOUS
 62
     0
 10
-2381.2654251900472
 20
-1617.260162442373
 30
0.0
  0
ENDBLK
  5
1835
  8
0
  0
BLOCK
  8
0
  2
*D46
 70
     1
 10
0.0
 20
0.0
 30
0.0
  3
*D46
  1

  0
LINE
  5
1838
  8
SIZE
  6
CONTINUOUS
 62
     0
 10
-2381.2654251900472
 20
-1812.27283494992
 30
0.0
 11
-2381.2654251900472
 21
-1587.2885059017931
 31
0.0
  0
LINE
  5
1839
  8
SIZE
  6
CONTINUOUS
 62
     0
 10
-2496.2654251900472
 20
-1822.27283494992
 30
0.0
 11
-2496.2654251900472
 21
-1587.2885059017931
 31
0.0
  0
LINE
  5
183A
  8
SIZE
  6
CONTINUOUS
 62
     0
 10
-2371.2654251900472
 20
-1617.2885059017931
 30
0.0
 11
-2361.2654251900472
 21
-1617.2885059017931
 31
0.0
  0
LINE
  5
183B
  8
SIZE
  6
CONTINUOUS
 62
     0
 10
-2506.2654251900472
 20
-1617.2885059017931
 30
0.0
 11
-2516.2654251900472
 21
-1617.2885059017931
 31
0.0
  0
LINE
  5
183C
  8
SIZE
  6
CONTINUOUS
 62
     0
 10
-2381.2654251900472
 20
-1617.2885059017931
 30
0.0
 11
-2496.2654251900472
 21
-1617.2885059017931
 31
0.0
  0
INSERT
  5
183D
  8
SIZE
  6
CONTINUOUS
 62
     0
  2
_ORIGIN
 10
-2381.2654251900472
 20
-1617.2885059017931
 30
0.0
 41
10.0
 42
10.0
 43
10.0
 50
180.0
  0
INSERT
  5
183E
  8
SIZE
  6
CONTINUOUS
 62
     0
  2
_ORIGIN
 10
-2496.2654251900472
 20
-1617.2885059017931
 30
0.0
 41
10.0
 42
10.0
 43
10.0
  0
TEXT
  5
183F
  8
DETAIL
  6
CONTINUOUS
 62
     0
 10
-2501.851139475762
 20
-1607.2885059017931
 30
0.0
 40
64.0
  1
115
 41
0.9
  0
POINT
  5
1840
  8
DEFPOINTS
  6
CONTINUOUS
 62
     0
 10
-2381.2654251900472
 20
-1832.27283494992
 30
0.0
  0
POINT
  5
1841
  8
DEFPOINTS
  6
CONTINUOUS
 62
     0
 10
-2496.2654251900472
 20
-1842.2728349499221
 30
0.0
  0
POINT
  5
1842
  8
DEFPOINTS
  6
CONTINUOUS
 62
     0
 10
-2496.2654251900472
 20
-1617.2885059017931
 30
0.0
  0
ENDBLK
  5
1843
  8
0
  0
BLOCK
  8
0
  2
*D47
 70
     1
 10
0.0
 20
0.0
 30
0.0
  3
*D47
  1

  0
LINE
  5
1846
  8
SIZE
  6
CONTINUOUS
 62
     0
 10
-1931.265425190046
 20
-2082.2728349499198
 30
0.0
 11
-1931.265425190046
 21
-2236.1292805721009
 31
0.0
  0
LINE
  5
1847
  8
SIZE
  6
CONTINUOUS
 62
     0
 10
-2252.2654251900472
 20
-1981.2728349499221
 30
0.0
 11
-2252.2654251900472
 21
-2236.1292805721009
 31
0.0
  0
LINE
  5
1848
  8
SIZE
  6
CONTINUOUS
 62
     0
 10
-1941.265425190046
 20
-2206.1292805721009
 30
0.0
 11
-2242.2654251900472
 21
-2206.1292805721009
 31
0.0
  0
INSERT
  5
1849
  8
SIZE
  6
CONTINUOUS
 62
     0
  2
_ORIGIN
 10
-1931.265425190046
 20
-2206.1292805721009
 30
0.0
 41
10.0
 42
10.0
 43
10.0
  0
INSERT
  5
184A
  8
SIZE
  6
CONTINUOUS
 62
     0
  2
_ORIGIN
 10
-2252.2654251900472
 20
-2206.1292805721009
 30
0.0
 41
10.0
 42
10.0
 43
10.0
 50
180.0
  0
TEXT
  5
184B
  8
DETAIL
  6
CONTINUOUS
 62
     0
 10
-2153.4797109043329
 20
-2196.1292805721009
 30
0.0
 40
64.0
  1
321
 41
0.9
  0
POINT
  5
184C
  8
DEFPOINTS
  6
CONTINUOUS
 62
     0
 10
-1931.265425190046
 20
-2062.2728349499198
 30
0.0
  0
POINT
  5
184D
  8
DEFPOINTS
  6
CONTINUOUS
 62
     0
 10
-2252.2654251900472
 20
-1961.27283494992
 30
0.0
  0
POINT
  5
184E
  8
DEFPOINTS
  6
CONTINUOUS
 62
     0
 10
-2252.2654251900472
 20
-2206.1292805721009
 30
0.0
  0
ENDBLK
  5
184F
  8
0
  0
BLOCK
  8
0
  2
*D48
 70
     1
 10
0.0
 20
0.0
 30
0.0
  3
*D48
  1

  0
LINE
  5
1852
  8
SIZE
  6
CONTINUOUS
 62
     0
 10
-2292.2654251900472
 20
-1917.2728349499221
 30
0.0
 11
-2637.9769908857161
 21
-1917.27283494992
 31
0.0
  0
LINE
  5
1853
  8
SIZE
  6
CONTINUOUS
 62
     0
 10
-2401.2654251900472
 20
-2062.2728349499198
 30
0.0
 11
-2637.9769908857161
 21
-2062.2728349499198
 31
0.0
  0
LINE
  5
1854
  8
SIZE
  6
CONTINUOUS
 62
     0
 10
-2607.9769908857161
 20
-1927.27283494992
 30
0.0
 11
-2607.9769908857161
 21
-2052.2728349499198
 31
0.0
  0
INSERT
  5
1855
  8
SIZE
  6
CONTINUOUS
 62
     0
  2
_ORIGIN
 10
-2607.9769908857161
 20
-1917.27283494992
 30
0.0
 41
10.0
 42
10.0
 43
10.0
 50
90.0
  0
INSERT
  5
1856
  8
SIZE
  6
CONTINUOUS
 62
     0
  2
_ORIGIN
 10
-2607.9769908857161
 20
-2062.2728349499198
 30
0.0
 41
10.0
 42
10.0
 43
10.0
 50
270.0
  0
TEXT
  5
1857
  8
DETAIL
  6
CONTINUOUS
 62
     0
 10
-2617.9769908857161
 20
-2058.3442635213501
 30
0.0
 40
64.0
  1
145
 50
90.0
 41
0.9
  0
POINT
  5
1858
  8
DEFPOINTS
  6
CONTINUOUS
 62
     0
 10
-2272.2654251900472
 20
-1917.2728349499221
 30
0.0
  0
POINT
  5
1859
  8
DEFPOINTS
  6
CONTINUOUS
 62
     0
 10
-2381.2654251900472
 20
-2062.2728349499198
 30
0.0
  0
POINT
  5
185A
  8
DEFPOINTS
  6
CONTINUOUS
 62
     0
 10
-2607.9769908857161
 20
-2062.2728349499198
 30
0.0
  0
ENDBLK
  5
185B
  8
0
  0
BLOCK
  8
0
  2
*D49
 70
     1
 10
0.0
 20
0.0
 30
0.0
  3
*D49
  1

  0
LINE
  5
185E
  8
SIZE
  6
CONTINUOUS
 62
     0
 10
-2292.2654251900472
 20
-1917.2728349499221
 30
0.0
 11
-2521.2608630959548
 21
-1917.2728349499221
 31
0.0
  0
LINE
  5
185F
  8
SIZE
  6
CONTINUOUS
 62
     0
 10
-2292.2654251900472
 20
-1941.2728349499221
 30
0.0
 11
-2521.2608630959548
 21
-1941.2728349499221
 31
0.0
  0
LINE
  5
1860
  8
SIZE
  6
CONTINUOUS
 62
     0
 10
-2491.2608630959548
 20
-1907.27283494992
 30
0.0
 11
-2491.2608630959548
 21
-1897.27283494992
 31
0.0
  0
LINE
  5
1861
  8
SIZE
  6
CONTINUOUS
 62
     0
 10
-2491.2608630959548
 20
-1951.2728349499209
 30
0.0
 11
-2491.2608630959548
 21
-2077.2728349499198
 31
0.0
  0
LINE
  5
1862
  8
SIZE
  6
CONTINUOUS
 62
     0
 10
-2491.2608630959548
 20
-1917.2728349499221
 30
0.0
 11
-2491.2608630959548
 21
-1941.2728349499221
 31
0.0
  0
INSERT
  5
1863
  8
SIZE
  6
CONTINUOUS
 62
     0
  2
_ORIGIN
 10
-2491.2608630959548
 20
-1917.2728349499221
 30
0.0
 41
10.0
 42
10.0
 43
10.0
 50
270.0
  0
INSERT
  5
1864
  8
SIZE
  6
CONTINUOUS
 62
     0
  2
_ORIGIN
 10
-2491.2608630959548
 20
-1941.2728349499221
 30
0.0
 41
10.0
 42
10.0
 43
10.0
 50
90.0
  0
TEXT
  5
1865
  8
DETAIL
  6
CONTINUOUS
 62
     0
 10
-2501.260863095953
 20
-2067.2728349499221
 30
0.0
 40
64.0
  1
24
 50
90.0
 41
0.9
  0
POINT
  5
1866
  8
DEFPOINTS
  6
CONTINUOUS
 62
     0
 10
-2272.2654251900472
 20
-1917.2728349499221
 30
0.0
  0
POINT
  5
1867
  8
DEFPOINTS
  6
CONTINUOUS
 62
     0
 10
-2272.2654251900472
 20
-1941.2728349499221
 30
0.0
  0
POINT
  5
1868
  8
DEFPOINTS
  6
CONTINUOUS
 62
     0
 10
-2491.2608630959548
 20
-1941.2728349499221
 30
0.0
  0
ENDBLK
  5
1869
  8
0
  0
BLOCK
  8
0
  2
*D50
 70
     1
 10
0.0
 20
0.0
 30
0.0
  3
*D50
  1

  0
LINE
  5
186C
  8
SIZE
  6
CONTINUOUS
 62
     0
 10
-2536.2654251900472
 20
-1862.27283494992
 30
0.0
 11
-2765.3325367259308
 21
-1862.27283494992
 31
0.0
  0
LINE
  5
186D
  8
SIZE
  6
CONTINUOUS
 62
     0
 10
-2401.2654251900472
 20
-2062.2728349499198
 30
0.0
 11
-2765.3325367259308
 21
-2062.2728349499198
 31
0.0
  0
LINE
  5
186E
  8
SIZE
  6
CONTINUOUS
 62
     0
 10
-2735.3325367259308
 20
-1872.27283494992
 30
0.0
 11
-2735.3325367259308
 21
-2052.2728349499198
 31
0.0
  0
INSERT
  5
186F
  8
SIZE
  6
CONTINUOUS
 62
     0
  2
_ORIGIN
 10
-2735.3325367259308
 20
-1862.27283494992
 30
0.0
 41
10.0
 42
10.0
 43
10.0
 50
90.0
  0
INSERT
  5
1870
  8
SIZE
  6
CONTINUOUS
 62
     0
  2
_ORIGIN
 10
-2735.3325367259308
 20
-2062.2728349499198
 30
0.0
 41
10.0
 42
10.0
 43
10.0
 50
270.0
  0
TEXT
  5
1871
  8
DETAIL
  6
CONTINUOUS
 62
     0
 10
-2745.3325367259308
 20
-2036.3299778070641
 30
0.0
 40
64.0
  1
200
 50
90.0
 41
0.9
  0
POINT
  5
1872
  8
DEFPOINTS
  6
CONTINUOUS
 62
     0
 10
-2516.2654251900472
 20
-1862.27283494992
 30
0.0
  0
POINT
  5
1873
  8
DEFPOINTS
  6
CONTINUOUS
 62
     0
 10
-2381.2654251900472
 20
-2062.2728349499198
 30
0.0
  0
POINT
  5
1874
  8
DEFPOINTS
  6
CONTINUOUS
 62
     0
 10
-2735.3325367259308
 20
-2062.2728349499198
 30
0.0
  0
ENDBLK
  5
1875
  8
0
  0
BLOCK
  8
0
  2
*D51
 70
     1
 10
0.0
 20
0.0
 30
0.0
  3
*D51
  1

  0
LINE
  5
1878
  8
SIZE
  6
CONTINUOUS
 62
     0
 10
-388.5
 20
-3903.545669899841
 30
0.0
 11
-388.5
 21
-4322.7162096331976
 31
0.0
  0
LINE
  5
1879
  8
SIZE
  6
CONTINUOUS
 62
     0
 10
388.49999999999989
 20
-3898.545669899841
 30
0.0
 11
388.49999999999989
 21
-4322.7162096331976
 31
0.0
  0
LINE
  5
187A
  8
SIZE
  6
CONTINUOUS
 62
     0
 10
-378.5
 20
-4292.7162096332004
 30
0.0
 11
378.49999999999989
 21
-4292.7162096332004
 31
0.0
  0
INSERT
  5
187B
  8
SIZE
  6
CONTINUOUS
 62
     0
  2
_ORIGIN
 10
-388.5
 20
-4292.7162096332004
 30
0.0
 41
10.0
 42
10.0
 43
10.0
 50
180.0
  0
INSERT
  5
187C
  8
SIZE
  6
CONTINUOUS
 62
     0
  2
_ORIGIN
 10
388.49999999999989
 20
-4292.7162096332004
 30
0.0
 41
10.0
 42
10.0
 43
10.0
  0
TEXT
  5
187D
  8
DETAIL
  6
CONTINUOUS
 62
     0
 10
-74.057142857142907
 20
-4282.7162096331986
 30
0.0
 40
64.0
  1
777
 41
0.9
  0
POINT
  5
187E
  8
DEFPOINTS
  6
CONTINUOUS
 62
     0
 10
-388.5
 20
-3883.545669899841
 30
0.0
  0
POINT
  5
187F
  8
DEFPOINTS
  6
CONTINUOUS
 62
     0
 10
388.49999999999989
 20
-3878.545669899841
 30
0.0
  0
POINT
  5
1880
  8
DEFPOINTS
  6
CONTINUOUS
 62
     0
 10
388.49999999999989
 20
-4292.7162096332004
 30
0.0
  0
ENDBLK
  5
1881
  8
0
  0
BLOCK
  8
0
  2
*D52
 70
     1
 10
0.0
 20
0.0
 30
0.0
  3
*D52
  1

  0
LINE
  5
1884
  8
SIZE
  6
CONTINUOUS
 62
     0
 10
-361.49999999999989
 20
-3907.545669899841
 30
0.0
 11
-361.49999999999989
 21
-4217.1022695611346
 31
0.0
  0
LINE
  5
1885
  8
SIZE
  6
CONTINUOUS
 62
     0
 10
408.49999999999989
 20
-3907.545669899841
 30
0.0
 11
408.49999999999989
 21
-4217.1022695611346
 31
0.0
  0
LINE
  5
1886
  8
SIZE
  6
CONTINUOUS
 62
     0
 10
-351.49999999999977
 20
-4187.1022695611364
 30
0.0
 11
398.49999999999989
 21
-4187.1022695611364
 31
0.0
  0
INSERT
  5
1887
  8
SIZE
  6
CONTINUOUS
 62
     0
  2
_ORIGIN
 10
-361.49999999999989
 20
-4187.1022695611364
 30
0.0
 41
10.0
 42
10.0
 43
10.0
 50
180.0
  0
INSERT
  5
1888
  8
SIZE
  6
CONTINUOUS
 62
     0
  2
_ORIGIN
 10
408.49999999999989
 20
-4187.1022695611364
 30
0.0
 41
10.0
 42
10.0
 43
10.0
  0
TEXT
  5
1889
  8
DETAIL
  6
CONTINUOUS
 62
     0
 10
-50.557142857142843
 20
-4177.1022695611346
 30
0.0
 40
64.0
  1
770
 41
0.9
  0
POINT
  5
188A
  8
DEFPOINTS
  6
CONTINUOUS
 62
     0
 10
-361.49999999999989
 20
-3887.5456698998428
 30
0.0
  0
POINT
  5
188B
  8
DEFPOINTS
  6
CONTINUOUS
 62
     0
 10
408.49999999999989
 20
-3887.5456698998428
 30
0.0
  0
POINT
  5
188C
  8
DEFPOINTS
  6
CONTINUOUS
 62
     0
 10
408.49999999999989
 20
-4187.1022695611364
 30
0.0
  0
ENDBLK
  5
188D
  8
0
  0
BLOCK
  8
0
  2
*D53
 70
     1
 10
0.0
 20
0.0
 30
0.0
  3
*D53
  1

  0
LINE
  5
1890
  8
SIZE
  6
CONTINUOUS
 62
     0
 10
388.49999999999977
 20
-3903.545669899841
 30
0.0
 11
388.49999999999977
 21
-4322.0732709015156
 31
0.0
  0
LINE
  5
1891
  8
SIZE
  6
CONTINUOUS
 62
     0
 10
408.49999999999989
 20
-3907.545669899841
 30
0.0
 11
408.49999999999989
 21
-4322.0732709015156
 31
0.0
  0
LINE
  5
1892
  8
SIZE
  6
CONTINUOUS
 62
     0
 10
378.49999999999972
 20
-4292.0732709015156
 30
0.0
 11
368.49999999999972
 21
-4292.0732709015156
 31
0.0
  0
LINE
  5
1893
  8
SIZE
  6
CONTINUOUS
 62
     0
 10
418.5
 20
-4292.0732709015156
 30
0.0
 11
541.75714285714275
 21
-4292.0732709015156
 31
0.0
  0
LINE
  5
1894
  8
SIZE
  6
CONTINUOUS
 62
     0
 10
388.49999999999977
 20
-4292.0732709015156
 30
0.0
 11
408.49999999999989
 21
-4292.0732709015156
 31
0.0
  0
INSERT
  5
1895
  8
SIZE
  6
CONTINUOUS
 62
     0
  2
_ORIGIN
 10
388.49999999999977
 20
-4292.0732709015156
 30
0.0
 41
10.0
 42
10.0
 43
10.0
  0
INSERT
  5
1896
  8
SIZE
  6
CONTINUOUS
 62
     0
  2
_ORIGIN
 10
408.49999999999989
 20
-4292.0732709015156
 30
0.0
 41
10.0
 42
10.0
 43
10.0
 50
180.0
  0
TEXT
  5
1897
  8
DETAIL
  6
CONTINUOUS
 62
     0
 10
438.49999999999989
 20
-4282.0732709015156
 30
0.0
 40
64.0
  1
20
 41
0.9
  0
POINT
  5
1898
  8
DEFPOINTS
  6
CONTINUOUS
 62
     0
 10
388.49999999999977
 20
-3883.545669899841
 30
0.0
  0
POINT
  5
1899
  8
DEFPOINTS
  6
CONTINUOUS
 62
     0
 10
408.49999999999989
 20
-3887.5456698998428
 30
0.0
  0
POINT
  5
189A
  8
DEFPOINTS
  6
CONTINUOUS
 62
     0
 10
408.49999999999989
 20
-4292.0732709015156
 30
0.0
  0
ENDBLK
  5
189B
  8
0
  0
BLOCK
  8
0
  2
*D54
 70
     1
 10
0.0
 20
0.0
 30
0.0
  3
*D54
  1

  0
LINE
  5
189E
  8
SIZE
  6
CONTINUOUS
 62
     0
 10
-388.5
 20
-3903.545669899841
 30
0.0
 11
-388.5
 21
-4322.5245345278199
 31
0.0
  0
LINE
  5
189F
  8
SIZE
  6
CONTINUOUS
 62
     0
 10
-408.49999999999989
 20
-3907.545669899841
 30
0.0
 11
-408.49999999999989
 21
-4322.5245345278199
 31
0.0
  0
LINE
  5
18A0
  8
SIZE
  6
CONTINUOUS
 62
     0
 10
-378.5
 20
-4292.5245345278199
 30
0.0
 11
-368.5
 21
-4292.5245345278199
 31
0.0
  0
LINE
  5
18A1
  8
SIZE
  6
CONTINUOUS
 62
     0
 10
-418.5
 20
-4292.5245345278199
 30
0.0
 11
-541.75714285714275
 21
-4292.5245345278199
 31
0.0
  0
LINE
  5
18A2
  8
SIZE
  6
CONTINUOUS
 62
     0
 10
-388.5
 20
-4292.5245345278199
 30
0.0
 11
-408.49999999999989
 21
-4292.5245345278199
 31
0.0
  0
INSERT
  5
18A3
  8
SIZE
  6
CONTINUOUS
 62
     0
  2
_ORIGIN
 10
-388.5
 20
-4292.5245345278199
 30
0.0
 41
10.0
 42
10.0
 43
10.0
 50
180.0
  0
INSERT
  5
18A4
  8
SIZE
  6
CONTINUOUS
 62
     0
  2
_ORIGIN
 10
-408.49999999999989
 20
-4292.5245345278199
 30
0.0
 41
10.0
 42
10.0
 43
10.0
  0
TEXT
  5
18A5
  8
DETAIL
  6
CONTINUOUS
 62
     0
 10
-531.75714285714287
 20
-4282.5245345278181
 30
0.0
 40
64.0
  1
20
 41
0.9
  0
POINT
  5
18A6
  8
DEFPOINTS
  6
CONTINUOUS
 62
     0
 10
-388.5
 20
-3883.545669899841
 30
0.0
  0
POINT
  5
18A7
  8
DEFPOINTS
  6
CONTINUOUS
 62
     0
 10
-408.49999999999989
 20
-3887.5456698998428
 30
0.0
  0
POINT
  5
18A8
  8
DEFPOINTS
  6
CONTINUOUS
 62
     0
 10
-408.49999999999989
 20
-4292.5245345278199
 30
0.0
  0
ENDBLK
  5
18A9
  8
0
  0
BLOCK
  8
0
  2
*D55
 70
     1
 10
0.0
 20
0.0
 30
0.0
  3
*D55
  1

  0
LINE
  5
18AC
  8
SIZE
  6
CONTINUOUS
 62
     0
 10
-428.49999999999989
 20
-3461.545669899841
 30
0.0
 11
-505.370411303418
 21
-3461.545669899841
 31
0.0
  0
LINE
  5
18AD
  8
SIZE
  6
CONTINUOUS
 62
     0
 10
-428.50000000000011
 20
-3859.545669899841
 30
0.0
 11
-505.37041130341822
 21
-3859.545669899841
 31
0.0
  0
LINE
  5
18AE
  8
SIZE
  6
CONTINUOUS
 62
     0
 10
-475.37041130341811
 20
-3471.545669899841
 30
0.0
 11
-475.37041130341811
 21
-3849.545669899841
 31
0.0
  0
INSERT
  5
18AF
  8
SIZE
  6
CONTINUOUS
 62
     0
  2
_ORIGIN
 10
-475.37041130341811
 20
-3461.545669899841
 30
0.0
 41
10.0
 42
10.0
 43
10.0
 50
90.0
  0
INSERT
  5
18B0
  8
SIZE
  6
CONTINUOUS
 62
     0
  2
_ORIGIN
 10
-475.37041130341811
 20
-3859.545669899841
 30
0.0
 41
10.0
 42
10.0
 43
10.0
 50
270.0
  0
TEXT
  5
18B1
  8
DETAIL
  6
CONTINUOUS
 62
     0
 10
-485.3704113034176
 20
-3734.6028127569848
 30
0.0
 40
64.0
  1
398
 50
90.0
 41
0.9
  0
POINT
  5
18B2
  8
DEFPOINTS
  6
CONTINUOUS
 62
     0
 10
-408.49999999999989
 20
-3461.545669899841
 30
0.0
  0
POINT
  5
18B3
  8
DEFPOINTS
  6
CONTINUOUS
 62
     0
 10
-408.49999999999989
 20
-3859.545669899841
 30
0.0
  0
POINT
  5
18B4
  8
DEFPOINTS
  6
CONTINUOUS
 62
     0
 10
-475.37041130341811
 20
-3859.545669899841
 30
0.0
  0
ENDBLK
  5
18B5
  8
0
  0
BLOCK
  8
0
  2
*D56
 70
     1
 10
0.0
 20
0.0
 30
0.0
  3
*D56
  1

  0
LINE
  5
18B8
  8
SIZE
  6
CONTINUOUS
 62
     0
 10
-381.49999999999989
 20
-3889.545669899841
 30
0.0
 11
-618.16603949373518
 21
-3889.545669899841
 31
0.0
  0
LINE
  5
18B9
  8
SIZE
  6
CONTINUOUS
 62
     0
 10
-381.49999999999989
 20
-3439.545669899841
 30
0.0
 11
-618.16603949373518
 21
-3439.545669899841
 31
0.0
  0
LINE
  5
18BA
  8
SIZE
  6
CONTINUOUS
 62
     0
 10
-588.1660394937353
 20
-3879.545669899841
 30
0.0
 11
-588.1660394937353
 21
-3449.545669899841
 31
0.0
  0
INSERT
  5
18BB
  8
SIZE
  6
CONTINUOUS
 62
     0
  2
_ORIGIN
 10
-588.1660394937353
 20
-3889.545669899841
 30
0.0
 41
10.0
 42
10.0
 43
10.0
 50
270.0
  0
INSERT
  5
18BC
  8
SIZE
  6
CONTINUOUS
 62
     0
  2
_ORIGIN
 10
-588.1660394937353
 20
-3439.545669899841
 30
0.0
 41
10.0
 42
10.0
 43
10.0
 50
90.0
  0
TEXT
  5
18BD
  8
DETAIL
  6
CONTINUOUS
 62
     0
 10
-598.16603949373473
 20
-3738.6028127569848
 30
0.0
 40
64.0
  1
450
 50
90.0
 41
0.9
  0
POINT
  5
18BE
  8
DEFPOINTS
  6
CONTINUOUS
 62
     0
 10
-361.5
 20
-3889.545669899841
 30
0.0
  0
POINT
  5
18BF
  8
DEFPOINTS
  6
CONTINUOUS
 62
     0
 10
-361.5
 20
-3439.545669899841
 30
0.0
  0
POINT
  5
18C0
  8
DEFPOINTS
  6
CONTINUOUS
 62
     0
 10
-588.1660394937353
 20
-3439.545669899841
 30
0.0
  0
ENDBLK
  5
18C1
  8
0
  0
BLOCK
  8
0
  2
*D57
 70
     1
 10
0.0
 20
0.0
 30
0.0
  3
*D57
  1

  0
LINE
  5
18C4
  8
SIZE
  6
CONTINUOUS
 62
     0
 10
348.5
 20
-3324.545669899841
 30
0.0
 11
696.16349142884383
 21
-3324.545669899841
 31
0.0
  0
LINE
  5
18C5
  8
SIZE
  6
CONTINUOUS
 62
     0
 10
278.5
 20
-3439.545669899841
 30
0.0
 11
696.16349142884371
 21
-3439.545669899841
 31
0.0
  0
LINE
  5
18C6
  8
SIZE
  6
CONTINUOUS
 62
     0
 10
666.1634914288436
 20
-3334.545669899841
 30
0.0
 11
666.1634914288436
 21
-3429.545669899841
 31
0.0
  0
INSERT
  5
18C7
  8
SIZE
  6
CONTINUOUS
 62
     0
  2
_ORIGIN
 10
666.16349142884383
 20
-3324.545669899841
 30
0.0
 41
10.0
 42
10.0
 43
10.0
 50
90.0
  0
INSERT
  5
18C8
  8
SIZE
  6
CONTINUOUS
 62
     0
  2
_ORIGIN
 10
666.1634914288436
 20
-3439.545669899841
 30
0.0
 41
10.0
 42
10.0
 43
10.0
 50
270.0
  0
TEXT
  5
18C9
  8
DETAIL
  6
CONTINUOUS
 62
     0
 10
656.16349142884417
 20
-3478.432233964083
 30
0.0
 40
64.0
  1
115
 50
90.0
 41
0.9
  0
POINT
  5
18CA
  8
DEFPOINTS
  6
CONTINUOUS
 62
     0
 10
328.5
 20
-3324.545669899841
 30
0.0
  0
POINT
  5
18CB
  8
DEFPOINTS
  6
CONTINUOUS
 62
     0
 10
258.49999999999989
 20
-3439.545669899841
 30
0.0
  0
POINT
  5
18CC
  8
DEFPOINTS
  6
CONTINUOUS
 62
     0
 10
666.1634914288436
 20
-3439.545669899841
 30
0.0
  0
ENDBLK
  5
18CD
  8
0
  0
BLOCK
  8
0
  2
*D58
 70
     1
 10
0.0
 20
0.0
 30
0.0
  3
*D58
  1

  0
LINE
  5
18D0
  8
SIZE
  6
CONTINUOUS
 62
     0
 10
404.49999999999989
 20
-3568.545669899841
 30
0.0
 11
761.86547460009695
 21
-3568.545669899841
 31
0.0
  0
LINE
  5
18D1
  8
SIZE
  6
CONTINUOUS
 62
     0
 10
381.49999999999989
 20
-3889.545669899841
 30
0.0
 11
761.86547460009672
 21
-3889.545669899841
 31
0.0
  0
LINE
  5
18D2
  8
SIZE
  6
CONTINUOUS
 62
     0
 10
731.86547460009695
 20
-3578.545669899841
 30
0.0
 11
731.86547460009672
 21
-3879.545669899841
 31
0.0
  0
INSERT
  5
18D3
  8
SIZE
  6
CONTINUOUS
 62
     0
  2
_ORIGIN
 10
731.86547460009695
 20
-3568.545669899841
 30
0.0
 41
10.0
 42
10.0
 43
10.0
 50
90.0
  0
INSERT
  5
18D4
  8
SIZE
  6
CONTINUOUS
 62
     0
  2
_ORIGIN
 10
731.86547460009672
 20
-3889.545669899841
 30
0.0
 41
10.0
 42
10.0
 43
10.0
 50
270.0
  0
TEXT
  5
18D5
  8
DETAIL
  6
CONTINUOUS
 62
     0
 10
721.86547460009751
 20
-3799.2008973876291
 30
0.0
 40
64.0
  1
321
 50
90.0
 41
0.9
  0
POINT
  5
18D6
  8
DEFPOINTS
  6
CONTINUOUS
 62
     0
 10
384.5
 20
-3568.545669899841
 30
0.0
  0
POINT
  5
18D7
  8
DEFPOINTS
  6
CONTINUOUS
 62
     0
 10
361.49999999999989
 20
-3889.545669899841
 30
0.0
  0
POINT
  5
18D8
  8
DEFPOINTS
  6
CONTINUOUS
 62
     0
 10
731.86547460009672
 20
-3889.545669899841
 30
0.0
  0
ENDBLK
  5
18D9
  8
0
  0
BLOCK
  8
0
  2
*D59
 70
     1
 10
0.0
 20
0.0
 30
0.0
  3
*D59
  1

  0
LINE
  5
18DC
  8
SIZE
  6
CONTINUOUS
 62
     0
 10
381.49999999999989
 20
-3889.545669899841
 30
0.0
 11
643.74310929889828
 21
-3889.545669899841
 31
0.0
  0
LINE
  5
18DD
  8
SIZE
  6
CONTINUOUS
 62
     0
 10
493.5
 20
-3836.545669899841
 30
0.0
 11
643.7431092988985
 21
-3836.545669899841
 31
0.0
  0
LINE
  5
18DE
  8
SIZE
  6
CONTINUOUS
 62
     0
 10
613.74310929889828
 20
-3846.545669899841
 30
0.0
 11
613.74310929889828
 21
-3879.545669899841
 31
0.0
  0
LINE
  5
18DF
  8
SIZE
  6
CONTINUOUS
 62
     0
 10
613.74310929889828
 20
-3889.545669899841
 30
0.0
 11
613.74310929889828
 21
-4018.1671805050901
 31
0.0
  0
INSERT
  5
18E0
  8
SIZE
  6
CONTINUOUS
 62
     0
  2
_ORIGIN
 10
613.74310929889828
 20
-3836.545669899841
 30
0.0
 41
10.0
 42
10.0
 43
10.0
 50
90.0
  0
INSERT
  5
18E1
  8
SIZE
  6
CONTINUOUS
 62
     0
  2
_ORIGIN
 10
613.74310929889828
 20
-3889.545669899841
 30
0.0
 41
10.0
 42
10.0
 43
10.0
 50
270.0
  0
TEXT
  5
18E2
  8
DETAIL
  6
CONTINUOUS
 62
     0
 10
603.74310929889884
 20
-4008.1671805050919
 30
0.0
 40
64.0
  1
53
 50
90.0
 41
0.9
  0
POINT
  5
18E3
  8
DEFPOINTS
  6
CONTINUOUS
 62
     0
 10
361.49999999999989
 20
-3889.545669899841
 30
0.0
  0
POINT
  5
18E4
  8
DEFPOINTS
  6
CONTINUOUS
 62
     0
 10
473.5
 20
-3836.545669899841
 30
0.0
  0
POINT
  5
18E5
  8
DEFPOINTS
  6
CONTINUOUS
 62
     0
 10
613.74310929889828
 20
-3836.545669899841
 30
0.0
  0
ENDBLK
  5
18E6
  8
0
  0
BLOCK
  8
0
  2
*D60
 70
     1
 10
0.0
 20
0.0
 30
0.0
  3
*D60
  1

  0
LINE
  5
18E9
  8
SIZE
  6
CONTINUOUS
 62
     0
 10
493.5
 20
-3594.545669899841
 30
0.0
 11
643.7431092988985
 21
-3594.545669899841
 31
0.0
  0
LINE
  5
18EA
  8
SIZE
  6
CONTINUOUS
 62
     0
 10
493.5
 20
-3836.545669899841
 30
0.0
 11
643.7431092988985
 21
-3836.545669899841
 31
0.0
  0
LINE
  5
18EB
  8
SIZE
  6
CONTINUOUS
 62
     0
 10
613.74310929889828
 20
-3604.545669899841
 30
0.0
 11
613.74310929889828
 21
-3826.5456698998428
 31
0.0
  0
INSERT
  5
18EC
  8
SIZE
  6
CONTINUOUS
 62
     0
  2
_ORIGIN
 10
613.74310929889828
 20
-3594.545669899841
 30
0.0
 41
10.0
 42
10.0
 43
10.0
 50
90.0
  0
INSERT
  5
18ED
  8
SIZE
  6
CONTINUOUS
 62
     0
  2
_ORIGIN
 10
613.74310929889828
 20
-3836.545669899841
 30
0.0
 41
10.0
 42
10.0
 43
10.0
 50
270.0
  0
TEXT
  5
18EE
  8
DETAIL
  6
CONTINUOUS
 62
     0
 10
603.74310929889884
 20
-3796.5098024037038
 30
0.0
 40
64.0
  1
242
 50
90.0
 41
0.9
  0
POINT
  5
18EF
  8
DEFPOINTS
  6
CONTINUOUS
 62
     0
 10
473.5
 20
-3594.545669899841
 30
0.0
  0
POINT
  5
18F0
  8
DEFPOINTS
  6
CONTINUOUS
 62
     0
 10
473.5
 20
-3836.545669899841
 30
0.0
  0
POINT
  5
18F1
  8
DEFPOINTS
  6
CONTINUOUS
 62
     0
 10
613.74310929889828
 20
-3836.545669899841
 30
0.0
  0
ENDBLK
  5
18F2
  8
0
  0
BLOCK
  8
0
  2
*D61
 70
     1
 10
0.0
 20
0.0
 30
0.0
  3
*D61
  1

  0
LINE
  5
18F5
  8
SIZE
  6
CONTINUOUS
 62
     0
 10
408.49999999999989
 20
-3421.545669899841
 30
0.0
 11
408.49999999999989
 21
-3180.8025568991761
 31
0.0
  0
LINE
  5
18F6
  8
SIZE
  6
CONTINUOUS
 62
     0
 10
308.5
 20
-3284.545669899841
 30
0.0
 11
308.5
 21
-3180.8025568991761
 31
0.0
  0
LINE
  5
18F7
  8
SIZE
  6
CONTINUOUS
 62
     0
 10
418.5
 20
-3210.8025568991761
 30
0.0
 11
428.5
 21
-3210.8025568991761
 31
0.0
  0
LINE
  5
18F8
  8
SIZE
  6
CONTINUOUS
 62
     0
 10
298.5
 20
-3210.8025568991761
 30
0.0
 11
288.5
 21
-3210.8025568991761
 31
0.0
  0
LINE
  5
18F9
  8
SIZE
  6
CONTINUOUS
 62
     0
 10
408.49999999999989
 20
-3210.8025568991761
 30
0.0
 11
308.5
 21
-3210.8025568991761
 31
0.0
  0
INSERT
  5
18FA
  8
SIZE
  6
CONTINUOUS
 62
     0
  2
_ORIGIN
 10
408.49999999999989
 20
-3210.8025568991761
 30
0.0
 41
10.0
 42
10.0
 43
10.0
 50
180.0
  0
INSERT
  5
18FB
  8
SIZE
  6
CONTINUOUS
 62
     0
  2
_ORIGIN
 10
308.5
 20
-3210.8025568991761
 30
0.0
 41
10.0
 42
10.0
 43
10.0
  0
TEXT
  5
18FC
  8
DETAIL
  6
CONTINUOUS
 62
     0
 10
289.92857142857127
 20
-3200.8025568991761
 30
0.0
 40
64.0
  1
100
 41
0.9
  0
POINT
  5
18FD
  8
DEFPOINTS
  6
CONTINUOUS
 62
     0
 10
408.49999999999989
 20
-3441.545669899841
 30
0.0
  0
POINT
  5
18FE
  8
DEFPOINTS
  6
CONTINUOUS
 62
     0
 10
308.5
 20
-3304.545669899841
 30
0.0
  0
POINT
  5
18FF
  8
DEFPOINTS
  6
CONTINUOUS
 62
     0
 10
308.5
 20
-3210.8025568991761
 30
0.0
  0
ENDBLK
  5
1900
  8
0
  0
BLOCK
  8
0
  2
*D62
 70
     1
 10
0.0
 20
0.0
 30
0.0
  3
*D62
  1

  0
LINE
  5
1903
  8
SIZE
  6
CONTINUOUS
 62
     0
 10
408.49999999999989
 20
-3614.545669899841
 30
0.0
 11
408.49999999999989
 21
-3787.1489297184562
 31
0.0
  0
LINE
  5
1904
  8
SIZE
  6
CONTINUOUS
 62
     0
 10
364.5
 20
-3608.545669899841
 30
0.0
 11
364.5
 21
-3787.1489297184562
 31
0.0
  0
LINE
  5
1905
  8
SIZE
  6
CONTINUOUS
 62
     0
 10
374.5
 20
-3757.1489297184548
 30
0.0
 11
398.49999999999989
 21
-3757.1489297184548
 31
0.0
  0
LINE
  5
1906
  8
SIZE
  6
CONTINUOUS
 62
     0
 10
408.49999999999989
 20
-3757.1489297184548
 30
0.0
 11
534.49999999999977
 21
-3757.1489297184548
 31
0.0
  0
INSERT
  5
1907
  8
SIZE
  6
CONTINUOUS
 62
     0
  2
_ORIGIN
 10
364.5
 20
-3757.1489297184548
 30
0.0
 41
10.0
 42
10.0
 43
10.0
 50
180.0
  0
INSERT
  5
1908
  8
SIZE
  6
CONTINUOUS
 62
     0
  2
_ORIGIN
 10
408.49999999999989
 20
-3757.1489297184548
 30
0.0
 41
10.0
 42
10.0
 43
10.0
  0
TEXT
  5
1909
  8
DETAIL
  6
CONTINUOUS
 62
     0
 10
428.5
 20
-3747.1489297184562
 30
0.0
 40
64.0
  1
44
 41
0.9
  0
POINT
  5
190A
  8
DEFPOINTS
  6
CONTINUOUS
 62
     0
 10
408.49999999999989
 20
-3594.545669899841
 30
0.0
  0
POINT
  5
190B
  8
DEFPOINTS
  6
CONTINUOUS
 62
     0
 10
364.5
 20
-3588.5456698998419
 30
0.0
  0
POINT
  5
190C
  8
DEFPOINTS
  6
CONTINUOUS
 62
     0
 10
364.5
 20
-3757.1489297184548
 30
0.0
  0
ENDBLK
  5
190D
  8
0
  0
BLOCK
  8
0
  2
*D63
 70
     1
 10
0.0
 20
0.0
 30
0.0
  3
*D63
  1

  0
LINE
  5
1910
  8
SIZE
  6
CONTINUOUS
 62
     0
 10
364.5
 20
-3608.545669899841
 30
0.0
 11
364.5
 21
-3786.872388477791
 31
0.0
  0
LINE
  5
1911
  8
SIZE
  6
CONTINUOUS
 62
     0
 10
309.49999999999977
 20
-3608.545669899841
 30
0.0
 11
309.49999999999977
 21
-3786.872388477791
 31
0.0
  0
LINE
  5
1912
  8
SIZE
  6
CONTINUOUS
 62
     0
 10
354.49999999999989
 20
-3756.8723884777901
 30
0.0
 11
319.49999999999977
 21
-3756.8723884777901
 31
0.0
  0
LINE
  5
1913
  8
SIZE
  6
CONTINUOUS
 62
     0
 10
309.49999999999977
 20
-3756.8723884777901
 30
0.0
 11
186.2428571428571
 21
-3756.8723884777901
 31
0.0
  0
INSERT
  5
1914
  8
SIZE
  6
CONTINUOUS
 62
     0
  2
_ORIGIN
 10
364.5
 20
-3756.8723884777901
 30
0.0
 41
10.0
 42
10.0
 43
10.0
  0
INSERT
  5
1915
  8
SIZE
  6
CONTINUOUS
 62
     0
  2
_ORIGIN
 10
309.49999999999977
 20
-3756.8723884777901
 30
0.0
 41
10.0
 42
10.0
 43
10.0
 50
180.0
  0
TEXT
  5
1916
  8
DETAIL
  6
CONTINUOUS
 62
     0
 10
196.24285714285691
 20
-3746.872388477791
 30
0.0
 40
64.0
  1
55
 41
0.9
  0
POINT
  5
1917
  8
DEFPOINTS
  6
CONTINUOUS
 62
     0
 10
364.5
 20
-3588.5456698998419
 30
0.0
  0
POINT
  5
1918
  8
DEFPOINTS
  6
CONTINUOUS
 62
     0
 10
309.49999999999977
 20
-3588.5456698998419
 30
0.0
  0
POINT
  5
1919
  8
DEFPOINTS
  6
CONTINUOUS
 62
     0
 10
309.49999999999977
 20
-3756.8723884777901
 30
0.0
  0
ENDBLK
  5
191A
  8
0
  0
BLOCK
  8
0
  2
*D64
 70
     1
 10
0.0
 20
0.0
 30
0.0
  3
*D64
  1

  0
LINE
  5
191D
  8
SIZE
  6
CONTINUOUS
 62
     0
 10
-350.50000000000051
 20
-1840.27283494992
 30
0.0
 11
-350.50000000000051
 21
-1716.5566182910329
 31
0.0
  0
LINE
  5
191E
  8
SIZE
  6
CONTINUOUS
 62
     0
 10
304.49999999999989
 20
-1840.2728349499221
 30
0.0
 11
304.49999999999989
 21
-1716.5566182910329
 31
0.0
  0
LINE
  5
191F
  8
SIZE
  6
CONTINUOUS
 62
     0
 10
-340.50000000000051
 20
-1746.556618291032
 30
0.0
 11
294.49999999999989
 21
-1746.556618291032
 31
0.0
  0
INSERT
  5
1920
  8
SIZE
  6
CONTINUOUS
 62
     0
  2
_ORIGIN
 10
-350.50000000000051
 20
-1746.556618291032
 30
0.0
 41
10.0
 42
10.0
 43
10.0
 50
180.0
  0
INSERT
  5
1921
  8
SIZE
  6
CONTINUOUS
 62
     0
  2
_ORIGIN
 10
304.49999999999989
 20
-1746.556618291032
 30
0.0
 41
10.0
 42
10.0
 43
10.0
  0
TEXT
  5
1922
  8
DETAIL
  6
CONTINUOUS
 62
     0
 10
-97.057142857143063
 20
-1736.556618291032
 30
0.0
 40
64.0
  1
655
 41
0.9
  0
POINT
  5
1923
  8
DEFPOINTS
  6
CONTINUOUS
 62
     0
 10
-350.50000000000051
 20
-1860.27283494992
 30
0.0
  0
POINT
  5
1924
  8
DEFPOINTS
  6
CONTINUOUS
 62
     0
 10
304.49999999999989
 20
-1860.27283494992
 30
0.0
  0
POINT
  5
1925
  8
DEFPOINTS
  6
CONTINUOUS
 62
     0
 10
304.49999999999989
 20
-1746.556618291032
 30
0.0
  0
ENDBLK
  5
1926
  8
0
  0
BLOCK
  8
0
  2
*D65
 70
     1
 10
0.0
 20
0.0
 30
0.0
  3
*D65
  1

  0
LINE
  5
1929
  8
SIZE
  6
CONTINUOUS
 62
     0
 10
-361.49999999999972
 20
-1812.27283494992
 30
0.0
 11
-361.49999999999972
 21
-1716.5566182910329
 31
0.0
  0
LINE
  5
192A
  8
SIZE
  6
CONTINUOUS
 62
     0
 10
-350.50000000000051
 20
-1840.27283494992
 30
0.0
 11
-350.50000000000051
 21
-1716.5566182910329
 31
0.0
  0
LINE
  5
192B
  8
SIZE
  6
CONTINUOUS
 62
     0
 10
-371.49999999999972
 20
-1746.556618291032
 30
0.0
 11
-381.49999999999989
 21
-1746.556618291032
 31
0.0
  0
LINE
  5
192C
  8
SIZE
  6
CONTINUOUS
 62
     0
 10
-340.50000000000051
 20
-1746.556618291032
 30
0.0
 11
-330.50000000000051
 21
-1746.556618291032
 31
0.0
  0
LINE
  5
192D
  8
SIZE
  6
CONTINUOUS
 62
     0
 10
-361.49999999999972
 20
-1746.556618291032
 30
0.0
 11
-350.50000000000051
 21
-1746.556618291032
 31
0.0
  0
INSERT
  5
192E
  8
SIZE
  6
CONTINUOUS
 62
     0
  2
_ORIGIN
 10
-361.49999999999972
 20
-1746.556618291032
 30
0.0
 41
10.0
 42
10.0
 43
10.0
  0
INSERT
  5
192F
  8
SIZE
  6
CONTINUOUS
 62
     0
  2
_ORIGIN
 10
-350.50000000000051
 20
-1746.556618291032
 30
0.0
 41
10.0
 42
10.0
 43
10.0
 50
180.0
  0
TEXT
  5
1930
  8
DETAIL
  6
CONTINUOUS
 62
     0
 10
-384.80000000000013
 20
-1736.556618291032
 30
0.0
 40
64.0
  1
11
 41
0.9
  0
POINT
  5
1931
  8
DEFPOINTS
  6
CONTINUOUS
 62
     0
 10
-361.49999999999972
 20
-1832.27283494992
 30
0.0
  0
POINT
  5
1932
  8
DEFPOINTS
  6
CONTINUOUS
 62
     0
 10
-350.50000000000051
 20
-1860.27283494992
 30
0.0
  0
POINT
  5
1933
  8
DEFPOINTS
  6
CONTINUOUS
 62
     0
 10
-350.50000000000051
 20
-1746.556618291032
 30
0.0
  0
ENDBLK
  5
1934
  8
0
  0
BLOCK
  8
0
  2
*D66
 70
     1
 10
0.0
 20
0.0
 30
0.0
  3
*D66
  1

  0
LINE
  5
1937
  8
SIZE
  6
CONTINUOUS
 62
     0
 10
-310.50000000000051
 20
-1880.27283494992
 30
0.0
 11
-180.63150277531199
 21
-1880.27283494992
 31
0.0
  0
LINE
  5
1938
  8
SIZE
  6
CONTINUOUS
 62
     0
 10
-310.49999999999989
 20
-1989.2728349499221
 30
0.0
 11
-180.63150277531199
 21
-1989.2728349499221
 31
0.0
  0
LINE
  5
1939
  8
SIZE
  6
CONTINUOUS
 62
     0
 10
-210.63150277531179
 20
-1890.27283494992
 30
0.0
 11
-210.63150277531179
 21
-1979.27283494992
 31
0.0
  0
INSERT
  5
193A
  8
SIZE
  6
CONTINUOUS
 62
     0
  2
_ORIGIN
 10
-210.63150277531179
 20
-1880.27283494992
 30
0.0
 41
10.0
 42
10.0
 43
10.0
 50
90.0
  0
INSERT
  5
193B
  8
SIZE
  6
CONTINUOUS
 62
     0
  2
_ORIGIN
 10
-210.63150277531199
 20
-1989.2728349499221
 30
0.0
 41
10.0
 42
10.0
 43
10.0
 50
270.0
  0
TEXT
  5
193C
  8
DETAIL
  6
CONTINUOUS
 62
     0
 10
-220.6315027753115
 20
-2027.490336711244
 30
0.0
 40
64.0
  1
109
 50
90.0
 41
0.9
  0
POINT
  5
193D
  8
DEFPOINTS
  6
CONTINUOUS
 62
     0
 10
-330.50000000000051
 20
-1880.27283494992
 30
0.0
  0
POINT
  5
193E
  8
DEFPOINTS
  6
CONTINUOUS
 62
     0
 10
-330.49999999999977
 20
-1989.2728349499221
 30
0.0
  0
POINT
  5
193F
  8
DEFPOINTS
  6
CONTINUOUS
 62
     0
 10
-210.63150277531199
 20
-1989.2728349499221
 30
0.0
  0
ENDBLK
  5
1940
  8
0
  0
BLOCK
  8
0
  2
*D67
 70
     1
 10
0.0
 20
0.0
 30
0.0
  3
*D67
  1

  0
LINE
  5
1943
  8
SIZE
  6
CONTINUOUS
 62
     0
 10
-310.49999999999989
 20
-1989.2728349499221
 30
0.0
 11
-179.99774419940181
 21
-1989.2728349499221
 31
0.0
  0
LINE
  5
1944
  8
SIZE
  6
CONTINUOUS
 62
     0
 10
-341.49999999999989
 20
-2062.2728349499198
 30
0.0
 11
-179.99774419940181
 21
-2062.2728349499198
 31
0.0
  0
LINE
  5
1945
  8
SIZE
  6
CONTINUOUS
 62
     0
 10
-209.99774419940181
 20
-1999.2728349499221
 30
0.0
 11
-209.99774419940181
 21
-2052.2728349499198
 31
0.0
  0
LINE
  5
1946
  8
SIZE
  6
CONTINUOUS
 62
     0
 10
-209.99774419940181
 20
-2062.2728349499198
 30
0.0
 11
-209.99774419940181
 21
-2185.5299778070639
 31
0.0
  0
INSERT
  5
1947
  8
SIZE
  6
CONTINUOUS
 62
     0
  2
_ORIGIN
 10
-209.99774419940181
 20
-1989.2728349499221
 30
0.0
 41
10.0
 42
10.0
 43
10.0
 50
90.0
  0
INSERT
  5
1948
  8
SIZE
  6
CONTINUOUS
 62
     0
  2
_ORIGIN
 10
-209.99774419940181
 20
-2062.2728349499198
 30
0.0
 41
10.0
 42
10.0
 43
10.0
 50
270.0
  0
TEXT
  5
1949
  8
DETAIL
  6
CONTINUOUS
 62
     0
 10
-219.99774419940141
 20
-2175.5299778070639
 30
0.0
 40
64.0
  1
73
 50
90.0
 41
0.9
  0
POINT
  5
194A
  8
DEFPOINTS
  6
CONTINUOUS
 62
     0
 10
-330.49999999999977
 20
-1989.2728349499221
 30
0.0
  0
POINT
  5
194B
  8
DEFPOINTS
  6
CONTINUOUS
 62
     0
 10
-361.49999999999989
 20
-2062.2728349499198
 30
0.0
  0
POINT
  5
194C
  8
DEFPOINTS
  6
CONTINUOUS
 62
     0
 10
-209.99774419940181
 20
-2062.2728349499198
 30
0.0
  0
ENDBLK
  5
194D
  8
0
  0
BLOCK
  8
0
  2
*D68
 70
     1
 10
0.0
 20
0.0
 30
0.0
  3
*D68
  1

  0
LINE
  5
1950
  8
SIZE
  6
CONTINUOUS
 62
     0
 10
-361.5
 20
-242.9999999999998
 30
0.0
 11
-361.5
 21
-384.09720379612912
 31
0.0
  0
LINE
  5
1951
  8
SIZE
  6
CONTINUOUS
 62
     0
 10
-350.50000000000063
 20
-265.0
 30
0.0
 11
-350.50000000000063
 21
-384.09720379612912
 31
0.0
  0
LINE
  5
1952
  8
SIZE
  6
CONTINUOUS
 62
     0
 10
-371.49999999999989
 20
-354.09720379612912
 30
0.0
 11
-381.49999999999989
 21
-354.09720379612912
 31
0.0
  0
LINE
  5
1953
  8
SIZE
  6
CONTINUOUS
 62
     0
 10
-340.50000000000063
 20
-354.09720379612912
 30
0.0
 11
-252.90000000000069
 21
-354.09720379612912
 31
0.0
  0
LINE
  5
1954
  8
SIZE
  6
CONTINUOUS
 62
     0
 10
-361.5
 20
-354.09720379612912
 30
0.0
 11
-350.50000000000063
 21
-354.09720379612912
 31
0.0
  0
INSERT
  5
1955
  8
SIZE
  6
CONTINUOUS
 62
     0
  2
_ORIGIN
 10
-361.5
 20
-354.09720379612912
 30
0.0
 41
10.0
 42
10.0
 43
10.0
  0
INSERT
  5
1956
  8
SIZE
  6
CONTINUOUS
 62
     0
  2
_ORIGIN
 10
-350.50000000000063
 20
-354.09720379612912
 30
0.0
 41
10.0
 42
10.0
 43
10.0
 50
180.0
  0
TEXT
  5
1957
  8
DETAIL
  6
CONTINUOUS
 62
     0
 10
-320.50000000000063
 20
-344.09720379612912
 30
0.0
 40
64.0
  1
11
 41
0.9
  0
POINT
  5
1958
  8
DEFPOINTS
  6
CONTINUOUS
 62
     0
 10
-361.5
 20
-222.99999999999989
 30
0.0
  0
POINT
  5
1959
  8
DEFPOINTS
  6
CONTINUOUS
 62
     0
 10
-350.50000000000063
 20
-245.0
 30
0.0
  0
POINT
  5
195A
  8
DEFPOINTS
  6
CONTINUOUS
 62
     0
 10
-350.50000000000063
 20
-354.09720379612912
 30
0.0
  0
ENDBLK
  5
195B
  8
0
  0
BLOCK
  8
0
  2
*D69
 70
     1
 10
0.0
 20
0.0
 30
0.0
  3
*D69
  1

  0
LINE
  5
195E
  8
SIZE
  6
CONTINUOUS
 62
     0
 10
-350.50000000000063
 20
-265.0
 30
0.0
 11
-350.50000000000063
 21
-450.09167077032532
 31
0.0
  0
LINE
  5
195F
  8
SIZE
  6
CONTINUOUS
 62
     0
 10
304.49999999999989
 20
-265.0
 30
0.0
 11
304.49999999999989
 21
-450.09167077032532
 31
0.0
  0
LINE
  5
1960
  8
SIZE
  6
CONTINUOUS
 62
     0
 10
-340.50000000000063
 20
-420.09167077032532
 30
0.0
 11
294.49999999999989
 21
-420.09167077032532
 31
0.0
  0
INSERT
  5
1961
  8
SIZE
  6
CONTINUOUS
 62
     0
  2
_ORIGIN
 10
-350.50000000000063
 20
-420.09167077032532
 30
0.0
 41
10.0
 42
10.0
 43
10.0
 50
180.0
  0
INSERT
  5
1962
  8
SIZE
  6
CONTINUOUS
 62
     0
  2
_ORIGIN
 10
304.49999999999989
 20
-420.09167077032532
 30
0.0
 41
10.0
 42
10.0
 43
10.0
  0
TEXT
  5
1963
  8
DETAIL
  6
CONTINUOUS
 62
     0
 10
-97.057142857143205
 20
-410.09167077032538
 30
0.0
 40
64.0
  1
655
 41
0.9
  0
POINT
  5
1964
  8
DEFPOINTS
  6
CONTINUOUS
 62
     0
 10
-350.50000000000063
 20
-245.0
 30
0.0
  0
POINT
  5
1965
  8
DEFPOINTS
  6
CONTINUOUS
 62
     0
 10
304.49999999999989
 20
-245.0
 30
0.0
  0
POINT
  5
1966
  8
DEFPOINTS
  6
CONTINUOUS
 62
     0
 10
304.49999999999989
 20
-420.09167077032532
 30
0.0
  0
ENDBLK
  5
1967
  8
0
  0
BLOCK
  8
0
  2
*D70
 70
     1
 10
0.0
 20
0.0
 30
0.0
  3
*D70
  1

  0
LINE
  5
196A
  8
SIZE
  6
CONTINUOUS
 62
     0
 10
-245.0
 20
-230.0
 30
0.0
 11
-379.12819320999358
 21
-229.9999999999998
 31
0.0
  0
LINE
  5
196B
  8
SIZE
  6
CONTINUOUS
 62
     0
 10
-264.99999999999949
 20
-157.00000000000091
 30
0.0
 11
-379.12819320999358
 21
-157.0000000000008
 31
0.0
  0
LINE
  5
196C
  8
SIZE
  6
CONTINUOUS
 62
     0
 10
-349.12819320999358
 20
-167.0000000000008
 30
0.0
 11
-349.12819320999358
 21
-219.9999999999998
 31
0.0
  0
LINE
  5
196D
  8
SIZE
  6
CONTINUOUS
 62
     0
 10
-349.12819320999358
 20
-229.9999999999998
 30
0.0
 11
-349.12819320999358
 21
-356.09472413117692
 31
0.0
  0
INSERT
  5
196E
  8
SIZE
  6
CONTINUOUS
 62
     0
  2
_ORIGIN
 10
-349.12819320999358
 20
-157.0000000000008
 30
0.0
 41
10.0
 42
10.0
 43
10.0
 50
90.0
  0
INSERT
  5
196F
  8
SIZE
  6
CONTINUOUS
 62
     0
  2
_ORIGIN
 10
-349.12819320999358
 20
-229.9999999999998
 30
0.0
 41
10.0
 42
10.0
 43
10.0
 50
270.0
  0
TEXT
  5
1970
  8
0
 62
     0
 10
-519.12800000000004
 20
-412.74599999999998
 30
0.0
 40
64.0
  1
73
  0
POINT
  5
1971
  8
DEFPOINTS
  6
CONTINUOUS
 62
     0
 10
-225.0
 20
-230.0
 30
0.0
  0
POINT
  5
1972
  8
DEFPOINTS
  6
CONTINUOUS
 62
     0
 10
-244.9999999999994
 20
-157.00000000000091
 30
0.0
  0
POINT
  5
1973
  8
DEFPOINTS
  6
CONTINUOUS
 62
     0
 10
-349.12819320999358
 20
-157.0000000000008
 30
0.0
  0
ENDBLK
  5
1974
  8
0
  0
BLOCK
  8
0
  2
*D71
 70
     1
 10
0.0
 20
0.0
 30
0.0
  3
*D71
  1

  0
LINE
  5
1977
  8
SIZE
  6
CONTINUOUS
 62
     0
 10
-265.0000000000008
 20
-48.000000000000682
 30
0.0
 11
-379.12819320999358
 21
-48.000000000000639
 31
0.0
  0
LINE
  5
1978
  8
SIZE
  6
CONTINUOUS
 62
     0
 10
-264.99999999999949
 20
-157.00000000000091
 30
0.0
 11
-379.12819320999358
 21
-157.0000000000008
 31
0.0
  0
LINE
  5
1979
  8
SIZE
  6
CONTINUOUS
 62
     0
 10
-349.12819320999358
 20
-58.000000000000639
 30
0.0
 11
-349.12819320999358
 21
-147.0000000000008
 31
0.0
  0
INSERT
  5
197A
  8
SIZE
  6
CONTINUOUS
 62
     0
  2
_ORIGIN
 10
-349.12819320999358
 20
-48.000000000000639
 30
0.0
 41
10.0
 42
10.0
 43
10.0
 50
90.0
  0
INSERT
  5
197B
  8
SIZE
  6
CONTINUOUS
 62
     0
  2
_ORIGIN
 10
-349.12819320999358
 20
-157.0000000000008
 30
0.0
 41
10.0
 42
10.0
 43
10.0
 50
270.0
  0
TEXT
  5
197C
  8
0
 62
     0
 10
-519.12800000000004
 20
-241.39400000000001
 30
0.0
 40
64.0
  1
109
  0
POINT
  5
197D
  8
DEFPOINTS
  6
CONTINUOUS
 62
     0
 10
-245.00000000000091
 20
-48.000000000000682
 30
0.0
  0
POINT
  5
197E
  8
DEFPOINTS
  6
CONTINUOUS
 62
     0
 10
-244.9999999999994
 20
-157.00000000000091
 30
0.0
  0
POINT
  5
197F
  8
DEFPOINTS
  6
CONTINUOUS
 62
     0
 10
-349.12819320999358
 20
-157.0000000000008
 30
0.0
  0
ENDBLK
  5
1980
  8
0
  0
BLOCK
  8
0
  2
*D72
 70
     1
 10
0.0
 20
0.0
 30
0.0
  3
*D72
  1

  0
LINE
  5
1983
  8
SIZE
  6
CONTINUOUS
 62
     0
 10
-1911.265425190046
 20
-2062.2728349499198
 30
0.0
 11
-1667.231581628406
 21
-2062.2728349499198
 31
0.0
  0
LINE
  5
1984
  8
SIZE
  6
CONTINUOUS
 62
     0
 10
-1917.2654251900481
 20
-1860.27283494992
 30
0.0
 11
-1667.231581628406
 21
-1860.27283494992
 31
0.0
  0
LINE
  5
1985
  8
SIZE
  6
CONTINUOUS
 62
     0
 10
-1697.231581628406
 20
-2052.2728349499198
 30
0.0
 11
-1697.231581628406
 21
-1870.2728349499209
 31
0.0
  0
INSERT
  5
1986
  8
SIZE
  6
CONTINUOUS
 62
     0
  2
_ORIGIN
 10
-1697.231581628406
 20
-2062.2728349499198
 30
0.0
 41
10.0
 42
10.0
 43
10.0
 50
270.0
  0
INSERT
  5
1987
  8
SIZE
  6
CONTINUOUS
 62
     0
  2
_ORIGIN
 10
-1697.231581628406
 20
-1860.27283494992
 30
0.0
 41
10.0
 42
10.0
 43
10.0
 50
90.0
  0
TEXT
  5
1988
  8
DETAIL
  6
CONTINUOUS
 62
     0
 10
-1707.231581628406
 20
-2033.690460084174
 30
0.0
 40
64.0
  1
202
 50
90.0
 41
0.9
  0
POINT
  5
1989
  8
DEFPOINTS
  6
CONTINUOUS
 62
     0
 10
-1931.265425190046
 20
-2062.2728349499198
 30
0.0
  0
POINT
  5
198A
  8
DEFPOINTS
  6
CONTINUOUS
 62
     0
 10
-1937.265425190046
 20
-1860.27283494992
 30
0.0
  0
POINT
  5
198B
  8
DEFPOINTS
  6
CONTINUOUS
 62
     0
 10
-1697.231581628406
 20
-1860.27283494992
 30
0.0
  0
ENDBLK
  5
198C
  8
0
  0
BLOCK
  8
0
  2
*D73
 70
     1
 10
0.0
 20
0.0
 30
0.0
  3
*D73
  1

  0
LINE
  5
198F
  8
SIZE
  6
CONTINUOUS
 62
     0
 10
-1911.265425190046
 20
-2062.2728349499198
 30
0.0
 11
-1777.1372319800539
 21
-2062.2728349499198
 31
0.0
  0
LINE
  5
1990
  8
SIZE
  6
CONTINUOUS
 62
     0
 10
-1891.2654251900469
 20
-1989.2728349499221
 30
0.0
 11
-1777.1372319800539
 21
-1989.2728349499221
 31
0.0
  0
LINE
  5
1991
  8
SIZE
  6
CONTINUOUS
 62
     0
 10
-1807.137231980053
 20
-1999.2728349499221
 30
0.0
 11
-1807.137231980053
 21
-2052.2728349499198
 31
0.0
  0
LINE
  5
1992
  8
SIZE
  6
CONTINUOUS
 62
     0
 10
-1807.137231980053
 20
-2062.2728349499198
 30
0.0
 11
-1807.137231980053
 21
-2188.3675590810958
 31
0.0
  0
INSERT
  5
1993
  8
SIZE
  6
CONTINUOUS
 62
     0
  2
_ORIGIN
 10
-1807.137231980053
 20
-1989.2728349499221
 30
0.0
 41
10.0
 42
10.0
 43
10.0
 50
90.0
  0
INSERT
  5
1994
  8
SIZE
  6
CONTINUOUS
 62
     0
  2
_ORIGIN
 10
-1807.137231980053
 20
-2062.2728349499198
 30
0.0
 41
10.0
 42
10.0
 43
10.0
 50
270.0
  0
TEXT
  5
1995
  8
DETAIL
  6
CONTINUOUS
 62
     0
 10
-1817.1372319800521
 20
-2178.3675590810981
 30
0.0
 40
64.0
  1
73
 50
90.0
 41
0.9
  0
POINT
  5
1996
  8
DEFPOINTS
  6
CONTINUOUS
 62
     0
 10
-1931.265425190046
 20
-2062.2728349499198
 30
0.0
  0
POINT
  5
1997
  8
DEFPOINTS
  6
CONTINUOUS
 62
     0
 10
-1911.2654251900481
 20
-1989.2728349499221
 30
0.0
  0
POINT
  5
1998
  8
DEFPOINTS
  6
CONTINUOUS
 62
     0
 10
-1807.137231980053
 20
-1989.2728349499221
 30
0.0
  0
ENDBLK
  5
1999
  8
0
  0
BLOCK
  8
0
  2
*D74
 70
     1
 10
0.0
 20
0.0
 30
0.0
  3
*D74
  1

  0
LINE
  5
199C
  8
SIZE
  6
CONTINUOUS
 62
     0
 10
-1891.2654251900451
 20
-1880.2728349499221
 30
0.0
 11
-1777.1372319800539
 21
-1880.2728349499221
 31
0.0
  0
LINE
  5
199D
  8
SIZE
  6
CONTINUOUS
 62
     0
 10
-1891.2654251900469
 20
-1989.2728349499221
 30
0.0
 11
-1777.1372319800539
 21
-1989.2728349499221
 31
0.0
  0
LINE
  5
199E
  8
SIZE
  6
CONTINUOUS
 62
     0
 10
-1807.137231980053
 20
-1890.2728349499221
 30
0.0
 11
-1807.137231980053
 21
-1979.2728349499209
 31
0.0
  0
INSERT
  5
199F
  8
SIZE
  6
CONTINUOUS
 62
     0
  2
_ORIGIN
 10
-1807.137231980053
 20
-1880.2728349499221
 30
0.0
 41
10.0
 42
10.0
 43
10.0
 50
90.0
  0
INSERT
  5
19A0
  8
SIZE
  6
CONTINUOUS
 62
     0
  2
_ORIGIN
 10
-1807.137231980053
 20
-1989.2728349499221
 30
0.0
 41
10.0
 42
10.0
 43
10.0
 50
270.0
  0
TEXT
  5
19A1
  8
DETAIL
  6
CONTINUOUS
 62
     0
 10
-1817.1372319800521
 20
-2027.5870062541931
 30
0.0
 40
64.0
  1
109
 50
90.0
 41
0.9
  0
POINT
  5
19A2
  8
DEFPOINTS
  6
CONTINUOUS
 62
     0
 10
-1911.265425190046
 20
-1880.2728349499221
 30
0.0
  0
POINT
  5
19A3
  8
DEFPOINTS
  6
CONTINUOUS
 62
     0
 10
-1911.2654251900481
 20
-1989.2728349499221
 30
0.0
  0
POINT
  5
19A4
  8
DEFPOINTS
  6
CONTINUOUS
 62
     0
 10
-1807.137231980053
 20
-1989.2728349499221
 30
0.0
  0
ENDBLK
  5
19A5
  8
0
  0
BLOCK
  8
0
  2
*D75
 70
     1
 10
0.0
 20
0.0
 30
0.0
  3
*D75
  1

  0
LINE
  5
19A8
  8
SIZE
  6
CONTINUOUS
 62
     0
 10
-361.5
 20
-3907.545669899841
 30
0.0
 11
-361.5
 21
-4048.6428736959701
 31
0.0
  0
LINE
  5
19A9
  8
SIZE
  6
CONTINUOUS
 62
     0
 10
-350.50000000000063
 20
-3929.545669899841
 30
0.0
 11
-350.50000000000063
 21
-4048.6428736959701
 31
0.0
  0
LINE
  5
19AA
  8
SIZE
  6
CONTINUOUS
 62
     0
 10
-371.49999999999989
 20
-4018.6428736959729
 30
0.0
 11
-381.49999999999989
 21
-4018.6428736959729
 31
0.0
  0
LINE
  5
19AB
  8
SIZE
  6
CONTINUOUS
 62
     0
 10
-340.5000000000008
 20
-4018.6428736959729
 30
0.0
 11
-252.90000000000069
 21
-4018.6428736959729
 31
0.0
  0
LINE
  5
19AC
  8
SIZE
  6
CONTINUOUS
 62
     0
 10
-361.5
 20
-4018.6428736959729
 30
0.0
 11
-350.50000000000063
 21
-4018.6428736959729
 31
0.0
  0
INSERT
  5
19AD
  8
SIZE
  6
CONTINUOUS
 62
     0
  2
_ORIGIN
 10
-361.5
 20
-4018.6428736959729
 30
0.0
 41
10.0
 42
10.0
 43
10.0
  0
INSERT
  5
19AE
  8
SIZE
  6
CONTINUOUS
 62
     0
  2
_ORIGIN
 10
-350.50000000000063
 20
-4018.6428736959729
 30
0.0
 41
10.0
 42
10.0
 43
10.0
 50
180.0
  0
TEXT
  5
19AF
  8
DETAIL
  6
CONTINUOUS
 62
     0
 10
-320.50000000000063
 20
-4008.642873695971
 30
0.0
 40
64.0
  1
11
 41
0.9
  0
POINT
  5
19B0
  8
DEFPOINTS
  6
CONTINUOUS
 62
     0
 10
-361.5
 20
-3887.5456698998428
 30
0.0
  0
POINT
  5
19B1
  8
DEFPOINTS
  6
CONTINUOUS
 62
     0
 10
-350.50000000000063
 20
-3909.545669899841
 30
0.0
  0
POINT
  5
19B2
  8
DEFPOINTS
  6
CONTINUOUS
 62
     0
 10
-350.50000000000063
 20
-4018.6428736959729
 30
0.0
  0
ENDBLK
  5
19B3
  8
0
  0
BLOCK
  8
0
  2
*D76
 70
     1
 10
0.0
 20
0.0
 30
0.0
  3
*D76
  1

  0
LINE
  5
19B6
  8
SIZE
  6
CONTINUOUS
 62
     0
 10
-350.50000000000063
 20
-3929.545669899841
 30
0.0
 11
-350.50000000000063
 21
-4114.6373406701659
 31
0.0
  0
LINE
  5
19B7
  8
SIZE
  6
CONTINUOUS
 62
     0
 10
304.49999999999989
 20
-3929.545669899841
 30
0.0
 11
304.49999999999989
 21
-4114.6373406701659
 31
0.0
  0
LINE
  5
19B8
  8
SIZE
  6
CONTINUOUS
 62
     0
 10
-340.5000000000008
 20
-4084.6373406701682
 30
0.0
 11
294.49999999999977
 21
-4084.6373406701682
 31
0.0
  0
INSERT
  5
19B9
  8
SIZE
  6
CONTINUOUS
 62
     0
  2
_ORIGIN
 10
-350.50000000000063
 20
-4084.6373406701682
 30
0.0
 41
10.0
 42
10.0
 43
10.0
 50
180.0
  0
INSERT
  5
19BA
  8
SIZE
  6
CONTINUOUS
 62
     0
  2
_ORIGIN
 10
304.49999999999989
 20
-4084.6373406701682
 30
0.0
 41
10.0
 42
10.0
 43
10.0
  0
TEXT
  5
19BB
  8
DETAIL
  6
CONTINUOUS
 62
     0
 10
-97.057142857143234
 20
-4074.6373406701669
 30
0.0
 40
64.0
  1
655
 41
0.9
  0
POINT
  5
19BC
  8
DEFPOINTS
  6
CONTINUOUS
 62
     0
 10
-350.50000000000063
 20
-3909.545669899841
 30
0.0
  0
POINT
  5
19BD
  8
DEFPOINTS
  6
CONTINUOUS
 62
     0
 10
304.49999999999989
 20
-3909.545669899841
 30
0.0
  0
POINT
  5
19BE
  8
DEFPOINTS
  6
CONTINUOUS
 62
     0
 10
304.49999999999989
 20
-4084.6373406701682
 30
0.0
  0
ENDBLK
  5
19BF
  8
0
  0
BLOCK
  8
0
  2
*D77
 70
     1
 10
0.0
 20
0.0
 30
0.0
  3
*D77
  1

  0
LINE
  5
19C2
  8
SIZE
  6
CONTINUOUS
 62
     0
 10
-428.49999999999989
 20
-195.0
 30
0.0
 11
-505.10323267387128
 21
-194.9999999999998
 31
0.0
  0
LINE
  5
19C3
  8
SIZE
  6
CONTINUOUS
 62
     0
 10
-390.50000000000068
 20
-225.0
 30
0.0
 11
-505.10323267387128
 21
-224.99999999999989
 31
0.0
  0
LINE
  5
19C4
  8
SIZE
  6
CONTINUOUS
 62
     0
 10
-475.10323267387128
 20
-184.9999999999998
 30
0.0
 11
-475.10323267387128
 21
-174.9999999999998
 31
0.0
  0
LINE
  5
19C5
  8
SIZE
  6
CONTINUOUS
 62
     0
 10
-475.10323267387128
 20
-234.9999999999998
 30
0.0
 11
-475.10323267387128
 21
-358.25714285714258
 31
0.0
  0
LINE
  5
19C6
  8
SIZE
  6
CONTINUOUS
 62
     0
 10
-475.10323267387128
 20
-194.9999999999998
 30
0.0
 11
-475.10323267387128
 21
-224.99999999999989
 31
0.0
  0
INSERT
  5
19C7
  8
SIZE
  6
CONTINUOUS
 62
     0
  2
_ORIGIN
 10
-475.10323267387128
 20
-194.9999999999998
 30
0.0
 41
10.0
 42
10.0
 43
10.0
 50
270.0
  0
INSERT
  5
19C8
  8
SIZE
  6
CONTINUOUS
 62
     0
  2
_ORIGIN
 10
-475.10323267387128
 20
-224.99999999999989
 30
0.0
 41
10.0
 42
10.0
 43
10.0
 50
90.0
  0
TEXT
  5
19C9
  8
DETAIL
  6
CONTINUOUS
 62
     0
 10
-485.10323267387139
 20
-348.25714285714281
 30
0.0
 40
64.0
  1
30
 50
90.0
 41
0.9
  0
POINT
  5
19CA
  8
DEFPOINTS
  6
CONTINUOUS
 62
     0
 10
-408.49999999999989
 20
-195.0
 30
0.0
  0
POINT
  5
19CB
  8
DEFPOINTS
  6
CONTINUOUS
 62
     0
 10
-370.50000000000068
 20
-225.0
 30
0.0
  0
POINT
  5
19CC
  8
DEFPOINTS
  6
CONTINUOUS
 62
     0
 10
-475.10323267387128
 20
-224.99999999999989
 30
0.0
  0
ENDBLK
  5
19CD
  8
0
  0
BLOCK
  8
0
  2
*D78
 70
     1
 10
0.0
 20
0.0
 30
0.0
  3
*D78
  1

  0
LINE
  5
19D0
  8
SIZE
  6
CONTINUOUS
 62
     0
 10
-428.49999999999989
 20
-3859.545669899841
 30
0.0
 11
-505.47247902000947
 21
-3859.545669899841
 31
0.0
  0
LINE
  5
19D1
  8
SIZE
  6
CONTINUOUS
 62
     0
 10
-390.5000000000008
 20
-3889.545669899841
 30
0.0
 11
-505.47247902000947
 21
-3889.545669899841
 31
0.0
  0
LINE
  5
19D2
  8
SIZE
  6
CONTINUOUS
 62
     0
 10
-475.47247902000947
 20
-3849.545669899841
 30
0.0
 11
-475.47247902000947
 21
-3839.545669899841
 31
0.0
  0
LINE
  5
19D3
  8
SIZE
  6
CONTINUOUS
 62
     0
 10
-475.47247902000947
 20
-3899.5456698998419
 30
0.0
 11
-475.47247902000947
 21
-4022.8028127569842
 31
0.0
  0
LINE
  5
19D4
  8
SIZE
  6
CONTINUOUS
 62
     0
 10
-475.47247902000947
 20
-3859.545669899841
 30
0.0
 11
-475.47247902000947
 21
-3889.545669899841
 31
0.0
  0
INSERT
  5
19D5
  8
SIZE
  6
CONTINUOUS
 62
     0
  2
_ORIGIN
 10
-475.47247902000947
 20
-3859.545669899841
 30
0.0
 41
10.0
 42
10.0
 43
10.0
 50
270.0
  0
INSERT
  5
19D6
  8
SIZE
  6
CONTINUOUS
 62
     0
  2
_ORIGIN
 10
-475.47247902000947
 20
-3889.545669899841
 30
0.0
 41
10.0
 42
10.0
 43
10.0
 50
90.0
  0
TEXT
  5
19D7
  8
DETAIL
  6
CONTINUOUS
 62
     0
 10
-485.47247902000879
 20
-4012.8028127569851
 30
0.0
 40
64.0
  1
30
 50
90.0
 41
0.9
  0
POINT
  5
19D8
  8
DEFPOINTS
  6
CONTINUOUS
 62
     0
 10
-408.49999999999989
 20
-3859.545669899841
 30
0.0
  0
POINT
  5
19D9
  8
DEFPOINTS
  6
CONTINUOUS
 62
     0
 10
-370.5000000000008
 20
-3889.545669899841
 30
0.0
  0
POINT
  5
19DA
  8
DEFPOINTS
  6
CONTINUOUS
 62
     0
 10
-475.47247902000947
 20
-3889.545669899841
 30
0.0
  0
ENDBLK
  5
19DB
  8
0
  0
BLOCK
  8
0
  2
*D79
 70
     1
 10
0.0
 20
0.0
 30
0.0
  3
*D79
  1

  0
LINE
  5
19DE
  8
SIZE
  6
CONTINUOUS
 62
     0
 10
-225.0
 20
20.0
 30
0.0
 11
-225.0
 21
119.8381824413572
 31
0.0
  0
LINE
  5
19DF
  8
SIZE
  6
CONTINUOUS
 62
     0
 10
-194.9999999999996
 20
11.999999999999091
 30
0.0
 11
-194.9999999999996
 21
119.8381824413572
 31
0.0
  0
LINE
  5
19E0
  8
SIZE
  6
CONTINUOUS
 62
     0
 10
-184.9999999999996
 20
89.838182441357276
 30
0.0
 11
-174.9999999999996
 21
89.838182441357276
 31
0.0
  0
LINE
  5
19E1
  8
SIZE
  6
CONTINUOUS
 62
     0
 10
-235.0
 20
89.838182441357276
 30
0.0
 11
-358.25714285714281
 21
89.838182441357276
 31
0.0
  0
LINE
  5
19E2
  8
SIZE
  6
CONTINUOUS
 62
     0
 10
-194.9999999999996
 20
89.838182441357276
 30
0.0
 11
-225.0
 21
89.838182441357276
 31
0.0
  0
INSERT
  5
19E3
  8
SIZE
  6
CONTINUOUS
 62
     0
  2
_ORIGIN
 10
-194.9999999999996
 20
89.838182441357276
 30
0.0
 41
10.0
 42
10.0
 43
10.0
 50
180.0
  0
INSERT
  5
19E4
  8
SIZE
  6
CONTINUOUS
 62
     0
  2
_ORIGIN
 10
-225.0
 20
89.838182441357276
 30
0.0
 41
10.0
 42
10.0
 43
10.0
  0
TEXT
  5
19E5
  8
0
 62
     0
 10
-429.62899999999991
 20
18.558199999999989
 30
0.0
 40
64.0
  1
30
  0
POINT
  5
19E6
  8
DEFPOINTS
  6
CONTINUOUS
 62
     0
 10
-225.0
 20
0.0
 30
0.0
  0
POINT
  5
19E7
  8
DEFPOINTS
  6
CONTINUOUS
 62
     0
 10
-194.9999999999996
 20
-8.0000000000009095
 30
0.0
  0
POINT
  5
19E8
  8
DEFPOINTS
  6
CONTINUOUS
 62
     0
 10
-194.9999999999996
 20
89.838182441357276
 30
0.0
  0
ENDBLK
  5
19E9
  8
0
  0
BLOCK
  8
0
  2
*D80
 70
     1
 10
0.0
 20
0.0
 30
0.0
  3
*D80
  1

  0
LINE
  5
19EC
  8
SIZE
  6
CONTINUOUS
 62
     0
 10
-1961.2654251900481
 20
-1820.27283494992
 30
0.0
 11
-1961.2654251900481
 21
-1712.8777019920819
 31
0.0
  0
LINE
  5
19ED
  8
SIZE
  6
CONTINUOUS
 62
     0
 10
-1931.265425190046
 20
-1812.27283494992
 30
0.0
 11
-1931.265425190046
 21
-1712.8777019920819
 31
0.0
  0
LINE
  5
19EE
  8
SIZE
  6
CONTINUOUS
 62
     0
 10
-1971.265425190046
 20
-1742.8777019920819
 30
0.0
 11
-1981.2654251900481
 21
-1742.8777019920819
 31
0.0
  0
LINE
  5
19EF
  8
SIZE
  6
CONTINUOUS
 62
     0
 10
-1921.265425190046
 20
-1742.8777019920819
 30
0.0
 11
-1798.008282332903
 21
-1742.8777019920819
 31
0.0
  0
LINE
  5
19F0
  8
SIZE
  6
CONTINUOUS
 62
     0
 10
-1961.2654251900481
 20
-1742.8777019920819
 30
0.0
 11
-1931.265425190046
 21
-1742.8777019920819
 31
0.0
  0
INSERT
  5
19F1
  8
SIZE
  6
CONTINUOUS
 62
     0
  2
_ORIGIN
 10
-1961.2654251900481
 20
-1742.8777019920819
 30
0.0
 41
10.0
 42
10.0
 43
10.0
  0
INSERT
  5
19F2
  8
SIZE
  6
CONTINUOUS
 62
     0
  2
_ORIGIN
 10
-1931.265425190046
 20
-1742.8777019920819
 30
0.0
 41
10.0
 42
10.0
 43
10.0
 50
180.0
  0
TEXT
  5
19F3
  8
DETAIL
  6
CONTINUOUS
 62
     0
 10
-1901.265425190046
 20
-1732.877701992081
 30
0.0
 40
64.0
  1
30
 41
0.9
  0
POINT
  5
19F4
  8
DEFPOINTS
  6
CONTINUOUS
 62
     0
 10
-1961.2654251900481
 20
-1840.27283494992
 30
0.0
  0
POINT
  5
19F5
  8
DEFPOINTS
  6
CONTINUOUS
 62
     0
 10
-1931.265425190046
 20
-1832.27283494992
 30
0.0
  0
POINT
  5
19F6
  8
DEFPOINTS
  6
CONTINUOUS
 62
     0
 10
-1931.265425190046
 20
-1742.8777019920819
 30
0.0
  0
ENDBLK
  5
19F7
  8
0
  0
BLOCK
  8
0
  2
*D81
 70
     1
 10
0.0
 20
0.0
 30
0.0
  3
*D81
  1

  0
LINE
  5
1A34
  8
SIZE
  6
CONTINUOUS
 62
     0
 10
203.0
 20
11.999999999999091
 30
0.0
 11
203.0
 21
119.29936280888251
 31
0.0
  0
LINE
  5
1A35
  8
SIZE
  6
CONTINUOUS
 62
     0
 10
-194.9999999999996
 20
11.999999999999091
 30
0.0
 11
-194.9999999999996
 21
119.29936280888251
 31
0.0
  0
LINE
  5
1A36
  8
SIZE
  6
CONTINUOUS
 62
     0
 10
193.0
 20
89.299362808882506
 30
0.0
 11
-184.9999999999996
 21
89.299362808882506
 31
0.0
  0
INSERT
  5
1A37
  8
SIZE
  6
CONTINUOUS
 62
     0
  2
_ORIGIN
 10
203.0
 20
89.299362808882506
 30
0.0
 41
10.0
 42
10.0
 43
10.0
  0
INSERT
  5
1A38
  8
SIZE
  6
CONTINUOUS
 62
     0
  2
_ORIGIN
 10
-194.9999999999996
 20
89.299362808882506
 30
0.0
 41
10.0
 42
10.0
 43
10.0
 50
180.0
  0
TEXT
  5
1A39
  8
DETAIL
  6
CONTINUOUS
 62
     0
 10
-70.057142857142694
 20
99.299362808882506
 30
0.0
 40
64.0
  1
398
 41
0.9
  0
POINT
  5
1A3A
  8
DEFPOINTS
  6
CONTINUOUS
 62
     0
 10
203.0
 20
-8.0000000000009095
 30
0.0
  0
POINT
  5
1A3B
  8
DEFPOINTS
  6
CONTINUOUS
 62
     0
 10
-194.9999999999996
 20
-8.0000000000009095
 30
0.0
  0
POINT
  5
1A3C
  8
DEFPOINTS
  6
CONTINUOUS
 62
     0
 10
-194.9999999999996
 20
89.299362808882506
 30
0.0
  0
ENDBLK
  5
1A3E
  8
0
  0
BLOCK
  8
0
  2
*D82
 70
     1
 10
0.0
 20
0.0
 30
0.0
  3
*D82
  1

  0
LINE
  5
1A41
  8
SIZE
  6
CONTINUOUS
 62
     0
 10
-225.0
 20
20.0
 30
0.0
 11
-224.99999999999989
 21
245.01267250754771
 31
0.0
  0
LINE
  5
1A42
  8
SIZE
  6
CONTINUOUS
 62
     0
 10
225.0
 20
20.0
 30
0.0
 11
225.0
 21
245.01267250754771
 31
0.0
  0
LINE
  5
1A43
  8
SIZE
  6
CONTINUOUS
 62
     0
 10
-215.0
 20
215.01267250754771
 30
0.0
 11
215.0
 21
215.01267250754771
 31
0.0
  0
INSERT
  5
1A44
  8
SIZE
  6
CONTINUOUS
 62
     0
  2
_ORIGIN
 10
-225.0
 20
215.01267250754771
 30
0.0
 41
10.0
 42
10.0
 43
10.0
 50
180.0
  0
INSERT
  5
1A45
  8
SIZE
  6
CONTINUOUS
 62
     0
  2
_ORIGIN
 10
225.0
 20
215.01267250754771
 30
0.0
 41
10.0
 42
10.0
 43
10.0
  0
TEXT
  5
1A46
  8
DETAIL
  6
CONTINUOUS
 62
     0
 10
-74.05714285714285
 20
225.01267250754779
 30
0.0
 40
64.0
  1
450
 41
0.9
  0
POINT
  5
1A47
  8
DEFPOINTS
  6
CONTINUOUS
 62
     0
 10
-225.0
 20
0.0
 30
0.0
  0
POINT
  5
1A48
  8
DEFPOINTS
  6
CONTINUOUS
 62
     0
 10
225.0
 20
0.0
 30
0.0
  0
POINT
  5
1A49
  8
DEFPOINTS
  6
CONTINUOUS
 62
     0
 10
225.0
 20
215.01267250754771
 30
0.0
  0
ENDBLK
  5
1A4B
  8
0
  0
BLOCK
  8
0
  2
*D83
 70
     1
 10
0.0
 20
0.0
 30
0.0
  3
*D83
  1

  0
LINE
  5
1A4E
  8
SIZE
  6
CONTINUOUS
 62
     0
 10
225.0
 20
20.0
 30
0.0
 11
225.0
 21
244.98432904812751
 31
0.0
  0
LINE
  5
1A4F
  8
SIZE
  6
CONTINUOUS
 62
     0
 10
340.0
 20
9.9999999999993197
 30
0.0
 11
340.0
 21
244.98432904812751
 31
0.0
  0
LINE
  5
1A50
  8
SIZE
  6
CONTINUOUS
 62
     0
 10
215.0
 20
214.98432904812759
 30
0.0
 11
205.0
 21
214.98432904812759
 31
0.0
  0
LINE
  5
1A51
  8
SIZE
  6
CONTINUOUS
 62
     0
 10
350.0
 20
214.98432904812759
 30
0.0
 11
360.0
 21
214.98432904812759
 31
0.0
  0
LINE
  5
1A52
  8
SIZE
  6
CONTINUOUS
 62
     0
 10
225.0
 20
214.98432904812759
 30
0.0
 11
340.0
 21
214.98432904812759
 31
0.0
  0
INSERT
  5
1A53
  8
SIZE
  6
CONTINUOUS
 62
     0
  2
_ORIGIN
 10
225.0
 20
214.98432904812759
 30
0.0
 41
10.0
 42
10.0
 43
10.0
  0
INSERT
  5
1A54
  8
SIZE
  6
CONTINUOUS
 62
     0
  2
_ORIGIN
 10
340.0
 20
214.98432904812759
 30
0.0
 41
10.0
 42
10.0
 43
10.0
 50
180.0
  0
TEXT
  5
1A55
  8
DETAIL
  6
CONTINUOUS
 62
     0
 10
219.4142857142856
 20
224.98432904812759
 30
0.0
 40
64.0
  1
115
 41
0.9
  0
POINT
  5
1A56
  8
DEFPOINTS
  6
CONTINUOUS
 62
     0
 10
225.0
 20
0.0
 30
0.0
  0
POINT
  5
1A57
  8
DEFPOINTS
  6
CONTINUOUS
 62
     0
 10
340.0
 20
-10.00000000000068
 30
0.0
  0
POINT
  5
1A58
  8
DEFPOINTS
  6
CONTINUOUS
 62
     0
 10
340.0
 20
214.98432904812759
 30
0.0
  0
ENDBLK
  5
1A5A
  8
0
  0
BLOCK
  8
0
  2
*D84
 70
     1
 10
0.0
 20
0.0
 30
0.0
  3
*D84
  1

  0
LINE
  5
1A5D
  8
SIZE
  6
CONTINUOUS
 62
     0
 10
-225.0
 20
-250.0
 30
0.0
 11
-225.0
 21
-403.85644562218101
 31
0.0
  0
LINE
  5
1A5E
  8
SIZE
  6
CONTINUOUS
 62
     0
 10
96.0
 20
-149.00000000000051
 30
0.0
 11
95.999999999999986
 21
-403.85644562218101
 31
0.0
  0
LINE
  5
1A5F
  8
SIZE
  6
CONTINUOUS
 62
     0
 10
-215.0
 20
-373.85644562218101
 30
0.0
 11
85.999999999999986
 21
-373.85644562218101
 31
0.0
  0
INSERT
  5
1A60
  8
SIZE
  6
CONTINUOUS
 62
     0
  2
_ORIGIN
 10
-225.0
 20
-373.85644562218101
 30
0.0
 41
10.0
 42
10.0
 43
10.0
 50
180.0
  0
INSERT
  5
1A61
  8
SIZE
  6
CONTINUOUS
 62
     0
  2
_ORIGIN
 10
95.999999999999986
 20
-373.85644562218101
 30
0.0
 41
10.0
 42
10.0
 43
10.0
  0
TEXT
  5
1A62
  8
DETAIL
  6
CONTINUOUS
 62
     0
 10
-126.21428571428569
 20
-363.85644562218101
 30
0.0
 40
64.0
  1
321
 41
0.9
  0
POINT
  5
1A63
  8
DEFPOINTS
  6
CONTINUOUS
 62
     0
 10
-225.0
 20
-230.0
 30
0.0
  0
POINT
  5
1A64
  8
DEFPOINTS
  6
CONTINUOUS
 62
     0
 10
96.0
 20
-129.0000000000006
 30
0.0
  0
POINT
  5
1A65
  8
DEFPOINTS
  6
CONTINUOUS
 62
     0
 10
95.999999999999986
 20
-373.85644562218101
 30
0.0
  0
ENDBLK
  5
1A67
  8
0
  0
BLOCK
  8
0
  2
*D85
 70
     1
 10
0.0
 20
0.0
 30
0.0
  3
*D85
  1

  0
LINE
  5
1A6A
  8
SIZE
  6
CONTINUOUS
 62
     0
 10
-245.0
 20
-230.0
 30
0.0
 11
-489.03384356164128
 21
-229.99999999999989
 31
0.0
  0
LINE
  5
1A6B
  8
SIZE
  6
CONTINUOUS
 62
     0
 10
-238.99999999999969
 20
-28.000000000000899
 30
0.0
 11
-489.03384356164122
 21
-28.000000000000831
 31
0.0
  0
LINE
  5
1A6C
  8
SIZE
  6
CONTINUOUS
 62
     0
 10
-459.03384356164128
 20
-219.99999999999989
 30
0.0
 11
-459.03384356164128
 21
-211.417625134253
 31
0.0
  0
LINE
  5
1A6D
  8
SIZE
  6
CONTINUOUS
 62
     0
 10
-459.03384356164122
 20
-38.000000000000838
 30
0.0
 11
-459.03384356164122
 21
-43.303339419967379
 31
0.0
  0
TEXT
  5
1A6E
  8
DETAIL
  6
CONTINUOUS
 62
     0
 10
-427.03384356164122
 20
-201.41762513425309
 30
0.0
 40
64.0
  1
202
 50
90.0
 41
0.9
  0
INSERT
  5
1A6F
  8
SIZE
  6
CONTINUOUS
 62
     0
  2
_ORIGIN
 10
-459.03384356164128
 20
-229.99999999999989
 30
0.0
 41
10.0
 42
10.0
 43
10.0
 50
270.0
  0
INSERT
  5
1A70
  8
SIZE
  6
CONTINUOUS
 62
     0
  2
_ORIGIN
 10
-459.03384356164122
 20
-28.000000000000838
 30
0.0
 41
10.0
 42
10.0
 43
10.0
 50
90.0
  0
POINT
  5
1A71
  8
DEFPOINTS
  6
CONTINUOUS
 62
     0
 10
-225.0
 20
-230.0
 30
0.0
  0
POINT
  5
1A72
  8
DEFPOINTS
  6
CONTINUOUS
 62
     0
 10
-218.9999999999996
 20
-28.000000000000909
 30
0.0
  0
POINT
  5
1A73
  8
DEFPOINTS
  6
CONTINUOUS
 62
     0
 10
-459.03384356164122
 20
-28.000000000000838
 30
0.0
  0
ENDBLK
  5
1A75
  8
0
  0
BLOCK
  8
0
  2
*D86
 70
     1
 10
0.0
 20
0.0
 30
0.0
  3
*D86
  1

  0
LINE
  5
1A78
  8
SIZE
  6
CONTINUOUS
 62
     0
 10
135.99999999999989
 20
-85.000000000000696
 30
0.0
 11
481.71156569566841
 21
-85.000000000000796
 31
0.0
  0
LINE
  5
1A79
  8
SIZE
  6
CONTINUOUS
 62
     0
 10
245.0
 20
-230.0
 30
0.0
 11
481.7115656956683
 21
-230.0
 31
0.0
  0
LINE
  5
1A7A
  8
SIZE
  6
CONTINUOUS
 62
     0
 10
451.71156569566853
 20
-95.000000000000753
 30
0.0
 11
451.71156569566841
 21
-220.0
 31
0.0
  0
TEXT
  5
1A7B
  8
DETAIL
  6
CONTINUOUS
 62
     0
 10
483.71156569566841
 20
-226.0714285714289
 30
0.0
 40
64.0
  1
145
 50
90.0
 41
0.9
  0
INSERT
  5
1A7C
  8
SIZE
  6
CONTINUOUS
 62
     0
  2
_ORIGIN
 10
451.71156569566853
 20
-85.000000000000753
 30
0.0
 41
10.0
 42
10.0
 43
10.0
 50
90.0
  0
INSERT
  5
1A7D
  8
SIZE
  6
CONTINUOUS
 62
     0
  2
_ORIGIN
 10
451.71156569566841
 20
-230.0
 30
0.0
 41
10.0
 42
10.0
 43
10.0
 50
270.0
  0
POINT
  5
1A7E
  8
DEFPOINTS
  6
CONTINUOUS
 62
     0
 10
116.0
 20
-85.000000000000696
 30
0.0
  0
POINT
  5
1A7F
  8
DEFPOINTS
  6
CONTINUOUS
 62
     0
 10
225.0
 20
-230.0
 30
0.0
  0
POINT
  5
1A80
  8
DEFPOINTS
  6
CONTINUOUS
 62
     0
 10
451.71156569566841
 20
-230.0
 30
0.0
  0
ENDBLK
  5
1A82
  8
0
  0
BLOCK
  8
0
  2
*D87
 70
     1
 10
0.0
 20
0.0
 30
0.0
  3
*D87
  1

  0
LINE
  5
1A85
  8
SIZE
  6
CONTINUOUS
 62
     0
 10
135.99999999999989
 20
-85.000000000000696
 30
0.0
 11
364.99543790590712
 21
-85.000000000000753
 31
0.0
  0
LINE
  5
1A86
  8
SIZE
  6
CONTINUOUS
 62
     0
 10
136.0
 20
-109.0000000000006
 30
0.0
 11
364.99543790590712
 21
-109.0000000000006
 31
0.0
  0
LINE
  5
1A87
  8
SIZE
  6
CONTINUOUS
 62
     0
 10
334.99543790590718
 20
-75.000000000000739
 30
0.0
 11
334.99543790590718
 21
-65.000000000000739
 31
0.0
  0
LINE
  5
1A88
  8
SIZE
  6
CONTINUOUS
 62
     0
 10
334.99543790590718
 20
-119.0000000000006
 30
0.0
 11
334.99543790590712
 21
-129.0000000000006
 31
0.0
  0
TEXT
  5
1A89
  8
DETAIL
  6
CONTINUOUS
 62
     0
 10
366.99543790590712
 20
-235.00000000000071
 30
0.0
 40
64.0
  1
24
 50
90.0
 41
0.9
  0
LINE
  5
1A8A
  8
SIZE
  6
CONTINUOUS
 62
     0
 10
334.99543790590718
 20
-85.000000000000739
 30
0.0
 11
334.99543790590718
 21
-109.0000000000006
 31
0.0
  0
INSERT
  5
1A8B
  8
SIZE
  6
CONTINUOUS
 62
     0
  2
_ORIGIN
 10
334.99543790590718
 20
-85.000000000000739
 30
0.0
 41
10.0
 42
10.0
 43
10.0
 50
270.0
  0
INSERT
  5
1A8C
  8
SIZE
  6
CONTINUOUS
 62
     0
  2
_ORIGIN
 10
334.99543790590718
 20
-109.0000000000006
 30
0.0
 41
10.0
 42
10.0
 43
10.0
 50
90.0
  0
POINT
  5
1A8D
  8
DEFPOINTS
  6
CONTINUOUS
 62
     0
 10
116.0
 20
-85.000000000000696
 30
0.0
  0
POINT
  5
1A8E
  8
DEFPOINTS
  6
CONTINUOUS
 62
     0
 10
116.0
 20
-109.0000000000006
 30
0.0
  0
POINT
  5
1A8F
  8
DEFPOINTS
  6
CONTINUOUS
 62
     0
 10
334.99543790590718
 20
-109.0000000000006
 30
0.0
  0
ENDBLK
  5
1A91
  8
0
  0
BLOCK
  8
0
  2
*D88
 70
     1
 10
0.0
 20
0.0
 30
0.0
  3
*D88
  1

  0
LINE
  5
1A94
  8
SIZE
  6
CONTINUOUS
 62
     0
 10
380.0
 20
-30.000000000000689
 30
0.0
 11
609.06711153588356
 21
-30.00000000000075
 31
0.0
  0
LINE
  5
1A95
  8
SIZE
  6
CONTINUOUS
 62
     0
 10
245.0
 20
-230.0
 30
0.0
 11
609.06711153588356
 21
-230.00000000000011
 31
0.0
  0
LINE
  5
1A96
  8
SIZE
  6
CONTINUOUS
 62
     0
 10
579.06711153588356
 20
-40.000000000000739
 30
0.0
 11
579.06711153588356
 21
-220.00000000000011
 31
0.0
  0
INSERT
  5
1A97
  8
SIZE
  6
CONTINUOUS
 62
     0
  2
_ORIGIN
 10
579.06711153588356
 20
-30.000000000000739
 30
0.0
 41
10.0
 42
10.0
 43
10.0
 50
90.0
  0
INSERT
  5
1A98
  8
SIZE
  6
CONTINUOUS
 62
     0
  2
_ORIGIN
 10
579.06711153588356
 20
-230.00000000000011
 30
0.0
 41
10.0
 42
10.0
 43
10.0
 50
270.0
  0
TEXT
  5
1A99
  8
DETAIL
  6
CONTINUOUS
 62
     0
 10
569.06711153588367
 20
-204.05714285714311
 30
0.0
 40
64.0
  1
200
 50
90.0
 41
0.9
  0
POINT
  5
1A9A
  8
DEFPOINTS
  6
CONTINUOUS
 62
     0
 10
360.0
 20
-30.000000000000679
 30
0.0
  0
POINT
  5
1A9B
  8
DEFPOINTS
  6
CONTINUOUS
 62
     0
 10
225.0
 20
-230.0
 30
0.0
  0
POINT
  5
1A9C
  8
DEFPOINTS
  6
CONTINUOUS
 62
     0
 10
579.06711153588356
 20
-230.00000000000011
 30
0.0
  0
ENDBLK
  5
1A9E
  8
0
  0
BLOCK
  8
0
  2
*D89
 70
     1
 10
0.0
 20
0.0
 30
0.0
  3
*D89
  1

  0
LINE
  5
1ABD
  8
SIZE
  6
CONTINUOUS
 62
     0
 10
-245.0
 20
-230.0
 30
0.0
 11
-379.12819320999358
 21
-229.99999999999989
 31
0.0
  0
LINE
  5
1ABE
  8
SIZE
  6
CONTINUOUS
 62
     0
 10
-264.99999999999949
 20
-157.00000000000091
 30
0.0
 11
-379.12819320999358
 21
-157.0000000000008
 31
0.0
  0
LINE
  5
1ABF
  8
SIZE
  6
CONTINUOUS
 62
     0
 10
-349.12819320999358
 20
-219.99999999999989
 30
0.0
 11
-349.12819320999358
 21
-167.0000000000008
 31
0.0
  0
TEXT
  5
1AC0
  8
DETAIL
  6
CONTINUOUS
 62
     0
 10
-317.12819320999358
 20
-346.09472413117692
 30
0.0
 40
64.0
  1
73
 50
90.0
 41
0.9
  0
INSERT
  5
1AC1
  8
SIZE
  6
CONTINUOUS
 62
     0
  2
_ORIGIN
 10
-349.12819320999358
 20
-229.99999999999989
 30
0.0
 41
10.0
 42
10.0
 43
10.0
 50
270.0
  0
INSERT
  5
1AC2
  8
SIZE
  6
CONTINUOUS
 62
     0
  2
_ORIGIN
 10
-349.12819320999358
 20
-157.0000000000008
 30
0.0
 41
10.0
 42
10.0
 43
10.0
 50
90.0
  0
POINT
  5
1AC3
  8
DEFPOINTS
  6
CONTINUOUS
 62
     0
 10
-225.0
 20
-230.0
 30
0.0
  0
POINT
  5
1AC4
  8
DEFPOINTS
  6
CONTINUOUS
 62
     0
 10
-244.9999999999994
 20
-157.00000000000091
 30
0.0
  0
POINT
  5
1AC5
  8
DEFPOINTS
  6
CONTINUOUS
 62
     0
 10
-349.12819320999358
 20
-157.0000000000008
 30
0.0
  0
ENDBLK
  5
1AC7
  8
0
  0
BLOCK
  8
0
  2
*D90
 70
     1
 10
0.0
 20
0.0
 30
0.0
  3
*D90
  1

  0
LINE
  5
1ACA
  8
SIZE
  6
CONTINUOUS
 62
     0
 10
-265.00000000000091
 20
-48.000000000000682
 30
0.0
 11
-379.12819320999358
 21
-48.000000000000639
 31
0.0
  0
LINE
  5
1ACB
  8
SIZE
  6
CONTINUOUS
 62
     0
 10
-264.99999999999949
 20
-157.00000000000091
 30
0.0
 11
-379.12819320999358
 21
-157.0000000000008
 31
0.0
  0
LINE
  5
1ACC
  8
SIZE
  6
CONTINUOUS
 62
     0
 10
-349.12819320999353
 20
-38.000000000000639
 30
0.0
 11
-349.12819320999353
 21
-28.000000000000639
 31
0.0
  0
LINE
  5
1ACD
  8
SIZE
  6
CONTINUOUS
 62
     0
 10
-349.12819320999358
 20
-167.0000000000008
 30
0.0
 11
-349.12819320999358
 21
-177.0000000000008
 31
0.0
  0
TEXT
  5
1ACE
  8
DETAIL
  6
CONTINUOUS
 62
     0
 10
-317.12819320999358
 20
-195.31417130427249
 30
0.0
 40
64.0
  1
109
 50
90.0
 41
0.9
  0
LINE
  5
1ACF
  8
SIZE
  6
CONTINUOUS
 62
     0
 10
-349.12819320999353
 20
-48.000000000000639
 30
0.0
 11
-349.12819320999358
 21
-157.0000000000008
 31
0.0
  0
INSERT
  5
1AD0
  8
SIZE
  6
CONTINUOUS
 62
     0
  2
_ORIGIN
 10
-349.12819320999353
 20
-48.000000000000639
 30
0.0
 41
10.0
 42
10.0
 43
10.0
 50
270.0
  0
INSERT
  5
1AD1
  8
SIZE
  6
CONTINUOUS
 62
     0
  2
_ORIGIN
 10
-349.12819320999358
 20
-157.0000000000008
 30
0.0
 41
10.0
 42
10.0
 43
10.0
 50
90.0
  0
POINT
  5
1AD2
  8
DEFPOINTS
  6
CONTINUOUS
 62
     0
 10
-245.00000000000091
 20
-48.000000000000682
 30
0.0
  0
POINT
  5
1AD3
  8
DEFPOINTS
  6
CONTINUOUS
 62
     0
 10
-244.9999999999994
 20
-157.00000000000091
 30
0.0
  0
POINT
  5
1AD4
  8
DEFPOINTS
  6
CONTINUOUS
 62
     0
 10
-349.12819320999358
 20
-157.0000000000008
 30
0.0
  0
ENDBLK
  5
1AD6
  8
0
  0
BLOCK
  8
0
  2
*D91
 70
     1
 10
0.0
 20
0.0
 30
0.0
  3
*D91
  1

  0
LINE
  5
1ADC
  8
SIZE
  6
CONTINUOUS
 62
     0
 10
-225.0
 20
20.0
 30
0.0
 11
-225.0
 21
119.8381824413572
 31
0.0
  0
LINE
  5
1ADD
  8
SIZE
  6
CONTINUOUS
 62
     0
 10
-194.9999999999996
 20
11.999999999999091
 30
0.0
 11
-194.9999999999996
 21
119.8381824413572
 31
0.0
  0
LINE
  5
1ADE
  8
SIZE
  6
CONTINUOUS
 62
     0
 10
-235.0
 20
89.838182441357276
 30
0.0
 11
-245.0
 21
89.838182441357276
 31
0.0
  0
LINE
  5
1ADF
  8
SIZE
  6
CONTINUOUS
 62
     0
 10
-184.9999999999996
 20
89.838182441357276
 30
0.0
 11
-174.9999999999996
 21
89.838182441357276
 31
0.0
  0
TEXT
  5
1AE0
  8
DETAIL
  6
CONTINUOUS
 62
     0
 10
-348.25714285714281
 20
57.838182441357269
 30
0.0
 40
64.0
  1
30
 41
0.9
  0
LINE
  5
1AE1
  8
SIZE
  6
CONTINUOUS
 62
     0
 10
-225.0
 20
89.838182441357276
 30
0.0
 11
-194.9999999999996
 21
89.838182441357276
 31
0.0
  0
INSERT
  5
1AE2
  8
SIZE
  6
CONTINUOUS
 62
     0
  2
_ORIGIN
 10
-225.0
 20
89.838182441357276
 30
0.0
 41
10.0
 42
10.0
 43
10.0
  0
INSERT
  5
1AE3
  8
SIZE
  6
CONTINUOUS
 62
     0
  2
_ORIGIN
 10
-194.9999999999996
 20
89.838182441357276
 30
0.0
 41
10.0
 42
10.0
 43
10.0
 50
180.0
  0
POINT
  5
1AE4
  8
DEFPOINTS
  6
CONTINUOUS
 62
     0
 10
-225.0
 20
0.0
 30
0.0
  0
POINT
  5
1AE5
  8
DEFPOINTS
  6
CONTINUOUS
 62
     0
 10
-194.9999999999996
 20
-8.0000000000009095
 30
0.0
  0
POINT
  5
1AE6
  8
DEFPOINTS
  6
CONTINUOUS
 62
     0
 10
-194.9999999999996
 20
89.838182441357276
 30
0.0
  0
ENDBLK
  5
1AE8
  8
0
  0
ENDSEC
  0
SECTION
  2
ENTITIES
  0
POINT
  5
19F8
  8
ARRANGE
  6
DASHDOT
 10
0.0
 20
0.0
 30
0.0
  0
CIRCLE
  5
19F9
  8
ARRANGE
  6
CONTINUOUS
 10
0.0
 20
0.0
 30
0.0
 40
40.0
  0
TEXT
  5
19FA
  8
ETC
  6
CONTINUOUS
 10
520.4972919296124
 20
597.2652220973182
 30
0.0
 40
64.0
  1
HAC
 41
0.9
  0
LINE
  5
19FB
  8
BASIS
  6
DASHDOT
 10
0.0
 20
-330.28075499999971
 30
0.0
 11
0.0
 21
56.889231999999993
 31
0.0
  0
TEXT
  5
19FC
  8
ETC
  6
CONTINUOUS
 10
306.69116607246991
 20
477.73440909731801
 30
0.0
 40
64.0
  1
SMBZ2834
 41
0.9
  0
LINE
  5
19FD
  8
DETAIL
  6
CONTINUOUS
 10
225.0
 20
0.0
 30
0.0
 11
225.0
 21
-230.0
 31
0.0
  0
LINE
  5
19FE
  8
DETAIL
  6
CONTINUOUS
 10
-225.0
 20
0.0
 30
0.0
 11
-225.0
 21
-230.0
 31
0.0
  0
LINE
  5
19FF
  8
DETAIL
  6
CONTINUOUS
 10
225.0
 20
0.0
 30
0.0
 11
-225.0
 21
0.0
 31
0.0
  0
LINE
  5
1A00
  8
DETAIL
  6
CONTINUOUS
 10
70.0
 20
0.0
 30
0.0
 11
70.0
 21
-230.0
 31
0.0
  0
LINE
  5
1A01
  8
DETAIL
  6
CONTINUOUS
 10
-172.0
 20
0.0
 30
0.0
 11
-172.0
 21
-230.0
 31
0.0
  0
LINE
  5
1A02
  8
DETAIL
  6
CONTINUOUS
 10
225.0
 20
-230.0
 30
0.0
 11
-225.0
 21
-230.0
 31
0.0
  0
LINE
  5
1A03
  8
DETAIL
  6
CONTINUOUS
 10
340.0
 20
-14.0
 30
0.0
 11
340.0
 21
-46.0
 31
0.0
  0
LINE
  5
1A04
  8
DETAIL
  6
CONTINUOUS
 10
340.0
 20
-46.0
 30
0.0
 11
225.0
 21
-46.0
 31
0.0
  0
LINE
  5
1A05
  8
DETAIL
  6
CONTINUOUS
 10
340.0
 20
-14.0
 30
0.0
 11
225.0
 21
-14.0
 31
0.0
  0
LINE
  5
1A06
  8
DETAIL
  6
CONTINUOUS
 10
-223.0
 20
-22.999999999999542
 30
0.0
 11
-174.9999999999996
 21
-22.999999999999542
 31
0.0
  0
LINE
  5
1A07
  8
DETAIL
  6
CONTINUOUS
 10
-222.9999999999996
 20
-28.00000000000022
 30
0.0
 11
-174.9999999999996
 21
-28.00000000000022
 31
0.0
  0
LINE
  5
1A08
  8
DETAIL
  6
CONTINUOUS
 10
-223.0
 20
-22.999999999999542
 30
0.0
 11
-222.9999999999996
 21
-28.00000000000022
 31
0.0
  0
LINE
  5
1A09
  8
DETAIL
  6
CONTINUOUS
 10
-174.9999999999996
 20
-22.999999999999542
 30
0.0
 11
-174.9999999999996
 21
-28.00000000000022
 31
0.0
  0
LINE
  5
1A0A
  8
DETAIL
  6
CONTINUOUS
 10
175.0
 20
-22.999999999999769
 30
0.0
 11
223.0
 21
-22.999999999999542
 31
0.0
  0
LINE
  5
1A0B
  8
DETAIL
  6
CONTINUOUS
 10
175.0
 20
-28.00000000000022
 30
0.0
 11
223.0
 21
-28.00000000000022
 31
0.0
  0
LINE
  5
1A0C
  8
DETAIL
  6
CONTINUOUS
 10
223.0
 20
-22.999999999999542
 30
0.0
 11
223.0
 21
-28.00000000000022
 31
0.0
  0
LINE
  5
1A0D
  8
DETAIL
  6
CONTINUOUS
 10
175.0
 20
0.0000000000002274
 30
0.0
 11
174.9999999999994
 21
-110.70038127933719
 31
0.0
  0
LINE
  5
1A0E
  8
DETAIL
  6
CONTINUOUS
 10
96.0
 20
-80.240000000000222
 30
0.0
 11
96.0
 21
-89.759999999999764
 31
0.0
  0
LINE
  5
1A0F
  8
DETAIL
  6
CONTINUOUS
 10
96.0
 20
-89.759999999999764
 30
0.0
 11
70.0
 21
-89.759999999999536
 31
0.0
  0
LINE
  5
1A10
  8
DETAIL
  6
CONTINUOUS
 10
96.0
 20
-80.240000000000222
 30
0.0
 11
70.0
 21
-80.240000000000464
 31
0.0
  0
LINE
  5
1A11
  8
DETAIL
  6
CONTINUOUS
 10
96.0
 20
-105.8250000000002
 30
0.0
 11
70.0
 21
-105.8250000000002
 31
0.0
  0
LINE
  5
1A12
  8
DETAIL
  6
CONTINUOUS
 10
96.000000000000441
 20
-112.1749999999998
 30
0.0
 11
70.0
 21
-112.1749999999998
 31
0.0
  0
LINE
  5
1A13
  8
DETAIL
  6
CONTINUOUS
 10
96.0
 20
-105.8250000000002
 30
0.0
 11
96.000000000000441
 21
-112.1749999999998
 31
0.0
  0
LINE
  5
1A14
  8
NOTE
  6
CONTINUOUS
 10
96.0
 20
-65.000000000000682
 30
0.0
 11
96.0
 21
-105.0000000000006
 31
0.0
  0
LINE
  5
1A15
  8
NOTE
  6
CONTINUOUS
 10
76.0
 20
-85.000000000000696
 30
0.0
 11
116.0
 21
-85.000000000000696
 31
0.0
  0
LINE
  5
1A16
  8
NOTE
  6
CONTINUOUS
 10
76.0
 20
-109.0000000000006
 30
0.0
 11
116.0
 21
-109.0000000000006
 31
0.0
  0
LINE
  5
1A17
  8
NOTE
  6
CONTINUOUS
 10
96.0
 20
-89.000000000000668
 30
0.0
 11
96.0
 21
-129.0000000000006
 31
0.0
  0
LINE
  5
1A18
  8
NOTE
  6
CONTINUOUS
 10
320.0
 20
-30.000000000000679
 30
0.0
 11
360.0
 21
-30.000000000000679
 31
0.0
  0
LINE
  5
1A19
  8
NOTE
  6
CONTINUOUS
 10
340.0
 20
-10.00000000000068
 30
0.0
 11
340.0
 21
-50.000000000000668
 31
0.0
  0
LINE
  5
1A1A
  8
NOTE
  6
CONTINUOUS
 10
183.0
 20
-28.000000000000909
 30
0.0
 11
223.0
 21
-28.000000000000909
 31
0.0
  0
LINE
  5
1A1B
  8
NOTE
  6
CONTINUOUS
 10
203.0
 20
-8.0000000000009095
 30
0.0
 11
203.0
 21
-48.000000000000888
 31
0.0
  0
LINE
  5
1A1C
  8
NOTE
  6
CONTINUOUS
 10
-194.9999999999996
 20
-8.0000000000009095
 30
0.0
 11
-194.9999999999996
 21
-48.000000000000888
 31
0.0
  0
LINE
  5
1A1D
  8
NOTE
  6
CONTINUOUS
 10
-214.9999999999996
 20
-28.000000000000909
 30
0.0
 11
-174.9999999999996
 21
-28.000000000000909
 31
0.0
  0
LINE
  5
1A1E
  8
NOTE
  6
CONTINUOUS
 10
745.24981975477635
 20
96.11117821640029
 30
0.0
 11
430.73583888286021
 21
96.11117821640029
 31
0.0
  0
TEXT
  5
1A1F
  8
NOTE
  6
CONTINUOUS
 10
438.99497254358158
 20
116.96039221640019
 30
0.0
 40
64.0
  1
D VP20　　　　 
 41
0.9
  0
LINE
  5
1A20
  8
NOTE
  6
CONTINUOUS
 10
430.73583888286021
 20
96.11117821640029
 30
0.0
 11
340.0
 21
-30.0
 31
0.0
  0
LINE
  5
1A21
  8
NOTE
  6
CONTINUOUS
 10
340.0
 20
-30.0
 30
0.0
 11
372.55473041774422
 21
-6.7580232714803961
 31
0.0
  0
LINE
  5
1A22
  8
NOTE
  6
CONTINUOUS
 10
340.0
 20
-30.0
 30
0.0
 11
356.57223503715062
 21
6.4055087039359924
 31
0.0
  0
LINE
  5
1A23
  8
NOTE
  6
CONTINUOUS
 10
343.4849298977519
 20
-470.2437502376477
 30
0.0
 11
723.25637483902835
 21
-470.2437502376477
 31
0.0
  0
LINE
  5
1A24
  8
NOTE
  6
CONTINUOUS
 10
348.85093302379101
 20
-347.92583830267802
 30
0.0
 11
738.51591822393414
 21
-347.92583830267802
 31
0.0
  0
TEXT
  5
1A25
  8
NOTE
  6
CONTINUOUS
 10
362.1656398390287
 20
-449.70633523764798
 30
0.0
 40
64.0
  1
RL%%C6.35　　　　　　　 
 41
0.9
  0
TEXT
  5
1A26
  8
NOTE
  6
CONTINUOUS
 10
366.10682722393398
 20
-328.15840430267821
 30
0.0
 40
64.0
  1
RG%%C12.7
 41
0.9
  0
LINE
  5
1A27
  8
NOTE
  6
CONTINUOUS
 10
348.85093302379101
 20
-347.92583830267802
 30
0.0
 11
95.999999999999545
 21
-84.99999999999973
 31
0.0
  0
LINE
  5
1A28
  8
NOTE
  6
CONTINUOUS
 10
95.999999999999545
 20
-84.99999999999973
 30
0.0
 11
130.24381371018521
 21
-105.67271535749271
 31
0.0
  0
LINE
  5
1A29
  8
NOTE
  6
CONTINUOUS
 10
95.999999999999545
 20
-84.99999999999973
 30
0.0
 11
115.3196548769192
 21
-120.0250035460455
 31
0.0
  0
LINE
  5
1A2A
  8
NOTE
  6
CONTINUOUS
 10
343.4849298977519
 20
-470.2437502376477
 30
0.0
 11
96.351435862851304
 21
-109.01950989000051
 31
0.0
  0
LINE
  5
1A2B
  8
NOTE
  6
CONTINUOUS
 10
96.351435862851304
 20
-109.01950989000051
 30
0.0
 11
126.7123767324246
 21
-135.06203678706029
 31
0.0
  0
LINE
  5
1A2C
  8
NOTE
  6
CONTINUOUS
 10
96.351435862851304
 20
-109.01950989000051
 30
0.0
 11
109.62351844658041
 21
-146.75347021560779
 31
0.0
  0
LINE
  5
1A2D
  8
NOTE
  6
CONTINUOUS
 10
-725.81189479815043
 20
160.1386303288518
 30
0.0
 11
-471.27728119389218
 21
160.1386303288518
 31
0.0
  0
TEXT
  5
1A2E
  8
NOTE
  6
CONTINUOUS
 10
-677.99278410984755
 20
183.52826002187231
 30
0.0
 40
64.0
  1
AH
 41
0.9
  0
LINE
  5
1A2F
  8
NOTE
  6
CONTINUOUS
 10
-471.27728119389218
 20
160.1386303288518
 30
0.0
 11
-194.9999999999996
 21
-28.000000000000909
 31
0.0
  0
LINE
  5
1A30
  8
NOTE
  6
CONTINUOUS
 10
-194.9999999999996
 20
-28.000000000000909
 30
0.0
 11
-219.07542883324689
 21
3.9432885175622232
 31
0.0
  0
LINE
  5
1A31
  8
NOTE
  6
CONTINUOUS
 10
-194.9999999999996
 20
-28.000000000000909
 30
0.0
 11
-231.82157844499949
 21
-12.374015265027991
 31
0.0
  0
DIMENSION
  5
1A32
  8
SIZE
  6
CONTINUOUS
  2
*D81
 10
-194.9999999999996
 20
89.299362808882506
 30
0.0
 11
4.0000000000001581
 21
131.29936280888251
 31
0.0
 70
     0
 13
203.0
 23
-8.0000000000009095
 33
0.0
 14
-194.9999999999996
 24
-8.0000000000009095
 34
0.0
1001
ACAD
1000
DSTYLE
1002
{
1070
    41
1040
10.0
1070
    42
1040
20.0
1070
    43
1040
200.0
1070
    44
1040
30.0
1070
    73
1070
     0
1070
    74
1070
     0
1070
    77
1070
     1
1070
    78
1070
     8
1070
   140
1040
64.0
1070
   147
1040
10.0
1070
   172
1070
     1
1070
   174
1070
     1
1070
   341
1005
489
1070
     5
1000
ORIGIN
1002
}
  0
DIMENSION
  5
1A3F
  8
SIZE
  6
CONTINUOUS
  2
*D82
 10
225.0
 20
215.01267250754771
 30
0.0
 11
0.0000000000000026
 21
257.01267250754779
 31
0.0
 70
     0
 13
-225.0
 23
0.0
 33
0.0
 14
225.0
 24
0.0
 34
0.0
1001
ACAD
1000
DSTYLE
1002
{
1070
    41
1040
10.0
1070
    42
1040
20.0
1070
    43
1040
200.0
1070
    44
1040
30.0
1070
    73
1070
     0
1070
    74
1070
     0
1070
    77
1070
     1
1070
    78
1070
     8
1070
   140
1040
64.0
1070
   147
1040
10.0
1070
   172
1070
     1
1070
   174
1070
     1
1070
   341
1005
489
1070
     5
1000
ORIGIN
1002
}
  0
DIMENSION
  5
1A4C
  8
SIZE
  6
CONTINUOUS
  2
*D83
 10
340.0
 20
214.98432904812759
 30
0.0
 11
282.5
 21
256.98432904812762
 31
0.0
 70
     0
 13
225.0
 23
0.0
 33
0.0
 14
340.0
 24
-10.00000000000068
 34
0.0
1001
ACAD
1000
DSTYLE
1002
{
1070
    41
1040
10.0
1070
    42
1040
20.0
1070
    43
1040
200.0
1070
    44
1040
30.0
1070
    73
1070
     0
1070
    74
1070
     0
1070
    77
1070
     1
1070
    78
1070
     8
1070
   140
1040
64.0
1070
   147
1040
10.0
1070
   172
1070
     1
1070
   174
1070
     1
1070
   341
1005
489
1070
     5
1000
ORIGIN
1002
}
  0
DIMENSION
  5
1A5B
  8
SIZE
  6
CONTINUOUS
  2
*D84
 10
95.999999999999986
 20
-373.85644562218101
 30
0.0
 11
-64.5
 21
-331.85644562218101
 31
0.0
 70
     0
 13
-225.0
 23
-230.0
 33
0.0
 14
96.0
 24
-129.0000000000006
 34
0.0
1001
ACAD
1000
DSTYLE
1002
{
1070
    41
1040
10.0
1070
    42
1040
20.0
1070
    43
1040
200.0
1070
    44
1040
30.0
1070
    73
1070
     0
1070
    74
1070
     0
1070
    77
1070
     1
1070
    78
1070
     8
1070
   140
1040
64.0
1070
   147
1040
10.0
1070
   172
1070
     1
1070
   174
1070
     1
1070
   341
1005
489
1070
     5
1000
ORIGIN
1002
}
  0
DIMENSION
  5
1A68
  8
SIZE
  6
CONTINUOUS
  2
*D85
 10
-459.03384356164122
 20
-28.000000000000838
 30
0.0
 11
-459.03384356164122
 21
-127.36048227711019
 31
0.0
 70
   128
 13
-225.0
 23
-230.0
 33
0.0
 14
-218.9999999999996
 24
-28.000000000000909
 34
0.0
 50
90.0
1001
ACAD
1000
DSTYLE
1002
{
1070
    41
1040
10.0
1070
    42
1040
20.0
1070
    43
1040
200.0
1070
    44
1040
30.0
1070
    73
1070
     0
1070
    74
1070
     0
1070
    77
1070
     1
1070
    78
1070
     8
1070
   140
1040
64.0
1070
   147
1040
10.0
1070
   172
1070
     1
1070
   174
1070
     1
1070
   341
1005
489
1070
     5
1000
ORIGIN
1002
}
  0
DIMENSION
  5
1A76
  8
SIZE
  6
CONTINUOUS
  2
*D86
 10
451.71156569566841
 20
-230.0
 30
0.0
 11
451.71156569566853
 21
-157.50000000000031
 31
0.0
 70
   128
 13
116.0
 23
-85.000000000000696
 33
0.0
 14
225.0
 24
-230.0
 34
0.0
 50
90.0
1001
ACAD
1000
DSTYLE
1002
{
1070
    41
1040
10.0
1070
    42
1040
20.0
1070
    43
1040
200.0
1070
    44
1040
30.0
1070
    73
1070
     0
1070
    74
1070
     0
1070
    77
1070
     1
1070
    78
1070
     8
1070
   140
1040
64.0
1070
   147
1040
10.0
1070
   172
1070
     1
1070
   174
1070
     1
1070
   341
1005
489
1070
     5
1000
ORIGIN
1002
}
  0
DIMENSION
  5
1A83
  8
SIZE
  6
CONTINUOUS
  2
*D87
 10
334.99543790590718
 20
-109.0000000000006
 30
0.0
 11
334.99543790590718
 21
-187.00000000000071
 31
0.0
 70
   128
 13
116.0
 23
-85.000000000000696
 33
0.0
 14
116.0
 24
-109.0000000000006
 34
0.0
 50
90.0
1001
ACAD
1000
DSTYLE
1002
{
1070
    41
1040
10.0
1070
    42
1040
20.0
1070
    43
1040
200.0
1070
    44
1040
30.0
1070
    73
1070
     0
1070
    74
1070
     0
1070
    77
1070
     1
1070
    78
1070
     8
1070
   140
1040
64.0
1070
   147
1040
10.0
1070
   172
1070
     1
1070
   174
1070
     1
1070
   341
1005
489
1070
     5
1000
ORIGIN
1002
}
  0
DIMENSION
  5
1A92
  8
SIZE
  6
CONTINUOUS
  2
*D88
 10
579.06711153588356
 20
-230.00000000000011
 30
0.0
 11
537.06711153588356
 21
-130.00000000000031
 31
0.0
 70
     0
 13
360.0
 23
-30.000000000000679
 33
0.0
 14
225.0
 24
-230.0
 34
0.0
 50
90.0
1001
ACAD
1000
DSTYLE
1002
{
1070
    41
1040
10.0
1070
    42
1040
20.0
1070
    43
1040
200.0
1070
    44
1040
30.0
1070
    73
1070
     0
1070
    74
1070
     0
1070
    77
1070
     1
1070
    78
1070
     8
1070
   140
1040
64.0
1070
   147
1040
10.0
1070
   172
1070
     1
1070
   174
1070
     1
1070
   341
1005
489
1070
     5
1000
ORIGIN
1002
}
  0
LINE
  5
1A9F
  8
DETAIL
  6
CONTINUOUS
 10
70.0
 20
-41.042167879013952
 30
0.0
 11
174.9999999999994
 21
-58.44784527501178
 31
0.0
  0
LINE
  5
1AA0
  8
DETAIL
  6
CONTINUOUS
 10
174.9999999999994
 20
-110.70038127933719
 30
0.0
 11
169.9999999999994
 21
-110.70038127933699
 31
0.0
  0
LINE
  5
1AA1
  8
DETAIL
  6
CONTINUOUS
 10
170.0
 20
-57.619003494249903
 30
0.0
 11
169.9999999999994
 21
-110.70038127933699
 31
0.0
  0
LINE
  5
1AA2
  8
DETAIL
  6
CONTINUOUS
 10
210.0
 20
-140.3717427751161
 30
0.0
 11
210.0
 21
-200.3717427751161
 31
0.0
  0
LINE
  5
1AA3
  8
DETAIL
  6
CONTINUOUS
 10
135.0
 20
-140.37174277511591
 30
0.0
 11
210.0
 21
-140.3717427751161
 31
0.0
  0
LINE
  5
1AA4
  8
DETAIL
  6
CONTINUOUS
 10
135.0000000000004
 20
-155.3717427751161
 30
0.0
 11
210.0000000000004
 21
-155.3717427751161
 31
0.0
  0
LINE
  5
1AA5
  8
DETAIL
  6
CONTINUOUS
 10
135.0000000000004
 20
-170.3717427751161
 30
0.0
 11
210.0000000000004
 21
-170.3717427751161
 31
0.0
  0
LINE
  5
1AA6
  8
DETAIL
  6
CONTINUOUS
 10
135.0000000000004
 20
-185.37174277511639
 30
0.0
 11
210.0000000000004
 21
-185.3717427751161
 31
0.0
  0
LINE
  5
1AA7
  8
DETAIL
  6
CONTINUOUS
 10
135.0
 20
-200.37174277511579
 30
0.0
 11
210.0
 21
-200.3717427751161
 31
0.0
  0
LINE
  5
1AA8
  8
DETAIL
  6
CONTINUOUS
 10
195.0
 20
-140.37174277511639
 30
0.0
 11
195.0
 21
-200.37174277511639
 31
0.0
  0
LINE
  5
1AA9
  8
DETAIL
  6
CONTINUOUS
 10
180.0
 20
-140.3717427751161
 30
0.0
 11
180.0
 21
-200.3717427751161
 31
0.0
  0
LINE
  5
1AAA
  8
DETAIL
  6
CONTINUOUS
 10
165.0
 20
-140.37174277511591
 30
0.0
 11
165.0
 21
-200.3717427751161
 31
0.0
  0
LINE
  5
1AAB
  8
DETAIL
  6
CONTINUOUS
 10
150.00000000000031
 20
-140.37174277511591
 30
0.0
 11
150.0
 21
-200.3717427751161
 31
0.0
  0
LINE
  5
1AAC
  8
DETAIL
  6
CONTINUOUS
 10
135.0
 20
-140.37174277511591
 30
0.0
 11
135.0
 21
-200.37174277511579
 31
0.0
  0
LINE
  5
1AAD
  8
OUTLINE
  6
CONTINUOUS
 10
225.0
 20
-230.0
 30
0.0
 11
-225.0
 21
-230.0
 31
0.0
  0
LINE
  5
1AAE
  8
OUTLINE
  6
CONTINUOUS
 10
225.0
 20
0.0
 30
0.0
 11
-225.0
 21
0.0
 31
0.0
  0
LINE
  5
1AAF
  8
OUTLINE
  6
CONTINUOUS
 10
-225.0
 20
0.0
 30
0.0
 11
-225.0
 21
-230.0
 31
0.0
  0
LINE
  5
1AB0
  8
OUTLINE
  6
CONTINUOUS
 10
225.0
 20
0.0
 30
0.0
 11
225.0
 21
-14.0
 31
0.0
  0
LINE
  5
1AB1
  8
OUTLINE
  6
CONTINUOUS
 10
340.0
 20
-14.0
 30
0.0
 11
225.0
 21
-14.0
 31
0.0
  0
LINE
  5
1AB2
  8
OUTLINE
  6
CONTINUOUS
 10
340.0
 20
-46.0
 30
0.0
 11
225.0
 21
-45.999999999999773
 31
0.0
  0
LINE
  5
1AB3
  8
OUTLINE
  6
CONTINUOUS
 10
340.0
 20
-14.0
 30
0.0
 11
340.0
 21
-46.0
 31
0.0
  0
LINE
  5
1AB4
  8
OUTLINE
  6
CONTINUOUS
 10
225.0
 20
-45.999999999999773
 30
0.0
 11
225.0
 21
-230.0
 31
0.0
  0
LINE
  5
1AB5
  8
NOTE
  6
CONTINUOUS
 10
-225.0000000000008
 20
-28.000000000000679
 30
0.0
 11
-225.0000000000008
 21
-68.000000000000682
 31
0.0
  0
LINE
  5
1AB6
  8
NOTE
  6
CONTINUOUS
 10
-245.00000000000091
 20
-48.000000000000682
 30
0.0
 11
-205.0000000000008
 21
-48.000000000000682
 31
0.0
  0
LINE
  5
1AB7
  8
NOTE
  6
CONTINUOUS
 10
-244.9999999999994
 20
-157.00000000000091
 30
0.0
 11
-204.9999999999994
 21
-157.00000000000091
 31
0.0
  0
LINE
  5
1AB8
  8
NOTE
  6
CONTINUOUS
 10
-224.9999999999994
 20
-137.00000000000091
 30
0.0
 11
-224.9999999999994
 21
-177.00000000000091
 31
0.0
  0
LINE
  5
1AB9
  8
NOTE
  6
CONTINUOUS
 10
-785.00944246423364
 20
31.7981626065848
 30
0.0
 11
-410.59273315848071
 21
31.7981626065848
 31
0.0
  0
TEXT
  5
1ABA
  8
NOTE
  6
CONTINUOUS
 10
-771.06439089818593
 20
52.3355776065846
 30
0.0
 40
64.0
  1
4-%%C2.9　　　　　　 
 41
0.9
  0
DIMENSION
  5
1ABB
  8
SIZE
  6
CONTINUOUS
  2
*D89
 10
-349.12819320999358
 20
-157.0000000000008
 30
0.0
 11
-349.12819320999358
 21
-299.46615270260548
 31
0.0
 70
   128
 13
-225.0
 23
-230.0
 33
0.0
 14
-244.9999999999994
 24
-157.00000000000091
 34
0.0
 50
90.0
1001
ACAD
1000
DSTYLE
1002
{
1070
    41
1040
10.0
1070
    42
1040
20.0
1070
    43
1040
200.0
1070
    44
1040
30.0
1070
    73
1070
     0
1070
    74
1070
     0
1070
    77
1070
     1
1070
    78
1070
     8
1070
   140
1040
64.0
1070
   147
1040
10.0
1070
   172
1070
     1
1070
   174
1070
     1
1070
   341
1005
489
1070
     5
1000
ORIGIN
1002
}
  0
DIMENSION
  5
1AC8
  8
SIZE
  6
CONTINUOUS
  2
*D90
 10
-349.12819320999358
 20
-157.0000000000008
 30
0.0
 11
-349.12819320999358
 21
-128.11417130427239
 31
0.0
 70
   128
 13
-245.00000000000091
 23
-48.000000000000682
 33
0.0
 14
-244.9999999999994
 24
-157.00000000000091
 34
0.0
 50
90.0
1001
ACAD
1000
DSTYLE
1002
{
1070
    41
1040
10.0
1070
    42
1040
20.0
1070
    43
1040
200.0
1070
    44
1040
30.0
1070
    73
1070
     0
1070
    74
1070
     0
1070
    77
1070
     1
1070
    78
1070
     8
1070
   140
1040
64.0
1070
   147
1040
10.0
1070
   172
1070
     1
1070
   174
1070
     1
1070
   341
1005
489
1070
     5
1000
ORIGIN
1002
}
  0
LINE
  5
1AD7
  8
NOTE
  6
CONTINUOUS
 10
-225.0
 20
-48.000000000000682
 30
0.0
 11
-254.7225700257695
 21
-21.231197526145241
 31
0.0
  0
LINE
  5
1AD8
  8
NOTE
  6
CONTINUOUS
 10
-225.0
 20
-48.000000000000682
 30
0.0
 11
-264.12490309718441
 21
-39.678822453834293
 31
0.0
  0
LINE
  5
1AD9
  8
NOTE
  6
CONTINUOUS
 10
-410.59273315848071
 20
31.7981626065848
 30
0.0
 11
-225.0
 21
-48.000000000000682
 31
0.0
  0
DIMENSION
  5
1ADA
  8
SIZE
  6
CONTINUOUS
  2
*D91
 10
-194.9999999999996
 20
89.838182441357276
 30
0.0
 11
-301.62857142857138
 21
89.838182441357276
 31
0.0
 70
   128
 13
-225.0
 23
0.0
 33
0.0
 14
-194.9999999999996
 24
-8.0000000000009095
 34
0.0
1001
ACAD
1000
DSTYLE
1002
{
1070
    41
1040
10.0
1070
    42
1040
20.0
1070
    43
1040
200.0
1070
    44
1040
30.0
1070
    73
1070
     0
1070
    74
1070
     0
1070
    77
1070
     1
1070
    78
1070
     8
1070
   140
1040
64.0
1070
   147
1040
10.0
1070
   172
1070
     1
1070
   174
1070
     1
1070
   341
1005
489
1070
     5
1000
ORIGIN
1002
}
  0
ENDSEC
  0
EOF
