  0
SECTION
  2
HEADER
  9
$ACADVER
  1
AC1009
  9
$INSBASE
 10
0.0
 20
0.0
 30
0.0
  9
$EXTMIN
 10
-745.38860162682965
 20
-470.4011943503719
 30
-0.0015258207003583
  9
$EXTMAX
 10
933.78861448016335
 20
775.69531569202081
 30
0.0000000349246037
  9
$LIMMIN
 10
-3510.803897264997
 20
-4478.002163694061
  9
$LIMMAX
 10
5939.3084795201548
 20
1852.5545239068399
  9
$ORTHOMODE
 70
     0
  9
$REGENMODE
 70
     0
  9
$FILLMODE
 70
     1
  9
$QTEXTMODE
 70
     0
  9
$MIRRTEXT
 70
     0
  9
$DRAGMODE
 70
     2
  9
$LTSCALE
 40
20.0
  9
$OSMODE
 70
    63
  9
$ATTMODE
 70
     1
  9
$TEXTSIZE
 40
64.0
  9
$TRACEWID
 40
0.05
  9
$TEXTSTYLE
  7
STANDARD
  9
$CLAYER
  8
DETAIL
  9
$CELTYPE
  6
CONTINUOUS
  9
$CECOLOR
 62
   256
  9
$DIMSCALE
 40
1.0
  9
$DIMASZ
 40
10.0
  9
$DIMEXO
 40
20.0
  9
$DIMDLI
 40
200.0
  9
$DIMRND
 40
0.0
  9
$DIMDLE
 40
0.0
  9
$DIMEXE
 40
30.0
  9
$DIMTP
 40
0.0
  9
$DIMTM
 40
0.0
  9
$DIMTXT
 40
64.0
  9
$DIMCEN
 40
0.09
  9
$DIMTSZ
 40
0.0
  9
$DIMTOL
 70
     0
  9
$DIMLIM
 70
     0
  9
$DIMTIH
 70
     0
  9
$DIMTOH
 70
     0
  9
$DIMSE1
 70
     0
  9
$DIMSE2
 70
     0
  9
$DIMTAD
 70
     1
  9
$DIMZIN
 70
     8
  9
$DIMBLK
  1
ORIGIN
  9
$DIMASO
 70
     1
  9
$DIMSHO
 70
     0
  9
$DIMPOST
  1

  9
$DIMAPOST
  1

  9
$DIMALT
 70
     0
  9
$DIMALTD
 70
     2
  9
$DIMALTF
 40
25.399999999999999
  9
$DIMLFAC
 40
1.0
  9
$DIMTOFL
 70
     1
  9
$DIMTVP
 40
0.0
  9
$DIMTIX
 70
     1
  9
$DIMSOXD
 70
     0
  9
$DIMSAH
 70
     0
  9
$DIMBLK1
  1

  9
$DIMBLK2
  1

  9
$DIMSTYLE
  2
STANDARD
  9
$DIMCLRD
 70
     0
  9
$DIMCLRE
 70
     0
  9
$DIMCLRT
 70
     0
  9
$DIMTFAC
 40
1.0
  9
$DIMGAP
 40
10.0
  9
$LUNITS
 70
     2
  9
$LUPREC
 70
     4
  9
$SKETCHINC
 40
0.1
  9
$FILLETRAD
 40
0.0
  9
$AUNITS
 70
     1
  9
$AUPREC
 70
     3
  9
$MENU
  1
ACAD
  9
$ELEVATION
 40
0.0
  9
$PELEVATION
 40
0.0
  9
$THICKNESS
 40
0.0
  9
$LIMCHECK
 70
     0
  9
$BLIPMODE
 70
     0
  9
$CHAMFERA
 40
0.0
  9
$CHAMFERB
 40
0.0
  9
$SKPOLY
 70
     0
  9
$TDCREATE
 40
2450527.3900000001
  9
$TDUPDATE
 40
2452979.4709338769
  9
$TDINDWG
 40
0.1888964236
  9
$TDUSRTIMER
 40
0.18889625
  9
$USRTIMER
 70
     1
  9
$ANGBASE
 50
0.0
  9
$ANGDIR
 70
     0
  9
$PDMODE
 70
     3
  9
$PDSIZE
 40
-2.0
  9
$PLINEWID
 40
0.0
  9
$COORDS
 70
     2
  9
$SPLFRAME
 70
     0
  9
$SPLINETYPE
 70
     6
  9
$SPLINESEGS
 70
     8
  9
$ATTDIA
 70
     0
  9
$ATTREQ
 70
     1
  9
$HANDLING
 70
-16383
  9
$HANDSEED
  5
15E0
  9
$SURFTAB1
 70
     6
  9
$SURFTAB2
 70
     6
  9
$SURFTYPE
 70
     6
  9
$SURFU
 70
     6
  9
$SURFV
 70
     6
  9
$UCSNAME
  2

  9
$UCSORG
 10
0.0
 20
0.0
 30
0.0
  9
$UCSXDIR
 10
1.0
 20
0.0
 30
0.0
  9
$UCSYDIR
 10
0.0
 20
1.0
 30
0.0
  9
$PUCSNAME
  2

  9
$PUCSORG
 10
0.0
 20
0.0
 30
0.0
  9
$PUCSXDIR
 10
1.0
 20
0.0
 30
0.0
  9
$PUCSYDIR
 10
0.0
 20
1.0
 30
0.0
  9
$USERI1
 70
     0
  9
$USERI2
 70
     0
  9
$USERI3
 70
     0
  9
$USERI4
 70
     0
  9
$USERI5
 70
     0
  9
$USERR1
 40
20.0
  9
$USERR2
 40
0.0
  9
$USERR3
 40
0.0
  9
$USERR4
 40
0.0
  9
$USERR5
 40
0.0
  9
$WORLDVIEW
 70
     1
  9
$SHADEDGE
 70
     3
  9
$SHADEDIF
 70
    70
  9
$TILEMODE
 70
     1
  9
$MAXACTVP
 70
    64
  9
$PLIMCHECK
 70
     0
  9
$PEXTMIN
 10
1.0000000000000000E+020
 20
1.0000000000000000E+020
 30
1.0000000000000000E+020
  9
$PEXTMAX
 10
-1.0000000000000000E+020
 20
-1.0000000000000000E+020
 30
-1.0000000000000000E+020
  9
$PLIMMIN
 10
0.0
 20
0.0
  9
$PLIMMAX
 10
12.0
 20
9.0
  9
$UNITMODE
 70
     0
  9
$VISRETAIN
 70
     1
  9
$PLINEGEN
 70
     0
  9
$PSLTSCALE
 70
     1
  0
ENDSEC
  0
SECTION
  2
TABLES
  0
TABLE
  2
VPORT
 70
     2
  0
VPORT
  2
*ACTIVE
 70
     0
 10
0.0
 20
0.0
 11
1.0
 21
1.0
 12
359.34005582503499
 22
42.736055482504518
 13
0.0
 23
0.0
 14
100.0
 24
100.0
 15
100.0
 25
100.0
 16
0.0
 26
0.0
 36
1.0
 17
0.0
 27
0.0
 37
0.0
 40
3013.9330641448942
 41
1.2953367875647659
 42
50.0
 43
0.0
 44
0.0
 50
0.0
 51
0.0
 71
     0
 72
  1000
 73
     1
 74
     0
 75
     0
 76
     0
 77
     0
 78
     2
  0
ENDTAB
  0
TABLE
  2
LTYPE
 70
     7
  0
LTYPE
  2
CONTINUOUS
 70
     0
  3
実線
 72
    65
 73
     0
 40
0.0
  0
LTYPE
  2
DASHDOT
 70
     0
  3
____ _ ____ _ ____ _ ____ _ ____ _ ____ _ ____
 72
    65
 73
     4
 40
5.5
 49
4.0
 49
-0.6
 49
0.3
 49
-0.6
  0
LTYPE
  2
DASHED
 70
     0
  3
_ _ _ _ _ _ _ _ _ _ _ _ _ _ _ _ _ _ _ _ _ _ _
 72
    65
 73
     2
 40
2.0
 49
1.1999999999999991
 49
-0.8
  0
LTYPE
  2
DOT
 70
     0
  3
...............................................
 72
    65
 73
     2
 40
0.8
 49
0.5
 49
-0.3
  0
LTYPE
  2
DASHDOT1
 70
     0
  3
____ _ ____ _ ____ _ ____ _ ____ _ ____ _ ____
 72
    65
 73
     4
 40
2.0
 49
1.5
 49
-0.2
 49
0.1
 49
-0.2
  0
LTYPE
  2
DIVIDE
 70
     0
  3
_____ _ _ _____ _ _ _____ _ _ _____ _ _ ____
 72
    65
 73
     6
 40
6.4000000000000004
 49
4.0
 49
-0.6
 49
0.3
 49
-0.6
 49
0.3
 49
-0.6
  0
LTYPE
  2
DIVIDE1
 70
     0
  3
_____ _ _ _____ _ _ _____ _ _ _____ _ _ ____
 72
    65
 73
     6
 40
3.2000000000000002
 49
2.0
 49
-0.3
 49
0.15
 49
-0.3
 49
0.15
 49
-0.3
  0
ENDTAB
  0
TABLE
  2
LAYER
 70
    12
  0
LAYER
  2
0
 70
     0
 62
     7
  6
CONTINUOUS
  0
LAYER
  2
OUTLINE
 70
     0
 62
     3
  6
CONTINUOUS
  0
LAYER
  2
DETAIL
 70
     0
 62
     5
  6
CONTINUOUS
  0
LAYER
  2
BASIS
 70
     0
 62
     6
  6
CONTINUOUS
  0
LAYER
  2
NOTE
 70
     0
 62
     4
  6
CONTINUOUS
  0
LAYER
  2
DEFPOINTS
 70
     0
 62
     7
  6
CONTINUOUS
  0
LAYER
  2
SIZE
 70
     0
 62
    32
  6
CONTINUOUS
  0
LAYER
  2
ARRANGE
 70
     0
 62
     1
  6
CONTINUOUS
  0
LAYER
  2
ETC
 70
     0
 62
    83
  6
CONTINUOUS
  0
LAYER
  2
FIX
 70
     0
 62
   241
  6
CONTINUOUS
  0
LAYER
  2
SERVICESPACE
 70
     0
 62
     2
  6
CONTINUOUS
  0
LAYER
  2
SYMBOLLINE
 70
     0
 62
    38
  6
CONTINUOUS
  0
ENDTAB
  0
TABLE
  2
STYLE
 70
     2
  0
STYLE
  2
STANDARD
 70
     0
 40
0.0
 41
0.9
 50
0.0
 71
     0
 42
64.0
  3
SIMPLEX
  4
BIGFONT
  0
STYLE
  2
STANDARD1
 70
     0
 40
0.0
 41
1.0
 50
0.0
 71
     0
 42
3.5
  3
MONOTXT
  4
BIGFONT
  0
ENDTAB
  0
TABLE
  2
VIEW
 70
     1
  0
VIEW
  2
ALL
 70
     0
 40
4282.6199999999999
 10
0.0
 20
41.309903999999989
 41
5940.0
 11
0.0
 21
0.0
 31
1.0
 12
0.0
 22
0.0
 32
0.0
 42
50.0
 43
0.0
 44
0.0
 50
0.0
 71
     0
  0
ENDTAB
  0
TABLE
  2
UCS
 70
     0
  0
ENDTAB
  0
TABLE
  2
APPID
 70
     1
  0
APPID
  2
ACAD
 70
     0
  0
ENDTAB
  0
TABLE
  2
DIMSTYLE
 70
     1
  0
DIMSTYLE
  2
STANDARD
 70
     0
  3

  4

  5

  6

  7

 40
1.0
 41
0.18
 42
0.0625
 43
0.38
 44
0.18
 45
0.0
 46
0.0
 47
0.0
 48
0.0
140
0.18
141
0.09
142
0.0
143
25.399999999999999
144
1.0
145
0.0
146
1.0
147
0.09
 71
     0
 72
     0
 73
     1
 74
     1
 75
     0
 76
     0
 77
     0
 78
     0
170
     0
171
     2
172
     0
173
     0
174
     0
175
     0
176
     0
177
     0
178
     0
  0
ENDTAB
  0
ENDSEC
  0
SECTION
  2
BLOCKS
  0
BLOCK
  8
0
  2
$MODEL_SPACE
 70
     0
 10
0.0
 20
0.0
 30
0.0
  3
$MODEL_SPACE
  1

  0
ENDBLK
  5
20
  8
0
  0
BLOCK
 67
     1
  8
0
  2
$PAPER_SPACE
 70
     0
 10
0.0
 20
0.0
 30
0.0
  3
$PAPER_SPACE
  1

  0
ENDBLK
  5
1C
 67
     1
  8
0
  0
BLOCK
  8
0
  2
_ORIGIN
 70
     0
 10
0.0
 20
0.0
 30
0.0
  3
_ORIGIN
  1

  0
CIRCLE
  5
485
  8
0
  6
BYBLOCK
 62
     0
 10
0.0
 20
0.0
 30
0.0
 40
0.5
  0
LINE
  5
486
  8
0
  6
BYBLOCK
 62
     0
 10
0.0
 20
0.0
 30
0.0
 11
-1.0
 21
0.0
 31
0.0
  0
ENDBLK
  5
488
  8
0
  0
BLOCK
  8
0
  2
_DOTBLANK
 70
     0
 10
0.0
 20
0.0
 30
0.0
  3
_DOTBLANK
  1

  0
CIRCLE
  5
48A
  8
0
  6
BYBLOCK
 62
     0
 10
0.0
 20
0.0
 30
0.0
 40
0.5
  0
LINE
  5
48B
  8
0
  6
BYBLOCK
 62
     0
 10
-0.5
 20
0.0
 30
0.0
 11
-1.0
 21
0.0
 31
0.0
  0
ENDBLK
  5
48D
  8
0
  0
BLOCK
  8
0
  2
_NONE
 70
     0
 10
0.0
 20
0.0
 30
0.0
  3
_NONE
  1

  0
ENDBLK
  5
4BA
  8
0
  0
BLOCK
  8
0
  2
*D5
 70
     1
 10
0.0
 20
0.0
 30
0.0
  3
*D5
  1

  0
LINE
  5
59A
  8
SIZE
  6
CONTINUOUS
 62
     0
 10
-388.5
 20
-239.0
 30
0.0
 11
-388.5
 21
-658.17053973335715
 31
0.0
  0
LINE
  5
59B
  8
SIZE
  6
CONTINUOUS
 62
     0
 10
388.49999999999989
 20
-234.0
 30
0.0
 11
388.49999999999989
 21
-658.17053973335715
 31
0.0
  0
LINE
  5
59C
  8
SIZE
  6
CONTINUOUS
 62
     0
 10
-378.5
 20
-628.17053973335715
 30
0.0
 11
378.49999999999989
 21
-628.17053973335715
 31
0.0
  0
INSERT
  5
59D
  8
SIZE
  6
CONTINUOUS
 62
     0
  2
_ORIGIN
 10
-388.5
 20
-628.17053973335715
 30
0.0
 41
10.0
 42
10.0
 43
10.0
 50
180.0
  0
INSERT
  5
59E
  8
SIZE
  6
CONTINUOUS
 62
     0
  2
_ORIGIN
 10
388.49999999999989
 20
-628.17053973335715
 30
0.0
 41
10.0
 42
10.0
 43
10.0
  0
TEXT
  5
59F
  8
DETAIL
  6
CONTINUOUS
 62
     0
 10
-74.057142857142921
 20
-618.17053973335715
 30
0.0
 40
64.0
  1
777
 41
0.9
  0
POINT
  5
5A0
  8
DEFPOINTS
  6
CONTINUOUS
 62
     0
 10
-388.5
 20
-219.0
 30
0.0
  0
POINT
  5
5A1
  8
DEFPOINTS
  6
CONTINUOUS
 62
     0
 10
388.49999999999989
 20
-214.0
 30
0.0
  0
POINT
  5
5A2
  8
DEFPOINTS
  6
CONTINUOUS
 62
     0
 10
388.49999999999989
 20
-628.17053973335715
 30
0.0
  0
ENDBLK
  5
5A4
  8
0
  0
BLOCK
  8
0
  2
*D6
 70
     1
 10
0.0
 20
0.0
 30
0.0
  3
*D6
  1

  0
LINE
  5
5A7
  8
SIZE
  6
CONTINUOUS
 62
     0
 10
-361.49999999999989
 20
-242.99999999999989
 30
0.0
 11
-361.49999999999989
 21
-552.55659966129315
 31
0.0
  0
LINE
  5
5A8
  8
SIZE
  6
CONTINUOUS
 62
     0
 10
408.49999999999989
 20
-242.99999999999989
 30
0.0
 11
408.49999999999989
 21
-552.55659966129315
 31
0.0
  0
LINE
  5
5A9
  8
SIZE
  6
CONTINUOUS
 62
     0
 10
-351.49999999999989
 20
-522.55659966129315
 30
0.0
 11
398.49999999999989
 21
-522.55659966129315
 31
0.0
  0
INSERT
  5
5AA
  8
SIZE
  6
CONTINUOUS
 62
     0
  2
_ORIGIN
 10
-361.49999999999989
 20
-522.55659966129315
 30
0.0
 41
10.0
 42
10.0
 43
10.0
 50
180.0
  0
INSERT
  5
5AB
  8
SIZE
  6
CONTINUOUS
 62
     0
  2
_ORIGIN
 10
408.49999999999989
 20
-522.55659966129315
 30
0.0
 41
10.0
 42
10.0
 43
10.0
  0
TEXT
  5
5AC
  8
DETAIL
  6
CONTINUOUS
 62
     0
 10
-50.557142857142843
 20
-512.55659966129315
 30
0.0
 40
64.0
  1
770
 41
0.9
  0
POINT
  5
5AD
  8
DEFPOINTS
  6
CONTINUOUS
 62
     0
 10
-361.49999999999989
 20
-222.99999999999989
 30
0.0
  0
POINT
  5
5AE
  8
DEFPOINTS
  6
CONTINUOUS
 62
     0
 10
408.49999999999989
 20
-222.99999999999989
 30
0.0
  0
POINT
  5
5AF
  8
DEFPOINTS
  6
CONTINUOUS
 62
     0
 10
408.49999999999989
 20
-522.55659966129315
 30
0.0
  0
ENDBLK
  5
5B1
  8
0
  0
BLOCK
  8
0
  2
*D7
 70
     1
 10
0.0
 20
0.0
 30
0.0
  3
*D7
  1

  0
LINE
  5
68D
  8
SIZE
  6
CONTINUOUS
 62
     0
 10
388.49999999999977
 20
-239.0
 30
0.0
 11
388.49999999999977
 21
-657.52760100167495
 31
0.0
  0
LINE
  5
68E
  8
SIZE
  6
CONTINUOUS
 62
     0
 10
408.49999999999989
 20
-242.99999999999989
 30
0.0
 11
408.49999999999989
 21
-657.52760100167495
 31
0.0
  0
LINE
  5
68F
  8
SIZE
  6
CONTINUOUS
 62
     0
 10
378.49999999999977
 20
-627.52760100167495
 30
0.0
 11
368.49999999999977
 21
-627.52760100167495
 31
0.0
  0
LINE
  5
690
  8
SIZE
  6
CONTINUOUS
 62
     0
 10
418.5
 20
-627.52760100167495
 30
0.0
 11
541.75714285714275
 21
-627.52760100167495
 31
0.0
  0
LINE
  5
691
  8
SIZE
  6
CONTINUOUS
 62
     0
 10
388.49999999999977
 20
-627.52760100167495
 30
0.0
 11
408.49999999999989
 21
-627.52760100167495
 31
0.0
  0
INSERT
  5
692
  8
SIZE
  6
CONTINUOUS
 62
     0
  2
_ORIGIN
 10
388.49999999999977
 20
-627.52760100167495
 30
0.0
 41
10.0
 42
10.0
 43
10.0
  0
INSERT
  5
693
  8
SIZE
  6
CONTINUOUS
 62
     0
  2
_ORIGIN
 10
408.49999999999989
 20
-627.52760100167495
 30
0.0
 41
10.0
 42
10.0
 43
10.0
 50
180.0
  0
TEXT
  5
694
  8
DETAIL
  6
CONTINUOUS
 62
     0
 10
438.49999999999989
 20
-617.52760100167507
 30
0.0
 40
64.0
  1
20
 41
0.9
  0
POINT
  5
695
  8
DEFPOINTS
  6
CONTINUOUS
 62
     0
 10
388.49999999999977
 20
-219.0
 30
0.0
  0
POINT
  5
696
  8
DEFPOINTS
  6
CONTINUOUS
 62
     0
 10
408.49999999999989
 20
-222.99999999999989
 30
0.0
  0
POINT
  5
697
  8
DEFPOINTS
  6
CONTINUOUS
 62
     0
 10
408.49999999999989
 20
-627.52760100167495
 30
0.0
  0
ENDBLK
  5
5C0
  8
0
  0
BLOCK
  8
0
  2
*D8
 70
     1
 10
0.0
 20
0.0
 30
0.0
  3
*D8
  1

  0
LINE
  5
5F1
  8
SIZE
  6
CONTINUOUS
 62
     0
 10
-388.5
 20
-239.0
 30
0.0
 11
-388.5
 21
-657.9788646279776
 31
0.0
  0
LINE
  5
5F2
  8
SIZE
  6
CONTINUOUS
 62
     0
 10
-408.49999999999989
 20
-242.99999999999989
 30
0.0
 11
-408.49999999999989
 21
-657.9788646279776
 31
0.0
  0
LINE
  5
5F3
  8
SIZE
  6
CONTINUOUS
 62
     0
 10
-378.5
 20
-627.9788646279776
 30
0.0
 11
-368.5
 21
-627.9788646279776
 31
0.0
  0
LINE
  5
5F4
  8
SIZE
  6
CONTINUOUS
 62
     0
 10
-418.5
 20
-627.9788646279776
 30
0.0
 11
-541.75714285714275
 21
-627.9788646279776
 31
0.0
  0
LINE
  5
5F5
  8
SIZE
  6
CONTINUOUS
 62
     0
 10
-388.5
 20
-627.9788646279776
 30
0.0
 11
-408.49999999999989
 21
-627.9788646279776
 31
0.0
  0
INSERT
  5
5F6
  8
SIZE
  6
CONTINUOUS
 62
     0
  2
_ORIGIN
 10
-388.5
 20
-627.9788646279776
 30
0.0
 41
10.0
 42
10.0
 43
10.0
 50
180.0
  0
INSERT
  5
5F7
  8
SIZE
  6
CONTINUOUS
 62
     0
  2
_ORIGIN
 10
-408.49999999999989
 20
-627.9788646279776
 30
0.0
 41
10.0
 42
10.0
 43
10.0
  0
TEXT
  5
5F8
  8
DETAIL
  6
CONTINUOUS
 62
     0
 10
-531.75714285714287
 20
-617.97886462797749
 30
0.0
 40
64.0
  1
20
 41
0.9
  0
POINT
  5
5F9
  8
DEFPOINTS
  6
CONTINUOUS
 62
     0
 10
-388.5
 20
-219.0
 30
0.0
  0
POINT
  5
5FA
  8
DEFPOINTS
  6
CONTINUOUS
 62
     0
 10
-408.49999999999989
 20
-222.99999999999989
 30
0.0
  0
POINT
  5
5FB
  8
DEFPOINTS
  6
CONTINUOUS
 62
     0
 10
-408.49999999999989
 20
-627.9788646279776
 30
0.0
  0
ENDBLK
  5
5E5
  8
0
  0
BLOCK
  8
0
  2
*D9
 70
     1
 10
0.0
 20
0.0
 30
0.0
  3
*D9
  1

  0
LINE
  5
1429
  8
SIZE
  6
CONTINUOUS
 62
     0
 10
-428.49999999999989
 20
203.0
 30
0.0
 11
-505.370411303418
 21
203.0
 31
0.0
  0
LINE
  5
142A
  8
SIZE
  6
CONTINUOUS
 62
     0
 10
-428.50000000000011
 20
-195.0
 30
0.0
 11
-505.37041130341822
 21
-194.99999999999989
 31
0.0
  0
LINE
  5
142B
  8
SIZE
  6
CONTINUOUS
 62
     0
 10
-475.37041130341811
 20
193.0
 30
0.0
 11
-475.37041130341811
 21
-184.99999999999989
 31
0.0
  0
INSERT
  5
142C
  8
SIZE
  6
CONTINUOUS
 62
     0
  2
_ORIGIN
 10
-475.37041130341811
 20
203.0
 30
0.0
 41
10.0
 42
10.0
 43
10.0
 50
90.0
  0
INSERT
  5
142D
  8
SIZE
  6
CONTINUOUS
 62
     0
  2
_ORIGIN
 10
-475.37041130341811
 20
-194.99999999999989
 30
0.0
 41
10.0
 42
10.0
 43
10.0
 50
270.0
  0
TEXT
  5
142E
  8
DETAIL
  6
CONTINUOUS
 62
     0
 10
-485.37041130341822
 20
-70.057142857142907
 30
0.0
 40
64.0
  1
398
 50
90.0
 41
0.9
  0
POINT
  5
142F
  8
DEFPOINTS
  6
CONTINUOUS
 62
     0
 10
-408.49999999999989
 20
203.0
 30
0.0
  0
POINT
  5
1430
  8
DEFPOINTS
  6
CONTINUOUS
 62
     0
 10
-408.5
 20
-195.0
 30
0.0
  0
POINT
  5
1431
  8
DEFPOINTS
  6
CONTINUOUS
 62
     0
 10
-475.37041130341811
 20
-194.99999999999989
 30
0.0
  0
ENDBLK
  5
608
  8
0
  0
BLOCK
  8
0
  2
*D10
 70
     1
 10
0.0
 20
0.0
 30
0.0
  3
*D10
  1

  0
LINE
  5
60B
  8
SIZE
  6
CONTINUOUS
 62
     0
 10
-381.49999999999989
 20
-224.99999999999989
 30
0.0
 11
-618.16603949373518
 21
-224.99999999999989
 31
0.0
  0
LINE
  5
60C
  8
SIZE
  6
CONTINUOUS
 62
     0
 10
-381.49999999999989
 20
225.0
 30
0.0
 11
-618.16603949373518
 21
225.0
 31
0.0
  0
LINE
  5
60D
  8
SIZE
  6
CONTINUOUS
 62
     0
 10
-588.1660394937353
 20
-214.99999999999989
 30
0.0
 11
-588.1660394937353
 21
215.0
 31
0.0
  0
INSERT
  5
60E
  8
SIZE
  6
CONTINUOUS
 62
     0
  2
_ORIGIN
 10
-588.1660394937353
 20
-224.99999999999989
 30
0.0
 41
10.0
 42
10.0
 43
10.0
 50
270.0
  0
INSERT
  5
60F
  8
SIZE
  6
CONTINUOUS
 62
     0
  2
_ORIGIN
 10
-588.1660394937353
 20
225.0
 30
0.0
 41
10.0
 42
10.0
 43
10.0
 50
90.0
  0
TEXT
  5
610
  8
DETAIL
  6
CONTINUOUS
 62
     0
 10
-598.16603949373518
 20
-74.057142857142878
 30
0.0
 40
64.0
  1
450
 50
90.0
 41
0.9
  0
POINT
  5
611
  8
DEFPOINTS
  6
CONTINUOUS
 62
     0
 10
-361.5
 20
-224.99999999999989
 30
0.0
  0
POINT
  5
612
  8
DEFPOINTS
  6
CONTINUOUS
 62
     0
 10
-361.5
 20
225.0
 30
0.0
  0
POINT
  5
613
  8
DEFPOINTS
  6
CONTINUOUS
 62
     0
 10
-588.1660394937353
 20
225.0
 30
0.0
  0
ENDBLK
  5
615
  8
0
  0
BLOCK
  8
0
  2
*D11
 70
     1
 10
0.0
 20
0.0
 30
0.0
  3
*D11
  1

  0
LINE
  5
764
  8
SIZE
  6
CONTINUOUS
 62
     0
 10
348.50000000000011
 20
340.0
 30
0.0
 11
696.1634914288444
 21
339.99999999999989
 31
0.0
  0
LINE
  5
765
  8
SIZE
  6
CONTINUOUS
 62
     0
 10
278.5
 20
225.0
 30
0.0
 11
696.16349142884428
 21
224.99999999999989
 31
0.0
  0
LINE
  5
766
  8
SIZE
  6
CONTINUOUS
 62
     0
 10
666.1634914288444
 20
329.99999999999977
 30
0.0
 11
666.16349142884417
 21
234.9999999999998
 31
0.0
  0
INSERT
  5
767
  8
SIZE
  6
CONTINUOUS
 62
     0
  2
_ORIGIN
 10
666.1634914288444
 20
339.99999999999989
 30
0.0
 41
10.0
 42
10.0
 43
10.0
 50
90.0
  0
INSERT
  5
768
  8
SIZE
  6
CONTINUOUS
 62
     0
  2
_ORIGIN
 10
666.16349142884417
 20
224.99999999999989
 30
0.0
 41
10.0
 42
10.0
 43
10.0
 50
270.0
  0
TEXT
  5
769
  8
DETAIL
  6
CONTINUOUS
 62
     0
 10
656.16349142884417
 20
186.1134359357589
 30
0.0
 40
64.0
  1
115
 50
90.0
 41
0.9
  0
POINT
  5
76A
  8
DEFPOINTS
  6
CONTINUOUS
 62
     0
 10
328.50000000000011
 20
340.0
 30
0.0
  0
POINT
  5
76B
  8
DEFPOINTS
  6
CONTINUOUS
 62
     0
 10
258.49999999999989
 20
225.0
 30
0.0
  0
POINT
  5
76C
  8
DEFPOINTS
  6
CONTINUOUS
 62
     0
 10
666.16349142884417
 20
224.99999999999989
 30
0.0
  0
ENDBLK
  5
631
  8
0
  0
BLOCK
  8
0
  2
*D12
 70
     1
 10
0.0
 20
0.0
 30
0.0
  3
*D12
  1

  0
LINE
  5
66C
  8
SIZE
  6
CONTINUOUS
 62
     0
 10
404.5
 20
96.000000000000014
 30
0.0
 11
761.86547460009751
 21
95.999999999999901
 31
0.0
  0
LINE
  5
66D
  8
SIZE
  6
CONTINUOUS
 62
     0
 10
381.49999999999989
 20
-224.99999999999989
 30
0.0
 11
761.86547460009751
 21
-225.0
 31
0.0
  0
LINE
  5
66E
  8
SIZE
  6
CONTINUOUS
 62
     0
 10
731.86547460009751
 20
85.999999999999915
 30
0.0
 11
731.86547460009751
 21
-215.0
 31
0.0
  0
INSERT
  5
66F
  8
SIZE
  6
CONTINUOUS
 62
     0
  2
_ORIGIN
 10
731.86547460009751
 20
95.999999999999915
 30
0.0
 41
10.0
 42
10.0
 43
10.0
 50
90.0
  0
INSERT
  5
670
  8
SIZE
  6
CONTINUOUS
 62
     0
  2
_ORIGIN
 10
731.86547460009751
 20
-225.0
 30
0.0
 41
10.0
 42
10.0
 43
10.0
 50
270.0
  0
TEXT
  5
671
  8
DETAIL
  6
CONTINUOUS
 62
     0
 10
721.86547460009751
 20
-134.65522748778619
 30
0.0
 40
64.0
  1
321
 50
90.0
 41
0.9
  0
POINT
  5
672
  8
DEFPOINTS
  6
CONTINUOUS
 62
     0
 10
384.5
 20
96.000000000000014
 30
0.0
  0
POINT
  5
673
  8
DEFPOINTS
  6
CONTINUOUS
 62
     0
 10
361.49999999999989
 20
-224.99999999999989
 30
0.0
  0
POINT
  5
674
  8
DEFPOINTS
  6
CONTINUOUS
 62
     0
 10
731.86547460009751
 20
-225.0
 30
0.0
  0
ENDBLK
  5
63E
  8
0
  0
BLOCK
  8
0
  2
*D13
 70
     1
 10
0.0
 20
0.0
 30
0.0
  3
*D13
  1

  0
LINE
  5
74F
  8
SIZE
  6
CONTINUOUS
 62
     0
 10
381.49999999999989
 20
-224.99999999999989
 30
0.0
 11
643.74310929889896
 21
-225.0
 31
0.0
  0
LINE
  5
750
  8
SIZE
  6
CONTINUOUS
 62
     0
 10
493.5
 20
-171.99999999999989
 30
0.0
 11
643.74310929889896
 21
-172.0
 31
0.0
  0
LINE
  5
751
  8
SIZE
  6
CONTINUOUS
 62
     0
 10
613.74310929889907
 20
-182.0
 30
0.0
 11
613.74310929889907
 21
-215.0
 31
0.0
  0
LINE
  5
752
  8
SIZE
  6
CONTINUOUS
 62
     0
 10
613.74310929889907
 20
-225.0
 30
0.0
 11
613.74310929889896
 21
-353.62151060524963
 31
0.0
  0
INSERT
  5
753
  8
SIZE
  6
CONTINUOUS
 62
     0
  2
_ORIGIN
 10
613.74310929889907
 20
-172.0
 30
0.0
 41
10.0
 42
10.0
 43
10.0
 50
90.0
  0
INSERT
  5
754
  8
SIZE
  6
CONTINUOUS
 62
     0
  2
_ORIGIN
 10
613.74310929889907
 20
-225.0
 30
0.0
 41
10.0
 42
10.0
 43
10.0
 50
270.0
  0
TEXT
  5
755
  8
DETAIL
  6
CONTINUOUS
 62
     0
 10
603.74310929889896
 20
-343.62151060524963
 30
0.0
 40
64.0
  1
53
 50
90.0
 41
0.9
  0
POINT
  5
756
  8
DEFPOINTS
  6
CONTINUOUS
 62
     0
 10
361.49999999999989
 20
-224.99999999999989
 30
0.0
  0
POINT
  5
757
  8
DEFPOINTS
  6
CONTINUOUS
 62
     0
 10
473.5
 20
-171.99999999999989
 30
0.0
  0
POINT
  5
758
  8
DEFPOINTS
  6
CONTINUOUS
 62
     0
 10
613.74310929889907
 20
-172.0
 30
0.0
  0
ENDBLK
  5
64D
  8
0
  0
BLOCK
  8
0
  2
*D14
 70
     1
 10
0.0
 20
0.0
 30
0.0
  3
*D14
  1

  0
LINE
  5
73C
  8
SIZE
  6
CONTINUOUS
 62
     0
 10
493.5
 20
70.000000000000014
 30
0.0
 11
643.74310929889896
 21
69.999999999999972
 31
0.0
  0
LINE
  5
73D
  8
SIZE
  6
CONTINUOUS
 62
     0
 10
493.5
 20
-171.99999999999989
 30
0.0
 11
643.74310929889896
 21
-172.0
 31
0.0
  0
LINE
  5
73E
  8
SIZE
  6
CONTINUOUS
 62
     0
 10
613.74310929889907
 20
59.999999999999979
 30
0.0
 11
613.74310929889907
 21
-162.0
 31
0.0
  0
INSERT
  5
73F
  8
SIZE
  6
CONTINUOUS
 62
     0
  2
_ORIGIN
 10
613.74310929889907
 20
69.999999999999972
 30
0.0
 41
10.0
 42
10.0
 43
10.0
 50
90.0
  0
INSERT
  5
740
  8
SIZE
  6
CONTINUOUS
 62
     0
  2
_ORIGIN
 10
613.74310929889907
 20
-172.0
 30
0.0
 41
10.0
 42
10.0
 43
10.0
 50
270.0
  0
TEXT
  5
741
  8
DETAIL
  6
CONTINUOUS
 62
     0
 10
603.74310929889896
 20
-131.9641325038618
 30
0.0
 40
64.0
  1
242
 50
90.0
 41
0.9
  0
POINT
  5
742
  8
DEFPOINTS
  6
CONTINUOUS
 62
     0
 10
473.5
 20
70.000000000000028
 30
0.0
  0
POINT
  5
743
  8
DEFPOINTS
  6
CONTINUOUS
 62
     0
 10
473.5
 20
-171.99999999999989
 30
0.0
  0
POINT
  5
744
  8
DEFPOINTS
  6
CONTINUOUS
 62
     0
 10
613.74310929889907
 20
-172.0
 30
0.0
  0
ENDBLK
  5
681
  8
0
  0
BLOCK
  8
0
  2
*D15
 70
     1
 10
0.0
 20
0.0
 30
0.0
  3
*D15
  1

  0
LINE
  5
6B8
  8
SIZE
  6
CONTINUOUS
 62
     0
 10
408.49999999999989
 20
242.9999999999998
 30
0.0
 11
408.49999999999989
 21
483.74311300066609
 31
0.0
  0
LINE
  5
6B9
  8
SIZE
  6
CONTINUOUS
 62
     0
 10
308.50000000000011
 20
380.0
 30
0.0
 11
308.50000000000011
 21
483.74311300066609
 31
0.0
  0
LINE
  5
6BA
  8
SIZE
  6
CONTINUOUS
 62
     0
 10
418.5
 20
453.7431130006662
 30
0.0
 11
428.5
 21
453.7431130006662
 31
0.0
  0
LINE
  5
6BB
  8
SIZE
  6
CONTINUOUS
 62
     0
 10
298.50000000000011
 20
453.7431130006662
 30
0.0
 11
288.50000000000011
 21
453.7431130006662
 31
0.0
  0
LINE
  5
6BC
  8
SIZE
  6
CONTINUOUS
 62
     0
 10
408.49999999999989
 20
453.7431130006662
 30
0.0
 11
308.50000000000011
 21
453.7431130006662
 31
0.0
  0
INSERT
  5
6BD
  8
SIZE
  6
CONTINUOUS
 62
     0
  2
_ORIGIN
 10
408.49999999999989
 20
453.7431130006662
 30
0.0
 41
10.0
 42
10.0
 43
10.0
 50
180.0
  0
INSERT
  5
6BE
  8
SIZE
  6
CONTINUOUS
 62
     0
  2
_ORIGIN
 10
308.50000000000011
 20
453.7431130006662
 30
0.0
 41
10.0
 42
10.0
 43
10.0
  0
TEXT
  5
6BF
  8
DETAIL
  6
CONTINUOUS
 62
     0
 10
289.92857142857139
 20
463.74311300066609
 30
0.0
 40
64.0
  1
100
 41
0.9
  0
POINT
  5
6C0
  8
DEFPOINTS
  6
CONTINUOUS
 62
     0
 10
408.49999999999989
 20
222.99999999999989
 30
0.0
  0
POINT
  5
6C1
  8
DEFPOINTS
  6
CONTINUOUS
 62
     0
 10
308.50000000000011
 20
360.0
 30
0.0
  0
POINT
  5
6C2
  8
DEFPOINTS
  6
CONTINUOUS
 62
     0
 10
308.50000000000011
 20
453.7431130006662
 30
0.0
  0
ENDBLK
  5
6C4
  8
0
  0
BLOCK
  8
0
  2
*D16
 70
     1
 10
0.0
 20
0.0
 30
0.0
  3
*D16
  1

  0
LINE
  5
729
  8
SIZE
  6
CONTINUOUS
 62
     0
 10
408.49999999999989
 20
50.000000000000028
 30
0.0
 11
408.49999999999989
 21
-122.60325981861379
 31
0.0
  0
LINE
  5
72A
  8
SIZE
  6
CONTINUOUS
 62
     0
 10
364.5
 20
56.000000000000007
 30
0.0
 11
364.5
 21
-122.60325981861379
 31
0.0
  0
LINE
  5
72B
  8
SIZE
  6
CONTINUOUS
 62
     0
 10
374.5
 20
-92.603259818613878
 30
0.0
 11
398.49999999999989
 21
-92.603259818613878
 31
0.0
  0
LINE
  5
72C
  8
SIZE
  6
CONTINUOUS
 62
     0
 10
408.49999999999989
 20
-92.603259818613878
 30
0.0
 11
534.49999999999989
 21
-92.603259818613878
 31
0.0
  0
INSERT
  5
72D
  8
SIZE
  6
CONTINUOUS
 62
     0
  2
_ORIGIN
 10
364.5
 20
-92.603259818613878
 30
0.0
 41
10.0
 42
10.0
 43
10.0
 50
180.0
  0
INSERT
  5
72E
  8
SIZE
  6
CONTINUOUS
 62
     0
  2
_ORIGIN
 10
408.49999999999989
 20
-92.603259818613878
 30
0.0
 41
10.0
 42
10.0
 43
10.0
  0
TEXT
  5
72F
  8
DETAIL
  6
CONTINUOUS
 62
     0
 10
428.5
 20
-82.603259818613878
 30
0.0
 40
64.0
  1
44
 41
0.9
  0
POINT
  5
730
  8
DEFPOINTS
  6
CONTINUOUS
 62
     0
 10
408.49999999999989
 20
70.000000000000028
 30
0.0
  0
POINT
  5
731
  8
DEFPOINTS
  6
CONTINUOUS
 62
     0
 10
364.5
 20
76.000000000000014
 30
0.0
  0
POINT
  5
732
  8
DEFPOINTS
  6
CONTINUOUS
 62
     0
 10
364.5
 20
-92.603259818613878
 30
0.0
  0
ENDBLK
  5
6D3
  8
0
  0
BLOCK
  8
0
  2
*D17
 70
     1
 10
0.0
 20
0.0
 30
0.0
  3
*D17
  1

  0
LINE
  5
702
  8
SIZE
  6
CONTINUOUS
 62
     0
 10
364.5
 20
56.000000000000007
 30
0.0
 11
364.5
 21
-122.3267185779477
 31
0.0
  0
LINE
  5
703
  8
SIZE
  6
CONTINUOUS
 62
     0
 10
309.49999999999989
 20
56.0
 30
0.0
 11
309.49999999999989
 21
-122.3267185779477
 31
0.0
  0
LINE
  5
704
  8
SIZE
  6
CONTINUOUS
 62
     0
 10
354.5
 20
-92.326718577947744
 30
0.0
 11
319.49999999999989
 21
-92.326718577947744
 31
0.0
  0
LINE
  5
705
  8
SIZE
  6
CONTINUOUS
 62
     0
 10
309.49999999999989
 20
-92.326718577947744
 30
0.0
 11
186.2428571428571
 21
-92.326718577947744
 31
0.0
  0
INSERT
  5
706
  8
SIZE
  6
CONTINUOUS
 62
     0
  2
_ORIGIN
 10
364.5
 20
-92.326718577947744
 30
0.0
 41
10.0
 42
10.0
 43
10.0
  0
INSERT
  5
707
  8
SIZE
  6
CONTINUOUS
 62
     0
  2
_ORIGIN
 10
309.49999999999989
 20
-92.326718577947744
 30
0.0
 41
10.0
 42
10.0
 43
10.0
 50
180.0
  0
TEXT
  5
708
  8
DETAIL
  6
CONTINUOUS
 62
     0
 10
196.24285714285699
 20
-82.326718577947744
 30
0.0
 40
64.0
  1
55
 41
0.9
  0
POINT
  5
709
  8
DEFPOINTS
  6
CONTINUOUS
 62
     0
 10
364.5
 20
76.000000000000014
 30
0.0
  0
POINT
  5
70A
  8
DEFPOINTS
  6
CONTINUOUS
 62
     0
 10
309.49999999999989
 20
76.0
 30
0.0
  0
POINT
  5
70B
  8
DEFPOINTS
  6
CONTINUOUS
 62
     0
 10
309.49999999999989
 20
-92.326718577947744
 30
0.0
  0
ENDBLK
  5
6E2
  8
0
  0
BLOCK
  8
0
  2
*D18
 70
     1
 10
0.0
 20
0.0
 30
0.0
  3
*D18
  1

  0
LINE
  5
7E6
  8
SIZE
  6
CONTINUOUS
 62
     0
 10
-388.5
 20
-1820.2728349499209
 30
0.0
 11
-388.5
 21
-1624.945334817304
 31
0.0
  0
LINE
  5
7E7
  8
SIZE
  6
CONTINUOUS
 62
     0
 10
388.49999999999989
 20
-1820.2728349499209
 30
0.0
 11
388.49999999999989
 21
-1624.945334817304
 31
0.0
  0
LINE
  5
7E8
  8
SIZE
  6
CONTINUOUS
 62
     0
 10
-378.5
 20
-1654.945334817304
 30
0.0
 11
378.49999999999989
 21
-1654.945334817304
 31
0.0
  0
INSERT
  5
7E9
  8
SIZE
  6
CONTINUOUS
 62
     0
  2
_ORIGIN
 10
-388.5
 20
-1654.945334817304
 30
0.0
 41
10.0
 42
10.0
 43
10.0
 50
180.0
  0
INSERT
  5
7EA
  8
SIZE
  6
CONTINUOUS
 62
     0
  2
_ORIGIN
 10
388.49999999999989
 20
-1654.945334817304
 30
0.0
 41
10.0
 42
10.0
 43
10.0
  0
TEXT
  5
7EB
  8
DETAIL
  6
CONTINUOUS
 62
     0
 10
-74.057142857142921
 20
-1644.945334817304
 30
0.0
 40
64.0
  1
777
 41
0.9
  0
POINT
  5
7EC
  8
DEFPOINTS
  6
CONTINUOUS
 62
     0
 10
-388.5
 20
-1840.2728349499209
 30
0.0
  0
POINT
  5
7ED
  8
DEFPOINTS
  6
CONTINUOUS
 62
     0
 10
388.49999999999989
 20
-1840.2728349499209
 30
0.0
  0
POINT
  5
7EE
  8
DEFPOINTS
  6
CONTINUOUS
 62
     0
 10
388.49999999999989
 20
-1654.945334817304
 30
0.0
  0
ENDBLK
  5
7A1
  8
0
  0
BLOCK
  8
0
  2
*D19
 70
     1
 10
0.0
 20
0.0
 30
0.0
  3
*D19
  1

  0
LINE
  5
7D2
  8
SIZE
  6
CONTINUOUS
 62
     0
 10
-408.5
 20
-1835.2728349499209
 30
0.0
 11
-408.5
 21
-1625.08991143923
 31
0.0
  0
LINE
  5
7D3
  8
SIZE
  6
CONTINUOUS
 62
     0
 10
-388.5
 20
-1820.2728349499209
 30
0.0
 11
-388.5
 21
-1625.08991143923
 31
0.0
  0
LINE
  5
7D4
  8
SIZE
  6
CONTINUOUS
 62
     0
 10
-378.5
 20
-1655.08991143923
 30
0.0
 11
-368.5
 21
-1655.08991143923
 31
0.0
  0
LINE
  5
7D5
  8
SIZE
  6
CONTINUOUS
 62
     0
 10
-418.5
 20
-1655.08991143923
 30
0.0
 11
-541.75714285714275
 21
-1655.08991143923
 31
0.0
  0
LINE
  5
7D6
  8
SIZE
  6
CONTINUOUS
 62
     0
 10
-388.5
 20
-1655.08991143923
 30
0.0
 11
-408.5
 21
-1655.08991143923
 31
0.0
  0
INSERT
  5
7D7
  8
SIZE
  6
CONTINUOUS
 62
     0
  2
_ORIGIN
 10
-388.5
 20
-1655.08991143923
 30
0.0
 41
10.0
 42
10.0
 43
10.0
 50
180.0
  0
INSERT
  5
7D8
  8
SIZE
  6
CONTINUOUS
 62
     0
  2
_ORIGIN
 10
-408.5
 20
-1655.08991143923
 30
0.0
 41
10.0
 42
10.0
 43
10.0
  0
TEXT
  5
7D9
  8
DETAIL
  6
CONTINUOUS
 62
     0
 10
-531.75714285714287
 20
-1645.08991143923
 30
0.0
 40
64.0
  1
20
 41
0.9
  0
POINT
  5
7DA
  8
DEFPOINTS
  6
CONTINUOUS
 62
     0
 10
-408.5
 20
-1855.2728349499209
 30
0.0
  0
POINT
  5
7DB
  8
DEFPOINTS
  6
CONTINUOUS
 62
     0
 10
-388.5
 20
-1840.2728349499209
 30
0.0
  0
POINT
  5
7DC
  8
DEFPOINTS
  6
CONTINUOUS
 62
     0
 10
-388.5
 20
-1655.08991143923
 30
0.0
  0
ENDBLK
  5
7B0
  8
0
  0
BLOCK
  8
0
  2
*D20
 70
     1
 10
0.0
 20
0.0
 30
0.0
  3
*D20
  1

  0
LINE
  5
8A0
  8
SIZE
  6
CONTINUOUS
 62
     0
 10
388.49999999999989
 20
-1820.2728349499209
 30
0.0
 11
388.49999999999989
 21
-1625.020015649199
 31
0.0
  0
LINE
  5
8A1
  8
SIZE
  6
CONTINUOUS
 62
     0
 10
408.5
 20
-1812.2728349499209
 30
0.0
 11
408.5
 21
-1625.020015649199
 31
0.0
  0
LINE
  5
8A2
  8
SIZE
  6
CONTINUOUS
 62
     0
 10
378.49999999999989
 20
-1655.020015649199
 30
0.0
 11
368.49999999999989
 21
-1655.020015649199
 31
0.0
  0
LINE
  5
8A3
  8
SIZE
  6
CONTINUOUS
 62
     0
 10
418.5
 20
-1655.020015649199
 30
0.0
 11
541.75714285714275
 21
-1655.020015649199
 31
0.0
  0
LINE
  5
8A4
  8
SIZE
  6
CONTINUOUS
 62
     0
 10
388.49999999999989
 20
-1655.020015649199
 30
0.0
 11
408.5
 21
-1655.020015649199
 31
0.0
  0
INSERT
  5
8A5
  8
SIZE
  6
CONTINUOUS
 62
     0
  2
_ORIGIN
 10
388.49999999999989
 20
-1655.020015649199
 30
0.0
 41
10.0
 42
10.0
 43
10.0
  0
INSERT
  5
8A6
  8
SIZE
  6
CONTINUOUS
 62
     0
  2
_ORIGIN
 10
408.5
 20
-1655.020015649199
 30
0.0
 41
10.0
 42
10.0
 43
10.0
 50
180.0
  0
TEXT
  5
8A7
  8
DETAIL
  6
CONTINUOUS
 62
     0
 10
438.5
 20
-1645.020015649199
 30
0.0
 40
64.0
  1
20
 41
0.9
  0
POINT
  5
8A8
  8
DEFPOINTS
  6
CONTINUOUS
 62
     0
 10
388.49999999999989
 20
-1840.2728349499209
 30
0.0
  0
POINT
  5
8A9
  8
DEFPOINTS
  6
CONTINUOUS
 62
     0
 10
408.5
 20
-1832.2728349499209
 30
0.0
  0
POINT
  5
8AA
  8
DEFPOINTS
  6
CONTINUOUS
 62
     0
 10
408.5
 20
-1655.020015649199
 30
0.0
  0
ENDBLK
  5
7FD
  8
0
  0
BLOCK
  8
0
  2
*D21
 70
     1
 10
0.0
 20
0.0
 30
0.0
  3
*D21
  1

  0
LINE
  5
816
  8
SIZE
  6
CONTINUOUS
 62
     0
 10
-428.50000000000011
 20
-1860.2728349499209
 30
0.0
 11
-500.36176728809357
 21
-1860.2728349499209
 31
0.0
  0
LINE
  5
817
  8
SIZE
  6
CONTINUOUS
 62
     0
 10
-381.49999999999989
 20
-2062.2728349499212
 30
0.0
 11
-500.36176728809357
 21
-2062.2728349499212
 31
0.0
  0
LINE
  5
818
  8
SIZE
  6
CONTINUOUS
 62
     0
 10
-470.36176728809357
 20
-1870.2728349499209
 30
0.0
 11
-470.36176728809369
 21
-2052.2728349499212
 31
0.0
  0
INSERT
  5
819
  8
SIZE
  6
CONTINUOUS
 62
     0
  2
_ORIGIN
 10
-470.36176728809357
 20
-1860.2728349499209
 30
0.0
 41
10.0
 42
10.0
 43
10.0
 50
90.0
  0
INSERT
  5
81A
  8
SIZE
  6
CONTINUOUS
 62
     0
  2
_ORIGIN
 10
-470.36176728809369
 20
-2062.2728349499212
 30
0.0
 41
10.0
 42
10.0
 43
10.0
 50
270.0
  0
TEXT
  5
81B
  8
DETAIL
  6
CONTINUOUS
 62
     0
 10
-480.36176728809329
 20
-2035.3299778070641
 30
0.0
 40
64.0
  1
202
 50
90.0
 41
0.9
  0
POINT
  5
81C
  8
DEFPOINTS
  6
CONTINUOUS
 62
     0
 10
-408.5
 20
-1860.2728349499209
 30
0.0
  0
POINT
  5
81D
  8
DEFPOINTS
  6
CONTINUOUS
 62
     0
 10
-361.49999999999989
 20
-2062.2728349499212
 30
0.0
  0
POINT
  5
81E
  8
DEFPOINTS
  6
CONTINUOUS
 62
     0
 10
-470.36176728809369
 20
-2062.2728349499212
 30
0.0
  0
ENDBLK
  5
820
  8
0
  0
BLOCK
  8
0
  2
*D22
 70
     1
 10
0.0
 20
0.0
 30
0.0
  3
*D22
  1

  0
LINE
  5
823
  8
SIZE
  6
CONTINUOUS
 62
     0
 10
-381.49999999999989
 20
-1832.2728349499209
 30
0.0
 11
-623.93532213966682
 21
-1832.2728349499209
 31
0.0
  0
LINE
  5
824
  8
SIZE
  6
CONTINUOUS
 62
     0
 10
-381.49999999999989
 20
-2062.2728349499212
 30
0.0
 11
-623.93532213966682
 21
-2062.2728349499212
 31
0.0
  0
LINE
  5
825
  8
SIZE
  6
CONTINUOUS
 62
     0
 10
-593.93532213966682
 20
-1842.2728349499209
 30
0.0
 11
-593.93532213966682
 21
-2052.2728349499212
 31
0.0
  0
INSERT
  5
826
  8
SIZE
  6
CONTINUOUS
 62
     0
  2
_ORIGIN
 10
-593.93532213966682
 20
-1832.2728349499209
 30
0.0
 41
10.0
 42
10.0
 43
10.0
 50
90.0
  0
INSERT
  5
827
  8
SIZE
  6
CONTINUOUS
 62
     0
  2
_ORIGIN
 10
-593.93532213966682
 20
-2062.2728349499212
 30
0.0
 41
10.0
 42
10.0
 43
10.0
 50
270.0
  0
TEXT
  5
828
  8
DETAIL
  6
CONTINUOUS
 62
     0
 10
-603.93532213966637
 20
-2021.3299778070641
 30
0.0
 40
64.0
  1
230
 50
90.0
 41
0.9
  0
POINT
  5
829
  8
DEFPOINTS
  6
CONTINUOUS
 62
     0
 10
-361.49999999999977
 20
-1832.2728349499209
 30
0.0
  0
POINT
  5
82A
  8
DEFPOINTS
  6
CONTINUOUS
 62
     0
 10
-361.49999999999989
 20
-2062.2728349499212
 30
0.0
  0
POINT
  5
82B
  8
DEFPOINTS
  6
CONTINUOUS
 62
     0
 10
-593.93532213966682
 20
-2062.2728349499212
 30
0.0
  0
ENDBLK
  5
82D
  8
0
  0
BLOCK
  8
0
  2
*D23
 70
     1
 10
0.0
 20
0.0
 30
0.0
  3
*D23
  1

  0
LINE
  5
830
  8
SIZE
  6
CONTINUOUS
 62
     0
 10
404.5
 20
-1917.2728349499209
 30
0.0
 11
718.95717699427769
 21
-1917.2728349499209
 31
0.0
  0
LINE
  5
831
  8
SIZE
  6
CONTINUOUS
 62
     0
 10
493.5
 20
-2062.2728349499212
 30
0.0
 11
718.95717699427769
 21
-2062.2728349499212
 31
0.0
  0
LINE
  5
832
  8
SIZE
  6
CONTINUOUS
 62
     0
 10
688.95717699427769
 20
-1907.2728349499209
 30
0.0
 11
688.95717699427769
 21
-1897.2728349499209
 31
0.0
  0
LINE
  5
833
  8
SIZE
  6
CONTINUOUS
 62
     0
 10
688.95717699427769
 20
-2072.2728349499212
 30
0.0
 11
688.95717699427769
 21
-2082.2728349499212
 31
0.0
  0
LINE
  5
834
  8
SIZE
  6
CONTINUOUS
 62
     0
 10
688.95717699427769
 20
-1917.2728349499209
 30
0.0
 11
688.95717699427769
 21
-2062.2728349499212
 31
0.0
  0
INSERT
  5
835
  8
SIZE
  6
CONTINUOUS
 62
     0
  2
_ORIGIN
 10
688.95717699427769
 20
-1917.2728349499209
 30
0.0
 41
10.0
 42
10.0
 43
10.0
 50
270.0
  0
INSERT
  5
836
  8
SIZE
  6
CONTINUOUS
 62
     0
  2
_ORIGIN
 10
688.95717699427769
 20
-2062.2728349499212
 30
0.0
 41
10.0
 42
10.0
 43
10.0
 50
90.0
  0
TEXT
  5
837
  8
DETAIL
  6
CONTINUOUS
 62
     0
 10
678.95717699427803
 20
-2058.3442635213501
 30
0.0
 40
64.0
  1
145
 50
90.0
 41
0.9
  0
POINT
  5
838
  8
DEFPOINTS
  6
CONTINUOUS
 62
     0
 10
384.5
 20
-1917.2728349499209
 30
0.0
  0
POINT
  5
839
  8
DEFPOINTS
  6
CONTINUOUS
 62
     0
 10
473.5
 20
-2062.2728349499212
 30
0.0
  0
POINT
  5
83A
  8
DEFPOINTS
  6
CONTINUOUS
 62
     0
 10
688.95717699427769
 20
-2062.2728349499212
 30
0.0
  0
ENDBLK
  5
83C
  8
0
  0
BLOCK
  8
0
  2
*D24
 70
     1
 10
0.0
 20
0.0
 30
0.0
  3
*D24
  1

  0
LINE
  5
857
  8
SIZE
  6
CONTINUOUS
 62
     0
 10
404.5
 20
-1917.2728349499209
 30
0.0
 11
596.356736599089
 21
-1917.2728349499209
 31
0.0
  0
LINE
  5
858
  8
SIZE
  6
CONTINUOUS
 62
     0
 10
349.49999999999989
 20
-1941.2728349499209
 30
0.0
 11
596.356736599089
 21
-1941.2728349499209
 31
0.0
  0
LINE
  5
859
  8
SIZE
  6
CONTINUOUS
 62
     0
 10
566.356736599089
 20
-1951.2728349499209
 30
0.0
 11
566.356736599089
 21
-1961.2728349499209
 31
0.0
  0
LINE
  5
85A
  8
SIZE
  6
CONTINUOUS
 62
     0
 10
566.356736599089
 20
-1907.2728349499209
 30
0.0
 11
566.35673659908912
 21
-1781.2728349499209
 31
0.0
  0
LINE
  5
85B
  8
SIZE
  6
CONTINUOUS
 62
     0
 10
566.356736599089
 20
-1941.2728349499209
 30
0.0
 11
566.356736599089
 21
-1917.2728349499209
 31
0.0
  0
INSERT
  5
85C
  8
SIZE
  6
CONTINUOUS
 62
     0
  2
_ORIGIN
 10
566.356736599089
 20
-1941.2728349499209
 30
0.0
 41
10.0
 42
10.0
 43
10.0
 50
90.0
  0
INSERT
  5
85D
  8
SIZE
  6
CONTINUOUS
 62
     0
  2
_ORIGIN
 10
566.356736599089
 20
-1917.2728349499209
 30
0.0
 41
10.0
 42
10.0
 43
10.0
 50
270.0
  0
TEXT
  5
85E
  8
DETAIL
  6
CONTINUOUS
 62
     0
 10
556.35673659908934
 20
-1887.2728349499209
 30
0.0
 40
64.0
  1
24
 50
90.0
 41
0.9
  0
POINT
  5
85F
  8
DEFPOINTS
  6
CONTINUOUS
 62
     0
 10
384.5
 20
-1917.2728349499209
 30
0.0
  0
POINT
  5
860
  8
DEFPOINTS
  6
CONTINUOUS
 62
     0
 10
329.49999999999989
 20
-1941.2728349499209
 30
0.0
  0
POINT
  5
861
  8
DEFPOINTS
  6
CONTINUOUS
 62
     0
 10
566.356736599089
 20
-1941.2728349499209
 30
0.0
  0
ENDBLK
  5
84B
  8
0
  0
BLOCK
  8
0
  2
*D25
 70
     1
 10
0.0
 20
0.0
 30
0.0
  3
*D25
  1

  0
LINE
  5
88B
  8
SIZE
  6
CONTINUOUS
 62
     0
 10
408.5
 20
-1812.2728349499209
 30
0.0
 11
408.5
 21
-1711.2116758831901
 31
0.0
  0
LINE
  5
88C
  8
SIZE
  6
CONTINUOUS
 62
     0
 10
473.50000000000011
 20
-1812.2728349499209
 30
0.0
 11
473.50000000000011
 21
-1711.2116758831901
 31
0.0
  0
LINE
  5
88D
  8
SIZE
  6
CONTINUOUS
 62
     0
 10
418.5
 20
-1741.2116758831901
 30
0.0
 11
463.50000000000011
 21
-1741.2116758831901
 31
0.0
  0
LINE
  5
88E
  8
SIZE
  6
CONTINUOUS
 62
     0
 10
473.50000000000011
 20
-1741.2116758831901
 30
0.0
 11
596.75714285714275
 21
-1741.2116758831901
 31
0.0
  0
INSERT
  5
88F
  8
SIZE
  6
CONTINUOUS
 62
     0
  2
_ORIGIN
 10
408.5
 20
-1741.2116758831901
 30
0.0
 41
10.0
 42
10.0
 43
10.0
 50
180.0
  0
INSERT
  5
890
  8
SIZE
  6
CONTINUOUS
 62
     0
  2
_ORIGIN
 10
473.50000000000011
 20
-1741.2116758831901
 30
0.0
 41
10.0
 42
10.0
 43
10.0
  0
TEXT
  5
891
  8
DETAIL
  6
CONTINUOUS
 62
     0
 10
493.5
 20
-1731.211675883191
 30
0.0
 40
64.0
  1
65
 41
0.9
  0
POINT
  5
892
  8
DEFPOINTS
  6
CONTINUOUS
 62
     0
 10
408.5
 20
-1832.2728349499209
 30
0.0
  0
POINT
  5
893
  8
DEFPOINTS
  6
CONTINUOUS
 62
     0
 10
473.50000000000011
 20
-1832.2728349499209
 30
0.0
  0
POINT
  5
894
  8
DEFPOINTS
  6
CONTINUOUS
 62
     0
 10
473.50000000000011
 20
-1741.2116758831901
 30
0.0
  0
ENDBLK
  5
87F
  8
0
  0
BLOCK
  8
0
  2
*D26
 70
     1
 10
0.0
 20
0.0
 30
0.0
  3
*D26
  1

  0
LINE
  5
1487
  8
SIZE
  6
CONTINUOUS
 62
     0
 10
2359.2654251900472
 20
-1820.2728349499221
 30
0.0
 11
2359.2654251900472
 21
-1712.973472141038
 31
0.0
  0
LINE
  5
1488
  8
SIZE
  6
CONTINUOUS
 62
     0
 10
1961.2654251900481
 20
-1820.2728349499221
 30
0.0
 11
1961.2654251900481
 21
-1712.973472141038
 31
0.0
  0
LINE
  5
1489
  8
SIZE
  6
CONTINUOUS
 62
     0
 10
2349.2654251900472
 20
-1742.973472141038
 30
0.0
 11
1971.2654251900469
 21
-1742.973472141038
 31
0.0
  0
INSERT
  5
148A
  8
SIZE
  6
CONTINUOUS
 62
     0
  2
_ORIGIN
 10
2359.2654251900472
 20
-1742.973472141038
 30
0.0
 41
10.0
 42
10.0
 43
10.0
  0
INSERT
  5
148B
  8
SIZE
  6
CONTINUOUS
 62
     0
  2
_ORIGIN
 10
1961.2654251900481
 20
-1742.973472141038
 30
0.0
 41
10.0
 42
10.0
 43
10.0
 50
180.0
  0
TEXT
  5
148C
  8
DETAIL
  6
CONTINUOUS
 62
     0
 10
2086.2082823329042
 20
-1732.973472141038
 30
0.0
 40
64.0
  1
398
 41
0.9
  0
POINT
  5
148D
  8
DEFPOINTS
  6
CONTINUOUS
 62
     0
 10
2359.2654251900472
 20
-1840.2728349499221
 30
0.0
  0
POINT
  5
148E
  8
DEFPOINTS
  6
CONTINUOUS
 62
     0
 10
1961.2654251900481
 20
-1840.2728349499221
 30
0.0
  0
POINT
  5
148F
  8
DEFPOINTS
  6
CONTINUOUS
 62
     0
 10
1961.2654251900481
 20
-1742.973472141038
 30
0.0
  0
ENDBLK
  5
8FB
  8
0
  0
BLOCK
  8
0
  2
*D27
 70
     1
 10
0.0
 20
0.0
 30
0.0
  3
*D27
  1

  0
LINE
  5
939
  8
SIZE
  6
CONTINUOUS
 62
     0
 10
1931.2654251900469
 20
-1812.2728349499209
 30
0.0
 11
1931.2654251900469
 21
-1587.260162442373
 31
0.0
  0
LINE
  5
93A
  8
SIZE
  6
CONTINUOUS
 62
     0
 10
2381.2654251900472
 20
-1812.2728349499209
 30
0.0
 11
2381.2654251900472
 21
-1587.260162442373
 31
0.0
  0
LINE
  5
93B
  8
SIZE
  6
CONTINUOUS
 62
     0
 10
1941.2654251900469
 20
-1617.260162442373
 30
0.0
 11
2371.2654251900472
 21
-1617.260162442373
 31
0.0
  0
INSERT
  5
93C
  8
SIZE
  6
CONTINUOUS
 62
     0
  2
_ORIGIN
 10
1931.2654251900469
 20
-1617.260162442373
 30
0.0
 41
10.0
 42
10.0
 43
10.0
 50
180.0
  0
INSERT
  5
93D
  8
SIZE
  6
CONTINUOUS
 62
     0
  2
_ORIGIN
 10
2381.2654251900472
 20
-1617.260162442373
 30
0.0
 41
10.0
 42
10.0
 43
10.0
  0
TEXT
  5
93E
  8
DETAIL
  6
CONTINUOUS
 62
     0
 10
2082.2082823329042
 20
-1607.260162442373
 30
0.0
 40
64.0
  1
450
 41
0.9
  0
POINT
  5
93F
  8
DEFPOINTS
  6
CONTINUOUS
 62
     0
 10
1931.2654251900469
 20
-1832.2728349499209
 30
0.0
  0
POINT
  5
940
  8
DEFPOINTS
  6
CONTINUOUS
 62
     0
 10
2381.2654251900472
 20
-1832.2728349499209
 30
0.0
  0
POINT
  5
941
  8
DEFPOINTS
  6
CONTINUOUS
 62
     0
 10
2381.2654251900472
 20
-1617.260162442373
 30
0.0
  0
ENDBLK
  5
943
  8
0
  0
BLOCK
  8
0
  2
*D28
 70
     1
 10
0.0
 20
0.0
 30
0.0
  3
*D28
  1

  0
LINE
  5
946
  8
SIZE
  6
CONTINUOUS
 62
     0
 10
2381.2654251900472
 20
-1812.2728349499209
 30
0.0
 11
2381.2654251900472
 21
-1587.2885059017931
 31
0.0
  0
LINE
  5
947
  8
SIZE
  6
CONTINUOUS
 62
     0
 10
2496.2654251900472
 20
-1822.2728349499209
 30
0.0
 11
2496.2654251900472
 21
-1587.2885059017931
 31
0.0
  0
LINE
  5
948
  8
SIZE
  6
CONTINUOUS
 62
     0
 10
2371.2654251900472
 20
-1617.2885059017931
 30
0.0
 11
2361.2654251900472
 21
-1617.2885059017931
 31
0.0
  0
LINE
  5
949
  8
SIZE
  6
CONTINUOUS
 62
     0
 10
2506.2654251900472
 20
-1617.2885059017931
 30
0.0
 11
2516.2654251900472
 21
-1617.2885059017931
 31
0.0
  0
LINE
  5
94A
  8
SIZE
  6
CONTINUOUS
 62
     0
 10
2381.2654251900472
 20
-1617.2885059017931
 30
0.0
 11
2496.2654251900472
 21
-1617.2885059017931
 31
0.0
  0
INSERT
  5
94B
  8
SIZE
  6
CONTINUOUS
 62
     0
  2
_ORIGIN
 10
2381.2654251900472
 20
-1617.2885059017931
 30
0.0
 41
10.0
 42
10.0
 43
10.0
  0
INSERT
  5
94C
  8
SIZE
  6
CONTINUOUS
 62
     0
  2
_ORIGIN
 10
2496.2654251900472
 20
-1617.2885059017931
 30
0.0
 41
10.0
 42
10.0
 43
10.0
 50
180.0
  0
TEXT
  5
94D
  8
DETAIL
  6
CONTINUOUS
 62
     0
 10
2375.6797109043332
 20
-1607.2885059017931
 30
0.0
 40
64.0
  1
115
 41
0.9
  0
POINT
  5
94E
  8
DEFPOINTS
  6
CONTINUOUS
 62
     0
 10
2381.2654251900472
 20
-1832.2728349499209
 30
0.0
  0
POINT
  5
94F
  8
DEFPOINTS
  6
CONTINUOUS
 62
     0
 10
2496.2654251900472
 20
-1842.2728349499221
 30
0.0
  0
POINT
  5
950
  8
DEFPOINTS
  6
CONTINUOUS
 62
     0
 10
2496.2654251900472
 20
-1617.2885059017931
 30
0.0
  0
ENDBLK
  5
952
  8
0
  0
BLOCK
  8
0
  2
*D29
 70
     1
 10
0.0
 20
0.0
 30
0.0
  3
*D29
  1

  0
LINE
  5
9B5
  8
SIZE
  6
CONTINUOUS
 62
     0
 10
1931.2654251900469
 20
-2082.2728349499212
 30
0.0
 11
1931.2654251900469
 21
-2236.1292805721018
 31
0.0
  0
LINE
  5
9B6
  8
SIZE
  6
CONTINUOUS
 62
     0
 10
2252.2654251900472
 20
-1981.2728349499221
 30
0.0
 11
2252.2654251900472
 21
-2236.1292805721018
 31
0.0
  0
LINE
  5
9B7
  8
SIZE
  6
CONTINUOUS
 62
     0
 10
1941.2654251900469
 20
-2206.1292805721018
 30
0.0
 11
2242.2654251900472
 21
-2206.1292805721018
 31
0.0
  0
INSERT
  5
9B8
  8
SIZE
  6
CONTINUOUS
 62
     0
  2
_ORIGIN
 10
1931.2654251900469
 20
-2206.1292805721018
 30
0.0
 41
10.0
 42
10.0
 43
10.0
 50
180.0
  0
INSERT
  5
9B9
  8
SIZE
  6
CONTINUOUS
 62
     0
  2
_ORIGIN
 10
2252.2654251900472
 20
-2206.1292805721018
 30
0.0
 41
10.0
 42
10.0
 43
10.0
  0
TEXT
  5
9BA
  8
DETAIL
  6
CONTINUOUS
 62
     0
 10
2030.0511394757609
 20
-2196.1292805721018
 30
0.0
 40
64.0
  1
321
 41
0.9
  0
POINT
  5
9BB
  8
DEFPOINTS
  6
CONTINUOUS
 62
     0
 10
1931.2654251900469
 20
-2062.2728349499212
 30
0.0
  0
POINT
  5
9BC
  8
DEFPOINTS
  6
CONTINUOUS
 62
     0
 10
2252.2654251900472
 20
-1961.2728349499209
 30
0.0
  0
POINT
  5
9BD
  8
DEFPOINTS
  6
CONTINUOUS
 62
     0
 10
2252.2654251900472
 20
-2206.1292805721018
 30
0.0
  0
ENDBLK
  5
9BF
  8
0
  0
BLOCK
  8
0
  2
*D30
 70
     1
 10
0.0
 20
0.0
 30
0.0
  3
*D30
  1

  0
LINE
  5
1331
  8
SIZE
  6
CONTINUOUS
 62
     0
 10
1911.2654251900469
 20
-2062.2728349499212
 30
0.0
 11
1667.231581628406
 21
-2062.2728349499212
 31
0.0
  0
LINE
  5
1332
  8
SIZE
  6
CONTINUOUS
 62
     0
 10
1917.2654251900481
 20
-1860.2728349499209
 30
0.0
 11
1667.231581628406
 21
-1860.2728349499209
 31
0.0
  0
LINE
  5
1333
  8
SIZE
  6
CONTINUOUS
 62
     0
 10
1697.231581628406
 20
-2052.2728349499212
 30
0.0
 11
1697.231581628406
 21
-1870.2728349499221
 31
0.0
  0
INSERT
  5
1334
  8
SIZE
  6
CONTINUOUS
 62
     0
  2
_ORIGIN
 10
1697.231581628406
 20
-2062.2728349499212
 30
0.0
 41
10.0
 42
10.0
 43
10.0
 50
270.0
  0
INSERT
  5
1335
  8
SIZE
  6
CONTINUOUS
 62
     0
  2
_ORIGIN
 10
1697.231581628406
 20
-1860.2728349499209
 30
0.0
 41
10.0
 42
10.0
 43
10.0
 50
90.0
  0
TEXT
  5
1336
  8
DETAIL
  6
CONTINUOUS
 62
     0
 10
1687.231581628406
 20
-2033.690460084174
 30
0.0
 40
64.0
  1
202
 50
90.0
 41
0.9
  0
POINT
  5
1337
  8
DEFPOINTS
  6
CONTINUOUS
 62
     0
 10
1931.2654251900469
 20
-2062.2728349499212
 30
0.0
  0
POINT
  5
1338
  8
DEFPOINTS
  6
CONTINUOUS
 62
     0
 10
1937.2654251900469
 20
-1860.2728349499209
 30
0.0
  0
POINT
  5
1339
  8
DEFPOINTS
  6
CONTINUOUS
 62
     0
 10
1697.231581628406
 20
-1860.2728349499209
 30
0.0
  0
ENDBLK
  5
9CC
  8
0
  0
BLOCK
  8
0
  2
*D31
 70
     1
 10
0.0
 20
0.0
 30
0.0
  3
*D31
  1

  0
LINE
  5
A1B
  8
SIZE
  6
CONTINUOUS
 62
     0
 10
2292.2654251900472
 20
-1917.2728349499221
 30
0.0
 11
2637.9769908857152
 21
-1917.2728349499221
 31
0.0
  0
LINE
  5
A1C
  8
SIZE
  6
CONTINUOUS
 62
     0
 10
2401.2654251900472
 20
-2062.2728349499212
 30
0.0
 11
2637.9769908857152
 21
-2062.2728349499212
 31
0.0
  0
LINE
  5
A1D
  8
SIZE
  6
CONTINUOUS
 62
     0
 10
2607.9769908857152
 20
-1927.2728349499221
 30
0.0
 11
2607.9769908857152
 21
-2052.2728349499212
 31
0.0
  0
INSERT
  5
A1E
  8
SIZE
  6
CONTINUOUS
 62
     0
  2
_ORIGIN
 10
2607.9769908857152
 20
-1917.2728349499221
 30
0.0
 41
10.0
 42
10.0
 43
10.0
 50
90.0
  0
INSERT
  5
A1F
  8
SIZE
  6
CONTINUOUS
 62
     0
  2
_ORIGIN
 10
2607.9769908857152
 20
-2062.2728349499212
 30
0.0
 41
10.0
 42
10.0
 43
10.0
 50
270.0
  0
TEXT
  5
A20
  8
DETAIL
  6
CONTINUOUS
 62
     0
 10
2597.9769908857161
 20
-2058.3442635213501
 30
0.0
 40
64.0
  1
145
 50
90.0
 41
0.9
  0
POINT
  5
A21
  8
DEFPOINTS
  6
CONTINUOUS
 62
     0
 10
2272.2654251900472
 20
-1917.2728349499221
 30
0.0
  0
POINT
  5
A22
  8
DEFPOINTS
  6
CONTINUOUS
 62
     0
 10
2381.2654251900472
 20
-2062.2728349499212
 30
0.0
  0
POINT
  5
A23
  8
DEFPOINTS
  6
CONTINUOUS
 62
     0
 10
2607.9769908857152
 20
-2062.2728349499212
 30
0.0
  0
ENDBLK
  5
9EA
  8
0
  0
BLOCK
  8
0
  2
*D32
 70
     1
 10
0.0
 20
0.0
 30
0.0
  3
*D32
  1

  0
LINE
  5
A2F
  8
SIZE
  6
CONTINUOUS
 62
     0
 10
2292.2654251900472
 20
-1917.2728349499221
 30
0.0
 11
2521.2608630959539
 21
-1917.2728349499221
 31
0.0
  0
LINE
  5
A30
  8
SIZE
  6
CONTINUOUS
 62
     0
 10
2292.2654251900472
 20
-1941.2728349499221
 30
0.0
 11
2521.2608630959539
 21
-1941.2728349499221
 31
0.0
  0
LINE
  5
A31
  8
SIZE
  6
CONTINUOUS
 62
     0
 10
2491.2608630959539
 20
-1907.2728349499209
 30
0.0
 11
2491.2608630959539
 21
-1897.2728349499209
 31
0.0
  0
LINE
  5
A32
  8
SIZE
  6
CONTINUOUS
 62
     0
 10
2491.2608630959539
 20
-1951.2728349499209
 30
0.0
 11
2491.2608630959539
 21
-2077.2728349499212
 31
0.0
  0
LINE
  5
A33
  8
SIZE
  6
CONTINUOUS
 62
     0
 10
2491.2608630959539
 20
-1917.2728349499221
 30
0.0
 11
2491.2608630959539
 21
-1941.2728349499221
 31
0.0
  0
INSERT
  5
A34
  8
SIZE
  6
CONTINUOUS
 62
     0
  2
_ORIGIN
 10
2491.2608630959539
 20
-1917.2728349499221
 30
0.0
 41
10.0
 42
10.0
 43
10.0
 50
270.0
  0
INSERT
  5
A35
  8
SIZE
  6
CONTINUOUS
 62
     0
  2
_ORIGIN
 10
2491.2608630959539
 20
-1941.2728349499221
 30
0.0
 41
10.0
 42
10.0
 43
10.0
 50
90.0
  0
TEXT
  5
A36
  8
DETAIL
  6
CONTINUOUS
 62
     0
 10
2481.2608630959539
 20
-2067.2728349499212
 30
0.0
 40
64.0
  1
24
 50
90.0
 41
0.9
  0
POINT
  5
A37
  8
DEFPOINTS
  6
CONTINUOUS
 62
     0
 10
2272.2654251900472
 20
-1917.2728349499221
 30
0.0
  0
POINT
  5
A38
  8
DEFPOINTS
  6
CONTINUOUS
 62
     0
 10
2272.2654251900472
 20
-1941.2728349499221
 30
0.0
  0
POINT
  5
A39
  8
DEFPOINTS
  6
CONTINUOUS
 62
     0
 10
2491.2608630959539
 20
-1941.2728349499221
 30
0.0
  0
ENDBLK
  5
9F9
  8
0
  0
BLOCK
  8
0
  2
*D33
 70
     1
 10
0.0
 20
0.0
 30
0.0
  3
*D33
  1

  0
LINE
  5
A3C
  8
SIZE
  6
CONTINUOUS
 62
     0
 10
2536.2654251900472
 20
-1862.2728349499209
 30
0.0
 11
2765.3325367259308
 21
-1862.2728349499221
 31
0.0
  0
LINE
  5
A3D
  8
SIZE
  6
CONTINUOUS
 62
     0
 10
2401.2654251900472
 20
-2062.2728349499212
 30
0.0
 11
2765.3325367259308
 21
-2062.2728349499212
 31
0.0
  0
LINE
  5
A3E
  8
SIZE
  6
CONTINUOUS
 62
     0
 10
2735.3325367259308
 20
-1872.2728349499221
 30
0.0
 11
2735.3325367259308
 21
-2052.2728349499212
 31
0.0
  0
INSERT
  5
A3F
  8
SIZE
  6
CONTINUOUS
 62
     0
  2
_ORIGIN
 10
2735.3325367259308
 20
-1862.2728349499221
 30
0.0
 41
10.0
 42
10.0
 43
10.0
 50
90.0
  0
INSERT
  5
A40
  8
SIZE
  6
CONTINUOUS
 62
     0
  2
_ORIGIN
 10
2735.3325367259308
 20
-2062.2728349499212
 30
0.0
 41
10.0
 42
10.0
 43
10.0
 50
270.0
  0
TEXT
  5
A41
  8
DETAIL
  6
CONTINUOUS
 62
     0
 10
2725.3325367259322
 20
-2036.3299778070641
 30
0.0
 40
64.0
  1
200
 50
90.0
 41
0.9
  0
POINT
  5
A42
  8
DEFPOINTS
  6
CONTINUOUS
 62
     0
 10
2516.2654251900472
 20
-1862.2728349499209
 30
0.0
  0
POINT
  5
A43
  8
DEFPOINTS
  6
CONTINUOUS
 62
     0
 10
2381.2654251900472
 20
-2062.2728349499212
 30
0.0
  0
POINT
  5
A44
  8
DEFPOINTS
  6
CONTINUOUS
 62
     0
 10
2735.3325367259308
 20
-2062.2728349499212
 30
0.0
  0
ENDBLK
  5
A46
  8
0
  0
BLOCK
  8
0
  2
*D34
 70
     1
 10
0.0
 20
0.0
 30
0.0
  3
*D34
  1

  0
LINE
  5
BCE
  8
SIZE
  6
CONTINUOUS
 62
     0
 10
4701.0308503800952
 20
-1820.2728349499209
 30
0.0
 11
4701.0308503800952
 21
-1624.945334817304
 31
0.0
  0
LINE
  5
BCF
  8
SIZE
  6
CONTINUOUS
 62
     0
 10
3924.0308503800952
 20
-1820.2728349499209
 30
0.0
 11
3924.0308503800952
 21
-1624.945334817304
 31
0.0
  0
LINE
  5
BD0
  8
SIZE
  6
CONTINUOUS
 62
     0
 10
4691.0308503800952
 20
-1654.945334817304
 30
0.0
 11
3934.0308503800952
 21
-1654.945334817304
 31
0.0
  0
INSERT
  5
BD1
  8
SIZE
  6
CONTINUOUS
 62
     0
  2
_ORIGIN
 10
4701.0308503800952
 20
-1654.945334817304
 30
0.0
 41
10.0
 42
10.0
 43
10.0
  0
INSERT
  5
BD2
  8
SIZE
  6
CONTINUOUS
 62
     0
  2
_ORIGIN
 10
3924.0308503800952
 20
-1654.945334817304
 30
0.0
 41
10.0
 42
10.0
 43
10.0
 50
180.0
  0
TEXT
  5
BD3
  8
DETAIL
  6
CONTINUOUS
 62
     0
 10
4238.4737075229523
 20
-1644.945334817304
 30
0.0
 40
64.0
  1
777
 41
0.9
  0
POINT
  5
BD4
  8
DEFPOINTS
  6
CONTINUOUS
 62
     0
 10
4701.0308503800952
 20
-1840.2728349499209
 30
0.0
  0
POINT
  5
BD5
  8
DEFPOINTS
  6
CONTINUOUS
 62
     0
 10
3924.0308503800952
 20
-1840.2728349499209
 30
0.0
  0
POINT
  5
BD6
  8
DEFPOINTS
  6
CONTINUOUS
 62
     0
 10
3924.0308503800952
 20
-1654.945334817304
 30
0.0
  0
ENDBLK
  5
B70
  8
0
  0
BLOCK
  8
0
  2
*D35
 70
     1
 10
0.0
 20
0.0
 30
0.0
  3
*D35
  1

  0
LINE
  5
BD7
  8
SIZE
  6
CONTINUOUS
 62
     0
 10
4721.0308503800952
 20
-1835.2728349499209
 30
0.0
 11
4721.0308503800952
 21
-1625.08991143923
 31
0.0
  0
LINE
  5
BD8
  8
SIZE
  6
CONTINUOUS
 62
     0
 10
4701.0308503800952
 20
-1820.2728349499209
 30
0.0
 11
4701.0308503800952
 21
-1625.08991143923
 31
0.0
  0
LINE
  5
BD9
  8
SIZE
  6
CONTINUOUS
 62
     0
 10
4691.0308503800952
 20
-1655.08991143923
 30
0.0
 11
4681.0308503800952
 21
-1655.08991143923
 31
0.0
  0
LINE
  5
BDA
  8
SIZE
  6
CONTINUOUS
 62
     0
 10
4731.0308503800952
 20
-1655.08991143923
 30
0.0
 11
4854.287993237238
 21
-1655.08991143923
 31
0.0
  0
LINE
  5
BDB
  8
SIZE
  6
CONTINUOUS
 62
     0
 10
4701.0308503800952
 20
-1655.08991143923
 30
0.0
 11
4721.0308503800952
 21
-1655.08991143923
 31
0.0
  0
INSERT
  5
BDC
  8
SIZE
  6
CONTINUOUS
 62
     0
  2
_ORIGIN
 10
4701.0308503800952
 20
-1655.08991143923
 30
0.0
 41
10.0
 42
10.0
 43
10.0
  0
INSERT
  5
BDD
  8
SIZE
  6
CONTINUOUS
 62
     0
  2
_ORIGIN
 10
4721.0308503800952
 20
-1655.08991143923
 30
0.0
 41
10.0
 42
10.0
 43
10.0
 50
180.0
  0
TEXT
  5
BDE
  8
DETAIL
  6
CONTINUOUS
 62
     0
 10
4751.0308503800952
 20
-1645.08991143923
 30
0.0
 40
64.0
  1
20
 41
0.9
  0
POINT
  5
BDF
  8
DEFPOINTS
  6
CONTINUOUS
 62
     0
 10
4721.0308503800952
 20
-1855.2728349499209
 30
0.0
  0
POINT
  5
BE0
  8
DEFPOINTS
  6
CONTINUOUS
 62
     0
 10
4701.0308503800952
 20
-1840.2728349499209
 30
0.0
  0
POINT
  5
BE1
  8
DEFPOINTS
  6
CONTINUOUS
 62
     0
 10
4701.0308503800952
 20
-1655.08991143923
 30
0.0
  0
ENDBLK
  5
B7E
  8
0
  0
BLOCK
  8
0
  2
*D36
 70
     1
 10
0.0
 20
0.0
 30
0.0
  3
*D36
  1

  0
LINE
  5
BE2
  8
SIZE
  6
CONTINUOUS
 62
     0
 10
3924.0308503800952
 20
-1820.2728349499209
 30
0.0
 11
3924.0308503800952
 21
-1625.020015649199
 31
0.0
  0
LINE
  5
BE3
  8
SIZE
  6
CONTINUOUS
 62
     0
 10
3904.0308503800952
 20
-1812.2728349499209
 30
0.0
 11
3904.0308503800952
 21
-1625.020015649199
 31
0.0
  0
LINE
  5
BE4
  8
SIZE
  6
CONTINUOUS
 62
     0
 10
3934.0308503800952
 20
-1655.020015649199
 30
0.0
 11
3944.0308503800952
 21
-1655.020015649199
 31
0.0
  0
LINE
  5
BE5
  8
SIZE
  6
CONTINUOUS
 62
     0
 10
3894.0308503800952
 20
-1655.020015649199
 30
0.0
 11
3770.773707522952
 21
-1655.020015649199
 31
0.0
  0
LINE
  5
BE6
  8
SIZE
  6
CONTINUOUS
 62
     0
 10
3924.0308503800952
 20
-1655.020015649199
 30
0.0
 11
3904.0308503800952
 21
-1655.020015649199
 31
0.0
  0
INSERT
  5
BE7
  8
SIZE
  6
CONTINUOUS
 62
     0
  2
_ORIGIN
 10
3924.0308503800952
 20
-1655.020015649199
 30
0.0
 41
10.0
 42
10.0
 43
10.0
 50
180.0
  0
INSERT
  5
BE8
  8
SIZE
  6
CONTINUOUS
 62
     0
  2
_ORIGIN
 10
3904.0308503800952
 20
-1655.020015649199
 30
0.0
 41
10.0
 42
10.0
 43
10.0
  0
TEXT
  5
BE9
  8
DETAIL
  6
CONTINUOUS
 62
     0
 10
3780.773707522952
 20
-1645.020015649199
 30
0.0
 40
64.0
  1
20
 41
0.9
  0
POINT
  5
BEA
  8
DEFPOINTS
  6
CONTINUOUS
 62
     0
 10
3924.0308503800952
 20
-1840.2728349499209
 30
0.0
  0
POINT
  5
BEB
  8
DEFPOINTS
  6
CONTINUOUS
 62
     0
 10
3904.0308503800952
 20
-1832.2728349499209
 30
0.0
  0
POINT
  5
BEC
  8
DEFPOINTS
  6
CONTINUOUS
 62
     0
 10
3904.0308503800952
 20
-1655.020015649199
 30
0.0
  0
ENDBLK
  5
B8C
  8
0
  0
BLOCK
  8
0
  2
*D37
 70
     1
 10
0.0
 20
0.0
 30
0.0
  3
*D37
  1

  0
LINE
  5
BED
  8
SIZE
  6
CONTINUOUS
 62
     0
 10
4741.0308503800952
 20
-1860.2728349499209
 30
0.0
 11
4812.8926176681898
 21
-1860.2728349499209
 31
0.0
  0
LINE
  5
BEE
  8
SIZE
  6
CONTINUOUS
 62
     0
 10
4694.0308503800952
 20
-2062.2728349499212
 30
0.0
 11
4812.8926176681889
 21
-2062.2728349499212
 31
0.0
  0
LINE
  5
BEF
  8
SIZE
  6
CONTINUOUS
 62
     0
 10
4782.8926176681889
 20
-1870.2728349499209
 30
0.0
 11
4782.892617668188
 21
-2052.2728349499212
 31
0.0
  0
INSERT
  5
BF0
  8
SIZE
  6
CONTINUOUS
 62
     0
  2
_ORIGIN
 10
4782.8926176681889
 20
-1860.2728349499209
 30
0.0
 41
10.0
 42
10.0
 43
10.0
 50
90.0
  0
INSERT
  5
BF1
  8
SIZE
  6
CONTINUOUS
 62
     0
  2
_ORIGIN
 10
4782.892617668188
 20
-2062.2728349499212
 30
0.0
 41
10.0
 42
10.0
 43
10.0
 50
270.0
  0
TEXT
  5
BF2
  8
DETAIL
  6
CONTINUOUS
 62
     0
 10
4772.8926176681898
 20
-2035.329977807063
 30
0.0
 40
64.0
  1
202
 50
90.0
 41
0.9
  0
POINT
  5
BF3
  8
DEFPOINTS
  6
CONTINUOUS
 62
     0
 10
4721.0308503800952
 20
-1860.2728349499209
 30
0.0
  0
POINT
  5
BF4
  8
DEFPOINTS
  6
CONTINUOUS
 62
     0
 10
4674.0308503800952
 20
-2062.2728349499212
 30
0.0
  0
POINT
  5
BF5
  8
DEFPOINTS
  6
CONTINUOUS
 62
     0
 10
4782.892617668188
 20
-2062.2728349499212
 30
0.0
  0
ENDBLK
  5
B98
  8
0
  0
BLOCK
  8
0
  2
*D38
 70
     1
 10
0.0
 20
0.0
 30
0.0
  3
*D38
  1

  0
LINE
  5
BF6
  8
SIZE
  6
CONTINUOUS
 62
     0
 10
4694.0308503800952
 20
-1832.2728349499209
 30
0.0
 11
4936.4661725197629
 21
-1832.2728349499209
 31
0.0
  0
LINE
  5
BF7
  8
SIZE
  6
CONTINUOUS
 62
     0
 10
4694.0308503800952
 20
-2062.2728349499212
 30
0.0
 11
4936.466172519762
 21
-2062.2728349499212
 31
0.0
  0
LINE
  5
BF8
  8
SIZE
  6
CONTINUOUS
 62
     0
 10
4906.4661725197629
 20
-1842.2728349499209
 30
0.0
 11
4906.466172519762
 21
-2052.2728349499212
 31
0.0
  0
INSERT
  5
BF9
  8
SIZE
  6
CONTINUOUS
 62
     0
  2
_ORIGIN
 10
4906.4661725197629
 20
-1832.2728349499209
 30
0.0
 41
10.0
 42
10.0
 43
10.0
 50
90.0
  0
INSERT
  5
BFA
  8
SIZE
  6
CONTINUOUS
 62
     0
  2
_ORIGIN
 10
4906.466172519762
 20
-2062.2728349499212
 30
0.0
 41
10.0
 42
10.0
 43
10.0
 50
270.0
  0
TEXT
  5
BFB
  8
DETAIL
  6
CONTINUOUS
 62
     0
 10
4896.4661725197629
 20
-2021.329977807063
 30
0.0
 40
64.0
  1
230
 50
90.0
 41
0.9
  0
POINT
  5
BFC
  8
DEFPOINTS
  6
CONTINUOUS
 62
     0
 10
4674.0308503800952
 20
-1832.2728349499209
 30
0.0
  0
POINT
  5
BFD
  8
DEFPOINTS
  6
CONTINUOUS
 62
     0
 10
4674.0308503800952
 20
-2062.2728349499212
 30
0.0
  0
POINT
  5
BFE
  8
DEFPOINTS
  6
CONTINUOUS
 62
     0
 10
4906.466172519762
 20
-2062.2728349499212
 30
0.0
  0
ENDBLK
  5
BA4
  8
0
  0
BLOCK
  8
0
  2
*D39
 70
     1
 10
0.0
 20
0.0
 30
0.0
  3
*D39
  1

  0
LINE
  5
BFF
  8
SIZE
  6
CONTINUOUS
 62
     0
 10
3908.0308503800952
 20
-1917.2728349499209
 30
0.0
 11
3593.5736733858171
 21
-1917.2728349499209
 31
0.0
  0
LINE
  5
C00
  8
SIZE
  6
CONTINUOUS
 62
     0
 10
3819.0308503800952
 20
-2062.2728349499212
 30
0.0
 11
3593.5736733858171
 21
-2062.2728349499212
 31
0.0
  0
LINE
  5
C01
  8
SIZE
  6
CONTINUOUS
 62
     0
 10
3623.5736733858171
 20
-1907.2728349499209
 30
0.0
 11
3623.5736733858171
 21
-1897.2728349499209
 31
0.0
  0
LINE
  5
C02
  8
SIZE
  6
CONTINUOUS
 62
     0
 10
3623.5736733858171
 20
-2072.2728349499212
 30
0.0
 11
3623.5736733858171
 21
-2082.2728349499212
 31
0.0
  0
LINE
  5
C03
  8
SIZE
  6
CONTINUOUS
 62
     0
 10
3623.5736733858171
 20
-1917.2728349499209
 30
0.0
 11
3623.5736733858171
 21
-2062.2728349499212
 31
0.0
  0
INSERT
  5
C04
  8
SIZE
  6
CONTINUOUS
 62
     0
  2
_ORIGIN
 10
3623.5736733858171
 20
-1917.2728349499209
 30
0.0
 41
10.0
 42
10.0
 43
10.0
 50
270.0
  0
INSERT
  5
C05
  8
SIZE
  6
CONTINUOUS
 62
     0
  2
_ORIGIN
 10
3623.5736733858171
 20
-2062.2728349499212
 30
0.0
 41
10.0
 42
10.0
 43
10.0
 50
90.0
  0
TEXT
  5
C06
  8
DETAIL
  6
CONTINUOUS
 62
     0
 10
3613.573673385818
 20
-2058.3442635213491
 30
0.0
 40
64.0
  1
145
 50
90.0
 41
0.9
  0
POINT
  5
C07
  8
DEFPOINTS
  6
CONTINUOUS
 62
     0
 10
3928.0308503800952
 20
-1917.2728349499209
 30
0.0
  0
POINT
  5
C08
  8
DEFPOINTS
  6
CONTINUOUS
 62
     0
 10
3839.0308503800952
 20
-2062.2728349499212
 30
0.0
  0
POINT
  5
C09
  8
DEFPOINTS
  6
CONTINUOUS
 62
     0
 10
3623.5736733858171
 20
-2062.2728349499212
 30
0.0
  0
ENDBLK
  5
BB2
  8
0
  0
BLOCK
  8
0
  2
*D40
 70
     1
 10
0.0
 20
0.0
 30
0.0
  3
*D40
  1

  0
LINE
  5
C6C
  8
SIZE
  6
CONTINUOUS
 62
     0
 10
3908.0308503800952
 20
-1917.2728349499209
 30
0.0
 11
3718.5261211964821
 21
-1917.2728349499209
 31
0.0
  0
LINE
  5
C6D
  8
SIZE
  6
CONTINUOUS
 62
     0
 10
3963.0308503800952
 20
-1941.2728349499209
 30
0.0
 11
3718.5261211964821
 21
-1941.2728349499209
 31
0.0
  0
LINE
  5
C6E
  8
SIZE
  6
CONTINUOUS
 62
     0
 10
3748.5261211964821
 20
-1907.2728349499209
 30
0.0
 11
3748.5261211964821
 21
-1897.2728349499209
 31
0.0
  0
LINE
  5
C6F
  8
SIZE
  6
CONTINUOUS
 62
     0
 10
3748.5261211964821
 20
-1951.2728349499209
 30
0.0
 11
3748.5261211964821
 21
-2077.2728349499198
 31
0.0
  0
LINE
  5
C70
  8
SIZE
  6
CONTINUOUS
 62
     0
 10
3748.5261211964821
 20
-1917.2728349499209
 30
0.0
 11
3748.5261211964821
 21
-1941.2728349499209
 31
0.0
  0
INSERT
  5
C71
  8
SIZE
  6
CONTINUOUS
 62
     0
  2
_ORIGIN
 10
3748.5261211964821
 20
-1917.2728349499209
 30
0.0
 41
10.0
 42
10.0
 43
10.0
 50
270.0
  0
INSERT
  5
C72
  8
SIZE
  6
CONTINUOUS
 62
     0
  2
_ORIGIN
 10
3748.5261211964821
 20
-1941.2728349499209
 30
0.0
 41
10.0
 42
10.0
 43
10.0
 50
90.0
  0
TEXT
  5
C73
  8
DETAIL
  6
CONTINUOUS
 62
     0
 10
3738.5261211964821
 20
-2067.2728349499198
 30
0.0
 40
64.0
  1
24
 50
90.0
 41
0.9
  0
POINT
  5
C74
  8
DEFPOINTS
  6
CONTINUOUS
 62
     0
 10
3928.0308503800952
 20
-1917.2728349499209
 30
0.0
  0
POINT
  5
C75
  8
DEFPOINTS
  6
CONTINUOUS
 62
     0
 10
3983.0308503800939
 20
-1941.2728349499209
 30
0.0
  0
POINT
  5
C76
  8
DEFPOINTS
  6
CONTINUOUS
 62
     0
 10
3748.5261211964821
 20
-1941.2728349499209
 30
0.0
  0
ENDBLK
  5
BC0
  8
0
  0
BLOCK
  8
0
  2
*D41
 70
     1
 10
0.0
 20
0.0
 30
0.0
  3
*D41
  1

  0
LINE
  5
C15
  8
SIZE
  6
CONTINUOUS
 62
     0
 10
3904.0308503800952
 20
-1812.2728349499209
 30
0.0
 11
3904.0308503800952
 21
-1711.2116758831901
 31
0.0
  0
LINE
  5
C16
  8
SIZE
  6
CONTINUOUS
 62
     0
 10
3839.0308503800952
 20
-1812.2728349499209
 30
0.0
 11
3839.0308503800952
 21
-1711.2116758831901
 31
0.0
  0
LINE
  5
C17
  8
SIZE
  6
CONTINUOUS
 62
     0
 10
3894.0308503800952
 20
-1741.2116758831901
 30
0.0
 11
3849.0308503800952
 21
-1741.2116758831901
 31
0.0
  0
LINE
  5
C18
  8
SIZE
  6
CONTINUOUS
 62
     0
 10
3839.0308503800952
 20
-1741.2116758831901
 30
0.0
 11
3715.773707522952
 21
-1741.2116758831901
 31
0.0
  0
INSERT
  5
C19
  8
SIZE
  6
CONTINUOUS
 62
     0
  2
_ORIGIN
 10
3904.0308503800952
 20
-1741.2116758831901
 30
0.0
 41
10.0
 42
10.0
 43
10.0
  0
INSERT
  5
C1A
  8
SIZE
  6
CONTINUOUS
 62
     0
  2
_ORIGIN
 10
3839.0308503800952
 20
-1741.2116758831901
 30
0.0
 41
10.0
 42
10.0
 43
10.0
 50
180.0
  0
TEXT
  5
C1B
  8
DETAIL
  6
CONTINUOUS
 62
     0
 10
3725.773707522952
 20
-1731.211675883191
 30
0.0
 40
64.0
  1
65
 41
0.9
  0
POINT
  5
C1C
  8
DEFPOINTS
  6
CONTINUOUS
 62
     0
 10
3904.0308503800952
 20
-1832.2728349499209
 30
0.0
  0
POINT
  5
C1D
  8
DEFPOINTS
  6
CONTINUOUS
 62
     0
 10
3839.0308503800952
 20
-1832.2728349499209
 30
0.0
  0
POINT
  5
C1E
  8
DEFPOINTS
  6
CONTINUOUS
 62
     0
 10
3839.0308503800952
 20
-1741.2116758831901
 30
0.0
  0
ENDBLK
  5
BCD
  8
0
  0
BLOCK
  8
0
  2
*D42
 70
     1
 10
0.0
 20
0.0
 30
0.0
  3
*D42
  1

  0
LINE
  5
C4B
  8
SIZE
  6
CONTINUOUS
 62
     0
 10
3904.0308503800952
 20
-1812.2728349499209
 30
0.0
 11
3904.0308503800952
 21
-1711.3632494692899
 31
0.0
  0
LINE
  5
C4C
  8
SIZE
  6
CONTINUOUS
 62
     0
 10
4004.0308503800952
 20
-1822.2728349499221
 30
0.0
 11
4004.0308503800952
 21
-1711.3632494692899
 31
0.0
  0
LINE
  5
C4D
  8
SIZE
  6
CONTINUOUS
 62
     0
 10
3914.0308503800952
 20
-1741.3632494692899
 30
0.0
 11
3994.0308503800952
 21
-1741.3632494692899
 31
0.0
  0
INSERT
  5
C4E
  8
SIZE
  6
CONTINUOUS
 62
     0
  2
_ORIGIN
 10
3904.0308503800952
 20
-1741.3632494692899
 30
0.0
 41
10.0
 42
10.0
 43
10.0
 50
180.0
  0
INSERT
  5
C4F
  8
SIZE
  6
CONTINUOUS
 62
     0
  2
_ORIGIN
 10
4004.0308503800952
 20
-1741.3632494692899
 30
0.0
 41
10.0
 42
10.0
 43
10.0
  0
TEXT
  5
C50
  8
DETAIL
  6
CONTINUOUS
 62
     0
 10
3918.1455957313328
 20
-1731.3632494692899
 30
0.0
 40
64.0
  1
100
 41
0.9
  0
POINT
  5
C51
  8
DEFPOINTS
  6
CONTINUOUS
 62
     0
 10
3904.0308503800952
 20
-1832.2728349499209
 30
0.0
  0
POINT
  5
C52
  8
DEFPOINTS
  6
CONTINUOUS
 62
     0
 10
4004.0308503800952
 20
-1842.2728349499221
 30
0.0
  0
POINT
  5
C53
  8
DEFPOINTS
  6
CONTINUOUS
 62
     0
 10
4004.0308503800952
 20
-1741.3632494692899
 30
0.0
  0
ENDBLK
  5
C3F
  8
0
  0
BLOCK
  8
0
  2
*D43
 70
     1
 10
0.0
 20
0.0
 30
0.0
  3
*D43
  1

  0
LINE
  5
C79
  8
SIZE
  6
CONTINUOUS
 62
     0
 10
3964.0308503800952
 20
-1862.2728349499221
 30
0.0
 11
3478.3684089525191
 21
-1862.2728349499221
 31
0.0
  0
LINE
  5
C7A
  8
SIZE
  6
CONTINUOUS
 62
     0
 10
3819.0308503800952
 20
-2062.2728349499212
 30
0.0
 11
3478.3684089525191
 21
-2062.2728349499212
 31
0.0
  0
LINE
  5
C7B
  8
SIZE
  6
CONTINUOUS
 62
     0
 10
3508.36840895252
 20
-1872.2728349499221
 30
0.0
 11
3508.36840895252
 21
-2052.2728349499212
 31
0.0
  0
INSERT
  5
C7C
  8
SIZE
  6
CONTINUOUS
 62
     0
  2
_ORIGIN
 10
3508.36840895252
 20
-1862.2728349499221
 30
0.0
 41
10.0
 42
10.0
 43
10.0
 50
90.0
  0
INSERT
  5
C7D
  8
SIZE
  6
CONTINUOUS
 62
     0
  2
_ORIGIN
 10
3508.36840895252
 20
-2062.2728349499212
 30
0.0
 41
10.0
 42
10.0
 43
10.0
 50
270.0
  0
TEXT
  5
C7E
  8
DETAIL
  6
CONTINUOUS
 62
     0
 10
3498.3684089525191
 20
-2036.3299778070641
 30
0.0
 40
64.0
  1
200
 50
90.0
 41
0.9
  0
POINT
  5
C7F
  8
DEFPOINTS
  6
CONTINUOUS
 62
     0
 10
3984.0308503800952
 20
-1862.2728349499221
 30
0.0
  0
POINT
  5
C80
  8
DEFPOINTS
  6
CONTINUOUS
 62
     0
 10
3839.0308503800952
 20
-2062.2728349499212
 30
0.0
  0
POINT
  5
C81
  8
DEFPOINTS
  6
CONTINUOUS
 62
     0
 10
3508.36840895252
 20
-2062.2728349499212
 30
0.0
  0
ENDBLK
  5
C83
  8
0
  0
BLOCK
  8
0
  2
*D44
 70
     1
 10
0.0
 20
0.0
 30
0.0
  3
*D44
  1

  0
LINE
  5
1586
  8
SIZE
  6
CONTINUOUS
 62
     0
 10
-203.0
 20
11.999999999999771
 30
0.0
 11
-203.0
 21
119.2993628088831
 31
0.0
  0
LINE
  5
1587
  8
SIZE
  6
CONTINUOUS
 62
     0
 10
194.99999999999969
 20
11.999999999999771
 30
0.0
 11
194.99999999999969
 21
119.2993628088831
 31
0.0
  0
LINE
  5
1588
  8
SIZE
  6
CONTINUOUS
 62
     0
 10
-193.0
 20
89.299362808883174
 30
0.0
 11
184.99999999999969
 21
89.299362808883174
 31
0.0
  0
INSERT
  5
1589
  8
SIZE
  6
CONTINUOUS
 62
     0
  2
_ORIGIN
 10
-203.0
 20
89.299362808883174
 30
0.0
 41
10.0
 42
10.0
 43
10.0
 50
180.0
  0
INSERT
  5
158A
  8
SIZE
  6
CONTINUOUS
 62
     0
  2
_ORIGIN
 10
194.99999999999969
 20
89.299362808883174
 30
0.0
 41
10.0
 42
10.0
 43
10.0
  0
TEXT
  8
0
  40
64
  5
15D5
  62
0
  72
0
  71
0
 10
-132.000
 20
18.0194
 30
0.000000
  1
398
  0
POINT
  5
158C
  8
DEFPOINTS
  6
CONTINUOUS
 62
     0
 10
-203.0
 20
-8.0000000000002274
 30
0.0
  0
POINT
  5
158D
  8
DEFPOINTS
  6
CONTINUOUS
 62
     0
 10
194.99999999999969
 20
-8.0000000000002274
 30
0.0
  0
POINT
  5
158E
  8
DEFPOINTS
  6
CONTINUOUS
 62
     0
 10
194.99999999999969
 20
89.299362808883174
 30
0.0
  0
ENDBLK
  5
D60
  8
0
  0
BLOCK
  8
0
  2
*D45
 70
     1
 10
0.0
 20
0.0
 30
0.0
  3
*D45
  1

  0
LINE
  5
157D
  8
SIZE
  6
CONTINUOUS
 62
     0
 10
225.0
 20
20.0
 30
0.0
 11
225.0
 21
245.0126725075479
 31
0.0
  0
LINE
  5
157E
  8
SIZE
  6
CONTINUOUS
 62
     0
 10
-225.0
 20
20.0
 30
0.0
 11
-224.99999999999989
 21
245.0126725075479
 31
0.0
  0
LINE
  5
157F
  8
SIZE
  6
CONTINUOUS
 62
     0
 10
215.0
 20
215.01267250754779
 30
0.0
 11
-215.0
 21
215.01267250754779
 31
0.0
  0
INSERT
  5
1580
  8
SIZE
  6
CONTINUOUS
 62
     0
  2
_ORIGIN
 10
225.0
 20
215.01267250754779
 30
0.0
 41
10.0
 42
10.0
 43
10.0
  0
INSERT
  5
1581
  8
SIZE
  6
CONTINUOUS
 62
     0
  2
_ORIGIN
 10
-225.0
 20
215.01267250754779
 30
0.0
 41
10.0
 42
10.0
 43
10.0
 50
180.0
  0
TEXT
  8
0
  40
64
  5
15D6
  62
0
  72
0
  71
0
 10
-128.000
 20
143.733
 30
0.000000
  1
450
  0
POINT
  5
1583
  8
DEFPOINTS
  6
CONTINUOUS
 62
     0
 10
225.0
 20
0.0
 30
0.0
  0
POINT
  5
1584
  8
DEFPOINTS
  6
CONTINUOUS
 62
     0
 10
-225.0
 20
0.0
 30
0.0
  0
POINT
  5
1585
  8
DEFPOINTS
  6
CONTINUOUS
 62
     0
 10
-225.0
 20
215.01267250754779
 30
0.0
  0
ENDBLK
  5
D6C
  8
0
  0
BLOCK
  8
0
  2
*D46
 70
     1
 10
0.0
 20
0.0
 30
0.0
  3
*D46
  1

  0
LINE
  5
158F
  8
SIZE
  6
CONTINUOUS
 62
     0
 10
-225.0
 20
20.0
 30
0.0
 11
-224.99999999999989
 21
244.98432904812759
 31
0.0
  0
LINE
  5
1590
  8
SIZE
  6
CONTINUOUS
 62
     0
 10
-340.0
 20
9.9999999999993179
 30
0.0
 11
-340.0
 21
244.98432904812759
 31
0.0
  0
LINE
  5
1591
  8
SIZE
  6
CONTINUOUS
 62
     0
 10
-215.0
 20
214.98432904812759
 30
0.0
 11
-205.0
 21
214.98432904812759
 31
0.0
  0
LINE
  5
1592
  8
SIZE
  6
CONTINUOUS
 62
     0
 10
-350.0
 20
214.98432904812759
 30
0.0
 11
-360.0
 21
214.98432904812759
 31
0.0
  0
LINE
  5
1593
  8
SIZE
  6
CONTINUOUS
 62
     0
 10
-225.0
 20
214.98432904812759
 30
0.0
 11
-340.0
 21
214.98432904812759
 31
0.0
  0
INSERT
  5
1594
  8
SIZE
  6
CONTINUOUS
 62
     0
  2
_ORIGIN
 10
-225.0
 20
214.98432904812759
 30
0.0
 41
10.0
 42
10.0
 43
10.0
 50
180.0
  0
INSERT
  5
1595
  8
SIZE
  6
CONTINUOUS
 62
     0
  2
_ORIGIN
 10
-340.0
 20
214.98432904812759
 30
0.0
 41
10.0
 42
10.0
 43
10.0
  0
TEXT
  8
0
  40
64
  5
15D7
  62
0
  72
0
  71
0
 10
-410.500
 20
143.704
 30
0.000000
  1
115
  0
POINT
  5
1597
  8
DEFPOINTS
  6
CONTINUOUS
 62
     0
 10
-225.0
 20
0.0
 30
0.0
  0
POINT
  5
1598
  8
DEFPOINTS
  6
CONTINUOUS
 62
     0
 10
-340.0
 20
-10.00000000000068
 30
0.0
  0
POINT
  5
1599
  8
DEFPOINTS
  6
CONTINUOUS
 62
     0
 10
-340.0
 20
214.98432904812759
 30
0.0
  0
ENDBLK
  5
D7A
  8
0
  0
BLOCK
  8
0
  2
*D47
 70
     1
 10
0.0
 20
0.0
 30
0.0
  3
*D47
  1

  0
LINE
  5
1574
  8
SIZE
  6
CONTINUOUS
 62
     0
 10
225.0
 20
-250.0
 30
0.0
 11
225.0
 21
-403.85644562218113
 31
0.0
  0
LINE
  5
1575
  8
SIZE
  6
CONTINUOUS
 62
     0
 10
-96.0
 20
-149.0000000000006
 30
0.0
 11
-96.000000000000014
 21
-403.85644562218113
 31
0.0
  0
LINE
  5
1576
  8
SIZE
  6
CONTINUOUS
 62
     0
 10
215.0
 20
-373.85644562218113
 30
0.0
 11
-86.000000000000014
 21
-373.85644562218113
 31
0.0
  0
INSERT
  5
1577
  8
SIZE
  6
CONTINUOUS
 62
     0
  2
_ORIGIN
 10
225.0
 20
-373.85644562218113
 30
0.0
 41
10.0
 42
10.0
 43
10.0
  0
INSERT
  5
1578
  8
SIZE
  6
CONTINUOUS
 62
     0
  2
_ORIGIN
 10
-96.000000000000014
 20
-373.85644562218113
 30
0.0
 41
10.0
 42
10.0
 43
10.0
 50
180.0
  0
TEXT
  8
0
  40
64
  5
15D8
  62
0
  72
0
  71
0
 10
-63.5000
 20
-445.136
 30
0.000000
  1
321
  0
POINT
  5
157A
  8
DEFPOINTS
  6
CONTINUOUS
 62
     0
 10
225.0
 20
-230.0
 30
0.0
  0
POINT
  5
157B
  8
DEFPOINTS
  6
CONTINUOUS
 62
     0
 10
-96.0
 20
-129.0000000000006
 30
0.0
  0
POINT
  5
157C
  8
DEFPOINTS
  6
CONTINUOUS
 62
     0
 10
-96.000000000000014
 20
-373.85644562218113
 30
0.0
  0
ENDBLK
  5
D94
  8
0
  0
BLOCK
  8
0
  2
*D48
 70
     1
 10
0.0
 20
0.0
 30
0.0
  3
*D48
  1

  0
LINE
  5
15A5
  8
SIZE
  6
CONTINUOUS
 62
     0
 10
-136.0
 20
-85.000000000000696
 30
0.0
 11
-481.71156569566841
 21
-85.000000000000554
 31
0.0
  0
LINE
  5
15A6
  8
SIZE
  6
CONTINUOUS
 62
     0
 10
-245.0
 20
-230.0
 30
0.0
 11
-481.71156569566853
 21
-229.99999999999989
 31
0.0
  0
LINE
  5
15A7
  8
SIZE
  6
CONTINUOUS
 62
     0
 10
-451.71156569566853
 20
-95.000000000000597
 30
0.0
 11
-451.71156569566853
 21
-219.99999999999989
 31
0.0
  0
INSERT
  5
15A8
  8
SIZE
  6
CONTINUOUS
 62
     0
  2
_ORIGIN
 10
-451.71156569566853
 20
-85.000000000000597
 30
0.0
 41
10.0
 42
10.0
 43
10.0
 50
90.0
  0
INSERT
  5
15A9
  8
SIZE
  6
CONTINUOUS
 62
     0
  2
_ORIGIN
 10
-451.71156569566853
 20
-229.99999999999989
 30
0.0
 41
10.0
 42
10.0
 43
10.0
 50
270.0
  0
TEXT
  8
0
  40
64
  5
15D9
  62
0
  72
0
  71
0
 10
-621.712
 20
-270.780
 30
0.000000
  1
145
  0
POINT
  5
15AB
  8
DEFPOINTS
  6
CONTINUOUS
 62
     0
 10
-116.0
 20
-85.000000000000696
 30
0.0
  0
POINT
  5
15AC
  8
DEFPOINTS
  6
CONTINUOUS
 62
     0
 10
-225.0
 20
-230.0
 30
0.0
  0
POINT
  5
15AD
  8
DEFPOINTS
  6
CONTINUOUS
 62
     0
 10
-451.71156569566853
 20
-229.99999999999989
 30
0.0
  0
ENDBLK
  5
DAC
  8
0
  0
BLOCK
  8
0
  2
*D49
 70
     1
 10
0.0
 20
0.0
 30
0.0
  3
*D49
  1

  0
LINE
  5
159A
  8
SIZE
  6
CONTINUOUS
 62
     0
 10
-136.0
 20
-85.000000000000696
 30
0.0
 11
-364.99543790590718
 21
-85.000000000000625
 31
0.0
  0
LINE
  5
159B
  8
SIZE
  6
CONTINUOUS
 62
     0
 10
-136.0
 20
-109.0000000000006
 30
0.0
 11
-364.99543790590718
 21
-109.0000000000006
 31
0.0
  0
LINE
  5
159C
  8
SIZE
  6
CONTINUOUS
 62
     0
 10
-334.99543790590718
 20
-75.000000000000625
 30
0.0
 11
-334.99543790590718
 21
-65.000000000000625
 31
0.0
  0
LINE
  5
159D
  8
SIZE
  6
CONTINUOUS
 62
     0
 10
-334.99543790590718
 20
-119.0000000000006
 30
0.0
 11
-334.99543790590718
 21
-245.0000000000008
 31
0.0
  0
LINE
  5
159E
  8
SIZE
  6
CONTINUOUS
 62
     0
 10
-334.99543790590718
 20
-85.000000000000625
 30
0.0
 11
-334.99543790590718
 21
-109.0000000000006
 31
0.0
  0
INSERT
  5
159F
  8
SIZE
  6
CONTINUOUS
 62
     0
  2
_ORIGIN
 10
-334.99543790590718
 20
-85.000000000000625
 30
0.0
 41
10.0
 42
10.0
 43
10.0
 50
270.0
  0
INSERT
  5
15A0
  8
SIZE
  6
CONTINUOUS
 62
     0
  2
_ORIGIN
 10
-334.99543790590718
 20
-109.0000000000006
 30
0.0
 41
10.0
 42
10.0
 43
10.0
 50
90.0
  0
TEXT
  8
0
  40
64
  5
15DA
  62
0
  72
0
  71
0
 10
-504.995
 20
-300.280
 30
0.000000
  1
24
  0
POINT
  5
15A2
  8
DEFPOINTS
  6
CONTINUOUS
 62
     0
 10
-116.0
 20
-85.000000000000696
 30
0.0
  0
POINT
  5
15A3
  8
DEFPOINTS
  6
CONTINUOUS
 62
     0
 10
-116.0
 20
-109.0000000000006
 30
0.0
  0
POINT
  5
15A4
  8
DEFPOINTS
  6
CONTINUOUS
 62
     0
 10
-334.99543790590718
 20
-109.0000000000006
 30
0.0
  0
ENDBLK
  5
DBA
  8
0
  0
BLOCK
  8
0
  2
*D50
 70
     1
 10
0.0
 20
0.0
 30
0.0
  3
*D50
  1

  0
LINE
  5
156B
  8
SIZE
  6
CONTINUOUS
 62
     0
 10
-380.0
 20
-30.000000000000671
 30
0.0
 11
-609.06711153588356
 21
-30.000000000000611
 31
0.0
  0
LINE
  5
156C
  8
SIZE
  6
CONTINUOUS
 62
     0
 10
-245.0
 20
-230.0
 30
0.0
 11
-609.06711153588356
 21
-229.9999999999998
 31
0.0
  0
LINE
  5
156D
  8
SIZE
  6
CONTINUOUS
 62
     0
 10
-579.06711153588356
 20
-40.000000000000618
 30
0.0
 11
-579.06711153588356
 21
-219.9999999999998
 31
0.0
  0
INSERT
  5
156E
  8
SIZE
  6
CONTINUOUS
 62
     0
  2
_ORIGIN
 10
-579.06711153588356
 20
-30.000000000000622
 30
0.0
 41
10.0
 42
10.0
 43
10.0
 50
90.0
  0
INSERT
  5
156F
  8
SIZE
  6
CONTINUOUS
 62
     0
  2
_ORIGIN
 10
-579.06711153588356
 20
-229.9999999999998
 30
0.0
 41
10.0
 42
10.0
 43
10.0
 50
270.0
  0
TEXT
  8
0
  40
64
  5
15DB
  62
0
  72
0
  71
0
 10
-749.067
 20
-243.280
 30
0.000000
  1
200
  0
POINT
  5
1571
  8
DEFPOINTS
  6
CONTINUOUS
 62
     0
 10
-360.0
 20
-30.000000000000679
 30
0.0
  0
POINT
  5
1572
  8
DEFPOINTS
  6
CONTINUOUS
 62
     0
 10
-225.0
 20
-230.0
 30
0.0
  0
POINT
  5
1573
  8
DEFPOINTS
  6
CONTINUOUS
 62
     0
 10
-579.06711153588356
 20
-229.9999999999998
 30
0.0
  0
ENDBLK
  5
DC6
  8
0
  0
BLOCK
  8
0
  2
*D51
 70
     1
 10
0.0
 20
0.0
 30
0.0
  3
*D51
  1

  0
LINE
  5
102E
  8
SIZE
  6
CONTINUOUS
 62
     0
 10
-388.5
 20
-3903.5456698998419
 30
0.0
 11
-388.5
 21
-4322.7162096331986
 31
0.0
  0
LINE
  5
102F
  8
SIZE
  6
CONTINUOUS
 62
     0
 10
388.49999999999989
 20
-3898.5456698998419
 30
0.0
 11
388.49999999999989
 21
-4322.7162096331986
 31
0.0
  0
LINE
  5
1030
  8
SIZE
  6
CONTINUOUS
 62
     0
 10
-378.5
 20
-4292.7162096332004
 30
0.0
 11
378.49999999999989
 21
-4292.7162096332004
 31
0.0
  0
INSERT
  5
1031
  8
SIZE
  6
CONTINUOUS
 62
     0
  2
_ORIGIN
 10
-388.5
 20
-4292.7162096332004
 30
0.0
 41
10.0
 42
10.0
 43
10.0
 50
180.0
  0
INSERT
  5
1032
  8
SIZE
  6
CONTINUOUS
 62
     0
  2
_ORIGIN
 10
388.49999999999989
 20
-4292.7162096332004
 30
0.0
 41
10.0
 42
10.0
 43
10.0
  0
TEXT
  5
1033
  8
DETAIL
  6
CONTINUOUS
 62
     0
 10
-74.057142857142921
 20
-4282.7162096331986
 30
0.0
 40
64.0
  1
777
 41
0.9
  0
POINT
  5
1034
  8
DEFPOINTS
  6
CONTINUOUS
 62
     0
 10
-388.5
 20
-3883.5456698998419
 30
0.0
  0
POINT
  5
1035
  8
DEFPOINTS
  6
CONTINUOUS
 62
     0
 10
388.49999999999989
 20
-3878.5456698998419
 30
0.0
  0
POINT
  5
1036
  8
DEFPOINTS
  6
CONTINUOUS
 62
     0
 10
388.49999999999989
 20
-4292.7162096332004
 30
0.0
  0
ENDBLK
  5
EE7
  8
0
  0
BLOCK
  8
0
  2
*D52
 70
     1
 10
0.0
 20
0.0
 30
0.0
  3
*D52
  1

  0
LINE
  5
1037
  8
SIZE
  6
CONTINUOUS
 62
     0
 10
-361.49999999999989
 20
-3907.5456698998419
 30
0.0
 11
-361.49999999999989
 21
-4217.1022695611346
 31
0.0
  0
LINE
  5
1038
  8
SIZE
  6
CONTINUOUS
 62
     0
 10
408.49999999999989
 20
-3907.5456698998419
 30
0.0
 11
408.49999999999989
 21
-4217.1022695611346
 31
0.0
  0
LINE
  5
1039
  8
SIZE
  6
CONTINUOUS
 62
     0
 10
-351.49999999999989
 20
-4187.1022695611364
 30
0.0
 11
398.49999999999989
 21
-4187.1022695611364
 31
0.0
  0
INSERT
  5
103A
  8
SIZE
  6
CONTINUOUS
 62
     0
  2
_ORIGIN
 10
-361.49999999999989
 20
-4187.1022695611364
 30
0.0
 41
10.0
 42
10.0
 43
10.0
 50
180.0
  0
INSERT
  5
103B
  8
SIZE
  6
CONTINUOUS
 62
     0
  2
_ORIGIN
 10
408.49999999999989
 20
-4187.1022695611364
 30
0.0
 41
10.0
 42
10.0
 43
10.0
  0
TEXT
  5
103C
  8
DETAIL
  6
CONTINUOUS
 62
     0
 10
-50.557142857142843
 20
-4177.1022695611346
 30
0.0
 40
64.0
  1
770
 41
0.9
  0
POINT
  5
103D
  8
DEFPOINTS
  6
CONTINUOUS
 62
     0
 10
-361.49999999999989
 20
-3887.5456698998428
 30
0.0
  0
POINT
  5
103E
  8
DEFPOINTS
  6
CONTINUOUS
 62
     0
 10
408.49999999999989
 20
-3887.5456698998428
 30
0.0
  0
POINT
  5
103F
  8
DEFPOINTS
  6
CONTINUOUS
 62
     0
 10
408.49999999999989
 20
-4187.1022695611364
 30
0.0
  0
ENDBLK
  5
EF3
  8
0
  0
BLOCK
  8
0
  2
*D53
 70
     1
 10
0.0
 20
0.0
 30
0.0
  3
*D53
  1

  0
LINE
  5
1018
  8
SIZE
  6
CONTINUOUS
 62
     0
 10
388.49999999999977
 20
-3903.5456698998419
 30
0.0
 11
388.49999999999977
 21
-4322.0732709015174
 31
0.0
  0
LINE
  5
1019
  8
SIZE
  6
CONTINUOUS
 62
     0
 10
408.49999999999989
 20
-3907.5456698998419
 30
0.0
 11
408.49999999999989
 21
-4322.0732709015174
 31
0.0
  0
LINE
  5
101A
  8
SIZE
  6
CONTINUOUS
 62
     0
 10
378.49999999999977
 20
-4292.0732709015174
 30
0.0
 11
368.49999999999977
 21
-4292.0732709015174
 31
0.0
  0
LINE
  5
101B
  8
SIZE
  6
CONTINUOUS
 62
     0
 10
418.5
 20
-4292.0732709015174
 30
0.0
 11
541.75714285714275
 21
-4292.0732709015174
 31
0.0
  0
LINE
  5
101C
  8
SIZE
  6
CONTINUOUS
 62
     0
 10
388.49999999999977
 20
-4292.0732709015174
 30
0.0
 11
408.49999999999989
 21
-4292.0732709015174
 31
0.0
  0
INSERT
  5
101D
  8
SIZE
  6
CONTINUOUS
 62
     0
  2
_ORIGIN
 10
388.49999999999977
 20
-4292.0732709015174
 30
0.0
 41
10.0
 42
10.0
 43
10.0
  0
INSERT
  5
101E
  8
SIZE
  6
CONTINUOUS
 62
     0
  2
_ORIGIN
 10
408.49999999999989
 20
-4292.0732709015174
 30
0.0
 41
10.0
 42
10.0
 43
10.0
 50
180.0
  0
TEXT
  5
101F
  8
DETAIL
  6
CONTINUOUS
 62
     0
 10
438.49999999999989
 20
-4282.0732709015174
 30
0.0
 40
64.0
  1
20
 41
0.9
  0
POINT
  5
1020
  8
DEFPOINTS
  6
CONTINUOUS
 62
     0
 10
388.49999999999977
 20
-3883.5456698998419
 30
0.0
  0
POINT
  5
1021
  8
DEFPOINTS
  6
CONTINUOUS
 62
     0
 10
408.49999999999989
 20
-3887.5456698998428
 30
0.0
  0
POINT
  5
1022
  8
DEFPOINTS
  6
CONTINUOUS
 62
     0
 10
408.49999999999989
 20
-4292.0732709015174
 30
0.0
  0
ENDBLK
  5
F01
  8
0
  0
BLOCK
  8
0
  2
*D54
 70
     1
 10
0.0
 20
0.0
 30
0.0
  3
*D54
  1

  0
LINE
  5
1023
  8
SIZE
  6
CONTINUOUS
 62
     0
 10
-388.5
 20
-3903.5456698998419
 30
0.0
 11
-388.5
 21
-4322.5245345278199
 31
0.0
  0
LINE
  5
1024
  8
SIZE
  6
CONTINUOUS
 62
     0
 10
-408.49999999999989
 20
-3907.5456698998419
 30
0.0
 11
-408.49999999999989
 21
-4322.5245345278199
 31
0.0
  0
LINE
  5
1025
  8
SIZE
  6
CONTINUOUS
 62
     0
 10
-378.5
 20
-4292.5245345278199
 30
0.0
 11
-368.5
 21
-4292.5245345278199
 31
0.0
  0
LINE
  5
1026
  8
SIZE
  6
CONTINUOUS
 62
     0
 10
-418.5
 20
-4292.5245345278199
 30
0.0
 11
-541.75714285714275
 21
-4292.5245345278199
 31
0.0
  0
LINE
  5
1027
  8
SIZE
  6
CONTINUOUS
 62
     0
 10
-388.5
 20
-4292.5245345278199
 30
0.0
 11
-408.49999999999989
 21
-4292.5245345278199
 31
0.0
  0
INSERT
  5
1028
  8
SIZE
  6
CONTINUOUS
 62
     0
  2
_ORIGIN
 10
-388.5
 20
-4292.5245345278199
 30
0.0
 41
10.0
 42
10.0
 43
10.0
 50
180.0
  0
INSERT
  5
1029
  8
SIZE
  6
CONTINUOUS
 62
     0
  2
_ORIGIN
 10
-408.49999999999989
 20
-4292.5245345278199
 30
0.0
 41
10.0
 42
10.0
 43
10.0
  0
TEXT
  5
102A
  8
DETAIL
  6
CONTINUOUS
 62
     0
 10
-531.75714285714287
 20
-4282.524534527819
 30
0.0
 40
64.0
  1
20
 41
0.9
  0
POINT
  5
102B
  8
DEFPOINTS
  6
CONTINUOUS
 62
     0
 10
-388.5
 20
-3883.5456698998419
 30
0.0
  0
POINT
  5
102C
  8
DEFPOINTS
  6
CONTINUOUS
 62
     0
 10
-408.49999999999989
 20
-3887.5456698998428
 30
0.0
  0
POINT
  5
102D
  8
DEFPOINTS
  6
CONTINUOUS
 62
     0
 10
-408.49999999999989
 20
-4292.5245345278199
 30
0.0
  0
ENDBLK
  5
F0F
  8
0
  0
BLOCK
  8
0
  2
*D55
 70
     1
 10
0.0
 20
0.0
 30
0.0
  3
*D55
  1

  0
LINE
  5
1458
  8
SIZE
  6
CONTINUOUS
 62
     0
 10
-428.49999999999989
 20
-3461.5456698998419
 30
0.0
 11
-505.37041130341811
 21
-3461.5456698998419
 31
0.0
  0
LINE
  5
1459
  8
SIZE
  6
CONTINUOUS
 62
     0
 10
-428.50000000000011
 20
-3859.5456698998419
 30
0.0
 11
-505.37041130341822
 21
-3859.5456698998419
 31
0.0
  0
LINE
  5
145A
  8
SIZE
  6
CONTINUOUS
 62
     0
 10
-475.37041130341811
 20
-3471.5456698998419
 30
0.0
 11
-475.37041130341811
 21
-3849.5456698998419
 31
0.0
  0
INSERT
  5
145B
  8
SIZE
  6
CONTINUOUS
 62
     0
  2
_ORIGIN
 10
-475.37041130341811
 20
-3461.5456698998419
 30
0.0
 41
10.0
 42
10.0
 43
10.0
 50
90.0
  0
INSERT
  5
145C
  8
SIZE
  6
CONTINUOUS
 62
     0
  2
_ORIGIN
 10
-475.37041130341811
 20
-3859.5456698998419
 30
0.0
 41
10.0
 42
10.0
 43
10.0
 50
270.0
  0
TEXT
  5
145D
  8
DETAIL
  6
CONTINUOUS
 62
     0
 10
-485.3704113034176
 20
-3734.6028127569848
 30
0.0
 40
64.0
  1
398
 50
90.0
 41
0.9
  0
POINT
  5
145E
  8
DEFPOINTS
  6
CONTINUOUS
 62
     0
 10
-408.49999999999989
 20
-3461.5456698998419
 30
0.0
  0
POINT
  5
145F
  8
DEFPOINTS
  6
CONTINUOUS
 62
     0
 10
-408.5
 20
-3859.5456698998419
 30
0.0
  0
POINT
  5
1460
  8
DEFPOINTS
  6
CONTINUOUS
 62
     0
 10
-475.37041130341811
 20
-3859.5456698998419
 30
0.0
  0
ENDBLK
  5
F1B
  8
0
  0
BLOCK
  8
0
  2
*D56
 70
     1
 10
0.0
 20
0.0
 30
0.0
  3
*D56
  1

  0
LINE
  5
1049
  8
SIZE
  6
CONTINUOUS
 62
     0
 10
-381.49999999999989
 20
-3889.5456698998419
 30
0.0
 11
-618.1660394937353
 21
-3889.5456698998419
 31
0.0
  0
LINE
  5
104A
  8
SIZE
  6
CONTINUOUS
 62
     0
 10
-381.49999999999989
 20
-3439.5456698998419
 30
0.0
 11
-618.16603949373518
 21
-3439.5456698998419
 31
0.0
  0
LINE
  5
104B
  8
SIZE
  6
CONTINUOUS
 62
     0
 10
-588.16603949373541
 20
-3879.5456698998419
 30
0.0
 11
-588.1660394937353
 21
-3449.5456698998419
 31
0.0
  0
INSERT
  5
104C
  8
SIZE
  6
CONTINUOUS
 62
     0
  2
_ORIGIN
 10
-588.16603949373541
 20
-3889.5456698998419
 30
0.0
 41
10.0
 42
10.0
 43
10.0
 50
270.0
  0
INSERT
  5
104D
  8
SIZE
  6
CONTINUOUS
 62
     0
  2
_ORIGIN
 10
-588.1660394937353
 20
-3439.5456698998419
 30
0.0
 41
10.0
 42
10.0
 43
10.0
 50
90.0
  0
TEXT
  5
104E
  8
DETAIL
  6
CONTINUOUS
 62
     0
 10
-598.16603949373473
 20
-3738.6028127569848
 30
0.0
 40
64.0
  1
450
 50
90.0
 41
0.9
  0
POINT
  5
104F
  8
DEFPOINTS
  6
CONTINUOUS
 62
     0
 10
-361.5
 20
-3889.5456698998419
 30
0.0
  0
POINT
  5
1050
  8
DEFPOINTS
  6
CONTINUOUS
 62
     0
 10
-361.5
 20
-3439.5456698998419
 30
0.0
  0
POINT
  5
1051
  8
DEFPOINTS
  6
CONTINUOUS
 62
     0
 10
-588.1660394937353
 20
-3439.5456698998419
 30
0.0
  0
ENDBLK
  5
F27
  8
0
  0
BLOCK
  8
0
  2
*D57
 70
     1
 10
0.0
 20
0.0
 30
0.0
  3
*D57
  1

  0
LINE
  5
105D
  8
SIZE
  6
CONTINUOUS
 62
     0
 10
348.50000000000011
 20
-3324.5456698998419
 30
0.0
 11
696.16349142884383
 21
-3324.5456698998419
 31
0.0
  0
LINE
  5
105E
  8
SIZE
  6
CONTINUOUS
 62
     0
 10
278.5
 20
-3439.5456698998419
 30
0.0
 11
696.16349142884371
 21
-3439.5456698998419
 31
0.0
  0
LINE
  5
105F
  8
SIZE
  6
CONTINUOUS
 62
     0
 10
666.16349142884371
 20
-3334.5456698998419
 30
0.0
 11
666.16349142884371
 21
-3429.5456698998419
 31
0.0
  0
INSERT
  5
1060
  8
SIZE
  6
CONTINUOUS
 62
     0
  2
_ORIGIN
 10
666.16349142884383
 20
-3324.5456698998419
 30
0.0
 41
10.0
 42
10.0
 43
10.0
 50
90.0
  0
INSERT
  5
1061
  8
SIZE
  6
CONTINUOUS
 62
     0
  2
_ORIGIN
 10
666.16349142884371
 20
-3439.5456698998419
 30
0.0
 41
10.0
 42
10.0
 43
10.0
 50
270.0
  0
TEXT
  5
1062
  8
DETAIL
  6
CONTINUOUS
 62
     0
 10
656.16349142884417
 20
-3478.432233964083
 30
0.0
 40
64.0
  1
115
 50
90.0
 41
0.9
  0
POINT
  5
1063
  8
DEFPOINTS
  6
CONTINUOUS
 62
     0
 10
328.50000000000011
 20
-3324.5456698998419
 30
0.0
  0
POINT
  5
1064
  8
DEFPOINTS
  6
CONTINUOUS
 62
     0
 10
258.49999999999989
 20
-3439.5456698998419
 30
0.0
  0
POINT
  5
1065
  8
DEFPOINTS
  6
CONTINUOUS
 62
     0
 10
666.16349142884371
 20
-3439.5456698998419
 30
0.0
  0
ENDBLK
  5
F33
  8
0
  0
BLOCK
  8
0
  2
*D58
 70
     1
 10
0.0
 20
0.0
 30
0.0
  3
*D58
  1

  0
LINE
  5
1066
  8
SIZE
  6
CONTINUOUS
 62
     0
 10
404.5
 20
-3568.5456698998419
 30
0.0
 11
761.86547460009695
 21
-3568.5456698998419
 31
0.0
  0
LINE
  5
1067
  8
SIZE
  6
CONTINUOUS
 62
     0
 10
381.49999999999989
 20
-3889.5456698998419
 30
0.0
 11
761.86547460009683
 21
-3889.5456698998419
 31
0.0
  0
LINE
  5
1068
  8
SIZE
  6
CONTINUOUS
 62
     0
 10
731.86547460009695
 20
-3578.5456698998419
 30
0.0
 11
731.86547460009683
 21
-3879.5456698998419
 31
0.0
  0
INSERT
  5
1069
  8
SIZE
  6
CONTINUOUS
 62
     0
  2
_ORIGIN
 10
731.86547460009695
 20
-3568.5456698998419
 30
0.0
 41
10.0
 42
10.0
 43
10.0
 50
90.0
  0
INSERT
  5
106A
  8
SIZE
  6
CONTINUOUS
 62
     0
  2
_ORIGIN
 10
731.86547460009683
 20
-3889.5456698998419
 30
0.0
 41
10.0
 42
10.0
 43
10.0
 50
270.0
  0
TEXT
  5
106B
  8
DETAIL
  6
CONTINUOUS
 62
     0
 10
721.86547460009751
 20
-3799.2008973876291
 30
0.0
 40
64.0
  1
321
 50
90.0
 41
0.9
  0
POINT
  5
106C
  8
DEFPOINTS
  6
CONTINUOUS
 62
     0
 10
384.5
 20
-3568.5456698998419
 30
0.0
  0
POINT
  5
106D
  8
DEFPOINTS
  6
CONTINUOUS
 62
     0
 10
361.49999999999989
 20
-3889.5456698998419
 30
0.0
  0
POINT
  5
106E
  8
DEFPOINTS
  6
CONTINUOUS
 62
     0
 10
731.86547460009683
 20
-3889.5456698998419
 30
0.0
  0
ENDBLK
  5
F3F
  8
0
  0
BLOCK
  8
0
  2
*D59
 70
     1
 10
0.0
 20
0.0
 30
0.0
  3
*D59
  1

  0
LINE
  5
1082
  8
SIZE
  6
CONTINUOUS
 62
     0
 10
381.49999999999989
 20
-3889.5456698998419
 30
0.0
 11
643.74310929889828
 21
-3889.5456698998419
 31
0.0
  0
LINE
  5
1083
  8
SIZE
  6
CONTINUOUS
 62
     0
 10
493.5
 20
-3836.5456698998419
 30
0.0
 11
643.7431092988985
 21
-3836.5456698998419
 31
0.0
  0
LINE
  5
1084
  8
SIZE
  6
CONTINUOUS
 62
     0
 10
613.74310929889828
 20
-3846.5456698998419
 30
0.0
 11
613.74310929889828
 21
-3879.5456698998419
 31
0.0
  0
LINE
  5
1085
  8
SIZE
  6
CONTINUOUS
 62
     0
 10
613.74310929889828
 20
-3889.5456698998419
 30
0.0
 11
613.74310929889828
 21
-4018.167180505091
 31
0.0
  0
INSERT
  5
1086
  8
SIZE
  6
CONTINUOUS
 62
     0
  2
_ORIGIN
 10
613.74310929889839
 20
-3836.5456698998419
 30
0.0
 41
10.0
 42
10.0
 43
10.0
 50
90.0
  0
INSERT
  5
1087
  8
SIZE
  6
CONTINUOUS
 62
     0
  2
_ORIGIN
 10
613.74310929889828
 20
-3889.5456698998419
 30
0.0
 41
10.0
 42
10.0
 43
10.0
 50
270.0
  0
TEXT
  5
1088
  8
DETAIL
  6
CONTINUOUS
 62
     0
 10
603.74310929889896
 20
-4008.1671805050919
 30
0.0
 40
64.0
  1
53
 50
90.0
 41
0.9
  0
POINT
  5
1089
  8
DEFPOINTS
  6
CONTINUOUS
 62
     0
 10
361.49999999999989
 20
-3889.5456698998419
 30
0.0
  0
POINT
  5
108A
  8
DEFPOINTS
  6
CONTINUOUS
 62
     0
 10
473.5
 20
-3836.5456698998419
 30
0.0
  0
POINT
  5
108B
  8
DEFPOINTS
  6
CONTINUOUS
 62
     0
 10
613.74310929889839
 20
-3836.5456698998419
 30
0.0
  0
ENDBLK
  5
F4C
  8
0
  0
BLOCK
  8
0
  2
*D60
 70
     1
 10
0.0
 20
0.0
 30
0.0
  3
*D60
  1

  0
LINE
  5
106F
  8
SIZE
  6
CONTINUOUS
 62
     0
 10
493.5
 20
-3594.5456698998419
 30
0.0
 11
643.7431092988985
 21
-3594.5456698998419
 31
0.0
  0
LINE
  5
1070
  8
SIZE
  6
CONTINUOUS
 62
     0
 10
493.5
 20
-3836.5456698998419
 30
0.0
 11
643.7431092988985
 21
-3836.5456698998419
 31
0.0
  0
LINE
  5
1071
  8
SIZE
  6
CONTINUOUS
 62
     0
 10
613.74310929889839
 20
-3604.5456698998419
 30
0.0
 11
613.74310929889839
 21
-3826.5456698998428
 31
0.0
  0
INSERT
  5
1072
  8
SIZE
  6
CONTINUOUS
 62
     0
  2
_ORIGIN
 10
613.74310929889839
 20
-3594.5456698998419
 30
0.0
 41
10.0
 42
10.0
 43
10.0
 50
90.0
  0
INSERT
  5
1073
  8
SIZE
  6
CONTINUOUS
 62
     0
  2
_ORIGIN
 10
613.74310929889839
 20
-3836.5456698998419
 30
0.0
 41
10.0
 42
10.0
 43
10.0
 50
270.0
  0
TEXT
  5
1074
  8
DETAIL
  6
CONTINUOUS
 62
     0
 10
603.74310929889896
 20
-3796.5098024037038
 30
0.0
 40
64.0
  1
242
 50
90.0
 41
0.9
  0
POINT
  5
1075
  8
DEFPOINTS
  6
CONTINUOUS
 62
     0
 10
473.5
 20
-3594.5456698998419
 30
0.0
  0
POINT
  5
1076
  8
DEFPOINTS
  6
CONTINUOUS
 62
     0
 10
473.5
 20
-3836.5456698998419
 30
0.0
  0
POINT
  5
1077
  8
DEFPOINTS
  6
CONTINUOUS
 62
     0
 10
613.74310929889839
 20
-3836.5456698998419
 30
0.0
  0
ENDBLK
  5
F58
  8
0
  0
BLOCK
  8
0
  2
*D61
 70
     1
 10
0.0
 20
0.0
 30
0.0
  3
*D61
  1

  0
LINE
  5
108C
  8
SIZE
  6
CONTINUOUS
 62
     0
 10
408.49999999999989
 20
-3421.5456698998419
 30
0.0
 11
408.49999999999989
 21
-3180.8025568991761
 31
0.0
  0
LINE
  5
108D
  8
SIZE
  6
CONTINUOUS
 62
     0
 10
308.50000000000011
 20
-3284.5456698998419
 30
0.0
 11
308.50000000000011
 21
-3180.8025568991761
 31
0.0
  0
LINE
  5
108E
  8
SIZE
  6
CONTINUOUS
 62
     0
 10
418.5
 20
-3210.8025568991761
 30
0.0
 11
428.5
 21
-3210.8025568991761
 31
0.0
  0
LINE
  5
108F
  8
SIZE
  6
CONTINUOUS
 62
     0
 10
298.50000000000011
 20
-3210.8025568991761
 30
0.0
 11
288.50000000000011
 21
-3210.8025568991761
 31
0.0
  0
LINE
  5
1090
  8
SIZE
  6
CONTINUOUS
 62
     0
 10
408.49999999999989
 20
-3210.8025568991761
 30
0.0
 11
308.50000000000011
 21
-3210.8025568991761
 31
0.0
  0
INSERT
  5
1091
  8
SIZE
  6
CONTINUOUS
 62
     0
  2
_ORIGIN
 10
408.49999999999989
 20
-3210.8025568991761
 30
0.0
 41
10.0
 42
10.0
 43
10.0
 50
180.0
  0
INSERT
  5
1092
  8
SIZE
  6
CONTINUOUS
 62
     0
  2
_ORIGIN
 10
308.50000000000011
 20
-3210.8025568991761
 30
0.0
 41
10.0
 42
10.0
 43
10.0
  0
TEXT
  5
1093
  8
DETAIL
  6
CONTINUOUS
 62
     0
 10
289.92857142857139
 20
-3200.8025568991761
 30
0.0
 40
64.0
  1
100
 41
0.9
  0
POINT
  5
1094
  8
DEFPOINTS
  6
CONTINUOUS
 62
     0
 10
408.49999999999989
 20
-3441.5456698998419
 30
0.0
  0
POINT
  5
1095
  8
DEFPOINTS
  6
CONTINUOUS
 62
     0
 10
308.50000000000011
 20
-3304.5456698998419
 30
0.0
  0
POINT
  5
1096
  8
DEFPOINTS
  6
CONTINUOUS
 62
     0
 10
308.50000000000011
 20
-3210.8025568991761
 30
0.0
  0
ENDBLK
  5
F66
  8
0
  0
BLOCK
  8
0
  2
*D62
 70
     1
 10
0.0
 20
0.0
 30
0.0
  3
*D62
  1

  0
LINE
  5
1078
  8
SIZE
  6
CONTINUOUS
 62
     0
 10
408.49999999999989
 20
-3614.5456698998419
 30
0.0
 11
408.49999999999989
 21
-3787.1489297184562
 31
0.0
  0
LINE
  5
1079
  8
SIZE
  6
CONTINUOUS
 62
     0
 10
364.5
 20
-3608.5456698998419
 30
0.0
 11
364.5
 21
-3787.1489297184562
 31
0.0
  0
LINE
  5
107A
  8
SIZE
  6
CONTINUOUS
 62
     0
 10
374.5
 20
-3757.1489297184562
 30
0.0
 11
398.49999999999989
 21
-3757.1489297184562
 31
0.0
  0
LINE
  5
107B
  8
SIZE
  6
CONTINUOUS
 62
     0
 10
408.49999999999989
 20
-3757.1489297184562
 30
0.0
 11
534.49999999999989
 21
-3757.1489297184562
 31
0.0
  0
INSERT
  5
107C
  8
SIZE
  6
CONTINUOUS
 62
     0
  2
_ORIGIN
 10
364.5
 20
-3757.1489297184562
 30
0.0
 41
10.0
 42
10.0
 43
10.0
 50
180.0
  0
INSERT
  5
107D
  8
SIZE
  6
CONTINUOUS
 62
     0
  2
_ORIGIN
 10
408.49999999999989
 20
-3757.1489297184562
 30
0.0
 41
10.0
 42
10.0
 43
10.0
  0
TEXT
  5
107E
  8
DETAIL
  6
CONTINUOUS
 62
     0
 10
428.5
 20
-3747.1489297184562
 30
0.0
 40
64.0
  1
44
 41
0.9
  0
POINT
  5
107F
  8
DEFPOINTS
  6
CONTINUOUS
 62
     0
 10
408.49999999999989
 20
-3594.5456698998419
 30
0.0
  0
POINT
  5
1080
  8
DEFPOINTS
  6
CONTINUOUS
 62
     0
 10
364.5
 20
-3588.5456698998419
 30
0.0
  0
POINT
  5
1081
  8
DEFPOINTS
  6
CONTINUOUS
 62
     0
 10
364.5
 20
-3757.1489297184562
 30
0.0
  0
ENDBLK
  5
F73
  8
0
  0
BLOCK
  8
0
  2
*D63
 70
     1
 10
0.0
 20
0.0
 30
0.0
  3
*D63
  1

  0
LINE
  5
1097
  8
SIZE
  6
CONTINUOUS
 62
     0
 10
364.5
 20
-3608.5456698998419
 30
0.0
 11
364.5
 21
-3786.8723884777901
 31
0.0
  0
LINE
  5
1098
  8
SIZE
  6
CONTINUOUS
 62
     0
 10
309.49999999999989
 20
-3608.5456698998419
 30
0.0
 11
309.49999999999989
 21
-3786.8723884777901
 31
0.0
  0
LINE
  5
1099
  8
SIZE
  6
CONTINUOUS
 62
     0
 10
354.5
 20
-3756.8723884777901
 30
0.0
 11
319.49999999999989
 21
-3756.8723884777901
 31
0.0
  0
LINE
  5
109A
  8
SIZE
  6
CONTINUOUS
 62
     0
 10
309.49999999999989
 20
-3756.8723884777901
 30
0.0
 11
186.2428571428571
 21
-3756.8723884777901
 31
0.0
  0
INSERT
  5
109B
  8
SIZE
  6
CONTINUOUS
 62
     0
  2
_ORIGIN
 10
364.5
 20
-3756.8723884777901
 30
0.0
 41
10.0
 42
10.0
 43
10.0
  0
INSERT
  5
109C
  8
SIZE
  6
CONTINUOUS
 62
     0
  2
_ORIGIN
 10
309.49999999999989
 20
-3756.8723884777901
 30
0.0
 41
10.0
 42
10.0
 43
10.0
 50
180.0
  0
TEXT
  5
109D
  8
DETAIL
  6
CONTINUOUS
 62
     0
 10
196.24285714285699
 20
-3746.8723884777901
 30
0.0
 40
64.0
  1
55
 41
0.9
  0
POINT
  5
109E
  8
DEFPOINTS
  6
CONTINUOUS
 62
     0
 10
364.5
 20
-3588.5456698998419
 30
0.0
  0
POINT
  5
109F
  8
DEFPOINTS
  6
CONTINUOUS
 62
     0
 10
309.49999999999989
 20
-3588.5456698998419
 30
0.0
  0
POINT
  5
10A0
  8
DEFPOINTS
  6
CONTINUOUS
 62
     0
 10
309.49999999999989
 20
-3756.8723884777901
 30
0.0
  0
ENDBLK
  5
F80
  8
0
  0
BLOCK
  8
0
  2
*D64
 70
     1
 10
0.0
 20
0.0
 30
0.0
  3
*D64
  1

  0
LINE
  5
1250
  8
SIZE
  6
CONTINUOUS
 62
     0
 10
-350.50000000000051
 20
-1840.2728349499209
 30
0.0
 11
-350.50000000000051
 21
-1716.5566182910329
 31
0.0
  0
LINE
  5
1251
  8
SIZE
  6
CONTINUOUS
 62
     0
 10
304.5
 20
-1840.2728349499221
 30
0.0
 11
304.5
 21
-1716.5566182910329
 31
0.0
  0
LINE
  5
1252
  8
SIZE
  6
CONTINUOUS
 62
     0
 10
-340.50000000000051
 20
-1746.5566182910329
 30
0.0
 11
294.5
 21
-1746.5566182910329
 31
0.0
  0
INSERT
  5
1253
  8
SIZE
  6
CONTINUOUS
 62
     0
  2
_ORIGIN
 10
-350.50000000000051
 20
-1746.5566182910329
 30
0.0
 41
10.0
 42
10.0
 43
10.0
 50
180.0
  0
INSERT
  5
1254
  8
SIZE
  6
CONTINUOUS
 62
     0
  2
_ORIGIN
 10
304.5
 20
-1746.5566182910329
 30
0.0
 41
10.0
 42
10.0
 43
10.0
  0
TEXT
  5
1255
  8
DETAIL
  6
CONTINUOUS
 62
     0
 10
-97.057142857143063
 20
-1736.5566182910329
 30
0.0
 40
64.0
  1
655
 41
0.9
  0
POINT
  5
1256
  8
DEFPOINTS
  6
CONTINUOUS
 62
     0
 10
-350.50000000000051
 20
-1860.2728349499209
 30
0.0
  0
POINT
  5
1257
  8
DEFPOINTS
  6
CONTINUOUS
 62
     0
 10
304.5
 20
-1860.2728349499209
 30
0.0
  0
POINT
  5
1258
  8
DEFPOINTS
  6
CONTINUOUS
 62
     0
 10
304.5
 20
-1746.5566182910329
 30
0.0
  0
ENDBLK
  5
125A
  8
0
  0
BLOCK
  8
0
  2
*D65
 70
     1
 10
0.0
 20
0.0
 30
0.0
  3
*D65
  1

  0
LINE
  5
125D
  8
SIZE
  6
CONTINUOUS
 62
     0
 10
-361.49999999999977
 20
-1812.2728349499209
 30
0.0
 11
-361.49999999999977
 21
-1716.5566182910329
 31
0.0
  0
LINE
  5
125E
  8
SIZE
  6
CONTINUOUS
 62
     0
 10
-350.50000000000051
 20
-1840.2728349499209
 30
0.0
 11
-350.50000000000051
 21
-1716.5566182910329
 31
0.0
  0
LINE
  5
125F
  8
SIZE
  6
CONTINUOUS
 62
     0
 10
-371.49999999999977
 20
-1746.5566182910329
 30
0.0
 11
-381.49999999999989
 21
-1746.5566182910329
 31
0.0
  0
LINE
  5
1260
  8
SIZE
  6
CONTINUOUS
 62
     0
 10
-340.50000000000051
 20
-1746.5566182910329
 30
0.0
 11
-330.50000000000051
 21
-1746.5566182910329
 31
0.0
  0
LINE
  5
1261
  8
SIZE
  6
CONTINUOUS
 62
     0
 10
-361.49999999999977
 20
-1746.5566182910329
 30
0.0
 11
-350.50000000000051
 21
-1746.5566182910329
 31
0.0
  0
INSERT
  5
1262
  8
SIZE
  6
CONTINUOUS
 62
     0
  2
_ORIGIN
 10
-361.49999999999977
 20
-1746.5566182910329
 30
0.0
 41
10.0
 42
10.0
 43
10.0
  0
INSERT
  5
1263
  8
SIZE
  6
CONTINUOUS
 62
     0
  2
_ORIGIN
 10
-350.50000000000051
 20
-1746.5566182910329
 30
0.0
 41
10.0
 42
10.0
 43
10.0
 50
180.0
  0
TEXT
  5
1264
  8
DETAIL
  6
CONTINUOUS
 62
     0
 10
-384.80000000000018
 20
-1736.5566182910329
 30
0.0
 40
64.0
  1
11
 41
0.9
  0
POINT
  5
1265
  8
DEFPOINTS
  6
CONTINUOUS
 62
     0
 10
-361.49999999999977
 20
-1832.2728349499209
 30
0.0
  0
POINT
  5
1266
  8
DEFPOINTS
  6
CONTINUOUS
 62
     0
 10
-350.50000000000051
 20
-1860.2728349499209
 30
0.0
  0
POINT
  5
1267
  8
DEFPOINTS
  6
CONTINUOUS
 62
     0
 10
-350.50000000000051
 20
-1746.5566182910329
 30
0.0
  0
ENDBLK
  5
1269
  8
0
  0
BLOCK
  8
0
  2
*D66
 70
     1
 10
0.0
 20
0.0
 30
0.0
  3
*D66
  1

  0
LINE
  5
12A8
  8
SIZE
  6
CONTINUOUS
 62
     0
 10
-310.50000000000051
 20
-1880.2728349499209
 30
0.0
 11
-180.63150277531199
 21
-1880.2728349499209
 31
0.0
  0
LINE
  5
12A9
  8
SIZE
  6
CONTINUOUS
 62
     0
 10
-310.49999999999989
 20
-1989.2728349499221
 30
0.0
 11
-180.63150277531199
 21
-1989.2728349499221
 31
0.0
  0
LINE
  5
12AA
  8
SIZE
  6
CONTINUOUS
 62
     0
 10
-210.6315027753119
 20
-1890.2728349499209
 30
0.0
 11
-210.6315027753119
 21
-1979.2728349499209
 31
0.0
  0
INSERT
  5
12AB
  8
SIZE
  6
CONTINUOUS
 62
     0
  2
_ORIGIN
 10
-210.6315027753119
 20
-1880.2728349499209
 30
0.0
 41
10.0
 42
10.0
 43
10.0
 50
90.0
  0
INSERT
  5
12AC
  8
SIZE
  6
CONTINUOUS
 62
     0
  2
_ORIGIN
 10
-210.63150277531199
 20
-1989.2728349499221
 30
0.0
 41
10.0
 42
10.0
 43
10.0
 50
270.0
  0
TEXT
  5
12AD
  8
DETAIL
  6
CONTINUOUS
 62
     0
 10
-220.63150277531159
 20
-2027.4903367112449
 30
0.0
 40
64.0
  1
109
 50
90.0
 41
0.9
  0
POINT
  5
12AE
  8
DEFPOINTS
  6
CONTINUOUS
 62
     0
 10
-330.50000000000051
 20
-1880.2728349499209
 30
0.0
  0
POINT
  5
12AF
  8
DEFPOINTS
  6
CONTINUOUS
 62
     0
 10
-330.49999999999989
 20
-1989.2728349499221
 30
0.0
  0
POINT
  5
12B0
  8
DEFPOINTS
  6
CONTINUOUS
 62
     0
 10
-210.63150277531199
 20
-1989.2728349499221
 30
0.0
  0
ENDBLK
  5
1278
  8
0
  0
BLOCK
  8
0
  2
*D67
 70
     1
 10
0.0
 20
0.0
 30
0.0
  3
*D67
  1

  0
LINE
  5
1293
  8
SIZE
  6
CONTINUOUS
 62
     0
 10
-310.49999999999989
 20
-1989.2728349499221
 30
0.0
 11
-179.99774419940181
 21
-1989.2728349499221
 31
0.0
  0
LINE
  5
1294
  8
SIZE
  6
CONTINUOUS
 62
     0
 10
-341.49999999999989
 20
-2062.2728349499212
 30
0.0
 11
-179.99774419940181
 21
-2062.2728349499212
 31
0.0
  0
LINE
  5
1295
  8
SIZE
  6
CONTINUOUS
 62
     0
 10
-209.99774419940181
 20
-1999.2728349499221
 30
0.0
 11
-209.99774419940181
 21
-2052.2728349499212
 31
0.0
  0
LINE
  5
1296
  8
SIZE
  6
CONTINUOUS
 62
     0
 10
-209.99774419940181
 20
-2062.2728349499212
 30
0.0
 11
-209.99774419940181
 21
-2185.5299778070639
 31
0.0
  0
INSERT
  5
1297
  8
SIZE
  6
CONTINUOUS
 62
     0
  2
_ORIGIN
 10
-209.99774419940181
 20
-1989.2728349499221
 30
0.0
 41
10.0
 42
10.0
 43
10.0
 50
90.0
  0
INSERT
  5
1298
  8
SIZE
  6
CONTINUOUS
 62
     0
  2
_ORIGIN
 10
-209.99774419940181
 20
-2062.2728349499212
 30
0.0
 41
10.0
 42
10.0
 43
10.0
 50
270.0
  0
TEXT
  5
1299
  8
DETAIL
  6
CONTINUOUS
 62
     0
 10
-219.99774419940141
 20
-2175.5299778070639
 30
0.0
 40
64.0
  1
73
 50
90.0
 41
0.9
  0
POINT
  5
129A
  8
DEFPOINTS
  6
CONTINUOUS
 62
     0
 10
-330.49999999999989
 20
-1989.2728349499221
 30
0.0
  0
POINT
  5
129B
  8
DEFPOINTS
  6
CONTINUOUS
 62
     0
 10
-361.49999999999989
 20
-2062.2728349499212
 30
0.0
  0
POINT
  5
129C
  8
DEFPOINTS
  6
CONTINUOUS
 62
     0
 10
-209.99774419940181
 20
-2062.2728349499212
 30
0.0
  0
ENDBLK
  5
1287
  8
0
  0
BLOCK
  8
0
  2
*D68
 70
     1
 10
0.0
 20
0.0
 30
0.0
  3
*D68
  1

  0
LINE
  5
12EF
  8
SIZE
  6
CONTINUOUS
 62
     0
 10
-361.5
 20
-242.99999999999989
 30
0.0
 11
-361.5
 21
-384.09720379612912
 31
0.0
  0
LINE
  5
12F0
  8
SIZE
  6
CONTINUOUS
 62
     0
 10
-350.50000000000068
 20
-265.0
 30
0.0
 11
-350.50000000000068
 21
-384.09720379612912
 31
0.0
  0
LINE
  5
12F1
  8
SIZE
  6
CONTINUOUS
 62
     0
 10
-371.49999999999989
 20
-354.09720379612912
 30
0.0
 11
-381.49999999999989
 21
-354.09720379612912
 31
0.0
  0
LINE
  5
12F2
  8
SIZE
  6
CONTINUOUS
 62
     0
 10
-340.50000000000068
 20
-354.09720379612912
 30
0.0
 11
-252.90000000000069
 21
-354.09720379612912
 31
0.0
  0
LINE
  5
12F3
  8
SIZE
  6
CONTINUOUS
 62
     0
 10
-361.5
 20
-354.09720379612912
 30
0.0
 11
-350.50000000000068
 21
-354.09720379612912
 31
0.0
  0
INSERT
  5
12F4
  8
SIZE
  6
CONTINUOUS
 62
     0
  2
_ORIGIN
 10
-361.5
 20
-354.09720379612912
 30
0.0
 41
10.0
 42
10.0
 43
10.0
  0
INSERT
  5
12F5
  8
SIZE
  6
CONTINUOUS
 62
     0
  2
_ORIGIN
 10
-350.50000000000068
 20
-354.09720379612912
 30
0.0
 41
10.0
 42
10.0
 43
10.0
 50
180.0
  0
TEXT
  5
12F6
  8
DETAIL
  6
CONTINUOUS
 62
     0
 10
-320.50000000000068
 20
-344.09720379612912
 30
0.0
 40
64.0
  1
11
 41
0.9
  0
POINT
  5
12F7
  8
DEFPOINTS
  6
CONTINUOUS
 62
     0
 10
-361.5
 20
-222.99999999999989
 30
0.0
  0
POINT
  5
12F8
  8
DEFPOINTS
  6
CONTINUOUS
 62
     0
 10
-350.50000000000068
 20
-245.0
 30
0.0
  0
POINT
  5
12F9
  8
DEFPOINTS
  6
CONTINUOUS
 62
     0
 10
-350.50000000000068
 20
-354.09720379612912
 30
0.0
  0
ENDBLK
  5
12E3
  8
0
  0
BLOCK
  8
0
  2
*D69
 70
     1
 10
0.0
 20
0.0
 30
0.0
  3
*D69
  1

  0
LINE
  5
12FC
  8
SIZE
  6
CONTINUOUS
 62
     0
 10
-350.50000000000068
 20
-265.0
 30
0.0
 11
-350.50000000000068
 21
-450.09167077032538
 31
0.0
  0
LINE
  5
12FD
  8
SIZE
  6
CONTINUOUS
 62
     0
 10
304.5
 20
-265.0
 30
0.0
 11
304.5
 21
-450.09167077032538
 31
0.0
  0
LINE
  5
12FE
  8
SIZE
  6
CONTINUOUS
 62
     0
 10
-340.50000000000068
 20
-420.09167077032538
 30
0.0
 11
294.5
 21
-420.09167077032538
 31
0.0
  0
INSERT
  5
12FF
  8
SIZE
  6
CONTINUOUS
 62
     0
  2
_ORIGIN
 10
-350.50000000000068
 20
-420.09167077032538
 30
0.0
 41
10.0
 42
10.0
 43
10.0
 50
180.0
  0
INSERT
  5
1300
  8
SIZE
  6
CONTINUOUS
 62
     0
  2
_ORIGIN
 10
304.5
 20
-420.09167077032538
 30
0.0
 41
10.0
 42
10.0
 43
10.0
  0
TEXT
  5
1301
  8
DETAIL
  6
CONTINUOUS
 62
     0
 10
-97.057142857143205
 20
-410.09167077032538
 30
0.0
 40
64.0
  1
655
 41
0.9
  0
POINT
  5
1302
  8
DEFPOINTS
  6
CONTINUOUS
 62
     0
 10
-350.50000000000068
 20
-245.0
 30
0.0
  0
POINT
  5
1303
  8
DEFPOINTS
  6
CONTINUOUS
 62
     0
 10
304.5
 20
-245.0
 30
0.0
  0
POINT
  5
1304
  8
DEFPOINTS
  6
CONTINUOUS
 62
     0
 10
304.5
 20
-420.09167077032538
 30
0.0
  0
ENDBLK
  5
1306
  8
0
  0
BLOCK
  8
0
  2
*D70
 70
     1
 10
0.0
 20
0.0
 30
0.0
  3
*D70
  1

  0
LINE
  5
1390
  8
SIZE
  6
CONTINUOUS
 62
     0
 10
1911.2654251900469
 20
-2062.2728349499212
 30
0.0
 11
1777.137231980053
 21
-2062.2728349499212
 31
0.0
  0
LINE
  5
1391
  8
SIZE
  6
CONTINUOUS
 62
     0
 10
1891.2654251900481
 20
-1989.2728349499221
 30
0.0
 11
1777.137231980053
 21
-1989.2728349499221
 31
0.0
  0
LINE
  5
1392
  8
SIZE
  6
CONTINUOUS
 62
     0
 10
1807.137231980053
 20
-1999.2728349499221
 30
0.0
 11
1807.137231980053
 21
-2052.2728349499212
 31
0.0
  0
LINE
  5
1393
  8
SIZE
  6
CONTINUOUS
 62
     0
 10
1807.137231980053
 20
-2062.2728349499212
 30
0.0
 11
1807.137231980053
 21
-2188.3675590810981
 31
0.0
  0
INSERT
  5
1394
  8
SIZE
  6
CONTINUOUS
 62
     0
  2
_ORIGIN
 10
1807.137231980053
 20
-1989.2728349499221
 30
0.0
 41
10.0
 42
10.0
 43
10.0
 50
90.0
  0
INSERT
  5
1395
  8
SIZE
  6
CONTINUOUS
 62
     0
  2
_ORIGIN
 10
1807.137231980053
 20
-2062.2728349499212
 30
0.0
 41
10.0
 42
10.0
 43
10.0
 50
270.0
  0
TEXT
  5
1396
  8
DETAIL
  6
CONTINUOUS
 62
     0
 10
1797.1372319800539
 20
-2178.3675590810981
 30
0.0
 40
64.0
  1
73
 50
90.0
 41
0.9
  0
POINT
  5
1397
  8
DEFPOINTS
  6
CONTINUOUS
 62
     0
 10
1931.2654251900469
 20
-2062.2728349499212
 30
0.0
  0
POINT
  5
1398
  8
DEFPOINTS
  6
CONTINUOUS
 62
     0
 10
1911.2654251900481
 20
-1989.2728349499221
 30
0.0
  0
POINT
  5
1399
  8
DEFPOINTS
  6
CONTINUOUS
 62
     0
 10
1807.137231980053
 20
-1989.2728349499221
 30
0.0
  0
ENDBLK
  5
1327
  8
0
  0
BLOCK
  8
0
  2
*D71
 70
     1
 10
0.0
 20
0.0
 30
0.0
  3
*D71
  1

  0
LINE
  5
137D
  8
SIZE
  6
CONTINUOUS
 62
     0
 10
1891.265425190046
 20
-1880.2728349499221
 30
0.0
 11
1777.137231980053
 21
-1880.2728349499221
 31
0.0
  0
LINE
  5
137E
  8
SIZE
  6
CONTINUOUS
 62
     0
 10
1891.2654251900481
 20
-1989.2728349499221
 30
0.0
 11
1777.137231980053
 21
-1989.2728349499221
 31
0.0
  0
LINE
  5
137F
  8
SIZE
  6
CONTINUOUS
 62
     0
 10
1807.137231980053
 20
-1890.2728349499221
 30
0.0
 11
1807.137231980053
 21
-1979.2728349499221
 31
0.0
  0
INSERT
  5
1380
  8
SIZE
  6
CONTINUOUS
 62
     0
  2
_ORIGIN
 10
1807.137231980053
 20
-1880.2728349499221
 30
0.0
 41
10.0
 42
10.0
 43
10.0
 50
90.0
  0
INSERT
  5
1381
  8
SIZE
  6
CONTINUOUS
 62
     0
  2
_ORIGIN
 10
1807.137231980053
 20
-1989.2728349499221
 30
0.0
 41
10.0
 42
10.0
 43
10.0
 50
270.0
  0
TEXT
  5
1382
  8
DETAIL
  6
CONTINUOUS
 62
     0
 10
1797.1372319800539
 20
-2027.5870062541931
 30
0.0
 40
64.0
  1
109
 50
90.0
 41
0.9
  0
POINT
  5
1383
  8
DEFPOINTS
  6
CONTINUOUS
 62
     0
 10
1911.265425190046
 20
-1880.2728349499221
 30
0.0
  0
POINT
  5
1384
  8
DEFPOINTS
  6
CONTINUOUS
 62
     0
 10
1911.2654251900481
 20
-1989.2728349499221
 30
0.0
  0
POINT
  5
1385
  8
DEFPOINTS
  6
CONTINUOUS
 62
     0
 10
1807.137231980053
 20
-1989.2728349499221
 30
0.0
  0
ENDBLK
  5
1371
  8
0
  0
BLOCK
  8
0
  2
*D72
 70
     1
 10
0.0
 20
0.0
 30
0.0
  3
*D72
  1

  0
LINE
  5
15B8
  8
SIZE
  6
CONTINUOUS
 62
     0
 10
245.0
 20
-230.0
 30
0.0
 11
489.03384356164128
 21
-230.0
 31
0.0
  0
LINE
  5
15B9
  8
SIZE
  6
CONTINUOUS
 62
     0
 10
238.99999999999969
 20
-28.000000000000909
 30
0.0
 11
489.03384356164128
 21
-28.000000000000981
 31
0.0
  0
LINE
  5
15BA
  8
SIZE
  6
CONTINUOUS
 62
     0
 10
459.03384356164128
 20
-220.00000000000011
 30
0.0
 11
459.03384356164128
 21
-38.000000000000973
 31
0.0
  0
INSERT
  5
15BB
  8
SIZE
  6
CONTINUOUS
 62
     0
  2
_ORIGIN
 10
459.03384356164128
 20
-230.0
 30
0.0
 41
10.0
 42
10.0
 43
10.0
 50
270.0
  0
INSERT
  5
15BC
  8
SIZE
  6
CONTINUOUS
 62
     0
  2
_ORIGIN
 10
459.03384356164128
 20
-28.000000000000981
 30
0.0
 41
10.0
 42
10.0
 43
10.0
 50
90.0
  0
TEXT
  8
0
  40
64
  5
15DC
  62
0
  72
0
  71
0
 10
289.034
 20
-240.640
 30
0.000000
  1
202
  0
POINT
  5
15BE
  8
DEFPOINTS
  6
CONTINUOUS
 62
     0
 10
225.0
 20
-230.0
 30
0.0
  0
POINT
  5
15BF
  8
DEFPOINTS
  6
CONTINUOUS
 62
     0
 10
218.99999999999969
 20
-28.000000000000909
 30
0.0
  0
POINT
  5
15C0
  8
DEFPOINTS
  6
CONTINUOUS
 62
     0
 10
459.03384356164128
 20
-28.000000000000981
 30
0.0
  0
ENDBLK
  5
13B4
  8
0
  0
BLOCK
  8
0
  2
*D73
 70
     1
 10
0.0
 20
0.0
 30
0.0
  3
*D73
  1

  0
LINE
  5
15AE
  8
SIZE
  6
CONTINUOUS
 62
     0
 10
245.0
 20
-230.0
 30
0.0
 11
379.12819320999358
 21
-230.0
 31
0.0
  0
LINE
  5
15AF
  8
SIZE
  6
CONTINUOUS
 62
     0
 10
264.99999999999949
 20
-157.00000000000091
 30
0.0
 11
379.12819320999358
 21
-157.00000000000091
 31
0.0
  0
LINE
  5
15B0
  8
SIZE
  6
CONTINUOUS
 62
     0
 10
349.12819320999358
 20
-167.00000000000091
 30
0.0
 11
349.12819320999358
 21
-220.0
 31
0.0
  0
LINE
  5
15B1
  8
SIZE
  6
CONTINUOUS
 62
     0
 10
349.12819320999358
 20
-230.0
 30
0.0
 11
349.12819320999358
 21
-356.09472413117697
 31
0.0
  0
INSERT
  5
15B2
  8
SIZE
  6
CONTINUOUS
 62
     0
  2
_ORIGIN
 10
349.12819320999358
 20
-157.00000000000091
 30
0.0
 41
10.0
 42
10.0
 43
10.0
 50
90.0
  0
INSERT
  5
15B3
  8
SIZE
  6
CONTINUOUS
 62
     0
  2
_ORIGIN
 10
349.12819320999358
 20
-230.0
 30
0.0
 41
10.0
 42
10.0
 43
10.0
 50
270.0
  0
TEXT
  8
0
  40
64
  5
15DD
  62
0
  72
0
  71
0
 10
179.128
 20
-412.746
 30
0.000000
  1
73
  0
POINT
  5
15B5
  8
DEFPOINTS
  6
CONTINUOUS
 62
     0
 10
225.0
 20
-230.0
 30
0.0
  0
POINT
  5
15B6
  8
DEFPOINTS
  6
CONTINUOUS
 62
     0
 10
244.99999999999949
 20
-157.00000000000091
 30
0.0
  0
POINT
  5
15B7
  8
DEFPOINTS
  6
CONTINUOUS
 62
     0
 10
349.12819320999358
 20
-157.00000000000091
 30
0.0
  0
ENDBLK
  5
13C1
  8
0
  0
BLOCK
  8
0
  2
*D74
 70
     1
 10
0.0
 20
0.0
 30
0.0
  3
*D74
  1

  0
LINE
  5
15C1
  8
SIZE
  6
CONTINUOUS
 62
     0
 10
265.00000000000091
 20
-48.000000000000682
 30
0.0
 11
379.12819320999358
 21
-48.000000000000711
 31
0.0
  0
LINE
  5
15C2
  8
SIZE
  6
CONTINUOUS
 62
     0
 10
264.99999999999949
 20
-157.00000000000091
 30
0.0
 11
379.12819320999358
 21
-157.00000000000091
 31
0.0
  0
LINE
  5
15C3
  8
SIZE
  6
CONTINUOUS
 62
     0
 10
349.1281932099937
 20
-58.000000000000711
 30
0.0
 11
349.12819320999358
 21
-147.00000000000091
 31
0.0
  0
INSERT
  5
15C4
  8
SIZE
  6
CONTINUOUS
 62
     0
  2
_ORIGIN
 10
349.1281932099937
 20
-48.000000000000711
 30
0.0
 41
10.0
 42
10.0
 43
10.0
 50
90.0
  0
INSERT
  5
15C5
  8
SIZE
  6
CONTINUOUS
 62
     0
  2
_ORIGIN
 10
349.12819320999358
 20
-157.00000000000091
 30
0.0
 41
10.0
 42
10.0
 43
10.0
 50
270.0
  0
TEXT
  8
0
  40
64
  5
15DE
  62
0
  72
0
  71
0
 10
179.128
 20
-241.394
 30
0.000000
  1
109
  0
POINT
  5
15C7
  8
DEFPOINTS
  6
CONTINUOUS
 62
     0
 10
245.00000000000091
 20
-48.000000000000682
 30
0.0
  0
POINT
  5
15C8
  8
DEFPOINTS
  6
CONTINUOUS
 62
     0
 10
244.99999999999949
 20
-157.00000000000091
 30
0.0
  0
POINT
  5
15C9
  8
DEFPOINTS
  6
CONTINUOUS
 62
     0
 10
349.12819320999358
 20
-157.00000000000091
 30
0.0
  0
ENDBLK
  5
13CD
  8
0
  0
BLOCK
  8
0
  2
*D75
 70
     1
 10
0.0
 20
0.0
 30
0.0
  3
*D75
  1

  0
LINE
  5
140F
  8
SIZE
  6
CONTINUOUS
 62
     0
 10
-361.5
 20
-3907.5456698998419
 30
0.0
 11
-361.5
 21
-4048.642873695971
 31
0.0
  0
LINE
  5
1410
  8
SIZE
  6
CONTINUOUS
 62
     0
 10
-350.50000000000068
 20
-3929.5456698998419
 30
0.0
 11
-350.50000000000068
 21
-4048.642873695971
 31
0.0
  0
LINE
  5
1411
  8
SIZE
  6
CONTINUOUS
 62
     0
 10
-371.49999999999989
 20
-4018.642873695972
 30
0.0
 11
-381.49999999999989
 21
-4018.642873695972
 31
0.0
  0
LINE
  5
1412
  8
SIZE
  6
CONTINUOUS
 62
     0
 10
-340.5000000000008
 20
-4018.642873695972
 30
0.0
 11
-252.90000000000069
 21
-4018.642873695972
 31
0.0
  0
LINE
  5
1413
  8
SIZE
  6
CONTINUOUS
 62
     0
 10
-361.5
 20
-4018.642873695972
 30
0.0
 11
-350.50000000000068
 21
-4018.642873695972
 31
0.0
  0
INSERT
  5
1414
  8
SIZE
  6
CONTINUOUS
 62
     0
  2
_ORIGIN
 10
-361.5
 20
-4018.642873695972
 30
0.0
 41
10.0
 42
10.0
 43
10.0
  0
INSERT
  5
1415
  8
SIZE
  6
CONTINUOUS
 62
     0
  2
_ORIGIN
 10
-350.50000000000068
 20
-4018.642873695972
 30
0.0
 41
10.0
 42
10.0
 43
10.0
 50
180.0
  0
TEXT
  5
1416
  8
DETAIL
  6
CONTINUOUS
 62
     0
 10
-320.50000000000068
 20
-4008.642873695971
 30
0.0
 40
64.0
  1
11
 41
0.9
  0
POINT
  5
1417
  8
DEFPOINTS
  6
CONTINUOUS
 62
     0
 10
-361.5
 20
-3887.5456698998428
 30
0.0
  0
POINT
  5
1418
  8
DEFPOINTS
  6
CONTINUOUS
 62
     0
 10
-350.50000000000068
 20
-3909.5456698998419
 30
0.0
  0
POINT
  5
1419
  8
DEFPOINTS
  6
CONTINUOUS
 62
     0
 10
-350.50000000000068
 20
-4018.642873695972
 30
0.0
  0
ENDBLK
  5
1402
  8
0
  0
BLOCK
  8
0
  2
*D76
 70
     1
 10
0.0
 20
0.0
 30
0.0
  3
*D76
  1

  0
LINE
  5
141A
  8
SIZE
  6
CONTINUOUS
 62
     0
 10
-350.50000000000068
 20
-3929.5456698998419
 30
0.0
 11
-350.50000000000068
 21
-4114.6373406701669
 31
0.0
  0
LINE
  5
141B
  8
SIZE
  6
CONTINUOUS
 62
     0
 10
304.49999999999989
 20
-3929.5456698998419
 30
0.0
 11
304.49999999999989
 21
-4114.6373406701669
 31
0.0
  0
LINE
  5
141C
  8
SIZE
  6
CONTINUOUS
 62
     0
 10
-340.5000000000008
 20
-4084.6373406701682
 30
0.0
 11
294.49999999999989
 21
-4084.6373406701682
 31
0.0
  0
INSERT
  5
141D
  8
SIZE
  6
CONTINUOUS
 62
     0
  2
_ORIGIN
 10
-350.50000000000068
 20
-4084.6373406701682
 30
0.0
 41
10.0
 42
10.0
 43
10.0
 50
180.0
  0
INSERT
  5
141E
  8
SIZE
  6
CONTINUOUS
 62
     0
  2
_ORIGIN
 10
304.49999999999989
 20
-4084.6373406701682
 30
0.0
 41
10.0
 42
10.0
 43
10.0
  0
TEXT
  5
141F
  8
DETAIL
  6
CONTINUOUS
 62
     0
 10
-97.057142857143248
 20
-4074.6373406701669
 30
0.0
 40
64.0
  1
655
 41
0.9
  0
POINT
  5
1420
  8
DEFPOINTS
  6
CONTINUOUS
 62
     0
 10
-350.50000000000068
 20
-3909.5456698998419
 30
0.0
  0
POINT
  5
1421
  8
DEFPOINTS
  6
CONTINUOUS
 62
     0
 10
304.49999999999989
 20
-3909.5456698998419
 30
0.0
  0
POINT
  5
1422
  8
DEFPOINTS
  6
CONTINUOUS
 62
     0
 10
304.49999999999989
 20
-4084.6373406701682
 30
0.0
  0
ENDBLK
  5
140E
  8
0
  0
BLOCK
  8
0
  2
*D77
 70
     1
 10
0.0
 20
0.0
 30
0.0
  3
*D77
  1

  0
LINE
  5
144C
  8
SIZE
  6
CONTINUOUS
 62
     0
 10
-428.49999999999989
 20
-195.0
 30
0.0
 11
-505.10323267387139
 21
-194.99999999999989
 31
0.0
  0
LINE
  5
144D
  8
SIZE
  6
CONTINUOUS
 62
     0
 10
-390.50000000000068
 20
-225.0
 30
0.0
 11
-505.10323267387139
 21
-224.99999999999989
 31
0.0
  0
LINE
  5
144E
  8
SIZE
  6
CONTINUOUS
 62
     0
 10
-475.10323267387139
 20
-184.99999999999989
 30
0.0
 11
-475.10323267387139
 21
-174.99999999999989
 31
0.0
  0
LINE
  5
144F
  8
SIZE
  6
CONTINUOUS
 62
     0
 10
-475.10323267387139
 20
-234.99999999999989
 30
0.0
 11
-475.10323267387139
 21
-358.2571428571427
 31
0.0
  0
LINE
  5
1450
  8
SIZE
  6
CONTINUOUS
 62
     0
 10
-475.10323267387139
 20
-194.99999999999989
 30
0.0
 11
-475.10323267387139
 21
-224.99999999999989
 31
0.0
  0
INSERT
  5
1451
  8
SIZE
  6
CONTINUOUS
 62
     0
  2
_ORIGIN
 10
-475.10323267387139
 20
-194.99999999999989
 30
0.0
 41
10.0
 42
10.0
 43
10.0
 50
270.0
  0
INSERT
  5
1452
  8
SIZE
  6
CONTINUOUS
 62
     0
  2
_ORIGIN
 10
-475.10323267387139
 20
-224.99999999999989
 30
0.0
 41
10.0
 42
10.0
 43
10.0
 50
90.0
  0
TEXT
  5
1453
  8
DETAIL
  6
CONTINUOUS
 62
     0
 10
-485.10323267387139
 20
-348.25714285714281
 30
0.0
 40
64.0
  1
30
 50
90.0
 41
0.9
  0
POINT
  5
1454
  8
DEFPOINTS
  6
CONTINUOUS
 62
     0
 10
-408.49999999999989
 20
-195.0
 30
0.0
  0
POINT
  5
1455
  8
DEFPOINTS
  6
CONTINUOUS
 62
     0
 10
-370.50000000000068
 20
-225.0
 30
0.0
  0
POINT
  5
1456
  8
DEFPOINTS
  6
CONTINUOUS
 62
     0
 10
-475.10323267387139
 20
-224.99999999999989
 30
0.0
  0
ENDBLK
  5
1440
  8
0
  0
BLOCK
  8
0
  2
*D78
 70
     1
 10
0.0
 20
0.0
 30
0.0
  3
*D78
  1

  0
LINE
  5
147B
  8
SIZE
  6
CONTINUOUS
 62
     0
 10
-428.49999999999989
 20
-3859.5456698998419
 30
0.0
 11
-505.47247902000947
 21
-3859.5456698998419
 31
0.0
  0
LINE
  5
147C
  8
SIZE
  6
CONTINUOUS
 62
     0
 10
-390.5000000000008
 20
-3889.5456698998419
 30
0.0
 11
-505.47247902000947
 21
-3889.5456698998419
 31
0.0
  0
LINE
  5
147D
  8
SIZE
  6
CONTINUOUS
 62
     0
 10
-475.47247902000947
 20
-3849.5456698998419
 30
0.0
 11
-475.47247902000947
 21
-3839.5456698998419
 31
0.0
  0
LINE
  5
147E
  8
SIZE
  6
CONTINUOUS
 62
     0
 10
-475.47247902000947
 20
-3899.5456698998419
 30
0.0
 11
-475.47247902000947
 21
-4022.8028127569842
 31
0.0
  0
LINE
  5
147F
  8
SIZE
  6
CONTINUOUS
 62
     0
 10
-475.47247902000947
 20
-3859.5456698998419
 30
0.0
 11
-475.47247902000947
 21
-3889.5456698998419
 31
0.0
  0
INSERT
  5
1480
  8
SIZE
  6
CONTINUOUS
 62
     0
  2
_ORIGIN
 10
-475.47247902000947
 20
-3859.5456698998419
 30
0.0
 41
10.0
 42
10.0
 43
10.0
 50
270.0
  0
INSERT
  5
1481
  8
SIZE
  6
CONTINUOUS
 62
     0
  2
_ORIGIN
 10
-475.47247902000947
 20
-3889.5456698998419
 30
0.0
 41
10.0
 42
10.0
 43
10.0
 50
90.0
  0
TEXT
  5
1482
  8
DETAIL
  6
CONTINUOUS
 62
     0
 10
-485.4724790200089
 20
-4012.8028127569851
 30
0.0
 40
64.0
  1
30
 50
90.0
 41
0.9
  0
POINT
  5
1483
  8
DEFPOINTS
  6
CONTINUOUS
 62
     0
 10
-408.49999999999989
 20
-3859.5456698998419
 30
0.0
  0
POINT
  5
1484
  8
DEFPOINTS
  6
CONTINUOUS
 62
     0
 10
-370.5000000000008
 20
-3889.5456698998419
 30
0.0
  0
POINT
  5
1485
  8
DEFPOINTS
  6
CONTINUOUS
 62
     0
 10
-475.47247902000947
 20
-3889.5456698998419
 30
0.0
  0
ENDBLK
  5
146F
  8
0
  0
BLOCK
  8
0
  2
*D79
 70
     1
 10
0.0
 20
0.0
 30
0.0
  3
*D79
  1

  0
LINE
  5
14AA
  8
SIZE
  6
CONTINUOUS
 62
     0
 10
1931.2654251900469
 20
-1812.2728349499209
 30
0.0
 11
1931.2654251900469
 21
-1712.434652508563
 31
0.0
  0
LINE
  5
14AB
  8
SIZE
  6
CONTINUOUS
 62
     0
 10
1961.2654251900481
 20
-1820.2728349499221
 30
0.0
 11
1961.2654251900481
 21
-1712.434652508563
 31
0.0
  0
LINE
  5
14AC
  8
SIZE
  6
CONTINUOUS
 62
     0
 10
1971.2654251900469
 20
-1742.434652508563
 30
0.0
 11
1981.2654251900481
 21
-1742.434652508563
 31
0.0
  0
LINE
  5
14AD
  8
SIZE
  6
CONTINUOUS
 62
     0
 10
1921.2654251900469
 20
-1742.434652508563
 30
0.0
 11
1798.0082823329039
 21
-1742.434652508563
 31
0.0
  0
LINE
  5
14AE
  8
SIZE
  6
CONTINUOUS
 62
     0
 10
1961.2654251900481
 20
-1742.434652508563
 30
0.0
 11
1931.2654251900469
 21
-1742.434652508563
 31
0.0
  0
INSERT
  5
14AF
  8
SIZE
  6
CONTINUOUS
 62
     0
  2
_ORIGIN
 10
1961.2654251900481
 20
-1742.434652508563
 30
0.0
 41
10.0
 42
10.0
 43
10.0
 50
180.0
  0
INSERT
  5
14B0
  8
SIZE
  6
CONTINUOUS
 62
     0
  2
_ORIGIN
 10
1931.2654251900469
 20
-1742.434652508563
 30
0.0
 41
10.0
 42
10.0
 43
10.0
  0
TEXT
  5
14B1
  8
DETAIL
  6
CONTINUOUS
 62
     0
 10
1808.0082823329051
 20
-1732.4346525085641
 30
0.0
 40
64.0
  1
30
 41
0.9
  0
POINT
  5
14B2
  8
DEFPOINTS
  6
CONTINUOUS
 62
     0
 10
1931.2654251900469
 20
-1832.2728349499209
 30
0.0
  0
POINT
  5
14B3
  8
DEFPOINTS
  6
CONTINUOUS
 62
     0
 10
1961.2654251900481
 20
-1840.2728349499221
 30
0.0
  0
POINT
  5
14B4
  8
DEFPOINTS
  6
CONTINUOUS
 62
     0
 10
1961.2654251900481
 20
-1742.434652508563
 30
0.0
  0
ENDBLK
  5
149E
  8
0
  0
BLOCK
  8
0
  2
*D80
 70
     1
 10
0.0
 20
0.0
 30
0.0
  3
*D80
  1

  0
LINE
  5
15CA
  8
SIZE
  6
CONTINUOUS
 62
     0
 10
194.99999999999969
 20
11.999999999999771
 30
0.0
 11
194.99999999999969
 21
119.39513295783939
 31
0.0
  0
LINE
  5
15CB
  8
SIZE
  6
CONTINUOUS
 62
     0
 10
225.0
 20
20.0
 30
0.0
 11
225.0
 21
119.39513295783939
 31
0.0
  0
LINE
  5
15CC
  8
SIZE
  6
CONTINUOUS
 62
     0
 10
184.99999999999969
 20
89.395132957839436
 30
0.0
 11
174.99999999999969
 21
89.395132957839436
 31
0.0
  0
LINE
  5
15CD
  8
SIZE
  6
CONTINUOUS
 62
     0
 10
235.0
 20
89.395132957839436
 30
0.0
 11
358.25714285714281
 21
89.395132957839436
 31
0.0
  0
LINE
  5
15CE
  8
SIZE
  6
CONTINUOUS
 62
     0
 10
194.99999999999969
 20
89.395132957839436
 30
0.0
 11
225.0
 21
89.395132957839436
 31
0.0
  0
INSERT
  5
15CF
  8
SIZE
  6
CONTINUOUS
 62
     0
  2
_ORIGIN
 10
194.99999999999969
 20
89.395132957839436
 30
0.0
 41
10.0
 42
10.0
 43
10.0
  0
INSERT
  5
15D0
  8
SIZE
  6
CONTINUOUS
 62
     0
  2
_ORIGIN
 10
225.0
 20
89.395132957839436
 30
0.0
 41
10.0
 42
10.0
 43
10.0
 50
180.0
  0
TEXT
  8
0
  40
64
  5
15DF
  62
0
  72
0
  71
0
 10
173.629
 20
18.1151
 30
0.000000
  1
30
  0
POINT
  5
15D2
  8
DEFPOINTS
  6
CONTINUOUS
 62
     0
 10
194.99999999999969
 20
-8.0000000000002274
 30
0.0
  0
POINT
  5
15D3
  8
DEFPOINTS
  6
CONTINUOUS
 62
     0
 10
225.0
 20
0.0
 30
0.0
  0
POINT
  5
15D4
  8
DEFPOINTS
  6
CONTINUOUS
 62
     0
 10
225.0
 20
89.395132957839436
 30
0.0
  0
ENDBLK
  5
14CD
  8
0
  0
ENDSEC
  0
SECTION
  2
ENTITIES
  0
TEXT
  5
364
  8
ETC
  6
CONTINUOUS
 10
491.724817014167
 20
711.30986369001812
 30
0.0
 40
64.0
  1
HAC
 41
0.9
  0
TEXT
  5
365
  8
ETC
  6
CONTINUOUS
 10
497.07380001416709
 20
591.77905069001804
 30
0.0
 40
64.0
  1
SMBZ2795
 41
0.9
  0
LINE
  5
D05
  8
NOTE
  6
CONTINUOUS
 10
-348.85093302379107
 20
-347.92583830267807
 30
0.0
 11
-738.51591822393402
 21
-347.92583830267807
 31
0.0
  0
LINE
  5
D06
  8
NOTE
  6
CONTINUOUS
 10
-343.4849298977519
 20
-470.24375023764782
 30
0.0
 11
-723.25637483902835
 21
-470.24375023764782
 31
0.0
  0
TEXT
  5
D07
  8
NOTE
  6
CONTINUOUS
 10
-711.0570684104573
 20
-449.70633523764798
 30
0.0
 40
64.0
  1
RL%%C6.35　　　　　　　 
 41
0.9
  0
TEXT
  5
D08
  8
NOTE
  6
CONTINUOUS
 10
-725.96968436679106
 20
-328.15840430267821
 30
0.0
 40
64.0
  1
RG%%C9.52
 41
0.9
  0
DIMENSION
  5
D09
  8
SIZE
  6
CONTINUOUS
  2
*D50
 10
-579.06711153588356
 20
-229.9999999999998
 30
0.0
 11
-621.06711153588356
 21
-130.00000000000031
 31
0.0
 70
     0
 13
-360.0
 23
-30.000000000000679
 33
0.0
 14
-225.0
 24
-230.0
 34
0.0
 50
90.0
1001
ACAD
1000
DSTYLE
1002
{
1070
    41
1040
10.0
1070
    42
1040
20.0
1070
    43
1040
200.0
1070
    44
1040
30.0
1070
    73
1070
     0
1070
    74
1070
     0
1070
    77
1070
     1
1070
    78
1070
     8
1070
   140
1040
64.0
1070
   147
1040
10.0
1070
   172
1070
     1
1070
   174
1070
     1
1070
   341
1005
489
1070
     5
1000
ORIGIN
1002
}
  0
TEXT
  5
D0A
  8
NOTE
  6
CONTINUOUS
 10
-736.86925825786739
 20
116.96039221640029
 30
0.0
 40
64.0
  1
D VP20　　　　 
 41
0.9
  0
LINE
  5
D0B
  8
NOTE
  6
CONTINUOUS
 10
-745.24981975477647
 20
96.11117821640029
 30
0.0
 11
-430.73583888286021
 21
96.11117821640029
 31
0.0
  0
LINE
  5
D0C
  8
NOTE
  6
CONTINUOUS
 10
-343.4849298977519
 20
-470.24375023764782
 30
0.0
 11
-96.351435862851304
 21
-109.01950989000051
 31
0.0
  0
DIMENSION
  5
D0D
  8
SIZE
  6
CONTINUOUS
  2
*D47
 10
-96.000000000000014
 20
-373.85644562218113
 30
0.0
 11
64.5
 21
-331.85644562218113
 31
0.0
 70
     0
 13
225.0
 23
-230.0
 33
0.0
 14
-96.0
 24
-129.0000000000006
 34
0.0
 50
180.0
1001
ACAD
1000
DSTYLE
1002
{
1070
    41
1040
10.0
1070
    42
1040
20.0
1070
    43
1040
200.0
1070
    44
1040
30.0
1070
    73
1070
     0
1070
    74
1070
     0
1070
    77
1070
     1
1070
    78
1070
     8
1070
   140
1040
64.0
1070
   147
1040
10.0
1070
   172
1070
     1
1070
   174
1070
     1
1070
   341
1005
489
1070
     5
1000
ORIGIN
1002
}
  0
LINE
  5
D0E
  8
NOTE
  6
CONTINUOUS
 10
471.27728119389229
 20
160.13863032885251
 30
0.0
 11
194.99999999999969
 21
-28.00000000000022
 31
0.0
  0
LINE
  5
D0F
  8
NOTE
  6
CONTINUOUS
 10
194.99999999999969
 20
-28.00000000000022
 30
0.0
 11
231.8215784449996
 21
-12.37401526502731
 31
0.0
  0
LINE
  5
D10
  8
NOTE
  6
CONTINUOUS
 10
194.99999999999969
 20
-28.00000000000022
 30
0.0
 11
219.075428833247
 21
3.9432885175629049
 31
0.0
  0
DIMENSION
  5
D12
  8
SIZE
  6
CONTINUOUS
  2
*D45
 10
-225.0
 20
215.01267250754779
 30
0.0
 11
0.0000000000000026
 21
257.01267250754779
 31
0.0
 70
     0
 13
225.0
 23
0.0
 33
0.0
 14
-225.0
 24
0.0
 34
0.0
 50
180.0
1001
ACAD
1000
DSTYLE
1002
{
1070
    41
1040
10.0
1070
    42
1040
20.0
1070
    43
1040
200.0
1070
    44
1040
30.0
1070
    73
1070
     0
1070
    74
1070
     0
1070
    77
1070
     1
1070
    78
1070
     8
1070
   140
1040
64.0
1070
   147
1040
10.0
1070
   172
1070
     1
1070
   174
1070
     1
1070
   341
1005
489
1070
     5
1000
ORIGIN
1002
}
  0
DIMENSION
  5
D13
  8
SIZE
  6
CONTINUOUS
  2
*D44
 10
194.99999999999969
 20
89.299362808883174
 30
0.0
 11
-4.000000000000111
 21
131.2993628088831
 31
0.0
 70
     0
 13
-203.0
 23
-8.0000000000002274
 33
0.0
 14
194.99999999999969
 24
-8.0000000000002274
 34
0.0
 50
180.0
1001
ACAD
1000
DSTYLE
1002
{
1070
    41
1040
10.0
1070
    42
1040
20.0
1070
    43
1040
200.0
1070
    44
1040
30.0
1070
    73
1070
     0
1070
    74
1070
     0
1070
    77
1070
     1
1070
    78
1070
     8
1070
   140
1040
64.0
1070
   147
1040
10.0
1070
   172
1070
     1
1070
   174
1070
     1
1070
   341
1005
489
1070
     5
1000
ORIGIN
1002
}
  0
LINE
  5
D14
  8
NOTE
  6
CONTINUOUS
 10
214.99999999999969
 20
-28.00000000000022
 30
0.0
 11
174.99999999999969
 21
-28.00000000000022
 31
0.0
  0
LINE
  5
D15
  8
DETAIL
  6
CONTINUOUS
 10
222.99999999999969
 20
-28.00000000000022
 30
0.0
 11
174.99999999999969
 21
-28.00000000000022
 31
0.0
  0
LINE
  5
D16
  8
DETAIL
  6
CONTINUOUS
 10
223.0
 20
-22.999999999999542
 30
0.0
 11
174.99999999999969
 21
-22.999999999999542
 31
0.0
  0
LINE
  5
D17
  8
DETAIL
  6
CONTINUOUS
 10
-225.0
 20
-230.0
 30
0.0
 11
225.0
 21
-230.0
 31
0.0
  0
LINE
  5
D18
  8
DETAIL
  6
CONTINUOUS
 10
-225.0
 20
0.0
 30
0.0
 11
225.0
 21
0.0
 31
0.0
  0
LINE
  5
D1A
  8
DETAIL
  6
CONTINUOUS
 10
225.0
 20
0.0
 30
0.0
 11
225.0
 21
-230.0
 31
0.0
  0
LINE
  5
D1B
  8
DETAIL
  6
CONTINUOUS
 10
223.0
 20
-22.999999999999542
 30
0.0
 11
222.99999999999969
 21
-28.00000000000022
 31
0.0
  0
LINE
  5
D1C
  8
NOTE
  6
CONTINUOUS
 10
725.81189479815066
 20
160.13863032885251
 30
0.0
 11
471.27728119389229
 21
160.13863032885251
 31
0.0
  0
TEXT
  5
D1D
  8
NOTE
  6
CONTINUOUS
 10
579.24992696699064
 20
183.52826002187311
 30
0.0
 40
64.0
  1
AH
 41
0.9
  0
DIMENSION
  5
D1E
  8
SIZE
  6
CONTINUOUS
  2
*D46
 10
-340.0
 20
214.98432904812759
 30
0.0
 11
-282.5
 21
256.98432904812762
 31
0.0
 70
     0
 13
-225.0
 23
0.0
 33
0.0
 14
-340.0
 24
-10.00000000000068
 34
0.0
 50
180.0
1001
ACAD
1000
DSTYLE
1002
{
1070
    41
1040
10.0
1070
    42
1040
20.0
1070
    43
1040
200.0
1070
    44
1040
30.0
1070
    73
1070
     0
1070
    74
1070
     0
1070
    77
1070
     1
1070
    78
1070
     8
1070
   140
1040
64.0
1070
   147
1040
10.0
1070
   172
1070
     1
1070
   174
1070
     1
1070
   341
1005
489
1070
     5
1000
ORIGIN
1002
}
  0
LINE
  5
D1F
  8
NOTE
  6
CONTINUOUS
 10
-430.73583888286021
 20
96.11117821640029
 30
0.0
 11
-340.0
 21
-30.0
 31
0.0
  0
LINE
  5
D20
  8
BASIS
  6
DASHDOT
 10
0.0
 20
-330.28075499999971
 30
0.0
 11
0.0
 21
56.889231999999993
 31
0.0
  0
CIRCLE
  5
D21
  8
ARRANGE
  6
CONTINUOUS
 10
0.0
 20
0.0
 30
0.0
 40
40.0
  0
POINT
  5
D22
  8
ARRANGE
  6
DASHDOT
 10
0.0
 20
0.0
 30
0.0
  0
LINE
  5
D29
  8
NOTE
  6
CONTINUOUS
 10
-348.85093302379107
 20
-347.92583830267807
 30
0.0
 11
-95.999999999999545
 21
-84.999999999999758
 31
0.0
  0
DIMENSION
  5
D2A
  8
SIZE
  6
CONTINUOUS
  2
*D49
 10
-334.99543790590718
 20
-109.0000000000006
 30
0.0
 11
-334.99543790590718
 21
-187.00000000000091
 31
0.0
 70
   128
 13
-116.0
 23
-85.000000000000696
 33
0.0
 14
-116.0
 24
-109.0000000000006
 34
0.0
 50
90.0
1001
ACAD
1000
DSTYLE
1002
{
1070
    41
1040
10.0
1070
    42
1040
20.0
1070
    43
1040
200.0
1070
    44
1040
30.0
1070
    73
1070
     0
1070
    74
1070
     0
1070
    77
1070
     1
1070
    78
1070
     8
1070
   140
1040
64.0
1070
   147
1040
10.0
1070
   172
1070
     1
1070
   174
1070
     1
1070
   341
1005
489
1070
     5
1000
ORIGIN
1002
}
  0
DIMENSION
  5
D2B
  8
SIZE
  6
CONTINUOUS
  2
*D48
 10
-451.71156569566853
 20
-229.99999999999989
 30
0.0
 11
-451.71156569566853
 21
-157.50000000000031
 31
0.0
 70
   128
 13
-116.0
 23
-85.000000000000696
 33
0.0
 14
-225.0
 24
-230.0
 34
0.0
 50
90.0
1001
ACAD
1000
DSTYLE
1002
{
1070
    41
1040
10.0
1070
    42
1040
20.0
1070
    43
1040
200.0
1070
    44
1040
30.0
1070
    73
1070
     0
1070
    74
1070
     0
1070
    77
1070
     1
1070
    78
1070
     8
1070
   140
1040
64.0
1070
   147
1040
10.0
1070
   172
1070
     1
1070
   174
1070
     1
1070
   341
1005
489
1070
     5
1000
ORIGIN
1002
}
  0
LINE
  5
D2F
  8
NOTE
  6
CONTINUOUS
 10
194.99999999999969
 20
-8.0000000000002274
 30
0.0
 11
194.99999999999969
 21
-48.00000000000022
 31
0.0
  0
LINE
  5
D30
  8
DETAIL
  6
CONTINUOUS
 10
174.99999999999969
 20
-22.999999999999542
 30
0.0
 11
174.99999999999969
 21
-28.00000000000022
 31
0.0
  0
LINE
  5
D31
  8
NOTE
  6
CONTINUOUS
 10
-95.999999999999545
 20
-84.999999999999758
 30
0.0
 11
-115.3196548769192
 21
-120.0250035460455
 31
0.0
  0
LINE
  5
D32
  8
NOTE
  6
CONTINUOUS
 10
-95.999999999999545
 20
-84.999999999999758
 30
0.0
 11
-130.24381371018529
 21
-105.67271535749271
 31
0.0
  0
LINE
  5
D33
  8
NOTE
  6
CONTINUOUS
 10
-96.0
 20
-89.000000000000668
 30
0.0
 11
-96.0
 21
-129.0000000000006
 31
0.0
  0
LINE
  5
D34
  8
NOTE
  6
CONTINUOUS
 10
-96.0
 20
-65.000000000000682
 30
0.0
 11
-96.0
 21
-105.0000000000006
 31
0.0
  0
LINE
  5
D3A
  8
NOTE
  6
CONTINUOUS
 10
-96.351435862851304
 20
-109.01950989000051
 30
0.0
 11
-109.62351844658041
 21
-146.75347021560779
 31
0.0
  0
LINE
  5
D3B
  8
NOTE
  6
CONTINUOUS
 10
-96.351435862851304
 20
-109.01950989000051
 30
0.0
 11
-126.7123767324246
 21
-135.06203678706029
 31
0.0
  0
LINE
  5
D3C
  8
NOTE
  6
CONTINUOUS
 10
-76.0
 20
-109.0000000000006
 30
0.0
 11
-116.0
 21
-109.0000000000006
 31
0.0
  0
LINE
  5
D40
  8
NOTE
  6
CONTINUOUS
 10
-76.0
 20
-85.000000000000696
 30
0.0
 11
-116.0
 21
-85.000000000000696
 31
0.0
  0
LINE
  5
D42
  8
DETAIL
  6
CONTINUOUS
 10
-225.0
 20
0.0
 30
0.0
 11
-225.0
 21
-230.0
 31
0.0
  0
LINE
  5
D43
  8
NOTE
  6
CONTINUOUS
 10
-340.0
 20
-30.0
 30
0.0
 11
-356.57223503715062
 21
6.4055087039359933
 31
0.0
  0
LINE
  5
D44
  8
NOTE
  6
CONTINUOUS
 10
-340.0
 20
-30.0
 30
0.0
 11
-372.55473041774428
 21
-6.7580232714803961
 31
0.0
  0
LINE
  5
D45
  8
NOTE
  6
CONTINUOUS
 10
-320.0
 20
-30.000000000000679
 30
0.0
 11
-360.0
 21
-30.000000000000679
 31
0.0
  0
LINE
  5
D47
  8
DETAIL
  6
CONTINUOUS
 10
-174.99999999999949
 20
-22.999999999999542
 30
0.0
 11
-174.99999999999949
 21
-28.000000000000451
 31
0.0
  0
LINE
  5
D4C
  8
DETAIL
  6
CONTINUOUS
 10
-340.0
 20
-14.0
 30
0.0
 11
-225.0
 21
-14.0
 31
0.0
  0
LINE
  5
D4D
  8
DETAIL
  6
CONTINUOUS
 10
-340.0
 20
-46.0
 30
0.0
 11
-225.0
 21
-46.0
 31
0.0
  0
LINE
  5
D4E
  8
NOTE
  6
CONTINUOUS
 10
-203.0
 20
-8.0000000000002274
 30
0.0
 11
-203.0
 21
-48.00000000000022
 31
0.0
  0
LINE
  5
D4F
  8
NOTE
  6
CONTINUOUS
 10
-183.0
 20
-28.00000000000022
 30
0.0
 11
-223.0
 21
-28.00000000000022
 31
0.0
  0
LINE
  5
D50
  8
DETAIL
  6
CONTINUOUS
 10
-223.0
 20
-22.999999999999542
 30
0.0
 11
-223.0
 21
-28.00000000000022
 31
0.0
  0
LINE
  5
D51
  8
DETAIL
  6
CONTINUOUS
 10
-174.99999999999949
 20
-28.000000000000451
 30
0.0
 11
-223.0
 21
-28.00000000000022
 31
0.0
  0
LINE
  5
D52
  8
DETAIL
  6
CONTINUOUS
 10
-174.99999999999949
 20
-22.999999999999542
 30
0.0
 11
-223.0
 21
-22.999999999999542
 31
0.0
  0
LINE
  5
D53
  8
NOTE
  6
CONTINUOUS
 10
-340.0
 20
-10.00000000000068
 30
0.0
 11
-340.0
 21
-50.000000000000682
 31
0.0
  0
LINE
  5
D54
  8
DETAIL
  6
CONTINUOUS
 10
-340.0
 20
-14.0
 30
0.0
 11
-340.0
 21
-46.0
 31
0.0
  0
LINE
  5
116F
  8
OUTLINE
  6
CONTINUOUS
 10
-340.0
 20
-46.0
 30
0.0
 11
-225.0
 21
-46.0
 31
0.0
  0
LINE
  5
1170
  8
OUTLINE
  6
CONTINUOUS
 10
-340.0
 20
-14.0
 30
0.0
 11
-225.0
 21
-14.0
 31
0.0
  0
LINE
  5
1171
  8
OUTLINE
  6
CONTINUOUS
 10
-340.0
 20
-14.0
 30
0.0
 11
-340.0
 21
-46.0
 31
0.0
  0
LINE
  5
1172
  8
OUTLINE
  6
CONTINUOUS
 10
-225.0
 20
0.0
 30
0.0
 11
225.0
 21
0.0
 31
0.0
  0
LINE
  5
1173
  8
OUTLINE
  6
CONTINUOUS
 10
-225.0
 20
-230.0
 30
0.0
 11
225.0
 21
-230.0
 31
0.0
  0
LINE
  5
1174
  8
OUTLINE
  6
CONTINUOUS
 10
-225.0
 20
0.0
 30
0.0
 11
-225.0
 21
-14.0
 31
0.0
  0
LINE
  5
1179
  8
OUTLINE
  6
CONTINUOUS
 10
225.0
 20
0.0
 30
0.0
 11
225.0
 21
-230.0
 31
0.0
  0
LINE
  5
117E
  8
OUTLINE
  6
CONTINUOUS
 10
-225.0
 20
-46.0
 30
0.0
 11
-225.0
 21
-230.0
 31
0.0
  0
LINE
  5
139D
  8
NOTE
  6
CONTINUOUS
 10
410.59273315848071
 20
31.79816260658481
 30
0.0
 11
225.0
 21
-48.000000000000682
 31
0.0
  0
DIMENSION
  5
139E
  8
SIZE
  6
CONTINUOUS
  2
*D73
 10
349.12819320999358
 20
-157.00000000000091
 30
0.0
 11
349.1281932099937
 21
-299.46615270260548
 31
0.0
 70
   128
 13
225.0
 23
-230.0
 33
0.0
 14
244.99999999999949
 24
-157.00000000000091
 34
0.0
 50
90.0
1001
ACAD
1000
DSTYLE
1002
{
1070
    41
1040
10.0
1070
    42
1040
20.0
1070
    43
1040
200.0
1070
    44
1040
30.0
1070
    73
1070
     0
1070
    74
1070
     0
1070
    77
1070
     1
1070
    78
1070
     8
1070
   140
1040
64.0
1070
   147
1040
10.0
1070
   172
1070
     1
1070
   174
1070
     1
1070
   341
1005
489
1070
     5
1000
ORIGIN
1002
}
  0
DIMENSION
  5
139F
  8
SIZE
  6
CONTINUOUS
  2
*D72
 10
459.03384356164128
 20
-28.000000000000981
 30
0.0
 11
459.03384356164128
 21
-127.36048227711029
 31
0.0
 70
   128
 13
225.0
 23
-230.0
 33
0.0
 14
218.99999999999969
 24
-28.000000000000909
 34
0.0
 50
90.0
1001
ACAD
1000
DSTYLE
1002
{
1070
    41
1040
10.0
1070
    42
1040
20.0
1070
    43
1040
200.0
1070
    44
1040
30.0
1070
    73
1070
     0
1070
    74
1070
     0
1070
    77
1070
     1
1070
    78
1070
     8
1070
   140
1040
64.0
1070
   147
1040
10.0
1070
   172
1070
     1
1070
   174
1070
     1
1070
   341
1005
489
1070
     5
1000
ORIGIN
1002
}
  0
DIMENSION
  5
13A0
  8
SIZE
  6
CONTINUOUS
  2
*D74
 10
349.12819320999358
 20
-157.00000000000091
 30
0.0
 11
349.1281932099937
 21
-128.1141713042725
 31
0.0
 70
   128
 13
245.00000000000091
 23
-48.000000000000682
 33
0.0
 14
244.99999999999949
 24
-157.00000000000091
 34
0.0
 50
90.0
1001
ACAD
1000
DSTYLE
1002
{
1070
    41
1040
10.0
1070
    42
1040
20.0
1070
    43
1040
200.0
1070
    44
1040
30.0
1070
    73
1070
     0
1070
    74
1070
     0
1070
    77
1070
     1
1070
    78
1070
     8
1070
   140
1040
64.0
1070
   147
1040
10.0
1070
   172
1070
     1
1070
   174
1070
     1
1070
   341
1005
489
1070
     5
1000
ORIGIN
1002
}
  0
LINE
  5
13A1
  8
NOTE
  6
CONTINUOUS
 10
785.00944246423376
 20
31.79816260658481
 30
0.0
 11
410.59273315848071
 21
31.79816260658481
 31
0.0
  0
TEXT
  5
13A2
  8
NOTE
  6
CONTINUOUS
 10
457.83010518390029
 20
52.3355776065846
 30
0.0
 40
64.0
  1
4-φ2.9　　　　　　 
 41
0.9
  0
LINE
  5
13A3
  8
NOTE
  6
CONTINUOUS
 10
245.00000000000091
 20
-48.000000000000682
 30
0.0
 11
205.00000000000091
 21
-48.000000000000682
 31
0.0
  0
LINE
  5
13A4
  8
NOTE
  6
CONTINUOUS
 10
225.0
 20
-48.000000000000682
 30
0.0
 11
254.7225700257695
 21
-21.231197526145252
 31
0.0
  0
LINE
  5
13A5
  8
NOTE
  6
CONTINUOUS
 10
225.0
 20
-48.000000000000682
 30
0.0
 11
264.12490309718441
 21
-39.6788224538343
 31
0.0
  0
LINE
  5
13A6
  8
NOTE
  6
CONTINUOUS
 10
244.99999999999949
 20
-157.00000000000091
 30
0.0
 11
204.99999999999949
 21
-157.00000000000091
 31
0.0
  0
LINE
  5
13A7
  8
NOTE
  6
CONTINUOUS
 10
225.00000000000091
 20
-28.000000000000679
 30
0.0
 11
225.00000000000091
 21
-68.000000000000682
 31
0.0
  0
LINE
  5
13A8
  8
NOTE
  6
CONTINUOUS
 10
224.99999999999949
 20
-137.00000000000091
 30
0.0
 11
224.99999999999949
 21
-177.00000000000091
 31
0.0
  0
DIMENSION
  5
14BF
  8
SIZE
  6
CONTINUOUS
  2
*D80
 10
225.0
 20
89.395132957839436
 30
0.0
 11
301.62857142857138
 21
89.395132957839436
 31
0.0
 70
   128
 13
194.99999999999969
 23
-8.0000000000002274
 33
0.0
 14
225.0
 24
0.0
 34
0.0
1001
ACAD
1000
DSTYLE
1002
{
1070
    41
1040
10.0
1070
    42
1040
20.0
1070
    43
1040
200.0
1070
    44
1040
30.0
1070
    73
1070
     0
1070
    74
1070
     0
1070
    77
1070
     1
1070
    78
1070
     8
1070
   140
1040
64.0
1070
   147
1040
10.0
1070
   172
1070
     1
1070
   174
1070
     1
1070
   341
1005
489
1070
     5
1000
ORIGIN
1002
}
  0
ENDSEC
  0
EOF
