  0
SECTION
  2
HEADER
  9
$ACADVER
  1
AC1009
  9
$INSBASE
 10
0.0
 20
0.0
 30
0.0
  9
$EXTMIN
 10
-807.98260009202204
 20
-683.85635873892227
 30
0.0
  9
$EXTMAX
 10
1057.9976587515339
 20
522.52627535716897
 30
0.0
  9
$LIMMIN
 10
-7701.482809615668
 20
-4596.4805514776708
  9
$LIMMAX
 10
1918.227734001724
 20
1602.2214079801161
  9
$ORTHOMODE
 70
     1
  9
$REGENMODE
 70
     1
  9
$FILLMODE
 70
     1
  9
$QTEXTMODE
 70
     0
  9
$MIRRTEXT
 70
     0
  9
$DRAGMODE
 70
     2
  9
$LTSCALE
 40
20.0
  9
$OSMODE
 70
    37
  9
$ATTMODE
 70
     1
  9
$TEXTSIZE
 40
64.0
  9
$TRACEWID
 40
0.05
  9
$TEXTSTYLE
  7
STANDARD
  9
$CLAYER
  8
SIZE
  9
$CELTYPE
  6
CONTINUOUS
  9
$CECOLOR
 62
   256
  9
$DIMSCALE
 40
1.0
  9
$DIMASZ
 40
10.0
  9
$DIMEXO
 40
20.0
  9
$DIMDLI
 40
200.0
  9
$DIMRND
 40
0.0
  9
$DIMDLE
 40
0.0
  9
$DIMEXE
 40
20.0
  9
$DIMTP
 40
0.0
  9
$DIMTM
 40
0.0
  9
$DIMTXT
 40
64.0
  9
$DIMCEN
 40
0.082
  9
$DIMTSZ
 40
0.0
  9
$DIMTOL
 70
     0
  9
$DIMLIM
 70
     0
  9
$DIMTIH
 70
     0
  9
$DIMTOH
 70
     0
  9
$DIMSE1
 70
     0
  9
$DIMSE2
 70
     0
  9
$DIMTAD
 70
     1
  9
$DIMZIN
 70
     8
  9
$DIMBLK
  1
ORIGIN
  9
$DIMASO
 70
     1
  9
$DIMSHO
 70
     0
  9
$DIMPOST
  1

  9
$DIMAPOST
  1

  9
$DIMALT
 70
     0
  9
$DIMALTD
 70
     2
  9
$DIMALTF
 40
25.399999999999999
  9
$DIMLFAC
 40
1.0
  9
$DIMTOFL
 70
     1
  9
$DIMTVP
 40
0.0
  9
$DIMTIX
 70
     0
  9
$DIMSOXD
 70
     0
  9
$DIMSAH
 70
     0
  9
$DIMBLK1
  1

  9
$DIMBLK2
  1

  9
$DIMSTYLE
  2
STANDARD
  9
$DIMCLRD
 70
     0
  9
$DIMCLRE
 70
     0
  9
$DIMCLRT
 70
     0
  9
$DIMTFAC
 40
1.0
  9
$DIMGAP
 40
10.0
  9
$LUNITS
 70
     2
  9
$LUPREC
 70
     4
  9
$SKETCHINC
 40
0.1
  9
$FILLETRAD
 40
5.0
  9
$AUNITS
 70
     1
  9
$AUPREC
 70
     3
  9
$MENU
  1
ACAD
  9
$ELEVATION
 40
0.0
  9
$PELEVATION
 40
0.0
  9
$THICKNESS
 40
0.0
  9
$LIMCHECK
 70
     0
  9
$BLIPMODE
 70
     0
  9
$CHAMFERA
 40
0.0
  9
$CHAMFERB
 40
0.0
  9
$SKPOLY
 70
     0
  9
$TDCREATE
 40
2450330.3932059952
  9
$TDUPDATE
 40
2453090.6489817011
  9
$TDINDWG
 40
0.4481798032
  9
$TDUSRTIMER
 40
0.4481795718
  9
$USRTIMER
 70
     1
  9
$ANGBASE
 50
0.0
  9
$ANGDIR
 70
     0
  9
$PDMODE
 70
     3
  9
$PDSIZE
 40
-2.0
  9
$PLINEWID
 40
0.0
  9
$COORDS
 70
     1
  9
$SPLFRAME
 70
     0
  9
$SPLINETYPE
 70
     6
  9
$SPLINESEGS
 70
     8
  9
$ATTDIA
 70
     0
  9
$ATTREQ
 70
     1
  9
$HANDLING
 70
 10241
  9
$HANDSEED
  5
92B1
  9
$SURFTAB1
 70
     6
  9
$SURFTAB2
 70
     6
  9
$SURFTYPE
 70
     6
  9
$SURFU
 70
     6
  9
$SURFV
 70
     6
  9
$UCSNAME
  2

  9
$UCSORG
 10
0.0
 20
0.0
 30
0.0
  9
$UCSXDIR
 10
1.0
 20
0.0
 30
0.0
  9
$UCSYDIR
 10
0.0
 20
1.0
 30
0.0
  9
$PUCSNAME
  2

  9
$PUCSORG
 10
0.0
 20
0.0
 30
0.0
  9
$PUCSXDIR
 10
1.0
 20
0.0
 30
0.0
  9
$PUCSYDIR
 10
0.0
 20
1.0
 30
0.0
  9
$USERI1
 70
     0
  9
$USERI2
 70
     0
  9
$USERI3
 70
     0
  9
$USERI4
 70
     0
  9
$USERI5
 70
     0
  9
$USERR1
 40
20.0
  9
$USERR2
 40
0.0
  9
$USERR3
 40
0.0
  9
$USERR4
 40
0.0
  9
$USERR5
 40
0.0
  9
$WORLDVIEW
 70
     1
  9
$SHADEDGE
 70
     3
  9
$SHADEDIF
 70
    70
  9
$TILEMODE
 70
     1
  9
$MAXACTVP
 70
    64
  9
$PLIMCHECK
 70
     0
  9
$PEXTMIN
 10
1.0000000000000000E+020
 20
1.0000000000000000E+020
 30
1.0000000000000000E+020
  9
$PEXTMAX
 10
-1.0000000000000000E+020
 20
-1.0000000000000000E+020
 30
-1.0000000000000000E+020
  9
$PLIMMIN
 10
0.0
 20
0.0
  9
$PLIMMAX
 10
12.0
 20
9.0
  9
$UNITMODE
 70
     0
  9
$VISRETAIN
 70
     1
  9
$PLINEGEN
 70
     0
  9
$PSLTSCALE
 70
     1
  0
ENDSEC
  0
SECTION
  2
TABLES
  0
TABLE
  2
VPORT
 70
     2
  0
VPORT
  2
*ACTIVE
 70
     0
 10
0.0
 20
0.0
 11
1.0
 21
1.0
 12
444.37193382112832
 22
-158.38938059661811
 13
0.0
 23
0.0
 14
50.0
 24
50.0
 15
100.0
 25
100.0
 16
0.0
 26
0.0
 36
1.0
 17
0.0
 27
0.0
 37
0.0
 40
2240.8107343791012
 41
1.5100250626566409
 42
50.0
 43
0.0
 44
0.0
 50
0.0
 51
0.0
 71
     0
 72
   500
 73
     1
 74
     0
 75
     0
 76
     0
 77
     0
 78
     0
  0
ENDTAB
  0
TABLE
  2
LTYPE
 70
    15
  0
LTYPE
  2
CONTINUOUS
 70
     0
  3
Ä└É³
 72
    65
 73
     0
 40
0.0
  0
LTYPE
  2
DASHDOT
 70
     0
  3
____ _ ____ _ ____ _ ____ _ ____ _ ____ _ ____
 72
    65
 73
     4
 40
5.5
 49
4.0
 49
-0.6
 49
0.3
 49
-0.6
  0
LTYPE
  2
CONTINOUS
 70
     0
  3
Solid line
 72
    65
 73
     0
 40
0.0
  0
LTYPE
  2
BORDER
 70
     0
  3
BORDER
 72
    65
 73
     6
 40
1.75
 49
0.5
 49
-0.25
 49
0.5
 49
-0.25
 49
0.0
 49
-0.25
  0
LTYPE
  2
CENTER
 70
     0
  3
CENTER
 72
    65
 73
     4
 40
2.0
 49
1.25
 49
-0.25
 49
0.25
 49
-0.25
  0
LTYPE
  2
DASHED
 70
     0
  3
DASHED
 72
    65
 73
     2
 40
0.75
 49
0.5
 49
-0.25
  0
LTYPE
  2
DIVIDE
 70
     0
  3
DIVIDE
 72
    65
 73
     6
 40
1.25
 49
0.5
 49
-0.25
 49
0.0
 49
-0.25
 49
0.0
 49
-0.25
  0
LTYPE
  2
DOT
 70
     0
  3
DOT
 72
    65
 73
     2
 40
0.25
 49
0.0
 49
-0.25
  0
LTYPE
  2
HIDDEN
 70
     0
  3
HIDDEN
 72
    65
 73
     2
 40
0.375
 49
0.25
 49
-0.125
  0
LTYPE
  2
PHANTOM
 70
     0
  3
PHANTOM
 72
    65
 73
     6
 40
2.5
 49
1.25
 49
-0.25
 49
0.25
 49
-0.25
 49
0.25
 49
-0.25
  0
LTYPE
  2
$INVISIBLE
 70
     0
  3
$INVISIBLE
 72
    65
 73
     2
 40
200.0
 49
-100.0
 49
-100.0
  0
LTYPE
  2
$MARGINS
 70
     0
  3
$MARGINS
 72
    65
 73
     2
 40
0.075
 49
0.05
 49
-0.025
  0
LTYPE
  2
JLSTYLE_0
 70
     0
  3
JLSTYLE_0
 72
    65
 73
     4
 40
1.0
 49
0.5
 49
-0.25
 49
0.0
 49
-0.25
  0
LTYPE
  2
JLSTYLE_1
 70
     0
  3
JLSTYLE_1
 72
    65
 73
     2
 40
0.75
 49
0.5
 49
-0.25
  0
LTYPE
  2
JLSTYLE_2
 70
     0
  3
JLSTYLE_2
 72
    65
 73
     6
 40
1.25
 49
0.5
 49
-0.25
 49
0.0
 49
-0.25
 49
0.0
 49
-0.25
  0
ENDTAB
  0
TABLE
  2
LAYER
 70
    14
  0
LAYER
  2
0
 70
     0
 62
     7
  6
CONTINUOUS
  0
LAYER
  2
SIZE
 70
     0
 62
    32
  6
CONTINUOUS
  0
LAYER
  2
DETAIL
 70
     0
 62
     5
  6
CONTINUOUS
  0
LAYER
  2
OUTLINE
 70
     0
 62
     3
  6
CONTINUOUS
  0
LAYER
  2
BASIS
 70
     0
 62
     6
  6
CONTINUOUS
  0
LAYER
  2
NOTE
 70
     0
 62
     4
  6
CONTINUOUS
  0
LAYER
  2
ARRANGE
 70
     0
 62
     1
  6
CONTINUOUS
  0
LAYER
  2
FIX
 70
     0
 62
   241
  6
CONTINUOUS
  0
LAYER
  2
ETC
 70
     0
 62
    83
  6
CONTINUOUS
  0
LAYER
  2
SERVICESPACE
 70
     0
 62
     2
  6
CONTINUOUS
  0
LAYER
  2
SYMBOLLINE
 70
     0
 62
    38
  6
CONTINUOUS
  0
LAYER
  2
DEFPOINTS
 70
     0
 62
     7
  6
CONTINUOUS
  0
LAYER
  2
SERVICE_SPACE
 70
     0
 62
     2
  6
CONTINUOUS
  0
LAYER
  2
16
 70
     0
 62
   150
  6
CONTINUOUS
  0
ENDTAB
  0
TABLE
  2
STYLE
 70
     2
  0
STYLE
  2
STANDARD
 70
     0
 40
0.0
 41
0.9
 50
0.0
 71
     0
 42
64.0
  3
SIMPLEX
  4
BIGFONT
  0
STYLE
  2
STANDARD1
 70
     0
 40
0.0
 41
1.0
 50
0.0
 71
     0
 42
3.5
  3
MONOTXT
  4
BIGFONT
  0
ENDTAB
  0
TABLE
  2
VIEW
 70
     1
  0
VIEW
  2
ALL
 70
     0
 40
4282.6199999999999
 10
0.0
 20
41.309903999999989
 41
5940.0
 11
0.0
 21
0.0
 31
1.0
 12
0.0
 22
0.0
 32
0.0
 42
50.0
 43
0.0
 44
0.0
 50
0.0
 71
     0
  0
ENDTAB
  0
TABLE
  2
UCS
 70
     0
  0
ENDTAB
  0
TABLE
  2
APPID
 70
     1
  0
APPID
  2
ACAD
 70
     0
  0
ENDTAB
  0
TABLE
  2
DIMSTYLE
 70
     1
  0
DIMSTYLE
  2
STANDARD
 70
     0
  3

  4

  5

  6

  7

 40
1.0
 41
0.18
 42
0.0625
 43
0.38
 44
0.18
 45
0.0
 46
0.0
 47
0.0
 48
0.0
140
0.18
141
0.09
142
0.0
143
25.399999999999999
144
1.0
145
0.0
146
1.0
147
0.09
 71
     0
 72
     0
 73
     1
 74
     1
 75
     0
 76
     0
 77
     0
 78
     0
170
     0
171
     2
172
     0
173
     0
174
     0
175
     0
176
     0
177
     0
178
     0
  0
ENDTAB
  0
ENDSEC
  0
SECTION
  2
BLOCKS
  0
BLOCK
  8
0
  2
$MODEL_SPACE
 70
     0
 10
0.0
 20
0.0
 30
0.0
  3
$MODEL_SPACE
  1

  0
ENDBLK
  5
8D02
  8
0
  0
BLOCK
 67
     1
  8
0
  2
$PAPER_SPACE
 70
     0
 10
0.0
 20
0.0
 30
0.0
  3
$PAPER_SPACE
  1

  0
ENDBLK
  5
8CFE
 67
     1
  8
0
  0
BLOCK
  8
0
  2
_ORIGIN
 70
     0
 10
0.0
 20
0.0
 30
0.0
  3
_ORIGIN
  1

  0
CIRCLE
  5
8D2E
  8
0
  6
BYBLOCK
 62
     0
 10
0.0
 20
0.0
 30
0.0
 40
0.5
  0
LINE
  5
8D2F
  8
0
  6
BYBLOCK
 62
     0
 10
0.0
 20
0.0
 30
0.0
 11
-1.0
 21
0.0
 31
0.0
  0
ENDBLK
  5
8D30
  8
0
  0
BLOCK
  8
0
  2
_DOTBLANK
 70
     0
 10
0.0
 20
0.0
 30
0.0
  3
_DOTBLANK
  1

  0
CIRCLE
  5
8D33
  8
0
  6
BYBLOCK
 62
     0
 10
0.0
 20
0.0
 30
0.0
 40
0.5
  0
LINE
  5
8D34
  8
0
  6
BYBLOCK
 62
     0
 10
-0.5
 20
0.0
 30
0.0
 11
-1.0
 21
0.0
 31
0.0
  0
ENDBLK
  5
8D35
  8
0
  0
BLOCK
  8
0
  2
_NONE
 70
     0
 10
0.0
 20
0.0
 30
0.0
  3
_NONE
  1

  0
ENDBLK
  5
8D38
  8
0
  0
BLOCK
  8
0
  2
A$C0A7E6B4B
 70
     0
 10
0.0
 20
0.0
 30
0.0
  3
A$C0A7E6B4B
  1

  0
LINE
  5
8D3B
  8
NOTE
  6
CONTINUOUS
 10
1114.10099748633
 20
570.27489164577116
 30
0.0
 11
1154.10099748633
 21
570.27489164577116
 31
0.0
  0
LINE
  5
8D3C
  8
NOTE
  6
CONTINUOUS
 10
1114.10099748633
 20
525.27489164577105
 30
0.0
 11
1154.10099748633
 21
525.27489164577105
 31
0.0
  0
LINE
  5
8D3D
  8
NOTE
  6
CONTINUOUS
 10
1114.10099748633
 20
487.27489164577122
 30
0.0
 11
1154.10099748633
 21
487.27489164577122
 31
0.0
  0
LINE
  5
8D3E
  8
NOTE
  6
CONTINUOUS
 10
1114.10099748633
 20
481.27489164577128
 30
0.0
 11
1154.10099748633
 21
481.27489164577128
 31
0.0
  0
POLYLINE
  5
8D3F
  8
NOTE
  6
CONTINUOUS
 66
     1
 10
0.0
 20
0.0
 30
0.0
  0
VERTEX
  5
9269
  8
NOTE
  6
CONTINUOUS
 10
1158.590507486331
 20
601.90184064577124
 30
0.0
  0
VERTEX
  5
926A
  8
NOTE
  6
CONTINUOUS
 10
1134.10099748633
 20
570.27489164577116
 30
0.0
  0
VERTEX
  5
926B
  8
NOTE
  6
CONTINUOUS
 10
1171.1230094863299
 20
585.41987764577129
 30
0.0
  0
SEQEND
  5
926C
  8
NOTE
  6
CONTINUOUS
  0
POLYLINE
  5
8D44
  8
NOTE
  6
CONTINUOUS
 66
     1
 10
0.0
 20
0.0
 30
0.0
  0
VERTEX
  5
926D
  8
NOTE
  6
CONTINUOUS
 10
1173.3283294863311
 20
517.45079964577121
 30
0.0
  0
VERTEX
  5
926E
  8
NOTE
  6
CONTINUOUS
 10
1134.10099748633
 20
525.27489164577105
 30
0.0
  0
VERTEX
  5
926F
  8
NOTE
  6
CONTINUOUS
 10
1164.16081748633
 20
498.88536264577118
 30
0.0
  0
SEQEND
  5
9270
  8
NOTE
  6
CONTINUOUS
  0
POLYLINE
  5
8D49
  8
NOTE
  6
CONTINUOUS
 66
     1
 10
0.0
 20
0.0
 30
0.0
  0
VERTEX
  5
9271
  8
NOTE
  6
CONTINUOUS
 10
1164.3040294863299
 20
461.0493916457711
 30
0.0
  0
VERTEX
  5
9272
  8
NOTE
  6
CONTINUOUS
 10
1134.10099748633
 20
487.27489164577122
 30
0.0
  0
VERTEX
  5
9273
  8
NOTE
  6
CONTINUOUS
 10
1147.1448404863299
 20
449.46142664577133
 30
0.0
  0
SEQEND
  5
9274
  8
NOTE
  6
CONTINUOUS
  0
POLYLINE
  5
8D4E
  8
NOTE
  6
CONTINUOUS
 66
     1
 10
0.0
 20
0.0
 30
0.0
  0
VERTEX
  5
9275
  8
NOTE
  6
CONTINUOUS
 10
1156.720277486329
 20
448.28446664577132
 30
0.0
  0
VERTEX
  5
9276
  8
NOTE
  6
CONTINUOUS
 10
1134.10099748633
 20
481.27489164577128
 30
0.0
  0
VERTEX
  5
9277
  8
NOTE
  6
CONTINUOUS
 10
1137.1946564863299
 20
441.39470464577113
 30
0.0
  0
SEQEND
  5
9278
  8
NOTE
  6
CONTINUOUS
  0
CIRCLE
  5
8D53
  8
SIZE
  6
CONTINUOUS
 10
1134.10099748633
 20
939.73460964577112
 30
0.0
 40
6.0
  0
CIRCLE
  5
8D54
  8
SIZE
  6
CONTINUOUS
 10
1134.10099748633
 20
817.67982464577119
 30
0.0
 40
6.0
  0
CIRCLE
  5
8D55
  8
SIZE
  6
CONTINUOUS
 10
1134.10099748633
 20
86.62382264577127
 30
0.0
 40
6.0
  0
CIRCLE
  5
8D56
  8
SIZE
  6
CONTINUOUS
 10
1134.10099748633
 20
243.42179364577109
 30
0.0
 40
6.0
  0
LINE
  5
8D57
  8
SIZE
  6
BYBLOCK
 10
1094.10099748633
 20
692.27489164577105
 30
0.0
 11
1342.33324748633
 21
692.27489164577105
 31
0.0
  0
TEXT
  5
8D58
  8
SIZE
  6
BYBLOCK
 10
1047.472426486331
 20
849.67982464577108
 30
0.0
 40
64.0
  1
80
 41
0.9
  0
LINE
  5
8D59
  8
NOTE
  6
CONTINUOUS
 10
1134.10099748633
 20
570.27489164577116
 30
0.0
 11
1271.236384486331
 21
919.06389564577114
 31
0.0
  0
LINE
  5
8D5A
  8
NOTE
  6
CONTINUOUS
 10
1134.10099748633
 20
525.27489164577105
 30
0.0
 11
1641.6296164863311
 21
249.6357146457712
 31
0.0
  0
LINE
  5
8D5B
  8
NOTE
  6
CONTINUOUS
 10
1134.10099748633
 20
487.27489164577122
 30
0.0
 11
1352.5893744863311
 21
131.3872176457711
 31
0.0
  0
LINE
  5
8D5C
  8
NOTE
  6
CONTINUOUS
 10
1134.10099748633
 20
481.27489164577128
 30
0.0
 11
1294.983451486331
 21
-0.0000013542287434
 31
0.0
  0
LINE
  5
8D5D
  8
NOTE
  6
CONTINUOUS
 10
1134.10099748633
 20
570.27489164577116
 30
0.0
 11
1459.12052948633
 21
816.9537306457712
 31
0.0
  0
LINE
  5
8D5E
  8
NOTE
  6
CONTINUOUS
 10
1053.387699486331
 20
692.17097264577114
 30
0.0
 11
1227.838504486331
 21
1013.532024645771
 31
0.0
  0
LINE
  5
8D5F
  8
BASIS
  6
DASHDOT
 10
1238.74847448633
 20
587.77489164577116
 30
0.0
 11
373.55186648633082
 21
587.77489164577116
 31
0.0
  0
CIRCLE
  5
8D60
  8
ARRANGE
  6
CONTINUOUS
 10
1134.10099748633
 20
735.27489164577105
 30
0.0
 40
40.0
  0
POINT
  5
8D61
  8
ARRANGE
  6
CONTINUOUS
 10
1134.10099748633
 20
735.27489164577105
 30
0.0
  0
CIRCLE
  5
8D62
  8
SIZE
  6
CONTINUOUS
 10
95.999997486330784
 20
735.27489164577105
 30
0.0
 40
6.0
  0
CIRCLE
  5
8D63
  8
SIZE
  6
CONTINUOUS
 10
220.59268848633101
 20
735.27489164577105
 30
0.0
 40
6.0
  0
CIRCLE
  5
8D64
  8
SIZE
  6
CONTINUOUS
 10
348.20360248633079
 20
735.27489164577105
 30
0.0
 40
6.0
  0
TEXT
  5
8D65
  8
SIZE
  6
BYBLOCK
 10
316.20360248633068
 20
651.14632064577131
 30
0.0
 40
64.0
  1
75
 50
90.0
 41
0.9
  0
LINE
  5
8D66
  8
SIZE
  6
BYBLOCK
 10
1054.10099748633
 20
732.27489164577116
 30
0.0
 11
1054.10099748633
 21
847.67982464577108
 31
0.0
  0
LINE
  5
8D67
  8
SIZE
  6
BYBLOCK
 10
734.10099748633093
 20
732.27489164577116
 30
0.0
 11
734.10099748633093
 21
847.67982464577108
 31
0.0
  0
LINE
  5
8D68
  8
SIZE
  6
BYBLOCK
 10
1054.10099748633
 20
732.27489164577116
 30
0.0
 11
1054.10099748633
 21
847.67982464577108
 31
0.0
  0
LINE
  5
8D69
  8
SIZE
  6
BYBLOCK
 10
564.10099748633093
 20
680.27489164577116
 30
0.0
 11
564.10099748633093
 21
969.73460964577146
 31
0.0
  0
LINE
  5
8D6A
  8
NOTE
  6
CONTINUOUS
 10
734.10099748633093
 20
692.27489164577105
 30
0.0
 11
451.97803148633079
 21
904.36197264577129
 31
0.0
  0
LINE
  5
8D6B
  8
SIZE
  6
BYBLOCK
 10
704.10099748633093
 20
455.27489164577111
 30
0.0
 11
190.5926884863309
 21
455.27489164577111
 31
0.0
  0
LINE
  5
8D6C
  8
SIZE
  6
BYBLOCK
 10
619.10099748633093
 20
735.27489164577105
 30
0.0
 11
190.5926884863309
 21
735.27489164577105
 31
0.0
  0
LINE
  5
8D6D
  8
SIZE
  6
BYBLOCK
 10
825.10099748633093
 20
440.27489164577128
 30
0.0
 11
65.999997486330813
 21
440.27489164577128
 31
0.0
  0
LINE
  5
8D6E
  8
SIZE
  6
BYBLOCK
 10
619.10099748633093
 20
735.27489164577105
 30
0.0
 11
65.999997486330813
 21
735.27489164577105
 31
0.0
  0
TEXT
  5
8D6F
  8
SIZE
  6
BYBLOCK
 10
188.5926884863309
 20
521.21774864577105
 30
0.0
 40
64.0
  1
280
 50
90.0
 41
0.9
  0
TEXT
  5
8D70
  8
SIZE
  6
BYBLOCK
 10
63.999997486330813
 20
513.71774864577105
 30
0.0
 40
64.0
  1
295
 50
90.0
 41
0.9
  0
LINE
  5
8D71
  8
SIZE
  6
BYBLOCK
 10
95.999997486330784
 20
733.27489164577105
 30
0.0
 11
95.999997486330784
 21
442.27489164577111
 31
0.0
  0
CIRCLE
  5
8D72
  8
SIZE
  6
CONTINUOUS
 10
95.999997486330784
 20
440.27489164577128
 30
0.0
 40
6.0
  0
LINE
  5
8D73
  8
SIZE
  6
BYBLOCK
 10
484.10099748633081
 20
640.27489164577128
 30
0.0
 11
484.10099748633081
 21
56.623822645771277
 31
0.0
  0
LINE
  5
8D74
  8
SIZE
  6
BYBLOCK
 10
1134.10099748633
 20
420.27489164577122
 30
0.0
 11
1134.10099748633
 21
56.623822645771277
 31
0.0
  0
LINE
  5
8D75
  8
SIZE
  6
BYBLOCK
 10
1132.10099748633
 20
86.62382264577127
 30
0.0
 11
486.10099748633081
 21
86.62382264577127
 31
0.0
  0
LINE
  5
8D76
  8
OUTLINE
  6
CONTINUOUS
 10
1134.10099748633
 20
735.27489164577105
 30
0.0
 11
639.10099748633093
 21
735.27489164577105
 31
0.0
  0
LINE
  5
8D77
  8
OUTLINE
  6
CONTINUOUS
 10
724.10099748633093
 20
455.27489164577111
 30
0.0
 11
509.10099748633081
 21
492.27489164577111
 31
0.0
  0
LINE
  5
8D78
  8
DETAIL
  6
CONTINUOUS
 10
724.10099748633093
 20
455.27489164577111
 30
0.0
 11
509.10099748633081
 21
492.27489164577111
 31
0.0
  0
LINE
  5
8D79
  8
DETAIL
  6
CONTINUOUS
 10
1134.10099748633
 20
735.27489164577105
 30
0.0
 11
639.10099748633093
 21
735.27489164577105
 31
0.0
  0
CIRCLE
  5
8D7A
  8
SIZE
  6
CONTINUOUS
 10
484.10099748633081
 20
86.62382264577127
 30
0.0
 40
6.0
  0
LINE
  5
8D7B
  8
SIZE
  6
BYBLOCK
 10
464.10099748633081
 20
660.27489164577128
 30
0.0
 11
318.20360248633068
 21
660.27489164577128
 31
0.0
  0
LINE
  5
8D7C
  8
SIZE
  6
BYBLOCK
 10
619.10099748633093
 20
735.27489164577105
 30
0.0
 11
318.20360248633068
 21
735.27489164577105
 31
0.0
  0
LINE
  5
8D7D
  8
SIZE
  6
BYBLOCK
 10
220.59268848633101
 20
733.27489164577105
 30
0.0
 11
220.59268848633101
 21
457.27489164577128
 31
0.0
  0
CIRCLE
  5
8D7E
  8
SIZE
  6
CONTINUOUS
 10
220.59268848633101
 20
455.27489164577111
 30
0.0
 40
6.0
  0
CIRCLE
  5
8D7F
  8
SIZE
  6
CONTINUOUS
 10
348.20360248633079
 20
660.27489164577128
 30
0.0
 40
6.0
  0
LINE
  5
8D80
  8
SIZE
  6
BYBLOCK
 10
348.20360248633079
 20
660.27489164577128
 30
0.0
 11
348.20360248633079
 21
735.27489164577105
 31
0.0
  0
LINE
  5
8D81
  8
SIZE
  6
BYBLOCK
 10
348.20360248633079
 20
658.27489164577116
 30
0.0
 11
348.20360248633079
 21
656.27489164577128
 31
0.0
  0
LINE
  5
8D82
  8
OUTLINE
  6
CONTINUOUS
 10
509.10099748633081
 20
492.27489164577111
 30
0.0
 11
484.10099748633081
 21
660.27489164577128
 31
0.0
  0
LINE
  5
8D83
  8
DETAIL
  6
CONTINUOUS
 10
509.10099748633081
 20
492.27489164577111
 30
0.0
 11
484.10099748633081
 21
660.27489164577128
 31
0.0
  0
LINE
  5
8D84
  8
OUTLINE
  6
CONTINUOUS
 10
564.10099748633093
 20
660.27489164577128
 30
0.0
 11
484.10099748633081
 21
660.27489164577128
 31
0.0
  0
LINE
  5
8D85
  8
DETAIL
  6
CONTINUOUS
 10
564.10099748633093
 20
660.27489164577128
 30
0.0
 11
484.10099748633081
 21
660.27489164577128
 31
0.0
  0
LINE
  5
8D86
  8
OUTLINE
  6
CONTINUOUS
 10
639.10099748633093
 20
735.27489164577105
 30
0.0
 11
564.10099748633093
 21
660.27489164577128
 31
0.0
  0
LINE
  5
8D87
  8
DETAIL
  6
CONTINUOUS
 10
639.10099748633093
 20
735.27489164577105
 30
0.0
 11
564.10099748633093
 21
660.27489164577128
 31
0.0
  0
LINE
  5
8D88
  8
SIZE
  6
BYBLOCK
 10
845.10099748633093
 20
420.27489164577122
 30
0.0
 11
845.10099748633093
 21
213.42179364577109
 31
0.0
  0
LINE
  5
8D89
  8
SIZE
  6
BYBLOCK
 10
1134.10099748633
 20
420.27489164577122
 30
0.0
 11
1134.10099748633
 21
213.42179364577109
 31
0.0
  0
LINE
  5
8D8A
  8
SIZE
  6
BYBLOCK
 10
1132.10099748633
 20
243.42179364577109
 30
0.0
 11
847.10099748633081
 21
243.42179364577109
 31
0.0
  0
CIRCLE
  5
8D8B
  8
SIZE
  6
CONTINUOUS
 10
845.10099748633093
 20
243.42179364577109
 30
0.0
 40
6.0
  0
TEXT
  5
8D8C
  8
SIZE
  6
BYBLOCK
 10
735.04385448633082
 20
118.6238226457712
 30
0.0
 40
64.0
  1
650
 41
0.9
  0
TEXT
  5
8D8D
  8
SIZE
  6
BYBLOCK
 10
916.91528348633085
 20
275.42179364577112
 30
0.0
 40
64.0
  1
289
 41
0.9
  0
LINE
  5
8D8E
  8
DETAIL
  6
CONTINUOUS
 10
1134.10099748633
 20
453.27489164577128
 30
0.0
 11
845.10099748633093
 21
453.27489164577128
 31
0.0
  0
LINE
  5
8D8F
  8
OUTLINE
  6
CONTINUOUS
 10
1134.10099748633
 20
440.27489164577128
 30
0.0
 11
845.10099748633093
 21
440.27489164577128
 31
0.0
  0
LINE
  5
8D90
  8
DETAIL
  6
CONTINUOUS
 10
1134.10099748633
 20
440.27489164577128
 30
0.0
 11
845.10099748633093
 21
440.27489164577128
 31
0.0
  0
LINE
  5
8D91
  8
OUTLINE
  6
CONTINUOUS
 10
845.10099748633093
 20
455.27489164577111
 30
0.0
 11
724.10099748633093
 21
455.27489164577111
 31
0.0
  0
LINE
  5
8D92
  8
DETAIL
  6
CONTINUOUS
 10
845.10099748633093
 20
455.27489164577111
 30
0.0
 11
724.10099748633093
 21
455.27489164577111
 31
0.0
  0
LINE
  5
8D93
  8
OUTLINE
  6
CONTINUOUS
 10
845.10099748633093
 20
440.27489164577128
 30
0.0
 11
845.10099748633093
 21
455.27489164577111
 31
0.0
  0
LINE
  5
8D94
  8
DETAIL
  6
CONTINUOUS
 10
845.10099748633093
 20
440.27489164577128
 30
0.0
 11
845.10099748633093
 21
455.27489164577111
 31
0.0
  0
LINE
  5
8D95
  8
NOTE
  6
CONTINUOUS
 10
714.10099748633093
 20
692.27489164577105
 30
0.0
 11
754.10099748633093
 21
692.27489164577105
 31
0.0
  0
POLYLINE
  5
8D96
  8
NOTE
  6
CONTINUOUS
 66
     1
 10
0.0
 20
0.0
 30
0.0
  0
VERTEX
  5
9279
  8
NOTE
  6
CONTINUOUS
 10
696.94121248633098
 20
707.07862064577114
 30
0.0
  0
VERTEX
  5
927A
  8
NOTE
  6
CONTINUOUS
 10
734.10099748633093
 20
692.27489164577105
 30
0.0
  0
VERTEX
  5
927B
  8
NOTE
  6
CONTINUOUS
 10
709.32154448633059
 20
723.67518964577107
 30
0.0
  0
SEQEND
  5
927C
  8
NOTE
  6
CONTINUOUS
  0
LINE
  5
8D9B
  8
DETAIL
  6
CONTINUOUS
 10
764.10099748633093
 20
725.27489164577105
 30
0.0
 11
704.10099748633093
 21
725.27489164577105
 31
0.0
  0
LINE
  5
8D9C
  8
DETAIL
  6
CONTINUOUS
 10
764.10099748633093
 20
694.77489164577116
 30
0.0
 11
704.10099748633093
 21
694.77489164577116
 31
0.0
  0
LINE
  5
8D9D
  8
DETAIL
  6
CONTINUOUS
 10
764.10099748633093
 20
689.77489164577105
 30
0.0
 11
704.10099748633093
 21
689.77489164577105
 31
0.0
  0
LINE
  5
8D9E
  8
DETAIL
  6
CONTINUOUS
 10
704.10099748633093
 20
725.27489164577105
 30
0.0
 11
704.10099748633093
 21
689.77489164577105
 31
0.0
  0
LINE
  5
8D9F
  8
NOTE
  6
CONTINUOUS
 10
734.10099748633093
 20
672.27489164577116
 30
0.0
 11
734.10099748633093
 21
712.27489164577116
 31
0.0
  0
CIRCLE
  5
8DA0
  8
FIX
  6
CONTINUOUS
 10
734.10099748633093
 20
692.27489164577105
 30
0.0
 40
5.0
  0
LINE
  5
8DA1
  8
DETAIL
  6
CONTINUOUS
 10
764.10099748633093
 20
725.27489164577105
 30
0.0
 11
764.10099748633093
 21
689.77489164577105
 31
0.0
  0
LINE
  5
8DA2
  8
NOTE
  6
CONTINUOUS
 10
1134.10099748633
 20
550.27489164577105
 30
0.0
 11
1134.10099748633
 21
590.27489164577128
 31
0.0
  0
LINE
  5
8DA3
  8
OUTLINE
  6
CONTINUOUS
 10
1134.10099748633
 20
735.27489164577105
 30
0.0
 11
1134.10099748633
 21
440.27489164577128
 31
0.0
  0
LINE
  5
8DA4
  8
DETAIL
  6
CONTINUOUS
 10
1134.10099748633
 20
735.27489164577105
 30
0.0
 11
1134.10099748633
 21
440.27489164577128
 31
0.0
  0
LINE
  5
8DA5
  8
NOTE
  6
CONTINUOUS
 10
1134.10099748633
 20
467.27489164577111
 30
0.0
 11
1134.10099748633
 21
507.27489164577128
 31
0.0
  0
LINE
  5
8DA6
  8
NOTE
  6
CONTINUOUS
 10
1134.10099748633
 20
461.27489164577128
 30
0.0
 11
1134.10099748633
 21
501.27489164577111
 31
0.0
  0
LINE
  5
8DA7
  8
NOTE
  6
CONTINUOUS
 10
1134.10099748633
 20
505.27489164577111
 30
0.0
 11
1134.10099748633
 21
545.27489164577116
 31
0.0
  0
POLYLINE
  5
8DA8
  8
NOTE
  6
CONTINUOUS
 66
     1
 10
0.0
 20
0.0
 30
0.0
  0
VERTEX
  5
927D
  8
NOTE
  6
CONTINUOUS
 10
1063.650129486329
 20
730.83209764577123
 30
0.0
  0
VERTEX
  5
927E
  8
NOTE
  6
CONTINUOUS
 10
1053.387699486331
 20
692.17097264577114
 30
0.0
  0
VERTEX
  5
927F
  8
NOTE
  6
CONTINUOUS
 10
1081.605786486331
 20
720.5212736457712
 30
0.0
  0
SEQEND
  5
9280
  8
NOTE
  6
CONTINUOUS
  0
LINE
  5
8DAD
  8
DETAIL
  6
CONTINUOUS
 10
1084.10099748633
 20
725.27489164577105
 30
0.0
 11
1024.10099748633
 21
725.27489164577105
 31
0.0
  0
LINE
  5
8DAE
  8
DETAIL
  6
CONTINUOUS
 10
1084.10099748633
 20
689.77489164577105
 30
0.0
 11
1024.10099748633
 21
689.77489164577105
 31
0.0
  0
LINE
  5
8DAF
  8
DETAIL
  6
CONTINUOUS
 10
1084.10099748633
 20
694.77489164577116
 30
0.0
 11
1024.10099748633
 21
694.77489164577116
 31
0.0
  0
LINE
  5
8DB0
  8
NOTE
  6
CONTINUOUS
 10
1034.10099748633
 20
692.27489164577105
 30
0.0
 11
1074.10099748633
 21
692.27489164577105
 31
0.0
  0
LINE
  5
8DB1
  8
NOTE
  6
CONTINUOUS
 10
1054.10099748633
 20
672.27489164577116
 30
0.0
 11
1054.10099748633
 21
712.27489164577116
 31
0.0
  0
CIRCLE
  5
8DB2
  8
FIX
  6
CONTINUOUS
 10
1054.10099748633
 20
692.27489164577105
 30
0.0
 40
5.0
  0
LINE
  5
8DB3
  8
DETAIL
  6
CONTINUOUS
 10
1024.10099748633
 20
725.27489164577105
 30
0.0
 11
1024.10099748633
 21
689.77489164577105
 31
0.0
  0
LINE
  5
8DB4
  8
DETAIL
  6
CONTINUOUS
 10
1084.10099748633
 20
725.27489164577105
 30
0.0
 11
1084.10099748633
 21
689.77489164577105
 31
0.0
  0
TEXT
  5
8DB5
  8
NOTE
  6
CONTINUOUS
 10
24.763997486330929
 20
930.8927186457712
 30
0.0
 40
64.0
  1
AH 4-âË10
 41
0.9
  0
LINE
  5
8DB6
  8
NOTE
  6
CONTINUOUS
 10
451.97803148633079
 20
904.36197264577129
 30
0.0
 11
5.4309974863308508
 21
904.36197264577129
 31
0.0
  0
LINE
  5
8DB7
  8
SIZE
  6
BYBLOCK
 10
1132.10099748633
 20
939.73460964577112
 30
0.0
 11
641.10099748633093
 21
939.73460964577112
 31
0.0
  0
LINE
  5
8DB8
  8
SIZE
  6
BYBLOCK
 10
348.20360248633079
 20
737.27489164577105
 30
0.0
 11
348.20360248633079
 21
739.27489164577105
 31
0.0
  0
LINE
  5
8DB9
  8
SIZE
  6
BYBLOCK
 10
639.10099748633093
 20
755.27489164577105
 30
0.0
 11
639.10099748633093
 21
969.73460964577146
 31
0.0
  0
LINE
  5
8DBA
  8
SIZE
  6
BYBLOCK
 10
639.10099748633093
 20
755.27489164577105
 30
0.0
 11
639.10099748633093
 21
969.73460964577146
 31
0.0
  0
TEXT
  5
8DBB
  8
SIZE
  6
BYBLOCK
 10
554.97242648633085
 20
971.73460964577123
 30
0.0
 40
64.0
  1
75
 41
0.9
  0
LINE
  5
8DBC
  8
SIZE
  6
BYBLOCK
 10
564.10099748633093
 20
939.73460964577112
 30
0.0
 11
639.10099748633093
 21
939.73460964577112
 31
0.0
  0
CIRCLE
  5
8DBD
  8
SIZE
  6
CONTINUOUS
 10
564.10099748633093
 20
939.73460964577112
 30
0.0
 40
6.0
  0
LINE
  5
8DBE
  8
SIZE
  6
BYBLOCK
 10
562.10099748633093
 20
939.73460964577112
 30
0.0
 11
560.10099748633093
 21
939.73460964577112
 31
0.0
  0
CIRCLE
  5
8DBF
  8
SIZE
  6
CONTINUOUS
 10
639.10099748633093
 20
939.73460964577112
 30
0.0
 40
6.0
  0
CIRCLE
  5
8DC0
  8
SIZE
  6
CONTINUOUS
 10
639.10099748633093
 20
939.73460964577112
 30
0.0
 40
6.0
  0
LINE
  5
8DC1
  8
SIZE
  6
BYBLOCK
 10
641.10099748633093
 20
939.73460964577112
 30
0.0
 11
643.10099748633093
 21
939.73460964577112
 31
0.0
  0
TEXT
  5
8DC2
  8
SIZE
  6
BYBLOCK
 10
820.04385448633104
 20
849.67982464577108
 30
0.0
 40
64.0
  1
320
 41
0.9
  0
LINE
  5
8DC3
  8
SIZE
  6
BYBLOCK
 10
1052.10099748633
 20
817.67982464577119
 30
0.0
 11
736.10099748633093
 21
817.67982464577119
 31
0.0
  0
TEXT
  5
8DC4
  8
SIZE
  6
BYBLOCK
 10
812.54385448633093
 20
971.73460964577123
 30
0.0
 40
64.0
  1
495
 41
0.9
  0
CIRCLE
  5
8DC5
  8
SIZE
  6
CONTINUOUS
 10
734.10099748633093
 20
817.67982464577119
 30
0.0
 40
6.0
  0
LINE
  5
8DC6
  8
SIZE
  6
BYBLOCK
 10
1134.10099748633
 20
755.27489164577105
 30
0.0
 11
1134.10099748633
 21
969.73460964577146
 31
0.0
  0
CIRCLE
  5
8DC7
  8
SIZE
  6
CONTINUOUS
 10
1054.10099748633
 20
817.67982464577119
 30
0.0
 40
6.0
  0
CIRCLE
  5
8DC8
  8
SIZE
  6
CONTINUOUS
 10
1054.10099748633
 20
817.67982464577119
 30
0.0
 40
6.0
  0
LINE
  5
8DC9
  8
SIZE
  6
BYBLOCK
 10
1134.10099748633
 20
755.27489164577105
 30
0.0
 11
1134.10099748633
 21
847.67982464577108
 31
0.0
  0
LINE
  5
8DCA
  8
SIZE
  6
BYBLOCK
 10
1054.10099748633
 20
817.67982464577119
 30
0.0
 11
1134.10099748633
 21
817.67982464577119
 31
0.0
  0
LINE
  5
8DCB
  8
SIZE
  6
BYBLOCK
 10
1052.10099748633
 20
817.67982464577119
 30
0.0
 11
1050.10099748633
 21
817.67982464577119
 31
0.0
  0
CIRCLE
  5
8DCC
  8
SIZE
  6
CONTINUOUS
 10
1707.30594848633
 20
735.27489164577105
 30
0.0
 40
6.0
  0
CIRCLE
  5
8DCD
  8
SIZE
  6
CONTINUOUS
 10
1575.1021844863301
 20
735.27489164577105
 30
0.0
 40
6.0
  0
CIRCLE
  5
8DCE
  8
SIZE
  6
CONTINUOUS
 10
1312.33324748633
 20
735.27489164577105
 30
0.0
 40
6.0
  0
CIRCLE
  5
8DCF
  8
SIZE
  6
CONTINUOUS
 10
1441.0590454863309
 20
735.27489164577105
 30
0.0
 40
6.0
  0
TEXT
  5
8DD0
  8
SIZE
  6
BYBLOCK
 10
1280.33324748633
 20
667.14632064577131
 30
0.0
 40
64.0
  1
43
 50
90.0
 41
0.9
  0
LINE
  5
8DD1
  8
NOTE
  6
CONTINUOUS
 10
1294.983451486331
 20
-0.0000013542287434
 30
0.0
 11
1621.417012486331
 21
-0.0000013542287434
 31
0.0
  0
TEXT
  5
8DD2
  8
NOTE
  6
CONTINUOUS
 10
1302.63765948633
 20
11.517476645771239
 30
0.0
 40
64.0
  1
D âË32
 41
0.9
  0
LINE
  5
8DD3
  8
SIZE
  6
BYBLOCK
 10
1174.10099748633
 20
525.27489164577105
 30
0.0
 11
1605.1021844863301
 21
525.27489164577105
 31
0.0
  0
LINE
  5
8DD4
  8
SIZE
  6
BYBLOCK
 10
1154.10099748633
 20
735.27489164577105
 30
0.0
 11
1605.1021844863301
 21
735.27489164577105
 31
0.0
  0
LINE
  5
8DD5
  8
SIZE
  6
BYBLOCK
 10
1174.10099748633
 20
487.27489164577122
 30
0.0
 11
1605.1021844863301
 21
487.27489164577122
 31
0.0
  0
LINE
  5
8DD6
  8
SIZE
  6
BYBLOCK
 10
1174.10099748633
 20
525.27489164577105
 30
0.0
 11
1605.1021844863301
 21
525.27489164577105
 31
0.0
  0
LINE
  5
8DD7
  8
SIZE
  6
BYBLOCK
 10
1174.10099748633
 20
481.27489164577128
 30
0.0
 11
1737.30594848633
 21
481.27489164577128
 31
0.0
  0
LINE
  5
8DD8
  8
SIZE
  6
BYBLOCK
 10
1154.10099748633
 20
735.27489164577105
 30
0.0
 11
1737.30594848633
 21
735.27489164577105
 31
0.0
  0
TEXT
  5
8DD9
  8
NOTE
  6
CONTINUOUS
 10
1361.900869486331
 20
147.14376564577111
 30
0.0
 40
64.0
  1
EL âË27
 41
0.9
  0
LINE
  5
8DDA
  8
NOTE
  6
CONTINUOUS
 10
1352.5893744863311
 20
131.3872176457711
 30
0.0
 11
1669.9272624863311
 21
131.3872176457711
 31
0.0
  0
TEXT
  5
8DDB
  8
SIZE
  6
BYBLOCK
 10
1543.1021844863301
 20
376.2438516457712
 30
0.0
 40
64.0
  1
38
 50
90.0
 41
0.9
  0
TEXT
  5
8DDC
  8
SIZE
  6
BYBLOCK
 10
1291.90133548633
 20
344.0721166457713
 30
0.0
 40
64.0
  1
13
 50
90.0
 41
0.9
  0
LINE
  5
8DDD
  8
SIZE
  6
CONTINUOUS
 10
1323.90133548633
 20
438.27489164577111
 30
0.0
 11
1323.90133548633
 21
336.51171364577112
 31
0.0
  0
LINE
  5
8DDE
  8
SIZE
  6
CONTINUOUS
 10
1575.1021844863301
 20
487.27489164577122
 30
0.0
 11
1575.1021844863301
 21
346.5384036457711
 31
0.0
  0
TEXT
  5
8DDF
  8
SIZE
  6
BYBLOCK
 10
1409.0590454863309
 20
584.20346264577131
 30
0.0
 40
64.0
  1
165
 50
90.0
 41
0.9
  0
LINE
  5
8DE0
  8
SIZE
  6
BYBLOCK
 10
1174.10099748633
 20
570.27489164577116
 30
0.0
 11
1471.0590454863309
 21
570.27489164577116
 31
0.0
  0
LINE
  5
8DE1
  8
SIZE
  6
BYBLOCK
 10
1154.10099748633
 20
735.27489164577105
 30
0.0
 11
1471.0590454863309
 21
735.27489164577105
 31
0.0
  0
LINE
  5
8DE2
  8
SIZE
  6
BYBLOCK
 10
1154.10099748633
 20
440.27489164577128
 30
0.0
 11
1353.90133548633
 21
440.27489164577128
 31
0.0
  0
LINE
  5
8DE3
  8
SIZE
  6
BYBLOCK
 10
1154.10099748633
 20
453.27489164577128
 30
0.0
 11
1353.90133548633
 21
453.27489164577128
 31
0.0
  0
CIRCLE
  5
8DE4
  8
SIZE
  6
CONTINUOUS
 10
1323.90133548633
 20
440.27489164577128
 30
0.0
 40
6.0
  0
CIRCLE
  5
8DE5
  8
SIZE
  6
CONTINUOUS
 10
1323.90133548633
 20
453.27489164577128
 30
0.0
 40
6.0
  0
LINE
  5
8DE6
  8
SIZE
  6
BYBLOCK
 10
1323.90133548633
 20
440.27489164577128
 30
0.0
 11
1323.90133548633
 21
453.27489164577128
 31
0.0
  0
LINE
  5
8DE7
  8
SIZE
  6
BYBLOCK
 10
1323.90133548633
 20
455.27489164577111
 30
0.0
 11
1323.90133548633
 21
457.27489164577128
 31
0.0
  0
LINE
  5
8DE8
  8
SIZE
  6
BYBLOCK
 10
1323.90133548633
 20
438.27489164577111
 30
0.0
 11
1323.90133548633
 21
436.27489164577128
 31
0.0
  0
LINE
  5
8DE9
  8
SIZE
  6
BYBLOCK
 10
1154.10099748633
 20
735.27489164577105
 30
0.0
 11
1342.33324748633
 21
735.27489164577105
 31
0.0
  0
CIRCLE
  5
8DEA
  8
SIZE
  6
CONTINUOUS
 10
1312.33324748633
 20
692.27489164577105
 30
0.0
 40
6.0
  0
LINE
  5
8DEB
  8
SIZE
  6
BYBLOCK
 10
1312.33324748633
 20
692.27489164577105
 30
0.0
 11
1312.33324748633
 21
735.27489164577105
 31
0.0
  0
LINE
  5
8DEC
  8
SIZE
  6
BYBLOCK
 10
1312.33324748633
 20
690.27489164577105
 30
0.0
 11
1312.33324748633
 21
688.27489164577105
 31
0.0
  0
CIRCLE
  5
8DED
  8
SIZE
  6
CONTINUOUS
 10
1441.0590454863309
 20
570.27489164577116
 30
0.0
 40
6.0
  0
TEXT
  5
8DEE
  8
SIZE
  6
BYBLOCK
 10
1543.1021844863301
 20
561.70346264577131
 30
0.0
 40
64.0
  1
210
 50
90.0
 41
0.9
  0
LINE
  5
8DEF
  8
SIZE
  6
BYBLOCK
 10
1575.1021844863301
 20
527.27489164577128
 30
0.0
 11
1575.1021844863301
 21
630.27489164577116
 31
0.0
  0
CIRCLE
  5
8DF0
  8
SIZE
  6
CONTINUOUS
 10
1575.1021844863301
 20
487.27489164577122
 30
0.0
 40
6.0
  0
LINE
  5
8DF1
  8
SIZE
  6
BYBLOCK
 10
1575.1021844863301
 20
487.27489164577122
 30
0.0
 11
1575.1021844863301
 21
525.27489164577105
 31
0.0
  0
LINE
  5
8DF2
  8
SIZE
  6
BYBLOCK
 10
1575.1021844863301
 20
485.27489164577111
 30
0.0
 11
1575.1021844863301
 21
483.27489164577111
 31
0.0
  0
CIRCLE
  5
8DF3
  8
SIZE
  6
CONTINUOUS
 10
1575.1021844863301
 20
525.27489164577105
 30
0.0
 40
6.0
  0
CIRCLE
  5
8DF4
  8
SIZE
  6
CONTINUOUS
 10
1575.1021844863301
 20
525.27489164577105
 30
0.0
 40
6.0
  0
LINE
  5
8DF5
  8
SIZE
  6
BYBLOCK
 10
1575.1021844863301
 20
527.27489164577128
 30
0.0
 11
1575.1021844863301
 21
529.27489164577105
 31
0.0
  0
LINE
  5
8DF6
  8
SIZE
  6
BYBLOCK
 10
1441.0590454863309
 20
733.27489164577105
 30
0.0
 11
1441.0590454863309
 21
652.77489164577128
 31
0.0
  0
LINE
  5
8DF7
  8
SIZE
  6
BYBLOCK
 10
1441.0590454863309
 20
572.27489164577116
 30
0.0
 11
1441.0590454863309
 21
652.77489164577128
 31
0.0
  0
LINE
  5
8DF8
  8
SIZE
  6
BYBLOCK
 10
1575.1021844863301
 20
733.27489164577105
 30
0.0
 11
1575.1021844863301
 21
630.27489164577116
 31
0.0
  0
TEXT
  5
8DF9
  8
NOTE
  6
CONTINUOUS
 10
1652.518532486331
 20
267.95373764577113
 30
0.0
 40
64.0
  1
EL âË27
 41
0.9
  0
LINE
  5
8DFA
  8
NOTE
  6
CONTINUOUS
 10
1641.6296164863311
 20
249.6357146457712
 30
0.0
 11
1954.92498448633
 21
249.6357146457712
 31
0.0
  0
TEXT
  5
8DFB
  8
SIZE
  6
BYBLOCK
 10
1675.30594848633
 20
532.84632064577113
 30
0.0
 40
64.0
  1
254
 50
90.0
 41
0.9
  0
LINE
  5
8DFC
  8
SIZE
  6
BYBLOCK
 10
1707.30594848633
 20
483.27489164577111
 30
0.0
 11
1707.30594848633
 21
608.27489164577116
 31
0.0
  0
CIRCLE
  5
8DFD
  8
SIZE
  6
CONTINUOUS
 10
1707.30594848633
 20
481.27489164577128
 30
0.0
 40
6.0
  0
LINE
  5
8DFE
  8
SIZE
  6
BYBLOCK
 10
1707.30594848633
 20
733.27489164577105
 30
0.0
 11
1707.30594848633
 21
608.27489164577116
 31
0.0
  0
TEXT
  5
8DFF
  8
ETC
  6
CONTINUOUS
 10
1556.925472486329
 20
1122.891453645771
 30
0.0
 40
64.0
  1
PAC
 41
0.9
  0
TEXT
  5
8E00
  8
NOTE
  6
CONTINUOUS
 10
1288.3203644863311
 20
929.11425364577121
 30
0.0
 40
64.0
  1
RL âË9.52
 41
0.9
  0
LINE
  5
8E01
  8
NOTE
  6
CONTINUOUS
 10
1271.236384486331
 20
919.06389564577114
 30
0.0
 11
1707.3803284863311
 21
919.06389564577114
 31
0.0
  0
TEXT
  5
8E02
  8
NOTE
  6
CONTINUOUS
 10
1472.1298784863311
 20
833.98580364577106
 30
0.0
 40
64.0
  1
RG âË19.05
 41
0.9
  0
LINE
  5
8E03
  8
NOTE
  6
CONTINUOUS
 10
1459.12052948633
 20
816.9537306457712
 30
0.0
 11
1910.378200486331
 21
816.9537306457712
 31
0.0
  0
TEXT
  5
8E04
  8
ETC
  6
CONTINUOUS
 10
1551.564438486329
 20
1243.5210996457711
 30
0.0
 40
64.0
  1
PCA0024
 41
0.9
  0
TEXT
  5
8E05
  8
NOTE
  6
CONTINUOUS
 10
1234.44489248633
 20
1023.073805645771
 30
0.0
 40
64.0
  1
AH
 41
0.9
  0
LINE
  5
8E06
  8
SIZE
  6
BYBLOCK
 10
1136.10099748633
 20
817.67982464577119
 30
0.0
 11
1138.10099748633
 21
817.67982464577119
 31
0.0
  0
LINE
  5
8E07
  8
SIZE
  6
BYBLOCK
 10
1312.33324748633
 20
737.27489164577105
 30
0.0
 11
1312.33324748633
 21
739.27489164577105
 31
0.0
  0
LINE
  5
8E08
  8
NOTE
  6
CONTINUOUS
 10
1227.838504486331
 20
1013.532024645771
 30
0.0
 11
1349.689659486331
 21
1013.532024645771
 31
0.0
  0
ENDBLK
  5
8E09
  8
0
  0
BLOCK
  8
0
  2
A$C3B263967
 70
     0
 10
0.0
 20
0.0
 30
0.0
  3
A$C3B263967
  1

  0
TEXT
  5
8E0C
  8
SIZE
  6
BYBLOCK
 10
1329.9527025161549
 20
62.000000771584141
 30
0.0
 40
64.0
  1
1520
 41
0.9
  0
LINE
  5
8E0D
  8
SIZE
  6
BYBLOCK
 10
2183.9527025161551
 20
30.000000771584141
 30
0.0
 11
1425.9527025161549
 21
30.000000771584141
 31
0.0
  0
TEXT
  5
8E0E
  8
SIZE
  6
BYBLOCK
 10
1328.5812735161551
 20
1225.740565771584
 30
0.0
 40
64.0
  1
1564
 41
0.9
  0
LINE
  5
8E0F
  8
SIZE
  6
BYBLOCK
 10
2205.9527025161542
 20
1193.740565771584
 30
0.0
 11
1425.9527025161549
 21
1193.740565771584
 31
0.0
  0
TEXT
  5
8E10
  8
SIZE
  6
BYBLOCK
 10
1329.9527025161549
 20
1354.8010157715839
 30
0.0
 40
64.0
  1
1608
 41
0.9
  0
LINE
  5
8E11
  8
SIZE
  6
BYBLOCK
 10
2227.9527025161551
 20
1322.8010157715839
 30
0.0
 11
1425.9527025161549
 21
1322.8010157715839
 31
0.0
  0
LINE
  5
8E12
  8
SIZE
  6
BYBLOCK
 10
1405.952702516154
 20
176.79790777158411
 30
0.0
 11
1841.952702516154
 21
176.79790777158411
 31
0.0
  0
LINE
  5
8E13
  8
BASIS
  6
DASHDOT
 10
1271.671169516155
 20
775.74614777158422
 30
0.0
 11
1542.100259516154
 21
775.74614777158422
 31
0.0
  0
CIRCLE
  5
8E14
  8
DETAIL
  6
CONTINUOUS
 10
1403.952702516154
 20
775.74614777158422
 30
0.0
 40
100.0
  0
LINE
  5
8E15
  8
OUTLINE
  6
CONTINUOUS
 10
665.95270251615511
 20
623.74614777158399
 30
0.0
 11
2185.9527025161551
 21
623.74614777158399
 31
0.0
  0
LINE
  5
8E16
  8
OUTLINE
  6
CONTINUOUS
 10
665.95270251615511
 20
905.74614777158399
 30
0.0
 11
2185.9527025161551
 21
905.74614777158399
 31
0.0
  0
LINE
  5
8E17
  8
DETAIL
  6
CONTINUOUS
 10
665.95270251615511
 20
623.74614777158399
 30
0.0
 11
2185.9527025161551
 21
623.74614777158399
 31
0.0
  0
CIRCLE
  5
8E18
  8
ARRANGE
  6
CONTINUOUS
 10
1425.9527025161549
 20
905.74614777158399
 30
0.0
 40
40.0
  0
LINE
  5
8E19
  8
DETAIL
  6
CONTINUOUS
 10
665.95270251615511
 20
905.74614777158399
 30
0.0
 11
2185.9527025161551
 21
905.74614777158399
 31
0.0
  0
POINT
  5
8E1A
  8
ARRANGE
  6
CONTINUOUS
 10
1425.9527025161549
 20
905.74614777158399
 30
0.0
  0
CIRCLE
  5
8E1B
  8
SIZE
  6
CONTINUOUS
 10
1207.4295745161551
 20
905.74614777158399
 30
0.0
 40
6.0
  0
CIRCLE
  5
8E1C
  8
SIZE
  6
CONTINUOUS
 10
440.09440651615478
 20
905.74614777158399
 30
0.0
 40
6.0
  0
CIRCLE
  5
8E1D
  8
SIZE
  6
CONTINUOUS
 10
569.95967851615512
 20
905.74614777158399
 30
0.0
 40
6.0
  0
CIRCLE
  5
8E1E
  8
SIZE
  6
CONTINUOUS
 10
311.53770251615498
 20
905.74614777158399
 30
0.0
 40
6.0
  0
LINE
  5
8E1F
  8
SIZE
  6
BYBLOCK
 10
643.95270251615511
 20
902.74614777158422
 30
0.0
 11
643.95270251615511
 21
1223.740565771584
 31
0.0
  0
LINE
  5
8E20
  8
SIZE
  6
BYBLOCK
 10
621.95270251615511
 20
880.24614777158422
 30
0.0
 11
621.95270251615511
 21
1352.8010157715839
 31
0.0
  0
LINE
  5
8E21
  8
SIZE
  6
BYBLOCK
 10
710.95270251615489
 20
780.74614777158411
 30
0.0
 11
710.95270251615489
 21
999.19550677158395
 31
0.0
  0
LINE
  5
8E22
  8
SIZE
  6
BYBLOCK
 10
795.95270251615477
 20
780.74614777158411
 30
0.0
 11
795.95270251615477
 21
999.19550677158395
 31
0.0
  0
LINE
  5
8E23
  8
SIZE
  6
BYBLOCK
 10
710.95270251615489
 20
780.74614777158411
 30
0.0
 11
710.95270251615489
 21
999.19550677158395
 31
0.0
  0
LINE
  5
8E24
  8
NOTE
  6
CONTINUOUS
 10
710.95270251615489
 20
740.74614777158422
 30
0.0
 11
453.12001351615493
 21
965.15754277158419
 31
0.0
  0
LINE
  5
8E25
  8
NOTE
  6
CONTINUOUS
 10
643.95270251615511
 20
862.74614777158422
 30
0.0
 11
444.28446751615502
 21
1100.2217217715829
 31
0.0
  0
LINE
  5
8E26
  8
NOTE
  6
CONTINUOUS
 10
795.95270251615477
 20
740.74614777158422
 30
0.0
 11
488.46219751615479
 21
1236.548183771584
 31
0.0
  0
LINE
  5
8E27
  8
BASIS
  6
DASHDOT
 10
1425.9527025161549
 20
520.64143977158415
 30
0.0
 11
1425.9527025161549
 21
1023.0553357715841
 31
0.0
  0
LINE
  5
8E28
  8
SIZE
  6
BYBLOCK
 10
645.95270251615511
 20
610.74614777158399
 30
0.0
 11
281.53770251615498
 21
610.74614777158399
 31
0.0
  0
LINE
  5
8E29
  8
SIZE
  6
BYBLOCK
 10
645.95270251615511
 20
905.74614777158399
 30
0.0
 11
281.53770251615498
 21
905.74614777158399
 31
0.0
  0
TEXT
  5
8E2A
  8
SIZE
  6
BYBLOCK
 10
537.95967851615512
 20
754.67471877158414
 30
0.0
 40
64.0
  1
165
 50
90.0
 41
0.9
  0
LINE
  5
8E2B
  8
SIZE
  6
BYBLOCK
 10
730.95270251615489
 20
651.74614777158411
 30
0.0
 11
410.09470251615488
 21
651.74614777158411
 31
0.0
  0
LINE
  5
8E2C
  8
SIZE
  6
BYBLOCK
 10
645.95270251615511
 20
905.74614777158399
 30
0.0
 11
410.09470251615488
 21
905.74614777158399
 31
0.0
  0
LINE
  5
8E2D
  8
NOTE
  6
CONTINUOUS
 10
770.95270251615477
 20
651.74614777158411
 30
0.0
 11
463.98393251615522
 21
444.60031477158412
 31
0.0
  0
TEXT
  5
8E2E
  8
NOTE
  6
CONTINUOUS
 10
218.82370251615509
 20
469.20269877158398
 30
0.0
 40
64.0
  1
D âË32
 41
0.9
  0
LINE
  5
8E2F
  8
NOTE
  6
CONTINUOUS
 10
463.98393251615522
 20
444.60031477158412
 30
0.0
 11
193.32970251615501
 21
444.60031477158412
 31
0.0
  0
TEXT
  5
8E30
  8
SIZE
  6
BYBLOCK
 10
279.53770251615498
 20
684.18900477158411
 30
0.0
 40
64.0
  1
295
 50
90.0
 41
0.9
  0
LINE
  5
8E31
  8
SIZE
  6
BYBLOCK
 10
311.53770251615498
 20
612.74614777158411
 30
0.0
 11
311.53770251615498
 21
758.24614777158422
 31
0.0
  0
TEXT
  5
8E32
  8
SIZE
  6
BYBLOCK
 10
408.094702516155
 20
703.31757677158407
 30
0.0
 40
64.0
  1
254
 50
90.0
 41
0.9
  0
LINE
  5
8E33
  8
SIZE
  6
BYBLOCK
 10
440.09440651615478
 20
903.74614777158422
 30
0.0
 11
440.09440651615478
 21
653.74614777158411
 31
0.0
  0
CIRCLE
  5
8E34
  8
SIZE
  6
CONTINUOUS
 10
311.53770251615498
 20
610.74614777158399
 30
0.0
 40
6.0
  0
CIRCLE
  5
8E35
  8
SIZE
  6
CONTINUOUS
 10
440.09440651615478
 20
651.74614777158411
 30
0.0
 40
6.0
  0
LINE
  5
8E36
  8
SIZE
  6
BYBLOCK
 10
311.53770251615498
 20
903.74614777158422
 30
0.0
 11
311.53770251615498
 21
758.24614777158422
 31
0.0
  0
LINE
  5
8E37
  8
SIZE
  6
BYBLOCK
 10
665.95270251615511
 20
592.74614777158411
 30
0.0
 11
665.95270251615511
 21
0.0000007715841548
 31
0.0
  0
TEXT
  5
8E38
  8
SIZE
  6
BYBLOCK
 10
740.89555951615489
 20
208.79790777158399
 30
0.0
 40
64.0
  1
298
 41
0.9
  0
LINE
  5
8E39
  8
SIZE
  6
BYBLOCK
 10
963.95270251615523
 20
603.74614777158411
 30
0.0
 11
963.95270251615523
 21
146.79790777158411
 31
0.0
  0
LINE
  5
8E3A
  8
SIZE
  6
BYBLOCK
 10
665.95270251615511
 20
590.74614777158399
 30
0.0
 11
665.95270251615511
 21
146.79790777158411
 31
0.0
  0
TEXT
  5
8E3B
  8
SIZE
  6
BYBLOCK
 10
1109.895559516154
 20
208.79790777158399
 30
0.0
 40
64.0
  1
440
 41
0.9
  0
LINE
  5
8E3C
  8
SIZE
  6
BYBLOCK
 10
1403.952702516154
 20
603.74614777158411
 30
0.0
 11
1403.952702516154
 21
146.79790777158411
 31
0.0
  0
LINE
  5
8E3D
  8
SIZE
  6
BYBLOCK
 10
963.95270251615523
 20
603.74614777158411
 30
0.0
 11
963.95270251615523
 21
146.79790777158411
 31
0.0
  0
LINE
  5
8E3E
  8
SIZE
  6
BYBLOCK
 10
1403.952702516154
 20
603.74614777158411
 30
0.0
 11
1403.952702516154
 21
146.79790777158411
 31
0.0
  0
CIRCLE
  5
8E3F
  8
SIZE
  6
CONTINUOUS
 10
963.95270251615523
 20
176.79790777158411
 30
0.0
 40
6.0
  0
CIRCLE
  5
8E40
  8
SIZE
  6
CONTINUOUS
 10
963.95270251615523
 20
176.79790777158411
 30
0.0
 40
6.0
  0
LINE
  5
8E41
  8
SIZE
  6
BYBLOCK
 10
667.95270251615511
 20
30.000000771584141
 30
0.0
 11
1425.9527025161549
 21
30.000000771584141
 31
0.0
  0
LINE
  5
8E42
  8
SIZE
  6
BYBLOCK
 10
667.95270251615511
 20
176.79790777158411
 30
0.0
 11
961.95270251615489
 21
176.79790777158411
 31
0.0
  0
CIRCLE
  5
8E43
  8
SIZE
  6
CONTINUOUS
 10
665.95270251615511
 20
30.000000771584141
 30
0.0
 40
6.0
  0
CIRCLE
  5
8E44
  8
SIZE
  6
CONTINUOUS
 10
665.95270251615511
 20
176.79790777158411
 30
0.0
 40
6.0
  0
LINE
  5
8E45
  8
SIZE
  6
BYBLOCK
 10
965.95270251615511
 20
176.79790777158411
 30
0.0
 11
1401.9527025161549
 21
176.79790777158411
 31
0.0
  0
CIRCLE
  5
8E46
  8
SIZE
  6
CONTINUOUS
 10
1403.952702516154
 20
176.79790777158411
 30
0.0
 40
6.0
  0
CIRCLE
  5
8E47
  8
SIZE
  6
CONTINUOUS
 10
1403.952702516154
 20
176.79790777158411
 30
0.0
 40
6.0
  0
LINE
  5
8E48
  8
SIZE
  6
BYBLOCK
 10
881.95270251615477
 20
695.74614777158422
 30
0.0
 11
1237.4295745161551
 21
695.74614777158422
 31
0.0
  0
LINE
  5
8E49
  8
SIZE
  6
BYBLOCK
 10
881.95270251615477
 20
657.74614777158411
 30
0.0
 11
1237.4295745161551
 21
657.74614777158411
 31
0.0
  0
LINE
  5
8E4A
  8
SIZE
  6
BYBLOCK
 10
881.95270251615477
 20
695.74614777158422
 30
0.0
 11
1237.4295745161551
 21
695.74614777158422
 31
0.0
  0
LINE
  5
8E4B
  8
NOTE
  6
CONTINUOUS
 10
986.56795451615494
 20
312.91555777158419
 30
0.0
 11
841.95270251615489
 21
657.74614777158411
 31
0.0
  0
LINE
  5
8E4C
  8
NOTE
  6
CONTINUOUS
 10
841.95270251615489
 20
695.74614777158422
 30
0.0
 11
986.56795451615494
 21
312.91555777158419
 31
0.0
  0
CIRCLE
  5
8E4D
  8
DETAIL
  6
CONTINUOUS
 10
963.95270251615523
 20
775.74614777158422
 30
0.0
 40
100.0
  0
LINE
  5
8E4E
  8
BASIS
  6
DASHDOT
 10
812.81406951615509
 20
775.74614777158422
 30
0.0
 11
1118.1372345161551
 21
775.74614777158422
 31
0.0
  0
LINE
  5
8E4F
  8
DETAIL
  6
CONTINUOUS
 10
665.95270251615511
 20
610.74614777158399
 30
0.0
 11
1025.9527025161549
 21
610.74614777158399
 31
0.0
  0
LINE
  5
8E50
  8
SIZE
  6
BYBLOCK
 10
770.95270251615477
 20
611.74614777158411
 30
0.0
 11
770.95270251615477
 21
438.68796677158417
 31
0.0
  0
LINE
  5
8E51
  8
SIZE
  6
BYBLOCK
 10
665.95270251615511
 20
590.74614777158399
 30
0.0
 11
665.95270251615511
 21
438.68796677158417
 31
0.0
  0
LINE
  5
8E52
  8
SIZE
  6
BYBLOCK
 10
841.95270251615489
 20
617.74614777158411
 30
0.0
 11
841.95270251615489
 21
277.04869277158411
 31
0.0
  0
LINE
  5
8E53
  8
SIZE
  6
BYBLOCK
 10
665.95270251615511
 20
590.74614777158399
 30
0.0
 11
665.95270251615511
 21
277.04869277158411
 31
0.0
  0
TEXT
  5
8E54
  8
SIZE
  6
BYBLOCK
 10
649.88127351615526
 20
500.68796677158417
 30
0.0
 40
64.0
  1
105
 41
0.9
  0
LINE
  5
8E55
  8
SIZE
  6
BYBLOCK
 10
770.95270251615477
 20
468.68796677158412
 30
0.0
 11
665.95270251615511
 21
468.68796677158412
 31
0.0
  0
TEXT
  5
8E56
  8
SIZE
  6
BYBLOCK
 10
686.75270251615507
 20
339.04869277158417
 30
0.0
 40
64.0
  1
176
 41
0.9
  0
LINE
  5
8E57
  8
SIZE
  6
BYBLOCK
 10
667.95270251615511
 20
307.04869277158417
 30
0.0
 11
753.95270251615477
 21
307.04869277158417
 31
0.0
  0
CIRCLE
  5
8E58
  8
SIZE
  6
CONTINUOUS
 10
665.95270251615511
 20
307.04869277158417
 30
0.0
 40
6.0
  0
CIRCLE
  5
8E59
  8
SIZE
  6
CONTINUOUS
 10
665.95270251615511
 20
468.68796677158412
 30
0.0
 40
6.0
  0
LINE
  5
8E5A
  8
SIZE
  6
BYBLOCK
 10
663.95270251615511
 20
468.68796677158412
 30
0.0
 11
661.95270251615511
 21
468.68796677158412
 31
0.0
  0
CIRCLE
  5
8E5B
  8
SIZE
  6
CONTINUOUS
 10
841.95270251615489
 20
307.04869277158417
 30
0.0
 40
6.0
  0
LINE
  5
8E5C
  8
SIZE
  6
BYBLOCK
 10
839.95270251615477
 20
307.04869277158417
 30
0.0
 11
753.95270251615477
 21
307.04869277158417
 31
0.0
  0
CIRCLE
  5
8E5D
  8
SIZE
  6
CONTINUOUS
 10
770.95270251615477
 20
468.68796677158412
 30
0.0
 40
6.0
  0
LINE
  5
8E5E
  8
SIZE
  6
BYBLOCK
 10
772.95270251615489
 20
468.68796677158412
 30
0.0
 11
774.95270251615477
 21
468.68796677158412
 31
0.0
  0
LINE
  5
8E5F
  8
NOTE
  6
CONTINUOUS
 10
690.95270251615511
 20
740.74614777158422
 30
0.0
 11
730.95270251615489
 21
740.74614777158422
 31
0.0
  0
LINE
  5
8E60
  8
NOTE
  6
CONTINUOUS
 10
710.95270251615489
 20
720.74614777158422
 30
0.0
 11
710.95270251615489
 21
760.74614777158422
 31
0.0
  0
POLYLINE
  5
8E61
  8
NOTE
  6
CONTINUOUS
 66
     1
 10
0.0
 20
0.0
 30
0.0
  0
VERTEX
  5
9281
  8
NOTE
  6
CONTINUOUS
 10
675.21099251615487
 20
758.7052727715843
 30
0.0
  0
VERTEX
  5
9282
  8
NOTE
  6
CONTINUOUS
 10
710.95270251615489
 20
740.74614777158422
 30
0.0
  0
VERTEX
  5
9283
  8
NOTE
  6
CONTINUOUS
 10
688.97903551615525
 20
774.17006077158396
 30
0.0
  0
SEQEND
  5
9284
  8
NOTE
  6
CONTINUOUS
  0
CIRCLE
  5
8E66
  8
SIZE
  6
CONTINUOUS
 10
569.95967851615512
 20
740.74614777158422
 30
0.0
 40
6.0
  0
CIRCLE
  5
8E67
  8
DETAIL
  6
CONTINUOUS
 10
710.95270251615489
 20
740.74614777158422
 30
0.0
 40
9.5250000000000004
  0
LINE
  5
8E68
  8
OUTLINE
  6
CONTINUOUS
 10
665.95270251615511
 20
623.74614777158399
 30
0.0
 11
665.95270251615511
 21
905.74614777158399
 31
0.0
  0
LINE
  5
8E69
  8
DETAIL
  6
CONTINUOUS
 10
665.95270251615511
 20
610.74614777158399
 30
0.0
 11
665.95270251615511
 21
905.74614777158399
 31
0.0
  0
LINE
  5
8E6A
  8
SIZE
  6
BYBLOCK
 10
670.95270251615511
 20
740.74614777158422
 30
0.0
 11
539.95967851615512
 21
740.74614777158422
 31
0.0
  0
POLYLINE
  5
8E6B
  8
NOTE
  6
CONTINUOUS
 66
     1
 10
0.0
 20
0.0
 30
0.0
  0
VERTEX
  5
9285
  8
NOTE
  6
CONTINUOUS
 10
611.24162751615495
 20
885.76756277158415
 30
0.0
  0
VERTEX
  5
9286
  8
NOTE
  6
CONTINUOUS
 10
643.95270251615511
 20
862.74614777158422
 30
0.0
  0
VERTEX
  5
9287
  8
NOTE
  6
CONTINUOUS
 10
627.13478851615525
 20
899.03881577158415
 30
0.0
  0
SEQEND
  5
9288
  8
NOTE
  6
CONTINUOUS
  0
LINE
  5
8E70
  8
SIZE
  6
BYBLOCK
 10
645.95270251615511
 20
905.74614777158399
 30
0.0
 11
539.95967851615512
 21
905.74614777158399
 31
0.0
  0
LINE
  5
8E71
  8
SIZE
  6
BYBLOCK
 10
569.95967851615512
 20
903.74614777158422
 30
0.0
 11
569.95967851615512
 21
742.74614777158422
 31
0.0
  0
LINE
  5
8E72
  8
NOTE
  6
CONTINUOUS
 10
623.952702516155
 20
862.74614777158422
 30
0.0
 11
663.95270251615511
 21
862.74614777158422
 31
0.0
  0
LINE
  5
8E73
  8
NOTE
  6
CONTINUOUS
 10
643.95270251615511
 20
842.74614777158422
 30
0.0
 11
643.95270251615511
 21
882.74614777158411
 31
0.0
  0
CIRCLE
  5
8E74
  8
FIX
  6
CONTINUOUS
 10
643.95270251615511
 20
862.74614777158422
 30
0.0
 40
5.0
  0
LINE
  5
8E75
  8
DETAIL
  6
CONTINUOUS
 10
621.95270251615511
 20
860.24614777158411
 30
0.0
 11
665.95270251615511
 21
860.24614777158411
 31
0.0
  0
LINE
  5
8E76
  8
DETAIL
  6
CONTINUOUS
 10
621.95270251615511
 20
865.24614777158422
 30
0.0
 11
665.95270251615511
 21
865.24614777158422
 31
0.0
  0
LINE
  5
8E77
  8
DETAIL
  6
CONTINUOUS
 10
621.95270251615511
 20
860.24614777158411
 30
0.0
 11
621.95270251615511
 21
865.24614777158422
 31
0.0
  0
LINE
  5
8E78
  8
NOTE
  6
CONTINUOUS
 10
795.95270251615477
 20
720.74614777158422
 30
0.0
 11
795.95270251615477
 21
760.74614777158422
 31
0.0
  0
POLYLINE
  5
8E79
  8
NOTE
  6
CONTINUOUS
 66
     1
 10
0.0
 20
0.0
 30
0.0
  0
VERTEX
  5
9289
  8
NOTE
  6
CONTINUOUS
 10
766.74764251615488
 20
768.07862777158414
 30
0.0
  0
VERTEX
  5
928A
  8
NOTE
  6
CONTINUOUS
 10
795.95270251615477
 20
740.74614777158422
 30
0.0
  0
VERTEX
  5
928B
  8
NOTE
  6
CONTINUOUS
 10
784.32661851615489
 20
779.01929977158431
 30
0.0
  0
SEQEND
  5
928C
  8
NOTE
  6
CONTINUOUS
  0
CIRCLE
  5
8E7E
  8
DETAIL
  6
CONTINUOUS
 10
795.95270251615477
 20
740.74614777158422
 30
0.0
 40
4.759999999999998
  0
LINE
  5
8E7F
  8
NOTE
  6
CONTINUOUS
 10
821.95270251615477
 20
695.74614777158422
 30
0.0
 11
861.95270251615489
 21
695.74614777158422
 31
0.0
  0
LINE
  5
8E80
  8
NOTE
  6
CONTINUOUS
 10
821.95270251615477
 20
657.74614777158411
 30
0.0
 11
861.95270251615489
 21
657.74614777158411
 31
0.0
  0
POLYLINE
  5
8E81
  8
NOTE
  6
CONTINUOUS
 66
     1
 10
0.0
 20
0.0
 30
0.0
  0
VERTEX
  5
928D
  8
NOTE
  6
CONTINUOUS
 10
866.26821251615479
 20
663.98522877158405
 30
0.0
  0
VERTEX
  5
928E
  8
NOTE
  6
CONTINUOUS
 10
841.95270251615489
 20
695.74614777158422
 30
0.0
  0
VERTEX
  5
928F
  8
NOTE
  6
CONTINUOUS
 10
847.13009151615495
 20
656.08262977158404
 30
0.0
  0
SEQEND
  5
9290
  8
NOTE
  6
CONTINUOUS
  0
POLYLINE
  5
8E86
  8
NOTE
  6
CONTINUOUS
 66
     1
 10
0.0
 20
0.0
 30
0.0
  0
VERTEX
  5
9291
  8
NOTE
  6
CONTINUOUS
 10
867.81281251615508
 20
627.22968177158396
 30
0.0
  0
VERTEX
  5
9292
  8
NOTE
  6
CONTINUOUS
 10
841.95270251615489
 20
657.74614777158411
 30
0.0
  0
VERTEX
  5
9293
  8
NOTE
  6
CONTINUOUS
 10
849.08998151615492
 20
618.38805777158404
 30
0.0
  0
SEQEND
  5
9294
  8
NOTE
  6
CONTINUOUS
  0
CIRCLE
  5
8E8B
  8
DETAIL
  6
CONTINUOUS
 10
841.95270251615489
 20
657.74614777158411
 30
0.0
 40
13.5
  0
CIRCLE
  5
8E8C
  8
DETAIL
  6
CONTINUOUS
 10
841.95270251615489
 20
695.74614777158422
 30
0.0
 40
13.5
  0
LINE
  5
8E8D
  8
NOTE
  6
CONTINUOUS
 10
770.95270251615477
 20
631.74614777158399
 30
0.0
 11
770.95270251615477
 21
671.74614777158411
 31
0.0
  0
LINE
  5
8E8E
  8
NOTE
  6
CONTINUOUS
 10
841.95270251615489
 20
637.74614777158411
 30
0.0
 11
841.95270251615489
 21
677.74614777158399
 31
0.0
  0
CIRCLE
  5
8E8F
  8
DETAIL
  6
CONTINUOUS
 10
770.95270251615477
 20
651.74614777158411
 30
0.0
 40
16.0
  0
LINE
  5
8E90
  8
NOTE
  6
CONTINUOUS
 10
750.95270251615477
 20
651.74614777158411
 30
0.0
 11
790.95270251615489
 21
651.74614777158411
 31
0.0
  0
POLYLINE
  5
8E91
  8
NOTE
  6
CONTINUOUS
 66
     1
 10
0.0
 20
0.0
 30
0.0
  0
VERTEX
  5
9295
  8
NOTE
  6
CONTINUOUS
 10
744.34015751615493
 20
621.88358777158396
 30
0.0
  0
VERTEX
  5
9296
  8
NOTE
  6
CONTINUOUS
 10
770.95270251615477
 20
651.74614777158411
 30
0.0
  0
VERTEX
  5
9297
  8
NOTE
  6
CONTINUOUS
 10
732.97428351615508
 20
639.19068477158407
 30
0.0
  0
SEQEND
  5
9298
  8
NOTE
  6
CONTINUOUS
  0
LINE
  5
8E96
  8
NOTE
  6
CONTINUOUS
 10
775.95270251615477
 20
740.74614777158422
 30
0.0
 11
815.95270251615477
 21
740.74614777158422
 31
0.0
  0
LINE
  5
8E97
  8
NOTE
  6
CONTINUOUS
 10
841.95270251615489
 20
675.74614777158411
 30
0.0
 11
841.95270251615489
 21
715.74614777158422
 31
0.0
  0
TEXT
  5
8E98
  8
SIZE
  6
BYBLOCK
 10
1175.4295745161551
 20
510.55917977158418
 30
0.0
 40
64.0
  1
38
 50
90.0
 41
0.9
  0
LINE
  5
8E99
  8
SIZE
  6
CONTINUOUS
 10
1207.4295745161551
 20
657.74614777158411
 30
0.0
 11
1207.4295745161551
 21
500.11226677158419
 31
0.0
  0
TEXT
  5
8E9A
  8
NOTE
  6
CONTINUOUS
 10
990.01604751615525
 20
332.91765777158417
 30
0.0
 40
64.0
  1
EL 2-âË27
 41
0.9
  0
LINE
  5
8E9B
  8
NOTE
  6
CONTINUOUS
 10
986.56795451615494
 20
312.91555777158419
 30
0.0
 11
1394.2512665161551
 21
312.91555777158419
 31
0.0
  0
LINE
  5
8E9C
  8
DETAIL
  6
CONTINUOUS
 10
1052.952702516154
 20
610.74614777158399
 30
0.0
 11
1412.9527025161549
 21
610.74614777158399
 31
0.0
  0
TEXT
  5
8E9D
  8
SIZE
  6
BYBLOCK
 10
1175.4295745161551
 20
732.17471877158414
 30
0.0
 40
64.0
  1
210
 50
90.0
 41
0.9
  0
LINE
  5
8E9E
  8
BASIS
  6
DASHDOT
 10
963.95270251615523
 20
623.74614777158399
 30
0.0
 11
963.95270251615523
 21
905.74614777158399
 31
0.0
  0
LINE
  5
8E9F
  8
DETAIL
  6
CONTINUOUS
 10
1052.952702516154
 20
610.74614777158399
 30
0.0
 11
1052.952702516154
 21
623.74614777158399
 31
0.0
  0
LINE
  5
8EA0
  8
DETAIL
  6
CONTINUOUS
 10
1025.9527025161549
 20
610.74614777158399
 30
0.0
 11
1025.9527025161549
 21
623.74614777158399
 31
0.0
  0
LINE
  5
8EA1
  8
SIZE
  6
BYBLOCK
 10
1207.4295745161551
 20
903.74614777158422
 30
0.0
 11
1207.4295745161551
 21
697.74614777158411
 31
0.0
  0
LINE
  5
8EA2
  8
BASIS
  6
DASHDOT
 10
1403.952702516154
 20
623.74614777158399
 30
0.0
 11
1403.952702516154
 21
905.74614777158399
 31
0.0
  0
CIRCLE
  5
8EA3
  8
SIZE
  6
CONTINUOUS
 10
1207.4295745161551
 20
657.74614777158411
 30
0.0
 40
6.0
  0
LINE
  5
8EA4
  8
SIZE
  6
BYBLOCK
 10
1207.4295745161551
 20
657.74614777158411
 30
0.0
 11
1207.4295745161551
 21
695.74614777158422
 31
0.0
  0
LINE
  5
8EA5
  8
SIZE
  6
BYBLOCK
 10
1207.4295745161551
 20
655.74614777158411
 30
0.0
 11
1207.4295745161551
 21
653.74614777158411
 31
0.0
  0
CIRCLE
  5
8EA6
  8
SIZE
  6
CONTINUOUS
 10
1207.4295745161551
 20
695.74614777158422
 30
0.0
 40
6.0
  0
CIRCLE
  5
8EA7
  8
SIZE
  6
CONTINUOUS
 10
1207.4295745161551
 20
695.74614777158422
 30
0.0
 40
6.0
  0
LINE
  5
8EA8
  8
SIZE
  6
BYBLOCK
 10
1207.4295745161551
 20
697.74614777158411
 30
0.0
 11
1207.4295745161551
 21
699.74614777158422
 31
0.0
  0
LINE
  5
8EA9
  8
DETAIL
  6
CONTINUOUS
 10
1412.9527025161549
 20
610.74614777158399
 30
0.0
 11
1412.9527025161549
 21
623.74614777158399
 31
0.0
  0
LINE
  5
8EAA
  8
SIZE
  6
BYBLOCK
 10
1220.338092516155
 20
905.74614777158399
 30
0.0
 11
1237.4295745161551
 21
905.74614777158399
 31
0.0
  0
TEXT
  5
8EAB
  8
NOTE
  6
CONTINUOUS
 10
118.97170251615501
 20
1257.3794997715841
 30
0.0
 40
64.0
  1
RL âË9.52
 41
0.9
  0
TEXT
  5
8EAC
  8
NOTE
  6
CONTINUOUS
 10
21.244982516155218
 20
989.69681277158395
 30
0.0
 40
64.0
  1
RG âË19.05
 41
0.9
  0
LINE
  5
8EAD
  8
NOTE
  6
CONTINUOUS
 10
453.12001351615493
 20
965.15754277158419
 30
0.0
 11
0.0000025161550639
 21
965.15754277158419
 31
0.0
  0
TEXT
  5
8EAE
  8
NOTE
  6
CONTINUOUS
 10
335.67070251615519
 20
1108.666895771584
 30
0.0
 40
64.0
  1
AH
 41
0.9
  0
LINE
  5
8EAF
  8
NOTE
  6
CONTINUOUS
 10
444.28446751615502
 20
1100.2217217715829
 30
0.0
 11
308.05270251615508
 21
1100.2217217715829
 31
0.0
  0
LINE
  5
8EB0
  8
NOTE
  6
CONTINUOUS
 10
488.46219751615479
 20
1236.548183771584
 30
0.0
 11
111.057702516155
 21
1236.548183771584
 31
0.0
  0
LINE
  5
8EB1
  8
SIZE
  6
BYBLOCK
 10
645.95270251615511
 20
1193.740565771584
 30
0.0
 11
1425.9527025161549
 21
1193.740565771584
 31
0.0
  0
LINE
  5
8EB2
  8
SIZE
  6
BYBLOCK
 10
623.952702516155
 20
1322.8010157715839
 30
0.0
 11
1425.9527025161549
 21
1322.8010157715839
 31
0.0
  0
LINE
  5
8EB3
  8
SIZE
  6
CONTINUOUS
 10
795.95270251615477
 20
969.19550677158395
 30
0.0
 11
978.01128251615478
 21
969.19550677158395
 31
0.0
  0
TEXT
  5
8EB4
  8
SIZE
  6
BYBLOCK
 10
641.82413151615515
 20
1001.195506771584
 30
0.0
 40
64.0
  1
45
 41
0.9
  0
LINE
  5
8EB5
  8
SIZE
  6
BYBLOCK
 10
795.95270251615477
 20
969.19550677158395
 30
0.0
 11
710.95270251615489
 21
969.19550677158395
 31
0.0
  0
LINE
  5
8EB6
  8
SIZE
  6
BYBLOCK
 10
665.95270251615511
 20
925.74614777158433
 30
0.0
 11
665.95270251615511
 21
999.19550677158395
 31
0.0
  0
CIRCLE
  5
8EB7
  8
SIZE
  6
CONTINUOUS
 10
665.95270251615511
 20
969.19550677158395
 30
0.0
 40
6.0
  0
LINE
  5
8EB8
  8
SIZE
  6
BYBLOCK
 10
710.95270251615489
 20
969.19550677158395
 30
0.0
 11
665.95270251615511
 21
969.19550677158395
 31
0.0
  0
LINE
  5
8EB9
  8
SIZE
  6
BYBLOCK
 10
663.95270251615511
 20
969.19550677158395
 30
0.0
 11
661.95270251615511
 21
969.19550677158395
 31
0.0
  0
CIRCLE
  5
8EBA
  8
SIZE
  6
CONTINUOUS
 10
710.95270251615489
 20
969.19550677158395
 30
0.0
 40
6.0
  0
CIRCLE
  5
8EBB
  8
SIZE
  6
CONTINUOUS
 10
710.95270251615489
 20
969.19550677158395
 30
0.0
 40
6.0
  0
LINE
  5
8EBC
  8
SIZE
  6
BYBLOCK
 10
712.95270251615511
 20
969.19550677158395
 30
0.0
 11
714.95270251615511
 21
969.19550677158395
 31
0.0
  0
LINE
  5
8EBD
  8
SIZE
  6
BYBLOCK
 10
708.95270251615511
 20
969.19550677158395
 30
0.0
 11
706.95270251615489
 21
969.19550677158395
 31
0.0
  0
CIRCLE
  5
8EBE
  8
SIZE
  6
CONTINUOUS
 10
643.95270251615511
 20
1193.740565771584
 30
0.0
 40
6.0
  0
TEXT
  5
8EBF
  8
SIZE
  6
BYBLOCK
 10
835.8275725161551
 20
1001.195506771584
 30
0.0
 40
64.0
  1
85
 41
0.9
  0
CIRCLE
  5
8EC0
  8
SIZE
  6
CONTINUOUS
 10
795.95270251615477
 20
969.19550677158395
 30
0.0
 40
6.0
  0
LINE
  5
8EC1
  8
SIZE
  6
BYBLOCK
 10
797.95270251615489
 20
969.19550677158395
 30
0.0
 11
799.95270251615477
 21
969.19550677158395
 31
0.0
  0
CIRCLE
  5
8EC2
  8
SIZE
  6
CONTINUOUS
 10
621.95270251615511
 20
1322.8010157715839
 30
0.0
 40
6.0
  0
CIRCLE
  5
8EC3
  8
SIZE
  6
CONTINUOUS
 10
2567.9177025161548
 20
905.74614777158399
 30
0.0
 40
6.0
  0
CIRCLE
  5
8EC4
  8
SIZE
  6
CONTINUOUS
 10
2377.0551145161548
 20
905.74614777158399
 30
0.0
 40
6.0
  0
LINE
  5
8EC5
  8
SIZE
  6
BYBLOCK
 10
2207.9527025161551
 20
902.74614777158422
 30
0.0
 11
2207.9527025161551
 21
1223.740565771584
 31
0.0
  0
LINE
  5
8EC6
  8
SIZE
  6
BYBLOCK
 10
2229.9527025161551
 20
880.24614777158422
 30
0.0
 11
2229.9527025161551
 21
1352.8010157715839
 31
0.0
  0
TEXT
  5
8EC7
  8
SIZE
  6
BYBLOCK
 10
2535.9177025161548
 20
772.17471877158414
 30
0.0
 40
64.0
  1
130
 50
90.0
 41
0.9
  0
LINE
  5
8EC8
  8
SIZE
  6
BYBLOCK
 10
1943.952702516154
 20
795.74614777158422
 30
0.0
 11
1943.952702516154
 21
1012.558720771584
 31
0.0
  0
LINE
  5
8EC9
  8
SIZE
  6
BYBLOCK
 10
1743.952702516154
 20
795.74614777158422
 30
0.0
 11
1743.952702516154
 21
1012.558720771584
 31
0.0
  0
LINE
  5
8ECA
  8
SIZE
  6
CONTINUOUS
 10
2377.0551145161548
 20
905.74614777158399
 30
0.0
 11
2377.0551145161548
 21
1018.5515097715841
 31
0.0
  0
LINE
  5
8ECB
  8
SIZE
  6
BYBLOCK
 10
2247.9527025161551
 20
862.74614777158422
 30
0.0
 11
2407.0551145161548
 21
862.74614777158422
 31
0.0
  0
LINE
  5
8ECC
  8
SIZE
  6
BYBLOCK
 10
2205.9527025161542
 20
905.74614777158399
 30
0.0
 11
2407.0551145161548
 21
905.74614777158399
 31
0.0
  0
TEXT
  5
8ECD
  8
SIZE
  6
BYBLOCK
 10
2355.5795245161548
 20
666.51672877158398
 30
0.0
 40
64.0
  1
13
 50
90.0
 41
0.9
  0
LINE
  5
8ECE
  8
SIZE
  6
BYBLOCK
 10
2205.9527025161542
 20
610.74614777158399
 30
0.0
 11
2406.7296095161551
 21
610.74614777158399
 31
0.0
  0
LINE
  5
8ECF
  8
SIZE
  6
BYBLOCK
 10
2205.9527025161542
 20
623.74614777158399
 30
0.0
 11
2406.7296095161551
 21
623.74614777158399
 31
0.0
  0
LINE
  5
8ED0
  8
SIZE
  6
BYBLOCK
 10
2003.510321516155
 20
775.74614777158422
 30
0.0
 11
2597.9177025161548
 21
775.74614777158422
 31
0.0
  0
LINE
  5
8ED1
  8
SIZE
  6
BYBLOCK
 10
2205.9527025161542
 20
905.74614777158399
 30
0.0
 11
2597.9177025161548
 21
905.74614777158399
 31
0.0
  0
LINE
  5
8ED2
  8
NOTE
  6
CONTINUOUS
 10
2349.9386025161548
 20
419.83929977158402
 30
0.0
 11
2820.9757025161539
 21
419.83929977158402
 31
0.0
  0
LINE
  5
8ED3
  8
SIZE
  6
BYBLOCK
 10
2185.9527025161551
 20
592.74614777158411
 30
0.0
 11
2185.9527025161551
 21
0.0000007715841548
 31
0.0
  0
TEXT
  5
8ED4
  8
SIZE
  6
BYBLOCK
 10
1549.895559516154
 20
208.79790777158399
 30
0.0
 40
64.0
  1
440
 41
0.9
  0
LINE
  5
8ED5
  8
SIZE
  6
BYBLOCK
 10
1843.9527025161549
 20
603.74614777158411
 30
0.0
 11
1843.9527025161549
 21
146.79790777158411
 31
0.0
  0
CIRCLE
  5
8ED6
  8
SIZE
  6
CONTINUOUS
 10
1843.9527025161549
 20
176.79790777158411
 30
0.0
 40
6.0
  0
CIRCLE
  5
8ED7
  8
SIZE
  6
CONTINUOUS
 10
2185.9527025161551
 20
30.000000771584141
 30
0.0
 40
6.0
  0
LINE
  5
8ED8
  8
SIZE
  6
BYBLOCK
 10
2183.9527025161551
 20
458.41586577158409
 30
0.0
 11
1827.9527025161549
 21
458.41586577158409
 31
0.0
  0
LINE
  5
8ED9
  8
BASIS
  6
DASHDOT
 10
1702.613009516155
 20
775.74614777158422
 30
0.0
 11
1983.5103215161539
 21
775.74614777158422
 31
0.0
  0
CIRCLE
  5
8EDA
  8
DETAIL
  6
CONTINUOUS
 10
1843.9527025161549
 20
775.74614777158422
 30
0.0
 40
100.0
  0
LINE
  5
8EDB
  8
DETAIL
  6
CONTINUOUS
 10
1825.952702516154
 20
610.74614777158399
 30
0.0
 11
2185.9527025161551
 21
610.74614777158399
 31
0.0
  0
LINE
  5
8EDC
  8
SIZE
  6
BYBLOCK
 10
1825.952702516154
 20
592.74614777158411
 30
0.0
 11
1825.952702516154
 21
428.41586577158409
 31
0.0
  0
CIRCLE
  5
8EDD
  8
SIZE
  6
CONTINUOUS
 10
1825.952702516154
 20
458.41586577158409
 30
0.0
 40
6.0
  0
LINE
  5
8EDE
  8
DETAIL
  6
CONTINUOUS
 10
1438.9527025161549
 20
610.74614777158399
 30
0.0
 11
1798.9527025161549
 21
610.74614777158399
 31
0.0
  0
LINE
  5
8EDF
  8
DETAIL
  6
CONTINUOUS
 10
1438.9527025161549
 20
610.74614777158399
 30
0.0
 11
1438.9527025161549
 21
623.74614777158399
 31
0.0
  0
LINE
  5
8EE0
  8
BASIS
  6
DASHDOT
 10
1843.9527025161549
 20
623.74614777158399
 30
0.0
 11
1843.9527025161549
 21
905.74614777158399
 31
0.0
  0
LINE
  5
8EE1
  8
DETAIL
  6
CONTINUOUS
 10
1798.9527025161549
 20
610.74614777158399
 30
0.0
 11
1798.9527025161549
 21
623.74614777158399
 31
0.0
  0
LINE
  5
8EE2
  8
DETAIL
  6
CONTINUOUS
 10
1825.952702516154
 20
610.74614777158399
 30
0.0
 11
1825.952702516154
 21
623.74614777158399
 31
0.0
  0
LINE
  5
8EE3
  8
SIZE
  6
BYBLOCK
 10
2185.9527025161551
 20
592.74614777158411
 30
0.0
 11
2185.9527025161551
 21
428.41586577158409
 31
0.0
  0
LINE
  5
8EE4
  8
NOTE
  6
CONTINUOUS
 10
2207.9527025161551
 20
862.74614777158422
 30
0.0
 11
2349.9386025161548
 21
419.83929977158402
 31
0.0
  0
TEXT
  5
8EE5
  8
SIZE
  6
BYBLOCK
 10
1931.8955595161549
 20
490.41586577158409
 30
0.0
 40
64.0
  1
360
 41
0.9
  0
CIRCLE
  5
8EE6
  8
SIZE
  6
CONTINUOUS
 10
2185.9527025161551
 20
458.41586577158409
 30
0.0
 40
6.0
  0
LINE
  5
8EE7
  8
OUTLINE
  6
CONTINUOUS
 10
2185.9527025161551
 20
623.74614777158399
 30
0.0
 11
2185.9527025161551
 21
905.74614777158399
 31
0.0
  0
LINE
  5
8EE8
  8
DETAIL
  6
CONTINUOUS
 10
2185.9527025161551
 20
610.74614777158399
 30
0.0
 11
2185.9527025161551
 21
905.74614777158399
 31
0.0
  0
POLYLINE
  5
8EE9
  8
NOTE
  6
CONTINUOUS
 66
     1
 10
0.0
 20
0.0
 30
0.0
  0
VERTEX
  5
9299
  8
NOTE
  6
CONTINUOUS
 10
2230.1325255161551
 20
829.45868077158411
 30
0.0
  0
VERTEX
  5
929A
  8
NOTE
  6
CONTINUOUS
 10
2207.9527025161551
 20
862.74614777158422
 30
0.0
  0
VERTEX
  5
929B
  8
NOTE
  6
CONTINUOUS
 10
2210.517258516154
 20
822.82844477158415
 30
0.0
  0
SEQEND
  5
929C
  8
NOTE
  6
CONTINUOUS
  0
LINE
  5
8EEE
  8
NOTE
  6
CONTINUOUS
 10
2187.952702516156
 20
862.74614777158422
 30
0.0
 11
2227.9527025161551
 21
862.74614777158422
 31
0.0
  0
LINE
  5
8EEF
  8
NOTE
  6
CONTINUOUS
 10
2207.9527025161551
 20
842.74614777158422
 30
0.0
 11
2207.9527025161551
 21
882.74614777158411
 31
0.0
  0
CIRCLE
  5
8EF0
  8
FIX
  6
CONTINUOUS
 10
2207.9527025161551
 20
862.74614777158422
 30
0.0
 40
5.0
  0
LINE
  5
8EF1
  8
DETAIL
  6
CONTINUOUS
 10
2185.9527025161551
 20
865.24614777158422
 30
0.0
 11
2229.9527025161551
 21
865.24614777158422
 31
0.0
  0
LINE
  5
8EF2
  8
DETAIL
  6
CONTINUOUS
 10
2185.9527025161551
 20
860.24614777158411
 30
0.0
 11
2229.9527025161551
 21
860.24614777158411
 31
0.0
  0
LINE
  5
8EF3
  8
DETAIL
  6
CONTINUOUS
 10
2229.9527025161551
 20
860.24614777158411
 30
0.0
 11
2229.9527025161551
 21
865.24614777158422
 31
0.0
  0
TEXT
  5
8EF4
  8
NOTE
  6
CONTINUOUS
 10
2372.7063745161549
 20
435.81706477158423
 30
0.0
 40
64.0
  1
AH 4-âË10
 41
0.9
  0
LINE
  5
8EF5
  8
SIZE
  6
CONTINUOUS
 10
2376.7296095161551
 20
627.74614777158399
 30
0.0
 11
2376.7296095161551
 21
766.27706277158416
 31
0.0
  0
CIRCLE
  5
8EF6
  8
SIZE
  6
CONTINUOUS
 10
2376.7296095161551
 20
610.74614777158399
 30
0.0
 40
6.0
  0
CIRCLE
  5
8EF7
  8
SIZE
  6
CONTINUOUS
 10
2376.7296095161551
 20
623.74614777158399
 30
0.0
 40
6.0
  0
LINE
  5
8EF8
  8
SIZE
  6
BYBLOCK
 10
2376.7296095161551
 20
610.74614777158399
 30
0.0
 11
2376.7296095161551
 21
623.74614777158399
 31
0.0
  0
LINE
  5
8EF9
  8
SIZE
  6
BYBLOCK
 10
2376.7296095161551
 20
625.74614777158411
 30
0.0
 11
2376.7296095161551
 21
627.74614777158399
 31
0.0
  0
LINE
  5
8EFA
  8
SIZE
  6
BYBLOCK
 10
2376.7296095161551
 20
608.74614777158411
 30
0.0
 11
2376.7296095161551
 21
606.74614777158399
 31
0.0
  0
CIRCLE
  5
8EFB
  8
SIZE
  6
CONTINUOUS
 10
2377.0551145161548
 20
862.74614777158422
 30
0.0
 40
6.0
  0
LINE
  5
8EFC
  8
SIZE
  6
BYBLOCK
 10
2377.0551145161548
 20
862.74614777158422
 30
0.0
 11
2377.0551145161548
 21
905.74614777158399
 31
0.0
  0
LINE
  5
8EFD
  8
SIZE
  6
BYBLOCK
 10
2377.0551145161548
 20
860.74614777158422
 30
0.0
 11
2377.0551145161548
 21
858.74614777158433
 31
0.0
  0
LINE
  5
8EFE
  8
SIZE
  6
BYBLOCK
 10
2567.9177025161548
 20
775.74614777158422
 30
0.0
 11
2567.9177025161548
 21
905.74614777158399
 31
0.0
  0
CIRCLE
  5
8EFF
  8
SIZE
  6
CONTINUOUS
 10
2567.9177025161548
 20
775.74614777158422
 30
0.0
 40
6.0
  0
LINE
  5
8F00
  8
SIZE
  6
BYBLOCK
 10
2567.9177025161548
 20
773.74614777158422
 30
0.0
 11
2567.9177025161548
 21
771.74614777158422
 31
0.0
  0
TEXT
  5
8F01
  8
SIZE
  6
BYBLOCK
 10
1741.095559516154
 20
1014.558720771584
 30
0.0
 40
64.0
  1
âË200
 41
0.9
  0
LINE
  5
8F02
  8
SIZE
  6
BYBLOCK
 10
1943.952702516154
 20
982.55872077158415
 30
0.0
 11
1743.952702516154
 21
982.55872077158415
 31
0.0
  0
CIRCLE
  5
8F03
  8
SIZE
  6
CONTINUOUS
 10
1743.952702516154
 20
982.55872077158415
 30
0.0
 40
6.0
  0
LINE
  5
8F04
  8
SIZE
  6
BYBLOCK
 10
1741.952702516154
 20
982.55872077158415
 30
0.0
 11
1739.9527025161549
 21
982.55872077158415
 31
0.0
  0
CIRCLE
  5
8F05
  8
SIZE
  6
CONTINUOUS
 10
1943.952702516154
 20
982.55872077158415
 30
0.0
 40
6.0
  0
LINE
  5
8F06
  8
SIZE
  6
BYBLOCK
 10
1945.952702516154
 20
982.55872077158415
 30
0.0
 11
1947.952702516154
 21
982.55872077158415
 31
0.0
  0
TEXT
  5
8F07
  8
SIZE
  6
BYBLOCK
 10
2345.0551145161548
 20
915.27750677158394
 30
0.0
 40
64.0
  1
43
 50
90.0
 41
0.9
  0
CIRCLE
  5
8F08
  8
SIZE
  6
CONTINUOUS
 10
2207.9527025161551
 20
1193.740565771584
 30
0.0
 40
6.0
  0
CIRCLE
  5
8F09
  8
SIZE
  6
CONTINUOUS
 10
2229.9527025161551
 20
1322.8010157715839
 30
0.0
 40
6.0
  0
TEXT
  5
8F0A
  8
ETC
  6
CONTINUOUS
 10
2512.3057025161552
 20
1475.1454127715831
 30
0.0
 40
64.0
  1
PCA0023
 41
0.9
  0
LINE
  5
8F0B
  8
SIZE
  6
BYBLOCK
 10
2377.0551145161548
 20
907.74614777158388
 30
0.0
 11
2377.0551145161548
 21
909.74614777158422
 31
0.0
  0
LINE
  5
8F0C
  8
SIZE
  6
BYBLOCK
 10
2567.9177025161548
 20
907.74614777158388
 30
0.0
 11
2567.9177025161548
 21
909.74614777158422
 31
0.0
  0
TEXT
  5
8F0D
  8
ETC
  6
CONTINUOUS
 10
2517.6668425161552
 20
1354.5157667715839
 30
0.0
 40
64.0
  1
PAC
 41
0.9
  0
ENDBLK
  5
8F0E
  8
0
  0
BLOCK
  8
0
  2
*D7
 70
     1
 10
0.0
 20
0.0
 30
0.0
  3
*D7
  1

  0
LINE
  5
8F11
  8
SIZE
  6
CONTINUOUS
 62
     0
 10
-4854.5158027216748
 20
-2150.0599291946401
 30
0.0
 11
-5083.0988275028012
 21
-2150.0599291946401
 31
0.0
  0
LINE
  5
8F12
  8
SIZE
  6
CONTINUOUS
 62
     0
 10
-4854.5158027216748
 20
-250.05992919464001
 30
0.0
 11
-5083.0988275028012
 21
-250.05992919463981
 31
0.0
  0
LINE
  5
8F13
  8
SIZE
  6
CONTINUOUS
 62
     0
 10
-5063.0988275028003
 20
-2140.0599291946401
 30
0.0
 11
-5063.0988275028003
 21
-260.05992919464001
 31
0.0
  0
INSERT
  5
8F14
  8
SIZE
  6
CONTINUOUS
 62
     0
  2
_ORIGIN
 10
-5063.0988275028003
 20
-2150.0599291946401
 30
0.0
 41
10.0
 42
10.0
 43
10.0
 50
270.0
  0
INSERT
  5
8F15
  8
SIZE
  6
CONTINUOUS
 62
     0
  2
_ORIGIN
 10
-5063.0988275028003
 20
-250.05992919464001
 30
0.0
 41
10.0
 42
10.0
 43
10.0
 50
90.0
  0
TEXT
  5
8F16
  8
SIZE
  6
CONTINUOUS
 62
     0
 10
-5073.0988275028003
 20
-1296.0599291946401
 30
0.0
 40
64.0
  1
1900
 50
90.0
 41
0.9
  0
POINT
  5
8F17
  8
DEFPOINTS
  6
CONTINUOUS
 62
     0
 10
-4834.5158027216739
 20
-2150.0599291946401
 30
0.0
  0
POINT
  5
8F18
  8
DEFPOINTS
  6
CONTINUOUS
 62
     0
 10
-4834.5158027216739
 20
-250.05992919464001
 30
0.0
  0
POINT
  5
8F19
  8
DEFPOINTS
  6
CONTINUOUS
 62
     0
 10
-5063.0988275028003
 20
-250.05992919464001
 30
0.0
  0
ENDBLK
  5
8F1A
  8
0
  0
BLOCK
  8
0
  2
*D8
 70
     1
 10
0.0
 20
0.0
 30
0.0
  3
*D8
  1

  0
LINE
  5
8F1D
  8
SIZE
  6
CONTINUOUS
 62
     0
 10
-4854.5158027216748
 20
-250.05992919464001
 30
0.0
 11
-5083.0988275028012
 21
-250.05992919463981
 31
0.0
  0
LINE
  5
8F1E
  8
SIZE
  6
CONTINUOUS
 62
     0
 10
-4684.5158027216739
 20
-210.05992919464001
 30
0.0
 11
-5083.0988275028012
 21
-210.05992919463981
 31
0.0
  0
LINE
  5
8F1F
  8
SIZE
  6
CONTINUOUS
 62
     0
 10
-5063.0988275028003
 20
-260.05992919464001
 30
0.0
 11
-5063.0988275028003
 21
-270.05992919463989
 31
0.0
  0
LINE
  5
8F20
  8
SIZE
  6
CONTINUOUS
 62
     0
 10
-5063.0988275028003
 20
-200.05992919463981
 30
0.0
 11
-5063.0988275028003
 21
-76.802786337497125
 31
0.0
  0
LINE
  5
8F21
  8
SIZE
  6
CONTINUOUS
 62
     0
 10
-5063.0988275028003
 20
-250.05992919464001
 30
0.0
 11
-5063.0988275028003
 21
-210.05992919463981
 31
0.0
  0
INSERT
  5
8F22
  8
SIZE
  6
CONTINUOUS
 62
     0
  2
_ORIGIN
 10
-5063.0988275028003
 20
-250.05992919464001
 30
0.0
 41
10.0
 42
10.0
 43
10.0
 50
90.0
  0
INSERT
  5
8F23
  8
SIZE
  6
CONTINUOUS
 62
     0
  2
_ORIGIN
 10
-5063.0988275028003
 20
-210.05992919463981
 30
0.0
 41
10.0
 42
10.0
 43
10.0
 50
270.0
  0
TEXT
  5
8F24
  8
SIZE
  6
CONTINUOUS
 62
     0
 10
-5073.0988275028003
 20
-180.0599291946406
 30
0.0
 40
64.0
  1
40
 50
90.0
 41
0.9
  0
POINT
  5
8F25
  8
DEFPOINTS
  6
CONTINUOUS
 62
     0
 10
-4834.5158027216739
 20
-250.05992919464001
 30
0.0
  0
POINT
  5
8F26
  8
DEFPOINTS
  6
CONTINUOUS
 62
     0
 10
-4664.515802721673
 20
-210.05992919464001
 30
0.0
  0
POINT
  5
8F27
  8
DEFPOINTS
  6
CONTINUOUS
 62
     0
 10
-5063.0988275028003
 20
-210.05992919463981
 30
0.0
  0
ENDBLK
  5
8F28
  8
0
  0
BLOCK
  8
0
  2
*D9
 70
     1
 10
0.0
 20
0.0
 30
0.0
  3
*D9
  1

  0
LINE
  5
8F2B
  8
SIZE
  6
CONTINUOUS
 62
     0
 10
-2150.8518725366371
 20
-2150.0599291946401
 30
0.0
 11
-1750.164876887349
 21
-2150.0599291946401
 31
0.0
  0
LINE
  5
8F2C
  8
SIZE
  6
CONTINUOUS
 62
     0
 10
-2316.8518725366371
 20
-1670.0599291946401
 30
0.0
 11
-1750.164876887349
 21
-1670.0599291946401
 31
0.0
  0
LINE
  5
8F2D
  8
SIZE
  6
CONTINUOUS
 62
     0
 10
-1770.1648768873481
 20
-2140.0599291946401
 30
0.0
 11
-1770.1648768873481
 21
-1680.0599291946389
 31
0.0
  0
INSERT
  5
8F2E
  8
SIZE
  6
CONTINUOUS
 62
     0
  2
_ORIGIN
 10
-1770.1648768873481
 20
-2150.0599291946401
 30
0.0
 41
10.0
 42
10.0
 43
10.0
 50
270.0
  0
INSERT
  5
8F2F
  8
SIZE
  6
CONTINUOUS
 62
     0
  2
_ORIGIN
 10
-1770.1648768873481
 20
-1670.0599291946401
 30
0.0
 41
10.0
 42
10.0
 43
10.0
 50
90.0
  0
TEXT
  5
8F30
  8
SIZE
  6
CONTINUOUS
 62
     0
 10
-1780.164876887349
 20
-1984.117072051783
 30
0.0
 40
64.0
  1
480
 50
90.0
 41
0.9
  0
POINT
  5
8F31
  8
DEFPOINTS
  6
CONTINUOUS
 62
     0
 10
-2170.8518725366371
 20
-2150.0599291946401
 30
0.0
  0
POINT
  5
8F32
  8
DEFPOINTS
  6
CONTINUOUS
 62
     0
 10
-2336.8518725366371
 20
-1670.0599291946401
 30
0.0
  0
POINT
  5
8F33
  8
DEFPOINTS
  6
CONTINUOUS
 62
     0
 10
-1770.1648768873481
 20
-1670.0599291946401
 30
0.0
  0
ENDBLK
  5
8F34
  8
0
  0
BLOCK
  8
0
  2
*D10
 70
     1
 10
0.0
 20
0.0
 30
0.0
  3
*D10
  1

  0
LINE
  5
8F37
  8
SIZE
  6
CONTINUOUS
 62
     0
 10
-2150.8518725366371
 20
-2150.0599291946401
 30
0.0
 11
-1640.7381459875239
 21
-2150.0599291946401
 31
0.0
  0
LINE
  5
8F38
  8
SIZE
  6
CONTINUOUS
 62
     0
 10
-2316.8518725366371
 20
-1560.0599291946401
 30
0.0
 11
-1640.7381459875239
 21
-1560.0599291946401
 31
0.0
  0
LINE
  5
8F39
  8
SIZE
  6
CONTINUOUS
 62
     0
 10
-1660.7381459875251
 20
-2140.0599291946401
 30
0.0
 11
-1660.7381459875251
 21
-1570.0599291946389
 31
0.0
  0
INSERT
  5
8F3A
  8
SIZE
  6
CONTINUOUS
 62
     0
  2
_ORIGIN
 10
-1660.7381459875251
 20
-2150.0599291946401
 30
0.0
 41
10.0
 42
10.0
 43
10.0
 50
270.0
  0
INSERT
  5
8F3B
  8
SIZE
  6
CONTINUOUS
 62
     0
  2
_ORIGIN
 10
-1660.7381459875251
 20
-1560.0599291946401
 30
0.0
 41
10.0
 42
10.0
 43
10.0
 50
90.0
  0
TEXT
  5
8F3C
  8
SIZE
  6
CONTINUOUS
 62
     0
 10
-1670.7381459875239
 20
-1929.117072051783
 30
0.0
 40
64.0
  1
590
 50
90.0
 41
0.9
  0
POINT
  5
8F3D
  8
DEFPOINTS
  6
CONTINUOUS
 62
     0
 10
-2170.8518725366371
 20
-2150.0599291946401
 30
0.0
  0
POINT
  5
8F3E
  8
DEFPOINTS
  6
CONTINUOUS
 62
     0
 10
-2336.8518725366371
 20
-1560.0599291946401
 30
0.0
  0
POINT
  5
8F3F
  8
DEFPOINTS
  6
CONTINUOUS
 62
     0
 10
-1660.7381459875251
 20
-1560.0599291946401
 30
0.0
  0
ENDBLK
  5
8F40
  8
0
  0
BLOCK
  8
0
  2
*D11
 70
     1
 10
0.0
 20
0.0
 30
0.0
  3
*D11
  1

  0
LINE
  5
8F43
  8
SIZE
  6
CONTINUOUS
 62
     0
 10
-2150.8518725366371
 20
-2150.0599291946401
 30
0.0
 11
-1533.30090717451
 21
-2150.0599291946401
 31
0.0
  0
LINE
  5
8F44
  8
SIZE
  6
CONTINUOUS
 62
     0
 10
-2150.8518725366371
 20
-250.05992919464001
 30
0.0
 11
-1533.30090717451
 21
-250.05992919464009
 31
0.0
  0
LINE
  5
8F45
  8
SIZE
  6
CONTINUOUS
 62
     0
 10
-1553.30090717451
 20
-2140.0599291946401
 30
0.0
 11
-1553.3009071745089
 21
-260.05992919464012
 31
0.0
  0
INSERT
  5
8F46
  8
SIZE
  6
CONTINUOUS
 62
     0
  2
_ORIGIN
 10
-1553.30090717451
 20
-2150.0599291946401
 30
0.0
 41
10.0
 42
10.0
 43
10.0
 50
270.0
  0
INSERT
  5
8F47
  8
SIZE
  6
CONTINUOUS
 62
     0
  2
_ORIGIN
 10
-1553.3009071745089
 20
-250.05992919464009
 30
0.0
 41
10.0
 42
10.0
 43
10.0
 50
90.0
  0
TEXT
  5
8F48
  8
SIZE
  6
CONTINUOUS
 62
     0
 10
-1563.3009071745089
 20
-1296.0599291946401
 30
0.0
 40
64.0
  1
1900
 50
90.0
 41
0.9
  0
POINT
  5
8F49
  8
DEFPOINTS
  6
CONTINUOUS
 62
     0
 10
-2170.8518725366371
 20
-2150.0599291946401
 30
0.0
  0
POINT
  5
8F4A
  8
DEFPOINTS
  6
CONTINUOUS
 62
     0
 10
-2170.8518725366371
 20
-250.05992919464001
 30
0.0
  0
POINT
  5
8F4B
  8
DEFPOINTS
  6
CONTINUOUS
 62
     0
 10
-1553.3009071745089
 20
-250.05992919464009
 30
0.0
  0
ENDBLK
  5
8F4C
  8
0
  0
BLOCK
  8
0
  2
*D12
 70
     1
 10
0.0
 20
0.0
 30
0.0
  3
*D12
  1

  0
LINE
  5
8F4F
  8
SIZE
  6
CONTINUOUS
 62
     0
 10
-2150.8518725366371
 20
-250.05992919464001
 30
0.0
 11
-1533.30090717451
 21
-250.05992919464009
 31
0.0
  0
LINE
  5
8F50
  8
SIZE
  6
CONTINUOUS
 62
     0
 10
-2151.3518725366362
 20
-210.05992919464001
 30
0.0
 11
-1533.30090717451
 21
-210.0599291946402
 31
0.0
  0
LINE
  5
8F51
  8
SIZE
  6
CONTINUOUS
 62
     0
 10
-1553.3009071745089
 20
-260.05992919464012
 30
0.0
 11
-1553.3009071745089
 21
-270.05992919464012
 31
0.0
  0
LINE
  5
8F52
  8
SIZE
  6
CONTINUOUS
 62
     0
 10
-1553.3009071745089
 20
-200.05992919464009
 30
0.0
 11
-1553.3009071745089
 21
-76.80278633749738
 31
0.0
  0
LINE
  5
8F53
  8
SIZE
  6
CONTINUOUS
 62
     0
 10
-1553.3009071745089
 20
-250.05992919464009
 30
0.0
 11
-1553.3009071745089
 21
-210.0599291946402
 31
0.0
  0
INSERT
  5
8F54
  8
SIZE
  6
CONTINUOUS
 62
     0
  2
_ORIGIN
 10
-1553.3009071745089
 20
-250.05992919464009
 30
0.0
 41
10.0
 42
10.0
 43
10.0
 50
90.0
  0
INSERT
  5
8F55
  8
SIZE
  6
CONTINUOUS
 62
     0
  2
_ORIGIN
 10
-1553.3009071745089
 20
-210.0599291946402
 30
0.0
 41
10.0
 42
10.0
 43
10.0
 50
270.0
  0
TEXT
  5
8F56
  8
SIZE
  6
CONTINUOUS
 62
     0
 10
-1563.3009071745089
 20
-180.05992919464029
 30
0.0
 40
64.0
  1
40
 50
90.0
 41
0.9
  0
POINT
  5
8F57
  8
DEFPOINTS
  6
CONTINUOUS
 62
     0
 10
-2170.8518725366371
 20
-250.05992919464001
 30
0.0
  0
POINT
  5
8F58
  8
DEFPOINTS
  6
CONTINUOUS
 62
     0
 10
-2171.3518725366362
 20
-210.05992919464001
 30
0.0
  0
POINT
  5
8F59
  8
DEFPOINTS
  6
CONTINUOUS
 62
     0
 10
-1553.3009071745089
 20
-210.0599291946402
 30
0.0
  0
ENDBLK
  5
8F5A
  8
0
  0
BLOCK
  8
0
  2
*D13
 70
     1
 10
0.0
 20
0.0
 30
0.0
  3
*D13
  1

  0
LINE
  5
8F5D
  8
SIZE
  6
CONTINUOUS
 62
     0
 10
-2390.8518725366371
 20
-2035.0599291946389
 30
0.0
 11
-2544.9489505366432
 21
-2035.0599291946389
 31
0.0
  0
LINE
  5
8F5E
  8
SIZE
  6
CONTINUOUS
 62
     0
 10
-2320.8518725366371
 20
-2060.0599291946401
 30
0.0
 11
-2544.9489505366432
 21
-2060.0599291946401
 31
0.0
  0
LINE
  5
8F5F
  8
SIZE
  6
CONTINUOUS
 62
     0
 10
-2524.9489505366432
 20
-2025.0599291946389
 30
0.0
 11
-2524.9489505366432
 21
-2015.0599291946389
 31
0.0
  0
LINE
  5
8F60
  8
SIZE
  6
CONTINUOUS
 62
     0
 10
-2524.9489505366432
 20
-2070.0599291946392
 30
0.0
 11
-2524.9489505366432
 21
-2193.3170720517828
 31
0.0
  0
LINE
  5
8F61
  8
SIZE
  6
CONTINUOUS
 62
     0
 10
-2524.9489505366432
 20
-2035.0599291946389
 30
0.0
 11
-2524.9489505366432
 21
-2060.0599291946401
 31
0.0
  0
INSERT
  5
8F62
  8
SIZE
  6
CONTINUOUS
 62
     0
  2
_ORIGIN
 10
-2524.9489505366432
 20
-2035.0599291946389
 30
0.0
 41
10.0
 42
10.0
 43
10.0
 50
270.0
  0
INSERT
  5
8F63
  8
SIZE
  6
CONTINUOUS
 62
     0
  2
_ORIGIN
 10
-2524.9489505366432
 20
-2060.0599291946401
 30
0.0
 41
10.0
 42
10.0
 43
10.0
 50
90.0
  0
TEXT
  5
8F64
  8
SIZE
  6
CONTINUOUS
 62
     0
 10
-2534.9489505366432
 20
-2183.3170720517819
 30
0.0
 40
64.0
  1
25
 50
90.0
 41
0.9
  0
POINT
  5
8F65
  8
DEFPOINTS
  6
CONTINUOUS
 62
     0
 10
-2370.8518725366371
 20
-2035.0599291946389
 30
0.0
  0
POINT
  5
8F66
  8
DEFPOINTS
  6
CONTINUOUS
 62
     0
 10
-2300.8518725366371
 20
-2060.0599291946401
 30
0.0
  0
POINT
  5
8F67
  8
DEFPOINTS
  6
CONTINUOUS
 62
     0
 10
-2524.9489505366432
 20
-2060.0599291946401
 30
0.0
  0
ENDBLK
  5
8F68
  8
0
  0
BLOCK
  8
0
  2
*D14
 70
     1
 10
0.0
 20
0.0
 30
0.0
  3
*D14
  1

  0
LINE
  5
8F6B
  8
SIZE
  6
CONTINUOUS
 62
     0
 10
340.0
 20
-110.0
 30
0.0
 11
505.62571275602392
 21
-110.0
 31
0.0
  0
LINE
  5
8F6C
  8
SIZE
  6
CONTINUOUS
 62
     0
 10
340.0
 20
-180.0
 30
0.0
 11
505.6257127560238
 21
-180.0
 31
0.0
  0
LINE
  5
8F6D
  8
SIZE
  6
CONTINUOUS
 62
     0
 10
485.62571275602392
 20
-100.0
 30
0.0
 11
485.62571275602392
 21
-90.000000000000057
 31
0.0
  0
LINE
  5
8F6E
  8
SIZE
  6
CONTINUOUS
 62
     0
 10
485.62571275602392
 20
-190.0
 30
0.0
 11
485.62571275602392
 21
-313.25714285714281
 31
0.0
  0
LINE
  5
8F6F
  8
SIZE
  6
CONTINUOUS
 62
     0
 10
485.62571275602392
 20
-110.0
 30
0.0
 11
485.62571275602392
 21
-180.0
 31
0.0
  0
INSERT
  5
8F70
  8
SIZE
  6
CONTINUOUS
 62
     0
  2
_ORIGIN
 10
485.62571275602392
 20
-110.0
 30
0.0
 41
10.0
 42
10.0
 43
10.0
 50
270.0
  0
INSERT
  5
8F71
  8
SIZE
  6
CONTINUOUS
 62
     0
  2
_ORIGIN
 10
485.62571275602392
 20
-180.0
 30
0.0
 41
10.0
 42
10.0
 43
10.0
 50
90.0
  0
TEXT
  5
8F72
  8
0
 62
     0
 10
315.62599999999992
 20
-369.90899999999988
 30
0.0
 40
64.0
  1
70
  0
POINT
  5
8F73
  8
DEFPOINTS
  6
CONTINUOUS
 62
     0
 10
320.0
 20
-110.0
 30
0.0
  0
POINT
  5
8F74
  8
DEFPOINTS
  6
CONTINUOUS
 62
     0
 10
320.0
 20
-180.0
 30
0.0
  0
POINT
  5
8F75
  8
DEFPOINTS
  6
CONTINUOUS
 62
     0
 10
485.62571275602392
 20
-180.0
 30
0.0
  0
ENDBLK
  5
8F76
  8
0
  0
BLOCK
  8
0
  2
*D15
 70
     1
 10
0.0
 20
0.0
 30
0.0
  3
*D15
  1

  0
LINE
  5
8F79
  8
SIZE
  6
CONTINUOUS
 62
     0
 10
320.0
 20
-0.0000000000000057
 30
0.0
 11
635.88066129173967
 21
-0.0000000000000951
 31
0.0
  0
LINE
  5
8F7A
  8
SIZE
  6
CONTINUOUS
 62
     0
 10
340.0
 20
-180.0
 30
0.0
 11
635.88066129173967
 21
-180.00000000000011
 31
0.0
  0
LINE
  5
8F7B
  8
SIZE
  6
CONTINUOUS
 62
     0
 10
615.88066129173967
 20
-10.000000000000069
 30
0.0
 11
615.88066129173967
 21
-170.00000000000011
 31
0.0
  0
INSERT
  5
8F7C
  8
SIZE
  6
CONTINUOUS
 62
     0
  2
_ORIGIN
 10
615.88066129173967
 20
-0.0000000000000895
 30
0.0
 41
10.0
 42
10.0
 43
10.0
 50
90.0
  0
INSERT
  5
8F7D
  8
SIZE
  6
CONTINUOUS
 62
     0
  2
_ORIGIN
 10
615.88066129173967
 20
-180.00000000000011
 30
0.0
 41
10.0
 42
10.0
 43
10.0
 50
270.0
  0
TEXT
  5
8F7E
  8
0
 62
     0
 10
445.88099999999991
 20
-203.27999999999989
 30
0.0
 40
64.0
  1
180
  0
POINT
  5
8F7F
  8
DEFPOINTS
  6
CONTINUOUS
 62
     0
 10
300.0
 20
0.0
 30
0.0
  0
POINT
  5
8F80
  8
DEFPOINTS
  6
CONTINUOUS
 62
     0
 10
320.0
 20
-180.0
 30
0.0
  0
POINT
  5
8F81
  8
DEFPOINTS
  6
CONTINUOUS
 62
     0
 10
615.88066129173967
 20
-180.00000000000011
 30
0.0
  0
ENDBLK
  5
8F82
  8
0
  0
BLOCK
  8
0
  2
*D16
 70
     1
 10
0.0
 20
0.0
 30
0.0
  3
*D16
  1

  0
LINE
  5
8F85
  8
SIZE
  6
CONTINUOUS
 62
     0
 10
-300.0
 20
-290.0
 30
0.0
 11
-300.0
 21
-671.85635873892238
 31
0.0
  0
LINE
  5
8F86
  8
SIZE
  6
CONTINUOUS
 62
     0
 10
300.0
 20
-290.0
 30
0.0
 11
300.0
 21
-671.85635873892238
 31
0.0
  0
LINE
  5
8F87
  8
SIZE
  6
CONTINUOUS
 62
     0
 10
-290.0
 20
-651.85635873892238
 30
0.0
 11
290.0
 21
-651.85635873892238
 31
0.0
  0
INSERT
  5
8F88
  8
SIZE
  6
CONTINUOUS
 62
     0
  2
_ORIGIN
 10
-300.0
 20
-651.85635873892238
 30
0.0
 41
10.0
 42
10.0
 43
10.0
 50
180.0
  0
INSERT
  5
8F89
  8
SIZE
  6
CONTINUOUS
 62
     0
  2
_ORIGIN
 10
300.0
 20
-651.85635873892238
 30
0.0
 41
10.0
 42
10.0
 43
10.0
  0
TEXT
  5
8F8A
  8
0
 62
     0
 10
-128.0
 20
-723.13600000000008
 30
0.0
 40
64.0
  1
600
  0
POINT
  5
8F8B
  8
DEFPOINTS
  6
CONTINUOUS
 62
     0
 10
-300.0
 20
-270.0
 30
0.0
  0
POINT
  5
8F8C
  8
DEFPOINTS
  6
CONTINUOUS
 62
     0
 10
300.0
 20
-270.0
 30
0.0
  0
POINT
  5
8F8D
  8
DEFPOINTS
  6
CONTINUOUS
 62
     0
 10
300.0
 20
-651.85635873892238
 30
0.0
  0
ENDBLK
  5
8F8E
  8
0
  0
BLOCK
  8
0
  2
*D17
 70
     1
 10
0.0
 20
0.0
 30
0.0
  3
*D17
  1

  0
LINE
  5
8F91
  8
SIZE
  6
CONTINUOUS
 62
     0
 10
-320.0
 20
0.0000000000000057
 30
0.0
 11
-482.62928183430631
 21
0.0000000000000517
 31
0.0
  0
LINE
  5
8F92
  8
SIZE
  6
CONTINUOUS
 62
     0
 10
-178.5
 20
-55.0
 30
0.0
 11
-482.62928183430631
 21
-54.999999999999908
 31
0.0
  0
LINE
  5
8F93
  8
SIZE
  6
CONTINUOUS
 62
     0
 10
-462.6292818343062
 20
-64.999999999999915
 30
0.0
 11
-462.6292818343062
 21
-74.999999999999901
 31
0.0
  0
LINE
  5
8F94
  8
SIZE
  6
CONTINUOUS
 62
     0
 10
-462.6292818343062
 20
10.00000000000003
 30
0.0
 11
-462.6292818343062
 21
133.2571428571492
 31
0.0
  0
LINE
  5
8F95
  8
SIZE
  6
CONTINUOUS
 62
     0
 10
-462.6292818343062
 20
-54.999999999999922
 30
0.0
 11
-462.6292818343062
 21
0.0000000000000461
 31
0.0
  0
INSERT
  5
8F96
  8
SIZE
  6
CONTINUOUS
 62
     0
  2
_ORIGIN
 10
-462.6292818343062
 20
-54.999999999999922
 30
0.0
 41
10.0
 42
10.0
 43
10.0
 50
90.0
  0
INSERT
  5
8F97
  8
SIZE
  6
CONTINUOUS
 62
     0
  2
_ORIGIN
 10
-462.6292818343062
 20
0.0000000000000461
 30
0.0
 41
10.0
 42
10.0
 43
10.0
 50
270.0
  0
TEXT
  5
8F98
  8
0
 62
     0
 10
-632.62900000000002
 20
-36.651400000000002
 30
0.0
 40
64.0
  1
55
  0
POINT
  5
8F99
  8
DEFPOINTS
  6
CONTINUOUS
 62
     0
 10
-300.0
 20
0.0
 30
0.0
  0
POINT
  5
8F9A
  8
DEFPOINTS
  6
CONTINUOUS
 62
     0
 10
-158.4999999999998
 20
-55.0
 30
0.0
  0
POINT
  5
8F9B
  8
DEFPOINTS
  6
CONTINUOUS
 62
     0
 10
-462.6292818343062
 20
-54.999999999999922
 30
0.0
  0
ENDBLK
  5
8F9C
  8
0
  0
BLOCK
  8
0
  2
*D18
 70
     1
 10
0.0
 20
0.0
 30
0.0
  3
*D18
  1

  0
LINE
  5
8F9F
  8
SIZE
  6
CONTINUOUS
 62
     0
 10
-178.5
 20
-55.0
 30
0.0
 11
-482.6292818343062
 21
-54.999999999999908
 31
0.0
  0
LINE
  5
8FA0
  8
SIZE
  6
CONTINUOUS
 62
     0
 10
-149.0
 20
-198.0
 30
0.0
 11
-482.62928183430631
 21
-197.99999999999969
 31
0.0
  0
LINE
  5
8FA1
  8
SIZE
  6
CONTINUOUS
 62
     0
 10
-462.6292818343062
 20
-44.999999999999922
 30
0.0
 11
-462.6292818343062
 21
-34.999999999999908
 31
0.0
  0
LINE
  5
8FA2
  8
SIZE
  6
CONTINUOUS
 62
     0
 10
-462.6292818343062
 20
-207.99999999999969
 30
0.0
 11
-462.6292818343062
 21
-375.142857142857
 31
0.0
  0
LINE
  5
8FA3
  8
SIZE
  6
CONTINUOUS
 62
     0
 10
-462.6292818343062
 20
-54.999999999999922
 30
0.0
 11
-462.6292818343062
 21
-197.99999999999969
 31
0.0
  0
INSERT
  5
8FA4
  8
SIZE
  6
CONTINUOUS
 62
     0
  2
_ORIGIN
 10
-462.6292818343062
 20
-54.999999999999922
 30
0.0
 41
10.0
 42
10.0
 43
10.0
 50
270.0
  0
INSERT
  5
8FA5
  8
SIZE
  6
CONTINUOUS
 62
     0
  2
_ORIGIN
 10
-462.6292818343062
 20
-197.99999999999969
 30
0.0
 41
10.0
 42
10.0
 43
10.0
 50
90.0
  0
TEXT
  5
8FA6
  8
0
 62
     0
 10
-632.62900000000002
 20
-409.851
 30
0.0
 40
64.0
  1
143
  0
POINT
  5
8FA7
  8
DEFPOINTS
  6
CONTINUOUS
 62
     0
 10
-158.4999999999998
 20
-55.0
 30
0.0
  0
POINT
  5
8FA8
  8
DEFPOINTS
  6
CONTINUOUS
 62
     0
 10
-129.0
 20
-198.0
 30
0.0
  0
POINT
  5
8FA9
  8
DEFPOINTS
  6
CONTINUOUS
 62
     0
 10
-462.6292818343062
 20
-197.99999999999969
 30
0.0
  0
ENDBLK
  5
8FAA
  8
0
  0
BLOCK
  8
0
  2
*D19
 70
     1
 10
0.0
 20
0.0
 30
0.0
  3
*D19
  1

  0
LINE
  5
8FAD
  8
SIZE
  6
CONTINUOUS
 62
     0
 10
-138.5
 20
-15.0
 30
0.0
 11
-138.5
 21
142.13338400878911
 31
0.0
  0
LINE
  5
8FAE
  8
SIZE
  6
CONTINUOUS
 62
     0
 10
138.5
 20
-15.0
 30
0.0
 11
138.5
 21
142.13338400878911
 31
0.0
  0
LINE
  5
8FAF
  8
SIZE
  6
CONTINUOUS
 62
     0
 10
-128.4999999999998
 20
122.13338400878899
 30
0.0
 11
128.4999999999998
 21
122.13338400878899
 31
0.0
  0
INSERT
  5
8FB0
  8
SIZE
  6
CONTINUOUS
 62
     0
  2
_ORIGIN
 10
-138.5
 20
122.13338400878899
 30
0.0
 41
10.0
 42
10.0
 43
10.0
 50
180.0
  0
INSERT
  5
8FB1
  8
SIZE
  6
CONTINUOUS
 62
     0
  2
_ORIGIN
 10
138.5
 20
122.13338400878899
 30
0.0
 41
10.0
 42
10.0
 43
10.0
  0
TEXT
  5
8FB2
  8
0
 62
     0
 10
-128.0
 20
50.853400000000001
 30
0.0
 40
64.0
  1
277
  0
POINT
  5
8FB3
  8
DEFPOINTS
  6
CONTINUOUS
 62
     0
 10
-138.5
 20
-35.0
 30
0.0
  0
POINT
  5
8FB4
  8
DEFPOINTS
  6
CONTINUOUS
 62
     0
 10
138.5
 20
-35.0
 30
0.0
  0
POINT
  5
8FB5
  8
DEFPOINTS
  6
CONTINUOUS
 62
     0
 10
138.5
 20
122.13338400878899
 30
0.0
  0
ENDBLK
  5
8FB6
  8
0
  0
BLOCK
  8
0
  2
*D20
 70
     1
 10
0.0
 20
0.0
 30
0.0
  3
*D20
  1

  0
LINE
  5
8FB9
  8
SIZE
  6
CONTINUOUS
 62
     0
 10
-109.0
 20
-238.0
 30
0.0
 11
-109.0
 21
-434.02750695460492
 31
0.0
  0
LINE
  5
8FBA
  8
SIZE
  6
CONTINUOUS
 62
     0
 10
109.0
 20
-238.0
 30
0.0
 11
108.9999999999998
 21
-434.02750695460492
 31
0.0
  0
LINE
  5
8FBB
  8
SIZE
  6
CONTINUOUS
 62
     0
 10
-99.0
 20
-414.02750695460492
 30
0.0
 11
98.999999999999986
 21
-414.02750695460492
 31
0.0
  0
INSERT
  5
8FBC
  8
SIZE
  6
CONTINUOUS
 62
     0
  2
_ORIGIN
 10
-109.0
 20
-414.02750695460492
 30
0.0
 41
10.0
 42
10.0
 43
10.0
 50
180.0
  0
INSERT
  5
8FBD
  8
SIZE
  6
CONTINUOUS
 62
     0
  2
_ORIGIN
 10
108.9999999999998
 20
-414.02750695460492
 30
0.0
 41
10.0
 42
10.0
 43
10.0
  0
TEXT
  5
8FBE
  8
0
 62
     0
 10
-128.0
 20
-485.30799999999999
 30
0.0
 40
64.0
  1
218
  0
POINT
  5
8FBF
  8
DEFPOINTS
  6
CONTINUOUS
 62
     0
 10
-109.0
 20
-218.0
 30
0.0
  0
POINT
  5
8FC0
  8
DEFPOINTS
  6
CONTINUOUS
 62
     0
 10
109.0
 20
-218.0
 30
0.0
  0
POINT
  5
8FC1
  8
DEFPOINTS
  6
CONTINUOUS
 62
     0
 10
108.9999999999998
 20
-414.02750695460492
 30
0.0
  0
ENDBLK
  5
8FC2
  8
0
  0
BLOCK
  8
0
  2
*D21
 70
     1
 10
0.0
 20
0.0
 30
0.0
  3
*D21
  1

  0
LINE
  5
8FC5
  8
SIZE
  6
CONTINUOUS
 62
     0
 10
-4214.5158027216748
 20
-2120.0599291946401
 30
0.0
 11
-4109.7552549566381
 21
-2120.0599291946401
 31
0.0
  0
LINE
  5
8FC6
  8
SIZE
  6
CONTINUOUS
 62
     0
 10
-4214.5158027216748
 20
-2150.0599291946401
 30
0.0
 11
-4109.7552549566381
 21
-2150.0599291946401
 31
0.0
  0
LINE
  5
8FC7
  8
SIZE
  6
CONTINUOUS
 62
     0
 10
-4129.755254956639
 20
-2110.0599291946401
 30
0.0
 11
-4129.755254956639
 21
-2100.0599291946401
 31
0.0
  0
LINE
  5
8FC8
  8
SIZE
  6
CONTINUOUS
 62
     0
 10
-4129.755254956639
 20
-2160.0599291946401
 30
0.0
 11
-4129.755254956639
 21
-2283.3170720517828
 31
0.0
  0
LINE
  5
8FC9
  8
SIZE
  6
CONTINUOUS
 62
     0
 10
-4129.755254956639
 20
-2120.0599291946401
 30
0.0
 11
-4129.755254956639
 21
-2150.0599291946401
 31
0.0
  0
INSERT
  5
8FCA
  8
SIZE
  6
CONTINUOUS
 62
     0
  2
_ORIGIN
 10
-4129.755254956639
 20
-2120.0599291946401
 30
0.0
 41
10.0
 42
10.0
 43
10.0
 50
270.0
  0
INSERT
  5
8FCB
  8
SIZE
  6
CONTINUOUS
 62
     0
  2
_ORIGIN
 10
-4129.755254956639
 20
-2150.0599291946401
 30
0.0
 41
10.0
 42
10.0
 43
10.0
 50
90.0
  0
TEXT
  5
8FCC
  8
SIZE
  6
CONTINUOUS
 62
     0
 10
-4139.7552549566381
 20
-2273.3170720517828
 30
0.0
 40
64.0
  1
30
 50
90.0
 41
0.9
  0
POINT
  5
8FCD
  8
DEFPOINTS
  6
CONTINUOUS
 62
     0
 10
-4234.5158027216739
 20
-2120.0599291946401
 30
0.0
  0
POINT
  5
8FCE
  8
DEFPOINTS
  6
CONTINUOUS
 62
     0
 10
-4234.5158027216739
 20
-2150.0599291946401
 30
0.0
  0
POINT
  5
8FCF
  8
DEFPOINTS
  6
CONTINUOUS
 62
     0
 10
-4129.755254956639
 20
-2150.0599291946401
 30
0.0
  0
ENDBLK
  5
8FD0
  8
0
  0
BLOCK
  8
0
  2
*D22
 70
     1
 10
0.0
 20
0.0
 30
0.0
  3
*D22
  1

  0
LINE
  5
8FD3
  8
SIZE
  6
CONTINUOUS
 62
     0
 10
-4643.515802721673
 20
-2190.0599291946401
 30
0.0
 11
-4643.515802721673
 21
-2372.817551996005
 31
0.0
  0
LINE
  5
8FD4
  8
SIZE
  6
CONTINUOUS
 62
     0
 10
-4425.5158027216748
 20
-2190.0599291946401
 30
0.0
 11
-4425.5158027216748
 21
-2372.817551996005
 31
0.0
  0
LINE
  5
8FD5
  8
SIZE
  6
CONTINUOUS
 62
     0
 10
-4633.5158027216739
 20
-2352.817551996005
 30
0.0
 11
-4435.5158027216748
 21
-2352.817551996005
 31
0.0
  0
INSERT
  5
8FD6
  8
SIZE
  6
CONTINUOUS
 62
     0
  2
_ORIGIN
 10
-4643.515802721673
 20
-2352.817551996005
 30
0.0
 41
10.0
 42
10.0
 43
10.0
 50
180.0
  0
INSERT
  5
8FD7
  8
SIZE
  6
CONTINUOUS
 62
     0
  2
_ORIGIN
 10
-4425.5158027216748
 20
-2352.817551996005
 30
0.0
 41
10.0
 42
10.0
 43
10.0
  0
TEXT
  5
8FD8
  8
SIZE
  6
CONTINUOUS
 62
     0
 10
-4603.0872312931033
 20
-2342.817551996005
 30
0.0
 40
64.0
  1
218
 41
0.9
  0
POINT
  5
8FD9
  8
DEFPOINTS
  6
CONTINUOUS
 62
     0
 10
-4643.515802721673
 20
-2170.0599291946401
 30
0.0
  0
POINT
  5
8FDA
  8
DEFPOINTS
  6
CONTINUOUS
 62
     0
 10
-4425.5158027216748
 20
-2170.0599291946401
 30
0.0
  0
POINT
  5
8FDB
  8
DEFPOINTS
  6
CONTINUOUS
 62
     0
 10
-4425.5158027216748
 20
-2352.817551996005
 30
0.0
  0
ENDBLK
  5
8FDC
  8
0
  0
BLOCK
  8
0
  2
*D23
 70
     1
 10
0.0
 20
0.0
 30
0.0
  3
*D23
  1

  0
LINE
  5
8FDF
  8
SIZE
  6
CONTINUOUS
 62
     0
 10
-4673.0158027216739
 20
-2190.0599291946401
 30
0.0
 11
-4673.0158027216739
 21
-2510.5008747731399
 31
0.0
  0
LINE
  5
8FE0
  8
SIZE
  6
CONTINUOUS
 62
     0
 10
-4396.0158027216748
 20
-2190.0599291946401
 30
0.0
 11
-4396.0158027216748
 21
-2510.5008747731399
 31
0.0
  0
LINE
  5
8FE1
  8
SIZE
  6
CONTINUOUS
 62
     0
 10
-4663.015802721673
 20
-2490.5008747731399
 30
0.0
 11
-4406.0158027216739
 21
-2490.5008747731399
 31
0.0
  0
INSERT
  5
8FE2
  8
SIZE
  6
CONTINUOUS
 62
     0
  2
_ORIGIN
 10
-4673.0158027216739
 20
-2490.5008747731399
 30
0.0
 41
10.0
 42
10.0
 43
10.0
 50
180.0
  0
INSERT
  5
8FE3
  8
SIZE
  6
CONTINUOUS
 62
     0
  2
_ORIGIN
 10
-4396.0158027216748
 20
-2490.5008747731399
 30
0.0
 41
10.0
 42
10.0
 43
10.0
  0
TEXT
  5
8FE4
  8
SIZE
  6
CONTINUOUS
 62
     0
 10
-4608.572945578816
 20
-2480.5008747731408
 30
0.0
 40
64.0
  1
277
 41
0.9
  0
POINT
  5
8FE5
  8
DEFPOINTS
  6
CONTINUOUS
 62
     0
 10
-4673.0158027216739
 20
-2170.0599291946401
 30
0.0
  0
POINT
  5
8FE6
  8
DEFPOINTS
  6
CONTINUOUS
 62
     0
 10
-4396.0158027216748
 20
-2170.0599291946401
 30
0.0
  0
POINT
  5
8FE7
  8
DEFPOINTS
  6
CONTINUOUS
 62
     0
 10
-4396.0158027216748
 20
-2490.5008747731399
 30
0.0
  0
ENDBLK
  5
8FE8
  8
0
  0
BLOCK
  8
0
  2
*D24
 70
     1
 10
0.0
 20
0.0
 30
0.0
  3
*D24
  1

  0
LINE
  5
8FEB
  8
SIZE
  6
CONTINUOUS
 62
     0
 10
-4834.5158027216739
 20
-2170.0599291946401
 30
0.0
 11
-4834.5158027216739
 21
-2635.8710867219052
 31
0.0
  0
LINE
  5
8FEC
  8
SIZE
  6
CONTINUOUS
 62
     0
 10
-4234.5158027216739
 20
-2170.0599291946401
 30
0.0
 11
-4234.5158027216739
 21
-2635.8710867219052
 31
0.0
  0
LINE
  5
8FED
  8
SIZE
  6
CONTINUOUS
 62
     0
 10
-4824.515802721673
 20
-2615.8710867219038
 30
0.0
 11
-4244.5158027216739
 21
-2615.8710867219038
 31
0.0
  0
INSERT
  5
8FEE
  8
SIZE
  6
CONTINUOUS
 62
     0
  2
_ORIGIN
 10
-4834.5158027216739
 20
-2615.8710867219038
 30
0.0
 41
10.0
 42
10.0
 43
10.0
 50
180.0
  0
INSERT
  5
8FEF
  8
SIZE
  6
CONTINUOUS
 62
     0
  2
_ORIGIN
 10
-4234.5158027216739
 20
-2615.8710867219038
 30
0.0
 41
10.0
 42
10.0
 43
10.0
  0
TEXT
  5
8FF0
  8
SIZE
  6
CONTINUOUS
 62
     0
 10
-4608.572945578816
 20
-2605.8710867219038
 30
0.0
 40
64.0
  1
600
 41
0.9
  0
POINT
  5
8FF1
  8
DEFPOINTS
  6
CONTINUOUS
 62
     0
 10
-4834.5158027216739
 20
-2150.0599291946401
 30
0.0
  0
POINT
  5
8FF2
  8
DEFPOINTS
  6
CONTINUOUS
 62
     0
 10
-4234.5158027216739
 20
-2150.0599291946401
 30
0.0
  0
POINT
  5
8FF3
  8
DEFPOINTS
  6
CONTINUOUS
 62
     0
 10
-4234.5158027216739
 20
-2615.8710867219038
 30
0.0
  0
ENDBLK
  5
8FF4
  8
0
  0
BLOCK
  8
0
  2
*D25
 70
     1
 10
0.0
 20
0.0
 30
0.0
  3
*D25
  1

  0
LINE
  5
8FF7
  8
SIZE
  6
CONTINUOUS
 62
     0
 10
-2170.8518725366371
 20
-2130.0599291946401
 30
0.0
 11
-2170.8518725366371
 21
-1756.594703920556
 31
0.0
  0
LINE
  5
8FF8
  8
SIZE
  6
CONTINUOUS
 62
     0
 10
-2350.8518725366371
 20
-2000.0599291946389
 30
0.0
 11
-2350.8518725366371
 21
-1756.594703920556
 31
0.0
  0
LINE
  5
8FF9
  8
SIZE
  6
CONTINUOUS
 62
     0
 10
-2180.8518725366362
 20
-1776.594703920556
 30
0.0
 11
-2340.8518725366362
 21
-1776.594703920556
 31
0.0
  0
INSERT
  5
8FFA
  8
SIZE
  6
CONTINUOUS
 62
     0
  2
_ORIGIN
 10
-2170.8518725366371
 20
-1776.594703920556
 30
0.0
 41
10.0
 42
10.0
 43
10.0
  0
INSERT
  5
8FFB
  8
SIZE
  6
CONTINUOUS
 62
     0
  2
_ORIGIN
 10
-2350.8518725366371
 20
-1776.594703920556
 30
0.0
 41
10.0
 42
10.0
 43
10.0
 50
180.0
  0
TEXT
  5
8FFC
  8
SIZE
  6
CONTINUOUS
 62
     0
 10
-2329.423301108066
 20
-1766.594703920556
 30
0.0
 40
64.0
  1
180
 41
0.9
  0
POINT
  5
8FFD
  8
DEFPOINTS
  6
CONTINUOUS
 62
     0
 10
-2170.8518725366371
 20
-2150.0599291946401
 30
0.0
  0
POINT
  5
8FFE
  8
DEFPOINTS
  6
CONTINUOUS
 62
     0
 10
-2350.8518725366371
 20
-2020.0599291946401
 30
0.0
  0
POINT
  5
8FFF
  8
DEFPOINTS
  6
CONTINUOUS
 62
     0
 10
-2350.8518725366371
 20
-1776.594703920556
 30
0.0
  0
ENDBLK
  5
9000
  8
0
  0
BLOCK
  8
0
  2
*D26
 70
     1
 10
0.0
 20
0.0
 30
0.0
  3
*D26
  1

  0
LINE
  5
9003
  8
SIZE
  6
CONTINUOUS
 62
     0
 10
-2350.8518725366371
 20
-2000.0599291946389
 30
0.0
 11
-2350.8518725366371
 21
-1854.850163330105
 31
0.0
  0
LINE
  5
9004
  8
SIZE
  6
CONTINUOUS
 62
     0
 10
-2280.8518725366371
 20
-1976.5599291946389
 30
0.0
 11
-2280.8518725366371
 21
-1854.850163330105
 31
0.0
  0
LINE
  5
9005
  8
SIZE
  6
CONTINUOUS
 62
     0
 10
-2360.8518725366362
 20
-1874.850163330105
 30
0.0
 11
-2370.8518725366371
 21
-1874.850163330105
 31
0.0
  0
LINE
  5
9006
  8
SIZE
  6
CONTINUOUS
 62
     0
 10
-2270.8518725366371
 20
-1874.850163330105
 30
0.0
 11
-2147.594729679493
 21
-1874.850163330105
 31
0.0
  0
LINE
  5
9007
  8
SIZE
  6
CONTINUOUS
 62
     0
 10
-2350.8518725366371
 20
-1874.850163330105
 30
0.0
 11
-2280.8518725366371
 21
-1874.850163330105
 31
0.0
  0
INSERT
  5
9008
  8
SIZE
  6
CONTINUOUS
 62
     0
  2
_ORIGIN
 10
-2350.8518725366371
 20
-1874.850163330105
 30
0.0
 41
10.0
 42
10.0
 43
10.0
  0
INSERT
  5
9009
  8
SIZE
  6
CONTINUOUS
 62
     0
  2
_ORIGIN
 10
-2280.8518725366371
 20
-1874.850163330105
 30
0.0
 41
10.0
 42
10.0
 43
10.0
 50
180.0
  0
TEXT
  5
900A
  8
SIZE
  6
CONTINUOUS
 62
     0
 10
-2250.8518725366371
 20
-1864.850163330105
 30
0.0
 40
64.0
  1
70
 41
0.9
  0
POINT
  5
900B
  8
DEFPOINTS
  6
CONTINUOUS
 62
     0
 10
-2350.8518725366371
 20
-2020.0599291946401
 30
0.0
  0
POINT
  5
900C
  8
DEFPOINTS
  6
CONTINUOUS
 62
     0
 10
-2280.8518725366371
 20
-1996.5599291946401
 30
0.0
  0
POINT
  5
900D
  8
DEFPOINTS
  6
CONTINUOUS
 62
     0
 10
-2280.8518725366371
 20
-1874.850163330105
 30
0.0
  0
ENDBLK
  5
900E
  8
0
  0
BLOCK
  8
0
  2
*D27
 70
     1
 10
0.0
 20
0.0
 30
0.0
  3
*D27
  1

  0
LINE
  5
9011
  8
SIZE
  6
CONTINUOUS
 62
     0
 10
-2170.8518725366371
 20
-2170.0599291946401
 30
0.0
 11
-2170.8518725366371
 21
-2455.079922524149
 31
0.0
  0
LINE
  5
9012
  8
SIZE
  6
CONTINUOUS
 62
     0
 10
-2225.8518725366362
 20
-2190.0599291946401
 30
0.0
 11
-2225.8518725366362
 21
-2455.079922524149
 31
0.0
  0
LINE
  5
9013
  8
SIZE
  6
CONTINUOUS
 62
     0
 10
-2235.8518725366362
 20
-2435.079922524149
 30
0.0
 11
-2245.8518725366362
 21
-2435.079922524149
 31
0.0
  0
LINE
  5
9014
  8
SIZE
  6
CONTINUOUS
 62
     0
 10
-2160.8518725366362
 20
-2435.079922524149
 30
0.0
 11
-2037.594729679493
 21
-2435.079922524149
 31
0.0
  0
LINE
  5
9015
  8
SIZE
  6
CONTINUOUS
 62
     0
 10
-2225.8518725366362
 20
-2435.079922524149
 30
0.0
 11
-2170.8518725366371
 21
-2435.079922524149
 31
0.0
  0
INSERT
  5
9016
  8
SIZE
  6
CONTINUOUS
 62
     0
  2
_ORIGIN
 10
-2225.8518725366362
 20
-2435.079922524149
 30
0.0
 41
10.0
 42
10.0
 43
10.0
  0
INSERT
  5
9017
  8
SIZE
  6
CONTINUOUS
 62
     0
  2
_ORIGIN
 10
-2170.8518725366371
 20
-2435.079922524149
 30
0.0
 41
10.0
 42
10.0
 43
10.0
 50
180.0
  0
TEXT
  5
9018
  8
SIZE
  6
CONTINUOUS
 62
     0
 10
-2140.8518725366348
 20
-2425.079922524149
 30
0.0
 40
64.0
  1
55
 41
0.9
  0
POINT
  5
9019
  8
DEFPOINTS
  6
CONTINUOUS
 62
     0
 10
-2170.8518725366371
 20
-2150.0599291946401
 30
0.0
  0
POINT
  5
901A
  8
DEFPOINTS
  6
CONTINUOUS
 62
     0
 10
-2225.8518725366362
 20
-2170.0599291946401
 30
0.0
  0
POINT
  5
901B
  8
DEFPOINTS
  6
CONTINUOUS
 62
     0
 10
-2225.8518725366362
 20
-2435.079922524149
 30
0.0
  0
ENDBLK
  5
901C
  8
0
  0
BLOCK
  8
0
  2
*D28
 70
     1
 10
0.0
 20
0.0
 30
0.0
  3
*D28
  1

  0
LINE
  5
901F
  8
SIZE
  6
CONTINUOUS
 62
     0
 10
-2225.8518725366362
 20
-2190.0599291946401
 30
0.0
 11
-2225.8518725366362
 21
-2455.079922524149
 31
0.0
  0
LINE
  5
9020
  8
SIZE
  6
CONTINUOUS
 62
     0
 10
-2368.8518725366371
 20
-2190.0599291946401
 30
0.0
 11
-2368.8518725366371
 21
-2455.079922524149
 31
0.0
  0
LINE
  5
9021
  8
SIZE
  6
CONTINUOUS
 62
     0
 10
-2215.8518725366362
 20
-2435.079922524149
 30
0.0
 11
-2205.8518725366362
 21
-2435.079922524149
 31
0.0
  0
LINE
  5
9022
  8
SIZE
  6
CONTINUOUS
 62
     0
 10
-2378.8518725366371
 20
-2435.079922524149
 30
0.0
 11
-2615.9471382268971
 21
-2435.079922524149
 31
0.0
  0
LINE
  5
9023
  8
SIZE
  6
CONTINUOUS
 62
     0
 10
-2225.8518725366362
 20
-2435.079922524149
 30
0.0
 11
-2368.8518725366371
 21
-2435.079922524149
 31
0.0
  0
INSERT
  5
9024
  8
SIZE
  6
CONTINUOUS
 62
     0
  2
_ORIGIN
 10
-2225.8518725366362
 20
-2435.079922524149
 30
0.0
 41
10.0
 42
10.0
 43
10.0
 50
180.0
  0
INSERT
  5
9025
  8
SIZE
  6
CONTINUOUS
 62
     0
  2
_ORIGIN
 10
-2368.8518725366371
 20
-2435.079922524149
 30
0.0
 41
10.0
 42
10.0
 43
10.0
  0
TEXT
  5
9026
  8
SIZE
  6
CONTINUOUS
 62
     0
 10
-2605.9471382268971
 20
-2425.079922524149
 30
0.0
 40
64.0
  1
143
 41
0.9
  0
POINT
  5
9027
  8
DEFPOINTS
  6
CONTINUOUS
 62
     0
 10
-2225.8518725366362
 20
-2170.0599291946401
 30
0.0
  0
POINT
  5
9028
  8
DEFPOINTS
  6
CONTINUOUS
 62
     0
 10
-2368.8518725366371
 20
-2170.0599291946401
 30
0.0
  0
POINT
  5
9029
  8
DEFPOINTS
  6
CONTINUOUS
 62
     0
 10
-2368.8518725366371
 20
-2435.079922524149
 30
0.0
  0
ENDBLK
  5
902A
  8
0
  0
BLOCK
  8
0
  2
*D29
 70
     1
 10
0.0
 20
0.0
 30
0.0
  3
*D29
  1

  0
LINE
  5
902D
  8
SIZE
  6
CONTINUOUS
 62
     0
 10
-2405.8518725366371
 20
-2170.0599291946401
 30
0.0
 11
-2405.8518725366371
 21
-2589.347306084062
 31
0.0
  0
LINE
  5
902E
  8
SIZE
  6
CONTINUOUS
 62
     0
 10
-2170.8518725366371
 20
-2170.0599291946401
 30
0.0
 11
-2170.8518725366371
 21
-2589.347306084062
 31
0.0
  0
LINE
  5
902F
  8
SIZE
  6
CONTINUOUS
 62
     0
 10
-2395.8518725366371
 20
-2569.347306084062
 30
0.0
 11
-2180.8518725366362
 21
-2569.347306084062
 31
0.0
  0
INSERT
  5
9030
  8
SIZE
  6
CONTINUOUS
 62
     0
  2
_ORIGIN
 10
-2405.8518725366371
 20
-2569.347306084062
 30
0.0
 41
10.0
 42
10.0
 43
10.0
 50
180.0
  0
INSERT
  5
9031
  8
SIZE
  6
CONTINUOUS
 62
     0
  2
_ORIGIN
 10
-2170.8518725366371
 20
-2569.347306084062
 30
0.0
 41
10.0
 42
10.0
 43
10.0
  0
TEXT
  5
9032
  8
SIZE
  6
CONTINUOUS
 62
     0
 10
-2362.40901539378
 20
-2559.3473060840611
 30
0.0
 40
64.0
  1
235
 41
0.9
  0
POINT
  5
9033
  8
DEFPOINTS
  6
CONTINUOUS
 62
     0
 10
-2405.8518725366371
 20
-2150.0599291946401
 30
0.0
  0
POINT
  5
9034
  8
DEFPOINTS
  6
CONTINUOUS
 62
     0
 10
-2170.8518725366371
 20
-2150.0599291946401
 30
0.0
  0
POINT
  5
9035
  8
DEFPOINTS
  6
CONTINUOUS
 62
     0
 10
-2170.8518725366371
 20
-2569.347306084062
 30
0.0
  0
ENDBLK
  5
9036
  8
0
  0
BLOCK
  8
0
  2
*D30
 70
     1
 10
0.0
 20
0.0
 30
0.0
  3
*D30
  1

  0
LINE
  5
9039
  8
SIZE
  6
CONTINUOUS
 62
     0
 10
174.86043343602049
 20
-2120.0599291946401
 30
0.0
 11
28.09988567098447
 21
-2120.0599291946401
 31
0.0
  0
LINE
  5
903A
  8
SIZE
  6
CONTINUOUS
 62
     0
 10
174.86043343602049
 20
-2150.0599291946401
 30
0.0
 11
28.09988567098447
 21
-2150.0599291946401
 31
0.0
  0
LINE
  5
903B
  8
SIZE
  6
CONTINUOUS
 62
     0
 10
48.09988567098447
 20
-2110.0599291946401
 30
0.0
 11
48.09988567098447
 21
-2100.0599291946401
 31
0.0
  0
LINE
  5
903C
  8
SIZE
  6
CONTINUOUS
 62
     0
 10
48.09988567098447
 20
-2160.0599291946401
 30
0.0
 11
48.099885670984392
 21
-2396.1299167600391
 31
0.0
  0
LINE
  5
903D
  8
SIZE
  6
CONTINUOUS
 62
     0
 10
48.09988567098447
 20
-2120.0599291946401
 30
0.0
 11
48.09988567098447
 21
-2150.0599291946401
 31
0.0
  0
INSERT
  5
903E
  8
SIZE
  6
CONTINUOUS
 62
     0
  2
_ORIGIN
 10
48.09988567098447
 20
-2120.0599291946401
 30
0.0
 41
10.0
 42
10.0
 43
10.0
 50
270.0
  0
INSERT
  5
903F
  8
SIZE
  6
CONTINUOUS
 62
     0
  2
_ORIGIN
 10
48.09988567098447
 20
-2150.0599291946401
 30
0.0
 41
10.0
 42
10.0
 43
10.0
 50
90.0
  0
TEXT
  5
9040
  8
SIZE
  6
CONTINUOUS
 62
     0
 10
38.09988567098479
 20
-2386.1299167600391
 30
0.0
 40
64.0
  1
30
 50
90.0
 41
0.9
  0
POINT
  5
9041
  8
DEFPOINTS
  6
CONTINUOUS
 62
     0
 10
194.86043343602049
 20
-2120.0599291946401
 30
0.0
  0
POINT
  5
9042
  8
DEFPOINTS
  6
CONTINUOUS
 62
     0
 10
194.86043343602049
 20
-2150.0599291946401
 30
0.0
  0
POINT
  5
9043
  8
DEFPOINTS
  6
CONTINUOUS
 62
     0
 10
48.09988567098447
 20
-2150.0599291946401
 30
0.0
  0
ENDBLK
  5
9044
  8
0
  0
BLOCK
  8
0
  2
*D31
 70
     1
 10
0.0
 20
0.0
 30
0.0
  3
*D31
  1

  0
LINE
  5
9047
  8
SIZE
  6
CONTINUOUS
 62
     0
 10
603.86043343602068
 20
-2190.0599291946401
 30
0.0
 11
603.86043343602068
 21
-2372.817551996005
 31
0.0
  0
LINE
  5
9048
  8
SIZE
  6
CONTINUOUS
 62
     0
 10
385.86043343602063
 20
-2190.0599291946401
 30
0.0
 11
385.86043343602063
 21
-2372.817551996005
 31
0.0
  0
LINE
  5
9049
  8
SIZE
  6
CONTINUOUS
 62
     0
 10
593.86043343602046
 20
-2352.817551996005
 30
0.0
 11
395.86043343602063
 21
-2352.817551996005
 31
0.0
  0
INSERT
  5
904A
  8
SIZE
  6
CONTINUOUS
 62
     0
  2
_ORIGIN
 10
603.86043343602068
 20
-2352.817551996005
 30
0.0
 41
10.0
 42
10.0
 43
10.0
  0
INSERT
  5
904B
  8
SIZE
  6
CONTINUOUS
 62
     0
  2
_ORIGIN
 10
385.86043343602063
 20
-2352.817551996005
 30
0.0
 41
10.0
 42
10.0
 43
10.0
 50
180.0
  0
TEXT
  5
904C
  8
SIZE
  6
CONTINUOUS
 62
     0
 10
426.28900486459202
 20
-2342.817551996005
 30
0.0
 40
64.0
  1
218
 41
0.9
  0
POINT
  5
904D
  8
DEFPOINTS
  6
CONTINUOUS
 62
     0
 10
603.86043343602068
 20
-2170.0599291946401
 30
0.0
  0
POINT
  5
904E
  8
DEFPOINTS
  6
CONTINUOUS
 62
     0
 10
385.86043343602063
 20
-2170.0599291946401
 30
0.0
  0
POINT
  5
904F
  8
DEFPOINTS
  6
CONTINUOUS
 62
     0
 10
385.86043343602063
 20
-2352.817551996005
 30
0.0
  0
ENDBLK
  5
9050
  8
0
  0
BLOCK
  8
0
  2
*D32
 70
     1
 10
0.0
 20
0.0
 30
0.0
  3
*D32
  1

  0
LINE
  5
9053
  8
SIZE
  6
CONTINUOUS
 62
     0
 10
633.36043343602068
 20
-2190.0599291946401
 30
0.0
 11
633.36043343602068
 21
-2510.5008747731399
 31
0.0
  0
LINE
  5
9054
  8
SIZE
  6
CONTINUOUS
 62
     0
 10
356.36043343602063
 20
-2190.0599291946401
 30
0.0
 11
356.36043343602063
 21
-2510.5008747731399
 31
0.0
  0
LINE
  5
9055
  8
SIZE
  6
CONTINUOUS
 62
     0
 10
623.36043343602046
 20
-2490.5008747731399
 30
0.0
 11
366.36043343602063
 21
-2490.5008747731399
 31
0.0
  0
INSERT
  5
9056
  8
SIZE
  6
CONTINUOUS
 62
     0
  2
_ORIGIN
 10
633.36043343602068
 20
-2490.5008747731399
 30
0.0
 41
10.0
 42
10.0
 43
10.0
  0
INSERT
  5
9057
  8
SIZE
  6
CONTINUOUS
 62
     0
  2
_ORIGIN
 10
356.36043343602063
 20
-2490.5008747731399
 30
0.0
 41
10.0
 42
10.0
 43
10.0
 50
180.0
  0
TEXT
  5
9058
  8
SIZE
  6
CONTINUOUS
 62
     0
 10
420.80329057887758
 20
-2480.5008747731408
 30
0.0
 40
64.0
  1
277
 41
0.9
  0
POINT
  5
9059
  8
DEFPOINTS
  6
CONTINUOUS
 62
     0
 10
633.36043343602068
 20
-2170.0599291946401
 30
0.0
  0
POINT
  5
905A
  8
DEFPOINTS
  6
CONTINUOUS
 62
     0
 10
356.36043343602063
 20
-2170.0599291946401
 30
0.0
  0
POINT
  5
905B
  8
DEFPOINTS
  6
CONTINUOUS
 62
     0
 10
356.36043343602063
 20
-2490.5008747731399
 30
0.0
  0
ENDBLK
  5
905C
  8
0
  0
BLOCK
  8
0
  2
*D33
 70
     1
 10
0.0
 20
0.0
 30
0.0
  3
*D33
  1

  0
LINE
  5
905F
  8
SIZE
  6
CONTINUOUS
 62
     0
 10
794.86043343602034
 20
-2170.0599291946401
 30
0.0
 11
794.86043343602034
 21
-2635.8710867219052
 31
0.0
  0
LINE
  5
9060
  8
SIZE
  6
CONTINUOUS
 62
     0
 10
194.86043343602049
 20
-2170.0599291946401
 30
0.0
 11
194.86043343602049
 21
-2635.8710867219052
 31
0.0
  0
LINE
  5
9061
  8
SIZE
  6
CONTINUOUS
 62
     0
 10
784.86043343602034
 20
-2615.8710867219038
 30
0.0
 11
204.86043343602049
 21
-2615.8710867219038
 31
0.0
  0
INSERT
  5
9062
  8
SIZE
  6
CONTINUOUS
 62
     0
  2
_ORIGIN
 10
794.86043343602034
 20
-2615.8710867219038
 30
0.0
 41
10.0
 42
10.0
 43
10.0
  0
INSERT
  5
9063
  8
SIZE
  6
CONTINUOUS
 62
     0
  2
_ORIGIN
 10
194.86043343602049
 20
-2615.8710867219038
 30
0.0
 41
10.0
 42
10.0
 43
10.0
 50
180.0
  0
TEXT
  5
9064
  8
SIZE
  6
CONTINUOUS
 62
     0
 10
420.80329057887758
 20
-2605.8710867219038
 30
0.0
 40
64.0
  1
600
 41
0.9
  0
POINT
  5
9065
  8
DEFPOINTS
  6
CONTINUOUS
 62
     0
 10
794.86043343602034
 20
-2150.0599291946401
 30
0.0
  0
POINT
  5
9066
  8
DEFPOINTS
  6
CONTINUOUS
 62
     0
 10
194.86043343602049
 20
-2150.0599291946401
 30
0.0
  0
POINT
  5
9067
  8
DEFPOINTS
  6
CONTINUOUS
 62
     0
 10
194.86043343602049
 20
-2615.8710867219038
 30
0.0
  0
ENDBLK
  5
9068
  8
0
  0
BLOCK
  8
0
  2
*D34
 70
     1
 10
0.0
 20
0.0
 30
0.0
  3
*D34
  1

  0
LINE
  5
906B
  8
SIZE
  6
CONTINUOUS
 62
     0
 10
814.86043343602068
 20
-2150.0599291946401
 30
0.0
 11
1043.4434582171441
 21
-2150.0599291946401
 31
0.0
  0
LINE
  5
906C
  8
SIZE
  6
CONTINUOUS
 62
     0
 10
814.86043343602068
 20
-250.05992919464001
 30
0.0
 11
1043.443458217145
 21
-250.05992919464009
 31
0.0
  0
LINE
  5
906D
  8
SIZE
  6
CONTINUOUS
 62
     0
 10
1023.443458217144
 20
-2140.0599291946401
 30
0.0
 11
1023.443458217144
 21
-260.05992919464001
 31
0.0
  0
INSERT
  5
906E
  8
SIZE
  6
CONTINUOUS
 62
     0
  2
_ORIGIN
 10
1023.443458217144
 20
-2150.0599291946401
 30
0.0
 41
10.0
 42
10.0
 43
10.0
 50
270.0
  0
INSERT
  5
906F
  8
SIZE
  6
CONTINUOUS
 62
     0
  2
_ORIGIN
 10
1023.443458217144
 20
-250.05992919464009
 30
0.0
 41
10.0
 42
10.0
 43
10.0
 50
90.0
  0
TEXT
  5
9070
  8
SIZE
  6
CONTINUOUS
 62
     0
 10
1013.443458217144
 20
-1296.0599291946401
 30
0.0
 40
64.0
  1
1900
 50
90.0
 41
0.9
  0
POINT
  5
9071
  8
DEFPOINTS
  6
CONTINUOUS
 62
     0
 10
794.86043343602034
 20
-2150.0599291946401
 30
0.0
  0
POINT
  5
9072
  8
DEFPOINTS
  6
CONTINUOUS
 62
     0
 10
794.86043343602034
 20
-250.05992919464001
 30
0.0
  0
POINT
  5
9073
  8
DEFPOINTS
  6
CONTINUOUS
 62
     0
 10
1023.443458217144
 20
-250.05992919464009
 30
0.0
  0
ENDBLK
  5
9074
  8
0
  0
BLOCK
  8
0
  2
*D35
 70
     1
 10
0.0
 20
0.0
 30
0.0
  3
*D35
  1

  0
LINE
  5
9077
  8
SIZE
  6
CONTINUOUS
 62
     0
 10
814.86043343602068
 20
-250.05992919464001
 30
0.0
 11
1043.443458217145
 21
-250.05992919464009
 31
0.0
  0
LINE
  5
9078
  8
SIZE
  6
CONTINUOUS
 62
     0
 10
644.86043343602034
 20
-210.05992919464001
 30
0.0
 11
1043.443458217145
 21
-210.05992919464009
 31
0.0
  0
LINE
  5
9079
  8
SIZE
  6
CONTINUOUS
 62
     0
 10
1023.443458217144
 20
-260.05992919464001
 30
0.0
 11
1023.443458217144
 21
-270.05992919464001
 31
0.0
  0
LINE
  5
907A
  8
SIZE
  6
CONTINUOUS
 62
     0
 10
1023.443458217144
 20
-200.05992919464009
 30
0.0
 11
1023.443458217144
 21
-76.802786337497309
 31
0.0
  0
LINE
  5
907B
  8
SIZE
  6
CONTINUOUS
 62
     0
 10
1023.443458217144
 20
-250.05992919464009
 30
0.0
 11
1023.443458217144
 21
-210.05992919464009
 31
0.0
  0
INSERT
  5
907C
  8
SIZE
  6
CONTINUOUS
 62
     0
  2
_ORIGIN
 10
1023.443458217144
 20
-250.05992919464009
 30
0.0
 41
10.0
 42
10.0
 43
10.0
 50
90.0
  0
INSERT
  5
907D
  8
SIZE
  6
CONTINUOUS
 62
     0
  2
_ORIGIN
 10
1023.443458217144
 20
-210.05992919464009
 30
0.0
 41
10.0
 42
10.0
 43
10.0
 50
270.0
  0
TEXT
  5
907E
  8
SIZE
  6
CONTINUOUS
 62
     0
 10
1013.443458217144
 20
-180.05992919463981
 30
0.0
 40
64.0
  1
40
 50
90.0
 41
0.9
  0
POINT
  5
907F
  8
DEFPOINTS
  6
CONTINUOUS
 62
     0
 10
794.86043343602034
 20
-250.05992919464001
 30
0.0
  0
POINT
  5
9080
  8
DEFPOINTS
  6
CONTINUOUS
 62
     0
 10
624.86043343602068
 20
-210.05992919464001
 30
0.0
  0
POINT
  5
9081
  8
DEFPOINTS
  6
CONTINUOUS
 62
     0
 10
1023.443458217144
 20
-210.05992919464009
 30
0.0
  0
ENDBLK
  5
9082
  8
0
  0
BLOCK
  8
0
  2
*D36
 70
     1
 10
0.0
 20
0.0
 30
0.0
  3
*D36
  1

  0
LINE
  5
9085
  8
SIZE
  6
CONTINUOUS
 62
     0
 10
-4194.5158027216739
 20
-3702.7518569205558
 30
0.0
 11
-4028.8900899656519
 21
-3702.7518569205558
 31
0.0
  0
LINE
  5
9086
  8
SIZE
  6
CONTINUOUS
 62
     0
 10
-4194.5158027216739
 20
-3772.751856920554
 30
0.0
 11
-4028.8900899656519
 21
-3772.751856920554
 31
0.0
  0
LINE
  5
9087
  8
SIZE
  6
CONTINUOUS
 62
     0
 10
-4048.890089965651
 20
-3692.7518569205558
 30
0.0
 11
-4048.890089965651
 21
-3682.751856920554
 31
0.0
  0
LINE
  5
9088
  8
SIZE
  6
CONTINUOUS
 62
     0
 10
-4048.890089965651
 20
-3782.7518569205558
 30
0.0
 11
-4048.890089965651
 21
-3906.0089997776972
 31
0.0
  0
LINE
  5
9089
  8
SIZE
  6
CONTINUOUS
 62
     0
 10
-4048.890089965651
 20
-3702.7518569205558
 30
0.0
 11
-4048.890089965651
 21
-3772.751856920554
 31
0.0
  0
INSERT
  5
908A
  8
SIZE
  6
CONTINUOUS
 62
     0
  2
_ORIGIN
 10
-4048.890089965651
 20
-3702.7518569205558
 30
0.0
 41
10.0
 42
10.0
 43
10.0
 50
270.0
  0
INSERT
  5
908B
  8
SIZE
  6
CONTINUOUS
 62
     0
  2
_ORIGIN
 10
-4048.890089965651
 20
-3772.751856920554
 30
0.0
 41
10.0
 42
10.0
 43
10.0
 50
90.0
  0
TEXT
  5
908C
  8
SIZE
  6
CONTINUOUS
 62
     0
 10
-4058.8900899656492
 20
-3896.0089997776972
 30
0.0
 40
64.0
  1
70
 50
90.0
 41
0.9
  0
POINT
  5
908D
  8
DEFPOINTS
  6
CONTINUOUS
 62
     0
 10
-4214.5158027216748
 20
-3702.7518569205558
 30
0.0
  0
POINT
  5
908E
  8
DEFPOINTS
  6
CONTINUOUS
 62
     0
 10
-4214.5158027216748
 20
-3772.751856920554
 30
0.0
  0
POINT
  5
908F
  8
DEFPOINTS
  6
CONTINUOUS
 62
     0
 10
-4048.890089965651
 20
-3772.751856920554
 30
0.0
  0
ENDBLK
  5
9090
  8
0
  0
BLOCK
  8
0
  2
*D37
 70
     1
 10
0.0
 20
0.0
 30
0.0
  3
*D37
  1

  0
LINE
  5
9093
  8
SIZE
  6
CONTINUOUS
 62
     0
 10
-4214.5158027216748
 20
-3592.7518569205558
 30
0.0
 11
-3898.6351414299329
 21
-3592.7518569205558
 31
0.0
  0
LINE
  5
9094
  8
SIZE
  6
CONTINUOUS
 62
     0
 10
-4194.5158027216739
 20
-3772.751856920554
 30
0.0
 11
-3898.6351414299329
 21
-3772.751856920554
 31
0.0
  0
LINE
  5
9095
  8
SIZE
  6
CONTINUOUS
 62
     0
 10
-3918.6351414299352
 20
-3602.7518569205558
 30
0.0
 11
-3918.6351414299352
 21
-3762.751856920554
 31
0.0
  0
INSERT
  5
9096
  8
SIZE
  6
CONTINUOUS
 62
     0
  2
_ORIGIN
 10
-3918.6351414299352
 20
-3592.7518569205558
 30
0.0
 41
10.0
 42
10.0
 43
10.0
 50
90.0
  0
INSERT
  5
9097
  8
SIZE
  6
CONTINUOUS
 62
     0
  2
_ORIGIN
 10
-3918.6351414299352
 20
-3772.751856920554
 30
0.0
 41
10.0
 42
10.0
 43
10.0
 50
270.0
  0
TEXT
  5
9098
  8
SIZE
  6
CONTINUOUS
 62
     0
 10
-3928.6351414299329
 20
-3751.3232854919838
 30
0.0
 40
64.0
  1
180
 50
90.0
 41
0.9
  0
POINT
  5
9099
  8
DEFPOINTS
  6
CONTINUOUS
 62
     0
 10
-4234.5158027216739
 20
-3592.7518569205558
 30
0.0
  0
POINT
  5
909A
  8
DEFPOINTS
  6
CONTINUOUS
 62
     0
 10
-4214.5158027216748
 20
-3772.751856920554
 30
0.0
  0
POINT
  5
909B
  8
DEFPOINTS
  6
CONTINUOUS
 62
     0
 10
-3918.6351414299352
 20
-3772.751856920554
 30
0.0
  0
ENDBLK
  5
909C
  8
0
  0
BLOCK
  8
0
  2
*D38
 70
     1
 10
0.0
 20
0.0
 30
0.0
  3
*D38
  1

  0
LINE
  5
909F
  8
SIZE
  6
CONTINUOUS
 62
     0
 10
-4834.5158027216739
 20
-3882.7518569205558
 30
0.0
 11
-4834.5158027216739
 21
-4264.6082156594784
 31
0.0
  0
LINE
  5
90A0
  8
SIZE
  6
CONTINUOUS
 62
     0
 10
-4234.5158027216739
 20
-3882.7518569205558
 30
0.0
 11
-4234.5158027216739
 21
-4264.6082156594784
 31
0.0
  0
LINE
  5
90A1
  8
SIZE
  6
CONTINUOUS
 62
     0
 10
-4824.515802721673
 20
-4244.6082156594784
 30
0.0
 11
-4244.5158027216739
 21
-4244.6082156594784
 31
0.0
  0
INSERT
  5
90A2
  8
SIZE
  6
CONTINUOUS
 62
     0
  2
_ORIGIN
 10
-4834.5158027216739
 20
-4244.6082156594784
 30
0.0
 41
10.0
 42
10.0
 43
10.0
 50
180.0
  0
INSERT
  5
90A3
  8
SIZE
  6
CONTINUOUS
 62
     0
  2
_ORIGIN
 10
-4234.5158027216739
 20
-4244.6082156594784
 30
0.0
 41
10.0
 42
10.0
 43
10.0
  0
TEXT
  5
90A4
  8
SIZE
  6
CONTINUOUS
 62
     0
 10
-4608.572945578816
 20
-4234.6082156594784
 30
0.0
 40
64.0
  1
600
 41
0.9
  0
POINT
  5
90A5
  8
DEFPOINTS
  6
CONTINUOUS
 62
     0
 10
-4834.5158027216739
 20
-3862.751856920554
 30
0.0
  0
POINT
  5
90A6
  8
DEFPOINTS
  6
CONTINUOUS
 62
     0
 10
-4234.5158027216739
 20
-3862.751856920554
 30
0.0
  0
POINT
  5
90A7
  8
DEFPOINTS
  6
CONTINUOUS
 62
     0
 10
-4234.5158027216739
 20
-4244.6082156594784
 30
0.0
  0
ENDBLK
  5
90A8
  8
0
  0
BLOCK
  8
0
  2
*D39
 70
     1
 10
0.0
 20
0.0
 30
0.0
  3
*D39
  1

  0
LINE
  5
90AB
  8
SIZE
  6
CONTINUOUS
 62
     0
 10
-4854.5158027216748
 20
-3592.7518569205558
 30
0.0
 11
-5017.1450845559821
 21
-3592.7518569205558
 31
0.0
  0
LINE
  5
90AC
  8
SIZE
  6
CONTINUOUS
 62
     0
 10
-4713.015802721673
 20
-3647.751856920554
 30
0.0
 11
-5017.1450845559821
 21
-3647.751856920554
 31
0.0
  0
LINE
  5
90AD
  8
SIZE
  6
CONTINUOUS
 62
     0
 10
-4997.1450845559821
 20
-3657.7518569205558
 30
0.0
 11
-4997.1450845559821
 21
-3667.7518569205558
 31
0.0
  0
LINE
  5
90AE
  8
SIZE
  6
CONTINUOUS
 62
     0
 10
-4997.1450845559821
 20
-3582.7518569205549
 30
0.0
 11
-4997.1450845559821
 21
-3459.4947140634058
 31
0.0
  0
LINE
  5
90AF
  8
SIZE
  6
CONTINUOUS
 62
     0
 10
-4997.1450845559821
 20
-3647.751856920554
 30
0.0
 11
-4997.1450845559821
 21
-3592.7518569205558
 31
0.0
  0
INSERT
  5
90B0
  8
SIZE
  6
CONTINUOUS
 62
     0
  2
_ORIGIN
 10
-4997.1450845559821
 20
-3647.751856920554
 30
0.0
 41
10.0
 42
10.0
 43
10.0
 50
90.0
  0
INSERT
  5
90B1
  8
SIZE
  6
CONTINUOUS
 62
     0
  2
_ORIGIN
 10
-4997.1450845559821
 20
-3592.7518569205558
 30
0.0
 41
10.0
 42
10.0
 43
10.0
 50
270.0
  0
TEXT
  5
90B2
  8
SIZE
  6
CONTINUOUS
 62
     0
 10
-5007.1450845559812
 20
-3562.7518569205481
 30
0.0
 40
64.0
  1
55
 50
90.0
 41
0.9
  0
POINT
  5
90B3
  8
DEFPOINTS
  6
CONTINUOUS
 62
     0
 10
-4834.5158027216739
 20
-3592.7518569205558
 30
0.0
  0
POINT
  5
90B4
  8
DEFPOINTS
  6
CONTINUOUS
 62
     0
 10
-4693.015802721673
 20
-3647.751856920554
 30
0.0
  0
POINT
  5
90B5
  8
DEFPOINTS
  6
CONTINUOUS
 62
     0
 10
-4997.1450845559821
 20
-3647.751856920554
 30
0.0
  0
ENDBLK
  5
90B6
  8
0
  0
BLOCK
  8
0
  2
*D40
 70
     1
 10
0.0
 20
0.0
 30
0.0
  3
*D40
  1

  0
LINE
  5
90B9
  8
SIZE
  6
CONTINUOUS
 62
     0
 10
-4713.015802721673
 20
-3647.751856920554
 30
0.0
 11
-5017.1450845559812
 21
-3647.751856920554
 31
0.0
  0
LINE
  5
90BA
  8
SIZE
  6
CONTINUOUS
 62
     0
 10
-4683.5158027216739
 20
-3790.7518569205558
 30
0.0
 11
-5017.1450845559812
 21
-3790.7518569205558
 31
0.0
  0
LINE
  5
90BB
  8
SIZE
  6
CONTINUOUS
 62
     0
 10
-4997.1450845559812
 20
-3637.751856920554
 30
0.0
 11
-4997.1450845559812
 21
-3627.7518569205558
 31
0.0
  0
LINE
  5
90BC
  8
SIZE
  6
CONTINUOUS
 62
     0
 10
-4997.1450845559812
 20
-3800.751856920554
 30
0.0
 11
-4997.1450845559812
 21
-3967.8947140634132
 31
0.0
  0
LINE
  5
90BD
  8
SIZE
  6
CONTINUOUS
 62
     0
 10
-4997.1450845559812
 20
-3647.751856920554
 30
0.0
 11
-4997.1450845559812
 21
-3790.7518569205558
 31
0.0
  0
INSERT
  5
90BE
  8
SIZE
  6
CONTINUOUS
 62
     0
  2
_ORIGIN
 10
-4997.1450845559812
 20
-3647.751856920554
 30
0.0
 41
10.0
 42
10.0
 43
10.0
 50
270.0
  0
INSERT
  5
90BF
  8
SIZE
  6
CONTINUOUS
 62
     0
  2
_ORIGIN
 10
-4997.1450845559812
 20
-3790.7518569205558
 30
0.0
 41
10.0
 42
10.0
 43
10.0
 50
90.0
  0
TEXT
  5
90C0
  8
SIZE
  6
CONTINUOUS
 62
     0
 10
-5007.1450845559802
 20
-3957.8947140634132
 30
0.0
 40
64.0
  1
143
 50
90.0
 41
0.9
  0
POINT
  5
90C1
  8
DEFPOINTS
  6
CONTINUOUS
 62
     0
 10
-4693.015802721673
 20
-3647.751856920554
 30
0.0
  0
POINT
  5
90C2
  8
DEFPOINTS
  6
CONTINUOUS
 62
     0
 10
-4663.5158027216739
 20
-3790.7518569205558
 30
0.0
  0
POINT
  5
90C3
  8
DEFPOINTS
  6
CONTINUOUS
 62
     0
 10
-4997.1450845559812
 20
-3790.7518569205558
 30
0.0
  0
ENDBLK
  5
90C4
  8
0
  0
BLOCK
  8
0
  2
*D41
 70
     1
 10
0.0
 20
0.0
 30
0.0
  3
*D41
  1

  0
LINE
  5
90C7
  8
SIZE
  6
CONTINUOUS
 62
     0
 10
-4673.0158027216739
 20
-3607.7518569205558
 30
0.0
 11
-4673.0158027216739
 21
-3450.6184729117672
 31
0.0
  0
LINE
  5
90C8
  8
SIZE
  6
CONTINUOUS
 62
     0
 10
-4396.0158027216748
 20
-3607.7518569205558
 30
0.0
 11
-4396.0158027216748
 21
-3450.6184729117672
 31
0.0
  0
LINE
  5
90C9
  8
SIZE
  6
CONTINUOUS
 62
     0
 10
-4663.015802721673
 20
-3470.6184729117658
 30
0.0
 11
-4406.0158027216739
 21
-3470.6184729117658
 31
0.0
  0
INSERT
  5
90CA
  8
SIZE
  6
CONTINUOUS
 62
     0
  2
_ORIGIN
 10
-4673.0158027216739
 20
-3470.6184729117658
 30
0.0
 41
10.0
 42
10.0
 43
10.0
 50
180.0
  0
INSERT
  5
90CB
  8
SIZE
  6
CONTINUOUS
 62
     0
  2
_ORIGIN
 10
-4396.0158027216748
 20
-3470.6184729117658
 30
0.0
 41
10.0
 42
10.0
 43
10.0
  0
TEXT
  5
90CC
  8
SIZE
  6
CONTINUOUS
 62
     0
 10
-4608.572945578816
 20
-3460.6184729117649
 30
0.0
 40
64.0
  1
277
 41
0.9
  0
POINT
  5
90CD
  8
DEFPOINTS
  6
CONTINUOUS
 62
     0
 10
-4673.0158027216739
 20
-3627.7518569205558
 30
0.0
  0
POINT
  5
90CE
  8
DEFPOINTS
  6
CONTINUOUS
 62
     0
 10
-4396.0158027216748
 20
-3627.7518569205558
 30
0.0
  0
POINT
  5
90CF
  8
DEFPOINTS
  6
CONTINUOUS
 62
     0
 10
-4396.0158027216748
 20
-3470.6184729117658
 30
0.0
  0
ENDBLK
  5
90D0
  8
0
  0
BLOCK
  8
0
  2
*D42
 70
     1
 10
0.0
 20
0.0
 30
0.0
  3
*D42
  1

  0
LINE
  5
90D3
  8
SIZE
  6
CONTINUOUS
 62
     0
 10
-4643.515802721673
 20
-3830.7518569205558
 30
0.0
 11
-4643.515802721673
 21
-4026.7793638751609
 31
0.0
  0
LINE
  5
90D4
  8
SIZE
  6
CONTINUOUS
 62
     0
 10
-4425.5158027216748
 20
-3830.7518569205558
 30
0.0
 11
-4425.5158027216748
 21
-4026.7793638751609
 31
0.0
  0
LINE
  5
90D5
  8
SIZE
  6
CONTINUOUS
 62
     0
 10
-4633.5158027216739
 20
-4006.77936387516
 30
0.0
 11
-4435.5158027216748
 21
-4006.77936387516
 31
0.0
  0
INSERT
  5
90D6
  8
SIZE
  6
CONTINUOUS
 62
     0
  2
_ORIGIN
 10
-4643.515802721673
 20
-4006.77936387516
 30
0.0
 41
10.0
 42
10.0
 43
10.0
 50
180.0
  0
INSERT
  5
90D7
  8
SIZE
  6
CONTINUOUS
 62
     0
  2
_ORIGIN
 10
-4425.5158027216748
 20
-4006.77936387516
 30
0.0
 41
10.0
 42
10.0
 43
10.0
  0
TEXT
  5
90D8
  8
SIZE
  6
CONTINUOUS
 62
     0
 10
-4603.0872312931033
 20
-3996.7793638751609
 30
0.0
 40
64.0
  1
218
 41
0.9
  0
POINT
  5
90D9
  8
DEFPOINTS
  6
CONTINUOUS
 62
     0
 10
-4643.515802721673
 20
-3810.7518569205531
 30
0.0
  0
POINT
  5
90DA
  8
DEFPOINTS
  6
CONTINUOUS
 62
     0
 10
-4425.5158027216748
 20
-3810.7518569205531
 30
0.0
  0
POINT
  5
90DB
  8
DEFPOINTS
  6
CONTINUOUS
 62
     0
 10
-4425.5158027216748
 20
-4006.77936387516
 30
0.0
  0
ENDBLK
  5
90DC
  8
0
  0
BLOCK
  8
0
  2
*D43
 70
     1
 10
0.0
 20
0.0
 30
0.0
  3
*D43
  1

  0
LINE
  5
90DF
  8
SIZE
  6
CONTINUOUS
 62
     0
 10
-6898.1797329067122
 20
-2170.0599291946401
 30
0.0
 11
-6898.1797329067122
 21
-2455.079922524149
 31
0.0
  0
LINE
  5
90E0
  8
SIZE
  6
CONTINUOUS
 62
     0
 10
-6843.1797329067113
 20
-2190.0599291946401
 30
0.0
 11
-6843.1797329067113
 21
-2455.079922524149
 31
0.0
  0
LINE
  5
90E1
  8
SIZE
  6
CONTINUOUS
 62
     0
 10
-6833.1797329067131
 20
-2435.079922524149
 30
0.0
 11
-6823.1797329067122
 21
-2435.079922524149
 31
0.0
  0
LINE
  5
90E2
  8
SIZE
  6
CONTINUOUS
 62
     0
 10
-6908.1797329067131
 20
-2435.079922524149
 30
0.0
 11
-7031.4368757638549
 21
-2435.079922524149
 31
0.0
  0
LINE
  5
90E3
  8
SIZE
  6
CONTINUOUS
 62
     0
 10
-6843.1797329067113
 20
-2435.079922524149
 30
0.0
 11
-6898.1797329067122
 21
-2435.079922524149
 31
0.0
  0
INSERT
  5
90E4
  8
SIZE
  6
CONTINUOUS
 62
     0
  2
_ORIGIN
 10
-6843.1797329067113
 20
-2435.079922524149
 30
0.0
 41
10.0
 42
10.0
 43
10.0
 50
180.0
  0
INSERT
  5
90E5
  8
SIZE
  6
CONTINUOUS
 62
     0
  2
_ORIGIN
 10
-6898.1797329067122
 20
-2435.079922524149
 30
0.0
 41
10.0
 42
10.0
 43
10.0
  0
TEXT
  5
90E6
  8
SIZE
  6
CONTINUOUS
 62
     0
 10
-7021.4368757638549
 20
-2425.079922524149
 30
0.0
 40
64.0
  1
55
 41
0.9
  0
POINT
  5
90E7
  8
DEFPOINTS
  6
CONTINUOUS
 62
     0
 10
-6898.1797329067122
 20
-2150.0599291946401
 30
0.0
  0
POINT
  5
90E8
  8
DEFPOINTS
  6
CONTINUOUS
 62
     0
 10
-6843.1797329067113
 20
-2170.0599291946401
 30
0.0
  0
POINT
  5
90E9
  8
DEFPOINTS
  6
CONTINUOUS
 62
     0
 10
-6843.1797329067113
 20
-2435.079922524149
 30
0.0
  0
ENDBLK
  5
90EA
  8
0
  0
BLOCK
  8
0
  2
*D44
 70
     1
 10
0.0
 20
0.0
 30
0.0
  3
*D44
  1

  0
LINE
  5
90ED
  8
SIZE
  6
CONTINUOUS
 62
     0
 10
-6843.1797329067113
 20
-2190.0599291946401
 30
0.0
 11
-6843.1797329067113
 21
-2455.079922524149
 31
0.0
  0
LINE
  5
90EE
  8
SIZE
  6
CONTINUOUS
 62
     0
 10
-6700.1797329067113
 20
-2190.0599291946401
 30
0.0
 11
-6700.1797329067113
 21
-2455.079922524149
 31
0.0
  0
LINE
  5
90EF
  8
SIZE
  6
CONTINUOUS
 62
     0
 10
-6853.1797329067122
 20
-2435.079922524149
 30
0.0
 11
-6863.1797329067113
 21
-2435.079922524149
 31
0.0
  0
LINE
  5
90F0
  8
SIZE
  6
CONTINUOUS
 62
     0
 10
-6690.1797329067103
 20
-2435.079922524149
 30
0.0
 11
-6453.0844672164521
 21
-2435.079922524149
 31
0.0
  0
LINE
  5
90F1
  8
SIZE
  6
CONTINUOUS
 62
     0
 10
-6843.1797329067113
 20
-2435.079922524149
 30
0.0
 11
-6700.1797329067113
 21
-2435.079922524149
 31
0.0
  0
INSERT
  5
90F2
  8
SIZE
  6
CONTINUOUS
 62
     0
  2
_ORIGIN
 10
-6843.1797329067113
 20
-2435.079922524149
 30
0.0
 41
10.0
 42
10.0
 43
10.0
  0
INSERT
  5
90F3
  8
SIZE
  6
CONTINUOUS
 62
     0
  2
_ORIGIN
 10
-6700.1797329067113
 20
-2435.079922524149
 30
0.0
 41
10.0
 42
10.0
 43
10.0
 50
180.0
  0
TEXT
  5
90F4
  8
SIZE
  6
CONTINUOUS
 62
     0
 10
-6600.227324359309
 20
-2425.079922524149
 30
0.0
 40
64.0
  1
143
 41
0.9
  0
POINT
  5
90F5
  8
DEFPOINTS
  6
CONTINUOUS
 62
     0
 10
-6843.1797329067113
 20
-2170.0599291946401
 30
0.0
  0
POINT
  5
90F6
  8
DEFPOINTS
  6
CONTINUOUS
 62
     0
 10
-6700.1797329067113
 20
-2170.0599291946401
 30
0.0
  0
POINT
  5
90F7
  8
DEFPOINTS
  6
CONTINUOUS
 62
     0
 10
-6700.1797329067113
 20
-2435.079922524149
 30
0.0
  0
ENDBLK
  5
90F8
  8
0
  0
BLOCK
  8
0
  2
*D45
 70
     1
 10
0.0
 20
0.0
 30
0.0
  3
*D45
  1

  0
LINE
  5
90FB
  8
SIZE
  6
CONTINUOUS
 62
     0
 10
-6663.1797329067113
 20
-2170.0599291946401
 30
0.0
 11
-6663.1797329067113
 21
-2589.347306084062
 31
0.0
  0
LINE
  5
90FC
  8
SIZE
  6
CONTINUOUS
 62
     0
 10
-6898.1797329067122
 20
-2170.0599291946401
 30
0.0
 11
-6898.1797329067122
 21
-2589.347306084062
 31
0.0
  0
LINE
  5
90FD
  8
SIZE
  6
CONTINUOUS
 62
     0
 10
-6673.1797329067122
 20
-2569.347306084062
 30
0.0
 11
-6888.1797329067131
 21
-2569.347306084062
 31
0.0
  0
INSERT
  5
90FE
  8
SIZE
  6
CONTINUOUS
 62
     0
  2
_ORIGIN
 10
-6663.1797329067113
 20
-2569.347306084062
 30
0.0
 41
10.0
 42
10.0
 43
10.0
  0
INSERT
  5
90FF
  8
SIZE
  6
CONTINUOUS
 62
     0
  2
_ORIGIN
 10
-6898.1797329067122
 20
-2569.347306084062
 30
0.0
 41
10.0
 42
10.0
 43
10.0
 50
180.0
  0
TEXT
  5
9100
  8
SIZE
  6
CONTINUOUS
 62
     0
 10
-6854.7368757638551
 20
-2559.3473060840611
 30
0.0
 40
64.0
  1
235
 41
0.9
  0
POINT
  5
9101
  8
DEFPOINTS
  6
CONTINUOUS
 62
     0
 10
-6663.1797329067113
 20
-2150.0599291946401
 30
0.0
  0
POINT
  5
9102
  8
DEFPOINTS
  6
CONTINUOUS
 62
     0
 10
-6898.1797329067122
 20
-2150.0599291946401
 30
0.0
  0
POINT
  5
9103
  8
DEFPOINTS
  6
CONTINUOUS
 62
     0
 10
-6898.1797329067122
 20
-2569.347306084062
 30
0.0
  0
ENDBLK
  5
9104
  8
0
  0
BLOCK
  8
0
  2
*D46
 70
     1
 10
0.0
 20
0.0
 30
0.0
  3
*D46
  1

  0
LINE
  5
9107
  8
SIZE
  6
CONTINUOUS
 62
     0
 10
-6918.1797329067113
 20
-2150.0599291946401
 30
0.0
 11
-7070.320952232556
 21
-2150.0599291946401
 31
0.0
  0
LINE
  5
9108
  8
SIZE
  6
CONTINUOUS
 62
     0
 10
-6752.1797329067131
 20
-1670.0599291946401
 30
0.0
 11
-7070.320952232556
 21
-1670.0599291946401
 31
0.0
  0
LINE
  5
9109
  8
SIZE
  6
CONTINUOUS
 62
     0
 10
-7050.3209522325569
 20
-2140.0599291946401
 30
0.0
 11
-7050.320952232556
 21
-1680.0599291946389
 31
0.0
  0
INSERT
  5
910A
  8
SIZE
  6
CONTINUOUS
 62
     0
  2
_ORIGIN
 10
-7050.3209522325569
 20
-2150.0599291946401
 30
0.0
 41
10.0
 42
10.0
 43
10.0
 50
270.0
  0
INSERT
  5
910B
  8
SIZE
  6
CONTINUOUS
 62
     0
  2
_ORIGIN
 10
-7050.320952232556
 20
-1670.0599291946401
 30
0.0
 41
10.0
 42
10.0
 43
10.0
 50
90.0
  0
TEXT
  5
910C
  8
SIZE
  6
CONTINUOUS
 62
     0
 10
-7060.3209522325551
 20
-1984.1170720517759
 30
0.0
 40
64.0
  1
480
 50
90.0
 41
0.9
  0
POINT
  5
910D
  8
DEFPOINTS
  6
CONTINUOUS
 62
     0
 10
-6898.1797329067122
 20
-2150.0599291946401
 30
0.0
  0
POINT
  5
910E
  8
DEFPOINTS
  6
CONTINUOUS
 62
     0
 10
-6732.1797329067113
 20
-1670.0599291946401
 30
0.0
  0
POINT
  5
910F
  8
DEFPOINTS
  6
CONTINUOUS
 62
     0
 10
-7050.320952232556
 20
-1670.0599291946401
 30
0.0
  0
ENDBLK
  5
9110
  8
0
  0
BLOCK
  8
0
  2
*D47
 70
     1
 10
0.0
 20
0.0
 30
0.0
  3
*D47
  1

  0
LINE
  5
9113
  8
SIZE
  6
CONTINUOUS
 62
     0
 10
-6918.1797329067113
 20
-2150.0599291946401
 30
0.0
 11
-7200.3711655647003
 21
-2150.0599291946392
 31
0.0
  0
LINE
  5
9114
  8
SIZE
  6
CONTINUOUS
 62
     0
 10
-6752.1797329067131
 20
-1560.0599291946401
 30
0.0
 11
-7200.3711655646975
 21
-1560.0599291946401
 31
0.0
  0
LINE
  5
9115
  8
SIZE
  6
CONTINUOUS
 62
     0
 10
-7180.3711655646994
 20
-2140.0599291946392
 30
0.0
 11
-7180.3711655646994
 21
-1570.0599291946389
 31
0.0
  0
INSERT
  5
9116
  8
SIZE
  6
CONTINUOUS
 62
     0
  2
_ORIGIN
 10
-7180.3711655646994
 20
-2150.0599291946392
 30
0.0
 41
10.0
 42
10.0
 43
10.0
 50
270.0
  0
INSERT
  5
9117
  8
SIZE
  6
CONTINUOUS
 62
     0
  2
_ORIGIN
 10
-7180.3711655646994
 20
-1560.0599291946401
 30
0.0
 41
10.0
 42
10.0
 43
10.0
 50
90.0
  0
TEXT
  5
9118
  8
SIZE
  6
CONTINUOUS
 62
     0
 10
-7190.3711655646975
 20
-1929.1170720517759
 30
0.0
 40
64.0
  1
590
 50
90.0
 41
0.9
  0
POINT
  5
9119
  8
DEFPOINTS
  6
CONTINUOUS
 62
     0
 10
-6898.1797329067122
 20
-2150.0599291946401
 30
0.0
  0
POINT
  5
911A
  8
DEFPOINTS
  6
CONTINUOUS
 62
     0
 10
-6732.1797329067113
 20
-1560.0599291946401
 30
0.0
  0
POINT
  5
911B
  8
DEFPOINTS
  6
CONTINUOUS
 62
     0
 10
-7180.3711655646994
 20
-1560.0599291946401
 30
0.0
  0
ENDBLK
  5
911C
  8
0
  0
BLOCK
  8
0
  2
*D48
 70
     1
 10
0.0
 20
0.0
 30
0.0
  3
*D48
  1

  0
LINE
  5
911F
  8
SIZE
  6
CONTINUOUS
 62
     0
 10
-6918.1797329067113
 20
-2150.0599291946401
 30
0.0
 11
-7330.4213071103241
 21
-2150.0599291946392
 31
0.0
  0
LINE
  5
9120
  8
SIZE
  6
CONTINUOUS
 62
     0
 10
-6918.1797329067113
 20
-250.05992919464001
 30
0.0
 11
-7330.4213071103222
 21
-250.05992919463981
 31
0.0
  0
LINE
  5
9121
  8
SIZE
  6
CONTINUOUS
 62
     0
 10
-7310.4213071103231
 20
-2140.0599291946392
 30
0.0
 11
-7310.4213071103213
 21
-260.05992919463972
 31
0.0
  0
INSERT
  5
9122
  8
SIZE
  6
CONTINUOUS
 62
     0
  2
_ORIGIN
 10
-7310.4213071103231
 20
-2150.0599291946392
 30
0.0
 41
10.0
 42
10.0
 43
10.0
 50
270.0
  0
INSERT
  5
9123
  8
SIZE
  6
CONTINUOUS
 62
     0
  2
_ORIGIN
 10
-7310.4213071103213
 20
-250.05992919463981
 30
0.0
 41
10.0
 42
10.0
 43
10.0
 50
90.0
  0
TEXT
  5
9124
  8
SIZE
  6
CONTINUOUS
 62
     0
 10
-7320.4213071103222
 20
-1296.059929194633
 30
0.0
 40
64.0
  1
1900
 50
90.0
 41
0.9
  0
POINT
  5
9125
  8
DEFPOINTS
  6
CONTINUOUS
 62
     0
 10
-6898.1797329067122
 20
-2150.0599291946401
 30
0.0
  0
POINT
  5
9126
  8
DEFPOINTS
  6
CONTINUOUS
 62
     0
 10
-6898.1797329067122
 20
-250.05992919464001
 30
0.0
  0
POINT
  5
9127
  8
DEFPOINTS
  6
CONTINUOUS
 62
     0
 10
-7310.4213071103213
 20
-250.05992919463981
 30
0.0
  0
ENDBLK
  5
9128
  8
0
  0
BLOCK
  8
0
  2
*D49
 70
     1
 10
0.0
 20
0.0
 30
0.0
  3
*D49
  1

  0
LINE
  5
912B
  8
SIZE
  6
CONTINUOUS
 62
     0
 10
-6918.1797329067113
 20
-250.05992919464001
 30
0.0
 11
-7330.4213071103222
 21
-250.05992919463981
 31
0.0
  0
LINE
  5
912C
  8
SIZE
  6
CONTINUOUS
 62
     0
 10
-6917.6797329067113
 20
-210.05992919464001
 30
0.0
 11
-7330.4213071103222
 21
-210.05992919463981
 31
0.0
  0
LINE
  5
912D
  8
SIZE
  6
CONTINUOUS
 62
     0
 10
-7310.4213071103213
 20
-260.05992919463972
 30
0.0
 11
-7310.4213071103213
 21
-270.05992919463989
 31
0.0
  0
LINE
  5
912E
  8
SIZE
  6
CONTINUOUS
 62
     0
 10
-7310.4213071103213
 20
-200.05992919463981
 30
0.0
 11
-7310.4213071103213
 21
-76.802786337497153
 31
0.0
  0
LINE
  5
912F
  8
SIZE
  6
CONTINUOUS
 62
     0
 10
-7310.4213071103213
 20
-250.05992919463981
 30
0.0
 11
-7310.4213071103213
 21
-210.05992919463981
 31
0.0
  0
INSERT
  5
9130
  8
SIZE
  6
CONTINUOUS
 62
     0
  2
_ORIGIN
 10
-7310.4213071103213
 20
-250.05992919463981
 30
0.0
 41
10.0
 42
10.0
 43
10.0
 50
90.0
  0
INSERT
  5
9131
  8
SIZE
  6
CONTINUOUS
 62
     0
  2
_ORIGIN
 10
-7310.4213071103213
 20
-210.05992919463981
 30
0.0
 41
10.0
 42
10.0
 43
10.0
 50
270.0
  0
TEXT
  5
9132
  8
SIZE
  6
CONTINUOUS
 62
     0
 10
-7320.4213071103222
 20
-180.059929194641
 30
0.0
 40
64.0
  1
40
 50
90.0
 41
0.9
  0
POINT
  5
9133
  8
DEFPOINTS
  6
CONTINUOUS
 62
     0
 10
-6898.1797329067122
 20
-250.05992919464001
 30
0.0
  0
POINT
  5
9134
  8
DEFPOINTS
  6
CONTINUOUS
 62
     0
 10
-6897.679732906714
 20
-210.05992919464001
 30
0.0
  0
POINT
  5
9135
  8
DEFPOINTS
  6
CONTINUOUS
 62
     0
 10
-7310.4213071103213
 20
-210.05992919463981
 30
0.0
  0
ENDBLK
  5
9136
  8
0
  0
BLOCK
  8
0
  2
*D50
 70
     1
 10
0.0
 20
0.0
 30
0.0
  3
*D50
  1

  0
LINE
  5
9139
  8
SIZE
  6
CONTINUOUS
 62
     0
 10
-320.0
 20
-270.0
 30
0.0
 11
-645.93654319181962
 21
-269.99999999999972
 31
0.0
  0
LINE
  5
913A
  8
SIZE
  6
CONTINUOUS
 62
     0
 10
-320.0
 20
0.0000000000000057
 30
0.0
 11
-645.93654319181951
 21
0.000000000000098
 31
0.0
  0
LINE
  5
913B
  8
SIZE
  6
CONTINUOUS
 62
     0
 10
-625.93654319181962
 20
-259.99999999999977
 30
0.0
 11
-625.93654319181951
 21
-9.9999999999999076
 31
0.0
  0
INSERT
  5
913C
  8
SIZE
  6
CONTINUOUS
 62
     0
  2
_ORIGIN
 10
-625.93654319181962
 20
-269.99999999999977
 30
0.0
 41
10.0
 42
10.0
 43
10.0
 50
270.0
  0
INSERT
  5
913D
  8
SIZE
  6
CONTINUOUS
 62
     0
  2
_ORIGIN
 10
-625.93654319181951
 20
0.0000000000000923
 30
0.0
 41
10.0
 42
10.0
 43
10.0
 50
90.0
  0
TEXT
  5
913E
  8
0
 62
     0
 10
-795.93700000000001
 20
-248.28
 30
0.0
 40
64.0
  1
270
  0
POINT
  5
913F
  8
DEFPOINTS
  6
CONTINUOUS
 62
     0
 10
-300.0
 20
-270.0
 30
0.0
  0
POINT
  5
9140
  8
DEFPOINTS
  6
CONTINUOUS
 62
     0
 10
-300.0
 20
0.0
 30
0.0
  0
POINT
  5
9141
  8
DEFPOINTS
  6
CONTINUOUS
 62
     0
 10
-625.93654319181951
 20
0.0000000000000923
 30
0.0
  0
ENDBLK
  5
9142
  8
0
  0
BLOCK
  8
0
  2
*D51
 70
     1
 10
0.0
 20
0.0
 30
0.0
  3
*D51
  1

  0
LINE
  5
9145
  8
SIZE
  6
CONTINUOUS
 62
     0
 10
-4854.5158027216748
 20
-3592.7518569205558
 30
0.0
 11
-5316.6521472404575
 21
-3592.7518569205549
 31
0.0
  0
LINE
  5
9146
  8
SIZE
  6
CONTINUOUS
 62
     0
 10
-4854.5158027216748
 20
-3862.751856920554
 30
0.0
 11
-5316.6521472404575
 21
-3862.751856920554
 31
0.0
  0
LINE
  5
9147
  8
SIZE
  6
CONTINUOUS
 62
     0
 10
-5296.6521472404575
 20
-3602.751856920554
 30
0.0
 11
-5296.6521472404575
 21
-3852.751856920554
 31
0.0
  0
INSERT
  5
9148
  8
SIZE
  6
CONTINUOUS
 62
     0
  2
_ORIGIN
 10
-5296.6521472404575
 20
-3592.7518569205549
 30
0.0
 41
10.0
 42
10.0
 43
10.0
 50
90.0
  0
INSERT
  5
9149
  8
SIZE
  6
CONTINUOUS
 62
     0
  2
_ORIGIN
 10
-5296.6521472404575
 20
-3862.751856920554
 30
0.0
 41
10.0
 42
10.0
 43
10.0
 50
270.0
  0
TEXT
  5
914A
  8
SIZE
  6
CONTINUOUS
 62
     0
 10
-5306.6521472404547
 20
-3801.808999777692
 30
0.0
 40
64.0
  1
270
 50
90.0
 41
0.9
  0
POINT
  5
914B
  8
DEFPOINTS
  6
CONTINUOUS
 62
     0
 10
-4834.5158027216739
 20
-3592.7518569205558
 30
0.0
  0
POINT
  5
914C
  8
DEFPOINTS
  6
CONTINUOUS
 62
     0
 10
-4834.5158027216739
 20
-3862.751856920554
 30
0.0
  0
POINT
  5
914D
  8
DEFPOINTS
  6
CONTINUOUS
 62
     0
 10
-5296.6521472404575
 20
-3862.751856920554
 30
0.0
  0
ENDBLK
  5
914E
  8
0
  0
BLOCK
  8
0
  2
*D52
 70
     1
 10
0.0
 20
0.0
 30
0.0
  3
*D52
  1

  0
LINE
  5
9151
  8
SIZE
  6
CONTINUOUS
 62
     0
 10
-4854.5158027216748
 20
-3592.7518569205558
 30
0.0
 11
-5175.2598164372466
 21
-3592.7518569205549
 31
0.0
  0
LINE
  5
9152
  8
SIZE
  6
CONTINUOUS
 62
     0
 10
-4854.5158027216748
 20
-3827.7518569205558
 30
0.0
 11
-5175.2598164372466
 21
-3827.751856920554
 31
0.0
  0
LINE
  5
9153
  8
SIZE
  6
CONTINUOUS
 62
     0
 10
-5155.2598164372466
 20
-3602.751856920554
 30
0.0
 11
-5155.2598164372466
 21
-3817.7518569205531
 31
0.0
  0
INSERT
  5
9154
  8
SIZE
  6
CONTINUOUS
 62
     0
  2
_ORIGIN
 10
-5155.2598164372466
 20
-3592.7518569205549
 30
0.0
 41
10.0
 42
10.0
 43
10.0
 50
90.0
  0
INSERT
  5
9155
  8
SIZE
  6
CONTINUOUS
 62
     0
  2
_ORIGIN
 10
-5155.2598164372466
 20
-3827.751856920554
 30
0.0
 41
10.0
 42
10.0
 43
10.0
 50
270.0
  0
TEXT
  5
9156
  8
SIZE
  6
CONTINUOUS
 62
     0
 10
-5165.2598164372448
 20
-3784.3089997776979
 30
0.0
 40
64.0
  1
235
 50
90.0
 41
0.9
  0
POINT
  5
9157
  8
DEFPOINTS
  6
CONTINUOUS
 62
     0
 10
-4834.5158027216739
 20
-3592.7518569205558
 30
0.0
  0
POINT
  5
9158
  8
DEFPOINTS
  6
CONTINUOUS
 62
     0
 10
-4834.5158027216739
 20
-3827.7518569205558
 30
0.0
  0
POINT
  5
9159
  8
DEFPOINTS
  6
CONTINUOUS
 62
     0
 10
-5155.2598164372466
 20
-3827.751856920554
 30
0.0
  0
ENDBLK
  5
915A
  8
0
  0
BLOCK
  8
0
  2
*D53
 70
     1
 10
0.0
 20
0.0
 30
0.0
  3
*D53
  1

  0
LINE
  5
915D
  8
SIZE
  6
CONTINUOUS
 62
     0
 10
320.0
 20
-0.0000000000000057
 30
0.0
 11
772.01614402095584
 21
-0.0000000000001337
 31
0.0
  0
LINE
  5
915E
  8
SIZE
  6
CONTINUOUS
 62
     0
 10
292.0
 20
-186.0
 30
0.0
 11
772.01614402095584
 21
-186.00000000000011
 31
0.0
  0
LINE
  5
915F
  8
SIZE
  6
CONTINUOUS
 62
     0
 10
752.01614402095584
 20
-10.00000000000011
 30
0.0
 11
752.01614402095584
 21
-176.00000000000011
 31
0.0
  0
INSERT
  5
9160
  8
SIZE
  6
CONTINUOUS
 62
     0
  2
_ORIGIN
 10
752.01614402095584
 20
-0.000000000000128
 30
0.0
 41
10.0
 42
10.0
 43
10.0
 50
90.0
  0
INSERT
  5
9161
  8
SIZE
  6
CONTINUOUS
 62
     0
  2
_ORIGIN
 10
752.01614402095584
 20
-186.00000000000011
 30
0.0
 41
10.0
 42
10.0
 43
10.0
 50
270.0
  0
TEXT
  5
9162
  8
0
 62
     0
 10
582.01599999999985
 20
-206.28
 30
0.0
 40
64.0
  1
186
  0
POINT
  5
9163
  8
DEFPOINTS
  6
CONTINUOUS
 62
     0
 10
300.0
 20
0.0
 30
0.0
  0
POINT
  5
9164
  8
DEFPOINTS
  6
CONTINUOUS
 62
     0
 10
272.0
 20
-186.0
 30
0.0
  0
POINT
  5
9165
  8
DEFPOINTS
  6
CONTINUOUS
 62
     0
 10
752.01614402095584
 20
-186.00000000000011
 30
0.0
  0
ENDBLK
  5
9166
  8
0
  0
BLOCK
  8
0
  2
*D54
 70
     1
 10
0.0
 20
0.0
 30
0.0
  3
*D54
  1

  0
LINE
  5
9169
  8
SIZE
  6
CONTINUOUS
 62
     0
 10
-4214.5158027216748
 20
-3592.7518569205558
 30
0.0
 11
-3790.4140194260972
 21
-3592.7518569205558
 31
0.0
  0
LINE
  5
916A
  8
SIZE
  6
CONTINUOUS
 62
     0
 10
-4242.5158027216739
 20
-3778.7518569205558
 30
0.0
 11
-3790.4140194260972
 21
-3778.7518569205558
 31
0.0
  0
LINE
  5
916B
  8
SIZE
  6
CONTINUOUS
 62
     0
 10
-3810.4140194260972
 20
-3602.7518569205558
 30
0.0
 11
-3810.4140194260972
 21
-3768.751856920554
 31
0.0
  0
INSERT
  5
916C
  8
SIZE
  6
CONTINUOUS
 62
     0
  2
_ORIGIN
 10
-3810.4140194260972
 20
-3592.7518569205558
 30
0.0
 41
10.0
 42
10.0
 43
10.0
 50
90.0
  0
INSERT
  5
916D
  8
SIZE
  6
CONTINUOUS
 62
     0
  2
_ORIGIN
 10
-3810.4140194260972
 20
-3778.7518569205558
 30
0.0
 41
10.0
 42
10.0
 43
10.0
 50
270.0
  0
TEXT
  5
916E
  8
SIZE
  6
CONTINUOUS
 62
     0
 10
-3820.4140194260958
 20
-3752.9518569205561
 30
0.0
 40
64.0
  1
186
 50
90.0
 41
0.9
  0
POINT
  5
916F
  8
DEFPOINTS
  6
CONTINUOUS
 62
     0
 10
-4234.5158027216739
 20
-3592.7518569205558
 30
0.0
  0
POINT
  5
9170
  8
DEFPOINTS
  6
CONTINUOUS
 62
     0
 10
-4262.5158027216748
 20
-3778.7518569205558
 30
0.0
  0
POINT
  5
9171
  8
DEFPOINTS
  6
CONTINUOUS
 62
     0
 10
-3810.4140194260972
 20
-3778.7518569205558
 30
0.0
  0
ENDBLK
  5
9172
  8
0
  0
BLOCK
  8
0
  2
*D55
 70
     1
 10
0.0
 20
0.0
 30
0.0
  3
*D55
  1

  0
LINE
  5
9175
  8
SIZE
  6
CONTINUOUS
 62
     0
 10
-6898.1797329067122
 20
-2130.0599291946401
 30
0.0
 11
-6898.1797329067122
 21
-1421.2021579816351
 31
0.0
  0
LINE
  5
9176
  8
SIZE
  6
CONTINUOUS
 62
     0
 10
-6712.1797329067113
 20
-1520.0599291946389
 30
0.0
 11
-6712.1797329067113
 21
-1421.2021579816351
 31
0.0
  0
LINE
  5
9177
  8
SIZE
  6
CONTINUOUS
 62
     0
 10
-6888.1797329067131
 20
-1441.2021579816351
 30
0.0
 11
-6722.1797329067131
 21
-1441.2021579816351
 31
0.0
  0
INSERT
  5
9178
  8
SIZE
  6
CONTINUOUS
 62
     0
  2
_ORIGIN
 10
-6898.1797329067122
 20
-1441.2021579816351
 30
0.0
 41
10.0
 42
10.0
 43
10.0
 50
180.0
  0
INSERT
  5
9179
  8
SIZE
  6
CONTINUOUS
 62
     0
  2
_ORIGIN
 10
-6712.1797329067113
 20
-1441.2021579816351
 30
0.0
 41
10.0
 42
10.0
 43
10.0
  0
TEXT
  5
917A
  8
SIZE
  6
CONTINUOUS
 62
     0
 10
-6872.3797329067111
 20
-1431.2021579816351
 30
0.0
 40
64.0
  1
186
 41
0.9
  0
POINT
  5
917B
  8
DEFPOINTS
  6
CONTINUOUS
 62
     0
 10
-6898.1797329067122
 20
-2150.0599291946401
 30
0.0
  0
POINT
  5
917C
  8
DEFPOINTS
  6
CONTINUOUS
 62
     0
 10
-6712.1797329067113
 20
-1540.0599291946389
 30
0.0
  0
POINT
  5
917D
  8
DEFPOINTS
  6
CONTINUOUS
 62
     0
 10
-6712.1797329067113
 20
-1441.2021579816351
 30
0.0
  0
ENDBLK
  5
917E
  8
0
  0
BLOCK
  8
0
  2
*D56
 70
     1
 10
0.0
 20
0.0
 30
0.0
  3
*D56
  1

  0
LINE
  5
9181
  8
SIZE
  6
CONTINUOUS
 62
     0
 10
-2170.8518725366371
 20
-2130.0599291946401
 30
0.0
 11
-2170.8518725366371
 21
-1379.659611037001
 31
0.0
  0
LINE
  5
9182
  8
SIZE
  6
CONTINUOUS
 62
     0
 10
-2356.8518725366362
 20
-1520.0599291946389
 30
0.0
 11
-2356.8518725366362
 21
-1379.659611037001
 31
0.0
  0
LINE
  5
9183
  8
SIZE
  6
CONTINUOUS
 62
     0
 10
-2180.8518725366362
 20
-1399.659611037001
 30
0.0
 11
-2346.8518725366371
 21
-1399.659611037001
 31
0.0
  0
INSERT
  5
9184
  8
SIZE
  6
CONTINUOUS
 62
     0
  2
_ORIGIN
 10
-2170.8518725366371
 20
-1399.659611037001
 30
0.0
 41
10.0
 42
10.0
 43
10.0
  0
INSERT
  5
9185
  8
SIZE
  6
CONTINUOUS
 62
     0
  2
_ORIGIN
 10
-2356.8518725366362
 20
-1399.659611037001
 30
0.0
 41
10.0
 42
10.0
 43
10.0
 50
180.0
  0
TEXT
  5
9186
  8
SIZE
  6
CONTINUOUS
 62
     0
 10
-2331.051872536636
 20
-1389.659611037001
 30
0.0
 40
64.0
  1
186
 41
0.9
  0
POINT
  5
9187
  8
DEFPOINTS
  6
CONTINUOUS
 62
     0
 10
-2170.8518725366371
 20
-2150.0599291946401
 30
0.0
  0
POINT
  5
9188
  8
DEFPOINTS
  6
CONTINUOUS
 62
     0
 10
-2356.8518725366362
 20
-1540.0599291946389
 30
0.0
  0
POINT
  5
9189
  8
DEFPOINTS
  6
CONTINUOUS
 62
     0
 10
-2356.8518725366362
 20
-1399.659611037001
 30
0.0
  0
ENDBLK
  5
918A
  8
0
  0
BLOCK
  8
0
  2
*D57
 70
     1
 10
0.0
 20
0.0
 30
0.0
  3
*D57
  1

  0
LINE
  5
91CF
  8
SIZE
  6
CONTINUOUS
 62
     0
 10
340.0
 20
-110.0
 30
0.0
 11
505.62571275602397
 21
-110.0
 31
0.0
  0
LINE
  5
91D0
  8
SIZE
  6
CONTINUOUS
 62
     0
 10
340.0
 20
-180.0
 30
0.0
 11
505.62571275602392
 21
-180.0
 31
0.0
  0
LINE
  5
91D1
  8
SIZE
  6
CONTINUOUS
 62
     0
 10
485.62571275602392
 20
-100.0
 30
0.0
 11
485.62571275602392
 21
-90.000000000000057
 31
0.0
  0
LINE
  5
91D2
  8
SIZE
  6
CONTINUOUS
 62
     0
 10
485.62571275602392
 20
-190.0
 30
0.0
 11
485.62571275602392
 21
-200.0
 31
0.0
  0
TEXT
  5
91D3
  8
SIZE
  6
CONTINUOUS
 62
     0
 10
648.62571275602386
 20
-191.62857142857141
 30
0.0
 40
64.0
  1
70
 50
90.0
 41
0.9
  0
LINE
  5
91D4
  8
SIZE
  6
CONTINUOUS
 62
     0
 10
485.62571275602392
 20
-110.0
 30
0.0
 11
485.62571275602392
 21
-180.0
 31
0.0
  0
INSERT
  5
91D5
  8
SIZE
  6
CONTINUOUS
 62
     0
  2
_ORIGIN
 10
485.62571275602392
 20
-110.0
 30
0.0
 41
10.0
 42
10.0
 43
10.0
 50
270.0
  0
INSERT
  5
91D6
  8
SIZE
  6
CONTINUOUS
 62
     0
  2
_ORIGIN
 10
485.62571275602392
 20
-180.0
 30
0.0
 41
10.0
 42
10.0
 43
10.0
 50
90.0
  0
POINT
  5
91D7
  8
DEFPOINTS
  6
CONTINUOUS
 62
     0
 10
320.0
 20
-110.0
 30
0.0
  0
POINT
  5
91D8
  8
DEFPOINTS
  6
CONTINUOUS
 62
     0
 10
320.0
 20
-180.0
 30
0.0
  0
POINT
  5
91D9
  8
DEFPOINTS
  6
CONTINUOUS
 62
     0
 10
485.62571275602392
 20
-180.0
 30
0.0
  0
ENDBLK
  5
91DB
  8
0
  0
BLOCK
  8
0
  2
*D58
 70
     1
 10
0.0
 20
0.0
 30
0.0
  3
*D58
  1

  0
LINE
  5
91DE
  8
SIZE
  6
CONTINUOUS
 62
     0
 10
320.0
 20
-0.0000000000000057
 30
0.0
 11
635.88066129173967
 21
-0.0000000000000951
 31
0.0
  0
LINE
  5
91DF
  8
SIZE
  6
CONTINUOUS
 62
     0
 10
340.0
 20
-180.0
 30
0.0
 11
635.88066129173967
 21
-180.00000000000011
 31
0.0
  0
LINE
  5
91E0
  8
SIZE
  6
CONTINUOUS
 62
     0
 10
615.88066129173967
 20
-10.00000000000008
 30
0.0
 11
615.88066129173967
 21
-170.00000000000011
 31
0.0
  0
INSERT
  5
91E1
  8
SIZE
  6
CONTINUOUS
 62
     0
  2
_ORIGIN
 10
615.88066129173967
 20
-0.0000000000000895
 30
0.0
 41
10.0
 42
10.0
 43
10.0
 50
90.0
  0
INSERT
  5
91E2
  8
SIZE
  6
CONTINUOUS
 62
     0
  2
_ORIGIN
 10
615.88066129173967
 20
-180.00000000000011
 30
0.0
 41
10.0
 42
10.0
 43
10.0
 50
270.0
  0
TEXT
  5
91E3
  8
SIZE
  6
CONTINUOUS
 62
     0
 10
605.88066129173956
 20
-158.5714285714285
 30
0.0
 40
64.0
  1
180
 50
90.0
 41
0.9
  0
POINT
  5
91E4
  8
DEFPOINTS
  6
CONTINUOUS
 62
     0
 10
300.0
 20
0.0
 30
0.0
  0
POINT
  5
91E5
  8
DEFPOINTS
  6
CONTINUOUS
 62
     0
 10
320.0
 20
-180.0
 30
0.0
  0
POINT
  5
91E6
  8
DEFPOINTS
  6
CONTINUOUS
 62
     0
 10
615.88066129173967
 20
-180.00000000000011
 30
0.0
  0
ENDBLK
  5
91E8
  8
0
  0
BLOCK
  8
0
  2
*D59
 70
     1
 10
0.0
 20
0.0
 30
0.0
  3
*D59
  1

  0
LINE
  5
91F1
  8
SIZE
  6
CONTINUOUS
 62
     0
 10
-300.0
 20
-290.0
 30
0.0
 11
-300.0
 21
-671.85635873892238
 31
0.0
  0
LINE
  5
91F2
  8
SIZE
  6
CONTINUOUS
 62
     0
 10
300.0
 20
-290.0
 30
0.0
 11
300.0
 21
-671.85635873892238
 31
0.0
  0
LINE
  5
91F3
  8
SIZE
  6
CONTINUOUS
 62
     0
 10
-290.0
 20
-651.85635873892238
 30
0.0
 11
-84.05714285714285
 21
-651.85635873892238
 31
0.0
  0
LINE
  5
91F4
  8
SIZE
  6
CONTINUOUS
 62
     0
 10
290.0
 20
-651.85635873892238
 30
0.0
 11
84.05714285714285
 21
-651.85635873892238
 31
0.0
  0
TEXT
  5
91F5
  8
SIZE
  6
CONTINUOUS
 62
     0
 10
-74.05714285714285
 20
-683.85635873892238
 30
0.0
 40
64.0
  1
600
 41
0.9
  0
INSERT
  5
91F6
  8
SIZE
  6
CONTINUOUS
 62
     0
  2
_ORIGIN
 10
-300.0
 20
-651.85635873892238
 30
0.0
 41
10.0
 42
10.0
 43
10.0
 50
180.0
  0
INSERT
  5
91F7
  8
SIZE
  6
CONTINUOUS
 62
     0
  2
_ORIGIN
 10
300.0
 20
-651.85635873892238
 30
0.0
 41
10.0
 42
10.0
 43
10.0
  0
POINT
  5
91F8
  8
DEFPOINTS
  6
CONTINUOUS
 62
     0
 10
-300.0
 20
-270.0
 30
0.0
  0
POINT
  5
91F9
  8
DEFPOINTS
  6
CONTINUOUS
 62
     0
 10
300.0
 20
-270.0
 30
0.0
  0
POINT
  5
91FA
  8
DEFPOINTS
  6
CONTINUOUS
 62
     0
 10
300.0
 20
-651.85635873892238
 30
0.0
  0
ENDBLK
  5
91FC
  8
0
  0
BLOCK
  8
0
  2
*D60
 70
     1
 10
0.0
 20
0.0
 30
0.0
  3
*D60
  1

  0
LINE
  5
9207
  8
SIZE
  6
CONTINUOUS
 62
     0
 10
-320.0
 20
0.0000000000000057
 30
0.0
 11
-482.6292818343062
 21
0.0000000000000517
 31
0.0
  0
LINE
  5
9208
  8
SIZE
  6
CONTINUOUS
 62
     0
 10
-178.4999999999998
 20
-55.0
 30
0.0
 11
-482.6292818343062
 21
-54.999999999999908
 31
0.0
  0
LINE
  5
9209
  8
SIZE
  6
CONTINUOUS
 62
     0
 10
-462.6292818343062
 20
10.000000000000041
 30
0.0
 11
-462.6292818343062
 21
20.000000000000039
 31
0.0
  0
LINE
  5
920A
  8
SIZE
  6
CONTINUOUS
 62
     0
 10
-462.6292818343062
 20
-64.999999999999915
 30
0.0
 11
-462.6292818343062
 21
-74.999999999999915
 31
0.0
  0
TEXT
  5
920B
  8
SIZE
  6
CONTINUOUS
 62
     0
 10
-430.62928183430608
 20
30.00000000000632
 30
0.0
 40
64.0
  1
55
 50
90.0
 41
0.9
  0
LINE
  5
920C
  8
SIZE
  6
CONTINUOUS
 62
     0
 10
-462.6292818343062
 20
0.0000000000000461
 30
0.0
 11
-462.6292818343062
 21
-54.999999999999922
 31
0.0
  0
INSERT
  5
920D
  8
SIZE
  6
CONTINUOUS
 62
     0
  2
_ORIGIN
 10
-462.6292818343062
 20
0.0000000000000461
 30
0.0
 41
10.0
 42
10.0
 43
10.0
 50
270.0
  0
INSERT
  5
920E
  8
SIZE
  6
CONTINUOUS
 62
     0
  2
_ORIGIN
 10
-462.6292818343062
 20
-54.999999999999922
 30
0.0
 41
10.0
 42
10.0
 43
10.0
 50
90.0
  0
POINT
  5
920F
  8
DEFPOINTS
  6
CONTINUOUS
 62
     0
 10
-300.0
 20
0.0
 30
0.0
  0
POINT
  5
9210
  8
DEFPOINTS
  6
CONTINUOUS
 62
     0
 10
-158.4999999999998
 20
-55.0
 30
0.0
  0
POINT
  5
9211
  8
DEFPOINTS
  6
CONTINUOUS
 62
     0
 10
-462.6292818343062
 20
-54.999999999999922
 30
0.0
  0
ENDBLK
  5
9213
  8
0
  0
BLOCK
  8
0
  2
*D61
 70
     1
 10
0.0
 20
0.0
 30
0.0
  3
*D61
  1

  0
LINE
  5
9216
  8
SIZE
  6
CONTINUOUS
 62
     0
 10
-178.4999999999998
 20
-55.0
 30
0.0
 11
-482.6292818343062
 21
-54.999999999999908
 31
0.0
  0
LINE
  5
9217
  8
SIZE
  6
CONTINUOUS
 62
     0
 10
-149.0
 20
-198.0
 30
0.0
 11
-482.6292818343062
 21
-197.9999999999998
 31
0.0
  0
LINE
  5
9218
  8
SIZE
  6
CONTINUOUS
 62
     0
 10
-462.62928183430608
 20
-44.999999999999922
 30
0.0
 11
-462.62928183430608
 21
-34.999999999999908
 31
0.0
  0
LINE
  5
9219
  8
SIZE
  6
CONTINUOUS
 62
     0
 10
-462.6292818343062
 20
-207.9999999999998
 30
0.0
 11
-462.6292818343062
 21
-217.9999999999998
 31
0.0
  0
TEXT
  5
921A
  8
SIZE
  6
CONTINUOUS
 62
     0
 10
-497.62928183430603
 20
-195.0714285714285
 30
0.0
 40
64.0
  1
143
 50
90.0
 41
0.9
  0
LINE
  5
921B
  8
SIZE
  6
CONTINUOUS
 62
     0
 10
-462.62928183430608
 20
-54.999999999999922
 30
0.0
 11
-462.6292818343062
 21
-197.9999999999998
 31
0.0
  0
INSERT
  5
921C
  8
SIZE
  6
CONTINUOUS
 62
     0
  2
_ORIGIN
 10
-462.62928183430608
 20
-54.999999999999922
 30
0.0
 41
10.0
 42
10.0
 43
10.0
 50
270.0
  0
INSERT
  5
921D
  8
SIZE
  6
CONTINUOUS
 62
     0
  2
_ORIGIN
 10
-462.6292818343062
 20
-197.9999999999998
 30
0.0
 41
10.0
 42
10.0
 43
10.0
 50
90.0
  0
POINT
  5
921E
  8
DEFPOINTS
  6
CONTINUOUS
 62
     0
 10
-158.4999999999998
 20
-55.0
 30
0.0
  0
POINT
  5
921F
  8
DEFPOINTS
  6
CONTINUOUS
 62
     0
 10
-129.0
 20
-198.0
 30
0.0
  0
POINT
  5
9220
  8
DEFPOINTS
  6
CONTINUOUS
 62
     0
 10
-462.6292818343062
 20
-197.9999999999998
 30
0.0
  0
ENDBLK
  5
9222
  8
0
  0
BLOCK
  8
0
  2
*D62
 70
     1
 10
0.0
 20
0.0
 30
0.0
  3
*D62
  1

  0
LINE
  5
9225
  8
SIZE
  6
CONTINUOUS
 62
     0
 10
-138.5
 20
-15.0
 30
0.0
 11
-138.5
 21
142.13338400878899
 31
0.0
  0
LINE
  5
9226
  8
SIZE
  6
CONTINUOUS
 62
     0
 10
138.5
 20
-15.0
 30
0.0
 11
138.5
 21
142.13338400878899
 31
0.0
  0
LINE
  5
9227
  8
SIZE
  6
CONTINUOUS
 62
     0
 10
-128.49999999999989
 20
122.13338400878899
 30
0.0
 11
128.49999999999989
 21
122.13338400878899
 31
0.0
  0
INSERT
  5
9228
  8
SIZE
  6
CONTINUOUS
 62
     0
  2
_ORIGIN
 10
-138.5
 20
122.13338400878899
 30
0.0
 41
10.0
 42
10.0
 43
10.0
 50
180.0
  0
INSERT
  5
9229
  8
SIZE
  6
CONTINUOUS
 62
     0
  2
_ORIGIN
 10
138.5
 20
122.13338400878899
 30
0.0
 41
10.0
 42
10.0
 43
10.0
  0
TEXT
  5
922A
  8
SIZE
  6
CONTINUOUS
 62
     0
 10
-74.05714285714285
 20
132.13338400878899
 30
0.0
 40
64.0
  1
277
 41
0.9
  0
POINT
  5
922B
  8
DEFPOINTS
  6
CONTINUOUS
 62
     0
 10
-138.5
 20
-35.0
 30
0.0
  0
POINT
  5
922C
  8
DEFPOINTS
  6
CONTINUOUS
 62
     0
 10
138.5
 20
-35.0
 30
0.0
  0
POINT
  5
922D
  8
DEFPOINTS
  6
CONTINUOUS
 62
     0
 10
138.5
 20
122.13338400878899
 30
0.0
  0
ENDBLK
  5
922F
  8
0
  0
BLOCK
  8
0
  2
*D63
 70
     1
 10
0.0
 20
0.0
 30
0.0
  3
*D63
  1

  0
LINE
  5
9232
  8
SIZE
  6
CONTINUOUS
 62
     0
 10
-109.0
 20
-238.0
 30
0.0
 11
-109.0
 21
-434.02750695460492
 31
0.0
  0
LINE
  5
9233
  8
SIZE
  6
CONTINUOUS
 62
     0
 10
109.0
 20
-238.0
 30
0.0
 11
108.9999999999999
 21
-434.02750695460492
 31
0.0
  0
LINE
  5
9234
  8
SIZE
  6
CONTINUOUS
 62
     0
 10
-99.000000000000014
 20
-414.02750695460492
 30
0.0
 11
98.999999999999986
 21
-414.02750695460492
 31
0.0
  0
INSERT
  5
9235
  8
SIZE
  6
CONTINUOUS
 62
     0
  2
_ORIGIN
 10
-109.0
 20
-414.02750695460492
 30
0.0
 41
10.0
 42
10.0
 43
10.0
 50
180.0
  0
INSERT
  5
9236
  8
SIZE
  6
CONTINUOUS
 62
     0
  2
_ORIGIN
 10
108.9999999999999
 20
-414.02750695460492
 30
0.0
 41
10.0
 42
10.0
 43
10.0
  0
TEXT
  5
9237
  8
SIZE
  6
CONTINUOUS
 62
     0
 10
-68.571428571428569
 20
-404.02750695460497
 30
0.0
 40
64.0
  1
218
 41
0.9
  0
POINT
  5
9238
  8
DEFPOINTS
  6
CONTINUOUS
 62
     0
 10
-109.0
 20
-218.0
 30
0.0
  0
POINT
  5
9239
  8
DEFPOINTS
  6
CONTINUOUS
 62
     0
 10
109.0
 20
-218.0
 30
0.0
  0
POINT
  5
923A
  8
DEFPOINTS
  6
CONTINUOUS
 62
     0
 10
108.9999999999999
 20
-414.02750695460492
 30
0.0
  0
ENDBLK
  5
923C
  8
0
  0
BLOCK
  8
0
  2
*D64
 70
     1
 10
0.0
 20
0.0
 30
0.0
  3
*D64
  1

  0
LINE
  5
924B
  8
SIZE
  6
CONTINUOUS
 62
     0
 10
-320.0
 20
-270.0
 30
0.0
 11
-645.93654319181962
 21
-269.99999999999977
 31
0.0
  0
LINE
  5
924C
  8
SIZE
  6
CONTINUOUS
 62
     0
 10
-320.0
 20
0.0000000000000057
 30
0.0
 11
-645.93654319181951
 21
0.000000000000098
 31
0.0
  0
LINE
  5
924D
  8
SIZE
  6
CONTINUOUS
 62
     0
 10
-625.93654319181962
 20
-259.99999999999989
 30
0.0
 11
-625.93654319181951
 21
-9.9999999999999076
 31
0.0
  0
INSERT
  5
924E
  8
SIZE
  6
CONTINUOUS
 62
     0
  2
_ORIGIN
 10
-625.93654319181962
 20
-269.99999999999989
 30
0.0
 41
10.0
 42
10.0
 43
10.0
 50
270.0
  0
INSERT
  5
924F
  8
SIZE
  6
CONTINUOUS
 62
     0
  2
_ORIGIN
 10
-625.93654319181951
 20
0.0000000000000923
 30
0.0
 41
10.0
 42
10.0
 43
10.0
 50
90.0
  0
TEXT
  5
9250
  8
SIZE
  6
CONTINUOUS
 62
     0
 10
-635.9365431918194
 20
-209.05714285714279
 30
0.0
 40
64.0
  1
270
 50
90.0
 41
0.9
  0
POINT
  5
9251
  8
DEFPOINTS
  6
CONTINUOUS
 62
     0
 10
-300.0
 20
-270.0
 30
0.0
  0
POINT
  5
9252
  8
DEFPOINTS
  6
CONTINUOUS
 62
     0
 10
-300.0
 20
0.0
 30
0.0
  0
POINT
  5
9253
  8
DEFPOINTS
  6
CONTINUOUS
 62
     0
 10
-625.93654319181951
 20
0.0000000000000923
 30
0.0
  0
ENDBLK
  5
9255
  8
0
  0
BLOCK
  8
0
  2
*D65
 70
     1
 10
0.0
 20
0.0
 30
0.0
  3
*D65
  1

  0
LINE
  5
9258
  8
SIZE
  6
CONTINUOUS
 62
     0
 10
320.0
 20
-0.0000000000000057
 30
0.0
 11
772.01614402095584
 21
-0.0000000000001337
 31
0.0
  0
LINE
  5
9259
  8
SIZE
  6
CONTINUOUS
 62
     0
 10
292.0
 20
-186.0
 30
0.0
 11
772.01614402095584
 21
-186.00000000000011
 31
0.0
  0
LINE
  5
925A
  8
SIZE
  6
CONTINUOUS
 62
     0
 10
752.01614402095584
 20
-10.000000000000121
 30
0.0
 11
752.01614402095584
 21
-176.00000000000011
 31
0.0
  0
INSERT
  5
925B
  8
SIZE
  6
CONTINUOUS
 62
     0
  2
_ORIGIN
 10
752.01614402095584
 20
-0.000000000000128
 30
0.0
 41
10.0
 42
10.0
 43
10.0
 50
90.0
  0
INSERT
  5
925C
  8
SIZE
  6
CONTINUOUS
 62
     0
  2
_ORIGIN
 10
752.01614402095584
 20
-186.00000000000011
 30
0.0
 41
10.0
 42
10.0
 43
10.0
 50
270.0
  0
TEXT
  5
925D
  8
SIZE
  6
CONTINUOUS
 62
     0
 10
742.01614402095584
 20
-160.19999999999999
 30
0.0
 40
64.0
  1
186
 50
90.0
 41
0.9
  0
POINT
  5
925E
  8
DEFPOINTS
  6
CONTINUOUS
 62
     0
 10
300.0
 20
0.0
 30
0.0
  0
POINT
  5
925F
  8
DEFPOINTS
  6
CONTINUOUS
 62
     0
 10
272.0
 20
-186.0
 30
0.0
  0
POINT
  5
9260
  8
DEFPOINTS
  6
CONTINUOUS
 62
     0
 10
752.01614402095584
 20
-186.00000000000011
 30
0.0
  0
ENDBLK
  5
9262
  8
0
  0
ENDSEC
  0
SECTION
  2
ENTITIES
  0
CIRCLE
  5
918B
  8
ARRANGE
  6
CONTINUOUS
 10
0.0
 20
0.0
 30
0.0
 40
40.0
  0
POINT
  5
918C
  8
ARRANGE
  6
CONTINUOUS
 10
0.0
 20
0.0
 30
0.0
  0
LINE
  5
918D
  8
DETAIL
  6
CONTINUOUS
 10
-300.0
 20
-270.0
 30
0.0
 11
300.0
 21
-270.0
 31
0.0
  0
LINE
  5
918E
  8
DETAIL
  6
CONTINUOUS
 10
-130.0
 20
-111.0
 30
0.0
 11
130.0
 21
-111.0
 31
0.0
  0
LINE
  5
918F
  8
DETAIL
  6
CONTINUOUS
 10
-300.0
 20
0.0
 30
0.0
 11
300.0
 21
0.0
 31
0.0
  0
LINE
  5
9190
  8
BASIS
  6
DASHDOT
 10
0.0
 20
29.820076999999849
 30
0.0
 11
0.0
 21
-307.53276899999992
 31
0.0
  0
CIRCLE
  5
9191
  8
FIX
  6
CONTINUOUS
 10
-109.0
 20
-198.0
 30
0.0
 40
40.0
  0
LINE
  5
9192
  8
DETAIL
  6
CONTINUOUS
 10
-300.0
 20
0.0
 30
0.0
 11
-300.0
 21
-270.0
 31
0.0
  0
CIRCLE
  5
9193
  8
FIX
  6
CONTINUOUS
 10
-138.5
 20
-55.0
 30
0.0
 40
40.0
  0
LINE
  5
9194
  8
NOTE
  6
CONTINUOUS
 10
-129.0
 20
-198.0
 30
0.0
 11
-89.0
 21
-198.0
 31
0.0
  0
LINE
  5
9195
  8
NOTE
  6
CONTINUOUS
 10
-109.0
 20
-178.0
 30
0.0
 11
-109.0
 21
-218.0
 31
0.0
  0
LINE
  5
9196
  8
NOTE
  6
CONTINUOUS
 10
-158.4999999999998
 20
-55.0
 30
0.0
 11
-118.5
 21
-55.0
 31
0.0
  0
LINE
  5
9197
  8
NOTE
  6
CONTINUOUS
 10
-138.5
 20
-35.0
 30
0.0
 11
-138.5
 21
-75.0
 31
0.0
  0
LINE
  5
9198
  8
DETAIL
  6
CONTINUOUS
 10
-130.0
 20
0.0
 30
0.0
 11
-130.0
 21
-111.0
 31
0.0
  0
LINE
  5
9199
  8
SIZE
  6
BYBLOCK
 10
205.0
 20
-146.0
 30
0.0
 11
205.0
 21
393.48943499999979
 31
0.0
  0
LINE
  5
919A
  8
SIZE
  6
BYBLOCK
 10
252.0
 20
-146.0
 30
0.0
 11
252.0
 21
230.48094899999981
 31
0.0
  0
LINE
  5
919B
  8
SIZE
  6
BYBLOCK
 10
205.0
 20
-146.0
 30
0.0
 11
205.0
 21
230.48094899999981
 31
0.0
  0
LINE
  5
919C
  8
NOTE
  6
CONTINUOUS
 10
799.13975664605084
 20
-607.66429518386155
 30
0.0
 11
412.12103138932417
 21
-607.66429518386155
 31
0.0
  0
LINE
  5
919D
  8
NOTE
  6
CONTINUOUS
 10
-308.62956212391862
 20
-530.63386495840405
 30
0.0
 11
135.67913465232411
 21
-530.63386495840405
 31
0.0
  0
TEXT
  5
919E
  8
NOTE
  6
CONTINUOUS
 10
435.42606264605269
 20
-592.1587061838618
 30
0.0
 40
64.0
  1
RL %%C9.52
 41
0.9
  0
TEXT
  5
919F
  8
NOTE
  6
CONTINUOUS
 10
-287.2723691239151
 20
-514.7182729584041
 30
0.0
 40
64.0
  1
RG %%c15.88
 41
0.9
  0
LINE
  5
91A0
  8
NOTE
  6
CONTINUOUS
 10
205.0
 20
-186.0000000000008
 30
0.0
 11
135.67913465232411
 21
-530.63386495840405
 31
0.0
  0
CIRCLE
  5
91A1
  8
FIX
  6
CONTINUOUS
 10
109.0
 20
-198.0
 30
0.0
 40
40.0
  0
LINE
  5
91A2
  8
DETAIL
  6
CONTINUOUS
 10
300.0
 20
0.0
 30
0.0
 11
300.0
 21
-270.0
 31
0.0
  0
CIRCLE
  5
91A3
  8
FIX
  6
CONTINUOUS
 10
138.5
 20
-55.0
 30
0.0
 40
40.0
  0
LINE
  5
91A4
  8
NOTE
  6
CONTINUOUS
 10
89.0
 20
-198.0
 30
0.0
 11
129.0
 21
-198.0
 31
0.0
  0
LINE
  5
91A5
  8
NOTE
  6
CONTINUOUS
 10
109.0
 20
-178.0
 30
0.0
 11
109.0
 21
-218.0
 31
0.0
  0
LINE
  5
91A6
  8
NOTE
  6
CONTINUOUS
 10
118.5
 20
-55.0
 30
0.0
 11
158.4999999999998
 21
-55.0
 31
0.0
  0
LINE
  5
91A7
  8
NOTE
  6
CONTINUOUS
 10
138.5
 20
-35.0
 30
0.0
 11
138.5
 21
-75.0
 31
0.0
  0
LINE
  5
91A8
  8
DETAIL
  6
CONTINUOUS
 10
130.0
 20
0.0
 30
0.0
 11
130.0
 21
-111.0
 31
0.0
  0
LINE
  5
91A9
  8
NOTE
  6
CONTINUOUS
 10
300.0
 20
-90.0
 30
0.0
 11
300.0
 21
-130.0
 31
0.0
  0
LINE
  5
91AA
  8
NOTE
  6
CONTINUOUS
 10
232.0
 20
-186.0
 30
0.0
 11
272.0
 21
-186.0
 31
0.0
  0
POLYLINE
  5
91AB
  8
NOTE
  6
CONTINUOUS
 66
     1
 10
0.0
 20
0.0
 30
0.0
  0
VERTEX
  5
929D
  8
NOTE
  6
CONTINUOUS
 10
207.43014404260609
 20
-225.92611167996529
 30
0.0
  0
VERTEX
  5
929E
  8
NOTE
  6
CONTINUOUS
 10
205.0
 20
-186.0000000000008
 30
0.0
  0
VERTEX
  5
929F
  8
NOTE
  6
CONTINUOUS
 10
187.14151049375491
 20
-221.7920985430836
 30
0.0
  0
SEQEND
  5
92A0
  8
NOTE
  6
CONTINUOUS
  0
LINE
  5
91B0
  8
NOTE
  6
CONTINUOUS
 10
185.0
 20
-186.0
 30
0.0
 11
225.0
 21
-186.0
 31
0.0
  0
LINE
  5
91B1
  8
NOTE
  6
CONTINUOUS
 10
205.0
 20
-166.0
 30
0.0
 11
205.0
 21
-206.0
 31
0.0
  0
CIRCLE
  5
91B2
  8
DETAIL
  6
CONTINUOUS
 10
205.0
 20
-186.0
 30
0.0
 40
7.9400000000000004
  0
LINE
  5
91B3
  8
NOTE
  6
CONTINUOUS
 10
252.0
 20
-166.0
 30
0.0
 11
252.0
 21
-206.0
 31
0.0
  0
LINE
  5
91B4
  8
NOTE
  6
CONTINUOUS
 10
280.0
 20
-180.0
 30
0.0
 11
320.0
 21
-180.0
 31
0.0
  0
LINE
  5
91B5
  8
NOTE
  6
CONTINUOUS
 10
300.0
 20
-160.0
 30
0.0
 11
300.0
 21
-200.0
 31
0.0
  0
CIRCLE
  5
91B6
  8
DETAIL
  6
CONTINUOUS
 10
252.0
 20
-186.0
 30
0.0
 40
4.759999999999998
  0
LINE
  5
91B7
  8
NOTE
  6
CONTINUOUS
 10
280.0
 20
-110.0
 30
0.0
 11
320.0
 21
-110.0
 31
0.0
  0
LINE
  5
91B8
  8
SIZE
  6
BYBLOCK
 10
300.0
 20
20.0
 30
0.0
 11
300.0
 21
393.48943499999979
 31
0.0
  0
CIRCLE
  5
91B9
  8
SIZE
  6
CONTINUOUS
 10
252.0
 20
200.48094899999961
 30
0.0
 40
6.0
  0
LINE
  5
91BA
  8
SIZE
  6
BYBLOCK
 10
252.0
 20
200.48094899999961
 30
0.0
 11
205.0
 21
200.48094899999961
 31
0.0
  0
CIRCLE
  5
91BB
  8
SIZE
  6
CONTINUOUS
 10
205.0
 20
200.48094899999961
 30
0.0
 40
6.0
  0
LINE
  5
91BC
  8
SIZE
  6
BYBLOCK
 10
203.0
 20
200.48094899999961
 30
0.0
 11
201.0
 21
200.48094899999961
 31
0.0
  0
LINE
  5
91BD
  8
SIZE
  6
BYBLOCK
 10
254.0
 20
200.48094899999961
 30
0.0
 11
256.0
 21
200.48094899999961
 31
0.0
  0
TEXT
  5
91BE
  8
SIZE
  6
BYBLOCK
 10
181.8714289999989
 20
232.48094899999981
 30
0.0
 40
64.0
  1
47
 41
0.9
  0
TEXT
  5
91BF
  8
SIZE
  6
BYBLOCK
 10
205.8714289999989
 20
395.48943499999979
 30
0.0
 40
64.0
  1
95
 41
0.9
  0
LINE
  5
91C0
  8
SIZE
  6
BYBLOCK
 10
298.0
 20
363.48943499999979
 30
0.0
 11
207.0
 21
363.48943499999979
 31
0.0
  0
CIRCLE
  5
91C1
  8
SIZE
  6
CONTINUOUS
 10
205.0
 20
363.48943499999979
 30
0.0
 40
6.0
  0
CIRCLE
  5
91C2
  8
SIZE
  6
CONTINUOUS
 10
300.0
 20
363.48943499999979
 30
0.0
 40
6.0
  0
TEXT
  5
91C3
  8
ETC
  6
CONTINUOUS
 10
663.0262301801049
 20
346.70177205738571
 30
0.0
 40
64.0
  1
PAC
 41
0.9
  0
TEXT
  5
91C4
  8
ETC
  6
CONTINUOUS
 10
663.0262301801049
 20
458.52627535716869
 30
0.0
 40
64.0
  1
PSH0041
 41
0.9
  0
LINE
  5
91C5
  8
NOTE
  6
CONTINUOUS
 10
300.0
 20
-110.0
 30
0.0
 11
460.1716620641817
 21
51.999283744326021
 31
0.0
  0
POLYLINE
  5
91C6
  8
NOTE
  6
CONTINUOUS
 66
     1
 10
0.0
 20
0.0
 30
0.0
  0
VERTEX
  5
92A1
  8
NOTE
  6
CONTINUOUS
 10
319.64401499999798
 20
-75.155880000000266
 30
0.0
  0
VERTEX
  5
92A2
  8
NOTE
  6
CONTINUOUS
 10
300.0
 20
-110.0
 30
0.0
  0
VERTEX
  5
92A3
  8
NOTE
  6
CONTINUOUS
 10
334.4342759999999
 20
-89.646115000000009
 30
0.0
  0
SEQEND
  5
92A4
  8
NOTE
  6
CONTINUOUS
  0
LINE
  5
91CB
  8
NOTE
  6
CONTINUOUS
 10
872.97897497809004
 20
51.999283744326021
 30
0.0
 11
460.1716620641817
 21
51.999283744326021
 31
0.0
  0
TEXT
  5
91CC
  8
NOTE
  6
CONTINUOUS
 10
468.39881632490142
 20
62.001912744325637
 30
0.0
 40
64.0
  1
EL 2-%%c27
 41
0.9
  0
DIMENSION
  5
91CD
  8
SIZE
  6
CONTINUOUS
  2
*D57
 10
485.62571275602392
 20
-180.0
 30
0.0
 11
616.62571275602386
 21
-144.99999999999989
 31
0.0
 70
     0
 13
320.0
 23
-110.0
 33
0.0
 14
320.0
 24
-180.0
 34
0.0
 50
90.0
1001
ACAD
1000
DSTYLE
1002
{
1070
   287
1070
     0
1070
    41
1040
10.0
1070
    42
1040
20.0
1070
    43
1040
200.0
1070
    44
1040
20.0
1070
    73
1070
     0
1070
    74
1070
     0
1070
    77
1070
     1
1070
    78
1070
     8
1070
   140
1040
64.0
1070
   141
1040
0.082
1070
   147
1040
10.0
1070
   172
1070
     1
1070
   271
1070
     0
1070
   272
1070
     0
1070
   289
1070
     0
1070
   341
1005
175A
1070
     5
1000
ORIGIN
1002
}
  0
DIMENSION
  5
91DC
  8
SIZE
  6
CONTINUOUS
  2
*D58
 10
615.88066129173967
 20
-180.00000000000011
 30
0.0
 11
573.88066129173967
 21
-89.999999999999986
 31
0.0
 70
     0
 13
300.0
 23
0.0
 33
0.0
 14
320.0
 24
-180.0
 34
0.0
 50
90.0
1001
ACAD
1000
DSTYLE
1002
{
1070
   287
1070
     0
1070
    41
1040
10.0
1070
    42
1040
20.0
1070
    43
1040
200.0
1070
    44
1040
20.0
1070
    73
1070
     0
1070
    74
1070
     0
1070
    77
1070
     1
1070
    78
1070
     8
1070
   140
1040
64.0
1070
   141
1040
0.082
1070
   147
1040
10.0
1070
   172
1070
     1
1070
   271
1070
     0
1070
   272
1070
     0
1070
   289
1070
     0
1070
   341
1005
175A
1070
     5
1000
ORIGIN
1002
}
  0
POLYLINE
  5
91E9
  8
NOTE
  6
CONTINUOUS
 66
     1
 10
0.0
 20
0.0
 30
0.0
  0
VERTEX
  5
92A5
  8
NOTE
  6
CONTINUOUS
 10
275.31303691271012
 20
-218.50388136600739
 30
0.0
  0
VERTEX
  5
92A6
  8
NOTE
  6
CONTINUOUS
 10
252.0
 20
-186.0000000000008
 30
0.0
  0
VERTEX
  5
92A7
  8
NOTE
  6
CONTINUOUS
 10
255.93774115372051
 20
-225.80570512086061
 30
0.0
  0
SEQEND
  5
92A8
  8
NOTE
  6
CONTINUOUS
  0
LINE
  5
91EE
  8
NOTE
  6
CONTINUOUS
 10
252.0
 20
-186.0000000000008
 30
0.0
 11
412.12103138932417
 21
-607.66429518386155
 31
0.0
  0
DIMENSION
  5
91EF
  8
SIZE
  6
CONTINUOUS
  2
*D59
 10
300.0
 20
-651.85635873892238
 30
0.0
 11
0.0
 21
-651.85635873892238
 31
0.0
 70
   128
 13
-300.0
 23
-270.0
 33
0.0
 14
300.0
 24
-270.0
 34
0.0
1001
ACAD
1000
DSTYLE
1002
{
1070
   287
1070
     0
1070
    41
1040
10.0
1070
    42
1040
20.0
1070
    43
1040
200.0
1070
    44
1040
20.0
1070
    73
1070
     0
1070
    74
1070
     0
1070
    77
1070
     1
1070
    78
1070
     8
1070
   140
1040
64.0
1070
   141
1040
0.082
1070
   147
1040
10.0
1070
   172
1070
     1
1070
   271
1070
     0
1070
   272
1070
     0
1070
   289
1070
     0
1070
   341
1005
175A
1070
     5
1000
ORIGIN
1002
}
  0
POLYLINE
  5
91FD
  8
NOTE
  6
CONTINUOUS
 66
     1
 10
0.0
 20
0.0
 30
0.0
  0
VERTEX
  5
92A9
  8
NOTE
  6
CONTINUOUS
 10
323.31303691271012
 20
-212.50388136600651
 30
0.0
  0
VERTEX
  5
92AA
  8
NOTE
  6
CONTINUOUS
 10
300.0
 20
-180.0
 30
0.0
  0
VERTEX
  5
92AB
  8
NOTE
  6
CONTINUOUS
 10
303.93774115372048
 20
-219.80570512085961
 30
0.0
  0
SEQEND
  5
92AC
  8
NOTE
  6
CONTINUOUS
  0
LINE
  5
9202
  8
NOTE
  6
CONTINUOUS
 10
300.0
 20
-180.0
 30
0.0
 11
398.23171894691029
 21
-438.68437253403272
 31
0.0
  0
LINE
  5
9203
  8
NOTE
  6
CONTINUOUS
 10
935.01187520833605
 20
-438.68437253403272
 30
0.0
 11
398.23171894691029
 21
-438.68437253403272
 31
0.0
  0
TEXT
  5
9204
  8
NOTE
  6
CONTINUOUS
 10
418.27819718981482
 20
-423.17878353403279
 30
0.0
 40
64.0
  1
D 92ü~60ÆÀîè
 41
0.9
  0
DIMENSION
  5
9205
  8
SIZE
  6
CONTINUOUS
  2
*D60
 10
-462.6292818343062
 20
-54.999999999999922
 30
0.0
 11
-462.6292818343062
 21
76.628571428577743
 31
0.0
 70
   128
 13
-300.0
 23
0.0
 33
0.0
 14
-158.4999999999998
 24
-55.0
 34
0.0
 50
90.0
1001
ACAD
1000
DSTYLE
1002
{
1070
   287
1070
     0
1070
    41
1040
10.0
1070
    42
1040
20.0
1070
    43
1040
200.0
1070
    44
1040
20.0
1070
    73
1070
     0
1070
    74
1070
     0
1070
    77
1070
     1
1070
    78
1070
     8
1070
   140
1040
64.0
1070
   141
1040
0.082
1070
   147
1040
10.0
1070
   172
1070
     1
1070
   271
1070
     0
1070
   272
1070
     0
1070
   289
1070
     0
1070
   341
1005
175A
1070
     5
1000
ORIGIN
1002
}
  0
DIMENSION
  5
9214
  8
SIZE
  6
CONTINUOUS
  2
*D61
 10
-462.6292818343062
 20
-197.9999999999998
 30
0.0
 11
-529.62928183430608
 21
-126.4999999999999
 31
0.0
 70
     0
 13
-158.4999999999998
 23
-55.0
 33
0.0
 14
-129.0
 24
-198.0
 34
0.0
 50
90.0
1001
ACAD
1000
DSTYLE
1002
{
1070
   287
1070
     0
1070
    41
1040
10.0
1070
    42
1040
20.0
1070
    43
1040
200.0
1070
    44
1040
20.0
1070
    73
1070
     0
1070
    74
1070
     0
1070
    77
1070
     1
1070
    78
1070
     8
1070
   140
1040
64.0
1070
   141
1040
0.082
1070
   147
1040
10.0
1070
   172
1070
     1
1070
   271
1070
     0
1070
   272
1070
     0
1070
   289
1070
     0
1070
   341
1005
175A
1070
     5
1000
ORIGIN
1002
}
  0
DIMENSION
  5
9223
  8
SIZE
  6
CONTINUOUS
  2
*D62
 10
138.5
 20
122.13338400878899
 30
0.0
 11
0.0000000000000026
 21
164.13338400878899
 31
0.0
 70
     0
 13
-138.5
 23
-35.0
 33
0.0
 14
138.5
 24
-35.0
 34
0.0
1001
ACAD
1000
DSTYLE
1002
{
1070
   287
1070
     0
1070
    41
1040
10.0
1070
    42
1040
20.0
1070
    43
1040
200.0
1070
    44
1040
20.0
1070
    73
1070
     0
1070
    74
1070
     0
1070
    77
1070
     1
1070
    78
1070
     8
1070
   140
1040
64.0
1070
   141
1040
0.082
1070
   147
1040
10.0
1070
   172
1070
     1
1070
   271
1070
     0
1070
   272
1070
     0
1070
   289
1070
     0
1070
   341
1005
175A
1070
     5
1000
ORIGIN
1002
}
  0
DIMENSION
  5
9230
  8
SIZE
  6
CONTINUOUS
  2
*D63
 10
108.9999999999999
 20
-414.02750695460492
 30
0.0
 11
-0.0000000000000116
 21
-372.02750695460492
 31
0.0
 70
     0
 13
-109.0
 23
-218.0
 33
0.0
 14
109.0
 24
-218.0
 34
0.0
1001
ACAD
1000
DSTYLE
1002
{
1070
   287
1070
     0
1070
    41
1040
10.0
1070
    42
1040
20.0
1070
    43
1040
200.0
1070
    44
1040
20.0
1070
    73
1070
     0
1070
    74
1070
     0
1070
    77
1070
     1
1070
    78
1070
     8
1070
   140
1040
64.0
1070
   141
1040
0.082
1070
   147
1040
10.0
1070
   172
1070
     1
1070
   271
1070
     0
1070
   272
1070
     0
1070
   289
1070
     0
1070
   341
1005
175A
1070
     5
1000
ORIGIN
1002
}
  0
LINE
  5
923D
  8
NOTE
  6
CONTINUOUS
 10
-807.98260009202204
 20
204.8535926217472
 30
0.0
 11
-359.39071498972032
 21
204.8535926217472
 31
0.0
  0
TEXT
  5
923E
  8
NOTE
  6
CONTINUOUS
 10
-786.62540709201835
 20
220.769184621747
 30
0.0
 40
64.0
  1
AH 4-%%C10
 41
0.9
  0
POLYLINE
  5
923F
  8
NOTE
  6
CONTINUOUS
 66
     1
 10
0.0
 20
0.0
 30
0.0
  0
VERTEX
  5
92AD
  8
NOTE
  6
CONTINUOUS
 10
-171.35491622018881
 20
-32.184337088019667
 30
0.0
  0
VERTEX
  5
92AE
  8
NOTE
  6
CONTINUOUS
 10
-138.5
 20
-55.0
 30
0.0
  0
VERTEX
  5
92AF
  8
NOTE
  6
CONTINUOUS
 10
-155.54536017495411
 20
-18.813598381871991
 30
0.0
  0
SEQEND
  5
92B0
  8
NOTE
  6
CONTINUOUS
  0
LINE
  5
9244
  8
NOTE
  6
CONTINUOUS
 10
-138.5
 20
-55.0
 30
0.0
 11
-359.39071498972032
 21
204.8535926217472
 31
0.0
  0
LINE
  5
9245
  8
OUTLINE
  6
CONTINUOUS
 10
-300.0
 20
-270.0
 30
0.0
 11
300.0
 21
-270.0
 31
0.0
  0
LINE
  5
9246
  8
OUTLINE
  6
CONTINUOUS
 10
-300.0
 20
0.0
 30
0.0
 11
300.0
 21
0.0
 31
0.0
  0
LINE
  5
9247
  8
OUTLINE
  6
CONTINUOUS
 10
-300.0
 20
0.0
 30
0.0
 11
-300.0
 21
-270.0
 31
0.0
  0
LINE
  5
9248
  8
OUTLINE
  6
CONTINUOUS
 10
300.0
 20
0.0
 30
0.0
 11
300.0
 21
-270.0
 31
0.0
  0
DIMENSION
  5
9249
  8
SIZE
  6
CONTINUOUS
  2
*D64
 10
-625.93654319181951
 20
0.0000000000000923
 30
0.0
 11
-667.93654319181951
 21
-135.0
 31
0.0
 70
     0
 13
-300.0
 23
-270.0
 33
0.0
 14
-300.0
 24
0.0
 34
0.0
 50
90.0
1001
ACAD
1000
DSTYLE
1002
{
1070
   287
1070
     0
1070
    41
1040
10.0
1070
    42
1040
20.0
1070
    43
1040
200.0
1070
    44
1040
20.0
1070
    73
1070
     0
1070
    74
1070
     0
1070
    77
1070
     1
1070
    78
1070
     8
1070
   140
1040
64.0
1070
   141
1040
0.082
1070
   147
1040
10.0
1070
   172
1070
     1
1070
   271
1070
     0
1070
   272
1070
     0
1070
   289
1070
     0
1070
   341
1005
175A
1070
     5
1000
ORIGIN
1002
}
  0
DIMENSION
  5
9256
  8
SIZE
  6
CONTINUOUS
  2
*D65
 10
752.01614402095584
 20
-186.00000000000011
 30
0.0
 11
710.01614402095584
 21
-93.000000000000014
 31
0.0
 70
     0
 13
300.0
 23
0.0
 33
0.0
 14
272.0
 24
-186.0
 34
0.0
 50
90.0
1001
ACAD
1000
DSTYLE
1002
{
1070
   287
1070
     0
1070
    41
1040
10.0
1070
    42
1040
20.0
1070
    43
1040
200.0
1070
    44
1040
20.0
1070
    73
1070
     0
1070
    74
1070
     0
1070
    77
1070
     1
1070
    78
1070
     8
1070
   140
1040
64.0
1070
   141
1040
0.082
1070
   147
1040
10.0
1070
   172
1070
     1
1070
   271
1070
     0
1070
   272
1070
     0
1070
   289
1070
     0
1070
   341
1005
175A
1070
     5
1000
ORIGIN
1002
}
  0
ENDSEC
  0
EOF
