  0
SECTION
  2
HEADER
  9
$ACADVER
  1
AC1009
  9
$INSBASE
 10
0.0
 20
0.0
 30
0.0
  9
$EXTMIN
 10
-1146.761119453289
 20
-613.06791136589527
 30
0.0
  9
$EXTMAX
 10
1839.846358715371
 20
658.75245517260396
 30
0.0
  9
$LIMMIN
 10
-1415.7767300924149
 20
-973.47886812264005
  9
$LIMMAX
 10
1956.463140898597
 20
906.6406499400473
  9
$ORTHOMODE
 70
     1
  9
$REGENMODE
 70
     1
  9
$FILLMODE
 70
     1
  9
$QTEXTMODE
 70
     0
  9
$MIRRTEXT
 70
     0
  9
$DRAGMODE
 70
     2
  9
$LTSCALE
 40
20.0
  9
$OSMODE
 70
    37
  9
$ATTMODE
 70
     1
  9
$TEXTSIZE
 40
64.0
  9
$TRACEWID
 40
0.05
  9
$TEXTSTYLE
  7
STANDARD
  9
$CLAYER
  8
SIZE
  9
$CELTYPE
  6
CONTINUOUS
  9
$CECOLOR
 62
   256
  9
$DIMSCALE
 40
1.0
  9
$DIMASZ
 40
10.0
  9
$DIMEXO
 40
20.0
  9
$DIMDLI
 40
200.0
  9
$DIMRND
 40
0.0
  9
$DIMDLE
 40
0.0
  9
$DIMEXE
 40
30.0
  9
$DIMTP
 40
0.0
  9
$DIMTM
 40
0.0
  9
$DIMTXT
 40
64.0
  9
$DIMCEN
 40
0.09
  9
$DIMTSZ
 40
0.0
  9
$DIMTOL
 70
     0
  9
$DIMLIM
 70
     0
  9
$DIMTIH
 70
     0
  9
$DIMTOH
 70
     0
  9
$DIMSE1
 70
     0
  9
$DIMSE2
 70
     0
  9
$DIMTAD
 70
     1
  9
$DIMZIN
 70
     8
  9
$DIMBLK
  1

  9
$DIMASO
 70
     1
  9
$DIMSHO
 70
     0
  9
$DIMPOST
  1

  9
$DIMAPOST
  1

  9
$DIMALT
 70
     0
  9
$DIMALTD
 70
     2
  9
$DIMALTF
 40
25.399999999999999
  9
$DIMLFAC
 40
1.0
  9
$DIMTOFL
 70
     1
  9
$DIMTVP
 40
0.0
  9
$DIMTIX
 70
     0
  9
$DIMSOXD
 70
     0
  9
$DIMSAH
 70
     1
  9
$DIMBLK1
  1

  9
$DIMBLK2
  1

  9
$DIMSTYLE
  2
STANDARD
  9
$DIMCLRD
 70
     0
  9
$DIMCLRE
 70
     0
  9
$DIMCLRT
 70
     0
  9
$DIMTFAC
 40
1.0
  9
$DIMGAP
 40
0.09
  9
$LUNITS
 70
     2
  9
$LUPREC
 70
     4
  9
$SKETCHINC
 40
0.1
  9
$FILLETRAD
 40
6.0
  9
$AUNITS
 70
     1
  9
$AUPREC
 70
     3
  9
$MENU
  1
ACAD
  9
$ELEVATION
 40
0.0
  9
$PELEVATION
 40
0.0
  9
$THICKNESS
 40
0.0
  9
$LIMCHECK
 70
     0
  9
$BLIPMODE
 70
     0
  9
$CHAMFERA
 40
0.0
  9
$CHAMFERB
 40
0.0
  9
$SKPOLY
 70
     0
  9
$TDCREATE
 40
2450330.3932059952
  9
$TDUPDATE
 40
2453256.5863016429
  9
$TDINDWG
 40
0.2229859954
  9
$TDUSRTIMER
 40
0.2229857639
  9
$USRTIMER
 70
     1
  9
$ANGBASE
 50
0.0
  9
$ANGDIR
 70
     0
  9
$PDMODE
 70
     3
  9
$PDSIZE
 40
-2.0
  9
$PLINEWID
 40
0.0
  9
$COORDS
 70
     1
  9
$SPLFRAME
 70
     0
  9
$SPLINETYPE
 70
     6
  9
$SPLINESEGS
 70
     8
  9
$ATTDIA
 70
     0
  9
$ATTREQ
 70
     1
  9
$HANDLING
 70
-16383
  9
$HANDSEED
  5
112D
  9
$SURFTAB1
 70
     6
  9
$SURFTAB2
 70
     6
  9
$SURFTYPE
 70
     6
  9
$SURFU
 70
     6
  9
$SURFV
 70
     6
  9
$UCSNAME
  2

  9
$UCSORG
 10
0.0
 20
0.0
 30
0.0
  9
$UCSXDIR
 10
1.0
 20
0.0
 30
0.0
  9
$UCSYDIR
 10
0.0
 20
1.0
 30
0.0
  9
$PUCSNAME
  2

  9
$PUCSORG
 10
0.0
 20
0.0
 30
0.0
  9
$PUCSXDIR
 10
1.0
 20
0.0
 30
0.0
  9
$PUCSYDIR
 10
0.0
 20
1.0
 30
0.0
  9
$USERI1
 70
     0
  9
$USERI2
 70
     0
  9
$USERI3
 70
     0
  9
$USERI4
 70
     0
  9
$USERI5
 70
     0
  9
$USERR1
 40
20.0
  9
$USERR2
 40
0.0
  9
$USERR3
 40
0.0
  9
$USERR4
 40
0.0
  9
$USERR5
 40
0.0
  9
$WORLDVIEW
 70
     1
  9
$SHADEDGE
 70
     3
  9
$SHADEDIF
 70
    70
  9
$TILEMODE
 70
     1
  9
$MAXACTVP
 70
    64
  9
$PLIMCHECK
 70
     0
  9
$PEXTMIN
 10
1.0000000000000000E+020
 20
1.0000000000000000E+020
 30
1.0000000000000000E+020
  9
$PEXTMAX
 10
-1.0000000000000000E+020
 20
-1.0000000000000000E+020
 30
-1.0000000000000000E+020
  9
$PLIMMIN
 10
0.0
 20
0.0
  9
$PLIMMAX
 10
12.0
 20
9.0
  9
$UNITMODE
 70
     0
  9
$VISRETAIN
 70
     1
  9
$PLINEGEN
 70
     0
  9
$PSLTSCALE
 70
     1
  0
ENDSEC
  0
SECTION
  2
TABLES
  0
TABLE
  2
VPORT
 70
     2
  0
VPORT
  2
*ACTIVE
 70
     0
 10
0.0
 20
0.0
 11
1.0
 21
1.0
 12
252.66702988627131
 22
-103.8835612806963
 13
0.0
 23
0.0
 14
50.0
 24
50.0
 15
100.0
 25
100.0
 16
0.0
 26
0.0
 36
1.0
 17
0.0
 27
0.0
 37
0.0
 40
2979.1265072888241
 41
1.2721893491124261
 42
50.0
 43
0.0
 44
0.0
 50
0.0
 51
0.0
 71
     0
 72
   500
 73
     1
 74
     0
 75
     0
 76
     0
 77
     0
 78
     0
  0
ENDTAB
  0
TABLE
  2
LTYPE
 70
     8
  0
LTYPE
  2
CONTINUOUS
 70
     0
  3
実線
 72
    65
 73
     0
 40
0.0
  0
LTYPE
  2
DASHDOT
 70
     0
  3
____ _ ____ _ ____ _ ____ _ ____ _ ____ _ ____
 72
    65
 73
     4
 40
5.5
 49
4.0
 49
-0.6
 49
0.3
 49
-0.6
  0
LTYPE
  2
CONTINOUS
 70
     0
  3
Solid line
 72
    65
 73
     0
 40
0.0
  0
LTYPE
  2
DASHED
 70
     0
  3
_ _ _ _ _ _ _ _ _ _ _ _ _ _ _ _ _ _ _ _ _ _ _
 72
    65
 73
     2
 40
2.0
 49
1.1999999999999991
 49
-0.8
  0
LTYPE
  2
DOT
 70
     0
  3
...............................................
 72
    65
 73
     2
 40
0.8
 49
0.5
 49
-0.3
  0
LTYPE
  2
DASHDOT1
 70
     0
  3
____ _ ____ _ ____ _ ____ _ ____ _ ____ _ ____
 72
    65
 73
     4
 40
2.0
 49
1.5
 49
-0.2
 49
0.1
 49
-0.2
  0
LTYPE
  2
DIVIDE
 70
     0
  3
_____ _ _ _____ _ _ _____ _ _ _____ _ _ ____
 72
    65
 73
     6
 40
6.4000000000000004
 49
4.0
 49
-0.6
 49
0.3
 49
-0.6
 49
0.3
 49
-0.6
  0
LTYPE
  2
DIVIDE1
 70
     0
  3
_____ _ _ _____ _ _ _____ _ _ _____ _ _ ____
 72
    65
 73
     6
 40
3.2000000000000002
 49
2.0
 49
-0.3
 49
0.15
 49
-0.3
 49
0.15
 49
-0.3
  0
ENDTAB
  0
TABLE
  2
LAYER
 70
    12
  0
LAYER
  2
0
 70
     0
 62
     7
  6
CONTINUOUS
  0
LAYER
  2
SIZE
 70
     0
 62
    32
  6
CONTINUOUS
  0
LAYER
  2
DETAIL
 70
     0
 62
     5
  6
CONTINUOUS
  0
LAYER
  2
OUTLINE
 70
     0
 62
     3
  6
CONTINUOUS
  0
LAYER
  2
BASIS
 70
     0
 62
     6
  6
CONTINUOUS
  0
LAYER
  2
NOTE
 70
     0
 62
     4
  6
CONTINUOUS
  0
LAYER
  2
ARRANGE
 70
     0
 62
     1
  6
CONTINUOUS
  0
LAYER
  2
FIX
 70
     0
 62
   241
  6
CONTINUOUS
  0
LAYER
  2
ETC
 70
     0
 62
    83
  6
CONTINUOUS
  0
LAYER
  2
SERVICESPACE
 70
     0
 62
     2
  6
CONTINUOUS
  0
LAYER
  2
SYMBOLLINE
 70
     0
 62
    38
  6
CONTINUOUS
  0
LAYER
  2
DEFPOINTS
 70
     0
 62
     7
  6
CONTINUOUS
  0
ENDTAB
  0
TABLE
  2
STYLE
 70
     2
  0
STYLE
  2
STANDARD
 70
     0
 40
0.0
 41
0.9
 50
0.0
 71
     0
 42
64.0
  3
SIMPLEX
  4
BIGFONT
  0
STYLE
  2
STANDARD1
 70
     0
 40
0.0
 41
1.0
 50
0.0
 71
     0
 42
3.2000000000000002
  3
MONOTXT
  4
BIGFONT
  0
ENDTAB
  0
TABLE
  2
VIEW
 70
     1
  0
VIEW
  2
ALL
 70
     0
 40
4282.6199999999999
 10
0.0
 20
41.309903999999989
 41
5940.0
 11
0.0
 21
0.0
 31
1.0
 12
0.0
 22
0.0
 32
0.0
 42
50.0
 43
0.0
 44
0.0
 50
0.0
 71
     0
  0
ENDTAB
  0
TABLE
  2
UCS
 70
     0
  0
ENDTAB
  0
TABLE
  2
APPID
 70
     1
  0
APPID
  2
ACAD
 70
     0
  0
ENDTAB
  0
TABLE
  2
DIMSTYLE
 70
     1
  0
DIMSTYLE
  2
STANDARD
 70
     0
  3

  4

  5

  6

  7

 40
1.0
 41
0.18
 42
0.0625
 43
0.38
 44
0.18
 45
0.0
 46
0.0
 47
0.0
 48
0.0
140
0.18
141
0.09
142
0.0
143
25.399999999999999
144
1.0
145
0.0
146
1.0
147
0.09
 71
     0
 72
     0
 73
     1
 74
     1
 75
     0
 76
     0
 77
     0
 78
     0
170
     0
171
     2
172
     0
173
     0
174
     0
175
     0
176
     0
177
     0
178
     0
  0
ENDTAB
  0
ENDSEC
  0
SECTION
  2
BLOCKS
  0
BLOCK
  8
0
  2
$MODEL_SPACE
 70
     0
 10
0.0
 20
0.0
 30
0.0
  3
$MODEL_SPACE
  1

  0
ENDBLK
  5
73F
  8
0
  0
BLOCK
 67
     1
  8
0
  2
$PAPER_SPACE
 70
     0
 10
0.0
 20
0.0
 30
0.0
  3
$PAPER_SPACE
  1

  0
ENDBLK
  5
73B
 67
     1
  8
0
  0
BLOCK
  8
0
  2
A$C5F2C697A
 70
     0
 10
0.0
 20
0.0
 30
0.0
  3
A$C5F2C697A
  1

  0
TEXT
  5
762
  8
SIZE
  6
BYBLOCK
 10
910.8147643978815
 20
127.36127978650261
 30
0.0
 40
64.0
  1
370
 41
0.9
  0
LINE
  5
763
  8
SIZE
  6
BYBLOCK
 10
801.8719073978815
 20
95.361279786502593
 30
0.0
 11
1167.87190739788
 21
95.361279786502593
 31
0.0
  0
TEXT
  5
764
  8
SIZE
  6
BYBLOCK
 10
915.81476439788139
 20
1424.5027517865019
 30
0.0
 40
64.0
  1
330
 41
0.9
  0
LINE
  5
765
  8
SIZE
  6
BYBLOCK
 10
826.8719073978815
 20
1392.5027517865019
 30
0.0
 11
1152.87190739788
 21
1392.5027517865019
 31
0.0
  0
LINE
  5
766
  8
OUTLINE
  6
CONTINUOUS
 10
771.8719063978815
 20
290.07775178650252
 30
0.0
 11
1183.871906397881
 21
290.07775178650252
 31
0.0
  0
LINE
  5
767
  8
OUTLINE
  6
CONTINUOUS
 10
771.8719063978815
 20
323.07775178650252
 30
0.0
 11
1183.871906397881
 21
323.07775178650252
 31
0.0
  0
LINE
  5
768
  8
OUTLINE
  6
CONTINUOUS
 10
824.87190639788139
 20
1145.0777517865019
 30
0.0
 11
1154.8719063978799
 21
1145.0777517865019
 31
0.0
  0
CIRCLE
  5
769
  8
ARRANGE
  6
CONTINUOUS
 10
989.87190639788139
 20
290.07775178650252
 30
0.0
 40
40.0
  0
LINE
  5
76A
  8
DETAIL
  6
CONTINOUS
 10
771.8719063978815
 20
290.07775178650252
 30
0.0
 11
1183.871906397881
 21
290.07775178650252
 31
0.0
  0
LINE
  5
76B
  8
DETAIL
  6
CONTINOUS
 10
824.87190639788139
 20
1145.0777517865019
 30
0.0
 11
1154.8719063978799
 21
1145.0777517865019
 31
0.0
  0
TEXT
  5
76C
  8
NOTE
  6
CONTINUOUS
 10
973.9808703978814
 20
913.84623078650259
 30
0.0
 40
64.0
  1
EL,CL
 41
0.9
  0
LINE
  5
76D
  8
NOTE
  6
CONTINUOUS
 10
879.8719063978815
 20
686.07775178650252
 30
0.0
 11
1040.77148939788
 21
625.20405378650253
 31
0.0
  0
LINE
  5
76E
  8
NOTE
  6
CONTINUOUS
 10
1205.83098439788
 20
895.38895978650271
 30
0.0
 11
918.87085639788165
 21
895.38895978650271
 31
0.0
  0
POINT
  5
76F
  8
ARRANGE
  6
CONTINUOUS
 10
989.87190639788139
 20
290.07775178650252
 30
0.0
  0
LINE
  5
770
  8
DETAIL
  6
CONTINOUS
 10
771.8719063978815
 20
323.07775178650252
 30
0.0
 11
1183.871906397881
 21
323.07775178650252
 31
0.0
  0
LINE
  5
771
  8
NOTE
  6
CONTINUOUS
 10
882.87190639788139
 20
724.07775178650252
 30
0.0
 11
1040.77148939788
 21
812.30385178650226
 31
0.0
  0
CIRCLE
  5
772
  8
SIZE
  6
CONTINUOUS
 10
220.7875803978813
 20
290.07775178650252
 30
0.0
 40
6.0
  0
CIRCLE
  5
773
  8
SIZE
  6
CONTINUOUS
 10
503.55668139788139
 20
290.07775178650252
 30
0.0
 40
6.0
  0
CIRCLE
  5
774
  8
SIZE
  6
CONTINUOUS
 10
649.74425839788148
 20
290.07775178650252
 30
0.0
 40
6.0
  0
CIRCLE
  5
775
  8
SIZE
  6
CONTINUOUS
 10
350.83505539788138
 20
290.07775178650252
 30
0.0
 40
6.0
  0
LINE
  5
776
  8
OUTLINE
  6
CONTINUOUS
 10
771.8719063978815
 20
290.07775178650252
 30
0.0
 11
771.8719063978815
 21
323.07775178650252
 31
0.0
  0
CIRCLE
  5
777
  8
FIX
  6
CONTINUOUS
 10
799.8719063978815
 20
290.07775178650252
 30
0.0
 40
40.0
  0
LINE
  5
778
  8
DETAIL
  6
CONTINOUS
 10
771.8719063978815
 20
290.07775178650252
 30
0.0
 11
771.8719063978815
 21
323.07775178650252
 31
0.0
  0
LINE
  5
779
  8
BASIS
  6
DASHDOT
 10
989.87190639788139
 20
239.4419287865025
 30
0.0
 11
989.87190639788139
 21
1184.2961157865011
 31
0.0
  0
LINE
  5
77A
  8
NOTE
  6
CONTINOUS
 10
799.8719063978815
 20
270.0777517865024
 30
0.0
 11
799.8719063978815
 21
310.07775178650252
 31
0.0
  0
LINE
  5
77B
  8
NOTE
  6
CONTINUOUS
 10
0.0000023978816444
 20
-0.000002213497396
 30
0.0
 11
579.80680439788148
 21
-0.000002213497396
 31
0.0
  0
TEXT
  5
77C
  8
NOTE
  6
CONTINUOUS
 10
14.78030739788152
 20
15.10229878650267
 30
0.0
 40
64.0
  1
AH 2-12×36
 41
0.9
  0
LINE
  5
77D
  8
SIZE
  6
BYBLOCK
 10
715.70171039788136
 20
290.07775178650252
 30
0.0
 11
320.83505539788149
 21
290.07775178650252
 31
0.0
  0
LINE
  5
77E
  8
SIZE
  6
BYBLOCK
 10
735.70171039788136
 20
290.07775178650252
 30
0.0
 11
473.55668139788122
 21
290.07775178650252
 31
0.0
  0
LINE
  5
77F
  8
SIZE
  6
BYBLOCK
 10
735.70171039788136
 20
290.07775178650252
 30
0.0
 11
190.7875803978813
 21
290.07775178650252
 31
0.0
  0
LINE
  5
780
  8
NOTE
  6
CONTINUOUS
 10
579.80680439788148
 20
-0.000002213497396
 30
0.0
 11
799.8719063978815
 21
290.07775178650252
 31
0.0
  0
TEXT
  5
781
  8
SIZE
  6
BYBLOCK
 10
739.24333539788142
 20
127.36127978650261
 30
0.0
 40
64.0
  1
28
 41
0.9
  0
LINE
  5
782
  8
SIZE
  6
BYBLOCK
 10
735.70171039788136
 20
290.07775178650252
 30
0.0
 11
619.74425839788148
 21
290.07775178650252
 31
0.0
  0
LINE
  5
783
  8
SIZE
  6
BYBLOCK
 10
799.8719073978815
 20
250.0777517865026
 30
0.0
 11
799.8719073978815
 21
65.361279786502621
 31
0.0
  0
LINE
  5
784
  8
SIZE
  6
BYBLOCK
 10
799.8719073978815
 20
250.0777517865026
 30
0.0
 11
799.8719073978815
 21
65.361279786502621
 31
0.0
  0
LINE
  5
785
  8
SIZE
  6
BYBLOCK
 10
771.8719073978815
 20
270.0777517865024
 30
0.0
 11
771.8719073978815
 21
65.361279786502621
 31
0.0
  0
CIRCLE
  5
786
  8
SIZE
  6
CONTINUOUS
 10
799.8719073978815
 20
95.361279786502593
 30
0.0
 40
6.0
  0
CIRCLE
  5
787
  8
SIZE
  6
CONTINUOUS
 10
771.8719073978815
 20
95.361279786502593
 30
0.0
 40
6.0
  0
CIRCLE
  5
788
  8
SIZE
  6
CONTINUOUS
 10
799.8719073978815
 20
95.361279786502593
 30
0.0
 40
6.0
  0
LINE
  5
789
  8
SIZE
  6
BYBLOCK
 10
799.8719073978815
 20
95.361279786502593
 30
0.0
 11
771.8719073978815
 21
95.361279786502593
 31
0.0
  0
LINE
  5
78A
  8
SIZE
  6
BYBLOCK
 10
769.8719073978815
 20
95.361279786502593
 30
0.0
 11
767.8719073978815
 21
95.361279786502593
 31
0.0
  0
LINE
  5
78B
  8
SIZE
  6
BYBLOCK
 10
801.8719073978815
 20
95.361279786502593
 30
0.0
 11
803.87190739788139
 21
95.361279786502593
 31
0.0
  0
LINE
  5
78C
  8
NOTE
  6
CONTINOUS
 10
779.8719063978815
 20
290.07775178650252
 30
0.0
 11
819.8719063978815
 21
290.07775178650252
 31
0.0
  0
LINE
  5
78D
  8
NOTE
  6
CONTINUOUS
 10
799.8719063978815
 20
290.07775178650252
 30
0.0
 11
784.76766639788127
 21
253.0390967865026
 31
0.0
  0
LINE
  5
78E
  8
NOTE
  6
CONTINUOUS
 10
799.8719063978815
 20
290.07775178650252
 30
0.0
 11
768.27192339788144
 21
265.55345678650241
 31
0.0
  0
LINE
  5
78F
  8
SIZE
  6
BYBLOCK
 10
771.8719073978815
 20
343.07775178650252
 30
0.0
 11
771.8719073978815
 21
1422.5027517865019
 31
0.0
  0
LINE
  5
790
  8
OUTLINE
  6
CONTINUOUS
 10
824.87190639788139
 20
323.07775178650252
 30
0.0
 11
824.87190639788139
 21
1145.0777517865019
 31
0.0
  0
LINE
  5
791
  8
DETAIL
  6
CONTINOUS
 10
824.87190639788139
 20
323.07775178650252
 30
0.0
 11
824.87190639788139
 21
1145.0777517865019
 31
0.0
  0
LINE
  5
792
  8
DETAIL
  6
CONTINOUS
 10
804.8719063978815
 20
462.0777517865024
 30
0.0
 11
804.8719063978815
 21
1002.0777517865019
 31
0.0
  0
LINE
  5
793
  8
SIZE
  6
BYBLOCK
 10
714.44271139788157
 20
732.07775178650252
 30
0.0
 11
320.83505539788149
 21
732.07775178650252
 31
0.0
  0
LINE
  5
794
  8
SIZE
  6
BYBLOCK
 10
856.8719073978815
 20
724.07775178650252
 30
0.0
 11
473.55668139788122
 21
724.07775178650252
 31
0.0
  0
LINE
  5
795
  8
SIZE
  6
BYBLOCK
 10
777.27455739788161
 20
810.08015378650225
 30
0.0
 11
190.42745539788129
 21
810.08015378650225
 31
0.0
  0
LINE
  5
796
  8
SIZE
  6
BYBLOCK
 10
350.83505539788138
 20
292.07775178650252
 30
0.0
 11
350.83505539788138
 21
730.07775178650252
 31
0.0
  0
LINE
  5
797
  8
SIZE
  6
BYBLOCK
 10
503.55668139788139
 20
292.07775178650252
 30
0.0
 11
503.55668139788139
 21
724.07775178650252
 31
0.0
  0
TEXT
  5
798
  8
SIZE
  6
BYBLOCK
 10
188.7875803978813
 20
529.52060878650241
 30
0.0
 40
64.0
  1
520
 50
90.0
 41
0.9
  0
LINE
  5
799
  8
SIZE
  6
BYBLOCK
 10
220.7875803978813
 20
810.08015378650225
 30
0.0
 11
220.7875803978813
 21
603.57775178650252
 31
0.0
  0
TEXT
  5
79A
  8
SIZE
  6
BYBLOCK
 10
318.83505539788149
 20
437.02060878650252
 30
0.0
 40
64.0
  1
442
 50
90.0
 41
0.9
  0
LINE
  5
79B
  8
SIZE
  6
BYBLOCK
 10
220.7875803978813
 20
292.07775178650252
 30
0.0
 11
220.7875803978813
 21
603.57775178650252
 31
0.0
  0
TEXT
  5
79C
  8
SIZE
  6
BYBLOCK
 10
471.55668139788139
 20
427.13489478650251
 30
0.0
 40
64.0
  1
434
 50
90.0
 41
0.9
  0
CIRCLE
  5
79D
  8
SIZE
  6
CONTINUOUS
 10
220.4274553978814
 20
810.08015378650225
 30
0.0
 40
6.0
  0
CIRCLE
  5
79E
  8
SIZE
  6
CONTINUOUS
 10
350.83505539788138
 20
732.07775178650252
 30
0.0
 40
6.0
  0
CIRCLE
  5
79F
  8
SIZE
  6
CONTINUOUS
 10
503.55668139788139
 20
724.07775178650252
 30
0.0
 40
6.0
  0
LINE
  5
7A0
  8
SIZE
  6
BYBLOCK
 10
649.74425839788148
 20
292.07775178650252
 30
0.0
 11
649.74425839788148
 21
684.07775178650252
 31
0.0
  0
TEXT
  5
7A1
  8
SIZE
  6
BYBLOCK
 10
617.74425839788125
 20
415.3920377865025
 30
0.0
 40
64.0
  1
396
 50
90.0
 41
0.9
  0
LINE
  5
7A2
  8
DETAIL
  6
CONTINOUS
 10
824.87190639788139
 20
462.0777517865024
 30
0.0
 11
804.8719063978815
 21
462.0777517865024
 31
0.0
  0
LINE
  5
7A3
  8
SIZE
  6
BYBLOCK
 10
836.26393739788148
 20
686.07775178650252
 30
0.0
 11
619.74425839788148
 21
686.07775178650252
 31
0.0
  0
LINE
  5
7A4
  8
BASIS
  6
DASHDOT
 10
734.44271139788145
 20
732.07775178650252
 30
0.0
 11
884.14564339788137
 21
732.07775178650252
 31
0.0
  0
CIRCLE
  5
7A5
  8
SIZE
  6
CONTINUOUS
 10
649.74425839788148
 20
686.07775178650252
 30
0.0
 40
6.0
  0
LINE
  5
7A6
  8
NOTE
  6
CONTINOUS
 10
862.8719063978815
 20
724.07775178650252
 30
0.0
 11
902.8719063978815
 21
724.07775178650252
 31
0.0
  0
LINE
  5
7A7
  8
NOTE
  6
CONTINOUS
 10
859.87190639788162
 20
686.07775178650252
 30
0.0
 11
899.87190639788139
 21
686.07775178650252
 31
0.0
  0
LINE
  5
7A8
  8
NOTE
  6
CONTINOUS
 10
879.8719063978815
 20
666.07775178650252
 30
0.0
 11
879.8719063978815
 21
706.07775178650252
 31
0.0
  0
POLYLINE
  5
7A9
  8
NOTE
  6
CONTINUOUS
 66
     1
 10
0.0
 20
0.0
 30
0.0
  0
VERTEX
  5
1063
  8
NOTE
  6
CONTINUOUS
 10
919.40695039788125
 20
679.99661178650251
 30
0.0
  0
VERTEX
  5
1064
  8
NOTE
  6
CONTINUOUS
 10
879.8719063978815
 20
686.07775178650252
 30
0.0
  0
VERTEX
  5
1065
  8
NOTE
  6
CONTINUOUS
 10
911.06968939788146
 20
661.04380778650238
 30
0.0
  0
SEQEND
  5
1066
  8
NOTE
  6
CONTINUOUS
  0
POLYLINE
  5
7AE
  8
NOTE
  6
CONTINUOUS
 66
     1
 10
0.0
 20
0.0
 30
0.0
  0
VERTEX
  5
1067
  8
NOTE
  6
CONTINUOUS
 10
911.55116939788149
 20
751.96143678650253
 30
0.0
  0
VERTEX
  5
1068
  8
NOTE
  6
CONTINUOUS
 10
882.87190639788139
 20
724.07775178650252
 30
0.0
  0
VERTEX
  5
1069
  8
NOTE
  6
CONTINUOUS
 10
921.65071939788174
 20
733.88609978650254
 30
0.0
  0
SEQEND
  5
106A
  8
NOTE
  6
CONTINUOUS
  0
LINE
  5
7B3
  8
NOTE
  6
CONTINOUS
 10
882.87190639788139
 20
704.0777517865024
 30
0.0
 11
882.87190639788139
 21
744.07775178650252
 31
0.0
  0
LINE
  5
7B4
  8
NOTE
  6
CONTINUOUS
 10
824.51178139788146
 20
810.08015378650225
 30
0.0
 11
918.87085639788165
 21
895.38895978650271
 31
0.0
  0
LINE
  5
7B5
  8
NOTE
  6
CONTINOUS
 10
804.51178139788135
 20
810.08015378650225
 30
0.0
 11
844.51178139788135
 21
810.08015378650225
 31
0.0
  0
POLYLINE
  5
7B6
  8
NOTE
  6
CONTINUOUS
 66
     1
 10
0.0
 20
0.0
 30
0.0
  0
VERTEX
  5
106B
  8
NOTE
  6
CONTINUOUS
 10
846.64476439788132
 20
843.39878378650269
 30
0.0
  0
VERTEX
  5
106C
  8
NOTE
  6
CONTINUOUS
 10
824.51178139788146
 20
810.08015378650225
 30
0.0
  0
VERTEX
  5
106D
  8
NOTE
  6
CONTINUOUS
 10
860.33882139788147
 20
827.86844278650256
 30
0.0
  0
SEQEND
  5
106E
  8
NOTE
  6
CONTINUOUS
  0
LINE
  5
7BB
  8
NOTE
  6
CONTINOUS
 10
824.51178139788146
 20
790.08015378650225
 30
0.0
 11
824.51178139788146
 21
830.08015378650225
 31
0.0
  0
LINE
  5
7BC
  8
NOTE
  6
CONTINUOUS
 10
872.35755039788137
 20
933.93013678650243
 30
0.0
 11
872.35755039788137
 21
933.93013678650243
 31
0.0
  0
LINE
  5
7BD
  8
SIZE
  6
BYBLOCK
 10
824.8719073978815
 20
1185.0777517865019
 30
0.0
 11
824.8719073978815
 21
1422.5027517865019
 31
0.0
  0
LINE
  5
7BE
  8
SIZE
  6
BYBLOCK
 10
824.8719073978815
 20
1165.0777517865019
 30
0.0
 11
824.8719073978815
 21
1422.5027517865019
 31
0.0
  0
LINE
  5
7BF
  8
SIZE
  6
BYBLOCK
 10
824.8719073978815
 20
1165.0777517865019
 30
0.0
 11
824.8719073978815
 21
1293.248751786502
 31
0.0
  0
LINE
  5
7C0
  8
SIZE
  6
BYBLOCK
 10
804.87190739788139
 20
1022.0777517865019
 30
0.0
 11
804.87190739788139
 21
1293.248751786502
 31
0.0
  0
LINE
  5
7C1
  8
DETAIL
  6
CONTINOUS
 10
824.87190639788139
 20
1002.0777517865019
 30
0.0
 11
804.8719063978815
 21
1002.0777517865019
 31
0.0
  0
LINE
  5
7C2
  8
SIZE
  6
CONTINUOUS
 10
814.87190639788139
 20
1263.2491457865019
 30
0.0
 11
945.94025839788139
 21
1263.2491457865019
 31
0.0
  0
LINE
  5
7C3
  8
SIZE
  6
BYBLOCK
 10
822.8719073978815
 20
1263.2491457865019
 30
0.0
 11
814.8719073978815
 21
1263.2491457865019
 31
0.0
  0
CIRCLE
  5
7C4
  8
SIZE
  6
CONTINUOUS
 10
804.87190739788139
 20
1263.2491457865019
 30
0.0
 40
6.0
  0
LINE
  5
7C5
  8
SIZE
  6
BYBLOCK
 10
806.8719073978815
 20
1263.2491457865019
 30
0.0
 11
814.8719073978815
 21
1263.2491457865019
 31
0.0
  0
CIRCLE
  5
7C6
  8
SIZE
  6
CONTINUOUS
 10
824.8719073978815
 20
1263.2491457865019
 30
0.0
 40
6.0
  0
TEXT
  5
7C7
  8
SIZE
  6
BYBLOCK
 10
751.74333539788142
 20
1424.5027517865019
 30
0.0
 40
64.0
  1
53
 41
0.9
  0
TEXT
  5
7C8
  8
SIZE
  6
BYBLOCK
 10
843.21570539788104
 20
1295.248751786502
 30
0.0
 40
64.0
  1
20
 41
0.9
  0
LINE
  5
7C9
  8
SIZE
  6
BYBLOCK
 10
824.8719073978815
 20
1392.5027517865019
 30
0.0
 11
771.8719073978815
 21
1392.5027517865019
 31
0.0
  0
CIRCLE
  5
7CA
  8
SIZE
  6
CONTINUOUS
 10
771.8719073978815
 20
1392.5027517865019
 30
0.0
 40
6.0
  0
LINE
  5
7CB
  8
SIZE
  6
BYBLOCK
 10
769.8719073978815
 20
1392.5027517865019
 30
0.0
 11
767.8719073978815
 21
1392.5027517865019
 31
0.0
  0
CIRCLE
  5
7CC
  8
SIZE
  6
CONTINUOUS
 10
824.8719073978815
 20
1392.5027517865019
 30
0.0
 40
6.0
  0
CIRCLE
  5
7CD
  8
SIZE
  6
CONTINUOUS
 10
824.8719073978815
 20
1392.5027517865019
 30
0.0
 40
6.0
  0
LINE
  5
7CE
  8
SIZE
  6
BYBLOCK
 10
826.8719073978815
 20
1392.5027517865019
 30
0.0
 11
828.87190739788139
 21
1392.5027517865019
 31
0.0
  0
CIRCLE
  5
7CF
  8
SIZE
  6
CONTINUOUS
 10
1420.44446039788
 20
290.07775178650252
 30
0.0
 40
6.0
  0
CIRCLE
  5
7D0
  8
FIX
  6
CONTINUOUS
 10
1169.871906397881
 20
290.07775178650252
 30
0.0
 40
40.0
  0
LINE
  5
7D1
  8
OUTLINE
  6
CONTINUOUS
 10
1183.871906397881
 20
323.07775178650252
 30
0.0
 11
1183.871906397881
 21
290.07775178650252
 31
0.0
  0
TEXT
  5
7D2
  8
ETC
  6
CONTINUOUS
 10
1573.1112623978811
 20
288.6366377865026
 30
0.0
 40
64.0
  1
室外機
 41
0.9
  0
LINE
  5
7D3
  8
DETAIL
  6
CONTINOUS
 10
1183.871906397881
 20
290.07775178650252
 30
0.0
 11
1183.871906397881
 21
323.07775178650252
 31
0.0
  0
LINE
  5
7D4
  8
NOTE
  6
CONTINOUS
 10
1169.871906397881
 20
270.0777517865024
 30
0.0
 11
1169.871906397881
 21
310.07775178650252
 31
0.0
  0
LINE
  5
7D5
  8
NOTE
  6
CONTINUOUS
 10
1969.74381039788
 20
-0.000002213497396
 30
0.0
 11
1389.9370083978811
 21
-0.000002213497396
 31
0.0
  0
TEXT
  5
7D6
  8
NOTE
  6
CONTINUOUS
 10
1415.1692193978811
 20
15.10229878650267
 30
0.0
 40
64.0
  1
AH 2-U cut
 41
0.9
  0
LINE
  5
7D7
  8
NOTE
  6
CONTINUOUS
 10
1389.9370083978811
 20
-0.000002213497396
 30
0.0
 11
1169.871906397881
 21
290.07775178650252
 31
0.0
  0
LINE
  5
7D8
  8
SIZE
  6
BYBLOCK
 10
1214.7137463978811
 20
290.07775178650252
 30
0.0
 11
1450.44446039788
 21
290.07775178650252
 31
0.0
  0
LINE
  5
7D9
  8
SIZE
  6
BYBLOCK
 10
1183.87190739788
 20
270.0777517865024
 30
0.0
 11
1183.87190739788
 21
65.361279786502621
 31
0.0
  0
LINE
  5
7DA
  8
SIZE
  6
BYBLOCK
 10
1169.87190739788
 20
250.0777517865026
 30
0.0
 11
1169.87190739788
 21
65.361279786502621
 31
0.0
  0
LINE
  5
7DB
  8
SIZE
  6
BYBLOCK
 10
1169.87190739788
 20
250.0777517865026
 30
0.0
 11
1169.87190739788
 21
65.361279786502621
 31
0.0
  0
CIRCLE
  5
7DC
  8
SIZE
  6
CONTINUOUS
 10
1169.87190739788
 20
95.361279786502593
 30
0.0
 40
6.0
  0
CIRCLE
  5
7DD
  8
SIZE
  6
CONTINUOUS
 10
1169.87190739788
 20
95.361279786502593
 30
0.0
 40
6.0
  0
CIRCLE
  5
7DE
  8
SIZE
  6
CONTINUOUS
 10
1183.87190739788
 20
95.361279786502593
 30
0.0
 40
6.0
  0
LINE
  5
7DF
  8
SIZE
  6
BYBLOCK
 10
1183.87190739788
 20
95.361279786502593
 30
0.0
 11
1169.87190739788
 21
95.361279786502593
 31
0.0
  0
LINE
  5
7E0
  8
SIZE
  6
BYBLOCK
 10
1167.87190739788
 20
95.361279786502593
 30
0.0
 11
1165.87190739788
 21
95.361279786502593
 31
0.0
  0
LINE
  5
7E1
  8
SIZE
  6
BYBLOCK
 10
1185.87190739788
 20
95.361279786502593
 30
0.0
 11
1187.87190739788
 21
95.361279786502593
 31
0.0
  0
TEXT
  5
7E2
  8
SIZE
  6
BYBLOCK
 10
1134.3576213978811
 20
127.36127978650261
 30
0.0
 40
64.0
  1
14
 41
0.9
  0
LINE
  5
7E3
  8
NOTE
  6
CONTINOUS
 10
1149.871906397881
 20
290.07775178650252
 30
0.0
 11
1189.871906397881
 21
290.07775178650252
 31
0.0
  0
LINE
  5
7E4
  8
NOTE
  6
CONTINUOUS
 10
1169.871906397881
 20
290.07775178650252
 30
0.0
 11
1184.97614639788
 21
253.0390967865026
 31
0.0
  0
LINE
  5
7E5
  8
NOTE
  6
CONTINUOUS
 10
1169.871906397881
 20
290.07775178650252
 30
0.0
 11
1201.47188939788
 21
265.55345678650241
 31
0.0
  0
TEXT
  5
7E6
  8
ETC
  6
CONTINUOUS
 10
1561.288518397879
 20
407.8032387865025
 30
0.0
 40
64.0
  1
SPUZ0824
 41
0.9
  0
LINE
  5
7E7
  8
SIZE
  6
BYBLOCK
 10
1420.44446039788
 20
1143.0777517865019
 30
0.0
 11
1420.44446039788
 21
717.57775178650252
 31
0.0
  0
LINE
  5
7E8
  8
OUTLINE
  6
CONTINUOUS
 10
1154.8719063978799
 20
1145.0777517865019
 30
0.0
 11
1154.8719063978799
 21
323.07775178650252
 31
0.0
  0
LINE
  5
7E9
  8
DETAIL
  6
CONTINOUS
 10
1154.8719063978799
 20
323.07775178650252
 30
0.0
 11
1154.8719063978799
 21
1145.0777517865019
 31
0.0
  0
LINE
  5
7EA
  8
SIZE
  6
BYBLOCK
 10
1420.44446039788
 20
292.07775178650252
 30
0.0
 11
1420.44446039788
 21
717.57775178650252
 31
0.0
  0
LINE
  5
7EB
  8
NOTE
  6
CONTINUOUS
 10
1124.871906397881
 20
323.07775178650252
 30
0.0
 11
1231.96219639788
 21
428.57361078650251
 31
0.0
  0
LINE
  5
7EC
  8
NOTE
  6
CONTINOUS
 10
1104.871906397881
 20
323.07775178650252
 30
0.0
 11
1144.871906397881
 21
323.07775178650252
 31
0.0
  0
POLYLINE
  5
7ED
  8
NOTE
  6
CONTINUOUS
 66
     1
 10
0.0
 20
0.0
 30
0.0
  0
VERTEX
  5
106F
  8
NOTE
  6
CONTINUOUS
 10
1145.1311663978811
 20
357.56778478650261
 30
0.0
  0
VERTEX
  5
1070
  8
NOTE
  6
CONTINUOUS
 10
1124.871906397881
 20
323.07775178650252
 30
0.0
  0
VERTEX
  5
1071
  8
NOTE
  6
CONTINUOUS
 10
1159.661957397881
 20
342.81736678650259
 30
0.0
  0
SEQEND
  5
1072
  8
NOTE
  6
CONTINUOUS
  0
LINE
  5
7F2
  8
NOTE
  6
CONTINOUS
 10
1124.871906397881
 20
303.07775178650257
 30
0.0
 11
1124.871906397881
 21
343.07775178650252
 31
0.0
  0
TEXT
  5
7F3
  8
NOTE
  6
CONTINUOUS
 10
1251.9401213978811
 20
438.44475178650248
 30
0.0
 40
64.0
  1
D
 41
0.9
  0
LINE
  5
7F4
  8
NOTE
  6
CONTINUOUS
 10
1231.96219639788
 20
428.57361078650251
 30
0.0
 11
1302.198482397881
 21
428.57361078650251
 31
0.0
  0
TEXT
  5
7F5
  8
NOTE
  6
CONTINUOUS
 10
1060.7086543978789
 20
635.63939678650252
 30
0.0
 40
64.0
  1
RG
 41
0.9
  0
LINE
  5
7F6
  8
NOTE
  6
CONTINUOUS
 10
1040.77148939788
 20
625.20405378650253
 30
0.0
 11
1180.455218397881
 21
625.20405378650253
 31
0.0
  0
TEXT
  5
7F7
  8
NOTE
  6
CONTINUOUS
 10
1060.92620539788
 20
822.17499278650257
 30
0.0
 40
64.0
  1
RL
 41
0.9
  0
LINE
  5
7F8
  8
NOTE
  6
CONTINUOUS
 10
1040.77148939788
 20
812.30385178650226
 30
0.0
 11
1170.35759939788
 21
812.30385178650226
 31
0.0
  0
TEXT
  5
7F9
  8
SIZE
  6
BYBLOCK
 10
1388.44446039788
 20
643.52060878650252
 30
0.0
 40
64.0
  1
855
 50
90.0
 41
0.9
  0
LINE
  5
7FA
  8
SIZE
  6
BYBLOCK
 10
1154.87190739788
 20
1165.0777517865019
 30
0.0
 11
1154.87190739788
 21
1422.5027517865019
 31
0.0
  0
LINE
  5
7FB
  8
SIZE
  6
BYBLOCK
 10
1203.87190739788
 20
1145.0777517865019
 30
0.0
 11
1450.44446039788
 21
1145.0777517865019
 31
0.0
  0
CIRCLE
  5
7FC
  8
SIZE
  6
CONTINUOUS
 10
1420.44446039788
 20
1145.0777517865019
 30
0.0
 40
6.0
  0
CIRCLE
  5
7FD
  8
SIZE
  6
CONTINUOUS
 10
1154.87190739788
 20
1392.5027517865019
 30
0.0
 40
6.0
  0
ENDBLK
  5
7FE
  8
0
  0
BLOCK
  8
0
  2
_ORIGIN
 70
     0
 10
0.0
 20
0.0
 30
0.0
  3
_ORIGIN
  1

  0
CIRCLE
  5
801
  8
0
  6
BYBLOCK
 62
     0
 10
0.0
 20
0.0
 30
0.0
 40
0.5
  0
LINE
  5
802
  8
0
  6
BYBLOCK
 62
     0
 10
0.0
 20
0.0
 30
0.0
 11
-1.0
 21
0.0
 31
0.0
  0
ENDBLK
  5
803
  8
0
  0
BLOCK
  8
0
  2
_ORIGIN2
 70
     0
 10
0.0
 20
0.0
 30
0.0
  3
_ORIGIN2
  1

  0
CIRCLE
  5
806
  8
0
  6
BYBLOCK
 62
     0
 10
0.0
 20
0.0
 30
0.0
 40
0.5
  0
CIRCLE
  5
807
  8
0
  6
BYBLOCK
 62
     0
 10
0.0
 20
0.0
 30
0.0
 40
0.25
  0
LINE
  5
808
  8
0
  6
BYBLOCK
 62
     0
 10
-0.5
 20
0.0
 30
0.0
 11
-1.0
 21
0.0
 31
0.0
  0
ENDBLK
  5
809
  8
0
  0
BLOCK
  8
0
  2
_DOTBLANK
 70
     0
 10
0.0
 20
0.0
 30
0.0
  3
_DOTBLANK
  1

  0
CIRCLE
  5
80C
  8
0
  6
BYBLOCK
 62
     0
 10
0.0
 20
0.0
 30
0.0
 40
0.5
  0
LINE
  5
80D
  8
0
  6
BYBLOCK
 62
     0
 10
-0.5
 20
0.0
 30
0.0
 11
-1.0
 21
0.0
 31
0.0
  0
ENDBLK
  5
80E
  8
0
  0
BLOCK
  8
0
  2
*D6
 70
     1
 10
0.0
 20
0.0
 30
0.0
  3
*D6
  1

  0
LINE
  5
10F5
  8
SIZE
  6
CONTINUOUS
 62
     0
 10
475.0
 20
-185.0
 30
0.0
 11
475.0
 21
-377.93030152009482
 31
0.0
  0
LINE
  5
10F6
  8
SIZE
  6
CONTINUOUS
 62
     0
 10
432.0
 20
-144.0
 30
0.0
 11
432.0
 21
-377.93030152009482
 31
0.0
  0
LINE
  5
10F7
  8
SIZE
  6
CONTINUOUS
 62
     0
 10
442.0
 20
-347.93030152009482
 30
0.0
 11
465.0
 21
-347.93030152009482
 31
0.0
  0
LINE
  5
10F8
  8
SIZE
  6
CONTINUOUS
 62
     0
 10
475.0
 20
-347.93030152009482
 30
0.0
 11
587.90091981236765
 21
-347.93030152009482
 31
0.0
  0
INSERT
  5
10F9
  8
SIZE
  6
CONTINUOUS
 62
     0
  2
_DOTBLANK
 10
432.0
 20
-347.93030152009482
 30
0.0
 41
10.0
 42
10.0
 43
10.0
 50
180.0
  0
INSERT
  5
10FA
  8
SIZE
  6
CONTINUOUS
 62
     0
  2
_DOTBLANK
 10
475.0
 20
-347.93030152009482
 30
0.0
 41
10.0
 42
10.0
 43
10.0
  0
TEXT
  8
0
  40
64
  5
111D
  62
0
  72
0
  71
0
 10
413.182
 20
-429.120
 30
0.000000
  1
43
  0
POINT
  5
10FC
  8
DEFPOINTS
  6
CONTINUOUS
 62
     0
 10
475.0
 20
-165.0
 30
0.0
  0
POINT
  5
10FD
  8
DEFPOINTS
  6
CONTINUOUS
 62
     0
 10
432.0
 20
-124.0
 30
0.0
  0
POINT
  5
10FE
  8
DEFPOINTS
  6
CONTINUOUS
 62
     0
 10
432.0
 20
-347.93030152009482
 30
0.0
  0
ENDBLK
  5
DAA
  8
0
  0
BLOCK
  8
0
  2
*D7
 70
     1
 10
0.0
 20
0.0
 30
0.0
  3
*D7
  1

  0
LINE
  5
10FF
  8
SIZE
  6
CONTINUOUS
 62
     0
 10
432.0
 20
-144.0
 30
0.0
 11
432.0
 21
-377.93030152009482
 31
0.0
  0
LINE
  5
1100
  8
SIZE
  6
CONTINUOUS
 62
     0
 10
377.0
 20
-165.0
 30
0.0
 11
377.0
 21
-377.93030152009482
 31
0.0
  0
LINE
  5
1101
  8
SIZE
  6
CONTINUOUS
 62
     0
 10
422.0
 20
-347.93030152009482
 30
0.0
 11
387.0
 21
-347.93030152009482
 31
0.0
  0
LINE
  5
1102
  8
SIZE
  6
CONTINUOUS
 62
     0
 10
377.0
 20
-347.93030152009482
 30
0.0
 11
273.56285714285713
 21
-347.93030152009482
 31
0.0
  0
INSERT
  5
1103
  8
SIZE
  6
CONTINUOUS
 62
     0
  2
_DOTBLANK
 10
432.0
 20
-347.93030152009482
 30
0.0
 41
10.0
 42
10.0
 43
10.0
  0
INSERT
  5
1104
  8
SIZE
  6
CONTINUOUS
 62
     0
  2
_DOTBLANK
 10
377.0
 20
-347.93030152009482
 30
0.0
 41
10.0
 42
10.0
 43
10.0
 50
180.0
  0
TEXT
  8
0
  40
64
  5
111E
  62
0
  72
0
  71
0
 10
192.281
 20
-429.120
 30
0.000000
  1
55
  0
POINT
  5
1106
  8
DEFPOINTS
  6
CONTINUOUS
 62
     0
 10
432.0
 20
-124.0
 30
0.0
  0
POINT
  5
1107
  8
DEFPOINTS
  6
CONTINUOUS
 62
     0
 10
377.0
 20
-145.0
 30
0.0
  0
POINT
  5
1108
  8
DEFPOINTS
  6
CONTINUOUS
 62
     0
 10
377.0
 20
-347.93030152009482
 30
0.0
  0
ENDBLK
  5
DB8
  8
0
  0
BLOCK
  8
0
  2
*D8
 70
     1
 10
0.0
 20
0.0
 30
0.0
  3
*D8
  1

  0
LINE
  5
1109
  8
SIZE
  6
CONTINUOUS
 62
     0
 10
495.0
 20
-165.0
 30
0.0
 11
647.43493234678488
 21
-165.0
 31
0.0
  0
LINE
  5
110A
  8
SIZE
  6
CONTINUOUS
 62
     0
 10
417.0
 20
-125.0
 30
0.0
 11
647.43493234678488
 21
-125.0
 31
0.0
  0
LINE
  5
110B
  8
SIZE
  6
CONTINUOUS
 62
     0
 10
617.43493234678499
 20
-155.0
 30
0.0
 11
617.43493234678499
 21
-135.0
 31
0.0
  0
LINE
  5
110C
  8
SIZE
  6
CONTINUOUS
 62
     0
 10
617.43493234678499
 20
-125.0
 30
0.0
 11
617.43493234678499
 21
-3.9806525640835502
 31
0.0
  0
INSERT
  5
110D
  8
SIZE
  6
CONTINUOUS
 62
     0
  2
_DOTBLANK
 10
617.43493234678499
 20
-165.0
 30
0.0
 41
10.0
 42
10.0
 43
10.0
 50
270.0
  0
INSERT
  5
110E
  8
SIZE
  6
CONTINUOUS
 62
     0
  2
_DOTBLANK
 10
617.43493234678499
 20
-125.0
 30
0.0
 41
10.0
 42
10.0
 43
10.0
 50
90.0
  0
TEXT
  8
0
  40
64
  5
111F
  62
0
  72
0
  71
0
 10
457.345
 20
-163.979
 30
0.000000
  1
40
  0
POINT
  5
1110
  8
DEFPOINTS
  6
CONTINUOUS
 62
     0
 10
475.0
 20
-165.0
 30
0.0
  0
POINT
  5
1111
  8
DEFPOINTS
  6
CONTINUOUS
 62
     0
 10
397.0
 20
-125.0
 30
0.0
  0
POINT
  5
1112
  8
DEFPOINTS
  6
CONTINUOUS
 62
     0
 10
617.43493234678499
 20
-125.0
 30
0.0
  0
ENDBLK
  5
DDA
  8
0
  0
BLOCK
  8
0
  2
*D9
 70
     1
 10
0.0
 20
0.0
 30
0.0
  3
*D9
  1

  0
LINE
  5
1113
  8
SIZE
  6
CONTINUOUS
 62
     0
 10
495.0
 20
-165.0
 30
0.0
 11
790.56591925233977
 21
-165.0
 31
0.0
  0
LINE
  5
1114
  8
SIZE
  6
CONTINUOUS
 62
     0
 10
472.0
 20
-104.0
 30
0.0
 11
790.56591925233977
 21
-104.0
 31
0.0
  0
LINE
  5
1115
  8
SIZE
  6
CONTINUOUS
 62
     0
 10
760.56591925233988
 20
-155.0
 30
0.0
 11
760.56591925233988
 21
-114.0
 31
0.0
  0
LINE
  5
1116
  8
SIZE
  6
CONTINUOUS
 62
     0
 10
760.56591925233988
 20
-104.0
 30
0.0
 11
760.56591925233988
 21
-16.323509706940708
 31
0.0
  0
INSERT
  5
1117
  8
SIZE
  6
CONTINUOUS
 62
     0
  2
_DOTBLANK
 10
760.56591925233988
 20
-165.0
 30
0.0
 41
10.0
 42
10.0
 43
10.0
 50
270.0
  0
INSERT
  5
1118
  8
SIZE
  6
CONTINUOUS
 62
     0
  2
_DOTBLANK
 10
760.56591925233988
 20
-104.0
 30
0.0
 41
10.0
 42
10.0
 43
10.0
 50
90.0
  0
TEXT
  8
0
  40
64
  5
1120
  62
0
  72
0
  71
0
 10
600.476
 20
-163.979
 30
0.000000
  1
61
  0
POINT
  5
111A
  8
DEFPOINTS
  6
CONTINUOUS
 62
     0
 10
475.0
 20
-165.0
 30
0.0
  0
POINT
  5
111B
  8
DEFPOINTS
  6
CONTINUOUS
 62
     0
 10
452.0
 20
-104.0
 30
0.0
  0
POINT
  5
111C
  8
DEFPOINTS
  6
CONTINUOUS
 62
     0
 10
760.56591925233988
 20
-104.0
 30
0.0
  0
ENDBLK
  5
DE8
  8
0
  0
BLOCK
  8
0
  2
*D10
 70
     1
 10
0.0
 20
0.0
 30
0.0
  3
*D10
  1

  0
LINE
  5
10A0
  8
SIZE
  6
CONTINUOUS
 62
     0
 10
-474.99999999999989
 20
185.0
 30
0.0
 11
-474.99999999999989
 21
607.67217662139205
 31
0.0
  0
LINE
  5
10A1
  8
SIZE
  6
CONTINUOUS
 62
     0
 10
475.0
 20
185.0
 30
0.0
 11
475.0
 21
607.67217662139205
 31
0.0
  0
LINE
  5
10A2
  8
SIZE
  6
CONTINUOUS
 62
     0
 10
-464.99999999999989
 20
577.67217662139205
 30
0.0
 11
465.0
 21
577.67217662139205
 31
0.0
  0
TEXT
  8
0
  40
64
  5
1121
  62
0
  72
0
  71
0
 10
-123.592
 20
513.472
 30
0.000000
  1
950
  0
INSERT
  5
10A4
  8
SIZE
  6
CONTINUOUS
 62
     0
  2
_DOTBLANK
 10
-474.99999999999989
 20
577.67217662139205
 30
0.0
 41
10.0
 42
10.0
 43
10.0
 50
180.0
  0
INSERT
  5
10A5
  8
SIZE
  6
CONTINUOUS
 62
     0
  2
_DOTBLANK
 10
475.0
 20
577.67217662139205
 30
0.0
 41
10.0
 42
10.0
 43
10.0
  0
POINT
  5
10A6
  8
DEFPOINTS
  6
CONTINUOUS
 62
     0
 10
-474.99999999999989
 20
165.0
 30
0.0
  0
POINT
  5
10A7
  8
DEFPOINTS
  6
CONTINUOUS
 62
     0
 10
475.0
 20
165.0
 30
0.0
  0
POINT
  5
10A8
  8
DEFPOINTS
  6
CONTINUOUS
 62
     0
 10
475.0
 20
577.67217662139205
 30
0.0
  0
ENDBLK
  5
E2C
  8
0
  0
BLOCK
  8
0
  2
*D11
 70
     1
 10
0.0
 20
0.0
 30
0.0
  3
*D11
  1

  0
LINE
  5
108E
  8
SIZE
  6
CONTINUOUS
 62
     0
 10
-300.0
 20
220.0
 30
0.0
 11
-300.0
 21
437.98130346314798
 31
0.0
  0
LINE
  5
108F
  8
SIZE
  6
CONTINUOUS
 62
     0
 10
300.0
 20
220.0
 30
0.0
 11
300.0
 21
437.98130346314798
 31
0.0
  0
LINE
  5
1090
  8
SIZE
  6
CONTINUOUS
 62
     0
 10
-290.0
 20
407.98130346314792
 30
0.0
 11
290.0
 21
407.98130346314792
 31
0.0
  0
TEXT
  8
0
  40
64
  5
1122
  62
0
  72
0
  71
0
 10
-130.636
 20
337.410
 30
0.000000
  1
600
  0
INSERT
  5
1092
  8
SIZE
  6
CONTINUOUS
 62
     0
  2
_DOTBLANK
 10
-300.0
 20
407.98130346314792
 30
0.0
 41
10.0
 42
10.0
 43
10.0
 50
180.0
  0
INSERT
  5
1093
  8
SIZE
  6
CONTINUOUS
 62
     0
  2
_DOTBLANK
 10
300.0
 20
407.98130346314792
 30
0.0
 41
10.0
 42
10.0
 43
10.0
  0
POINT
  5
1094
  8
DEFPOINTS
  6
CONTINUOUS
 62
     0
 10
-300.0
 20
200.0
 30
0.0
  0
POINT
  5
1095
  8
DEFPOINTS
  6
CONTINUOUS
 62
     0
 10
300.0
 20
200.0
 30
0.0
  0
POINT
  5
1096
  8
DEFPOINTS
  6
CONTINUOUS
 62
     0
 10
300.0
 20
407.98130346314792
 30
0.0
  0
ENDBLK
  5
E39
  8
0
  0
BLOCK
  8
0
  2
*D12
 70
     1
 10
0.0
 20
0.0
 30
0.0
  3
*D12
  1

  0
LINE
  5
1073
  8
SIZE
  6
CONTINUOUS
 62
     0
 10
-494.99999999999989
 20
-165.0
 30
0.0
 11
-647.76083576584165
 21
-164.99999999999989
 31
0.0
  0
LINE
  5
1074
  8
SIZE
  6
CONTINUOUS
 62
     0
 10
-494.99999999999989
 20
165.0
 30
0.0
 11
-647.76083576584165
 21
165.0
 31
0.0
  0
LINE
  5
1075
  8
SIZE
  6
CONTINUOUS
 62
     0
 10
-617.76083576584165
 20
-154.99999999999989
 30
0.0
 11
-617.76083576584165
 21
155.0
 31
0.0
  0
TEXT
  8
0
  40
64
  5
1123
  62
0
  72
0
  71
0
 10
-796.322
 20
-99.2264
 30
0.000000
  1
330
  0
INSERT
  5
1077
  8
SIZE
  6
CONTINUOUS
 62
     0
  2
_DOTBLANK
 10
-617.76083576584165
 20
-164.99999999999989
 30
0.0
 41
10.0
 42
10.0
 43
10.0
 50
270.0
  0
INSERT
  5
1078
  8
SIZE
  6
CONTINUOUS
 62
     0
  2
_DOTBLANK
 10
-617.76083576584165
 20
165.0
 30
0.0
 41
10.0
 42
10.0
 43
10.0
 50
90.0
  0
POINT
  5
1079
  8
DEFPOINTS
  6
CONTINUOUS
 62
     0
 10
-474.99999999999989
 20
-165.0
 30
0.0
  0
POINT
  5
107A
  8
DEFPOINTS
  6
CONTINUOUS
 62
     0
 10
-474.99999999999989
 20
165.0
 30
0.0
  0
POINT
  5
107B
  8
DEFPOINTS
  6
CONTINUOUS
 62
     0
 10
-617.76083576584165
 20
165.0
 30
0.0
  0
ENDBLK
  5
E45
  8
0
  0
BLOCK
  8
0
  2
*D13
 70
     1
 10
0.0
 20
0.0
 30
0.0
  3
*D13
  1

  0
LINE
  5
10E4
  8
SIZE
  6
CONTINUOUS
 62
     0
 10
-474.99999999999989
 20
-185.0
 30
0.0
 11
-474.99999999999989
 21
-477.80597220889439
 31
0.0
  0
LINE
  5
10E5
  8
SIZE
  6
CONTINUOUS
 62
     0
 10
-152.9999999999998
 20
-272.86561949999981
 30
0.0
 11
-152.9999999999998
 21
-477.80597220889439
 31
0.0
  0
LINE
  5
10E6
  8
SIZE
  6
CONTINUOUS
 62
     0
 10
-464.99999999999989
 20
-447.8059722088945
 30
0.0
 11
-162.9999999999998
 21
-447.8059722088945
 31
0.0
  0
TEXT
  8
0
  40
64
  5
1124
  62
0
  72
0
  71
0
 10
-422.975
 20
-504.171
 30
0.000000
  1
322
  0
INSERT
  5
10E8
  8
SIZE
  6
CONTINUOUS
 62
     0
  2
_DOTBLANK
 10
-474.99999999999989
 20
-447.8059722088945
 30
0.0
 41
10.0
 42
10.0
 43
10.0
 50
180.0
  0
INSERT
  5
10E9
  8
SIZE
  6
CONTINUOUS
 62
     0
  2
_DOTBLANK
 10
-152.9999999999998
 20
-447.8059722088945
 30
0.0
 41
10.0
 42
10.0
 43
10.0
  0
POINT
  5
10EA
  8
DEFPOINTS
  6
CONTINUOUS
 62
     0
 10
-474.99999999999989
 20
-165.0
 30
0.0
  0
POINT
  5
10EB
  8
DEFPOINTS
  6
CONTINUOUS
 62
     0
 10
-152.9999999999998
 20
-252.86561949999981
 30
0.0
  0
POINT
  5
10EC
  8
DEFPOINTS
  6
CONTINUOUS
 62
     0
 10
-152.9999999999998
 20
-447.8059722088945
 30
0.0
  0
ENDBLK
  5
E51
  8
0
  0
BLOCK
  8
0
  2
*D14
 70
     1
 10
0.0
 20
0.0
 30
0.0
  3
*D14
  1

  0
LINE
  5
107C
  8
SIZE
  6
CONTINUOUS
 62
     0
 10
-494.99999999999989
 20
-165.0
 30
0.0
 11
-647.76083576584165
 21
-164.99999999999989
 31
0.0
  0
LINE
  5
107D
  8
SIZE
  6
CONTINUOUS
 62
     0
 10
-461.9999999998472
 20
-194.99999999999989
 30
0.0
 11
-647.76083576584165
 21
-194.99999999999989
 31
0.0
  0
LINE
  5
107E
  8
SIZE
  6
CONTINUOUS
 62
     0
 10
-617.76083576584165
 20
-174.99999999999989
 30
0.0
 11
-617.76083576584165
 21
-184.99999999999989
 31
0.0
  0
TEXT
  8
0
  40
64
  5
1125
  62
0
  72
0
  71
0
 10
-807.896
 20
-293.280
 30
0.000000
  1
30
  0
INSERT
  5
1080
  8
SIZE
  6
CONTINUOUS
 62
     0
  2
_DOTBLANK
 10
-617.76083576584165
 20
-164.99999999999989
 30
0.0
 41
10.0
 42
10.0
 43
10.0
 50
90.0
  0
INSERT
  5
1081
  8
SIZE
  6
CONTINUOUS
 62
     0
  2
_DOTBLANK
 10
-617.76083576584165
 20
-194.99999999999989
 30
0.0
 41
10.0
 42
10.0
 43
10.0
 50
270.0
  0
POINT
  5
1082
  8
DEFPOINTS
  6
CONTINUOUS
 62
     0
 10
-474.99999999999989
 20
-165.0
 30
0.0
  0
POINT
  5
1083
  8
DEFPOINTS
  6
CONTINUOUS
 62
     0
 10
-441.99999999984732
 20
-195.0
 30
0.0
  0
POINT
  5
1084
  8
DEFPOINTS
  6
CONTINUOUS
 62
     0
 10
-617.76083576584165
 20
-194.99999999999989
 30
0.0
  0
ENDBLK
  5
E5D
  8
0
  0
BLOCK
  8
0
  2
*D15
 70
     1
 10
0.0
 20
0.0
 30
0.0
  3
*D15
  1

  0
LINE
  5
1085
  8
SIZE
  6
CONTINUOUS
 62
     0
 10
-474.99999999999989
 20
185.0
 30
0.0
 11
-474.99999999999989
 21
437.98130346314798
 31
0.0
  0
LINE
  5
1086
  8
SIZE
  6
CONTINUOUS
 62
     0
 10
-300.0
 20
220.0
 30
0.0
 11
-300.0
 21
437.98130346314798
 31
0.0
  0
LINE
  5
1087
  8
SIZE
  6
CONTINUOUS
 62
     0
 10
-464.99999999999989
 20
407.98130346314792
 30
0.0
 11
-310.0
 21
407.98130346314792
 31
0.0
  0
TEXT
  8
0
  40
64
  5
1126
  62
0
  72
0
  71
0
 10
-521.595
 20
340.931
 30
0.000000
  1
175
  0
INSERT
  5
1089
  8
SIZE
  6
CONTINUOUS
 62
     0
  2
_DOTBLANK
 10
-474.99999999999989
 20
407.98130346314792
 30
0.0
 41
10.0
 42
10.0
 43
10.0
 50
180.0
  0
INSERT
  5
108A
  8
SIZE
  6
CONTINUOUS
 62
     0
  2
_DOTBLANK
 10
-300.0
 20
407.98130346314792
 30
0.0
 41
10.0
 42
10.0
 43
10.0
  0
POINT
  5
108B
  8
DEFPOINTS
  6
CONTINUOUS
 62
     0
 10
-474.99999999999989
 20
165.0
 30
0.0
  0
POINT
  5
108C
  8
DEFPOINTS
  6
CONTINUOUS
 62
     0
 10
-300.0
 20
200.0
 30
0.0
  0
POINT
  5
108D
  8
DEFPOINTS
  6
CONTINUOUS
 62
     0
 10
-300.0
 20
407.98130346314792
 30
0.0
  0
ENDBLK
  5
E6A
  8
0
  0
BLOCK
  8
0
  2
*D16
 70
     1
 10
0.0
 20
0.0
 30
0.0
  3
*D16
  1

  0
LINE
  5
10C6
  8
SIZE
  6
CONTINUOUS
 62
     0
 10
336.0
 20
-213.0
 30
0.0
 11
1218.79926485939
 21
-213.00000000000031
 31
0.0
  0
LINE
  5
10C7
  8
SIZE
  6
CONTINUOUS
 62
     0
 10
336.0
 20
203.99999999999989
 30
0.0
 11
1218.79926485939
 21
203.99999999999969
 31
0.0
  0
LINE
  5
10C8
  8
SIZE
  6
CONTINUOUS
 62
     0
 10
1188.79926485939
 20
-203.0000000000002
 30
0.0
 11
1188.79926485939
 21
193.99999999999969
 31
0.0
  0
TEXT
  8
0
  40
64
  5
1127
  62
0
  72
0
  71
0
 10
1003.50
 20
-99.2264
 30
0.000000
  1
417
  0
INSERT
  5
10CA
  8
SIZE
  6
CONTINUOUS
 62
     0
  2
_DOTBLANK
 10
1188.79926485939
 20
-213.0000000000002
 30
0.0
 41
10.0
 42
10.0
 43
10.0
 50
270.0
  0
INSERT
  5
10CB
  8
SIZE
  6
CONTINUOUS
 62
     0
  2
_DOTBLANK
 10
1188.79926485939
 20
203.99999999999969
 30
0.0
 41
10.0
 42
10.0
 43
10.0
 50
90.0
  0
POINT
  5
10CC
  8
DEFPOINTS
  6
CONTINUOUS
 62
     0
 10
316.0
 20
-213.0
 30
0.0
  0
POINT
  5
10CD
  8
DEFPOINTS
  6
CONTINUOUS
 62
     0
 10
316.0
 20
204.0
 30
0.0
  0
POINT
  5
10CE
  8
DEFPOINTS
  6
CONTINUOUS
 62
     0
 10
1188.79926485939
 20
203.99999999999969
 30
0.0
  0
ENDBLK
  5
E8B
  8
0
  0
BLOCK
  8
0
  2
*D17
 70
     1
 10
0.0
 20
0.0
 30
0.0
  3
*D17
  1

  0
LINE
  5
10A9
  8
SIZE
  6
CONTINUOUS
 62
     0
 10
340.0
 20
-185.0
 30
0.0
 11
1004.9121006341491
 21
-185.0000000000002
 31
0.0
  0
LINE
  5
10AA
  8
SIZE
  6
CONTINUOUS
 62
     0
 10
340.0
 20
184.99999999999989
 30
0.0
 11
1004.9121006341491
 21
184.9999999999998
 31
0.0
  0
LINE
  5
10AB
  8
SIZE
  6
CONTINUOUS
 62
     0
 10
974.91210063414906
 20
-175.00000000000011
 30
0.0
 11
974.91210063414906
 21
174.9999999999998
 31
0.0
  0
TEXT
  8
0
  40
64
  5
1128
  62
0
  72
0
  71
0
 10
795.689
 20
-109.790
 30
0.000000
  1
370
  0
INSERT
  5
10AD
  8
SIZE
  6
CONTINUOUS
 62
     0
  2
_DOTBLANK
 10
974.91210063414906
 20
-185.0000000000002
 30
0.0
 41
10.0
 42
10.0
 43
10.0
 50
270.0
  0
INSERT
  5
10AE
  8
SIZE
  6
CONTINUOUS
 62
     0
  2
_DOTBLANK
 10
974.91210063414906
 20
184.9999999999998
 30
0.0
 41
10.0
 42
10.0
 43
10.0
 50
90.0
  0
POINT
  5
10AF
  8
DEFPOINTS
  6
CONTINUOUS
 62
     0
 10
320.0
 20
-185.0
 30
0.0
  0
POINT
  5
10B0
  8
DEFPOINTS
  6
CONTINUOUS
 62
     0
 10
320.0
 20
185.0
 30
0.0
  0
POINT
  5
10B1
  8
DEFPOINTS
  6
CONTINUOUS
 62
     0
 10
974.91210063414906
 20
184.9999999999998
 30
0.0
  0
ENDBLK
  5
E98
  8
0
  0
BLOCK
  8
0
  2
*D18
 70
     1
 10
0.0
 20
0.0
 30
0.0
  3
*D18
  1

  0
LINE
  5
10B2
  8
SIZE
  6
CONTINUOUS
 62
     0
 10
340.0
 20
-185.0
 30
0.0
 11
1004.9121006341491
 21
-185.0000000000002
 31
0.0
  0
LINE
  5
10B3
  8
SIZE
  6
CONTINUOUS
 62
     0
 10
336.0
 20
-213.0
 30
0.0
 11
1004.9121006341491
 21
-213.0000000000002
 31
0.0
  0
LINE
  5
10B4
  8
SIZE
  6
CONTINUOUS
 62
     0
 10
974.91210063414906
 20
-195.00000000000011
 30
0.0
 11
974.91210063414906
 21
-203.0000000000002
 31
0.0
  0
TEXT
  8
0
  40
64
  5
1129
  62
0
  72
0
  71
0
 10
802.733
 20
-402.055
 30
0.000000
  1
28
  0
INSERT
  5
10B6
  8
SIZE
  6
CONTINUOUS
 62
     0
  2
_DOTBLANK
 10
974.91210063414906
 20
-185.0000000000002
 30
0.0
 41
10.0
 42
10.0
 43
10.0
 50
90.0
  0
INSERT
  5
10B7
  8
SIZE
  6
CONTINUOUS
 62
     0
  2
_DOTBLANK
 10
974.91210063414906
 20
-213.0000000000002
 30
0.0
 41
10.0
 42
10.0
 43
10.0
 50
270.0
  0
POINT
  5
10B8
  8
DEFPOINTS
  6
CONTINUOUS
 62
     0
 10
320.0
 20
-185.0
 30
0.0
  0
POINT
  5
10B9
  8
DEFPOINTS
  6
CONTINUOUS
 62
     0
 10
316.0
 20
-213.0
 30
0.0
  0
POINT
  5
10BA
  8
DEFPOINTS
  6
CONTINUOUS
 62
     0
 10
974.91210063414906
 20
-213.0000000000002
 30
0.0
  0
ENDBLK
  5
EA4
  8
0
  0
BLOCK
  8
0
  2
*D19
 70
     1
 10
0.0
 20
0.0
 30
0.0
  3
*D19
  1

  0
LINE
  5
10DB
  8
SIZE
  6
CONTINUOUS
 62
     0
 10
475.0
 20
-185.0
 30
0.0
 11
475.0
 21
-613.06791136589527
 31
0.0
  0
LINE
  5
10DC
  8
SIZE
  6
CONTINUOUS
 62
     0
 10
275.0
 20
-165.0
 30
0.0
 11
274.99999999999989
 21
-613.06791136589527
 31
0.0
  0
LINE
  5
10DD
  8
SIZE
  6
CONTINUOUS
 62
     0
 10
465.0
 20
-583.06791136589516
 30
0.0
 11
285.0
 21
-583.06791136589516
 31
0.0
  0
TEXT
  8
0
  40
64
  5
112A
  62
0
  72
0
  71
0
 10
260.322
 20
-641.500
 30
0.000000
  1
200
  0
INSERT
  5
10DF
  8
SIZE
  6
CONTINUOUS
 62
     0
  2
_DOTBLANK
 10
475.0
 20
-583.06791136589516
 30
0.0
 41
10.0
 42
10.0
 43
10.0
  0
INSERT
  5
10E0
  8
SIZE
  6
CONTINUOUS
 62
     0
  2
_DOTBLANK
 10
275.0
 20
-583.06791136589516
 30
0.0
 41
10.0
 42
10.0
 43
10.0
 50
180.0
  0
POINT
  5
10E1
  8
DEFPOINTS
  6
CONTINUOUS
 62
     0
 10
475.0
 20
-165.0
 30
0.0
  0
POINT
  5
10E2
  8
DEFPOINTS
  6
CONTINUOUS
 62
     0
 10
275.0
 20
-145.0
 30
0.0
  0
POINT
  5
10E3
  8
DEFPOINTS
  6
CONTINUOUS
 62
     0
 10
275.0
 20
-583.06791136589516
 30
0.0
  0
ENDBLK
  5
EC4
  8
0
  0
BLOCK
  8
0
  2
*D20
 70
     1
 10
0.0
 20
0.0
 30
0.0
  3
*D20
  1

  0
LINE
  5
10BB
  8
SIZE
  6
CONTINUOUS
 62
     0
 10
340.0
 20
184.99999999999989
 30
0.0
 11
1004.9121006341491
 21
184.9999999999998
 31
0.0
  0
LINE
  5
10BC
  8
SIZE
  6
CONTINUOUS
 62
     0
 10
336.0
 20
203.99999999999989
 30
0.0
 11
1004.9121006341491
 21
203.9999999999998
 31
0.0
  0
LINE
  5
10BD
  8
SIZE
  6
CONTINUOUS
 62
     0
 10
974.91210063414906
 20
174.9999999999998
 30
0.0
 11
974.91210063414906
 21
164.9999999999998
 31
0.0
  0
LINE
  5
10BE
  8
SIZE
  6
CONTINUOUS
 62
     0
 10
974.91210063414906
 20
213.99999999999969
 30
0.0
 11
974.91210063414906
 21
223.99999999999969
 31
0.0
  0
TEXT
  8
0
  40
64
  5
112B
  62
0
  72
0
  71
0
 10
795.689
 20
147.262
 30
0.000000
  1
19
  0
LINE
  5
10C0
  8
SIZE
  6
CONTINUOUS
 62
     0
 10
974.91210063414906
 20
184.9999999999998
 30
0.0
 11
974.91210063414906
 21
203.9999999999998
 31
0.0
  0
INSERT
  5
10C1
  8
SIZE
  6
CONTINUOUS
 62
     0
  2
_DOTBLANK
 10
974.91210063414906
 20
184.9999999999998
 30
0.0
 41
10.0
 42
10.0
 43
10.0
 50
90.0
  0
INSERT
  5
10C2
  8
SIZE
  6
CONTINUOUS
 62
     0
  2
_DOTBLANK
 10
974.91210063414906
 20
203.9999999999998
 30
0.0
 41
10.0
 42
10.0
 43
10.0
 50
270.0
  0
POINT
  5
10C3
  8
DEFPOINTS
  6
CONTINUOUS
 62
     0
 10
320.0
 20
185.0
 30
0.0
  0
POINT
  5
10C4
  8
DEFPOINTS
  6
CONTINUOUS
 62
     0
 10
316.0
 20
204.0
 30
0.0
  0
POINT
  5
10C5
  8
DEFPOINTS
  6
CONTINUOUS
 62
     0
 10
974.91210063414906
 20
203.9999999999998
 30
0.0
  0
ENDBLK
  5
ED2
  8
0
  0
BLOCK
  8
0
  2
*D21
 70
     1
 10
0.0
 20
0.0
 30
0.0
  3
*D21
  1

  0
LINE
  5
1097
  8
SIZE
  6
CONTINUOUS
 62
     0
 10
300.0
 20
220.0
 30
0.0
 11
300.0
 21
437.98130346314798
 31
0.0
  0
LINE
  5
1098
  8
SIZE
  6
CONTINUOUS
 62
     0
 10
475.0
 20
185.0
 30
0.0
 11
475.0
 21
437.98130346314798
 31
0.0
  0
LINE
  5
1099
  8
SIZE
  6
CONTINUOUS
 62
     0
 10
310.0
 20
407.98130346314792
 30
0.0
 11
465.0
 21
407.98130346314792
 31
0.0
  0
TEXT
  8
0
  40
64
  5
112C
  62
0
  72
0
  71
0
 10
246.234
 20
340.931
 30
0.000000
  1
175
  0
INSERT
  5
109B
  8
SIZE
  6
CONTINUOUS
 62
     0
  2
_DOTBLANK
 10
300.0
 20
407.98130346314792
 30
0.0
 41
10.0
 42
10.0
 43
10.0
 50
180.0
  0
INSERT
  5
109C
  8
SIZE
  6
CONTINUOUS
 62
     0
  2
_DOTBLANK
 10
475.0
 20
407.98130346314792
 30
0.0
 41
10.0
 42
10.0
 43
10.0
  0
POINT
  5
109D
  8
DEFPOINTS
  6
CONTINUOUS
 62
     0
 10
300.0
 20
200.0
 30
0.0
  0
POINT
  5
109E
  8
DEFPOINTS
  6
CONTINUOUS
 62
     0
 10
475.0
 20
165.0
 30
0.0
  0
POINT
  5
109F
  8
DEFPOINTS
  6
CONTINUOUS
 62
     0
 10
475.0
 20
407.98130346314792
 30
0.0
  0
ENDBLK
  5
EE0
  8
0
  0
ENDSEC
  0
SECTION
  2
ENTITIES
  0
TEXT
  5
CFD
  8
ETC
  6
CONTINUOUS
 10
1422.932073001085
 20
-484.34520239119212
 30
0.0
 40
64.0
  1
SMPU2951
 41
0.9
  0
POINT
  5
CFE
  8
ARRANGE
  6
CONTINUOUS
 10
0.0
 20
0.0
 30
0.0
  0
LINE
  5
CFF
  8
NOTE
  6
CONTINUOUS
 10
690.55404332737385
 20
380.41207164808009
 30
0.0
 11
1128.3492061492971
 21
380.41207164808009
 31
0.0
  0
LINE
  5
D00
  8
NOTE
  6
CONTINUOUS
 10
1070.117609824031
 20
518.41084735206289
 30
0.0
 11
720.41934447996925
 21
518.41084735206289
 31
0.0
  0
TEXT
  5
D01
  8
NOTE
  6
CONTINUOUS
 10
729.83512477177442
 20
400.69342764808061
 30
0.0
 40
64.0
  1
RG%%C15.88
 41
0.9
  0
TEXT
  5
D02
  8
NOTE
  6
CONTINUOUS
 10
731.48768408633953
 20
538.12749460089071
 30
0.0
 40
64.0
  1
RL%%C9.52
 41
0.9
  0
LINE
  5
D03
  8
NOTE
  6
CONTINOUS
 10
-300.0
 20
205.0
 30
0.0
 11
-300.0
 21
165.0
 31
0.0
  0
LINE
  5
D04
  8
NOTE
  6
CONTINOUS
 10
-280.0
 20
185.0
 30
0.0
 11
-320.0
 21
185.0
 31
0.0
  0
LINE
  5
D05
  8
NOTE
  6
CONTINOUS
 10
320.0
 20
-185.0
 30
0.0
 11
280.0
 21
-185.0
 31
0.0
  0
LINE
  5
D06
  8
NOTE
  6
CONTINOUS
 10
300.0
 20
-165.0
 30
0.0
 11
300.0
 21
-205.0
 31
0.0
  0
LINE
  5
D07
  8
NOTE
  6
CONTINOUS
 10
-300.0
 20
-165.0
 30
0.0
 11
-300.0
 21
-205.0
 31
0.0
  0
LINE
  5
D08
  8
NOTE
  6
CONTINOUS
 10
-280.0
 20
-185.0
 30
0.0
 11
-320.0
 21
-185.0
 31
0.0
  0
LINE
  5
D09
  8
NOTE
  6
CONTINOUS
 10
397.0
 20
-125.0
 30
0.0
 11
357.0
 21
-125.0
 31
0.0
  0
LINE
  5
D0A
  8
NOTE
  6
CONTINOUS
 10
377.0
 20
-145.0
 30
0.0
 11
377.0
 21
-105.0
 31
0.0
  0
LINE
  5
D0B
  8
NOTE
  6
CONTINOUS
 10
432.0
 20
-124.0
 30
0.0
 11
432.0
 21
-84.0
 31
0.0
  0
LINE
  5
D0C
  8
NOTE
  6
CONTINOUS
 10
452.0
 20
-104.0
 30
0.0
 11
412.0
 21
-104.0
 31
0.0
  0
LINE
  5
D0D
  8
NOTE
  6
CONTINOUS
 10
295.0
 20
-165.0
 30
0.0
 11
255.0
 21
-165.0
 31
0.0
  0
LINE
  5
D0E
  8
NOTE
  6
CONTINOUS
 10
275.0
 20
-185.0
 30
0.0
 11
275.0
 21
-145.0
 31
0.0
  0
LINE
  5
D0F
  8
BASIS
  6
DASHDOT
 10
518.91887150000002
 20
0.0
 30
0.0
 11
-518.91887150000002
 21
0.0
 31
0.0
  0
LINE
  5
D10
  8
BASIS
  6
DASHDOT
 10
-153.0
 20
-252.86561950000009
 30
0.0
 11
-153.0
 21
-117.13438049999959
 31
0.0
  0
LINE
  5
D11
  8
DETAIL
  6
CONTINOUS
 10
475.0
 20
-165.0
 30
0.0
 11
475.0
 21
165.0
 31
0.0
  0
LINE
  5
D12
  8
DETAIL
  6
CONTINOUS
 10
-475.0
 20
165.0
 30
0.0
 11
-475.0
 21
-165.0
 31
0.0
  0
LINE
  5
D13
  8
DETAIL
  6
CONTINOUS
 10
-284.0
 20
204.0
 30
0.0
 11
-284.0
 21
165.0
 31
0.0
  0
LINE
  5
D14
  8
DETAIL
  6
CONTINOUS
 10
-316.0
 20
204.0
 30
0.0
 11
-316.0
 21
165.0
 31
0.0
  0
LINE
  5
D15
  8
DETAIL
  6
CONTINOUS
 10
316.0
 20
-165.0
 30
0.0
 11
316.0
 21
-213.0
 31
0.0
  0
LINE
  5
D16
  8
DETAIL
  6
CONTINOUS
 10
284.0
 20
-165.0
 30
0.0
 11
284.0
 21
-213.0
 31
0.0
  0
LINE
  5
D17
  8
DETAIL
  6
CONTINOUS
 10
-284.0
 20
-195.0
 30
0.0
 11
-284.0
 21
-213.0
 31
0.0
  0
LINE
  5
D18
  8
DETAIL
  6
CONTINOUS
 10
-316.0
 20
-195.0
 30
0.0
 11
-316.0
 21
-213.0
 31
0.0
  0
LINE
  5
D19
  8
DETAIL
  6
CONTINOUS
 10
316.0
 20
-213.0
 30
0.0
 11
284.0
 21
-213.0
 31
0.0
  0
LINE
  5
D1A
  8
DETAIL
  6
CONTINOUS
 10
475.0
 20
165.0
 30
0.0
 11
-475.0
 21
165.0
 31
0.0
  0
LINE
  5
D1B
  8
DETAIL
  6
CONTINOUS
 10
475.0
 20
-165.0
 30
0.0
 11
-475.0
 21
-165.0
 31
0.0
  0
LINE
  5
D1C
  8
DETAIL
  6
CONTINOUS
 10
-284.0
 20
204.0
 30
0.0
 11
-294.0
 21
204.0
 31
0.0
  0
LINE
  5
D1D
  8
DETAIL
  6
CONTINOUS
 10
-284.0
 20
-213.0
 30
0.0
 11
-316.0
 21
-213.0
 31
0.0
  0
TEXT
  5
D1E
  8
ETC
  6
CONTINUOUS
 10
1434.754817001083
 20
-603.51180339119264
 30
0.0
 40
64.0
  1
室外機
 41
0.9
  0
CIRCLE
  5
D1F
  8
ARRANGE
  6
CONTINUOUS
 10
0.0
 20
0.0
 30
0.0
 40
40.0
  0
CIRCLE
  5
D20
  8
FIX
  6
CONTINUOUS
 10
-300.0
 20
-185.0
 30
0.0
 40
40.0
  0
CIRCLE
  5
D21
  8
FIX
  6
CONTINUOUS
 10
300.0
 20
-185.0
 30
0.0
 40
40.0
  0
CIRCLE
  5
D22
  8
FIX
  6
CONTINUOUS
 10
-300.0
 20
185.0
 30
0.0
 40
40.0
  0
LINE
  5
D23
  8
NOTE
  6
CONTINOUS
 10
300.0
 20
-172.0
 30
0.0
 11
300.0
 21
-172.0
 31
0.0
  0
LINE
  5
D24
  8
DETAIL
  6
CONTINOUS
 62
     5
 10
306.0
 20
-173.0
 30
0.0
 11
306.0
 21
-197.0
 31
0.0
  0
LINE
  5
D25
  8
DETAIL
  6
CONTINOUS
 62
     5
 10
294.0
 20
-173.0
 30
0.0
 11
294.0
 21
-197.0
 31
0.0
  0
ARC
  5
D26
  8
DETAIL
  6
CONTINOUS
 62
     5
 10
300.0
 20
-173.0
 30
0.0
 40
6.0
 50
0.0
 51
90.0
  0
ARC
  5
D27
  8
DETAIL
  6
CONTINOUS
 62
     5
 10
300.0
 20
-197.0
 30
0.0
 40
6.0
 50
270.0
 51
0.0
  0
ARC
  5
D28
  8
DETAIL
  6
CONTINOUS
 62
     5
 10
300.0
 20
-197.0
 30
0.0
 40
6.0
 50
180.0
 51
270.0
  0
ARC
  5
D29
  8
DETAIL
  6
CONTINOUS
 62
     5
 10
300.0
 20
-173.0
 30
0.0
 40
6.0
 50
90.0
 51
180.0
  0
LINE
  5
D2A
  8
DETAIL
  6
CONTINOUS
 62
     5
 10
-294.0
 20
204.0
 30
0.0
 11
-294.0
 21
183.0
 31
0.0
  0
LINE
  5
D2B
  8
DETAIL
  6
CONTINOUS
 62
     5
 10
-306.0
 20
204.0
 30
0.0
 11
-306.0
 21
183.0
 31
0.0
  0
LINE
  5
D2C
  8
DETAIL
  6
CONTINOUS
 10
-306.0
 20
204.0
 30
0.0
 11
-316.0
 21
204.0
 31
0.0
  0
TEXT
  5
D2D
  8
NOTE
  6
CONTINUOUS
 10
-1119.055049453289
 20
506.88246761097253
 30
0.0
 40
64.0
  1
AH 2-U cut
 41
0.9
  0
LINE
  5
D2E
  8
NOTE
  6
CONTINUOUS
 10
-1146.761119453289
 20
496.29476961097203
 30
0.0
 11
-588.96394481796153
 21
496.29476961097203
 31
0.0
  0
CIRCLE
  5
D2F
  8
DETAIL
  6
CONTINUOUS
 10
377.0
 20
-125.0
 30
0.0
 40
4.759999999999998
  0
CIRCLE
  5
D30
  8
DETAIL
  6
CONTINUOUS
 10
432.0
 20
-104.0
 30
0.0
 40
7.9400000000000004
  0
LINE
  5
D31
  8
BASIS
  6
DASHDOT
 10
0.0
 20
224.90043118199981
 30
0.0
 11
0.0
 21
-224.90043118199981
 31
0.0
  0
LINE
  5
D32
  8
DETAIL
  6
CONTINOUS
 10
136.00000000015311
 20
-195.0
 30
0.0
 11
-441.9999999998472
 21
-195.0
 31
0.0
  0
LINE
  5
D33
  8
DETAIL
  6
CONTINOUS
 10
-441.9999999998472
 20
-165.0
 30
0.0
 11
-441.9999999998472
 21
-195.0
 31
0.0
  0
LINE
  5
D34
  8
DETAIL
  6
CONTINOUS
 10
136.00000000015311
 20
-165.0
 30
0.0
 11
136.00000000015311
 21
-195.0
 31
0.0
  0
DIMENSION
  5
D35
  8
SIZE
  6
CONTINUOUS
  2
*D12
 10
-617.76083576584165
 20
165.0
 30
0.0
 11
-668.32242428634697
 21
14.05358247592539
 31
0.0
 70
   128
 13
-474.99999999999989
 23
-165.0
 33
0.0
 14
-474.99999999999989
 24
165.0
 34
0.0
 50
90.0
1001
ACAD
1000
DSTYLE
1002
{
1070
     6
1000
DOTBLANK
1070
     7
1000
DOTBLANK
1070
    41
1040
10.0
1070
    42
1040
20.0
1070
    43
1040
200.0
1070
    44
1040
30.0
1070
    73
1070
     0
1070
    74
1070
     0
1070
    77
1070
     1
1070
    78
1070
     8
1070
   140
1040
64.0
1070
   172
1070
     1
1070
   173
1070
     1
1002
}
  0
DIMENSION
  5
D36
  8
SIZE
  6
CONTINUOUS
  2
*D14
 10
-617.76083576584165
 20
-194.99999999999989
 30
0.0
 11
-679.89583576584164
 21
-180.0
 31
0.0
 70
     0
 13
-474.99999999999989
 23
-165.0
 33
0.0
 14
-441.99999999984732
 24
-195.0
 34
0.0
 50
90.0
1001
ACAD
1000
DSTYLE
1002
{
1070
     6
1000
DOTBLANK
1070
     7
1000
DOTBLANK
1070
    41
1040
10.0
1070
    42
1040
20.0
1070
    43
1040
200.0
1070
    44
1040
30.0
1070
    73
1070
     0
1070
    74
1070
     0
1070
    77
1070
     1
1070
    78
1070
     8
1070
   140
1040
64.0
1070
   172
1070
     1
1070
   173
1070
     1
1002
}
  0
DIMENSION
  5
D37
  8
SIZE
  6
CONTINUOUS
  2
*D15
 10
-300.0
 20
407.98130346314792
 30
0.0
 11
-393.59482467444099
 21
454.21081984431839
 31
0.0
 70
   128
 13
-474.99999999999989
 23
165.0
 33
0.0
 14
-300.0
 24
200.0
 34
0.0
1001
ACAD
1000
DSTYLE
1002
{
1070
     6
1000
DOTBLANK
1070
     7
1000
DOTBLANK
1070
    41
1040
10.0
1070
    42
1040
20.0
1070
    43
1040
200.0
1070
    44
1040
30.0
1070
    73
1070
     0
1070
    74
1070
     0
1070
    77
1070
     1
1070
    78
1070
     8
1070
   140
1040
64.0
1070
   172
1070
     1
1070
   173
1070
     1
1002
}
  0
DIMENSION
  5
D38
  8
SIZE
  6
CONTINUOUS
  2
*D11
 10
300.0
 20
407.98130346314792
 30
0.0
 11
-2.6363243220312138
 21
450.68955745085071
 31
0.0
 70
   128
 13
-300.0
 23
200.0
 33
0.0
 14
300.0
 24
200.0
 34
0.0
1001
ACAD
1000
DSTYLE
1002
{
1070
     6
1000
DOTBLANK
1070
     7
1000
DOTBLANK
1070
    41
1040
10.0
1070
    42
1040
20.0
1070
    43
1040
200.0
1070
    44
1040
30.0
1070
    73
1070
     0
1070
    74
1070
     0
1070
    77
1070
     1
1070
    78
1070
     8
1070
   140
1040
64.0
1070
   172
1070
     1
1070
   173
1070
     1
1002
}
  0
DIMENSION
  5
D39
  8
SIZE
  6
CONTINUOUS
  2
*D21
 10
475.0
 20
407.98130346314792
 30
0.0
 11
374.23357371211932
 21
454.21081984431839
 31
0.0
 70
   128
 13
300.0
 23
200.0
 33
0.0
 14
475.0
 24
165.0
 34
0.0
1001
ACAD
1000
DSTYLE
1002
{
1070
     6
1000
DOTBLANK
1070
     7
1000
DOTBLANK
1070
    41
1040
10.0
1070
    42
1040
20.0
1070
    43
1040
200.0
1070
    44
1040
30.0
1070
    73
1070
     0
1070
    74
1070
     0
1070
    77
1070
     1
1070
    78
1070
     8
1070
   140
1040
64.0
1070
   172
1070
     1
1070
   173
1070
     1
1002
}
  0
DIMENSION
  5
D3A
  8
SIZE
  6
CONTINUOUS
  2
*D10
 10
475.0
 20
577.67217662139205
 30
0.0
 11
4.4079724251550942
 21
626.75245517260373
 31
0.0
 70
   128
 13
-474.99999999999989
 23
165.0
 33
0.0
 14
475.0
 24
165.0
 34
0.0
1001
ACAD
1000
DSTYLE
1002
{
1070
     6
1000
DOTBLANK
1070
     7
1000
DOTBLANK
1070
    41
1040
10.0
1070
    42
1040
20.0
1070
    43
1040
200.0
1070
    44
1040
30.0
1070
    73
1070
     0
1070
    74
1070
     0
1070
    77
1070
     1
1070
    78
1070
     8
1070
   140
1040
64.0
1070
   172
1070
     1
1070
   173
1070
     1
1002
}
  0
ARC
  5
D3B
  8
DETAIL
  6
CONTINUOUS
 10
-300.0
 20
183.0
 30
0.0
 40
6.0
 50
180.0
 51
0.0
  0
CIRCLE
  5
D3C
  8
FIX
  6
CONTINUOUS
 10
300.0
 20
185.0
 30
0.0
 40
40.0
  0
LINE
  5
D3D
  8
NOTE
  6
CONTINOUS
 10
280.0
 20
185.0
 30
0.0
 11
320.0
 21
185.0
 31
0.0
  0
ARC
  5
D3E
  8
DETAIL
  6
CONTINUOUS
 10
300.0
 20
183.0
 30
0.0
 40
6.0
 50
180.0
 51
0.000000000000007
  0
LINE
  5
D3F
  8
DETAIL
  6
CONTINOUS
 62
     5
 10
306.0
 20
204.0
 30
0.0
 11
306.0
 21
183.0
 31
0.0
  0
LINE
  5
D40
  8
DETAIL
  6
CONTINOUS
 62
     5
 10
294.0
 20
204.0
 30
0.0
 11
294.0
 21
183.0
 31
0.0
  0
LINE
  5
D41
  8
NOTE
  6
CONTINOUS
 10
300.0
 20
205.0
 30
0.0
 11
300.0
 21
165.0
 31
0.0
  0
LINE
  5
D42
  8
DETAIL
  6
CONTINOUS
 10
306.0
 20
204.0
 30
0.0
 11
316.0
 21
204.0
 31
0.0
  0
LINE
  5
D43
  8
DETAIL
  6
CONTINOUS
 10
284.0
 20
204.0
 30
0.0
 11
294.0
 21
204.0
 31
0.0
  0
LINE
  5
D44
  8
DETAIL
  6
CONTINOUS
 10
316.0
 20
204.0
 30
0.0
 11
316.0
 21
165.0
 31
0.0
  0
LINE
  5
D45
  8
DETAIL
  6
CONTINOUS
 10
284.0
 20
204.0
 30
0.0
 11
284.0
 21
165.0
 31
0.0
  0
DIMENSION
  5
D46
  8
SIZE
  6
CONTINUOUS
  2
*D17
 10
974.91210063414906
 20
184.9999999999998
 30
0.0
 11
923.68876411203928
 21
3.4898091674995149
 31
0.0
 70
   128
 13
320.0
 23
-185.0
 33
0.0
 14
320.0
 24
185.0
 34
0.0
 50
90.0
1001
ACAD
1000
DSTYLE
1002
{
1070
     6
1000
DOTBLANK
1070
     7
1000
DOTBLANK
1070
    41
1040
10.0
1070
    42
1040
20.0
1070
    43
1040
200.0
1070
    44
1040
30.0
1070
    73
1070
     0
1070
    74
1070
     0
1070
    77
1070
     1
1070
    78
1070
     8
1070
   140
1040
64.0
1070
   172
1070
     1
1070
   173
1070
     1
1002
}
  0
DIMENSION
  5
D47
  8
SIZE
  6
CONTINUOUS
  2
*D18
 10
974.91210063414906
 20
-213.0000000000002
 30
0.0
 11
930.73306085922377
 21
-288.77459494693989
 31
0.0
 70
   128
 13
320.0
 23
-185.0
 33
0.0
 14
316.0
 24
-213.0
 34
0.0
 50
90.0
1001
ACAD
1000
DSTYLE
1002
{
1070
     6
1000
DOTBLANK
1070
     7
1000
DOTBLANK
1070
    41
1040
10.0
1070
    42
1040
20.0
1070
    43
1040
200.0
1070
    44
1040
30.0
1070
    73
1070
     0
1070
    74
1070
     0
1070
    77
1070
     1
1070
    78
1070
     8
1070
   140
1040
64.0
1070
   172
1070
     1
1070
   173
1070
     1
1002
}
  0
DIMENSION
  5
D48
  8
SIZE
  6
CONTINUOUS
  2
*D20
 10
974.91210063414906
 20
203.9999999999998
 30
0.0
 11
923.68876411203928
 21
260.5416309631928
 31
0.0
 70
   128
 13
320.0
 23
185.0
 33
0.0
 14
316.0
 24
204.0
 34
0.0
 50
90.0
1001
ACAD
1000
DSTYLE
1002
{
1070
     6
1000
DOTBLANK
1070
     7
1000
DOTBLANK
1070
    41
1040
10.0
1070
    42
1040
20.0
1070
    43
1040
200.0
1070
    44
1040
30.0
1070
    73
1070
     0
1070
    74
1070
     0
1070
    77
1070
     1
1070
    78
1070
     8
1070
   140
1040
64.0
1070
   172
1070
     1
1070
   173
1070
     1
1002
}
  0
DIMENSION
  5
D49
  8
SIZE
  6
CONTINUOUS
  2
*D16
 10
1188.79926485939
 20
203.99999999999969
 30
0.0
 11
1131.4955313898461
 21
14.05358247592539
 31
0.0
 70
   128
 13
316.0
 23
-213.0
 33
0.0
 14
316.0
 24
204.0
 34
0.0
 50
90.0
1001
ACAD
1000
DSTYLE
1002
{
1070
     6
1000
DOTBLANK
1070
     7
1000
DOTBLANK
1070
    41
1040
10.0
1070
    42
1040
20.0
1070
    43
1040
200.0
1070
    44
1040
30.0
1070
    73
1070
     0
1070
    74
1070
     0
1070
    77
1070
     1
1070
    78
1070
     8
1070
   140
1040
64.0
1070
   172
1070
     1
1070
   173
1070
     1
1002
}
  0
POLYLINE
  5
D4E
  8
NOTE
  6
CONTINUOUS
 66
     1
 10
0.0
 20
0.0
 30
0.0
  0
VERTEX
  5
10CF
  8
NOTE
  6
CONTINUOUS
 10
-333.7095452919433
 20
206.5329183732255
 30
0.0
  0
VERTEX
  5
10D0
  8
NOTE
  6
CONTINUOUS
 10
-300.0
 20
185.0
 30
0.0
  0
VERTEX
  5
10D1
  8
NOTE
  6
CONTINUOUS
 10
-318.4268637309043
 20
220.5028266003338
 30
0.0
  0
SEQEND
  5
10D2
  8
NOTE
  6
CONTINUOUS
  0
LINE
  5
D53
  8
NOTE
  6
CONTINUOUS
 10
-300.0
 20
185.0
 30
0.0
 11
-588.96394481796153
 21
496.29476961097203
 31
0.0
  0
POLYLINE
  5
D54
  8
NOTE
  6
CONTINUOUS
 66
     1
 10
0.0
 20
0.0
 30
0.0
  0
VERTEX
  5
10D3
  8
NOTE
  6
CONTINUOUS
 10
445.0969113130331
 20
-58.105422105573332
 30
0.0
  0
VERTEX
  5
10D4
  8
NOTE
  6
CONTINUOUS
 10
435.73873254024988
 20
-96.99532449056521
 30
0.0
  0
VERTEX
  5
10D5
  8
NOTE
  6
CONTINUOUS
 10
463.28810381671121
 20
-67.99477025719942
 30
0.0
  0
SEQEND
  5
10D6
  8
NOTE
  6
CONTINUOUS
  0
LINE
  5
D59
  8
NOTE
  6
CONTINUOUS
 10
435.73873254025011
 20
-96.995324490565395
 30
0.0
 11
690.55404332737385
 21
380.41207164808009
 31
0.0
  0
LINE
  5
D5A
  8
NOTE
  6
CONTINUOUS
 10
379.24135603168628
 20
-120.8007234981222
 30
0.0
 11
720.41934447996925
 21
518.41084735206289
 31
0.0
  0
POLYLINE
  5
D5B
  8
NOTE
  6
CONTINUOUS
 66
     1
 10
0.0
 20
0.0
 30
0.0
  0
VERTEX
  5
10D7
  8
NOTE
  6
CONTINUOUS
 10
388.5995348044695
 20
-81.910821113130183
 30
0.0
  0
VERTEX
  5
10D8
  8
NOTE
  6
CONTINUOUS
 10
379.24135603168628
 20
-120.8007234981222
 30
0.0
  0
VERTEX
  5
10D9
  8
NOTE
  6
CONTINUOUS
 10
406.79072730814761
 20
-91.800169264756505
 30
0.0
  0
SEQEND
  5
10DA
  8
NOTE
  6
CONTINUOUS
  0
DIMENSION
  5
D60
  8
SIZE
  6
CONTINUOUS
  2
*D19
 10
275.0
 20
-583.06791136589516
 30
0.0
 11
388.32216720649012
 21
-528.22013251924807
 31
0.0
 70
   128
 13
475.0
 23
-165.0
 33
0.0
 14
275.0
 24
-145.0
 34
0.0
1001
ACAD
1000
DSTYLE
1002
{
1070
     6
1000
DOTBLANK
1070
     7
1000
DOTBLANK
1070
    41
1040
10.0
1070
    42
1040
20.0
1070
    43
1040
200.0
1070
    44
1040
30.0
1070
    73
1070
     0
1070
    74
1070
     0
1070
    77
1070
     1
1070
    78
1070
     8
1070
   140
1040
64.0
1070
   172
1070
     1
1070
   173
1070
     1
1002
}
  0
DIMENSION
  5
D61
  8
SIZE
  6
CONTINUOUS
  2
*D13
 10
-152.9999999999998
 20
-447.8059722088945
 30
0.0
 11
-294.97466138995509
 21
-390.89107257372137
 31
0.0
 70
   128
 13
-474.99999999999989
 23
-165.0
 33
0.0
 14
-152.9999999999998
 24
-252.86561949999981
 34
0.0
1001
ACAD
1000
DSTYLE
1002
{
1070
     6
1000
DOTBLANK
1070
     7
1000
DOTBLANK
1070
    41
1040
10.0
1070
    42
1040
20.0
1070
    43
1040
200.0
1070
    44
1040
30.0
1070
    73
1070
     0
1070
    74
1070
     0
1070
    77
1070
     1
1070
    78
1070
     8
1070
   140
1040
64.0
1070
   172
1070
     1
1070
   173
1070
     1
1002
}
  0
LINE
  5
D62
  8
NOTE
  6
CONTINUOUS
 10
275.0
 20
-165.0
 30
0.0
 11
117.3246862707628
 21
-352.55838789164932
 31
0.0
  0
POLYLINE
  5
D63
  8
NOTE
  6
CONTINUOUS
 66
     1
 10
0.0
 20
0.0
 30
0.0
  0
VERTEX
  5
10ED
  8
NOTE
  6
CONTINUOUS
 10
257.78467280567878
 20
-201.1058517009366
 30
0.0
  0
VERTEX
  5
10EE
  8
NOTE
  6
CONTINUOUS
 10
275.0
 20
-165.0
 30
0.0
  0
VERTEX
  5
10EF
  8
NOTE
  6
CONTINUOUS
 10
242.03816387887119
 20
-187.6609214970299
 30
0.0
  0
SEQEND
  5
10F0
  8
NOTE
  6
CONTINUOUS
  0
TEXT
  5
D68
  8
NOTE
  6
CONTINUOUS
 10
-116.31534602696
 20
-337.4560868916505
 30
0.0
 40
64.0
  1
EL,CL
 41
0.9
  0
LINE
  5
D69
  8
NOTE
  6
CONTINUOUS
 10
-131.0956510269597
 20
-352.55838789164932
 30
0.0
 11
117.3246862707628
 21
-352.55838789164932
 31
0.0
  0
LINE
  5
D6A
  8
NOTE
  6
CONTINUOUS
 10
-1103.609479033234
 20
-459.23268227694081
 30
0.0
 11
-530.5400718084968
 21
-459.23268227694081
 31
0.0
  0
TEXT
  5
D6B
  8
NOTE
  6
CONTINUOUS
 10
-1088.8291740332361
 20
-444.13038127694199
 30
0.0
 40
64.0
  1
AH 2-12×36
 41
0.9
  0
LINE
  5
D6C
  8
NOTE
  6
CONTINUOUS
 10
-300.0
 20
-185.0
 30
0.0
 11
-530.5400718084968
 21
-459.23268227694081
 31
0.0
  0
POLYLINE
  5
D6D
  8
NOTE
  6
CONTINUOUS
 66
     1
 10
0.0
 20
0.0
 30
0.0
  0
VERTEX
  5
10F1
  8
NOTE
  6
CONTINUOUS
 10
-317.21532719432111
 20
-221.10585170093691
 30
0.0
  0
VERTEX
  5
10F2
  8
NOTE
  6
CONTINUOUS
 10
-300.0
 20
-185.0
 30
0.0
  0
VERTEX
  5
10F3
  8
NOTE
  6
CONTINUOUS
 10
-332.96183612112827
 20
-207.6609214970299
 30
0.0
  0
SEQEND
  5
10F4
  8
NOTE
  6
CONTINUOUS
  0
ARC
  5
D72
  8
DETAIL
  6
CONTINOUS
 62
     5
 10
-300.0
 20
-197.0
 30
0.0
 40
6.0
 50
270.0
 51
0.0
  0
LINE
  5
D73
  8
DETAIL
  6
CONTINOUS
 62
     5
 10
-294.0
 20
-195.0
 30
0.0
 11
-294.0
 21
-197.0
 31
0.0
  0
ARC
  5
D74
  8
DETAIL
  6
CONTINOUS
 62
     5
 10
-300.0
 20
-197.0
 30
0.0
 40
6.0
 50
180.0
 51
270.0
  0
LINE
  5
D75
  8
DETAIL
  6
CONTINOUS
 62
     5
 10
-306.0
 20
-195.0
 30
0.0
 11
-306.0
 21
-197.0
 31
0.0
  0
LINE
  5
D76
  8
OUTLINE
 10
136.00000000015271
 20
-195.0
 30
0.0
 11
-441.9999999998472
 21
-195.0
 31
0.0
  0
LINE
  5
D77
  8
OUTLINE
 10
475.0
 20
-165.0
 30
0.0
 11
-475.0
 21
-165.0
 31
0.0
  0
LINE
  5
D78
  8
OUTLINE
 10
475.0
 20
165.0
 30
0.0
 11
-475.0
 21
165.0
 31
0.0
  0
LINE
  5
D79
  8
OUTLINE
 10
-475.0
 20
165.0
 30
0.0
 11
-475.0
 21
-165.0
 31
0.0
  0
LINE
  5
D7A
  8
OUTLINE
 10
-441.9999999998472
 20
-165.0
 30
0.0
 11
-441.9999999998472
 21
-195.0
 31
0.0
  0
LINE
  5
D7B
  8
OUTLINE
 10
-284.0
 20
-213.0
 30
0.0
 11
-316.0
 21
-213.0
 31
0.0
  0
LINE
  5
D7C
  8
OUTLINE
 10
-316.0
 20
-195.0
 30
0.0
 11
-316.0
 21
-213.0
 31
0.0
  0
LINE
  5
D7D
  8
OUTLINE
 10
-284.0
 20
-195.0
 30
0.0
 11
-284.0
 21
-213.0
 31
0.0
  0
ARC
  5
D7E
  8
OUTLINE
 10
-300.0
 20
183.0
 30
0.0
 40
6.0
 50
180.0
 51
0.0
  0
LINE
  5
D7F
  8
OUTLINE
 10
-306.0
 20
204.0
 30
0.0
 11
-316.0
 21
204.0
 31
0.0
  0
LINE
  5
D80
  8
OUTLINE
 10
-306.0
 20
204.0
 30
0.0
 11
-306.0
 21
183.0
 31
0.0
  0
LINE
  5
D81
  8
OUTLINE
 10
-294.0
 20
204.0
 30
0.0
 11
-294.0
 21
183.0
 31
0.0
  0
LINE
  5
D82
  8
OUTLINE
 10
-284.0
 20
204.0
 30
0.0
 11
-294.0
 21
204.0
 31
0.0
  0
LINE
  5
D83
  8
OUTLINE
 10
-316.0
 20
204.0
 30
0.0
 11
-316.0
 21
165.0
 31
0.0
  0
LINE
  5
D84
  8
OUTLINE
 10
-284.0
 20
204.0
 30
0.0
 11
-284.0
 21
165.0
 31
0.0
  0
LINE
  5
D85
  8
OUTLINE
 10
136.00000000015271
 20
-165.0
 30
0.0
 11
136.00000000015271
 21
-195.0
 31
0.0
  0
LINE
  5
D86
  8
OUTLINE
 10
475.0
 20
-165.0
 30
0.0
 11
475.0
 21
165.0
 31
0.0
  0
LINE
  5
D87
  8
OUTLINE
 10
316.0
 20
-213.0
 30
0.0
 11
284.0
 21
-213.0
 31
0.0
  0
LINE
  5
D88
  8
OUTLINE
 10
284.0
 20
-165.0
 30
0.0
 11
284.0
 21
-213.0
 31
0.0
  0
LINE
  5
D89
  8
OUTLINE
 10
316.0
 20
-165.0
 30
0.0
 11
316.0
 21
-213.0
 31
0.0
  0
LINE
  5
D8A
  8
OUTLINE
 10
284.0
 20
204.0
 30
0.0
 11
284.0
 21
165.0
 31
0.0
  0
LINE
  5
D8B
  8
OUTLINE
 10
316.0
 20
204.0
 30
0.0
 11
316.0
 21
165.0
 31
0.0
  0
LINE
  5
D8C
  8
OUTLINE
 10
284.0
 20
204.0
 30
0.0
 11
294.0
 21
204.0
 31
0.0
  0
LINE
  5
D8D
  8
OUTLINE
 10
306.0
 20
204.0
 30
0.0
 11
316.0
 21
204.0
 31
0.0
  0
LINE
  5
D8E
  8
OUTLINE
 10
294.0
 20
204.0
 30
0.0
 11
294.0
 21
183.0
 31
0.0
  0
LINE
  5
D8F
  8
OUTLINE
 10
306.0
 20
204.0
 30
0.0
 11
306.0
 21
183.0
 31
0.0
  0
ARC
  5
D90
  8
OUTLINE
 10
300.0
 20
183.0
 30
0.0
 40
6.0
 50
180.0
 51
0.000000000000007
  0
DIMENSION
  5
D9D
  8
SIZE
  6
CONTINUOUS
  2
*D6
 10
432.0
 20
-347.93030152009482
 30
0.0
 11
541.18234838379612
 21
-347.93030152009482
 31
0.0
 70
   128
 13
475.0
 23
-165.0
 33
0.0
 14
432.0
 24
-124.0
 34
0.0
1001
ACAD
1000
DSTYLE
1002
{
1070
   287
1070
     3
1070
     6
1000
DOTBLANK
1070
     7
1000
DOTBLANK
1070
    41
1040
10.0
1070
    42
1040
20.0
1070
    43
1040
200.0
1070
    44
1040
30.0
1070
    73
1070
     0
1070
    74
1070
     0
1070
    77
1070
     1
1070
    78
1070
     8
1070
   140
1040
64.0
1070
   172
1070
     1
1070
   173
1070
     1
1070
   275
1070
     0
1070
   279
1070
     0
1070
   284
1070
     0
1070
   285
1070
     0
1070
   286
1070
     0
1002
}
  0
DIMENSION
  5
DAB
  8
SIZE
  6
CONTINUOUS
  2
*D7
 10
377.0
 20
-347.93030152009482
 30
0.0
 11
320.28142857142859
 21
-315.84030152009478
 31
0.0
 70
     0
 13
432.0
 23
-124.0
 33
0.0
 14
377.0
 24
-145.0
 34
0.0
1001
ACAD
1000
DSTYLE
1002
{
1070
   287
1070
     3
1070
     6
1000
DOTBLANK
1070
     7
1000
DOTBLANK
1070
    41
1040
10.0
1070
    42
1040
20.0
1070
    43
1040
200.0
1070
    44
1040
30.0
1070
    73
1070
     0
1070
    74
1070
     0
1070
    77
1070
     1
1070
    78
1070
     8
1070
   140
1040
64.0
1070
   172
1070
     1
1070
   173
1070
     1
1070
   275
1070
     0
1070
   279
1070
     0
1070
   284
1070
     0
1070
   285
1070
     0
1070
   286
1070
     0
1002
}
  0
DIMENSION
  5
DCD
  8
SIZE
  6
CONTINUOUS
  2
*D8
 10
617.43493234678499
 20
-125.0
 30
0.0
 11
617.43493234678499
 21
-50.699223992654879
 31
0.0
 70
   128
 13
475.0
 23
-165.0
 33
0.0
 14
397.0
 24
-125.0
 34
0.0
 50
90.0
1001
ACAD
1000
DSTYLE
1002
{
1070
   287
1070
     3
1070
     6
1000
DOTBLANK
1070
     7
1000
DOTBLANK
1070
    41
1040
10.0
1070
    42
1040
20.0
1070
    43
1040
200.0
1070
    44
1040
30.0
1070
    73
1070
     0
1070
    74
1070
     0
1070
    77
1070
     1
1070
    78
1070
     8
1070
   140
1040
64.0
1070
   172
1070
     1
1070
   173
1070
     1
1070
   275
1070
     0
1070
   279
1070
     0
1070
   284
1070
     0
1070
   285
1070
     0
1070
   286
1070
     0
1002
}
  0
DIMENSION
  5
DDB
  8
SIZE
  6
CONTINUOUS
  2
*D9
 10
760.56591925233988
 20
-104.0
 30
0.0
 11
760.56591925233988
 21
-50.699223992654879
 31
0.0
 70
   128
 13
475.0
 23
-165.0
 33
0.0
 14
452.0
 24
-104.0
 34
0.0
 50
90.0
1001
ACAD
1000
DSTYLE
1002
{
1070
   287
1070
     3
1070
     6
1000
DOTBLANK
1070
     7
1000
DOTBLANK
1070
    41
1040
10.0
1070
    42
1040
20.0
1070
    43
1040
200.0
1070
    44
1040
30.0
1070
    73
1070
     0
1070
    74
1070
     0
1070
    77
1070
     1
1070
    78
1070
     8
1070
   140
1040
64.0
1070
   172
1070
     1
1070
   173
1070
     1
1070
   275
1070
     0
1070
   279
1070
     0
1070
   284
1070
     0
1070
   285
1070
     0
1070
   286
1070
     0
1002
}
  0
ENDSEC
  0
EOF
