  0
SECTION
  2
HEADER
  9
$ACADVER
  1
AC1009
  9
$INSBASE
 10
0.0
 20
0.0
 30
0.0
  9
$EXTMIN
 10
-480.0
 20
-573.01396200505167
 30
0.0
  9
$EXTMAX
 10
1654.327415397262
 20
1551.2305982789121
 30
0.0
  9
$LIMMIN
 10
-1168.3915547666941
 20
-837.13428095478946
  9
$LIMMAX
 10
1834.5215766496269
 20
1699.4248575797819
  9
$ORTHOMODE
 70
     1
  9
$REGENMODE
 70
     1
  9
$FILLMODE
 70
     1
  9
$QTEXTMODE
 70
     0
  9
$MIRRTEXT
 70
     0
  9
$DRAGMODE
 70
     2
  9
$LTSCALE
 40
20.0
  9
$OSMODE
 70
    37
  9
$ATTMODE
 70
     1
  9
$TEXTSIZE
 40
64.0
  9
$TRACEWID
 40
0.05
  9
$TEXTSTYLE
  7
STANDARD
  9
$CLAYER
  8
SIZE
  9
$CELTYPE
  6
CONTINUOUS
  9
$CECOLOR
 62
   256
  9
$DIMSCALE
 40
1.0
  9
$DIMASZ
 40
10.0
  9
$DIMEXO
 40
20.0
  9
$DIMDLI
 40
200.0
  9
$DIMRND
 40
0.0
  9
$DIMDLE
 40
0.0
  9
$DIMEXE
 40
30.0
  9
$DIMTP
 40
0.0
  9
$DIMTM
 40
0.0
  9
$DIMTXT
 40
64.0
  9
$DIMCEN
 40
0.09
  9
$DIMTSZ
 40
0.0
  9
$DIMTOL
 70
     0
  9
$DIMLIM
 70
     0
  9
$DIMTIH
 70
     0
  9
$DIMTOH
 70
     0
  9
$DIMSE1
 70
     0
  9
$DIMSE2
 70
     0
  9
$DIMTAD
 70
     1
  9
$DIMZIN
 70
     8
  9
$DIMBLK
  1

  9
$DIMASO
 70
     1
  9
$DIMSHO
 70
     0
  9
$DIMPOST
  1

  9
$DIMAPOST
  1

  9
$DIMALT
 70
     0
  9
$DIMALTD
 70
     2
  9
$DIMALTF
 40
25.399999999999999
  9
$DIMLFAC
 40
1.0
  9
$DIMTOFL
 70
     1
  9
$DIMTVP
 40
0.0
  9
$DIMTIX
 70
     0
  9
$DIMSOXD
 70
     0
  9
$DIMSAH
 70
     1
  9
$DIMBLK1
  1

  9
$DIMBLK2
  1

  9
$DIMSTYLE
  2
STANDARD
  9
$DIMCLRD
 70
     0
  9
$DIMCLRE
 70
     0
  9
$DIMCLRT
 70
     0
  9
$DIMTFAC
 40
1.0
  9
$DIMGAP
 40
0.09
  9
$LUNITS
 70
     2
  9
$LUPREC
 70
     4
  9
$SKETCHINC
 40
0.1
  9
$FILLETRAD
 40
6.0
  9
$AUNITS
 70
     1
  9
$AUPREC
 70
     3
  9
$MENU
  1
ACAD
  9
$ELEVATION
 40
0.0
  9
$PELEVATION
 40
0.0
  9
$THICKNESS
 40
0.0
  9
$LIMCHECK
 70
     0
  9
$BLIPMODE
 70
     0
  9
$CHAMFERA
 40
0.0
  9
$CHAMFERB
 40
0.0
  9
$SKPOLY
 70
     0
  9
$TDCREATE
 40
2450330.3932059952
  9
$TDUPDATE
 40
2453256.586695266
  9
$TDINDWG
 40
0.2194563426
  9
$TDUSRTIMER
 40
0.2194561111
  9
$USRTIMER
 70
     1
  9
$ANGBASE
 50
0.0
  9
$ANGDIR
 70
     0
  9
$PDMODE
 70
     3
  9
$PDSIZE
 40
-2.0
  9
$PLINEWID
 40
0.0
  9
$COORDS
 70
     1
  9
$SPLFRAME
 70
     0
  9
$SPLINETYPE
 70
     6
  9
$SPLINESEGS
 70
     8
  9
$ATTDIA
 70
     0
  9
$ATTREQ
 70
     1
  9
$HANDLING
 70
-16383
  9
$HANDSEED
  5
1184
  9
$SURFTAB1
 70
     6
  9
$SURFTAB2
 70
     6
  9
$SURFTYPE
 70
     6
  9
$SURFU
 70
     6
  9
$SURFV
 70
     6
  9
$UCSNAME
  2

  9
$UCSORG
 10
0.0
 20
0.0
 30
0.0
  9
$UCSXDIR
 10
1.0
 20
0.0
 30
0.0
  9
$UCSYDIR
 10
0.0
 20
1.0
 30
0.0
  9
$PUCSNAME
  2

  9
$PUCSORG
 10
0.0
 20
0.0
 30
0.0
  9
$PUCSXDIR
 10
1.0
 20
0.0
 30
0.0
  9
$PUCSYDIR
 10
0.0
 20
1.0
 30
0.0
  9
$USERI1
 70
     0
  9
$USERI2
 70
     0
  9
$USERI3
 70
     0
  9
$USERI4
 70
     0
  9
$USERI5
 70
     0
  9
$USERR1
 40
20.0
  9
$USERR2
 40
0.0
  9
$USERR3
 40
0.0
  9
$USERR4
 40
0.0
  9
$USERR5
 40
0.0
  9
$WORLDVIEW
 70
     1
  9
$SHADEDGE
 70
     3
  9
$SHADEDIF
 70
    70
  9
$TILEMODE
 70
     1
  9
$MAXACTVP
 70
    64
  9
$PLIMCHECK
 70
     0
  9
$PEXTMIN
 10
1.0000000000000000E+020
 20
1.0000000000000000E+020
 30
1.0000000000000000E+020
  9
$PEXTMAX
 10
-1.0000000000000000E+020
 20
-1.0000000000000000E+020
 30
-1.0000000000000000E+020
  9
$PLIMMIN
 10
0.0
 20
0.0
  9
$PLIMMAX
 10
12.0
 20
9.0
  9
$UNITMODE
 70
     0
  9
$VISRETAIN
 70
     1
  9
$PLINEGEN
 70
     0
  9
$PSLTSCALE
 70
     1
  0
ENDSEC
  0
SECTION
  2
TABLES
  0
TABLE
  2
VPORT
 70
     2
  0
VPORT
  2
*ACTIVE
 70
     0
 10
0.0
 20
0.0
 11
1.0
 21
1.0
 12
546.70631946370895
 22
438.42769013244009
 13
0.0
 23
0.0
 14
50.0
 24
50.0
 15
100.0
 25
100.0
 16
0.0
 26
0.0
 36
1.0
 17
0.0
 27
0.0
 37
0.0
 40
2853.2982811847978
 41
1.2721893491124261
 42
50.0
 43
0.0
 44
0.0
 50
0.0
 51
0.0
 71
     0
 72
   500
 73
     1
 74
     0
 75
     0
 76
     0
 77
     0
 78
     0
  0
ENDTAB
  0
TABLE
  2
LTYPE
 70
     8
  0
LTYPE
  2
CONTINUOUS
 70
     0
  3
実線
 72
    65
 73
     0
 40
0.0
  0
LTYPE
  2
DASHDOT
 70
     0
  3
____ _ ____ _ ____ _ ____ _ ____ _ ____ _ ____
 72
    65
 73
     4
 40
5.5
 49
4.0
 49
-0.6
 49
0.3
 49
-0.6
  0
LTYPE
  2
CONTINOUS
 70
     0
  3
Solid line
 72
    65
 73
     0
 40
0.0
  0
LTYPE
  2
DASHED
 70
     0
  3
_ _ _ _ _ _ _ _ _ _ _ _ _ _ _ _ _ _ _ _ _ _ _
 72
    65
 73
     2
 40
2.0
 49
1.1999999999999991
 49
-0.8
  0
LTYPE
  2
DOT
 70
     0
  3
...............................................
 72
    65
 73
     2
 40
0.8
 49
0.5
 49
-0.3
  0
LTYPE
  2
DASHDOT1
 70
     0
  3
____ _ ____ _ ____ _ ____ _ ____ _ ____ _ ____
 72
    65
 73
     4
 40
2.0
 49
1.5
 49
-0.2
 49
0.1
 49
-0.2
  0
LTYPE
  2
DIVIDE
 70
     0
  3
_____ _ _ _____ _ _ _____ _ _ _____ _ _ ____
 72
    65
 73
     6
 40
6.4000000000000004
 49
4.0
 49
-0.6
 49
0.3
 49
-0.6
 49
0.3
 49
-0.6
  0
LTYPE
  2
DIVIDE1
 70
     0
  3
_____ _ _ _____ _ _ _____ _ _ _____ _ _ ____
 72
    65
 73
     6
 40
3.2000000000000002
 49
2.0
 49
-0.3
 49
0.15
 49
-0.3
 49
0.15
 49
-0.3
  0
ENDTAB
  0
TABLE
  2
LAYER
 70
    12
  0
LAYER
  2
0
 70
     0
 62
     7
  6
CONTINUOUS
  0
LAYER
  2
SIZE
 70
     0
 62
    32
  6
CONTINUOUS
  0
LAYER
  2
DETAIL
 70
     0
 62
     5
  6
CONTINUOUS
  0
LAYER
  2
OUTLINE
 70
     0
 62
     3
  6
CONTINUOUS
  0
LAYER
  2
BASIS
 70
     0
 62
     6
  6
CONTINUOUS
  0
LAYER
  2
NOTE
 70
     0
 62
     4
  6
CONTINUOUS
  0
LAYER
  2
ARRANGE
 70
     0
 62
     1
  6
CONTINUOUS
  0
LAYER
  2
FIX
 70
     0
 62
   241
  6
CONTINUOUS
  0
LAYER
  2
ETC
 70
     0
 62
    83
  6
CONTINUOUS
  0
LAYER
  2
SERVICESPACE
 70
     0
 62
     2
  6
CONTINUOUS
  0
LAYER
  2
SYMBOLLINE
 70
     0
 62
    38
  6
CONTINUOUS
  0
LAYER
  2
DEFPOINTS
 70
     0
 62
     7
  6
CONTINUOUS
  0
ENDTAB
  0
TABLE
  2
STYLE
 70
     2
  0
STYLE
  2
STANDARD
 70
     0
 40
0.0
 41
0.9
 50
0.0
 71
     0
 42
64.0
  3
SIMPLEX
  4
BIGFONT
  0
STYLE
  2
STANDARD1
 70
     0
 40
0.0
 41
1.0
 50
0.0
 71
     0
 42
3.2000000000000002
  3
MONOTXT
  4
BIGFONT
  0
ENDTAB
  0
TABLE
  2
VIEW
 70
     1
  0
VIEW
  2
ALL
 70
     0
 40
4282.6199999999999
 10
0.0
 20
41.309903999999989
 41
5940.0
 11
0.0
 21
0.0
 31
1.0
 12
0.0
 22
0.0
 32
0.0
 42
50.0
 43
0.0
 44
0.0
 50
0.0
 71
     0
  0
ENDTAB
  0
TABLE
  2
UCS
 70
     0
  0
ENDTAB
  0
TABLE
  2
APPID
 70
     1
  0
APPID
  2
ACAD
 70
     0
  0
ENDTAB
  0
TABLE
  2
DIMSTYLE
 70
     1
  0
DIMSTYLE
  2
STANDARD
 70
     0
  3

  4

  5

  6

  7

 40
1.0
 41
0.18
 42
0.0625
 43
0.38
 44
0.18
 45
0.0
 46
0.0
 47
0.0
 48
0.0
140
0.18
141
0.09
142
0.0
143
25.399999999999999
144
1.0
145
0.0
146
1.0
147
0.09
 71
     0
 72
     0
 73
     1
 74
     1
 75
     0
 76
     0
 77
     0
 78
     0
170
     0
171
     2
172
     0
173
     0
174
     0
175
     0
176
     0
177
     0
178
     0
  0
ENDTAB
  0
ENDSEC
  0
SECTION
  2
BLOCKS
  0
BLOCK
  8
0
  2
$MODEL_SPACE
 70
     0
 10
0.0
 20
0.0
 30
0.0
  3
$MODEL_SPACE
  1

  0
ENDBLK
  5
60E
  8
0
  0
BLOCK
 67
     1
  8
0
  2
$PAPER_SPACE
 70
     0
 10
0.0
 20
0.0
 30
0.0
  3
$PAPER_SPACE
  1

  0
ENDBLK
  5
60A
 67
     1
  8
0
  0
BLOCK
  8
0
  2
A$C5F2C697A
 70
     0
 10
0.0
 20
0.0
 30
0.0
  3
A$C5F2C697A
  1

  0
TEXT
  5
631
  8
SIZE
  6
BYBLOCK
 10
910.8147643978815
 20
127.36127978650261
 30
0.0
 40
64.0
  1
370
 41
0.9
  0
LINE
  5
632
  8
SIZE
  6
BYBLOCK
 10
801.8719073978815
 20
95.361279786502593
 30
0.0
 11
1167.87190739788
 21
95.361279786502593
 31
0.0
  0
TEXT
  5
633
  8
SIZE
  6
BYBLOCK
 10
915.81476439788139
 20
1424.5027517865019
 30
0.0
 40
64.0
  1
330
 41
0.9
  0
LINE
  5
634
  8
SIZE
  6
BYBLOCK
 10
826.8719073978815
 20
1392.5027517865019
 30
0.0
 11
1152.87190739788
 21
1392.5027517865019
 31
0.0
  0
LINE
  5
635
  8
OUTLINE
  6
CONTINUOUS
 10
771.8719063978815
 20
290.07775178650252
 30
0.0
 11
1183.871906397881
 21
290.07775178650252
 31
0.0
  0
LINE
  5
636
  8
OUTLINE
  6
CONTINUOUS
 10
771.8719063978815
 20
323.07775178650252
 30
0.0
 11
1183.871906397881
 21
323.07775178650252
 31
0.0
  0
LINE
  5
637
  8
OUTLINE
  6
CONTINUOUS
 10
824.87190639788139
 20
1145.0777517865019
 30
0.0
 11
1154.8719063978799
 21
1145.0777517865019
 31
0.0
  0
CIRCLE
  5
638
  8
ARRANGE
  6
CONTINUOUS
 10
989.87190639788139
 20
290.07775178650252
 30
0.0
 40
40.0
  0
LINE
  5
639
  8
DETAIL
  6
CONTINOUS
 10
771.8719063978815
 20
290.07775178650252
 30
0.0
 11
1183.871906397881
 21
290.07775178650252
 31
0.0
  0
LINE
  5
63A
  8
DETAIL
  6
CONTINOUS
 10
824.87190639788139
 20
1145.0777517865019
 30
0.0
 11
1154.8719063978799
 21
1145.0777517865019
 31
0.0
  0
TEXT
  5
63B
  8
NOTE
  6
CONTINUOUS
 10
973.9808703978814
 20
913.84623078650259
 30
0.0
 40
64.0
  1
EL,CL
 41
0.9
  0
LINE
  5
63C
  8
NOTE
  6
CONTINUOUS
 10
879.8719063978815
 20
686.07775178650252
 30
0.0
 11
1040.77148939788
 21
625.20405378650253
 31
0.0
  0
LINE
  5
63D
  8
NOTE
  6
CONTINUOUS
 10
1205.83098439788
 20
895.38895978650271
 30
0.0
 11
918.87085639788165
 21
895.38895978650271
 31
0.0
  0
POINT
  5
63E
  8
ARRANGE
  6
CONTINUOUS
 10
989.87190639788139
 20
290.07775178650252
 30
0.0
  0
LINE
  5
63F
  8
DETAIL
  6
CONTINOUS
 10
771.8719063978815
 20
323.07775178650252
 30
0.0
 11
1183.871906397881
 21
323.07775178650252
 31
0.0
  0
LINE
  5
640
  8
NOTE
  6
CONTINUOUS
 10
882.87190639788139
 20
724.07775178650252
 30
0.0
 11
1040.77148939788
 21
812.30385178650226
 31
0.0
  0
CIRCLE
  5
641
  8
SIZE
  6
CONTINUOUS
 10
220.7875803978813
 20
290.07775178650252
 30
0.0
 40
6.0
  0
CIRCLE
  5
642
  8
SIZE
  6
CONTINUOUS
 10
503.55668139788139
 20
290.07775178650252
 30
0.0
 40
6.0
  0
CIRCLE
  5
643
  8
SIZE
  6
CONTINUOUS
 10
649.74425839788148
 20
290.07775178650252
 30
0.0
 40
6.0
  0
CIRCLE
  5
644
  8
SIZE
  6
CONTINUOUS
 10
350.83505539788138
 20
290.07775178650252
 30
0.0
 40
6.0
  0
LINE
  5
645
  8
OUTLINE
  6
CONTINUOUS
 10
771.8719063978815
 20
290.07775178650252
 30
0.0
 11
771.8719063978815
 21
323.07775178650252
 31
0.0
  0
CIRCLE
  5
646
  8
FIX
  6
CONTINUOUS
 10
799.8719063978815
 20
290.07775178650252
 30
0.0
 40
40.0
  0
LINE
  5
647
  8
DETAIL
  6
CONTINOUS
 10
771.8719063978815
 20
290.07775178650252
 30
0.0
 11
771.8719063978815
 21
323.07775178650252
 31
0.0
  0
LINE
  5
648
  8
BASIS
  6
DASHDOT
 10
989.87190639788139
 20
239.4419287865025
 30
0.0
 11
989.87190639788139
 21
1184.2961157865011
 31
0.0
  0
LINE
  5
649
  8
NOTE
  6
CONTINOUS
 10
799.8719063978815
 20
270.0777517865024
 30
0.0
 11
799.8719063978815
 21
310.07775178650252
 31
0.0
  0
LINE
  5
64A
  8
NOTE
  6
CONTINUOUS
 10
0.0000023978816444
 20
-0.000002213497396
 30
0.0
 11
579.80680439788148
 21
-0.000002213497396
 31
0.0
  0
TEXT
  5
64B
  8
NOTE
  6
CONTINUOUS
 10
14.78030739788152
 20
15.10229878650267
 30
0.0
 40
64.0
  1
AH 2-12×36
 41
0.9
  0
LINE
  5
64C
  8
SIZE
  6
BYBLOCK
 10
715.70171039788136
 20
290.07775178650252
 30
0.0
 11
320.83505539788149
 21
290.07775178650252
 31
0.0
  0
LINE
  5
64D
  8
SIZE
  6
BYBLOCK
 10
735.70171039788136
 20
290.07775178650252
 30
0.0
 11
473.55668139788122
 21
290.07775178650252
 31
0.0
  0
LINE
  5
64E
  8
SIZE
  6
BYBLOCK
 10
735.70171039788136
 20
290.07775178650252
 30
0.0
 11
190.7875803978813
 21
290.07775178650252
 31
0.0
  0
LINE
  5
64F
  8
NOTE
  6
CONTINUOUS
 10
579.80680439788148
 20
-0.000002213497396
 30
0.0
 11
799.8719063978815
 21
290.07775178650252
 31
0.0
  0
TEXT
  5
650
  8
SIZE
  6
BYBLOCK
 10
739.24333539788142
 20
127.36127978650261
 30
0.0
 40
64.0
  1
28
 41
0.9
  0
LINE
  5
651
  8
SIZE
  6
BYBLOCK
 10
735.70171039788136
 20
290.07775178650252
 30
0.0
 11
619.74425839788148
 21
290.07775178650252
 31
0.0
  0
LINE
  5
652
  8
SIZE
  6
BYBLOCK
 10
799.8719073978815
 20
250.0777517865026
 30
0.0
 11
799.8719073978815
 21
65.361279786502621
 31
0.0
  0
LINE
  5
653
  8
SIZE
  6
BYBLOCK
 10
799.8719073978815
 20
250.0777517865026
 30
0.0
 11
799.8719073978815
 21
65.361279786502621
 31
0.0
  0
LINE
  5
654
  8
SIZE
  6
BYBLOCK
 10
771.8719073978815
 20
270.0777517865024
 30
0.0
 11
771.8719073978815
 21
65.361279786502621
 31
0.0
  0
CIRCLE
  5
655
  8
SIZE
  6
CONTINUOUS
 10
799.8719073978815
 20
95.361279786502593
 30
0.0
 40
6.0
  0
CIRCLE
  5
656
  8
SIZE
  6
CONTINUOUS
 10
771.8719073978815
 20
95.361279786502593
 30
0.0
 40
6.0
  0
CIRCLE
  5
657
  8
SIZE
  6
CONTINUOUS
 10
799.8719073978815
 20
95.361279786502593
 30
0.0
 40
6.0
  0
LINE
  5
658
  8
SIZE
  6
BYBLOCK
 10
799.8719073978815
 20
95.361279786502593
 30
0.0
 11
771.8719073978815
 21
95.361279786502593
 31
0.0
  0
LINE
  5
659
  8
SIZE
  6
BYBLOCK
 10
769.8719073978815
 20
95.361279786502593
 30
0.0
 11
767.8719073978815
 21
95.361279786502593
 31
0.0
  0
LINE
  5
65A
  8
SIZE
  6
BYBLOCK
 10
801.8719073978815
 20
95.361279786502593
 30
0.0
 11
803.87190739788139
 21
95.361279786502593
 31
0.0
  0
LINE
  5
65B
  8
NOTE
  6
CONTINOUS
 10
779.8719063978815
 20
290.07775178650252
 30
0.0
 11
819.8719063978815
 21
290.07775178650252
 31
0.0
  0
LINE
  5
65C
  8
NOTE
  6
CONTINUOUS
 10
799.8719063978815
 20
290.07775178650252
 30
0.0
 11
784.76766639788127
 21
253.0390967865026
 31
0.0
  0
LINE
  5
65D
  8
NOTE
  6
CONTINUOUS
 10
799.8719063978815
 20
290.07775178650252
 30
0.0
 11
768.27192339788144
 21
265.55345678650241
 31
0.0
  0
LINE
  5
65E
  8
SIZE
  6
BYBLOCK
 10
771.8719073978815
 20
343.07775178650252
 30
0.0
 11
771.8719073978815
 21
1422.5027517865019
 31
0.0
  0
LINE
  5
65F
  8
OUTLINE
  6
CONTINUOUS
 10
824.87190639788139
 20
323.07775178650252
 30
0.0
 11
824.87190639788139
 21
1145.0777517865019
 31
0.0
  0
LINE
  5
660
  8
DETAIL
  6
CONTINOUS
 10
824.87190639788139
 20
323.07775178650252
 30
0.0
 11
824.87190639788139
 21
1145.0777517865019
 31
0.0
  0
LINE
  5
661
  8
DETAIL
  6
CONTINOUS
 10
804.8719063978815
 20
462.0777517865024
 30
0.0
 11
804.8719063978815
 21
1002.0777517865019
 31
0.0
  0
LINE
  5
662
  8
SIZE
  6
BYBLOCK
 10
714.44271139788157
 20
732.07775178650252
 30
0.0
 11
320.83505539788149
 21
732.07775178650252
 31
0.0
  0
LINE
  5
663
  8
SIZE
  6
BYBLOCK
 10
856.8719073978815
 20
724.07775178650252
 30
0.0
 11
473.55668139788122
 21
724.07775178650252
 31
0.0
  0
LINE
  5
664
  8
SIZE
  6
BYBLOCK
 10
777.27455739788161
 20
810.08015378650225
 30
0.0
 11
190.42745539788129
 21
810.08015378650225
 31
0.0
  0
LINE
  5
665
  8
SIZE
  6
BYBLOCK
 10
350.83505539788138
 20
292.07775178650252
 30
0.0
 11
350.83505539788138
 21
730.07775178650252
 31
0.0
  0
LINE
  5
666
  8
SIZE
  6
BYBLOCK
 10
503.55668139788139
 20
292.07775178650252
 30
0.0
 11
503.55668139788139
 21
724.07775178650252
 31
0.0
  0
TEXT
  5
667
  8
SIZE
  6
BYBLOCK
 10
188.7875803978813
 20
529.52060878650241
 30
0.0
 40
64.0
  1
520
 50
90.0
 41
0.9
  0
LINE
  5
668
  8
SIZE
  6
BYBLOCK
 10
220.7875803978813
 20
810.08015378650225
 30
0.0
 11
220.7875803978813
 21
603.57775178650252
 31
0.0
  0
TEXT
  5
669
  8
SIZE
  6
BYBLOCK
 10
318.83505539788149
 20
437.02060878650252
 30
0.0
 40
64.0
  1
442
 50
90.0
 41
0.9
  0
LINE
  5
66A
  8
SIZE
  6
BYBLOCK
 10
220.7875803978813
 20
292.07775178650252
 30
0.0
 11
220.7875803978813
 21
603.57775178650252
 31
0.0
  0
TEXT
  5
66B
  8
SIZE
  6
BYBLOCK
 10
471.55668139788139
 20
427.13489478650251
 30
0.0
 40
64.0
  1
434
 50
90.0
 41
0.9
  0
CIRCLE
  5
66C
  8
SIZE
  6
CONTINUOUS
 10
220.4274553978814
 20
810.08015378650225
 30
0.0
 40
6.0
  0
CIRCLE
  5
66D
  8
SIZE
  6
CONTINUOUS
 10
350.83505539788138
 20
732.07775178650252
 30
0.0
 40
6.0
  0
CIRCLE
  5
66E
  8
SIZE
  6
CONTINUOUS
 10
503.55668139788139
 20
724.07775178650252
 30
0.0
 40
6.0
  0
LINE
  5
66F
  8
SIZE
  6
BYBLOCK
 10
649.74425839788148
 20
292.07775178650252
 30
0.0
 11
649.74425839788148
 21
684.07775178650252
 31
0.0
  0
TEXT
  5
670
  8
SIZE
  6
BYBLOCK
 10
617.74425839788125
 20
415.3920377865025
 30
0.0
 40
64.0
  1
396
 50
90.0
 41
0.9
  0
LINE
  5
671
  8
DETAIL
  6
CONTINOUS
 10
824.87190639788139
 20
462.0777517865024
 30
0.0
 11
804.8719063978815
 21
462.0777517865024
 31
0.0
  0
LINE
  5
672
  8
SIZE
  6
BYBLOCK
 10
836.26393739788148
 20
686.07775178650252
 30
0.0
 11
619.74425839788148
 21
686.07775178650252
 31
0.0
  0
LINE
  5
673
  8
BASIS
  6
DASHDOT
 10
734.44271139788145
 20
732.07775178650252
 30
0.0
 11
884.14564339788137
 21
732.07775178650252
 31
0.0
  0
CIRCLE
  5
674
  8
SIZE
  6
CONTINUOUS
 10
649.74425839788148
 20
686.07775178650252
 30
0.0
 40
6.0
  0
LINE
  5
675
  8
NOTE
  6
CONTINOUS
 10
862.8719063978815
 20
724.07775178650252
 30
0.0
 11
902.8719063978815
 21
724.07775178650252
 31
0.0
  0
LINE
  5
676
  8
NOTE
  6
CONTINOUS
 10
859.87190639788162
 20
686.07775178650252
 30
0.0
 11
899.87190639788139
 21
686.07775178650252
 31
0.0
  0
LINE
  5
677
  8
NOTE
  6
CONTINOUS
 10
879.8719063978815
 20
666.07775178650252
 30
0.0
 11
879.8719063978815
 21
706.07775178650252
 31
0.0
  0
POLYLINE
  5
678
  8
NOTE
  6
CONTINUOUS
 66
     1
 10
0.0
 20
0.0
 30
0.0
  0
VERTEX
  5
112A
  8
NOTE
  6
CONTINUOUS
 10
919.40695039788125
 20
679.99661178650251
 30
0.0
  0
VERTEX
  5
112B
  8
NOTE
  6
CONTINUOUS
 10
879.8719063978815
 20
686.07775178650252
 30
0.0
  0
VERTEX
  5
112C
  8
NOTE
  6
CONTINUOUS
 10
911.06968939788146
 20
661.04380778650238
 30
0.0
  0
SEQEND
  5
112D
  8
NOTE
  6
CONTINUOUS
  0
POLYLINE
  5
67D
  8
NOTE
  6
CONTINUOUS
 66
     1
 10
0.0
 20
0.0
 30
0.0
  0
VERTEX
  5
112E
  8
NOTE
  6
CONTINUOUS
 10
911.55116939788149
 20
751.96143678650253
 30
0.0
  0
VERTEX
  5
112F
  8
NOTE
  6
CONTINUOUS
 10
882.87190639788139
 20
724.07775178650252
 30
0.0
  0
VERTEX
  5
1130
  8
NOTE
  6
CONTINUOUS
 10
921.65071939788174
 20
733.88609978650254
 30
0.0
  0
SEQEND
  5
1131
  8
NOTE
  6
CONTINUOUS
  0
LINE
  5
682
  8
NOTE
  6
CONTINOUS
 10
882.87190639788139
 20
704.0777517865024
 30
0.0
 11
882.87190639788139
 21
744.07775178650252
 31
0.0
  0
LINE
  5
683
  8
NOTE
  6
CONTINUOUS
 10
824.51178139788146
 20
810.08015378650225
 30
0.0
 11
918.87085639788165
 21
895.38895978650271
 31
0.0
  0
LINE
  5
684
  8
NOTE
  6
CONTINOUS
 10
804.51178139788135
 20
810.08015378650225
 30
0.0
 11
844.51178139788135
 21
810.08015378650225
 31
0.0
  0
POLYLINE
  5
685
  8
NOTE
  6
CONTINUOUS
 66
     1
 10
0.0
 20
0.0
 30
0.0
  0
VERTEX
  5
1132
  8
NOTE
  6
CONTINUOUS
 10
846.64476439788132
 20
843.39878378650269
 30
0.0
  0
VERTEX
  5
1133
  8
NOTE
  6
CONTINUOUS
 10
824.51178139788146
 20
810.08015378650225
 30
0.0
  0
VERTEX
  5
1134
  8
NOTE
  6
CONTINUOUS
 10
860.33882139788147
 20
827.86844278650256
 30
0.0
  0
SEQEND
  5
1135
  8
NOTE
  6
CONTINUOUS
  0
LINE
  5
68A
  8
NOTE
  6
CONTINOUS
 10
824.51178139788146
 20
790.08015378650225
 30
0.0
 11
824.51178139788146
 21
830.08015378650225
 31
0.0
  0
LINE
  5
68B
  8
NOTE
  6
CONTINUOUS
 10
872.35755039788137
 20
933.93013678650243
 30
0.0
 11
872.35755039788137
 21
933.93013678650243
 31
0.0
  0
LINE
  5
68C
  8
SIZE
  6
BYBLOCK
 10
824.8719073978815
 20
1185.0777517865019
 30
0.0
 11
824.8719073978815
 21
1422.5027517865019
 31
0.0
  0
LINE
  5
68D
  8
SIZE
  6
BYBLOCK
 10
824.8719073978815
 20
1165.0777517865019
 30
0.0
 11
824.8719073978815
 21
1422.5027517865019
 31
0.0
  0
LINE
  5
68E
  8
SIZE
  6
BYBLOCK
 10
824.8719073978815
 20
1165.0777517865019
 30
0.0
 11
824.8719073978815
 21
1293.248751786502
 31
0.0
  0
LINE
  5
68F
  8
SIZE
  6
BYBLOCK
 10
804.87190739788139
 20
1022.0777517865019
 30
0.0
 11
804.87190739788139
 21
1293.248751786502
 31
0.0
  0
LINE
  5
690
  8
DETAIL
  6
CONTINOUS
 10
824.87190639788139
 20
1002.0777517865019
 30
0.0
 11
804.8719063978815
 21
1002.0777517865019
 31
0.0
  0
LINE
  5
691
  8
SIZE
  6
CONTINUOUS
 10
814.87190639788139
 20
1263.2491457865019
 30
0.0
 11
945.94025839788139
 21
1263.2491457865019
 31
0.0
  0
LINE
  5
692
  8
SIZE
  6
BYBLOCK
 10
822.8719073978815
 20
1263.2491457865019
 30
0.0
 11
814.8719073978815
 21
1263.2491457865019
 31
0.0
  0
CIRCLE
  5
693
  8
SIZE
  6
CONTINUOUS
 10
804.87190739788139
 20
1263.2491457865019
 30
0.0
 40
6.0
  0
LINE
  5
694
  8
SIZE
  6
BYBLOCK
 10
806.8719073978815
 20
1263.2491457865019
 30
0.0
 11
814.8719073978815
 21
1263.2491457865019
 31
0.0
  0
CIRCLE
  5
695
  8
SIZE
  6
CONTINUOUS
 10
824.8719073978815
 20
1263.2491457865019
 30
0.0
 40
6.0
  0
TEXT
  5
696
  8
SIZE
  6
BYBLOCK
 10
751.74333539788142
 20
1424.5027517865019
 30
0.0
 40
64.0
  1
53
 41
0.9
  0
TEXT
  5
697
  8
SIZE
  6
BYBLOCK
 10
843.21570539788104
 20
1295.248751786502
 30
0.0
 40
64.0
  1
20
 41
0.9
  0
LINE
  5
698
  8
SIZE
  6
BYBLOCK
 10
824.8719073978815
 20
1392.5027517865019
 30
0.0
 11
771.8719073978815
 21
1392.5027517865019
 31
0.0
  0
CIRCLE
  5
699
  8
SIZE
  6
CONTINUOUS
 10
771.8719073978815
 20
1392.5027517865019
 30
0.0
 40
6.0
  0
LINE
  5
69A
  8
SIZE
  6
BYBLOCK
 10
769.8719073978815
 20
1392.5027517865019
 30
0.0
 11
767.8719073978815
 21
1392.5027517865019
 31
0.0
  0
CIRCLE
  5
69B
  8
SIZE
  6
CONTINUOUS
 10
824.8719073978815
 20
1392.5027517865019
 30
0.0
 40
6.0
  0
CIRCLE
  5
69C
  8
SIZE
  6
CONTINUOUS
 10
824.8719073978815
 20
1392.5027517865019
 30
0.0
 40
6.0
  0
LINE
  5
69D
  8
SIZE
  6
BYBLOCK
 10
826.8719073978815
 20
1392.5027517865019
 30
0.0
 11
828.87190739788139
 21
1392.5027517865019
 31
0.0
  0
CIRCLE
  5
69E
  8
SIZE
  6
CONTINUOUS
 10
1420.44446039788
 20
290.07775178650252
 30
0.0
 40
6.0
  0
CIRCLE
  5
69F
  8
FIX
  6
CONTINUOUS
 10
1169.871906397881
 20
290.07775178650252
 30
0.0
 40
40.0
  0
LINE
  5
6A0
  8
OUTLINE
  6
CONTINUOUS
 10
1183.871906397881
 20
323.07775178650252
 30
0.0
 11
1183.871906397881
 21
290.07775178650252
 31
0.0
  0
TEXT
  5
6A1
  8
ETC
  6
CONTINUOUS
 10
1573.1112623978811
 20
288.6366377865026
 30
0.0
 40
64.0
  1
室外機
 41
0.9
  0
LINE
  5
6A2
  8
DETAIL
  6
CONTINOUS
 10
1183.871906397881
 20
290.07775178650252
 30
0.0
 11
1183.871906397881
 21
323.07775178650252
 31
0.0
  0
LINE
  5
6A3
  8
NOTE
  6
CONTINOUS
 10
1169.871906397881
 20
270.0777517865024
 30
0.0
 11
1169.871906397881
 21
310.07775178650252
 31
0.0
  0
LINE
  5
6A4
  8
NOTE
  6
CONTINUOUS
 10
1969.74381039788
 20
-0.000002213497396
 30
0.0
 11
1389.9370083978811
 21
-0.000002213497396
 31
0.0
  0
TEXT
  5
6A5
  8
NOTE
  6
CONTINUOUS
 10
1415.1692193978811
 20
15.10229878650267
 30
0.0
 40
64.0
  1
AH 2-U cut
 41
0.9
  0
LINE
  5
6A6
  8
NOTE
  6
CONTINUOUS
 10
1389.9370083978811
 20
-0.000002213497396
 30
0.0
 11
1169.871906397881
 21
290.07775178650252
 31
0.0
  0
LINE
  5
6A7
  8
SIZE
  6
BYBLOCK
 10
1214.7137463978811
 20
290.07775178650252
 30
0.0
 11
1450.44446039788
 21
290.07775178650252
 31
0.0
  0
LINE
  5
6A8
  8
SIZE
  6
BYBLOCK
 10
1183.87190739788
 20
270.0777517865024
 30
0.0
 11
1183.87190739788
 21
65.361279786502621
 31
0.0
  0
LINE
  5
6A9
  8
SIZE
  6
BYBLOCK
 10
1169.87190739788
 20
250.0777517865026
 30
0.0
 11
1169.87190739788
 21
65.361279786502621
 31
0.0
  0
LINE
  5
6AA
  8
SIZE
  6
BYBLOCK
 10
1169.87190739788
 20
250.0777517865026
 30
0.0
 11
1169.87190739788
 21
65.361279786502621
 31
0.0
  0
CIRCLE
  5
6AB
  8
SIZE
  6
CONTINUOUS
 10
1169.87190739788
 20
95.361279786502593
 30
0.0
 40
6.0
  0
CIRCLE
  5
6AC
  8
SIZE
  6
CONTINUOUS
 10
1169.87190739788
 20
95.361279786502593
 30
0.0
 40
6.0
  0
CIRCLE
  5
6AD
  8
SIZE
  6
CONTINUOUS
 10
1183.87190739788
 20
95.361279786502593
 30
0.0
 40
6.0
  0
LINE
  5
6AE
  8
SIZE
  6
BYBLOCK
 10
1183.87190739788
 20
95.361279786502593
 30
0.0
 11
1169.87190739788
 21
95.361279786502593
 31
0.0
  0
LINE
  5
6AF
  8
SIZE
  6
BYBLOCK
 10
1167.87190739788
 20
95.361279786502593
 30
0.0
 11
1165.87190739788
 21
95.361279786502593
 31
0.0
  0
LINE
  5
6B0
  8
SIZE
  6
BYBLOCK
 10
1185.87190739788
 20
95.361279786502593
 30
0.0
 11
1187.87190739788
 21
95.361279786502593
 31
0.0
  0
TEXT
  5
6B1
  8
SIZE
  6
BYBLOCK
 10
1134.3576213978811
 20
127.36127978650261
 30
0.0
 40
64.0
  1
14
 41
0.9
  0
LINE
  5
6B2
  8
NOTE
  6
CONTINOUS
 10
1149.871906397881
 20
290.07775178650252
 30
0.0
 11
1189.871906397881
 21
290.07775178650252
 31
0.0
  0
LINE
  5
6B3
  8
NOTE
  6
CONTINUOUS
 10
1169.871906397881
 20
290.07775178650252
 30
0.0
 11
1184.97614639788
 21
253.0390967865026
 31
0.0
  0
LINE
  5
6B4
  8
NOTE
  6
CONTINUOUS
 10
1169.871906397881
 20
290.07775178650252
 30
0.0
 11
1201.47188939788
 21
265.55345678650241
 31
0.0
  0
TEXT
  5
6B5
  8
ETC
  6
CONTINUOUS
 10
1561.288518397879
 20
407.8032387865025
 30
0.0
 40
64.0
  1
SPUZ0824
 41
0.9
  0
LINE
  5
6B6
  8
SIZE
  6
BYBLOCK
 10
1420.44446039788
 20
1143.0777517865019
 30
0.0
 11
1420.44446039788
 21
717.57775178650252
 31
0.0
  0
LINE
  5
6B7
  8
OUTLINE
  6
CONTINUOUS
 10
1154.8719063978799
 20
1145.0777517865019
 30
0.0
 11
1154.8719063978799
 21
323.07775178650252
 31
0.0
  0
LINE
  5
6B8
  8
DETAIL
  6
CONTINOUS
 10
1154.8719063978799
 20
323.07775178650252
 30
0.0
 11
1154.8719063978799
 21
1145.0777517865019
 31
0.0
  0
LINE
  5
6B9
  8
SIZE
  6
BYBLOCK
 10
1420.44446039788
 20
292.07775178650252
 30
0.0
 11
1420.44446039788
 21
717.57775178650252
 31
0.0
  0
LINE
  5
6BA
  8
NOTE
  6
CONTINUOUS
 10
1124.871906397881
 20
323.07775178650252
 30
0.0
 11
1231.96219639788
 21
428.57361078650251
 31
0.0
  0
LINE
  5
6BB
  8
NOTE
  6
CONTINOUS
 10
1104.871906397881
 20
323.07775178650252
 30
0.0
 11
1144.871906397881
 21
323.07775178650252
 31
0.0
  0
POLYLINE
  5
6BC
  8
NOTE
  6
CONTINUOUS
 66
     1
 10
0.0
 20
0.0
 30
0.0
  0
VERTEX
  5
1136
  8
NOTE
  6
CONTINUOUS
 10
1145.1311663978811
 20
357.56778478650261
 30
0.0
  0
VERTEX
  5
1137
  8
NOTE
  6
CONTINUOUS
 10
1124.871906397881
 20
323.07775178650252
 30
0.0
  0
VERTEX
  5
1138
  8
NOTE
  6
CONTINUOUS
 10
1159.661957397881
 20
342.81736678650259
 30
0.0
  0
SEQEND
  5
1139
  8
NOTE
  6
CONTINUOUS
  0
LINE
  5
6C1
  8
NOTE
  6
CONTINOUS
 10
1124.871906397881
 20
303.07775178650257
 30
0.0
 11
1124.871906397881
 21
343.07775178650252
 31
0.0
  0
TEXT
  5
6C2
  8
NOTE
  6
CONTINUOUS
 10
1251.9401213978811
 20
438.44475178650248
 30
0.0
 40
64.0
  1
D
 41
0.9
  0
LINE
  5
6C3
  8
NOTE
  6
CONTINUOUS
 10
1231.96219639788
 20
428.57361078650251
 30
0.0
 11
1302.198482397881
 21
428.57361078650251
 31
0.0
  0
TEXT
  5
6C4
  8
NOTE
  6
CONTINUOUS
 10
1060.7086543978789
 20
635.63939678650252
 30
0.0
 40
64.0
  1
RG
 41
0.9
  0
LINE
  5
6C5
  8
NOTE
  6
CONTINUOUS
 10
1040.77148939788
 20
625.20405378650253
 30
0.0
 11
1180.455218397881
 21
625.20405378650253
 31
0.0
  0
TEXT
  5
6C6
  8
NOTE
  6
CONTINUOUS
 10
1060.92620539788
 20
822.17499278650257
 30
0.0
 40
64.0
  1
RL
 41
0.9
  0
LINE
  5
6C7
  8
NOTE
  6
CONTINUOUS
 10
1040.77148939788
 20
812.30385178650226
 30
0.0
 11
1170.35759939788
 21
812.30385178650226
 31
0.0
  0
TEXT
  5
6C8
  8
SIZE
  6
BYBLOCK
 10
1388.44446039788
 20
643.52060878650252
 30
0.0
 40
64.0
  1
855
 50
90.0
 41
0.9
  0
LINE
  5
6C9
  8
SIZE
  6
BYBLOCK
 10
1154.87190739788
 20
1165.0777517865019
 30
0.0
 11
1154.87190739788
 21
1422.5027517865019
 31
0.0
  0
LINE
  5
6CA
  8
SIZE
  6
BYBLOCK
 10
1203.87190739788
 20
1145.0777517865019
 30
0.0
 11
1450.44446039788
 21
1145.0777517865019
 31
0.0
  0
CIRCLE
  5
6CB
  8
SIZE
  6
CONTINUOUS
 10
1420.44446039788
 20
1145.0777517865019
 30
0.0
 40
6.0
  0
CIRCLE
  5
6CC
  8
SIZE
  6
CONTINUOUS
 10
1154.87190739788
 20
1392.5027517865019
 30
0.0
 40
6.0
  0
ENDBLK
  5
6CD
  8
0
  0
BLOCK
  8
0
  2
_ORIGIN
 70
     0
 10
0.0
 20
0.0
 30
0.0
  3
_ORIGIN
  1

  0
CIRCLE
  5
6D0
  8
0
  6
BYBLOCK
 62
     0
 10
0.0
 20
0.0
 30
0.0
 40
0.5
  0
LINE
  5
6D1
  8
0
  6
BYBLOCK
 62
     0
 10
0.0
 20
0.0
 30
0.0
 11
-1.0
 21
0.0
 31
0.0
  0
ENDBLK
  5
6D2
  8
0
  0
BLOCK
  8
0
  2
_ORIGIN2
 70
     0
 10
0.0
 20
0.0
 30
0.0
  3
_ORIGIN2
  1

  0
CIRCLE
  5
6D5
  8
0
  6
BYBLOCK
 62
     0
 10
0.0
 20
0.0
 30
0.0
 40
0.5
  0
CIRCLE
  5
6D6
  8
0
  6
BYBLOCK
 62
     0
 10
0.0
 20
0.0
 30
0.0
 40
0.25
  0
LINE
  5
6D7
  8
0
  6
BYBLOCK
 62
     0
 10
-0.5
 20
0.0
 30
0.0
 11
-1.0
 21
0.0
 31
0.0
  0
ENDBLK
  5
6D8
  8
0
  0
BLOCK
  8
0
  2
_DOTBLANK
 70
     0
 10
0.0
 20
0.0
 30
0.0
  3
_DOTBLANK
  1

  0
CIRCLE
  5
6DB
  8
0
  6
BYBLOCK
 62
     0
 10
0.0
 20
0.0
 30
0.0
 40
0.5
  0
LINE
  5
6DC
  8
0
  6
BYBLOCK
 62
     0
 10
-0.5
 20
0.0
 30
0.0
 11
-1.0
 21
0.0
 31
0.0
  0
ENDBLK
  5
6DD
  8
0
  0
BLOCK
  8
0
  2
*D6
 70
     1
 10
0.0
 20
0.0
 30
0.0
  3
*D6
  1

  0
LINE
  5
115E
  8
SIZE
  6
CONTINUOUS
 62
     0
 10
495.0
 20
22.999999999999989
 30
0.0
 11
617.48247724767032
 21
22.999999999999961
 31
0.0
  0
LINE
  5
115F
  8
SIZE
  6
CONTINUOUS
 62
     0
 10
340.0
 20
-0.0000000000000057
 30
0.0
 11
617.48247724767032
 21
-0.0000000000000843
 31
0.0
  0
LINE
  5
1160
  8
SIZE
  6
CONTINUOUS
 62
     0
 10
587.48247724767032
 20
12.99999999999997
 30
0.0
 11
587.48247724767032
 21
9.9999999999999254
 31
0.0
  0
TEXT
  8
0
  40
64
  5
117D
  62
0
  72
0
  71
0
 10
423.766
 20
-17.1347
 30
0.000000
  1
23
  0
INSERT
  5
1162
  8
SIZE
  6
CONTINUOUS
 62
     0
  2
_DOTBLANK
 10
587.48247724767032
 20
22.999999999999961
 30
0.0
 41
10.0
 42
10.0
 43
10.0
 50
90.0
  0
INSERT
  5
1163
  8
SIZE
  6
CONTINUOUS
 62
     0
  2
_DOTBLANK
 10
587.48247724767032
 20
-0.0000000000000758
 30
0.0
 41
10.0
 42
10.0
 43
10.0
 50
270.0
  0
POINT
  5
1164
  8
DEFPOINTS
  6
CONTINUOUS
 62
     0
 10
475.0
 20
23.0
 30
0.0
  0
POINT
  5
1165
  8
DEFPOINTS
  6
CONTINUOUS
 62
     0
 10
320.0
 20
0.0
 30
0.0
  0
POINT
  5
1166
  8
DEFPOINTS
  6
CONTINUOUS
 62
     0
 10
587.48247724767032
 20
-0.0000000000000758
 30
0.0
  0
ENDBLK
  5
100A
  8
0
  0
BLOCK
  8
0
  2
*D7
 70
     1
 10
0.0
 20
0.0
 30
0.0
  3
*D7
  1

  0
LINE
  5
1155
  8
SIZE
  6
CONTINUOUS
 62
     0
 10
340.0
 20
-0.0000000000000057
 30
0.0
 11
720.71520719633645
 21
-0.0000000000001135
 31
0.0
  0
LINE
  5
1156
  8
SIZE
  6
CONTINUOUS
 62
     0
 10
495.0
 20
1350.0
 30
0.0
 11
720.71520719633679
 21
1349.9999999999991
 31
0.0
  0
LINE
  5
1157
  8
SIZE
  6
CONTINUOUS
 62
     0
 10
690.71520719633645
 20
9.9999999999998952
 30
0.0
 11
690.71520719633668
 21
1339.9999999999991
 31
0.0
  0
TEXT
  8
0
  40
64
  5
117E
  62
0
  72
0
  71
0
 10
504.720
 20
559.518
 30
0.000000
  1
1350
  0
INSERT
  5
1159
  8
SIZE
  6
CONTINUOUS
 62
     0
  2
_DOTBLANK
 10
690.71520719633645
 20
-0.000000000000105
 30
0.0
 41
10.0
 42
10.0
 43
10.0
 50
270.0
  0
INSERT
  5
115A
  8
SIZE
  6
CONTINUOUS
 62
     0
  2
_DOTBLANK
 10
690.71520719633668
 20
1349.9999999999991
 30
0.0
 41
10.0
 42
10.0
 43
10.0
 50
90.0
  0
POINT
  5
115B
  8
DEFPOINTS
  6
CONTINUOUS
 62
     0
 10
320.0
 20
0.0
 30
0.0
  0
POINT
  5
115C
  8
DEFPOINTS
  6
CONTINUOUS
 62
     0
 10
475.0
 20
1350.0
 30
0.0
  0
POINT
  5
115D
  8
DEFPOINTS
  6
CONTINUOUS
 62
     0
 10
690.71520719633668
 20
1349.9999999999991
 30
0.0
  0
ENDBLK
  5
1017
  8
0
  0
BLOCK
  8
0
  2
*D8
 70
     1
 10
0.0
 20
0.0
 30
0.0
  3
*D8
  1

  0
LINE
  5
114C
  8
SIZE
  6
CONTINUOUS
 62
     0
 10
300.0
 20
-40.0
 30
0.0
 11
300.0
 21
-436.34640411009718
 31
0.0
  0
LINE
  5
114D
  8
SIZE
  6
CONTINUOUS
 62
     0
 10
475.0
 20
3.0
 30
0.0
 11
475.0
 21
-436.34640411009718
 31
0.0
  0
LINE
  5
114E
  8
SIZE
  6
CONTINUOUS
 62
     0
 10
310.0
 20
-406.3464041100973
 30
0.0
 11
465.0
 21
-406.3464041100973
 31
0.0
  0
TEXT
  8
0
  40
64
  5
117F
  62
0
  72
0
  71
0
 10
244.992
 20
-475.759
 30
0.000000
  1
175
  0
INSERT
  5
1150
  8
SIZE
  6
CONTINUOUS
 62
     0
  2
_DOTBLANK
 10
300.0
 20
-406.3464041100973
 30
0.0
 41
10.0
 42
10.0
 43
10.0
 50
180.0
  0
INSERT
  5
1151
  8
SIZE
  6
CONTINUOUS
 62
     0
  2
_DOTBLANK
 10
475.0
 20
-406.3464041100973
 30
0.0
 41
10.0
 42
10.0
 43
10.0
  0
POINT
  5
1152
  8
DEFPOINTS
  6
CONTINUOUS
 62
     0
 10
300.0
 20
-20.0
 30
0.0
  0
POINT
  5
1153
  8
DEFPOINTS
  6
CONTINUOUS
 62
     0
 10
475.0
 20
23.0
 30
0.0
  0
POINT
  5
1154
  8
DEFPOINTS
  6
CONTINUOUS
 62
     0
 10
475.0
 20
-406.3464041100973
 30
0.0
  0
ENDBLK
  5
1023
  8
0
  0
BLOCK
  8
0
  2
*D9
 70
     1
 10
0.0
 20
0.0
 30
0.0
  3
*D9
  1

  0
LINE
  5
1143
  8
SIZE
  6
CONTINUOUS
 62
     0
 10
-475.0
 20
3.0
 30
0.0
 11
-475.0
 21
-573.01396200505167
 31
0.0
  0
LINE
  5
1144
  8
SIZE
  6
CONTINUOUS
 62
     0
 10
475.0
 20
3.0
 30
0.0
 11
474.99999999999989
 21
-573.01396200505167
 31
0.0
  0
LINE
  5
1145
  8
SIZE
  6
CONTINUOUS
 62
     0
 10
-465.0
 20
-543.01396200505178
 30
0.0
 11
464.99999999999989
 21
-543.01396200505178
 31
0.0
  0
TEXT
  8
0
  40
64
  5
1180
  62
0
  72
0
  71
0
 10
-126.048
 20
-607.277
 30
0.000000
  1
950
  0
INSERT
  5
1147
  8
SIZE
  6
CONTINUOUS
 62
     0
  2
_DOTBLANK
 10
-475.0
 20
-543.01396200505178
 30
0.0
 41
10.0
 42
10.0
 43
10.0
 50
180.0
  0
INSERT
  5
1148
  8
SIZE
  6
CONTINUOUS
 62
     0
  2
_DOTBLANK
 10
474.99999999999989
 20
-543.01396200505178
 30
0.0
 41
10.0
 42
10.0
 43
10.0
  0
POINT
  5
1149
  8
DEFPOINTS
  6
CONTINUOUS
 62
     0
 10
-475.0
 20
23.0
 30
0.0
  0
POINT
  5
114A
  8
DEFPOINTS
  6
CONTINUOUS
 62
     0
 10
475.0
 20
23.0
 30
0.0
  0
POINT
  5
114B
  8
DEFPOINTS
  6
CONTINUOUS
 62
     0
 10
474.99999999999989
 20
-543.01396200505178
 30
0.0
  0
ENDBLK
  5
102F
  8
0
  0
BLOCK
  8
0
  2
*D10
 70
     1
 10
0.0
 20
0.0
 30
0.0
  3
*D10
  1

  0
LINE
  5
113A
  8
SIZE
  6
CONTINUOUS
 62
     0
 10
475.0
 20
1370.0
 30
0.0
 11
475.0
 21
1499.8462449481899
 31
0.0
  0
LINE
  5
113B
  8
SIZE
  6
CONTINUOUS
 62
     0
 10
-475.0
 20
1370.0
 30
0.0
 11
-475.0
 21
1499.8462449481899
 31
0.0
  0
LINE
  5
113C
  8
SIZE
  6
CONTINUOUS
 62
     0
 10
465.0
 20
1469.846244948191
 30
0.0
 11
-465.0
 21
1469.846244948191
 31
0.0
  0
TEXT
  8
0
  40
64
  5
1181
  62
0
  72
0
  71
0
 10
-112.556
 20
1405.95
 30
0.000000
  1
950
  0
INSERT
  5
113E
  8
SIZE
  6
CONTINUOUS
 62
     0
  2
_DOTBLANK
 10
475.0
 20
1469.846244948191
 30
0.0
 41
10.0
 42
10.0
 43
10.0
  0
INSERT
  5
113F
  8
SIZE
  6
CONTINUOUS
 62
     0
  2
_DOTBLANK
 10
-475.0
 20
1469.846244948191
 30
0.0
 41
10.0
 42
10.0
 43
10.0
 50
180.0
  0
POINT
  5
1140
  8
DEFPOINTS
  6
CONTINUOUS
 62
     0
 10
475.0
 20
1350.0
 30
0.0
  0
POINT
  5
1141
  8
DEFPOINTS
  6
CONTINUOUS
 62
     0
 10
-475.0
 20
1350.0
 30
0.0
  0
POINT
  5
1142
  8
DEFPOINTS
  6
CONTINUOUS
 62
     0
 10
-475.0
 20
1469.846244948191
 30
0.0
  0
ENDBLK
  5
103C
  8
0
  0
BLOCK
  8
0
  2
*D11
 70
     1
 10
0.0
 20
0.0
 30
0.0
  3
*D11
  1

  0
LINE
  5
1170
  8
SIZE
  6
CONTINUOUS
 62
     0
 10
300.0
 20
-40.0
 30
0.0
 11
300.0
 21
-436.34640411009718
 31
0.0
  0
LINE
  5
1171
  8
SIZE
  6
CONTINUOUS
 62
     0
 10
-300.0
 20
-40.0
 30
0.0
 11
-300.0
 21
-436.34640411009718
 31
0.0
  0
LINE
  5
1172
  8
SIZE
  6
CONTINUOUS
 62
     0
 10
290.0
 20
-406.3464041100973
 30
0.0
 11
-290.0
 21
-406.3464041100973
 31
0.0
  0
TEXT
  8
0
  40
64
  5
1182
  62
0
  72
0
  71
0
 10
-119.302
 20
-475.759
 30
0.000000
  1
600
  0
INSERT
  5
1174
  8
SIZE
  6
CONTINUOUS
 62
     0
  2
_DOTBLANK
 10
300.0
 20
-406.3464041100973
 30
0.0
 41
10.0
 42
10.0
 43
10.0
  0
INSERT
  5
1175
  8
SIZE
  6
CONTINUOUS
 62
     0
  2
_DOTBLANK
 10
-300.0
 20
-406.3464041100973
 30
0.0
 41
10.0
 42
10.0
 43
10.0
 50
180.0
  0
POINT
  5
1176
  8
DEFPOINTS
  6
CONTINUOUS
 62
     0
 10
300.0
 20
-20.0
 30
0.0
  0
POINT
  5
1177
  8
DEFPOINTS
  6
CONTINUOUS
 62
     0
 10
-300.0
 20
-20.0
 30
0.0
  0
POINT
  5
1178
  8
DEFPOINTS
  6
CONTINUOUS
 62
     0
 10
-300.0
 20
-406.3464041100973
 30
0.0
  0
ENDBLK
  5
1048
  8
0
  0
BLOCK
  8
0
  2
*D12
 70
     1
 10
0.0
 20
0.0
 30
0.0
  3
*D12
  1

  0
LINE
  5
1167
  8
SIZE
  6
CONTINUOUS
 62
     0
 10
-300.0
 20
-40.0
 30
0.0
 11
-300.0
 21
-436.34640411009718
 31
0.0
  0
LINE
  5
1168
  8
SIZE
  6
CONTINUOUS
 62
     0
 10
-475.0
 20
3.0
 30
0.0
 11
-475.0
 21
-436.34640411009718
 31
0.0
  0
LINE
  5
1169
  8
SIZE
  6
CONTINUOUS
 62
     0
 10
-310.0
 20
-406.3464041100973
 30
0.0
 11
-465.0
 21
-406.3464041100973
 31
0.0
  0
TEXT
  8
0
  40
64
  5
1183
  62
0
  72
0
  71
0
 10
-517.327
 20
-475.759
 30
0.000000
  1
175
  0
INSERT
  5
116B
  8
SIZE
  6
CONTINUOUS
 62
     0
  2
_DOTBLANK
 10
-300.0
 20
-406.3464041100973
 30
0.0
 41
10.0
 42
10.0
 43
10.0
  0
INSERT
  5
116C
  8
SIZE
  6
CONTINUOUS
 62
     0
  2
_DOTBLANK
 10
-475.0
 20
-406.3464041100973
 30
0.0
 41
10.0
 42
10.0
 43
10.0
 50
180.0
  0
POINT
  5
116D
  8
DEFPOINTS
  6
CONTINUOUS
 62
     0
 10
-300.0
 20
-20.0
 30
0.0
  0
POINT
  5
116E
  8
DEFPOINTS
  6
CONTINUOUS
 62
     0
 10
-475.0
 20
23.0
 30
0.0
  0
POINT
  5
116F
  8
DEFPOINTS
  6
CONTINUOUS
 62
     0
 10
-475.0
 20
-406.3464041100973
 30
0.0
  0
ENDBLK
  5
1054
  8
0
  0
ENDSEC
  0
SECTION
  2
ENTITIES
  0
TEXT
  5
B57
  8
ETC
  6
CONTINUOUS
 10
1212.7274153972619
 20
-350.703459056778
 30
0.0
 40
64.0
  1
SMPU2953
 41
0.9
  0
TEXT
  5
B58
  8
ETC
  6
CONTINUOUS
 10
1224.5501583972621
 20
-469.87006005677802
 30
0.0
 40
64.0
  1
室外機
 41
0.9
  0
DIMENSION
  5
B59
  8
SIZE
  6
CONTINUOUS
  2
*D10
 10
-475.0
 20
1469.846244948191
 30
0.0
 11
15.444168030129729
 21
1519.2305982789121
 31
0.0
 70
   128
 13
475.0
 23
1350.0
 33
0.0
 14
-475.0
 24
1350.0
 34
0.0
 50
180.0
1001
ACAD
1000
DSTYLE
1002
{
1070
     6
1000
DOTBLANK
1070
     7
1000
DOTBLANK
1070
    41
1040
10.0
1070
    42
1040
20.0
1070
    43
1040
200.0
1070
    44
1040
30.0
1070
    73
1070
     0
1070
    74
1070
     0
1070
    77
1070
     1
1070
    78
1070
     8
1070
   140
1040
64.0
1070
   172
1070
     1
1070
   173
1070
     1
1002
}
  0
DIMENSION
  5
B5A
  8
SIZE
  6
CONTINUOUS
  2
*D9
 10
474.99999999999989
 20
-543.01396200505178
 30
0.0
 11
1.951796949651907
 21
-493.99666213874929
 31
0.0
 70
   128
 13
-475.0
 23
23.0
 33
0.0
 14
475.0
 24
23.0
 34
0.0
 50
180.0
1001
ACAD
1000
DSTYLE
1002
{
1070
     6
1000
DOTBLANK
1070
     7
1000
DOTBLANK
1070
    41
1040
10.0
1070
    42
1040
20.0
1070
    43
1040
200.0
1070
    44
1040
30.0
1070
    73
1070
     0
1070
    74
1070
     0
1070
    77
1070
     1
1070
    78
1070
     8
1070
   140
1040
64.0
1070
   172
1070
     1
1070
   173
1070
     1
1002
}
  0
DIMENSION
  5
B5B
  8
SIZE
  6
CONTINUOUS
  2
*D8
 10
475.0
 20
-406.3464041100973
 30
0.0
 11
372.99202701422467
 21
-362.47930111483311
 31
0.0
 70
   128
 13
300.0
 23
-20.0
 33
0.0
 14
475.0
 24
23.0
 34
0.0
 50
180.0
1001
ACAD
1000
DSTYLE
1002
{
1070
     6
1000
DOTBLANK
1070
     7
1000
DOTBLANK
1070
    41
1040
10.0
1070
    42
1040
20.0
1070
    43
1040
200.0
1070
    44
1040
30.0
1070
    73
1070
     0
1070
    74
1070
     0
1070
    77
1070
     1
1070
    78
1070
     8
1070
   140
1040
64.0
1070
   172
1070
     1
1070
   173
1070
     1
1002
}
  0
LINE
  5
B5C
  8
NOTE
  6
CONTINUOUS
 10
300.0
 20
0.0
 30
0.0
 11
530.54007180849749
 21
-274.23268227694132
 31
0.0
  0
DIMENSION
  5
B5D
  8
SIZE
  6
CONTINUOUS
  2
*D7
 10
690.71520719633668
 20
1349.9999999999991
 30
0.0
 11
632.7201914396137
 21
672.79836565528956
 31
0.0
 70
   128
 13
320.0
 23
0.0
 33
0.0
 14
475.0
 24
1350.0
 34
0.0
 50
90.0
1001
ACAD
1000
DSTYLE
1002
{
1070
     6
1000
DOTBLANK
1070
     7
1000
DOTBLANK
1070
    41
1040
10.0
1070
    42
1040
20.0
1070
    43
1040
200.0
1070
    44
1040
30.0
1070
    73
1070
     0
1070
    74
1070
     0
1070
    77
1070
     1
1070
    78
1070
     8
1070
   140
1040
64.0
1070
   172
1070
     1
1070
   173
1070
     1
1002
}
  0
DIMENSION
  5
B5E
  8
SIZE
  6
CONTINUOUS
  2
*D6
 10
587.48247724767032
 20
-0.0000000000000758
 30
0.0
 11
551.76595650627132
 21
96.145330363063294
 31
0.0
 70
   128
 13
475.0
 23
23.0
 33
0.0
 14
320.0
 24
0.0
 34
0.0
 50
90.0
1001
ACAD
1000
DSTYLE
1002
{
1070
     6
1000
DOTBLANK
1070
     7
1000
DOTBLANK
1070
    41
1040
10.0
1070
    42
1040
20.0
1070
    43
1040
200.0
1070
    44
1040
30.0
1070
    73
1070
     0
1070
    74
1070
     0
1070
    77
1070
     1
1070
    78
1070
     8
1070
   140
1040
64.0
1070
   172
1070
     1
1070
   173
1070
     1
1002
}
  0
LINE
  5
B5F
  8
DETAIL
  6
CONTINUOUS
 10
-475.0
 20
23.0
 30
0.0
 11
475.0
 21
23.0
 31
0.0
  0
LINE
  5
B60
  8
DETAIL
  6
CONTINOUS
 10
475.0
 20
23.0
 30
0.0
 11
475.0
 21
1350.0
 31
0.0
  0
DIMENSION
  5
B61
  8
SIZE
  6
CONTINUOUS
  2
*D12
 10
-475.0
 20
-406.3464041100973
 30
0.0
 11
-389.32699818610757
 21
-362.47930111483311
 31
0.0
 70
   128
 13
-300.0
 23
-20.0
 33
0.0
 14
-475.0
 24
23.0
 34
0.0
 50
180.0
1001
ACAD
1000
DSTYLE
1002
{
1070
     6
1000
DOTBLANK
1070
     7
1000
DOTBLANK
1070
    41
1040
10.0
1070
    42
1040
20.0
1070
    43
1040
200.0
1070
    44
1040
30.0
1070
    73
1070
     0
1070
    74
1070
     0
1070
    77
1070
     1
1070
    78
1070
     8
1070
   140
1040
64.0
1070
   172
1070
     1
1070
   173
1070
     1
1002
}
  0
LINE
  5
B62
  8
BASIS
  6
DASHDOT
 10
0.0
 20
1419.6539315756199
 30
0.0
 11
0.0
 21
-80.029089744999965
 31
0.0
  0
LINE
  5
B63
  8
DETAIL
  6
CONTINOUS
 10
-316.0
 20
22.999999999999542
 30
0.0
 11
-316.0
 21
0.0
 31
0.0
  0
LINE
  5
B64
  8
DETAIL
  6
CONTINOUS
 10
-284.0
 20
22.999999999999542
 30
0.0
 11
-284.0
 21
0.0
 31
0.0
  0
CIRCLE
  5
B65
  8
FIX
  6
CONTINUOUS
 10
-300.0
 20
0.0
 30
0.0
 40
40.0
  0
CIRCLE
  5
B66
  8
ARRANGE
  6
CONTINUOUS
 10
0.0
 20
0.0
 30
0.0
 40
40.0
  0
LINE
  5
B67
  8
DETAIL
  6
CONTINOUS
 10
316.0
 20
22.999999999999542
 30
0.0
 11
316.0
 21
0.0
 31
0.0
  0
LINE
  5
B68
  8
DETAIL
  6
CONTINOUS
 10
284.0
 20
22.999999999999542
 30
0.0
 11
284.0
 21
0.0
 31
0.0
  0
CIRCLE
  5
B69
  8
FIX
  6
CONTINUOUS
 10
300.0
 20
0.0
 30
0.0
 40
40.0
  0
POINT
  5
B6A
  8
ARRANGE
  6
CONTINUOUS
 10
0.0
 20
0.0
 30
0.0
  0
DIMENSION
  5
B6B
  8
SIZE
  6
CONTINUOUS
  2
*D11
 10
-300.0
 20
-406.3464041100973
 30
0.0
 11
8.6979824898917286
 21
-362.47930111483311
 31
0.0
 70
   128
 13
300.0
 23
-20.0
 33
0.0
 14
-300.0
 24
-20.0
 34
0.0
 50
180.0
1001
ACAD
1000
DSTYLE
1002
{
1070
     6
1000
DOTBLANK
1070
     7
1000
DOTBLANK
1070
    41
1040
10.0
1070
    42
1040
20.0
1070
    43
1040
200.0
1070
    44
1040
30.0
1070
    73
1070
     0
1070
    74
1070
     0
1070
    77
1070
     1
1070
    78
1070
     8
1070
   140
1040
64.0
1070
   172
1070
     1
1070
   173
1070
     1
1002
}
  0
POLYLINE
  5
B6C
  8
NOTE
  6
CONTINUOUS
 66
     1
 10
0.0
 20
0.0
 30
0.0
  0
VERTEX
  5
1179
  8
NOTE
  6
CONTINUOUS
 10
317.21532719432162
 20
-36.105851700936903
 30
0.0
  0
VERTEX
  5
117A
  8
NOTE
  6
CONTINUOUS
 10
300.0
 20
0.0
 30
0.0
  0
VERTEX
  5
117B
  8
NOTE
  6
CONTINUOUS
 10
332.96183612112873
 20
-22.660921497029889
 30
0.0
  0
SEQEND
  5
117C
  8
NOTE
  6
CONTINUOUS
  0
LINE
  5
B71
  8
NOTE
  6
CONTINOUS
 10
300.0
 20
20.0
 30
0.0
 11
300.0
 21
-20.0
 31
0.0
  0
LINE
  5
B72
  8
DETAIL
  6
CONTINOUS
 10
316.0
 20
0.0
 30
0.0
 11
284.0
 21
0.0
 31
0.0
  0
LINE
  5
B73
  8
NOTE
  6
CONTINOUS
 10
320.0
 20
0.0
 30
0.0
 11
280.0
 21
0.0
 31
0.0
  0
LINE
  5
B74
  8
NOTE
  6
CONTINOUS
 10
-300.0
 20
20.0
 30
0.0
 11
-300.0
 21
-20.0
 31
0.0
  0
LINE
  5
B75
  8
NOTE
  6
CONTINOUS
 10
-280.0
 20
0.0
 30
0.0
 11
-320.0
 21
0.0
 31
0.0
  0
LINE
  5
B76
  8
DETAIL
  6
CONTINOUS
 10
-284.0
 20
0.0
 30
0.0
 11
-316.0
 21
0.0
 31
0.0
  0
LINE
  5
B7A
  8
NOTE
  6
CONTINOUS
 10
-275.0
 20
1049.0
 30
0.0
 11
-275.0
 21
1089.0
 31
0.0
  0
LINE
  5
B7B
  8
NOTE
  6
CONTINOUS
 10
-295.0
 20
1069.0
 30
0.0
 11
-255.0
 21
1069.0
 31
0.0
  0
LINE
  5
B7C
  8
DETAIL
  6
CONTINOUS
 10
-475.0
 20
23.0
 30
0.0
 11
-475.0
 21
1350.0
 31
0.0
  0
LINE
  5
B7E
  8
NOTE
  6
CONTINUOUS
 10
1074.146313300688
 20
-274.23268227694132
 30
0.0
 11
530.54007180849749
 21
-274.23268227694132
 31
0.0
  0
TEXT
  5
B7F
  8
NOTE
  6
CONTINUOUS
 10
555.77228337992585
 20
-259.13038127694142
 30
0.0
 40
64.0
  1
AH 2-U cut
 41
0.9
  0
LINE
  5
B80
  8
DETAIL
  6
CONTINUOUS
 10
-475.0
 20
1350.0
 30
0.0
 11
475.0
 21
1350.0
 31
0.0
  0
LINE
  5
B81
  8
OUTLINE
 10
-475.0
 20
23.000000000000451
 30
0.0
 11
-475.0
 21
1350.0
 31
0.0
  0
LINE
  5
B82
  8
OUTLINE
 10
475.0
 20
23.000000000000451
 30
0.0
 11
475.0
 21
1350.0
 31
0.0
  0
LINE
  5
B83
  8
OUTLINE
 10
-475.0
 20
23.000000000000451
 30
0.0
 11
475.0
 21
23.000000000000451
 31
0.0
  0
LINE
  5
B84
  8
OUTLINE
 10
-284.0
 20
0.0000000000004547
 30
0.0
 11
-316.0
 21
0.0000000000004547
 31
0.0
  0
LINE
  5
B85
  8
OUTLINE
 10
-316.0
 20
22.999999999998629
 30
0.0
 11
-316.0
 21
0.0000000000004547
 31
0.0
  0
LINE
  5
B86
  8
OUTLINE
 10
-284.0
 20
22.999999999998629
 30
0.0
 11
-284.0
 21
0.0000000000004547
 31
0.0
  0
LINE
  5
B87
  8
OUTLINE
 10
316.0
 20
0.0000000000004547
 30
0.0
 11
284.0
 21
0.0000000000004547
 31
0.0
  0
LINE
  5
B88
  8
OUTLINE
 10
284.0
 20
22.999999999998629
 30
0.0
 11
284.0
 21
0.0000000000004547
 31
0.0
  0
LINE
  5
B89
  8
OUTLINE
 10
316.0
 20
22.999999999998629
 30
0.0
 11
316.0
 21
0.0000000000004547
 31
0.0
  0
LINE
  5
B8A
  8
OUTLINE
 10
-475.0
 20
1350.0
 30
0.0
 11
475.0
 21
1350.0
 31
0.0
  0
LINE
  5
DB2
  8
NOTE
  6
CONTINOUS
 10
-452.0
 20
441.0
 30
0.0
 11
-412.0
 21
441.0
 31
0.0
  0
LINE
  5
DB3
  8
NOTE
  6
CONTINOUS
 10
-377.0
 20
427.0
 30
0.0
 11
-377.0
 21
467.0
 31
0.0
  0
LINE
  5
DB5
  8
NOTE
  6
CONTINOUS
 10
-397.0
 20
447.0
 30
0.0
 11
-357.0
 21
447.0
 31
0.0
  0
LINE
  5
DB6
  8
NOTE
  6
CONTINOUS
 10
-432.0
 20
421.0
 30
0.0
 11
-432.0
 21
461.0
 31
0.0
  0
ENDSEC
  0
EOF
