  0
SECTION
  2
HEADER
  9
$ACADVER
  1
AC1009
  9
$INSBASE
 10
0.0
 20
0.0
 30
0.0
  9
$EXTMIN
 10
-984.87190399999884
 20
-500.47583155258081
 30
0.0
  9
$EXTMAX
 10
1627.8835292953711
 20
1729.4803637773391
 30
0.0
  9
$LIMMIN
 10
-1471.3585017272719
 20
-797.35051754185758
  9
$LIMMAX
 10
1979.2590565552071
 20
1939.8526120341339
  9
$ORTHOMODE
 70
     1
  9
$REGENMODE
 70
     1
  9
$FILLMODE
 70
     1
  9
$QTEXTMODE
 70
     0
  9
$MIRRTEXT
 70
     0
  9
$DRAGMODE
 70
     2
  9
$LTSCALE
 40
20.0
  9
$OSMODE
 70
    37
  9
$ATTMODE
 70
     1
  9
$TEXTSIZE
 40
64.0
  9
$TRACEWID
 40
0.05
  9
$TEXTSTYLE
  7
STANDARD
  9
$CLAYER
  8
SIZE
  9
$CELTYPE
  6
CONTINUOUS
  9
$CECOLOR
 62
   256
  9
$DIMSCALE
 40
1.0
  9
$DIMASZ
 40
10.0
  9
$DIMEXO
 40
20.0
  9
$DIMDLI
 40
200.0
  9
$DIMRND
 40
0.0
  9
$DIMDLE
 40
0.0
  9
$DIMEXE
 40
30.0
  9
$DIMTP
 40
0.0
  9
$DIMTM
 40
0.0
  9
$DIMTXT
 40
64.0
  9
$DIMCEN
 40
0.0
  9
$DIMTSZ
 40
0.0
  9
$DIMTOL
 70
     0
  9
$DIMLIM
 70
     0
  9
$DIMTIH
 70
     0
  9
$DIMTOH
 70
     0
  9
$DIMSE1
 70
     0
  9
$DIMSE2
 70
     0
  9
$DIMTAD
 70
     1
  9
$DIMZIN
 70
     8
  9
$DIMBLK
  1
DOTBLANK
  9
$DIMASO
 70
     1
  9
$DIMSHO
 70
     0
  9
$DIMPOST
  1

  9
$DIMAPOST
  1

  9
$DIMALT
 70
     0
  9
$DIMALTD
 70
     2
  9
$DIMALTF
 40
25.399999999999999
  9
$DIMLFAC
 40
1.0
  9
$DIMTOFL
 70
     1
  9
$DIMTVP
 40
0.0
  9
$DIMTIX
 70
     0
  9
$DIMSOXD
 70
     0
  9
$DIMSAH
 70
     0
  9
$DIMBLK1
  1

  9
$DIMBLK2
  1

  9
$DIMSTYLE
  2
STANDARD
  9
$DIMCLRD
 70
     0
  9
$DIMCLRE
 70
     0
  9
$DIMCLRT
 70
     0
  9
$DIMTFAC
 40
1.0
  9
$DIMGAP
 40
0.09
  9
$LUNITS
 70
     2
  9
$LUPREC
 70
     4
  9
$SKETCHINC
 40
0.1
  9
$FILLETRAD
 40
6.0
  9
$AUNITS
 70
     1
  9
$AUPREC
 70
     3
  9
$MENU
  1
ACAD
  9
$ELEVATION
 40
0.0
  9
$PELEVATION
 40
0.0
  9
$THICKNESS
 40
0.0
  9
$LIMCHECK
 70
     0
  9
$BLIPMODE
 70
     0
  9
$CHAMFERA
 40
0.0
  9
$CHAMFERB
 40
0.0
  9
$SKPOLY
 70
     0
  9
$TDCREATE
 40
2450330.3932059952
  9
$TDUPDATE
 40
2453256.5871327082
  9
$TDINDWG
 40
0.2270376042
  9
$TDUSRTIMER
 40
0.2270373727
  9
$USRTIMER
 70
     1
  9
$ANGBASE
 50
0.0
  9
$ANGDIR
 70
     0
  9
$PDMODE
 70
     3
  9
$PDSIZE
 40
-2.0
  9
$PLINEWID
 40
0.0
  9
$COORDS
 70
     1
  9
$SPLFRAME
 70
     0
  9
$SPLINETYPE
 70
     6
  9
$SPLINESEGS
 70
     8
  9
$ATTDIA
 70
     0
  9
$ATTREQ
 70
     1
  9
$HANDLING
 70
-16383
  9
$HANDSEED
  5
13F4
  9
$SURFTAB1
 70
     6
  9
$SURFTAB2
 70
     6
  9
$SURFTYPE
 70
     6
  9
$SURFU
 70
     6
  9
$SURFV
 70
     6
  9
$UCSNAME
  2

  9
$UCSORG
 10
0.0
 20
0.0
 30
0.0
  9
$UCSXDIR
 10
1.0
 20
0.0
 30
0.0
  9
$UCSYDIR
 10
0.0
 20
1.0
 30
0.0
  9
$PUCSNAME
  2

  9
$PUCSORG
 10
0.0
 20
0.0
 30
0.0
  9
$PUCSXDIR
 10
1.0
 20
0.0
 30
0.0
  9
$PUCSYDIR
 10
0.0
 20
1.0
 30
0.0
  9
$USERI1
 70
     0
  9
$USERI2
 70
     0
  9
$USERI3
 70
     0
  9
$USERI4
 70
     0
  9
$USERI5
 70
     0
  9
$USERR1
 40
20.0
  9
$USERR2
 40
0.0
  9
$USERR3
 40
0.0
  9
$USERR4
 40
0.0
  9
$USERR5
 40
0.0
  9
$WORLDVIEW
 70
     1
  9
$SHADEDGE
 70
     3
  9
$SHADEDIF
 70
    70
  9
$TILEMODE
 70
     1
  9
$MAXACTVP
 70
    64
  9
$PLIMCHECK
 70
     0
  9
$PEXTMIN
 10
1.0000000000000000E+020
 20
1.0000000000000000E+020
 30
1.0000000000000000E+020
  9
$PEXTMAX
 10
-1.0000000000000000E+020
 20
-1.0000000000000000E+020
 30
-1.0000000000000000E+020
  9
$PLIMMIN
 10
0.0
 20
0.0
  9
$PLIMMAX
 10
12.0
 20
9.0
  9
$UNITMODE
 70
     0
  9
$VISRETAIN
 70
     1
  9
$PLINEGEN
 70
     0
  9
$PSLTSCALE
 70
     1
  0
ENDSEC
  0
SECTION
  2
TABLES
  0
TABLE
  2
VPORT
 70
     2
  0
VPORT
  2
*ACTIVE
 70
     0
 10
0.0
 20
0.0
 11
1.0
 21
1.0
 12
292.83521316480051
 22
446.6037434599009
 13
0.0
 23
0.0
 14
50.0
 24
50.0
 15
100.0
 25
100.0
 16
0.0
 26
0.0
 36
1.0
 17
0.0
 27
0.0
 37
0.0
 40
2900.0108691279702
 41
1.2721893491124261
 42
50.0
 43
0.0
 44
0.0
 50
0.0
 51
0.0
 71
     0
 72
   500
 73
     1
 74
     0
 75
     0
 76
     0
 77
     0
 78
     0
  0
ENDTAB
  0
TABLE
  2
LTYPE
 70
    10
  0
LTYPE
  2
ByBlock
 70
     0
  3

 72
    65
 73
     0
 40
0.0
  0
LTYPE
  2
ByLayer
 70
     0
  3

 72
    65
 73
     0
 40
0.0
  0
LTYPE
  2
CONTINUOUS
 70
     0
  3
実線
 72
    65
 73
     0
 40
0.0
  0
LTYPE
  2
DASHDOT
 70
     0
  3
____ _ ____ _ ____ _ ____ _ ____ _ ____ _ ____
 72
    65
 73
     4
 40
5.5
 49
4.0
 49
-0.6
 49
0.3
 49
-0.6
  0
LTYPE
  2
CONTINOUS
 70
     0
  3
Solid line
 72
    65
 73
     0
 40
0.0
  0
LTYPE
  2
DASHED
 70
     0
  3
_ _ _ _ _ _ _ _ _ _ _ _ _ _ _ _ _ _ _ _ _ _ _
 72
    65
 73
     2
 40
2.0
 49
1.1999999999999991
 49
-0.8
  0
LTYPE
  2
DOT
 70
     0
  3
...............................................
 72
    65
 73
     2
 40
0.8
 49
0.5
 49
-0.3
  0
LTYPE
  2
DASHDOT1
 70
     0
  3
____ _ ____ _ ____ _ ____ _ ____ _ ____ _ ____
 72
    65
 73
     4
 40
2.0
 49
1.5
 49
-0.2
 49
0.1
 49
-0.2
  0
LTYPE
  2
DIVIDE
 70
     0
  3
_____ _ _ _____ _ _ _____ _ _ _____ _ _ ____
 72
    65
 73
     6
 40
6.4000000000000004
 49
4.0
 49
-0.6
 49
0.3
 49
-0.6
 49
0.3
 49
-0.6
  0
LTYPE
  2
DIVIDE1
 70
     0
  3
_____ _ _ _____ _ _ _____ _ _ _____ _ _ ____
 72
    65
 73
     6
 40
3.2000000000000002
 49
2.0
 49
-0.3
 49
0.15
 49
-0.3
 49
0.15
 49
-0.3
  0
ENDTAB
  0
TABLE
  2
LAYER
 70
    12
  0
LAYER
  2
0
 70
     0
 62
     7
  6
CONTINUOUS
  0
LAYER
  2
SIZE
 70
     0
 62
    32
  6
CONTINUOUS
  0
LAYER
  2
DETAIL
 70
     0
 62
     5
  6
CONTINUOUS
  0
LAYER
  2
OUTLINE
 70
     0
 62
     3
  6
CONTINUOUS
  0
LAYER
  2
BASIS
 70
     0
 62
     6
  6
CONTINUOUS
  0
LAYER
  2
NOTE
 70
     0
 62
     4
  6
CONTINUOUS
  0
LAYER
  2
ARRANGE
 70
     0
 62
     1
  6
CONTINUOUS
  0
LAYER
  2
FIX
 70
     0
 62
   241
  6
CONTINUOUS
  0
LAYER
  2
ETC
 70
     0
 62
    83
  6
CONTINUOUS
  0
LAYER
  2
SERVICESPACE
 70
     0
 62
     2
  6
CONTINUOUS
  0
LAYER
  2
SYMBOLLINE
 70
     0
 62
    38
  6
CONTINUOUS
  0
LAYER
  2
DEFPOINTS
 70
     0
 62
     7
  6
CONTINUOUS
  0
ENDTAB
  0
TABLE
  2
STYLE
 70
     2
  0
STYLE
  2
STANDARD
 70
     0
 40
0.0
 41
0.9
 50
0.0
 71
     0
 42
64.0
  3
SIMPLEX
  4
BIGFONT
  0
STYLE
  2
STANDARD1
 70
     0
 40
0.0
 41
1.0
 50
0.0
 71
     0
 42
3.2000000000000002
  3
MONOTXT
  4
BIGFONT
  0
ENDTAB
  0
TABLE
  2
VIEW
 70
     1
  0
VIEW
  2
ALL
 70
     0
 40
4282.6199999999999
 10
0.0
 20
41.309903999999989
 41
5940.0
 11
0.0
 21
0.0
 31
1.0
 12
0.0
 22
0.0
 32
0.0
 42
50.0
 43
0.0
 44
0.0
 50
0.0
 71
     0
  0
ENDTAB
  0
TABLE
  2
UCS
 70
     0
  0
ENDTAB
  0
TABLE
  2
APPID
 70
     1
  0
APPID
  2
ACAD
 70
     0
  0
ENDTAB
  0
TABLE
  2
DIMSTYLE
 70
     1
  0
DIMSTYLE
  2
STANDARD
 70
     0
  3

  4

  5

  6

  7

 40
1.0
 41
0.18
 42
0.0625
 43
0.38
 44
0.18
 45
0.0
 46
0.0
 47
0.0
 48
0.0
140
0.18
141
0.09
142
0.0
143
25.399999999999999
144
1.0
145
0.0
146
1.0
147
0.09
 71
     0
 72
     0
 73
     1
 74
     1
 75
     0
 76
     0
 77
     0
 78
     0
170
     0
171
     2
172
     0
173
     0
174
     0
175
     0
176
     0
177
     0
178
     0
  0
ENDTAB
  0
ENDSEC
  0
SECTION
  2
BLOCKS
  0
BLOCK
  8
0
  2
$MODEL_SPACE
 70
     0
 10
0.0
 20
0.0
 30
0.0
  3
$MODEL_SPACE
  1

  0
ENDBLK
  5
7B2
  8
0
  0
BLOCK
 67
     1
  8
0
  2
$PAPER_SPACE
 70
     0
 10
0.0
 20
0.0
 30
0.0
  3
$PAPER_SPACE
  1

  0
ENDBLK
  5
7AE
 67
     1
  8
0
  0
BLOCK
  8
0
  2
A$C5F2C697A
 70
     0
 10
0.0
 20
0.0
 30
0.0
  3
A$C5F2C697A
  1

  0
TEXT
  5
7D7
  8
SIZE
  6
ByBlock
 10
910.8147643978815
 20
127.36127978650261
 30
0.0
 40
64.0
  1
370
 41
0.9
  0
LINE
  5
7D8
  8
SIZE
  6
ByBlock
 10
801.8719073978815
 20
95.361279786502593
 30
0.0
 11
1167.87190739788
 21
95.361279786502593
 31
0.0
  0
TEXT
  5
7D9
  8
SIZE
  6
ByBlock
 10
915.81476439788139
 20
1424.5027517865019
 30
0.0
 40
64.0
  1
330
 41
0.9
  0
LINE
  5
7DA
  8
SIZE
  6
ByBlock
 10
826.8719073978815
 20
1392.5027517865019
 30
0.0
 11
1152.87190739788
 21
1392.5027517865019
 31
0.0
  0
LINE
  5
7DB
  8
OUTLINE
  6
CONTINUOUS
 10
771.8719063978815
 20
290.07775178650252
 30
0.0
 11
1183.871906397881
 21
290.07775178650252
 31
0.0
  0
LINE
  5
7DC
  8
OUTLINE
  6
CONTINUOUS
 10
771.8719063978815
 20
323.07775178650252
 30
0.0
 11
1183.871906397881
 21
323.07775178650252
 31
0.0
  0
LINE
  5
7DD
  8
OUTLINE
  6
CONTINUOUS
 10
824.87190639788139
 20
1145.0777517865019
 30
0.0
 11
1154.8719063978799
 21
1145.0777517865019
 31
0.0
  0
CIRCLE
  5
7DE
  8
ARRANGE
  6
CONTINUOUS
 10
989.87190639788139
 20
290.07775178650252
 30
0.0
 40
40.0
  0
LINE
  5
7DF
  8
DETAIL
  6
CONTINOUS
 10
771.8719063978815
 20
290.07775178650252
 30
0.0
 11
1183.871906397881
 21
290.07775178650252
 31
0.0
  0
LINE
  5
7E0
  8
DETAIL
  6
CONTINOUS
 10
824.87190639788139
 20
1145.0777517865019
 30
0.0
 11
1154.8719063978799
 21
1145.0777517865019
 31
0.0
  0
TEXT
  5
7E1
  8
NOTE
  6
CONTINUOUS
 10
973.9808703978814
 20
913.84623078650259
 30
0.0
 40
64.0
  1
EL,CL
 41
0.9
  0
LINE
  5
7E2
  8
NOTE
  6
CONTINUOUS
 10
879.8719063978815
 20
686.07775178650252
 30
0.0
 11
1040.77148939788
 21
625.20405378650253
 31
0.0
  0
LINE
  5
7E3
  8
NOTE
  6
CONTINUOUS
 10
1205.83098439788
 20
895.38895978650271
 30
0.0
 11
918.87085639788165
 21
895.38895978650271
 31
0.0
  0
POINT
  5
7E4
  8
ARRANGE
  6
CONTINUOUS
 10
989.87190639788139
 20
290.07775178650252
 30
0.0
  0
LINE
  5
7E5
  8
DETAIL
  6
CONTINOUS
 10
771.8719063978815
 20
323.07775178650252
 30
0.0
 11
1183.871906397881
 21
323.07775178650252
 31
0.0
  0
LINE
  5
7E6
  8
NOTE
  6
CONTINUOUS
 10
882.87190639788139
 20
724.07775178650252
 30
0.0
 11
1040.77148939788
 21
812.30385178650226
 31
0.0
  0
CIRCLE
  5
7E7
  8
SIZE
  6
CONTINUOUS
 10
220.7875803978813
 20
290.07775178650252
 30
0.0
 40
6.0
  0
CIRCLE
  5
7E8
  8
SIZE
  6
CONTINUOUS
 10
503.55668139788139
 20
290.07775178650252
 30
0.0
 40
6.0
  0
CIRCLE
  5
7E9
  8
SIZE
  6
CONTINUOUS
 10
649.74425839788148
 20
290.07775178650252
 30
0.0
 40
6.0
  0
CIRCLE
  5
7EA
  8
SIZE
  6
CONTINUOUS
 10
350.83505539788138
 20
290.07775178650252
 30
0.0
 40
6.0
  0
LINE
  5
7EB
  8
OUTLINE
  6
CONTINUOUS
 10
771.8719063978815
 20
290.07775178650252
 30
0.0
 11
771.8719063978815
 21
323.07775178650252
 31
0.0
  0
CIRCLE
  5
7EC
  8
FIX
  6
CONTINUOUS
 10
799.8719063978815
 20
290.07775178650252
 30
0.0
 40
40.0
  0
LINE
  5
7ED
  8
DETAIL
  6
CONTINOUS
 10
771.8719063978815
 20
290.07775178650252
 30
0.0
 11
771.8719063978815
 21
323.07775178650252
 31
0.0
  0
LINE
  5
7EE
  8
BASIS
  6
DASHDOT
 10
989.87190639788139
 20
239.4419287865025
 30
0.0
 11
989.87190639788139
 21
1184.2961157865011
 31
0.0
  0
LINE
  5
7EF
  8
NOTE
  6
CONTINOUS
 10
799.8719063978815
 20
270.0777517865024
 30
0.0
 11
799.8719063978815
 21
310.07775178650252
 31
0.0
  0
LINE
  5
7F0
  8
NOTE
  6
CONTINUOUS
 10
0.0000023978816444
 20
-0.000002213497396
 30
0.0
 11
579.80680439788148
 21
-0.000002213497396
 31
0.0
  0
TEXT
  5
7F1
  8
NOTE
  6
CONTINUOUS
 10
14.78030739788152
 20
15.10229878650267
 30
0.0
 40
64.0
  1
AH 2-12×36
 41
0.9
  0
LINE
  5
7F2
  8
SIZE
  6
ByBlock
 10
715.70171039788136
 20
290.07775178650252
 30
0.0
 11
320.83505539788149
 21
290.07775178650252
 31
0.0
  0
LINE
  5
7F3
  8
SIZE
  6
ByBlock
 10
735.70171039788136
 20
290.07775178650252
 30
0.0
 11
473.55668139788122
 21
290.07775178650252
 31
0.0
  0
LINE
  5
7F4
  8
SIZE
  6
ByBlock
 10
735.70171039788136
 20
290.07775178650252
 30
0.0
 11
190.7875803978813
 21
290.07775178650252
 31
0.0
  0
LINE
  5
7F5
  8
NOTE
  6
CONTINUOUS
 10
579.80680439788148
 20
-0.000002213497396
 30
0.0
 11
799.8719063978815
 21
290.07775178650252
 31
0.0
  0
TEXT
  5
7F6
  8
SIZE
  6
ByBlock
 10
739.24333539788142
 20
127.36127978650261
 30
0.0
 40
64.0
  1
28
 41
0.9
  0
LINE
  5
7F7
  8
SIZE
  6
ByBlock
 10
735.70171039788136
 20
290.07775178650252
 30
0.0
 11
619.74425839788148
 21
290.07775178650252
 31
0.0
  0
LINE
  5
7F8
  8
SIZE
  6
ByBlock
 10
799.8719073978815
 20
250.0777517865026
 30
0.0
 11
799.8719073978815
 21
65.361279786502621
 31
0.0
  0
LINE
  5
7F9
  8
SIZE
  6
ByBlock
 10
799.8719073978815
 20
250.0777517865026
 30
0.0
 11
799.8719073978815
 21
65.361279786502621
 31
0.0
  0
LINE
  5
7FA
  8
SIZE
  6
ByBlock
 10
771.8719073978815
 20
270.0777517865024
 30
0.0
 11
771.8719073978815
 21
65.361279786502621
 31
0.0
  0
CIRCLE
  5
7FB
  8
SIZE
  6
CONTINUOUS
 10
799.8719073978815
 20
95.361279786502593
 30
0.0
 40
6.0
  0
CIRCLE
  5
7FC
  8
SIZE
  6
CONTINUOUS
 10
771.8719073978815
 20
95.361279786502593
 30
0.0
 40
6.0
  0
CIRCLE
  5
7FD
  8
SIZE
  6
CONTINUOUS
 10
799.8719073978815
 20
95.361279786502593
 30
0.0
 40
6.0
  0
LINE
  5
7FE
  8
SIZE
  6
ByBlock
 10
799.8719073978815
 20
95.361279786502593
 30
0.0
 11
771.8719073978815
 21
95.361279786502593
 31
0.0
  0
LINE
  5
7FF
  8
SIZE
  6
ByBlock
 10
769.8719073978815
 20
95.361279786502593
 30
0.0
 11
767.8719073978815
 21
95.361279786502593
 31
0.0
  0
LINE
  5
800
  8
SIZE
  6
ByBlock
 10
801.8719073978815
 20
95.361279786502593
 30
0.0
 11
803.87190739788139
 21
95.361279786502593
 31
0.0
  0
LINE
  5
801
  8
NOTE
  6
CONTINOUS
 10
779.8719063978815
 20
290.07775178650252
 30
0.0
 11
819.8719063978815
 21
290.07775178650252
 31
0.0
  0
LINE
  5
802
  8
NOTE
  6
CONTINUOUS
 10
799.8719063978815
 20
290.07775178650252
 30
0.0
 11
784.76766639788127
 21
253.0390967865026
 31
0.0
  0
LINE
  5
803
  8
NOTE
  6
CONTINUOUS
 10
799.8719063978815
 20
290.07775178650252
 30
0.0
 11
768.27192339788144
 21
265.55345678650241
 31
0.0
  0
LINE
  5
804
  8
SIZE
  6
ByBlock
 10
771.8719073978815
 20
343.07775178650252
 30
0.0
 11
771.8719073978815
 21
1422.5027517865019
 31
0.0
  0
LINE
  5
805
  8
OUTLINE
  6
CONTINUOUS
 10
824.87190639788139
 20
323.07775178650252
 30
0.0
 11
824.87190639788139
 21
1145.0777517865019
 31
0.0
  0
LINE
  5
806
  8
DETAIL
  6
CONTINOUS
 10
824.87190639788139
 20
323.07775178650252
 30
0.0
 11
824.87190639788139
 21
1145.0777517865019
 31
0.0
  0
LINE
  5
807
  8
DETAIL
  6
CONTINOUS
 10
804.8719063978815
 20
462.0777517865024
 30
0.0
 11
804.8719063978815
 21
1002.0777517865019
 31
0.0
  0
LINE
  5
808
  8
SIZE
  6
ByBlock
 10
714.44271139788157
 20
732.07775178650252
 30
0.0
 11
320.83505539788149
 21
732.07775178650252
 31
0.0
  0
LINE
  5
809
  8
SIZE
  6
ByBlock
 10
856.8719073978815
 20
724.07775178650252
 30
0.0
 11
473.55668139788122
 21
724.07775178650252
 31
0.0
  0
LINE
  5
80A
  8
SIZE
  6
ByBlock
 10
777.27455739788161
 20
810.08015378650225
 30
0.0
 11
190.42745539788129
 21
810.08015378650225
 31
0.0
  0
LINE
  5
80B
  8
SIZE
  6
ByBlock
 10
350.83505539788138
 20
292.07775178650252
 30
0.0
 11
350.83505539788138
 21
730.07775178650252
 31
0.0
  0
LINE
  5
80C
  8
SIZE
  6
ByBlock
 10
503.55668139788139
 20
292.07775178650252
 30
0.0
 11
503.55668139788139
 21
724.07775178650252
 31
0.0
  0
TEXT
  5
80D
  8
SIZE
  6
ByBlock
 10
188.7875803978813
 20
529.52060878650241
 30
0.0
 40
64.0
  1
520
 50
90.0
 41
0.9
  0
LINE
  5
80E
  8
SIZE
  6
ByBlock
 10
220.7875803978813
 20
810.08015378650225
 30
0.0
 11
220.7875803978813
 21
603.57775178650252
 31
0.0
  0
TEXT
  5
80F
  8
SIZE
  6
ByBlock
 10
318.83505539788149
 20
437.02060878650252
 30
0.0
 40
64.0
  1
442
 50
90.0
 41
0.9
  0
LINE
  5
810
  8
SIZE
  6
ByBlock
 10
220.7875803978813
 20
292.07775178650252
 30
0.0
 11
220.7875803978813
 21
603.57775178650252
 31
0.0
  0
TEXT
  5
811
  8
SIZE
  6
ByBlock
 10
471.55668139788139
 20
427.13489478650251
 30
0.0
 40
64.0
  1
434
 50
90.0
 41
0.9
  0
CIRCLE
  5
812
  8
SIZE
  6
CONTINUOUS
 10
220.4274553978814
 20
810.08015378650225
 30
0.0
 40
6.0
  0
CIRCLE
  5
813
  8
SIZE
  6
CONTINUOUS
 10
350.83505539788138
 20
732.07775178650252
 30
0.0
 40
6.0
  0
CIRCLE
  5
814
  8
SIZE
  6
CONTINUOUS
 10
503.55668139788139
 20
724.07775178650252
 30
0.0
 40
6.0
  0
LINE
  5
815
  8
SIZE
  6
ByBlock
 10
649.74425839788148
 20
292.07775178650252
 30
0.0
 11
649.74425839788148
 21
684.07775178650252
 31
0.0
  0
TEXT
  5
816
  8
SIZE
  6
ByBlock
 10
617.74425839788125
 20
415.3920377865025
 30
0.0
 40
64.0
  1
396
 50
90.0
 41
0.9
  0
LINE
  5
817
  8
DETAIL
  6
CONTINOUS
 10
824.87190639788139
 20
462.0777517865024
 30
0.0
 11
804.8719063978815
 21
462.0777517865024
 31
0.0
  0
LINE
  5
818
  8
SIZE
  6
ByBlock
 10
836.26393739788148
 20
686.07775178650252
 30
0.0
 11
619.74425839788148
 21
686.07775178650252
 31
0.0
  0
LINE
  5
819
  8
BASIS
  6
DASHDOT
 10
734.44271139788145
 20
732.07775178650252
 30
0.0
 11
884.14564339788137
 21
732.07775178650252
 31
0.0
  0
CIRCLE
  5
81A
  8
SIZE
  6
CONTINUOUS
 10
649.74425839788148
 20
686.07775178650252
 30
0.0
 40
6.0
  0
LINE
  5
81B
  8
NOTE
  6
CONTINOUS
 10
862.8719063978815
 20
724.07775178650252
 30
0.0
 11
902.8719063978815
 21
724.07775178650252
 31
0.0
  0
LINE
  5
81C
  8
NOTE
  6
CONTINOUS
 10
859.87190639788162
 20
686.07775178650252
 30
0.0
 11
899.87190639788139
 21
686.07775178650252
 31
0.0
  0
LINE
  5
81D
  8
NOTE
  6
CONTINOUS
 10
879.8719063978815
 20
666.07775178650252
 30
0.0
 11
879.8719063978815
 21
706.07775178650252
 31
0.0
  0
LINE
  5
81E
  8
NOTE
  6
CONTINOUS
 10
882.87190639788139
 20
704.0777517865024
 30
0.0
 11
882.87190639788139
 21
744.07775178650252
 31
0.0
  0
LINE
  5
81F
  8
NOTE
  6
CONTINUOUS
 10
824.51178139788146
 20
810.08015378650225
 30
0.0
 11
918.87085639788165
 21
895.38895978650271
 31
0.0
  0
LINE
  5
820
  8
NOTE
  6
CONTINOUS
 10
804.51178139788135
 20
810.08015378650225
 30
0.0
 11
844.51178139788135
 21
810.08015378650225
 31
0.0
  0
LINE
  5
821
  8
NOTE
  6
CONTINOUS
 10
824.51178139788146
 20
790.08015378650225
 30
0.0
 11
824.51178139788146
 21
830.08015378650225
 31
0.0
  0
LINE
  5
822
  8
NOTE
  6
CONTINUOUS
 10
872.35755039788137
 20
933.93013678650243
 30
0.0
 11
872.35755039788137
 21
933.93013678650243
 31
0.0
  0
LINE
  5
823
  8
SIZE
  6
ByBlock
 10
824.8719073978815
 20
1185.0777517865019
 30
0.0
 11
824.8719073978815
 21
1422.5027517865019
 31
0.0
  0
LINE
  5
824
  8
SIZE
  6
ByBlock
 10
824.8719073978815
 20
1165.0777517865019
 30
0.0
 11
824.8719073978815
 21
1422.5027517865019
 31
0.0
  0
LINE
  5
825
  8
SIZE
  6
ByBlock
 10
824.8719073978815
 20
1165.0777517865019
 30
0.0
 11
824.8719073978815
 21
1293.248751786502
 31
0.0
  0
LINE
  5
826
  8
SIZE
  6
ByBlock
 10
804.87190739788139
 20
1022.0777517865019
 30
0.0
 11
804.87190739788139
 21
1293.248751786502
 31
0.0
  0
LINE
  5
827
  8
DETAIL
  6
CONTINOUS
 10
824.87190639788139
 20
1002.0777517865019
 30
0.0
 11
804.8719063978815
 21
1002.0777517865019
 31
0.0
  0
LINE
  5
828
  8
SIZE
  6
CONTINUOUS
 10
814.87190639788139
 20
1263.2491457865019
 30
0.0
 11
945.94025839788139
 21
1263.2491457865019
 31
0.0
  0
LINE
  5
829
  8
SIZE
  6
ByBlock
 10
822.8719073978815
 20
1263.2491457865019
 30
0.0
 11
814.8719073978815
 21
1263.2491457865019
 31
0.0
  0
CIRCLE
  5
82A
  8
SIZE
  6
CONTINUOUS
 10
804.87190739788139
 20
1263.2491457865019
 30
0.0
 40
6.0
  0
LINE
  5
82B
  8
SIZE
  6
ByBlock
 10
806.8719073978815
 20
1263.2491457865019
 30
0.0
 11
814.8719073978815
 21
1263.2491457865019
 31
0.0
  0
CIRCLE
  5
82C
  8
SIZE
  6
CONTINUOUS
 10
824.8719073978815
 20
1263.2491457865019
 30
0.0
 40
6.0
  0
TEXT
  5
82D
  8
SIZE
  6
ByBlock
 10
751.74333539788142
 20
1424.5027517865019
 30
0.0
 40
64.0
  1
53
 41
0.9
  0
TEXT
  5
82E
  8
SIZE
  6
ByBlock
 10
843.21570539788104
 20
1295.248751786502
 30
0.0
 40
64.0
  1
20
 41
0.9
  0
LINE
  5
82F
  8
SIZE
  6
ByBlock
 10
824.8719073978815
 20
1392.5027517865019
 30
0.0
 11
771.8719073978815
 21
1392.5027517865019
 31
0.0
  0
CIRCLE
  5
830
  8
SIZE
  6
CONTINUOUS
 10
771.8719073978815
 20
1392.5027517865019
 30
0.0
 40
6.0
  0
LINE
  5
831
  8
SIZE
  6
ByBlock
 10
769.8719073978815
 20
1392.5027517865019
 30
0.0
 11
767.8719073978815
 21
1392.5027517865019
 31
0.0
  0
CIRCLE
  5
832
  8
SIZE
  6
CONTINUOUS
 10
824.8719073978815
 20
1392.5027517865019
 30
0.0
 40
6.0
  0
CIRCLE
  5
833
  8
SIZE
  6
CONTINUOUS
 10
824.8719073978815
 20
1392.5027517865019
 30
0.0
 40
6.0
  0
LINE
  5
834
  8
SIZE
  6
ByBlock
 10
826.8719073978815
 20
1392.5027517865019
 30
0.0
 11
828.87190739788139
 21
1392.5027517865019
 31
0.0
  0
CIRCLE
  5
835
  8
SIZE
  6
CONTINUOUS
 10
1420.44446039788
 20
290.07775178650252
 30
0.0
 40
6.0
  0
CIRCLE
  5
836
  8
FIX
  6
CONTINUOUS
 10
1169.871906397881
 20
290.07775178650252
 30
0.0
 40
40.0
  0
LINE
  5
837
  8
OUTLINE
  6
CONTINUOUS
 10
1183.871906397881
 20
323.07775178650252
 30
0.0
 11
1183.871906397881
 21
290.07775178650252
 31
0.0
  0
TEXT
  5
838
  8
ETC
  6
CONTINUOUS
 10
1573.1112623978811
 20
288.6366377865026
 30
0.0
 40
64.0
  1
室外機
 41
0.9
  0
LINE
  5
839
  8
DETAIL
  6
CONTINOUS
 10
1183.871906397881
 20
290.07775178650252
 30
0.0
 11
1183.871906397881
 21
323.07775178650252
 31
0.0
  0
LINE
  5
83A
  8
NOTE
  6
CONTINOUS
 10
1169.871906397881
 20
270.0777517865024
 30
0.0
 11
1169.871906397881
 21
310.07775178650252
 31
0.0
  0
LINE
  5
83B
  8
NOTE
  6
CONTINUOUS
 10
1969.74381039788
 20
-0.000002213497396
 30
0.0
 11
1389.9370083978811
 21
-0.000002213497396
 31
0.0
  0
TEXT
  5
83C
  8
NOTE
  6
CONTINUOUS
 10
1415.1692193978811
 20
15.10229878650267
 30
0.0
 40
64.0
  1
AH 2-U cut
 41
0.9
  0
LINE
  5
83D
  8
NOTE
  6
CONTINUOUS
 10
1389.9370083978811
 20
-0.000002213497396
 30
0.0
 11
1169.871906397881
 21
290.07775178650252
 31
0.0
  0
LINE
  5
83E
  8
SIZE
  6
ByBlock
 10
1214.7137463978811
 20
290.07775178650252
 30
0.0
 11
1450.44446039788
 21
290.07775178650252
 31
0.0
  0
LINE
  5
83F
  8
SIZE
  6
ByBlock
 10
1183.87190739788
 20
270.0777517865024
 30
0.0
 11
1183.87190739788
 21
65.361279786502621
 31
0.0
  0
LINE
  5
840
  8
SIZE
  6
ByBlock
 10
1169.87190739788
 20
250.0777517865026
 30
0.0
 11
1169.87190739788
 21
65.361279786502621
 31
0.0
  0
LINE
  5
841
  8
SIZE
  6
ByBlock
 10
1169.87190739788
 20
250.0777517865026
 30
0.0
 11
1169.87190739788
 21
65.361279786502621
 31
0.0
  0
CIRCLE
  5
842
  8
SIZE
  6
CONTINUOUS
 10
1169.87190739788
 20
95.361279786502593
 30
0.0
 40
6.0
  0
CIRCLE
  5
843
  8
SIZE
  6
CONTINUOUS
 10
1169.87190739788
 20
95.361279786502593
 30
0.0
 40
6.0
  0
CIRCLE
  5
844
  8
SIZE
  6
CONTINUOUS
 10
1183.87190739788
 20
95.361279786502593
 30
0.0
 40
6.0
  0
LINE
  5
845
  8
SIZE
  6
ByBlock
 10
1183.87190739788
 20
95.361279786502593
 30
0.0
 11
1169.87190739788
 21
95.361279786502593
 31
0.0
  0
LINE
  5
846
  8
SIZE
  6
ByBlock
 10
1167.87190739788
 20
95.361279786502593
 30
0.0
 11
1165.87190739788
 21
95.361279786502593
 31
0.0
  0
LINE
  5
847
  8
SIZE
  6
ByBlock
 10
1185.87190739788
 20
95.361279786502593
 30
0.0
 11
1187.87190739788
 21
95.361279786502593
 31
0.0
  0
TEXT
  5
848
  8
SIZE
  6
ByBlock
 10
1134.3576213978811
 20
127.36127978650261
 30
0.0
 40
64.0
  1
14
 41
0.9
  0
LINE
  5
849
  8
NOTE
  6
CONTINOUS
 10
1149.871906397881
 20
290.07775178650252
 30
0.0
 11
1189.871906397881
 21
290.07775178650252
 31
0.0
  0
LINE
  5
84A
  8
NOTE
  6
CONTINUOUS
 10
1169.871906397881
 20
290.07775178650252
 30
0.0
 11
1184.97614639788
 21
253.0390967865026
 31
0.0
  0
LINE
  5
84B
  8
NOTE
  6
CONTINUOUS
 10
1169.871906397881
 20
290.07775178650252
 30
0.0
 11
1201.47188939788
 21
265.55345678650241
 31
0.0
  0
TEXT
  5
84C
  8
ETC
  6
CONTINUOUS
 10
1561.288518397879
 20
407.8032387865025
 30
0.0
 40
64.0
  1
SPUZ0824
 41
0.9
  0
LINE
  5
84D
  8
SIZE
  6
ByBlock
 10
1420.44446039788
 20
1143.0777517865019
 30
0.0
 11
1420.44446039788
 21
717.57775178650252
 31
0.0
  0
LINE
  5
84E
  8
OUTLINE
  6
CONTINUOUS
 10
1154.8719063978799
 20
1145.0777517865019
 30
0.0
 11
1154.8719063978799
 21
323.07775178650252
 31
0.0
  0
LINE
  5
84F
  8
DETAIL
  6
CONTINOUS
 10
1154.8719063978799
 20
323.07775178650252
 30
0.0
 11
1154.8719063978799
 21
1145.0777517865019
 31
0.0
  0
LINE
  5
850
  8
SIZE
  6
ByBlock
 10
1420.44446039788
 20
292.07775178650252
 30
0.0
 11
1420.44446039788
 21
717.57775178650252
 31
0.0
  0
LINE
  5
851
  8
NOTE
  6
CONTINUOUS
 10
1124.871906397881
 20
323.07775178650252
 30
0.0
 11
1231.96219639788
 21
428.57361078650251
 31
0.0
  0
LINE
  5
852
  8
NOTE
  6
CONTINOUS
 10
1104.871906397881
 20
323.07775178650252
 30
0.0
 11
1144.871906397881
 21
323.07775178650252
 31
0.0
  0
LINE
  5
853
  8
NOTE
  6
CONTINOUS
 10
1124.871906397881
 20
303.07775178650257
 30
0.0
 11
1124.871906397881
 21
343.07775178650252
 31
0.0
  0
TEXT
  5
854
  8
NOTE
  6
CONTINUOUS
 10
1251.9401213978811
 20
438.44475178650248
 30
0.0
 40
64.0
  1
D
 41
0.9
  0
LINE
  5
855
  8
NOTE
  6
CONTINUOUS
 10
1231.96219639788
 20
428.57361078650251
 30
0.0
 11
1302.198482397881
 21
428.57361078650251
 31
0.0
  0
TEXT
  5
856
  8
NOTE
  6
CONTINUOUS
 10
1060.7086543978789
 20
635.63939678650252
 30
0.0
 40
64.0
  1
RG
 41
0.9
  0
LINE
  5
857
  8
NOTE
  6
CONTINUOUS
 10
1040.77148939788
 20
625.20405378650253
 30
0.0
 11
1180.455218397881
 21
625.20405378650253
 31
0.0
  0
TEXT
  5
858
  8
NOTE
  6
CONTINUOUS
 10
1060.92620539788
 20
822.17499278650257
 30
0.0
 40
64.0
  1
RL
 41
0.9
  0
LINE
  5
859
  8
NOTE
  6
CONTINUOUS
 10
1040.77148939788
 20
812.30385178650226
 30
0.0
 11
1170.35759939788
 21
812.30385178650226
 31
0.0
  0
TEXT
  5
85A
  8
SIZE
  6
ByBlock
 10
1388.44446039788
 20
643.52060878650252
 30
0.0
 40
64.0
  1
855
 50
90.0
 41
0.9
  0
LINE
  5
85B
  8
SIZE
  6
ByBlock
 10
1154.87190739788
 20
1165.0777517865019
 30
0.0
 11
1154.87190739788
 21
1422.5027517865019
 31
0.0
  0
LINE
  5
85C
  8
SIZE
  6
ByBlock
 10
1203.87190739788
 20
1145.0777517865019
 30
0.0
 11
1450.44446039788
 21
1145.0777517865019
 31
0.0
  0
CIRCLE
  5
85D
  8
SIZE
  6
CONTINUOUS
 10
1420.44446039788
 20
1145.0777517865019
 30
0.0
 40
6.0
  0
CIRCLE
  5
85E
  8
SIZE
  6
CONTINUOUS
 10
1154.87190739788
 20
1392.5027517865019
 30
0.0
 40
6.0
  0
ENDBLK
  5
85F
  8
0
  0
BLOCK
  8
0
  2
_ORIGIN
 70
     0
 10
0.0
 20
0.0
 30
0.0
  3
_ORIGIN
  1

  0
CIRCLE
  5
862
  8
0
  6
ByBlock
 62
     0
 10
0.0
 20
0.0
 30
0.0
 40
0.5
  0
LINE
  5
863
  8
0
  6
ByBlock
 62
     0
 10
0.0
 20
0.0
 30
0.0
 11
-1.0
 21
0.0
 31
0.0
  0
ENDBLK
  5
864
  8
0
  0
BLOCK
  8
0
  2
_ORIGIN2
 70
     0
 10
0.0
 20
0.0
 30
0.0
  3
_ORIGIN2
  1

  0
CIRCLE
  5
867
  8
0
  6
ByBlock
 62
     0
 10
0.0
 20
0.0
 30
0.0
 40
0.5
  0
CIRCLE
  5
868
  8
0
  6
ByBlock
 62
     0
 10
0.0
 20
0.0
 30
0.0
 40
0.25
  0
LINE
  5
869
  8
0
  6
ByBlock
 62
     0
 10
-0.5
 20
0.0
 30
0.0
 11
-1.0
 21
0.0
 31
0.0
  0
ENDBLK
  5
86A
  8
0
  0
BLOCK
  8
0
  2
_DOTBLANK
 70
     0
 10
0.0
 20
0.0
 30
0.0
  3
_DOTBLANK
  1

  0
CIRCLE
  5
86D
  8
0
  6
ByBlock
 62
     0
 10
0.0
 20
0.0
 30
0.0
 40
0.5
  0
LINE
  5
86E
  8
0
  6
ByBlock
 62
     0
 10
-0.5
 20
0.0
 30
0.0
 11
-1.0
 21
0.0
 31
0.0
  0
ENDBLK
  5
86F
  8
0
  0
BLOCK
  8
0
  2
MTEXT_0
 70
     0
 10
0.0
 20
0.0
 30
0.0
  3
MTEXT_0
  1

  0
TEXT
  5
87E
  8
SIZE
  6
CONTINUOUS
 62
     0
 10
-574.02027179612935
 20
502.99108751912649
 30
0.0
 40
64.0
  1
330
 50
90.0
 72
     1
 11
-574.02027179612935
 21
585.27680180484083
 31
0.0
  0
ENDBLK
  5
87F
  8
0
  0
BLOCK
  8
0
  2
MTEXT_1
 70
     0
 10
0.0
 20
0.0
 30
0.0
  3
MTEXT_1
  1

  0
TEXT
  5
890
  8
SIZE
  6
CONTINUOUS
 62
     0
 10
-574.02027179612935
 20
251.8387065667456
 30
0.0
 40
64.0
  1
30
 50
90.0
 72
     1
 11
-574.02027179612935
 21
303.64823037626951
 31
0.0
  0
ENDBLK
  5
891
  8
0
  0
BLOCK
  8
0
  2
MTEXT_2
 70
     0
 10
0.0
 20
0.0
 30
0.0
  3
MTEXT_2
  1

  0
TEXT
  5
8A0
  8
SIZE
  6
CONTINUOUS
 62
     0
 10
-395.79984378783303
 20
1013.258105267989
 30
0.0
 40
64.0
  1
175
 72
     1
 11
-319.60936759735682
 21
1013.258105267989
 31
0.0
  0
ENDBLK
  5
8A1
  8
0
  0
BLOCK
  8
0
  2
MTEXT_3
 70
     0
 10
0.0
 20
0.0
 30
0.0
  3
MTEXT_3
  1

  0
TEXT
  5
8B0
  8
SIZE
  6
CONTINUOUS
 62
     0
 10
-18.54515031600161
 20
1013.258105267989
 30
0.0
 40
64.0
  1
600
 72
     1
 11
63.74056396971266
 21
1013.258105267989
 31
0.0
  0
ENDBLK
  5
8B1
  8
0
  0
BLOCK
  8
0
  2
MTEXT_4
 70
     0
 10
0.0
 20
0.0
 30
0.0
  3
MTEXT_4
  1

  0
TEXT
  5
8C0
  8
SIZE
  6
CONTINUOUS
 62
     0
 10
361.12512878007402
 20
1013.258105267989
 30
0.0
 40
64.0
  1
175
 72
     1
 11
437.31560497055023
 21
1013.258105267989
 31
0.0
  0
ENDBLK
  5
8C1
  8
0
  0
BLOCK
  8
0
  2
MTEXT_5
 70
     0
 10
0.0
 20
0.0
 30
0.0
  3
MTEXT_5
  1

  0
TEXT
  5
8D0
  8
SIZE
  6
CONTINUOUS
 62
     0
 10
-18.545150316001589
 20
1182.948978426233
 30
0.0
 40
64.0
  1
950
 72
     1
 11
63.740563969712689
 21
1182.948978426233
 31
0.0
  0
ENDBLK
  5
8D1
  8
0
  0
BLOCK
  8
0
  2
MTEXT_6
 70
     0
 10
0.0
 20
0.0
 30
0.0
  3
MTEXT_6
  1

  0
TEXT
  5
8E0
  8
SIZE
  6
CONTINUOUS
 62
     0
 10
1018.652664603862
 20
502.99108751912678
 30
0.0
 40
64.0
  1
370
 50
90.0
 72
     1
 11
1018.652664603862
 21
585.27680180484106
 31
0.0
  0
ENDBLK
  5
8E1
  8
0
  0
BLOCK
  8
0
  2
MTEXT_7
 70
     0
 10
0.0
 20
0.0
 30
0.0
  3
MTEXT_7
  1

  0
TEXT
  5
8F2
  8
SIZE
  6
CONTINUOUS
 62
     0
 10
1018.652664603862
 20
233.83870656674571
 30
0.0
 40
64.0
  1
28
 50
90.0
 72
     1
 11
1018.652664603862
 21
285.64823037626951
 31
0.0
  0
ENDBLK
  5
8F3
  8
0
  0
BLOCK
  8
0
  2
MTEXT_8
 70
     0
 10
0.0
 20
0.0
 30
0.0
  3
MTEXT_8
  1

  0
TEXT
  5
904
  8
SIZE
  6
CONTINUOUS
 62
     0
 10
1018.65266460386
 20
824.85775418579328
 30
0.0
 40
64.0
  1
19
 50
90.0
 72
     1
 11
1018.65266460386
 21
869.04823037626954
 31
0.0
  0
ENDBLK
  5
905
  8
0
  0
BLOCK
  8
0
  2
MTEXT_9
 70
     0
 10
0.0
 20
0.0
 30
0.0
  3
MTEXT_9
  1

  0
TEXT
  5
914
  8
SIZE
  6
CONTINUOUS
 62
     0
 10
1232.539828829103
 20
504.58632561436491
 30
0.0
 40
64.0
  1
417
 50
90.0
 72
     1
 11
1232.539828829103
 21
580.77680180484106
 31
0.0
  0
ENDBLK
  5
915
  8
0
  0
BLOCK
  8
0
  2
MTEXT_10
 70
     0
 10
0.0
 20
0.0
 30
0.0
  3
MTEXT_10
  1

  0
TEXT
  5
926
  8
SIZE
  6
CONTINUOUS
 62
     0
 10
682.10116001402253
 20
500.09584942388858
 30
0.0
 40
64.0
  1
45
 50
90.0
 72
     1
 11
682.10116001402253
 21
551.90537323341243
 31
0.0
  0
ENDBLK
  5
927
  8
0
  0
BLOCK
  8
0
  2
MTEXT_11
 70
     0
 10
0.0
 20
0.0
 30
0.0
  3
MTEXT_11
  1

  0
TEXT
  5
938
  8
SIZE
  6
CONTINUOUS
 62
     0
 10
823.76670318757886
 20
511.24823037626959
 30
0.0
 40
64.0
  1
56
 50
90.0
 72
     1
 11
823.76670318757886
 21
561.53394466198392
 31
0.0
  0
ENDBLK
  5
939
  8
0
  0
BLOCK
  8
0
  2
MTEXT_12
 70
     0
 10
0.0
 20
0.0
 30
0.0
  3
MTEXT_12
  1

  0
TEXT
  5
94A
  8
SIZE
  6
CONTINUOUS
 62
     0
 10
588.60016425808737
 20
192.39106853502369
 30
0.0
 40
64.0
  1
42
 72
     1
 11
640.40968806761134
 21
192.39106853502369
 31
0.0
  0
ENDBLK
  5
94B
  8
0
  0
BLOCK
  8
0
  2
MTEXT_13
 70
     0
 10
0.0
 20
0.0
 30
0.0
  3
MTEXT_13
  1

  0
TEXT
  5
95C
  8
SIZE
  6
CONTINUOUS
 62
     0
 10
218.04307430707129
 20
192.39106853502369
 30
0.0
 40
64.0
  1
66
 72
     1
 11
268.32878859278549
 21
192.39106853502369
 31
0.0
  0
ENDBLK
  5
95D
  8
0
  0
BLOCK
  8
0
  2
MTEXT_14
 70
     0
 10
0.0
 20
0.0
 30
0.0
  3
MTEXT_14
  1

  0
TEXT
  5
96C
  8
SIZE
  6
CONTINUOUS
 62
     0
 10
356.45484968399819
 20
22.208890438945669
 30
0.0
 40
64.0
  1
200
 72
     1
 11
438.74056396971253
 21
22.208890438945669
 31
0.0
  0
ENDBLK
  5
96D
  8
0
  0
BLOCK
  8
0
  2
MTEXT_15
 70
     0
 10
0.0
 20
0.0
 30
0.0
  3
MTEXT_15
  1

  0
TEXT
  5
97C
  8
SIZE
  6
CONTINUOUS
 62
     0
 10
-332.54515031600141
 20
157.47082959594599
 30
0.0
 40
64.0
  1
322
 72
     1
 11
-250.25943603028711
 21
157.47082959594599
 31
0.0
  0
ENDBLK
  5
97D
  8
0
  0
BLOCK
  8
0
  2
MTEXT_16
 70
     0
 10
0.0
 20
0.0
 30
0.0
  3
MTEXT_16
  1

  0
TEXT
  5
98E
  8
SIZE
  6
CONTINUOUS
 62
     0
 10
-543.74191327795711
 20
-2410.4230764056879
 30
0.0
 40
64.0
  1
23
 50
90.0
 72
     1
 11
-543.74191327795711
 21
-2358.613552596164
 31
0.0
  0
ENDBLK
  5
98F
  8
0
  0
BLOCK
  8
0
  2
MTEXT_17
 70
     0
 10
0.0
 20
0.0
 30
0.0
  3
MTEXT_17
  1

  0
TEXT
  5
99E
  8
SIZE
  6
CONTINUOUS
 62
     0
 10
-683.49140432555885
 20
-2155.056409739022
 30
0.0
 40
64.0
  1
371
 50
90.0
 72
     1
 11
-683.49140432555885
 21
-2086.484981167594
 31
0.0
  0
ENDBLK
  5
99F
  8
0
  0
BLOCK
  8
0
  2
MTEXT_18
 70
     0
 10
0.0
 20
0.0
 30
0.0
  3
MTEXT_18
  1

  0
TEXT
  5
9AE
  8
SIZE
  6
CONTINUOUS
 62
     0
 10
-825.00214954296064
 20
-1703.6516478342601
 30
0.0
 40
64.0
  1
1350
 50
90.0
 72
     1
 11
-825.00214954296064
 21
-1596.984981167594
 31
0.0
  0
ENDBLK
  5
9AF
  8
0
  0
BLOCK
  8
0
  2
MTEXT_19
 70
     0
 10
0.0
 20
0.0
 30
0.0
  3
MTEXT_19
  1

  0
TEXT
  5
9BE
  8
SIZE
  6
CONTINUOUS
 62
     0
 10
-332.54515031592501
 20
-713.24543750884914
 30
0.0
 40
64.0
  1
322
 72
     1
 11
-250.25943603021071
 21
-713.24543750884914
 31
0.0
  0
ENDBLK
  5
9BF
  8
0
  0
BLOCK
  8
0
  2
MTEXT_20
 70
     0
 10
0.0
 20
0.0
 30
0.0
  3
MTEXT_20
  1

  0
TEXT
  5
9CE
  8
SIZE
  6
CONTINUOUS
 62
     0
 10
-18.545150316001589
 20
-546.74957517816415
 30
0.0
 40
64.0
  1
950
 72
     1
 11
63.740563969712689
 21
-546.74957517816415
 31
0.0
  0
ENDBLK
  5
9CF
  8
0
  0
BLOCK
  8
0
  2
MTEXT_21
 70
     0
 10
0.0
 20
0.0
 30
0.0
  3
MTEXT_21
  1

  0
TEXT
  5
9E0
  8
SIZE
  6
CONTINUOUS
 62
     0
 10
573.55961158876005
 20
-1985.95106887933
 30
0.0
 40
64.0
  1
42
 72
     1
 11
625.36913539828402
 21
-1985.95106887933
 31
0.0
  0
ENDBLK
  5
9E1
  8
0
  0
BLOCK
  8
0
  2
MTEXT_22
 70
     0
 10
0.0
 20
0.0
 30
0.0
  3
MTEXT_22
  1

  0
TEXT
  5
9F2
  8
SIZE
  6
CONTINUOUS
 62
     0
 10
561.20474317538105
 20
-2097.090266745312
 30
0.0
 40
64.0
  1
66
 72
     1
 11
611.4904574610955
 21
-2097.090266745312
 31
0.0
  0
ENDBLK
  5
9F3
  8
0
  0
BLOCK
  8
0
  2
MTEXT_23
 70
     0
 10
0.0
 20
0.0
 30
0.0
  3
MTEXT_23
  1

  0
TEXT
  5
A02
  8
SIZE
  6
CONTINUOUS
 62
     0
 10
356.45484968399842
 20
-713.24543750884914
 30
0.0
 40
64.0
  1
200
 72
     1
 11
438.7405639697127
 21
-713.24543750884914
 31
0.0
  0
ENDBLK
  5
A03
  8
0
  0
BLOCK
  8
0
  2
MTEXT_24
 70
     0
 10
0.0
 20
0.0
 30
0.0
  3
MTEXT_24
  1

  0
TEXT
  5
A12
  8
SIZE
  6
CONTINUOUS
 62
     0
 10
831.43296909589878
 20
-2132.7706954533069
 30
0.0
 40
64.0
  1
443
 50
90.0
 72
     1
 11
831.43296909589878
 21
-2050.4849811675922
 31
0.0
  0
ENDBLK
  5
A13
  8
0
  0
BLOCK
  8
0
  2
MTEXT_25
 70
     0
 10
0.0
 20
0.0
 30
0.0
  3
MTEXT_25
  1

  0
TEXT
  5
A22
  8
SIZE
  6
CONTINUOUS
 62
     0
 10
1147.4650802143219
 20
-1839.12783831045
 30
0.0
 40
64.0
  1
1076
 50
90.0
 72
     1
 11
1147.4650802143219
 21
-1733.9849811675931
 31
0.0
  0
ENDBLK
  5
A23
  8
0
  0
BLOCK
  8
0
  2
MTEXT_26
 70
     0
 10
0.0
 20
0.0
 30
0.0
  3
MTEXT_26
  1

  0
TEXT
  5
AA2
  8
SIZE
  6
CONTINUOUS
 62
     0
 10
-18.54515031600166
 20
-2658.331385277691
 30
0.0
 40
64.0
  1
600
 72
     1
 11
63.740563969712618
 21
-2658.331385277691
 31
0.0
  0
ENDBLK
  5
AA3
  8
0
  0
BLOCK
  8
0
  2
MTEXT_27
 70
     0
 10
0.0
 20
0.0
 30
0.0
  3
MTEXT_27
  1

  0
TEXT
  5
AB4
  8
SIZE
  6
CONTINUOUS
 62
     0
 10
-596.02134079219184
 20
-2658.331385277691
 30
0.0
 40
64.0
  1
175
 72
     1
 11
-519.83086460171569
 21
-2658.331385277691
 31
0.0
  0
ENDBLK
  5
AB5
  8
0
  0
BLOCK
  8
0
  2
MTEXT_28
 70
     0
 10
0.0
 20
0.0
 30
0.0
  3
MTEXT_28
  1

  0
TEXT
  5
AC6
  8
SIZE
  6
CONTINUOUS
 62
     0
 10
571.12151635066505
 20
-2658.331385277691
 30
0.0
 40
64.0
  1
175
 72
     1
 11
647.31199254114119
 21
-2658.331385277691
 31
0.0
  0
ENDBLK
  5
AC7
  8
0
  0
BLOCK
  8
0
  2
MTEXT_29
 70
     0
 10
0.0
 20
0.0
 30
0.0
  3
MTEXT_29
  1

  0
TEXT
  5
AD6
  8
SIZE
  6
CONTINUOUS
 62
     0
 10
-18.54515031600161
 20
-2794.9989431726449
 30
0.0
 40
64.0
  1
950
 72
     1
 11
63.74056396971266
 21
-2794.9989431726449
 31
0.0
  0
ENDBLK
  5
AD7
  8
0
  0
BLOCK
  8
0
  2
MTEXT_30
 70
     0
 10
0.0
 20
0.0
 30
0.0
  3
MTEXT_30
  1

  0
TEXT
  5
AE6
  8
SIZE
  6
CONTINUOUS
 62
     0
 10
997.76295642180071
 20
-2130.7706954533078
 30
0.0
 40
64.0
  1
447
 50
90.0
 72
     1
 11
997.76295642180071
 21
-2048.484981167594
 31
0.0
  0
ENDBLK
  5
AE7
  8
0
  0
BLOCK
  8
0
  2
MTEXT_31
 70
     0
 10
0.0
 20
0.0
 30
0.0
  3
MTEXT_31
  1

  0
TEXT
  5
B2E
  8
SIZE
  6
CONTINUOUS
 62
     0
 10
6270.2335206569869
 20
-2410.4230764056879
 30
0.0
 40
64.0
  1
23
 50
90.0
 72
     1
 11
6270.2335206569869
 21
-2358.613552596164
 31
0.0
  0
ENDBLK
  5
B2F
  8
0
  0
BLOCK
  8
0
  2
MTEXT_32
 70
     0
 10
0.0
 20
0.0
 30
0.0
  3
MTEXT_32
  1

  0
TEXT
  5
B3E
  8
SIZE
  6
CONTINUOUS
 62
     0
 10
6373.466250605652
 20
-1703.6516478342601
 30
0.0
 40
64.0
  1
1350
 50
90.0
 72
     1
 11
6373.466250605652
 21
-1596.984981167594
 31
0.0
  0
ENDBLK
  5
B3F
  8
0
  0
BLOCK
  8
0
  2
MTEXT_33
 70
     0
 10
0.0
 20
0.0
 30
0.0
  3
MTEXT_33
  1

  0
TEXT
  5
B4E
  8
SIZE
  6
CONTINUOUS
 62
     0
 10
5620.4653291236018
 20
-782.13873621940354
 30
0.0
 40
64.0
  1
950
 72
     1
 11
5702.7510434093174
 21
-782.13873621940354
 31
0.0
  0
ENDBLK
  5
B4F
  8
0
  0
BLOCK
  8
0
  2
MTEXT_34
 70
     0
 10
0.0
 20
0.0
 30
0.0
  3
MTEXT_34
  1

  0
TEXT
  5
B5E
  8
SIZE
  6
CONTINUOUS
 62
     0
 10
5620.4653291236018
 20
-2658.331385277691
 30
0.0
 40
64.0
  1
600
 72
     1
 11
5702.7510434093174
 21
-2658.331385277691
 31
0.0
  0
ENDBLK
  5
B5F
  8
0
  0
BLOCK
  8
0
  2
MTEXT_35
 70
     0
 10
0.0
 20
0.0
 30
0.0
  3
MTEXT_35
  1

  0
TEXT
  5
B70
  8
SIZE
  6
CONTINUOUS
 62
     0
 10
6210.131995790266
 20
-2658.331385277691
 30
0.0
 40
64.0
  1
175
 72
     1
 11
6286.3224719807431
 21
-2658.331385277691
 31
0.0
  0
ENDBLK
  5
B71
  8
0
  0
BLOCK
  8
0
  2
MTEXT_36
 70
     0
 10
0.0
 20
0.0
 30
0.0
  3
MTEXT_36
  1

  0
TEXT
  5
B82
  8
SIZE
  6
CONTINUOUS
 62
     0
 10
5042.989138647411
 20
-2658.331385277691
 30
0.0
 40
64.0
  1
175
 72
     1
 11
5119.1796148378871
 21
-2658.331385277691
 31
0.0
  0
ENDBLK
  5
B83
  8
0
  0
BLOCK
  8
0
  2
MTEXT_37
 70
     0
 10
0.0
 20
0.0
 30
0.0
  3
MTEXT_37
  1

  0
TEXT
  5
B92
  8
SIZE
  6
CONTINUOUS
 62
     0
 10
5620.4653291236018
 20
-2794.9989431726449
 30
0.0
 40
64.0
  1
950
 72
     1
 11
5702.7510434093174
 21
-2794.9989431726449
 31
0.0
  0
ENDBLK
  5
B93
  8
0
  0
BLOCK
  8
0
  2
MTEXT_38
 70
     0
 10
0.0
 20
0.0
 30
0.0
  3
MTEXT_38
  1

  0
TEXT
  5
BA2
  8
SIZE
  6
CONTINUOUS
 62
     0
 10
-574.02027179612844
 20
-4112.2229161069217
 30
0.0
 40
64.0
  1
330
 50
90.0
 72
     1
 11
-574.02027179612844
 21
-4029.937201821208
 31
0.0
  0
ENDBLK
  5
BA3
  8
0
  0
BLOCK
  8
0
  2
MTEXT_39
 70
     0
 10
0.0
 20
0.0
 30
0.0
  3
MTEXT_39
  1

  0
TEXT
  5
BB4
  8
SIZE
  6
CONTINUOUS
 62
     0
 10
-574.02027179612844
 20
-4363.3752970593041
 30
0.0
 40
64.0
  1
30
 50
90.0
 72
     1
 11
-574.02027179612844
 21
-4311.5657732497802
 31
0.0
  0
ENDBLK
  5
BB5
  8
0
  0
BLOCK
  8
0
  2
MTEXT_40
 70
     0
 10
0.0
 20
0.0
 30
0.0
  3
MTEXT_40
  1

  0
TEXT
  5
BC4
  8
SIZE
  6
CONTINUOUS
 62
     0
 10
-395.79984378783303
 20
-3601.9558983580609
 30
0.0
 40
64.0
  1
175
 72
     1
 11
-319.60936759735682
 21
-3601.9558983580609
 31
0.0
  0
ENDBLK
  5
BC5
  8
0
  0
BLOCK
  8
0
  2
MTEXT_41
 70
     0
 10
0.0
 20
0.0
 30
0.0
  3
MTEXT_41
  1

  0
TEXT
  5
BD4
  8
SIZE
  6
CONTINUOUS
 62
     0
 10
-18.54515031600161
 20
-3601.9558983580609
 30
0.0
 40
64.0
  1
600
 72
     1
 11
63.74056396971266
 21
-3601.9558983580609
 31
0.0
  0
ENDBLK
  5
BD5
  8
0
  0
BLOCK
  8
0
  2
MTEXT_42
 70
     0
 10
0.0
 20
0.0
 30
0.0
  3
MTEXT_42
  1

  0
TEXT
  5
BE4
  8
SIZE
  6
CONTINUOUS
 62
     0
 10
361.12512878007402
 20
-3601.9558983580609
 30
0.0
 40
64.0
  1
175
 72
     1
 11
437.31560497055023
 21
-3601.9558983580609
 31
0.0
  0
ENDBLK
  5
BE5
  8
0
  0
BLOCK
  8
0
  2
MTEXT_43
 70
     0
 10
0.0
 20
0.0
 30
0.0
  3
MTEXT_43
  1

  0
TEXT
  5
BF4
  8
SIZE
  6
CONTINUOUS
 62
     0
 10
-18.545150316001589
 20
-3432.2650251998161
 30
0.0
 40
64.0
  1
950
 72
     1
 11
63.740563969712689
 21
-3432.2650251998161
 31
0.0
  0
ENDBLK
  5
BF5
  8
0
  0
BLOCK
  8
0
  2
MTEXT_44
 70
     0
 10
0.0
 20
0.0
 30
0.0
  3
MTEXT_44
  1

  0
TEXT
  5
C04
  8
SIZE
  6
CONTINUOUS
 62
     0
 10
1018.652664603862
 20
-4112.2229161069217
 30
0.0
 40
64.0
  1
370
 50
90.0
 72
     1
 11
1018.652664603862
 21
-4029.937201821208
 31
0.0
  0
ENDBLK
  5
C05
  8
0
  0
BLOCK
  8
0
  2
MTEXT_45
 70
     0
 10
0.0
 20
0.0
 30
0.0
  3
MTEXT_45
  1

  0
TEXT
  5
C16
  8
SIZE
  6
CONTINUOUS
 62
     0
 10
1018.652664603862
 20
-4381.3752970593041
 30
0.0
 40
64.0
  1
28
 50
90.0
 72
     1
 11
1018.652664603862
 21
-4329.5657732497802
 31
0.0
  0
ENDBLK
  5
C17
  8
0
  0
BLOCK
  8
0
  2
MTEXT_46
 70
     0
 10
0.0
 20
0.0
 30
0.0
  3
MTEXT_46
  1

  0
TEXT
  5
C28
  8
SIZE
  6
CONTINUOUS
 62
     0
 10
1018.652664603862
 20
-3790.3562494402559
 30
0.0
 40
64.0
  1
19
 50
90.0
 72
     1
 11
1018.652664603862
 21
-3746.1657732497802
 31
0.0
  0
ENDBLK
  5
C29
  8
0
  0
BLOCK
  8
0
  2
MTEXT_47
 70
     0
 10
0.0
 20
0.0
 30
0.0
  3
MTEXT_47
  1

  0
TEXT
  5
C38
  8
SIZE
  6
CONTINUOUS
 62
     0
 10
-332.54515031600141
 20
-4457.7431740301026
 30
0.0
 40
64.0
  1
322
 72
     1
 11
-250.25943603028711
 21
-4457.7431740301026
 31
0.0
  0
ENDBLK
  5
C39
  8
0
  0
BLOCK
  8
0
  2
MTEXT_48
 70
     0
 10
0.0
 20
0.0
 30
0.0
  3
MTEXT_48
  1

  0
TEXT
  5
C48
  8
SIZE
  6
CONTINUOUS
 62
     0
 10
1232.539828829103
 20
-4110.627678011685
 30
0.0
 40
64.0
  1
417
 50
90.0
 72
     1
 11
1232.539828829103
 21
-4034.4372018212089
 31
0.0
  0
ENDBLK
  5
C49
  8
0
  0
BLOCK
  8
0
  2
MTEXT_49
 70
     0
 10
0.0
 20
0.0
 30
0.0
  3
MTEXT_49
  1

  0
TEXT
  5
C5A
  8
SIZE
  6
CONTINUOUS
 62
     0
 10
682.10116001402321
 20
-4115.1181542021604
 30
0.0
 40
64.0
  1
45
 50
90.0
 72
     1
 11
682.10116001402321
 21
-4063.3086303926361
 31
0.0
  0
ENDBLK
  5
C5B
  8
0
  0
BLOCK
  8
0
  2
MTEXT_50
 70
     0
 10
0.0
 20
0.0
 30
0.0
  3
MTEXT_50
  1

  0
TEXT
  5
C6C
  8
SIZE
  6
CONTINUOUS
 62
     0
 10
823.76670318757965
 20
-4103.965773249779
 30
0.0
 40
64.0
  1
56
 50
90.0
 72
     1
 11
823.76670318757965
 21
-4053.6800589640638
 31
0.0
  0
ENDBLK
  5
C6D
  8
0
  0
BLOCK
  8
0
  2
MTEXT_51
 70
     0
 10
0.0
 20
0.0
 30
0.0
  3
MTEXT_51
  1

  0
TEXT
  5
C7E
  8
SIZE
  6
CONTINUOUS
 62
     0
 10
588.60016425808737
 20
-4422.8229350910251
 30
0.0
 40
64.0
  1
42
 72
     1
 11
640.40968806761134
 21
-4422.8229350910251
 31
0.0
  0
ENDBLK
  5
C7F
  8
0
  0
BLOCK
  8
0
  2
MTEXT_52
 70
     0
 10
0.0
 20
0.0
 30
0.0
  3
MTEXT_52
  1

  0
TEXT
  5
C90
  8
SIZE
  6
CONTINUOUS
 62
     0
 10
218.04307430707129
 20
-4422.8229350910251
 30
0.0
 40
64.0
  1
66
 72
     1
 11
268.32878859278549
 21
-4422.8229350910251
 31
0.0
  0
ENDBLK
  5
C91
  8
0
  0
BLOCK
  8
0
  2
MTEXT_53
 70
     0
 10
0.0
 20
0.0
 30
0.0
  3
MTEXT_53
  1

  0
TEXT
  5
CA0
  8
SIZE
  6
CONTINUOUS
 62
     0
 10
356.45484968399819
 20
-4593.0051131871032
 30
0.0
 40
64.0
  1
200
 72
     1
 11
438.74056396971253
 21
-4593.0051131871032
 31
0.0
  0
ENDBLK
  5
CA1
  8
0
  0
BLOCK
  8
0
  2
MTEXT_54
 70
     0
 10
0.0
 20
0.0
 30
0.0
  3
MTEXT_54
  1

  0
TEXT
  5
CB0
  8
SIZE
  6
CONTINUOUS
 62
     0
 10
-683.49140432555885
 20
-1665.770695453308
 30
0.0
 40
64.0
  1
635
 50
90.0
 72
     1
 11
-683.49140432555885
 21
-1583.484981167594
 31
0.0
  0
ENDBLK
  5
CB1
  8
0
  0
BLOCK
  8
0
  2
MTEXT_55
 70
     0
 10
0.0
 20
0.0
 30
0.0
  3
MTEXT_55
  1

  0
TEXT
  5
CCC
  8
SIZE
  6
CONTINUOUS
 62
     0
 10
3146.2673847729902
 20
-2586.8137832026041
 30
0.0
 40
64.0
  1
370
 72
     1
 11
3228.5530990587049
 21
-2586.8137832026041
 31
0.0
  0
ENDBLK
  5
CCD
  8
0
  0
BLOCK
  8
0
  2
MTEXT_56
 70
     0
 10
0.0
 20
0.0
 30
0.0
  3
MTEXT_56
  1

  0
TEXT
  5
CDE
  8
SIZE
  6
CONTINUOUS
 62
     0
 10
3468.1340514396579
 20
-2586.8137832026041
 30
0.0
 40
64.0
  1
19
 72
     1
 11
3512.3245276301341
 21
-2586.8137832026041
 31
0.0
  0
ENDBLK
  5
CDF
  8
0
  0
BLOCK
  8
0
  2
MTEXT_57
 70
     0
 10
0.0
 20
0.0
 30
0.0
  3
MTEXT_57
  1

  0
TEXT
  5
CF0
  8
SIZE
  6
CONTINUOUS
 62
     0
 10
2877.1150038206101
 20
-2586.8137832026041
 30
0.0
 40
64.0
  1
28
 72
     1
 11
2928.924527630134
 21
-2586.8137832026041
 31
0.0
  0
ENDBLK
  5
CF1
  8
0
  0
BLOCK
  8
0
  2
MTEXT_58
 70
     0
 10
0.0
 20
0.0
 30
0.0
  3
MTEXT_58
  1

  0
TEXT
  5
D00
  8
SIZE
  6
CONTINUOUS
 62
     0
 10
3147.8626228682278
 20
-2722.460812720175
 30
0.0
 40
64.0
  1
417
 72
     1
 11
3224.053099058704
 21
-2722.460812720175
 31
0.0
  0
ENDBLK
  5
D01
  8
0
  0
BLOCK
  8
0
  2
MTEXT_59
 70
     0
 10
0.0
 20
0.0
 30
0.0
  3
MTEXT_59
  1

  0
TEXT
  5
D10
  8
SIZE
  6
CONTINUOUS
 62
     0
 10
2734.0312558908072
 20
-2132.7706954533051
 30
0.0
 40
64.0
  1
443
 50
90.0
 72
     1
 11
2734.0312558908072
 21
-2050.4849811675922
 31
0.0
  0
ENDBLK
  5
D11
  8
0
  0
BLOCK
  8
0
  2
MTEXT_60
 70
     0
 10
0.0
 20
0.0
 30
0.0
  3
MTEXT_60
  1

  0
TEXT
  5
D20
  8
SIZE
  6
CONTINUOUS
 62
     0
 10
2599.2816019394832
 20
-2130.7706954533078
 30
0.0
 40
64.0
  1
447
 50
90.0
 72
     1
 11
2599.2816019394832
 21
-2048.484981167594
 31
0.0
  0
ENDBLK
  5
D21
  8
0
  0
BLOCK
  8
0
  2
MTEXT_61
 70
     0
 10
0.0
 20
0.0
 30
0.0
  3
MTEXT_61
  1

  0
TEXT
  5
D30
  8
SIZE
  6
CONTINUOUS
 62
     0
 10
2281.4557271921822
 20
-1839.12783831045
 30
0.0
 40
64.0
  1
1076
 50
90.0
 72
     1
 11
2281.4557271921822
 21
-1733.9849811675931
 31
0.0
  0
ENDBLK
  5
D31
  8
0
  0
BLOCK
  8
0
  2
MTEXT_62
 70
     0
 10
0.0
 20
0.0
 30
0.0
  3
MTEXT_62
  1

  0
TEXT
  5
D40
  8
SIZE
  6
CONTINUOUS
 62
     0
 10
2449.270398748266
 20
-2155.0564097387901
 30
0.0
 40
64.0
  1
371
 50
90.0
 72
     1
 11
2449.270398748266
 21
-2086.4849811673621
 31
0.0
  0
ENDBLK
  5
D41
  8
0
  0
BLOCK
  8
0
  2
MTEXT_63
 70
     0
 10
0.0
 20
0.0
 30
0.0
  3
MTEXT_63
  1

  0
TEXT
  5
D50
  8
SIZE
  6
CONTINUOUS
 62
     0
 10
2150.7871492171921
 20
-1703.6516478342601
 30
0.0
 40
64.0
  1
1350
 50
90.0
 72
     1
 11
2150.7871492171921
 21
-1596.984981167594
 31
0.0
  0
ENDBLK
  5
D51
  8
0
  0
BLOCK
  8
0
  2
MTEXT_64
 70
     0
 10
0.0
 20
0.0
 30
0.0
  3
MTEXT_64
  1

  0
TEXT
  5
D62
  8
SIZE
  6
CONTINUOUS
 62
     0
 10
2917.581855650395
 20
-1651.2161361625799
 30
0.0
 40
64.0
  1
45
 72
     1
 11
2969.3913794599189
 21
-1651.2161361625799
 31
0.0
  0
ENDBLK
  5
D63
  8
0
  0
BLOCK
  8
0
  2
MTEXT_65
 70
     0
 10
0.0
 20
0.0
 30
0.0
  3
MTEXT_65
  1

  0
TEXT
  5
D74
  8
SIZE
  6
CONTINUOUS
 62
     0
 10
2919.1056651742051
 20
-1462.3949660398671
 30
0.0
 40
64.0
  1
56
 72
     1
 11
2969.3913794599189
 21
-1462.3949660398671
 31
0.0
  0
ENDBLK
  5
D75
  8
0
  0
BLOCK
  8
0
  2
MTEXT_66
 70
     0
 10
0.0
 20
0.0
 30
0.0
  3
MTEXT_66
  1

  0
TEXT
  5
D86
  8
SIZE
  6
CONTINUOUS
 62
     0
 10
2895.1150038206101
 20
-586.59461739025562
 30
0.0
 40
64.0
  1
30
 72
     1
 11
2946.924527630134
 21
-586.59461739025562
 31
0.0
  0
ENDBLK
  5
D87
  8
0
  0
BLOCK
  8
0
  2
MTEXT_67
 70
     0
 10
0.0
 20
0.0
 30
0.0
  3
MTEXT_67
  1

  0
TEXT
  5
D96
  8
SIZE
  6
CONTINUOUS
 62
     0
 10
3146.2673847729902
 20
-586.59461739025562
 30
0.0
 40
64.0
  1
330
 72
     1
 11
3228.5530990587049
 21
-586.59461739025562
 31
0.0
  0
ENDBLK
  5
D97
  8
0
  0
BLOCK
  8
0
  2
MTEXT_68
 70
     0
 10
0.0
 20
0.0
 30
0.0
  3
MTEXT_68
  1

  0
TEXT
  5
DA6
  8
SIZE
  6
CONTINUOUS
 62
     0
 10
2449.270398748266
 20
-1665.770695453308
 30
0.0
 40
64.0
  1
635
 50
90.0
 72
     1
 11
2449.270398748266
 21
-1583.484981167594
 31
0.0
  0
ENDBLK
  5
DA7
  8
0
  0
BLOCK
  8
0
  2
*D75
 70
     1
 10
0.0
 20
0.0
 30
0.0
  3
*D75
  1

  0
LINE
  5
13B7
  8
SIZE
  6
CONTINUOUS
 62
     0
 10
205.0
 20
1068.9999999999991
 30
0.0
 11
957.09737186652364
 21
1068.9999999999991
 31
0.0
  0
LINE
  5
13B8
  8
SIZE
  6
CONTINUOUS
 62
     0
 10
233.0
 20
-0.0000000000000057
 30
0.0
 11
957.09737186652319
 21
-0.0000000000002108
 31
0.0
  0
LINE
  5
13B9
  8
SIZE
  6
CONTINUOUS
 62
     0
 10
927.09737186652353
 20
1058.9999999999991
 30
0.0
 11
927.0973718665233
 21
9.9999999999997975
 31
0.0
  0
INSERT
  5
13BA
  8
SIZE
  6
CONTINUOUS
 62
     0
  2
_DOTBLANK
 10
927.09737186652353
 20
1068.9999999999991
 30
0.0
 41
10.0
 42
10.0
 43
10.0
 50
90.0
  0
INSERT
  5
13BB
  8
SIZE
  6
CONTINUOUS
 62
     0
  2
_DOTBLANK
 10
927.0973718665233
 20
-0.0000000000002023
 30
0.0
 41
10.0
 42
10.0
 43
10.0
 50
270.0
  0
TEXT
  8
0
  40
64
  5
13E6
  62
0
  72
0
  71
0
 10
767.007
 20
421.220
 30
0.000000
  1
1069
  0
POINT
  5
13BD
  8
DEFPOINTS
  6
CONTINUOUS
 62
     0
 10
185.0
 20
1068.9999999999991
 30
0.0
  0
POINT
  5
13BE
  8
DEFPOINTS
  6
CONTINUOUS
 62
     0
 10
213.0
 20
0.0
 30
0.0
  0
POINT
  5
13BF
  8
DEFPOINTS
  6
CONTINUOUS
 62
     0
 10
927.0973718665233
 20
-0.0000000000002023
 30
0.0
  0
ENDBLK
  5
EB8
  8
0
  0
BLOCK
  8
0
  2
*D76
 70
     1
 10
0.0
 20
0.0
 30
0.0
  3
*D76
  1

  0
LINE
  5
13C0
  8
SIZE
  6
CONTINUOUS
 62
     0
 10
143.99999999999989
 20
441.00000000000063
 30
0.0
 11
484.09784493948428
 21
441.00000000000051
 31
0.0
  0
LINE
  5
13C1
  8
SIZE
  6
CONTINUOUS
 62
     0
 10
233.0
 20
0.0000000000006765
 30
0.0
 11
484.09784493948422
 21
0.0000000000006053
 31
0.0
  0
LINE
  5
13C2
  8
SIZE
  6
CONTINUOUS
 62
     0
 10
454.09784493948428
 20
431.00000000000051
 30
0.0
 11
454.09784493948428
 21
10.000000000000609
 31
0.0
  0
INSERT
  5
13C3
  8
SIZE
  6
CONTINUOUS
 62
     0
  2
_DOTBLANK
 10
454.09784493948428
 20
441.00000000000051
 30
0.0
 41
10.0
 42
10.0
 43
10.0
 50
90.0
  0
INSERT
  5
13C4
  8
SIZE
  6
CONTINUOUS
 62
     0
  2
_DOTBLANK
 10
454.09784493948428
 20
0.0000000000006138
 30
0.0
 41
10.0
 42
10.0
 43
10.0
 50
270.0
  0
TEXT
  8
0
  40
64
  5
13E7
  62
0
  72
0
  71
0
 10
294.008
 20
107.220
 30
0.000000
  1
441
  0
POINT
  5
13C6
  8
DEFPOINTS
  6
CONTINUOUS
 62
     0
 10
124.0
 20
441.00000000000068
 30
0.0
  0
POINT
  5
13C7
  8
DEFPOINTS
  6
CONTINUOUS
 62
     0
 10
213.0
 20
0.0000000000006821
 30
0.0
  0
POINT
  5
13C8
  8
DEFPOINTS
  6
CONTINUOUS
 62
     0
 10
454.09784493948428
 20
0.0000000000006138
 30
0.0
  0
ENDBLK
  5
1049
  8
0
  0
BLOCK
  8
0
  2
*D77
 70
     1
 10
0.0
 20
0.0
 30
0.0
  3
*D77
  1

  0
LINE
  5
13C9
  8
SIZE
  6
CONTINUOUS
 62
     0
 10
233.0
 20
0.0000000000006765
 30
0.0
 11
639.27149711922254
 21
0.0000000000005614
 31
0.0
  0
LINE
  5
13CA
  8
SIZE
  6
CONTINUOUS
 62
     0
 10
160.0000000000004
 20
447.00000000000063
 30
0.0
 11
639.27149711922254
 21
447.00000000000051
 31
0.0
  0
LINE
  5
13CB
  8
SIZE
  6
CONTINUOUS
 62
     0
 10
609.27149711922254
 20
10.00000000000057
 30
0.0
 11
609.27149711922266
 21
437.00000000000051
 31
0.0
  0
INSERT
  5
13CC
  8
SIZE
  6
CONTINUOUS
 62
     0
  2
_DOTBLANK
 10
609.27149711922254
 20
0.0000000000005699
 30
0.0
 41
10.0
 42
10.0
 43
10.0
 50
270.0
  0
INSERT
  5
13CD
  8
SIZE
  6
CONTINUOUS
 62
     0
  2
_DOTBLANK
 10
609.27149711922266
 20
447.00000000000051
 30
0.0
 41
10.0
 42
10.0
 43
10.0
 50
90.0
  0
TEXT
  8
0
  40
64
  5
13E8
  62
0
  72
0
  71
0
 10
449.181
 20
110.220
 30
0.000000
  1
447
  0
POINT
  5
13CF
  8
DEFPOINTS
  6
CONTINUOUS
 62
     0
 10
213.0
 20
0.0000000000006821
 30
0.0
  0
POINT
  5
13D0
  8
DEFPOINTS
  6
CONTINUOUS
 62
     0
 10
140.0000000000004
 20
447.00000000000063
 30
0.0
  0
POINT
  5
13D1
  8
DEFPOINTS
  6
CONTINUOUS
 62
     0
 10
609.27149711922266
 20
447.00000000000051
 30
0.0
  0
ENDBLK
  5
106D
  8
0
  0
BLOCK
  8
0
  2
*D78
 70
     1
 10
0.0
 20
0.0
 30
0.0
  3
*D78
  1

  0
LINE
  5
13D2
  8
SIZE
  6
CONTINUOUS
 62
     0
 10
165.0
 20
680.00000000046271
 30
0.0
 11
165.0
 21
777.98900320665518
 31
0.0
  0
LINE
  5
13D3
  8
SIZE
  6
CONTINUOUS
 62
     0
 10
104.0
 20
481.0000000000004
 30
0.0
 11
104.0
 21
777.98900320665518
 31
0.0
  0
LINE
  5
13D4
  8
SIZE
  6
CONTINUOUS
 62
     0
 10
155.0
 20
747.9890032066553
 30
0.0
 11
114.0
 21
747.9890032066553
 31
0.0
  0
LINE
  5
13D5
  8
SIZE
  6
CONTINUOUS
 62
     0
 10
104.0
 20
747.9890032066553
 30
0.0
 11
25.248571428571449
 21
747.9890032066553
 31
0.0
  0
INSERT
  5
13D6
  8
SIZE
  6
CONTINUOUS
 62
     0
  2
_DOTBLANK
 10
165.0
 20
747.9890032066553
 30
0.0
 41
10.0
 42
10.0
 43
10.0
  0
INSERT
  5
13D7
  8
SIZE
  6
CONTINUOUS
 62
     0
  2
_DOTBLANK
 10
104.0
 20
747.9890032066553
 30
0.0
 41
10.0
 42
10.0
 43
10.0
 50
180.0
  0
TEXT
  8
0
  40
64
  5
13E9
  62
0
  72
0
  71
0
 10
-68.3757
 20
666.799
 30
0.000000
  1
61
  0
POINT
  5
13D9
  8
DEFPOINTS
  6
CONTINUOUS
 62
     0
 10
165.0
 20
660.00000000046271
 30
0.0
  0
POINT
  5
13DA
  8
DEFPOINTS
  6
CONTINUOUS
 62
     0
 10
104.0
 20
461.0000000000004
 30
0.0
  0
POINT
  5
13DB
  8
DEFPOINTS
  6
CONTINUOUS
 62
     0
 10
104.0
 20
747.9890032066553
 30
0.0
  0
ENDBLK
  5
109E
  8
0
  0
BLOCK
  8
0
  2
*D79
 70
     1
 10
0.0
 20
0.0
 30
0.0
  3
*D79
  1

  0
LINE
  5
13DC
  8
SIZE
  6
CONTINUOUS
 62
     0
 10
165.0
 20
640.00000000046259
 30
0.0
 11
165.0
 21
603.82404910490118
 31
0.0
  0
LINE
  5
13DD
  8
SIZE
  6
CONTINUOUS
 62
     0
 10
125.0
 20
487.0000000000004
 30
0.0
 11
125.0
 21
663.82404910490106
 31
0.0
  0
LINE
  5
13DE
  8
SIZE
  6
CONTINUOUS
 62
     0
 10
155.0
 20
633.82404910490106
 30
0.0
 11
135.0
 21
633.82404910490106
 31
0.0
  0
LINE
  5
13DF
  8
SIZE
  6
CONTINUOUS
 62
     0
 10
125.0
 20
633.82404910490106
 30
0.0
 11
21.562857142857158
 21
633.82404910490106
 31
0.0
  0
INSERT
  5
13E0
  8
SIZE
  6
CONTINUOUS
 62
     0
  2
_DOTBLANK
 10
165.0
 20
633.82404910490106
 30
0.0
 41
10.0
 42
10.0
 43
10.0
  0
INSERT
  5
13E1
  8
SIZE
  6
CONTINUOUS
 62
     0
  2
_DOTBLANK
 10
125.0
 20
633.82404910490106
 30
0.0
 41
10.0
 42
10.0
 43
10.0
 50
180.0
  0
TEXT
  8
0
  40
64
  5
13EA
  62
0
  72
0
  71
0
 10
-59.7186
 20
552.634
 30
0.000000
  1
40
  0
POINT
  5
13E3
  8
DEFPOINTS
  6
CONTINUOUS
 62
     0
 10
165.0
 20
660.00000000046271
 30
0.0
  0
POINT
  5
13E4
  8
DEFPOINTS
  6
CONTINUOUS
 62
     0
 10
125.0
 20
467.0000000000004
 30
0.0
  0
POINT
  5
13E5
  8
DEFPOINTS
  6
CONTINUOUS
 62
     0
 10
125.0
 20
633.82404910490106
 30
0.0
  0
ENDBLK
  5
10AB
  8
0
  0
BLOCK
  8
0
  2
*D80
 70
     1
 10
0.0
 20
0.0
 30
0.0
  3
*D80
  1

  0
LINE
  5
139C
  8
SIZE
  6
CONTINUOUS
 62
     0
 10
165.0
 20
1370.0
 30
0.0
 11
165.0
 21
1695.390363777339
 31
0.0
  0
LINE
  5
139D
  8
SIZE
  6
CONTINUOUS
 62
     0
 10
195.0000000000004
 20
782.00000000000102
 30
0.0
 11
195.0000000000004
 21
1695.390363777339
 31
0.0
  0
LINE
  5
139E
  8
SIZE
  6
CONTINUOUS
 62
     0
 10
175.0
 20
1665.390363777339
 30
0.0
 11
185.0000000000004
 21
1665.390363777339
 31
0.0
  0
TEXT
  8
0
  40
64
  5
13EB
  62
0
  72
0
  71
0
 10
153.629
 20
1552.11
 30
0.000000
  1
30
  0
INSERT
  5
13A0
  8
SIZE
  6
CONTINUOUS
 62
     0
  2
_DOTBLANK
 10
165.0
 20
1665.390363777339
 30
0.0
 41
10.0
 42
10.0
 43
10.0
 50
180.0
  0
INSERT
  5
13A1
  8
SIZE
  6
CONTINUOUS
 62
     0
  2
_DOTBLANK
 10
195.0000000000004
 20
1665.390363777339
 30
0.0
 41
10.0
 42
10.0
 43
10.0
  0
POINT
  5
13A2
  8
DEFPOINTS
  6
CONTINUOUS
 62
     0
 10
165.0
 20
1350.0
 30
0.0
  0
POINT
  5
13A3
  8
DEFPOINTS
  6
CONTINUOUS
 62
     0
 10
195.0000000000004
 20
762.00000000000102
 30
0.0
  0
POINT
  5
13A4
  8
DEFPOINTS
  6
CONTINUOUS
 62
     0
 10
195.0000000000004
 20
1665.390363777339
 30
0.0
  0
ENDBLK
  5
1222
  8
0
  0
BLOCK
  8
0
  2
*D81
 70
     1
 10
0.0
 20
0.0
 30
0.0
  3
*D81
  1

  0
LINE
  5
1393
  8
SIZE
  6
CONTINUOUS
 62
     0
 10
233.0000000000004
 20
-0.0000000000000057
 30
0.0
 11
1087.7659498415121
 21
-0.0000000000002478
 31
0.0
  0
LINE
  5
1394
  8
SIZE
  6
CONTINUOUS
 62
     0
 10
185.0
 20
1350.0
 30
0.0
 11
1087.765949841513
 21
1349.9999999999991
 31
0.0
  0
LINE
  5
1395
  8
SIZE
  6
CONTINUOUS
 62
     0
 10
1057.7659498415121
 20
9.9999999999997602
 30
0.0
 11
1057.765949841513
 21
1339.9999999999991
 31
0.0
  0
INSERT
  5
1396
  8
SIZE
  6
CONTINUOUS
 62
     0
  2
_DOTBLANK
 10
1057.7659498415121
 20
-0.0000000000002393
 30
0.0
 41
10.0
 42
10.0
 43
10.0
 50
270.0
  0
INSERT
  5
1397
  8
SIZE
  6
CONTINUOUS
 62
     0
  2
_DOTBLANK
 10
1057.765949841513
 20
1349.9999999999991
 30
0.0
 41
10.0
 42
10.0
 43
10.0
 50
90.0
  0
TEXT
  8
0
  40
64
  5
13EC
  62
0
  72
0
  71
0
 10
897.676
 20
561.720
 30
0.000000
  1
1350
  0
POINT
  5
1399
  8
DEFPOINTS
  6
CONTINUOUS
 62
     0
 10
213.0000000000004
 20
0.0
 30
0.0
  0
POINT
  5
139A
  8
DEFPOINTS
  6
CONTINUOUS
 62
     0
 10
165.0
 20
1350.0
 30
0.0
  0
POINT
  5
139B
  8
DEFPOINTS
  6
CONTINUOUS
 62
     0
 10
1057.765949841513
 20
1349.9999999999991
 30
0.0
  0
ENDBLK
  5
122E
  8
0
  0
BLOCK
  8
0
  2
*D82
 70
     1
 10
0.0
 20
0.0
 30
0.0
  3
*D82
  1

  0
LINE
  5
138A
  8
SIZE
  6
CONTINUOUS
 62
     0
 10
233.0
 20
-0.0000000000000057
 30
0.0
 11
789.28270031043985
 21
-0.0000000000001632
 31
0.0
  0
LINE
  5
138B
  8
SIZE
  6
CONTINUOUS
 62
     0
 10
215.0
 20
371.00000000046151
 30
0.0
 11
789.28270031043996
 21
371.00000000046128
 31
0.0
  0
LINE
  5
138C
  8
SIZE
  6
CONTINUOUS
 62
     0
 10
759.28270031043996
 20
9.9999999999998455
 30
0.0
 11
759.28270031043996
 21
361.00000000046128
 31
0.0
  0
INSERT
  5
138D
  8
SIZE
  6
CONTINUOUS
 62
     0
  2
_DOTBLANK
 10
759.28270031043996
 20
-0.0000000000001547
 30
0.0
 41
10.0
 42
10.0
 43
10.0
 50
270.0
  0
INSERT
  5
138E
  8
SIZE
  6
CONTINUOUS
 62
     0
  2
_DOTBLANK
 10
759.28270031043996
 20
371.00000000046128
 30
0.0
 41
10.0
 42
10.0
 43
10.0
 50
90.0
  0
TEXT
  8
0
  40
64
  5
13ED
  62
0
  72
0
  71
0
 10
599.193
 20
72.2200
 30
0.000000
  1
371
  0
POINT
  5
1390
  8
DEFPOINTS
  6
CONTINUOUS
 62
     0
 10
213.0
 20
0.0
 30
0.0
  0
POINT
  5
1391
  8
DEFPOINTS
  6
CONTINUOUS
 62
     0
 10
195.0
 20
371.00000000046151
 30
0.0
  0
POINT
  5
1392
  8
DEFPOINTS
  6
CONTINUOUS
 62
     0
 10
759.28270031043996
 20
371.00000000046128
 30
0.0
  0
ENDBLK
  5
123A
  8
0
  0
BLOCK
  8
0
  2
*D83
 70
     1
 10
0.0
 20
0.0
 30
0.0
  3
*D83
  1

  0
LINE
  5
1378
  8
SIZE
  6
CONTINUOUS
 62
     0
 10
185.0000000000004
 20
-40.0
 30
0.0
 11
185.0000000000004
 21
-364.82880203500957
 31
0.0
  0
LINE
  5
1379
  8
SIZE
  6
CONTINUOUS
 62
     0
 10
213.0000000000004
 20
-20.0
 30
0.0
 11
213.00000000000031
 21
-364.82880203500957
 31
0.0
  0
LINE
  5
137A
  8
SIZE
  6
CONTINUOUS
 62
     0
 10
195.00000000000031
 20
-334.82880203500957
 30
0.0
 11
203.00000000000031
 21
-334.82880203500957
 31
0.0
  0
TEXT
  8
0
  40
64
  5
13EE
  62
0
  72
0
  71
0
 10
159.693
 20
-401.808
 30
0.000000
  1
28
  0
INSERT
  5
137C
  8
SIZE
  6
CONTINUOUS
 62
     0
  2
_DOTBLANK
 10
185.0000000000004
 20
-334.82880203500957
 30
0.0
 41
10.0
 42
10.0
 43
10.0
 50
180.0
  0
INSERT
  5
137D
  8
SIZE
  6
CONTINUOUS
 62
     0
  2
_DOTBLANK
 10
213.00000000000031
 20
-334.82880203500957
 30
0.0
 41
10.0
 42
10.0
 43
10.0
  0
POINT
  5
137E
  8
DEFPOINTS
  6
CONTINUOUS
 62
     0
 10
185.0000000000004
 20
-20.0
 30
0.0
  0
POINT
  5
137F
  8
DEFPOINTS
  6
CONTINUOUS
 62
     0
 10
213.0000000000004
 20
0.0
 30
0.0
  0
POINT
  5
1380
  8
DEFPOINTS
  6
CONTINUOUS
 62
     0
 10
213.00000000000031
 20
-334.82880203500957
 30
0.0
  0
ENDBLK
  5
1246
  8
0
  0
BLOCK
  8
0
  2
*D84
 70
     1
 10
0.0
 20
0.0
 30
0.0
  3
*D84
  1

  0
LINE
  5
1381
  8
SIZE
  6
CONTINUOUS
 62
     0
 10
-204.0
 20
-20.0
 30
0.0
 11
-204.0
 21
-500.47583155258081
 31
0.0
  0
LINE
  5
1382
  8
SIZE
  6
CONTINUOUS
 62
     0
 10
213.0
 20
-20.0
 30
0.0
 11
212.99999999999989
 21
-500.47583155258081
 31
0.0
  0
LINE
  5
1383
  8
SIZE
  6
CONTINUOUS
 62
     0
 10
-194.0
 20
-470.47583155258093
 30
0.0
 11
202.99999999999989
 21
-470.47583155258093
 31
0.0
  0
INSERT
  5
1384
  8
SIZE
  6
CONTINUOUS
 62
     0
  2
_DOTBLANK
 10
-204.0
 20
-470.47583155258093
 30
0.0
 41
10.0
 42
10.0
 43
10.0
 50
180.0
  0
INSERT
  5
1385
  8
SIZE
  6
CONTINUOUS
 62
     0
  2
_DOTBLANK
 10
212.99999999999989
 20
-470.47583155258093
 30
0.0
 41
10.0
 42
10.0
 43
10.0
  0
TEXT
  8
0
  40
64
  5
13EF
  62
0
  72
0
  71
0
 10
-123.500
 20
-551.666
 30
0.000000
  1
417
  0
POINT
  5
1387
  8
DEFPOINTS
  6
CONTINUOUS
 62
     0
 10
-204.0
 20
0.0
 30
0.0
  0
POINT
  5
1388
  8
DEFPOINTS
  6
CONTINUOUS
 62
     0
 10
213.0
 20
0.0
 30
0.0
  0
POINT
  5
1389
  8
DEFPOINTS
  6
CONTINUOUS
 62
     0
 10
212.99999999999989
 20
-470.47583155258093
 30
0.0
  0
ENDBLK
  5
1266
  8
0
  0
BLOCK
  8
0
  2
*D85
 70
     1
 10
0.0
 20
0.0
 30
0.0
  3
*D85
  1

  0
LINE
  5
136D
  8
SIZE
  6
CONTINUOUS
 62
     0
 10
-184.9999999999994
 20
-40.0
 30
0.0
 11
-184.9999999999994
 21
-364.82880203500957
 31
0.0
  0
LINE
  5
136E
  8
SIZE
  6
CONTINUOUS
 62
     0
 10
-204.0
 20
-20.0
 30
0.0
 11
-204.0
 21
-364.82880203500957
 31
0.0
  0
LINE
  5
136F
  8
SIZE
  6
CONTINUOUS
 62
     0
 10
-174.9999999999994
 20
-334.82880203500957
 30
0.0
 11
-164.9999999999994
 21
-334.82880203500957
 31
0.0
  0
LINE
  5
1370
  8
SIZE
  6
CONTINUOUS
 62
     0
 10
-214.0
 20
-334.82880203500957
 30
0.0
 11
-224.0
 21
-334.82880203500957
 31
0.0
  0
TEXT
  8
0
  40
64
  5
13F0
  62
0
  72
0
  71
0
 10
-399.080
 20
-412.090
 30
0.000000
  1
19
  0
LINE
  5
1372
  8
SIZE
  6
CONTINUOUS
 62
     0
 10
-184.9999999999994
 20
-334.82880203500957
 30
0.0
 11
-204.0
 21
-334.82880203500957
 31
0.0
  0
INSERT
  5
1373
  8
SIZE
  6
CONTINUOUS
 62
     0
  2
_DOTBLANK
 10
-184.9999999999994
 20
-334.82880203500957
 30
0.0
 41
10.0
 42
10.0
 43
10.0
 50
180.0
  0
INSERT
  5
1374
  8
SIZE
  6
CONTINUOUS
 62
     0
  2
_DOTBLANK
 10
-204.0
 20
-334.82880203500957
 30
0.0
 41
10.0
 42
10.0
 43
10.0
  0
POINT
  5
1375
  8
DEFPOINTS
  6
CONTINUOUS
 62
     0
 10
-184.9999999999994
 20
-20.0
 30
0.0
  0
POINT
  5
1376
  8
DEFPOINTS
  6
CONTINUOUS
 62
     0
 10
-204.0
 20
0.0
 30
0.0
  0
POINT
  5
1377
  8
DEFPOINTS
  6
CONTINUOUS
 62
     0
 10
-204.0
 20
-334.82880203500957
 30
0.0
  0
ENDBLK
  5
1274
  8
0
  0
BLOCK
  8
0
  2
*D86
 70
     1
 10
0.0
 20
0.0
 30
0.0
  3
*D86
  1

  0
LINE
  5
1364
  8
SIZE
  6
CONTINUOUS
 62
     0
 10
-184.9999999999994
 20
-40.0
 30
0.0
 11
-184.9999999999994
 21
-364.82880203500957
 31
0.0
  0
LINE
  5
1365
  8
SIZE
  6
CONTINUOUS
 62
     0
 10
185.0000000000004
 20
-40.0
 30
0.0
 11
185.0000000000004
 21
-364.82880203500957
 31
0.0
  0
LINE
  5
1366
  8
SIZE
  6
CONTINUOUS
 62
     0
 10
-174.9999999999994
 20
-334.82880203500957
 30
0.0
 11
175.00000000000031
 21
-334.82880203500957
 31
0.0
  0
INSERT
  5
1367
  8
SIZE
  6
CONTINUOUS
 62
     0
  2
_DOTBLANK
 10
-184.9999999999994
 20
-334.82880203500957
 30
0.0
 41
10.0
 42
10.0
 43
10.0
 50
180.0
  0
INSERT
  5
1368
  8
SIZE
  6
CONTINUOUS
 62
     0
  2
_DOTBLANK
 10
185.0000000000004
 20
-334.82880203500957
 30
0.0
 41
10.0
 42
10.0
 43
10.0
  0
TEXT
  8
0
  40
64
  5
13F1
  62
0
  72
0
  71
0
 10
-128.000
 20
-416.019
 30
0.000000
  1
370
  0
POINT
  5
136A
  8
DEFPOINTS
  6
CONTINUOUS
 62
     0
 10
-184.9999999999994
 20
-20.0
 30
0.0
  0
POINT
  5
136B
  8
DEFPOINTS
  6
CONTINUOUS
 62
     0
 10
185.0000000000004
 20
-20.0
 30
0.0
  0
POINT
  5
136C
  8
DEFPOINTS
  6
CONTINUOUS
 62
     0
 10
185.0000000000004
 20
-334.82880203500957
 30
0.0
  0
ENDBLK
  5
1280
  8
0
  0
BLOCK
  8
0
  2
*D87
 70
     1
 10
0.0
 20
0.0
 30
0.0
  3
*D87
  1

  0
LINE
  5
13A5
  8
SIZE
  6
CONTINUOUS
 62
     0
 10
-165.0
 20
1370.0
 30
0.0
 11
-164.99999999999989
 21
1695.390363777339
 31
0.0
  0
LINE
  5
13A6
  8
SIZE
  6
CONTINUOUS
 62
     0
 10
165.0
 20
1370.0
 30
0.0
 11
165.0
 21
1695.390363777339
 31
0.0
  0
LINE
  5
13A7
  8
SIZE
  6
CONTINUOUS
 62
     0
 10
-154.99999999999989
 20
1665.390363777339
 30
0.0
 11
155.0
 21
1665.390363777339
 31
0.0
  0
INSERT
  5
13A8
  8
SIZE
  6
CONTINUOUS
 62
     0
  2
_DOTBLANK
 10
-164.99999999999989
 20
1665.390363777339
 30
0.0
 41
10.0
 42
10.0
 43
10.0
 50
180.0
  0
INSERT
  5
13A9
  8
SIZE
  6
CONTINUOUS
 62
     0
  2
_DOTBLANK
 10
165.0
 20
1665.390363777339
 30
0.0
 41
10.0
 42
10.0
 43
10.0
  0
TEXT
  8
0
  40
64
  5
13F2
  62
0
  72
0
  71
0
 10
-128.000
 20
1584.20
 30
0.000000
  1
330
  0
POINT
  5
13AB
  8
DEFPOINTS
  6
CONTINUOUS
 62
     0
 10
-165.0
 20
1350.0
 30
0.0
  0
POINT
  5
13AC
  8
DEFPOINTS
  6
CONTINUOUS
 62
     0
 10
165.0
 20
1350.0
 30
0.0
  0
POINT
  5
13AD
  8
DEFPOINTS
  6
CONTINUOUS
 62
     0
 10
165.0
 20
1665.390363777339
 30
0.0
  0
ENDBLK
  5
128C
  8
0
  0
BLOCK
  8
0
  2
*D88
 70
     1
 10
0.0
 20
0.0
 30
0.0
  3
*D88
  1

  0
LINE
  5
13AE
  8
SIZE
  6
CONTINUOUS
 62
     0
 10
275.42919599999988
 20
371.0
 30
0.0
 11
789.28270031043985
 21
370.99999999999977
 31
0.0
  0
LINE
  5
13AF
  8
SIZE
  6
CONTINUOUS
 62
     0
 10
275.42919600000027
 20
1006.0
 30
0.0
 11
789.28270031043996
 21
1006.0
 31
0.0
  0
LINE
  5
13B0
  8
SIZE
  6
CONTINUOUS
 62
     0
 10
759.28270031043996
 20
380.99999999999977
 30
0.0
 11
759.28270031043996
 21
995.99999999999989
 31
0.0
  0
INSERT
  5
13B1
  8
SIZE
  6
CONTINUOUS
 62
     0
  2
_DOTBLANK
 10
759.28270031043996
 20
370.99999999999977
 30
0.0
 41
10.0
 42
10.0
 43
10.0
 50
270.0
  0
INSERT
  5
13B2
  8
SIZE
  6
CONTINUOUS
 62
     0
  2
_DOTBLANK
 10
759.28270031043996
 20
1006.0
 30
0.0
 41
10.0
 42
10.0
 43
10.0
 50
90.0
  0
TEXT
  8
0
  40
64
  5
13F3
  62
0
  72
0
  71
0
 10
599.193
 20
575.220
 30
0.000000
  1
635
  0
POINT
  5
13B4
  8
DEFPOINTS
  6
CONTINUOUS
 62
     0
 10
255.42919599999999
 20
371.0
 30
0.0
  0
POINT
  5
13B5
  8
DEFPOINTS
  6
CONTINUOUS
 62
     0
 10
255.42919600000039
 20
1006.0
 30
0.0
  0
POINT
  5
13B6
  8
DEFPOINTS
  6
CONTINUOUS
 62
     0
 10
759.28270031043996
 20
1006.0
 30
0.0
  0
ENDBLK
  5
1298
  8
0
  0
ENDSEC
  0
SECTION
  2
ENTITIES
  0
CIRCLE
  5
E56
  8
ARRANGE
  6
CONTINUOUS
 10
0.0
 20
0.0
 30
0.0
 40
40.0
  0
LINE
  5
E57
  8
DETAIL
  6
CONTINOUS
 10
213.0
 20
0.0
 30
0.0
 11
-204.0
 21
0.0
 31
0.0
  0
POINT
  5
E58
  8
ARRANGE
  6
CONTINUOUS
 10
0.0
 20
0.0
 30
0.0
  0
LINE
  5
E59
  8
DETAIL
  6
CONTINOUS
 10
213.0000000000004
 20
33.0
 30
0.0
 11
-204.0
 21
33.0
 31
0.0
  0
CIRCLE
  5
E5A
  8
FIX
  6
CONTINUOUS
 10
-180.0
 20
0.0
 30
0.0
 40
40.0
  0
LINE
  5
E5B
  8
DETAIL
  6
CONTINOUS
 10
-204.0
 20
0.0
 30
0.0
 11
-204.0
 21
33.0
 31
0.0
  0
LINE
  5
E5C
  8
BASIS
  6
DASHDOT
 10
0.0
 20
-50.635823000000073
 30
0.0
 11
0.0
 21
1419.6539315756199
 31
0.0
  0
LINE
  5
E5D
  8
NOTE
  6
CONTINOUS
 10
-184.9999999999994
 20
-20.0
 30
0.0
 11
-184.9999999999994
 21
20.0
 31
0.0
  0
LINE
  5
E5E
  8
NOTE
  6
CONTINUOUS
 10
-984.87190399999884
 20
-290.07775399999991
 30
0.0
 11
-405.06510199999929
 21
-290.07775399999991
 31
0.0
  0
TEXT
  5
E5F
  8
NOTE
  6
CONTINUOUS
 10
-930.045885
 20
-274.97545300000002
 30
0.0
 40
64.0
  1
AH 2-U cut
 41
0.9
  0
LINE
  5
E60
  8
NOTE
  6
CONTINUOUS
 10
-405.06510199999929
 20
-290.07775399999991
 30
0.0
 11
-184.9999999999994
 21
0.0
 31
0.0
  0
LINE
  5
E61
  8
NOTE
  6
CONTINOUS
 10
-164.9999999999994
 20
0.0
 30
0.0
 11
-204.9999999999994
 21
0.0
 31
0.0
  0
LINE
  5
E62
  8
NOTE
  6
CONTINUOUS
 10
-184.9999999999994
 20
0.0
 30
0.0
 11
-200.10423999999941
 21
-37.038654999999828
 31
0.0
  0
LINE
  5
E63
  8
NOTE
  6
CONTINUOUS
 10
-184.9999999999994
 20
0.0
 30
0.0
 11
-216.59998299999961
 21
-24.524295000000158
 31
0.0
  0
LINE
  5
E64
  8
DETAIL
  6
CONTINOUS
 10
-165.0
 20
33.0
 30
0.0
 11
-165.0
 21
1350.0
 31
0.0
  0
CIRCLE
  5
E65
  8
FIX
  6
CONTINUOUS
 10
185.0000000000004
 20
0.0
 30
0.0
 40
40.0
  0
LINE
  5
E66
  8
DETAIL
  6
CONTINOUS
 10
213.0
 20
0.0
 30
0.0
 11
213.0000000000004
 21
33.0
 31
0.0
  0
LINE
  5
E67
  8
NOTE
  6
CONTINOUS
 10
185.0000000000004
 20
-20.0
 30
0.0
 11
185.0000000000004
 21
20.0
 31
0.0
  0
LINE
  5
E68
  8
NOTE
  6
CONTINUOUS
 10
989.87190399999974
 20
-290.07775399999991
 30
0.0
 11
410.06510199999991
 21
-290.07775399999991
 31
0.0
  0
TEXT
  5
E69
  8
NOTE
  6
CONTINUOUS
 10
435.29731299999992
 20
-274.97545300000002
 30
0.0
 40
64.0
  1
AH 2-12×36
 41
0.9
  0
LINE
  5
E6A
  8
NOTE
  6
CONTINUOUS
 10
405.06510200000019
 20
-290.07775399999991
 30
0.0
 11
185.0000000000004
 21
0.0
 31
0.0
  0
LINE
  5
E6B
  8
NOTE
  6
CONTINOUS
 10
205.0000000000004
 20
0.0
 30
0.0
 11
165.00000000000031
 21
0.0
 31
0.0
  0
LINE
  5
E6C
  8
NOTE
  6
CONTINUOUS
 10
185.0000000000004
 20
0.0
 30
0.0
 11
200.1042400000004
 21
-37.038654999999828
 31
0.0
  0
LINE
  5
E6D
  8
NOTE
  6
CONTINUOUS
 10
185.0000000000004
 20
0.0
 30
0.0
 11
216.59998300000041
 21
-24.524295000000158
 31
0.0
  0
TEXT
  5
E6E
  8
ETC
  6
CONTINUOUS
 10
1186.283529295371
 20
-163.22259585703691
 30
0.0
 40
64.0
  1
SMPU2955
 41
0.9
  0
LINE
  5
E6F
  8
DETAIL
  6
CONTINOUS
 10
165.0
 20
33.0
 30
0.0
 11
165.0
 21
1350.0
 31
0.0
  0
LINE
  5
E70
  8
BASIS
  6
DASHDOT
 10
255.42919599999999
 20
371.0
 30
0.0
 11
105.7262629999998
 21
371.0
 31
0.0
  0
TEXT
  5
E71
  8
ETC
  6
CONTINUOUS
 10
1184.763745890496
 20
-282.38919685703678
 30
0.0
 40
64.0
  1
室外機
 41
0.9
  0
LINE
  5
E72
  8
DETAIL
  6
CONTINUOUS
 10
195.0000000000004
 20
660.00000000046225
 30
0.0
 11
165.0
 21
660.00000000046225
 31
0.0
  0
LINE
  5
E73
  8
DETAIL
  6
CONTINUOUS
 10
195.0
 20
82.000000000460645
 30
0.0
 11
165.0
 21
82.000000000460645
 31
0.0
  0
LINE
  5
E74
  8
DETAIL
  6
CONTINUOUS
 10
195.0
 20
82.000000000460645
 30
0.0
 11
195.0000000000004
 21
660.00000000046225
 31
0.0
  0
LINE
  5
E79
  8
NOTE
  6
CONTINOUS
 10
165.0
 20
1088.9999999999991
 30
0.0
 11
165.0
 21
1048.9999999999991
 31
0.0
  0
LINE
  5
E7A
  8
NOTE
  6
CONTINOUS
 10
185.0
 20
1068.9999999999991
 30
0.0
 11
145.0
 21
1068.9999999999991
 31
0.0
  0
LINE
  5
E7B
  8
NOTE
  6
CONTINUOUS
 10
-185.1642750573248
 20
692.19470693964081
 30
0.0
 11
-558.87183869953003
 21
692.19470693964081
 31
0.0
  0
TEXT
  5
E7C
  8
NOTE
  6
CONTINUOUS
 10
-549.02736767803594
 20
710.65196801666104
 30
0.0
 40
64.0
  1
RL%%C9.52
 41
0.9
  0
LINE
  5
E7D
  8
NOTE
  6
CONTINUOUS
 10
-616.74467075567497
 20
218.13289365362951
 30
0.0
 11
-211.4379246685539
 21
218.13289365362951
 31
0.0
  0
TEXT
  5
E7E
  8
NOTE
  6
CONTINUOUS
 10
-607.57852589356378
 20
233.9322089022607
 30
0.0
 40
64.0
  1
RG%%C15.88
 41
0.9
  0
LINE
  5
E7F
  8
NOTE
  6
CONTINUOUS
 10
-468.46833820998989
 20
1381.5516088357399
 30
0.0
 11
-223.9952859049238
 21
1381.5516088357399
 31
0.0
  0
TEXT
  5
E80
  8
NOTE
  6
CONTINUOUS
 10
-453.68803320999081
 20
1396.6539098357389
 30
0.0
 40
64.0
  1
EL,CL
 41
0.9
  0
DIMENSION
  5
E81
  8
SIZE
  6
CONTINUOUS
  2
*D86
 10
185.0000000000004
 20
-334.82880203500957
 30
0.0
 11
0.0000000000004851
 21
-302.7388020350096
 31
0.0
 70
     0
 13
-184.9999999999994
 23
-20.0
 33
0.0
 14
185.0000000000004
 24
-20.0
 34
0.0
1001
ACAD
1000
DSTYLE
1002
{
1070
     6
1000
DOTBLANK
1070
     7
1000
DOTBLANK
1070
    41
1040
10.0
1070
    42
1040
20.0
1070
    43
1040
200.0
1070
    44
1040
30.0
1070
    73
1070
     0
1070
    74
1070
     0
1070
    77
1070
     1
1070
    78
1070
     8
1070
   140
1040
64.0
1070
   172
1070
     1
1070
   173
1070
     1
1002
}
  0
DIMENSION
  5
E82
  8
SIZE
  6
CONTINUOUS
  2
*D85
 10
-204.0
 20
-334.82880203500957
 30
0.0
 11
-271.07994293302721
 21
-298.80979814979941
 31
0.0
 70
   128
 13
-184.9999999999994
 23
-20.0
 33
0.0
 14
-204.0
 24
0.0
 34
0.0
1001
ACAD
1000
DSTYLE
1002
{
1070
     6
1000
DOTBLANK
1070
     7
1000
DOTBLANK
1070
    41
1040
10.0
1070
    42
1040
20.0
1070
    43
1040
200.0
1070
    44
1040
30.0
1070
    73
1070
     0
1070
    74
1070
     0
1070
    77
1070
     1
1070
    78
1070
     8
1070
   140
1040
64.0
1070
   172
1070
     1
1070
   173
1070
     1
1002
}
  0
DIMENSION
  5
E83
  8
SIZE
  6
CONTINUOUS
  2
*D83
 10
213.00000000000031
 20
-334.82880203500957
 30
0.0
 11
287.6931284051206
 21
-288.52823797028208
 31
0.0
 70
   128
 13
185.0000000000004
 23
-20.0
 33
0.0
 14
213.0000000000004
 24
0.0
 34
0.0
1001
ACAD
1000
DSTYLE
1002
{
1070
     6
1000
DOTBLANK
1070
     7
1000
DOTBLANK
1070
    41
1040
10.0
1070
    42
1040
20.0
1070
    43
1040
200.0
1070
    44
1040
30.0
1070
    73
1070
     0
1070
    74
1070
     0
1070
    77
1070
     1
1070
    78
1070
     8
1070
   140
1040
64.0
1070
   172
1070
     1
1070
   173
1070
     1
1002
}
  0
DIMENSION
  5
E84
  8
SIZE
  6
CONTINUOUS
  2
*D84
 10
212.99999999999989
 20
-470.47583155258093
 30
0.0
 11
4.4999999999999734
 21
-438.38583155258078
 31
0.0
 70
     0
 13
-204.0
 23
0.0
 33
0.0
 14
213.0
 24
0.0
 34
0.0
1001
ACAD
1000
DSTYLE
1002
{
1070
     6
1000
DOTBLANK
1070
     7
1000
DOTBLANK
1070
    41
1040
10.0
1070
    42
1040
20.0
1070
    43
1040
200.0
1070
    44
1040
30.0
1070
    73
1070
     0
1070
    74
1070
     0
1070
    77
1070
     1
1070
    78
1070
     8
1070
   140
1040
64.0
1070
   172
1070
     1
1070
   173
1070
     1
1002
}
  0
DIMENSION
  5
E88
  8
SIZE
  6
CONTINUOUS
  2
*D82
 10
759.28270031043996
 20
371.00000000046128
 30
0.0
 11
727.19270031043993
 21
185.5000000002307
 31
0.0
 70
     0
 13
213.0
 23
0.0
 33
0.0
 14
195.0
 24
371.00000000046151
 34
0.0
 50
90.0
1001
ACAD
1000
DSTYLE
1002
{
1070
     6
1000
DOTBLANK
1070
     7
1000
DOTBLANK
1070
    41
1040
10.0
1070
    42
1040
20.0
1070
    43
1040
200.0
1070
    44
1040
30.0
1070
    73
1070
     0
1070
    74
1070
     0
1070
    77
1070
     1
1070
    78
1070
     8
1070
   140
1040
64.0
1070
   172
1070
     1
1070
   173
1070
     1
1002
}
  0
DIMENSION
  5
E89
  8
SIZE
  6
CONTINUOUS
  2
*D81
 10
1057.765949841513
 20
1349.9999999999991
 30
0.0
 11
1025.675949841512
 21
674.99999999999989
 31
0.0
 70
     0
 13
213.0000000000004
 23
0.0
 33
0.0
 14
165.0
 24
1350.0
 34
0.0
 50
90.0
1001
ACAD
1000
DSTYLE
1002
{
1070
     6
1000
DOTBLANK
1070
     7
1000
DOTBLANK
1070
    41
1040
10.0
1070
    42
1040
20.0
1070
    43
1040
200.0
1070
    44
1040
30.0
1070
    73
1070
     0
1070
    74
1070
     0
1070
    77
1070
     1
1070
    78
1070
     8
1070
   140
1040
64.0
1070
   172
1070
     1
1070
   173
1070
     1
1002
}
  0
DIMENSION
  5
E8C
  8
SIZE
  6
CONTINUOUS
  2
*D80
 10
195.0000000000004
 20
1665.390363777339
 30
0.0
 11
281.62857142857172
 21
1665.390363777339
 31
0.0
 70
   128
 13
165.0
 23
1350.0
 33
0.0
 14
195.0000000000004
 24
762.00000000000102
 34
0.0
1001
ACAD
1000
DSTYLE
1002
{
1070
     6
1000
DOTBLANK
1070
     7
1000
DOTBLANK
1070
    41
1040
10.0
1070
    42
1040
20.0
1070
    43
1040
200.0
1070
    44
1040
30.0
1070
    73
1070
     0
1070
    74
1070
     0
1070
    77
1070
     1
1070
    78
1070
     8
1070
   140
1040
64.0
1070
   172
1070
     1
1070
   173
1070
     1
1002
}
  0
LINE
  5
E93
  8
NOTE
  6
CONTINUOUS
 10
165.0
 20
1068.9999999999991
 30
0.0
 11
141.36525684359171
 21
1101.2707125235529
 31
0.0
  0
LINE
  5
E94
  8
NOTE
  6
CONTINUOUS
 10
-223.9952859049238
 20
1381.5516088357399
 30
0.0
 11
165.0
 21
1068.9999999999991
 31
0.0
  0
LINE
  5
E95
  8
NOTE
  6
CONTINUOUS
 10
165.0
 20
1068.9999999999991
 30
0.0
 11
128.3963547181929
 21
1085.1298847568789
 31
0.0
  0
DIMENSION
  5
E96
  8
SIZE
  6
CONTINUOUS
  2
*D87
 10
165.0
 20
1665.390363777339
 30
0.0
 11
0.0000000000000304
 21
1697.480363777338
 31
0.0
 70
     0
 13
-165.0
 23
1350.0
 33
0.0
 14
165.0
 24
1350.0
 34
0.0
1001
ACAD
1000
DSTYLE
1002
{
1070
     6
1000
DOTBLANK
1070
     7
1000
DOTBLANK
1070
    41
1040
10.0
1070
    42
1040
20.0
1070
    43
1040
200.0
1070
    44
1040
30.0
1070
    73
1070
     0
1070
    74
1070
     0
1070
    77
1070
     1
1070
    78
1070
     8
1070
   140
1040
64.0
1070
   172
1070
     1
1070
   173
1070
     1
1002
}
  0
LINE
  5
E97
  8
DETAIL
  6
CONTINUOUS
 10
-165.00000000000031
 20
1350.0
 30
0.0
 11
165.00000000000031
 21
1350.0
 31
0.0
  0
LINE
  5
E98
  8
DETAIL
  6
CONTINUOUS
 10
195.0000000000004
 20
717.00000000046055
 30
0.0
 11
165.00000000000031
 21
717.00000000046055
 31
0.0
  0
LINE
  5
E99
  8
DETAIL
  6
CONTINUOUS
 10
195.0000000000004
 20
717.00000000046055
 30
0.0
 11
195.00000000000071
 21
1295.000000000462
 31
0.0
  0
LINE
  5
E9A
  8
DETAIL
  6
CONTINUOUS
 10
195.00000000000071
 20
1295.000000000462
 30
0.0
 11
165.00000000000031
 21
1295.000000000462
 31
0.0
  0
LINE
  5
E9B
  8
BASIS
  6
DASHDOT
 10
255.42919600000039
 20
1006.0
 30
0.0
 11
105.7262630000004
 21
1006.0
 31
0.0
  0
DIMENSION
  5
E9C
  8
SIZE
  6
CONTINUOUS
  2
*D88
 10
759.28270031043996
 20
1006.0
 30
0.0
 11
727.19270031043982
 21
688.49999999999989
 31
0.0
 70
     0
 13
255.42919599999999
 23
371.0
 33
0.0
 14
255.42919600000039
 24
1006.0
 34
0.0
 50
90.0
1001
ACAD
1000
DSTYLE
1002
{
1070
     6
1000
DOTBLANK
1070
     7
1000
DOTBLANK
1070
    41
1040
10.0
1070
    42
1040
20.0
1070
    43
1040
200.0
1070
    44
1040
30.0
1070
    73
1070
     0
1070
    74
1070
     0
1070
    77
1070
     1
1070
    78
1070
     8
1070
   140
1040
64.0
1070
   172
1070
     1
1070
   173
1070
     1
1002
}
  0
DIMENSION
  5
EAC
  8
SIZE
  6
CONTINUOUS
  2
*D75
 10
927.0973718665233
 20
-0.0000000000002023
 30
0.0
 11
895.00737186652327
 21
534.49999999999977
 31
0.0
 70
     0
 13
185.0
 23
1068.9999999999991
 33
0.0
 14
213.0
 24
0.0
 34
0.0
 50
90.0
1001
ACAD
1000
DSTYLE
1002
{
1070
   287
1070
     3
1070
     6
1000
DOTBLANK
1070
     7
1000
DOTBLANK
1070
    41
1040
10.0
1070
    42
1040
20.0
1070
    43
1040
200.0
1070
    44
1040
30.0
1070
    73
1070
     0
1070
    74
1070
     0
1070
    77
1070
     1
1070
    78
1070
     8
1070
   140
1040
64.0
1070
   172
1070
     1
1070
   173
1070
     1
1070
   275
1070
     0
1070
   279
1070
     0
1070
   284
1070
     0
1070
   285
1070
     0
1070
   286
1070
     0
1002
}
  0
LINE
  5
FC9
  8
NOTE
  6
CONTINUOUS
 10
-180.164275057325
 20
692.19470693964115
 30
0.0
 11
125.0
 21
447.00000000000063
 31
0.0
  0
LINE
  5
FCA
  8
NOTE
  6
CONTINUOUS
 10
-213.58790422870419
 20
218.1328936536303
 30
0.0
 11
104.0
 21
441.00000000000068
 31
0.0
  0
DIMENSION
  5
FD5
  8
SIZE
  6
CONTINUOUS
  2
*D76
 10
454.09784493948428
 20
0.0000000000006138
 30
0.0
 11
422.00784493948419
 21
220.5000000000006
 31
0.0
 70
     0
 13
124.0
 23
441.00000000000068
 33
0.0
 14
213.0
 24
0.0000000000006821
 34
0.0
 50
90.0
1001
ACAD
1000
DSTYLE
1002
{
1070
   287
1070
     3
1070
     6
1000
DOTBLANK
1070
     7
1000
DOTBLANK
1070
    41
1040
10.0
1070
    42
1040
20.0
1070
    43
1040
200.0
1070
    44
1040
30.0
1070
    73
1070
     0
1070
    74
1070
     0
1070
    77
1070
     1
1070
    78
1070
     8
1070
   140
1040
64.0
1070
   172
1070
     1
1070
   173
1070
     1
1070
   275
1070
     0
1070
   279
1070
     0
1070
   284
1070
     0
1070
   285
1070
     0
1070
   286
1070
     0
1002
}
  0
DIMENSION
  5
FDB
  8
SIZE
  6
CONTINUOUS
  2
*D77
 10
609.27149711922266
 20
447.00000000000051
 30
0.0
 11
577.18149711922251
 21
223.5000000000006
 31
0.0
 70
     0
 13
213.0
 23
0.0000000000006821
 33
0.0
 14
140.0000000000004
 24
447.00000000000063
 34
0.0
 50
90.0
1001
ACAD
1000
DSTYLE
1002
{
1070
     6
1000
DOTBLANK
1070
     7
1000
DOTBLANK
1070
    41
1040
10.0
1070
    42
1040
20.0
1070
    43
1040
200.0
1070
    44
1040
30.0
1070
    73
1070
     0
1070
    74
1070
     0
1070
    77
1070
     1
1070
    78
1070
     8
1070
   140
1040
64.0
1070
   172
1070
     1
1070
   173
1070
     1
1002
}
  0
DIMENSION
  5
FE9
  8
SIZE
  6
CONTINUOUS
  2
*D78
 10
104.0
 20
747.9890032066553
 30
0.0
 11
59.624285714285733
 21
780.07900320665533
 31
0.0
 70
     0
 13
165.0
 23
660.00000000046271
 33
0.0
 14
104.0
 24
461.0000000000004
 34
0.0
 50
180.0
1001
ACAD
1000
DSTYLE
1002
{
1070
   287
1070
     3
1070
     6
1000
DOTBLANK
1070
     7
1000
DOTBLANK
1070
    41
1040
10.0
1070
    42
1040
20.0
1070
    43
1040
200.0
1070
    44
1040
30.0
1070
    73
1070
     0
1070
    74
1070
     0
1070
    77
1070
     1
1070
    78
1070
     8
1070
   140
1040
64.0
1070
   172
1070
     1
1070
   173
1070
     1
1070
   275
1070
     0
1070
   279
1070
     0
1070
   284
1070
     0
1070
   285
1070
     0
1070
   286
1070
     0
1002
}
  0
DIMENSION
  5
FEA
  8
SIZE
  6
CONTINUOUS
  2
*D79
 10
125.0
 20
633.82404910490106
 30
0.0
 11
68.281428571428592
 21
665.9140491049011
 31
0.0
 70
     0
 13
165.0
 23
660.00000000046271
 33
0.0
 14
125.0
 24
467.0000000000004
 34
0.0
 50
180.0
1001
ACAD
1000
DSTYLE
1002
{
1070
   287
1070
     3
1070
     6
1000
DOTBLANK
1070
     7
1000
DOTBLANK
1070
    41
1040
10.0
1070
    42
1040
20.0
1070
    43
1040
200.0
1070
    44
1040
30.0
1070
    73
1070
     0
1070
    74
1070
     0
1070
    77
1070
     1
1070
    78
1070
     8
1070
   140
1040
64.0
1070
   172
1070
     1
1070
   173
1070
     1
1070
   275
1070
     0
1070
   279
1070
     0
1070
   284
1070
     0
1070
   285
1070
     0
1070
   286
1070
     0
1002
}
  0
LINE
  5
FF0
  8
NOTE
  6
CONTINOUS
 10
145.0
 20
447.00000000000063
 30
0.0
 11
105.0
 21
447.00000000000063
 31
0.0
  0
LINE
  5
FF1
  8
NOTE
  6
CONTINUOUS
 10
125.0
 20
447.00000000000063
 30
0.0
 11
101.36525684359179
 21
479.2707125235558
 31
0.0
  0
LINE
  5
FF2
  8
NOTE
  6
CONTINUOUS
 10
125.0
 20
447.00000000000063
 30
0.0
 11
88.396354718192924
 21
463.1298847568807
 31
0.0
  0
LINE
  5
FF3
  8
NOTE
  6
CONTINOUS
 10
124.0
 20
441.00000000000068
 30
0.0
 11
84.0
 21
441.00000000000068
 31
0.0
  0
LINE
  5
FF4
  8
NOTE
  6
CONTINOUS
 10
125.0
 20
467.0000000000004
 30
0.0
 11
125.0
 21
427.00000000000063
 31
0.0
  0
LINE
  5
FF5
  8
NOTE
  6
CONTINOUS
 10
104.0
 20
461.0000000000004
 30
0.0
 11
104.0
 21
421.00000000000068
 31
0.0
  0
LINE
  5
FF6
  8
NOTE
  6
CONTINUOUS
 10
104.0
 20
441.00000000000068
 30
0.0
 11
78.320188402749864
 21
410.33165628019168
 31
0.0
  0
LINE
  5
FF7
  8
NOTE
  6
CONTINUOUS
 10
104.0
 20
441.00000000000068
 30
0.0
 11
66.426459326506119
 21
427.28034212873348
 31
0.0
  0
LINE
  5
1014
  8
NOTE
  6
CONTINUOUS
 10
-616.74467075567497
 20
218.1328936536303
 30
0.0
 11
-213.58790422870419
 21
218.1328936536303
 31
0.0
  0
TEXT
  5
1015
  8
NOTE
  6
CONTINUOUS
 10
-607.57852589356378
 20
233.93220890226141
 30
0.0
 40
64.0
  1
RG%%C15.88
 41
0.9
  0
LINE
  5
1016
  8
NOTE
  6
CONTINUOUS
 10
-180.164275057325
 20
692.19470693964115
 30
0.0
 11
-558.87183869953014
 21
692.19470693964115
 31
0.0
  0
TEXT
  5
1017
  8
NOTE
  6
CONTINUOUS
 10
-549.02736767803606
 20
710.65196801666184
 30
0.0
 40
64.0
  1
RL%%C9.52
 41
0.9
  0
LINE
  5
131B
  8
OUTLINE
  6
CONTINUOUS
 10
195.0
 20
82.000000000460645
 30
0.0
 11
195.0000000000004
 21
660.00000000046248
 31
0.0
  0
LINE
  5
131C
  8
OUTLINE
  6
CONTINOUS
 10
165.0
 20
33.0
 30
0.0
 11
165.0
 21
1350.0
 31
0.0
  0
LINE
  5
131D
  8
OUTLINE
  6
CONTINOUS
 10
-165.0
 20
33.0
 30
0.0
 11
-165.0
 21
1350.0
 31
0.0
  0
LINE
  5
131E
  8
OUTLINE
  6
CONTINOUS
 10
213.0000000000004
 20
33.0
 30
0.0
 11
-204.0
 21
33.0
 31
0.0
  0
LINE
  5
131F
  8
OUTLINE
  6
CONTINOUS
 10
213.0
 20
0.0
 30
0.0
 11
-204.0
 21
0.0
 31
0.0
  0
LINE
  5
1320
  8
OUTLINE
  6
CONTINOUS
 10
-204.0
 20
0.0
 30
0.0
 11
-204.0
 21
33.0
 31
0.0
  0
LINE
  5
1321
  8
OUTLINE
  6
CONTINOUS
 10
213.0
 20
0.0
 30
0.0
 11
213.0000000000004
 21
33.0
 31
0.0
  0
LINE
  5
1322
  8
OUTLINE
  6
CONTINUOUS
 10
195.0
 20
82.000000000460645
 30
0.0
 11
165.0
 21
82.000000000460645
 31
0.0
  0
LINE
  5
1323
  8
OUTLINE
  6
CONTINUOUS
 10
195.0000000000004
 20
717.00000000046055
 30
0.0
 11
195.00000000000071
 21
1295.000000000462
 31
0.0
  0
LINE
  5
1324
  8
OUTLINE
  6
CONTINUOUS
 10
195.0000000000004
 20
660.00000000046248
 30
0.0
 11
165.0
 21
660.00000000046248
 31
0.0
  0
LINE
  5
1325
  8
OUTLINE
  6
CONTINUOUS
 10
195.0000000000004
 20
717.00000000046055
 30
0.0
 11
165.00000000000031
 21
717.00000000046055
 31
0.0
  0
LINE
  5
1326
  8
OUTLINE
  6
CONTINUOUS
 10
-165.00000000000031
 20
1350.0
 30
0.0
 11
165.00000000000031
 21
1350.0
 31
0.0
  0
LINE
  5
1327
  8
OUTLINE
  6
CONTINUOUS
 10
195.00000000000071
 20
1295.000000000462
 30
0.0
 11
165.00000000000031
 21
1295.000000000462
 31
0.0
  0
ENDSEC
  0
EOF
