  0
SECTION
  2
HEADER
  9
$ACADVER
  1
AC1009
  9
$INSBASE
 10
0.0
 20
0.0
 30
0.0
  9
$EXTMIN
 10
-948.6713434921902
 20
-500.47583155258093
 30
0.0
  9
$EXTMAX
 10
1627.8835292953711
 20
1187.346287997171
 30
0.0
  9
$LIMMIN
 10
-1213.712008957385
 20
-731.37089522038332
  9
$LIMMAX
 10
1813.1195791374259
 20
1390.5657091188
  9
$ORTHOMODE
 70
     1
  9
$REGENMODE
 70
     1
  9
$FILLMODE
 70
     1
  9
$QTEXTMODE
 70
     0
  9
$MIRRTEXT
 70
     0
  9
$DRAGMODE
 70
     2
  9
$LTSCALE
 40
20.0
  9
$OSMODE
 70
    37
  9
$ATTMODE
 70
     1
  9
$TEXTSIZE
 40
64.0
  9
$TRACEWID
 40
0.05
  9
$TEXTSTYLE
  7
STANDARD
  9
$CLAYER
  8
SIZE
  9
$CELTYPE
  6
CONTINUOUS
  9
$CECOLOR
 62
   256
  9
$DIMSCALE
 40
1.0
  9
$DIMASZ
 40
10.0
  9
$DIMEXO
 40
20.0
  9
$DIMDLI
 40
200.0
  9
$DIMRND
 40
0.0
  9
$DIMDLE
 40
0.0
  9
$DIMEXE
 40
30.0
  9
$DIMTP
 40
0.0
  9
$DIMTM
 40
0.0
  9
$DIMTXT
 40
64.0
  9
$DIMCEN
 40
0.09
  9
$DIMTSZ
 40
0.0
  9
$DIMTOL
 70
     0
  9
$DIMLIM
 70
     0
  9
$DIMTIH
 70
     0
  9
$DIMTOH
 70
     0
  9
$DIMSE1
 70
     0
  9
$DIMSE2
 70
     0
  9
$DIMTAD
 70
     1
  9
$DIMZIN
 70
     8
  9
$DIMBLK
  1

  9
$DIMASO
 70
     1
  9
$DIMSHO
 70
     0
  9
$DIMPOST
  1

  9
$DIMAPOST
  1

  9
$DIMALT
 70
     0
  9
$DIMALTD
 70
     2
  9
$DIMALTF
 40
25.399999999999999
  9
$DIMLFAC
 40
1.0
  9
$DIMTOFL
 70
     1
  9
$DIMTVP
 40
0.0
  9
$DIMTIX
 70
     0
  9
$DIMSOXD
 70
     0
  9
$DIMSAH
 70
     1
  9
$DIMBLK1
  1

  9
$DIMBLK2
  1

  9
$DIMSTYLE
  2
STANDARD
  9
$DIMCLRD
 70
     0
  9
$DIMCLRE
 70
     0
  9
$DIMCLRT
 70
     0
  9
$DIMTFAC
 40
1.0
  9
$DIMGAP
 40
0.09
  9
$LUNITS
 70
     2
  9
$LUPREC
 70
     4
  9
$SKETCHINC
 40
0.1
  9
$FILLETRAD
 40
6.0
  9
$AUNITS
 70
     1
  9
$AUPREC
 70
     3
  9
$MENU
  1
ACAD
  9
$ELEVATION
 40
0.0
  9
$PELEVATION
 40
0.0
  9
$THICKNESS
 40
0.0
  9
$LIMCHECK
 70
     0
  9
$BLIPMODE
 70
     0
  9
$CHAMFERA
 40
0.0
  9
$CHAMFERB
 40
0.0
  9
$SKPOLY
 70
     0
  9
$TDCREATE
 40
2450330.3932059952
  9
$TDUPDATE
 40
2453256.5859745601
  9
$TDINDWG
 40
0.1596187269
  9
$TDUSRTIMER
 40
0.1596184954
  9
$USRTIMER
 70
     1
  9
$ANGBASE
 50
0.0
  9
$ANGDIR
 70
     0
  9
$PDMODE
 70
     3
  9
$PDSIZE
 40
-2.0
  9
$PLINEWID
 40
0.0
  9
$COORDS
 70
     1
  9
$SPLFRAME
 70
     0
  9
$SPLINETYPE
 70
     6
  9
$SPLINESEGS
 70
     8
  9
$ATTDIA
 70
     0
  9
$ATTREQ
 70
     1
  9
$HANDLING
 70
-16383
  9
$HANDSEED
  5
147A
  9
$SURFTAB1
 70
     6
  9
$SURFTAB2
 70
     6
  9
$SURFTYPE
 70
     6
  9
$SURFU
 70
     6
  9
$SURFV
 70
     6
  9
$UCSNAME
  2

  9
$UCSORG
 10
0.0
 20
0.0
 30
0.0
  9
$UCSXDIR
 10
1.0
 20
0.0
 30
0.0
  9
$UCSYDIR
 10
0.0
 20
1.0
 30
0.0
  9
$PUCSNAME
  2

  9
$PUCSORG
 10
0.0
 20
0.0
 30
0.0
  9
$PUCSXDIR
 10
1.0
 20
0.0
 30
0.0
  9
$PUCSYDIR
 10
0.0
 20
1.0
 30
0.0
  9
$USERI1
 70
     0
  9
$USERI2
 70
     0
  9
$USERI3
 70
     0
  9
$USERI4
 70
     0
  9
$USERI5
 70
     0
  9
$USERR1
 40
20.0
  9
$USERR2
 40
0.0
  9
$USERR3
 40
0.0
  9
$USERR4
 40
0.0
  9
$USERR5
 40
0.0
  9
$WORLDVIEW
 70
     1
  9
$SHADEDGE
 70
     3
  9
$SHADEDIF
 70
    70
  9
$TILEMODE
 70
     1
  9
$MAXACTVP
 70
    64
  9
$PLIMCHECK
 70
     0
  9
$PEXTMIN
 10
1.0000000000000000E+020
 20
1.0000000000000000E+020
 30
1.0000000000000000E+020
  9
$PEXTMAX
 10
-1.0000000000000000E+020
 20
-1.0000000000000000E+020
 30
-1.0000000000000000E+020
  9
$PLIMMIN
 10
0.0
 20
0.0
  9
$PLIMMAX
 10
12.0
 20
9.0
  9
$UNITMODE
 70
     0
  9
$VISRETAIN
 70
     1
  9
$PLINEGEN
 70
     0
  9
$PSLTSCALE
 70
     1
  0
ENDSEC
  0
SECTION
  2
TABLES
  0
TABLE
  2
VPORT
 70
     2
  0
VPORT
  2
*ACTIVE
 70
     0
 10
0.0
 20
0.0
 11
1.0
 21
1.0
 12
411.51426251582319
 22
336.43936369119223
 13
0.0
 23
0.0
 14
50.0
 24
50.0
 15
100.0
 25
100.0
 16
0.0
 26
0.0
 36
1.0
 17
0.0
 27
0.0
 37
0.0
 40
2885.1246554041209
 41
1.2721893491124261
 42
50.0
 43
0.0
 44
0.0
 50
0.0
 51
0.0
 71
     0
 72
   500
 73
     1
 74
     0
 75
     0
 76
     0
 77
     0
 78
     0
  0
ENDTAB
  0
TABLE
  2
LTYPE
 70
     8
  0
LTYPE
  2
CONTINUOUS
 70
     0
  3
実線
 72
    65
 73
     0
 40
0.0
  0
LTYPE
  2
DASHDOT
 70
     0
  3
____ _ ____ _ ____ _ ____ _ ____ _ ____ _ ____
 72
    65
 73
     4
 40
5.5
 49
4.0
 49
-0.6
 49
0.3
 49
-0.6
  0
LTYPE
  2
CONTINOUS
 70
     0
  3
Solid line
 72
    65
 73
     0
 40
0.0
  0
LTYPE
  2
DASHED
 70
     0
  3
_ _ _ _ _ _ _ _ _ _ _ _ _ _ _ _ _ _ _ _ _ _ _
 72
    65
 73
     2
 40
2.0
 49
1.1999999999999991
 49
-0.8
  0
LTYPE
  2
DOT
 70
     0
  3
...............................................
 72
    65
 73
     2
 40
0.8
 49
0.5
 49
-0.3
  0
LTYPE
  2
DASHDOT1
 70
     0
  3
____ _ ____ _ ____ _ ____ _ ____ _ ____ _ ____
 72
    65
 73
     4
 40
2.0
 49
1.5
 49
-0.2
 49
0.1
 49
-0.2
  0
LTYPE
  2
DIVIDE
 70
     0
  3
_____ _ _ _____ _ _ _____ _ _ _____ _ _ ____
 72
    65
 73
     6
 40
6.4000000000000004
 49
4.0
 49
-0.6
 49
0.3
 49
-0.6
 49
0.3
 49
-0.6
  0
LTYPE
  2
DIVIDE1
 70
     0
  3
_____ _ _ _____ _ _ _____ _ _ _____ _ _ ____
 72
    65
 73
     6
 40
3.2000000000000002
 49
2.0
 49
-0.3
 49
0.15
 49
-0.3
 49
0.15
 49
-0.3
  0
ENDTAB
  0
TABLE
  2
LAYER
 70
    12
  0
LAYER
  2
0
 70
     0
 62
     7
  6
CONTINUOUS
  0
LAYER
  2
SIZE
 70
     0
 62
    32
  6
CONTINUOUS
  0
LAYER
  2
DETAIL
 70
     0
 62
     5
  6
CONTINUOUS
  0
LAYER
  2
OUTLINE
 70
     0
 62
     3
  6
CONTINUOUS
  0
LAYER
  2
BASIS
 70
     0
 62
     6
  6
CONTINUOUS
  0
LAYER
  2
NOTE
 70
     0
 62
     4
  6
CONTINUOUS
  0
LAYER
  2
ARRANGE
 70
     0
 62
     1
  6
CONTINUOUS
  0
LAYER
  2
FIX
 70
     0
 62
   241
  6
CONTINUOUS
  0
LAYER
  2
ETC
 70
     0
 62
    83
  6
CONTINUOUS
  0
LAYER
  2
SERVICESPACE
 70
     0
 62
     2
  6
CONTINUOUS
  0
LAYER
  2
SYMBOLLINE
 70
     0
 62
    38
  6
CONTINUOUS
  0
LAYER
  2
DEFPOINTS
 70
     0
 62
     7
  6
CONTINUOUS
  0
ENDTAB
  0
TABLE
  2
STYLE
 70
     2
  0
STYLE
  2
STANDARD
 70
     0
 40
0.0
 41
0.9
 50
0.0
 71
     0
 42
64.0
  3
SIMPLEX
  4
BIGFONT
  0
STYLE
  2
STANDARD1
 70
     0
 40
0.0
 41
1.0
 50
0.0
 71
     0
 42
3.2000000000000002
  3
MONOTXT
  4
BIGFONT
  0
ENDTAB
  0
TABLE
  2
VIEW
 70
     1
  0
VIEW
  2
ALL
 70
     0
 40
4282.6199999999999
 10
0.0
 20
41.309903999999989
 41
5940.0
 11
0.0
 21
0.0
 31
1.0
 12
0.0
 22
0.0
 32
0.0
 42
50.0
 43
0.0
 44
0.0
 50
0.0
 71
     0
  0
ENDTAB
  0
TABLE
  2
UCS
 70
     0
  0
ENDTAB
  0
TABLE
  2
APPID
 70
     1
  0
APPID
  2
ACAD
 70
     0
  0
ENDTAB
  0
TABLE
  2
DIMSTYLE
 70
     1
  0
DIMSTYLE
  2
STANDARD
 70
     0
  3

  4

  5

  6

  7

 40
1.0
 41
0.18
 42
0.0625
 43
0.38
 44
0.18
 45
0.0
 46
0.0
 47
0.0
 48
0.0
140
0.18
141
0.09
142
0.0
143
25.399999999999999
144
1.0
145
0.0
146
1.0
147
0.09
 71
     0
 72
     0
 73
     1
 74
     1
 75
     0
 76
     0
 77
     0
 78
     0
170
     0
171
     2
172
     0
173
     0
174
     0
175
     0
176
     0
177
     0
178
     0
  0
ENDTAB
  0
ENDSEC
  0
SECTION
  2
BLOCKS
  0
BLOCK
  8
0
  2
$MODEL_SPACE
 70
     0
 10
0.0
 20
0.0
 30
0.0
  3
$MODEL_SPACE
  1

  0
ENDBLK
  5
680
  8
0
  0
BLOCK
 67
     1
  8
0
  2
$PAPER_SPACE
 70
     0
 10
0.0
 20
0.0
 30
0.0
  3
$PAPER_SPACE
  1

  0
ENDBLK
  5
67C
 67
     1
  8
0
  0
BLOCK
  8
0
  2
A$C5F2C697A
 70
     0
 10
0.0
 20
0.0
 30
0.0
  3
A$C5F2C697A
  1

  0
TEXT
  5
6A3
  8
SIZE
  6
BYBLOCK
 10
910.8147643978815
 20
127.36127978650261
 30
0.0
 40
64.0
  1
370
 41
0.9
  0
LINE
  5
6A4
  8
SIZE
  6
BYBLOCK
 10
801.8719073978815
 20
95.361279786502593
 30
0.0
 11
1167.87190739788
 21
95.361279786502593
 31
0.0
  0
TEXT
  5
6A5
  8
SIZE
  6
BYBLOCK
 10
915.81476439788139
 20
1424.5027517865019
 30
0.0
 40
64.0
  1
330
 41
0.9
  0
LINE
  5
6A6
  8
SIZE
  6
BYBLOCK
 10
826.8719073978815
 20
1392.5027517865019
 30
0.0
 11
1152.87190739788
 21
1392.5027517865019
 31
0.0
  0
LINE
  5
6A7
  8
OUTLINE
  6
CONTINUOUS
 10
771.8719063978815
 20
290.07775178650252
 30
0.0
 11
1183.871906397881
 21
290.07775178650252
 31
0.0
  0
LINE
  5
6A8
  8
OUTLINE
  6
CONTINUOUS
 10
771.8719063978815
 20
323.07775178650252
 30
0.0
 11
1183.871906397881
 21
323.07775178650252
 31
0.0
  0
LINE
  5
6A9
  8
OUTLINE
  6
CONTINUOUS
 10
824.87190639788139
 20
1145.0777517865019
 30
0.0
 11
1154.8719063978799
 21
1145.0777517865019
 31
0.0
  0
CIRCLE
  5
6AA
  8
ARRANGE
  6
CONTINUOUS
 10
989.87190639788139
 20
290.07775178650252
 30
0.0
 40
40.0
  0
LINE
  5
6AB
  8
DETAIL
  6
CONTINOUS
 10
771.8719063978815
 20
290.07775178650252
 30
0.0
 11
1183.871906397881
 21
290.07775178650252
 31
0.0
  0
LINE
  5
6AC
  8
DETAIL
  6
CONTINOUS
 10
824.87190639788139
 20
1145.0777517865019
 30
0.0
 11
1154.8719063978799
 21
1145.0777517865019
 31
0.0
  0
TEXT
  5
6AD
  8
NOTE
  6
CONTINUOUS
 10
973.9808703978814
 20
913.84623078650259
 30
0.0
 40
64.0
  1
EL,CL
 41
0.9
  0
LINE
  5
6AE
  8
NOTE
  6
CONTINUOUS
 10
879.8719063978815
 20
686.07775178650252
 30
0.0
 11
1040.77148939788
 21
625.20405378650253
 31
0.0
  0
LINE
  5
6AF
  8
NOTE
  6
CONTINUOUS
 10
1205.83098439788
 20
895.38895978650271
 30
0.0
 11
918.87085639788165
 21
895.38895978650271
 31
0.0
  0
POINT
  5
6B0
  8
ARRANGE
  6
CONTINUOUS
 10
989.87190639788139
 20
290.07775178650252
 30
0.0
  0
LINE
  5
6B1
  8
DETAIL
  6
CONTINOUS
 10
771.8719063978815
 20
323.07775178650252
 30
0.0
 11
1183.871906397881
 21
323.07775178650252
 31
0.0
  0
LINE
  5
6B2
  8
NOTE
  6
CONTINUOUS
 10
882.87190639788139
 20
724.07775178650252
 30
0.0
 11
1040.77148939788
 21
812.30385178650226
 31
0.0
  0
CIRCLE
  5
6B3
  8
SIZE
  6
CONTINUOUS
 10
220.7875803978813
 20
290.07775178650252
 30
0.0
 40
6.0
  0
CIRCLE
  5
6B4
  8
SIZE
  6
CONTINUOUS
 10
503.55668139788139
 20
290.07775178650252
 30
0.0
 40
6.0
  0
CIRCLE
  5
6B5
  8
SIZE
  6
CONTINUOUS
 10
649.74425839788148
 20
290.07775178650252
 30
0.0
 40
6.0
  0
CIRCLE
  5
6B6
  8
SIZE
  6
CONTINUOUS
 10
350.83505539788138
 20
290.07775178650252
 30
0.0
 40
6.0
  0
LINE
  5
6B7
  8
OUTLINE
  6
CONTINUOUS
 10
771.8719063978815
 20
290.07775178650252
 30
0.0
 11
771.8719063978815
 21
323.07775178650252
 31
0.0
  0
CIRCLE
  5
6B8
  8
FIX
  6
CONTINUOUS
 10
799.8719063978815
 20
290.07775178650252
 30
0.0
 40
40.0
  0
LINE
  5
6B9
  8
DETAIL
  6
CONTINOUS
 10
771.8719063978815
 20
290.07775178650252
 30
0.0
 11
771.8719063978815
 21
323.07775178650252
 31
0.0
  0
LINE
  5
6BA
  8
BASIS
  6
DASHDOT
 10
989.87190639788139
 20
239.4419287865025
 30
0.0
 11
989.87190639788139
 21
1184.2961157865011
 31
0.0
  0
LINE
  5
6BB
  8
NOTE
  6
CONTINOUS
 10
799.8719063978815
 20
270.0777517865024
 30
0.0
 11
799.8719063978815
 21
310.07775178650252
 31
0.0
  0
LINE
  5
6BC
  8
NOTE
  6
CONTINUOUS
 10
0.0000023978816444
 20
-0.000002213497396
 30
0.0
 11
579.80680439788148
 21
-0.000002213497396
 31
0.0
  0
TEXT
  5
6BD
  8
NOTE
  6
CONTINUOUS
 10
14.78030739788152
 20
15.10229878650267
 30
0.0
 40
64.0
  1
AH 2-12×36
 41
0.9
  0
LINE
  5
6BE
  8
SIZE
  6
BYBLOCK
 10
715.70171039788136
 20
290.07775178650252
 30
0.0
 11
320.83505539788149
 21
290.07775178650252
 31
0.0
  0
LINE
  5
6BF
  8
SIZE
  6
BYBLOCK
 10
735.70171039788136
 20
290.07775178650252
 30
0.0
 11
473.55668139788122
 21
290.07775178650252
 31
0.0
  0
LINE
  5
6C0
  8
SIZE
  6
BYBLOCK
 10
735.70171039788136
 20
290.07775178650252
 30
0.0
 11
190.7875803978813
 21
290.07775178650252
 31
0.0
  0
LINE
  5
6C1
  8
NOTE
  6
CONTINUOUS
 10
579.80680439788148
 20
-0.000002213497396
 30
0.0
 11
799.8719063978815
 21
290.07775178650252
 31
0.0
  0
TEXT
  5
6C2
  8
SIZE
  6
BYBLOCK
 10
739.24333539788142
 20
127.36127978650261
 30
0.0
 40
64.0
  1
28
 41
0.9
  0
LINE
  5
6C3
  8
SIZE
  6
BYBLOCK
 10
735.70171039788136
 20
290.07775178650252
 30
0.0
 11
619.74425839788148
 21
290.07775178650252
 31
0.0
  0
LINE
  5
6C4
  8
SIZE
  6
BYBLOCK
 10
799.8719073978815
 20
250.0777517865026
 30
0.0
 11
799.8719073978815
 21
65.361279786502621
 31
0.0
  0
LINE
  5
6C5
  8
SIZE
  6
BYBLOCK
 10
799.8719073978815
 20
250.0777517865026
 30
0.0
 11
799.8719073978815
 21
65.361279786502621
 31
0.0
  0
LINE
  5
6C6
  8
SIZE
  6
BYBLOCK
 10
771.8719073978815
 20
270.0777517865024
 30
0.0
 11
771.8719073978815
 21
65.361279786502621
 31
0.0
  0
CIRCLE
  5
6C7
  8
SIZE
  6
CONTINUOUS
 10
799.8719073978815
 20
95.361279786502593
 30
0.0
 40
6.0
  0
CIRCLE
  5
6C8
  8
SIZE
  6
CONTINUOUS
 10
771.8719073978815
 20
95.361279786502593
 30
0.0
 40
6.0
  0
CIRCLE
  5
6C9
  8
SIZE
  6
CONTINUOUS
 10
799.8719073978815
 20
95.361279786502593
 30
0.0
 40
6.0
  0
LINE
  5
6CA
  8
SIZE
  6
BYBLOCK
 10
799.8719073978815
 20
95.361279786502593
 30
0.0
 11
771.8719073978815
 21
95.361279786502593
 31
0.0
  0
LINE
  5
6CB
  8
SIZE
  6
BYBLOCK
 10
769.8719073978815
 20
95.361279786502593
 30
0.0
 11
767.8719073978815
 21
95.361279786502593
 31
0.0
  0
LINE
  5
6CC
  8
SIZE
  6
BYBLOCK
 10
801.8719073978815
 20
95.361279786502593
 30
0.0
 11
803.87190739788139
 21
95.361279786502593
 31
0.0
  0
LINE
  5
6CD
  8
NOTE
  6
CONTINOUS
 10
779.8719063978815
 20
290.07775178650252
 30
0.0
 11
819.8719063978815
 21
290.07775178650252
 31
0.0
  0
LINE
  5
6CE
  8
NOTE
  6
CONTINUOUS
 10
799.8719063978815
 20
290.07775178650252
 30
0.0
 11
784.76766639788127
 21
253.0390967865026
 31
0.0
  0
LINE
  5
6CF
  8
NOTE
  6
CONTINUOUS
 10
799.8719063978815
 20
290.07775178650252
 30
0.0
 11
768.27192339788144
 21
265.55345678650241
 31
0.0
  0
LINE
  5
6D0
  8
SIZE
  6
BYBLOCK
 10
771.8719073978815
 20
343.07775178650252
 30
0.0
 11
771.8719073978815
 21
1422.5027517865019
 31
0.0
  0
LINE
  5
6D1
  8
OUTLINE
  6
CONTINUOUS
 10
824.87190639788139
 20
323.07775178650252
 30
0.0
 11
824.87190639788139
 21
1145.0777517865019
 31
0.0
  0
LINE
  5
6D2
  8
DETAIL
  6
CONTINOUS
 10
824.87190639788139
 20
323.07775178650252
 30
0.0
 11
824.87190639788139
 21
1145.0777517865019
 31
0.0
  0
LINE
  5
6D3
  8
DETAIL
  6
CONTINOUS
 10
804.8719063978815
 20
462.0777517865024
 30
0.0
 11
804.8719063978815
 21
1002.0777517865019
 31
0.0
  0
LINE
  5
6D4
  8
SIZE
  6
BYBLOCK
 10
714.44271139788157
 20
732.07775178650252
 30
0.0
 11
320.83505539788149
 21
732.07775178650252
 31
0.0
  0
LINE
  5
6D5
  8
SIZE
  6
BYBLOCK
 10
856.8719073978815
 20
724.07775178650252
 30
0.0
 11
473.55668139788122
 21
724.07775178650252
 31
0.0
  0
LINE
  5
6D6
  8
SIZE
  6
BYBLOCK
 10
777.27455739788161
 20
810.08015378650225
 30
0.0
 11
190.42745539788129
 21
810.08015378650225
 31
0.0
  0
LINE
  5
6D7
  8
SIZE
  6
BYBLOCK
 10
350.83505539788138
 20
292.07775178650252
 30
0.0
 11
350.83505539788138
 21
730.07775178650252
 31
0.0
  0
LINE
  5
6D8
  8
SIZE
  6
BYBLOCK
 10
503.55668139788139
 20
292.07775178650252
 30
0.0
 11
503.55668139788139
 21
724.07775178650252
 31
0.0
  0
TEXT
  5
6D9
  8
SIZE
  6
BYBLOCK
 10
188.7875803978813
 20
529.52060878650241
 30
0.0
 40
64.0
  1
520
 50
90.0
 41
0.9
  0
LINE
  5
6DA
  8
SIZE
  6
BYBLOCK
 10
220.7875803978813
 20
810.08015378650225
 30
0.0
 11
220.7875803978813
 21
603.57775178650252
 31
0.0
  0
TEXT
  5
6DB
  8
SIZE
  6
BYBLOCK
 10
318.83505539788149
 20
437.02060878650252
 30
0.0
 40
64.0
  1
442
 50
90.0
 41
0.9
  0
LINE
  5
6DC
  8
SIZE
  6
BYBLOCK
 10
220.7875803978813
 20
292.07775178650252
 30
0.0
 11
220.7875803978813
 21
603.57775178650252
 31
0.0
  0
TEXT
  5
6DD
  8
SIZE
  6
BYBLOCK
 10
471.55668139788139
 20
427.13489478650251
 30
0.0
 40
64.0
  1
434
 50
90.0
 41
0.9
  0
CIRCLE
  5
6DE
  8
SIZE
  6
CONTINUOUS
 10
220.4274553978814
 20
810.08015378650225
 30
0.0
 40
6.0
  0
CIRCLE
  5
6DF
  8
SIZE
  6
CONTINUOUS
 10
350.83505539788138
 20
732.07775178650252
 30
0.0
 40
6.0
  0
CIRCLE
  5
6E0
  8
SIZE
  6
CONTINUOUS
 10
503.55668139788139
 20
724.07775178650252
 30
0.0
 40
6.0
  0
LINE
  5
6E1
  8
SIZE
  6
BYBLOCK
 10
649.74425839788148
 20
292.07775178650252
 30
0.0
 11
649.74425839788148
 21
684.07775178650252
 31
0.0
  0
TEXT
  5
6E2
  8
SIZE
  6
BYBLOCK
 10
617.74425839788125
 20
415.3920377865025
 30
0.0
 40
64.0
  1
396
 50
90.0
 41
0.9
  0
LINE
  5
6E3
  8
DETAIL
  6
CONTINOUS
 10
824.87190639788139
 20
462.0777517865024
 30
0.0
 11
804.8719063978815
 21
462.0777517865024
 31
0.0
  0
LINE
  5
6E4
  8
SIZE
  6
BYBLOCK
 10
836.26393739788148
 20
686.07775178650252
 30
0.0
 11
619.74425839788148
 21
686.07775178650252
 31
0.0
  0
LINE
  5
6E5
  8
BASIS
  6
DASHDOT
 10
734.44271139788145
 20
732.07775178650252
 30
0.0
 11
884.14564339788137
 21
732.07775178650252
 31
0.0
  0
CIRCLE
  5
6E6
  8
SIZE
  6
CONTINUOUS
 10
649.74425839788148
 20
686.07775178650252
 30
0.0
 40
6.0
  0
LINE
  5
6E7
  8
NOTE
  6
CONTINOUS
 10
862.8719063978815
 20
724.07775178650252
 30
0.0
 11
902.8719063978815
 21
724.07775178650252
 31
0.0
  0
LINE
  5
6E8
  8
NOTE
  6
CONTINOUS
 10
859.87190639788162
 20
686.07775178650252
 30
0.0
 11
899.87190639788139
 21
686.07775178650252
 31
0.0
  0
LINE
  5
6E9
  8
NOTE
  6
CONTINOUS
 10
879.8719063978815
 20
666.07775178650252
 30
0.0
 11
879.8719063978815
 21
706.07775178650252
 31
0.0
  0
POLYLINE
  5
6EA
  8
NOTE
  6
CONTINUOUS
 66
     1
 10
0.0
 20
0.0
 30
0.0
  0
VERTEX
  5
13E3
  8
NOTE
  6
CONTINUOUS
 10
919.40695039788125
 20
679.99661178650251
 30
0.0
  0
VERTEX
  5
13E4
  8
NOTE
  6
CONTINUOUS
 10
879.8719063978815
 20
686.07775178650252
 30
0.0
  0
VERTEX
  5
13E5
  8
NOTE
  6
CONTINUOUS
 10
911.06968939788146
 20
661.04380778650238
 30
0.0
  0
SEQEND
  5
13E6
  8
NOTE
  6
CONTINUOUS
  0
POLYLINE
  5
6EF
  8
NOTE
  6
CONTINUOUS
 66
     1
 10
0.0
 20
0.0
 30
0.0
  0
VERTEX
  5
13E7
  8
NOTE
  6
CONTINUOUS
 10
911.55116939788149
 20
751.96143678650253
 30
0.0
  0
VERTEX
  5
13E8
  8
NOTE
  6
CONTINUOUS
 10
882.87190639788139
 20
724.07775178650252
 30
0.0
  0
VERTEX
  5
13E9
  8
NOTE
  6
CONTINUOUS
 10
921.65071939788174
 20
733.88609978650254
 30
0.0
  0
SEQEND
  5
13EA
  8
NOTE
  6
CONTINUOUS
  0
LINE
  5
6F4
  8
NOTE
  6
CONTINOUS
 10
882.87190639788139
 20
704.0777517865024
 30
0.0
 11
882.87190639788139
 21
744.07775178650252
 31
0.0
  0
LINE
  5
6F5
  8
NOTE
  6
CONTINUOUS
 10
824.51178139788146
 20
810.08015378650225
 30
0.0
 11
918.87085639788165
 21
895.38895978650271
 31
0.0
  0
LINE
  5
6F6
  8
NOTE
  6
CONTINOUS
 10
804.51178139788135
 20
810.08015378650225
 30
0.0
 11
844.51178139788135
 21
810.08015378650225
 31
0.0
  0
POLYLINE
  5
6F7
  8
NOTE
  6
CONTINUOUS
 66
     1
 10
0.0
 20
0.0
 30
0.0
  0
VERTEX
  5
13EB
  8
NOTE
  6
CONTINUOUS
 10
846.64476439788132
 20
843.39878378650269
 30
0.0
  0
VERTEX
  5
13EC
  8
NOTE
  6
CONTINUOUS
 10
824.51178139788146
 20
810.08015378650225
 30
0.0
  0
VERTEX
  5
13ED
  8
NOTE
  6
CONTINUOUS
 10
860.33882139788147
 20
827.86844278650256
 30
0.0
  0
SEQEND
  5
13EE
  8
NOTE
  6
CONTINUOUS
  0
LINE
  5
6FC
  8
NOTE
  6
CONTINOUS
 10
824.51178139788146
 20
790.08015378650225
 30
0.0
 11
824.51178139788146
 21
830.08015378650225
 31
0.0
  0
LINE
  5
6FD
  8
NOTE
  6
CONTINUOUS
 10
872.35755039788137
 20
933.93013678650243
 30
0.0
 11
872.35755039788137
 21
933.93013678650243
 31
0.0
  0
LINE
  5
6FE
  8
SIZE
  6
BYBLOCK
 10
824.8719073978815
 20
1185.0777517865019
 30
0.0
 11
824.8719073978815
 21
1422.5027517865019
 31
0.0
  0
LINE
  5
6FF
  8
SIZE
  6
BYBLOCK
 10
824.8719073978815
 20
1165.0777517865019
 30
0.0
 11
824.8719073978815
 21
1422.5027517865019
 31
0.0
  0
LINE
  5
700
  8
SIZE
  6
BYBLOCK
 10
824.8719073978815
 20
1165.0777517865019
 30
0.0
 11
824.8719073978815
 21
1293.248751786502
 31
0.0
  0
LINE
  5
701
  8
SIZE
  6
BYBLOCK
 10
804.87190739788139
 20
1022.0777517865019
 30
0.0
 11
804.87190739788139
 21
1293.248751786502
 31
0.0
  0
LINE
  5
702
  8
DETAIL
  6
CONTINOUS
 10
824.87190639788139
 20
1002.0777517865019
 30
0.0
 11
804.8719063978815
 21
1002.0777517865019
 31
0.0
  0
LINE
  5
703
  8
SIZE
  6
CONTINUOUS
 10
814.87190639788139
 20
1263.2491457865019
 30
0.0
 11
945.94025839788139
 21
1263.2491457865019
 31
0.0
  0
LINE
  5
704
  8
SIZE
  6
BYBLOCK
 10
822.8719073978815
 20
1263.2491457865019
 30
0.0
 11
814.8719073978815
 21
1263.2491457865019
 31
0.0
  0
CIRCLE
  5
705
  8
SIZE
  6
CONTINUOUS
 10
804.87190739788139
 20
1263.2491457865019
 30
0.0
 40
6.0
  0
LINE
  5
706
  8
SIZE
  6
BYBLOCK
 10
806.8719073978815
 20
1263.2491457865019
 30
0.0
 11
814.8719073978815
 21
1263.2491457865019
 31
0.0
  0
CIRCLE
  5
707
  8
SIZE
  6
CONTINUOUS
 10
824.8719073978815
 20
1263.2491457865019
 30
0.0
 40
6.0
  0
TEXT
  5
708
  8
SIZE
  6
BYBLOCK
 10
751.74333539788142
 20
1424.5027517865019
 30
0.0
 40
64.0
  1
53
 41
0.9
  0
TEXT
  5
709
  8
SIZE
  6
BYBLOCK
 10
843.21570539788104
 20
1295.248751786502
 30
0.0
 40
64.0
  1
20
 41
0.9
  0
LINE
  5
70A
  8
SIZE
  6
BYBLOCK
 10
824.8719073978815
 20
1392.5027517865019
 30
0.0
 11
771.8719073978815
 21
1392.5027517865019
 31
0.0
  0
CIRCLE
  5
70B
  8
SIZE
  6
CONTINUOUS
 10
771.8719073978815
 20
1392.5027517865019
 30
0.0
 40
6.0
  0
LINE
  5
70C
  8
SIZE
  6
BYBLOCK
 10
769.8719073978815
 20
1392.5027517865019
 30
0.0
 11
767.8719073978815
 21
1392.5027517865019
 31
0.0
  0
CIRCLE
  5
70D
  8
SIZE
  6
CONTINUOUS
 10
824.8719073978815
 20
1392.5027517865019
 30
0.0
 40
6.0
  0
CIRCLE
  5
70E
  8
SIZE
  6
CONTINUOUS
 10
824.8719073978815
 20
1392.5027517865019
 30
0.0
 40
6.0
  0
LINE
  5
70F
  8
SIZE
  6
BYBLOCK
 10
826.8719073978815
 20
1392.5027517865019
 30
0.0
 11
828.87190739788139
 21
1392.5027517865019
 31
0.0
  0
CIRCLE
  5
710
  8
SIZE
  6
CONTINUOUS
 10
1420.44446039788
 20
290.07775178650252
 30
0.0
 40
6.0
  0
CIRCLE
  5
711
  8
FIX
  6
CONTINUOUS
 10
1169.871906397881
 20
290.07775178650252
 30
0.0
 40
40.0
  0
LINE
  5
712
  8
OUTLINE
  6
CONTINUOUS
 10
1183.871906397881
 20
323.07775178650252
 30
0.0
 11
1183.871906397881
 21
290.07775178650252
 31
0.0
  0
TEXT
  5
713
  8
ETC
  6
CONTINUOUS
 10
1573.1112623978811
 20
288.6366377865026
 30
0.0
 40
64.0
  1
室外機
 41
0.9
  0
LINE
  5
714
  8
DETAIL
  6
CONTINOUS
 10
1183.871906397881
 20
290.07775178650252
 30
0.0
 11
1183.871906397881
 21
323.07775178650252
 31
0.0
  0
LINE
  5
715
  8
NOTE
  6
CONTINOUS
 10
1169.871906397881
 20
270.0777517865024
 30
0.0
 11
1169.871906397881
 21
310.07775178650252
 31
0.0
  0
LINE
  5
716
  8
NOTE
  6
CONTINUOUS
 10
1969.74381039788
 20
-0.000002213497396
 30
0.0
 11
1389.9370083978811
 21
-0.000002213497396
 31
0.0
  0
TEXT
  5
717
  8
NOTE
  6
CONTINUOUS
 10
1415.1692193978811
 20
15.10229878650267
 30
0.0
 40
64.0
  1
AH 2-U cut
 41
0.9
  0
LINE
  5
718
  8
NOTE
  6
CONTINUOUS
 10
1389.9370083978811
 20
-0.000002213497396
 30
0.0
 11
1169.871906397881
 21
290.07775178650252
 31
0.0
  0
LINE
  5
719
  8
SIZE
  6
BYBLOCK
 10
1214.7137463978811
 20
290.07775178650252
 30
0.0
 11
1450.44446039788
 21
290.07775178650252
 31
0.0
  0
LINE
  5
71A
  8
SIZE
  6
BYBLOCK
 10
1183.87190739788
 20
270.0777517865024
 30
0.0
 11
1183.87190739788
 21
65.361279786502621
 31
0.0
  0
LINE
  5
71B
  8
SIZE
  6
BYBLOCK
 10
1169.87190739788
 20
250.0777517865026
 30
0.0
 11
1169.87190739788
 21
65.361279786502621
 31
0.0
  0
LINE
  5
71C
  8
SIZE
  6
BYBLOCK
 10
1169.87190739788
 20
250.0777517865026
 30
0.0
 11
1169.87190739788
 21
65.361279786502621
 31
0.0
  0
CIRCLE
  5
71D
  8
SIZE
  6
CONTINUOUS
 10
1169.87190739788
 20
95.361279786502593
 30
0.0
 40
6.0
  0
CIRCLE
  5
71E
  8
SIZE
  6
CONTINUOUS
 10
1169.87190739788
 20
95.361279786502593
 30
0.0
 40
6.0
  0
CIRCLE
  5
71F
  8
SIZE
  6
CONTINUOUS
 10
1183.87190739788
 20
95.361279786502593
 30
0.0
 40
6.0
  0
LINE
  5
720
  8
SIZE
  6
BYBLOCK
 10
1183.87190739788
 20
95.361279786502593
 30
0.0
 11
1169.87190739788
 21
95.361279786502593
 31
0.0
  0
LINE
  5
721
  8
SIZE
  6
BYBLOCK
 10
1167.87190739788
 20
95.361279786502593
 30
0.0
 11
1165.87190739788
 21
95.361279786502593
 31
0.0
  0
LINE
  5
722
  8
SIZE
  6
BYBLOCK
 10
1185.87190739788
 20
95.361279786502593
 30
0.0
 11
1187.87190739788
 21
95.361279786502593
 31
0.0
  0
TEXT
  5
723
  8
SIZE
  6
BYBLOCK
 10
1134.3576213978811
 20
127.36127978650261
 30
0.0
 40
64.0
  1
14
 41
0.9
  0
LINE
  5
724
  8
NOTE
  6
CONTINOUS
 10
1149.871906397881
 20
290.07775178650252
 30
0.0
 11
1189.871906397881
 21
290.07775178650252
 31
0.0
  0
LINE
  5
725
  8
NOTE
  6
CONTINUOUS
 10
1169.871906397881
 20
290.07775178650252
 30
0.0
 11
1184.97614639788
 21
253.0390967865026
 31
0.0
  0
LINE
  5
726
  8
NOTE
  6
CONTINUOUS
 10
1169.871906397881
 20
290.07775178650252
 30
0.0
 11
1201.47188939788
 21
265.55345678650241
 31
0.0
  0
TEXT
  5
727
  8
ETC
  6
CONTINUOUS
 10
1561.288518397879
 20
407.8032387865025
 30
0.0
 40
64.0
  1
SPUZ0824
 41
0.9
  0
LINE
  5
728
  8
SIZE
  6
BYBLOCK
 10
1420.44446039788
 20
1143.0777517865019
 30
0.0
 11
1420.44446039788
 21
717.57775178650252
 31
0.0
  0
LINE
  5
729
  8
OUTLINE
  6
CONTINUOUS
 10
1154.8719063978799
 20
1145.0777517865019
 30
0.0
 11
1154.8719063978799
 21
323.07775178650252
 31
0.0
  0
LINE
  5
72A
  8
DETAIL
  6
CONTINOUS
 10
1154.8719063978799
 20
323.07775178650252
 30
0.0
 11
1154.8719063978799
 21
1145.0777517865019
 31
0.0
  0
LINE
  5
72B
  8
SIZE
  6
BYBLOCK
 10
1420.44446039788
 20
292.07775178650252
 30
0.0
 11
1420.44446039788
 21
717.57775178650252
 31
0.0
  0
LINE
  5
72C
  8
NOTE
  6
CONTINUOUS
 10
1124.871906397881
 20
323.07775178650252
 30
0.0
 11
1231.96219639788
 21
428.57361078650251
 31
0.0
  0
LINE
  5
72D
  8
NOTE
  6
CONTINOUS
 10
1104.871906397881
 20
323.07775178650252
 30
0.0
 11
1144.871906397881
 21
323.07775178650252
 31
0.0
  0
POLYLINE
  5
72E
  8
NOTE
  6
CONTINUOUS
 66
     1
 10
0.0
 20
0.0
 30
0.0
  0
VERTEX
  5
13EF
  8
NOTE
  6
CONTINUOUS
 10
1145.1311663978811
 20
357.56778478650261
 30
0.0
  0
VERTEX
  5
13F0
  8
NOTE
  6
CONTINUOUS
 10
1124.871906397881
 20
323.07775178650252
 30
0.0
  0
VERTEX
  5
13F1
  8
NOTE
  6
CONTINUOUS
 10
1159.661957397881
 20
342.81736678650259
 30
0.0
  0
SEQEND
  5
13F2
  8
NOTE
  6
CONTINUOUS
  0
LINE
  5
733
  8
NOTE
  6
CONTINOUS
 10
1124.871906397881
 20
303.07775178650257
 30
0.0
 11
1124.871906397881
 21
343.07775178650252
 31
0.0
  0
TEXT
  5
734
  8
NOTE
  6
CONTINUOUS
 10
1251.9401213978811
 20
438.44475178650248
 30
0.0
 40
64.0
  1
D
 41
0.9
  0
LINE
  5
735
  8
NOTE
  6
CONTINUOUS
 10
1231.96219639788
 20
428.57361078650251
 30
0.0
 11
1302.198482397881
 21
428.57361078650251
 31
0.0
  0
TEXT
  5
736
  8
NOTE
  6
CONTINUOUS
 10
1060.7086543978789
 20
635.63939678650252
 30
0.0
 40
64.0
  1
RG
 41
0.9
  0
LINE
  5
737
  8
NOTE
  6
CONTINUOUS
 10
1040.77148939788
 20
625.20405378650253
 30
0.0
 11
1180.455218397881
 21
625.20405378650253
 31
0.0
  0
TEXT
  5
738
  8
NOTE
  6
CONTINUOUS
 10
1060.92620539788
 20
822.17499278650257
 30
0.0
 40
64.0
  1
RL
 41
0.9
  0
LINE
  5
739
  8
NOTE
  6
CONTINUOUS
 10
1040.77148939788
 20
812.30385178650226
 30
0.0
 11
1170.35759939788
 21
812.30385178650226
 31
0.0
  0
TEXT
  5
73A
  8
SIZE
  6
BYBLOCK
 10
1388.44446039788
 20
643.52060878650252
 30
0.0
 40
64.0
  1
855
 50
90.0
 41
0.9
  0
LINE
  5
73B
  8
SIZE
  6
BYBLOCK
 10
1154.87190739788
 20
1165.0777517865019
 30
0.0
 11
1154.87190739788
 21
1422.5027517865019
 31
0.0
  0
LINE
  5
73C
  8
SIZE
  6
BYBLOCK
 10
1203.87190739788
 20
1145.0777517865019
 30
0.0
 11
1450.44446039788
 21
1145.0777517865019
 31
0.0
  0
CIRCLE
  5
73D
  8
SIZE
  6
CONTINUOUS
 10
1420.44446039788
 20
1145.0777517865019
 30
0.0
 40
6.0
  0
CIRCLE
  5
73E
  8
SIZE
  6
CONTINUOUS
 10
1154.87190739788
 20
1392.5027517865019
 30
0.0
 40
6.0
  0
ENDBLK
  5
73F
  8
0
  0
BLOCK
  8
0
  2
_ORIGIN
 70
     0
 10
0.0
 20
0.0
 30
0.0
  3
_ORIGIN
  1

  0
CIRCLE
  5
742
  8
0
  6
BYBLOCK
 62
     0
 10
0.0
 20
0.0
 30
0.0
 40
0.5
  0
LINE
  5
743
  8
0
  6
BYBLOCK
 62
     0
 10
0.0
 20
0.0
 30
0.0
 11
-1.0
 21
0.0
 31
0.0
  0
ENDBLK
  5
744
  8
0
  0
BLOCK
  8
0
  2
_ORIGIN2
 70
     0
 10
0.0
 20
0.0
 30
0.0
  3
_ORIGIN2
  1

  0
CIRCLE
  5
747
  8
0
  6
BYBLOCK
 62
     0
 10
0.0
 20
0.0
 30
0.0
 40
0.5
  0
CIRCLE
  5
748
  8
0
  6
BYBLOCK
 62
     0
 10
0.0
 20
0.0
 30
0.0
 40
0.25
  0
LINE
  5
749
  8
0
  6
BYBLOCK
 62
     0
 10
-0.5
 20
0.0
 30
0.0
 11
-1.0
 21
0.0
 31
0.0
  0
ENDBLK
  5
74A
  8
0
  0
BLOCK
  8
0
  2
_DOTBLANK
 70
     0
 10
0.0
 20
0.0
 30
0.0
  3
_DOTBLANK
  1

  0
CIRCLE
  5
74D
  8
0
  6
BYBLOCK
 62
     0
 10
0.0
 20
0.0
 30
0.0
 40
0.5
  0
LINE
  5
74E
  8
0
  6
BYBLOCK
 62
     0
 10
-0.5
 20
0.0
 30
0.0
 11
-1.0
 21
0.0
 31
0.0
  0
ENDBLK
  5
74F
  8
0
  0
BLOCK
  8
0
  2
*D6
 70
     1
 10
0.0
 20
0.0
 30
0.0
  3
*D6
  1

  0
LINE
  5
13F3
  8
SIZE
  6
CONTINUOUS
 62
     0
 10
165.0
 20
759.99999999999966
 30
0.0
 11
165.0
 21
1153.2562879971711
 31
0.0
  0
LINE
  5
13F4
  8
SIZE
  6
CONTINUOUS
 62
     0
 10
-165.0
 20
760.0
 30
0.0
 11
-164.99999999999989
 21
1153.2562879971711
 31
0.0
  0
LINE
  5
13F5
  8
SIZE
  6
CONTINUOUS
 62
     0
 10
155.0
 20
1123.2562879971711
 30
0.0
 11
-154.99999999999989
 21
1123.2562879971711
 31
0.0
  0
INSERT
  5
13F6
  8
SIZE
  6
CONTINUOUS
 62
     0
  2
_DOTBLANK
 10
165.0
 20
1123.2562879971711
 30
0.0
 41
10.0
 42
10.0
 43
10.0
  0
INSERT
  5
13F7
  8
SIZE
  6
CONTINUOUS
 62
     0
  2
_DOTBLANK
 10
-164.99999999999989
 20
1123.2562879971711
 30
0.0
 41
10.0
 42
10.0
 43
10.0
 50
180.0
  0
TEXT
  8
0
  40
64
  5
146D
  62
0
  72
0
  71
0
 10
-128.000
 20
1042.07
 30
0.000000
  1
330
  0
POINT
  5
13F9
  8
DEFPOINTS
  6
CONTINUOUS
 62
     0
 10
165.0
 20
739.99999999999966
 30
0.0
  0
POINT
  5
13FA
  8
DEFPOINTS
  6
CONTINUOUS
 62
     0
 10
-165.0
 20
740.0
 30
0.0
  0
POINT
  5
13FB
  8
DEFPOINTS
  6
CONTINUOUS
 62
     0
 10
-164.99999999999989
 20
1123.2562879971711
 30
0.0
  0
ENDBLK
  5
D9B
  8
0
  0
BLOCK
  8
0
  2
*D7
 70
     1
 10
0.0
 20
0.0
 30
0.0
  3
*D7
  1

  0
LINE
  5
13FC
  8
SIZE
  6
CONTINUOUS
 62
     0
 10
-184.99999999999901
 20
-40.0
 30
0.0
 11
-184.99999999999909
 21
-364.82880203500957
 31
0.0
  0
LINE
  5
13FD
  8
SIZE
  6
CONTINUOUS
 62
     0
 10
185.0000000000004
 20
-40.0
 30
0.0
 11
185.0000000000004
 21
-364.82880203500957
 31
0.0
  0
LINE
  5
13FE
  8
SIZE
  6
CONTINUOUS
 62
     0
 10
-174.99999999999909
 20
-334.82880203500957
 30
0.0
 11
175.0000000000004
 21
-334.82880203500957
 31
0.0
  0
INSERT
  5
13FF
  8
SIZE
  6
CONTINUOUS
 62
     0
  2
_DOTBLANK
 10
-184.99999999999909
 20
-334.82880203500957
 30
0.0
 41
10.0
 42
10.0
 43
10.0
 50
180.0
  0
INSERT
  5
1400
  8
SIZE
  6
CONTINUOUS
 62
     0
  2
_DOTBLANK
 10
185.0000000000004
 20
-334.82880203500957
 30
0.0
 41
10.0
 42
10.0
 43
10.0
  0
TEXT
  8
0
  40
64
  5
146E
  62
0
  72
0
  71
0
 10
-128.000
 20
-416.019
 30
0.000000
  1
370
  0
POINT
  5
1402
  8
DEFPOINTS
  6
CONTINUOUS
 62
     0
 10
-184.99999999999901
 20
-20.0
 30
0.0
  0
POINT
  5
1403
  8
DEFPOINTS
  6
CONTINUOUS
 62
     0
 10
185.0000000000004
 20
-20.0
 30
0.0
  0
POINT
  5
1404
  8
DEFPOINTS
  6
CONTINUOUS
 62
     0
 10
185.0000000000004
 20
-334.82880203500957
 30
0.0
  0
ENDBLK
  5
DA7
  8
0
  0
BLOCK
  8
0
  2
*D8
 70
     1
 10
0.0
 20
0.0
 30
0.0
  3
*D8
  1

  0
LINE
  5
1405
  8
SIZE
  6
CONTINUOUS
 62
     0
 10
-204.0
 20
-20.0
 30
0.0
 11
-204.0
 21
-500.47583155258093
 31
0.0
  0
LINE
  5
1406
  8
SIZE
  6
CONTINUOUS
 62
     0
 10
213.0
 20
-20.0
 30
0.0
 11
212.99999999999989
 21
-500.47583155258093
 31
0.0
  0
LINE
  5
1407
  8
SIZE
  6
CONTINUOUS
 62
     0
 10
-194.0
 20
-470.47583155258093
 30
0.0
 11
202.99999999999989
 21
-470.47583155258093
 31
0.0
  0
INSERT
  5
1408
  8
SIZE
  6
CONTINUOUS
 62
     0
  2
_DOTBLANK
 10
-204.0
 20
-470.47583155258093
 30
0.0
 41
10.0
 42
10.0
 43
10.0
 50
180.0
  0
INSERT
  5
1409
  8
SIZE
  6
CONTINUOUS
 62
     0
  2
_DOTBLANK
 10
212.99999999999989
 20
-470.47583155258093
 30
0.0
 41
10.0
 42
10.0
 43
10.0
  0
TEXT
  8
0
  40
64
  5
146F
  62
0
  72
0
  71
0
 10
-123.500
 20
-551.666
 30
0.000000
  1
417
  0
POINT
  5
140B
  8
DEFPOINTS
  6
CONTINUOUS
 62
     0
 10
-204.0
 20
0.0
 30
0.0
  0
POINT
  5
140C
  8
DEFPOINTS
  6
CONTINUOUS
 62
     0
 10
213.0
 20
0.0
 30
0.0
  0
POINT
  5
140D
  8
DEFPOINTS
  6
CONTINUOUS
 62
     0
 10
212.99999999999989
 20
-470.47583155258093
 30
0.0
  0
ENDBLK
  5
DB3
  8
0
  0
BLOCK
  8
0
  2
*D9
 70
     1
 10
0.0
 20
0.0
 30
0.0
  3
*D9
  1

  0
LINE
  5
140E
  8
SIZE
  6
CONTINUOUS
 62
     0
 10
275.42919599999988
 20
371.0
 30
0.0
 11
654.99721762278386
 21
370.99999999999989
 31
0.0
  0
LINE
  5
140F
  8
SIZE
  6
CONTINUOUS
 62
     0
 10
233.0
 20
-0.0000000000000057
 30
0.0
 11
654.99721762278375
 21
-0.0000000000001252
 31
0.0
  0
LINE
  5
1410
  8
SIZE
  6
CONTINUOUS
 62
     0
 10
624.99721762278386
 20
360.99999999999989
 30
0.0
 11
624.99721762278386
 21
9.9999999999998828
 31
0.0
  0
INSERT
  5
1411
  8
SIZE
  6
CONTINUOUS
 62
     0
  2
_DOTBLANK
 10
624.99721762278386
 20
370.99999999999989
 30
0.0
 41
10.0
 42
10.0
 43
10.0
 50
90.0
  0
INSERT
  5
1412
  8
SIZE
  6
CONTINUOUS
 62
     0
  2
_DOTBLANK
 10
624.99721762278386
 20
-0.0000000000001167
 30
0.0
 41
10.0
 42
10.0
 43
10.0
 50
270.0
  0
TEXT
  8
0
  40
64
  5
1470
  62
0
  72
0
  71
0
 10
464.907
 20
72.2200
 30
0.000000
  1
371
  0
POINT
  5
1414
  8
DEFPOINTS
  6
CONTINUOUS
 62
     0
 10
255.42919599999999
 20
371.0
 30
0.0
  0
POINT
  5
1415
  8
DEFPOINTS
  6
CONTINUOUS
 62
     0
 10
213.0
 20
0.0
 30
0.0
  0
POINT
  5
1416
  8
DEFPOINTS
  6
CONTINUOUS
 62
     0
 10
624.99721762278386
 20
-0.0000000000001167
 30
0.0
  0
ENDBLK
  5
DBF
  8
0
  0
BLOCK
  8
0
  2
*D10
 70
     1
 10
0.0
 20
0.0
 30
0.0
  3
*D10
  1

  0
LINE
  5
1417
  8
SIZE
  6
CONTINUOUS
 62
     0
 10
139.1408809888143
 20
294.99999999999989
 30
0.0
 11
503.22955413317322
 21
294.99999999999977
 31
0.0
  0
LINE
  5
1418
  8
SIZE
  6
CONTINUOUS
 62
     0
 10
233.0
 20
-0.0000000000000057
 30
0.0
 11
503.22955413317322
 21
-0.0000000000000822
 31
0.0
  0
LINE
  5
1419
  8
SIZE
  6
CONTINUOUS
 62
     0
 10
473.22955413317322
 20
284.99999999999977
 30
0.0
 11
473.22955413317322
 21
9.9999999999999272
 31
0.0
  0
INSERT
  5
141A
  8
SIZE
  6
CONTINUOUS
 62
     0
  2
_DOTBLANK
 10
473.22955413317322
 20
294.99999999999977
 30
0.0
 41
10.0
 42
10.0
 43
10.0
 50
90.0
  0
INSERT
  5
141B
  8
SIZE
  6
CONTINUOUS
 62
     0
  2
_DOTBLANK
 10
473.22955413317322
 20
-0.0000000000000737
 30
0.0
 41
10.0
 42
10.0
 43
10.0
 50
270.0
  0
TEXT
  8
0
  40
64
  5
1471
  62
0
  72
0
  71
0
 10
313.140
 20
39.4373
 30
0.000000
  1
295
  0
POINT
  5
141D
  8
DEFPOINTS
  6
CONTINUOUS
 62
     0
 10
119.1408809888143
 20
295.0
 30
0.0
  0
POINT
  5
141E
  8
DEFPOINTS
  6
CONTINUOUS
 62
     0
 10
213.0
 20
0.0
 30
0.0
  0
POINT
  5
141F
  8
DEFPOINTS
  6
CONTINUOUS
 62
     0
 10
473.22955413317322
 20
-0.0000000000000737
 30
0.0
  0
ENDBLK
  5
DCB
  8
0
  0
BLOCK
  8
0
  2
*D11
 70
     1
 10
0.0
 20
0.0
 30
0.0
  3
*D11
  1

  0
LINE
  5
1420
  8
SIZE
  6
CONTINUOUS
 62
     0
 10
185.0
 20
739.99999999999966
 30
0.0
 11
980.84443491557261
 21
739.99999999999955
 31
0.0
  0
LINE
  5
1421
  8
SIZE
  6
CONTINUOUS
 62
     0
 10
233.0
 20
-0.0000000000000057
 30
0.0
 11
980.84443491557238
 21
-0.0000000000002175
 31
0.0
  0
LINE
  5
1422
  8
SIZE
  6
CONTINUOUS
 62
     0
 10
950.84443491557249
 20
729.99999999999955
 30
0.0
 11
950.84443491557249
 21
9.9999999999997904
 31
0.0
  0
INSERT
  5
1423
  8
SIZE
  6
CONTINUOUS
 62
     0
  2
_DOTBLANK
 10
950.84443491557249
 20
739.99999999999955
 30
0.0
 41
10.0
 42
10.0
 43
10.0
 50
90.0
  0
INSERT
  5
1424
  8
SIZE
  6
CONTINUOUS
 62
     0
  2
_DOTBLANK
 10
950.84443491557249
 20
-0.000000000000209
 30
0.0
 41
10.0
 42
10.0
 43
10.0
 50
270.0
  0
TEXT
  8
0
  40
64
  5
1472
  62
0
  72
0
  71
0
 10
790.754
 20
256.720
 30
0.000000
  1
740
  0
POINT
  5
1426
  8
DEFPOINTS
  6
CONTINUOUS
 62
     0
 10
165.0
 20
739.99999999999966
 30
0.0
  0
POINT
  5
1427
  8
DEFPOINTS
  6
CONTINUOUS
 62
     0
 10
213.0
 20
0.0
 30
0.0
  0
POINT
  5
1428
  8
DEFPOINTS
  6
CONTINUOUS
 62
     0
 10
950.84443491557249
 20
-0.000000000000209
 30
0.0
  0
ENDBLK
  5
DE3
  8
0
  0
BLOCK
  8
0
  2
*D12
 70
     1
 10
0.0
 20
0.0
 30
0.0
  3
*D12
  1

  0
LINE
  5
1429
  8
SIZE
  6
CONTINUOUS
 62
     0
 10
205.0
 20
459.0
 30
0.0
 11
784.08041186496132
 21
458.99999999999977
 31
0.0
  0
LINE
  5
142A
  8
SIZE
  6
CONTINUOUS
 62
     0
 10
233.0
 20
-0.0000000000000057
 30
0.0
 11
784.08041186496121
 21
-0.0000000000001618
 31
0.0
  0
LINE
  5
142B
  8
SIZE
  6
CONTINUOUS
 62
     0
 10
754.08041186496132
 20
448.99999999999977
 30
0.0
 11
754.08041186496121
 21
9.9999999999998472
 31
0.0
  0
INSERT
  5
142C
  8
SIZE
  6
CONTINUOUS
 62
     0
  2
_DOTBLANK
 10
754.08041186496132
 20
458.99999999999977
 30
0.0
 41
10.0
 42
10.0
 43
10.0
 50
90.0
  0
INSERT
  5
142D
  8
SIZE
  6
CONTINUOUS
 62
     0
  2
_DOTBLANK
 10
754.08041186496121
 20
-0.0000000000001533
 30
0.0
 41
10.0
 42
10.0
 43
10.0
 50
270.0
  0
TEXT
  8
0
  40
64
  5
1473
  62
0
  72
0
  71
0
 10
593.990
 20
116.220
 30
0.000000
  1
459
  0
POINT
  5
142F
  8
DEFPOINTS
  6
CONTINUOUS
 62
     0
 10
185.0
 20
459.0
 30
0.0
  0
POINT
  5
1430
  8
DEFPOINTS
  6
CONTINUOUS
 62
     0
 10
213.0
 20
0.0
 30
0.0
  0
POINT
  5
1431
  8
DEFPOINTS
  6
CONTINUOUS
 62
     0
 10
754.08041186496121
 20
-0.0000000000001533
 30
0.0
  0
ENDBLK
  5
DEF
  8
0
  0
BLOCK
  8
0
  2
*D13
 70
     1
 10
0.0
 20
0.0
 30
0.0
  3
*D13
  1

  0
LINE
  5
1432
  8
SIZE
  6
CONTINUOUS
 62
     0
 10
185.0000000000004
 20
-40.0
 30
0.0
 11
185.0000000000004
 21
-364.82880203500957
 31
0.0
  0
LINE
  5
1433
  8
SIZE
  6
CONTINUOUS
 62
     0
 10
213.0000000000004
 20
-20.0
 30
0.0
 11
213.0000000000004
 21
-364.82880203500957
 31
0.0
  0
LINE
  5
1434
  8
SIZE
  6
CONTINUOUS
 62
     0
 10
195.0000000000004
 20
-334.82880203500957
 30
0.0
 11
203.0000000000004
 21
-334.82880203500957
 31
0.0
  0
TEXT
  8
0
  40
64
  5
1474
  62
0
  72
0
  71
0
 10
145.672
 20
-404.422
 30
0.000000
  1
28
  0
INSERT
  5
1436
  8
SIZE
  6
CONTINUOUS
 62
     0
  2
_DOTBLANK
 10
185.0000000000004
 20
-334.82880203500957
 30
0.0
 41
10.0
 42
10.0
 43
10.0
 50
180.0
  0
INSERT
  5
1437
  8
SIZE
  6
CONTINUOUS
 62
     0
  2
_DOTBLANK
 10
213.0000000000004
 20
-334.82880203500957
 30
0.0
 41
10.0
 42
10.0
 43
10.0
  0
POINT
  5
1438
  8
DEFPOINTS
  6
CONTINUOUS
 62
     0
 10
185.0000000000004
 20
-20.0
 30
0.0
  0
POINT
  5
1439
  8
DEFPOINTS
  6
CONTINUOUS
 62
     0
 10
213.0000000000004
 20
0.0
 30
0.0
  0
POINT
  5
143A
  8
DEFPOINTS
  6
CONTINUOUS
 62
     0
 10
213.0000000000004
 20
-334.82880203500957
 30
0.0
  0
ENDBLK
  5
DFB
  8
0
  0
BLOCK
  8
0
  2
*D14
 70
     1
 10
0.0
 20
0.0
 30
0.0
  3
*D14
  1

  0
LINE
  5
143B
  8
SIZE
  6
CONTINUOUS
 62
     0
 10
125.0
 20
326.99999999999972
 30
0.0
 11
125.0
 21
860.63178130493225
 31
0.0
  0
LINE
  5
143C
  8
SIZE
  6
CONTINUOUS
 62
     0
 10
165.0
 20
759.99999999999966
 30
0.0
 11
165.0
 21
860.63178130493225
 31
0.0
  0
LINE
  5
143D
  8
SIZE
  6
CONTINUOUS
 62
     0
 10
135.0
 20
830.63178130493225
 30
0.0
 11
155.0
 21
830.63178130493225
 31
0.0
  0
LINE
  5
143E
  8
SIZE
  6
CONTINUOUS
 62
     0
 10
165.0
 20
830.63178130493225
 30
0.0
 11
306.68296461945903
 21
830.63178130493225
 31
0.0
  0
INSERT
  5
143F
  8
SIZE
  6
CONTINUOUS
 62
     0
  2
_DOTBLANK
 10
125.0
 20
830.63178130493225
 30
0.0
 41
10.0
 42
10.0
 43
10.0
 50
180.0
  0
INSERT
  5
1440
  8
SIZE
  6
CONTINUOUS
 62
     0
  2
_DOTBLANK
 10
165.0
 20
830.63178130493225
 30
0.0
 41
10.0
 42
10.0
 43
10.0
  0
TEXT
  8
0
  40
64
  5
1475
  62
0
  72
0
  71
0
 10
131.964
 20
749.442
 30
0.000000
  1
40
  0
POINT
  5
1442
  8
DEFPOINTS
  6
CONTINUOUS
 62
     0
 10
125.0
 20
306.99999999999972
 30
0.0
  0
POINT
  5
1443
  8
DEFPOINTS
  6
CONTINUOUS
 62
     0
 10
165.0
 20
739.99999999999966
 30
0.0
  0
POINT
  5
1444
  8
DEFPOINTS
  6
CONTINUOUS
 62
     0
 10
165.0
 20
830.63178130493225
 30
0.0
  0
ENDBLK
  5
E15
  8
0
  0
BLOCK
  8
0
  2
*D15
 70
     1
 10
0.0
 20
0.0
 30
0.0
  3
*D15
  1

  0
LINE
  5
1445
  8
SIZE
  6
CONTINUOUS
 62
     0
 10
195.0000000000004
 20
680.00000000046236
 30
0.0
 11
195.0000000000004
 21
1087.666363242
 31
0.0
  0
LINE
  5
1446
  8
SIZE
  6
CONTINUOUS
 62
     0
 10
165.0
 20
759.99999999999966
 30
0.0
 11
165.0
 21
1087.666363242
 31
0.0
  0
LINE
  5
1447
  8
SIZE
  6
CONTINUOUS
 62
     0
 10
175.0
 20
1057.666363242
 30
0.0
 11
185.0000000000004
 21
1057.666363242
 31
0.0
  0
LINE
  5
1448
  8
SIZE
  6
CONTINUOUS
 62
     0
 10
195.0000000000004
 20
1057.666363242
 30
0.0
 11
307.3223395552003
 21
1057.666363242
 31
0.0
  0
INSERT
  5
1449
  8
SIZE
  6
CONTINUOUS
 62
     0
  2
_DOTBLANK
 10
165.0
 20
1057.666363242
 30
0.0
 41
10.0
 42
10.0
 43
10.0
 50
180.0
  0
INSERT
  5
144A
  8
SIZE
  6
CONTINUOUS
 62
     0
  2
_DOTBLANK
 10
195.0000000000004
 20
1057.666363242
 30
0.0
 41
10.0
 42
10.0
 43
10.0
  0
TEXT
  8
0
  40
64
  5
1476
  62
0
  72
0
  71
0
 10
132.604
 20
976.476
 30
0.000000
  1
30
  0
POINT
  5
144C
  8
DEFPOINTS
  6
CONTINUOUS
 62
     0
 10
195.0000000000004
 20
660.00000000046248
 30
0.0
  0
POINT
  5
144D
  8
DEFPOINTS
  6
CONTINUOUS
 62
     0
 10
165.0
 20
739.99999999999966
 30
0.0
  0
POINT
  5
144E
  8
DEFPOINTS
  6
CONTINUOUS
 62
     0
 10
165.0
 20
1057.666363242
 30
0.0
  0
ENDBLK
  5
E22
  8
0
  0
BLOCK
  8
0
  2
*D16
 70
     1
 10
0.0
 20
0.0
 30
0.0
  3
*D16
  1

  0
LINE
  5
144F
  8
SIZE
  6
CONTINUOUS
 62
     0
 10
-184.99999999999901
 20
-40.0
 30
0.0
 11
-184.99999999999909
 21
-364.82880203500957
 31
0.0
  0
LINE
  5
1450
  8
SIZE
  6
CONTINUOUS
 62
     0
 10
-204.0
 20
-20.0
 30
0.0
 11
-204.0
 21
-364.82880203500957
 31
0.0
  0
LINE
  5
1451
  8
SIZE
  6
CONTINUOUS
 62
     0
 10
-174.99999999999909
 20
-334.82880203500957
 30
0.0
 11
-164.99999999999909
 21
-334.82880203500957
 31
0.0
  0
LINE
  5
1452
  8
SIZE
  6
CONTINUOUS
 62
     0
 10
-214.0
 20
-334.82880203500957
 30
0.0
 11
-224.0
 21
-334.82880203500957
 31
0.0
  0
TEXT
  8
0
  40
64
  5
1477
  62
0
  72
0
  71
0
 10
-398.432
 20
-407.621
 30
0.000000
  1
19
  0
LINE
  5
1454
  8
SIZE
  6
CONTINUOUS
 62
     0
 10
-184.99999999999909
 20
-334.82880203500957
 30
0.0
 11
-204.0
 21
-334.82880203500957
 31
0.0
  0
INSERT
  5
1455
  8
SIZE
  6
CONTINUOUS
 62
     0
  2
_DOTBLANK
 10
-184.99999999999909
 20
-334.82880203500957
 30
0.0
 41
10.0
 42
10.0
 43
10.0
 50
180.0
  0
INSERT
  5
1456
  8
SIZE
  6
CONTINUOUS
 62
     0
  2
_DOTBLANK
 10
-204.0
 20
-334.82880203500957
 30
0.0
 41
10.0
 42
10.0
 43
10.0
  0
POINT
  5
1457
  8
DEFPOINTS
  6
CONTINUOUS
 62
     0
 10
-184.99999999999901
 20
-20.0
 30
0.0
  0
POINT
  5
1458
  8
DEFPOINTS
  6
CONTINUOUS
 62
     0
 10
-204.0
 20
0.0
 30
0.0
  0
POINT
  5
1459
  8
DEFPOINTS
  6
CONTINUOUS
 62
     0
 10
-204.0
 20
-334.82880203500957
 30
0.0
  0
ENDBLK
  5
E30
  8
0
  0
BLOCK
  8
0
  2
*D17
 70
     1
 10
0.0
 20
0.0
 30
0.0
  3
*D17
  1

  0
LINE
  5
145A
  8
SIZE
  6
CONTINUOUS
 62
     0
 10
144.0
 20
288.99999999999989
 30
0.0
 11
392.55349962238142
 21
288.99999999999977
 31
0.0
  0
LINE
  5
145B
  8
SIZE
  6
CONTINUOUS
 62
     0
 10
233.0
 20
-0.0000000000000057
 30
0.0
 11
392.55349962238142
 21
-0.0000000000000509
 31
0.0
  0
LINE
  5
145C
  8
SIZE
  6
CONTINUOUS
 62
     0
 10
362.55349962238148
 20
278.99999999999989
 30
0.0
 11
362.55349962238142
 21
9.9999999999999574
 31
0.0
  0
INSERT
  5
145D
  8
SIZE
  6
CONTINUOUS
 62
     0
  2
_DOTBLANK
 10
362.55349962238148
 20
288.99999999999989
 30
0.0
 41
10.0
 42
10.0
 43
10.0
 50
90.0
  0
INSERT
  5
145E
  8
SIZE
  6
CONTINUOUS
 62
     0
  2
_DOTBLANK
 10
362.55349962238142
 20
-0.0000000000000424
 30
0.0
 41
10.0
 42
10.0
 43
10.0
 50
270.0
  0
TEXT
  8
0
  40
64
  5
1478
  62
0
  72
0
  71
0
 10
202.463
 20
31.2200
 30
0.000000
  1
289
  0
POINT
  5
1460
  8
DEFPOINTS
  6
CONTINUOUS
 62
     0
 10
124.0
 20
289.0
 30
0.0
  0
POINT
  5
1461
  8
DEFPOINTS
  6
CONTINUOUS
 62
     0
 10
213.0
 20
0.0
 30
0.0
  0
POINT
  5
1462
  8
DEFPOINTS
  6
CONTINUOUS
 62
     0
 10
362.55349962238142
 20
-0.0000000000000424
 30
0.0
  0
ENDBLK
  5
115C
  8
0
  0
BLOCK
  8
0
  2
*D18
 70
     1
 10
0.0
 20
0.0
 30
0.0
  3
*D18
  1

  0
LINE
  5
1463
  8
SIZE
  6
CONTINUOUS
 62
     0
 10
165.0
 20
759.99999999999955
 30
0.0
 11
165.0
 21
970.14920216251312
 31
0.0
  0
LINE
  5
1464
  8
SIZE
  6
CONTINUOUS
 62
     0
 10
104.0
 20
328.99999999999972
 30
0.0
 11
104.0
 21
970.14920216251312
 31
0.0
  0
LINE
  5
1465
  8
SIZE
  6
CONTINUOUS
 62
     0
 10
155.0
 20
940.14920216251312
 30
0.0
 11
114.0
 21
940.14920216251312
 31
0.0
  0
LINE
  5
1466
  8
SIZE
  6
CONTINUOUS
 62
     0
 10
104.0
 20
940.14920216251312
 30
0.0
 11
25.248571428571481
 21
940.14920216251312
 31
0.0
  0
INSERT
  5
1467
  8
SIZE
  6
CONTINUOUS
 62
     0
  2
_DOTBLANK
 10
165.0
 20
940.14920216251312
 30
0.0
 41
10.0
 42
10.0
 43
10.0
  0
INSERT
  5
1468
  8
SIZE
  6
CONTINUOUS
 62
     0
  2
_DOTBLANK
 10
104.0
 20
940.14920216251312
 30
0.0
 41
10.0
 42
10.0
 43
10.0
 50
180.0
  0
TEXT
  8
0
  40
64
  5
1479
  62
0
  72
0
  71
0
 10
-68.3757
 20
858.959
 30
0.000000
  1
61
  0
POINT
  5
146A
  8
DEFPOINTS
  6
CONTINUOUS
 62
     0
 10
165.0
 20
739.99999999999955
 30
0.0
  0
POINT
  5
146B
  8
DEFPOINTS
  6
CONTINUOUS
 62
     0
 10
104.0
 20
308.99999999999972
 30
0.0
  0
POINT
  5
146C
  8
DEFPOINTS
  6
CONTINUOUS
 62
     0
 10
104.0
 20
940.14920216251312
 30
0.0
  0
ENDBLK
  5
11A5
  8
0
  0
ENDSEC
  0
SECTION
  2
ENTITIES
  0
CIRCLE
  5
BF2
  8
ARRANGE
  6
CONTINUOUS
 10
0.0
 20
0.0
 30
0.0
 40
40.0
  0
POINT
  5
BF4
  8
ARRANGE
  6
CONTINUOUS
 10
0.0
 20
0.0
 30
0.0
  0
TEXT
  5
C0A
  8
ETC
  6
CONTINUOUS
 10
1186.283529295371
 20
-163.22259585703691
 30
0.0
 40
64.0
  1
SMPU2945
 41
0.9
  0
TEXT
  5
C0D
  8
ETC
  6
CONTINUOUS
 10
1184.763745890496
 20
-282.38919685703678
 30
0.0
 40
64.0
  1
室外機
 41
0.9
  0
LINE
  5
D47
  8
DETAIL
  6
CONTINOUS
 10
165.0
 20
739.99999999999966
 30
0.0
 11
-165.0
 21
740.0
 31
0.0
  0
LINE
  5
D48
  8
DETAIL
  6
CONTINOUS
 10
213.0000000000004
 20
33.0
 30
0.0
 11
-204.0
 21
33.0
 31
0.0
  0
LINE
  5
D49
  8
DETAIL
  6
CONTINOUS
 10
213.0
 20
0.0
 30
0.0
 11
-204.0
 21
0.0
 31
0.0
  0
DIMENSION
  5
D4A
  8
SIZE
  6
CONTINUOUS
  2
*D6
 10
-164.99999999999989
 20
1123.2562879971711
 30
0.0
 11
0.0000000000000304
 21
1155.346287997171
 31
0.0
 70
     0
 13
165.0
 23
739.99999999999966
 33
0.0
 14
-165.0
 24
740.0
 34
0.0
 50
180.0
1001
ACAD
1000
DSTYLE
1002
{
1070
   287
1070
     3
1070
     6
1000
DOTBLANK
1070
     7
1000
DOTBLANK
1070
    41
1040
10.0
1070
    42
1040
20.0
1070
    43
1040
200.0
1070
    44
1040
30.0
1070
    73
1070
     0
1070
    74
1070
     0
1070
    77
1070
     1
1070
    78
1070
     8
1070
   140
1040
64.0
1070
   172
1070
     1
1070
   173
1070
     1
1070
   275
1070
     0
1070
   279
1070
     0
1070
   284
1070
     0
1070
   285
1070
     0
1070
   286
1070
     0
1002
}
  0
LINE
  5
D4D
  8
NOTE
  6
CONTINUOUS
 10
-223.99528590492349
 20
771.55160883574081
 30
0.0
 11
165.0
 21
459.0
 31
0.0
  0
DIMENSION
  5
D4E
  8
SIZE
  6
CONTINUOUS
  2
*D7
 10
185.0000000000004
 20
-334.82880203500957
 30
0.0
 11
0.0000000000006557
 21
-302.7388020350096
 31
0.0
 70
     0
 13
-184.99999999999901
 23
-20.0
 33
0.0
 14
185.0000000000004
 24
-20.0
 34
0.0
1001
ACAD
1000
DSTYLE
1002
{
1070
     6
1000
DOTBLANK
1070
     7
1000
DOTBLANK
1070
    41
1040
10.0
1070
    42
1040
20.0
1070
    43
1040
200.0
1070
    44
1040
30.0
1070
    73
1070
     0
1070
    74
1070
     0
1070
    77
1070
     1
1070
    78
1070
     8
1070
   140
1040
64.0
1070
   172
1070
     1
1070
   173
1070
     1
1002
}
  0
DIMENSION
  5
D4F
  8
SIZE
  6
CONTINUOUS
  2
*D8
 10
212.99999999999989
 20
-470.47583155258093
 30
0.0
 11
4.4999999999999734
 21
-438.3858315525809
 31
0.0
 70
     0
 13
-204.0
 23
0.0
 33
0.0
 14
213.0
 24
0.0
 34
0.0
1001
ACAD
1000
DSTYLE
1002
{
1070
     6
1000
DOTBLANK
1070
     7
1000
DOTBLANK
1070
    41
1040
10.0
1070
    42
1040
20.0
1070
    43
1040
200.0
1070
    44
1040
30.0
1070
    73
1070
     0
1070
    74
1070
     0
1070
    77
1070
     1
1070
    78
1070
     8
1070
   140
1040
64.0
1070
   172
1070
     1
1070
   173
1070
     1
1002
}
  0
LINE
  5
D53
  8
DETAIL
  6
CONTINOUS
 10
213.0
 20
0.0
 30
0.0
 11
213.0000000000004
 21
33.0
 31
0.0
  0
LINE
  5
D54
  8
BASIS
  6
DASHDOT
 10
0.0
 20
-50.635823000000073
 30
0.0
 11
0.0
 21
787.54887957332312
 31
0.0
  0
DIMENSION
  5
D55
  8
SIZE
  6
CONTINUOUS
  2
*D9
 10
624.99721762278386
 20
-0.0000000000001167
 30
0.0
 11
592.90721762278383
 21
185.5
 31
0.0
 70
     0
 13
255.42919599999999
 23
371.0
 33
0.0
 14
213.0
 24
0.0
 34
0.0
 50
90.0
1001
ACAD
1000
DSTYLE
1002
{
1070
   287
1070
     3
1070
     6
1000
DOTBLANK
1070
     7
1000
DOTBLANK
1070
    41
1040
10.0
1070
    42
1040
20.0
1070
    43
1040
200.0
1070
    44
1040
30.0
1070
    73
1070
     0
1070
    74
1070
     0
1070
    77
1070
     1
1070
    78
1070
     8
1070
   140
1040
64.0
1070
   172
1070
     1
1070
   173
1070
     1
1070
   275
1070
     0
1070
   279
1070
     0
1070
   284
1070
     0
1070
   285
1070
     0
1070
   286
1070
     0
1002
}
  0
DIMENSION
  5
D56
  8
SIZE
  6
CONTINUOUS
  2
*D10
 10
473.22955413317322
 20
-0.0000000000000737
 30
0.0
 11
473.22955413317322
 21
152.71734819139371
 31
0.0
 70
   128
 13
119.1408809888143
 23
295.0
 33
0.0
 14
213.0
 24
0.0
 34
0.0
 50
90.0
1001
ACAD
1000
DSTYLE
1002
{
1070
   287
1070
     3
1070
     6
1000
DOTBLANK
1070
     7
1000
DOTBLANK
1070
    41
1040
10.0
1070
    42
1040
20.0
1070
    43
1040
200.0
1070
    44
1040
30.0
1070
    73
1070
     0
1070
    74
1070
     0
1070
    77
1070
     1
1070
    78
1070
     8
1070
   140
1040
64.0
1070
   172
1070
     1
1070
   173
1070
     1
1070
   275
1070
     0
1070
   279
1070
     0
1070
   284
1070
     0
1070
   285
1070
     0
1070
   286
1070
     0
1002
}
  0
DIMENSION
  5
D58
  8
SIZE
  6
CONTINUOUS
  2
*D11
 10
950.84443491557249
 20
-0.000000000000209
 30
0.0
 11
918.75443491557246
 21
369.99999999999977
 31
0.0
 70
     0
 13
165.0
 23
739.99999999999966
 33
0.0
 14
213.0
 24
0.0
 34
0.0
 50
90.0
1001
ACAD
1000
DSTYLE
1002
{
1070
   287
1070
     3
1070
     6
1000
DOTBLANK
1070
     7
1000
DOTBLANK
1070
    41
1040
10.0
1070
    42
1040
20.0
1070
    43
1040
200.0
1070
    44
1040
30.0
1070
    73
1070
     0
1070
    74
1070
     0
1070
    77
1070
     1
1070
    78
1070
     8
1070
   140
1040
64.0
1070
   172
1070
     1
1070
   173
1070
     1
1070
   275
1070
     0
1070
   279
1070
     0
1070
   284
1070
     0
1070
   285
1070
     0
1070
   286
1070
     0
1002
}
  0
DIMENSION
  5
D59
  8
SIZE
  6
CONTINUOUS
  2
*D12
 10
754.08041186496121
 20
-0.0000000000001533
 30
0.0
 11
721.99041186496106
 21
229.49999999999989
 31
0.0
 70
     0
 13
185.0
 23
459.0
 33
0.0
 14
213.0
 24
0.0
 34
0.0
 50
90.0
1001
ACAD
1000
DSTYLE
1002
{
1070
   287
1070
     3
1070
     6
1000
DOTBLANK
1070
     7
1000
DOTBLANK
1070
    41
1040
10.0
1070
    42
1040
20.0
1070
    43
1040
200.0
1070
    44
1040
30.0
1070
    73
1070
     0
1070
    74
1070
     0
1070
    77
1070
     1
1070
    78
1070
     8
1070
   140
1040
64.0
1070
   172
1070
     1
1070
   173
1070
     1
1070
   275
1070
     0
1070
   279
1070
     0
1070
   284
1070
     0
1070
   285
1070
     0
1070
   286
1070
     0
1002
}
  0
LINE
  5
D5A
  8
NOTE
  6
CONTINOUS
 10
185.0000000000004
 20
-20.0
 30
0.0
 11
185.0000000000004
 21
20.0
 31
0.0
  0
CIRCLE
  5
D5B
  8
FIX
  6
CONTINUOUS
 10
185.0000000000004
 20
0.0
 30
0.0
 40
40.0
  0
TEXT
  5
D5C
  8
NOTE
  6
CONTINUOUS
 10
435.29731299999997
 20
-274.9754529999999
 30
0.0
 40
64.0
  1
AH 2-12×36
 41
0.9
  0
LINE
  5
D5D
  8
NOTE
  6
CONTINUOUS
 10
989.87190399999963
 20
-290.07775399999991
 30
0.0
 11
410.06510199999991
 21
-290.07775399999991
 31
0.0
  0
DIMENSION
  5
D5E
  8
SIZE
  6
CONTINUOUS
  2
*D13
 10
213.0000000000004
 20
-334.82880203500957
 30
0.0
 11
273.67229755326201
 21
-291.14153938062231
 31
0.0
 70
   128
 13
185.0000000000004
 23
-20.0
 33
0.0
 14
213.0000000000004
 24
0.0
 34
0.0
1001
ACAD
1000
DSTYLE
1002
{
1070
     6
1000
DOTBLANK
1070
     7
1000
DOTBLANK
1070
    41
1040
10.0
1070
    42
1040
20.0
1070
    43
1040
200.0
1070
    44
1040
30.0
1070
    73
1070
     0
1070
    74
1070
     0
1070
    77
1070
     1
1070
    78
1070
     8
1070
   140
1040
64.0
1070
   172
1070
     1
1070
   173
1070
     1
1002
}
  0
LINE
  5
D5F
  8
NOTE
  6
CONTINUOUS
 10
405.06510200000042
 20
-290.07775399999991
 30
0.0
 11
185.0000000000004
 21
0.0
 31
0.0
  0
LINE
  5
D60
  8
NOTE
  6
CONTINOUS
 10
205.0000000000004
 20
0.0
 30
0.0
 11
165.0000000000004
 21
0.0
 31
0.0
  0
LINE
  5
D61
  8
NOTE
  6
CONTINUOUS
 10
185.0000000000004
 20
0.0
 30
0.0
 11
200.10424000000049
 21
-37.038654999999828
 31
0.0
  0
LINE
  5
D62
  8
NOTE
  6
CONTINUOUS
 10
185.0000000000004
 20
0.0
 30
0.0
 11
216.59998300000049
 21
-24.524295000000158
 31
0.0
  0
LINE
  5
D65
  8
DETAIL
  6
CONTINOUS
 10
165.0
 20
33.0
 30
0.0
 11
165.0
 21
739.99999999999966
 31
0.0
  0
LINE
  5
D66
  8
DETAIL
  6
CONTINUOUS
 10
195.0000000000004
 20
82.000000000460645
 30
0.0
 11
195.0000000000004
 21
660.00000000046248
 31
0.0
  0
DIMENSION
  5
D68
  8
SIZE
  6
CONTINUOUS
  2
*D14
 10
165.0
 20
830.63178130493225
 30
0.0
 11
259.96439319088762
 21
830.63178130493225
 31
0.0
 70
   128
 13
125.0
 23
306.99999999999972
 33
0.0
 14
165.0
 24
739.99999999999966
 34
0.0
 50
180.0
1001
ACAD
1000
DSTYLE
1002
{
1070
   287
1070
     3
1070
     6
1000
DOTBLANK
1070
     7
1000
DOTBLANK
1070
    41
1040
10.0
1070
    42
1040
20.0
1070
    43
1040
200.0
1070
    44
1040
30.0
1070
    73
1070
     0
1070
    74
1070
     0
1070
    77
1070
     1
1070
    78
1070
     8
1070
   140
1040
64.0
1070
   172
1070
     1
1070
   173
1070
     1
1070
   275
1070
     0
1070
   279
1070
     0
1070
   284
1070
     0
1070
   285
1070
     0
1070
   286
1070
     0
1002
}
  0
LINE
  5
D6A
  8
DETAIL
  6
CONTINUOUS
 10
195.0000000000004
 20
82.000000000460645
 30
0.0
 11
165.0
 21
82.000000000460645
 31
0.0
  0
LINE
  5
D73
  8
BASIS
  6
DASHDOT
 10
255.42919599999999
 20
371.0
 30
0.0
 11
105.726263
 21
371.0
 31
0.0
  0
LINE
  5
D74
  8
NOTE
  6
CONTINOUS
 10
185.0
 20
459.0
 30
0.0
 11
145.0
 21
459.0
 31
0.0
  0
LINE
  5
D75
  8
NOTE
  6
CONTINOUS
 10
165.0
 20
479.0
 30
0.0
 11
165.0
 21
439.0
 31
0.0
  0
LINE
  5
D76
  8
NOTE
  6
CONTINUOUS
 10
165.0
 20
459.0
 30
0.0
 11
128.3963547181929
 21
475.12988475687979
 31
0.0
  0
LINE
  5
D77
  8
NOTE
  6
CONTINUOUS
 10
165.0
 20
459.0
 30
0.0
 11
141.36525684359179
 21
491.27071252355489
 31
0.0
  0
DIMENSION
  5
D78
  8
SIZE
  6
CONTINUOUS
  2
*D15
 10
165.0
 20
1057.666363242
 30
0.0
 11
260.60376812662878
 21
1057.666363242
 31
0.0
 70
   128
 13
195.0000000000004
 23
660.00000000046248
 33
0.0
 14
165.0
 24
739.99999999999966
 34
0.0
 50
180.0
1001
ACAD
1000
DSTYLE
1002
{
1070
   287
1070
     3
1070
     6
1000
DOTBLANK
1070
     7
1000
DOTBLANK
1070
    41
1040
10.0
1070
    42
1040
20.0
1070
    43
1040
200.0
1070
    44
1040
30.0
1070
    73
1070
     0
1070
    74
1070
     0
1070
    77
1070
     1
1070
    78
1070
     8
1070
   140
1040
64.0
1070
   172
1070
     1
1070
   173
1070
     1
1070
   275
1070
     0
1070
   279
1070
     0
1070
   284
1070
     0
1070
   285
1070
     0
1070
   286
1070
     0
1002
}
  0
LINE
  5
D7A
  8
DETAIL
  6
CONTINUOUS
 10
195.0000000000004
 20
660.00000000046248
 30
0.0
 11
165.0
 21
660.00000000046248
 31
0.0
  0
LINE
  5
D7C
  8
DETAIL
  6
CONTINOUS
 10
-204.0
 20
0.0
 30
0.0
 11
-204.0
 21
33.0
 31
0.0
  0
LINE
  5
D7D
  8
NOTE
  6
CONTINOUS
 10
-184.99999999999901
 20
-20.0
 30
0.0
 11
-184.99999999999901
 21
20.0
 31
0.0
  0
CIRCLE
  5
D7E
  8
FIX
  6
CONTINUOUS
 10
-180.0
 20
0.0
 30
0.0
 40
40.0
  0
LINE
  5
D7F
  8
NOTE
  6
CONTINUOUS
 10
-948.6713434921902
 20
-290.07775399999991
 30
0.0
 11
-405.06510199999951
 21
-290.07775399999991
 31
0.0
  0
TEXT
  5
D80
  8
NOTE
  6
CONTINUOUS
 10
-930.045885
 20
-274.9754529999999
 30
0.0
 40
64.0
  1
AH 2-U cut
 41
0.9
  0
DIMENSION
  5
D81
  8
SIZE
  6
CONTINUOUS
  2
*D16
 10
-204.0
 20
-334.82880203500957
 30
0.0
 11
-270.43238451397241
 21
-294.34134924551421
 31
0.0
 70
   128
 13
-184.99999999999901
 23
-20.0
 33
0.0
 14
-204.0
 24
0.0
 34
0.0
1001
ACAD
1000
DSTYLE
1002
{
1070
     6
1000
DOTBLANK
1070
     7
1000
DOTBLANK
1070
    41
1040
10.0
1070
    42
1040
20.0
1070
    43
1040
200.0
1070
    44
1040
30.0
1070
    73
1070
     0
1070
    74
1070
     0
1070
    77
1070
     1
1070
    78
1070
     8
1070
   140
1040
64.0
1070
   172
1070
     1
1070
   173
1070
     1
1002
}
  0
LINE
  5
D82
  8
NOTE
  6
CONTINUOUS
 10
-405.06510199999951
 20
-290.07775399999991
 30
0.0
 11
-184.99999999999901
 21
0.0
 31
0.0
  0
LINE
  5
D83
  8
NOTE
  6
CONTINOUS
 10
-164.99999999999909
 20
0.0
 30
0.0
 11
-204.99999999999901
 21
0.0
 31
0.0
  0
LINE
  5
D84
  8
NOTE
  6
CONTINUOUS
 10
-184.99999999999901
 20
0.0
 30
0.0
 11
-200.10423999999961
 21
-37.038654999999828
 31
0.0
  0
LINE
  5
D85
  8
NOTE
  6
CONTINUOUS
 10
-184.99999999999901
 20
0.0
 30
0.0
 11
-216.59998299999961
 21
-24.524295000000158
 31
0.0
  0
LINE
  5
D89
  8
DETAIL
  6
CONTINOUS
 10
-165.0
 20
33.0
 30
0.0
 11
-165.0
 21
740.0
 31
0.0
  0
LINE
  5
D8E
  8
NOTE
  6
CONTINUOUS
 10
-468.46833820999012
 20
771.55160883574081
 30
0.0
 11
-223.99528590492349
 21
771.55160883574081
 31
0.0
  0
TEXT
  5
D8F
  8
NOTE
  6
CONTINUOUS
 10
-453.68803320999081
 20
786.65390983574025
 30
0.0
 40
64.0
  1
EL,CL
 41
0.9
  0
LINE
  5
FC8
  8
OUTLINE
  6
CONTINOUS
 62
     3
 10
165.0
 20
739.99999999999966
 30
0.0
 11
-165.0
 21
740.0
 31
0.0
  0
LINE
  5
FC9
  8
OUTLINE
  6
CONTINOUS
 62
     3
 10
213.0
 20
0.0
 30
0.0
 11
-204.0
 21
0.0
 31
0.0
  0
LINE
  5
FCA
  8
OUTLINE
  6
CONTINOUS
 62
     3
 10
213.0000000000004
 20
33.0
 30
0.0
 11
-204.0
 21
33.0
 31
0.0
  0
LINE
  5
FCB
  8
OUTLINE
  6
CONTINOUS
 62
     3
 10
-204.0
 20
0.0
 30
0.0
 11
-204.0
 21
33.0
 31
0.0
  0
LINE
  5
FCC
  8
OUTLINE
  6
CONTINOUS
 62
     3
 10
-165.0
 20
33.0
 30
0.0
 11
-165.0
 21
740.0
 31
0.0
  0
LINE
  5
FCD
  8
OUTLINE
  6
CONTINOUS
 62
     3
 10
213.0
 20
0.0
 30
0.0
 11
213.0000000000004
 21
33.0
 31
0.0
  0
LINE
  5
FCE
  8
OUTLINE
  6
CONTINUOUS
 62
     3
 10
195.0000000000004
 20
82.000000000460645
 30
0.0
 11
195.0000000000004
 21
660.00000000046248
 31
0.0
  0
LINE
  5
FCF
  8
OUTLINE
  6
CONTINOUS
 62
     3
 10
165.0
 20
33.0
 30
0.0
 11
165.0
 21
739.99999999999966
 31
0.0
  0
LINE
  5
FD0
  8
OUTLINE
  6
CONTINUOUS
 62
     3
 10
195.0000000000004
 20
82.000000000460645
 30
0.0
 11
165.0
 21
82.000000000460645
 31
0.0
  0
LINE
  5
FD1
  8
OUTLINE
  6
CONTINUOUS
 62
     3
 10
195.0000000000004
 20
660.00000000046248
 30
0.0
 11
165.0
 21
660.00000000046248
 31
0.0
  0
LINE
  5
10E4
  8
NOTE
  6
CONTINUOUS
 10
-170.20764005924769
 20
532.19470693964047
 30
0.0
 11
125.0
 21
295.0
 31
0.0
  0
LINE
  5
10E5
  8
NOTE
  6
CONTINUOUS
 10
-207.88786334900391
 20
70.132893653629708
 30
0.0
 11
104.0
 21
289.0
 31
0.0
  0
DIMENSION
  5
10F0
  8
SIZE
  6
CONTINUOUS
  2
*D17
 10
362.55349962238142
 20
-0.0000000000000424
 30
0.0
 11
330.46349962238139
 21
144.5
 31
0.0
 70
     0
 13
124.0
 23
289.0
 33
0.0
 14
213.0
 24
0.0
 34
0.0
 50
90.0
1001
ACAD
1000
DSTYLE
1002
{
1070
   287
1070
     3
1070
     6
1000
DOTBLANK
1070
     7
1000
DOTBLANK
1070
    41
1040
10.0
1070
    42
1040
20.0
1070
    43
1040
200.0
1070
    44
1040
30.0
1070
    73
1070
     0
1070
    74
1070
     0
1070
    77
1070
     1
1070
    78
1070
     8
1070
   140
1040
64.0
1070
   172
1070
     1
1070
   173
1070
     1
1070
   275
1070
     0
1070
   279
1070
     0
1070
   284
1070
     0
1070
   285
1070
     0
1070
   286
1070
     0
1002
}
  0
DIMENSION
  5
1102
  8
SIZE
  6
CONTINUOUS
  2
*D18
 10
104.0
 20
940.14920216251312
 30
0.0
 11
59.624285714285762
 21
972.23920216251315
 31
0.0
 70
     0
 13
165.0
 23
739.99999999999955
 33
0.0
 14
104.0
 24
308.99999999999972
 34
0.0
 50
180.0
1001
ACAD
1000
DSTYLE
1002
{
1070
   287
1070
     3
1070
     6
1000
DOTBLANK
1070
     7
1000
DOTBLANK
1070
    41
1040
10.0
1070
    42
1040
20.0
1070
    43
1040
200.0
1070
    44
1040
30.0
1070
    73
1070
     0
1070
    74
1070
     0
1070
    77
1070
     1
1070
    78
1070
     8
1070
   140
1040
64.0
1070
   172
1070
     1
1070
   173
1070
     1
1070
   275
1070
     0
1070
   279
1070
     0
1070
   284
1070
     0
1070
   285
1070
     0
1070
   286
1070
     0
1002
}
  0
LINE
  5
1108
  8
NOTE
  6
CONTINOUS
 10
145.0
 20
295.0
 30
0.0
 11
105.0
 21
295.0
 31
0.0
  0
LINE
  5
1109
  8
NOTE
  6
CONTINUOUS
 10
125.0
 20
295.0
 30
0.0
 11
101.36525684359179
 21
327.27071252355512
 31
0.0
  0
LINE
  5
110A
  8
NOTE
  6
CONTINUOUS
 10
125.0
 20
295.0
 30
0.0
 11
88.396354718192924
 21
311.12988475688002
 31
0.0
  0
LINE
  5
110B
  8
NOTE
  6
CONTINOUS
 10
124.0
 20
289.0
 30
0.0
 11
84.0
 21
289.0
 31
0.0
  0
LINE
  5
110C
  8
NOTE
  6
CONTINOUS
 10
125.0
 20
314.99999999999972
 30
0.0
 11
125.0
 21
275.0
 31
0.0
  0
LINE
  5
110D
  8
NOTE
  6
CONTINOUS
 10
104.0
 20
308.99999999999972
 30
0.0
 11
104.0
 21
269.0
 31
0.0
  0
LINE
  5
110E
  8
NOTE
  6
CONTINUOUS
 10
104.0
 20
289.0
 30
0.0
 11
66.426459326506119
 21
275.28034212873303
 31
0.0
  0
LINE
  5
110F
  8
NOTE
  6
CONTINUOUS
 10
104.0
 20
289.0
 30
0.0
 11
78.320188402749864
 21
258.331656280191
 31
0.0
  0
LINE
  5
1127
  8
NOTE
  6
CONTINUOUS
 10
-170.20764005924769
 20
532.19470693964047
 30
0.0
 11
-553.8718386995306
 21
532.19470693964047
 31
0.0
  0
TEXT
  5
1128
  8
NOTE
  6
CONTINUOUS
 10
-544.02736767803606
 20
550.65196801666104
 30
0.0
 40
64.0
  1
RL%%C9.52
 41
0.9
  0
TEXT
  5
1129
  8
NOTE
  6
CONTINUOUS
 10
-615.57852589356378
 20
85.932208902260754
 30
0.0
 40
64.0
  1
RG%%C15.88
 41
0.9
  0
LINE
  5
112A
  8
NOTE
  6
CONTINUOUS
 10
-624.74467075567554
 20
70.132893653629708
 30
0.0
 11
-207.88786334900391
 21
70.132893653629708
 31
0.0
  0
ENDSEC
  0
EOF
