  0
SECTION
  2
HEADER
  9
$ACADVER
  1
AC1009
  9
$INSBASE
 10
0.0
 20
0.0
 30
0.0
  9
$EXTMIN
 10
-984.87190399999906
 20
-500.47583155258093
 30
0.0
  9
$EXTMAX
 10
1267.8547618273431
 20
1776.5348088504991
 30
0.0
  9
$LIMMIN
 10
-4207.8616383038789
 20
-5066.614813934335
  9
$LIMMAX
 10
7110.8175098656748
 20
1811.8233494860169
  9
$ORTHOMODE
 70
     1
  9
$REGENMODE
 70
     1
  9
$FILLMODE
 70
     1
  9
$QTEXTMODE
 70
     0
  9
$MIRRTEXT
 70
     0
  9
$DRAGMODE
 70
     2
  9
$LTSCALE
 40
20.0
  9
$OSMODE
 70
    63
  9
$ATTMODE
 70
     1
  9
$TEXTSIZE
 40
64.0
  9
$TRACEWID
 40
0.05
  9
$TEXTSTYLE
  7
STANDARD
  9
$CLAYER
  8
SERVICESPACE
  9
$CELTYPE
  6
CONTINUOUS
  9
$CECOLOR
 62
   256
  9
$DIMSCALE
 40
1.0
  9
$DIMASZ
 40
10.0
  9
$DIMEXO
 40
20.0
  9
$DIMDLI
 40
200.0
  9
$DIMRND
 40
0.0
  9
$DIMDLE
 40
0.0
  9
$DIMEXE
 40
30.0
  9
$DIMTP
 40
0.0
  9
$DIMTM
 40
0.0
  9
$DIMTXT
 40
64.0
  9
$DIMCEN
 40
0.09
  9
$DIMTSZ
 40
0.0
  9
$DIMTOL
 70
     0
  9
$DIMLIM
 70
     0
  9
$DIMTIH
 70
     0
  9
$DIMTOH
 70
     0
  9
$DIMSE1
 70
     0
  9
$DIMSE2
 70
     0
  9
$DIMTAD
 70
     1
  9
$DIMZIN
 70
     8
  9
$DIMBLK
  1

  9
$DIMASO
 70
     1
  9
$DIMSHO
 70
     0
  9
$DIMPOST
  1

  9
$DIMAPOST
  1

  9
$DIMALT
 70
     0
  9
$DIMALTD
 70
     2
  9
$DIMALTF
 40
25.399999999999999
  9
$DIMLFAC
 40
1.0
  9
$DIMTOFL
 70
     1
  9
$DIMTVP
 40
0.0
  9
$DIMTIX
 70
     0
  9
$DIMSOXD
 70
     0
  9
$DIMSAH
 70
     1
  9
$DIMBLK1
  1
DOTBLANK
  9
$DIMBLK2
  1
ORIGIN
  9
$DIMSTYLE
  2
STANDARD
  9
$DIMCLRD
 70
     0
  9
$DIMCLRE
 70
     0
  9
$DIMCLRT
 70
     0
  9
$DIMTFAC
 40
1.0
  9
$DIMGAP
 40
20.0
  9
$LUNITS
 70
     2
  9
$LUPREC
 70
     4
  9
$SKETCHINC
 40
0.1
  9
$FILLETRAD
 40
6.0
  9
$AUNITS
 70
     1
  9
$AUPREC
 70
     3
  9
$MENU
  1
ACAD
  9
$ELEVATION
 40
0.0
  9
$PELEVATION
 40
0.0
  9
$THICKNESS
 40
0.0
  9
$LIMCHECK
 70
     0
  9
$BLIPMODE
 70
     0
  9
$CHAMFERA
 40
0.0
  9
$CHAMFERB
 40
0.0
  9
$SKPOLY
 70
     0
  9
$TDCREATE
 40
2450330.3932059952
  9
$TDUPDATE
 40
2452979.4859282752
  9
$TDINDWG
 40
0.2315203588
  9
$TDUSRTIMER
 40
0.2315203588
  9
$USRTIMER
 70
     1
  9
$ANGBASE
 50
0.0
  9
$ANGDIR
 70
     0
  9
$PDMODE
 70
     3
  9
$PDSIZE
 40
-2.0
  9
$PLINEWID
 40
0.0
  9
$COORDS
 70
     2
  9
$SPLFRAME
 70
     0
  9
$SPLINETYPE
 70
     6
  9
$SPLINESEGS
 70
     8
  9
$ATTDIA
 70
     0
  9
$ATTREQ
 70
     1
  9
$HANDLING
 70
-16383
  9
$HANDSEED
  5
235E
  9
$SURFTAB1
 70
     6
  9
$SURFTAB2
 70
     6
  9
$SURFTYPE
 70
     6
  9
$SURFU
 70
     6
  9
$SURFV
 70
     6
  9
$UCSNAME
  2

  9
$UCSORG
 10
0.0
 20
0.0
 30
0.0
  9
$UCSXDIR
 10
1.0
 20
0.0
 30
0.0
  9
$UCSYDIR
 10
0.0
 20
1.0
 30
0.0
  9
$PUCSNAME
  2

  9
$PUCSORG
 10
0.0
 20
0.0
 30
0.0
  9
$PUCSXDIR
 10
1.0
 20
0.0
 30
0.0
  9
$PUCSYDIR
 10
0.0
 20
1.0
 30
0.0
  9
$USERI1
 70
     0
  9
$USERI2
 70
     0
  9
$USERI3
 70
     0
  9
$USERI4
 70
     0
  9
$USERI5
 70
     0
  9
$USERR1
 40
20.0
  9
$USERR2
 40
0.0
  9
$USERR3
 40
0.0
  9
$USERR4
 40
0.0
  9
$USERR5
 40
0.0
  9
$WORLDVIEW
 70
     1
  9
$SHADEDGE
 70
     3
  9
$SHADEDIF
 70
    70
  9
$TILEMODE
 70
     1
  9
$MAXACTVP
 70
    64
  9
$PLIMCHECK
 70
     0
  9
$PEXTMIN
 10
1.0000000000000000E+020
 20
1.0000000000000000E+020
 30
1.0000000000000000E+020
  9
$PEXTMAX
 10
-1.0000000000000000E+020
 20
-1.0000000000000000E+020
 30
-1.0000000000000000E+020
  9
$PLIMMIN
 10
0.0
 20
0.0
  9
$PLIMMAX
 10
12.0
 20
9.0
  9
$UNITMODE
 70
     0
  9
$VISRETAIN
 70
     1
  9
$PLINEGEN
 70
     0
  9
$PSLTSCALE
 70
     1
  0
ENDSEC
  0
SECTION
  2
TABLES
  0
TABLE
  2
VPORT
 70
     2
  0
VPORT
  2
*ACTIVE
 70
     0
 10
0.0
 20
0.0
 11
1.0
 21
1.0
 12
418.6587008447849
 22
587.48059236501831
 13
0.0
 23
0.0
 14
50.0
 24
50.0
 15
100.0
 25
100.0
 16
0.0
 26
0.0
 36
1.0
 17
0.0
 27
0.0
 37
0.0
 40
2889.7718274428221
 41
1.2953367875647659
 42
50.0
 43
0.0
 44
0.0
 50
0.0
 51
0.0
 71
     0
 72
   500
 73
     1
 74
     0
 75
     0
 76
     0
 77
     0
 78
     0
  0
ENDTAB
  0
TABLE
  2
LTYPE
 70
     8
  0
LTYPE
  2
CONTINUOUS
 70
     0
  3
実線
 72
    65
 73
     0
 40
0.0
  0
LTYPE
  2
DASHDOT
 70
     0
  3
____ _ ____ _ ____ _ ____ _ ____ _ ____ _ ____
 72
    65
 73
     4
 40
5.5
 49
4.0
 49
-0.6
 49
0.3
 49
-0.6
  0
LTYPE
  2
CONTINOUS
 70
     0
  3
Solid line
 72
    65
 73
     0
 40
0.0
  0
LTYPE
  2
DASHED
 70
     0
  3
_ _ _ _ _ _ _ _ _ _ _ _ _ _ _ _ _ _ _ _ _ _ _
 72
    65
 73
     2
 40
2.0
 49
1.1999999999999991
 49
-0.8
  0
LTYPE
  2
DOT
 70
     0
  3
...............................................
 72
    65
 73
     2
 40
0.8
 49
0.5
 49
-0.3
  0
LTYPE
  2
DASHDOT1
 70
     0
  3
____ _ ____ _ ____ _ ____ _ ____ _ ____ _ ____
 72
    65
 73
     4
 40
2.0
 49
1.5
 49
-0.2
 49
0.1
 49
-0.2
  0
LTYPE
  2
DIVIDE
 70
     0
  3
_____ _ _ _____ _ _ _____ _ _ _____ _ _ ____
 72
    65
 73
     6
 40
6.4000000000000004
 49
4.0
 49
-0.6
 49
0.3
 49
-0.6
 49
0.3
 49
-0.6
  0
LTYPE
  2
DIVIDE1
 70
     0
  3
_____ _ _ _____ _ _ _____ _ _ _____ _ _ ____
 72
    65
 73
     6
 40
3.2000000000000002
 49
2.0
 49
-0.3
 49
0.15
 49
-0.3
 49
0.15
 49
-0.3
  0
ENDTAB
  0
TABLE
  2
LAYER
 70
    12
  0
LAYER
  2
0
 70
     0
 62
     7
  6
CONTINUOUS
  0
LAYER
  2
DETAIL
 70
     0
 62
     5
  6
CONTINUOUS
  0
LAYER
  2
OUTLINE
 70
     0
 62
     3
  6
CONTINUOUS
  0
LAYER
  2
BASIS
 70
     0
 62
     6
  6
CONTINUOUS
  0
LAYER
  2
SIZE
 70
     0
 62
    32
  6
CONTINUOUS
  0
LAYER
  2
NOTE
 70
     0
 62
     4
  6
CONTINUOUS
  0
LAYER
  2
ARRANGE
 70
     0
 62
     1
  6
CONTINUOUS
  0
LAYER
  2
FIX
 70
     0
 62
   241
  6
CONTINUOUS
  0
LAYER
  2
ETC
 70
     0
 62
    83
  6
CONTINUOUS
  0
LAYER
  2
SERVICESPACE
 70
     0
 62
     2
  6
CONTINUOUS
  0
LAYER
  2
SYMBOLLINE
 70
     0
 62
    38
  6
CONTINUOUS
  0
LAYER
  2
DEFPOINTS
 70
     0
 62
     7
  6
CONTINUOUS
  0
ENDTAB
  0
TABLE
  2
STYLE
 70
     2
  0
STYLE
  2
STANDARD
 70
     0
 40
0.0
 41
0.9
 50
0.0
 71
     0
 42
64.0
  3
SIMPLEX
  4
BIGFONT
  0
STYLE
  2
STANDARD1
 70
     0
 40
0.0
 41
1.0
 50
0.0
 71
     0
 42
3.2000000000000002
  3
MONOTXT
  4
BIGFONT
  0
ENDTAB
  0
TABLE
  2
VIEW
 70
     1
  0
VIEW
  2
ALL
 70
     0
 40
4282.6199999999999
 10
0.0
 20
41.309903999999989
 41
5940.0
 11
0.0
 21
0.0
 31
1.0
 12
0.0
 22
0.0
 32
0.0
 42
50.0
 43
0.0
 44
0.0
 50
0.0
 71
     0
  0
ENDTAB
  0
TABLE
  2
UCS
 70
     0
  0
ENDTAB
  0
TABLE
  2
APPID
 70
     1
  0
APPID
  2
ACAD
 70
     0
  0
ENDTAB
  0
TABLE
  2
DIMSTYLE
 70
     2
  0
DIMSTYLE
  2
STANDARD
 70
     0
  3

  4

  5

  6

  7

 40
1.0
 41
0.18
 42
0.0625
 43
0.38
 44
0.18
 45
0.0
 46
0.0
 47
0.0
 48
0.0
140
0.18
141
0.09
142
0.0
143
25.399999999999999
144
1.0
145
0.0
146
1.0
147
0.09
 71
     0
 72
     0
 73
     1
 74
     1
 75
     0
 76
     0
 77
     0
 78
     0
170
     0
171
     2
172
     0
173
     0
174
     0
175
     0
176
     0
177
     0
178
     0
  0
DIMSTYLE
  2
DMST_1
 70
     0
  3

  4

  5

  6

  7

 40
1.0
 41
20.0
 42
4.9999999999999991
 43
7.0
 44
15.0
 45
0.0
 46
0.0
 47
0.0
 48
0.0
140
32.0
141
0.0
142
0.0
143
25.399999999999999
144
1.0
145
0.0
146
1.0
147
0.09
 71
     0
 72
     0
 73
     0
 74
     0
 75
     0
 76
     0
 77
     1
 78
     9
170
     0
171
     2
172
     0
173
     0
174
     0
175
     0
176
     2
177
     2
178
     2
  0
ENDTAB
  0
ENDSEC
  0
SECTION
  2
BLOCKS
  0
BLOCK
  8
0
  2
$MODEL_SPACE
 70
     0
 10
0.0
 20
0.0
 30
0.0
  3
$MODEL_SPACE
  1

  0
ENDBLK
  5
20
  8
0
  0
BLOCK
 67
     1
  8
0
  2
$PAPER_SPACE
 70
     0
 10
0.0
 20
0.0
 30
0.0
  3
$PAPER_SPACE
  1

  0
ENDBLK
  5
1C
 67
     1
  8
0
  0
BLOCK
  8
0
  2
A$C5F2C697A
 70
     0
 10
0.0
 20
0.0
 30
0.0
  3
A$C5F2C697A
  1

  0
TEXT
  5
3D9
  8
SIZE
  6
BYBLOCK
 10
910.8147643978815
 20
127.36127978650261
 30
0.0
 40
64.0
  1
370
 41
0.9
  0
LINE
  5
3DA
  8
SIZE
  6
BYBLOCK
 10
801.8719073978815
 20
95.361279786502607
 30
0.0
 11
1167.8719073978809
 21
95.361279786502607
 31
0.0
  0
TEXT
  5
3DB
  8
SIZE
  6
BYBLOCK
 10
915.81476439788139
 20
1424.5027517865019
 30
0.0
 40
64.0
  1
330
 41
0.9
  0
LINE
  5
3DC
  8
SIZE
  6
BYBLOCK
 10
826.8719073978815
 20
1392.5027517865019
 30
0.0
 11
1152.8719073978809
 21
1392.5027517865019
 31
0.0
  0
LINE
  5
3DD
  8
OUTLINE
  6
CONTINUOUS
 10
771.8719063978815
 20
290.07775178650257
 30
0.0
 11
1183.871906397881
 21
290.07775178650257
 31
0.0
  0
LINE
  5
3DE
  8
OUTLINE
  6
CONTINUOUS
 10
771.8719063978815
 20
323.07775178650257
 30
0.0
 11
1183.871906397881
 21
323.07775178650257
 31
0.0
  0
LINE
  5
3DF
  8
OUTLINE
  6
CONTINUOUS
 10
824.87190639788139
 20
1145.0777517865019
 30
0.0
 11
1154.871906397881
 21
1145.0777517865019
 31
0.0
  0
CIRCLE
  5
3E0
  8
ARRANGE
  6
CONTINUOUS
 10
989.87190639788139
 20
290.07775178650257
 30
0.0
 40
40.0
  0
LINE
  5
3E1
  8
DETAIL
  6
CONTINOUS
 10
771.8719063978815
 20
290.07775178650257
 30
0.0
 11
1183.871906397881
 21
290.07775178650257
 31
0.0
  0
LINE
  5
3E2
  8
DETAIL
  6
CONTINOUS
 10
824.87190639788139
 20
1145.0777517865019
 30
0.0
 11
1154.871906397881
 21
1145.0777517865019
 31
0.0
  0
TEXT
  5
3E3
  8
NOTE
  6
CONTINUOUS
 10
973.9808703978814
 20
913.84623078650259
 30
0.0
 40
64.0
  1
EL,CL
 41
0.9
  0
LINE
  5
3E4
  8
NOTE
  6
CONTINUOUS
 10
879.8719063978815
 20
686.07775178650263
 30
0.0
 11
1040.7714893978809
 21
625.20405378650264
 31
0.0
  0
LINE
  5
3E5
  8
NOTE
  6
CONTINUOUS
 10
1205.8309843978809
 20
895.38895978650271
 30
0.0
 11
918.87085639788154
 21
895.38895978650271
 31
0.0
  0
POINT
  5
3E6
  8
ARRANGE
  6
CONTINUOUS
 10
989.87190639788139
 20
290.07775178650257
 30
0.0
  0
LINE
  5
3E7
  8
DETAIL
  6
CONTINOUS
 10
771.8719063978815
 20
323.07775178650257
 30
0.0
 11
1183.871906397881
 21
323.07775178650257
 31
0.0
  0
LINE
  5
3E8
  8
NOTE
  6
CONTINUOUS
 10
882.87190639788139
 20
724.07775178650263
 30
0.0
 11
1040.7714893978809
 21
812.30385178650261
 31
0.0
  0
CIRCLE
  5
3E9
  8
SIZE
  6
CONTINUOUS
 10
220.78758039788141
 20
290.07775178650257
 30
0.0
 40
6.0
  0
CIRCLE
  5
3EA
  8
SIZE
  6
CONTINUOUS
 10
503.5566813978815
 20
290.07775178650257
 30
0.0
 40
6.0
  0
CIRCLE
  5
3EB
  8
SIZE
  6
CONTINUOUS
 10
649.74425839788148
 20
290.07775178650257
 30
0.0
 40
6.0
  0
CIRCLE
  5
3EC
  8
SIZE
  6
CONTINUOUS
 10
350.83505539788149
 20
290.07775178650257
 30
0.0
 40
6.0
  0
LINE
  5
3ED
  8
OUTLINE
  6
CONTINUOUS
 10
771.8719063978815
 20
290.07775178650257
 30
0.0
 11
771.8719063978815
 21
323.07775178650257
 31
0.0
  0
CIRCLE
  5
3EE
  8
FIX
  6
CONTINUOUS
 10
799.8719063978815
 20
290.07775178650257
 30
0.0
 40
40.0
  0
LINE
  5
3EF
  8
DETAIL
  6
CONTINOUS
 10
771.8719063978815
 20
290.07775178650257
 30
0.0
 11
771.8719063978815
 21
323.07775178650257
 31
0.0
  0
LINE
  5
3F0
  8
BASIS
  6
DASHDOT
 10
989.87190639788139
 20
239.44192878650259
 30
0.0
 11
989.87190639788139
 21
1184.296115786502
 31
0.0
  0
LINE
  5
3F1
  8
NOTE
  6
CONTINOUS
 10
799.8719063978815
 20
270.07775178650257
 30
0.0
 11
799.8719063978815
 21
310.07775178650257
 31
0.0
  0
LINE
  5
3F2
  8
NOTE
  6
CONTINUOUS
 10
0.0000023978816444
 20
-0.000002213497396
 30
0.0
 11
579.80680439788148
 21
-0.000002213497396
 31
0.0
  0
TEXT
  5
3F3
  8
NOTE
  6
CONTINUOUS
 10
14.78030739788152
 20
15.10229878650267
 30
0.0
 40
64.0
  1
AH 2-12×36
 41
0.9
  0
LINE
  5
3F4
  8
SIZE
  6
BYBLOCK
 10
715.70171039788136
 20
290.07775178650257
 30
0.0
 11
320.83505539788149
 21
290.07775178650257
 31
0.0
  0
LINE
  5
3F5
  8
SIZE
  6
BYBLOCK
 10
735.70171039788136
 20
290.07775178650257
 30
0.0
 11
473.55668139788139
 21
290.07775178650257
 31
0.0
  0
LINE
  5
3F6
  8
SIZE
  6
BYBLOCK
 10
735.70171039788136
 20
290.07775178650257
 30
0.0
 11
190.78758039788141
 21
290.07775178650257
 31
0.0
  0
LINE
  5
3F7
  8
NOTE
  6
CONTINUOUS
 10
579.80680439788148
 20
-0.000002213497396
 30
0.0
 11
799.8719063978815
 21
290.07775178650257
 31
0.0
  0
TEXT
  5
3F8
  8
SIZE
  6
BYBLOCK
 10
739.24333539788154
 20
127.36127978650261
 30
0.0
 40
64.0
  1
28
 41
0.9
  0
LINE
  5
3F9
  8
SIZE
  6
BYBLOCK
 10
735.70171039788136
 20
290.07775178650257
 30
0.0
 11
619.74425839788148
 21
290.07775178650257
 31
0.0
  0
LINE
  5
3FA
  8
SIZE
  6
BYBLOCK
 10
799.8719073978815
 20
250.0777517865026
 30
0.0
 11
799.8719073978815
 21
65.361279786502621
 31
0.0
  0
LINE
  5
3FB
  8
SIZE
  6
BYBLOCK
 10
799.8719073978815
 20
250.0777517865026
 30
0.0
 11
799.8719073978815
 21
65.361279786502621
 31
0.0
  0
LINE
  5
3FC
  8
SIZE
  6
BYBLOCK
 10
771.8719073978815
 20
270.07775178650257
 30
0.0
 11
771.8719073978815
 21
65.361279786502621
 31
0.0
  0
CIRCLE
  5
3FD
  8
SIZE
  6
CONTINUOUS
 10
799.8719073978815
 20
95.361279786502607
 30
0.0
 40
6.0
  0
CIRCLE
  5
3FE
  8
SIZE
  6
CONTINUOUS
 10
771.8719073978815
 20
95.361279786502607
 30
0.0
 40
6.0
  0
CIRCLE
  5
3FF
  8
SIZE
  6
CONTINUOUS
 10
799.8719073978815
 20
95.361279786502607
 30
0.0
 40
6.0
  0
LINE
  5
400
  8
SIZE
  6
BYBLOCK
 10
799.8719073978815
 20
95.361279786502607
 30
0.0
 11
771.8719073978815
 21
95.361279786502607
 31
0.0
  0
LINE
  5
401
  8
SIZE
  6
BYBLOCK
 10
769.8719073978815
 20
95.361279786502607
 30
0.0
 11
767.8719073978815
 21
95.361279786502607
 31
0.0
  0
LINE
  5
402
  8
SIZE
  6
BYBLOCK
 10
801.8719073978815
 20
95.361279786502607
 30
0.0
 11
803.87190739788139
 21
95.361279786502607
 31
0.0
  0
LINE
  5
403
  8
NOTE
  6
CONTINOUS
 10
779.8719063978815
 20
290.07775178650257
 30
0.0
 11
819.8719063978815
 21
290.07775178650257
 31
0.0
  0
LINE
  5
404
  8
NOTE
  6
CONTINUOUS
 10
799.8719063978815
 20
290.07775178650257
 30
0.0
 11
784.76766639788138
 21
253.0390967865026
 31
0.0
  0
LINE
  5
405
  8
NOTE
  6
CONTINUOUS
 10
799.8719063978815
 20
290.07775178650257
 30
0.0
 11
768.27192339788144
 21
265.55345678650258
 31
0.0
  0
LINE
  5
406
  8
SIZE
  6
BYBLOCK
 10
771.8719073978815
 20
343.07775178650257
 30
0.0
 11
771.8719073978815
 21
1422.5027517865019
 31
0.0
  0
LINE
  5
407
  8
OUTLINE
  6
CONTINUOUS
 10
824.87190639788139
 20
323.07775178650257
 30
0.0
 11
824.87190639788139
 21
1145.0777517865019
 31
0.0
  0
LINE
  5
408
  8
DETAIL
  6
CONTINOUS
 10
824.87190639788139
 20
323.07775178650257
 30
0.0
 11
824.87190639788139
 21
1145.0777517865019
 31
0.0
  0
LINE
  5
409
  8
DETAIL
  6
CONTINOUS
 10
804.8719063978815
 20
462.07775178650257
 30
0.0
 11
804.8719063978815
 21
1002.0777517865019
 31
0.0
  0
LINE
  5
40A
  8
SIZE
  6
BYBLOCK
 10
714.44271139788157
 20
732.07775178650263
 30
0.0
 11
320.83505539788149
 21
732.07775178650263
 31
0.0
  0
LINE
  5
40B
  8
SIZE
  6
BYBLOCK
 10
856.8719073978815
 20
724.07775178650263
 30
0.0
 11
473.55668139788139
 21
724.07775178650263
 31
0.0
  0
LINE
  5
40C
  8
SIZE
  6
BYBLOCK
 10
777.27455739788149
 20
810.08015378650248
 30
0.0
 11
190.42745539788149
 21
810.08015378650248
 31
0.0
  0
LINE
  5
40D
  8
SIZE
  6
BYBLOCK
 10
350.83505539788149
 20
292.07775178650257
 30
0.0
 11
350.83505539788149
 21
730.07775178650263
 31
0.0
  0
LINE
  5
40E
  8
SIZE
  6
BYBLOCK
 10
503.5566813978815
 20
292.07775178650257
 30
0.0
 11
503.5566813978815
 21
724.07775178650263
 31
0.0
  0
TEXT
  5
40F
  8
SIZE
  6
BYBLOCK
 10
188.78758039788141
 20
529.52060878650263
 30
0.0
 40
64.0
  1
520
 50
90.0
 41
0.9
  0
LINE
  5
410
  8
SIZE
  6
BYBLOCK
 10
220.78758039788141
 20
810.08015378650248
 30
0.0
 11
220.78758039788141
 21
603.57775178650263
 31
0.0
  0
TEXT
  5
411
  8
SIZE
  6
BYBLOCK
 10
318.83505539788149
 20
437.02060878650258
 30
0.0
 40
64.0
  1
442
 50
90.0
 41
0.9
  0
LINE
  5
412
  8
SIZE
  6
BYBLOCK
 10
220.78758039788141
 20
292.07775178650257
 30
0.0
 11
220.78758039788141
 21
603.57775178650263
 31
0.0
  0
TEXT
  5
413
  8
SIZE
  6
BYBLOCK
 10
471.55668139788139
 20
427.13489478650263
 30
0.0
 40
64.0
  1
434
 50
90.0
 41
0.9
  0
CIRCLE
  5
414
  8
SIZE
  6
CONTINUOUS
 10
220.42745539788149
 20
810.08015378650248
 30
0.0
 40
6.0
  0
CIRCLE
  5
415
  8
SIZE
  6
CONTINUOUS
 10
350.83505539788149
 20
732.07775178650263
 30
0.0
 40
6.0
  0
CIRCLE
  5
416
  8
SIZE
  6
CONTINUOUS
 10
503.5566813978815
 20
724.07775178650263
 30
0.0
 40
6.0
  0
LINE
  5
417
  8
SIZE
  6
BYBLOCK
 10
649.74425839788148
 20
292.07775178650257
 30
0.0
 11
649.74425839788148
 21
684.07775178650263
 31
0.0
  0
TEXT
  5
418
  8
SIZE
  6
BYBLOCK
 10
617.74425839788137
 20
415.39203778650261
 30
0.0
 40
64.0
  1
396
 50
90.0
 41
0.9
  0
LINE
  5
419
  8
DETAIL
  6
CONTINOUS
 10
824.87190639788139
 20
462.07775178650257
 30
0.0
 11
804.8719063978815
 21
462.07775178650257
 31
0.0
  0
LINE
  5
41A
  8
SIZE
  6
BYBLOCK
 10
836.26393739788148
 20
686.07775178650263
 30
0.0
 11
619.74425839788148
 21
686.07775178650263
 31
0.0
  0
LINE
  5
41B
  8
BASIS
  6
DASHDOT
 10
734.44271139788145
 20
732.07775178650263
 30
0.0
 11
884.14564339788137
 21
732.07775178650263
 31
0.0
  0
CIRCLE
  5
41C
  8
SIZE
  6
CONTINUOUS
 10
649.74425839788148
 20
686.07775178650263
 30
0.0
 40
6.0
  0
LINE
  5
41D
  8
NOTE
  6
CONTINOUS
 10
862.8719063978815
 20
724.07775178650263
 30
0.0
 11
902.8719063978815
 21
724.07775178650263
 31
0.0
  0
LINE
  5
41E
  8
NOTE
  6
CONTINOUS
 10
859.87190639788162
 20
686.07775178650263
 30
0.0
 11
899.87190639788139
 21
686.07775178650263
 31
0.0
  0
LINE
  5
41F
  8
NOTE
  6
CONTINOUS
 10
879.8719063978815
 20
666.07775178650263
 30
0.0
 11
879.8719063978815
 21
706.07775178650263
 31
0.0
  0
POLYLINE
  5
420
  8
NOTE
  6
CONTINUOUS
 66
     1
 10
0.0
 20
0.0
 30
0.0
  0
VERTEX
  5
22B8
  8
NOTE
  6
CONTINUOUS
 10
919.40695039788136
 20
679.99661178650263
 30
0.0
  0
VERTEX
  5
22B9
  8
NOTE
  6
CONTINUOUS
 10
879.8719063978815
 20
686.07775178650263
 30
0.0
  0
VERTEX
  5
22BA
  8
NOTE
  6
CONTINUOUS
 10
911.06968939788146
 20
661.04380778650261
 30
0.0
  0
SEQEND
  5
22BB
  8
NOTE
  6
CONTINUOUS
  0
POLYLINE
  5
421
  8
NOTE
  6
CONTINUOUS
 66
     1
 10
0.0
 20
0.0
 30
0.0
  0
VERTEX
  5
22BC
  8
NOTE
  6
CONTINUOUS
 10
911.55116939788149
 20
751.96143678650265
 30
0.0
  0
VERTEX
  5
22BD
  8
NOTE
  6
CONTINUOUS
 10
882.87190639788139
 20
724.07775178650263
 30
0.0
  0
VERTEX
  5
22BE
  8
NOTE
  6
CONTINUOUS
 10
921.65071939788152
 20
733.88609978650265
 30
0.0
  0
SEQEND
  5
22BF
  8
NOTE
  6
CONTINUOUS
  0
LINE
  5
422
  8
NOTE
  6
CONTINOUS
 10
882.87190639788139
 20
704.07775178650263
 30
0.0
 11
882.87190639788139
 21
744.07775178650263
 31
0.0
  0
LINE
  5
423
  8
NOTE
  6
CONTINUOUS
 10
824.51178139788146
 20
810.08015378650248
 30
0.0
 11
918.87085639788154
 21
895.38895978650271
 31
0.0
  0
LINE
  5
424
  8
NOTE
  6
CONTINOUS
 10
804.51178139788135
 20
810.08015378650248
 30
0.0
 11
844.51178139788135
 21
810.08015378650248
 31
0.0
  0
POLYLINE
  5
425
  8
NOTE
  6
CONTINUOUS
 66
     1
 10
0.0
 20
0.0
 30
0.0
  0
VERTEX
  5
22C0
  8
NOTE
  6
CONTINUOUS
 10
846.64476439788154
 20
843.39878378650269
 30
0.0
  0
VERTEX
  5
22C1
  8
NOTE
  6
CONTINUOUS
 10
824.51178139788146
 20
810.08015378650248
 30
0.0
  0
VERTEX
  5
22C2
  8
NOTE
  6
CONTINUOUS
 10
860.33882139788147
 20
827.86844278650267
 30
0.0
  0
SEQEND
  5
22C3
  8
NOTE
  6
CONTINUOUS
  0
LINE
  5
426
  8
NOTE
  6
CONTINOUS
 10
824.51178139788146
 20
790.08015378650248
 30
0.0
 11
824.51178139788146
 21
830.08015378650248
 31
0.0
  0
LINE
  5
427
  8
NOTE
  6
CONTINUOUS
 10
872.35755039788137
 20
933.93013678650254
 30
0.0
 11
872.35755039788137
 21
933.93013678650254
 31
0.0
  0
LINE
  5
428
  8
SIZE
  6
BYBLOCK
 10
824.8719073978815
 20
1185.0777517865019
 30
0.0
 11
824.8719073978815
 21
1422.5027517865019
 31
0.0
  0
LINE
  5
429
  8
SIZE
  6
BYBLOCK
 10
824.8719073978815
 20
1165.0777517865019
 30
0.0
 11
824.8719073978815
 21
1422.5027517865019
 31
0.0
  0
LINE
  5
42A
  8
SIZE
  6
BYBLOCK
 10
824.8719073978815
 20
1165.0777517865019
 30
0.0
 11
824.8719073978815
 21
1293.248751786502
 31
0.0
  0
LINE
  5
42B
  8
SIZE
  6
BYBLOCK
 10
804.87190739788139
 20
1022.0777517865019
 30
0.0
 11
804.87190739788139
 21
1293.248751786502
 31
0.0
  0
LINE
  5
42C
  8
DETAIL
  6
CONTINOUS
 10
824.87190639788139
 20
1002.0777517865019
 30
0.0
 11
804.8719063978815
 21
1002.0777517865019
 31
0.0
  0
LINE
  5
42D
  8
SIZE
  6
CONTINUOUS
 10
814.87190639788139
 20
1263.2491457865019
 30
0.0
 11
945.94025839788139
 21
1263.2491457865019
 31
0.0
  0
LINE
  5
42E
  8
SIZE
  6
BYBLOCK
 10
822.8719073978815
 20
1263.2491457865019
 30
0.0
 11
814.8719073978815
 21
1263.2491457865019
 31
0.0
  0
CIRCLE
  5
42F
  8
SIZE
  6
CONTINUOUS
 10
804.87190739788139
 20
1263.2491457865019
 30
0.0
 40
6.0
  0
LINE
  5
430
  8
SIZE
  6
BYBLOCK
 10
806.8719073978815
 20
1263.2491457865019
 30
0.0
 11
814.8719073978815
 21
1263.2491457865019
 31
0.0
  0
CIRCLE
  5
431
  8
SIZE
  6
CONTINUOUS
 10
824.8719073978815
 20
1263.2491457865019
 30
0.0
 40
6.0
  0
TEXT
  5
432
  8
SIZE
  6
BYBLOCK
 10
751.74333539788154
 20
1424.5027517865019
 30
0.0
 40
64.0
  1
53
 41
0.9
  0
TEXT
  5
433
  8
SIZE
  6
BYBLOCK
 10
843.21570539788138
 20
1295.248751786502
 30
0.0
 40
64.0
  1
20
 41
0.9
  0
LINE
  5
434
  8
SIZE
  6
BYBLOCK
 10
824.8719073978815
 20
1392.5027517865019
 30
0.0
 11
771.8719073978815
 21
1392.5027517865019
 31
0.0
  0
CIRCLE
  5
435
  8
SIZE
  6
CONTINUOUS
 10
771.8719073978815
 20
1392.5027517865019
 30
0.0
 40
6.0
  0
LINE
  5
436
  8
SIZE
  6
BYBLOCK
 10
769.8719073978815
 20
1392.5027517865019
 30
0.0
 11
767.8719073978815
 21
1392.5027517865019
 31
0.0
  0
CIRCLE
  5
437
  8
SIZE
  6
CONTINUOUS
 10
824.8719073978815
 20
1392.5027517865019
 30
0.0
 40
6.0
  0
CIRCLE
  5
438
  8
SIZE
  6
CONTINUOUS
 10
824.8719073978815
 20
1392.5027517865019
 30
0.0
 40
6.0
  0
LINE
  5
439
  8
SIZE
  6
BYBLOCK
 10
826.8719073978815
 20
1392.5027517865019
 30
0.0
 11
828.87190739788139
 21
1392.5027517865019
 31
0.0
  0
CIRCLE
  5
43A
  8
SIZE
  6
CONTINUOUS
 10
1420.4444603978809
 20
290.07775178650257
 30
0.0
 40
6.0
  0
CIRCLE
  5
43B
  8
FIX
  6
CONTINUOUS
 10
1169.871906397881
 20
290.07775178650257
 30
0.0
 40
40.0
  0
LINE
  5
43C
  8
OUTLINE
  6
CONTINUOUS
 10
1183.871906397881
 20
323.07775178650257
 30
0.0
 11
1183.871906397881
 21
290.07775178650257
 31
0.0
  0
TEXT
  5
43D
  8
ETC
  6
CONTINUOUS
 10
1573.1112623978811
 20
288.6366377865026
 30
0.0
 40
64.0
  1
室外機
 41
0.9
  0
LINE
  5
43E
  8
DETAIL
  6
CONTINOUS
 10
1183.871906397881
 20
290.07775178650257
 30
0.0
 11
1183.871906397881
 21
323.07775178650257
 31
0.0
  0
LINE
  5
43F
  8
NOTE
  6
CONTINOUS
 10
1169.871906397881
 20
270.07775178650257
 30
0.0
 11
1169.871906397881
 21
310.07775178650257
 31
0.0
  0
LINE
  5
440
  8
NOTE
  6
CONTINUOUS
 10
1969.7438103978809
 20
-0.000002213497396
 30
0.0
 11
1389.9370083978811
 21
-0.000002213497396
 31
0.0
  0
TEXT
  5
441
  8
NOTE
  6
CONTINUOUS
 10
1415.1692193978811
 20
15.10229878650267
 30
0.0
 40
64.0
  1
AH 2-U cut
 41
0.9
  0
LINE
  5
442
  8
NOTE
  6
CONTINUOUS
 10
1389.9370083978811
 20
-0.000002213497396
 30
0.0
 11
1169.871906397881
 21
290.07775178650257
 31
0.0
  0
LINE
  5
443
  8
SIZE
  6
BYBLOCK
 10
1214.7137463978811
 20
290.07775178650257
 30
0.0
 11
1450.4444603978809
 21
290.07775178650257
 31
0.0
  0
LINE
  5
444
  8
SIZE
  6
BYBLOCK
 10
1183.8719073978809
 20
270.07775178650257
 30
0.0
 11
1183.8719073978809
 21
65.361279786502621
 31
0.0
  0
LINE
  5
445
  8
SIZE
  6
BYBLOCK
 10
1169.8719073978809
 20
250.0777517865026
 30
0.0
 11
1169.8719073978809
 21
65.361279786502621
 31
0.0
  0
LINE
  5
446
  8
SIZE
  6
BYBLOCK
 10
1169.8719073978809
 20
250.0777517865026
 30
0.0
 11
1169.8719073978809
 21
65.361279786502621
 31
0.0
  0
CIRCLE
  5
447
  8
SIZE
  6
CONTINUOUS
 10
1169.8719073978809
 20
95.361279786502607
 30
0.0
 40
6.0
  0
CIRCLE
  5
448
  8
SIZE
  6
CONTINUOUS
 10
1169.8719073978809
 20
95.361279786502607
 30
0.0
 40
6.0
  0
CIRCLE
  5
449
  8
SIZE
  6
CONTINUOUS
 10
1183.8719073978809
 20
95.361279786502607
 30
0.0
 40
6.0
  0
LINE
  5
44A
  8
SIZE
  6
BYBLOCK
 10
1183.8719073978809
 20
95.361279786502607
 30
0.0
 11
1169.8719073978809
 21
95.361279786502607
 31
0.0
  0
LINE
  5
44B
  8
SIZE
  6
BYBLOCK
 10
1167.8719073978809
 20
95.361279786502607
 30
0.0
 11
1165.8719073978809
 21
95.361279786502607
 31
0.0
  0
LINE
  5
44C
  8
SIZE
  6
BYBLOCK
 10
1185.8719073978809
 20
95.361279786502607
 30
0.0
 11
1187.8719073978809
 21
95.361279786502607
 31
0.0
  0
TEXT
  5
44D
  8
SIZE
  6
BYBLOCK
 10
1134.3576213978811
 20
127.36127978650261
 30
0.0
 40
64.0
  1
14
 41
0.9
  0
LINE
  5
44E
  8
NOTE
  6
CONTINOUS
 10
1149.871906397881
 20
290.07775178650257
 30
0.0
 11
1189.871906397881
 21
290.07775178650257
 31
0.0
  0
LINE
  5
44F
  8
NOTE
  6
CONTINUOUS
 10
1169.871906397881
 20
290.07775178650257
 30
0.0
 11
1184.9761463978809
 21
253.0390967865026
 31
0.0
  0
LINE
  5
450
  8
NOTE
  6
CONTINUOUS
 10
1169.871906397881
 20
290.07775178650257
 30
0.0
 11
1201.4718893978809
 21
265.55345678650258
 31
0.0
  0
TEXT
  5
451
  8
ETC
  6
CONTINUOUS
 10
1561.288518397881
 20
407.80323878650262
 30
0.0
 40
64.0
  1
SPUZ0824
 41
0.9
  0
LINE
  5
452
  8
SIZE
  6
BYBLOCK
 10
1420.4444603978809
 20
1143.0777517865019
 30
0.0
 11
1420.4444603978809
 21
717.57775178650263
 31
0.0
  0
LINE
  5
453
  8
OUTLINE
  6
CONTINUOUS
 10
1154.871906397881
 20
1145.0777517865019
 30
0.0
 11
1154.871906397881
 21
323.07775178650257
 31
0.0
  0
LINE
  5
454
  8
DETAIL
  6
CONTINOUS
 10
1154.871906397881
 20
323.07775178650257
 30
0.0
 11
1154.871906397881
 21
1145.0777517865019
 31
0.0
  0
LINE
  5
455
  8
SIZE
  6
BYBLOCK
 10
1420.4444603978809
 20
292.07775178650257
 30
0.0
 11
1420.4444603978809
 21
717.57775178650263
 31
0.0
  0
LINE
  5
456
  8
NOTE
  6
CONTINUOUS
 10
1124.871906397881
 20
323.07775178650257
 30
0.0
 11
1231.9621963978809
 21
428.57361078650263
 31
0.0
  0
LINE
  5
457
  8
NOTE
  6
CONTINOUS
 10
1104.871906397881
 20
323.07775178650257
 30
0.0
 11
1144.871906397881
 21
323.07775178650257
 31
0.0
  0
POLYLINE
  5
458
  8
NOTE
  6
CONTINUOUS
 66
     1
 10
0.0
 20
0.0
 30
0.0
  0
VERTEX
  5
22C4
  8
NOTE
  6
CONTINUOUS
 10
1145.1311663978811
 20
357.56778478650261
 30
0.0
  0
VERTEX
  5
22C5
  8
NOTE
  6
CONTINUOUS
 10
1124.871906397881
 20
323.07775178650257
 30
0.0
  0
VERTEX
  5
22C6
  8
NOTE
  6
CONTINUOUS
 10
1159.661957397881
 20
342.81736678650259
 30
0.0
  0
SEQEND
  5
22C7
  8
NOTE
  6
CONTINUOUS
  0
LINE
  5
459
  8
NOTE
  6
CONTINOUS
 10
1124.871906397881
 20
303.07775178650257
 30
0.0
 11
1124.871906397881
 21
343.07775178650257
 31
0.0
  0
TEXT
  5
45A
  8
NOTE
  6
CONTINUOUS
 10
1251.9401213978811
 20
438.44475178650259
 30
0.0
 40
64.0
  1
D
 41
0.9
  0
LINE
  5
45B
  8
NOTE
  6
CONTINUOUS
 10
1231.9621963978809
 20
428.57361078650263
 30
0.0
 11
1302.198482397881
 21
428.57361078650263
 31
0.0
  0
TEXT
  5
45C
  8
NOTE
  6
CONTINUOUS
 10
1060.708654397881
 20
635.63939678650263
 30
0.0
 40
64.0
  1
RG
 41
0.9
  0
LINE
  5
45D
  8
NOTE
  6
CONTINUOUS
 10
1040.7714893978809
 20
625.20405378650264
 30
0.0
 11
1180.455218397881
 21
625.20405378650264
 31
0.0
  0
TEXT
  5
45E
  8
NOTE
  6
CONTINUOUS
 10
1060.9262053978809
 20
822.17499278650257
 30
0.0
 40
64.0
  1
RL
 41
0.9
  0
LINE
  5
45F
  8
NOTE
  6
CONTINUOUS
 10
1040.7714893978809
 20
812.30385178650261
 30
0.0
 11
1170.3575993978809
 21
812.30385178650261
 31
0.0
  0
TEXT
  5
460
  8
SIZE
  6
BYBLOCK
 10
1388.4444603978809
 20
643.52060878650263
 30
0.0
 40
64.0
  1
855
 50
90.0
 41
0.9
  0
LINE
  5
461
  8
SIZE
  6
BYBLOCK
 10
1154.8719073978809
 20
1165.0777517865019
 30
0.0
 11
1154.8719073978809
 21
1422.5027517865019
 31
0.0
  0
LINE
  5
462
  8
SIZE
  6
BYBLOCK
 10
1203.8719073978809
 20
1145.0777517865019
 30
0.0
 11
1450.4444603978809
 21
1145.0777517865019
 31
0.0
  0
CIRCLE
  5
463
  8
SIZE
  6
CONTINUOUS
 10
1420.4444603978809
 20
1145.0777517865019
 30
0.0
 40
6.0
  0
CIRCLE
  5
464
  8
SIZE
  6
CONTINUOUS
 10
1154.8719073978809
 20
1392.5027517865019
 30
0.0
 40
6.0
  0
ENDBLK
  5
466
  8
0
  0
BLOCK
  8
0
  2
_ORIGIN
 70
     0
 10
0.0
 20
0.0
 30
0.0
  3
_ORIGIN
  1

  0
CIRCLE
  5
71A
  8
0
  6
BYBLOCK
 62
     0
 10
0.0
 20
0.0
 30
0.0
 40
0.5
  0
LINE
  5
71B
  8
0
  6
BYBLOCK
 62
     0
 10
0.0
 20
0.0
 30
0.0
 11
-1.0
 21
0.0
 31
0.0
  0
ENDBLK
  5
71D
  8
0
  0
BLOCK
  8
0
  2
_ORIGIN2
 70
     0
 10
0.0
 20
0.0
 30
0.0
  3
_ORIGIN2
  1

  0
CIRCLE
  5
71F
  8
0
  6
BYBLOCK
 62
     0
 10
0.0
 20
0.0
 30
0.0
 40
0.5
  0
CIRCLE
  5
720
  8
0
  6
BYBLOCK
 62
     0
 10
0.0
 20
0.0
 30
0.0
 40
0.25
  0
LINE
  5
721
  8
0
  6
BYBLOCK
 62
     0
 10
-0.5
 20
0.0
 30
0.0
 11
-1.0
 21
0.0
 31
0.0
  0
ENDBLK
  5
723
  8
0
  0
BLOCK
  8
0
  2
_DOTBLANK
 70
     0
 10
0.0
 20
0.0
 30
0.0
  3
_DOTBLANK
  1

  0
CIRCLE
  5
725
  8
0
  6
BYBLOCK
 62
     0
 10
0.0
 20
0.0
 30
0.0
 40
0.5
  0
LINE
  5
726
  8
0
  6
BYBLOCK
 62
     0
 10
-0.5
 20
0.0
 30
0.0
 11
-1.0
 21
0.0
 31
0.0
  0
ENDBLK
  5
728
  8
0
  0
BLOCK
  8
0
  2
*D6
 70
     1
 10
0.0
 20
0.0
 30
0.0
  3
*D6
  1

  0
LINE
  5
1CD4
  8
SIZE
  6
CONTINUOUS
 62
     0
 10
-431.25943603028719
 20
420.27680180484089
 30
0.0
 11
-584.02027179612924
 21
420.27680180484089
 31
0.0
  0
LINE
  5
1CD5
  8
SIZE
  6
CONTINUOUS
 62
     0
 10
-431.25943603028719
 20
750.27680180484094
 30
0.0
 11
-584.02027179612924
 21
750.27680180484094
 31
0.0
  0
LINE
  5
1CD6
  8
SIZE
  6
CONTINUOUS
 62
     0
 10
-554.02027179612924
 20
430.27680180484089
 30
0.0
 11
-554.02027179612924
 21
740.27680180484094
 31
0.0
  0
INSERT
  5
1CD7
  8
SIZE
  6
CONTINUOUS
 62
     0
  2
_DOTBLANK
 10
-554.02027179612924
 20
420.27680180484089
 30
0.0
 41
10.0
 42
10.0
 43
10.0
 50
270.0
  0
INSERT
  5
1CD8
  8
SIZE
  6
CONTINUOUS
 62
     0
  2
_ORIGIN
 10
-554.02027179612924
 20
750.27680180484094
 30
0.0
 41
10.0
 42
10.0
 43
10.0
 50
90.0
  0
TEXT
  5
1CD9
  8
SERVICESPACE
  6
CONTINUOUS
 62
     0
 10
-574.02027179612935
 20
511.21965894769789
 30
0.0
 40
64.0
  1
330
 50
90.0
 41
0.9
  0
POINT
  5
1CDA
  8
DEFPOINTS
  6
CONTINUOUS
 62
     0
 10
-411.25943603028719
 20
420.27680180484089
 30
0.0
  0
POINT
  5
1CDB
  8
DEFPOINTS
  6
CONTINUOUS
 62
     0
 10
-411.25943603028719
 20
750.27680180484094
 30
0.0
  0
POINT
  5
1CDC
  8
DEFPOINTS
  6
CONTINUOUS
 62
     0
 10
-554.02027179612924
 20
750.27680180484094
 30
0.0
  0
ENDBLK
  5
742
  8
0
  0
BLOCK
  8
0
  2
*D7
 70
     1
 10
0.0
 20
0.0
 30
0.0
  3
*D7
  1

  0
LINE
  5
1CC9
  8
SIZE
  6
CONTINUOUS
 62
     0
 10
-431.25943603028719
 20
420.27680180484089
 30
0.0
 11
-584.02027179612924
 21
420.27680180484089
 31
0.0
  0
LINE
  5
1CCA
  8
SIZE
  6
CONTINUOUS
 62
     0
 10
-398.25943603013462
 20
390.27680180484089
 30
0.0
 11
-584.02027179612924
 21
390.27680180484089
 31
0.0
  0
LINE
  5
1CCB
  8
SIZE
  6
CONTINUOUS
 62
     0
 10
-554.02027179612924
 20
430.27680180484089
 30
0.0
 11
-554.02027179612924
 21
440.27680180484089
 31
0.0
  0
LINE
  5
1CCC
  8
SIZE
  6
CONTINUOUS
 62
     0
 10
-554.02027179612924
 20
380.276801804841
 30
0.0
 11
-554.02027179612935
 21
237.0196589476981
 31
0.0
  0
LINE
  5
1CCD
  8
SIZE
  6
CONTINUOUS
 62
     0
 10
-554.02027179612924
 20
420.27680180484089
 30
0.0
 11
-554.02027179612924
 21
390.27680180484089
 31
0.0
  0
INSERT
  5
1CCE
  8
SIZE
  6
CONTINUOUS
 62
     0
  2
_DOTBLANK
 10
-554.02027179612924
 20
420.27680180484089
 30
0.0
 41
10.0
 42
10.0
 43
10.0
 50
270.0
  0
INSERT
  5
1CCF
  8
SIZE
  6
CONTINUOUS
 62
     0
  2
_ORIGIN
 10
-554.02027179612924
 20
390.27680180484089
 30
0.0
 41
10.0
 42
10.0
 43
10.0
 50
90.0
  0
TEXT
  5
1CD0
  8
SERVICESPACE
  6
CONTINUOUS
 62
     0
 10
-574.02027179612935
 20
257.01965894769802
 30
0.0
 40
64.0
  1
30
 50
90.0
 41
0.9
  0
POINT
  5
1CD1
  8
DEFPOINTS
  6
CONTINUOUS
 62
     0
 10
-411.25943603028719
 20
420.27680180484089
 30
0.0
  0
POINT
  5
1CD2
  8
DEFPOINTS
  6
CONTINUOUS
 62
     0
 10
-378.25943603013462
 20
390.27680180484089
 30
0.0
  0
POINT
  5
1CD3
  8
DEFPOINTS
  6
CONTINUOUS
 62
     0
 10
-554.02027179612924
 20
390.27680180484089
 30
0.0
  0
ENDBLK
  5
781
  8
0
  0
BLOCK
  8
0
  2
*D8
 70
     1
 10
0.0
 20
0.0
 30
0.0
  3
*D8
  1

  0
LINE
  5
1CC0
  8
SIZE
  6
CONTINUOUS
 62
     0
 10
-411.25943603028719
 20
770.27680180484094
 30
0.0
 11
-411.25943603028719
 21
1023.258105267988
 31
0.0
  0
LINE
  5
1CC1
  8
SIZE
  6
CONTINUOUS
 62
     0
 10
-236.2594360302873
 20
805.27680180484094
 30
0.0
 11
-236.25943603028719
 21
1023.258105267988
 31
0.0
  0
LINE
  5
1CC2
  8
SIZE
  6
CONTINUOUS
 62
     0
 10
-401.25943603028719
 20
993.25810526798887
 30
0.0
 11
-246.2594360302873
 21
993.25810526798887
 31
0.0
  0
INSERT
  5
1CC3
  8
SIZE
  6
CONTINUOUS
 62
     0
  2
_DOTBLANK
 10
-411.25943603028719
 20
993.25810526798887
 30
0.0
 41
10.0
 42
10.0
 43
10.0
 50
180.0
  0
INSERT
  5
1CC4
  8
SIZE
  6
CONTINUOUS
 62
     0
  2
_ORIGIN
 10
-236.2594360302873
 20
993.25810526798887
 30
0.0
 41
10.0
 42
10.0
 43
10.0
  0
TEXT
  5
1CC5
  8
SERVICESPACE
  6
CONTINUOUS
 62
     0
 10
-388.18079616878561
 20
1013.258105267988
 30
0.0
 40
64.0
  1
175
 41
0.9
  0
POINT
  5
1CC6
  8
DEFPOINTS
  6
CONTINUOUS
 62
     0
 10
-411.25943603028719
 20
750.27680180484094
 30
0.0
  0
POINT
  5
1CC7
  8
DEFPOINTS
  6
CONTINUOUS
 62
     0
 10
-236.2594360302873
 20
785.27680180484094
 30
0.0
  0
POINT
  5
1CC8
  8
DEFPOINTS
  6
CONTINUOUS
 62
     0
 10
-236.2594360302873
 20
993.25810526798887
 30
0.0
  0
ENDBLK
  5
790
  8
0
  0
BLOCK
  8
0
  2
*D9
 70
     1
 10
0.0
 20
0.0
 30
0.0
  3
*D9
  1

  0
LINE
  5
1CB7
  8
SIZE
  6
CONTINUOUS
 62
     0
 10
-236.2594360302873
 20
805.27680180484094
 30
0.0
 11
-236.25943603028719
 21
1023.258105267988
 31
0.0
  0
LINE
  5
1CB8
  8
SIZE
  6
CONTINUOUS
 62
     0
 10
363.74056396971258
 20
805.27680180484094
 30
0.0
 11
363.74056396971258
 21
1023.258105267988
 31
0.0
  0
LINE
  5
1CB9
  8
SIZE
  6
CONTINUOUS
 62
     0
 10
-226.2594360302873
 20
993.25810526798887
 30
0.0
 11
353.74056396971258
 21
993.25810526798887
 31
0.0
  0
INSERT
  5
1CBA
  8
SIZE
  6
CONTINUOUS
 62
     0
  2
_DOTBLANK
 10
-236.2594360302873
 20
993.25810526798887
 30
0.0
 41
10.0
 42
10.0
 43
10.0
 50
180.0
  0
INSERT
  5
1CBB
  8
SIZE
  6
CONTINUOUS
 62
     0
  2
_ORIGIN
 10
363.74056396971258
 20
993.25810526798887
 30
0.0
 41
10.0
 42
10.0
 43
10.0
  0
TEXT
  5
1CBC
  8
SERVICESPACE
  6
CONTINUOUS
 62
     0
 10
-10.31657888743019
 20
1013.258105267988
 30
0.0
 40
64.0
  1
600
 41
0.9
  0
POINT
  5
1CBD
  8
DEFPOINTS
  6
CONTINUOUS
 62
     0
 10
-236.2594360302873
 20
785.27680180484094
 30
0.0
  0
POINT
  5
1CBE
  8
DEFPOINTS
  6
CONTINUOUS
 62
     0
 10
363.74056396971258
 20
785.27680180484094
 30
0.0
  0
POINT
  5
1CBF
  8
DEFPOINTS
  6
CONTINUOUS
 62
     0
 10
363.74056396971258
 20
993.25810526798887
 30
0.0
  0
ENDBLK
  5
7A6
  8
0
  0
BLOCK
  8
0
  2
*D10
 70
     1
 10
0.0
 20
0.0
 30
0.0
  3
*D10
  1

  0
LINE
  5
1CDD
  8
SIZE
  6
CONTINUOUS
 62
     0
 10
363.74056396971258
 20
805.27680180484094
 30
0.0
 11
363.74056396971258
 21
1023.258105267988
 31
0.0
  0
LINE
  5
1CDE
  8
SIZE
  6
CONTINUOUS
 62
     0
 10
538.74056396971264
 20
770.27680180484094
 30
0.0
 11
538.74056396971264
 21
1023.258105267988
 31
0.0
  0
LINE
  5
1CDF
  8
SIZE
  6
CONTINUOUS
 62
     0
 10
373.74056396971258
 20
993.25810526798887
 30
0.0
 11
528.74056396971264
 21
993.25810526798887
 31
0.0
  0
INSERT
  5
1CE0
  8
SIZE
  6
CONTINUOUS
 62
     0
  2
_DOTBLANK
 10
363.74056396971258
 20
993.25810526798887
 30
0.0
 41
10.0
 42
10.0
 43
10.0
 50
180.0
  0
INSERT
  5
1CE1
  8
SIZE
  6
CONTINUOUS
 62
     0
  2
_ORIGIN
 10
538.74056396971264
 20
993.25810526798887
 30
0.0
 41
10.0
 42
10.0
 43
10.0
  0
TEXT
  5
1CE2
  8
SERVICESPACE
  6
CONTINUOUS
 62
     0
 10
368.74417639912178
 20
1013.258105267988
 30
0.0
 40
64.0
  1
175
 41
0.9
  0
POINT
  5
1CE3
  8
DEFPOINTS
  6
CONTINUOUS
 62
     0
 10
363.74056396971258
 20
785.27680180484094
 30
0.0
  0
POINT
  5
1CE4
  8
DEFPOINTS
  6
CONTINUOUS
 62
     0
 10
538.74056396971264
 20
750.27680180484094
 30
0.0
  0
POINT
  5
1CE5
  8
DEFPOINTS
  6
CONTINUOUS
 62
     0
 10
538.74056396971264
 20
993.25810526798887
 30
0.0
  0
ENDBLK
  5
7B5
  8
0
  0
BLOCK
  8
0
  2
*D11
 70
     1
 10
0.0
 20
0.0
 30
0.0
  3
*D11
  1

  0
LINE
  5
1CAE
  8
SIZE
  6
CONTINUOUS
 62
     0
 10
-411.25943603028719
 20
770.27680180484094
 30
0.0
 11
-411.25943603028719
 21
1192.948978426233
 31
0.0
  0
LINE
  5
1CAF
  8
SIZE
  6
CONTINUOUS
 62
     0
 10
538.74056396971264
 20
770.27680180484094
 30
0.0
 11
538.74056396971264
 21
1192.948978426233
 31
0.0
  0
LINE
  5
1CB0
  8
SIZE
  6
CONTINUOUS
 62
     0
 10
-401.25943603028719
 20
1162.948978426233
 30
0.0
 11
528.74056396971264
 21
1162.948978426233
 31
0.0
  0
INSERT
  5
1CB1
  8
SIZE
  6
CONTINUOUS
 62
     0
  2
_DOTBLANK
 10
-411.25943603028719
 20
1162.948978426233
 30
0.0
 41
10.0
 42
10.0
 43
10.0
 50
180.0
  0
INSERT
  5
1CB2
  8
SIZE
  6
CONTINUOUS
 62
     0
  2
_ORIGIN
 10
538.74056396971264
 20
1162.948978426233
 30
0.0
 41
10.0
 42
10.0
 43
10.0
  0
TEXT
  5
1CB3
  8
SERVICESPACE
  6
CONTINUOUS
 62
     0
 10
-10.31657888743017
 20
1182.948978426233
 30
0.0
 40
64.0
  1
950
 41
0.9
  0
POINT
  5
1CB4
  8
DEFPOINTS
  6
CONTINUOUS
 62
     0
 10
-411.25943603028719
 20
750.27680180484094
 30
0.0
  0
POINT
  5
1CB5
  8
DEFPOINTS
  6
CONTINUOUS
 62
     0
 10
538.74056396971264
 20
750.27680180484094
 30
0.0
  0
POINT
  5
1CB6
  8
DEFPOINTS
  6
CONTINUOUS
 62
     0
 10
538.74056396971264
 20
1162.948978426233
 30
0.0
  0
ENDBLK
  5
7C2
  8
0
  0
BLOCK
  8
0
  2
*D12
 70
     1
 10
0.0
 20
0.0
 30
0.0
  3
*D12
  1

  0
LINE
  5
1D10
  8
SIZE
  6
CONTINUOUS
 62
     0
 10
403.74056396971258
 20
400.27680180484077
 30
0.0
 11
1068.652664603861
 21
400.2768018048406
 31
0.0
  0
LINE
  5
1D11
  8
SIZE
  6
CONTINUOUS
 62
     0
 10
403.74056396971258
 20
770.27680180484094
 30
0.0
 11
1068.6526646038619
 21
770.27680180484083
 31
0.0
  0
LINE
  5
1D12
  8
SIZE
  6
CONTINUOUS
 62
     0
 10
1038.6526646038619
 20
410.27680180484072
 30
0.0
 11
1038.6526646038619
 21
760.27680180484083
 31
0.0
  0
INSERT
  5
1D13
  8
SIZE
  6
CONTINUOUS
 62
     0
  2
_DOTBLANK
 10
1038.6526646038619
 20
400.2768018048406
 30
0.0
 41
10.0
 42
10.0
 43
10.0
 50
270.0
  0
INSERT
  5
1D14
  8
SIZE
  6
CONTINUOUS
 62
     0
  2
_ORIGIN
 10
1038.6526646038619
 20
770.27680180484083
 30
0.0
 41
10.0
 42
10.0
 43
10.0
 50
90.0
  0
TEXT
  5
1D15
  8
SERVICESPACE
  6
CONTINUOUS
 62
     0
 10
1018.652664603861
 20
511.21965894769801
 30
0.0
 40
64.0
  1
370
 50
90.0
 41
0.9
  0
POINT
  5
1D16
  8
DEFPOINTS
  6
CONTINUOUS
 62
     0
 10
383.74056396971258
 20
400.27680180484089
 30
0.0
  0
POINT
  5
1D17
  8
DEFPOINTS
  6
CONTINUOUS
 62
     0
 10
383.74056396971258
 20
770.27680180484094
 30
0.0
  0
POINT
  5
1D18
  8
DEFPOINTS
  6
CONTINUOUS
 62
     0
 10
1038.6526646038619
 20
770.27680180484083
 30
0.0
  0
ENDBLK
  5
82E
  8
0
  0
BLOCK
  8
0
  2
*D13
 70
     1
 10
0.0
 20
0.0
 30
0.0
  3
*D13
  1

  0
LINE
  5
1D05
  8
SIZE
  6
CONTINUOUS
 62
     0
 10
403.74056396971258
 20
400.27680180484077
 30
0.0
 11
1068.652664603861
 21
400.2768018048406
 31
0.0
  0
LINE
  5
1D06
  8
SIZE
  6
CONTINUOUS
 62
     0
 10
399.74056396971258
 20
372.27680180484077
 30
0.0
 11
1068.652664603861
 21
372.27680180484072
 31
0.0
  0
LINE
  5
1D07
  8
SIZE
  6
CONTINUOUS
 62
     0
 10
1038.6526646038619
 20
410.27680180484072
 30
0.0
 11
1038.6526646038619
 21
420.27680180484072
 31
0.0
  0
LINE
  5
1D08
  8
SIZE
  6
CONTINUOUS
 62
     0
 10
1038.6526646038619
 20
362.27680180484072
 30
0.0
 11
1038.6526646038619
 21
219.01965894769791
 31
0.0
  0
LINE
  5
1D09
  8
SIZE
  6
CONTINUOUS
 62
     0
 10
1038.6526646038619
 20
400.2768018048406
 30
0.0
 11
1038.6526646038619
 21
372.27680180484072
 31
0.0
  0
INSERT
  5
1D0A
  8
SIZE
  6
CONTINUOUS
 62
     0
  2
_DOTBLANK
 10
1038.6526646038619
 20
400.2768018048406
 30
0.0
 41
10.0
 42
10.0
 43
10.0
 50
270.0
  0
INSERT
  5
1D0B
  8
SIZE
  6
CONTINUOUS
 62
     0
  2
_ORIGIN
 10
1038.6526646038619
 20
372.27680180484072
 30
0.0
 41
10.0
 42
10.0
 43
10.0
 50
90.0
  0
TEXT
  5
1D0C
  8
SERVICESPACE
  6
CONTINUOUS
 62
     0
 10
1018.652664603861
 20
239.01965894769799
 30
0.0
 40
64.0
  1
28
 50
90.0
 41
0.9
  0
POINT
  5
1D0D
  8
DEFPOINTS
  6
CONTINUOUS
 62
     0
 10
383.74056396971258
 20
400.27680180484089
 30
0.0
  0
POINT
  5
1D0E
  8
DEFPOINTS
  6
CONTINUOUS
 62
     0
 10
379.7405639697127
 20
372.27680180484089
 30
0.0
  0
POINT
  5
1D0F
  8
DEFPOINTS
  6
CONTINUOUS
 62
     0
 10
1038.6526646038619
 20
372.27680180484072
 30
0.0
  0
ENDBLK
  5
83D
  8
0
  0
BLOCK
  8
0
  2
*D14
 70
     1
 10
0.0
 20
0.0
 30
0.0
  3
*D14
  1

  0
LINE
  5
1CFA
  8
SIZE
  6
CONTINUOUS
 62
     0
 10
403.74056396971258
 20
770.27680180484094
 30
0.0
 11
1068.652664603861
 21
770.27680180484083
 31
0.0
  0
LINE
  5
1CFB
  8
SIZE
  6
CONTINUOUS
 62
     0
 10
399.74056396971258
 20
789.27680180484094
 30
0.0
 11
1068.652664603861
 21
789.27680180484083
 31
0.0
  0
LINE
  5
1CFC
  8
SIZE
  6
CONTINUOUS
 62
     0
 10
1038.6526646038619
 20
760.27680180484083
 30
0.0
 11
1038.6526646038619
 21
750.27680180484083
 31
0.0
  0
LINE
  5
1CFD
  8
SIZE
  6
CONTINUOUS
 62
     0
 10
1038.6526646038619
 20
799.27680180484083
 30
0.0
 11
1038.6526646038619
 21
928.81965894769803
 31
0.0
  0
LINE
  5
1CFE
  8
SIZE
  6
CONTINUOUS
 62
     0
 10
1038.6526646038619
 20
770.27680180484083
 30
0.0
 11
1038.6526646038619
 21
789.27680180484083
 31
0.0
  0
INSERT
  5
1CFF
  8
SIZE
  6
CONTINUOUS
 62
     0
  2
_DOTBLANK
 10
1038.6526646038619
 20
770.27680180484083
 30
0.0
 41
10.0
 42
10.0
 43
10.0
 50
90.0
  0
INSERT
  5
1D00
  8
SIZE
  6
CONTINUOUS
 62
     0
  2
_ORIGIN
 10
1038.6526646038619
 20
789.27680180484083
 30
0.0
 41
10.0
 42
10.0
 43
10.0
 50
270.0
  0
TEXT
  5
1D01
  8
SERVICESPACE
  6
CONTINUOUS
 62
     0
 10
1018.652664603861
 20
829.27680180484094
 30
0.0
 40
64.0
  1
19
 50
90.0
 41
0.9
  0
POINT
  5
1D02
  8
DEFPOINTS
  6
CONTINUOUS
 62
     0
 10
383.74056396971258
 20
770.27680180484094
 30
0.0
  0
POINT
  5
1D03
  8
DEFPOINTS
  6
CONTINUOUS
 62
     0
 10
379.74056396971258
 20
789.27680180484094
 30
0.0
  0
POINT
  5
1D04
  8
DEFPOINTS
  6
CONTINUOUS
 62
     0
 10
1038.6526646038619
 20
789.27680180484083
 30
0.0
  0
ENDBLK
  5
84C
  8
0
  0
BLOCK
  8
0
  2
*D15
 70
     1
 10
0.0
 20
0.0
 30
0.0
  3
*D15
  1

  0
LINE
  5
1CF1
  8
SIZE
  6
CONTINUOUS
 62
     0
 10
399.74056396971258
 20
372.27680180484077
 30
0.0
 11
1282.539828829103
 21
372.2768018048406
 31
0.0
  0
LINE
  5
1CF2
  8
SIZE
  6
CONTINUOUS
 62
     0
 10
399.74056396971258
 20
789.27680180484094
 30
0.0
 11
1282.539828829103
 21
789.27680180484072
 31
0.0
  0
LINE
  5
1CF3
  8
SIZE
  6
CONTINUOUS
 62
     0
 10
1252.539828829103
 20
382.2768018048406
 30
0.0
 11
1252.539828829103
 21
779.27680180484083
 31
0.0
  0
INSERT
  5
1CF4
  8
SIZE
  6
CONTINUOUS
 62
     0
  2
_DOTBLANK
 10
1252.539828829103
 20
372.2768018048406
 30
0.0
 41
10.0
 42
10.0
 43
10.0
 50
270.0
  0
INSERT
  5
1CF5
  8
SIZE
  6
CONTINUOUS
 62
     0
  2
_ORIGIN
 10
1252.539828829103
 20
789.27680180484083
 30
0.0
 41
10.0
 42
10.0
 43
10.0
 50
90.0
  0
TEXT
  5
1CF6
  8
SERVICESPACE
  6
CONTINUOUS
 62
     0
 10
1232.539828829103
 20
512.20537323341239
 30
0.0
 40
64.0
  1
417
 50
90.0
 41
0.9
  0
POINT
  5
1CF7
  8
DEFPOINTS
  6
CONTINUOUS
 62
     0
 10
379.74056396971258
 20
372.27680180484089
 30
0.0
  0
POINT
  5
1CF8
  8
DEFPOINTS
  6
CONTINUOUS
 62
     0
 10
379.74056396971258
 20
789.27680180484094
 30
0.0
  0
POINT
  5
1CF9
  8
DEFPOINTS
  6
CONTINUOUS
 62
     0
 10
1252.539828829103
 20
789.27680180484083
 30
0.0
  0
ENDBLK
  5
89C
  8
0
  0
BLOCK
  8
0
  2
*D16
 70
     1
 10
0.0
 20
0.0
 30
0.0
  3
*D16
  1

  0
LINE
  5
1FF7
  8
SIZE
  6
CONTINUOUS
 62
     0
 10
558.74056396971264
 20
420.27680180484089
 30
0.0
 11
732.10116001402275
 21
420.27680180484077
 31
0.0
  0
LINE
  5
1FF8
  8
SIZE
  6
CONTINUOUS
 62
     0
 10
480.74056396971258
 20
458.27680180484089
 30
0.0
 11
732.10116001402275
 21
458.27680180484077
 31
0.0
  0
LINE
  5
1FF9
  8
SIZE
  6
CONTINUOUS
 62
     0
 10
702.10116001402275
 20
410.27680180484089
 30
0.0
 11
702.10116001402275
 21
400.27680180484077
 31
0.0
  0
LINE
  5
1FFA
  8
SIZE
  6
CONTINUOUS
 62
     0
 10
702.10116001402275
 20
468.27680180484089
 30
0.0
 11
702.10116001402275
 21
611.53394466198381
 31
0.0
  0
LINE
  5
1FFB
  8
SIZE
  6
CONTINUOUS
 62
     0
 10
702.10116001402275
 20
420.27680180484077
 30
0.0
 11
702.10116001402275
 21
458.27680180484077
 31
0.0
  0
INSERT
  5
1FFC
  8
SIZE
  6
CONTINUOUS
 62
     0
  2
_DOTBLANK
 10
702.10116001402275
 20
420.27680180484077
 30
0.0
 41
10.0
 42
10.0
 43
10.0
 50
90.0
  0
INSERT
  5
1FFD
  8
SIZE
  6
CONTINUOUS
 62
     0
  2
_ORIGIN
 10
702.10116001402275
 20
458.27680180484077
 30
0.0
 41
10.0
 42
10.0
 43
10.0
 50
270.0
  0
TEXT
  5
1FFE
  8
SERVICESPACE
  6
CONTINUOUS
 62
     0
 10
682.10116001402264
 20
498.27680180484089
 30
0.0
 40
64.0
  1
38
 50
90.0
 41
0.9
  0
POINT
  5
1FFF
  8
DEFPOINTS
  6
CONTINUOUS
 62
     0
 10
538.74056396971264
 20
420.27680180484089
 30
0.0
  0
POINT
  5
2000
  8
DEFPOINTS
  6
CONTINUOUS
 62
     0
 10
460.74056396971258
 20
458.27680180484089
 30
0.0
  0
POINT
  5
2001
  8
DEFPOINTS
  6
CONTINUOUS
 62
     0
 10
702.10116001402275
 20
458.27680180484077
 30
0.0
  0
ENDBLK
  5
8E8
  8
0
  0
BLOCK
  8
0
  2
*D17
 70
     1
 10
0.0
 20
0.0
 30
0.0
  3
*D17
  1

  0
LINE
  5
2002
  8
SIZE
  6
CONTINUOUS
 62
     0
 10
558.74056396971264
 20
420.27680180484089
 30
0.0
 11
873.76670318757886
 21
420.27680180484077
 31
0.0
  0
LINE
  5
2003
  8
SIZE
  6
CONTINUOUS
 62
     0
 10
530.74056396971264
 20
481.27680180484089
 30
0.0
 11
873.76670318757886
 21
481.27680180484089
 31
0.0
  0
LINE
  5
2004
  8
SIZE
  6
CONTINUOUS
 62
     0
 10
843.76670318757897
 20
410.27680180484089
 30
0.0
 11
843.76670318757897
 21
400.27680180484077
 31
0.0
  0
LINE
  5
2005
  8
SIZE
  6
CONTINUOUS
 62
     0
 10
843.76670318757897
 20
491.27680180484077
 30
0.0
 11
843.76670318757897
 21
609.84823037626927
 31
0.0
  0
LINE
  5
2006
  8
SIZE
  6
CONTINUOUS
 62
     0
 10
843.76670318757897
 20
420.27680180484077
 30
0.0
 11
843.76670318757897
 21
481.27680180484089
 31
0.0
  0
INSERT
  5
2007
  8
SIZE
  6
CONTINUOUS
 62
     0
  2
_DOTBLANK
 10
843.76670318757897
 20
420.27680180484077
 30
0.0
 41
10.0
 42
10.0
 43
10.0
 50
90.0
  0
INSERT
  5
2008
  8
SIZE
  6
CONTINUOUS
 62
     0
  2
_ORIGIN
 10
843.76670318757897
 20
481.27680180484089
 30
0.0
 41
10.0
 42
10.0
 43
10.0
 50
270.0
  0
TEXT
  5
2009
  8
SERVICESPACE
  6
CONTINUOUS
 62
     0
 10
823.76670318757886
 20
521.27680180484106
 30
0.0
 40
64.0
  1
61
 50
90.0
 41
0.9
  0
POINT
  5
200A
  8
DEFPOINTS
  6
CONTINUOUS
 62
     0
 10
538.74056396971264
 20
420.27680180484089
 30
0.0
  0
POINT
  5
200B
  8
DEFPOINTS
  6
CONTINUOUS
 62
     0
 10
510.74056396971258
 20
481.27680180484089
 30
0.0
  0
POINT
  5
200C
  8
DEFPOINTS
  6
CONTINUOUS
 62
     0
 10
843.76670318757897
 20
481.27680180484089
 30
0.0
  0
ENDBLK
  5
8F7
  8
0
  0
BLOCK
  8
0
  2
*D18
 70
     1
 10
0.0
 20
0.0
 30
0.0
  3
*D18
  1

  0
LINE
  5
200D
  8
SIZE
  6
CONTINUOUS
 62
     0
 10
538.74056396971264
 20
400.27680180484089
 30
0.0
 11
538.74056396971264
 21
142.39106853502381
 31
0.0
  0
LINE
  5
200E
  8
SIZE
  6
CONTINUOUS
 62
     0
 10
490.74056396971258
 20
441.27680180484089
 30
0.0
 11
490.74056396971258
 21
142.39106853502381
 31
0.0
  0
LINE
  5
200F
  8
SIZE
  6
CONTINUOUS
 62
     0
 10
480.74056396971258
 20
172.39106853502381
 30
0.0
 11
470.74056396971258
 21
172.39106853502381
 31
0.0
  0
LINE
  5
2010
  8
SIZE
  6
CONTINUOUS
 62
     0
 10
548.74056396971264
 20
172.39106853502381
 30
0.0
 11
707.03825949618272
 21
172.39106853502381
 31
0.0
  0
LINE
  5
2011
  8
SIZE
  6
CONTINUOUS
 62
     0
 10
490.74056396971258
 20
172.39106853502381
 30
0.0
 11
538.74056396971264
 21
172.39106853502381
 31
0.0
  0
INSERT
  5
2012
  8
SIZE
  6
CONTINUOUS
 62
     0
  2
_ORIGIN
 10
490.74056396971258
 20
172.39106853502381
 30
0.0
 41
10.0
 42
10.0
 43
10.0
  0
INSERT
  5
2013
  8
SIZE
  6
CONTINUOUS
 62
     0
  2
_DOTBLANK
 10
538.74056396971264
 20
172.39106853502381
 30
0.0
 41
10.0
 42
10.0
 43
10.0
 50
180.0
  0
TEXT
  5
2014
  8
SERVICESPACE
  6
CONTINUOUS
 62
     0
 10
593.78111663903996
 20
192.39106853502381
 30
0.0
 40
64.0
  1
48
 41
0.9
  0
POINT
  5
2015
  8
DEFPOINTS
  6
CONTINUOUS
 62
     0
 10
538.74056396971264
 20
420.27680180484089
 30
0.0
  0
POINT
  5
2016
  8
DEFPOINTS
  6
CONTINUOUS
 62
     0
 10
490.74056396971258
 20
461.27680180484089
 30
0.0
  0
POINT
  5
2017
  8
DEFPOINTS
  6
CONTINUOUS
 62
     0
 10
490.74056396971258
 20
172.39106853502381
 30
0.0
  0
ENDBLK
  5
92E
  8
0
  0
BLOCK
  8
0
  2
*D19
 70
     1
 10
0.0
 20
0.0
 30
0.0
  3
*D19
  1

  0
LINE
  5
1FEC
  8
SIZE
  6
CONTINUOUS
 62
     0
 10
490.74056396971258
 20
441.27680180484089
 30
0.0
 11
490.74056396971258
 21
142.39106853502381
 31
0.0
  0
LINE
  5
1FED
  8
SIZE
  6
CONTINUOUS
 62
     0
 10
440.74056396971258
 20
418.27680180484089
 30
0.0
 11
440.74056396971258
 21
142.39106853502381
 31
0.0
  0
LINE
  5
1FEE
  8
SIZE
  6
CONTINUOUS
 62
     0
 10
500.74056396971258
 20
172.39106853502381
 30
0.0
 11
510.74056396971258
 21
172.39106853502381
 31
0.0
  0
LINE
  5
1FEF
  8
SIZE
  6
CONTINUOUS
 62
     0
 10
430.74056396971258
 20
172.39106853502381
 30
0.0
 11
201.70021716421419
 21
172.39106853502381
 31
0.0
  0
LINE
  5
1FF0
  8
SIZE
  6
CONTINUOUS
 62
     0
 10
490.74056396971258
 20
172.39106853502381
 30
0.0
 11
440.74056396971258
 21
172.39106853502381
 31
0.0
  0
INSERT
  5
1FF1
  8
SIZE
  6
CONTINUOUS
 62
     0
  2
_DOTBLANK
 10
490.74056396971258
 20
172.39106853502381
 30
0.0
 41
10.0
 42
10.0
 43
10.0
 50
180.0
  0
INSERT
  5
1FF2
  8
SIZE
  6
CONTINUOUS
 62
     0
  2
_ORIGIN
 10
440.74056396971258
 20
172.39106853502381
 30
0.0
 41
10.0
 42
10.0
 43
10.0
  0
TEXT
  5
1FF3
  8
SERVICESPACE
  6
CONTINUOUS
 62
     0
 10
221.70021716421419
 20
192.39106853502381
 30
0.0
 40
64.0
  1
50
 41
0.9
  0
POINT
  5
1FF4
  8
DEFPOINTS
  6
CONTINUOUS
 62
     0
 10
490.74056396971258
 20
461.27680180484089
 30
0.0
  0
POINT
  5
1FF5
  8
DEFPOINTS
  6
CONTINUOUS
 62
     0
 10
440.74056396971258
 20
438.27680180484089
 30
0.0
  0
POINT
  5
1FF6
  8
DEFPOINTS
  6
CONTINUOUS
 62
     0
 10
440.74056396971258
 20
172.39106853502381
 30
0.0
  0
ENDBLK
  5
948
  8
0
  0
BLOCK
  8
0
  2
*D20
 70
     1
 10
0.0
 20
0.0
 30
0.0
  3
*D20
  1

  0
LINE
  5
1D19
  8
SIZE
  6
CONTINUOUS
 62
     0
 10
538.74056396971264
 20
400.27680180484089
 30
0.0
 11
538.74056396971264
 21
-27.79110956105432
 31
0.0
  0
LINE
  5
1D1A
  8
SIZE
  6
CONTINUOUS
 62
     0
 10
338.74056396971258
 20
420.27680180484089
 30
0.0
 11
338.74056396971253
 21
-27.79110956105432
 31
0.0
  0
LINE
  5
1D1B
  8
SIZE
  6
CONTINUOUS
 62
     0
 10
528.74056396971264
 20
2.2088904389456721
 30
0.0
 11
348.74056396971258
 21
2.2088904389456721
 31
0.0
  0
INSERT
  5
1D1C
  8
SIZE
  6
CONTINUOUS
 62
     0
  2
_DOTBLANK
 10
538.74056396971264
 20
2.2088904389456721
 30
0.0
 41
10.0
 42
10.0
 43
10.0
  0
INSERT
  5
1D1D
  8
SIZE
  6
CONTINUOUS
 62
     0
  2
_ORIGIN
 10
338.74056396971258
 20
2.2088904389456721
 30
0.0
 41
10.0
 42
10.0
 43
10.0
 50
180.0
  0
TEXT
  5
1D1E
  8
SERVICESPACE
  6
CONTINUOUS
 62
     0
 10
364.68342111256982
 20
22.208890438945669
 30
0.0
 40
64.0
  1
200
 41
0.9
  0
POINT
  5
1D1F
  8
DEFPOINTS
  6
CONTINUOUS
 62
     0
 10
538.74056396971264
 20
420.27680180484089
 30
0.0
  0
POINT
  5
1D20
  8
DEFPOINTS
  6
CONTINUOUS
 62
     0
 10
338.74056396971258
 20
440.27680180484089
 30
0.0
  0
POINT
  5
1D21
  8
DEFPOINTS
  6
CONTINUOUS
 62
     0
 10
338.74056396971258
 20
2.2088904389456721
 30
0.0
  0
ENDBLK
  5
A6D
  8
0
  0
BLOCK
  8
0
  2
*D21
 70
     1
 10
0.0
 20
0.0
 30
0.0
  3
*D21
  1

  0
LINE
  5
1CA5
  8
SIZE
  6
CONTINUOUS
 62
     0
 10
-411.25943603028719
 20
400.27680180484089
 30
0.0
 11
-411.25943603028719
 21
107.4708295959462
 31
0.0
  0
LINE
  5
1CA6
  8
SIZE
  6
CONTINUOUS
 62
     0
 10
-89.259436030287247
 20
312.41118230484102
 30
0.0
 11
-89.259436030287247
 21
107.4708295959462
 31
0.0
  0
LINE
  5
1CA7
  8
SIZE
  6
CONTINUOUS
 62
     0
 10
-401.25943603028719
 20
137.47082959594621
 30
0.0
 11
-99.259436030287276
 21
137.47082959594621
 31
0.0
  0
INSERT
  5
1CA8
  8
SIZE
  6
CONTINUOUS
 62
     0
  2
_DOTBLANK
 10
-411.25943603028719
 20
137.47082959594621
 30
0.0
 41
10.0
 42
10.0
 43
10.0
 50
180.0
  0
INSERT
  5
1CA9
  8
SIZE
  6
CONTINUOUS
 62
     0
  2
_ORIGIN
 10
-89.259436030287247
 20
137.47082959594621
 30
0.0
 41
10.0
 42
10.0
 43
10.0
  0
TEXT
  5
1CAA
  8
SERVICESPACE
  6
CONTINUOUS
 62
     0
 10
-324.31657888743001
 20
157.47082959594621
 30
0.0
 40
64.0
  1
322
 41
0.9
  0
POINT
  5
1CAB
  8
DEFPOINTS
  6
CONTINUOUS
 62
     0
 10
-411.25943603028719
 20
420.27680180484089
 30
0.0
  0
POINT
  5
1CAC
  8
DEFPOINTS
  6
CONTINUOUS
 62
     0
 10
-89.259436030287247
 20
332.41118230484108
 30
0.0
  0
POINT
  5
1CAD
  8
DEFPOINTS
  6
CONTINUOUS
 62
     0
 10
-89.259436030287247
 20
137.47082959594621
 30
0.0
  0
ENDBLK
  5
A9B
  8
0
  0
BLOCK
  8
0
  2
*D22
 70
     1
 10
0.0
 20
0.0
 30
0.0
  3
*D22
  1

  0
LINE
  5
AAD
  8
SIZE
  6
CONTINUOUS
 62
     0
 10
-431.25943603028719
 20
-2248.984981167594
 30
0.0
 11
-553.74191327795756
 21
-2248.984981167594
 31
0.0
  0
LINE
  5
AAE
  8
SIZE
  6
CONTINUOUS
 62
     0
 10
-276.2594360302873
 20
-2271.984981167594
 30
0.0
 11
-553.74191327795756
 21
-2271.984981167594
 31
0.0
  0
LINE
  5
AAF
  8
SIZE
  6
CONTINUOUS
 62
     0
 10
-523.74191327795756
 20
-2238.984981167594
 30
0.0
 11
-523.74191327795756
 21
-2228.984981167594
 31
0.0
  0
LINE
  5
AB0
  8
SIZE
  6
CONTINUOUS
 62
     0
 10
-523.74191327795756
 20
-2281.984981167594
 30
0.0
 11
-523.74191327795768
 21
-2425.2421240247372
 31
0.0
  0
LINE
  5
AB1
  8
SIZE
  6
CONTINUOUS
 62
     0
 10
-523.74191327795756
 20
-2248.984981167594
 30
0.0
 11
-523.74191327795756
 21
-2271.984981167594
 31
0.0
  0
INSERT
  5
AB2
  8
SIZE
  6
CONTINUOUS
 62
     0
  2
_DOTBLANK
 10
-523.74191327795756
 20
-2248.984981167594
 30
0.0
 41
10.0
 42
10.0
 43
10.0
 50
270.0
  0
INSERT
  5
AB3
  8
SIZE
  6
CONTINUOUS
 62
     0
  2
_ORIGIN
 10
-523.74191327795756
 20
-2271.984981167594
 30
0.0
 41
10.0
 42
10.0
 43
10.0
 50
90.0
  0
TEXT
  5
AB4
  8
SERVICESPACE
  6
CONTINUOUS
 62
     0
 10
-543.74191327795734
 20
-2405.2421240247372
 30
0.0
 40
64.0
  1
23
 50
90.0
 41
0.9
  0
POINT
  5
AB5
  8
DEFPOINTS
  6
CONTINUOUS
 62
     0
 10
-411.25943603028719
 20
-2248.984981167594
 30
0.0
  0
POINT
  5
AB6
  8
DEFPOINTS
  6
CONTINUOUS
 62
     0
 10
-256.2594360302873
 20
-2271.984981167594
 30
0.0
  0
POINT
  5
AB7
  8
DEFPOINTS
  6
CONTINUOUS
 62
     0
 10
-523.74191327795756
 20
-2271.984981167594
 30
0.0
  0
ENDBLK
  5
AB9
  8
0
  0
BLOCK
  8
0
  2
*D23
 70
     1
 10
0.0
 20
0.0
 30
0.0
  3
*D23
  1

  0
LINE
  5
1A1E
  8
SIZE
  6
CONTINUOUS
 62
     0
 10
-276.2594360302873
 20
-2271.984981167594
 30
0.0
 11
-693.49140432555942
 21
-2271.984981167594
 31
0.0
  0
LINE
  5
1A1F
  8
SIZE
  6
CONTINUOUS
 62
     0
 10
-431.25943603028719
 20
-1900.984981167594
 30
0.0
 11
-693.49140432555942
 21
-1900.984981167594
 31
0.0
  0
LINE
  5
1A20
  8
SIZE
  6
CONTINUOUS
 62
     0
 10
-663.4914043255593
 20
-2261.984981167594
 30
0.0
 11
-663.4914043255593
 21
-1910.984981167594
 31
0.0
  0
INSERT
  5
1A21
  8
SIZE
  6
CONTINUOUS
 62
     0
  2
_DOTBLANK
 10
-663.4914043255593
 20
-2271.984981167594
 30
0.0
 41
10.0
 42
10.0
 43
10.0
 50
270.0
  0
INSERT
  5
1A22
  8
SIZE
  6
CONTINUOUS
 62
     0
  2
_ORIGIN
 10
-663.4914043255593
 20
-1900.984981167594
 30
0.0
 41
10.0
 42
10.0
 43
10.0
 50
90.0
  0
TEXT
  5
1A23
  8
SERVICESPACE
  6
CONTINUOUS
 62
     0
 10
-683.49140432555896
 20
-2148.1992668818798
 30
0.0
 40
64.0
  1
371
 50
90.0
 41
0.9
  0
POINT
  5
1A24
  8
DEFPOINTS
  6
CONTINUOUS
 62
     0
 10
-256.2594360302873
 20
-2271.984981167594
 30
0.0
  0
POINT
  5
1A25
  8
DEFPOINTS
  6
CONTINUOUS
 62
     0
 10
-411.25943603028719
 20
-1900.984981167594
 30
0.0
  0
POINT
  5
1A26
  8
DEFPOINTS
  6
CONTINUOUS
 62
     0
 10
-663.4914043255593
 20
-1900.984981167594
 30
0.0
  0
ENDBLK
  5
AC6
  8
0
  0
BLOCK
  8
0
  2
*D24
 70
     1
 10
0.0
 20
0.0
 30
0.0
  3
*D24
  1

  0
LINE
  5
1977
  8
SIZE
  6
CONTINUOUS
 62
     0
 10
-276.2594360302873
 20
-2271.984981167594
 30
0.0
 11
-835.00214954296109
 21
-2271.984981167594
 31
0.0
  0
LINE
  5
1978
  8
SIZE
  6
CONTINUOUS
 62
     0
 10
-431.25943603028719
 20
-921.98498116759436
 30
0.0
 11
-835.00214954296075
 21
-921.98498116759436
 31
0.0
  0
LINE
  5
1979
  8
SIZE
  6
CONTINUOUS
 62
     0
 10
-805.00214954296109
 20
-2261.984981167594
 30
0.0
 11
-805.00214954296086
 21
-931.98498116759436
 31
0.0
  0
INSERT
  5
197A
  8
SIZE
  6
CONTINUOUS
 62
     0
  2
_DOTBLANK
 10
-805.00214954296109
 20
-2271.984981167594
 30
0.0
 41
10.0
 42
10.0
 43
10.0
 50
270.0
  0
INSERT
  5
197B
  8
SIZE
  6
CONTINUOUS
 62
     0
  2
_ORIGIN
 10
-805.00214954296086
 20
-921.98498116759436
 30
0.0
 41
10.0
 42
10.0
 43
10.0
 50
90.0
  0
TEXT
  5
197C
  8
SERVICESPACE
  6
CONTINUOUS
 62
     0
 10
-825.00214954296064
 20
-1692.984981167594
 30
0.0
 40
64.0
  1
1350
 50
90.0
 41
0.9
  0
POINT
  5
197D
  8
DEFPOINTS
  6
CONTINUOUS
 62
     0
 10
-256.2594360302873
 20
-2271.984981167594
 30
0.0
  0
POINT
  5
197E
  8
DEFPOINTS
  6
CONTINUOUS
 62
     0
 10
-411.25943603028719
 20
-921.98498116759436
 30
0.0
  0
POINT
  5
197F
  8
DEFPOINTS
  6
CONTINUOUS
 62
     0
 10
-805.00214954296086
 20
-921.98498116759436
 30
0.0
  0
ENDBLK
  5
AD4
  8
0
  0
BLOCK
  8
0
  2
*D25
 70
     1
 10
0.0
 20
0.0
 30
0.0
  3
*D25
  1

  0
LINE
  5
19A4
  8
SIZE
  6
CONTINUOUS
 62
     0
 10
-411.2594360302873
 20
-901.98498116759458
 30
0.0
 11
-411.2594360302873
 21
-703.24543750884914
 31
0.0
  0
LINE
  5
19A5
  8
SIZE
  6
CONTINUOUS
 62
     0
 10
-89.259436030134339
 20
-1465.187135918055
 30
0.0
 11
-89.259436030134296
 21
-703.24543750884914
 31
0.0
  0
LINE
  5
19A6
  8
SIZE
  6
CONTINUOUS
 62
     0
 10
-401.25943603028719
 20
-733.24543750884914
 30
0.0
 11
-99.259436030134296
 21
-733.24543750884914
 31
0.0
  0
INSERT
  5
19A7
  8
SIZE
  6
CONTINUOUS
 62
     0
  2
_DOTBLANK
 10
-411.2594360302873
 20
-733.24543750884914
 30
0.0
 41
10.0
 42
10.0
 43
10.0
 50
180.0
  0
INSERT
  5
19A8
  8
SIZE
  6
CONTINUOUS
 62
     0
  2
_ORIGIN
 10
-89.259436030134296
 20
-733.24543750884914
 30
0.0
 41
10.0
 42
10.0
 43
10.0
  0
TEXT
  5
19A9
  8
SERVICESPACE
  6
CONTINUOUS
 62
     0
 10
-324.31657888735361
 20
-713.24543750884914
 30
0.0
 40
64.0
  1
322
 41
0.9
  0
POINT
  5
19AA
  8
DEFPOINTS
  6
CONTINUOUS
 62
     0
 10
-411.2594360302873
 20
-921.98498116759447
 30
0.0
  0
POINT
  5
19AB
  8
DEFPOINTS
  6
CONTINUOUS
 62
     0
 10
-89.259436030134339
 20
-1485.187135918055
 30
0.0
  0
POINT
  5
19AC
  8
DEFPOINTS
  6
CONTINUOUS
 62
     0
 10
-89.259436030134296
 20
-733.24543750884914
 30
0.0
  0
ENDBLK
  5
AE1
  8
0
  0
BLOCK
  8
0
  2
*D26
 70
     1
 10
0.0
 20
0.0
 30
0.0
  3
*D26
  1

  0
LINE
  5
1992
  8
SIZE
  6
CONTINUOUS
 62
     0
 10
-411.2594360302873
 20
-901.98498116759458
 30
0.0
 11
-411.2594360302873
 21
-536.74957517816426
 31
0.0
  0
LINE
  5
1993
  8
SIZE
  6
CONTINUOUS
 62
     0
 10
538.74056396971264
 20
-902.86727817287931
 30
0.0
 11
538.74056396971264
 21
-536.74957517816426
 31
0.0
  0
LINE
  5
1994
  8
SIZE
  6
CONTINUOUS
 62
     0
 10
-401.25943603028719
 20
-566.74957517816426
 30
0.0
 11
528.74056396971264
 21
-566.74957517816426
 31
0.0
  0
INSERT
  5
1995
  8
SIZE
  6
CONTINUOUS
 62
     0
  2
_DOTBLANK
 10
-411.2594360302873
 20
-566.74957517816426
 30
0.0
 41
10.0
 42
10.0
 43
10.0
 50
180.0
  0
INSERT
  5
1996
  8
SIZE
  6
CONTINUOUS
 62
     0
  2
_ORIGIN
 10
538.74056396971264
 20
-566.74957517816426
 30
0.0
 41
10.0
 42
10.0
 43
10.0
  0
TEXT
  5
1997
  8
SERVICESPACE
  6
CONTINUOUS
 62
     0
 10
-10.31657888743017
 20
-546.74957517816426
 30
0.0
 40
64.0
  1
950
 41
0.9
  0
POINT
  5
1998
  8
DEFPOINTS
  6
CONTINUOUS
 62
     0
 10
-411.2594360302873
 20
-921.98498116759447
 30
0.0
  0
POINT
  5
1999
  8
DEFPOINTS
  6
CONTINUOUS
 62
     0
 10
538.74056396971264
 20
-922.86727817287954
 30
0.0
  0
POINT
  5
199A
  8
DEFPOINTS
  6
CONTINUOUS
 62
     0
 10
538.74056396971264
 20
-566.74957517816426
 30
0.0
  0
ENDBLK
  5
AEE
  8
0
  0
BLOCK
  8
0
  2
*D27
 70
     1
 10
0.0
 20
0.0
 30
0.0
  3
*D27
  1

  0
LINE
  5
201B
  8
SIZE
  6
CONTINUOUS
 62
     0
 10
490.74056396971258
 20
-1868.984981167594
 30
0.0
 11
490.74056396971258
 21
-2035.95106887933
 31
0.0
  0
LINE
  5
201C
  8
SIZE
  6
CONTINUOUS
 62
     0
 10
538.74056396971264
 20
-2228.984981167594
 30
0.0
 11
538.74056396971264
 21
-1975.95106887933
 31
0.0
  0
LINE
  5
201D
  8
SIZE
  6
CONTINUOUS
 62
     0
 10
480.74056396971258
 20
-2005.95106887933
 30
0.0
 11
470.74056396971258
 21
-2005.95106887933
 31
0.0
  0
LINE
  5
201E
  8
SIZE
  6
CONTINUOUS
 62
     0
 10
548.74056396971264
 20
-2005.95106887933
 30
0.0
 11
691.99770682685528
 21
-2005.95106887933
 31
0.0
  0
LINE
  5
201F
  8
SIZE
  6
CONTINUOUS
 62
     0
 10
490.74056396971258
 20
-2005.95106887933
 30
0.0
 11
538.74056396971264
 21
-2005.95106887933
 31
0.0
  0
INSERT
  5
2020
  8
SIZE
  6
CONTINUOUS
 62
     0
  2
_DOTBLANK
 10
490.74056396971258
 20
-2005.95106887933
 30
0.0
 41
10.0
 42
10.0
 43
10.0
  0
INSERT
  5
2021
  8
SIZE
  6
CONTINUOUS
 62
     0
  2
_ORIGIN
 10
538.74056396971264
 20
-2005.95106887933
 30
0.0
 41
10.0
 42
10.0
 43
10.0
 50
180.0
  0
TEXT
  5
2022
  8
SERVICESPACE
  6
CONTINUOUS
 62
     0
 10
578.74056396971264
 20
-1985.95106887933
 30
0.0
 40
64.0
  1
48
 41
0.9
  0
POINT
  5
2023
  8
DEFPOINTS
  6
CONTINUOUS
 62
     0
 10
490.74056396971258
 20
-1848.984981167594
 30
0.0
  0
POINT
  5
2024
  8
DEFPOINTS
  6
CONTINUOUS
 62
     0
 10
538.74056396971264
 20
-2248.984981167594
 30
0.0
  0
POINT
  5
2025
  8
DEFPOINTS
  6
CONTINUOUS
 62
     0
 10
538.74056396971264
 20
-2005.95106887933
 30
0.0
  0
ENDBLK
  5
AFD
  8
0
  0
BLOCK
  8
0
  2
*D28
 70
     1
 10
0.0
 20
0.0
 30
0.0
  3
*D28
  1

  0
LINE
  5
205B
  8
SIZE
  6
CONTINUOUS
 62
     0
 10
440.74056396971258
 20
-1805.984981167594
 30
0.0
 11
440.74056396971258
 21
-2147.090266745312
 31
0.0
  0
LINE
  5
205C
  8
SIZE
  6
CONTINUOUS
 62
     0
 10
490.74056396971258
 20
-1868.984981167594
 30
0.0
 11
490.74056396971258
 21
-2147.090266745312
 31
0.0
  0
LINE
  5
205D
  8
SIZE
  6
CONTINUOUS
 62
     0
 10
430.74056396971258
 20
-2117.090266745312
 30
0.0
 11
420.74056396971258
 21
-2117.090266745312
 31
0.0
  0
LINE
  5
205E
  8
SIZE
  6
CONTINUOUS
 62
     0
 10
500.74056396971258
 20
-2117.090266745312
 30
0.0
 11
678.11902888966688
 21
-2117.090266745312
 31
0.0
  0
LINE
  5
205F
  8
SIZE
  6
CONTINUOUS
 62
     0
 10
440.74056396971258
 20
-2117.090266745312
 30
0.0
 11
490.74056396971258
 21
-2117.090266745312
 31
0.0
  0
INSERT
  5
2060
  8
SIZE
  6
CONTINUOUS
 62
     0
  2
_DOTBLANK
 10
440.74056396971258
 20
-2117.090266745312
 30
0.0
 41
10.0
 42
10.0
 43
10.0
  0
INSERT
  5
2061
  8
SIZE
  6
CONTINUOUS
 62
     0
  2
_ORIGIN
 10
490.74056396971258
 20
-2117.090266745312
 30
0.0
 41
10.0
 42
10.0
 43
10.0
 50
180.0
  0
TEXT
  5
2062
  8
SERVICESPACE
  6
CONTINUOUS
 62
     0
 10
564.86188603252413
 20
-2097.090266745312
 30
0.0
 40
64.0
  1
50
 41
0.9
  0
POINT
  5
2063
  8
DEFPOINTS
  6
CONTINUOUS
 62
     0
 10
440.74056396971258
 20
-1785.984981167594
 30
0.0
  0
POINT
  5
2064
  8
DEFPOINTS
  6
CONTINUOUS
 62
     0
 10
490.74056396971258
 20
-1848.984981167594
 30
0.0
  0
POINT
  5
2065
  8
DEFPOINTS
  6
CONTINUOUS
 62
     0
 10
490.74056396971258
 20
-2117.090266745312
 30
0.0
  0
ENDBLK
  5
B0C
  8
0
  0
BLOCK
  8
0
  2
*D29
 70
     1
 10
0.0
 20
0.0
 30
0.0
  3
*D29
  1

  0
LINE
  5
2071
  8
SIZE
  6
CONTINUOUS
 62
     0
 10
338.74056396971258
 20
-1152.984981167594
 30
0.0
 11
338.7405639697127
 21
-703.24543750884914
 31
0.0
  0
LINE
  5
2072
  8
SIZE
  6
CONTINUOUS
 62
     0
 10
538.74056396971264
 20
-901.98498116759436
 30
0.0
 11
538.74056396971264
 21
-703.24543750884914
 31
0.0
  0
LINE
  5
2073
  8
SIZE
  6
CONTINUOUS
 62
     0
 10
348.74056396971258
 20
-733.24543750884914
 30
0.0
 11
528.74056396971264
 21
-733.24543750884914
 31
0.0
  0
INSERT
  5
2074
  8
SIZE
  6
CONTINUOUS
 62
     0
  2
_DOTBLANK
 10
338.74056396971258
 20
-733.24543750884914
 30
0.0
 41
10.0
 42
10.0
 43
10.0
 50
180.0
  0
INSERT
  5
2075
  8
SIZE
  6
CONTINUOUS
 62
     0
  2
_ORIGIN
 10
538.74056396971264
 20
-733.24543750884914
 30
0.0
 41
10.0
 42
10.0
 43
10.0
  0
TEXT
  5
2076
  8
SERVICESPACE
  6
CONTINUOUS
 62
     0
 10
364.68342111256987
 20
-713.24543750884914
 30
0.0
 40
64.0
  1
200
 41
0.9
  0
POINT
  5
2077
  8
DEFPOINTS
  6
CONTINUOUS
 62
     0
 10
338.74056396971258
 20
-1172.984981167594
 30
0.0
  0
POINT
  5
2078
  8
DEFPOINTS
  6
CONTINUOUS
 62
     0
 10
538.74056396971264
 20
-921.98498116759436
 30
0.0
  0
POINT
  5
2079
  8
DEFPOINTS
  6
CONTINUOUS
 62
     0
 10
538.74056396971264
 20
-733.24543750884914
 30
0.0
  0
ENDBLK
  5
B45
  8
0
  0
BLOCK
  8
0
  2
*D30
 70
     1
 10
0.0
 20
0.0
 30
0.0
  3
*D30
  1

  0
LINE
  5
2049
  8
SIZE
  6
CONTINUOUS
 62
     0
 10
399.74056396971258
 20
-2271.984981167594
 30
0.0
 11
881.43296909589844
 21
-2271.984981167594
 31
0.0
  0
LINE
  5
204A
  8
SIZE
  6
CONTINUOUS
 62
     0
 10
530.74056396971264
 20
-1831.984981167594
 30
0.0
 11
881.43296909589844
 21
-1831.984981167594
 31
0.0
  0
LINE
  5
204B
  8
SIZE
  6
CONTINUOUS
 62
     0
 10
851.43296909589844
 20
-2261.984981167594
 30
0.0
 11
851.43296909589844
 21
-1841.9849811675949
 31
0.0
  0
INSERT
  5
204C
  8
SIZE
  6
CONTINUOUS
 62
     0
  2
_DOTBLANK
 10
851.43296909589844
 20
-2271.984981167594
 30
0.0
 41
10.0
 42
10.0
 43
10.0
 50
270.0
  0
INSERT
  5
204D
  8
SIZE
  6
CONTINUOUS
 62
     0
  2
_ORIGIN
 10
851.43296909589844
 20
-1831.984981167594
 30
0.0
 41
10.0
 42
10.0
 43
10.0
 50
90.0
  0
TEXT
  5
204E
  8
SERVICESPACE
  6
CONTINUOUS
 62
     0
 10
831.43296909589878
 20
-2126.0421240247369
 30
0.0
 40
64.0
  1
440
 50
90.0
 41
0.9
  0
POINT
  5
204F
  8
DEFPOINTS
  6
CONTINUOUS
 62
     0
 10
379.74056396971258
 20
-2271.984981167594
 30
0.0
  0
POINT
  5
2050
  8
DEFPOINTS
  6
CONTINUOUS
 62
     0
 10
510.74056396971258
 20
-1831.984981167594
 30
0.0
  0
POINT
  5
2051
  8
DEFPOINTS
  6
CONTINUOUS
 62
     0
 10
851.43296909589844
 20
-1831.984981167594
 30
0.0
  0
ENDBLK
  5
B6F
  8
0
  0
BLOCK
  8
0
  2
*D31
 70
     1
 10
0.0
 20
0.0
 30
0.0
  3
*D31
  1

  0
LINE
  5
2068
  8
SIZE
  6
CONTINUOUS
 62
     0
 10
399.74056396971258
 20
-2271.984981167594
 30
0.0
 11
1197.4650802143219
 21
-2271.984981167594
 31
0.0
  0
LINE
  5
2069
  8
SIZE
  6
CONTINUOUS
 62
     0
 10
378.74056396971258
 20
-1192.984981167594
 30
0.0
 11
1197.4650802143219
 21
-1192.984981167594
 31
0.0
  0
LINE
  5
206A
  8
SIZE
  6
CONTINUOUS
 62
     0
 10
1167.4650802143219
 20
-2261.984981167594
 30
0.0
 11
1167.4650802143219
 21
-1202.984981167594
 31
0.0
  0
INSERT
  5
206B
  8
SIZE
  6
CONTINUOUS
 62
     0
  2
_DOTBLANK
 10
1167.4650802143219
 20
-2271.984981167594
 30
0.0
 41
10.0
 42
10.0
 43
10.0
 50
270.0
  0
INSERT
  5
206C
  8
SIZE
  6
CONTINUOUS
 62
     0
  2
_ORIGIN
 10
1167.4650802143219
 20
-1192.984981167594
 30
0.0
 41
10.0
 42
10.0
 43
10.0
 50
90.0
  0
TEXT
  5
206D
  8
SERVICESPACE
  6
CONTINUOUS
 62
     0
 10
1147.4650802143219
 20
-1827.1135525961649
 30
0.0
 40
64.0
  1
1079
 50
90.0
 41
0.9
  0
POINT
  5
206E
  8
DEFPOINTS
  6
CONTINUOUS
 62
     0
 10
379.74056396971258
 20
-2271.984981167594
 30
0.0
  0
POINT
  5
206F
  8
DEFPOINTS
  6
CONTINUOUS
 62
     0
 10
358.74056396971258
 20
-1192.984981167594
 30
0.0
  0
POINT
  5
2070
  8
DEFPOINTS
  6
CONTINUOUS
 62
     0
 10
1167.4650802143219
 20
-1192.984981167594
 30
0.0
  0
ENDBLK
  5
B89
  8
0
  0
BLOCK
  8
0
  2
*D32
 70
     1
 10
0.0
 20
0.0
 30
0.0
  3
*D32
  1

  0
LINE
  5
22C8
  8
SIZE
  6
CONTINUOUS
 62
     0
 10
-184.99999999999949
 20
-40.0
 30
0.0
 11
-184.99999999999949
 21
-364.82880203500957
 31
0.0
  0
LINE
  5
22C9
  8
SIZE
  6
CONTINUOUS
 62
     0
 10
185.0000000000004
 20
-40.0
 30
0.0
 11
185.0000000000004
 21
-364.82880203500957
 31
0.0
  0
LINE
  5
22CA
  8
SIZE
  6
CONTINUOUS
 62
     0
 10
-174.99999999999949
 20
-334.82880203500957
 30
0.0
 11
175.0000000000004
 21
-334.82880203500957
 31
0.0
  0
INSERT
  5
22CB
  8
SIZE
  6
CONTINUOUS
 62
     0
  2
_DOTBLANK
 10
-184.99999999999949
 20
-334.82880203500957
 30
0.0
 41
10.0
 42
10.0
 43
10.0
 50
180.0
  0
INSERT
  5
22CC
  8
SIZE
  6
CONTINUOUS
 62
     0
  2
_ORIGIN
 10
185.0000000000004
 20
-334.82880203500957
 30
0.0
 41
10.0
 42
10.0
 43
10.0
  0
TEXT
  8
0
  40
64
  5
2350
  62
0
  72
0
  71
0
 10
-128.000
 20
-396.109
 30
0.000000
  1
370
  0
POINT
  5
22CE
  8
DEFPOINTS
  6
CONTINUOUS
 62
     0
 10
-184.99999999999949
 20
-20.0
 30
0.0
  0
POINT
  5
22CF
  8
DEFPOINTS
  6
CONTINUOUS
 62
     0
 10
185.0000000000004
 20
-20.0
 30
0.0
  0
POINT
  5
22D0
  8
DEFPOINTS
  6
CONTINUOUS
 62
     0
 10
185.0000000000004
 20
-334.82880203500957
 30
0.0
  0
ENDBLK
  5
E81
  8
0
  0
BLOCK
  8
0
  2
*D33
 70
     1
 10
0.0
 20
0.0
 30
0.0
  3
*D33
  1

  0
LINE
  5
22D1
  8
SIZE
  6
CONTINUOUS
 62
     0
 10
-184.99999999999949
 20
-40.0
 30
0.0
 11
-184.99999999999949
 21
-364.82880203500957
 31
0.0
  0
LINE
  5
22D2
  8
SIZE
  6
CONTINUOUS
 62
     0
 10
-204.0
 20
-20.0
 30
0.0
 11
-204.0
 21
-364.82880203500957
 31
0.0
  0
LINE
  5
22D3
  8
SIZE
  6
CONTINUOUS
 62
     0
 10
-174.99999999999949
 20
-334.82880203500957
 30
0.0
 11
-164.99999999999949
 21
-334.82880203500957
 31
0.0
  0
LINE
  5
22D4
  8
SIZE
  6
CONTINUOUS
 62
     0
 10
-214.0
 20
-334.82880203500957
 30
0.0
 11
-343.54285714285709
 21
-334.82880203500957
 31
0.0
  0
LINE
  5
22D5
  8
SIZE
  6
CONTINUOUS
 62
     0
 10
-184.99999999999949
 20
-334.82880203500957
 30
0.0
 11
-204.0
 21
-334.82880203500957
 31
0.0
  0
INSERT
  5
22D6
  8
SIZE
  6
CONTINUOUS
 62
     0
  2
_DOTBLANK
 10
-184.99999999999949
 20
-334.82880203500957
 30
0.0
 41
10.0
 42
10.0
 43
10.0
 50
180.0
  0
INSERT
  5
22D7
  8
SIZE
  6
CONTINUOUS
 62
     0
  2
_ORIGIN
 10
-204.0
 20
-334.82880203500957
 30
0.0
 41
10.0
 42
10.0
 43
10.0
  0
TEXT
  8
0
  40
64
  5
2351
  62
0
  72
0
  71
0
 10
-411.771
 20
-396.109
 30
0.000000
  1
19
  0
POINT
  5
22D9
  8
DEFPOINTS
  6
CONTINUOUS
 62
     0
 10
-184.99999999999949
 20
-20.0
 30
0.0
  0
POINT
  5
22DA
  8
DEFPOINTS
  6
CONTINUOUS
 62
     0
 10
-204.0
 20
0.0
 30
0.0
  0
POINT
  5
22DB
  8
DEFPOINTS
  6
CONTINUOUS
 62
     0
 10
-204.0
 20
-334.82880203500957
 30
0.0
  0
ENDBLK
  5
E90
  8
0
  0
BLOCK
  8
0
  2
*D34
 70
     1
 10
0.0
 20
0.0
 30
0.0
  3
*D34
  1

  0
LINE
  5
22DC
  8
SIZE
  6
CONTINUOUS
 62
     0
 10
185.0000000000004
 20
-40.0
 30
0.0
 11
185.0000000000004
 21
-364.82880203500957
 31
0.0
  0
LINE
  5
22DD
  8
SIZE
  6
CONTINUOUS
 62
     0
 10
213.0000000000004
 20
-20.0
 30
0.0
 11
213.0000000000004
 21
-364.82880203500957
 31
0.0
  0
LINE
  5
22DE
  8
SIZE
  6
CONTINUOUS
 62
     0
 10
175.0000000000004
 20
-334.82880203500957
 30
0.0
 11
165.0000000000004
 21
-334.82880203500957
 31
0.0
  0
LINE
  5
22DF
  8
SIZE
  6
CONTINUOUS
 62
     0
 10
223.0000000000004
 20
-334.82880203500957
 30
0.0
 11
366.25714285714321
 21
-334.82880203500957
 31
0.0
  0
LINE
  5
22E0
  8
SIZE
  6
CONTINUOUS
 62
     0
 10
185.0000000000004
 20
-334.82880203500957
 30
0.0
 11
213.0000000000004
 21
-334.82880203500957
 31
0.0
  0
INSERT
  5
22E1
  8
SIZE
  6
CONTINUOUS
 62
     0
  2
_DOTBLANK
 10
185.0000000000004
 20
-334.82880203500957
 30
0.0
 41
10.0
 42
10.0
 43
10.0
  0
INSERT
  5
22E2
  8
SIZE
  6
CONTINUOUS
 62
     0
  2
_ORIGIN
 10
213.0000000000004
 20
-334.82880203500957
 30
0.0
 41
10.0
 42
10.0
 43
10.0
 50
180.0
  0
TEXT
  8
0
  40
64
  5
2352
  62
0
  72
0
  71
0
 10
171.629
 20
-396.109
 30
0.000000
  1
28
  0
POINT
  5
22E4
  8
DEFPOINTS
  6
CONTINUOUS
 62
     0
 10
185.0000000000004
 20
-20.0
 30
0.0
  0
POINT
  5
22E5
  8
DEFPOINTS
  6
CONTINUOUS
 62
     0
 10
213.0000000000004
 20
0.0
 30
0.0
  0
POINT
  5
22E6
  8
DEFPOINTS
  6
CONTINUOUS
 62
     0
 10
213.0000000000004
 20
-334.82880203500957
 30
0.0
  0
ENDBLK
  5
E9F
  8
0
  0
BLOCK
  8
0
  2
*D35
 70
     1
 10
0.0
 20
0.0
 30
0.0
  3
*D35
  1

  0
LINE
  5
22E7
  8
SIZE
  6
CONTINUOUS
 62
     0
 10
-204.0
 20
-20.0
 30
0.0
 11
-204.0
 21
-500.47583155258093
 31
0.0
  0
LINE
  5
22E8
  8
SIZE
  6
CONTINUOUS
 62
     0
 10
213.0
 20
-20.0
 30
0.0
 11
212.99999999999989
 21
-500.47583155258093
 31
0.0
  0
LINE
  5
22E9
  8
SIZE
  6
CONTINUOUS
 62
     0
 10
-194.0
 20
-470.47583155258093
 30
0.0
 11
202.99999999999989
 21
-470.47583155258093
 31
0.0
  0
INSERT
  5
22EA
  8
SIZE
  6
CONTINUOUS
 62
     0
  2
_DOTBLANK
 10
-204.0
 20
-470.47583155258093
 30
0.0
 41
10.0
 42
10.0
 43
10.0
 50
180.0
  0
INSERT
  5
22EB
  8
SIZE
  6
CONTINUOUS
 62
     0
  2
_ORIGIN
 10
212.99999999999989
 20
-470.47583155258093
 30
0.0
 41
10.0
 42
10.0
 43
10.0
  0
TEXT
  8
0
  40
64
  5
2353
  62
0
  72
0
  71
0
 10
-123.500
 20
-531.756
 30
0.000000
  1
417
  0
POINT
  5
22ED
  8
DEFPOINTS
  6
CONTINUOUS
 62
     0
 10
-204.0
 20
0.0
 30
0.0
  0
POINT
  5
22EE
  8
DEFPOINTS
  6
CONTINUOUS
 62
     0
 10
213.0
 20
0.0
 30
0.0
  0
POINT
  5
22EF
  8
DEFPOINTS
  6
CONTINUOUS
 62
     0
 10
212.99999999999989
 20
-470.47583155258093
 30
0.0
  0
ENDBLK
  5
ED6
  8
0
  0
BLOCK
  8
0
  2
*D36
 70
     1
 10
0.0
 20
0.0
 30
0.0
  3
*D36
  1

  0
LINE
  5
22F0
  8
SIZE
  6
CONTINUOUS
 62
     0
 10
233.0
 20
-0.0000000000000057
 30
0.0
 11
504.52184316789942
 21
-0.0000000000000826
 31
0.0
  0
LINE
  5
22F1
  8
SIZE
  6
CONTINUOUS
 62
     0
 10
143.99999999999989
 20
439.99999999999989
 30
0.0
 11
504.52184316789948
 21
439.99999999999977
 31
0.0
  0
LINE
  5
22F2
  8
SIZE
  6
CONTINUOUS
 62
     0
 10
474.52184316789942
 20
9.9999999999999272
 30
0.0
 11
474.52184316789948
 21
429.99999999999977
 31
0.0
  0
INSERT
  5
22F3
  8
SIZE
  6
CONTINUOUS
 62
     0
  2
_DOTBLANK
 10
474.52184316789942
 20
-0.0000000000000741
 30
0.0
 41
10.0
 42
10.0
 43
10.0
 50
270.0
  0
INSERT
  5
22F4
  8
SIZE
  6
CONTINUOUS
 62
     0
  2
_ORIGIN
 10
474.52184316789948
 20
439.99999999999977
 30
0.0
 41
10.0
 42
10.0
 43
10.0
 50
90.0
  0
TEXT
  8
0
  40
64
  5
2354
  62
0
  72
0
  71
0
 10
294.522
 20
106.720
 30
0.000000
  1
440
  0
POINT
  5
22F6
  8
DEFPOINTS
  6
CONTINUOUS
 62
     0
 10
213.0
 20
0.0
 30
0.0
  0
POINT
  5
22F7
  8
DEFPOINTS
  6
CONTINUOUS
 62
     0
 10
124.0
 20
440.0
 30
0.0
  0
POINT
  5
22F8
  8
DEFPOINTS
  6
CONTINUOUS
 62
     0
 10
474.52184316789948
 20
439.99999999999977
 30
0.0
  0
ENDBLK
  5
EE3
  8
0
  0
BLOCK
  8
0
  2
*D37
 70
     1
 10
0.0
 20
0.0
 30
0.0
  3
*D37
  1

  0
LINE
  5
22F9
  8
SIZE
  6
CONTINUOUS
 62
     0
 10
233.0
 20
-0.0000000000000057
 30
0.0
 11
639.27149711922254
 21
-0.0000000000001208
 31
0.0
  0
LINE
  5
22FA
  8
SIZE
  6
CONTINUOUS
 62
     0
 10
167.0
 20
506.0
 30
0.0
 11
639.27149711922254
 21
505.99999999999977
 31
0.0
  0
LINE
  5
22FB
  8
SIZE
  6
CONTINUOUS
 62
     0
 10
609.27149711922254
 20
9.9999999999998881
 30
0.0
 11
609.27149711922266
 21
495.99999999999989
 31
0.0
  0
INSERT
  5
22FC
  8
SIZE
  6
CONTINUOUS
 62
     0
  2
_DOTBLANK
 10
609.27149711922254
 20
-0.0000000000001123
 30
0.0
 41
10.0
 42
10.0
 43
10.0
 50
270.0
  0
INSERT
  5
22FD
  8
SIZE
  6
CONTINUOUS
 62
     0
  2
_ORIGIN
 10
609.27149711922266
 20
505.99999999999989
 30
0.0
 41
10.0
 42
10.0
 43
10.0
 50
90.0
  0
TEXT
  8
0
  40
64
  5
2355
  62
0
  72
0
  71
0
 10
429.271
 20
139.720
 30
0.000000
  1
506
  0
POINT
  5
22FF
  8
DEFPOINTS
  6
CONTINUOUS
 62
     0
 10
213.0
 20
0.0
 30
0.0
  0
POINT
  5
2300
  8
DEFPOINTS
  6
CONTINUOUS
 62
     0
 10
147.0
 20
506.0
 30
0.0
  0
POINT
  5
2301
  8
DEFPOINTS
  6
CONTINUOUS
 62
     0
 10
609.27149711922266
 20
505.99999999999989
 30
0.0
  0
ENDBLK
  5
EF0
  8
0
  0
BLOCK
  8
0
  2
*D38
 70
     1
 10
0.0
 20
0.0
 30
0.0
  3
*D38
  1

  0
LINE
  5
2302
  8
SIZE
  6
CONTINUOUS
 62
     0
 10
233.0
 20
-0.0000000000000057
 30
0.0
 11
957.09737186652364
 21
-0.0000000000002108
 31
0.0
  0
LINE
  5
2303
  8
SIZE
  6
CONTINUOUS
 62
     0
 10
205.0
 20
1079.0
 30
0.0
 11
957.09737186652387
 21
1078.9999999999991
 31
0.0
  0
LINE
  5
2304
  8
SIZE
  6
CONTINUOUS
 62
     0
 10
927.09737186652364
 20
9.9999999999997975
 30
0.0
 11
927.09737186652387
 21
1068.9999999999991
 31
0.0
  0
INSERT
  5
2305
  8
SIZE
  6
CONTINUOUS
 62
     0
  2
_DOTBLANK
 10
927.09737186652364
 20
-0.0000000000002023
 30
0.0
 41
10.0
 42
10.0
 43
10.0
 50
270.0
  0
INSERT
  5
2306
  8
SIZE
  6
CONTINUOUS
 62
     0
  2
_ORIGIN
 10
927.09737186652387
 20
1078.9999999999991
 30
0.0
 41
10.0
 42
10.0
 43
10.0
 50
90.0
  0
TEXT
  8
0
  40
64
  5
2356
  62
0
  72
0
  71
0
 10
747.097
 20
424.720
 30
0.000000
  1
1079
  0
POINT
  5
2308
  8
DEFPOINTS
  6
CONTINUOUS
 62
     0
 10
213.0
 20
0.0
 30
0.0
  0
POINT
  5
2309
  8
DEFPOINTS
  6
CONTINUOUS
 62
     0
 10
185.0
 20
1079.0
 30
0.0
  0
POINT
  5
230A
  8
DEFPOINTS
  6
CONTINUOUS
 62
     0
 10
927.09737186652387
 20
1078.9999999999991
 30
0.0
  0
ENDBLK
  5
EFD
  8
0
  0
BLOCK
  8
0
  2
*D39
 70
     1
 10
0.0
 20
0.0
 30
0.0
  3
*D39
  1

  0
LINE
  5
230B
  8
SIZE
  6
CONTINUOUS
 62
     0
 10
233.0
 20
-0.0000000000000057
 30
0.0
 11
789.28270031044008
 21
-0.0000000000001632
 31
0.0
  0
LINE
  5
230C
  8
SIZE
  6
CONTINUOUS
 62
     0
 10
215.0
 20
371.00000000046151
 30
0.0
 11
789.2827003104403
 21
371.0000000004614
 31
0.0
  0
LINE
  5
230D
  8
SIZE
  6
CONTINUOUS
 62
     0
 10
759.28270031044008
 20
9.9999999999998455
 30
0.0
 11
759.2827003104403
 21
361.00000000046128
 31
0.0
  0
INSERT
  5
230E
  8
SIZE
  6
CONTINUOUS
 62
     0
  2
_DOTBLANK
 10
759.28270031044008
 20
-0.0000000000001547
 30
0.0
 41
10.0
 42
10.0
 43
10.0
 50
270.0
  0
INSERT
  5
230F
  8
SIZE
  6
CONTINUOUS
 62
     0
  2
_ORIGIN
 10
759.2827003104403
 20
371.0000000004614
 30
0.0
 41
10.0
 42
10.0
 43
10.0
 50
90.0
  0
TEXT
  8
0
  40
64
  5
2357
  62
0
  72
0
  71
0
 10
579.283
 20
72.2200
 30
0.000000
  1
371
  0
POINT
  5
2311
  8
DEFPOINTS
  6
CONTINUOUS
 62
     0
 10
213.0
 20
0.0
 30
0.0
  0
POINT
  5
2312
  8
DEFPOINTS
  6
CONTINUOUS
 62
     0
 10
195.0
 20
371.00000000046151
 30
0.0
  0
POINT
  5
2313
  8
DEFPOINTS
  6
CONTINUOUS
 62
     0
 10
759.2827003104403
 20
371.0000000004614
 30
0.0
  0
ENDBLK
  5
F0A
  8
0
  0
BLOCK
  8
0
  2
*D40
 70
     1
 10
0.0
 20
0.0
 30
0.0
  3
*D40
  1

  0
LINE
  5
2314
  8
SIZE
  6
CONTINUOUS
 62
     0
 10
233.0000000000004
 20
-0.0000000000000057
 30
0.0
 11
1087.765949841513
 21
-0.0000000000002478
 31
0.0
  0
LINE
  5
2315
  8
SIZE
  6
CONTINUOUS
 62
     0
 10
185.0
 20
1350.0
 30
0.0
 11
1087.765949841513
 21
1349.9999999999991
 31
0.0
  0
LINE
  5
2316
  8
SIZE
  6
CONTINUOUS
 62
     0
 10
1057.765949841513
 20
9.9999999999997602
 30
0.0
 11
1057.765949841513
 21
1339.9999999999991
 31
0.0
  0
INSERT
  5
2317
  8
SIZE
  6
CONTINUOUS
 62
     0
  2
_DOTBLANK
 10
1057.765949841513
 20
-0.0000000000002393
 30
0.0
 41
10.0
 42
10.0
 43
10.0
 50
270.0
  0
INSERT
  5
2318
  8
SIZE
  6
CONTINUOUS
 62
     0
  2
_ORIGIN
 10
1057.765949841513
 20
1349.9999999999991
 30
0.0
 41
10.0
 42
10.0
 43
10.0
 50
90.0
  0
TEXT
  8
0
  40
64
  5
2358
  62
0
  72
0
  71
0
 10
877.766
 20
561.720
 30
0.000000
  1
1350
  0
POINT
  5
231A
  8
DEFPOINTS
  6
CONTINUOUS
 62
     0
 10
213.0000000000004
 20
0.0
 30
0.0
  0
POINT
  5
231B
  8
DEFPOINTS
  6
CONTINUOUS
 62
     0
 10
165.0
 20
1350.0
 30
0.0
  0
POINT
  5
231C
  8
DEFPOINTS
  6
CONTINUOUS
 62
     0
 10
1057.765949841513
 20
1349.9999999999991
 30
0.0
  0
ENDBLK
  5
F17
  8
0
  0
BLOCK
  8
0
  2
*D41
 70
     1
 10
0.0
 20
0.0
 30
0.0
  3
*D41
  1

  0
LINE
  5
F8A
  8
SIZE
  6
CONTINUOUS
 62
     0
 10
-236.2594360302873
 20
-2311.984981167594
 30
0.0
 11
-236.2594360302873
 21
-2708.331385277691
 31
0.0
  0
LINE
  5
F8B
  8
SIZE
  6
CONTINUOUS
 62
     0
 10
363.74056396971258
 20
-2311.984981167594
 30
0.0
 11
363.74056396971258
 21
-2708.331385277691
 31
0.0
  0
LINE
  5
F8C
  8
SIZE
  6
CONTINUOUS
 62
     0
 10
-226.2594360302873
 20
-2678.3313852776919
 30
0.0
 11
353.74056396971258
 21
-2678.3313852776919
 31
0.0
  0
INSERT
  5
F8D
  8
SIZE
  6
CONTINUOUS
 62
     0
  2
_DOTBLANK
 10
-236.2594360302873
 20
-2678.3313852776919
 30
0.0
 41
10.0
 42
10.0
 43
10.0
 50
180.0
  0
INSERT
  5
F8E
  8
SIZE
  6
CONTINUOUS
 62
     0
  2
_ORIGIN
 10
363.74056396971258
 20
-2678.3313852776919
 30
0.0
 41
10.0
 42
10.0
 43
10.0
  0
TEXT
  5
F8F
  8
SERVICESPACE
  6
CONTINUOUS
 62
     0
 10
-10.31657888743022
 20
-2658.331385277691
 30
0.0
 40
64.0
  1
600
 41
0.9
  0
POINT
  5
F90
  8
DEFPOINTS
  6
CONTINUOUS
 62
     0
 10
-236.2594360302873
 20
-2291.984981167594
 30
0.0
  0
POINT
  5
F91
  8
DEFPOINTS
  6
CONTINUOUS
 62
     0
 10
363.74056396971258
 20
-2291.984981167594
 30
0.0
  0
POINT
  5
F92
  8
DEFPOINTS
  6
CONTINUOUS
 62
     0
 10
363.74056396971258
 20
-2678.3313852776919
 30
0.0
  0
ENDBLK
  5
F79
  8
0
  0
BLOCK
  8
0
  2
*D42
 70
     1
 10
0.0
 20
0.0
 30
0.0
  3
*D42
  1

  0
LINE
  5
F7D
  8
SIZE
  6
CONTINUOUS
 62
     0
 10
-236.2594360302873
 20
-2311.984981167594
 30
0.0
 11
-236.2594360302873
 21
-2708.331385277691
 31
0.0
  0
LINE
  5
F7E
  8
SIZE
  6
CONTINUOUS
 62
     0
 10
-411.25943603028719
 20
-2268.984981167594
 30
0.0
 11
-411.25943603028719
 21
-2708.331385277691
 31
0.0
  0
LINE
  5
F7F
  8
SIZE
  6
CONTINUOUS
 62
     0
 10
-226.2594360302873
 20
-2678.3313852776919
 30
0.0
 11
-216.25943603028739
 21
-2678.3313852776919
 31
0.0
  0
LINE
  5
F80
  8
SIZE
  6
CONTINUOUS
 62
     0
 10
-421.25943603028719
 20
-2678.3313852776919
 30
0.0
 11
-608.40229317314436
 21
-2678.3313852776919
 31
0.0
  0
LINE
  5
F81
  8
SIZE
  6
CONTINUOUS
 62
     0
 10
-236.2594360302873
 20
-2678.3313852776919
 30
0.0
 11
-411.25943603028719
 21
-2678.3313852776919
 31
0.0
  0
INSERT
  5
F82
  8
SIZE
  6
CONTINUOUS
 62
     0
  2
_DOTBLANK
 10
-236.2594360302873
 20
-2678.3313852776919
 30
0.0
 41
10.0
 42
10.0
 43
10.0
 50
180.0
  0
INSERT
  5
F83
  8
SIZE
  6
CONTINUOUS
 62
     0
  2
_ORIGIN
 10
-411.25943603028719
 20
-2678.3313852776919
 30
0.0
 41
10.0
 42
10.0
 43
10.0
  0
TEXT
  5
F84
  8
SERVICESPACE
  6
CONTINUOUS
 62
     0
 10
-588.40229317314424
 20
-2658.331385277691
 30
0.0
 40
64.0
  1
175
 41
0.9
  0
POINT
  5
F85
  8
DEFPOINTS
  6
CONTINUOUS
 62
     0
 10
-236.2594360302873
 20
-2291.984981167594
 30
0.0
  0
POINT
  5
F86
  8
DEFPOINTS
  6
CONTINUOUS
 62
     0
 10
-411.25943603028719
 20
-2248.984981167594
 30
0.0
  0
POINT
  5
F87
  8
DEFPOINTS
  6
CONTINUOUS
 62
     0
 10
-411.25943603028719
 20
-2678.3313852776919
 30
0.0
  0
ENDBLK
  5
F89
  8
0
  0
BLOCK
  8
0
  2
*D43
 70
     1
 10
0.0
 20
0.0
 30
0.0
  3
*D43
  1

  0
LINE
  5
F95
  8
SIZE
  6
CONTINUOUS
 62
     0
 10
363.74056396971258
 20
-2311.984981167594
 30
0.0
 11
363.74056396971258
 21
-2708.331385277691
 31
0.0
  0
LINE
  5
F96
  8
SIZE
  6
CONTINUOUS
 62
     0
 10
538.74056396971264
 20
-2268.984981167594
 30
0.0
 11
538.74056396971264
 21
-2708.331385277691
 31
0.0
  0
LINE
  5
F97
  8
SIZE
  6
CONTINUOUS
 62
     0
 10
353.74056396971258
 20
-2678.3313852776919
 30
0.0
 11
343.74056396971258
 21
-2678.3313852776919
 31
0.0
  0
LINE
  5
F98
  8
SIZE
  6
CONTINUOUS
 62
     0
 10
548.74056396971264
 20
-2678.3313852776919
 30
0.0
 11
735.88342111256975
 21
-2678.3313852776919
 31
0.0
  0
LINE
  5
F99
  8
SIZE
  6
CONTINUOUS
 62
     0
 10
363.74056396971258
 20
-2678.3313852776919
 30
0.0
 11
538.74056396971264
 21
-2678.3313852776919
 31
0.0
  0
INSERT
  5
F9A
  8
SIZE
  6
CONTINUOUS
 62
     0
  2
_DOTBLANK
 10
363.74056396971258
 20
-2678.3313852776919
 30
0.0
 41
10.0
 42
10.0
 43
10.0
  0
INSERT
  5
F9B
  8
SIZE
  6
CONTINUOUS
 62
     0
  2
_ORIGIN
 10
538.74056396971264
 20
-2678.3313852776919
 30
0.0
 41
10.0
 42
10.0
 43
10.0
 50
180.0
  0
TEXT
  5
F9C
  8
SERVICESPACE
  6
CONTINUOUS
 62
     0
 10
578.74056396971264
 20
-2658.331385277691
 30
0.0
 40
64.0
  1
175
 41
0.9
  0
POINT
  5
F9D
  8
DEFPOINTS
  6
CONTINUOUS
 62
     0
 10
363.74056396971258
 20
-2291.984981167594
 30
0.0
  0
POINT
  5
F9E
  8
DEFPOINTS
  6
CONTINUOUS
 62
     0
 10
538.74056396971264
 20
-2248.984981167594
 30
0.0
  0
POINT
  5
F9F
  8
DEFPOINTS
  6
CONTINUOUS
 62
     0
 10
538.74056396971264
 20
-2678.3313852776919
 30
0.0
  0
ENDBLK
  5
FA1
  8
0
  0
BLOCK
  8
0
  2
*D44
 70
     1
 10
0.0
 20
0.0
 30
0.0
  3
*D44
  1

  0
LINE
  5
FA4
  8
SIZE
  6
CONTINUOUS
 62
     0
 10
538.74056396971264
 20
-2268.984981167594
 30
0.0
 11
538.74056396971264
 21
-2844.9989431726458
 31
0.0
  0
LINE
  5
FA5
  8
SIZE
  6
CONTINUOUS
 62
     0
 10
-411.25943603028719
 20
-2268.984981167594
 30
0.0
 11
-411.2594360302873
 21
-2844.9989431726458
 31
0.0
  0
LINE
  5
FA6
  8
SIZE
  6
CONTINUOUS
 62
     0
 10
528.74056396971264
 20
-2814.9989431726458
 30
0.0
 11
-401.25943603028719
 21
-2814.9989431726458
 31
0.0
  0
INSERT
  5
FA7
  8
SIZE
  6
CONTINUOUS
 62
     0
  2
_DOTBLANK
 10
538.74056396971264
 20
-2814.9989431726458
 30
0.0
 41
10.0
 42
10.0
 43
10.0
  0
INSERT
  5
FA8
  8
SIZE
  6
CONTINUOUS
 62
     0
  2
_ORIGIN
 10
-411.2594360302873
 20
-2814.9989431726458
 30
0.0
 41
10.0
 42
10.0
 43
10.0
 50
180.0
  0
TEXT
  5
FA9
  8
SERVICESPACE
  6
CONTINUOUS
 62
     0
 10
-10.3165788874302
 20
-2794.9989431726458
 30
0.0
 40
64.0
  1
950
 41
0.9
  0
POINT
  5
FAA
  8
DEFPOINTS
  6
CONTINUOUS
 62
     0
 10
538.74056396971264
 20
-2248.984981167594
 30
0.0
  0
POINT
  5
FAB
  8
DEFPOINTS
  6
CONTINUOUS
 62
     0
 10
-411.25943603028719
 20
-2248.984981167594
 30
0.0
  0
POINT
  5
FAC
  8
DEFPOINTS
  6
CONTINUOUS
 62
     0
 10
-411.2594360302873
 20
-2814.9989431726458
 30
0.0
  0
ENDBLK
  5
FAE
  8
0
  0
BLOCK
  8
0
  2
*D45
 70
     1
 10
0.0
 20
0.0
 30
0.0
  3
*D45
  1

  0
LINE
  5
2052
  8
SIZE
  6
CONTINUOUS
 62
     0
 10
403.74056396971258
 20
-2271.984981167594
 30
0.0
 11
1047.7629564218
 21
-2271.984981167594
 31
0.0
  0
LINE
  5
2053
  8
SIZE
  6
CONTINUOUS
 62
     0
 10
480.74056396971258
 20
-1765.984981167594
 30
0.0
 11
1047.7629564218
 21
-1765.984981167594
 31
0.0
  0
LINE
  5
2054
  8
SIZE
  6
CONTINUOUS
 62
     0
 10
1017.7629564218
 20
-2261.984981167594
 30
0.0
 11
1017.7629564218
 21
-1775.984981167594
 31
0.0
  0
INSERT
  5
2055
  8
SIZE
  6
CONTINUOUS
 62
     0
  2
_DOTBLANK
 10
1017.7629564218
 20
-2271.984981167594
 30
0.0
 41
10.0
 42
10.0
 43
10.0
 50
270.0
  0
INSERT
  5
2056
  8
SIZE
  6
CONTINUOUS
 62
     0
  2
_ORIGIN
 10
1017.7629564218
 20
-1765.984981167594
 30
0.0
 41
10.0
 42
10.0
 43
10.0
 50
90.0
  0
TEXT
  5
2057
  8
SERVICESPACE
  6
CONTINUOUS
 62
     0
 10
997.76295642180071
 20
-2091.6706954533079
 30
0.0
 40
64.0
  1
506
 50
90.0
 41
0.9
  0
POINT
  5
2058
  8
DEFPOINTS
  6
CONTINUOUS
 62
     0
 10
383.74056396971258
 20
-2271.984981167594
 30
0.0
  0
POINT
  5
2059
  8
DEFPOINTS
  6
CONTINUOUS
 62
     0
 10
460.74056396971258
 20
-1765.984981167594
 30
0.0
  0
POINT
  5
205A
  8
DEFPOINTS
  6
CONTINUOUS
 62
     0
 10
1017.7629564218
 20
-1765.984981167594
 30
0.0
  0
ENDBLK
  5
FBB
  8
0
  0
BLOCK
  8
0
  2
*D46
 70
     1
 10
0.0
 20
0.0
 30
0.0
  3
*D46
  1

  0
LINE
  5
231D
  8
SIZE
  6
CONTINUOUS
 62
     0
 10
165.0
 20
53.0
 30
0.0
 11
165.0
 21
640.56706925720073
 31
0.0
  0
LINE
  5
231E
  8
SIZE
  6
CONTINUOUS
 62
     0
 10
127.0
 20
546.0
 30
0.0
 11
127.0
 21
640.56706925720073
 31
0.0
  0
LINE
  5
231F
  8
SIZE
  6
CONTINUOUS
 62
     0
 10
117.0
 20
610.56706925720073
 30
0.0
 11
107.0
 21
610.56706925720073
 31
0.0
  0
LINE
  5
2320
  8
SIZE
  6
CONTINUOUS
 62
     0
 10
175.0
 20
610.56706925720073
 30
0.0
 11
325.7902910273578
 21
610.56706925720073
 31
0.0
  0
LINE
  5
2321
  8
SIZE
  6
CONTINUOUS
 62
     0
 10
127.0
 20
610.56706925720073
 30
0.0
 11
165.0
 21
610.56706925720073
 31
0.0
  0
INSERT
  5
2322
  8
SIZE
  6
CONTINUOUS
 62
     0
  2
_ORIGIN
 10
127.0
 20
610.56706925720073
 30
0.0
 41
10.0
 42
10.0
 43
10.0
  0
INSERT
  5
2323
  8
SIZE
  6
CONTINUOUS
 62
     0
  2
_DOTBLANK
 10
165.0
 20
610.56706925720073
 30
0.0
 41
10.0
 42
10.0
 43
10.0
 50
180.0
  0
TEXT
  8
0
  40
64
  5
2359
  62
0
  72
0
  71
0
 10
131.162
 20
549.287
 30
0.000000
  1
38
  0
POINT
  5
2325
  8
DEFPOINTS
  6
CONTINUOUS
 62
     0
 10
165.0
 20
33.0
 30
0.0
  0
POINT
  5
2326
  8
DEFPOINTS
  6
CONTINUOUS
 62
     0
 10
127.0
 20
526.0
 30
0.0
  0
POINT
  5
2327
  8
DEFPOINTS
  6
CONTINUOUS
 62
     0
 10
127.0
 20
610.56706925720073
 30
0.0
  0
ENDBLK
  5
FCA
  8
0
  0
BLOCK
  8
0
  2
*D47
 70
     1
 10
0.0
 20
0.0
 30
0.0
  3
*D47
  1

  0
LINE
  5
2328
  8
SIZE
  6
CONTINUOUS
 62
     0
 10
165.0
 20
53.0
 30
0.0
 11
165.0
 21
764.22623202379191
 31
0.0
  0
LINE
  5
2329
  8
SIZE
  6
CONTINUOUS
 62
     0
 10
104.0
 20
480.0
 30
0.0
 11
104.0
 21
764.22623202379191
 31
0.0
  0
LINE
  5
232A
  8
SIZE
  6
CONTINUOUS
 62
     0
 10
94.000000000000014
 20
734.22623202379191
 30
0.0
 11
84.000000000000014
 21
734.22623202379191
 31
0.0
  0
LINE
  5
232B
  8
SIZE
  6
CONTINUOUS
 62
     0
 10
175.0
 20
734.22623202379191
 30
0.0
 11
313.4474338845007
 21
734.22623202379191
 31
0.0
  0
LINE
  5
232C
  8
SIZE
  6
CONTINUOUS
 62
     0
 10
104.0
 20
734.22623202379191
 30
0.0
 11
165.0
 21
734.22623202379191
 31
0.0
  0
INSERT
  5
232D
  8
SIZE
  6
CONTINUOUS
 62
     0
  2
_ORIGIN
 10
104.0
 20
734.22623202379191
 30
0.0
 41
10.0
 42
10.0
 43
10.0
  0
INSERT
  5
232E
  8
SIZE
  6
CONTINUOUS
 62
     0
  2
_DOTBLANK
 10
165.0
 20
734.22623202379191
 30
0.0
 41
10.0
 42
10.0
 43
10.0
 50
180.0
  0
TEXT
  8
0
  40
64
  5
235A
  62
0
  72
0
  71
0
 10
131.162
 20
672.946
 30
0.000000
  1
61
  0
POINT
  5
2330
  8
DEFPOINTS
  6
CONTINUOUS
 62
     0
 10
165.0
 20
33.0
 30
0.0
  0
POINT
  5
2331
  8
DEFPOINTS
  6
CONTINUOUS
 62
     0
 10
104.0
 20
460.0
 30
0.0
  0
POINT
  5
2332
  8
DEFPOINTS
  6
CONTINUOUS
 62
     0
 10
104.0
 20
734.22623202379191
 30
0.0
  0
ENDBLK
  5
FEF
  8
0
  0
BLOCK
  8
0
  2
*D48
 70
     1
 10
0.0
 20
0.0
 30
0.0
  3
*D48
  1

  0
LINE
  5
2333
  8
SIZE
  6
CONTINUOUS
 62
     0
 10
165.0
 20
1370.0
 30
0.0
 11
165.0
 21
1695.3903637773381
 31
0.0
  0
LINE
  5
2334
  8
SIZE
  6
CONTINUOUS
 62
     0
 10
195.0000000000004
 20
782.00000000000114
 30
0.0
 11
195.0000000000004
 21
1695.3903637773381
 31
0.0
  0
LINE
  5
2335
  8
SIZE
  6
CONTINUOUS
 62
     0
 10
155.0
 20
1665.390363777339
 30
0.0
 11
145.0
 21
1665.390363777339
 31
0.0
  0
LINE
  5
2336
  8
SIZE
  6
CONTINUOUS
 62
     0
 10
205.00000000000051
 20
1665.390363777339
 30
0.0
 11
348.25714285714332
 21
1665.390363777339
 31
0.0
  0
LINE
  5
2337
  8
SIZE
  6
CONTINUOUS
 62
     0
 10
165.0
 20
1665.390363777339
 30
0.0
 11
195.0000000000004
 21
1665.390363777339
 31
0.0
  0
INSERT
  5
2338
  8
SIZE
  6
CONTINUOUS
 62
     0
  2
_DOTBLANK
 10
165.0
 20
1665.390363777339
 30
0.0
 41
10.0
 42
10.0
 43
10.0
  0
INSERT
  5
2339
  8
SIZE
  6
CONTINUOUS
 62
     0
  2
_ORIGIN
 10
195.0000000000004
 20
1665.390363777339
 30
0.0
 41
10.0
 42
10.0
 43
10.0
 50
180.0
  0
TEXT
  8
0
  40
64
  5
235B
  62
0
  72
0
  71
0
 10
153.629
 20
1604.11
 30
0.000000
  1
30
  0
POINT
  5
233B
  8
DEFPOINTS
  6
CONTINUOUS
 62
     0
 10
165.0
 20
1350.0
 30
0.0
  0
POINT
  5
233C
  8
DEFPOINTS
  6
CONTINUOUS
 62
     0
 10
195.0000000000004
 20
762.00000000000114
 30
0.0
  0
POINT
  5
233D
  8
DEFPOINTS
  6
CONTINUOUS
 62
     0
 10
195.0000000000004
 20
1665.390363777339
 30
0.0
  0
ENDBLK
  5
101F
  8
0
  0
BLOCK
  8
0
  2
*D49
 70
     1
 10
0.0
 20
0.0
 30
0.0
  3
*D49
  1

  0
LINE
  5
233E
  8
SIZE
  6
CONTINUOUS
 62
     0
 10
-165.0
 20
1370.0
 30
0.0
 11
-164.99999999999989
 21
1695.3903637773381
 31
0.0
  0
LINE
  5
233F
  8
SIZE
  6
CONTINUOUS
 62
     0
 10
165.0
 20
1370.0
 30
0.0
 11
165.0
 21
1695.3903637773381
 31
0.0
  0
LINE
  5
2340
  8
SIZE
  6
CONTINUOUS
 62
     0
 10
-154.99999999999989
 20
1665.390363777339
 30
0.0
 11
155.0
 21
1665.390363777339
 31
0.0
  0
INSERT
  5
2341
  8
SIZE
  6
CONTINUOUS
 62
     0
  2
_DOTBLANK
 10
-164.99999999999989
 20
1665.390363777339
 30
0.0
 41
10.0
 42
10.0
 43
10.0
 50
180.0
  0
INSERT
  5
2342
  8
SIZE
  6
CONTINUOUS
 62
     0
  2
_ORIGIN
 10
165.0
 20
1665.390363777339
 30
0.0
 41
10.0
 42
10.0
 43
10.0
  0
TEXT
  8
0
  40
64
  5
235C
  62
0
  72
0
  71
0
 10
-128.000
 20
1604.11
 30
0.000000
  1
330
  0
POINT
  5
2344
  8
DEFPOINTS
  6
CONTINUOUS
 62
     0
 10
-165.0
 20
1350.0
 30
0.0
  0
POINT
  5
2345
  8
DEFPOINTS
  6
CONTINUOUS
 62
     0
 10
165.0
 20
1350.0
 30
0.0
  0
POINT
  5
2346
  8
DEFPOINTS
  6
CONTINUOUS
 62
     0
 10
165.0
 20
1665.390363777339
 30
0.0
  0
ENDBLK
  5
1061
  8
0
  0
BLOCK
  8
0
  2
*D50
 70
     1
 10
0.0
 20
0.0
 30
0.0
  3
*D50
  1

  0
LINE
  5
176C
  8
SIZE
  6
CONTINUOUS
 62
     0
 10
6197.7510434093147
 20
-2248.984981167594
 30
0.0
 11
6320.233520656986
 21
-2248.984981167594
 31
0.0
  0
LINE
  5
176D
  8
SIZE
  6
CONTINUOUS
 62
     0
 10
6042.7510434093156
 20
-2271.984981167594
 30
0.0
 11
6320.233520656986
 21
-2271.984981167594
 31
0.0
  0
LINE
  5
176E
  8
SIZE
  6
CONTINUOUS
 62
     0
 10
6290.233520656986
 20
-2238.984981167594
 30
0.0
 11
6290.233520656986
 21
-2228.984981167594
 31
0.0
  0
LINE
  5
176F
  8
SIZE
  6
CONTINUOUS
 62
     0
 10
6290.233520656986
 20
-2281.984981167594
 30
0.0
 11
6290.233520656986
 21
-2425.2421240247372
 31
0.0
  0
LINE
  5
1770
  8
SIZE
  6
CONTINUOUS
 62
     0
 10
6290.233520656986
 20
-2248.984981167594
 30
0.0
 11
6290.233520656986
 21
-2271.984981167594
 31
0.0
  0
INSERT
  5
1771
  8
SIZE
  6
CONTINUOUS
 62
     0
  2
_DOTBLANK
 10
6290.233520656986
 20
-2248.984981167594
 30
0.0
 41
10.0
 42
10.0
 43
10.0
 50
270.0
  0
INSERT
  5
1772
  8
SIZE
  6
CONTINUOUS
 62
     0
  2
_ORIGIN
 10
6290.233520656986
 20
-2271.984981167594
 30
0.0
 41
10.0
 42
10.0
 43
10.0
 50
90.0
  0
TEXT
  5
1773
  8
SERVICESPACE
  6
CONTINUOUS
 62
     0
 10
6270.2335206569869
 20
-2405.2421240247359
 30
0.0
 40
64.0
  1
23
 50
90.0
 41
0.9
  0
POINT
  5
1774
  8
DEFPOINTS
  6
CONTINUOUS
 62
     0
 10
6177.7510434093147
 20
-2248.984981167594
 30
0.0
  0
POINT
  5
1775
  8
DEFPOINTS
  6
CONTINUOUS
 62
     0
 10
6022.7510434093147
 20
-2271.984981167594
 30
0.0
  0
POINT
  5
1776
  8
DEFPOINTS
  6
CONTINUOUS
 62
     0
 10
6290.233520656986
 20
-2271.984981167594
 30
0.0
  0
ENDBLK
  5
142D
  8
0
  0
BLOCK
  8
0
  2
*D51
 70
     1
 10
0.0
 20
0.0
 30
0.0
  3
*D51
  1

  0
LINE
  5
1F20
  8
SIZE
  6
CONTINUOUS
 62
     0
 10
6042.7510434093156
 20
-2271.984981167594
 30
0.0
 11
6423.4662506056511
 21
-2271.984981167594
 31
0.0
  0
LINE
  5
1F21
  8
SIZE
  6
CONTINUOUS
 62
     0
 10
6197.7510434093147
 20
-921.98498116759436
 30
0.0
 11
6423.4662506056529
 21
-921.98498116759447
 31
0.0
  0
LINE
  5
1F22
  8
SIZE
  6
CONTINUOUS
 62
     0
 10
6393.4662506056511
 20
-2261.984981167594
 30
0.0
 11
6393.4662506056511
 21
-931.98498116759447
 31
0.0
  0
INSERT
  5
1F23
  8
SIZE
  6
CONTINUOUS
 62
     0
  2
_DOTBLANK
 10
6393.4662506056511
 20
-2271.984981167594
 30
0.0
 41
10.0
 42
10.0
 43
10.0
 50
270.0
  0
INSERT
  5
1F24
  8
SIZE
  6
CONTINUOUS
 62
     0
  2
_ORIGIN
 10
6393.4662506056511
 20
-921.98498116759436
 30
0.0
 41
10.0
 42
10.0
 43
10.0
 50
90.0
  0
TEXT
  5
1F25
  8
SERVICESPACE
  6
CONTINUOUS
 62
     0
 10
6373.466250605652
 20
-1692.984981167594
 30
0.0
 40
64.0
  1
1350
 50
90.0
 41
0.9
  0
POINT
  5
1F26
  8
DEFPOINTS
  6
CONTINUOUS
 62
     0
 10
6022.7510434093147
 20
-2271.984981167594
 30
0.0
  0
POINT
  5
1F27
  8
DEFPOINTS
  6
CONTINUOUS
 62
     0
 10
6177.7510434093147
 20
-921.98498116759436
 30
0.0
  0
POINT
  5
1F28
  8
DEFPOINTS
  6
CONTINUOUS
 62
     0
 10
6393.4662506056511
 20
-921.98498116759436
 30
0.0
  0
ENDBLK
  5
1445
  8
0
  0
BLOCK
  8
0
  2
*D52
 70
     1
 10
0.0
 20
0.0
 30
0.0
  3
*D52
  1

  0
LINE
  5
1965
  8
SIZE
  6
CONTINUOUS
 62
     0
 10
6177.7510434093147
 20
-901.98498116759436
 30
0.0
 11
6177.7510434093147
 21
-772.13873621940365
 31
0.0
  0
LINE
  5
1966
  8
SIZE
  6
CONTINUOUS
 62
     0
 10
5227.7510434093156
 20
-901.98498116759436
 30
0.0
 11
5227.7510434093156
 21
-772.13873621940365
 31
0.0
  0
LINE
  5
1967
  8
SIZE
  6
CONTINUOUS
 62
     0
 10
6167.7510434093156
 20
-802.13873621940365
 30
0.0
 11
5237.7510434093147
 21
-802.13873621940365
 31
0.0
  0
INSERT
  5
1968
  8
SIZE
  6
CONTINUOUS
 62
     0
  2
_DOTBLANK
 10
6177.7510434093147
 20
-802.13873621940365
 30
0.0
 41
10.0
 42
10.0
 43
10.0
  0
INSERT
  5
1969
  8
SIZE
  6
CONTINUOUS
 62
     0
  2
_ORIGIN
 10
5227.7510434093156
 20
-802.13873621940365
 30
0.0
 41
10.0
 42
10.0
 43
10.0
 50
180.0
  0
TEXT
  5
196A
  8
SERVICESPACE
  6
CONTINUOUS
 62
     0
 10
5628.6939005521726
 20
-782.13873621940365
 30
0.0
 40
64.0
  1
950
 41
0.9
  0
POINT
  5
196B
  8
DEFPOINTS
  6
CONTINUOUS
 62
     0
 10
6177.7510434093147
 20
-921.98498116759436
 30
0.0
  0
POINT
  5
196C
  8
DEFPOINTS
  6
CONTINUOUS
 62
     0
 10
5227.7510434093156
 20
-921.98498116759436
 30
0.0
  0
POINT
  5
196D
  8
DEFPOINTS
  6
CONTINUOUS
 62
     0
 10
5227.7510434093156
 20
-802.13873621940365
 30
0.0
  0
ENDBLK
  5
145D
  8
0
  0
BLOCK
  8
0
  2
*D53
 70
     1
 10
0.0
 20
0.0
 30
0.0
  3
*D53
  1

  0
LINE
  5
1777
  8
SIZE
  6
CONTINUOUS
 62
     0
 10
6002.7510434093156
 20
-2311.984981167594
 30
0.0
 11
6002.7510434093156
 21
-2708.331385277691
 31
0.0
  0
LINE
  5
1778
  8
SIZE
  6
CONTINUOUS
 62
     0
 10
5402.7510434093156
 20
-2311.984981167594
 30
0.0
 11
5402.7510434093156
 21
-2708.331385277691
 31
0.0
  0
LINE
  5
1779
  8
SIZE
  6
CONTINUOUS
 62
     0
 10
5992.7510434093156
 20
-2678.3313852776919
 30
0.0
 11
5412.7510434093147
 21
-2678.3313852776919
 31
0.0
  0
INSERT
  5
177A
  8
SIZE
  6
CONTINUOUS
 62
     0
  2
_DOTBLANK
 10
6002.7510434093156
 20
-2678.3313852776919
 30
0.0
 41
10.0
 42
10.0
 43
10.0
  0
INSERT
  5
177B
  8
SIZE
  6
CONTINUOUS
 62
     0
  2
_ORIGIN
 10
5402.7510434093156
 20
-2678.3313852776919
 30
0.0
 41
10.0
 42
10.0
 43
10.0
 50
180.0
  0
TEXT
  5
177C
  8
SERVICESPACE
  6
CONTINUOUS
 62
     0
 10
5628.6939005521726
 20
-2658.331385277691
 30
0.0
 40
64.0
  1
600
 41
0.9
  0
POINT
  5
177D
  8
DEFPOINTS
  6
CONTINUOUS
 62
     0
 10
6002.7510434093156
 20
-2291.984981167594
 30
0.0
  0
POINT
  5
177E
  8
DEFPOINTS
  6
CONTINUOUS
 62
     0
 10
5402.7510434093156
 20
-2291.984981167594
 30
0.0
  0
POINT
  5
177F
  8
DEFPOINTS
  6
CONTINUOUS
 62
     0
 10
5402.7510434093156
 20
-2678.3313852776919
 30
0.0
  0
ENDBLK
  5
14A9
  8
0
  0
BLOCK
  8
0
  2
*D54
 70
     1
 10
0.0
 20
0.0
 30
0.0
  3
*D54
  1

  0
LINE
  5
178B
  8
SIZE
  6
CONTINUOUS
 62
     0
 10
6002.7510434093156
 20
-2311.984981167594
 30
0.0
 11
6002.7510434093156
 21
-2708.331385277691
 31
0.0
  0
LINE
  5
178C
  8
SIZE
  6
CONTINUOUS
 62
     0
 10
6177.7510434093147
 20
-2268.984981167594
 30
0.0
 11
6177.7510434093147
 21
-2708.331385277691
 31
0.0
  0
LINE
  5
178D
  8
SIZE
  6
CONTINUOUS
 62
     0
 10
5992.7510434093156
 20
-2678.3313852776919
 30
0.0
 11
5982.7510434093147
 21
-2678.3313852776919
 31
0.0
  0
LINE
  5
178E
  8
SIZE
  6
CONTINUOUS
 62
     0
 10
6187.7510434093156
 20
-2678.3313852776919
 30
0.0
 11
6374.8939005521734
 21
-2678.3313852776919
 31
0.0
  0
LINE
  5
178F
  8
SIZE
  6
CONTINUOUS
 62
     0
 10
6002.7510434093156
 20
-2678.3313852776919
 30
0.0
 11
6177.7510434093147
 21
-2678.3313852776919
 31
0.0
  0
INSERT
  5
1790
  8
SIZE
  6
CONTINUOUS
 62
     0
  2
_DOTBLANK
 10
6002.7510434093156
 20
-2678.3313852776919
 30
0.0
 41
10.0
 42
10.0
 43
10.0
  0
INSERT
  5
1791
  8
SIZE
  6
CONTINUOUS
 62
     0
  2
_ORIGIN
 10
6177.7510434093147
 20
-2678.3313852776919
 30
0.0
 41
10.0
 42
10.0
 43
10.0
 50
180.0
  0
TEXT
  5
1792
  8
SERVICESPACE
  6
CONTINUOUS
 62
     0
 10
6217.7510434093147
 20
-2658.331385277691
 30
0.0
 40
64.0
  1
175
 41
0.9
  0
POINT
  5
1793
  8
DEFPOINTS
  6
CONTINUOUS
 62
     0
 10
6002.7510434093156
 20
-2291.984981167594
 30
0.0
  0
POINT
  5
1794
  8
DEFPOINTS
  6
CONTINUOUS
 62
     0
 10
6177.7510434093147
 20
-2248.984981167594
 30
0.0
  0
POINT
  5
1795
  8
DEFPOINTS
  6
CONTINUOUS
 62
     0
 10
6177.7510434093147
 20
-2678.3313852776919
 30
0.0
  0
ENDBLK
  5
14B7
  8
0
  0
BLOCK
  8
0
  2
*D55
 70
     1
 10
0.0
 20
0.0
 30
0.0
  3
*D55
  1

  0
LINE
  5
1780
  8
SIZE
  6
CONTINUOUS
 62
     0
 10
5402.7510434093156
 20
-2311.984981167594
 30
0.0
 11
5402.7510434093156
 21
-2708.331385277691
 31
0.0
  0
LINE
  5
1781
  8
SIZE
  6
CONTINUOUS
 62
     0
 10
5227.7510434093156
 20
-2268.984981167594
 30
0.0
 11
5227.7510434093156
 21
-2708.331385277691
 31
0.0
  0
LINE
  5
1782
  8
SIZE
  6
CONTINUOUS
 62
     0
 10
5412.7510434093147
 20
-2678.3313852776919
 30
0.0
 11
5422.7510434093156
 21
-2678.3313852776919
 31
0.0
  0
LINE
  5
1783
  8
SIZE
  6
CONTINUOUS
 62
     0
 10
5217.7510434093147
 20
-2678.3313852776919
 30
0.0
 11
5030.6081862664587
 21
-2678.3313852776919
 31
0.0
  0
LINE
  5
1784
  8
SIZE
  6
CONTINUOUS
 62
     0
 10
5402.7510434093156
 20
-2678.3313852776919
 30
0.0
 11
5227.7510434093156
 21
-2678.3313852776919
 31
0.0
  0
INSERT
  5
1785
  8
SIZE
  6
CONTINUOUS
 62
     0
  2
_DOTBLANK
 10
5402.7510434093156
 20
-2678.3313852776919
 30
0.0
 41
10.0
 42
10.0
 43
10.0
 50
180.0
  0
INSERT
  5
1786
  8
SIZE
  6
CONTINUOUS
 62
     0
  2
_ORIGIN
 10
5227.7510434093156
 20
-2678.3313852776919
 30
0.0
 41
10.0
 42
10.0
 43
10.0
  0
TEXT
  5
1787
  8
SERVICESPACE
  6
CONTINUOUS
 62
     0
 10
5050.6081862664578
 20
-2658.331385277691
 30
0.0
 40
64.0
  1
175
 41
0.9
  0
POINT
  5
1788
  8
DEFPOINTS
  6
CONTINUOUS
 62
     0
 10
5402.7510434093156
 20
-2291.984981167594
 30
0.0
  0
POINT
  5
1789
  8
DEFPOINTS
  6
CONTINUOUS
 62
     0
 10
5227.7510434093156
 20
-2248.984981167594
 30
0.0
  0
POINT
  5
178A
  8
DEFPOINTS
  6
CONTINUOUS
 62
     0
 10
5227.7510434093156
 20
-2678.3313852776919
 30
0.0
  0
ENDBLK
  5
14C5
  8
0
  0
BLOCK
  8
0
  2
*D56
 70
     1
 10
0.0
 20
0.0
 30
0.0
  3
*D56
  1

  0
LINE
  5
1796
  8
SIZE
  6
CONTINUOUS
 62
     0
 10
5227.7510434093156
 20
-2268.984981167594
 30
0.0
 11
5227.7510434093156
 21
-2844.9989431726458
 31
0.0
  0
LINE
  5
1797
  8
SIZE
  6
CONTINUOUS
 62
     0
 10
6177.7510434093147
 20
-2268.984981167594
 30
0.0
 11
6177.7510434093147
 21
-2844.9989431726458
 31
0.0
  0
LINE
  5
1798
  8
SIZE
  6
CONTINUOUS
 62
     0
 10
5237.7510434093147
 20
-2814.9989431726458
 30
0.0
 11
6167.7510434093156
 21
-2814.9989431726458
 31
0.0
  0
INSERT
  5
1799
  8
SIZE
  6
CONTINUOUS
 62
     0
  2
_DOTBLANK
 10
5227.7510434093156
 20
-2814.9989431726458
 30
0.0
 41
10.0
 42
10.0
 43
10.0
 50
180.0
  0
INSERT
  5
179A
  8
SIZE
  6
CONTINUOUS
 62
     0
  2
_ORIGIN
 10
6177.7510434093147
 20
-2814.9989431726458
 30
0.0
 41
10.0
 42
10.0
 43
10.0
  0
TEXT
  5
179B
  8
SERVICESPACE
  6
CONTINUOUS
 62
     0
 10
5628.6939005521726
 20
-2794.9989431726458
 30
0.0
 40
64.0
  1
950
 41
0.9
  0
POINT
  5
179C
  8
DEFPOINTS
  6
CONTINUOUS
 62
     0
 10
5227.7510434093156
 20
-2248.984981167594
 30
0.0
  0
POINT
  5
179D
  8
DEFPOINTS
  6
CONTINUOUS
 62
     0
 10
6177.7510434093147
 20
-2248.984981167594
 30
0.0
  0
POINT
  5
179E
  8
DEFPOINTS
  6
CONTINUOUS
 62
     0
 10
6177.7510434093147
 20
-2814.9989431726458
 30
0.0
  0
ENDBLK
  5
14D1
  8
0
  0
BLOCK
  8
0
  2
*D57
 70
     1
 10
0.0
 20
0.0
 30
0.0
  3
*D57
  1

  0
LINE
  5
1C2B
  8
SIZE
  6
CONTINUOUS
 62
     0
 10
-431.25943603028719
 20
-4194.937201821208
 30
0.0
 11
-584.02027179612924
 21
-4194.937201821208
 31
0.0
  0
LINE
  5
1C2C
  8
SIZE
  6
CONTINUOUS
 62
     0
 10
-431.25943603028719
 20
-3864.9372018212089
 30
0.0
 11
-584.02027179612924
 21
-3864.9372018212089
 31
0.0
  0
LINE
  5
1C2D
  8
SIZE
  6
CONTINUOUS
 62
     0
 10
-554.02027179612924
 20
-4184.9372018212089
 30
0.0
 11
-554.02027179612924
 21
-3874.9372018212089
 31
0.0
  0
INSERT
  5
1C2E
  8
SIZE
  6
CONTINUOUS
 62
     0
  2
_DOTBLANK
 10
-554.02027179612924
 20
-4194.937201821208
 30
0.0
 41
10.0
 42
10.0
 43
10.0
 50
270.0
  0
INSERT
  5
1C2F
  8
SIZE
  6
CONTINUOUS
 62
     0
  2
_ORIGIN
 10
-554.02027179612924
 20
-3864.9372018212089
 30
0.0
 41
10.0
 42
10.0
 43
10.0
 50
90.0
  0
TEXT
  5
1C30
  8
SERVICESPACE
  6
CONTINUOUS
 62
     0
 10
-574.02027179612855
 20
-4103.9943446783509
 30
0.0
 40
64.0
  1
330
 50
90.0
 41
0.9
  0
POINT
  5
1C31
  8
DEFPOINTS
  6
CONTINUOUS
 62
     0
 10
-411.25943603028719
 20
-4194.937201821208
 30
0.0
  0
POINT
  5
1C32
  8
DEFPOINTS
  6
CONTINUOUS
 62
     0
 10
-411.25943603028719
 20
-3864.9372018212089
 30
0.0
  0
POINT
  5
1C33
  8
DEFPOINTS
  6
CONTINUOUS
 62
     0
 10
-554.02027179612924
 20
-3864.9372018212089
 30
0.0
  0
ENDBLK
  5
15F6
  8
0
  0
BLOCK
  8
0
  2
*D58
 70
     1
 10
0.0
 20
0.0
 30
0.0
  3
*D58
  1

  0
LINE
  5
1C34
  8
SIZE
  6
CONTINUOUS
 62
     0
 10
-431.25943603028719
 20
-4194.937201821208
 30
0.0
 11
-584.02027179612924
 21
-4194.937201821208
 31
0.0
  0
LINE
  5
1C35
  8
SIZE
  6
CONTINUOUS
 62
     0
 10
-398.25943603013462
 20
-4224.9372018212089
 30
0.0
 11
-584.02027179612924
 21
-4224.9372018212089
 31
0.0
  0
LINE
  5
1C36
  8
SIZE
  6
CONTINUOUS
 62
     0
 10
-554.02027179612924
 20
-4184.9372018212089
 30
0.0
 11
-554.02027179612924
 21
-4174.9372018212089
 31
0.0
  0
LINE
  5
1C37
  8
SIZE
  6
CONTINUOUS
 62
     0
 10
-554.02027179612924
 20
-4234.9372018212089
 30
0.0
 11
-554.02027179612935
 21
-4378.1943446783507
 31
0.0
  0
LINE
  5
1C38
  8
SIZE
  6
CONTINUOUS
 62
     0
 10
-554.02027179612924
 20
-4194.937201821208
 30
0.0
 11
-554.02027179612924
 21
-4224.9372018212089
 31
0.0
  0
INSERT
  5
1C39
  8
SIZE
  6
CONTINUOUS
 62
     0
  2
_DOTBLANK
 10
-554.02027179612924
 20
-4194.937201821208
 30
0.0
 41
10.0
 42
10.0
 43
10.0
 50
270.0
  0
INSERT
  5
1C3A
  8
SIZE
  6
CONTINUOUS
 62
     0
  2
_ORIGIN
 10
-554.02027179612924
 20
-4224.9372018212089
 30
0.0
 41
10.0
 42
10.0
 43
10.0
 50
90.0
  0
TEXT
  5
1C3B
  8
SERVICESPACE
  6
CONTINUOUS
 62
     0
 10
-574.02027179612855
 20
-4358.1943446783507
 30
0.0
 40
64.0
  1
30
 50
90.0
 41
0.9
  0
POINT
  5
1C3C
  8
DEFPOINTS
  6
CONTINUOUS
 62
     0
 10
-411.25943603028719
 20
-4194.937201821208
 30
0.0
  0
POINT
  5
1C3D
  8
DEFPOINTS
  6
CONTINUOUS
 62
     0
 10
-378.25943603013462
 20
-4224.9372018212089
 30
0.0
  0
POINT
  5
1C3E
  8
DEFPOINTS
  6
CONTINUOUS
 62
     0
 10
-554.02027179612924
 20
-4224.9372018212089
 30
0.0
  0
ENDBLK
  5
1604
  8
0
  0
BLOCK
  8
0
  2
*D59
 70
     1
 10
0.0
 20
0.0
 30
0.0
  3
*D59
  1

  0
LINE
  5
1C22
  8
SIZE
  6
CONTINUOUS
 62
     0
 10
-411.25943603028719
 20
-3844.937201821208
 30
0.0
 11
-411.25943603028719
 21
-3591.95589835806
 31
0.0
  0
LINE
  5
1C23
  8
SIZE
  6
CONTINUOUS
 62
     0
 10
-236.2594360302873
 20
-3809.937201821208
 30
0.0
 11
-236.25943603028719
 21
-3591.95589835806
 31
0.0
  0
LINE
  5
1C24
  8
SIZE
  6
CONTINUOUS
 62
     0
 10
-401.25943603028719
 20
-3621.9558983580609
 30
0.0
 11
-246.2594360302873
 21
-3621.9558983580609
 31
0.0
  0
INSERT
  5
1C25
  8
SIZE
  6
CONTINUOUS
 62
     0
  2
_DOTBLANK
 10
-411.25943603028719
 20
-3621.9558983580609
 30
0.0
 41
10.0
 42
10.0
 43
10.0
 50
180.0
  0
INSERT
  5
1C26
  8
SIZE
  6
CONTINUOUS
 62
     0
  2
_ORIGIN
 10
-236.2594360302873
 20
-3621.9558983580609
 30
0.0
 41
10.0
 42
10.0
 43
10.0
  0
TEXT
  5
1C27
  8
SERVICESPACE
  6
CONTINUOUS
 62
     0
 10
-388.18079616878561
 20
-3601.9558983580609
 30
0.0
 40
64.0
  1
175
 41
0.9
  0
POINT
  5
1C28
  8
DEFPOINTS
  6
CONTINUOUS
 62
     0
 10
-411.25943603028719
 20
-3864.9372018212089
 30
0.0
  0
POINT
  5
1C29
  8
DEFPOINTS
  6
CONTINUOUS
 62
     0
 10
-236.2594360302873
 20
-3829.9372018212089
 30
0.0
  0
POINT
  5
1C2A
  8
DEFPOINTS
  6
CONTINUOUS
 62
     0
 10
-236.2594360302873
 20
-3621.9558983580609
 30
0.0
  0
ENDBLK
  5
1610
  8
0
  0
BLOCK
  8
0
  2
*D60
 70
     1
 10
0.0
 20
0.0
 30
0.0
  3
*D60
  1

  0
LINE
  5
1C07
  8
SIZE
  6
CONTINUOUS
 62
     0
 10
-236.2594360302873
 20
-3809.937201821208
 30
0.0
 11
-236.25943603028719
 21
-3591.95589835806
 31
0.0
  0
LINE
  5
1C08
  8
SIZE
  6
CONTINUOUS
 62
     0
 10
363.74056396971258
 20
-3809.937201821208
 30
0.0
 11
363.74056396971258
 21
-3591.95589835806
 31
0.0
  0
LINE
  5
1C09
  8
SIZE
  6
CONTINUOUS
 62
     0
 10
-226.2594360302873
 20
-3621.9558983580609
 30
0.0
 11
353.74056396971258
 21
-3621.9558983580609
 31
0.0
  0
INSERT
  5
1C0A
  8
SIZE
  6
CONTINUOUS
 62
     0
  2
_DOTBLANK
 10
-236.2594360302873
 20
-3621.9558983580609
 30
0.0
 41
10.0
 42
10.0
 43
10.0
 50
180.0
  0
INSERT
  5
1C0B
  8
SIZE
  6
CONTINUOUS
 62
     0
  2
_ORIGIN
 10
363.74056396971258
 20
-3621.9558983580609
 30
0.0
 41
10.0
 42
10.0
 43
10.0
  0
TEXT
  5
1C0C
  8
SERVICESPACE
  6
CONTINUOUS
 62
     0
 10
-10.31657888743019
 20
-3601.9558983580609
 30
0.0
 40
64.0
  1
600
 41
0.9
  0
POINT
  5
1C0D
  8
DEFPOINTS
  6
CONTINUOUS
 62
     0
 10
-236.2594360302873
 20
-3829.9372018212089
 30
0.0
  0
POINT
  5
1C0E
  8
DEFPOINTS
  6
CONTINUOUS
 62
     0
 10
363.74056396971258
 20
-3829.9372018212089
 30
0.0
  0
POINT
  5
1C0F
  8
DEFPOINTS
  6
CONTINUOUS
 62
     0
 10
363.74056396971258
 20
-3621.9558983580609
 30
0.0
  0
ENDBLK
  5
161C
  8
0
  0
BLOCK
  8
0
  2
*D61
 70
     1
 10
0.0
 20
0.0
 30
0.0
  3
*D61
  1

  0
LINE
  5
1C91
  8
SIZE
  6
CONTINUOUS
 62
     0
 10
363.74056396971258
 20
-3809.937201821208
 30
0.0
 11
363.74056396971258
 21
-3591.95589835806
 31
0.0
  0
LINE
  5
1C92
  8
SIZE
  6
CONTINUOUS
 62
     0
 10
538.74056396971264
 20
-3844.937201821208
 30
0.0
 11
538.74056396971264
 21
-3591.95589835806
 31
0.0
  0
LINE
  5
1C93
  8
SIZE
  6
CONTINUOUS
 62
     0
 10
373.74056396971258
 20
-3621.9558983580609
 30
0.0
 11
528.74056396971264
 21
-3621.9558983580609
 31
0.0
  0
INSERT
  5
1C94
  8
SIZE
  6
CONTINUOUS
 62
     0
  2
_DOTBLANK
 10
363.74056396971258
 20
-3621.9558983580609
 30
0.0
 41
10.0
 42
10.0
 43
10.0
 50
180.0
  0
INSERT
  5
1C95
  8
SIZE
  6
CONTINUOUS
 62
     0
  2
_ORIGIN
 10
538.74056396971264
 20
-3621.9558983580609
 30
0.0
 41
10.0
 42
10.0
 43
10.0
  0
TEXT
  5
1C96
  8
SERVICESPACE
  6
CONTINUOUS
 62
     0
 10
368.74417639912178
 20
-3601.9558983580609
 30
0.0
 40
64.0
  1
175
 41
0.9
  0
POINT
  5
1C97
  8
DEFPOINTS
  6
CONTINUOUS
 62
     0
 10
363.74056396971258
 20
-3829.9372018212089
 30
0.0
  0
POINT
  5
1C98
  8
DEFPOINTS
  6
CONTINUOUS
 62
     0
 10
538.74056396971264
 20
-3864.9372018212089
 30
0.0
  0
POINT
  5
1C99
  8
DEFPOINTS
  6
CONTINUOUS
 62
     0
 10
538.74056396971264
 20
-3621.9558983580609
 30
0.0
  0
ENDBLK
  5
1628
  8
0
  0
BLOCK
  8
0
  2
*D62
 70
     1
 10
0.0
 20
0.0
 30
0.0
  3
*D62
  1

  0
LINE
  5
1C10
  8
SIZE
  6
CONTINUOUS
 62
     0
 10
-411.25943603028719
 20
-3844.937201821208
 30
0.0
 11
-411.25943603028719
 21
-3422.2650251998161
 31
0.0
  0
LINE
  5
1C11
  8
SIZE
  6
CONTINUOUS
 62
     0
 10
538.74056396971264
 20
-3844.937201821208
 30
0.0
 11
538.74056396971264
 21
-3422.2650251998161
 31
0.0
  0
LINE
  5
1C12
  8
SIZE
  6
CONTINUOUS
 62
     0
 10
-401.25943603028719
 20
-3452.2650251998161
 30
0.0
 11
528.74056396971264
 21
-3452.2650251998161
 31
0.0
  0
INSERT
  5
1C13
  8
SIZE
  6
CONTINUOUS
 62
     0
  2
_DOTBLANK
 10
-411.25943603028719
 20
-3452.2650251998161
 30
0.0
 41
10.0
 42
10.0
 43
10.0
 50
180.0
  0
INSERT
  5
1C14
  8
SIZE
  6
CONTINUOUS
 62
     0
  2
_ORIGIN
 10
538.74056396971264
 20
-3452.2650251998161
 30
0.0
 41
10.0
 42
10.0
 43
10.0
  0
TEXT
  5
1C15
  8
SERVICESPACE
  6
CONTINUOUS
 62
     0
 10
-10.31657888743017
 20
-3432.265025199817
 30
0.0
 40
64.0
  1
950
 41
0.9
  0
POINT
  5
1C16
  8
DEFPOINTS
  6
CONTINUOUS
 62
     0
 10
-411.25943603028719
 20
-3864.9372018212089
 30
0.0
  0
POINT
  5
1C17
  8
DEFPOINTS
  6
CONTINUOUS
 62
     0
 10
538.74056396971264
 20
-3864.9372018212089
 30
0.0
  0
POINT
  5
1C18
  8
DEFPOINTS
  6
CONTINUOUS
 62
     0
 10
538.74056396971264
 20
-3452.2650251998161
 30
0.0
  0
ENDBLK
  5
1634
  8
0
  0
BLOCK
  8
0
  2
*D63
 70
     1
 10
0.0
 20
0.0
 30
0.0
  3
*D63
  1

  0
LINE
  5
1C88
  8
SIZE
  6
CONTINUOUS
 62
     0
 10
403.74056396971258
 20
-4214.9372018212089
 30
0.0
 11
1068.652664603861
 21
-4214.9372018212089
 31
0.0
  0
LINE
  5
1C89
  8
SIZE
  6
CONTINUOUS
 62
     0
 10
403.74056396971258
 20
-3844.937201821208
 30
0.0
 11
1068.652664603861
 21
-3844.9372018212089
 31
0.0
  0
LINE
  5
1C8A
  8
SIZE
  6
CONTINUOUS
 62
     0
 10
1038.652664603861
 20
-4204.937201821208
 30
0.0
 11
1038.652664603861
 21
-3854.9372018212098
 31
0.0
  0
INSERT
  5
1C8B
  8
SIZE
  6
CONTINUOUS
 62
     0
  2
_DOTBLANK
 10
1038.652664603861
 20
-4214.9372018212089
 30
0.0
 41
10.0
 42
10.0
 43
10.0
 50
270.0
  0
INSERT
  5
1C8C
  8
SIZE
  6
CONTINUOUS
 62
     0
  2
_ORIGIN
 10
1038.652664603861
 20
-3844.9372018212089
 30
0.0
 41
10.0
 42
10.0
 43
10.0
 50
90.0
  0
TEXT
  5
1C8D
  8
SERVICESPACE
  6
CONTINUOUS
 62
     0
 10
1018.652664603861
 20
-4103.9943446783509
 30
0.0
 40
64.0
  1
370
 50
90.0
 41
0.9
  0
POINT
  5
1C8E
  8
DEFPOINTS
  6
CONTINUOUS
 62
     0
 10
383.74056396971258
 20
-4214.9372018212089
 30
0.0
  0
POINT
  5
1C8F
  8
DEFPOINTS
  6
CONTINUOUS
 62
     0
 10
383.74056396971258
 20
-3844.937201821208
 30
0.0
  0
POINT
  5
1C90
  8
DEFPOINTS
  6
CONTINUOUS
 62
     0
 10
1038.652664603861
 20
-3844.9372018212089
 30
0.0
  0
ENDBLK
  5
1640
  8
0
  0
BLOCK
  8
0
  2
*D64
 70
     1
 10
0.0
 20
0.0
 30
0.0
  3
*D64
  1

  0
LINE
  5
1C3F
  8
SIZE
  6
CONTINUOUS
 62
     0
 10
403.74056396971258
 20
-4214.9372018212089
 30
0.0
 11
1068.652664603861
 21
-4214.9372018212089
 31
0.0
  0
LINE
  5
1C40
  8
SIZE
  6
CONTINUOUS
 62
     0
 10
399.74056396971258
 20
-4242.9372018212089
 30
0.0
 11
1068.652664603861
 21
-4242.9372018212089
 31
0.0
  0
LINE
  5
1C41
  8
SIZE
  6
CONTINUOUS
 62
     0
 10
1038.6526646038619
 20
-4204.937201821208
 30
0.0
 11
1038.6526646038619
 21
-4194.937201821208
 31
0.0
  0
LINE
  5
1C42
  8
SIZE
  6
CONTINUOUS
 62
     0
 10
1038.6526646038619
 20
-4252.937201821208
 30
0.0
 11
1038.6526646038619
 21
-4396.1943446783516
 31
0.0
  0
LINE
  5
1C43
  8
SIZE
  6
CONTINUOUS
 62
     0
 10
1038.6526646038619
 20
-4214.9372018212089
 30
0.0
 11
1038.6526646038619
 21
-4242.9372018212089
 31
0.0
  0
INSERT
  5
1C44
  8
SIZE
  6
CONTINUOUS
 62
     0
  2
_DOTBLANK
 10
1038.6526646038619
 20
-4214.9372018212089
 30
0.0
 41
10.0
 42
10.0
 43
10.0
 50
270.0
  0
INSERT
  5
1C45
  8
SIZE
  6
CONTINUOUS
 62
     0
  2
_ORIGIN
 10
1038.6526646038619
 20
-4242.9372018212089
 30
0.0
 41
10.0
 42
10.0
 43
10.0
 50
90.0
  0
TEXT
  5
1C46
  8
SERVICESPACE
  6
CONTINUOUS
 62
     0
 10
1018.652664603862
 20
-4376.1943446783516
 30
0.0
 40
64.0
  1
28
 50
90.0
 41
0.9
  0
POINT
  5
1C47
  8
DEFPOINTS
  6
CONTINUOUS
 62
     0
 10
383.74056396971258
 20
-4214.9372018212089
 30
0.0
  0
POINT
  5
1C48
  8
DEFPOINTS
  6
CONTINUOUS
 62
     0
 10
379.7405639697127
 20
-4242.9372018212089
 30
0.0
  0
POINT
  5
1C49
  8
DEFPOINTS
  6
CONTINUOUS
 62
     0
 10
1038.6526646038619
 20
-4242.9372018212089
 30
0.0
  0
ENDBLK
  5
164E
  8
0
  0
BLOCK
  8
0
  2
*D65
 70
     1
 10
0.0
 20
0.0
 30
0.0
  3
*D65
  1

  0
LINE
  5
1C69
  8
SIZE
  6
CONTINUOUS
 62
     0
 10
403.74056396971258
 20
-3844.937201821208
 30
0.0
 11
1068.652664603861
 21
-3844.9372018212089
 31
0.0
  0
LINE
  5
1C6A
  8
SIZE
  6
CONTINUOUS
 62
     0
 10
399.74056396971258
 20
-3825.9372018212089
 30
0.0
 11
1068.652664603861
 21
-3825.9372018212098
 31
0.0
  0
LINE
  5
1C6B
  8
SIZE
  6
CONTINUOUS
 62
     0
 10
1038.6526646038619
 20
-3854.9372018212098
 30
0.0
 11
1038.6526646038619
 21
-3864.9372018212089
 31
0.0
  0
LINE
  5
1C6C
  8
SIZE
  6
CONTINUOUS
 62
     0
 10
1038.6526646038619
 20
-3815.9372018212089
 30
0.0
 11
1038.6526646038619
 21
-3686.3943446783519
 31
0.0
  0
LINE
  5
1C6D
  8
SIZE
  6
CONTINUOUS
 62
     0
 10
1038.6526646038619
 20
-3844.9372018212089
 30
0.0
 11
1038.6526646038619
 21
-3825.9372018212098
 31
0.0
  0
INSERT
  5
1C6E
  8
SIZE
  6
CONTINUOUS
 62
     0
  2
_DOTBLANK
 10
1038.6526646038619
 20
-3844.9372018212089
 30
0.0
 41
10.0
 42
10.0
 43
10.0
 50
90.0
  0
INSERT
  5
1C6F
  8
SIZE
  6
CONTINUOUS
 62
     0
  2
_ORIGIN
 10
1038.6526646038619
 20
-3825.9372018212098
 30
0.0
 41
10.0
 42
10.0
 43
10.0
 50
270.0
  0
TEXT
  5
1C70
  8
SERVICESPACE
  6
CONTINUOUS
 62
     0
 10
1018.652664603862
 20
-3785.9372018212089
 30
0.0
 40
64.0
  1
19
 50
90.0
 41
0.9
  0
POINT
  5
1C71
  8
DEFPOINTS
  6
CONTINUOUS
 62
     0
 10
383.74056396971258
 20
-3844.937201821208
 30
0.0
  0
POINT
  5
1C72
  8
DEFPOINTS
  6
CONTINUOUS
 62
     0
 10
379.74056396971258
 20
-3825.9372018212089
 30
0.0
  0
POINT
  5
1C73
  8
DEFPOINTS
  6
CONTINUOUS
 62
     0
 10
1038.6526646038619
 20
-3825.9372018212098
 30
0.0
  0
ENDBLK
  5
165C
  8
0
  0
BLOCK
  8
0
  2
*D66
 70
     1
 10
0.0
 20
0.0
 30
0.0
  3
*D66
  1

  0
LINE
  5
1C19
  8
SIZE
  6
CONTINUOUS
 62
     0
 10
-411.25943603028719
 20
-4214.9372018212089
 30
0.0
 11
-411.25943603028719
 21
-4507.7431740301026
 31
0.0
  0
LINE
  5
1C1A
  8
SIZE
  6
CONTINUOUS
 62
     0
 10
-89.259436030287247
 20
-4302.8028213212092
 30
0.0
 11
-89.259436030287247
 21
-4507.7431740301026
 31
0.0
  0
LINE
  5
1C1B
  8
SIZE
  6
CONTINUOUS
 62
     0
 10
-401.25943603028719
 20
-4477.7431740301026
 30
0.0
 11
-99.259436030287276
 21
-4477.7431740301026
 31
0.0
  0
INSERT
  5
1C1C
  8
SIZE
  6
CONTINUOUS
 62
     0
  2
_DOTBLANK
 10
-411.25943603028719
 20
-4477.7431740301026
 30
0.0
 41
10.0
 42
10.0
 43
10.0
 50
180.0
  0
INSERT
  5
1C1D
  8
SIZE
  6
CONTINUOUS
 62
     0
  2
_ORIGIN
 10
-89.259436030287247
 20
-4477.7431740301026
 30
0.0
 41
10.0
 42
10.0
 43
10.0
  0
TEXT
  5
1C1E
  8
SERVICESPACE
  6
CONTINUOUS
 62
     0
 10
-324.31657888743001
 20
-4457.7431740301026
 30
0.0
 40
64.0
  1
322
 41
0.9
  0
POINT
  5
1C1F
  8
DEFPOINTS
  6
CONTINUOUS
 62
     0
 10
-411.25943603028719
 20
-4194.937201821208
 30
0.0
  0
POINT
  5
1C20
  8
DEFPOINTS
  6
CONTINUOUS
 62
     0
 10
-89.259436030287247
 20
-4282.8028213212092
 30
0.0
  0
POINT
  5
1C21
  8
DEFPOINTS
  6
CONTINUOUS
 62
     0
 10
-89.259436030287247
 20
-4477.7431740301026
 30
0.0
  0
ENDBLK
  5
1668
  8
0
  0
BLOCK
  8
0
  2
*D67
 70
     1
 10
0.0
 20
0.0
 30
0.0
  3
*D67
  1

  0
LINE
  5
1C7F
  8
SIZE
  6
CONTINUOUS
 62
     0
 10
399.74056396971258
 20
-4242.9372018212089
 30
0.0
 11
1282.539828829103
 21
-4242.9372018212089
 31
0.0
  0
LINE
  5
1C80
  8
SIZE
  6
CONTINUOUS
 62
     0
 10
399.74056396971258
 20
-3825.9372018212089
 30
0.0
 11
1282.539828829103
 21
-3825.9372018212098
 31
0.0
  0
LINE
  5
1C81
  8
SIZE
  6
CONTINUOUS
 62
     0
 10
1252.5398288291019
 20
-4232.9372018212089
 30
0.0
 11
1252.5398288291019
 21
-3835.9372018212089
 31
0.0
  0
INSERT
  5
1C82
  8
SIZE
  6
CONTINUOUS
 62
     0
  2
_DOTBLANK
 10
1252.5398288291019
 20
-4242.9372018212089
 30
0.0
 41
10.0
 42
10.0
 43
10.0
 50
270.0
  0
INSERT
  5
1C83
  8
SIZE
  6
CONTINUOUS
 62
     0
  2
_ORIGIN
 10
1252.5398288291019
 20
-3825.9372018212098
 30
0.0
 41
10.0
 42
10.0
 43
10.0
 50
90.0
  0
TEXT
  5
1C84
  8
SERVICESPACE
  6
CONTINUOUS
 62
     0
 10
1232.539828829103
 20
-4103.0086303926373
 30
0.0
 40
64.0
  1
417
 50
90.0
 41
0.9
  0
POINT
  5
1C85
  8
DEFPOINTS
  6
CONTINUOUS
 62
     0
 10
379.74056396971258
 20
-4242.9372018212089
 30
0.0
  0
POINT
  5
1C86
  8
DEFPOINTS
  6
CONTINUOUS
 62
     0
 10
379.74056396971258
 20
-3825.9372018212089
 30
0.0
  0
POINT
  5
1C87
  8
DEFPOINTS
  6
CONTINUOUS
 62
     0
 10
1252.5398288291019
 20
-3825.9372018212098
 30
0.0
  0
ENDBLK
  5
1674
  8
0
  0
BLOCK
  8
0
  2
*D68
 70
     1
 10
0.0
 20
0.0
 30
0.0
  3
*D68
  1

  0
LINE
  5
1C55
  8
SIZE
  6
CONTINUOUS
 62
     0
 10
538.74056396971264
 20
-4214.9372018212089
 30
0.0
 11
538.74056396971264
 21
-4643.0051131871032
 31
0.0
  0
LINE
  5
1C56
  8
SIZE
  6
CONTINUOUS
 62
     0
 10
338.74056396971258
 20
-4194.937201821208
 30
0.0
 11
338.74056396971253
 21
-4643.0051131871032
 31
0.0
  0
LINE
  5
1C57
  8
SIZE
  6
CONTINUOUS
 62
     0
 10
528.74056396971264
 20
-4613.0051131871041
 30
0.0
 11
348.74056396971258
 21
-4613.0051131871041
 31
0.0
  0
INSERT
  5
1C58
  8
SIZE
  6
CONTINUOUS
 62
     0
  2
_DOTBLANK
 10
538.74056396971264
 20
-4613.0051131871041
 30
0.0
 41
10.0
 42
10.0
 43
10.0
  0
INSERT
  5
1C59
  8
SIZE
  6
CONTINUOUS
 62
     0
  2
_ORIGIN
 10
338.74056396971258
 20
-4613.0051131871041
 30
0.0
 41
10.0
 42
10.0
 43
10.0
 50
180.0
  0
TEXT
  5
1C5A
  8
SERVICESPACE
  6
CONTINUOUS
 62
     0
 10
364.68342111256982
 20
-4593.0051131871032
 30
0.0
 40
64.0
  1
200
 41
0.9
  0
POINT
  5
1C5B
  8
DEFPOINTS
  6
CONTINUOUS
 62
     0
 10
538.74056396971264
 20
-4194.937201821208
 30
0.0
  0
POINT
  5
1C5C
  8
DEFPOINTS
  6
CONTINUOUS
 62
     0
 10
338.74056396971258
 20
-4174.9372018212089
 30
0.0
  0
POINT
  5
1C5D
  8
DEFPOINTS
  6
CONTINUOUS
 62
     0
 10
338.74056396971258
 20
-4613.0051131871041
 30
0.0
  0
ENDBLK
  5
16B8
  8
0
  0
BLOCK
  8
0
  2
*D69
 70
     1
 10
0.0
 20
0.0
 30
0.0
  3
*D69
  1

  0
LINE
  5
1A2A
  8
SIZE
  6
CONTINUOUS
 62
     0
 10
-423.05728128013442
 20
-1900.984981167594
 30
0.0
 11
-693.49140432555942
 21
-1900.984981167594
 31
0.0
  0
LINE
  5
1A2B
  8
SIZE
  6
CONTINUOUS
 62
     0
 10
-423.05728128013442
 20
-1265.984981167594
 30
0.0
 11
-693.49140432555919
 21
-1265.984981167594
 31
0.0
  0
LINE
  5
1A2C
  8
SIZE
  6
CONTINUOUS
 62
     0
 10
-663.4914043255593
 20
-1890.984981167594
 30
0.0
 11
-663.49140432555919
 21
-1275.984981167594
 31
0.0
  0
INSERT
  5
1A2D
  8
SIZE
  6
CONTINUOUS
 62
     0
  2
_DOTBLANK
 10
-663.4914043255593
 20
-1900.984981167594
 30
0.0
 41
10.0
 42
10.0
 43
10.0
 50
270.0
  0
INSERT
  5
1A2E
  8
SIZE
  6
CONTINUOUS
 62
     0
  2
_ORIGIN
 10
-663.49140432555919
 20
-1265.984981167594
 30
0.0
 41
10.0
 42
10.0
 43
10.0
 50
90.0
  0
TEXT
  5
1A2F
  8
SERVICESPACE
  6
CONTINUOUS
 62
     0
 10
-683.49140432555896
 20
-1657.5421240247369
 30
0.0
 40
64.0
  1
635
 50
90.0
 41
0.9
  0
POINT
  5
1A30
  8
DEFPOINTS
  6
CONTINUOUS
 62
     0
 10
-403.0572812801343
 20
-1900.984981167594
 30
0.0
  0
POINT
  5
1A31
  8
DEFPOINTS
  6
CONTINUOUS
 62
     0
 10
-403.0572812801343
 20
-1265.984981167594
 30
0.0
  0
POINT
  5
1A32
  8
DEFPOINTS
  6
CONTINUOUS
 62
     0
 10
-663.49140432555919
 20
-1265.984981167594
 30
0.0
  0
ENDBLK
  5
1A34
  8
0
  0
BLOCK
  8
0
  2
*D70
 70
     1
 10
0.0
 20
0.0
 30
0.0
  3
*D70
  1

  0
LINE
  5
2347
  8
SIZE
  6
CONTINUOUS
 62
     0
 10
275.42919599999988
 20
371.0
 30
0.0
 11
789.28270031044008
 21
370.99999999999977
 31
0.0
  0
LINE
  5
2348
  8
SIZE
  6
CONTINUOUS
 62
     0
 10
275.4291960000005
 20
1006.0
 30
0.0
 11
789.2827003104403
 21
1006.0
 31
0.0
  0
LINE
  5
2349
  8
SIZE
  6
CONTINUOUS
 62
     0
 10
759.28270031044008
 20
380.99999999999977
 30
0.0
 11
759.2827003104403
 21
995.99999999999989
 31
0.0
  0
INSERT
  5
234A
  8
SIZE
  6
CONTINUOUS
 62
     0
  2
_DOTBLANK
 10
759.28270031044008
 20
370.99999999999977
 30
0.0
 41
10.0
 42
10.0
 43
10.0
 50
270.0
  0
INSERT
  5
234B
  8
SIZE
  6
CONTINUOUS
 62
     0
  2
_ORIGIN
 10
759.2827003104403
 20
1006.0
 30
0.0
 41
10.0
 42
10.0
 43
10.0
 50
90.0
  0
TEXT
  8
0
  40
64
  5
235D
  62
0
  72
0
  71
0
 10
579.283
 20
575.220
 30
0.000000
  1
635
  0
POINT
  5
234D
  8
DEFPOINTS
  6
CONTINUOUS
 62
     0
 10
255.42919599999999
 20
371.0
 30
0.0
  0
POINT
  5
234E
  8
DEFPOINTS
  6
CONTINUOUS
 62
     0
 10
255.42919600000039
 20
1006.0
 30
0.0
  0
POINT
  5
234F
  8
DEFPOINTS
  6
CONTINUOUS
 62
     0
 10
759.2827003104403
 20
1006.0
 30
0.0
  0
ENDBLK
  5
1A55
  8
0
  0
BLOCK
  8
0
  2
*D71
 70
     1
 10
0.0
 20
0.0
 30
0.0
  3
*D71
  1

  0
LINE
  5
1B7A
  8
SIZE
  6
CONTINUOUS
 62
     0
 10
3413.5530990587049
 20
-2311.984981167594
 30
0.0
 11
3413.5530990587049
 21
-2636.8137832026041
 31
0.0
  0
LINE
  5
1B7B
  8
SIZE
  6
CONTINUOUS
 62
     0
 10
3043.5530990587049
 20
-2311.984981167594
 30
0.0
 11
3043.5530990587049
 21
-2636.8137832026041
 31
0.0
  0
LINE
  5
1B7C
  8
SIZE
  6
CONTINUOUS
 62
     0
 10
3403.5530990587049
 20
-2606.8137832026041
 30
0.0
 11
3053.5530990587049
 21
-2606.8137832026041
 31
0.0
  0
INSERT
  5
1B7D
  8
SIZE
  6
CONTINUOUS
 62
     0
  2
_DOTBLANK
 10
3413.5530990587049
 20
-2606.8137832026041
 30
0.0
 41
10.0
 42
10.0
 43
10.0
  0
INSERT
  5
1B7E
  8
SIZE
  6
CONTINUOUS
 62
     0
  2
_ORIGIN
 10
3043.5530990587049
 20
-2606.8137832026041
 30
0.0
 41
10.0
 42
10.0
 43
10.0
 50
180.0
  0
TEXT
  5
1B7F
  8
SERVICESPACE
  6
CONTINUOUS
 62
     0
 10
3154.495956201562
 20
-2586.8137832026041
 30
0.0
 40
64.0
  1
370
 41
0.9
  0
POINT
  5
1B80
  8
DEFPOINTS
  6
CONTINUOUS
 62
     0
 10
3413.5530990587049
 20
-2291.984981167594
 30
0.0
  0
POINT
  5
1B81
  8
DEFPOINTS
  6
CONTINUOUS
 62
     0
 10
3043.5530990587049
 20
-2291.984981167594
 30
0.0
  0
POINT
  5
1B82
  8
DEFPOINTS
  6
CONTINUOUS
 62
     0
 10
3043.5530990587049
 20
-2606.8137832026041
 30
0.0
  0
ENDBLK
  5
1AD3
  8
0
  0
BLOCK
  8
0
  2
*D72
 70
     1
 10
0.0
 20
0.0
 30
0.0
  3
*D72
  1

  0
LINE
  5
1B83
  8
SIZE
  6
CONTINUOUS
 62
     0
 10
3413.5530990587049
 20
-2311.984981167594
 30
0.0
 11
3413.5530990587049
 21
-2636.8137832026041
 31
0.0
  0
LINE
  5
1B84
  8
SIZE
  6
CONTINUOUS
 62
     0
 10
3432.5530990587058
 20
-2291.984981167594
 30
0.0
 11
3432.5530990587058
 21
-2636.8137832026041
 31
0.0
  0
LINE
  5
1B85
  8
SIZE
  6
CONTINUOUS
 62
     0
 10
3403.5530990587049
 20
-2606.8137832026041
 30
0.0
 11
3393.5530990587049
 21
-2606.8137832026041
 31
0.0
  0
LINE
  5
1B86
  8
SIZE
  6
CONTINUOUS
 62
     0
 10
3442.5530990587049
 20
-2606.8137832026041
 30
0.0
 11
3572.0959562015628
 21
-2606.8137832026041
 31
0.0
  0
LINE
  5
1B87
  8
SIZE
  6
CONTINUOUS
 62
     0
 10
3413.5530990587049
 20
-2606.8137832026041
 30
0.0
 11
3432.5530990587058
 21
-2606.8137832026041
 31
0.0
  0
INSERT
  5
1B88
  8
SIZE
  6
CONTINUOUS
 62
     0
  2
_DOTBLANK
 10
3413.5530990587049
 20
-2606.8137832026041
 30
0.0
 41
10.0
 42
10.0
 43
10.0
  0
INSERT
  5
1B89
  8
SIZE
  6
CONTINUOUS
 62
     0
  2
_ORIGIN
 10
3432.5530990587058
 20
-2606.8137832026041
 30
0.0
 41
10.0
 42
10.0
 43
10.0
 50
180.0
  0
TEXT
  5
1B8A
  8
SERVICESPACE
  6
CONTINUOUS
 62
     0
 10
3472.5530990587058
 20
-2586.8137832026041
 30
0.0
 40
64.0
  1
19
 41
0.9
  0
POINT
  5
1B8B
  8
DEFPOINTS
  6
CONTINUOUS
 62
     0
 10
3413.5530990587049
 20
-2291.984981167594
 30
0.0
  0
POINT
  5
1B8C
  8
DEFPOINTS
  6
CONTINUOUS
 62
     0
 10
3432.5530990587058
 20
-2271.984981167594
 30
0.0
  0
POINT
  5
1B8D
  8
DEFPOINTS
  6
CONTINUOUS
 62
     0
 10
3432.5530990587058
 20
-2606.8137832026041
 30
0.0
  0
ENDBLK
  5
1AE1
  8
0
  0
BLOCK
  8
0
  2
*D73
 70
     1
 10
0.0
 20
0.0
 30
0.0
  3
*D73
  1

  0
LINE
  5
1B8E
  8
SIZE
  6
CONTINUOUS
 62
     0
 10
3043.5530990587049
 20
-2311.984981167594
 30
0.0
 11
3043.5530990587049
 21
-2636.8137832026041
 31
0.0
  0
LINE
  5
1B8F
  8
SIZE
  6
CONTINUOUS
 62
     0
 10
3015.5530990587049
 20
-2291.984981167594
 30
0.0
 11
3015.5530990587049
 21
-2636.8137832026041
 31
0.0
  0
LINE
  5
1B90
  8
SIZE
  6
CONTINUOUS
 62
     0
 10
3053.5530990587049
 20
-2606.8137832026041
 30
0.0
 11
3063.5530990587049
 21
-2606.8137832026041
 31
0.0
  0
LINE
  5
1B91
  8
SIZE
  6
CONTINUOUS
 62
     0
 10
3005.5530990587049
 20
-2606.8137832026041
 30
0.0
 11
2862.2959562015621
 21
-2606.8137832026041
 31
0.0
  0
LINE
  5
1B92
  8
SIZE
  6
CONTINUOUS
 62
     0
 10
3043.5530990587049
 20
-2606.8137832026041
 30
0.0
 11
3015.5530990587049
 21
-2606.8137832026041
 31
0.0
  0
INSERT
  5
1B93
  8
SIZE
  6
CONTINUOUS
 62
     0
  2
_DOTBLANK
 10
3043.5530990587049
 20
-2606.8137832026041
 30
0.0
 41
10.0
 42
10.0
 43
10.0
 50
180.0
  0
INSERT
  5
1B94
  8
SIZE
  6
CONTINUOUS
 62
     0
  2
_ORIGIN
 10
3015.5530990587049
 20
-2606.8137832026041
 30
0.0
 41
10.0
 42
10.0
 43
10.0
  0
TEXT
  5
1B95
  8
SERVICESPACE
  6
CONTINUOUS
 62
     0
 10
2882.2959562015621
 20
-2586.8137832026041
 30
0.0
 40
64.0
  1
28
 41
0.9
  0
POINT
  5
1B96
  8
DEFPOINTS
  6
CONTINUOUS
 62
     0
 10
3043.5530990587049
 20
-2291.984981167594
 30
0.0
  0
POINT
  5
1B97
  8
DEFPOINTS
  6
CONTINUOUS
 62
     0
 10
3015.5530990587049
 20
-2271.984981167594
 30
0.0
  0
POINT
  5
1B98
  8
DEFPOINTS
  6
CONTINUOUS
 62
     0
 10
3015.5530990587049
 20
-2606.8137832026041
 30
0.0
  0
ENDBLK
  5
1AEF
  8
0
  0
BLOCK
  8
0
  2
*D74
 70
     1
 10
0.0
 20
0.0
 30
0.0
  3
*D74
  1

  0
LINE
  5
1B99
  8
SIZE
  6
CONTINUOUS
 62
     0
 10
3432.5530990587058
 20
-2291.984981167594
 30
0.0
 11
3432.5530990587058
 21
-2772.460812720175
 31
0.0
  0
LINE
  5
1B9A
  8
SIZE
  6
CONTINUOUS
 62
     0
 10
3015.5530990587058
 20
-2291.984981167594
 30
0.0
 11
3015.5530990587058
 21
-2772.460812720175
 31
0.0
  0
LINE
  5
1B9B
  8
SIZE
  6
CONTINUOUS
 62
     0
 10
3422.5530990587058
 20
-2742.460812720175
 30
0.0
 11
3025.5530990587058
 21
-2742.460812720175
 31
0.0
  0
INSERT
  5
1B9C
  8
SIZE
  6
CONTINUOUS
 62
     0
  2
_DOTBLANK
 10
3432.5530990587058
 20
-2742.460812720175
 30
0.0
 41
10.0
 42
10.0
 43
10.0
  0
INSERT
  5
1B9D
  8
SIZE
  6
CONTINUOUS
 62
     0
  2
_ORIGIN
 10
3015.5530990587058
 20
-2742.460812720175
 30
0.0
 41
10.0
 42
10.0
 43
10.0
 50
180.0
  0
TEXT
  5
1B9E
  8
SERVICESPACE
  6
CONTINUOUS
 62
     0
 10
3155.4816704872769
 20
-2722.460812720175
 30
0.0
 40
64.0
  1
417
 41
0.9
  0
POINT
  5
1B9F
  8
DEFPOINTS
  6
CONTINUOUS
 62
     0
 10
3432.5530990587058
 20
-2271.984981167594
 30
0.0
  0
POINT
  5
1BA0
  8
DEFPOINTS
  6
CONTINUOUS
 62
     0
 10
3015.5530990587058
 20
-2271.984981167594
 30
0.0
  0
POINT
  5
1BA1
  8
DEFPOINTS
  6
CONTINUOUS
 62
     0
 10
3015.5530990587058
 20
-2742.460812720175
 30
0.0
  0
ENDBLK
  5
1AFB
  8
0
  0
BLOCK
  8
0
  2
*D75
 70
     1
 10
0.0
 20
0.0
 30
0.0
  3
*D75
  1

  0
LINE
  5
2084
  8
SIZE
  6
CONTINUOUS
 62
     0
 10
2995.5530990587049
 20
-2271.984981167594
 30
0.0
 11
2271.4557271921808
 21
-2271.984981167594
 31
0.0
  0
LINE
  5
2085
  8
SIZE
  6
CONTINUOUS
 62
     0
 10
3023.5530990587049
 20
-1192.9849811675931
 30
0.0
 11
2271.4557271921808
 21
-1192.9849811675931
 31
0.0
  0
LINE
  5
2086
  8
SIZE
  6
CONTINUOUS
 62
     0
 10
2301.4557271921808
 20
-2261.984981167594
 30
0.0
 11
2301.4557271921808
 21
-1202.9849811675931
 31
0.0
  0
INSERT
  5
2087
  8
SIZE
  6
CONTINUOUS
 62
     0
  2
_DOTBLANK
 10
2301.4557271921808
 20
-2271.984981167594
 30
0.0
 41
10.0
 42
10.0
 43
10.0
 50
270.0
  0
INSERT
  5
2088
  8
SIZE
  6
CONTINUOUS
 62
     0
  2
_ORIGIN
 10
2301.4557271921808
 20
-1192.9849811675931
 30
0.0
 41
10.0
 42
10.0
 43
10.0
 50
90.0
  0
TEXT
  5
2089
  8
SERVICESPACE
  6
CONTINUOUS
 62
     0
 10
2281.4557271921822
 20
-1828.6135525961661
 30
0.0
 40
64.0
  1
1079
 50
90.0
 41
0.9
  0
POINT
  5
208A
  8
DEFPOINTS
  6
CONTINUOUS
 62
     0
 10
3015.5530990587058
 20
-2271.984981167594
 30
0.0
  0
POINT
  5
208B
  8
DEFPOINTS
  6
CONTINUOUS
 62
     0
 10
3043.5530990587049
 20
-1192.9849811675931
 30
0.0
  0
POINT
  5
208C
  8
DEFPOINTS
  6
CONTINUOUS
 62
     0
 10
2301.4557271921808
 20
-1192.9849811675931
 30
0.0
  0
ENDBLK
  5
1B1F
  8
0
  0
BLOCK
  8
0
  2
*D76
 70
     1
 10
0.0
 20
0.0
 30
0.0
  3
*D76
  1

  0
LINE
  5
1BBD
  8
SIZE
  6
CONTINUOUS
 62
     0
 10
2995.5530990587049
 20
-2271.984981167594
 30
0.0
 11
2439.2703987482651
 21
-2271.984981167594
 31
0.0
  0
LINE
  5
1BBE
  8
SIZE
  6
CONTINUOUS
 62
     0
 10
3013.5530990587058
 20
-1900.9849811671329
 30
0.0
 11
2439.2703987482651
 21
-1900.984981167132
 31
0.0
  0
LINE
  5
1BBF
  8
SIZE
  6
CONTINUOUS
 62
     0
 10
2469.2703987482651
 20
-2261.984981167594
 30
0.0
 11
2469.2703987482651
 21
-1910.984981167132
 31
0.0
  0
INSERT
  5
1BC0
  8
SIZE
  6
CONTINUOUS
 62
     0
  2
_DOTBLANK
 10
2469.2703987482651
 20
-2271.984981167594
 30
0.0
 41
10.0
 42
10.0
 43
10.0
 50
270.0
  0
INSERT
  5
1BC1
  8
SIZE
  6
CONTINUOUS
 62
     0
  2
_ORIGIN
 10
2469.2703987482651
 20
-1900.984981167132
 30
0.0
 41
10.0
 42
10.0
 43
10.0
 50
90.0
  0
TEXT
  5
1BC2
  8
SERVICESPACE
  6
CONTINUOUS
 62
     0
 10
2449.270398748266
 20
-2148.1992668816479
 30
0.0
 40
64.0
  1
371
 50
90.0
 41
0.9
  0
POINT
  5
1BC3
  8
DEFPOINTS
  6
CONTINUOUS
 62
     0
 10
3015.5530990587058
 20
-2271.984981167594
 30
0.0
  0
POINT
  5
1BC4
  8
DEFPOINTS
  6
CONTINUOUS
 62
     0
 10
3033.5530990587058
 20
-1900.9849811671329
 30
0.0
  0
POINT
  5
1BC5
  8
DEFPOINTS
  6
CONTINUOUS
 62
     0
 10
2469.2703987482651
 20
-1900.984981167132
 30
0.0
  0
ENDBLK
  5
1B2B
  8
0
  0
BLOCK
  8
0
  2
*D77
 70
     1
 10
0.0
 20
0.0
 30
0.0
  3
*D77
  1

  0
LINE
  5
1BC6
  8
SIZE
  6
CONTINUOUS
 62
     0
 10
2995.5530990587049
 20
-2271.984981167594
 30
0.0
 11
2140.7871492171921
 21
-2271.984981167594
 31
0.0
  0
LINE
  5
1BC7
  8
SIZE
  6
CONTINUOUS
 62
     0
 10
3043.5530990587049
 20
-921.98498116759436
 30
0.0
 11
2140.7871492171921
 21
-921.98498116759424
 31
0.0
  0
LINE
  5
1BC8
  8
SIZE
  6
CONTINUOUS
 62
     0
 10
2170.7871492171921
 20
-2261.984981167594
 30
0.0
 11
2170.7871492171921
 21
-931.98498116759424
 31
0.0
  0
INSERT
  5
1BC9
  8
SIZE
  6
CONTINUOUS
 62
     0
  2
_DOTBLANK
 10
2170.7871492171921
 20
-2271.984981167594
 30
0.0
 41
10.0
 42
10.0
 43
10.0
 50
270.0
  0
INSERT
  5
1BCA
  8
SIZE
  6
CONTINUOUS
 62
     0
  2
_ORIGIN
 10
2170.7871492171921
 20
-921.98498116759424
 30
0.0
 41
10.0
 42
10.0
 43
10.0
 50
90.0
  0
TEXT
  5
1BCB
  8
SERVICESPACE
  6
CONTINUOUS
 62
     0
 10
2150.7871492171921
 20
-1692.984981167594
 30
0.0
 40
64.0
  1
1350
 50
90.0
 41
0.9
  0
POINT
  5
1BCC
  8
DEFPOINTS
  6
CONTINUOUS
 62
     0
 10
3015.5530990587049
 20
-2271.984981167594
 30
0.0
  0
POINT
  5
1BCD
  8
DEFPOINTS
  6
CONTINUOUS
 62
     0
 10
3063.5530990587049
 20
-921.98498116759436
 30
0.0
  0
POINT
  5
1BCE
  8
DEFPOINTS
  6
CONTINUOUS
 62
     0
 10
2170.7871492171921
 20
-921.98498116759424
 30
0.0
  0
ENDBLK
  5
1B37
  8
0
  0
BLOCK
  8
0
  2
*D78
 70
     1
 10
0.0
 20
0.0
 30
0.0
  3
*D78
  1

  0
LINE
  5
1BE5
  8
SIZE
  6
CONTINUOUS
 62
     0
 10
3063.5530990587049
 20
-901.98498116759458
 30
0.0
 11
3063.5530990587049
 21
-576.59461739025573
 31
0.0
  0
LINE
  5
1BE6
  8
SIZE
  6
CONTINUOUS
 62
     0
 10
3033.5530990587049
 20
-1489.9849811675931
 30
0.0
 11
3033.5530990587049
 21
-576.59461739025573
 31
0.0
  0
LINE
  5
1BE7
  8
SIZE
  6
CONTINUOUS
 62
     0
 10
3073.5530990587058
 20
-606.59461739025573
 30
0.0
 11
3083.5530990587058
 21
-606.59461739025573
 31
0.0
  0
LINE
  5
1BE8
  8
SIZE
  6
CONTINUOUS
 62
     0
 10
3023.5530990587049
 20
-606.59461739025573
 30
0.0
 11
2880.2959562015621
 21
-606.59461739025573
 31
0.0
  0
LINE
  5
1BE9
  8
SIZE
  6
CONTINUOUS
 62
     0
 10
3063.5530990587049
 20
-606.59461739025573
 30
0.0
 11
3033.5530990587049
 21
-606.59461739025573
 31
0.0
  0
INSERT
  5
1BEA
  8
SIZE
  6
CONTINUOUS
 62
     0
  2
_DOTBLANK
 10
3063.5530990587049
 20
-606.59461739025573
 30
0.0
 41
10.0
 42
10.0
 43
10.0
 50
180.0
  0
INSERT
  5
1BEB
  8
SIZE
  6
CONTINUOUS
 62
     0
  2
_ORIGIN
 10
3033.5530990587049
 20
-606.59461739025573
 30
0.0
 41
10.0
 42
10.0
 43
10.0
  0
TEXT
  5
1BEC
  8
SERVICESPACE
  6
CONTINUOUS
 62
     0
 10
2900.2959562015621
 20
-586.59461739025573
 30
0.0
 40
64.0
  1
30
 41
0.9
  0
POINT
  5
1BED
  8
DEFPOINTS
  6
CONTINUOUS
 62
     0
 10
3063.5530990587049
 20
-921.98498116759447
 30
0.0
  0
POINT
  5
1BEE
  8
DEFPOINTS
  6
CONTINUOUS
 62
     0
 10
3033.5530990587049
 20
-1509.9849811675931
 30
0.0
  0
POINT
  5
1BEF
  8
DEFPOINTS
  6
CONTINUOUS
 62
     0
 10
3033.5530990587049
 20
-606.59461739025573
 30
0.0
  0
ENDBLK
  5
1B61
  8
0
  0
BLOCK
  8
0
  2
*D79
 70
     1
 10
0.0
 20
0.0
 30
0.0
  3
*D79
  1

  0
LINE
  5
1BF0
  8
SIZE
  6
CONTINUOUS
 62
     0
 10
3393.5530990587058
 20
-901.98498116759436
 30
0.0
 11
3393.5530990587058
 21
-576.59461739025573
 31
0.0
  0
LINE
  5
1BF1
  8
SIZE
  6
CONTINUOUS
 62
     0
 10
3063.5530990587049
 20
-901.98498116759458
 30
0.0
 11
3063.5530990587049
 21
-576.59461739025573
 31
0.0
  0
LINE
  5
1BF2
  8
SIZE
  6
CONTINUOUS
 62
     0
 10
3383.5530990587058
 20
-606.59461739025573
 30
0.0
 11
3073.5530990587058
 21
-606.59461739025573
 31
0.0
  0
INSERT
  5
1BF3
  8
SIZE
  6
CONTINUOUS
 62
     0
  2
_DOTBLANK
 10
3393.5530990587058
 20
-606.59461739025573
 30
0.0
 41
10.0
 42
10.0
 43
10.0
  0
INSERT
  5
1BF4
  8
SIZE
  6
CONTINUOUS
 62
     0
  2
_ORIGIN
 10
3063.5530990587049
 20
-606.59461739025573
 30
0.0
 41
10.0
 42
10.0
 43
10.0
 50
180.0
  0
TEXT
  5
1BF5
  8
SERVICESPACE
  6
CONTINUOUS
 62
     0
 10
3154.4959562015629
 20
-586.59461739025573
 30
0.0
 40
64.0
  1
330
 41
0.9
  0
POINT
  5
1BF6
  8
DEFPOINTS
  6
CONTINUOUS
 62
     0
 10
3393.5530990587058
 20
-921.98498116759436
 30
0.0
  0
POINT
  5
1BF7
  8
DEFPOINTS
  6
CONTINUOUS
 62
     0
 10
3063.5530990587049
 20
-921.98498116759447
 30
0.0
  0
POINT
  5
1BF8
  8
DEFPOINTS
  6
CONTINUOUS
 62
     0
 10
3063.5530990587049
 20
-606.59461739025573
 30
0.0
  0
ENDBLK
  5
1B6D
  8
0
  0
BLOCK
  8
0
  2
*D80
 70
     1
 10
0.0
 20
0.0
 30
0.0
  3
*D80
  1

  0
LINE
  5
1BF9
  8
SIZE
  6
CONTINUOUS
 62
     0
 10
2953.1239030587062
 20
-1900.984981167594
 30
0.0
 11
2439.2703987482651
 21
-1900.984981167594
 31
0.0
  0
LINE
  5
1BFA
  8
SIZE
  6
CONTINUOUS
 62
     0
 10
2953.1239030587049
 20
-1265.984981167594
 30
0.0
 11
2439.2703987482651
 21
-1265.984981167594
 31
0.0
  0
LINE
  5
1BFB
  8
SIZE
  6
CONTINUOUS
 62
     0
 10
2469.2703987482651
 20
-1890.984981167594
 30
0.0
 11
2469.2703987482651
 21
-1275.984981167594
 31
0.0
  0
INSERT
  5
1BFC
  8
SIZE
  6
CONTINUOUS
 62
     0
  2
_DOTBLANK
 10
2469.2703987482651
 20
-1900.984981167594
 30
0.0
 41
10.0
 42
10.0
 43
10.0
 50
270.0
  0
INSERT
  5
1BFD
  8
SIZE
  6
CONTINUOUS
 62
     0
  2
_ORIGIN
 10
2469.2703987482651
 20
-1265.984981167594
 30
0.0
 41
10.0
 42
10.0
 43
10.0
 50
90.0
  0
TEXT
  5
1BFE
  8
SERVICESPACE
  6
CONTINUOUS
 62
     0
 10
2449.270398748266
 20
-1657.542124024736
 30
0.0
 40
64.0
  1
635
 50
90.0
 41
0.9
  0
POINT
  5
1BFF
  8
DEFPOINTS
  6
CONTINUOUS
 62
     0
 10
2973.1239030587062
 20
-1900.984981167594
 30
0.0
  0
POINT
  5
1C00
  8
DEFPOINTS
  6
CONTINUOUS
 62
     0
 10
2973.1239030587049
 20
-1265.984981167594
 30
0.0
  0
POINT
  5
1C01
  8
DEFPOINTS
  6
CONTINUOUS
 62
     0
 10
2469.2703987482651
 20
-1265.984981167594
 30
0.0
  0
ENDBLK
  5
1B79
  8
0
  0
BLOCK
  8
0
  2
*D81
 70
     1
 10
0.0
 20
0.0
 30
0.0
  3
*D81
  1

  0
LINE
  5
217E
  8
SIZE
  6
CONTINUOUS
 62
     0
 10
2995.5530990587049
 20
-2271.984981167594
 30
0.0
 11
2724.0312558908058
 21
-2271.984981167594
 31
0.0
  0
LINE
  5
217F
  8
SIZE
  6
CONTINUOUS
 62
     0
 10
3084.5530990587049
 20
-1831.984981167594
 30
0.0
 11
2724.0312558908058
 21
-1831.984981167594
 31
0.0
  0
LINE
  5
2180
  8
SIZE
  6
CONTINUOUS
 62
     0
 10
2754.0312558908058
 20
-2261.984981167594
 30
0.0
 11
2754.0312558908058
 21
-1841.984981167594
 31
0.0
  0
INSERT
  5
2181
  8
SIZE
  6
CONTINUOUS
 62
     0
  2
_DOTBLANK
 10
2754.0312558908058
 20
-2271.984981167594
 30
0.0
 41
10.0
 42
10.0
 43
10.0
 50
270.0
  0
INSERT
  5
2182
  8
SIZE
  6
CONTINUOUS
 62
     0
  2
_ORIGIN
 10
2754.0312558908058
 20
-1831.984981167594
 30
0.0
 41
10.0
 42
10.0
 43
10.0
 50
90.0
  0
TEXT
  5
2183
  8
SERVICESPACE
  6
CONTINUOUS
 62
     0
 10
2734.0312558908072
 20
-2126.0421240247369
 30
0.0
 40
64.0
  1
440
 50
90.0
 41
0.9
  0
POINT
  5
2184
  8
DEFPOINTS
  6
CONTINUOUS
 62
     0
 10
3015.5530990587058
 20
-2271.984981167594
 30
0.0
  0
POINT
  5
2185
  8
DEFPOINTS
  6
CONTINUOUS
 62
     0
 10
3104.5530990587049
 20
-1831.984981167594
 30
0.0
  0
POINT
  5
2186
  8
DEFPOINTS
  6
CONTINUOUS
 62
     0
 10
2754.0312558908058
 20
-1831.984981167594
 30
0.0
  0
ENDBLK
  5
20D4
  8
0
  0
BLOCK
  8
0
  2
*D82
 70
     1
 10
0.0
 20
0.0
 30
0.0
  3
*D82
  1

  0
LINE
  5
2175
  8
SIZE
  6
CONTINUOUS
 62
     0
 10
2995.5530990587049
 20
-2271.984981167594
 30
0.0
 11
2589.2816019394832
 21
-2271.984981167594
 31
0.0
  0
LINE
  5
2176
  8
SIZE
  6
CONTINUOUS
 62
     0
 10
3061.5530990587058
 20
-1765.984981167594
 30
0.0
 11
2589.2816019394832
 21
-1765.984981167594
 31
0.0
  0
LINE
  5
2177
  8
SIZE
  6
CONTINUOUS
 62
     0
 10
2619.2816019394832
 20
-2261.984981167594
 30
0.0
 11
2619.2816019394832
 21
-1775.984981167594
 31
0.0
  0
INSERT
  5
2178
  8
SIZE
  6
CONTINUOUS
 62
     0
  2
_DOTBLANK
 10
2619.2816019394832
 20
-2271.984981167594
 30
0.0
 41
10.0
 42
10.0
 43
10.0
 50
270.0
  0
INSERT
  5
2179
  8
SIZE
  6
CONTINUOUS
 62
     0
  2
_ORIGIN
 10
2619.2816019394832
 20
-1765.984981167594
 30
0.0
 41
10.0
 42
10.0
 43
10.0
 50
90.0
  0
TEXT
  5
217A
  8
SERVICESPACE
  6
CONTINUOUS
 62
     0
 10
2599.2816019394832
 20
-2091.6706954533079
 30
0.0
 40
64.0
  1
506
 50
90.0
 41
0.9
  0
POINT
  5
217B
  8
DEFPOINTS
  6
CONTINUOUS
 62
     0
 10
3015.5530990587058
 20
-2271.984981167594
 30
0.0
  0
POINT
  5
217C
  8
DEFPOINTS
  6
CONTINUOUS
 62
     0
 10
3081.5530990587058
 20
-1765.984981167594
 30
0.0
  0
POINT
  5
217D
  8
DEFPOINTS
  6
CONTINUOUS
 62
     0
 10
2619.2816019394832
 20
-1765.984981167594
 30
0.0
  0
ENDBLK
  5
20E0
  8
0
  0
BLOCK
  8
0
  2
*D83
 70
     1
 10
0.0
 20
0.0
 30
0.0
  3
*D83
  1

  0
LINE
  5
2192
  8
SIZE
  6
CONTINUOUS
 62
     0
 10
3063.5530990587049
 20
-2218.984981167594
 30
0.0
 11
3063.5530990587049
 21
-1631.4179119103931
 31
0.0
  0
LINE
  5
2193
  8
SIZE
  6
CONTINUOUS
 62
     0
 10
3101.5530990587058
 20
-1725.984981167594
 30
0.0
 11
3101.5530990587058
 21
-1631.4179119103931
 31
0.0
  0
LINE
  5
2194
  8
SIZE
  6
CONTINUOUS
 62
     0
 10
3111.5530990587049
 20
-1661.4179119103931
 30
0.0
 11
3121.5530990587058
 21
-1661.4179119103931
 31
0.0
  0
LINE
  5
2195
  8
SIZE
  6
CONTINUOUS
 62
     0
 10
3053.5530990587058
 20
-1661.4179119103931
 30
0.0
 11
2902.762808031348
 21
-1661.4179119103931
 31
0.0
  0
LINE
  5
2196
  8
SIZE
  6
CONTINUOUS
 62
     0
 10
3101.5530990587058
 20
-1661.4179119103931
 30
0.0
 11
3063.5530990587049
 21
-1661.4179119103931
 31
0.0
  0
INSERT
  5
2197
  8
SIZE
  6
CONTINUOUS
 62
     0
  2
_ORIGIN
 10
3101.5530990587058
 20
-1661.4179119103931
 30
0.0
 41
10.0
 42
10.0
 43
10.0
 50
180.0
  0
INSERT
  5
2198
  8
SIZE
  6
CONTINUOUS
 62
     0
  2
_DOTBLANK
 10
3063.5530990587049
 20
-1661.4179119103931
 30
0.0
 41
10.0
 42
10.0
 43
10.0
  0
TEXT
  5
2199
  8
SERVICESPACE
  6
CONTINUOUS
 62
     0
 10
2922.762808031348
 20
-1641.4179119103931
 30
0.0
 40
64.0
  1
38
 41
0.9
  0
POINT
  5
219A
  8
DEFPOINTS
  6
CONTINUOUS
 62
     0
 10
3063.5530990587049
 20
-2238.984981167594
 30
0.0
  0
POINT
  5
219B
  8
DEFPOINTS
  6
CONTINUOUS
 62
     0
 10
3101.5530990587058
 20
-1745.984981167594
 30
0.0
  0
POINT
  5
219C
  8
DEFPOINTS
  6
CONTINUOUS
 62
     0
 10
3101.5530990587058
 20
-1661.4179119103931
 30
0.0
  0
ENDBLK
  5
20EE
  8
0
  0
BLOCK
  8
0
  2
*D84
 70
     1
 10
0.0
 20
0.0
 30
0.0
  3
*D84
  1

  0
LINE
  5
2187
  8
SIZE
  6
CONTINUOUS
 62
     0
 10
3063.5530990587049
 20
-2218.984981167594
 30
0.0
 11
3063.5530990587049
 21
-1507.7587491438021
 31
0.0
  0
LINE
  5
2188
  8
SIZE
  6
CONTINUOUS
 62
     0
 10
3124.5530990587058
 20
-1791.984981167594
 30
0.0
 11
3124.5530990587058
 21
-1507.7587491438021
 31
0.0
  0
LINE
  5
2189
  8
SIZE
  6
CONTINUOUS
 62
     0
 10
3134.5530990587058
 20
-1537.7587491438021
 30
0.0
 11
3144.5530990587058
 21
-1537.7587491438021
 31
0.0
  0
LINE
  5
218A
  8
SIZE
  6
CONTINUOUS
 62
     0
 10
3053.5530990587058
 20
-1537.7587491438021
 30
0.0
 11
2915.1056651742051
 21
-1537.7587491438021
 31
0.0
  0
LINE
  5
218B
  8
SIZE
  6
CONTINUOUS
 62
     0
 10
3124.5530990587058
 20
-1537.7587491438021
 30
0.0
 11
3063.5530990587049
 21
-1537.7587491438021
 31
0.0
  0
INSERT
  5
218C
  8
SIZE
  6
CONTINUOUS
 62
     0
  2
_ORIGIN
 10
3124.5530990587058
 20
-1537.7587491438021
 30
0.0
 41
10.0
 42
10.0
 43
10.0
 50
180.0
  0
INSERT
  5
218D
  8
SIZE
  6
CONTINUOUS
 62
     0
  2
_DOTBLANK
 10
3063.5530990587049
 20
-1537.7587491438021
 30
0.0
 41
10.0
 42
10.0
 43
10.0
  0
TEXT
  5
218E
  8
SERVICESPACE
  6
CONTINUOUS
 62
     0
 10
2935.1056651742051
 20
-1517.7587491438021
 30
0.0
 40
64.0
  1
61
 41
0.9
  0
POINT
  5
218F
  8
DEFPOINTS
  6
CONTINUOUS
 62
     0
 10
3063.5530990587049
 20
-2238.984981167594
 30
0.0
  0
POINT
  5
2190
  8
DEFPOINTS
  6
CONTINUOUS
 62
     0
 10
3124.5530990587058
 20
-1811.984981167594
 30
0.0
  0
POINT
  5
2191
  8
DEFPOINTS
  6
CONTINUOUS
 62
     0
 10
3124.5530990587058
 20
-1537.7587491438021
 30
0.0
  0
ENDBLK
  5
20FC
  8
0
  0
BLOCK
  8
0
  2
*D85
 70
     1
 10
0.0
 20
0.0
 30
0.0
  3
*D85
  1

  0
LINE
  5
21EA
  8
SIZE
  6
CONTINUOUS
 62
     0
 10
558.74056396971264
 20
-4194.937201821208
 30
0.0
 11
732.10116001402275
 21
-4194.937201821208
 31
0.0
  0
LINE
  5
21EB
  8
SIZE
  6
CONTINUOUS
 62
     0
 10
480.74056396971258
 20
-4156.9372018212089
 30
0.0
 11
732.10116001402275
 21
-4156.9372018212089
 31
0.0
  0
LINE
  5
21EC
  8
SIZE
  6
CONTINUOUS
 62
     0
 10
702.10116001402275
 20
-4204.937201821208
 30
0.0
 11
702.10116001402275
 21
-4214.9372018212089
 31
0.0
  0
LINE
  5
21ED
  8
SIZE
  6
CONTINUOUS
 62
     0
 10
702.10116001402275
 20
-4146.937201821208
 30
0.0
 11
702.10116001402275
 21
-4003.6800589640661
 31
0.0
  0
LINE
  5
21EE
  8
SIZE
  6
CONTINUOUS
 62
     0
 10
702.10116001402275
 20
-4194.937201821208
 30
0.0
 11
702.10116001402275
 21
-4156.9372018212089
 31
0.0
  0
INSERT
  5
21EF
  8
SIZE
  6
CONTINUOUS
 62
     0
  2
_DOTBLANK
 10
702.10116001402275
 20
-4194.937201821208
 30
0.0
 41
10.0
 42
10.0
 43
10.0
 50
90.0
  0
INSERT
  5
21F0
  8
SIZE
  6
CONTINUOUS
 62
     0
  2
_ORIGIN
 10
702.10116001402275
 20
-4156.9372018212089
 30
0.0
 41
10.0
 42
10.0
 43
10.0
 50
270.0
  0
TEXT
  5
21F1
  8
SERVICESPACE
  6
CONTINUOUS
 62
     0
 10
682.10116001402343
 20
-4116.937201821208
 30
0.0
 40
64.0
  1
38
 50
90.0
 41
0.9
  0
POINT
  5
21F2
  8
DEFPOINTS
  6
CONTINUOUS
 62
     0
 10
538.74056396971264
 20
-4194.937201821208
 30
0.0
  0
POINT
  5
21F3
  8
DEFPOINTS
  6
CONTINUOUS
 62
     0
 10
460.74056396971258
 20
-4156.9372018212089
 30
0.0
  0
POINT
  5
21F4
  8
DEFPOINTS
  6
CONTINUOUS
 62
     0
 10
702.10116001402275
 20
-4156.9372018212089
 30
0.0
  0
ENDBLK
  5
21BF
  8
0
  0
BLOCK
  8
0
  2
*D86
 70
     1
 10
0.0
 20
0.0
 30
0.0
  3
*D86
  1

  0
LINE
  5
21F5
  8
SIZE
  6
CONTINUOUS
 62
     0
 10
558.74056396971264
 20
-4194.937201821208
 30
0.0
 11
873.76670318757886
 21
-4194.937201821208
 31
0.0
  0
LINE
  5
21F6
  8
SIZE
  6
CONTINUOUS
 62
     0
 10
530.74056396971264
 20
-4133.9372018212089
 30
0.0
 11
873.76670318757886
 21
-4133.9372018212089
 31
0.0
  0
LINE
  5
21F7
  8
SIZE
  6
CONTINUOUS
 62
     0
 10
843.76670318757897
 20
-4204.937201821208
 30
0.0
 11
843.76670318757897
 21
-4214.9372018212089
 31
0.0
  0
LINE
  5
21F8
  8
SIZE
  6
CONTINUOUS
 62
     0
 10
843.76670318757897
 20
-4123.9372018212089
 30
0.0
 11
843.76670318757897
 21
-4005.36577324978
 31
0.0
  0
LINE
  5
21F9
  8
SIZE
  6
CONTINUOUS
 62
     0
 10
843.76670318757897
 20
-4194.937201821208
 30
0.0
 11
843.76670318757897
 21
-4133.9372018212089
 31
0.0
  0
INSERT
  5
21FA
  8
SIZE
  6
CONTINUOUS
 62
     0
  2
_DOTBLANK
 10
843.76670318757897
 20
-4194.937201821208
 30
0.0
 41
10.0
 42
10.0
 43
10.0
 50
90.0
  0
INSERT
  5
21FB
  8
SIZE
  6
CONTINUOUS
 62
     0
  2
_ORIGIN
 10
843.76670318757897
 20
-4133.9372018212089
 30
0.0
 41
10.0
 42
10.0
 43
10.0
 50
270.0
  0
TEXT
  5
21FC
  8
SERVICESPACE
  6
CONTINUOUS
 62
     0
 10
823.76670318757965
 20
-4093.9372018212089
 30
0.0
 40
64.0
  1
61
 50
90.0
 41
0.9
  0
POINT
  5
21FD
  8
DEFPOINTS
  6
CONTINUOUS
 62
     0
 10
538.74056396971264
 20
-4194.937201821208
 30
0.0
  0
POINT
  5
21FE
  8
DEFPOINTS
  6
CONTINUOUS
 62
     0
 10
510.74056396971258
 20
-4133.9372018212089
 30
0.0
  0
POINT
  5
21FF
  8
DEFPOINTS
  6
CONTINUOUS
 62
     0
 10
843.76670318757897
 20
-4133.9372018212089
 30
0.0
  0
ENDBLK
  5
21CD
  8
0
  0
BLOCK
  8
0
  2
*D87
 70
     1
 10
0.0
 20
0.0
 30
0.0
  3
*D87
  1

  0
LINE
  5
2200
  8
SIZE
  6
CONTINUOUS
 62
     0
 10
538.74056396971264
 20
-4214.9372018212089
 30
0.0
 11
538.74056396971264
 21
-4472.822935091026
 31
0.0
  0
LINE
  5
2201
  8
SIZE
  6
CONTINUOUS
 62
     0
 10
490.74056396971258
 20
-4173.9372018212089
 30
0.0
 11
490.74056396971258
 21
-4472.822935091026
 31
0.0
  0
LINE
  5
2202
  8
SIZE
  6
CONTINUOUS
 62
     0
 10
480.74056396971258
 20
-4442.822935091026
 30
0.0
 11
470.74056396971258
 21
-4442.822935091026
 31
0.0
  0
LINE
  5
2203
  8
SIZE
  6
CONTINUOUS
 62
     0
 10
548.74056396971264
 20
-4442.822935091026
 30
0.0
 11
707.03825949618272
 21
-4442.822935091026
 31
0.0
  0
LINE
  5
2204
  8
SIZE
  6
CONTINUOUS
 62
     0
 10
490.74056396971258
 20
-4442.822935091026
 30
0.0
 11
538.74056396971264
 21
-4442.822935091026
 31
0.0
  0
INSERT
  5
2205
  8
SIZE
  6
CONTINUOUS
 62
     0
  2
_ORIGIN
 10
490.74056396971258
 20
-4442.822935091026
 30
0.0
 41
10.0
 42
10.0
 43
10.0
  0
INSERT
  5
2206
  8
SIZE
  6
CONTINUOUS
 62
     0
  2
_DOTBLANK
 10
538.74056396971264
 20
-4442.822935091026
 30
0.0
 41
10.0
 42
10.0
 43
10.0
 50
180.0
  0
TEXT
  5
2207
  8
SERVICESPACE
  6
CONTINUOUS
 62
     0
 10
593.78111663903996
 20
-4422.8229350910251
 30
0.0
 40
64.0
  1
48
 41
0.9
  0
POINT
  5
2208
  8
DEFPOINTS
  6
CONTINUOUS
 62
     0
 10
538.74056396971264
 20
-4194.937201821208
 30
0.0
  0
POINT
  5
2209
  8
DEFPOINTS
  6
CONTINUOUS
 62
     0
 10
490.74056396971258
 20
-4153.9372018212089
 30
0.0
  0
POINT
  5
220A
  8
DEFPOINTS
  6
CONTINUOUS
 62
     0
 10
490.74056396971258
 20
-4442.822935091026
 30
0.0
  0
ENDBLK
  5
21DB
  8
0
  0
BLOCK
  8
0
  2
*D88
 70
     1
 10
0.0
 20
0.0
 30
0.0
  3
*D88
  1

  0
LINE
  5
220B
  8
SIZE
  6
CONTINUOUS
 62
     0
 10
490.74056396971258
 20
-4173.9372018212089
 30
0.0
 11
490.74056396971258
 21
-4472.822935091026
 31
0.0
  0
LINE
  5
220C
  8
SIZE
  6
CONTINUOUS
 62
     0
 10
440.74056396971258
 20
-4196.9372018212089
 30
0.0
 11
440.74056396971258
 21
-4472.822935091026
 31
0.0
  0
LINE
  5
220D
  8
SIZE
  6
CONTINUOUS
 62
     0
 10
500.74056396971258
 20
-4442.822935091026
 30
0.0
 11
510.74056396971258
 21
-4442.822935091026
 31
0.0
  0
LINE
  5
220E
  8
SIZE
  6
CONTINUOUS
 62
     0
 10
430.74056396971258
 20
-4442.822935091026
 30
0.0
 11
201.70021716421419
 21
-4442.822935091026
 31
0.0
  0
LINE
  5
220F
  8
SIZE
  6
CONTINUOUS
 62
     0
 10
490.74056396971258
 20
-4442.822935091026
 30
0.0
 11
440.74056396971258
 21
-4442.822935091026
 31
0.0
  0
INSERT
  5
2210
  8
SIZE
  6
CONTINUOUS
 62
     0
  2
_DOTBLANK
 10
490.74056396971258
 20
-4442.822935091026
 30
0.0
 41
10.0
 42
10.0
 43
10.0
 50
180.0
  0
INSERT
  5
2211
  8
SIZE
  6
CONTINUOUS
 62
     0
  2
_ORIGIN
 10
440.74056396971258
 20
-4442.822935091026
 30
0.0
 41
10.0
 42
10.0
 43
10.0
  0
TEXT
  5
2212
  8
SERVICESPACE
  6
CONTINUOUS
 62
     0
 10
221.70021716421419
 20
-4422.8229350910251
 30
0.0
 40
64.0
  1
50
 41
0.9
  0
POINT
  5
2213
  8
DEFPOINTS
  6
CONTINUOUS
 62
     0
 10
490.74056396971258
 20
-4153.9372018212089
 30
0.0
  0
POINT
  5
2214
  8
DEFPOINTS
  6
CONTINUOUS
 62
     0
 10
440.74056396971258
 20
-4176.9372018212089
 30
0.0
  0
POINT
  5
2215
  8
DEFPOINTS
  6
CONTINUOUS
 62
     0
 10
440.74056396971258
 20
-4442.822935091026
 30
0.0
  0
ENDBLK
  5
21E9
  8
0
  0
ENDSEC
  0
SECTION
  2
ENTITIES
  0
CIRCLE
  5
4D2
  8
ARRANGE
  6
CONTINUOUS
 10
0.0
 20
0.0
 30
0.0
 40
40.0
  0
LINE
  5
4D3
  8
DETAIL
  6
CONTINOUS
 10
213.0
 20
0.0
 30
0.0
 11
-204.0
 21
0.0
 31
0.0
  0
POINT
  5
4D5
  8
ARRANGE
  6
CONTINUOUS
 10
0.0
 20
0.0
 30
0.0
  0
LINE
  5
4D6
  8
DETAIL
  6
CONTINOUS
 10
213.0000000000004
 20
33.0
 30
0.0
 11
-204.0
 21
33.0
 31
0.0
  0
CIRCLE
  5
4D9
  8
FIX
  6
CONTINUOUS
 10
-180.0
 20
0.0
 30
0.0
 40
40.0
  0
LINE
  5
4DA
  8
DETAIL
  6
CONTINOUS
 10
-204.0
 20
0.0
 30
0.0
 11
-204.0
 21
33.0
 31
0.0
  0
LINE
  5
4DB
  8
BASIS
  6
DASHDOT
 10
0.0
 20
-50.635823000000073
 30
0.0
 11
0.0
 21
1419.6539315756199
 31
0.0
  0
LINE
  5
4DC
  8
NOTE
  6
CONTINOUS
 10
-184.99999999999949
 20
-20.0
 30
0.0
 11
-184.99999999999949
 21
20.0
 31
0.0
  0
LINE
  5
4DD
  8
NOTE
  6
CONTINUOUS
 10
-984.87190399999906
 20
-290.07775399999991
 30
0.0
 11
-405.06510199999951
 21
-290.07775399999991
 31
0.0
  0
TEXT
  5
4DE
  8
NOTE
  6
CONTINUOUS
 10
-930.045885
 20
-274.97545300000002
 30
0.0
 40
64.0
  1
AH 2-U cut
 41
0.9
  0
LINE
  5
4DF
  8
NOTE
  6
CONTINUOUS
 10
-405.06510199999951
 20
-290.07775399999991
 30
0.0
 11
-184.99999999999949
 21
0.0
 31
0.0
  0
LINE
  5
4EB
  8
NOTE
  6
CONTINOUS
 10
-164.99999999999949
 20
0.0
 30
0.0
 11
-204.99999999999949
 21
0.0
 31
0.0
  0
LINE
  5
4EC
  8
NOTE
  6
CONTINUOUS
 10
-184.99999999999949
 20
0.0
 30
0.0
 11
-200.10423999999961
 21
-37.038654999999828
 31
0.0
  0
LINE
  5
4ED
  8
NOTE
  6
CONTINUOUS
 10
-184.99999999999949
 20
0.0
 30
0.0
 11
-216.59998299999961
 21
-24.524295000000158
 31
0.0
  0
LINE
  5
4F0
  8
DETAIL
  6
CONTINOUS
 10
-165.0
 20
33.0
 30
0.0
 11
-165.0
 21
1350.0
 31
0.0
  0
CIRCLE
  5
4F8
  8
FIX
  6
CONTINUOUS
 10
185.0000000000004
 20
0.0
 30
0.0
 40
40.0
  0
LINE
  5
4F9
  8
DETAIL
  6
CONTINOUS
 10
213.0
 20
0.0
 30
0.0
 11
213.0000000000004
 21
33.0
 31
0.0
  0
LINE
  5
4FA
  8
NOTE
  6
CONTINOUS
 10
185.0000000000004
 20
-20.0
 30
0.0
 11
185.0000000000004
 21
20.0
 31
0.0
  0
LINE
  5
4FB
  8
NOTE
  6
CONTINUOUS
 10
989.87190399999963
 20
-290.07775399999991
 30
0.0
 11
410.06510199999991
 21
-290.07775399999991
 31
0.0
  0
TEXT
  5
4FC
  8
NOTE
  6
CONTINUOUS
 10
435.29731299999997
 20
-274.97545300000002
 30
0.0
 40
64.0
  1
AH 2-12×36
 41
0.9
  0
LINE
  5
4FD
  8
NOTE
  6
CONTINUOUS
 10
405.06510200000042
 20
-290.07775399999991
 30
0.0
 11
185.0000000000004
 21
0.0
 31
0.0
  0
LINE
  5
508
  8
NOTE
  6
CONTINOUS
 10
205.0000000000004
 20
0.0
 30
0.0
 11
165.0000000000004
 21
0.0
 31
0.0
  0
LINE
  5
509
  8
NOTE
  6
CONTINUOUS
 10
185.0000000000004
 20
0.0
 30
0.0
 11
200.10424000000049
 21
-37.038654999999828
 31
0.0
  0
LINE
  5
50A
  8
NOTE
  6
CONTINUOUS
 10
185.0000000000004
 20
0.0
 30
0.0
 11
216.59998300000049
 21
-24.524295000000158
 31
0.0
  0
TEXT
  5
50C
  8
ETC
  6
CONTINUOUS
 10
826.25476182734189
 20
1712.5348088504991
 30
0.0
 40
64.0
  1
SMPU2735
 41
0.9
  0
LINE
  5
50F
  8
DETAIL
  6
CONTINOUS
 10
165.0
 20
33.0
 30
0.0
 11
165.0
 21
1350.0
 31
0.0
  0
LINE
  5
515
  8
BASIS
  6
DASHDOT
 10
255.42919599999999
 20
371.0
 30
0.0
 11
105.726263
 21
371.0
 31
0.0
  0
TEXT
  5
518
  8
ETC
  6
CONTINUOUS
 10
824.73497842246695
 20
1593.3682078504989
 30
0.0
 40
64.0
  1
室外機
 41
0.9
  0
LINE
  5
E2C
  8
DETAIL
  6
CONTINUOUS
 10
195.0000000000004
 20
660.00000000046225
 30
0.0
 11
165.0
 21
660.00000000046225
 31
0.0
  0
LINE
  5
E2D
  8
DETAIL
  6
CONTINUOUS
 10
195.0
 20
82.000000000460645
 30
0.0
 11
165.0
 21
82.000000000460645
 31
0.0
  0
LINE
  5
E2E
  8
DETAIL
  6
CONTINUOUS
 10
195.0
 20
82.000000000460645
 30
0.0
 11
195.0000000000004
 21
660.00000000046225
 31
0.0
  0
LINE
  5
E38
  8
NOTE
  6
CONTINOUS
 10
127.0
 20
526.0
 30
0.0
 11
127.0
 21
486.0
 31
0.0
  0
LINE
  5
E39
  8
NOTE
  6
CONTINOUS
 10
147.0
 20
506.0
 30
0.0
 11
107.0
 21
506.0
 31
0.0
  0
LINE
  5
E3C
  8
NOTE
  6
CONTINOUS
 10
124.0
 20
440.0
 30
0.0
 11
84.0
 21
440.0
 31
0.0
  0
LINE
  5
E3D
  8
NOTE
  6
CONTINOUS
 10
104.0
 20
460.0
 30
0.0
 11
104.0
 21
420.0
 31
0.0
  0
LINE
  5
E3F
  8
NOTE
  6
CONTINOUS
 10
165.0
 20
1099.0
 30
0.0
 11
165.0
 21
1059.0
 31
0.0
  0
LINE
  5
E40
  8
NOTE
  6
CONTINOUS
 10
185.0
 20
1079.0
 30
0.0
 11
145.0
 21
1079.0
 31
0.0
  0
LINE
  5
E62
  8
NOTE
  6
CONTINUOUS
 10
-178.16427505732551
 20
751.19470693964104
 30
0.0
 11
-551.87183869953049
 21
751.1947069396407
 31
0.0
  0
TEXT
  5
E63
  8
NOTE
  6
CONTINUOUS
 10
-542.02736767803663
 20
769.65196801666104
 30
0.0
 40
64.0
  1
RL%%C9.52
 41
0.9
  0
LINE
  5
E64
  8
NOTE
  6
CONTINUOUS
 10
-616.74467075567497
 20
218.13289365362971
 30
0.0
 11
-211.4379246685539
 21
218.13289365362971
 31
0.0
  0
TEXT
  5
E65
  8
NOTE
  6
CONTINUOUS
 10
-607.57852589356378
 20
233.9322089022607
 30
0.0
 40
64.0
  1
RG%%C15.88
 41
0.9
  0
LINE
  5
E66
  8
NOTE
  6
CONTINUOUS
 10
-468.46833820999012
 20
1391.5516088357399
 30
0.0
 11
-223.99528590492389
 21
1391.5516088357399
 31
0.0
  0
TEXT
  5
E67
  8
NOTE
  6
CONTINUOUS
 10
-453.68803320999081
 20
1406.65390983574
 30
0.0
 40
64.0
  1
EL,CL
 41
0.9
  0
DIMENSION
  5
E75
  8
SIZE
  6
CONTINUOUS
  2
*D32
 10
185.0000000000004
 20
-334.82880203500957
 30
0.0
 11
0.0000000000004295
 21
-282.82880203500957
 31
0.0
 70
     0
 13
-184.99999999999949
 23
-20.0
 33
0.0
 14
185.0000000000004
 24
-20.0
 34
0.0
1001
ACAD
1000
DSTYLE
1002
{
1070
   287
1070
     0
1070
    41
1040
10.0
1070
    42
1040
20.0
1070
    43
1040
200.0
1070
    44
1040
30.0
1070
    73
1070
     0
1070
    74
1070
     0
1070
    77
1070
     1
1070
    78
1070
     8
1070
   140
1040
64.0
1070
   147
1040
20.0
1070
   172
1070
     1
1070
   173
1070
     1
1070
   271
1070
     0
1070
   272
1070
     0
1070
   289
1070
     0
1070
   341
1005
719
1070
     6
1000
DOTBLANK
1070
     7
1000
ORIGIN
1002
}
  0
DIMENSION
  5
E82
  8
SIZE
  6
CONTINUOUS
  2
*D33
 10
-204.0
 20
-334.82880203500957
 30
0.0
 11
-283.7714285714286
 21
-282.82880203500957
 31
0.0
 70
     0
 13
-184.99999999999949
 23
-20.0
 33
0.0
 14
-204.0
 24
0.0
 34
0.0
1001
ACAD
1000
DSTYLE
1002
{
1070
   287
1070
     0
1070
    41
1040
10.0
1070
    42
1040
20.0
1070
    43
1040
200.0
1070
    44
1040
30.0
1070
    73
1070
     0
1070
    74
1070
     0
1070
    77
1070
     1
1070
    78
1070
     8
1070
   140
1040
64.0
1070
   147
1040
20.0
1070
   172
1070
     1
1070
   173
1070
     1
1070
   271
1070
     0
1070
   272
1070
     0
1070
   289
1070
     0
1070
   341
1005
719
1070
     6
1000
DOTBLANK
1070
     7
1000
ORIGIN
1002
}
  0
DIMENSION
  5
E91
  8
SIZE
  6
CONTINUOUS
  2
*D34
 10
213.0000000000004
 20
-334.82880203500957
 30
0.0
 11
299.62857142857177
 21
-282.82880203500957
 31
0.0
 70
     0
 13
185.0000000000004
 23
-20.0
 33
0.0
 14
213.0000000000004
 24
0.0
 34
0.0
1001
ACAD
1000
DSTYLE
1002
{
1070
   287
1070
     0
1070
    41
1040
10.0
1070
    42
1040
20.0
1070
    43
1040
200.0
1070
    44
1040
30.0
1070
    73
1070
     0
1070
    74
1070
     0
1070
    77
1070
     1
1070
    78
1070
     8
1070
   140
1040
64.0
1070
   147
1040
20.0
1070
   172
1070
     1
1070
   173
1070
     1
1070
   271
1070
     0
1070
   272
1070
     0
1070
   289
1070
     0
1070
   341
1005
719
1070
     6
1000
DOTBLANK
1070
     7
1000
ORIGIN
1002
}
  0
DIMENSION
  5
ECA
  8
SIZE
  6
CONTINUOUS
  2
*D35
 10
212.99999999999989
 20
-470.47583155258093
 30
0.0
 11
4.4999999999999751
 21
-418.47583155258098
 31
0.0
 70
     0
 13
-204.0
 23
0.0
 33
0.0
 14
213.0
 24
0.0
 34
0.0
1001
ACAD
1000
DSTYLE
1002
{
1070
   287
1070
     0
1070
    41
1040
10.0
1070
    42
1040
20.0
1070
    43
1040
200.0
1070
    44
1040
30.0
1070
    73
1070
     0
1070
    74
1070
     0
1070
    77
1070
     1
1070
    78
1070
     8
1070
   140
1040
64.0
1070
   147
1040
20.0
1070
   172
1070
     1
1070
   173
1070
     1
1070
   271
1070
     0
1070
   272
1070
     0
1070
   289
1070
     0
1070
   341
1005
719
1070
     6
1000
DOTBLANK
1070
     7
1000
ORIGIN
1002
}
  0
DIMENSION
  5
ED7
  8
SIZE
  6
CONTINUOUS
  2
*D36
 10
474.52184316789948
 20
439.99999999999977
 30
0.0
 11
422.52184316789942
 21
220.0
 31
0.0
 70
     0
 13
213.0
 23
0.0
 33
0.0
 14
124.0
 24
440.0
 34
0.0
 50
90.0
1001
ACAD
1000
DSTYLE
1002
{
1070
   287
1070
     0
1070
    41
1040
10.0
1070
    42
1040
20.0
1070
    43
1040
200.0
1070
    44
1040
30.0
1070
    73
1070
     0
1070
    74
1070
     0
1070
    77
1070
     1
1070
    78
1070
     8
1070
   140
1040
64.0
1070
   147
1040
20.0
1070
   172
1070
     1
1070
   173
1070
     1
1070
   271
1070
     0
1070
   272
1070
     0
1070
   289
1070
     0
1070
   341
1005
719
1070
     6
1000
DOTBLANK
1070
     7
1000
ORIGIN
1002
}
  0
DIMENSION
  5
EE4
  8
SIZE
  6
CONTINUOUS
  2
*D37
 10
609.27149711922266
 20
505.99999999999989
 30
0.0
 11
557.27149711922254
 21
253.0
 31
0.0
 70
     0
 13
213.0
 23
0.0
 33
0.0
 14
147.0
 24
506.0
 34
0.0
 50
90.0
1001
ACAD
1000
DSTYLE
1002
{
1070
   287
1070
     0
1070
    41
1040
10.0
1070
    42
1040
20.0
1070
    43
1040
200.0
1070
    44
1040
30.0
1070
    73
1070
     0
1070
    74
1070
     0
1070
    77
1070
     1
1070
    78
1070
     8
1070
   140
1040
64.0
1070
   147
1040
20.0
1070
   172
1070
     1
1070
   173
1070
     1
1070
   271
1070
     0
1070
   272
1070
     0
1070
   289
1070
     0
1070
   341
1005
719
1070
     6
1000
DOTBLANK
1070
     7
1000
ORIGIN
1002
}
  0
DIMENSION
  5
EF1
  8
SIZE
  6
CONTINUOUS
  2
*D38
 10
927.09737186652387
 20
1078.9999999999991
 30
0.0
 11
927.09737186652364
 21
537.99999999999977
 31
0.0
 70
   128
 13
213.0
 23
0.0
 33
0.0
 14
185.0
 24
1079.0
 34
0.0
 50
90.0
1001
ACAD
1000
DSTYLE
1002
{
1070
   287
1070
     0
1070
    41
1040
10.0
1070
    42
1040
20.0
1070
    43
1040
200.0
1070
    44
1040
30.0
1070
    73
1070
     0
1070
    74
1070
     0
1070
    77
1070
     1
1070
    78
1070
     8
1070
   140
1040
64.0
1070
   147
1040
20.0
1070
   172
1070
     1
1070
   173
1070
     1
1070
   271
1070
     0
1070
   272
1070
     0
1070
   289
1070
     0
1070
   341
1005
719
1070
     6
1000
DOTBLANK
1070
     7
1000
ORIGIN
1002
}
  0
DIMENSION
  5
EFE
  8
SIZE
  6
CONTINUOUS
  2
*D39
 10
759.2827003104403
 20
371.0000000004614
 30
0.0
 11
707.28270031044019
 21
185.5000000002307
 31
0.0
 70
     0
 13
213.0
 23
0.0
 33
0.0
 14
195.0
 24
371.00000000046151
 34
0.0
 50
90.0
1001
ACAD
1000
DSTYLE
1002
{
1070
   287
1070
     0
1070
    41
1040
10.0
1070
    42
1040
20.0
1070
    43
1040
200.0
1070
    44
1040
30.0
1070
    73
1070
     0
1070
    74
1070
     0
1070
    77
1070
     1
1070
    78
1070
     8
1070
   140
1040
64.0
1070
   147
1040
20.0
1070
   172
1070
     1
1070
   173
1070
     1
1070
   271
1070
     0
1070
   272
1070
     0
1070
   289
1070
     0
1070
   341
1005
719
1070
     6
1000
DOTBLANK
1070
     7
1000
ORIGIN
1002
}
  0
DIMENSION
  5
F0B
  8
SIZE
  6
CONTINUOUS
  2
*D40
 10
1057.765949841513
 20
1349.9999999999991
 30
0.0
 11
1005.765949841513
 21
674.99999999999989
 31
0.0
 70
     0
 13
213.0000000000004
 23
0.0
 33
0.0
 14
165.0
 24
1350.0
 34
0.0
 50
90.0
1001
ACAD
1000
DSTYLE
1002
{
1070
   287
1070
     0
1070
    41
1040
10.0
1070
    42
1040
20.0
1070
    43
1040
200.0
1070
    44
1040
30.0
1070
    73
1070
     0
1070
    74
1070
     0
1070
    77
1070
     1
1070
    78
1070
     8
1070
   140
1040
64.0
1070
   147
1040
20.0
1070
   172
1070
     1
1070
   173
1070
     1
1070
   271
1070
     0
1070
   272
1070
     0
1070
   289
1070
     0
1070
   341
1005
719
1070
     6
1000
DOTBLANK
1070
     7
1000
ORIGIN
1002
}
  0
DIMENSION
  5
FBC
  8
SIZE
  6
CONTINUOUS
  2
*D46
 10
127.0
 20
610.56706925720073
 30
0.0
 11
259.16171959878642
 21
610.56706925720073
 31
0.0
 70
   128
 13
165.0
 23
33.0
 33
0.0
 14
127.0
 24
526.0
 34
0.0
1001
ACAD
1000
DSTYLE
1002
{
1070
   287
1070
     0
1070
    41
1040
10.0
1070
    42
1040
20.0
1070
    43
1040
200.0
1070
    44
1040
30.0
1070
    73
1070
     0
1070
    74
1070
     0
1070
    77
1070
     1
1070
    78
1070
     8
1070
   140
1040
64.0
1070
   147
1040
20.0
1070
   172
1070
     1
1070
   173
1070
     1
1070
   271
1070
     0
1070
   272
1070
     0
1070
   289
1070
     0
1070
   341
1005
719
1070
     6
1000
DOTBLANK
1070
     7
1000
ORIGIN
1002
}
  0
DIMENSION
  5
FE1
  8
SIZE
  6
CONTINUOUS
  2
*D47
 10
104.0
 20
734.22623202379191
 30
0.0
 11
259.16171959878642
 21
734.22623202379191
 31
0.0
 70
   128
 13
165.0
 23
33.0
 33
0.0
 14
104.0
 24
460.0
 34
0.0
1001
ACAD
1000
DSTYLE
1002
{
1070
   287
1070
     0
1070
    41
1040
10.0
1070
    42
1040
20.0
1070
    43
1040
200.0
1070
    44
1040
30.0
1070
    73
1070
     0
1070
    74
1070
     0
1070
    77
1070
     1
1070
    78
1070
     8
1070
   140
1040
64.0
1070
   147
1040
20.0
1070
   172
1070
     1
1070
   173
1070
     1
1070
   271
1070
     0
1070
   272
1070
     0
1070
   289
1070
     0
1070
   341
1005
719
1070
     6
1000
DOTBLANK
1070
     7
1000
ORIGIN
1002
}
  0
DIMENSION
  5
1011
  8
SIZE
  6
CONTINUOUS
  2
*D48
 10
195.0000000000004
 20
1665.390363777339
 30
0.0
 11
281.62857142857189
 21
1665.390363777339
 31
0.0
 70
   128
 13
165.0
 23
1350.0
 33
0.0
 14
195.0000000000004
 24
762.00000000000114
 34
0.0
1001
ACAD
1000
DSTYLE
1002
{
1070
   287
1070
     0
1070
    41
1040
10.0
1070
    42
1040
20.0
1070
    43
1040
200.0
1070
    44
1040
30.0
1070
    73
1070
     0
1070
    74
1070
     0
1070
    77
1070
     1
1070
    78
1070
     8
1070
   140
1040
64.0
1070
   147
1040
20.0
1070
   172
1070
     1
1070
   173
1070
     1
1070
   271
1070
     0
1070
   272
1070
     0
1070
   289
1070
     0
1070
   341
1005
719
1070
     6
1000
DOTBLANK
1070
     7
1000
ORIGIN
1002
}
  0
LINE
  5
1020
  8
NOTE
  6
CONTINUOUS
 10
104.0
 20
440.0
 30
0.0
 11
78.320188402749864
 21
409.331656280191
 31
0.0
  0
LINE
  5
1021
  8
NOTE
  6
CONTINUOUS
 10
-216.4379246685543
 20
215.13289365362971
 30
0.0
 11
104.0
 21
440.0
 31
0.0
  0
LINE
  5
1022
  8
NOTE
  6
CONTINUOUS
 10
104.0
 20
440.0
 30
0.0
 11
66.426459326506119
 21
426.2803421287328
 31
0.0
  0
LINE
  5
1023
  8
NOTE
  6
CONTINUOUS
 10
-178.16427505732551
 20
751.19470693964104
 30
0.0
 11
127.0
 21
506.0
 31
0.0
  0
LINE
  5
1024
  8
NOTE
  6
CONTINUOUS
 10
127.0
 20
506.0
 30
0.0
 11
103.36525684359179
 21
538.27071252355506
 31
0.0
  0
LINE
  5
1025
  8
NOTE
  6
CONTINUOUS
 10
127.0
 20
506.0
 30
0.0
 11
90.396354718192924
 21
522.12988475687996
 31
0.0
  0
LINE
  5
1026
  8
NOTE
  6
CONTINUOUS
 10
165.0
 20
1079.0
 30
0.0
 11
141.36525684359179
 21
1111.2707125235549
 31
0.0
  0
LINE
  5
1027
  8
NOTE
  6
CONTINUOUS
 10
-223.99528590492389
 20
1391.5516088357399
 30
0.0
 11
165.0
 21
1079.0
 31
0.0
  0
LINE
  5
1028
  8
NOTE
  6
CONTINUOUS
 10
165.0
 20
1079.0
 30
0.0
 11
128.3963547181929
 21
1095.1298847568801
 31
0.0
  0
DIMENSION
  5
1055
  8
SIZE
  6
CONTINUOUS
  2
*D49
 10
165.0
 20
1665.390363777339
 30
0.0
 11
0.0000000000000316
 21
1717.3903637773381
 31
0.0
 70
     0
 13
-165.0
 23
1350.0
 33
0.0
 14
165.0
 24
1350.0
 34
0.0
1001
ACAD
1000
DSTYLE
1002
{
1070
   287
1070
     0
1070
    41
1040
10.0
1070
    42
1040
20.0
1070
    43
1040
200.0
1070
    44
1040
30.0
1070
    73
1070
     0
1070
    74
1070
     0
1070
    77
1070
     1
1070
    78
1070
     8
1070
   140
1040
64.0
1070
   147
1040
20.0
1070
   172
1070
     1
1070
   173
1070
     1
1070
   271
1070
     0
1070
   272
1070
     0
1070
   289
1070
     0
1070
   341
1005
719
1070
     6
1000
DOTBLANK
1070
     7
1000
ORIGIN
1002
}
  0
LINE
  5
18F1
  8
DETAIL
  6
CONTINUOUS
 10
-165.0000000000004
 20
1350.0
 30
0.0
 11
165.0000000000004
 21
1350.0
 31
0.0
  0
LINE
  5
1A45
  8
DETAIL
  6
CONTINUOUS
 10
195.0000000000004
 20
717.00000000046055
 30
0.0
 11
165.0000000000004
 21
717.00000000046055
 31
0.0
  0
LINE
  5
1A46
  8
DETAIL
  6
CONTINUOUS
 10
195.0000000000004
 20
717.00000000046055
 30
0.0
 11
195.00000000000091
 21
1295.000000000462
 31
0.0
  0
LINE
  5
1A47
  8
DETAIL
  6
CONTINUOUS
 10
195.00000000000091
 20
1295.000000000462
 30
0.0
 11
165.0000000000004
 21
1295.000000000462
 31
0.0
  0
LINE
  5
1A48
  8
BASIS
  6
DASHDOT
 10
255.42919600000039
 20
1006.0
 30
0.0
 11
105.7262630000004
 21
1006.0
 31
0.0
  0
DIMENSION
  5
1A49
  8
SIZE
  6
CONTINUOUS
  2
*D70
 10
759.2827003104403
 20
1006.0
 30
0.0
 11
707.28270031043996
 21
688.49999999999989
 31
0.0
 70
     0
 13
255.42919599999999
 23
371.0
 33
0.0
 14
255.42919600000039
 24
1006.0
 34
0.0
 50
90.0
1001
ACAD
1000
DSTYLE
1002
{
1070
   287
1070
     0
1070
    41
1040
10.0
1070
    42
1040
20.0
1070
    43
1040
200.0
1070
    44
1040
30.0
1070
    73
1070
     0
1070
    74
1070
     0
1070
    77
1070
     1
1070
    78
1070
     8
1070
   140
1040
64.0
1070
   147
1040
20.0
1070
   172
1070
     1
1070
   173
1070
     1
1070
   271
1070
     0
1070
   272
1070
     0
1070
   289
1070
     0
1070
   341
1005
719
1070
     6
1000
DOTBLANK
1070
     7
1000
ORIGIN
1002
}
  0
LINE
  5
1DE4
  8
OUTLINE
 10
195.0
 20
717.00000000046055
 30
0.0
 11
195.0
 21
1295.000000000462
 31
0.0
  0
LINE
  5
1E20
  8
OUTLINE
 10
165.0
 20
33.000000000000448
 30
0.0
 11
165.0
 21
1350.0
 31
0.0
  0
LINE
  5
1E21
  8
OUTLINE
 10
-165.0
 20
33.000000000000448
 30
0.0
 11
-165.0
 21
1350.0
 31
0.0
  0
LINE
  5
1E24
  8
OUTLINE
 10
195.0
 20
82.000000000460645
 30
0.0
 11
195.0
 21
660.00000000046248
 31
0.0
  0
LINE
  5
1E25
  8
OUTLINE
 10
213.0
 20
33.000000000000448
 30
0.0
 11
-204.0
 21
33.000000000000448
 31
0.0
  0
LINE
  5
1E26
  8
OUTLINE
 10
213.0
 20
0.0000000000004547
 30
0.0
 11
-204.0
 21
0.0000000000004547
 31
0.0
  0
LINE
  5
1E27
  8
OUTLINE
 10
-204.0
 20
0.0000000000004547
 30
0.0
 11
-204.0
 21
33.000000000000448
 31
0.0
  0
LINE
  5
1E28
  8
OUTLINE
 10
213.0
 20
0.0000000000004547
 30
0.0
 11
213.0
 21
33.000000000000448
 31
0.0
  0
LINE
  5
1E29
  8
OUTLINE
 10
195.0
 20
82.000000000460645
 30
0.0
 11
165.0
 21
82.000000000460645
 31
0.0
  0
LINE
  5
1E2A
  8
OUTLINE
 10
195.0
 20
717.00000000046055
 30
0.0
 11
165.0
 21
717.00000000046055
 31
0.0
  0
LINE
  5
1E2B
  8
OUTLINE
 10
195.0
 20
660.00000000046248
 30
0.0
 11
165.0
 21
660.00000000046248
 31
0.0
  0
LINE
  5
1EA1
  8
OUTLINE
 10
-165.0
 20
1350.0
 30
0.0
 11
165.0
 21
1349.9999999999991
 31
0.0
  0
LINE
  5
1EA2
  8
OUTLINE
 10
195.0
 20
1295.000000000462
 30
0.0
 11
165.0
 21
1295.000000000462
 31
0.0
  0
ENDSEC
  0
EOF
