  0
SECTION
  2
HEADER
  9
$ACADVER
  1
AC1012
  9
$DWGCODEPAGE
  3
dos932
  9
$INSBASE
 10
0.0
 20
0.0
 30
0.0
  9
$EXTMIN
 10
-1142.56095011549
 20
-497.3886194677616
 30
-0.0015258207003583
  9
$EXTMAX
 10
1379.770338181079
 20
2195.909131685344
 30
0.0000000349246037
  9
$LIMMIN
 10
-607.8397565879821
 20
-2894.570674133785
  9
$LIMMAX
 10
9610.9599706596
 20
4370.226469669364
  9
$ORTHOMODE
 70
     1
  9
$REGENMODE
 70
     1
  9
$FILLMODE
 70
     1
  9
$QTEXTMODE
 70
     0
  9
$MIRRTEXT
 70
     0
  9
$DRAGMODE
 70
     2
  9
$LTSCALE
 40
20.0
  9
$OSMODE
 70
    55
  9
$ATTMODE
 70
     1
  9
$TEXTSIZE
 40
64.0
  9
$TRACEWID
 40
0.05
  9
$TEXTSTYLE
  7
STANDARD
  9
$CLAYER
  8
OUTLINE
  9
$CELTYPE
  6
CONTINUOUS
  9
$CECOLOR
 62
   256
  9
$CELTSCALE
 40
1.0
  9
$DELOBJ
 70
     1
  9
$DISPSILH
 70
     0
  9
$DIMSCALE
 40
1.0
  9
$DIMASZ
 40
10.0
  9
$DIMEXO
 40
20.0
  9
$DIMDLI
 40
200.0
  9
$DIMRND
 40
0.0
  9
$DIMDLE
 40
0.0
  9
$DIMEXE
 40
20.0
  9
$DIMTP
 40
0.0
  9
$DIMTM
 40
0.0
  9
$DIMTXT
 40
64.0
  9
$DIMCEN
 40
0.082
  9
$DIMTSZ
 40
0.0
  9
$DIMTOL
 70
     0
  9
$DIMLIM
 70
     0
  9
$DIMTIH
 70
     0
  9
$DIMTOH
 70
     0
  9
$DIMSE1
 70
     0
  9
$DIMSE2
 70
     0
  9
$DIMTAD
 70
     1
  9
$DIMZIN
 70
     8
  9
$DIMBLK
  1
ORIGIN
  9
$DIMASO
 70
     1
  9
$DIMSHO
 70
     0
  9
$DIMPOST
  1

  9
$DIMAPOST
  1

  9
$DIMALT
 70
     0
  9
$DIMALTD
 70
     2
  9
$DIMALTF
 40
25.4
  9
$DIMLFAC
 40
1.0
  9
$DIMTOFL
 70
     1
  9
$DIMTVP
 40
0.0
  9
$DIMTIX
 70
     0
  9
$DIMSOXD
 70
     0
  9
$DIMSAH
 70
     0
  9
$DIMBLK1
  1

  9
$DIMBLK2
  1

  9
$DIMSTYLE
  2
STANDARD
  9
$DIMCLRD
 70
     0
  9
$DIMCLRE
 70
     0
  9
$DIMCLRT
 70
     0
  9
$DIMTFAC
 40
1.0
  9
$DIMGAP
 40
10.0
  9
$DIMJUST
 70
     0
  9
$DIMSD1
 70
     0
  9
$DIMSD2
 70
     0
  9
$DIMTOLJ
 70
     1
  9
$DIMTZIN
 70
     0
  9
$DIMALTZ
 70
     0
  9
$DIMALTTZ
 70
     0
  9
$DIMFIT
 70
     3
  9
$DIMUPT
 70
     0
  9
$DIMUNIT
 70
     2
  9
$DIMDEC
 70
     4
  9
$DIMTDEC
 70
     4
  9
$DIMALTU
 70
     2
  9
$DIMALTTD
 70
     2
  9
$DIMTXSTY
  7
STANDARD
  9
$DIMAUNIT
 70
     0
  9
$LUNITS
 70
     2
  9
$LUPREC
 70
     4
  9
$SKETCHINC
 40
0.1
  9
$FILLETRAD
 40
5.0
  9
$AUNITS
 70
     1
  9
$AUPREC
 70
     3
  9
$MENU
  1
ACAD
  9
$ELEVATION
 40
0.0
  9
$PELEVATION
 40
0.0
  9
$THICKNESS
 40
0.0
  9
$LIMCHECK
 70
     0
  9
$BLIPMODE
 70
     0
  9
$CHAMFERA
 40
0.0
  9
$CHAMFERB
 40
0.0
  9
$CHAMFERC
 40
0.0
  9
$CHAMFERD
 40
0.0
  9
$SKPOLY
 70
     0
  9
$TDCREATE
 40
2450330.393205995
  9
$TDUPDATE
 40
2453108.749439733
  9
$TDINDWG
 40
0.7476835532
  9
$TDUSRTIMER
 40
0.7476830093
  9
$USRTIMER
 70
     1
  9
$ANGBASE
 50
0.0
  9
$ANGDIR
 70
     0
  9
$PDMODE
 70
     3
  9
$PDSIZE
 40
-2.0
  9
$PLINEWID
 40
0.0
  9
$COORDS
 70
     0
  9
$SPLFRAME
 70
     0
  9
$SPLINETYPE
 70
     6
  9
$SPLINESEGS
 70
     8
  9
$ATTDIA
 70
     0
  9
$ATTREQ
 70
     1
  9
$HANDLING
 70
-16383
  9
$HANDSEED
  5
BA3E
  9
$SURFTAB1
 70
     6
  9
$SURFTAB2
 70
     6
  9
$SURFTYPE
 70
     6
  9
$SURFU
 70
     6
  9
$SURFV
 70
     6
  9
$UCSNAME
  2

  9
$UCSORG
 10
0.0
 20
0.0
 30
0.0
  9
$UCSXDIR
 10
1.0
 20
0.0
 30
0.0
  9
$UCSYDIR
 10
0.0
 20
1.0
 30
0.0
  9
$PUCSNAME
  2

  9
$PUCSORG
 10
0.0
 20
0.0
 30
0.0
  9
$PUCSXDIR
 10
1.0
 20
0.0
 30
0.0
  9
$PUCSYDIR
 10
0.0
 20
1.0
 30
0.0
  9
$USERI1
 70
     0
  9
$USERI2
 70
     0
  9
$USERI3
 70
     0
  9
$USERI4
 70
     0
  9
$USERI5
 70
     0
  9
$USERR1
 40
20.0
  9
$USERR2
 40
0.0
  9
$USERR3
 40
0.0
  9
$USERR4
 40
0.0
  9
$USERR5
 40
0.0
  9
$WORLDVIEW
 70
     1
  9
$SHADEDGE
 70
     3
  9
$SHADEDIF
 70
    70
  9
$TILEMODE
 70
     1
  9
$MAXACTVP
 70
    64
  9
$PINSBASE
 10
0.0
 20
0.0
 30
0.0
  9
$PLIMCHECK
 70
     0
  9
$PEXTMIN
 10
1.000000000000000E+20
 20
1.000000000000000E+20
 30
1.000000000000000E+20
  9
$PEXTMAX
 10
-1.000000000000000E+20
 20
-1.000000000000000E+20
 30
-1.000000000000000E+20
  9
$PLIMMIN
 10
0.0
 20
0.0
  9
$PLIMMAX
 10
12.0
 20
9.0
  9
$UNITMODE
 70
     0
  9
$VISRETAIN
 70
     1
  9
$PLINEGEN
 70
     0
  9
$PSLTSCALE
 70
     1
  9
$TREEDEPTH
 70
  3020
  9
$PICKSTYLE
 70
     1
  9
$CMLSTYLE
  2
STANDARD
  9
$CMLJUST
 70
     0
  9
$CMLSCALE
 40
1.0
  9
$SAVEIMAGES
 70
     1
  0
ENDSEC
  0
SECTION
  2
CLASSES
  0
CLASS
  1
ACDBDICTIONARYWDFLT
  2
AcDbDictionaryWithDefault
  3
AutoCAD 2000
 90
    32768
280
     0
281
     0
  0
CLASS
  1
ACDBPLACEHOLDER
  2
AcDbPlaceHolder
  3
AutoCAD 2000
 90
    32768
280
     0
281
     0
  0
CLASS
  1
LAYOUT
  2
AcDbLayout
  3
AutoCAD 2000
 90
    32768
280
     0
281
     0
  0
CLASS
  1
LONG_TRANSACTION
  2
AcDbLongTransaction
  3
AutoCAD 2000
 90
    32768
280
     0
281
     0
  0
CLASS
  1
LWPOLYLINE
  2
AcDbPolyline
  3
AutoCAD 2000
 90
    32768
280
     0
281
     1
  0
CLASS
  1
HATCH
  2
AcDbHatch
  3
AutoCAD 2000
 90
    32768
280
     0
281
     1
  0
CLASS
  1
XRECORD
  2
AcDbXrecord
  3
AutoCAD 2000
 90
    32768
280
     0
281
     0
  0
ENDSEC
  0
SECTION
  2
TABLES
  0
TABLE
  2
VPORT
  5
73C9
330
0
100
AcDbSymbolTable
 70
     4
  0
VPORT
  5
BA13
330
73C9
100
AcDbSymbolTableRecord
100
AcDbViewportTableRecord
  2
*ACTIVE
 70
     0
 10
0.0
 20
0.0
 11
1.0
 21
1.0
 12
466.7705038269978
 22
699.4210094181592
 13
0.0
 23
0.0
 14
50.0
 24
50.0
 15
100.0
 25
100.0
 16
0.0
 26
0.0
 36
1.0
 17
0.0
 27
0.0
 37
0.0
 40
3536.190896044269
 41
1.130434782608695
 42
50.0
 43
0.0
 44
0.0
 50
0.0
 51
0.0
 71
     0
 72
   500
 73
     1
 74
     0
 75
     0
 76
     0
 77
     0
 78
     0
  0
ENDTAB
  0
TABLE
  2
LTYPE
  5
73C6
330
0
100
AcDbSymbolTable
 70
    15
  0
LTYPE
  5
73D4
330
73C6
100
AcDbSymbolTableRecord
100
AcDbLinetypeTableRecord
  2
BYBLOCK
 70
     0
  3

 72
    65
 73
     0
 40
0.0
  0
LTYPE
  5
73D5
330
73C6
100
AcDbSymbolTableRecord
100
AcDbLinetypeTableRecord
  2
BYLAYER
 70
     0
  3

 72
    65
 73
     0
 40
0.0
  0
LTYPE
  5
73D6
330
73C6
100
AcDbSymbolTableRecord
100
AcDbLinetypeTableRecord
  2
CONTINUOUS
 70
     0
  3
実線
 72
    65
 73
     0
 40
0.0
  0
LTYPE
  5
73E5
330
73C6
100
AcDbSymbolTableRecord
100
AcDbLinetypeTableRecord
  2
DASHDOT
 70
     0
  3
____ _ ____ _ ____ _ ____ _ ____ _ ____ _ ____
 72
    65
 73
     4
 40
5.5
 49
4.0
 74
     0
 49
-0.6
 74
     0
 49
0.3
 74
     0
 49
-0.6
 74
     0
  0
LTYPE
  5
73E6
330
73C6
100
AcDbSymbolTableRecord
100
AcDbLinetypeTableRecord
  2
CONTINOUS
 70
     0
  3
Solid line
 72
    65
 73
     0
 40
0.0
  0
LTYPE
  5
73E7
330
73C6
100
AcDbSymbolTableRecord
100
AcDbLinetypeTableRecord
  2
BORDER
 70
     0
  3
BORDER
 72
    65
 73
     6
 40
1.75
 49
0.5
 74
     0
 49
-0.25
 74
     0
 49
0.5
 74
     0
 49
-0.25
 74
     0
 49
0.0
 74
     0
 49
-0.25
 74
     0
  0
LTYPE
  5
73E8
330
73C6
100
AcDbSymbolTableRecord
100
AcDbLinetypeTableRecord
  2
CENTER
 70
     0
  3
CENTER
 72
    65
 73
     4
 40
2.0
 49
1.25
 74
     0
 49
-0.25
 74
     0
 49
0.25
 74
     0
 49
-0.25
 74
     0
  0
LTYPE
  5
73E9
330
73C6
100
AcDbSymbolTableRecord
100
AcDbLinetypeTableRecord
  2
DASHED
 70
     0
  3
DASHED
 72
    65
 73
     2
 40
0.75
 49
0.5
 74
     0
 49
-0.25
 74
     0
  0
LTYPE
  5
73EA
330
73C6
100
AcDbSymbolTableRecord
100
AcDbLinetypeTableRecord
  2
DIVIDE
 70
     0
  3
DIVIDE
 72
    65
 73
     6
 40
1.25
 49
0.5
 74
     0
 49
-0.25
 74
     0
 49
0.0
 74
     0
 49
-0.25
 74
     0
 49
0.0
 74
     0
 49
-0.25
 74
     0
  0
LTYPE
  5
73EB
330
73C6
100
AcDbSymbolTableRecord
100
AcDbLinetypeTableRecord
  2
DOT
 70
     0
  3
DOT
 72
    65
 73
     2
 40
0.25
 49
0.0
 74
     0
 49
-0.25
 74
     0
  0
LTYPE
  5
73EC
330
73C6
100
AcDbSymbolTableRecord
100
AcDbLinetypeTableRecord
  2
HIDDEN
 70
     0
  3
HIDDEN
 72
    65
 73
     2
 40
0.375
 49
0.25
 74
     0
 49
-0.125
 74
     0
  0
LTYPE
  5
73ED
330
73C6
100
AcDbSymbolTableRecord
100
AcDbLinetypeTableRecord
  2
PHANTOM
 70
     0
  3
PHANTOM
 72
    65
 73
     6
 40
2.5
 49
1.25
 74
     0
 49
-0.25
 74
     0
 49
0.25
 74
     0
 49
-0.25
 74
     0
 49
0.25
 74
     0
 49
-0.25
 74
     0
  0
LTYPE
  5
73EE
330
73C6
100
AcDbSymbolTableRecord
100
AcDbLinetypeTableRecord
  2
$INVISIBLE
 70
     0
  3
$INVISIBLE
 72
    65
 73
     2
 40
200.0
 49
-100.0
 74
     0
 49
-100.0
 74
     0
  0
LTYPE
  5
73EF
330
73C6
100
AcDbSymbolTableRecord
100
AcDbLinetypeTableRecord
  2
$MARGINS
 70
     0
  3
$MARGINS
 72
    65
 73
     2
 40
0.075
 49
0.05
 74
     0
 49
-0.025
 74
     0
  0
LTYPE
  5
73F0
330
73C6
100
AcDbSymbolTableRecord
100
AcDbLinetypeTableRecord
  2
JLSTYLE_0
 70
     0
  3
JLSTYLE_0
 72
    65
 73
     4
 40
1.0
 49
0.5
 74
     0
 49
-0.25
 74
     0
 49
0.0
 74
     0
 49
-0.25
 74
     0
  0
LTYPE
  5
73F1
330
73C6
100
AcDbSymbolTableRecord
100
AcDbLinetypeTableRecord
  2
JLSTYLE_1
 70
     0
  3
JLSTYLE_1
 72
    65
 73
     2
 40
0.75
 49
0.5
 74
     0
 49
-0.25
 74
     0
  0
LTYPE
  5
73F2
330
73C6
100
AcDbSymbolTableRecord
100
AcDbLinetypeTableRecord
  2
JLSTYLE_2
 70
     0
  3
JLSTYLE_2
 72
    65
 73
     6
 40
1.25
 49
0.5
 74
     0
 49
-0.25
 74
     0
 49
0.0
 74
     0
 49
-0.25
 74
     0
 49
0.0
 74
     0
 49
-0.25
 74
     0
  0
ENDTAB
  0
TABLE
  2
LAYER
  5
73C3
330
0
100
AcDbSymbolTable
 70
    14
  0
LAYER
  5
73D1
330
73C3
100
AcDbSymbolTableRecord
100
AcDbLayerTableRecord
  2
0
 70
     0
 62
     7
  6
CONTINUOUS
  0
LAYER
  5
73E3
330
73C3
100
AcDbSymbolTableRecord
100
AcDbLayerTableRecord
  2
OUTLINE
 70
     0
 62
     3
  6
CONTINUOUS
  0
LAYER
  5
73F3
330
73C3
100
AcDbSymbolTableRecord
100
AcDbLayerTableRecord
  2
SIZE
 70
     0
 62
    32
  6
CONTINUOUS
  0
LAYER
  5
73F4
330
73C3
100
AcDbSymbolTableRecord
100
AcDbLayerTableRecord
  2
DETAIL
 70
     0
 62
     5
  6
CONTINUOUS
  0
LAYER
  5
73F5
330
73C3
100
AcDbSymbolTableRecord
100
AcDbLayerTableRecord
  2
BASIS
 70
     0
 62
     6
  6
CONTINUOUS
  0
LAYER
  5
73F6
330
73C3
100
AcDbSymbolTableRecord
100
AcDbLayerTableRecord
  2
NOTE
 70
     0
 62
     4
  6
CONTINUOUS
  0
LAYER
  5
73F7
330
73C3
100
AcDbSymbolTableRecord
100
AcDbLayerTableRecord
  2
ARRANGE
 70
     0
 62
     1
  6
CONTINUOUS
  0
LAYER
  5
73F8
330
73C3
100
AcDbSymbolTableRecord
100
AcDbLayerTableRecord
  2
FIX
 70
     0
 62
   241
  6
CONTINUOUS
  0
LAYER
  5
73F9
330
73C3
100
AcDbSymbolTableRecord
100
AcDbLayerTableRecord
  2
ETC
 70
     0
 62
    83
  6
CONTINUOUS
  0
LAYER
  5
73FA
330
73C3
100
AcDbSymbolTableRecord
100
AcDbLayerTableRecord
  2
SERVICESPACE
 70
     0
 62
     2
  6
CONTINUOUS
  0
LAYER
  5
73FB
330
73C3
100
AcDbSymbolTableRecord
100
AcDbLayerTableRecord
  2
SYMBOLLINE
 70
     0
 62
    38
  6
CONTINUOUS
  0
LAYER
  5
73FC
330
73C3
100
AcDbSymbolTableRecord
100
AcDbLayerTableRecord
  2
DEFPOINTS
 70
     0
 62
     7
  6
CONTINUOUS
  0
LAYER
  5
73FD
330
73C3
100
AcDbSymbolTableRecord
100
AcDbLayerTableRecord
  2
SERVICE_SPACE
 70
     0
 62
     2
  6
CONTINUOUS
  0
LAYER
  5
73FE
330
73C3
100
AcDbSymbolTableRecord
100
AcDbLayerTableRecord
  2
16
 70
     0
 62
   150
  6
CONTINUOUS
  0
ENDTAB
  0
TABLE
  2
STYLE
  5
73C4
330
0
100
AcDbSymbolTable
 70
     2
  0
STYLE
  5
73D2
330
73C4
100
AcDbSymbolTableRecord
100
AcDbTextStyleTableRecord
  2
STANDARD
 70
     0
 40
0.0
 41
0.9
 50
0.0
 71
     0
 42
64.0
  3
SIMPLEX
  4
BIGFONT
  0
STYLE
  5
73FF
330
73C4
100
AcDbSymbolTableRecord
100
AcDbTextStyleTableRecord
  2
STANDARD1
 70
     0
 40
0.0
 41
1.0
 50
0.0
 71
     0
 42
3.5
  3
MONOTXT
  4
BIGFONT
  0
ENDTAB
  0
TABLE
  2
VIEW
  5
73C7
330
0
100
AcDbSymbolTable
 70
     1
  0
VIEW
  5
7400
330
73C7
100
AcDbSymbolTableRecord
100
AcDbViewTableRecord
  2
ALL
 70
     0
 40
4282.62
 10
0.0
 20
41.30990399999999
 41
5940.0
 11
0.0
 21
0.0
 31
1.0
 12
0.0
 22
0.0
 32
0.0
 42
50.0
 43
0.0
 44
0.0
 50
0.0
 71
     0
  0
ENDTAB
  0
TABLE
  2
UCS
  5
73C8
330
0
100
AcDbSymbolTable
 70
     0
  0
ENDTAB
  0
TABLE
  2
APPID
  5
73CA
330
0
100
AcDbSymbolTable
 70
     1
  0
APPID
  5
73D3
330
73CA
100
AcDbSymbolTableRecord
100
AcDbRegAppTableRecord
  2
ACAD
 70
     0
  0
ENDTAB
  0
TABLE
  2
DIMSTYLE
  5
73CB
330
0
100
AcDbSymbolTable
 70
     1
  0
DIMSTYLE
105
7401
102
{ACAD_REACTORS
330
A408
330
A415
102
}
330
73CB
100
AcDbSymbolTableRecord
100
AcDbDimStyleTableRecord
  2
STANDARD
 70
     0
  3

  4

  5

  6

  7

 40
1.0
 41
0.18
 42
0.0625
 43
0.38
 44
0.18
 45
0.0
 46
0.0
 47
0.0
 48
0.0
140
0.18
141
0.09
142
0.0
143
25.4
144
1.0
145
0.0
146
1.0
147
0.09
 71
     0
 72
     0
 73
     1
 74
     1
 75
     0
 76
     0
 77
     0
 78
     0
170
     0
171
     2
172
     0
173
     0
174
     0
175
     0
176
     0
177
     0
178
     0
270
     2
271
     4
272
     4
273
     2
274
     2
340
73D2
275
     1
280
     0
281
     0
282
     0
283
     1
284
     8
285
     8
286
     8
287
     5
288
     0
  0
ENDTAB
  0
TABLE
  2
BLOCK_RECORD
  5
73C2
330
0
100
AcDbSymbolTable
 70
     7
  0
BLOCK_RECORD
  5
73DF
102
{ACAD_XDICTIONARY
360
BA16
102
}
330
73C2
100
AcDbSymbolTableRecord
100
AcDbBlockTableRecord
  2
*MODEL_SPACE
  0
BLOCK_RECORD
  5
73DB
102
{ACAD_XDICTIONARY
360
BA14
102
}
330
73C2
100
AcDbSymbolTableRecord
100
AcDbBlockTableRecord
  2
*PAPER_SPACE
  0
BLOCK_RECORD
  5
7405
330
73C2
100
AcDbSymbolTableRecord
100
AcDbBlockTableRecord
  2
$MODEL_SPACE
  0
BLOCK_RECORD
  5
7408
330
73C2
100
AcDbSymbolTableRecord
100
AcDbBlockTableRecord
  2
$PAPER_SPACE
  0
BLOCK_RECORD
  5
740B
330
73C2
100
AcDbSymbolTableRecord
100
AcDbBlockTableRecord
  2
_ORIGIN
  0
BLOCK_RECORD
  5
7410
330
73C2
100
AcDbSymbolTableRecord
100
AcDbBlockTableRecord
  2
_DOTBLANK
  0
BLOCK_RECORD
  5
7415
330
73C2
100
AcDbSymbolTableRecord
100
AcDbBlockTableRecord
  2
_NONE
  0
BLOCK_RECORD
  5
A409
330
73C2
100
AcDbSymbolTableRecord
100
AcDbBlockTableRecord
  2
*D5
  0
BLOCK_RECORD
  5
A416
330
73C2
100
AcDbSymbolTableRecord
100
AcDbBlockTableRecord
  2
*D6
  0
ENDTAB
  0
ENDSEC
  0
SECTION
  2
BLOCKS
  0
BLOCK
  5
73E0
330
73DF
100
AcDbEntity
  8
0
100
AcDbBlockBegin
  2
*MODEL_SPACE
 70
     0
 10
0.0
 20
0.0
 30
0.0
  3
*MODEL_SPACE
  1

  0
ENDBLK
  5
73E1
330
73DF
100
AcDbEntity
  8
0
100
AcDbBlockEnd
  0
BLOCK
  5
73DC
330
73DB
100
AcDbEntity
 67
     1
  8
0
100
AcDbBlockBegin
  2
*PAPER_SPACE
 70
     0
 10
0.0
 20
0.0
 30
0.0
  3
*PAPER_SPACE
  1

  0
ENDBLK
  5
73DD
330
73DB
100
AcDbEntity
 67
     1
  8
0
100
AcDbBlockEnd
  0
BLOCK
  5
7406
330
7405
100
AcDbEntity
  8
0
100
AcDbBlockBegin
  2
$MODEL_SPACE
 70
     0
 10
0.0
 20
0.0
 30
0.0
  3
$MODEL_SPACE
  1

  0
ENDBLK
  5
7407
330
7405
100
AcDbEntity
  8
0
100
AcDbBlockEnd
  0
BLOCK
  5
7409
330
7408
100
AcDbEntity
  8
0
100
AcDbBlockBegin
  2
$PAPER_SPACE
 70
     0
 10
0.0
 20
0.0
 30
0.0
  3
$PAPER_SPACE
  1

  0
ENDBLK
  5
740A
330
7408
100
AcDbEntity
  8
0
100
AcDbBlockEnd
  0
BLOCK
  5
740C
330
740B
100
AcDbEntity
  8
0
100
AcDbBlockBegin
  2
_ORIGIN
 70
     0
 10
0.0
 20
0.0
 30
0.0
  3
_ORIGIN
  1

  0
CIRCLE
  5
740D
330
740B
100
AcDbEntity
  8
0
  6
BYBLOCK
 62
     0
100
AcDbCircle
 10
0.0
 20
0.0
 30
0.0
 40
0.5
  0
LINE
  5
740E
330
740B
100
AcDbEntity
  8
0
  6
BYBLOCK
 62
     0
100
AcDbLine
 10
0.0
 20
0.0
 30
0.0
 11
-1.0
 21
0.0
 31
0.0
  0
ENDBLK
  5
740F
330
740B
100
AcDbEntity
  8
0
100
AcDbBlockEnd
  0
BLOCK
  5
7411
330
7410
100
AcDbEntity
  8
0
100
AcDbBlockBegin
  2
_DOTBLANK
 70
     0
 10
0.0
 20
0.0
 30
0.0
  3
_DOTBLANK
  1

  0
CIRCLE
  5
7412
330
7410
100
AcDbEntity
  8
0
  6
BYBLOCK
 62
     0
100
AcDbCircle
 10
0.0
 20
0.0
 30
0.0
 40
0.5
  0
LINE
  5
7413
330
7410
100
AcDbEntity
  8
0
  6
BYBLOCK
 62
     0
100
AcDbLine
 10
-0.5
 20
0.0
 30
0.0
 11
-1.0
 21
0.0
 31
0.0
  0
ENDBLK
  5
7414
330
7410
100
AcDbEntity
  8
0
100
AcDbBlockEnd
  0
BLOCK
  5
7416
330
7415
100
AcDbEntity
  8
0
100
AcDbBlockBegin
  2
_NONE
 70
     0
 10
0.0
 20
0.0
 30
0.0
  3
_NONE
  1

  0
ENDBLK
  5
7417
330
7415
100
AcDbEntity
  8
0
100
AcDbBlockEnd
  0
BLOCK
  5
A413
330
A409
100
AcDbEntity
  8
0
100
AcDbBlockBegin
  2
*D5
 70
     1
 10
0.0
 20
0.0
 30
0.0
  3
*D5
  1

  0
LINE
  5
BA2C
330
A409
100
AcDbEntity
  8
SIZE
  6
CONTINUOUS
 62
     0
100
AcDbLine
 10
-20.0
 20
0.0000000000013699
 30
0.0
 11
-654.650003793091
 21
0.0000000000015497
 31
0.0
  0
LINE
  5
BA2D
330
A409
100
AcDbEntity
  8
SIZE
  6
CONTINUOUS
 62
     0
100
AcDbLine
 10
-319.999999999989
 20
364.0000000000231
 30
0.0
 11
-654.6500037930909
 21
364.0000000000233
 31
0.0
  0
LINE
  5
BA2E
330
A409
100
AcDbEntity
  8
SIZE
  6
CONTINUOUS
 62
     0
100
AcDbLine
 10
-634.650003793091
 20
10.00000000000154
 30
0.0
 11
-634.6500037930909
 21
354.0000000000232
 31
0.0
  0
INSERT
  5
BA2F
330
A409
100
AcDbEntity
  8
SIZE
  6
CONTINUOUS
 62
     0
100
AcDbBlockReference
  2
_ORIGIN
 10
-634.650003793091
 20
0.000000000001544
 30
0.0
 41
10.0
 42
10.0
 43
10.0
 50
270.0
  0
INSERT
  5
BA30
330
A409
100
AcDbEntity
  8
SIZE
  6
CONTINUOUS
 62
     0
100
AcDbBlockReference
  2
_ORIGIN
 10
-634.6500037930909
 20
364.0000000000232
 30
0.0
 41
10.0
 42
10.0
 43
10.0
 50
90.0
  0
MTEXT
  5
BA31
330
A409
100
AcDbEntity
  8
SIZE
  6
CONTINUOUS
 62
     0
100
AcDbMText
 10
-676.650003793091
 20
182.0000000000123
 30
0.0
 40
64.0
 41
0.0
 71
     5
 72
     1
  1
\A1;364
 11
0.0000000000000001
 21
1.0
 31
0.0
  0
POINT
  5
BA32
330
A409
100
AcDbEntity
  8
DEFPOINTS
  6
CONTINUOUS
 62
     0
100
AcDbPoint
 10
0.0
 20
0.0000000000013642
 30
0.0
  0
POINT
  5
BA33
330
A409
100
AcDbEntity
  8
DEFPOINTS
  6
CONTINUOUS
 62
     0
100
AcDbPoint
 10
-299.999999999989
 20
364.0000000000231
 30
0.0
  0
POINT
  5
BA34
330
A409
100
AcDbEntity
  8
DEFPOINTS
  6
CONTINUOUS
 62
     0
100
AcDbPoint
 10
-634.6500037930909
 20
364.0000000000232
 30
0.0
  0
ENDBLK
  5
A414
330
A409
100
AcDbEntity
  8
0
100
AcDbBlockEnd
  0
BLOCK
  5
A420
330
A416
100
AcDbEntity
  8
0
100
AcDbBlockBegin
  2
*D6
 70
     1
 10
0.0
 20
0.0
 30
0.0
  3
*D6
  1

  0
LINE
  5
BA35
330
A416
100
AcDbEntity
  8
SIZE
  6
CONTINUOUS
 62
     0
100
AcDbLine
 10
-20.0
 20
0.0000000000000057
 30
0.0
 11
-760.353398690294
 21
0.0000000000002154
 31
0.0
  0
LINE
  5
BA36
330
A416
100
AcDbEntity
  8
SIZE
  6
CONTINUOUS
 62
     0
100
AcDbLine
 10
-249.9999999999854
 20
435.0000000000341
 30
0.0
 11
-760.3533986902939
 21
435.0000000000342
 31
0.0
  0
LINE
  5
BA37
330
A416
100
AcDbEntity
  8
SIZE
  6
CONTINUOUS
 62
     0
100
AcDbLine
 10
-740.3533986902941
 20
10.00000000000021
 30
0.0
 11
-740.3533986902939
 21
425.0000000000342
 31
0.0
  0
INSERT
  5
BA38
330
A416
100
AcDbEntity
  8
SIZE
  6
CONTINUOUS
 62
     0
100
AcDbBlockReference
  2
_ORIGIN
 10
-740.3533986902941
 20
0.0000000000002097
 30
0.0
 41
10.0
 42
10.0
 43
10.0
 50
270.0
  0
INSERT
  5
BA39
330
A416
100
AcDbEntity
  8
SIZE
  6
CONTINUOUS
 62
     0
100
AcDbBlockReference
  2
_ORIGIN
 10
-740.3533986902939
 20
435.0000000000342
 30
0.0
 41
10.0
 42
10.0
 43
10.0
 50
90.0
  0
MTEXT
  5
BA3A
330
A416
100
AcDbEntity
  8
SIZE
  6
CONTINUOUS
 62
     0
100
AcDbMText
 10
-782.353398690294
 20
217.5000000000171
 30
0.0
 40
64.0
 41
0.0
 71
     5
 72
     1
  1
\A1;435
 11
0.0000000000000001
 21
1.0
 31
0.0
  0
POINT
  5
BA3B
330
A416
100
AcDbEntity
  8
DEFPOINTS
  6
CONTINUOUS
 62
     0
100
AcDbPoint
 10
0.0
 20
0.0
 30
0.0
  0
POINT
  5
BA3C
330
A416
100
AcDbEntity
  8
DEFPOINTS
  6
CONTINUOUS
 62
     0
100
AcDbPoint
 10
-229.9999999999854
 20
435.0000000000341
 30
0.0
  0
POINT
  5
BA3D
330
A416
100
AcDbEntity
  8
DEFPOINTS
  6
CONTINUOUS
 62
     0
100
AcDbPoint
 10
-740.3533986902939
 20
435.0000000000342
 30
0.0
  0
ENDBLK
  5
A421
330
A416
100
AcDbEntity
  8
0
100
AcDbBlockEnd
  0
ENDSEC
  0
SECTION
  2
ENTITIES
  0
TEXT
  5
8F77
330
73DF
100
AcDbEntity
  8
NOTE
100
AcDbText
 10
-889.6993306898439
 20
700.1161994939121
 30
0.0
 40
64.0
  1
EL %%c40
 41
0.9
100
AcDbText
  0
TEXT
  5
8F78
330
73DF
100
AcDbEntity
  8
SIZE
100
AcDbText
 10
1069.799542536657
 20
683.0022019476796
 30
0.0
 40
64.0
  1
1457
 50
90.0
 41
0.9
100
AcDbText
  0
LINE
  5
8F79
330
73DF
100
AcDbEntity
  8
SIZE
100
AcDbLine
 10
1190.527607150958
 20
1797.157018355843
 30
0.0
 11
1190.527607150954
 21
0.0000000000022737
 31
0.0
  0
LINE
  5
8F7A
330
73DF
100
AcDbEntity
  8
SIZE
100
AcDbLine
 10
1089.474291379114
 20
1457.0
 30
0.0
 11
1089.474291379113
 21
0.0000000000027285
 31
0.0
  0
LINE
  5
8F7B
330
73DF
100
AcDbEntity
  8
SIZE
100
AcDbLine
 10
986.3823145482284
 20
1457.0
 30
0.0
 11
986.3823145482284
 21
666.8000000000006
 31
0.0
  0
LINE
  5
8F7C
330
73DF
100
AcDbEntity
  8
BASIS
  6
DASHDOT
 62
     6
100
AcDbLine
 10
0.0
 20
1881.670165429203
 30
0.0
 11
0.0
 21
-44.29287544164572
 31
0.0
  0
LINE
  5
8F7D
330
73DF
100
AcDbEntity
  8
DETAIL
  6
CONTINUOUS
100
AcDbLine
 10
394.0000000000009
 20
666.8000000000015
 30
0.0
 11
394.0000000000009
 21
1457.000000000002
 31
0.0
  0
LINE
  5
8F7E
330
73DF
100
AcDbEntity
  8
DETAIL
  6
CONTINUOUS
100
AcDbLine
 10
181.5000000000009
 20
675.0000000000014
 30
0.0
 11
181.5000000000009
 21
1447.000000000002
 31
0.0
  0
LINE
  5
8F7F
330
73DF
100
AcDbEntity
  8
DETAIL
  6
CONTINUOUS
100
AcDbLine
 10
178.4999999999991
 20
675.0000000000014
 30
0.0
 11
178.4999999999991
 21
1447.000000000002
 31
0.0
  0
LINE
  5
8F80
330
73DF
100
AcDbEntity
  8
DETAIL
  6
CONTINUOUS
100
AcDbLine
 10
361.5000000000009
 20
677.0000000000013
 30
0.0
 11
361.5000000000009
 21
1437.000000000002
 31
0.0
  0
LINE
  5
8F81
330
73DF
100
AcDbEntity
  8
DETAIL
  6
CONTINUOUS
100
AcDbLine
 10
358.4999999999991
 20
677.0000000000013
 30
0.0
 11
358.4999999999991
 21
1437.000000000002
 31
0.0
  0
LINE
  5
8F82
330
73DF
100
AcDbEntity
  8
DETAIL
  6
CONTINUOUS
100
AcDbLine
 10
-394.0000000000009
 20
666.8000000000015
 30
0.0
 11
-394.0000000000009
 21
1457.000000000002
 31
0.0
  0
LINE
  5
8F83
330
73DF
100
AcDbEntity
  8
DETAIL
  6
CONTINUOUS
100
AcDbLine
 10
-1.500000000000909
 20
677.0000000000013
 30
0.0
 11
-1.500000000000909
 21
1437.000000000002
 31
0.0
  0
LINE
  5
8F84
330
73DF
100
AcDbEntity
  8
DETAIL
  6
CONTINUOUS
100
AcDbLine
 10
1.500000000000909
 20
677.0000000000013
 30
0.0
 11
1.500000000000909
 21
1437.000000000002
 31
0.0
  0
LINE
  5
8F85
330
73DF
100
AcDbEntity
  8
DETAIL
  6
CONTINUOUS
100
AcDbLine
 10
-358.4999999999991
 20
677.0000000000013
 30
0.0
 11
-358.4999999999991
 21
1437.000000000002
 31
0.0
  0
LINE
  5
8F86
330
73DF
100
AcDbEntity
  8
DETAIL
  6
CONTINUOUS
100
AcDbLine
 10
-361.5000000000009
 20
677.0000000000013
 30
0.0
 11
-361.5000000000009
 21
1437.000000000002
 31
0.0
  0
LINE
  5
8F87
330
73DF
100
AcDbEntity
  8
DETAIL
  6
CONTINUOUS
100
AcDbLine
 10
-178.4999999999991
 20
675.0000000000014
 30
0.0
 11
-178.4999999999991
 21
1447.000000000002
 31
0.0
  0
LINE
  5
8F88
330
73DF
100
AcDbEntity
  8
DETAIL
  6
CONTINUOUS
100
AcDbLine
 10
-181.5000000000009
 20
675.0000000000014
 30
0.0
 11
-181.5000000000009
 21
1447.000000000002
 31
0.0
  0
LINE
  5
8F8A
330
73DF
100
AcDbEntity
  8
DETAIL
  6
CONTINUOUS
100
AcDbLine
 10
450.0000000000008
 20
96.8000000000061
 30
0.0
 11
450.0000000000008
 21
1457.000000000002
 31
0.0
  0
LINE
  5
8F8B
330
73DF
100
AcDbEntity
  8
DETAIL
  6
CONTINUOUS
100
AcDbLine
 10
415.9999999999991
 20
96.8000000000061
 30
0.0
 11
415.9999999999991
 21
1457.000000000002
 31
0.0
  0
LINE
  5
8F8C
330
73DF
100
AcDbEntity
  8
DETAIL
  6
CONTINUOUS
100
AcDbLine
 10
-450.0
 20
96.80000000000063
 30
0.0
 11
-450.0
 21
1457.0
 31
0.0
  0
LINE
  5
8F8D
330
73DF
100
AcDbEntity
  8
DETAIL
  6
CONTINUOUS
100
AcDbLine
 10
-415.9999999999991
 20
96.80000000000156
 30
0.0
 11
-415.9999999999991
 21
1457.000000000002
 31
0.0
  0
TEXT
  5
8F8E
330
73DF
100
AcDbEntity
  8
NOTE
100
AcDbText
 10
543.2509563126159
 20
-257.4797148491729
 30
0.0
 40
64.0
  1
AH 2×2-12×28長穴
 41
0.9
100
AcDbText
  0
LINE
  5
8F8F
330
73DF
100
AcDbEntity
  8
NOTE
100
AcDbLine
 10
504.6346300118302
 20
-274.4134818491734
 30
0.0
 11
1379.137289080408
 21
-274.4134818491711
 31
0.0
  0
LINE
  5
8F90
330
73DF
100
AcDbEntity
  8
SIZE
100
AcDbLine
 10
1209.901355662992
 20
0.0000000000022737
 30
0.0
 11
450.5371334806049
 21
0.000000000003638
 31
0.0
  0
LINE
  5
8F91
330
73DF
100
AcDbEntity
  8
SIZE
100
AcDbLine
 10
1013.609764344673
 20
666.800000000001
 30
0.0
 11
434.5371334806031
 21
666.800000000002
 31
0.0
  0
LINE
  5
8F93
330
73DF
100
AcDbEntity
  8
NOTE
100
AcDbLine
 10
-1142.081894414476
 20
-137.3200733313747
 30
0.0
 11
-689.7495608046756
 21
-137.3200733313747
 31
0.0
  0
TEXT
  5
8F94
330
73DF
100
AcDbEntity
  8
NOTE
100
AcDbText
 10
-1126.400580815839
 20
-118.5517523313756
 30
0.0
 40
64.0
  1
RG %%c25.4
 41
0.9
100
AcDbText
  0
TEXT
  5
8F95
330
73DF
100
AcDbEntity
  8
NOTE
100
AcDbText
 10
-1022.325397589885
 20
-383.3689318833285
 30
0.0
 40
64.0
  1
RL %%c12.7
 41
0.9
100
AcDbText
  0
LINE
  5
8F96
330
73DF
100
AcDbEntity
  8
NOTE
100
AcDbLine
 10
-1055.705271377516
 20
-412.161345883328
 30
0.0
 11
-596.2713335981479
 21
-412.161345883328
 31
0.0
  0
TEXT
  5
8F97
330
73DF
100
AcDbEntity
  8
NOTE
100
AcDbText
 10
-886.2552948281136
 20
593.7987094436889
 30
0.0
 40
64.0
  1
CL%%c27
 41
0.9
100
AcDbText
  0
LINE
  5
8F98
330
73DF
100
AcDbEntity
  8
NOTE
100
AcDbLine
 10
-884.6401959755567
 20
674.6542804939126
 30
0.0
 11
-591.1486305390035
 21
674.6542804939126
 31
0.0
  0
LINE
  5
8F99
330
73DF
100
AcDbEntity
  8
NOTE
100
AcDbLine
 10
-915.5623458281116
 20
573.3459744436895
 30
0.0
 11
-554.5732301004427
 21
573.3459744436895
 31
0.0
  0
LINE
  5
8F9A
330
73DF
100
AcDbEntity
  8
SIZE
100
AcDbLine
 10
450.0000000000008
 20
-496.8480689258081
 30
0.0
 11
450.0000000000008
 21
-60.40470051090733
 31
0.0
  0
TEXT
  5
8F9B
330
73DF
100
AcDbEntity
  8
SIZE
100
AcDbText
 10
-61.59306074197775
 20
-441.2107006266423
 30
0.0
 40
64.0
  1
900
 41
0.9
100
AcDbText
  0
LINE
  5
8F9C
330
73DF
100
AcDbEntity
  8
SIZE
100
AcDbLine
 10
-450.0
 20
-496.8480689258081
 30
0.0
 11
-450.0
 21
-60.40470051090733
 31
0.0
  0
LINE
  5
8F9D
330
73DF
100
AcDbEntity
  8
SIZE
100
AcDbLine
 10
-450.0
 20
-461.2190153612732
 30
0.0
 11
450.0000000000008
 21
-461.2190153612732
 31
0.0
  0
CIRCLE
  5
8F9E
330
73DF
100
AcDbEntity
  8
SIZE
100
AcDbCircle
 10
-450.0
 20
-461.2190153612732
 30
0.0
 40
6.0
  0
CIRCLE
  5
8F9F
330
73DF
100
AcDbEntity
  8
SIZE
100
AcDbCircle
 10
450.0000000000008
 20
-461.2190153612732
 30
0.0
 40
6.0
  0
TEXT
  5
8FA1
330
73DF
100
AcDbEntity
  8
SIZE
100
AcDbText
 10
-66.19965856310227
 20
-320.3910379734238
 30
0.0
 40
64.0
  1
560
 41
0.9
100
AcDbText
  0
LINE
  5
8FA2
330
73DF
100
AcDbEntity
  8
SIZE
100
AcDbLine
 10
-450.0
 20
-338.2850180691507
 30
0.0
 11
450.0000000000008
 21
-338.2850180691507
 31
0.0
  0
CIRCLE
  5
8FA3
330
73DF
100
AcDbEntity
  8
ARRANGE
  6
CONTINUOUS
100
AcDbCircle
 10
0.0
 20
0.0
 30
0.0
 40
40.0
  0
LINE
  5
8FA4
330
73DF
100
AcDbEntity
  8
DETAIL
  6
CONTINUOUS
100
AcDbLine
 10
-415.9999999999991
 20
666.8000000000015
 30
0.0
 11
415.9999999999991
 21
666.8000000000015
 31
0.0
  0
LINE
  5
8FA5
330
73DF
100
AcDbEntity
  8
DETAIL
  6
CONTINUOUS
100
AcDbLine
 10
1.500000000000909
 20
695.5000000000018
 30
0.0
 11
178.4999999999991
 21
695.5000000000008
 31
0.0
  0
LINE
  5
8FA6
330
73DF
100
AcDbEntity
  8
DETAIL
  6
CONTINUOUS
100
AcDbLine
 10
1.500000000000909
 20
698.5000000000022
 30
0.0
 11
178.4999999999991
 21
698.5000000000013
 31
0.0
  0
LINE
  5
8FA7
330
73DF
100
AcDbEntity
  8
DETAIL
  6
CONTINUOUS
100
AcDbLine
 10
450.0000000000008
 20
96.8000000000061
 30
0.0
 11
-450.0
 21
96.80000000000063
 31
0.0
  0
LINE
  5
8FA8
330
73DF
100
AcDbEntity
  8
DETAIL
  6
CONTINUOUS
100
AcDbLine
 10
432.0000000000009
 20
3.20000000000391
 30
0.0
 11
-432.0000000000009
 21
3.200000000000272
 31
0.0
  0
LINE
  5
8FA9
330
73DF
100
AcDbEntity
  8
DETAIL
  6
CONTINUOUS
100
AcDbLine
 10
432.0000000000009
 20
0.0000000000031832
 30
0.0
 11
-432.0000000000009
 21
0.0
 31
0.0
  0
LINE
  5
8FAA
330
73DF
100
AcDbEntity
  8
SIZE
100
AcDbLine
 10
-230.0
 20
-222.0841437667909
 30
0.0
 11
-230.0
 21
437.9056025784998
 31
0.0
  0
LINE
  5
8FAB
330
73DF
100
AcDbEntity
  8
SIZE
100
AcDbLine
 10
-300.0
 20
-222.0841437667909
 30
0.0
 11
-300.0
 21
336.9056025784998
 31
0.0
  0
TEXT
  5
8FAF
330
73DF
100
AcDbEntity
  8
SIZE
100
AcDbText
 10
-547.0199917995496
 20
112.571698116802
 30
0.0
 40
64.0
  1
285
 50
90.0
 41
0.9
100
AcDbText
  0
LINE
  5
8FB0
330
73DF
100
AcDbEntity
  8
SIZE
100
AcDbLine
 10
-536.5218746564742
 20
284.9794967179182
 30
0.0
 11
-536.5218746564742
 21
0.0000000000027285
 31
0.0
  0
LINE
  5
8FB1
330
73DF
100
AcDbEntity
  8
NOTE
  6
CONTINUOUS
100
AcDbLine
 10
-229.999999999999
 20
435.0000000000013
 30
0.0
 11
-596.2713335981479
 21
-412.161345883328
 31
0.0
  0
LINE
  5
8FB2
330
73DF
100
AcDbEntity
  8
NOTE
  6
CONTINUOUS
100
AcDbLine
 10
-299.9999999999981
 20
364.0000000000118
 30
0.0
 11
-689.7495608046756
 21
-137.3200733313747
 31
0.0
  0
ARC
  5
8FB3
330
73DF
100
AcDbEntity
  8
DETAIL
  6
CONTINUOUS
100
AcDbCircle
 10
0.0
 20
186.4999999999995
 30
0.0
 40
16.99999999999989
100
AcDbArc
 50
180.0
 51
0.0
  0
TEXT
  5
8FB4
330
73DF
100
AcDbEntity
  8
SIZE
100
AcDbText
 10
-439.7244840519688
 20
-166.458052788706
 30
0.0
 40
64.0
  1
150
 41
0.9
100
AcDbText
  0
LINE
  5
8FB5
330
73DF
100
AcDbEntity
  8
SIZE
100
AcDbLine
 10
-121.8355333165263
 20
-185.9734243728962
 30
0.0
 11
-450.0
 21
-185.9734243728958
 31
0.0
  0
TEXT
  5
8FB6
330
73DF
100
AcDbEntity
  8
SIZE
100
AcDbText
 10
-431.4480057055698
 20
-320.7885352387611
 30
0.0
 40
64.0
  1
170
 41
0.9
100
AcDbText
  0
LINE
  5
8FB7
330
73DF
100
AcDbEntity
  8
NOTE
  6
DASHDOT
 62
     4
100
AcDbLine
 10
-388.0
 20
-0.0000000000004547
 30
0.0
 11
-348.0
 21
-0.0000000000004547
 31
0.0
  0
CIRCLE
  5
8FB8
330
73DF
100
AcDbEntity
  8
FIX
100
AcDbCircle
 10
-368.0
 20
0.0000000000031832
 30
0.0
 40
20.0
  0
ARC
  5
8FB9
330
73DF
100
AcDbEntity
  8
DETAIL
  6
CONTINUOUS
100
AcDbCircle
 10
-380.0
 20
68.99999999999955
 30
0.0
 40
10.0
100
AcDbArc
 50
90.0
 51
180.0
  0
ARC
  5
8FBA
330
73DF
100
AcDbEntity
  8
DETAIL
  6
CONTINUOUS
100
AcDbCircle
 10
-380.0
 20
31.00000000000363
 30
0.0
 40
10.0
100
AcDbArc
 50
180.0
 51
270.0
  0
LINE
  5
8FBB
330
73DF
100
AcDbEntity
  8
SIZE
100
AcDbLine
 10
-450.0
 20
-363.9163385109073
 30
0.0
 11
-450.0
 21
-203.8931165109074
 31
0.0
  0
CIRCLE
  5
8FBC
330
73DF
100
AcDbEntity
  8
SIZE
100
AcDbCircle
 10
-450.0
 20
-338.2850180691507
 30
0.0
 40
6.0
  0
CIRCLE
  5
8FBD
330
73DF
100
AcDbEntity
  8
SIZE
100
AcDbCircle
 10
-450.0
 20
-185.9734243728958
 30
0.0
 40
6.0
  0
LINE
  5
8FBE
330
73DF
100
AcDbEntity
  8
SIZE
100
AcDbLine
 10
-434.7010959446733
 20
1.200000000000272
 30
0.0
 11
-769.3128277223995
 21
1.200000000000272
 31
0.0
  0
LINE
  5
8FC2
330
73DF
100
AcDbEntity
  8
SIZE
100
AcDbLine
 10
-450.0
 20
-62.02322199999708
 30
0.0
 11
-450.0
 21
80.90560257850256
 31
0.0
  0
LINE
  5
8FC3
330
73DF
100
AcDbEntity
  8
DETAIL
  6
CONTINUOUS
100
AcDbLine
 10
-439.0000000000009
 20
7.000000000004092
 30
0.0
 11
-439.0000000000009
 21
96.80000000000063
 31
0.0
  0
CIRCLE
  5
8FC4
330
73DF
100
AcDbEntity
  8
SIZE
100
AcDbCircle
 10
-536.5218746564742
 20
0.0000000000031832
 30
0.0
 40
6.0
  0
ARC
  5
8FC8
330
73DF
100
AcDbEntity
  8
DETAIL
  6
CONTINUOUS
100
AcDbCircle
 10
-433.0000000000018
 20
6.000000000003637
 30
0.0
 40
0.9999999999999399
100
AcDbArc
 50
0.0
 51
90.0
  0
LINE
  5
8FC9
330
73DF
100
AcDbEntity
  8
DETAIL
  6
CONTINUOUS
100
AcDbLine
 10
-432.0000000000009
 20
0.0000000000031832
 30
0.0
 11
-432.0000000000009
 21
6.000000000003637
 31
0.0
  0
LINE
  5
8FCA
330
73DF
100
AcDbEntity
  8
DETAIL
  6
CONTINUOUS
100
AcDbLine
 10
-439.0000000000009
 20
7.000000000004092
 30
0.0
 11
-433.0000000000018
 21
7.000000000004092
 31
0.0
  0
LINE
  5
8FCC
330
73DF
100
AcDbEntity
  8
DETAIL
  6
CONTINUOUS
100
AcDbLine
 10
-390.0
 20
31.00000000000363
 30
0.0
 11
-390.0
 21
68.99999999999955
 31
0.0
  0
TEXT
  5
8FCD
330
73DF
100
AcDbEntity
  8
SIZE
100
AcDbText
 10
-171.4726536721027
 20
-168.3589006904849
 30
0.0
 40
64.0
  1
70
 41
0.9
100
AcDbText
  0
LINE
  5
8FCE
330
73DF
100
AcDbEntity
  8
SIZE
100
AcDbLine
 10
-280.0000000000009
 20
-372.3923366413409
 30
0.0
 11
-280.0
 21
-37.09439742149652
 31
0.0
  0
CIRCLE
  5
8FCF
330
73DF
100
AcDbEntity
  8
SIZE
100
AcDbCircle
 10
-280.0000000000009
 20
-338.2850180691507
 30
0.0
 40
6.0
  0
CIRCLE
  5
8FD0
330
73DF
100
AcDbEntity
  8
SIZE
100
AcDbCircle
 10
-300.0
 20
-185.9734243728962
 30
0.0
 40
6.0
  0
CIRCLE
  5
8FD1
330
73DF
100
AcDbEntity
  8
SIZE
100
AcDbCircle
 10
-230.0
 20
-185.9734243728962
 30
0.0
 40
6.0
  0
ARC
  5
8FD2
330
73DF
100
AcDbEntity
  8
DETAIL
  6
CONTINUOUS
100
AcDbCircle
 10
-200.0
 20
31.00000000000227
 30
0.0
 40
10.0
100
AcDbArc
 50
270.0
 51
0.0
  0
CIRCLE
  5
8FD3
330
73DF
100
AcDbEntity
  8
FIX
100
AcDbCircle
 10
-280.0
 20
0.0000000000031832
 30
0.0
 40
20.0
  0
LINE
  5
8FD4
330
73DF
100
AcDbEntity
  8
NOTE
  6
DASHDOT
 62
     4
100
AcDbLine
 10
-300.0
 20
0.0000000000004547
 30
0.0
 11
-260.0
 21
0.0000000000004547
 31
0.0
  0
LINE
  5
8FD5
330
73DF
100
AcDbEntity
  8
DETAIL
  6
CONTINUOUS
100
AcDbLine
 10
-380.0
 20
21.00000000000363
 30
0.0
 11
-200.0
 21
21.00000000000227
 31
0.0
  0
LINE
  5
8FD6
330
73DF
100
AcDbEntity
  8
NOTE
  6
DASHDOT
 62
     4
100
AcDbLine
 10
-368.0
 20
19.99999999999954
 30
0.0
 11
-368.0
 21
-20.0
 31
0.0
  0
LINE
  5
8FD7
330
73DF
100
AcDbEntity
  8
NOTE
  6
DASHDOT
 62
     4
100
AcDbLine
 10
-280.0
 20
20.00000000000045
 30
0.0
 11
-280.0
 21
-19.99999999999954
 31
0.0
  0
LINE
  5
8FD8
330
73DF
100
AcDbEntity
  8
DETAIL
  6
CONTINUOUS
100
AcDbLine
 10
-380.0
 20
78.99999999999955
 30
0.0
 11
-200.0
 21
78.99999999999955
 31
0.0
  0
ARC
  5
8FD9
330
73DF
100
AcDbEntity
  8
DETAIL
  6
CONTINUOUS
100
AcDbCircle
 10
-200.0
 20
68.99999999999955
 30
0.0
 40
10.0
100
AcDbArc
 50
0.0
 51
90.0
  0
LINE
  5
8FDA
330
73DF
100
AcDbEntity
  8
DETAIL
  6
CONTINUOUS
100
AcDbLine
 10
-190.0
 20
31.00000000000227
 30
0.0
 11
-190.0
 21
68.99999999999955
 31
0.0
  0
POINT
  5
8FDB
330
73DF
100
AcDbEntity
  8
ARRANGE
  6
CONTINUOUS
100
AcDbPoint
 10
0.0
 20
0.0
 30
0.0
  0
LINE
  5
8FDE
330
73DF
100
AcDbEntity
  8
DETAIL
  6
CONTINUOUS
100
AcDbLine
 10
-394.0000000000009
 20
698.5000000000022
 30
0.0
 11
-361.5000000000009
 21
698.5000000000022
 31
0.0
  0
LINE
  5
8FDF
330
73DF
100
AcDbEntity
  8
DETAIL
  6
CONTINUOUS
100
AcDbLine
 10
-394.0000000000009
 20
695.5000000000018
 30
0.0
 11
-361.5000000000009
 21
695.5000000000018
 31
0.0
  0
LINE
  5
8FE0
330
73DF
100
AcDbEntity
  8
NOTE
  6
CONTINUOUS
100
AcDbLine
 10
-450.0308654185792
 20
283.7794967179179
 30
0.0
 11
-591.1486305390035
 21
674.6542804939126
 31
0.0
  0
POLYLINE
  5
8FE2
330
73DF
100
AcDbEntity
  8
NOTE
100
AcDb2dPolyline
 66
     1
 10
0.0
 20
0.0
 30
0.0
  0
VERTEX
  5
BA18
330
8FE2
100
AcDbEntity
  8
NOTE
100
AcDbVertex
100
AcDb2dVertex
 10
-452.8145485115055
 20
323.6803523849903
 30
0.0
  0
VERTEX
  5
BA19
330
8FE2
100
AcDbEntity
  8
NOTE
100
AcDbVertex
100
AcDb2dVertex
 10
-449.9999999999909
 20
283.7794967179229
 30
0.0
  0
VERTEX
  5
BA1A
330
8FE2
100
AcDbEntity
  8
NOTE
100
AcDbVertex
100
AcDb2dVertex
 10
-472.3878985295122
 20
316.9273771760331
 30
0.0
  0
SEQEND
  5
BA1B
330
8FE2
100
AcDbEntity
  8
NOTE
  0
LINE
  5
8FE3
330
73DF
100
AcDbEntity
  8
SIZE
100
AcDbLine
 10
-481.8466025831539
 20
284.9794967179182
 30
0.0
 11
-562.7044122423276
 21
284.9794967179182
 31
0.0
  0
CIRCLE
  5
8FE4
330
73DF
100
AcDbEntity
  8
SIZE
100
AcDbCircle
 10
-536.5218746564742
 20
284.9794967179182
 30
0.0
 40
6.0
  0
LINE
  5
8FE5
330
73DF
100
AcDbEntity
  8
NOTE
  6
DASHDOT
 62
     4
100
AcDbLine
 10
-450.0308654185792
 20
303.7794967179179
 30
0.0
 11
-450.0308654185792
 21
263.7794967179179
 31
0.0
  0
LINE
  5
8FE6
330
73DF
100
AcDbEntity
  8
NOTE
  6
DASHDOT
 62
     4
100
AcDbLine
 10
-430.0308654185792
 20
283.7794967179179
 30
0.0
 11
-470.0308654185792
 21
283.7794967179179
 31
0.0
  0
ARC
  5
8FE8
330
73DF
100
AcDbEntity
  8
DETAIL
  6
DASHED
100
AcDbCircle
 10
-446.1999999999989
 20
329.2421024725122
 30
0.0
 40
3.799999999999508
100
AcDbArc
 50
172.2348339815676
 51
180.0
  0
LINE
  5
8FEA
330
73DF
100
AcDbEntity
  8
NOTE
  6
DASHDOT
 62
     4
100
AcDbLine
 10
-229.999999999999
 20
455.0000000000014
 30
0.0
 11
-229.999999999999
 21
415.0000000000013
 31
0.0
  0
POLYLINE
  5
8FEB
330
73DF
100
AcDbEntity
  8
NOTE
100
AcDb2dPolyline
 66
     1
 10
0.0
 20
0.0
 30
0.0
  0
VERTEX
  5
BA1C
330
8FEB
100
AcDbEntity
  8
NOTE
100
AcDbVertex
100
AcDb2dVertex
 10
-255.9384239403871
 20
404.5500717607478
 30
0.0
  0
VERTEX
  5
BA1D
330
8FEB
100
AcDbEntity
  8
NOTE
100
AcDbVertex
100
AcDb2dVertex
 10
-229.9999999999899
 20
435.0000000000068
 30
0.0
  0
VERTEX
  5
BA1E
330
8FEB
100
AcDbEntity
  8
NOTE
100
AcDbVertex
100
AcDb2dVertex
 10
-237.2383698664007
 20
395.660376449312
 30
0.0
  0
SEQEND
  5
BA1F
330
8FEB
100
AcDbEntity
  8
NOTE
  0
LINE
  5
8FEC
330
73DF
100
AcDbEntity
  8
DETAIL
  6
CONTINUOUS
100
AcDbLine
 10
-232.999999999999
 20
306.4999999999995
 30
0.0
 11
-232.999999999999
 21
504.5000000000014
 31
0.0
  0
LINE
  5
8FED
330
73DF
100
AcDbEntity
  8
DETAIL
  6
CONTINUOUS
100
AcDbLine
 10
-267.0000000000009
 20
306.4999999999995
 30
0.0
 11
-267.0000000000009
 21
504.5000000000014
 31
0.0
  0
LINE
  5
8FEE
330
73DF
100
AcDbEntity
  8
DETAIL
  6
CONTINUOUS
100
AcDbLine
 10
-262.5
 20
313.0000000000004
 30
0.0
 11
-262.5
 21
498.0000000000018
 31
0.0
  0
LINE
  5
8FEF
330
73DF
100
AcDbEntity
  8
DETAIL
  6
CONTINUOUS
100
AcDbLine
 10
-237.5
 20
313.0000000000004
 30
0.0
 11
-237.5
 21
498.0000000000018
 31
0.0
  0
LINE
  5
8FF0
330
73DF
100
AcDbEntity
  8
DETAIL
  6
CONTINUOUS
100
AcDbLine
 10
-16.99999999999818
 20
186.4999999999995
 30
0.0
 11
-16.99999999999818
 21
579.5000000000014
 31
0.0
  0
LINE
  5
8FF1
330
73DF
100
AcDbEntity
  8
DETAIL
  6
CONTINUOUS
100
AcDbLine
 10
17.0000000000009
 20
186.4999999999995
 30
0.0
 11
17.0000000000009
 21
579.5000000000014
 31
0.0
  0
LINE
  5
8FF2
330
73DF
100
AcDbEntity
  8
DETAIL
  6
CONTINUOUS
100
AcDbLine
 10
12.5
 20
193.0000000000004
 30
0.0
 11
12.5
 21
573.0000000000013
 31
0.0
  0
LINE
  5
8FF3
330
73DF
100
AcDbEntity
  8
DETAIL
  6
CONTINUOUS
100
AcDbLine
 10
-12.5
 20
193.0000000000004
 30
0.0
 11
-12.5
 21
573.0000000000013
 31
0.0
  0
ARC
  5
8FF4
330
73DF
100
AcDbEntity
  8
DETAIL
  6
CONTINUOUS
100
AcDbCircle
 10
-250.0
 20
313.0000000000004
 30
0.0
 40
12.5
100
AcDbArc
 50
180.0
 51
0.0
  0
ARC
  5
8FF5
330
73DF
100
AcDbEntity
  8
DETAIL
  6
CONTINUOUS
100
AcDbCircle
 10
-250.0
 20
306.4999999999995
 30
0.0
 40
16.99999999999989
100
AcDbArc
 50
180.0
 51
0.0
  0
LINE
  5
8FF6
330
73DF
100
AcDbEntity
  8
NOTE
  6
DASHDOT
 62
     4
100
AcDbLine
 10
-279.999999999999
 20
364.0000000000127
 30
0.0
 11
-319.999999999999
 21
364.0000000000127
 31
0.0
  0
POLYLINE
  5
8FF7
330
73DF
100
AcDbEntity
  8
NOTE
100
AcDb2dPolyline
 66
     1
 10
0.0
 20
0.0
 30
0.0
  0
VERTEX
  5
BA20
330
8FF7
100
AcDbEntity
  8
NOTE
100
AcDbVertex
100
AcDb2dVertex
 10
-332.3680419799311
 20
340.4987271691116
 30
0.0
  0
VERTEX
  5
BA21
330
8FF7
100
AcDbEntity
  8
NOTE
100
AcDbVertex
100
AcDb2dVertex
 10
-299.9999999999918
 20
364.0000000000177
 30
0.0
  0
VERTEX
  5
BA22
330
8FF7
100
AcDbEntity
  8
NOTE
100
AcDbVertex
100
AcDb2dVertex
 10
-316.2809101744496
 20
327.4632795215111
 30
0.0
  0
SEQEND
  5
BA23
330
8FF7
100
AcDbEntity
  8
NOTE
  0
LINE
  5
8FF8
330
73DF
100
AcDbEntity
  8
NOTE
  6
DASHDOT
 62
     4
100
AcDbLine
 10
-299.9999999999991
 20
384.0000000000127
 30
0.0
 11
-299.9999999999991
 21
344.0000000000127
 31
0.0
  0
ARC
  5
8FF9
330
73DF
100
AcDbEntity
  8
DETAIL
  6
CONTINUOUS
100
AcDbCircle
 10
0.0
 20
193.0000000000004
 30
0.0
 40
12.5
100
AcDbArc
 50
180.0
 51
0.0
  0
LINE
  5
8FFA
330
73DF
100
AcDbEntity
  8
DETAIL
  6
CONTINUOUS
100
AcDbLine
 10
-1.500000000000909
 20
695.5000000000018
 30
0.0
 11
-178.4999999999991
 21
695.5000000000008
 31
0.0
  0
LINE
  5
8FFB
330
73DF
100
AcDbEntity
  8
DETAIL
  6
CONTINUOUS
100
AcDbLine
 10
-1.500000000000909
 20
698.5000000000022
 30
0.0
 11
-178.4999999999991
 21
698.5000000000013
 31
0.0
  0
LINE
  5
8FFC
330
73DF
100
AcDbEntity
  8
NOTE
  6
DASHDOT
 62
     4
100
AcDbLine
 10
-209.999999999999
 20
435.0000000000013
 30
0.0
 11
-249.9999999999991
 21
435.0000000000013
 31
0.0
  0
ARC
  5
8FFD
330
73DF
100
AcDbEntity
  8
DETAIL
  6
CONTINUOUS
100
AcDbCircle
 10
-250.0
 20
498.0000000000018
 30
0.0
 40
12.5
100
AcDbArc
 50
0.0
 51
180.0
  0
ARC
  5
8FFE
330
73DF
100
AcDbEntity
  8
DETAIL
  6
CONTINUOUS
100
AcDbCircle
 10
-250.0
 20
504.5000000000014
 30
0.0
 40
17.00000000000001
100
AcDbArc
 50
0.0
 51
180.0
  0
LINE
  5
8FFF
330
73DF
100
AcDbEntity
  8
DETAIL
  6
CONTINUOUS
100
AcDbLine
 10
-358.4999999999991
 20
698.5000000000022
 30
0.0
 11
-181.5000000000009
 21
698.5000000000013
 31
0.0
  0
LINE
  5
9000
330
73DF
100
AcDbEntity
  8
DETAIL
  6
CONTINUOUS
100
AcDbLine
 10
-358.4999999999991
 20
695.5000000000018
 30
0.0
 11
-181.5000000000009
 21
695.5000000000008
 31
0.0
  0
LINE
  5
9001
330
73DF
100
AcDbEntity
  8
DETAIL
  6
CONTINUOUS
100
AcDbLine
 10
-361.5000000000009
 20
677.0000000000013
 30
0.0
 11
-358.4999999999991
 21
677.0000000000013
 31
0.0
  0
ARC
  5
9002
330
73DF
100
AcDbEntity
  8
DETAIL
  6
CONTINUOUS
100
AcDbCircle
 10
-180.0
 20
675.0000000000014
 30
0.0
 40
1.49999999999991
100
AcDbArc
 50
180.0
 51
0.0
  0
ARC
  5
9003
330
73DF
100
AcDbEntity
  8
DETAIL
  6
CONTINUOUS
100
AcDbCircle
 10
0.0
 20
579.5000000000014
 30
0.0
 40
17.00000000000017
100
AcDbArc
 50
0.0
 51
180.0
  0
ARC
  5
9004
330
73DF
100
AcDbEntity
  8
DETAIL
  6
CONTINUOUS
100
AcDbCircle
 10
0.0
 20
573.0000000000013
 30
0.0
 40
12.5
100
AcDbArc
 50
0.0
 51
180.0
  0
LINE
  5
9005
330
73DF
100
AcDbEntity
  8
DETAIL
  6
CONTINUOUS
100
AcDbLine
 10
1.500000000000909
 20
677.0000000000013
 30
0.0
 11
-1.500000000000909
 21
677.0000000000013
 31
0.0
  0
LINE
  5
9006
330
73DF
100
AcDbEntity
  8
NOTE
  6
CONTINUOUS
100
AcDbLine
 10
279.9999999999899
 20
0.0000000000313776
 30
0.0
 11
504.6346300118302
 21
-274.4134818491734
 31
0.0
  0
CIRCLE
  5
9007
330
73DF
100
AcDbEntity
  8
SIZE
100
AcDbCircle
 10
450.0000000000008
 20
-338.2850180691507
 30
0.0
 40
6.0
  0
LINE
  5
9008
330
73DF
100
AcDbEntity
  8
SIZE
100
AcDbLine
 10
279.999999999999
 20
-372.3923366413414
 30
0.0
 11
280.0
 21
-37.09439742149743
 31
0.0
  0
LINE
  5
9009
330
73DF
100
AcDbEntity
  8
SIZE
100
AcDbLine
 10
450.0000000000008
 20
-363.9163385109073
 30
0.0
 11
450.0000000000008
 21
-203.8931165109074
 31
0.0
  0
TEXT
  5
900A
330
73DF
100
AcDbEntity
  8
SIZE
100
AcDbText
 10
291.955338794447
 20
-317.2098141817418
 30
0.0
 40
64.0
  1
170
 41
0.9
100
AcDbText
  0
CIRCLE
  5
900B
330
73DF
100
AcDbEntity
  8
SIZE
100
AcDbCircle
 10
279.999999999999
 20
-338.2850180691507
 30
0.0
 40
6.0
  0
LINE
  5
900C
330
73DF
100
AcDbEntity
  8
DETAIL
  6
CONTINUOUS
100
AcDbLine
 10
380.0000000000009
 20
21.00000000000363
 30
0.0
 11
200.0
 21
21.00000000000227
 31
0.0
  0
LINE
  5
900D
330
73DF
100
AcDbEntity
  8
DETAIL
  6
CONTINUOUS
100
AcDbLine
 10
380.0000000000009
 20
78.99999999999955
 30
0.0
 11
200.0
 21
78.99999999999955
 31
0.0
  0
ARC
  5
900E
330
73DF
100
AcDbEntity
  8
DETAIL
  6
CONTINUOUS
100
AcDbCircle
 10
200.0
 20
31.00000000000227
 30
0.0
 40
10.0
100
AcDbArc
 50
180.0
 51
270.0
  0
LINE
  5
900F
330
73DF
100
AcDbEntity
  8
DETAIL
  6
CONTINUOUS
100
AcDbLine
 10
190.0
 20
31.00000000000227
 30
0.0
 11
190.0
 21
68.99999999999955
 31
0.0
  0
ARC
  5
9010
330
73DF
100
AcDbEntity
  8
DETAIL
  6
CONTINUOUS
100
AcDbCircle
 10
200.0
 20
68.99999999999955
 30
0.0
 40
10.00000000000013
100
AcDbArc
 50
90.0
 51
180.0
  0
LINE
  5
9012
330
73DF
100
AcDbEntity
  8
SIZE
100
AcDbLine
 10
450.0000000000008
 20
-62.02322199999844
 30
0.0
 11
450.0000000000008
 21
80.90560257850166
 31
0.0
  0
ARC
  5
9013
330
73DF
100
AcDbEntity
  8
DETAIL
  6
CONTINUOUS
100
AcDbCircle
 10
380.0000000000009
 20
31.00000000000363
 30
0.0
 40
10.0
100
AcDbArc
 50
270.0
 51
0.0
  0
LINE
  5
9014
330
73DF
100
AcDbEntity
  8
DETAIL
  6
CONTINUOUS
100
AcDbLine
 10
439.0000000000009
 20
7.000000000004092
 30
0.0
 11
439.0000000000009
 21
96.8000000000061
 31
0.0
  0
LINE
  5
9015
330
73DF
100
AcDbEntity
  8
NOTE
  6
DASHDOT
 62
     4
100
AcDbLine
 10
348.0000000000009
 20
-0.0000000000004547
 30
0.0
 11
388.0000000000009
 21
-0.0000000000004547
 31
0.0
  0
CIRCLE
  5
9016
330
73DF
100
AcDbEntity
  8
FIX
100
AcDbCircle
 10
368.0000000000009
 20
0.0000000000031832
 30
0.0
 40
20.0
  0
POLYLINE
  5
9017
330
73DF
100
AcDbEntity
  8
NOTE
100
AcDb2dPolyline
 66
     1
 10
0.0
 20
0.0
 30
0.0
  0
VERTEX
  5
BA24
330
9017
100
AcDbEntity
  8
NOTE
100
AcDbVertex
100
AcDb2dVertex
 10
313.0287511866636
 20
-22.56327904659565
 30
0.0
  0
VERTEX
  5
BA25
330
9017
100
AcDbEntity
  8
NOTE
100
AcDbVertex
100
AcDb2dVertex
 10
279.9999999999827
 20
0.0000000000350155
 30
0.0
  0
VERTEX
  5
BA26
330
9017
100
AcDbEntity
  8
NOTE
100
AcDbVertex
100
AcDb2dVertex
 10
297.3220980297601
 20
-36.05474863700464
 30
0.0
  0
SEQEND
  5
BA27
330
9017
100
AcDbEntity
  8
NOTE
  0
CIRCLE
  5
9018
330
73DF
100
AcDbEntity
  8
FIX
100
AcDbCircle
 10
280.0
 20
0.0000000000031832
 30
0.0
 40
20.0
  0
LINE
  5
9019
330
73DF
100
AcDbEntity
  8
NOTE
  6
DASHDOT
 62
     4
100
AcDbLine
 10
260.0
 20
0.0000000000031832
 30
0.0
 11
300.0
 21
0.0000000000031832
 31
0.0
  0
LINE
  5
901A
330
73DF
100
AcDbEntity
  8
NOTE
  6
DASHDOT
 62
     4
100
AcDbLine
 10
280.0
 20
20.00000000000318
 30
0.0
 11
280.0
 21
-19.99999999999681
 31
0.0
  0
LINE
  5
901E
330
73DF
100
AcDbEntity
  8
NOTE
  6
DASHDOT
 62
     4
100
AcDbLine
 10
368.0000000000009
 20
19.99999999999954
 30
0.0
 11
368.0000000000009
 21
-20.0
 31
0.0
  0
ARC
  5
901F
330
73DF
100
AcDbEntity
  8
DETAIL
  6
CONTINUOUS
100
AcDbCircle
 10
433.0000000000008
 20
6.000000000003637
 30
0.0
 40
0.9999999999999399
100
AcDbArc
 50
90.0
 51
180.0
  0
LINE
  5
9020
330
73DF
100
AcDbEntity
  8
DETAIL
  6
CONTINUOUS
100
AcDbLine
 10
432.0000000000009
 20
0.0000000000031832
 30
0.0
 11
432.0000000000009
 21
6.000000000003637
 31
0.0
  0
LINE
  5
9021
330
73DF
100
AcDbEntity
  8
DETAIL
  6
CONTINUOUS
100
AcDbLine
 10
439.0000000000009
 20
7.000000000004092
 30
0.0
 11
433.0000000000008
 21
7.000000000004092
 31
0.0
  0
LINE
  5
9023
330
73DF
100
AcDbEntity
  8
DETAIL
  6
CONTINUOUS
100
AcDbLine
 10
390.0000000000009
 20
31.00000000000363
 30
0.0
 11
390.0000000000009
 21
68.99999999999955
 31
0.0
  0
ARC
  5
9024
330
73DF
100
AcDbEntity
  8
DETAIL
  6
CONTINUOUS
100
AcDbCircle
 10
380.0000000000009
 20
68.99999999999955
 30
0.0
 40
10.0
100
AcDbArc
 50
0.0
 51
90.0
  0
TEXT
  5
9025
330
73DF
100
AcDbEntity
  8
SIZE
100
AcDbText
 10
570.5606142418337
 20
-139.1618080379944
 30
0.0
 40
64.0
  1
98
 50
90.0
 41
0.9
100
AcDbText
  0
LINE
  5
9026
330
73DF
100
AcDbEntity
  8
SIZE
100
AcDbLine
 10
583.4114948683963
 20
98.00000000000181
 30
0.0
 11
583.4114948683963
 21
-169.7983083279782
 31
0.0
  0
CIRCLE
  5
9027
330
73DF
100
AcDbEntity
  8
SIZE
100
AcDbCircle
 10
583.4114948683963
 20
0.0000000000031832
 30
0.0
 40
6.0
  0
LINE
  5
9028
330
73DF
100
AcDbEntity
  8
SIZE
100
AcDbLine
 10
616.827207567273
 20
98.00000000000181
 30
0.0
 11
468.537133480605
 21
98.00000000000228
 31
0.0
  0
CIRCLE
  5
9029
330
73DF
100
AcDbEntity
  8
SIZE
100
AcDbCircle
 10
583.4114948683963
 20
98.00000000000181
 30
0.0
 40
6.0
  0
LINE
  5
902A
330
73DF
100
AcDbEntity
  8
DETAIL
  6
CONTINUOUS
100
AcDbLine
 10
267.0000000000009
 20
306.4999999999995
 30
0.0
 11
267.0000000000009
 21
504.5000000000014
 31
0.0
  0
LINE
  5
902B
330
73DF
100
AcDbEntity
  8
DETAIL
  6
CONTINUOUS
100
AcDbLine
 10
232.999999999999
 20
306.4999999999995
 30
0.0
 11
232.999999999999
 21
504.5000000000014
 31
0.0
  0
LINE
  5
902C
330
73DF
100
AcDbEntity
  8
DETAIL
  6
CONTINUOUS
100
AcDbLine
 10
262.5
 20
313.0000000000004
 30
0.0
 11
262.5
 21
498.0000000000018
 31
0.0
  0
LINE
  5
902D
330
73DF
100
AcDbEntity
  8
DETAIL
  6
CONTINUOUS
100
AcDbLine
 10
237.5
 20
313.0000000000004
 30
0.0
 11
237.5
 21
498.0000000000018
 31
0.0
  0
ARC
  5
902E
330
73DF
100
AcDbEntity
  8
DETAIL
  6
CONTINUOUS
100
AcDbCircle
 10
250.0
 20
306.4999999999995
 30
0.0
 40
16.99999999999989
100
AcDbArc
 50
180.0
 51
0.0
  0
ARC
  5
902F
330
73DF
100
AcDbEntity
  8
DETAIL
  6
CONTINUOUS
100
AcDbCircle
 10
250.0
 20
313.0000000000004
 30
0.0
 40
12.5
100
AcDbArc
 50
180.0
 51
0.0
  0
ARC
  5
9031
330
73DF
100
AcDbEntity
  8
DETAIL
  6
DASHED
100
AcDbCircle
 10
446.2000000000016
 20
329.2421024725122
 30
0.0
 40
3.79999999999939
100
AcDbArc
 50
0.0
 51
7.765166018432373
  0
LINE
  5
9032
330
73DF
100
AcDbEntity
  8
DETAIL
  6
CONTINUOUS
100
AcDbLine
 10
358.4999999999991
 20
698.5000000000022
 30
0.0
 11
181.5000000000009
 21
698.5000000000013
 31
0.0
  0
LINE
  5
9033
330
73DF
100
AcDbEntity
  8
DETAIL
  6
CONTINUOUS
100
AcDbLine
 10
358.4999999999991
 20
695.5000000000018
 30
0.0
 11
181.5000000000009
 21
695.5000000000008
 31
0.0
  0
ARC
  5
9034
330
73DF
100
AcDbEntity
  8
DETAIL
  6
CONTINUOUS
100
AcDbCircle
 10
250.0
 20
504.5000000000014
 30
0.0
 40
17.00000000000017
100
AcDbArc
 50
0.0
 51
180.0
  0
ARC
  5
9035
330
73DF
100
AcDbEntity
  8
DETAIL
  6
CONTINUOUS
100
AcDbCircle
 10
250.0
 20
498.0000000000018
 30
0.0
 40
12.5
100
AcDbArc
 50
0.0
 51
180.0
  0
ARC
  5
9036
330
73DF
100
AcDbEntity
  8
DETAIL
  6
CONTINUOUS
100
AcDbCircle
 10
180.0
 20
675.0000000000014
 30
0.0
 40
1.499999999999769
100
AcDbArc
 50
180.0
 51
0.0
  0
LINE
  5
9037
330
73DF
100
AcDbEntity
  8
DETAIL
  6
CONTINUOUS
100
AcDbLine
 10
361.2500000000009
 20
677.0000000000013
 30
0.0
 11
358.7500000000009
 21
677.0000000000013
 31
0.0
  0
LINE
  5
9038
330
73DF
100
AcDbEntity
  8
DETAIL
  6
CONTINUOUS
100
AcDbLine
 10
394.0000000000009
 20
698.5000000000022
 30
0.0
 11
361.5000000000009
 21
698.5000000000022
 31
0.0
  0
LINE
  5
9039
330
73DF
100
AcDbEntity
  8
DETAIL
  6
CONTINUOUS
100
AcDbLine
 10
394.0000000000009
 20
695.5000000000018
 30
0.0
 11
361.5000000000009
 21
695.5000000000018
 31
0.0
  0
LINE
  5
903A
330
73DF
100
AcDbEntity
  8
SIZE
100
AcDbLine
 10
986.3823145482284
 20
666.800000000001
 30
0.0
 11
986.3823145482284
 21
0.0000000000031832
 31
0.0
  0
CIRCLE
  5
903B
330
73DF
100
AcDbEntity
  8
SIZE
100
AcDbCircle
 10
1089.474291379113
 20
0.0000000000031832
 30
0.0
 40
6.0
  0
CIRCLE
  5
903C
330
73DF
100
AcDbEntity
  8
SIZE
100
AcDbCircle
 10
986.3823145482284
 20
0.0000000000031832
 30
0.0
 40
6.0
  0
CIRCLE
  5
903D
330
73DF
100
AcDbEntity
  8
SIZE
100
AcDbCircle
 10
1190.527607150954
 20
0.0000000000027285
 30
0.0
 40
6.0
  0
TEXT
  5
903E
330
73DF
100
AcDbEntity
  8
SIZE
100
AcDbText
 10
977.3963682710791
 20
229.9202660643
 30
0.0
 40
64.0
  1
667
 50
90.0
 41
0.9
100
AcDbText
  0
CIRCLE
  5
903F
330
73DF
100
AcDbEntity
  8
SIZE
100
AcDbCircle
 10
986.3823145482284
 20
666.800000000001
 30
0.0
 40
6.0
  0
LINE
  5
9040
330
73DF
100
AcDbEntity
  8
SIZE
100
AcDbLine
 10
1209.901355662994
 20
1797.157018355843
 30
0.0
 11
119.0382757669312
 21
1797.157018355844
 31
0.0
  0
LINE
  5
9041
330
73DF
100
AcDbEntity
  8
SIZE
100
AcDbLine
 10
1115.938686508117
 20
1457.0
 30
0.0
 11
461.0382757669312
 21
1457.000000000002
 31
0.0
  0
TEXT
  5
9042
330
73DF
100
AcDbEntity
  8
ETC
100
AcDbText
 10
490.8494770285824
 20
2015.191756930284
 30
0.0
 40
64.0
  1
SMPU2823
 41
0.8695652241847838
 72
     5
 11
917.5161470285829
 21
2015.191756930284
 31
0.0
100
AcDbText
  0
LINE
  5
9043
330
73DF
100
AcDbEntity
  8
NOTE
100
AcDbLine
 10
-252.6927137597613
 20
1937.629159836028
 30
0.0
 11
-252.6927137597613
 21
1862.424107890699
 31
0.0
  0
LINE
  5
9044
330
73DF
100
AcDbEntity
  8
NOTE
100
AcDbLine
 10
-302.8295673006814
 20
1937.628703103921
 30
0.0
 11
-302.8295673006814
 21
1862.423879524646
 31
0.0
  0
LINE
  5
9045
330
73DF
100
AcDbEntity
  8
NOTE
100
AcDbLine
 10
250.415362691916
 20
1937.628703103921
 30
0.0
 11
250.415362691916
 21
1862.423879524646
 31
0.0
  0
LINE
  5
9046
330
73DF
100
AcDbEntity
  8
NOTE
100
AcDbLine
 10
200.2785091509958
 20
1937.629159836028
 30
0.0
 11
200.2785091509958
 21
1862.424107890699
 31
0.0
  0
LINE
  5
9049
330
73DF
100
AcDbEntity
  8
DETAIL
  6
CONTINUOUS
100
AcDbLine
 10
36.62288795420408
 20
1601.201761670763
 30
0.0
 11
23.74251120419557
 21
1604.371483443594
 31
0.0
  0
LINE
  5
904A
330
73DF
100
AcDbEntity
  8
DETAIL
  6
CONTINUOUS
100
AcDbLine
 10
366.5907436678144
 20
1630.075236901751
 30
0.0
 11
0.0
 21
1630.075236901751
 31
0.0
  0
LINE
  5
904B
330
73DF
100
AcDbEntity
  8
DETAIL
  6
CONTINUOUS
100
AcDbLine
 10
363.0205524367929
 20
1698.198543782202
 30
0.0
 11
0.0
 21
1698.198543782201
 31
0.0
  0
ARC
  5
904C
330
73DF
100
AcDbEntity
  8
DETAIL
  6
CONTINUOUS
100
AcDbCircle
 10
0.0
 20
-3806.801456217797
 30
0.0
 40
5603.000000000003
100
AcDbArc
 50
88.92942125870382
 51
91.07057874129619
  0
ARC
  5
904D
330
73DF
100
AcDbEntity
  8
DETAIL
  6
CONTINUOUS
100
AcDbCircle
 10
0.0
 20
-3806.801456217797
 30
0.0
 40
5605.0
100
AcDbArc
 50
88.89592735830509
 51
91.10407264169493
  0
LINE
  5
904E
330
73DF
100
AcDbEntity
  8
DETAIL
  6
CONTINUOUS
100
AcDbLine
 10
450.0000000000008
 20
1457.000000000002
 30
0.0
 11
-450.0
 21
1457.0
 31
0.0
  0
LINE
  5
904F
330
73DF
100
AcDbEntity
  8
DETAIL
  6
CONTINUOUS
100
AcDbLine
 10
1.500000000000909
 20
1427.5
 30
0.0
 11
178.4999999999991
 21
1427.5
 31
0.0
  0
LINE
  5
9050
330
73DF
100
AcDbEntity
  8
DETAIL
  6
CONTINUOUS
100
AcDbLine
 10
1.500000000000909
 20
1430.5
 30
0.0
 11
178.4999999999991
 21
1430.5
 31
0.0
  0
LINE
  5
9051
330
73DF
100
AcDbEntity
  8
DETAIL
  6
CONTINUOUS
100
AcDbLine
 10
1.500000000000909
 20
811.5000000000017
 30
0.0
 11
178.4999999999991
 21
811.5000000000017
 31
0.0
  0
LINE
  5
9052
330
73DF
100
AcDbEntity
  8
DETAIL
  6
CONTINUOUS
100
AcDbLine
 10
1.500000000000909
 20
814.5000000000019
 30
0.0
 11
178.4999999999991
 21
814.5000000000019
 31
0.0
  0
LINE
  5
9053
330
73DF
100
AcDbEntity
  8
DETAIL
  6
CONTINUOUS
100
AcDbLine
 10
1.500000000000909
 20
933.5000000000022
 30
0.0
 11
178.4999999999991
 21
933.5000000000022
 31
0.0
  0
LINE
  5
9054
330
73DF
100
AcDbEntity
  8
DETAIL
  6
CONTINUOUS
100
AcDbLine
 10
1.500000000000909
 20
936.5000000000017
 30
0.0
 11
178.4999999999991
 21
936.5000000000017
 31
0.0
  0
LINE
  5
9055
330
73DF
100
AcDbEntity
  8
DETAIL
  6
CONTINUOUS
100
AcDbLine
 10
1.500000000000909
 20
1059.5
 30
0.0
 11
178.4999999999991
 21
1059.5
 31
0.0
  0
LINE
  5
9056
330
73DF
100
AcDbEntity
  8
DETAIL
  6
CONTINUOUS
100
AcDbLine
 10
1.500000000000909
 20
1062.500000000002
 30
0.0
 11
178.4999999999991
 21
1062.5
 31
0.0
  0
LINE
  5
9057
330
73DF
100
AcDbEntity
  8
DETAIL
  6
CONTINUOUS
100
AcDbLine
 10
1.500000000000909
 20
1185.5
 30
0.0
 11
178.4999999999991
 21
1185.5
 31
0.0
  0
LINE
  5
9058
330
73DF
100
AcDbEntity
  8
DETAIL
  6
CONTINUOUS
100
AcDbLine
 10
1.500000000000909
 20
1188.500000000002
 30
0.0
 11
178.4999999999991
 21
1188.500000000002
 31
0.0
  0
LINE
  5
9059
330
73DF
100
AcDbEntity
  8
DETAIL
  6
CONTINUOUS
100
AcDbLine
 10
1.500000000000909
 20
1311.500000000002
 30
0.0
 11
178.4999999999991
 21
1311.500000000002
 31
0.0
  0
LINE
  5
905A
330
73DF
100
AcDbEntity
  8
DETAIL
  6
CONTINUOUS
100
AcDbLine
 10
1.500000000000909
 20
1314.500000000002
 30
0.0
 11
178.4999999999991
 21
1314.500000000002
 31
0.0
  0
LINE
  5
905B
330
73DF
100
AcDbEntity
  8
DETAIL
  6
CONTINUOUS
100
AcDbLine
 10
-387.9999999999991
 20
1188.500000000002
 30
0.0
 11
-361.5000000000009
 21
1188.500000000002
 31
0.0
  0
LINE
  5
905C
330
73DF
100
AcDbEntity
  8
DETAIL
  6
CONTINUOUS
100
AcDbLine
 10
-387.9999999999991
 20
1185.5
 30
0.0
 11
-361.5000000000009
 21
1185.5
 31
0.0
  0
LINE
  5
905D
330
73DF
100
AcDbEntity
  8
DETAIL
  6
CONTINUOUS
100
AcDbLine
 10
-394.0000000000009
 20
1059.500000000002
 30
0.0
 11
-361.5000000000009
 21
1059.5
 31
0.0
  0
LINE
  5
905E
330
73DF
100
AcDbEntity
  8
DETAIL
  6
CONTINUOUS
100
AcDbLine
 10
-394.0000000000009
 20
1062.500000000002
 30
0.0
 11
-361.5000000000009
 21
1062.500000000002
 31
0.0
  0
LINE
  5
905F
330
73DF
100
AcDbEntity
  8
DETAIL
  6
CONTINUOUS
100
AcDbLine
 10
-387.9999999999991
 20
936.5000000000017
 30
0.0
 11
-361.5000000000009
 21
936.5000000000017
 31
0.0
  0
LINE
  5
9060
330
73DF
100
AcDbEntity
  8
DETAIL
  6
CONTINUOUS
100
AcDbLine
 10
-387.9999999999991
 20
933.5000000000022
 30
0.0
 11
-361.5000000000009
 21
933.5000000000022
 31
0.0
  0
LINE
  5
9061
330
73DF
100
AcDbEntity
  8
DETAIL
  6
CONTINUOUS
100
AcDbLine
 10
-387.9999999999991
 20
814.5000000000019
 30
0.0
 11
-361.5000000000009
 21
814.5000000000019
 31
0.0
  0
LINE
  5
9062
330
73DF
100
AcDbEntity
  8
DETAIL
  6
CONTINUOUS
100
AcDbLine
 10
-387.9999999999991
 20
811.5000000000017
 30
0.0
 11
-361.5000000000009
 21
811.5000000000017
 31
0.0
  0
TEXT
  5
9063
330
73DF
100
AcDbEntity
  8
NOTE
100
AcDbText
 10
-653.4908413464563
 20
1013.955940742842
 30
0.0
 40
47.8918332576439
  1
OA
 50
0.0000025044687019
 41
0.833333333333333
  7
STANDARD1
100
AcDbText
  0
LINE
  5
9064
330
73DF
100
AcDbEntity
  8
NOTE
100
AcDbLine
 10
-599.270715441914
 20
798.2203105629446
 30
0.0
 11
-559.1616420774108
 21
838.3296138321725
 31
0.0
  0
LINE
  5
9065
330
73DF
100
AcDbEntity
  8
NOTE
100
AcDbLine
 10
-599.2706878331437
 20
878.4389479431597
 30
0.0
 11
-559.1617318944072
 21
838.3298905763263
 31
0.0
  0
LINE
  5
9066
330
73DF
100
AcDbEntity
  8
NOTE
100
AcDbLine
 10
-674.4759933312516
 20
863.3980110365596
 30
0.0
 11
-674.4759933312516
 21
813.2612663263362
 31
0.0
  0
LINE
  5
9067
330
73DF
100
AcDbEntity
  8
NOTE
100
AcDbLine
 10
-599.2707130198714
 20
863.3980110365596
 30
0.0
 11
-674.4759933312516
 21
863.3980110365596
 31
0.0
  0
LINE
  5
9068
330
73DF
100
AcDbEntity
  8
NOTE
100
AcDbLine
 10
-599.2707130198714
 20
878.4388844059945
 30
0.0
 11
-599.2707130198714
 21
863.3980110365596
 31
0.0
  0
LINE
  5
9069
330
73DF
100
AcDbEntity
  8
NOTE
100
AcDbLine
 10
-599.2707130198714
 20
813.2613858616918
 30
0.0
 11
-674.4759933312516
 21
813.2613858616918
 31
0.0
  0
LINE
  5
906A
330
73DF
100
AcDbEntity
  8
NOTE
100
AcDbLine
 10
-599.2707130198714
 20
795.645913607194
 30
0.0
 11
-599.2707130198714
 21
813.2613858616918
 31
0.0
  0
LINE
  5
906B
330
73DF
100
AcDbEntity
  8
DETAIL
  6
CONTINUOUS
100
AcDbLine
 10
-387.9999999999991
 20
811.5000000000017
 30
0.0
 11
-387.9999999999991
 21
814.5000000000019
 31
0.0
  0
LINE
  5
906C
330
73DF
100
AcDbEntity
  8
DETAIL
  6
CONTINUOUS
100
AcDbLine
 10
-387.9999999999991
 20
933.5000000000022
 30
0.0
 11
-387.9999999999991
 21
936.5000000000017
 31
0.0
  0
LINE
  5
906D
330
73DF
100
AcDbEntity
  8
NOTE
100
AcDbLine
 10
-596.7709385504522
 20
1199.314264894099
 30
0.0
 11
-556.6617268694199
 21
1239.423554337143
 31
0.0
  0
LINE
  5
906E
330
73DF
100
AcDbEntity
  8
NOTE
100
AcDbLine
 10
-596.7707130343033
 20
1279.533407013765
 30
0.0
 11
-556.661642260743
 21
1239.424123240308
 31
0.0
  0
LINE
  5
906F
330
73DF
100
AcDbEntity
  8
NOTE
100
AcDbLine
 10
-596.7707130198714
 20
1196.739920352004
 30
0.0
 11
-596.7707130198714
 21
1214.355266826763
 31
0.0
  0
LINE
  5
9070
330
73DF
100
AcDbEntity
  8
NOTE
100
AcDbLine
 10
-596.7707130198714
 20
1214.355266826763
 30
0.0
 11
-671.9759933312516
 21
1214.355266826763
 31
0.0
  0
LINE
  5
9071
330
73DF
100
AcDbEntity
  8
NOTE
100
AcDbLine
 10
-671.9759933312516
 20
1264.492011536987
 30
0.0
 11
-671.9759933312516
 21
1214.355266826763
 31
0.0
  0
LINE
  5
9072
330
73DF
100
AcDbEntity
  8
NOTE
100
AcDbLine
 10
-596.7707130198714
 20
1264.492011536987
 30
0.0
 11
-671.9759933312516
 21
1264.492011536987
 31
0.0
  0
LINE
  5
9073
330
73DF
100
AcDbEntity
  8
NOTE
100
AcDbLine
 10
-596.7707130198714
 20
1279.532927725056
 30
0.0
 11
-596.7707130198714
 21
1264.492011536987
 31
0.0
  0
LINE
  5
9074
330
73DF
100
AcDbEntity
  8
DETAIL
  6
CONTINUOUS
100
AcDbLine
 10
-387.9999999999991
 20
1185.5
 30
0.0
 11
-387.9999999999991
 21
1188.500000000002
 31
0.0
  0
LINE
  5
9075
330
73DF
100
AcDbEntity
  8
DETAIL
  6
CONTINUOUS
100
AcDbLine
 10
-1.500000000000909
 20
811.5000000000017
 30
0.0
 11
-178.4999999999991
 21
811.5000000000017
 31
0.0
  0
LINE
  5
9076
330
73DF
100
AcDbEntity
  8
DETAIL
  6
CONTINUOUS
100
AcDbLine
 10
-1.500000000000909
 20
814.5000000000019
 30
0.0
 11
-178.4999999999991
 21
814.5000000000019
 31
0.0
  0
LINE
  5
9077
330
73DF
100
AcDbEntity
  8
DETAIL
  6
CONTINUOUS
100
AcDbLine
 10
-1.500000000000909
 20
933.5000000000022
 30
0.0
 11
-178.4999999999991
 21
933.5000000000022
 31
0.0
  0
LINE
  5
9078
330
73DF
100
AcDbEntity
  8
DETAIL
  6
CONTINUOUS
100
AcDbLine
 10
-1.500000000000909
 20
936.5000000000017
 30
0.0
 11
-178.4999999999991
 21
936.5000000000017
 31
0.0
  0
LINE
  5
9079
330
73DF
100
AcDbEntity
  8
DETAIL
  6
CONTINUOUS
100
AcDbLine
 10
-358.4999999999991
 20
814.5000000000019
 30
0.0
 11
-181.5000000000009
 21
814.5000000000019
 31
0.0
  0
LINE
  5
907A
330
73DF
100
AcDbEntity
  8
DETAIL
  6
CONTINUOUS
100
AcDbLine
 10
-358.4999999999991
 20
811.5000000000017
 30
0.0
 11
-181.5000000000009
 21
811.5000000000017
 31
0.0
  0
LINE
  5
907B
330
73DF
100
AcDbEntity
  8
DETAIL
  6
CONTINUOUS
100
AcDbLine
 10
-358.4999999999991
 20
936.5000000000017
 30
0.0
 11
-181.5000000000009
 21
936.5000000000017
 31
0.0
  0
LINE
  5
907C
330
73DF
100
AcDbEntity
  8
DETAIL
  6
CONTINUOUS
100
AcDbLine
 10
-358.4999999999991
 20
933.5000000000022
 30
0.0
 11
-181.5000000000009
 21
933.5000000000022
 31
0.0
  0
LINE
  5
907D
330
73DF
100
AcDbEntity
  8
DETAIL
  6
CONTINUOUS
100
AcDbLine
 10
-1.500000000000909
 20
1185.5
 30
0.0
 11
-178.4999999999991
 21
1185.5
 31
0.0
  0
LINE
  5
907E
330
73DF
100
AcDbEntity
  8
DETAIL
  6
CONTINUOUS
100
AcDbLine
 10
-1.500000000000909
 20
1188.500000000002
 30
0.0
 11
-178.4999999999991
 21
1188.500000000002
 31
0.0
  0
LINE
  5
907F
330
73DF
100
AcDbEntity
  8
DETAIL
  6
CONTINUOUS
100
AcDbLine
 10
-1.500000000000909
 20
1059.5
 30
0.0
 11
-178.4999999999991
 21
1059.5
 31
0.0
  0
LINE
  5
9080
330
73DF
100
AcDbEntity
  8
DETAIL
  6
CONTINUOUS
100
AcDbLine
 10
-1.500000000000909
 20
1062.500000000002
 30
0.0
 11
-178.4999999999991
 21
1062.5
 31
0.0
  0
LINE
  5
9081
330
73DF
100
AcDbEntity
  8
DETAIL
  6
CONTINUOUS
100
AcDbLine
 10
-358.4999999999991
 20
1062.500000000002
 30
0.0
 11
-181.5000000000009
 21
1062.5
 31
0.0
  0
LINE
  5
9082
330
73DF
100
AcDbEntity
  8
DETAIL
  6
CONTINUOUS
100
AcDbLine
 10
-358.4999999999991
 20
1059.5
 30
0.0
 11
-181.5000000000009
 21
1059.5
 31
0.0
  0
LINE
  5
9083
330
73DF
100
AcDbEntity
  8
DETAIL
  6
CONTINUOUS
100
AcDbLine
 10
-358.4999999999991
 20
1188.500000000002
 30
0.0
 11
-181.5000000000009
 21
1188.500000000002
 31
0.0
  0
LINE
  5
9084
330
73DF
100
AcDbEntity
  8
DETAIL
  6
CONTINUOUS
100
AcDbLine
 10
-358.4999999999991
 20
1185.5
 30
0.0
 11
-181.5000000000009
 21
1185.5
 31
0.0
  0
LINE
  5
9086
330
73DF
100
AcDbEntity
  8
DETAIL
  6
CONTINUOUS
100
AcDbLine
 10
-394.0000000000009
 20
1427.5
 30
0.0
 11
-361.5000000000009
 21
1427.5
 31
0.0
  0
LINE
  5
9087
330
73DF
100
AcDbEntity
  8
DETAIL
  6
CONTINUOUS
100
AcDbLine
 10
-394.0000000000009
 20
1430.5
 30
0.0
 11
-361.5000000000009
 21
1430.5
 31
0.0
  0
LINE
  5
9088
330
73DF
100
AcDbEntity
  8
DETAIL
  6
CONTINUOUS
100
AcDbLine
 10
-326.1857903762211
 20
1519.198543782175
 30
0.0
 11
-433.929500783809
 21
1519.198459076046
 31
0.0
  0
ARC
  5
9089
330
73DF
100
AcDbEntity
  8
DETAIL
  6
CONTINUOUS
100
AcDbCircle
 10
-483.3955700034429
 20
1636.863125093064
 30
0.0
 40
117.0
100
AcDbArc
 50
292.0930882558265
 51
356.9999999999946
  0
LINE
  5
908A
330
73DF
100
AcDbEntity
  8
DETAIL
  6
CONTINUOUS
100
AcDbLine
 10
0.0
 20
1457.000000000002
 30
0.0
 11
-435.0022845726535
 21
1457.000000000002
 31
0.0
  0
LINE
  5
908B
330
73DF
100
AcDbEntity
  8
DETAIL
  6
CONTINUOUS
100
AcDbLine
 10
-387.9999999999991
 20
1314.500000000002
 30
0.0
 11
-361.5000000000009
 21
1314.500000000002
 31
0.0
  0
LINE
  5
908C
330
73DF
100
AcDbEntity
  8
DETAIL
  6
CONTINUOUS
100
AcDbLine
 10
-387.9999999999991
 20
1311.500000000002
 30
0.0
 11
-361.5000000000009
 21
1311.500000000002
 31
0.0
  0
LINE
  5
908D
330
73DF
100
AcDbEntity
  8
DETAIL
  6
CONTINUOUS
100
AcDbLine
 10
-387.9999999999991
 20
1311.500000000002
 30
0.0
 11
-387.9999999999991
 21
1314.500000000002
 31
0.0
  0
ARC
  5
9091
330
73DF
100
AcDbEntity
  8
DETAIL
  6
CONTINUOUS
100
AcDbCircle
 10
-433.748727118118
 20
1514.555370417193
 30
0.0
 40
14.9999843270187
100
AcDbArc
 50
112.0930882558265
 51
179.0000375960218
  0
ARC
  5
9092
330
73DF
100
AcDbEntity
  8
DETAIL
  6
CONTINUOUS
100
AcDbCircle
 10
-433.9294889910843
 20
1504.19845907605
 30
0.0
 40
14.99999999999998
100
AcDbArc
 50
90.0
 51
179.0000166553679
  0
LINE
  5
9093
330
73DF
100
AcDbEntity
  8
DETAIL
  6
CONTINUOUS
100
AcDbLine
 10
-448.7464270466444
 20
1514.817146399115
 30
0.0
 11
-448.9270371457796
 21
1504.469828376117
 31
0.0
  0
LINE
  5
9094
330
73DF
100
AcDbEntity
  8
DETAIL
  6
CONTINUOUS
100
AcDbLine
 10
-450.0
 20
1457.000000000002
 30
0.0
 11
-448.927205951456
 21
1504.460329878734
 31
0.0
  0
ARC
  5
9095
330
73DF
100
AcDbEntity
  8
DETAIL
  6
CONTINUOUS
100
AcDbCircle
 10
1447.440736511036
 20
-2277.873630475596
 30
0.0
 40
4154.67240973223
100
AcDbArc
 50
111.4439195989427
 51
112.1194139409316
  0
LINE
  5
9096
330
73DF
100
AcDbEntity
  8
DETAIL
  6
CONTINUOUS
100
AcDbLine
 10
-1.500000000000909
 20
1427.5
 30
0.0
 11
-178.4999999999991
 21
1427.5
 31
0.0
  0
LINE
  5
9097
330
73DF
100
AcDbEntity
  8
DETAIL
  6
CONTINUOUS
100
AcDbLine
 10
-1.500000000000909
 20
1430.5
 30
0.0
 11
-178.4999999999991
 21
1430.5
 31
0.0
  0
ARC
  5
9098
330
73DF
100
AcDbEntity
  8
DETAIL
  6
CONTINUOUS
100
AcDbCircle
 10
-425.523544428509
 20
2272.919019585052
 30
0.0
 40
765.99890052384
100
AcDbArc
 50
285.9117844322208
 51
290.0898246994888
  0
LINE
  5
9099
330
73DF
100
AcDbEntity
  8
DETAIL
  6
CONTINUOUS
100
AcDbLine
 10
-1.500000000000909
 20
1311.500000000002
 30
0.0
 11
-178.4999999999991
 21
1311.500000000002
 31
0.0
  0
LINE
  5
909A
330
73DF
100
AcDbEntity
  8
DETAIL
  6
CONTINUOUS
100
AcDbLine
 10
-1.500000000000909
 20
1314.500000000002
 30
0.0
 11
-178.4999999999991
 21
1314.500000000002
 31
0.0
  0
ARC
  5
909B
330
73DF
100
AcDbEntity
  8
DETAIL
  6
CONTINUOUS
100
AcDbCircle
 10
-180.0
 20
1447.000000000002
 30
0.0
 40
1.500000000000059
100
AcDbArc
 50
0.0
 51
180.0
  0
LINE
  5
909C
330
73DF
100
AcDbEntity
  8
DETAIL
  6
CONTINUOUS
100
AcDbLine
 10
-358.4999999999991
 20
1430.5
 30
0.0
 11
-181.5000000000009
 21
1430.5
 31
0.0
  0
LINE
  5
909D
330
73DF
100
AcDbEntity
  8
DETAIL
  6
CONTINUOUS
100
AcDbLine
 10
-358.4999999999991
 20
1427.5
 30
0.0
 11
-181.5000000000009
 21
1427.5
 31
0.0
  0
LINE
  5
909E
330
73DF
100
AcDbEntity
  8
DETAIL
  6
CONTINUOUS
100
AcDbLine
 10
-358.4999999999991
 20
1314.500000000002
 30
0.0
 11
-181.5000000000009
 21
1314.500000000002
 31
0.0
  0
LINE
  5
909F
330
73DF
100
AcDbEntity
  8
DETAIL
  6
CONTINUOUS
100
AcDbLine
 10
-358.4999999999991
 20
1311.500000000002
 30
0.0
 11
-181.5000000000009
 21
1311.500000000002
 31
0.0
  0
LINE
  5
90A0
330
73DF
100
AcDbEntity
  8
DETAIL
  6
CONTINUOUS
100
AcDbLine
 10
-361.5000000000009
 20
1437.000000000002
 30
0.0
 11
-358.7499999999999
 21
1437.000000000002
 31
0.0
  0
ARC
  5
90A1
330
73DF
100
AcDbEntity
  8
DETAIL
  6
CONTINUOUS
100
AcDbCircle
 10
-342.3602821301638
 20
1967.959161995293
 30
0.0
 40
449.7905172481628
100
AcDbArc
 50
277.6344743370777
 51
282.7221862342319
  0
ARC
  5
90A2
330
73DF
100
AcDbEntity
  8
DETAIL
  6
CONTINUOUS
100
AcDbCircle
 10
-327.5754760630206
 20
1862.302557039009
 30
0.0
 40
343.106827590554
100
AcDbArc
 50
270.2320657474659
 51
277.531444533791
  0
LINE
  5
90A3
330
73DF
100
AcDbEntity
  8
DETAIL
  6
CONTINUOUS
100
AcDbLine
 10
-326.1857922090257
 20
1518.952845831813
 30
0.0
 11
-326.1857914731581
 21
1519.098610695159
 31
0.0
  0
LINE
  5
90A4
330
73DF
100
AcDbEntity
  8
DETAIL
  6
CONTINUOUS
100
AcDbLine
 10
-326.1857914731581
 20
1519.098610695159
 30
0.0
 11
-326.1857903762211
 21
1519.198543782175
 31
0.0
  0
LINE
  5
90A5
330
73DF
100
AcDbEntity
  8
DETAIL
  6
CONTINUOUS
100
AcDbLine
 10
-243.3056435452153
 20
1529.211298204282
 30
0.0
 11
-215.5195676942184
 21
1536.26941131833
 31
0.0
  0
LINE
  5
90A6
330
73DF
100
AcDbEntity
  8
DETAIL
  6
CONTINUOUS
100
AcDbLine
 10
-1.500000000000909
 20
1437.000000000002
 30
0.0
 11
1.500000000000909
 21
1437.000000000002
 31
0.0
  0
LINE
  5
90A7
330
73DF
100
AcDbEntity
  8
DETAIL
  6
CONTINUOUS
100
AcDbLine
 10
-138.8369532959977
 20
1562.381768746158
 30
0.0
 11
-116.9520673239867
 21
1571.019455529703
 31
0.0
  0
LINE
  5
90A8
330
73DF
100
AcDbEntity
  8
DETAIL
  6
CONTINUOUS
100
AcDbLine
 10
-162.4083506754914
 20
1553.527116363975
 30
0.0
 11
-138.8369532959977
 21
1562.381768746158
 31
0.0
  0
ARC
  5
90AB
330
73DF
100
AcDbEntity
  8
DETAIL
  6
CONTINUOUS
100
AcDbCircle
 10
0.0
 20
-3806.801456217797
 30
0.0
 40
5596.0
100
AcDbArc
 50
91.72955415505221
 51
91.9159927731294
  0
ARC
  5
90AC
330
73DF
100
AcDbEntity
  8
DETAIL
  6
CONTINUOUS
100
AcDbCircle
 10
0.0
 20
-3806.801456217797
 30
0.0
 40
5604.000000000001
100
AcDbArc
 50
91.72538827676211
 51
91.9150540392342
  0
LINE
  5
90AD
330
73DF
100
AcDbEntity
  8
DETAIL
  6
CONTINUOUS
100
AcDbLine
 10
-366.5907436678144
 20
1630.075236901751
 30
0.0
 11
0.0
 21
1630.075236901751
 31
0.0
  0
LINE
  5
90AE
330
73DF
100
AcDbEntity
  8
DETAIL
  6
CONTINUOUS
100
AcDbLine
 10
-363.020552436792
 20
1698.198543782202
 30
0.0
 11
0.0
 21
1698.198543782201
 31
0.0
  0
ARC
  5
90B1
330
73DF
100
AcDbEntity
  8
DETAIL
  6
CONTINUOUS
100
AcDbCircle
 10
-188.2521554210097
 20
1689.196759308413
 30
0.0
 40
168.0000000000003
100
AcDbArc
 50
148.0303861068047
 51
176.5492951557862
  0
ARC
  5
90B2
330
73DF
100
AcDbEntity
  8
DETAIL
  6
CONTINUOUS
100
AcDbCircle
 10
-188.2521554210097
 20
1689.196759308413
 30
0.0
 40
175.0000000000001
100
AcDbArc
 50
148.0303861068047
 51
177.0514744162828
  0
ARC
  5
90B6
330
73DF
100
AcDbEntity
  8
DETAIL
  6
CONTINUOUS
100
AcDbCircle
 10
-360.9384982700294
 20
1699.609587619248
 30
0.0
 40
5.000000000000438
100
AcDbArc
 50
315.0000000000184
 51
356.5492951557862
  0
LINE
  5
90B7
330
73DF
100
AcDbEntity
  8
DETAIL
  6
CONTINUOUS
100
AcDbLine
 10
-363.020552436792
 20
1698.198543782202
 30
0.0
 11
-366.5559144371582
 21
1630.73981821264
 31
0.0
  0
LINE
  5
90B8
330
73DF
100
AcDbEntity
  8
DETAIL
  6
CONTINUOUS
100
AcDbLine
 10
-360.2038429202275
 20
1693.273175157187
 30
0.0
 11
-357.402964364096
 21
1696.074053713316
 31
0.0
  0
LINE
  5
90BB
330
73DF
100
AcDbEntity
  8
NOTE
100
AcDbLine
 10
-302.8293389346272
 20
1862.423879524646
 30
0.0
 11
-252.6927137597613
 21
1862.423879524646
 31
0.0
  0
ARC
  5
90BC
330
73DF
100
AcDbEntity
  8
DETAIL
  6
CONTINUOUS
100
AcDbCircle
 10
0.0
 20
-3806.801456217797
 30
0.0
 40
5604.0
100
AcDbArc
 50
92.74860138618828
 51
92.93841117268208
  0
ARC
  5
90BD
330
73DF
100
AcDbEntity
  8
DETAIL
  6
CONTINUOUS
100
AcDbCircle
 10
0.0
 20
-3806.801456217797
 30
0.0
 40
5596.0
100
AcDbArc
 50
92.75420550466217
 51
92.94078517194526
  0
LINE
  5
90E2
330
73DF
100
AcDbEntity
  8
DETAIL
  6
CONTINUOUS
100
AcDbLine
 10
-287.1166243364541
 20
1781.597390829168
 30
0.0
 11
-286.749999999999
 21
1785.787926170291
 31
0.0
  0
LINE
  5
90E3
330
73DF
100
AcDbEntity
  8
DETAIL
  6
CONTINUOUS
100
AcDbLine
 10
-286.8499999999994
 20
1785.787926170291
 30
0.0
 11
-287.3102453645469
 21
1790.166868306957
 31
0.0
  0
LINE
  5
90E4
330
73DF
100
AcDbEntity
  8
DETAIL
  6
CONTINUOUS
100
AcDbLine
 10
-288.8833756635476
 20
1781.597390829168
 30
0.0
 11
-289.249999999999
 21
1785.787926170291
 31
0.0
  0
ARC
  5
90E5
330
73DF
100
AcDbEntity
  8
DETAIL
  6
CONTINUOUS
100
AcDbCircle
 10
0.0
 20
-3806.801456217797
 30
0.0
 40
5596.0
100
AcDbArc
 50
92.95923095106216
 51
93.1458463018407
  0
LINE
  5
90E6
330
73DF
100
AcDbEntity
  8
DETAIL
  6
CONTINUOUS
100
AcDbLine
 10
-289.1499999999996
 20
1785.787926170291
 30
0.0
 11
-288.6897546354521
 21
1790.166868306957
 31
0.0
  0
ARC
  5
90E7
330
73DF
100
AcDbEntity
  8
DETAIL
  6
CONTINUOUS
100
AcDbCircle
 10
0.0
 20
-3806.801456217797
 30
0.0
 40
5604.0
100
AcDbArc
 50
92.95333869450642
 51
93.14318491718621
  0
LINE
  5
90E8
330
73DF
100
AcDbEntity
  8
DETAIL
  6
CONTINUOUS
100
AcDbLine
 10
-306.8499999999994
 20
1784.722128638122
 30
0.0
 11
-307.3102453645469
 21
1789.101070774787
 31
0.0
  0
LINE
  5
90E9
330
73DF
100
AcDbEntity
  8
DETAIL
  6
CONTINUOUS
100
AcDbLine
 10
-307.1166243364541
 20
1780.531593296998
 30
0.0
 11
-306.7499999999991
 21
1784.722128638122
 31
0.0
  0
LINE
  5
90EA
330
73DF
100
AcDbEntity
  8
DETAIL
  6
CONTINUOUS
100
AcDbLine
 10
-308.8833756635476
 20
1780.531593296998
 30
0.0
 11
-309.249999999999
 21
1784.722128638122
 31
0.0
  0
ARC
  5
90EB
330
73DF
100
AcDbEntity
  8
DETAIL
  6
CONTINUOUS
100
AcDbCircle
 10
0.0
 20
-3806.801456217797
 30
0.0
 40
5596.000000000003
100
AcDbArc
 50
93.16429428500159
 51
93.35127023718538
  0
LINE
  5
90EC
330
73DF
100
AcDbEntity
  8
DETAIL
  6
CONTINUOUS
100
AcDbLine
 10
-309.1499999999996
 20
1784.722128638122
 30
0.0
 11
-308.6897546354521
 21
1789.101070774787
 31
0.0
  0
ARC
  5
90ED
330
73DF
100
AcDbEntity
  8
DETAIL
  6
CONTINUOUS
100
AcDbCircle
 10
0.0
 20
-3806.801456217797
 30
0.0
 40
5604.0
100
AcDbArc
 50
93.15811370119295
 51
93.34799891321244
  0
LINE
  5
90EE
330
73DF
100
AcDbEntity
  8
DETAIL
  6
CONTINUOUS
100
AcDbLine
 10
-326.8499999999994
 20
1783.584576964526
 30
0.0
 11
-327.3102453645469
 21
1787.963519101191
 31
0.0
  0
ARC
  5
90EF
330
73DF
100
AcDbEntity
  8
DETAIL
  6
CONTINUOUS
100
AcDbCircle
 10
-328.2264425659468
 20
1776.559216567052
 30
0.0
 40
2.999999999999968
100
AcDbArc
 50
102.8041497338296
 51
148.0303861068047
  0
ARC
  5
90F0
330
73DF
100
AcDbEntity
  8
DETAIL
  6
CONTINUOUS
100
AcDbCircle
 10
-328.2264425659468
 20
1776.559216567052
 30
0.0
 40
10.00000000000003
100
AcDbArc
 50
93.51378072903701
 51
148.0303861068047
  0
ARC
  5
90F1
330
73DF
100
AcDbEntity
  8
DETAIL
  6
CONTINUOUS
100
AcDbCircle
 10
-287.9999999999991
 20
1781.674676185363
 30
0.0
 40
0.8867500150717598
100
AcDbArc
 50
184.9999999999994
 51
355.0000000000005
  0
ARC
  5
90F2
330
73DF
100
AcDbEntity
  8
DETAIL
  6
CONTINUOUS
100
AcDbCircle
 10
-287.9999999999991
 20
1790.094372173475
 30
0.0
 40
0.6935539968153
100
AcDbArc
 50
6.000000000008176
 51
173.9999999999918
  0
LINE
  5
90F3
330
73DF
100
AcDbEntity
  8
DETAIL
  6
CONTINUOUS
100
AcDbLine
 10
-286.8499999999994
 20
1785.787926170291
 30
0.0
 11
-286.749999999999
 21
1785.787926170291
 31
0.0
  0
LINE
  5
90F4
330
73DF
100
AcDbEntity
  8
DETAIL
  6
CONTINUOUS
100
AcDbLine
 10
-289.249999999999
 20
1785.787926170291
 30
0.0
 11
-289.1499999999996
 21
1785.787926170291
 31
0.0
  0
ARC
  5
90F5
330
73DF
100
AcDbEntity
  8
DETAIL
  6
CONTINUOUS
100
AcDbCircle
 10
-307.9999999999991
 20
1780.608878653192
 30
0.0
 40
0.8867500150717598
100
AcDbArc
 50
184.9999999999994
 51
355.0000000000005
  0
ARC
  5
90F6
330
73DF
100
AcDbEntity
  8
DETAIL
  6
CONTINUOUS
100
AcDbCircle
 10
-307.9999999999991
 20
1789.028574641306
 30
0.0
 40
0.6935539968153
100
AcDbArc
 50
6.000000000008176
 51
174.0000000000177
  0
LINE
  5
90F7
330
73DF
100
AcDbEntity
  8
DETAIL
  6
CONTINUOUS
100
AcDbLine
 10
-306.8499999999994
 20
1784.722128638122
 30
0.0
 11
-306.7499999999991
 21
1784.722128638122
 31
0.0
  0
LINE
  5
90F8
330
73DF
100
AcDbEntity
  8
DETAIL
  6
CONTINUOUS
100
AcDbLine
 10
-309.249999999999
 20
1784.722128638122
 30
0.0
 11
-309.1499999999996
 21
1784.722128638122
 31
0.0
  0
LINE
  5
90F9
330
73DF
100
AcDbEntity
  8
DETAIL
  6
CONTINUOUS
100
AcDbLine
 10
-326.8499999999994
 20
1783.584576964526
 30
0.0
 11
-326.7499999999991
 21
1783.584576964526
 31
0.0
  0
ARC
  5
90FA
330
73DF
100
AcDbEntity
  8
DETAIL
  6
CONTINUOUS
100
AcDbCircle
 10
-327.999999999999
 20
1787.89102296771
 30
0.0
 40
0.6935539968153
100
AcDbArc
 50
6.000000000008176
 51
174.0000000000177
  0
ARC
  5
90FB
330
73DF
100
AcDbEntity
  8
DETAIL
  6
CONTINUOUS
100
AcDbCircle
 10
-327.999999999999
 20
1779.471326979597
 30
0.0
 40
0.8867500150717598
100
AcDbArc
 50
184.9999999999994
 51
355.0000000000005
  0
LINE
  5
90FC
330
73DF
100
AcDbEntity
  8
DETAIL
  6
CONTINUOUS
100
AcDbLine
 10
-329.1499999999996
 20
1783.584576964526
 30
0.0
 11
-328.6897546354521
 21
1787.963519101191
 31
0.0
  0
LINE
  5
90FD
330
73DF
100
AcDbEntity
  8
DETAIL
  6
CONTINUOUS
100
AcDbLine
 10
-327.1166243364541
 20
1779.3940416234
 30
0.0
 11
-326.7499999999991
 21
1783.584576964526
 31
0.0
  0
LINE
  5
90FE
330
73DF
100
AcDbEntity
  8
DETAIL
  6
CONTINUOUS
100
AcDbLine
 10
-328.8833756635476
 20
1779.3940416234
 30
0.0
 11
-329.2499999999991
 21
1783.584576964526
 31
0.0
  0
LINE
  5
90FF
330
73DF
100
AcDbEntity
  8
DETAIL
  6
CONTINUOUS
100
AcDbLine
 10
-329.2499999999991
 20
1783.584576964526
 30
0.0
 11
-329.1499999999996
 21
1783.584576964526
 31
0.0
  0
LINE
  5
9100
330
73DF
100
AcDbEntity
  8
DETAIL
  6
CONTINUOUS
100
AcDbLine
 10
-352.9342066987646
 20
1738.833660772456
 30
0.0
 11
-353.0384801390027
 21
1744.807482162799
 31
0.0
  0
LINE
  5
9101
330
73DF
100
AcDbEntity
  8
DETAIL
  6
CONTINUOUS
100
AcDbLine
 10
-351.8801240437096
 20
1738.833660772456
 30
0.0
 11
-352.9342066987646
 21
1738.833660772456
 31
0.0
  0
LINE
  5
9102
330
73DF
100
AcDbEntity
  8
DETAIL
  6
CONTINUOUS
100
AcDbLine
 10
-350.4846259412124
 20
1746.333660772456
 30
0.0
 11
-351.5387085962675
 21
1746.333660772456
 31
0.0
  0
ARC
  5
9103
330
73DF
100
AcDbEntity
  8
DETAIL
  6
CONTINUOUS
100
AcDbCircle
 10
-351.5387085962675
 20
1744.833660772455
 30
0.0
 40
1.499999999999988
100
AcDbArc
 50
90.0
 51
181.0000000000017
  0
LINE
  5
9104
330
73DF
100
AcDbEntity
  8
DETAIL
  6
CONTINUOUS
100
AcDbLine
 10
-350.4846259412124
 20
1746.333660772456
 30
0.0
 11
-350.3803525009743
 21
1740.359839382112
 31
0.0
  0
ARC
  5
9105
330
73DF
100
AcDbEntity
  8
DETAIL
  6
CONTINUOUS
100
AcDbCircle
 10
-351.8801240437096
 20
1740.333660772455
 30
0.0
 40
1.49999999999991
100
AcDbArc
 50
270.0
 51
1.000000000001761
  0
LINE
  5
9136
330
73DF
100
AcDbEntity
  8
DETAIL
  6
CONTINUOUS
100
AcDbLine
 10
-187.1166243364541
 20
1785.851404499251
 30
0.0
 11
-186.749999999999
 21
1790.041939840375
 31
0.0
  0
LINE
  5
9137
330
73DF
100
AcDbEntity
  8
DETAIL
  6
CONTINUOUS
100
AcDbLine
 10
-186.8499999999994
 20
1790.041939840375
 30
0.0
 11
-187.3102453645469
 21
1794.42088197704
 31
0.0
  0
LINE
  5
9138
330
73DF
100
AcDbEntity
  8
DETAIL
  6
CONTINUOUS
100
AcDbLine
 10
-188.8833756635476
 20
1785.851404499251
 30
0.0
 11
-189.2499999999991
 21
1790.041939840375
 31
0.0
  0
ARC
  5
9139
330
73DF
100
AcDbEntity
  8
DETAIL
  6
CONTINUOUS
100
AcDbCircle
 10
0.0
 20
-3806.801456217797
 30
0.0
 40
5596.0
100
AcDbArc
 50
91.93442975843899
 51
92.12089161551929
  0
LINE
  5
913A
330
73DF
100
AcDbEntity
  8
DETAIL
  6
CONTINUOUS
100
AcDbLine
 10
-189.1499999999996
 20
1790.041939840375
 30
0.0
 11
-188.6897546354521
 21
1794.42088197704
 31
0.0
  0
ARC
  5
913B
330
73DF
100
AcDbEntity
  8
DETAIL
  6
CONTINUOUS
100
AcDbCircle
 10
0.0
 20
-3806.801456217797
 30
0.0
 40
5604.0
100
AcDbArc
 50
91.92997652200034
 51
92.1196660135728
  0
LINE
  5
913C
330
73DF
100
AcDbEntity
  8
DETAIL
  6
CONTINUOUS
100
AcDbLine
 10
-206.8499999999994
 20
1789.334353427995
 30
0.0
 11
-207.3102453645469
 21
1793.71329556466
 31
0.0
  0
LINE
  5
913D
330
73DF
100
AcDbEntity
  8
DETAIL
  6
CONTINUOUS
100
AcDbLine
 10
-207.1166243364541
 20
1785.143818086872
 30
0.0
 11
-206.7499999999991
 21
1789.334353427995
 31
0.0
  0
ARC
  5
913E
330
73DF
100
AcDbEntity
  8
DETAIL
  6
CONTINUOUS
100
AcDbCircle
 10
-207.999999999999
 20
1785.221103443068
 30
0.0
 40
0.8867500150717598
100
AcDbArc
 50
184.9999999999994
 51
355.0000000000005
  0
LINE
  5
913F
330
73DF
100
AcDbEntity
  8
DETAIL
  6
CONTINUOUS
100
AcDbLine
 10
-208.8833756635476
 20
1785.143818086872
 30
0.0
 11
-209.249999999999
 21
1789.334353427995
 31
0.0
  0
LINE
  5
9140
330
73DF
100
AcDbEntity
  8
DETAIL
  6
CONTINUOUS
100
AcDbLine
 10
-209.1499999999996
 20
1789.334353427995
 30
0.0
 11
-208.6897546354521
 21
1793.71329556466
 31
0.0
  0
ARC
  5
9141
330
73DF
100
AcDbEntity
  8
DETAIL
  6
CONTINUOUS
100
AcDbCircle
 10
-187.9999999999991
 20
1785.928689855445
 30
0.0
 40
0.8867500150717598
100
AcDbArc
 50
184.9999999999994
 51
355.0000000000005
  0
ARC
  5
9142
330
73DF
100
AcDbEntity
  8
DETAIL
  6
CONTINUOUS
100
AcDbCircle
 10
-187.9999999999991
 20
1794.34838584356
 30
0.0
 40
0.6935539968153
100
AcDbArc
 50
6.000000000008176
 51
173.9999999999918
  0
LINE
  5
9143
330
73DF
100
AcDbEntity
  8
DETAIL
  6
CONTINUOUS
100
AcDbLine
 10
-186.8499999999994
 20
1790.041939840375
 30
0.0
 11
-186.749999999999
 21
1790.041939840375
 31
0.0
  0
LINE
  5
9144
330
73DF
100
AcDbEntity
  8
DETAIL
  6
CONTINUOUS
100
AcDbLine
 10
-189.2499999999991
 20
1790.041939840375
 30
0.0
 11
-189.1499999999996
 21
1790.041939840375
 31
0.0
  0
ARC
  5
9145
330
73DF
100
AcDbEntity
  8
DETAIL
  6
CONTINUOUS
100
AcDbCircle
 10
-207.999999999999
 20
1793.640799431181
 30
0.0
 40
0.6935539968153
100
AcDbArc
 50
6.000000000008176
 51
174.0000000000177
  0
LINE
  5
9146
330
73DF
100
AcDbEntity
  8
DETAIL
  6
CONTINUOUS
100
AcDbLine
 10
-206.8499999999994
 20
1789.334353427995
 30
0.0
 11
-206.7499999999991
 21
1789.334353427995
 31
0.0
  0
LINE
  5
9147
330
73DF
100
AcDbEntity
  8
DETAIL
  6
CONTINUOUS
100
AcDbLine
 10
-209.249999999999
 20
1789.334353427995
 30
0.0
 11
-209.1499999999996
 21
1789.334353427995
 31
0.0
  0
ARC
  5
9148
330
73DF
100
AcDbEntity
  8
DETAIL
  6
CONTINUOUS
100
AcDbCircle
 10
0.0
 20
-3806.801456217797
 30
0.0
 40
5596.0
100
AcDbArc
 50
92.54921530105621
 51
92.73576178099814
  0
ARC
  5
9149
330
73DF
100
AcDbEntity
  8
DETAIL
  6
CONTINUOUS
100
AcDbCircle
 10
0.0
 20
-3806.801456217797
 30
0.0
 40
5604.0
100
AcDbArc
 50
92.54389914256707
 51
92.73367504172481
  0
LINE
  5
914A
330
73DF
100
AcDbEntity
  8
DETAIL
  6
CONTINUOUS
100
AcDbLine
 10
-267.1166243364541
 20
1782.591475235864
 30
0.0
 11
-266.7499999999991
 21
1786.782010576988
 31
0.0
  0
LINE
  5
914B
330
73DF
100
AcDbEntity
  8
DETAIL
  6
CONTINUOUS
100
AcDbLine
 10
-266.8499999999994
 20
1786.782010576988
 30
0.0
 11
-267.3102453645469
 21
1791.160952713652
 31
0.0
  0
LINE
  5
914C
330
73DF
100
AcDbEntity
  8
DETAIL
  6
CONTINUOUS
100
AcDbLine
 10
-269.1499999999996
 20
1786.782010576988
 30
0.0
 11
-268.6897546354521
 21
1791.160952713652
 31
0.0
  0
LINE
  5
914D
330
73DF
100
AcDbEntity
  8
DETAIL
  6
CONTINUOUS
100
AcDbLine
 10
-268.8833756635476
 20
1782.591475235864
 30
0.0
 11
-269.2499999999991
 21
1786.782010576988
 31
0.0
  0
ARC
  5
914E
330
73DF
100
AcDbEntity
  8
DETAIL
  6
CONTINUOUS
100
AcDbCircle
 10
-267.999999999999
 20
1782.668760592061
 30
0.0
 40
0.8867500150717598
100
AcDbArc
 50
184.9999999999994
 51
355.0000000000005
  0
ARC
  5
914F
330
73DF
100
AcDbEntity
  8
DETAIL
  6
CONTINUOUS
100
AcDbCircle
 10
-267.999999999999
 20
1791.088456580174
 30
0.0
 40
0.6935539968153
100
AcDbArc
 50
6.000000000008176
 51
173.9999999999918
  0
LINE
  5
9150
330
73DF
100
AcDbEntity
  8
DETAIL
  6
CONTINUOUS
100
AcDbLine
 10
-266.8499999999994
 20
1786.782010576988
 30
0.0
 11
-266.7499999999991
 21
1786.782010576988
 31
0.0
  0
LINE
  5
9151
330
73DF
100
AcDbEntity
  8
DETAIL
  6
CONTINUOUS
100
AcDbLine
 10
-269.2499999999991
 20
1786.782010576988
 30
0.0
 11
-269.1499999999996
 21
1786.782010576988
 31
0.0
  0
LINE
  5
9152
330
73DF
100
AcDbEntity
  8
DETAIL
  6
CONTINUOUS
100
AcDbLine
 10
-226.8499999999994
 20
1788.555190145325
 30
0.0
 11
-227.3102453645469
 21
1792.93413228199
 31
0.0
  0
LINE
  5
9153
330
73DF
100
AcDbEntity
  8
DETAIL
  6
CONTINUOUS
100
AcDbLine
 10
-227.1166243364541
 20
1784.364654804202
 30
0.0
 11
-226.749999999999
 21
1788.555190145325
 31
0.0
  0
LINE
  5
9154
330
73DF
100
AcDbEntity
  8
DETAIL
  6
CONTINUOUS
100
AcDbLine
 10
-228.8833756635476
 20
1784.364654804202
 30
0.0
 11
-229.2499999999991
 21
1788.555190145325
 31
0.0
  0
ARC
  5
9155
330
73DF
100
AcDbEntity
  8
DETAIL
  6
CONTINUOUS
100
AcDbCircle
 10
0.0
 20
-3806.801456217797
 30
0.0
 40
5596.0
100
AcDbArc
 50
92.34425769953674
 51
92.53077348435587
  0
LINE
  5
9156
330
73DF
100
AcDbEntity
  8
DETAIL
  6
CONTINUOUS
100
AcDbLine
 10
-229.1499999999996
 20
1788.555190145325
 30
0.0
 11
-228.6897546354521
 21
1792.93413228199
 31
0.0
  0
ARC
  5
9157
330
73DF
100
AcDbEntity
  8
DETAIL
  6
CONTINUOUS
100
AcDbCircle
 10
0.0
 20
-3806.801456217797
 30
0.0
 40
5604.0
100
AcDbArc
 50
92.33922933400389
 51
92.52897389066438
  0
LINE
  5
9158
330
73DF
100
AcDbEntity
  8
DETAIL
  6
CONTINUOUS
100
AcDbLine
 10
-247.1166243364541
 20
1783.513884745079
 30
0.0
 11
-246.749999999999
 21
1787.704420086203
 31
0.0
  0
LINE
  5
9159
330
73DF
100
AcDbEntity
  8
DETAIL
  6
CONTINUOUS
100
AcDbLine
 10
-246.8499999999994
 20
1787.704420086203
 30
0.0
 11
-247.3102453645469
 21
1792.083362222868
 31
0.0
  0
LINE
  5
915A
330
73DF
100
AcDbEntity
  8
DETAIL
  6
CONTINUOUS
100
AcDbLine
 10
-248.8833756635476
 20
1783.513884745079
 30
0.0
 11
-249.249999999999
 21
1787.704420086203
 31
0.0
  0
LINE
  5
915B
330
73DF
100
AcDbEntity
  8
DETAIL
  6
CONTINUOUS
100
AcDbLine
 10
-249.1499999999996
 20
1787.704420086203
 30
0.0
 11
-248.6897546354521
 21
1792.083362222868
 31
0.0
  0
ARC
  5
915C
330
73DF
100
AcDbEntity
  8
DETAIL
  6
CONTINUOUS
100
AcDbCircle
 10
-227.999999999999
 20
1784.441940160397
 30
0.0
 40
0.8867500150717598
100
AcDbArc
 50
184.9999999999994
 51
355.0000000000005
  0
ARC
  5
915D
330
73DF
100
AcDbEntity
  8
DETAIL
  6
CONTINUOUS
100
AcDbCircle
 10
-227.999999999999
 20
1792.861636148511
 30
0.0
 40
0.6935539968153
100
AcDbArc
 50
6.000000000008176
 51
174.0000000000177
  0
LINE
  5
915E
330
73DF
100
AcDbEntity
  8
DETAIL
  6
CONTINUOUS
100
AcDbLine
 10
-226.8499999999994
 20
1788.555190145325
 30
0.0
 11
-226.749999999999
 21
1788.555190145325
 31
0.0
  0
LINE
  5
915F
330
73DF
100
AcDbEntity
  8
DETAIL
  6
CONTINUOUS
100
AcDbLine
 10
-229.2499999999991
 20
1788.555190145325
 30
0.0
 11
-229.1499999999996
 21
1788.555190145325
 31
0.0
  0
ARC
  5
9160
330
73DF
100
AcDbEntity
  8
DETAIL
  6
CONTINUOUS
100
AcDbCircle
 10
-247.9999999999991
 20
1783.591170101274
 30
0.0
 40
0.8867500150717598
100
AcDbArc
 50
184.9999999999994
 51
355.0000000000005
  0
ARC
  5
9161
330
73DF
100
AcDbEntity
  8
DETAIL
  6
CONTINUOUS
100
AcDbCircle
 10
-247.9999999999991
 20
1792.010866089388
 30
0.0
 40
0.6935539968153
100
AcDbArc
 50
6.000000000008176
 51
174.0000000000177
  0
LINE
  5
9162
330
73DF
100
AcDbEntity
  8
DETAIL
  6
CONTINUOUS
100
AcDbLine
 10
-246.8499999999994
 20
1787.704420086203
 30
0.0
 11
-246.749999999999
 21
1787.704420086203
 31
0.0
  0
LINE
  5
9163
330
73DF
100
AcDbEntity
  8
DETAIL
  6
CONTINUOUS
100
AcDbLine
 10
-249.249999999999
 20
1787.704420086203
 30
0.0
 11
-249.1499999999996
 21
1787.704420086203
 31
0.0
  0
ARC
  5
9164
330
73DF
100
AcDbEntity
  8
DETAIL
  6
CONTINUOUS
100
AcDbCircle
 10
0.0
 20
-3806.801456217797
 30
0.0
 40
5596.0
100
AcDbArc
 50
92.13933006316441
 51
92.32581764147143
  0
ARC
  5
9165
330
73DF
100
AcDbEntity
  8
DETAIL
  6
CONTINUOUS
100
AcDbCircle
 10
0.0
 20
-3806.801456217797
 30
0.0
 40
5604.000000000001
100
AcDbArc
 50
92.13458933464076
 51
92.32430508989777
  0
LINE
  5
9166
330
73DF
100
AcDbEntity
  8
DETAIL
  6
CONTINUOUS
100
AcDbLine
 10
-71.46748737196958
 20
1589.195109488922
 30
0.0
 11
-58.15772370543982
 21
1594.173455502519
 31
0.0
  0
ARC
  5
9167
330
73DF
100
AcDbEntity
  8
DETAIL
  6
CONTINUOUS
100
AcDbCircle
 10
-0.8644154583753334
 20
1487.061170254234
 30
0.0
 40
119.8632988882048
100
AcDbArc
 50
78.153431289882
 51
89.58679773235127
  0
LINE
  5
9168
330
73DF
100
AcDbEntity
  8
DETAIL
  6
CONTINUOUS
100
AcDbLine
 10
-36.62288795420408
 20
1601.201761670763
 30
0.0
 11
-23.74251120419557
 21
1604.371483443594
 31
0.0
  0
ARC
  5
9169
330
73DF
100
AcDbEntity
  8
DETAIL
  6
CONTINUOUS
100
AcDbCircle
 10
0.8644154583753334
 20
1487.061170254234
 30
0.0
 40
119.8632988882048
100
AcDbArc
 50
90.41320226764874
 51
101.846568710118
  0
ARC
  5
916A
330
73DF
100
AcDbEntity
  8
DETAIL
  6
CONTINUOUS
100
AcDbCircle
 10
59.9070929115469
 20
1268.926765914402
 30
0.0
 40
346.0125864919256
100
AcDbArc
 50
106.1992320870737
 51
109.9509389655948
  0
LINE
  5
9190
330
73DF
100
AcDbEntity
  8
DETAIL
  6
CONTINUOUS
100
AcDbLine
 10
-147.1166243364541
 20
1787.051952534407
 30
0.0
 11
-146.749999999999
 21
1791.242487875531
 31
0.0
  0
LINE
  5
9191
330
73DF
100
AcDbEntity
  8
DETAIL
  6
CONTINUOUS
100
AcDbLine
 10
-146.8499999999994
 20
1791.242487875531
 30
0.0
 11
-147.3102453645469
 21
1795.621430012196
 31
0.0
  0
LINE
  5
9192
330
73DF
100
AcDbEntity
  8
DETAIL
  6
CONTINUOUS
100
AcDbLine
 10
-146.8499999999994
 20
1791.242487875531
 30
0.0
 11
-146.749999999999
 21
1791.242487875531
 31
0.0
  0
LINE
  5
9193
330
73DF
100
AcDbEntity
  8
DETAIL
  6
CONTINUOUS
100
AcDbLine
 10
-129.249999999999
 20
1791.73549552236
 30
0.0
 11
-129.1499999999996
 21
1791.73549552236
 31
0.0
  0
LINE
  5
9194
330
73DF
100
AcDbEntity
  8
DETAIL
  6
CONTINUOUS
100
AcDbLine
 10
-126.8499999999994
 20
1791.73549552236
 30
0.0
 11
-126.749999999999
 21
1791.73549552236
 31
0.0
  0
ARC
  5
9195
330
73DF
100
AcDbEntity
  8
DETAIL
  6
CONTINUOUS
100
AcDbCircle
 10
-127.999999999999
 20
1796.041941525545
 30
0.0
 40
0.6935539968151601
100
AcDbArc
 50
6.000000000008176
 51
174.0000000000177
  0
ARC
  5
9196
330
73DF
100
AcDbEntity
  8
DETAIL
  6
CONTINUOUS
100
AcDbCircle
 10
-127.999999999999
 20
1787.622245537431
 30
0.0
 40
0.8867500150718999
100
AcDbArc
 50
184.9999999999994
 51
355.0000000000005
  0
LINE
  5
9197
330
73DF
100
AcDbEntity
  8
DETAIL
  6
CONTINUOUS
100
AcDbLine
 10
-129.1499999999996
 20
1791.73549552236
 30
0.0
 11
-128.6897546354521
 21
1796.114437659025
 31
0.0
  0
LINE
  5
9198
330
73DF
100
AcDbEntity
  8
DETAIL
  6
CONTINUOUS
100
AcDbLine
 10
-128.8833756635476
 20
1787.544960181236
 30
0.0
 11
-129.249999999999
 21
1791.73549552236
 31
0.0
  0
LINE
  5
9199
330
73DF
100
AcDbEntity
  8
DETAIL
  6
CONTINUOUS
100
AcDbLine
 10
-127.1166243364541
 20
1787.544960181236
 30
0.0
 11
-126.749999999999
 21
1791.73549552236
 31
0.0
  0
LINE
  5
919A
330
73DF
100
AcDbEntity
  8
DETAIL
  6
CONTINUOUS
100
AcDbLine
 10
-126.8499999999994
 20
1791.73549552236
 30
0.0
 11
-127.3102453645469
 21
1796.114437659025
 31
0.0
  0
ARC
  5
919B
330
73DF
100
AcDbEntity
  8
DETAIL
  6
CONTINUOUS
100
AcDbCircle
 10
0.0
 20
-3806.801456217797
 30
0.0
 40
5604.0
100
AcDbArc
 50
91.11174479258547
 51
91.3013545487869
  0
ARC
  5
919C
330
73DF
100
AcDbEntity
  8
DETAIL
  6
CONTINUOUS
100
AcDbCircle
 10
0.0
 20
-3806.801456217797
 30
0.0
 40
5596.0
100
AcDbArc
 50
91.1150492904068
 51
91.30143305890554
  0
ARC
  5
919D
330
73DF
100
AcDbEntity
  8
DETAIL
  6
CONTINUOUS
100
AcDbCircle
 10
0.0
 20
-3806.801456217797
 30
0.0
 40
5604.0
100
AcDbArc
 50
91.3162750249382
 51
91.50590092208068
  0
ARC
  5
919E
330
73DF
100
AcDbEntity
  8
DETAIL
  6
CONTINUOUS
100
AcDbCircle
 10
0.0
 20
-3806.801456217797
 30
0.0
 40
5596.0
100
AcDbArc
 50
91.31986654485322
 51
91.5062661209464
  0
ARC
  5
919F
330
73DF
100
AcDbEntity
  8
DETAIL
  6
CONTINUOUS
100
AcDbCircle
 10
-104.6492894902667
 20
1793.220822863702
 30
0.0
 40
2.000000000002128
100
AcDbArc
 50
91.07057874129619
 51
175.0000000000005
  0
LINE
  5
91A0
330
73DF
100
AcDbEntity
  8
DETAIL
  6
CONTINUOUS
100
AcDbLine
 10
-108.8833756635449
 20
1787.966483014718
 30
0.0
 11
-109.249999999999
 21
1792.157018355843
 31
0.0
  0
ARC
  5
91A1
330
73DF
100
AcDbEntity
  8
DETAIL
  6
CONTINUOUS
100
AcDbCircle
 10
-107.999999999999
 20
1788.043768370914
 30
0.0
 40
0.8867500150715901
100
AcDbArc
 50
184.9999999999994
 51
355.0000000000005
  0
LINE
  5
91A2
330
73DF
100
AcDbEntity
  8
DETAIL
  6
CONTINUOUS
100
AcDbLine
 10
-109.1499999999996
 20
1792.157018355843
 30
0.0
 11
-108.6897546354521
 21
1796.535960492508
 31
0.0
  0
LINE
  5
91A3
330
73DF
100
AcDbEntity
  8
DETAIL
  6
CONTINUOUS
100
AcDbLine
 10
-109.249999999999
 20
1792.157018355843
 30
0.0
 11
-109.1499999999996
 21
1792.157018355843
 31
0.0
  0
ARC
  5
91A4
330
73DF
100
AcDbEntity
  8
DETAIL
  6
CONTINUOUS
100
AcDbCircle
 10
-107.999999999999
 20
1796.463464359026
 30
0.0
 40
0.6935539968155501
100
AcDbArc
 50
90.0
 51
173.9999999999918
  0
LINE
  5
91A5
330
73DF
100
AcDbEntity
  8
DETAIL
  6
CONTINUOUS
100
AcDbLine
 10
-107.1166243364523
 20
1787.966483014718
 30
0.0
 11
-106.6416788864507
 21
1793.395134349198
 31
0.0
  0
LINE
  5
91A6
330
73DF
100
AcDbEntity
  8
DETAIL
  6
CONTINUOUS
100
AcDbLine
 10
-148.8833756635476
 20
1787.051952534407
 30
0.0
 11
-149.249999999999
 21
1791.242487875531
 31
0.0
  0
ARC
  5
91A7
330
73DF
100
AcDbEntity
  8
DETAIL
  6
CONTINUOUS
100
AcDbCircle
 10
0.0
 20
-3806.801456217797
 30
0.0
 40
5596.0
100
AcDbArc
 50
91.5247006255073
 51
91.71111848406523
  0
LINE
  5
91A8
330
73DF
100
AcDbEntity
  8
DETAIL
  6
CONTINUOUS
100
AcDbLine
 10
-149.1499999999996
 20
1791.242487875531
 30
0.0
 11
-148.6897546354521
 21
1795.621430012196
 31
0.0
  0
ARC
  5
91A9
330
73DF
100
AcDbEntity
  8
DETAIL
  6
CONTINUOUS
100
AcDbCircle
 10
0.0
 20
-3806.801456217797
 30
0.0
 40
5604.000000000001
100
AcDbArc
 50
91.52082198240618
 51
91.7104665475788
  0
LINE
  5
91AA
330
73DF
100
AcDbEntity
  8
DETAIL
  6
CONTINUOUS
100
AcDbLine
 10
-166.8499999999994
 20
1790.677976526907
 30
0.0
 11
-167.3102453645469
 21
1795.056918663572
 31
0.0
  0
LINE
  5
91AB
330
73DF
100
AcDbEntity
  8
DETAIL
  6
CONTINUOUS
100
AcDbLine
 10
-167.1166243364541
 20
1786.487441185784
 30
0.0
 11
-166.749999999999
 21
1790.677976526907
 31
0.0
  0
LINE
  5
91AC
330
73DF
100
AcDbEntity
  8
DETAIL
  6
CONTINUOUS
100
AcDbLine
 10
-168.8833756635476
 20
1786.487441185784
 30
0.0
 11
-169.2499999999991
 21
1790.677976526907
 31
0.0
  0
LINE
  5
91AD
330
73DF
100
AcDbEntity
  8
DETAIL
  6
CONTINUOUS
100
AcDbLine
 10
-169.1499999999996
 20
1790.677976526907
 30
0.0
 11
-168.6897546354521
 21
1795.056918663572
 31
0.0
  0
LINE
  5
91AE
330
73DF
100
AcDbEntity
  8
DETAIL
  6
CONTINUOUS
100
AcDbLine
 10
-149.249999999999
 20
1791.242487875531
 30
0.0
 11
-149.1499999999996
 21
1791.242487875531
 31
0.0
  0
ARC
  5
91AF
330
73DF
100
AcDbEntity
  8
DETAIL
  6
CONTINUOUS
100
AcDbCircle
 10
-167.999999999999
 20
1786.564726541979
 30
0.0
 40
0.8867500150717598
100
AcDbArc
 50
184.9999999999994
 51
355.0000000000005
  0
ARC
  5
91B0
330
73DF
100
AcDbEntity
  8
DETAIL
  6
CONTINUOUS
100
AcDbCircle
 10
-167.999999999999
 20
1794.984422530091
 30
0.0
 40
0.6935539968153
100
AcDbArc
 50
6.000000000008176
 51
174.0000000000177
  0
LINE
  5
91B1
330
73DF
100
AcDbEntity
  8
DETAIL
  6
CONTINUOUS
100
AcDbLine
 10
-166.8499999999994
 20
1790.677976526907
 30
0.0
 11
-166.749999999999
 21
1790.677976526907
 31
0.0
  0
LINE
  5
91B2
330
73DF
100
AcDbEntity
  8
DETAIL
  6
CONTINUOUS
100
AcDbLine
 10
-169.2499999999991
 20
1790.677976526907
 30
0.0
 11
-169.1499999999996
 21
1790.677976526907
 31
0.0
  0
ARC
  5
91B3
330
73DF
100
AcDbEntity
  8
DETAIL
  6
CONTINUOUS
100
AcDbCircle
 10
-147.999999999999
 20
1787.129237890602
 30
0.0
 40
0.88675001507175
100
AcDbArc
 50
184.9999999999994
 51
355.0000000000005
  0
ARC
  5
91B4
330
73DF
100
AcDbEntity
  8
DETAIL
  6
CONTINUOUS
100
AcDbCircle
 10
-147.999999999999
 20
1795.548933878716
 30
0.0
 40
0.6935539968153
100
AcDbArc
 50
6.000000000008176
 51
174.0000000000177
  0
LINE
  5
91B5
330
73DF
100
AcDbEntity
  8
NOTE
100
AcDbLine
 10
476.120721949138
 20
1335.373064306953
 30
0.0
 11
301.5393945370751
 21
1136.990146018072
 31
0.0
  0
LINE
  5
91B6
330
73DF
100
AcDbEntity
  8
DETAIL
  6
CONTINUOUS
100
AcDbLine
 10
358.4999999999991
 20
814.5000000000019
 30
0.0
 11
181.5000000000009
 21
814.5000000000019
 31
0.0
  0
LINE
  5
91B7
330
73DF
100
AcDbEntity
  8
DETAIL
  6
CONTINUOUS
100
AcDbLine
 10
358.4999999999991
 20
811.5000000000017
 30
0.0
 11
181.5000000000009
 21
811.5000000000017
 31
0.0
  0
LINE
  5
91B8
330
73DF
100
AcDbEntity
  8
DETAIL
  6
CONTINUOUS
100
AcDbLine
 10
358.4999999999991
 20
936.5000000000017
 30
0.0
 11
181.5000000000009
 21
936.5000000000017
 31
0.0
  0
LINE
  5
91B9
330
73DF
100
AcDbEntity
  8
DETAIL
  6
CONTINUOUS
100
AcDbLine
 10
358.4999999999991
 20
933.5000000000022
 30
0.0
 11
181.5000000000009
 21
933.5000000000022
 31
0.0
  0
LINE
  5
91BA
330
73DF
100
AcDbEntity
  8
DETAIL
  6
CONTINUOUS
100
AcDbLine
 10
388.0000000000009
 20
811.5000000000017
 30
0.0
 11
388.0000000000009
 21
814.5000000000019
 31
0.0
  0
LINE
  5
91BB
330
73DF
100
AcDbEntity
  8
DETAIL
  6
CONTINUOUS
100
AcDbLine
 10
388.0000000000009
 20
811.5000000000017
 30
0.0
 11
361.5000000000009
 21
811.5000000000017
 31
0.0
  0
LINE
  5
91BC
330
73DF
100
AcDbEntity
  8
DETAIL
  6
CONTINUOUS
100
AcDbLine
 10
388.0000000000009
 20
814.5000000000019
 30
0.0
 11
361.5000000000009
 21
814.5000000000019
 31
0.0
  0
LINE
  5
91BD
330
73DF
100
AcDbEntity
  8
DETAIL
  6
CONTINUOUS
100
AcDbLine
 10
388.0000000000009
 20
933.5000000000022
 30
0.0
 11
388.0000000000009
 21
936.5000000000017
 31
0.0
  0
LINE
  5
91BE
330
73DF
100
AcDbEntity
  8
DETAIL
  6
CONTINUOUS
100
AcDbLine
 10
388.0000000000009
 20
933.5000000000022
 30
0.0
 11
361.5000000000009
 21
933.5000000000022
 31
0.0
  0
LINE
  5
91BF
330
73DF
100
AcDbEntity
  8
DETAIL
  6
CONTINUOUS
100
AcDbLine
 10
388.0000000000009
 20
936.5000000000017
 30
0.0
 11
361.5000000000009
 21
936.5000000000017
 31
0.0
  0
LINE
  5
91C0
330
73DF
100
AcDbEntity
  8
DETAIL
  6
CONTINUOUS
100
AcDbLine
 10
358.4999999999991
 20
1062.500000000002
 30
0.0
 11
181.5000000000009
 21
1062.5
 31
0.0
  0
LINE
  5
91C1
330
73DF
100
AcDbEntity
  8
DETAIL
  6
CONTINUOUS
100
AcDbLine
 10
358.4999999999991
 20
1059.5
 30
0.0
 11
181.5000000000009
 21
1059.5
 31
0.0
  0
LINE
  5
91C2
330
73DF
100
AcDbEntity
  8
DETAIL
  6
CONTINUOUS
100
AcDbLine
 10
358.4999999999991
 20
1188.500000000002
 30
0.0
 11
181.5000000000009
 21
1188.500000000002
 31
0.0
  0
LINE
  5
91C3
330
73DF
100
AcDbEntity
  8
DETAIL
  6
CONTINUOUS
100
AcDbLine
 10
358.4999999999991
 20
1185.5
 30
0.0
 11
181.5000000000009
 21
1185.5
 31
0.0
  0
POLYLINE
  5
91C4
330
73DF
100
AcDbEntity
  8
NOTE
100
AcDb2dPolyline
 66
     1
 10
0.0
 20
0.0
 30
0.0
  0
VERTEX
  5
BA28
330
91C4
100
AcDbEntity
  8
NOTE
100
AcDbVertex
100
AcDb2dVertex
 10
335.8806190646837
 20
1157.500638927069
 30
0.0
  0
VERTEX
  5
BA29
330
91C4
100
AcDbEntity
  8
NOTE
100
AcDbVertex
100
AcDb2dVertex
 10
301.5393945370751
 20
1136.990146018072
 30
0.0
  0
VERTEX
  5
BA2A
330
91C4
100
AcDbEntity
  8
NOTE
100
AcDbVertex
100
AcDb2dVertex
 10
321.0245203523764
 20
1171.923365716768
 30
0.0
  0
SEQEND
  5
BA2B
330
91C4
100
AcDbEntity
  8
NOTE
  0
LINE
  5
91C5
330
73DF
100
AcDbEntity
  8
DETAIL
  6
CONTINUOUS
100
AcDbLine
 10
394.0000000000009
 20
1059.500000000002
 30
0.0
 11
361.5000000000009
 21
1059.5
 31
0.0
  0
LINE
  5
91C6
330
73DF
100
AcDbEntity
  8
DETAIL
  6
CONTINUOUS
100
AcDbLine
 10
394.0000000000009
 20
1062.500000000002
 30
0.0
 11
361.5000000000009
 21
1062.500000000002
 31
0.0
  0
LINE
  5
91C7
330
73DF
100
AcDbEntity
  8
DETAIL
  6
CONTINUOUS
100
AcDbLine
 10
388.0000000000009
 20
1185.5
 30
0.0
 11
388.0000000000009
 21
1188.500000000002
 31
0.0
  0
LINE
  5
91C8
330
73DF
100
AcDbEntity
  8
DETAIL
  6
CONTINUOUS
100
AcDbLine
 10
388.0000000000009
 20
1185.5
 30
0.0
 11
361.5000000000009
 21
1185.5
 31
0.0
  0
LINE
  5
91C9
330
73DF
100
AcDbEntity
  8
DETAIL
  6
CONTINUOUS
100
AcDbLine
 10
388.0000000000009
 20
1188.500000000002
 30
0.0
 11
361.5000000000009
 21
1188.500000000002
 31
0.0
  0
TEXT
  5
91CA
330
73DF
100
AcDbEntity
  8
NOTE
100
AcDbText
 10
587.0246982761027
 20
997.4248028519795
 30
0.0
 40
47.8918332576439
  1
OA
 50
0.0000025044687019
 41
0.833333333333333
  7
STANDARD1
100
AcDbText
  0
LINE
  5
91CB
330
73DF
100
AcDbEntity
  8
NOTE
100
AcDbLine
 10
571.0395487133509
 20
781.6891726720814
 30
0.0
 11
530.9304753488476
 21
821.7984759413097
 31
0.0
  0
LINE
  5
91CC
330
73DF
100
AcDbEntity
  8
NOTE
100
AcDbLine
 10
571.0395211045806
 20
861.9078100522965
 30
0.0
 11
530.9305651658442
 21
821.7987526854631
 31
0.0
  0
LINE
  5
91CD
330
73DF
100
AcDbEntity
  8
NOTE
100
AcDbLine
 10
571.0395462913083
 20
846.8668731456965
 30
0.0
 11
646.2448266026886
 21
846.8668731456965
 31
0.0
  0
LINE
  5
91CE
330
73DF
100
AcDbEntity
  8
NOTE
100
AcDbLine
 10
571.0395462913083
 20
861.9077465151313
 30
0.0
 11
571.0395462913083
 21
846.8668731456965
 31
0.0
  0
LINE
  5
91CF
330
73DF
100
AcDbEntity
  8
NOTE
100
AcDbLine
 10
571.0395462913083
 20
796.7302479708287
 30
0.0
 11
646.2448266026886
 21
796.7302479708287
 31
0.0
  0
LINE
  5
91D0
330
73DF
100
AcDbEntity
  8
NOTE
100
AcDbLine
 10
571.0395462913083
 20
779.1147757163307
 30
0.0
 11
571.0395462913083
 21
796.7302479708287
 31
0.0
  0
LINE
  5
91D1
330
73DF
100
AcDbEntity
  8
NOTE
100
AcDbLine
 10
646.2448266026886
 20
846.8668731456965
 30
0.0
 11
646.2448266026886
 21
796.7302479708287
 31
0.0
  0
LINE
  5
91D2
330
73DF
100
AcDbEntity
  8
NOTE
100
AcDbLine
 10
568.5395463057402
 20
1263.002269122901
 30
0.0
 11
528.43047553218
 21
1222.892985349445
 31
0.0
  0
LINE
  5
91D3
330
73DF
100
AcDbEntity
  8
NOTE
100
AcDbLine
 10
568.5397718218892
 20
1182.783127003238
 30
0.0
 11
528.4305601408568
 21
1222.89241644628
 31
0.0
  0
LINE
  5
91D4
330
73DF
100
AcDbEntity
  8
NOTE
100
AcDbLine
 10
568.5395462913084
 20
1197.824128935899
 30
0.0
 11
643.7448266026885
 21
1197.824128935899
 31
0.0
  0
LINE
  5
91D5
330
73DF
100
AcDbEntity
  8
NOTE
100
AcDbLine
 10
568.5395462913084
 20
1247.960873646123
 30
0.0
 11
643.7448266026885
 21
1247.960873646123
 31
0.0
  0
LINE
  5
91D6
330
73DF
100
AcDbEntity
  8
NOTE
100
AcDbLine
 10
568.5395462913084
 20
1263.001789834193
 30
0.0
 11
568.5395462913084
 21
1247.960873646123
 31
0.0
  0
LINE
  5
91D7
330
73DF
100
AcDbEntity
  8
NOTE
100
AcDbLine
 10
643.7448266026885
 20
1247.960873646123
 30
0.0
 11
643.7448266026885
 21
1197.824128935899
 31
0.0
  0
LINE
  5
91D8
330
73DF
100
AcDbEntity
  8
NOTE
100
AcDbLine
 10
568.5395462913084
 20
1180.208782461142
 30
0.0
 11
568.5395462913084
 21
1197.824128935899
 31
0.0
  0
ARC
  5
91DA
330
73DF
100
AcDbEntity
  8
DETAIL
  6
CONTINUOUS
100
AcDbCircle
 10
483.3955700034429
 20
1636.863125093062
 30
0.0
 40
117.0000000000001
100
AcDbArc
 50
183.0000000000054
 51
247.9069117441734
  0
ARC
  5
91DB
330
73DF
100
AcDbEntity
  8
DETAIL
  6
CONTINUOUS
100
AcDbCircle
 10
-1447.440736511038
 20
-2277.873630475596
 30
0.0
 40
4154.67240973223
100
AcDbArc
 50
67.88058605906833
 51
68.55608040105727
  0
ARC
  5
91DC
330
73DF
100
AcDbEntity
  8
DETAIL
  6
CONTINUOUS
100
AcDbCircle
 10
342.3602821301656
 20
1967.959161995293
 30
0.0
 40
449.7905172481631
100
AcDbArc
 50
257.277813765768
 51
262.3655256629222
  0
LINE
  5
91DD
330
73DF
100
AcDbEntity
  8
DETAIL
  6
CONTINUOUS
100
AcDbLine
 10
358.4999999999991
 20
1430.5
 30
0.0
 11
181.5000000000009
 21
1430.5
 31
0.0
  0
LINE
  5
91DE
330
73DF
100
AcDbEntity
  8
DETAIL
  6
CONTINUOUS
100
AcDbLine
 10
358.4999999999991
 20
1427.5
 30
0.0
 11
181.5000000000009
 21
1427.5
 31
0.0
  0
LINE
  5
91DF
330
73DF
100
AcDbEntity
  8
DETAIL
  6
CONTINUOUS
100
AcDbLine
 10
358.4999999999991
 20
1314.500000000002
 30
0.0
 11
181.5000000000009
 21
1314.500000000002
 31
0.0
  0
LINE
  5
91E0
330
73DF
100
AcDbEntity
  8
DETAIL
  6
CONTINUOUS
100
AcDbLine
 10
358.4999999999991
 20
1311.500000000002
 30
0.0
 11
181.5000000000009
 21
1311.500000000002
 31
0.0
  0
ARC
  5
91E1
330
73DF
100
AcDbEntity
  8
DETAIL
  6
CONTINUOUS
100
AcDbCircle
 10
180.0
 20
1447.000000000002
 30
0.0
 40
1.500000000000059
100
AcDbArc
 50
0.0
 51
180.0
  0
LINE
  5
91E2
330
73DF
100
AcDbEntity
  8
DETAIL
  6
CONTINUOUS
100
AcDbLine
 10
162.4083506754914
 20
1553.527116363975
 30
0.0
 11
138.8369532959977
 21
1562.381768746158
 31
0.0
  0
LINE
  5
91E3
330
73DF
100
AcDbEntity
  8
DETAIL
  6
CONTINUOUS
100
AcDbLine
 10
138.8369532959977
 20
1562.381768746158
 30
0.0
 11
116.9520673239867
 21
1571.019455529703
 31
0.0
  0
LINE
  5
91E4
330
73DF
100
AcDbEntity
  8
DETAIL
  6
CONTINUOUS
100
AcDbLine
 10
243.3056435452181
 20
1529.211298204282
 30
0.0
 11
215.5195676942184
 21
1536.26941131833
 31
0.0
  0
ARC
  5
91E5
330
73DF
100
AcDbEntity
  8
DETAIL
  6
CONTINUOUS
100
AcDbCircle
 10
425.5235444285108
 20
2272.919019585052
 30
0.0
 40
765.99890052384
100
AcDbArc
 50
249.9101753005111
 51
254.088215567779
  0
LINE
  5
91E6
330
73DF
100
AcDbEntity
  8
DETAIL
  6
CONTINUOUS
100
AcDbLine
 10
361.5000000000009
 20
1437.000000000002
 30
0.0
 11
358.7500000000009
 21
1437.000000000002
 31
0.0
  0
LINE
  5
91E7
330
73DF
100
AcDbEntity
  8
DETAIL
  6
CONTINUOUS
100
AcDbLine
 10
394.0000000000009
 20
1427.5
 30
0.0
 11
361.5000000000009
 21
1427.5
 31
0.0
  0
LINE
  5
91E8
330
73DF
100
AcDbEntity
  8
DETAIL
  6
CONTINUOUS
100
AcDbLine
 10
394.0000000000009
 20
1430.5
 30
0.0
 11
361.5000000000009
 21
1430.5
 31
0.0
  0
LINE
  5
91E9
330
73DF
100
AcDbEntity
  8
DETAIL
  6
CONTINUOUS
100
AcDbLine
 10
388.0000000000009
 20
1311.500000000002
 30
0.0
 11
388.0000000000009
 21
1314.500000000002
 31
0.0
  0
LINE
  5
91EA
330
73DF
100
AcDbEntity
  8
DETAIL
  6
CONTINUOUS
100
AcDbLine
 10
388.0000000000009
 20
1311.500000000002
 30
0.0
 11
361.5000000000009
 21
1311.500000000002
 31
0.0
  0
LINE
  5
91EB
330
73DF
100
AcDbEntity
  8
DETAIL
  6
CONTINUOUS
100
AcDbLine
 10
388.0000000000009
 20
1314.500000000002
 30
0.0
 11
361.5000000000009
 21
1314.500000000002
 31
0.0
  0
LINE
  5
91EC
330
73DF
100
AcDbEntity
  8
DETAIL
  6
CONTINUOUS
100
AcDbLine
 10
326.185790376222
 20
1519.198543782175
 30
0.0
 11
433.9295007838109
 21
1519.198459076046
 31
0.0
  0
LINE
  5
91ED
330
73DF
100
AcDbEntity
  8
DETAIL
  6
CONTINUOUS
100
AcDbLine
 10
326.1857922090285
 20
1518.952845831813
 30
0.0
 11
326.1857914731581
 21
1519.098610695159
 31
0.0
  0
LINE
  5
91EE
330
73DF
100
AcDbEntity
  8
DETAIL
  6
CONTINUOUS
100
AcDbLine
 10
326.1857914731581
 20
1519.098610695159
 30
0.0
 11
326.185790376222
 21
1519.198543782175
 31
0.0
  0
ARC
  5
91EF
330
73DF
100
AcDbEntity
  8
DETAIL
  6
CONTINUOUS
100
AcDbCircle
 10
327.5754760630234
 20
1862.302557039009
 30
0.0
 40
343.106827590554
100
AcDbArc
 50
262.4685554662089
 51
269.767934252534
  0
LINE
  5
91F3
330
73DF
100
AcDbEntity
  8
DETAIL
  6
CONTINUOUS
100
AcDbLine
 10
448.7464270466452
 20
1514.817146399115
 30
0.0
 11
448.9270371457796
 21
1504.469828376117
 31
0.0
  0
LINE
  5
91F4
330
73DF
100
AcDbEntity
  8
DETAIL
  6
CONTINUOUS
100
AcDbLine
 10
450.0000000000008
 20
1457.000000000002
 30
0.0
 11
448.927205951456
 21
1504.460329878734
 31
0.0
  0
ARC
  5
91F5
330
73DF
100
AcDbEntity
  8
DETAIL
  6
CONTINUOUS
100
AcDbCircle
 10
433.7487271181171
 20
1514.555370417193
 30
0.0
 40
14.99998432701922
100
AcDbArc
 50
0.9999624039781155
 51
67.90691174417344
  0
ARC
  5
91F6
330
73DF
100
AcDbEntity
  8
DETAIL
  6
CONTINUOUS
100
AcDbCircle
 10
433.9294889910843
 20
1504.19845907605
 30
0.0
 40
15.00000000000022
100
AcDbArc
 50
0.999983344632081
 51
90.0
  0
LINE
  5
91F9
330
73DF
100
AcDbEntity
  8
NOTE
100
AcDbLine
 10
250.4151343258618
 20
1862.423879524646
 30
0.0
 11
200.2785091509958
 21
1862.423879524646
 31
0.0
  0
ARC
  5
91FA
330
73DF
100
AcDbEntity
  8
DETAIL
  6
CONTINUOUS
100
AcDbCircle
 10
0.0
 20
-3806.801456217797
 30
0.0
 40
5596.0
100
AcDbArc
 50
87.46922651564416
 51
87.65574230046325
  0
ARC
  5
91FB
330
73DF
100
AcDbEntity
  8
DETAIL
  6
CONTINUOUS
100
AcDbCircle
 10
0.0
 20
-3806.801456217797
 30
0.0
 40
5604.0
100
AcDbArc
 50
87.47102610933563
 51
87.66077066599612
  0
LINE
  5
91FC
330
73DF
100
AcDbEntity
  8
DETAIL
  6
CONTINUOUS
100
AcDbLine
 10
71.46748737196958
 20
1589.195109488922
 30
0.0
 11
58.15772370543982
 21
1594.173455502519
 31
0.0
  0
ARC
  5
91FD
330
73DF
100
AcDbEntity
  8
DETAIL
  6
CONTINUOUS
100
AcDbCircle
 10
-59.9070929115469
 20
1268.926765914402
 30
0.0
 40
346.0125864919256
100
AcDbArc
 50
70.04906103440515
 51
73.80076791292623
  0
ARC
  5
9200
330
73DF
100
AcDbEntity
  8
DETAIL
  6
CONTINUOUS
100
AcDbCircle
 10
0.0
 20
-3806.801456217797
 30
0.0
 40
5604.0
100
AcDbArc
 50
88.49409907791935
 51
88.68372497506177
  0
ARC
  5
9201
330
73DF
100
AcDbEntity
  8
DETAIL
  6
CONTINUOUS
100
AcDbCircle
 10
0.0
 20
-3806.801456217797
 30
0.0
 40
5596.0
100
AcDbArc
 50
88.49373387905357
 51
88.68013345514677
  0
LINE
  5
9213
330
73DF
100
AcDbEntity
  8
DETAIL
  6
CONTINUOUS
100
AcDbLine
 10
129.2500000000018
 20
1791.73549552236
 30
0.0
 11
129.1499999999996
 21
1791.73549552236
 31
0.0
  0
LINE
  5
9214
330
73DF
100
AcDbEntity
  8
DETAIL
  6
CONTINUOUS
100
AcDbLine
 10
126.8499999999994
 20
1791.73549552236
 30
0.0
 11
126.7500000000018
 21
1791.73549552236
 31
0.0
  0
ARC
  5
9215
330
73DF
100
AcDbEntity
  8
DETAIL
  6
CONTINUOUS
100
AcDbCircle
 10
128.0000000000018
 20
1796.041941525545
 30
0.0
 40
0.6935539968157201
100
AcDbArc
 50
5.999999999982263
 51
173.9999999999918
  0
ARC
  5
9216
330
73DF
100
AcDbEntity
  8
DETAIL
  6
CONTINUOUS
100
AcDbCircle
 10
128.0000000000018
 20
1787.622245537431
 30
0.0
 40
0.8867500150713301
100
AcDbArc
 50
184.9999999999994
 51
355.0000000000005
  0
LINE
  5
9217
330
73DF
100
AcDbEntity
  8
DETAIL
  6
CONTINUOUS
100
AcDbLine
 10
129.1499999999996
 20
1791.73549552236
 30
0.0
 11
128.6897546354548
 21
1796.114437659025
 31
0.0
  0
LINE
  5
9218
330
73DF
100
AcDbEntity
  8
DETAIL
  6
CONTINUOUS
100
AcDbLine
 10
128.8833756635476
 20
1787.544960181236
 30
0.0
 11
129.2500000000018
 21
1791.73549552236
 31
0.0
  0
LINE
  5
9219
330
73DF
100
AcDbEntity
  8
DETAIL
  6
CONTINUOUS
100
AcDbLine
 10
127.1166243364541
 20
1787.544960181236
 30
0.0
 11
126.7500000000018
 21
1791.73549552236
 31
0.0
  0
LINE
  5
921A
330
73DF
100
AcDbEntity
  8
DETAIL
  6
CONTINUOUS
100
AcDbLine
 10
126.8499999999994
 20
1791.73549552236
 30
0.0
 11
127.3102453645469
 21
1796.114437659025
 31
0.0
  0
ARC
  5
921B
330
73DF
100
AcDbEntity
  8
DETAIL
  6
CONTINUOUS
100
AcDbCircle
 10
104.6492894902667
 20
1793.220822863702
 30
0.0
 40
2.000000000000758
100
AcDbArc
 50
4.999999999999459
 51
88.92942125870382
  0
LINE
  5
921C
330
73DF
100
AcDbEntity
  8
DETAIL
  6
CONTINUOUS
100
AcDbLine
 10
108.8833756635476
 20
1787.966483014718
 30
0.0
 11
109.249999999999
 21
1792.157018355843
 31
0.0
  0
ARC
  5
921D
330
73DF
100
AcDbEntity
  8
DETAIL
  6
CONTINUOUS
100
AcDbCircle
 10
107.999999999999
 20
1788.043768370914
 30
0.0
 40
0.8867500150713098
100
AcDbArc
 50
184.9999999999994
 51
355.0000000000005
  0
LINE
  5
921E
330
73DF
100
AcDbEntity
  8
DETAIL
  6
CONTINUOUS
100
AcDbLine
 10
109.1499999999996
 20
1792.157018355843
 30
0.0
 11
108.6897546354521
 21
1796.535960492508
 31
0.0
  0
LINE
  5
921F
330
73DF
100
AcDbEntity
  8
DETAIL
  6
CONTINUOUS
100
AcDbLine
 10
109.249999999999
 20
1792.157018355843
 30
0.0
 11
109.1499999999996
 21
1792.157018355843
 31
0.0
  0
ARC
  5
9220
330
73DF
100
AcDbEntity
  8
DETAIL
  6
CONTINUOUS
100
AcDbCircle
 10
108.0000000000018
 20
1796.463464359026
 30
0.0
 40
0.6935539968154401
100
AcDbArc
 50
6.000000000008176
 51
90.0
  0
LINE
  5
9221
330
73DF
100
AcDbEntity
  8
DETAIL
  6
CONTINUOUS
100
AcDbLine
 10
107.1166243364541
 20
1787.966483014718
 30
0.0
 11
106.6416788864535
 21
1793.395134349198
 31
0.0
  0
ARC
  5
9222
330
73DF
100
AcDbEntity
  8
DETAIL
  6
CONTINUOUS
100
AcDbCircle
 10
0.0
 20
-3806.801456217797
 30
0.0
 40
5604.000000000001
100
AcDbArc
 50
88.69864545121311
 51
88.88825520741454
  0
ARC
  5
9223
330
73DF
100
AcDbEntity
  8
DETAIL
  6
CONTINUOUS
100
AcDbCircle
 10
0.0
 20
-3806.801456217797
 30
0.0
 40
5596.0
100
AcDbArc
 50
88.69856694109444
 51
88.8849507095932
  0
LINE
  5
9254
330
73DF
100
AcDbEntity
  8
DETAIL
  6
CONTINUOUS
100
AcDbLine
 10
187.1166243364541
 20
1785.851404499251
 30
0.0
 11
186.7500000000018
 21
1790.041939840375
 31
0.0
  0
LINE
  5
9255
330
73DF
100
AcDbEntity
  8
DETAIL
  6
CONTINUOUS
100
AcDbLine
 10
186.8499999999994
 20
1790.041939840375
 30
0.0
 11
187.3102453645469
 21
1794.42088197704
 31
0.0
  0
LINE
  5
9256
330
73DF
100
AcDbEntity
  8
DETAIL
  6
CONTINUOUS
100
AcDbLine
 10
188.8833756635476
 20
1785.851404499251
 30
0.0
 11
189.2500000000018
 21
1790.041939840375
 31
0.0
  0
ARC
  5
9257
330
73DF
100
AcDbEntity
  8
DETAIL
  6
CONTINUOUS
100
AcDbCircle
 10
0.0
 20
-3806.801456217797
 30
0.0
 40
5596.0
100
AcDbArc
 50
87.8791083844807
 51
88.065570241561
  0
LINE
  5
9258
330
73DF
100
AcDbEntity
  8
DETAIL
  6
CONTINUOUS
100
AcDbLine
 10
189.1499999999996
 20
1790.041939840375
 30
0.0
 11
188.6897546354548
 21
1794.42088197704
 31
0.0
  0
ARC
  5
9259
330
73DF
100
AcDbEntity
  8
DETAIL
  6
CONTINUOUS
100
AcDbCircle
 10
0.0
 20
-3806.801456217797
 30
0.0
 40
5604.0
100
AcDbArc
 50
87.88033398642719
 51
88.07002347798663
  0
LINE
  5
925A
330
73DF
100
AcDbEntity
  8
DETAIL
  6
CONTINUOUS
100
AcDbLine
 10
206.8499999999994
 20
1789.334353427995
 30
0.0
 11
207.3102453645469
 21
1793.71329556466
 31
0.0
  0
LINE
  5
925B
330
73DF
100
AcDbEntity
  8
DETAIL
  6
CONTINUOUS
100
AcDbLine
 10
207.1166243364541
 20
1785.143818086872
 30
0.0
 11
206.7500000000018
 21
1789.334353427995
 31
0.0
  0
ARC
  5
925C
330
73DF
100
AcDbEntity
  8
DETAIL
  6
CONTINUOUS
100
AcDbCircle
 10
208.0000000000018
 20
1785.221103443068
 30
0.0
 40
0.8867500150713301
100
AcDbArc
 50
184.9999999999994
 51
355.0000000000005
  0
LINE
  5
925D
330
73DF
100
AcDbEntity
  8
DETAIL
  6
CONTINUOUS
100
AcDbLine
 10
208.8833756635476
 20
1785.143818086872
 30
0.0
 11
209.2500000000018
 21
1789.334353427995
 31
0.0
  0
ARC
  5
925E
330
73DF
100
AcDbEntity
  8
DETAIL
  6
CONTINUOUS
100
AcDbCircle
 10
0.0
 20
-3806.801456217797
 30
0.0
 40
5596.0
100
AcDbArc
 50
87.67418235852856
 51
87.8606699368356
  0
LINE
  5
925F
330
73DF
100
AcDbEntity
  8
DETAIL
  6
CONTINUOUS
100
AcDbLine
 10
209.1499999999996
 20
1789.334353427995
 30
0.0
 11
208.6897546354548
 21
1793.71329556466
 31
0.0
  0
ARC
  5
9260
330
73DF
100
AcDbEntity
  8
DETAIL
  6
CONTINUOUS
100
AcDbCircle
 10
0.0
 20
-3806.801456217797
 30
0.0
 40
5604.0
100
AcDbArc
 50
87.67569491010224
 51
87.86541066535923
  0
LINE
  5
9261
330
73DF
100
AcDbEntity
  8
DETAIL
  6
CONTINUOUS
100
AcDbLine
 10
226.8499999999994
 20
1788.555190145325
 30
0.0
 11
227.3102453645469
 21
1792.93413228199
 31
0.0
  0
LINE
  5
9262
330
73DF
100
AcDbEntity
  8
DETAIL
  6
CONTINUOUS
100
AcDbLine
 10
227.1166243364541
 20
1784.364654804202
 30
0.0
 11
226.7500000000018
 21
1788.555190145325
 31
0.0
  0
LINE
  5
9263
330
73DF
100
AcDbEntity
  8
DETAIL
  6
CONTINUOUS
100
AcDbLine
 10
228.8833756635476
 20
1784.364654804202
 30
0.0
 11
229.2500000000018
 21
1788.555190145325
 31
0.0
  0
LINE
  5
9264
330
73DF
100
AcDbEntity
  8
DETAIL
  6
CONTINUOUS
100
AcDbLine
 10
229.1499999999996
 20
1788.555190145325
 30
0.0
 11
228.6897546354548
 21
1792.93413228199
 31
0.0
  0
ARC
  5
9265
330
73DF
100
AcDbEntity
  8
DETAIL
  6
CONTINUOUS
100
AcDbCircle
 10
188.0000000000018
 20
1785.928689855445
 30
0.0
 40
0.8867500150713301
100
AcDbArc
 50
184.9999999999994
 51
355.0000000000005
  0
ARC
  5
9266
330
73DF
100
AcDbEntity
  8
DETAIL
  6
CONTINUOUS
100
AcDbCircle
 10
188.0000000000018
 20
1794.34838584356
 30
0.0
 40
0.6935539968157301
100
AcDbArc
 50
6.000000000008176
 51
173.9999999999918
  0
LINE
  5
9267
330
73DF
100
AcDbEntity
  8
DETAIL
  6
CONTINUOUS
100
AcDbLine
 10
186.8499999999994
 20
1790.041939840375
 30
0.0
 11
186.7500000000018
 21
1790.041939840375
 31
0.0
  0
LINE
  5
9268
330
73DF
100
AcDbEntity
  8
DETAIL
  6
CONTINUOUS
100
AcDbLine
 10
189.2500000000018
 20
1790.041939840375
 30
0.0
 11
189.1499999999996
 21
1790.041939840375
 31
0.0
  0
ARC
  5
9269
330
73DF
100
AcDbEntity
  8
DETAIL
  6
CONTINUOUS
100
AcDbCircle
 10
208.0000000000018
 20
1793.640799431181
 30
0.0
 40
0.6935539968157201
100
AcDbArc
 50
5.999999999982263
 51
173.9999999999918
  0
LINE
  5
926A
330
73DF
100
AcDbEntity
  8
DETAIL
  6
CONTINUOUS
100
AcDbLine
 10
206.8499999999994
 20
1789.334353427995
 30
0.0
 11
206.7500000000018
 21
1789.334353427995
 31
0.0
  0
LINE
  5
926B
330
73DF
100
AcDbEntity
  8
DETAIL
  6
CONTINUOUS
100
AcDbLine
 10
209.2500000000018
 20
1789.334353427995
 30
0.0
 11
209.1499999999996
 21
1789.334353427995
 31
0.0
  0
ARC
  5
926C
330
73DF
100
AcDbEntity
  8
DETAIL
  6
CONTINUOUS
100
AcDbCircle
 10
228.0000000000018
 20
1784.441940160397
 30
0.0
 40
0.8867500150713301
100
AcDbArc
 50
184.9999999999994
 51
355.0000000000005
  0
ARC
  5
926D
330
73DF
100
AcDbEntity
  8
DETAIL
  6
CONTINUOUS
100
AcDbCircle
 10
228.0000000000018
 20
1792.861636148511
 30
0.0
 40
0.6935539968157201
100
AcDbArc
 50
5.999999999982263
 51
173.9999999999918
  0
LINE
  5
926E
330
73DF
100
AcDbEntity
  8
DETAIL
  6
CONTINUOUS
100
AcDbLine
 10
226.8499999999994
 20
1788.555190145325
 30
0.0
 11
226.7500000000018
 21
1788.555190145325
 31
0.0
  0
LINE
  5
926F
330
73DF
100
AcDbEntity
  8
DETAIL
  6
CONTINUOUS
100
AcDbLine
 10
229.2500000000018
 20
1788.555190145325
 30
0.0
 11
229.1499999999996
 21
1788.555190145325
 31
0.0
  0
LINE
  5
9270
330
73DF
100
AcDbEntity
  8
DETAIL
  6
CONTINUOUS
100
AcDbLine
 10
147.1166243364541
 20
1787.051952534407
 30
0.0
 11
146.7500000000018
 21
1791.242487875531
 31
0.0
  0
LINE
  5
9271
330
73DF
100
AcDbEntity
  8
DETAIL
  6
CONTINUOUS
100
AcDbLine
 10
146.8499999999994
 20
1791.242487875531
 30
0.0
 11
147.3102453645469
 21
1795.621430012196
 31
0.0
  0
LINE
  5
9272
330
73DF
100
AcDbEntity
  8
DETAIL
  6
CONTINUOUS
100
AcDbLine
 10
148.8833756635476
 20
1787.051952534407
 30
0.0
 11
149.2500000000018
 21
1791.242487875531
 31
0.0
  0
ARC
  5
9273
330
73DF
100
AcDbEntity
  8
DETAIL
  6
CONTINUOUS
100
AcDbCircle
 10
0.0
 20
-3806.801456217797
 30
0.0
 40
5596.0
100
AcDbArc
 50
88.28888151593478
 51
88.47529937449271
  0
LINE
  5
9274
330
73DF
100
AcDbEntity
  8
DETAIL
  6
CONTINUOUS
100
AcDbLine
 10
149.1499999999996
 20
1791.242487875531
 30
0.0
 11
148.6897546354548
 21
1795.621430012196
 31
0.0
  0
ARC
  5
9275
330
73DF
100
AcDbEntity
  8
DETAIL
  6
CONTINUOUS
100
AcDbCircle
 10
0.0
 20
-3806.801456217797
 30
0.0
 40
5604.0
100
AcDbArc
 50
88.28953345242119
 51
88.47917801759381
  0
LINE
  5
9276
330
73DF
100
AcDbEntity
  8
DETAIL
  6
CONTINUOUS
100
AcDbLine
 10
166.8499999999994
 20
1790.677976526907
 30
0.0
 11
167.3102453645469
 21
1795.056918663572
 31
0.0
  0
LINE
  5
9277
330
73DF
100
AcDbEntity
  8
DETAIL
  6
CONTINUOUS
100
AcDbLine
 10
167.1166243364541
 20
1786.487441185784
 30
0.0
 11
166.7500000000018
 21
1790.677976526907
 31
0.0
  0
LINE
  5
9278
330
73DF
100
AcDbEntity
  8
DETAIL
  6
CONTINUOUS
100
AcDbLine
 10
168.8833756635476
 20
1786.487441185784
 30
0.0
 11
169.2500000000018
 21
1790.677976526907
 31
0.0
  0
LINE
  5
9279
330
73DF
100
AcDbEntity
  8
DETAIL
  6
CONTINUOUS
100
AcDbLine
 10
169.1499999999996
 20
1790.677976526907
 30
0.0
 11
168.6897546354548
 21
1795.056918663572
 31
0.0
  0
ARC
  5
927A
330
73DF
100
AcDbEntity
  8
DETAIL
  6
CONTINUOUS
100
AcDbCircle
 10
148.0000000000018
 20
1787.129237890602
 30
0.0
 40
0.8867500150713301
100
AcDbArc
 50
184.9999999999994
 51
355.0000000000005
  0
ARC
  5
927B
330
73DF
100
AcDbEntity
  8
DETAIL
  6
CONTINUOUS
100
AcDbCircle
 10
148.0000000000018
 20
1795.548933878716
 30
0.0
 40
0.6935539968157201
100
AcDbArc
 50
5.999999999982263
 51
173.9999999999918
  0
LINE
  5
927C
330
73DF
100
AcDbEntity
  8
DETAIL
  6
CONTINUOUS
100
AcDbLine
 10
146.8499999999994
 20
1791.242487875531
 30
0.0
 11
146.7500000000018
 21
1791.242487875531
 31
0.0
  0
LINE
  5
927D
330
73DF
100
AcDbEntity
  8
DETAIL
  6
CONTINUOUS
100
AcDbLine
 10
149.2500000000018
 20
1791.242487875531
 30
0.0
 11
149.1499999999996
 21
1791.242487875531
 31
0.0
  0
ARC
  5
927E
330
73DF
100
AcDbEntity
  8
DETAIL
  6
CONTINUOUS
100
AcDbCircle
 10
168.0000000000018
 20
1786.564726541979
 30
0.0
 40
0.8867500150713301
100
AcDbArc
 50
184.9999999999994
 51
355.0000000000005
  0
ARC
  5
927F
330
73DF
100
AcDbEntity
  8
DETAIL
  6
CONTINUOUS
100
AcDbCircle
 10
168.0000000000018
 20
1794.984422530091
 30
0.0
 40
0.6935539968157201
100
AcDbArc
 50
5.999999999982263
 51
173.9999999999918
  0
LINE
  5
9280
330
73DF
100
AcDbEntity
  8
DETAIL
  6
CONTINUOUS
100
AcDbLine
 10
166.8499999999994
 20
1790.677976526907
 30
0.0
 11
166.7500000000018
 21
1790.677976526907
 31
0.0
  0
LINE
  5
9281
330
73DF
100
AcDbEntity
  8
DETAIL
  6
CONTINUOUS
100
AcDbLine
 10
169.2500000000018
 20
1790.677976526907
 30
0.0
 11
169.1499999999996
 21
1790.677976526907
 31
0.0
  0
ARC
  5
9282
330
73DF
100
AcDbEntity
  8
DETAIL
  6
CONTINUOUS
100
AcDbCircle
 10
0.0
 20
-3806.801456217797
 30
0.0
 40
5596.0
100
AcDbArc
 50
88.08400722687059
 51
88.27044584494778
  0
ARC
  5
9283
330
73DF
100
AcDbEntity
  8
DETAIL
  6
CONTINUOUS
100
AcDbCircle
 10
0.0
 20
-3806.801456217797
 30
0.0
 40
5604.0
100
AcDbArc
 50
88.08494596076579
 51
88.27461172322486
  0
ARC
  5
9286
330
73DF
100
AcDbEntity
  8
DETAIL
  6
CONTINUOUS
100
AcDbCircle
 10
188.2521554210115
 20
1689.196759308413
 30
0.0
 40
168.0000000000001
100
AcDbArc
 50
3.450704844213755
 51
31.96961389319529
  0
ARC
  5
9287
330
73DF
100
AcDbEntity
  8
DETAIL
  6
CONTINUOUS
100
AcDbCircle
 10
188.2521554210115
 20
1689.196759308413
 30
0.0
 40
175.0000000000003
100
AcDbArc
 50
2.948525583717141
 51
31.96961389319529
  0
LINE
  5
928B
330
73DF
100
AcDbEntity
  8
DETAIL
  6
CONTINUOUS
100
AcDbLine
 10
363.0205524367929
 20
1698.198543782202
 30
0.0
 11
366.5559144371591
 21
1630.73981821264
 31
0.0
  0
ARC
  5
928C
330
73DF
100
AcDbEntity
  8
DETAIL
  6
CONTINUOUS
100
AcDbCircle
 10
360.9384982700312
 20
1699.609587619248
 30
0.0
 40
5.000000000000587
100
AcDbArc
 50
183.4507048442137
 51
224.9999999999815
  0
LINE
  5
928D
330
73DF
100
AcDbEntity
  8
DETAIL
  6
CONTINUOUS
100
AcDbLine
 10
360.2038429202266
 20
1693.273175157187
 30
0.0
 11
357.4029643640979
 21
1696.074053713316
 31
0.0
  0
LINE
  5
92C0
330
73DF
100
AcDbEntity
  8
DETAIL
  6
CONTINUOUS
100
AcDbLine
 10
326.8499999999994
 20
1783.584576964526
 30
0.0
 11
327.3102453645469
 21
1787.963519101191
 31
0.0
  0
ARC
  5
92C1
330
73DF
100
AcDbEntity
  8
DETAIL
  6
CONTINUOUS
100
AcDbCircle
 10
328.2264425659459
 20
1776.559216567052
 30
0.0
 40
3.000000000000067
100
AcDbArc
 50
31.96961389319529
 51
77.19585026617036
  0
ARC
  5
92C2
330
73DF
100
AcDbEntity
  8
DETAIL
  6
CONTINUOUS
100
AcDbCircle
 10
328.2264425659459
 20
1776.559216567052
 30
0.0
 40
9.99999999999992
100
AcDbArc
 50
31.96961389319529
 51
86.48621927096298
  0
LINE
  5
92C3
330
73DF
100
AcDbEntity
  8
DETAIL
  6
CONTINUOUS
100
AcDbLine
 10
326.8499999999994
 20
1783.584576964526
 30
0.0
 11
326.7500000000008
 21
1783.584576964526
 31
0.0
  0
ARC
  5
92C4
330
73DF
100
AcDbEntity
  8
DETAIL
  6
CONTINUOUS
100
AcDbCircle
 10
328.0000000000009
 20
1787.89102296771
 30
0.0
 40
0.6935539968157201
100
AcDbArc
 50
5.999999999982263
 51
173.9999999999918
  0
ARC
  5
92C5
330
73DF
100
AcDbEntity
  8
DETAIL
  6
CONTINUOUS
100
AcDbCircle
 10
328.0000000000009
 20
1779.471326979597
 30
0.0
 40
0.8867500150713301
100
AcDbArc
 50
184.9999999999994
 51
355.0000000000005
  0
LINE
  5
92C6
330
73DF
100
AcDbEntity
  8
DETAIL
  6
CONTINUOUS
100
AcDbLine
 10
329.1499999999987
 20
1783.584576964526
 30
0.0
 11
328.6897546354548
 21
1787.963519101191
 31
0.0
  0
LINE
  5
92C7
330
73DF
100
AcDbEntity
  8
DETAIL
  6
CONTINUOUS
100
AcDbLine
 10
327.1166243364541
 20
1779.3940416234
 30
0.0
 11
326.7500000000008
 21
1783.584576964526
 31
0.0
  0
LINE
  5
92C8
330
73DF
100
AcDbEntity
  8
DETAIL
  6
CONTINUOUS
100
AcDbLine
 10
328.8833756635476
 20
1779.3940416234
 30
0.0
 11
329.2500000000009
 21
1783.584576964526
 31
0.0
  0
LINE
  5
92C9
330
73DF
100
AcDbEntity
  8
DETAIL
  6
CONTINUOUS
100
AcDbLine
 10
329.2500000000009
 20
1783.584576964526
 30
0.0
 11
329.1499999999987
 21
1783.584576964526
 31
0.0
  0
ARC
  5
92CA
330
73DF
100
AcDbEntity
  8
DETAIL
  6
CONTINUOUS
100
AcDbCircle
 10
0.0
 20
-3806.801456217797
 30
0.0
 40
5596.0
100
AcDbArc
 50
87.26423821900187
 51
87.45078469894378
  0
LINE
  5
92CB
330
73DF
100
AcDbEntity
  8
DETAIL
  6
CONTINUOUS
100
AcDbLine
 10
267.1166243364541
 20
1782.591475235864
 30
0.0
 11
266.7500000000018
 21
1786.782010576988
 31
0.0
  0
LINE
  5
92CC
330
73DF
100
AcDbEntity
  8
DETAIL
  6
CONTINUOUS
100
AcDbLine
 10
266.8499999999994
 20
1786.782010576988
 30
0.0
 11
267.3102453645469
 21
1791.160952713652
 31
0.0
  0
LINE
  5
92CD
330
73DF
100
AcDbEntity
  8
DETAIL
  6
CONTINUOUS
100
AcDbLine
 10
269.1499999999996
 20
1786.782010576988
 30
0.0
 11
268.6897546354548
 21
1791.160952713652
 31
0.0
  0
ARC
  5
92CE
330
73DF
100
AcDbEntity
  8
DETAIL
  6
CONTINUOUS
100
AcDbCircle
 10
0.0
 20
-3806.801456217797
 30
0.0
 40
5604.0
100
AcDbArc
 50
87.06158882731791
 51
87.25139861381171
  0
LINE
  5
92CF
330
73DF
100
AcDbEntity
  8
DETAIL
  6
CONTINUOUS
100
AcDbLine
 10
268.8833756635476
 20
1782.591475235864
 30
0.0
 11
269.2500000000018
 21
1786.782010576988
 31
0.0
  0
ARC
  5
92D0
330
73DF
100
AcDbEntity
  8
DETAIL
  6
CONTINUOUS
100
AcDbCircle
 10
0.0
 20
-3806.801456217797
 30
0.0
 40
5596.000000000003
100
AcDbArc
 50
87.05921482805472
 51
87.24579449533782
  0
LINE
  5
92D1
330
73DF
100
AcDbEntity
  8
DETAIL
  6
CONTINUOUS
100
AcDbLine
 10
287.1166243364541
 20
1781.597390829168
 30
0.0
 11
286.7500000000018
 21
1785.787926170291
 31
0.0
  0
LINE
  5
92D2
330
73DF
100
AcDbEntity
  8
DETAIL
  6
CONTINUOUS
100
AcDbLine
 10
286.8499999999994
 20
1785.787926170291
 30
0.0
 11
287.3102453645469
 21
1790.166868306957
 31
0.0
  0
LINE
  5
92D3
330
73DF
100
AcDbEntity
  8
DETAIL
  6
CONTINUOUS
100
AcDbLine
 10
288.8833756635476
 20
1781.597390829168
 30
0.0
 11
289.2500000000018
 21
1785.787926170291
 31
0.0
  0
ARC
  5
92D4
330
73DF
100
AcDbEntity
  8
DETAIL
  6
CONTINUOUS
100
AcDbCircle
 10
0.0
 20
-3806.801456217797
 30
0.0
 40
5596.000000000003
100
AcDbArc
 50
86.85415369815931
 51
87.04076904893783
  0
LINE
  5
92D5
330
73DF
100
AcDbEntity
  8
DETAIL
  6
CONTINUOUS
100
AcDbLine
 10
289.1499999999996
 20
1785.787926170291
 30
0.0
 11
288.6897546354548
 21
1790.166868306957
 31
0.0
  0
ARC
  5
92D6
330
73DF
100
AcDbEntity
  8
DETAIL
  6
CONTINUOUS
100
AcDbCircle
 10
0.0
 20
-3806.801456217797
 30
0.0
 40
5604.000000000001
100
AcDbArc
 50
86.85681508281376
 51
87.04666130549359
  0
LINE
  5
92D7
330
73DF
100
AcDbEntity
  8
DETAIL
  6
CONTINUOUS
100
AcDbLine
 10
306.8499999999994
 20
1784.722128638122
 30
0.0
 11
307.3102453645469
 21
1789.101070774787
 31
0.0
  0
LINE
  5
92D8
330
73DF
100
AcDbEntity
  8
DETAIL
  6
CONTINUOUS
100
AcDbLine
 10
307.1166243364541
 20
1780.531593296998
 30
0.0
 11
306.7500000000009
 21
1784.722128638122
 31
0.0
  0
LINE
  5
92D9
330
73DF
100
AcDbEntity
  8
DETAIL
  6
CONTINUOUS
100
AcDbLine
 10
308.8833756635476
 20
1780.531593296998
 30
0.0
 11
309.2500000000009
 21
1784.722128638122
 31
0.0
  0
LINE
  5
92DA
330
73DF
100
AcDbEntity
  8
DETAIL
  6
CONTINUOUS
100
AcDbLine
 10
309.1499999999987
 20
1784.722128638122
 30
0.0
 11
308.6897546354548
 21
1789.101070774787
 31
0.0
  0
ARC
  5
92DB
330
73DF
100
AcDbEntity
  8
DETAIL
  6
CONTINUOUS
100
AcDbCircle
 10
268.0000000000018
 20
1782.668760592061
 30
0.0
 40
0.8867500150713301
100
AcDbArc
 50
184.9999999999994
 51
355.0000000000005
  0
ARC
  5
92DC
330
73DF
100
AcDbEntity
  8
DETAIL
  6
CONTINUOUS
100
AcDbCircle
 10
268.0000000000018
 20
1791.088456580174
 30
0.0
 40
0.6935539968157301
100
AcDbArc
 50
6.000000000008176
 51
173.9999999999918
  0
LINE
  5
92DD
330
73DF
100
AcDbEntity
  8
DETAIL
  6
CONTINUOUS
100
AcDbLine
 10
266.8499999999994
 20
1786.782010576988
 30
0.0
 11
266.7500000000018
 21
1786.782010576988
 31
0.0
  0
LINE
  5
92DE
330
73DF
100
AcDbEntity
  8
DETAIL
  6
CONTINUOUS
100
AcDbLine
 10
269.2500000000018
 20
1786.782010576988
 30
0.0
 11
269.1499999999996
 21
1786.782010576988
 31
0.0
  0
ARC
  5
92DF
330
73DF
100
AcDbEntity
  8
DETAIL
  6
CONTINUOUS
100
AcDbCircle
 10
288.0000000000018
 20
1781.674676185363
 30
0.0
 40
0.8867500150713301
100
AcDbArc
 50
184.9999999999994
 51
355.0000000000005
  0
ARC
  5
92E0
330
73DF
100
AcDbEntity
  8
DETAIL
  6
CONTINUOUS
100
AcDbCircle
 10
288.0000000000018
 20
1790.094372173475
 30
0.0
 40
0.6935539968157301
100
AcDbArc
 50
6.000000000008176
 51
173.9999999999918
  0
LINE
  5
92E1
330
73DF
100
AcDbEntity
  8
DETAIL
  6
CONTINUOUS
100
AcDbLine
 10
286.8499999999994
 20
1785.787926170291
 30
0.0
 11
286.7500000000018
 21
1785.787926170291
 31
0.0
  0
LINE
  5
92E2
330
73DF
100
AcDbEntity
  8
DETAIL
  6
CONTINUOUS
100
AcDbLine
 10
289.2500000000018
 20
1785.787926170291
 30
0.0
 11
289.1499999999996
 21
1785.787926170291
 31
0.0
  0
ARC
  5
92E3
330
73DF
100
AcDbEntity
  8
DETAIL
  6
CONTINUOUS
100
AcDbCircle
 10
308.0000000000008
 20
1780.608878653192
 30
0.0
 40
0.8867500150713301
100
AcDbArc
 50
184.9999999999994
 51
355.0000000000005
  0
ARC
  5
92E4
330
73DF
100
AcDbEntity
  8
DETAIL
  6
CONTINUOUS
100
AcDbCircle
 10
308.0000000000008
 20
1789.028574641306
 30
0.0
 40
0.6935539968157201
100
AcDbArc
 50
5.999999999982263
 51
173.9999999999918
  0
LINE
  5
92E5
330
73DF
100
AcDbEntity
  8
DETAIL
  6
CONTINUOUS
100
AcDbLine
 10
306.8499999999994
 20
1784.722128638122
 30
0.0
 11
306.7500000000009
 21
1784.722128638122
 31
0.0
  0
LINE
  5
92E6
330
73DF
100
AcDbEntity
  8
DETAIL
  6
CONTINUOUS
100
AcDbLine
 10
309.2500000000009
 20
1784.722128638122
 30
0.0
 11
309.1499999999987
 21
1784.722128638122
 31
0.0
  0
LINE
  5
92E7
330
73DF
100
AcDbEntity
  8
DETAIL
  6
CONTINUOUS
100
AcDbLine
 10
248.8833756635476
 20
1783.513884745079
 30
0.0
 11
249.2500000000018
 21
1787.704420086203
 31
0.0
  0
LINE
  5
92E8
330
73DF
100
AcDbEntity
  8
DETAIL
  6
CONTINUOUS
100
AcDbLine
 10
249.2500000000018
 20
1787.704420086203
 30
0.0
 11
249.1499999999996
 21
1787.704420086203
 31
0.0
  0
LINE
  5
92E9
330
73DF
100
AcDbEntity
  8
DETAIL
  6
CONTINUOUS
100
AcDbLine
 10
247.1166243364541
 20
1783.513884745079
 30
0.0
 11
246.7500000000018
 21
1787.704420086203
 31
0.0
  0
LINE
  5
92EA
330
73DF
100
AcDbEntity
  8
DETAIL
  6
CONTINUOUS
100
AcDbLine
 10
246.8499999999994
 20
1787.704420086203
 30
0.0
 11
247.3102453645469
 21
1792.083362222868
 31
0.0
  0
ARC
  5
92EB
330
73DF
100
AcDbEntity
  8
DETAIL
  6
CONTINUOUS
100
AcDbCircle
 10
248.0000000000018
 20
1792.010866089388
 30
0.0
 40
0.6935539968157201
100
AcDbArc
 50
5.999999999982263
 51
173.9999999999918
  0
LINE
  5
92EC
330
73DF
100
AcDbEntity
  8
DETAIL
  6
CONTINUOUS
100
AcDbLine
 10
246.8499999999994
 20
1787.704420086203
 30
0.0
 11
246.7500000000018
 21
1787.704420086203
 31
0.0
  0
ARC
  5
92ED
330
73DF
100
AcDbEntity
  8
DETAIL
  6
CONTINUOUS
100
AcDbCircle
 10
0.0
 20
-3806.801456217797
 30
0.0
 40
5604.0
100
AcDbArc
 50
87.26632495827518
 51
87.45610085743292
  0
LINE
  5
92EE
330
73DF
100
AcDbEntity
  8
DETAIL
  6
CONTINUOUS
100
AcDbLine
 10
249.1499999999996
 20
1787.704420086203
 30
0.0
 11
248.6897546354548
 21
1792.083362222868
 31
0.0
  0
ARC
  5
92EF
330
73DF
100
AcDbEntity
  8
DETAIL
  6
CONTINUOUS
100
AcDbCircle
 10
248.0000000000018
 20
1783.591170101274
 30
0.0
 40
0.8867500150713301
100
AcDbArc
 50
184.9999999999994
 51
355.0000000000005
  0
ARC
  5
92F0
330
73DF
100
AcDbEntity
  8
DETAIL
  6
CONTINUOUS
100
AcDbCircle
 10
0.0
 20
-3806.801456217797
 30
0.0
 40
5596.0
100
AcDbArc
 50
86.64872976281463
 51
86.8357057149984
  0
ARC
  5
92F1
330
73DF
100
AcDbEntity
  8
DETAIL
  6
CONTINUOUS
100
AcDbCircle
 10
0.0
 20
-3806.801456217797
 30
0.0
 40
5604.0
100
AcDbArc
 50
86.65200108678757
 51
86.84188629880706
  0
LINE
  5
92F8
330
73DF
100
AcDbEntity
  8
DETAIL
  6
CONTINUOUS
100
AcDbLine
 10
352.9342066987637
 20
1738.833660772456
 30
0.0
 11
353.0384801390037
 21
1744.807482162799
 31
0.0
  0
LINE
  5
92F9
330
73DF
100
AcDbEntity
  8
DETAIL
  6
CONTINUOUS
100
AcDbLine
 10
351.8801240437105
 20
1738.833660772456
 30
0.0
 11
352.9342066987637
 21
1738.833660772456
 31
0.0
  0
LINE
  5
92FA
330
73DF
100
AcDbEntity
  8
DETAIL
  6
CONTINUOUS
100
AcDbLine
 10
350.4846259412143
 20
1746.333660772456
 30
0.0
 11
351.5387085962693
 21
1746.333660772456
 31
0.0
  0
ARC
  5
92FB
330
73DF
100
AcDbEntity
  8
DETAIL
  6
CONTINUOUS
100
AcDbCircle
 10
351.5387085962693
 20
1744.833660772455
 30
0.0
 40
1.500000000000128
100
AcDbArc
 50
358.9999999999982
 51
90.0
  0
LINE
  5
92FC
330
73DF
100
AcDbEntity
  8
DETAIL
  6
CONTINUOUS
100
AcDbLine
 10
350.4846259412124
 20
1746.333660772456
 30
0.0
 11
350.3803525009761
 21
1740.359839382112
 31
0.0
  0
ARC
  5
92FD
330
73DF
100
AcDbEntity
  8
DETAIL
  6
CONTINUOUS
100
AcDbCircle
 10
351.8801240437105
 20
1740.333660772455
 30
0.0
 40
1.499999999999849
100
AcDbArc
 50
178.9999999999982
 51
270.0
  0
TEXT
  5
92FE
330
73DF
100
AcDbEntity
  8
NOTE
100
AcDbText
 10
499.1781901826116
 20
1348.70764488237
 30
0.0
 40
64.0
  1
OA
 41
0.9
100
AcDbText
  0
LINE
  5
92FF
330
73DF
100
AcDbEntity
  8
NOTE
100
AcDbLine
 10
476.120721949138
 20
1335.373064306953
 30
0.0
 11
626.6986882279061
 21
1335.373064306953
 31
0.0
  0
LINE
  5
9300
330
73DF
100
AcDbEntity
  8
NOTE
100
AcDbLine
 10
-317.8701573654598
 20
1937.628989534231
 30
0.0
 11
-277.7613772354216
 21
1977.738226090699
 31
0.0
  0
LINE
  5
9301
330
73DF
100
AcDbEntity
  8
NOTE
100
AcDbLine
 10
-317.8704406701163
 20
1937.628931469975
 30
0.0
 11
-302.8295673006814
 21
1937.628931469975
 31
0.0
  0
LINE
  5
9302
330
73DF
100
AcDbEntity
  8
NOTE
100
AcDbLine
 10
-235.0772415052615
 20
1937.629159836028
 30
0.0
 11
-252.6927137597613
 21
1937.629159836028
 31
0.0
  0
LINE
  5
9303
330
73DF
100
AcDbEntity
  8
NOTE
100
AcDbLine
 10
-237.6516089947163
 20
1937.628819809625
 30
0.0
 11
-277.760912263946
 21
1977.737893174128
 31
0.0
  0
TEXT
  5
9304
330
73DF
100
AcDbEntity
  8
NOTE
100
AcDbText
 10
-53.93413518303532
 20
1891.128635795183
 30
0.0
 40
47.8918332576439
  1
EA
 50
0.0000025044687019
 41
0.833333333333333
  7
STANDARD1
100
AcDbText
  0
LINE
  5
9305
330
73DF
100
AcDbEntity
  8
NOTE
100
AcDbLine
 10
265.4560415429932
 20
1937.628904387921
 30
0.0
 11
225.3471604890346
 21
1977.738241869459
 31
0.0
  0
LINE
  5
9306
330
73DF
100
AcDbEntity
  8
NOTE
100
AcDbLine
 10
182.6630368964961
 20
1937.629159836028
 30
0.0
 11
200.2785091509958
 21
1937.629159836028
 31
0.0
  0
LINE
  5
9307
330
73DF
100
AcDbEntity
  8
NOTE
100
AcDbLine
 10
185.237393602345
 20
1937.628904085919
 30
0.0
 11
225.3466766866167
 21
1977.737957265581
 31
0.0
  0
LINE
  5
9308
330
73DF
100
AcDbEntity
  8
NOTE
100
AcDbLine
 10
265.4562360613508
 20
1937.628931469975
 30
0.0
 11
250.415362691916
 21
1937.628931469975
 31
0.0
  0
TEXT
  5
9309
330
73DF
100
AcDbEntity
  8
ETC
100
AcDbText
 10
508.1863012883923
 20
2131.346145792219
 30
0.0
 40
64.0
  1
PAC
 41
0.9051724137931035
 72
     5
 11
668.1863012883923
 21
2131.346145792219
 31
0.0
100
AcDbText
  0
TEXT
  5
930A
330
73DF
100
AcDbEntity
  8
ETC
100
AcDbText
 10
493.2991438269501
 20
1922.361670685737
 30
0.0
 40
64.0
  1
室外機
 41
0.9
100
AcDbText
  0
TEXT
  5
930B
330
73DF
100
AcDbEntity
  8
SIZE
100
AcDbText
 10
958.9099521527915
 20
941.7113164029332
 30
0.0
 40
64.0
  1
790
 50
90.0
 41
0.9
100
AcDbText
  0
TEXT
  5
930C
330
73DF
100
AcDbEntity
  8
SIZE
100
AcDbText
 10
1178.147907982365
 20
793.5752112301684
 30
0.0
 40
64.0
  1
1798
 50
90.0
 41
0.9
100
AcDbText
  0
TEXT
  5
930D
330
73DF
100
AcDbEntity
  8
SIZE
100
AcDbText
 10
1075.273549323673
 20
1543.555560561273
 30
0.0
 40
64.0
  1
341
 50
90.0
 41
0.9
100
AcDbText
  0
LINE
  5
930E
330
73DF
100
AcDbEntity
  8
SIZE
100
AcDbLine
 10
1089.474291379114
 20
1797.157018355843
 30
0.0
 11
1089.474291379114
 21
1457.0
 31
0.0
  0
CIRCLE
  5
930F
330
73DF
100
AcDbEntity
  8
SIZE
100
AcDbCircle
 10
1089.474291379114
 20
1457.0
 30
0.0
 40
6.0
  0
CIRCLE
  5
9310
330
73DF
100
AcDbEntity
  8
SIZE
100
AcDbCircle
 10
986.3823145482284
 20
1457.0
 30
0.0
 40
6.0
  0
CIRCLE
  5
9311
330
73DF
100
AcDbEntity
  8
SIZE
100
AcDbCircle
 10
1089.474291379114
 20
1797.157018355843
 30
0.0
 40
6.0
  0
CIRCLE
  5
9312
330
73DF
100
AcDbEntity
  8
SIZE
100
AcDbCircle
 10
1190.527607150958
 20
1797.157018355843
 30
0.0
 40
6.0
  0
DIMENSION
  5
A408
330
73DF
100
AcDbEntity
  8
SIZE
  6
CONTINUOUS
100
AcDbDimension
  2
*D5
 10
-634.6500037930909
 20
364.0000000000232
 30
0.0
 11
-676.650003793091
 21
182.0000000000123
 31
0.0
 70
    32
  3
STANDARD
100
AcDbAlignedDimension
 13
0.0
 23
0.0000000000013642
 33
0.0
 14
-299.999999999989
 24
364.0000000000231
 34
0.0
 50
90.0
100
AcDbRotatedDimension
1001
ACAD
1000
DSTYLE
1002
{
1070
   287
1070
     3
1070
    41
1040
10.0
1070
    42
1040
20.0
1070
    43
1040
200.0
1070
    44
1040
20.0
1070
    73
1070
     0
1070
    74
1070
     0
1070
    77
1070
     1
1070
    78
1070
     8
1070
   140
1040
64.0
1070
   141
1040
0.082
1070
   147
1040
10.0
1070
   172
1070
     1
1070
   275
1070
     0
1070
   279
1070
     0
1070
   284
1070
     0
1070
   285
1070
     0
1070
   286
1070
     0
1070
   341
1005
740B
1070
     5
1000
ORIGIN
1002
}
  0
DIMENSION
  5
A415
330
73DF
100
AcDbEntity
  8
SIZE
  6
CONTINUOUS
100
AcDbDimension
  2
*D6
 10
-740.3533986902939
 20
435.0000000000342
 30
0.0
 11
-782.353398690294
 21
217.5000000000171
 31
0.0
 70
    32
  3
STANDARD
100
AcDbAlignedDimension
 13
0.0
 23
0.0
 33
0.0
 14
-229.9999999999854
 24
435.0000000000341
 34
0.0
 50
90.0
100
AcDbRotatedDimension
1001
ACAD
1000
DSTYLE
1002
{
1070
   287
1070
     3
1070
    41
1040
10.0
1070
    42
1040
20.0
1070
    43
1040
200.0
1070
    44
1040
20.0
1070
    73
1070
     0
1070
    74
1070
     0
1070
    77
1070
     1
1070
    78
1070
     8
1070
   140
1040
64.0
1070
   141
1040
0.082
1070
   147
1040
10.0
1070
   172
1070
     1
1070
   275
1070
     0
1070
   279
1070
     0
1070
   284
1070
     0
1070
   285
1070
     0
1070
   286
1070
     0
1070
   341
1005
740B
1070
     5
1000
ORIGIN
1002
}
  0
ARC
  5
B5D4
330
73DF
100
AcDbEntity
  8
OUTLINE
  6
CONTINUOUS
100
AcDbCircle
 10
0.0
 20
-3806.801456217797
 30
0.0
 40
5605.0
100
AcDbArc
 50
88.89592735830509
 51
91.10407264169493
  0
LINE
  5
B5D8
330
73DF
100
AcDbEntity
  8
OUTLINE
  6
CONTINUOUS
100
AcDbLine
 10
432.0000000000009
 20
0.0000000000031832
 30
0.0
 11
-432.0000000000009
 21
-0.0000000000004547
 31
0.0
  0
LINE
  5
B5D9
330
73DF
100
AcDbEntity
  8
OUTLINE
  6
CONTINUOUS
100
AcDbLine
 10
432.0000000000009
 20
3.20000000000391
 30
0.0
 11
-432.0000000000009
 21
3.200000000000272
 31
0.0
  0
LINE
  5
B5DA
330
73DF
100
AcDbEntity
  8
OUTLINE
  6
CONTINUOUS
100
AcDbLine
 10
450.0000000000008
 20
96.8000000000061
 30
0.0
 11
-450.0
 21
96.80000000000063
 31
0.0
  0
LINE
  5
B823
330
73DF
100
AcDbEntity
  8
OUTLINE
  6
CONTINUOUS
100
AcDbLine
 10
-450.0
 20
96.80000000000063
 30
0.0
 11
-450.0
 21
1456.999999999999
 31
0.0
  0
LINE
  5
B82C
330
73DF
100
AcDbEntity
  8
OUTLINE
  6
CONTINUOUS
100
AcDbLine
 10
-439.0000000000009
 20
7.000000000004092
 30
0.0
 11
-433.0000000000018
 21
7.000000000004092
 31
0.0
  0
LINE
  5
B82D
330
73DF
100
AcDbEntity
  8
OUTLINE
  6
CONTINUOUS
100
AcDbLine
 10
-432.0000000000009
 20
0.0000000000031832
 30
0.0
 11
-432.0000000000009
 21
6.000000000003183
 31
0.0
  0
ARC
  5
B82E
330
73DF
100
AcDbEntity
  8
OUTLINE
  6
CONTINUOUS
100
AcDbCircle
 10
-433.0000000000018
 20
6.000000000003183
 30
0.0
 40
0.9999999999999399
100
AcDbArc
 50
0.0
 51
90.0
  0
LINE
  5
B82F
330
73DF
100
AcDbEntity
  8
OUTLINE
  6
CONTINUOUS
100
AcDbLine
 10
-439.0000000000009
 20
7.000000000004092
 30
0.0
 11
-439.0000000000009
 21
96.80000000000063
 31
0.0
  0
ARC
  5
B835
330
73DF
100
AcDbEntity
  8
OUTLINE
  6
DASHED
100
AcDbCircle
 10
-446.1999999999989
 20
329.2421024725122
 30
0.0
 40
3.799999999999508
100
AcDbArc
 50
172.2348339815676
 51
180.0
  0
ARC
  5
B849
330
73DF
100
AcDbEntity
  8
OUTLINE
  6
CONTINUOUS
100
AcDbCircle
 10
-188.2521554210097
 20
1689.196759308413
 30
0.0
 40
175.0000000000001
100
AcDbArc
 50
148.0303861068047
 51
177.0514744162828
  0
ARC
  5
B861
330
73DF
100
AcDbEntity
  8
OUTLINE
  6
CONTINUOUS
100
AcDbCircle
 10
-483.3955700034429
 20
1636.863125093064
 30
0.0
 40
117.0
100
AcDbArc
 50
292.0930882558265
 51
356.9999999999946
  0
ARC
  5
B864
330
73DF
100
AcDbEntity
  8
OUTLINE
  6
CONTINUOUS
100
AcDbCircle
 10
-433.748727118118
 20
1514.555370417193
 30
0.0
 40
14.9999843270187
100
AcDbArc
 50
112.0930882558265
 51
179.0000375960218
  0
LINE
  5
B866
330
73DF
100
AcDbEntity
  8
OUTLINE
  6
CONTINUOUS
100
AcDbLine
 10
-450.0
 20
1457.000000000002
 30
0.0
 11
-448.927205951456
 21
1504.460329878734
 31
0.0
  0
LINE
  5
B867
330
73DF
100
AcDbEntity
  8
OUTLINE
  6
CONTINUOUS
100
AcDbLine
 10
-448.7464270466444
 20
1514.817146399115
 30
0.0
 11
-448.9270371457796
 21
1504.469828376117
 31
0.0
  0
LINE
  5
B86B
330
73DF
100
AcDbEntity
  8
OUTLINE
  6
CONTINUOUS
100
AcDbLine
 10
-363.020552436792
 20
1698.198543782202
 30
0.0
 11
-366.5559144371582
 21
1630.739818212639
 31
0.0
  0
ARC
  5
B875
330
73DF
100
AcDbEntity
  8
OUTLINE
  6
CONTINUOUS
100
AcDbCircle
 10
0.0
 20
-3806.801456217797
 30
0.0
 40
5604.000000000001
100
AcDbArc
 50
92.13458933464076
 51
92.32430508989777
  0
ARC
  5
B879
330
73DF
100
AcDbEntity
  8
OUTLINE
  6
CONTINUOUS
100
AcDbCircle
 10
-247.9999999999991
 20
1792.010866089388
 30
0.0
 40
0.6935539968153
100
AcDbArc
 50
6.000000000008176
 51
174.0000000000177
  0
ARC
  5
B87D
330
73DF
100
AcDbEntity
  8
OUTLINE
  6
CONTINUOUS
100
AcDbCircle
 10
-227.999999999999
 20
1792.86163614851
 30
0.0
 40
0.6935539968153
100
AcDbArc
 50
6.000000000008176
 51
174.0000000000177
  0
LINE
  5
B87F
330
73DF
100
AcDbEntity
  8
OUTLINE
  6
CONTINUOUS
100
AcDbLine
 10
-248.7325863441756
 20
1791.67584573588
 30
0.0
 11
-248.6897546354521
 21
1792.083362222868
 31
0.0
  0
LINE
  5
B881
330
73DF
100
AcDbEntity
  8
OUTLINE
  6
CONTINUOUS
100
AcDbLine
 10
-247.2742037669604
 20
1791.740449327915
 30
0.0
 11
-247.3102453645469
 21
1792.083362222868
 31
0.0
  0
ARC
  5
B883
330
73DF
100
AcDbEntity
  8
OUTLINE
  6
CONTINUOUS
100
AcDbCircle
 10
0.0
 20
-3806.801456217797
 30
0.0
 40
5604.0
100
AcDbArc
 50
92.33922933400389
 51
92.52897389066438
  0
LINE
  5
B884
330
73DF
100
AcDbEntity
  8
OUTLINE
  6
CONTINUOUS
100
AcDbLine
 10
-228.7323738286177
 20
1792.528637745473
 30
0.0
 11
-228.6897546354521
 21
1792.93413228199
 31
0.0
  0
LINE
  5
B888
330
73DF
100
AcDbEntity
  8
OUTLINE
  6
CONTINUOUS
100
AcDbLine
 10
-227.2738682713934
 20
1792.588027359941
 30
0.0
 11
-227.3102453645469
 21
1792.93413228199
 31
0.0
  0
ARC
  5
B88B
330
73DF
100
AcDbEntity
  8
OUTLINE
  6
CONTINUOUS
100
AcDbCircle
 10
-267.999999999999
 20
1791.088456580174
 30
0.0
 40
0.6935539968153
100
AcDbArc
 50
6.000000000008176
 51
173.9999999999918
  0
LINE
  5
B88E
330
73DF
100
AcDbEntity
  8
OUTLINE
  6
CONTINUOUS
100
AcDbLine
 10
-268.7327937185964
 20
1790.751463190843
 30
0.0
 11
-268.6897546354521
 21
1791.160952713653
 31
0.0
  0
LINE
  5
B88F
330
73DF
100
AcDbEntity
  8
OUTLINE
  6
CONTINUOUS
100
AcDbLine
 10
-267.2745445192913
 20
1790.821281860574
 30
0.0
 11
-267.3102453645469
 21
1791.160952713653
 31
0.0
  0
ARC
  5
B891
330
73DF
100
AcDbEntity
  8
OUTLINE
  6
CONTINUOUS
100
AcDbCircle
 10
0.0
 20
-3806.801456217797
 30
0.0
 40
5604.0
100
AcDbArc
 50
92.54389914256707
 51
92.73367504172481
  0
LINE
  5
B89C
330
73DF
100
AcDbEntity
  8
OUTLINE
  6
CONTINUOUS
100
AcDbLine
 10
-328.8393286483951
 20
1786.54041742917
 30
0.0
 11
-328.6897546354521
 21
1787.96351910119
 31
0.0
  0
ARC
  5
B89E
330
73DF
100
AcDbEntity
  8
OUTLINE
  6
CONTINUOUS
100
AcDbCircle
 10
-327.999999999999
 20
1787.89102296771
 30
0.0
 40
0.6935539968153
100
AcDbArc
 50
6.000000000008176
 51
174.0000000000177
  0
ARC
  5
B8A2
330
73DF
100
AcDbEntity
  8
OUTLINE
  6
CONTINUOUS
100
AcDbCircle
 10
-307.9999999999991
 20
1789.028574641306
 30
0.0
 40
0.6935539968153
100
AcDbArc
 50
6.000000000008176
 51
174.0000000000177
  0
ARC
  5
B8A6
330
73DF
100
AcDbEntity
  8
OUTLINE
  6
CONTINUOUS
100
AcDbCircle
 10
-287.9999999999991
 20
1790.094372173474
 30
0.0
 40
0.6935539968153
100
AcDbArc
 50
6.000000000008176
 51
173.9999999999918
  0
ARC
  5
B8A8
330
73DF
100
AcDbEntity
  8
OUTLINE
  6
CONTINUOUS
100
AcDbCircle
 10
-328.2264425659468
 20
1776.559216567052
 30
0.0
 40
10.00000000000003
100
AcDbArc
 50
93.51378072903701
 51
148.0303861068047
  0
LINE
  5
B8AA
330
73DF
100
AcDbEntity
  8
OUTLINE
  6
CONTINUOUS
100
AcDbLine
 10
-327.2755984436953
 20
1787.633875668999
 30
0.0
 11
-327.3102453645469
 21
1787.96351910119
 31
0.0
  0
ARC
  5
B8AB
330
73DF
100
AcDbEntity
  8
OUTLINE
  6
CONTINUOUS
100
AcDbCircle
 10
0.0
 20
-3806.801456217797
 30
0.0
 40
5604.0
100
AcDbArc
 50
93.15811370119295
 51
93.34799891321244
  0
LINE
  5
B8AC
330
73DF
100
AcDbEntity
  8
OUTLINE
  6
CONTINUOUS
100
AcDbLine
 10
-308.7331930312857
 20
1788.687782045529
 30
0.0
 11
-308.6897546354521
 21
1789.101070774787
 31
0.0
  0
LINE
  5
B8B0
330
73DF
100
AcDbEntity
  8
OUTLINE
  6
CONTINUOUS
100
AcDbLine
 10
-307.2752418443651
 20
1788.768034526597
 30
0.0
 11
-307.3102453645469
 21
1789.101070774787
 31
0.0
  0
ARC
  5
B8B1
330
73DF
100
AcDbEntity
  8
OUTLINE
  6
CONTINUOUS
100
AcDbCircle
 10
0.0
 20
-3806.801456217797
 30
0.0
 40
5604.0
100
AcDbArc
 50
92.95333869450642
 51
93.14318491718621
  0
LINE
  5
B8B2
330
73DF
100
AcDbEntity
  8
OUTLINE
  6
CONTINUOUS
100
AcDbLine
 10
-288.732995948847
 20
1789.755454691838
 30
0.0
 11
-288.6897546354521
 21
1790.166868306957
 31
0.0
  0
LINE
  5
B8B5
330
73DF
100
AcDbEntity
  8
OUTLINE
  6
CONTINUOUS
100
AcDbLine
 10
-287.2748905407634
 20
1789.830489628275
 30
0.0
 11
-287.3102453645469
 21
1790.166868306957
 31
0.0
  0
ARC
  5
B8B8
330
73DF
100
AcDbEntity
  8
OUTLINE
  6
CONTINUOUS
100
AcDbCircle
 10
0.0
 20
-3806.801456217797
 30
0.0
 40
5604.0
100
AcDbArc
 50
92.74860138618828
 51
92.93841117268208
  0
ARC
  5
B8B9
330
73DF
100
AcDbEntity
  8
OUTLINE
  6
CONTINUOUS
100
AcDbCircle
 10
-147.999999999999
 20
1795.548933878716
 30
0.0
 40
0.6935539968153
100
AcDbArc
 50
6.000000000008176
 51
174.0000000000177
  0
ARC
  5
B8BD
330
73DF
100
AcDbEntity
  8
OUTLINE
  6
CONTINUOUS
100
AcDbCircle
 10
-167.999999999999
 20
1794.98442253009
 30
0.0
 40
0.6935539968153
100
AcDbArc
 50
6.000000000008176
 51
174.0000000000177
  0
LINE
  5
B8C0
330
73DF
100
AcDbEntity
  8
OUTLINE
  6
CONTINUOUS
100
AcDbLine
 10
-168.7317054564136
 20
1794.657783263801
 30
0.0
 11
-168.6897546354521
 21
1795.056918663572
 31
0.0
  0
LINE
  5
B8C3
330
73DF
100
AcDbEntity
  8
OUTLINE
  6
CONTINUOUS
100
AcDbLine
 10
-167.2728932106283
 20
1794.701536658039
 30
0.0
 11
-167.3102453645469
 21
1795.056918663572
 31
0.0
  0
ARC
  5
B8C4
330
73DF
100
AcDbEntity
  8
OUTLINE
  6
CONTINUOUS
100
AcDbCircle
 10
0.0
 20
-3806.801456217797
 30
0.0
 40
5604.000000000001
100
AcDbArc
 50
91.52082198240618
 51
91.7104665475788
  0
LINE
  5
B8C5
330
73DF
100
AcDbEntity
  8
OUTLINE
  6
CONTINUOUS
100
AcDbLine
 10
-148.7314723945892
 20
1795.224512047554
 30
0.0
 11
-148.6897546354521
 21
1795.621430012196
 31
0.0
  0
ARC
  5
B8C9
330
73DF
100
AcDbEntity
  8
OUTLINE
  6
CONTINUOUS
100
AcDbCircle
 10
-107.999999999999
 20
1796.463464359026
 30
0.0
 40
0.6935539968155501
100
AcDbArc
 50
90.0
 51
173.9999999999918
  0
LINE
  5
B8CB
330
73DF
100
AcDbEntity
  8
OUTLINE
  6
CONTINUOUS
100
AcDbLine
 10
-108.7309908653851
 20
1796.143623972211
 30
0.0
 11
-108.6897546354521
 21
1796.535960492508
 31
0.0
  0
ARC
  5
B8D0
330
73DF
100
AcDbEntity
  8
OUTLINE
  6
CONTINUOUS
100
AcDbCircle
 10
0.0
 20
-3806.801456217797
 30
0.0
 40
5604.0
100
AcDbArc
 50
91.3162750249382
 51
91.50590092208068
  0
ARC
  5
B8D2
330
73DF
100
AcDbEntity
  8
OUTLINE
  6
CONTINUOUS
100
AcDbCircle
 10
0.0
 20
-3806.801456217797
 30
0.0
 40
5604.0
100
AcDbArc
 50
91.11174479258547
 51
91.3013545487869
  0
LINE
  5
B8D3
330
73DF
100
AcDbEntity
  8
OUTLINE
  6
CONTINUOUS
100
AcDbLine
 10
-127.2722692543184
 20
1795.753119105753
 30
0.0
 11
-127.3102453645469
 21
1796.114437659025
 31
0.0
  0
LINE
  5
B8D6
330
73DF
100
AcDbEntity
  8
OUTLINE
  6
CONTINUOUS
100
AcDbLine
 10
-128.7312341977694
 20
1795.719785985743
 30
0.0
 11
-128.6897546354521
 21
1796.114437659025
 31
0.0
  0
ARC
  5
B8D8
330
73DF
100
AcDbEntity
  8
OUTLINE
  6
CONTINUOUS
100
AcDbCircle
 10
-127.999999999999
 20
1796.041941525545
 30
0.0
 40
0.6935539968151601
100
AcDbArc
 50
6.000000000008176
 51
174.0000000000177
  0
LINE
  5
B8DC
330
73DF
100
AcDbEntity
  8
OUTLINE
  6
CONTINUOUS
100
AcDbLine
 10
-147.2725786304908
 20
1795.263054976583
 30
0.0
 11
-147.3102453645469
 21
1795.621430012196
 31
0.0
  0
ARC
  5
B8E0
330
73DF
100
AcDbEntity
  8
OUTLINE
  6
CONTINUOUS
100
AcDbCircle
 10
-207.999999999999
 20
1793.64079943118
 30
0.0
 40
0.6935539968153
100
AcDbArc
 50
6.000000000008176
 51
174.0000000000177
  0
ARC
  5
B8E3
330
73DF
100
AcDbEntity
  8
OUTLINE
  6
CONTINUOUS
100
AcDbCircle
 10
-187.9999999999991
 20
1794.34838584356
 30
0.0
 40
0.6935539968153
100
AcDbArc
 50
6.000000000008176
 51
173.9999999999918
  0
LINE
  5
B8E5
330
73DF
100
AcDbEntity
  8
OUTLINE
  6
CONTINUOUS
100
AcDbLine
 10
-208.7321561743538
 20
1793.309871870138
 30
0.0
 11
-208.6897546354521
 21
1793.71329556466
 31
0.0
  0
LINE
  5
B8E9
330
73DF
100
AcDbEntity
  8
OUTLINE
  6
CONTINUOUS
100
AcDbLine
 10
-207.2735380208223
 20
1793.36404851832
 30
0.0
 11
-207.3102453645469
 21
1793.71329556466
 31
0.0
  0
ARC
  5
B8EA
330
73DF
100
AcDbEntity
  8
OUTLINE
  6
CONTINUOUS
100
AcDbCircle
 10
0.0
 20
-3806.801456217797
 30
0.0
 40
5604.0
100
AcDbArc
 50
91.92997652200034
 51
92.1196660135728
  0
LINE
  5
B8EB
330
73DF
100
AcDbEntity
  8
OUTLINE
  6
CONTINUOUS
100
AcDbLine
 10
-188.7319333832101
 20
1794.019577998654
 30
0.0
 11
-188.6897546354521
 21
1794.42088197704
 31
0.0
  0
LINE
  5
B8EE
330
73DF
100
AcDbEntity
  8
OUTLINE
  6
CONTINUOUS
100
AcDbLine
 10
-187.2732130040867
 20
1794.068542603022
 30
0.0
 11
-187.3102453645469
 21
1794.42088197704
 31
0.0
  0
ARC
  5
B8F0
330
73DF
100
AcDbEntity
  8
OUTLINE
  6
CONTINUOUS
100
AcDbCircle
 10
0.0
 20
-3806.801456217797
 30
0.0
 40
5604.000000000001
100
AcDbArc
 50
91.72538827676211
 51
91.9150540392342
  0
LINE
  5
B8F3
330
73DF
100
AcDbEntity
  8
OUTLINE
  6
CONTINUOUS
100
AcDbLine
 10
450.0000000000008
 20
96.8000000000061
 30
0.0
 11
450.0000000000008
 21
1457.000000000002
 31
0.0
  0
LINE
  5
B903
330
73DF
100
AcDbEntity
  8
OUTLINE
  6
CONTINUOUS
100
AcDbLine
 10
439.0000000000009
 20
7.000000000004092
 30
0.0
 11
433.0000000000008
 21
7.000000000004092
 31
0.0
  0
LINE
  5
B904
330
73DF
100
AcDbEntity
  8
OUTLINE
  6
CONTINUOUS
100
AcDbLine
 10
432.0000000000009
 20
0.0000000000031832
 30
0.0
 11
432.0000000000009
 21
6.000000000003183
 31
0.0
  0
ARC
  5
B905
330
73DF
100
AcDbEntity
  8
OUTLINE
  6
CONTINUOUS
100
AcDbCircle
 10
433.0000000000008
 20
6.000000000003183
 30
0.0
 40
0.9999999999999399
100
AcDbArc
 50
90.0
 51
180.0
  0
LINE
  5
B906
330
73DF
100
AcDbEntity
  8
OUTLINE
  6
CONTINUOUS
100
AcDbLine
 10
439.0000000000009
 20
7.000000000004092
 30
0.0
 11
439.0000000000009
 21
96.8000000000061
 31
0.0
  0
ARC
  5
B914
330
73DF
100
AcDbEntity
  8
OUTLINE
  6
DASHED
100
AcDbCircle
 10
446.2000000000016
 20
329.2421024725122
 30
0.0
 40
3.79999999999939
100
AcDbArc
 50
0.0
 51
7.765166018432373
  0
ARC
  5
B929
330
73DF
100
AcDbEntity
  8
OUTLINE
  6
CONTINUOUS
100
AcDbCircle
 10
188.2521554210115
 20
1689.196759308413
 30
0.0
 40
175.0000000000003
100
AcDbArc
 50
2.948525583717141
 51
31.96961389319529
  0
ARC
  5
B95B
330
73DF
100
AcDbEntity
  8
OUTLINE
  6
CONTINUOUS
100
AcDbCircle
 10
433.7487271181171
 20
1514.555370417193
 30
0.0
 40
14.99998432701922
100
AcDbArc
 50
0.9999624039781155
 51
67.90691174417344
  0
LINE
  5
B95C
330
73DF
100
AcDbEntity
  8
OUTLINE
  6
CONTINUOUS
100
AcDbLine
 10
450.0000000000008
 20
1457.000000000002
 30
0.0
 11
448.927205951456
 21
1504.460329878734
 31
0.0
  0
LINE
  5
B95D
330
73DF
100
AcDbEntity
  8
OUTLINE
  6
CONTINUOUS
100
AcDbLine
 10
448.7464270466452
 20
1514.817146399115
 30
0.0
 11
448.9270371457796
 21
1504.469828376117
 31
0.0
  0
LINE
  5
B969
330
73DF
100
AcDbEntity
  8
OUTLINE
  6
CONTINUOUS
100
AcDbLine
 10
363.0205524367929
 20
1698.198543782202
 30
0.0
 11
366.5559144371591
 21
1630.739818212639
 31
0.0
  0
ARC
  5
B96A
330
73DF
100
AcDbEntity
  8
OUTLINE
  6
CONTINUOUS
100
AcDbCircle
 10
483.3955700034429
 20
1636.863125093062
 30
0.0
 40
117.0000000000001
100
AcDbArc
 50
183.0000000000054
 51
247.9069117441734
  0
ARC
  5
B96B
330
73DF
100
AcDbEntity
  8
OUTLINE
  6
CONTINUOUS
100
AcDbCircle
 10
0.0
 20
-3806.801456217797
 30
0.0
 40
5604.0
100
AcDbArc
 50
87.88033398642719
 51
88.07002347798663
  0
ARC
  5
B96D
330
73DF
100
AcDbEntity
  8
OUTLINE
  6
CONTINUOUS
100
AcDbCircle
 10
0.0
 20
-3806.801456217797
 30
0.0
 40
5604.0
100
AcDbArc
 50
88.08494596076579
 51
88.27461172322486
  0
ARC
  5
B971
330
73DF
100
AcDbEntity
  8
OUTLINE
  6
CONTINUOUS
100
AcDbCircle
 10
168.0000000000018
 20
1794.98442253009
 30
0.0
 40
0.6935539968157201
100
AcDbArc
 50
5.999999999982263
 51
173.9999999999918
  0
ARC
  5
B975
330
73DF
100
AcDbEntity
  8
OUTLINE
  6
CONTINUOUS
100
AcDbCircle
 10
148.0000000000018
 20
1795.548933878716
 30
0.0
 40
0.6935539968157201
100
AcDbArc
 50
5.999999999982263
 51
173.9999999999918
  0
LINE
  5
B977
330
73DF
100
AcDbEntity
  8
OUTLINE
  6
CONTINUOUS
100
AcDbLine
 10
168.7317054564146
 20
1794.657783263801
 30
0.0
 11
168.6897546354548
 21
1795.056918663572
 31
0.0
  0
LINE
  5
B97A
330
73DF
100
AcDbEntity
  8
OUTLINE
  6
CONTINUOUS
100
AcDbLine
 10
167.2728932106274
 20
1794.701536658038
 30
0.0
 11
167.3102453645469
 21
1795.056918663572
 31
0.0
  0
ARC
  5
B97B
330
73DF
100
AcDbEntity
  8
OUTLINE
  6
CONTINUOUS
100
AcDbCircle
 10
0.0
 20
-3806.801456217797
 30
0.0
 40
5604.0
100
AcDbArc
 50
88.28953345242119
 51
88.47917801759381
  0
LINE
  5
B97C
330
73DF
100
AcDbEntity
  8
OUTLINE
  6
CONTINUOUS
100
AcDbLine
 10
148.7314723945901
 20
1795.224512047553
 30
0.0
 11
148.6897546354548
 21
1795.621430012196
 31
0.0
  0
LINE
  5
B97F
330
73DF
100
AcDbEntity
  8
OUTLINE
  6
CONTINUOUS
100
AcDbLine
 10
147.2725786304908
 20
1795.263054976583
 30
0.0
 11
147.3102453645469
 21
1795.621430012196
 31
0.0
  0
ARC
  5
B983
330
73DF
100
AcDbEntity
  8
OUTLINE
  6
CONTINUOUS
100
AcDbCircle
 10
188.0000000000018
 20
1794.34838584356
 30
0.0
 40
0.6935539968157301
100
AcDbArc
 50
6.000000000008176
 51
173.9999999999918
  0
LINE
  5
B985
330
73DF
100
AcDbEntity
  8
OUTLINE
  6
CONTINUOUS
100
AcDbLine
 10
188.731933383211
 20
1794.019577998653
 30
0.0
 11
188.6897546354548
 21
1794.42088197704
 31
0.0
  0
LINE
  5
B987
330
73DF
100
AcDbEntity
  8
OUTLINE
  6
CONTINUOUS
100
AcDbLine
 10
187.2732130040858
 20
1794.068542603021
 30
0.0
 11
187.3102453645469
 21
1794.42088197704
 31
0.0
  0
ARC
  5
B98A
330
73DF
100
AcDbEntity
  8
OUTLINE
  6
CONTINUOUS
100
AcDbCircle
 10
0.0
 20
-3806.801456217797
 30
0.0
 40
5604.000000000001
100
AcDbArc
 50
88.69864545121311
 51
88.88825520741454
  0
ARC
  5
B98C
330
73DF
100
AcDbEntity
  8
OUTLINE
  6
CONTINUOUS
100
AcDbCircle
 10
108.0000000000018
 20
1796.463464359026
 30
0.0
 40
0.6935539968154401
100
AcDbArc
 50
6.000000000008176
 51
90.0
  0
LINE
  5
B98E
330
73DF
100
AcDbEntity
  8
OUTLINE
  6
CONTINUOUS
100
AcDbLine
 10
108.7309908653851
 20
1796.143623972213
 30
0.0
 11
108.6897546354521
 21
1796.535960492508
 31
0.0
  0
LINE
  5
B992
330
73DF
100
AcDbEntity
  8
OUTLINE
  6
CONTINUOUS
100
AcDbLine
 10
127.2722692543166
 20
1795.753119105754
 30
0.0
 11
127.3102453645469
 21
1796.114437659025
 31
0.0
  0
LINE
  5
B995
330
73DF
100
AcDbEntity
  8
OUTLINE
  6
CONTINUOUS
100
AcDbLine
 10
128.7312341977694
 20
1795.719785985743
 30
0.0
 11
128.6897546354548
 21
1796.114437659025
 31
0.0
  0
ARC
  5
B997
330
73DF
100
AcDbEntity
  8
OUTLINE
  6
CONTINUOUS
100
AcDbCircle
 10
128.0000000000018
 20
1796.041941525545
 30
0.0
 40
0.6935539968157201
100
AcDbArc
 50
5.999999999982263
 51
173.9999999999918
  0
ARC
  5
B99B
330
73DF
100
AcDbEntity
  8
OUTLINE
  6
CONTINUOUS
100
AcDbCircle
 10
0.0
 20
-3806.801456217797
 30
0.0
 40
5604.0
100
AcDbArc
 50
88.49409907791935
 51
88.68372497506177
  0
ARC
  5
B99C
330
73DF
100
AcDbEntity
  8
OUTLINE
  6
CONTINUOUS
100
AcDbCircle
 10
0.0
 20
-3806.801456217797
 30
0.0
 40
5604.0
100
AcDbArc
 50
86.65200108678757
 51
86.84188629880706
  0
LINE
  5
B99F
330
73DF
100
AcDbEntity
  8
OUTLINE
  6
CONTINUOUS
100
AcDbLine
 10
248.7325863441774
 20
1791.67584573588
 30
0.0
 11
248.6897546354548
 21
1792.083362222868
 31
0.0
  0
ARC
  5
B9A0
330
73DF
100
AcDbEntity
  8
OUTLINE
  6
CONTINUOUS
100
AcDbCircle
 10
0.0
 20
-3806.801456217797
 30
0.0
 40
5604.0
100
AcDbArc
 50
87.26632495827518
 51
87.45610085743292
  0
ARC
  5
B9A2
330
73DF
100
AcDbEntity
  8
OUTLINE
  6
CONTINUOUS
100
AcDbCircle
 10
248.0000000000018
 20
1792.010866089388
 30
0.0
 40
0.6935539968157201
100
AcDbArc
 50
5.999999999982263
 51
173.9999999999918
  0
LINE
  5
B9A3
330
73DF
100
AcDbEntity
  8
OUTLINE
  6
CONTINUOUS
100
AcDbLine
 10
247.2742037669586
 20
1791.740449327915
 30
0.0
 11
247.3102453645469
 21
1792.083362222868
 31
0.0
  0
ARC
  5
B9A9
330
73DF
100
AcDbEntity
  8
OUTLINE
  6
CONTINUOUS
100
AcDbCircle
 10
308.0000000000008
 20
1789.028574641306
 30
0.0
 40
0.6935539968157201
100
AcDbArc
 50
5.999999999982263
 51
173.9999999999918
  0
ARC
  5
B9AD
330
73DF
100
AcDbEntity
  8
OUTLINE
  6
CONTINUOUS
100
AcDbCircle
 10
288.0000000000018
 20
1790.094372173474
 30
0.0
 40
0.6935539968157301
100
AcDbArc
 50
6.000000000008176
 51
173.9999999999918
  0
ARC
  5
B9B1
330
73DF
100
AcDbEntity
  8
OUTLINE
  6
CONTINUOUS
100
AcDbCircle
 10
268.0000000000018
 20
1791.088456580174
 30
0.0
 40
0.6935539968157301
100
AcDbArc
 50
6.000000000008176
 51
173.9999999999918
  0
LINE
  5
B9B3
330
73DF
100
AcDbEntity
  8
OUTLINE
  6
CONTINUOUS
100
AcDbLine
 10
308.7331930312875
 20
1788.687782045529
 30
0.0
 11
308.6897546354548
 21
1789.101070774787
 31
0.0
  0
LINE
  5
B9B6
330
73DF
100
AcDbEntity
  8
OUTLINE
  6
CONTINUOUS
100
AcDbLine
 10
307.2752418443651
 20
1788.768034526598
 30
0.0
 11
307.3102453645469
 21
1789.101070774787
 31
0.0
  0
ARC
  5
B9B7
330
73DF
100
AcDbEntity
  8
OUTLINE
  6
CONTINUOUS
100
AcDbCircle
 10
0.0
 20
-3806.801456217797
 30
0.0
 40
5604.000000000001
100
AcDbArc
 50
86.85681508281376
 51
87.04666130549359
  0
LINE
  5
B9B8
330
73DF
100
AcDbEntity
  8
OUTLINE
  6
CONTINUOUS
100
AcDbLine
 10
288.7329959488488
 20
1789.755454691838
 30
0.0
 11
288.6897546354548
 21
1790.166868306957
 31
0.0
  0
LINE
  5
B9BB
330
73DF
100
AcDbEntity
  8
OUTLINE
  6
CONTINUOUS
100
AcDbLine
 10
287.2748905407643
 20
1789.830489628275
 30
0.0
 11
287.3102453645469
 21
1790.166868306957
 31
0.0
  0
ARC
  5
B9BF
330
73DF
100
AcDbEntity
  8
OUTLINE
  6
CONTINUOUS
100
AcDbCircle
 10
0.0
 20
-3806.801456217797
 30
0.0
 40
5604.0
100
AcDbArc
 50
87.06158882731791
 51
87.25139861381171
  0
LINE
  5
B9C0
330
73DF
100
AcDbEntity
  8
OUTLINE
  6
CONTINUOUS
100
AcDbLine
 10
268.7327937185991
 20
1790.751463190843
 30
0.0
 11
268.6897546354548
 21
1791.160952713653
 31
0.0
  0
LINE
  5
B9C1
330
73DF
100
AcDbEntity
  8
OUTLINE
  6
CONTINUOUS
100
AcDbLine
 10
267.2745445192913
 20
1790.821281860574
 30
0.0
 11
267.3102453645469
 21
1791.160952713653
 31
0.0
  0
LINE
  5
B9C7
330
73DF
100
AcDbEntity
  8
OUTLINE
  6
CONTINUOUS
100
AcDbLine
 10
328.839328648396
 20
1786.54041742917
 30
0.0
 11
328.6897546354548
 21
1787.96351910119
 31
0.0
  0
ARC
  5
B9C9
330
73DF
100
AcDbEntity
  8
OUTLINE
  6
CONTINUOUS
100
AcDbCircle
 10
328.0000000000009
 20
1787.89102296771
 30
0.0
 40
0.6935539968157201
100
AcDbArc
 50
5.999999999982263
 51
173.9999999999918
  0
ARC
  5
B9CB
330
73DF
100
AcDbEntity
  8
OUTLINE
  6
CONTINUOUS
100
AcDbCircle
 10
328.2264425659459
 20
1776.559216567052
 30
0.0
 40
9.99999999999992
100
AcDbArc
 50
31.96961389319529
 51
86.48621927096298
  0
LINE
  5
B9CD
330
73DF
100
AcDbEntity
  8
OUTLINE
  6
CONTINUOUS
100
AcDbLine
 10
327.2755984436953
 20
1787.633875668999
 30
0.0
 11
327.3102453645469
 21
1787.96351910119
 31
0.0
  0
ARC
  5
B9D0
330
73DF
100
AcDbEntity
  8
OUTLINE
  6
CONTINUOUS
100
AcDbCircle
 10
228.0000000000018
 20
1792.86163614851
 30
0.0
 40
0.6935539968157201
100
AcDbArc
 50
5.999999999982263
 51
173.9999999999918
  0
ARC
  5
B9D4
330
73DF
100
AcDbEntity
  8
OUTLINE
  6
CONTINUOUS
100
AcDbCircle
 10
208.0000000000018
 20
1793.64079943118
 30
0.0
 40
0.6935539968157201
100
AcDbArc
 50
5.999999999982263
 51
173.9999999999918
  0
LINE
  5
B9D5
330
73DF
100
AcDbEntity
  8
OUTLINE
  6
CONTINUOUS
100
AcDbLine
 10
228.7323738286186
 20
1792.528637745473
 30
0.0
 11
228.6897546354548
 21
1792.93413228199
 31
0.0
  0
LINE
  5
B9D8
330
73DF
100
AcDbEntity
  8
OUTLINE
  6
CONTINUOUS
100
AcDbLine
 10
227.2738682713925
 20
1792.588027359939
 30
0.0
 11
227.3102453645469
 21
1792.93413228199
 31
0.0
  0
ARC
  5
B9D9
330
73DF
100
AcDbEntity
  8
OUTLINE
  6
CONTINUOUS
100
AcDbCircle
 10
0.0
 20
-3806.801456217797
 30
0.0
 40
5604.0
100
AcDbArc
 50
87.67569491010224
 51
87.86541066535923
  0
LINE
  5
B9DA
330
73DF
100
AcDbEntity
  8
OUTLINE
  6
CONTINUOUS
100
AcDbLine
 10
208.7321561743546
 20
1793.309871870137
 30
0.0
 11
208.6897546354548
 21
1793.71329556466
 31
0.0
  0
LINE
  5
B9DF
330
73DF
100
AcDbEntity
  8
OUTLINE
  6
CONTINUOUS
100
AcDbLine
 10
207.2735380208214
 20
1793.36404851832
 30
0.0
 11
207.3102453645469
 21
1793.71329556466
 31
0.0
  0
ARC
  5
B9E0
330
73DF
100
AcDbEntity
  8
OUTLINE
  6
CONTINUOUS
100
AcDbCircle
 10
0.0
 20
-3806.801456217797
 30
0.0
 40
5604.0
100
AcDbArc
 50
87.47102610933563
 51
87.66077066599612
  0
ENDSEC
  0
SECTION
  2
OBJECTS
  0
DICTIONARY
  5
73CD
330
0
100
AcDbDictionary
  3
ACAD_GROUP
350
73CE
  3
ACAD_LAYOUT
350
73DA
  3
ACAD_MLINESTYLE
350
73D7
  3
ACAD_PLOTSETTINGS
350
73D9
1001
ACAD
1000
TREAT_AS_HARD
1070
     0
  0
DICTIONARY
  5
BA16
330
73DF
100
AcDbDictionary
  3
ACAD_LAYOUTSELFREF
350
BA17
  0
DICTIONARY
  5
BA14
330
73DB
100
AcDbDictionary
  3
ACAD_LAYOUTSELFREF
350
BA15
  0
DICTIONARY
  5
73CE
102
{ACAD_REACTORS
330
73CD
102
}
330
73CD
100
AcDbDictionary
1001
ACAD
1000
TREAT_AS_HARD
1070
     0
  0
DICTIONARY
  5
73DA
102
{ACAD_REACTORS
330
73CD
102
}
330
73CD
100
AcDbDictionary
1001
ACAD
1000
TREAT_AS_HARD
1070
     0
  0
DICTIONARY
  5
73D7
102
{ACAD_REACTORS
330
73CD
102
}
330
73CD
100
AcDbDictionary
  3
STANDARD
350
73D8
1001
ACAD
1000
TREAT_AS_HARD
1070
     0
  0
DICTIONARY
  5
73D9
102
{ACAD_REACTORS
330
73CD
102
}
330
73CD
100
AcDbDictionary
1001
ACAD
1000
TREAT_AS_HARD
1070
     0
  0
XRECORD
  5
BA17
102
{ACAD_REACTORS
330
BA16
102
}
330
BA16
100
AcDbXrecord
340
73DF
  0
XRECORD
  5
BA15
102
{ACAD_REACTORS
330
BA14
102
}
330
BA14
100
AcDbXrecord
340
73DB
  0
MLINESTYLE
  5
73D8
102
{ACAD_REACTORS
330
73D7
102
}
330
73D7
100
AcDbMlineStyle
  2
STANDARD
 70
     0
  3

 62
   256
 51
90.0
 52
90.0
 71
     2
 49
0.5
 62
   256
  6
BYLAYER
 49
-0.5
 62
   256
  6
BYLAYER
  0
ENDSEC
  0
EOF
