  0
SECTION
  2
HEADER
  9
$ACADVER
  1
AC1009
  9
$INSBASE
 10
0.0
 20
0.0
 30
0.0
  9
$EXTMIN
 10
-1103.6094790332349
 20
-573.01396200505167
 30
0.0
  9
$EXTMAX
 10
1640.0577168305231
 20
1352.2962397570329
 30
1.0049964175586230E+099
  9
$LIMMIN
 10
-1331.4123139973531
 20
-801.87820346265642
  9
$LIMMAX
 10
1791.4087137223501
 20
1559.761425466593
  9
$ORTHOMODE
 70
     1
  9
$REGENMODE
 70
     1
  9
$FILLMODE
 70
     1
  9
$QTEXTMODE
 70
     0
  9
$MIRRTEXT
 70
     0
  9
$DRAGMODE
 70
     2
  9
$LTSCALE
 40
20.0
  9
$OSMODE
 70
    37
  9
$ATTMODE
 70
     1
  9
$TEXTSIZE
 40
64.0
  9
$TRACEWID
 40
0.05
  9
$TEXTSTYLE
  7
STANDARD
  9
$CLAYER
  8
SIZE
  9
$CELTYPE
  6
CONTINUOUS
  9
$CECOLOR
 62
   256
  9
$DIMSCALE
 40
1.0
  9
$DIMASZ
 40
10.0
  9
$DIMEXO
 40
20.0
  9
$DIMDLI
 40
200.0
  9
$DIMRND
 40
0.0
  9
$DIMDLE
 40
0.0
  9
$DIMEXE
 40
30.0
  9
$DIMTP
 40
0.0
  9
$DIMTM
 40
0.0
  9
$DIMTXT
 40
64.0
  9
$DIMCEN
 40
0.09
  9
$DIMTSZ
 40
0.0
  9
$DIMTOL
 70
     0
  9
$DIMLIM
 70
     0
  9
$DIMTIH
 70
     0
  9
$DIMTOH
 70
     0
  9
$DIMSE1
 70
     0
  9
$DIMSE2
 70
     0
  9
$DIMTAD
 70
     1
  9
$DIMZIN
 70
     8
  9
$DIMBLK
  1

  9
$DIMASO
 70
     1
  9
$DIMSHO
 70
     0
  9
$DIMPOST
  1

  9
$DIMAPOST
  1

  9
$DIMALT
 70
     0
  9
$DIMALTD
 70
     2
  9
$DIMALTF
 40
25.399999999999999
  9
$DIMLFAC
 40
1.0
  9
$DIMTOFL
 70
     1
  9
$DIMTVP
 40
0.0
  9
$DIMTIX
 70
     0
  9
$DIMSOXD
 70
     0
  9
$DIMSAH
 70
     1
  9
$DIMBLK1
  1
DOTBLANK
  9
$DIMBLK2
  1
ORIGIN
  9
$DIMSTYLE
  2
STANDARD
  9
$DIMCLRD
 70
     0
  9
$DIMCLRE
 70
     0
  9
$DIMCLRT
 70
     0
  9
$DIMTFAC
 40
1.0
  9
$DIMGAP
 40
20.0
  9
$LUNITS
 70
     2
  9
$LUPREC
 70
     4
  9
$SKETCHINC
 40
0.1
  9
$FILLETRAD
 40
6.0
  9
$AUNITS
 70
     1
  9
$AUPREC
 70
     3
  9
$MENU
  1
ACAD
  9
$ELEVATION
 40
0.0
  9
$PELEVATION
 40
0.0
  9
$THICKNESS
 40
0.0
  9
$LIMCHECK
 70
     0
  9
$BLIPMODE
 70
     0
  9
$CHAMFERA
 40
0.0
  9
$CHAMFERB
 40
0.0
  9
$SKPOLY
 70
     0
  9
$TDCREATE
 40
2450330.3932059952
  9
$TDUPDATE
 40
2453256.5840037842
  9
$TDINDWG
 40
0.5454838426000001
  9
$TDUSRTIMER
 40
0.5454837269
  9
$USRTIMER
 70
     1
  9
$ANGBASE
 50
0.0
  9
$ANGDIR
 70
     0
  9
$PDMODE
 70
     3
  9
$PDSIZE
 40
-2.0
  9
$PLINEWID
 40
0.0
  9
$COORDS
 70
     1
  9
$SPLFRAME
 70
     0
  9
$SPLINETYPE
 70
     6
  9
$SPLINESEGS
 70
     8
  9
$ATTDIA
 70
     0
  9
$ATTREQ
 70
     1
  9
$HANDLING
 70
-16383
  9
$HANDSEED
  5
23E3
  9
$SURFTAB1
 70
     6
  9
$SURFTAB2
 70
     6
  9
$SURFTYPE
 70
     6
  9
$SURFU
 70
     6
  9
$SURFV
 70
     6
  9
$UCSNAME
  2

  9
$UCSORG
 10
0.0
 20
0.0
 30
0.0
  9
$UCSXDIR
 10
1.0
 20
0.0
 30
0.0
  9
$UCSYDIR
 10
0.0
 20
1.0
 30
0.0
  9
$PUCSNAME
  2

  9
$PUCSORG
 10
0.0
 20
0.0
 30
0.0
  9
$PUCSXDIR
 10
1.0
 20
0.0
 30
0.0
  9
$PUCSYDIR
 10
0.0
 20
1.0
 30
0.0
  9
$USERI1
 70
     0
  9
$USERI2
 70
     0
  9
$USERI3
 70
     0
  9
$USERI4
 70
     0
  9
$USERI5
 70
     0
  9
$USERR1
 40
20.0
  9
$USERR2
 40
0.0
  9
$USERR3
 40
0.0
  9
$USERR4
 40
0.0
  9
$USERR5
 40
0.0
  9
$WORLDVIEW
 70
     1
  9
$SHADEDGE
 70
     3
  9
$SHADEDIF
 70
    70
  9
$TILEMODE
 70
     1
  9
$MAXACTVP
 70
    64
  9
$PLIMCHECK
 70
     0
  9
$PEXTMIN
 10
1.0000000000000000E+020
 20
1.0000000000000000E+020
 30
1.0000000000000000E+020
  9
$PEXTMAX
 10
-1.0000000000000000E+020
 20
-1.0000000000000000E+020
 30
-1.0000000000000000E+020
  9
$PLIMMIN
 10
0.0
 20
0.0
  9
$PLIMMAX
 10
12.0
 20
9.0
  9
$UNITMODE
 70
     0
  9
$VISRETAIN
 70
     1
  9
$PLINEGEN
 70
     0
  9
$PSLTSCALE
 70
     1
  0
ENDSEC
  0
SECTION
  2
TABLES
  0
TABLE
  2
VPORT
 70
     2
  0
VPORT
  2
*ACTIVE
 70
     0
 10
0.0
 20
0.0
 11
1.0
 21
1.0
 12
292.72242827265848
 22
280.4723428215197
 13
0.0
 23
0.0
 14
50.0
 24
50.0
 15
100.0
 25
100.0
 16
0.0
 26
0.0
 36
1.0
 17
0.0
 27
0.0
 37
0.0
 40
2623.4239823315988
 41
1.2721893491124261
 42
50.0
 43
0.0
 44
0.0
 50
0.0
 51
0.0
 71
     0
 72
   500
 73
     1
 74
     0
 75
     0
 76
     0
 77
     0
 78
     0
  0
ENDTAB
  0
TABLE
  2
LTYPE
 70
     8
  0
LTYPE
  2
CONTINUOUS
 70
     0
  3
実線
 72
    65
 73
     0
 40
0.0
  0
LTYPE
  2
DASHDOT
 70
     0
  3
____ _ ____ _ ____ _ ____ _ ____ _ ____ _ ____
 72
    65
 73
     4
 40
5.5
 49
4.0
 49
-0.6
 49
0.3
 49
-0.6
  0
LTYPE
  2
CONTINOUS
 70
     0
  3
Solid line
 72
    65
 73
     0
 40
0.0
  0
LTYPE
  2
DASHED
 70
     0
  3
_ _ _ _ _ _ _ _ _ _ _ _ _ _ _ _ _ _ _ _ _ _ _
 72
    65
 73
     2
 40
2.0
 49
1.1999999999999991
 49
-0.8
  0
LTYPE
  2
DOT
 70
     0
  3
...............................................
 72
    65
 73
     2
 40
0.8
 49
0.5
 49
-0.3
  0
LTYPE
  2
DASHDOT1
 70
     0
  3
____ _ ____ _ ____ _ ____ _ ____ _ ____ _ ____
 72
    65
 73
     4
 40
2.0
 49
1.5
 49
-0.2
 49
0.1
 49
-0.2
  0
LTYPE
  2
DIVIDE
 70
     0
  3
_____ _ _ _____ _ _ _____ _ _ _____ _ _ ____
 72
    65
 73
     6
 40
6.4000000000000004
 49
4.0
 49
-0.6
 49
0.3
 49
-0.6
 49
0.3
 49
-0.6
  0
LTYPE
  2
DIVIDE1
 70
     0
  3
_____ _ _ _____ _ _ _____ _ _ _____ _ _ ____
 72
    65
 73
     6
 40
3.2000000000000002
 49
2.0
 49
-0.3
 49
0.15
 49
-0.3
 49
0.15
 49
-0.3
  0
ENDTAB
  0
TABLE
  2
LAYER
 70
    12
  0
LAYER
  2
0
 70
     0
 62
     7
  6
CONTINUOUS
  0
LAYER
  2
SERVICESPACE
 70
     0
 62
     2
  6
CONTINUOUS
  0
LAYER
  2
DETAIL
 70
     0
 62
     5
  6
CONTINUOUS
  0
LAYER
  2
OUTLINE
 70
     0
 62
     3
  6
CONTINUOUS
  0
LAYER
  2
BASIS
 70
     0
 62
     6
  6
CONTINUOUS
  0
LAYER
  2
SIZE
 70
     0
 62
    32
  6
CONTINUOUS
  0
LAYER
  2
NOTE
 70
     0
 62
     4
  6
CONTINUOUS
  0
LAYER
  2
ARRANGE
 70
     0
 62
     1
  6
CONTINUOUS
  0
LAYER
  2
FIX
 70
     0
 62
   241
  6
CONTINUOUS
  0
LAYER
  2
ETC
 70
     0
 62
    83
  6
CONTINUOUS
  0
LAYER
  2
SYMBOLLINE
 70
     0
 62
    38
  6
CONTINUOUS
  0
LAYER
  2
DEFPOINTS
 70
     0
 62
     7
  6
CONTINUOUS
  0
ENDTAB
  0
TABLE
  2
STYLE
 70
     2
  0
STYLE
  2
STANDARD
 70
     0
 40
0.0
 41
0.9
 50
0.0
 71
     0
 42
64.0
  3
SIMPLEX
  4
BIGFONT
  0
STYLE
  2
STANDARD1
 70
     0
 40
0.0
 41
1.0
 50
0.0
 71
     0
 42
3.2000000000000002
  3
MONOTXT
  4
BIGFONT
  0
ENDTAB
  0
TABLE
  2
VIEW
 70
     1
  0
VIEW
  2
ALL
 70
     0
 40
4282.6199999999999
 10
0.0
 20
41.309903999999989
 41
5940.0
 11
0.0
 21
0.0
 31
1.0
 12
0.0
 22
0.0
 32
0.0
 42
50.0
 43
0.0
 44
0.0
 50
0.0
 71
     0
  0
ENDTAB
  0
TABLE
  2
UCS
 70
     0
  0
ENDTAB
  0
TABLE
  2
APPID
 70
     1
  0
APPID
  2
ACAD
 70
     0
  0
ENDTAB
  0
TABLE
  2
DIMSTYLE
 70
     2
  0
DIMSTYLE
  2
STANDARD
 70
     0
  3

  4

  5

  6

  7

 40
1.0
 41
0.18
 42
0.0625
 43
0.38
 44
0.18
 45
0.0
 46
0.0
 47
0.0
 48
0.0
140
0.18
141
0.09
142
0.0
143
25.399999999999999
144
1.0
145
0.0
146
1.0
147
0.09
 71
     0
 72
     0
 73
     1
 74
     1
 75
     0
 76
     0
 77
     0
 78
     0
170
     0
171
     2
172
     0
173
     0
174
     0
175
     0
176
     0
177
     0
178
     0
  0
DIMSTYLE
  2
DMST_1
 70
     0
  3

  4

  5

  6

  7

 40
1.0
 41
20.0
 42
4.9999999999999991
 43
7.0
 44
15.0
 45
0.0
 46
0.0
 47
0.0
 48
0.0
140
32.0
141
0.0
142
0.0
143
25.399999999999999
144
1.0
145
0.0
146
1.0
147
0.09
 71
     0
 72
     0
 73
     0
 74
     0
 75
     0
 76
     0
 77
     1
 78
     9
170
     0
171
     2
172
     0
173
     0
174
     0
175
     0
176
     2
177
     2
178
     2
  0
ENDTAB
  0
ENDSEC
  0
SECTION
  2
BLOCKS
  0
BLOCK
  8
0
  2
$MODEL_SPACE
 70
     0
 10
0.0
 20
0.0
 30
0.0
  3
$MODEL_SPACE
  1

  0
ENDBLK
  5
1B59
  8
0
  0
BLOCK
 67
     1
  8
0
  2
$PAPER_SPACE
 70
     0
 10
0.0
 20
0.0
 30
0.0
  3
$PAPER_SPACE
  1

  0
ENDBLK
  5
1B55
 67
     1
  8
0
  0
BLOCK
  8
0
  2
A$C5F2C697A
 70
     0
 10
0.0
 20
0.0
 30
0.0
  3
A$C5F2C697A
  1

  0
TEXT
  5
1B7D
  8
SIZE
  6
BYBLOCK
 10
910.8147643978815
 20
127.36127978650261
 30
0.0
 40
64.0
  1
370
 41
0.9
  0
LINE
  5
1B7E
  8
SIZE
  6
BYBLOCK
 10
801.8719073978815
 20
95.361279786502593
 30
0.0
 11
1167.87190739788
 21
95.361279786502593
 31
0.0
  0
TEXT
  5
1B7F
  8
SIZE
  6
BYBLOCK
 10
915.81476439788139
 20
1424.5027517865019
 30
0.0
 40
64.0
  1
330
 41
0.9
  0
LINE
  5
1B80
  8
SIZE
  6
BYBLOCK
 10
826.8719073978815
 20
1392.5027517865019
 30
0.0
 11
1152.87190739788
 21
1392.5027517865019
 31
0.0
  0
LINE
  5
1B81
  8
OUTLINE
  6
CONTINUOUS
 10
771.8719063978815
 20
290.07775178650252
 30
0.0
 11
1183.871906397881
 21
290.07775178650252
 31
0.0
  0
LINE
  5
1B82
  8
OUTLINE
  6
CONTINUOUS
 10
771.8719063978815
 20
323.07775178650252
 30
0.0
 11
1183.871906397881
 21
323.07775178650252
 31
0.0
  0
LINE
  5
1B83
  8
OUTLINE
  6
CONTINUOUS
 10
824.87190639788139
 20
1145.0777517865019
 30
0.0
 11
1154.8719063978799
 21
1145.0777517865019
 31
0.0
  0
CIRCLE
  5
1B84
  8
ARRANGE
  6
CONTINUOUS
 10
989.87190639788139
 20
290.07775178650252
 30
0.0
 40
40.0
  0
LINE
  5
1B85
  8
DETAIL
  6
CONTINOUS
 10
771.8719063978815
 20
290.07775178650252
 30
0.0
 11
1183.871906397881
 21
290.07775178650252
 31
0.0
  0
LINE
  5
1B86
  8
DETAIL
  6
CONTINOUS
 10
824.87190639788139
 20
1145.0777517865019
 30
0.0
 11
1154.8719063978799
 21
1145.0777517865019
 31
0.0
  0
TEXT
  5
1B87
  8
NOTE
  6
CONTINUOUS
 10
973.98087039788129
 20
913.84623078650259
 30
0.0
 40
64.0
  1
EL,CL
 41
0.9
  0
LINE
  5
1B88
  8
NOTE
  6
CONTINUOUS
 10
879.8719063978815
 20
686.07775178650252
 30
0.0
 11
1040.77148939788
 21
625.20405378650253
 31
0.0
  0
LINE
  5
1B89
  8
NOTE
  6
CONTINUOUS
 10
1205.83098439788
 20
895.38895978650271
 30
0.0
 11
918.87085639788165
 21
895.38895978650271
 31
0.0
  0
POINT
  5
1B8A
  8
ARRANGE
  6
CONTINUOUS
 10
989.87190639788139
 20
290.07775178650252
 30
0.0
  0
LINE
  5
1B8B
  8
DETAIL
  6
CONTINOUS
 10
771.8719063978815
 20
323.07775178650252
 30
0.0
 11
1183.871906397881
 21
323.07775178650252
 31
0.0
  0
LINE
  5
1B8C
  8
NOTE
  6
CONTINUOUS
 10
882.87190639788139
 20
724.07775178650252
 30
0.0
 11
1040.77148939788
 21
812.30385178650238
 31
0.0
  0
CIRCLE
  5
1B8D
  8
SIZE
  6
CONTINUOUS
 10
220.7875803978813
 20
290.07775178650252
 30
0.0
 40
6.0
  0
CIRCLE
  5
1B8E
  8
SIZE
  6
CONTINUOUS
 10
503.55668139788139
 20
290.07775178650252
 30
0.0
 40
6.0
  0
CIRCLE
  5
1B8F
  8
SIZE
  6
CONTINUOUS
 10
649.74425839788148
 20
290.07775178650252
 30
0.0
 40
6.0
  0
CIRCLE
  5
1B90
  8
SIZE
  6
CONTINUOUS
 10
350.83505539788138
 20
290.07775178650252
 30
0.0
 40
6.0
  0
LINE
  5
1B91
  8
OUTLINE
  6
CONTINUOUS
 10
771.8719063978815
 20
290.07775178650252
 30
0.0
 11
771.8719063978815
 21
323.07775178650252
 31
0.0
  0
CIRCLE
  5
1B92
  8
FIX
  6
CONTINUOUS
 10
799.8719063978815
 20
290.07775178650252
 30
0.0
 40
40.0
  0
LINE
  5
1B93
  8
DETAIL
  6
CONTINOUS
 10
771.8719063978815
 20
290.07775178650252
 30
0.0
 11
771.8719063978815
 21
323.07775178650252
 31
0.0
  0
LINE
  5
1B94
  8
BASIS
  6
DASHDOT
 10
989.87190639788139
 20
239.4419287865025
 30
0.0
 11
989.87190639788139
 21
1184.2961157865011
 31
0.0
  0
LINE
  5
1B95
  8
NOTE
  6
CONTINOUS
 10
799.8719063978815
 20
270.07775178650252
 30
0.0
 11
799.8719063978815
 21
310.07775178650252
 31
0.0
  0
LINE
  5
1B96
  8
NOTE
  6
CONTINUOUS
 10
0.0000023978816444
 20
-0.000002213497396
 30
0.0
 11
579.80680439788148
 21
-0.000002213497396
 31
0.0
  0
TEXT
  5
1B97
  8
NOTE
  6
CONTINUOUS
 10
14.78030739788152
 20
15.10229878650267
 30
0.0
 40
64.0
  1
AH 2-12×36
 41
0.9
  0
LINE
  5
1B98
  8
SIZE
  6
BYBLOCK
 10
715.70171039788136
 20
290.07775178650252
 30
0.0
 11
320.83505539788149
 21
290.07775178650252
 31
0.0
  0
LINE
  5
1B99
  8
SIZE
  6
BYBLOCK
 10
735.70171039788136
 20
290.07775178650252
 30
0.0
 11
473.55668139788128
 21
290.07775178650252
 31
0.0
  0
LINE
  5
1B9A
  8
SIZE
  6
BYBLOCK
 10
735.70171039788136
 20
290.07775178650252
 30
0.0
 11
190.7875803978813
 21
290.07775178650252
 31
0.0
  0
LINE
  5
1B9B
  8
NOTE
  6
CONTINUOUS
 10
579.80680439788148
 20
-0.000002213497396
 30
0.0
 11
799.8719063978815
 21
290.07775178650252
 31
0.0
  0
TEXT
  5
1B9C
  8
SIZE
  6
BYBLOCK
 10
739.24333539788142
 20
127.36127978650261
 30
0.0
 40
64.0
  1
28
 41
0.9
  0
LINE
  5
1B9D
  8
SIZE
  6
BYBLOCK
 10
735.70171039788136
 20
290.07775178650252
 30
0.0
 11
619.74425839788148
 21
290.07775178650252
 31
0.0
  0
LINE
  5
1B9E
  8
SIZE
  6
BYBLOCK
 10
799.8719073978815
 20
250.0777517865026
 30
0.0
 11
799.8719073978815
 21
65.361279786502621
 31
0.0
  0
LINE
  5
1B9F
  8
SIZE
  6
BYBLOCK
 10
799.8719073978815
 20
250.0777517865026
 30
0.0
 11
799.8719073978815
 21
65.361279786502621
 31
0.0
  0
LINE
  5
1BA0
  8
SIZE
  6
BYBLOCK
 10
771.8719073978815
 20
270.07775178650252
 30
0.0
 11
771.8719073978815
 21
65.361279786502621
 31
0.0
  0
CIRCLE
  5
1BA1
  8
SIZE
  6
CONTINUOUS
 10
799.8719073978815
 20
95.361279786502593
 30
0.0
 40
6.0
  0
CIRCLE
  5
1BA2
  8
SIZE
  6
CONTINUOUS
 10
771.8719073978815
 20
95.361279786502593
 30
0.0
 40
6.0
  0
CIRCLE
  5
1BA3
  8
SIZE
  6
CONTINUOUS
 10
799.8719073978815
 20
95.361279786502593
 30
0.0
 40
6.0
  0
LINE
  5
1BA4
  8
SIZE
  6
BYBLOCK
 10
799.8719073978815
 20
95.361279786502593
 30
0.0
 11
771.8719073978815
 21
95.361279786502593
 31
0.0
  0
LINE
  5
1BA5
  8
SIZE
  6
BYBLOCK
 10
769.8719073978815
 20
95.361279786502593
 30
0.0
 11
767.8719073978815
 21
95.361279786502593
 31
0.0
  0
LINE
  5
1BA6
  8
SIZE
  6
BYBLOCK
 10
801.8719073978815
 20
95.361279786502593
 30
0.0
 11
803.87190739788139
 21
95.361279786502593
 31
0.0
  0
LINE
  5
1BA7
  8
NOTE
  6
CONTINOUS
 10
779.8719063978815
 20
290.07775178650252
 30
0.0
 11
819.8719063978815
 21
290.07775178650252
 31
0.0
  0
LINE
  5
1BA8
  8
NOTE
  6
CONTINUOUS
 10
799.8719063978815
 20
290.07775178650252
 30
0.0
 11
784.76766639788127
 21
253.0390967865026
 31
0.0
  0
LINE
  5
1BA9
  8
NOTE
  6
CONTINUOUS
 10
799.8719063978815
 20
290.07775178650252
 30
0.0
 11
768.27192339788144
 21
265.55345678650252
 31
0.0
  0
LINE
  5
1BAA
  8
SIZE
  6
BYBLOCK
 10
771.8719073978815
 20
343.07775178650252
 30
0.0
 11
771.8719073978815
 21
1422.5027517865019
 31
0.0
  0
LINE
  5
1BAB
  8
OUTLINE
  6
CONTINUOUS
 10
824.87190639788139
 20
323.07775178650252
 30
0.0
 11
824.87190639788139
 21
1145.0777517865019
 31
0.0
  0
LINE
  5
1BAC
  8
DETAIL
  6
CONTINOUS
 10
824.87190639788139
 20
323.07775178650252
 30
0.0
 11
824.87190639788139
 21
1145.0777517865019
 31
0.0
  0
LINE
  5
1BAD
  8
DETAIL
  6
CONTINOUS
 10
804.8719063978815
 20
462.0777517865024
 30
0.0
 11
804.8719063978815
 21
1002.0777517865019
 31
0.0
  0
LINE
  5
1BAE
  8
SIZE
  6
BYBLOCK
 10
714.44271139788157
 20
732.07775178650252
 30
0.0
 11
320.83505539788149
 21
732.07775178650252
 31
0.0
  0
LINE
  5
1BAF
  8
SIZE
  6
BYBLOCK
 10
856.8719073978815
 20
724.07775178650252
 30
0.0
 11
473.55668139788128
 21
724.07775178650252
 31
0.0
  0
LINE
  5
1BB0
  8
SIZE
  6
BYBLOCK
 10
777.27455739788161
 20
810.08015378650236
 30
0.0
 11
190.4274553978814
 21
810.08015378650236
 31
0.0
  0
LINE
  5
1BB1
  8
SIZE
  6
BYBLOCK
 10
350.83505539788138
 20
292.07775178650252
 30
0.0
 11
350.83505539788138
 21
730.07775178650252
 31
0.0
  0
LINE
  5
1BB2
  8
SIZE
  6
BYBLOCK
 10
503.55668139788139
 20
292.07775178650252
 30
0.0
 11
503.55668139788139
 21
724.07775178650252
 31
0.0
  0
TEXT
  5
1BB3
  8
SIZE
  6
BYBLOCK
 10
188.7875803978813
 20
529.52060878650241
 30
0.0
 40
64.0
  1
520
 50
90.0
 41
0.9
  0
LINE
  5
1BB4
  8
SIZE
  6
BYBLOCK
 10
220.7875803978813
 20
810.08015378650236
 30
0.0
 11
220.7875803978813
 21
603.57775178650252
 31
0.0
  0
TEXT
  5
1BB5
  8
SIZE
  6
BYBLOCK
 10
318.83505539788149
 20
437.02060878650252
 30
0.0
 40
64.0
  1
442
 50
90.0
 41
0.9
  0
LINE
  5
1BB6
  8
SIZE
  6
BYBLOCK
 10
220.7875803978813
 20
292.07775178650252
 30
0.0
 11
220.7875803978813
 21
603.57775178650252
 31
0.0
  0
TEXT
  5
1BB7
  8
SIZE
  6
BYBLOCK
 10
471.55668139788139
 20
427.13489478650251
 30
0.0
 40
64.0
  1
434
 50
90.0
 41
0.9
  0
CIRCLE
  5
1BB8
  8
SIZE
  6
CONTINUOUS
 10
220.4274553978814
 20
810.08015378650236
 30
0.0
 40
6.0
  0
CIRCLE
  5
1BB9
  8
SIZE
  6
CONTINUOUS
 10
350.83505539788138
 20
732.07775178650252
 30
0.0
 40
6.0
  0
CIRCLE
  5
1BBA
  8
SIZE
  6
CONTINUOUS
 10
503.55668139788139
 20
724.07775178650252
 30
0.0
 40
6.0
  0
LINE
  5
1BBB
  8
SIZE
  6
BYBLOCK
 10
649.74425839788148
 20
292.07775178650252
 30
0.0
 11
649.74425839788148
 21
684.07775178650252
 31
0.0
  0
TEXT
  5
1BBC
  8
SIZE
  6
BYBLOCK
 10
617.74425839788125
 20
415.3920377865025
 30
0.0
 40
64.0
  1
396
 50
90.0
 41
0.9
  0
LINE
  5
1BBD
  8
DETAIL
  6
CONTINOUS
 10
824.87190639788139
 20
462.0777517865024
 30
0.0
 11
804.8719063978815
 21
462.0777517865024
 31
0.0
  0
LINE
  5
1BBE
  8
SIZE
  6
BYBLOCK
 10
836.26393739788148
 20
686.07775178650252
 30
0.0
 11
619.74425839788148
 21
686.07775178650252
 31
0.0
  0
LINE
  5
1BBF
  8
BASIS
  6
DASHDOT
 10
734.44271139788145
 20
732.07775178650252
 30
0.0
 11
884.14564339788137
 21
732.07775178650252
 31
0.0
  0
CIRCLE
  5
1BC0
  8
SIZE
  6
CONTINUOUS
 10
649.74425839788148
 20
686.07775178650252
 30
0.0
 40
6.0
  0
LINE
  5
1BC1
  8
NOTE
  6
CONTINOUS
 10
862.8719063978815
 20
724.07775178650252
 30
0.0
 11
902.8719063978815
 21
724.07775178650252
 31
0.0
  0
LINE
  5
1BC2
  8
NOTE
  6
CONTINOUS
 10
859.87190639788162
 20
686.07775178650252
 30
0.0
 11
899.87190639788139
 21
686.07775178650252
 31
0.0
  0
LINE
  5
1BC3
  8
NOTE
  6
CONTINOUS
 10
879.8719063978815
 20
666.07775178650252
 30
0.0
 11
879.8719063978815
 21
706.07775178650252
 31
0.0
  0
POLYLINE
  5
1BC4
  8
NOTE
  6
CONTINUOUS
 66
     1
 10
0.0
 20
0.0
 30
0.0
  0
VERTEX
  5
23A5
  8
NOTE
  6
CONTINUOUS
 10
919.40695039788125
 20
679.99661178650251
 30
0.0
  0
VERTEX
  5
23A6
  8
NOTE
  6
CONTINUOUS
 10
879.8719063978815
 20
686.07775178650252
 30
0.0
  0
VERTEX
  5
23A7
  8
NOTE
  6
CONTINUOUS
 10
911.06968939788146
 20
661.04380778650238
 30
0.0
  0
SEQEND
  5
23A8
  8
NOTE
  6
CONTINUOUS
  0
POLYLINE
  5
1BC9
  8
NOTE
  6
CONTINUOUS
 66
     1
 10
0.0
 20
0.0
 30
0.0
  0
VERTEX
  5
23A9
  8
NOTE
  6
CONTINUOUS
 10
911.55116939788149
 20
751.96143678650253
 30
0.0
  0
VERTEX
  5
23AA
  8
NOTE
  6
CONTINUOUS
 10
882.87190639788139
 20
724.07775178650252
 30
0.0
  0
VERTEX
  5
23AB
  8
NOTE
  6
CONTINUOUS
 10
921.65071939788174
 20
733.88609978650254
 30
0.0
  0
SEQEND
  5
23AC
  8
NOTE
  6
CONTINUOUS
  0
LINE
  5
1BCE
  8
NOTE
  6
CONTINOUS
 10
882.87190639788139
 20
704.0777517865024
 30
0.0
 11
882.87190639788139
 21
744.07775178650252
 31
0.0
  0
LINE
  5
1BCF
  8
NOTE
  6
CONTINUOUS
 10
824.51178139788146
 20
810.08015378650236
 30
0.0
 11
918.87085639788165
 21
895.38895978650271
 31
0.0
  0
LINE
  5
1BD0
  8
NOTE
  6
CONTINOUS
 10
804.51178139788135
 20
810.08015378650236
 30
0.0
 11
844.51178139788135
 21
810.08015378650236
 31
0.0
  0
POLYLINE
  5
1BD1
  8
NOTE
  6
CONTINUOUS
 66
     1
 10
0.0
 20
0.0
 30
0.0
  0
VERTEX
  5
23AD
  8
NOTE
  6
CONTINUOUS
 10
846.64476439788132
 20
843.39878378650269
 30
0.0
  0
VERTEX
  5
23AE
  8
NOTE
  6
CONTINUOUS
 10
824.51178139788146
 20
810.08015378650236
 30
0.0
  0
VERTEX
  5
23AF
  8
NOTE
  6
CONTINUOUS
 10
860.33882139788147
 20
827.86844278650256
 30
0.0
  0
SEQEND
  5
23B0
  8
NOTE
  6
CONTINUOUS
  0
LINE
  5
1BD6
  8
NOTE
  6
CONTINOUS
 10
824.51178139788146
 20
790.08015378650236
 30
0.0
 11
824.51178139788146
 21
830.08015378650225
 31
0.0
  0
LINE
  5
1BD7
  8
NOTE
  6
CONTINUOUS
 10
872.35755039788137
 20
933.93013678650243
 30
0.0
 11
872.35755039788137
 21
933.93013678650243
 31
0.0
  0
LINE
  5
1BD8
  8
SIZE
  6
BYBLOCK
 10
824.8719073978815
 20
1185.0777517865019
 30
0.0
 11
824.8719073978815
 21
1422.5027517865019
 31
0.0
  0
LINE
  5
1BD9
  8
SIZE
  6
BYBLOCK
 10
824.8719073978815
 20
1165.0777517865019
 30
0.0
 11
824.8719073978815
 21
1422.5027517865019
 31
0.0
  0
LINE
  5
1BDA
  8
SIZE
  6
BYBLOCK
 10
824.8719073978815
 20
1165.0777517865019
 30
0.0
 11
824.8719073978815
 21
1293.248751786502
 31
0.0
  0
LINE
  5
1BDB
  8
SIZE
  6
BYBLOCK
 10
804.87190739788139
 20
1022.0777517865019
 30
0.0
 11
804.87190739788139
 21
1293.248751786502
 31
0.0
  0
LINE
  5
1BDC
  8
DETAIL
  6
CONTINOUS
 10
824.87190639788139
 20
1002.0777517865019
 30
0.0
 11
804.8719063978815
 21
1002.0777517865019
 31
0.0
  0
LINE
  5
1BDD
  8
SIZE
  6
CONTINUOUS
 10
814.87190639788139
 20
1263.2491457865019
 30
0.0
 11
945.94025839788139
 21
1263.2491457865019
 31
0.0
  0
LINE
  5
1BDE
  8
SIZE
  6
BYBLOCK
 10
822.8719073978815
 20
1263.2491457865019
 30
0.0
 11
814.8719073978815
 21
1263.2491457865019
 31
0.0
  0
CIRCLE
  5
1BDF
  8
SIZE
  6
CONTINUOUS
 10
804.87190739788139
 20
1263.2491457865019
 30
0.0
 40
6.0
  0
LINE
  5
1BE0
  8
SIZE
  6
BYBLOCK
 10
806.8719073978815
 20
1263.2491457865019
 30
0.0
 11
814.8719073978815
 21
1263.2491457865019
 31
0.0
  0
CIRCLE
  5
1BE1
  8
SIZE
  6
CONTINUOUS
 10
824.8719073978815
 20
1263.2491457865019
 30
0.0
 40
6.0
  0
TEXT
  5
1BE2
  8
SIZE
  6
BYBLOCK
 10
751.74333539788142
 20
1424.5027517865019
 30
0.0
 40
64.0
  1
53
 41
0.9
  0
TEXT
  5
1BE3
  8
SIZE
  6
BYBLOCK
 10
843.21570539788115
 20
1295.248751786502
 30
0.0
 40
64.0
  1
20
 41
0.9
  0
LINE
  5
1BE4
  8
SIZE
  6
BYBLOCK
 10
824.8719073978815
 20
1392.5027517865019
 30
0.0
 11
771.8719073978815
 21
1392.5027517865019
 31
0.0
  0
CIRCLE
  5
1BE5
  8
SIZE
  6
CONTINUOUS
 10
771.8719073978815
 20
1392.5027517865019
 30
0.0
 40
6.0
  0
LINE
  5
1BE6
  8
SIZE
  6
BYBLOCK
 10
769.8719073978815
 20
1392.5027517865019
 30
0.0
 11
767.8719073978815
 21
1392.5027517865019
 31
0.0
  0
CIRCLE
  5
1BE7
  8
SIZE
  6
CONTINUOUS
 10
824.8719073978815
 20
1392.5027517865019
 30
0.0
 40
6.0
  0
CIRCLE
  5
1BE8
  8
SIZE
  6
CONTINUOUS
 10
824.8719073978815
 20
1392.5027517865019
 30
0.0
 40
6.0
  0
LINE
  5
1BE9
  8
SIZE
  6
BYBLOCK
 10
826.8719073978815
 20
1392.5027517865019
 30
0.0
 11
828.87190739788139
 21
1392.5027517865019
 31
0.0
  0
CIRCLE
  5
1BEA
  8
SIZE
  6
CONTINUOUS
 10
1420.44446039788
 20
290.07775178650252
 30
0.0
 40
6.0
  0
CIRCLE
  5
1BEB
  8
FIX
  6
CONTINUOUS
 10
1169.871906397881
 20
290.07775178650252
 30
0.0
 40
40.0
  0
LINE
  5
1BEC
  8
OUTLINE
  6
CONTINUOUS
 10
1183.871906397881
 20
323.07775178650252
 30
0.0
 11
1183.871906397881
 21
290.07775178650252
 31
0.0
  0
TEXT
  5
1BED
  8
ETC
  6
CONTINUOUS
 10
1573.1112623978811
 20
288.6366377865026
 30
0.0
 40
64.0
  1
室外機
 41
0.9
  0
LINE
  5
1BEE
  8
DETAIL
  6
CONTINOUS
 10
1183.871906397881
 20
290.07775178650252
 30
0.0
 11
1183.871906397881
 21
323.07775178650252
 31
0.0
  0
LINE
  5
1BEF
  8
NOTE
  6
CONTINOUS
 10
1169.871906397881
 20
270.07775178650252
 30
0.0
 11
1169.871906397881
 21
310.07775178650252
 31
0.0
  0
LINE
  5
1BF0
  8
NOTE
  6
CONTINUOUS
 10
1969.74381039788
 20
-0.000002213497396
 30
0.0
 11
1389.9370083978811
 21
-0.000002213497396
 31
0.0
  0
TEXT
  5
1BF1
  8
NOTE
  6
CONTINUOUS
 10
1415.1692193978811
 20
15.10229878650267
 30
0.0
 40
64.0
  1
AH 2-U cut
 41
0.9
  0
LINE
  5
1BF2
  8
NOTE
  6
CONTINUOUS
 10
1389.9370083978811
 20
-0.000002213497396
 30
0.0
 11
1169.871906397881
 21
290.07775178650252
 31
0.0
  0
LINE
  5
1BF3
  8
SIZE
  6
BYBLOCK
 10
1214.7137463978811
 20
290.07775178650252
 30
0.0
 11
1450.44446039788
 21
290.07775178650252
 31
0.0
  0
LINE
  5
1BF4
  8
SIZE
  6
BYBLOCK
 10
1183.87190739788
 20
270.07775178650252
 30
0.0
 11
1183.87190739788
 21
65.361279786502621
 31
0.0
  0
LINE
  5
1BF5
  8
SIZE
  6
BYBLOCK
 10
1169.87190739788
 20
250.0777517865026
 30
0.0
 11
1169.87190739788
 21
65.361279786502621
 31
0.0
  0
LINE
  5
1BF6
  8
SIZE
  6
BYBLOCK
 10
1169.87190739788
 20
250.0777517865026
 30
0.0
 11
1169.87190739788
 21
65.361279786502621
 31
0.0
  0
CIRCLE
  5
1BF7
  8
SIZE
  6
CONTINUOUS
 10
1169.87190739788
 20
95.361279786502593
 30
0.0
 40
6.0
  0
CIRCLE
  5
1BF8
  8
SIZE
  6
CONTINUOUS
 10
1169.87190739788
 20
95.361279786502593
 30
0.0
 40
6.0
  0
CIRCLE
  5
1BF9
  8
SIZE
  6
CONTINUOUS
 10
1183.87190739788
 20
95.361279786502593
 30
0.0
 40
6.0
  0
LINE
  5
1BFA
  8
SIZE
  6
BYBLOCK
 10
1183.87190739788
 20
95.361279786502593
 30
0.0
 11
1169.87190739788
 21
95.361279786502593
 31
0.0
  0
LINE
  5
1BFB
  8
SIZE
  6
BYBLOCK
 10
1167.87190739788
 20
95.361279786502593
 30
0.0
 11
1165.87190739788
 21
95.361279786502593
 31
0.0
  0
LINE
  5
1BFC
  8
SIZE
  6
BYBLOCK
 10
1185.87190739788
 20
95.361279786502593
 30
0.0
 11
1187.87190739788
 21
95.361279786502593
 31
0.0
  0
TEXT
  5
1BFD
  8
SIZE
  6
BYBLOCK
 10
1134.3576213978811
 20
127.36127978650261
 30
0.0
 40
64.0
  1
14
 41
0.9
  0
LINE
  5
1BFE
  8
NOTE
  6
CONTINOUS
 10
1149.871906397881
 20
290.07775178650252
 30
0.0
 11
1189.871906397881
 21
290.07775178650252
 31
0.0
  0
LINE
  5
1BFF
  8
NOTE
  6
CONTINUOUS
 10
1169.871906397881
 20
290.07775178650252
 30
0.0
 11
1184.97614639788
 21
253.0390967865026
 31
0.0
  0
LINE
  5
1C00
  8
NOTE
  6
CONTINUOUS
 10
1169.871906397881
 20
290.07775178650252
 30
0.0
 11
1201.47188939788
 21
265.55345678650252
 31
0.0
  0
TEXT
  5
1C01
  8
ETC
  6
CONTINUOUS
 10
1561.2885183978799
 20
407.8032387865025
 30
0.0
 40
64.0
  1
SPUZ0824
 41
0.9
  0
LINE
  5
1C02
  8
SIZE
  6
BYBLOCK
 10
1420.44446039788
 20
1143.0777517865019
 30
0.0
 11
1420.44446039788
 21
717.57775178650252
 31
0.0
  0
LINE
  5
1C03
  8
OUTLINE
  6
CONTINUOUS
 10
1154.8719063978799
 20
1145.0777517865019
 30
0.0
 11
1154.8719063978799
 21
323.07775178650252
 31
0.0
  0
LINE
  5
1C04
  8
DETAIL
  6
CONTINOUS
 10
1154.8719063978799
 20
323.07775178650252
 30
0.0
 11
1154.8719063978799
 21
1145.0777517865019
 31
0.0
  0
LINE
  5
1C05
  8
SIZE
  6
BYBLOCK
 10
1420.44446039788
 20
292.07775178650252
 30
0.0
 11
1420.44446039788
 21
717.57775178650252
 31
0.0
  0
LINE
  5
1C06
  8
NOTE
  6
CONTINUOUS
 10
1124.871906397881
 20
323.07775178650252
 30
0.0
 11
1231.96219639788
 21
428.57361078650251
 31
0.0
  0
LINE
  5
1C07
  8
NOTE
  6
CONTINOUS
 10
1104.871906397881
 20
323.07775178650252
 30
0.0
 11
1144.871906397881
 21
323.07775178650252
 31
0.0
  0
POLYLINE
  5
1C08
  8
NOTE
  6
CONTINUOUS
 66
     1
 10
0.0
 20
0.0
 30
0.0
  0
VERTEX
  5
23B1
  8
NOTE
  6
CONTINUOUS
 10
1145.1311663978811
 20
357.56778478650261
 30
0.0
  0
VERTEX
  5
23B2
  8
NOTE
  6
CONTINUOUS
 10
1124.871906397881
 20
323.07775178650252
 30
0.0
  0
VERTEX
  5
23B3
  8
NOTE
  6
CONTINUOUS
 10
1159.661957397881
 20
342.81736678650259
 30
0.0
  0
SEQEND
  5
23B4
  8
NOTE
  6
CONTINUOUS
  0
LINE
  5
1C0D
  8
NOTE
  6
CONTINOUS
 10
1124.871906397881
 20
303.07775178650257
 30
0.0
 11
1124.871906397881
 21
343.07775178650252
 31
0.0
  0
TEXT
  5
1C0E
  8
NOTE
  6
CONTINUOUS
 10
1251.9401213978811
 20
438.44475178650248
 30
0.0
 40
64.0
  1
D
 41
0.9
  0
LINE
  5
1C0F
  8
NOTE
  6
CONTINUOUS
 10
1231.96219639788
 20
428.57361078650251
 30
0.0
 11
1302.198482397881
 21
428.57361078650251
 31
0.0
  0
TEXT
  5
1C10
  8
NOTE
  6
CONTINUOUS
 10
1060.7086543978801
 20
635.63939678650252
 30
0.0
 40
64.0
  1
RG
 41
0.9
  0
LINE
  5
1C11
  8
NOTE
  6
CONTINUOUS
 10
1040.77148939788
 20
625.20405378650253
 30
0.0
 11
1180.455218397881
 21
625.20405378650253
 31
0.0
  0
TEXT
  5
1C12
  8
NOTE
  6
CONTINUOUS
 10
1060.92620539788
 20
822.17499278650257
 30
0.0
 40
64.0
  1
RL
 41
0.9
  0
LINE
  5
1C13
  8
NOTE
  6
CONTINUOUS
 10
1040.77148939788
 20
812.30385178650238
 30
0.0
 11
1170.35759939788
 21
812.30385178650238
 31
0.0
  0
TEXT
  5
1C14
  8
SIZE
  6
BYBLOCK
 10
1388.44446039788
 20
643.52060878650252
 30
0.0
 40
64.0
  1
855
 50
90.0
 41
0.9
  0
LINE
  5
1C15
  8
SIZE
  6
BYBLOCK
 10
1154.87190739788
 20
1165.0777517865019
 30
0.0
 11
1154.87190739788
 21
1422.5027517865019
 31
0.0
  0
LINE
  5
1C16
  8
SIZE
  6
BYBLOCK
 10
1203.87190739788
 20
1145.0777517865019
 30
0.0
 11
1450.44446039788
 21
1145.0777517865019
 31
0.0
  0
CIRCLE
  5
1C17
  8
SIZE
  6
CONTINUOUS
 10
1420.44446039788
 20
1145.0777517865019
 30
0.0
 40
6.0
  0
CIRCLE
  5
1C18
  8
SIZE
  6
CONTINUOUS
 10
1154.87190739788
 20
1392.5027517865019
 30
0.0
 40
6.0
  0
ENDBLK
  5
1C19
  8
0
  0
BLOCK
  8
0
  2
_ORIGIN
 70
     0
 10
0.0
 20
0.0
 30
0.0
  3
_ORIGIN
  1

  0
CIRCLE
  5
1C1C
  8
0
  6
BYBLOCK
 62
     0
 10
0.0
 20
0.0
 30
0.0
 40
0.5
  0
LINE
  5
1C1D
  8
0
  6
BYBLOCK
 62
     0
 10
0.0
 20
0.0
 30
0.0
 11
-1.0
 21
0.0
 31
0.0
  0
ENDBLK
  5
1C1E
  8
0
  0
BLOCK
  8
0
  2
_ORIGIN2
 70
     0
 10
0.0
 20
0.0
 30
0.0
  3
_ORIGIN2
  1

  0
CIRCLE
  5
1C21
  8
0
  6
BYBLOCK
 62
     0
 10
0.0
 20
0.0
 30
0.0
 40
0.5
  0
CIRCLE
  5
1C22
  8
0
  6
BYBLOCK
 62
     0
 10
0.0
 20
0.0
 30
0.0
 40
0.25
  0
LINE
  5
1C23
  8
0
  6
BYBLOCK
 62
     0
 10
-0.5
 20
0.0
 30
0.0
 11
-1.0
 21
0.0
 31
0.0
  0
ENDBLK
  5
1C24
  8
0
  0
BLOCK
  8
0
  2
_DOTBLANK
 70
     0
 10
0.0
 20
0.0
 30
0.0
  3
_DOTBLANK
  1

  0
CIRCLE
  5
1C27
  8
0
  6
BYBLOCK
 62
     0
 10
0.0
 20
0.0
 30
0.0
 40
0.5
  0
LINE
  5
1C28
  8
0
  6
BYBLOCK
 62
     0
 10
-0.5
 20
0.0
 30
0.0
 11
-1.0
 21
0.0
 31
0.0
  0
ENDBLK
  5
1C29
  8
0
  0
BLOCK
  8
0
  2
*D6
 70
     1
 10
0.0
 20
0.0
 30
0.0
  3
*D6
  1

  0
LINE
  5
21F7
  8
SIZE
  6
CONTINUOUS
 62
     0
 10
-474.99999999999989
 20
963.0
 30
0.0
 11
-474.99999999999989
 21
1291.561867104529
 31
0.0
  0
LINE
  5
21F8
  8
SIZE
  6
CONTINUOUS
 62
     0
 10
475.0
 20
963.0
 30
0.0
 11
475.0
 21
1291.561867104529
 31
0.0
  0
LINE
  5
21F9
  8
SIZE
  6
CONTINUOUS
 62
     0
 10
-464.99999999999989
 20
1261.561867104529
 30
0.0
 11
465.0
 21
1261.561867104529
 31
0.0
  0
TEXT
  5
21FA
  8
SIZE
  6
CONTINUOUS
 62
     0
 10
-94.615674615002646
 20
1288.296239757032
 30
0.0
 40
64.0
  1
950
 41
0.9
  0
INSERT
  5
21FB
  8
SIZE
  6
CONTINUOUS
 62
     0
  2
_DOTBLANK
 10
-474.99999999999989
 20
1261.561867104529
 30
0.0
 41
10.0
 42
10.0
 43
10.0
 50
180.0
  0
INSERT
  5
21FC
  8
SIZE
  6
CONTINUOUS
 62
     0
  2
_ORIGIN
 10
475.0
 20
1261.561867104529
 30
0.0
 41
10.0
 42
10.0
 43
10.0
  0
POINT
  5
21FD
  8
DEFPOINTS
  6
CONTINUOUS
 62
     0
 10
-474.99999999999989
 20
943.0
 30
0.0
  0
POINT
  5
21FE
  8
DEFPOINTS
  6
CONTINUOUS
 62
     0
 10
475.0
 20
943.0
 30
0.0
  0
POINT
  5
21FF
  8
DEFPOINTS
  6
CONTINUOUS
 62
     0
 10
475.0
 20
1261.561867104529
 30
0.0
  0
ENDBLK
  5
21F6
  8
0
  0
BLOCK
  8
0
  2
*D7
 70
     1
 10
0.0
 20
0.0
 30
0.0
  3
*D7
  1

  0
LINE
  5
220E
  8
SIZE
  6
CONTINUOUS
 62
     0
 10
275.0
 20
710.0
 30
0.0
 11
275.0
 21
1113.2426985211659
 31
0.0
  0
LINE
  5
220F
  8
SIZE
  6
CONTINUOUS
 62
     0
 10
475.0
 20
43.0
 30
0.0
 11
475.0
 21
1113.2426985211659
 31
0.0
  0
LINE
  5
2210
  8
SIZE
  6
CONTINUOUS
 62
     0
 10
285.0
 20
1083.2426985211659
 30
0.0
 11
465.0
 21
1083.2426985211659
 31
0.0
  0
TEXT
  5
2211
  8
SIZE
  6
CONTINUOUS
 62
     0
 10
304.9352443872877
 20
1110.1243503916689
 30
0.0
 40
64.0
  1
200
 41
0.9
  0
INSERT
  5
2212
  8
SIZE
  6
CONTINUOUS
 62
     0
  2
_DOTBLANK
 10
275.0
 20
1083.2426985211659
 30
0.0
 41
10.0
 42
10.0
 43
10.0
 50
180.0
  0
INSERT
  5
2213
  8
SIZE
  6
CONTINUOUS
 62
     0
  2
_ORIGIN
 10
475.0
 20
1083.2426985211659
 30
0.0
 41
10.0
 42
10.0
 43
10.0
  0
POINT
  5
2214
  8
DEFPOINTS
  6
CONTINUOUS
 62
     0
 10
275.0
 20
690.0
 30
0.0
  0
POINT
  5
2215
  8
DEFPOINTS
  6
CONTINUOUS
 62
     0
 10
475.0
 20
23.0
 30
0.0
  0
POINT
  5
2216
  8
DEFPOINTS
  6
CONTINUOUS
 62
     0
 10
475.0
 20
1083.2426985211659
 30
0.0
  0
ENDBLK
  5
220D
  8
0
  0
BLOCK
  8
0
  2
*D8
 70
     1
 10
0.0
 20
0.0
 30
0.0
  3
*D8
  1

  0
LINE
  5
2223
  8
SIZE
  6
CONTINUOUS
 62
     0
 10
-474.99999999999989
 20
963.0
 30
0.0
 11
-474.99999999999989
 21
1113.2426985211659
 31
0.0
  0
LINE
  5
2224
  8
SIZE
  6
CONTINUOUS
 62
     0
 10
-152.99999999984689
 20
806.79784524953902
 30
0.0
 11
-152.99999999984681
 21
1113.2426985211659
 31
0.0
  0
LINE
  5
2225
  8
SIZE
  6
CONTINUOUS
 62
     0
 10
-464.99999999999989
 20
1083.2426985211659
 30
0.0
 11
-162.99999999984681
 21
1083.2426985211659
 31
0.0
  0
TEXT
  5
2226
  8
SIZE
  6
CONTINUOUS
 62
     0
 10
-387.81131612802687
 20
1110.1243503916689
 30
0.0
 40
64.0
  1
322
 41
0.9
  0
INSERT
  5
2227
  8
SIZE
  6
CONTINUOUS
 62
     0
  2
_DOTBLANK
 10
-474.99999999999989
 20
1083.2426985211659
 30
0.0
 41
10.0
 42
10.0
 43
10.0
 50
180.0
  0
INSERT
  5
2228
  8
SIZE
  6
CONTINUOUS
 62
     0
  2
_ORIGIN
 10
-152.99999999984681
 20
1083.2426985211659
 30
0.0
 41
10.0
 42
10.0
 43
10.0
  0
POINT
  5
2229
  8
DEFPOINTS
  6
CONTINUOUS
 62
     0
 10
-474.99999999999989
 20
943.0
 30
0.0
  0
POINT
  5
222A
  8
DEFPOINTS
  6
CONTINUOUS
 62
     0
 10
-152.99999999984689
 20
786.79784524953902
 30
0.0
  0
POINT
  5
222B
  8
DEFPOINTS
  6
CONTINUOUS
 62
     0
 10
-152.99999999984681
 20
1083.2426985211659
 30
0.0
  0
ENDBLK
  5
2222
  8
0
  0
BLOCK
  8
0
  2
*D9
 70
     1
 10
0.0
 20
0.0
 30
0.0
  3
*D9
  1

  0
LINE
  5
223A
  8
SIZE
  6
CONTINUOUS
 62
     0
 10
427.0
 20
400.0
 30
0.0
 11
427.0
 21
236.03391228826371
 31
0.0
  0
LINE
  5
223B
  8
SIZE
  6
CONTINUOUS
 62
     0
 10
475.0
 20
43.0
 30
0.0
 11
475.0
 21
296.03391228826371
 31
0.0
  0
LINE
  5
223C
  8
SIZE
  6
CONTINUOUS
 62
     0
 10
417.0
 20
266.03391228826359
 30
0.0
 11
407.0
 21
266.03391228826359
 31
0.0
  0
LINE
  5
223D
  8
SIZE
  6
CONTINUOUS
 62
     0
 10
485.0
 20
266.03391228826359
 30
0.0
 11
495.0
 21
266.03391228826359
 31
0.0
  0
TEXT
  5
223E
  8
SIZE
  6
CONTINUOUS
 62
     0
 10
513.45524611590815
 20
293.98215753516342
 30
0.0
 40
64.0
  1
48
 41
0.9
  0
LINE
  5
223F
  8
SIZE
  6
CONTINUOUS
 62
     0
 10
427.0
 20
266.03391228826359
 30
0.0
 11
475.0
 21
266.03391228826359
 31
0.0
  0
INSERT
  5
2240
  8
SIZE
  6
CONTINUOUS
 62
     0
  2
_DOTBLANK
 10
427.0
 20
266.03391228826359
 30
0.0
 41
10.0
 42
10.0
 43
10.0
  0
INSERT
  5
2241
  8
SIZE
  6
CONTINUOUS
 62
     0
  2
_ORIGIN
 10
475.0
 20
266.03391228826359
 30
0.0
 41
10.0
 42
10.0
 43
10.0
 50
180.0
  0
POINT
  5
2242
  8
DEFPOINTS
  6
CONTINUOUS
 62
     0
 10
427.0
 20
420.0
 30
0.0
  0
POINT
  5
2243
  8
DEFPOINTS
  6
CONTINUOUS
 62
     0
 10
475.0
 20
23.0
 30
0.0
  0
POINT
  5
2244
  8
DEFPOINTS
  6
CONTINUOUS
 62
     0
 10
475.0
 20
266.03391228826359
 30
0.0
  0
ENDBLK
  5
2239
  8
0
  0
BLOCK
  8
0
  2
*D10
 70
     1
 10
0.0
 20
0.0
 30
0.0
  3
*D10
  1

  0
LINE
  5
2253
  8
SIZE
  6
CONTINUOUS
 62
     0
 10
367.0
 20
407.0
 30
0.0
 11
367.0
 21
124.8947144222825
 31
0.0
  0
LINE
  5
2254
  8
SIZE
  6
CONTINUOUS
 62
     0
 10
427.0
 20
400.0
 30
0.0
 11
427.0
 21
124.8947144222825
 31
0.0
  0
LINE
  5
2255
  8
SIZE
  6
CONTINUOUS
 62
     0
 10
357.0
 20
154.8947144222825
 30
0.0
 11
347.0
 21
154.8947144222825
 31
0.0
  0
LINE
  5
2256
  8
SIZE
  6
CONTINUOUS
 62
     0
 10
437.0
 20
154.8947144222825
 30
0.0
 11
447.0
 21
154.8947144222825
 31
0.0
  0
TEXT
  5
2257
  8
SIZE
  6
CONTINUOUS
 62
     0
 10
257.62767740763582
 20
164.66385055512541
 30
0.0
 40
64.0
  1
60
 41
0.9
  0
LINE
  5
2258
  8
SIZE
  6
CONTINUOUS
 62
     0
 10
367.0
 20
154.8947144222825
 30
0.0
 11
427.0
 21
154.8947144222825
 31
0.0
  0
INSERT
  5
2259
  8
SIZE
  6
CONTINUOUS
 62
     0
  2
_DOTBLANK
 10
367.0
 20
154.8947144222825
 30
0.0
 41
10.0
 42
10.0
 43
10.0
  0
INSERT
  5
225A
  8
SIZE
  6
CONTINUOUS
 62
     0
  2
_ORIGIN
 10
427.0
 20
154.8947144222825
 30
0.0
 41
10.0
 42
10.0
 43
10.0
 50
180.0
  0
POINT
  5
225B
  8
DEFPOINTS
  6
CONTINUOUS
 62
     0
 10
367.0
 20
427.0
 30
0.0
  0
POINT
  5
225C
  8
DEFPOINTS
  6
CONTINUOUS
 62
     0
 10
427.0
 20
420.0
 30
0.0
  0
POINT
  5
225D
  8
DEFPOINTS
  6
CONTINUOUS
 62
     0
 10
427.0
 20
154.8947144222825
 30
0.0
  0
ENDBLK
  5
2252
  8
0
  0
BLOCK
  8
0
  2
*D11
 70
     1
 10
0.0
 20
0.0
 30
0.0
  3
*D11
  1

  0
LINE
  5
226A
  8
SIZE
  6
CONTINUOUS
 62
     0
 10
-340.0
 20
0.0000000000000057
 30
0.0
 11
-757.23196829527217
 21
0.0000000000001239
 31
0.0
  0
LINE
  5
226B
  8
SIZE
  6
CONTINUOUS
 62
     0
 10
-486.797845249847
 20
472.99999999953889
 30
0.0
 11
-757.23196829527205
 21
472.99999999953889
 31
0.0
  0
LINE
  5
226C
  8
SIZE
  6
CONTINUOUS
 62
     0
 10
-727.23196829527205
 20
10.00000000000011
 30
0.0
 11
-727.23196829527205
 21
462.99999999953889
 31
0.0
  0
TEXT
  5
226D
  8
SIZE
  6
CONTINUOUS
 62
     0
 10
-750.6506182898629
 20
164.95781640885349
 30
0.0
 40
64.0
  1
473
 50
90.0
 41
0.9
  0
INSERT
  5
226E
  8
SIZE
  6
CONTINUOUS
 62
     0
  2
_DOTBLANK
 10
-727.23196829527205
 20
0.0000000000001154
 30
0.0
 41
10.0
 42
10.0
 43
10.0
 50
270.0
  0
INSERT
  5
226F
  8
SIZE
  6
CONTINUOUS
 62
     0
  2
_ORIGIN
 10
-727.23196829527205
 20
472.99999999953889
 30
0.0
 41
10.0
 42
10.0
 43
10.0
 50
90.0
  0
POINT
  5
2270
  8
DEFPOINTS
  6
CONTINUOUS
 62
     0
 10
-320.0
 20
0.0
 30
0.0
  0
POINT
  5
2271
  8
DEFPOINTS
  6
CONTINUOUS
 62
     0
 10
-466.797845249847
 20
472.99999999953889
 30
0.0
  0
POINT
  5
2272
  8
DEFPOINTS
  6
CONTINUOUS
 62
     0
 10
-727.23196829527205
 20
472.99999999953889
 30
0.0
  0
ENDBLK
  5
2269
  8
0
  0
BLOCK
  8
0
  2
*D12
 70
     1
 10
0.0
 20
0.0
 30
0.0
  3
*D12
  1

  0
LINE
  5
2291
  8
SIZE
  6
CONTINUOUS
 62
     0
 10
-340.0
 20
0.0000000000000057
 30
0.0
 11
-898.74271351267384
 21
0.0000000000001639
 31
0.0
  0
LINE
  5
2292
  8
SIZE
  6
CONTINUOUS
 62
     0
 10
-494.99999999999989
 20
943.0
 30
0.0
 11
-898.74271351267362
 21
943.00000000000011
 31
0.0
  0
LINE
  5
2293
  8
SIZE
  6
CONTINUOUS
 62
     0
 10
-868.74271351267373
 20
10.000000000000149
 30
0.0
 11
-868.74271351267362
 21
933.00000000000011
 31
0.0
  0
TEXT
  5
2294
  8
SIZE
  6
CONTINUOUS
 62
     0
 10
-891.49950532266575
 20
331.634741883233
 30
0.0
 40
64.0
  1
943
 50
90.0
 41
0.9
  0
INSERT
  5
2295
  8
SIZE
  6
CONTINUOUS
 62
     0
  2
_DOTBLANK
 10
-868.74271351267373
 20
0.0000000000001554
 30
0.0
 41
10.0
 42
10.0
 43
10.0
 50
270.0
  0
INSERT
  5
2296
  8
SIZE
  6
CONTINUOUS
 62
     0
  2
_ORIGIN
 10
-868.74271351267362
 20
943.00000000000011
 30
0.0
 41
10.0
 42
10.0
 43
10.0
 50
90.0
  0
POINT
  5
2297
  8
DEFPOINTS
  6
CONTINUOUS
 62
     0
 10
-320.0
 20
0.0
 30
0.0
  0
POINT
  5
2298
  8
DEFPOINTS
  6
CONTINUOUS
 62
     0
 10
-474.99999999999989
 20
943.0
 30
0.0
  0
POINT
  5
2299
  8
DEFPOINTS
  6
CONTINUOUS
 62
     0
 10
-868.74271351267362
 20
943.00000000000011
 30
0.0
  0
ENDBLK
  5
2290
  8
0
  0
BLOCK
  8
0
  2
*D13
 70
     1
 10
0.0
 20
0.0
 30
0.0
  3
*D13
  1

  0
LINE
  5
22A8
  8
SIZE
  6
CONTINUOUS
 62
     0
 10
300.0
 20
-40.0
 30
0.0
 11
300.0
 21
-436.34640411009718
 31
0.0
  0
LINE
  5
22A9
  8
SIZE
  6
CONTINUOUS
 62
     0
 10
475.0
 20
3.0
 30
0.0
 11
475.0
 21
-436.34640411009718
 31
0.0
  0
LINE
  5
22AA
  8
SIZE
  6
CONTINUOUS
 62
     0
 10
310.0
 20
-406.3464041100973
 30
0.0
 11
465.0
 21
-406.3464041100973
 31
0.0
  0
TEXT
  5
22AB
  8
SIZE
  6
CONTINUOUS
 62
     0
 10
318.68605592959182
 20
-382.10176750036402
 30
0.0
 40
64.0
  1
175
 41
0.9
  0
INSERT
  5
22AC
  8
SIZE
  6
CONTINUOUS
 62
     0
  2
_DOTBLANK
 10
300.0
 20
-406.3464041100973
 30
0.0
 41
10.0
 42
10.0
 43
10.0
 50
180.0
  0
INSERT
  5
22AD
  8
SIZE
  6
CONTINUOUS
 62
     0
  2
_ORIGIN
 10
475.0
 20
-406.3464041100973
 30
0.0
 41
10.0
 42
10.0
 43
10.0
  0
POINT
  5
22AE
  8
DEFPOINTS
  6
CONTINUOUS
 62
     0
 10
300.0
 20
-20.0
 30
0.0
  0
POINT
  5
22AF
  8
DEFPOINTS
  6
CONTINUOUS
 62
     0
 10
475.0
 20
23.0
 30
0.0
  0
POINT
  5
22B0
  8
DEFPOINTS
  6
CONTINUOUS
 62
     0
 10
475.0
 20
-406.3464041100973
 30
0.0
  0
ENDBLK
  5
22A7
  8
0
  0
BLOCK
  8
0
  2
*D14
 70
     1
 10
0.0
 20
0.0
 30
0.0
  3
*D14
  1

  0
LINE
  5
22BD
  8
SIZE
  6
CONTINUOUS
 62
     0
 10
-300.0
 20
-40.0
 30
0.0
 11
-300.0
 21
-436.34640411009718
 31
0.0
  0
LINE
  5
22BE
  8
SIZE
  6
CONTINUOUS
 62
     0
 10
300.0
 20
-40.0
 30
0.0
 11
300.0
 21
-436.34640411009718
 31
0.0
  0
LINE
  5
22BF
  8
SIZE
  6
CONTINUOUS
 62
     0
 10
-290.0
 20
-406.3464041100973
 30
0.0
 11
290.0
 21
-406.3464041100973
 31
0.0
  0
TEXT
  5
22C0
  8
SIZE
  6
CONTINUOUS
 62
     0
 10
-77.727180373488324
 20
-382.10176750036402
 30
0.0
 40
64.0
  1
600
 41
0.9
  0
INSERT
  5
22C1
  8
SIZE
  6
CONTINUOUS
 62
     0
  2
_DOTBLANK
 10
-300.0
 20
-406.3464041100973
 30
0.0
 41
10.0
 42
10.0
 43
10.0
 50
180.0
  0
INSERT
  5
22C2
  8
SIZE
  6
CONTINUOUS
 62
     0
  2
_ORIGIN
 10
300.0
 20
-406.3464041100973
 30
0.0
 41
10.0
 42
10.0
 43
10.0
  0
POINT
  5
22C3
  8
DEFPOINTS
  6
CONTINUOUS
 62
     0
 10
-300.0
 20
-20.0
 30
0.0
  0
POINT
  5
22C4
  8
DEFPOINTS
  6
CONTINUOUS
 62
     0
 10
300.0
 20
-20.0
 30
0.0
  0
POINT
  5
22C5
  8
DEFPOINTS
  6
CONTINUOUS
 62
     0
 10
300.0
 20
-406.3464041100973
 30
0.0
  0
ENDBLK
  5
22BC
  8
0
  0
BLOCK
  8
0
  2
*D15
 70
     1
 10
0.0
 20
0.0
 30
0.0
  3
*D15
  1

  0
LINE
  5
22D4
  8
SIZE
  6
CONTINUOUS
 62
     0
 10
-494.99999999999989
 20
23.0
 30
0.0
 11
-617.48247724767032
 21
23.000000000000028
 31
0.0
  0
LINE
  5
22D5
  8
SIZE
  6
CONTINUOUS
 62
     0
 10
-340.0
 20
0.0000000000000057
 30
0.0
 11
-617.48247724767032
 21
0.0000000000000843
 31
0.0
  0
LINE
  5
22D6
  8
SIZE
  6
CONTINUOUS
 62
     0
 10
-587.48247724767032
 20
33.000000000000021
 30
0.0
 11
-587.48247724767032
 21
43.000000000000028
 31
0.0
  0
LINE
  5
22D7
  8
SIZE
  6
CONTINUOUS
 62
     0
 10
-587.48247724767032
 20
-9.9999999999999254
 30
0.0
 11
-587.48247724767032
 21
-19.999999999999918
 31
0.0
  0
TEXT
  5
22D8
  8
SIZE
  6
CONTINUOUS
 62
     0
 10
-621.29959870447965
 20
-129.4725048808923
 30
0.0
 40
64.0
  1
23
 50
90.0
 41
0.9
  0
LINE
  5
22D9
  8
SIZE
  6
CONTINUOUS
 62
     0
 10
-587.48247724767032
 20
23.000000000000028
 30
0.0
 11
-587.48247724767032
 21
0.0000000000000758
 31
0.0
  0
INSERT
  5
22DA
  8
SIZE
  6
CONTINUOUS
 62
     0
  2
_DOTBLANK
 10
-587.48247724767032
 20
23.000000000000028
 30
0.0
 41
10.0
 42
10.0
 43
10.0
 50
270.0
  0
INSERT
  5
22DB
  8
SIZE
  6
CONTINUOUS
 62
     0
  2
_ORIGIN
 10
-587.48247724767032
 20
0.0000000000000758
 30
0.0
 41
10.0
 42
10.0
 43
10.0
 50
90.0
  0
POINT
  5
22DC
  8
DEFPOINTS
  6
CONTINUOUS
 62
     0
 10
-474.99999999999989
 20
23.0
 30
0.0
  0
POINT
  5
22DD
  8
DEFPOINTS
  6
CONTINUOUS
 62
     0
 10
-320.0
 20
0.0
 30
0.0
  0
POINT
  5
22DE
  8
DEFPOINTS
  6
CONTINUOUS
 62
     0
 10
-587.48247724767032
 20
0.0000000000000758
 30
0.0
  0
ENDBLK
  5
22D3
  8
0
  0
BLOCK
  8
0
  2
*D16
 70
     1
 10
0.0
 20
0.0
 30
0.0
  3
*D16
  1

  0
LINE
  5
22ED
  8
SIZE
  6
CONTINUOUS
 62
     0
 10
-300.0
 20
-40.0
 30
0.0
 11
-300.0
 21
-436.34640411009718
 31
0.0
  0
LINE
  5
22EE
  8
SIZE
  6
CONTINUOUS
 62
     0
 10
-474.99999999999989
 20
3.0
 30
0.0
 11
-474.99999999999989
 21
-436.34640411009718
 31
0.0
  0
LINE
  5
22EF
  8
SIZE
  6
CONTINUOUS
 62
     0
 10
-310.0
 20
-406.3464041100973
 30
0.0
 11
-464.99999999999989
 21
-406.3464041100973
 31
0.0
  0
TEXT
  5
22F0
  8
SIZE
  6
CONTINUOUS
 62
     0
 10
-457.42005438143048
 20
-379.2280236973474
 30
0.0
 40
64.0
  1
175
 41
0.9
  0
INSERT
  5
22F1
  8
SIZE
  6
CONTINUOUS
 62
     0
  2
_DOTBLANK
 10
-300.0
 20
-406.3464041100973
 30
0.0
 41
10.0
 42
10.0
 43
10.0
  0
INSERT
  5
22F2
  8
SIZE
  6
CONTINUOUS
 62
     0
  2
_ORIGIN
 10
-474.99999999999989
 20
-406.3464041100973
 30
0.0
 41
10.0
 42
10.0
 43
10.0
 50
180.0
  0
POINT
  5
22F3
  8
DEFPOINTS
  6
CONTINUOUS
 62
     0
 10
-300.0
 20
-20.0
 30
0.0
  0
POINT
  5
22F4
  8
DEFPOINTS
  6
CONTINUOUS
 62
     0
 10
-474.99999999999989
 20
23.0
 30
0.0
  0
POINT
  5
22F5
  8
DEFPOINTS
  6
CONTINUOUS
 62
     0
 10
-474.99999999999989
 20
-406.3464041100973
 30
0.0
  0
ENDBLK
  5
22EC
  8
0
  0
BLOCK
  8
0
  2
*D17
 70
     1
 10
0.0
 20
0.0
 30
0.0
  3
*D17
  1

  0
LINE
  5
2302
  8
SIZE
  6
CONTINUOUS
 62
     0
 10
475.0
 20
3.0
 30
0.0
 11
474.99999999999989
 21
-573.01396200505167
 31
0.0
  0
LINE
  5
2303
  8
SIZE
  6
CONTINUOUS
 62
     0
 10
-474.99999999999989
 20
3.0
 30
0.0
 11
-475.0
 21
-573.01396200505167
 31
0.0
  0
LINE
  5
2304
  8
SIZE
  6
CONTINUOUS
 62
     0
 10
464.99999999999989
 20
-543.01396200505178
 30
0.0
 11
-465.0
 21
-543.01396200505178
 31
0.0
  0
TEXT
  5
2305
  8
SIZE
  6
CONTINUOUS
 62
     0
 10
-77.727180373488338
 20
-520.04129456836927
 30
0.0
 40
64.0
  1
950
 41
0.9
  0
INSERT
  5
2306
  8
SIZE
  6
CONTINUOUS
 62
     0
  2
_DOTBLANK
 10
474.99999999999989
 20
-543.01396200505178
 30
0.0
 41
10.0
 42
10.0
 43
10.0
  0
INSERT
  5
2307
  8
SIZE
  6
CONTINUOUS
 62
     0
  2
_ORIGIN
 10
-475.0
 20
-543.01396200505178
 30
0.0
 41
10.0
 42
10.0
 43
10.0
 50
180.0
  0
POINT
  5
2308
  8
DEFPOINTS
  6
CONTINUOUS
 62
     0
 10
475.0
 20
23.0
 30
0.0
  0
POINT
  5
2309
  8
DEFPOINTS
  6
CONTINUOUS
 62
     0
 10
-474.99999999999989
 20
23.0
 30
0.0
  0
POINT
  5
230A
  8
DEFPOINTS
  6
CONTINUOUS
 62
     0
 10
-475.0
 20
-543.01396200505178
 30
0.0
  0
ENDBLK
  5
2301
  8
0
  0
BLOCK
  8
0
  2
*D18
 70
     1
 10
0.0
 20
0.0
 30
0.0
  3
*D18
  1

  0
LINE
  5
23C5
  8
SIZE
  6
CONTINUOUS
 62
     0
 10
315.0
 20
673.0
 30
0.0
 11
1060.2945009796149
 21
672.99999999999977
 31
0.0
  0
LINE
  5
23C6
  8
SIZE
  6
CONTINUOUS
 62
     0
 10
340.0
 20
-0.0000000000000057
 30
0.0
 11
1060.294500979614
 21
-0.0000000000002097
 31
0.0
  0
LINE
  5
23C7
  8
SIZE
  6
CONTINUOUS
 62
     0
 10
1030.2945009796149
 20
662.99999999999989
 30
0.0
 11
1030.294500979614
 21
9.9999999999997993
 31
0.0
  0
INSERT
  5
23C8
  8
SIZE
  6
CONTINUOUS
 62
     0
  2
_DOTBLANK
 10
1030.2945009796149
 20
672.99999999999977
 30
0.0
 41
10.0
 42
10.0
 43
10.0
 50
90.0
  0
INSERT
  5
23C9
  8
SIZE
  6
CONTINUOUS
 62
     0
  2
_ORIGIN
 10
1030.294500979614
 20
-0.0000000000002012
 30
0.0
 41
10.0
 42
10.0
 43
10.0
 50
270.0
  0
TEXT
  8
0
  40
64
  5
23E0
  62
0
  72
0
  71
0
 10
850.295
 20
217.392
 30
0.000000
  1
673
  0
POINT
  5
23CB
  8
DEFPOINTS
  6
CONTINUOUS
 62
     0
 10
295.0
 20
673.0
 30
0.0
  0
POINT
  5
23CC
  8
DEFPOINTS
  6
CONTINUOUS
 62
     0
 10
320.0
 20
0.0
 30
0.0
  0
POINT
  5
23CD
  8
DEFPOINTS
  6
CONTINUOUS
 62
     0
 10
1030.294500979614
 20
-0.0000000000002012
 30
0.0
  0
ENDBLK
  5
2345
  8
0
  0
BLOCK
  8
0
  2
*D19
 70
     1
 10
0.0
 20
0.0
 30
0.0
  3
*D19
  1

  0
LINE
  5
23CE
  8
SIZE
  6
CONTINUOUS
 62
     0
 10
407.0
 20
446.0
 30
0.0
 11
876.59715232796418
 21
445.99999999999989
 31
0.0
  0
LINE
  5
23CF
  8
SIZE
  6
CONTINUOUS
 62
     0
 10
340.0
 20
-0.0000000000000057
 30
0.0
 11
876.59715232796395
 21
-0.0000000000001577
 31
0.0
  0
LINE
  5
23D0
  8
SIZE
  6
CONTINUOUS
 62
     0
 10
846.59715232796407
 20
435.99999999999989
 30
0.0
 11
846.59715232796407
 21
9.9999999999998508
 31
0.0
  0
INSERT
  5
23D1
  8
SIZE
  6
CONTINUOUS
 62
     0
  2
_DOTBLANK
 10
846.59715232796407
 20
445.99999999999989
 30
0.0
 41
10.0
 42
10.0
 43
10.0
 50
90.0
  0
INSERT
  5
23D2
  8
SIZE
  6
CONTINUOUS
 62
     0
  2
_ORIGIN
 10
846.59715232796407
 20
-0.0000000000001492
 30
0.0
 41
10.0
 42
10.0
 43
10.0
 50
270.0
  0
TEXT
  8
0
  40
64
  5
23E1
  62
0
  72
0
  71
0
 10
666.597
 20
92.9837
 30
0.000000
  1
446
  0
POINT
  5
23D4
  8
DEFPOINTS
  6
CONTINUOUS
 62
     0
 10
387.0
 20
446.0
 30
0.0
  0
POINT
  5
23D5
  8
DEFPOINTS
  6
CONTINUOUS
 62
     0
 10
320.0
 20
0.0
 30
0.0
  0
POINT
  5
23D6
  8
DEFPOINTS
  6
CONTINUOUS
 62
     0
 10
846.59715232796407
 20
-0.0000000000001492
 30
0.0
  0
ENDBLK
  5
2352
  8
0
  0
BLOCK
  8
0
  2
*D20
 70
     1
 10
0.0
 20
0.0
 30
0.0
  3
*D20
  1

  0
LINE
  5
23D7
  8
SIZE
  6
CONTINUOUS
 62
     0
 10
466.99999999999989
 20
418.00000000000011
 30
0.0
 11
724.50365052730388
 21
418.0
 31
0.0
  0
LINE
  5
23D8
  8
SIZE
  6
CONTINUOUS
 62
     0
 10
340.0
 20
-0.0000000000000057
 30
0.0
 11
724.50365052730365
 21
-0.0000000000001146
 31
0.0
  0
LINE
  5
23D9
  8
SIZE
  6
CONTINUOUS
 62
     0
 10
694.50365052730376
 20
408.0
 30
0.0
 11
694.50365052730365
 21
9.9999999999998934
 31
0.0
  0
INSERT
  5
23DA
  8
SIZE
  6
CONTINUOUS
 62
     0
  2
_DOTBLANK
 10
694.50365052730376
 20
418.0
 30
0.0
 41
10.0
 42
10.0
 43
10.0
 50
90.0
  0
INSERT
  5
23DB
  8
SIZE
  6
CONTINUOUS
 62
     0
  2
_ORIGIN
 10
694.50365052730365
 20
-0.0000000000001061
 30
0.0
 41
10.0
 42
10.0
 43
10.0
 50
270.0
  0
TEXT
  8
0
  40
64
  5
23E2
  62
0
  72
0
  71
0
 10
514.504
 20
87.0595
 30
0.000000
  1
418
  0
POINT
  5
23DD
  8
DEFPOINTS
  6
CONTINUOUS
 62
     0
 10
446.99999999999989
 20
418.00000000000011
 30
0.0
  0
POINT
  5
23DE
  8
DEFPOINTS
  6
CONTINUOUS
 62
     0
 10
320.0
 20
0.0
 30
0.0
  0
POINT
  5
23DF
  8
DEFPOINTS
  6
CONTINUOUS
 62
     0
 10
694.50365052730365
 20
-0.0000000000001061
 30
0.0
  0
ENDBLK
  5
235F
  8
0
  0
ENDSEC
  0
SECTION
  2
ENTITIES
  0
TEXT
  5
202A
  8
NOTE
  6
CONTINUOUS
 10
-1088.8291740332361
 20
-259.13038127694142
 30
0.0
 40
64.0
  1
AH 2-12×36
 41
0.9
  0
LINE
  5
202B
  8
NOTE
  6
CONTINUOUS
 10
-1103.6094790332349
 20
-274.23268227694132
 30
0.0
 11
-530.5400718084968
 21
-274.23268227694132
 31
0.0
  0
CIRCLE
  5
202C
  8
ARRANGE
  6
CONTINUOUS
 10
0.0
 20
0.0
 30
0.0
 40
40.0
  0
LINE
  5
202D
  8
BASIS
  6
DASHDOT
 10
-466.797845249847
 20
472.99999999953889
 30
0.0
 11
160.79784525015299
 21
472.99999999953889
 31
0.0
  0
POINT
  5
202E
  8
ARRANGE
  6
CONTINUOUS
 10
0.0
 20
0.0
 30
0.0
  0
CIRCLE
  5
202F
  8
FIX
  6
CONTINUOUS
 10
-300.0
 20
0.0
 30
0.0
 40
40.0
  0
LINE
  5
2030
  8
DETAIL
  6
CONTINOUS
 10
-316.0
 20
22.999999999999542
 30
0.0
 11
-316.0
 21
0.0
 31
0.0
  0
LINE
  5
2031
  8
DETAIL
  6
CONTINOUS
 10
-284.0
 20
22.999999999999542
 30
0.0
 11
-284.0
 21
0.0
 31
0.0
  0
LINE
  5
2032
  8
BASIS
  6
DASHDOT
 10
0.0
 20
985.82556143500028
 30
0.0
 11
0.0
 21
-80.029089744999965
 31
0.0
  0
LINE
  5
2033
  8
NOTE
  6
CONTINOUS
 10
-300.0
 20
20.0
 30
0.0
 11
-300.0
 21
-20.0
 31
0.0
  0
LINE
  5
2034
  8
NOTE
  6
CONTINOUS
 10
-320.0
 20
0.0
 30
0.0
 11
-280.0
 21
0.0
 31
0.0
  0
LINE
  5
2035
  8
DETAIL
  6
CONTINOUS
 10
-316.0
 20
0.0
 30
0.0
 11
-284.0
 21
0.0
 31
0.0
  0
LINE
  5
2036
  8
DETAIL
  6
CONTINOUS
 10
-474.99999999999989
 20
23.0
 30
0.0
 11
-474.99999999999989
 21
943.0
 31
0.0
  0
CIRCLE
  5
2037
  8
FIX
  6
CONTINUOUS
 10
300.0
 20
0.0
 30
0.0
 40
40.0
  0
LINE
  5
2038
  8
DETAIL
  6
CONTINOUS
 10
284.0
 20
22.999999999999542
 30
0.0
 11
284.0
 21
0.0
 31
0.0
  0
LINE
  5
2039
  8
DETAIL
  6
CONTINOUS
 10
316.0
 20
22.999999999999542
 30
0.0
 11
316.0
 21
0.0
 31
0.0
  0
LINE
  5
203A
  8
NOTE
  6
CONTINOUS
 10
300.0
 20
20.0
 30
0.0
 11
300.0
 21
-20.0
 31
0.0
  0
TEXT
  5
203B
  8
ETC
  6
CONTINUOUS
 10
1198.457716830522
 20
1271.3102883641459
 30
0.0
 40
64.0
  1
SMPU2932
 41
0.9
  0
LINE
  5
203C
  8
NOTE
  6
CONTINOUS
 10
280.0
 20
0.0
 30
0.0
 11
320.0
 21
0.0
 31
0.0
  0
LINE
  5
203D
  8
DETAIL
  6
CONTINOUS
 10
284.0
 20
0.0
 30
0.0
 11
316.0
 21
0.0
 31
0.0
  0
TEXT
  5
203E
  8
ETC
  6
CONTINUOUS
 10
1210.280460830523
 20
1152.143687364146
 30
0.0
 40
64.0
  1
室外機
 41
0.9
  0
LINE
  5
203F
  8
DETAIL
  6
CONTINOUS
 10
475.0
 20
23.0
 30
0.0
 11
475.0
 21
943.0
 31
0.0
  0
POLYLINE
  5
2040
  8
NOTE
  6
CONTINUOUS
 66
     1
 10
0.0
 20
0.0
 30
0.0
  0
VERTEX
  5
23B5
  8
NOTE
  6
CONTINUOUS
 10
-317.21532719432111
 20
-36.105851700936903
 30
0.0
  0
VERTEX
  5
23B6
  8
NOTE
  6
CONTINUOUS
 10
-300.0
 20
0.0
 30
0.0
  0
VERTEX
  5
23B7
  8
NOTE
  6
CONTINUOUS
 10
-332.96183612112861
 20
-22.660921497029889
 30
0.0
  0
SEQEND
  5
23B8
  8
NOTE
  6
CONTINUOUS
  0
LINE
  5
2045
  8
NOTE
  6
CONTINUOUS
 10
-300.0
 20
0.0
 30
0.0
 11
-530.5400718084968
 21
-274.23268227694132
 31
0.0
  0
ARC
  5
2046
  8
DETAIL
 10
-153.61937628180149
 20
473.26828366777681
 30
1.0049964175586230E+099
 40
278.11950567951948
 50
324.25620727272252
 51
35.03548794368136
  0
ARC
  5
2047
  8
DETAIL
 10
228.79236219197691
 20
175.15382299351339
 30
1.0049964175586230E+099
 40
207.24088905766081
 50
139.11513446632151
 51
177.55355879231041
  0
ARC
  5
2048
  8
DETAIL
 10
228.79236219785321
 20
770.84617699756575
 30
1.0049964175586230E+099
 40
207.24088905766081
 50
182.44644120522111
 51
221.71892069730279
  0
ARC
  5
2049
  8
DETAIL
 10
-152.3806237154941
 20
473.26828366777062
 30
1.0049964175586230E+099
 40
278.11950567951948
 50
144.96451205575141
 51
215.74379272671311
  0
ARC
  5
204A
  8
DETAIL
 10
-534.79236219221355
 20
770.84617700133208
 30
1.0049964175586230E+099
 40
207.24088905766081
 50
318.28107930213451
 51
357.38201467665027
  0
ARC
  5
204B
  8
DETAIL
 10
-534.79236219221355
 20
175.1538229972798
 30
1.0049964175586230E+099
 40
207.24088905766081
 50
2.617985323349592
 51
40.884865533106122
  0
LINE
  5
204C
  8
DETAIL
 10
136.00000000015311
 20
752.50144689601404
 30
0.0
 11
136.00000000015311
 21
193.4985531035295
 31
0.0
  0
LINE
  5
204D
  8
DETAIL
 10
-441.99999999984732
 20
193.49855310259679
 30
0.0
 11
-441.99999999984732
 21
752.5014468960145
 31
0.0
  0
LINE
  5
204E
  8
DETAIL
 10
126.50144689616739
 20
183.9999999999994
 30
0.0
 11
-432.50144689631691
 21
183.9999999999994
 31
0.0
  0
ARC
  5
204F
  8
DETAIL
 10
-432.4999999998472
 20
193.4999999999994
 30
0.0
 40
9.5000001101846365
 50
180.0087264246668
 51
269.99127357533303
  0
ARC
  5
2050
  8
DETAIL
 10
126.50000000015299
 20
193.4999999999994
 30
0.0
 40
9.5000001101846365
 50
270.0087264246668
 51
359.99127357533303
  0
LINE
  5
2051
  8
DETAIL
 10
-432.50144689061523
 20
762.00000000000102
 30
0.0
 11
126.50144689616739
 21
762.0
 31
0.0
  0
ARC
  5
2052
  8
DETAIL
 10
-432.49999999984681
 20
752.5
 30
0.0
 40
9.5000001101848621
 50
90.008726424666946
 51
179.991273575333
  0
ARC
  5
2053
  8
DETAIL
 10
126.50144689616739
 20
752.50144689601404
 30
0.0
 40
9.4985531039857793
 50
0.0
 51
90.0
  0
LINE
  5
2054
  8
BASIS
  6
DASHDOT
 10
-152.99999999984689
 20
786.79784524953902
 30
0.0
 11
-152.99999999984689
 21
159.20215474953861
 31
0.0
  0
LINE
  5
2055
  8
DETAIL
 10
-157.99999999984681
 20
762.00000000000034
 30
0.0
 11
-157.99999999984681
 21
183.9999999999994
 31
0.0
  0
LINE
  5
2056
  8
DETAIL
 10
-147.99999999984689
 20
762.00000000000034
 30
0.0
 11
-147.99999999984689
 21
183.9999999999994
 31
0.0
  0
LINE
  5
2057
  8
DETAIL
 10
-137.99999999984681
 20
762.00000000000034
 30
0.0
 11
-137.99999999984681
 21
183.9999999999994
 31
0.0
  0
LINE
  5
2058
  8
DETAIL
 10
-127.99999999984691
 20
762.00000000000034
 30
0.0
 11
-127.99999999984691
 21
183.9999999999994
 31
0.0
  0
LINE
  5
2059
  8
DETAIL
 10
-117.99999999984691
 20
762.00000000000034
 30
0.0
 11
-117.99999999984691
 21
183.9999999999994
 31
0.0
  0
LINE
  5
205A
  8
DETAIL
 10
-107.99999999984691
 20
762.00000000000034
 30
0.0
 11
-107.99999999984691
 21
183.9999999999994
 31
0.0
  0
LINE
  5
205B
  8
DETAIL
 10
-97.999999999846992
 20
762.00000000000034
 30
0.0
 11
-97.999999999846992
 21
183.9999999999994
 31
0.0
  0
LINE
  5
205C
  8
DETAIL
 10
-87.999999999846949
 20
762.00000000000034
 30
0.0
 11
-87.999999999846949
 21
183.9999999999994
 31
0.0
  0
LINE
  5
205D
  8
DETAIL
 10
-77.999999999846978
 20
762.00000000000034
 30
0.0
 11
-77.999999999846978
 21
183.9999999999994
 31
0.0
  0
LINE
  5
205E
  8
DETAIL
 10
-67.999999999846978
 20
762.00000000000034
 30
0.0
 11
-67.999999999846978
 21
183.9999999999994
 31
0.0
  0
LINE
  5
205F
  8
DETAIL
 10
-57.99999999984697
 20
762.00000000000034
 30
0.0
 11
-57.99999999984697
 21
183.9999999999994
 31
0.0
  0
LINE
  5
2060
  8
DETAIL
 10
-47.99999999984697
 20
762.00000000000034
 30
0.0
 11
-47.99999999984697
 21
183.9999999999994
 31
0.0
  0
LINE
  5
2061
  8
DETAIL
 10
-37.99999999984697
 20
762.00000000000034
 30
0.0
 11
-37.99999999984697
 21
183.9999999999994
 31
0.0
  0
LINE
  5
2062
  8
DETAIL
 10
-27.99999999984697
 20
762.00000000000034
 30
0.0
 11
-27.99999999984697
 21
183.9999999999994
 31
0.0
  0
LINE
  5
2063
  8
DETAIL
 10
-17.99999999984697
 20
762.00000000000034
 30
0.0
 11
-17.99999999984697
 21
183.9999999999994
 31
0.0
  0
LINE
  5
2064
  8
DETAIL
 10
-7.9999999998469749
 20
762.00000000000034
 30
0.0
 11
-7.9999999998469749
 21
183.9999999999994
 31
0.0
  0
LINE
  5
2065
  8
DETAIL
 10
2.000000000153022
 20
762.00000000000034
 30
0.0
 11
2.000000000153022
 21
183.9999999999994
 31
0.0
  0
LINE
  5
2066
  8
DETAIL
 10
12.00000000015301
 20
762.00000000000034
 30
0.0
 11
12.00000000015301
 21
183.9999999999994
 31
0.0
  0
LINE
  5
2067
  8
DETAIL
 10
22.000000000152991
 20
757.21881356567519
 30
0.0
 11
22.000000000153008
 21
188.78118651457481
 31
0.0
  0
LINE
  5
2068
  8
DETAIL
 10
32.000000000153022
 20
705.87270334824632
 30
0.0
 11
32.000000000153022
 21
240.1272966606312
 31
0.0
  0
LINE
  5
2069
  8
DETAIL
 10
42.000000000153022
 20
681.08315832053563
 30
0.0
 11
42.000000000153037
 21
264.91684168277158
 31
0.0
  0
LINE
  5
206A
  8
DETAIL
 10
52.00000000015303
 20
662.71086007489328
 30
0.0
 11
52.000000000153037
 21
283.28913992579351
 31
0.0
  0
LINE
  5
206B
  8
DETAIL
 10
62.00000000015303
 20
647.84579484400956
 30
0.0
 11
62.000000000153037
 21
298.15420515503803
 31
0.0
  0
LINE
  5
206C
  8
DETAIL
 10
72.000000000153022
 20
635.32886720330066
 30
0.0
 11
72.000000000153022
 21
310.6711327945776
 31
0.0
  0
LINE
  5
206D
  8
DETAIL
 10
82.000000000153022
 20
621.03150290694634
 30
0.0
 11
82.000000000153022
 21
325.50506442860672
 31
0.0
  0
LINE
  5
206E
  8
DETAIL
 10
92.000000000152994
 20
603.73506654481389
 30
0.0
 11
92.000000000152994
 21
342.80150079073991
 31
0.0
  0
LINE
  5
206F
  8
DETAIL
 10
102.00000000015299
 20
582.85475139369987
 30
0.0
 11
102.00000000015299
 21
363.68181594185359
 31
0.0
  0
LINE
  5
2070
  8
DETAIL
 10
112.00000000015299
 20
555.71102975865915
 30
0.0
 11
112.00000000015299
 21
390.82553757689431
 31
0.0
  0
LINE
  5
2071
  8
DETAIL
 10
122.00000000015299
 20
510.47606319527108
 30
0.0
 11
122.00000000015299
 21
436.06050414028272
 31
0.0
  0
LINE
  5
2072
  8
DETAIL
 10
-427.99999999984692
 20
510.47606319527108
 30
0.0
 11
-427.99999999984692
 21
436.06050414028272
 31
0.0
  0
LINE
  5
2073
  8
DETAIL
 10
-327.99999999984681
 20
757.21881356567519
 30
0.0
 11
-327.99999999984681
 21
188.78118651457481
 31
0.0
  0
LINE
  5
2074
  8
DETAIL
 10
-417.99999999984698
 20
555.71102975865915
 30
0.0
 11
-417.99999999984698
 21
390.82553757689431
 31
0.0
  0
LINE
  5
2075
  8
DETAIL
 10
-407.99999999984681
 20
582.85475139369987
 30
0.0
 11
-407.99999999984681
 21
363.68181594185359
 31
0.0
  0
LINE
  5
2076
  8
DETAIL
 10
-397.99999999984681
 20
603.73506654481389
 30
0.0
 11
-397.99999999984681
 21
342.80150079073991
 31
0.0
  0
LINE
  5
2077
  8
DETAIL
 10
-387.99999999984681
 20
621.03150290694634
 30
0.0
 11
-387.99999999984681
 21
325.50506442860672
 31
0.0
  0
LINE
  5
2078
  8
DETAIL
 10
-377.99999999984681
 20
635.32886720330066
 30
0.0
 11
-377.99999999984681
 21
310.6711327945776
 31
0.0
  0
LINE
  5
2079
  8
DETAIL
 10
-367.99999999984681
 20
647.84579484400956
 30
0.0
 11
-367.99999999984681
 21
298.15420515503803
 31
0.0
  0
LINE
  5
207A
  8
DETAIL
 10
-357.99999999984681
 20
662.71086007489328
 30
0.0
 11
-357.99999999984681
 21
283.28913992579351
 31
0.0
  0
LINE
  5
207B
  8
DETAIL
 10
-347.99999999984681
 20
681.08315832053563
 30
0.0
 11
-347.99999999984681
 21
264.91684168277158
 31
0.0
  0
LINE
  5
207C
  8
DETAIL
 10
-337.99999999984698
 20
705.87270334824632
 30
0.0
 11
-337.99999999984698
 21
240.1272966606312
 31
0.0
  0
LINE
  5
207D
  8
DETAIL
 10
-317.99999999984681
 20
762.00000000000034
 30
0.0
 11
-317.99999999984681
 21
183.9999999999994
 31
0.0
  0
LINE
  5
207E
  8
DETAIL
 10
-307.99999999984681
 20
762.00000000000034
 30
0.0
 11
-307.99999999984681
 21
183.9999999999994
 31
0.0
  0
LINE
  5
207F
  8
DETAIL
 10
-237.99999999984701
 20
762.00000000000034
 30
0.0
 11
-237.99999999984701
 21
183.9999999999994
 31
0.0
  0
LINE
  5
2080
  8
DETAIL
 10
-227.99999999984689
 20
762.00000000000034
 30
0.0
 11
-227.99999999984689
 21
183.9999999999994
 31
0.0
  0
LINE
  5
2081
  8
DETAIL
 10
-217.99999999984681
 20
762.00000000000034
 30
0.0
 11
-217.99999999984681
 21
183.9999999999994
 31
0.0
  0
LINE
  5
2082
  8
DETAIL
 10
-207.99999999984681
 20
762.00000000000034
 30
0.0
 11
-207.99999999984681
 21
183.9999999999994
 31
0.0
  0
LINE
  5
2083
  8
DETAIL
 10
-197.99999999984689
 20
762.00000000000034
 30
0.0
 11
-197.99999999984689
 21
183.9999999999994
 31
0.0
  0
LINE
  5
2084
  8
DETAIL
 10
-187.99999999984681
 20
762.00000000000034
 30
0.0
 11
-187.99999999984681
 21
183.9999999999994
 31
0.0
  0
LINE
  5
2085
  8
DETAIL
 10
-177.99999999984689
 20
762.00000000000034
 30
0.0
 11
-177.99999999984689
 21
183.9999999999994
 31
0.0
  0
LINE
  5
2086
  8
DETAIL
 10
-167.99999999984681
 20
762.00000000000034
 30
0.0
 11
-167.99999999984681
 21
183.9999999999994
 31
0.0
  0
LINE
  5
2087
  8
DETAIL
 10
-297.99999999984681
 20
762.00000000000034
 30
0.0
 11
-297.99999999984681
 21
183.9999999999994
 31
0.0
  0
LINE
  5
2088
  8
DETAIL
 10
-287.99999999984681
 20
762.00000000000034
 30
0.0
 11
-287.99999999984681
 21
183.9999999999994
 31
0.0
  0
LINE
  5
2089
  8
DETAIL
 10
-277.99999999984681
 20
762.00000000000034
 30
0.0
 11
-277.99999999984681
 21
183.9999999999994
 31
0.0
  0
LINE
  5
208A
  8
DETAIL
 10
-267.99999999984681
 20
762.00000000000034
 30
0.0
 11
-267.99999999984681
 21
183.9999999999994
 31
0.0
  0
LINE
  5
208B
  8
DETAIL
 10
-257.99999999984681
 20
762.00000000000034
 30
0.0
 11
-257.99999999984681
 21
183.9999999999994
 31
0.0
  0
LINE
  5
208C
  8
DETAIL
 10
-247.99999999984681
 20
762.00000000000034
 30
0.0
 11
-247.99999999984681
 21
183.9999999999994
 31
0.0
  0
LINE
  5
208D
  8
DETAIL
 10
-157.99999999984681
 20
762.00000000000034
 30
0.0
 11
-157.99999999984681
 21
183.9999999999994
 31
0.0
  0
LINE
  5
208E
  8
NOTE
  6
CONTINOUS
 10
295.0
 20
673.0
 30
0.0
 11
255.0
 21
673.0
 31
0.0
  0
LINE
  5
208F
  8
NOTE
  6
CONTINOUS
 10
275.0
 20
653.0
 30
0.0
 11
275.0
 21
693.0
 31
0.0
  0
LINE
  5
2090
  8
NOTE
  6
CONTINOUS
 10
387.0
 20
446.0
 30
0.0
 11
347.0
 21
446.0
 31
0.0
  0
LINE
  5
2091
  8
NOTE
  6
CONTINOUS
 10
367.0
 20
426.0
 30
0.0
 11
367.0
 21
466.0
 31
0.0
  0
LINE
  5
2092
  8
NOTE
  6
CONTINOUS
 10
446.99999999999989
 20
418.00000000000011
 30
0.0
 11
406.99999999999989
 21
418.00000000000011
 31
0.0
  0
LINE
  5
2093
  8
NOTE
  6
CONTINOUS
 10
426.99999999999989
 20
398.00000000000011
 30
0.0
 11
426.99999999999989
 21
438.00000000000011
 31
0.0
  0
LINE
  5
2094
  8
DETAIL
  6
CONTINUOUS
 10
475.0
 20
23.0
 30
0.0
 11
-474.99999999999989
 21
23.0
 31
0.0
  0
DIMENSION
  5
2095
  8
SIZE
  6
CONTINUOUS
  2
*D15
 10
-587.48247724767032
 20
0.0000000000000758
 30
0.0
 11
-653.29959870447965
 21
-82.843933452320925
 31
0.0
 70
   128
 13
-474.99999999999989
 23
23.0
 33
0.0
 14
-320.0
 24
0.0
 34
0.0
 50
90.0
1001
ACAD
1000
DSTYLE
1002
{
1070
   287
1070
     0
1070
    41
1040
10.0
1070
    42
1040
20.0
1070
    43
1040
200.0
1070
    44
1040
30.0
1070
    73
1070
     0
1070
    74
1070
     0
1070
    77
1070
     1
1070
    78
1070
     8
1070
   140
1040
64.0
1070
   147
1040
20.0
1070
   172
1070
     1
1070
   173
1070
     1
1070
   271
1070
     0
1070
   272
1070
     0
1070
   289
1070
     0
1070
   341
1005
719
1070
     6
1000
DOTBLANK
1070
     7
1000
ORIGIN
1002
}
  0
DIMENSION
  5
2096
  8
SIZE
  6
CONTINUOUS
  2
*D11
 10
-727.23196829527205
 20
472.99999999953889
 30
0.0
 11
-782.65061828986279
 21
239.01495926599631
 31
0.0
 70
   128
 13
-320.0
 23
0.0
 33
0.0
 14
-466.797845249847
 24
472.99999999953889
 34
0.0
 50
90.0
1001
ACAD
1000
DSTYLE
1002
{
1070
   287
1070
     0
1070
    41
1040
10.0
1070
    42
1040
20.0
1070
    43
1040
200.0
1070
    44
1040
30.0
1070
    73
1070
     0
1070
    74
1070
     0
1070
    77
1070
     1
1070
    78
1070
     8
1070
   140
1040
64.0
1070
   147
1040
20.0
1070
   172
1070
     1
1070
   173
1070
     1
1070
   271
1070
     0
1070
   272
1070
     0
1070
   289
1070
     0
1070
   341
1005
719
1070
     6
1000
DOTBLANK
1070
     7
1000
ORIGIN
1002
}
  0
LINE
  5
2097
  8
DETAIL
  6
CONTINUOUS
 10
-474.99999999999989
 20
943.0
 30
0.0
 11
475.0
 21
943.0
 31
0.0
  0
DIMENSION
  5
2098
  8
SIZE
  6
CONTINUOUS
  2
*D12
 10
-868.74271351267362
 20
943.00000000000011
 30
0.0
 11
-923.49950532266575
 21
405.69188474037583
 31
0.0
 70
   128
 13
-320.0
 23
0.0
 33
0.0
 14
-474.99999999999989
 24
943.0
 34
0.0
 50
90.0
1001
ACAD
1000
DSTYLE
1002
{
1070
   287
1070
     0
1070
    41
1040
10.0
1070
    42
1040
20.0
1070
    43
1040
200.0
1070
    44
1040
30.0
1070
    73
1070
     0
1070
    74
1070
     0
1070
    77
1070
     1
1070
    78
1070
     8
1070
   140
1040
64.0
1070
   147
1040
20.0
1070
   172
1070
     1
1070
   173
1070
     1
1070
   271
1070
     0
1070
   272
1070
     0
1070
   289
1070
     0
1070
   341
1005
719
1070
     6
1000
DOTBLANK
1070
     7
1000
ORIGIN
1002
}
  0
DIMENSION
  5
2099
  8
SIZE
  6
CONTINUOUS
  2
*D8
 10
-152.99999999984681
 20
1083.2426985211659
 30
0.0
 11
-313.75417327088411
 21
1142.1243503916689
 31
0.0
 70
   128
 13
-474.99999999999989
 23
943.0
 33
0.0
 14
-152.99999999984689
 24
786.79784524953902
 34
0.0
1001
ACAD
1000
DSTYLE
1002
{
1070
   287
1070
     0
1070
    41
1040
10.0
1070
    42
1040
20.0
1070
    43
1040
200.0
1070
    44
1040
30.0
1070
    73
1070
     0
1070
    74
1070
     0
1070
    77
1070
     1
1070
    78
1070
     8
1070
   140
1040
64.0
1070
   147
1040
20.0
1070
   172
1070
     1
1070
   173
1070
     1
1070
   271
1070
     0
1070
   272
1070
     0
1070
   289
1070
     0
1070
   341
1005
719
1070
     6
1000
DOTBLANK
1070
     7
1000
ORIGIN
1002
}
  0
DIMENSION
  5
209A
  8
SIZE
  6
CONTINUOUS
  2
*D6
 10
475.0
 20
1261.561867104529
 30
0.0
 11
-20.558531757859779
 21
1320.296239757032
 31
0.0
 70
   128
 13
-474.99999999999989
 23
943.0
 33
0.0
 14
475.0
 24
943.0
 34
0.0
1001
ACAD
1000
DSTYLE
1002
{
1070
   287
1070
     0
1070
    41
1040
10.0
1070
    42
1040
20.0
1070
    43
1040
200.0
1070
    44
1040
30.0
1070
    73
1070
     0
1070
    74
1070
     0
1070
    77
1070
     1
1070
    78
1070
     8
1070
   140
1040
64.0
1070
   147
1040
20.0
1070
   172
1070
     1
1070
   173
1070
     1
1070
   271
1070
     0
1070
   272
1070
     0
1070
   289
1070
     0
1070
   341
1005
719
1070
     6
1000
DOTBLANK
1070
     7
1000
ORIGIN
1002
}
  0
DIMENSION
  5
209B
  8
SIZE
  6
CONTINUOUS
  2
*D9
 10
475.0
 20
266.03391228826359
 30
0.0
 11
560.08381754447964
 21
325.98215753516342
 31
0.0
 70
   128
 13
427.0
 23
420.0
 33
0.0
 14
475.0
 24
23.0
 34
0.0
1001
ACAD
1000
DSTYLE
1002
{
1070
   287
1070
     0
1070
    41
1040
10.0
1070
    42
1040
20.0
1070
    43
1040
200.0
1070
    44
1040
30.0
1070
    73
1070
     0
1070
    74
1070
     0
1070
    77
1070
     1
1070
    78
1070
     8
1070
   140
1040
64.0
1070
   147
1040
20.0
1070
   172
1070
     1
1070
   173
1070
     1
1070
   271
1070
     0
1070
   272
1070
     0
1070
   289
1070
     0
1070
   341
1005
719
1070
     6
1000
DOTBLANK
1070
     7
1000
ORIGIN
1002
}
  0
DIMENSION
  5
209C
  8
SIZE
  6
CONTINUOUS
  2
*D10
 10
427.0
 20
154.8947144222825
 30
0.0
 11
304.25624883620731
 21
196.66385055512541
 31
0.0
 70
   128
 13
367.0
 23
427.0
 33
0.0
 14
427.0
 24
420.0
 34
0.0
1001
ACAD
1000
DSTYLE
1002
{
1070
   287
1070
     0
1070
    41
1040
10.0
1070
    42
1040
20.0
1070
    43
1040
200.0
1070
    44
1040
30.0
1070
    73
1070
     0
1070
    74
1070
     0
1070
    77
1070
     1
1070
    78
1070
     8
1070
   140
1040
64.0
1070
   147
1040
20.0
1070
   172
1070
     1
1070
   173
1070
     1
1070
   271
1070
     0
1070
   272
1070
     0
1070
   289
1070
     0
1070
   341
1005
719
1070
     6
1000
DOTBLANK
1070
     7
1000
ORIGIN
1002
}
  0
DIMENSION
  5
209D
  8
SIZE
  6
CONTINUOUS
  2
*D7
 10
475.0
 20
1083.2426985211659
 30
0.0
 11
378.99238724443052
 21
1142.1243503916689
 31
0.0
 70
   128
 13
275.0
 23
690.0
 33
0.0
 14
475.0
 24
23.0
 34
0.0
1001
ACAD
1000
DSTYLE
1002
{
1070
   287
1070
     0
1070
    41
1040
10.0
1070
    42
1040
20.0
1070
    43
1040
200.0
1070
    44
1040
30.0
1070
    73
1070
     0
1070
    74
1070
     0
1070
    77
1070
     1
1070
    78
1070
     8
1070
   140
1040
64.0
1070
   147
1040
20.0
1070
   172
1070
     1
1070
   173
1070
     1
1070
   271
1070
     0
1070
   272
1070
     0
1070
   289
1070
     0
1070
   341
1005
719
1070
     6
1000
DOTBLANK
1070
     7
1000
ORIGIN
1002
}
  0
TEXT
  5
20A0
  8
NOTE
  6
CONTINUOUS
 10
687.74983536164655
 20
859.03326903581365
 30
0.0
 40
64.0
  1
RL%%C6.35
 41
0.9
  0
LINE
  5
20A1
  8
NOTE
  6
CONTINUOUS
 10
1033.9773809217061
 20
839.31662178698502
 30
0.0
 11
661.01735077921398
 21
839.31662178698502
 31
0.0
  0
LINE
  5
20A2
  8
NOTE
  6
CONTINUOUS
 10
639.01354717423442
 20
701.61745293822571
 30
0.0
 11
1079.591221793368
 21
701.61745293822571
 31
0.0
  0
TEXT
  5
20A3
  8
NOTE
  6
CONTINUOUS
 10
681.07714041584563
 20
721.89880893822556
 30
0.0
 40
64.0
  1
RG%%C12.7
 41
0.9
  0
LINE
  5
20A4
  8
NOTE
  6
CONTINUOUS
 10
568.26981727950226
 20
1062.316621786983
 30
0.0
 11
816.69015457722492
 21
1062.316621786983
 31
0.0
  0
TEXT
  5
20A5
  8
NOTE
  6
CONTINUOUS
 10
583.05012227950215
 20
1077.418922786984
 30
0.0
 40
64.0
  1
EL,CL
 41
0.9
  0
LINE
  5
20A6
  8
NOTE
  6
CONTINUOUS
 10
275.0
 20
673.0
 30
0.0
 11
568.26981727950226
 21
1065.316621786983
 31
0.0
  0
POLYLINE
  5
20A7
  8
NOTE
  6
CONTINUOUS
 66
     1
 10
0.0
 20
0.0
 30
0.0
  0
VERTEX
  5
23B9
  8
NOTE
  6
CONTINUOUS
 10
290.12549742409982
 20
710.02997900527498
 30
0.0
  0
VERTEX
  5
23BA
  8
NOTE
  6
CONTINUOUS
 10
275.0
 20
673.0
 30
0.0
  0
VERTEX
  5
23BB
  8
NOTE
  6
CONTINUOUS
 10
306.61405408647988
 20
697.50615407990063
 30
0.0
  0
SEQEND
  5
23BC
  8
NOTE
  6
CONTINUOUS
  0
LINE
  5
20AC
  8
NOTE
  6
CONTINUOUS
 10
367.0
 20
446.0
 30
0.0
 11
661.01735077921398
 21
839.31662178698502
 31
0.0
  0
POLYLINE
  5
20AD
  8
NOTE
  6
CONTINUOUS
 66
     1
 10
0.0
 20
0.0
 30
0.0
  0
VERTEX
  5
23BD
  8
NOTE
  6
CONTINUOUS
 10
382.12549742409988
 20
483.02997900527521
 30
0.0
  0
VERTEX
  5
23BE
  8
NOTE
  6
CONTINUOUS
 10
367.0
 20
446.0
 30
0.0
  0
VERTEX
  5
23BF
  8
NOTE
  6
CONTINUOUS
 10
398.61405408647983
 20
470.50615407990063
 30
0.0
  0
SEQEND
  5
23C0
  8
NOTE
  6
CONTINUOUS
  0
LINE
  5
20B2
  8
NOTE
  6
CONTINUOUS
 10
426.99999999999989
 20
418.00000000000011
 30
0.0
 11
639.01354717423442
 21
701.61745293822571
 31
0.0
  0
POLYLINE
  5
20B3
  8
NOTE
  6
CONTINUOUS
 66
     1
 10
0.0
 20
0.0
 30
0.0
  0
VERTEX
  5
23C1
  8
NOTE
  6
CONTINUOUS
 10
442.12549742409988
 20
455.02997900527532
 30
0.0
  0
VERTEX
  5
23C2
  8
NOTE
  6
CONTINUOUS
 10
426.99999999999989
 20
418.00000000000011
 30
0.0
  0
VERTEX
  5
23C3
  8
NOTE
  6
CONTINUOUS
 10
458.61405408647971
 20
442.50615407990063
 30
0.0
  0
SEQEND
  5
23C4
  8
NOTE
  6
CONTINUOUS
  0
DIMENSION
  5
20B8
  8
SIZE
  6
CONTINUOUS
  2
*D14
 10
300.0
 20
-406.3464041100973
 30
0.0
 11
-3.6700375163454728
 21
-350.10176750036408
 31
0.0
 70
   128
 13
-300.0
 23
-20.0
 33
0.0
 14
300.0
 24
-20.0
 34
0.0
1001
ACAD
1000
DSTYLE
1002
{
1070
   287
1070
     0
1070
    41
1040
10.0
1070
    42
1040
20.0
1070
    43
1040
200.0
1070
    44
1040
30.0
1070
    73
1070
     0
1070
    74
1070
     0
1070
    77
1070
     1
1070
    78
1070
     8
1070
   140
1040
64.0
1070
   147
1040
20.0
1070
   172
1070
     1
1070
   173
1070
     1
1070
   271
1070
     0
1070
   272
1070
     0
1070
   289
1070
     0
1070
   341
1005
719
1070
     6
1000
DOTBLANK
1070
     7
1000
ORIGIN
1002
}
  0
DIMENSION
  5
20B9
  8
SIZE
  6
CONTINUOUS
  2
*D16
 10
-474.99999999999989
 20
-406.3464041100973
 30
0.0
 11
-388.84862581000192
 21
-347.2280236973474
 31
0.0
 70
   128
 13
-300.0
 23
-20.0
 33
0.0
 14
-474.99999999999989
 24
23.0
 34
0.0
1001
ACAD
1000
DSTYLE
1002
{
1070
   287
1070
     0
1070
    41
1040
10.0
1070
    42
1040
20.0
1070
    43
1040
200.0
1070
    44
1040
30.0
1070
    73
1070
     0
1070
    74
1070
     0
1070
    77
1070
     1
1070
    78
1070
     8
1070
   140
1040
64.0
1070
   147
1040
20.0
1070
   172
1070
     1
1070
   173
1070
     1
1070
   271
1070
     0
1070
   272
1070
     0
1070
   289
1070
     0
1070
   341
1005
719
1070
     6
1000
DOTBLANK
1070
     7
1000
ORIGIN
1002
}
  0
DIMENSION
  5
20BA
  8
SIZE
  6
CONTINUOUS
  2
*D13
 10
475.0
 20
-406.3464041100973
 30
0.0
 11
387.25748450102031
 21
-350.10176750036408
 31
0.0
 70
   128
 13
300.0
 23
-20.0
 33
0.0
 14
475.0
 24
23.0
 34
0.0
1001
ACAD
1000
DSTYLE
1002
{
1070
   287
1070
     0
1070
    41
1040
10.0
1070
    42
1040
20.0
1070
    43
1040
200.0
1070
    44
1040
30.0
1070
    73
1070
     0
1070
    74
1070
     0
1070
    77
1070
     1
1070
    78
1070
     8
1070
   140
1040
64.0
1070
   147
1040
20.0
1070
   172
1070
     1
1070
   173
1070
     1
1070
   271
1070
     0
1070
   272
1070
     0
1070
   289
1070
     0
1070
   341
1005
719
1070
     6
1000
DOTBLANK
1070
     7
1000
ORIGIN
1002
}
  0
DIMENSION
  5
20BB
  8
SIZE
  6
CONTINUOUS
  2
*D17
 10
-475.0
 20
-543.01396200505178
 30
0.0
 11
-3.6700375163454728
 21
-488.04129456836921
 31
0.0
 70
   128
 13
475.0
 23
23.0
 33
0.0
 14
-474.99999999999989
 24
23.0
 34
0.0
1001
ACAD
1000
DSTYLE
1002
{
1070
   287
1070
     0
1070
    41
1040
10.0
1070
    42
1040
20.0
1070
    43
1040
200.0
1070
    44
1040
30.0
1070
    73
1070
     0
1070
    74
1070
     0
1070
    77
1070
     1
1070
    78
1070
     8
1070
   140
1040
64.0
1070
   147
1040
20.0
1070
   172
1070
     1
1070
   173
1070
     1
1070
   271
1070
     0
1070
   272
1070
     0
1070
   289
1070
     0
1070
   341
1005
719
1070
     6
1000
DOTBLANK
1070
     7
1000
ORIGIN
1002
}
  0
LINE
  5
20BD
  8
OUTLINE
 10
-475.0
 20
943.0
 30
0.0
 11
475.0
 21
943.0
 31
0.0
  0
LINE
  5
20BE
  8
OUTLINE
 10
475.0
 20
23.00000000000011
 30
0.0
 11
-475.0
 21
23.00000000000011
 31
0.0
  0
LINE
  5
20BF
  8
OUTLINE
 10
-475.0
 20
23.00000000000011
 30
0.0
 11
-475.0
 21
943.0
 31
0.0
  0
LINE
  5
20C0
  8
OUTLINE
 10
-284.0
 20
22.999999999998291
 30
0.0
 11
-284.0
 21
0.0000000000001137
 31
0.0
  0
LINE
  5
20C1
  8
OUTLINE
 10
-316.0
 20
22.999999999998291
 30
0.0
 11
-316.0
 21
0.0000000000001137
 31
0.0
  0
LINE
  5
20C2
  8
OUTLINE
 10
-316.0
 20
0.0000000000001137
 30
0.0
 11
-284.0
 21
0.0000000000001137
 31
0.0
  0
LINE
  5
20C3
  8
OUTLINE
 10
475.0
 20
23.00000000000011
 30
0.0
 11
475.0
 21
943.0
 31
0.0
  0
LINE
  5
20C4
  8
OUTLINE
 10
316.0
 20
22.999999999998291
 30
0.0
 11
316.0
 21
0.0000000000001137
 31
0.0
  0
LINE
  5
20C5
  8
OUTLINE
 10
284.0
 20
22.999999999998291
 30
0.0
 11
284.0
 21
0.0000000000001137
 31
0.0
  0
LINE
  5
20C6
  8
OUTLINE
 10
284.0
 20
0.0000000000001137
 30
0.0
 11
316.0
 21
0.0000000000001137
 31
0.0
  0
DIMENSION
  5
2339
  8
SIZE
  6
CONTINUOUS
  2
*D18
 10
1030.294500979614
 20
-0.0000000000002012
 30
0.0
 11
1030.294500979614
 21
330.67240553167989
 31
0.0
 70
   128
 13
295.0
 23
673.0
 33
0.0
 14
320.0
 24
0.0
 34
0.0
 50
90.0
1001
ACAD
1000
DSTYLE
1002
{
1070
   287
1070
     3
1070
    41
1040
10.0
1070
    42
1040
20.0
1070
    43
1040
200.0
1070
    44
1040
30.0
1070
    73
1070
     0
1070
    74
1070
     0
1070
    77
1070
     1
1070
    78
1070
     8
1070
   140
1040
64.0
1070
   147
1040
20.0
1070
   172
1070
     1
1070
   173
1070
     1
1070
   275
1070
     0
1070
   279
1070
     0
1070
   284
1070
     0
1070
   285
1070
     0
1070
   286
1070
     0
1070
   341
1005
1C25
1070
     6
1000
DOTBLANK
1070
     7
1000
ORIGIN
1002
}
  0
DIMENSION
  5
2346
  8
SIZE
  6
CONTINUOUS
  2
*D19
 10
846.59715232796407
 20
-0.0000000000001492
 30
0.0
 11
846.59715232796407
 21
206.26373522861101
 31
0.0
 70
   128
 13
387.0
 23
446.0
 33
0.0
 14
320.0
 24
0.0
 34
0.0
 50
90.0
1001
ACAD
1000
DSTYLE
1002
{
1070
   287
1070
     3
1070
    41
1040
10.0
1070
    42
1040
20.0
1070
    43
1040
200.0
1070
    44
1040
30.0
1070
    73
1070
     0
1070
    74
1070
     0
1070
    77
1070
     1
1070
    78
1070
     8
1070
   140
1040
64.0
1070
   147
1040
20.0
1070
   172
1070
     1
1070
   173
1070
     1
1070
   275
1070
     0
1070
   279
1070
     0
1070
   284
1070
     0
1070
   285
1070
     0
1070
   286
1070
     0
1070
   341
1005
1C25
1070
     6
1000
DOTBLANK
1070
     7
1000
ORIGIN
1002
}
  0
DIMENSION
  5
2353
  8
SIZE
  6
CONTINUOUS
  2
*D20
 10
694.50365052730365
 20
-0.0000000000001061
 30
0.0
 11
694.50365052730365
 21
200.339516337237
 31
0.0
 70
   128
 13
446.99999999999989
 23
418.00000000000011
 33
0.0
 14
320.0
 24
0.0
 34
0.0
 50
90.0
1001
ACAD
1000
DSTYLE
1002
{
1070
   287
1070
     3
1070
    41
1040
10.0
1070
    42
1040
20.0
1070
    43
1040
200.0
1070
    44
1040
30.0
1070
    73
1070
     0
1070
    74
1070
     0
1070
    77
1070
     1
1070
    78
1070
     8
1070
   140
1040
64.0
1070
   147
1040
20.0
1070
   172
1070
     1
1070
   173
1070
     1
1070
   275
1070
     0
1070
   279
1070
     0
1070
   284
1070
     0
1070
   285
1070
     0
1070
   286
1070
     0
1070
   341
1005
1C25
1070
     6
1000
DOTBLANK
1070
     7
1000
ORIGIN
1002
}
  0
ENDSEC
  0
EOF
