  0
SECTION
  2
HEADER
  9
$ACADVER
  1
AC1009
  9
$INSBASE
 10
0.0
 20
0.0
 30
0.0
  9
$EXTMIN
 10
-480.0
 20
-573.01396200505167
 30
0.0
  9
$EXTMAX
 10
1357.320483161117
 20
1168.9307752850909
 30
0.0
  9
$LIMMIN
 10
-949.94558489658641
 20
-766.52849589787184
  9
$LIMMAX
 10
1577.7981238076641
 20
1282.8915767746871
  9
$ORTHOMODE
 70
     1
  9
$REGENMODE
 70
     1
  9
$FILLMODE
 70
     1
  9
$QTEXTMODE
 70
     0
  9
$MIRRTEXT
 70
     0
  9
$DRAGMODE
 70
     2
  9
$LTSCALE
 40
20.0
  9
$OSMODE
 70
    37
  9
$ATTMODE
 70
     1
  9
$TEXTSIZE
 40
64.0
  9
$TRACEWID
 40
0.05
  9
$TEXTSTYLE
  7
STANDARD
  9
$CLAYER
  8
SERVICESPACE
  9
$CELTYPE
  6
CONTINUOUS
  9
$CECOLOR
 62
   256
  9
$DIMSCALE
 40
1.0
  9
$DIMASZ
 40
10.0
  9
$DIMEXO
 40
20.0
  9
$DIMDLI
 40
200.0
  9
$DIMRND
 40
0.0
  9
$DIMDLE
 40
0.0
  9
$DIMEXE
 40
30.0
  9
$DIMTP
 40
0.0
  9
$DIMTM
 40
0.0
  9
$DIMTXT
 40
64.0
  9
$DIMCEN
 40
0.09
  9
$DIMTSZ
 40
0.0
  9
$DIMTOL
 70
     0
  9
$DIMLIM
 70
     0
  9
$DIMTIH
 70
     0
  9
$DIMTOH
 70
     0
  9
$DIMSE1
 70
     0
  9
$DIMSE2
 70
     0
  9
$DIMTAD
 70
     1
  9
$DIMZIN
 70
     8
  9
$DIMBLK
  1

  9
$DIMASO
 70
     1
  9
$DIMSHO
 70
     0
  9
$DIMPOST
  1

  9
$DIMAPOST
  1

  9
$DIMALT
 70
     0
  9
$DIMALTD
 70
     2
  9
$DIMALTF
 40
25.399999999999999
  9
$DIMLFAC
 40
1.0
  9
$DIMTOFL
 70
     1
  9
$DIMTVP
 40
0.0
  9
$DIMTIX
 70
     0
  9
$DIMSOXD
 70
     0
  9
$DIMSAH
 70
     1
  9
$DIMBLK1
  1
DOTBLANK
  9
$DIMBLK2
  1
ORIGIN
  9
$DIMSTYLE
  2
STANDARD
  9
$DIMCLRD
 70
     0
  9
$DIMCLRE
 70
     0
  9
$DIMCLRT
 70
     0
  9
$DIMTFAC
 40
1.0
  9
$DIMGAP
 40
20.0
  9
$LUNITS
 70
     2
  9
$LUPREC
 70
     4
  9
$SKETCHINC
 40
0.1
  9
$FILLETRAD
 40
6.0
  9
$AUNITS
 70
     1
  9
$AUPREC
 70
     3
  9
$MENU
  1
ACAD
  9
$ELEVATION
 40
0.0
  9
$PELEVATION
 40
0.0
  9
$THICKNESS
 40
0.0
  9
$LIMCHECK
 70
     0
  9
$BLIPMODE
 70
     0
  9
$CHAMFERA
 40
0.0
  9
$CHAMFERB
 40
0.0
  9
$SKPOLY
 70
     0
  9
$TDCREATE
 40
2450330.3932059952
  9
$TDUPDATE
 40
2453256.5841814689
  9
$TDINDWG
 40
0.5241758102
  9
$TDUSRTIMER
 40
0.5241756944
  9
$USRTIMER
 70
     1
  9
$ANGBASE
 50
0.0
  9
$ANGDIR
 70
     0
  9
$PDMODE
 70
     3
  9
$PDSIZE
 40
-2.0
  9
$PLINEWID
 40
0.0
  9
$COORDS
 70
     1
  9
$SPLFRAME
 70
     0
  9
$SPLINETYPE
 70
     6
  9
$SPLINESEGS
 70
     8
  9
$ATTDIA
 70
     0
  9
$ATTREQ
 70
     1
  9
$HANDLING
 70
-16383
  9
$HANDSEED
  5
20A0
  9
$SURFTAB1
 70
     6
  9
$SURFTAB2
 70
     6
  9
$SURFTYPE
 70
     6
  9
$SURFU
 70
     6
  9
$SURFV
 70
     6
  9
$UCSNAME
  2

  9
$UCSORG
 10
0.0
 20
0.0
 30
0.0
  9
$UCSXDIR
 10
1.0
 20
0.0
 30
0.0
  9
$UCSYDIR
 10
0.0
 20
1.0
 30
0.0
  9
$PUCSNAME
  2

  9
$PUCSORG
 10
0.0
 20
0.0
 30
0.0
  9
$PUCSXDIR
 10
1.0
 20
0.0
 30
0.0
  9
$PUCSYDIR
 10
0.0
 20
1.0
 30
0.0
  9
$USERI1
 70
     0
  9
$USERI2
 70
     0
  9
$USERI3
 70
     0
  9
$USERI4
 70
     0
  9
$USERI5
 70
     0
  9
$USERR1
 40
20.0
  9
$USERR2
 40
0.0
  9
$USERR3
 40
0.0
  9
$USERR4
 40
0.0
  9
$USERR5
 40
0.0
  9
$WORLDVIEW
 70
     1
  9
$SHADEDGE
 70
     3
  9
$SHADEDIF
 70
    70
  9
$TILEMODE
 70
     1
  9
$MAXACTVP
 70
    64
  9
$PLIMCHECK
 70
     0
  9
$PEXTMIN
 10
1.0000000000000000E+020
 20
1.0000000000000000E+020
 30
1.0000000000000000E+020
  9
$PEXTMAX
 10
-1.0000000000000000E+020
 20
-1.0000000000000000E+020
 30
-1.0000000000000000E+020
  9
$PLIMMIN
 10
0.0
 20
0.0
  9
$PLIMMAX
 10
12.0
 20
9.0
  9
$UNITMODE
 70
     0
  9
$VISRETAIN
 70
     1
  9
$PLINEGEN
 70
     0
  9
$PSLTSCALE
 70
     1
  0
ENDSEC
  0
SECTION
  2
TABLES
  0
TABLE
  2
VPORT
 70
     2
  0
VPORT
  2
*ACTIVE
 70
     0
 10
0.0
 20
0.0
 11
1.0
 21
1.0
 12
409.4296605702541
 22
331.2878356540686
 13
0.0
 23
0.0
 14
50.0
 24
50.0
 15
100.0
 25
100.0
 16
0.0
 26
0.0
 36
1.0
 17
0.0
 27
0.0
 37
0.0
 40
2254.5040290769989
 41
1.2721893491124261
 42
50.0
 43
0.0
 44
0.0
 50
0.0
 51
0.0
 71
     0
 72
   500
 73
     1
 74
     0
 75
     0
 76
     0
 77
     0
 78
     0
  0
ENDTAB
  0
TABLE
  2
LTYPE
 70
     8
  0
LTYPE
  2
CONTINUOUS
 70
     0
  3
実線
 72
    65
 73
     0
 40
0.0
  0
LTYPE
  2
DASHDOT
 70
     0
  3
____ _ ____ _ ____ _ ____ _ ____ _ ____ _ ____
 72
    65
 73
     4
 40
5.5
 49
4.0
 49
-0.6
 49
0.3
 49
-0.6
  0
LTYPE
  2
CONTINOUS
 70
     0
  3
Solid line
 72
    65
 73
     0
 40
0.0
  0
LTYPE
  2
DASHED
 70
     0
  3
_ _ _ _ _ _ _ _ _ _ _ _ _ _ _ _ _ _ _ _ _ _ _
 72
    65
 73
     2
 40
2.0
 49
1.1999999999999991
 49
-0.8
  0
LTYPE
  2
DOT
 70
     0
  3
...............................................
 72
    65
 73
     2
 40
0.8
 49
0.5
 49
-0.3
  0
LTYPE
  2
DASHDOT1
 70
     0
  3
____ _ ____ _ ____ _ ____ _ ____ _ ____ _ ____
 72
    65
 73
     4
 40
2.0
 49
1.5
 49
-0.2
 49
0.1
 49
-0.2
  0
LTYPE
  2
DIVIDE
 70
     0
  3
_____ _ _ _____ _ _ _____ _ _ _____ _ _ ____
 72
    65
 73
     6
 40
6.4000000000000004
 49
4.0
 49
-0.6
 49
0.3
 49
-0.6
 49
0.3
 49
-0.6
  0
LTYPE
  2
DIVIDE1
 70
     0
  3
_____ _ _ _____ _ _ _____ _ _ _____ _ _ ____
 72
    65
 73
     6
 40
3.2000000000000002
 49
2.0
 49
-0.3
 49
0.15
 49
-0.3
 49
0.15
 49
-0.3
  0
ENDTAB
  0
TABLE
  2
LAYER
 70
    12
  0
LAYER
  2
0
 70
     0
 62
     7
  6
CONTINUOUS
  0
LAYER
  2
SERVICESPACE
 70
     0
 62
     2
  6
CONTINUOUS
  0
LAYER
  2
DETAIL
 70
     0
 62
     5
  6
CONTINUOUS
  0
LAYER
  2
OUTLINE
 70
     0
 62
     3
  6
CONTINUOUS
  0
LAYER
  2
BASIS
 70
     0
 62
     6
  6
CONTINUOUS
  0
LAYER
  2
SIZE
 70
     0
 62
    32
  6
CONTINUOUS
  0
LAYER
  2
NOTE
 70
     0
 62
     4
  6
CONTINUOUS
  0
LAYER
  2
ARRANGE
 70
     0
 62
     1
  6
CONTINUOUS
  0
LAYER
  2
FIX
 70
     0
 62
   241
  6
CONTINUOUS
  0
LAYER
  2
ETC
 70
     0
 62
    83
  6
CONTINUOUS
  0
LAYER
  2
SYMBOLLINE
 70
     0
 62
    38
  6
CONTINUOUS
  0
LAYER
  2
DEFPOINTS
 70
     0
 62
     7
  6
CONTINUOUS
  0
ENDTAB
  0
TABLE
  2
STYLE
 70
     2
  0
STYLE
  2
STANDARD
 70
     0
 40
0.0
 41
0.9
 50
0.0
 71
     0
 42
64.0
  3
SIMPLEX
  4
BIGFONT
  0
STYLE
  2
STANDARD1
 70
     0
 40
0.0
 41
1.0
 50
0.0
 71
     0
 42
3.2000000000000002
  3
MONOTXT
  4
BIGFONT
  0
ENDTAB
  0
TABLE
  2
VIEW
 70
     1
  0
VIEW
  2
ALL
 70
     0
 40
4282.6199999999999
 10
0.0
 20
41.309903999999989
 41
5940.0
 11
0.0
 21
0.0
 31
1.0
 12
0.0
 22
0.0
 32
0.0
 42
50.0
 43
0.0
 44
0.0
 50
0.0
 71
     0
  0
ENDTAB
  0
TABLE
  2
UCS
 70
     0
  0
ENDTAB
  0
TABLE
  2
APPID
 70
     1
  0
APPID
  2
ACAD
 70
     0
  0
ENDTAB
  0
TABLE
  2
DIMSTYLE
 70
     2
  0
DIMSTYLE
  2
STANDARD
 70
     0
  3

  4

  5

  6

  7

 40
1.0
 41
0.18
 42
0.0625
 43
0.38
 44
0.18
 45
0.0
 46
0.0
 47
0.0
 48
0.0
140
0.18
141
0.09
142
0.0
143
25.399999999999999
144
1.0
145
0.0
146
1.0
147
0.09
 71
     0
 72
     0
 73
     1
 74
     1
 75
     0
 76
     0
 77
     0
 78
     0
170
     0
171
     2
172
     0
173
     0
174
     0
175
     0
176
     0
177
     0
178
     0
  0
DIMSTYLE
  2
DMST_1
 70
     0
  3

  4

  5

  6

  7

 40
1.0
 41
20.0
 42
4.9999999999999991
 43
7.0
 44
15.0
 45
0.0
 46
0.0
 47
0.0
 48
0.0
140
32.0
141
0.0
142
0.0
143
25.399999999999999
144
1.0
145
0.0
146
1.0
147
0.09
 71
     0
 72
     0
 73
     0
 74
     0
 75
     0
 76
     0
 77
     1
 78
     9
170
     0
171
     2
172
     0
173
     0
174
     0
175
     0
176
     2
177
     2
178
     2
  0
ENDTAB
  0
ENDSEC
  0
SECTION
  2
BLOCKS
  0
BLOCK
  8
0
  2
$MODEL_SPACE
 70
     0
 10
0.0
 20
0.0
 30
0.0
  3
$MODEL_SPACE
  1

  0
ENDBLK
  5
1AAC
  8
0
  0
BLOCK
 67
     1
  8
0
  2
$PAPER_SPACE
 70
     0
 10
0.0
 20
0.0
 30
0.0
  3
$PAPER_SPACE
  1

  0
ENDBLK
  5
1AA8
 67
     1
  8
0
  0
BLOCK
  8
0
  2
A$C5F2C697A
 70
     0
 10
0.0
 20
0.0
 30
0.0
  3
A$C5F2C697A
  1

  0
TEXT
  5
1AD0
  8
SIZE
  6
BYBLOCK
 10
910.8147643978815
 20
127.36127978650261
 30
0.0
 40
64.0
  1
370
 41
0.9
  0
LINE
  5
1AD1
  8
SIZE
  6
BYBLOCK
 10
801.8719073978815
 20
95.361279786502593
 30
0.0
 11
1167.87190739788
 21
95.361279786502593
 31
0.0
  0
TEXT
  5
1AD2
  8
SIZE
  6
BYBLOCK
 10
915.81476439788139
 20
1424.5027517865019
 30
0.0
 40
64.0
  1
330
 41
0.9
  0
LINE
  5
1AD3
  8
SIZE
  6
BYBLOCK
 10
826.8719073978815
 20
1392.5027517865019
 30
0.0
 11
1152.87190739788
 21
1392.5027517865019
 31
0.0
  0
LINE
  5
1AD4
  8
OUTLINE
  6
CONTINUOUS
 10
771.8719063978815
 20
290.07775178650252
 30
0.0
 11
1183.871906397881
 21
290.07775178650252
 31
0.0
  0
LINE
  5
1AD5
  8
OUTLINE
  6
CONTINUOUS
 10
771.8719063978815
 20
323.07775178650252
 30
0.0
 11
1183.871906397881
 21
323.07775178650252
 31
0.0
  0
LINE
  5
1AD6
  8
OUTLINE
  6
CONTINUOUS
 10
824.87190639788139
 20
1145.0777517865019
 30
0.0
 11
1154.8719063978799
 21
1145.0777517865019
 31
0.0
  0
CIRCLE
  5
1AD7
  8
ARRANGE
  6
CONTINUOUS
 10
989.87190639788139
 20
290.07775178650252
 30
0.0
 40
40.0
  0
LINE
  5
1AD8
  8
DETAIL
  6
CONTINOUS
 10
771.8719063978815
 20
290.07775178650252
 30
0.0
 11
1183.871906397881
 21
290.07775178650252
 31
0.0
  0
LINE
  5
1AD9
  8
DETAIL
  6
CONTINOUS
 10
824.87190639788139
 20
1145.0777517865019
 30
0.0
 11
1154.8719063978799
 21
1145.0777517865019
 31
0.0
  0
TEXT
  5
1ADA
  8
NOTE
  6
CONTINUOUS
 10
973.98087039788129
 20
913.84623078650259
 30
0.0
 40
64.0
  1
EL,CL
 41
0.9
  0
LINE
  5
1ADB
  8
NOTE
  6
CONTINUOUS
 10
879.8719063978815
 20
686.07775178650252
 30
0.0
 11
1040.77148939788
 21
625.20405378650253
 31
0.0
  0
LINE
  5
1ADC
  8
NOTE
  6
CONTINUOUS
 10
1205.83098439788
 20
895.38895978650271
 30
0.0
 11
918.87085639788165
 21
895.38895978650271
 31
0.0
  0
POINT
  5
1ADD
  8
ARRANGE
  6
CONTINUOUS
 10
989.87190639788139
 20
290.07775178650252
 30
0.0
  0
LINE
  5
1ADE
  8
DETAIL
  6
CONTINOUS
 10
771.8719063978815
 20
323.07775178650252
 30
0.0
 11
1183.871906397881
 21
323.07775178650252
 31
0.0
  0
LINE
  5
1ADF
  8
NOTE
  6
CONTINUOUS
 10
882.87190639788139
 20
724.07775178650252
 30
0.0
 11
1040.77148939788
 21
812.30385178650238
 31
0.0
  0
CIRCLE
  5
1AE0
  8
SIZE
  6
CONTINUOUS
 10
220.7875803978813
 20
290.07775178650252
 30
0.0
 40
6.0
  0
CIRCLE
  5
1AE1
  8
SIZE
  6
CONTINUOUS
 10
503.55668139788139
 20
290.07775178650252
 30
0.0
 40
6.0
  0
CIRCLE
  5
1AE2
  8
SIZE
  6
CONTINUOUS
 10
649.74425839788148
 20
290.07775178650252
 30
0.0
 40
6.0
  0
CIRCLE
  5
1AE3
  8
SIZE
  6
CONTINUOUS
 10
350.83505539788138
 20
290.07775178650252
 30
0.0
 40
6.0
  0
LINE
  5
1AE4
  8
OUTLINE
  6
CONTINUOUS
 10
771.8719063978815
 20
290.07775178650252
 30
0.0
 11
771.8719063978815
 21
323.07775178650252
 31
0.0
  0
CIRCLE
  5
1AE5
  8
FIX
  6
CONTINUOUS
 10
799.8719063978815
 20
290.07775178650252
 30
0.0
 40
40.0
  0
LINE
  5
1AE6
  8
DETAIL
  6
CONTINOUS
 10
771.8719063978815
 20
290.07775178650252
 30
0.0
 11
771.8719063978815
 21
323.07775178650252
 31
0.0
  0
LINE
  5
1AE7
  8
BASIS
  6
DASHDOT
 10
989.87190639788139
 20
239.4419287865025
 30
0.0
 11
989.87190639788139
 21
1184.2961157865011
 31
0.0
  0
LINE
  5
1AE8
  8
NOTE
  6
CONTINOUS
 10
799.8719063978815
 20
270.07775178650252
 30
0.0
 11
799.8719063978815
 21
310.07775178650252
 31
0.0
  0
LINE
  5
1AE9
  8
NOTE
  6
CONTINUOUS
 10
0.0000023978816444
 20
-0.000002213497396
 30
0.0
 11
579.80680439788148
 21
-0.000002213497396
 31
0.0
  0
TEXT
  5
1AEA
  8
NOTE
  6
CONTINUOUS
 10
14.78030739788152
 20
15.10229878650267
 30
0.0
 40
64.0
  1
AH 2-12×36
 41
0.9
  0
LINE
  5
1AEB
  8
SIZE
  6
BYBLOCK
 10
715.70171039788136
 20
290.07775178650252
 30
0.0
 11
320.83505539788149
 21
290.07775178650252
 31
0.0
  0
LINE
  5
1AEC
  8
SIZE
  6
BYBLOCK
 10
735.70171039788136
 20
290.07775178650252
 30
0.0
 11
473.55668139788128
 21
290.07775178650252
 31
0.0
  0
LINE
  5
1AED
  8
SIZE
  6
BYBLOCK
 10
735.70171039788136
 20
290.07775178650252
 30
0.0
 11
190.7875803978813
 21
290.07775178650252
 31
0.0
  0
LINE
  5
1AEE
  8
NOTE
  6
CONTINUOUS
 10
579.80680439788148
 20
-0.000002213497396
 30
0.0
 11
799.8719063978815
 21
290.07775178650252
 31
0.0
  0
TEXT
  5
1AEF
  8
SIZE
  6
BYBLOCK
 10
739.24333539788142
 20
127.36127978650261
 30
0.0
 40
64.0
  1
28
 41
0.9
  0
LINE
  5
1AF0
  8
SIZE
  6
BYBLOCK
 10
735.70171039788136
 20
290.07775178650252
 30
0.0
 11
619.74425839788148
 21
290.07775178650252
 31
0.0
  0
LINE
  5
1AF1
  8
SIZE
  6
BYBLOCK
 10
799.8719073978815
 20
250.0777517865026
 30
0.0
 11
799.8719073978815
 21
65.361279786502621
 31
0.0
  0
LINE
  5
1AF2
  8
SIZE
  6
BYBLOCK
 10
799.8719073978815
 20
250.0777517865026
 30
0.0
 11
799.8719073978815
 21
65.361279786502621
 31
0.0
  0
LINE
  5
1AF3
  8
SIZE
  6
BYBLOCK
 10
771.8719073978815
 20
270.07775178650252
 30
0.0
 11
771.8719073978815
 21
65.361279786502621
 31
0.0
  0
CIRCLE
  5
1AF4
  8
SIZE
  6
CONTINUOUS
 10
799.8719073978815
 20
95.361279786502593
 30
0.0
 40
6.0
  0
CIRCLE
  5
1AF5
  8
SIZE
  6
CONTINUOUS
 10
771.8719073978815
 20
95.361279786502593
 30
0.0
 40
6.0
  0
CIRCLE
  5
1AF6
  8
SIZE
  6
CONTINUOUS
 10
799.8719073978815
 20
95.361279786502593
 30
0.0
 40
6.0
  0
LINE
  5
1AF7
  8
SIZE
  6
BYBLOCK
 10
799.8719073978815
 20
95.361279786502593
 30
0.0
 11
771.8719073978815
 21
95.361279786502593
 31
0.0
  0
LINE
  5
1AF8
  8
SIZE
  6
BYBLOCK
 10
769.8719073978815
 20
95.361279786502593
 30
0.0
 11
767.8719073978815
 21
95.361279786502593
 31
0.0
  0
LINE
  5
1AF9
  8
SIZE
  6
BYBLOCK
 10
801.8719073978815
 20
95.361279786502593
 30
0.0
 11
803.87190739788139
 21
95.361279786502593
 31
0.0
  0
LINE
  5
1AFA
  8
NOTE
  6
CONTINOUS
 10
779.8719063978815
 20
290.07775178650252
 30
0.0
 11
819.8719063978815
 21
290.07775178650252
 31
0.0
  0
LINE
  5
1AFB
  8
NOTE
  6
CONTINUOUS
 10
799.8719063978815
 20
290.07775178650252
 30
0.0
 11
784.76766639788127
 21
253.0390967865026
 31
0.0
  0
LINE
  5
1AFC
  8
NOTE
  6
CONTINUOUS
 10
799.8719063978815
 20
290.07775178650252
 30
0.0
 11
768.27192339788144
 21
265.55345678650252
 31
0.0
  0
LINE
  5
1AFD
  8
SIZE
  6
BYBLOCK
 10
771.8719073978815
 20
343.07775178650252
 30
0.0
 11
771.8719073978815
 21
1422.5027517865019
 31
0.0
  0
LINE
  5
1AFE
  8
OUTLINE
  6
CONTINUOUS
 10
824.87190639788139
 20
323.07775178650252
 30
0.0
 11
824.87190639788139
 21
1145.0777517865019
 31
0.0
  0
LINE
  5
1AFF
  8
DETAIL
  6
CONTINOUS
 10
824.87190639788139
 20
323.07775178650252
 30
0.0
 11
824.87190639788139
 21
1145.0777517865019
 31
0.0
  0
LINE
  5
1B00
  8
DETAIL
  6
CONTINOUS
 10
804.8719063978815
 20
462.0777517865024
 30
0.0
 11
804.8719063978815
 21
1002.0777517865019
 31
0.0
  0
LINE
  5
1B01
  8
SIZE
  6
BYBLOCK
 10
714.44271139788157
 20
732.07775178650252
 30
0.0
 11
320.83505539788149
 21
732.07775178650252
 31
0.0
  0
LINE
  5
1B02
  8
SIZE
  6
BYBLOCK
 10
856.8719073978815
 20
724.07775178650252
 30
0.0
 11
473.55668139788128
 21
724.07775178650252
 31
0.0
  0
LINE
  5
1B03
  8
SIZE
  6
BYBLOCK
 10
777.27455739788161
 20
810.08015378650236
 30
0.0
 11
190.4274553978814
 21
810.08015378650236
 31
0.0
  0
LINE
  5
1B04
  8
SIZE
  6
BYBLOCK
 10
350.83505539788138
 20
292.07775178650252
 30
0.0
 11
350.83505539788138
 21
730.07775178650252
 31
0.0
  0
LINE
  5
1B05
  8
SIZE
  6
BYBLOCK
 10
503.55668139788139
 20
292.07775178650252
 30
0.0
 11
503.55668139788139
 21
724.07775178650252
 31
0.0
  0
TEXT
  5
1B06
  8
SIZE
  6
BYBLOCK
 10
188.7875803978813
 20
529.52060878650241
 30
0.0
 40
64.0
  1
520
 50
90.0
 41
0.9
  0
LINE
  5
1B07
  8
SIZE
  6
BYBLOCK
 10
220.7875803978813
 20
810.08015378650236
 30
0.0
 11
220.7875803978813
 21
603.57775178650252
 31
0.0
  0
TEXT
  5
1B08
  8
SIZE
  6
BYBLOCK
 10
318.83505539788149
 20
437.02060878650252
 30
0.0
 40
64.0
  1
442
 50
90.0
 41
0.9
  0
LINE
  5
1B09
  8
SIZE
  6
BYBLOCK
 10
220.7875803978813
 20
292.07775178650252
 30
0.0
 11
220.7875803978813
 21
603.57775178650252
 31
0.0
  0
TEXT
  5
1B0A
  8
SIZE
  6
BYBLOCK
 10
471.55668139788139
 20
427.13489478650251
 30
0.0
 40
64.0
  1
434
 50
90.0
 41
0.9
  0
CIRCLE
  5
1B0B
  8
SIZE
  6
CONTINUOUS
 10
220.4274553978814
 20
810.08015378650236
 30
0.0
 40
6.0
  0
CIRCLE
  5
1B0C
  8
SIZE
  6
CONTINUOUS
 10
350.83505539788138
 20
732.07775178650252
 30
0.0
 40
6.0
  0
CIRCLE
  5
1B0D
  8
SIZE
  6
CONTINUOUS
 10
503.55668139788139
 20
724.07775178650252
 30
0.0
 40
6.0
  0
LINE
  5
1B0E
  8
SIZE
  6
BYBLOCK
 10
649.74425839788148
 20
292.07775178650252
 30
0.0
 11
649.74425839788148
 21
684.07775178650252
 31
0.0
  0
TEXT
  5
1B0F
  8
SIZE
  6
BYBLOCK
 10
617.74425839788125
 20
415.3920377865025
 30
0.0
 40
64.0
  1
396
 50
90.0
 41
0.9
  0
LINE
  5
1B10
  8
DETAIL
  6
CONTINOUS
 10
824.87190639788139
 20
462.0777517865024
 30
0.0
 11
804.8719063978815
 21
462.0777517865024
 31
0.0
  0
LINE
  5
1B11
  8
SIZE
  6
BYBLOCK
 10
836.26393739788148
 20
686.07775178650252
 30
0.0
 11
619.74425839788148
 21
686.07775178650252
 31
0.0
  0
LINE
  5
1B12
  8
BASIS
  6
DASHDOT
 10
734.44271139788145
 20
732.07775178650252
 30
0.0
 11
884.14564339788137
 21
732.07775178650252
 31
0.0
  0
CIRCLE
  5
1B13
  8
SIZE
  6
CONTINUOUS
 10
649.74425839788148
 20
686.07775178650252
 30
0.0
 40
6.0
  0
LINE
  5
1B14
  8
NOTE
  6
CONTINOUS
 10
862.8719063978815
 20
724.07775178650252
 30
0.0
 11
902.8719063978815
 21
724.07775178650252
 31
0.0
  0
LINE
  5
1B15
  8
NOTE
  6
CONTINOUS
 10
859.87190639788162
 20
686.07775178650252
 30
0.0
 11
899.87190639788139
 21
686.07775178650252
 31
0.0
  0
LINE
  5
1B16
  8
NOTE
  6
CONTINOUS
 10
879.8719063978815
 20
666.07775178650252
 30
0.0
 11
879.8719063978815
 21
706.07775178650252
 31
0.0
  0
POLYLINE
  5
1B17
  8
NOTE
  6
CONTINUOUS
 66
     1
 10
0.0
 20
0.0
 30
0.0
  0
VERTEX
  5
208C
  8
NOTE
  6
CONTINUOUS
 10
919.40695039788125
 20
679.99661178650251
 30
0.0
  0
VERTEX
  5
208D
  8
NOTE
  6
CONTINUOUS
 10
879.8719063978815
 20
686.07775178650252
 30
0.0
  0
VERTEX
  5
208E
  8
NOTE
  6
CONTINUOUS
 10
911.06968939788146
 20
661.04380778650238
 30
0.0
  0
SEQEND
  5
208F
  8
NOTE
  6
CONTINUOUS
  0
POLYLINE
  5
1B1C
  8
NOTE
  6
CONTINUOUS
 66
     1
 10
0.0
 20
0.0
 30
0.0
  0
VERTEX
  5
2090
  8
NOTE
  6
CONTINUOUS
 10
911.55116939788149
 20
751.96143678650253
 30
0.0
  0
VERTEX
  5
2091
  8
NOTE
  6
CONTINUOUS
 10
882.87190639788139
 20
724.07775178650252
 30
0.0
  0
VERTEX
  5
2092
  8
NOTE
  6
CONTINUOUS
 10
921.65071939788174
 20
733.88609978650254
 30
0.0
  0
SEQEND
  5
2093
  8
NOTE
  6
CONTINUOUS
  0
LINE
  5
1B21
  8
NOTE
  6
CONTINOUS
 10
882.87190639788139
 20
704.0777517865024
 30
0.0
 11
882.87190639788139
 21
744.07775178650252
 31
0.0
  0
LINE
  5
1B22
  8
NOTE
  6
CONTINUOUS
 10
824.51178139788146
 20
810.08015378650236
 30
0.0
 11
918.87085639788165
 21
895.38895978650271
 31
0.0
  0
LINE
  5
1B23
  8
NOTE
  6
CONTINOUS
 10
804.51178139788135
 20
810.08015378650236
 30
0.0
 11
844.51178139788135
 21
810.08015378650236
 31
0.0
  0
POLYLINE
  5
1B24
  8
NOTE
  6
CONTINUOUS
 66
     1
 10
0.0
 20
0.0
 30
0.0
  0
VERTEX
  5
2094
  8
NOTE
  6
CONTINUOUS
 10
846.64476439788132
 20
843.39878378650269
 30
0.0
  0
VERTEX
  5
2095
  8
NOTE
  6
CONTINUOUS
 10
824.51178139788146
 20
810.08015378650236
 30
0.0
  0
VERTEX
  5
2096
  8
NOTE
  6
CONTINUOUS
 10
860.33882139788147
 20
827.86844278650256
 30
0.0
  0
SEQEND
  5
2097
  8
NOTE
  6
CONTINUOUS
  0
LINE
  5
1B29
  8
NOTE
  6
CONTINOUS
 10
824.51178139788146
 20
790.08015378650236
 30
0.0
 11
824.51178139788146
 21
830.08015378650225
 31
0.0
  0
LINE
  5
1B2A
  8
NOTE
  6
CONTINUOUS
 10
872.35755039788137
 20
933.93013678650243
 30
0.0
 11
872.35755039788137
 21
933.93013678650243
 31
0.0
  0
LINE
  5
1B2B
  8
SIZE
  6
BYBLOCK
 10
824.8719073978815
 20
1185.0777517865019
 30
0.0
 11
824.8719073978815
 21
1422.5027517865019
 31
0.0
  0
LINE
  5
1B2C
  8
SIZE
  6
BYBLOCK
 10
824.8719073978815
 20
1165.0777517865019
 30
0.0
 11
824.8719073978815
 21
1422.5027517865019
 31
0.0
  0
LINE
  5
1B2D
  8
SIZE
  6
BYBLOCK
 10
824.8719073978815
 20
1165.0777517865019
 30
0.0
 11
824.8719073978815
 21
1293.248751786502
 31
0.0
  0
LINE
  5
1B2E
  8
SIZE
  6
BYBLOCK
 10
804.87190739788139
 20
1022.0777517865019
 30
0.0
 11
804.87190739788139
 21
1293.248751786502
 31
0.0
  0
LINE
  5
1B2F
  8
DETAIL
  6
CONTINOUS
 10
824.87190639788139
 20
1002.0777517865019
 30
0.0
 11
804.8719063978815
 21
1002.0777517865019
 31
0.0
  0
LINE
  5
1B30
  8
SIZE
  6
CONTINUOUS
 10
814.87190639788139
 20
1263.2491457865019
 30
0.0
 11
945.94025839788139
 21
1263.2491457865019
 31
0.0
  0
LINE
  5
1B31
  8
SIZE
  6
BYBLOCK
 10
822.8719073978815
 20
1263.2491457865019
 30
0.0
 11
814.8719073978815
 21
1263.2491457865019
 31
0.0
  0
CIRCLE
  5
1B32
  8
SIZE
  6
CONTINUOUS
 10
804.87190739788139
 20
1263.2491457865019
 30
0.0
 40
6.0
  0
LINE
  5
1B33
  8
SIZE
  6
BYBLOCK
 10
806.8719073978815
 20
1263.2491457865019
 30
0.0
 11
814.8719073978815
 21
1263.2491457865019
 31
0.0
  0
CIRCLE
  5
1B34
  8
SIZE
  6
CONTINUOUS
 10
824.8719073978815
 20
1263.2491457865019
 30
0.0
 40
6.0
  0
TEXT
  5
1B35
  8
SIZE
  6
BYBLOCK
 10
751.74333539788142
 20
1424.5027517865019
 30
0.0
 40
64.0
  1
53
 41
0.9
  0
TEXT
  5
1B36
  8
SIZE
  6
BYBLOCK
 10
843.21570539788115
 20
1295.248751786502
 30
0.0
 40
64.0
  1
20
 41
0.9
  0
LINE
  5
1B37
  8
SIZE
  6
BYBLOCK
 10
824.8719073978815
 20
1392.5027517865019
 30
0.0
 11
771.8719073978815
 21
1392.5027517865019
 31
0.0
  0
CIRCLE
  5
1B38
  8
SIZE
  6
CONTINUOUS
 10
771.8719073978815
 20
1392.5027517865019
 30
0.0
 40
6.0
  0
LINE
  5
1B39
  8
SIZE
  6
BYBLOCK
 10
769.8719073978815
 20
1392.5027517865019
 30
0.0
 11
767.8719073978815
 21
1392.5027517865019
 31
0.0
  0
CIRCLE
  5
1B3A
  8
SIZE
  6
CONTINUOUS
 10
824.8719073978815
 20
1392.5027517865019
 30
0.0
 40
6.0
  0
CIRCLE
  5
1B3B
  8
SIZE
  6
CONTINUOUS
 10
824.8719073978815
 20
1392.5027517865019
 30
0.0
 40
6.0
  0
LINE
  5
1B3C
  8
SIZE
  6
BYBLOCK
 10
826.8719073978815
 20
1392.5027517865019
 30
0.0
 11
828.87190739788139
 21
1392.5027517865019
 31
0.0
  0
CIRCLE
  5
1B3D
  8
SIZE
  6
CONTINUOUS
 10
1420.44446039788
 20
290.07775178650252
 30
0.0
 40
6.0
  0
CIRCLE
  5
1B3E
  8
FIX
  6
CONTINUOUS
 10
1169.871906397881
 20
290.07775178650252
 30
0.0
 40
40.0
  0
LINE
  5
1B3F
  8
OUTLINE
  6
CONTINUOUS
 10
1183.871906397881
 20
323.07775178650252
 30
0.0
 11
1183.871906397881
 21
290.07775178650252
 31
0.0
  0
TEXT
  5
1B40
  8
ETC
  6
CONTINUOUS
 10
1573.1112623978811
 20
288.6366377865026
 30
0.0
 40
64.0
  1
室外機
 41
0.9
  0
LINE
  5
1B41
  8
DETAIL
  6
CONTINOUS
 10
1183.871906397881
 20
290.07775178650252
 30
0.0
 11
1183.871906397881
 21
323.07775178650252
 31
0.0
  0
LINE
  5
1B42
  8
NOTE
  6
CONTINOUS
 10
1169.871906397881
 20
270.07775178650252
 30
0.0
 11
1169.871906397881
 21
310.07775178650252
 31
0.0
  0
LINE
  5
1B43
  8
NOTE
  6
CONTINUOUS
 10
1969.74381039788
 20
-0.000002213497396
 30
0.0
 11
1389.9370083978811
 21
-0.000002213497396
 31
0.0
  0
TEXT
  5
1B44
  8
NOTE
  6
CONTINUOUS
 10
1415.1692193978811
 20
15.10229878650267
 30
0.0
 40
64.0
  1
AH 2-U cut
 41
0.9
  0
LINE
  5
1B45
  8
NOTE
  6
CONTINUOUS
 10
1389.9370083978811
 20
-0.000002213497396
 30
0.0
 11
1169.871906397881
 21
290.07775178650252
 31
0.0
  0
LINE
  5
1B46
  8
SIZE
  6
BYBLOCK
 10
1214.7137463978811
 20
290.07775178650252
 30
0.0
 11
1450.44446039788
 21
290.07775178650252
 31
0.0
  0
LINE
  5
1B47
  8
SIZE
  6
BYBLOCK
 10
1183.87190739788
 20
270.07775178650252
 30
0.0
 11
1183.87190739788
 21
65.361279786502621
 31
0.0
  0
LINE
  5
1B48
  8
SIZE
  6
BYBLOCK
 10
1169.87190739788
 20
250.0777517865026
 30
0.0
 11
1169.87190739788
 21
65.361279786502621
 31
0.0
  0
LINE
  5
1B49
  8
SIZE
  6
BYBLOCK
 10
1169.87190739788
 20
250.0777517865026
 30
0.0
 11
1169.87190739788
 21
65.361279786502621
 31
0.0
  0
CIRCLE
  5
1B4A
  8
SIZE
  6
CONTINUOUS
 10
1169.87190739788
 20
95.361279786502593
 30
0.0
 40
6.0
  0
CIRCLE
  5
1B4B
  8
SIZE
  6
CONTINUOUS
 10
1169.87190739788
 20
95.361279786502593
 30
0.0
 40
6.0
  0
CIRCLE
  5
1B4C
  8
SIZE
  6
CONTINUOUS
 10
1183.87190739788
 20
95.361279786502593
 30
0.0
 40
6.0
  0
LINE
  5
1B4D
  8
SIZE
  6
BYBLOCK
 10
1183.87190739788
 20
95.361279786502593
 30
0.0
 11
1169.87190739788
 21
95.361279786502593
 31
0.0
  0
LINE
  5
1B4E
  8
SIZE
  6
BYBLOCK
 10
1167.87190739788
 20
95.361279786502593
 30
0.0
 11
1165.87190739788
 21
95.361279786502593
 31
0.0
  0
LINE
  5
1B4F
  8
SIZE
  6
BYBLOCK
 10
1185.87190739788
 20
95.361279786502593
 30
0.0
 11
1187.87190739788
 21
95.361279786502593
 31
0.0
  0
TEXT
  5
1B50
  8
SIZE
  6
BYBLOCK
 10
1134.3576213978811
 20
127.36127978650261
 30
0.0
 40
64.0
  1
14
 41
0.9
  0
LINE
  5
1B51
  8
NOTE
  6
CONTINOUS
 10
1149.871906397881
 20
290.07775178650252
 30
0.0
 11
1189.871906397881
 21
290.07775178650252
 31
0.0
  0
LINE
  5
1B52
  8
NOTE
  6
CONTINUOUS
 10
1169.871906397881
 20
290.07775178650252
 30
0.0
 11
1184.97614639788
 21
253.0390967865026
 31
0.0
  0
LINE
  5
1B53
  8
NOTE
  6
CONTINUOUS
 10
1169.871906397881
 20
290.07775178650252
 30
0.0
 11
1201.47188939788
 21
265.55345678650252
 31
0.0
  0
TEXT
  5
1B54
  8
ETC
  6
CONTINUOUS
 10
1561.2885183978799
 20
407.8032387865025
 30
0.0
 40
64.0
  1
SPUZ0824
 41
0.9
  0
LINE
  5
1B55
  8
SIZE
  6
BYBLOCK
 10
1420.44446039788
 20
1143.0777517865019
 30
0.0
 11
1420.44446039788
 21
717.57775178650252
 31
0.0
  0
LINE
  5
1B56
  8
OUTLINE
  6
CONTINUOUS
 10
1154.8719063978799
 20
1145.0777517865019
 30
0.0
 11
1154.8719063978799
 21
323.07775178650252
 31
0.0
  0
LINE
  5
1B57
  8
DETAIL
  6
CONTINOUS
 10
1154.8719063978799
 20
323.07775178650252
 30
0.0
 11
1154.8719063978799
 21
1145.0777517865019
 31
0.0
  0
LINE
  5
1B58
  8
SIZE
  6
BYBLOCK
 10
1420.44446039788
 20
292.07775178650252
 30
0.0
 11
1420.44446039788
 21
717.57775178650252
 31
0.0
  0
LINE
  5
1B59
  8
NOTE
  6
CONTINUOUS
 10
1124.871906397881
 20
323.07775178650252
 30
0.0
 11
1231.96219639788
 21
428.57361078650251
 31
0.0
  0
LINE
  5
1B5A
  8
NOTE
  6
CONTINOUS
 10
1104.871906397881
 20
323.07775178650252
 30
0.0
 11
1144.871906397881
 21
323.07775178650252
 31
0.0
  0
POLYLINE
  5
1B5B
  8
NOTE
  6
CONTINUOUS
 66
     1
 10
0.0
 20
0.0
 30
0.0
  0
VERTEX
  5
2098
  8
NOTE
  6
CONTINUOUS
 10
1145.1311663978811
 20
357.56778478650261
 30
0.0
  0
VERTEX
  5
2099
  8
NOTE
  6
CONTINUOUS
 10
1124.871906397881
 20
323.07775178650252
 30
0.0
  0
VERTEX
  5
209A
  8
NOTE
  6
CONTINUOUS
 10
1159.661957397881
 20
342.81736678650259
 30
0.0
  0
SEQEND
  5
209B
  8
NOTE
  6
CONTINUOUS
  0
LINE
  5
1B60
  8
NOTE
  6
CONTINOUS
 10
1124.871906397881
 20
303.07775178650257
 30
0.0
 11
1124.871906397881
 21
343.07775178650252
 31
0.0
  0
TEXT
  5
1B61
  8
NOTE
  6
CONTINUOUS
 10
1251.9401213978811
 20
438.44475178650248
 30
0.0
 40
64.0
  1
D
 41
0.9
  0
LINE
  5
1B62
  8
NOTE
  6
CONTINUOUS
 10
1231.96219639788
 20
428.57361078650251
 30
0.0
 11
1302.198482397881
 21
428.57361078650251
 31
0.0
  0
TEXT
  5
1B63
  8
NOTE
  6
CONTINUOUS
 10
1060.7086543978801
 20
635.63939678650252
 30
0.0
 40
64.0
  1
RG
 41
0.9
  0
LINE
  5
1B64
  8
NOTE
  6
CONTINUOUS
 10
1040.77148939788
 20
625.20405378650253
 30
0.0
 11
1180.455218397881
 21
625.20405378650253
 31
0.0
  0
TEXT
  5
1B65
  8
NOTE
  6
CONTINUOUS
 10
1060.92620539788
 20
822.17499278650257
 30
0.0
 40
64.0
  1
RL
 41
0.9
  0
LINE
  5
1B66
  8
NOTE
  6
CONTINUOUS
 10
1040.77148939788
 20
812.30385178650238
 30
0.0
 11
1170.35759939788
 21
812.30385178650238
 31
0.0
  0
TEXT
  5
1B67
  8
SIZE
  6
BYBLOCK
 10
1388.44446039788
 20
643.52060878650252
 30
0.0
 40
64.0
  1
855
 50
90.0
 41
0.9
  0
LINE
  5
1B68
  8
SIZE
  6
BYBLOCK
 10
1154.87190739788
 20
1165.0777517865019
 30
0.0
 11
1154.87190739788
 21
1422.5027517865019
 31
0.0
  0
LINE
  5
1B69
  8
SIZE
  6
BYBLOCK
 10
1203.87190739788
 20
1145.0777517865019
 30
0.0
 11
1450.44446039788
 21
1145.0777517865019
 31
0.0
  0
CIRCLE
  5
1B6A
  8
SIZE
  6
CONTINUOUS
 10
1420.44446039788
 20
1145.0777517865019
 30
0.0
 40
6.0
  0
CIRCLE
  5
1B6B
  8
SIZE
  6
CONTINUOUS
 10
1154.87190739788
 20
1392.5027517865019
 30
0.0
 40
6.0
  0
ENDBLK
  5
1B6C
  8
0
  0
BLOCK
  8
0
  2
_ORIGIN
 70
     0
 10
0.0
 20
0.0
 30
0.0
  3
_ORIGIN
  1

  0
CIRCLE
  5
1B6F
  8
0
  6
BYBLOCK
 62
     0
 10
0.0
 20
0.0
 30
0.0
 40
0.5
  0
LINE
  5
1B70
  8
0
  6
BYBLOCK
 62
     0
 10
0.0
 20
0.0
 30
0.0
 11
-1.0
 21
0.0
 31
0.0
  0
ENDBLK
  5
1B71
  8
0
  0
BLOCK
  8
0
  2
_ORIGIN2
 70
     0
 10
0.0
 20
0.0
 30
0.0
  3
_ORIGIN2
  1

  0
CIRCLE
  5
1B74
  8
0
  6
BYBLOCK
 62
     0
 10
0.0
 20
0.0
 30
0.0
 40
0.5
  0
CIRCLE
  5
1B75
  8
0
  6
BYBLOCK
 62
     0
 10
0.0
 20
0.0
 30
0.0
 40
0.25
  0
LINE
  5
1B76
  8
0
  6
BYBLOCK
 62
     0
 10
-0.5
 20
0.0
 30
0.0
 11
-1.0
 21
0.0
 31
0.0
  0
ENDBLK
  5
1B77
  8
0
  0
BLOCK
  8
0
  2
_DOTBLANK
 70
     0
 10
0.0
 20
0.0
 30
0.0
  3
_DOTBLANK
  1

  0
CIRCLE
  5
1B7A
  8
0
  6
BYBLOCK
 62
     0
 10
0.0
 20
0.0
 30
0.0
 40
0.5
  0
LINE
  5
1B7B
  8
0
  6
BYBLOCK
 62
     0
 10
-0.5
 20
0.0
 30
0.0
 11
-1.0
 21
0.0
 31
0.0
  0
ENDBLK
  5
1B7C
  8
0
  0
BLOCK
  8
0
  2
*D6
 70
     1
 10
0.0
 20
0.0
 30
0.0
  3
*D6
  1

  0
LINE
  5
1FD3
  8
SIZE
  6
CONTINUOUS
 62
     0
 10
475.0
 20
963.0
 30
0.0
 11
475.0
 21
1092.846244948189
 31
0.0
  0
LINE
  5
1FD4
  8
SIZE
  6
CONTINUOUS
 62
     0
 10
-475.0
 20
963.0
 30
0.0
 11
-475.0
 21
1092.846244948189
 31
0.0
  0
LINE
  5
1FD5
  8
SIZE
  6
CONTINUOUS
 62
     0
 10
465.0
 20
1062.846244948189
 30
0.0
 11
-465.0
 21
1062.846244948189
 31
0.0
  0
TEXT
  5
1FD6
  8
SERVICESPACE
  6
CONTINUOUS
 62
     0
 10
-62.227070877198393
 20
1090.636169942768
 30
0.0
 40
64.0
  1
950
 41
0.9
  0
INSERT
  5
1FD7
  8
SIZE
  6
CONTINUOUS
 62
     0
  2
_DOTBLANK
 10
475.0
 20
1062.846244948189
 30
0.0
 41
10.0
 42
10.0
 43
10.0
  0
INSERT
  5
1FD8
  8
SIZE
  6
CONTINUOUS
 62
     0
  2
_ORIGIN
 10
-475.0
 20
1062.846244948189
 30
0.0
 41
10.0
 42
10.0
 43
10.0
 50
180.0
  0
POINT
  5
1FD9
  8
DEFPOINTS
  6
CONTINUOUS
 62
     0
 10
475.0
 20
943.0
 30
0.0
  0
POINT
  5
1FDA
  8
DEFPOINTS
  6
CONTINUOUS
 62
     0
 10
-475.0
 20
943.0
 30
0.0
  0
POINT
  5
1FDB
  8
DEFPOINTS
  6
CONTINUOUS
 62
     0
 10
-475.0
 20
1062.846244948189
 30
0.0
  0
ENDBLK
  5
1FD2
  8
0
  0
BLOCK
  8
0
  2
*D7
 70
     1
 10
0.0
 20
0.0
 30
0.0
  3
*D7
  1

  0
LINE
  5
1FEA
  8
SIZE
  6
CONTINUOUS
 62
     0
 10
495.0
 20
22.999999999999989
 30
0.0
 11
617.48247724767032
 21
22.999999999999961
 31
0.0
  0
LINE
  5
1FEB
  8
SIZE
  6
CONTINUOUS
 62
     0
 10
340.0
 20
-0.0000000000000057
 30
0.0
 11
617.48247724767032
 21
-0.0000000000000843
 31
0.0
  0
LINE
  5
1FEC
  8
SIZE
  6
CONTINUOUS
 62
     0
 10
587.48247724767032
 20
32.999999999999972
 30
0.0
 11
587.48247724767032
 21
42.999999999999972
 31
0.0
  0
LINE
  5
1FED
  8
SIZE
  6
CONTINUOUS
 62
     0
 10
587.48247724767032
 20
-10.000000000000069
 30
0.0
 11
587.48247724767032
 21
-20.000000000000071
 31
0.0
  0
TEXT
  5
1FEE
  8
SERVICESPACE
  6
CONTINUOUS
 62
     0
 10
570.95711160806604
 20
-135.1534375781012
 30
0.0
 40
64.0
  1
23
 50
90.0
 41
0.9
  0
LINE
  5
1FEF
  8
SIZE
  6
CONTINUOUS
 62
     0
 10
587.48247724767032
 20
22.999999999999961
 30
0.0
 11
587.48247724767032
 21
-0.0000000000000758
 31
0.0
  0
INSERT
  5
1FF0
  8
SIZE
  6
CONTINUOUS
 62
     0
  2
_DOTBLANK
 10
587.48247724767032
 20
22.999999999999961
 30
0.0
 41
10.0
 42
10.0
 43
10.0
 50
270.0
  0
INSERT
  5
1FF1
  8
SIZE
  6
CONTINUOUS
 62
     0
  2
_ORIGIN
 10
587.48247724767032
 20
-0.0000000000000758
 30
0.0
 41
10.0
 42
10.0
 43
10.0
 50
90.0
  0
POINT
  5
1FF2
  8
DEFPOINTS
  6
CONTINUOUS
 62
     0
 10
475.0
 20
23.0
 30
0.0
  0
POINT
  5
1FF3
  8
DEFPOINTS
  6
CONTINUOUS
 62
     0
 10
320.0
 20
0.0
 30
0.0
  0
POINT
  5
1FF4
  8
DEFPOINTS
  6
CONTINUOUS
 62
     0
 10
587.48247724767032
 20
-0.0000000000000758
 30
0.0
  0
ENDBLK
  5
1FE9
  8
0
  0
BLOCK
  8
0
  2
*D8
 70
     1
 10
0.0
 20
0.0
 30
0.0
  3
*D8
  1

  0
LINE
  5
2016
  8
SIZE
  6
CONTINUOUS
 62
     0
 10
340.0
 20
-0.0000000000000057
 30
0.0
 11
720.71520719633634
 21
-0.0000000000001135
 31
0.0
  0
LINE
  5
2017
  8
SIZE
  6
CONTINUOUS
 62
     0
 10
495.0
 20
943.0
 30
0.0
 11
720.71520719633645
 21
943.0
 31
0.0
  0
LINE
  5
2018
  8
SIZE
  6
CONTINUOUS
 62
     0
 10
690.71520719633634
 20
9.9999999999998952
 30
0.0
 11
690.71520719633645
 21
933.0
 31
0.0
  0
TEXT
  5
2019
  8
SERVICESPACE
  6
CONTINUOUS
 62
     0
 10
657.27031518106014
 20
422.9665831854864
 30
0.0
 40
64.0
  1
943
 50
90.0
 41
0.9
  0
INSERT
  5
201A
  8
SIZE
  6
CONTINUOUS
 62
     0
  2
_DOTBLANK
 10
690.71520719633634
 20
-0.000000000000105
 30
0.0
 41
10.0
 42
10.0
 43
10.0
 50
270.0
  0
INSERT
  5
201B
  8
SIZE
  6
CONTINUOUS
 62
     0
  2
_ORIGIN
 10
690.71520719633645
 20
943.0
 30
0.0
 41
10.0
 42
10.0
 43
10.0
 50
90.0
  0
POINT
  5
201C
  8
DEFPOINTS
  6
CONTINUOUS
 62
     0
 10
320.0
 20
0.0
 30
0.0
  0
POINT
  5
201D
  8
DEFPOINTS
  6
CONTINUOUS
 62
     0
 10
475.0
 20
943.0
 30
0.0
  0
POINT
  5
201E
  8
DEFPOINTS
  6
CONTINUOUS
 62
     0
 10
690.71520719633645
 20
943.0
 30
0.0
  0
ENDBLK
  5
2001
  8
0
  0
BLOCK
  8
0
  2
*D9
 70
     1
 10
0.0
 20
0.0
 30
0.0
  3
*D9
  1

  0
LINE
  5
202D
  8
SIZE
  6
CONTINUOUS
 62
     0
 10
300.0
 20
-40.0
 30
0.0
 11
300.0
 21
-436.34640411009718
 31
0.0
  0
LINE
  5
202E
  8
SIZE
  6
CONTINUOUS
 62
     0
 10
475.0
 20
3.0
 30
0.0
 11
475.0
 21
-436.34640411009718
 31
0.0
  0
LINE
  5
202F
  8
SIZE
  6
CONTINUOUS
 62
     0
 10
310.0
 20
-406.3464041100973
 30
0.0
 11
465.0
 21
-406.3464041100973
 31
0.0
  0
TEXT
  5
2030
  8
SERVICESPACE
  6
CONTINUOUS
 62
     0
 10
319.33758179385842
 20
-373.23531053763048
 30
0.0
 40
64.0
  1
175
 41
0.9
  0
INSERT
  5
2031
  8
SIZE
  6
CONTINUOUS
 62
     0
  2
_DOTBLANK
 10
300.0
 20
-406.3464041100973
 30
0.0
 41
10.0
 42
10.0
 43
10.0
 50
180.0
  0
INSERT
  5
2032
  8
SIZE
  6
CONTINUOUS
 62
     0
  2
_ORIGIN
 10
475.0
 20
-406.3464041100973
 30
0.0
 41
10.0
 42
10.0
 43
10.0
  0
POINT
  5
2033
  8
DEFPOINTS
  6
CONTINUOUS
 62
     0
 10
300.0
 20
-20.0
 30
0.0
  0
POINT
  5
2034
  8
DEFPOINTS
  6
CONTINUOUS
 62
     0
 10
475.0
 20
23.0
 30
0.0
  0
POINT
  5
2035
  8
DEFPOINTS
  6
CONTINUOUS
 62
     0
 10
475.0
 20
-406.3464041100973
 30
0.0
  0
ENDBLK
  5
202C
  8
0
  0
BLOCK
  8
0
  2
*D10
 70
     1
 10
0.0
 20
0.0
 30
0.0
  3
*D10
  1

  0
LINE
  5
2044
  8
SIZE
  6
CONTINUOUS
 62
     0
 10
-300.0
 20
-40.0
 30
0.0
 11
-300.0
 21
-436.34640411009718
 31
0.0
  0
LINE
  5
2045
  8
SIZE
  6
CONTINUOUS
 62
     0
 10
-475.0
 20
3.0
 30
0.0
 11
-475.0
 21
-436.34640411009718
 31
0.0
  0
LINE
  5
2046
  8
SIZE
  6
CONTINUOUS
 62
     0
 10
-310.0
 20
-406.3464041100973
 30
0.0
 11
-465.0
 21
-406.3464041100973
 31
0.0
  0
TEXT
  5
2047
  8
SERVICESPACE
  6
CONTINUOUS
 62
     0
 10
-466.72905853332401
 20
-379.39897760774232
 30
0.0
 40
64.0
  1
175
 41
0.9
  0
INSERT
  5
2048
  8
SIZE
  6
CONTINUOUS
 62
     0
  2
_DOTBLANK
 10
-300.0
 20
-406.3464041100973
 30
0.0
 41
10.0
 42
10.0
 43
10.0
  0
INSERT
  5
2049
  8
SIZE
  6
CONTINUOUS
 62
     0
  2
_ORIGIN
 10
-475.0
 20
-406.3464041100973
 30
0.0
 41
10.0
 42
10.0
 43
10.0
 50
180.0
  0
POINT
  5
204A
  8
DEFPOINTS
  6
CONTINUOUS
 62
     0
 10
-300.0
 20
-20.0
 30
0.0
  0
POINT
  5
204B
  8
DEFPOINTS
  6
CONTINUOUS
 62
     0
 10
-475.0
 20
23.0
 30
0.0
  0
POINT
  5
204C
  8
DEFPOINTS
  6
CONTINUOUS
 62
     0
 10
-475.0
 20
-406.3464041100973
 30
0.0
  0
ENDBLK
  5
2043
  8
0
  0
BLOCK
  8
0
  2
*D11
 70
     1
 10
0.0
 20
0.0
 30
0.0
  3
*D11
  1

  0
LINE
  5
2059
  8
SIZE
  6
CONTINUOUS
 62
     0
 10
300.0
 20
-40.0
 30
0.0
 11
300.0
 21
-436.34640411009718
 31
0.0
  0
LINE
  5
205A
  8
SIZE
  6
CONTINUOUS
 62
     0
 10
-300.0
 20
-40.0
 30
0.0
 11
-300.0
 21
-436.34640411009718
 31
0.0
  0
LINE
  5
205B
  8
SIZE
  6
CONTINUOUS
 62
     0
 10
290.0
 20
-406.3464041100973
 30
0.0
 11
-290.0
 21
-406.3464041100973
 31
0.0
  0
TEXT
  5
205C
  8
SERVICESPACE
  6
CONTINUOUS
 62
     0
 10
-62.227070877198358
 20
-382.4808111427983
 30
0.0
 40
64.0
  1
600
 41
0.9
  0
INSERT
  5
205D
  8
SIZE
  6
CONTINUOUS
 62
     0
  2
_DOTBLANK
 10
300.0
 20
-406.3464041100973
 30
0.0
 41
10.0
 42
10.0
 43
10.0
  0
INSERT
  5
205E
  8
SIZE
  6
CONTINUOUS
 62
     0
  2
_ORIGIN
 10
-300.0
 20
-406.3464041100973
 30
0.0
 41
10.0
 42
10.0
 43
10.0
 50
180.0
  0
POINT
  5
205F
  8
DEFPOINTS
  6
CONTINUOUS
 62
     0
 10
300.0
 20
-20.0
 30
0.0
  0
POINT
  5
2060
  8
DEFPOINTS
  6
CONTINUOUS
 62
     0
 10
-300.0
 20
-20.0
 30
0.0
  0
POINT
  5
2061
  8
DEFPOINTS
  6
CONTINUOUS
 62
     0
 10
-300.0
 20
-406.3464041100973
 30
0.0
  0
ENDBLK
  5
2058
  8
0
  0
BLOCK
  8
0
  2
*D12
 70
     1
 10
0.0
 20
0.0
 30
0.0
  3
*D12
  1

  0
LINE
  5
206E
  8
SIZE
  6
CONTINUOUS
 62
     0
 10
-475.0
 20
3.0
 30
0.0
 11
-475.0
 21
-573.01396200505167
 31
0.0
  0
LINE
  5
206F
  8
SIZE
  6
CONTINUOUS
 62
     0
 10
475.0
 20
3.0
 30
0.0
 11
474.99999999999989
 21
-573.01396200505167
 31
0.0
  0
LINE
  5
2070
  8
SIZE
  6
CONTINUOUS
 62
     0
 10
-465.0
 20
-543.01396200505178
 30
0.0
 11
464.99999999999989
 21
-543.01396200505178
 31
0.0
  0
TEXT
  5
2071
  8
SERVICESPACE
  6
CONTINUOUS
 62
     0
 10
-77.640137933843036
 20
-511.9178668719041
 30
0.0
 40
64.0
  1
950
 41
0.9
  0
INSERT
  5
2072
  8
SIZE
  6
CONTINUOUS
 62
     0
  2
_DOTBLANK
 10
-475.0
 20
-543.01396200505178
 30
0.0
 41
10.0
 42
10.0
 43
10.0
 50
180.0
  0
INSERT
  5
2073
  8
SIZE
  6
CONTINUOUS
 62
     0
  2
_ORIGIN
 10
474.99999999999989
 20
-543.01396200505178
 30
0.0
 41
10.0
 42
10.0
 43
10.0
  0
POINT
  5
2074
  8
DEFPOINTS
  6
CONTINUOUS
 62
     0
 10
-475.0
 20
23.0
 30
0.0
  0
POINT
  5
2075
  8
DEFPOINTS
  6
CONTINUOUS
 62
     0
 10
475.0
 20
23.0
 30
0.0
  0
POINT
  5
2076
  8
DEFPOINTS
  6
CONTINUOUS
 62
     0
 10
474.99999999999989
 20
-543.01396200505178
 30
0.0
  0
ENDBLK
  5
206D
  8
0
  0
ENDSEC
  0
SECTION
  2
ENTITIES
  0
TEXT
  5
1F7D
  8
ETC
  6
CONTINUOUS
 10
915.72048316111693
 20
1104.93077528509
 30
0.0
 40
64.0
  1
SMPU2933
 41
0.9
  0
TEXT
  5
1F7E
  8
ETC
  6
CONTINUOUS
 10
927.54322616111745
 20
985.7641742850908
 30
0.0
 40
64.0
  1
室外機
 41
0.9
  0
DIMENSION
  5
1F7F
  8
SIZE
  6
CONTINUOUS
  2
*D6
 10
-475.0
 20
1062.846244948189
 30
0.0
 11
11.830071979944471
 21
1122.636169942768
 31
0.0
 70
   128
 13
475.0
 23
943.0
 33
0.0
 14
-475.0
 24
943.0
 34
0.0
 50
180.0
1001
ACAD
1000
DSTYLE
1002
{
1070
   287
1070
     0
1070
    41
1040
10.0
1070
    42
1040
20.0
1070
    43
1040
200.0
1070
    44
1040
30.0
1070
    73
1070
     0
1070
    74
1070
     0
1070
    77
1070
     1
1070
    78
1070
     8
1070
   140
1040
64.0
1070
   147
1040
20.0
1070
   172
1070
     1
1070
   173
1070
     1
1070
   271
1070
     0
1070
   272
1070
     0
1070
   289
1070
     0
1070
   341
1005
719
1070
     6
1000
DOTBLANK
1070
     7
1000
ORIGIN
1002
}
  0
DIMENSION
  5
1F80
  8
SIZE
  6
CONTINUOUS
  2
*D12
 10
474.99999999999989
 20
-543.01396200505178
 30
0.0
 11
-3.582995076700171
 21
-479.9178668719041
 31
0.0
 70
   128
 13
-475.0
 23
23.0
 33
0.0
 14
475.0
 24
23.0
 34
0.0
 50
180.0
1001
ACAD
1000
DSTYLE
1002
{
1070
   287
1070
     0
1070
    41
1040
10.0
1070
    42
1040
20.0
1070
    43
1040
200.0
1070
    44
1040
30.0
1070
    73
1070
     0
1070
    74
1070
     0
1070
    77
1070
     1
1070
    78
1070
     8
1070
   140
1040
64.0
1070
   147
1040
20.0
1070
   172
1070
     1
1070
   173
1070
     1
1070
   271
1070
     0
1070
   272
1070
     0
1070
   289
1070
     0
1070
   341
1005
719
1070
     6
1000
DOTBLANK
1070
     7
1000
ORIGIN
1002
}
  0
DIMENSION
  5
1F81
  8
SIZE
  6
CONTINUOUS
  2
*D9
 10
475.0
 20
-406.3464041100973
 30
0.0
 11
387.90901036528697
 21
-341.23531053763048
 31
0.0
 70
   128
 13
300.0
 23
-20.0
 33
0.0
 14
475.0
 24
23.0
 34
0.0
 50
180.0
1001
ACAD
1000
DSTYLE
1002
{
1070
   287
1070
     0
1070
    41
1040
10.0
1070
    42
1040
20.0
1070
    43
1040
200.0
1070
    44
1040
30.0
1070
    73
1070
     0
1070
    74
1070
     0
1070
    77
1070
     1
1070
    78
1070
     8
1070
   140
1040
64.0
1070
   147
1040
20.0
1070
   172
1070
     1
1070
   173
1070
     1
1070
   271
1070
     0
1070
   272
1070
     0
1070
   289
1070
     0
1070
   341
1005
719
1070
     6
1000
DOTBLANK
1070
     7
1000
ORIGIN
1002
}
  0
LINE
  5
1F82
  8
NOTE
  6
CONTINUOUS
 10
300.0
 20
0.0
 30
0.0
 11
530.54007180849749
 21
-274.23268227694132
 31
0.0
  0
DIMENSION
  5
1F83
  8
SIZE
  6
CONTINUOUS
  2
*D8
 10
690.71520719633645
 20
943.0
 30
0.0
 11
625.27031518106014
 21
497.02372604262922
 31
0.0
 70
   128
 13
320.0
 23
0.0
 33
0.0
 14
475.0
 24
943.0
 34
0.0
 50
90.0
1001
ACAD
1000
DSTYLE
1002
{
1070
   287
1070
     0
1070
    41
1040
10.0
1070
    42
1040
20.0
1070
    43
1040
200.0
1070
    44
1040
30.0
1070
    73
1070
     0
1070
    74
1070
     0
1070
    77
1070
     1
1070
    78
1070
     8
1070
   140
1040
64.0
1070
   147
1040
20.0
1070
   172
1070
     1
1070
   173
1070
     1
1070
   271
1070
     0
1070
   272
1070
     0
1070
   289
1070
     0
1070
   341
1005
719
1070
     6
1000
DOTBLANK
1070
     7
1000
ORIGIN
1002
}
  0
DIMENSION
  5
1F84
  8
SIZE
  6
CONTINUOUS
  2
*D7
 10
587.48247724767032
 20
-0.0000000000000758
 30
0.0
 11
538.95711160806604
 21
-88.524866149529785
 31
0.0
 70
   128
 13
475.0
 23
23.0
 33
0.0
 14
320.0
 24
0.0
 34
0.0
 50
90.0
1001
ACAD
1000
DSTYLE
1002
{
1070
   287
1070
     0
1070
    41
1040
10.0
1070
    42
1040
20.0
1070
    43
1040
200.0
1070
    44
1040
30.0
1070
    73
1070
     0
1070
    74
1070
     0
1070
    77
1070
     1
1070
    78
1070
     8
1070
   140
1040
64.0
1070
   147
1040
20.0
1070
   172
1070
     1
1070
   173
1070
     1
1070
   271
1070
     0
1070
   272
1070
     0
1070
   289
1070
     0
1070
   341
1005
719
1070
     6
1000
DOTBLANK
1070
     7
1000
ORIGIN
1002
}
  0
LINE
  5
1F85
  8
DETAIL
  6
CONTINUOUS
 10
475.0
 20
943.0
 30
0.0
 11
-475.0
 21
943.0
 31
0.0
  0
LINE
  5
1F86
  8
DETAIL
  6
CONTINUOUS
 10
-475.0
 20
23.0
 30
0.0
 11
475.0
 21
23.0
 31
0.0
  0
LINE
  5
1F87
  8
DETAIL
  6
CONTINOUS
 10
475.0
 20
23.0
 30
0.0
 11
475.0
 21
943.0
 31
0.0
  0
DIMENSION
  5
1F88
  8
SIZE
  6
CONTINUOUS
  2
*D10
 10
-475.0
 20
-406.3464041100973
 30
0.0
 11
-398.1576299618954
 21
-347.39897760774238
 31
0.0
 70
   128
 13
-300.0
 23
-20.0
 33
0.0
 14
-475.0
 24
23.0
 34
0.0
 50
180.0
1001
ACAD
1000
DSTYLE
1002
{
1070
   287
1070
     0
1070
    41
1040
10.0
1070
    42
1040
20.0
1070
    43
1040
200.0
1070
    44
1040
30.0
1070
    73
1070
     0
1070
    74
1070
     0
1070
    77
1070
     1
1070
    78
1070
     8
1070
   140
1040
64.0
1070
   147
1040
20.0
1070
   172
1070
     1
1070
   173
1070
     1
1070
   271
1070
     0
1070
   272
1070
     0
1070
   289
1070
     0
1070
   341
1005
719
1070
     6
1000
DOTBLANK
1070
     7
1000
ORIGIN
1002
}
  0
LINE
  5
1F89
  8
BASIS
  6
DASHDOT
 10
0.0
 20
985.82556143500028
 30
0.0
 11
0.0
 21
-80.029089744999965
 31
0.0
  0
LINE
  5
1F8A
  8
DETAIL
  6
CONTINOUS
 10
-316.0
 20
22.999999999999542
 30
0.0
 11
-316.0
 21
0.0
 31
0.0
  0
LINE
  5
1F8B
  8
DETAIL
  6
CONTINOUS
 10
-284.0
 20
22.999999999999542
 30
0.0
 11
-284.0
 21
0.0
 31
0.0
  0
CIRCLE
  5
1F8C
  8
FIX
  6
CONTINUOUS
 10
-300.0
 20
0.0
 30
0.0
 40
40.0
  0
CIRCLE
  5
1F8D
  8
ARRANGE
  6
CONTINUOUS
 10
0.0
 20
0.0
 30
0.0
 40
40.0
  0
LINE
  5
1F8E
  8
DETAIL
  6
CONTINOUS
 10
316.0
 20
22.999999999999542
 30
0.0
 11
316.0
 21
0.0
 31
0.0
  0
LINE
  5
1F8F
  8
DETAIL
  6
CONTINOUS
 10
284.0
 20
22.999999999999542
 30
0.0
 11
284.0
 21
0.0
 31
0.0
  0
CIRCLE
  5
1F90
  8
FIX
  6
CONTINUOUS
 10
300.0
 20
0.0
 30
0.0
 40
40.0
  0
POINT
  5
1F91
  8
ARRANGE
  6
CONTINUOUS
 10
0.0
 20
0.0
 30
0.0
  0
DIMENSION
  5
1F92
  8
SIZE
  6
CONTINUOUS
  2
*D11
 10
-300.0
 20
-406.3464041100973
 30
0.0
 11
11.830071979944471
 21
-350.48081114279819
 31
0.0
 70
   128
 13
300.0
 23
-20.0
 33
0.0
 14
-300.0
 24
-20.0
 34
0.0
 50
180.0
1001
ACAD
1000
DSTYLE
1002
{
1070
   287
1070
     0
1070
    41
1040
10.0
1070
    42
1040
20.0
1070
    43
1040
200.0
1070
    44
1040
30.0
1070
    73
1070
     0
1070
    74
1070
     0
1070
    77
1070
     1
1070
    78
1070
     8
1070
   140
1040
64.0
1070
   147
1040
20.0
1070
   172
1070
     1
1070
   173
1070
     1
1070
   271
1070
     0
1070
   272
1070
     0
1070
   289
1070
     0
1070
   341
1005
719
1070
     6
1000
DOTBLANK
1070
     7
1000
ORIGIN
1002
}
  0
POLYLINE
  5
1F93
  8
NOTE
  6
CONTINUOUS
 66
     1
 10
0.0
 20
0.0
 30
0.0
  0
VERTEX
  5
209C
  8
NOTE
  6
CONTINUOUS
 10
317.21532719432162
 20
-36.105851700936903
 30
0.0
  0
VERTEX
  5
209D
  8
NOTE
  6
CONTINUOUS
 10
300.0
 20
0.0
 30
0.0
  0
VERTEX
  5
209E
  8
NOTE
  6
CONTINUOUS
 10
332.96183612112873
 20
-22.660921497029889
 30
0.0
  0
SEQEND
  5
209F
  8
NOTE
  6
CONTINUOUS
  0
LINE
  5
1F98
  8
NOTE
  6
CONTINOUS
 10
300.0
 20
20.0
 30
0.0
 11
300.0
 21
-20.0
 31
0.0
  0
LINE
  5
1F99
  8
DETAIL
  6
CONTINOUS
 10
316.0
 20
0.0
 30
0.0
 11
284.0
 21
0.0
 31
0.0
  0
LINE
  5
1F9A
  8
NOTE
  6
CONTINOUS
 10
320.0
 20
0.0
 30
0.0
 11
280.0
 21
0.0
 31
0.0
  0
LINE
  5
1F9B
  8
NOTE
  6
CONTINOUS
 10
-300.0
 20
20.0
 30
0.0
 11
-300.0
 21
-20.0
 31
0.0
  0
LINE
  5
1F9C
  8
NOTE
  6
CONTINOUS
 10
-280.0
 20
0.0
 30
0.0
 11
-320.0
 21
0.0
 31
0.0
  0
LINE
  5
1F9D
  8
DETAIL
  6
CONTINOUS
 10
-284.0
 20
0.0
 30
0.0
 11
-316.0
 21
0.0
 31
0.0
  0
LINE
  5
1F9E
  8
NOTE
  6
CONTINOUS
 10
-275.0
 20
653.0
 30
0.0
 11
-275.0
 21
693.0
 31
0.0
  0
LINE
  5
1F9F
  8
NOTE
  6
CONTINOUS
 10
-295.0
 20
673.0
 30
0.0
 11
-255.0
 21
673.0
 31
0.0
  0
LINE
  5
1FA0
  8
DETAIL
  6
CONTINOUS
 10
-475.0
 20
23.0
 30
0.0
 11
-475.0
 21
943.0
 31
0.0
  0
LINE
  5
1FA1
  8
NOTE
  6
CONTINUOUS
 10
1074.146313300688
 20
-274.23268227694132
 30
0.0
 11
530.54007180849749
 21
-274.23268227694132
 31
0.0
  0
TEXT
  5
1FA2
  8
NOTE
  6
CONTINUOUS
 10
555.77228337992597
 20
-259.13038127694142
 30
0.0
 40
64.0
  1
AH 2-U cut
 41
0.9
  0
LINE
  5
1FA3
  8
OUTLINE
 10
-475.0
 20
23.0
 30
0.0
 11
475.0
 21
23.0
 31
0.0
  0
LINE
  5
1FA4
  8
OUTLINE
 10
475.0
 20
942.99999999999989
 30
0.0
 11
-475.0
 21
942.99999999999989
 31
0.0
  0
LINE
  5
1FA5
  8
OUTLINE
 10
-475.0
 20
23.0
 30
0.0
 11
-475.0
 21
942.99999999999989
 31
0.0
  0
LINE
  5
1FA6
  8
OUTLINE
 10
-284.0
 20
22.999999999998181
 30
0.0
 11
-284.0
 21
0.0
 31
0.0
  0
LINE
  5
1FA7
  8
OUTLINE
 10
-316.0
 20
22.999999999998181
 30
0.0
 11
-316.0
 21
0.0
 31
0.0
  0
LINE
  5
1FA8
  8
OUTLINE
 10
-284.0
 20
0.0
 30
0.0
 11
-316.0
 21
0.0
 31
0.0
  0
LINE
  5
1FA9
  8
OUTLINE
 10
284.0
 20
22.999999999998181
 30
0.0
 11
284.0
 21
0.0
 31
0.0
  0
LINE
  5
1FAA
  8
OUTLINE
 10
316.0
 20
22.999999999998181
 30
0.0
 11
316.0
 21
0.0
 31
0.0
  0
LINE
  5
1FAB
  8
OUTLINE
 10
316.0
 20
0.0
 30
0.0
 11
284.0
 21
0.0
 31
0.0
  0
LINE
  5
1FAC
  8
OUTLINE
 10
475.0
 20
23.0
 30
0.0
 11
475.0
 21
942.99999999999989
 31
0.0
  0
LINE
  5
1FAD
  8
NOTE
  6
CONTINOUS
 10
-447.0
 20
418.0
 30
0.0
 11
-407.0
 21
418.0
 31
0.0
  0
LINE
  5
1FAE
  8
NOTE
  6
CONTINOUS
 10
-427.0
 20
398.0
 30
0.0
 11
-427.0
 21
438.0
 31
0.0
  0
LINE
  5
1FAF
  8
NOTE
  6
CONTINOUS
 10
-367.0
 20
426.0
 30
0.0
 11
-367.0
 21
466.0
 31
0.0
  0
LINE
  5
1FB0
  8
NOTE
  6
CONTINOUS
 10
-387.0
 20
446.0
 30
0.0
 11
-347.0
 21
446.0
 31
0.0
  0
ENDSEC
  0
EOF
