  0
SECTION
  2
HEADER
  9
$ACADVER
  1
AC1009
  9
$INSBASE
 10
0.0
 20
0.0
 30
0.0
  9
$EXTMIN
 10
-984.87190399999895
 20
-500.47583155258081
 30
0.0
  9
$EXTMAX
 10
1207.7274247923281
 20
1399.8633910248809
 30
0.0
  9
$LIMMIN
 10
-1361.201716492385
 20
-741.53262487080417
  9
$LIMMAX
 10
1601.3552917327561
 20
1629.4786176858449
  9
$ORTHOMODE
 70
     1
  9
$REGENMODE
 70
     1
  9
$FILLMODE
 70
     1
  9
$QTEXTMODE
 70
     0
  9
$MIRRTEXT
 70
     0
  9
$DRAGMODE
 70
     2
  9
$LTSCALE
 40
20.0
  9
$OSMODE
 70
    37
  9
$ATTMODE
 70
     1
  9
$TEXTSIZE
 40
64.0
  9
$TRACEWID
 40
0.05
  9
$TEXTSTYLE
  7
STANDARD
  9
$CLAYER
  8
SIZE
  9
$CELTYPE
  6
CONTINUOUS
  9
$CECOLOR
 62
   256
  9
$DIMSCALE
 40
1.0
  9
$DIMASZ
 40
10.0
  9
$DIMEXO
 40
20.0
  9
$DIMDLI
 40
200.0
  9
$DIMRND
 40
0.0
  9
$DIMDLE
 40
0.0
  9
$DIMEXE
 40
30.0
  9
$DIMTP
 40
0.0
  9
$DIMTM
 40
0.0
  9
$DIMTXT
 40
64.0
  9
$DIMCEN
 40
0.09
  9
$DIMTSZ
 40
0.0
  9
$DIMTOL
 70
     0
  9
$DIMLIM
 70
     0
  9
$DIMTIH
 70
     0
  9
$DIMTOH
 70
     0
  9
$DIMSE1
 70
     0
  9
$DIMSE2
 70
     0
  9
$DIMTAD
 70
     1
  9
$DIMZIN
 70
     8
  9
$DIMBLK
  1

  9
$DIMASO
 70
     1
  9
$DIMSHO
 70
     0
  9
$DIMPOST
  1

  9
$DIMAPOST
  1

  9
$DIMALT
 70
     0
  9
$DIMALTD
 70
     2
  9
$DIMALTF
 40
25.399999999999999
  9
$DIMLFAC
 40
1.0
  9
$DIMTOFL
 70
     1
  9
$DIMTVP
 40
0.0
  9
$DIMTIX
 70
     0
  9
$DIMSOXD
 70
     0
  9
$DIMSAH
 70
     1
  9
$DIMBLK1
  1
DOTBLANK
  9
$DIMBLK2
  1
ORIGIN
  9
$DIMSTYLE
  2
STANDARD
  9
$DIMCLRD
 70
     0
  9
$DIMCLRE
 70
     0
  9
$DIMCLRT
 70
     0
  9
$DIMTFAC
 40
1.0
  9
$DIMGAP
 40
20.0
  9
$LUNITS
 70
     2
  9
$LUPREC
 70
     4
  9
$SKETCHINC
 40
0.1
  9
$FILLETRAD
 40
6.0
  9
$AUNITS
 70
     1
  9
$AUPREC
 70
     3
  9
$MENU
  1
ACAD
  9
$ELEVATION
 40
0.0
  9
$PELEVATION
 40
0.0
  9
$THICKNESS
 40
0.0
  9
$LIMCHECK
 70
     0
  9
$BLIPMODE
 70
     0
  9
$CHAMFERA
 40
0.0
  9
$CHAMFERB
 40
0.0
  9
$SKPOLY
 70
     0
  9
$TDCREATE
 40
2450330.3932059952
  9
$TDUPDATE
 40
2453256.5846887962
  9
$TDINDWG
 40
0.5466334606
  9
$TDUSRTIMER
 40
0.5466333449
  9
$USRTIMER
 70
     1
  9
$ANGBASE
 50
0.0
  9
$ANGDIR
 70
     0
  9
$PDMODE
 70
     3
  9
$PDSIZE
 40
-2.0
  9
$PLINEWID
 40
0.0
  9
$COORDS
 70
     1
  9
$SPLFRAME
 70
     0
  9
$SPLINETYPE
 70
     6
  9
$SPLINESEGS
 70
     8
  9
$ATTDIA
 70
     0
  9
$ATTREQ
 70
     1
  9
$HANDLING
 70
-16383
  9
$HANDSEED
  5
223C
  9
$SURFTAB1
 70
     6
  9
$SURFTAB2
 70
     6
  9
$SURFTYPE
 70
     6
  9
$SURFU
 70
     6
  9
$SURFV
 70
     6
  9
$UCSNAME
  2

  9
$UCSORG
 10
0.0
 20
0.0
 30
0.0
  9
$UCSXDIR
 10
1.0
 20
0.0
 30
0.0
  9
$UCSYDIR
 10
0.0
 20
1.0
 30
0.0
  9
$PUCSNAME
  2

  9
$PUCSORG
 10
0.0
 20
0.0
 30
0.0
  9
$PUCSXDIR
 10
1.0
 20
0.0
 30
0.0
  9
$PUCSYDIR
 10
0.0
 20
1.0
 30
0.0
  9
$USERI1
 70
     0
  9
$USERI2
 70
     0
  9
$USERI3
 70
     0
  9
$USERI4
 70
     0
  9
$USERI5
 70
     0
  9
$USERR1
 40
20.0
  9
$USERR2
 40
0.0
  9
$USERR3
 40
0.0
  9
$USERR4
 40
0.0
  9
$USERR5
 40
0.0
  9
$WORLDVIEW
 70
     1
  9
$SHADEDGE
 70
     3
  9
$SHADEDIF
 70
    70
  9
$TILEMODE
 70
     1
  9
$MAXACTVP
 70
    64
  9
$PLIMCHECK
 70
     0
  9
$PEXTMIN
 10
1.0000000000000000E+020
 20
1.0000000000000000E+020
 30
1.0000000000000000E+020
  9
$PEXTMAX
 10
-1.0000000000000000E+020
 20
-1.0000000000000000E+020
 30
-1.0000000000000000E+020
  9
$PLIMMIN
 10
0.0
 20
0.0
  9
$PLIMMAX
 10
12.0
 20
9.0
  9
$UNITMODE
 70
     0
  9
$VISRETAIN
 70
     1
  9
$PLINEGEN
 70
     0
  9
$PSLTSCALE
 70
     1
  0
ENDSEC
  0
SECTION
  2
TABLES
  0
TABLE
  2
VPORT
 70
     2
  0
VPORT
  2
*ACTIVE
 70
     0
 10
0.0
 20
0.0
 11
1.0
 21
1.0
 12
195.44892424400859
 22
457.29213604614051
 13
0.0
 23
0.0
 14
50.0
 24
50.0
 15
100.0
 25
100.0
 16
0.0
 26
0.0
 36
1.0
 17
0.0
 27
0.0
 37
0.0
 40
2737.2404539163672
 41
1.2721893491124261
 42
50.0
 43
0.0
 44
0.0
 50
0.0
 51
0.0
 71
     0
 72
   500
 73
     1
 74
     0
 75
     0
 76
     0
 77
     0
 78
     0
  0
ENDTAB
  0
TABLE
  2
LTYPE
 70
     8
  0
LTYPE
  2
CONTINUOUS
 70
     0
  3
実線
 72
    65
 73
     0
 40
0.0
  0
LTYPE
  2
DASHDOT
 70
     0
  3
____ _ ____ _ ____ _ ____ _ ____ _ ____ _ ____
 72
    65
 73
     4
 40
5.5
 49
4.0
 49
-0.6
 49
0.3
 49
-0.6
  0
LTYPE
  2
CONTINOUS
 70
     0
  3
Solid line
 72
    65
 73
     0
 40
0.0
  0
LTYPE
  2
DASHED
 70
     0
  3
_ _ _ _ _ _ _ _ _ _ _ _ _ _ _ _ _ _ _ _ _ _ _
 72
    65
 73
     2
 40
2.0
 49
1.1999999999999991
 49
-0.8
  0
LTYPE
  2
DOT
 70
     0
  3
...............................................
 72
    65
 73
     2
 40
0.8
 49
0.5
 49
-0.3
  0
LTYPE
  2
DASHDOT1
 70
     0
  3
____ _ ____ _ ____ _ ____ _ ____ _ ____ _ ____
 72
    65
 73
     4
 40
2.0
 49
1.5
 49
-0.2
 49
0.1
 49
-0.2
  0
LTYPE
  2
DIVIDE
 70
     0
  3
_____ _ _ _____ _ _ _____ _ _ _____ _ _ ____
 72
    65
 73
     6
 40
6.4000000000000004
 49
4.0
 49
-0.6
 49
0.3
 49
-0.6
 49
0.3
 49
-0.6
  0
LTYPE
  2
DIVIDE1
 70
     0
  3
_____ _ _ _____ _ _ _____ _ _ _____ _ _ ____
 72
    65
 73
     6
 40
3.2000000000000002
 49
2.0
 49
-0.3
 49
0.15
 49
-0.3
 49
0.15
 49
-0.3
  0
ENDTAB
  0
TABLE
  2
LAYER
 70
    12
  0
LAYER
  2
0
 70
     0
 62
     7
  6
CONTINUOUS
  0
LAYER
  2
SERVICESPACE
 70
     0
 62
     2
  6
CONTINUOUS
  0
LAYER
  2
DETAIL
 70
     0
 62
     5
  6
CONTINUOUS
  0
LAYER
  2
OUTLINE
 70
     0
 62
     3
  6
CONTINUOUS
  0
LAYER
  2
BASIS
 70
     0
 62
     6
  6
CONTINUOUS
  0
LAYER
  2
SIZE
 70
     0
 62
    32
  6
CONTINUOUS
  0
LAYER
  2
NOTE
 70
     0
 62
     4
  6
CONTINUOUS
  0
LAYER
  2
ARRANGE
 70
     0
 62
     1
  6
CONTINUOUS
  0
LAYER
  2
FIX
 70
     0
 62
   241
  6
CONTINUOUS
  0
LAYER
  2
ETC
 70
     0
 62
    83
  6
CONTINUOUS
  0
LAYER
  2
SYMBOLLINE
 70
     0
 62
    38
  6
CONTINUOUS
  0
LAYER
  2
DEFPOINTS
 70
     0
 62
     7
  6
CONTINUOUS
  0
ENDTAB
  0
TABLE
  2
STYLE
 70
     2
  0
STYLE
  2
STANDARD
 70
     0
 40
0.0
 41
0.9
 50
0.0
 71
     0
 42
64.0
  3
SIMPLEX
  4
BIGFONT
  0
STYLE
  2
STANDARD1
 70
     0
 40
0.0
 41
1.0
 50
0.0
 71
     0
 42
3.2000000000000002
  3
MONOTXT
  4
BIGFONT
  0
ENDTAB
  0
TABLE
  2
VIEW
 70
     1
  0
VIEW
  2
ALL
 70
     0
 40
4282.6199999999999
 10
0.0
 20
41.309903999999989
 41
5940.0
 11
0.0
 21
0.0
 31
1.0
 12
0.0
 22
0.0
 32
0.0
 42
50.0
 43
0.0
 44
0.0
 50
0.0
 71
     0
  0
ENDTAB
  0
TABLE
  2
UCS
 70
     0
  0
ENDTAB
  0
TABLE
  2
APPID
 70
     1
  0
APPID
  2
ACAD
 70
     0
  0
ENDTAB
  0
TABLE
  2
DIMSTYLE
 70
     2
  0
DIMSTYLE
  2
STANDARD
 70
     0
  3

  4

  5

  6

  7

 40
1.0
 41
0.18
 42
0.0625
 43
0.38
 44
0.18
 45
0.0
 46
0.0
 47
0.0
 48
0.0
140
0.18
141
0.09
142
0.0
143
25.399999999999999
144
1.0
145
0.0
146
1.0
147
0.09
 71
     0
 72
     0
 73
     1
 74
     1
 75
     0
 76
     0
 77
     0
 78
     0
170
     0
171
     2
172
     0
173
     0
174
     0
175
     0
176
     0
177
     0
178
     0
  0
DIMSTYLE
  2
DMST_1
 70
     0
  3

  4

  5

  6

  7

 40
1.0
 41
20.0
 42
4.9999999999999991
 43
7.0
 44
15.0
 45
0.0
 46
0.0
 47
0.0
 48
0.0
140
32.0
141
0.0
142
0.0
143
25.399999999999999
144
1.0
145
0.0
146
1.0
147
0.09
 71
     0
 72
     0
 73
     0
 74
     0
 75
     0
 76
     0
 77
     1
 78
     9
170
     0
171
     2
172
     0
173
     0
174
     0
175
     0
176
     2
177
     2
178
     2
  0
ENDTAB
  0
ENDSEC
  0
SECTION
  2
BLOCKS
  0
BLOCK
  8
0
  2
$MODEL_SPACE
 70
     0
 10
0.0
 20
0.0
 30
0.0
  3
$MODEL_SPACE
  1

  0
ENDBLK
  5
1B24
  8
0
  0
BLOCK
 67
     1
  8
0
  2
$PAPER_SPACE
 70
     0
 10
0.0
 20
0.0
 30
0.0
  3
$PAPER_SPACE
  1

  0
ENDBLK
  5
1B20
 67
     1
  8
0
  0
BLOCK
  8
0
  2
A$C5F2C697A
 70
     0
 10
0.0
 20
0.0
 30
0.0
  3
A$C5F2C697A
  1

  0
TEXT
  5
1B48
  8
SIZE
  6
BYBLOCK
 10
910.8147643978815
 20
127.36127978650261
 30
0.0
 40
64.0
  1
370
 41
0.9
  0
LINE
  5
1B49
  8
SIZE
  6
BYBLOCK
 10
801.8719073978815
 20
95.361279786502593
 30
0.0
 11
1167.87190739788
 21
95.361279786502593
 31
0.0
  0
TEXT
  5
1B4A
  8
SIZE
  6
BYBLOCK
 10
915.81476439788139
 20
1424.5027517865019
 30
0.0
 40
64.0
  1
330
 41
0.9
  0
LINE
  5
1B4B
  8
SIZE
  6
BYBLOCK
 10
826.8719073978815
 20
1392.5027517865019
 30
0.0
 11
1152.87190739788
 21
1392.5027517865019
 31
0.0
  0
LINE
  5
1B4C
  8
OUTLINE
  6
CONTINUOUS
 10
771.8719063978815
 20
290.07775178650252
 30
0.0
 11
1183.871906397881
 21
290.07775178650252
 31
0.0
  0
LINE
  5
1B4D
  8
OUTLINE
  6
CONTINUOUS
 10
771.8719063978815
 20
323.07775178650252
 30
0.0
 11
1183.871906397881
 21
323.07775178650252
 31
0.0
  0
LINE
  5
1B4E
  8
OUTLINE
  6
CONTINUOUS
 10
824.87190639788139
 20
1145.0777517865019
 30
0.0
 11
1154.8719063978799
 21
1145.0777517865019
 31
0.0
  0
CIRCLE
  5
1B4F
  8
ARRANGE
  6
CONTINUOUS
 10
989.87190639788139
 20
290.07775178650252
 30
0.0
 40
40.0
  0
LINE
  5
1B50
  8
DETAIL
  6
CONTINOUS
 10
771.8719063978815
 20
290.07775178650252
 30
0.0
 11
1183.871906397881
 21
290.07775178650252
 31
0.0
  0
LINE
  5
1B51
  8
DETAIL
  6
CONTINOUS
 10
824.87190639788139
 20
1145.0777517865019
 30
0.0
 11
1154.8719063978799
 21
1145.0777517865019
 31
0.0
  0
TEXT
  5
1B52
  8
NOTE
  6
CONTINUOUS
 10
973.98087039788129
 20
913.84623078650259
 30
0.0
 40
64.0
  1
EL,CL
 41
0.9
  0
LINE
  5
1B53
  8
NOTE
  6
CONTINUOUS
 10
879.8719063978815
 20
686.07775178650252
 30
0.0
 11
1040.77148939788
 21
625.20405378650253
 31
0.0
  0
LINE
  5
1B54
  8
NOTE
  6
CONTINUOUS
 10
1205.83098439788
 20
895.38895978650271
 30
0.0
 11
918.87085639788165
 21
895.38895978650271
 31
0.0
  0
POINT
  5
1B55
  8
ARRANGE
  6
CONTINUOUS
 10
989.87190639788139
 20
290.07775178650252
 30
0.0
  0
LINE
  5
1B56
  8
DETAIL
  6
CONTINOUS
 10
771.8719063978815
 20
323.07775178650252
 30
0.0
 11
1183.871906397881
 21
323.07775178650252
 31
0.0
  0
LINE
  5
1B57
  8
NOTE
  6
CONTINUOUS
 10
882.87190639788139
 20
724.07775178650252
 30
0.0
 11
1040.77148939788
 21
812.30385178650238
 31
0.0
  0
CIRCLE
  5
1B58
  8
SIZE
  6
CONTINUOUS
 10
220.7875803978813
 20
290.07775178650252
 30
0.0
 40
6.0
  0
CIRCLE
  5
1B59
  8
SIZE
  6
CONTINUOUS
 10
503.55668139788139
 20
290.07775178650252
 30
0.0
 40
6.0
  0
CIRCLE
  5
1B5A
  8
SIZE
  6
CONTINUOUS
 10
649.74425839788148
 20
290.07775178650252
 30
0.0
 40
6.0
  0
CIRCLE
  5
1B5B
  8
SIZE
  6
CONTINUOUS
 10
350.83505539788138
 20
290.07775178650252
 30
0.0
 40
6.0
  0
LINE
  5
1B5C
  8
OUTLINE
  6
CONTINUOUS
 10
771.8719063978815
 20
290.07775178650252
 30
0.0
 11
771.8719063978815
 21
323.07775178650252
 31
0.0
  0
CIRCLE
  5
1B5D
  8
FIX
  6
CONTINUOUS
 10
799.8719063978815
 20
290.07775178650252
 30
0.0
 40
40.0
  0
LINE
  5
1B5E
  8
DETAIL
  6
CONTINOUS
 10
771.8719063978815
 20
290.07775178650252
 30
0.0
 11
771.8719063978815
 21
323.07775178650252
 31
0.0
  0
LINE
  5
1B5F
  8
BASIS
  6
DASHDOT
 10
989.87190639788139
 20
239.4419287865025
 30
0.0
 11
989.87190639788139
 21
1184.2961157865011
 31
0.0
  0
LINE
  5
1B60
  8
NOTE
  6
CONTINOUS
 10
799.8719063978815
 20
270.07775178650252
 30
0.0
 11
799.8719063978815
 21
310.07775178650252
 31
0.0
  0
LINE
  5
1B61
  8
NOTE
  6
CONTINUOUS
 10
0.0000023978816444
 20
-0.000002213497396
 30
0.0
 11
579.80680439788148
 21
-0.000002213497396
 31
0.0
  0
TEXT
  5
1B62
  8
NOTE
  6
CONTINUOUS
 10
14.78030739788152
 20
15.10229878650267
 30
0.0
 40
64.0
  1
AH 2-12×36
 41
0.9
  0
LINE
  5
1B63
  8
SIZE
  6
BYBLOCK
 10
715.70171039788136
 20
290.07775178650252
 30
0.0
 11
320.83505539788149
 21
290.07775178650252
 31
0.0
  0
LINE
  5
1B64
  8
SIZE
  6
BYBLOCK
 10
735.70171039788136
 20
290.07775178650252
 30
0.0
 11
473.55668139788128
 21
290.07775178650252
 31
0.0
  0
LINE
  5
1B65
  8
SIZE
  6
BYBLOCK
 10
735.70171039788136
 20
290.07775178650252
 30
0.0
 11
190.7875803978813
 21
290.07775178650252
 31
0.0
  0
LINE
  5
1B66
  8
NOTE
  6
CONTINUOUS
 10
579.80680439788148
 20
-0.000002213497396
 30
0.0
 11
799.8719063978815
 21
290.07775178650252
 31
0.0
  0
TEXT
  5
1B67
  8
SIZE
  6
BYBLOCK
 10
739.24333539788142
 20
127.36127978650261
 30
0.0
 40
64.0
  1
28
 41
0.9
  0
LINE
  5
1B68
  8
SIZE
  6
BYBLOCK
 10
735.70171039788136
 20
290.07775178650252
 30
0.0
 11
619.74425839788148
 21
290.07775178650252
 31
0.0
  0
LINE
  5
1B69
  8
SIZE
  6
BYBLOCK
 10
799.8719073978815
 20
250.0777517865026
 30
0.0
 11
799.8719073978815
 21
65.361279786502621
 31
0.0
  0
LINE
  5
1B6A
  8
SIZE
  6
BYBLOCK
 10
799.8719073978815
 20
250.0777517865026
 30
0.0
 11
799.8719073978815
 21
65.361279786502621
 31
0.0
  0
LINE
  5
1B6B
  8
SIZE
  6
BYBLOCK
 10
771.8719073978815
 20
270.07775178650252
 30
0.0
 11
771.8719073978815
 21
65.361279786502621
 31
0.0
  0
CIRCLE
  5
1B6C
  8
SIZE
  6
CONTINUOUS
 10
799.8719073978815
 20
95.361279786502593
 30
0.0
 40
6.0
  0
CIRCLE
  5
1B6D
  8
SIZE
  6
CONTINUOUS
 10
771.8719073978815
 20
95.361279786502593
 30
0.0
 40
6.0
  0
CIRCLE
  5
1B6E
  8
SIZE
  6
CONTINUOUS
 10
799.8719073978815
 20
95.361279786502593
 30
0.0
 40
6.0
  0
LINE
  5
1B6F
  8
SIZE
  6
BYBLOCK
 10
799.8719073978815
 20
95.361279786502593
 30
0.0
 11
771.8719073978815
 21
95.361279786502593
 31
0.0
  0
LINE
  5
1B70
  8
SIZE
  6
BYBLOCK
 10
769.8719073978815
 20
95.361279786502593
 30
0.0
 11
767.8719073978815
 21
95.361279786502593
 31
0.0
  0
LINE
  5
1B71
  8
SIZE
  6
BYBLOCK
 10
801.8719073978815
 20
95.361279786502593
 30
0.0
 11
803.87190739788139
 21
95.361279786502593
 31
0.0
  0
LINE
  5
1B72
  8
NOTE
  6
CONTINOUS
 10
779.8719063978815
 20
290.07775178650252
 30
0.0
 11
819.8719063978815
 21
290.07775178650252
 31
0.0
  0
LINE
  5
1B73
  8
NOTE
  6
CONTINUOUS
 10
799.8719063978815
 20
290.07775178650252
 30
0.0
 11
784.76766639788127
 21
253.0390967865026
 31
0.0
  0
LINE
  5
1B74
  8
NOTE
  6
CONTINUOUS
 10
799.8719063978815
 20
290.07775178650252
 30
0.0
 11
768.27192339788144
 21
265.55345678650252
 31
0.0
  0
LINE
  5
1B75
  8
SIZE
  6
BYBLOCK
 10
771.8719073978815
 20
343.07775178650252
 30
0.0
 11
771.8719073978815
 21
1422.5027517865019
 31
0.0
  0
LINE
  5
1B76
  8
OUTLINE
  6
CONTINUOUS
 10
824.87190639788139
 20
323.07775178650252
 30
0.0
 11
824.87190639788139
 21
1145.0777517865019
 31
0.0
  0
LINE
  5
1B77
  8
DETAIL
  6
CONTINOUS
 10
824.87190639788139
 20
323.07775178650252
 30
0.0
 11
824.87190639788139
 21
1145.0777517865019
 31
0.0
  0
LINE
  5
1B78
  8
DETAIL
  6
CONTINOUS
 10
804.8719063978815
 20
462.0777517865024
 30
0.0
 11
804.8719063978815
 21
1002.0777517865019
 31
0.0
  0
LINE
  5
1B79
  8
SIZE
  6
BYBLOCK
 10
714.44271139788157
 20
732.07775178650252
 30
0.0
 11
320.83505539788149
 21
732.07775178650252
 31
0.0
  0
LINE
  5
1B7A
  8
SIZE
  6
BYBLOCK
 10
856.8719073978815
 20
724.07775178650252
 30
0.0
 11
473.55668139788128
 21
724.07775178650252
 31
0.0
  0
LINE
  5
1B7B
  8
SIZE
  6
BYBLOCK
 10
777.27455739788161
 20
810.08015378650236
 30
0.0
 11
190.4274553978814
 21
810.08015378650236
 31
0.0
  0
LINE
  5
1B7C
  8
SIZE
  6
BYBLOCK
 10
350.83505539788138
 20
292.07775178650252
 30
0.0
 11
350.83505539788138
 21
730.07775178650252
 31
0.0
  0
LINE
  5
1B7D
  8
SIZE
  6
BYBLOCK
 10
503.55668139788139
 20
292.07775178650252
 30
0.0
 11
503.55668139788139
 21
724.07775178650252
 31
0.0
  0
TEXT
  5
1B7E
  8
SIZE
  6
BYBLOCK
 10
188.7875803978813
 20
529.52060878650241
 30
0.0
 40
64.0
  1
520
 50
90.0
 41
0.9
  0
LINE
  5
1B7F
  8
SIZE
  6
BYBLOCK
 10
220.7875803978813
 20
810.08015378650236
 30
0.0
 11
220.7875803978813
 21
603.57775178650252
 31
0.0
  0
TEXT
  5
1B80
  8
SIZE
  6
BYBLOCK
 10
318.83505539788149
 20
437.02060878650252
 30
0.0
 40
64.0
  1
442
 50
90.0
 41
0.9
  0
LINE
  5
1B81
  8
SIZE
  6
BYBLOCK
 10
220.7875803978813
 20
292.07775178650252
 30
0.0
 11
220.7875803978813
 21
603.57775178650252
 31
0.0
  0
TEXT
  5
1B82
  8
SIZE
  6
BYBLOCK
 10
471.55668139788139
 20
427.13489478650251
 30
0.0
 40
64.0
  1
434
 50
90.0
 41
0.9
  0
CIRCLE
  5
1B83
  8
SIZE
  6
CONTINUOUS
 10
220.4274553978814
 20
810.08015378650236
 30
0.0
 40
6.0
  0
CIRCLE
  5
1B84
  8
SIZE
  6
CONTINUOUS
 10
350.83505539788138
 20
732.07775178650252
 30
0.0
 40
6.0
  0
CIRCLE
  5
1B85
  8
SIZE
  6
CONTINUOUS
 10
503.55668139788139
 20
724.07775178650252
 30
0.0
 40
6.0
  0
LINE
  5
1B86
  8
SIZE
  6
BYBLOCK
 10
649.74425839788148
 20
292.07775178650252
 30
0.0
 11
649.74425839788148
 21
684.07775178650252
 31
0.0
  0
TEXT
  5
1B87
  8
SIZE
  6
BYBLOCK
 10
617.74425839788125
 20
415.3920377865025
 30
0.0
 40
64.0
  1
396
 50
90.0
 41
0.9
  0
LINE
  5
1B88
  8
DETAIL
  6
CONTINOUS
 10
824.87190639788139
 20
462.0777517865024
 30
0.0
 11
804.8719063978815
 21
462.0777517865024
 31
0.0
  0
LINE
  5
1B89
  8
SIZE
  6
BYBLOCK
 10
836.26393739788148
 20
686.07775178650252
 30
0.0
 11
619.74425839788148
 21
686.07775178650252
 31
0.0
  0
LINE
  5
1B8A
  8
BASIS
  6
DASHDOT
 10
734.44271139788145
 20
732.07775178650252
 30
0.0
 11
884.14564339788137
 21
732.07775178650252
 31
0.0
  0
CIRCLE
  5
1B8B
  8
SIZE
  6
CONTINUOUS
 10
649.74425839788148
 20
686.07775178650252
 30
0.0
 40
6.0
  0
LINE
  5
1B8C
  8
NOTE
  6
CONTINOUS
 10
862.8719063978815
 20
724.07775178650252
 30
0.0
 11
902.8719063978815
 21
724.07775178650252
 31
0.0
  0
LINE
  5
1B8D
  8
NOTE
  6
CONTINOUS
 10
859.87190639788162
 20
686.07775178650252
 30
0.0
 11
899.87190639788139
 21
686.07775178650252
 31
0.0
  0
LINE
  5
1B8E
  8
NOTE
  6
CONTINOUS
 10
879.8719063978815
 20
666.07775178650252
 30
0.0
 11
879.8719063978815
 21
706.07775178650252
 31
0.0
  0
POLYLINE
  5
1B8F
  8
NOTE
  6
CONTINUOUS
 66
     1
 10
0.0
 20
0.0
 30
0.0
  0
VERTEX
  5
21FA
  8
NOTE
  6
CONTINUOUS
 10
919.40695039788125
 20
679.99661178650251
 30
0.0
  0
VERTEX
  5
21FB
  8
NOTE
  6
CONTINUOUS
 10
879.8719063978815
 20
686.07775178650252
 30
0.0
  0
VERTEX
  5
21FC
  8
NOTE
  6
CONTINUOUS
 10
911.06968939788146
 20
661.04380778650238
 30
0.0
  0
SEQEND
  5
21FD
  8
NOTE
  6
CONTINUOUS
  0
POLYLINE
  5
1B94
  8
NOTE
  6
CONTINUOUS
 66
     1
 10
0.0
 20
0.0
 30
0.0
  0
VERTEX
  5
21FE
  8
NOTE
  6
CONTINUOUS
 10
911.55116939788149
 20
751.96143678650253
 30
0.0
  0
VERTEX
  5
21FF
  8
NOTE
  6
CONTINUOUS
 10
882.87190639788139
 20
724.07775178650252
 30
0.0
  0
VERTEX
  5
2200
  8
NOTE
  6
CONTINUOUS
 10
921.65071939788174
 20
733.88609978650254
 30
0.0
  0
SEQEND
  5
2201
  8
NOTE
  6
CONTINUOUS
  0
LINE
  5
1B99
  8
NOTE
  6
CONTINOUS
 10
882.87190639788139
 20
704.0777517865024
 30
0.0
 11
882.87190639788139
 21
744.07775178650252
 31
0.0
  0
LINE
  5
1B9A
  8
NOTE
  6
CONTINUOUS
 10
824.51178139788146
 20
810.08015378650236
 30
0.0
 11
918.87085639788165
 21
895.38895978650271
 31
0.0
  0
LINE
  5
1B9B
  8
NOTE
  6
CONTINOUS
 10
804.51178139788135
 20
810.08015378650236
 30
0.0
 11
844.51178139788135
 21
810.08015378650236
 31
0.0
  0
POLYLINE
  5
1B9C
  8
NOTE
  6
CONTINUOUS
 66
     1
 10
0.0
 20
0.0
 30
0.0
  0
VERTEX
  5
2202
  8
NOTE
  6
CONTINUOUS
 10
846.64476439788132
 20
843.39878378650269
 30
0.0
  0
VERTEX
  5
2203
  8
NOTE
  6
CONTINUOUS
 10
824.51178139788146
 20
810.08015378650236
 30
0.0
  0
VERTEX
  5
2204
  8
NOTE
  6
CONTINUOUS
 10
860.33882139788147
 20
827.86844278650256
 30
0.0
  0
SEQEND
  5
2205
  8
NOTE
  6
CONTINUOUS
  0
LINE
  5
1BA1
  8
NOTE
  6
CONTINOUS
 10
824.51178139788146
 20
790.08015378650236
 30
0.0
 11
824.51178139788146
 21
830.08015378650225
 31
0.0
  0
LINE
  5
1BA2
  8
NOTE
  6
CONTINUOUS
 10
872.35755039788137
 20
933.93013678650243
 30
0.0
 11
872.35755039788137
 21
933.93013678650243
 31
0.0
  0
LINE
  5
1BA3
  8
SIZE
  6
BYBLOCK
 10
824.8719073978815
 20
1185.0777517865019
 30
0.0
 11
824.8719073978815
 21
1422.5027517865019
 31
0.0
  0
LINE
  5
1BA4
  8
SIZE
  6
BYBLOCK
 10
824.8719073978815
 20
1165.0777517865019
 30
0.0
 11
824.8719073978815
 21
1422.5027517865019
 31
0.0
  0
LINE
  5
1BA5
  8
SIZE
  6
BYBLOCK
 10
824.8719073978815
 20
1165.0777517865019
 30
0.0
 11
824.8719073978815
 21
1293.248751786502
 31
0.0
  0
LINE
  5
1BA6
  8
SIZE
  6
BYBLOCK
 10
804.87190739788139
 20
1022.0777517865019
 30
0.0
 11
804.87190739788139
 21
1293.248751786502
 31
0.0
  0
LINE
  5
1BA7
  8
DETAIL
  6
CONTINOUS
 10
824.87190639788139
 20
1002.0777517865019
 30
0.0
 11
804.8719063978815
 21
1002.0777517865019
 31
0.0
  0
LINE
  5
1BA8
  8
SIZE
  6
CONTINUOUS
 10
814.87190639788139
 20
1263.2491457865019
 30
0.0
 11
945.94025839788139
 21
1263.2491457865019
 31
0.0
  0
LINE
  5
1BA9
  8
SIZE
  6
BYBLOCK
 10
822.8719073978815
 20
1263.2491457865019
 30
0.0
 11
814.8719073978815
 21
1263.2491457865019
 31
0.0
  0
CIRCLE
  5
1BAA
  8
SIZE
  6
CONTINUOUS
 10
804.87190739788139
 20
1263.2491457865019
 30
0.0
 40
6.0
  0
LINE
  5
1BAB
  8
SIZE
  6
BYBLOCK
 10
806.8719073978815
 20
1263.2491457865019
 30
0.0
 11
814.8719073978815
 21
1263.2491457865019
 31
0.0
  0
CIRCLE
  5
1BAC
  8
SIZE
  6
CONTINUOUS
 10
824.8719073978815
 20
1263.2491457865019
 30
0.0
 40
6.0
  0
TEXT
  5
1BAD
  8
SIZE
  6
BYBLOCK
 10
751.74333539788142
 20
1424.5027517865019
 30
0.0
 40
64.0
  1
53
 41
0.9
  0
TEXT
  5
1BAE
  8
SIZE
  6
BYBLOCK
 10
843.21570539788115
 20
1295.248751786502
 30
0.0
 40
64.0
  1
20
 41
0.9
  0
LINE
  5
1BAF
  8
SIZE
  6
BYBLOCK
 10
824.8719073978815
 20
1392.5027517865019
 30
0.0
 11
771.8719073978815
 21
1392.5027517865019
 31
0.0
  0
CIRCLE
  5
1BB0
  8
SIZE
  6
CONTINUOUS
 10
771.8719073978815
 20
1392.5027517865019
 30
0.0
 40
6.0
  0
LINE
  5
1BB1
  8
SIZE
  6
BYBLOCK
 10
769.8719073978815
 20
1392.5027517865019
 30
0.0
 11
767.8719073978815
 21
1392.5027517865019
 31
0.0
  0
CIRCLE
  5
1BB2
  8
SIZE
  6
CONTINUOUS
 10
824.8719073978815
 20
1392.5027517865019
 30
0.0
 40
6.0
  0
CIRCLE
  5
1BB3
  8
SIZE
  6
CONTINUOUS
 10
824.8719073978815
 20
1392.5027517865019
 30
0.0
 40
6.0
  0
LINE
  5
1BB4
  8
SIZE
  6
BYBLOCK
 10
826.8719073978815
 20
1392.5027517865019
 30
0.0
 11
828.87190739788139
 21
1392.5027517865019
 31
0.0
  0
CIRCLE
  5
1BB5
  8
SIZE
  6
CONTINUOUS
 10
1420.44446039788
 20
290.07775178650252
 30
0.0
 40
6.0
  0
CIRCLE
  5
1BB6
  8
FIX
  6
CONTINUOUS
 10
1169.871906397881
 20
290.07775178650252
 30
0.0
 40
40.0
  0
LINE
  5
1BB7
  8
OUTLINE
  6
CONTINUOUS
 10
1183.871906397881
 20
323.07775178650252
 30
0.0
 11
1183.871906397881
 21
290.07775178650252
 31
0.0
  0
TEXT
  5
1BB8
  8
ETC
  6
CONTINUOUS
 10
1573.1112623978811
 20
288.6366377865026
 30
0.0
 40
64.0
  1
室外機
 41
0.9
  0
LINE
  5
1BB9
  8
DETAIL
  6
CONTINOUS
 10
1183.871906397881
 20
290.07775178650252
 30
0.0
 11
1183.871906397881
 21
323.07775178650252
 31
0.0
  0
LINE
  5
1BBA
  8
NOTE
  6
CONTINOUS
 10
1169.871906397881
 20
270.07775178650252
 30
0.0
 11
1169.871906397881
 21
310.07775178650252
 31
0.0
  0
LINE
  5
1BBB
  8
NOTE
  6
CONTINUOUS
 10
1969.74381039788
 20
-0.000002213497396
 30
0.0
 11
1389.9370083978811
 21
-0.000002213497396
 31
0.0
  0
TEXT
  5
1BBC
  8
NOTE
  6
CONTINUOUS
 10
1415.1692193978811
 20
15.10229878650267
 30
0.0
 40
64.0
  1
AH 2-U cut
 41
0.9
  0
LINE
  5
1BBD
  8
NOTE
  6
CONTINUOUS
 10
1389.9370083978811
 20
-0.000002213497396
 30
0.0
 11
1169.871906397881
 21
290.07775178650252
 31
0.0
  0
LINE
  5
1BBE
  8
SIZE
  6
BYBLOCK
 10
1214.7137463978811
 20
290.07775178650252
 30
0.0
 11
1450.44446039788
 21
290.07775178650252
 31
0.0
  0
LINE
  5
1BBF
  8
SIZE
  6
BYBLOCK
 10
1183.87190739788
 20
270.07775178650252
 30
0.0
 11
1183.87190739788
 21
65.361279786502621
 31
0.0
  0
LINE
  5
1BC0
  8
SIZE
  6
BYBLOCK
 10
1169.87190739788
 20
250.0777517865026
 30
0.0
 11
1169.87190739788
 21
65.361279786502621
 31
0.0
  0
LINE
  5
1BC1
  8
SIZE
  6
BYBLOCK
 10
1169.87190739788
 20
250.0777517865026
 30
0.0
 11
1169.87190739788
 21
65.361279786502621
 31
0.0
  0
CIRCLE
  5
1BC2
  8
SIZE
  6
CONTINUOUS
 10
1169.87190739788
 20
95.361279786502593
 30
0.0
 40
6.0
  0
CIRCLE
  5
1BC3
  8
SIZE
  6
CONTINUOUS
 10
1169.87190739788
 20
95.361279786502593
 30
0.0
 40
6.0
  0
CIRCLE
  5
1BC4
  8
SIZE
  6
CONTINUOUS
 10
1183.87190739788
 20
95.361279786502593
 30
0.0
 40
6.0
  0
LINE
  5
1BC5
  8
SIZE
  6
BYBLOCK
 10
1183.87190739788
 20
95.361279786502593
 30
0.0
 11
1169.87190739788
 21
95.361279786502593
 31
0.0
  0
LINE
  5
1BC6
  8
SIZE
  6
BYBLOCK
 10
1167.87190739788
 20
95.361279786502593
 30
0.0
 11
1165.87190739788
 21
95.361279786502593
 31
0.0
  0
LINE
  5
1BC7
  8
SIZE
  6
BYBLOCK
 10
1185.87190739788
 20
95.361279786502593
 30
0.0
 11
1187.87190739788
 21
95.361279786502593
 31
0.0
  0
TEXT
  5
1BC8
  8
SIZE
  6
BYBLOCK
 10
1134.3576213978811
 20
127.36127978650261
 30
0.0
 40
64.0
  1
14
 41
0.9
  0
LINE
  5
1BC9
  8
NOTE
  6
CONTINOUS
 10
1149.871906397881
 20
290.07775178650252
 30
0.0
 11
1189.871906397881
 21
290.07775178650252
 31
0.0
  0
LINE
  5
1BCA
  8
NOTE
  6
CONTINUOUS
 10
1169.871906397881
 20
290.07775178650252
 30
0.0
 11
1184.97614639788
 21
253.0390967865026
 31
0.0
  0
LINE
  5
1BCB
  8
NOTE
  6
CONTINUOUS
 10
1169.871906397881
 20
290.07775178650252
 30
0.0
 11
1201.47188939788
 21
265.55345678650252
 31
0.0
  0
TEXT
  5
1BCC
  8
ETC
  6
CONTINUOUS
 10
1561.2885183978799
 20
407.8032387865025
 30
0.0
 40
64.0
  1
SPUZ0824
 41
0.9
  0
LINE
  5
1BCD
  8
SIZE
  6
BYBLOCK
 10
1420.44446039788
 20
1143.0777517865019
 30
0.0
 11
1420.44446039788
 21
717.57775178650252
 31
0.0
  0
LINE
  5
1BCE
  8
OUTLINE
  6
CONTINUOUS
 10
1154.8719063978799
 20
1145.0777517865019
 30
0.0
 11
1154.8719063978799
 21
323.07775178650252
 31
0.0
  0
LINE
  5
1BCF
  8
DETAIL
  6
CONTINOUS
 10
1154.8719063978799
 20
323.07775178650252
 30
0.0
 11
1154.8719063978799
 21
1145.0777517865019
 31
0.0
  0
LINE
  5
1BD0
  8
SIZE
  6
BYBLOCK
 10
1420.44446039788
 20
292.07775178650252
 30
0.0
 11
1420.44446039788
 21
717.57775178650252
 31
0.0
  0
LINE
  5
1BD1
  8
NOTE
  6
CONTINUOUS
 10
1124.871906397881
 20
323.07775178650252
 30
0.0
 11
1231.96219639788
 21
428.57361078650251
 31
0.0
  0
LINE
  5
1BD2
  8
NOTE
  6
CONTINOUS
 10
1104.871906397881
 20
323.07775178650252
 30
0.0
 11
1144.871906397881
 21
323.07775178650252
 31
0.0
  0
POLYLINE
  5
1BD3
  8
NOTE
  6
CONTINUOUS
 66
     1
 10
0.0
 20
0.0
 30
0.0
  0
VERTEX
  5
2206
  8
NOTE
  6
CONTINUOUS
 10
1145.1311663978811
 20
357.56778478650261
 30
0.0
  0
VERTEX
  5
2207
  8
NOTE
  6
CONTINUOUS
 10
1124.871906397881
 20
323.07775178650252
 30
0.0
  0
VERTEX
  5
2208
  8
NOTE
  6
CONTINUOUS
 10
1159.661957397881
 20
342.81736678650259
 30
0.0
  0
SEQEND
  5
2209
  8
NOTE
  6
CONTINUOUS
  0
LINE
  5
1BD8
  8
NOTE
  6
CONTINOUS
 10
1124.871906397881
 20
303.07775178650257
 30
0.0
 11
1124.871906397881
 21
343.07775178650252
 31
0.0
  0
TEXT
  5
1BD9
  8
NOTE
  6
CONTINUOUS
 10
1251.9401213978811
 20
438.44475178650248
 30
0.0
 40
64.0
  1
D
 41
0.9
  0
LINE
  5
1BDA
  8
NOTE
  6
CONTINUOUS
 10
1231.96219639788
 20
428.57361078650251
 30
0.0
 11
1302.198482397881
 21
428.57361078650251
 31
0.0
  0
TEXT
  5
1BDB
  8
NOTE
  6
CONTINUOUS
 10
1060.7086543978801
 20
635.63939678650252
 30
0.0
 40
64.0
  1
RG
 41
0.9
  0
LINE
  5
1BDC
  8
NOTE
  6
CONTINUOUS
 10
1040.77148939788
 20
625.20405378650253
 30
0.0
 11
1180.455218397881
 21
625.20405378650253
 31
0.0
  0
TEXT
  5
1BDD
  8
NOTE
  6
CONTINUOUS
 10
1060.92620539788
 20
822.17499278650257
 30
0.0
 40
64.0
  1
RL
 41
0.9
  0
LINE
  5
1BDE
  8
NOTE
  6
CONTINUOUS
 10
1040.77148939788
 20
812.30385178650238
 30
0.0
 11
1170.35759939788
 21
812.30385178650238
 31
0.0
  0
TEXT
  5
1BDF
  8
SIZE
  6
BYBLOCK
 10
1388.44446039788
 20
643.52060878650252
 30
0.0
 40
64.0
  1
855
 50
90.0
 41
0.9
  0
LINE
  5
1BE0
  8
SIZE
  6
BYBLOCK
 10
1154.87190739788
 20
1165.0777517865019
 30
0.0
 11
1154.87190739788
 21
1422.5027517865019
 31
0.0
  0
LINE
  5
1BE1
  8
SIZE
  6
BYBLOCK
 10
1203.87190739788
 20
1145.0777517865019
 30
0.0
 11
1450.44446039788
 21
1145.0777517865019
 31
0.0
  0
CIRCLE
  5
1BE2
  8
SIZE
  6
CONTINUOUS
 10
1420.44446039788
 20
1145.0777517865019
 30
0.0
 40
6.0
  0
CIRCLE
  5
1BE3
  8
SIZE
  6
CONTINUOUS
 10
1154.87190739788
 20
1392.5027517865019
 30
0.0
 40
6.0
  0
ENDBLK
  5
1BE4
  8
0
  0
BLOCK
  8
0
  2
_ORIGIN
 70
     0
 10
0.0
 20
0.0
 30
0.0
  3
_ORIGIN
  1

  0
CIRCLE
  5
1BE7
  8
0
  6
BYBLOCK
 62
     0
 10
0.0
 20
0.0
 30
0.0
 40
0.5
  0
LINE
  5
1BE8
  8
0
  6
BYBLOCK
 62
     0
 10
0.0
 20
0.0
 30
0.0
 11
-1.0
 21
0.0
 31
0.0
  0
ENDBLK
  5
1BE9
  8
0
  0
BLOCK
  8
0
  2
_ORIGIN2
 70
     0
 10
0.0
 20
0.0
 30
0.0
  3
_ORIGIN2
  1

  0
CIRCLE
  5
1BEC
  8
0
  6
BYBLOCK
 62
     0
 10
0.0
 20
0.0
 30
0.0
 40
0.5
  0
CIRCLE
  5
1BED
  8
0
  6
BYBLOCK
 62
     0
 10
0.0
 20
0.0
 30
0.0
 40
0.25
  0
LINE
  5
1BEE
  8
0
  6
BYBLOCK
 62
     0
 10
-0.5
 20
0.0
 30
0.0
 11
-1.0
 21
0.0
 31
0.0
  0
ENDBLK
  5
1BEF
  8
0
  0
BLOCK
  8
0
  2
_DOTBLANK
 70
     0
 10
0.0
 20
0.0
 30
0.0
  3
_DOTBLANK
  1

  0
CIRCLE
  5
1BF2
  8
0
  6
BYBLOCK
 62
     0
 10
0.0
 20
0.0
 30
0.0
 40
0.5
  0
LINE
  5
1BF3
  8
0
  6
BYBLOCK
 62
     0
 10
-0.5
 20
0.0
 30
0.0
 11
-1.0
 21
0.0
 31
0.0
  0
ENDBLK
  5
1BF4
  8
0
  0
BLOCK
  8
0
  2
*D6
 70
     1
 10
0.0
 20
0.0
 30
0.0
  3
*D6
  1

  0
LINE
  5
20BB
  8
SIZE
  6
CONTINUOUS
 62
     0
 10
-165.0
 20
963.0
 30
0.0
 11
-164.99999999999989
 21
1288.309660749763
 31
0.0
  0
LINE
  5
20BC
  8
SIZE
  6
CONTINUOUS
 62
     0
 10
165.0
 20
963.0
 30
0.0
 11
165.0
 21
1288.309660749763
 31
0.0
  0
LINE
  5
20BD
  8
SIZE
  6
CONTINUOUS
 62
     0
 10
-154.99999999999989
 20
1258.309660749763
 30
0.0
 11
155.0
 21
1258.309660749763
 31
0.0
  0
TEXT
  5
20BE
  8
SIZE
  6
CONTINUOUS
 62
     0
 10
-98.991274644734332
 20
1278.9618578763891
 30
0.0
 40
64.0
  1
330
 41
0.9
  0
INSERT
  5
20BF
  8
SIZE
  6
CONTINUOUS
 62
     0
  2
_DOTBLANK
 10
-164.99999999999989
 20
1258.309660749763
 30
0.0
 41
10.0
 42
10.0
 43
10.0
 50
180.0
  0
INSERT
  5
20C0
  8
SIZE
  6
CONTINUOUS
 62
     0
  2
_ORIGIN
 10
165.0
 20
1258.309660749763
 30
0.0
 41
10.0
 42
10.0
 43
10.0
  0
POINT
  5
20C1
  8
DEFPOINTS
  6
CONTINUOUS
 62
     0
 10
-165.0
 20
943.0
 30
0.0
  0
POINT
  5
20C2
  8
DEFPOINTS
  6
CONTINUOUS
 62
     0
 10
165.0
 20
943.0
 30
0.0
  0
POINT
  5
20C3
  8
DEFPOINTS
  6
CONTINUOUS
 62
     0
 10
165.0
 20
1258.309660749763
 30
0.0
  0
ENDBLK
  5
20BA
  8
0
  0
BLOCK
  8
0
  2
*D7
 70
     1
 10
0.0
 20
0.0
 30
0.0
  3
*D7
  1

  0
LINE
  5
20D2
  8
SIZE
  6
CONTINUOUS
 62
     0
 10
165.0
 20
963.0
 30
0.0
 11
165.0
 21
1288.309660749763
 31
0.0
  0
LINE
  5
20D3
  8
SIZE
  6
CONTINUOUS
 62
     0
 10
195.0000000000004
 20
782.00000000000102
 30
0.0
 11
195.0000000000004
 21
1288.309660749763
 31
0.0
  0
LINE
  5
20D4
  8
SIZE
  6
CONTINUOUS
 62
     0
 10
155.0
 20
1258.309660749763
 30
0.0
 11
145.0
 21
1258.309660749763
 31
0.0
  0
LINE
  5
20D5
  8
SIZE
  6
CONTINUOUS
 62
     0
 10
205.0000000000004
 20
1258.309660749763
 30
0.0
 11
215.0000000000004
 21
1258.309660749763
 31
0.0
  0
TEXT
  5
20D6
  8
SIZE
  6
CONTINUOUS
 62
     0
 10
235.43423626873471
 20
1284.227145524841
 30
0.0
 40
64.0
  1
30
 41
0.9
  0
LINE
  5
20D7
  8
SIZE
  6
CONTINUOUS
 62
     0
 10
165.0
 20
1258.309660749763
 30
0.0
 11
195.0000000000004
 21
1258.309660749763
 31
0.0
  0
INSERT
  5
20D8
  8
SIZE
  6
CONTINUOUS
 62
     0
  2
_DOTBLANK
 10
165.0
 20
1258.309660749763
 30
0.0
 41
10.0
 42
10.0
 43
10.0
  0
INSERT
  5
20D9
  8
SIZE
  6
CONTINUOUS
 62
     0
  2
_ORIGIN
 10
195.0000000000004
 20
1258.309660749763
 30
0.0
 41
10.0
 42
10.0
 43
10.0
 50
180.0
  0
POINT
  5
20DA
  8
DEFPOINTS
  6
CONTINUOUS
 62
     0
 10
165.0
 20
943.0
 30
0.0
  0
POINT
  5
20DB
  8
DEFPOINTS
  6
CONTINUOUS
 62
     0
 10
195.0000000000004
 20
762.00000000000102
 30
0.0
  0
POINT
  5
20DC
  8
DEFPOINTS
  6
CONTINUOUS
 62
     0
 10
195.0000000000004
 20
1258.309660749763
 30
0.0
  0
ENDBLK
  5
20D1
  8
0
  0
BLOCK
  8
0
  2
*D8
 70
     1
 10
0.0
 20
0.0
 30
0.0
  3
*D8
  1

  0
LINE
  5
20EB
  8
SIZE
  6
CONTINUOUS
 62
     0
 10
165.0
 20
963.0
 30
0.0
 11
165.0
 21
1156.2934918139531
 31
0.0
  0
LINE
  5
20EC
  8
SIZE
  6
CONTINUOUS
 62
     0
 10
112.0
 20
480.0
 30
0.0
 11
112.0
 21
1156.2934918139531
 31
0.0
  0
LINE
  5
20ED
  8
SIZE
  6
CONTINUOUS
 62
     0
 10
175.0
 20
1126.2934918139531
 30
0.0
 11
185.0
 21
1126.2934918139531
 31
0.0
  0
LINE
  5
20EE
  8
SIZE
  6
CONTINUOUS
 62
     0
 10
102.0
 20
1126.2934918139531
 30
0.0
 11
92.000000000000043
 21
1126.2934918139531
 31
0.0
  0
TEXT
  5
20EF
  8
SIZE
  6
CONTINUOUS
 62
     0
 10
219.41294958127571
 20
1138.292373341149
 30
0.0
 40
64.0
  1
53
 41
0.9
  0
LINE
  5
20F0
  8
SIZE
  6
CONTINUOUS
 62
     0
 10
165.0
 20
1126.2934918139531
 30
0.0
 11
112.0
 21
1126.2934918139531
 31
0.0
  0
INSERT
  5
20F1
  8
SIZE
  6
CONTINUOUS
 62
     0
  2
_DOTBLANK
 10
165.0
 20
1126.2934918139531
 30
0.0
 41
10.0
 42
10.0
 43
10.0
 50
180.0
  0
INSERT
  5
20F2
  8
SIZE
  6
CONTINUOUS
 62
     0
  2
_ORIGIN
 10
112.0
 20
1126.2934918139531
 30
0.0
 41
10.0
 42
10.0
 43
10.0
  0
POINT
  5
20F3
  8
DEFPOINTS
  6
CONTINUOUS
 62
     0
 10
165.0
 20
943.0
 30
0.0
  0
POINT
  5
20F4
  8
DEFPOINTS
  6
CONTINUOUS
 62
     0
 10
112.0
 20
460.0
 30
0.0
  0
POINT
  5
20F5
  8
DEFPOINTS
  6
CONTINUOUS
 62
     0
 10
112.0
 20
1126.2934918139531
 30
0.0
  0
ENDBLK
  5
20EA
  8
0
  0
BLOCK
  8
0
  2
*D9
 70
     1
 10
0.0
 20
0.0
 30
0.0
  3
*D9
  1

  0
LINE
  5
2104
  8
SIZE
  6
CONTINUOUS
 62
     0
 10
165.0
 20
963.0
 30
0.0
 11
165.0
 21
1032.981695314588
 31
0.0
  0
LINE
  5
2105
  8
SIZE
  6
CONTINUOUS
 62
     0
 10
120.0000000000003
 20
487.0
 30
0.0
 11
120.0000000000004
 21
1032.981695314588
 31
0.0
  0
LINE
  5
2106
  8
SIZE
  6
CONTINUOUS
 62
     0
 10
175.0
 20
1002.981695314588
 30
0.0
 11
185.0
 21
1002.981695314588
 31
0.0
  0
LINE
  5
2107
  8
SIZE
  6
CONTINUOUS
 62
     0
 10
110.0000000000004
 20
1002.981695314588
 30
0.0
 11
100.0000000000004
 21
1002.981695314588
 31
0.0
  0
TEXT
  5
2108
  8
SIZE
  6
CONTINUOUS
 62
     0
 10
226.53352023972539
 20
1013.713911357022
 30
0.0
 40
64.0
  1
45
 41
0.9
  0
LINE
  5
2109
  8
SIZE
  6
CONTINUOUS
 62
     0
 10
165.0
 20
1002.981695314588
 30
0.0
 11
120.0000000000004
 21
1002.981695314588
 31
0.0
  0
INSERT
  5
210A
  8
SIZE
  6
CONTINUOUS
 62
     0
  2
_DOTBLANK
 10
165.0
 20
1002.981695314588
 30
0.0
 41
10.0
 42
10.0
 43
10.0
 50
180.0
  0
INSERT
  5
210B
  8
SIZE
  6
CONTINUOUS
 62
     0
  2
_ORIGIN
 10
120.0000000000004
 20
1002.981695314588
 30
0.0
 41
10.0
 42
10.0
 43
10.0
  0
POINT
  5
210C
  8
DEFPOINTS
  6
CONTINUOUS
 62
     0
 10
165.0
 20
943.0
 30
0.0
  0
POINT
  5
210D
  8
DEFPOINTS
  6
CONTINUOUS
 62
     0
 10
120.0000000000003
 20
467.0
 30
0.0
  0
POINT
  5
210E
  8
DEFPOINTS
  6
CONTINUOUS
 62
     0
 10
120.0000000000004
 20
1002.981695314588
 30
0.0
  0
ENDBLK
  5
2103
  8
0
  0
BLOCK
  8
0
  2
*D10
 70
     1
 10
0.0
 20
0.0
 30
0.0
  3
*D10
  1

  0
LINE
  5
212F
  8
SIZE
  6
CONTINUOUS
 62
     0
 10
185.0000000000004
 20
-40.0
 30
0.0
 11
185.0000000000004
 21
-364.82880203500957
 31
0.0
  0
LINE
  5
2130
  8
SIZE
  6
CONTINUOUS
 62
     0
 10
213.0000000000004
 20
-20.0
 30
0.0
 11
213.00000000000031
 21
-364.82880203500957
 31
0.0
  0
LINE
  5
2131
  8
SIZE
  6
CONTINUOUS
 62
     0
 10
175.00000000000031
 20
-334.82880203500957
 30
0.0
 11
165.00000000000031
 21
-334.82880203500957
 31
0.0
  0
LINE
  5
2132
  8
SIZE
  6
CONTINUOUS
 62
     0
 10
223.00000000000031
 20
-334.82880203500957
 30
0.0
 11
233.0000000000004
 21
-334.82880203500957
 31
0.0
  0
TEXT
  5
2133
  8
SIZE
  6
CONTINUOUS
 62
     0
 10
266.18549908011107
 20
-311.4521454180549
 30
0.0
 40
64.0
  1
28
 41
0.9
  0
LINE
  5
2134
  8
SIZE
  6
CONTINUOUS
 62
     0
 10
185.0000000000004
 20
-334.82880203500957
 30
0.0
 11
213.00000000000031
 21
-334.82880203500957
 31
0.0
  0
INSERT
  5
2135
  8
SIZE
  6
CONTINUOUS
 62
     0
  2
_DOTBLANK
 10
185.0000000000004
 20
-334.82880203500957
 30
0.0
 41
10.0
 42
10.0
 43
10.0
  0
INSERT
  5
2136
  8
SIZE
  6
CONTINUOUS
 62
     0
  2
_ORIGIN
 10
213.00000000000031
 20
-334.82880203500957
 30
0.0
 41
10.0
 42
10.0
 43
10.0
 50
180.0
  0
POINT
  5
2137
  8
DEFPOINTS
  6
CONTINUOUS
 62
     0
 10
185.0000000000004
 20
-20.0
 30
0.0
  0
POINT
  5
2138
  8
DEFPOINTS
  6
CONTINUOUS
 62
     0
 10
213.0000000000004
 20
0.0
 30
0.0
  0
POINT
  5
2139
  8
DEFPOINTS
  6
CONTINUOUS
 62
     0
 10
213.00000000000031
 20
-334.82880203500957
 30
0.0
  0
ENDBLK
  5
212E
  8
0
  0
BLOCK
  8
0
  2
*D11
 70
     1
 10
0.0
 20
0.0
 30
0.0
  3
*D11
  1

  0
LINE
  5
2146
  8
SIZE
  6
CONTINUOUS
 62
     0
 10
-184.9999999999994
 20
-40.0
 30
0.0
 11
-184.99999999999949
 21
-364.82880203500957
 31
0.0
  0
LINE
  5
2147
  8
SIZE
  6
CONTINUOUS
 62
     0
 10
185.0000000000004
 20
-40.0
 30
0.0
 11
185.0000000000004
 21
-364.82880203500957
 31
0.0
  0
LINE
  5
2148
  8
SIZE
  6
CONTINUOUS
 62
     0
 10
-174.9999999999994
 20
-334.82880203500957
 30
0.0
 11
175.00000000000031
 21
-334.82880203500957
 31
0.0
  0
TEXT
  5
2149
  8
SIZE
  6
CONTINUOUS
 62
     0
 10
-62.799206721269819
 20
-308.96057702917273
 30
0.0
 40
64.0
  1
370
 41
0.9
  0
INSERT
  5
214A
  8
SIZE
  6
CONTINUOUS
 62
     0
  2
_DOTBLANK
 10
-184.99999999999949
 20
-334.82880203500957
 30
0.0
 41
10.0
 42
10.0
 43
10.0
 50
180.0
  0
INSERT
  5
214B
  8
SIZE
  6
CONTINUOUS
 62
     0
  2
_ORIGIN
 10
185.0000000000004
 20
-334.82880203500957
 30
0.0
 41
10.0
 42
10.0
 43
10.0
  0
POINT
  5
214C
  8
DEFPOINTS
  6
CONTINUOUS
 62
     0
 10
-184.9999999999994
 20
-20.0
 30
0.0
  0
POINT
  5
214D
  8
DEFPOINTS
  6
CONTINUOUS
 62
     0
 10
185.0000000000004
 20
-20.0
 30
0.0
  0
POINT
  5
214E
  8
DEFPOINTS
  6
CONTINUOUS
 62
     0
 10
185.0000000000004
 20
-334.82880203500957
 30
0.0
  0
ENDBLK
  5
2145
  8
0
  0
BLOCK
  8
0
  2
*D12
 70
     1
 10
0.0
 20
0.0
 30
0.0
  3
*D12
  1

  0
LINE
  5
215D
  8
SIZE
  6
CONTINUOUS
 62
     0
 10
-184.9999999999994
 20
-40.0
 30
0.0
 11
-184.99999999999949
 21
-364.82880203500957
 31
0.0
  0
LINE
  5
215E
  8
SIZE
  6
CONTINUOUS
 62
     0
 10
-204.0
 20
-20.0
 30
0.0
 11
-204.0
 21
-364.82880203500957
 31
0.0
  0
LINE
  5
215F
  8
SIZE
  6
CONTINUOUS
 62
     0
 10
-174.9999999999994
 20
-334.82880203500957
 30
0.0
 11
-164.99999999999949
 21
-334.82880203500957
 31
0.0
  0
LINE
  5
2160
  8
SIZE
  6
CONTINUOUS
 62
     0
 10
-214.0
 20
-334.82880203500957
 30
0.0
 11
-224.0
 21
-334.82880203500957
 31
0.0
  0
TEXT
  5
2161
  8
SIZE
  6
CONTINUOUS
 62
     0
 10
-347.51503195703327
 20
-316.43528219581998
 30
0.0
 40
64.0
  1
19
 41
0.9
  0
LINE
  5
2162
  8
SIZE
  6
CONTINUOUS
 62
     0
 10
-184.99999999999949
 20
-334.82880203500957
 30
0.0
 11
-204.0
 21
-334.82880203500957
 31
0.0
  0
INSERT
  5
2163
  8
SIZE
  6
CONTINUOUS
 62
     0
  2
_DOTBLANK
 10
-184.99999999999949
 20
-334.82880203500957
 30
0.0
 41
10.0
 42
10.0
 43
10.0
 50
180.0
  0
INSERT
  5
2164
  8
SIZE
  6
CONTINUOUS
 62
     0
  2
_ORIGIN
 10
-204.0
 20
-334.82880203500957
 30
0.0
 41
10.0
 42
10.0
 43
10.0
  0
POINT
  5
2165
  8
DEFPOINTS
  6
CONTINUOUS
 62
     0
 10
-184.9999999999994
 20
-20.0
 30
0.0
  0
POINT
  5
2166
  8
DEFPOINTS
  6
CONTINUOUS
 62
     0
 10
-204.0
 20
0.0
 30
0.0
  0
POINT
  5
2167
  8
DEFPOINTS
  6
CONTINUOUS
 62
     0
 10
-204.0
 20
-334.82880203500957
 30
0.0
  0
ENDBLK
  5
215C
  8
0
  0
BLOCK
  8
0
  2
*D13
 70
     1
 10
0.0
 20
0.0
 30
0.0
  3
*D13
  1

  0
LINE
  5
2188
  8
SIZE
  6
CONTINUOUS
 62
     0
 10
-204.0
 20
-20.0
 30
0.0
 11
-204.0
 21
-500.47583155258081
 31
0.0
  0
LINE
  5
2189
  8
SIZE
  6
CONTINUOUS
 62
     0
 10
213.0
 20
-20.0
 30
0.0
 11
212.99999999999989
 21
-500.47583155258081
 31
0.0
  0
LINE
  5
218A
  8
SIZE
  6
CONTINUOUS
 62
     0
 10
-194.0
 20
-470.47583155258093
 30
0.0
 11
202.99999999999989
 21
-470.47583155258093
 31
0.0
  0
TEXT
  5
218B
  8
SIZE
  6
CONTINUOUS
 62
     0
 10
-49.836894867751759
 20
-438.522175791064
 30
0.0
 40
64.0
  1
417
 41
0.9
  0
INSERT
  5
218C
  8
SIZE
  6
CONTINUOUS
 62
     0
  2
_DOTBLANK
 10
-204.0
 20
-470.47583155258093
 30
0.0
 41
10.0
 42
10.0
 43
10.0
 50
180.0
  0
INSERT
  5
218D
  8
SIZE
  6
CONTINUOUS
 62
     0
  2
_ORIGIN
 10
212.99999999999989
 20
-470.47583155258093
 30
0.0
 41
10.0
 42
10.0
 43
10.0
  0
POINT
  5
218E
  8
DEFPOINTS
  6
CONTINUOUS
 62
     0
 10
-204.0
 20
0.0
 30
0.0
  0
POINT
  5
218F
  8
DEFPOINTS
  6
CONTINUOUS
 62
     0
 10
213.0
 20
0.0
 30
0.0
  0
POINT
  5
2190
  8
DEFPOINTS
  6
CONTINUOUS
 62
     0
 10
212.99999999999989
 20
-470.47583155258093
 30
0.0
  0
ENDBLK
  5
2173
  8
0
  0
BLOCK
  8
0
  2
*D14
 70
     1
 10
0.0
 20
0.0
 30
0.0
  3
*D14
  1

  0
LINE
  5
220A
  8
SIZE
  6
CONTINUOUS
 62
     0
 10
233.0
 20
-0.0000000000000057
 30
0.0
 11
358.7892438350608
 21
-0.0000000000000413
 31
0.0
  0
LINE
  5
220B
  8
SIZE
  6
CONTINUOUS
 62
     0
 10
152.0
 20
417.99999999999989
 30
0.0
 11
358.78924383506092
 21
417.99999999999989
 31
0.0
  0
LINE
  5
220C
  8
SIZE
  6
CONTINUOUS
 62
     0
 10
328.7892438350608
 20
9.999999999999968
 30
0.0
 11
328.78924383506092
 21
407.99999999999989
 31
0.0
  0
INSERT
  5
220D
  8
SIZE
  6
CONTINUOUS
 62
     0
  2
_DOTBLANK
 10
328.7892438350608
 20
-0.0000000000000328
 30
0.0
 41
10.0
 42
10.0
 43
10.0
 50
270.0
  0
INSERT
  5
220E
  8
SIZE
  6
CONTINUOUS
 62
     0
  2
_ORIGIN
 10
328.78924383506092
 20
417.99999999999989
 30
0.0
 41
10.0
 42
10.0
 43
10.0
 50
90.0
  0
TEXT
  8
0
  40
64
  5
2237
  62
0
  72
0
  71
0
 10
148.789
 20
95.7200
 30
0.000000
  1
418
  0
POINT
  5
2210
  8
DEFPOINTS
  6
CONTINUOUS
 62
     0
 10
213.0
 20
0.0
 30
0.0
  0
POINT
  5
2211
  8
DEFPOINTS
  6
CONTINUOUS
 62
     0
 10
132.0
 20
417.99999999999989
 30
0.0
  0
POINT
  5
2212
  8
DEFPOINTS
  6
CONTINUOUS
 62
     0
 10
328.78924383506092
 20
417.99999999999989
 30
0.0
  0
ENDBLK
  5
21B5
  8
0
  0
BLOCK
  8
0
  2
*D15
 70
     1
 10
0.0
 20
0.0
 30
0.0
  3
*D15
  1

  0
LINE
  5
2213
  8
SIZE
  6
CONTINUOUS
 62
     0
 10
160.0000000000004
 20
446.0
 30
0.0
 11
501.46903121833031
 21
445.99999999999989
 31
0.0
  0
LINE
  5
2214
  8
SIZE
  6
CONTINUOUS
 62
     0
 10
233.0
 20
-0.0000000000000057
 30
0.0
 11
501.4690312183302
 21
-0.0000000000000817
 31
0.0
  0
LINE
  5
2215
  8
SIZE
  6
CONTINUOUS
 62
     0
 10
471.46903121833031
 20
435.99999999999989
 30
0.0
 11
471.4690312183302
 21
9.9999999999999272
 31
0.0
  0
INSERT
  5
2216
  8
SIZE
  6
CONTINUOUS
 62
     0
  2
_DOTBLANK
 10
471.46903121833031
 20
445.99999999999989
 30
0.0
 41
10.0
 42
10.0
 43
10.0
 50
90.0
  0
INSERT
  5
2217
  8
SIZE
  6
CONTINUOUS
 62
     0
  2
_ORIGIN
 10
471.4690312183302
 20
-0.0000000000000732
 30
0.0
 41
10.0
 42
10.0
 43
10.0
 50
270.0
  0
TEXT
  8
0
  40
64
  5
2238
  62
0
  72
0
  71
0
 10
291.469
 20
109.720
 30
0.000000
  1
446
  0
POINT
  5
2219
  8
DEFPOINTS
  6
CONTINUOUS
 62
     0
 10
140.00000000000031
 20
446.0
 30
0.0
  0
POINT
  5
221A
  8
DEFPOINTS
  6
CONTINUOUS
 62
     0
 10
213.0
 20
0.0
 30
0.0
  0
POINT
  5
221B
  8
DEFPOINTS
  6
CONTINUOUS
 62
     0
 10
471.4690312183302
 20
-0.0000000000000732
 30
0.0
  0
ENDBLK
  5
21C2
  8
0
  0
BLOCK
  8
0
  2
*D16
 70
     1
 10
0.0
 20
0.0
 30
0.0
  3
*D16
  1

  0
LINE
  5
221C
  8
SIZE
  6
CONTINUOUS
 62
     0
 10
275.42919599999988
 20
472.99999999953889
 30
0.0
 11
634.71545207999225
 21
472.99999999953877
 31
0.0
  0
LINE
  5
221D
  8
SIZE
  6
CONTINUOUS
 62
     0
 10
233.0
 20
-0.0000000000000057
 30
0.0
 11
634.71545207999225
 21
-0.0000000000001195
 31
0.0
  0
LINE
  5
221E
  8
SIZE
  6
CONTINUOUS
 62
     0
 10
604.71545207999225
 20
462.99999999953877
 30
0.0
 11
604.71545207999225
 21
9.9999999999998881
 31
0.0
  0
INSERT
  5
221F
  8
SIZE
  6
CONTINUOUS
 62
     0
  2
_DOTBLANK
 10
604.71545207999225
 20
472.99999999953877
 30
0.0
 41
10.0
 42
10.0
 43
10.0
 50
90.0
  0
INSERT
  5
2220
  8
SIZE
  6
CONTINUOUS
 62
     0
  2
_ORIGIN
 10
604.71545207999225
 20
-0.000000000000111
 30
0.0
 41
10.0
 42
10.0
 43
10.0
 50
270.0
  0
TEXT
  8
0
  40
64
  5
2239
  62
0
  72
0
  71
0
 10
424.715
 20
123.220
 30
0.000000
  1
473
  0
POINT
  5
2222
  8
DEFPOINTS
  6
CONTINUOUS
 62
     0
 10
255.42919599999999
 20
472.99999999953889
 30
0.0
  0
POINT
  5
2223
  8
DEFPOINTS
  6
CONTINUOUS
 62
     0
 10
213.0
 20
0.0
 30
0.0
  0
POINT
  5
2224
  8
DEFPOINTS
  6
CONTINUOUS
 62
     0
 10
604.71545207999225
 20
-0.000000000000111
 30
0.0
  0
ENDBLK
  5
21CF
  8
0
  0
BLOCK
  8
0
  2
*D17
 70
     1
 10
0.0
 20
0.0
 30
0.0
  3
*D17
  1

  0
LINE
  5
2225
  8
SIZE
  6
CONTINUOUS
 62
     0
 10
205.0
 20
673.0
 30
0.0
 11
788.00778012933915
 21
672.99999999999966
 31
0.0
  0
LINE
  5
2226
  8
SIZE
  6
CONTINUOUS
 62
     0
 10
233.0
 20
-0.0000000000000057
 30
0.0
 11
788.00778012933915
 21
-0.0000000000001629
 31
0.0
  0
LINE
  5
2227
  8
SIZE
  6
CONTINUOUS
 62
     0
 10
758.00778012933915
 20
662.99999999999989
 30
0.0
 11
758.00778012933915
 21
9.9999999999998455
 31
0.0
  0
INSERT
  5
2228
  8
SIZE
  6
CONTINUOUS
 62
     0
  2
_DOTBLANK
 10
758.00778012933915
 20
672.99999999999977
 30
0.0
 41
10.0
 42
10.0
 43
10.0
 50
90.0
  0
INSERT
  5
2229
  8
SIZE
  6
CONTINUOUS
 62
     0
  2
_ORIGIN
 10
758.00778012933915
 20
-0.0000000000001544
 30
0.0
 41
10.0
 42
10.0
 43
10.0
 50
270.0
  0
TEXT
  8
0
  40
64
  5
223A
  62
0
  72
0
  71
0
 10
578.008
 20
223.220
 30
0.000000
  1
673
  0
POINT
  5
222B
  8
DEFPOINTS
  6
CONTINUOUS
 62
     0
 10
185.0
 20
673.0
 30
0.0
  0
POINT
  5
222C
  8
DEFPOINTS
  6
CONTINUOUS
 62
     0
 10
213.0
 20
0.0
 30
0.0
  0
POINT
  5
222D
  8
DEFPOINTS
  6
CONTINUOUS
 62
     0
 10
758.00778012933915
 20
-0.0000000000001544
 30
0.0
  0
ENDBLK
  5
21DC
  8
0
  0
BLOCK
  8
0
  2
*D18
 70
     1
 10
0.0
 20
0.0
 30
0.0
  3
*D18
  1

  0
LINE
  5
222E
  8
SIZE
  6
CONTINUOUS
 62
     0
 10
233.0
 20
-0.0000000000000057
 30
0.0
 11
948.64279083648375
 21
-0.0000000000002084
 31
0.0
  0
LINE
  5
222F
  8
SIZE
  6
CONTINUOUS
 62
     0
 10
185.0
 20
942.99999999999989
 30
0.0
 11
948.6427908364841
 21
942.99999999999955
 31
0.0
  0
LINE
  5
2230
  8
SIZE
  6
CONTINUOUS
 62
     0
 10
918.64279083648387
 20
9.9999999999997993
 30
0.0
 11
918.6427908364841
 21
932.99999999999955
 31
0.0
  0
INSERT
  5
2231
  8
SIZE
  6
CONTINUOUS
 62
     0
  2
_DOTBLANK
 10
918.64279083648387
 20
-0.0000000000001999
 30
0.0
 41
10.0
 42
10.0
 43
10.0
 50
270.0
  0
INSERT
  5
2232
  8
SIZE
  6
CONTINUOUS
 62
     0
  2
_ORIGIN
 10
918.6427908364841
 20
942.99999999999955
 30
0.0
 41
10.0
 42
10.0
 43
10.0
 50
90.0
  0
TEXT
  8
0
  40
64
  5
223B
  62
0
  72
0
  71
0
 10
738.643
 20
358.220
 30
0.000000
  1
943
  0
POINT
  5
2234
  8
DEFPOINTS
  6
CONTINUOUS
 62
     0
 10
213.0
 20
0.0
 30
0.0
  0
POINT
  5
2235
  8
DEFPOINTS
  6
CONTINUOUS
 62
     0
 10
165.0
 20
942.99999999999989
 30
0.0
  0
POINT
  5
2236
  8
DEFPOINTS
  6
CONTINUOUS
 62
     0
 10
918.6427908364841
 20
942.99999999999955
 30
0.0
  0
ENDBLK
  5
21E9
  8
0
  0
ENDSEC
  0
SECTION
  2
ENTITIES
  0
CIRCLE
  5
1FF5
  8
ARRANGE
  6
CONTINUOUS
 10
0.0
 20
0.0
 30
0.0
 40
40.0
  0
LINE
  5
1FF6
  8
DETAIL
  6
CONTINOUS
 10
213.0
 20
0.0
 30
0.0
 11
-204.0
 21
0.0
 31
0.0
  0
POINT
  5
1FF7
  8
ARRANGE
  6
CONTINUOUS
 10
0.0
 20
0.0
 30
0.0
  0
LINE
  5
1FF8
  8
DETAIL
  6
CONTINOUS
 10
213.0000000000004
 20
33.0
 30
0.0
 11
-204.0
 21
33.0
 31
0.0
  0
CIRCLE
  5
1FF9
  8
FIX
  6
CONTINUOUS
 10
-180.0
 20
0.0
 30
0.0
 40
40.0
  0
LINE
  5
1FFA
  8
DETAIL
  6
CONTINOUS
 10
-204.0
 20
0.0
 30
0.0
 11
-204.0
 21
33.0
 31
0.0
  0
LINE
  5
1FFB
  8
BASIS
  6
DASHDOT
 10
0.0
 20
-50.635823000000073
 30
0.0
 11
0.0
 21
985.82556143499994
 31
0.0
  0
LINE
  5
1FFC
  8
NOTE
  6
CONTINOUS
 10
-184.9999999999994
 20
-20.0
 30
0.0
 11
-184.9999999999994
 21
20.0
 31
0.0
  0
LINE
  5
1FFD
  8
NOTE
  6
CONTINUOUS
 10
-984.87190399999895
 20
-290.07775399999991
 30
0.0
 11
-405.0651019999994
 21
-290.07775399999991
 31
0.0
  0
TEXT
  5
1FFE
  8
NOTE
  6
CONTINUOUS
 10
-930.045885
 20
-274.97545300000002
 30
0.0
 40
64.0
  1
AH 2-U cut
 41
0.9
  0
LINE
  5
1FFF
  8
NOTE
  6
CONTINUOUS
 10
-405.0651019999994
 20
-290.07775399999991
 30
0.0
 11
-184.9999999999994
 21
0.0
 31
0.0
  0
LINE
  5
2000
  8
NOTE
  6
CONTINOUS
 10
-164.9999999999994
 20
0.0
 30
0.0
 11
-204.9999999999994
 21
0.0
 31
0.0
  0
LINE
  5
2001
  8
NOTE
  6
CONTINUOUS
 10
-184.9999999999994
 20
0.0
 30
0.0
 11
-200.10423999999949
 21
-37.038654999999828
 31
0.0
  0
LINE
  5
2002
  8
NOTE
  6
CONTINUOUS
 10
-184.9999999999994
 20
0.0
 30
0.0
 11
-216.59998299999961
 21
-24.524295000000158
 31
0.0
  0
LINE
  5
2003
  8
DETAIL
  6
CONTINOUS
 10
-165.0
 20
33.0
 30
0.0
 11
-165.0
 21
943.0
 31
0.0
  0
CIRCLE
  5
2004
  8
FIX
  6
CONTINUOUS
 10
185.0000000000004
 20
0.0
 30
0.0
 40
40.0
  0
LINE
  5
2005
  8
DETAIL
  6
CONTINOUS
 10
213.0
 20
0.0
 30
0.0
 11
213.0000000000004
 21
33.0
 31
0.0
  0
LINE
  5
2006
  8
NOTE
  6
CONTINOUS
 10
185.0000000000004
 20
-20.0
 30
0.0
 11
185.0000000000004
 21
20.0
 31
0.0
  0
LINE
  5
2007
  8
NOTE
  6
CONTINUOUS
 10
989.87190399999974
 20
-290.07775399999991
 30
0.0
 11
410.06510199999991
 21
-290.07775399999991
 31
0.0
  0
TEXT
  5
2008
  8
NOTE
  6
CONTINUOUS
 10
435.29731299999992
 20
-274.97545300000002
 30
0.0
 40
64.0
  1
AH 2-12×36
 41
0.9
  0
LINE
  5
2009
  8
NOTE
  6
CONTINUOUS
 10
405.06510200000031
 20
-290.07775399999991
 30
0.0
 11
185.0000000000004
 21
0.0
 31
0.0
  0
LINE
  5
200A
  8
NOTE
  6
CONTINOUS
 10
205.0000000000004
 20
0.0
 30
0.0
 11
165.00000000000031
 21
0.0
 31
0.0
  0
LINE
  5
200B
  8
NOTE
  6
CONTINUOUS
 10
185.0000000000004
 20
0.0
 30
0.0
 11
200.1042400000004
 21
-37.038654999999828
 31
0.0
  0
LINE
  5
200C
  8
NOTE
  6
CONTINUOUS
 10
185.0000000000004
 20
0.0
 30
0.0
 11
216.59998300000041
 21
-24.524295000000158
 31
0.0
  0
TEXT
  5
200D
  8
ETC
  6
CONTINUOUS
 10
766.12742479232838
 20
1335.86339102488
 30
0.0
 40
64.0
  1
SMPU2935
 41
0.9
  0
LINE
  5
200E
  8
DETAIL
  6
CONTINOUS
 10
165.0
 20
33.0
 30
0.0
 11
165.0
 21
943.0
 31
0.0
  0
LINE
  5
200F
  8
BASIS
  6
DASHDOT
 10
255.42919599999999
 20
472.99999999953889
 30
0.0
 11
105.7262629999999
 21
472.99999999953889
 31
0.0
  0
TEXT
  5
2010
  8
ETC
  6
CONTINUOUS
 10
764.60764138745344
 20
1216.6967900248801
 30
0.0
 40
64.0
  1
室外機
 41
0.9
  0
LINE
  5
2011
  8
DETAIL
  6
CONTINUOUS
 10
165.0
 20
943.0
 30
0.0
 11
-165.0
 21
943.0
 31
0.0
  0
LINE
  5
2012
  8
DETAIL
  6
CONTINUOUS
 10
195.0000000000004
 20
762.00000000000102
 30
0.0
 11
165.0
 21
762.00000000000102
 31
0.0
  0
LINE
  5
2013
  8
DETAIL
  6
CONTINUOUS
 10
195.0000000000004
 20
183.9999999999994
 30
0.0
 11
165.0
 21
183.9999999999994
 31
0.0
  0
LINE
  5
2014
  8
DETAIL
  6
CONTINUOUS
 10
195.0000000000004
 20
183.9999999999994
 30
0.0
 11
195.0000000000004
 21
762.00000000000102
 31
0.0
  0
LINE
  5
2015
  8
NOTE
  6
CONTINOUS
 10
120.0000000000003
 20
466.0
 30
0.0
 11
120.0000000000003
 21
426.0
 31
0.0
  0
LINE
  5
2016
  8
NOTE
  6
CONTINOUS
 10
140.00000000000031
 20
446.0
 30
0.0
 11
100.0000000000003
 21
446.0
 31
0.0
  0
LINE
  5
2017
  8
NOTE
  6
CONTINOUS
 10
132.0
 20
417.99999999999989
 30
0.0
 11
92.0
 21
417.99999999999989
 31
0.0
  0
LINE
  5
2018
  8
NOTE
  6
CONTINOUS
 10
112.0
 20
437.99999999999989
 30
0.0
 11
112.0
 21
397.99999999999989
 31
0.0
  0
LINE
  5
2019
  8
NOTE
  6
CONTINOUS
 10
165.0
 20
693.0
 30
0.0
 11
165.0
 21
653.0
 31
0.0
  0
LINE
  5
201A
  8
NOTE
  6
CONTINOUS
 10
185.0
 20
673.0
 30
0.0
 11
145.0
 21
673.0
 31
0.0
  0
LINE
  5
201B
  8
NOTE
  6
CONTINUOUS
 10
-185.16427505732489
 20
692.19470693964092
 30
0.0
 11
-558.87183869953003
 21
692.19470693964081
 31
0.0
  0
TEXT
  5
201C
  8
NOTE
  6
CONTINUOUS
 10
-549.02736767803594
 20
710.65196801666104
 30
0.0
 40
64.0
  1
RL%%C6.35
 41
0.9
  0
LINE
  5
201D
  8
NOTE
  6
CONTINUOUS
 10
-613.74467075567554
 20
193.13289365362959
 30
0.0
 11
-208.43792466855419
 21
193.13289365362959
 31
0.0
  0
TEXT
  5
201E
  8
NOTE
  6
CONTINUOUS
 10
-604.57852589356435
 20
208.93220890226061
 30
0.0
 40
64.0
  1
RG%%C12.7
 41
0.9
  0
LINE
  5
201F
  8
NOTE
  6
CONTINUOUS
 10
-468.46833820999001
 20
985.55160883574081
 30
0.0
 11
-223.9952859049238
 21
985.55160883574081
 31
0.0
  0
TEXT
  5
2020
  8
NOTE
  6
CONTINUOUS
 10
-453.68803320999081
 20
1000.65390983574
 30
0.0
 40
64.0
  1
EL,CL
 41
0.9
  0
DIMENSION
  5
2021
  8
SIZE
  6
CONTINUOUS
  2
*D11
 10
185.0000000000004
 20
-334.82880203500957
 30
0.0
 11
11.25793613587302
 21
-276.96057702917278
 31
0.0
 70
   128
 13
-184.9999999999994
 23
-20.0
 33
0.0
 14
185.0000000000004
 24
-20.0
 34
0.0
1001
ACAD
1000
DSTYLE
1002
{
1070
   287
1070
     0
1070
    41
1040
10.0
1070
    42
1040
20.0
1070
    43
1040
200.0
1070
    44
1040
30.0
1070
    73
1070
     0
1070
    74
1070
     0
1070
    77
1070
     1
1070
    78
1070
     8
1070
   140
1040
64.0
1070
   147
1040
20.0
1070
   172
1070
     1
1070
   173
1070
     1
1070
   271
1070
     0
1070
   272
1070
     0
1070
   289
1070
     0
1070
   341
1005
719
1070
     6
1000
DOTBLANK
1070
     7
1000
ORIGIN
1002
}
  0
DIMENSION
  5
2022
  8
SIZE
  6
CONTINUOUS
  2
*D12
 10
-204.0
 20
-334.82880203500957
 30
0.0
 11
-307.74360338560467
 21
-284.43528219581998
 31
0.0
 70
   128
 13
-184.9999999999994
 23
-20.0
 33
0.0
 14
-204.0
 24
0.0
 34
0.0
1001
ACAD
1000
DSTYLE
1002
{
1070
   287
1070
     0
1070
    41
1040
10.0
1070
    42
1040
20.0
1070
    43
1040
200.0
1070
    44
1040
30.0
1070
    73
1070
     0
1070
    74
1070
     0
1070
    77
1070
     1
1070
    78
1070
     8
1070
   140
1040
64.0
1070
   147
1040
20.0
1070
   172
1070
     1
1070
   173
1070
     1
1070
   271
1070
     0
1070
   272
1070
     0
1070
   289
1070
     0
1070
   341
1005
719
1070
     6
1000
DOTBLANK
1070
     7
1000
ORIGIN
1002
}
  0
DIMENSION
  5
2023
  8
SIZE
  6
CONTINUOUS
  2
*D10
 10
213.00000000000031
 20
-334.82880203500957
 30
0.0
 11
312.81407050868251
 21
-279.4521454180549
 31
0.0
 70
   128
 13
185.0000000000004
 23
-20.0
 33
0.0
 14
213.0000000000004
 24
0.0
 34
0.0
1001
ACAD
1000
DSTYLE
1002
{
1070
   287
1070
     0
1070
    41
1040
10.0
1070
    42
1040
20.0
1070
    43
1040
200.0
1070
    44
1040
30.0
1070
    73
1070
     0
1070
    74
1070
     0
1070
    77
1070
     1
1070
    78
1070
     8
1070
   140
1040
64.0
1070
   147
1040
20.0
1070
   172
1070
     1
1070
   173
1070
     1
1070
   271
1070
     0
1070
   272
1070
     0
1070
   289
1070
     0
1070
   341
1005
719
1070
     6
1000
DOTBLANK
1070
     7
1000
ORIGIN
1002
}
  0
DIMENSION
  5
2024
  8
SIZE
  6
CONTINUOUS
  2
*D13
 10
212.99999999999989
 20
-470.47583155258093
 30
0.0
 11
18.734533703676789
 21
-406.522175791064
 31
0.0
 70
   128
 13
-204.0
 23
0.0
 33
0.0
 14
213.0
 24
0.0
 34
0.0
1001
ACAD
1000
DSTYLE
1002
{
1070
   287
1070
     0
1070
    41
1040
10.0
1070
    42
1040
20.0
1070
    43
1040
200.0
1070
    44
1040
30.0
1070
    73
1070
     0
1070
    74
1070
     0
1070
    77
1070
     1
1070
    78
1070
     8
1070
   140
1040
64.0
1070
   147
1040
20.0
1070
   172
1070
     1
1070
   173
1070
     1
1070
   271
1070
     0
1070
   272
1070
     0
1070
   289
1070
     0
1070
   341
1005
719
1070
     6
1000
DOTBLANK
1070
     7
1000
ORIGIN
1002
}
  0
DIMENSION
  5
202A
  8
SIZE
  6
CONTINUOUS
  2
*D9
 10
120.0000000000004
 20
1002.981695314588
 30
0.0
 11
273.1620916682968
 21
1045.713911357022
 31
0.0
 70
   128
 13
165.0
 23
943.0
 33
0.0
 14
120.0000000000003
 24
467.0
 34
0.0
1001
ACAD
1000
DSTYLE
1002
{
1070
   287
1070
     0
1070
    41
1040
10.0
1070
    42
1040
20.0
1070
    43
1040
200.0
1070
    44
1040
30.0
1070
    73
1070
     0
1070
    74
1070
     0
1070
    77
1070
     1
1070
    78
1070
     8
1070
   140
1040
64.0
1070
   147
1040
20.0
1070
   172
1070
     1
1070
   173
1070
     1
1070
   271
1070
     0
1070
   272
1070
     0
1070
   289
1070
     0
1070
   341
1005
719
1070
     6
1000
DOTBLANK
1070
     7
1000
ORIGIN
1002
}
  0
DIMENSION
  5
202B
  8
SIZE
  6
CONTINUOUS
  2
*D8
 10
112.0
 20
1126.2934918139531
 30
0.0
 11
266.04152100984709
 21
1170.292373341149
 31
0.0
 70
   128
 13
165.0
 23
943.0
 33
0.0
 14
112.0
 24
460.0
 34
0.0
1001
ACAD
1000
DSTYLE
1002
{
1070
   287
1070
     0
1070
    41
1040
10.0
1070
    42
1040
20.0
1070
    43
1040
200.0
1070
    44
1040
30.0
1070
    73
1070
     0
1070
    74
1070
     0
1070
    77
1070
     1
1070
    78
1070
     8
1070
   140
1040
64.0
1070
   147
1040
20.0
1070
   172
1070
     1
1070
   173
1070
     1
1070
   271
1070
     0
1070
   272
1070
     0
1070
   289
1070
     0
1070
   341
1005
719
1070
     6
1000
DOTBLANK
1070
     7
1000
ORIGIN
1002
}
  0
DIMENSION
  5
202C
  8
SIZE
  6
CONTINUOUS
  2
*D7
 10
195.0000000000004
 20
1258.309660749763
 30
0.0
 11
282.06280769730608
 21
1316.227145524841
 31
0.0
 70
   128
 13
165.0
 23
943.0
 33
0.0
 14
195.0000000000004
 24
762.00000000000102
 34
0.0
1001
ACAD
1000
DSTYLE
1002
{
1070
   287
1070
     0
1070
    41
1040
10.0
1070
    42
1040
20.0
1070
    43
1040
200.0
1070
    44
1040
30.0
1070
    73
1070
     0
1070
    74
1070
     0
1070
    77
1070
     1
1070
    78
1070
     8
1070
   140
1040
64.0
1070
   147
1040
20.0
1070
   172
1070
     1
1070
   173
1070
     1
1070
   271
1070
     0
1070
   272
1070
     0
1070
   289
1070
     0
1070
   341
1005
719
1070
     6
1000
DOTBLANK
1070
     7
1000
ORIGIN
1002
}
  0
LINE
  5
202D
  8
NOTE
  6
CONTINUOUS
 10
112.0
 20
417.99999999999989
 30
0.0
 11
86.320188402749864
 21
387.33165628019088
 31
0.0
  0
LINE
  5
202E
  8
NOTE
  6
CONTINUOUS
 10
-208.43792466855419
 20
193.13289365362959
 30
0.0
 11
112.0
 21
417.99999999999989
 31
0.0
  0
LINE
  5
202F
  8
NOTE
  6
CONTINUOUS
 10
112.0
 20
417.99999999999989
 30
0.0
 11
74.426459326506134
 21
404.28034212873268
 31
0.0
  0
LINE
  5
2030
  8
NOTE
  6
CONTINUOUS
 10
-185.16427505732489
 20
691.19470693964092
 30
0.0
 11
120.0000000000003
 21
446.0
 31
0.0
  0
LINE
  5
2031
  8
NOTE
  6
CONTINUOUS
 10
120.0000000000003
 20
446.0
 30
0.0
 11
96.365256843592306
 21
478.27071252355512
 31
0.0
  0
LINE
  5
2032
  8
NOTE
  6
CONTINUOUS
 10
120.0000000000003
 20
446.0
 30
0.0
 11
83.396354718193393
 21
462.12988475688002
 31
0.0
  0
LINE
  5
2033
  8
NOTE
  6
CONTINUOUS
 10
165.0
 20
673.0
 30
0.0
 11
141.36525684359171
 21
705.27071252355506
 31
0.0
  0
LINE
  5
2034
  8
NOTE
  6
CONTINUOUS
 10
-223.9952859049238
 20
985.55160883574081
 30
0.0
 11
165.0
 21
673.0
 31
0.0
  0
LINE
  5
2035
  8
NOTE
  6
CONTINUOUS
 10
165.0
 20
673.0
 30
0.0
 11
128.3963547181929
 21
689.12988475687996
 31
0.0
  0
DIMENSION
  5
2036
  8
SIZE
  6
CONTINUOUS
  2
*D6
 10
165.0
 20
1258.309660749763
 30
0.0
 11
-24.934131787591461
 21
1310.9618578763891
 31
0.0
 70
   128
 13
-165.0
 23
943.0
 33
0.0
 14
165.0
 24
943.0
 34
0.0
1001
ACAD
1000
DSTYLE
1002
{
1070
   287
1070
     0
1070
    41
1040
10.0
1070
    42
1040
20.0
1070
    43
1040
200.0
1070
    44
1040
30.0
1070
    73
1070
     0
1070
    74
1070
     0
1070
    77
1070
     1
1070
    78
1070
     8
1070
   140
1040
64.0
1070
   147
1040
20.0
1070
   172
1070
     1
1070
   173
1070
     1
1070
   271
1070
     0
1070
   272
1070
     0
1070
   289
1070
     0
1070
   341
1005
719
1070
     6
1000
DOTBLANK
1070
     7
1000
ORIGIN
1002
}
  0
LINE
  5
2037
  8
OUTLINE
 10
195.0
 20
183.9999999999981
 30
0.0
 11
195.0
 21
762.0000000000008
 31
0.0
  0
LINE
  5
2038
  8
OUTLINE
 10
165.0
 20
33.0
 30
0.0
 11
165.0
 21
942.99999999999989
 31
0.0
  0
LINE
  5
2039
  8
OUTLINE
 10
-165.0
 20
33.0
 30
0.0
 11
-165.0
 21
942.99999999999989
 31
0.0
  0
LINE
  5
203A
  8
OUTLINE
 10
213.0
 20
33.0
 30
0.0
 11
-204.0
 21
33.0
 31
0.0
  0
LINE
  5
203B
  8
OUTLINE
 10
213.0
 20
0.0
 30
0.0
 11
-204.0
 21
0.0
 31
0.0
  0
LINE
  5
203C
  8
OUTLINE
 10
-204.0
 20
0.0
 30
0.0
 11
-204.0
 21
33.0
 31
0.0
  0
LINE
  5
203D
  8
OUTLINE
 10
213.0
 20
0.0
 30
0.0
 11
213.0
 21
33.0
 31
0.0
  0
LINE
  5
203E
  8
OUTLINE
 10
195.0
 20
183.9999999999981
 30
0.0
 11
165.0
 21
183.9999999999981
 31
0.0
  0
LINE
  5
203F
  8
OUTLINE
 10
165.0
 20
942.99999999999989
 30
0.0
 11
-165.0
 21
942.99999999999989
 31
0.0
  0
LINE
  5
2040
  8
OUTLINE
 10
195.0
 20
762.0000000000008
 30
0.0
 11
165.0
 21
762.0000000000008
 31
0.0
  0
DIMENSION
  5
21A9
  8
SIZE
  6
CONTINUOUS
  2
*D14
 10
328.78924383506092
 20
417.99999999999989
 30
0.0
 11
276.7892438350608
 21
209.0
 31
0.0
 70
     0
 13
213.0
 23
0.0
 33
0.0
 14
132.0
 24
417.99999999999989
 34
0.0
 50
90.0
1001
ACAD
1000
DSTYLE
1002
{
1070
   287
1070
     3
1070
    41
1040
10.0
1070
    42
1040
20.0
1070
    43
1040
200.0
1070
    44
1040
30.0
1070
    73
1070
     0
1070
    74
1070
     0
1070
    77
1070
     1
1070
    78
1070
     8
1070
   140
1040
64.0
1070
   147
1040
20.0
1070
   172
1070
     1
1070
   173
1070
     1
1070
   275
1070
     0
1070
   279
1070
     0
1070
   284
1070
     0
1070
   285
1070
     0
1070
   286
1070
     0
1070
   341
1005
1BF0
1070
     6
1000
DOTBLANK
1070
     7
1000
ORIGIN
1002
}
  0
DIMENSION
  5
21B6
  8
SIZE
  6
CONTINUOUS
  2
*D15
 10
471.4690312183302
 20
-0.0000000000000732
 30
0.0
 11
419.46903121833009
 21
223.0
 31
0.0
 70
     0
 13
140.00000000000031
 23
446.0
 33
0.0
 14
213.0
 24
0.0
 34
0.0
 50
90.0
1001
ACAD
1000
DSTYLE
1002
{
1070
   287
1070
     3
1070
    41
1040
10.0
1070
    42
1040
20.0
1070
    43
1040
200.0
1070
    44
1040
30.0
1070
    73
1070
     0
1070
    74
1070
     0
1070
    77
1070
     1
1070
    78
1070
     8
1070
   140
1040
64.0
1070
   147
1040
20.0
1070
   172
1070
     1
1070
   173
1070
     1
1070
   275
1070
     0
1070
   279
1070
     0
1070
   284
1070
     0
1070
   285
1070
     0
1070
   286
1070
     0
1070
   341
1005
1BF0
1070
     6
1000
DOTBLANK
1070
     7
1000
ORIGIN
1002
}
  0
DIMENSION
  5
21C3
  8
SIZE
  6
CONTINUOUS
  2
*D16
 10
604.71545207999225
 20
-0.000000000000111
 30
0.0
 11
552.71545207999225
 21
236.49999999976939
 31
0.0
 70
     0
 13
255.42919599999999
 23
472.99999999953889
 33
0.0
 14
213.0
 24
0.0
 34
0.0
 50
90.0
1001
ACAD
1000
DSTYLE
1002
{
1070
   287
1070
     3
1070
    41
1040
10.0
1070
    42
1040
20.0
1070
    43
1040
200.0
1070
    44
1040
30.0
1070
    73
1070
     0
1070
    74
1070
     0
1070
    77
1070
     1
1070
    78
1070
     8
1070
   140
1040
64.0
1070
   147
1040
20.0
1070
   172
1070
     1
1070
   173
1070
     1
1070
   275
1070
     0
1070
   279
1070
     0
1070
   284
1070
     0
1070
   285
1070
     0
1070
   286
1070
     0
1070
   341
1005
1BF0
1070
     6
1000
DOTBLANK
1070
     7
1000
ORIGIN
1002
}
  0
DIMENSION
  5
21D0
  8
SIZE
  6
CONTINUOUS
  2
*D17
 10
758.00778012933915
 20
-0.0000000000001544
 30
0.0
 11
706.00778012933915
 21
336.49999999999989
 31
0.0
 70
     0
 13
185.0
 23
673.0
 33
0.0
 14
213.0
 24
0.0
 34
0.0
 50
90.0
1001
ACAD
1000
DSTYLE
1002
{
1070
   287
1070
     3
1070
    41
1040
10.0
1070
    42
1040
20.0
1070
    43
1040
200.0
1070
    44
1040
30.0
1070
    73
1070
     0
1070
    74
1070
     0
1070
    77
1070
     1
1070
    78
1070
     8
1070
   140
1040
64.0
1070
   147
1040
20.0
1070
   172
1070
     1
1070
   173
1070
     1
1070
   275
1070
     0
1070
   279
1070
     0
1070
   284
1070
     0
1070
   285
1070
     0
1070
   286
1070
     0
1070
   341
1005
1BF0
1070
     6
1000
DOTBLANK
1070
     7
1000
ORIGIN
1002
}
  0
DIMENSION
  5
21DD
  8
SIZE
  6
CONTINUOUS
  2
*D18
 10
918.6427908364841
 20
942.99999999999955
 30
0.0
 11
866.64279083648375
 21
471.49999999999977
 31
0.0
 70
     0
 13
213.0
 23
0.0
 33
0.0
 14
165.0
 24
942.99999999999989
 34
0.0
 50
90.0
1001
ACAD
1000
DSTYLE
1002
{
1070
   287
1070
     3
1070
    41
1040
10.0
1070
    42
1040
20.0
1070
    43
1040
200.0
1070
    44
1040
30.0
1070
    73
1070
     0
1070
    74
1070
     0
1070
    77
1070
     1
1070
    78
1070
     8
1070
   140
1040
64.0
1070
   147
1040
20.0
1070
   172
1070
     1
1070
   173
1070
     1
1070
   275
1070
     0
1070
   279
1070
     0
1070
   284
1070
     0
1070
   285
1070
     0
1070
   286
1070
     0
1070
   341
1005
1BF0
1070
     6
1000
DOTBLANK
1070
     7
1000
ORIGIN
1002
}
  0
ENDSEC
  0
EOF
