  0
SECTION
  2
HEADER
  9
$ACADVER
  1
AC1009
  9
$INSBASE
 10
0.0
 20
0.0
 30
0.0
  9
$EXTMIN
 10
-1146.761119453289
 20
-613.06791136589527
 30
0.0
  9
$EXTMAX
 10
1705.064987517346
 20
740.33852085331239
 30
0.0
  9
$LIMMIN
 10
-1274.822450927431
 20
-899.56220785369362
  9
$LIMMAX
 10
1818.383191659869
 20
932.48969191020922
  9
$ORTHOMODE
 70
     1
  9
$REGENMODE
 70
     1
  9
$FILLMODE
 70
     1
  9
$QTEXTMODE
 70
     0
  9
$MIRRTEXT
 70
     0
  9
$DRAGMODE
 70
     2
  9
$LTSCALE
 40
20.0
  9
$OSMODE
 70
    37
  9
$ATTMODE
 70
     1
  9
$TEXTSIZE
 40
64.0
  9
$TRACEWID
 40
0.05
  9
$TEXTSTYLE
  7
STANDARD
  9
$CLAYER
  8
DETAIL
  9
$CELTYPE
  6
CONTINUOUS
  9
$CECOLOR
 62
   256
  9
$DIMSCALE
 40
1.0
  9
$DIMASZ
 40
10.0
  9
$DIMEXO
 40
20.0
  9
$DIMDLI
 40
200.0
  9
$DIMRND
 40
0.0
  9
$DIMDLE
 40
0.0
  9
$DIMEXE
 40
30.0
  9
$DIMTP
 40
0.0
  9
$DIMTM
 40
0.0
  9
$DIMTXT
 40
64.0
  9
$DIMCEN
 40
0.09
  9
$DIMTSZ
 40
0.0
  9
$DIMTOL
 70
     0
  9
$DIMLIM
 70
     0
  9
$DIMTIH
 70
     0
  9
$DIMTOH
 70
     0
  9
$DIMSE1
 70
     0
  9
$DIMSE2
 70
     0
  9
$DIMTAD
 70
     1
  9
$DIMZIN
 70
     8
  9
$DIMBLK
  1

  9
$DIMASO
 70
     1
  9
$DIMSHO
 70
     0
  9
$DIMPOST
  1

  9
$DIMAPOST
  1

  9
$DIMALT
 70
     0
  9
$DIMALTD
 70
     2
  9
$DIMALTF
 40
25.399999999999999
  9
$DIMLFAC
 40
1.0
  9
$DIMTOFL
 70
     1
  9
$DIMTVP
 40
0.0
  9
$DIMTIX
 70
     0
  9
$DIMSOXD
 70
     0
  9
$DIMSAH
 70
     1
  9
$DIMBLK1
  1
DOTBLANK
  9
$DIMBLK2
  1
ORIGIN
  9
$DIMSTYLE
  2
STANDARD
  9
$DIMCLRD
 70
     0
  9
$DIMCLRE
 70
     0
  9
$DIMCLRT
 70
     0
  9
$DIMTFAC
 40
1.0
  9
$DIMGAP
 40
20.0
  9
$LUNITS
 70
     2
  9
$LUPREC
 70
     4
  9
$SKETCHINC
 40
0.1
  9
$FILLETRAD
 40
6.0
  9
$AUNITS
 70
     1
  9
$AUPREC
 70
     3
  9
$MENU
  1
ACAD
  9
$ELEVATION
 40
0.0
  9
$PELEVATION
 40
0.0
  9
$THICKNESS
 40
0.0
  9
$LIMCHECK
 70
     0
  9
$BLIPMODE
 70
     0
  9
$CHAMFERA
 40
0.0
  9
$CHAMFERB
 40
0.0
  9
$SKPOLY
 70
     0
  9
$TDCREATE
 40
2450330.3932059952
  9
$TDUPDATE
 40
2453256.5848856019
  9
$TDINDWG
 40
0.5362196528
  9
$TDUSRTIMER
 40
0.536219537
  9
$USRTIMER
 70
     1
  9
$ANGBASE
 50
0.0
  9
$ANGDIR
 70
     0
  9
$PDMODE
 70
     3
  9
$PDSIZE
 40
-2.0
  9
$PLINEWID
 40
0.0
  9
$COORDS
 70
     1
  9
$SPLFRAME
 70
     0
  9
$SPLINETYPE
 70
     6
  9
$SPLINESEGS
 70
     8
  9
$ATTDIA
 70
     0
  9
$ATTREQ
 70
     1
  9
$HANDLING
 70
-16383
  9
$HANDSEED
  5
22E7
  9
$SURFTAB1
 70
     6
  9
$SURFTAB2
 70
     6
  9
$SURFTYPE
 70
     6
  9
$SURFU
 70
     6
  9
$SURFV
 70
     6
  9
$UCSNAME
  2

  9
$UCSORG
 10
0.0
 20
0.0
 30
0.0
  9
$UCSXDIR
 10
1.0
 20
0.0
 30
0.0
  9
$UCSYDIR
 10
0.0
 20
1.0
 30
0.0
  9
$PUCSNAME
  2

  9
$PUCSORG
 10
0.0
 20
0.0
 30
0.0
  9
$PUCSXDIR
 10
1.0
 20
0.0
 30
0.0
  9
$PUCSYDIR
 10
0.0
 20
1.0
 30
0.0
  9
$USERI1
 70
     0
  9
$USERI2
 70
     0
  9
$USERI3
 70
     0
  9
$USERI4
 70
     0
  9
$USERI5
 70
     0
  9
$USERR1
 40
20.0
  9
$USERR2
 40
0.0
  9
$USERR3
 40
0.0
  9
$USERR4
 40
0.0
  9
$USERR5
 40
0.0
  9
$WORLDVIEW
 70
     1
  9
$SHADEDGE
 70
     3
  9
$SHADEDIF
 70
    70
  9
$TILEMODE
 70
     1
  9
$MAXACTVP
 70
    64
  9
$PLIMCHECK
 70
     0
  9
$PEXTMIN
 10
1.0000000000000000E+020
 20
1.0000000000000000E+020
 30
1.0000000000000000E+020
  9
$PEXTMAX
 10
-1.0000000000000000E+020
 20
-1.0000000000000000E+020
 30
-1.0000000000000000E+020
  9
$PLIMMIN
 10
0.0
 20
0.0
  9
$PLIMMAX
 10
12.0
 20
9.0
  9
$UNITMODE
 70
     0
  9
$VISRETAIN
 70
     1
  9
$PLINEGEN
 70
     0
  9
$PSLTSCALE
 70
     1
  0
ENDSEC
  0
SECTION
  2
TABLES
  0
TABLE
  2
VPORT
 70
     2
  0
VPORT
  2
*ACTIVE
 70
     0
 10
0.0
 20
0.0
 11
1.0
 21
1.0
 12
285.89789496625599
 22
107.53634508579491
 13
0.0
 23
0.0
 14
50.0
 24
50.0
 15
100.0
 25
100.0
 16
0.0
 26
0.0
 36
1.0
 17
0.0
 27
0.0
 37
0.0
 40
2449.0367408291072
 41
1.2721893491124261
 42
50.0
 43
0.0
 44
0.0
 50
0.0
 51
0.0
 71
     0
 72
   500
 73
     1
 74
     0
 75
     0
 76
     0
 77
     0
 78
     0
  0
ENDTAB
  0
TABLE
  2
LTYPE
 70
     8
  0
LTYPE
  2
CONTINUOUS
 70
     0
  3
実線
 72
    65
 73
     0
 40
0.0
  0
LTYPE
  2
DASHDOT
 70
     0
  3
____ _ ____ _ ____ _ ____ _ ____ _ ____ _ ____
 72
    65
 73
     4
 40
5.5
 49
4.0
 49
-0.6
 49
0.3
 49
-0.6
  0
LTYPE
  2
CONTINOUS
 70
     0
  3
Solid line
 72
    65
 73
     0
 40
0.0
  0
LTYPE
  2
DASHED
 70
     0
  3
_ _ _ _ _ _ _ _ _ _ _ _ _ _ _ _ _ _ _ _ _ _ _
 72
    65
 73
     2
 40
2.0
 49
1.1999999999999991
 49
-0.8
  0
LTYPE
  2
DOT
 70
     0
  3
...............................................
 72
    65
 73
     2
 40
0.8
 49
0.5
 49
-0.3
  0
LTYPE
  2
DASHDOT1
 70
     0
  3
____ _ ____ _ ____ _ ____ _ ____ _ ____ _ ____
 72
    65
 73
     4
 40
2.0
 49
1.5
 49
-0.2
 49
0.1
 49
-0.2
  0
LTYPE
  2
DIVIDE
 70
     0
  3
_____ _ _ _____ _ _ _____ _ _ _____ _ _ ____
 72
    65
 73
     6
 40
6.4000000000000004
 49
4.0
 49
-0.6
 49
0.3
 49
-0.6
 49
0.3
 49
-0.6
  0
LTYPE
  2
DIVIDE1
 70
     0
  3
_____ _ _ _____ _ _ _____ _ _ _____ _ _ ____
 72
    65
 73
     6
 40
3.2000000000000002
 49
2.0
 49
-0.3
 49
0.15
 49
-0.3
 49
0.15
 49
-0.3
  0
ENDTAB
  0
TABLE
  2
LAYER
 70
    12
  0
LAYER
  2
0
 70
     0
 62
     7
  6
CONTINUOUS
  0
LAYER
  2
SERVICESPACE
 70
     0
 62
     2
  6
CONTINUOUS
  0
LAYER
  2
DETAIL
 70
     0
 62
     5
  6
CONTINUOUS
  0
LAYER
  2
OUTLINE
 70
     0
 62
     3
  6
CONTINUOUS
  0
LAYER
  2
BASIS
 70
     0
 62
     6
  6
CONTINUOUS
  0
LAYER
  2
SIZE
 70
     0
 62
    32
  6
CONTINUOUS
  0
LAYER
  2
NOTE
 70
     0
 62
     4
  6
CONTINUOUS
  0
LAYER
  2
ARRANGE
 70
     0
 62
     1
  6
CONTINUOUS
  0
LAYER
  2
FIX
 70
     0
 62
   241
  6
CONTINUOUS
  0
LAYER
  2
ETC
 70
     0
 62
    83
  6
CONTINUOUS
  0
LAYER
  2
SYMBOLLINE
 70
     0
 62
    38
  6
CONTINUOUS
  0
LAYER
  2
DEFPOINTS
 70
     0
 62
     7
  6
CONTINUOUS
  0
ENDTAB
  0
TABLE
  2
STYLE
 70
     2
  0
STYLE
  2
STANDARD
 70
     0
 40
0.0
 41
0.9
 50
0.0
 71
     0
 42
64.0
  3
SIMPLEX
  4
BIGFONT
  0
STYLE
  2
STANDARD1
 70
     0
 40
0.0
 41
1.0
 50
0.0
 71
     0
 42
3.2000000000000002
  3
MONOTXT
  4
BIGFONT
  0
ENDTAB
  0
TABLE
  2
VIEW
 70
     1
  0
VIEW
  2
ALL
 70
     0
 40
4282.6199999999999
 10
0.0
 20
41.309903999999989
 41
5940.0
 11
0.0
 21
0.0
 31
1.0
 12
0.0
 22
0.0
 32
0.0
 42
50.0
 43
0.0
 44
0.0
 50
0.0
 71
     0
  0
ENDTAB
  0
TABLE
  2
UCS
 70
     0
  0
ENDTAB
  0
TABLE
  2
APPID
 70
     1
  0
APPID
  2
ACAD
 70
     0
  0
ENDTAB
  0
TABLE
  2
DIMSTYLE
 70
     2
  0
DIMSTYLE
  2
STANDARD
 70
     0
  3

  4

  5

  6

  7

 40
1.0
 41
0.18
 42
0.0625
 43
0.38
 44
0.18
 45
0.0
 46
0.0
 47
0.0
 48
0.0
140
0.18
141
0.09
142
0.0
143
25.399999999999999
144
1.0
145
0.0
146
1.0
147
0.09
 71
     0
 72
     0
 73
     1
 74
     1
 75
     0
 76
     0
 77
     0
 78
     0
170
     0
171
     2
172
     0
173
     0
174
     0
175
     0
176
     0
177
     0
178
     0
  0
DIMSTYLE
  2
DMST_1
 70
     0
  3

  4

  5

  6

  7

 40
1.0
 41
20.0
 42
4.9999999999999991
 43
7.0
 44
15.0
 45
0.0
 46
0.0
 47
0.0
 48
0.0
140
32.0
141
0.0
142
0.0
143
25.399999999999999
144
1.0
145
0.0
146
1.0
147
0.09
 71
     0
 72
     0
 73
     0
 74
     0
 75
     0
 76
     0
 77
     1
 78
     9
170
     0
171
     2
172
     0
173
     0
174
     0
175
     0
176
     2
177
     2
178
     2
  0
ENDTAB
  0
ENDSEC
  0
SECTION
  2
BLOCKS
  0
BLOCK
  8
0
  2
$MODEL_SPACE
 70
     0
 10
0.0
 20
0.0
 30
0.0
  3
$MODEL_SPACE
  1

  0
ENDBLK
  5
1B7A
  8
0
  0
BLOCK
 67
     1
  8
0
  2
$PAPER_SPACE
 70
     0
 10
0.0
 20
0.0
 30
0.0
  3
$PAPER_SPACE
  1

  0
ENDBLK
  5
1B76
 67
     1
  8
0
  0
BLOCK
  8
0
  2
A$C5F2C697A
 70
     0
 10
0.0
 20
0.0
 30
0.0
  3
A$C5F2C697A
  1

  0
TEXT
  5
1B9E
  8
SIZE
  6
BYBLOCK
 10
910.8147643978815
 20
127.36127978650261
 30
0.0
 40
64.0
  1
370
 41
0.9
  0
LINE
  5
1B9F
  8
SIZE
  6
BYBLOCK
 10
801.8719073978815
 20
95.361279786502593
 30
0.0
 11
1167.87190739788
 21
95.361279786502593
 31
0.0
  0
TEXT
  5
1BA0
  8
SIZE
  6
BYBLOCK
 10
915.81476439788139
 20
1424.5027517865019
 30
0.0
 40
64.0
  1
330
 41
0.9
  0
LINE
  5
1BA1
  8
SIZE
  6
BYBLOCK
 10
826.8719073978815
 20
1392.5027517865019
 30
0.0
 11
1152.87190739788
 21
1392.5027517865019
 31
0.0
  0
LINE
  5
1BA2
  8
OUTLINE
  6
CONTINUOUS
 10
771.8719063978815
 20
290.07775178650252
 30
0.0
 11
1183.871906397881
 21
290.07775178650252
 31
0.0
  0
LINE
  5
1BA3
  8
OUTLINE
  6
CONTINUOUS
 10
771.8719063978815
 20
323.07775178650252
 30
0.0
 11
1183.871906397881
 21
323.07775178650252
 31
0.0
  0
LINE
  5
1BA4
  8
OUTLINE
  6
CONTINUOUS
 10
824.87190639788139
 20
1145.0777517865019
 30
0.0
 11
1154.8719063978799
 21
1145.0777517865019
 31
0.0
  0
CIRCLE
  5
1BA5
  8
ARRANGE
  6
CONTINUOUS
 10
989.87190639788139
 20
290.07775178650252
 30
0.0
 40
40.0
  0
LINE
  5
1BA6
  8
DETAIL
  6
CONTINOUS
 10
771.8719063978815
 20
290.07775178650252
 30
0.0
 11
1183.871906397881
 21
290.07775178650252
 31
0.0
  0
LINE
  5
1BA7
  8
DETAIL
  6
CONTINOUS
 10
824.87190639788139
 20
1145.0777517865019
 30
0.0
 11
1154.8719063978799
 21
1145.0777517865019
 31
0.0
  0
TEXT
  5
1BA8
  8
NOTE
  6
CONTINUOUS
 10
973.98087039788129
 20
913.84623078650259
 30
0.0
 40
64.0
  1
EL,CL
 41
0.9
  0
LINE
  5
1BA9
  8
NOTE
  6
CONTINUOUS
 10
879.8719063978815
 20
686.07775178650252
 30
0.0
 11
1040.77148939788
 21
625.20405378650253
 31
0.0
  0
LINE
  5
1BAA
  8
NOTE
  6
CONTINUOUS
 10
1205.83098439788
 20
895.38895978650271
 30
0.0
 11
918.87085639788165
 21
895.38895978650271
 31
0.0
  0
POINT
  5
1BAB
  8
ARRANGE
  6
CONTINUOUS
 10
989.87190639788139
 20
290.07775178650252
 30
0.0
  0
LINE
  5
1BAC
  8
DETAIL
  6
CONTINOUS
 10
771.8719063978815
 20
323.07775178650252
 30
0.0
 11
1183.871906397881
 21
323.07775178650252
 31
0.0
  0
LINE
  5
1BAD
  8
NOTE
  6
CONTINUOUS
 10
882.87190639788139
 20
724.07775178650252
 30
0.0
 11
1040.77148939788
 21
812.30385178650238
 31
0.0
  0
CIRCLE
  5
1BAE
  8
SIZE
  6
CONTINUOUS
 10
220.7875803978813
 20
290.07775178650252
 30
0.0
 40
6.0
  0
CIRCLE
  5
1BAF
  8
SIZE
  6
CONTINUOUS
 10
503.55668139788139
 20
290.07775178650252
 30
0.0
 40
6.0
  0
CIRCLE
  5
1BB0
  8
SIZE
  6
CONTINUOUS
 10
649.74425839788148
 20
290.07775178650252
 30
0.0
 40
6.0
  0
CIRCLE
  5
1BB1
  8
SIZE
  6
CONTINUOUS
 10
350.83505539788138
 20
290.07775178650252
 30
0.0
 40
6.0
  0
LINE
  5
1BB2
  8
OUTLINE
  6
CONTINUOUS
 10
771.8719063978815
 20
290.07775178650252
 30
0.0
 11
771.8719063978815
 21
323.07775178650252
 31
0.0
  0
CIRCLE
  5
1BB3
  8
FIX
  6
CONTINUOUS
 10
799.8719063978815
 20
290.07775178650252
 30
0.0
 40
40.0
  0
LINE
  5
1BB4
  8
DETAIL
  6
CONTINOUS
 10
771.8719063978815
 20
290.07775178650252
 30
0.0
 11
771.8719063978815
 21
323.07775178650252
 31
0.0
  0
LINE
  5
1BB5
  8
BASIS
  6
DASHDOT
 10
989.87190639788139
 20
239.4419287865025
 30
0.0
 11
989.87190639788139
 21
1184.2961157865011
 31
0.0
  0
LINE
  5
1BB6
  8
NOTE
  6
CONTINOUS
 10
799.8719063978815
 20
270.07775178650252
 30
0.0
 11
799.8719063978815
 21
310.07775178650252
 31
0.0
  0
LINE
  5
1BB7
  8
NOTE
  6
CONTINUOUS
 10
0.0000023978816444
 20
-0.000002213497396
 30
0.0
 11
579.80680439788148
 21
-0.000002213497396
 31
0.0
  0
TEXT
  5
1BB8
  8
NOTE
  6
CONTINUOUS
 10
14.78030739788152
 20
15.10229878650267
 30
0.0
 40
64.0
  1
AH 2-12×36
 41
0.9
  0
LINE
  5
1BB9
  8
SIZE
  6
BYBLOCK
 10
715.70171039788136
 20
290.07775178650252
 30
0.0
 11
320.83505539788149
 21
290.07775178650252
 31
0.0
  0
LINE
  5
1BBA
  8
SIZE
  6
BYBLOCK
 10
735.70171039788136
 20
290.07775178650252
 30
0.0
 11
473.55668139788128
 21
290.07775178650252
 31
0.0
  0
LINE
  5
1BBB
  8
SIZE
  6
BYBLOCK
 10
735.70171039788136
 20
290.07775178650252
 30
0.0
 11
190.7875803978813
 21
290.07775178650252
 31
0.0
  0
LINE
  5
1BBC
  8
NOTE
  6
CONTINUOUS
 10
579.80680439788148
 20
-0.000002213497396
 30
0.0
 11
799.8719063978815
 21
290.07775178650252
 31
0.0
  0
TEXT
  5
1BBD
  8
SIZE
  6
BYBLOCK
 10
739.24333539788142
 20
127.36127978650261
 30
0.0
 40
64.0
  1
28
 41
0.9
  0
LINE
  5
1BBE
  8
SIZE
  6
BYBLOCK
 10
735.70171039788136
 20
290.07775178650252
 30
0.0
 11
619.74425839788148
 21
290.07775178650252
 31
0.0
  0
LINE
  5
1BBF
  8
SIZE
  6
BYBLOCK
 10
799.8719073978815
 20
250.0777517865026
 30
0.0
 11
799.8719073978815
 21
65.361279786502621
 31
0.0
  0
LINE
  5
1BC0
  8
SIZE
  6
BYBLOCK
 10
799.8719073978815
 20
250.0777517865026
 30
0.0
 11
799.8719073978815
 21
65.361279786502621
 31
0.0
  0
LINE
  5
1BC1
  8
SIZE
  6
BYBLOCK
 10
771.8719073978815
 20
270.07775178650252
 30
0.0
 11
771.8719073978815
 21
65.361279786502621
 31
0.0
  0
CIRCLE
  5
1BC2
  8
SIZE
  6
CONTINUOUS
 10
799.8719073978815
 20
95.361279786502593
 30
0.0
 40
6.0
  0
CIRCLE
  5
1BC3
  8
SIZE
  6
CONTINUOUS
 10
771.8719073978815
 20
95.361279786502593
 30
0.0
 40
6.0
  0
CIRCLE
  5
1BC4
  8
SIZE
  6
CONTINUOUS
 10
799.8719073978815
 20
95.361279786502593
 30
0.0
 40
6.0
  0
LINE
  5
1BC5
  8
SIZE
  6
BYBLOCK
 10
799.8719073978815
 20
95.361279786502593
 30
0.0
 11
771.8719073978815
 21
95.361279786502593
 31
0.0
  0
LINE
  5
1BC6
  8
SIZE
  6
BYBLOCK
 10
769.8719073978815
 20
95.361279786502593
 30
0.0
 11
767.8719073978815
 21
95.361279786502593
 31
0.0
  0
LINE
  5
1BC7
  8
SIZE
  6
BYBLOCK
 10
801.8719073978815
 20
95.361279786502593
 30
0.0
 11
803.87190739788139
 21
95.361279786502593
 31
0.0
  0
LINE
  5
1BC8
  8
NOTE
  6
CONTINOUS
 10
779.8719063978815
 20
290.07775178650252
 30
0.0
 11
819.8719063978815
 21
290.07775178650252
 31
0.0
  0
LINE
  5
1BC9
  8
NOTE
  6
CONTINUOUS
 10
799.8719063978815
 20
290.07775178650252
 30
0.0
 11
784.76766639788127
 21
253.0390967865026
 31
0.0
  0
LINE
  5
1BCA
  8
NOTE
  6
CONTINUOUS
 10
799.8719063978815
 20
290.07775178650252
 30
0.0
 11
768.27192339788144
 21
265.55345678650252
 31
0.0
  0
LINE
  5
1BCB
  8
SIZE
  6
BYBLOCK
 10
771.8719073978815
 20
343.07775178650252
 30
0.0
 11
771.8719073978815
 21
1422.5027517865019
 31
0.0
  0
LINE
  5
1BCC
  8
OUTLINE
  6
CONTINUOUS
 10
824.87190639788139
 20
323.07775178650252
 30
0.0
 11
824.87190639788139
 21
1145.0777517865019
 31
0.0
  0
LINE
  5
1BCD
  8
DETAIL
  6
CONTINOUS
 10
824.87190639788139
 20
323.07775178650252
 30
0.0
 11
824.87190639788139
 21
1145.0777517865019
 31
0.0
  0
LINE
  5
1BCE
  8
DETAIL
  6
CONTINOUS
 10
804.8719063978815
 20
462.0777517865024
 30
0.0
 11
804.8719063978815
 21
1002.0777517865019
 31
0.0
  0
LINE
  5
1BCF
  8
SIZE
  6
BYBLOCK
 10
714.44271139788157
 20
732.07775178650252
 30
0.0
 11
320.83505539788149
 21
732.07775178650252
 31
0.0
  0
LINE
  5
1BD0
  8
SIZE
  6
BYBLOCK
 10
856.8719073978815
 20
724.07775178650252
 30
0.0
 11
473.55668139788128
 21
724.07775178650252
 31
0.0
  0
LINE
  5
1BD1
  8
SIZE
  6
BYBLOCK
 10
777.27455739788161
 20
810.08015378650236
 30
0.0
 11
190.4274553978814
 21
810.08015378650236
 31
0.0
  0
LINE
  5
1BD2
  8
SIZE
  6
BYBLOCK
 10
350.83505539788138
 20
292.07775178650252
 30
0.0
 11
350.83505539788138
 21
730.07775178650252
 31
0.0
  0
LINE
  5
1BD3
  8
SIZE
  6
BYBLOCK
 10
503.55668139788139
 20
292.07775178650252
 30
0.0
 11
503.55668139788139
 21
724.07775178650252
 31
0.0
  0
TEXT
  5
1BD4
  8
SIZE
  6
BYBLOCK
 10
188.7875803978813
 20
529.52060878650241
 30
0.0
 40
64.0
  1
520
 50
90.0
 41
0.9
  0
LINE
  5
1BD5
  8
SIZE
  6
BYBLOCK
 10
220.7875803978813
 20
810.08015378650236
 30
0.0
 11
220.7875803978813
 21
603.57775178650252
 31
0.0
  0
TEXT
  5
1BD6
  8
SIZE
  6
BYBLOCK
 10
318.83505539788149
 20
437.02060878650252
 30
0.0
 40
64.0
  1
442
 50
90.0
 41
0.9
  0
LINE
  5
1BD7
  8
SIZE
  6
BYBLOCK
 10
220.7875803978813
 20
292.07775178650252
 30
0.0
 11
220.7875803978813
 21
603.57775178650252
 31
0.0
  0
TEXT
  5
1BD8
  8
SIZE
  6
BYBLOCK
 10
471.55668139788139
 20
427.13489478650251
 30
0.0
 40
64.0
  1
434
 50
90.0
 41
0.9
  0
CIRCLE
  5
1BD9
  8
SIZE
  6
CONTINUOUS
 10
220.4274553978814
 20
810.08015378650236
 30
0.0
 40
6.0
  0
CIRCLE
  5
1BDA
  8
SIZE
  6
CONTINUOUS
 10
350.83505539788138
 20
732.07775178650252
 30
0.0
 40
6.0
  0
CIRCLE
  5
1BDB
  8
SIZE
  6
CONTINUOUS
 10
503.55668139788139
 20
724.07775178650252
 30
0.0
 40
6.0
  0
LINE
  5
1BDC
  8
SIZE
  6
BYBLOCK
 10
649.74425839788148
 20
292.07775178650252
 30
0.0
 11
649.74425839788148
 21
684.07775178650252
 31
0.0
  0
TEXT
  5
1BDD
  8
SIZE
  6
BYBLOCK
 10
617.74425839788125
 20
415.3920377865025
 30
0.0
 40
64.0
  1
396
 50
90.0
 41
0.9
  0
LINE
  5
1BDE
  8
DETAIL
  6
CONTINOUS
 10
824.87190639788139
 20
462.0777517865024
 30
0.0
 11
804.8719063978815
 21
462.0777517865024
 31
0.0
  0
LINE
  5
1BDF
  8
SIZE
  6
BYBLOCK
 10
836.26393739788148
 20
686.07775178650252
 30
0.0
 11
619.74425839788148
 21
686.07775178650252
 31
0.0
  0
LINE
  5
1BE0
  8
BASIS
  6
DASHDOT
 10
734.44271139788145
 20
732.07775178650252
 30
0.0
 11
884.14564339788137
 21
732.07775178650252
 31
0.0
  0
CIRCLE
  5
1BE1
  8
SIZE
  6
CONTINUOUS
 10
649.74425839788148
 20
686.07775178650252
 30
0.0
 40
6.0
  0
LINE
  5
1BE2
  8
NOTE
  6
CONTINOUS
 10
862.8719063978815
 20
724.07775178650252
 30
0.0
 11
902.8719063978815
 21
724.07775178650252
 31
0.0
  0
LINE
  5
1BE3
  8
NOTE
  6
CONTINOUS
 10
859.87190639788162
 20
686.07775178650252
 30
0.0
 11
899.87190639788139
 21
686.07775178650252
 31
0.0
  0
LINE
  5
1BE4
  8
NOTE
  6
CONTINOUS
 10
879.8719063978815
 20
666.07775178650252
 30
0.0
 11
879.8719063978815
 21
706.07775178650252
 31
0.0
  0
POLYLINE
  5
1BE5
  8
NOTE
  6
CONTINUOUS
 66
     1
 10
0.0
 20
0.0
 30
0.0
  0
VERTEX
  5
22C3
  8
NOTE
  6
CONTINUOUS
 10
919.40695039788125
 20
679.99661178650251
 30
0.0
  0
VERTEX
  5
22C4
  8
NOTE
  6
CONTINUOUS
 10
879.8719063978815
 20
686.07775178650252
 30
0.0
  0
VERTEX
  5
22C5
  8
NOTE
  6
CONTINUOUS
 10
911.06968939788146
 20
661.04380778650238
 30
0.0
  0
SEQEND
  5
22C6
  8
NOTE
  6
CONTINUOUS
  0
POLYLINE
  5
1BEA
  8
NOTE
  6
CONTINUOUS
 66
     1
 10
0.0
 20
0.0
 30
0.0
  0
VERTEX
  5
22C7
  8
NOTE
  6
CONTINUOUS
 10
911.55116939788149
 20
751.96143678650253
 30
0.0
  0
VERTEX
  5
22C8
  8
NOTE
  6
CONTINUOUS
 10
882.87190639788139
 20
724.07775178650252
 30
0.0
  0
VERTEX
  5
22C9
  8
NOTE
  6
CONTINUOUS
 10
921.65071939788174
 20
733.88609978650254
 30
0.0
  0
SEQEND
  5
22CA
  8
NOTE
  6
CONTINUOUS
  0
LINE
  5
1BEF
  8
NOTE
  6
CONTINOUS
 10
882.87190639788139
 20
704.0777517865024
 30
0.0
 11
882.87190639788139
 21
744.07775178650252
 31
0.0
  0
LINE
  5
1BF0
  8
NOTE
  6
CONTINUOUS
 10
824.51178139788146
 20
810.08015378650236
 30
0.0
 11
918.87085639788165
 21
895.38895978650271
 31
0.0
  0
LINE
  5
1BF1
  8
NOTE
  6
CONTINOUS
 10
804.51178139788135
 20
810.08015378650236
 30
0.0
 11
844.51178139788135
 21
810.08015378650236
 31
0.0
  0
POLYLINE
  5
1BF2
  8
NOTE
  6
CONTINUOUS
 66
     1
 10
0.0
 20
0.0
 30
0.0
  0
VERTEX
  5
22CB
  8
NOTE
  6
CONTINUOUS
 10
846.64476439788132
 20
843.39878378650269
 30
0.0
  0
VERTEX
  5
22CC
  8
NOTE
  6
CONTINUOUS
 10
824.51178139788146
 20
810.08015378650236
 30
0.0
  0
VERTEX
  5
22CD
  8
NOTE
  6
CONTINUOUS
 10
860.33882139788147
 20
827.86844278650256
 30
0.0
  0
SEQEND
  5
22CE
  8
NOTE
  6
CONTINUOUS
  0
LINE
  5
1BF7
  8
NOTE
  6
CONTINOUS
 10
824.51178139788146
 20
790.08015378650236
 30
0.0
 11
824.51178139788146
 21
830.08015378650225
 31
0.0
  0
LINE
  5
1BF8
  8
NOTE
  6
CONTINUOUS
 10
872.35755039788137
 20
933.93013678650243
 30
0.0
 11
872.35755039788137
 21
933.93013678650243
 31
0.0
  0
LINE
  5
1BF9
  8
SIZE
  6
BYBLOCK
 10
824.8719073978815
 20
1185.0777517865019
 30
0.0
 11
824.8719073978815
 21
1422.5027517865019
 31
0.0
  0
LINE
  5
1BFA
  8
SIZE
  6
BYBLOCK
 10
824.8719073978815
 20
1165.0777517865019
 30
0.0
 11
824.8719073978815
 21
1422.5027517865019
 31
0.0
  0
LINE
  5
1BFB
  8
SIZE
  6
BYBLOCK
 10
824.8719073978815
 20
1165.0777517865019
 30
0.0
 11
824.8719073978815
 21
1293.248751786502
 31
0.0
  0
LINE
  5
1BFC
  8
SIZE
  6
BYBLOCK
 10
804.87190739788139
 20
1022.0777517865019
 30
0.0
 11
804.87190739788139
 21
1293.248751786502
 31
0.0
  0
LINE
  5
1BFD
  8
DETAIL
  6
CONTINOUS
 10
824.87190639788139
 20
1002.0777517865019
 30
0.0
 11
804.8719063978815
 21
1002.0777517865019
 31
0.0
  0
LINE
  5
1BFE
  8
SIZE
  6
CONTINUOUS
 10
814.87190639788139
 20
1263.2491457865019
 30
0.0
 11
945.94025839788139
 21
1263.2491457865019
 31
0.0
  0
LINE
  5
1BFF
  8
SIZE
  6
BYBLOCK
 10
822.8719073978815
 20
1263.2491457865019
 30
0.0
 11
814.8719073978815
 21
1263.2491457865019
 31
0.0
  0
CIRCLE
  5
1C00
  8
SIZE
  6
CONTINUOUS
 10
804.87190739788139
 20
1263.2491457865019
 30
0.0
 40
6.0
  0
LINE
  5
1C01
  8
SIZE
  6
BYBLOCK
 10
806.8719073978815
 20
1263.2491457865019
 30
0.0
 11
814.8719073978815
 21
1263.2491457865019
 31
0.0
  0
CIRCLE
  5
1C02
  8
SIZE
  6
CONTINUOUS
 10
824.8719073978815
 20
1263.2491457865019
 30
0.0
 40
6.0
  0
TEXT
  5
1C03
  8
SIZE
  6
BYBLOCK
 10
751.74333539788142
 20
1424.5027517865019
 30
0.0
 40
64.0
  1
53
 41
0.9
  0
TEXT
  5
1C04
  8
SIZE
  6
BYBLOCK
 10
843.21570539788115
 20
1295.248751786502
 30
0.0
 40
64.0
  1
20
 41
0.9
  0
LINE
  5
1C05
  8
SIZE
  6
BYBLOCK
 10
824.8719073978815
 20
1392.5027517865019
 30
0.0
 11
771.8719073978815
 21
1392.5027517865019
 31
0.0
  0
CIRCLE
  5
1C06
  8
SIZE
  6
CONTINUOUS
 10
771.8719073978815
 20
1392.5027517865019
 30
0.0
 40
6.0
  0
LINE
  5
1C07
  8
SIZE
  6
BYBLOCK
 10
769.8719073978815
 20
1392.5027517865019
 30
0.0
 11
767.8719073978815
 21
1392.5027517865019
 31
0.0
  0
CIRCLE
  5
1C08
  8
SIZE
  6
CONTINUOUS
 10
824.8719073978815
 20
1392.5027517865019
 30
0.0
 40
6.0
  0
CIRCLE
  5
1C09
  8
SIZE
  6
CONTINUOUS
 10
824.8719073978815
 20
1392.5027517865019
 30
0.0
 40
6.0
  0
LINE
  5
1C0A
  8
SIZE
  6
BYBLOCK
 10
826.8719073978815
 20
1392.5027517865019
 30
0.0
 11
828.87190739788139
 21
1392.5027517865019
 31
0.0
  0
CIRCLE
  5
1C0B
  8
SIZE
  6
CONTINUOUS
 10
1420.44446039788
 20
290.07775178650252
 30
0.0
 40
6.0
  0
CIRCLE
  5
1C0C
  8
FIX
  6
CONTINUOUS
 10
1169.871906397881
 20
290.07775178650252
 30
0.0
 40
40.0
  0
LINE
  5
1C0D
  8
OUTLINE
  6
CONTINUOUS
 10
1183.871906397881
 20
323.07775178650252
 30
0.0
 11
1183.871906397881
 21
290.07775178650252
 31
0.0
  0
TEXT
  5
1C0E
  8
ETC
  6
CONTINUOUS
 10
1573.1112623978811
 20
288.6366377865026
 30
0.0
 40
64.0
  1
室外機
 41
0.9
  0
LINE
  5
1C0F
  8
DETAIL
  6
CONTINOUS
 10
1183.871906397881
 20
290.07775178650252
 30
0.0
 11
1183.871906397881
 21
323.07775178650252
 31
0.0
  0
LINE
  5
1C10
  8
NOTE
  6
CONTINOUS
 10
1169.871906397881
 20
270.07775178650252
 30
0.0
 11
1169.871906397881
 21
310.07775178650252
 31
0.0
  0
LINE
  5
1C11
  8
NOTE
  6
CONTINUOUS
 10
1969.74381039788
 20
-0.000002213497396
 30
0.0
 11
1389.9370083978811
 21
-0.000002213497396
 31
0.0
  0
TEXT
  5
1C12
  8
NOTE
  6
CONTINUOUS
 10
1415.1692193978811
 20
15.10229878650267
 30
0.0
 40
64.0
  1
AH 2-U cut
 41
0.9
  0
LINE
  5
1C13
  8
NOTE
  6
CONTINUOUS
 10
1389.9370083978811
 20
-0.000002213497396
 30
0.0
 11
1169.871906397881
 21
290.07775178650252
 31
0.0
  0
LINE
  5
1C14
  8
SIZE
  6
BYBLOCK
 10
1214.7137463978811
 20
290.07775178650252
 30
0.0
 11
1450.44446039788
 21
290.07775178650252
 31
0.0
  0
LINE
  5
1C15
  8
SIZE
  6
BYBLOCK
 10
1183.87190739788
 20
270.07775178650252
 30
0.0
 11
1183.87190739788
 21
65.361279786502621
 31
0.0
  0
LINE
  5
1C16
  8
SIZE
  6
BYBLOCK
 10
1169.87190739788
 20
250.0777517865026
 30
0.0
 11
1169.87190739788
 21
65.361279786502621
 31
0.0
  0
LINE
  5
1C17
  8
SIZE
  6
BYBLOCK
 10
1169.87190739788
 20
250.0777517865026
 30
0.0
 11
1169.87190739788
 21
65.361279786502621
 31
0.0
  0
CIRCLE
  5
1C18
  8
SIZE
  6
CONTINUOUS
 10
1169.87190739788
 20
95.361279786502593
 30
0.0
 40
6.0
  0
CIRCLE
  5
1C19
  8
SIZE
  6
CONTINUOUS
 10
1169.87190739788
 20
95.361279786502593
 30
0.0
 40
6.0
  0
CIRCLE
  5
1C1A
  8
SIZE
  6
CONTINUOUS
 10
1183.87190739788
 20
95.361279786502593
 30
0.0
 40
6.0
  0
LINE
  5
1C1B
  8
SIZE
  6
BYBLOCK
 10
1183.87190739788
 20
95.361279786502593
 30
0.0
 11
1169.87190739788
 21
95.361279786502593
 31
0.0
  0
LINE
  5
1C1C
  8
SIZE
  6
BYBLOCK
 10
1167.87190739788
 20
95.361279786502593
 30
0.0
 11
1165.87190739788
 21
95.361279786502593
 31
0.0
  0
LINE
  5
1C1D
  8
SIZE
  6
BYBLOCK
 10
1185.87190739788
 20
95.361279786502593
 30
0.0
 11
1187.87190739788
 21
95.361279786502593
 31
0.0
  0
TEXT
  5
1C1E
  8
SIZE
  6
BYBLOCK
 10
1134.3576213978811
 20
127.36127978650261
 30
0.0
 40
64.0
  1
14
 41
0.9
  0
LINE
  5
1C1F
  8
NOTE
  6
CONTINOUS
 10
1149.871906397881
 20
290.07775178650252
 30
0.0
 11
1189.871906397881
 21
290.07775178650252
 31
0.0
  0
LINE
  5
1C20
  8
NOTE
  6
CONTINUOUS
 10
1169.871906397881
 20
290.07775178650252
 30
0.0
 11
1184.97614639788
 21
253.0390967865026
 31
0.0
  0
LINE
  5
1C21
  8
NOTE
  6
CONTINUOUS
 10
1169.871906397881
 20
290.07775178650252
 30
0.0
 11
1201.47188939788
 21
265.55345678650252
 31
0.0
  0
TEXT
  5
1C22
  8
ETC
  6
CONTINUOUS
 10
1561.2885183978799
 20
407.8032387865025
 30
0.0
 40
64.0
  1
SPUZ0824
 41
0.9
  0
LINE
  5
1C23
  8
SIZE
  6
BYBLOCK
 10
1420.44446039788
 20
1143.0777517865019
 30
0.0
 11
1420.44446039788
 21
717.57775178650252
 31
0.0
  0
LINE
  5
1C24
  8
OUTLINE
  6
CONTINUOUS
 10
1154.8719063978799
 20
1145.0777517865019
 30
0.0
 11
1154.8719063978799
 21
323.07775178650252
 31
0.0
  0
LINE
  5
1C25
  8
DETAIL
  6
CONTINOUS
 10
1154.8719063978799
 20
323.07775178650252
 30
0.0
 11
1154.8719063978799
 21
1145.0777517865019
 31
0.0
  0
LINE
  5
1C26
  8
SIZE
  6
BYBLOCK
 10
1420.44446039788
 20
292.07775178650252
 30
0.0
 11
1420.44446039788
 21
717.57775178650252
 31
0.0
  0
LINE
  5
1C27
  8
NOTE
  6
CONTINUOUS
 10
1124.871906397881
 20
323.07775178650252
 30
0.0
 11
1231.96219639788
 21
428.57361078650251
 31
0.0
  0
LINE
  5
1C28
  8
NOTE
  6
CONTINOUS
 10
1104.871906397881
 20
323.07775178650252
 30
0.0
 11
1144.871906397881
 21
323.07775178650252
 31
0.0
  0
POLYLINE
  5
1C29
  8
NOTE
  6
CONTINUOUS
 66
     1
 10
0.0
 20
0.0
 30
0.0
  0
VERTEX
  5
22CF
  8
NOTE
  6
CONTINUOUS
 10
1145.1311663978811
 20
357.56778478650261
 30
0.0
  0
VERTEX
  5
22D0
  8
NOTE
  6
CONTINUOUS
 10
1124.871906397881
 20
323.07775178650252
 30
0.0
  0
VERTEX
  5
22D1
  8
NOTE
  6
CONTINUOUS
 10
1159.661957397881
 20
342.81736678650259
 30
0.0
  0
SEQEND
  5
22D2
  8
NOTE
  6
CONTINUOUS
  0
LINE
  5
1C2E
  8
NOTE
  6
CONTINOUS
 10
1124.871906397881
 20
303.07775178650257
 30
0.0
 11
1124.871906397881
 21
343.07775178650252
 31
0.0
  0
TEXT
  5
1C2F
  8
NOTE
  6
CONTINUOUS
 10
1251.9401213978811
 20
438.44475178650248
 30
0.0
 40
64.0
  1
D
 41
0.9
  0
LINE
  5
1C30
  8
NOTE
  6
CONTINUOUS
 10
1231.96219639788
 20
428.57361078650251
 30
0.0
 11
1302.198482397881
 21
428.57361078650251
 31
0.0
  0
TEXT
  5
1C31
  8
NOTE
  6
CONTINUOUS
 10
1060.7086543978801
 20
635.63939678650252
 30
0.0
 40
64.0
  1
RG
 41
0.9
  0
LINE
  5
1C32
  8
NOTE
  6
CONTINUOUS
 10
1040.77148939788
 20
625.20405378650253
 30
0.0
 11
1180.455218397881
 21
625.20405378650253
 31
0.0
  0
TEXT
  5
1C33
  8
NOTE
  6
CONTINUOUS
 10
1060.92620539788
 20
822.17499278650257
 30
0.0
 40
64.0
  1
RL
 41
0.9
  0
LINE
  5
1C34
  8
NOTE
  6
CONTINUOUS
 10
1040.77148939788
 20
812.30385178650238
 30
0.0
 11
1170.35759939788
 21
812.30385178650238
 31
0.0
  0
TEXT
  5
1C35
  8
SIZE
  6
BYBLOCK
 10
1388.44446039788
 20
643.52060878650252
 30
0.0
 40
64.0
  1
855
 50
90.0
 41
0.9
  0
LINE
  5
1C36
  8
SIZE
  6
BYBLOCK
 10
1154.87190739788
 20
1165.0777517865019
 30
0.0
 11
1154.87190739788
 21
1422.5027517865019
 31
0.0
  0
LINE
  5
1C37
  8
SIZE
  6
BYBLOCK
 10
1203.87190739788
 20
1145.0777517865019
 30
0.0
 11
1450.44446039788
 21
1145.0777517865019
 31
0.0
  0
CIRCLE
  5
1C38
  8
SIZE
  6
CONTINUOUS
 10
1420.44446039788
 20
1145.0777517865019
 30
0.0
 40
6.0
  0
CIRCLE
  5
1C39
  8
SIZE
  6
CONTINUOUS
 10
1154.87190739788
 20
1392.5027517865019
 30
0.0
 40
6.0
  0
ENDBLK
  5
1C3A
  8
0
  0
BLOCK
  8
0
  2
_ORIGIN
 70
     0
 10
0.0
 20
0.0
 30
0.0
  3
_ORIGIN
  1

  0
CIRCLE
  5
1C3D
  8
0
  6
BYBLOCK
 62
     0
 10
0.0
 20
0.0
 30
0.0
 40
0.5
  0
LINE
  5
1C3E
  8
0
  6
BYBLOCK
 62
     0
 10
0.0
 20
0.0
 30
0.0
 11
-1.0
 21
0.0
 31
0.0
  0
ENDBLK
  5
1C3F
  8
0
  0
BLOCK
  8
0
  2
_ORIGIN2
 70
     0
 10
0.0
 20
0.0
 30
0.0
  3
_ORIGIN2
  1

  0
CIRCLE
  5
1C42
  8
0
  6
BYBLOCK
 62
     0
 10
0.0
 20
0.0
 30
0.0
 40
0.5
  0
CIRCLE
  5
1C43
  8
0
  6
BYBLOCK
 62
     0
 10
0.0
 20
0.0
 30
0.0
 40
0.25
  0
LINE
  5
1C44
  8
0
  6
BYBLOCK
 62
     0
 10
-0.5
 20
0.0
 30
0.0
 11
-1.0
 21
0.0
 31
0.0
  0
ENDBLK
  5
1C45
  8
0
  0
BLOCK
  8
0
  2
_DOTBLANK
 70
     0
 10
0.0
 20
0.0
 30
0.0
  3
_DOTBLANK
  1

  0
CIRCLE
  5
1C48
  8
0
  6
BYBLOCK
 62
     0
 10
0.0
 20
0.0
 30
0.0
 40
0.5
  0
LINE
  5
1C49
  8
0
  6
BYBLOCK
 62
     0
 10
-0.5
 20
0.0
 30
0.0
 11
-1.0
 21
0.0
 31
0.0
  0
ENDBLK
  5
1C4A
  8
0
  0
BLOCK
  8
0
  2
*D6
 70
     1
 10
0.0
 20
0.0
 30
0.0
  3
*D6
  1

  0
LINE
  5
210F
  8
SIZE
  6
CONTINUOUS
 62
     0
 10
-474.99999999999989
 20
185.0
 30
0.0
 11
-474.99999999999989
 21
607.67217662139205
 31
0.0
  0
LINE
  5
2110
  8
SIZE
  6
CONTINUOUS
 62
     0
 10
475.0
 20
185.0
 30
0.0
 11
475.0
 21
607.67217662139205
 31
0.0
  0
LINE
  5
2111
  8
SIZE
  6
CONTINUOUS
 62
     0
 10
-464.99999999999989
 20
577.67217662139205
 30
0.0
 11
465.0
 21
577.67217662139205
 31
0.0
  0
TEXT
  5
2112
  8
DETAIL
  6
CONTINUOUS
 62
     0
 10
-113.9896379669607
 20
619.40479798408239
 30
0.0
 40
64.0
  1
950
 41
0.9
  0
INSERT
  5
2113
  8
SIZE
  6
CONTINUOUS
 62
     0
  2
_DOTBLANK
 10
-474.99999999999989
 20
577.67217662139205
 30
0.0
 41
10.0
 42
10.0
 43
10.0
 50
180.0
  0
INSERT
  5
2114
  8
SIZE
  6
CONTINUOUS
 62
     0
  2
_ORIGIN
 10
475.0
 20
577.67217662139205
 30
0.0
 41
10.0
 42
10.0
 43
10.0
  0
POINT
  5
2115
  8
DEFPOINTS
  6
CONTINUOUS
 62
     0
 10
-474.99999999999989
 20
165.0
 30
0.0
  0
POINT
  5
2116
  8
DEFPOINTS
  6
CONTINUOUS
 62
     0
 10
475.0
 20
165.0
 30
0.0
  0
POINT
  5
2117
  8
DEFPOINTS
  6
CONTINUOUS
 62
     0
 10
475.0
 20
577.67217662139205
 30
0.0
  0
ENDBLK
  5
210E
  8
0
  0
BLOCK
  8
0
  2
*D7
 70
     1
 10
0.0
 20
0.0
 30
0.0
  3
*D7
  1

  0
LINE
  5
2297
  8
SIZE
  6
CONTINUOUS
 62
     0
 10
-300.0
 20
220.0
 30
0.0
 11
-300.0
 21
437.98130346314798
 31
0.0
  0
LINE
  5
2298
  8
SIZE
  6
CONTINUOUS
 62
     0
 10
300.0
 20
220.0
 30
0.0
 11
300.0
 21
437.98130346314798
 31
0.0
  0
LINE
  5
2299
  8
SIZE
  6
CONTINUOUS
 62
     0
 10
-290.0
 20
407.98130346314792
 30
0.0
 11
290.0
 21
407.98130346314792
 31
0.0
  0
TEXT
  5
229A
  8
DETAIL
  6
CONTINUOUS
 62
     0
 10
-40.778600289631768
 20
433.91393542756492
 30
0.0
 40
64.0
  1
600
 41
0.9
  0
INSERT
  5
229B
  8
SIZE
  6
CONTINUOUS
 62
     0
  2
_DOTBLANK
 10
-300.0
 20
407.98130346314792
 30
0.0
 41
10.0
 42
10.0
 43
10.0
 50
180.0
  0
INSERT
  5
229C
  8
SIZE
  6
CONTINUOUS
 62
     0
  2
_ORIGIN
 10
300.0
 20
407.98130346314792
 30
0.0
 41
10.0
 42
10.0
 43
10.0
  0
POINT
  5
229D
  8
DEFPOINTS
  6
CONTINUOUS
 62
     0
 10
-300.0
 20
200.0
 30
0.0
  0
POINT
  5
229E
  8
DEFPOINTS
  6
CONTINUOUS
 62
     0
 10
300.0
 20
200.0
 30
0.0
  0
POINT
  5
229F
  8
DEFPOINTS
  6
CONTINUOUS
 62
     0
 10
300.0
 20
407.98130346314792
 30
0.0
  0
ENDBLK
  5
2124
  8
0
  0
BLOCK
  8
0
  2
*D8
 70
     1
 10
0.0
 20
0.0
 30
0.0
  3
*D8
  1

  0
LINE
  5
213D
  8
SIZE
  6
CONTINUOUS
 62
     0
 10
300.0
 20
220.0
 30
0.0
 11
300.0
 21
437.98130346314798
 31
0.0
  0
LINE
  5
213E
  8
SIZE
  6
CONTINUOUS
 62
     0
 10
475.0
 20
185.0
 30
0.0
 11
475.0
 21
437.98130346314798
 31
0.0
  0
LINE
  5
213F
  8
SIZE
  6
CONTINUOUS
 62
     0
 10
290.0
 20
407.98130346314792
 30
0.0
 11
280.0
 21
407.98130346314792
 31
0.0
  0
LINE
  5
2140
  8
SIZE
  6
CONTINUOUS
 62
     0
 10
485.0
 20
407.98130346314792
 30
0.0
 11
495.0
 21
407.98130346314792
 31
0.0
  0
TEXT
  5
2141
  8
DETAIL
  6
CONTINUOUS
 62
     0
 10
311.577886881192
 20
423.53417637398701
 30
0.0
 40
64.0
  1
175
 41
0.9
  0
LINE
  5
2142
  8
SIZE
  6
CONTINUOUS
 62
     0
 10
300.0
 20
407.98130346314792
 30
0.0
 11
475.0
 21
407.98130346314792
 31
0.0
  0
INSERT
  5
2143
  8
SIZE
  6
CONTINUOUS
 62
     0
  2
_DOTBLANK
 10
300.0
 20
407.98130346314792
 30
0.0
 41
10.0
 42
10.0
 43
10.0
  0
INSERT
  5
2144
  8
SIZE
  6
CONTINUOUS
 62
     0
  2
_ORIGIN
 10
475.0
 20
407.98130346314792
 30
0.0
 41
10.0
 42
10.0
 43
10.0
 50
180.0
  0
POINT
  5
2145
  8
DEFPOINTS
  6
CONTINUOUS
 62
     0
 10
300.0
 20
200.0
 30
0.0
  0
POINT
  5
2146
  8
DEFPOINTS
  6
CONTINUOUS
 62
     0
 10
475.0
 20
165.0
 30
0.0
  0
POINT
  5
2147
  8
DEFPOINTS
  6
CONTINUOUS
 62
     0
 10
475.0
 20
407.98130346314792
 30
0.0
  0
ENDBLK
  5
213C
  8
0
  0
BLOCK
  8
0
  2
*D9
 70
     1
 10
0.0
 20
0.0
 30
0.0
  3
*D9
  1

  0
LINE
  5
2156
  8
SIZE
  6
CONTINUOUS
 62
     0
 10
-474.99999999999989
 20
185.0
 30
0.0
 11
-474.99999999999989
 21
437.98130346314798
 31
0.0
  0
LINE
  5
2157
  8
SIZE
  6
CONTINUOUS
 62
     0
 10
-300.0
 20
220.0
 30
0.0
 11
-300.0
 21
437.98130346314798
 31
0.0
  0
LINE
  5
2158
  8
SIZE
  6
CONTINUOUS
 62
     0
 10
-464.99999999999989
 20
407.98130346314792
 30
0.0
 11
-310.0
 21
407.98130346314792
 31
0.0
  0
TEXT
  5
2159
  8
DETAIL
  6
CONTINUOUS
 62
     0
 10
-446.52653761948119
 20
436.30798607013998
 30
0.0
 40
64.0
  1
175
 41
0.9
  0
INSERT
  5
215A
  8
SIZE
  6
CONTINUOUS
 62
     0
  2
_DOTBLANK
 10
-474.99999999999989
 20
407.98130346314792
 30
0.0
 41
10.0
 42
10.0
 43
10.0
 50
180.0
  0
INSERT
  5
215B
  8
SIZE
  6
CONTINUOUS
 62
     0
  2
_ORIGIN
 10
-300.0
 20
407.98130346314792
 30
0.0
 41
10.0
 42
10.0
 43
10.0
  0
POINT
  5
215C
  8
DEFPOINTS
  6
CONTINUOUS
 62
     0
 10
-474.99999999999989
 20
165.0
 30
0.0
  0
POINT
  5
215D
  8
DEFPOINTS
  6
CONTINUOUS
 62
     0
 10
-300.0
 20
200.0
 30
0.0
  0
POINT
  5
215E
  8
DEFPOINTS
  6
CONTINUOUS
 62
     0
 10
-300.0
 20
407.98130346314792
 30
0.0
  0
ENDBLK
  5
2155
  8
0
  0
BLOCK
  8
0
  2
*D10
 70
     1
 10
0.0
 20
0.0
 30
0.0
  3
*D10
  1

  0
LINE
  5
216D
  8
SIZE
  6
CONTINUOUS
 62
     0
 10
340.0
 20
184.99999999999989
 30
0.0
 11
1004.9121006341491
 21
184.9999999999998
 31
0.0
  0
LINE
  5
216E
  8
SIZE
  6
CONTINUOUS
 62
     0
 10
336.0
 20
203.99999999999989
 30
0.0
 11
1004.9121006341491
 21
203.9999999999998
 31
0.0
  0
LINE
  5
216F
  8
SIZE
  6
CONTINUOUS
 62
     0
 10
974.91210063414906
 20
174.9999999999998
 30
0.0
 11
974.91210063414906
 21
164.9999999999998
 31
0.0
  0
LINE
  5
2170
  8
SIZE
  6
CONTINUOUS
 62
     0
 10
974.91210063414906
 20
213.99999999999969
 30
0.0
 11
974.91210063414906
 21
223.99999999999969
 31
0.0
  0
TEXT
  5
2171
  8
DETAIL
  6
CONTINUOUS
 62
     0
 10
944.79937850700026
 20
219.67846789539871
 30
0.0
 40
64.0
  1
19
 50
90.0
 41
0.9
  0
LINE
  5
2172
  8
SIZE
  6
CONTINUOUS
 62
     0
 10
974.91210063414906
 20
184.9999999999998
 30
0.0
 11
974.91210063414906
 21
203.9999999999998
 31
0.0
  0
INSERT
  5
2173
  8
SIZE
  6
CONTINUOUS
 62
     0
  2
_DOTBLANK
 10
974.91210063414906
 20
184.9999999999998
 30
0.0
 41
10.0
 42
10.0
 43
10.0
 50
90.0
  0
INSERT
  5
2174
  8
SIZE
  6
CONTINUOUS
 62
     0
  2
_ORIGIN
 10
974.91210063414906
 20
203.9999999999998
 30
0.0
 41
10.0
 42
10.0
 43
10.0
 50
270.0
  0
POINT
  5
2175
  8
DEFPOINTS
  6
CONTINUOUS
 62
     0
 10
320.0
 20
185.0
 30
0.0
  0
POINT
  5
2176
  8
DEFPOINTS
  6
CONTINUOUS
 62
     0
 10
316.0
 20
204.0
 30
0.0
  0
POINT
  5
2177
  8
DEFPOINTS
  6
CONTINUOUS
 62
     0
 10
974.91210063414906
 20
203.9999999999998
 30
0.0
  0
ENDBLK
  5
216C
  8
0
  0
BLOCK
  8
0
  2
*D11
 70
     1
 10
0.0
 20
0.0
 30
0.0
  3
*D11
  1

  0
LINE
  5
2186
  8
SIZE
  6
CONTINUOUS
 62
     0
 10
340.0
 20
-185.0
 30
0.0
 11
1004.9121006341491
 21
-185.0000000000002
 31
0.0
  0
LINE
  5
2187
  8
SIZE
  6
CONTINUOUS
 62
     0
 10
336.0
 20
-213.0
 30
0.0
 11
1004.9121006341491
 21
-213.0000000000002
 31
0.0
  0
LINE
  5
2188
  8
SIZE
  6
CONTINUOUS
 62
     0
 10
974.91210063414906
 20
-175.00000000000011
 30
0.0
 11
974.91210063414906
 21
-165.0000000000002
 31
0.0
  0
LINE
  5
2189
  8
SIZE
  6
CONTINUOUS
 62
     0
 10
974.91210063414906
 20
-223.0000000000002
 30
0.0
 11
974.91210063414906
 21
-233.00000000000011
 31
0.0
  0
TEXT
  5
218A
  8
DETAIL
  6
CONTINUOUS
 62
     0
 10
927.76332808236918
 20
-353.48423211684081
 30
0.0
 40
64.0
  1
28
 50
90.0
 41
0.9
  0
LINE
  5
218B
  8
SIZE
  6
CONTINUOUS
 62
     0
 10
974.91210063414906
 20
-185.0000000000002
 30
0.0
 11
974.91210063414906
 21
-213.0000000000002
 31
0.0
  0
INSERT
  5
218C
  8
SIZE
  6
CONTINUOUS
 62
     0
  2
_DOTBLANK
 10
974.91210063414906
 20
-185.0000000000002
 30
0.0
 41
10.0
 42
10.0
 43
10.0
 50
270.0
  0
INSERT
  5
218D
  8
SIZE
  6
CONTINUOUS
 62
     0
  2
_ORIGIN
 10
974.91210063414906
 20
-213.0000000000002
 30
0.0
 41
10.0
 42
10.0
 43
10.0
 50
90.0
  0
POINT
  5
218E
  8
DEFPOINTS
  6
CONTINUOUS
 62
     0
 10
320.0
 20
-185.0
 30
0.0
  0
POINT
  5
218F
  8
DEFPOINTS
  6
CONTINUOUS
 62
     0
 10
316.0
 20
-213.0
 30
0.0
  0
POINT
  5
2190
  8
DEFPOINTS
  6
CONTINUOUS
 62
     0
 10
974.91210063414906
 20
-213.0000000000002
 30
0.0
  0
ENDBLK
  5
2185
  8
0
  0
BLOCK
  8
0
  2
*D12
 70
     1
 10
0.0
 20
0.0
 30
0.0
  3
*D12
  1

  0
LINE
  5
21B2
  8
SIZE
  6
CONTINUOUS
 62
     0
 10
336.0
 20
-213.0
 30
0.0
 11
1218.79926485939
 21
-213.00000000000031
 31
0.0
  0
LINE
  5
21B3
  8
SIZE
  6
CONTINUOUS
 62
     0
 10
336.0
 20
203.99999999999989
 30
0.0
 11
1218.79926485939
 21
203.99999999999969
 31
0.0
  0
LINE
  5
21B4
  8
SIZE
  6
CONTINUOUS
 62
     0
 10
1188.79926485939
 20
-203.0000000000002
 30
0.0
 11
1188.79926485939
 21
193.99999999999969
 31
0.0
  0
TEXT
  5
21B5
  8
DETAIL
  6
CONTINUOUS
 62
     0
 10
1164.138582481899
 20
-53.952881593691131
 30
0.0
 40
64.0
  1
417
 50
90.0
 41
0.9
  0
INSERT
  5
21B6
  8
SIZE
  6
CONTINUOUS
 62
     0
  2
_DOTBLANK
 10
1188.79926485939
 20
-213.0000000000002
 30
0.0
 41
10.0
 42
10.0
 43
10.0
 50
270.0
  0
INSERT
  5
21B7
  8
SIZE
  6
CONTINUOUS
 62
     0
  2
_ORIGIN
 10
1188.79926485939
 20
203.99999999999969
 30
0.0
 41
10.0
 42
10.0
 43
10.0
 50
90.0
  0
POINT
  5
21B8
  8
DEFPOINTS
  6
CONTINUOUS
 62
     0
 10
316.0
 20
-213.0
 30
0.0
  0
POINT
  5
21B9
  8
DEFPOINTS
  6
CONTINUOUS
 62
     0
 10
316.0
 20
204.0
 30
0.0
  0
POINT
  5
21BA
  8
DEFPOINTS
  6
CONTINUOUS
 62
     0
 10
1188.79926485939
 20
203.99999999999969
 30
0.0
  0
ENDBLK
  5
219D
  8
0
  0
BLOCK
  8
0
  2
*D13
 70
     1
 10
0.0
 20
0.0
 30
0.0
  3
*D13
  1

  0
LINE
  5
21C9
  8
SIZE
  6
CONTINUOUS
 62
     0
 10
475.0
 20
-185.0
 30
0.0
 11
475.0
 21
-442.88573326981702
 31
0.0
  0
LINE
  5
21CA
  8
SIZE
  6
CONTINUOUS
 62
     0
 10
427.0
 20
-152.0
 30
0.0
 11
427.0
 21
-442.88573326981702
 31
0.0
  0
LINE
  5
21CB
  8
SIZE
  6
CONTINUOUS
 62
     0
 10
485.0
 20
-412.88573326981702
 30
0.0
 11
495.0
 21
-412.88573326981702
 31
0.0
  0
LINE
  5
21CC
  8
SIZE
  6
CONTINUOUS
 62
     0
 10
417.0
 20
-412.88573326981702
 30
0.0
 11
407.0
 21
-412.88573326981702
 31
0.0
  0
TEXT
  5
21CD
  8
DETAIL
  6
CONTINUOUS
 62
     0
 10
499.89564225319458
 20
-392.07986473506929
 30
0.0
 40
64.0
  1
48
 41
0.9
  0
LINE
  5
21CE
  8
SIZE
  6
CONTINUOUS
 62
     0
 10
475.0
 20
-412.88573326981702
 30
0.0
 11
427.0
 21
-412.88573326981702
 31
0.0
  0
INSERT
  5
21CF
  8
SIZE
  6
CONTINUOUS
 62
     0
  2
_DOTBLANK
 10
475.0
 20
-412.88573326981702
 30
0.0
 41
10.0
 42
10.0
 43
10.0
 50
180.0
  0
INSERT
  5
21D0
  8
SIZE
  6
CONTINUOUS
 62
     0
  2
_ORIGIN
 10
427.0
 20
-412.88573326981702
 30
0.0
 41
10.0
 42
10.0
 43
10.0
  0
POINT
  5
21D1
  8
DEFPOINTS
  6
CONTINUOUS
 62
     0
 10
475.0
 20
-165.0
 30
0.0
  0
POINT
  5
21D2
  8
DEFPOINTS
  6
CONTINUOUS
 62
     0
 10
427.0
 20
-132.0
 30
0.0
  0
POINT
  5
21D3
  8
DEFPOINTS
  6
CONTINUOUS
 62
     0
 10
427.0
 20
-412.88573326981702
 30
0.0
  0
ENDBLK
  5
21C8
  8
0
  0
BLOCK
  8
0
  2
*D14
 70
     1
 10
0.0
 20
0.0
 30
0.0
  3
*D14
  1

  0
LINE
  5
21E2
  8
SIZE
  6
CONTINUOUS
 62
     0
 10
427.0
 20
-152.0
 30
0.0
 11
427.0
 21
-442.88573326981702
 31
0.0
  0
LINE
  5
21E3
  8
SIZE
  6
CONTINUOUS
 62
     0
 10
367.0
 20
-160.0
 30
0.0
 11
367.0
 21
-442.88573326981702
 31
0.0
  0
LINE
  5
21E4
  8
SIZE
  6
CONTINUOUS
 62
     0
 10
437.0
 20
-412.88573326981702
 30
0.0
 11
447.0
 21
-412.88573326981702
 31
0.0
  0
LINE
  5
21E5
  8
SIZE
  6
CONTINUOUS
 62
     0
 10
357.0
 20
-412.88573326981702
 30
0.0
 11
347.0
 21
-412.88573326981702
 31
0.0
  0
TEXT
  5
21E6
  8
DETAIL
  6
CONTINUOUS
 62
     0
 10
265.64989319607861
 20
-400.59573786583769
 30
0.0
 40
64.0
  1
60
 41
0.9
  0
LINE
  5
21E7
  8
SIZE
  6
CONTINUOUS
 62
     0
 10
427.0
 20
-412.88573326981702
 30
0.0
 11
367.0
 21
-412.88573326981702
 31
0.0
  0
INSERT
  5
21E8
  8
SIZE
  6
CONTINUOUS
 62
     0
  2
_DOTBLANK
 10
427.0
 20
-412.88573326981702
 30
0.0
 41
10.0
 42
10.0
 43
10.0
 50
180.0
  0
INSERT
  5
21E9
  8
SIZE
  6
CONTINUOUS
 62
     0
  2
_ORIGIN
 10
367.0
 20
-412.88573326981702
 30
0.0
 41
10.0
 42
10.0
 43
10.0
  0
POINT
  5
21EA
  8
DEFPOINTS
  6
CONTINUOUS
 62
     0
 10
427.0
 20
-132.0
 30
0.0
  0
POINT
  5
21EB
  8
DEFPOINTS
  6
CONTINUOUS
 62
     0
 10
367.0
 20
-140.0
 30
0.0
  0
POINT
  5
21EC
  8
DEFPOINTS
  6
CONTINUOUS
 62
     0
 10
367.0
 20
-412.88573326981702
 30
0.0
  0
ENDBLK
  5
21E1
  8
0
  0
BLOCK
  8
0
  2
*D15
 70
     1
 10
0.0
 20
0.0
 30
0.0
  3
*D15
  1

  0
LINE
  5
21F9
  8
SIZE
  6
CONTINUOUS
 62
     0
 10
475.0
 20
-185.0
 30
0.0
 11
475.0
 21
-613.06791136589527
 31
0.0
  0
LINE
  5
21FA
  8
SIZE
  6
CONTINUOUS
 62
     0
 10
275.0
 20
-165.0
 30
0.0
 11
274.99999999999989
 21
-613.06791136589527
 31
0.0
  0
LINE
  5
21FB
  8
SIZE
  6
CONTINUOUS
 62
     0
 10
465.0
 20
-583.06791136589516
 30
0.0
 11
285.0
 21
-583.06791136589516
 31
0.0
  0
TEXT
  5
21FC
  8
DETAIL
  6
CONTINUOUS
 62
     0
 10
308.49504417905069
 20
-558.13939078505416
 30
0.0
 40
64.0
  1
200
 41
0.9
  0
INSERT
  5
21FD
  8
SIZE
  6
CONTINUOUS
 62
     0
  2
_DOTBLANK
 10
475.0
 20
-583.06791136589516
 30
0.0
 41
10.0
 42
10.0
 43
10.0
  0
INSERT
  5
21FE
  8
SIZE
  6
CONTINUOUS
 62
     0
  2
_ORIGIN
 10
275.0
 20
-583.06791136589516
 30
0.0
 41
10.0
 42
10.0
 43
10.0
 50
180.0
  0
POINT
  5
21FF
  8
DEFPOINTS
  6
CONTINUOUS
 62
     0
 10
475.0
 20
-165.0
 30
0.0
  0
POINT
  5
2200
  8
DEFPOINTS
  6
CONTINUOUS
 62
     0
 10
275.0
 20
-145.0
 30
0.0
  0
POINT
  5
2201
  8
DEFPOINTS
  6
CONTINUOUS
 62
     0
 10
275.0
 20
-583.06791136589516
 30
0.0
  0
ENDBLK
  5
21F8
  8
0
  0
BLOCK
  8
0
  2
*D16
 70
     1
 10
0.0
 20
0.0
 30
0.0
  3
*D16
  1

  0
LINE
  5
220E
  8
SIZE
  6
CONTINUOUS
 62
     0
 10
-474.99999999999989
 20
-185.0
 30
0.0
 11
-474.99999999999989
 21
-477.8059722088945
 31
0.0
  0
LINE
  5
220F
  8
SIZE
  6
CONTINUOUS
 62
     0
 10
-152.9999999999998
 20
-272.86561950000021
 30
0.0
 11
-152.9999999999998
 21
-477.8059722088945
 31
0.0
  0
LINE
  5
2210
  8
SIZE
  6
CONTINUOUS
 62
     0
 10
-464.99999999999989
 20
-447.8059722088945
 30
0.0
 11
-162.9999999999998
 21
-447.8059722088945
 31
0.0
  0
TEXT
  5
2211
  8
DETAIL
  6
CONTINUOUS
 62
     0
 10
-380.06067406015779
 20
-417.86683482257922
 30
0.0
 40
64.0
  1
322
 41
0.9
  0
INSERT
  5
2212
  8
SIZE
  6
CONTINUOUS
 62
     0
  2
_DOTBLANK
 10
-474.99999999999989
 20
-447.8059722088945
 30
0.0
 41
10.0
 42
10.0
 43
10.0
 50
180.0
  0
INSERT
  5
2213
  8
SIZE
  6
CONTINUOUS
 62
     0
  2
_ORIGIN
 10
-152.9999999999998
 20
-447.8059722088945
 30
0.0
 41
10.0
 42
10.0
 43
10.0
  0
POINT
  5
2214
  8
DEFPOINTS
  6
CONTINUOUS
 62
     0
 10
-474.99999999999989
 20
-165.0
 30
0.0
  0
POINT
  5
2215
  8
DEFPOINTS
  6
CONTINUOUS
 62
     0
 10
-152.9999999999998
 20
-252.86561950000021
 30
0.0
  0
POINT
  5
2216
  8
DEFPOINTS
  6
CONTINUOUS
 62
     0
 10
-152.9999999999998
 20
-447.8059722088945
 30
0.0
  0
ENDBLK
  5
220D
  8
0
  0
BLOCK
  8
0
  2
*D17
 70
     1
 10
0.0
 20
0.0
 30
0.0
  3
*D17
  1

  0
LINE
  5
2223
  8
SIZE
  6
CONTINUOUS
 62
     0
 10
-494.99999999999989
 20
-165.0
 30
0.0
 11
-647.76083576584165
 21
-164.99999999999989
 31
0.0
  0
LINE
  5
2224
  8
SIZE
  6
CONTINUOUS
 62
     0
 10
-494.99999999999989
 20
165.0
 30
0.0
 11
-647.76083576584165
 21
165.0
 31
0.0
  0
LINE
  5
2225
  8
SIZE
  6
CONTINUOUS
 62
     0
 10
-617.76083576584165
 20
-154.99999999999989
 30
0.0
 11
-617.76083576584165
 21
155.0
 31
0.0
  0
TEXT
  5
2226
  8
DETAIL
  6
CONTINUOUS
 62
     0
 10
-638.14919837113666
 20
-66.064848402183017
 30
0.0
 40
64.0
  1
330
 50
90.0
 41
0.9
  0
INSERT
  5
2227
  8
SIZE
  6
CONTINUOUS
 62
     0
  2
_DOTBLANK
 10
-617.76083576584165
 20
-164.99999999999989
 30
0.0
 41
10.0
 42
10.0
 43
10.0
 50
270.0
  0
INSERT
  5
2228
  8
SIZE
  6
CONTINUOUS
 62
     0
  2
_ORIGIN
 10
-617.76083576584165
 20
165.0
 30
0.0
 41
10.0
 42
10.0
 43
10.0
 50
90.0
  0
POINT
  5
2229
  8
DEFPOINTS
  6
CONTINUOUS
 62
     0
 10
-474.99999999999989
 20
-165.0
 30
0.0
  0
POINT
  5
222A
  8
DEFPOINTS
  6
CONTINUOUS
 62
     0
 10
-474.99999999999989
 20
165.0
 30
0.0
  0
POINT
  5
222B
  8
DEFPOINTS
  6
CONTINUOUS
 62
     0
 10
-617.76083576584165
 20
165.0
 30
0.0
  0
ENDBLK
  5
2222
  8
0
  0
BLOCK
  8
0
  2
*D18
 70
     1
 10
0.0
 20
0.0
 30
0.0
  3
*D18
  1

  0
LINE
  5
223A
  8
SIZE
  6
CONTINUOUS
 62
     0
 10
-494.99999999999989
 20
-165.0
 30
0.0
 11
-647.76083576584165
 21
-164.99999999999989
 31
0.0
  0
LINE
  5
223B
  8
SIZE
  6
CONTINUOUS
 62
     0
 10
-461.9999999998472
 20
-194.99999999999989
 30
0.0
 11
-647.76083576584165
 21
-194.99999999999989
 31
0.0
  0
LINE
  5
223C
  8
SIZE
  6
CONTINUOUS
 62
     0
 10
-617.76083576584165
 20
-154.99999999999989
 30
0.0
 11
-617.76083576584165
 21
-144.99999999999989
 31
0.0
  0
LINE
  5
223D
  8
SIZE
  6
CONTINUOUS
 62
     0
 10
-617.76083576584165
 20
-204.99999999999989
 30
0.0
 11
-617.76083576584165
 21
-214.99999999999989
 31
0.0
  0
TEXT
  5
223E
  8
DETAIL
  6
CONTINUOUS
 62
     0
 10
-644.5377143983842
 20
-315.40215372358671
 30
0.0
 40
64.0
  1
30
 50
90.0
 41
0.9
  0
LINE
  5
223F
  8
SIZE
  6
CONTINUOUS
 62
     0
 10
-617.76083576584165
 20
-164.99999999999989
 30
0.0
 11
-617.76083576584165
 21
-194.99999999999989
 31
0.0
  0
INSERT
  5
2240
  8
SIZE
  6
CONTINUOUS
 62
     0
  2
_DOTBLANK
 10
-617.76083576584165
 20
-164.99999999999989
 30
0.0
 41
10.0
 42
10.0
 43
10.0
 50
270.0
  0
INSERT
  5
2241
  8
SIZE
  6
CONTINUOUS
 62
     0
  2
_ORIGIN
 10
-617.76083576584165
 20
-194.99999999999989
 30
0.0
 41
10.0
 42
10.0
 43
10.0
 50
90.0
  0
POINT
  5
2242
  8
DEFPOINTS
  6
CONTINUOUS
 62
     0
 10
-474.99999999999989
 20
-165.0
 30
0.0
  0
POINT
  5
2243
  8
DEFPOINTS
  6
CONTINUOUS
 62
     0
 10
-441.99999999984732
 20
-195.0
 30
0.0
  0
POINT
  5
2244
  8
DEFPOINTS
  6
CONTINUOUS
 62
     0
 10
-617.76083576584165
 20
-194.99999999999989
 30
0.0
  0
ENDBLK
  5
2239
  8
0
  0
BLOCK
  8
0
  2
*D19
 70
     1
 10
0.0
 20
0.0
 30
0.0
  3
*D19
  1

  0
LINE
  5
2253
  8
SIZE
  6
CONTINUOUS
 62
     0
 10
495.0
 20
-165.0
 30
0.0
 11
810.02613921786622
 21
-165.0
 31
0.0
  0
LINE
  5
2254
  8
SIZE
  6
CONTINUOUS
 62
     0
 10
467.0
 20
-112.0
 30
0.0
 11
810.02613921786622
 21
-112.0000000000001
 31
0.0
  0
LINE
  5
2255
  8
SIZE
  6
CONTINUOUS
 62
     0
 10
780.02613921786622
 20
-175.0
 30
0.0
 11
780.02613921786622
 21
-185.00000000000011
 31
0.0
  0
LINE
  5
2256
  8
SIZE
  6
CONTINUOUS
 62
     0
 10
780.02613921786622
 20
-102.0
 30
0.0
 11
780.02613921786622
 21
-92.000000000000085
 31
0.0
  0
TEXT
  5
2257
  8
DETAIL
  6
CONTINUOUS
 62
     0
 10
756.19273439267727
 20
-77.398620960504616
 30
0.0
 40
64.0
  1
53
 50
90.0
 41
0.9
  0
LINE
  5
2258
  8
SIZE
  6
CONTINUOUS
 62
     0
 10
780.02613921786622
 20
-165.0
 30
0.0
 11
780.02613921786622
 21
-112.0
 31
0.0
  0
INSERT
  5
2259
  8
SIZE
  6
CONTINUOUS
 62
     0
  2
_DOTBLANK
 10
780.02613921786622
 20
-165.0
 30
0.0
 41
10.0
 42
10.0
 43
10.0
 50
90.0
  0
INSERT
  5
225A
  8
SIZE
  6
CONTINUOUS
 62
     0
  2
_ORIGIN
 10
780.02613921786622
 20
-112.0
 30
0.0
 41
10.0
 42
10.0
 43
10.0
 50
270.0
  0
POINT
  5
225B
  8
DEFPOINTS
  6
CONTINUOUS
 62
     0
 10
475.0
 20
-165.0
 30
0.0
  0
POINT
  5
225C
  8
DEFPOINTS
  6
CONTINUOUS
 62
     0
 10
447.0
 20
-112.0
 30
0.0
  0
POINT
  5
225D
  8
DEFPOINTS
  6
CONTINUOUS
 62
     0
 10
780.02613921786622
 20
-112.0
 30
0.0
  0
ENDBLK
  5
2252
  8
0
  0
BLOCK
  8
0
  2
*D20
 70
     1
 10
0.0
 20
0.0
 30
0.0
  3
*D20
  1

  0
LINE
  5
226C
  8
SIZE
  6
CONTINUOUS
 62
     0
 10
495.0
 20
-165.0
 30
0.0
 11
668.36059604431011
 21
-165.0
 31
0.0
  0
LINE
  5
226D
  8
SIZE
  6
CONTINUOUS
 62
     0
 10
407.0
 20
-120.0
 30
0.0
 11
668.36059604431011
 21
-120.0
 31
0.0
  0
LINE
  5
226E
  8
SIZE
  6
CONTINUOUS
 62
     0
 10
638.36059604431011
 20
-175.0
 30
0.0
 11
638.36059604431011
 21
-185.0
 31
0.0
  0
LINE
  5
226F
  8
SIZE
  6
CONTINUOUS
 62
     0
 10
638.36059604431011
 20
-110.0
 30
0.0
 11
638.36059604431011
 21
-100.0
 31
0.0
  0
TEXT
  5
2270
  8
DETAIL
  6
CONTINUOUS
 62
     0
 10
614.58431806764474
 20
-82.515703345561676
 30
0.0
 40
64.0
  1
45
 50
90.0
 41
0.9
  0
LINE
  5
2271
  8
SIZE
  6
CONTINUOUS
 62
     0
 10
638.36059604431011
 20
-165.0
 30
0.0
 11
638.36059604431011
 21
-120.0
 31
0.0
  0
INSERT
  5
2272
  8
SIZE
  6
CONTINUOUS
 62
     0
  2
_DOTBLANK
 10
638.36059604431011
 20
-165.0
 30
0.0
 41
10.0
 42
10.0
 43
10.0
 50
90.0
  0
INSERT
  5
2273
  8
SIZE
  6
CONTINUOUS
 62
     0
  2
_ORIGIN
 10
638.36059604431011
 20
-120.0
 30
0.0
 41
10.0
 42
10.0
 43
10.0
 50
270.0
  0
POINT
  5
2274
  8
DEFPOINTS
  6
CONTINUOUS
 62
     0
 10
475.0
 20
-165.0
 30
0.0
  0
POINT
  5
2275
  8
DEFPOINTS
  6
CONTINUOUS
 62
     0
 10
387.0
 20
-120.0
 30
0.0
  0
POINT
  5
2276
  8
DEFPOINTS
  6
CONTINUOUS
 62
     0
 10
638.36059604431011
 20
-120.0
 30
0.0
  0
ENDBLK
  5
226B
  8
0
  0
BLOCK
  8
0
  2
*D21
 70
     1
 10
0.0
 20
0.0
 30
0.0
  3
*D21
  1

  0
LINE
  5
2284
  8
SIZE
  6
CONTINUOUS
 62
     0
 10
340.0
 20
-185.0
 30
0.0
 11
1004.9121006341491
 21
-185.0000000000002
 31
0.0
  0
LINE
  5
2285
  8
SIZE
  6
CONTINUOUS
 62
     0
 10
340.0
 20
184.99999999999989
 30
0.0
 11
1004.9121006341491
 21
184.9999999999998
 31
0.0
  0
LINE
  5
2286
  8
SIZE
  6
CONTINUOUS
 62
     0
 10
974.91210063414906
 20
-175.00000000000011
 30
0.0
 11
974.91210063414906
 21
174.9999999999998
 31
0.0
  0
TEXT
  5
2287
  8
DETAIL
  6
CONTINUOUS
 62
     0
 10
952.3971770207836
 20
-98.004419903003424
 30
0.0
 40
64.0
  1
370
 50
90.0
 41
0.9
  0
INSERT
  5
2288
  8
SIZE
  6
CONTINUOUS
 62
     0
  2
_DOTBLANK
 10
974.91210063414906
 20
-185.0000000000002
 30
0.0
 41
10.0
 42
10.0
 43
10.0
 50
270.0
  0
INSERT
  5
2289
  8
SIZE
  6
CONTINUOUS
 62
     0
  2
_ORIGIN
 10
974.91210063414906
 20
184.9999999999998
 30
0.0
 41
10.0
 42
10.0
 43
10.0
 50
90.0
  0
POINT
  5
228A
  8
DEFPOINTS
  6
CONTINUOUS
 62
     0
 10
320.0
 20
-185.0
 30
0.0
  0
POINT
  5
228B
  8
DEFPOINTS
  6
CONTINUOUS
 62
     0
 10
320.0
 20
185.0
 30
0.0
  0
POINT
  5
228C
  8
DEFPOINTS
  6
CONTINUOUS
 62
     0
 10
974.91210063414906
 20
184.9999999999998
 30
0.0
  0
ENDBLK
  5
2283
  8
0
  0
ENDSEC
  0
SECTION
  2
ENTITIES
  0
TEXT
  5
204B
  8
ETC
  6
CONTINUOUS
 10
1266.207844660202
 20
676.33852085331182
 30
0.0
 40
64.0
  1
SMPU2936
 41
0.9
  0
TEXT
  5
204C
  8
ETC
  6
CONTINUOUS
 10
1278.030588660203
 20
557.17191985331192
 30
0.0
 40
64.0
  1
室外機
 41
0.9
  0
LINE
  5
204D
  8
NOTE
  6
CONTINUOUS
 10
-300.0
 20
-185.0
 30
0.0
 11
-530.5400718084968
 21
-459.23268227694081
 31
0.0
  0
LINE
  5
204E
  8
NOTE
  6
CONTINUOUS
 10
-300.0
 20
185.0
 30
0.0
 11
-588.96394481796165
 21
496.29476961097208
 31
0.0
  0
DIMENSION
  5
204F
  8
SIZE
  6
CONTINUOUS
  2
*D9
 10
-300.0
 20
407.98130346314792
 30
0.0
 11
-377.95510904805269
 21
468.30798607013998
 31
0.0
 70
   128
 13
-474.99999999999989
 23
165.0
 33
0.0
 14
-300.0
 24
200.0
 34
0.0
1001
ACAD
1000
DSTYLE
1002
{
1070
   287
1070
     0
1070
    41
1040
10.0
1070
    42
1040
20.0
1070
    43
1040
200.0
1070
    44
1040
30.0
1070
    73
1070
     0
1070
    74
1070
     0
1070
    77
1070
     1
1070
    78
1070
     8
1070
   140
1040
64.0
1070
   147
1040
20.0
1070
   172
1070
     1
1070
   173
1070
     1
1070
   271
1070
     0
1070
   272
1070
     0
1070
   289
1070
     0
1070
   341
1005
719
1070
     6
1000
DOTBLANK
1070
     7
1000
ORIGIN
1002
}
  0
DIMENSION
  5
2050
  8
SIZE
  6
CONTINUOUS
  2
*D16
 10
-152.9999999999998
 20
-447.8059722088945
 30
0.0
 11
-306.00353120301492
 21
-385.86683482257922
 31
0.0
 70
   128
 13
-474.99999999999989
 23
-165.0
 33
0.0
 14
-152.9999999999998
 24
-252.86561950000021
 34
0.0
1001
ACAD
1000
DSTYLE
1002
{
1070
   287
1070
     0
1070
    41
1040
10.0
1070
    42
1040
20.0
1070
    43
1040
200.0
1070
    44
1040
30.0
1070
    73
1070
     0
1070
    74
1070
     0
1070
    77
1070
     1
1070
    78
1070
     8
1070
   140
1040
64.0
1070
   147
1040
20.0
1070
   172
1070
     1
1070
   173
1070
     1
1070
   271
1070
     0
1070
   272
1070
     0
1070
   289
1070
     0
1070
   341
1005
719
1070
     6
1000
DOTBLANK
1070
     7
1000
ORIGIN
1002
}
  0
LINE
  5
2051
  8
DETAIL
  6
CONTINOUS
 10
136.00000000015311
 20
-195.0
 30
0.0
 11
-284.0
 21
-195.0
 31
0.0
  0
DIMENSION
  5
2052
  8
SIZE
  6
CONTINUOUS
  2
*D6
 10
475.0
 20
577.67217662139205
 30
0.0
 11
-39.932495109817857
 21
651.40479798408251
 31
0.0
 70
   128
 13
-474.99999999999989
 23
165.0
 33
0.0
 14
475.0
 24
165.0
 34
0.0
1001
ACAD
1000
DSTYLE
1002
{
1070
   287
1070
     0
1070
    41
1040
10.0
1070
    42
1040
20.0
1070
    43
1040
200.0
1070
    44
1040
30.0
1070
    73
1070
     0
1070
    74
1070
     0
1070
    77
1070
     1
1070
    78
1070
     8
1070
   140
1040
64.0
1070
   147
1040
20.0
1070
   172
1070
     1
1070
   173
1070
     1
1070
   271
1070
     0
1070
   272
1070
     0
1070
   289
1070
     0
1070
   341
1005
719
1070
     6
1000
DOTBLANK
1070
     7
1000
ORIGIN
1002
}
  0
LINE
  5
2053
  8
DETAIL
  6
CONTINOUS
 10
475.0
 20
-165.0
 30
0.0
 11
316.0
 21
-165.0
 31
0.0
  0
LINE
  5
2054
  8
DETAIL
  6
CONTINOUS
 10
475.0
 20
165.0
 30
0.0
 11
316.0
 21
164.9999999999994
 31
0.0
  0
LINE
  5
2055
  8
BASIS
  6
DASHDOT
 10
518.91887150000002
 20
0.0
 30
0.0
 11
-518.91887150000002
 21
0.0
 31
0.0
  0
DIMENSION
  5
2056
  8
SIZE
  6
CONTINUOUS
  2
*D18
 10
-617.76083576584165
 20
-194.99999999999989
 30
0.0
 11
-676.53771439838408
 21
-268.77358229501527
 31
0.0
 70
   128
 13
-474.99999999999989
 23
-165.0
 33
0.0
 14
-441.99999999984732
 24
-195.0
 34
0.0
 50
90.0
1001
ACAD
1000
DSTYLE
1002
{
1070
   287
1070
     0
1070
    41
1040
10.0
1070
    42
1040
20.0
1070
    43
1040
200.0
1070
    44
1040
30.0
1070
    73
1070
     0
1070
    74
1070
     0
1070
    77
1070
     1
1070
    78
1070
     8
1070
   140
1040
64.0
1070
   147
1040
20.0
1070
   172
1070
     1
1070
   173
1070
     1
1070
   271
1070
     0
1070
   272
1070
     0
1070
   289
1070
     0
1070
   341
1005
719
1070
     6
1000
DOTBLANK
1070
     7
1000
ORIGIN
1002
}
  0
LINE
  5
2057
  8
DETAIL
  6
CONTINOUS
 10
-441.9999999998472
 20
-165.0
 30
0.0
 11
-441.9999999998472
 21
-195.0
 31
0.0
  0
TEXT
  5
2058
  8
NOTE
  6
CONTINUOUS
 10
-1088.8291740332361
 20
-444.13038127694199
 30
0.0
 40
64.0
  1
AH 2-12×36
 41
0.9
  0
LINE
  5
2059
  8
NOTE
  6
CONTINUOUS
 10
-1103.6094790332349
 20
-459.23268227694081
 30
0.0
 11
-530.5400718084968
 21
-459.23268227694081
 31
0.0
  0
DIMENSION
  5
205A
  8
SIZE
  6
CONTINUOUS
  2
*D17
 10
-617.76083576584165
 20
165.0
 30
0.0
 11
-670.14919837113655
 21
7.992294454959846
 31
0.0
 70
   128
 13
-474.99999999999989
 23
-165.0
 33
0.0
 14
-474.99999999999989
 24
165.0
 34
0.0
 50
90.0
1001
ACAD
1000
DSTYLE
1002
{
1070
   287
1070
     5
1070
    41
1040
10.0
1070
    42
1040
20.0
1070
    43
1040
200.0
1070
    44
1040
30.0
1070
    73
1070
     0
1070
    74
1070
     0
1070
    77
1070
     1
1070
    78
1070
     8
1070
   140
1040
64.0
1070
   147
1040
20.0
1070
   172
1070
     1
1070
   173
1070
     1
1070
   174
1070
     1
1070
   271
1070
     0
1070
   272
1070
     0
1070
   279
1070
     2
1070
   341
1005
719
1070
     6
1000
DOTBLANK
1070
     7
1000
ORIGIN
1002
}
  0
LINE
  5
205B
  8
DETAIL
  6
CONTINOUS
 10
-474.99999999999989
 20
165.0
 30
0.0
 11
-474.99999999999989
 21
-165.0
 31
0.0
  0
LINE
  5
205C
  8
NOTE
  6
CONTINUOUS
 10
-1146.761119453289
 20
496.29476961097208
 30
0.0
 11
-588.96394481796165
 21
496.29476961097208
 31
0.0
  0
TEXT
  5
205D
  8
NOTE
  6
CONTINUOUS
 10
-1119.055049453289
 20
506.88246761097253
 30
0.0
 40
64.0
  1
AH 2-U cut
 41
0.9
  0
LINE
  5
205E
  8
NOTE
  6
CONTINUOUS
 10
275.0
 20
-165.0
 30
0.0
 11
117.3246862707628
 21
-352.5583878916504
 31
0.0
  0
POLYLINE
  5
205F
  8
NOTE
  6
CONTINUOUS
 66
     1
 10
0.0
 20
0.0
 30
0.0
  0
VERTEX
  5
22D3
  8
NOTE
  6
CONTINUOUS
 10
257.78467280567878
 20
-201.1058517009368
 30
0.0
  0
VERTEX
  5
22D4
  8
NOTE
  6
CONTINUOUS
 10
275.0
 20
-165.0
 30
0.0
  0
VERTEX
  5
22D5
  8
NOTE
  6
CONTINUOUS
 10
242.03816387887119
 20
-187.6609214970303
 30
0.0
  0
SEQEND
  5
22D6
  8
NOTE
  6
CONTINUOUS
  0
CIRCLE
  5
2064
  8
FIX
  6
CONTINUOUS
 10
-300.0
 20
-185.0
 30
0.0
 40
40.0
  0
CIRCLE
  5
2065
  8
FIX
  6
CONTINUOUS
 10
300.0
 20
-185.0
 30
0.0
 40
40.0
  0
DIMENSION
  5
2066
  8
SIZE
  6
CONTINUOUS
  2
*D15
 10
275.0
 20
-583.06791136589516
 30
0.0
 11
382.55218703619352
 21
-526.13939078505427
 31
0.0
 70
   128
 13
475.0
 23
-165.0
 33
0.0
 14
275.0
 24
-145.0
 34
0.0
1001
ACAD
1000
DSTYLE
1002
{
1070
   287
1070
     0
1070
    41
1040
10.0
1070
    42
1040
20.0
1070
    43
1040
200.0
1070
    44
1040
30.0
1070
    73
1070
     0
1070
    74
1070
     0
1070
    77
1070
     1
1070
    78
1070
     8
1070
   140
1040
64.0
1070
   147
1040
20.0
1070
   172
1070
     1
1070
   173
1070
     1
1070
   271
1070
     0
1070
   272
1070
     0
1070
   289
1070
     0
1070
   341
1005
719
1070
     6
1000
DOTBLANK
1070
     7
1000
ORIGIN
1002
}
  0
LINE
  5
2067
  8
DETAIL
  6
CONTINOUS
 10
136.00000000015311
 20
-165.0
 30
0.0
 11
136.00000000015311
 21
-195.0
 31
0.0
  0
DIMENSION
  5
2068
  8
SIZE
  6
CONTINUOUS
  2
*D11
 10
974.91210063414906
 20
-213.0000000000002
 30
0.0
 11
895.76332808236918
 21
-306.85566068826932
 31
0.0
 70
   128
 13
320.0
 23
-185.0
 33
0.0
 14
316.0
 24
-213.0
 34
0.0
 50
90.0
1001
ACAD
1000
DSTYLE
1002
{
1070
   287
1070
     0
1070
    41
1040
10.0
1070
    42
1040
20.0
1070
    43
1040
200.0
1070
    44
1040
30.0
1070
    73
1070
     0
1070
    74
1070
     0
1070
    77
1070
     1
1070
    78
1070
     8
1070
   140
1040
64.0
1070
   147
1040
20.0
1070
   172
1070
     1
1070
   173
1070
     1
1070
   271
1070
     0
1070
   272
1070
     0
1070
   289
1070
     0
1070
   341
1005
719
1070
     6
1000
DOTBLANK
1070
     7
1000
ORIGIN
1002
}
  0
DIMENSION
  5
2069
  8
SIZE
  6
CONTINUOUS
  2
*D21
 10
974.91210063414906
 20
184.9999999999998
 30
0.0
 11
920.3971770207836
 21
-23.94727704586057
 31
0.0
 70
   128
 13
320.0
 23
-185.0
 33
0.0
 14
320.0
 24
185.0
 34
0.0
 50
90.0
1001
ACAD
1000
DSTYLE
1002
{
1070
   287
1070
     0
1070
    41
1040
10.0
1070
    42
1040
20.0
1070
    43
1040
200.0
1070
    44
1040
30.0
1070
    73
1070
     0
1070
    74
1070
     0
1070
    77
1070
     1
1070
    78
1070
     8
1070
   140
1040
64.0
1070
   147
1040
20.0
1070
   172
1070
     1
1070
   173
1070
     1
1070
   271
1070
     0
1070
   272
1070
     0
1070
   289
1070
     0
1070
   341
1005
719
1070
     6
1000
DOTBLANK
1070
     7
1000
ORIGIN
1002
}
  0
DIMENSION
  5
206A
  8
SIZE
  6
CONTINUOUS
  2
*D12
 10
1188.79926485939
 20
203.99999999999969
 30
0.0
 11
1132.1385824818999
 21
14.61854697773742
 31
0.0
 70
   128
 13
316.0
 23
-213.0
 33
0.0
 14
316.0
 24
204.0
 34
0.0
 50
90.0
1001
ACAD
1000
DSTYLE
1002
{
1070
   287
1070
     0
1070
    41
1040
10.0
1070
    42
1040
20.0
1070
    43
1040
200.0
1070
    44
1040
30.0
1070
    73
1070
     0
1070
    74
1070
     0
1070
    77
1070
     1
1070
    78
1070
     8
1070
   140
1040
64.0
1070
   147
1040
20.0
1070
   172
1070
     1
1070
   173
1070
     1
1070
   271
1070
     0
1070
   272
1070
     0
1070
   289
1070
     0
1070
   341
1005
719
1070
     6
1000
DOTBLANK
1070
     7
1000
ORIGIN
1002
}
  0
LINE
  5
206B
  8
DETAIL
  6
CONTINOUS
 62
     5
 10
294.0
 20
-173.0
 30
0.0
 11
294.0
 21
-197.0
 31
0.0
  0
LINE
  5
206C
  8
DETAIL
  6
CONTINOUS
 62
     5
 10
306.0
 20
-173.0
 30
0.0
 11
306.0
 21
-197.0
 31
0.0
  0
LINE
  5
206D
  8
NOTE
  6
CONTINOUS
 10
300.0
 20
-165.0
 30
0.0
 11
300.0
 21
-205.0
 31
0.0
  0
LINE
  5
206E
  8
NOTE
  6
CONTINOUS
 10
275.0
 20
-185.0
 30
0.0
 11
275.0
 21
-145.0
 31
0.0
  0
LINE
  5
206F
  8
BASIS
  6
DASHDOT
 10
0.0
 20
224.90043118199981
 30
0.0
 11
0.0
 21
-224.90043118199981
 31
0.0
  0
LINE
  5
2070
  8
NOTE
  6
CONTINOUS
 10
-300.0
 20
-165.0
 30
0.0
 11
-300.0
 21
-205.0
 31
0.0
  0
LINE
  5
2071
  8
BASIS
  6
DASHDOT
 10
-153.0
 20
-252.86561950000021
 30
0.0
 11
-153.0
 21
-117.13438049999959
 31
0.0
  0
LINE
  5
2072
  8
NOTE
  6
CONTINUOUS
 10
-131.0956510269597
 20
-352.5583878916504
 30
0.0
 11
117.3246862707628
 21
-352.5583878916504
 31
0.0
  0
TEXT
  5
2073
  8
NOTE
  6
CONTINUOUS
 10
-116.31534602696
 20
-337.4560868916505
 30
0.0
 40
64.0
  1
EL,CL
 41
0.9
  0
POLYLINE
  5
2074
  8
NOTE
  6
CONTINUOUS
 66
     1
 10
0.0
 20
0.0
 30
0.0
  0
VERTEX
  5
22D7
  8
NOTE
  6
CONTINUOUS
 10
-317.21532719432111
 20
-221.10585170093691
 30
0.0
  0
VERTEX
  5
22D8
  8
NOTE
  6
CONTINUOUS
 10
-300.0
 20
-185.0
 30
0.0
  0
VERTEX
  5
22D9
  8
NOTE
  6
CONTINUOUS
 10
-332.96183612112839
 20
-207.6609214970303
 30
0.0
  0
SEQEND
  5
22DA
  8
NOTE
  6
CONTINUOUS
  0
LINE
  5
2079
  8
DETAIL
  6
CONTINOUS
 10
-284.0
 20
-213.0
 30
0.0
 11
-316.0
 21
-213.0
 31
0.0
  0
LINE
  5
207A
  8
NOTE
  6
CONTINOUS
 10
-280.0
 20
-185.0
 30
0.0
 11
-320.0
 21
-185.0
 31
0.0
  0
LINE
  5
207B
  8
NOTE
  6
CONTINOUS
 10
320.0
 20
-185.0
 30
0.0
 11
280.0
 21
-185.0
 31
0.0
  0
ARC
  5
207C
  8
DETAIL
  6
CONTINOUS
 62
     5
 10
300.0
 20
-197.0
 30
0.0
 40
6.0
 50
270.0
 51
0.0
  0
ARC
  5
207D
  8
DETAIL
  6
CONTINOUS
 62
     5
 10
300.0
 20
-197.0
 30
0.0
 40
6.0
 50
180.0
 51
270.0
  0
LINE
  5
207E
  8
DETAIL
  6
CONTINOUS
 10
316.0
 20
-213.0
 30
0.0
 11
284.0
 21
-213.0
 31
0.0
  0
DIMENSION
  5
207F
  8
SIZE
  6
CONTINUOUS
  2
*D8
 10
475.0
 20
407.98130346314792
 30
0.0
 11
380.14931545262061
 21
455.53417637398701
 31
0.0
 70
   128
 13
300.0
 23
200.0
 33
0.0
 14
475.0
 24
165.0
 34
0.0
1001
ACAD
1000
DSTYLE
1002
{
1070
   287
1070
     0
1070
    41
1040
10.0
1070
    42
1040
20.0
1070
    43
1040
200.0
1070
    44
1040
30.0
1070
    73
1070
     0
1070
    74
1070
     0
1070
    77
1070
     1
1070
    78
1070
     8
1070
   140
1040
64.0
1070
   147
1040
20.0
1070
   172
1070
     1
1070
   173
1070
     1
1070
   271
1070
     0
1070
   272
1070
     0
1070
   289
1070
     0
1070
   341
1005
719
1070
     6
1000
DOTBLANK
1070
     7
1000
ORIGIN
1002
}
  0
DIMENSION
  5
2080
  8
SIZE
  6
CONTINUOUS
  2
*D10
 10
974.91210063414906
 20
203.9999999999998
 30
0.0
 11
912.79937850700014
 21
259.44989646682728
 31
0.0
 70
   128
 13
320.0
 23
185.0
 33
0.0
 14
316.0
 24
204.0
 34
0.0
 50
90.0
1001
ACAD
1000
DSTYLE
1002
{
1070
   287
1070
     0
1070
    41
1040
10.0
1070
    42
1040
20.0
1070
    43
1040
200.0
1070
    44
1040
30.0
1070
    73
1070
     0
1070
    74
1070
     0
1070
    77
1070
     1
1070
    78
1070
     8
1070
   140
1040
64.0
1070
   147
1040
20.0
1070
   172
1070
     1
1070
   173
1070
     1
1070
   271
1070
     0
1070
   272
1070
     0
1070
   289
1070
     0
1070
   341
1005
719
1070
     6
1000
DOTBLANK
1070
     7
1000
ORIGIN
1002
}
  0
DIMENSION
  5
2081
  8
SIZE
  6
CONTINUOUS
  2
*D7
 10
300.0
 20
407.98130346314792
 30
0.0
 11
33.27854256751106
 21
465.91393542756481
 31
0.0
 70
   128
 13
-300.0
 23
200.0
 33
0.0
 14
300.0
 24
200.0
 34
0.0
1001
ACAD
1000
DSTYLE
1002
{
1070
   287
1070
     0
1070
    41
1040
10.0
1070
    42
1040
20.0
1070
    43
1040
200.0
1070
    44
1040
30.0
1070
    73
1070
     0
1070
    74
1070
     0
1070
    77
1070
     1
1070
    78
1070
     8
1070
   140
1040
64.0
1070
   147
1040
20.0
1070
   172
1070
     1
1070
   173
1070
     1
1070
   271
1070
     0
1070
   272
1070
     0
1070
   289
1070
     0
1070
   341
1005
719
1070
     6
1000
DOTBLANK
1070
     7
1000
ORIGIN
1002
}
  0
POINT
  5
2082
  8
ARRANGE
  6
CONTINUOUS
 10
0.0
 20
0.0
 30
0.0
  0
CIRCLE
  5
2083
  8
ARRANGE
  6
CONTINUOUS
 10
0.0
 20
0.0
 30
0.0
 40
40.0
  0
CIRCLE
  5
2084
  8
FIX
  6
CONTINUOUS
 10
-300.0
 20
185.0
 30
0.0
 40
40.0
  0
POLYLINE
  5
2085
  8
NOTE
  6
CONTINUOUS
 66
     1
 10
0.0
 20
0.0
 30
0.0
  0
VERTEX
  5
22DB
  8
NOTE
  6
CONTINUOUS
 10
-333.7095452919433
 20
206.5329183732255
 30
0.0
  0
VERTEX
  5
22DC
  8
NOTE
  6
CONTINUOUS
 10
-300.0
 20
185.0
 30
0.0
  0
VERTEX
  5
22DD
  8
NOTE
  6
CONTINUOUS
 10
-318.4268637309043
 20
220.50282660033361
 30
0.0
  0
SEQEND
  5
22DE
  8
NOTE
  6
CONTINUOUS
  0
ARC
  5
208A
  8
DETAIL
  6
CONTINUOUS
 10
-300.0
 20
183.0
 30
0.0
 40
6.0
 50
180.0
 51
0.0
  0
LINE
  5
208B
  8
DETAIL
  6
CONTINOUS
 62
     5
 10
-306.0
 20
204.0
 30
0.0
 11
-306.0
 21
183.0
 31
0.0
  0
LINE
  5
208C
  8
DETAIL
  6
CONTINOUS
 62
     5
 10
-294.0
 20
204.0
 30
0.0
 11
-294.0
 21
183.0
 31
0.0
  0
LINE
  5
208D
  8
NOTE
  6
CONTINOUS
 10
-300.0
 20
205.0
 30
0.0
 11
-300.0
 21
165.0
 31
0.0
  0
LINE
  5
208E
  8
DETAIL
  6
CONTINOUS
 10
-306.0
 20
204.0
 30
0.0
 11
-316.0
 21
204.0
 31
0.0
  0
LINE
  5
208F
  8
DETAIL
  6
CONTINOUS
 10
-284.0
 20
204.0
 30
0.0
 11
-294.0
 21
204.0
 31
0.0
  0
LINE
  5
2090
  8
DETAIL
  6
CONTINOUS
 10
-316.0
 20
204.0
 30
0.0
 11
-316.0
 21
-213.0
 31
0.0
  0
LINE
  5
2091
  8
DETAIL
  6
CONTINOUS
 10
-284.0
 20
204.0
 30
0.0
 11
-284.0
 21
-213.0
 31
0.0
  0
LINE
  5
2092
  8
NOTE
  6
CONTINOUS
 10
-280.0
 20
185.0
 30
0.0
 11
-320.0
 21
185.0
 31
0.0
  0
ARC
  5
2093
  8
DETAIL
  6
CONTINOUS
 62
     5
 10
300.0
 20
-173.0
 30
0.0
 40
6.0
 50
0.0
 51
90.0
  0
ARC
  5
2094
  8
DETAIL
  6
CONTINOUS
 62
     5
 10
300.0
 20
-173.0
 30
0.0
 40
6.0
 50
90.0
 51
180.0
  0
LINE
  5
2095
  8
NOTE
  6
CONTINOUS
 10
300.0
 20
-172.0
 30
0.0
 11
300.0
 21
-172.0
 31
0.0
  0
LINE
  5
2096
  8
NOTE
  6
CONTINOUS
 10
295.0
 20
-165.0
 30
0.0
 11
255.0
 21
-165.0
 31
0.0
  0
CIRCLE
  5
2097
  8
FIX
  6
CONTINUOUS
 10
300.0
 20
185.0
 30
0.0
 40
40.0
  0
LINE
  5
2098
  8
DETAIL
  6
CONTINOUS
 10
284.0
 20
204.0
 30
0.0
 11
284.0
 21
-213.0
 31
0.0
  0
LINE
  5
2099
  8
DETAIL
  6
CONTINOUS
 10
316.0
 20
204.0
 30
0.0
 11
316.0
 21
-213.0
 31
0.0
  0
LINE
  5
209A
  8
DETAIL
  6
CONTINOUS
 10
284.0
 20
204.0
 30
0.0
 11
294.0
 21
204.0
 31
0.0
  0
LINE
  5
209B
  8
DETAIL
  6
CONTINOUS
 10
306.0
 20
204.0
 30
0.0
 11
316.0
 21
204.0
 31
0.0
  0
LINE
  5
209C
  8
NOTE
  6
CONTINOUS
 10
300.0
 20
205.0
 30
0.0
 11
300.0
 21
165.0
 31
0.0
  0
LINE
  5
209D
  8
DETAIL
  6
CONTINOUS
 62
     5
 10
294.0
 20
204.0
 30
0.0
 11
294.0
 21
183.0
 31
0.0
  0
LINE
  5
209E
  8
DETAIL
  6
CONTINOUS
 62
     5
 10
306.0
 20
204.0
 30
0.0
 11
306.0
 21
183.0
 31
0.0
  0
ARC
  5
209F
  8
DETAIL
  6
CONTINUOUS
 10
300.0
 20
183.0
 30
0.0
 40
6.0
 50
180.0
 51
0.000000000000007
  0
LINE
  5
20A0
  8
NOTE
  6
CONTINOUS
 10
280.0
 20
185.0
 30
0.0
 11
320.0
 21
185.0
 31
0.0
  0
LINE
  5
20A1
  8
DETAIL
  6
CONTINOUS
 10
475.0
 20
-165.0
 30
0.0
 11
475.0
 21
165.0
 31
0.0
  0
TEXT
  5
20A2
  8
NOTE
  6
CONTINUOUS
 10
731.48768408633953
 20
538.12749460089105
 30
0.0
 40
64.0
  1
RL%%C6.35
 41
0.9
  0
LINE
  5
20A3
  8
NOTE
  6
CONTINUOUS
 10
1070.117609824031
 20
518.41084735206209
 30
0.0
 11
708.57789149536325
 21
518.41084735206209
 31
0.0
  0
LINE
  5
20A4
  8
NOTE
  6
CONTINUOUS
 10
689.82402846540253
 20
378.7051984951521
 30
0.0
 11
1128.3492061492971
 21
378.7051984951521
 31
0.0
  0
TEXT
  5
20A5
  8
NOTE
  6
CONTINUOUS
 10
729.83512477177442
 20
400.69342764808022
 30
0.0
 40
64.0
  1
RG%%C12.7
 41
0.9
  0
LINE
  5
20A6
  8
DETAIL
  6
CONTINOUS
 10
-316.0
 20
-195.0
 30
0.0
 11
-441.9999999998472
 21
-195.0
 31
0.0
  0
LINE
  5
20A7
  8
DETAIL
  6
CONTINOUS
 10
-316.0
 20
-165.0
 30
0.0
 11
-474.99999999999989
 21
-165.0
 31
0.0
  0
LINE
  5
20A8
  8
DETAIL
  6
CONTINOUS
 10
-316.0
 20
165.0
 30
0.0
 11
-474.99999999999989
 21
165.0
 31
0.0
  0
LINE
  5
20A9
  8
DETAIL
  6
CONTINOUS
 62
     5
 10
-294.0
 20
-173.0
 30
0.0
 11
-294.0
 21
-197.0
 31
0.0
  0
ARC
  5
20AA
  8
DETAIL
  6
CONTINOUS
 62
     5
 10
-300.0
 20
-197.0
 30
0.0
 40
6.0
 50
270.0
 51
0.0
  0
LINE
  5
20AB
  8
DETAIL
  6
CONTINOUS
 62
     5
 10
-306.0
 20
-173.0
 30
0.0
 11
-306.0
 21
-197.0
 31
0.0
  0
ARC
  5
20AC
  8
DETAIL
  6
CONTINOUS
 62
     5
 10
-300.0
 20
-197.0
 30
0.0
 40
6.0
 50
180.0
 51
270.0
  0
ARC
  5
20AD
  8
DETAIL
  6
CONTINOUS
 62
     5
 10
-300.0
 20
-173.0
 30
0.0
 40
6.0
 50
90.0
 51
180.0
  0
ARC
  5
20AE
  8
DETAIL
  6
CONTINOUS
 62
     5
 10
-300.0
 20
-173.0
 30
0.0
 40
6.0
 50
0.0
 51
90.0
  0
LINE
  5
20AF
  8
DETAIL
  6
CONTINOUS
 10
284.0
 20
164.9999999999994
 30
0.0
 11
-284.0
 21
165.0
 31
0.0
  0
LINE
  5
20B0
  8
DETAIL
  6
CONTINOUS
 10
284.0
 20
-165.0
 30
0.0
 11
-284.0
 21
-165.0
 31
0.0
  0
LINE
  5
20B1
  8
OUTLINE
 10
284.0
 20
-165.0
 30
0.0
 11
-284.0
 21
-165.0
 31
0.0
  0
LINE
  5
20B2
  8
OUTLINE
 10
284.0
 20
165.0
 30
0.0
 11
-284.0
 21
165.0
 31
0.0
  0
LINE
  5
20B3
  8
OUTLINE
 10
136.00000000015271
 20
-195.0
 30
0.0
 11
-284.0
 21
-195.0
 31
0.0
  0
LINE
  5
20B4
  8
OUTLINE
 10
-284.0
 20
204.0
 30
0.0
 11
-284.0
 21
165.0
 31
0.0
  0
LINE
  5
20B5
  8
OUTLINE
 10
-316.0
 20
204.0
 30
0.0
 11
-316.0
 21
164.99999999999801
 31
0.0
  0
LINE
  5
20B6
  8
OUTLINE
 10
-475.0
 20
165.0
 30
0.0
 11
-475.0
 21
-165.0
 31
0.0
  0
LINE
  5
20B7
  8
OUTLINE
 10
-316.0
 20
-165.0
 30
0.0
 11
-475.0
 21
-165.0
 31
0.0
  0
LINE
  5
20B8
  8
OUTLINE
 10
-316.0
 20
-195.0
 30
0.0
 11
-441.9999999998472
 21
-195.0
 31
0.0
  0
LINE
  5
20B9
  8
OUTLINE
 10
-441.9999999998472
 20
-165.0
 30
0.0
 11
-441.9999999998472
 21
-195.0
 31
0.0
  0
LINE
  5
20BA
  8
OUTLINE
 10
-284.0
 20
-213.0
 30
0.0
 11
-316.0
 21
-213.0
 31
0.0
  0
LINE
  5
20BB
  8
OUTLINE
 10
-316.0
 20
165.0
 30
0.0
 11
-475.0
 21
165.0
 31
0.0
  0
LINE
  5
20BC
  8
OUTLINE
 10
-284.0
 20
204.0
 30
0.0
 11
-294.0
 21
204.0
 31
0.0
  0
LINE
  5
20BD
  8
OUTLINE
 10
-306.0
 20
204.0
 30
0.0
 11
-316.0
 21
204.0
 31
0.0
  0
LINE
  5
20BE
  8
OUTLINE
 10
-294.0
 20
204.0
 30
0.0
 11
-294.0
 21
183.0
 31
0.0
  0
LINE
  5
20BF
  8
OUTLINE
 10
-306.0
 20
204.0
 30
0.0
 11
-306.0
 21
183.0
 31
0.0
  0
ARC
  5
20C0
  8
OUTLINE
 10
-300.0
 20
183.0
 30
0.0
 40
6.0
 50
180.0
 51
0.0
  0
LINE
  5
20C1
  8
OUTLINE
 10
475.0
 20
-165.0
 30
0.0
 11
475.0
 21
165.0
 31
0.0
  0
LINE
  5
20C2
  8
OUTLINE
 10
316.0
 20
204.0
 30
0.0
 11
316.0
 21
164.99999999999801
 31
0.0
  0
LINE
  5
20C3
  8
OUTLINE
 10
284.0
 20
204.0
 30
0.0
 11
284.0
 21
165.0
 31
0.0
  0
LINE
  5
20C4
  8
OUTLINE
 10
136.00000000015271
 20
-165.0
 30
0.0
 11
136.00000000015271
 21
-195.0
 31
0.0
  0
LINE
  5
20C5
  8
OUTLINE
 10
475.0
 20
-165.0
 30
0.0
 11
316.0
 21
-165.0
 31
0.0
  0
LINE
  5
20C6
  8
OUTLINE
 10
316.0
 20
-213.0
 30
0.0
 11
284.0
 21
-213.0
 31
0.0
  0
LINE
  5
20C7
  8
OUTLINE
 10
475.0
 20
165.0
 30
0.0
 11
316.0
 21
165.0
 31
0.0
  0
ARC
  5
20C8
  8
OUTLINE
 10
300.0
 20
183.0
 30
0.0
 40
6.0
 50
180.0
 51
0.000000000000007
  0
LINE
  5
20C9
  8
OUTLINE
 10
306.0
 20
204.0
 30
0.0
 11
306.0
 21
183.0
 31
0.0
  0
LINE
  5
20CA
  8
OUTLINE
 10
294.0
 20
204.0
 30
0.0
 11
294.0
 21
183.0
 31
0.0
  0
LINE
  5
20CB
  8
OUTLINE
 10
306.0
 20
204.0
 30
0.0
 11
316.0
 21
204.0
 31
0.0
  0
LINE
  5
20CC
  8
OUTLINE
 10
284.0
 20
204.0
 30
0.0
 11
294.0
 21
204.0
 31
0.0
  0
LINE
  5
20CD
  8
OUTLINE
 10
-316.0
 20
-165.00000000000179
 30
0.0
 11
-316.0
 21
-213.0
 31
0.0
  0
LINE
  5
20CE
  8
OUTLINE
 10
-284.0
 20
-165.0
 30
0.0
 11
-284.0
 21
-213.0
 31
0.0
  0
LINE
  5
20CF
  8
OUTLINE
 10
284.0
 20
-165.0
 30
0.0
 11
284.0
 21
-213.0
 31
0.0
  0
LINE
  5
20D0
  8
OUTLINE
 10
316.0
 20
-165.00000000000179
 30
0.0
 11
316.0
 21
-213.0
 31
0.0
  0
DIMENSION
  5
20D1
  8
SIZE
  6
CONTINUOUS
  2
*D14
 10
367.0
 20
-412.88573326981702
 30
0.0
 11
312.27846462464998
 21
-368.59573786583758
 31
0.0
 70
   128
 13
427.0
 23
-132.0
 33
0.0
 14
367.0
 24
-140.0
 34
0.0
1001
ACAD
1000
DSTYLE
1002
{
1070
   287
1070
     0
1070
    41
1040
10.0
1070
    42
1040
20.0
1070
    43
1040
200.0
1070
    44
1040
30.0
1070
    73
1070
     0
1070
    74
1070
     0
1070
    77
1070
     1
1070
    78
1070
     8
1070
   140
1040
64.0
1070
   147
1040
20.0
1070
   172
1070
     1
1070
   173
1070
     1
1070
   271
1070
     0
1070
   272
1070
     0
1070
   289
1070
     0
1070
   341
1005
719
1070
     6
1000
DOTBLANK
1070
     7
1000
ORIGIN
1002
}
  0
DIMENSION
  5
20D2
  8
SIZE
  6
CONTINUOUS
  2
*D13
 10
427.0
 20
-412.88573326981702
 30
0.0
 11
546.52421368176601
 21
-360.07986473506929
 31
0.0
 70
   128
 13
475.0
 23
-165.0
 33
0.0
 14
427.0
 24
-132.0
 34
0.0
1001
ACAD
1000
DSTYLE
1002
{
1070
   287
1070
     0
1070
    41
1040
10.0
1070
    42
1040
20.0
1070
    43
1040
200.0
1070
    44
1040
30.0
1070
    73
1070
     0
1070
    74
1070
     0
1070
    77
1070
     1
1070
    78
1070
     8
1070
   140
1040
64.0
1070
   147
1040
20.0
1070
   172
1070
     1
1070
   173
1070
     1
1070
   271
1070
     0
1070
   272
1070
     0
1070
   289
1070
     0
1070
   341
1005
719
1070
     6
1000
DOTBLANK
1070
     7
1000
ORIGIN
1002
}
  0
LINE
  5
20D3
  8
NOTE
  6
CONTINUOUS
 10
369.24135603168639
 20
-117.3506824790919
 30
0.0
 11
708.57789149536325
 21
518.41084735206209
 31
0.0
  0
LINE
  5
20D4
  8
NOTE
  6
CONTINUOUS
 10
430.73873254024988
 20
-106.70219764349341
 30
0.0
 11
689.82402846540253
 21
378.7051984951521
 31
0.0
  0
DIMENSION
  5
20D5
  8
SIZE
  6
CONTINUOUS
  2
*D19
 10
780.02613921786622
 20
-112.0
 30
0.0
 11
724.19273439267715
 21
-30.770049531933179
 31
0.0
 70
   128
 13
475.0
 23
-165.0
 33
0.0
 14
447.0
 24
-112.0
 34
0.0
 50
90.0
1001
ACAD
1000
DSTYLE
1002
{
1070
   287
1070
     0
1070
    41
1040
10.0
1070
    42
1040
20.0
1070
    43
1040
200.0
1070
    44
1040
30.0
1070
    73
1070
     0
1070
    74
1070
     0
1070
    77
1070
     1
1070
    78
1070
     8
1070
   140
1040
64.0
1070
   147
1040
20.0
1070
   172
1070
     1
1070
   173
1070
     1
1070
   271
1070
     0
1070
   272
1070
     0
1070
   289
1070
     0
1070
   341
1005
719
1070
     6
1000
DOTBLANK
1070
     7
1000
ORIGIN
1002
}
  0
DIMENSION
  5
20D6
  8
SIZE
  6
CONTINUOUS
  2
*D20
 10
638.36059604431011
 20
-120.0
 30
0.0
 11
582.58431806764474
 21
-35.887131916990249
 31
0.0
 70
   128
 13
475.0
 23
-165.0
 33
0.0
 14
387.0
 24
-120.0
 34
0.0
 50
90.0
1001
ACAD
1000
DSTYLE
1002
{
1070
   287
1070
     0
1070
    41
1040
10.0
1070
    42
1040
20.0
1070
    43
1040
200.0
1070
    44
1040
30.0
1070
    73
1070
     0
1070
    74
1070
     0
1070
    77
1070
     1
1070
    78
1070
     8
1070
   140
1040
64.0
1070
   147
1040
20.0
1070
   172
1070
     1
1070
   173
1070
     1
1070
   271
1070
     0
1070
   272
1070
     0
1070
   289
1070
     0
1070
   341
1005
719
1070
     6
1000
DOTBLANK
1070
     7
1000
ORIGIN
1002
}
  0
POLYLINE
  5
20D7
  8
NOTE
  6
CONTINUOUS
 66
     1
 10
0.0
 20
0.0
 30
0.0
  0
VERTEX
  5
22DF
  8
NOTE
  6
CONTINUOUS
 10
440.09691131303288
 20
-67.812295258500839
 30
0.0
  0
VERTEX
  5
22E0
  8
NOTE
  6
CONTINUOUS
 10
430.73873254024988
 20
-106.70219764349341
 30
0.0
  0
VERTEX
  5
22E1
  8
NOTE
  6
CONTINUOUS
 10
458.28810381671121
 20
-77.701643410127872
 30
0.0
  0
SEQEND
  5
22E2
  8
NOTE
  6
CONTINUOUS
  0
LINE
  5
20DE
  8
NOTE
  6
CONTINOUS
 10
427.0
 20
-132.0
 30
0.0
 11
427.0
 21
-92.0
 31
0.0
  0
LINE
  5
20DF
  8
NOTE
  6
CONTINOUS
 10
367.0
 20
-140.0
 30
0.0
 11
367.0
 21
-100.0
 31
0.0
  0
LINE
  5
20E0
  8
NOTE
  6
CONTINOUS
 10
387.0
 20
-120.0
 30
0.0
 11
347.0
 21
-120.0
 31
0.0
  0
POLYLINE
  5
20E1
  8
NOTE
  6
CONTINUOUS
 66
     1
 10
0.0
 20
0.0
 30
0.0
  0
VERTEX
  5
22E3
  8
NOTE
  6
CONTINUOUS
 10
378.5995348044695
 20
-78.460780094100301
 30
0.0
  0
VERTEX
  5
22E4
  8
NOTE
  6
CONTINUOUS
 10
369.24135603168639
 20
-117.3506824790919
 30
0.0
  0
VERTEX
  5
22E5
  8
NOTE
  6
CONTINUOUS
 10
396.79072730814761
 20
-88.350128245726424
 30
0.0
  0
SEQEND
  5
22E6
  8
NOTE
  6
CONTINUOUS
  0
LINE
  5
20E6
  8
NOTE
  6
CONTINOUS
 10
447.0
 20
-112.0
 30
0.0
 11
407.0
 21
-112.0
 31
0.0
  0
CIRCLE
  5
20ED
  8
DETAIL
  6
CONTINUOUS
 10
427.0
 20
-112.0
 30
0.0
 40
6.3499999999999988
  0
CIRCLE
  5
20FC
  8
DETAIL
  6
CONTINUOUS
 10
367.0
 20
-120.0
 30
0.0
 40
3.1749999999999989
  0
ENDSEC
  0
EOF
