  0
SECTION
  2
HEADER
  9
$ACADVER
  1
AC1009
  9
$INSBASE
 10
0.0
 20
0.0
 30
0.0
  9
$EXTMIN
 10
-1146.7611194532881
 20
-613.06791136589527
 30
0.0
  9
$EXTMAX
 10
1839.846358715369
 20
873.80785480557824
 30
0.0
  9
$LIMMIN
 10
-4211.5718413066452
 20
-5228.744156832824
  9
$LIMMAX
 10
7246.3945113579284
 20
1056.593180637846
  9
$ORTHOMODE
 70
     1
  9
$REGENMODE
 70
     1
  9
$FILLMODE
 70
     1
  9
$QTEXTMODE
 70
     0
  9
$MIRRTEXT
 70
     0
  9
$DRAGMODE
 70
     2
  9
$LTSCALE
 40
20.0
  9
$OSMODE
 70
    37
  9
$ATTMODE
 70
     1
  9
$TEXTSIZE
 40
64.0
  9
$TRACEWID
 40
0.05
  9
$TEXTSTYLE
  7
STANDARD
  9
$CLAYER
  8
SERVICESPACE
  9
$CELTYPE
  6
CONTINUOUS
  9
$CECOLOR
 62
   256
  9
$DIMSCALE
 40
1.0
  9
$DIMASZ
 40
10.0
  9
$DIMEXO
 40
20.0
  9
$DIMDLI
 40
200.0
  9
$DIMRND
 40
0.0
  9
$DIMDLE
 40
0.0
  9
$DIMEXE
 40
30.0
  9
$DIMTP
 40
0.0
  9
$DIMTM
 40
0.0
  9
$DIMTXT
 40
64.0
  9
$DIMCEN
 40
0.09
  9
$DIMTSZ
 40
0.0
  9
$DIMTOL
 70
     0
  9
$DIMLIM
 70
     0
  9
$DIMTIH
 70
     0
  9
$DIMTOH
 70
     0
  9
$DIMSE1
 70
     0
  9
$DIMSE2
 70
     0
  9
$DIMTAD
 70
     1
  9
$DIMZIN
 70
     8
  9
$DIMBLK
  1

  9
$DIMASO
 70
     1
  9
$DIMSHO
 70
     0
  9
$DIMPOST
  1

  9
$DIMAPOST
  1

  9
$DIMALT
 70
     0
  9
$DIMALTD
 70
     2
  9
$DIMALTF
 40
25.399999999999999
  9
$DIMLFAC
 40
1.0
  9
$DIMTOFL
 70
     1
  9
$DIMTVP
 40
0.0
  9
$DIMTIX
 70
     0
  9
$DIMSOXD
 70
     0
  9
$DIMSAH
 70
     1
  9
$DIMBLK1
  1
DOTBLANK
  9
$DIMBLK2
  1
ORIGIN
  9
$DIMSTYLE
  2
STANDARD
  9
$DIMCLRD
 70
     0
  9
$DIMCLRE
 70
     0
  9
$DIMCLRT
 70
     0
  9
$DIMTFAC
 40
1.0
  9
$DIMGAP
 40
20.0
  9
$LUNITS
 70
     2
  9
$LUPREC
 70
     4
  9
$SKETCHINC
 40
0.1
  9
$FILLETRAD
 40
6.0
  9
$AUNITS
 70
     1
  9
$AUPREC
 70
     3
  9
$MENU
  1
ACAD
  9
$ELEVATION
 40
0.0
  9
$PELEVATION
 40
0.0
  9
$THICKNESS
 40
0.0
  9
$LIMCHECK
 70
     0
  9
$BLIPMODE
 70
     0
  9
$CHAMFERA
 40
0.0
  9
$CHAMFERB
 40
0.0
  9
$SKPOLY
 70
     0
  9
$TDCREATE
 40
2450330.3932059952
  9
$TDUPDATE
 40
2453256.6905799531
  9
$TDINDWG
 40
0.5257376389
  9
$TDUSRTIMER
 40
0.5257370602
  9
$USRTIMER
 70
     1
  9
$ANGBASE
 50
0.0
  9
$ANGDIR
 70
     0
  9
$PDMODE
 70
     3
  9
$PDSIZE
 40
-2.0
  9
$PLINEWID
 40
0.0
  9
$COORDS
 70
     1
  9
$SPLFRAME
 70
     0
  9
$SPLINETYPE
 70
     6
  9
$SPLINESEGS
 70
     8
  9
$ATTDIA
 70
     0
  9
$ATTREQ
 70
     1
  9
$HANDLING
 70
-16383
  9
$HANDSEED
  5
326B
  9
$SURFTAB1
 70
     6
  9
$SURFTAB2
 70
     6
  9
$SURFTYPE
 70
     6
  9
$SURFU
 70
     6
  9
$SURFV
 70
     6
  9
$UCSNAME
  2

  9
$UCSORG
 10
0.0
 20
0.0
 30
0.0
  9
$UCSXDIR
 10
1.0
 20
0.0
 30
0.0
  9
$UCSYDIR
 10
0.0
 20
1.0
 30
0.0
  9
$PUCSNAME
  2

  9
$PUCSORG
 10
0.0
 20
0.0
 30
0.0
  9
$PUCSXDIR
 10
1.0
 20
0.0
 30
0.0
  9
$PUCSYDIR
 10
0.0
 20
1.0
 30
0.0
  9
$USERI1
 70
     0
  9
$USERI2
 70
     0
  9
$USERI3
 70
     0
  9
$USERI4
 70
     0
  9
$USERI5
 70
     0
  9
$USERR1
 40
20.0
  9
$USERR2
 40
0.0
  9
$USERR3
 40
0.0
  9
$USERR4
 40
0.0
  9
$USERR5
 40
0.0
  9
$WORLDVIEW
 70
     1
  9
$SHADEDGE
 70
     3
  9
$SHADEDIF
 70
    70
  9
$TILEMODE
 70
     1
  9
$MAXACTVP
 70
    64
  9
$PLIMCHECK
 70
     0
  9
$PEXTMIN
 10
1.0000000000000000E+020
 20
1.0000000000000000E+020
 30
1.0000000000000000E+020
  9
$PEXTMAX
 10
-1.0000000000000000E+020
 20
-1.0000000000000000E+020
 30
-1.0000000000000000E+020
  9
$PLIMMIN
 10
0.0
 20
0.0
  9
$PLIMMAX
 10
12.0
 20
9.0
  9
$UNITMODE
 70
     0
  9
$VISRETAIN
 70
     1
  9
$PLINEGEN
 70
     0
  9
$PSLTSCALE
 70
     1
  0
ENDSEC
  0
SECTION
  2
TABLES
  0
TABLE
  2
VPORT
 70
     2
  0
VPORT
  2
*ACTIVE
 70
     0
 10
0.0
 20
0.0
 11
1.0
 21
1.0
 12
367.57749478840401
 22
55.62562262232359
 13
0.0
 23
0.0
 14
50.0
 24
50.0
 15
100.0
 25
100.0
 16
0.0
 26
0.0
 36
1.0
 17
0.0
 27
0.0
 37
0.0
 40
2489.5018672383239
 41
1.3188044831880441
 42
50.0
 43
0.0
 44
0.0
 50
0.0
 51
0.0
 71
     0
 72
   500
 73
     1
 74
     0
 75
     0
 76
     0
 77
     0
 78
     0
  0
ENDTAB
  0
TABLE
  2
LTYPE
 70
     8
  0
LTYPE
  2
CONTINUOUS
 70
     0
  3
実線
 72
    65
 73
     0
 40
0.0
  0
LTYPE
  2
DASHDOT
 70
     0
  3
____ _ ____ _ ____ _ ____ _ ____ _ ____ _ ____
 72
    65
 73
     4
 40
5.5
 49
4.0
 49
-0.6
 49
0.3
 49
-0.6
  0
LTYPE
  2
CONTINOUS
 70
     0
  3
Solid line
 72
    65
 73
     0
 40
0.0
  0
LTYPE
  2
DASHED
 70
     0
  3
_ _ _ _ _ _ _ _ _ _ _ _ _ _ _ _ _ _ _ _ _ _ _
 72
    65
 73
     2
 40
2.0
 49
1.1999999999999991
 49
-0.8
  0
LTYPE
  2
DOT
 70
     0
  3
...............................................
 72
    65
 73
     2
 40
0.8
 49
0.5
 49
-0.3
  0
LTYPE
  2
DASHDOT1
 70
     0
  3
____ _ ____ _ ____ _ ____ _ ____ _ ____ _ ____
 72
    65
 73
     4
 40
2.0
 49
1.5
 49
-0.2
 49
0.1
 49
-0.2
  0
LTYPE
  2
DIVIDE
 70
     0
  3
_____ _ _ _____ _ _ _____ _ _ _____ _ _ ____
 72
    65
 73
     6
 40
6.4000000000000004
 49
4.0
 49
-0.6
 49
0.3
 49
-0.6
 49
0.3
 49
-0.6
  0
LTYPE
  2
DIVIDE1
 70
     0
  3
_____ _ _ _____ _ _ _____ _ _ _____ _ _ ____
 72
    65
 73
     6
 40
3.2000000000000002
 49
2.0
 49
-0.3
 49
0.15
 49
-0.3
 49
0.15
 49
-0.3
  0
ENDTAB
  0
TABLE
  2
LAYER
 70
    12
  0
LAYER
  2
0
 70
     0
 62
     7
  6
CONTINUOUS
  0
LAYER
  2
SERVICESPACE
 70
     0
 62
     2
  6
CONTINUOUS
  0
LAYER
  2
DETAIL
 70
     0
 62
     5
  6
CONTINUOUS
  0
LAYER
  2
OUTLINE
 70
     0
 62
     3
  6
CONTINUOUS
  0
LAYER
  2
BASIS
 70
     0
 62
     6
  6
CONTINUOUS
  0
LAYER
  2
SIZE
 70
     0
 62
    32
  6
CONTINUOUS
  0
LAYER
  2
NOTE
 70
     0
 62
     4
  6
CONTINUOUS
  0
LAYER
  2
ARRANGE
 70
     0
 62
     1
  6
CONTINUOUS
  0
LAYER
  2
FIX
 70
     0
 62
   241
  6
CONTINUOUS
  0
LAYER
  2
ETC
 70
     0
 62
    83
  6
CONTINUOUS
  0
LAYER
  2
SYMBOLLINE
 70
     0
 62
    38
  6
CONTINUOUS
  0
LAYER
  2
DEFPOINTS
 70
     0
 62
     7
  6
CONTINUOUS
  0
ENDTAB
  0
TABLE
  2
STYLE
 70
     2
  0
STYLE
  2
STANDARD
 70
     0
 40
0.0
 41
0.9
 50
0.0
 71
     0
 42
64.0
  3
SIMPLEX
  4
BIGFONT
  0
STYLE
  2
STANDARD1
 70
     0
 40
0.0
 41
1.0
 50
0.0
 71
     0
 42
3.2000000000000002
  3
MONOTXT
  4
BIGFONT
  0
ENDTAB
  0
TABLE
  2
VIEW
 70
     1
  0
VIEW
  2
ALL
 70
     0
 40
4282.6199999999999
 10
0.0
 20
41.309903999999989
 41
5940.0
 11
0.0
 21
0.0
 31
1.0
 12
0.0
 22
0.0
 32
0.0
 42
50.0
 43
0.0
 44
0.0
 50
0.0
 71
     0
  0
ENDTAB
  0
TABLE
  2
UCS
 70
     0
  0
ENDTAB
  0
TABLE
  2
APPID
 70
     1
  0
APPID
  2
ACAD
 70
     0
  0
ENDTAB
  0
TABLE
  2
DIMSTYLE
 70
     2
  0
DIMSTYLE
  2
STANDARD
 70
     0
  3

  4

  5

  6

  7

 40
1.0
 41
0.18
 42
0.0625
 43
0.38
 44
0.18
 45
0.0
 46
0.0
 47
0.0
 48
0.0
140
0.18
141
0.09
142
0.0
143
25.399999999999999
144
1.0
145
0.0
146
1.0
147
0.09
 71
     0
 72
     0
 73
     1
 74
     1
 75
     0
 76
     0
 77
     0
 78
     0
170
     0
171
     2
172
     0
173
     0
174
     0
175
     0
176
     0
177
     0
178
     0
  0
DIMSTYLE
  2
DMST_1
 70
     0
  3

  4

  5

  6

  7

 40
1.0
 41
20.0
 42
4.9999999999999991
 43
7.0
 44
15.0
 45
0.0
 46
0.0
 47
0.0
 48
0.0
140
32.0
141
0.0
142
0.0
143
25.399999999999999
144
1.0
145
0.0
146
1.0
147
0.09
 71
     0
 72
     0
 73
     0
 74
     0
 75
     0
 76
     0
 77
     1
 78
     9
170
     0
171
     2
172
     0
173
     0
174
     0
175
     0
176
     2
177
     2
178
     2
  0
ENDTAB
  0
ENDSEC
  0
SECTION
  2
BLOCKS
  0
BLOCK
  8
0
  2
$MODEL_SPACE
 70
     0
 10
0.0
 20
0.0
 30
0.0
  3
$MODEL_SPACE
  1

  0
ENDBLK
  5
29FA
  8
0
  0
BLOCK
 67
     1
  8
0
  2
$PAPER_SPACE
 70
     0
 10
0.0
 20
0.0
 30
0.0
  3
$PAPER_SPACE
  1

  0
ENDBLK
  5
29F6
 67
     1
  8
0
  0
BLOCK
  8
0
  2
A$C5F2C697A
 70
     0
 10
0.0
 20
0.0
 30
0.0
  3
A$C5F2C697A
  1

  0
TEXT
  5
2A1E
  8
SIZE
  6
BYBLOCK
 10
910.8147643978815
 20
127.36127978650261
 30
0.0
 40
64.0
  1
370
 41
0.9
  0
LINE
  5
2A1F
  8
SIZE
  6
BYBLOCK
 10
801.8719073978815
 20
95.361279786502593
 30
0.0
 11
1167.87190739788
 21
95.361279786502593
 31
0.0
  0
TEXT
  5
2A20
  8
SIZE
  6
BYBLOCK
 10
915.81476439788139
 20
1424.5027517865019
 30
0.0
 40
64.0
  1
330
 41
0.9
  0
LINE
  5
2A21
  8
SIZE
  6
BYBLOCK
 10
826.8719073978815
 20
1392.5027517865019
 30
0.0
 11
1152.87190739788
 21
1392.5027517865019
 31
0.0
  0
LINE
  5
2A22
  8
OUTLINE
  6
CONTINUOUS
 10
771.8719063978815
 20
290.07775178650252
 30
0.0
 11
1183.871906397881
 21
290.07775178650252
 31
0.0
  0
LINE
  5
2A23
  8
OUTLINE
  6
CONTINUOUS
 10
771.8719063978815
 20
323.07775178650252
 30
0.0
 11
1183.871906397881
 21
323.07775178650252
 31
0.0
  0
LINE
  5
2A24
  8
OUTLINE
  6
CONTINUOUS
 10
824.87190639788139
 20
1145.0777517865019
 30
0.0
 11
1154.8719063978799
 21
1145.0777517865019
 31
0.0
  0
CIRCLE
  5
2A25
  8
ARRANGE
  6
CONTINUOUS
 10
989.87190639788139
 20
290.07775178650252
 30
0.0
 40
40.0
  0
LINE
  5
2A26
  8
DETAIL
  6
CONTINOUS
 10
771.8719063978815
 20
290.07775178650252
 30
0.0
 11
1183.871906397881
 21
290.07775178650252
 31
0.0
  0
LINE
  5
2A27
  8
DETAIL
  6
CONTINOUS
 10
824.87190639788139
 20
1145.0777517865019
 30
0.0
 11
1154.8719063978799
 21
1145.0777517865019
 31
0.0
  0
TEXT
  5
2A28
  8
NOTE
  6
CONTINUOUS
 10
973.98087039788129
 20
913.84623078650259
 30
0.0
 40
64.0
  1
EL,CL
 41
0.9
  0
LINE
  5
2A29
  8
NOTE
  6
CONTINUOUS
 10
879.8719063978815
 20
686.07775178650252
 30
0.0
 11
1040.77148939788
 21
625.20405378650253
 31
0.0
  0
LINE
  5
2A2A
  8
NOTE
  6
CONTINUOUS
 10
1205.83098439788
 20
895.38895978650271
 30
0.0
 11
918.87085639788165
 21
895.38895978650271
 31
0.0
  0
POINT
  5
2A2B
  8
ARRANGE
  6
CONTINUOUS
 10
989.87190639788139
 20
290.07775178650252
 30
0.0
  0
LINE
  5
2A2C
  8
DETAIL
  6
CONTINOUS
 10
771.8719063978815
 20
323.07775178650252
 30
0.0
 11
1183.871906397881
 21
323.07775178650252
 31
0.0
  0
LINE
  5
2A2D
  8
NOTE
  6
CONTINUOUS
 10
882.87190639788139
 20
724.07775178650252
 30
0.0
 11
1040.77148939788
 21
812.30385178650226
 31
0.0
  0
CIRCLE
  5
2A2E
  8
SIZE
  6
CONTINUOUS
 10
220.7875803978813
 20
290.07775178650252
 30
0.0
 40
6.0
  0
CIRCLE
  5
2A2F
  8
SIZE
  6
CONTINUOUS
 10
503.55668139788139
 20
290.07775178650252
 30
0.0
 40
6.0
  0
CIRCLE
  5
2A30
  8
SIZE
  6
CONTINUOUS
 10
649.74425839788148
 20
290.07775178650252
 30
0.0
 40
6.0
  0
CIRCLE
  5
2A31
  8
SIZE
  6
CONTINUOUS
 10
350.83505539788138
 20
290.07775178650252
 30
0.0
 40
6.0
  0
LINE
  5
2A32
  8
OUTLINE
  6
CONTINUOUS
 10
771.8719063978815
 20
290.07775178650252
 30
0.0
 11
771.8719063978815
 21
323.07775178650252
 31
0.0
  0
CIRCLE
  5
2A33
  8
FIX
  6
CONTINUOUS
 10
799.8719063978815
 20
290.07775178650252
 30
0.0
 40
40.0
  0
LINE
  5
2A34
  8
DETAIL
  6
CONTINOUS
 10
771.8719063978815
 20
290.07775178650252
 30
0.0
 11
771.8719063978815
 21
323.07775178650252
 31
0.0
  0
LINE
  5
2A35
  8
BASIS
  6
DASHDOT
 10
989.87190639788139
 20
239.4419287865025
 30
0.0
 11
989.87190639788139
 21
1184.2961157865011
 31
0.0
  0
LINE
  5
2A36
  8
NOTE
  6
CONTINOUS
 10
799.8719063978815
 20
270.0777517865024
 30
0.0
 11
799.8719063978815
 21
310.07775178650252
 31
0.0
  0
LINE
  5
2A37
  8
NOTE
  6
CONTINUOUS
 10
0.0000023978816444
 20
-0.000002213497396
 30
0.0
 11
579.80680439788148
 21
-0.000002213497396
 31
0.0
  0
TEXT
  5
2A38
  8
NOTE
  6
CONTINUOUS
 10
14.78030739788152
 20
15.10229878650267
 30
0.0
 40
64.0
  1
AH 2-12×36
 41
0.9
  0
LINE
  5
2A39
  8
SIZE
  6
BYBLOCK
 10
715.70171039788136
 20
290.07775178650252
 30
0.0
 11
320.83505539788149
 21
290.07775178650252
 31
0.0
  0
LINE
  5
2A3A
  8
SIZE
  6
BYBLOCK
 10
735.70171039788136
 20
290.07775178650252
 30
0.0
 11
473.55668139788111
 21
290.07775178650252
 31
0.0
  0
LINE
  5
2A3B
  8
SIZE
  6
BYBLOCK
 10
735.70171039788136
 20
290.07775178650252
 30
0.0
 11
190.7875803978813
 21
290.07775178650252
 31
0.0
  0
LINE
  5
2A3C
  8
NOTE
  6
CONTINUOUS
 10
579.80680439788148
 20
-0.000002213497396
 30
0.0
 11
799.8719063978815
 21
290.07775178650252
 31
0.0
  0
TEXT
  5
2A3D
  8
SIZE
  6
BYBLOCK
 10
739.24333539788142
 20
127.36127978650261
 30
0.0
 40
64.0
  1
28
 41
0.9
  0
LINE
  5
2A3E
  8
SIZE
  6
BYBLOCK
 10
735.70171039788136
 20
290.07775178650252
 30
0.0
 11
619.74425839788148
 21
290.07775178650252
 31
0.0
  0
LINE
  5
2A3F
  8
SIZE
  6
BYBLOCK
 10
799.8719073978815
 20
250.0777517865026
 30
0.0
 11
799.8719073978815
 21
65.361279786502621
 31
0.0
  0
LINE
  5
2A40
  8
SIZE
  6
BYBLOCK
 10
799.8719073978815
 20
250.0777517865026
 30
0.0
 11
799.8719073978815
 21
65.361279786502621
 31
0.0
  0
LINE
  5
2A41
  8
SIZE
  6
BYBLOCK
 10
771.8719073978815
 20
270.0777517865024
 30
0.0
 11
771.8719073978815
 21
65.361279786502621
 31
0.0
  0
CIRCLE
  5
2A42
  8
SIZE
  6
CONTINUOUS
 10
799.8719073978815
 20
95.361279786502593
 30
0.0
 40
6.0
  0
CIRCLE
  5
2A43
  8
SIZE
  6
CONTINUOUS
 10
771.8719073978815
 20
95.361279786502593
 30
0.0
 40
6.0
  0
CIRCLE
  5
2A44
  8
SIZE
  6
CONTINUOUS
 10
799.8719073978815
 20
95.361279786502593
 30
0.0
 40
6.0
  0
LINE
  5
2A45
  8
SIZE
  6
BYBLOCK
 10
799.8719073978815
 20
95.361279786502593
 30
0.0
 11
771.8719073978815
 21
95.361279786502593
 31
0.0
  0
LINE
  5
2A46
  8
SIZE
  6
BYBLOCK
 10
769.8719073978815
 20
95.361279786502593
 30
0.0
 11
767.8719073978815
 21
95.361279786502593
 31
0.0
  0
LINE
  5
2A47
  8
SIZE
  6
BYBLOCK
 10
801.8719073978815
 20
95.361279786502593
 30
0.0
 11
803.87190739788139
 21
95.361279786502593
 31
0.0
  0
LINE
  5
2A48
  8
NOTE
  6
CONTINOUS
 10
779.8719063978815
 20
290.07775178650252
 30
0.0
 11
819.8719063978815
 21
290.07775178650252
 31
0.0
  0
LINE
  5
2A49
  8
NOTE
  6
CONTINUOUS
 10
799.8719063978815
 20
290.07775178650252
 30
0.0
 11
784.76766639788127
 21
253.0390967865026
 31
0.0
  0
LINE
  5
2A4A
  8
NOTE
  6
CONTINUOUS
 10
799.8719063978815
 20
290.07775178650252
 30
0.0
 11
768.27192339788144
 21
265.55345678650241
 31
0.0
  0
LINE
  5
2A4B
  8
SIZE
  6
BYBLOCK
 10
771.8719073978815
 20
343.07775178650252
 30
0.0
 11
771.8719073978815
 21
1422.5027517865019
 31
0.0
  0
LINE
  5
2A4C
  8
OUTLINE
  6
CONTINUOUS
 10
824.87190639788139
 20
323.07775178650252
 30
0.0
 11
824.87190639788139
 21
1145.0777517865019
 31
0.0
  0
LINE
  5
2A4D
  8
DETAIL
  6
CONTINOUS
 10
824.87190639788139
 20
323.07775178650252
 30
0.0
 11
824.87190639788139
 21
1145.0777517865019
 31
0.0
  0
LINE
  5
2A4E
  8
DETAIL
  6
CONTINOUS
 10
804.8719063978815
 20
462.0777517865024
 30
0.0
 11
804.8719063978815
 21
1002.0777517865019
 31
0.0
  0
LINE
  5
2A4F
  8
SIZE
  6
BYBLOCK
 10
714.44271139788157
 20
732.07775178650252
 30
0.0
 11
320.83505539788149
 21
732.07775178650252
 31
0.0
  0
LINE
  5
2A50
  8
SIZE
  6
BYBLOCK
 10
856.8719073978815
 20
724.07775178650252
 30
0.0
 11
473.55668139788111
 21
724.07775178650252
 31
0.0
  0
LINE
  5
2A51
  8
SIZE
  6
BYBLOCK
 10
777.27455739788161
 20
810.08015378650225
 30
0.0
 11
190.4274553978812
 21
810.08015378650225
 31
0.0
  0
LINE
  5
2A52
  8
SIZE
  6
BYBLOCK
 10
350.83505539788138
 20
292.07775178650252
 30
0.0
 11
350.83505539788138
 21
730.07775178650252
 31
0.0
  0
LINE
  5
2A53
  8
SIZE
  6
BYBLOCK
 10
503.55668139788139
 20
292.07775178650252
 30
0.0
 11
503.55668139788139
 21
724.07775178650252
 31
0.0
  0
TEXT
  5
2A54
  8
SIZE
  6
BYBLOCK
 10
188.7875803978813
 20
529.52060878650241
 30
0.0
 40
64.0
  1
520
 50
90.0
 41
0.9
  0
LINE
  5
2A55
  8
SIZE
  6
BYBLOCK
 10
220.7875803978813
 20
810.08015378650225
 30
0.0
 11
220.7875803978813
 21
603.57775178650252
 31
0.0
  0
TEXT
  5
2A56
  8
SIZE
  6
BYBLOCK
 10
318.83505539788149
 20
437.02060878650252
 30
0.0
 40
64.0
  1
442
 50
90.0
 41
0.9
  0
LINE
  5
2A57
  8
SIZE
  6
BYBLOCK
 10
220.7875803978813
 20
292.07775178650252
 30
0.0
 11
220.7875803978813
 21
603.57775178650252
 31
0.0
  0
TEXT
  5
2A58
  8
SIZE
  6
BYBLOCK
 10
471.55668139788139
 20
427.13489478650251
 30
0.0
 40
64.0
  1
434
 50
90.0
 41
0.9
  0
CIRCLE
  5
2A59
  8
SIZE
  6
CONTINUOUS
 10
220.4274553978814
 20
810.08015378650225
 30
0.0
 40
6.0
  0
CIRCLE
  5
2A5A
  8
SIZE
  6
CONTINUOUS
 10
350.83505539788138
 20
732.07775178650252
 30
0.0
 40
6.0
  0
CIRCLE
  5
2A5B
  8
SIZE
  6
CONTINUOUS
 10
503.55668139788139
 20
724.07775178650252
 30
0.0
 40
6.0
  0
LINE
  5
2A5C
  8
SIZE
  6
BYBLOCK
 10
649.74425839788148
 20
292.07775178650252
 30
0.0
 11
649.74425839788148
 21
684.07775178650252
 31
0.0
  0
TEXT
  5
2A5D
  8
SIZE
  6
BYBLOCK
 10
617.74425839788125
 20
415.3920377865025
 30
0.0
 40
64.0
  1
396
 50
90.0
 41
0.9
  0
LINE
  5
2A5E
  8
DETAIL
  6
CONTINOUS
 10
824.87190639788139
 20
462.0777517865024
 30
0.0
 11
804.8719063978815
 21
462.0777517865024
 31
0.0
  0
LINE
  5
2A5F
  8
SIZE
  6
BYBLOCK
 10
836.26393739788148
 20
686.07775178650252
 30
0.0
 11
619.74425839788148
 21
686.07775178650252
 31
0.0
  0
LINE
  5
2A60
  8
BASIS
  6
DASHDOT
 10
734.44271139788145
 20
732.07775178650252
 30
0.0
 11
884.14564339788137
 21
732.07775178650252
 31
0.0
  0
CIRCLE
  5
2A61
  8
SIZE
  6
CONTINUOUS
 10
649.74425839788148
 20
686.07775178650252
 30
0.0
 40
6.0
  0
LINE
  5
2A62
  8
NOTE
  6
CONTINOUS
 10
862.8719063978815
 20
724.07775178650252
 30
0.0
 11
902.8719063978815
 21
724.07775178650252
 31
0.0
  0
LINE
  5
2A63
  8
NOTE
  6
CONTINOUS
 10
859.87190639788162
 20
686.07775178650252
 30
0.0
 11
899.87190639788139
 21
686.07775178650252
 31
0.0
  0
LINE
  5
2A64
  8
NOTE
  6
CONTINOUS
 10
879.8719063978815
 20
666.07775178650252
 30
0.0
 11
879.8719063978815
 21
706.07775178650252
 31
0.0
  0
POLYLINE
  5
2A65
  8
NOTE
  6
CONTINUOUS
 66
     1
 10
0.0
 20
0.0
 30
0.0
  0
VERTEX
  5
3247
  8
NOTE
  6
CONTINUOUS
 10
919.40695039788125
 20
679.99661178650251
 30
0.0
  0
VERTEX
  5
3248
  8
NOTE
  6
CONTINUOUS
 10
879.8719063978815
 20
686.07775178650252
 30
0.0
  0
VERTEX
  5
3249
  8
NOTE
  6
CONTINUOUS
 10
911.06968939788146
 20
661.04380778650238
 30
0.0
  0
SEQEND
  5
324A
  8
NOTE
  6
CONTINUOUS
  0
POLYLINE
  5
2A6A
  8
NOTE
  6
CONTINUOUS
 66
     1
 10
0.0
 20
0.0
 30
0.0
  0
VERTEX
  5
324B
  8
NOTE
  6
CONTINUOUS
 10
911.55116939788149
 20
751.96143678650253
 30
0.0
  0
VERTEX
  5
324C
  8
NOTE
  6
CONTINUOUS
 10
882.87190639788139
 20
724.07775178650252
 30
0.0
  0
VERTEX
  5
324D
  8
NOTE
  6
CONTINUOUS
 10
921.65071939788174
 20
733.88609978650254
 30
0.0
  0
SEQEND
  5
324E
  8
NOTE
  6
CONTINUOUS
  0
LINE
  5
2A6F
  8
NOTE
  6
CONTINOUS
 10
882.87190639788139
 20
704.0777517865024
 30
0.0
 11
882.87190639788139
 21
744.07775178650252
 31
0.0
  0
LINE
  5
2A70
  8
NOTE
  6
CONTINUOUS
 10
824.51178139788146
 20
810.08015378650225
 30
0.0
 11
918.87085639788165
 21
895.38895978650271
 31
0.0
  0
LINE
  5
2A71
  8
NOTE
  6
CONTINOUS
 10
804.51178139788135
 20
810.08015378650225
 30
0.0
 11
844.51178139788135
 21
810.08015378650225
 31
0.0
  0
POLYLINE
  5
2A72
  8
NOTE
  6
CONTINUOUS
 66
     1
 10
0.0
 20
0.0
 30
0.0
  0
VERTEX
  5
324F
  8
NOTE
  6
CONTINUOUS
 10
846.64476439788132
 20
843.39878378650269
 30
0.0
  0
VERTEX
  5
3250
  8
NOTE
  6
CONTINUOUS
 10
824.51178139788146
 20
810.08015378650225
 30
0.0
  0
VERTEX
  5
3251
  8
NOTE
  6
CONTINUOUS
 10
860.33882139788147
 20
827.86844278650256
 30
0.0
  0
SEQEND
  5
3252
  8
NOTE
  6
CONTINUOUS
  0
LINE
  5
2A77
  8
NOTE
  6
CONTINOUS
 10
824.51178139788146
 20
790.08015378650225
 30
0.0
 11
824.51178139788146
 21
830.08015378650225
 31
0.0
  0
LINE
  5
2A78
  8
NOTE
  6
CONTINUOUS
 10
872.35755039788137
 20
933.93013678650243
 30
0.0
 11
872.35755039788137
 21
933.93013678650243
 31
0.0
  0
LINE
  5
2A79
  8
SIZE
  6
BYBLOCK
 10
824.8719073978815
 20
1185.0777517865019
 30
0.0
 11
824.8719073978815
 21
1422.5027517865019
 31
0.0
  0
LINE
  5
2A7A
  8
SIZE
  6
BYBLOCK
 10
824.8719073978815
 20
1165.0777517865019
 30
0.0
 11
824.8719073978815
 21
1422.5027517865019
 31
0.0
  0
LINE
  5
2A7B
  8
SIZE
  6
BYBLOCK
 10
824.8719073978815
 20
1165.0777517865019
 30
0.0
 11
824.8719073978815
 21
1293.248751786502
 31
0.0
  0
LINE
  5
2A7C
  8
SIZE
  6
BYBLOCK
 10
804.87190739788139
 20
1022.0777517865019
 30
0.0
 11
804.87190739788139
 21
1293.248751786502
 31
0.0
  0
LINE
  5
2A7D
  8
DETAIL
  6
CONTINOUS
 10
824.87190639788139
 20
1002.0777517865019
 30
0.0
 11
804.8719063978815
 21
1002.0777517865019
 31
0.0
  0
LINE
  5
2A7E
  8
SIZE
  6
CONTINUOUS
 10
814.87190639788139
 20
1263.2491457865019
 30
0.0
 11
945.94025839788139
 21
1263.2491457865019
 31
0.0
  0
LINE
  5
2A7F
  8
SIZE
  6
BYBLOCK
 10
822.8719073978815
 20
1263.2491457865019
 30
0.0
 11
814.8719073978815
 21
1263.2491457865019
 31
0.0
  0
CIRCLE
  5
2A80
  8
SIZE
  6
CONTINUOUS
 10
804.87190739788139
 20
1263.2491457865019
 30
0.0
 40
6.0
  0
LINE
  5
2A81
  8
SIZE
  6
BYBLOCK
 10
806.8719073978815
 20
1263.2491457865019
 30
0.0
 11
814.8719073978815
 21
1263.2491457865019
 31
0.0
  0
CIRCLE
  5
2A82
  8
SIZE
  6
CONTINUOUS
 10
824.8719073978815
 20
1263.2491457865019
 30
0.0
 40
6.0
  0
TEXT
  5
2A83
  8
SIZE
  6
BYBLOCK
 10
751.74333539788142
 20
1424.5027517865019
 30
0.0
 40
64.0
  1
53
 41
0.9
  0
TEXT
  5
2A84
  8
SIZE
  6
BYBLOCK
 10
843.21570539788104
 20
1295.248751786502
 30
0.0
 40
64.0
  1
20
 41
0.9
  0
LINE
  5
2A85
  8
SIZE
  6
BYBLOCK
 10
824.8719073978815
 20
1392.5027517865019
 30
0.0
 11
771.8719073978815
 21
1392.5027517865019
 31
0.0
  0
CIRCLE
  5
2A86
  8
SIZE
  6
CONTINUOUS
 10
771.8719073978815
 20
1392.5027517865019
 30
0.0
 40
6.0
  0
LINE
  5
2A87
  8
SIZE
  6
BYBLOCK
 10
769.8719073978815
 20
1392.5027517865019
 30
0.0
 11
767.8719073978815
 21
1392.5027517865019
 31
0.0
  0
CIRCLE
  5
2A88
  8
SIZE
  6
CONTINUOUS
 10
824.8719073978815
 20
1392.5027517865019
 30
0.0
 40
6.0
  0
CIRCLE
  5
2A89
  8
SIZE
  6
CONTINUOUS
 10
824.8719073978815
 20
1392.5027517865019
 30
0.0
 40
6.0
  0
LINE
  5
2A8A
  8
SIZE
  6
BYBLOCK
 10
826.8719073978815
 20
1392.5027517865019
 30
0.0
 11
828.87190739788139
 21
1392.5027517865019
 31
0.0
  0
CIRCLE
  5
2A8B
  8
SIZE
  6
CONTINUOUS
 10
1420.44446039788
 20
290.07775178650252
 30
0.0
 40
6.0
  0
CIRCLE
  5
2A8C
  8
FIX
  6
CONTINUOUS
 10
1169.871906397881
 20
290.07775178650252
 30
0.0
 40
40.0
  0
LINE
  5
2A8D
  8
OUTLINE
  6
CONTINUOUS
 10
1183.871906397881
 20
323.07775178650252
 30
0.0
 11
1183.871906397881
 21
290.07775178650252
 31
0.0
  0
TEXT
  5
2A8E
  8
ETC
  6
CONTINUOUS
 10
1573.1112623978811
 20
288.6366377865026
 30
0.0
 40
64.0
  1
室外機
 41
0.9
  0
LINE
  5
2A8F
  8
DETAIL
  6
CONTINOUS
 10
1183.871906397881
 20
290.07775178650252
 30
0.0
 11
1183.871906397881
 21
323.07775178650252
 31
0.0
  0
LINE
  5
2A90
  8
NOTE
  6
CONTINOUS
 10
1169.871906397881
 20
270.0777517865024
 30
0.0
 11
1169.871906397881
 21
310.07775178650252
 31
0.0
  0
LINE
  5
2A91
  8
NOTE
  6
CONTINUOUS
 10
1969.74381039788
 20
-0.000002213497396
 30
0.0
 11
1389.9370083978811
 21
-0.000002213497396
 31
0.0
  0
TEXT
  5
2A92
  8
NOTE
  6
CONTINUOUS
 10
1415.1692193978811
 20
15.10229878650267
 30
0.0
 40
64.0
  1
AH 2-U cut
 41
0.9
  0
LINE
  5
2A93
  8
NOTE
  6
CONTINUOUS
 10
1389.9370083978811
 20
-0.000002213497396
 30
0.0
 11
1169.871906397881
 21
290.07775178650252
 31
0.0
  0
LINE
  5
2A94
  8
SIZE
  6
BYBLOCK
 10
1214.7137463978811
 20
290.07775178650252
 30
0.0
 11
1450.44446039788
 21
290.07775178650252
 31
0.0
  0
LINE
  5
2A95
  8
SIZE
  6
BYBLOCK
 10
1183.87190739788
 20
270.0777517865024
 30
0.0
 11
1183.87190739788
 21
65.361279786502621
 31
0.0
  0
LINE
  5
2A96
  8
SIZE
  6
BYBLOCK
 10
1169.87190739788
 20
250.0777517865026
 30
0.0
 11
1169.87190739788
 21
65.361279786502621
 31
0.0
  0
LINE
  5
2A97
  8
SIZE
  6
BYBLOCK
 10
1169.87190739788
 20
250.0777517865026
 30
0.0
 11
1169.87190739788
 21
65.361279786502621
 31
0.0
  0
CIRCLE
  5
2A98
  8
SIZE
  6
CONTINUOUS
 10
1169.87190739788
 20
95.361279786502593
 30
0.0
 40
6.0
  0
CIRCLE
  5
2A99
  8
SIZE
  6
CONTINUOUS
 10
1169.87190739788
 20
95.361279786502593
 30
0.0
 40
6.0
  0
CIRCLE
  5
2A9A
  8
SIZE
  6
CONTINUOUS
 10
1183.87190739788
 20
95.361279786502593
 30
0.0
 40
6.0
  0
LINE
  5
2A9B
  8
SIZE
  6
BYBLOCK
 10
1183.87190739788
 20
95.361279786502593
 30
0.0
 11
1169.87190739788
 21
95.361279786502593
 31
0.0
  0
LINE
  5
2A9C
  8
SIZE
  6
BYBLOCK
 10
1167.87190739788
 20
95.361279786502593
 30
0.0
 11
1165.87190739788
 21
95.361279786502593
 31
0.0
  0
LINE
  5
2A9D
  8
SIZE
  6
BYBLOCK
 10
1185.87190739788
 20
95.361279786502593
 30
0.0
 11
1187.87190739788
 21
95.361279786502593
 31
0.0
  0
TEXT
  5
2A9E
  8
SIZE
  6
BYBLOCK
 10
1134.3576213978811
 20
127.36127978650261
 30
0.0
 40
64.0
  1
14
 41
0.9
  0
LINE
  5
2A9F
  8
NOTE
  6
CONTINOUS
 10
1149.871906397881
 20
290.07775178650252
 30
0.0
 11
1189.871906397881
 21
290.07775178650252
 31
0.0
  0
LINE
  5
2AA0
  8
NOTE
  6
CONTINUOUS
 10
1169.871906397881
 20
290.07775178650252
 30
0.0
 11
1184.97614639788
 21
253.0390967865026
 31
0.0
  0
LINE
  5
2AA1
  8
NOTE
  6
CONTINUOUS
 10
1169.871906397881
 20
290.07775178650252
 30
0.0
 11
1201.47188939788
 21
265.55345678650241
 31
0.0
  0
TEXT
  5
2AA2
  8
ETC
  6
CONTINUOUS
 10
1561.288518397879
 20
407.8032387865025
 30
0.0
 40
64.0
  1
SPUZ0824
 41
0.9
  0
LINE
  5
2AA3
  8
SIZE
  6
BYBLOCK
 10
1420.44446039788
 20
1143.0777517865019
 30
0.0
 11
1420.44446039788
 21
717.57775178650252
 31
0.0
  0
LINE
  5
2AA4
  8
OUTLINE
  6
CONTINUOUS
 10
1154.8719063978799
 20
1145.0777517865019
 30
0.0
 11
1154.8719063978799
 21
323.07775178650252
 31
0.0
  0
LINE
  5
2AA5
  8
DETAIL
  6
CONTINOUS
 10
1154.8719063978799
 20
323.07775178650252
 30
0.0
 11
1154.8719063978799
 21
1145.0777517865019
 31
0.0
  0
LINE
  5
2AA6
  8
SIZE
  6
BYBLOCK
 10
1420.44446039788
 20
292.07775178650252
 30
0.0
 11
1420.44446039788
 21
717.57775178650252
 31
0.0
  0
LINE
  5
2AA7
  8
NOTE
  6
CONTINUOUS
 10
1124.871906397881
 20
323.07775178650252
 30
0.0
 11
1231.96219639788
 21
428.57361078650251
 31
0.0
  0
LINE
  5
2AA8
  8
NOTE
  6
CONTINOUS
 10
1104.871906397881
 20
323.07775178650252
 30
0.0
 11
1144.871906397881
 21
323.07775178650252
 31
0.0
  0
POLYLINE
  5
2AA9
  8
NOTE
  6
CONTINUOUS
 66
     1
 10
0.0
 20
0.0
 30
0.0
  0
VERTEX
  5
3253
  8
NOTE
  6
CONTINUOUS
 10
1145.1311663978811
 20
357.56778478650261
 30
0.0
  0
VERTEX
  5
3254
  8
NOTE
  6
CONTINUOUS
 10
1124.871906397881
 20
323.07775178650252
 30
0.0
  0
VERTEX
  5
3255
  8
NOTE
  6
CONTINUOUS
 10
1159.661957397881
 20
342.81736678650259
 30
0.0
  0
SEQEND
  5
3256
  8
NOTE
  6
CONTINUOUS
  0
LINE
  5
2AAE
  8
NOTE
  6
CONTINOUS
 10
1124.871906397881
 20
303.07775178650257
 30
0.0
 11
1124.871906397881
 21
343.07775178650252
 31
0.0
  0
TEXT
  5
2AAF
  8
NOTE
  6
CONTINUOUS
 10
1251.9401213978811
 20
438.44475178650248
 30
0.0
 40
64.0
  1
D
 41
0.9
  0
LINE
  5
2AB0
  8
NOTE
  6
CONTINUOUS
 10
1231.96219639788
 20
428.57361078650251
 30
0.0
 11
1302.198482397881
 21
428.57361078650251
 31
0.0
  0
TEXT
  5
2AB1
  8
NOTE
  6
CONTINUOUS
 10
1060.708654397878
 20
635.63939678650252
 30
0.0
 40
64.0
  1
RG
 41
0.9
  0
LINE
  5
2AB2
  8
NOTE
  6
CONTINUOUS
 10
1040.77148939788
 20
625.20405378650253
 30
0.0
 11
1180.455218397881
 21
625.20405378650253
 31
0.0
  0
TEXT
  5
2AB3
  8
NOTE
  6
CONTINUOUS
 10
1060.92620539788
 20
822.17499278650257
 30
0.0
 40
64.0
  1
RL
 41
0.9
  0
LINE
  5
2AB4
  8
NOTE
  6
CONTINUOUS
 10
1040.77148939788
 20
812.30385178650226
 30
0.0
 11
1170.35759939788
 21
812.30385178650226
 31
0.0
  0
TEXT
  5
2AB5
  8
SIZE
  6
BYBLOCK
 10
1388.44446039788
 20
643.52060878650252
 30
0.0
 40
64.0
  1
855
 50
90.0
 41
0.9
  0
LINE
  5
2AB6
  8
SIZE
  6
BYBLOCK
 10
1154.87190739788
 20
1165.0777517865019
 30
0.0
 11
1154.87190739788
 21
1422.5027517865019
 31
0.0
  0
LINE
  5
2AB7
  8
SIZE
  6
BYBLOCK
 10
1203.87190739788
 20
1145.0777517865019
 30
0.0
 11
1450.44446039788
 21
1145.0777517865019
 31
0.0
  0
CIRCLE
  5
2AB8
  8
SIZE
  6
CONTINUOUS
 10
1420.44446039788
 20
1145.0777517865019
 30
0.0
 40
6.0
  0
CIRCLE
  5
2AB9
  8
SIZE
  6
CONTINUOUS
 10
1154.87190739788
 20
1392.5027517865019
 30
0.0
 40
6.0
  0
ENDBLK
  5
2ABA
  8
0
  0
BLOCK
  8
0
  2
_ORIGIN
 70
     0
 10
0.0
 20
0.0
 30
0.0
  3
_ORIGIN
  1

  0
CIRCLE
  5
2ABD
  8
0
  6
BYBLOCK
 62
     0
 10
0.0
 20
0.0
 30
0.0
 40
0.5
  0
LINE
  5
2ABE
  8
0
  6
BYBLOCK
 62
     0
 10
0.0
 20
0.0
 30
0.0
 11
-1.0
 21
0.0
 31
0.0
  0
ENDBLK
  5
2ABF
  8
0
  0
BLOCK
  8
0
  2
_ORIGIN2
 70
     0
 10
0.0
 20
0.0
 30
0.0
  3
_ORIGIN2
  1

  0
CIRCLE
  5
2AC2
  8
0
  6
BYBLOCK
 62
     0
 10
0.0
 20
0.0
 30
0.0
 40
0.5
  0
CIRCLE
  5
2AC3
  8
0
  6
BYBLOCK
 62
     0
 10
0.0
 20
0.0
 30
0.0
 40
0.25
  0
LINE
  5
2AC4
  8
0
  6
BYBLOCK
 62
     0
 10
-0.5
 20
0.0
 30
0.0
 11
-1.0
 21
0.0
 31
0.0
  0
ENDBLK
  5
2AC5
  8
0
  0
BLOCK
  8
0
  2
_DOTBLANK
 70
     0
 10
0.0
 20
0.0
 30
0.0
  3
_DOTBLANK
  1

  0
CIRCLE
  5
2AC8
  8
0
  6
BYBLOCK
 62
     0
 10
0.0
 20
0.0
 30
0.0
 40
0.5
  0
LINE
  5
2AC9
  8
0
  6
BYBLOCK
 62
     0
 10
-0.5
 20
0.0
 30
0.0
 11
-1.0
 21
0.0
 31
0.0
  0
ENDBLK
  5
2ACA
  8
0
  0
BLOCK
  8
0
  2
*D102
 70
     1
 10
0.0
 20
0.0
 30
0.0
  3
*D102
  1

  0
LINE
  5
2FA3
  8
SIZE
  6
CONTINUOUS
 62
     0
 10
-494.99999999999972
 20
-165.0
 30
0.0
 11
-647.76083576584165
 21
-164.9999999999998
 31
0.0
  0
LINE
  5
2FA4
  8
SIZE
  6
CONTINUOUS
 62
     0
 10
-494.99999999999972
 20
165.0
 30
0.0
 11
-647.76083576584165
 21
165.0
 31
0.0
  0
LINE
  5
2FA5
  8
SIZE
  6
CONTINUOUS
 62
     0
 10
-617.76083576584165
 20
-154.9999999999998
 30
0.0
 11
-617.76083576584165
 21
155.0
 31
0.0
  0
INSERT
  5
2FA6
  8
SIZE
  6
CONTINUOUS
 62
     0
  2
_DOTBLANK
 10
-617.76083576584165
 20
-164.9999999999998
 30
0.0
 41
10.0
 42
10.0
 43
10.0
 50
270.0
  0
INSERT
  5
2FA7
  8
SIZE
  6
CONTINUOUS
 62
     0
  2
_ORIGIN
 10
-617.76083576584165
 20
165.0
 30
0.0
 41
10.0
 42
10.0
 43
10.0
 50
90.0
  0
TEXT
  5
2FA8
  8
SERVICESPACE
  6
CONTINUOUS
 62
     0
 10
-637.76083576584165
 20
-74.057142857142935
 30
0.0
 40
64.0
  1
330
 50
90.0
 41
0.9
  0
POINT
  5
2FA9
  8
DEFPOINTS
  6
CONTINUOUS
 62
     0
 10
-474.99999999999972
 20
-165.0
 30
0.0
  0
POINT
  5
2FAA
  8
DEFPOINTS
  6
CONTINUOUS
 62
     0
 10
-474.99999999999972
 20
165.0
 30
0.0
  0
POINT
  5
2FAB
  8
DEFPOINTS
  6
CONTINUOUS
 62
     0
 10
-617.76083576584165
 20
165.0
 30
0.0
  0
ENDBLK
  5
2FAC
  8
0
  0
BLOCK
  8
0
  2
*D103
 70
     1
 10
0.0
 20
0.0
 30
0.0
  3
*D103
  1

  0
LINE
  5
2FAF
  8
SIZE
  6
CONTINUOUS
 62
     0
 10
-494.99999999999972
 20
-165.0
 30
0.0
 11
-647.76083576584165
 21
-164.9999999999998
 31
0.0
  0
LINE
  5
2FB0
  8
SIZE
  6
CONTINUOUS
 62
     0
 10
-461.99999999984698
 20
-194.9999999999998
 30
0.0
 11
-647.76083576584165
 21
-194.9999999999998
 31
0.0
  0
LINE
  5
2FB1
  8
SIZE
  6
CONTINUOUS
 62
     0
 10
-617.76083576584165
 20
-154.9999999999998
 30
0.0
 11
-617.76083576584165
 21
-144.9999999999998
 31
0.0
  0
LINE
  5
2FB2
  8
SIZE
  6
CONTINUOUS
 62
     0
 10
-617.76083576584165
 20
-204.9999999999998
 30
0.0
 11
-617.76083576584165
 21
-214.99999999999989
 31
0.0
  0
TEXT
  5
2FB3
  8
SERVICESPACE
  6
CONTINUOUS
 62
     0
 10
-677.76083576584188
 20
-226.62857142857141
 30
0.0
 40
64.0
  1
30
 50
90.0
 41
0.9
  0
LINE
  5
2FB4
  8
SIZE
  6
CONTINUOUS
 62
     0
 10
-617.76083576584165
 20
-164.9999999999998
 30
0.0
 11
-617.76083576584165
 21
-194.9999999999998
 31
0.0
  0
INSERT
  5
2FB5
  8
SIZE
  6
CONTINUOUS
 62
     0
  2
_DOTBLANK
 10
-617.76083576584165
 20
-164.9999999999998
 30
0.0
 41
10.0
 42
10.0
 43
10.0
 50
270.0
  0
INSERT
  5
2FB6
  8
SIZE
  6
CONTINUOUS
 62
     0
  2
_ORIGIN
 10
-617.76083576584165
 20
-194.9999999999998
 30
0.0
 41
10.0
 42
10.0
 43
10.0
 50
90.0
  0
POINT
  5
2FB7
  8
DEFPOINTS
  6
CONTINUOUS
 62
     0
 10
-474.99999999999972
 20
-165.0
 30
0.0
  0
POINT
  5
2FB8
  8
DEFPOINTS
  6
CONTINUOUS
 62
     0
 10
-441.99999999984709
 20
-195.0
 30
0.0
  0
POINT
  5
2FB9
  8
DEFPOINTS
  6
CONTINUOUS
 62
     0
 10
-617.76083576584165
 20
-194.9999999999998
 30
0.0
  0
ENDBLK
  5
2FBA
  8
0
  0
BLOCK
  8
0
  2
*D116
 70
     1
 10
0.0
 20
0.0
 30
0.0
  3
*D116
  1

  0
LINE
  5
3061
  8
SIZE
  6
CONTINUOUS
 62
     0
 10
475.0
 20
-185.0
 30
0.0
 11
475.0
 21
-613.06791136589527
 31
0.0
  0
LINE
  5
3062
  8
SIZE
  6
CONTINUOUS
 62
     0
 10
274.99999999999972
 20
-165.0
 30
0.0
 11
274.99999999999972
 21
-613.06791136589527
 31
0.0
  0
LINE
  5
3063
  8
SIZE
  6
CONTINUOUS
 62
     0
 10
465.0
 20
-583.06791136589516
 30
0.0
 11
284.99999999999972
 21
-583.06791136589516
 31
0.0
  0
INSERT
  5
3064
  8
SIZE
  6
CONTINUOUS
 62
     0
  2
_DOTBLANK
 10
475.0
 20
-583.06791136589516
 30
0.0
 41
10.0
 42
10.0
 43
10.0
  0
INSERT
  5
3065
  8
SIZE
  6
CONTINUOUS
 62
     0
  2
_ORIGIN
 10
274.99999999999972
 20
-583.06791136589516
 30
0.0
 41
10.0
 42
10.0
 43
10.0
 50
180.0
  0
TEXT
  5
3066
  8
SERVICESPACE
  6
CONTINUOUS
 62
     0
 10
300.94285714285701
 20
-563.06791136589527
 30
0.0
 40
64.0
  1
200
 41
0.9
  0
POINT
  5
3067
  8
DEFPOINTS
  6
CONTINUOUS
 62
     0
 10
475.0
 20
-165.0
 30
0.0
  0
POINT
  5
3068
  8
DEFPOINTS
  6
CONTINUOUS
 62
     0
 10
274.99999999999972
 20
-145.0
 30
0.0
  0
POINT
  5
3069
  8
DEFPOINTS
  6
CONTINUOUS
 62
     0
 10
274.99999999999972
 20
-583.06791136589516
 30
0.0
  0
ENDBLK
  5
306A
  8
0
  0
BLOCK
  8
0
  2
*D117
 70
     1
 10
0.0
 20
0.0
 30
0.0
  3
*D117
  1

  0
LINE
  5
306D
  8
SIZE
  6
CONTINUOUS
 62
     0
 10
-474.99999999999972
 20
-185.0
 30
0.0
 11
-474.99999999999972
 21
-477.80597220889427
 31
0.0
  0
LINE
  5
306E
  8
SIZE
  6
CONTINUOUS
 62
     0
 10
-152.9999999999998
 20
-272.86561949999981
 30
0.0
 11
-152.9999999999998
 21
-477.80597220889427
 31
0.0
  0
LINE
  5
306F
  8
SIZE
  6
CONTINUOUS
 62
     0
 10
-464.99999999999972
 20
-447.8059722088945
 30
0.0
 11
-162.9999999999998
 21
-447.8059722088945
 31
0.0
  0
INSERT
  5
3070
  8
SIZE
  6
CONTINUOUS
 62
     0
  2
_DOTBLANK
 10
-474.99999999999972
 20
-447.8059722088945
 30
0.0
 41
10.0
 42
10.0
 43
10.0
 50
180.0
  0
INSERT
  5
3071
  8
SIZE
  6
CONTINUOUS
 62
     0
  2
_ORIGIN
 10
-152.9999999999998
 20
-447.8059722088945
 30
0.0
 41
10.0
 42
10.0
 43
10.0
  0
TEXT
  5
3072
  8
SERVICESPACE
  6
CONTINUOUS
 62
     0
 10
-388.05714285714248
 20
-427.80597220889427
 30
0.0
 40
64.0
  1
322
 41
0.9
  0
POINT
  5
3073
  8
DEFPOINTS
  6
CONTINUOUS
 62
     0
 10
-474.99999999999972
 20
-165.0
 30
0.0
  0
POINT
  5
3074
  8
DEFPOINTS
  6
CONTINUOUS
 62
     0
 10
-152.9999999999998
 20
-252.86561949999989
 30
0.0
  0
POINT
  5
3075
  8
DEFPOINTS
  6
CONTINUOUS
 62
     0
 10
-152.9999999999998
 20
-447.8059722088945
 30
0.0
  0
ENDBLK
  5
3076
  8
0
  0
BLOCK
  8
0
  2
*D118
 70
     1
 10
0.0
 20
0.0
 30
0.0
  3
*D118
  1

  0
LINE
  5
3118
  8
SIZE
  6
CONTINUOUS
 62
     0
 10
-474.99999999999972
 20
185.0
 30
0.0
 11
-474.99999999999972
 21
607.67217662139205
 31
0.0
  0
LINE
  5
3119
  8
SIZE
  6
CONTINUOUS
 62
     0
 10
475.0
 20
185.0
 30
0.0
 11
475.0
 21
607.67217662139205
 31
0.0
  0
LINE
  5
311A
  8
SIZE
  6
CONTINUOUS
 62
     0
 10
-464.99999999999972
 20
577.67217662139205
 30
0.0
 11
465.0
 21
577.67217662139205
 31
0.0
  0
TEXT
  5
311B
  8
SERVICESPACE
  6
CONTINUOUS
 62
     0
 10
-83.104897962873039
 20
599.33965968551092
 30
0.0
 40
64.0
  1
950
 41
0.9
  0
INSERT
  5
311C
  8
SIZE
  6
CONTINUOUS
 62
     0
  2
_DOTBLANK
 10
-474.99999999999972
 20
577.67217662139205
 30
0.0
 41
10.0
 42
10.0
 43
10.0
 50
180.0
  0
INSERT
  5
311D
  8
SIZE
  6
CONTINUOUS
 62
     0
  2
_ORIGIN
 10
475.0
 20
577.67217662139205
 30
0.0
 41
10.0
 42
10.0
 43
10.0
  0
POINT
  5
311E
  8
DEFPOINTS
  6
CONTINUOUS
 62
     0
 10
-474.99999999999972
 20
165.0
 30
0.0
  0
POINT
  5
311F
  8
DEFPOINTS
  6
CONTINUOUS
 62
     0
 10
475.0
 20
165.0
 30
0.0
  0
POINT
  5
3120
  8
DEFPOINTS
  6
CONTINUOUS
 62
     0
 10
475.0
 20
577.67217662139205
 30
0.0
  0
ENDBLK
  5
3117
  8
0
  0
BLOCK
  8
0
  2
*D119
 70
     1
 10
0.0
 20
0.0
 30
0.0
  3
*D119
  1

  0
LINE
  5
3142
  8
SIZE
  6
CONTINUOUS
 62
     0
 10
-300.0
 20
220.0
 30
0.0
 11
-300.0
 21
437.98130346314798
 31
0.0
  0
LINE
  5
3143
  8
SIZE
  6
CONTINUOUS
 62
     0
 10
299.99999999999989
 20
220.0
 30
0.0
 11
299.99999999999989
 21
437.98130346314798
 31
0.0
  0
LINE
  5
3144
  8
SIZE
  6
CONTINUOUS
 62
     0
 10
-290.0
 20
407.98130346314792
 30
0.0
 11
289.99999999999977
 21
407.98130346314792
 31
0.0
  0
TEXT
  5
3145
  8
SERVICESPACE
  6
CONTINUOUS
 62
     0
 10
-74.022542514846378
 20
432.792821562467
 30
0.0
 40
64.0
  1
600
 41
0.9
  0
INSERT
  5
3146
  8
SIZE
  6
CONTINUOUS
 62
     0
  2
_DOTBLANK
 10
-300.0
 20
407.98130346314792
 30
0.0
 41
10.0
 42
10.0
 43
10.0
 50
180.0
  0
INSERT
  5
3147
  8
SIZE
  6
CONTINUOUS
 62
     0
  2
_ORIGIN
 10
299.99999999999989
 20
407.98130346314792
 30
0.0
 41
10.0
 42
10.0
 43
10.0
  0
POINT
  5
3148
  8
DEFPOINTS
  6
CONTINUOUS
 62
     0
 10
-300.0
 20
200.0
 30
0.0
  0
POINT
  5
3149
  8
DEFPOINTS
  6
CONTINUOUS
 62
     0
 10
299.99999999999989
 20
200.0
 30
0.0
  0
POINT
  5
314A
  8
DEFPOINTS
  6
CONTINUOUS
 62
     0
 10
299.99999999999989
 20
407.98130346314792
 30
0.0
  0
ENDBLK
  5
312D
  8
0
  0
BLOCK
  8
0
  2
*D120
 70
     1
 10
0.0
 20
0.0
 30
0.0
  3
*D120
  1

  0
LINE
  5
3159
  8
SIZE
  6
CONTINUOUS
 62
     0
 10
299.99999999999989
 20
220.0
 30
0.0
 11
299.99999999999989
 21
437.98130346314798
 31
0.0
  0
LINE
  5
315A
  8
SIZE
  6
CONTINUOUS
 62
     0
 10
475.0
 20
185.0
 30
0.0
 11
475.0
 21
437.98130346314798
 31
0.0
  0
LINE
  5
315B
  8
SIZE
  6
CONTINUOUS
 62
     0
 10
289.99999999999977
 20
407.98130346314792
 30
0.0
 11
279.99999999999977
 21
407.98130346314792
 31
0.0
  0
LINE
  5
315C
  8
SIZE
  6
CONTINUOUS
 62
     0
 10
485.0
 20
407.98130346314792
 30
0.0
 11
495.0
 21
407.98130346314792
 31
0.0
  0
TEXT
  5
315D
  8
SERVICESPACE
  6
CONTINUOUS
 62
     0
 10
314.10751098226211
 20
424.3851784069102
 30
0.0
 40
64.0
  1
175
 41
0.9
  0
LINE
  5
315E
  8
SIZE
  6
CONTINUOUS
 62
     0
 10
299.99999999999989
 20
407.98130346314792
 30
0.0
 11
475.0
 21
407.98130346314792
 31
0.0
  0
INSERT
  5
315F
  8
SIZE
  6
CONTINUOUS
 62
     0
  2
_DOTBLANK
 10
299.99999999999989
 20
407.98130346314792
 30
0.0
 41
10.0
 42
10.0
 43
10.0
  0
INSERT
  5
3160
  8
SIZE
  6
CONTINUOUS
 62
     0
  2
_ORIGIN
 10
475.0
 20
407.98130346314792
 30
0.0
 41
10.0
 42
10.0
 43
10.0
 50
180.0
  0
POINT
  5
3161
  8
DEFPOINTS
  6
CONTINUOUS
 62
     0
 10
299.99999999999989
 20
200.0
 30
0.0
  0
POINT
  5
3162
  8
DEFPOINTS
  6
CONTINUOUS
 62
     0
 10
475.0
 20
165.0
 30
0.0
  0
POINT
  5
3163
  8
DEFPOINTS
  6
CONTINUOUS
 62
     0
 10
475.0
 20
407.98130346314792
 30
0.0
  0
ENDBLK
  5
3158
  8
0
  0
BLOCK
  8
0
  2
*D121
 70
     1
 10
0.0
 20
0.0
 30
0.0
  3
*D121
  1

  0
LINE
  5
3172
  8
SIZE
  6
CONTINUOUS
 62
     0
 10
-474.99999999999972
 20
185.0
 30
0.0
 11
-474.99999999999972
 21
437.98130346314798
 31
0.0
  0
LINE
  5
3173
  8
SIZE
  6
CONTINUOUS
 62
     0
 10
-300.0
 20
220.0
 30
0.0
 11
-300.0
 21
437.98130346314798
 31
0.0
  0
LINE
  5
3174
  8
SIZE
  6
CONTINUOUS
 62
     0
 10
-464.99999999999972
 20
407.98130346314792
 30
0.0
 11
-310.0
 21
407.98130346314792
 31
0.0
  0
TEXT
  5
3175
  8
SERVICESPACE
  6
CONTINUOUS
 62
     0
 10
-455.38604424846659
 20
430.6909082614784
 30
0.0
 40
64.0
  1
175
 41
0.9
  0
INSERT
  5
3176
  8
SIZE
  6
CONTINUOUS
 62
     0
  2
_DOTBLANK
 10
-474.99999999999972
 20
407.98130346314792
 30
0.0
 41
10.0
 42
10.0
 43
10.0
 50
180.0
  0
INSERT
  5
3177
  8
SIZE
  6
CONTINUOUS
 62
     0
  2
_ORIGIN
 10
-300.0
 20
407.98130346314792
 30
0.0
 41
10.0
 42
10.0
 43
10.0
  0
POINT
  5
3178
  8
DEFPOINTS
  6
CONTINUOUS
 62
     0
 10
-474.99999999999972
 20
165.0
 30
0.0
  0
POINT
  5
3179
  8
DEFPOINTS
  6
CONTINUOUS
 62
     0
 10
-300.0
 20
200.0
 30
0.0
  0
POINT
  5
317A
  8
DEFPOINTS
  6
CONTINUOUS
 62
     0
 10
-300.0
 20
407.98130346314792
 30
0.0
  0
ENDBLK
  5
3171
  8
0
  0
BLOCK
  8
0
  2
*D122
 70
     1
 10
0.0
 20
0.0
 30
0.0
  3
*D122
  1

  0
LINE
  5
3189
  8
SIZE
  6
CONTINUOUS
 62
     0
 10
339.99999999999972
 20
184.99999999999989
 30
0.0
 11
1004.9121006341491
 21
184.9999999999998
 31
0.0
  0
LINE
  5
318A
  8
SIZE
  6
CONTINUOUS
 62
     0
 10
335.99999999999972
 20
203.99999999999989
 30
0.0
 11
1004.9121006341491
 21
203.9999999999998
 31
0.0
  0
LINE
  5
318B
  8
SIZE
  6
CONTINUOUS
 62
     0
 10
974.91210063414906
 20
174.9999999999998
 30
0.0
 11
974.91210063414906
 21
164.9999999999998
 31
0.0
  0
LINE
  5
318C
  8
SIZE
  6
CONTINUOUS
 62
     0
 10
974.91210063414906
 20
213.99999999999969
 30
0.0
 11
974.91210063414906
 21
223.99999999999969
 31
0.0
  0
TEXT
  5
318D
  8
SERVICESPACE
  6
CONTINUOUS
 62
     0
 10
944.80121754257198
 20
210.35298022580321
 30
0.0
 40
64.0
  1
19
 50
90.0
 41
0.9
  0
LINE
  5
318E
  8
SIZE
  6
CONTINUOUS
 62
     0
 10
974.91210063414906
 20
184.9999999999998
 30
0.0
 11
974.91210063414906
 21
203.9999999999998
 31
0.0
  0
INSERT
  5
318F
  8
SIZE
  6
CONTINUOUS
 62
     0
  2
_DOTBLANK
 10
974.91210063414906
 20
184.9999999999998
 30
0.0
 41
10.0
 42
10.0
 43
10.0
 50
90.0
  0
INSERT
  5
3190
  8
SIZE
  6
CONTINUOUS
 62
     0
  2
_ORIGIN
 10
974.91210063414906
 20
203.9999999999998
 30
0.0
 41
10.0
 42
10.0
 43
10.0
 50
270.0
  0
POINT
  5
3191
  8
DEFPOINTS
  6
CONTINUOUS
 62
     0
 10
319.99999999999972
 20
185.0
 30
0.0
  0
POINT
  5
3192
  8
DEFPOINTS
  6
CONTINUOUS
 62
     0
 10
315.99999999999972
 20
204.0
 30
0.0
  0
POINT
  5
3193
  8
DEFPOINTS
  6
CONTINUOUS
 62
     0
 10
974.91210063414906
 20
203.9999999999998
 30
0.0
  0
ENDBLK
  5
3188
  8
0
  0
BLOCK
  8
0
  2
*D123
 70
     1
 10
0.0
 20
0.0
 30
0.0
  3
*D123
  1

  0
LINE
  5
31A2
  8
SIZE
  6
CONTINUOUS
 62
     0
 10
339.99999999999972
 20
-185.0
 30
0.0
 11
1004.9121006341491
 21
-185.0000000000002
 31
0.0
  0
LINE
  5
31A3
  8
SIZE
  6
CONTINUOUS
 62
     0
 10
336.0
 20
-213.0
 30
0.0
 11
1004.9121006341491
 21
-213.0000000000002
 31
0.0
  0
LINE
  5
31A4
  8
SIZE
  6
CONTINUOUS
 62
     0
 10
974.91210063414906
 20
-175.00000000000011
 30
0.0
 11
974.91210063414906
 21
-165.0000000000002
 31
0.0
  0
LINE
  5
31A5
  8
SIZE
  6
CONTINUOUS
 62
     0
 10
974.91210063414906
 20
-223.0000000000002
 30
0.0
 11
974.91210063414906
 21
-233.00000000000011
 31
0.0
  0
TEXT
  5
31A6
  8
SERVICESPACE
  6
CONTINUOUS
 62
     0
 10
944.80121754257198
 20
-336.6949665812827
 30
0.0
 40
64.0
  1
28
 50
90.0
 41
0.9
  0
LINE
  5
31A7
  8
SIZE
  6
CONTINUOUS
 62
     0
 10
974.91210063414906
 20
-185.0000000000002
 30
0.0
 11
974.91210063414906
 21
-213.0000000000002
 31
0.0
  0
INSERT
  5
31A8
  8
SIZE
  6
CONTINUOUS
 62
     0
  2
_DOTBLANK
 10
974.91210063414906
 20
-185.0000000000002
 30
0.0
 41
10.0
 42
10.0
 43
10.0
 50
270.0
  0
INSERT
  5
31A9
  8
SIZE
  6
CONTINUOUS
 62
     0
  2
_ORIGIN
 10
974.91210063414906
 20
-213.0000000000002
 30
0.0
 41
10.0
 42
10.0
 43
10.0
 50
90.0
  0
POINT
  5
31AA
  8
DEFPOINTS
  6
CONTINUOUS
 62
     0
 10
319.99999999999972
 20
-185.0
 30
0.0
  0
POINT
  5
31AB
  8
DEFPOINTS
  6
CONTINUOUS
 62
     0
 10
316.0
 20
-213.0
 30
0.0
  0
POINT
  5
31AC
  8
DEFPOINTS
  6
CONTINUOUS
 62
     0
 10
974.91210063414906
 20
-213.0000000000002
 30
0.0
  0
ENDBLK
  5
31A1
  8
0
  0
BLOCK
  8
0
  2
*D124
 70
     1
 10
0.0
 20
0.0
 30
0.0
  3
*D124
  1

  0
LINE
  5
31BB
  8
SIZE
  6
CONTINUOUS
 62
     0
 10
495.0
 20
-165.0
 30
0.0
 11
668.36059604430966
 21
-165.0
 31
0.0
  0
LINE
  5
31BC
  8
SIZE
  6
CONTINUOUS
 62
     0
 10
406.99999999999972
 20
-120.0
 30
0.0
 11
668.36059604430966
 21
-120.0
 31
0.0
  0
LINE
  5
31BD
  8
SIZE
  6
CONTINUOUS
 62
     0
 10
638.36059604430966
 20
-175.0
 30
0.0
 11
638.36059604430966
 21
-185.0
 31
0.0
  0
LINE
  5
31BE
  8
SIZE
  6
CONTINUOUS
 62
     0
 10
638.36059604430966
 20
-110.0
 30
0.0
 11
638.36059604430966
 21
-100.0
 31
0.0
  0
TEXT
  5
31BF
  8
SERVICESPACE
  6
CONTINUOUS
 62
     0
 10
633.63988633385088
 20
-86.567705796313078
 30
0.0
 40
64.0
  1
45
 50
90.0
 41
0.9
  0
LINE
  5
31C0
  8
SIZE
  6
CONTINUOUS
 62
     0
 10
638.36059604430966
 20
-165.0
 30
0.0
 11
638.36059604430966
 21
-120.0
 31
0.0
  0
INSERT
  5
31C1
  8
SIZE
  6
CONTINUOUS
 62
     0
  2
_DOTBLANK
 10
638.36059604430966
 20
-165.0
 30
0.0
 41
10.0
 42
10.0
 43
10.0
 50
90.0
  0
INSERT
  5
31C2
  8
SIZE
  6
CONTINUOUS
 62
     0
  2
_ORIGIN
 10
638.36059604430966
 20
-120.0
 30
0.0
 41
10.0
 42
10.0
 43
10.0
 50
270.0
  0
POINT
  5
31C3
  8
DEFPOINTS
  6
CONTINUOUS
 62
     0
 10
475.0
 20
-165.0
 30
0.0
  0
POINT
  5
31C4
  8
DEFPOINTS
  6
CONTINUOUS
 62
     0
 10
386.99999999999972
 20
-120.0
 30
0.0
  0
POINT
  5
31C5
  8
DEFPOINTS
  6
CONTINUOUS
 62
     0
 10
638.36059604430966
 20
-120.0
 30
0.0
  0
ENDBLK
  5
31BA
  8
0
  0
BLOCK
  8
0
  2
*D125
 70
     1
 10
0.0
 20
0.0
 30
0.0
  3
*D125
  1

  0
LINE
  5
31D4
  8
SIZE
  6
CONTINUOUS
 62
     0
 10
495.0
 20
-165.0
 30
0.0
 11
810.02613921786622
 21
-165.0
 31
0.0
  0
LINE
  5
31D5
  8
SIZE
  6
CONTINUOUS
 62
     0
 10
466.99999999999977
 20
-112.0
 30
0.0
 11
810.02613921786622
 21
-112.0000000000001
 31
0.0
  0
LINE
  5
31D6
  8
SIZE
  6
CONTINUOUS
 62
     0
 10
780.02613921786622
 20
-175.0
 30
0.0
 11
780.02613921786622
 21
-185.00000000000011
 31
0.0
  0
LINE
  5
31D7
  8
SIZE
  6
CONTINUOUS
 62
     0
 10
780.02613921786622
 20
-102.0
 30
0.0
 11
780.02613921786622
 21
-92.000000000000085
 31
0.0
  0
TEXT
  5
31D8
  8
SERVICESPACE
  6
CONTINUOUS
 62
     0
 10
768.19613593985741
 20
-92.873435650881277
 30
0.0
 40
64.0
  1
53
 50
90.0
 41
0.9
  0
LINE
  5
31D9
  8
SIZE
  6
CONTINUOUS
 62
     0
 10
780.02613921786622
 20
-165.0
 30
0.0
 11
780.02613921786622
 21
-112.0
 31
0.0
  0
INSERT
  5
31DA
  8
SIZE
  6
CONTINUOUS
 62
     0
  2
_DOTBLANK
 10
780.02613921786622
 20
-165.0
 30
0.0
 41
10.0
 42
10.0
 43
10.0
 50
90.0
  0
INSERT
  5
31DB
  8
SIZE
  6
CONTINUOUS
 62
     0
  2
_ORIGIN
 10
780.02613921786622
 20
-112.0
 30
0.0
 41
10.0
 42
10.0
 43
10.0
 50
270.0
  0
POINT
  5
31DC
  8
DEFPOINTS
  6
CONTINUOUS
 62
     0
 10
475.0
 20
-165.0
 30
0.0
  0
POINT
  5
31DD
  8
DEFPOINTS
  6
CONTINUOUS
 62
     0
 10
446.99999999999972
 20
-112.0
 30
0.0
  0
POINT
  5
31DE
  8
DEFPOINTS
  6
CONTINUOUS
 62
     0
 10
780.02613921786622
 20
-112.0
 30
0.0
  0
ENDBLK
  5
31D3
  8
0
  0
BLOCK
  8
0
  2
*D126
 70
     1
 10
0.0
 20
0.0
 30
0.0
  3
*D126
  1

  0
LINE
  5
31EC
  8
SIZE
  6
CONTINUOUS
 62
     0
 10
335.99999999999972
 20
-213.0
 30
0.0
 11
1218.79926485939
 21
-213.00000000000031
 31
0.0
  0
LINE
  5
31ED
  8
SIZE
  6
CONTINUOUS
 62
     0
 10
335.99999999999972
 20
203.99999999999989
 30
0.0
 11
1218.79926485939
 21
203.99999999999969
 31
0.0
  0
LINE
  5
31EE
  8
SIZE
  6
CONTINUOUS
 62
     0
 10
1188.79926485939
 20
-203.0000000000002
 30
0.0
 11
1188.79926485939
 21
193.99999999999969
 31
0.0
  0
TEXT
  5
31EF
  8
SERVICESPACE
  6
CONTINUOUS
 62
     0
 10
1163.4551311419959
 20
-51.759004296448552
 30
0.0
 40
64.0
  1
417
 50
90.0
 41
0.9
  0
INSERT
  5
31F0
  8
SIZE
  6
CONTINUOUS
 62
     0
  2
_DOTBLANK
 10
1188.79926485939
 20
-213.0000000000002
 30
0.0
 41
10.0
 42
10.0
 43
10.0
 50
270.0
  0
INSERT
  5
31F1
  8
SIZE
  6
CONTINUOUS
 62
     0
  2
_ORIGIN
 10
1188.79926485939
 20
203.99999999999969
 30
0.0
 41
10.0
 42
10.0
 43
10.0
 50
90.0
  0
POINT
  5
31F2
  8
DEFPOINTS
  6
CONTINUOUS
 62
     0
 10
315.99999999999972
 20
-213.0
 30
0.0
  0
POINT
  5
31F3
  8
DEFPOINTS
  6
CONTINUOUS
 62
     0
 10
315.99999999999972
 20
204.0
 30
0.0
  0
POINT
  5
31F4
  8
DEFPOINTS
  6
CONTINUOUS
 62
     0
 10
1188.79926485939
 20
203.99999999999969
 30
0.0
  0
ENDBLK
  5
31EB
  8
0
  0
BLOCK
  8
0
  2
*D127
 70
     1
 10
0.0
 20
0.0
 30
0.0
  3
*D127
  1

  0
LINE
  5
3202
  8
SIZE
  6
CONTINUOUS
 62
     0
 10
339.99999999999972
 20
-185.0
 30
0.0
 11
1004.9121006341491
 21
-185.0000000000002
 31
0.0
  0
LINE
  5
3203
  8
SIZE
  6
CONTINUOUS
 62
     0
 10
339.99999999999972
 20
184.99999999999989
 30
0.0
 11
1004.9121006341491
 21
184.9999999999998
 31
0.0
  0
LINE
  5
3204
  8
SIZE
  6
CONTINUOUS
 62
     0
 10
974.91210063414906
 20
-175.00000000000011
 30
0.0
 11
974.91210063414906
 21
174.9999999999998
 31
0.0
  0
TEXT
  5
3205
  8
SERVICESPACE
  6
CONTINUOUS
 62
     0
 10
951.10853914621293
 20
-74.059994844880663
 30
0.0
 40
64.0
  1
370
 50
90.0
 41
0.9
  0
INSERT
  5
3206
  8
SIZE
  6
CONTINUOUS
 62
     0
  2
_DOTBLANK
 10
974.91210063414906
 20
-185.0000000000002
 30
0.0
 41
10.0
 42
10.0
 43
10.0
 50
270.0
  0
INSERT
  5
3207
  8
SIZE
  6
CONTINUOUS
 62
     0
  2
_ORIGIN
 10
974.91210063414906
 20
184.9999999999998
 30
0.0
 41
10.0
 42
10.0
 43
10.0
 50
90.0
  0
POINT
  5
3208
  8
DEFPOINTS
  6
CONTINUOUS
 62
     0
 10
319.99999999999972
 20
-185.0
 30
0.0
  0
POINT
  5
3209
  8
DEFPOINTS
  6
CONTINUOUS
 62
     0
 10
319.99999999999972
 20
185.0
 30
0.0
  0
POINT
  5
320A
  8
DEFPOINTS
  6
CONTINUOUS
 62
     0
 10
974.91210063414906
 20
184.9999999999998
 30
0.0
  0
ENDBLK
  5
3201
  8
0
  0
BLOCK
  8
0
  2
*D128
 70
     1
 10
0.0
 20
0.0
 30
0.0
  3
*D128
  1

  0
LINE
  5
3219
  8
SIZE
  6
CONTINUOUS
 62
     0
 10
475.0
 20
-185.0
 30
0.0
 11
475.0
 21
-442.88573326981691
 31
0.0
  0
LINE
  5
321A
  8
SIZE
  6
CONTINUOUS
 62
     0
 10
426.99999999999972
 20
-152.0
 30
0.0
 11
426.99999999999972
 21
-442.88573326981691
 31
0.0
  0
LINE
  5
321B
  8
SIZE
  6
CONTINUOUS
 62
     0
 10
485.0
 20
-412.88573326981691
 30
0.0
 11
495.0
 21
-412.88573326981691
 31
0.0
  0
LINE
  5
321C
  8
SIZE
  6
CONTINUOUS
 62
     0
 10
416.99999999999977
 20
-412.88573326981691
 30
0.0
 11
406.99999999999972
 21
-412.88573326981691
 31
0.0
  0
TEXT
  5
321D
  8
SERVICESPACE
  6
CONTINUOUS
 62
     0
 10
506.365705383896
 20
-404.17519011499462
 30
0.0
 40
64.0
  1
48
 41
0.9
  0
LINE
  5
321E
  8
SIZE
  6
CONTINUOUS
 62
     0
 10
475.0
 20
-412.88573326981691
 30
0.0
 11
426.99999999999972
 21
-412.88573326981691
 31
0.0
  0
INSERT
  5
321F
  8
SIZE
  6
CONTINUOUS
 62
     0
  2
_DOTBLANK
 10
475.0
 20
-412.88573326981691
 30
0.0
 41
10.0
 42
10.0
 43
10.0
 50
180.0
  0
INSERT
  5
3220
  8
SIZE
  6
CONTINUOUS
 62
     0
  2
_ORIGIN
 10
426.99999999999972
 20
-412.88573326981691
 30
0.0
 41
10.0
 42
10.0
 43
10.0
  0
POINT
  5
3221
  8
DEFPOINTS
  6
CONTINUOUS
 62
     0
 10
475.0
 20
-165.0
 30
0.0
  0
POINT
  5
3222
  8
DEFPOINTS
  6
CONTINUOUS
 62
     0
 10
426.99999999999972
 20
-132.0
 30
0.0
  0
POINT
  5
3223
  8
DEFPOINTS
  6
CONTINUOUS
 62
     0
 10
426.99999999999972
 20
-412.88573326981691
 30
0.0
  0
ENDBLK
  5
3218
  8
0
  0
BLOCK
  8
0
  2
*D129
 70
     1
 10
0.0
 20
0.0
 30
0.0
  3
*D129
  1

  0
LINE
  5
3232
  8
SIZE
  6
CONTINUOUS
 62
     0
 10
426.99999999999972
 20
-152.0
 30
0.0
 11
426.99999999999972
 21
-442.88573326981691
 31
0.0
  0
LINE
  5
3233
  8
SIZE
  6
CONTINUOUS
 62
     0
 10
366.99999999999989
 20
-160.0
 30
0.0
 11
366.99999999999989
 21
-442.88573326981691
 31
0.0
  0
LINE
  5
3234
  8
SIZE
  6
CONTINUOUS
 62
     0
 10
436.99999999999972
 20
-412.88573326981691
 30
0.0
 11
446.99999999999972
 21
-412.88573326981691
 31
0.0
  0
LINE
  5
3235
  8
SIZE
  6
CONTINUOUS
 62
     0
 10
356.99999999999989
 20
-412.88573326981691
 30
0.0
 11
346.99999999999989
 21
-412.88573326981691
 31
0.0
  0
TEXT
  5
3236
  8
SERVICESPACE
  6
CONTINUOUS
 62
     0
 10
260.38006057420711
 20
-404.17519011499462
 30
0.0
 40
64.0
  1
60
 41
0.9
  0
LINE
  5
3237
  8
SIZE
  6
CONTINUOUS
 62
     0
 10
426.99999999999972
 20
-412.88573326981691
 30
0.0
 11
366.99999999999989
 21
-412.88573326981691
 31
0.0
  0
INSERT
  5
3238
  8
SIZE
  6
CONTINUOUS
 62
     0
  2
_DOTBLANK
 10
426.99999999999972
 20
-412.88573326981691
 30
0.0
 41
10.0
 42
10.0
 43
10.0
 50
180.0
  0
INSERT
  5
3239
  8
SIZE
  6
CONTINUOUS
 62
     0
  2
_ORIGIN
 10
366.99999999999989
 20
-412.88573326981691
 30
0.0
 41
10.0
 42
10.0
 43
10.0
  0
POINT
  5
323A
  8
DEFPOINTS
  6
CONTINUOUS
 62
     0
 10
426.99999999999972
 20
-132.0
 30
0.0
  0
POINT
  5
323B
  8
DEFPOINTS
  6
CONTINUOUS
 62
     0
 10
366.99999999999989
 20
-140.0
 30
0.0
  0
POINT
  5
323C
  8
DEFPOINTS
  6
CONTINUOUS
 62
     0
 10
366.99999999999989
 20
-412.88573326981691
 30
0.0
  0
ENDBLK
  5
3231
  8
0
  0
ENDSEC
  0
SECTION
  2
ENTITIES
  0
TEXT
  5
3077
  8
ETC
  6
CONTINUOUS
 10
1422.932073001082
 20
809.8078548055779
 30
0.0
 40
64.0
  1
SMPU2721
 41
0.9
  0
POINT
  5
3078
  8
ARRANGE
  6
CONTINUOUS
 10
0.0
 20
0.0
 30
0.0
  0
LINE
  5
3079
  8
NOTE
  6
CONTINUOUS
 10
694.22278403864152
 20
380.41207164807992
 30
0.0
 11
1128.3492061492971
 21
380.41207164808009
 31
0.0
  0
LINE
  5
307A
  8
NOTE
  6
CONTINUOUS
 10
1070.117609824031
 20
518.41084735206209
 30
0.0
 11
707.75060376870101
 21
518.41084735206209
 31
0.0
  0
TEXT
  5
307B
  8
NOTE
  6
CONTINUOUS
 10
729.83512477177408
 20
400.69342764808022
 30
0.0
 40
64.0
  1
RG%%C15.88
 41
0.9
  0
TEXT
  5
307C
  8
NOTE
  6
CONTINUOUS
 10
731.48768408633953
 20
538.12749460089105
 30
0.0
 40
64.0
  1
RL%%C9.52
 41
0.9
  0
LINE
  5
307D
  8
NOTE
  6
CONTINOUS
 10
-300.0
 20
205.0
 30
0.0
 11
-300.0
 21
165.0
 31
0.0
  0
LINE
  5
307E
  8
NOTE
  6
CONTINOUS
 10
-280.0
 20
185.0
 30
0.0
 11
-319.99999999999977
 21
185.0
 31
0.0
  0
LINE
  5
307F
  8
NOTE
  6
CONTINOUS
 10
319.99999999999972
 20
-185.0
 30
0.0
 11
279.99999999999972
 21
-185.0
 31
0.0
  0
LINE
  5
3080
  8
NOTE
  6
CONTINOUS
 10
299.99999999999989
 20
-165.0
 30
0.0
 11
299.99999999999989
 21
-205.0
 31
0.0
  0
LINE
  5
3081
  8
NOTE
  6
CONTINOUS
 10
-300.0
 20
-165.0
 30
0.0
 11
-300.0
 21
-205.0
 31
0.0
  0
LINE
  5
3082
  8
NOTE
  6
CONTINOUS
 10
-280.0
 20
-185.0
 30
0.0
 11
-319.99999999999977
 21
-185.0
 31
0.0
  0
LINE
  5
3083
  8
NOTE
  6
CONTINOUS
 10
386.99999999999972
 20
-120.0
 30
0.0
 11
346.99999999999972
 21
-120.0
 31
0.0
  0
LINE
  5
3084
  8
NOTE
  6
CONTINOUS
 10
366.99999999999989
 20
-140.0
 30
0.0
 11
366.99999999999989
 21
-100.0
 31
0.0
  0
LINE
  5
3085
  8
NOTE
  6
CONTINOUS
 10
426.99999999999972
 20
-132.0
 30
0.0
 11
426.99999999999972
 21
-92.0
 31
0.0
  0
LINE
  5
3086
  8
NOTE
  6
CONTINOUS
 10
446.99999999999972
 20
-112.0
 30
0.0
 11
406.99999999999972
 21
-112.0
 31
0.0
  0
LINE
  5
3087
  8
NOTE
  6
CONTINOUS
 10
294.99999999999972
 20
-165.0
 30
0.0
 11
254.9999999999998
 21
-165.0
 31
0.0
  0
LINE
  5
3088
  8
NOTE
  6
CONTINOUS
 10
274.99999999999972
 20
-185.0
 30
0.0
 11
274.99999999999972
 21
-145.0
 31
0.0
  0
LINE
  5
3089
  8
BASIS
  6
DASHDOT
 10
518.91887149999991
 20
0.0
 30
0.0
 11
-518.9188714999998
 21
0.0
 31
0.0
  0
LINE
  5
308A
  8
BASIS
  6
DASHDOT
 10
-152.9999999999998
 20
-252.86561949999989
 30
0.0
 11
-152.9999999999998
 21
-117.13438050000001
 31
0.0
  0
LINE
  5
308B
  8
DETAIL
  6
CONTINOUS
 10
475.0
 20
-165.0
 30
0.0
 11
475.0
 21
165.0
 31
0.0
  0
LINE
  5
308C
  8
DETAIL
  6
CONTINOUS
 10
-474.99999999999972
 20
165.0
 30
0.0
 11
-474.99999999999972
 21
-165.0
 31
0.0
  0
LINE
  5
308D
  8
DETAIL
  6
CONTINOUS
 10
-284.0
 20
204.0
 30
0.0
 11
-284.0
 21
165.0
 31
0.0
  0
LINE
  5
308E
  8
DETAIL
  6
CONTINOUS
 10
-316.0
 20
204.0
 30
0.0
 11
-316.0
 21
165.0
 31
0.0
  0
LINE
  5
308F
  8
DETAIL
  6
CONTINOUS
 10
315.99999999999972
 20
-165.0
 30
0.0
 11
316.0
 21
-213.0
 31
0.0
  0
LINE
  5
3090
  8
DETAIL
  6
CONTINOUS
 10
283.99999999999972
 20
-165.0
 30
0.0
 11
283.99999999999972
 21
-213.0
 31
0.0
  0
LINE
  5
3091
  8
DETAIL
  6
CONTINOUS
 10
-284.0
 20
-195.0
 30
0.0
 11
-284.0
 21
-213.0
 31
0.0
  0
LINE
  5
3092
  8
DETAIL
  6
CONTINOUS
 10
-316.0
 20
-195.0
 30
0.0
 11
-316.0
 21
-213.0
 31
0.0
  0
LINE
  5
3093
  8
DETAIL
  6
CONTINOUS
 10
315.99999999999972
 20
-213.0
 30
0.0
 11
283.99999999999972
 21
-213.0
 31
0.0
  0
LINE
  5
3094
  8
DETAIL
  6
CONTINOUS
 10
475.0
 20
165.0
 30
0.0
 11
-474.99999999999972
 21
165.0
 31
0.0
  0
LINE
  5
3095
  8
DETAIL
  6
CONTINOUS
 10
475.0
 20
-165.0
 30
0.0
 11
-474.99999999999972
 21
-165.0
 31
0.0
  0
LINE
  5
3096
  8
DETAIL
  6
CONTINOUS
 10
-284.0
 20
204.0
 30
0.0
 11
-294.0
 21
204.0
 31
0.0
  0
LINE
  5
3097
  8
DETAIL
  6
CONTINOUS
 10
-284.0
 20
-213.0
 30
0.0
 11
-316.0
 21
-213.0
 31
0.0
  0
TEXT
  5
3098
  8
ETC
  6
CONTINUOUS
 10
1434.7548170010839
 20
690.64125380557789
 30
0.0
 40
64.0
  1
室外機
 41
0.9
  0
CIRCLE
  5
3099
  8
ARRANGE
  6
CONTINUOUS
 10
0.0
 20
0.0
 30
0.0
 40
40.0
  0
CIRCLE
  5
309A
  8
FIX
  6
CONTINUOUS
 10
-300.0
 20
-184.9999999999998
 30
0.0
 40
40.0
  0
CIRCLE
  5
309B
  8
FIX
  6
CONTINUOUS
 10
299.99999999999989
 20
-185.0
 30
0.0
 40
40.0
  0
CIRCLE
  5
309C
  8
FIX
  6
CONTINUOUS
 10
-300.0
 20
185.0
 30
0.0
 40
40.0
  0
LINE
  5
309D
  8
NOTE
  6
CONTINOUS
 10
299.99999999999989
 20
-172.0
 30
0.0
 11
299.99999999999989
 21
-172.0
 31
0.0
  0
LINE
  5
309E
  8
DETAIL
  6
CONTINOUS
 62
     5
 10
305.99999999999972
 20
-173.0
 30
0.0
 11
305.99999999999972
 21
-197.0
 31
0.0
  0
LINE
  5
309F
  8
DETAIL
  6
CONTINOUS
 62
     5
 10
293.99999999999989
 20
-173.0
 30
0.0
 11
293.99999999999989
 21
-197.0
 31
0.0
  0
ARC
  5
30A0
  8
DETAIL
  6
CONTINOUS
 62
     5
 10
299.99999999999989
 20
-173.0
 30
0.0
 40
6.0
 50
0.0
 51
90.0
  0
ARC
  5
30A1
  8
DETAIL
  6
CONTINOUS
 62
     5
 10
299.99999999999989
 20
-197.0
 30
0.0
 40
6.0
 50
270.0
 51
0.0
  0
ARC
  5
30A2
  8
DETAIL
  6
CONTINOUS
 62
     5
 10
299.99999999999989
 20
-197.0
 30
0.0
 40
6.0
 50
180.0
 51
270.0
  0
ARC
  5
30A3
  8
DETAIL
  6
CONTINOUS
 62
     5
 10
299.99999999999989
 20
-173.0
 30
0.0
 40
6.0
 50
90.0
 51
180.0
  0
LINE
  5
30A4
  8
DETAIL
  6
CONTINOUS
 62
     5
 10
-293.99999999999972
 20
204.0
 30
0.0
 11
-294.0
 21
183.0
 31
0.0
  0
LINE
  5
30A5
  8
DETAIL
  6
CONTINOUS
 62
     5
 10
-306.0
 20
204.0
 30
0.0
 11
-306.0
 21
183.0
 31
0.0
  0
LINE
  5
30A6
  8
DETAIL
  6
CONTINOUS
 10
-306.0
 20
204.0
 30
0.0
 11
-316.0
 21
204.0
 31
0.0
  0
TEXT
  5
30A7
  8
NOTE
  6
CONTINUOUS
 10
-1119.055049453287
 20
506.8824676109723
 30
0.0
 40
64.0
  1
AH 2-U cut
 41
0.9
  0
LINE
  5
30A8
  8
NOTE
  6
CONTINUOUS
 10
-1146.7611194532881
 20
496.29476961097191
 30
0.0
 11
-588.96394481796153
 21
496.29476961097191
 31
0.0
  0
CIRCLE
  5
30A9
  8
DETAIL
  6
CONTINUOUS
 10
366.99999999999989
 20
-120.0
 30
0.0
 40
4.759999999999998
  0
CIRCLE
  5
30AA
  8
DETAIL
  6
CONTINUOUS
 10
426.99999999999972
 20
-112.0
 30
0.0
 40
7.9400000000000004
  0
LINE
  5
30AB
  8
BASIS
  6
DASHDOT
 10
0.0
 20
224.90043118199981
 30
0.0
 11
0.0
 21
-224.90043118199981
 31
0.0
  0
LINE
  5
30AC
  8
DETAIL
  6
CONTINOUS
 10
136.00000000015291
 20
-195.0
 30
0.0
 11
-441.99999999984709
 21
-195.0
 31
0.0
  0
LINE
  5
30AD
  8
DETAIL
  6
CONTINOUS
 10
-441.99999999984709
 20
-165.0
 30
0.0
 11
-441.99999999984709
 21
-195.0
 31
0.0
  0
LINE
  5
30AE
  8
DETAIL
  6
CONTINOUS
 10
136.00000000015311
 20
-165.0
 30
0.0
 11
136.00000000015291
 21
-195.0
 31
0.0
  0
DIMENSION
  5
30AF
  8
SIZE
  6
CONTINUOUS
  2
*D102
 10
-617.76083576584165
 20
165.0
 30
0.0
 11
-669.76083576584188
 21
-0.0000000000000695
 31
0.0
 13
-474.99999999999972
 23
-165.0
 33
0.0
 14
-474.99999999999972
 24
165.0
 34
0.0
 50
90.0
1001
ACAD
1000
DSTYLE
1002
{
1070
   287
1070
     5
1070
    41
1040
10.0
1070
    42
1040
20.0
1070
    43
1040
200.0
1070
    44
1040
30.0
1070
    73
1070
     0
1070
    74
1070
     0
1070
    77
1070
     1
1070
    78
1070
     8
1070
   140
1040
64.0
1070
   147
1040
20.0
1070
   172
1070
     1
1070
   173
1070
     1
1070
   174
1070
     1
1070
   271
1070
     0
1070
   272
1070
     0
1070
   279
1070
     2
1070
   341
1005
719
1070
     6
1000
DOTBLANK
1070
     7
1000
ORIGIN
1002
}
  0
DIMENSION
  5
30B0
  8
SIZE
  6
CONTINUOUS
  2
*D103
 10
-617.76083576584165
 20
-194.9999999999998
 30
0.0
 11
-709.76083576584165
 21
-180.0
 31
0.0
 13
-474.99999999999972
 23
-165.0
 33
0.0
 14
-441.99999999984709
 24
-195.0
 34
0.0
 50
90.0
1001
ACAD
1000
DSTYLE
1002
{
1070
   287
1070
     0
1070
    41
1040
10.0
1070
    42
1040
20.0
1070
    43
1040
200.0
1070
    44
1040
30.0
1070
    73
1070
     0
1070
    74
1070
     0
1070
    77
1070
     1
1070
    78
1070
     8
1070
   140
1040
64.0
1070
   147
1040
20.0
1070
   172
1070
     1
1070
   173
1070
     1
1070
   271
1070
     0
1070
   272
1070
     0
1070
   289
1070
     0
1070
   341
1005
719
1070
     6
1000
DOTBLANK
1070
     7
1000
ORIGIN
1002
}
  0
DIMENSION
  5
30B1
  8
SIZE
  6
CONTINUOUS
  2
*D121
 10
-300.0
 20
407.98130346314792
 30
0.0
 11
-386.81461567703798
 21
462.69090826147828
 31
0.0
 70
   128
 13
-474.99999999999972
 23
165.0
 33
0.0
 14
-300.0
 24
200.0
 34
0.0
1001
ACAD
1000
DSTYLE
1002
{
1070
   287
1070
     0
1070
    41
1040
10.0
1070
    42
1040
20.0
1070
    43
1040
200.0
1070
    44
1040
30.0
1070
    73
1070
     0
1070
    74
1070
     0
1070
    77
1070
     1
1070
    78
1070
     8
1070
   140
1040
64.0
1070
   147
1040
20.0
1070
   172
1070
     1
1070
   173
1070
     1
1070
   271
1070
     0
1070
   272
1070
     0
1070
   289
1070
     0
1070
   341
1005
719
1070
     6
1000
DOTBLANK
1070
     7
1000
ORIGIN
1002
}
  0
DIMENSION
  5
30B2
  8
SIZE
  6
CONTINUOUS
  2
*D119
 10
299.99999999999989
 20
407.98130346314792
 30
0.0
 11
0.0346003422964714
 21
464.792821562467
 31
0.0
 70
   128
 13
-300.0
 23
200.0
 33
0.0
 14
299.99999999999989
 24
200.0
 34
0.0
1001
ACAD
1000
DSTYLE
1002
{
1070
   287
1070
     0
1070
    41
1040
10.0
1070
    42
1040
20.0
1070
    43
1040
200.0
1070
    44
1040
30.0
1070
    73
1070
     0
1070
    74
1070
     0
1070
    77
1070
     1
1070
    78
1070
     8
1070
   140
1040
64.0
1070
   147
1040
20.0
1070
   172
1070
     1
1070
   173
1070
     1
1070
   271
1070
     0
1070
   272
1070
     0
1070
   289
1070
     0
1070
   341
1005
719
1070
     6
1000
DOTBLANK
1070
     7
1000
ORIGIN
1002
}
  0
DIMENSION
  5
30B3
  8
SIZE
  6
CONTINUOUS
  2
*D120
 10
475.0
 20
407.98130346314792
 30
0.0
 11
382.67893955369073
 21
456.38517840691009
 31
0.0
 70
   128
 13
299.99999999999989
 23
200.0
 33
0.0
 14
475.0
 24
165.0
 34
0.0
1001
ACAD
1000
DSTYLE
1002
{
1070
   287
1070
     0
1070
    41
1040
10.0
1070
    42
1040
20.0
1070
    43
1040
200.0
1070
    44
1040
30.0
1070
    73
1070
     0
1070
    74
1070
     0
1070
    77
1070
     1
1070
    78
1070
     8
1070
   140
1040
64.0
1070
   147
1040
20.0
1070
   172
1070
     1
1070
   173
1070
     1
1070
   271
1070
     0
1070
   272
1070
     0
1070
   289
1070
     0
1070
   341
1005
719
1070
     6
1000
DOTBLANK
1070
     7
1000
ORIGIN
1002
}
  0
DIMENSION
  5
30B4
  8
SIZE
  6
CONTINUOUS
  2
*D118
 10
475.0
 20
577.67217662139205
 30
0.0
 11
-9.0477551057301753
 21
631.33965968551092
 31
0.0
 70
   128
 13
-474.99999999999972
 23
165.0
 33
0.0
 14
475.0
 24
165.0
 34
0.0
1001
ACAD
1000
DSTYLE
1002
{
1070
   287
1070
     0
1070
    41
1040
10.0
1070
    42
1040
20.0
1070
    43
1040
200.0
1070
    44
1040
30.0
1070
    73
1070
     0
1070
    74
1070
     0
1070
    77
1070
     1
1070
    78
1070
     8
1070
   140
1040
64.0
1070
   147
1040
20.0
1070
   172
1070
     1
1070
   173
1070
     1
1070
   271
1070
     0
1070
   272
1070
     0
1070
   289
1070
     0
1070
   341
1005
719
1070
     6
1000
DOTBLANK
1070
     7
1000
ORIGIN
1002
}
  0
ARC
  5
30B5
  8
DETAIL
  6
CONTINUOUS
 10
-300.0
 20
183.0
 30
0.0
 40
6.0
 50
180.0
 51
0.0
  0
CIRCLE
  5
30B6
  8
FIX
  6
CONTINUOUS
 10
299.99999999999989
 20
185.0
 30
0.0
 40
40.0
  0
LINE
  5
30B7
  8
NOTE
  6
CONTINOUS
 10
279.99999999999972
 20
185.0
 30
0.0
 11
319.99999999999972
 21
185.0
 31
0.0
  0
ARC
  5
30B8
  8
DETAIL
  6
CONTINUOUS
 10
299.99999999999989
 20
183.0
 30
0.0
 40
6.0
 50
180.0
 51
0.000000000000007
  0
LINE
  5
30B9
  8
DETAIL
  6
CONTINOUS
 62
     5
 10
305.99999999999972
 20
204.0
 30
0.0
 11
305.99999999999972
 21
183.0
 31
0.0
  0
LINE
  5
30BA
  8
DETAIL
  6
CONTINOUS
 62
     5
 10
293.99999999999989
 20
204.0
 30
0.0
 11
293.99999999999989
 21
183.0
 31
0.0
  0
LINE
  5
30BB
  8
NOTE
  6
CONTINOUS
 10
299.99999999999989
 20
205.0
 30
0.0
 11
299.99999999999989
 21
165.0
 31
0.0
  0
LINE
  5
30BC
  8
DETAIL
  6
CONTINOUS
 10
305.99999999999972
 20
204.0
 30
0.0
 11
315.99999999999972
 21
204.0
 31
0.0
  0
LINE
  5
30BD
  8
DETAIL
  6
CONTINOUS
 10
283.99999999999972
 20
204.0
 30
0.0
 11
293.99999999999989
 21
204.0
 31
0.0
  0
LINE
  5
30BE
  8
DETAIL
  6
CONTINOUS
 10
315.99999999999972
 20
204.0
 30
0.0
 11
315.99999999999972
 21
165.0
 31
0.0
  0
LINE
  5
30BF
  8
DETAIL
  6
CONTINOUS
 10
283.99999999999972
 20
204.0
 30
0.0
 11
283.99999999999972
 21
165.0
 31
0.0
  0
DIMENSION
  5
30C0
  8
SIZE
  6
CONTINUOUS
  2
*D127
 10
974.91210063414906
 20
184.9999999999998
 30
0.0
 11
919.10853914621293
 21
-0.002851987737813
 31
0.0
 70
   128
 13
319.99999999999972
 23
-185.0
 33
0.0
 14
319.99999999999972
 24
185.0
 34
0.0
 50
90.0
1001
ACAD
1000
DSTYLE
1002
{
1070
   287
1070
     0
1070
    41
1040
10.0
1070
    42
1040
20.0
1070
    43
1040
200.0
1070
    44
1040
30.0
1070
    73
1070
     0
1070
    74
1070
     0
1070
    77
1070
     1
1070
    78
1070
     8
1070
   140
1040
64.0
1070
   147
1040
20.0
1070
   172
1070
     1
1070
   173
1070
     1
1070
   271
1070
     0
1070
   272
1070
     0
1070
   289
1070
     0
1070
   341
1005
719
1070
     6
1000
DOTBLANK
1070
     7
1000
ORIGIN
1002
}
  0
DIMENSION
  5
30C1
  8
SIZE
  6
CONTINUOUS
  2
*D123
 10
974.91210063414906
 20
-213.0000000000002
 30
0.0
 11
912.80121754257198
 21
-290.06639515271121
 31
0.0
 70
   128
 13
319.99999999999972
 23
-185.0
 33
0.0
 14
316.0
 24
-213.0
 34
0.0
 50
90.0
1001
ACAD
1000
DSTYLE
1002
{
1070
   287
1070
     0
1070
    41
1040
10.0
1070
    42
1040
20.0
1070
    43
1040
200.0
1070
    44
1040
30.0
1070
    73
1070
     0
1070
    74
1070
     0
1070
    77
1070
     1
1070
    78
1070
     8
1070
   140
1040
64.0
1070
   147
1040
20.0
1070
   172
1070
     1
1070
   173
1070
     1
1070
   271
1070
     0
1070
   272
1070
     0
1070
   289
1070
     0
1070
   341
1005
719
1070
     6
1000
DOTBLANK
1070
     7
1000
ORIGIN
1002
}
  0
DIMENSION
  5
30C2
  8
SIZE
  6
CONTINUOUS
  2
*D122
 10
974.91210063414906
 20
203.9999999999998
 30
0.0
 11
912.80121754257198
 21
250.12440879723181
 31
0.0
 70
   128
 13
319.99999999999972
 23
185.0
 33
0.0
 14
315.99999999999972
 24
204.0
 34
0.0
 50
90.0
1001
ACAD
1000
DSTYLE
1002
{
1070
   287
1070
     0
1070
    41
1040
10.0
1070
    42
1040
20.0
1070
    43
1040
200.0
1070
    44
1040
30.0
1070
    73
1070
     0
1070
    74
1070
     0
1070
    77
1070
     1
1070
    78
1070
     8
1070
   140
1040
64.0
1070
   147
1040
20.0
1070
   172
1070
     1
1070
   173
1070
     1
1070
   271
1070
     0
1070
   272
1070
     0
1070
   289
1070
     0
1070
   341
1005
719
1070
     6
1000
DOTBLANK
1070
     7
1000
ORIGIN
1002
}
  0
DIMENSION
  5
30C3
  8
SIZE
  6
CONTINUOUS
  2
*D126
 10
1188.79926485939
 20
203.99999999999969
 30
0.0
 11
1131.4551311419959
 21
16.81242427498
 31
0.0
 70
   128
 13
315.99999999999972
 23
-213.0
 33
0.0
 14
315.99999999999972
 24
204.0
 34
0.0
 50
90.0
1001
ACAD
1000
DSTYLE
1002
{
1070
   287
1070
     0
1070
    41
1040
10.0
1070
    42
1040
20.0
1070
    43
1040
200.0
1070
    44
1040
30.0
1070
    73
1070
     0
1070
    74
1070
     0
1070
    77
1070
     1
1070
    78
1070
     8
1070
   140
1040
64.0
1070
   147
1040
20.0
1070
   172
1070
     1
1070
   173
1070
     1
1070
   271
1070
     0
1070
   272
1070
     0
1070
   289
1070
     0
1070
   341
1005
719
1070
     6
1000
DOTBLANK
1070
     7
1000
ORIGIN
1002
}
  0
DIMENSION
  5
30C4
  8
SIZE
  6
CONTINUOUS
  2
*D124
 10
638.36059604430966
 20
-120.0
 30
0.0
 11
601.63988633385077
 21
-39.939134367741637
 31
0.0
 70
   128
 13
475.0
 23
-165.0
 33
0.0
 14
386.99999999999972
 24
-120.0
 34
0.0
 50
90.0
1001
ACAD
1000
DSTYLE
1002
{
1070
   287
1070
     0
1070
    41
1040
10.0
1070
    42
1040
20.0
1070
    43
1040
200.0
1070
    44
1040
30.0
1070
    73
1070
     0
1070
    74
1070
     0
1070
    77
1070
     1
1070
    78
1070
     8
1070
   140
1040
64.0
1070
   147
1040
20.0
1070
   172
1070
     1
1070
   173
1070
     1
1070
   271
1070
     0
1070
   272
1070
     0
1070
   289
1070
     0
1070
   341
1005
719
1070
     6
1000
DOTBLANK
1070
     7
1000
ORIGIN
1002
}
  0
DIMENSION
  5
30C5
  8
SIZE
  6
CONTINUOUS
  2
*D125
 10
780.02613921786622
 20
-112.0
 30
0.0
 11
736.1961359398573
 21
-46.244864222309843
 31
0.0
 70
   128
 13
475.0
 23
-165.0
 33
0.0
 14
446.99999999999972
 24
-112.0
 34
0.0
 50
90.0
1001
ACAD
1000
DSTYLE
1002
{
1070
   287
1070
     0
1070
    41
1040
10.0
1070
    42
1040
20.0
1070
    43
1040
200.0
1070
    44
1040
30.0
1070
    73
1070
     0
1070
    74
1070
     0
1070
    77
1070
     1
1070
    78
1070
     8
1070
   140
1040
64.0
1070
   147
1040
20.0
1070
   172
1070
     1
1070
   173
1070
     1
1070
   271
1070
     0
1070
   272
1070
     0
1070
   289
1070
     0
1070
   341
1005
719
1070
     6
1000
DOTBLANK
1070
     7
1000
ORIGIN
1002
}
  0
DIMENSION
  5
30C6
  8
SIZE
  6
CONTINUOUS
  2
*D128
 10
426.99999999999972
 20
-412.88573326981691
 30
0.0
 11
552.99427681246743
 21
-372.17519011499462
 31
0.0
 70
   128
 13
475.0
 23
-165.0
 33
0.0
 14
426.99999999999972
 24
-132.0
 34
0.0
1001
ACAD
1000
DSTYLE
1002
{
1070
   287
1070
     0
1070
    41
1040
10.0
1070
    42
1040
20.0
1070
    43
1040
200.0
1070
    44
1040
30.0
1070
    73
1070
     0
1070
    74
1070
     0
1070
    77
1070
     1
1070
    78
1070
     8
1070
   140
1040
64.0
1070
   147
1040
20.0
1070
   172
1070
     1
1070
   173
1070
     1
1070
   271
1070
     0
1070
   272
1070
     0
1070
   289
1070
     0
1070
   341
1005
719
1070
     6
1000
DOTBLANK
1070
     7
1000
ORIGIN
1002
}
  0
DIMENSION
  5
30C7
  8
SIZE
  6
CONTINUOUS
  2
*D129
 10
366.99999999999989
 20
-412.88573326981691
 30
0.0
 11
307.00863200277848
 21
-372.17519011499462
 31
0.0
 70
   128
 13
426.99999999999972
 23
-132.0
 33
0.0
 14
366.99999999999989
 24
-140.0
 34
0.0
1001
ACAD
1000
DSTYLE
1002
{
1070
   287
1070
     0
1070
    41
1040
10.0
1070
    42
1040
20.0
1070
    43
1040
200.0
1070
    44
1040
30.0
1070
    73
1070
     0
1070
    74
1070
     0
1070
    77
1070
     1
1070
    78
1070
     8
1070
   140
1040
64.0
1070
   147
1040
20.0
1070
   172
1070
     1
1070
   173
1070
     1
1070
   271
1070
     0
1070
   272
1070
     0
1070
   289
1070
     0
1070
   341
1005
719
1070
     6
1000
DOTBLANK
1070
     7
1000
ORIGIN
1002
}
  0
POLYLINE
  5
30C8
  8
NOTE
  6
CONTINUOUS
 66
     1
 10
0.0
 20
0.0
 30
0.0
  0
VERTEX
  5
3257
  8
NOTE
  6
CONTINUOUS
 10
-333.7095452919433
 20
206.53291837322541
 30
0.0
  0
VERTEX
  5
3258
  8
NOTE
  6
CONTINUOUS
 10
-300.0
 20
185.0
 30
0.0
  0
VERTEX
  5
3259
  8
NOTE
  6
CONTINUOUS
 10
-318.42686373090407
 20
220.5028266003338
 30
0.0
  0
SEQEND
  5
325A
  8
NOTE
  6
CONTINUOUS
  0
LINE
  5
30CD
  8
NOTE
  6
CONTINUOUS
 10
-300.0
 20
185.0
 30
0.0
 11
-588.96394481796153
 21
496.29476961097191
 31
0.0
  0
POLYLINE
  5
30CE
  8
NOTE
  6
CONTINUOUS
 66
     1
 10
0.0
 20
0.0
 30
0.0
  0
VERTEX
  5
325B
  8
NOTE
  6
CONTINUOUS
 10
440.09691131303288
 20
-66.10542210557324
 30
0.0
  0
VERTEX
  5
325C
  8
NOTE
  6
CONTINUOUS
 10
430.73873254024983
 20
-104.9953244905652
 30
0.0
  0
VERTEX
  5
325D
  8
NOTE
  6
CONTINUOUS
 10
458.28810381671133
 20
-75.994770257199448
 30
0.0
  0
SEQEND
  5
325E
  8
NOTE
  6
CONTINUOUS
  0
LINE
  5
30D3
  8
NOTE
  6
CONTINUOUS
 10
430.73873254024983
 20
-104.9953244905652
 30
0.0
 11
688.22278403864175
 21
377.41207164807992
 31
0.0
  0
LINE
  5
30D4
  8
NOTE
  6
CONTINUOUS
 10
369.24135603168622
 20
-115.8007234981222
 30
0.0
 11
707.75060376870101
 21
518.41084735206209
 31
0.0
  0
POLYLINE
  5
30D5
  8
NOTE
  6
CONTINUOUS
 66
     1
 10
0.0
 20
0.0
 30
0.0
  0
VERTEX
  5
325F
  8
NOTE
  6
CONTINUOUS
 10
378.59953480446922
 20
-76.91082111313024
 30
0.0
  0
VERTEX
  5
3260
  8
NOTE
  6
CONTINUOUS
 10
369.24135603168622
 20
-115.8007234981222
 30
0.0
  0
VERTEX
  5
3261
  8
NOTE
  6
CONTINUOUS
 10
396.79072730814761
 20
-86.800169264756434
 30
0.0
  0
SEQEND
  5
3262
  8
NOTE
  6
CONTINUOUS
  0
DIMENSION
  5
30DA
  8
SIZE
  6
CONTINUOUS
  2
*D116
 10
274.99999999999972
 20
-583.06791136589516
 30
0.0
 11
374.99999999999989
 21
-531.06791136589516
 31
0.0
 13
475.0
 23
-165.0
 33
0.0
 14
274.99999999999972
 24
-145.0
 34
0.0
1001
ACAD
1000
DSTYLE
1002
{
1070
   287
1070
     0
1070
    41
1040
10.0
1070
    42
1040
20.0
1070
    43
1040
200.0
1070
    44
1040
30.0
1070
    73
1070
     0
1070
    74
1070
     0
1070
    77
1070
     1
1070
    78
1070
     8
1070
   140
1040
64.0
1070
   147
1040
20.0
1070
   172
1070
     1
1070
   173
1070
     1
1070
   271
1070
     0
1070
   272
1070
     0
1070
   289
1070
     0
1070
   341
1005
719
1070
     6
1000
DOTBLANK
1070
     7
1000
ORIGIN
1002
}
  0
DIMENSION
  5
30DB
  8
SIZE
  6
CONTINUOUS
  2
*D117
 10
-152.9999999999998
 20
-447.8059722088945
 30
0.0
 11
-313.99999999999972
 21
-395.8059722088945
 31
0.0
 13
-474.99999999999972
 23
-165.0
 33
0.0
 14
-152.9999999999998
 24
-252.86561949999989
 34
0.0
1001
ACAD
1000
DSTYLE
1002
{
1070
   287
1070
     0
1070
    41
1040
10.0
1070
    42
1040
20.0
1070
    43
1040
200.0
1070
    44
1040
30.0
1070
    73
1070
     0
1070
    74
1070
     0
1070
    77
1070
     1
1070
    78
1070
     8
1070
   140
1040
64.0
1070
   147
1040
20.0
1070
   172
1070
     1
1070
   173
1070
     1
1070
   271
1070
     0
1070
   272
1070
     0
1070
   289
1070
     0
1070
   341
1005
719
1070
     6
1000
DOTBLANK
1070
     7
1000
ORIGIN
1002
}
  0
LINE
  5
30DC
  8
NOTE
  6
CONTINUOUS
 10
274.99999999999972
 20
-164.9999999999998
 30
0.0
 11
117.3246862707626
 21
-352.55838789165
 31
0.0
  0
POLYLINE
  5
30DD
  8
NOTE
  6
CONTINUOUS
 66
     1
 10
0.0
 20
0.0
 30
0.0
  0
VERTEX
  5
3263
  8
NOTE
  6
CONTINUOUS
 10
257.78467280567872
 20
-201.10585170093671
 30
0.0
  0
VERTEX
  5
3264
  8
NOTE
  6
CONTINUOUS
 10
274.99999999999972
 20
-164.9999999999998
 30
0.0
  0
VERTEX
  5
3265
  8
NOTE
  6
CONTINUOUS
 10
242.0381638788713
 20
-187.6609214970299
 30
0.0
  0
SEQEND
  5
3266
  8
NOTE
  6
CONTINUOUS
  0
TEXT
  5
30E2
  8
NOTE
  6
CONTINUOUS
 10
-116.3153460269598
 20
-337.4560868916501
 30
0.0
 40
64.0
  1
EL,CL
 41
0.9
  0
LINE
  5
30E3
  8
NOTE
  6
CONTINUOUS
 10
-131.0956510269599
 20
-352.55838789165
 30
0.0
 11
117.3246862707626
 21
-352.55838789165
 31
0.0
  0
LINE
  5
30E4
  8
NOTE
  6
CONTINUOUS
 10
-1103.609479033234
 20
-459.23268227694138
 30
0.0
 11
-530.5400718084968
 21
-459.23268227694138
 31
0.0
  0
TEXT
  5
30E5
  8
NOTE
  6
CONTINUOUS
 10
-1088.8291740332361
 20
-444.13038127694148
 30
0.0
 40
64.0
  1
AH 2-12×36
 41
0.9
  0
LINE
  5
30E6
  8
NOTE
  6
CONTINUOUS
 10
-300.0
 20
-185.0
 30
0.0
 11
-530.5400718084968
 21
-459.23268227694138
 31
0.0
  0
POLYLINE
  5
30E7
  8
NOTE
  6
CONTINUOUS
 66
     1
 10
0.0
 20
0.0
 30
0.0
  0
VERTEX
  5
3267
  8
NOTE
  6
CONTINUOUS
 10
-317.21532719432088
 20
-221.10585170093691
 30
0.0
  0
VERTEX
  5
3268
  8
NOTE
  6
CONTINUOUS
 10
-300.0
 20
-185.0
 30
0.0
  0
VERTEX
  5
3269
  8
NOTE
  6
CONTINUOUS
 10
-332.96183612112839
 20
-207.6609214970299
 30
0.0
  0
SEQEND
  5
326A
  8
NOTE
  6
CONTINUOUS
  0
ARC
  5
30EC
  8
DETAIL
  6
CONTINOUS
 62
     5
 10
-300.0
 20
-197.0
 30
0.0
 40
6.0
 50
270.0
 51
0.0
  0
LINE
  5
30ED
  8
DETAIL
  6
CONTINOUS
 62
     5
 10
-294.0
 20
-194.9999999999996
 30
0.0
 11
-294.0
 21
-197.0
 31
0.0
  0
ARC
  5
30EE
  8
DETAIL
  6
CONTINOUS
 62
     5
 10
-300.0
 20
-197.0
 30
0.0
 40
6.0
 50
180.0
 51
270.0
  0
LINE
  5
30EF
  8
DETAIL
  6
CONTINOUS
 62
     5
 10
-306.0
 20
-194.9999999999996
 30
0.0
 11
-306.0
 21
-197.0
 31
0.0
  0
LINE
  5
30F0
  8
OUTLINE
 10
136.00000000015271
 20
-195.0
 30
0.0
 11
-441.99999999984709
 21
-195.0
 31
0.0
  0
LINE
  5
30F1
  8
OUTLINE
 10
475.0
 20
-165.0
 30
0.0
 11
-474.99999999999989
 21
-165.0
 31
0.0
  0
LINE
  5
30F2
  8
OUTLINE
 10
475.0
 20
165.0
 30
0.0
 11
-474.99999999999989
 21
165.0
 31
0.0
  0
LINE
  5
30F3
  8
OUTLINE
 10
-474.99999999999989
 20
165.0
 30
0.0
 11
-474.99999999999989
 21
-165.0
 31
0.0
  0
LINE
  5
30F4
  8
OUTLINE
 10
-441.99999999984709
 20
-165.0
 30
0.0
 11
-441.99999999984709
 21
-195.0
 31
0.0
  0
LINE
  5
30F5
  8
OUTLINE
 10
-284.0
 20
-213.0
 30
0.0
 11
-316.0
 21
-213.0
 31
0.0
  0
LINE
  5
30F6
  8
OUTLINE
 10
-316.0
 20
-195.0
 30
0.0
 11
-316.0
 21
-213.0
 31
0.0
  0
LINE
  5
30F7
  8
OUTLINE
 10
-284.0
 20
-195.0
 30
0.0
 11
-284.0
 21
-213.0
 31
0.0
  0
ARC
  5
30F8
  8
OUTLINE
 10
-300.0
 20
183.0
 30
0.0
 40
6.0
 50
180.0
 51
0.0
  0
LINE
  5
30F9
  8
OUTLINE
 10
-306.0
 20
204.0
 30
0.0
 11
-316.0
 21
204.0
 31
0.0
  0
LINE
  5
30FA
  8
OUTLINE
 10
-306.0
 20
204.0
 30
0.0
 11
-306.0
 21
183.0
 31
0.0
  0
LINE
  5
30FB
  8
OUTLINE
 10
-294.0
 20
204.0
 30
0.0
 11
-294.0
 21
183.0
 31
0.0
  0
LINE
  5
30FC
  8
OUTLINE
 10
-284.0
 20
204.0
 30
0.0
 11
-294.0
 21
204.0
 31
0.0
  0
LINE
  5
30FD
  8
OUTLINE
 10
-316.0
 20
204.0
 30
0.0
 11
-316.0
 21
165.0
 31
0.0
  0
LINE
  5
30FE
  8
OUTLINE
 10
-284.0
 20
204.0
 30
0.0
 11
-284.0
 21
165.0
 31
0.0
  0
LINE
  5
30FF
  8
OUTLINE
 10
136.00000000015271
 20
-165.0
 30
0.0
 11
136.00000000015271
 21
-195.0
 31
0.0
  0
LINE
  5
3100
  8
OUTLINE
 10
475.0
 20
-165.0
 30
0.0
 11
475.0
 21
165.0
 31
0.0
  0
LINE
  5
3101
  8
OUTLINE
 10
315.99999999999972
 20
-213.0
 30
0.0
 11
283.99999999999972
 21
-213.0
 31
0.0
  0
LINE
  5
3102
  8
OUTLINE
 10
283.99999999999972
 20
-165.0
 30
0.0
 11
283.99999999999972
 21
-213.0
 31
0.0
  0
LINE
  5
3103
  8
OUTLINE
 10
315.99999999999972
 20
-165.0
 30
0.0
 11
315.99999999999972
 21
-213.0
 31
0.0
  0
LINE
  5
3104
  8
OUTLINE
 10
283.99999999999972
 20
204.0
 30
0.0
 11
283.99999999999972
 21
165.0
 31
0.0
  0
LINE
  5
3105
  8
OUTLINE
 10
315.99999999999972
 20
204.0
 30
0.0
 11
315.99999999999972
 21
165.0
 31
0.0
  0
LINE
  5
3106
  8
OUTLINE
 10
283.99999999999972
 20
204.0
 30
0.0
 11
293.99999999999989
 21
204.0
 31
0.0
  0
LINE
  5
3107
  8
OUTLINE
 10
305.99999999999972
 20
204.0
 30
0.0
 11
315.99999999999972
 21
204.0
 31
0.0
  0
LINE
  5
3108
  8
OUTLINE
 10
293.99999999999989
 20
204.0
 30
0.0
 11
293.99999999999989
 21
183.0
 31
0.0
  0
LINE
  5
3109
  8
OUTLINE
 10
305.99999999999972
 20
204.0
 30
0.0
 11
305.99999999999972
 21
183.0
 31
0.0
  0
ARC
  5
310A
  8
OUTLINE
 10
299.99999999999989
 20
183.0
 30
0.0
 40
6.0
 50
180.0
 51
0.000000000000007
  0
ENDSEC
  0
EOF
