  0
SECTION
  2
HEADER
  9
$ACADVER
  1
AC1009
  9
$INSBASE
 10
0.0
 20
0.0
 30
0.0
  9
$EXTMIN
 10
-1121.8559498415129
 20
-628.93729948487373
 30
0.0
  9
$EXTMAX
 10
1424.3166340088769
 20
1729.480363777338
 30
0.0
  9
$LIMMIN
 10
-1608.5606563512711
 20
-771.20838446036851
  9
$LIMMAX
 10
1644.5338365673761
 20
1932.2929772638181
  9
$ORTHOMODE
 70
     1
  9
$REGENMODE
 70
     1
  9
$FILLMODE
 70
     1
  9
$QTEXTMODE
 70
     0
  9
$MIRRTEXT
 70
     0
  9
$DRAGMODE
 70
     2
  9
$LTSCALE
 40
20.0
  9
$OSMODE
 70
    37
  9
$ATTMODE
 70
     1
  9
$TEXTSIZE
 40
64.0
  9
$TRACEWID
 40
0.05
  9
$TEXTSTYLE
  7
STANDARD
  9
$CLAYER
  8
SIZE
  9
$CELTYPE
  6
CONTINUOUS
  9
$CECOLOR
 62
   256
  9
$DIMSCALE
 40
1.0
  9
$DIMASZ
 40
10.0
  9
$DIMEXO
 40
20.0
  9
$DIMDLI
 40
200.0
  9
$DIMRND
 40
0.0
  9
$DIMDLE
 40
0.0
  9
$DIMEXE
 40
30.0
  9
$DIMTP
 40
0.0
  9
$DIMTM
 40
0.0
  9
$DIMTXT
 40
64.0
  9
$DIMCEN
 40
0.09
  9
$DIMTSZ
 40
0.0
  9
$DIMTOL
 70
     0
  9
$DIMLIM
 70
     0
  9
$DIMTIH
 70
     0
  9
$DIMTOH
 70
     0
  9
$DIMSE1
 70
     0
  9
$DIMSE2
 70
     0
  9
$DIMTAD
 70
     1
  9
$DIMZIN
 70
     8
  9
$DIMBLK
  1

  9
$DIMASO
 70
     1
  9
$DIMSHO
 70
     0
  9
$DIMPOST
  1

  9
$DIMAPOST
  1

  9
$DIMALT
 70
     0
  9
$DIMALTD
 70
     2
  9
$DIMALTF
 40
25.399999999999999
  9
$DIMLFAC
 40
1.0
  9
$DIMTOFL
 70
     1
  9
$DIMTVP
 40
0.0
  9
$DIMTIX
 70
     0
  9
$DIMSOXD
 70
     0
  9
$DIMSAH
 70
     1
  9
$DIMBLK1
  1

  9
$DIMBLK2
  1

  9
$DIMSTYLE
  2
STANDARD
  9
$DIMCLRD
 70
     0
  9
$DIMCLRE
 70
     0
  9
$DIMCLRT
 70
     0
  9
$DIMTFAC
 40
1.0
  9
$DIMGAP
 40
0.09
  9
$LUNITS
 70
     2
  9
$LUPREC
 70
     4
  9
$SKETCHINC
 40
0.1
  9
$FILLETRAD
 40
6.0
  9
$AUNITS
 70
     1
  9
$AUPREC
 70
     3
  9
$MENU
  1
ACAD
  9
$ELEVATION
 40
0.0
  9
$PELEVATION
 40
0.0
  9
$THICKNESS
 40
0.0
  9
$LIMCHECK
 70
     0
  9
$BLIPMODE
 70
     0
  9
$CHAMFERA
 40
0.0
  9
$CHAMFERB
 40
0.0
  9
$SKPOLY
 70
     0
  9
$TDCREATE
 40
2450330.3932059952
  9
$TDUPDATE
 40
2453256.586898576
  9
$TDINDWG
 40
0.2236312963
  9
$TDUSRTIMER
 40
0.2236311806
  9
$USRTIMER
 70
     1
  9
$ANGBASE
 50
0.0
  9
$ANGDIR
 70
     0
  9
$PDMODE
 70
     3
  9
$PDSIZE
 40
-2.0
  9
$PLINEWID
 40
0.0
  9
$COORDS
 70
     1
  9
$SPLFRAME
 70
     0
  9
$SPLINETYPE
 70
     6
  9
$SPLINESEGS
 70
     8
  9
$ATTDIA
 70
     0
  9
$ATTREQ
 70
     1
  9
$HANDLING
 70
-16383
  9
$HANDSEED
  5
F1A
  9
$SURFTAB1
 70
     6
  9
$SURFTAB2
 70
     6
  9
$SURFTYPE
 70
     6
  9
$SURFU
 70
     6
  9
$SURFV
 70
     6
  9
$UCSNAME
  2

  9
$UCSORG
 10
0.0
 20
0.0
 30
0.0
  9
$UCSXDIR
 10
1.0
 20
0.0
 30
0.0
  9
$UCSYDIR
 10
0.0
 20
1.0
 30
0.0
  9
$PUCSNAME
  2

  9
$PUCSORG
 10
0.0
 20
0.0
 30
0.0
  9
$PUCSXDIR
 10
1.0
 20
0.0
 30
0.0
  9
$PUCSYDIR
 10
0.0
 20
1.0
 30
0.0
  9
$USERI1
 70
     0
  9
$USERI2
 70
     0
  9
$USERI3
 70
     0
  9
$USERI4
 70
     0
  9
$USERI5
 70
     0
  9
$USERR1
 40
20.0
  9
$USERR2
 40
0.0
  9
$USERR3
 40
0.0
  9
$USERR4
 40
0.0
  9
$USERR5
 40
0.0
  9
$WORLDVIEW
 70
     1
  9
$SHADEDGE
 70
     3
  9
$SHADEDIF
 70
    70
  9
$TILEMODE
 70
     1
  9
$MAXACTVP
 70
    64
  9
$PLIMCHECK
 70
     0
  9
$PEXTMIN
 10
1.0000000000000000E+020
 20
1.0000000000000000E+020
 30
1.0000000000000000E+020
  9
$PEXTMAX
 10
-1.0000000000000000E+020
 20
-1.0000000000000000E+020
 30
-1.0000000000000000E+020
  9
$PLIMMIN
 10
0.0
 20
0.0
  9
$PLIMMAX
 10
12.0
 20
9.0
  9
$UNITMODE
 70
     0
  9
$VISRETAIN
 70
     1
  9
$PLINEGEN
 70
     0
  9
$PSLTSCALE
 70
     1
  0
ENDSEC
  0
SECTION
  2
TABLES
  0
TABLE
  2
VPORT
 70
     2
  0
VPORT
  2
*ACTIVE
 70
     0
 10
0.0
 20
0.0
 11
1.0
 21
1.0
 12
180.37935807098339
 22
444.90524336739071
 13
0.0
 23
0.0
 14
50.0
 24
50.0
 15
100.0
 25
100.0
 16
0.0
 26
0.0
 36
1.0
 17
0.0
 27
0.0
 37
0.0
 40
3641.91590099204
 41
1.2721893491124261
 42
50.0
 43
0.0
 44
0.0
 50
0.0
 51
0.0
 71
     0
 72
   500
 73
     1
 74
     0
 75
     0
 76
     0
 77
     0
 78
     0
  0
ENDTAB
  0
TABLE
  2
LTYPE
 70
     8
  0
LTYPE
  2
CONTINUOUS
 70
     0
  3
実線
 72
    65
 73
     0
 40
0.0
  0
LTYPE
  2
DASHDOT
 70
     0
  3
____ _ ____ _ ____ _ ____ _ ____ _ ____ _ ____
 72
    65
 73
     4
 40
5.5
 49
4.0
 49
-0.6
 49
0.3
 49
-0.6
  0
LTYPE
  2
CONTINOUS
 70
     0
  3
Solid line
 72
    65
 73
     0
 40
0.0
  0
LTYPE
  2
DASHED
 70
     0
  3
_ _ _ _ _ _ _ _ _ _ _ _ _ _ _ _ _ _ _ _ _ _ _
 72
    65
 73
     2
 40
2.0
 49
1.1999999999999991
 49
-0.8
  0
LTYPE
  2
DOT
 70
     0
  3
...............................................
 72
    65
 73
     2
 40
0.8
 49
0.5
 49
-0.3
  0
LTYPE
  2
DASHDOT1
 70
     0
  3
____ _ ____ _ ____ _ ____ _ ____ _ ____ _ ____
 72
    65
 73
     4
 40
2.0
 49
1.5
 49
-0.2
 49
0.1
 49
-0.2
  0
LTYPE
  2
DIVIDE
 70
     0
  3
_____ _ _ _____ _ _ _____ _ _ _____ _ _ ____
 72
    65
 73
     6
 40
6.4000000000000004
 49
4.0
 49
-0.6
 49
0.3
 49
-0.6
 49
0.3
 49
-0.6
  0
LTYPE
  2
DIVIDE1
 70
     0
  3
_____ _ _ _____ _ _ _____ _ _ _____ _ _ ____
 72
    65
 73
     6
 40
3.2000000000000002
 49
2.0
 49
-0.3
 49
0.15
 49
-0.3
 49
0.15
 49
-0.3
  0
ENDTAB
  0
TABLE
  2
LAYER
 70
    12
  0
LAYER
  2
0
 70
     0
 62
     7
  6
CONTINUOUS
  0
LAYER
  2
SIZE
 70
     0
 62
    32
  6
CONTINUOUS
  0
LAYER
  2
DETAIL
 70
     0
 62
     5
  6
CONTINUOUS
  0
LAYER
  2
OUTLINE
 70
     0
 62
     3
  6
CONTINUOUS
  0
LAYER
  2
BASIS
 70
     0
 62
     6
  6
CONTINUOUS
  0
LAYER
  2
NOTE
 70
     0
 62
     4
  6
CONTINUOUS
  0
LAYER
  2
ARRANGE
 70
     0
 62
     1
  6
CONTINUOUS
  0
LAYER
  2
FIX
 70
     0
 62
   241
  6
CONTINUOUS
  0
LAYER
  2
ETC
 70
     0
 62
    83
  6
CONTINUOUS
  0
LAYER
  2
SERVICESPACE
 70
     0
 62
     2
  6
CONTINUOUS
  0
LAYER
  2
SYMBOLLINE
 70
     0
 62
    38
  6
CONTINUOUS
  0
LAYER
  2
DEFPOINTS
 70
     0
 62
     7
  6
CONTINUOUS
  0
ENDTAB
  0
TABLE
  2
STYLE
 70
     2
  0
STYLE
  2
STANDARD
 70
     0
 40
0.0
 41
0.9
 50
0.0
 71
     0
 42
64.0
  3
SIMPLEX
  4
BIGFONT
  0
STYLE
  2
STANDARD1
 70
     0
 40
0.0
 41
1.0
 50
0.0
 71
     0
 42
3.2000000000000002
  3
MONOTXT
  4
BIGFONT
  0
ENDTAB
  0
TABLE
  2
VIEW
 70
     1
  0
VIEW
  2
ALL
 70
     0
 40
4282.6199999999999
 10
0.0
 20
41.309903999999989
 41
5940.0
 11
0.0
 21
0.0
 31
1.0
 12
0.0
 22
0.0
 32
0.0
 42
50.0
 43
0.0
 44
0.0
 50
0.0
 71
     0
  0
ENDTAB
  0
TABLE
  2
UCS
 70
     0
  0
ENDTAB
  0
TABLE
  2
APPID
 70
     1
  0
APPID
  2
ACAD
 70
     0
  0
ENDTAB
  0
TABLE
  2
DIMSTYLE
 70
     1
  0
DIMSTYLE
  2
STANDARD
 70
     0
  3

  4

  5

  6

  7

 40
1.0
 41
0.18
 42
0.0625
 43
0.38
 44
0.18
 45
0.0
 46
0.0
 47
0.0
 48
0.0
140
0.18
141
0.09
142
0.0
143
25.399999999999999
144
1.0
145
0.0
146
1.0
147
0.09
 71
     0
 72
     0
 73
     1
 74
     1
 75
     0
 76
     0
 77
     0
 78
     0
170
     0
171
     2
172
     0
173
     0
174
     0
175
     0
176
     0
177
     0
178
     0
  0
ENDTAB
  0
ENDSEC
  0
SECTION
  2
BLOCKS
  0
BLOCK
  8
0
  2
$MODEL_SPACE
 70
     0
 10
0.0
 20
0.0
 30
0.0
  3
$MODEL_SPACE
  1

  0
ENDBLK
  5
6C0
  8
0
  0
BLOCK
 67
     1
  8
0
  2
$PAPER_SPACE
 70
     0
 10
0.0
 20
0.0
 30
0.0
  3
$PAPER_SPACE
  1

  0
ENDBLK
  5
6BC
 67
     1
  8
0
  0
BLOCK
  8
0
  2
A$C5F2C697A
 70
     0
 10
0.0
 20
0.0
 30
0.0
  3
A$C5F2C697A
  1

  0
TEXT
  5
6E3
  8
SIZE
  6
BYBLOCK
 10
910.8147643978815
 20
127.36127978650261
 30
0.0
 40
64.0
  1
370
 41
0.9
  0
LINE
  5
6E4
  8
SIZE
  6
BYBLOCK
 10
801.8719073978815
 20
95.361279786502593
 30
0.0
 11
1167.87190739788
 21
95.361279786502593
 31
0.0
  0
TEXT
  5
6E5
  8
SIZE
  6
BYBLOCK
 10
915.81476439788139
 20
1424.5027517865019
 30
0.0
 40
64.0
  1
330
 41
0.9
  0
LINE
  5
6E6
  8
SIZE
  6
BYBLOCK
 10
826.8719073978815
 20
1392.5027517865019
 30
0.0
 11
1152.87190739788
 21
1392.5027517865019
 31
0.0
  0
LINE
  5
6E7
  8
OUTLINE
  6
CONTINUOUS
 10
771.8719063978815
 20
290.07775178650252
 30
0.0
 11
1183.871906397881
 21
290.07775178650252
 31
0.0
  0
LINE
  5
6E8
  8
OUTLINE
  6
CONTINUOUS
 10
771.8719063978815
 20
323.07775178650252
 30
0.0
 11
1183.871906397881
 21
323.07775178650252
 31
0.0
  0
LINE
  5
6E9
  8
OUTLINE
  6
CONTINUOUS
 10
824.87190639788139
 20
1145.0777517865019
 30
0.0
 11
1154.8719063978799
 21
1145.0777517865019
 31
0.0
  0
CIRCLE
  5
6EA
  8
ARRANGE
  6
CONTINUOUS
 10
989.87190639788139
 20
290.07775178650252
 30
0.0
 40
40.0
  0
LINE
  5
6EB
  8
DETAIL
  6
CONTINOUS
 10
771.8719063978815
 20
290.07775178650252
 30
0.0
 11
1183.871906397881
 21
290.07775178650252
 31
0.0
  0
LINE
  5
6EC
  8
DETAIL
  6
CONTINOUS
 10
824.87190639788139
 20
1145.0777517865019
 30
0.0
 11
1154.8719063978799
 21
1145.0777517865019
 31
0.0
  0
TEXT
  5
6ED
  8
NOTE
  6
CONTINUOUS
 10
973.9808703978814
 20
913.84623078650259
 30
0.0
 40
64.0
  1
EL,CL
 41
0.9
  0
LINE
  5
6EE
  8
NOTE
  6
CONTINUOUS
 10
879.8719063978815
 20
686.07775178650252
 30
0.0
 11
1040.77148939788
 21
625.20405378650253
 31
0.0
  0
LINE
  5
6EF
  8
NOTE
  6
CONTINUOUS
 10
1205.83098439788
 20
895.38895978650271
 30
0.0
 11
918.87085639788165
 21
895.38895978650271
 31
0.0
  0
POINT
  5
6F0
  8
ARRANGE
  6
CONTINUOUS
 10
989.87190639788139
 20
290.07775178650252
 30
0.0
  0
LINE
  5
6F1
  8
DETAIL
  6
CONTINOUS
 10
771.8719063978815
 20
323.07775178650252
 30
0.0
 11
1183.871906397881
 21
323.07775178650252
 31
0.0
  0
LINE
  5
6F2
  8
NOTE
  6
CONTINUOUS
 10
882.87190639788139
 20
724.07775178650252
 30
0.0
 11
1040.77148939788
 21
812.30385178650226
 31
0.0
  0
CIRCLE
  5
6F3
  8
SIZE
  6
CONTINUOUS
 10
220.7875803978813
 20
290.07775178650252
 30
0.0
 40
6.0
  0
CIRCLE
  5
6F4
  8
SIZE
  6
CONTINUOUS
 10
503.55668139788139
 20
290.07775178650252
 30
0.0
 40
6.0
  0
CIRCLE
  5
6F5
  8
SIZE
  6
CONTINUOUS
 10
649.74425839788148
 20
290.07775178650252
 30
0.0
 40
6.0
  0
CIRCLE
  5
6F6
  8
SIZE
  6
CONTINUOUS
 10
350.83505539788138
 20
290.07775178650252
 30
0.0
 40
6.0
  0
LINE
  5
6F7
  8
OUTLINE
  6
CONTINUOUS
 10
771.8719063978815
 20
290.07775178650252
 30
0.0
 11
771.8719063978815
 21
323.07775178650252
 31
0.0
  0
CIRCLE
  5
6F8
  8
FIX
  6
CONTINUOUS
 10
799.8719063978815
 20
290.07775178650252
 30
0.0
 40
40.0
  0
LINE
  5
6F9
  8
DETAIL
  6
CONTINOUS
 10
771.8719063978815
 20
290.07775178650252
 30
0.0
 11
771.8719063978815
 21
323.07775178650252
 31
0.0
  0
LINE
  5
6FA
  8
BASIS
  6
DASHDOT
 10
989.87190639788139
 20
239.4419287865025
 30
0.0
 11
989.87190639788139
 21
1184.2961157865011
 31
0.0
  0
LINE
  5
6FB
  8
NOTE
  6
CONTINOUS
 10
799.8719063978815
 20
270.0777517865024
 30
0.0
 11
799.8719063978815
 21
310.07775178650252
 31
0.0
  0
LINE
  5
6FC
  8
NOTE
  6
CONTINUOUS
 10
0.0000023978816444
 20
-0.000002213497396
 30
0.0
 11
579.80680439788148
 21
-0.000002213497396
 31
0.0
  0
TEXT
  5
6FD
  8
NOTE
  6
CONTINUOUS
 10
14.78030739788152
 20
15.10229878650267
 30
0.0
 40
64.0
  1
AH 2-12×36
 41
0.9
  0
LINE
  5
6FE
  8
SIZE
  6
BYBLOCK
 10
715.70171039788136
 20
290.07775178650252
 30
0.0
 11
320.83505539788149
 21
290.07775178650252
 31
0.0
  0
LINE
  5
6FF
  8
SIZE
  6
BYBLOCK
 10
735.70171039788136
 20
290.07775178650252
 30
0.0
 11
473.55668139788122
 21
290.07775178650252
 31
0.0
  0
LINE
  5
700
  8
SIZE
  6
BYBLOCK
 10
735.70171039788136
 20
290.07775178650252
 30
0.0
 11
190.7875803978813
 21
290.07775178650252
 31
0.0
  0
LINE
  5
701
  8
NOTE
  6
CONTINUOUS
 10
579.80680439788148
 20
-0.000002213497396
 30
0.0
 11
799.8719063978815
 21
290.07775178650252
 31
0.0
  0
TEXT
  5
702
  8
SIZE
  6
BYBLOCK
 10
739.24333539788142
 20
127.36127978650261
 30
0.0
 40
64.0
  1
28
 41
0.9
  0
LINE
  5
703
  8
SIZE
  6
BYBLOCK
 10
735.70171039788136
 20
290.07775178650252
 30
0.0
 11
619.74425839788148
 21
290.07775178650252
 31
0.0
  0
LINE
  5
704
  8
SIZE
  6
BYBLOCK
 10
799.8719073978815
 20
250.0777517865026
 30
0.0
 11
799.8719073978815
 21
65.361279786502621
 31
0.0
  0
LINE
  5
705
  8
SIZE
  6
BYBLOCK
 10
799.8719073978815
 20
250.0777517865026
 30
0.0
 11
799.8719073978815
 21
65.361279786502621
 31
0.0
  0
LINE
  5
706
  8
SIZE
  6
BYBLOCK
 10
771.8719073978815
 20
270.0777517865024
 30
0.0
 11
771.8719073978815
 21
65.361279786502621
 31
0.0
  0
CIRCLE
  5
707
  8
SIZE
  6
CONTINUOUS
 10
799.8719073978815
 20
95.361279786502593
 30
0.0
 40
6.0
  0
CIRCLE
  5
708
  8
SIZE
  6
CONTINUOUS
 10
771.8719073978815
 20
95.361279786502593
 30
0.0
 40
6.0
  0
CIRCLE
  5
709
  8
SIZE
  6
CONTINUOUS
 10
799.8719073978815
 20
95.361279786502593
 30
0.0
 40
6.0
  0
LINE
  5
70A
  8
SIZE
  6
BYBLOCK
 10
799.8719073978815
 20
95.361279786502593
 30
0.0
 11
771.8719073978815
 21
95.361279786502593
 31
0.0
  0
LINE
  5
70B
  8
SIZE
  6
BYBLOCK
 10
769.8719073978815
 20
95.361279786502593
 30
0.0
 11
767.8719073978815
 21
95.361279786502593
 31
0.0
  0
LINE
  5
70C
  8
SIZE
  6
BYBLOCK
 10
801.8719073978815
 20
95.361279786502593
 30
0.0
 11
803.87190739788139
 21
95.361279786502593
 31
0.0
  0
LINE
  5
70D
  8
NOTE
  6
CONTINOUS
 10
779.8719063978815
 20
290.07775178650252
 30
0.0
 11
819.8719063978815
 21
290.07775178650252
 31
0.0
  0
LINE
  5
70E
  8
NOTE
  6
CONTINUOUS
 10
799.8719063978815
 20
290.07775178650252
 30
0.0
 11
784.76766639788127
 21
253.0390967865026
 31
0.0
  0
LINE
  5
70F
  8
NOTE
  6
CONTINUOUS
 10
799.8719063978815
 20
290.07775178650252
 30
0.0
 11
768.27192339788144
 21
265.55345678650241
 31
0.0
  0
LINE
  5
710
  8
SIZE
  6
BYBLOCK
 10
771.8719073978815
 20
343.07775178650252
 30
0.0
 11
771.8719073978815
 21
1422.5027517865019
 31
0.0
  0
LINE
  5
711
  8
OUTLINE
  6
CONTINUOUS
 10
824.87190639788139
 20
323.07775178650252
 30
0.0
 11
824.87190639788139
 21
1145.0777517865019
 31
0.0
  0
LINE
  5
712
  8
DETAIL
  6
CONTINOUS
 10
824.87190639788139
 20
323.07775178650252
 30
0.0
 11
824.87190639788139
 21
1145.0777517865019
 31
0.0
  0
LINE
  5
713
  8
DETAIL
  6
CONTINOUS
 10
804.8719063978815
 20
462.0777517865024
 30
0.0
 11
804.8719063978815
 21
1002.0777517865019
 31
0.0
  0
LINE
  5
714
  8
SIZE
  6
BYBLOCK
 10
714.44271139788157
 20
732.07775178650252
 30
0.0
 11
320.83505539788149
 21
732.07775178650252
 31
0.0
  0
LINE
  5
715
  8
SIZE
  6
BYBLOCK
 10
856.8719073978815
 20
724.07775178650252
 30
0.0
 11
473.55668139788122
 21
724.07775178650252
 31
0.0
  0
LINE
  5
716
  8
SIZE
  6
BYBLOCK
 10
777.27455739788161
 20
810.08015378650225
 30
0.0
 11
190.42745539788129
 21
810.08015378650225
 31
0.0
  0
LINE
  5
717
  8
SIZE
  6
BYBLOCK
 10
350.83505539788138
 20
292.07775178650252
 30
0.0
 11
350.83505539788138
 21
730.07775178650252
 31
0.0
  0
LINE
  5
718
  8
SIZE
  6
BYBLOCK
 10
503.55668139788139
 20
292.07775178650252
 30
0.0
 11
503.55668139788139
 21
724.07775178650252
 31
0.0
  0
TEXT
  5
719
  8
SIZE
  6
BYBLOCK
 10
188.7875803978813
 20
529.52060878650241
 30
0.0
 40
64.0
  1
520
 50
90.0
 41
0.9
  0
LINE
  5
71A
  8
SIZE
  6
BYBLOCK
 10
220.7875803978813
 20
810.08015378650225
 30
0.0
 11
220.7875803978813
 21
603.57775178650252
 31
0.0
  0
TEXT
  5
71B
  8
SIZE
  6
BYBLOCK
 10
318.83505539788149
 20
437.02060878650252
 30
0.0
 40
64.0
  1
442
 50
90.0
 41
0.9
  0
LINE
  5
71C
  8
SIZE
  6
BYBLOCK
 10
220.7875803978813
 20
292.07775178650252
 30
0.0
 11
220.7875803978813
 21
603.57775178650252
 31
0.0
  0
TEXT
  5
71D
  8
SIZE
  6
BYBLOCK
 10
471.55668139788139
 20
427.13489478650251
 30
0.0
 40
64.0
  1
434
 50
90.0
 41
0.9
  0
CIRCLE
  5
71E
  8
SIZE
  6
CONTINUOUS
 10
220.4274553978814
 20
810.08015378650225
 30
0.0
 40
6.0
  0
CIRCLE
  5
71F
  8
SIZE
  6
CONTINUOUS
 10
350.83505539788138
 20
732.07775178650252
 30
0.0
 40
6.0
  0
CIRCLE
  5
720
  8
SIZE
  6
CONTINUOUS
 10
503.55668139788139
 20
724.07775178650252
 30
0.0
 40
6.0
  0
LINE
  5
721
  8
SIZE
  6
BYBLOCK
 10
649.74425839788148
 20
292.07775178650252
 30
0.0
 11
649.74425839788148
 21
684.07775178650252
 31
0.0
  0
TEXT
  5
722
  8
SIZE
  6
BYBLOCK
 10
617.74425839788125
 20
415.3920377865025
 30
0.0
 40
64.0
  1
396
 50
90.0
 41
0.9
  0
LINE
  5
723
  8
DETAIL
  6
CONTINOUS
 10
824.87190639788139
 20
462.0777517865024
 30
0.0
 11
804.8719063978815
 21
462.0777517865024
 31
0.0
  0
LINE
  5
724
  8
SIZE
  6
BYBLOCK
 10
836.26393739788148
 20
686.07775178650252
 30
0.0
 11
619.74425839788148
 21
686.07775178650252
 31
0.0
  0
LINE
  5
725
  8
BASIS
  6
DASHDOT
 10
734.44271139788145
 20
732.07775178650252
 30
0.0
 11
884.14564339788137
 21
732.07775178650252
 31
0.0
  0
CIRCLE
  5
726
  8
SIZE
  6
CONTINUOUS
 10
649.74425839788148
 20
686.07775178650252
 30
0.0
 40
6.0
  0
LINE
  5
727
  8
NOTE
  6
CONTINOUS
 10
862.8719063978815
 20
724.07775178650252
 30
0.0
 11
902.8719063978815
 21
724.07775178650252
 31
0.0
  0
LINE
  5
728
  8
NOTE
  6
CONTINOUS
 10
859.87190639788162
 20
686.07775178650252
 30
0.0
 11
899.87190639788139
 21
686.07775178650252
 31
0.0
  0
LINE
  5
729
  8
NOTE
  6
CONTINOUS
 10
879.8719063978815
 20
666.07775178650252
 30
0.0
 11
879.8719063978815
 21
706.07775178650252
 31
0.0
  0
POLYLINE
  5
72A
  8
NOTE
  6
CONTINUOUS
 66
     1
 10
0.0
 20
0.0
 30
0.0
  0
VERTEX
  5
E7A
  8
NOTE
  6
CONTINUOUS
 10
919.40695039788125
 20
679.99661178650251
 30
0.0
  0
VERTEX
  5
E7B
  8
NOTE
  6
CONTINUOUS
 10
879.8719063978815
 20
686.07775178650252
 30
0.0
  0
VERTEX
  5
E7C
  8
NOTE
  6
CONTINUOUS
 10
911.06968939788146
 20
661.04380778650238
 30
0.0
  0
SEQEND
  5
E7D
  8
NOTE
  6
CONTINUOUS
  0
POLYLINE
  5
72F
  8
NOTE
  6
CONTINUOUS
 66
     1
 10
0.0
 20
0.0
 30
0.0
  0
VERTEX
  5
E7E
  8
NOTE
  6
CONTINUOUS
 10
911.55116939788149
 20
751.96143678650253
 30
0.0
  0
VERTEX
  5
E7F
  8
NOTE
  6
CONTINUOUS
 10
882.87190639788139
 20
724.07775178650252
 30
0.0
  0
VERTEX
  5
E80
  8
NOTE
  6
CONTINUOUS
 10
921.65071939788174
 20
733.88609978650254
 30
0.0
  0
SEQEND
  5
E81
  8
NOTE
  6
CONTINUOUS
  0
LINE
  5
734
  8
NOTE
  6
CONTINOUS
 10
882.87190639788139
 20
704.0777517865024
 30
0.0
 11
882.87190639788139
 21
744.07775178650252
 31
0.0
  0
LINE
  5
735
  8
NOTE
  6
CONTINUOUS
 10
824.51178139788146
 20
810.08015378650225
 30
0.0
 11
918.87085639788165
 21
895.38895978650271
 31
0.0
  0
LINE
  5
736
  8
NOTE
  6
CONTINOUS
 10
804.51178139788135
 20
810.08015378650225
 30
0.0
 11
844.51178139788135
 21
810.08015378650225
 31
0.0
  0
POLYLINE
  5
737
  8
NOTE
  6
CONTINUOUS
 66
     1
 10
0.0
 20
0.0
 30
0.0
  0
VERTEX
  5
E82
  8
NOTE
  6
CONTINUOUS
 10
846.64476439788132
 20
843.39878378650269
 30
0.0
  0
VERTEX
  5
E83
  8
NOTE
  6
CONTINUOUS
 10
824.51178139788146
 20
810.08015378650225
 30
0.0
  0
VERTEX
  5
E84
  8
NOTE
  6
CONTINUOUS
 10
860.33882139788147
 20
827.86844278650256
 30
0.0
  0
SEQEND
  5
E85
  8
NOTE
  6
CONTINUOUS
  0
LINE
  5
73C
  8
NOTE
  6
CONTINOUS
 10
824.51178139788146
 20
790.08015378650225
 30
0.0
 11
824.51178139788146
 21
830.08015378650225
 31
0.0
  0
LINE
  5
73D
  8
NOTE
  6
CONTINUOUS
 10
872.35755039788137
 20
933.93013678650243
 30
0.0
 11
872.35755039788137
 21
933.93013678650243
 31
0.0
  0
LINE
  5
73E
  8
SIZE
  6
BYBLOCK
 10
824.8719073978815
 20
1185.0777517865019
 30
0.0
 11
824.8719073978815
 21
1422.5027517865019
 31
0.0
  0
LINE
  5
73F
  8
SIZE
  6
BYBLOCK
 10
824.8719073978815
 20
1165.0777517865019
 30
0.0
 11
824.8719073978815
 21
1422.5027517865019
 31
0.0
  0
LINE
  5
740
  8
SIZE
  6
BYBLOCK
 10
824.8719073978815
 20
1165.0777517865019
 30
0.0
 11
824.8719073978815
 21
1293.248751786502
 31
0.0
  0
LINE
  5
741
  8
SIZE
  6
BYBLOCK
 10
804.87190739788139
 20
1022.0777517865019
 30
0.0
 11
804.87190739788139
 21
1293.248751786502
 31
0.0
  0
LINE
  5
742
  8
DETAIL
  6
CONTINOUS
 10
824.87190639788139
 20
1002.0777517865019
 30
0.0
 11
804.8719063978815
 21
1002.0777517865019
 31
0.0
  0
LINE
  5
743
  8
SIZE
  6
CONTINUOUS
 10
814.87190639788139
 20
1263.2491457865019
 30
0.0
 11
945.94025839788139
 21
1263.2491457865019
 31
0.0
  0
LINE
  5
744
  8
SIZE
  6
BYBLOCK
 10
822.8719073978815
 20
1263.2491457865019
 30
0.0
 11
814.8719073978815
 21
1263.2491457865019
 31
0.0
  0
CIRCLE
  5
745
  8
SIZE
  6
CONTINUOUS
 10
804.87190739788139
 20
1263.2491457865019
 30
0.0
 40
6.0
  0
LINE
  5
746
  8
SIZE
  6
BYBLOCK
 10
806.8719073978815
 20
1263.2491457865019
 30
0.0
 11
814.8719073978815
 21
1263.2491457865019
 31
0.0
  0
CIRCLE
  5
747
  8
SIZE
  6
CONTINUOUS
 10
824.8719073978815
 20
1263.2491457865019
 30
0.0
 40
6.0
  0
TEXT
  5
748
  8
SIZE
  6
BYBLOCK
 10
751.74333539788142
 20
1424.5027517865019
 30
0.0
 40
64.0
  1
53
 41
0.9
  0
TEXT
  5
749
  8
SIZE
  6
BYBLOCK
 10
843.21570539788104
 20
1295.248751786502
 30
0.0
 40
64.0
  1
20
 41
0.9
  0
LINE
  5
74A
  8
SIZE
  6
BYBLOCK
 10
824.8719073978815
 20
1392.5027517865019
 30
0.0
 11
771.8719073978815
 21
1392.5027517865019
 31
0.0
  0
CIRCLE
  5
74B
  8
SIZE
  6
CONTINUOUS
 10
771.8719073978815
 20
1392.5027517865019
 30
0.0
 40
6.0
  0
LINE
  5
74C
  8
SIZE
  6
BYBLOCK
 10
769.8719073978815
 20
1392.5027517865019
 30
0.0
 11
767.8719073978815
 21
1392.5027517865019
 31
0.0
  0
CIRCLE
  5
74D
  8
SIZE
  6
CONTINUOUS
 10
824.8719073978815
 20
1392.5027517865019
 30
0.0
 40
6.0
  0
CIRCLE
  5
74E
  8
SIZE
  6
CONTINUOUS
 10
824.8719073978815
 20
1392.5027517865019
 30
0.0
 40
6.0
  0
LINE
  5
74F
  8
SIZE
  6
BYBLOCK
 10
826.8719073978815
 20
1392.5027517865019
 30
0.0
 11
828.87190739788139
 21
1392.5027517865019
 31
0.0
  0
CIRCLE
  5
750
  8
SIZE
  6
CONTINUOUS
 10
1420.44446039788
 20
290.07775178650252
 30
0.0
 40
6.0
  0
CIRCLE
  5
751
  8
FIX
  6
CONTINUOUS
 10
1169.871906397881
 20
290.07775178650252
 30
0.0
 40
40.0
  0
LINE
  5
752
  8
OUTLINE
  6
CONTINUOUS
 10
1183.871906397881
 20
323.07775178650252
 30
0.0
 11
1183.871906397881
 21
290.07775178650252
 31
0.0
  0
TEXT
  5
753
  8
ETC
  6
CONTINUOUS
 10
1573.1112623978811
 20
288.6366377865026
 30
0.0
 40
64.0
  1
室外機
 41
0.9
  0
LINE
  5
754
  8
DETAIL
  6
CONTINOUS
 10
1183.871906397881
 20
290.07775178650252
 30
0.0
 11
1183.871906397881
 21
323.07775178650252
 31
0.0
  0
LINE
  5
755
  8
NOTE
  6
CONTINOUS
 10
1169.871906397881
 20
270.0777517865024
 30
0.0
 11
1169.871906397881
 21
310.07775178650252
 31
0.0
  0
LINE
  5
756
  8
NOTE
  6
CONTINUOUS
 10
1969.74381039788
 20
-0.000002213497396
 30
0.0
 11
1389.9370083978811
 21
-0.000002213497396
 31
0.0
  0
TEXT
  5
757
  8
NOTE
  6
CONTINUOUS
 10
1415.1692193978811
 20
15.10229878650267
 30
0.0
 40
64.0
  1
AH 2-U cut
 41
0.9
  0
LINE
  5
758
  8
NOTE
  6
CONTINUOUS
 10
1389.9370083978811
 20
-0.000002213497396
 30
0.0
 11
1169.871906397881
 21
290.07775178650252
 31
0.0
  0
LINE
  5
759
  8
SIZE
  6
BYBLOCK
 10
1214.7137463978811
 20
290.07775178650252
 30
0.0
 11
1450.44446039788
 21
290.07775178650252
 31
0.0
  0
LINE
  5
75A
  8
SIZE
  6
BYBLOCK
 10
1183.87190739788
 20
270.0777517865024
 30
0.0
 11
1183.87190739788
 21
65.361279786502621
 31
0.0
  0
LINE
  5
75B
  8
SIZE
  6
BYBLOCK
 10
1169.87190739788
 20
250.0777517865026
 30
0.0
 11
1169.87190739788
 21
65.361279786502621
 31
0.0
  0
LINE
  5
75C
  8
SIZE
  6
BYBLOCK
 10
1169.87190739788
 20
250.0777517865026
 30
0.0
 11
1169.87190739788
 21
65.361279786502621
 31
0.0
  0
CIRCLE
  5
75D
  8
SIZE
  6
CONTINUOUS
 10
1169.87190739788
 20
95.361279786502593
 30
0.0
 40
6.0
  0
CIRCLE
  5
75E
  8
SIZE
  6
CONTINUOUS
 10
1169.87190739788
 20
95.361279786502593
 30
0.0
 40
6.0
  0
CIRCLE
  5
75F
  8
SIZE
  6
CONTINUOUS
 10
1183.87190739788
 20
95.361279786502593
 30
0.0
 40
6.0
  0
LINE
  5
760
  8
SIZE
  6
BYBLOCK
 10
1183.87190739788
 20
95.361279786502593
 30
0.0
 11
1169.87190739788
 21
95.361279786502593
 31
0.0
  0
LINE
  5
761
  8
SIZE
  6
BYBLOCK
 10
1167.87190739788
 20
95.361279786502593
 30
0.0
 11
1165.87190739788
 21
95.361279786502593
 31
0.0
  0
LINE
  5
762
  8
SIZE
  6
BYBLOCK
 10
1185.87190739788
 20
95.361279786502593
 30
0.0
 11
1187.87190739788
 21
95.361279786502593
 31
0.0
  0
TEXT
  5
763
  8
SIZE
  6
BYBLOCK
 10
1134.3576213978811
 20
127.36127978650261
 30
0.0
 40
64.0
  1
14
 41
0.9
  0
LINE
  5
764
  8
NOTE
  6
CONTINOUS
 10
1149.871906397881
 20
290.07775178650252
 30
0.0
 11
1189.871906397881
 21
290.07775178650252
 31
0.0
  0
LINE
  5
765
  8
NOTE
  6
CONTINUOUS
 10
1169.871906397881
 20
290.07775178650252
 30
0.0
 11
1184.97614639788
 21
253.0390967865026
 31
0.0
  0
LINE
  5
766
  8
NOTE
  6
CONTINUOUS
 10
1169.871906397881
 20
290.07775178650252
 30
0.0
 11
1201.47188939788
 21
265.55345678650241
 31
0.0
  0
TEXT
  5
767
  8
ETC
  6
CONTINUOUS
 10
1561.288518397879
 20
407.8032387865025
 30
0.0
 40
64.0
  1
SPUZ0824
 41
0.9
  0
LINE
  5
768
  8
SIZE
  6
BYBLOCK
 10
1420.44446039788
 20
1143.0777517865019
 30
0.0
 11
1420.44446039788
 21
717.57775178650252
 31
0.0
  0
LINE
  5
769
  8
OUTLINE
  6
CONTINUOUS
 10
1154.8719063978799
 20
1145.0777517865019
 30
0.0
 11
1154.8719063978799
 21
323.07775178650252
 31
0.0
  0
LINE
  5
76A
  8
DETAIL
  6
CONTINOUS
 10
1154.8719063978799
 20
323.07775178650252
 30
0.0
 11
1154.8719063978799
 21
1145.0777517865019
 31
0.0
  0
LINE
  5
76B
  8
SIZE
  6
BYBLOCK
 10
1420.44446039788
 20
292.07775178650252
 30
0.0
 11
1420.44446039788
 21
717.57775178650252
 31
0.0
  0
LINE
  5
76C
  8
NOTE
  6
CONTINUOUS
 10
1124.871906397881
 20
323.07775178650252
 30
0.0
 11
1231.96219639788
 21
428.57361078650251
 31
0.0
  0
LINE
  5
76D
  8
NOTE
  6
CONTINOUS
 10
1104.871906397881
 20
323.07775178650252
 30
0.0
 11
1144.871906397881
 21
323.07775178650252
 31
0.0
  0
POLYLINE
  5
76E
  8
NOTE
  6
CONTINUOUS
 66
     1
 10
0.0
 20
0.0
 30
0.0
  0
VERTEX
  5
E86
  8
NOTE
  6
CONTINUOUS
 10
1145.1311663978811
 20
357.56778478650261
 30
0.0
  0
VERTEX
  5
E87
  8
NOTE
  6
CONTINUOUS
 10
1124.871906397881
 20
323.07775178650252
 30
0.0
  0
VERTEX
  5
E88
  8
NOTE
  6
CONTINUOUS
 10
1159.661957397881
 20
342.81736678650259
 30
0.0
  0
SEQEND
  5
E89
  8
NOTE
  6
CONTINUOUS
  0
LINE
  5
773
  8
NOTE
  6
CONTINOUS
 10
1124.871906397881
 20
303.07775178650257
 30
0.0
 11
1124.871906397881
 21
343.07775178650252
 31
0.0
  0
TEXT
  5
774
  8
NOTE
  6
CONTINUOUS
 10
1251.9401213978811
 20
438.44475178650248
 30
0.0
 40
64.0
  1
D
 41
0.9
  0
LINE
  5
775
  8
NOTE
  6
CONTINUOUS
 10
1231.96219639788
 20
428.57361078650251
 30
0.0
 11
1302.198482397881
 21
428.57361078650251
 31
0.0
  0
TEXT
  5
776
  8
NOTE
  6
CONTINUOUS
 10
1060.7086543978789
 20
635.63939678650252
 30
0.0
 40
64.0
  1
RG
 41
0.9
  0
LINE
  5
777
  8
NOTE
  6
CONTINUOUS
 10
1040.77148939788
 20
625.20405378650253
 30
0.0
 11
1180.455218397881
 21
625.20405378650253
 31
0.0
  0
TEXT
  5
778
  8
NOTE
  6
CONTINUOUS
 10
1060.92620539788
 20
822.17499278650257
 30
0.0
 40
64.0
  1
RL
 41
0.9
  0
LINE
  5
779
  8
NOTE
  6
CONTINUOUS
 10
1040.77148939788
 20
812.30385178650226
 30
0.0
 11
1170.35759939788
 21
812.30385178650226
 31
0.0
  0
TEXT
  5
77A
  8
SIZE
  6
BYBLOCK
 10
1388.44446039788
 20
643.52060878650252
 30
0.0
 40
64.0
  1
855
 50
90.0
 41
0.9
  0
LINE
  5
77B
  8
SIZE
  6
BYBLOCK
 10
1154.87190739788
 20
1165.0777517865019
 30
0.0
 11
1154.87190739788
 21
1422.5027517865019
 31
0.0
  0
LINE
  5
77C
  8
SIZE
  6
BYBLOCK
 10
1203.87190739788
 20
1145.0777517865019
 30
0.0
 11
1450.44446039788
 21
1145.0777517865019
 31
0.0
  0
CIRCLE
  5
77D
  8
SIZE
  6
CONTINUOUS
 10
1420.44446039788
 20
1145.0777517865019
 30
0.0
 40
6.0
  0
CIRCLE
  5
77E
  8
SIZE
  6
CONTINUOUS
 10
1154.87190739788
 20
1392.5027517865019
 30
0.0
 40
6.0
  0
ENDBLK
  5
77F
  8
0
  0
BLOCK
  8
0
  2
_ORIGIN
 70
     0
 10
0.0
 20
0.0
 30
0.0
  3
_ORIGIN
  1

  0
CIRCLE
  5
782
  8
0
  6
BYBLOCK
 62
     0
 10
0.0
 20
0.0
 30
0.0
 40
0.5
  0
LINE
  5
783
  8
0
  6
BYBLOCK
 62
     0
 10
0.0
 20
0.0
 30
0.0
 11
-1.0
 21
0.0
 31
0.0
  0
ENDBLK
  5
784
  8
0
  0
BLOCK
  8
0
  2
_ORIGIN2
 70
     0
 10
0.0
 20
0.0
 30
0.0
  3
_ORIGIN2
  1

  0
CIRCLE
  5
787
  8
0
  6
BYBLOCK
 62
     0
 10
0.0
 20
0.0
 30
0.0
 40
0.5
  0
CIRCLE
  5
788
  8
0
  6
BYBLOCK
 62
     0
 10
0.0
 20
0.0
 30
0.0
 40
0.25
  0
LINE
  5
789
  8
0
  6
BYBLOCK
 62
     0
 10
-0.5
 20
0.0
 30
0.0
 11
-1.0
 21
0.0
 31
0.0
  0
ENDBLK
  5
78A
  8
0
  0
BLOCK
  8
0
  2
_DOTBLANK
 70
     0
 10
0.0
 20
0.0
 30
0.0
  3
_DOTBLANK
  1

  0
CIRCLE
  5
78D
  8
0
  6
BYBLOCK
 62
     0
 10
0.0
 20
0.0
 30
0.0
 40
0.5
  0
LINE
  5
78E
  8
0
  6
BYBLOCK
 62
     0
 10
-0.5
 20
0.0
 30
0.0
 11
-1.0
 21
0.0
 31
0.0
  0
ENDBLK
  5
78F
  8
0
  0
BLOCK
  8
0
  2
*D6
 70
     1
 10
0.0
 20
0.0
 30
0.0
  3
*D6
  1

  0
LINE
  5
EE6
  8
SIZE
  6
CONTINUOUS
 62
     0
 10
-205.0
 20
1068.9999999999991
 30
0.0
 11
-957.09737186652319
 21
1068.9999999999991
 31
0.0
  0
LINE
  5
EE7
  8
SIZE
  6
CONTINUOUS
 62
     0
 10
-233.0
 20
-0.000000000000449
 30
0.0
 11
-957.09737186652364
 21
-0.0000000000002439
 31
0.0
  0
LINE
  5
EE8
  8
SIZE
  6
CONTINUOUS
 62
     0
 10
-927.0973718665233
 20
1058.9999999999991
 30
0.0
 11
-927.09737186652353
 21
9.9999999999997478
 31
0.0
  0
INSERT
  5
EE9
  8
SIZE
  6
CONTINUOUS
 62
     0
  2
_DOTBLANK
 10
-927.0973718665233
 20
1068.9999999999991
 30
0.0
 41
10.0
 42
10.0
 43
10.0
 50
90.0
  0
INSERT
  5
EEA
  8
SIZE
  6
CONTINUOUS
 62
     0
  2
_DOTBLANK
 10
-927.09737186652353
 20
-0.0000000000002524
 30
0.0
 41
10.0
 42
10.0
 43
10.0
 50
270.0
  0
TEXT
  8
0
  40
64
  5
F0C
  62
0
  72
0
  71
0
 10
-1087.19
 20
421.220
 30
0.000000
  1
1069
  0
POINT
  5
EEC
  8
DEFPOINTS
  6
CONTINUOUS
 62
     0
 10
-185.0
 20
1068.9999999999991
 30
0.0
  0
POINT
  5
EED
  8
DEFPOINTS
  6
CONTINUOUS
 62
     0
 10
-213.0
 20
-0.0000000000004547
 30
0.0
  0
POINT
  5
EEE
  8
DEFPOINTS
  6
CONTINUOUS
 62
     0
 10
-927.09737186652353
 20
-0.0000000000002524
 30
0.0
  0
ENDBLK
  5
CC4
  8
0
  0
BLOCK
  8
0
  2
*D7
 70
     1
 10
0.0
 20
0.0
 30
0.0
  3
*D7
  1

  0
LINE
  5
EEF
  8
SIZE
  6
CONTINUOUS
 62
     0
 10
-144.0
 20
440.99999999999949
 30
0.0
 11
-484.09784493948422
 21
440.99999999999949
 31
0.0
  0
LINE
  5
EF0
  8
SIZE
  6
CONTINUOUS
 62
     0
 10
-233.0
 20
-0.000000000000449
 30
0.0
 11
-484.09784493948422
 21
-0.0000000000003779
 31
0.0
  0
LINE
  5
EF1
  8
SIZE
  6
CONTINUOUS
 62
     0
 10
-454.0978449394841
 20
430.9999999999996
 30
0.0
 11
-454.09784493948428
 21
9.9999999999996145
 31
0.0
  0
INSERT
  5
EF2
  8
SIZE
  6
CONTINUOUS
 62
     0
  2
_DOTBLANK
 10
-454.0978449394841
 20
440.99999999999949
 30
0.0
 41
10.0
 42
10.0
 43
10.0
 50
90.0
  0
INSERT
  5
EF3
  8
SIZE
  6
CONTINUOUS
 62
     0
  2
_DOTBLANK
 10
-454.09784493948428
 20
-0.0000000000003864
 30
0.0
 41
10.0
 42
10.0
 43
10.0
 50
270.0
  0
TEXT
  8
0
  40
64
  5
F0D
  62
0
  72
0
  71
0
 10
-614.188
 20
107.220
 30
0.000000
  1
441
  0
POINT
  5
EF5
  8
DEFPOINTS
  6
CONTINUOUS
 62
     0
 10
-124.0
 20
440.99999999999937
 30
0.0
  0
POINT
  5
EF6
  8
DEFPOINTS
  6
CONTINUOUS
 62
     0
 10
-213.0
 20
-0.0000000000004547
 30
0.0
  0
POINT
  5
EF7
  8
DEFPOINTS
  6
CONTINUOUS
 62
     0
 10
-454.09784493948428
 20
-0.0000000000003864
 30
0.0
  0
ENDBLK
  5
CDB
  8
0
  0
BLOCK
  8
0
  2
*D8
 70
     1
 10
0.0
 20
0.0
 30
0.0
  3
*D8
  1

  0
LINE
  5
EF8
  8
SIZE
  6
CONTINUOUS
 62
     0
 10
-165.0
 20
640.00000000046168
 30
0.0
 11
-165.0
 21
603.82404910490004
 31
0.0
  0
LINE
  5
EF9
  8
SIZE
  6
CONTINUOUS
 62
     0
 10
-125.0
 20
486.99999999999932
 30
0.0
 11
-125.0
 21
663.82404910490004
 31
0.0
  0
LINE
  5
EFA
  8
SIZE
  6
CONTINUOUS
 62
     0
 10
-155.0
 20
633.82404910490004
 30
0.0
 11
-135.0
 21
633.82404910490004
 31
0.0
  0
LINE
  5
EFB
  8
SIZE
  6
CONTINUOUS
 62
     0
 10
-125.0
 20
633.82404910490004
 30
0.0
 11
-21.562857142857151
 21
633.82404910490004
 31
0.0
  0
INSERT
  5
EFC
  8
SIZE
  6
CONTINUOUS
 62
     0
  2
_DOTBLANK
 10
-165.0
 20
633.82404910490004
 30
0.0
 41
10.0
 42
10.0
 43
10.0
 50
180.0
  0
INSERT
  5
EFD
  8
SIZE
  6
CONTINUOUS
 62
     0
  2
_DOTBLANK
 10
-125.0
 20
633.82404910490004
 30
0.0
 41
10.0
 42
10.0
 43
10.0
  0
TEXT
  8
0
  40
64
  5
F0E
  62
0
  72
0
  71
0
 10
-196.281
 20
552.634
 30
0.000000
  1
40
  0
POINT
  5
EFF
  8
DEFPOINTS
  6
CONTINUOUS
 62
     0
 10
-165.0
 20
660.00000000046168
 30
0.0
  0
POINT
  5
F00
  8
DEFPOINTS
  6
CONTINUOUS
 62
     0
 10
-125.0
 20
466.99999999999932
 30
0.0
  0
POINT
  5
F01
  8
DEFPOINTS
  6
CONTINUOUS
 62
     0
 10
-125.0
 20
633.82404910490004
 30
0.0
  0
ENDBLK
  5
CE9
  8
0
  0
BLOCK
  8
0
  2
*D9
 70
     1
 10
0.0
 20
0.0
 30
0.0
  3
*D9
  1

  0
LINE
  5
F02
  8
SIZE
  6
CONTINUOUS
 62
     0
 10
-165.0
 20
680.00000000046157
 30
0.0
 11
-165.0
 21
777.98900320665405
 31
0.0
  0
LINE
  5
F03
  8
SIZE
  6
CONTINUOUS
 62
     0
 10
-104.0
 20
480.99999999999937
 30
0.0
 11
-103.9999999999999
 21
777.98900320665405
 31
0.0
  0
LINE
  5
F04
  8
SIZE
  6
CONTINUOUS
 62
     0
 10
-155.0
 20
747.98900320665405
 30
0.0
 11
-113.9999999999999
 21
747.98900320665405
 31
0.0
  0
LINE
  5
F05
  8
SIZE
  6
CONTINUOUS
 62
     0
 10
-103.9999999999999
 20
747.98900320665405
 30
0.0
 11
-25.24857142857142
 21
747.98900320665405
 31
0.0
  0
INSERT
  5
F06
  8
SIZE
  6
CONTINUOUS
 62
     0
  2
_DOTBLANK
 10
-165.0
 20
747.98900320665405
 30
0.0
 41
10.0
 42
10.0
 43
10.0
 50
180.0
  0
INSERT
  5
F07
  8
SIZE
  6
CONTINUOUS
 62
     0
  2
_DOTBLANK
 10
-103.9999999999999
 20
747.98900320665405
 30
0.0
 41
10.0
 42
10.0
 43
10.0
  0
TEXT
  8
0
  40
64
  5
F0F
  62
0
  72
0
  71
0
 10
-187.624
 20
666.799
 30
0.000000
  1
61
  0
POINT
  5
F09
  8
DEFPOINTS
  6
CONTINUOUS
 62
     0
 10
-165.0
 20
660.00000000046168
 30
0.0
  0
POINT
  5
F0A
  8
DEFPOINTS
  6
CONTINUOUS
 62
     0
 10
-104.0
 20
460.99999999999937
 30
0.0
  0
POINT
  5
F0B
  8
DEFPOINTS
  6
CONTINUOUS
 62
     0
 10
-103.9999999999999
 20
747.98900320665405
 30
0.0
  0
ENDBLK
  5
CF7
  8
0
  0
BLOCK
  8
0
  2
*D10
 70
     1
 10
0.0
 20
0.0
 30
0.0
  3
*D10
  1

  0
LINE
  5
EDD
  8
SIZE
  6
CONTINUOUS
 62
     0
 10
165.0
 20
1369.9999999999991
 30
0.0
 11
165.0
 21
1695.3903637773369
 31
0.0
  0
LINE
  5
EDE
  8
SIZE
  6
CONTINUOUS
 62
     0
 10
-165.0
 20
1369.9999999999991
 30
0.0
 11
-164.99999999999989
 21
1695.3903637773369
 31
0.0
  0
LINE
  5
EDF
  8
SIZE
  6
CONTINUOUS
 62
     0
 10
155.0
 20
1665.3903637773381
 30
0.0
 11
-154.99999999999989
 21
1665.3903637773381
 31
0.0
  0
INSERT
  5
EE0
  8
SIZE
  6
CONTINUOUS
 62
     0
  2
_DOTBLANK
 10
165.0
 20
1665.3903637773381
 30
0.0
 41
10.0
 42
10.0
 43
10.0
  0
INSERT
  5
EE1
  8
SIZE
  6
CONTINUOUS
 62
     0
  2
_DOTBLANK
 10
-164.99999999999989
 20
1665.3903637773381
 30
0.0
 41
10.0
 42
10.0
 43
10.0
 50
180.0
  0
TEXT
  8
0
  40
64
  5
F10
  62
0
  72
0
  71
0
 10
-128.000
 20
1584.20
 30
0.000000
  1
330
  0
POINT
  5
EE3
  8
DEFPOINTS
  6
CONTINUOUS
 62
     0
 10
165.0
 20
1349.9999999999991
 30
0.0
  0
POINT
  5
EE4
  8
DEFPOINTS
  6
CONTINUOUS
 62
     0
 10
-165.0
 20
1349.9999999999991
 30
0.0
  0
POINT
  5
EE5
  8
DEFPOINTS
  6
CONTINUOUS
 62
     0
 10
-164.99999999999989
 20
1665.3903637773381
 30
0.0
  0
ENDBLK
  5
D1A
  8
0
  0
BLOCK
  8
0
  2
*D11
 70
     1
 10
0.0
 20
0.0
 30
0.0
  3
*D11
  1

  0
LINE
  5
ECB
  8
SIZE
  6
CONTINUOUS
 62
     0
 10
204.0
 20
-20.000000000000451
 30
0.0
 11
203.99999999999989
 21
-500.47583155258138
 31
0.0
  0
LINE
  5
ECC
  8
SIZE
  6
CONTINUOUS
 62
     0
 10
-213.0
 20
-20.000000000000451
 30
0.0
 11
-213.0
 21
-500.47583155258138
 31
0.0
  0
LINE
  5
ECD
  8
SIZE
  6
CONTINUOUS
 62
     0
 10
193.99999999999989
 20
-470.47583155258138
 30
0.0
 11
-203.0
 21
-470.47583155258138
 31
0.0
  0
INSERT
  5
ECE
  8
SIZE
  6
CONTINUOUS
 62
     0
  2
_DOTBLANK
 10
203.99999999999989
 20
-470.47583155258138
 30
0.0
 41
10.0
 42
10.0
 43
10.0
  0
INSERT
  5
ECF
  8
SIZE
  6
CONTINUOUS
 62
     0
  2
_DOTBLANK
 10
-213.0
 20
-470.47583155258138
 30
0.0
 41
10.0
 42
10.0
 43
10.0
 50
180.0
  0
TEXT
  8
0
  40
64
  5
F11
  62
0
  72
0
  71
0
 10
-132.500
 20
-551.666
 30
0.000000
  1
417
  0
POINT
  5
ED1
  8
DEFPOINTS
  6
CONTINUOUS
 62
     0
 10
204.0
 20
-0.0000000000004547
 30
0.0
  0
POINT
  5
ED2
  8
DEFPOINTS
  6
CONTINUOUS
 62
     0
 10
-213.0
 20
-0.0000000000004547
 30
0.0
  0
POINT
  5
ED3
  8
DEFPOINTS
  6
CONTINUOUS
 62
     0
 10
-213.0
 20
-470.47583155258138
 30
0.0
  0
ENDBLK
  5
D26
  8
0
  0
BLOCK
  8
0
  2
*D12
 70
     1
 10
0.0
 20
0.0
 30
0.0
  3
*D12
  1

  0
LINE
  5
EC2
  8
SIZE
  6
CONTINUOUS
 62
     0
 10
184.9999999999994
 20
-40.000000000000441
 30
0.0
 11
184.99999999999929
 21
-364.82880203501009
 31
0.0
  0
LINE
  5
EC3
  8
SIZE
  6
CONTINUOUS
 62
     0
 10
-185.0000000000004
 20
-40.000000000000441
 30
0.0
 11
-185.0000000000004
 21
-364.82880203501009
 31
0.0
  0
LINE
  5
EC4
  8
SIZE
  6
CONTINUOUS
 62
     0
 10
174.99999999999929
 20
-334.82880203501003
 30
0.0
 11
-175.0000000000004
 21
-334.82880203501003
 31
0.0
  0
INSERT
  5
EC5
  8
SIZE
  6
CONTINUOUS
 62
     0
  2
_DOTBLANK
 10
184.99999999999929
 20
-334.82880203501003
 30
0.0
 41
10.0
 42
10.0
 43
10.0
  0
INSERT
  5
EC6
  8
SIZE
  6
CONTINUOUS
 62
     0
  2
_DOTBLANK
 10
-185.0000000000004
 20
-334.82880203501003
 30
0.0
 41
10.0
 42
10.0
 43
10.0
 50
180.0
  0
TEXT
  8
0
  40
64
  5
F12
  62
0
  72
0
  71
0
 10
-128.000
 20
-416.019
 30
0.000000
  1
370
  0
POINT
  5
EC8
  8
DEFPOINTS
  6
CONTINUOUS
 62
     0
 10
184.9999999999994
 20
-20.00000000000043
 30
0.0
  0
POINT
  5
EC9
  8
DEFPOINTS
  6
CONTINUOUS
 62
     0
 10
-185.0000000000004
 20
-20.00000000000043
 30
0.0
  0
POINT
  5
ECA
  8
DEFPOINTS
  6
CONTINUOUS
 62
     0
 10
-185.0000000000004
 20
-334.82880203501003
 30
0.0
  0
ENDBLK
  5
D32
  8
0
  0
BLOCK
  8
0
  2
*D13
 70
     1
 10
0.0
 20
0.0
 30
0.0
  3
*D13
  1

  0
LINE
  5
E93
  8
SIZE
  6
CONTINUOUS
 62
     0
 10
-233.0000000000004
 20
-0.000000000000449
 30
0.0
 11
-1087.765949841513
 21
-0.0000000000002069
 31
0.0
  0
LINE
  5
E94
  8
SIZE
  6
CONTINUOUS
 62
     0
 10
-185.0
 20
1349.9999999999991
 30
0.0
 11
-1087.765949841513
 21
1349.9999999999991
 31
0.0
  0
LINE
  5
E95
  8
SIZE
  6
CONTINUOUS
 62
     0
 10
-1057.765949841513
 20
9.9999999999997851
 30
0.0
 11
-1057.765949841513
 21
1339.9999999999991
 31
0.0
  0
INSERT
  5
E96
  8
SIZE
  6
CONTINUOUS
 62
     0
  2
_DOTBLANK
 10
-1057.765949841513
 20
-0.0000000000002154
 30
0.0
 41
10.0
 42
10.0
 43
10.0
 50
270.0
  0
INSERT
  5
E97
  8
SIZE
  6
CONTINUOUS
 62
     0
  2
_DOTBLANK
 10
-1057.765949841513
 20
1349.9999999999991
 30
0.0
 41
10.0
 42
10.0
 43
10.0
 50
90.0
  0
TEXT
  8
0
  40
64
  5
F13
  62
0
  72
0
  71
0
 10
-1217.86
 20
561.720
 30
0.000000
  1
1350
  0
POINT
  5
E99
  8
DEFPOINTS
  6
CONTINUOUS
 62
     0
 10
-213.0000000000004
 20
-0.0000000000004547
 30
0.0
  0
POINT
  5
E9A
  8
DEFPOINTS
  6
CONTINUOUS
 62
     0
 10
-165.0
 20
1349.9999999999991
 30
0.0
  0
POINT
  5
E9B
  8
DEFPOINTS
  6
CONTINUOUS
 62
     0
 10
-1057.765949841513
 20
1349.9999999999991
 30
0.0
  0
ENDBLK
  5
D5B
  8
0
  0
BLOCK
  8
0
  2
*D14
 70
     1
 10
0.0
 20
0.0
 30
0.0
  3
*D14
  1

  0
LINE
  5
E8A
  8
SIZE
  6
CONTINUOUS
 62
     0
 10
-275.42919599999988
 20
370.99999999999949
 30
0.0
 11
-789.28270031044008
 21
370.9999999999996
 31
0.0
  0
LINE
  5
E8B
  8
SIZE
  6
CONTINUOUS
 62
     0
 10
-275.42919600000027
 20
1005.999999999999
 30
0.0
 11
-789.28270031043996
 21
1005.999999999999
 31
0.0
  0
LINE
  5
E8C
  8
SIZE
  6
CONTINUOUS
 62
     0
 10
-759.28270031044008
 20
380.9999999999996
 30
0.0
 11
-759.28270031043996
 21
995.99999999999909
 31
0.0
  0
INSERT
  5
E8D
  8
SIZE
  6
CONTINUOUS
 62
     0
  2
_DOTBLANK
 10
-759.28270031044008
 20
370.9999999999996
 30
0.0
 41
10.0
 42
10.0
 43
10.0
 50
270.0
  0
INSERT
  5
E8E
  8
SIZE
  6
CONTINUOUS
 62
     0
  2
_DOTBLANK
 10
-759.28270031043996
 20
1005.999999999999
 30
0.0
 41
10.0
 42
10.0
 43
10.0
 50
90.0
  0
TEXT
  8
0
  40
64
  5
F14
  62
0
  72
0
  71
0
 10
-919.373
 20
575.220
 30
0.000000
  1
635
  0
POINT
  5
E90
  8
DEFPOINTS
  6
CONTINUOUS
 62
     0
 10
-255.42919599999999
 20
370.99999999999949
 30
0.0
  0
POINT
  5
E91
  8
DEFPOINTS
  6
CONTINUOUS
 62
     0
 10
-255.42919600000039
 20
1005.999999999999
 30
0.0
  0
POINT
  5
E92
  8
DEFPOINTS
  6
CONTINUOUS
 62
     0
 10
-759.28270031043996
 20
1005.999999999999
 30
0.0
  0
ENDBLK
  5
D67
  8
0
  0
BLOCK
  8
0
  2
*D15
 70
     1
 10
0.0
 20
0.0
 30
0.0
  3
*D15
  1

  0
LINE
  5
EAE
  8
SIZE
  6
CONTINUOUS
 62
     0
 10
-185.0000000000004
 20
-40.000000000000441
 30
0.0
 11
-185.0000000000004
 21
-364.82880203501009
 31
0.0
  0
LINE
  5
EAF
  8
SIZE
  6
CONTINUOUS
 62
     0
 10
-213.0000000000004
 20
-20.000000000000451
 30
0.0
 11
-213.0000000000004
 21
-364.82880203501009
 31
0.0
  0
LINE
  5
EB0
  8
SIZE
  6
CONTINUOUS
 62
     0
 10
-195.0000000000004
 20
-334.82880203501003
 30
0.0
 11
-203.0000000000004
 21
-334.82880203501003
 31
0.0
  0
TEXT
  8
0
  40
64
  5
F15
  62
0
  72
0
  71
0
 10
-404.204
 20
-403.206
 30
0.000000
  1
28
  0
INSERT
  5
EB2
  8
SIZE
  6
CONTINUOUS
 62
     0
  2
_DOTBLANK
 10
-185.0000000000004
 20
-334.82880203501003
 30
0.0
 41
10.0
 42
10.0
 43
10.0
  0
INSERT
  5
EB3
  8
SIZE
  6
CONTINUOUS
 62
     0
  2
_DOTBLANK
 10
-213.0000000000004
 20
-334.82880203501003
 30
0.0
 41
10.0
 42
10.0
 43
10.0
 50
180.0
  0
POINT
  5
EB4
  8
DEFPOINTS
  6
CONTINUOUS
 62
     0
 10
-185.0000000000004
 20
-20.00000000000043
 30
0.0
  0
POINT
  5
EB5
  8
DEFPOINTS
  6
CONTINUOUS
 62
     0
 10
-213.0000000000004
 20
-0.0000000000004547
 30
0.0
  0
POINT
  5
EB6
  8
DEFPOINTS
  6
CONTINUOUS
 62
     0
 10
-213.0000000000004
 20
-334.82880203501003
 30
0.0
  0
ENDBLK
  5
D73
  8
0
  0
BLOCK
  8
0
  2
*D16
 70
     1
 10
0.0
 20
0.0
 30
0.0
  3
*D16
  1

  0
LINE
  5
EA5
  8
SIZE
  6
CONTINUOUS
 62
     0
 10
-233.0
 20
-0.000000000000449
 30
0.0
 11
-789.28270031044008
 21
-0.0000000000002915
 31
0.0
  0
LINE
  5
EA6
  8
SIZE
  6
CONTINUOUS
 62
     0
 10
-215.0
 20
371.00000000046111
 30
0.0
 11
-789.28270031043996
 21
371.00000000046123
 31
0.0
  0
LINE
  5
EA7
  8
SIZE
  6
CONTINUOUS
 62
     0
 10
-759.28270031044008
 20
9.9999999999996998
 30
0.0
 11
-759.28270031043996
 21
361.00000000046128
 31
0.0
  0
INSERT
  5
EA8
  8
SIZE
  6
CONTINUOUS
 62
     0
  2
_DOTBLANK
 10
-759.28270031044008
 20
-0.0000000000003
 30
0.0
 41
10.0
 42
10.0
 43
10.0
 50
270.0
  0
INSERT
  5
EA9
  8
SIZE
  6
CONTINUOUS
 62
     0
  2
_DOTBLANK
 10
-759.28270031043996
 20
371.00000000046123
 30
0.0
 41
10.0
 42
10.0
 43
10.0
 50
90.0
  0
TEXT
  8
0
  40
64
  5
F16
  62
0
  72
0
  71
0
 10
-919.373
 20
72.2200
 30
0.000000
  1
371
  0
POINT
  5
EAB
  8
DEFPOINTS
  6
CONTINUOUS
 62
     0
 10
-213.0
 20
-0.0000000000004547
 30
0.0
  0
POINT
  5
EAC
  8
DEFPOINTS
  6
CONTINUOUS
 62
     0
 10
-195.0
 20
371.00000000046111
 30
0.0
  0
POINT
  5
EAD
  8
DEFPOINTS
  6
CONTINUOUS
 62
     0
 10
-759.28270031043996
 20
371.00000000046123
 30
0.0
  0
ENDBLK
  5
D88
  8
0
  0
BLOCK
  8
0
  2
*D17
 70
     1
 10
0.0
 20
0.0
 30
0.0
  3
*D17
  1

  0
LINE
  5
E9C
  8
SIZE
  6
CONTINUOUS
 62
     0
 10
-233.0
 20
-0.000000000000449
 30
0.0
 11
-639.27149711922266
 21
-0.0000000000003339
 31
0.0
  0
LINE
  5
E9D
  8
SIZE
  6
CONTINUOUS
 62
     0
 10
-160.00000000000031
 20
446.99999999999949
 30
0.0
 11
-639.27149711922254
 21
446.9999999999996
 31
0.0
  0
LINE
  5
E9E
  8
SIZE
  6
CONTINUOUS
 62
     0
 10
-609.27149711922266
 20
9.9999999999996572
 30
0.0
 11
-609.27149711922266
 21
436.9999999999996
 31
0.0
  0
INSERT
  5
E9F
  8
SIZE
  6
CONTINUOUS
 62
     0
  2
_DOTBLANK
 10
-609.27149711922266
 20
-0.0000000000003424
 30
0.0
 41
10.0
 42
10.0
 43
10.0
 50
270.0
  0
INSERT
  5
EA0
  8
SIZE
  6
CONTINUOUS
 62
     0
  2
_DOTBLANK
 10
-609.27149711922266
 20
446.9999999999996
 30
0.0
 41
10.0
 42
10.0
 43
10.0
 50
90.0
  0
TEXT
  8
0
  40
64
  5
F17
  62
0
  72
0
  71
0
 10
-769.361
 20
110.220
 30
0.000000
  1
447
  0
POINT
  5
EA2
  8
DEFPOINTS
  6
CONTINUOUS
 62
     0
 10
-213.0
 20
-0.0000000000004547
 30
0.0
  0
POINT
  5
EA3
  8
DEFPOINTS
  6
CONTINUOUS
 62
     0
 10
-140.00000000000031
 20
446.99999999999949
 30
0.0
  0
POINT
  5
EA4
  8
DEFPOINTS
  6
CONTINUOUS
 62
     0
 10
-609.27149711922266
 20
446.9999999999996
 30
0.0
  0
ENDBLK
  5
D94
  8
0
  0
BLOCK
  8
0
  2
*D18
 70
     1
 10
0.0
 20
0.0
 30
0.0
  3
*D18
  1

  0
LINE
  5
ED4
  8
SIZE
  6
CONTINUOUS
 62
     0
 10
-165.0
 20
1369.9999999999991
 30
0.0
 11
-164.99999999999989
 21
1695.3903637773369
 31
0.0
  0
LINE
  5
ED5
  8
SIZE
  6
CONTINUOUS
 62
     0
 10
-195.0000000000004
 20
782.00000000000034
 30
0.0
 11
-195.00000000000031
 21
1695.3903637773369
 31
0.0
  0
LINE
  5
ED6
  8
SIZE
  6
CONTINUOUS
 62
     0
 10
-174.99999999999989
 20
1665.3903637773381
 30
0.0
 11
-185.00000000000031
 21
1665.3903637773381
 31
0.0
  0
TEXT
  8
0
  40
64
  5
F18
  62
0
  72
0
  71
0
 10
-409.629
 20
1552.11
 30
0.000000
  1
30
  0
INSERT
  5
ED8
  8
SIZE
  6
CONTINUOUS
 62
     0
  2
_DOTBLANK
 10
-164.99999999999989
 20
1665.3903637773381
 30
0.0
 41
10.0
 42
10.0
 43
10.0
  0
INSERT
  5
ED9
  8
SIZE
  6
CONTINUOUS
 62
     0
  2
_DOTBLANK
 10
-195.00000000000031
 20
1665.3903637773381
 30
0.0
 41
10.0
 42
10.0
 43
10.0
 50
180.0
  0
POINT
  5
EDA
  8
DEFPOINTS
  6
CONTINUOUS
 62
     0
 10
-165.0
 20
1349.9999999999991
 30
0.0
  0
POINT
  5
EDB
  8
DEFPOINTS
  6
CONTINUOUS
 62
     0
 10
-195.0000000000004
 20
762.00000000000034
 30
0.0
  0
POINT
  5
EDC
  8
DEFPOINTS
  6
CONTINUOUS
 62
     0
 10
-195.00000000000031
 20
1665.3903637773381
 30
0.0
  0
ENDBLK
  5
DA0
  8
0
  0
BLOCK
  8
0
  2
*D19
 70
     1
 10
0.0
 20
0.0
 30
0.0
  3
*D19
  1

  0
LINE
  5
EB7
  8
SIZE
  6
CONTINUOUS
 62
     0
 10
184.9999999999994
 20
-40.000000000000441
 30
0.0
 11
184.99999999999929
 21
-364.82880203501009
 31
0.0
  0
LINE
  5
EB8
  8
SIZE
  6
CONTINUOUS
 62
     0
 10
204.0
 20
-20.000000000000451
 30
0.0
 11
203.99999999999989
 21
-364.82880203501009
 31
0.0
  0
LINE
  5
EB9
  8
SIZE
  6
CONTINUOUS
 62
     0
 10
174.99999999999929
 20
-334.82880203501003
 30
0.0
 11
164.99999999999929
 21
-334.82880203501003
 31
0.0
  0
LINE
  5
EBA
  8
SIZE
  6
CONTINUOUS
 62
     0
 10
213.99999999999989
 20
-334.82880203501003
 30
0.0
 11
223.99999999999989
 21
-334.82880203501003
 31
0.0
  0
TEXT
  8
0
  40
64
  5
F19
  62
0
  72
0
  71
0
 10
140.099
 20
-406.280
 30
0.000000
  1
19
  0
LINE
  5
EBC
  8
SIZE
  6
CONTINUOUS
 62
     0
 10
184.99999999999929
 20
-334.82880203501003
 30
0.0
 11
203.99999999999989
 21
-334.82880203501003
 31
0.0
  0
INSERT
  5
EBD
  8
SIZE
  6
CONTINUOUS
 62
     0
  2
_DOTBLANK
 10
184.99999999999929
 20
-334.82880203501003
 30
0.0
 41
10.0
 42
10.0
 43
10.0
  0
INSERT
  5
EBE
  8
SIZE
  6
CONTINUOUS
 62
     0
  2
_DOTBLANK
 10
203.99999999999989
 20
-334.82880203501003
 30
0.0
 41
10.0
 42
10.0
 43
10.0
 50
180.0
  0
POINT
  5
EBF
  8
DEFPOINTS
  6
CONTINUOUS
 62
     0
 10
184.9999999999994
 20
-20.00000000000043
 30
0.0
  0
POINT
  5
EC0
  8
DEFPOINTS
  6
CONTINUOUS
 62
     0
 10
204.0
 20
-0.0000000000004547
 30
0.0
  0
POINT
  5
EC1
  8
DEFPOINTS
  6
CONTINUOUS
 62
     0
 10
203.99999999999989
 20
-334.82880203501003
 30
0.0
  0
ENDBLK
  5
DAE
  8
0
  0
ENDSEC
  0
SECTION
  2
ENTITIES
  0
TEXT
  5
C62
  8
ETC
  6
CONTINUOUS
 10
991.79652086602073
 20
-628.93729948487385
 30
0.0
 40
64.0
  1
室外機
 41
0.9
  0
TEXT
  5
C63
  8
ETC
  6
CONTINUOUS
 10
979.97377686602056
 20
-509.77069848487361
 30
0.0
 40
64.0
  1
SMPU2954
 41
0.9
  0
DIMENSION
  5
C65
  8
SIZE
  6
CONTINUOUS
  2
*D14
 10
-759.28270031043996
 20
1005.999999999999
 30
0.0
 11
-791.37270031044034
 21
688.49999999999909
 31
0.0
 70
     0
 13
-255.42919599999999
 23
370.99999999999949
 33
0.0
 14
-255.42919600000039
 24
1005.999999999999
 34
0.0
 50
90.0
1001
ACAD
1000
DSTYLE
1002
{
1070
     6
1000
DOTBLANK
1070
     7
1000
DOTBLANK
1070
    41
1040
10.0
1070
    42
1040
20.0
1070
    43
1040
200.0
1070
    44
1040
30.0
1070
    73
1070
     0
1070
    74
1070
     0
1070
    77
1070
     1
1070
    78
1070
     8
1070
   140
1040
64.0
1070
   172
1070
     1
1070
   173
1070
     1
1002
}
  0
LINE
  5
C66
  8
DETAIL
  6
CONTINUOUS
 10
-195.0
 20
82.00000000046019
 30
0.0
 11
-195.0000000000004
 21
660.00000000046168
 31
0.0
  0
LINE
  5
C67
  8
BASIS
  6
DASHDOT
 10
0.0
 20
-50.635823000000528
 30
0.0
 11
0.0
 21
1419.653931575617
 31
0.0
  0
DIMENSION
  5
C68
  8
SIZE
  6
CONTINUOUS
  2
*D13
 10
-1057.765949841513
 20
1349.9999999999991
 30
0.0
 11
-1089.8559498415129
 21
674.99999999999955
 31
0.0
 70
     0
 13
-213.0000000000004
 23
-0.0000000000004547
 33
0.0
 14
-165.0
 24
1349.9999999999991
 34
0.0
 50
90.0
1001
ACAD
1000
DSTYLE
1002
{
1070
     6
1000
DOTBLANK
1070
     7
1000
DOTBLANK
1070
    41
1040
10.0
1070
    42
1040
20.0
1070
    43
1040
200.0
1070
    44
1040
30.0
1070
    73
1070
     0
1070
    74
1070
     0
1070
    77
1070
     1
1070
    78
1070
     8
1070
   140
1040
64.0
1070
   172
1070
     1
1070
   173
1070
     1
1002
}
  0
LINE
  5
C69
  8
DETAIL
  6
CONTINOUS
 10
-165.0
 20
32.999999999999538
 30
0.0
 11
-165.0
 21
1349.9999999999991
 31
0.0
  0
LINE
  5
C6A
  8
DETAIL
  6
CONTINOUS
 10
165.0
 20
32.999999999999538
 30
0.0
 11
165.0
 21
1349.9999999999991
 31
0.0
  0
LINE
  5
C6B
  8
NOTE
  6
CONTINOUS
 10
-104.0
 20
460.99999999999937
 30
0.0
 11
-104.0
 21
420.99999999999937
 31
0.0
  0
LINE
  5
C6C
  8
NOTE
  6
CONTINUOUS
 10
-104.0
 20
440.99999999999937
 30
0.0
 11
-78.320188402749906
 21
410.3316562801906
 31
0.0
  0
LINE
  5
C6D
  8
NOTE
  6
CONTINUOUS
 10
213.58790422870419
 20
218.1328936536292
 30
0.0
 11
-104.0
 21
440.99999999999937
 31
0.0
  0
DIMENSION
  5
C6E
  8
SIZE
  6
CONTINUOUS
  2
*D17
 10
-609.27149711922266
 20
446.9999999999996
 30
0.0
 11
-641.36149711922269
 21
223.49999999999949
 31
0.0
 70
     0
 13
-213.0
 23
-0.0000000000004547
 33
0.0
 14
-140.00000000000031
 24
446.99999999999949
 34
0.0
 50
90.0
1001
ACAD
1000
DSTYLE
1002
{
1070
     6
1000
DOTBLANK
1070
     7
1000
DOTBLANK
1070
    41
1040
10.0
1070
    42
1040
20.0
1070
    43
1040
200.0
1070
    44
1040
30.0
1070
    73
1070
     0
1070
    74
1070
     0
1070
    77
1070
     1
1070
    78
1070
     8
1070
   140
1040
64.0
1070
   172
1070
     1
1070
   173
1070
     1
1002
}
  0
LINE
  5
C70
  8
NOTE
  6
CONTINUOUS
 10
984.87190399999884
 20
-290.07775400000031
 30
0.0
 11
405.06510199999929
 21
-290.07775400000031
 31
0.0
  0
TEXT
  5
C71
  8
NOTE
  6
CONTINUOUS
 10
430.29731357142907
 20
-274.97545300000041
 30
0.0
 40
64.0
  1
AH 2-U cut
 41
0.9
  0
DIMENSION
  5
C72
  8
SIZE
  6
CONTINUOUS
  2
*D16
 10
-759.28270031043996
 20
371.00000000046123
 30
0.0
 11
-791.37270031044022
 21
185.50000000023039
 31
0.0
 70
     0
 13
-213.0
 23
-0.0000000000004547
 33
0.0
 14
-195.0
 24
371.00000000046111
 34
0.0
 50
90.0
1001
ACAD
1000
DSTYLE
1002
{
1070
     6
1000
DOTBLANK
1070
     7
1000
DOTBLANK
1070
    41
1040
10.0
1070
    42
1040
20.0
1070
    43
1040
200.0
1070
    44
1040
30.0
1070
    73
1070
     0
1070
    74
1070
     0
1070
    77
1070
     1
1070
    78
1070
     8
1070
   140
1040
64.0
1070
   172
1070
     1
1070
   173
1070
     1
1002
}
  0
LINE
  5
C73
  8
NOTE
  6
CONTINUOUS
 10
-405.06510200000019
 20
-290.07775400000031
 30
0.0
 11
-185.0000000000004
 21
-0.0000000000004547
 31
0.0
  0
DIMENSION
  5
C74
  8
SIZE
  6
CONTINUOUS
  2
*D15
 10
-213.0000000000004
 20
-334.82880203501003
 30
0.0
 11
-276.20437936489361
 21
-289.92589345803748
 31
0.0
 70
   128
 13
-185.0000000000004
 23
-20.00000000000043
 33
0.0
 14
-213.0000000000004
 24
-0.0000000000004547
 34
0.0
 50
180.0
1001
ACAD
1000
DSTYLE
1002
{
1070
     6
1000
DOTBLANK
1070
     7
1000
DOTBLANK
1070
    41
1040
10.0
1070
    42
1040
20.0
1070
    43
1040
200.0
1070
    44
1040
30.0
1070
    73
1070
     0
1070
    74
1070
     0
1070
    77
1070
     1
1070
    78
1070
     8
1070
   140
1040
64.0
1070
   172
1070
     1
1070
   173
1070
     1
1002
}
  0
LINE
  5
C75
  8
NOTE
  6
CONTINUOUS
 10
405.06510199999929
 20
-290.07775400000031
 30
0.0
 11
184.9999999999994
 21
-0.0000000000004547
 31
0.0
  0
DIMENSION
  5
C76
  8
SIZE
  6
CONTINUOUS
  2
*D19
 10
203.99999999999989
 20
-334.82880203501003
 30
0.0
 11
268.09861357862792
 21
-293.00026934666312
 31
0.0
 70
   128
 13
184.9999999999994
 23
-20.00000000000043
 33
0.0
 14
204.0
 24
-0.0000000000004547
 34
0.0
 50
180.0
1001
ACAD
1000
DSTYLE
1002
{
1070
     6
1000
DOTBLANK
1070
     7
1000
DOTBLANK
1070
    41
1040
10.0
1070
    42
1040
20.0
1070
    43
1040
200.0
1070
    44
1040
30.0
1070
    73
1070
     0
1070
    74
1070
     0
1070
    77
1070
     1
1070
    78
1070
     8
1070
   140
1040
64.0
1070
   172
1070
     1
1070
   173
1070
     1
1002
}
  0
DIMENSION
  5
C77
  8
SIZE
  6
CONTINUOUS
  2
*D12
 10
-185.0000000000004
 20
-334.82880203501003
 30
0.0
 11
-0.000000000000538
 21
-302.73880203501
 31
0.0
 70
     0
 13
184.9999999999994
 23
-20.00000000000043
 33
0.0
 14
-185.0000000000004
 24
-20.00000000000043
 34
0.0
 50
180.0
1001
ACAD
1000
DSTYLE
1002
{
1070
     6
1000
DOTBLANK
1070
     7
1000
DOTBLANK
1070
    41
1040
10.0
1070
    42
1040
20.0
1070
    43
1040
200.0
1070
    44
1040
30.0
1070
    73
1070
     0
1070
    74
1070
     0
1070
    77
1070
     1
1070
    78
1070
     8
1070
   140
1040
64.0
1070
   172
1070
     1
1070
   173
1070
     1
1002
}
  0
DIMENSION
  5
C78
  8
SIZE
  6
CONTINUOUS
  2
*D11
 10
-213.0
 20
-470.47583155258138
 30
0.0
 11
-4.5000000000000258
 21
-438.38583155258141
 31
0.0
 70
     0
 13
204.0
 23
-0.0000000000004547
 33
0.0
 14
-213.0
 24
-0.0000000000004547
 34
0.0
 50
180.0
1001
ACAD
1000
DSTYLE
1002
{
1070
     6
1000
DOTBLANK
1070
     7
1000
DOTBLANK
1070
    41
1040
10.0
1070
    42
1040
20.0
1070
    43
1040
200.0
1070
    44
1040
30.0
1070
    73
1070
     0
1070
    74
1070
     0
1070
    77
1070
     1
1070
    78
1070
     8
1070
   140
1040
64.0
1070
   172
1070
     1
1070
   173
1070
     1
1002
}
  0
LINE
  5
C79
  8
NOTE
  6
CONTINOUS
 10
164.9999999999994
 20
-0.0000000000004547
 30
0.0
 11
204.9999999999994
 21
-0.0000000000004547
 31
0.0
  0
CIRCLE
  5
C7A
  8
FIX
  6
CONTINUOUS
 10
180.0
 20
-0.0000000000004547
 30
0.0
 40
40.0
  0
LINE
  5
C7B
  8
DETAIL
  6
CONTINOUS
 10
-213.0000000000004
 20
32.999999999999538
 30
0.0
 11
204.0
 21
32.999999999999538
 31
0.0
  0
LINE
  5
C7C
  8
DETAIL
  6
CONTINOUS
 10
-213.0
 20
-0.0000000000004547
 30
0.0
 11
204.0
 21
-0.0000000000004547
 31
0.0
  0
LINE
  5
C7D
  8
NOTE
  6
CONTINOUS
 10
184.9999999999994
 20
-20.00000000000043
 30
0.0
 11
184.9999999999994
 21
19.999999999999542
 31
0.0
  0
LINE
  5
C7E
  8
NOTE
  6
CONTINUOUS
 10
184.9999999999994
 20
-0.0000000000004547
 30
0.0
 11
200.10423999999941
 21
-37.03865500000029
 31
0.0
  0
LINE
  5
C7F
  8
NOTE
  6
CONTINUOUS
 10
184.9999999999994
 20
-0.0000000000004547
 30
0.0
 11
216.59998299999961
 21
-24.52429500000062
 31
0.0
  0
LINE
  5
C80
  8
DETAIL
  6
CONTINOUS
 10
204.0
 20
-0.0000000000004547
 30
0.0
 11
204.0
 21
32.999999999999538
 31
0.0
  0
TEXT
  5
C81
  8
NOTE
  6
CONTINUOUS
 10
220.83566875070639
 20
233.9322089022603
 30
0.0
 40
64.0
  1
RG%%C15.88
 41
0.9
  0
LINE
  5
C82
  8
NOTE
  6
CONTINUOUS
 10
616.74467075567497
 20
218.1328936536292
 30
0.0
 11
213.58790422870419
 21
218.1328936536292
 31
0.0
  0
POINT
  5
C83
  8
ARRANGE
  6
CONTINUOUS
 10
0.0
 20
-0.0000000000004547
 30
0.0
  0
CIRCLE
  5
C84
  8
ARRANGE
  6
CONTINUOUS
 10
0.0
 20
-0.0000000000004547
 30
0.0
 40
40.0
  0
CIRCLE
  5
C85
  8
FIX
  6
CONTINUOUS
 10
-185.0000000000004
 20
-0.0000000000004547
 30
0.0
 40
40.0
  0
LINE
  5
C86
  8
DETAIL
  6
CONTINUOUS
 10
-195.0
 20
82.00000000046019
 30
0.0
 11
-165.0
 21
82.00000000046019
 31
0.0
  0
LINE
  5
C87
  8
DETAIL
  6
CONTINOUS
 10
-213.0
 20
-0.0000000000004547
 30
0.0
 11
-213.0000000000004
 21
32.999999999999538
 31
0.0
  0
LINE
  5
C88
  8
NOTE
  6
CONTINUOUS
 10
-185.0000000000004
 20
-0.0000000000004547
 30
0.0
 11
-200.1042400000004
 21
-37.03865500000029
 31
0.0
  0
LINE
  5
C89
  8
NOTE
  6
CONTINOUS
 10
-185.0000000000004
 20
-20.00000000000043
 30
0.0
 11
-185.0000000000004
 21
19.999999999999542
 31
0.0
  0
LINE
  5
C8A
  8
NOTE
  6
CONTINOUS
 10
-205.0000000000004
 20
-0.0000000000004547
 30
0.0
 11
-165.00000000000031
 21
-0.0000000000004547
 31
0.0
  0
LINE
  5
C8B
  8
NOTE
  6
CONTINUOUS
 10
-185.0000000000004
 20
-0.0000000000004547
 30
0.0
 11
-216.59998300000041
 21
-24.52429500000062
 31
0.0
  0
LINE
  5
C8C
  8
BASIS
  6
DASHDOT
 10
-255.42919599999999
 20
370.99999999999949
 30
0.0
 11
-105.7262629999998
 21
370.99999999999949
 31
0.0
  0
TEXT
  5
C8D
  8
NOTE
  6
CONTINUOUS
 10
-975.09159871428574
 20
-274.97545300000041
 30
0.0
 40
64.0
  1
AH 2-12×36
 41
0.9
  0
LINE
  5
C8E
  8
NOTE
  6
CONTINUOUS
 10
-989.87190399999974
 20
-290.07775400000031
 30
0.0
 11
-410.06510199999991
 21
-290.07775400000031
 31
0.0
  0
DIMENSION
  5
C8F
  8
SIZE
  6
CONTINUOUS
  2
*D18
 10
-195.00000000000031
 20
1665.3903637773381
 30
0.0
 11
-281.62857142857172
 21
1665.3903637773381
 31
0.0
 70
   128
 13
-165.0
 23
1349.9999999999991
 33
0.0
 14
-195.0000000000004
 24
762.00000000000034
 34
0.0
 50
180.0
1001
ACAD
1000
DSTYLE
1002
{
1070
     6
1000
DOTBLANK
1070
     7
1000
DOTBLANK
1070
    41
1040
10.0
1070
    42
1040
20.0
1070
    43
1040
200.0
1070
    44
1040
30.0
1070
    73
1070
     0
1070
    74
1070
     0
1070
    77
1070
     1
1070
    78
1070
     8
1070
   140
1040
64.0
1070
   172
1070
     1
1070
   173
1070
     1
1002
}
  0
DIMENSION
  5
C90
  8
SIZE
  6
CONTINUOUS
  2
*D10
 10
-164.99999999999989
 20
1665.3903637773381
 30
0.0
 11
0.0000000000000304
 21
1697.480363777338
 31
0.0
 70
     0
 13
165.0
 23
1349.9999999999991
 33
0.0
 14
-165.0
 24
1349.9999999999991
 34
0.0
 50
180.0
1001
ACAD
1000
DSTYLE
1002
{
1070
     6
1000
DOTBLANK
1070
     7
1000
DOTBLANK
1070
    41
1040
10.0
1070
    42
1040
20.0
1070
    43
1040
200.0
1070
    44
1040
30.0
1070
    73
1070
     0
1070
    74
1070
     0
1070
    77
1070
     1
1070
    78
1070
     8
1070
   140
1040
64.0
1070
   172
1070
     1
1070
   173
1070
     1
1002
}
  0
LINE
  5
C93
  8
DETAIL
  6
CONTINUOUS
 10
-195.0000000000004
 20
717.0000000004602
 30
0.0
 11
-195.00000000000071
 21
1295.00000000046
 31
0.0
  0
LINE
  5
C94
  8
NOTE
  6
CONTINOUS
 10
-165.0
 20
1088.9999999999991
 30
0.0
 11
-165.0
 21
1048.9999999999991
 31
0.0
  0
LINE
  5
C95
  8
NOTE
  6
CONTINUOUS
 10
-165.0
 20
1068.9999999999991
 30
0.0
 11
-128.3963547181929
 21
1085.129884756878
 31
0.0
  0
LINE
  5
C96
  8
NOTE
  6
CONTINUOUS
 10
-165.0
 20
1068.9999999999991
 30
0.0
 11
-141.36525684359171
 21
1101.270712523552
 31
0.0
  0
LINE
  5
C97
  8
NOTE
  6
CONTINUOUS
 10
223.9952859049238
 20
1381.5516088357399
 30
0.0
 11
-165.0
 21
1068.9999999999991
 31
0.0
  0
LINE
  5
C98
  8
NOTE
  6
CONTINUOUS
 10
180.16427505732511
 20
692.19470693964035
 30
0.0
 11
-125.0
 21
446.99999999999949
 31
0.0
  0
TEXT
  5
C99
  8
NOTE
  6
CONTINUOUS
 10
217.14165339232201
 20
710.6519680166607
 30
0.0
 40
64.0
  1
RL%%C9.52
 41
0.9
  0
LINE
  5
C9A
  8
NOTE
  6
CONTINUOUS
 10
180.16427505732511
 20
692.19470693964035
 30
0.0
 11
558.87183869953003
 21
692.19470693964035
 31
0.0
  0
LINE
  5
C9B
  8
NOTE
  6
CONTINOUS
 10
-125.0
 20
466.99999999999932
 30
0.0
 11
-125.0
 21
426.99999999999949
 31
0.0
  0
LINE
  5
C9C
  8
NOTE
  6
CONTINOUS
 10
-124.0
 20
440.99999999999937
 30
0.0
 11
-84.000000000000057
 21
440.99999999999937
 31
0.0
  0
LINE
  5
C9D
  8
NOTE
  6
CONTINOUS
 10
-145.0
 20
446.99999999999949
 30
0.0
 11
-105.0
 21
446.99999999999949
 31
0.0
  0
LINE
  5
C9E
  8
NOTE
  6
CONTINUOUS
 10
-125.0
 20
446.99999999999949
 30
0.0
 11
-101.36525684359199
 21
479.27071252355478
 31
0.0
  0
LINE
  5
C9F
  8
NOTE
  6
CONTINUOUS
 10
-104.0
 20
440.99999999999937
 30
0.0
 11
-66.426459326506176
 21
427.28034212873229
 31
0.0
  0
LINE
  5
CA0
  8
NOTE
  6
CONTINUOUS
 10
-125.0
 20
446.99999999999949
 30
0.0
 11
-88.396354718193109
 21
463.12988475687962
 31
0.0
  0
LINE
  5
CA1
  8
DETAIL
  6
CONTINUOUS
 10
-195.0000000000004
 20
717.0000000004602
 30
0.0
 11
-165.00000000000031
 21
717.0000000004602
 31
0.0
  0
LINE
  5
CA2
  8
DETAIL
  6
CONTINUOUS
 10
-195.0000000000004
 20
660.00000000046168
 30
0.0
 11
-165.0
 21
660.00000000046168
 31
0.0
  0
LINE
  5
CA3
  8
BASIS
  6
DASHDOT
 10
-255.42919600000039
 20
1005.999999999999
 30
0.0
 11
-105.7262630000004
 21
1005.999999999999
 31
0.0
  0
LINE
  5
CA4
  8
NOTE
  6
CONTINOUS
 10
-185.0
 20
1068.9999999999991
 30
0.0
 11
-145.0
 21
1068.9999999999991
 31
0.0
  0
TEXT
  5
CA5
  8
NOTE
  6
CONTINUOUS
 10
237.0023189242763
 20
1396.65390983574
 30
0.0
 40
64.0
  1
EL,CL
 41
0.9
  0
LINE
  5
CA6
  8
NOTE
  6
CONTINUOUS
 10
468.46833820998989
 20
1381.5516088357399
 30
0.0
 11
223.9952859049238
 21
1381.5516088357399
 31
0.0
  0
LINE
  5
CA7
  8
DETAIL
  6
CONTINUOUS
 10
165.00000000000031
 20
1349.9999999999991
 30
0.0
 11
-165.00000000000031
 21
1349.9999999999991
 31
0.0
  0
LINE
  5
CA8
  8
DETAIL
  6
CONTINUOUS
 10
-195.00000000000071
 20
1295.00000000046
 30
0.0
 11
-165.00000000000031
 21
1295.00000000046
 31
0.0
  0
DIMENSION
  5
CB8
  8
SIZE
  6
CONTINUOUS
  2
*D6
 10
-927.09737186652353
 20
-0.0000000000002524
 30
0.0
 11
-959.18737186652345
 21
534.49999999999955
 31
0.0
 70
     0
 13
-185.0
 23
1068.9999999999991
 33
0.0
 14
-213.0
 24
-0.0000000000004547
 34
0.0
 50
90.0
1001
ACAD
1000
DSTYLE
1002
{
1070
   287
1070
     3
1070
     6
1000
DOTBLANK
1070
     7
1000
DOTBLANK
1070
    41
1040
10.0
1070
    42
1040
20.0
1070
    43
1040
200.0
1070
    44
1040
30.0
1070
    73
1070
     0
1070
    74
1070
     0
1070
    77
1070
     1
1070
    78
1070
     8
1070
   140
1040
64.0
1070
   172
1070
     1
1070
   173
1070
     1
1070
   275
1070
     0
1070
   279
1070
     0
1070
   284
1070
     0
1070
   285
1070
     0
1070
   286
1070
     0
1002
}
  0
DIMENSION
  5
CCF
  8
SIZE
  6
CONTINUOUS
  2
*D7
 10
-454.09784493948428
 20
-0.0000000000003864
 30
0.0
 11
-486.18784493948431
 21
220.49999999999949
 31
0.0
 70
     0
 13
-124.0
 23
440.99999999999937
 33
0.0
 14
-213.0
 24
-0.0000000000004547
 34
0.0
 50
90.0
1001
ACAD
1000
DSTYLE
1002
{
1070
   287
1070
     3
1070
     6
1000
DOTBLANK
1070
     7
1000
DOTBLANK
1070
    41
1040
10.0
1070
    42
1040
20.0
1070
    43
1040
200.0
1070
    44
1040
30.0
1070
    73
1070
     0
1070
    74
1070
     0
1070
    77
1070
     1
1070
    78
1070
     8
1070
   140
1040
64.0
1070
   172
1070
     1
1070
   173
1070
     1
1070
   275
1070
     0
1070
   279
1070
     0
1070
   284
1070
     0
1070
   285
1070
     0
1070
   286
1070
     0
1002
}
  0
DIMENSION
  5
CDC
  8
SIZE
  6
CONTINUOUS
  2
*D8
 10
-125.0
 20
633.82404910490004
 30
0.0
 11
-68.281428571428563
 21
665.91404910490007
 31
0.0
 70
     0
 13
-165.0
 23
660.00000000046168
 33
0.0
 14
-125.0
 24
466.99999999999932
 34
0.0
1001
ACAD
1000
DSTYLE
1002
{
1070
   287
1070
     3
1070
     6
1000
DOTBLANK
1070
     7
1000
DOTBLANK
1070
    41
1040
10.0
1070
    42
1040
20.0
1070
    43
1040
200.0
1070
    44
1040
30.0
1070
    73
1070
     0
1070
    74
1070
     0
1070
    77
1070
     1
1070
    78
1070
     8
1070
   140
1040
64.0
1070
   172
1070
     1
1070
   173
1070
     1
1070
   275
1070
     0
1070
   279
1070
     0
1070
   284
1070
     0
1070
   285
1070
     0
1070
   286
1070
     0
1002
}
  0
DIMENSION
  5
CEA
  8
SIZE
  6
CONTINUOUS
  2
*D9
 10
-103.9999999999999
 20
747.98900320665405
 30
0.0
 11
-59.624285714285712
 21
780.07900320665419
 31
0.0
 70
     0
 13
-165.0
 23
660.00000000046168
 33
0.0
 14
-104.0
 24
460.99999999999937
 34
0.0
1001
ACAD
1000
DSTYLE
1002
{
1070
   287
1070
     3
1070
     6
1000
DOTBLANK
1070
     7
1000
DOTBLANK
1070
    41
1040
10.0
1070
    42
1040
20.0
1070
    43
1040
200.0
1070
    44
1040
30.0
1070
    73
1070
     0
1070
    74
1070
     0
1070
    77
1070
     1
1070
    78
1070
     8
1070
   140
1040
64.0
1070
   172
1070
     1
1070
   173
1070
     1
1070
   275
1070
     0
1070
   279
1070
     0
1070
   284
1070
     0
1070
   285
1070
     0
1070
   286
1070
     0
1002
}
  0
LINE
  5
E31
  8
OUTLINE
  6
CONTINUOUS
 10
165.0000000000006
 20
1349.9999999999991
 30
0.0
 11
-165.0
 21
1349.9999999999991
 31
0.0
  0
LINE
  5
E32
  8
OUTLINE
  6
CONTINOUS
 10
-212.9999999999996
 20
-0.0000000000004547
 30
0.0
 11
204.00000000000031
 21
-0.0000000000004547
 31
0.0
  0
LINE
  5
E33
  8
OUTLINE
  6
CONTINOUS
 10
-213.00000000000011
 20
32.999999999999538
 30
0.0
 11
204.00000000000031
 21
32.999999999999538
 31
0.0
  0
LINE
  5
E34
  8
OUTLINE
  6
CONTINOUS
 10
-164.9999999999996
 20
32.999999999999538
 30
0.0
 11
-164.9999999999996
 21
1349.9999999999991
 31
0.0
  0
LINE
  5
E35
  8
OUTLINE
  6
CONTINUOUS
 10
-194.9999999999996
 20
82.000000000460204
 30
0.0
 11
-195.00000000000011
 21
660.00000000046145
 31
0.0
  0
LINE
  5
E36
  8
OUTLINE
  6
CONTINOUS
 10
-212.9999999999996
 20
-0.0000000000004547
 30
0.0
 11
-213.00000000000011
 21
32.999999999999538
 31
0.0
  0
LINE
  5
E37
  8
OUTLINE
  6
CONTINUOUS
 10
-194.9999999999996
 20
82.000000000460204
 30
0.0
 11
-164.9999999999996
 21
82.000000000460204
 31
0.0
  0
LINE
  5
E38
  8
OUTLINE
  6
CONTINUOUS
 10
-195.00000000000011
 20
717.0000000004602
 30
0.0
 11
-195.0000000000004
 21
1295.00000000046
 31
0.0
  0
LINE
  5
E39
  8
OUTLINE
  6
CONTINUOUS
 10
-195.00000000000011
 20
660.00000000046145
 30
0.0
 11
-164.9999999999996
 21
660.00000000046145
 31
0.0
  0
LINE
  5
E3A
  8
OUTLINE
  6
CONTINUOUS
 10
-195.00000000000011
 20
717.0000000004602
 30
0.0
 11
-165.0
 21
717.0000000004602
 31
0.0
  0
LINE
  5
E3B
  8
OUTLINE
  6
CONTINUOUS
 10
-195.0000000000004
 20
1295.00000000046
 30
0.0
 11
-165.0
 21
1295.00000000046
 31
0.0
  0
LINE
  5
E3C
  8
OUTLINE
  6
CONTINOUS
 10
165.00000000000031
 20
32.999999999999538
 30
0.0
 11
165.00000000000031
 21
1349.9999999999991
 31
0.0
  0
LINE
  5
E3D
  8
OUTLINE
  6
CONTINOUS
 10
204.00000000000031
 20
-0.0000000000004547
 30
0.0
 11
204.00000000000031
 21
32.999999999999538
 31
0.0
  0
ENDSEC
  0
EOF
