  0
SECTION
  2
HEADER
  9
$ACADVER
  1
AC1009
  9
$INSBASE
 10
0.0
 20
0.0
 30
0.0
  9
$EXTMIN
 10
-1103.609479033234
 20
-573.01396200505167
 30
0.0
  9
$EXTMAX
 10
1640.0577168305219
 20
1208.4917285964179
 30
1.0049964175586230E+099
  9
$LIMMIN
 10
-1242.1154424718479
 20
-749.65135088011721
  9
$LIMMAX
 10
1682.235705901574
 20
1339.9812893851449
  9
$ORTHOMODE
 70
     1
  9
$REGENMODE
 70
     1
  9
$FILLMODE
 70
     1
  9
$QTEXTMODE
 70
     0
  9
$MIRRTEXT
 70
     0
  9
$DRAGMODE
 70
     2
  9
$LTSCALE
 40
20.0
  9
$OSMODE
 70
    37
  9
$ATTMODE
 70
     1
  9
$TEXTSIZE
 40
64.0
  9
$TRACEWID
 40
0.05
  9
$TEXTSTYLE
  7
STANDARD
  9
$CLAYER
  8
SIZE
  9
$CELTYPE
  6
CONTINUOUS
  9
$CECOLOR
 62
   256
  9
$DIMSCALE
 40
1.0
  9
$DIMASZ
 40
10.0
  9
$DIMEXO
 40
20.0
  9
$DIMDLI
 40
200.0
  9
$DIMRND
 40
0.0
  9
$DIMDLE
 40
0.0
  9
$DIMEXE
 40
30.0
  9
$DIMTP
 40
0.0
  9
$DIMTM
 40
0.0
  9
$DIMTXT
 40
64.0
  9
$DIMCEN
 40
0.09
  9
$DIMTSZ
 40
0.0
  9
$DIMTOL
 70
     0
  9
$DIMLIM
 70
     0
  9
$DIMTIH
 70
     0
  9
$DIMTOH
 70
     0
  9
$DIMSE1
 70
     0
  9
$DIMSE2
 70
     0
  9
$DIMTAD
 70
     1
  9
$DIMZIN
 70
     8
  9
$DIMBLK
  1

  9
$DIMASO
 70
     1
  9
$DIMSHO
 70
     0
  9
$DIMPOST
  1

  9
$DIMAPOST
  1

  9
$DIMALT
 70
     0
  9
$DIMALTD
 70
     2
  9
$DIMALTF
 40
25.399999999999999
  9
$DIMLFAC
 40
1.0
  9
$DIMTOFL
 70
     1
  9
$DIMTVP
 40
0.0
  9
$DIMTIX
 70
     0
  9
$DIMSOXD
 70
     0
  9
$DIMSAH
 70
     1
  9
$DIMBLK1
  1

  9
$DIMBLK2
  1

  9
$DIMSTYLE
  2
STANDARD
  9
$DIMCLRD
 70
     0
  9
$DIMCLRE
 70
     0
  9
$DIMCLRT
 70
     0
  9
$DIMTFAC
 40
1.0
  9
$DIMGAP
 40
0.09
  9
$LUNITS
 70
     2
  9
$LUPREC
 70
     4
  9
$SKETCHINC
 40
0.1
  9
$FILLETRAD
 40
6.0
  9
$AUNITS
 70
     1
  9
$AUPREC
 70
     3
  9
$MENU
  1
ACAD
  9
$ELEVATION
 40
0.0
  9
$PELEVATION
 40
0.0
  9
$THICKNESS
 40
0.0
  9
$LIMCHECK
 70
     0
  9
$BLIPMODE
 70
     0
  9
$CHAMFERA
 40
0.0
  9
$CHAMFERB
 40
0.0
  9
$SKPOLY
 70
     0
  9
$TDCREATE
 40
2450330.3932059952
  9
$TDUPDATE
 40
2453256.5852699531
  9
$TDINDWG
 40
0.1807511111
  9
$TDUSRTIMER
 40
0.1807508796
  9
$USRTIMER
 70
     1
  9
$ANGBASE
 50
0.0
  9
$ANGDIR
 70
     0
  9
$PDMODE
 70
     3
  9
$PDSIZE
 40
-2.0
  9
$PLINEWID
 40
0.0
  9
$COORDS
 70
     1
  9
$SPLFRAME
 70
     0
  9
$SPLINETYPE
 70
     6
  9
$SPLINESEGS
 70
     8
  9
$ATTDIA
 70
     0
  9
$ATTREQ
 70
     1
  9
$HANDLING
 70
-16383
  9
$HANDSEED
  5
103D
  9
$SURFTAB1
 70
     6
  9
$SURFTAB2
 70
     6
  9
$SURFTYPE
 70
     6
  9
$SURFU
 70
     6
  9
$SURFV
 70
     6
  9
$UCSNAME
  2

  9
$UCSORG
 10
0.0
 20
0.0
 30
0.0
  9
$UCSXDIR
 10
1.0
 20
0.0
 30
0.0
  9
$UCSYDIR
 10
0.0
 20
1.0
 30
0.0
  9
$PUCSNAME
  2

  9
$PUCSORG
 10
0.0
 20
0.0
 30
0.0
  9
$PUCSXDIR
 10
1.0
 20
0.0
 30
0.0
  9
$PUCSYDIR
 10
0.0
 20
1.0
 30
0.0
  9
$USERI1
 70
     0
  9
$USERI2
 70
     0
  9
$USERI3
 70
     0
  9
$USERI4
 70
     0
  9
$USERI5
 70
     0
  9
$USERR1
 40
20.0
  9
$USERR2
 40
0.0
  9
$USERR3
 40
0.0
  9
$USERR4
 40
0.0
  9
$USERR5
 40
0.0
  9
$WORLDVIEW
 70
     1
  9
$SHADEDGE
 70
     3
  9
$SHADEDIF
 70
    70
  9
$TILEMODE
 70
     1
  9
$MAXACTVP
 70
    64
  9
$PLIMCHECK
 70
     0
  9
$PEXTMIN
 10
1.0000000000000000E+020
 20
1.0000000000000000E+020
 30
1.0000000000000000E+020
  9
$PEXTMAX
 10
-1.0000000000000000E+020
 20
-1.0000000000000000E+020
 30
-1.0000000000000000E+020
  9
$PLIMMIN
 10
0.0
 20
0.0
  9
$PLIMMAX
 10
12.0
 20
9.0
  9
$UNITMODE
 70
     0
  9
$VISRETAIN
 70
     1
  9
$PLINEGEN
 70
     0
  9
$PSLTSCALE
 70
     1
  0
ENDSEC
  0
SECTION
  2
TABLES
  0
TABLE
  2
VPORT
 70
     2
  0
VPORT
  2
*ACTIVE
 70
     0
 10
0.0
 20
0.0
 11
1.0
 21
1.0
 12
334.09733051192887
 22
263.92980280953111
 13
0.0
 23
0.0
 14
50.0
 24
50.0
 15
100.0
 25
100.0
 16
0.0
 26
0.0
 36
1.0
 17
0.0
 27
0.0
 37
0.0
 40
2642.7647815319469
 41
1.2721893491124261
 42
50.0
 43
0.0
 44
0.0
 50
0.0
 51
0.0
 71
     0
 72
   500
 73
     1
 74
     0
 75
     0
 76
     0
 77
     0
 78
     0
  0
ENDTAB
  0
TABLE
  2
LTYPE
 70
     8
  0
LTYPE
  2
CONTINUOUS
 70
     0
  3
実線
 72
    65
 73
     0
 40
0.0
  0
LTYPE
  2
DASHDOT
 70
     0
  3
____ _ ____ _ ____ _ ____ _ ____ _ ____ _ ____
 72
    65
 73
     4
 40
5.5
 49
4.0
 49
-0.6
 49
0.3
 49
-0.6
  0
LTYPE
  2
CONTINOUS
 70
     0
  3
Solid line
 72
    65
 73
     0
 40
0.0
  0
LTYPE
  2
DASHED
 70
     0
  3
_ _ _ _ _ _ _ _ _ _ _ _ _ _ _ _ _ _ _ _ _ _ _
 72
    65
 73
     2
 40
2.0
 49
1.1999999999999991
 49
-0.8
  0
LTYPE
  2
DOT
 70
     0
  3
...............................................
 72
    65
 73
     2
 40
0.8
 49
0.5
 49
-0.3
  0
LTYPE
  2
DASHDOT1
 70
     0
  3
____ _ ____ _ ____ _ ____ _ ____ _ ____ _ ____
 72
    65
 73
     4
 40
2.0
 49
1.5
 49
-0.2
 49
0.1
 49
-0.2
  0
LTYPE
  2
DIVIDE
 70
     0
  3
_____ _ _ _____ _ _ _____ _ _ _____ _ _ ____
 72
    65
 73
     6
 40
6.4000000000000004
 49
4.0
 49
-0.6
 49
0.3
 49
-0.6
 49
0.3
 49
-0.6
  0
LTYPE
  2
DIVIDE1
 70
     0
  3
_____ _ _ _____ _ _ _____ _ _ _____ _ _ ____
 72
    65
 73
     6
 40
3.2000000000000002
 49
2.0
 49
-0.3
 49
0.15
 49
-0.3
 49
0.15
 49
-0.3
  0
ENDTAB
  0
TABLE
  2
LAYER
 70
    12
  0
LAYER
  2
0
 70
     0
 62
     7
  6
CONTINUOUS
  0
LAYER
  2
SIZE
 70
     0
 62
    32
  6
CONTINUOUS
  0
LAYER
  2
DETAIL
 70
     0
 62
     5
  6
CONTINUOUS
  0
LAYER
  2
OUTLINE
 70
     0
 62
     3
  6
CONTINUOUS
  0
LAYER
  2
BASIS
 70
     0
 62
     6
  6
CONTINUOUS
  0
LAYER
  2
NOTE
 70
     0
 62
     4
  6
CONTINUOUS
  0
LAYER
  2
ARRANGE
 70
     0
 62
     1
  6
CONTINUOUS
  0
LAYER
  2
FIX
 70
     0
 62
   241
  6
CONTINUOUS
  0
LAYER
  2
ETC
 70
     0
 62
    83
  6
CONTINUOUS
  0
LAYER
  2
SERVICESPACE
 70
     0
 62
     2
  6
CONTINUOUS
  0
LAYER
  2
SYMBOLLINE
 70
     0
 62
    38
  6
CONTINUOUS
  0
LAYER
  2
DEFPOINTS
 70
     0
 62
     7
  6
CONTINUOUS
  0
ENDTAB
  0
TABLE
  2
STYLE
 70
     2
  0
STYLE
  2
STANDARD
 70
     0
 40
0.0
 41
0.9
 50
0.0
 71
     0
 42
64.0
  3
SIMPLEX
  4
BIGFONT
  0
STYLE
  2
STANDARD1
 70
     0
 40
0.0
 41
1.0
 50
0.0
 71
     0
 42
3.2000000000000002
  3
MONOTXT
  4
BIGFONT
  0
ENDTAB
  0
TABLE
  2
VIEW
 70
     1
  0
VIEW
  2
ALL
 70
     0
 40
4282.6199999999999
 10
0.0
 20
41.309903999999989
 41
5940.0
 11
0.0
 21
0.0
 31
1.0
 12
0.0
 22
0.0
 32
0.0
 42
50.0
 43
0.0
 44
0.0
 50
0.0
 71
     0
  0
ENDTAB
  0
TABLE
  2
UCS
 70
     0
  0
ENDTAB
  0
TABLE
  2
APPID
 70
     1
  0
APPID
  2
ACAD
 70
     0
  0
ENDTAB
  0
TABLE
  2
DIMSTYLE
 70
     1
  0
DIMSTYLE
  2
STANDARD
 70
     0
  3

  4

  5

  6

  7

 40
1.0
 41
0.18
 42
0.0625
 43
0.38
 44
0.18
 45
0.0
 46
0.0
 47
0.0
 48
0.0
140
0.18
141
0.09
142
0.0
143
25.399999999999999
144
1.0
145
0.0
146
1.0
147
0.09
 71
     0
 72
     0
 73
     1
 74
     1
 75
     0
 76
     0
 77
     0
 78
     0
170
     0
171
     2
172
     0
173
     0
174
     0
175
     0
176
     0
177
     0
178
     0
  0
ENDTAB
  0
ENDSEC
  0
SECTION
  2
BLOCKS
  0
BLOCK
  8
0
  2
$MODEL_SPACE
 70
     0
 10
0.0
 20
0.0
 30
0.0
  3
$MODEL_SPACE
  1

  0
ENDBLK
  5
703
  8
0
  0
BLOCK
 67
     1
  8
0
  2
$PAPER_SPACE
 70
     0
 10
0.0
 20
0.0
 30
0.0
  3
$PAPER_SPACE
  1

  0
ENDBLK
  5
6FF
 67
     1
  8
0
  0
BLOCK
  8
0
  2
A$C5F2C697A
 70
     0
 10
0.0
 20
0.0
 30
0.0
  3
A$C5F2C697A
  1

  0
TEXT
  5
726
  8
SIZE
  6
BYBLOCK
 10
910.8147643978815
 20
127.36127978650261
 30
0.0
 40
64.0
  1
370
 41
0.9
  0
LINE
  5
727
  8
SIZE
  6
BYBLOCK
 10
801.8719073978815
 20
95.361279786502593
 30
0.0
 11
1167.87190739788
 21
95.361279786502593
 31
0.0
  0
TEXT
  5
728
  8
SIZE
  6
BYBLOCK
 10
915.81476439788139
 20
1424.5027517865019
 30
0.0
 40
64.0
  1
330
 41
0.9
  0
LINE
  5
729
  8
SIZE
  6
BYBLOCK
 10
826.8719073978815
 20
1392.5027517865019
 30
0.0
 11
1152.87190739788
 21
1392.5027517865019
 31
0.0
  0
LINE
  5
72A
  8
OUTLINE
  6
CONTINUOUS
 10
771.8719063978815
 20
290.07775178650252
 30
0.0
 11
1183.871906397881
 21
290.07775178650252
 31
0.0
  0
LINE
  5
72B
  8
OUTLINE
  6
CONTINUOUS
 10
771.8719063978815
 20
323.07775178650252
 30
0.0
 11
1183.871906397881
 21
323.07775178650252
 31
0.0
  0
LINE
  5
72C
  8
OUTLINE
  6
CONTINUOUS
 10
824.87190639788139
 20
1145.0777517865019
 30
0.0
 11
1154.8719063978799
 21
1145.0777517865019
 31
0.0
  0
CIRCLE
  5
72D
  8
ARRANGE
  6
CONTINUOUS
 10
989.87190639788139
 20
290.07775178650252
 30
0.0
 40
40.0
  0
LINE
  5
72E
  8
DETAIL
  6
CONTINOUS
 10
771.8719063978815
 20
290.07775178650252
 30
0.0
 11
1183.871906397881
 21
290.07775178650252
 31
0.0
  0
LINE
  5
72F
  8
DETAIL
  6
CONTINOUS
 10
824.87190639788139
 20
1145.0777517865019
 30
0.0
 11
1154.8719063978799
 21
1145.0777517865019
 31
0.0
  0
TEXT
  5
730
  8
NOTE
  6
CONTINUOUS
 10
973.9808703978814
 20
913.84623078650259
 30
0.0
 40
64.0
  1
EL,CL
 41
0.9
  0
LINE
  5
731
  8
NOTE
  6
CONTINUOUS
 10
879.8719063978815
 20
686.07775178650252
 30
0.0
 11
1040.77148939788
 21
625.20405378650253
 31
0.0
  0
LINE
  5
732
  8
NOTE
  6
CONTINUOUS
 10
1205.83098439788
 20
895.38895978650271
 30
0.0
 11
918.87085639788165
 21
895.38895978650271
 31
0.0
  0
POINT
  5
733
  8
ARRANGE
  6
CONTINUOUS
 10
989.87190639788139
 20
290.07775178650252
 30
0.0
  0
LINE
  5
734
  8
DETAIL
  6
CONTINOUS
 10
771.8719063978815
 20
323.07775178650252
 30
0.0
 11
1183.871906397881
 21
323.07775178650252
 31
0.0
  0
LINE
  5
735
  8
NOTE
  6
CONTINUOUS
 10
882.87190639788139
 20
724.07775178650252
 30
0.0
 11
1040.77148939788
 21
812.30385178650226
 31
0.0
  0
CIRCLE
  5
736
  8
SIZE
  6
CONTINUOUS
 10
220.7875803978813
 20
290.07775178650252
 30
0.0
 40
6.0
  0
CIRCLE
  5
737
  8
SIZE
  6
CONTINUOUS
 10
503.55668139788139
 20
290.07775178650252
 30
0.0
 40
6.0
  0
CIRCLE
  5
738
  8
SIZE
  6
CONTINUOUS
 10
649.74425839788148
 20
290.07775178650252
 30
0.0
 40
6.0
  0
CIRCLE
  5
739
  8
SIZE
  6
CONTINUOUS
 10
350.83505539788138
 20
290.07775178650252
 30
0.0
 40
6.0
  0
LINE
  5
73A
  8
OUTLINE
  6
CONTINUOUS
 10
771.8719063978815
 20
290.07775178650252
 30
0.0
 11
771.8719063978815
 21
323.07775178650252
 31
0.0
  0
CIRCLE
  5
73B
  8
FIX
  6
CONTINUOUS
 10
799.8719063978815
 20
290.07775178650252
 30
0.0
 40
40.0
  0
LINE
  5
73C
  8
DETAIL
  6
CONTINOUS
 10
771.8719063978815
 20
290.07775178650252
 30
0.0
 11
771.8719063978815
 21
323.07775178650252
 31
0.0
  0
LINE
  5
73D
  8
BASIS
  6
DASHDOT
 10
989.87190639788139
 20
239.4419287865025
 30
0.0
 11
989.87190639788139
 21
1184.2961157865011
 31
0.0
  0
LINE
  5
73E
  8
NOTE
  6
CONTINOUS
 10
799.8719063978815
 20
270.0777517865024
 30
0.0
 11
799.8719063978815
 21
310.07775178650252
 31
0.0
  0
LINE
  5
73F
  8
NOTE
  6
CONTINUOUS
 10
0.0000023978816444
 20
-0.000002213497396
 30
0.0
 11
579.80680439788148
 21
-0.000002213497396
 31
0.0
  0
TEXT
  5
740
  8
NOTE
  6
CONTINUOUS
 10
14.78030739788152
 20
15.10229878650267
 30
0.0
 40
64.0
  1
AH 2-12×36
 41
0.9
  0
LINE
  5
741
  8
SIZE
  6
BYBLOCK
 10
715.70171039788136
 20
290.07775178650252
 30
0.0
 11
320.83505539788149
 21
290.07775178650252
 31
0.0
  0
LINE
  5
742
  8
SIZE
  6
BYBLOCK
 10
735.70171039788136
 20
290.07775178650252
 30
0.0
 11
473.55668139788122
 21
290.07775178650252
 31
0.0
  0
LINE
  5
743
  8
SIZE
  6
BYBLOCK
 10
735.70171039788136
 20
290.07775178650252
 30
0.0
 11
190.7875803978813
 21
290.07775178650252
 31
0.0
  0
LINE
  5
744
  8
NOTE
  6
CONTINUOUS
 10
579.80680439788148
 20
-0.000002213497396
 30
0.0
 11
799.8719063978815
 21
290.07775178650252
 31
0.0
  0
TEXT
  5
745
  8
SIZE
  6
BYBLOCK
 10
739.24333539788142
 20
127.36127978650261
 30
0.0
 40
64.0
  1
28
 41
0.9
  0
LINE
  5
746
  8
SIZE
  6
BYBLOCK
 10
735.70171039788136
 20
290.07775178650252
 30
0.0
 11
619.74425839788148
 21
290.07775178650252
 31
0.0
  0
LINE
  5
747
  8
SIZE
  6
BYBLOCK
 10
799.8719073978815
 20
250.0777517865026
 30
0.0
 11
799.8719073978815
 21
65.361279786502621
 31
0.0
  0
LINE
  5
748
  8
SIZE
  6
BYBLOCK
 10
799.8719073978815
 20
250.0777517865026
 30
0.0
 11
799.8719073978815
 21
65.361279786502621
 31
0.0
  0
LINE
  5
749
  8
SIZE
  6
BYBLOCK
 10
771.8719073978815
 20
270.0777517865024
 30
0.0
 11
771.8719073978815
 21
65.361279786502621
 31
0.0
  0
CIRCLE
  5
74A
  8
SIZE
  6
CONTINUOUS
 10
799.8719073978815
 20
95.361279786502593
 30
0.0
 40
6.0
  0
CIRCLE
  5
74B
  8
SIZE
  6
CONTINUOUS
 10
771.8719073978815
 20
95.361279786502593
 30
0.0
 40
6.0
  0
CIRCLE
  5
74C
  8
SIZE
  6
CONTINUOUS
 10
799.8719073978815
 20
95.361279786502593
 30
0.0
 40
6.0
  0
LINE
  5
74D
  8
SIZE
  6
BYBLOCK
 10
799.8719073978815
 20
95.361279786502593
 30
0.0
 11
771.8719073978815
 21
95.361279786502593
 31
0.0
  0
LINE
  5
74E
  8
SIZE
  6
BYBLOCK
 10
769.8719073978815
 20
95.361279786502593
 30
0.0
 11
767.8719073978815
 21
95.361279786502593
 31
0.0
  0
LINE
  5
74F
  8
SIZE
  6
BYBLOCK
 10
801.8719073978815
 20
95.361279786502593
 30
0.0
 11
803.87190739788139
 21
95.361279786502593
 31
0.0
  0
LINE
  5
750
  8
NOTE
  6
CONTINOUS
 10
779.8719063978815
 20
290.07775178650252
 30
0.0
 11
819.8719063978815
 21
290.07775178650252
 31
0.0
  0
LINE
  5
751
  8
NOTE
  6
CONTINUOUS
 10
799.8719063978815
 20
290.07775178650252
 30
0.0
 11
784.76766639788127
 21
253.0390967865026
 31
0.0
  0
LINE
  5
752
  8
NOTE
  6
CONTINUOUS
 10
799.8719063978815
 20
290.07775178650252
 30
0.0
 11
768.27192339788144
 21
265.55345678650241
 31
0.0
  0
LINE
  5
753
  8
SIZE
  6
BYBLOCK
 10
771.8719073978815
 20
343.07775178650252
 30
0.0
 11
771.8719073978815
 21
1422.5027517865019
 31
0.0
  0
LINE
  5
754
  8
OUTLINE
  6
CONTINUOUS
 10
824.87190639788139
 20
323.07775178650252
 30
0.0
 11
824.87190639788139
 21
1145.0777517865019
 31
0.0
  0
LINE
  5
755
  8
DETAIL
  6
CONTINOUS
 10
824.87190639788139
 20
323.07775178650252
 30
0.0
 11
824.87190639788139
 21
1145.0777517865019
 31
0.0
  0
LINE
  5
756
  8
DETAIL
  6
CONTINOUS
 10
804.8719063978815
 20
462.0777517865024
 30
0.0
 11
804.8719063978815
 21
1002.0777517865019
 31
0.0
  0
LINE
  5
757
  8
SIZE
  6
BYBLOCK
 10
714.44271139788157
 20
732.07775178650252
 30
0.0
 11
320.83505539788149
 21
732.07775178650252
 31
0.0
  0
LINE
  5
758
  8
SIZE
  6
BYBLOCK
 10
856.8719073978815
 20
724.07775178650252
 30
0.0
 11
473.55668139788122
 21
724.07775178650252
 31
0.0
  0
LINE
  5
759
  8
SIZE
  6
BYBLOCK
 10
777.27455739788161
 20
810.08015378650225
 30
0.0
 11
190.42745539788129
 21
810.08015378650225
 31
0.0
  0
LINE
  5
75A
  8
SIZE
  6
BYBLOCK
 10
350.83505539788138
 20
292.07775178650252
 30
0.0
 11
350.83505539788138
 21
730.07775178650252
 31
0.0
  0
LINE
  5
75B
  8
SIZE
  6
BYBLOCK
 10
503.55668139788139
 20
292.07775178650252
 30
0.0
 11
503.55668139788139
 21
724.07775178650252
 31
0.0
  0
TEXT
  5
75C
  8
SIZE
  6
BYBLOCK
 10
188.7875803978813
 20
529.52060878650241
 30
0.0
 40
64.0
  1
520
 50
90.0
 41
0.9
  0
LINE
  5
75D
  8
SIZE
  6
BYBLOCK
 10
220.7875803978813
 20
810.08015378650225
 30
0.0
 11
220.7875803978813
 21
603.57775178650252
 31
0.0
  0
TEXT
  5
75E
  8
SIZE
  6
BYBLOCK
 10
318.83505539788149
 20
437.02060878650252
 30
0.0
 40
64.0
  1
442
 50
90.0
 41
0.9
  0
LINE
  5
75F
  8
SIZE
  6
BYBLOCK
 10
220.7875803978813
 20
292.07775178650252
 30
0.0
 11
220.7875803978813
 21
603.57775178650252
 31
0.0
  0
TEXT
  5
760
  8
SIZE
  6
BYBLOCK
 10
471.55668139788139
 20
427.13489478650251
 30
0.0
 40
64.0
  1
434
 50
90.0
 41
0.9
  0
CIRCLE
  5
761
  8
SIZE
  6
CONTINUOUS
 10
220.4274553978814
 20
810.08015378650225
 30
0.0
 40
6.0
  0
CIRCLE
  5
762
  8
SIZE
  6
CONTINUOUS
 10
350.83505539788138
 20
732.07775178650252
 30
0.0
 40
6.0
  0
CIRCLE
  5
763
  8
SIZE
  6
CONTINUOUS
 10
503.55668139788139
 20
724.07775178650252
 30
0.0
 40
6.0
  0
LINE
  5
764
  8
SIZE
  6
BYBLOCK
 10
649.74425839788148
 20
292.07775178650252
 30
0.0
 11
649.74425839788148
 21
684.07775178650252
 31
0.0
  0
TEXT
  5
765
  8
SIZE
  6
BYBLOCK
 10
617.74425839788125
 20
415.3920377865025
 30
0.0
 40
64.0
  1
396
 50
90.0
 41
0.9
  0
LINE
  5
766
  8
DETAIL
  6
CONTINOUS
 10
824.87190639788139
 20
462.0777517865024
 30
0.0
 11
804.8719063978815
 21
462.0777517865024
 31
0.0
  0
LINE
  5
767
  8
SIZE
  6
BYBLOCK
 10
836.26393739788148
 20
686.07775178650252
 30
0.0
 11
619.74425839788148
 21
686.07775178650252
 31
0.0
  0
LINE
  5
768
  8
BASIS
  6
DASHDOT
 10
734.44271139788145
 20
732.07775178650252
 30
0.0
 11
884.14564339788137
 21
732.07775178650252
 31
0.0
  0
CIRCLE
  5
769
  8
SIZE
  6
CONTINUOUS
 10
649.74425839788148
 20
686.07775178650252
 30
0.0
 40
6.0
  0
LINE
  5
76A
  8
NOTE
  6
CONTINOUS
 10
862.8719063978815
 20
724.07775178650252
 30
0.0
 11
902.8719063978815
 21
724.07775178650252
 31
0.0
  0
LINE
  5
76B
  8
NOTE
  6
CONTINOUS
 10
859.87190639788162
 20
686.07775178650252
 30
0.0
 11
899.87190639788139
 21
686.07775178650252
 31
0.0
  0
LINE
  5
76C
  8
NOTE
  6
CONTINOUS
 10
879.8719063978815
 20
666.07775178650252
 30
0.0
 11
879.8719063978815
 21
706.07775178650252
 31
0.0
  0
POLYLINE
  5
76D
  8
NOTE
  6
CONTINUOUS
 66
     1
 10
0.0
 20
0.0
 30
0.0
  0
VERTEX
  5
F85
  8
NOTE
  6
CONTINUOUS
 10
919.40695039788125
 20
679.99661178650251
 30
0.0
  0
VERTEX
  5
F86
  8
NOTE
  6
CONTINUOUS
 10
879.8719063978815
 20
686.07775178650252
 30
0.0
  0
VERTEX
  5
F87
  8
NOTE
  6
CONTINUOUS
 10
911.06968939788146
 20
661.04380778650238
 30
0.0
  0
SEQEND
  5
F88
  8
NOTE
  6
CONTINUOUS
  0
POLYLINE
  5
772
  8
NOTE
  6
CONTINUOUS
 66
     1
 10
0.0
 20
0.0
 30
0.0
  0
VERTEX
  5
F89
  8
NOTE
  6
CONTINUOUS
 10
911.55116939788149
 20
751.96143678650253
 30
0.0
  0
VERTEX
  5
F8A
  8
NOTE
  6
CONTINUOUS
 10
882.87190639788139
 20
724.07775178650252
 30
0.0
  0
VERTEX
  5
F8B
  8
NOTE
  6
CONTINUOUS
 10
921.65071939788174
 20
733.88609978650254
 30
0.0
  0
SEQEND
  5
F8C
  8
NOTE
  6
CONTINUOUS
  0
LINE
  5
777
  8
NOTE
  6
CONTINOUS
 10
882.87190639788139
 20
704.0777517865024
 30
0.0
 11
882.87190639788139
 21
744.07775178650252
 31
0.0
  0
LINE
  5
778
  8
NOTE
  6
CONTINUOUS
 10
824.51178139788146
 20
810.08015378650225
 30
0.0
 11
918.87085639788165
 21
895.38895978650271
 31
0.0
  0
LINE
  5
779
  8
NOTE
  6
CONTINOUS
 10
804.51178139788135
 20
810.08015378650225
 30
0.0
 11
844.51178139788135
 21
810.08015378650225
 31
0.0
  0
POLYLINE
  5
77A
  8
NOTE
  6
CONTINUOUS
 66
     1
 10
0.0
 20
0.0
 30
0.0
  0
VERTEX
  5
F8D
  8
NOTE
  6
CONTINUOUS
 10
846.64476439788132
 20
843.39878378650269
 30
0.0
  0
VERTEX
  5
F8E
  8
NOTE
  6
CONTINUOUS
 10
824.51178139788146
 20
810.08015378650225
 30
0.0
  0
VERTEX
  5
F8F
  8
NOTE
  6
CONTINUOUS
 10
860.33882139788147
 20
827.86844278650256
 30
0.0
  0
SEQEND
  5
F90
  8
NOTE
  6
CONTINUOUS
  0
LINE
  5
77F
  8
NOTE
  6
CONTINOUS
 10
824.51178139788146
 20
790.08015378650225
 30
0.0
 11
824.51178139788146
 21
830.08015378650225
 31
0.0
  0
LINE
  5
780
  8
NOTE
  6
CONTINUOUS
 10
872.35755039788137
 20
933.93013678650243
 30
0.0
 11
872.35755039788137
 21
933.93013678650243
 31
0.0
  0
LINE
  5
781
  8
SIZE
  6
BYBLOCK
 10
824.8719073978815
 20
1185.0777517865019
 30
0.0
 11
824.8719073978815
 21
1422.5027517865019
 31
0.0
  0
LINE
  5
782
  8
SIZE
  6
BYBLOCK
 10
824.8719073978815
 20
1165.0777517865019
 30
0.0
 11
824.8719073978815
 21
1422.5027517865019
 31
0.0
  0
LINE
  5
783
  8
SIZE
  6
BYBLOCK
 10
824.8719073978815
 20
1165.0777517865019
 30
0.0
 11
824.8719073978815
 21
1293.248751786502
 31
0.0
  0
LINE
  5
784
  8
SIZE
  6
BYBLOCK
 10
804.87190739788139
 20
1022.0777517865019
 30
0.0
 11
804.87190739788139
 21
1293.248751786502
 31
0.0
  0
LINE
  5
785
  8
DETAIL
  6
CONTINOUS
 10
824.87190639788139
 20
1002.0777517865019
 30
0.0
 11
804.8719063978815
 21
1002.0777517865019
 31
0.0
  0
LINE
  5
786
  8
SIZE
  6
CONTINUOUS
 10
814.87190639788139
 20
1263.2491457865019
 30
0.0
 11
945.94025839788139
 21
1263.2491457865019
 31
0.0
  0
LINE
  5
787
  8
SIZE
  6
BYBLOCK
 10
822.8719073978815
 20
1263.2491457865019
 30
0.0
 11
814.8719073978815
 21
1263.2491457865019
 31
0.0
  0
CIRCLE
  5
788
  8
SIZE
  6
CONTINUOUS
 10
804.87190739788139
 20
1263.2491457865019
 30
0.0
 40
6.0
  0
LINE
  5
789
  8
SIZE
  6
BYBLOCK
 10
806.8719073978815
 20
1263.2491457865019
 30
0.0
 11
814.8719073978815
 21
1263.2491457865019
 31
0.0
  0
CIRCLE
  5
78A
  8
SIZE
  6
CONTINUOUS
 10
824.8719073978815
 20
1263.2491457865019
 30
0.0
 40
6.0
  0
TEXT
  5
78B
  8
SIZE
  6
BYBLOCK
 10
751.74333539788142
 20
1424.5027517865019
 30
0.0
 40
64.0
  1
53
 41
0.9
  0
TEXT
  5
78C
  8
SIZE
  6
BYBLOCK
 10
843.21570539788104
 20
1295.248751786502
 30
0.0
 40
64.0
  1
20
 41
0.9
  0
LINE
  5
78D
  8
SIZE
  6
BYBLOCK
 10
824.8719073978815
 20
1392.5027517865019
 30
0.0
 11
771.8719073978815
 21
1392.5027517865019
 31
0.0
  0
CIRCLE
  5
78E
  8
SIZE
  6
CONTINUOUS
 10
771.8719073978815
 20
1392.5027517865019
 30
0.0
 40
6.0
  0
LINE
  5
78F
  8
SIZE
  6
BYBLOCK
 10
769.8719073978815
 20
1392.5027517865019
 30
0.0
 11
767.8719073978815
 21
1392.5027517865019
 31
0.0
  0
CIRCLE
  5
790
  8
SIZE
  6
CONTINUOUS
 10
824.8719073978815
 20
1392.5027517865019
 30
0.0
 40
6.0
  0
CIRCLE
  5
791
  8
SIZE
  6
CONTINUOUS
 10
824.8719073978815
 20
1392.5027517865019
 30
0.0
 40
6.0
  0
LINE
  5
792
  8
SIZE
  6
BYBLOCK
 10
826.8719073978815
 20
1392.5027517865019
 30
0.0
 11
828.87190739788139
 21
1392.5027517865019
 31
0.0
  0
CIRCLE
  5
793
  8
SIZE
  6
CONTINUOUS
 10
1420.44446039788
 20
290.07775178650252
 30
0.0
 40
6.0
  0
CIRCLE
  5
794
  8
FIX
  6
CONTINUOUS
 10
1169.871906397881
 20
290.07775178650252
 30
0.0
 40
40.0
  0
LINE
  5
795
  8
OUTLINE
  6
CONTINUOUS
 10
1183.871906397881
 20
323.07775178650252
 30
0.0
 11
1183.871906397881
 21
290.07775178650252
 31
0.0
  0
TEXT
  5
796
  8
ETC
  6
CONTINUOUS
 10
1573.1112623978811
 20
288.6366377865026
 30
0.0
 40
64.0
  1
室外機
 41
0.9
  0
LINE
  5
797
  8
DETAIL
  6
CONTINOUS
 10
1183.871906397881
 20
290.07775178650252
 30
0.0
 11
1183.871906397881
 21
323.07775178650252
 31
0.0
  0
LINE
  5
798
  8
NOTE
  6
CONTINOUS
 10
1169.871906397881
 20
270.0777517865024
 30
0.0
 11
1169.871906397881
 21
310.07775178650252
 31
0.0
  0
LINE
  5
799
  8
NOTE
  6
CONTINUOUS
 10
1969.74381039788
 20
-0.000002213497396
 30
0.0
 11
1389.9370083978811
 21
-0.000002213497396
 31
0.0
  0
TEXT
  5
79A
  8
NOTE
  6
CONTINUOUS
 10
1415.1692193978811
 20
15.10229878650267
 30
0.0
 40
64.0
  1
AH 2-U cut
 41
0.9
  0
LINE
  5
79B
  8
NOTE
  6
CONTINUOUS
 10
1389.9370083978811
 20
-0.000002213497396
 30
0.0
 11
1169.871906397881
 21
290.07775178650252
 31
0.0
  0
LINE
  5
79C
  8
SIZE
  6
BYBLOCK
 10
1214.7137463978811
 20
290.07775178650252
 30
0.0
 11
1450.44446039788
 21
290.07775178650252
 31
0.0
  0
LINE
  5
79D
  8
SIZE
  6
BYBLOCK
 10
1183.87190739788
 20
270.0777517865024
 30
0.0
 11
1183.87190739788
 21
65.361279786502621
 31
0.0
  0
LINE
  5
79E
  8
SIZE
  6
BYBLOCK
 10
1169.87190739788
 20
250.0777517865026
 30
0.0
 11
1169.87190739788
 21
65.361279786502621
 31
0.0
  0
LINE
  5
79F
  8
SIZE
  6
BYBLOCK
 10
1169.87190739788
 20
250.0777517865026
 30
0.0
 11
1169.87190739788
 21
65.361279786502621
 31
0.0
  0
CIRCLE
  5
7A0
  8
SIZE
  6
CONTINUOUS
 10
1169.87190739788
 20
95.361279786502593
 30
0.0
 40
6.0
  0
CIRCLE
  5
7A1
  8
SIZE
  6
CONTINUOUS
 10
1169.87190739788
 20
95.361279786502593
 30
0.0
 40
6.0
  0
CIRCLE
  5
7A2
  8
SIZE
  6
CONTINUOUS
 10
1183.87190739788
 20
95.361279786502593
 30
0.0
 40
6.0
  0
LINE
  5
7A3
  8
SIZE
  6
BYBLOCK
 10
1183.87190739788
 20
95.361279786502593
 30
0.0
 11
1169.87190739788
 21
95.361279786502593
 31
0.0
  0
LINE
  5
7A4
  8
SIZE
  6
BYBLOCK
 10
1167.87190739788
 20
95.361279786502593
 30
0.0
 11
1165.87190739788
 21
95.361279786502593
 31
0.0
  0
LINE
  5
7A5
  8
SIZE
  6
BYBLOCK
 10
1185.87190739788
 20
95.361279786502593
 30
0.0
 11
1187.87190739788
 21
95.361279786502593
 31
0.0
  0
TEXT
  5
7A6
  8
SIZE
  6
BYBLOCK
 10
1134.3576213978811
 20
127.36127978650261
 30
0.0
 40
64.0
  1
14
 41
0.9
  0
LINE
  5
7A7
  8
NOTE
  6
CONTINOUS
 10
1149.871906397881
 20
290.07775178650252
 30
0.0
 11
1189.871906397881
 21
290.07775178650252
 31
0.0
  0
LINE
  5
7A8
  8
NOTE
  6
CONTINUOUS
 10
1169.871906397881
 20
290.07775178650252
 30
0.0
 11
1184.97614639788
 21
253.0390967865026
 31
0.0
  0
LINE
  5
7A9
  8
NOTE
  6
CONTINUOUS
 10
1169.871906397881
 20
290.07775178650252
 30
0.0
 11
1201.47188939788
 21
265.55345678650241
 31
0.0
  0
TEXT
  5
7AA
  8
ETC
  6
CONTINUOUS
 10
1561.288518397879
 20
407.8032387865025
 30
0.0
 40
64.0
  1
SPUZ0824
 41
0.9
  0
LINE
  5
7AB
  8
SIZE
  6
BYBLOCK
 10
1420.44446039788
 20
1143.0777517865019
 30
0.0
 11
1420.44446039788
 21
717.57775178650252
 31
0.0
  0
LINE
  5
7AC
  8
OUTLINE
  6
CONTINUOUS
 10
1154.8719063978799
 20
1145.0777517865019
 30
0.0
 11
1154.8719063978799
 21
323.07775178650252
 31
0.0
  0
LINE
  5
7AD
  8
DETAIL
  6
CONTINOUS
 10
1154.8719063978799
 20
323.07775178650252
 30
0.0
 11
1154.8719063978799
 21
1145.0777517865019
 31
0.0
  0
LINE
  5
7AE
  8
SIZE
  6
BYBLOCK
 10
1420.44446039788
 20
292.07775178650252
 30
0.0
 11
1420.44446039788
 21
717.57775178650252
 31
0.0
  0
LINE
  5
7AF
  8
NOTE
  6
CONTINUOUS
 10
1124.871906397881
 20
323.07775178650252
 30
0.0
 11
1231.96219639788
 21
428.57361078650251
 31
0.0
  0
LINE
  5
7B0
  8
NOTE
  6
CONTINOUS
 10
1104.871906397881
 20
323.07775178650252
 30
0.0
 11
1144.871906397881
 21
323.07775178650252
 31
0.0
  0
POLYLINE
  5
7B1
  8
NOTE
  6
CONTINUOUS
 66
     1
 10
0.0
 20
0.0
 30
0.0
  0
VERTEX
  5
F91
  8
NOTE
  6
CONTINUOUS
 10
1145.1311663978811
 20
357.56778478650261
 30
0.0
  0
VERTEX
  5
F92
  8
NOTE
  6
CONTINUOUS
 10
1124.871906397881
 20
323.07775178650252
 30
0.0
  0
VERTEX
  5
F93
  8
NOTE
  6
CONTINUOUS
 10
1159.661957397881
 20
342.81736678650259
 30
0.0
  0
SEQEND
  5
F94
  8
NOTE
  6
CONTINUOUS
  0
LINE
  5
7B6
  8
NOTE
  6
CONTINOUS
 10
1124.871906397881
 20
303.07775178650257
 30
0.0
 11
1124.871906397881
 21
343.07775178650252
 31
0.0
  0
TEXT
  5
7B7
  8
NOTE
  6
CONTINUOUS
 10
1251.9401213978811
 20
438.44475178650248
 30
0.0
 40
64.0
  1
D
 41
0.9
  0
LINE
  5
7B8
  8
NOTE
  6
CONTINUOUS
 10
1231.96219639788
 20
428.57361078650251
 30
0.0
 11
1302.198482397881
 21
428.57361078650251
 31
0.0
  0
TEXT
  5
7B9
  8
NOTE
  6
CONTINUOUS
 10
1060.7086543978789
 20
635.63939678650252
 30
0.0
 40
64.0
  1
RG
 41
0.9
  0
LINE
  5
7BA
  8
NOTE
  6
CONTINUOUS
 10
1040.77148939788
 20
625.20405378650253
 30
0.0
 11
1180.455218397881
 21
625.20405378650253
 31
0.0
  0
TEXT
  5
7BB
  8
NOTE
  6
CONTINUOUS
 10
1060.92620539788
 20
822.17499278650257
 30
0.0
 40
64.0
  1
RL
 41
0.9
  0
LINE
  5
7BC
  8
NOTE
  6
CONTINUOUS
 10
1040.77148939788
 20
812.30385178650226
 30
0.0
 11
1170.35759939788
 21
812.30385178650226
 31
0.0
  0
TEXT
  5
7BD
  8
SIZE
  6
BYBLOCK
 10
1388.44446039788
 20
643.52060878650252
 30
0.0
 40
64.0
  1
855
 50
90.0
 41
0.9
  0
LINE
  5
7BE
  8
SIZE
  6
BYBLOCK
 10
1154.87190739788
 20
1165.0777517865019
 30
0.0
 11
1154.87190739788
 21
1422.5027517865019
 31
0.0
  0
LINE
  5
7BF
  8
SIZE
  6
BYBLOCK
 10
1203.87190739788
 20
1145.0777517865019
 30
0.0
 11
1450.44446039788
 21
1145.0777517865019
 31
0.0
  0
CIRCLE
  5
7C0
  8
SIZE
  6
CONTINUOUS
 10
1420.44446039788
 20
1145.0777517865019
 30
0.0
 40
6.0
  0
CIRCLE
  5
7C1
  8
SIZE
  6
CONTINUOUS
 10
1154.87190739788
 20
1392.5027517865019
 30
0.0
 40
6.0
  0
ENDBLK
  5
7C2
  8
0
  0
BLOCK
  8
0
  2
_ORIGIN
 70
     0
 10
0.0
 20
0.0
 30
0.0
  3
_ORIGIN
  1

  0
CIRCLE
  5
7C5
  8
0
  6
BYBLOCK
 62
     0
 10
0.0
 20
0.0
 30
0.0
 40
0.5
  0
LINE
  5
7C6
  8
0
  6
BYBLOCK
 62
     0
 10
0.0
 20
0.0
 30
0.0
 11
-1.0
 21
0.0
 31
0.0
  0
ENDBLK
  5
7C7
  8
0
  0
BLOCK
  8
0
  2
_ORIGIN2
 70
     0
 10
0.0
 20
0.0
 30
0.0
  3
_ORIGIN2
  1

  0
CIRCLE
  5
7CA
  8
0
  6
BYBLOCK
 62
     0
 10
0.0
 20
0.0
 30
0.0
 40
0.5
  0
CIRCLE
  5
7CB
  8
0
  6
BYBLOCK
 62
     0
 10
0.0
 20
0.0
 30
0.0
 40
0.25
  0
LINE
  5
7CC
  8
0
  6
BYBLOCK
 62
     0
 10
-0.5
 20
0.0
 30
0.0
 11
-1.0
 21
0.0
 31
0.0
  0
ENDBLK
  5
7CD
  8
0
  0
BLOCK
  8
0
  2
_DOTBLANK
 70
     0
 10
0.0
 20
0.0
 30
0.0
  3
_DOTBLANK
  1

  0
CIRCLE
  5
7D0
  8
0
  6
BYBLOCK
 62
     0
 10
0.0
 20
0.0
 30
0.0
 40
0.5
  0
LINE
  5
7D1
  8
0
  6
BYBLOCK
 62
     0
 10
-0.5
 20
0.0
 30
0.0
 11
-1.0
 21
0.0
 31
0.0
  0
ENDBLK
  5
7D2
  8
0
  0
BLOCK
  8
0
  2
*D6
 70
     1
 10
0.0
 20
0.0
 30
0.0
  3
*D6
  1

  0
LINE
  5
FD2
  8
SIZE
  6
CONTINUOUS
 62
     0
 10
-340.0
 20
0.0000000000000057
 30
0.0
 11
-715.10036717604817
 21
0.0000000000001119
 31
0.0
  0
LINE
  5
FD3
  8
SIZE
  6
CONTINUOUS
 62
     0
 10
-486.797845249847
 20
371.0
 30
0.0
 11
-715.10036717604805
 21
371.0
 31
0.0
  0
LINE
  5
FD4
  8
SIZE
  6
CONTINUOUS
 62
     0
 10
-685.10036717604805
 20
10.000000000000099
 30
0.0
 11
-685.10036717604805
 21
361.0
 31
0.0
  0
INSERT
  5
FD5
  8
SIZE
  6
CONTINUOUS
 62
     0
  2
_DOTBLANK
 10
-685.10036717604805
 20
0.0000000000001034
 30
0.0
 41
10.0
 42
10.0
 43
10.0
 50
270.0
  0
INSERT
  5
FD6
  8
SIZE
  6
CONTINUOUS
 62
     0
  2
_DOTBLANK
 10
-685.10036717604805
 20
371.0
 30
0.0
 41
10.0
 42
10.0
 43
10.0
 50
90.0
  0
TEXT
  8
0
  40
64
  5
102E
  62
0
  72
0
  71
0
 10
-845.190
 20
72.2200
 30
0.000000
  1
371
  0
POINT
  5
FD8
  8
DEFPOINTS
  6
CONTINUOUS
 62
     0
 10
-320.0
 20
0.0
 30
0.0
  0
POINT
  5
FD9
  8
DEFPOINTS
  6
CONTINUOUS
 62
     0
 10
-466.797845249847
 20
371.0
 30
0.0
  0
POINT
  5
FDA
  8
DEFPOINTS
  6
CONTINUOUS
 62
     0
 10
-685.10036717604805
 20
371.0
 30
0.0
  0
ENDBLK
  5
D3F
  8
0
  0
BLOCK
  8
0
  2
*D7
 70
     1
 10
0.0
 20
0.0
 30
0.0
  3
*D7
  1

  0
LINE
  5
FDB
  8
SIZE
  6
CONTINUOUS
 62
     0
 10
-494.99999999999989
 20
740.0
 30
0.0
 11
-863.54331876902324
 21
740.00000000000011
 31
0.0
  0
LINE
  5
FDC
  8
SIZE
  6
CONTINUOUS
 62
     0
 10
-340.0
 20
0.0000000000000057
 30
0.0
 11
-863.54331876902324
 21
0.000000000000154
 31
0.0
  0
LINE
  5
FDD
  8
SIZE
  6
CONTINUOUS
 62
     0
 10
-833.54331876902313
 20
730.00000000000011
 30
0.0
 11
-833.54331876902324
 21
10.00000000000014
 31
0.0
  0
INSERT
  5
FDE
  8
SIZE
  6
CONTINUOUS
 62
     0
  2
_DOTBLANK
 10
-833.54331876902313
 20
740.00000000000011
 30
0.0
 41
10.0
 42
10.0
 43
10.0
 50
90.0
  0
INSERT
  5
FDF
  8
SIZE
  6
CONTINUOUS
 62
     0
  2
_DOTBLANK
 10
-833.54331876902324
 20
0.0000000000001455
 30
0.0
 41
10.0
 42
10.0
 43
10.0
 50
270.0
  0
TEXT
  8
0
  40
64
  5
102F
  62
0
  72
0
  71
0
 10
-993.633
 20
256.720
 30
0.000000
  1
740
  0
POINT
  5
FE1
  8
DEFPOINTS
  6
CONTINUOUS
 62
     0
 10
-474.99999999999989
 20
740.0
 30
0.0
  0
POINT
  5
FE2
  8
DEFPOINTS
  6
CONTINUOUS
 62
     0
 10
-320.0
 20
0.0
 30
0.0
  0
POINT
  5
FE3
  8
DEFPOINTS
  6
CONTINUOUS
 62
     0
 10
-833.54331876902324
 20
0.0000000000001455
 30
0.0
  0
ENDBLK
  5
D4C
  8
0
  0
BLOCK
  8
0
  2
*D8
 70
     1
 10
0.0
 20
0.0
 30
0.0
  3
*D8
  1

  0
LINE
  5
FE4
  8
SIZE
  6
CONTINUOUS
 62
     0
 10
-152.99999999984689
 20
704.79784525000014
 30
0.0
 11
-152.99999999984689
 21
939.05440862188505
 31
0.0
  0
LINE
  5
FE5
  8
SIZE
  6
CONTINUOUS
 62
     0
 10
-474.99999999999989
 20
760.0
 30
0.0
 11
-474.99999999999989
 21
939.05440862188505
 31
0.0
  0
LINE
  5
FE6
  8
SIZE
  6
CONTINUOUS
 62
     0
 10
-162.99999999984689
 20
909.05440862188516
 30
0.0
 11
-464.99999999999989
 21
909.05440862188516
 31
0.0
  0
INSERT
  5
FE7
  8
SIZE
  6
CONTINUOUS
 62
     0
  2
_DOTBLANK
 10
-152.99999999984689
 20
909.05440862188516
 30
0.0
 41
10.0
 42
10.0
 43
10.0
  0
INSERT
  5
FE8
  8
SIZE
  6
CONTINUOUS
 62
     0
  2
_DOTBLANK
 10
-474.99999999999989
 20
909.05440862188516
 30
0.0
 41
10.0
 42
10.0
 43
10.0
 50
180.0
  0
TEXT
  8
0
  40
64
  5
1030
  62
0
  72
0
  71
0
 10
-442.000
 20
827.864
 30
0.000000
  1
322
  0
POINT
  5
FEA
  8
DEFPOINTS
  6
CONTINUOUS
 62
     0
 10
-152.99999999984689
 20
684.79784525000014
 30
0.0
  0
POINT
  5
FEB
  8
DEFPOINTS
  6
CONTINUOUS
 62
     0
 10
-474.99999999999989
 20
740.0
 30
0.0
  0
POINT
  5
FEC
  8
DEFPOINTS
  6
CONTINUOUS
 62
     0
 10
-474.99999999999989
 20
909.05440862188516
 30
0.0
  0
ENDBLK
  5
D59
  8
0
  0
BLOCK
  8
0
  2
*D9
 70
     1
 10
0.0
 20
0.0
 30
0.0
  3
*D9
  1

  0
LINE
  5
FED
  8
SIZE
  6
CONTINUOUS
 62
     0
 10
475.0
 20
760.00000000000011
 30
0.0
 11
475.0
 21
1174.401728596418
 31
0.0
  0
LINE
  5
FEE
  8
SIZE
  6
CONTINUOUS
 62
     0
 10
-474.99999999999989
 20
760.0
 30
0.0
 11
-474.99999999999989
 21
1174.401728596418
 31
0.0
  0
LINE
  5
FEF
  8
SIZE
  6
CONTINUOUS
 62
     0
 10
465.0
 20
1144.401728596418
 30
0.0
 11
-464.99999999999989
 21
1144.401728596418
 31
0.0
  0
INSERT
  5
FF0
  8
SIZE
  6
CONTINUOUS
 62
     0
  2
_DOTBLANK
 10
475.0
 20
1144.401728596418
 30
0.0
 41
10.0
 42
10.0
 43
10.0
  0
INSERT
  5
FF1
  8
SIZE
  6
CONTINUOUS
 62
     0
  2
_DOTBLANK
 10
-474.99999999999989
 20
1144.401728596418
 30
0.0
 41
10.0
 42
10.0
 43
10.0
 50
180.0
  0
TEXT
  8
0
  40
64
  5
1031
  62
0
  72
0
  71
0
 10
-128.000
 20
1063.21
 30
0.000000
  1
950
  0
POINT
  5
FF3
  8
DEFPOINTS
  6
CONTINUOUS
 62
     0
 10
475.0
 20
740.00000000000011
 30
0.0
  0
POINT
  5
FF4
  8
DEFPOINTS
  6
CONTINUOUS
 62
     0
 10
-474.99999999999989
 20
740.0
 30
0.0
  0
POINT
  5
FF5
  8
DEFPOINTS
  6
CONTINUOUS
 62
     0
 10
-474.99999999999989
 20
1144.401728596418
 30
0.0
  0
ENDBLK
  5
D66
  8
0
  0
BLOCK
  8
0
  2
*D10
 70
     1
 10
0.0
 20
0.0
 30
0.0
  3
*D10
  1

  0
LINE
  5
FF6
  8
SIZE
  6
CONTINUOUS
 62
     0
 10
275.0
 20
499.0
 30
0.0
 11
275.0
 21
936.77700232497125
 31
0.0
  0
LINE
  5
FF7
  8
SIZE
  6
CONTINUOUS
 62
     0
 10
475.0
 20
760.00000000000011
 30
0.0
 11
475.0
 21
936.77700232497125
 31
0.0
  0
LINE
  5
FF8
  8
SIZE
  6
CONTINUOUS
 62
     0
 10
285.0
 20
906.77700232497136
 30
0.0
 11
465.0
 21
906.77700232497136
 31
0.0
  0
INSERT
  5
FF9
  8
SIZE
  6
CONTINUOUS
 62
     0
  2
_DOTBLANK
 10
275.0
 20
906.77700232497136
 30
0.0
 41
10.0
 42
10.0
 43
10.0
 50
180.0
  0
INSERT
  5
FFA
  8
SIZE
  6
CONTINUOUS
 62
     0
  2
_DOTBLANK
 10
475.0
 20
906.77700232497136
 30
0.0
 41
10.0
 42
10.0
 43
10.0
  0
TEXT
  8
0
  40
64
  5
1032
  62
0
  72
0
  71
0
 10
247.000
 20
825.587
 30
0.000000
  1
200
  0
POINT
  5
FFC
  8
DEFPOINTS
  6
CONTINUOUS
 62
     0
 10
275.0
 20
479.0
 30
0.0
  0
POINT
  5
FFD
  8
DEFPOINTS
  6
CONTINUOUS
 62
     0
 10
475.0
 20
740.00000000000011
 30
0.0
  0
POINT
  5
FFE
  8
DEFPOINTS
  6
CONTINUOUS
 62
     0
 10
475.0
 20
906.77700232497136
 30
0.0
  0
ENDBLK
  5
D8B
  8
0
  0
BLOCK
  8
0
  2
*D11
 70
     1
 10
0.0
 20
0.0
 30
0.0
  3
*D11
  1

  0
LINE
  5
FFF
  8
SIZE
  6
CONTINUOUS
 62
     0
 10
315.0
 20
459.0
 30
0.0
 11
1046.867593268802
 21
458.99999999999977
 31
0.0
  0
LINE
  5
1000
  8
SIZE
  6
CONTINUOUS
 62
     0
 10
340.0
 20
-0.0000000000000057
 30
0.0
 11
1046.867593268802
 21
-0.0000000000002059
 31
0.0
  0
LINE
  5
1001
  8
SIZE
  6
CONTINUOUS
 62
     0
 10
1016.867593268802
 20
448.99999999999972
 30
0.0
 11
1016.867593268802
 21
9.9999999999998028
 31
0.0
  0
INSERT
  5
1002
  8
SIZE
  6
CONTINUOUS
 62
     0
  2
_DOTBLANK
 10
1016.867593268802
 20
458.99999999999977
 30
0.0
 41
10.0
 42
10.0
 43
10.0
 50
90.0
  0
INSERT
  5
1003
  8
SIZE
  6
CONTINUOUS
 62
     0
  2
_DOTBLANK
 10
1016.867593268802
 20
-0.0000000000001974
 30
0.0
 41
10.0
 42
10.0
 43
10.0
 50
270.0
  0
TEXT
  8
0
  40
64
  5
1033
  62
0
  72
0
  71
0
 10
856.778
 20
114.919
 30
0.000000
  1
459
  0
POINT
  5
1005
  8
DEFPOINTS
  6
CONTINUOUS
 62
     0
 10
295.0
 20
459.0
 30
0.0
  0
POINT
  5
1006
  8
DEFPOINTS
  6
CONTINUOUS
 62
     0
 10
320.0
 20
0.0
 30
0.0
  0
POINT
  5
1007
  8
DEFPOINTS
  6
CONTINUOUS
 62
     0
 10
1016.867593268802
 20
-0.0000000000001974
 30
0.0
  0
ENDBLK
  5
D98
  8
0
  0
BLOCK
  8
0
  2
*D12
 70
     1
 10
0.0
 20
0.0
 30
0.0
  3
*D12
  1

  0
LINE
  5
1008
  8
SIZE
  6
CONTINUOUS
 62
     0
 10
340.0
 20
-0.0000000000000057
 30
0.0
 11
879.50354756431625
 21
-0.0000000000001585
 31
0.0
  0
LINE
  5
1009
  8
SIZE
  6
CONTINUOUS
 62
     0
 10
417.0
 20
295.0
 30
0.0
 11
879.50354756431636
 21
294.99999999999977
 31
0.0
  0
LINE
  5
100A
  8
SIZE
  6
CONTINUOUS
 62
     0
 10
849.50354756431614
 20
9.9999999999998508
 30
0.0
 11
849.50354756431625
 21
284.99999999999989
 31
0.0
  0
INSERT
  5
100B
  8
SIZE
  6
CONTINUOUS
 62
     0
  2
_DOTBLANK
 10
849.50354756431614
 20
-0.00000000000015
 30
0.0
 41
10.0
 42
10.0
 43
10.0
 50
270.0
  0
INSERT
  5
100C
  8
SIZE
  6
CONTINUOUS
 62
     0
  2
_DOTBLANK
 10
849.50354756431625
 20
294.99999999999989
 30
0.0
 41
10.0
 42
10.0
 43
10.0
 50
90.0
  0
TEXT
  8
0
  40
64
  5
1034
  62
0
  72
0
  71
0
 10
689.414
 20
34.2200
 30
0.000000
  1
295
  0
POINT
  5
100E
  8
DEFPOINTS
  6
CONTINUOUS
 62
     0
 10
320.0
 20
0.0
 30
0.0
  0
POINT
  5
100F
  8
DEFPOINTS
  6
CONTINUOUS
 62
     0
 10
397.0
 20
295.0
 30
0.0
  0
POINT
  5
1010
  8
DEFPOINTS
  6
CONTINUOUS
 62
     0
 10
849.50354756431625
 20
294.99999999999989
 30
0.0
  0
ENDBLK
  5
DB7
  8
0
  0
BLOCK
  8
0
  2
*D13
 70
     1
 10
0.0
 20
0.0
 30
0.0
  3
*D13
  1

  0
LINE
  5
1011
  8
SIZE
  6
CONTINUOUS
 62
     0
 10
472.0
 20
289.0
 30
0.0
 11
709.80706417789406
 21
288.99999999999989
 31
0.0
  0
LINE
  5
1012
  8
SIZE
  6
CONTINUOUS
 62
     0
 10
336.0
 20
-0.0000000000000057
 30
0.0
 11
709.80706417789395
 21
-0.0000000000001116
 31
0.0
  0
LINE
  5
1013
  8
SIZE
  6
CONTINUOUS
 62
     0
 10
679.80706417789418
 20
278.99999999999989
 30
0.0
 11
679.80706417789406
 21
9.9999999999998952
 31
0.0
  0
INSERT
  5
1014
  8
SIZE
  6
CONTINUOUS
 62
     0
  2
_DOTBLANK
 10
679.80706417789418
 20
288.99999999999989
 30
0.0
 41
10.0
 42
10.0
 43
10.0
 50
90.0
  0
INSERT
  5
1015
  8
SIZE
  6
CONTINUOUS
 62
     0
  2
_DOTBLANK
 10
679.80706417789406
 20
-0.0000000000001031
 30
0.0
 41
10.0
 42
10.0
 43
10.0
 50
270.0
  0
TEXT
  8
0
  40
64
  5
1035
  62
0
  72
0
  71
0
 10
519.717
 20
31.2200
 30
0.000000
  1
289
  0
POINT
  5
1017
  8
DEFPOINTS
  6
CONTINUOUS
 62
     0
 10
452.0
 20
289.0
 30
0.0
  0
POINT
  5
1018
  8
DEFPOINTS
  6
CONTINUOUS
 62
     0
 10
316.0
 20
0.0
 30
0.0
  0
POINT
  5
1019
  8
DEFPOINTS
  6
CONTINUOUS
 62
     0
 10
679.80706417789406
 20
-0.0000000000001031
 30
0.0
  0
ENDBLK
  5
E1F
  8
0
  0
BLOCK
  8
0
  2
*D14
 70
     1
 10
0.0
 20
0.0
 30
0.0
  3
*D14
  1

  0
LINE
  5
101A
  8
SIZE
  6
CONTINUOUS
 62
     0
 10
432.0
 20
249.0
 30
0.0
 11
432.0
 21
157.22905377654749
 31
0.0
  0
LINE
  5
101B
  8
SIZE
  6
CONTINUOUS
 62
     0
 10
475.0
 20
43.0
 30
0.0
 11
475.0
 21
217.22905377654749
 31
0.0
  0
LINE
  5
101C
  8
SIZE
  6
CONTINUOUS
 62
     0
 10
442.0
 20
187.22905377654749
 30
0.0
 11
465.0
 21
187.22905377654749
 31
0.0
  0
LINE
  5
101D
  8
SIZE
  6
CONTINUOUS
 62
     0
 10
475.0
 20
187.22905377654749
 30
0.0
 11
578.43714285714282
 21
187.22905377654749
 31
0.0
  0
INSERT
  5
101E
  8
SIZE
  6
CONTINUOUS
 62
     0
  2
_DOTBLANK
 10
432.0
 20
187.22905377654749
 30
0.0
 41
10.0
 42
10.0
 43
10.0
 50
180.0
  0
INSERT
  5
101F
  8
SIZE
  6
CONTINUOUS
 62
     0
  2
_DOTBLANK
 10
475.0
 20
187.22905377654749
 30
0.0
 41
10.0
 42
10.0
 43
10.0
  0
TEXT
  8
0
  40
64
  5
1036
  62
0
  72
0
  71
0
 10
403.719
 20
106.039
 30
0.000000
  1
43
  0
POINT
  5
1021
  8
DEFPOINTS
  6
CONTINUOUS
 62
     0
 10
432.0
 20
269.0
 30
0.0
  0
POINT
  5
1022
  8
DEFPOINTS
  6
CONTINUOUS
 62
     0
 10
475.0
 20
23.0
 30
0.0
  0
POINT
  5
1023
  8
DEFPOINTS
  6
CONTINUOUS
 62
     0
 10
475.0
 20
187.22905377654749
 30
0.0
  0
ENDBLK
  5
E2D
  8
0
  0
BLOCK
  8
0
  2
*D15
 70
     1
 10
0.0
 20
0.0
 30
0.0
  3
*D15
  1

  0
LINE
  5
1024
  8
SIZE
  6
CONTINUOUS
 62
     0
 10
377.0
 20
255.0
 30
0.0
 11
377.0
 21
157.0562109540987
 31
0.0
  0
LINE
  5
1025
  8
SIZE
  6
CONTINUOUS
 62
     0
 10
432.0
 20
249.0
 30
0.0
 11
432.0
 21
157.0562109540987
 31
0.0
  0
LINE
  5
1026
  8
SIZE
  6
CONTINUOUS
 62
     0
 10
422.0
 20
187.0562109540987
 30
0.0
 11
387.0
 21
187.0562109540987
 31
0.0
  0
LINE
  5
1027
  8
SIZE
  6
CONTINUOUS
 62
     0
 10
377.0
 20
187.0562109540987
 30
0.0
 11
269.33989426277191
 21
187.0562109540987
 31
0.0
  0
INSERT
  5
1028
  8
SIZE
  6
CONTINUOUS
 62
     0
  2
_DOTBLANK
 10
432.0
 20
187.0562109540987
 30
0.0
 41
10.0
 42
10.0
 43
10.0
  0
INSERT
  5
1029
  8
SIZE
  6
CONTINUOUS
 62
     0
  2
_DOTBLANK
 10
377.0
 20
187.0562109540987
 30
0.0
 41
10.0
 42
10.0
 43
10.0
 50
180.0
  0
TEXT
  8
0
  40
64
  5
1037
  62
0
  72
0
  71
0
 10
188.058
 20
105.866
 30
0.000000
  1
55
  0
POINT
  5
102B
  8
DEFPOINTS
  6
CONTINUOUS
 62
     0
 10
377.0
 20
275.0
 30
0.0
  0
POINT
  5
102C
  8
DEFPOINTS
  6
CONTINUOUS
 62
     0
 10
432.0
 20
269.0
 30
0.0
  0
POINT
  5
102D
  8
DEFPOINTS
  6
CONTINUOUS
 62
     0
 10
432.0
 20
187.0562109540987
 30
0.0
  0
ENDBLK
  5
E3B
  8
0
  0
BLOCK
  8
0
  2
*D16
 70
     1
 10
0.0
 20
0.0
 30
0.0
  3
*D16
  1

  0
LINE
  5
FC9
  8
SIZE
  6
CONTINUOUS
 62
     0
 10
475.0
 20
3.0
 30
0.0
 11
474.99999999999989
 21
-573.01396200505167
 31
0.0
  0
LINE
  5
FCA
  8
SIZE
  6
CONTINUOUS
 62
     0
 10
-474.99999999999989
 20
3.0
 30
0.0
 11
-475.0
 21
-573.01396200505167
 31
0.0
  0
LINE
  5
FCB
  8
SIZE
  6
CONTINUOUS
 62
     0
 10
464.99999999999989
 20
-543.01396200505178
 30
0.0
 11
-465.0
 21
-543.01396200505178
 31
0.0
  0
INSERT
  5
FCC
  8
SIZE
  6
CONTINUOUS
 62
     0
  2
_DOTBLANK
 10
474.99999999999989
 20
-543.01396200505178
 30
0.0
 41
10.0
 42
10.0
 43
10.0
  0
INSERT
  5
FCD
  8
SIZE
  6
CONTINUOUS
 62
     0
  2
_DOTBLANK
 10
-475.0
 20
-543.01396200505178
 30
0.0
 41
10.0
 42
10.0
 43
10.0
 50
180.0
  0
TEXT
  8
0
  40
64
  5
1038
  62
0
  72
0
  71
0
 10
-128.000
 20
-624.204
 30
0.000000
  1
950
  0
POINT
  5
FCF
  8
DEFPOINTS
  6
CONTINUOUS
 62
     0
 10
475.0
 20
23.0
 30
0.0
  0
POINT
  5
FD0
  8
DEFPOINTS
  6
CONTINUOUS
 62
     0
 10
-474.99999999999989
 20
23.0
 30
0.0
  0
POINT
  5
FD1
  8
DEFPOINTS
  6
CONTINUOUS
 62
     0
 10
-475.0
 20
-543.01396200505178
 30
0.0
  0
ENDBLK
  5
E97
  8
0
  0
BLOCK
  8
0
  2
*D17
 70
     1
 10
0.0
 20
0.0
 30
0.0
  3
*D17
  1

  0
LINE
  5
FC0
  8
SIZE
  6
CONTINUOUS
 62
     0
 10
300.0
 20
-40.0
 30
0.0
 11
300.0
 21
-436.34640411009718
 31
0.0
  0
LINE
  5
FC1
  8
SIZE
  6
CONTINUOUS
 62
     0
 10
475.0
 20
3.0
 30
0.0
 11
475.0
 21
-436.34640411009718
 31
0.0
  0
LINE
  5
FC2
  8
SIZE
  6
CONTINUOUS
 62
     0
 10
310.0
 20
-406.3464041100973
 30
0.0
 11
465.0
 21
-406.3464041100973
 31
0.0
  0
INSERT
  5
FC3
  8
SIZE
  6
CONTINUOUS
 62
     0
  2
_DOTBLANK
 10
300.0
 20
-406.3464041100973
 30
0.0
 41
10.0
 42
10.0
 43
10.0
 50
180.0
  0
INSERT
  5
FC4
  8
SIZE
  6
CONTINUOUS
 62
     0
  2
_DOTBLANK
 10
475.0
 20
-406.3464041100973
 30
0.0
 41
10.0
 42
10.0
 43
10.0
  0
TEXT
  8
0
  40
64
  5
1039
  62
0
  72
0
  71
0
 10
259.500
 20
-487.536
 30
0.000000
  1
175
  0
POINT
  5
FC6
  8
DEFPOINTS
  6
CONTINUOUS
 62
     0
 10
300.0
 20
-20.0
 30
0.0
  0
POINT
  5
FC7
  8
DEFPOINTS
  6
CONTINUOUS
 62
     0
 10
475.0
 20
23.0
 30
0.0
  0
POINT
  5
FC8
  8
DEFPOINTS
  6
CONTINUOUS
 62
     0
 10
475.0
 20
-406.3464041100973
 30
0.0
  0
ENDBLK
  5
EA3
  8
0
  0
BLOCK
  8
0
  2
*D18
 70
     1
 10
0.0
 20
0.0
 30
0.0
  3
*D18
  1

  0
LINE
  5
FB7
  8
SIZE
  6
CONTINUOUS
 62
     0
 10
-300.0
 20
-40.0
 30
0.0
 11
-300.0
 21
-436.34640411009718
 31
0.0
  0
LINE
  5
FB8
  8
SIZE
  6
CONTINUOUS
 62
     0
 10
-474.99999999999989
 20
3.0
 30
0.0
 11
-474.99999999999989
 21
-436.34640411009718
 31
0.0
  0
LINE
  5
FB9
  8
SIZE
  6
CONTINUOUS
 62
     0
 10
-310.0
 20
-406.3464041100973
 30
0.0
 11
-464.99999999999989
 21
-406.3464041100973
 31
0.0
  0
INSERT
  5
FBA
  8
SIZE
  6
CONTINUOUS
 62
     0
  2
_DOTBLANK
 10
-300.0
 20
-406.3464041100973
 30
0.0
 41
10.0
 42
10.0
 43
10.0
  0
INSERT
  5
FBB
  8
SIZE
  6
CONTINUOUS
 62
     0
  2
_DOTBLANK
 10
-474.99999999999989
 20
-406.3464041100973
 30
0.0
 41
10.0
 42
10.0
 43
10.0
 50
180.0
  0
TEXT
  8
0
  40
64
  5
103A
  62
0
  72
0
  71
0
 10
-515.500
 20
-487.536
 30
0.000000
  1
175
  0
POINT
  5
FBD
  8
DEFPOINTS
  6
CONTINUOUS
 62
     0
 10
-300.0
 20
-20.0
 30
0.0
  0
POINT
  5
FBE
  8
DEFPOINTS
  6
CONTINUOUS
 62
     0
 10
-474.99999999999989
 20
23.0
 30
0.0
  0
POINT
  5
FBF
  8
DEFPOINTS
  6
CONTINUOUS
 62
     0
 10
-474.99999999999989
 20
-406.3464041100973
 30
0.0
  0
ENDBLK
  5
EC1
  8
0
  0
BLOCK
  8
0
  2
*D19
 70
     1
 10
0.0
 20
0.0
 30
0.0
  3
*D19
  1

  0
LINE
  5
F99
  8
SIZE
  6
CONTINUOUS
 62
     0
 10
-494.99999999999989
 20
23.0
 30
0.0
 11
-617.48247724767032
 21
23.000000000000028
 31
0.0
  0
LINE
  5
F9A
  8
SIZE
  6
CONTINUOUS
 62
     0
 10
-340.0
 20
0.0000000000000057
 30
0.0
 11
-617.48247724767032
 21
0.0000000000000843
 31
0.0
  0
LINE
  5
F9B
  8
SIZE
  6
CONTINUOUS
 62
     0
 10
-587.48247724767032
 20
13.00000000000003
 30
0.0
 11
-587.48247724767032
 21
10.000000000000069
 31
0.0
  0
TEXT
  8
0
  40
64
  5
103B
  62
0
  72
0
  71
0
 10
-777.617
 20
-101.780
 30
0.000000
  1
23
  0
INSERT
  5
F9D
  8
SIZE
  6
CONTINUOUS
 62
     0
  2
_DOTBLANK
 10
-587.48247724767032
 20
23.000000000000028
 30
0.0
 41
10.0
 42
10.0
 43
10.0
 50
90.0
  0
INSERT
  5
F9E
  8
SIZE
  6
CONTINUOUS
 62
     0
  2
_DOTBLANK
 10
-587.48247724767032
 20
0.0000000000000758
 30
0.0
 41
10.0
 42
10.0
 43
10.0
 50
270.0
  0
POINT
  5
F9F
  8
DEFPOINTS
  6
CONTINUOUS
 62
     0
 10
-474.99999999999989
 20
23.0
 30
0.0
  0
POINT
  5
FA0
  8
DEFPOINTS
  6
CONTINUOUS
 62
     0
 10
-320.0
 20
0.0
 30
0.0
  0
POINT
  5
FA1
  8
DEFPOINTS
  6
CONTINUOUS
 62
     0
 10
-587.48247724767032
 20
0.0000000000000758
 30
0.0
  0
ENDBLK
  5
ECD
  8
0
  0
BLOCK
  8
0
  2
*D20
 70
     1
 10
0.0
 20
0.0
 30
0.0
  3
*D20
  1

  0
LINE
  5
FAE
  8
SIZE
  6
CONTINUOUS
 62
     0
 10
-300.0
 20
-40.0
 30
0.0
 11
-300.0
 21
-436.34640411009718
 31
0.0
  0
LINE
  5
FAF
  8
SIZE
  6
CONTINUOUS
 62
     0
 10
300.0
 20
-40.0
 30
0.0
 11
300.0
 21
-436.34640411009718
 31
0.0
  0
LINE
  5
FB0
  8
SIZE
  6
CONTINUOUS
 62
     0
 10
-290.0
 20
-406.3464041100973
 30
0.0
 11
290.0
 21
-406.3464041100973
 31
0.0
  0
INSERT
  5
FB1
  8
SIZE
  6
CONTINUOUS
 62
     0
  2
_DOTBLANK
 10
-300.0
 20
-406.3464041100973
 30
0.0
 41
10.0
 42
10.0
 43
10.0
 50
180.0
  0
INSERT
  5
FB2
  8
SIZE
  6
CONTINUOUS
 62
     0
  2
_DOTBLANK
 10
300.0
 20
-406.3464041100973
 30
0.0
 41
10.0
 42
10.0
 43
10.0
  0
TEXT
  8
0
  40
64
  5
103C
  62
0
  72
0
  71
0
 10
-128.000
 20
-487.536
 30
0.000000
  1
600
  0
POINT
  5
FB4
  8
DEFPOINTS
  6
CONTINUOUS
 62
     0
 10
-300.0
 20
-20.0
 30
0.0
  0
POINT
  5
FB5
  8
DEFPOINTS
  6
CONTINUOUS
 62
     0
 10
300.0
 20
-20.0
 30
0.0
  0
POINT
  5
FB6
  8
DEFPOINTS
  6
CONTINUOUS
 62
     0
 10
300.0
 20
-406.3464041100973
 30
0.0
  0
ENDBLK
  5
ED9
  8
0
  0
ENDSEC
  0
SECTION
  2
ENTITIES
  0
TEXT
  5
C8A
  8
NOTE
  6
CONTINUOUS
 10
-1088.8291740332361
 20
-259.13038127694142
 30
0.0
 40
64.0
  1
AH 2-12×36
 41
0.9
  0
LINE
  5
C8B
  8
NOTE
  6
CONTINUOUS
 10
-1103.609479033234
 20
-274.23268227694132
 30
0.0
 11
-530.5400718084968
 21
-274.23268227694132
 31
0.0
  0
CIRCLE
  5
C8C
  8
ARRANGE
  6
CONTINUOUS
 10
0.0
 20
0.0
 30
0.0
 40
40.0
  0
LINE
  5
C8D
  8
BASIS
  6
DASHDOT
 10
-466.797845249847
 20
371.0
 30
0.0
 11
160.7978452501529
 21
371.0
 31
0.0
  0
POINT
  5
C8E
  8
ARRANGE
  6
CONTINUOUS
 10
0.0
 20
0.0
 30
0.0
  0
CIRCLE
  5
C8F
  8
FIX
  6
CONTINUOUS
 10
-300.0
 20
0.0
 30
0.0
 40
40.0
  0
LINE
  5
C90
  8
DETAIL
  6
CONTINOUS
 10
-316.0
 20
22.999999999999542
 30
0.0
 11
-316.0
 21
0.0
 31
0.0
  0
LINE
  5
C91
  8
DETAIL
  6
CONTINOUS
 10
-284.0
 20
22.999999999999542
 30
0.0
 11
-284.0
 21
0.0
 31
0.0
  0
LINE
  5
C92
  8
BASIS
  6
DASHDOT
 10
0.0
 20
985.82556143500028
 30
0.0
 11
0.0
 21
-80.029089744999965
 31
0.0
  0
LINE
  5
C93
  8
NOTE
  6
CONTINOUS
 10
-300.0
 20
20.0
 30
0.0
 11
-300.0
 21
-20.0
 31
0.0
  0
LINE
  5
C94
  8
NOTE
  6
CONTINOUS
 10
-320.0
 20
0.0
 30
0.0
 11
-280.0
 21
0.0
 31
0.0
  0
LINE
  5
C95
  8
DETAIL
  6
CONTINOUS
 10
-316.0
 20
0.0
 30
0.0
 11
-284.0
 21
0.0
 31
0.0
  0
LINE
  5
C96
  8
DETAIL
  6
CONTINOUS
 10
-474.99999999999989
 20
23.0
 30
0.0
 11
-474.99999999999989
 21
740.0
 31
0.0
  0
CIRCLE
  5
C97
  8
FIX
  6
CONTINUOUS
 10
300.0
 20
0.0
 30
0.0
 40
40.0
  0
LINE
  5
C98
  8
DETAIL
  6
CONTINOUS
 10
284.0
 20
22.999999999999542
 30
0.0
 11
284.0
 21
0.0
 31
0.0
  0
LINE
  5
C99
  8
DETAIL
  6
CONTINOUS
 10
316.0
 20
22.999999999999542
 30
0.0
 11
316.0
 21
0.0
 31
0.0
  0
LINE
  5
C9A
  8
NOTE
  6
CONTINOUS
 10
300.0
 20
20.0
 30
0.0
 11
300.0
 21
-20.0
 31
0.0
  0
TEXT
  5
C9B
  8
ETC
  6
CONTINUOUS
 10
1198.457716830522
 20
-227.77569851777071
 30
0.0
 40
64.0
  1
SMPU2942
 41
0.9
  0
LINE
  5
C9C
  8
NOTE
  6
CONTINOUS
 10
280.0
 20
0.0
 30
0.0
 11
320.0
 21
0.0
 31
0.0
  0
LINE
  5
C9D
  8
DETAIL
  6
CONTINOUS
 10
284.0
 20
0.0
 30
0.0
 11
316.0
 21
0.0
 31
0.0
  0
TEXT
  5
C9E
  8
ETC
  6
CONTINUOUS
 10
1210.280460830523
 20
-346.94229951777061
 30
0.0
 40
64.0
  1
室外機
 41
0.9
  0
LINE
  5
C9F
  8
DETAIL
  6
CONTINOUS
 10
475.0
 20
23.0
 30
0.0
 11
475.0
 21
740.00000000000011
 31
0.0
  0
POLYLINE
  5
CA0
  8
NOTE
  6
CONTINUOUS
 66
     1
 10
0.0
 20
0.0
 30
0.0
  0
VERTEX
  5
F95
  8
NOTE
  6
CONTINUOUS
 10
-317.21532719432111
 20
-36.105851700936903
 30
0.0
  0
VERTEX
  5
F96
  8
NOTE
  6
CONTINUOUS
 10
-300.0
 20
0.0
 30
0.0
  0
VERTEX
  5
F97
  8
NOTE
  6
CONTINUOUS
 10
-332.96183612112861
 20
-22.660921497029889
 30
0.0
  0
SEQEND
  5
F98
  8
NOTE
  6
CONTINUOUS
  0
LINE
  5
CA5
  8
NOTE
  6
CONTINUOUS
 10
-300.0
 20
0.0
 30
0.0
 11
-530.5400718084968
 21
-274.23268227694132
 31
0.0
  0
ARC
  5
CA6
  8
DETAIL
 10
-153.61937628180141
 20
371.26828366823793
 30
1.0049964175586230E+099
 40
278.11950567951942
 50
324.25620727272252
 51
35.03548794368136
  0
ARC
  5
CA7
  8
DETAIL
 10
228.79236219197691
 20
73.153822993974529
 30
1.0049964175586230E+099
 40
207.24088905766081
 50
139.11513446632151
 51
177.55355879231041
  0
ARC
  5
CA8
  8
DETAIL
 10
228.79236219785321
 20
668.84617699802686
 30
1.0049964175586230E+099
 40
207.24088905766081
 50
182.44644120522111
 51
221.71892069730279
  0
ARC
  5
CA9
  8
DETAIL
 10
-152.3806237154941
 20
371.26828366823162
 30
1.0049964175586230E+099
 40
278.11950567951942
 50
144.96451205575141
 51
215.74379272671311
  0
ARC
  5
CAA
  8
DETAIL
 10
-534.79236219221355
 20
668.84617700179319
 30
1.0049964175586230E+099
 40
207.24088905766081
 50
318.28107930213451
 51
357.38201467665021
  0
ARC
  5
CAB
  8
DETAIL
 10
-534.79236219221355
 20
73.153822997740917
 30
1.0049964175586230E+099
 40
207.24088905766081
 50
2.6179853233495911
 51
40.884865533106122
  0
LINE
  5
CAC
  8
DETAIL
 10
136.00000000015299
 20
650.50144689647504
 30
0.0
 11
136.00000000015299
 21
91.498553103990616
 31
0.0
  0
LINE
  5
CAD
  8
DETAIL
 10
-441.99999999984732
 20
91.498553103057944
 30
0.0
 11
-441.99999999984732
 21
650.50144689647573
 31
0.0
  0
LINE
  5
CAE
  8
DETAIL
 10
126.50144689616739
 20
82.000000000460545
 30
0.0
 11
-432.50144689631691
 21
82.000000000460545
 31
0.0
  0
ARC
  5
CAF
  8
DETAIL
 10
-432.4999999998472
 20
91.500000000460545
 30
0.0
 40
9.5000001101846365
 50
180.0087264246668
 51
269.99127357533303
  0
ARC
  5
CB0
  8
DETAIL
 10
126.50000000015289
 20
91.500000000460545
 30
0.0
 40
9.5000001101846365
 50
270.0087264246668
 51
359.99127357533303
  0
LINE
  5
CB1
  8
DETAIL
 10
-432.50144689061511
 20
660.00000000046214
 30
0.0
 11
126.50144689616739
 21
660.00000000046111
 31
0.0
  0
ARC
  5
CB2
  8
DETAIL
 10
-432.49999999984681
 20
650.50000000046111
 30
0.0
 40
9.5000001101848621
 50
90.008726424666946
 51
179.991273575333
  0
ARC
  5
CB3
  8
DETAIL
 10
126.50144689616739
 20
650.50144689647504
 30
0.0
 40
9.4985531039857793
 50
0.0
 51
90.0
  0
LINE
  5
CB4
  8
BASIS
  6
DASHDOT
 10
-152.99999999984689
 20
684.79784525000014
 30
0.0
 11
-152.99999999984689
 21
57.202154749999742
 31
0.0
  0
LINE
  5
CB5
  8
DETAIL
 10
-157.99999999984681
 20
660.00000000046145
 30
0.0
 11
-157.99999999984681
 21
82.000000000460545
 31
0.0
  0
LINE
  5
CB6
  8
DETAIL
 10
-147.99999999984689
 20
660.00000000046145
 30
0.0
 11
-147.99999999984689
 21
82.000000000460545
 31
0.0
  0
LINE
  5
CB7
  8
DETAIL
 10
-137.99999999984681
 20
660.00000000046145
 30
0.0
 11
-137.99999999984681
 21
82.000000000460545
 31
0.0
  0
LINE
  5
CB8
  8
DETAIL
 10
-127.99999999984691
 20
660.00000000046145
 30
0.0
 11
-127.99999999984691
 21
82.000000000460545
 31
0.0
  0
LINE
  5
CB9
  8
DETAIL
 10
-117.99999999984691
 20
660.00000000046145
 30
0.0
 11
-117.99999999984691
 21
82.000000000460545
 31
0.0
  0
LINE
  5
CBA
  8
DETAIL
 10
-107.99999999984691
 20
660.00000000046145
 30
0.0
 11
-107.99999999984691
 21
82.000000000460545
 31
0.0
  0
LINE
  5
CBB
  8
DETAIL
 10
-97.999999999846992
 20
660.00000000046145
 30
0.0
 11
-97.999999999846992
 21
82.000000000460545
 31
0.0
  0
LINE
  5
CBC
  8
DETAIL
 10
-87.999999999846921
 20
660.00000000046145
 30
0.0
 11
-87.999999999846921
 21
82.000000000460545
 31
0.0
  0
LINE
  5
CBD
  8
DETAIL
 10
-77.999999999846978
 20
660.00000000046145
 30
0.0
 11
-77.999999999846978
 21
82.000000000460545
 31
0.0
  0
LINE
  5
CBE
  8
DETAIL
 10
-67.999999999846978
 20
660.00000000046145
 30
0.0
 11
-67.999999999846978
 21
82.000000000460545
 31
0.0
  0
LINE
  5
CBF
  8
DETAIL
 10
-57.999999999846978
 20
660.00000000046145
 30
0.0
 11
-57.999999999846978
 21
82.000000000460545
 31
0.0
  0
LINE
  5
CC0
  8
DETAIL
 10
-47.999999999846978
 20
660.00000000046145
 30
0.0
 11
-47.999999999846978
 21
82.000000000460545
 31
0.0
  0
LINE
  5
CC1
  8
DETAIL
 10
-37.99999999984697
 20
660.00000000046145
 30
0.0
 11
-37.99999999984697
 21
82.000000000460545
 31
0.0
  0
LINE
  5
CC2
  8
DETAIL
 10
-27.99999999984697
 20
660.00000000046145
 30
0.0
 11
-27.99999999984697
 21
82.000000000460545
 31
0.0
  0
LINE
  5
CC3
  8
DETAIL
 10
-17.99999999984697
 20
660.00000000046145
 30
0.0
 11
-17.99999999984697
 21
82.000000000460545
 31
0.0
  0
LINE
  5
CC4
  8
DETAIL
 10
-7.9999999998469766
 20
660.00000000046145
 30
0.0
 11
-7.9999999998469766
 21
82.000000000460545
 31
0.0
  0
LINE
  5
CC5
  8
DETAIL
 10
2.000000000153022
 20
660.00000000046145
 30
0.0
 11
2.000000000153022
 21
82.000000000460545
 31
0.0
  0
LINE
  5
CC6
  8
DETAIL
 10
12.000000000153021
 20
660.00000000046145
 30
0.0
 11
12.000000000153021
 21
82.000000000460545
 31
0.0
  0
LINE
  5
CC7
  8
DETAIL
 10
22.000000000152959
 20
655.2188135661363
 30
0.0
 11
22.000000000153019
 21
86.781186515035927
 31
0.0
  0
LINE
  5
CC8
  8
DETAIL
 10
32.000000000153022
 20
603.87270334870743
 30
0.0
 11
32.000000000153022
 21
138.1272966610922
 31
0.0
  0
LINE
  5
CC9
  8
DETAIL
 10
42.000000000153022
 20
579.08315832099674
 30
0.0
 11
42.000000000153022
 21
162.91684168323269
 31
0.0
  0
LINE
  5
CCA
  8
DETAIL
 10
52.000000000153072
 20
560.71086007535439
 30
0.0
 11
52.000000000153072
 21
181.28913992625459
 31
0.0
  0
LINE
  5
CCB
  8
DETAIL
 10
62.000000000153072
 20
545.84579484447067
 30
0.0
 11
62.000000000153072
 21
196.15420515549911
 31
0.0
  0
LINE
  5
CCC
  8
DETAIL
 10
72.000000000153065
 20
533.32886720376177
 30
0.0
 11
72.000000000153065
 21
208.67113279503869
 31
0.0
  0
LINE
  5
CCD
  8
DETAIL
 10
82.000000000153065
 20
519.03150290740746
 30
0.0
 11
82.000000000153065
 21
223.5050644290678
 31
0.0
  0
LINE
  5
CCE
  8
DETAIL
 10
92.000000000152966
 20
501.735066545275
 30
0.0
 11
92.000000000152966
 21
240.80150079120099
 31
0.0
  0
LINE
  5
CCF
  8
DETAIL
 10
102.00000000015289
 20
480.85475139416099
 30
0.0
 11
102.00000000015289
 21
261.6818159423147
 31
0.0
  0
LINE
  5
CD0
  8
DETAIL
 10
112.00000000015289
 20
453.71102975912038
 30
0.0
 11
112.00000000015289
 21
288.82553757735531
 31
0.0
  0
LINE
  5
CD1
  8
DETAIL
 10
122.00000000015299
 20
510.47606319527108
 30
0.0
 11
122.00000000015299
 21
436.06050414028272
 31
0.0
  0
LINE
  5
CD2
  8
DETAIL
 10
-427.99999999984692
 20
408.47606319573219
 30
0.0
 11
-427.99999999984692
 21
334.06050414074377
 31
0.0
  0
LINE
  5
CD3
  8
DETAIL
 10
-327.99999999984681
 20
655.2188135661363
 30
0.0
 11
-327.99999999984681
 21
86.781186515035927
 31
0.0
  0
LINE
  5
CD4
  8
DETAIL
 10
-417.99999999984698
 20
453.71102975912038
 30
0.0
 11
-417.99999999984698
 21
288.82553757735531
 31
0.0
  0
LINE
  5
CD5
  8
DETAIL
 10
-407.99999999984669
 20
480.85475139416099
 30
0.0
 11
-407.99999999984669
 21
261.6818159423147
 31
0.0
  0
LINE
  5
CD6
  8
DETAIL
 10
-397.99999999984681
 20
501.735066545275
 30
0.0
 11
-397.99999999984681
 21
240.80150079120099
 31
0.0
  0
LINE
  5
CD7
  8
DETAIL
 10
-387.99999999984681
 20
519.03150290740746
 30
0.0
 11
-387.99999999984681
 21
223.5050644290678
 31
0.0
  0
LINE
  5
CD8
  8
DETAIL
 10
-377.99999999984681
 20
533.32886720376177
 30
0.0
 11
-377.99999999984681
 21
208.67113279503869
 31
0.0
  0
LINE
  5
CD9
  8
DETAIL
 10
-367.99999999984681
 20
545.84579484447067
 30
0.0
 11
-367.99999999984681
 21
196.15420515549911
 31
0.0
  0
LINE
  5
CDA
  8
DETAIL
 10
-357.99999999984669
 20
560.71086007535439
 30
0.0
 11
-357.99999999984669
 21
181.28913992625459
 31
0.0
  0
LINE
  5
CDB
  8
DETAIL
 10
-347.99999999984681
 20
579.08315832099674
 30
0.0
 11
-347.99999999984681
 21
162.91684168323269
 31
0.0
  0
LINE
  5
CDC
  8
DETAIL
 10
-337.99999999984698
 20
603.87270334870743
 30
0.0
 11
-337.99999999984698
 21
138.1272966610922
 31
0.0
  0
LINE
  5
CDD
  8
DETAIL
 10
-317.99999999984681
 20
660.00000000046145
 30
0.0
 11
-317.99999999984681
 21
82.000000000460545
 31
0.0
  0
LINE
  5
CDE
  8
DETAIL
 10
-307.99999999984669
 20
660.00000000046145
 30
0.0
 11
-307.99999999984669
 21
82.000000000460545
 31
0.0
  0
LINE
  5
CDF
  8
DETAIL
 10
-237.99999999984701
 20
660.00000000046145
 30
0.0
 11
-237.99999999984701
 21
82.000000000460545
 31
0.0
  0
LINE
  5
CE0
  8
DETAIL
 10
-227.99999999984689
 20
660.00000000046145
 30
0.0
 11
-227.99999999984689
 21
82.000000000460545
 31
0.0
  0
LINE
  5
CE1
  8
DETAIL
 10
-217.99999999984681
 20
660.00000000046145
 30
0.0
 11
-217.99999999984681
 21
82.000000000460545
 31
0.0
  0
LINE
  5
CE2
  8
DETAIL
 10
-207.99999999984669
 20
660.00000000046145
 30
0.0
 11
-207.99999999984669
 21
82.000000000460545
 31
0.0
  0
LINE
  5
CE3
  8
DETAIL
 10
-197.99999999984689
 20
660.00000000046145
 30
0.0
 11
-197.99999999984689
 21
82.000000000460545
 31
0.0
  0
LINE
  5
CE4
  8
DETAIL
 10
-187.99999999984669
 20
660.00000000046145
 30
0.0
 11
-187.99999999984669
 21
82.000000000460545
 31
0.0
  0
LINE
  5
CE5
  8
DETAIL
 10
-177.99999999984689
 20
660.00000000046145
 30
0.0
 11
-177.99999999984689
 21
82.000000000460545
 31
0.0
  0
LINE
  5
CE6
  8
DETAIL
 10
-167.99999999984681
 20
660.00000000046145
 30
0.0
 11
-167.99999999984681
 21
82.000000000460545
 31
0.0
  0
LINE
  5
CE7
  8
DETAIL
 10
-297.99999999984681
 20
660.00000000046145
 30
0.0
 11
-297.99999999984681
 21
82.000000000460545
 31
0.0
  0
LINE
  5
CE8
  8
DETAIL
 10
-287.99999999984681
 20
660.00000000046145
 30
0.0
 11
-287.99999999984681
 21
82.000000000460545
 31
0.0
  0
LINE
  5
CE9
  8
DETAIL
 10
-277.99999999984681
 20
660.00000000046145
 30
0.0
 11
-277.99999999984681
 21
82.000000000460545
 31
0.0
  0
LINE
  5
CEA
  8
DETAIL
 10
-267.99999999984681
 20
660.00000000046145
 30
0.0
 11
-267.99999999984681
 21
82.000000000460545
 31
0.0
  0
LINE
  5
CEB
  8
DETAIL
 10
-257.99999999984669
 20
660.00000000046145
 30
0.0
 11
-257.99999999984669
 21
82.000000000460545
 31
0.0
  0
LINE
  5
CEC
  8
DETAIL
 10
-247.99999999984681
 20
660.00000000046145
 30
0.0
 11
-247.99999999984681
 21
82.000000000460545
 31
0.0
  0
LINE
  5
CED
  8
DETAIL
 10
-157.99999999984681
 20
660.00000000046145
 30
0.0
 11
-157.99999999984681
 21
82.000000000460545
 31
0.0
  0
LINE
  5
CEE
  8
NOTE
  6
CONTINOUS
 10
295.0
 20
459.0
 30
0.0
 11
255.0
 21
459.0
 31
0.0
  0
LINE
  5
CEF
  8
NOTE
  6
CONTINOUS
 10
275.0
 20
439.0
 30
0.0
 11
275.0
 21
479.0
 31
0.0
  0
LINE
  5
CF0
  8
NOTE
  6
CONTINOUS
 10
397.0
 20
295.0
 30
0.0
 11
357.0
 21
295.0
 31
0.0
  0
LINE
  5
CF1
  8
NOTE
  6
CONTINOUS
 10
377.0
 20
275.0
 30
0.0
 11
377.0
 21
315.0
 31
0.0
  0
LINE
  5
CF2
  8
NOTE
  6
CONTINOUS
 10
452.0
 20
289.0
 30
0.0
 11
412.0
 21
289.0
 31
0.0
  0
LINE
  5
CF3
  8
NOTE
  6
CONTINOUS
 10
432.0
 20
269.0
 30
0.0
 11
432.0
 21
309.0
 31
0.0
  0
LINE
  5
CF4
  8
DETAIL
  6
CONTINUOUS
 10
475.0
 20
23.0
 30
0.0
 11
-474.99999999999989
 21
23.0
 31
0.0
  0
DIMENSION
  5
CF5
  8
SIZE
  6
CONTINUOUS
  2
*D19
 10
-587.48247724767032
 20
0.0000000000000758
 30
0.0
 11
-649.61747724767019
 21
11.499999999999959
 31
0.0
 70
     0
 13
-474.99999999999989
 23
23.0
 33
0.0
 14
-320.0
 24
0.0
 34
0.0
 50
90.0
1001
ACAD
1000
DSTYLE
1002
{
1070
     6
1000
DOTBLANK
1070
     7
1000
DOTBLANK
1070
    41
1040
10.0
1070
    42
1040
20.0
1070
    43
1040
200.0
1070
    44
1040
30.0
1070
    73
1070
     0
1070
    74
1070
     0
1070
    77
1070
     1
1070
    78
1070
     8
1070
   140
1040
64.0
1070
   172
1070
     1
1070
   173
1070
     1
1002
}
  0
TEXT
  5
D00
  8
NOTE
  6
CONTINUOUS
 10
697.74983536164655
 20
707.03326903581365
 30
0.0
 40
64.0
  1
RL%%C9.52
 41
0.9
  0
LINE
  5
D01
  8
NOTE
  6
CONTINUOUS
 10
1043.9773809217049
 20
687.31662178698502
 30
0.0
 11
670.26981727950238
 21
687.31662178698446
 31
0.0
  0
LINE
  5
D02
  8
NOTE
  6
CONTINUOUS
 10
643.77094667509925
 20
567.61745293822526
 30
0.0
 11
1080.591221793368
 21
567.61745293822548
 31
0.0
  0
TEXT
  5
D03
  8
NOTE
  6
CONTINUOUS
 10
682.07714041584563
 20
587.89880893822556
 30
0.0
 40
64.0
  1
RG%%C15.88
 41
0.9
  0
LINE
  5
D04
  8
NOTE
  6
CONTINUOUS
 10
568.26981727950226
 20
851.31662178698298
 30
0.0
 11
816.69015457722492
 21
851.31662178698298
 31
0.0
  0
TEXT
  5
D05
  8
NOTE
  6
CONTINUOUS
 10
583.05012227950215
 20
866.41892278698401
 30
0.0
 40
64.0
  1
EL,CL
 41
0.9
  0
LINE
  5
D06
  8
NOTE
  6
CONTINUOUS
 10
275.0
 20
459.0
 30
0.0
 11
568.26981727950226
 21
851.31662178698298
 31
0.0
  0
POLYLINE
  5
D07
  8
NOTE
  6
CONTINUOUS
 66
     1
 10
0.0
 20
0.0
 30
0.0
  0
VERTEX
  5
FA2
  8
NOTE
  6
CONTINUOUS
 10
290.12549742409982
 20
496.02997900527532
 30
0.0
  0
VERTEX
  5
FA3
  8
NOTE
  6
CONTINUOUS
 10
275.0
 20
459.0
 30
0.0
  0
VERTEX
  5
FA4
  8
NOTE
  6
CONTINUOUS
 10
306.61405408647988
 20
483.50615407990063
 30
0.0
  0
SEQEND
  5
FA5
  8
NOTE
  6
CONTINUOUS
  0
LINE
  5
D0C
  8
NOTE
  6
CONTINUOUS
 10
377.0
 20
295.0
 30
0.0
 11
670.26981727950238
 21
687.31662178698446
 31
0.0
  0
POLYLINE
  5
D0D
  8
NOTE
  6
CONTINUOUS
 66
     1
 10
0.0
 20
0.0
 30
0.0
  0
VERTEX
  5
FA6
  8
NOTE
  6
CONTINUOUS
 10
392.12549742409988
 20
332.0299790052751
 30
0.0
  0
VERTEX
  5
FA7
  8
NOTE
  6
CONTINUOUS
 10
377.0
 20
295.0
 30
0.0
  0
VERTEX
  5
FA8
  8
NOTE
  6
CONTINUOUS
 10
408.61405408647983
 20
319.50615407990051
 30
0.0
  0
SEQEND
  5
FA9
  8
NOTE
  6
CONTINUOUS
  0
LINE
  5
D12
  8
NOTE
  6
CONTINUOUS
 10
432.0
 20
289.0
 30
0.0
 11
641.77094667509925
 21
569.61745293822526
 31
0.0
  0
POLYLINE
  5
D13
  8
NOTE
  6
CONTINUOUS
 66
     1
 10
0.0
 20
0.0
 30
0.0
  0
VERTEX
  5
FAA
  8
NOTE
  6
CONTINUOUS
 10
447.12549742409988
 20
326.0299790052751
 30
0.0
  0
VERTEX
  5
FAB
  8
NOTE
  6
CONTINUOUS
 10
432.0
 20
289.0
 30
0.0
  0
VERTEX
  5
FAC
  8
NOTE
  6
CONTINUOUS
 10
463.61405408647988
 20
313.50615407990051
 30
0.0
  0
SEQEND
  5
FAD
  8
NOTE
  6
CONTINUOUS
  0
DIMENSION
  5
D18
  8
SIZE
  6
CONTINUOUS
  2
*D20
 10
300.0
 20
-406.3464041100973
 30
0.0
 11
0.000000000000002
 21
-374.25640411009721
 31
0.0
 70
     0
 13
-300.0
 23
-20.0
 33
0.0
 14
300.0
 24
-20.0
 34
0.0
1001
ACAD
1000
DSTYLE
1002
{
1070
     6
1000
DOTBLANK
1070
     7
1000
DOTBLANK
1070
    41
1040
10.0
1070
    42
1040
20.0
1070
    43
1040
200.0
1070
    44
1040
30.0
1070
    73
1070
     0
1070
    74
1070
     0
1070
    77
1070
     1
1070
    78
1070
     8
1070
   140
1040
64.0
1070
   172
1070
     1
1070
   173
1070
     1
1002
}
  0
DIMENSION
  5
D19
  8
SIZE
  6
CONTINUOUS
  2
*D18
 10
-474.99999999999989
 20
-406.3464041100973
 30
0.0
 11
-387.5
 21
-374.25640411009721
 31
0.0
 70
     0
 13
-300.0
 23
-20.0
 33
0.0
 14
-474.99999999999989
 24
23.0
 34
0.0
1001
ACAD
1000
DSTYLE
1002
{
1070
     6
1000
DOTBLANK
1070
     7
1000
DOTBLANK
1070
    41
1040
10.0
1070
    42
1040
20.0
1070
    43
1040
200.0
1070
    44
1040
30.0
1070
    73
1070
     0
1070
    74
1070
     0
1070
    77
1070
     1
1070
    78
1070
     8
1070
   140
1040
64.0
1070
   172
1070
     1
1070
   173
1070
     1
1002
}
  0
DIMENSION
  5
D1A
  8
SIZE
  6
CONTINUOUS
  2
*D17
 10
475.0
 20
-406.3464041100973
 30
0.0
 11
387.5
 21
-374.25640411009721
 31
0.0
 70
     0
 13
300.0
 23
-20.0
 33
0.0
 14
475.0
 24
23.0
 34
0.0
1001
ACAD
1000
DSTYLE
1002
{
1070
     6
1000
DOTBLANK
1070
     7
1000
DOTBLANK
1070
    41
1040
10.0
1070
    42
1040
20.0
1070
    43
1040
200.0
1070
    44
1040
30.0
1070
    73
1070
     0
1070
    74
1070
     0
1070
    77
1070
     1
1070
    78
1070
     8
1070
   140
1040
64.0
1070
   172
1070
     1
1070
   173
1070
     1
1002
}
  0
DIMENSION
  5
D1B
  8
SIZE
  6
CONTINUOUS
  2
*D16
 10
-475.0
 20
-543.01396200505178
 30
0.0
 11
-0.0000000000000265
 21
-510.92396200505169
 31
0.0
 70
     0
 13
475.0
 23
23.0
 33
0.0
 14
-474.99999999999989
 24
23.0
 34
0.0
1001
ACAD
1000
DSTYLE
1002
{
1070
     6
1000
DOTBLANK
1070
     7
1000
DOTBLANK
1070
    41
1040
10.0
1070
    42
1040
20.0
1070
    43
1040
200.0
1070
    44
1040
30.0
1070
    73
1070
     0
1070
    74
1070
     0
1070
    77
1070
     1
1070
    78
1070
     8
1070
   140
1040
64.0
1070
   172
1070
     1
1070
   173
1070
     1
1002
}
  0
LINE
  5
D1E
  8
OUTLINE
 10
475.0
 20
23.00000000000011
 30
0.0
 11
-475.0
 21
23.00000000000011
 31
0.0
  0
LINE
  5
D1F
  8
OUTLINE
 10
-475.0
 20
23.00000000000011
 30
0.0
 11
-475.0
 21
740.00000000000011
 31
0.0
  0
LINE
  5
D20
  8
OUTLINE
 10
-284.0
 20
22.999999999998291
 30
0.0
 11
-284.0
 21
0.0000000000001137
 31
0.0
  0
LINE
  5
D21
  8
OUTLINE
 10
-316.0
 20
22.999999999998291
 30
0.0
 11
-316.0
 21
0.0000000000001137
 31
0.0
  0
LINE
  5
D22
  8
OUTLINE
 10
-316.0
 20
0.0000000000001137
 30
0.0
 11
-284.0
 21
0.0000000000001137
 31
0.0
  0
LINE
  5
D23
  8
OUTLINE
 10
475.0
 20
23.00000000000011
 30
0.0
 11
475.0
 21
740.00000000000011
 31
0.0
  0
LINE
  5
D24
  8
OUTLINE
 10
316.0
 20
22.999999999998291
 30
0.0
 11
316.0
 21
0.0000000000001137
 31
0.0
  0
LINE
  5
D25
  8
OUTLINE
 10
284.0
 20
22.999999999998291
 30
0.0
 11
284.0
 21
0.0000000000001137
 31
0.0
  0
LINE
  5
D26
  8
OUTLINE
 10
284.0
 20
0.0000000000001137
 30
0.0
 11
316.0
 21
0.0000000000001137
 31
0.0
  0
LINE
  5
D32
  8
DETAIL
  6
CONTINOUS
 10
-474.99999999999989
 20
740.0
 30
0.0
 11
475.0
 21
740.00000000000011
 31
0.0
  0
DIMENSION
  5
D33
  8
SIZE
  6
CONTINUOUS
  2
*D6
 10
-685.10036717604805
 20
371.0
 30
0.0
 11
-717.1903671760482
 21
185.49999999999989
 31
0.0
 70
     0
 13
-320.0
 23
0.0
 33
0.0
 14
-466.797845249847
 24
371.0
 34
0.0
 50
90.0
1001
ACAD
1000
DSTYLE
1002
{
1070
   287
1070
     3
1070
     6
1000
DOTBLANK
1070
     7
1000
DOTBLANK
1070
    41
1040
10.0
1070
    42
1040
20.0
1070
    43
1040
200.0
1070
    44
1040
30.0
1070
    73
1070
     0
1070
    74
1070
     0
1070
    77
1070
     1
1070
    78
1070
     8
1070
   140
1040
64.0
1070
   172
1070
     1
1070
   173
1070
     1
1070
   275
1070
     0
1070
   279
1070
     0
1070
   284
1070
     0
1070
   285
1070
     0
1070
   286
1070
     0
1002
}
  0
DIMENSION
  5
D40
  8
SIZE
  6
CONTINUOUS
  2
*D7
 10
-833.54331876902324
 20
0.0000000000001455
 30
0.0
 11
-865.63331876902328
 21
370.0
 31
0.0
 70
     0
 13
-474.99999999999989
 23
740.0
 33
0.0
 14
-320.0
 24
0.0
 34
0.0
 50
90.0
1001
ACAD
1000
DSTYLE
1002
{
1070
   287
1070
     3
1070
     6
1000
DOTBLANK
1070
     7
1000
DOTBLANK
1070
    41
1040
10.0
1070
    42
1040
20.0
1070
    43
1040
200.0
1070
    44
1040
30.0
1070
    73
1070
     0
1070
    74
1070
     0
1070
    77
1070
     1
1070
    78
1070
     8
1070
   140
1040
64.0
1070
   172
1070
     1
1070
   173
1070
     1
1070
   275
1070
     0
1070
   279
1070
     0
1070
   284
1070
     0
1070
   285
1070
     0
1070
   286
1070
     0
1002
}
  0
DIMENSION
  5
D4D
  8
SIZE
  6
CONTINUOUS
  2
*D8
 10
-474.99999999999989
 20
909.05440862188516
 30
0.0
 11
-313.99999999992338
 21
941.14440862188508
 31
0.0
 70
     0
 13
-152.99999999984689
 23
684.79784525000014
 33
0.0
 14
-474.99999999999989
 24
740.0
 34
0.0
1001
ACAD
1000
DSTYLE
1002
{
1070
   287
1070
     3
1070
     6
1000
DOTBLANK
1070
     7
1000
DOTBLANK
1070
    41
1040
10.0
1070
    42
1040
20.0
1070
    43
1040
200.0
1070
    44
1040
30.0
1070
    73
1070
     0
1070
    74
1070
     0
1070
    77
1070
     1
1070
    78
1070
     8
1070
   140
1040
64.0
1070
   172
1070
     1
1070
   173
1070
     1
1070
   275
1070
     0
1070
   279
1070
     0
1070
   284
1070
     0
1070
   285
1070
     0
1070
   286
1070
     0
1002
}
  0
DIMENSION
  5
D5A
  8
SIZE
  6
CONTINUOUS
  2
*D9
 10
-474.99999999999989
 20
1144.401728596418
 30
0.0
 11
0.0000000000000304
 21
1176.4917285964179
 31
0.0
 70
     0
 13
475.0
 23
740.00000000000011
 33
0.0
 14
-474.99999999999989
 24
740.0
 34
0.0
1001
ACAD
1000
DSTYLE
1002
{
1070
   287
1070
     3
1070
     6
1000
DOTBLANK
1070
     7
1000
DOTBLANK
1070
    41
1040
10.0
1070
    42
1040
20.0
1070
    43
1040
200.0
1070
    44
1040
30.0
1070
    73
1070
     0
1070
    74
1070
     0
1070
    77
1070
     1
1070
    78
1070
     8
1070
   140
1040
64.0
1070
   172
1070
     1
1070
   173
1070
     1
1070
   275
1070
     0
1070
   279
1070
     0
1070
   284
1070
     0
1070
   285
1070
     0
1070
   286
1070
     0
1002
}
  0
DIMENSION
  5
D7F
  8
SIZE
  6
CONTINUOUS
  2
*D10
 10
475.0
 20
906.77700232497136
 30
0.0
 11
375.0
 21
938.86700232497139
 31
0.0
 70
     0
 13
275.0
 23
479.0
 33
0.0
 14
475.0
 24
740.00000000000011
 34
0.0
1001
ACAD
1000
DSTYLE
1002
{
1070
   287
1070
     3
1070
     6
1000
DOTBLANK
1070
     7
1000
DOTBLANK
1070
    41
1040
10.0
1070
    42
1040
20.0
1070
    43
1040
200.0
1070
    44
1040
30.0
1070
    73
1070
     0
1070
    74
1070
     0
1070
    77
1070
     1
1070
    78
1070
     8
1070
   140
1040
64.0
1070
   172
1070
     1
1070
   173
1070
     1
1070
   275
1070
     0
1070
   279
1070
     0
1070
   284
1070
     0
1070
   285
1070
     0
1070
   286
1070
     0
1002
}
  0
DIMENSION
  5
D8C
  8
SIZE
  6
CONTINUOUS
  2
*D11
 10
1016.867593268802
 20
-0.0000000000001974
 30
0.0
 11
1016.867593268802
 21
228.1991841170865
 31
0.0
 70
   128
 13
295.0
 23
459.0
 33
0.0
 14
320.0
 24
0.0
 34
0.0
 50
90.0
1001
ACAD
1000
DSTYLE
1002
{
1070
   287
1070
     3
1070
     6
1000
DOTBLANK
1070
     7
1000
DOTBLANK
1070
    41
1040
10.0
1070
    42
1040
20.0
1070
    43
1040
200.0
1070
    44
1040
30.0
1070
    73
1070
     0
1070
    74
1070
     0
1070
    77
1070
     1
1070
    78
1070
     8
1070
   140
1040
64.0
1070
   172
1070
     1
1070
   173
1070
     1
1070
   275
1070
     0
1070
   279
1070
     0
1070
   284
1070
     0
1070
   285
1070
     0
1070
   286
1070
     0
1002
}
  0
DIMENSION
  5
DAB
  8
SIZE
  6
CONTINUOUS
  2
*D12
 10
849.50354756431625
 20
294.99999999999989
 30
0.0
 11
817.4135475643161
 21
147.5
 31
0.0
 70
     0
 13
320.0
 23
0.0
 33
0.0
 14
397.0
 24
295.0
 34
0.0
 50
90.0
1001
ACAD
1000
DSTYLE
1002
{
1070
   287
1070
     3
1070
     6
1000
DOTBLANK
1070
     7
1000
DOTBLANK
1070
    41
1040
10.0
1070
    42
1040
20.0
1070
    43
1040
200.0
1070
    44
1040
30.0
1070
    73
1070
     0
1070
    74
1070
     0
1070
    77
1070
     1
1070
    78
1070
     8
1070
   140
1040
64.0
1070
   172
1070
     1
1070
   173
1070
     1
1070
   275
1070
     0
1070
   279
1070
     0
1070
   284
1070
     0
1070
   285
1070
     0
1070
   286
1070
     0
1002
}
  0
LINE
  5
E07
  8
OUTLINE
 10
-475.0
 20
740.00000000000011
 30
0.0
 11
475.0
 21
740.00000000000011
 31
0.0
  0
DIMENSION
  5
E13
  8
SIZE
  6
CONTINUOUS
  2
*D13
 10
679.80706417789406
 20
-0.0000000000001031
 30
0.0
 11
647.71706417789403
 21
144.5
 31
0.0
 70
     0
 13
452.0
 23
289.0
 33
0.0
 14
316.0
 24
0.0
 34
0.0
 50
90.0
1001
ACAD
1000
DSTYLE
1002
{
1070
   287
1070
     3
1070
     6
1000
DOTBLANK
1070
     7
1000
DOTBLANK
1070
    41
1040
10.0
1070
    42
1040
20.0
1070
    43
1040
200.0
1070
    44
1040
30.0
1070
    73
1070
     0
1070
    74
1070
     0
1070
    77
1070
     1
1070
    78
1070
     8
1070
   140
1040
64.0
1070
   172
1070
     1
1070
   173
1070
     1
1070
   275
1070
     0
1070
   279
1070
     0
1070
   284
1070
     0
1070
   285
1070
     0
1070
   286
1070
     0
1002
}
  0
DIMENSION
  5
E20
  8
SIZE
  6
CONTINUOUS
  2
*D14
 10
475.0
 20
187.22905377654749
 30
0.0
 11
531.71857142857141
 21
219.31905377654749
 31
0.0
 70
     0
 13
432.0
 23
269.0
 33
0.0
 14
475.0
 24
23.0
 34
0.0
1001
ACAD
1000
DSTYLE
1002
{
1070
   287
1070
     3
1070
     6
1000
DOTBLANK
1070
     7
1000
DOTBLANK
1070
    41
1040
10.0
1070
    42
1040
20.0
1070
    43
1040
200.0
1070
    44
1040
30.0
1070
    73
1070
     0
1070
    74
1070
     0
1070
    77
1070
     1
1070
    78
1070
     8
1070
   140
1040
64.0
1070
   172
1070
     1
1070
   173
1070
     1
1070
   275
1070
     0
1070
   279
1070
     0
1070
   284
1070
     0
1070
   285
1070
     0
1070
   286
1070
     0
1002
}
  0
DIMENSION
  5
E2E
  8
SIZE
  6
CONTINUOUS
  2
*D15
 10
432.0
 20
187.0562109540987
 30
0.0
 11
316.05846569134332
 21
187.0562109540987
 31
0.0
 70
   128
 13
377.0
 23
275.0
 33
0.0
 14
432.0
 24
269.0
 34
0.0
1001
ACAD
1000
DSTYLE
1002
{
1070
   287
1070
     3
1070
     6
1000
DOTBLANK
1070
     7
1000
DOTBLANK
1070
    41
1040
10.0
1070
    42
1040
20.0
1070
    43
1040
200.0
1070
    44
1040
30.0
1070
    73
1070
     0
1070
    74
1070
     0
1070
    77
1070
     1
1070
    78
1070
     8
1070
   140
1040
64.0
1070
   172
1070
     1
1070
   173
1070
     1
1070
   275
1070
     0
1070
   279
1070
     0
1070
   284
1070
     0
1070
   285
1070
     0
1070
   286
1070
     0
1002
}
  0
ENDSEC
  0
EOF
