  0
SECTION
  2
HEADER
  9
$ACADVER
  1
AC1009
  9
$INSBASE
 10
0.0
 20
0.0
 30
0.0
  9
$EXTMIN
 10
-1103.609479033234
 20
-573.01396200505167
 30
0.0
  9
$EXTMAX
 10
1640.0577168305231
 20
1796.1251745423331
 30
1.0049964175586230E+099
  9
$LIMMIN
 10
-1413.6300532208729
 20
-769.52043488584422
  9
$LIMMAX
 10
1936.2544903059311
 20
1885.204299694205
  9
$ORTHOMODE
 70
     1
  9
$REGENMODE
 70
     1
  9
$FILLMODE
 70
     1
  9
$QTEXTMODE
 70
     0
  9
$MIRRTEXT
 70
     0
  9
$DRAGMODE
 70
     2
  9
$LTSCALE
 40
20.0
  9
$OSMODE
 70
    37
  9
$ATTMODE
 70
     1
  9
$TEXTSIZE
 40
64.0
  9
$TRACEWID
 40
0.05
  9
$TEXTSTYLE
  7
STANDARD
  9
$CLAYER
  8
SIZE
  9
$CELTYPE
  6
CONTINUOUS
  9
$CECOLOR
 62
   256
  9
$DIMSCALE
 40
1.0
  9
$DIMASZ
 40
10.0
  9
$DIMEXO
 40
20.0
  9
$DIMDLI
 40
200.0
  9
$DIMRND
 40
0.0
  9
$DIMDLE
 40
0.0
  9
$DIMEXE
 40
30.0
  9
$DIMTP
 40
0.0
  9
$DIMTM
 40
0.0
  9
$DIMTXT
 40
64.0
  9
$DIMCEN
 40
0.09
  9
$DIMTSZ
 40
0.0
  9
$DIMTOL
 70
     0
  9
$DIMLIM
 70
     0
  9
$DIMTIH
 70
     0
  9
$DIMTOH
 70
     0
  9
$DIMSE1
 70
     0
  9
$DIMSE2
 70
     0
  9
$DIMTAD
 70
     1
  9
$DIMZIN
 70
     8
  9
$DIMBLK
  1

  9
$DIMASO
 70
     1
  9
$DIMSHO
 70
     0
  9
$DIMPOST
  1

  9
$DIMAPOST
  1

  9
$DIMALT
 70
     0
  9
$DIMALTD
 70
     2
  9
$DIMALTF
 40
25.399999999999999
  9
$DIMLFAC
 40
1.0
  9
$DIMTOFL
 70
     1
  9
$DIMTVP
 40
0.0
  9
$DIMTIX
 70
     0
  9
$DIMSOXD
 70
     0
  9
$DIMSAH
 70
     1
  9
$DIMBLK1
  1

  9
$DIMBLK2
  1

  9
$DIMSTYLE
  2
STANDARD
  9
$DIMCLRD
 70
     0
  9
$DIMCLRE
 70
     0
  9
$DIMCLRT
 70
     0
  9
$DIMTFAC
 40
1.0
  9
$DIMGAP
 40
0.09
  9
$LUNITS
 70
     2
  9
$LUPREC
 70
     4
  9
$SKETCHINC
 40
0.1
  9
$FILLETRAD
 40
6.0
  9
$AUNITS
 70
     1
  9
$AUPREC
 70
     3
  9
$MENU
  1
ACAD
  9
$ELEVATION
 40
0.0
  9
$PELEVATION
 40
0.0
  9
$THICKNESS
 40
0.0
  9
$LIMCHECK
 70
     0
  9
$BLIPMODE
 70
     0
  9
$CHAMFERA
 40
0.0
  9
$CHAMFERB
 40
0.0
  9
$SKPOLY
 70
     0
  9
$TDCREATE
 40
2450330.3932059952
  9
$TDUPDATE
 40
2453256.5824387958
  9
$TDINDWG
 40
0.2151168634
  9
$TDUSRTIMER
 40
0.2151166319
  9
$USRTIMER
 70
     1
  9
$ANGBASE
 50
0.0
  9
$ANGDIR
 70
     0
  9
$PDMODE
 70
     3
  9
$PDSIZE
 40
-2.0
  9
$PLINEWID
 40
0.0
  9
$COORDS
 70
     1
  9
$SPLFRAME
 70
     0
  9
$SPLINETYPE
 70
     6
  9
$SPLINESEGS
 70
     8
  9
$ATTDIA
 70
     0
  9
$ATTREQ
 70
     1
  9
$HANDLING
 70
-16383
  9
$HANDSEED
  5
10DF
  9
$SURFTAB1
 70
     6
  9
$SURFTAB2
 70
     6
  9
$SURFTYPE
 70
     6
  9
$SURFU
 70
     6
  9
$SURFV
 70
     6
  9
$UCSNAME
  2

  9
$UCSORG
 10
0.0
 20
0.0
 30
0.0
  9
$UCSXDIR
 10
1.0
 20
0.0
 30
0.0
  9
$UCSYDIR
 10
0.0
 20
1.0
 30
0.0
  9
$PUCSNAME
  2

  9
$PUCSORG
 10
0.0
 20
0.0
 30
0.0
  9
$PUCSXDIR
 10
1.0
 20
0.0
 30
0.0
  9
$PUCSYDIR
 10
0.0
 20
1.0
 30
0.0
  9
$USERI1
 70
     0
  9
$USERI2
 70
     0
  9
$USERI3
 70
     0
  9
$USERI4
 70
     0
  9
$USERI5
 70
     0
  9
$USERR1
 40
20.0
  9
$USERR2
 40
0.0
  9
$USERR3
 40
0.0
  9
$USERR4
 40
0.0
  9
$USERR5
 40
0.0
  9
$WORLDVIEW
 70
     1
  9
$SHADEDGE
 70
     3
  9
$SHADEDIF
 70
    70
  9
$TILEMODE
 70
     1
  9
$MAXACTVP
 70
    64
  9
$PLIMCHECK
 70
     0
  9
$PEXTMIN
 10
1.0000000000000000E+020
 20
1.0000000000000000E+020
 30
1.0000000000000000E+020
  9
$PEXTMAX
 10
-1.0000000000000000E+020
 20
-1.0000000000000000E+020
 30
-1.0000000000000000E+020
  9
$PLIMMIN
 10
0.0
 20
0.0
  9
$PLIMMAX
 10
12.0
 20
9.0
  9
$UNITMODE
 70
     0
  9
$VISRETAIN
 70
     1
  9
$PLINEGEN
 70
     0
  9
$PSLTSCALE
 70
     1
  0
ENDSEC
  0
SECTION
  2
TABLES
  0
TABLE
  2
VPORT
 70
     2
  0
VPORT
  2
*ACTIVE
 70
     0
 10
0.0
 20
0.0
 11
1.0
 21
1.0
 12
314.37456761554313
 22
461.28850810377378
 13
0.0
 23
0.0
 14
50.0
 24
50.0
 15
100.0
 25
100.0
 16
0.0
 26
0.0
 36
1.0
 17
0.0
 27
0.0
 37
0.0
 40
4382.9515452333881
 41
1.2721893491124261
 42
50.0
 43
0.0
 44
0.0
 50
0.0
 51
0.0
 71
     0
 72
   500
 73
     1
 74
     0
 75
     0
 76
     0
 77
     0
 78
     0
  0
ENDTAB
  0
TABLE
  2
LTYPE
 70
     8
  0
LTYPE
  2
CONTINUOUS
 70
     0
  3
実線
 72
    65
 73
     0
 40
0.0
  0
LTYPE
  2
DASHDOT
 70
     0
  3
____ _ ____ _ ____ _ ____ _ ____ _ ____ _ ____
 72
    65
 73
     4
 40
5.5
 49
4.0
 49
-0.6
 49
0.3
 49
-0.6
  0
LTYPE
  2
CONTINOUS
 70
     0
  3
Solid line
 72
    65
 73
     0
 40
0.0
  0
LTYPE
  2
DASHED
 70
     0
  3
_ _ _ _ _ _ _ _ _ _ _ _ _ _ _ _ _ _ _ _ _ _ _
 72
    65
 73
     2
 40
2.0
 49
1.1999999999999991
 49
-0.8
  0
LTYPE
  2
DOT
 70
     0
  3
...............................................
 72
    65
 73
     2
 40
0.8
 49
0.5
 49
-0.3
  0
LTYPE
  2
DASHDOT1
 70
     0
  3
____ _ ____ _ ____ _ ____ _ ____ _ ____ _ ____
 72
    65
 73
     4
 40
2.0
 49
1.5
 49
-0.2
 49
0.1
 49
-0.2
  0
LTYPE
  2
DIVIDE
 70
     0
  3
_____ _ _ _____ _ _ _____ _ _ _____ _ _ ____
 72
    65
 73
     6
 40
6.4000000000000004
 49
4.0
 49
-0.6
 49
0.3
 49
-0.6
 49
0.3
 49
-0.6
  0
LTYPE
  2
DIVIDE1
 70
     0
  3
_____ _ _ _____ _ _ _____ _ _ _____ _ _ ____
 72
    65
 73
     6
 40
3.2000000000000002
 49
2.0
 49
-0.3
 49
0.15
 49
-0.3
 49
0.15
 49
-0.3
  0
ENDTAB
  0
TABLE
  2
LAYER
 70
    12
  0
LAYER
  2
0
 70
     0
 62
     7
  6
CONTINUOUS
  0
LAYER
  2
SIZE
 70
     0
 62
    32
  6
CONTINUOUS
  0
LAYER
  2
DETAIL
 70
     0
 62
     5
  6
CONTINUOUS
  0
LAYER
  2
OUTLINE
 70
     0
 62
     3
  6
CONTINUOUS
  0
LAYER
  2
BASIS
 70
     0
 62
     6
  6
CONTINUOUS
  0
LAYER
  2
NOTE
 70
     0
 62
     4
  6
CONTINUOUS
  0
LAYER
  2
ARRANGE
 70
     0
 62
     1
  6
CONTINUOUS
  0
LAYER
  2
FIX
 70
     0
 62
   241
  6
CONTINUOUS
  0
LAYER
  2
ETC
 70
     0
 62
    83
  6
CONTINUOUS
  0
LAYER
  2
SERVICESPACE
 70
     0
 62
     2
  6
CONTINUOUS
  0
LAYER
  2
SYMBOLLINE
 70
     0
 62
    38
  6
CONTINUOUS
  0
LAYER
  2
DEFPOINTS
 70
     0
 62
     7
  6
CONTINUOUS
  0
ENDTAB
  0
TABLE
  2
STYLE
 70
     2
  0
STYLE
  2
STANDARD
 70
     0
 40
0.0
 41
0.9
 50
0.0
 71
     0
 42
64.0
  3
SIMPLEX
  4
BIGFONT
  0
STYLE
  2
STANDARD1
 70
     0
 40
0.0
 41
1.0
 50
0.0
 71
     0
 42
3.2000000000000002
  3
MONOTXT
  4
BIGFONT
  0
ENDTAB
  0
TABLE
  2
VIEW
 70
     1
  0
VIEW
  2
ALL
 70
     0
 40
4282.6199999999999
 10
0.0
 20
41.309903999999989
 41
5940.0
 11
0.0
 21
0.0
 31
1.0
 12
0.0
 22
0.0
 32
0.0
 42
50.0
 43
0.0
 44
0.0
 50
0.0
 71
     0
  0
ENDTAB
  0
TABLE
  2
UCS
 70
     0
  0
ENDTAB
  0
TABLE
  2
APPID
 70
     1
  0
APPID
  2
ACAD
 70
     0
  0
ENDTAB
  0
TABLE
  2
DIMSTYLE
 70
     1
  0
DIMSTYLE
  2
STANDARD
 70
     0
  3

  4

  5

  6

  7

 40
1.0
 41
0.18
 42
0.0625
 43
0.38
 44
0.18
 45
0.0
 46
0.0
 47
0.0
 48
0.0
140
0.18
141
0.09
142
0.0
143
25.399999999999999
144
1.0
145
0.0
146
1.0
147
0.09
 71
     0
 72
     0
 73
     1
 74
     1
 75
     0
 76
     0
 77
     0
 78
     0
170
     0
171
     2
172
     0
173
     0
174
     0
175
     0
176
     0
177
     0
178
     0
  0
ENDTAB
  0
ENDSEC
  0
SECTION
  2
BLOCKS
  0
BLOCK
  8
0
  2
$MODEL_SPACE
 70
     0
 10
0.0
 20
0.0
 30
0.0
  3
$MODEL_SPACE
  1

  0
ENDBLK
  5
785
  8
0
  0
BLOCK
 67
     1
  8
0
  2
$PAPER_SPACE
 70
     0
 10
0.0
 20
0.0
 30
0.0
  3
$PAPER_SPACE
  1

  0
ENDBLK
  5
781
 67
     1
  8
0
  0
BLOCK
  8
0
  2
A$C5F2C697A
 70
     0
 10
0.0
 20
0.0
 30
0.0
  3
A$C5F2C697A
  1

  0
TEXT
  5
7A8
  8
SIZE
  6
BYBLOCK
 10
910.8147643978815
 20
127.36127978650261
 30
0.0
 40
64.0
  1
370
 41
0.9
  0
LINE
  5
7A9
  8
SIZE
  6
BYBLOCK
 10
801.8719073978815
 20
95.361279786502593
 30
0.0
 11
1167.87190739788
 21
95.361279786502593
 31
0.0
  0
TEXT
  5
7AA
  8
SIZE
  6
BYBLOCK
 10
915.81476439788139
 20
1424.5027517865019
 30
0.0
 40
64.0
  1
330
 41
0.9
  0
LINE
  5
7AB
  8
SIZE
  6
BYBLOCK
 10
826.8719073978815
 20
1392.5027517865019
 30
0.0
 11
1152.87190739788
 21
1392.5027517865019
 31
0.0
  0
LINE
  5
7AC
  8
OUTLINE
  6
CONTINUOUS
 10
771.8719063978815
 20
290.07775178650252
 30
0.0
 11
1183.871906397881
 21
290.07775178650252
 31
0.0
  0
LINE
  5
7AD
  8
OUTLINE
  6
CONTINUOUS
 10
771.8719063978815
 20
323.07775178650252
 30
0.0
 11
1183.871906397881
 21
323.07775178650252
 31
0.0
  0
LINE
  5
7AE
  8
OUTLINE
  6
CONTINUOUS
 10
824.87190639788139
 20
1145.0777517865019
 30
0.0
 11
1154.8719063978799
 21
1145.0777517865019
 31
0.0
  0
CIRCLE
  5
7AF
  8
ARRANGE
  6
CONTINUOUS
 10
989.87190639788139
 20
290.07775178650252
 30
0.0
 40
40.0
  0
LINE
  5
7B0
  8
DETAIL
  6
CONTINOUS
 10
771.8719063978815
 20
290.07775178650252
 30
0.0
 11
1183.871906397881
 21
290.07775178650252
 31
0.0
  0
LINE
  5
7B1
  8
DETAIL
  6
CONTINOUS
 10
824.87190639788139
 20
1145.0777517865019
 30
0.0
 11
1154.8719063978799
 21
1145.0777517865019
 31
0.0
  0
TEXT
  5
7B2
  8
NOTE
  6
CONTINUOUS
 10
973.9808703978814
 20
913.84623078650259
 30
0.0
 40
64.0
  1
EL,CL
 41
0.9
  0
LINE
  5
7B3
  8
NOTE
  6
CONTINUOUS
 10
879.8719063978815
 20
686.07775178650252
 30
0.0
 11
1040.77148939788
 21
625.20405378650253
 31
0.0
  0
LINE
  5
7B4
  8
NOTE
  6
CONTINUOUS
 10
1205.83098439788
 20
895.38895978650271
 30
0.0
 11
918.87085639788165
 21
895.38895978650271
 31
0.0
  0
POINT
  5
7B5
  8
ARRANGE
  6
CONTINUOUS
 10
989.87190639788139
 20
290.07775178650252
 30
0.0
  0
LINE
  5
7B6
  8
DETAIL
  6
CONTINOUS
 10
771.8719063978815
 20
323.07775178650252
 30
0.0
 11
1183.871906397881
 21
323.07775178650252
 31
0.0
  0
LINE
  5
7B7
  8
NOTE
  6
CONTINUOUS
 10
882.87190639788139
 20
724.07775178650252
 30
0.0
 11
1040.77148939788
 21
812.30385178650226
 31
0.0
  0
CIRCLE
  5
7B8
  8
SIZE
  6
CONTINUOUS
 10
220.7875803978813
 20
290.07775178650252
 30
0.0
 40
6.0
  0
CIRCLE
  5
7B9
  8
SIZE
  6
CONTINUOUS
 10
503.55668139788139
 20
290.07775178650252
 30
0.0
 40
6.0
  0
CIRCLE
  5
7BA
  8
SIZE
  6
CONTINUOUS
 10
649.74425839788148
 20
290.07775178650252
 30
0.0
 40
6.0
  0
CIRCLE
  5
7BB
  8
SIZE
  6
CONTINUOUS
 10
350.83505539788138
 20
290.07775178650252
 30
0.0
 40
6.0
  0
LINE
  5
7BC
  8
OUTLINE
  6
CONTINUOUS
 10
771.8719063978815
 20
290.07775178650252
 30
0.0
 11
771.8719063978815
 21
323.07775178650252
 31
0.0
  0
CIRCLE
  5
7BD
  8
FIX
  6
CONTINUOUS
 10
799.8719063978815
 20
290.07775178650252
 30
0.0
 40
40.0
  0
LINE
  5
7BE
  8
DETAIL
  6
CONTINOUS
 10
771.8719063978815
 20
290.07775178650252
 30
0.0
 11
771.8719063978815
 21
323.07775178650252
 31
0.0
  0
LINE
  5
7BF
  8
BASIS
  6
DASHDOT
 10
989.87190639788139
 20
239.4419287865025
 30
0.0
 11
989.87190639788139
 21
1184.2961157865011
 31
0.0
  0
LINE
  5
7C0
  8
NOTE
  6
CONTINOUS
 10
799.8719063978815
 20
270.0777517865024
 30
0.0
 11
799.8719063978815
 21
310.07775178650252
 31
0.0
  0
LINE
  5
7C1
  8
NOTE
  6
CONTINUOUS
 10
0.0000023978816444
 20
-0.000002213497396
 30
0.0
 11
579.80680439788148
 21
-0.000002213497396
 31
0.0
  0
TEXT
  5
7C2
  8
NOTE
  6
CONTINUOUS
 10
14.78030739788152
 20
15.10229878650267
 30
0.0
 40
64.0
  1
AH 2-12×36
 41
0.9
  0
LINE
  5
7C3
  8
SIZE
  6
BYBLOCK
 10
715.70171039788136
 20
290.07775178650252
 30
0.0
 11
320.83505539788149
 21
290.07775178650252
 31
0.0
  0
LINE
  5
7C4
  8
SIZE
  6
BYBLOCK
 10
735.70171039788136
 20
290.07775178650252
 30
0.0
 11
473.55668139788122
 21
290.07775178650252
 31
0.0
  0
LINE
  5
7C5
  8
SIZE
  6
BYBLOCK
 10
735.70171039788136
 20
290.07775178650252
 30
0.0
 11
190.7875803978813
 21
290.07775178650252
 31
0.0
  0
LINE
  5
7C6
  8
NOTE
  6
CONTINUOUS
 10
579.80680439788148
 20
-0.000002213497396
 30
0.0
 11
799.8719063978815
 21
290.07775178650252
 31
0.0
  0
TEXT
  5
7C7
  8
SIZE
  6
BYBLOCK
 10
739.24333539788142
 20
127.36127978650261
 30
0.0
 40
64.0
  1
28
 41
0.9
  0
LINE
  5
7C8
  8
SIZE
  6
BYBLOCK
 10
735.70171039788136
 20
290.07775178650252
 30
0.0
 11
619.74425839788148
 21
290.07775178650252
 31
0.0
  0
LINE
  5
7C9
  8
SIZE
  6
BYBLOCK
 10
799.8719073978815
 20
250.0777517865026
 30
0.0
 11
799.8719073978815
 21
65.361279786502621
 31
0.0
  0
LINE
  5
7CA
  8
SIZE
  6
BYBLOCK
 10
799.8719073978815
 20
250.0777517865026
 30
0.0
 11
799.8719073978815
 21
65.361279786502621
 31
0.0
  0
LINE
  5
7CB
  8
SIZE
  6
BYBLOCK
 10
771.8719073978815
 20
270.0777517865024
 30
0.0
 11
771.8719073978815
 21
65.361279786502621
 31
0.0
  0
CIRCLE
  5
7CC
  8
SIZE
  6
CONTINUOUS
 10
799.8719073978815
 20
95.361279786502593
 30
0.0
 40
6.0
  0
CIRCLE
  5
7CD
  8
SIZE
  6
CONTINUOUS
 10
771.8719073978815
 20
95.361279786502593
 30
0.0
 40
6.0
  0
CIRCLE
  5
7CE
  8
SIZE
  6
CONTINUOUS
 10
799.8719073978815
 20
95.361279786502593
 30
0.0
 40
6.0
  0
LINE
  5
7CF
  8
SIZE
  6
BYBLOCK
 10
799.8719073978815
 20
95.361279786502593
 30
0.0
 11
771.8719073978815
 21
95.361279786502593
 31
0.0
  0
LINE
  5
7D0
  8
SIZE
  6
BYBLOCK
 10
769.8719073978815
 20
95.361279786502593
 30
0.0
 11
767.8719073978815
 21
95.361279786502593
 31
0.0
  0
LINE
  5
7D1
  8
SIZE
  6
BYBLOCK
 10
801.8719073978815
 20
95.361279786502593
 30
0.0
 11
803.87190739788139
 21
95.361279786502593
 31
0.0
  0
LINE
  5
7D2
  8
NOTE
  6
CONTINOUS
 10
779.8719063978815
 20
290.07775178650252
 30
0.0
 11
819.8719063978815
 21
290.07775178650252
 31
0.0
  0
LINE
  5
7D3
  8
NOTE
  6
CONTINUOUS
 10
799.8719063978815
 20
290.07775178650252
 30
0.0
 11
784.76766639788127
 21
253.0390967865026
 31
0.0
  0
LINE
  5
7D4
  8
NOTE
  6
CONTINUOUS
 10
799.8719063978815
 20
290.07775178650252
 30
0.0
 11
768.27192339788144
 21
265.55345678650241
 31
0.0
  0
LINE
  5
7D5
  8
SIZE
  6
BYBLOCK
 10
771.8719073978815
 20
343.07775178650252
 30
0.0
 11
771.8719073978815
 21
1422.5027517865019
 31
0.0
  0
LINE
  5
7D6
  8
OUTLINE
  6
CONTINUOUS
 10
824.87190639788139
 20
323.07775178650252
 30
0.0
 11
824.87190639788139
 21
1145.0777517865019
 31
0.0
  0
LINE
  5
7D7
  8
DETAIL
  6
CONTINOUS
 10
824.87190639788139
 20
323.07775178650252
 30
0.0
 11
824.87190639788139
 21
1145.0777517865019
 31
0.0
  0
LINE
  5
7D8
  8
DETAIL
  6
CONTINOUS
 10
804.8719063978815
 20
462.0777517865024
 30
0.0
 11
804.8719063978815
 21
1002.0777517865019
 31
0.0
  0
LINE
  5
7D9
  8
SIZE
  6
BYBLOCK
 10
714.44271139788157
 20
732.07775178650252
 30
0.0
 11
320.83505539788149
 21
732.07775178650252
 31
0.0
  0
LINE
  5
7DA
  8
SIZE
  6
BYBLOCK
 10
856.8719073978815
 20
724.07775178650252
 30
0.0
 11
473.55668139788122
 21
724.07775178650252
 31
0.0
  0
LINE
  5
7DB
  8
SIZE
  6
BYBLOCK
 10
777.27455739788161
 20
810.08015378650225
 30
0.0
 11
190.42745539788129
 21
810.08015378650225
 31
0.0
  0
LINE
  5
7DC
  8
SIZE
  6
BYBLOCK
 10
350.83505539788138
 20
292.07775178650252
 30
0.0
 11
350.83505539788138
 21
730.07775178650252
 31
0.0
  0
LINE
  5
7DD
  8
SIZE
  6
BYBLOCK
 10
503.55668139788139
 20
292.07775178650252
 30
0.0
 11
503.55668139788139
 21
724.07775178650252
 31
0.0
  0
TEXT
  5
7DE
  8
SIZE
  6
BYBLOCK
 10
188.7875803978813
 20
529.52060878650241
 30
0.0
 40
64.0
  1
520
 50
90.0
 41
0.9
  0
LINE
  5
7DF
  8
SIZE
  6
BYBLOCK
 10
220.7875803978813
 20
810.08015378650225
 30
0.0
 11
220.7875803978813
 21
603.57775178650252
 31
0.0
  0
TEXT
  5
7E0
  8
SIZE
  6
BYBLOCK
 10
318.83505539788149
 20
437.02060878650252
 30
0.0
 40
64.0
  1
442
 50
90.0
 41
0.9
  0
LINE
  5
7E1
  8
SIZE
  6
BYBLOCK
 10
220.7875803978813
 20
292.07775178650252
 30
0.0
 11
220.7875803978813
 21
603.57775178650252
 31
0.0
  0
TEXT
  5
7E2
  8
SIZE
  6
BYBLOCK
 10
471.55668139788139
 20
427.13489478650251
 30
0.0
 40
64.0
  1
434
 50
90.0
 41
0.9
  0
CIRCLE
  5
7E3
  8
SIZE
  6
CONTINUOUS
 10
220.4274553978814
 20
810.08015378650225
 30
0.0
 40
6.0
  0
CIRCLE
  5
7E4
  8
SIZE
  6
CONTINUOUS
 10
350.83505539788138
 20
732.07775178650252
 30
0.0
 40
6.0
  0
CIRCLE
  5
7E5
  8
SIZE
  6
CONTINUOUS
 10
503.55668139788139
 20
724.07775178650252
 30
0.0
 40
6.0
  0
LINE
  5
7E6
  8
SIZE
  6
BYBLOCK
 10
649.74425839788148
 20
292.07775178650252
 30
0.0
 11
649.74425839788148
 21
684.07775178650252
 31
0.0
  0
TEXT
  5
7E7
  8
SIZE
  6
BYBLOCK
 10
617.74425839788125
 20
415.3920377865025
 30
0.0
 40
64.0
  1
396
 50
90.0
 41
0.9
  0
LINE
  5
7E8
  8
DETAIL
  6
CONTINOUS
 10
824.87190639788139
 20
462.0777517865024
 30
0.0
 11
804.8719063978815
 21
462.0777517865024
 31
0.0
  0
LINE
  5
7E9
  8
SIZE
  6
BYBLOCK
 10
836.26393739788148
 20
686.07775178650252
 30
0.0
 11
619.74425839788148
 21
686.07775178650252
 31
0.0
  0
LINE
  5
7EA
  8
BASIS
  6
DASHDOT
 10
734.44271139788145
 20
732.07775178650252
 30
0.0
 11
884.14564339788137
 21
732.07775178650252
 31
0.0
  0
CIRCLE
  5
7EB
  8
SIZE
  6
CONTINUOUS
 10
649.74425839788148
 20
686.07775178650252
 30
0.0
 40
6.0
  0
LINE
  5
7EC
  8
NOTE
  6
CONTINOUS
 10
862.8719063978815
 20
724.07775178650252
 30
0.0
 11
902.8719063978815
 21
724.07775178650252
 31
0.0
  0
LINE
  5
7ED
  8
NOTE
  6
CONTINOUS
 10
859.87190639788162
 20
686.07775178650252
 30
0.0
 11
899.87190639788139
 21
686.07775178650252
 31
0.0
  0
LINE
  5
7EE
  8
NOTE
  6
CONTINOUS
 10
879.8719063978815
 20
666.07775178650252
 30
0.0
 11
879.8719063978815
 21
706.07775178650252
 31
0.0
  0
POLYLINE
  5
7EF
  8
NOTE
  6
CONTINUOUS
 66
     1
 10
0.0
 20
0.0
 30
0.0
  0
VERTEX
  5
101F
  8
NOTE
  6
CONTINUOUS
 10
919.40695039788125
 20
679.99661178650251
 30
0.0
  0
VERTEX
  5
1020
  8
NOTE
  6
CONTINUOUS
 10
879.8719063978815
 20
686.07775178650252
 30
0.0
  0
VERTEX
  5
1021
  8
NOTE
  6
CONTINUOUS
 10
911.06968939788146
 20
661.04380778650238
 30
0.0
  0
SEQEND
  5
1022
  8
NOTE
  6
CONTINUOUS
  0
POLYLINE
  5
7F4
  8
NOTE
  6
CONTINUOUS
 66
     1
 10
0.0
 20
0.0
 30
0.0
  0
VERTEX
  5
1023
  8
NOTE
  6
CONTINUOUS
 10
911.55116939788149
 20
751.96143678650253
 30
0.0
  0
VERTEX
  5
1024
  8
NOTE
  6
CONTINUOUS
 10
882.87190639788139
 20
724.07775178650252
 30
0.0
  0
VERTEX
  5
1025
  8
NOTE
  6
CONTINUOUS
 10
921.65071939788174
 20
733.88609978650254
 30
0.0
  0
SEQEND
  5
1026
  8
NOTE
  6
CONTINUOUS
  0
LINE
  5
7F9
  8
NOTE
  6
CONTINOUS
 10
882.87190639788139
 20
704.0777517865024
 30
0.0
 11
882.87190639788139
 21
744.07775178650252
 31
0.0
  0
LINE
  5
7FA
  8
NOTE
  6
CONTINUOUS
 10
824.51178139788146
 20
810.08015378650225
 30
0.0
 11
918.87085639788165
 21
895.38895978650271
 31
0.0
  0
LINE
  5
7FB
  8
NOTE
  6
CONTINOUS
 10
804.51178139788135
 20
810.08015378650225
 30
0.0
 11
844.51178139788135
 21
810.08015378650225
 31
0.0
  0
POLYLINE
  5
7FC
  8
NOTE
  6
CONTINUOUS
 66
     1
 10
0.0
 20
0.0
 30
0.0
  0
VERTEX
  5
1027
  8
NOTE
  6
CONTINUOUS
 10
846.64476439788132
 20
843.39878378650269
 30
0.0
  0
VERTEX
  5
1028
  8
NOTE
  6
CONTINUOUS
 10
824.51178139788146
 20
810.08015378650225
 30
0.0
  0
VERTEX
  5
1029
  8
NOTE
  6
CONTINUOUS
 10
860.33882139788147
 20
827.86844278650256
 30
0.0
  0
SEQEND
  5
102A
  8
NOTE
  6
CONTINUOUS
  0
LINE
  5
801
  8
NOTE
  6
CONTINOUS
 10
824.51178139788146
 20
790.08015378650225
 30
0.0
 11
824.51178139788146
 21
830.08015378650225
 31
0.0
  0
LINE
  5
802
  8
NOTE
  6
CONTINUOUS
 10
872.35755039788137
 20
933.93013678650243
 30
0.0
 11
872.35755039788137
 21
933.93013678650243
 31
0.0
  0
LINE
  5
803
  8
SIZE
  6
BYBLOCK
 10
824.8719073978815
 20
1185.0777517865019
 30
0.0
 11
824.8719073978815
 21
1422.5027517865019
 31
0.0
  0
LINE
  5
804
  8
SIZE
  6
BYBLOCK
 10
824.8719073978815
 20
1165.0777517865019
 30
0.0
 11
824.8719073978815
 21
1422.5027517865019
 31
0.0
  0
LINE
  5
805
  8
SIZE
  6
BYBLOCK
 10
824.8719073978815
 20
1165.0777517865019
 30
0.0
 11
824.8719073978815
 21
1293.248751786502
 31
0.0
  0
LINE
  5
806
  8
SIZE
  6
BYBLOCK
 10
804.87190739788139
 20
1022.0777517865019
 30
0.0
 11
804.87190739788139
 21
1293.248751786502
 31
0.0
  0
LINE
  5
807
  8
DETAIL
  6
CONTINOUS
 10
824.87190639788139
 20
1002.0777517865019
 30
0.0
 11
804.8719063978815
 21
1002.0777517865019
 31
0.0
  0
LINE
  5
808
  8
SIZE
  6
CONTINUOUS
 10
814.87190639788139
 20
1263.2491457865019
 30
0.0
 11
945.94025839788139
 21
1263.2491457865019
 31
0.0
  0
LINE
  5
809
  8
SIZE
  6
BYBLOCK
 10
822.8719073978815
 20
1263.2491457865019
 30
0.0
 11
814.8719073978815
 21
1263.2491457865019
 31
0.0
  0
CIRCLE
  5
80A
  8
SIZE
  6
CONTINUOUS
 10
804.87190739788139
 20
1263.2491457865019
 30
0.0
 40
6.0
  0
LINE
  5
80B
  8
SIZE
  6
BYBLOCK
 10
806.8719073978815
 20
1263.2491457865019
 30
0.0
 11
814.8719073978815
 21
1263.2491457865019
 31
0.0
  0
CIRCLE
  5
80C
  8
SIZE
  6
CONTINUOUS
 10
824.8719073978815
 20
1263.2491457865019
 30
0.0
 40
6.0
  0
TEXT
  5
80D
  8
SIZE
  6
BYBLOCK
 10
751.74333539788142
 20
1424.5027517865019
 30
0.0
 40
64.0
  1
53
 41
0.9
  0
TEXT
  5
80E
  8
SIZE
  6
BYBLOCK
 10
843.21570539788104
 20
1295.248751786502
 30
0.0
 40
64.0
  1
20
 41
0.9
  0
LINE
  5
80F
  8
SIZE
  6
BYBLOCK
 10
824.8719073978815
 20
1392.5027517865019
 30
0.0
 11
771.8719073978815
 21
1392.5027517865019
 31
0.0
  0
CIRCLE
  5
810
  8
SIZE
  6
CONTINUOUS
 10
771.8719073978815
 20
1392.5027517865019
 30
0.0
 40
6.0
  0
LINE
  5
811
  8
SIZE
  6
BYBLOCK
 10
769.8719073978815
 20
1392.5027517865019
 30
0.0
 11
767.8719073978815
 21
1392.5027517865019
 31
0.0
  0
CIRCLE
  5
812
  8
SIZE
  6
CONTINUOUS
 10
824.8719073978815
 20
1392.5027517865019
 30
0.0
 40
6.0
  0
CIRCLE
  5
813
  8
SIZE
  6
CONTINUOUS
 10
824.8719073978815
 20
1392.5027517865019
 30
0.0
 40
6.0
  0
LINE
  5
814
  8
SIZE
  6
BYBLOCK
 10
826.8719073978815
 20
1392.5027517865019
 30
0.0
 11
828.87190739788139
 21
1392.5027517865019
 31
0.0
  0
CIRCLE
  5
815
  8
SIZE
  6
CONTINUOUS
 10
1420.44446039788
 20
290.07775178650252
 30
0.0
 40
6.0
  0
CIRCLE
  5
816
  8
FIX
  6
CONTINUOUS
 10
1169.871906397881
 20
290.07775178650252
 30
0.0
 40
40.0
  0
LINE
  5
817
  8
OUTLINE
  6
CONTINUOUS
 10
1183.871906397881
 20
323.07775178650252
 30
0.0
 11
1183.871906397881
 21
290.07775178650252
 31
0.0
  0
TEXT
  5
818
  8
ETC
  6
CONTINUOUS
 10
1573.1112623978811
 20
288.6366377865026
 30
0.0
 40
64.0
  1
室外機
 41
0.9
  0
LINE
  5
819
  8
DETAIL
  6
CONTINOUS
 10
1183.871906397881
 20
290.07775178650252
 30
0.0
 11
1183.871906397881
 21
323.07775178650252
 31
0.0
  0
LINE
  5
81A
  8
NOTE
  6
CONTINOUS
 10
1169.871906397881
 20
270.0777517865024
 30
0.0
 11
1169.871906397881
 21
310.07775178650252
 31
0.0
  0
LINE
  5
81B
  8
NOTE
  6
CONTINUOUS
 10
1969.74381039788
 20
-0.000002213497396
 30
0.0
 11
1389.9370083978811
 21
-0.000002213497396
 31
0.0
  0
TEXT
  5
81C
  8
NOTE
  6
CONTINUOUS
 10
1415.1692193978811
 20
15.10229878650267
 30
0.0
 40
64.0
  1
AH 2-U cut
 41
0.9
  0
LINE
  5
81D
  8
NOTE
  6
CONTINUOUS
 10
1389.9370083978811
 20
-0.000002213497396
 30
0.0
 11
1169.871906397881
 21
290.07775178650252
 31
0.0
  0
LINE
  5
81E
  8
SIZE
  6
BYBLOCK
 10
1214.7137463978811
 20
290.07775178650252
 30
0.0
 11
1450.44446039788
 21
290.07775178650252
 31
0.0
  0
LINE
  5
81F
  8
SIZE
  6
BYBLOCK
 10
1183.87190739788
 20
270.0777517865024
 30
0.0
 11
1183.87190739788
 21
65.361279786502621
 31
0.0
  0
LINE
  5
820
  8
SIZE
  6
BYBLOCK
 10
1169.87190739788
 20
250.0777517865026
 30
0.0
 11
1169.87190739788
 21
65.361279786502621
 31
0.0
  0
LINE
  5
821
  8
SIZE
  6
BYBLOCK
 10
1169.87190739788
 20
250.0777517865026
 30
0.0
 11
1169.87190739788
 21
65.361279786502621
 31
0.0
  0
CIRCLE
  5
822
  8
SIZE
  6
CONTINUOUS
 10
1169.87190739788
 20
95.361279786502593
 30
0.0
 40
6.0
  0
CIRCLE
  5
823
  8
SIZE
  6
CONTINUOUS
 10
1169.87190739788
 20
95.361279786502593
 30
0.0
 40
6.0
  0
CIRCLE
  5
824
  8
SIZE
  6
CONTINUOUS
 10
1183.87190739788
 20
95.361279786502593
 30
0.0
 40
6.0
  0
LINE
  5
825
  8
SIZE
  6
BYBLOCK
 10
1183.87190739788
 20
95.361279786502593
 30
0.0
 11
1169.87190739788
 21
95.361279786502593
 31
0.0
  0
LINE
  5
826
  8
SIZE
  6
BYBLOCK
 10
1167.87190739788
 20
95.361279786502593
 30
0.0
 11
1165.87190739788
 21
95.361279786502593
 31
0.0
  0
LINE
  5
827
  8
SIZE
  6
BYBLOCK
 10
1185.87190739788
 20
95.361279786502593
 30
0.0
 11
1187.87190739788
 21
95.361279786502593
 31
0.0
  0
TEXT
  5
828
  8
SIZE
  6
BYBLOCK
 10
1134.3576213978811
 20
127.36127978650261
 30
0.0
 40
64.0
  1
14
 41
0.9
  0
LINE
  5
829
  8
NOTE
  6
CONTINOUS
 10
1149.871906397881
 20
290.07775178650252
 30
0.0
 11
1189.871906397881
 21
290.07775178650252
 31
0.0
  0
LINE
  5
82A
  8
NOTE
  6
CONTINUOUS
 10
1169.871906397881
 20
290.07775178650252
 30
0.0
 11
1184.97614639788
 21
253.0390967865026
 31
0.0
  0
LINE
  5
82B
  8
NOTE
  6
CONTINUOUS
 10
1169.871906397881
 20
290.07775178650252
 30
0.0
 11
1201.47188939788
 21
265.55345678650241
 31
0.0
  0
TEXT
  5
82C
  8
ETC
  6
CONTINUOUS
 10
1561.288518397879
 20
407.8032387865025
 30
0.0
 40
64.0
  1
SPUZ0824
 41
0.9
  0
LINE
  5
82D
  8
SIZE
  6
BYBLOCK
 10
1420.44446039788
 20
1143.0777517865019
 30
0.0
 11
1420.44446039788
 21
717.57775178650252
 31
0.0
  0
LINE
  5
82E
  8
OUTLINE
  6
CONTINUOUS
 10
1154.8719063978799
 20
1145.0777517865019
 30
0.0
 11
1154.8719063978799
 21
323.07775178650252
 31
0.0
  0
LINE
  5
82F
  8
DETAIL
  6
CONTINOUS
 10
1154.8719063978799
 20
323.07775178650252
 30
0.0
 11
1154.8719063978799
 21
1145.0777517865019
 31
0.0
  0
LINE
  5
830
  8
SIZE
  6
BYBLOCK
 10
1420.44446039788
 20
292.07775178650252
 30
0.0
 11
1420.44446039788
 21
717.57775178650252
 31
0.0
  0
LINE
  5
831
  8
NOTE
  6
CONTINUOUS
 10
1124.871906397881
 20
323.07775178650252
 30
0.0
 11
1231.96219639788
 21
428.57361078650251
 31
0.0
  0
LINE
  5
832
  8
NOTE
  6
CONTINOUS
 10
1104.871906397881
 20
323.07775178650252
 30
0.0
 11
1144.871906397881
 21
323.07775178650252
 31
0.0
  0
POLYLINE
  5
833
  8
NOTE
  6
CONTINUOUS
 66
     1
 10
0.0
 20
0.0
 30
0.0
  0
VERTEX
  5
102B
  8
NOTE
  6
CONTINUOUS
 10
1145.1311663978811
 20
357.56778478650261
 30
0.0
  0
VERTEX
  5
102C
  8
NOTE
  6
CONTINUOUS
 10
1124.871906397881
 20
323.07775178650252
 30
0.0
  0
VERTEX
  5
102D
  8
NOTE
  6
CONTINUOUS
 10
1159.661957397881
 20
342.81736678650259
 30
0.0
  0
SEQEND
  5
102E
  8
NOTE
  6
CONTINUOUS
  0
LINE
  5
838
  8
NOTE
  6
CONTINOUS
 10
1124.871906397881
 20
303.07775178650257
 30
0.0
 11
1124.871906397881
 21
343.07775178650252
 31
0.0
  0
TEXT
  5
839
  8
NOTE
  6
CONTINUOUS
 10
1251.9401213978811
 20
438.44475178650248
 30
0.0
 40
64.0
  1
D
 41
0.9
  0
LINE
  5
83A
  8
NOTE
  6
CONTINUOUS
 10
1231.96219639788
 20
428.57361078650251
 30
0.0
 11
1302.198482397881
 21
428.57361078650251
 31
0.0
  0
TEXT
  5
83B
  8
NOTE
  6
CONTINUOUS
 10
1060.7086543978789
 20
635.63939678650252
 30
0.0
 40
64.0
  1
RG
 41
0.9
  0
LINE
  5
83C
  8
NOTE
  6
CONTINUOUS
 10
1040.77148939788
 20
625.20405378650253
 30
0.0
 11
1180.455218397881
 21
625.20405378650253
 31
0.0
  0
TEXT
  5
83D
  8
NOTE
  6
CONTINUOUS
 10
1060.92620539788
 20
822.17499278650257
 30
0.0
 40
64.0
  1
RL
 41
0.9
  0
LINE
  5
83E
  8
NOTE
  6
CONTINUOUS
 10
1040.77148939788
 20
812.30385178650226
 30
0.0
 11
1170.35759939788
 21
812.30385178650226
 31
0.0
  0
TEXT
  5
83F
  8
SIZE
  6
BYBLOCK
 10
1388.44446039788
 20
643.52060878650252
 30
0.0
 40
64.0
  1
855
 50
90.0
 41
0.9
  0
LINE
  5
840
  8
SIZE
  6
BYBLOCK
 10
1154.87190739788
 20
1165.0777517865019
 30
0.0
 11
1154.87190739788
 21
1422.5027517865019
 31
0.0
  0
LINE
  5
841
  8
SIZE
  6
BYBLOCK
 10
1203.87190739788
 20
1145.0777517865019
 30
0.0
 11
1450.44446039788
 21
1145.0777517865019
 31
0.0
  0
CIRCLE
  5
842
  8
SIZE
  6
CONTINUOUS
 10
1420.44446039788
 20
1145.0777517865019
 30
0.0
 40
6.0
  0
CIRCLE
  5
843
  8
SIZE
  6
CONTINUOUS
 10
1154.87190739788
 20
1392.5027517865019
 30
0.0
 40
6.0
  0
ENDBLK
  5
844
  8
0
  0
BLOCK
  8
0
  2
_ORIGIN
 70
     0
 10
0.0
 20
0.0
 30
0.0
  3
_ORIGIN
  1

  0
CIRCLE
  5
847
  8
0
  6
BYBLOCK
 62
     0
 10
0.0
 20
0.0
 30
0.0
 40
0.5
  0
LINE
  5
848
  8
0
  6
BYBLOCK
 62
     0
 10
0.0
 20
0.0
 30
0.0
 11
-1.0
 21
0.0
 31
0.0
  0
ENDBLK
  5
849
  8
0
  0
BLOCK
  8
0
  2
_ORIGIN2
 70
     0
 10
0.0
 20
0.0
 30
0.0
  3
_ORIGIN2
  1

  0
CIRCLE
  5
84C
  8
0
  6
BYBLOCK
 62
     0
 10
0.0
 20
0.0
 30
0.0
 40
0.5
  0
CIRCLE
  5
84D
  8
0
  6
BYBLOCK
 62
     0
 10
0.0
 20
0.0
 30
0.0
 40
0.25
  0
LINE
  5
84E
  8
0
  6
BYBLOCK
 62
     0
 10
-0.5
 20
0.0
 30
0.0
 11
-1.0
 21
0.0
 31
0.0
  0
ENDBLK
  5
84F
  8
0
  0
BLOCK
  8
0
  2
_DOTBLANK
 70
     0
 10
0.0
 20
0.0
 30
0.0
  3
_DOTBLANK
  1

  0
CIRCLE
  5
852
  8
0
  6
BYBLOCK
 62
     0
 10
0.0
 20
0.0
 30
0.0
 40
0.5
  0
LINE
  5
853
  8
0
  6
BYBLOCK
 62
     0
 10
-0.5
 20
0.0
 30
0.0
 11
-1.0
 21
0.0
 31
0.0
  0
ENDBLK
  5
854
  8
0
  0
BLOCK
  8
0
  2
*D6
 70
     1
 10
0.0
 20
0.0
 30
0.0
  3
*D6
  1

  0
LINE
  5
10BD
  8
SIZE
  6
CONTINUOUS
 62
     0
 10
275.0
 20
1109.0
 30
0.0
 11
275.0
 21
1586.914571489664
 31
0.0
  0
LINE
  5
10BE
  8
SIZE
  6
CONTINUOUS
 62
     0
 10
475.0
 20
1370.0
 30
0.0
 11
475.0
 21
1586.914571489664
 31
0.0
  0
LINE
  5
10BF
  8
SIZE
  6
CONTINUOUS
 62
     0
 10
285.0
 20
1556.914571489664
 30
0.0
 11
465.0
 21
1556.914571489664
 31
0.0
  0
INSERT
  5
10C0
  8
SIZE
  6
CONTINUOUS
 62
     0
  2
_DOTBLANK
 10
275.0
 20
1556.914571489664
 30
0.0
 41
10.0
 42
10.0
 43
10.0
 50
180.0
  0
INSERT
  5
10C1
  8
SIZE
  6
CONTINUOUS
 62
     0
  2
_DOTBLANK
 10
475.0
 20
1556.914571489664
 30
0.0
 41
10.0
 42
10.0
 43
10.0
  0
TEXT
  8
0
  40
64
  5
10CF
  62
0
  72
0
  71
0
 10
245.963
 20
1475.72
 30
0.000000
  1
200
  0
POINT
  5
10C3
  8
DEFPOINTS
  6
CONTINUOUS
 62
     0
 10
275.0
 20
1089.0
 30
0.0
  0
POINT
  5
10C4
  8
DEFPOINTS
  6
CONTINUOUS
 62
     0
 10
475.0
 20
1350.0
 30
0.0
  0
POINT
  5
10C5
  8
DEFPOINTS
  6
CONTINUOUS
 62
     0
 10
475.0
 20
1556.914571489664
 30
0.0
  0
ENDBLK
  5
E3F
  8
0
  0
BLOCK
  8
0
  2
*D7
 70
     1
 10
0.0
 20
0.0
 30
0.0
  3
*D7
  1

  0
LINE
  5
10C6
  8
SIZE
  6
CONTINUOUS
 62
     0
 10
315.0
 20
1069.0
 30
0.0
 11
1176.017440927744
 21
1068.9999999999991
 31
0.0
  0
LINE
  5
10C7
  8
SIZE
  6
CONTINUOUS
 62
     0
 10
340.0
 20
-0.0000000000000057
 30
0.0
 11
1176.017440927744
 21
-0.0000000000002425
 31
0.0
  0
LINE
  5
10C8
  8
SIZE
  6
CONTINUOUS
 62
     0
 10
1146.017440927744
 20
1058.9999999999991
 30
0.0
 11
1146.017440927744
 21
9.9999999999997673
 31
0.0
  0
INSERT
  5
10C9
  8
SIZE
  6
CONTINUOUS
 62
     0
  2
_DOTBLANK
 10
1146.017440927744
 20
1068.9999999999991
 30
0.0
 41
10.0
 42
10.0
 43
10.0
 50
90.0
  0
INSERT
  5
10CA
  8
SIZE
  6
CONTINUOUS
 62
     0
  2
_DOTBLANK
 10
1146.017440927744
 20
-0.000000000000234
 30
0.0
 41
10.0
 42
10.0
 43
10.0
 50
270.0
  0
TEXT
  8
0
  40
64
  5
10D0
  62
0
  72
0
  71
0
 10
985.927
 20
407.582
 30
0.000000
  1
1069
  0
POINT
  5
10CC
  8
DEFPOINTS
  6
CONTINUOUS
 62
     0
 10
295.0
 20
1069.0
 30
0.0
  0
POINT
  5
10CD
  8
DEFPOINTS
  6
CONTINUOUS
 62
     0
 10
320.0
 20
0.0
 30
0.0
  0
POINT
  5
10CE
  8
DEFPOINTS
  6
CONTINUOUS
 62
     0
 10
1146.017440927744
 20
-0.000000000000234
 30
0.0
  0
ENDBLK
  5
E4C
  8
0
  0
BLOCK
  8
0
  2
*D8
 70
     1
 10
0.0
 20
0.0
 30
0.0
  3
*D8
  1

  0
LINE
  5
10A2
  8
SIZE
  6
CONTINUOUS
 62
     0
 10
475.0
 20
3.0
 30
0.0
 11
474.99999999999989
 21
-573.01396200505167
 31
0.0
  0
LINE
  5
10A3
  8
SIZE
  6
CONTINUOUS
 62
     0
 10
-474.99999999999989
 20
3.0
 30
0.0
 11
-475.0
 21
-573.01396200505167
 31
0.0
  0
LINE
  5
10A4
  8
SIZE
  6
CONTINUOUS
 62
     0
 10
464.99999999999989
 20
-543.01396200505178
 30
0.0
 11
-465.0
 21
-543.01396200505178
 31
0.0
  0
INSERT
  5
10A5
  8
SIZE
  6
CONTINUOUS
 62
     0
  2
_DOTBLANK
 10
474.99999999999989
 20
-543.01396200505178
 30
0.0
 41
10.0
 42
10.0
 43
10.0
  0
INSERT
  5
10A6
  8
SIZE
  6
CONTINUOUS
 62
     0
  2
_DOTBLANK
 10
-475.0
 20
-543.01396200505178
 30
0.0
 41
10.0
 42
10.0
 43
10.0
 50
180.0
  0
TEXT
  8
0
  40
64
  5
10D1
  62
0
  72
0
  71
0
 10
-128.000
 20
-624.204
 30
0.000000
  1
950
  0
POINT
  5
10A8
  8
DEFPOINTS
  6
CONTINUOUS
 62
     0
 10
475.0
 20
23.0
 30
0.0
  0
POINT
  5
10A9
  8
DEFPOINTS
  6
CONTINUOUS
 62
     0
 10
-474.99999999999989
 20
23.0
 30
0.0
  0
POINT
  5
10AA
  8
DEFPOINTS
  6
CONTINUOUS
 62
     0
 10
-475.0
 20
-543.01396200505178
 30
0.0
  0
ENDBLK
  5
E62
  8
0
  0
BLOCK
  8
0
  2
*D9
 70
     1
 10
0.0
 20
0.0
 30
0.0
  3
*D9
  1

  0
LINE
  5
1087
  8
SIZE
  6
CONTINUOUS
 62
     0
 10
-300.0
 20
-40.0
 30
0.0
 11
-300.0
 21
-436.34640411009718
 31
0.0
  0
LINE
  5
1088
  8
SIZE
  6
CONTINUOUS
 62
     0
 10
300.0
 20
-40.0
 30
0.0
 11
300.0
 21
-436.34640411009718
 31
0.0
  0
LINE
  5
1089
  8
SIZE
  6
CONTINUOUS
 62
     0
 10
-290.0
 20
-406.3464041100973
 30
0.0
 11
290.0
 21
-406.3464041100973
 31
0.0
  0
INSERT
  5
108A
  8
SIZE
  6
CONTINUOUS
 62
     0
  2
_DOTBLANK
 10
-300.0
 20
-406.3464041100973
 30
0.0
 41
10.0
 42
10.0
 43
10.0
 50
180.0
  0
INSERT
  5
108B
  8
SIZE
  6
CONTINUOUS
 62
     0
  2
_DOTBLANK
 10
300.0
 20
-406.3464041100973
 30
0.0
 41
10.0
 42
10.0
 43
10.0
  0
TEXT
  8
0
  40
64
  5
10D2
  62
0
  72
0
  71
0
 10
-128.000
 20
-487.536
 30
0.000000
  1
600
  0
POINT
  5
108D
  8
DEFPOINTS
  6
CONTINUOUS
 62
     0
 10
-300.0
 20
-20.0
 30
0.0
  0
POINT
  5
108E
  8
DEFPOINTS
  6
CONTINUOUS
 62
     0
 10
300.0
 20
-20.0
 30
0.0
  0
POINT
  5
108F
  8
DEFPOINTS
  6
CONTINUOUS
 62
     0
 10
300.0
 20
-406.3464041100973
 30
0.0
  0
ENDBLK
  5
E6E
  8
0
  0
BLOCK
  8
0
  2
*D10
 70
     1
 10
0.0
 20
0.0
 30
0.0
  3
*D10
  1

  0
LINE
  5
1057
  8
SIZE
  6
CONTINUOUS
 62
     0
 10
-474.99999999999989
 20
1370.0
 30
0.0
 11
-474.99999999999989
 21
1735.235405989429
 31
0.0
  0
LINE
  5
1058
  8
SIZE
  6
CONTINUOUS
 62
     0
 10
475.0
 20
1369.117702994715
 30
0.0
 11
475.0
 21
1735.235405989429
 31
0.0
  0
LINE
  5
1059
  8
SIZE
  6
CONTINUOUS
 62
     0
 10
-464.99999999999989
 20
1705.235405989429
 30
0.0
 11
465.0
 21
1705.235405989429
 31
0.0
  0
TEXT
  8
0
  40
64
  5
10D3
  62
0
  72
0
  71
0
 10
-142.655
 20
1650.85
 30
0.000000
  1
950
  0
INSERT
  5
105B
  8
SIZE
  6
CONTINUOUS
 62
     0
  2
_DOTBLANK
 10
-474.99999999999989
 20
1705.235405989429
 30
0.0
 41
10.0
 42
10.0
 43
10.0
 50
180.0
  0
INSERT
  5
105C
  8
SIZE
  6
CONTINUOUS
 62
     0
  2
_DOTBLANK
 10
475.0
 20
1705.235405989429
 30
0.0
 41
10.0
 42
10.0
 43
10.0
  0
POINT
  5
105D
  8
DEFPOINTS
  6
CONTINUOUS
 62
     0
 10
-474.99999999999989
 20
1350.0
 30
0.0
  0
POINT
  5
105E
  8
DEFPOINTS
  6
CONTINUOUS
 62
     0
 10
475.0
 20
1349.117702994715
 30
0.0
  0
POINT
  5
105F
  8
DEFPOINTS
  6
CONTINUOUS
 62
     0
 10
475.0
 20
1705.235405989429
 30
0.0
  0
ENDBLK
  5
E7B
  8
0
  0
BLOCK
  8
0
  2
*D11
 70
     1
 10
0.0
 20
0.0
 30
0.0
  3
*D11
  1

  0
LINE
  5
10B4
  8
SIZE
  6
CONTINUOUS
 62
     0
 10
-486.797845249847
 20
371.0
 30
0.0
 11
-757.23196829527205
 21
371.0
 31
0.0
  0
LINE
  5
10B5
  8
SIZE
  6
CONTINUOUS
 62
     0
 10
-486.797845249847
 20
1006.0
 30
0.0
 11
-757.23196829527194
 21
1006.0
 31
0.0
  0
LINE
  5
10B6
  8
SIZE
  6
CONTINUOUS
 62
     0
 10
-727.23196829527205
 20
381.0
 30
0.0
 11
-727.23196829527194
 21
996.0
 31
0.0
  0
INSERT
  5
10B7
  8
SIZE
  6
CONTINUOUS
 62
     0
  2
_DOTBLANK
 10
-727.23196829527205
 20
371.0
 30
0.0
 41
10.0
 42
10.0
 43
10.0
 50
270.0
  0
INSERT
  5
10B8
  8
SIZE
  6
CONTINUOUS
 62
     0
  2
_DOTBLANK
 10
-727.23196829527194
 20
1006.0
 30
0.0
 41
10.0
 42
10.0
 43
10.0
 50
90.0
  0
TEXT
  8
0
  40
64
  5
10D4
  62
0
  72
0
  71
0
 10
-887.322
 20
575.220
 30
0.000000
  1
635
  0
POINT
  5
10BA
  8
DEFPOINTS
  6
CONTINUOUS
 62
     0
 10
-466.797845249847
 20
371.0
 30
0.0
  0
POINT
  5
10BB
  8
DEFPOINTS
  6
CONTINUOUS
 62
     0
 10
-466.797845249847
 20
1006.0
 30
0.0
  0
POINT
  5
10BC
  8
DEFPOINTS
  6
CONTINUOUS
 62
     0
 10
-727.23196829527194
 20
1006.0
 30
0.0
  0
ENDBLK
  5
E87
  8
0
  0
BLOCK
  8
0
  2
*D12
 70
     1
 10
0.0
 20
0.0
 30
0.0
  3
*D12
  1

  0
LINE
  5
1045
  8
SIZE
  6
CONTINUOUS
 62
     0
 10
-340.0
 20
0.0000000000000057
 30
0.0
 11
-898.74271351267396
 21
0.0000000000001639
 31
0.0
  0
LINE
  5
1046
  8
SIZE
  6
CONTINUOUS
 62
     0
 10
-494.99999999999989
 20
1350.0
 30
0.0
 11
-898.74271351267362
 21
1350.0
 31
0.0
  0
LINE
  5
1047
  8
SIZE
  6
CONTINUOUS
 62
     0
 10
-868.74271351267384
 20
10.000000000000149
 30
0.0
 11
-868.74271351267362
 21
1340.0
 31
0.0
  0
INSERT
  5
1048
  8
SIZE
  6
CONTINUOUS
 62
     0
  2
_DOTBLANK
 10
-868.74271351267384
 20
0.0000000000001554
 30
0.0
 41
10.0
 42
10.0
 43
10.0
 50
270.0
  0
INSERT
  5
1049
  8
SIZE
  6
CONTINUOUS
 62
     0
  2
_DOTBLANK
 10
-868.74271351267362
 20
1350.0
 30
0.0
 41
10.0
 42
10.0
 43
10.0
 50
90.0
  0
TEXT
  8
0
  40
64
  5
10D5
  62
0
  72
0
  71
0
 10
-1028.83
 20
561.720
 30
0.000000
  1
1350
  0
POINT
  5
104B
  8
DEFPOINTS
  6
CONTINUOUS
 62
     0
 10
-320.0
 20
0.0
 30
0.0
  0
POINT
  5
104C
  8
DEFPOINTS
  6
CONTINUOUS
 62
     0
 10
-474.99999999999989
 20
1350.0
 30
0.0
  0
POINT
  5
104D
  8
DEFPOINTS
  6
CONTINUOUS
 62
     0
 10
-868.74271351267362
 20
1350.0
 30
0.0
  0
ENDBLK
  5
E93
  8
0
  0
BLOCK
  8
0
  2
*D13
 70
     1
 10
0.0
 20
0.0
 30
0.0
  3
*D13
  1

  0
LINE
  5
103C
  8
SIZE
  6
CONTINUOUS
 62
     0
 10
-340.0
 20
0.0000000000000057
 30
0.0
 11
-757.23196829527217
 21
0.0000000000001239
 31
0.0
  0
LINE
  5
103D
  8
SIZE
  6
CONTINUOUS
 62
     0
 10
-494.99999999999989
 20
371.0
 30
0.0
 11
-757.23196829527205
 21
371.0
 31
0.0
  0
LINE
  5
103E
  8
SIZE
  6
CONTINUOUS
 62
     0
 10
-727.23196829527205
 20
10.00000000000011
 30
0.0
 11
-727.23196829527205
 21
361.0
 31
0.0
  0
INSERT
  5
103F
  8
SIZE
  6
CONTINUOUS
 62
     0
  2
_DOTBLANK
 10
-727.23196829527205
 20
0.0000000000001154
 30
0.0
 41
10.0
 42
10.0
 43
10.0
 50
270.0
  0
INSERT
  5
1040
  8
SIZE
  6
CONTINUOUS
 62
     0
  2
_DOTBLANK
 10
-727.23196829527205
 20
371.0
 30
0.0
 41
10.0
 42
10.0
 43
10.0
 50
90.0
  0
TEXT
  8
0
  40
64
  5
10D6
  62
0
  72
0
  71
0
 10
-887.322
 20
72.2200
 30
0.000000
  1
371
  0
POINT
  5
1042
  8
DEFPOINTS
  6
CONTINUOUS
 62
     0
 10
-320.0
 20
0.0
 30
0.0
  0
POINT
  5
1043
  8
DEFPOINTS
  6
CONTINUOUS
 62
     0
 10
-474.99999999999989
 20
371.0
 30
0.0
  0
POINT
  5
1044
  8
DEFPOINTS
  6
CONTINUOUS
 62
     0
 10
-727.23196829527205
 20
371.0
 30
0.0
  0
ENDBLK
  5
E9F
  8
0
  0
BLOCK
  8
0
  2
*D14
 70
     1
 10
0.0
 20
0.0
 30
0.0
  3
*D14
  1

  0
LINE
  5
1090
  8
SIZE
  6
CONTINUOUS
 62
     0
 10
-300.0
 20
-40.0
 30
0.0
 11
-300.0
 21
-436.34640411009718
 31
0.0
  0
LINE
  5
1091
  8
SIZE
  6
CONTINUOUS
 62
     0
 10
-474.99999999999989
 20
3.0
 30
0.0
 11
-474.99999999999989
 21
-436.34640411009718
 31
0.0
  0
LINE
  5
1092
  8
SIZE
  6
CONTINUOUS
 62
     0
 10
-310.0
 20
-406.3464041100973
 30
0.0
 11
-464.99999999999989
 21
-406.3464041100973
 31
0.0
  0
INSERT
  5
1093
  8
SIZE
  6
CONTINUOUS
 62
     0
  2
_DOTBLANK
 10
-300.0
 20
-406.3464041100973
 30
0.0
 41
10.0
 42
10.0
 43
10.0
  0
INSERT
  5
1094
  8
SIZE
  6
CONTINUOUS
 62
     0
  2
_DOTBLANK
 10
-474.99999999999989
 20
-406.3464041100973
 30
0.0
 41
10.0
 42
10.0
 43
10.0
 50
180.0
  0
TEXT
  8
0
  40
64
  5
10D7
  62
0
  72
0
  71
0
 10
-515.500
 20
-487.536
 30
0.000000
  1
175
  0
POINT
  5
1096
  8
DEFPOINTS
  6
CONTINUOUS
 62
     0
 10
-300.0
 20
-20.0
 30
0.0
  0
POINT
  5
1097
  8
DEFPOINTS
  6
CONTINUOUS
 62
     0
 10
-474.99999999999989
 20
23.0
 30
0.0
  0
POINT
  5
1098
  8
DEFPOINTS
  6
CONTINUOUS
 62
     0
 10
-474.99999999999989
 20
-406.3464041100973
 30
0.0
  0
ENDBLK
  5
EAB
  8
0
  0
BLOCK
  8
0
  2
*D15
 70
     1
 10
0.0
 20
0.0
 30
0.0
  3
*D15
  1

  0
LINE
  5
1033
  8
SIZE
  6
CONTINUOUS
 62
     0
 10
-494.99999999999989
 20
23.0
 30
0.0
 11
-617.48247724767032
 21
23.000000000000028
 31
0.0
  0
LINE
  5
1034
  8
SIZE
  6
CONTINUOUS
 62
     0
 10
-340.0
 20
0.0000000000000057
 30
0.0
 11
-617.48247724767032
 21
0.0000000000000843
 31
0.0
  0
LINE
  5
1035
  8
SIZE
  6
CONTINUOUS
 62
     0
 10
-587.48247724767032
 20
13.00000000000003
 30
0.0
 11
-587.48247724767032
 21
10.000000000000069
 31
0.0
  0
TEXT
  8
0
  40
64
  5
10D8
  62
0
  72
0
  71
0
 10
-777.617
 20
-101.780
 30
0.000000
  1
23
  0
INSERT
  5
1037
  8
SIZE
  6
CONTINUOUS
 62
     0
  2
_DOTBLANK
 10
-587.48247724767032
 20
23.000000000000028
 30
0.0
 41
10.0
 42
10.0
 43
10.0
 50
90.0
  0
INSERT
  5
1038
  8
SIZE
  6
CONTINUOUS
 62
     0
  2
_DOTBLANK
 10
-587.48247724767032
 20
0.0000000000000758
 30
0.0
 41
10.0
 42
10.0
 43
10.0
 50
270.0
  0
POINT
  5
1039
  8
DEFPOINTS
  6
CONTINUOUS
 62
     0
 10
-474.99999999999989
 20
23.0
 30
0.0
  0
POINT
  5
103A
  8
DEFPOINTS
  6
CONTINUOUS
 62
     0
 10
-320.0
 20
0.0
 30
0.0
  0
POINT
  5
103B
  8
DEFPOINTS
  6
CONTINUOUS
 62
     0
 10
-587.48247724767032
 20
0.0000000000000758
 30
0.0
  0
ENDBLK
  5
EB7
  8
0
  0
BLOCK
  8
0
  2
*D16
 70
     1
 10
0.0
 20
0.0
 30
0.0
  3
*D16
  1

  0
LINE
  5
104E
  8
SIZE
  6
CONTINUOUS
 62
     0
 10
-474.99999999999989
 20
1370.0
 30
0.0
 11
-474.99999999999989
 21
1568.7395436587451
 31
0.0
  0
LINE
  5
104F
  8
SIZE
  6
CONTINUOUS
 62
     0
 10
-152.99999999984689
 20
806.79784524953902
 30
0.0
 11
-152.99999999984681
 21
1568.7395436587451
 31
0.0
  0
LINE
  5
1050
  8
SIZE
  6
CONTINUOUS
 62
     0
 10
-464.99999999999989
 20
1538.7395436587451
 30
0.0
 11
-162.99999999984681
 21
1538.7395436587451
 31
0.0
  0
TEXT
  8
0
  40
64
  5
10D9
  62
0
  72
0
  71
0
 10
-438.005
 20
1485.08
 30
0.000000
  1
322
  0
INSERT
  5
1052
  8
SIZE
  6
CONTINUOUS
 62
     0
  2
_DOTBLANK
 10
-474.99999999999989
 20
1538.7395436587451
 30
0.0
 41
10.0
 42
10.0
 43
10.0
 50
180.0
  0
INSERT
  5
1053
  8
SIZE
  6
CONTINUOUS
 62
     0
  2
_DOTBLANK
 10
-152.99999999984681
 20
1538.7395436587451
 30
0.0
 41
10.0
 42
10.0
 43
10.0
  0
POINT
  5
1054
  8
DEFPOINTS
  6
CONTINUOUS
 62
     0
 10
-474.99999999999989
 20
1350.0
 30
0.0
  0
POINT
  5
1055
  8
DEFPOINTS
  6
CONTINUOUS
 62
     0
 10
-152.99999999984689
 20
786.79784524953902
 30
0.0
  0
POINT
  5
1056
  8
DEFPOINTS
  6
CONTINUOUS
 62
     0
 10
-152.99999999984681
 20
1538.7395436587451
 30
0.0
  0
ENDBLK
  5
EC4
  8
0
  0
BLOCK
  8
0
  2
*D17
 70
     1
 10
0.0
 20
0.0
 30
0.0
  3
*D17
  1

  0
LINE
  5
1099
  8
SIZE
  6
CONTINUOUS
 62
     0
 10
300.0
 20
-40.0
 30
0.0
 11
300.0
 21
-436.34640411009718
 31
0.0
  0
LINE
  5
109A
  8
SIZE
  6
CONTINUOUS
 62
     0
 10
475.0
 20
3.0
 30
0.0
 11
475.0
 21
-436.34640411009718
 31
0.0
  0
LINE
  5
109B
  8
SIZE
  6
CONTINUOUS
 62
     0
 10
310.0
 20
-406.3464041100973
 30
0.0
 11
465.0
 21
-406.3464041100973
 31
0.0
  0
INSERT
  5
109C
  8
SIZE
  6
CONTINUOUS
 62
     0
  2
_DOTBLANK
 10
300.0
 20
-406.3464041100973
 30
0.0
 41
10.0
 42
10.0
 43
10.0
 50
180.0
  0
INSERT
  5
109D
  8
SIZE
  6
CONTINUOUS
 62
     0
  2
_DOTBLANK
 10
475.0
 20
-406.3464041100973
 30
0.0
 41
10.0
 42
10.0
 43
10.0
  0
TEXT
  8
0
  40
64
  5
10DA
  62
0
  72
0
  71
0
 10
259.500
 20
-487.536
 30
0.000000
  1
175
  0
POINT
  5
109F
  8
DEFPOINTS
  6
CONTINUOUS
 62
     0
 10
300.0
 20
-20.0
 30
0.0
  0
POINT
  5
10A0
  8
DEFPOINTS
  6
CONTINUOUS
 62
     0
 10
475.0
 20
23.0
 30
0.0
  0
POINT
  5
10A1
  8
DEFPOINTS
  6
CONTINUOUS
 62
     0
 10
475.0
 20
-406.3464041100973
 30
0.0
  0
ENDBLK
  5
ED9
  8
0
  0
BLOCK
  8
0
  2
*D18
 70
     1
 10
0.0
 20
0.0
 30
0.0
  3
*D18
  1

  0
LINE
  5
10AB
  8
SIZE
  6
CONTINUOUS
 62
     0
 10
340.0
 20
-0.0000000000000057
 30
0.0
 11
984.02239245208773
 21
-0.0000000000001881
 31
0.0
  0
LINE
  5
10AC
  8
SIZE
  6
CONTINUOUS
 62
     0
 10
407.0
 20
447.0
 30
0.0
 11
984.02239245208796
 21
446.99999999999972
 31
0.0
  0
LINE
  5
10AD
  8
SIZE
  6
CONTINUOUS
 62
     0
 10
954.02239245208762
 20
9.9999999999998206
 30
0.0
 11
954.02239245208784
 21
436.99999999999977
 31
0.0
  0
INSERT
  5
10AE
  8
SIZE
  6
CONTINUOUS
 62
     0
  2
_DOTBLANK
 10
954.02239245208762
 20
-0.0000000000001796
 30
0.0
 41
10.0
 42
10.0
 43
10.0
 50
270.0
  0
INSERT
  5
10AF
  8
SIZE
  6
CONTINUOUS
 62
     0
  2
_DOTBLANK
 10
954.02239245208784
 20
446.99999999999972
 30
0.0
 41
10.0
 42
10.0
 43
10.0
 50
90.0
  0
TEXT
  8
0
  40
64
  5
10DB
  62
0
  72
0
  71
0
 10
793.932
 20
110.220
 30
0.000000
  1
447
  0
POINT
  5
10B1
  8
DEFPOINTS
  6
CONTINUOUS
 62
     0
 10
320.0
 20
0.0
 30
0.0
  0
POINT
  5
10B2
  8
DEFPOINTS
  6
CONTINUOUS
 62
     0
 10
387.0
 20
447.0
 30
0.0
  0
POINT
  5
10B3
  8
DEFPOINTS
  6
CONTINUOUS
 62
     0
 10
954.02239245208784
 20
446.99999999999972
 30
0.0
  0
ENDBLK
  5
EE5
  8
0
  0
BLOCK
  8
0
  2
*D19
 70
     1
 10
0.0
 20
0.0
 30
0.0
  3
*D19
  1

  0
LINE
  5
1072
  8
SIZE
  6
CONTINUOUS
 62
     0
 10
336.0
 20
-0.0000000000000057
 30
0.0
 11
817.69240512618558
 21
-0.0000000000001421
 31
0.0
  0
LINE
  5
1073
  8
SIZE
  6
CONTINUOUS
 62
     0
 10
473.0
 20
443.0
 30
0.0
 11
817.6924051261858
 21
442.99999999999989
 31
0.0
  0
LINE
  5
1074
  8
SIZE
  6
CONTINUOUS
 62
     0
 10
787.69240512618558
 20
9.9999999999998668
 30
0.0
 11
787.6924051261858
 21
432.99999999999989
 31
0.0
  0
INSERT
  5
1075
  8
SIZE
  6
CONTINUOUS
 62
     0
  2
_DOTBLANK
 10
787.69240512618558
 20
-0.0000000000001336
 30
0.0
 41
10.0
 42
10.0
 43
10.0
 50
270.0
  0
INSERT
  5
1076
  8
SIZE
  6
CONTINUOUS
 62
     0
  2
_DOTBLANK
 10
787.6924051261858
 20
442.99999999999989
 30
0.0
 41
10.0
 42
10.0
 43
10.0
 50
90.0
  0
TEXT
  8
0
  40
64
  5
10DC
  62
0
  72
0
  71
0
 10
627.602
 20
108.220
 30
0.000000
  1
443
  0
POINT
  5
1078
  8
DEFPOINTS
  6
CONTINUOUS
 62
     0
 10
316.0
 20
0.0
 30
0.0
  0
POINT
  5
1079
  8
DEFPOINTS
  6
CONTINUOUS
 62
     0
 10
453.0
 20
443.0
 30
0.0
  0
POINT
  5
107A
  8
DEFPOINTS
  6
CONTINUOUS
 62
     0
 10
787.6924051261858
 20
442.99999999999989
 30
0.0
  0
ENDBLK
  5
EF1
  8
0
  0
BLOCK
  8
0
  2
*D20
 70
     1
 10
0.0
 20
0.0
 30
0.0
  3
*D20
  1

  0
LINE
  5
1069
  8
SIZE
  6
CONTINUOUS
 62
     0
 10
367.0
 20
407.0
 30
0.0
 11
367.0
 21
124.8947144222825
 31
0.0
  0
LINE
  5
106A
  8
SIZE
  6
CONTINUOUS
 62
     0
 10
433.0
 20
403.0
 30
0.0
 11
433.0
 21
124.8947144222825
 31
0.0
  0
LINE
  5
106B
  8
SIZE
  6
CONTINUOUS
 62
     0
 10
377.0
 20
154.8947144222825
 30
0.0
 11
423.0
 21
154.8947144222825
 31
0.0
  0
TEXT
  8
0
  40
64
  5
10DD
  62
0
  72
0
  71
0
 10
157.876
 20
70.8643
 30
0.000000
  1
66
  0
INSERT
  5
106D
  8
SIZE
  6
CONTINUOUS
 62
     0
  2
_DOTBLANK
 10
367.0
 20
154.8947144222825
 30
0.0
 41
10.0
 42
10.0
 43
10.0
 50
180.0
  0
INSERT
  5
106E
  8
SIZE
  6
CONTINUOUS
 62
     0
  2
_DOTBLANK
 10
433.0
 20
154.8947144222825
 30
0.0
 41
10.0
 42
10.0
 43
10.0
  0
POINT
  5
106F
  8
DEFPOINTS
  6
CONTINUOUS
 62
     0
 10
367.0
 20
427.0
 30
0.0
  0
POINT
  5
1070
  8
DEFPOINTS
  6
CONTINUOUS
 62
     0
 10
433.0
 20
423.0
 30
0.0
  0
POINT
  5
1071
  8
DEFPOINTS
  6
CONTINUOUS
 62
     0
 10
433.0
 20
154.8947144222825
 30
0.0
  0
ENDBLK
  5
EFD
  8
0
  0
BLOCK
  8
0
  2
*D21
 70
     1
 10
0.0
 20
0.0
 30
0.0
  3
*D21
  1

  0
LINE
  5
1060
  8
SIZE
  6
CONTINUOUS
 62
     0
 10
433.0
 20
403.0
 30
0.0
 11
433.0
 21
236.03391228826351
 31
0.0
  0
LINE
  5
1061
  8
SIZE
  6
CONTINUOUS
 62
     0
 10
475.0
 20
43.0
 30
0.0
 11
475.0
 21
296.03391228826348
 31
0.0
  0
LINE
  5
1062
  8
SIZE
  6
CONTINUOUS
 62
     0
 10
443.0
 20
266.03391228826359
 30
0.0
 11
465.0
 21
266.03391228826359
 31
0.0
  0
TEXT
  8
0
  40
64
  5
10DE
  62
0
  72
0
  71
0
 10
433.629
 20
152.754
 30
0.000000
  1
42
  0
INSERT
  5
1064
  8
SIZE
  6
CONTINUOUS
 62
     0
  2
_DOTBLANK
 10
433.0
 20
266.03391228826359
 30
0.0
 41
10.0
 42
10.0
 43
10.0
 50
180.0
  0
INSERT
  5
1065
  8
SIZE
  6
CONTINUOUS
 62
     0
  2
_DOTBLANK
 10
475.0
 20
266.03391228826359
 30
0.0
 41
10.0
 42
10.0
 43
10.0
  0
POINT
  5
1066
  8
DEFPOINTS
  6
CONTINUOUS
 62
     0
 10
433.0
 20
423.0
 30
0.0
  0
POINT
  5
1067
  8
DEFPOINTS
  6
CONTINUOUS
 62
     0
 10
475.0
 20
23.0
 30
0.0
  0
POINT
  5
1068
  8
DEFPOINTS
  6
CONTINUOUS
 62
     0
 10
475.0
 20
266.03391228826359
 30
0.0
  0
ENDBLK
  5
F09
  8
0
  0
ENDSEC
  0
SECTION
  2
ENTITIES
  0
TEXT
  5
D3C
  8
NOTE
  6
CONTINUOUS
 10
-1088.8291740332361
 20
-259.13038127694142
 30
0.0
 40
64.0
  1
AH 2-12×36
 41
0.9
  0
LINE
  5
D3D
  8
NOTE
  6
CONTINUOUS
 10
-1103.609479033234
 20
-274.23268227694132
 30
0.0
 11
-530.5400718084968
 21
-274.23268227694132
 31
0.0
  0
CIRCLE
  5
D3E
  8
ARRANGE
  6
CONTINUOUS
 10
0.0
 20
0.0
 30
0.0
 40
40.0
  0
LINE
  5
D3F
  8
BASIS
  6
DASHDOT
 10
-466.797845249847
 20
371.0
 30
0.0
 11
160.79784525015299
 21
371.0
 31
0.0
  0
POINT
  5
D40
  8
ARRANGE
  6
CONTINUOUS
 10
0.0
 20
0.0
 30
0.0
  0
CIRCLE
  5
D41
  8
FIX
  6
CONTINUOUS
 10
-300.0
 20
0.0
 30
0.0
 40
40.0
  0
LINE
  5
D42
  8
DETAIL
  6
CONTINOUS
 10
-316.0
 20
22.999999999999542
 30
0.0
 11
-316.0
 21
0.0
 31
0.0
  0
LINE
  5
D43
  8
DETAIL
  6
CONTINOUS
 10
-284.0
 20
22.999999999999542
 30
0.0
 11
-284.0
 21
0.0
 31
0.0
  0
LINE
  5
D44
  8
BASIS
  6
DASHDOT
 10
0.0
 20
1419.6539315756199
 30
0.0
 11
0.0
 21
-80.029089744999965
 31
0.0
  0
LINE
  5
D45
  8
NOTE
  6
CONTINOUS
 10
-300.0
 20
20.0
 30
0.0
 11
-300.0
 21
-20.0
 31
0.0
  0
LINE
  5
D46
  8
NOTE
  6
CONTINOUS
 10
-320.0
 20
0.0
 30
0.0
 11
-280.0
 21
0.0
 31
0.0
  0
LINE
  5
D47
  8
DETAIL
  6
CONTINOUS
 10
-316.0
 20
0.0
 30
0.0
 11
-284.0
 21
0.0
 31
0.0
  0
LINE
  5
D48
  8
DETAIL
  6
CONTINOUS
 10
-474.99999999999989
 20
23.0
 30
0.0
 11
-474.99999999999989
 21
1350.0
 31
0.0
  0
CIRCLE
  5
D49
  8
FIX
  6
CONTINUOUS
 10
300.0
 20
0.0
 30
0.0
 40
40.0
  0
LINE
  5
D4A
  8
DETAIL
  6
CONTINOUS
 10
284.0
 20
22.999999999999542
 30
0.0
 11
284.0
 21
0.0
 31
0.0
  0
LINE
  5
D4B
  8
DETAIL
  6
CONTINOUS
 10
316.0
 20
22.999999999999542
 30
0.0
 11
316.0
 21
0.0
 31
0.0
  0
LINE
  5
D4C
  8
NOTE
  6
CONTINOUS
 10
300.0
 20
20.0
 30
0.0
 11
300.0
 21
-20.0
 31
0.0
  0
TEXT
  5
D4D
  8
ETC
  6
CONTINUOUS
 10
1198.457716830522
 20
-227.77569851777071
 30
0.0
 40
64.0
  1
SMPU2922
 41
0.9
  0
LINE
  5
D4E
  8
NOTE
  6
CONTINOUS
 10
280.0
 20
0.0
 30
0.0
 11
320.0
 21
0.0
 31
0.0
  0
LINE
  5
D4F
  8
DETAIL
  6
CONTINOUS
 10
284.0
 20
0.0
 30
0.0
 11
316.0
 21
0.0
 31
0.0
  0
TEXT
  5
D50
  8
ETC
  6
CONTINUOUS
 10
1210.280460830523
 20
-346.94229951777061
 30
0.0
 40
64.0
  1
室外機
 41
0.9
  0
LINE
  5
D51
  8
DETAIL
  6
CONTINOUS
 10
475.0
 20
23.0
 30
0.0
 11
475.0
 21
1350.0
 31
0.0
  0
POLYLINE
  5
D52
  8
NOTE
  6
CONTINUOUS
 66
     1
 10
0.0
 20
0.0
 30
0.0
  0
VERTEX
  5
102F
  8
NOTE
  6
CONTINUOUS
 10
-317.21532719432111
 20
-36.105851700936903
 30
0.0
  0
VERTEX
  5
1030
  8
NOTE
  6
CONTINUOUS
 10
-300.0
 20
0.0
 30
0.0
  0
VERTEX
  5
1031
  8
NOTE
  6
CONTINUOUS
 10
-332.96183612112861
 20
-22.660921497029889
 30
0.0
  0
SEQEND
  5
1032
  8
NOTE
  6
CONTINUOUS
  0
LINE
  5
D57
  8
NOTE
  6
CONTINUOUS
 10
-300.0
 20
0.0
 30
0.0
 11
-530.5400718084968
 21
-274.23268227694132
 31
0.0
  0
ARC
  5
D58
  8
DETAIL
 10
-153.61937628180141
 20
371.26828366823793
 30
1.0049964175586230E+099
 40
278.11950567951942
 50
324.25620727272252
 51
35.03548794368136
  0
ARC
  5
D59
  8
DETAIL
 10
228.79236219197679
 20
73.153822993974686
 30
1.0049964175586230E+099
 40
207.24088905766081
 50
139.11513446632151
 51
177.55355879231041
  0
ARC
  5
D5A
  8
DETAIL
 10
228.79236219785309
 20
668.84617699802686
 30
1.0049964175586230E+099
 40
207.24088905766081
 50
182.44644120522111
 51
221.71892069730279
  0
ARC
  5
D5B
  8
DETAIL
 10
-152.3806237154941
 20
371.26828366823162
 30
1.0049964175586230E+099
 40
278.11950567951942
 50
144.96451205575141
 51
215.74379272671311
  0
ARC
  5
D5C
  8
DETAIL
 10
-534.79236219221355
 20
668.84617700179319
 30
1.0049964175586230E+099
 40
207.24088905766081
 50
318.28107930213451
 51
357.38201467665021
  0
ARC
  5
D5D
  8
DETAIL
 10
-534.79236219221355
 20
73.153822997740903
 30
1.0049964175586230E+099
 40
207.24088905766081
 50
2.6179853233495911
 51
40.884865533106122
  0
LINE
  5
D5E
  8
DETAIL
 10
136.00000000015311
 20
650.50144689647516
 30
0.0
 11
136.00000000015311
 21
91.498553103990588
 31
0.0
  0
LINE
  5
D5F
  8
DETAIL
 10
-441.99999999984732
 20
91.498553103057944
 30
0.0
 11
-441.99999999984732
 21
650.5014468964755
 31
0.0
  0
LINE
  5
D60
  8
DETAIL
 10
126.50144689616739
 20
82.000000000460645
 30
0.0
 11
-432.50144689631691
 21
82.000000000460645
 31
0.0
  0
ARC
  5
D61
  8
DETAIL
 10
-432.4999999998472
 20
91.500000000460659
 30
0.0
 40
9.5000001101846365
 50
180.0087264246668
 51
269.99127357533303
  0
ARC
  5
D62
  8
DETAIL
 10
126.50000000015299
 20
91.500000000460659
 30
0.0
 40
9.5000001101846365
 50
270.0087264246668
 51
359.99127357533303
  0
LINE
  5
D63
  8
DETAIL
 10
-432.50144689061511
 20
660.00000000046225
 30
0.0
 11
126.50144689616739
 21
660.00000000046111
 31
0.0
  0
ARC
  5
D64
  8
DETAIL
 10
-432.49999999984681
 20
650.50000000046111
 30
0.0
 40
9.5000001101848621
 50
90.008726424666946
 51
179.991273575333
  0
ARC
  5
D65
  8
DETAIL
 10
126.50144689616739
 20
650.50144689647516
 30
0.0
 40
9.4985531039857793
 50
0.0
 51
90.0
  0
LINE
  5
D66
  8
BASIS
  6
DASHDOT
 10
-152.99999999984689
 20
684.79784525000014
 30
0.0
 11
-152.99999999984689
 21
57.202154749999849
 31
0.0
  0
LINE
  5
D67
  8
DETAIL
 10
-157.99999999984681
 20
660.00000000046145
 30
0.0
 11
-157.99999999984681
 21
82.000000000460645
 31
0.0
  0
LINE
  5
D68
  8
DETAIL
 10
-147.99999999984689
 20
660.00000000046145
 30
0.0
 11
-147.99999999984689
 21
82.000000000460645
 31
0.0
  0
LINE
  5
D69
  8
DETAIL
 10
-137.99999999984681
 20
660.00000000046145
 30
0.0
 11
-137.99999999984681
 21
82.000000000460645
 31
0.0
  0
LINE
  5
D6A
  8
DETAIL
 10
-127.99999999984691
 20
660.00000000046145
 30
0.0
 11
-127.99999999984691
 21
82.000000000460645
 31
0.0
  0
LINE
  5
D6B
  8
DETAIL
 10
-117.99999999984691
 20
660.00000000046145
 30
0.0
 11
-117.99999999984691
 21
82.000000000460645
 31
0.0
  0
LINE
  5
D6C
  8
DETAIL
 10
-107.99999999984691
 20
660.00000000046145
 30
0.0
 11
-107.99999999984691
 21
82.000000000460645
 31
0.0
  0
LINE
  5
D6D
  8
DETAIL
 10
-97.999999999846992
 20
660.00000000046145
 30
0.0
 11
-97.999999999846992
 21
82.000000000460645
 31
0.0
  0
LINE
  5
D6E
  8
DETAIL
 10
-87.999999999846949
 20
660.00000000046145
 30
0.0
 11
-87.999999999846949
 21
82.000000000460645
 31
0.0
  0
LINE
  5
D6F
  8
DETAIL
 10
-77.999999999846978
 20
660.00000000046145
 30
0.0
 11
-77.999999999846978
 21
82.000000000460645
 31
0.0
  0
LINE
  5
D70
  8
DETAIL
 10
-67.999999999846978
 20
660.00000000046145
 30
0.0
 11
-67.999999999846978
 21
82.000000000460645
 31
0.0
  0
LINE
  5
D71
  8
DETAIL
 10
-57.99999999984697
 20
660.00000000046145
 30
0.0
 11
-57.99999999984697
 21
82.000000000460645
 31
0.0
  0
LINE
  5
D72
  8
DETAIL
 10
-47.99999999984697
 20
660.00000000046145
 30
0.0
 11
-47.99999999984697
 21
82.000000000460645
 31
0.0
  0
LINE
  5
D73
  8
DETAIL
 10
-37.99999999984697
 20
660.00000000046145
 30
0.0
 11
-37.99999999984697
 21
82.000000000460645
 31
0.0
  0
LINE
  5
D74
  8
DETAIL
 10
-27.99999999984697
 20
660.00000000046145
 30
0.0
 11
-27.99999999984697
 21
82.000000000460645
 31
0.0
  0
LINE
  5
D75
  8
DETAIL
 10
-17.99999999984697
 20
660.00000000046145
 30
0.0
 11
-17.99999999984697
 21
82.000000000460645
 31
0.0
  0
LINE
  5
D76
  8
DETAIL
 10
-7.9999999998469749
 20
660.00000000046145
 30
0.0
 11
-7.9999999998469749
 21
82.000000000460645
 31
0.0
  0
LINE
  5
D77
  8
DETAIL
 10
2.000000000153022
 20
660.00000000046145
 30
0.0
 11
2.000000000153022
 21
82.000000000460645
 31
0.0
  0
LINE
  5
D78
  8
DETAIL
 10
12.00000000015301
 20
660.00000000046145
 30
0.0
 11
12.00000000015301
 21
82.000000000460645
 31
0.0
  0
LINE
  5
D79
  8
DETAIL
 10
22.000000000152991
 20
655.21881356613642
 30
0.0
 11
22.000000000153001
 21
86.781186515036069
 31
0.0
  0
LINE
  5
D7A
  8
DETAIL
 10
32.000000000153022
 20
603.87270334870732
 30
0.0
 11
32.000000000153022
 21
138.12729666109271
 31
0.0
  0
LINE
  5
D7B
  8
DETAIL
 10
42.000000000153022
 20
579.08315832099686
 30
0.0
 11
42.000000000153037
 21
162.916841683233
 31
0.0
  0
LINE
  5
D7C
  8
DETAIL
 10
52.00000000015303
 20
560.71086007535428
 30
0.0
 11
52.000000000153037
 21
181.28913992625479
 31
0.0
  0
LINE
  5
D7D
  8
DETAIL
 10
62.00000000015303
 20
545.8457948444709
 30
0.0
 11
62.000000000153037
 21
196.15420515549911
 31
0.0
  0
LINE
  5
D7E
  8
DETAIL
 10
72.000000000153022
 20
533.32886720376177
 30
0.0
 11
72.000000000153022
 21
208.67113279503869
 31
0.0
  0
LINE
  5
D7F
  8
DETAIL
 10
82.000000000153022
 20
519.03150290740768
 30
0.0
 11
82.000000000153022
 21
223.50506442906811
 31
0.0
  0
LINE
  5
D80
  8
DETAIL
 10
92.000000000152994
 20
501.73506654527489
 30
0.0
 11
92.000000000152994
 21
240.80150079120091
 31
0.0
  0
LINE
  5
D81
  8
DETAIL
 10
102.00000000015299
 20
480.85475139416093
 30
0.0
 11
102.00000000015299
 21
261.68181594231481
 31
0.0
  0
LINE
  5
D82
  8
DETAIL
 10
112.00000000015299
 20
453.71102975911998
 30
0.0
 11
112.00000000015299
 21
288.82553757735548
 31
0.0
  0
LINE
  5
D83
  8
DETAIL
 10
122.00000000015299
 20
408.47606319573219
 30
0.0
 11
122.00000000015299
 21
334.0605041407436
 31
0.0
  0
LINE
  5
D84
  8
DETAIL
 10
-427.99999999984692
 20
408.47606319573219
 30
0.0
 11
-427.99999999984692
 21
334.0605041407436
 31
0.0
  0
LINE
  5
D85
  8
DETAIL
 10
-327.99999999984681
 20
655.21881356613642
 30
0.0
 11
-327.99999999984681
 21
86.781186515036069
 31
0.0
  0
LINE
  5
D86
  8
DETAIL
 10
-417.99999999984698
 20
453.71102975911998
 30
0.0
 11
-417.99999999984698
 21
288.82553757735548
 31
0.0
  0
LINE
  5
D87
  8
DETAIL
 10
-407.99999999984669
 20
480.85475139416093
 30
0.0
 11
-407.99999999984669
 21
261.68181594231481
 31
0.0
  0
LINE
  5
D88
  8
DETAIL
 10
-397.99999999984681
 20
501.73506654527489
 30
0.0
 11
-397.99999999984681
 21
240.80150079120091
 31
0.0
  0
LINE
  5
D89
  8
DETAIL
 10
-387.99999999984681
 20
519.03150290740768
 30
0.0
 11
-387.99999999984681
 21
223.50506442906811
 31
0.0
  0
LINE
  5
D8A
  8
DETAIL
 10
-377.99999999984681
 20
533.32886720376177
 30
0.0
 11
-377.99999999984681
 21
208.67113279503869
 31
0.0
  0
LINE
  5
D8B
  8
DETAIL
 10
-367.99999999984681
 20
545.8457948444709
 30
0.0
 11
-367.99999999984681
 21
196.15420515549911
 31
0.0
  0
LINE
  5
D8C
  8
DETAIL
 10
-357.99999999984669
 20
560.71086007535428
 30
0.0
 11
-357.99999999984669
 21
181.28913992625479
 31
0.0
  0
LINE
  5
D8D
  8
DETAIL
 10
-347.99999999984681
 20
579.08315832099686
 30
0.0
 11
-347.99999999984681
 21
162.916841683233
 31
0.0
  0
LINE
  5
D8E
  8
DETAIL
 10
-337.99999999984698
 20
603.87270334870732
 30
0.0
 11
-337.99999999984698
 21
138.12729666109271
 31
0.0
  0
LINE
  5
D8F
  8
DETAIL
 10
-317.99999999984681
 20
660.00000000046145
 30
0.0
 11
-317.99999999984681
 21
82.000000000460645
 31
0.0
  0
LINE
  5
D90
  8
DETAIL
 10
-307.99999999984669
 20
660.00000000046145
 30
0.0
 11
-307.99999999984669
 21
82.000000000460645
 31
0.0
  0
LINE
  5
D91
  8
DETAIL
 10
-237.99999999984701
 20
660.00000000046145
 30
0.0
 11
-237.99999999984701
 21
82.000000000460645
 31
0.0
  0
LINE
  5
D92
  8
DETAIL
 10
-227.99999999984689
 20
660.00000000046145
 30
0.0
 11
-227.99999999984689
 21
82.000000000460645
 31
0.0
  0
LINE
  5
D93
  8
DETAIL
 10
-217.99999999984681
 20
660.00000000046145
 30
0.0
 11
-217.99999999984681
 21
82.000000000460645
 31
0.0
  0
LINE
  5
D94
  8
DETAIL
 10
-207.99999999984669
 20
660.00000000046145
 30
0.0
 11
-207.99999999984669
 21
82.000000000460645
 31
0.0
  0
LINE
  5
D95
  8
DETAIL
 10
-197.99999999984689
 20
660.00000000046145
 30
0.0
 11
-197.99999999984689
 21
82.000000000460645
 31
0.0
  0
LINE
  5
D96
  8
DETAIL
 10
-187.99999999984669
 20
660.00000000046145
 30
0.0
 11
-187.99999999984669
 21
82.000000000460645
 31
0.0
  0
LINE
  5
D97
  8
DETAIL
 10
-177.99999999984689
 20
660.00000000046145
 30
0.0
 11
-177.99999999984689
 21
82.000000000460645
 31
0.0
  0
LINE
  5
D98
  8
DETAIL
 10
-167.99999999984681
 20
660.00000000046145
 30
0.0
 11
-167.99999999984681
 21
82.000000000460645
 31
0.0
  0
LINE
  5
D99
  8
DETAIL
 10
-297.99999999984681
 20
660.00000000046145
 30
0.0
 11
-297.99999999984681
 21
82.000000000460645
 31
0.0
  0
LINE
  5
D9A
  8
DETAIL
 10
-287.99999999984681
 20
660.00000000046145
 30
0.0
 11
-287.99999999984681
 21
82.000000000460645
 31
0.0
  0
LINE
  5
D9B
  8
DETAIL
 10
-277.99999999984681
 20
660.00000000046145
 30
0.0
 11
-277.99999999984681
 21
82.000000000460645
 31
0.0
  0
LINE
  5
D9C
  8
DETAIL
 10
-267.99999999984681
 20
660.00000000046145
 30
0.0
 11
-267.99999999984681
 21
82.000000000460645
 31
0.0
  0
LINE
  5
D9D
  8
DETAIL
 10
-257.99999999984669
 20
660.00000000046145
 30
0.0
 11
-257.99999999984669
 21
82.000000000460645
 31
0.0
  0
LINE
  5
D9E
  8
DETAIL
 10
-247.99999999984681
 20
660.00000000046145
 30
0.0
 11
-247.99999999984681
 21
82.000000000460645
 31
0.0
  0
LINE
  5
D9F
  8
DETAIL
 10
-157.99999999984681
 20
660.00000000046145
 30
0.0
 11
-157.99999999984681
 21
82.000000000460645
 31
0.0
  0
LINE
  5
DA0
  8
NOTE
  6
CONTINOUS
 10
295.0
 20
1069.0
 30
0.0
 11
255.0
 21
1069.0
 31
0.0
  0
LINE
  5
DA1
  8
NOTE
  6
CONTINOUS
 10
275.0
 20
1049.0
 30
0.0
 11
275.0
 21
1089.0
 31
0.0
  0
LINE
  5
DA2
  8
NOTE
  6
CONTINOUS
 10
387.0
 20
447.0
 30
0.0
 11
347.0
 21
447.0
 31
0.0
  0
LINE
  5
DA3
  8
NOTE
  6
CONTINOUS
 10
367.0
 20
427.0
 30
0.0
 11
367.0
 21
467.0
 31
0.0
  0
LINE
  5
DA4
  8
NOTE
  6
CONTINOUS
 10
453.0
 20
443.0
 30
0.0
 11
413.0
 21
443.0
 31
0.0
  0
LINE
  5
DA5
  8
NOTE
  6
CONTINOUS
 10
433.0
 20
423.0
 30
0.0
 11
433.0
 21
463.0
 31
0.0
  0
LINE
  5
DA6
  8
DETAIL
  6
CONTINUOUS
 10
475.0
 20
23.0
 30
0.0
 11
-474.99999999999989
 21
23.0
 31
0.0
  0
DIMENSION
  5
DA7
  8
SIZE
  6
CONTINUOUS
  2
*D15
 10
-587.48247724767032
 20
0.0000000000000758
 30
0.0
 11
-649.61747724767019
 21
11.499999999999959
 31
0.0
 70
     0
 13
-474.99999999999989
 23
23.0
 33
0.0
 14
-320.0
 24
0.0
 34
0.0
 50
90.0
1001
ACAD
1000
DSTYLE
1002
{
1070
     6
1000
DOTBLANK
1070
     7
1000
DOTBLANK
1070
    41
1040
10.0
1070
    42
1040
20.0
1070
    43
1040
200.0
1070
    44
1040
30.0
1070
    73
1070
     0
1070
    74
1070
     0
1070
    77
1070
     1
1070
    78
1070
     8
1070
   140
1040
64.0
1070
   172
1070
     1
1070
   173
1070
     1
1002
}
  0
DIMENSION
  5
DA8
  8
SIZE
  6
CONTINUOUS
  2
*D13
 10
-727.23196829527205
 20
371.0
 30
0.0
 11
-759.3219682952722
 21
185.49999999999989
 31
0.0
 70
     0
 13
-320.0
 23
0.0
 33
0.0
 14
-474.99999999999989
 24
371.0
 34
0.0
 50
90.0
1001
ACAD
1000
DSTYLE
1002
{
1070
     6
1000
DOTBLANK
1070
     7
1000
DOTBLANK
1070
    41
1040
10.0
1070
    42
1040
20.0
1070
    43
1040
200.0
1070
    44
1040
30.0
1070
    73
1070
     0
1070
    74
1070
     0
1070
    77
1070
     1
1070
    78
1070
     8
1070
   140
1040
64.0
1070
   172
1070
     1
1070
   173
1070
     1
1002
}
  0
DIMENSION
  5
DA9
  8
SIZE
  6
CONTINUOUS
  2
*D12
 10
-868.74271351267362
 20
1350.0
 30
0.0
 11
-900.83271351267388
 21
675.0
 31
0.0
 70
     0
 13
-320.0
 23
0.0
 33
0.0
 14
-474.99999999999989
 24
1350.0
 34
0.0
 50
90.0
1001
ACAD
1000
DSTYLE
1002
{
1070
     6
1000
DOTBLANK
1070
     7
1000
DOTBLANK
1070
    41
1040
10.0
1070
    42
1040
20.0
1070
    43
1040
200.0
1070
    44
1040
30.0
1070
    73
1070
     0
1070
    74
1070
     0
1070
    77
1070
     1
1070
    78
1070
     8
1070
   140
1040
64.0
1070
   172
1070
     1
1070
   173
1070
     1
1002
}
  0
DIMENSION
  5
DAA
  8
SIZE
  6
CONTINUOUS
  2
*D16
 10
-152.99999999984681
 20
1538.7395436587451
 30
0.0
 11
-310.00527533280001
 21
1598.3566941409599
 31
0.0
 70
   128
 13
-474.99999999999989
 23
1350.0
 33
0.0
 14
-152.99999999984689
 24
786.79784524953902
 34
0.0
1001
ACAD
1000
DSTYLE
1002
{
1070
     6
1000
DOTBLANK
1070
     7
1000
DOTBLANK
1070
    41
1040
10.0
1070
    42
1040
20.0
1070
    43
1040
200.0
1070
    44
1040
30.0
1070
    73
1070
     0
1070
    74
1070
     0
1070
    77
1070
     1
1070
    78
1070
     8
1070
   140
1040
64.0
1070
   172
1070
     1
1070
   173
1070
     1
1002
}
  0
DIMENSION
  5
DAB
  8
SIZE
  6
CONTINUOUS
  2
*D10
 10
475.0
 20
1705.235405989429
 30
0.0
 11
-14.65547458889886
 21
1764.1251745423319
 31
0.0
 70
   128
 13
-474.99999999999989
 23
1350.0
 33
0.0
 14
475.0
 24
1349.117702994715
 34
0.0
1001
ACAD
1000
DSTYLE
1002
{
1070
     6
1000
DOTBLANK
1070
     7
1000
DOTBLANK
1070
    41
1040
10.0
1070
    42
1040
20.0
1070
    43
1040
200.0
1070
    44
1040
30.0
1070
    73
1070
     0
1070
    74
1070
     0
1070
    77
1070
     1
1070
    78
1070
     8
1070
   140
1040
64.0
1070
   172
1070
     1
1070
   173
1070
     1
1002
}
  0
DIMENSION
  5
DAC
  8
SIZE
  6
CONTINUOUS
  2
*D21
 10
475.0
 20
266.03391228826359
 30
0.0
 11
561.62857142857115
 21
266.03391228826359
 31
0.0
 70
   128
 13
433.0
 23
423.0
 33
0.0
 14
475.0
 24
23.0
 34
0.0
1001
ACAD
1000
DSTYLE
1002
{
1070
     6
1000
DOTBLANK
1070
     7
1000
DOTBLANK
1070
    41
1040
10.0
1070
    42
1040
20.0
1070
    43
1040
200.0
1070
    44
1040
30.0
1070
    73
1070
     0
1070
    74
1070
     0
1070
    77
1070
     1
1070
    78
1070
     8
1070
   140
1040
64.0
1070
   172
1070
     1
1070
   173
1070
     1
1002
}
  0
DIMENSION
  5
DAD
  8
SIZE
  6
CONTINUOUS
  2
*D20
 10
433.0
 20
154.8947144222825
 30
0.0
 11
285.87590775563319
 21
184.14432371478139
 31
0.0
 70
   128
 13
367.0
 23
427.0
 33
0.0
 14
433.0
 24
423.0
 34
0.0
1001
ACAD
1000
DSTYLE
1002
{
1070
     6
1000
DOTBLANK
1070
     7
1000
DOTBLANK
1070
    41
1040
10.0
1070
    42
1040
20.0
1070
    43
1040
200.0
1070
    44
1040
30.0
1070
    73
1070
     0
1070
    74
1070
     0
1070
    77
1070
     1
1070
    78
1070
     8
1070
   140
1040
64.0
1070
   172
1070
     1
1070
   173
1070
     1
1002
}
  0
DIMENSION
  5
DAF
  8
SIZE
  6
CONTINUOUS
  2
*D19
 10
787.6924051261858
 20
442.99999999999989
 30
0.0
 11
755.60240512618554
 21
221.5
 31
0.0
 70
     0
 13
316.0
 23
0.0
 33
0.0
 14
453.0
 24
443.0
 34
0.0
 50
90.0
1001
ACAD
1000
DSTYLE
1002
{
1070
     6
1000
DOTBLANK
1070
     7
1000
DOTBLANK
1070
    41
1040
10.0
1070
    42
1040
20.0
1070
    43
1040
200.0
1070
    44
1040
30.0
1070
    73
1070
     0
1070
    74
1070
     0
1070
    77
1070
     1
1070
    78
1070
     8
1070
   140
1040
64.0
1070
   172
1070
     1
1070
   173
1070
     1
1002
}
  0
TEXT
  5
DB1
  8
NOTE
  6
CONTINUOUS
 10
687.74983536164655
 20
859.03326903581365
 30
0.0
 40
64.0
  1
RL%%C9.52
 41
0.9
  0
LINE
  5
DB2
  8
NOTE
  6
CONTINUOUS
 10
1033.9773809217049
 20
839.31662178698502
 30
0.0
 11
660.26981727950226
 21
839.31662178698434
 31
0.0
  0
LINE
  5
DB3
  8
NOTE
  6
CONTINUOUS
 10
642.77094667509925
 20
723.61745293822526
 30
0.0
 11
1079.591221793368
 21
723.6174529382256
 31
0.0
  0
TEXT
  5
DB4
  8
NOTE
  6
CONTINUOUS
 10
681.07714041584563
 20
743.89880893822556
 30
0.0
 40
64.0
  1
RG%%C15.88
 41
0.9
  0
LINE
  5
DB5
  8
NOTE
  6
CONTINUOUS
 10
568.26981727950226
 20
1461.3166217869839
 30
0.0
 11
816.69015457722492
 21
1461.3166217869839
 31
0.0
  0
TEXT
  5
DB6
  8
NOTE
  6
CONTINUOUS
 10
583.05012227950215
 20
1476.418922786984
 30
0.0
 40
64.0
  1
EL,CL
 41
0.9
  0
LINE
  5
DB7
  8
NOTE
  6
CONTINUOUS
 10
275.0
 20
1069.0
 30
0.0
 11
568.26981727950226
 21
1461.3166217869839
 31
0.0
  0
POLYLINE
  5
DB8
  8
NOTE
  6
CONTINUOUS
 66
     1
 10
0.0
 20
0.0
 30
0.0
  0
VERTEX
  5
107B
  8
NOTE
  6
CONTINUOUS
 10
290.12549742409982
 20
1106.0299790052741
 30
0.0
  0
VERTEX
  5
107C
  8
NOTE
  6
CONTINUOUS
 10
275.0
 20
1069.0
 30
0.0
  0
VERTEX
  5
107D
  8
NOTE
  6
CONTINUOUS
 10
306.61405408647988
 20
1093.506154079899
 30
0.0
  0
SEQEND
  5
107E
  8
NOTE
  6
CONTINUOUS
  0
LINE
  5
DBD
  8
NOTE
  6
CONTINUOUS
 10
367.0
 20
447.0
 30
0.0
 11
660.26981727950226
 21
839.31662178698434
 31
0.0
  0
POLYLINE
  5
DBE
  8
NOTE
  6
CONTINUOUS
 66
     1
 10
0.0
 20
0.0
 30
0.0
  0
VERTEX
  5
107F
  8
NOTE
  6
CONTINUOUS
 10
382.12549742409988
 20
484.02997900527521
 30
0.0
  0
VERTEX
  5
1080
  8
NOTE
  6
CONTINUOUS
 10
367.0
 20
447.0
 30
0.0
  0
VERTEX
  5
1081
  8
NOTE
  6
CONTINUOUS
 10
398.61405408647983
 20
471.50615407990051
 30
0.0
  0
SEQEND
  5
1082
  8
NOTE
  6
CONTINUOUS
  0
LINE
  5
DC3
  8
NOTE
  6
CONTINUOUS
 10
433.0
 20
443.0
 30
0.0
 11
642.77094667509925
 21
723.61745293822526
 31
0.0
  0
POLYLINE
  5
DC4
  8
NOTE
  6
CONTINUOUS
 66
     1
 10
0.0
 20
0.0
 30
0.0
  0
VERTEX
  5
1083
  8
NOTE
  6
CONTINUOUS
 10
448.12549742409988
 20
480.0299790052751
 30
0.0
  0
VERTEX
  5
1084
  8
NOTE
  6
CONTINUOUS
 10
433.0
 20
443.0
 30
0.0
  0
VERTEX
  5
1085
  8
NOTE
  6
CONTINUOUS
 10
464.61405408647988
 20
467.50615407990051
 30
0.0
  0
SEQEND
  5
1086
  8
NOTE
  6
CONTINUOUS
  0
DIMENSION
  5
DC9
  8
SIZE
  6
CONTINUOUS
  2
*D9
 10
300.0
 20
-406.3464041100973
 30
0.0
 11
0.000000000000002
 21
-374.25640411009721
 31
0.0
 70
     0
 13
-300.0
 23
-20.0
 33
0.0
 14
300.0
 24
-20.0
 34
0.0
1001
ACAD
1000
DSTYLE
1002
{
1070
     6
1000
DOTBLANK
1070
     7
1000
DOTBLANK
1070
    41
1040
10.0
1070
    42
1040
20.0
1070
    43
1040
200.0
1070
    44
1040
30.0
1070
    73
1070
     0
1070
    74
1070
     0
1070
    77
1070
     1
1070
    78
1070
     8
1070
   140
1040
64.0
1070
   172
1070
     1
1070
   173
1070
     1
1002
}
  0
DIMENSION
  5
DCA
  8
SIZE
  6
CONTINUOUS
  2
*D14
 10
-474.99999999999989
 20
-406.3464041100973
 30
0.0
 11
-387.5
 21
-374.25640411009721
 31
0.0
 70
     0
 13
-300.0
 23
-20.0
 33
0.0
 14
-474.99999999999989
 24
23.0
 34
0.0
1001
ACAD
1000
DSTYLE
1002
{
1070
     6
1000
DOTBLANK
1070
     7
1000
DOTBLANK
1070
    41
1040
10.0
1070
    42
1040
20.0
1070
    43
1040
200.0
1070
    44
1040
30.0
1070
    73
1070
     0
1070
    74
1070
     0
1070
    77
1070
     1
1070
    78
1070
     8
1070
   140
1040
64.0
1070
   172
1070
     1
1070
   173
1070
     1
1002
}
  0
DIMENSION
  5
DCB
  8
SIZE
  6
CONTINUOUS
  2
*D17
 10
475.0
 20
-406.3464041100973
 30
0.0
 11
387.5
 21
-374.25640411009721
 31
0.0
 70
     0
 13
300.0
 23
-20.0
 33
0.0
 14
475.0
 24
23.0
 34
0.0
1001
ACAD
1000
DSTYLE
1002
{
1070
     6
1000
DOTBLANK
1070
     7
1000
DOTBLANK
1070
    41
1040
10.0
1070
    42
1040
20.0
1070
    43
1040
200.0
1070
    44
1040
30.0
1070
    73
1070
     0
1070
    74
1070
     0
1070
    77
1070
     1
1070
    78
1070
     8
1070
   140
1040
64.0
1070
   172
1070
     1
1070
   173
1070
     1
1002
}
  0
DIMENSION
  5
DCC
  8
SIZE
  6
CONTINUOUS
  2
*D8
 10
-475.0
 20
-543.01396200505178
 30
0.0
 11
-0.0000000000000265
 21
-510.92396200505169
 31
0.0
 70
     0
 13
475.0
 23
23.0
 33
0.0
 14
-474.99999999999989
 24
23.0
 34
0.0
1001
ACAD
1000
DSTYLE
1002
{
1070
     6
1000
DOTBLANK
1070
     7
1000
DOTBLANK
1070
    41
1040
10.0
1070
    42
1040
20.0
1070
    43
1040
200.0
1070
    44
1040
30.0
1070
    73
1070
     0
1070
    74
1070
     0
1070
    77
1070
     1
1070
    78
1070
     8
1070
   140
1040
64.0
1070
   172
1070
     1
1070
   173
1070
     1
1002
}
  0
DIMENSION
  5
DCD
  8
SIZE
  6
CONTINUOUS
  2
*D18
 10
954.02239245208784
 20
446.99999999999972
 30
0.0
 11
921.93239245208758
 21
223.49999999999989
 31
0.0
 70
     0
 13
320.0
 23
0.0
 33
0.0
 14
387.0
 24
447.0
 34
0.0
 50
90.0
1001
ACAD
1000
DSTYLE
1002
{
1070
     6
1000
DOTBLANK
1070
     7
1000
DOTBLANK
1070
    41
1040
10.0
1070
    42
1040
20.0
1070
    43
1040
200.0
1070
    44
1040
30.0
1070
    73
1070
     0
1070
    74
1070
     0
1070
    77
1070
     1
1070
    78
1070
     8
1070
   140
1040
64.0
1070
   172
1070
     1
1070
   173
1070
     1
1002
}
  0
LINE
  5
DCE
  8
DETAIL
  6
CONTINUOUS
 10
-474.99999999999989
 20
1350.0
 30
0.0
 11
475.0
 21
1350.0
 31
0.0
  0
LINE
  5
DCF
  8
DETAIL
 10
-432.50144689084277
 20
717.00000000046111
 30
0.0
 11
126.50144689593991
 21
717.00000000045975
 31
0.0
  0
ARC
  5
DD0
  8
DETAIL
 10
228.79236219785309
 20
1303.8461769980261
 30
1.0049964175586230E+099
 40
207.24088905766081
 50
182.44644120522111
 51
221.71892069730279
  0
ARC
  5
DD1
  8
DETAIL
 10
228.79236219197679
 20
708.15382299397481
 30
1.0049964175586230E+099
 40
207.24088905766081
 50
139.11513446632151
 51
177.55355879231041
  0
ARC
  5
DD2
  8
DETAIL
 10
-153.61937628180141
 20
1006.268283668237
 30
1.0049964175586230E+099
 40
278.11950567951942
 50
324.25620727272252
 51
35.03548794368136
  0
ARC
  5
DD3
  8
DETAIL
 10
-534.79236219221355
 20
708.15382299774092
 30
1.0049964175586230E+099
 40
207.24088905766081
 50
2.6179853233495911
 51
40.884865533106122
  0
ARC
  5
DD4
  8
DETAIL
 10
-534.79236219221355
 20
1303.846177001793
 30
1.0049964175586230E+099
 40
207.24088905766081
 50
318.28107930213451
 51
357.38201467665021
  0
ARC
  5
DD5
  8
DETAIL
 10
-152.3806237154941
 20
1006.268283668231
 30
1.0049964175586230E+099
 40
278.11950567951942
 50
144.96451205575141
 51
215.74379272671311
  0
LINE
  5
DD6
  8
DETAIL
 10
112.00000000015299
 20
1088.711029759118
 30
0.0
 11
112.00000000015299
 21
923.82553757735559
 31
0.0
  0
LINE
  5
DD7
  8
DETAIL
 10
102.00000000015299
 20
1115.854751394161
 30
0.0
 11
102.00000000015299
 21
896.68181594231476
 31
0.0
  0
LINE
  5
DD8
  8
DETAIL
 10
22.000000000152991
 20
1290.2188135661361
 30
0.0
 11
22.000000000153001
 21
721.78118651503621
 31
0.0
  0
LINE
  5
DD9
  8
DETAIL
 10
92.000000000152994
 20
1136.735066545275
 30
0.0
 11
92.000000000152994
 21
875.80150079120074
 31
0.0
  0
LINE
  5
DDA
  8
DETAIL
 10
82.000000000153022
 20
1154.031502907407
 30
0.0
 11
82.000000000153022
 21
858.50506442906806
 31
0.0
  0
LINE
  5
DDB
  8
DETAIL
 10
72.000000000153022
 20
1168.3288672037611
 30
0.0
 11
72.000000000153022
 21
843.67113279503872
 31
0.0
  0
LINE
  5
DDC
  8
DETAIL
 10
62.00000000015303
 20
1180.8457948444709
 30
0.0
 11
62.000000000153037
 21
831.1542051554992
 31
0.0
  0
LINE
  5
DDD
  8
DETAIL
 10
52.00000000015303
 20
1195.710860075354
 30
0.0
 11
52.000000000153037
 21
816.28913992625439
 31
0.0
  0
LINE
  5
DDE
  8
DETAIL
 10
42.000000000153022
 20
1214.083158320997
 30
0.0
 11
42.000000000153037
 21
797.91684168323252
 31
0.0
  0
LINE
  5
DDF
  8
DETAIL
 10
32.000000000153022
 20
1238.8727033487071
 30
0.0
 11
32.000000000153022
 21
773.1272966610926
 31
0.0
  0
LINE
  5
DE0
  8
DETAIL
 10
12.00000000015301
 20
1295.00000000046
 30
0.0
 11
12.00000000015301
 21
717.00000000046055
 31
0.0
  0
LINE
  5
DE1
  8
DETAIL
 10
2.000000000153022
 20
1295.00000000046
 30
0.0
 11
2.000000000153022
 21
717.00000000046055
 31
0.0
  0
LINE
  5
DE2
  8
DETAIL
 10
-7.9999999998469749
 20
1295.00000000046
 30
0.0
 11
-7.9999999998469749
 21
717.00000000046055
 31
0.0
  0
LINE
  5
DE3
  8
DETAIL
 10
-17.99999999984697
 20
1295.00000000046
 30
0.0
 11
-17.99999999984697
 21
717.00000000046055
 31
0.0
  0
LINE
  5
DE4
  8
DETAIL
 10
-27.99999999984697
 20
1295.00000000046
 30
0.0
 11
-27.99999999984697
 21
717.00000000046055
 31
0.0
  0
LINE
  5
DE5
  8
DETAIL
 10
-37.99999999984697
 20
1295.00000000046
 30
0.0
 11
-37.99999999984697
 21
717.00000000046055
 31
0.0
  0
LINE
  5
DE6
  8
DETAIL
 10
136.00000000015311
 20
1285.501446896475
 30
0.0
 11
136.00000000015311
 21
726.49855310399016
 31
0.0
  0
LINE
  5
DE7
  8
DETAIL
 10
-407.99999999984669
 20
1115.854751394161
 30
0.0
 11
-407.99999999984669
 21
896.68181594231476
 31
0.0
  0
LINE
  5
DE8
  8
DETAIL
 10
-417.99999999984698
 20
1088.711029759118
 30
0.0
 11
-417.99999999984698
 21
923.82553757735559
 31
0.0
  0
LINE
  5
DE9
  8
DETAIL
 10
-47.99999999984697
 20
1295.00000000046
 30
0.0
 11
-47.99999999984697
 21
717.00000000046055
 31
0.0
  0
LINE
  5
DEA
  8
DETAIL
 10
-57.99999999984697
 20
1295.00000000046
 30
0.0
 11
-57.99999999984697
 21
717.00000000046055
 31
0.0
  0
LINE
  5
DEB
  8
DETAIL
 10
-157.99999999984681
 20
1295.00000000046
 30
0.0
 11
-157.99999999984681
 21
717.00000000046055
 31
0.0
  0
LINE
  5
DEC
  8
DETAIL
 10
-247.99999999984681
 20
1295.00000000046
 30
0.0
 11
-247.99999999984681
 21
717.00000000046055
 31
0.0
  0
LINE
  5
DED
  8
DETAIL
 10
-257.99999999984669
 20
1295.00000000046
 30
0.0
 11
-257.99999999984669
 21
717.00000000046055
 31
0.0
  0
LINE
  5
DEE
  8
DETAIL
 10
-267.99999999984681
 20
1295.00000000046
 30
0.0
 11
-267.99999999984681
 21
717.00000000046055
 31
0.0
  0
LINE
  5
DEF
  8
DETAIL
 10
-277.99999999984681
 20
1295.00000000046
 30
0.0
 11
-277.99999999984681
 21
717.00000000046055
 31
0.0
  0
LINE
  5
DF0
  8
DETAIL
 10
-287.99999999984681
 20
1295.00000000046
 30
0.0
 11
-287.99999999984681
 21
717.00000000046055
 31
0.0
  0
LINE
  5
DF1
  8
DETAIL
 10
-297.99999999984681
 20
1295.00000000046
 30
0.0
 11
-297.99999999984681
 21
717.00000000046055
 31
0.0
  0
LINE
  5
DF2
  8
DETAIL
 10
-167.99999999984681
 20
1295.00000000046
 30
0.0
 11
-167.99999999984681
 21
717.00000000046055
 31
0.0
  0
LINE
  5
DF3
  8
DETAIL
 10
-177.99999999984689
 20
1295.00000000046
 30
0.0
 11
-177.99999999984689
 21
717.00000000046055
 31
0.0
  0
LINE
  5
DF4
  8
DETAIL
 10
-187.99999999984669
 20
1295.00000000046
 30
0.0
 11
-187.99999999984669
 21
717.00000000046055
 31
0.0
  0
LINE
  5
DF5
  8
DETAIL
 10
-197.99999999984689
 20
1295.00000000046
 30
0.0
 11
-197.99999999984689
 21
717.00000000046055
 31
0.0
  0
LINE
  5
DF6
  8
DETAIL
 10
-207.99999999984669
 20
1295.00000000046
 30
0.0
 11
-207.99999999984669
 21
717.00000000046055
 31
0.0
  0
LINE
  5
DF7
  8
DETAIL
 10
-217.99999999984681
 20
1295.00000000046
 30
0.0
 11
-217.99999999984681
 21
717.00000000046055
 31
0.0
  0
LINE
  5
DF8
  8
DETAIL
 10
-227.99999999984689
 20
1295.00000000046
 30
0.0
 11
-227.99999999984689
 21
717.00000000046055
 31
0.0
  0
LINE
  5
DF9
  8
DETAIL
 10
-237.99999999984701
 20
1295.00000000046
 30
0.0
 11
-237.99999999984701
 21
717.00000000046055
 31
0.0
  0
LINE
  5
DFA
  8
DETAIL
 10
-307.99999999984669
 20
1295.00000000046
 30
0.0
 11
-307.99999999984669
 21
717.00000000046055
 31
0.0
  0
LINE
  5
DFB
  8
DETAIL
 10
-317.99999999984681
 20
1295.00000000046
 30
0.0
 11
-317.99999999984681
 21
717.00000000046055
 31
0.0
  0
LINE
  5
DFC
  8
DETAIL
 10
-337.99999999984698
 20
1238.8727033487071
 30
0.0
 11
-337.99999999984698
 21
773.1272966610926
 31
0.0
  0
LINE
  5
DFD
  8
DETAIL
 10
-347.99999999984681
 20
1214.083158320997
 30
0.0
 11
-347.99999999984681
 21
797.91684168323252
 31
0.0
  0
LINE
  5
DFE
  8
DETAIL
 10
-357.99999999984669
 20
1195.710860075354
 30
0.0
 11
-357.99999999984669
 21
816.28913992625439
 31
0.0
  0
LINE
  5
DFF
  8
DETAIL
 10
-367.99999999984681
 20
1180.8457948444709
 30
0.0
 11
-367.99999999984681
 21
831.1542051554992
 31
0.0
  0
LINE
  5
E00
  8
DETAIL
 10
-377.99999999984681
 20
1168.3288672037611
 30
0.0
 11
-377.99999999984681
 21
843.67113279503872
 31
0.0
  0
LINE
  5
E01
  8
DETAIL
 10
-387.99999999984681
 20
1154.031502907407
 30
0.0
 11
-387.99999999984681
 21
858.50506442906806
 31
0.0
  0
LINE
  5
E02
  8
DETAIL
 10
-397.99999999984681
 20
1136.735066545275
 30
0.0
 11
-397.99999999984681
 21
875.80150079120074
 31
0.0
  0
LINE
  5
E03
  8
DETAIL
 10
-327.99999999984681
 20
1290.2188135661361
 30
0.0
 11
-327.99999999984681
 21
721.78118651503621
 31
0.0
  0
LINE
  5
E04
  8
DETAIL
 10
-67.999999999846978
 20
1295.00000000046
 30
0.0
 11
-67.999999999846978
 21
717.00000000046055
 31
0.0
  0
LINE
  5
E05
  8
DETAIL
 10
-77.999999999846978
 20
1295.00000000046
 30
0.0
 11
-77.999999999846978
 21
717.00000000046055
 31
0.0
  0
LINE
  5
E06
  8
DETAIL
 10
-87.999999999846949
 20
1295.00000000046
 30
0.0
 11
-87.999999999846949
 21
717.00000000046055
 31
0.0
  0
LINE
  5
E07
  8
DETAIL
 10
-97.999999999846992
 20
1295.00000000046
 30
0.0
 11
-97.999999999846992
 21
717.00000000046055
 31
0.0
  0
LINE
  5
E08
  8
DETAIL
 10
-107.99999999984691
 20
1295.00000000046
 30
0.0
 11
-107.99999999984691
 21
717.00000000046055
 31
0.0
  0
LINE
  5
E09
  8
DETAIL
 10
-117.99999999984691
 20
1295.00000000046
 30
0.0
 11
-117.99999999984691
 21
717.00000000046055
 31
0.0
  0
LINE
  5
E0A
  8
DETAIL
 10
-127.99999999984691
 20
1295.00000000046
 30
0.0
 11
-127.99999999984691
 21
717.00000000046055
 31
0.0
  0
LINE
  5
E0B
  8
DETAIL
 10
-137.99999999984681
 20
1295.00000000046
 30
0.0
 11
-137.99999999984681
 21
717.00000000046055
 31
0.0
  0
LINE
  5
E0C
  8
DETAIL
 10
-157.99999999984681
 20
1295.00000000046
 30
0.0
 11
-157.99999999984681
 21
717.00000000046055
 31
0.0
  0
LINE
  5
E0D
  8
DETAIL
 10
-147.99999999984689
 20
1295.00000000046
 30
0.0
 11
-147.99999999984689
 21
717.00000000046055
 31
0.0
  0
LINE
  5
E0E
  8
BASIS
  6
DASHDOT
 10
-152.99999999984689
 20
1319.7978452499999
 30
0.0
 11
-152.99999999984689
 21
692.20215474999986
 31
0.0
  0
LINE
  5
E0F
  8
DETAIL
 10
-441.99999999984732
 20
726.4985531030577
 30
0.0
 11
-441.99999999984732
 21
1285.501446896475
 31
0.0
  0
ARC
  5
E10
  8
DETAIL
 10
-432.4999999998472
 20
726.50000000046055
 30
0.0
 40
9.5000001101846365
 50
180.0087264246668
 51
269.99127357533303
  0
ARC
  5
E11
  8
DETAIL
 10
126.50000000015299
 20
726.50000000046055
 30
0.0
 40
9.5000001101846365
 50
270.0087264246668
 51
359.99127357533303
  0
LINE
  5
E12
  8
DETAIL
 10
-432.50144689061511
 20
1295.000000000462
 30
0.0
 11
126.50144689616739
 21
1295.00000000046
 31
0.0
  0
LINE
  5
E13
  8
DETAIL
 10
-427.99999999984692
 20
1043.476063195732
 30
0.0
 11
-427.99999999984692
 21
969.06050414074355
 31
0.0
  0
ARC
  5
E14
  8
DETAIL
 10
-432.49999999984681
 20
1285.5000000004591
 30
0.0
 40
9.5000001101848621
 50
90.008726424666946
 51
179.991273575333
  0
LINE
  5
E15
  8
DETAIL
 10
122.00000000015299
 20
1043.476063195732
 30
0.0
 11
122.00000000015299
 21
969.06050414074355
 31
0.0
  0
ARC
  5
E16
  8
DETAIL
 10
126.50144689616739
 20
1285.501446896475
 30
0.0
 40
9.4985531039857793
 50
0.0
 51
90.0
  0
LINE
  5
E17
  8
BASIS
  6
DASHDOT
 10
-466.797845249847
 20
1006.0
 30
0.0
 11
160.79784525015299
 21
1006.0
 31
0.0
  0
DIMENSION
  5
E18
  8
SIZE
  6
CONTINUOUS
  2
*D11
 10
-727.23196829527194
 20
1006.0
 30
0.0
 11
-759.3219682952722
 21
688.49999999999977
 31
0.0
 70
     0
 13
-466.797845249847
 23
371.0
 33
0.0
 14
-466.797845249847
 24
1006.0
 34
0.0
 50
90.0
1001
ACAD
1000
DSTYLE
1002
{
1070
     6
1000
DOTBLANK
1070
     7
1000
DOTBLANK
1070
    41
1040
10.0
1070
    42
1040
20.0
1070
    43
1040
200.0
1070
    44
1040
30.0
1070
    73
1070
     0
1070
    74
1070
     0
1070
    77
1070
     1
1070
    78
1070
     8
1070
   140
1040
64.0
1070
   172
1070
     1
1070
   173
1070
     1
1002
}
  0
DIMENSION
  5
E33
  8
SIZE
  6
CONTINUOUS
  2
*D6
 10
475.0
 20
1556.914571489664
 30
0.0
 11
373.96269111685791
 21
1556.914571489664
 31
0.0
 70
   128
 13
275.0
 23
1089.0
 33
0.0
 14
475.0
 24
1350.0
 34
0.0
1001
ACAD
1000
DSTYLE
1002
{
1070
   287
1070
     3
1070
     6
1000
DOTBLANK
1070
     7
1000
DOTBLANK
1070
    41
1040
10.0
1070
    42
1040
20.0
1070
    43
1040
200.0
1070
    44
1040
30.0
1070
    73
1070
     0
1070
    74
1070
     0
1070
    77
1070
     1
1070
    78
1070
     8
1070
   140
1040
64.0
1070
   172
1070
     1
1070
   173
1070
     1
1070
   275
1070
     0
1070
   279
1070
     0
1070
   284
1070
     0
1070
   285
1070
     0
1070
   286
1070
     0
1002
}
  0
DIMENSION
  5
E40
  8
SIZE
  6
CONTINUOUS
  2
*D7
 10
1146.017440927744
 20
-0.000000000000234
 30
0.0
 11
1146.017440927744
 21
520.86155622632032
 31
0.0
 70
   128
 13
295.0
 23
1069.0
 33
0.0
 14
320.0
 24
0.0
 34
0.0
 50
90.0
1001
ACAD
1000
DSTYLE
1002
{
1070
   287
1070
     3
1070
     6
1000
DOTBLANK
1070
     7
1000
DOTBLANK
1070
    41
1040
10.0
1070
    42
1040
20.0
1070
    43
1040
200.0
1070
    44
1040
30.0
1070
    73
1070
     0
1070
    74
1070
     0
1070
    77
1070
     1
1070
    78
1070
     8
1070
   140
1040
64.0
1070
   172
1070
     1
1070
   173
1070
     1
1070
   275
1070
     0
1070
   279
1070
     0
1070
   284
1070
     0
1070
   285
1070
     0
1070
   286
1070
     0
1002
}
  0
LINE
  5
FA5
  8
OUTLINE
  6
CONTINUOUS
 10
-475.0
 20
1350.0
 30
0.0
 11
475.0
 21
1350.0
 31
0.0
  0
LINE
  5
FA6
  8
OUTLINE
  6
CONTINUOUS
 10
475.0
 20
23.0
 30
0.0
 11
-475.0
 21
23.0
 31
0.0
  0
LINE
  5
FA7
  8
OUTLINE
  6
CONTINOUS
 10
475.0
 20
23.0
 30
0.0
 11
475.0
 21
1350.0
 31
0.0
  0
LINE
  5
FA8
  8
OUTLINE
  6
CONTINOUS
 10
284.0
 20
0.0
 30
0.0
 11
316.0
 21
0.0
 31
0.0
  0
LINE
  5
FA9
  8
OUTLINE
  6
CONTINOUS
 10
284.0
 20
22.999999999999542
 30
0.0
 11
284.0
 21
0.0
 31
0.0
  0
LINE
  5
FAA
  8
OUTLINE
  6
CONTINOUS
 10
316.0
 20
22.999999999999542
 30
0.0
 11
316.0
 21
0.0
 31
0.0
  0
LINE
  5
FAB
  8
OUTLINE
  6
CONTINOUS
 10
-475.0
 20
23.0
 30
0.0
 11
-475.0
 21
1350.0
 31
0.0
  0
LINE
  5
FAC
  8
OUTLINE
  6
CONTINOUS
 10
-316.0
 20
0.0
 30
0.0
 11
-284.0
 21
0.0
 31
0.0
  0
LINE
  5
FAD
  8
OUTLINE
  6
CONTINOUS
 10
-316.0
 20
22.999999999999542
 30
0.0
 11
-316.0
 21
0.0
 31
0.0
  0
LINE
  5
FAE
  8
OUTLINE
  6
CONTINOUS
 10
-284.0
 20
22.999999999999542
 30
0.0
 11
-284.0
 21
0.0
 31
0.0
  0
ENDSEC
  0
EOF
