  0
SECTION
  2
HEADER
  9
$ACADVER
  1
AC1009
  9
$INSBASE
 10
0.0
 20
0.0
 30
0.0
  9
$EXTMIN
 10
-984.87190399999884
 20
-500.47583155258081
 30
0.0
  9
$EXTMAX
 10
1616.912100723943
 20
1322.3996607497629
 30
0.0
  9
$LIMMIN
 10
-1133.8567917699329
 20
-721.5399019567767
  9
$LIMMAX
 10
1633.5527600168721
 20
1416.948991612278
  9
$ORTHOMODE
 70
     1
  9
$REGENMODE
 70
     1
  9
$FILLMODE
 70
     1
  9
$QTEXTMODE
 70
     0
  9
$MIRRTEXT
 70
     0
  9
$DRAGMODE
 70
     2
  9
$LTSCALE
 40
20.0
  9
$OSMODE
 70
    37
  9
$ATTMODE
 70
     1
  9
$TEXTSIZE
 40
64.0
  9
$TRACEWID
 40
0.05
  9
$TEXTSTYLE
  7
STANDARD
  9
$CLAYER
  8
SIZE
  9
$CELTYPE
  6
CONTINUOUS
  9
$CECOLOR
 62
   256
  9
$DIMSCALE
 40
1.0
  9
$DIMASZ
 40
10.0
  9
$DIMEXO
 40
20.0
  9
$DIMDLI
 40
200.0
  9
$DIMRND
 40
0.0
  9
$DIMDLE
 40
0.0
  9
$DIMEXE
 40
30.0
  9
$DIMTP
 40
0.0
  9
$DIMTM
 40
0.0
  9
$DIMTXT
 40
64.0
  9
$DIMCEN
 40
0.09
  9
$DIMTSZ
 40
0.0
  9
$DIMTOL
 70
     0
  9
$DIMLIM
 70
     0
  9
$DIMTIH
 70
     0
  9
$DIMTOH
 70
     0
  9
$DIMSE1
 70
     0
  9
$DIMSE2
 70
     0
  9
$DIMTAD
 70
     1
  9
$DIMZIN
 70
     8
  9
$DIMBLK
  1

  9
$DIMASO
 70
     1
  9
$DIMSHO
 70
     0
  9
$DIMPOST
  1

  9
$DIMAPOST
  1

  9
$DIMALT
 70
     0
  9
$DIMALTD
 70
     2
  9
$DIMALTF
 40
25.399999999999999
  9
$DIMLFAC
 40
1.0
  9
$DIMTOFL
 70
     1
  9
$DIMTVP
 40
0.0
  9
$DIMTIX
 70
     0
  9
$DIMSOXD
 70
     0
  9
$DIMSAH
 70
     1
  9
$DIMBLK1
  1

  9
$DIMBLK2
  1

  9
$DIMSTYLE
  2
STANDARD
  9
$DIMCLRD
 70
     0
  9
$DIMCLRE
 70
     0
  9
$DIMCLRT
 70
     0
  9
$DIMTFAC
 40
1.0
  9
$DIMGAP
 40
0.09
  9
$LUNITS
 70
     2
  9
$LUPREC
 70
     4
  9
$SKETCHINC
 40
0.1
  9
$FILLETRAD
 40
6.0
  9
$AUNITS
 70
     1
  9
$AUPREC
 70
     3
  9
$MENU
  1
ACAD
  9
$ELEVATION
 40
0.0
  9
$PELEVATION
 40
0.0
  9
$THICKNESS
 40
0.0
  9
$LIMCHECK
 70
     0
  9
$BLIPMODE
 70
     0
  9
$CHAMFERA
 40
0.0
  9
$CHAMFERB
 40
0.0
  9
$SKPOLY
 70
     0
  9
$TDCREATE
 40
2450330.3932059952
  9
$TDUPDATE
 40
2453256.5819278811
  9
$TDINDWG
 40
0.144924919
  9
$TDUSRTIMER
 40
0.1449246875
  9
$USRTIMER
 70
     1
  9
$ANGBASE
 50
0.0
  9
$ANGDIR
 70
     0
  9
$PDMODE
 70
     3
  9
$PDSIZE
 40
-2.0
  9
$PLINEWID
 40
0.0
  9
$COORDS
 70
     1
  9
$SPLFRAME
 70
     0
  9
$SPLINETYPE
 70
     6
  9
$SPLINESEGS
 70
     8
  9
$ATTDIA
 70
     0
  9
$ATTREQ
 70
     1
  9
$HANDLING
 70
-16383
  9
$HANDSEED
  5
E5D
  9
$SURFTAB1
 70
     6
  9
$SURFTAB2
 70
     6
  9
$SURFTYPE
 70
     6
  9
$SURFU
 70
     6
  9
$SURFV
 70
     6
  9
$UCSNAME
  2

  9
$UCSORG
 10
0.0
 20
0.0
 30
0.0
  9
$UCSXDIR
 10
1.0
 20
0.0
 30
0.0
  9
$UCSYDIR
 10
0.0
 20
1.0
 30
0.0
  9
$PUCSNAME
  2

  9
$PUCSORG
 10
0.0
 20
0.0
 30
0.0
  9
$PUCSXDIR
 10
1.0
 20
0.0
 30
0.0
  9
$PUCSYDIR
 10
0.0
 20
1.0
 30
0.0
  9
$USERI1
 70
     0
  9
$USERI2
 70
     0
  9
$USERI3
 70
     0
  9
$USERI4
 70
     0
  9
$USERI5
 70
     0
  9
$USERR1
 40
20.0
  9
$USERR2
 40
0.0
  9
$USERR3
 40
0.0
  9
$USERR4
 40
0.0
  9
$USERR5
 40
0.0
  9
$WORLDVIEW
 70
     1
  9
$SHADEDGE
 70
     3
  9
$SHADEDIF
 70
    70
  9
$TILEMODE
 70
     1
  9
$MAXACTVP
 70
    64
  9
$PLIMCHECK
 70
     0
  9
$PEXTMIN
 10
1.0000000000000000E+020
 20
1.0000000000000000E+020
 30
1.0000000000000000E+020
  9
$PEXTMAX
 10
-1.0000000000000000E+020
 20
-1.0000000000000000E+020
 30
-1.0000000000000000E+020
  9
$PLIMMIN
 10
0.0
 20
0.0
  9
$PLIMMAX
 10
12.0
 20
9.0
  9
$UNITMODE
 70
     0
  9
$VISRETAIN
 70
     1
  9
$PLINEGEN
 70
     0
  9
$PSLTSCALE
 70
     1
  0
ENDSEC
  0
SECTION
  2
TABLES
  0
TABLE
  2
VPORT
 70
     2
  0
VPORT
  2
*ACTIVE
 70
     0
 10
0.0
 20
0.0
 11
1.0
 21
1.0
 12
366.55019782435329
 22
405.5664941801719
 13
0.0
 23
0.0
 14
50.0
 24
50.0
 15
100.0
 25
100.0
 16
0.0
 26
0.0
 36
1.0
 17
0.0
 27
0.0
 37
0.0
 40
2413.0504066533358
 41
1.2721893491124261
 42
50.0
 43
0.0
 44
0.0
 50
0.0
 51
0.0
 71
     0
 72
   500
 73
     1
 74
     0
 75
     0
 76
     0
 77
     0
 78
     0
  0
ENDTAB
  0
TABLE
  2
LTYPE
 70
     8
  0
LTYPE
  2
CONTINUOUS
 70
     0
  3
実線
 72
    65
 73
     0
 40
0.0
  0
LTYPE
  2
DASHDOT
 70
     0
  3
____ _ ____ _ ____ _ ____ _ ____ _ ____ _ ____
 72
    65
 73
     4
 40
5.5
 49
4.0
 49
-0.6
 49
0.3
 49
-0.6
  0
LTYPE
  2
CONTINOUS
 70
     0
  3
Solid line
 72
    65
 73
     0
 40
0.0
  0
LTYPE
  2
DASHED
 70
     0
  3
_ _ _ _ _ _ _ _ _ _ _ _ _ _ _ _ _ _ _ _ _ _ _
 72
    65
 73
     2
 40
2.0
 49
1.1999999999999991
 49
-0.8
  0
LTYPE
  2
DOT
 70
     0
  3
...............................................
 72
    65
 73
     2
 40
0.8
 49
0.5
 49
-0.3
  0
LTYPE
  2
DASHDOT1
 70
     0
  3
____ _ ____ _ ____ _ ____ _ ____ _ ____ _ ____
 72
    65
 73
     4
 40
2.0
 49
1.5
 49
-0.2
 49
0.1
 49
-0.2
  0
LTYPE
  2
DIVIDE
 70
     0
  3
_____ _ _ _____ _ _ _____ _ _ _____ _ _ ____
 72
    65
 73
     6
 40
6.4000000000000004
 49
4.0
 49
-0.6
 49
0.3
 49
-0.6
 49
0.3
 49
-0.6
  0
LTYPE
  2
DIVIDE1
 70
     0
  3
_____ _ _ _____ _ _ _____ _ _ _____ _ _ ____
 72
    65
 73
     6
 40
3.2000000000000002
 49
2.0
 49
-0.3
 49
0.15
 49
-0.3
 49
0.15
 49
-0.3
  0
ENDTAB
  0
TABLE
  2
LAYER
 70
    12
  0
LAYER
  2
0
 70
     0
 62
     7
  6
CONTINUOUS
  0
LAYER
  2
SIZE
 70
     0
 62
    32
  6
CONTINUOUS
  0
LAYER
  2
DETAIL
 70
     0
 62
     5
  6
CONTINUOUS
  0
LAYER
  2
OUTLINE
 70
     0
 62
     3
  6
CONTINUOUS
  0
LAYER
  2
BASIS
 70
     0
 62
     6
  6
CONTINUOUS
  0
LAYER
  2
NOTE
 70
     0
 62
     4
  6
CONTINUOUS
  0
LAYER
  2
ARRANGE
 70
     0
 62
     1
  6
CONTINUOUS
  0
LAYER
  2
FIX
 70
     0
 62
   241
  6
CONTINUOUS
  0
LAYER
  2
ETC
 70
     0
 62
    83
  6
CONTINUOUS
  0
LAYER
  2
SERVICESPACE
 70
     0
 62
     2
  6
CONTINUOUS
  0
LAYER
  2
SYMBOLLINE
 70
     0
 62
    38
  6
CONTINUOUS
  0
LAYER
  2
DEFPOINTS
 70
     0
 62
     7
  6
CONTINUOUS
  0
ENDTAB
  0
TABLE
  2
STYLE
 70
     2
  0
STYLE
  2
STANDARD
 70
     0
 40
0.0
 41
0.9
 50
0.0
 71
     0
 42
64.0
  3
SIMPLEX
  4
BIGFONT
  0
STYLE
  2
STANDARD1
 70
     0
 40
0.0
 41
1.0
 50
0.0
 71
     0
 42
3.2000000000000002
  3
MONOTXT
  4
BIGFONT
  0
ENDTAB
  0
TABLE
  2
VIEW
 70
     1
  0
VIEW
  2
ALL
 70
     0
 40
4282.6199999999999
 10
0.0
 20
41.309903999999989
 41
5940.0
 11
0.0
 21
0.0
 31
1.0
 12
0.0
 22
0.0
 32
0.0
 42
50.0
 43
0.0
 44
0.0
 50
0.0
 71
     0
  0
ENDTAB
  0
TABLE
  2
UCS
 70
     0
  0
ENDTAB
  0
TABLE
  2
APPID
 70
     1
  0
APPID
  2
ACAD
 70
     0
  0
ENDTAB
  0
TABLE
  2
DIMSTYLE
 70
     1
  0
DIMSTYLE
  2
STANDARD
 70
     0
  3

  4

  5

  6

  7

 40
1.0
 41
0.18
 42
0.0625
 43
0.38
 44
0.18
 45
0.0
 46
0.0
 47
0.0
 48
0.0
140
0.18
141
0.09
142
0.0
143
25.399999999999999
144
1.0
145
0.0
146
1.0
147
0.09
 71
     0
 72
     0
 73
     1
 74
     1
 75
     0
 76
     0
 77
     0
 78
     0
170
     0
171
     2
172
     0
173
     0
174
     0
175
     0
176
     0
177
     0
178
     0
  0
ENDTAB
  0
ENDSEC
  0
SECTION
  2
BLOCKS
  0
BLOCK
  8
0
  2
$MODEL_SPACE
 70
     0
 10
0.0
 20
0.0
 30
0.0
  3
$MODEL_SPACE
  1

  0
ENDBLK
  5
680
  8
0
  0
BLOCK
 67
     1
  8
0
  2
$PAPER_SPACE
 70
     0
 10
0.0
 20
0.0
 30
0.0
  3
$PAPER_SPACE
  1

  0
ENDBLK
  5
67C
 67
     1
  8
0
  0
BLOCK
  8
0
  2
A$C5F2C697A
 70
     0
 10
0.0
 20
0.0
 30
0.0
  3
A$C5F2C697A
  1

  0
TEXT
  5
6A3
  8
SIZE
  6
BYBLOCK
 10
910.8147643978815
 20
127.36127978650261
 30
0.0
 40
64.0
  1
370
 41
0.9
  0
LINE
  5
6A4
  8
SIZE
  6
BYBLOCK
 10
801.8719073978815
 20
95.361279786502593
 30
0.0
 11
1167.87190739788
 21
95.361279786502593
 31
0.0
  0
TEXT
  5
6A5
  8
SIZE
  6
BYBLOCK
 10
915.81476439788139
 20
1424.5027517865019
 30
0.0
 40
64.0
  1
330
 41
0.9
  0
LINE
  5
6A6
  8
SIZE
  6
BYBLOCK
 10
826.8719073978815
 20
1392.5027517865019
 30
0.0
 11
1152.87190739788
 21
1392.5027517865019
 31
0.0
  0
LINE
  5
6A7
  8
OUTLINE
  6
CONTINUOUS
 10
771.8719063978815
 20
290.07775178650252
 30
0.0
 11
1183.871906397881
 21
290.07775178650252
 31
0.0
  0
LINE
  5
6A8
  8
OUTLINE
  6
CONTINUOUS
 10
771.8719063978815
 20
323.07775178650252
 30
0.0
 11
1183.871906397881
 21
323.07775178650252
 31
0.0
  0
LINE
  5
6A9
  8
OUTLINE
  6
CONTINUOUS
 10
824.87190639788139
 20
1145.0777517865019
 30
0.0
 11
1154.8719063978799
 21
1145.0777517865019
 31
0.0
  0
CIRCLE
  5
6AA
  8
ARRANGE
  6
CONTINUOUS
 10
989.87190639788139
 20
290.07775178650252
 30
0.0
 40
40.0
  0
LINE
  5
6AB
  8
DETAIL
  6
CONTINOUS
 10
771.8719063978815
 20
290.07775178650252
 30
0.0
 11
1183.871906397881
 21
290.07775178650252
 31
0.0
  0
LINE
  5
6AC
  8
DETAIL
  6
CONTINOUS
 10
824.87190639788139
 20
1145.0777517865019
 30
0.0
 11
1154.8719063978799
 21
1145.0777517865019
 31
0.0
  0
TEXT
  5
6AD
  8
NOTE
  6
CONTINUOUS
 10
973.9808703978814
 20
913.84623078650259
 30
0.0
 40
64.0
  1
EL,CL
 41
0.9
  0
LINE
  5
6AE
  8
NOTE
  6
CONTINUOUS
 10
879.8719063978815
 20
686.07775178650252
 30
0.0
 11
1040.77148939788
 21
625.20405378650253
 31
0.0
  0
LINE
  5
6AF
  8
NOTE
  6
CONTINUOUS
 10
1205.83098439788
 20
895.38895978650271
 30
0.0
 11
918.87085639788165
 21
895.38895978650271
 31
0.0
  0
POINT
  5
6B0
  8
ARRANGE
  6
CONTINUOUS
 10
989.87190639788139
 20
290.07775178650252
 30
0.0
  0
LINE
  5
6B1
  8
DETAIL
  6
CONTINOUS
 10
771.8719063978815
 20
323.07775178650252
 30
0.0
 11
1183.871906397881
 21
323.07775178650252
 31
0.0
  0
LINE
  5
6B2
  8
NOTE
  6
CONTINUOUS
 10
882.87190639788139
 20
724.07775178650252
 30
0.0
 11
1040.77148939788
 21
812.30385178650226
 31
0.0
  0
CIRCLE
  5
6B3
  8
SIZE
  6
CONTINUOUS
 10
220.7875803978813
 20
290.07775178650252
 30
0.0
 40
6.0
  0
CIRCLE
  5
6B4
  8
SIZE
  6
CONTINUOUS
 10
503.55668139788139
 20
290.07775178650252
 30
0.0
 40
6.0
  0
CIRCLE
  5
6B5
  8
SIZE
  6
CONTINUOUS
 10
649.74425839788148
 20
290.07775178650252
 30
0.0
 40
6.0
  0
CIRCLE
  5
6B6
  8
SIZE
  6
CONTINUOUS
 10
350.83505539788138
 20
290.07775178650252
 30
0.0
 40
6.0
  0
LINE
  5
6B7
  8
OUTLINE
  6
CONTINUOUS
 10
771.8719063978815
 20
290.07775178650252
 30
0.0
 11
771.8719063978815
 21
323.07775178650252
 31
0.0
  0
CIRCLE
  5
6B8
  8
FIX
  6
CONTINUOUS
 10
799.8719063978815
 20
290.07775178650252
 30
0.0
 40
40.0
  0
LINE
  5
6B9
  8
DETAIL
  6
CONTINOUS
 10
771.8719063978815
 20
290.07775178650252
 30
0.0
 11
771.8719063978815
 21
323.07775178650252
 31
0.0
  0
LINE
  5
6BA
  8
BASIS
  6
DASHDOT
 10
989.87190639788139
 20
239.4419287865025
 30
0.0
 11
989.87190639788139
 21
1184.2961157865011
 31
0.0
  0
LINE
  5
6BB
  8
NOTE
  6
CONTINOUS
 10
799.8719063978815
 20
270.0777517865024
 30
0.0
 11
799.8719063978815
 21
310.07775178650252
 31
0.0
  0
LINE
  5
6BC
  8
NOTE
  6
CONTINUOUS
 10
0.0000023978816444
 20
-0.000002213497396
 30
0.0
 11
579.80680439788148
 21
-0.000002213497396
 31
0.0
  0
TEXT
  5
6BD
  8
NOTE
  6
CONTINUOUS
 10
14.78030739788152
 20
15.10229878650267
 30
0.0
 40
64.0
  1
AH 2-12×36
 41
0.9
  0
LINE
  5
6BE
  8
SIZE
  6
BYBLOCK
 10
715.70171039788136
 20
290.07775178650252
 30
0.0
 11
320.83505539788149
 21
290.07775178650252
 31
0.0
  0
LINE
  5
6BF
  8
SIZE
  6
BYBLOCK
 10
735.70171039788136
 20
290.07775178650252
 30
0.0
 11
473.55668139788122
 21
290.07775178650252
 31
0.0
  0
LINE
  5
6C0
  8
SIZE
  6
BYBLOCK
 10
735.70171039788136
 20
290.07775178650252
 30
0.0
 11
190.7875803978813
 21
290.07775178650252
 31
0.0
  0
LINE
  5
6C1
  8
NOTE
  6
CONTINUOUS
 10
579.80680439788148
 20
-0.000002213497396
 30
0.0
 11
799.8719063978815
 21
290.07775178650252
 31
0.0
  0
TEXT
  5
6C2
  8
SIZE
  6
BYBLOCK
 10
739.24333539788142
 20
127.36127978650261
 30
0.0
 40
64.0
  1
28
 41
0.9
  0
LINE
  5
6C3
  8
SIZE
  6
BYBLOCK
 10
735.70171039788136
 20
290.07775178650252
 30
0.0
 11
619.74425839788148
 21
290.07775178650252
 31
0.0
  0
LINE
  5
6C4
  8
SIZE
  6
BYBLOCK
 10
799.8719073978815
 20
250.0777517865026
 30
0.0
 11
799.8719073978815
 21
65.361279786502621
 31
0.0
  0
LINE
  5
6C5
  8
SIZE
  6
BYBLOCK
 10
799.8719073978815
 20
250.0777517865026
 30
0.0
 11
799.8719073978815
 21
65.361279786502621
 31
0.0
  0
LINE
  5
6C6
  8
SIZE
  6
BYBLOCK
 10
771.8719073978815
 20
270.0777517865024
 30
0.0
 11
771.8719073978815
 21
65.361279786502621
 31
0.0
  0
CIRCLE
  5
6C7
  8
SIZE
  6
CONTINUOUS
 10
799.8719073978815
 20
95.361279786502593
 30
0.0
 40
6.0
  0
CIRCLE
  5
6C8
  8
SIZE
  6
CONTINUOUS
 10
771.8719073978815
 20
95.361279786502593
 30
0.0
 40
6.0
  0
CIRCLE
  5
6C9
  8
SIZE
  6
CONTINUOUS
 10
799.8719073978815
 20
95.361279786502593
 30
0.0
 40
6.0
  0
LINE
  5
6CA
  8
SIZE
  6
BYBLOCK
 10
799.8719073978815
 20
95.361279786502593
 30
0.0
 11
771.8719073978815
 21
95.361279786502593
 31
0.0
  0
LINE
  5
6CB
  8
SIZE
  6
BYBLOCK
 10
769.8719073978815
 20
95.361279786502593
 30
0.0
 11
767.8719073978815
 21
95.361279786502593
 31
0.0
  0
LINE
  5
6CC
  8
SIZE
  6
BYBLOCK
 10
801.8719073978815
 20
95.361279786502593
 30
0.0
 11
803.87190739788139
 21
95.361279786502593
 31
0.0
  0
LINE
  5
6CD
  8
NOTE
  6
CONTINOUS
 10
779.8719063978815
 20
290.07775178650252
 30
0.0
 11
819.8719063978815
 21
290.07775178650252
 31
0.0
  0
LINE
  5
6CE
  8
NOTE
  6
CONTINUOUS
 10
799.8719063978815
 20
290.07775178650252
 30
0.0
 11
784.76766639788127
 21
253.0390967865026
 31
0.0
  0
LINE
  5
6CF
  8
NOTE
  6
CONTINUOUS
 10
799.8719063978815
 20
290.07775178650252
 30
0.0
 11
768.27192339788144
 21
265.55345678650241
 31
0.0
  0
LINE
  5
6D0
  8
SIZE
  6
BYBLOCK
 10
771.8719073978815
 20
343.07775178650252
 30
0.0
 11
771.8719073978815
 21
1422.5027517865019
 31
0.0
  0
LINE
  5
6D1
  8
OUTLINE
  6
CONTINUOUS
 10
824.87190639788139
 20
323.07775178650252
 30
0.0
 11
824.87190639788139
 21
1145.0777517865019
 31
0.0
  0
LINE
  5
6D2
  8
DETAIL
  6
CONTINOUS
 10
824.87190639788139
 20
323.07775178650252
 30
0.0
 11
824.87190639788139
 21
1145.0777517865019
 31
0.0
  0
LINE
  5
6D3
  8
DETAIL
  6
CONTINOUS
 10
804.8719063978815
 20
462.0777517865024
 30
0.0
 11
804.8719063978815
 21
1002.0777517865019
 31
0.0
  0
LINE
  5
6D4
  8
SIZE
  6
BYBLOCK
 10
714.44271139788157
 20
732.07775178650252
 30
0.0
 11
320.83505539788149
 21
732.07775178650252
 31
0.0
  0
LINE
  5
6D5
  8
SIZE
  6
BYBLOCK
 10
856.8719073978815
 20
724.07775178650252
 30
0.0
 11
473.55668139788122
 21
724.07775178650252
 31
0.0
  0
LINE
  5
6D6
  8
SIZE
  6
BYBLOCK
 10
777.27455739788161
 20
810.08015378650225
 30
0.0
 11
190.42745539788129
 21
810.08015378650225
 31
0.0
  0
LINE
  5
6D7
  8
SIZE
  6
BYBLOCK
 10
350.83505539788138
 20
292.07775178650252
 30
0.0
 11
350.83505539788138
 21
730.07775178650252
 31
0.0
  0
LINE
  5
6D8
  8
SIZE
  6
BYBLOCK
 10
503.55668139788139
 20
292.07775178650252
 30
0.0
 11
503.55668139788139
 21
724.07775178650252
 31
0.0
  0
TEXT
  5
6D9
  8
SIZE
  6
BYBLOCK
 10
188.7875803978813
 20
529.52060878650241
 30
0.0
 40
64.0
  1
520
 50
90.0
 41
0.9
  0
LINE
  5
6DA
  8
SIZE
  6
BYBLOCK
 10
220.7875803978813
 20
810.08015378650225
 30
0.0
 11
220.7875803978813
 21
603.57775178650252
 31
0.0
  0
TEXT
  5
6DB
  8
SIZE
  6
BYBLOCK
 10
318.83505539788149
 20
437.02060878650252
 30
0.0
 40
64.0
  1
442
 50
90.0
 41
0.9
  0
LINE
  5
6DC
  8
SIZE
  6
BYBLOCK
 10
220.7875803978813
 20
292.07775178650252
 30
0.0
 11
220.7875803978813
 21
603.57775178650252
 31
0.0
  0
TEXT
  5
6DD
  8
SIZE
  6
BYBLOCK
 10
471.55668139788139
 20
427.13489478650251
 30
0.0
 40
64.0
  1
434
 50
90.0
 41
0.9
  0
CIRCLE
  5
6DE
  8
SIZE
  6
CONTINUOUS
 10
220.4274553978814
 20
810.08015378650225
 30
0.0
 40
6.0
  0
CIRCLE
  5
6DF
  8
SIZE
  6
CONTINUOUS
 10
350.83505539788138
 20
732.07775178650252
 30
0.0
 40
6.0
  0
CIRCLE
  5
6E0
  8
SIZE
  6
CONTINUOUS
 10
503.55668139788139
 20
724.07775178650252
 30
0.0
 40
6.0
  0
LINE
  5
6E1
  8
SIZE
  6
BYBLOCK
 10
649.74425839788148
 20
292.07775178650252
 30
0.0
 11
649.74425839788148
 21
684.07775178650252
 31
0.0
  0
TEXT
  5
6E2
  8
SIZE
  6
BYBLOCK
 10
617.74425839788125
 20
415.3920377865025
 30
0.0
 40
64.0
  1
396
 50
90.0
 41
0.9
  0
LINE
  5
6E3
  8
DETAIL
  6
CONTINOUS
 10
824.87190639788139
 20
462.0777517865024
 30
0.0
 11
804.8719063978815
 21
462.0777517865024
 31
0.0
  0
LINE
  5
6E4
  8
SIZE
  6
BYBLOCK
 10
836.26393739788148
 20
686.07775178650252
 30
0.0
 11
619.74425839788148
 21
686.07775178650252
 31
0.0
  0
LINE
  5
6E5
  8
BASIS
  6
DASHDOT
 10
734.44271139788145
 20
732.07775178650252
 30
0.0
 11
884.14564339788137
 21
732.07775178650252
 31
0.0
  0
CIRCLE
  5
6E6
  8
SIZE
  6
CONTINUOUS
 10
649.74425839788148
 20
686.07775178650252
 30
0.0
 40
6.0
  0
LINE
  5
6E7
  8
NOTE
  6
CONTINOUS
 10
862.8719063978815
 20
724.07775178650252
 30
0.0
 11
902.8719063978815
 21
724.07775178650252
 31
0.0
  0
LINE
  5
6E8
  8
NOTE
  6
CONTINOUS
 10
859.87190639788162
 20
686.07775178650252
 30
0.0
 11
899.87190639788139
 21
686.07775178650252
 31
0.0
  0
LINE
  5
6E9
  8
NOTE
  6
CONTINOUS
 10
879.8719063978815
 20
666.07775178650252
 30
0.0
 11
879.8719063978815
 21
706.07775178650252
 31
0.0
  0
POLYLINE
  5
6EA
  8
NOTE
  6
CONTINUOUS
 66
     1
 10
0.0
 20
0.0
 30
0.0
  0
VERTEX
  5
DC9
  8
NOTE
  6
CONTINUOUS
 10
919.40695039788125
 20
679.99661178650251
 30
0.0
  0
VERTEX
  5
DCA
  8
NOTE
  6
CONTINUOUS
 10
879.8719063978815
 20
686.07775178650252
 30
0.0
  0
VERTEX
  5
DCB
  8
NOTE
  6
CONTINUOUS
 10
911.06968939788146
 20
661.04380778650238
 30
0.0
  0
SEQEND
  5
DCC
  8
NOTE
  6
CONTINUOUS
  0
POLYLINE
  5
6EF
  8
NOTE
  6
CONTINUOUS
 66
     1
 10
0.0
 20
0.0
 30
0.0
  0
VERTEX
  5
DCD
  8
NOTE
  6
CONTINUOUS
 10
911.55116939788149
 20
751.96143678650253
 30
0.0
  0
VERTEX
  5
DCE
  8
NOTE
  6
CONTINUOUS
 10
882.87190639788139
 20
724.07775178650252
 30
0.0
  0
VERTEX
  5
DCF
  8
NOTE
  6
CONTINUOUS
 10
921.65071939788174
 20
733.88609978650254
 30
0.0
  0
SEQEND
  5
DD0
  8
NOTE
  6
CONTINUOUS
  0
LINE
  5
6F4
  8
NOTE
  6
CONTINOUS
 10
882.87190639788139
 20
704.0777517865024
 30
0.0
 11
882.87190639788139
 21
744.07775178650252
 31
0.0
  0
LINE
  5
6F5
  8
NOTE
  6
CONTINUOUS
 10
824.51178139788146
 20
810.08015378650225
 30
0.0
 11
918.87085639788165
 21
895.38895978650271
 31
0.0
  0
LINE
  5
6F6
  8
NOTE
  6
CONTINOUS
 10
804.51178139788135
 20
810.08015378650225
 30
0.0
 11
844.51178139788135
 21
810.08015378650225
 31
0.0
  0
POLYLINE
  5
6F7
  8
NOTE
  6
CONTINUOUS
 66
     1
 10
0.0
 20
0.0
 30
0.0
  0
VERTEX
  5
DD1
  8
NOTE
  6
CONTINUOUS
 10
846.64476439788132
 20
843.39878378650269
 30
0.0
  0
VERTEX
  5
DD2
  8
NOTE
  6
CONTINUOUS
 10
824.51178139788146
 20
810.08015378650225
 30
0.0
  0
VERTEX
  5
DD3
  8
NOTE
  6
CONTINUOUS
 10
860.33882139788147
 20
827.86844278650256
 30
0.0
  0
SEQEND
  5
DD4
  8
NOTE
  6
CONTINUOUS
  0
LINE
  5
6FC
  8
NOTE
  6
CONTINOUS
 10
824.51178139788146
 20
790.08015378650225
 30
0.0
 11
824.51178139788146
 21
830.08015378650225
 31
0.0
  0
LINE
  5
6FD
  8
NOTE
  6
CONTINUOUS
 10
872.35755039788137
 20
933.93013678650243
 30
0.0
 11
872.35755039788137
 21
933.93013678650243
 31
0.0
  0
LINE
  5
6FE
  8
SIZE
  6
BYBLOCK
 10
824.8719073978815
 20
1185.0777517865019
 30
0.0
 11
824.8719073978815
 21
1422.5027517865019
 31
0.0
  0
LINE
  5
6FF
  8
SIZE
  6
BYBLOCK
 10
824.8719073978815
 20
1165.0777517865019
 30
0.0
 11
824.8719073978815
 21
1422.5027517865019
 31
0.0
  0
LINE
  5
700
  8
SIZE
  6
BYBLOCK
 10
824.8719073978815
 20
1165.0777517865019
 30
0.0
 11
824.8719073978815
 21
1293.248751786502
 31
0.0
  0
LINE
  5
701
  8
SIZE
  6
BYBLOCK
 10
804.87190739788139
 20
1022.0777517865019
 30
0.0
 11
804.87190739788139
 21
1293.248751786502
 31
0.0
  0
LINE
  5
702
  8
DETAIL
  6
CONTINOUS
 10
824.87190639788139
 20
1002.0777517865019
 30
0.0
 11
804.8719063978815
 21
1002.0777517865019
 31
0.0
  0
LINE
  5
703
  8
SIZE
  6
CONTINUOUS
 10
814.87190639788139
 20
1263.2491457865019
 30
0.0
 11
945.94025839788139
 21
1263.2491457865019
 31
0.0
  0
LINE
  5
704
  8
SIZE
  6
BYBLOCK
 10
822.8719073978815
 20
1263.2491457865019
 30
0.0
 11
814.8719073978815
 21
1263.2491457865019
 31
0.0
  0
CIRCLE
  5
705
  8
SIZE
  6
CONTINUOUS
 10
804.87190739788139
 20
1263.2491457865019
 30
0.0
 40
6.0
  0
LINE
  5
706
  8
SIZE
  6
BYBLOCK
 10
806.8719073978815
 20
1263.2491457865019
 30
0.0
 11
814.8719073978815
 21
1263.2491457865019
 31
0.0
  0
CIRCLE
  5
707
  8
SIZE
  6
CONTINUOUS
 10
824.8719073978815
 20
1263.2491457865019
 30
0.0
 40
6.0
  0
TEXT
  5
708
  8
SIZE
  6
BYBLOCK
 10
751.74333539788142
 20
1424.5027517865019
 30
0.0
 40
64.0
  1
53
 41
0.9
  0
TEXT
  5
709
  8
SIZE
  6
BYBLOCK
 10
843.21570539788104
 20
1295.248751786502
 30
0.0
 40
64.0
  1
20
 41
0.9
  0
LINE
  5
70A
  8
SIZE
  6
BYBLOCK
 10
824.8719073978815
 20
1392.5027517865019
 30
0.0
 11
771.8719073978815
 21
1392.5027517865019
 31
0.0
  0
CIRCLE
  5
70B
  8
SIZE
  6
CONTINUOUS
 10
771.8719073978815
 20
1392.5027517865019
 30
0.0
 40
6.0
  0
LINE
  5
70C
  8
SIZE
  6
BYBLOCK
 10
769.8719073978815
 20
1392.5027517865019
 30
0.0
 11
767.8719073978815
 21
1392.5027517865019
 31
0.0
  0
CIRCLE
  5
70D
  8
SIZE
  6
CONTINUOUS
 10
824.8719073978815
 20
1392.5027517865019
 30
0.0
 40
6.0
  0
CIRCLE
  5
70E
  8
SIZE
  6
CONTINUOUS
 10
824.8719073978815
 20
1392.5027517865019
 30
0.0
 40
6.0
  0
LINE
  5
70F
  8
SIZE
  6
BYBLOCK
 10
826.8719073978815
 20
1392.5027517865019
 30
0.0
 11
828.87190739788139
 21
1392.5027517865019
 31
0.0
  0
CIRCLE
  5
710
  8
SIZE
  6
CONTINUOUS
 10
1420.44446039788
 20
290.07775178650252
 30
0.0
 40
6.0
  0
CIRCLE
  5
711
  8
FIX
  6
CONTINUOUS
 10
1169.871906397881
 20
290.07775178650252
 30
0.0
 40
40.0
  0
LINE
  5
712
  8
OUTLINE
  6
CONTINUOUS
 10
1183.871906397881
 20
323.07775178650252
 30
0.0
 11
1183.871906397881
 21
290.07775178650252
 31
0.0
  0
TEXT
  5
713
  8
ETC
  6
CONTINUOUS
 10
1573.1112623978811
 20
288.6366377865026
 30
0.0
 40
64.0
  1
室外機
 41
0.9
  0
LINE
  5
714
  8
DETAIL
  6
CONTINOUS
 10
1183.871906397881
 20
290.07775178650252
 30
0.0
 11
1183.871906397881
 21
323.07775178650252
 31
0.0
  0
LINE
  5
715
  8
NOTE
  6
CONTINOUS
 10
1169.871906397881
 20
270.0777517865024
 30
0.0
 11
1169.871906397881
 21
310.07775178650252
 31
0.0
  0
LINE
  5
716
  8
NOTE
  6
CONTINUOUS
 10
1969.74381039788
 20
-0.000002213497396
 30
0.0
 11
1389.9370083978811
 21
-0.000002213497396
 31
0.0
  0
TEXT
  5
717
  8
NOTE
  6
CONTINUOUS
 10
1415.1692193978811
 20
15.10229878650267
 30
0.0
 40
64.0
  1
AH 2-U cut
 41
0.9
  0
LINE
  5
718
  8
NOTE
  6
CONTINUOUS
 10
1389.9370083978811
 20
-0.000002213497396
 30
0.0
 11
1169.871906397881
 21
290.07775178650252
 31
0.0
  0
LINE
  5
719
  8
SIZE
  6
BYBLOCK
 10
1214.7137463978811
 20
290.07775178650252
 30
0.0
 11
1450.44446039788
 21
290.07775178650252
 31
0.0
  0
LINE
  5
71A
  8
SIZE
  6
BYBLOCK
 10
1183.87190739788
 20
270.0777517865024
 30
0.0
 11
1183.87190739788
 21
65.361279786502621
 31
0.0
  0
LINE
  5
71B
  8
SIZE
  6
BYBLOCK
 10
1169.87190739788
 20
250.0777517865026
 30
0.0
 11
1169.87190739788
 21
65.361279786502621
 31
0.0
  0
LINE
  5
71C
  8
SIZE
  6
BYBLOCK
 10
1169.87190739788
 20
250.0777517865026
 30
0.0
 11
1169.87190739788
 21
65.361279786502621
 31
0.0
  0
CIRCLE
  5
71D
  8
SIZE
  6
CONTINUOUS
 10
1169.87190739788
 20
95.361279786502593
 30
0.0
 40
6.0
  0
CIRCLE
  5
71E
  8
SIZE
  6
CONTINUOUS
 10
1169.87190739788
 20
95.361279786502593
 30
0.0
 40
6.0
  0
CIRCLE
  5
71F
  8
SIZE
  6
CONTINUOUS
 10
1183.87190739788
 20
95.361279786502593
 30
0.0
 40
6.0
  0
LINE
  5
720
  8
SIZE
  6
BYBLOCK
 10
1183.87190739788
 20
95.361279786502593
 30
0.0
 11
1169.87190739788
 21
95.361279786502593
 31
0.0
  0
LINE
  5
721
  8
SIZE
  6
BYBLOCK
 10
1167.87190739788
 20
95.361279786502593
 30
0.0
 11
1165.87190739788
 21
95.361279786502593
 31
0.0
  0
LINE
  5
722
  8
SIZE
  6
BYBLOCK
 10
1185.87190739788
 20
95.361279786502593
 30
0.0
 11
1187.87190739788
 21
95.361279786502593
 31
0.0
  0
TEXT
  5
723
  8
SIZE
  6
BYBLOCK
 10
1134.3576213978811
 20
127.36127978650261
 30
0.0
 40
64.0
  1
14
 41
0.9
  0
LINE
  5
724
  8
NOTE
  6
CONTINOUS
 10
1149.871906397881
 20
290.07775178650252
 30
0.0
 11
1189.871906397881
 21
290.07775178650252
 31
0.0
  0
LINE
  5
725
  8
NOTE
  6
CONTINUOUS
 10
1169.871906397881
 20
290.07775178650252
 30
0.0
 11
1184.97614639788
 21
253.0390967865026
 31
0.0
  0
LINE
  5
726
  8
NOTE
  6
CONTINUOUS
 10
1169.871906397881
 20
290.07775178650252
 30
0.0
 11
1201.47188939788
 21
265.55345678650241
 31
0.0
  0
TEXT
  5
727
  8
ETC
  6
CONTINUOUS
 10
1561.288518397879
 20
407.8032387865025
 30
0.0
 40
64.0
  1
SPUZ0824
 41
0.9
  0
LINE
  5
728
  8
SIZE
  6
BYBLOCK
 10
1420.44446039788
 20
1143.0777517865019
 30
0.0
 11
1420.44446039788
 21
717.57775178650252
 31
0.0
  0
LINE
  5
729
  8
OUTLINE
  6
CONTINUOUS
 10
1154.8719063978799
 20
1145.0777517865019
 30
0.0
 11
1154.8719063978799
 21
323.07775178650252
 31
0.0
  0
LINE
  5
72A
  8
DETAIL
  6
CONTINOUS
 10
1154.8719063978799
 20
323.07775178650252
 30
0.0
 11
1154.8719063978799
 21
1145.0777517865019
 31
0.0
  0
LINE
  5
72B
  8
SIZE
  6
BYBLOCK
 10
1420.44446039788
 20
292.07775178650252
 30
0.0
 11
1420.44446039788
 21
717.57775178650252
 31
0.0
  0
LINE
  5
72C
  8
NOTE
  6
CONTINUOUS
 10
1124.871906397881
 20
323.07775178650252
 30
0.0
 11
1231.96219639788
 21
428.57361078650251
 31
0.0
  0
LINE
  5
72D
  8
NOTE
  6
CONTINOUS
 10
1104.871906397881
 20
323.07775178650252
 30
0.0
 11
1144.871906397881
 21
323.07775178650252
 31
0.0
  0
POLYLINE
  5
72E
  8
NOTE
  6
CONTINUOUS
 66
     1
 10
0.0
 20
0.0
 30
0.0
  0
VERTEX
  5
DD5
  8
NOTE
  6
CONTINUOUS
 10
1145.1311663978811
 20
357.56778478650261
 30
0.0
  0
VERTEX
  5
DD6
  8
NOTE
  6
CONTINUOUS
 10
1124.871906397881
 20
323.07775178650252
 30
0.0
  0
VERTEX
  5
DD7
  8
NOTE
  6
CONTINUOUS
 10
1159.661957397881
 20
342.81736678650259
 30
0.0
  0
SEQEND
  5
DD8
  8
NOTE
  6
CONTINUOUS
  0
LINE
  5
733
  8
NOTE
  6
CONTINOUS
 10
1124.871906397881
 20
303.07775178650257
 30
0.0
 11
1124.871906397881
 21
343.07775178650252
 31
0.0
  0
TEXT
  5
734
  8
NOTE
  6
CONTINUOUS
 10
1251.9401213978811
 20
438.44475178650248
 30
0.0
 40
64.0
  1
D
 41
0.9
  0
LINE
  5
735
  8
NOTE
  6
CONTINUOUS
 10
1231.96219639788
 20
428.57361078650251
 30
0.0
 11
1302.198482397881
 21
428.57361078650251
 31
0.0
  0
TEXT
  5
736
  8
NOTE
  6
CONTINUOUS
 10
1060.7086543978789
 20
635.63939678650252
 30
0.0
 40
64.0
  1
RG
 41
0.9
  0
LINE
  5
737
  8
NOTE
  6
CONTINUOUS
 10
1040.77148939788
 20
625.20405378650253
 30
0.0
 11
1180.455218397881
 21
625.20405378650253
 31
0.0
  0
TEXT
  5
738
  8
NOTE
  6
CONTINUOUS
 10
1060.92620539788
 20
822.17499278650257
 30
0.0
 40
64.0
  1
RL
 41
0.9
  0
LINE
  5
739
  8
NOTE
  6
CONTINUOUS
 10
1040.77148939788
 20
812.30385178650226
 30
0.0
 11
1170.35759939788
 21
812.30385178650226
 31
0.0
  0
TEXT
  5
73A
  8
SIZE
  6
BYBLOCK
 10
1388.44446039788
 20
643.52060878650252
 30
0.0
 40
64.0
  1
855
 50
90.0
 41
0.9
  0
LINE
  5
73B
  8
SIZE
  6
BYBLOCK
 10
1154.87190739788
 20
1165.0777517865019
 30
0.0
 11
1154.87190739788
 21
1422.5027517865019
 31
0.0
  0
LINE
  5
73C
  8
SIZE
  6
BYBLOCK
 10
1203.87190739788
 20
1145.0777517865019
 30
0.0
 11
1450.44446039788
 21
1145.0777517865019
 31
0.0
  0
CIRCLE
  5
73D
  8
SIZE
  6
CONTINUOUS
 10
1420.44446039788
 20
1145.0777517865019
 30
0.0
 40
6.0
  0
CIRCLE
  5
73E
  8
SIZE
  6
CONTINUOUS
 10
1154.87190739788
 20
1392.5027517865019
 30
0.0
 40
6.0
  0
ENDBLK
  5
73F
  8
0
  0
BLOCK
  8
0
  2
_ORIGIN
 70
     0
 10
0.0
 20
0.0
 30
0.0
  3
_ORIGIN
  1

  0
CIRCLE
  5
742
  8
0
  6
BYBLOCK
 62
     0
 10
0.0
 20
0.0
 30
0.0
 40
0.5
  0
LINE
  5
743
  8
0
  6
BYBLOCK
 62
     0
 10
0.0
 20
0.0
 30
0.0
 11
-1.0
 21
0.0
 31
0.0
  0
ENDBLK
  5
744
  8
0
  0
BLOCK
  8
0
  2
_ORIGIN2
 70
     0
 10
0.0
 20
0.0
 30
0.0
  3
_ORIGIN2
  1

  0
CIRCLE
  5
747
  8
0
  6
BYBLOCK
 62
     0
 10
0.0
 20
0.0
 30
0.0
 40
0.5
  0
CIRCLE
  5
748
  8
0
  6
BYBLOCK
 62
     0
 10
0.0
 20
0.0
 30
0.0
 40
0.25
  0
LINE
  5
749
  8
0
  6
BYBLOCK
 62
     0
 10
-0.5
 20
0.0
 30
0.0
 11
-1.0
 21
0.0
 31
0.0
  0
ENDBLK
  5
74A
  8
0
  0
BLOCK
  8
0
  2
_DOTBLANK
 70
     0
 10
0.0
 20
0.0
 30
0.0
  3
_DOTBLANK
  1

  0
CIRCLE
  5
74D
  8
0
  6
BYBLOCK
 62
     0
 10
0.0
 20
0.0
 30
0.0
 40
0.5
  0
LINE
  5
74E
  8
0
  6
BYBLOCK
 62
     0
 10
-0.5
 20
0.0
 30
0.0
 11
-1.0
 21
0.0
 31
0.0
  0
ENDBLK
  5
74F
  8
0
  0
BLOCK
  8
0
  2
*D6
 70
     1
 10
0.0
 20
0.0
 30
0.0
  3
*D6
  1

  0
LINE
  5
E47
  8
SIZE
  6
CONTINUOUS
 62
     0
 10
205.0
 20
662.99999999999989
 30
0.0
 11
917.68323291196805
 21
662.99999999999955
 31
0.0
  0
LINE
  5
E48
  8
SIZE
  6
CONTINUOUS
 62
     0
 10
233.0
 20
-0.0000000000000057
 30
0.0
 11
917.68323291196782
 21
-0.0000000000001996
 31
0.0
  0
LINE
  5
E49
  8
SIZE
  6
CONTINUOUS
 62
     0
 10
887.68323291196793
 20
652.99999999999955
 30
0.0
 11
887.68323291196771
 21
9.9999999999998082
 31
0.0
  0
INSERT
  5
E4A
  8
SIZE
  6
CONTINUOUS
 62
     0
  2
_DOTBLANK
 10
887.68323291196793
 20
662.99999999999955
 30
0.0
 41
10.0
 42
10.0
 43
10.0
 50
90.0
  0
INSERT
  5
E4B
  8
SIZE
  6
CONTINUOUS
 62
     0
  2
_DOTBLANK
 10
887.68323291196771
 20
-0.0000000000001911
 30
0.0
 41
10.0
 42
10.0
 43
10.0
 50
270.0
  0
TEXT
  8
0
  40
64
  5
E50
  62
0
  72
0
  71
0
 10
727.593
 20
218.220
 30
0.000000
  1
663
  0
POINT
  5
E4D
  8
DEFPOINTS
  6
CONTINUOUS
 62
     0
 10
185.0
 20
662.99999999999989
 30
0.0
  0
POINT
  5
E4E
  8
DEFPOINTS
  6
CONTINUOUS
 62
     0
 10
213.0
 20
0.0
 30
0.0
  0
POINT
  5
E4F
  8
DEFPOINTS
  6
CONTINUOUS
 62
     0
 10
887.68323291196771
 20
-0.0000000000001911
 30
0.0
  0
ENDBLK
  5
C4C
  8
0
  0
BLOCK
  8
0
  2
*D7
 70
     1
 10
0.0
 20
0.0
 30
0.0
  3
*D7
  1

  0
LINE
  5
E35
  8
SIZE
  6
CONTINUOUS
 62
     0
 10
165.0
 20
963.0
 30
0.0
 11
165.0
 21
1288.309660749763
 31
0.0
  0
LINE
  5
E36
  8
SIZE
  6
CONTINUOUS
 62
     0
 10
195.0000000000004
 20
782.00000000000102
 30
0.0
 11
195.0000000000004
 21
1288.309660749763
 31
0.0
  0
LINE
  5
E37
  8
SIZE
  6
CONTINUOUS
 62
     0
 10
175.0
 20
1258.309660749763
 30
0.0
 11
185.0000000000004
 21
1258.309660749763
 31
0.0
  0
TEXT
  8
0
  40
64
  5
E51
  62
0
  72
0
  71
0
 10
153.629
 20
1145.03
 30
0.000000
  1
30
  0
INSERT
  5
E39
  8
SIZE
  6
CONTINUOUS
 62
     0
  2
_DOTBLANK
 10
165.0
 20
1258.309660749763
 30
0.0
 41
10.0
 42
10.0
 43
10.0
 50
180.0
  0
INSERT
  5
E3A
  8
SIZE
  6
CONTINUOUS
 62
     0
  2
_DOTBLANK
 10
195.0000000000004
 20
1258.309660749763
 30
0.0
 41
10.0
 42
10.0
 43
10.0
  0
POINT
  5
E3B
  8
DEFPOINTS
  6
CONTINUOUS
 62
     0
 10
165.0
 20
943.0
 30
0.0
  0
POINT
  5
E3C
  8
DEFPOINTS
  6
CONTINUOUS
 62
     0
 10
195.0000000000004
 20
762.00000000000102
 30
0.0
  0
POINT
  5
E3D
  8
DEFPOINTS
  6
CONTINUOUS
 62
     0
 10
195.0000000000004
 20
1258.309660749763
 30
0.0
  0
ENDBLK
  5
C6B
  8
0
  0
BLOCK
  8
0
  2
*D8
 70
     1
 10
0.0
 20
0.0
 30
0.0
  3
*D8
  1

  0
LINE
  5
E2C
  8
SIZE
  6
CONTINUOUS
 62
     0
 10
165.0
 20
963.0
 30
0.0
 11
165.0
 21
1156.2934918139531
 31
0.0
  0
LINE
  5
E2D
  8
SIZE
  6
CONTINUOUS
 62
     0
 10
109.0000000000004
 20
483.0
 30
0.0
 11
109.0000000000004
 21
1156.2934918139531
 31
0.0
  0
LINE
  5
E2E
  8
SIZE
  6
CONTINUOUS
 62
     0
 10
155.0
 20
1126.2934918139531
 30
0.0
 11
119.0000000000004
 21
1126.2934918139531
 31
0.0
  0
TEXT
  8
0
  40
64
  5
E52
  62
0
  72
0
  71
0
 10
-88.0801
 20
1047.04
 30
0.000000
  1
56
  0
INSERT
  5
E30
  8
SIZE
  6
CONTINUOUS
 62
     0
  2
_DOTBLANK
 10
165.0
 20
1126.2934918139531
 30
0.0
 41
10.0
 42
10.0
 43
10.0
  0
INSERT
  5
E31
  8
SIZE
  6
CONTINUOUS
 62
     0
  2
_DOTBLANK
 10
109.0000000000004
 20
1126.2934918139531
 30
0.0
 41
10.0
 42
10.0
 43
10.0
 50
180.0
  0
POINT
  5
E32
  8
DEFPOINTS
  6
CONTINUOUS
 62
     0
 10
165.0
 20
943.0
 30
0.0
  0
POINT
  5
E33
  8
DEFPOINTS
  6
CONTINUOUS
 62
     0
 10
109.0000000000004
 20
463.0
 30
0.0
  0
POINT
  5
E34
  8
DEFPOINTS
  6
CONTINUOUS
 62
     0
 10
109.0000000000004
 20
1126.2934918139531
 30
0.0
  0
ENDBLK
  5
C77
  8
0
  0
BLOCK
  8
0
  2
*D9
 70
     1
 10
0.0
 20
0.0
 30
0.0
  3
*D9
  1

  0
LINE
  5
E23
  8
SIZE
  6
CONTINUOUS
 62
     0
 10
165.0
 20
963.0
 30
0.0
 11
165.0
 21
1032.981695314588
 31
0.0
  0
LINE
  5
E24
  8
SIZE
  6
CONTINUOUS
 62
     0
 10
120.0000000000003
 20
487.0
 30
0.0
 11
120.0000000000003
 21
1032.981695314588
 31
0.0
  0
LINE
  5
E25
  8
SIZE
  6
CONTINUOUS
 62
     0
 10
155.0
 20
1002.981695314588
 30
0.0
 11
130.00000000000031
 21
1002.981695314588
 31
0.0
  0
TEXT
  8
0
  40
64
  5
E53
  62
0
  72
0
  71
0
 10
-80.4493
 20
922.433
 30
0.000000
  1
45
  0
INSERT
  5
E27
  8
SIZE
  6
CONTINUOUS
 62
     0
  2
_DOTBLANK
 10
165.0
 20
1002.981695314588
 30
0.0
 41
10.0
 42
10.0
 43
10.0
  0
INSERT
  5
E28
  8
SIZE
  6
CONTINUOUS
 62
     0
  2
_DOTBLANK
 10
120.0000000000003
 20
1002.981695314588
 30
0.0
 41
10.0
 42
10.0
 43
10.0
 50
180.0
  0
POINT
  5
E29
  8
DEFPOINTS
  6
CONTINUOUS
 62
     0
 10
165.0
 20
943.0
 30
0.0
  0
POINT
  5
E2A
  8
DEFPOINTS
  6
CONTINUOUS
 62
     0
 10
120.0000000000003
 20
467.0
 30
0.0
  0
POINT
  5
E2B
  8
DEFPOINTS
  6
CONTINUOUS
 62
     0
 10
120.0000000000003
 20
1002.981695314588
 30
0.0
  0
ENDBLK
  5
C83
  8
0
  0
BLOCK
  8
0
  2
*D10
 70
     1
 10
0.0
 20
0.0
 30
0.0
  3
*D10
  1

  0
LINE
  5
E1A
  8
SIZE
  6
CONTINUOUS
 62
     0
 10
233.0000000000004
 20
-0.0000000000000057
 30
0.0
 11
1087.7659498415121
 21
-0.0000000000002478
 31
0.0
  0
LINE
  5
E1B
  8
SIZE
  6
CONTINUOUS
 62
     0
 10
185.0
 20
943.0
 30
0.0
 11
1087.765949841513
 21
942.99999999999966
 31
0.0
  0
LINE
  5
E1C
  8
SIZE
  6
CONTINUOUS
 62
     0
 10
1057.7659498415121
 20
9.9999999999997602
 30
0.0
 11
1057.765949841513
 21
932.99999999999977
 31
0.0
  0
INSERT
  5
E1D
  8
SIZE
  6
CONTINUOUS
 62
     0
  2
_DOTBLANK
 10
1057.7659498415121
 20
-0.0000000000002393
 30
0.0
 41
10.0
 42
10.0
 43
10.0
 50
270.0
  0
INSERT
  5
E1E
  8
SIZE
  6
CONTINUOUS
 62
     0
  2
_DOTBLANK
 10
1057.765949841513
 20
942.99999999999966
 30
0.0
 41
10.0
 42
10.0
 43
10.0
 50
90.0
  0
TEXT
  8
0
  40
64
  5
E54
  62
0
  72
0
  71
0
 10
897.676
 20
358.220
 30
0.000000
  1
943
  0
POINT
  5
E20
  8
DEFPOINTS
  6
CONTINUOUS
 62
     0
 10
213.0000000000004
 20
0.0
 30
0.0
  0
POINT
  5
E21
  8
DEFPOINTS
  6
CONTINUOUS
 62
     0
 10
165.0
 20
943.0
 30
0.0
  0
POINT
  5
E22
  8
DEFPOINTS
  6
CONTINUOUS
 62
     0
 10
1057.765949841513
 20
942.99999999999966
 30
0.0
  0
ENDBLK
  5
C8F
  8
0
  0
BLOCK
  8
0
  2
*D11
 70
     1
 10
0.0
 20
0.0
 30
0.0
  3
*D11
  1

  0
LINE
  5
E11
  8
SIZE
  6
CONTINUOUS
 62
     0
 10
233.0
 20
-0.0000000000000057
 30
0.0
 11
792.15981278839968
 21
-0.0000000000001641
 31
0.0
  0
LINE
  5
E12
  8
SIZE
  6
CONTINUOUS
 62
     0
 10
275.42919599999988
 20
472.99999999953889
 30
0.0
 11
792.15981278839968
 21
472.99999999953872
 31
0.0
  0
LINE
  5
E13
  8
SIZE
  6
CONTINUOUS
 62
     0
 10
762.15981278839968
 20
9.9999999999998455
 30
0.0
 11
762.15981278839979
 21
462.99999999953872
 31
0.0
  0
INSERT
  5
E14
  8
SIZE
  6
CONTINUOUS
 62
     0
  2
_DOTBLANK
 10
762.15981278839968
 20
-0.0000000000001556
 30
0.0
 41
10.0
 42
10.0
 43
10.0
 50
270.0
  0
INSERT
  5
E15
  8
SIZE
  6
CONTINUOUS
 62
     0
  2
_DOTBLANK
 10
762.15981278839979
 20
472.99999999953872
 30
0.0
 41
10.0
 42
10.0
 43
10.0
 50
90.0
  0
TEXT
  8
0
  40
64
  5
E55
  62
0
  72
0
  71
0
 10
602.070
 20
123.220
 30
0.000000
  1
473
  0
POINT
  5
E17
  8
DEFPOINTS
  6
CONTINUOUS
 62
     0
 10
213.0
 20
0.0
 30
0.0
  0
POINT
  5
E18
  8
DEFPOINTS
  6
CONTINUOUS
 62
     0
 10
255.42919599999999
 20
472.99999999953889
 30
0.0
  0
POINT
  5
E19
  8
DEFPOINTS
  6
CONTINUOUS
 62
     0
 10
762.15981278839979
 20
472.99999999953872
 30
0.0
  0
ENDBLK
  5
C9B
  8
0
  0
BLOCK
  8
0
  2
*D12
 70
     1
 10
0.0
 20
0.0
 30
0.0
  3
*D12
  1

  0
LINE
  5
E08
  8
SIZE
  6
CONTINUOUS
 62
     0
 10
233.0
 20
-0.0000000000000057
 30
0.0
 11
639.27149711922254
 21
-0.0000000000001208
 31
0.0
  0
LINE
  5
E09
  8
SIZE
  6
CONTINUOUS
 62
     0
 10
160.00000000000031
 20
447.0
 30
0.0
 11
639.27149711922254
 21
446.99999999999977
 31
0.0
  0
LINE
  5
E0A
  8
SIZE
  6
CONTINUOUS
 62
     0
 10
609.27149711922254
 20
9.9999999999998881
 30
0.0
 11
609.27149711922266
 21
436.99999999999989
 31
0.0
  0
INSERT
  5
E0B
  8
SIZE
  6
CONTINUOUS
 62
     0
  2
_DOTBLANK
 10
609.27149711922254
 20
-0.0000000000001123
 30
0.0
 41
10.0
 42
10.0
 43
10.0
 50
270.0
  0
INSERT
  5
E0C
  8
SIZE
  6
CONTINUOUS
 62
     0
  2
_DOTBLANK
 10
609.27149711922266
 20
446.99999999999977
 30
0.0
 41
10.0
 42
10.0
 43
10.0
 50
90.0
  0
TEXT
  8
0
  40
64
  5
E56
  62
0
  72
0
  71
0
 10
449.181
 20
110.220
 30
0.000000
  1
447
  0
POINT
  5
E0E
  8
DEFPOINTS
  6
CONTINUOUS
 62
     0
 10
213.0
 20
0.0
 30
0.0
  0
POINT
  5
E0F
  8
DEFPOINTS
  6
CONTINUOUS
 62
     0
 10
140.00000000000031
 20
447.0
 30
0.0
  0
POINT
  5
E10
  8
DEFPOINTS
  6
CONTINUOUS
 62
     0
 10
609.27149711922266
 20
446.99999999999977
 30
0.0
  0
ENDBLK
  5
CA7
  8
0
  0
BLOCK
  8
0
  2
*D13
 70
     1
 10
0.0
 20
0.0
 30
0.0
  3
*D13
  1

  0
LINE
  5
DFF
  8
SIZE
  6
CONTINUOUS
 62
     0
 10
233.0
 20
-0.0000000000000057
 30
0.0
 11
504.52184316789942
 21
-0.0000000000000826
 31
0.0
  0
LINE
  5
E00
  8
SIZE
  6
CONTINUOUS
 62
     0
 10
149.00000000000031
 20
443.0
 30
0.0
 11
504.52184316789948
 21
442.99999999999989
 31
0.0
  0
LINE
  5
E01
  8
SIZE
  6
CONTINUOUS
 62
     0
 10
474.52184316789931
 20
9.9999999999999272
 30
0.0
 11
474.52184316789948
 21
432.99999999999989
 31
0.0
  0
INSERT
  5
E02
  8
SIZE
  6
CONTINUOUS
 62
     0
  2
_DOTBLANK
 10
474.52184316789931
 20
-0.0000000000000741
 30
0.0
 41
10.0
 42
10.0
 43
10.0
 50
270.0
  0
INSERT
  5
E03
  8
SIZE
  6
CONTINUOUS
 62
     0
  2
_DOTBLANK
 10
474.52184316789948
 20
442.99999999999989
 30
0.0
 41
10.0
 42
10.0
 43
10.0
 50
90.0
  0
TEXT
  8
0
  40
64
  5
E57
  62
0
  72
0
  71
0
 10
314.432
 20
108.220
 30
0.000000
  1
443
  0
POINT
  5
E05
  8
DEFPOINTS
  6
CONTINUOUS
 62
     0
 10
213.0
 20
0.0
 30
0.0
  0
POINT
  5
E06
  8
DEFPOINTS
  6
CONTINUOUS
 62
     0
 10
129.0000000000004
 20
443.0
 30
0.0
  0
POINT
  5
E07
  8
DEFPOINTS
  6
CONTINUOUS
 62
     0
 10
474.52184316789948
 20
442.99999999999989
 30
0.0
  0
ENDBLK
  5
CB3
  8
0
  0
BLOCK
  8
0
  2
*D14
 70
     1
 10
0.0
 20
0.0
 30
0.0
  3
*D14
  1

  0
LINE
  5
DED
  8
SIZE
  6
CONTINUOUS
 62
     0
 10
185.0000000000004
 20
-40.0
 30
0.0
 11
185.0000000000004
 21
-364.82880203500957
 31
0.0
  0
LINE
  5
DEE
  8
SIZE
  6
CONTINUOUS
 62
     0
 10
213.0000000000004
 20
-20.0
 30
0.0
 11
213.00000000000031
 21
-364.82880203500957
 31
0.0
  0
LINE
  5
DEF
  8
SIZE
  6
CONTINUOUS
 62
     0
 10
195.00000000000031
 20
-334.82880203500957
 30
0.0
 11
203.00000000000031
 21
-334.82880203500957
 31
0.0
  0
TEXT
  8
0
  40
64
  5
E58
  62
0
  72
0
  71
0
 10
159.613
 20
-407.149
 30
0.000000
  1
28
  0
INSERT
  5
DF1
  8
SIZE
  6
CONTINUOUS
 62
     0
  2
_DOTBLANK
 10
185.0000000000004
 20
-334.82880203500957
 30
0.0
 41
10.0
 42
10.0
 43
10.0
 50
180.0
  0
INSERT
  5
DF2
  8
SIZE
  6
CONTINUOUS
 62
     0
  2
_DOTBLANK
 10
213.00000000000031
 20
-334.82880203500957
 30
0.0
 41
10.0
 42
10.0
 43
10.0
  0
POINT
  5
DF3
  8
DEFPOINTS
  6
CONTINUOUS
 62
     0
 10
185.0000000000004
 20
-20.0
 30
0.0
  0
POINT
  5
DF4
  8
DEFPOINTS
  6
CONTINUOUS
 62
     0
 10
213.0000000000004
 20
0.0
 30
0.0
  0
POINT
  5
DF5
  8
DEFPOINTS
  6
CONTINUOUS
 62
     0
 10
213.00000000000031
 20
-334.82880203500957
 30
0.0
  0
ENDBLK
  5
CBF
  8
0
  0
BLOCK
  8
0
  2
*D15
 70
     1
 10
0.0
 20
0.0
 30
0.0
  3
*D15
  1

  0
LINE
  5
DF6
  8
SIZE
  6
CONTINUOUS
 62
     0
 10
-204.0
 20
-20.0
 30
0.0
 11
-204.0
 21
-500.47583155258081
 31
0.0
  0
LINE
  5
DF7
  8
SIZE
  6
CONTINUOUS
 62
     0
 10
213.0
 20
-20.0
 30
0.0
 11
212.99999999999989
 21
-500.47583155258081
 31
0.0
  0
LINE
  5
DF8
  8
SIZE
  6
CONTINUOUS
 62
     0
 10
-194.0
 20
-470.47583155258093
 30
0.0
 11
202.99999999999989
 21
-470.47583155258093
 31
0.0
  0
INSERT
  5
DF9
  8
SIZE
  6
CONTINUOUS
 62
     0
  2
_DOTBLANK
 10
-204.0
 20
-470.47583155258093
 30
0.0
 41
10.0
 42
10.0
 43
10.0
 50
180.0
  0
INSERT
  5
DFA
  8
SIZE
  6
CONTINUOUS
 62
     0
  2
_DOTBLANK
 10
212.99999999999989
 20
-470.47583155258093
 30
0.0
 41
10.0
 42
10.0
 43
10.0
  0
TEXT
  8
0
  40
64
  5
E59
  62
0
  72
0
  71
0
 10
-123.500
 20
-551.666
 30
0.000000
  1
417
  0
POINT
  5
DFC
  8
DEFPOINTS
  6
CONTINUOUS
 62
     0
 10
-204.0
 20
0.0
 30
0.0
  0
POINT
  5
DFD
  8
DEFPOINTS
  6
CONTINUOUS
 62
     0
 10
213.0
 20
0.0
 30
0.0
  0
POINT
  5
DFE
  8
DEFPOINTS
  6
CONTINUOUS
 62
     0
 10
212.99999999999989
 20
-470.47583155258093
 30
0.0
  0
ENDBLK
  5
CCB
  8
0
  0
BLOCK
  8
0
  2
*D16
 70
     1
 10
0.0
 20
0.0
 30
0.0
  3
*D16
  1

  0
LINE
  5
DE2
  8
SIZE
  6
CONTINUOUS
 62
     0
 10
-184.9999999999994
 20
-40.0
 30
0.0
 11
-184.9999999999994
 21
-364.82880203500957
 31
0.0
  0
LINE
  5
DE3
  8
SIZE
  6
CONTINUOUS
 62
     0
 10
-204.0
 20
-20.0
 30
0.0
 11
-204.0
 21
-364.82880203500957
 31
0.0
  0
LINE
  5
DE4
  8
SIZE
  6
CONTINUOUS
 62
     0
 10
-174.9999999999994
 20
-334.82880203500957
 30
0.0
 11
-164.9999999999994
 21
-334.82880203500957
 31
0.0
  0
LINE
  5
DE5
  8
SIZE
  6
CONTINUOUS
 62
     0
 10
-214.0
 20
-334.82880203500957
 30
0.0
 11
-224.0
 21
-334.82880203500957
 31
0.0
  0
TEXT
  8
0
  40
64
  5
E5A
  62
0
  72
0
  71
0
 10
-405.498
 20
-407.149
 30
0.000000
  1
19
  0
LINE
  5
DE7
  8
SIZE
  6
CONTINUOUS
 62
     0
 10
-184.9999999999994
 20
-334.82880203500957
 30
0.0
 11
-204.0
 21
-334.82880203500957
 31
0.0
  0
INSERT
  5
DE8
  8
SIZE
  6
CONTINUOUS
 62
     0
  2
_DOTBLANK
 10
-184.9999999999994
 20
-334.82880203500957
 30
0.0
 41
10.0
 42
10.0
 43
10.0
 50
180.0
  0
INSERT
  5
DE9
  8
SIZE
  6
CONTINUOUS
 62
     0
  2
_DOTBLANK
 10
-204.0
 20
-334.82880203500957
 30
0.0
 41
10.0
 42
10.0
 43
10.0
  0
POINT
  5
DEA
  8
DEFPOINTS
  6
CONTINUOUS
 62
     0
 10
-184.9999999999994
 20
-20.0
 30
0.0
  0
POINT
  5
DEB
  8
DEFPOINTS
  6
CONTINUOUS
 62
     0
 10
-204.0
 20
0.0
 30
0.0
  0
POINT
  5
DEC
  8
DEFPOINTS
  6
CONTINUOUS
 62
     0
 10
-204.0
 20
-334.82880203500957
 30
0.0
  0
ENDBLK
  5
CD9
  8
0
  0
BLOCK
  8
0
  2
*D17
 70
     1
 10
0.0
 20
0.0
 30
0.0
  3
*D17
  1

  0
LINE
  5
DD9
  8
SIZE
  6
CONTINUOUS
 62
     0
 10
-184.9999999999994
 20
-40.0
 30
0.0
 11
-184.9999999999994
 21
-364.82880203500957
 31
0.0
  0
LINE
  5
DDA
  8
SIZE
  6
CONTINUOUS
 62
     0
 10
185.0000000000004
 20
-40.0
 30
0.0
 11
185.0000000000004
 21
-364.82880203500957
 31
0.0
  0
LINE
  5
DDB
  8
SIZE
  6
CONTINUOUS
 62
     0
 10
-174.9999999999994
 20
-334.82880203500957
 30
0.0
 11
175.00000000000031
 21
-334.82880203500957
 31
0.0
  0
INSERT
  5
DDC
  8
SIZE
  6
CONTINUOUS
 62
     0
  2
_DOTBLANK
 10
-184.9999999999994
 20
-334.82880203500957
 30
0.0
 41
10.0
 42
10.0
 43
10.0
 50
180.0
  0
INSERT
  5
DDD
  8
SIZE
  6
CONTINUOUS
 62
     0
  2
_DOTBLANK
 10
185.0000000000004
 20
-334.82880203500957
 30
0.0
 41
10.0
 42
10.0
 43
10.0
  0
TEXT
  8
0
  40
64
  5
E5B
  62
0
  72
0
  71
0
 10
-128.000
 20
-416.019
 30
0.000000
  1
370
  0
POINT
  5
DDF
  8
DEFPOINTS
  6
CONTINUOUS
 62
     0
 10
-184.9999999999994
 20
-20.0
 30
0.0
  0
POINT
  5
DE0
  8
DEFPOINTS
  6
CONTINUOUS
 62
     0
 10
185.0000000000004
 20
-20.0
 30
0.0
  0
POINT
  5
DE1
  8
DEFPOINTS
  6
CONTINUOUS
 62
     0
 10
185.0000000000004
 20
-334.82880203500957
 30
0.0
  0
ENDBLK
  5
CE5
  8
0
  0
BLOCK
  8
0
  2
*D18
 70
     1
 10
0.0
 20
0.0
 30
0.0
  3
*D18
  1

  0
LINE
  5
E3E
  8
SIZE
  6
CONTINUOUS
 62
     0
 10
-165.0
 20
963.0
 30
0.0
 11
-164.99999999999989
 21
1288.309660749763
 31
0.0
  0
LINE
  5
E3F
  8
SIZE
  6
CONTINUOUS
 62
     0
 10
165.0
 20
963.0
 30
0.0
 11
165.0
 21
1288.309660749763
 31
0.0
  0
LINE
  5
E40
  8
SIZE
  6
CONTINUOUS
 62
     0
 10
-154.99999999999989
 20
1258.309660749763
 30
0.0
 11
155.0
 21
1258.309660749763
 31
0.0
  0
INSERT
  5
E41
  8
SIZE
  6
CONTINUOUS
 62
     0
  2
_DOTBLANK
 10
-164.99999999999989
 20
1258.309660749763
 30
0.0
 41
10.0
 42
10.0
 43
10.0
 50
180.0
  0
INSERT
  5
E42
  8
SIZE
  6
CONTINUOUS
 62
     0
  2
_DOTBLANK
 10
165.0
 20
1258.309660749763
 30
0.0
 41
10.0
 42
10.0
 43
10.0
  0
TEXT
  8
0
  40
64
  5
E5C
  62
0
  72
0
  71
0
 10
-128.000
 20
1177.12
 30
0.000000
  1
330
  0
POINT
  5
E44
  8
DEFPOINTS
  6
CONTINUOUS
 62
     0
 10
-165.0
 20
943.0
 30
0.0
  0
POINT
  5
E45
  8
DEFPOINTS
  6
CONTINUOUS
 62
     0
 10
165.0
 20
943.0
 30
0.0
  0
POINT
  5
E46
  8
DEFPOINTS
  6
CONTINUOUS
 62
     0
 10
165.0
 20
1258.309660749763
 30
0.0
  0
ENDBLK
  5
CF1
  8
0
  0
ENDSEC
  0
SECTION
  2
ENTITIES
  0
CIRCLE
  5
BF2
  8
ARRANGE
  6
CONTINUOUS
 10
0.0
 20
0.0
 30
0.0
 40
40.0
  0
LINE
  5
BF3
  8
DETAIL
  6
CONTINOUS
 10
213.0
 20
0.0
 30
0.0
 11
-204.0
 21
0.0
 31
0.0
  0
POINT
  5
BF4
  8
ARRANGE
  6
CONTINUOUS
 10
0.0
 20
0.0
 30
0.0
  0
LINE
  5
BF5
  8
DETAIL
  6
CONTINOUS
 10
213.0000000000004
 20
33.0
 30
0.0
 11
-204.0
 21
33.0
 31
0.0
  0
CIRCLE
  5
BF6
  8
FIX
  6
CONTINUOUS
 10
-180.0
 20
0.0
 30
0.0
 40
40.0
  0
LINE
  5
BF7
  8
DETAIL
  6
CONTINOUS
 10
-204.0
 20
0.0
 30
0.0
 11
-204.0
 21
33.0
 31
0.0
  0
LINE
  5
BF8
  8
BASIS
  6
DASHDOT
 10
0.0
 20
-50.635823000000073
 30
0.0
 11
0.0
 21
985.82556143499994
 31
0.0
  0
LINE
  5
BF9
  8
NOTE
  6
CONTINOUS
 10
-184.9999999999994
 20
-20.0
 30
0.0
 11
-184.9999999999994
 21
20.0
 31
0.0
  0
LINE
  5
BFA
  8
NOTE
  6
CONTINUOUS
 10
-984.87190399999884
 20
-290.07775399999991
 30
0.0
 11
-405.06510199999929
 21
-290.07775399999991
 31
0.0
  0
TEXT
  5
BFB
  8
NOTE
  6
CONTINUOUS
 10
-930.045885
 20
-274.97545300000002
 30
0.0
 40
64.0
  1
AH 2-U cut
 41
0.9
  0
LINE
  5
BFC
  8
NOTE
  6
CONTINUOUS
 10
-405.06510199999929
 20
-290.07775399999991
 30
0.0
 11
-184.9999999999994
 21
0.0
 31
0.0
  0
LINE
  5
BFD
  8
NOTE
  6
CONTINOUS
 10
-164.9999999999994
 20
0.0
 30
0.0
 11
-204.9999999999994
 21
0.0
 31
0.0
  0
LINE
  5
BFE
  8
NOTE
  6
CONTINUOUS
 10
-184.9999999999994
 20
0.0
 30
0.0
 11
-200.10423999999941
 21
-37.038654999999828
 31
0.0
  0
LINE
  5
BFF
  8
NOTE
  6
CONTINUOUS
 10
-184.9999999999994
 20
0.0
 30
0.0
 11
-216.59998299999961
 21
-24.524295000000158
 31
0.0
  0
LINE
  5
C00
  8
DETAIL
  6
CONTINOUS
 10
-165.0
 20
33.0
 30
0.0
 11
-165.0
 21
943.0
 31
0.0
  0
CIRCLE
  5
C01
  8
FIX
  6
CONTINUOUS
 10
185.0000000000004
 20
0.0
 30
0.0
 40
40.0
  0
LINE
  5
C02
  8
DETAIL
  6
CONTINOUS
 10
213.0
 20
0.0
 30
0.0
 11
213.0000000000004
 21
33.0
 31
0.0
  0
LINE
  5
C03
  8
NOTE
  6
CONTINOUS
 10
185.0000000000004
 20
-20.0
 30
0.0
 11
185.0000000000004
 21
20.0
 31
0.0
  0
LINE
  5
C04
  8
NOTE
  6
CONTINUOUS
 10
989.87190399999974
 20
-290.07775399999991
 30
0.0
 11
410.06510199999991
 21
-290.07775399999991
 31
0.0
  0
TEXT
  5
C05
  8
NOTE
  6
CONTINUOUS
 10
435.29731299999992
 20
-274.97545300000002
 30
0.0
 40
64.0
  1
AH 2-12×36
 41
0.9
  0
LINE
  5
C06
  8
NOTE
  6
CONTINUOUS
 10
405.06510200000019
 20
-290.07775399999991
 30
0.0
 11
185.0000000000004
 21
0.0
 31
0.0
  0
LINE
  5
C07
  8
NOTE
  6
CONTINOUS
 10
205.0000000000004
 20
0.0
 30
0.0
 11
165.00000000000031
 21
0.0
 31
0.0
  0
LINE
  5
C08
  8
NOTE
  6
CONTINUOUS
 10
185.0000000000004
 20
0.0
 30
0.0
 11
200.1042400000004
 21
-37.038654999999828
 31
0.0
  0
LINE
  5
C09
  8
NOTE
  6
CONTINUOUS
 10
185.0000000000004
 20
0.0
 30
0.0
 11
216.59998300000041
 21
-24.524295000000158
 31
0.0
  0
TEXT
  5
C0A
  8
ETC
  6
CONTINUOUS
 10
1186.283529295371
 20
-163.22259585703691
 30
0.0
 40
64.0
  1
SMPU2915
 41
0.9
  0
LINE
  5
C0B
  8
DETAIL
  6
CONTINOUS
 10
165.0
 20
33.0
 30
0.0
 11
165.0
 21
943.0
 31
0.0
  0
LINE
  5
C0C
  8
BASIS
  6
DASHDOT
 10
255.42919599999999
 20
472.99999999953889
 30
0.0
 11
105.7262629999998
 21
472.99999999953889
 31
0.0
  0
TEXT
  5
C0D
  8
ETC
  6
CONTINUOUS
 10
1184.763745890496
 20
-282.38919685703678
 30
0.0
 40
64.0
  1
室外機
 41
0.9
  0
LINE
  5
C0E
  8
DETAIL
  6
CONTINUOUS
 10
165.0
 20
943.0
 30
0.0
 11
-165.0
 21
943.0
 31
0.0
  0
LINE
  5
C0F
  8
DETAIL
  6
CONTINUOUS
 10
195.0000000000004
 20
762.00000000000102
 30
0.0
 11
165.0
 21
762.00000000000102
 31
0.0
  0
LINE
  5
C10
  8
DETAIL
  6
CONTINUOUS
 10
195.0000000000004
 20
183.9999999999994
 30
0.0
 11
165.0
 21
183.9999999999994
 31
0.0
  0
LINE
  5
C11
  8
DETAIL
  6
CONTINUOUS
 10
195.0000000000004
 20
183.9999999999994
 30
0.0
 11
195.0000000000004
 21
762.00000000000102
 31
0.0
  0
LINE
  5
C12
  8
NOTE
  6
CONTINOUS
 10
120.0000000000003
 20
467.0
 30
0.0
 11
120.0000000000003
 21
427.0
 31
0.0
  0
LINE
  5
C13
  8
NOTE
  6
CONTINOUS
 10
140.00000000000031
 20
447.0
 30
0.0
 11
100.0000000000003
 21
447.0
 31
0.0
  0
LINE
  5
C14
  8
NOTE
  6
CONTINOUS
 10
129.0000000000004
 20
443.0
 30
0.0
 11
89.000000000000455
 21
443.0
 31
0.0
  0
LINE
  5
C15
  8
NOTE
  6
CONTINOUS
 10
109.0000000000004
 20
463.0
 30
0.0
 11
109.0000000000004
 21
423.0
 31
0.0
  0
LINE
  5
C16
  8
NOTE
  6
CONTINOUS
 10
165.0
 20
682.99999999999989
 30
0.0
 11
165.0
 21
642.99999999999977
 31
0.0
  0
LINE
  5
C17
  8
NOTE
  6
CONTINOUS
 10
185.0
 20
662.99999999999989
 30
0.0
 11
145.0
 21
662.99999999999989
 31
0.0
  0
LINE
  5
C18
  8
NOTE
  6
CONTINUOUS
 10
-185.1642750573248
 20
692.19470693964081
 30
0.0
 11
-558.87183869953003
 21
692.19470693964081
 31
0.0
  0
TEXT
  5
C19
  8
NOTE
  6
CONTINUOUS
 10
-549.02736767803594
 20
710.65196801666104
 30
0.0
 40
64.0
  1
RL%%C9.52
 41
0.9
  0
LINE
  5
C1A
  8
NOTE
  6
CONTINUOUS
 10
-616.74467075567497
 20
218.13289365362951
 30
0.0
 11
-211.4379246685539
 21
218.13289365362951
 31
0.0
  0
TEXT
  5
C1B
  8
NOTE
  6
CONTINUOUS
 10
-607.57852589356378
 20
233.9322089022607
 30
0.0
 40
64.0
  1
RG%%C15.88
 41
0.9
  0
LINE
  5
C1C
  8
NOTE
  6
CONTINUOUS
 10
-468.46833820998989
 20
975.55160883574058
 30
0.0
 11
-223.9952859049238
 21
975.55160883574058
 31
0.0
  0
TEXT
  5
C1D
  8
NOTE
  6
CONTINUOUS
 10
-453.68803320999081
 20
990.65390983574059
 30
0.0
 40
64.0
  1
EL,CL
 41
0.9
  0
DIMENSION
  5
C1E
  8
SIZE
  6
CONTINUOUS
  2
*D17
 10
185.0000000000004
 20
-334.82880203500957
 30
0.0
 11
0.0000000000004851
 21
-302.7388020350096
 31
0.0
 70
     0
 13
-184.9999999999994
 23
-20.0
 33
0.0
 14
185.0000000000004
 24
-20.0
 34
0.0
1001
ACAD
1000
DSTYLE
1002
{
1070
     6
1000
DOTBLANK
1070
     7
1000
DOTBLANK
1070
    41
1040
10.0
1070
    42
1040
20.0
1070
    43
1040
200.0
1070
    44
1040
30.0
1070
    73
1070
     0
1070
    74
1070
     0
1070
    77
1070
     1
1070
    78
1070
     8
1070
   140
1040
64.0
1070
   172
1070
     1
1070
   173
1070
     1
1002
}
  0
DIMENSION
  5
C1F
  8
SIZE
  6
CONTINUOUS
  2
*D16
 10
-204.0
 20
-334.82880203500957
 30
0.0
 11
-277.49778177725869
 21
-293.86886305287129
 31
0.0
 70
   128
 13
-184.9999999999994
 23
-20.0
 33
0.0
 14
-204.0
 24
0.0
 34
0.0
1001
ACAD
1000
DSTYLE
1002
{
1070
     6
1000
DOTBLANK
1070
     7
1000
DOTBLANK
1070
    41
1040
10.0
1070
    42
1040
20.0
1070
    43
1040
200.0
1070
    44
1040
30.0
1070
    73
1070
     0
1070
    74
1070
     0
1070
    77
1070
     1
1070
    78
1070
     8
1070
   140
1040
64.0
1070
   172
1070
     1
1070
   173
1070
     1
1002
}
  0
DIMENSION
  5
C20
  8
SIZE
  6
CONTINUOUS
  2
*D14
 10
213.00000000000031
 20
-334.82880203500957
 30
0.0
 11
287.61343710425808
 21
-293.86886305287129
 31
0.0
 70
   128
 13
185.0000000000004
 23
-20.0
 33
0.0
 14
213.0000000000004
 24
0.0
 34
0.0
1001
ACAD
1000
DSTYLE
1002
{
1070
     6
1000
DOTBLANK
1070
     7
1000
DOTBLANK
1070
    41
1040
10.0
1070
    42
1040
20.0
1070
    43
1040
200.0
1070
    44
1040
30.0
1070
    73
1070
     0
1070
    74
1070
     0
1070
    77
1070
     1
1070
    78
1070
     8
1070
   140
1040
64.0
1070
   172
1070
     1
1070
   173
1070
     1
1002
}
  0
DIMENSION
  5
C21
  8
SIZE
  6
CONTINUOUS
  2
*D15
 10
212.99999999999989
 20
-470.47583155258093
 30
0.0
 11
4.4999999999999734
 21
-438.38583155258078
 31
0.0
 70
     0
 13
-204.0
 23
0.0
 33
0.0
 14
213.0
 24
0.0
 34
0.0
1001
ACAD
1000
DSTYLE
1002
{
1070
     6
1000
DOTBLANK
1070
     7
1000
DOTBLANK
1070
    41
1040
10.0
1070
    42
1040
20.0
1070
    43
1040
200.0
1070
    44
1040
30.0
1070
    73
1070
     0
1070
    74
1070
     0
1070
    77
1070
     1
1070
    78
1070
     8
1070
   140
1040
64.0
1070
   172
1070
     1
1070
   173
1070
     1
1002
}
  0
DIMENSION
  5
C22
  8
SIZE
  6
CONTINUOUS
  2
*D13
 10
474.52184316789948
 20
442.99999999999989
 30
0.0
 11
442.43184316789939
 21
221.5
 31
0.0
 70
     0
 13
213.0
 23
0.0
 33
0.0
 14
129.0000000000004
 24
443.0
 34
0.0
 50
90.0
1001
ACAD
1000
DSTYLE
1002
{
1070
     6
1000
DOTBLANK
1070
     7
1000
DOTBLANK
1070
    41
1040
10.0
1070
    42
1040
20.0
1070
    43
1040
200.0
1070
    44
1040
30.0
1070
    73
1070
     0
1070
    74
1070
     0
1070
    77
1070
     1
1070
    78
1070
     8
1070
   140
1040
64.0
1070
   172
1070
     1
1070
   173
1070
     1
1002
}
  0
DIMENSION
  5
C23
  8
SIZE
  6
CONTINUOUS
  2
*D12
 10
609.27149711922266
 20
446.99999999999977
 30
0.0
 11
577.18149711922251
 21
223.49999999999989
 31
0.0
 70
     0
 13
213.0
 23
0.0
 33
0.0
 14
140.00000000000031
 24
447.0
 34
0.0
 50
90.0
1001
ACAD
1000
DSTYLE
1002
{
1070
     6
1000
DOTBLANK
1070
     7
1000
DOTBLANK
1070
    41
1040
10.0
1070
    42
1040
20.0
1070
    43
1040
200.0
1070
    44
1040
30.0
1070
    73
1070
     0
1070
    74
1070
     0
1070
    77
1070
     1
1070
    78
1070
     8
1070
   140
1040
64.0
1070
   172
1070
     1
1070
   173
1070
     1
1002
}
  0
DIMENSION
  5
C24
  8
SIZE
  6
CONTINUOUS
  2
*D11
 10
762.15981278839979
 20
472.99999999953872
 30
0.0
 11
730.06981278839964
 21
236.49999999976939
 31
0.0
 70
     0
 13
213.0
 23
0.0
 33
0.0
 14
255.42919599999999
 24
472.99999999953889
 34
0.0
 50
90.0
1001
ACAD
1000
DSTYLE
1002
{
1070
     6
1000
DOTBLANK
1070
     7
1000
DOTBLANK
1070
    41
1040
10.0
1070
    42
1040
20.0
1070
    43
1040
200.0
1070
    44
1040
30.0
1070
    73
1070
     0
1070
    74
1070
     0
1070
    77
1070
     1
1070
    78
1070
     8
1070
   140
1040
64.0
1070
   172
1070
     1
1070
   173
1070
     1
1002
}
  0
DIMENSION
  5
C26
  8
SIZE
  6
CONTINUOUS
  2
*D10
 10
1057.765949841513
 20
942.99999999999966
 30
0.0
 11
1025.675949841512
 21
471.49999999999989
 31
0.0
 70
     0
 13
213.0000000000004
 23
0.0
 33
0.0
 14
165.0
 24
943.0
 34
0.0
 50
90.0
1001
ACAD
1000
DSTYLE
1002
{
1070
     6
1000
DOTBLANK
1070
     7
1000
DOTBLANK
1070
    41
1040
10.0
1070
    42
1040
20.0
1070
    43
1040
200.0
1070
    44
1040
30.0
1070
    73
1070
     0
1070
    74
1070
     0
1070
    77
1070
     1
1070
    78
1070
     8
1070
   140
1040
64.0
1070
   172
1070
     1
1070
   173
1070
     1
1002
}
  0
DIMENSION
  5
C27
  8
SIZE
  6
CONTINUOUS
  2
*D9
 10
120.0000000000003
 20
1002.981695314588
 30
0.0
 11
47.550701740143268
 21
1035.712892844406
 31
0.0
 70
   128
 13
165.0
 23
943.0
 33
0.0
 14
120.0000000000003
 24
467.0
 34
0.0
1001
ACAD
1000
DSTYLE
1002
{
1070
     6
1000
DOTBLANK
1070
     7
1000
DOTBLANK
1070
    41
1040
10.0
1070
    42
1040
20.0
1070
    43
1040
200.0
1070
    44
1040
30.0
1070
    73
1070
     0
1070
    74
1070
     0
1070
    77
1070
     1
1070
    78
1070
     8
1070
   140
1040
64.0
1070
   172
1070
     1
1070
   173
1070
     1
1002
}
  0
DIMENSION
  5
C28
  8
SIZE
  6
CONTINUOUS
  2
*D8
 10
109.0000000000004
 20
1126.2934918139531
 30
0.0
 11
39.919948593830661
 21
1160.3169310559531
 31
0.0
 70
   128
 13
165.0
 23
943.0
 33
0.0
 14
109.0000000000004
 24
463.0
 34
0.0
1001
ACAD
1000
DSTYLE
1002
{
1070
     6
1000
DOTBLANK
1070
     7
1000
DOTBLANK
1070
    41
1040
10.0
1070
    42
1040
20.0
1070
    43
1040
200.0
1070
    44
1040
30.0
1070
    73
1070
     0
1070
    74
1070
     0
1070
    77
1070
     1
1070
    78
1070
     8
1070
   140
1040
64.0
1070
   172
1070
     1
1070
   173
1070
     1
1002
}
  0
DIMENSION
  5
C29
  8
SIZE
  6
CONTINUOUS
  2
*D7
 10
195.0000000000004
 20
1258.309660749763
 30
0.0
 11
281.62857142857172
 21
1258.309660749763
 31
0.0
 70
   128
 13
165.0
 23
943.0
 33
0.0
 14
195.0000000000004
 24
762.00000000000102
 34
0.0
1001
ACAD
1000
DSTYLE
1002
{
1070
     6
1000
DOTBLANK
1070
     7
1000
DOTBLANK
1070
    41
1040
10.0
1070
    42
1040
20.0
1070
    43
1040
200.0
1070
    44
1040
30.0
1070
    73
1070
     0
1070
    74
1070
     0
1070
    77
1070
     1
1070
    78
1070
     8
1070
   140
1040
64.0
1070
   172
1070
     1
1070
   173
1070
     1
1002
}
  0
LINE
  5
C2A
  8
NOTE
  6
CONTINUOUS
 10
109.0000000000004
 20
443.0
 30
0.0
 11
83.320188402750304
 21
412.33165628019088
 31
0.0
  0
LINE
  5
C2B
  8
NOTE
  6
CONTINUOUS
 10
-211.4379246685539
 20
218.13289365362951
 30
0.0
 11
109.0000000000004
 21
443.0
 31
0.0
  0
LINE
  5
C2C
  8
NOTE
  6
CONTINUOUS
 10
109.0000000000004
 20
443.0
 30
0.0
 11
71.426459326506574
 21
429.2803421287328
 31
0.0
  0
LINE
  5
C2D
  8
NOTE
  6
CONTINUOUS
 10
-185.1642750573248
 20
692.19470693964081
 30
0.0
 11
120.0000000000003
 21
447.0
 31
0.0
  0
LINE
  5
C2E
  8
NOTE
  6
CONTINUOUS
 10
120.0000000000003
 20
447.0
 30
0.0
 11
96.365256843592306
 21
479.27071252355501
 31
0.0
  0
LINE
  5
C2F
  8
NOTE
  6
CONTINUOUS
 10
120.0000000000003
 20
447.0
 30
0.0
 11
83.396354718193393
 21
463.12988475688002
 31
0.0
  0
LINE
  5
C30
  8
NOTE
  6
CONTINUOUS
 10
165.0
 20
662.99999999999989
 30
0.0
 11
141.36525684359171
 21
695.27071252355506
 31
0.0
  0
LINE
  5
C31
  8
NOTE
  6
CONTINUOUS
 10
-223.9952859049238
 20
975.55160883574058
 30
0.0
 11
165.0
 21
662.99999999999989
 31
0.0
  0
LINE
  5
C32
  8
NOTE
  6
CONTINUOUS
 10
165.0
 20
662.99999999999989
 30
0.0
 11
128.3963547181929
 21
679.12988475687985
 31
0.0
  0
DIMENSION
  5
C33
  8
SIZE
  6
CONTINUOUS
  2
*D18
 10
165.0
 20
1258.309660749763
 30
0.0
 11
0.0000000000000304
 21
1290.3996607497629
 31
0.0
 70
     0
 13
-165.0
 23
943.0
 33
0.0
 14
165.0
 24
943.0
 34
0.0
1001
ACAD
1000
DSTYLE
1002
{
1070
     6
1000
DOTBLANK
1070
     7
1000
DOTBLANK
1070
    41
1040
10.0
1070
    42
1040
20.0
1070
    43
1040
200.0
1070
    44
1040
30.0
1070
    73
1070
     0
1070
    74
1070
     0
1070
    77
1070
     1
1070
    78
1070
     8
1070
   140
1040
64.0
1070
   172
1070
     1
1070
   173
1070
     1
1002
}
  0
LINE
  5
C34
  8
OUTLINE
 10
195.0
 20
183.9999999999981
 30
0.0
 11
195.0
 21
762.0000000000008
 31
0.0
  0
LINE
  5
C35
  8
OUTLINE
 10
165.0
 20
33.000000000000107
 30
0.0
 11
165.0
 21
943.0
 31
0.0
  0
LINE
  5
C36
  8
OUTLINE
 10
-165.0
 20
33.000000000000107
 30
0.0
 11
-165.0
 21
943.0
 31
0.0
  0
LINE
  5
C37
  8
OUTLINE
 10
213.0
 20
33.000000000000107
 30
0.0
 11
-204.0
 21
33.000000000000107
 31
0.0
  0
LINE
  5
C38
  8
OUTLINE
 10
213.0
 20
0.0000000000001137
 30
0.0
 11
-204.0
 21
0.0000000000001137
 31
0.0
  0
LINE
  5
C39
  8
OUTLINE
 10
-204.0
 20
0.0000000000001137
 30
0.0
 11
-204.0
 21
33.000000000000107
 31
0.0
  0
LINE
  5
C3A
  8
OUTLINE
 10
213.0
 20
0.0000000000001137
 30
0.0
 11
213.0
 21
33.000000000000107
 31
0.0
  0
LINE
  5
C3B
  8
OUTLINE
 10
195.0
 20
183.9999999999981
 30
0.0
 11
165.0
 21
183.9999999999981
 31
0.0
  0
LINE
  5
C3C
  8
OUTLINE
 10
165.0
 20
943.0
 30
0.0
 11
-165.0
 21
943.0
 31
0.0
  0
LINE
  5
C3D
  8
OUTLINE
 10
195.0
 20
762.0000000000008
 30
0.0
 11
165.0
 21
762.0000000000008
 31
0.0
  0
DIMENSION
  5
C40
  8
SIZE
  6
CONTINUOUS
  2
*D6
 10
887.68323291196771
 20
-0.0000000000001911
 30
0.0
 11
855.59323291196768
 21
331.49999999999989
 31
0.0
 70
     0
 13
185.0
 23
662.99999999999989
 33
0.0
 14
213.0
 24
0.0
 34
0.0
 50
90.0
1001
ACAD
1000
DSTYLE
1002
{
1070
   287
1070
     3
1070
     6
1000
DOTBLANK
1070
     7
1000
DOTBLANK
1070
    41
1040
10.0
1070
    42
1040
20.0
1070
    43
1040
200.0
1070
    44
1040
30.0
1070
    73
1070
     0
1070
    74
1070
     0
1070
    77
1070
     1
1070
    78
1070
     8
1070
   140
1040
64.0
1070
   172
1070
     1
1070
   173
1070
     1
1070
   275
1070
     0
1070
   279
1070
     0
1070
   284
1070
     0
1070
   285
1070
     0
1070
   286
1070
     0
1002
}
  0
ENDSEC
  0
EOF
