  0
SECTION
  2
HEADER
  9
$ACADVER
  1
AC1009
  9
$INSBASE
 10
0.0
 20
0.0
 30
0.0
  9
$EXTMIN
 10
-1103.609479033234
 20
-573.01396200505167
 30
0.0
  9
$EXTMAX
 10
1629.0862882590941
 20
1341.1996020614481
 30
1.0049964175586230E+099
  9
$LIMMIN
 10
-1478.984767188912
 20
-862.27330425978107
  9
$LIMMAX
 10
1867.7492873040969
 20
1605.157371737012
  9
$ORTHOMODE
 70
     1
  9
$REGENMODE
 70
     1
  9
$FILLMODE
 70
     1
  9
$QTEXTMODE
 70
     0
  9
$MIRRTEXT
 70
     0
  9
$DRAGMODE
 70
     2
  9
$LTSCALE
 40
20.0
  9
$OSMODE
 70
    37
  9
$ATTMODE
 70
     1
  9
$TEXTSIZE
 40
64.0
  9
$TRACEWID
 40
0.05
  9
$TEXTSTYLE
  7
STANDARD
  9
$CLAYER
  8
SIZE
  9
$CELTYPE
  6
CONTINUOUS
  9
$CECOLOR
 62
   256
  9
$DIMSCALE
 40
1.0
  9
$DIMASZ
 40
10.0
  9
$DIMEXO
 40
20.0
  9
$DIMDLI
 40
200.0
  9
$DIMRND
 40
0.0
  9
$DIMDLE
 40
0.0
  9
$DIMEXE
 40
30.0
  9
$DIMTP
 40
0.0
  9
$DIMTM
 40
0.0
  9
$DIMTXT
 40
64.0
  9
$DIMCEN
 40
0.09
  9
$DIMTSZ
 40
0.0
  9
$DIMTOL
 70
     0
  9
$DIMLIM
 70
     0
  9
$DIMTIH
 70
     0
  9
$DIMTOH
 70
     0
  9
$DIMSE1
 70
     0
  9
$DIMSE2
 70
     0
  9
$DIMTAD
 70
     1
  9
$DIMZIN
 70
     8
  9
$DIMBLK
  1

  9
$DIMASO
 70
     1
  9
$DIMSHO
 70
     0
  9
$DIMPOST
  1

  9
$DIMAPOST
  1

  9
$DIMALT
 70
     0
  9
$DIMALTD
 70
     2
  9
$DIMALTF
 40
25.399999999999999
  9
$DIMLFAC
 40
1.0
  9
$DIMTOFL
 70
     1
  9
$DIMTVP
 40
0.0
  9
$DIMTIX
 70
     0
  9
$DIMSOXD
 70
     0
  9
$DIMSAH
 70
     1
  9
$DIMBLK1
  1

  9
$DIMBLK2
  1

  9
$DIMSTYLE
  2
STANDARD
  9
$DIMCLRD
 70
     0
  9
$DIMCLRE
 70
     0
  9
$DIMCLRT
 70
     0
  9
$DIMTFAC
 40
1.0
  9
$DIMGAP
 40
0.09
  9
$LUNITS
 70
     2
  9
$LUPREC
 70
     4
  9
$SKETCHINC
 40
0.1
  9
$FILLETRAD
 40
6.0
  9
$AUNITS
 70
     1
  9
$AUPREC
 70
     3
  9
$MENU
  1
ACAD
  9
$ELEVATION
 40
0.0
  9
$PELEVATION
 40
0.0
  9
$THICKNESS
 40
0.0
  9
$LIMCHECK
 70
     0
  9
$BLIPMODE
 70
     0
  9
$CHAMFERA
 40
0.0
  9
$CHAMFERB
 40
0.0
  9
$SKPOLY
 70
     0
  9
$TDCREATE
 40
2450330.3932059952
  9
$TDUPDATE
 40
2453256.5813852078
  9
$TDINDWG
 40
0.1493554861
  9
$TDUSRTIMER
 40
0.1493552546
  9
$USRTIMER
 70
     1
  9
$ANGBASE
 50
0.0
  9
$ANGDIR
 70
     0
  9
$PDMODE
 70
     3
  9
$PDSIZE
 40
-2.0
  9
$PLINEWID
 40
0.0
  9
$COORDS
 70
     1
  9
$SPLFRAME
 70
     0
  9
$SPLINETYPE
 70
     6
  9
$SPLINESEGS
 70
     8
  9
$ATTDIA
 70
     0
  9
$ATTREQ
 70
     1
  9
$HANDLING
 70
-16383
  9
$HANDSEED
  5
1004
  9
$SURFTAB1
 70
     6
  9
$SURFTAB2
 70
     6
  9
$SURFTYPE
 70
     6
  9
$SURFU
 70
     6
  9
$SURFV
 70
     6
  9
$UCSNAME
  2

  9
$UCSORG
 10
0.0
 20
0.0
 30
0.0
  9
$UCSXDIR
 10
1.0
 20
0.0
 30
0.0
  9
$UCSYDIR
 10
0.0
 20
1.0
 30
0.0
  9
$PUCSNAME
  2

  9
$PUCSORG
 10
0.0
 20
0.0
 30
0.0
  9
$PUCSXDIR
 10
1.0
 20
0.0
 30
0.0
  9
$PUCSYDIR
 10
0.0
 20
1.0
 30
0.0
  9
$USERI1
 70
     0
  9
$USERI2
 70
     0
  9
$USERI3
 70
     0
  9
$USERI4
 70
     0
  9
$USERI5
 70
     0
  9
$USERR1
 40
20.0
  9
$USERR2
 40
0.0
  9
$USERR3
 40
0.0
  9
$USERR4
 40
0.0
  9
$USERR5
 40
0.0
  9
$WORLDVIEW
 70
     1
  9
$SHADEDGE
 70
     3
  9
$SHADEDIF
 70
    70
  9
$TILEMODE
 70
     1
  9
$MAXACTVP
 70
    64
  9
$PLIMCHECK
 70
     0
  9
$PEXTMIN
 10
1.0000000000000000E+020
 20
1.0000000000000000E+020
 30
1.0000000000000000E+020
  9
$PEXTMAX
 10
-1.0000000000000000E+020
 20
-1.0000000000000000E+020
 30
-1.0000000000000000E+020
  9
$PLIMMIN
 10
0.0
 20
0.0
  9
$PLIMMAX
 10
12.0
 20
9.0
  9
$UNITMODE
 70
     0
  9
$VISRETAIN
 70
     1
  9
$PLINEGEN
 70
     0
  9
$PSLTSCALE
 70
     1
  0
ENDSEC
  0
SECTION
  2
TABLES
  0
TABLE
  2
VPORT
 70
     2
  0
VPORT
  2
*ACTIVE
 70
     0
 10
0.0
 20
0.0
 11
1.0
 21
1.0
 12
479.58054086487482
 22
295.01789860776438
 13
0.0
 23
0.0
 14
50.0
 24
50.0
 15
100.0
 25
100.0
 16
0.0
 26
0.0
 36
1.0
 17
0.0
 27
0.0
 37
0.0
 40
3422.3281949438579
 41
1.272189349112425
 42
50.0
 43
0.0
 44
0.0
 50
0.0
 51
0.0
 71
     0
 72
   500
 73
     1
 74
     0
 75
     0
 76
     0
 77
     0
 78
     0
  0
ENDTAB
  0
TABLE
  2
LTYPE
 70
     8
  0
LTYPE
  2
CONTINUOUS
 70
     0
  3
実線
 72
    65
 73
     0
 40
0.0
  0
LTYPE
  2
DASHDOT
 70
     0
  3
____ _ ____ _ ____ _ ____ _ ____ _ ____ _ ____
 72
    65
 73
     4
 40
5.5
 49
4.0
 49
-0.6
 49
0.3
 49
-0.6
  0
LTYPE
  2
CONTINOUS
 70
     0
  3
Solid line
 72
    65
 73
     0
 40
0.0
  0
LTYPE
  2
DASHED
 70
     0
  3
_ _ _ _ _ _ _ _ _ _ _ _ _ _ _ _ _ _ _ _ _ _ _
 72
    65
 73
     2
 40
2.0
 49
1.1999999999999991
 49
-0.8
  0
LTYPE
  2
DOT
 70
     0
  3
...............................................
 72
    65
 73
     2
 40
0.8
 49
0.5
 49
-0.3
  0
LTYPE
  2
DASHDOT1
 70
     0
  3
____ _ ____ _ ____ _ ____ _ ____ _ ____ _ ____
 72
    65
 73
     4
 40
2.0
 49
1.5
 49
-0.2
 49
0.1
 49
-0.2
  0
LTYPE
  2
DIVIDE
 70
     0
  3
_____ _ _ _____ _ _ _____ _ _ _____ _ _ ____
 72
    65
 73
     6
 40
6.4000000000000004
 49
4.0
 49
-0.6
 49
0.3
 49
-0.6
 49
0.3
 49
-0.6
  0
LTYPE
  2
DIVIDE1
 70
     0
  3
_____ _ _ _____ _ _ _____ _ _ _____ _ _ ____
 72
    65
 73
     6
 40
3.2000000000000002
 49
2.0
 49
-0.3
 49
0.15
 49
-0.3
 49
0.15
 49
-0.3
  0
ENDTAB
  0
TABLE
  2
LAYER
 70
    12
  0
LAYER
  2
0
 70
     0
 62
     7
  6
CONTINUOUS
  0
LAYER
  2
SIZE
 70
     0
 62
    32
  6
CONTINUOUS
  0
LAYER
  2
DETAIL
 70
     0
 62
     5
  6
CONTINUOUS
  0
LAYER
  2
OUTLINE
 70
     0
 62
     3
  6
CONTINUOUS
  0
LAYER
  2
BASIS
 70
     0
 62
     6
  6
CONTINUOUS
  0
LAYER
  2
NOTE
 70
     0
 62
     4
  6
CONTINUOUS
  0
LAYER
  2
ARRANGE
 70
     0
 62
     1
  6
CONTINUOUS
  0
LAYER
  2
FIX
 70
     0
 62
   241
  6
CONTINUOUS
  0
LAYER
  2
ETC
 70
     0
 62
    83
  6
CONTINUOUS
  0
LAYER
  2
SERVICESPACE
 70
     0
 62
     2
  6
CONTINUOUS
  0
LAYER
  2
SYMBOLLINE
 70
     0
 62
    38
  6
CONTINUOUS
  0
LAYER
  2
DEFPOINTS
 70
     0
 62
     7
  6
CONTINUOUS
  0
ENDTAB
  0
TABLE
  2
STYLE
 70
     2
  0
STYLE
  2
STANDARD
 70
     0
 40
0.0
 41
0.9
 50
0.0
 71
     0
 42
64.0
  3
SIMPLEX
  4
BIGFONT
  0
STYLE
  2
STANDARD1
 70
     0
 40
0.0
 41
1.0
 50
0.0
 71
     0
 42
3.2000000000000002
  3
MONOTXT
  4
BIGFONT
  0
ENDTAB
  0
TABLE
  2
VIEW
 70
     1
  0
VIEW
  2
ALL
 70
     0
 40
4282.6199999999999
 10
0.0
 20
41.309903999999989
 41
5940.0
 11
0.0
 21
0.0
 31
1.0
 12
0.0
 22
0.0
 32
0.0
 42
50.0
 43
0.0
 44
0.0
 50
0.0
 71
     0
  0
ENDTAB
  0
TABLE
  2
UCS
 70
     0
  0
ENDTAB
  0
TABLE
  2
APPID
 70
     1
  0
APPID
  2
ACAD
 70
     0
  0
ENDTAB
  0
TABLE
  2
DIMSTYLE
 70
     1
  0
DIMSTYLE
  2
STANDARD
 70
     0
  3

  4

  5

  6

  7

 40
1.0
 41
0.18
 42
0.0625
 43
0.38
 44
0.18
 45
0.0
 46
0.0
 47
0.0
 48
0.0
140
0.18
141
0.09
142
0.0
143
25.399999999999999
144
1.0
145
0.0
146
1.0
147
0.09
 71
     0
 72
     0
 73
     1
 74
     1
 75
     0
 76
     0
 77
     0
 78
     0
170
     0
171
     2
172
     0
173
     0
174
     0
175
     0
176
     0
177
     0
178
     0
  0
ENDTAB
  0
ENDSEC
  0
SECTION
  2
BLOCKS
  0
BLOCK
  8
0
  2
$MODEL_SPACE
 70
     0
 10
0.0
 20
0.0
 30
0.0
  3
$MODEL_SPACE
  1

  0
ENDBLK
  5
703
  8
0
  0
BLOCK
 67
     1
  8
0
  2
$PAPER_SPACE
 70
     0
 10
0.0
 20
0.0
 30
0.0
  3
$PAPER_SPACE
  1

  0
ENDBLK
  5
6FF
 67
     1
  8
0
  0
BLOCK
  8
0
  2
A$C5F2C697A
 70
     0
 10
0.0
 20
0.0
 30
0.0
  3
A$C5F2C697A
  1

  0
TEXT
  5
726
  8
SIZE
  6
BYBLOCK
 10
910.8147643978815
 20
127.36127978650261
 30
0.0
 40
64.0
  1
370
 41
0.9
  0
LINE
  5
727
  8
SIZE
  6
BYBLOCK
 10
801.8719073978815
 20
95.361279786502593
 30
0.0
 11
1167.87190739788
 21
95.361279786502593
 31
0.0
  0
TEXT
  5
728
  8
SIZE
  6
BYBLOCK
 10
915.81476439788139
 20
1424.5027517865019
 30
0.0
 40
64.0
  1
330
 41
0.9
  0
LINE
  5
729
  8
SIZE
  6
BYBLOCK
 10
826.8719073978815
 20
1392.5027517865019
 30
0.0
 11
1152.87190739788
 21
1392.5027517865019
 31
0.0
  0
LINE
  5
72A
  8
OUTLINE
  6
CONTINUOUS
 10
771.8719063978815
 20
290.07775178650252
 30
0.0
 11
1183.871906397881
 21
290.07775178650252
 31
0.0
  0
LINE
  5
72B
  8
OUTLINE
  6
CONTINUOUS
 10
771.8719063978815
 20
323.07775178650252
 30
0.0
 11
1183.871906397881
 21
323.07775178650252
 31
0.0
  0
LINE
  5
72C
  8
OUTLINE
  6
CONTINUOUS
 10
824.87190639788139
 20
1145.0777517865019
 30
0.0
 11
1154.8719063978799
 21
1145.0777517865019
 31
0.0
  0
CIRCLE
  5
72D
  8
ARRANGE
  6
CONTINUOUS
 10
989.87190639788139
 20
290.07775178650252
 30
0.0
 40
40.0
  0
LINE
  5
72E
  8
DETAIL
  6
CONTINOUS
 10
771.8719063978815
 20
290.07775178650252
 30
0.0
 11
1183.871906397881
 21
290.07775178650252
 31
0.0
  0
LINE
  5
72F
  8
DETAIL
  6
CONTINOUS
 10
824.87190639788139
 20
1145.0777517865019
 30
0.0
 11
1154.8719063978799
 21
1145.0777517865019
 31
0.0
  0
TEXT
  5
730
  8
NOTE
  6
CONTINUOUS
 10
973.9808703978814
 20
913.84623078650259
 30
0.0
 40
64.0
  1
EL,CL
 41
0.9
  0
LINE
  5
731
  8
NOTE
  6
CONTINUOUS
 10
879.8719063978815
 20
686.07775178650252
 30
0.0
 11
1040.77148939788
 21
625.20405378650253
 31
0.0
  0
LINE
  5
732
  8
NOTE
  6
CONTINUOUS
 10
1205.83098439788
 20
895.38895978650271
 30
0.0
 11
918.87085639788165
 21
895.38895978650271
 31
0.0
  0
POINT
  5
733
  8
ARRANGE
  6
CONTINUOUS
 10
989.87190639788139
 20
290.07775178650252
 30
0.0
  0
LINE
  5
734
  8
DETAIL
  6
CONTINOUS
 10
771.8719063978815
 20
323.07775178650252
 30
0.0
 11
1183.871906397881
 21
323.07775178650252
 31
0.0
  0
LINE
  5
735
  8
NOTE
  6
CONTINUOUS
 10
882.87190639788139
 20
724.07775178650252
 30
0.0
 11
1040.77148939788
 21
812.30385178650226
 31
0.0
  0
CIRCLE
  5
736
  8
SIZE
  6
CONTINUOUS
 10
220.7875803978813
 20
290.07775178650252
 30
0.0
 40
6.0
  0
CIRCLE
  5
737
  8
SIZE
  6
CONTINUOUS
 10
503.55668139788139
 20
290.07775178650252
 30
0.0
 40
6.0
  0
CIRCLE
  5
738
  8
SIZE
  6
CONTINUOUS
 10
649.74425839788148
 20
290.07775178650252
 30
0.0
 40
6.0
  0
CIRCLE
  5
739
  8
SIZE
  6
CONTINUOUS
 10
350.83505539788138
 20
290.07775178650252
 30
0.0
 40
6.0
  0
LINE
  5
73A
  8
OUTLINE
  6
CONTINUOUS
 10
771.8719063978815
 20
290.07775178650252
 30
0.0
 11
771.8719063978815
 21
323.07775178650252
 31
0.0
  0
CIRCLE
  5
73B
  8
FIX
  6
CONTINUOUS
 10
799.8719063978815
 20
290.07775178650252
 30
0.0
 40
40.0
  0
LINE
  5
73C
  8
DETAIL
  6
CONTINOUS
 10
771.8719063978815
 20
290.07775178650252
 30
0.0
 11
771.8719063978815
 21
323.07775178650252
 31
0.0
  0
LINE
  5
73D
  8
BASIS
  6
DASHDOT
 10
989.87190639788139
 20
239.4419287865025
 30
0.0
 11
989.87190639788139
 21
1184.2961157865011
 31
0.0
  0
LINE
  5
73E
  8
NOTE
  6
CONTINOUS
 10
799.8719063978815
 20
270.0777517865024
 30
0.0
 11
799.8719063978815
 21
310.07775178650252
 31
0.0
  0
LINE
  5
73F
  8
NOTE
  6
CONTINUOUS
 10
0.0000023978816444
 20
-0.000002213497396
 30
0.0
 11
579.80680439788148
 21
-0.000002213497396
 31
0.0
  0
TEXT
  5
740
  8
NOTE
  6
CONTINUOUS
 10
14.78030739788152
 20
15.10229878650267
 30
0.0
 40
64.0
  1
AH 2-12×36
 41
0.9
  0
LINE
  5
741
  8
SIZE
  6
BYBLOCK
 10
715.70171039788136
 20
290.07775178650252
 30
0.0
 11
320.83505539788149
 21
290.07775178650252
 31
0.0
  0
LINE
  5
742
  8
SIZE
  6
BYBLOCK
 10
735.70171039788136
 20
290.07775178650252
 30
0.0
 11
473.55668139788122
 21
290.07775178650252
 31
0.0
  0
LINE
  5
743
  8
SIZE
  6
BYBLOCK
 10
735.70171039788136
 20
290.07775178650252
 30
0.0
 11
190.7875803978813
 21
290.07775178650252
 31
0.0
  0
LINE
  5
744
  8
NOTE
  6
CONTINUOUS
 10
579.80680439788148
 20
-0.000002213497396
 30
0.0
 11
799.8719063978815
 21
290.07775178650252
 31
0.0
  0
TEXT
  5
745
  8
SIZE
  6
BYBLOCK
 10
739.24333539788142
 20
127.36127978650261
 30
0.0
 40
64.0
  1
28
 41
0.9
  0
LINE
  5
746
  8
SIZE
  6
BYBLOCK
 10
735.70171039788136
 20
290.07775178650252
 30
0.0
 11
619.74425839788148
 21
290.07775178650252
 31
0.0
  0
LINE
  5
747
  8
SIZE
  6
BYBLOCK
 10
799.8719073978815
 20
250.0777517865026
 30
0.0
 11
799.8719073978815
 21
65.361279786502621
 31
0.0
  0
LINE
  5
748
  8
SIZE
  6
BYBLOCK
 10
799.8719073978815
 20
250.0777517865026
 30
0.0
 11
799.8719073978815
 21
65.361279786502621
 31
0.0
  0
LINE
  5
749
  8
SIZE
  6
BYBLOCK
 10
771.8719073978815
 20
270.0777517865024
 30
0.0
 11
771.8719073978815
 21
65.361279786502621
 31
0.0
  0
CIRCLE
  5
74A
  8
SIZE
  6
CONTINUOUS
 10
799.8719073978815
 20
95.361279786502593
 30
0.0
 40
6.0
  0
CIRCLE
  5
74B
  8
SIZE
  6
CONTINUOUS
 10
771.8719073978815
 20
95.361279786502593
 30
0.0
 40
6.0
  0
CIRCLE
  5
74C
  8
SIZE
  6
CONTINUOUS
 10
799.8719073978815
 20
95.361279786502593
 30
0.0
 40
6.0
  0
LINE
  5
74D
  8
SIZE
  6
BYBLOCK
 10
799.8719073978815
 20
95.361279786502593
 30
0.0
 11
771.8719073978815
 21
95.361279786502593
 31
0.0
  0
LINE
  5
74E
  8
SIZE
  6
BYBLOCK
 10
769.8719073978815
 20
95.361279786502593
 30
0.0
 11
767.8719073978815
 21
95.361279786502593
 31
0.0
  0
LINE
  5
74F
  8
SIZE
  6
BYBLOCK
 10
801.8719073978815
 20
95.361279786502593
 30
0.0
 11
803.87190739788139
 21
95.361279786502593
 31
0.0
  0
LINE
  5
750
  8
NOTE
  6
CONTINOUS
 10
779.8719063978815
 20
290.07775178650252
 30
0.0
 11
819.8719063978815
 21
290.07775178650252
 31
0.0
  0
LINE
  5
751
  8
NOTE
  6
CONTINUOUS
 10
799.8719063978815
 20
290.07775178650252
 30
0.0
 11
784.76766639788127
 21
253.0390967865026
 31
0.0
  0
LINE
  5
752
  8
NOTE
  6
CONTINUOUS
 10
799.8719063978815
 20
290.07775178650252
 30
0.0
 11
768.27192339788144
 21
265.55345678650241
 31
0.0
  0
LINE
  5
753
  8
SIZE
  6
BYBLOCK
 10
771.8719073978815
 20
343.07775178650252
 30
0.0
 11
771.8719073978815
 21
1422.5027517865019
 31
0.0
  0
LINE
  5
754
  8
OUTLINE
  6
CONTINUOUS
 10
824.87190639788139
 20
323.07775178650252
 30
0.0
 11
824.87190639788139
 21
1145.0777517865019
 31
0.0
  0
LINE
  5
755
  8
DETAIL
  6
CONTINOUS
 10
824.87190639788139
 20
323.07775178650252
 30
0.0
 11
824.87190639788139
 21
1145.0777517865019
 31
0.0
  0
LINE
  5
756
  8
DETAIL
  6
CONTINOUS
 10
804.8719063978815
 20
462.0777517865024
 30
0.0
 11
804.8719063978815
 21
1002.0777517865019
 31
0.0
  0
LINE
  5
757
  8
SIZE
  6
BYBLOCK
 10
714.44271139788157
 20
732.07775178650252
 30
0.0
 11
320.83505539788149
 21
732.07775178650252
 31
0.0
  0
LINE
  5
758
  8
SIZE
  6
BYBLOCK
 10
856.8719073978815
 20
724.07775178650252
 30
0.0
 11
473.55668139788122
 21
724.07775178650252
 31
0.0
  0
LINE
  5
759
  8
SIZE
  6
BYBLOCK
 10
777.27455739788161
 20
810.08015378650225
 30
0.0
 11
190.42745539788129
 21
810.08015378650225
 31
0.0
  0
LINE
  5
75A
  8
SIZE
  6
BYBLOCK
 10
350.83505539788138
 20
292.07775178650252
 30
0.0
 11
350.83505539788138
 21
730.07775178650252
 31
0.0
  0
LINE
  5
75B
  8
SIZE
  6
BYBLOCK
 10
503.55668139788139
 20
292.07775178650252
 30
0.0
 11
503.55668139788139
 21
724.07775178650252
 31
0.0
  0
TEXT
  5
75C
  8
SIZE
  6
BYBLOCK
 10
188.7875803978813
 20
529.52060878650241
 30
0.0
 40
64.0
  1
520
 50
90.0
 41
0.9
  0
LINE
  5
75D
  8
SIZE
  6
BYBLOCK
 10
220.7875803978813
 20
810.08015378650225
 30
0.0
 11
220.7875803978813
 21
603.57775178650252
 31
0.0
  0
TEXT
  5
75E
  8
SIZE
  6
BYBLOCK
 10
318.83505539788149
 20
437.02060878650252
 30
0.0
 40
64.0
  1
442
 50
90.0
 41
0.9
  0
LINE
  5
75F
  8
SIZE
  6
BYBLOCK
 10
220.7875803978813
 20
292.07775178650252
 30
0.0
 11
220.7875803978813
 21
603.57775178650252
 31
0.0
  0
TEXT
  5
760
  8
SIZE
  6
BYBLOCK
 10
471.55668139788139
 20
427.13489478650251
 30
0.0
 40
64.0
  1
434
 50
90.0
 41
0.9
  0
CIRCLE
  5
761
  8
SIZE
  6
CONTINUOUS
 10
220.4274553978814
 20
810.08015378650225
 30
0.0
 40
6.0
  0
CIRCLE
  5
762
  8
SIZE
  6
CONTINUOUS
 10
350.83505539788138
 20
732.07775178650252
 30
0.0
 40
6.0
  0
CIRCLE
  5
763
  8
SIZE
  6
CONTINUOUS
 10
503.55668139788139
 20
724.07775178650252
 30
0.0
 40
6.0
  0
LINE
  5
764
  8
SIZE
  6
BYBLOCK
 10
649.74425839788148
 20
292.07775178650252
 30
0.0
 11
649.74425839788148
 21
684.07775178650252
 31
0.0
  0
TEXT
  5
765
  8
SIZE
  6
BYBLOCK
 10
617.74425839788125
 20
415.3920377865025
 30
0.0
 40
64.0
  1
396
 50
90.0
 41
0.9
  0
LINE
  5
766
  8
DETAIL
  6
CONTINOUS
 10
824.87190639788139
 20
462.0777517865024
 30
0.0
 11
804.8719063978815
 21
462.0777517865024
 31
0.0
  0
LINE
  5
767
  8
SIZE
  6
BYBLOCK
 10
836.26393739788148
 20
686.07775178650252
 30
0.0
 11
619.74425839788148
 21
686.07775178650252
 31
0.0
  0
LINE
  5
768
  8
BASIS
  6
DASHDOT
 10
734.44271139788145
 20
732.07775178650252
 30
0.0
 11
884.14564339788137
 21
732.07775178650252
 31
0.0
  0
CIRCLE
  5
769
  8
SIZE
  6
CONTINUOUS
 10
649.74425839788148
 20
686.07775178650252
 30
0.0
 40
6.0
  0
LINE
  5
76A
  8
NOTE
  6
CONTINOUS
 10
862.8719063978815
 20
724.07775178650252
 30
0.0
 11
902.8719063978815
 21
724.07775178650252
 31
0.0
  0
LINE
  5
76B
  8
NOTE
  6
CONTINOUS
 10
859.87190639788162
 20
686.07775178650252
 30
0.0
 11
899.87190639788139
 21
686.07775178650252
 31
0.0
  0
LINE
  5
76C
  8
NOTE
  6
CONTINOUS
 10
879.8719063978815
 20
666.07775178650252
 30
0.0
 11
879.8719063978815
 21
706.07775178650252
 31
0.0
  0
POLYLINE
  5
76D
  8
NOTE
  6
CONTINUOUS
 66
     1
 10
0.0
 20
0.0
 30
0.0
  0
VERTEX
  5
F4E
  8
NOTE
  6
CONTINUOUS
 10
919.40695039788125
 20
679.99661178650251
 30
0.0
  0
VERTEX
  5
F4F
  8
NOTE
  6
CONTINUOUS
 10
879.8719063978815
 20
686.07775178650252
 30
0.0
  0
VERTEX
  5
F50
  8
NOTE
  6
CONTINUOUS
 10
911.06968939788146
 20
661.04380778650238
 30
0.0
  0
SEQEND
  5
F51
  8
NOTE
  6
CONTINUOUS
  0
POLYLINE
  5
772
  8
NOTE
  6
CONTINUOUS
 66
     1
 10
0.0
 20
0.0
 30
0.0
  0
VERTEX
  5
F52
  8
NOTE
  6
CONTINUOUS
 10
911.55116939788149
 20
751.96143678650253
 30
0.0
  0
VERTEX
  5
F53
  8
NOTE
  6
CONTINUOUS
 10
882.87190639788139
 20
724.07775178650252
 30
0.0
  0
VERTEX
  5
F54
  8
NOTE
  6
CONTINUOUS
 10
921.65071939788174
 20
733.88609978650254
 30
0.0
  0
SEQEND
  5
F55
  8
NOTE
  6
CONTINUOUS
  0
LINE
  5
777
  8
NOTE
  6
CONTINOUS
 10
882.87190639788139
 20
704.0777517865024
 30
0.0
 11
882.87190639788139
 21
744.07775178650252
 31
0.0
  0
LINE
  5
778
  8
NOTE
  6
CONTINUOUS
 10
824.51178139788146
 20
810.08015378650225
 30
0.0
 11
918.87085639788165
 21
895.38895978650271
 31
0.0
  0
LINE
  5
779
  8
NOTE
  6
CONTINOUS
 10
804.51178139788135
 20
810.08015378650225
 30
0.0
 11
844.51178139788135
 21
810.08015378650225
 31
0.0
  0
POLYLINE
  5
77A
  8
NOTE
  6
CONTINUOUS
 66
     1
 10
0.0
 20
0.0
 30
0.0
  0
VERTEX
  5
F56
  8
NOTE
  6
CONTINUOUS
 10
846.64476439788132
 20
843.39878378650269
 30
0.0
  0
VERTEX
  5
F57
  8
NOTE
  6
CONTINUOUS
 10
824.51178139788146
 20
810.08015378650225
 30
0.0
  0
VERTEX
  5
F58
  8
NOTE
  6
CONTINUOUS
 10
860.33882139788147
 20
827.86844278650256
 30
0.0
  0
SEQEND
  5
F59
  8
NOTE
  6
CONTINUOUS
  0
LINE
  5
77F
  8
NOTE
  6
CONTINOUS
 10
824.51178139788146
 20
790.08015378650225
 30
0.0
 11
824.51178139788146
 21
830.08015378650225
 31
0.0
  0
LINE
  5
780
  8
NOTE
  6
CONTINUOUS
 10
872.35755039788137
 20
933.93013678650243
 30
0.0
 11
872.35755039788137
 21
933.93013678650243
 31
0.0
  0
LINE
  5
781
  8
SIZE
  6
BYBLOCK
 10
824.8719073978815
 20
1185.0777517865019
 30
0.0
 11
824.8719073978815
 21
1422.5027517865019
 31
0.0
  0
LINE
  5
782
  8
SIZE
  6
BYBLOCK
 10
824.8719073978815
 20
1165.0777517865019
 30
0.0
 11
824.8719073978815
 21
1422.5027517865019
 31
0.0
  0
LINE
  5
783
  8
SIZE
  6
BYBLOCK
 10
824.8719073978815
 20
1165.0777517865019
 30
0.0
 11
824.8719073978815
 21
1293.248751786502
 31
0.0
  0
LINE
  5
784
  8
SIZE
  6
BYBLOCK
 10
804.87190739788139
 20
1022.0777517865019
 30
0.0
 11
804.87190739788139
 21
1293.248751786502
 31
0.0
  0
LINE
  5
785
  8
DETAIL
  6
CONTINOUS
 10
824.87190639788139
 20
1002.0777517865019
 30
0.0
 11
804.8719063978815
 21
1002.0777517865019
 31
0.0
  0
LINE
  5
786
  8
SIZE
  6
CONTINUOUS
 10
814.87190639788139
 20
1263.2491457865019
 30
0.0
 11
945.94025839788139
 21
1263.2491457865019
 31
0.0
  0
LINE
  5
787
  8
SIZE
  6
BYBLOCK
 10
822.8719073978815
 20
1263.2491457865019
 30
0.0
 11
814.8719073978815
 21
1263.2491457865019
 31
0.0
  0
CIRCLE
  5
788
  8
SIZE
  6
CONTINUOUS
 10
804.87190739788139
 20
1263.2491457865019
 30
0.0
 40
6.0
  0
LINE
  5
789
  8
SIZE
  6
BYBLOCK
 10
806.8719073978815
 20
1263.2491457865019
 30
0.0
 11
814.8719073978815
 21
1263.2491457865019
 31
0.0
  0
CIRCLE
  5
78A
  8
SIZE
  6
CONTINUOUS
 10
824.8719073978815
 20
1263.2491457865019
 30
0.0
 40
6.0
  0
TEXT
  5
78B
  8
SIZE
  6
BYBLOCK
 10
751.74333539788142
 20
1424.5027517865019
 30
0.0
 40
64.0
  1
53
 41
0.9
  0
TEXT
  5
78C
  8
SIZE
  6
BYBLOCK
 10
843.21570539788104
 20
1295.248751786502
 30
0.0
 40
64.0
  1
20
 41
0.9
  0
LINE
  5
78D
  8
SIZE
  6
BYBLOCK
 10
824.8719073978815
 20
1392.5027517865019
 30
0.0
 11
771.8719073978815
 21
1392.5027517865019
 31
0.0
  0
CIRCLE
  5
78E
  8
SIZE
  6
CONTINUOUS
 10
771.8719073978815
 20
1392.5027517865019
 30
0.0
 40
6.0
  0
LINE
  5
78F
  8
SIZE
  6
BYBLOCK
 10
769.8719073978815
 20
1392.5027517865019
 30
0.0
 11
767.8719073978815
 21
1392.5027517865019
 31
0.0
  0
CIRCLE
  5
790
  8
SIZE
  6
CONTINUOUS
 10
824.8719073978815
 20
1392.5027517865019
 30
0.0
 40
6.0
  0
CIRCLE
  5
791
  8
SIZE
  6
CONTINUOUS
 10
824.8719073978815
 20
1392.5027517865019
 30
0.0
 40
6.0
  0
LINE
  5
792
  8
SIZE
  6
BYBLOCK
 10
826.8719073978815
 20
1392.5027517865019
 30
0.0
 11
828.87190739788139
 21
1392.5027517865019
 31
0.0
  0
CIRCLE
  5
793
  8
SIZE
  6
CONTINUOUS
 10
1420.44446039788
 20
290.07775178650252
 30
0.0
 40
6.0
  0
CIRCLE
  5
794
  8
FIX
  6
CONTINUOUS
 10
1169.871906397881
 20
290.07775178650252
 30
0.0
 40
40.0
  0
LINE
  5
795
  8
OUTLINE
  6
CONTINUOUS
 10
1183.871906397881
 20
323.07775178650252
 30
0.0
 11
1183.871906397881
 21
290.07775178650252
 31
0.0
  0
TEXT
  5
796
  8
ETC
  6
CONTINUOUS
 10
1573.1112623978811
 20
288.6366377865026
 30
0.0
 40
64.0
  1
室外機
 41
0.9
  0
LINE
  5
797
  8
DETAIL
  6
CONTINOUS
 10
1183.871906397881
 20
290.07775178650252
 30
0.0
 11
1183.871906397881
 21
323.07775178650252
 31
0.0
  0
LINE
  5
798
  8
NOTE
  6
CONTINOUS
 10
1169.871906397881
 20
270.0777517865024
 30
0.0
 11
1169.871906397881
 21
310.07775178650252
 31
0.0
  0
LINE
  5
799
  8
NOTE
  6
CONTINUOUS
 10
1969.74381039788
 20
-0.000002213497396
 30
0.0
 11
1389.9370083978811
 21
-0.000002213497396
 31
0.0
  0
TEXT
  5
79A
  8
NOTE
  6
CONTINUOUS
 10
1415.1692193978811
 20
15.10229878650267
 30
0.0
 40
64.0
  1
AH 2-U cut
 41
0.9
  0
LINE
  5
79B
  8
NOTE
  6
CONTINUOUS
 10
1389.9370083978811
 20
-0.000002213497396
 30
0.0
 11
1169.871906397881
 21
290.07775178650252
 31
0.0
  0
LINE
  5
79C
  8
SIZE
  6
BYBLOCK
 10
1214.7137463978811
 20
290.07775178650252
 30
0.0
 11
1450.44446039788
 21
290.07775178650252
 31
0.0
  0
LINE
  5
79D
  8
SIZE
  6
BYBLOCK
 10
1183.87190739788
 20
270.0777517865024
 30
0.0
 11
1183.87190739788
 21
65.361279786502621
 31
0.0
  0
LINE
  5
79E
  8
SIZE
  6
BYBLOCK
 10
1169.87190739788
 20
250.0777517865026
 30
0.0
 11
1169.87190739788
 21
65.361279786502621
 31
0.0
  0
LINE
  5
79F
  8
SIZE
  6
BYBLOCK
 10
1169.87190739788
 20
250.0777517865026
 30
0.0
 11
1169.87190739788
 21
65.361279786502621
 31
0.0
  0
CIRCLE
  5
7A0
  8
SIZE
  6
CONTINUOUS
 10
1169.87190739788
 20
95.361279786502593
 30
0.0
 40
6.0
  0
CIRCLE
  5
7A1
  8
SIZE
  6
CONTINUOUS
 10
1169.87190739788
 20
95.361279786502593
 30
0.0
 40
6.0
  0
CIRCLE
  5
7A2
  8
SIZE
  6
CONTINUOUS
 10
1183.87190739788
 20
95.361279786502593
 30
0.0
 40
6.0
  0
LINE
  5
7A3
  8
SIZE
  6
BYBLOCK
 10
1183.87190739788
 20
95.361279786502593
 30
0.0
 11
1169.87190739788
 21
95.361279786502593
 31
0.0
  0
LINE
  5
7A4
  8
SIZE
  6
BYBLOCK
 10
1167.87190739788
 20
95.361279786502593
 30
0.0
 11
1165.87190739788
 21
95.361279786502593
 31
0.0
  0
LINE
  5
7A5
  8
SIZE
  6
BYBLOCK
 10
1185.87190739788
 20
95.361279786502593
 30
0.0
 11
1187.87190739788
 21
95.361279786502593
 31
0.0
  0
TEXT
  5
7A6
  8
SIZE
  6
BYBLOCK
 10
1134.3576213978811
 20
127.36127978650261
 30
0.0
 40
64.0
  1
14
 41
0.9
  0
LINE
  5
7A7
  8
NOTE
  6
CONTINOUS
 10
1149.871906397881
 20
290.07775178650252
 30
0.0
 11
1189.871906397881
 21
290.07775178650252
 31
0.0
  0
LINE
  5
7A8
  8
NOTE
  6
CONTINUOUS
 10
1169.871906397881
 20
290.07775178650252
 30
0.0
 11
1184.97614639788
 21
253.0390967865026
 31
0.0
  0
LINE
  5
7A9
  8
NOTE
  6
CONTINUOUS
 10
1169.871906397881
 20
290.07775178650252
 30
0.0
 11
1201.47188939788
 21
265.55345678650241
 31
0.0
  0
TEXT
  5
7AA
  8
ETC
  6
CONTINUOUS
 10
1561.288518397879
 20
407.8032387865025
 30
0.0
 40
64.0
  1
SPUZ0824
 41
0.9
  0
LINE
  5
7AB
  8
SIZE
  6
BYBLOCK
 10
1420.44446039788
 20
1143.0777517865019
 30
0.0
 11
1420.44446039788
 21
717.57775178650252
 31
0.0
  0
LINE
  5
7AC
  8
OUTLINE
  6
CONTINUOUS
 10
1154.8719063978799
 20
1145.0777517865019
 30
0.0
 11
1154.8719063978799
 21
323.07775178650252
 31
0.0
  0
LINE
  5
7AD
  8
DETAIL
  6
CONTINOUS
 10
1154.8719063978799
 20
323.07775178650252
 30
0.0
 11
1154.8719063978799
 21
1145.0777517865019
 31
0.0
  0
LINE
  5
7AE
  8
SIZE
  6
BYBLOCK
 10
1420.44446039788
 20
292.07775178650252
 30
0.0
 11
1420.44446039788
 21
717.57775178650252
 31
0.0
  0
LINE
  5
7AF
  8
NOTE
  6
CONTINUOUS
 10
1124.871906397881
 20
323.07775178650252
 30
0.0
 11
1231.96219639788
 21
428.57361078650251
 31
0.0
  0
LINE
  5
7B0
  8
NOTE
  6
CONTINOUS
 10
1104.871906397881
 20
323.07775178650252
 30
0.0
 11
1144.871906397881
 21
323.07775178650252
 31
0.0
  0
POLYLINE
  5
7B1
  8
NOTE
  6
CONTINUOUS
 66
     1
 10
0.0
 20
0.0
 30
0.0
  0
VERTEX
  5
F5A
  8
NOTE
  6
CONTINUOUS
 10
1145.1311663978811
 20
357.56778478650261
 30
0.0
  0
VERTEX
  5
F5B
  8
NOTE
  6
CONTINUOUS
 10
1124.871906397881
 20
323.07775178650252
 30
0.0
  0
VERTEX
  5
F5C
  8
NOTE
  6
CONTINUOUS
 10
1159.661957397881
 20
342.81736678650259
 30
0.0
  0
SEQEND
  5
F5D
  8
NOTE
  6
CONTINUOUS
  0
LINE
  5
7B6
  8
NOTE
  6
CONTINOUS
 10
1124.871906397881
 20
303.07775178650257
 30
0.0
 11
1124.871906397881
 21
343.07775178650252
 31
0.0
  0
TEXT
  5
7B7
  8
NOTE
  6
CONTINUOUS
 10
1251.9401213978811
 20
438.44475178650248
 30
0.0
 40
64.0
  1
D
 41
0.9
  0
LINE
  5
7B8
  8
NOTE
  6
CONTINUOUS
 10
1231.96219639788
 20
428.57361078650251
 30
0.0
 11
1302.198482397881
 21
428.57361078650251
 31
0.0
  0
TEXT
  5
7B9
  8
NOTE
  6
CONTINUOUS
 10
1060.7086543978789
 20
635.63939678650252
 30
0.0
 40
64.0
  1
RG
 41
0.9
  0
LINE
  5
7BA
  8
NOTE
  6
CONTINUOUS
 10
1040.77148939788
 20
625.20405378650253
 30
0.0
 11
1180.455218397881
 21
625.20405378650253
 31
0.0
  0
TEXT
  5
7BB
  8
NOTE
  6
CONTINUOUS
 10
1060.92620539788
 20
822.17499278650257
 30
0.0
 40
64.0
  1
RL
 41
0.9
  0
LINE
  5
7BC
  8
NOTE
  6
CONTINUOUS
 10
1040.77148939788
 20
812.30385178650226
 30
0.0
 11
1170.35759939788
 21
812.30385178650226
 31
0.0
  0
TEXT
  5
7BD
  8
SIZE
  6
BYBLOCK
 10
1388.44446039788
 20
643.52060878650252
 30
0.0
 40
64.0
  1
855
 50
90.0
 41
0.9
  0
LINE
  5
7BE
  8
SIZE
  6
BYBLOCK
 10
1154.87190739788
 20
1165.0777517865019
 30
0.0
 11
1154.87190739788
 21
1422.5027517865019
 31
0.0
  0
LINE
  5
7BF
  8
SIZE
  6
BYBLOCK
 10
1203.87190739788
 20
1145.0777517865019
 30
0.0
 11
1450.44446039788
 21
1145.0777517865019
 31
0.0
  0
CIRCLE
  5
7C0
  8
SIZE
  6
CONTINUOUS
 10
1420.44446039788
 20
1145.0777517865019
 30
0.0
 40
6.0
  0
CIRCLE
  5
7C1
  8
SIZE
  6
CONTINUOUS
 10
1154.87190739788
 20
1392.5027517865019
 30
0.0
 40
6.0
  0
ENDBLK
  5
7C2
  8
0
  0
BLOCK
  8
0
  2
_ORIGIN
 70
     0
 10
0.0
 20
0.0
 30
0.0
  3
_ORIGIN
  1

  0
CIRCLE
  5
7C5
  8
0
  6
BYBLOCK
 62
     0
 10
0.0
 20
0.0
 30
0.0
 40
0.5
  0
LINE
  5
7C6
  8
0
  6
BYBLOCK
 62
     0
 10
0.0
 20
0.0
 30
0.0
 11
-1.0
 21
0.0
 31
0.0
  0
ENDBLK
  5
7C7
  8
0
  0
BLOCK
  8
0
  2
_ORIGIN2
 70
     0
 10
0.0
 20
0.0
 30
0.0
  3
_ORIGIN2
  1

  0
CIRCLE
  5
7CA
  8
0
  6
BYBLOCK
 62
     0
 10
0.0
 20
0.0
 30
0.0
 40
0.5
  0
CIRCLE
  5
7CB
  8
0
  6
BYBLOCK
 62
     0
 10
0.0
 20
0.0
 30
0.0
 40
0.25
  0
LINE
  5
7CC
  8
0
  6
BYBLOCK
 62
     0
 10
-0.5
 20
0.0
 30
0.0
 11
-1.0
 21
0.0
 31
0.0
  0
ENDBLK
  5
7CD
  8
0
  0
BLOCK
  8
0
  2
_DOTBLANK
 70
     0
 10
0.0
 20
0.0
 30
0.0
  3
_DOTBLANK
  1

  0
CIRCLE
  5
7D0
  8
0
  6
BYBLOCK
 62
     0
 10
0.0
 20
0.0
 30
0.0
 40
0.5
  0
LINE
  5
7D1
  8
0
  6
BYBLOCK
 62
     0
 10
-0.5
 20
0.0
 30
0.0
 11
-1.0
 21
0.0
 31
0.0
  0
ENDBLK
  5
7D2
  8
0
  0
BLOCK
  8
0
  2
*D6
 70
     1
 10
0.0
 20
0.0
 30
0.0
  3
*D6
  1

  0
LINE
  5
FDA
  8
SIZE
  6
CONTINUOUS
 62
     0
 10
475.0
 20
3.0
 30
0.0
 11
474.99999999999989
 21
-573.01396200505167
 31
0.0
  0
LINE
  5
FDB
  8
SIZE
  6
CONTINUOUS
 62
     0
 10
-474.99999999999989
 20
3.0
 30
0.0
 11
-475.0
 21
-573.01396200505167
 31
0.0
  0
LINE
  5
FDC
  8
SIZE
  6
CONTINUOUS
 62
     0
 10
464.99999999999989
 20
-543.01396200505178
 30
0.0
 11
-465.0
 21
-543.01396200505178
 31
0.0
  0
TEXT
  8
0
  40
64
  5
FF5
  62
0
  72
0
  71
0
 10
-124.175
 20
-604.447
 30
0.000000
  1
950
  0
INSERT
  5
FDE
  8
SIZE
  6
CONTINUOUS
 62
     0
  2
_DOTBLANK
 10
474.99999999999989
 20
-543.01396200505178
 30
0.0
 41
10.0
 42
10.0
 43
10.0
  0
INSERT
  5
FDF
  8
SIZE
  6
CONTINUOUS
 62
     0
  2
_DOTBLANK
 10
-475.0
 20
-543.01396200505178
 30
0.0
 41
10.0
 42
10.0
 43
10.0
 50
180.0
  0
POINT
  5
FE0
  8
DEFPOINTS
  6
CONTINUOUS
 62
     0
 10
475.0
 20
23.0
 30
0.0
  0
POINT
  5
FE1
  8
DEFPOINTS
  6
CONTINUOUS
 62
     0
 10
-474.99999999999989
 20
23.0
 30
0.0
  0
POINT
  5
FE2
  8
DEFPOINTS
  6
CONTINUOUS
 62
     0
 10
-475.0
 20
-543.01396200505178
 30
0.0
  0
ENDBLK
  5
D3D
  8
0
  0
BLOCK
  8
0
  2
*D7
 70
     1
 10
0.0
 20
0.0
 30
0.0
  3
*D7
  1

  0
LINE
  5
FBF
  8
SIZE
  6
CONTINUOUS
 62
     0
 10
-300.0
 20
-40.0
 30
0.0
 11
-300.0
 21
-436.34640411009718
 31
0.0
  0
LINE
  5
FC0
  8
SIZE
  6
CONTINUOUS
 62
     0
 10
300.0
 20
-40.0
 30
0.0
 11
300.0
 21
-436.34640411009718
 31
0.0
  0
LINE
  5
FC1
  8
SIZE
  6
CONTINUOUS
 62
     0
 10
-290.0
 20
-406.3464041100973
 30
0.0
 11
290.0
 21
-406.3464041100973
 31
0.0
  0
TEXT
  8
0
  40
64
  5
FF6
  62
0
  72
0
  71
0
 10
-130.607
 20
-469.420
 30
0.000000
  1
600
  0
INSERT
  5
FC3
  8
SIZE
  6
CONTINUOUS
 62
     0
  2
_DOTBLANK
 10
-300.0
 20
-406.3464041100973
 30
0.0
 41
10.0
 42
10.0
 43
10.0
 50
180.0
  0
INSERT
  5
FC4
  8
SIZE
  6
CONTINUOUS
 62
     0
  2
_DOTBLANK
 10
300.0
 20
-406.3464041100973
 30
0.0
 41
10.0
 42
10.0
 43
10.0
  0
POINT
  5
FC5
  8
DEFPOINTS
  6
CONTINUOUS
 62
     0
 10
-300.0
 20
-20.0
 30
0.0
  0
POINT
  5
FC6
  8
DEFPOINTS
  6
CONTINUOUS
 62
     0
 10
300.0
 20
-20.0
 30
0.0
  0
POINT
  5
FC7
  8
DEFPOINTS
  6
CONTINUOUS
 62
     0
 10
300.0
 20
-406.3464041100973
 30
0.0
  0
ENDBLK
  5
D49
  8
0
  0
BLOCK
  8
0
  2
*D8
 70
     1
 10
0.0
 20
0.0
 30
0.0
  3
*D8
  1

  0
LINE
  5
F86
  8
SIZE
  6
CONTINUOUS
 62
     0
 10
-474.99999999999989
 20
963.0
 30
0.0
 11
-474.99999999999989
 21
1291.561867104529
 31
0.0
  0
LINE
  5
F87
  8
SIZE
  6
CONTINUOUS
 62
     0
 10
475.0
 20
963.0
 30
0.0
 11
475.0
 21
1291.561867104529
 31
0.0
  0
LINE
  5
F88
  8
SIZE
  6
CONTINUOUS
 62
     0
 10
-464.99999999999989
 20
1261.561867104529
 30
0.0
 11
465.0
 21
1261.561867104529
 31
0.0
  0
TEXT
  8
0
  40
64
  5
FF7
  62
0
  72
0
  71
0
 10
-124.175
 20
1195.92
 30
0.000000
  1
950
  0
INSERT
  5
F8A
  8
SIZE
  6
CONTINUOUS
 62
     0
  2
_DOTBLANK
 10
-474.99999999999989
 20
1261.561867104529
 30
0.0
 41
10.0
 42
10.0
 43
10.0
 50
180.0
  0
INSERT
  5
F8B
  8
SIZE
  6
CONTINUOUS
 62
     0
  2
_DOTBLANK
 10
475.0
 20
1261.561867104529
 30
0.0
 41
10.0
 42
10.0
 43
10.0
  0
POINT
  5
F8C
  8
DEFPOINTS
  6
CONTINUOUS
 62
     0
 10
-474.99999999999989
 20
943.0
 30
0.0
  0
POINT
  5
F8D
  8
DEFPOINTS
  6
CONTINUOUS
 62
     0
 10
475.0
 20
943.0
 30
0.0
  0
POINT
  5
F8E
  8
DEFPOINTS
  6
CONTINUOUS
 62
     0
 10
475.0
 20
1261.561867104529
 30
0.0
  0
ENDBLK
  5
D55
  8
0
  0
BLOCK
  8
0
  2
*D9
 70
     1
 10
0.0
 20
0.0
 30
0.0
  3
*D9
  1

  0
LINE
  5
F74
  8
SIZE
  6
CONTINUOUS
 62
     0
 10
-340.0
 20
0.0000000000000057
 30
0.0
 11
-898.74271351267384
 21
0.0000000000001639
 31
0.0
  0
LINE
  5
F75
  8
SIZE
  6
CONTINUOUS
 62
     0
 10
-494.99999999999989
 20
943.0
 30
0.0
 11
-898.74271351267362
 21
943.00000000000011
 31
0.0
  0
LINE
  5
F76
  8
SIZE
  6
CONTINUOUS
 62
     0
 10
-868.74271351267373
 20
10.000000000000149
 30
0.0
 11
-868.74271351267362
 21
933.00000000000011
 31
0.0
  0
INSERT
  5
F77
  8
SIZE
  6
CONTINUOUS
 62
     0
  2
_DOTBLANK
 10
-868.74271351267373
 20
0.0000000000001554
 30
0.0
 41
10.0
 42
10.0
 43
10.0
 50
270.0
  0
INSERT
  5
F78
  8
SIZE
  6
CONTINUOUS
 62
     0
  2
_DOTBLANK
 10
-868.74271351267362
 20
943.00000000000011
 30
0.0
 41
10.0
 42
10.0
 43
10.0
 50
90.0
  0
TEXT
  8
0
  40
64
  5
FF8
  62
0
  72
0
  71
0
 10
-1028.83
 20
358.220
 30
0.000000
  1
943
  0
POINT
  5
F7A
  8
DEFPOINTS
  6
CONTINUOUS
 62
     0
 10
-320.0
 20
0.0
 30
0.0
  0
POINT
  5
F7B
  8
DEFPOINTS
  6
CONTINUOUS
 62
     0
 10
-474.99999999999989
 20
943.0
 30
0.0
  0
POINT
  5
F7C
  8
DEFPOINTS
  6
CONTINUOUS
 62
     0
 10
-868.74271351267362
 20
943.00000000000011
 30
0.0
  0
ENDBLK
  5
D61
  8
0
  0
BLOCK
  8
0
  2
*D10
 70
     1
 10
0.0
 20
0.0
 30
0.0
  3
*D10
  1

  0
LINE
  5
F6B
  8
SIZE
  6
CONTINUOUS
 62
     0
 10
-340.0
 20
0.0000000000000057
 30
0.0
 11
-757.23196829527217
 21
0.0000000000001239
 31
0.0
  0
LINE
  5
F6C
  8
SIZE
  6
CONTINUOUS
 62
     0
 10
-486.797845249847
 20
472.99999999953889
 30
0.0
 11
-757.23196829527205
 21
472.99999999953889
 31
0.0
  0
LINE
  5
F6D
  8
SIZE
  6
CONTINUOUS
 62
     0
 10
-727.23196829527205
 20
10.00000000000011
 30
0.0
 11
-727.23196829527205
 21
462.99999999953889
 31
0.0
  0
INSERT
  5
F6E
  8
SIZE
  6
CONTINUOUS
 62
     0
  2
_DOTBLANK
 10
-727.23196829527205
 20
0.0000000000001154
 30
0.0
 41
10.0
 42
10.0
 43
10.0
 50
270.0
  0
INSERT
  5
F6F
  8
SIZE
  6
CONTINUOUS
 62
     0
  2
_DOTBLANK
 10
-727.23196829527205
 20
472.99999999953889
 30
0.0
 41
10.0
 42
10.0
 43
10.0
 50
90.0
  0
TEXT
  8
0
  40
64
  5
FF9
  62
0
  72
0
  71
0
 10
-887.322
 20
123.220
 30
0.000000
  1
473
  0
POINT
  5
F71
  8
DEFPOINTS
  6
CONTINUOUS
 62
     0
 10
-320.0
 20
0.0
 30
0.0
  0
POINT
  5
F72
  8
DEFPOINTS
  6
CONTINUOUS
 62
     0
 10
-466.797845249847
 20
472.99999999953889
 30
0.0
  0
POINT
  5
F73
  8
DEFPOINTS
  6
CONTINUOUS
 62
     0
 10
-727.23196829527205
 20
472.99999999953889
 30
0.0
  0
ENDBLK
  5
D6D
  8
0
  0
BLOCK
  8
0
  2
*D11
 70
     1
 10
0.0
 20
0.0
 30
0.0
  3
*D11
  1

  0
LINE
  5
FC8
  8
SIZE
  6
CONTINUOUS
 62
     0
 10
-300.0
 20
-40.0
 30
0.0
 11
-300.0
 21
-436.34640411009718
 31
0.0
  0
LINE
  5
FC9
  8
SIZE
  6
CONTINUOUS
 62
     0
 10
-474.99999999999989
 20
3.0
 30
0.0
 11
-474.99999999999989
 21
-436.34640411009718
 31
0.0
  0
LINE
  5
FCA
  8
SIZE
  6
CONTINUOUS
 62
     0
 10
-310.0
 20
-406.3464041100973
 30
0.0
 11
-464.99999999999989
 21
-406.3464041100973
 31
0.0
  0
TEXT
  8
0
  40
64
  5
FFA
  62
0
  72
0
  71
0
 10
-506.850
 20
-472.635
 30
0.000000
  1
175
  0
INSERT
  5
FCC
  8
SIZE
  6
CONTINUOUS
 62
     0
  2
_DOTBLANK
 10
-300.0
 20
-406.3464041100973
 30
0.0
 41
10.0
 42
10.0
 43
10.0
  0
INSERT
  5
FCD
  8
SIZE
  6
CONTINUOUS
 62
     0
  2
_DOTBLANK
 10
-474.99999999999989
 20
-406.3464041100973
 30
0.0
 41
10.0
 42
10.0
 43
10.0
 50
180.0
  0
POINT
  5
FCE
  8
DEFPOINTS
  6
CONTINUOUS
 62
     0
 10
-300.0
 20
-20.0
 30
0.0
  0
POINT
  5
FCF
  8
DEFPOINTS
  6
CONTINUOUS
 62
     0
 10
-474.99999999999989
 20
23.0
 30
0.0
  0
POINT
  5
FD0
  8
DEFPOINTS
  6
CONTINUOUS
 62
     0
 10
-474.99999999999989
 20
-406.3464041100973
 30
0.0
  0
ENDBLK
  5
D79
  8
0
  0
BLOCK
  8
0
  2
*D12
 70
     1
 10
0.0
 20
0.0
 30
0.0
  3
*D12
  1

  0
LINE
  5
F62
  8
SIZE
  6
CONTINUOUS
 62
     0
 10
-494.99999999999989
 20
23.0
 30
0.0
 11
-617.48247724767032
 21
23.000000000000028
 31
0.0
  0
LINE
  5
F63
  8
SIZE
  6
CONTINUOUS
 62
     0
 10
-340.0
 20
0.0000000000000057
 30
0.0
 11
-617.48247724767032
 21
0.0000000000000843
 31
0.0
  0
LINE
  5
F64
  8
SIZE
  6
CONTINUOUS
 62
     0
 10
-587.48247724767032
 20
13.00000000000003
 30
0.0
 11
-587.48247724767032
 21
10.000000000000069
 31
0.0
  0
TEXT
  8
0
  40
64
  5
FFB
  62
0
  72
0
  71
0
 10
-777.617
 20
-101.780
 30
0.000000
  1
23
  0
INSERT
  5
F66
  8
SIZE
  6
CONTINUOUS
 62
     0
  2
_DOTBLANK
 10
-587.48247724767032
 20
23.000000000000028
 30
0.0
 41
10.0
 42
10.0
 43
10.0
 50
90.0
  0
INSERT
  5
F67
  8
SIZE
  6
CONTINUOUS
 62
     0
  2
_DOTBLANK
 10
-587.48247724767032
 20
0.0000000000000758
 30
0.0
 41
10.0
 42
10.0
 43
10.0
 50
270.0
  0
POINT
  5
F68
  8
DEFPOINTS
  6
CONTINUOUS
 62
     0
 10
-474.99999999999989
 20
23.0
 30
0.0
  0
POINT
  5
F69
  8
DEFPOINTS
  6
CONTINUOUS
 62
     0
 10
-320.0
 20
0.0
 30
0.0
  0
POINT
  5
F6A
  8
DEFPOINTS
  6
CONTINUOUS
 62
     0
 10
-587.48247724767032
 20
0.0000000000000758
 30
0.0
  0
ENDBLK
  5
D85
  8
0
  0
BLOCK
  8
0
  2
*D13
 70
     1
 10
0.0
 20
0.0
 30
0.0
  3
*D13
  1

  0
LINE
  5
F7D
  8
SIZE
  6
CONTINUOUS
 62
     0
 10
-474.99999999999989
 20
963.0
 30
0.0
 11
-474.99999999999989
 21
1113.2426985211659
 31
0.0
  0
LINE
  5
F7E
  8
SIZE
  6
CONTINUOUS
 62
     0
 10
-152.99999999984689
 20
806.79784524953902
 30
0.0
 11
-152.99999999984681
 21
1113.2426985211659
 31
0.0
  0
LINE
  5
F7F
  8
SIZE
  6
CONTINUOUS
 62
     0
 10
-464.99999999999989
 20
1083.2426985211659
 30
0.0
 11
-162.99999999984681
 21
1083.2426985211659
 31
0.0
  0
TEXT
  8
0
  40
64
  5
FFC
  62
0
  72
0
  71
0
 10
-436.103
 20
1015.88
 30
0.000000
  1
322
  0
INSERT
  5
F81
  8
SIZE
  6
CONTINUOUS
 62
     0
  2
_DOTBLANK
 10
-474.99999999999989
 20
1083.2426985211659
 30
0.0
 41
10.0
 42
10.0
 43
10.0
 50
180.0
  0
INSERT
  5
F82
  8
SIZE
  6
CONTINUOUS
 62
     0
  2
_DOTBLANK
 10
-152.99999999984681
 20
1083.2426985211659
 30
0.0
 41
10.0
 42
10.0
 43
10.0
  0
POINT
  5
F83
  8
DEFPOINTS
  6
CONTINUOUS
 62
     0
 10
-474.99999999999989
 20
943.0
 30
0.0
  0
POINT
  5
F84
  8
DEFPOINTS
  6
CONTINUOUS
 62
     0
 10
-152.99999999984689
 20
786.79784524953902
 30
0.0
  0
POINT
  5
F85
  8
DEFPOINTS
  6
CONTINUOUS
 62
     0
 10
-152.99999999984681
 20
1083.2426985211659
 30
0.0
  0
ENDBLK
  5
D91
  8
0
  0
BLOCK
  8
0
  2
*D14
 70
     1
 10
0.0
 20
0.0
 30
0.0
  3
*D14
  1

  0
LINE
  5
FE3
  8
SIZE
  6
CONTINUOUS
 62
     0
 10
340.0
 20
-0.0000000000000057
 30
0.0
 11
984.02239245208773
 21
-0.0000000000001881
 31
0.0
  0
LINE
  5
FE4
  8
SIZE
  6
CONTINUOUS
 62
     0
 10
407.0
 20
447.0
 30
0.0
 11
984.02239245208796
 21
446.99999999999972
 31
0.0
  0
LINE
  5
FE5
  8
SIZE
  6
CONTINUOUS
 62
     0
 10
954.02239245208762
 20
9.9999999999998206
 30
0.0
 11
954.02239245208784
 21
436.99999999999977
 31
0.0
  0
INSERT
  5
FE6
  8
SIZE
  6
CONTINUOUS
 62
     0
  2
_DOTBLANK
 10
954.02239245208762
 20
-0.0000000000001796
 30
0.0
 41
10.0
 42
10.0
 43
10.0
 50
270.0
  0
INSERT
  5
FE7
  8
SIZE
  6
CONTINUOUS
 62
     0
  2
_DOTBLANK
 10
954.02239245208784
 20
446.99999999999972
 30
0.0
 41
10.0
 42
10.0
 43
10.0
 50
90.0
  0
TEXT
  8
0
  40
64
  5
FFD
  62
0
  72
0
  71
0
 10
793.932
 20
110.220
 30
0.000000
  1
447
  0
POINT
  5
FE9
  8
DEFPOINTS
  6
CONTINUOUS
 62
     0
 10
320.0
 20
0.0
 30
0.0
  0
POINT
  5
FEA
  8
DEFPOINTS
  6
CONTINUOUS
 62
     0
 10
387.0
 20
447.0
 30
0.0
  0
POINT
  5
FEB
  8
DEFPOINTS
  6
CONTINUOUS
 62
     0
 10
954.02239245208784
 20
446.99999999999972
 30
0.0
  0
ENDBLK
  5
D9D
  8
0
  0
BLOCK
  8
0
  2
*D16
 70
     1
 10
0.0
 20
0.0
 30
0.0
  3
*D16
  1

  0
LINE
  5
FAA
  8
SIZE
  6
CONTINUOUS
 62
     0
 10
336.0
 20
-0.0000000000000057
 30
0.0
 11
817.69240512618558
 21
-0.0000000000001421
 31
0.0
  0
LINE
  5
FAB
  8
SIZE
  6
CONTINUOUS
 62
     0
 10
473.0
 20
443.0
 30
0.0
 11
817.6924051261858
 21
442.99999999999989
 31
0.0
  0
LINE
  5
FAC
  8
SIZE
  6
CONTINUOUS
 62
     0
 10
787.69240512618558
 20
9.9999999999998668
 30
0.0
 11
787.6924051261858
 21
432.99999999999989
 31
0.0
  0
INSERT
  5
FAD
  8
SIZE
  6
CONTINUOUS
 62
     0
  2
_DOTBLANK
 10
787.69240512618558
 20
-0.0000000000001336
 30
0.0
 41
10.0
 42
10.0
 43
10.0
 50
270.0
  0
INSERT
  5
FAE
  8
SIZE
  6
CONTINUOUS
 62
     0
  2
_DOTBLANK
 10
787.6924051261858
 20
442.99999999999989
 30
0.0
 41
10.0
 42
10.0
 43
10.0
 50
90.0
  0
TEXT
  8
0
  40
64
  5
FFE
  62
0
  72
0
  71
0
 10
627.602
 20
108.220
 30
0.000000
  1
443
  0
POINT
  5
FB0
  8
DEFPOINTS
  6
CONTINUOUS
 62
     0
 10
316.0
 20
0.0
 30
0.0
  0
POINT
  5
FB1
  8
DEFPOINTS
  6
CONTINUOUS
 62
     0
 10
453.0
 20
443.0
 30
0.0
  0
POINT
  5
FB2
  8
DEFPOINTS
  6
CONTINUOUS
 62
     0
 10
787.6924051261858
 20
442.99999999999989
 30
0.0
  0
ENDBLK
  5
DB5
  8
0
  0
BLOCK
  8
0
  2
*D17
 70
     1
 10
0.0
 20
0.0
 30
0.0
  3
*D17
  1

  0
LINE
  5
FA1
  8
SIZE
  6
CONTINUOUS
 62
     0
 10
275.0
 20
710.0
 30
0.0
 11
275.0
 21
1113.2426985211659
 31
0.0
  0
LINE
  5
FA2
  8
SIZE
  6
CONTINUOUS
 62
     0
 10
475.0
 20
43.0
 30
0.0
 11
475.0
 21
1113.2426985211659
 31
0.0
  0
LINE
  5
FA3
  8
SIZE
  6
CONTINUOUS
 62
     0
 10
285.0
 20
1083.2426985211659
 30
0.0
 11
465.0
 21
1083.2426985211659
 31
0.0
  0
TEXT
  8
0
  40
64
  5
FFF
  62
0
  72
0
  71
0
 10
245.636
 20
1022.31
 30
0.000000
  1
200
  0
INSERT
  5
FA5
  8
SIZE
  6
CONTINUOUS
 62
     0
  2
_DOTBLANK
 10
275.0
 20
1083.2426985211659
 30
0.0
 41
10.0
 42
10.0
 43
10.0
 50
180.0
  0
INSERT
  5
FA6
  8
SIZE
  6
CONTINUOUS
 62
     0
  2
_DOTBLANK
 10
475.0
 20
1083.2426985211659
 30
0.0
 41
10.0
 42
10.0
 43
10.0
  0
POINT
  5
FA7
  8
DEFPOINTS
  6
CONTINUOUS
 62
     0
 10
275.0
 20
690.0
 30
0.0
  0
POINT
  5
FA8
  8
DEFPOINTS
  6
CONTINUOUS
 62
     0
 10
475.0
 20
23.0
 30
0.0
  0
POINT
  5
FA9
  8
DEFPOINTS
  6
CONTINUOUS
 62
     0
 10
475.0
 20
1083.2426985211659
 30
0.0
  0
ENDBLK
  5
DC2
  8
0
  0
BLOCK
  8
0
  2
*D18
 70
     1
 10
0.0
 20
0.0
 30
0.0
  3
*D18
  1

  0
LINE
  5
F98
  8
SIZE
  6
CONTINUOUS
 62
     0
 10
367.0
 20
407.0
 30
0.0
 11
367.0
 21
124.8947144222825
 31
0.0
  0
LINE
  5
F99
  8
SIZE
  6
CONTINUOUS
 62
     0
 10
433.0
 20
403.0
 30
0.0
 11
433.0
 21
124.8947144222825
 31
0.0
  0
LINE
  5
F9A
  8
SIZE
  6
CONTINUOUS
 62
     0
 10
377.0
 20
154.8947144222825
 30
0.0
 11
423.0
 21
154.8947144222825
 31
0.0
  0
TEXT
  8
0
  40
64
  5
1000
  62
0
  72
0
  71
0
 10
171.854
 20
78.1245
 30
0.000000
  1
66
  0
INSERT
  5
F9C
  8
SIZE
  6
CONTINUOUS
 62
     0
  2
_DOTBLANK
 10
367.0
 20
154.8947144222825
 30
0.0
 41
10.0
 42
10.0
 43
10.0
 50
180.0
  0
INSERT
  5
F9D
  8
SIZE
  6
CONTINUOUS
 62
     0
  2
_DOTBLANK
 10
433.0
 20
154.8947144222825
 30
0.0
 41
10.0
 42
10.0
 43
10.0
  0
POINT
  5
F9E
  8
DEFPOINTS
  6
CONTINUOUS
 62
     0
 10
367.0
 20
427.0
 30
0.0
  0
POINT
  5
F9F
  8
DEFPOINTS
  6
CONTINUOUS
 62
     0
 10
433.0
 20
423.0
 30
0.0
  0
POINT
  5
FA0
  8
DEFPOINTS
  6
CONTINUOUS
 62
     0
 10
433.0
 20
154.8947144222825
 30
0.0
  0
ENDBLK
  5
DCE
  8
0
  0
BLOCK
  8
0
  2
*D19
 70
     1
 10
0.0
 20
0.0
 30
0.0
  3
*D19
  1

  0
LINE
  5
F8F
  8
SIZE
  6
CONTINUOUS
 62
     0
 10
433.0
 20
403.0
 30
0.0
 11
433.0
 21
236.03391228826351
 31
0.0
  0
LINE
  5
F90
  8
SIZE
  6
CONTINUOUS
 62
     0
 10
475.0
 20
43.0
 30
0.0
 11
475.0
 21
296.03391228826348
 31
0.0
  0
LINE
  5
F91
  8
SIZE
  6
CONTINUOUS
 62
     0
 10
443.0
 20
266.03391228826359
 30
0.0
 11
465.0
 21
266.03391228826359
 31
0.0
  0
TEXT
  8
0
  40
64
  5
1001
  62
0
  72
0
  71
0
 10
433.629
 20
152.754
 30
0.000000
  1
42
  0
INSERT
  5
F93
  8
SIZE
  6
CONTINUOUS
 62
     0
  2
_DOTBLANK
 10
433.0
 20
266.03391228826359
 30
0.0
 41
10.0
 42
10.0
 43
10.0
 50
180.0
  0
INSERT
  5
F94
  8
SIZE
  6
CONTINUOUS
 62
     0
  2
_DOTBLANK
 10
475.0
 20
266.03391228826359
 30
0.0
 41
10.0
 42
10.0
 43
10.0
  0
POINT
  5
F95
  8
DEFPOINTS
  6
CONTINUOUS
 62
     0
 10
433.0
 20
423.0
 30
0.0
  0
POINT
  5
F96
  8
DEFPOINTS
  6
CONTINUOUS
 62
     0
 10
475.0
 20
23.0
 30
0.0
  0
POINT
  5
F97
  8
DEFPOINTS
  6
CONTINUOUS
 62
     0
 10
475.0
 20
266.03391228826359
 30
0.0
  0
ENDBLK
  5
DDA
  8
0
  0
BLOCK
  8
0
  2
*D20
 70
     1
 10
0.0
 20
0.0
 30
0.0
  3
*D20
  1

  0
LINE
  5
FD1
  8
SIZE
  6
CONTINUOUS
 62
     0
 10
300.0
 20
-40.0
 30
0.0
 11
300.0
 21
-436.34640411009718
 31
0.0
  0
LINE
  5
FD2
  8
SIZE
  6
CONTINUOUS
 62
     0
 10
475.0
 20
3.0
 30
0.0
 11
475.0
 21
-436.34640411009718
 31
0.0
  0
LINE
  5
FD3
  8
SIZE
  6
CONTINUOUS
 62
     0
 10
310.0
 20
-406.3464041100973
 30
0.0
 11
465.0
 21
-406.3464041100973
 31
0.0
  0
TEXT
  8
0
  40
64
  5
1002
  62
0
  72
0
  71
0
 10
261.715
 20
-462.990
 30
0.000000
  1
175
  0
INSERT
  5
FD5
  8
SIZE
  6
CONTINUOUS
 62
     0
  2
_DOTBLANK
 10
300.0
 20
-406.3464041100973
 30
0.0
 41
10.0
 42
10.0
 43
10.0
 50
180.0
  0
INSERT
  5
FD6
  8
SIZE
  6
CONTINUOUS
 62
     0
  2
_DOTBLANK
 10
475.0
 20
-406.3464041100973
 30
0.0
 41
10.0
 42
10.0
 43
10.0
  0
POINT
  5
FD7
  8
DEFPOINTS
  6
CONTINUOUS
 62
     0
 10
300.0
 20
-20.0
 30
0.0
  0
POINT
  5
FD8
  8
DEFPOINTS
  6
CONTINUOUS
 62
     0
 10
475.0
 20
23.0
 30
0.0
  0
POINT
  5
FD9
  8
DEFPOINTS
  6
CONTINUOUS
 62
     0
 10
475.0
 20
-406.3464041100973
 30
0.0
  0
ENDBLK
  5
DE6
  8
0
  0
BLOCK
  8
0
  2
*D21
 70
     1
 10
0.0
 20
0.0
 30
0.0
  3
*D21
  1

  0
LINE
  5
FEC
  8
SIZE
  6
CONTINUOUS
 62
     0
 10
315.0
 20
663.0
 30
0.0
 11
1140.044026525386
 21
662.99999999999989
 31
0.0
  0
LINE
  5
FED
  8
SIZE
  6
CONTINUOUS
 62
     0
 10
340.0
 20
-0.0000000000000057
 30
0.0
 11
1140.044026525386
 21
-0.0000000000002323
 31
0.0
  0
LINE
  5
FEE
  8
SIZE
  6
CONTINUOUS
 62
     0
 10
1110.044026525386
 20
652.99999999999989
 30
0.0
 11
1110.044026525386
 21
9.9999999999997762
 31
0.0
  0
SOLID
  5
FEF
  8
SIZE
  6
CONTINUOUS
 62
     0
 10
1108.37735985872
 20
652.99999999999989
 30
0.0
 11
1111.710693192053
 21
652.99999999999989
 31
0.0
 12
1110.044026525386
 22
662.99999999999989
 32
0.0
 13
1110.044026525386
 23
662.99999999999989
 33
0.0
  0
SOLID
  5
FF0
  8
SIZE
  6
CONTINUOUS
 62
     0
 10
1108.377359858719
 20
9.9999999999997762
 30
0.0
 11
1111.710693192053
 21
9.9999999999997762
 31
0.0
 12
1110.044026525386
 22
-0.0000000000002238
 32
0.0
 13
1110.044026525386
 23
-0.0000000000002238
 33
0.0
  0
TEXT
  8
0
  40
64
  5
1003
  62
0
  72
0
  71
0
 10
949.954
 20
228.222
 30
0.000000
  1
663
  0
POINT
  5
FF2
  8
DEFPOINTS
  6
CONTINUOUS
 62
     0
 10
295.0
 20
663.0
 30
0.0
  0
POINT
  5
FF3
  8
DEFPOINTS
  6
CONTINUOUS
 62
     0
 10
320.0
 20
0.0
 30
0.0
  0
POINT
  5
FF4
  8
DEFPOINTS
  6
CONTINUOUS
 62
     0
 10
1110.044026525386
 20
-0.0000000000002238
 30
0.0
  0
ENDBLK
  5
EA3
  8
0
  0
ENDSEC
  0
SECTION
  2
ENTITIES
  0
TEXT
  5
C8A
  8
NOTE
  6
CONTINUOUS
 10
-1088.8291740332361
 20
-259.13038127694142
 30
0.0
 40
64.0
  1
AH 2-12×36
 41
0.9
  0
LINE
  5
C8B
  8
NOTE
  6
CONTINUOUS
 10
-1103.609479033234
 20
-274.23268227694132
 30
0.0
 11
-530.5400718084968
 21
-274.23268227694132
 31
0.0
  0
CIRCLE
  5
C8C
  8
ARRANGE
  6
CONTINUOUS
 10
0.0
 20
0.0
 30
0.0
 40
40.0
  0
LINE
  5
C8D
  8
BASIS
  6
DASHDOT
 10
-466.797845249847
 20
472.99999999953889
 30
0.0
 11
160.79784525015299
 21
472.99999999953889
 31
0.0
  0
POINT
  5
C8E
  8
ARRANGE
  6
CONTINUOUS
 10
0.0
 20
0.0
 30
0.0
  0
CIRCLE
  5
C8F
  8
FIX
  6
CONTINUOUS
 10
-300.0
 20
0.0
 30
0.0
 40
40.0
  0
LINE
  5
C90
  8
DETAIL
  6
CONTINOUS
 10
-316.0
 20
22.999999999999542
 30
0.0
 11
-316.0
 21
0.0
 31
0.0
  0
LINE
  5
C91
  8
DETAIL
  6
CONTINOUS
 10
-284.0
 20
22.999999999999542
 30
0.0
 11
-284.0
 21
0.0
 31
0.0
  0
LINE
  5
C92
  8
BASIS
  6
DASHDOT
 10
0.0
 20
985.82556143500028
 30
0.0
 11
0.0
 21
-80.029089744999965
 31
0.0
  0
LINE
  5
C93
  8
NOTE
  6
CONTINOUS
 10
-300.0
 20
20.0
 30
0.0
 11
-300.0
 21
-20.0
 31
0.0
  0
LINE
  5
C94
  8
NOTE
  6
CONTINOUS
 10
-320.0
 20
0.0
 30
0.0
 11
-280.0
 21
0.0
 31
0.0
  0
LINE
  5
C95
  8
DETAIL
  6
CONTINOUS
 10
-316.0
 20
0.0
 30
0.0
 11
-284.0
 21
0.0
 31
0.0
  0
LINE
  5
C96
  8
DETAIL
  6
CONTINOUS
 10
-474.99999999999989
 20
23.0
 30
0.0
 11
-474.99999999999989
 21
943.0
 31
0.0
  0
CIRCLE
  5
C97
  8
FIX
  6
CONTINUOUS
 10
300.0
 20
0.0
 30
0.0
 40
40.0
  0
LINE
  5
C98
  8
DETAIL
  6
CONTINOUS
 10
284.0
 20
22.999999999999542
 30
0.0
 11
284.0
 21
0.0
 31
0.0
  0
LINE
  5
C99
  8
DETAIL
  6
CONTINOUS
 10
316.0
 20
22.999999999999542
 30
0.0
 11
316.0
 21
0.0
 31
0.0
  0
LINE
  5
C9A
  8
NOTE
  6
CONTINOUS
 10
300.0
 20
20.0
 30
0.0
 11
300.0
 21
-20.0
 31
0.0
  0
TEXT
  5
C9B
  8
ETC
  6
CONTINUOUS
 10
1198.457716830522
 20
-227.77569851777071
 30
0.0
 40
64.0
  1
SMPU2912
 41
0.9
  0
LINE
  5
C9C
  8
NOTE
  6
CONTINOUS
 10
280.0
 20
0.0
 30
0.0
 11
320.0
 21
0.0
 31
0.0
  0
LINE
  5
C9D
  8
DETAIL
  6
CONTINOUS
 10
284.0
 20
0.0
 30
0.0
 11
316.0
 21
0.0
 31
0.0
  0
TEXT
  5
C9E
  8
ETC
  6
CONTINUOUS
 10
1210.280460830523
 20
-346.94229951777061
 30
0.0
 40
64.0
  1
室外機
 41
0.9
  0
LINE
  5
C9F
  8
DETAIL
  6
CONTINOUS
 10
475.0
 20
23.0
 30
0.0
 11
475.0
 21
943.0
 31
0.0
  0
POLYLINE
  5
CA0
  8
NOTE
  6
CONTINUOUS
 66
     1
 10
0.0
 20
0.0
 30
0.0
  0
VERTEX
  5
F5E
  8
NOTE
  6
CONTINUOUS
 10
-317.21532719432111
 20
-36.105851700936903
 30
0.0
  0
VERTEX
  5
F5F
  8
NOTE
  6
CONTINUOUS
 10
-300.0
 20
0.0
 30
0.0
  0
VERTEX
  5
F60
  8
NOTE
  6
CONTINUOUS
 10
-332.96183612112861
 20
-22.660921497029889
 30
0.0
  0
SEQEND
  5
F61
  8
NOTE
  6
CONTINUOUS
  0
LINE
  5
CA5
  8
NOTE
  6
CONTINUOUS
 10
-300.0
 20
0.0
 30
0.0
 11
-530.5400718084968
 21
-274.23268227694132
 31
0.0
  0
ARC
  5
CA6
  8
DETAIL
 10
-153.61937628180141
 20
473.26828366777681
 30
1.0049964175586230E+099
 40
278.11950567951942
 50
324.25620727272252
 51
35.03548794368136
  0
ARC
  5
CA7
  8
DETAIL
 10
228.79236219197679
 20
175.15382299351339
 30
1.0049964175586230E+099
 40
207.24088905766081
 50
139.11513446632151
 51
177.55355879231041
  0
ARC
  5
CA8
  8
DETAIL
 10
228.79236219785309
 20
770.84617699756575
 30
1.0049964175586230E+099
 40
207.24088905766081
 50
182.44644120522111
 51
221.71892069730279
  0
ARC
  5
CA9
  8
DETAIL
 10
-152.3806237154941
 20
473.2682836677705
 30
1.0049964175586230E+099
 40
278.11950567951942
 50
144.96451205575141
 51
215.74379272671311
  0
ARC
  5
CAA
  8
DETAIL
 10
-534.79236219221355
 20
770.84617700133208
 30
1.0049964175586230E+099
 40
207.24088905766081
 50
318.28107930213451
 51
357.38201467665021
  0
ARC
  5
CAB
  8
DETAIL
 10
-534.79236219221355
 20
175.1538229972798
 30
1.0049964175586230E+099
 40
207.24088905766081
 50
2.6179853233495911
 51
40.884865533106122
  0
LINE
  5
CAC
  8
DETAIL
 10
136.00000000015311
 20
752.50144689601404
 30
0.0
 11
136.00000000015311
 21
193.4985531035295
 31
0.0
  0
LINE
  5
CAD
  8
DETAIL
 10
-441.99999999984732
 20
193.49855310259679
 30
0.0
 11
-441.99999999984732
 21
752.5014468960145
 31
0.0
  0
LINE
  5
CAE
  8
DETAIL
 10
126.50144689616739
 20
183.9999999999994
 30
0.0
 11
-432.50144689631691
 21
183.9999999999994
 31
0.0
  0
ARC
  5
CAF
  8
DETAIL
 10
-432.4999999998472
 20
193.4999999999994
 30
0.0
 40
9.5000001101846365
 50
180.0087264246668
 51
269.99127357533303
  0
ARC
  5
CB0
  8
DETAIL
 10
126.50000000015299
 20
193.4999999999994
 30
0.0
 40
9.5000001101846365
 50
270.0087264246668
 51
359.99127357533303
  0
LINE
  5
CB1
  8
DETAIL
 10
-432.50144689061511
 20
762.00000000000102
 30
0.0
 11
126.50144689616739
 21
762.0
 31
0.0
  0
ARC
  5
CB2
  8
DETAIL
 10
-432.49999999984681
 20
752.5
 30
0.0
 40
9.5000001101848621
 50
90.008726424666946
 51
179.991273575333
  0
ARC
  5
CB3
  8
DETAIL
 10
126.50144689616739
 20
752.50144689601404
 30
0.0
 40
9.4985531039857793
 50
0.0
 51
90.0
  0
LINE
  5
CB4
  8
BASIS
  6
DASHDOT
 10
-152.99999999984689
 20
786.79784524953902
 30
0.0
 11
-152.99999999984689
 21
159.20215474953861
 31
0.0
  0
LINE
  5
CB5
  8
DETAIL
 10
-157.99999999984681
 20
762.00000000000034
 30
0.0
 11
-157.99999999984681
 21
183.9999999999994
 31
0.0
  0
LINE
  5
CB6
  8
DETAIL
 10
-147.99999999984689
 20
762.00000000000034
 30
0.0
 11
-147.99999999984689
 21
183.9999999999994
 31
0.0
  0
LINE
  5
CB7
  8
DETAIL
 10
-137.99999999984681
 20
762.00000000000034
 30
0.0
 11
-137.99999999984681
 21
183.9999999999994
 31
0.0
  0
LINE
  5
CB8
  8
DETAIL
 10
-127.99999999984691
 20
762.00000000000034
 30
0.0
 11
-127.99999999984691
 21
183.9999999999994
 31
0.0
  0
LINE
  5
CB9
  8
DETAIL
 10
-117.99999999984691
 20
762.00000000000034
 30
0.0
 11
-117.99999999984691
 21
183.9999999999994
 31
0.0
  0
LINE
  5
CBA
  8
DETAIL
 10
-107.99999999984691
 20
762.00000000000034
 30
0.0
 11
-107.99999999984691
 21
183.9999999999994
 31
0.0
  0
LINE
  5
CBB
  8
DETAIL
 10
-97.999999999846992
 20
762.00000000000034
 30
0.0
 11
-97.999999999846992
 21
183.9999999999994
 31
0.0
  0
LINE
  5
CBC
  8
DETAIL
 10
-87.999999999846949
 20
762.00000000000034
 30
0.0
 11
-87.999999999846949
 21
183.9999999999994
 31
0.0
  0
LINE
  5
CBD
  8
DETAIL
 10
-77.999999999846978
 20
762.00000000000034
 30
0.0
 11
-77.999999999846978
 21
183.9999999999994
 31
0.0
  0
LINE
  5
CBE
  8
DETAIL
 10
-67.999999999846978
 20
762.00000000000034
 30
0.0
 11
-67.999999999846978
 21
183.9999999999994
 31
0.0
  0
LINE
  5
CBF
  8
DETAIL
 10
-57.99999999984697
 20
762.00000000000034
 30
0.0
 11
-57.99999999984697
 21
183.9999999999994
 31
0.0
  0
LINE
  5
CC0
  8
DETAIL
 10
-47.99999999984697
 20
762.00000000000034
 30
0.0
 11
-47.99999999984697
 21
183.9999999999994
 31
0.0
  0
LINE
  5
CC1
  8
DETAIL
 10
-37.99999999984697
 20
762.00000000000034
 30
0.0
 11
-37.99999999984697
 21
183.9999999999994
 31
0.0
  0
LINE
  5
CC2
  8
DETAIL
 10
-27.99999999984697
 20
762.00000000000034
 30
0.0
 11
-27.99999999984697
 21
183.9999999999994
 31
0.0
  0
LINE
  5
CC3
  8
DETAIL
 10
-17.99999999984697
 20
762.00000000000034
 30
0.0
 11
-17.99999999984697
 21
183.9999999999994
 31
0.0
  0
LINE
  5
CC4
  8
DETAIL
 10
-7.9999999998469749
 20
762.00000000000034
 30
0.0
 11
-7.9999999998469749
 21
183.9999999999994
 31
0.0
  0
LINE
  5
CC5
  8
DETAIL
 10
2.000000000153022
 20
762.00000000000034
 30
0.0
 11
2.000000000153022
 21
183.9999999999994
 31
0.0
  0
LINE
  5
CC6
  8
DETAIL
 10
12.00000000015301
 20
762.00000000000034
 30
0.0
 11
12.00000000015301
 21
183.9999999999994
 31
0.0
  0
LINE
  5
CC7
  8
DETAIL
 10
22.000000000152991
 20
757.21881356567519
 30
0.0
 11
22.000000000153001
 21
188.78118651457481
 31
0.0
  0
LINE
  5
CC8
  8
DETAIL
 10
32.000000000153022
 20
705.87270334824632
 30
0.0
 11
32.000000000153022
 21
240.12729666063109
 31
0.0
  0
LINE
  5
CC9
  8
DETAIL
 10
42.000000000153022
 20
681.08315832053563
 30
0.0
 11
42.000000000153037
 21
264.91684168277158
 31
0.0
  0
LINE
  5
CCA
  8
DETAIL
 10
52.00000000015303
 20
662.71086007489328
 30
0.0
 11
52.000000000153037
 21
283.28913992579351
 31
0.0
  0
LINE
  5
CCB
  8
DETAIL
 10
62.00000000015303
 20
647.84579484400956
 30
0.0
 11
62.000000000153037
 21
298.15420515503803
 31
0.0
  0
LINE
  5
CCC
  8
DETAIL
 10
72.000000000153022
 20
635.32886720330066
 30
0.0
 11
72.000000000153022
 21
310.6711327945776
 31
0.0
  0
LINE
  5
CCD
  8
DETAIL
 10
82.000000000153022
 20
621.03150290694634
 30
0.0
 11
82.000000000153022
 21
325.50506442860672
 31
0.0
  0
LINE
  5
CCE
  8
DETAIL
 10
92.000000000152994
 20
603.73506654481389
 30
0.0
 11
92.000000000152994
 21
342.80150079073991
 31
0.0
  0
LINE
  5
CCF
  8
DETAIL
 10
102.00000000015299
 20
582.85475139369987
 30
0.0
 11
102.00000000015299
 21
363.68181594185359
 31
0.0
  0
LINE
  5
CD0
  8
DETAIL
 10
112.00000000015299
 20
555.71102975865915
 30
0.0
 11
112.00000000015299
 21
390.82553757689431
 31
0.0
  0
LINE
  5
CD1
  8
DETAIL
 10
122.00000000015299
 20
510.47606319527108
 30
0.0
 11
122.00000000015299
 21
436.06050414028272
 31
0.0
  0
LINE
  5
CD2
  8
DETAIL
 10
-427.99999999984692
 20
510.47606319527108
 30
0.0
 11
-427.99999999984692
 21
436.06050414028272
 31
0.0
  0
LINE
  5
CD3
  8
DETAIL
 10
-327.99999999984681
 20
757.21881356567519
 30
0.0
 11
-327.99999999984681
 21
188.78118651457481
 31
0.0
  0
LINE
  5
CD4
  8
DETAIL
 10
-417.99999999984698
 20
555.71102975865915
 30
0.0
 11
-417.99999999984698
 21
390.82553757689431
 31
0.0
  0
LINE
  5
CD5
  8
DETAIL
 10
-407.99999999984669
 20
582.85475139369987
 30
0.0
 11
-407.99999999984669
 21
363.68181594185359
 31
0.0
  0
LINE
  5
CD6
  8
DETAIL
 10
-397.99999999984681
 20
603.73506654481389
 30
0.0
 11
-397.99999999984681
 21
342.80150079073991
 31
0.0
  0
LINE
  5
CD7
  8
DETAIL
 10
-387.99999999984681
 20
621.03150290694634
 30
0.0
 11
-387.99999999984681
 21
325.50506442860672
 31
0.0
  0
LINE
  5
CD8
  8
DETAIL
 10
-377.99999999984681
 20
635.32886720330066
 30
0.0
 11
-377.99999999984681
 21
310.6711327945776
 31
0.0
  0
LINE
  5
CD9
  8
DETAIL
 10
-367.99999999984681
 20
647.84579484400956
 30
0.0
 11
-367.99999999984681
 21
298.15420515503803
 31
0.0
  0
LINE
  5
CDA
  8
DETAIL
 10
-357.99999999984669
 20
662.71086007489328
 30
0.0
 11
-357.99999999984669
 21
283.28913992579351
 31
0.0
  0
LINE
  5
CDB
  8
DETAIL
 10
-347.99999999984681
 20
681.08315832053563
 30
0.0
 11
-347.99999999984681
 21
264.91684168277158
 31
0.0
  0
LINE
  5
CDC
  8
DETAIL
 10
-337.99999999984698
 20
705.87270334824632
 30
0.0
 11
-337.99999999984698
 21
240.12729666063109
 31
0.0
  0
LINE
  5
CDD
  8
DETAIL
 10
-317.99999999984681
 20
762.00000000000034
 30
0.0
 11
-317.99999999984681
 21
183.9999999999994
 31
0.0
  0
LINE
  5
CDE
  8
DETAIL
 10
-307.99999999984669
 20
762.00000000000034
 30
0.0
 11
-307.99999999984669
 21
183.9999999999994
 31
0.0
  0
LINE
  5
CDF
  8
DETAIL
 10
-237.99999999984701
 20
762.00000000000034
 30
0.0
 11
-237.99999999984701
 21
183.9999999999994
 31
0.0
  0
LINE
  5
CE0
  8
DETAIL
 10
-227.99999999984689
 20
762.00000000000034
 30
0.0
 11
-227.99999999984689
 21
183.9999999999994
 31
0.0
  0
LINE
  5
CE1
  8
DETAIL
 10
-217.99999999984681
 20
762.00000000000034
 30
0.0
 11
-217.99999999984681
 21
183.9999999999994
 31
0.0
  0
LINE
  5
CE2
  8
DETAIL
 10
-207.99999999984669
 20
762.00000000000034
 30
0.0
 11
-207.99999999984669
 21
183.9999999999994
 31
0.0
  0
LINE
  5
CE3
  8
DETAIL
 10
-197.99999999984689
 20
762.00000000000034
 30
0.0
 11
-197.99999999984689
 21
183.9999999999994
 31
0.0
  0
LINE
  5
CE4
  8
DETAIL
 10
-187.99999999984669
 20
762.00000000000034
 30
0.0
 11
-187.99999999984669
 21
183.9999999999994
 31
0.0
  0
LINE
  5
CE5
  8
DETAIL
 10
-177.99999999984689
 20
762.00000000000034
 30
0.0
 11
-177.99999999984689
 21
183.9999999999994
 31
0.0
  0
LINE
  5
CE6
  8
DETAIL
 10
-167.99999999984681
 20
762.00000000000034
 30
0.0
 11
-167.99999999984681
 21
183.9999999999994
 31
0.0
  0
LINE
  5
CE7
  8
DETAIL
 10
-297.99999999984681
 20
762.00000000000034
 30
0.0
 11
-297.99999999984681
 21
183.9999999999994
 31
0.0
  0
LINE
  5
CE8
  8
DETAIL
 10
-287.99999999984681
 20
762.00000000000034
 30
0.0
 11
-287.99999999984681
 21
183.9999999999994
 31
0.0
  0
LINE
  5
CE9
  8
DETAIL
 10
-277.99999999984681
 20
762.00000000000034
 30
0.0
 11
-277.99999999984681
 21
183.9999999999994
 31
0.0
  0
LINE
  5
CEA
  8
DETAIL
 10
-267.99999999984681
 20
762.00000000000034
 30
0.0
 11
-267.99999999984681
 21
183.9999999999994
 31
0.0
  0
LINE
  5
CEB
  8
DETAIL
 10
-257.99999999984669
 20
762.00000000000034
 30
0.0
 11
-257.99999999984669
 21
183.9999999999994
 31
0.0
  0
LINE
  5
CEC
  8
DETAIL
 10
-247.99999999984681
 20
762.00000000000034
 30
0.0
 11
-247.99999999984681
 21
183.9999999999994
 31
0.0
  0
LINE
  5
CED
  8
DETAIL
 10
-157.99999999984681
 20
762.00000000000034
 30
0.0
 11
-157.99999999984681
 21
183.9999999999994
 31
0.0
  0
LINE
  5
CEE
  8
NOTE
  6
CONTINOUS
 10
295.0
 20
663.0
 30
0.0
 11
255.0
 21
663.0
 31
0.0
  0
LINE
  5
CEF
  8
NOTE
  6
CONTINOUS
 10
275.0
 20
643.0
 30
0.0
 11
275.0
 21
683.0
 31
0.0
  0
LINE
  5
CF0
  8
NOTE
  6
CONTINOUS
 10
387.0
 20
447.0
 30
0.0
 11
347.0
 21
447.0
 31
0.0
  0
LINE
  5
CF1
  8
NOTE
  6
CONTINOUS
 10
367.0
 20
427.0
 30
0.0
 11
367.0
 21
467.0
 31
0.0
  0
LINE
  5
CF2
  8
NOTE
  6
CONTINOUS
 10
453.0
 20
443.0
 30
0.0
 11
413.0
 21
443.0
 31
0.0
  0
LINE
  5
CF3
  8
NOTE
  6
CONTINOUS
 10
433.0
 20
423.0
 30
0.0
 11
433.0
 21
463.0
 31
0.0
  0
LINE
  5
CF4
  8
DETAIL
  6
CONTINUOUS
 10
475.0
 20
23.0
 30
0.0
 11
-474.99999999999989
 21
23.0
 31
0.0
  0
DIMENSION
  5
CF5
  8
SIZE
  6
CONTINUOUS
  2
*D12
 10
-587.48247724767032
 20
0.0000000000000758
 30
0.0
 11
-649.61747724767019
 21
11.499999999999959
 31
0.0
 70
     0
 13
-474.99999999999989
 23
23.0
 33
0.0
 14
-320.0
 24
0.0
 34
0.0
 50
90.0
1001
ACAD
1000
DSTYLE
1002
{
1070
     6
1000
DOTBLANK
1070
     7
1000
DOTBLANK
1070
    41
1040
10.0
1070
    42
1040
20.0
1070
    43
1040
200.0
1070
    44
1040
30.0
1070
    73
1070
     0
1070
    74
1070
     0
1070
    77
1070
     1
1070
    78
1070
     8
1070
   140
1040
64.0
1070
   172
1070
     1
1070
   173
1070
     1
1002
}
  0
DIMENSION
  5
CF6
  8
SIZE
  6
CONTINUOUS
  2
*D10
 10
-727.23196829527205
 20
472.99999999953889
 30
0.0
 11
-759.3219682952722
 21
236.49999999976939
 31
0.0
 70
     0
 13
-320.0
 23
0.0
 33
0.0
 14
-466.797845249847
 24
472.99999999953889
 34
0.0
 50
90.0
1001
ACAD
1000
DSTYLE
1002
{
1070
     6
1000
DOTBLANK
1070
     7
1000
DOTBLANK
1070
    41
1040
10.0
1070
    42
1040
20.0
1070
    43
1040
200.0
1070
    44
1040
30.0
1070
    73
1070
     0
1070
    74
1070
     0
1070
    77
1070
     1
1070
    78
1070
     8
1070
   140
1040
64.0
1070
   172
1070
     1
1070
   173
1070
     1
1002
}
  0
LINE
  5
CF7
  8
DETAIL
  6
CONTINUOUS
 10
-474.99999999999989
 20
943.0
 30
0.0
 11
475.0
 21
943.0
 31
0.0
  0
DIMENSION
  5
CF8
  8
SIZE
  6
CONTINUOUS
  2
*D9
 10
-868.74271351267362
 20
943.00000000000011
 30
0.0
 11
-900.83271351267388
 21
471.49999999999989
 31
0.0
 70
     0
 13
-320.0
 23
0.0
 33
0.0
 14
-474.99999999999989
 24
943.0
 34
0.0
 50
90.0
1001
ACAD
1000
DSTYLE
1002
{
1070
     6
1000
DOTBLANK
1070
     7
1000
DOTBLANK
1070
    41
1040
10.0
1070
    42
1040
20.0
1070
    43
1040
200.0
1070
    44
1040
30.0
1070
    73
1070
     0
1070
    74
1070
     0
1070
    77
1070
     1
1070
    78
1070
     8
1070
   140
1040
64.0
1070
   172
1070
     1
1070
   173
1070
     1
1002
}
  0
DIMENSION
  5
CF9
  8
SIZE
  6
CONTINUOUS
  2
*D13
 10
-152.99999999984681
 20
1083.2426985211659
 30
0.0
 11
-308.1034555592359
 21
1129.1629212570949
 31
0.0
 70
   128
 13
-474.99999999999989
 23
943.0
 33
0.0
 14
-152.99999999984689
 24
786.79784524953902
 34
0.0
1001
ACAD
1000
DSTYLE
1002
{
1070
     6
1000
DOTBLANK
1070
     7
1000
DOTBLANK
1070
    41
1040
10.0
1070
    42
1040
20.0
1070
    43
1040
200.0
1070
    44
1040
30.0
1070
    73
1070
     0
1070
    74
1070
     0
1070
    77
1070
     1
1070
    78
1070
     8
1070
   140
1040
64.0
1070
   172
1070
     1
1070
   173
1070
     1
1002
}
  0
DIMENSION
  5
CFA
  8
SIZE
  6
CONTINUOUS
  2
*D8
 10
475.0
 20
1261.561867104529
 30
0.0
 11
3.824670963288554
 21
1309.1996020614481
 31
0.0
 70
   128
 13
-474.99999999999989
 23
943.0
 33
0.0
 14
475.0
 24
943.0
 34
0.0
1001
ACAD
1000
DSTYLE
1002
{
1070
     6
1000
DOTBLANK
1070
     7
1000
DOTBLANK
1070
    41
1040
10.0
1070
    42
1040
20.0
1070
    43
1040
200.0
1070
    44
1040
30.0
1070
    73
1070
     0
1070
    74
1070
     0
1070
    77
1070
     1
1070
    78
1070
     8
1070
   140
1040
64.0
1070
   172
1070
     1
1070
   173
1070
     1
1002
}
  0
DIMENSION
  5
CFB
  8
SIZE
  6
CONTINUOUS
  2
*D19
 10
475.0
 20
266.03391228826359
 30
0.0
 11
561.62857142857115
 21
266.03391228826359
 31
0.0
 70
   128
 13
433.0
 23
423.0
 33
0.0
 14
475.0
 24
23.0
 34
0.0
1001
ACAD
1000
DSTYLE
1002
{
1070
     6
1000
DOTBLANK
1070
     7
1000
DOTBLANK
1070
    41
1040
10.0
1070
    42
1040
20.0
1070
    43
1040
200.0
1070
    44
1040
30.0
1070
    73
1070
     0
1070
    74
1070
     0
1070
    77
1070
     1
1070
    78
1070
     8
1070
   140
1040
64.0
1070
   172
1070
     1
1070
   173
1070
     1
1002
}
  0
DIMENSION
  5
CFC
  8
SIZE
  6
CONTINUOUS
  2
*D18
 10
433.0
 20
154.8947144222825
 30
0.0
 11
299.85385704419059
 21
191.40447736186161
 31
0.0
 70
   128
 13
367.0
 23
427.0
 33
0.0
 14
433.0
 24
423.0
 34
0.0
1001
ACAD
1000
DSTYLE
1002
{
1070
     6
1000
DOTBLANK
1070
     7
1000
DOTBLANK
1070
    41
1040
10.0
1070
    42
1040
20.0
1070
    43
1040
200.0
1070
    44
1040
30.0
1070
    73
1070
     0
1070
    74
1070
     0
1070
    77
1070
     1
1070
    78
1070
     8
1070
   140
1040
64.0
1070
   172
1070
     1
1070
   173
1070
     1
1002
}
  0
DIMENSION
  5
CFD
  8
SIZE
  6
CONTINUOUS
  2
*D17
 10
475.0
 20
1083.2426985211659
 30
0.0
 11
373.63637793290297
 21
1135.59280447329
 31
0.0
 70
   128
 13
275.0
 23
690.0
 33
0.0
 14
475.0
 24
23.0
 34
0.0
1001
ACAD
1000
DSTYLE
1002
{
1070
     6
1000
DOTBLANK
1070
     7
1000
DOTBLANK
1070
    41
1040
10.0
1070
    42
1040
20.0
1070
    43
1040
200.0
1070
    44
1040
30.0
1070
    73
1070
     0
1070
    74
1070
     0
1070
    77
1070
     1
1070
    78
1070
     8
1070
   140
1040
64.0
1070
   172
1070
     1
1070
   173
1070
     1
1002
}
  0
DIMENSION
  5
CFE
  8
SIZE
  6
CONTINUOUS
  2
*D16
 10
787.6924051261858
 20
442.99999999999989
 30
0.0
 11
755.60240512618554
 21
221.5
 31
0.0
 70
     0
 13
316.0
 23
0.0
 33
0.0
 14
453.0
 24
443.0
 34
0.0
 50
90.0
1001
ACAD
1000
DSTYLE
1002
{
1070
     6
1000
DOTBLANK
1070
     7
1000
DOTBLANK
1070
    41
1040
10.0
1070
    42
1040
20.0
1070
    43
1040
200.0
1070
    44
1040
30.0
1070
    73
1070
     0
1070
    74
1070
     0
1070
    77
1070
     1
1070
    78
1070
     8
1070
   140
1040
64.0
1070
   172
1070
     1
1070
   173
1070
     1
1002
}
  0
TEXT
  5
D00
  8
NOTE
  6
CONTINUOUS
 10
687.74983536164655
 20
859.03326903581365
 30
0.0
 40
64.0
  1
RL%%C9.52
 41
0.9
  0
LINE
  5
D01
  8
NOTE
  6
CONTINUOUS
 10
1033.9773809217049
 20
839.31662178698502
 30
0.0
 11
660.26981727950226
 21
839.31662178698434
 31
0.0
  0
LINE
  5
D02
  8
NOTE
  6
CONTINUOUS
 10
642.77094667509925
 20
723.61745293822526
 30
0.0
 11
1079.591221793368
 21
723.6174529382256
 31
0.0
  0
TEXT
  5
D03
  8
NOTE
  6
CONTINUOUS
 10
681.07714041584563
 20
743.89880893822556
 30
0.0
 40
64.0
  1
RG%%C15.88
 41
0.9
  0
LINE
  5
D04
  8
NOTE
  6
CONTINUOUS
 10
573.5025517774842
 20
1062.316621786983
 30
0.0
 11
816.69015457722492
 21
1062.316621786983
 31
0.0
  0
TEXT
  5
D05
  8
NOTE
  6
CONTINUOUS
 10
583.05012227950215
 20
1077.418922786984
 30
0.0
 40
64.0
  1
EL,CL
 41
0.9
  0
LINE
  5
D06
  8
NOTE
  6
CONTINUOUS
 10
275.0
 20
663.0
 30
0.0
 11
573.5025517774842
 21
1062.316621786983
 31
0.0
  0
POLYLINE
  5
D07
  8
NOTE
  6
CONTINUOUS
 66
     1
 10
0.0
 20
0.0
 30
0.0
  0
VERTEX
  5
FB3
  8
NOTE
  6
CONTINUOUS
 10
290.12549742409982
 20
700.02997900527532
 30
0.0
  0
VERTEX
  5
FB4
  8
NOTE
  6
CONTINUOUS
 10
275.0
 20
663.0
 30
0.0
  0
VERTEX
  5
FB5
  8
NOTE
  6
CONTINUOUS
 10
306.61405408647988
 20
687.50615407990063
 30
0.0
  0
SEQEND
  5
FB6
  8
NOTE
  6
CONTINUOUS
  0
LINE
  5
D0C
  8
NOTE
  6
CONTINUOUS
 10
367.0
 20
447.0
 30
0.0
 11
660.26981727950226
 21
839.31662178698434
 31
0.0
  0
POLYLINE
  5
D0D
  8
NOTE
  6
CONTINUOUS
 66
     1
 10
0.0
 20
0.0
 30
0.0
  0
VERTEX
  5
FB7
  8
NOTE
  6
CONTINUOUS
 10
382.12549742409988
 20
484.02997900527521
 30
0.0
  0
VERTEX
  5
FB8
  8
NOTE
  6
CONTINUOUS
 10
367.0
 20
447.0
 30
0.0
  0
VERTEX
  5
FB9
  8
NOTE
  6
CONTINUOUS
 10
398.61405408647983
 20
471.50615407990051
 30
0.0
  0
SEQEND
  5
FBA
  8
NOTE
  6
CONTINUOUS
  0
LINE
  5
D12
  8
NOTE
  6
CONTINUOUS
 10
433.0
 20
443.0
 30
0.0
 11
642.77094667509925
 21
723.61745293822526
 31
0.0
  0
POLYLINE
  5
D13
  8
NOTE
  6
CONTINUOUS
 66
     1
 10
0.0
 20
0.0
 30
0.0
  0
VERTEX
  5
FBB
  8
NOTE
  6
CONTINUOUS
 10
448.12549742409988
 20
480.0299790052751
 30
0.0
  0
VERTEX
  5
FBC
  8
NOTE
  6
CONTINUOUS
 10
433.0
 20
443.0
 30
0.0
  0
VERTEX
  5
FBD
  8
NOTE
  6
CONTINUOUS
 10
464.61405408647988
 20
467.50615407990051
 30
0.0
  0
SEQEND
  5
FBE
  8
NOTE
  6
CONTINUOUS
  0
DIMENSION
  5
D18
  8
SIZE
  6
CONTINUOUS
  2
*D7
 10
300.0
 20
-406.3464041100973
 30
0.0
 11
-2.606836234883303
 21
-356.13966459812218
 31
0.0
 70
   128
 13
-300.0
 23
-20.0
 33
0.0
 14
300.0
 24
-20.0
 34
0.0
1001
ACAD
1000
DSTYLE
1002
{
1070
     6
1000
DOTBLANK
1070
     7
1000
DOTBLANK
1070
    41
1040
10.0
1070
    42
1040
20.0
1070
    43
1040
200.0
1070
    44
1040
30.0
1070
    73
1070
     0
1070
    74
1070
     0
1070
    77
1070
     1
1070
    78
1070
     8
1070
   140
1040
64.0
1070
   172
1070
     1
1070
   173
1070
     1
1002
}
  0
DIMENSION
  5
D19
  8
SIZE
  6
CONTINUOUS
  2
*D11
 10
-474.99999999999989
 20
-406.3464041100973
 30
0.0
 11
-378.85004257089622
 21
-359.35460312815121
 31
0.0
 70
   128
 13
-300.0
 23
-20.0
 33
0.0
 14
-474.99999999999989
 24
23.0
 34
0.0
1001
ACAD
1000
DSTYLE
1002
{
1070
     6
1000
DOTBLANK
1070
     7
1000
DOTBLANK
1070
    41
1040
10.0
1070
    42
1040
20.0
1070
    43
1040
200.0
1070
    44
1040
30.0
1070
    73
1070
     0
1070
    74
1070
     0
1070
    77
1070
     1
1070
    78
1070
     8
1070
   140
1040
64.0
1070
   172
1070
     1
1070
   173
1070
     1
1002
}
  0
DIMENSION
  5
D1A
  8
SIZE
  6
CONTINUOUS
  2
*D20
 10
475.0
 20
-406.3464041100973
 30
0.0
 11
389.71514201244548
 21
-349.70978138192731
 31
0.0
 70
   128
 13
300.0
 23
-20.0
 33
0.0
 14
475.0
 24
23.0
 34
0.0
1001
ACAD
1000
DSTYLE
1002
{
1070
     6
1000
DOTBLANK
1070
     7
1000
DOTBLANK
1070
    41
1040
10.0
1070
    42
1040
20.0
1070
    43
1040
200.0
1070
    44
1040
30.0
1070
    73
1070
     0
1070
    74
1070
     0
1070
    77
1070
     1
1070
    78
1070
     8
1070
   140
1040
64.0
1070
   172
1070
     1
1070
   173
1070
     1
1002
}
  0
DIMENSION
  5
D1B
  8
SIZE
  6
CONTINUOUS
  2
*D6
 10
-475.0
 20
-543.01396200505178
 30
0.0
 11
3.824670963288554
 21
-491.1671690452485
 31
0.0
 70
   128
 13
475.0
 23
23.0
 33
0.0
 14
-474.99999999999989
 24
23.0
 34
0.0
1001
ACAD
1000
DSTYLE
1002
{
1070
     6
1000
DOTBLANK
1070
     7
1000
DOTBLANK
1070
    41
1040
10.0
1070
    42
1040
20.0
1070
    43
1040
200.0
1070
    44
1040
30.0
1070
    73
1070
     0
1070
    74
1070
     0
1070
    77
1070
     1
1070
    78
1070
     8
1070
   140
1040
64.0
1070
   172
1070
     1
1070
   173
1070
     1
1002
}
  0
DIMENSION
  5
D1C
  8
SIZE
  6
CONTINUOUS
  2
*D14
 10
954.02239245208784
 20
446.99999999999972
 30
0.0
 11
921.93239245208758
 21
223.49999999999989
 31
0.0
 70
     0
 13
320.0
 23
0.0
 33
0.0
 14
387.0
 24
447.0
 34
0.0
 50
90.0
1001
ACAD
1000
DSTYLE
1002
{
1070
     6
1000
DOTBLANK
1070
     7
1000
DOTBLANK
1070
    41
1040
10.0
1070
    42
1040
20.0
1070
    43
1040
200.0
1070
    44
1040
30.0
1070
    73
1070
     0
1070
    74
1070
     0
1070
    77
1070
     1
1070
    78
1070
     8
1070
   140
1040
64.0
1070
   172
1070
     1
1070
   173
1070
     1
1002
}
  0
DIMENSION
  5
E97
  8
SIZE
  6
CONTINUOUS
  2
*D21
 10
1110.044026525386
 20
-0.0000000000002238
 30
0.0
 11
1110.044026525386
 21
341.50245812839779
 31
0.0
 70
   128
 13
295.0
 23
663.0
 33
0.0
 14
320.0
 24
0.0
 34
0.0
 50
90.0
1001
ACAD
1000
DSTYLE
1002
{
1070
   287
1070
     3
1070
    41
1040
10.0
1070
    42
1040
20.0
1070
    43
1040
200.0
1070
    44
1040
30.0
1070
    73
1070
     0
1070
    74
1070
     0
1070
    77
1070
     1
1070
    78
1070
     8
1070
   140
1040
64.0
1070
   172
1070
     1
1070
   173
1070
     1
1070
   275
1070
     0
1070
   279
1070
     0
1070
   284
1070
     0
1070
   285
1070
     0
1070
   286
1070
     0
1002
}
  0
LINE
  5
F37
  8
OUTLINE
  6
CONTINUOUS
 10
-475.0
 20
943.0
 30
0.0
 11
475.0
 21
943.0
 31
0.0
  0
LINE
  5
F38
  8
OUTLINE
  6
CONTINUOUS
 10
475.0
 20
23.0
 30
0.0
 11
-475.0
 21
23.0
 31
0.0
  0
LINE
  5
F39
  8
OUTLINE
  6
CONTINOUS
 10
475.0
 20
23.0
 30
0.0
 11
475.0
 21
943.0
 31
0.0
  0
LINE
  5
F3A
  8
OUTLINE
  6
CONTINOUS
 10
284.0
 20
0.0
 30
0.0
 11
316.0
 21
0.0
 31
0.0
  0
LINE
  5
F3B
  8
OUTLINE
  6
CONTINOUS
 10
284.0
 20
22.999999999999542
 30
0.0
 11
284.0
 21
0.0
 31
0.0
  0
LINE
  5
F3C
  8
OUTLINE
  6
CONTINOUS
 10
316.0
 20
22.999999999999542
 30
0.0
 11
316.0
 21
0.0
 31
0.0
  0
LINE
  5
F3D
  8
OUTLINE
  6
CONTINOUS
 10
-475.0
 20
23.0
 30
0.0
 11
-475.0
 21
943.0
 31
0.0
  0
LINE
  5
F3E
  8
OUTLINE
  6
CONTINOUS
 10
-316.0
 20
0.0
 30
0.0
 11
-284.0
 21
0.0
 31
0.0
  0
LINE
  5
F3F
  8
OUTLINE
  6
CONTINOUS
 10
-316.0
 20
22.999999999999542
 30
0.0
 11
-316.0
 21
0.0
 31
0.0
  0
LINE
  5
F40
  8
OUTLINE
  6
CONTINOUS
 10
-284.0
 20
22.999999999999542
 30
0.0
 11
-284.0
 21
0.0
 31
0.0
  0
ENDSEC
  0
EOF
