  0
SECTION
  2
HEADER
  9
$ACADVER
  1
AC1009
  9
$INSBASE
 10
0.0
 20
0.0
 30
0.0
  9
$EXTMIN
 10
-1175.47893
 20
-757.81494659250109
 30
0.0
  9
$EXTMAX
 10
1230.364849999999
 20
446.78294793971639
 30
0.0
  9
$LIMMIN
 10
-2428.899553052323
 20
-3385.7899241372602
  9
$LIMMAX
 10
5476.8888439526536
 20
849.23357081275742
  9
$ORTHOMODE
 70
     1
  9
$REGENMODE
 70
     1
  9
$FILLMODE
 70
     1
  9
$QTEXTMODE
 70
     0
  9
$MIRRTEXT
 70
     0
  9
$DRAGMODE
 70
     2
  9
$LTSCALE
 40
20.0
  9
$OSMODE
 70
    37
  9
$ATTMODE
 70
     1
  9
$TEXTSIZE
 40
64.0
  9
$TRACEWID
 40
0.05
  9
$TEXTSTYLE
  7
STANDARD
  9
$CLAYER
  8
SIZE
  9
$CELTYPE
  6
CONTINUOUS
  9
$CECOLOR
 62
   256
  9
$DIMSCALE
 40
1.0
  9
$DIMASZ
 40
10.0
  9
$DIMEXO
 40
20.0
  9
$DIMDLI
 40
200.0
  9
$DIMRND
 40
0.0
  9
$DIMDLE
 40
0.0
  9
$DIMEXE
 40
30.0
  9
$DIMTP
 40
0.0
  9
$DIMTM
 40
0.0
  9
$DIMTXT
 40
64.0
  9
$DIMCEN
 40
0.09
  9
$DIMTSZ
 40
0.0
  9
$DIMTOL
 70
     0
  9
$DIMLIM
 70
     0
  9
$DIMTIH
 70
     0
  9
$DIMTOH
 70
     0
  9
$DIMSE1
 70
     0
  9
$DIMSE2
 70
     0
  9
$DIMTAD
 70
     1
  9
$DIMZIN
 70
     8
  9
$DIMBLK
  1
ORIGIN
  9
$DIMASO
 70
     1
  9
$DIMSHO
 70
     0
  9
$DIMPOST
  1

  9
$DIMAPOST
  1

  9
$DIMALT
 70
     0
  9
$DIMALTD
 70
     2
  9
$DIMALTF
 40
25.399999999999999
  9
$DIMLFAC
 40
1.0
  9
$DIMTOFL
 70
     1
  9
$DIMTVP
 40
0.0
  9
$DIMTIX
 70
     0
  9
$DIMSOXD
 70
     0
  9
$DIMSAH
 70
     0
  9
$DIMBLK1
  1

  9
$DIMBLK2
  1

  9
$DIMSTYLE
  2
STANDARD
  9
$DIMCLRD
 70
     0
  9
$DIMCLRE
 70
     0
  9
$DIMCLRT
 70
     0
  9
$DIMTFAC
 40
1.0
  9
$DIMGAP
 40
20.0
  9
$LUNITS
 70
     2
  9
$LUPREC
 70
     4
  9
$SKETCHINC
 40
0.1
  9
$FILLETRAD
 40
5.0
  9
$AUNITS
 70
     1
  9
$AUPREC
 70
     3
  9
$MENU
  1
ACAD
  9
$ELEVATION
 40
0.0
  9
$PELEVATION
 40
0.0
  9
$THICKNESS
 40
0.0
  9
$LIMCHECK
 70
     0
  9
$BLIPMODE
 70
     0
  9
$CHAMFERA
 40
0.0
  9
$CHAMFERB
 40
0.0
  9
$SKPOLY
 70
     0
  9
$TDCREATE
 40
2450330.3932059952
  9
$TDUPDATE
 40
2453182.5073699648
  9
$TDINDWG
 40
0.3849903935
  9
$TDUSRTIMER
 40
0.3849903935
  9
$USRTIMER
 70
     1
  9
$ANGBASE
 50
0.0
  9
$ANGDIR
 70
     0
  9
$PDMODE
 70
     3
  9
$PDSIZE
 40
-2.0
  9
$PLINEWID
 40
0.0
  9
$COORDS
 70
     1
  9
$SPLFRAME
 70
     0
  9
$SPLINETYPE
 70
     6
  9
$SPLINESEGS
 70
     8
  9
$ATTDIA
 70
     0
  9
$ATTREQ
 70
     1
  9
$HANDLING
 70
 10241
  9
$HANDSEED
  5
105B
  9
$SURFTAB1
 70
     6
  9
$SURFTAB2
 70
     6
  9
$SURFTYPE
 70
     6
  9
$SURFU
 70
     6
  9
$SURFV
 70
     6
  9
$UCSNAME
  2

  9
$UCSORG
 10
0.0
 20
0.0
 30
0.0
  9
$UCSXDIR
 10
1.0
 20
0.0
 30
0.0
  9
$UCSYDIR
 10
0.0
 20
1.0
 30
0.0
  9
$PUCSNAME
  2

  9
$PUCSORG
 10
0.0
 20
0.0
 30
0.0
  9
$PUCSXDIR
 10
1.0
 20
0.0
 30
0.0
  9
$PUCSYDIR
 10
0.0
 20
1.0
 30
0.0
  9
$USERI1
 70
     0
  9
$USERI2
 70
     0
  9
$USERI3
 70
     0
  9
$USERI4
 70
     0
  9
$USERI5
 70
     0
  9
$USERR1
 40
20.0
  9
$USERR2
 40
0.0
  9
$USERR3
 40
0.0
  9
$USERR4
 40
0.0
  9
$USERR5
 40
0.0
  9
$WORLDVIEW
 70
     1
  9
$SHADEDGE
 70
     3
  9
$SHADEDIF
 70
    70
  9
$TILEMODE
 70
     1
  9
$MAXACTVP
 70
    64
  9
$PLIMCHECK
 70
     0
  9
$PEXTMIN
 10
1.0000000000000000E+020
 20
1.0000000000000000E+020
 30
1.0000000000000000E+020
  9
$PEXTMAX
 10
-1.0000000000000000E+020
 20
-1.0000000000000000E+020
 30
-1.0000000000000000E+020
  9
$PLIMMIN
 10
0.0
 20
0.0
  9
$PLIMMAX
 10
12.0
 20
9.0
  9
$UNITMODE
 70
     0
  9
$VISRETAIN
 70
     1
  9
$PLINEGEN
 70
     0
  9
$PSLTSCALE
 70
     1
  0
ENDSEC
  0
SECTION
  2
TABLES
  0
TABLE
  2
VPORT
 70
     2
  0
VPORT
  2
*ACTIVE
 70
     0
 10
0.0
 20
0.0
 11
1.0
 21
1.0
 12
403.6730527037364
 22
-113.4618585706248
 13
0.0
 23
0.0
 14
50.0
 24
50.0
 15
100.0
 25
100.0
 16
0.0
 26
0.0
 36
1.0
 17
0.0
 27
0.0
 37
0.0
 40
2521.4004111616409
 41
1.5139593908629441
 42
50.0
 43
0.0
 44
0.0
 50
0.0
 51
0.0
 71
     0
 72
   500
 73
     1
 74
     0
 75
     0
 76
     0
 77
     0
 78
     0
  0
ENDTAB
  0
TABLE
  2
LTYPE
 70
    15
  0
LTYPE
  2
CONTINUOUS
 70
     0
  3
実線
 72
    65
 73
     0
 40
0.0
  0
LTYPE
  2
DASHDOT
 70
     0
  3
____ _ ____ _ ____ _ ____ _ ____ _ ____ _ ____
 72
    65
 73
     4
 40
5.5
 49
4.0
 49
-0.6
 49
0.3
 49
-0.6
  0
LTYPE
  2
CONTINOUS
 70
     0
  3
Solid line
 72
    65
 73
     0
 40
0.0
  0
LTYPE
  2
BORDER
 70
     0
  3
BORDER
 72
    65
 73
     6
 40
1.75
 49
0.5
 49
-0.25
 49
0.5
 49
-0.25
 49
0.0
 49
-0.25
  0
LTYPE
  2
CENTER
 70
     0
  3
CENTER
 72
    65
 73
     4
 40
2.0
 49
1.25
 49
-0.25
 49
0.25
 49
-0.25
  0
LTYPE
  2
DASHED
 70
     0
  3
DASHED
 72
    65
 73
     2
 40
0.75
 49
0.5
 49
-0.25
  0
LTYPE
  2
DIVIDE
 70
     0
  3
DIVIDE
 72
    65
 73
     6
 40
1.25
 49
0.5
 49
-0.25
 49
0.0
 49
-0.25
 49
0.0
 49
-0.25
  0
LTYPE
  2
DOT
 70
     0
  3
DOT
 72
    65
 73
     2
 40
0.25
 49
0.0
 49
-0.25
  0
LTYPE
  2
HIDDEN
 70
     0
  3
HIDDEN
 72
    65
 73
     2
 40
0.375
 49
0.25
 49
-0.125
  0
LTYPE
  2
PHANTOM
 70
     0
  3
PHANTOM
 72
    65
 73
     6
 40
2.5
 49
1.25
 49
-0.25
 49
0.25
 49
-0.25
 49
0.25
 49
-0.25
  0
LTYPE
  2
$INVISIBLE
 70
     0
  3
$INVISIBLE
 72
    65
 73
     2
 40
200.0
 49
-100.0
 49
-100.0
  0
LTYPE
  2
$MARGINS
 70
     0
  3
$MARGINS
 72
    65
 73
     2
 40
0.075
 49
0.05
 49
-0.025
  0
LTYPE
  2
JLSTYLE_0
 70
     0
  3
JLSTYLE_0
 72
    65
 73
     4
 40
1.0
 49
0.5
 49
-0.25
 49
0.0
 49
-0.25
  0
LTYPE
  2
JLSTYLE_1
 70
     0
  3
JLSTYLE_1
 72
    65
 73
     2
 40
0.75
 49
0.5
 49
-0.25
  0
LTYPE
  2
JLSTYLE_2
 70
     0
  3
JLSTYLE_2
 72
    65
 73
     6
 40
1.25
 49
0.5
 49
-0.25
 49
0.0
 49
-0.25
 49
0.0
 49
-0.25
  0
ENDTAB
  0
TABLE
  2
LAYER
 70
    13
  0
LAYER
  2
0
 70
     0
 62
     7
  6
CONTINUOUS
  0
LAYER
  2
SIZE
 70
     0
 62
    32
  6
CONTINUOUS
  0
LAYER
  2
DETAIL
 70
     0
 62
     5
  6
CONTINUOUS
  0
LAYER
  2
OUTLINE
 70
     0
 62
     3
  6
CONTINUOUS
  0
LAYER
  2
BASIS
 70
     0
 62
     6
  6
CONTINUOUS
  0
LAYER
  2
NOTE
 70
     0
 62
     4
  6
CONTINUOUS
  0
LAYER
  2
ARRANGE
 70
     0
 62
     1
  6
CONTINUOUS
  0
LAYER
  2
FIX
 70
     0
 62
   241
  6
CONTINUOUS
  0
LAYER
  2
ETC
 70
     0
 62
    83
  6
CONTINUOUS
  0
LAYER
  2
SERVICESPACE
 70
     0
 62
     2
  6
CONTINUOUS
  0
LAYER
  2
SYMBOLLINE
 70
     0
 62
    38
  6
CONTINUOUS
  0
LAYER
  2
DEFPOINTS
 70
     0
 62
     7
  6
CONTINUOUS
  0
LAYER
  2
SERVICE_SPACE
 70
     0
 62
     2
  6
CONTINUOUS
  0
ENDTAB
  0
TABLE
  2
STYLE
 70
     1
  0
STYLE
  2
STANDARD
 70
     0
 40
0.0
 41
0.9
 50
0.0
 71
     0
 42
64.0
  3
SIMPLEX
  4
BIGFONT
  0
ENDTAB
  0
TABLE
  2
VIEW
 70
     1
  0
VIEW
  2
ALL
 70
     0
 40
4282.6199999999999
 10
0.0
 20
41.309903999999989
 41
5940.0
 11
0.0
 21
0.0
 31
1.0
 12
0.0
 22
0.0
 32
0.0
 42
50.0
 43
0.0
 44
0.0
 50
0.0
 71
     0
  0
ENDTAB
  0
TABLE
  2
UCS
 70
     0
  0
ENDTAB
  0
TABLE
  2
APPID
 70
     1
  0
APPID
  2
ACAD
 70
     0
  0
ENDTAB
  0
TABLE
  2
DIMSTYLE
 70
     1
  0
DIMSTYLE
  2
STANDARD
 70
     0
  3

  4

  5

  6

  7

 40
1.0
 41
0.18
 42
0.0625
 43
0.38
 44
0.18
 45
0.0
 46
0.0
 47
0.0
 48
0.0
140
0.18
141
0.09
142
0.0
143
25.399999999999999
144
1.0
145
0.0
146
1.0
147
0.09
 71
     0
 72
     0
 73
     1
 74
     1
 75
     0
 76
     0
 77
     0
 78
     0
170
     0
171
     2
172
     0
173
     0
174
     0
175
     0
176
     0
177
     0
178
     0
  0
ENDTAB
  0
ENDSEC
  0
SECTION
  2
BLOCKS
  0
BLOCK
  8
0
  2
$MODEL_SPACE
 70
     0
 10
0.0
 20
0.0
 30
0.0
  3
$MODEL_SPACE
  1

  0
ENDBLK
  5
D55
  8
0
  0
BLOCK
 67
     1
  8
0
  2
$PAPER_SPACE
 70
     0
 10
0.0
 20
0.0
 30
0.0
  3
$PAPER_SPACE
  1

  0
ENDBLK
  5
D51
 67
     1
  8
0
  0
BLOCK
  8
0
  2
_ORIGIN
 70
     0
 10
0.0
 20
0.0
 30
0.0
  3
_ORIGIN
  1

  0
CIRCLE
  5
D7E
  8
0
  6
BYBLOCK
 62
     0
 10
0.0
 20
0.0
 30
0.0
 40
0.5
  0
LINE
  5
D7F
  8
0
  6
BYBLOCK
 62
     0
 10
0.0
 20
0.0
 30
0.0
 11
-1.0
 21
0.0
 31
0.0
  0
ENDBLK
  5
D80
  8
0
  0
BLOCK
  8
0
  2
*D3
 70
     1
 10
0.0
 20
0.0
 30
0.0
  3
*D3
  1

  0
LINE
  5
D83
  8
SIZE
  6
CONTINUOUS
 62
     0
 10
-420.0
 20
-253.0
 30
0.0
 11
-420.0
 21
-509.36497745244912
 31
0.0
  0
LINE
  5
D84
  8
SIZE
  6
CONTINUOUS
 62
     0
 10
420.0
 20
-253.0
 30
0.0
 11
420.0
 21
-509.36497745244912
 31
0.0
  0
LINE
  5
D85
  8
SIZE
  6
CONTINUOUS
 62
     0
 10
-410.0
 20
-479.36497745244912
 30
0.0
 11
410.0
 21
-479.36497745244912
 31
0.0
  0
INSERT
  5
D86
  8
SIZE
  6
CONTINUOUS
 62
     0
  2
_ORIGIN
 10
-420.0
 20
-479.36497745244912
 30
0.0
 41
10.0
 42
10.0
 43
10.0
 50
180.0
  0
INSERT
  5
D87
  8
SIZE
  6
CONTINUOUS
 62
     0
  2
_ORIGIN
 10
420.0
 20
-479.36497745244912
 30
0.0
 41
10.0
 42
10.0
 43
10.0
  0
TEXT
  5
D88
  8
SIZE
  6
CONTINUOUS
 62
     0
 10
-74.057142857142864
 20
-459.36497745244912
 30
0.0
 40
64.0
  1
840
 41
0.9
  0
POINT
  5
D89
  8
DEFPOINTS
  6
CONTINUOUS
 62
     0
 10
-420.0
 20
-233.0
 30
0.0
  0
POINT
  5
D8A
  8
DEFPOINTS
  6
CONTINUOUS
 62
     0
 10
420.0
 20
-233.0
 30
0.0
  0
POINT
  5
D8B
  8
DEFPOINTS
  6
CONTINUOUS
 62
     0
 10
420.0
 20
-479.36497745244912
 30
0.0
  0
ENDBLK
  5
D8C
  8
0
  0
BLOCK
  8
0
  2
*D4
 70
     1
 10
0.0
 20
0.0
 30
0.0
  3
*D4
  1

  0
LINE
  5
D8F
  8
SIZE
  6
CONTINUOUS
 62
     0
 10
0.0000000000000012
 20
71.79273000000002
 30
0.0
 11
0.0000000000000138
 21
277.66770401076423
 31
0.0
  0
LINE
  5
D90
  8
SIZE
  6
CONTINUOUS
 62
     0
 10
-352.0
 20
40.0
 30
0.0
 11
-352.0
 21
277.66770401076423
 31
0.0
  0
LINE
  5
D91
  8
SIZE
  6
CONTINUOUS
 62
     0
 10
-9.9999999999999876
 20
247.66770401076431
 30
0.0
 11
-342.0
 21
247.66770401076431
 31
0.0
  0
INSERT
  5
D92
  8
SIZE
  6
CONTINUOUS
 62
     0
  2
_ORIGIN
 10
0.000000000000012
 20
247.66770401076431
 30
0.0
 41
10.0
 42
10.0
 43
10.0
  0
INSERT
  5
D93
  8
SIZE
  6
CONTINUOUS
 62
     0
  2
_ORIGIN
 10
-352.0
 20
247.66770401076431
 30
0.0
 41
10.0
 42
10.0
 43
10.0
 50
180.0
  0
TEXT
  5
D94
  8
SIZE
  6
CONTINUOUS
 62
     0
 10
-250.05714285714279
 20
267.66770401076423
 30
0.0
 40
64.0
  1
352
 41
0.9
  0
POINT
  5
D95
  8
DEFPOINTS
  6
CONTINUOUS
 62
     0
 10
0.0
 20
51.792729999999999
 30
0.0
  0
POINT
  5
D96
  8
DEFPOINTS
  6
CONTINUOUS
 62
     0
 10
-352.0
 20
20.0
 30
0.0
  0
POINT
  5
D97
  8
DEFPOINTS
  6
CONTINUOUS
 62
     0
 10
-352.0
 20
247.66770401076431
 30
0.0
  0
ENDBLK
  5
D98
  8
0
  0
BLOCK
  8
0
  2
*D5
 70
     1
 10
0.0
 20
0.0
 30
0.0
  3
*D5
  1

  0
LINE
  5
D9B
  8
SIZE
  6
CONTINUOUS
 62
     0
 10
0.0000000000000012
 20
71.79273000000002
 30
0.0
 11
0.0000000000000138
 21
277.66770401076423
 31
0.0
  0
LINE
  5
D9C
  8
SIZE
  6
CONTINUOUS
 62
     0
 10
337.0
 20
40.0
 30
0.0
 11
337.0
 21
277.66770401076423
 31
0.0
  0
LINE
  5
D9D
  8
SIZE
  6
CONTINUOUS
 62
     0
 10
10.000000000000011
 20
247.66770401076431
 30
0.0
 11
327.0
 21
247.66770401076431
 31
0.0
  0
INSERT
  5
D9E
  8
SIZE
  6
CONTINUOUS
 62
     0
  2
_ORIGIN
 10
0.000000000000012
 20
247.66770401076431
 30
0.0
 41
10.0
 42
10.0
 43
10.0
 50
180.0
  0
INSERT
  5
D9F
  8
SIZE
  6
CONTINUOUS
 62
     0
  2
_ORIGIN
 10
337.0
 20
247.66770401076431
 30
0.0
 41
10.0
 42
10.0
 43
10.0
  0
TEXT
  5
DA0
  8
SIZE
  6
CONTINUOUS
 62
     0
 10
94.442857142857136
 20
267.66770401076423
 30
0.0
 40
64.0
  1
337
 41
0.9
  0
POINT
  5
DA1
  8
DEFPOINTS
  6
CONTINUOUS
 62
     0
 10
0.0
 20
51.792729999999999
 30
0.0
  0
POINT
  5
DA2
  8
DEFPOINTS
  6
CONTINUOUS
 62
     0
 10
337.0
 20
20.0
 30
0.0
  0
POINT
  5
DA3
  8
DEFPOINTS
  6
CONTINUOUS
 62
     0
 10
337.0
 20
247.66770401076431
 30
0.0
  0
ENDBLK
  5
DA4
  8
0
  0
BLOCK
  8
0
  2
*D6
 70
     1
 10
0.0
 20
0.0
 30
0.0
  3
*D6
  1

  0
LINE
  5
DA7
  8
SIZE
  6
CONTINUOUS
 62
     0
 10
-352.0
 20
40.0
 30
0.0
 11
-352.0
 21
277.66770401076423
 31
0.0
  0
LINE
  5
DA8
  8
SIZE
  6
CONTINUOUS
 62
     0
 10
-420.0
 20
-29.808365678619531
 30
0.0
 11
-420.0
 21
277.66770401076423
 31
0.0
  0
LINE
  5
DA9
  8
SIZE
  6
CONTINUOUS
 62
     0
 10
-342.0
 20
247.66770401076431
 30
0.0
 11
-332.0
 21
247.66770401076431
 31
0.0
  0
LINE
  5
DAA
  8
SIZE
  6
CONTINUOUS
 62
     0
 10
-430.0
 20
247.66770401076431
 30
0.0
 11
-573.25714285714275
 21
247.66770401076431
 31
0.0
  0
LINE
  5
DAB
  8
SIZE
  6
CONTINUOUS
 62
     0
 10
-352.0
 20
247.66770401076431
 30
0.0
 11
-420.0
 21
247.66770401076431
 31
0.0
  0
INSERT
  5
DAC
  8
SIZE
  6
CONTINUOUS
 62
     0
  2
_ORIGIN
 10
-352.0
 20
247.66770401076431
 30
0.0
 41
10.0
 42
10.0
 43
10.0
 50
180.0
  0
INSERT
  5
DAD
  8
SIZE
  6
CONTINUOUS
 62
     0
  2
_ORIGIN
 10
-420.0
 20
247.66770401076431
 30
0.0
 41
10.0
 42
10.0
 43
10.0
  0
TEXT
  5
DAE
  8
SIZE
  6
CONTINUOUS
 62
     0
 10
-553.25714285714275
 20
267.66770401076423
 30
0.0
 40
64.0
  1
68
 41
0.9
  0
POINT
  5
DAF
  8
DEFPOINTS
  6
CONTINUOUS
 62
     0
 10
-352.0
 20
20.0
 30
0.0
  0
POINT
  5
DB0
  8
DEFPOINTS
  6
CONTINUOUS
 62
     0
 10
-420.0
 20
-49.808365678619531
 30
0.0
  0
POINT
  5
DB1
  8
DEFPOINTS
  6
CONTINUOUS
 62
     0
 10
-420.0
 20
247.66770401076431
 30
0.0
  0
ENDBLK
  5
DB2
  8
0
  0
BLOCK
  8
0
  2
*D7
 70
     1
 10
0.0
 20
0.0
 30
0.0
  3
*D7
  1

  0
LINE
  5
DB5
  8
SIZE
  6
CONTINUOUS
 62
     0
 10
337.0
 20
40.0
 30
0.0
 11
337.0
 21
277.66770401076423
 31
0.0
  0
LINE
  5
DB6
  8
SIZE
  6
CONTINUOUS
 62
     0
 10
420.00000000000011
 20
-29.808365678619591
 30
0.0
 11
420.00000000000011
 21
277.66770401076423
 31
0.0
  0
LINE
  5
DB7
  8
SIZE
  6
CONTINUOUS
 62
     0
 10
327.0
 20
247.66770401076431
 30
0.0
 11
317.0
 21
247.66770401076431
 31
0.0
  0
LINE
  5
DB8
  8
SIZE
  6
CONTINUOUS
 62
     0
 10
430.0
 20
247.66770401076431
 30
0.0
 11
573.25714285714287
 21
247.66770401076431
 31
0.0
  0
LINE
  5
DB9
  8
SIZE
  6
CONTINUOUS
 62
     0
 10
337.0
 20
247.66770401076431
 30
0.0
 11
420.00000000000011
 21
247.66770401076431
 31
0.0
  0
INSERT
  5
DBA
  8
SIZE
  6
CONTINUOUS
 62
     0
  2
_ORIGIN
 10
337.0
 20
247.66770401076431
 30
0.0
 41
10.0
 42
10.0
 43
10.0
  0
INSERT
  5
DBB
  8
SIZE
  6
CONTINUOUS
 62
     0
  2
_ORIGIN
 10
420.00000000000011
 20
247.66770401076431
 30
0.0
 41
10.0
 42
10.0
 43
10.0
 50
180.0
  0
TEXT
  5
DBC
  8
SIZE
  6
CONTINUOUS
 62
     0
 10
460.0
 20
267.66770401076423
 30
0.0
 40
64.0
  1
83
 41
0.9
  0
POINT
  5
DBD
  8
DEFPOINTS
  6
CONTINUOUS
 62
     0
 10
337.0
 20
20.0
 30
0.0
  0
POINT
  5
DBE
  8
DEFPOINTS
  6
CONTINUOUS
 62
     0
 10
420.00000000000011
 20
-49.808365678619602
 30
0.0
  0
POINT
  5
DBF
  8
DEFPOINTS
  6
CONTINUOUS
 62
     0
 10
420.00000000000011
 20
247.66770401076431
 30
0.0
  0
ENDBLK
  5
DC0
  8
0
  0
BLOCK
  8
0
  2
*D8
 70
     1
 10
0.0
 20
0.0
 30
0.0
  3
*D8
  1

  0
LINE
  5
DC3
  8
SIZE
  6
CONTINUOUS
 62
     0
 10
-430.0
 20
-1468.6681578089731
 30
0.0
 11
-607.88564535690955
 21
-1468.6681578089731
 31
0.0
  0
LINE
  5
DC4
  8
SIZE
  6
CONTINUOUS
 62
     0
 10
-430.0
 20
-1170.668157808974
 30
0.0
 11
-607.88564535690955
 21
-1170.668157808974
 31
0.0
  0
LINE
  5
DC5
  8
SIZE
  6
CONTINUOUS
 62
     0
 10
-577.88564535690966
 20
-1458.668157808974
 30
0.0
 11
-577.88564535690966
 21
-1180.668157808974
 31
0.0
  0
INSERT
  5
DC6
  8
SIZE
  6
CONTINUOUS
 62
     0
  2
_ORIGIN
 10
-577.88564535690966
 20
-1468.6681578089731
 30
0.0
 41
10.0
 42
10.0
 43
10.0
 50
270.0
  0
INSERT
  5
DC7
  8
SIZE
  6
CONTINUOUS
 62
     0
  2
_ORIGIN
 10
-577.88564535690966
 20
-1170.668157808974
 30
0.0
 41
10.0
 42
10.0
 43
10.0
 50
90.0
  0
TEXT
  5
DC8
  8
SIZE
  6
CONTINUOUS
 62
     0
 10
-597.88564535690955
 20
-1393.725300666116
 30
0.0
 40
64.0
  1
298
 50
90.0
 41
0.9
  0
POINT
  5
DC9
  8
DEFPOINTS
  6
CONTINUOUS
 62
     0
 10
-410.0
 20
-1468.6681578089731
 30
0.0
  0
POINT
  5
DCA
  8
DEFPOINTS
  6
CONTINUOUS
 62
     0
 10
-410.0
 20
-1170.668157808974
 30
0.0
  0
POINT
  5
DCB
  8
DEFPOINTS
  6
CONTINUOUS
 62
     0
 10
-577.88564535690966
 20
-1170.668157808974
 30
0.0
  0
ENDBLK
  5
DCC
  8
0
  0
BLOCK
  8
0
  2
*D9
 70
     1
 10
0.0
 20
0.0
 30
0.0
  3
*D9
  1

  0
LINE
  5
DCF
  8
SIZE
  6
CONTINUOUS
 62
     0
 10
-420.0
 20
-1160.6681578089731
 30
0.0
 11
-420.0
 21
-1002.493004975886
 31
0.0
  0
LINE
  5
DD0
  8
SIZE
  6
CONTINUOUS
 62
     0
 10
420.0
 20
-1160.6681578089731
 30
0.0
 11
420.0
 21
-1002.493004975886
 31
0.0
  0
LINE
  5
DD1
  8
SIZE
  6
CONTINUOUS
 62
     0
 10
-410.0
 20
-1032.4930049758859
 30
0.0
 11
410.0
 21
-1032.4930049758859
 31
0.0
  0
INSERT
  5
DD2
  8
SIZE
  6
CONTINUOUS
 62
     0
  2
_ORIGIN
 10
-420.0
 20
-1032.4930049758859
 30
0.0
 41
10.0
 42
10.0
 43
10.0
 50
180.0
  0
INSERT
  5
DD3
  8
SIZE
  6
CONTINUOUS
 62
     0
  2
_ORIGIN
 10
420.0
 20
-1032.4930049758859
 30
0.0
 41
10.0
 42
10.0
 43
10.0
  0
TEXT
  5
DD4
  8
SIZE
  6
CONTINUOUS
 62
     0
 10
-74.057142857142864
 20
-1012.493004975886
 30
0.0
 40
64.0
  1
840
 41
0.9
  0
POINT
  5
DD5
  8
DEFPOINTS
  6
CONTINUOUS
 62
     0
 10
-420.0
 20
-1180.668157808974
 30
0.0
  0
POINT
  5
DD6
  8
DEFPOINTS
  6
CONTINUOUS
 62
     0
 10
420.0
 20
-1180.668157808974
 30
0.0
  0
POINT
  5
DD7
  8
DEFPOINTS
  6
CONTINUOUS
 62
     0
 10
420.0
 20
-1032.4930049758859
 30
0.0
  0
ENDBLK
  5
DD8
  8
0
  0
BLOCK
  8
0
  2
*D10
 70
     1
 10
0.0
 20
0.0
 30
0.0
  3
*D10
  1

  0
LINE
  5
DDB
  8
SIZE
  6
CONTINUOUS
 62
     0
 10
-1325.3866894535561
 20
-1170.668157808974
 30
0.0
 11
-1836.871079740944
 21
-1170.668157808974
 31
0.0
  0
LINE
  5
DDC
  8
SIZE
  6
CONTINUOUS
 62
     0
 10
-1365.3866894535561
 20
-1468.6681578089731
 30
0.0
 11
-1836.871079740944
 21
-1468.6681578089731
 31
0.0
  0
LINE
  5
DDD
  8
SIZE
  6
CONTINUOUS
 62
     0
 10
-1806.871079740944
 20
-1180.668157808974
 30
0.0
 11
-1806.871079740944
 21
-1458.668157808974
 31
0.0
  0
INSERT
  5
DDE
  8
SIZE
  6
CONTINUOUS
 62
     0
  2
_ORIGIN
 10
-1806.871079740944
 20
-1170.668157808974
 30
0.0
 41
10.0
 42
10.0
 43
10.0
 50
90.0
  0
INSERT
  5
DDF
  8
SIZE
  6
CONTINUOUS
 62
     0
  2
_ORIGIN
 10
-1806.871079740944
 20
-1468.6681578089731
 30
0.0
 41
10.0
 42
10.0
 43
10.0
 50
270.0
  0
TEXT
  5
DE0
  8
SIZE
  6
CONTINUOUS
 62
     0
 10
-1826.8710797409431
 20
-1393.725300666116
 30
0.0
 40
64.0
  1
298
 50
90.0
 41
0.9
  0
POINT
  5
DE1
  8
DEFPOINTS
  6
CONTINUOUS
 62
     0
 10
-1305.3866894535561
 20
-1170.668157808974
 30
0.0
  0
POINT
  5
DE2
  8
DEFPOINTS
  6
CONTINUOUS
 62
     0
 10
-1345.3866894535561
 20
-1468.6681578089731
 30
0.0
  0
POINT
  5
DE3
  8
DEFPOINTS
  6
CONTINUOUS
 62
     0
 10
-1806.871079740944
 20
-1468.6681578089731
 30
0.0
  0
ENDBLK
  5
DE4
  8
0
  0
BLOCK
  8
0
  2
*D11
 70
     1
 10
0.0
 20
0.0
 30
0.0
  3
*D11
  1

  0
LINE
  5
DE7
  8
SIZE
  6
CONTINUOUS
 62
     0
 10
1680.553510123251
 20
-1170.668157808974
 30
0.0
 11
2192.037900410638
 21
-1170.668157808974
 31
0.0
  0
LINE
  5
DE8
  8
SIZE
  6
CONTINUOUS
 62
     0
 10
1720.553510123252
 20
-1468.6681578089731
 30
0.0
 11
2192.037900410638
 21
-1468.6681578089731
 31
0.0
  0
LINE
  5
DE9
  8
SIZE
  6
CONTINUOUS
 62
     0
 10
2162.0379004106398
 20
-1180.668157808974
 30
0.0
 11
2162.0379004106398
 21
-1458.668157808974
 31
0.0
  0
INSERT
  5
DEA
  8
SIZE
  6
CONTINUOUS
 62
     0
  2
_ORIGIN
 10
2162.0379004106398
 20
-1170.668157808974
 30
0.0
 41
10.0
 42
10.0
 43
10.0
 50
90.0
  0
INSERT
  5
DEB
  8
SIZE
  6
CONTINUOUS
 62
     0
  2
_ORIGIN
 10
2162.0379004106398
 20
-1468.6681578089731
 30
0.0
 41
10.0
 42
10.0
 43
10.0
 50
270.0
  0
TEXT
  5
DEC
  8
SIZE
  6
CONTINUOUS
 62
     0
 10
2142.0379004106398
 20
-1393.725300666116
 30
0.0
 40
64.0
  1
298
 50
90.0
 41
0.9
  0
POINT
  5
DED
  8
DEFPOINTS
  6
CONTINUOUS
 62
     0
 10
1660.553510123252
 20
-1170.668157808974
 30
0.0
  0
POINT
  5
DEE
  8
DEFPOINTS
  6
CONTINUOUS
 62
     0
 10
1700.553510123252
 20
-1468.6681578089731
 30
0.0
  0
POINT
  5
DEF
  8
DEFPOINTS
  6
CONTINUOUS
 62
     0
 10
2162.0379004106398
 20
-1468.6681578089731
 30
0.0
  0
ENDBLK
  5
DF0
  8
0
  0
BLOCK
  8
0
  2
*D12
 70
     1
 10
0.0
 20
0.0
 30
0.0
  3
*D12
  1

  0
LINE
  5
DF3
  8
SIZE
  6
CONTINUOUS
 62
     0
 10
-420.0
 20
10.0
 30
0.0
 11
-420.0
 21
205.99371073835789
 31
0.0
  0
LINE
  5
DF4
  8
SIZE
  6
CONTINUOUS
 62
     0
 10
420.0
 20
10.0
 30
0.0
 11
420.0
 21
205.99371073835789
 31
0.0
  0
LINE
  5
DF5
  8
SIZE
  6
CONTINUOUS
 62
     0
 10
-410.0
 20
175.993710738358
 30
0.0
 11
410.0
 21
175.993710738358
 31
0.0
  0
INSERT
  5
DF6
  8
SIZE
  6
CONTINUOUS
 62
     0
  2
_ORIGIN
 10
-420.0
 20
175.993710738358
 30
0.0
 41
10.0
 42
10.0
 43
10.0
 50
180.0
  0
INSERT
  5
DF7
  8
SIZE
  6
CONTINUOUS
 62
     0
  2
_ORIGIN
 10
420.0
 20
175.993710738358
 30
0.0
 41
10.0
 42
10.0
 43
10.0
  0
TEXT
  5
DF8
  8
0
 62
     0
 10
-128.0
 20
114.714
 30
0.0
 40
64.0
  1
840
  0
POINT
  5
DF9
  8
DEFPOINTS
  6
CONTINUOUS
 62
     0
 10
-420.0
 20
-10.0
 30
0.0
  0
POINT
  5
DFA
  8
DEFPOINTS
  6
CONTINUOUS
 62
     0
 10
420.0
 20
-10.0
 30
0.0
  0
POINT
  5
DFB
  8
DEFPOINTS
  6
CONTINUOUS
 62
     0
 10
420.0
 20
175.993710738358
 30
0.0
  0
ENDBLK
  5
DFC
  8
0
  0
BLOCK
  8
0
  2
*D13
 70
     1
 10
0.0
 20
0.0
 30
0.0
  3
*D13
  1

  0
LINE
  5
DFF
  8
SIZE
  6
CONTINUOUS
 62
     0
 10
430.0
 20
-298.0
 30
0.0
 11
776.42450542074391
 21
-298.0
 31
0.0
  0
LINE
  5
E00
  8
SIZE
  6
CONTINUOUS
 62
     0
 10
430.0
 20
-0.0000000000000057
 30
0.0
 11
776.42450542074403
 21
-0.0000000000001038
 31
0.0
  0
LINE
  5
E01
  8
SIZE
  6
CONTINUOUS
 62
     0
 10
746.42450542074391
 20
-288.0
 30
0.0
 11
746.42450542074403
 21
-10.000000000000091
 31
0.0
  0
INSERT
  5
E02
  8
SIZE
  6
CONTINUOUS
 62
     0
  2
_ORIGIN
 10
746.42450542074391
 20
-298.0
 30
0.0
 41
10.0
 42
10.0
 43
10.0
 50
270.0
  0
INSERT
  5
E03
  8
SIZE
  6
CONTINUOUS
 62
     0
  2
_ORIGIN
 10
746.42450542074403
 20
-0.0000000000000953
 30
0.0
 41
10.0
 42
10.0
 43
10.0
 50
90.0
  0
TEXT
  5
E04
  8
0
 62
     0
 10
566.42499999999995
 20
-262.27999999999992
 30
0.0
 40
64.0
  1
298
  0
POINT
  5
E05
  8
DEFPOINTS
  6
CONTINUOUS
 62
     0
 10
410.0
 20
-298.0
 30
0.0
  0
POINT
  5
E06
  8
DEFPOINTS
  6
CONTINUOUS
 62
     0
 10
410.0
 20
0.0
 30
0.0
  0
POINT
  5
E07
  8
DEFPOINTS
  6
CONTINUOUS
 62
     0
 10
746.42450542074403
 20
-0.0000000000000953
 30
0.0
  0
ENDBLK
  5
E08
  8
0
  0
BLOCK
  8
0
  2
*D14
 70
     1
 10
0.0
 20
0.0
 30
0.0
  3
*D14
  1

  0
LINE
  5
E0B
  8
SIZE
  6
CONTINUOUS
 62
     0
 10
-0.0000000000000012
 20
-353.90525838125478
 30
0.0
 11
-0.0000000000000163
 21
-599.8149465925012
 31
0.0
  0
LINE
  5
E0C
  8
SIZE
  6
CONTINUOUS
 62
     0
 10
-337.0
 20
-296.0
 30
0.0
 11
-337.0
 21
-599.8149465925012
 31
0.0
  0
LINE
  5
E0D
  8
SIZE
  6
CONTINUOUS
 62
     0
 10
-10.000000000000011
 20
-569.8149465925012
 30
0.0
 11
-327.0
 21
-569.8149465925012
 31
0.0
  0
INSERT
  5
E0E
  8
SIZE
  6
CONTINUOUS
 62
     0
  2
_ORIGIN
 10
-0.0000000000000144
 20
-569.8149465925012
 30
0.0
 41
10.0
 42
10.0
 43
10.0
  0
INSERT
  5
E0F
  8
SIZE
  6
CONTINUOUS
 62
     0
  2
_ORIGIN
 10
-337.0
 20
-569.8149465925012
 30
0.0
 41
10.0
 42
10.0
 43
10.0
 50
180.0
  0
TEXT
  5
E10
  8
0
 62
     0
 10
-296.49999999999989
 20
-631.09500000000003
 30
0.0
 40
64.0
  1
337
  0
POINT
  5
E11
  8
DEFPOINTS
  6
CONTINUOUS
 62
     0
 10
0.0
 20
-333.9052583812549
 30
0.0
  0
POINT
  5
E12
  8
DEFPOINTS
  6
CONTINUOUS
 62
     0
 10
-337.0
 20
-276.0
 30
0.0
  0
POINT
  5
E13
  8
DEFPOINTS
  6
CONTINUOUS
 62
     0
 10
-337.0
 20
-569.8149465925012
 30
0.0
  0
ENDBLK
  5
E14
  8
0
  0
BLOCK
  8
0
  2
*D15
 70
     1
 10
0.0
 20
0.0
 30
0.0
  3
*D15
  1

  0
LINE
  5
E17
  8
SIZE
  6
CONTINUOUS
 62
     0
 10
-0.0000000000000012
 20
-353.90525838125478
 30
0.0
 11
-0.0000000000000163
 21
-599.8149465925012
 31
0.0
  0
LINE
  5
E18
  8
SIZE
  6
CONTINUOUS
 62
     0
 10
352.0
 20
-297.0
 30
0.0
 11
352.0
 21
-599.8149465925012
 31
0.0
  0
LINE
  5
E19
  8
SIZE
  6
CONTINUOUS
 62
     0
 10
9.999999999999984
 20
-569.8149465925012
 30
0.0
 11
342.0
 21
-569.8149465925012
 31
0.0
  0
INSERT
  5
E1A
  8
SIZE
  6
CONTINUOUS
 62
     0
  2
_ORIGIN
 10
-0.0000000000000144
 20
-569.8149465925012
 30
0.0
 41
10.0
 42
10.0
 43
10.0
 50
180.0
  0
INSERT
  5
E1B
  8
SIZE
  6
CONTINUOUS
 62
     0
  2
_ORIGIN
 10
352.0
 20
-569.8149465925012
 30
0.0
 41
10.0
 42
10.0
 43
10.0
  0
TEXT
  5
E1C
  8
0
 62
     0
 10
48.0
 20
-631.09500000000003
 30
0.0
 40
64.0
  1
352
  0
POINT
  5
E1D
  8
DEFPOINTS
  6
CONTINUOUS
 62
     0
 10
0.0
 20
-333.9052583812549
 30
0.0
  0
POINT
  5
E1E
  8
DEFPOINTS
  6
CONTINUOUS
 62
     0
 10
352.0
 20
-277.0
 30
0.0
  0
POINT
  5
E1F
  8
DEFPOINTS
  6
CONTINUOUS
 62
     0
 10
352.0
 20
-569.8149465925012
 30
0.0
  0
ENDBLK
  5
E20
  8
0
  0
BLOCK
  8
0
  2
*D16
 70
     1
 10
0.0
 20
0.0
 30
0.0
  3
*D16
  1

  0
LINE
  5
E23
  8
SIZE
  6
CONTINUOUS
 62
     0
 10
-420.0
 20
-2717.387437050596
 30
0.0
 11
-420.0
 21
-2973.7524145030452
 31
0.0
  0
LINE
  5
E24
  8
SIZE
  6
CONTINUOUS
 62
     0
 10
420.0
 20
-2717.387437050596
 30
0.0
 11
420.0
 21
-2973.7524145030452
 31
0.0
  0
LINE
  5
E25
  8
SIZE
  6
CONTINUOUS
 62
     0
 10
-410.0
 20
-2943.7524145030461
 30
0.0
 11
410.0
 21
-2943.7524145030461
 31
0.0
  0
INSERT
  5
E26
  8
SIZE
  6
CONTINUOUS
 62
     0
  2
_ORIGIN
 10
-420.0
 20
-2943.7524145030461
 30
0.0
 41
10.0
 42
10.0
 43
10.0
 50
180.0
  0
INSERT
  5
E27
  8
SIZE
  6
CONTINUOUS
 62
     0
  2
_ORIGIN
 10
420.0
 20
-2943.7524145030461
 30
0.0
 41
10.0
 42
10.0
 43
10.0
  0
TEXT
  5
E28
  8
SIZE
  6
CONTINUOUS
 62
     0
 10
-74.057142857142864
 20
-2923.7524145030452
 30
0.0
 40
64.0
  1
840
 41
0.9
  0
POINT
  5
E29
  8
DEFPOINTS
  6
CONTINUOUS
 62
     0
 10
-420.0
 20
-2697.387437050596
 30
0.0
  0
POINT
  5
E2A
  8
DEFPOINTS
  6
CONTINUOUS
 62
     0
 10
420.0
 20
-2697.387437050596
 30
0.0
  0
POINT
  5
E2B
  8
DEFPOINTS
  6
CONTINUOUS
 62
     0
 10
420.0
 20
-2943.7524145030461
 30
0.0
  0
ENDBLK
  5
E2C
  8
0
  0
BLOCK
  8
0
  2
*D17
 70
     1
 10
0.0
 20
0.0
 30
0.0
  3
*D17
  1

  0
LINE
  5
E2F
  8
SIZE
  6
CONTINUOUS
 62
     0
 10
0.0000000000000012
 20
-2392.5947070505958
 30
0.0
 11
0.0000000000000138
 21
-2186.7197330398312
 31
0.0
  0
LINE
  5
E30
  8
SIZE
  6
CONTINUOUS
 62
     0
 10
-352.0
 20
-2424.387437050596
 30
0.0
 11
-352.0
 21
-2186.7197330398312
 31
0.0
  0
LINE
  5
E31
  8
SIZE
  6
CONTINUOUS
 62
     0
 10
-9.9999999999999876
 20
-2216.7197330398312
 30
0.0
 11
-342.0
 21
-2216.7197330398312
 31
0.0
  0
INSERT
  5
E32
  8
SIZE
  6
CONTINUOUS
 62
     0
  2
_ORIGIN
 10
0.000000000000012
 20
-2216.7197330398312
 30
0.0
 41
10.0
 42
10.0
 43
10.0
  0
INSERT
  5
E33
  8
SIZE
  6
CONTINUOUS
 62
     0
  2
_ORIGIN
 10
-352.0
 20
-2216.7197330398312
 30
0.0
 41
10.0
 42
10.0
 43
10.0
 50
180.0
  0
TEXT
  5
E34
  8
SIZE
  6
CONTINUOUS
 62
     0
 10
-250.05714285714279
 20
-2196.7197330398312
 30
0.0
 40
64.0
  1
352
 41
0.9
  0
POINT
  5
E35
  8
DEFPOINTS
  6
CONTINUOUS
 62
     0
 10
0.0
 20
-2412.5947070505958
 30
0.0
  0
POINT
  5
E36
  8
DEFPOINTS
  6
CONTINUOUS
 62
     0
 10
-352.0
 20
-2444.387437050596
 30
0.0
  0
POINT
  5
E37
  8
DEFPOINTS
  6
CONTINUOUS
 62
     0
 10
-352.0
 20
-2216.7197330398312
 30
0.0
  0
ENDBLK
  5
E38
  8
0
  0
BLOCK
  8
0
  2
*D18
 70
     1
 10
0.0
 20
0.0
 30
0.0
  3
*D18
  1

  0
LINE
  5
E3B
  8
SIZE
  6
CONTINUOUS
 62
     0
 10
0.0000000000000012
 20
-2392.5947070505958
 30
0.0
 11
0.0000000000000138
 21
-2186.7197330398312
 31
0.0
  0
LINE
  5
E3C
  8
SIZE
  6
CONTINUOUS
 62
     0
 10
337.0
 20
-2424.387437050596
 30
0.0
 11
337.0
 21
-2186.7197330398312
 31
0.0
  0
LINE
  5
E3D
  8
SIZE
  6
CONTINUOUS
 62
     0
 10
10.000000000000011
 20
-2216.7197330398312
 30
0.0
 11
327.0
 21
-2216.7197330398312
 31
0.0
  0
INSERT
  5
E3E
  8
SIZE
  6
CONTINUOUS
 62
     0
  2
_ORIGIN
 10
0.000000000000012
 20
-2216.7197330398312
 30
0.0
 41
10.0
 42
10.0
 43
10.0
 50
180.0
  0
INSERT
  5
E3F
  8
SIZE
  6
CONTINUOUS
 62
     0
  2
_ORIGIN
 10
337.0
 20
-2216.7197330398312
 30
0.0
 41
10.0
 42
10.0
 43
10.0
  0
TEXT
  5
E40
  8
SIZE
  6
CONTINUOUS
 62
     0
 10
94.442857142857136
 20
-2196.7197330398312
 30
0.0
 40
64.0
  1
337
 41
0.9
  0
POINT
  5
E41
  8
DEFPOINTS
  6
CONTINUOUS
 62
     0
 10
0.0
 20
-2412.5947070505958
 30
0.0
  0
POINT
  5
E42
  8
DEFPOINTS
  6
CONTINUOUS
 62
     0
 10
337.0
 20
-2444.387437050596
 30
0.0
  0
POINT
  5
E43
  8
DEFPOINTS
  6
CONTINUOUS
 62
     0
 10
337.0
 20
-2216.7197330398312
 30
0.0
  0
ENDBLK
  5
E44
  8
0
  0
BLOCK
  8
0
  2
*D19
 70
     1
 10
0.0
 20
0.0
 30
0.0
  3
*D19
  1

  0
LINE
  5
E47
  8
SIZE
  6
CONTINUOUS
 62
     0
 10
-352.0
 20
-2424.387437050596
 30
0.0
 11
-352.0
 21
-2186.7197330398312
 31
0.0
  0
LINE
  5
E48
  8
SIZE
  6
CONTINUOUS
 62
     0
 10
-420.0
 20
-2494.1958027292148
 30
0.0
 11
-420.0
 21
-2186.7197330398312
 31
0.0
  0
LINE
  5
E49
  8
SIZE
  6
CONTINUOUS
 62
     0
 10
-342.0
 20
-2216.7197330398312
 30
0.0
 11
-332.0
 21
-2216.7197330398312
 31
0.0
  0
LINE
  5
E4A
  8
SIZE
  6
CONTINUOUS
 62
     0
 10
-430.0
 20
-2216.7197330398312
 30
0.0
 11
-573.25714285714275
 21
-2216.7197330398312
 31
0.0
  0
LINE
  5
E4B
  8
SIZE
  6
CONTINUOUS
 62
     0
 10
-352.0
 20
-2216.7197330398312
 30
0.0
 11
-420.0
 21
-2216.7197330398312
 31
0.0
  0
INSERT
  5
E4C
  8
SIZE
  6
CONTINUOUS
 62
     0
  2
_ORIGIN
 10
-352.0
 20
-2216.7197330398312
 30
0.0
 41
10.0
 42
10.0
 43
10.0
 50
180.0
  0
INSERT
  5
E4D
  8
SIZE
  6
CONTINUOUS
 62
     0
  2
_ORIGIN
 10
-420.0
 20
-2216.7197330398312
 30
0.0
 41
10.0
 42
10.0
 43
10.0
  0
TEXT
  5
E4E
  8
SIZE
  6
CONTINUOUS
 62
     0
 10
-553.25714285714275
 20
-2196.7197330398312
 30
0.0
 40
64.0
  1
68
 41
0.9
  0
POINT
  5
E4F
  8
DEFPOINTS
  6
CONTINUOUS
 62
     0
 10
-352.0
 20
-2444.387437050596
 30
0.0
  0
POINT
  5
E50
  8
DEFPOINTS
  6
CONTINUOUS
 62
     0
 10
-420.0
 20
-2514.1958027292148
 30
0.0
  0
POINT
  5
E51
  8
DEFPOINTS
  6
CONTINUOUS
 62
     0
 10
-420.0
 20
-2216.7197330398312
 30
0.0
  0
ENDBLK
  5
E52
  8
0
  0
BLOCK
  8
0
  2
*D20
 70
     1
 10
0.0
 20
0.0
 30
0.0
  3
*D20
  1

  0
LINE
  5
E55
  8
SIZE
  6
CONTINUOUS
 62
     0
 10
337.0
 20
-2424.387437050596
 30
0.0
 11
337.0
 21
-2186.7197330398312
 31
0.0
  0
LINE
  5
E56
  8
SIZE
  6
CONTINUOUS
 62
     0
 10
420.0
 20
-2494.1958027292148
 30
0.0
 11
420.0
 21
-2186.7197330398312
 31
0.0
  0
LINE
  5
E57
  8
SIZE
  6
CONTINUOUS
 62
     0
 10
327.0
 20
-2216.7197330398312
 30
0.0
 11
317.0
 21
-2216.7197330398312
 31
0.0
  0
LINE
  5
E58
  8
SIZE
  6
CONTINUOUS
 62
     0
 10
430.0
 20
-2216.7197330398312
 30
0.0
 11
573.25714285714287
 21
-2216.7197330398312
 31
0.0
  0
LINE
  5
E59
  8
SIZE
  6
CONTINUOUS
 62
     0
 10
337.0
 20
-2216.7197330398312
 30
0.0
 11
420.0
 21
-2216.7197330398312
 31
0.0
  0
INSERT
  5
E5A
  8
SIZE
  6
CONTINUOUS
 62
     0
  2
_ORIGIN
 10
337.0
 20
-2216.7197330398312
 30
0.0
 41
10.0
 42
10.0
 43
10.0
  0
INSERT
  5
E5B
  8
SIZE
  6
CONTINUOUS
 62
     0
  2
_ORIGIN
 10
420.0
 20
-2216.7197330398312
 30
0.0
 41
10.0
 42
10.0
 43
10.0
 50
180.0
  0
TEXT
  5
E5C
  8
SIZE
  6
CONTINUOUS
 62
     0
 10
460.0
 20
-2196.7197330398312
 30
0.0
 40
64.0
  1
83
 41
0.9
  0
POINT
  5
E5D
  8
DEFPOINTS
  6
CONTINUOUS
 62
     0
 10
337.0
 20
-2444.387437050596
 30
0.0
  0
POINT
  5
E5E
  8
DEFPOINTS
  6
CONTINUOUS
 62
     0
 10
420.0
 20
-2514.1958027292148
 30
0.0
  0
POINT
  5
E5F
  8
DEFPOINTS
  6
CONTINUOUS
 62
     0
 10
420.0
 20
-2216.7197330398312
 30
0.0
  0
ENDBLK
  5
E60
  8
0
  0
BLOCK
  8
0
  2
*D21
 70
     1
 10
0.0
 20
0.0
 30
0.0
  3
*D21
  1

  0
LINE
  5
E63
  8
SIZE
  6
CONTINUOUS
 62
     0
 10
-337.0
 20
-296.0
 30
0.0
 11
-337.0
 21
-599.8149465925012
 31
0.0
  0
LINE
  5
E64
  8
SIZE
  6
CONTINUOUS
 62
     0
 10
-420.0
 20
-308.0
 30
0.0
 11
-420.0
 21
-599.8149465925012
 31
0.0
  0
LINE
  5
E65
  8
SIZE
  6
CONTINUOUS
 62
     0
 10
-327.0
 20
-569.8149465925012
 30
0.0
 11
-317.0
 21
-569.8149465925012
 31
0.0
  0
LINE
  5
E66
  8
SIZE
  6
CONTINUOUS
 62
     0
 10
-430.0
 20
-569.8149465925012
 30
0.0
 11
-573.25714285714287
 21
-569.8149465925012
 31
0.0
  0
LINE
  5
E67
  8
SIZE
  6
CONTINUOUS
 62
     0
 10
-337.0
 20
-569.8149465925012
 30
0.0
 11
-420.0
 21
-569.8149465925012
 31
0.0
  0
INSERT
  5
E68
  8
SIZE
  6
CONTINUOUS
 62
     0
  2
_ORIGIN
 10
-337.0
 20
-569.8149465925012
 30
0.0
 41
10.0
 42
10.0
 43
10.0
 50
180.0
  0
INSERT
  5
E69
  8
SIZE
  6
CONTINUOUS
 62
     0
  2
_ORIGIN
 10
-420.0
 20
-569.8149465925012
 30
0.0
 41
10.0
 42
10.0
 43
10.0
  0
TEXT
  5
E6A
  8
0
 62
     0
 10
-634.62900000000002
 20
-631.09500000000003
 30
0.0
 40
64.0
  1
83
  0
POINT
  5
E6B
  8
DEFPOINTS
  6
CONTINUOUS
 62
     0
 10
-337.0
 20
-276.0
 30
0.0
  0
POINT
  5
E6C
  8
DEFPOINTS
  6
CONTINUOUS
 62
     0
 10
-420.0
 20
-288.0
 30
0.0
  0
POINT
  5
E6D
  8
DEFPOINTS
  6
CONTINUOUS
 62
     0
 10
-420.0
 20
-569.8149465925012
 30
0.0
  0
ENDBLK
  5
E6E
  8
0
  0
BLOCK
  8
0
  2
*D22
 70
     1
 10
0.0
 20
0.0
 30
0.0
  3
*D22
  1

  0
LINE
  5
E71
  8
SIZE
  6
CONTINUOUS
 62
     0
 10
352.0
 20
-297.0
 30
0.0
 11
352.0
 21
-599.8149465925012
 31
0.0
  0
LINE
  5
E72
  8
SIZE
  6
CONTINUOUS
 62
     0
 10
420.0
 20
-308.0
 30
0.0
 11
420.0
 21
-599.8149465925012
 31
0.0
  0
LINE
  5
E73
  8
SIZE
  6
CONTINUOUS
 62
     0
 10
342.0
 20
-569.8149465925012
 30
0.0
 11
332.0
 21
-569.8149465925012
 31
0.0
  0
LINE
  5
E74
  8
SIZE
  6
CONTINUOUS
 62
     0
 10
430.0
 20
-569.8149465925012
 30
0.0
 11
573.25714285714275
 21
-569.8149465925012
 31
0.0
  0
LINE
  5
E75
  8
SIZE
  6
CONTINUOUS
 62
     0
 10
352.0
 20
-569.8149465925012
 30
0.0
 11
420.0
 21
-569.8149465925012
 31
0.0
  0
INSERT
  5
E76
  8
SIZE
  6
CONTINUOUS
 62
     0
  2
_ORIGIN
 10
352.0
 20
-569.8149465925012
 30
0.0
 41
10.0
 42
10.0
 43
10.0
  0
INSERT
  5
E77
  8
SIZE
  6
CONTINUOUS
 62
     0
  2
_ORIGIN
 10
420.0
 20
-569.8149465925012
 30
0.0
 41
10.0
 42
10.0
 43
10.0
 50
180.0
  0
TEXT
  5
E78
  8
0
 62
     0
 10
378.62900000000002
 20
-631.09500000000003
 30
0.0
 40
64.0
  1
68
  0
POINT
  5
E79
  8
DEFPOINTS
  6
CONTINUOUS
 62
     0
 10
352.0
 20
-277.0
 30
0.0
  0
POINT
  5
E7A
  8
DEFPOINTS
  6
CONTINUOUS
 62
     0
 10
420.0
 20
-288.0
 30
0.0
  0
POINT
  5
E7B
  8
DEFPOINTS
  6
CONTINUOUS
 62
     0
 10
420.0
 20
-569.8149465925012
 30
0.0
  0
ENDBLK
  5
E7C
  8
0
  0
BLOCK
  8
0
  2
*D23
 70
     1
 10
0.0
 20
0.0
 30
0.0
  3
*D23
  1

  0
LINE
  5
E7F
  8
SIZE
  6
CONTINUOUS
 62
     0
 10
-1345.3866894535561
 20
-1175.668157808974
 30
0.0
 11
-1345.3866894535561
 21
-996.99184137468546
 31
0.0
  0
LINE
  5
E80
  8
SIZE
  6
CONTINUOUS
 62
     0
 10
-1091.9086184966011
 20
-1253.616439730102
 30
0.0
 11
-1091.9086184966011
 21
-996.99184137468546
 31
0.0
  0
LINE
  5
E81
  8
SIZE
  6
CONTINUOUS
 62
     0
 10
-1335.3866894535561
 20
-1026.991841374685
 30
0.0
 11
-1101.9086184966011
 21
-1026.991841374685
 31
0.0
  0
INSERT
  5
E82
  8
SIZE
  6
CONTINUOUS
 62
     0
  2
_ORIGIN
 10
-1345.3866894535561
 20
-1026.991841374685
 30
0.0
 41
10.0
 42
10.0
 43
10.0
 50
180.0
  0
INSERT
  5
E83
  8
SIZE
  6
CONTINUOUS
 62
     0
  2
_ORIGIN
 10
-1091.9086184966011
 20
-1026.991841374685
 30
0.0
 41
10.0
 42
10.0
 43
10.0
  0
TEXT
  5
E84
  8
SIZE
  6
CONTINUOUS
 62
     0
 10
-1290.321015127299
 20
-1006.991841374685
 30
0.0
 40
64.0
  1
253
 41
0.9
  0
POINT
  5
E85
  8
DEFPOINTS
  6
CONTINUOUS
 62
     0
 10
-1345.3866894535561
 20
-1195.668157808974
 30
0.0
  0
POINT
  5
E86
  8
DEFPOINTS
  6
CONTINUOUS
 62
     0
 10
-1091.9086184966011
 20
-1273.616439730102
 30
0.0
  0
POINT
  5
E87
  8
DEFPOINTS
  6
CONTINUOUS
 62
     0
 10
-1091.9086184966011
 20
-1026.991841374685
 30
0.0
  0
ENDBLK
  5
E88
  8
0
  0
BLOCK
  8
0
  2
*D24
 70
     1
 10
0.0
 20
0.0
 30
0.0
  3
*D24
  1

  0
LINE
  5
E8B
  8
SIZE
  6
CONTINUOUS
 62
     0
 10
-434.25
 20
0.0000000000000057
 30
0.0
 11
-580.75593806697725
 21
0.0000000000000472
 31
0.0
  0
LINE
  5
E8C
  8
SIZE
  6
CONTINUOUS
 62
     0
 10
-420.0
 20
-253.0
 30
0.0
 11
-580.75593806697725
 21
-252.9999999999998
 31
0.0
  0
LINE
  5
E8D
  8
SIZE
  6
CONTINUOUS
 62
     0
 10
-550.75593806697725
 20
-9.9999999999999591
 30
0.0
 11
-550.75593806697725
 21
-242.9999999999998
 31
0.0
  0
INSERT
  5
E8E
  8
SIZE
  6
CONTINUOUS
 62
     0
  2
_ORIGIN
 10
-550.75593806697725
 20
0.0000000000000387
 30
0.0
 41
10.0
 42
10.0
 43
10.0
 50
90.0
  0
INSERT
  5
E8F
  8
SIZE
  6
CONTINUOUS
 62
     0
  2
_ORIGIN
 10
-550.75593806697725
 20
-252.9999999999998
 30
0.0
 41
10.0
 42
10.0
 43
10.0
 50
270.0
  0
TEXT
  5
E90
  8
SIZE
  6
CONTINUOUS
 62
     0
 10
-570.75593806697725
 20
-191.29336733932439
 30
0.0
 40
64.0
  1
253
 50
90.0
 41
0.9
  0
POINT
  5
E91
  8
DEFPOINTS
  6
CONTINUOUS
 62
     0
 10
-414.25
 20
0.0
 30
0.0
  0
POINT
  5
E92
  8
DEFPOINTS
  6
CONTINUOUS
 62
     0
 10
-400.0
 20
-253.0
 30
0.0
  0
POINT
  5
E93
  8
DEFPOINTS
  6
CONTINUOUS
 62
     0
 10
-550.75593806697725
 20
-252.9999999999998
 30
0.0
  0
ENDBLK
  5
E94
  8
0
  0
BLOCK
  8
0
  2
*D25
 70
     1
 10
0.0
 20
0.0
 30
0.0
  3
*D25
  1

  0
LINE
  5
E97
  8
SIZE
  6
CONTINUOUS
 62
     0
 10
-434.25
 20
-2464.387437050596
 30
0.0
 11
-580.32075463927686
 21
-2464.387437050596
 31
0.0
  0
LINE
  5
E98
  8
SIZE
  6
CONTINUOUS
 62
     0
 10
-420.0
 20
-2717.387437050596
 30
0.0
 11
-580.32075463927686
 21
-2717.387437050596
 31
0.0
  0
LINE
  5
E99
  8
SIZE
  6
CONTINUOUS
 62
     0
 10
-550.32075463927686
 20
-2474.387437050596
 30
0.0
 11
-550.32075463927686
 21
-2707.387437050596
 31
0.0
  0
INSERT
  5
E9A
  8
SIZE
  6
CONTINUOUS
 62
     0
  2
_ORIGIN
 10
-550.32075463927686
 20
-2464.387437050596
 30
0.0
 41
10.0
 42
10.0
 43
10.0
 50
90.0
  0
INSERT
  5
E9B
  8
SIZE
  6
CONTINUOUS
 62
     0
  2
_ORIGIN
 10
-550.32075463927686
 20
-2717.387437050596
 30
0.0
 41
10.0
 42
10.0
 43
10.0
 50
270.0
  0
TEXT
  5
E9C
  8
SIZE
  6
CONTINUOUS
 62
     0
 10
-570.32075463927617
 20
-2664.9445799077389
 30
0.0
 40
64.0
  1
253
 50
90.0
 41
0.9
  0
POINT
  5
E9D
  8
DEFPOINTS
  6
CONTINUOUS
 62
     0
 10
-414.25
 20
-2464.387437050596
 30
0.0
  0
POINT
  5
E9E
  8
DEFPOINTS
  6
CONTINUOUS
 62
     0
 10
-400.0
 20
-2717.387437050596
 30
0.0
  0
POINT
  5
E9F
  8
DEFPOINTS
  6
CONTINUOUS
 62
     0
 10
-550.32075463927686
 20
-2717.387437050596
 30
0.0
  0
ENDBLK
  5
EA0
  8
0
  0
BLOCK
  8
0
  2
*D26
 70
     1
 10
0.0
 20
0.0
 30
0.0
  3
*D26
  1

  0
LINE
  5
EA3
  8
SIZE
  6
CONTINUOUS
 62
     0
 10
1700.553510123252
 20
-1175.668157808974
 30
0.0
 11
1700.553510123252
 21
-1028.4085229120531
 31
0.0
  0
LINE
  5
EA4
  8
SIZE
  6
CONTINUOUS
 62
     0
 10
1447.0754391662961
 20
-1253.616439730102
 30
0.0
 11
1447.0754391662961
 21
-1028.4085229120531
 31
0.0
  0
LINE
  5
EA5
  8
SIZE
  6
CONTINUOUS
 62
     0
 10
1690.553510123252
 20
-1058.4085229120531
 30
0.0
 11
1457.0754391662961
 21
-1058.4085229120531
 31
0.0
  0
INSERT
  5
EA6
  8
SIZE
  6
CONTINUOUS
 62
     0
  2
_ORIGIN
 10
1700.553510123252
 20
-1058.4085229120531
 30
0.0
 41
10.0
 42
10.0
 43
10.0
  0
INSERT
  5
EA7
  8
SIZE
  6
CONTINUOUS
 62
     0
  2
_ORIGIN
 10
1447.0754391662961
 20
-1058.4085229120531
 30
0.0
 41
10.0
 42
10.0
 43
10.0
 50
180.0
  0
TEXT
  5
EA8
  8
SIZE
  6
CONTINUOUS
 62
     0
 10
1499.757331787632
 20
-1038.4085229120531
 30
0.0
 40
64.0
  1
253
 41
0.9
  0
POINT
  5
EA9
  8
DEFPOINTS
  6
CONTINUOUS
 62
     0
 10
1700.553510123252
 20
-1195.668157808974
 30
0.0
  0
POINT
  5
EAA
  8
DEFPOINTS
  6
CONTINUOUS
 62
     0
 10
1447.0754391662961
 20
-1273.616439730102
 30
0.0
  0
POINT
  5
EAB
  8
DEFPOINTS
  6
CONTINUOUS
 62
     0
 10
1447.0754391662961
 20
-1058.4085229120531
 30
0.0
  0
ENDBLK
  5
EAC
  8
0
  0
BLOCK
  8
0
  2
*D27
 70
     1
 10
0.0
 20
0.0
 30
0.0
  3
*D27
  1

  0
LINE
  5
EAF
  8
SIZE
  6
CONTINUOUS
 62
     0
 10
-417.49999999999989
 20
20.0
 30
0.0
 11
-417.49999999999989
 21
404.33789383212928
 31
0.0
  0
LINE
  5
EB0
  8
SIZE
  6
CONTINUOUS
 62
     0
 10
417.49999999999989
 20
20.0
 30
0.0
 11
417.49999999999989
 21
404.33789383212928
 31
0.0
  0
LINE
  5
EB1
  8
SIZE
  6
CONTINUOUS
 62
     0
 10
-407.5
 20
374.33789383212923
 30
0.0
 11
407.5
 21
374.33789383212923
 31
0.0
  0
INSERT
  5
EB2
  8
SIZE
  6
CONTINUOUS
 62
     0
  2
_ORIGIN
 10
-417.49999999999989
 20
374.33789383212923
 30
0.0
 41
10.0
 42
10.0
 43
10.0
 50
180.0
  0
INSERT
  5
EB3
  8
SIZE
  6
CONTINUOUS
 62
     0
  2
_ORIGIN
 10
417.49999999999989
 20
374.33789383212923
 30
0.0
 41
10.0
 42
10.0
 43
10.0
  0
TEXT
  5
EB4
  8
SIZE
  6
CONTINUOUS
 62
     0
 10
-74.057142857142836
 20
394.33789383212923
 30
0.0
 40
64.0
  1
835
 41
0.9
  0
POINT
  5
EB5
  8
DEFPOINTS
  6
CONTINUOUS
 62
     0
 10
-417.49999999999989
 20
0.0
 30
0.0
  0
POINT
  5
EB6
  8
DEFPOINTS
  6
CONTINUOUS
 62
     0
 10
417.49999999999989
 20
0.0
 30
0.0
  0
POINT
  5
EB7
  8
DEFPOINTS
  6
CONTINUOUS
 62
     0
 10
417.49999999999989
 20
374.33789383212923
 30
0.0
  0
ENDBLK
  5
EB8
  8
0
  0
BLOCK
  8
0
  2
*D28
 70
     1
 10
0.0
 20
0.0
 30
0.0
  3
*D28
  1

  0
LINE
  5
EBB
  8
SIZE
  6
CONTINUOUS
 62
     0
 10
-417.49999999999989
 20
-2444.387437050596
 30
0.0
 11
-417.49999999999989
 21
-2060.0495432184671
 31
0.0
  0
LINE
  5
EBC
  8
SIZE
  6
CONTINUOUS
 62
     0
 10
417.49999999999989
 20
-2444.387437050596
 30
0.0
 11
417.49999999999989
 21
-2060.0495432184671
 31
0.0
  0
LINE
  5
EBD
  8
SIZE
  6
CONTINUOUS
 62
     0
 10
-407.5
 20
-2090.0495432184671
 30
0.0
 11
407.5
 21
-2090.0495432184671
 31
0.0
  0
INSERT
  5
EBE
  8
SIZE
  6
CONTINUOUS
 62
     0
  2
_ORIGIN
 10
-417.49999999999989
 20
-2090.0495432184671
 30
0.0
 41
10.0
 42
10.0
 43
10.0
 50
180.0
  0
INSERT
  5
EBF
  8
SIZE
  6
CONTINUOUS
 62
     0
  2
_ORIGIN
 10
417.49999999999989
 20
-2090.0495432184671
 30
0.0
 41
10.0
 42
10.0
 43
10.0
  0
TEXT
  5
EC0
  8
SIZE
  6
CONTINUOUS
 62
     0
 10
-74.057142857142836
 20
-2070.0495432184671
 30
0.0
 40
64.0
  1
835
 41
0.9
  0
POINT
  5
EC1
  8
DEFPOINTS
  6
CONTINUOUS
 62
     0
 10
-417.49999999999989
 20
-2464.387437050596
 30
0.0
  0
POINT
  5
EC2
  8
DEFPOINTS
  6
CONTINUOUS
 62
     0
 10
417.49999999999989
 20
-2464.387437050596
 30
0.0
  0
POINT
  5
EC3
  8
DEFPOINTS
  6
CONTINUOUS
 62
     0
 10
417.49999999999989
 20
-2090.0495432184671
 30
0.0
  0
ENDBLK
  5
EC4
  8
0
  0
BLOCK
  8
0
  2
*D29
 70
     1
 10
0.0
 20
0.0
 30
0.0
  3
*D29
  1

  0
LINE
  5
EC7
  8
SIZE
  6
CONTINUOUS
 62
     0
 10
-430.0
 20
-298.0
 30
0.0
 11
-574.65142344585718
 21
-298.0
 31
0.0
  0
LINE
  5
EC8
  8
SIZE
  6
CONTINUOUS
 62
     0
 10
-377.0
 20
-255.5
 30
0.0
 11
-574.65142344585718
 21
-255.4999999999998
 31
0.0
  0
LINE
  5
EC9
  8
SIZE
  6
CONTINUOUS
 62
     0
 10
-544.65142344585729
 20
-308.0
 30
0.0
 11
-544.65142344585729
 21
-318.0
 31
0.0
  0
LINE
  5
ECA
  8
SIZE
  6
CONTINUOUS
 62
     0
 10
-544.65142344585729
 20
-245.4999999999998
 30
0.0
 11
-544.65142344585729
 21
-19.957142857142792
 31
0.0
  0
LINE
  5
ECB
  8
SIZE
  6
CONTINUOUS
 62
     0
 10
-544.65142344585729
 20
-298.0
 30
0.0
 11
-544.65142344585729
 21
-255.4999999999998
 31
0.0
  0
INSERT
  5
ECC
  8
SIZE
  6
CONTINUOUS
 62
     0
  2
_ORIGIN
 10
-544.65142344585729
 20
-298.0
 30
0.0
 41
10.0
 42
10.0
 43
10.0
 50
90.0
  0
INSERT
  5
ECD
  8
SIZE
  6
CONTINUOUS
 62
     0
  2
_ORIGIN
 10
-544.65142344585729
 20
-255.4999999999998
 30
0.0
 41
10.0
 42
10.0
 43
10.0
 50
270.0
  0
TEXT
  5
ECE
  8
0
 62
     0
 10
-724.65099999999995
 20
-241.00899999999999
 30
0.0
 40
64.0
  1
42.5
  0
POINT
  5
ECF
  8
DEFPOINTS
  6
CONTINUOUS
 62
     0
 10
-410.0
 20
-298.0
 30
0.0
  0
POINT
  5
ED0
  8
DEFPOINTS
  6
CONTINUOUS
 62
     0
 10
-357.0
 20
-255.5
 30
0.0
  0
POINT
  5
ED1
  8
DEFPOINTS
  6
CONTINUOUS
 62
     0
 10
-544.65142344585729
 20
-255.4999999999998
 30
0.0
  0
ENDBLK
  5
ED2
  8
0
  0
BLOCK
  8
0
  2
*D30
 70
     1
 10
0.0
 20
0.0
 30
0.0
  3
*D30
  1

  0
LINE
  5
ED5
  8
SIZE
  6
CONTINUOUS
 62
     0
 10
430.0
 20
-298.0
 30
0.0
 11
626.19423990285736
 21
-298.0
 31
0.0
  0
LINE
  5
ED6
  8
SIZE
  6
CONTINUOUS
 62
     0
 10
392.0
 20
-256.49999999999989
 30
0.0
 11
626.19423990285736
 21
-256.49999999999989
 31
0.0
  0
LINE
  5
ED7
  8
SIZE
  6
CONTINUOUS
 62
     0
 10
596.19423990285759
 20
-308.0
 30
0.0
 11
596.19423990285759
 21
-318.0
 31
0.0
  0
LINE
  5
ED8
  8
SIZE
  6
CONTINUOUS
 62
     0
 10
596.19423990285759
 20
-246.49999999999989
 30
0.0
 11
596.19423990285759
 21
-31.928571428571509
 31
0.0
  0
LINE
  5
ED9
  8
SIZE
  6
CONTINUOUS
 62
     0
 10
596.19423990285759
 20
-298.0
 30
0.0
 11
596.19423990285759
 21
-256.49999999999989
 31
0.0
  0
INSERT
  5
EDA
  8
SIZE
  6
CONTINUOUS
 62
     0
  2
_ORIGIN
 10
596.19423990285759
 20
-298.0
 30
0.0
 41
10.0
 42
10.0
 43
10.0
 50
90.0
  0
INSERT
  5
EDB
  8
SIZE
  6
CONTINUOUS
 62
     0
  2
_ORIGIN
 10
596.19423990285759
 20
-256.49999999999989
 30
0.0
 41
10.0
 42
10.0
 43
10.0
 50
270.0
  0
TEXT
  5
EDC
  8
0
 62
     0
 10
416.19400000000002
 20
-247.494
 30
0.0
 40
64.0
  1
41.5
  0
POINT
  5
EDD
  8
DEFPOINTS
  6
CONTINUOUS
 62
     0
 10
410.0
 20
-298.0
 30
0.0
  0
POINT
  5
EDE
  8
DEFPOINTS
  6
CONTINUOUS
 62
     0
 10
372.0
 20
-256.49999999999989
 30
0.0
  0
POINT
  5
EDF
  8
DEFPOINTS
  6
CONTINUOUS
 62
     0
 10
596.19423990285759
 20
-256.49999999999989
 30
0.0
  0
ENDBLK
  5
EE0
  8
0
  0
BLOCK
  8
0
  2
*D31
 70
     1
 10
0.0
 20
0.0
 30
0.0
  3
*D31
  1

  0
LINE
  5
EE3
  8
SIZE
  6
CONTINUOUS
 62
     0
 10
1720.553510123252
 20
-1468.6681578089731
 30
0.0
 11
1994.813452689642
 21
-1468.6681578089731
 31
0.0
  0
LINE
  5
EE4
  8
SIZE
  6
CONTINUOUS
 62
     0
 10
1740.553510123252
 20
-1427.168157808974
 30
0.0
 11
1994.813452689642
 21
-1427.168157808974
 31
0.0
  0
LINE
  5
EE5
  8
SIZE
  6
CONTINUOUS
 62
     0
 10
1964.813452689642
 20
-1478.668157808974
 30
0.0
 11
1964.813452689642
 21
-1488.668157808974
 31
0.0
  0
LINE
  5
EE6
  8
SIZE
  6
CONTINUOUS
 62
     0
 10
1964.813452689642
 20
-1417.168157808974
 30
0.0
 11
1964.813452689642
 21
-1202.5967292375451
 31
0.0
  0
LINE
  5
EE7
  8
SIZE
  6
CONTINUOUS
 62
     0
 10
1964.813452689642
 20
-1468.6681578089731
 30
0.0
 11
1964.813452689642
 21
-1427.168157808974
 31
0.0
  0
INSERT
  5
EE8
  8
SIZE
  6
CONTINUOUS
 62
     0
  2
_ORIGIN
 10
1964.813452689642
 20
-1468.6681578089731
 30
0.0
 41
10.0
 42
10.0
 43
10.0
 50
90.0
  0
INSERT
  5
EE9
  8
SIZE
  6
CONTINUOUS
 62
     0
  2
_ORIGIN
 10
1964.813452689642
 20
-1427.168157808974
 30
0.0
 41
10.0
 42
10.0
 43
10.0
 50
270.0
  0
TEXT
  5
EEA
  8
SIZE
  6
CONTINUOUS
 62
     0
 10
1944.8134526896431
 20
-1387.168157808974
 30
0.0
 40
64.0
  1
41.5
 50
90.0
 41
0.9
  0
POINT
  5
EEB
  8
DEFPOINTS
  6
CONTINUOUS
 62
     0
 10
1700.553510123252
 20
-1468.6681578089731
 30
0.0
  0
POINT
  5
EEC
  8
DEFPOINTS
  6
CONTINUOUS
 62
     0
 10
1720.553510123252
 20
-1427.168157808974
 30
0.0
  0
POINT
  5
EED
  8
DEFPOINTS
  6
CONTINUOUS
 62
     0
 10
1964.813452689642
 20
-1427.168157808974
 30
0.0
  0
ENDBLK
  5
EEE
  8
0
  0
BLOCK
  8
0
  2
*D32
 70
     1
 10
0.0
 20
0.0
 30
0.0
  3
*D32
  1

  0
LINE
  5
EF1
  8
SIZE
  6
CONTINUOUS
 62
     0
 10
1740.553510123252
 20
-1426.168157808974
 30
0.0
 11
2088.1142522385771
 21
-1426.168157808974
 31
0.0
  0
LINE
  5
EF2
  8
SIZE
  6
CONTINUOUS
 62
     0
 10
1720.553510123252
 20
-1468.6681578089731
 30
0.0
 11
2088.1142522385771
 21
-1468.6681578089731
 31
0.0
  0
LINE
  5
EF3
  8
SIZE
  6
CONTINUOUS
 62
     0
 10
2058.1142522385758
 20
-1478.668157808974
 30
0.0
 11
2058.1142522385758
 21
-1488.668157808974
 31
0.0
  0
LINE
  5
EF4
  8
SIZE
  6
CONTINUOUS
 62
     0
 10
2058.1142522385758
 20
-1416.168157808974
 30
0.0
 11
2058.1142522385758
 21
-1190.625300666117
 31
0.0
  0
LINE
  5
EF5
  8
SIZE
  6
CONTINUOUS
 62
     0
 10
2058.1142522385758
 20
-1468.6681578089731
 30
0.0
 11
2058.1142522385758
 21
-1426.168157808974
 31
0.0
  0
INSERT
  5
EF6
  8
SIZE
  6
CONTINUOUS
 62
     0
  2
_ORIGIN
 10
2058.1142522385758
 20
-1468.6681578089731
 30
0.0
 41
10.0
 42
10.0
 43
10.0
 50
90.0
  0
INSERT
  5
EF7
  8
SIZE
  6
CONTINUOUS
 62
     0
  2
_ORIGIN
 10
2058.1142522385758
 20
-1426.168157808974
 30
0.0
 41
10.0
 42
10.0
 43
10.0
 50
270.0
  0
TEXT
  5
EF8
  8
SIZE
  6
CONTINUOUS
 62
     0
 10
2038.114252238578
 20
-1386.168157808974
 30
0.0
 40
64.0
  1
42.5
 50
90.0
 41
0.9
  0
POINT
  5
EF9
  8
DEFPOINTS
  6
CONTINUOUS
 62
     0
 10
1720.553510123252
 20
-1426.168157808974
 30
0.0
  0
POINT
  5
EFA
  8
DEFPOINTS
  6
CONTINUOUS
 62
     0
 10
1700.553510123252
 20
-1468.6681578089731
 30
0.0
  0
POINT
  5
EFB
  8
DEFPOINTS
  6
CONTINUOUS
 62
     0
 10
2058.1142522385758
 20
-1468.6681578089731
 30
0.0
  0
ENDBLK
  5
EFC
  8
0
  0
BLOCK
  8
0
  2
*D33
 70
     1
 10
0.0
 20
0.0
 30
0.0
  3
*D33
  1

  0
LINE
  5
EFF
  8
SIZE
  6
CONTINUOUS
 62
     0
 10
-1385.3866894535561
 20
-1427.168157808974
 30
0.0
 11
-1618.133579922373
 21
-1427.168157808974
 31
0.0
  0
LINE
  5
F00
  8
SIZE
  6
CONTINUOUS
 62
     0
 10
-1365.3866894535561
 20
-1468.6681578089731
 30
0.0
 11
-1618.133579922373
 21
-1468.6681578089731
 31
0.0
  0
LINE
  5
F01
  8
SIZE
  6
CONTINUOUS
 62
     0
 10
-1588.1335799223741
 20
-1478.668157808974
 30
0.0
 11
-1588.1335799223741
 21
-1488.668157808974
 31
0.0
  0
LINE
  5
F02
  8
SIZE
  6
CONTINUOUS
 62
     0
 10
-1588.1335799223741
 20
-1417.168157808974
 30
0.0
 11
-1588.1335799223741
 21
-1202.5967292375451
 31
0.0
  0
LINE
  5
F03
  8
SIZE
  6
CONTINUOUS
 62
     0
 10
-1588.1335799223741
 20
-1468.6681578089731
 30
0.0
 11
-1588.1335799223741
 21
-1427.168157808974
 31
0.0
  0
INSERT
  5
F04
  8
SIZE
  6
CONTINUOUS
 62
     0
  2
_ORIGIN
 10
-1588.1335799223741
 20
-1468.6681578089731
 30
0.0
 41
10.0
 42
10.0
 43
10.0
 50
90.0
  0
INSERT
  5
F05
  8
SIZE
  6
CONTINUOUS
 62
     0
  2
_ORIGIN
 10
-1588.1335799223741
 20
-1427.168157808974
 30
0.0
 41
10.0
 42
10.0
 43
10.0
 50
270.0
  0
TEXT
  5
F06
  8
SIZE
  6
CONTINUOUS
 62
     0
 10
-1608.1335799223741
 20
-1387.168157808974
 30
0.0
 40
64.0
  1
41.5
 50
90.0
 41
0.9
  0
POINT
  5
F07
  8
DEFPOINTS
  6
CONTINUOUS
 62
     0
 10
-1365.3866894535561
 20
-1427.168157808974
 30
0.0
  0
POINT
  5
F08
  8
DEFPOINTS
  6
CONTINUOUS
 62
     0
 10
-1345.3866894535561
 20
-1468.6681578089731
 30
0.0
  0
POINT
  5
F09
  8
DEFPOINTS
  6
CONTINUOUS
 62
     0
 10
-1588.1335799223741
 20
-1468.6681578089731
 30
0.0
  0
ENDBLK
  5
F0A
  8
0
  0
BLOCK
  8
0
  2
*D34
 70
     1
 10
0.0
 20
0.0
 30
0.0
  3
*D34
  1

  0
LINE
  5
F0D
  8
SIZE
  6
CONTINUOUS
 62
     0
 10
-1365.3866894535561
 20
-1468.6681578089731
 30
0.0
 11
-1727.2737917006771
 21
-1468.6681578089731
 31
0.0
  0
LINE
  5
F0E
  8
SIZE
  6
CONTINUOUS
 62
     0
 10
-1385.3866894535561
 20
-1426.168157808974
 30
0.0
 11
-1727.2737917006771
 21
-1426.168157808974
 31
0.0
  0
LINE
  5
F0F
  8
SIZE
  6
CONTINUOUS
 62
     0
 10
-1697.2737917006771
 20
-1478.668157808974
 30
0.0
 11
-1697.2737917006771
 21
-1488.668157808974
 31
0.0
  0
LINE
  5
F10
  8
SIZE
  6
CONTINUOUS
 62
     0
 10
-1697.2737917006771
 20
-1416.168157808974
 30
0.0
 11
-1697.2737917006771
 21
-1190.6253006661159
 31
0.0
  0
LINE
  5
F11
  8
SIZE
  6
CONTINUOUS
 62
     0
 10
-1697.2737917006771
 20
-1468.6681578089731
 30
0.0
 11
-1697.2737917006771
 21
-1426.168157808974
 31
0.0
  0
INSERT
  5
F12
  8
SIZE
  6
CONTINUOUS
 62
     0
  2
_ORIGIN
 10
-1697.2737917006771
 20
-1468.6681578089731
 30
0.0
 41
10.0
 42
10.0
 43
10.0
 50
90.0
  0
INSERT
  5
F13
  8
SIZE
  6
CONTINUOUS
 62
     0
  2
_ORIGIN
 10
-1697.2737917006771
 20
-1426.168157808974
 30
0.0
 41
10.0
 42
10.0
 43
10.0
 50
270.0
  0
TEXT
  5
F14
  8
SIZE
  6
CONTINUOUS
 62
     0
 10
-1717.2737917006771
 20
-1386.168157808974
 30
0.0
 40
64.0
  1
42.5
 50
90.0
 41
0.9
  0
POINT
  5
F15
  8
DEFPOINTS
  6
CONTINUOUS
 62
     0
 10
-1345.3866894535561
 20
-1468.6681578089731
 30
0.0
  0
POINT
  5
F16
  8
DEFPOINTS
  6
CONTINUOUS
 62
     0
 10
-1365.3866894535561
 20
-1426.168157808974
 30
0.0
  0
POINT
  5
F17
  8
DEFPOINTS
  6
CONTINUOUS
 62
     0
 10
-1697.2737917006771
 20
-1426.168157808974
 30
0.0
  0
ENDBLK
  5
F18
  8
0
  0
BLOCK
  8
0
  2
*D35
 70
     1
 10
0.0
 20
0.0
 30
0.0
  3
*D35
  1

  0
LINE
  5
1005
  8
SIZE
  6
CONTINUOUS
 62
     0
 10
-420.0
 20
10.0
 30
0.0
 11
-420.0
 21
205.99371073835789
 31
0.0
  0
LINE
  5
1006
  8
SIZE
  6
CONTINUOUS
 62
     0
 10
420.0
 20
10.0
 30
0.0
 11
420.0
 21
205.99371073835789
 31
0.0
  0
LINE
  5
1007
  8
SIZE
  6
CONTINUOUS
 62
     0
 10
-410.0
 20
175.993710738358
 30
0.0
 11
410.0
 21
175.993710738358
 31
0.0
  0
INSERT
  5
1008
  8
SIZE
  6
CONTINUOUS
 62
     0
  2
_ORIGIN
 10
-420.0
 20
175.993710738358
 30
0.0
 41
10.0
 42
10.0
 43
10.0
 50
180.0
  0
INSERT
  5
1009
  8
SIZE
  6
CONTINUOUS
 62
     0
  2
_ORIGIN
 10
420.0
 20
175.993710738358
 30
0.0
 41
10.0
 42
10.0
 43
10.0
  0
TEXT
  8
0
  40
64
  5
1053
  62
0
  72
0
  71
0
 10
-128.000
 20
114.714
 30
0.000000
  1
840
  0
POINT
  5
100B
  8
DEFPOINTS
  6
CONTINUOUS
 62
     0
 10
-420.0
 20
-10.0
 30
0.0
  0
POINT
  5
100C
  8
DEFPOINTS
  6
CONTINUOUS
 62
     0
 10
420.0
 20
-10.0
 30
0.0
  0
POINT
  5
100D
  8
DEFPOINTS
  6
CONTINUOUS
 62
     0
 10
420.0
 20
175.993710738358
 30
0.0
  0
ENDBLK
  5
F45
  8
0
  0
BLOCK
  8
0
  2
*D36
 70
     1
 10
0.0
 20
0.0
 30
0.0
  3
*D36
  1

  0
LINE
  5
100E
  8
SIZE
  6
CONTINUOUS
 62
     0
 10
430.0
 20
-298.0
 30
0.0
 11
776.42450542074391
 21
-298.0
 31
0.0
  0
LINE
  5
100F
  8
SIZE
  6
CONTINUOUS
 62
     0
 10
430.0
 20
-0.0000000000000057
 30
0.0
 11
776.42450542074403
 21
-0.0000000000001038
 31
0.0
  0
LINE
  5
1010
  8
SIZE
  6
CONTINUOUS
 62
     0
 10
746.42450542074391
 20
-288.0
 30
0.0
 11
746.42450542074403
 21
-10.000000000000091
 31
0.0
  0
INSERT
  5
1011
  8
SIZE
  6
CONTINUOUS
 62
     0
  2
_ORIGIN
 10
746.42450542074391
 20
-298.0
 30
0.0
 41
10.0
 42
10.0
 43
10.0
 50
270.0
  0
INSERT
  5
1012
  8
SIZE
  6
CONTINUOUS
 62
     0
  2
_ORIGIN
 10
746.42450542074403
 20
-0.0000000000000953
 30
0.0
 41
10.0
 42
10.0
 43
10.0
 50
90.0
  0
TEXT
  8
0
  40
64
  5
1054
  62
0
  72
0
  71
0
 10
566.425
 20
-262.280
 30
0.000000
  1
298
  0
POINT
  5
1014
  8
DEFPOINTS
  6
CONTINUOUS
 62
     0
 10
410.0
 20
-298.0
 30
0.0
  0
POINT
  5
1015
  8
DEFPOINTS
  6
CONTINUOUS
 62
     0
 10
410.0
 20
0.0
 30
0.0
  0
POINT
  5
1016
  8
DEFPOINTS
  6
CONTINUOUS
 62
     0
 10
746.42450542074403
 20
-0.0000000000000953
 30
0.0
  0
ENDBLK
  5
F52
  8
0
  0
BLOCK
  8
0
  2
*D37
 70
     1
 10
0.0
 20
0.0
 30
0.0
  3
*D37
  1

  0
LINE
  5
1017
  8
SIZE
  6
CONTINUOUS
 62
     0
 10
-0.0000000000000012
 20
-353.90525838125478
 30
0.0
 11
-0.0000000000000163
 21
-599.8149465925012
 31
0.0
  0
LINE
  5
1018
  8
SIZE
  6
CONTINUOUS
 62
     0
 10
-337.0
 20
-296.0
 30
0.0
 11
-337.0
 21
-599.8149465925012
 31
0.0
  0
LINE
  5
1019
  8
SIZE
  6
CONTINUOUS
 62
     0
 10
-10.000000000000011
 20
-569.8149465925012
 30
0.0
 11
-327.0
 21
-569.8149465925012
 31
0.0
  0
INSERT
  5
101A
  8
SIZE
  6
CONTINUOUS
 62
     0
  2
_ORIGIN
 10
-0.0000000000000144
 20
-569.8149465925012
 30
0.0
 41
10.0
 42
10.0
 43
10.0
  0
INSERT
  5
101B
  8
SIZE
  6
CONTINUOUS
 62
     0
  2
_ORIGIN
 10
-337.0
 20
-569.8149465925012
 30
0.0
 41
10.0
 42
10.0
 43
10.0
 50
180.0
  0
TEXT
  8
0
  40
64
  5
1055
  62
0
  72
0
  71
0
 10
-296.500
 20
-631.095
 30
0.000000
  1
337
  0
POINT
  5
101D
  8
DEFPOINTS
  6
CONTINUOUS
 62
     0
 10
0.0
 20
-333.9052583812549
 30
0.0
  0
POINT
  5
101E
  8
DEFPOINTS
  6
CONTINUOUS
 62
     0
 10
-337.0
 20
-276.0
 30
0.0
  0
POINT
  5
101F
  8
DEFPOINTS
  6
CONTINUOUS
 62
     0
 10
-337.0
 20
-569.8149465925012
 30
0.0
  0
ENDBLK
  5
F5F
  8
0
  0
BLOCK
  8
0
  2
*D38
 70
     1
 10
0.0
 20
0.0
 30
0.0
  3
*D38
  1

  0
LINE
  5
1020
  8
SIZE
  6
CONTINUOUS
 62
     0
 10
-0.0000000000000012
 20
-353.90525838125478
 30
0.0
 11
-0.0000000000000163
 21
-599.8149465925012
 31
0.0
  0
LINE
  5
1021
  8
SIZE
  6
CONTINUOUS
 62
     0
 10
352.0
 20
-297.0
 30
0.0
 11
352.0
 21
-599.8149465925012
 31
0.0
  0
LINE
  5
1022
  8
SIZE
  6
CONTINUOUS
 62
     0
 10
9.9999999999999858
 20
-569.8149465925012
 30
0.0
 11
342.0
 21
-569.8149465925012
 31
0.0
  0
INSERT
  5
1023
  8
SIZE
  6
CONTINUOUS
 62
     0
  2
_ORIGIN
 10
-0.0000000000000144
 20
-569.8149465925012
 30
0.0
 41
10.0
 42
10.0
 43
10.0
 50
180.0
  0
INSERT
  5
1024
  8
SIZE
  6
CONTINUOUS
 62
     0
  2
_ORIGIN
 10
352.0
 20
-569.8149465925012
 30
0.0
 41
10.0
 42
10.0
 43
10.0
  0
TEXT
  8
0
  40
64
  5
1056
  62
0
  72
0
  71
0
 10
48.0000
 20
-631.095
 30
0.000000
  1
352
  0
POINT
  5
1026
  8
DEFPOINTS
  6
CONTINUOUS
 62
     0
 10
0.0
 20
-333.9052583812549
 30
0.0
  0
POINT
  5
1027
  8
DEFPOINTS
  6
CONTINUOUS
 62
     0
 10
352.0
 20
-277.0
 30
0.0
  0
POINT
  5
1028
  8
DEFPOINTS
  6
CONTINUOUS
 62
     0
 10
352.0
 20
-569.8149465925012
 30
0.0
  0
ENDBLK
  5
F6C
  8
0
  0
BLOCK
  8
0
  2
*D39
 70
     1
 10
0.0
 20
0.0
 30
0.0
  3
*D39
  1

  0
LINE
  5
1029
  8
SIZE
  6
CONTINUOUS
 62
     0
 10
-337.0
 20
-296.0
 30
0.0
 11
-337.0
 21
-599.8149465925012
 31
0.0
  0
LINE
  5
102A
  8
SIZE
  6
CONTINUOUS
 62
     0
 10
-420.0
 20
-308.0
 30
0.0
 11
-420.0
 21
-599.8149465925012
 31
0.0
  0
LINE
  5
102B
  8
SIZE
  6
CONTINUOUS
 62
     0
 10
-347.0
 20
-569.8149465925012
 30
0.0
 11
-410.0
 21
-569.8149465925012
 31
0.0
  0
LINE
  5
102C
  8
SIZE
  6
CONTINUOUS
 62
     0
 10
-420.0
 20
-569.8149465925012
 30
0.0
 11
-563.25714285714275
 21
-569.8149465925012
 31
0.0
  0
INSERT
  5
102D
  8
SIZE
  6
CONTINUOUS
 62
     0
  2
_ORIGIN
 10
-337.0
 20
-569.8149465925012
 30
0.0
 41
10.0
 42
10.0
 43
10.0
  0
INSERT
  5
102E
  8
SIZE
  6
CONTINUOUS
 62
     0
  2
_ORIGIN
 10
-420.0
 20
-569.8149465925012
 30
0.0
 41
10.0
 42
10.0
 43
10.0
 50
180.0
  0
TEXT
  8
0
  40
64
  5
1057
  62
0
  72
0
  71
0
 10
-624.629
 20
-631.095
 30
0.000000
  1
83
  0
POINT
  5
1030
  8
DEFPOINTS
  6
CONTINUOUS
 62
     0
 10
-337.0
 20
-276.0
 30
0.0
  0
POINT
  5
1031
  8
DEFPOINTS
  6
CONTINUOUS
 62
     0
 10
-420.0
 20
-288.0
 30
0.0
  0
POINT
  5
1032
  8
DEFPOINTS
  6
CONTINUOUS
 62
     0
 10
-420.0
 20
-569.8149465925012
 30
0.0
  0
ENDBLK
  5
F7B
  8
0
  0
BLOCK
  8
0
  2
*D40
 70
     1
 10
0.0
 20
0.0
 30
0.0
  3
*D40
  1

  0
LINE
  5
1033
  8
SIZE
  6
CONTINUOUS
 62
     0
 10
352.0
 20
-297.0
 30
0.0
 11
352.0
 21
-599.8149465925012
 31
0.0
  0
LINE
  5
1034
  8
SIZE
  6
CONTINUOUS
 62
     0
 10
420.0
 20
-308.0
 30
0.0
 11
420.0
 21
-599.8149465925012
 31
0.0
  0
LINE
  5
1035
  8
SIZE
  6
CONTINUOUS
 62
     0
 10
362.0
 20
-569.8149465925012
 30
0.0
 11
410.0
 21
-569.8149465925012
 31
0.0
  0
LINE
  5
1036
  8
SIZE
  6
CONTINUOUS
 62
     0
 10
420.0
 20
-569.8149465925012
 30
0.0
 11
563.25714285714275
 21
-569.8149465925012
 31
0.0
  0
INSERT
  5
1037
  8
SIZE
  6
CONTINUOUS
 62
     0
  2
_ORIGIN
 10
352.0
 20
-569.8149465925012
 30
0.0
 41
10.0
 42
10.0
 43
10.0
 50
180.0
  0
INSERT
  5
1038
  8
SIZE
  6
CONTINUOUS
 62
     0
  2
_ORIGIN
 10
420.0
 20
-569.8149465925012
 30
0.0
 41
10.0
 42
10.0
 43
10.0
  0
TEXT
  8
0
  40
64
  5
1058
  62
0
  72
0
  71
0
 10
368.629
 20
-631.095
 30
0.000000
  1
68
  0
POINT
  5
103A
  8
DEFPOINTS
  6
CONTINUOUS
 62
     0
 10
352.0
 20
-277.0
 30
0.0
  0
POINT
  5
103B
  8
DEFPOINTS
  6
CONTINUOUS
 62
     0
 10
420.0
 20
-288.0
 30
0.0
  0
POINT
  5
103C
  8
DEFPOINTS
  6
CONTINUOUS
 62
     0
 10
420.0
 20
-569.8149465925012
 30
0.0
  0
ENDBLK
  5
F8A
  8
0
  0
BLOCK
  8
0
  2
*D41
 70
     1
 10
0.0
 20
0.0
 30
0.0
  3
*D41
  1

  0
LINE
  5
103D
  8
SIZE
  6
CONTINUOUS
 62
     0
 10
-430.0
 20
-298.0
 30
0.0
 11
-574.65142344585729
 21
-298.0
 31
0.0
  0
LINE
  5
103E
  8
SIZE
  6
CONTINUOUS
 62
     0
 10
-377.0
 20
-255.5
 30
0.0
 11
-574.65142344585718
 21
-255.49999999999989
 31
0.0
  0
LINE
  5
103F
  8
SIZE
  6
CONTINUOUS
 62
     0
 10
-544.65142344585729
 20
-308.0
 30
0.0
 11
-544.65142344585729
 21
-318.0
 31
0.0
  0
LINE
  5
1040
  8
SIZE
  6
CONTINUOUS
 62
     0
 10
-544.65142344585729
 20
-245.49999999999989
 30
0.0
 11
-544.65142344585729
 21
-19.957142857142792
 31
0.0
  0
LINE
  5
1041
  8
SIZE
  6
CONTINUOUS
 62
     0
 10
-544.65142344585729
 20
-298.0
 30
0.0
 11
-544.65142344585729
 21
-255.49999999999989
 31
0.0
  0
INSERT
  5
1042
  8
SIZE
  6
CONTINUOUS
 62
     0
  2
_ORIGIN
 10
-544.65142344585729
 20
-298.0
 30
0.0
 41
10.0
 42
10.0
 43
10.0
 50
90.0
  0
INSERT
  5
1043
  8
SIZE
  6
CONTINUOUS
 62
     0
  2
_ORIGIN
 10
-544.65142344585729
 20
-255.49999999999989
 30
0.0
 41
10.0
 42
10.0
 43
10.0
 50
270.0
  0
TEXT
  8
0
  40
64
  5
1059
  62
0
  72
0
  71
0
 10
-724.651
 20
-241.009
 30
0.000000
  1
42.5
  0
POINT
  5
1045
  8
DEFPOINTS
  6
CONTINUOUS
 62
     0
 10
-410.0
 20
-298.0
 30
0.0
  0
POINT
  5
1046
  8
DEFPOINTS
  6
CONTINUOUS
 62
     0
 10
-357.0
 20
-255.5
 30
0.0
  0
POINT
  5
1047
  8
DEFPOINTS
  6
CONTINUOUS
 62
     0
 10
-544.65142344585729
 20
-255.49999999999989
 30
0.0
  0
ENDBLK
  5
FA1
  8
0
  0
BLOCK
  8
0
  2
*D42
 70
     1
 10
0.0
 20
0.0
 30
0.0
  3
*D42
  1

  0
LINE
  5
1048
  8
SIZE
  6
CONTINUOUS
 62
     0
 10
430.0
 20
-298.0
 30
0.0
 11
626.19423990285748
 21
-298.0
 31
0.0
  0
LINE
  5
1049
  8
SIZE
  6
CONTINUOUS
 62
     0
 10
392.0
 20
-256.49999999999989
 30
0.0
 11
626.19423990285748
 21
-256.49999999999989
 31
0.0
  0
LINE
  5
104A
  8
SIZE
  6
CONTINUOUS
 62
     0
 10
596.19423990285759
 20
-308.0
 30
0.0
 11
596.19423990285759
 21
-318.0
 31
0.0
  0
LINE
  5
104B
  8
SIZE
  6
CONTINUOUS
 62
     0
 10
596.19423990285759
 20
-246.49999999999989
 30
0.0
 11
596.19423990285759
 21
-31.928571428571399
 31
0.0
  0
LINE
  5
104C
  8
SIZE
  6
CONTINUOUS
 62
     0
 10
596.19423990285759
 20
-298.0
 30
0.0
 11
596.19423990285759
 21
-256.49999999999989
 31
0.0
  0
INSERT
  5
104D
  8
SIZE
  6
CONTINUOUS
 62
     0
  2
_ORIGIN
 10
596.19423990285759
 20
-298.0
 30
0.0
 41
10.0
 42
10.0
 43
10.0
 50
90.0
  0
INSERT
  5
104E
  8
SIZE
  6
CONTINUOUS
 62
     0
  2
_ORIGIN
 10
596.19423990285759
 20
-256.49999999999989
 30
0.0
 41
10.0
 42
10.0
 43
10.0
 50
270.0
  0
TEXT
  8
0
  40
64
  5
105A
  62
0
  72
0
  71
0
 10
416.194
 20
-247.494
 30
0.000000
  1
41.5
  0
POINT
  5
1050
  8
DEFPOINTS
  6
CONTINUOUS
 62
     0
 10
410.0
 20
-298.0
 30
0.0
  0
POINT
  5
1051
  8
DEFPOINTS
  6
CONTINUOUS
 62
     0
 10
372.0
 20
-256.49999999999989
 30
0.0
  0
POINT
  5
1052
  8
DEFPOINTS
  6
CONTINUOUS
 62
     0
 10
596.19423990285759
 20
-256.49999999999989
 30
0.0
  0
ENDBLK
  5
FB0
  8
0
  0
ENDSEC
  0
SECTION
  2
ENTITIES
  0
POINT
  5
F19
  8
ARRANGE
 62
     1
 10
0.0
 20
0.0
 30
0.0
  0
CIRCLE
  5
F1A
  8
ARRANGE
  6
CONTINUOUS
 62
     1
 10
0.0
 20
0.0
 30
0.0
 40
40.0
  0
LINE
  5
F1B
  8
BASIS
  6
DASHDOT
 62
     6
 10
492.75264999999928
 20
-149.0
 30
0.0
 11
-492.75264999999979
 21
-149.0
 31
0.0
  0
LINE
  5
F1C
  8
DETAIL
  6
CONTINUOUS
 10
410.0
 20
0.0
 30
0.0
 11
-410.0
 21
0.0
 31
0.0
  0
LINE
  5
F1D
  8
DETAIL
  6
CONTINUOUS
 10
410.0
 20
-298.0
 30
0.0
 11
-410.0
 21
-298.0
 31
0.0
  0
CIRCLE
  5
F1E
  8
ARRANGE
  6
CONTINUOUS
 10
0.0
 20
0.0
 30
0.0
 40
40.0
  0
POINT
  5
F1F
  8
ARRANGE
  6
CONTINUOUS
 10
0.0
 20
0.0
 30
0.0
  0
ARC
  5
F20
  8
DETAIL
  6
CONTINUOUS
 10
-410.0
 20
-10.0
 30
0.0
 40
10.0
 50
90.0
 51
180.0
  0
LINE
  5
F21
  8
NOTE
  6
CONTINUOUS
 62
     4
 10
-337.0
 20
-255.5
 30
0.0
 11
-641.73932000000013
 21
127.9001899999997
 31
0.0
  0
LINE
  5
F22
  8
BASIS
  6
DASHDOT
 62
     6
 10
0.0
 20
57.813579843071452
 30
0.0
 11
0.0
 21
-333.9052583812549
 31
0.0
  0
LINE
  5
F23
  8
DETAIL
  6
CONTINUOUS
 10
-420.0
 20
-10.0
 30
0.0
 11
-420.0
 21
-288.0
 31
0.0
  0
LINE
  5
F24
  8
NOTE
  6
CONTINUOUS
 62
     4
 10
-369.04927000000032
 20
-231.56583999999981
 30
0.0
 11
-337.0
 21
-255.5
 31
0.0
  0
CIRCLE
  5
F25
  8
DETAIL
  6
CONTINUOUS
 10
-337.0
 20
-256.0
 30
0.0
 40
32.5
  0
ARC
  5
F26
  8
DETAIL
  6
CONTINUOUS
 10
-410.0
 20
-288.0
 30
0.0
 40
10.0
 50
180.0
 51
270.0
  0
LINE
  5
F27
  8
NOTE
  6
DASHDOT
 62
     4
 10
-337.0
 20
-275.49999999999989
 30
0.0
 11
-337.0
 21
-235.49999999999989
 31
0.0
  0
LINE
  5
F28
  8
NOTE
  6
CONTINUOUS
 62
     4
 10
-337.0
 20
-255.5
 30
0.0
 11
-352.78840000000031
 21
-218.7477699999998
 31
0.0
  0
LINE
  5
F29
  8
NOTE
  6
DASHDOT
 62
     4
 10
-317.0
 20
-255.5
 30
0.0
 11
-357.0
 21
-255.5
 31
0.0
  0
LINE
  5
F2A
  8
NOTE
  6
CONTINUOUS
 62
     4
 10
-1175.47893
 20
127.9001899999997
 30
0.0
 11
-641.73932000000013
 21
127.9001899999997
 31
0.0
  0
TEXT
  5
F2B
  8
NOTE
 62
     4
 10
-1149.26648
 20
158.1457199999999
 30
0.0
 40
64.0
  1
D,RL,RG%%C65
 41
0.9
  0
ARC
  5
F2C
  8
DETAIL
  6
CONTINUOUS
 10
410.0
 20
-10.0
 30
0.0
 40
10.0
 50
0.0
 51
90.0
  0
LINE
  5
F2D
  8
NOTE
  6
CONTINUOUS
 62
     4
 10
352.0
 20
-256.49999999999989
 30
0.0
 11
553.82692999999915
 21
117.7748099999997
 31
0.0
  0
LINE
  5
F2E
  8
DETAIL
  6
CONTINUOUS
 10
420.0
 20
-10.0
 30
0.0
 11
420.0
 21
-288.0
 31
0.0
  0
LINE
  5
F2F
  8
NOTE
  6
CONTINUOUS
 62
     4
 10
352.0
 20
-256.49999999999989
 30
0.0
 11
379.86660999999992
 21
-227.8041399999999
 31
0.0
  0
CIRCLE
  5
F30
  8
DETAIL
  6
CONTINUOUS
 10
352.0
 20
-257.0
 30
0.0
 40
32.5
  0
LINE
  5
F31
  8
NOTE
  6
DASHDOT
 62
     4
 10
352.0
 20
-276.5
 30
0.0
 11
352.0
 21
-236.5
 31
0.0
  0
LINE
  5
F32
  8
NOTE
  6
CONTINUOUS
 62
     4
 10
361.78525999999948
 20
-217.71536
 30
0.0
 11
352.0
 21
-256.49999999999989
 31
0.0
  0
LINE
  5
F33
  8
NOTE
  6
DASHDOT
 62
     4
 10
372.0
 20
-256.49999999999989
 30
0.0
 11
332.0
 21
-256.49999999999989
 31
0.0
  0
ARC
  5
F34
  8
DETAIL
  6
CONTINUOUS
 10
410.0
 20
-288.0
 30
0.0
 40
10.0
 50
270.0
 51
0.0
  0
TEXT
  5
F35
  8
NOTE
 62
     4
 10
566.4920939483236
 20
139.8324099999999
 30
0.0
 40
64.0
  1
D,RL,RG%%C65
 41
0.9
  0
LINE
  5
F36
  8
NOTE
  6
CONTINUOUS
 62
     4
 10
553.82692999999915
 20
117.7748099999997
 30
0.0
 11
1072.003533948324
 21
117.7748099999997
 31
0.0
  0
TEXT
  5
F37
  8
ETC
 10
803.69818000000032
 20
276.54585793971643
 30
0.0
 40
64.0
  1
SMSZ2773
 41
0.8860759562895543
 72
     5
 11
1230.364849999999
 21
276.54585793971643
 31
0.0
  0
TEXT
  5
F38
  8
ETC
 10
811.11481000000015
 20
382.78294793971628
 30
0.0
 40
64.0
  1
RAC
 41
0.9051724137931028
 72
     5
 11
971.11481000000003
 21
382.78294793971628
 31
0.0
  0
DIMENSION
  5
F39
  8
SIZE
  6
CONTINUOUS
  2
*D35
 10
420.0
 20
175.993710738358
 30
0.0
 11
0.0000000000000032
 21
227.993710738358
 31
0.0
 70
     0
 13
-420.0
 23
-10.0
 33
0.0
 14
420.0
 24
-10.0
 34
0.0
1001
ACAD
1000
DSTYLE
1002
{
1070
   287
1070
     3
1070
    41
1040
10.0
1070
    42
1040
20.0
1070
    43
1040
200.0
1070
    44
1040
30.0
1070
    73
1070
     0
1070
    74
1070
     0
1070
    77
1070
     1
1070
    78
1070
     8
1070
   140
1040
64.0
1070
   147
1040
20.0
1070
   172
1070
     1
1070
   275
1070
     0
1070
   279
1070
     0
1070
   284
1070
     0
1070
   285
1070
     0
1070
   286
1070
     0
1070
   341
1005
D7C
1070
     5
1000
ORIGIN
1002
}
  0
DIMENSION
  5
F46
  8
SIZE
  6
CONTINUOUS
  2
*D36
 10
746.42450542074403
 20
-0.0000000000000953
 30
0.0
 11
694.42450542074403
 21
-148.99999999999989
 31
0.0
 70
     0
 13
410.0
 23
-298.0
 33
0.0
 14
410.0
 24
0.0
 34
0.0
 50
90.0
1001
ACAD
1000
DSTYLE
1002
{
1070
   287
1070
     3
1070
    41
1040
10.0
1070
    42
1040
20.0
1070
    43
1040
200.0
1070
    44
1040
30.0
1070
    73
1070
     0
1070
    74
1070
     0
1070
    77
1070
     1
1070
    78
1070
     8
1070
   140
1040
64.0
1070
   147
1040
20.0
1070
   172
1070
     1
1070
   275
1070
     0
1070
   279
1070
     0
1070
   284
1070
     0
1070
   285
1070
     0
1070
   286
1070
     0
1070
   341
1005
D7C
1070
     5
1000
ORIGIN
1002
}
  0
DIMENSION
  5
F53
  8
SIZE
  6
CONTINUOUS
  2
*D37
 10
-337.0
 20
-569.8149465925012
 30
0.0
 11
-168.5
 21
-517.81494659250109
 31
0.0
 70
     0
 13
0.0
 23
-333.9052583812549
 33
0.0
 14
-337.0
 24
-276.0
 34
0.0
1001
ACAD
1000
DSTYLE
1002
{
1070
   287
1070
     3
1070
    41
1040
10.0
1070
    42
1040
20.0
1070
    43
1040
200.0
1070
    44
1040
30.0
1070
    73
1070
     0
1070
    74
1070
     0
1070
    77
1070
     1
1070
    78
1070
     8
1070
   140
1040
64.0
1070
   147
1040
20.0
1070
   172
1070
     1
1070
   275
1070
     0
1070
   279
1070
     0
1070
   284
1070
     0
1070
   285
1070
     0
1070
   286
1070
     0
1070
   341
1005
D7C
1070
     5
1000
ORIGIN
1002
}
  0
DIMENSION
  5
F60
  8
SIZE
  6
CONTINUOUS
  2
*D38
 10
352.0
 20
-569.8149465925012
 30
0.0
 11
176.0
 21
-517.81494659250109
 31
0.0
 70
     0
 13
0.0
 23
-333.9052583812549
 33
0.0
 14
352.0
 24
-277.0
 34
0.0
1001
ACAD
1000
DSTYLE
1002
{
1070
   287
1070
     3
1070
    41
1040
10.0
1070
    42
1040
20.0
1070
    43
1040
200.0
1070
    44
1040
30.0
1070
    73
1070
     0
1070
    74
1070
     0
1070
    77
1070
     1
1070
    78
1070
     8
1070
   140
1040
64.0
1070
   147
1040
20.0
1070
   172
1070
     1
1070
   275
1070
     0
1070
   279
1070
     0
1070
   284
1070
     0
1070
   285
1070
     0
1070
   286
1070
     0
1070
   341
1005
D7C
1070
     5
1000
ORIGIN
1002
}
  0
DIMENSION
  5
F6D
  8
SIZE
  6
CONTINUOUS
  2
*D39
 10
-420.0
 20
-569.8149465925012
 30
0.0
 11
-496.62857142857138
 21
-517.81494659250109
 31
0.0
 70
     0
 13
-337.0
 23
-276.0
 33
0.0
 14
-420.0
 24
-288.0
 34
0.0
1001
ACAD
1000
DSTYLE
1002
{
1070
   287
1070
     3
1070
    41
1040
10.0
1070
    42
1040
20.0
1070
    43
1040
200.0
1070
    44
1040
30.0
1070
    73
1070
     0
1070
    74
1070
     0
1070
    77
1070
     1
1070
    78
1070
     8
1070
   140
1040
64.0
1070
   147
1040
20.0
1070
   172
1070
     1
1070
   275
1070
     0
1070
   279
1070
     0
1070
   284
1070
     0
1070
   285
1070
     0
1070
   286
1070
     0
1070
   341
1005
D7C
1070
     5
1000
ORIGIN
1002
}
  0
DIMENSION
  5
F7C
  8
SIZE
  6
CONTINUOUS
  2
*D40
 10
420.0
 20
-569.8149465925012
 30
0.0
 11
496.62857142857138
 21
-517.81494659250109
 31
0.0
 70
     0
 13
352.0
 23
-277.0
 33
0.0
 14
420.0
 24
-288.0
 34
0.0
1001
ACAD
1000
DSTYLE
1002
{
1070
   287
1070
     3
1070
    41
1040
10.0
1070
    42
1040
20.0
1070
    43
1040
200.0
1070
    44
1040
30.0
1070
    73
1070
     0
1070
    74
1070
     0
1070
    77
1070
     1
1070
    78
1070
     8
1070
   140
1040
64.0
1070
   147
1040
20.0
1070
   172
1070
     1
1070
   275
1070
     0
1070
   279
1070
     0
1070
   284
1070
     0
1070
   285
1070
     0
1070
   286
1070
     0
1070
   341
1005
D7C
1070
     5
1000
ORIGIN
1002
}
  0
LINE
  5
F8B
  8
OUTLINE
  6
CONTINUOUS
 10
410.0
 20
-298.0
 30
0.0
 11
-410.0
 21
-298.0
 31
0.0
  0
LINE
  5
F8C
  8
OUTLINE
  6
CONTINUOUS
 10
410.0
 20
0.0
 30
0.0
 11
-410.0
 21
0.0
 31
0.0
  0
LINE
  5
F8D
  8
OUTLINE
  6
CONTINUOUS
 10
-420.0
 20
-10.0
 30
0.0
 11
-420.0
 21
-288.0
 31
0.0
  0
ARC
  5
F8E
  8
OUTLINE
  6
CONTINUOUS
 10
-410.0
 20
-288.0
 30
0.0
 40
10.0
 50
180.0
 51
270.0
  0
ARC
  5
F8F
  8
OUTLINE
  6
CONTINUOUS
 10
-410.0
 20
-10.0
 30
0.0
 40
10.0
 50
90.0
 51
180.0
  0
LINE
  5
F90
  8
OUTLINE
  6
CONTINUOUS
 10
420.0
 20
-10.0
 30
0.0
 11
420.0
 21
-288.0
 31
0.0
  0
ARC
  5
F91
  8
OUTLINE
  6
CONTINUOUS
 10
410.0
 20
-288.0
 30
0.0
 40
10.0
 50
270.0
 51
0.0
  0
ARC
  5
F92
  8
OUTLINE
  6
CONTINUOUS
 10
410.0
 20
-10.0
 30
0.0
 40
10.0
 50
0.0
 51
90.0
  0
DIMENSION
  5
F93
  8
SIZE
  6
CONTINUOUS
  2
*D41
 10
-544.65142344585729
 20
-255.49999999999989
 30
0.0
 11
-596.65142344585718
 21
-127.7285714285714
 31
0.0
 70
     0
 13
-410.0
 23
-298.0
 33
0.0
 14
-357.0
 24
-255.5
 34
0.0
 50
90.0
1001
ACAD
1000
DSTYLE
1002
{
1070
   287
1070
     3
1070
    41
1040
10.0
1070
    42
1040
20.0
1070
    43
1040
200.0
1070
    44
1040
30.0
1070
    73
1070
     0
1070
    74
1070
     0
1070
    77
1070
     1
1070
    78
1070
     8
1070
   140
1040
64.0
1070
   147
1040
20.0
1070
   172
1070
     1
1070
   275
1070
     0
1070
   279
1070
     0
1070
   284
1070
     0
1070
   285
1070
     0
1070
   286
1070
     0
1070
   341
1005
D7C
1070
     5
1000
ORIGIN
1002
}
  0
DIMENSION
  5
FA2
  8
SIZE
  6
CONTINUOUS
  2
*D42
 10
596.19423990285759
 20
-256.49999999999989
 30
0.0
 11
544.1942399028577
 21
-134.2142857142855
 31
0.0
 70
     0
 13
410.0
 23
-298.0
 33
0.0
 14
372.0
 24
-256.49999999999989
 34
0.0
 50
90.0
1001
ACAD
1000
DSTYLE
1002
{
1070
   287
1070
     3
1070
    41
1040
10.0
1070
    42
1040
20.0
1070
    43
1040
200.0
1070
    44
1040
30.0
1070
    73
1070
     0
1070
    74
1070
     0
1070
    77
1070
     1
1070
    78
1070
     8
1070
   140
1040
64.0
1070
   147
1040
20.0
1070
   172
1070
     1
1070
   275
1070
     0
1070
   279
1070
     0
1070
   284
1070
     0
1070
   285
1070
     0
1070
   286
1070
     0
1070
   341
1005
D7C
1070
     5
1000
ORIGIN
1002
}
  0
ENDSEC
  0
EOF
