  0
SECTION
  2
HEADER
  9
$ACADVER
  1
AC1009
  9
$INSBASE
 10
0.0
 20
0.0
 30
0.0
  9
$EXTMIN
 10
-673.76378524266886
 20
-465.12463999999989
 30
0.0
  9
$EXTMAX
 10
1048.4309058547849
 20
408.72308197621368
 30
0.0
  9
$LIMMIN
 10
-2428.899553052323
 20
-3385.7899241372588
  9
$LIMMAX
 10
5476.8888439526536
 20
849.23357081275742
  9
$ORTHOMODE
 70
     1
  9
$REGENMODE
 70
     1
  9
$FILLMODE
 70
     1
  9
$QTEXTMODE
 70
     0
  9
$MIRRTEXT
 70
     0
  9
$DRAGMODE
 70
     2
  9
$LTSCALE
 40
20.0
  9
$OSMODE
 70
    37
  9
$ATTMODE
 70
     1
  9
$TEXTSIZE
 40
64.0
  9
$TRACEWID
 40
0.05
  9
$TEXTSTYLE
  7
STANDARD
  9
$CLAYER
  8
SIZE
  9
$CELTYPE
  6
CONTINUOUS
  9
$CECOLOR
 62
   256
  9
$DIMSCALE
 40
1.0
  9
$DIMASZ
 40
10.0
  9
$DIMEXO
 40
20.0
  9
$DIMDLI
 40
200.0
  9
$DIMRND
 40
0.0
  9
$DIMDLE
 40
0.0
  9
$DIMEXE
 40
30.0
  9
$DIMTP
 40
0.0
  9
$DIMTM
 40
0.0
  9
$DIMTXT
 40
64.0
  9
$DIMCEN
 40
0.09
  9
$DIMTSZ
 40
0.0
  9
$DIMTOL
 70
     0
  9
$DIMLIM
 70
     0
  9
$DIMTIH
 70
     0
  9
$DIMTOH
 70
     0
  9
$DIMSE1
 70
     0
  9
$DIMSE2
 70
     0
  9
$DIMTAD
 70
     1
  9
$DIMZIN
 70
     8
  9
$DIMBLK
  1
ORIGIN
  9
$DIMASO
 70
     1
  9
$DIMSHO
 70
     0
  9
$DIMPOST
  1

  9
$DIMAPOST
  1

  9
$DIMALT
 70
     0
  9
$DIMALTD
 70
     2
  9
$DIMALTF
 40
25.399999999999999
  9
$DIMLFAC
 40
1.0
  9
$DIMTOFL
 70
     1
  9
$DIMTVP
 40
0.0
  9
$DIMTIX
 70
     0
  9
$DIMSOXD
 70
     0
  9
$DIMSAH
 70
     0
  9
$DIMBLK1
  1

  9
$DIMBLK2
  1

  9
$DIMSTYLE
  2
STANDARD
  9
$DIMCLRD
 70
     0
  9
$DIMCLRE
 70
     0
  9
$DIMCLRT
 70
     0
  9
$DIMTFAC
 40
1.0
  9
$DIMGAP
 40
20.0
  9
$LUNITS
 70
     2
  9
$LUPREC
 70
     4
  9
$SKETCHINC
 40
0.1
  9
$FILLETRAD
 40
5.0
  9
$AUNITS
 70
     1
  9
$AUPREC
 70
     3
  9
$MENU
  1
ACAD
  9
$ELEVATION
 40
0.0
  9
$PELEVATION
 40
0.0
  9
$THICKNESS
 40
0.0
  9
$LIMCHECK
 70
     0
  9
$BLIPMODE
 70
     0
  9
$CHAMFERA
 40
0.0
  9
$CHAMFERB
 40
0.0
  9
$SKPOLY
 70
     0
  9
$TDCREATE
 40
2450330.3932059952
  9
$TDUPDATE
 40
2453182.5103600579
  9
$TDINDWG
 40
0.3957931597
  9
$TDUSRTIMER
 40
0.3957931597
  9
$USRTIMER
 70
     1
  9
$ANGBASE
 50
0.0
  9
$ANGDIR
 70
     0
  9
$PDMODE
 70
     3
  9
$PDSIZE
 40
-2.0
  9
$PLINEWID
 40
0.0
  9
$COORDS
 70
     1
  9
$SPLFRAME
 70
     0
  9
$SPLINETYPE
 70
     6
  9
$SPLINESEGS
 70
     8
  9
$ATTDIA
 70
     0
  9
$ATTREQ
 70
     1
  9
$HANDLING
 70
 10241
  9
$HANDSEED
  5
1610
  9
$SURFTAB1
 70
     6
  9
$SURFTAB2
 70
     6
  9
$SURFTYPE
 70
     6
  9
$SURFU
 70
     6
  9
$SURFV
 70
     6
  9
$UCSNAME
  2

  9
$UCSORG
 10
0.0
 20
0.0
 30
0.0
  9
$UCSXDIR
 10
1.0
 20
0.0
 30
0.0
  9
$UCSYDIR
 10
0.0
 20
1.0
 30
0.0
  9
$PUCSNAME
  2

  9
$PUCSORG
 10
0.0
 20
0.0
 30
0.0
  9
$PUCSXDIR
 10
1.0
 20
0.0
 30
0.0
  9
$PUCSYDIR
 10
0.0
 20
1.0
 30
0.0
  9
$USERI1
 70
     0
  9
$USERI2
 70
     0
  9
$USERI3
 70
     0
  9
$USERI4
 70
     0
  9
$USERI5
 70
     0
  9
$USERR1
 40
20.0
  9
$USERR2
 40
0.0
  9
$USERR3
 40
0.0
  9
$USERR4
 40
0.0
  9
$USERR5
 40
0.0
  9
$WORLDVIEW
 70
     1
  9
$SHADEDGE
 70
     3
  9
$SHADEDIF
 70
    70
  9
$TILEMODE
 70
     1
  9
$MAXACTVP
 70
    64
  9
$PLIMCHECK
 70
     0
  9
$PEXTMIN
 10
1.0000000000000000E+020
 20
1.0000000000000000E+020
 30
1.0000000000000000E+020
  9
$PEXTMAX
 10
-1.0000000000000000E+020
 20
-1.0000000000000000E+020
 30
-1.0000000000000000E+020
  9
$PLIMMIN
 10
0.0
 20
0.0
  9
$PLIMMAX
 10
12.0
 20
9.0
  9
$UNITMODE
 70
     0
  9
$VISRETAIN
 70
     1
  9
$PLINEGEN
 70
     0
  9
$PSLTSCALE
 70
     1
  0
ENDSEC
  0
SECTION
  2
TABLES
  0
TABLE
  2
VPORT
 70
     2
  0
VPORT
  2
*ACTIVE
 70
     0
 10
0.0
 20
0.0
 11
1.0
 21
1.0
 12
433.28566167866433
 22
-61.458420075521751
 13
0.0
 23
0.0
 14
50.0
 24
50.0
 15
100.0
 25
100.0
 16
0.0
 26
0.0
 36
1.0
 17
0.0
 27
0.0
 37
0.0
 40
1830.8360662152511
 41
1.5139593908629441
 42
50.0
 43
0.0
 44
0.0
 50
0.0
 51
0.0
 71
     0
 72
   500
 73
     1
 74
     0
 75
     0
 76
     0
 77
     0
 78
     0
  0
ENDTAB
  0
TABLE
  2
LTYPE
 70
    15
  0
LTYPE
  2
CONTINUOUS
 70
     0
  3
実線
 72
    65
 73
     0
 40
0.0
  0
LTYPE
  2
DASHDOT
 70
     0
  3
____ _ ____ _ ____ _ ____ _ ____ _ ____ _ ____
 72
    65
 73
     4
 40
5.5
 49
4.0
 49
-0.6
 49
0.3
 49
-0.6
  0
LTYPE
  2
CONTINOUS
 70
     0
  3
Solid line
 72
    65
 73
     0
 40
0.0
  0
LTYPE
  2
BORDER
 70
     0
  3
BORDER
 72
    65
 73
     6
 40
1.75
 49
0.5
 49
-0.25
 49
0.5
 49
-0.25
 49
0.0
 49
-0.25
  0
LTYPE
  2
CENTER
 70
     0
  3
CENTER
 72
    65
 73
     4
 40
2.0
 49
1.25
 49
-0.25
 49
0.25
 49
-0.25
  0
LTYPE
  2
DASHED
 70
     0
  3
DASHED
 72
    65
 73
     2
 40
0.75
 49
0.5
 49
-0.25
  0
LTYPE
  2
DIVIDE
 70
     0
  3
DIVIDE
 72
    65
 73
     6
 40
1.25
 49
0.5
 49
-0.25
 49
0.0
 49
-0.25
 49
0.0
 49
-0.25
  0
LTYPE
  2
DOT
 70
     0
  3
DOT
 72
    65
 73
     2
 40
0.25
 49
0.0
 49
-0.25
  0
LTYPE
  2
HIDDEN
 70
     0
  3
HIDDEN
 72
    65
 73
     2
 40
0.375
 49
0.25
 49
-0.125
  0
LTYPE
  2
PHANTOM
 70
     0
  3
PHANTOM
 72
    65
 73
     6
 40
2.5
 49
1.25
 49
-0.25
 49
0.25
 49
-0.25
 49
0.25
 49
-0.25
  0
LTYPE
  2
$INVISIBLE
 70
     0
  3
$INVISIBLE
 72
    65
 73
     2
 40
200.0
 49
-100.0
 49
-100.0
  0
LTYPE
  2
$MARGINS
 70
     0
  3
$MARGINS
 72
    65
 73
     2
 40
0.075
 49
0.05
 49
-0.025
  0
LTYPE
  2
JLSTYLE_0
 70
     0
  3
JLSTYLE_0
 72
    65
 73
     4
 40
1.0
 49
0.5
 49
-0.25
 49
0.0
 49
-0.25
  0
LTYPE
  2
JLSTYLE_1
 70
     0
  3
JLSTYLE_1
 72
    65
 73
     2
 40
0.75
 49
0.5
 49
-0.25
  0
LTYPE
  2
JLSTYLE_2
 70
     0
  3
JLSTYLE_2
 72
    65
 73
     6
 40
1.25
 49
0.5
 49
-0.25
 49
0.0
 49
-0.25
 49
0.0
 49
-0.25
  0
ENDTAB
  0
TABLE
  2
LAYER
 70
    13
  0
LAYER
  2
0
 70
     0
 62
     7
  6
CONTINUOUS
  0
LAYER
  2
SIZE
 70
     0
 62
    32
  6
CONTINUOUS
  0
LAYER
  2
DETAIL
 70
     0
 62
     5
  6
CONTINUOUS
  0
LAYER
  2
OUTLINE
 70
     0
 62
     3
  6
CONTINUOUS
  0
LAYER
  2
BASIS
 70
     0
 62
     6
  6
CONTINUOUS
  0
LAYER
  2
NOTE
 70
     0
 62
     4
  6
CONTINUOUS
  0
LAYER
  2
ARRANGE
 70
     0
 62
     1
  6
CONTINUOUS
  0
LAYER
  2
FIX
 70
     0
 62
   241
  6
CONTINUOUS
  0
LAYER
  2
ETC
 70
     0
 62
    83
  6
CONTINUOUS
  0
LAYER
  2
SERVICESPACE
 70
     0
 62
     2
  6
CONTINUOUS
  0
LAYER
  2
SYMBOLLINE
 70
     0
 62
    38
  6
CONTINUOUS
  0
LAYER
  2
DEFPOINTS
 70
     0
 62
     7
  6
CONTINUOUS
  0
LAYER
  2
SERVICE_SPACE
 70
     0
 62
     2
  6
CONTINUOUS
  0
ENDTAB
  0
TABLE
  2
STYLE
 70
     1
  0
STYLE
  2
STANDARD
 70
     0
 40
0.0
 41
0.9
 50
0.0
 71
     0
 42
64.0
  3
SIMPLEX
  4
BIGFONT
  0
ENDTAB
  0
TABLE
  2
VIEW
 70
     1
  0
VIEW
  2
ALL
 70
     0
 40
4282.6199999999999
 10
0.0
 20
41.309903999999989
 41
5940.0
 11
0.0
 21
0.0
 31
1.0
 12
0.0
 22
0.0
 32
0.0
 42
50.0
 43
0.0
 44
0.0
 50
0.0
 71
     0
  0
ENDTAB
  0
TABLE
  2
UCS
 70
     0
  0
ENDTAB
  0
TABLE
  2
APPID
 70
     1
  0
APPID
  2
ACAD
 70
     0
  0
ENDTAB
  0
TABLE
  2
DIMSTYLE
 70
     1
  0
DIMSTYLE
  2
STANDARD
 70
     0
  3

  4

  5

  6

  7

 40
1.0
 41
0.18
 42
0.0625
 43
0.38
 44
0.18
 45
0.0
 46
0.0
 47
0.0
 48
0.0
140
0.18
141
0.09
142
0.0
143
25.399999999999999
144
1.0
145
0.0
146
1.0
147
0.09
 71
     0
 72
     0
 73
     1
 74
     1
 75
     0
 76
     0
 77
     0
 78
     0
170
     0
171
     2
172
     0
173
     0
174
     0
175
     0
176
     0
177
     0
178
     0
  0
ENDTAB
  0
ENDSEC
  0
SECTION
  2
BLOCKS
  0
BLOCK
  8
0
  2
$MODEL_SPACE
 70
     0
 10
0.0
 20
0.0
 30
0.0
  3
$MODEL_SPACE
  1

  0
ENDBLK
  5
1247
  8
0
  0
BLOCK
 67
     1
  8
0
  2
$PAPER_SPACE
 70
     0
 10
0.0
 20
0.0
 30
0.0
  3
$PAPER_SPACE
  1

  0
ENDBLK
  5
1243
 67
     1
  8
0
  0
BLOCK
  8
0
  2
_ORIGIN
 70
     0
 10
0.0
 20
0.0
 30
0.0
  3
_ORIGIN
  1

  0
CIRCLE
  5
1270
  8
0
  6
BYBLOCK
 62
     0
 10
0.0
 20
0.0
 30
0.0
 40
0.5
  0
LINE
  5
1271
  8
0
  6
BYBLOCK
 62
     0
 10
0.0
 20
0.0
 30
0.0
 11
-1.0
 21
0.0
 31
0.0
  0
ENDBLK
  5
1272
  8
0
  0
BLOCK
  8
0
  2
*D3
 70
     1
 10
0.0
 20
0.0
 30
0.0
  3
*D3
  1

  0
LINE
  5
1275
  8
SIZE
  6
CONTINUOUS
 62
     0
 10
-420.0
 20
-253.0
 30
0.0
 11
-420.0
 21
-509.36497745244912
 31
0.0
  0
LINE
  5
1276
  8
SIZE
  6
CONTINUOUS
 62
     0
 10
420.0
 20
-253.0
 30
0.0
 11
420.0
 21
-509.36497745244912
 31
0.0
  0
LINE
  5
1277
  8
SIZE
  6
CONTINUOUS
 62
     0
 10
-410.0
 20
-479.36497745244912
 30
0.0
 11
410.0
 21
-479.36497745244912
 31
0.0
  0
INSERT
  5
1278
  8
SIZE
  6
CONTINUOUS
 62
     0
  2
_ORIGIN
 10
-420.0
 20
-479.36497745244912
 30
0.0
 41
10.0
 42
10.0
 43
10.0
 50
180.0
  0
INSERT
  5
1279
  8
SIZE
  6
CONTINUOUS
 62
     0
  2
_ORIGIN
 10
420.0
 20
-479.36497745244912
 30
0.0
 41
10.0
 42
10.0
 43
10.0
  0
TEXT
  5
127A
  8
SIZE
  6
CONTINUOUS
 62
     0
 10
-74.057142857142864
 20
-459.36497745244912
 30
0.0
 40
64.0
  1
840
 41
0.9
  0
POINT
  5
127B
  8
DEFPOINTS
  6
CONTINUOUS
 62
     0
 10
-420.0
 20
-233.0
 30
0.0
  0
POINT
  5
127C
  8
DEFPOINTS
  6
CONTINUOUS
 62
     0
 10
420.0
 20
-233.0
 30
0.0
  0
POINT
  5
127D
  8
DEFPOINTS
  6
CONTINUOUS
 62
     0
 10
420.0
 20
-479.36497745244912
 30
0.0
  0
ENDBLK
  5
127E
  8
0
  0
BLOCK
  8
0
  2
*D4
 70
     1
 10
0.0
 20
0.0
 30
0.0
  3
*D4
  1

  0
LINE
  5
1281
  8
SIZE
  6
CONTINUOUS
 62
     0
 10
0.0000000000000012
 20
71.79273000000002
 30
0.0
 11
0.0000000000000138
 21
277.66770401076423
 31
0.0
  0
LINE
  5
1282
  8
SIZE
  6
CONTINUOUS
 62
     0
 10
-352.0
 20
40.0
 30
0.0
 11
-352.0
 21
277.66770401076423
 31
0.0
  0
LINE
  5
1283
  8
SIZE
  6
CONTINUOUS
 62
     0
 10
-9.9999999999999876
 20
247.66770401076431
 30
0.0
 11
-342.0
 21
247.66770401076431
 31
0.0
  0
INSERT
  5
1284
  8
SIZE
  6
CONTINUOUS
 62
     0
  2
_ORIGIN
 10
0.000000000000012
 20
247.66770401076431
 30
0.0
 41
10.0
 42
10.0
 43
10.0
  0
INSERT
  5
1285
  8
SIZE
  6
CONTINUOUS
 62
     0
  2
_ORIGIN
 10
-352.0
 20
247.66770401076431
 30
0.0
 41
10.0
 42
10.0
 43
10.0
 50
180.0
  0
TEXT
  5
1286
  8
SIZE
  6
CONTINUOUS
 62
     0
 10
-250.05714285714279
 20
267.66770401076423
 30
0.0
 40
64.0
  1
352
 41
0.9
  0
POINT
  5
1287
  8
DEFPOINTS
  6
CONTINUOUS
 62
     0
 10
0.0
 20
51.792729999999999
 30
0.0
  0
POINT
  5
1288
  8
DEFPOINTS
  6
CONTINUOUS
 62
     0
 10
-352.0
 20
20.0
 30
0.0
  0
POINT
  5
1289
  8
DEFPOINTS
  6
CONTINUOUS
 62
     0
 10
-352.0
 20
247.66770401076431
 30
0.0
  0
ENDBLK
  5
128A
  8
0
  0
BLOCK
  8
0
  2
*D5
 70
     1
 10
0.0
 20
0.0
 30
0.0
  3
*D5
  1

  0
LINE
  5
128D
  8
SIZE
  6
CONTINUOUS
 62
     0
 10
0.0000000000000012
 20
71.79273000000002
 30
0.0
 11
0.0000000000000138
 21
277.66770401076423
 31
0.0
  0
LINE
  5
128E
  8
SIZE
  6
CONTINUOUS
 62
     0
 10
337.0
 20
40.0
 30
0.0
 11
337.0
 21
277.66770401076423
 31
0.0
  0
LINE
  5
128F
  8
SIZE
  6
CONTINUOUS
 62
     0
 10
10.000000000000011
 20
247.66770401076431
 30
0.0
 11
327.0
 21
247.66770401076431
 31
0.0
  0
INSERT
  5
1290
  8
SIZE
  6
CONTINUOUS
 62
     0
  2
_ORIGIN
 10
0.000000000000012
 20
247.66770401076431
 30
0.0
 41
10.0
 42
10.0
 43
10.0
 50
180.0
  0
INSERT
  5
1291
  8
SIZE
  6
CONTINUOUS
 62
     0
  2
_ORIGIN
 10
337.0
 20
247.66770401076431
 30
0.0
 41
10.0
 42
10.0
 43
10.0
  0
TEXT
  5
1292
  8
SIZE
  6
CONTINUOUS
 62
     0
 10
94.442857142857136
 20
267.66770401076423
 30
0.0
 40
64.0
  1
337
 41
0.9
  0
POINT
  5
1293
  8
DEFPOINTS
  6
CONTINUOUS
 62
     0
 10
0.0
 20
51.792729999999999
 30
0.0
  0
POINT
  5
1294
  8
DEFPOINTS
  6
CONTINUOUS
 62
     0
 10
337.0
 20
20.0
 30
0.0
  0
POINT
  5
1295
  8
DEFPOINTS
  6
CONTINUOUS
 62
     0
 10
337.0
 20
247.66770401076431
 30
0.0
  0
ENDBLK
  5
1296
  8
0
  0
BLOCK
  8
0
  2
*D6
 70
     1
 10
0.0
 20
0.0
 30
0.0
  3
*D6
  1

  0
LINE
  5
1299
  8
SIZE
  6
CONTINUOUS
 62
     0
 10
-352.0
 20
40.0
 30
0.0
 11
-352.0
 21
277.66770401076423
 31
0.0
  0
LINE
  5
129A
  8
SIZE
  6
CONTINUOUS
 62
     0
 10
-420.0
 20
-29.808365678619531
 30
0.0
 11
-420.0
 21
277.66770401076423
 31
0.0
  0
LINE
  5
129B
  8
SIZE
  6
CONTINUOUS
 62
     0
 10
-342.0
 20
247.66770401076431
 30
0.0
 11
-332.0
 21
247.66770401076431
 31
0.0
  0
LINE
  5
129C
  8
SIZE
  6
CONTINUOUS
 62
     0
 10
-430.0
 20
247.66770401076431
 30
0.0
 11
-573.25714285714275
 21
247.66770401076431
 31
0.0
  0
LINE
  5
129D
  8
SIZE
  6
CONTINUOUS
 62
     0
 10
-352.0
 20
247.66770401076431
 30
0.0
 11
-420.0
 21
247.66770401076431
 31
0.0
  0
INSERT
  5
129E
  8
SIZE
  6
CONTINUOUS
 62
     0
  2
_ORIGIN
 10
-352.0
 20
247.66770401076431
 30
0.0
 41
10.0
 42
10.0
 43
10.0
 50
180.0
  0
INSERT
  5
129F
  8
SIZE
  6
CONTINUOUS
 62
     0
  2
_ORIGIN
 10
-420.0
 20
247.66770401076431
 30
0.0
 41
10.0
 42
10.0
 43
10.0
  0
TEXT
  5
12A0
  8
SIZE
  6
CONTINUOUS
 62
     0
 10
-553.25714285714275
 20
267.66770401076423
 30
0.0
 40
64.0
  1
68
 41
0.9
  0
POINT
  5
12A1
  8
DEFPOINTS
  6
CONTINUOUS
 62
     0
 10
-352.0
 20
20.0
 30
0.0
  0
POINT
  5
12A2
  8
DEFPOINTS
  6
CONTINUOUS
 62
     0
 10
-420.0
 20
-49.808365678619531
 30
0.0
  0
POINT
  5
12A3
  8
DEFPOINTS
  6
CONTINUOUS
 62
     0
 10
-420.0
 20
247.66770401076431
 30
0.0
  0
ENDBLK
  5
12A4
  8
0
  0
BLOCK
  8
0
  2
*D7
 70
     1
 10
0.0
 20
0.0
 30
0.0
  3
*D7
  1

  0
LINE
  5
12A7
  8
SIZE
  6
CONTINUOUS
 62
     0
 10
337.0
 20
40.0
 30
0.0
 11
337.0
 21
277.66770401076423
 31
0.0
  0
LINE
  5
12A8
  8
SIZE
  6
CONTINUOUS
 62
     0
 10
420.00000000000011
 20
-29.808365678619591
 30
0.0
 11
420.00000000000011
 21
277.66770401076423
 31
0.0
  0
LINE
  5
12A9
  8
SIZE
  6
CONTINUOUS
 62
     0
 10
327.0
 20
247.66770401076431
 30
0.0
 11
317.0
 21
247.66770401076431
 31
0.0
  0
LINE
  5
12AA
  8
SIZE
  6
CONTINUOUS
 62
     0
 10
430.0
 20
247.66770401076431
 30
0.0
 11
573.25714285714287
 21
247.66770401076431
 31
0.0
  0
LINE
  5
12AB
  8
SIZE
  6
CONTINUOUS
 62
     0
 10
337.0
 20
247.66770401076431
 30
0.0
 11
420.00000000000011
 21
247.66770401076431
 31
0.0
  0
INSERT
  5
12AC
  8
SIZE
  6
CONTINUOUS
 62
     0
  2
_ORIGIN
 10
337.0
 20
247.66770401076431
 30
0.0
 41
10.0
 42
10.0
 43
10.0
  0
INSERT
  5
12AD
  8
SIZE
  6
CONTINUOUS
 62
     0
  2
_ORIGIN
 10
420.00000000000011
 20
247.66770401076431
 30
0.0
 41
10.0
 42
10.0
 43
10.0
 50
180.0
  0
TEXT
  5
12AE
  8
SIZE
  6
CONTINUOUS
 62
     0
 10
460.0
 20
267.66770401076423
 30
0.0
 40
64.0
  1
83
 41
0.9
  0
POINT
  5
12AF
  8
DEFPOINTS
  6
CONTINUOUS
 62
     0
 10
337.0
 20
20.0
 30
0.0
  0
POINT
  5
12B0
  8
DEFPOINTS
  6
CONTINUOUS
 62
     0
 10
420.00000000000011
 20
-49.808365678619602
 30
0.0
  0
POINT
  5
12B1
  8
DEFPOINTS
  6
CONTINUOUS
 62
     0
 10
420.00000000000011
 20
247.66770401076431
 30
0.0
  0
ENDBLK
  5
12B2
  8
0
  0
BLOCK
  8
0
  2
*D8
 70
     1
 10
0.0
 20
0.0
 30
0.0
  3
*D8
  1

  0
LINE
  5
12B5
  8
SIZE
  6
CONTINUOUS
 62
     0
 10
-430.0
 20
-1468.6681578089731
 30
0.0
 11
-607.88564535690955
 21
-1468.6681578089731
 31
0.0
  0
LINE
  5
12B6
  8
SIZE
  6
CONTINUOUS
 62
     0
 10
-430.0
 20
-1170.668157808974
 30
0.0
 11
-607.88564535690955
 21
-1170.668157808974
 31
0.0
  0
LINE
  5
12B7
  8
SIZE
  6
CONTINUOUS
 62
     0
 10
-577.88564535690966
 20
-1458.668157808974
 30
0.0
 11
-577.88564535690966
 21
-1180.668157808974
 31
0.0
  0
INSERT
  5
12B8
  8
SIZE
  6
CONTINUOUS
 62
     0
  2
_ORIGIN
 10
-577.88564535690966
 20
-1468.6681578089731
 30
0.0
 41
10.0
 42
10.0
 43
10.0
 50
270.0
  0
INSERT
  5
12B9
  8
SIZE
  6
CONTINUOUS
 62
     0
  2
_ORIGIN
 10
-577.88564535690966
 20
-1170.668157808974
 30
0.0
 41
10.0
 42
10.0
 43
10.0
 50
90.0
  0
TEXT
  5
12BA
  8
SIZE
  6
CONTINUOUS
 62
     0
 10
-597.88564535690955
 20
-1393.725300666116
 30
0.0
 40
64.0
  1
298
 50
90.0
 41
0.9
  0
POINT
  5
12BB
  8
DEFPOINTS
  6
CONTINUOUS
 62
     0
 10
-410.0
 20
-1468.6681578089731
 30
0.0
  0
POINT
  5
12BC
  8
DEFPOINTS
  6
CONTINUOUS
 62
     0
 10
-410.0
 20
-1170.668157808974
 30
0.0
  0
POINT
  5
12BD
  8
DEFPOINTS
  6
CONTINUOUS
 62
     0
 10
-577.88564535690966
 20
-1170.668157808974
 30
0.0
  0
ENDBLK
  5
12BE
  8
0
  0
BLOCK
  8
0
  2
*D9
 70
     1
 10
0.0
 20
0.0
 30
0.0
  3
*D9
  1

  0
LINE
  5
12C1
  8
SIZE
  6
CONTINUOUS
 62
     0
 10
-420.0
 20
-1160.6681578089731
 30
0.0
 11
-420.0
 21
-1002.493004975886
 31
0.0
  0
LINE
  5
12C2
  8
SIZE
  6
CONTINUOUS
 62
     0
 10
420.0
 20
-1160.6681578089731
 30
0.0
 11
420.0
 21
-1002.493004975886
 31
0.0
  0
LINE
  5
12C3
  8
SIZE
  6
CONTINUOUS
 62
     0
 10
-410.0
 20
-1032.4930049758859
 30
0.0
 11
410.0
 21
-1032.4930049758859
 31
0.0
  0
INSERT
  5
12C4
  8
SIZE
  6
CONTINUOUS
 62
     0
  2
_ORIGIN
 10
-420.0
 20
-1032.4930049758859
 30
0.0
 41
10.0
 42
10.0
 43
10.0
 50
180.0
  0
INSERT
  5
12C5
  8
SIZE
  6
CONTINUOUS
 62
     0
  2
_ORIGIN
 10
420.0
 20
-1032.4930049758859
 30
0.0
 41
10.0
 42
10.0
 43
10.0
  0
TEXT
  5
12C6
  8
SIZE
  6
CONTINUOUS
 62
     0
 10
-74.057142857142864
 20
-1012.493004975886
 30
0.0
 40
64.0
  1
840
 41
0.9
  0
POINT
  5
12C7
  8
DEFPOINTS
  6
CONTINUOUS
 62
     0
 10
-420.0
 20
-1180.668157808974
 30
0.0
  0
POINT
  5
12C8
  8
DEFPOINTS
  6
CONTINUOUS
 62
     0
 10
420.0
 20
-1180.668157808974
 30
0.0
  0
POINT
  5
12C9
  8
DEFPOINTS
  6
CONTINUOUS
 62
     0
 10
420.0
 20
-1032.4930049758859
 30
0.0
  0
ENDBLK
  5
12CA
  8
0
  0
BLOCK
  8
0
  2
*D10
 70
     1
 10
0.0
 20
0.0
 30
0.0
  3
*D10
  1

  0
LINE
  5
12CD
  8
SIZE
  6
CONTINUOUS
 62
     0
 10
-1325.3866894535561
 20
-1170.668157808974
 30
0.0
 11
-1836.871079740944
 21
-1170.668157808974
 31
0.0
  0
LINE
  5
12CE
  8
SIZE
  6
CONTINUOUS
 62
     0
 10
-1365.3866894535561
 20
-1468.6681578089731
 30
0.0
 11
-1836.871079740944
 21
-1468.6681578089731
 31
0.0
  0
LINE
  5
12CF
  8
SIZE
  6
CONTINUOUS
 62
     0
 10
-1806.871079740944
 20
-1180.668157808974
 30
0.0
 11
-1806.871079740944
 21
-1458.668157808974
 31
0.0
  0
INSERT
  5
12D0
  8
SIZE
  6
CONTINUOUS
 62
     0
  2
_ORIGIN
 10
-1806.871079740944
 20
-1170.668157808974
 30
0.0
 41
10.0
 42
10.0
 43
10.0
 50
90.0
  0
INSERT
  5
12D1
  8
SIZE
  6
CONTINUOUS
 62
     0
  2
_ORIGIN
 10
-1806.871079740944
 20
-1468.6681578089731
 30
0.0
 41
10.0
 42
10.0
 43
10.0
 50
270.0
  0
TEXT
  5
12D2
  8
SIZE
  6
CONTINUOUS
 62
     0
 10
-1826.8710797409431
 20
-1393.725300666116
 30
0.0
 40
64.0
  1
298
 50
90.0
 41
0.9
  0
POINT
  5
12D3
  8
DEFPOINTS
  6
CONTINUOUS
 62
     0
 10
-1305.3866894535561
 20
-1170.668157808974
 30
0.0
  0
POINT
  5
12D4
  8
DEFPOINTS
  6
CONTINUOUS
 62
     0
 10
-1345.3866894535561
 20
-1468.6681578089731
 30
0.0
  0
POINT
  5
12D5
  8
DEFPOINTS
  6
CONTINUOUS
 62
     0
 10
-1806.871079740944
 20
-1468.6681578089731
 30
0.0
  0
ENDBLK
  5
12D6
  8
0
  0
BLOCK
  8
0
  2
*D11
 70
     1
 10
0.0
 20
0.0
 30
0.0
  3
*D11
  1

  0
LINE
  5
12D9
  8
SIZE
  6
CONTINUOUS
 62
     0
 10
-20.0
 20
-0.0000000000000057
 30
0.0
 11
491.4843902873871
 21
-0.0000000000001506
 31
0.0
  0
LINE
  5
12DA
  8
SIZE
  6
CONTINUOUS
 62
     0
 10
20.0
 20
-298.0
 30
0.0
 11
491.4843902873871
 21
-298.0
 31
0.0
  0
LINE
  5
12DB
  8
SIZE
  6
CONTINUOUS
 62
     0
 10
461.4843902873871
 20
-10.00000000000013
 30
0.0
 11
461.4843902873871
 21
-288.0
 31
0.0
  0
INSERT
  5
12DC
  8
SIZE
  6
CONTINUOUS
 62
     0
  2
_ORIGIN
 10
461.4843902873871
 20
-0.0000000000001421
 30
0.0
 41
10.0
 42
10.0
 43
10.0
 50
90.0
  0
INSERT
  5
12DD
  8
SIZE
  6
CONTINUOUS
 62
     0
  2
_ORIGIN
 10
461.4843902873871
 20
-298.0
 30
0.0
 41
10.0
 42
10.0
 43
10.0
 50
270.0
  0
TEXT
  5
12DE
  8
0
 62
     0
 10
281.48399999999992
 20
-262.27999999999992
 30
0.0
 40
64.0
  1
298
  0
POINT
  5
12DF
  8
DEFPOINTS
  6
CONTINUOUS
 62
     0
 10
-40.0
 20
0.0
 30
0.0
  0
POINT
  5
12E0
  8
DEFPOINTS
  6
CONTINUOUS
 62
     0
 10
0.0
 20
-298.0
 30
0.0
  0
POINT
  5
12E1
  8
DEFPOINTS
  6
CONTINUOUS
 62
     0
 10
461.4843902873871
 20
-298.0
 30
0.0
  0
ENDBLK
  5
12E2
  8
0
  0
BLOCK
  8
0
  2
*D12
 70
     1
 10
0.0
 20
0.0
 30
0.0
  3
*D12
  1

  0
LINE
  5
12E5
  8
SIZE
  6
CONTINUOUS
 62
     0
 10
3646.9333408239891
 20
-1160.6681578089731
 30
0.0
 11
3646.9333408239891
 21
-964.67444707061622
 31
0.0
  0
LINE
  5
12E6
  8
SIZE
  6
CONTINUOUS
 62
     0
 10
4486.9333408239891
 20
-1160.6681578089731
 30
0.0
 11
4486.9333408239891
 21
-964.67444707061622
 31
0.0
  0
LINE
  5
12E7
  8
SIZE
  6
CONTINUOUS
 62
     0
 10
3656.9333408239891
 20
-994.674447070616
 30
0.0
 11
4476.9333408239891
 21
-994.674447070616
 31
0.0
  0
INSERT
  5
12E8
  8
SIZE
  6
CONTINUOUS
 62
     0
  2
_ORIGIN
 10
3646.9333408239891
 20
-994.674447070616
 30
0.0
 41
10.0
 42
10.0
 43
10.0
 50
180.0
  0
INSERT
  5
12E9
  8
SIZE
  6
CONTINUOUS
 62
     0
  2
_ORIGIN
 10
4486.9333408239891
 20
-994.674447070616
 30
0.0
 41
10.0
 42
10.0
 43
10.0
  0
TEXT
  5
12EA
  8
SIZE
  6
CONTINUOUS
 62
     0
 10
3992.8761979668461
 20
-974.67444707061588
 30
0.0
 40
64.0
  1
840
 41
0.9
  0
POINT
  5
12EB
  8
DEFPOINTS
  6
CONTINUOUS
 62
     0
 10
3646.9333408239891
 20
-1180.668157808974
 30
0.0
  0
POINT
  5
12EC
  8
DEFPOINTS
  6
CONTINUOUS
 62
     0
 10
4486.9333408239891
 20
-1180.668157808974
 30
0.0
  0
POINT
  5
12ED
  8
DEFPOINTS
  6
CONTINUOUS
 62
     0
 10
4486.9333408239891
 20
-994.674447070616
 30
0.0
  0
ENDBLK
  5
12EE
  8
0
  0
BLOCK
  8
0
  2
*D13
 70
     1
 10
0.0
 20
0.0
 30
0.0
  3
*D13
  1

  0
LINE
  5
12F1
  8
SIZE
  6
CONTINUOUS
 62
     0
 10
4496.9333408239881
 20
-1468.6681578089731
 30
0.0
 11
4843.3578462447331
 21
-1468.6681578089731
 31
0.0
  0
LINE
  5
12F2
  8
SIZE
  6
CONTINUOUS
 62
     0
 10
4496.9333408239881
 20
-1170.668157808974
 30
0.0
 11
4843.3578462447331
 21
-1170.668157808974
 31
0.0
  0
LINE
  5
12F3
  8
SIZE
  6
CONTINUOUS
 62
     0
 10
4813.3578462447331
 20
-1458.668157808974
 30
0.0
 11
4813.3578462447331
 21
-1180.668157808974
 31
0.0
  0
INSERT
  5
12F4
  8
SIZE
  6
CONTINUOUS
 62
     0
  2
_ORIGIN
 10
4813.3578462447331
 20
-1468.6681578089731
 30
0.0
 41
10.0
 42
10.0
 43
10.0
 50
270.0
  0
INSERT
  5
12F5
  8
SIZE
  6
CONTINUOUS
 62
     0
  2
_ORIGIN
 10
4813.3578462447331
 20
-1170.668157808974
 30
0.0
 41
10.0
 42
10.0
 43
10.0
 50
90.0
  0
TEXT
  5
12F6
  8
SIZE
  6
CONTINUOUS
 62
     0
 10
4793.3578462447331
 20
-1393.725300666116
 30
0.0
 40
64.0
  1
298
 50
90.0
 41
0.9
  0
POINT
  5
12F7
  8
DEFPOINTS
  6
CONTINUOUS
 62
     0
 10
4476.9333408239891
 20
-1468.6681578089731
 30
0.0
  0
POINT
  5
12F8
  8
DEFPOINTS
  6
CONTINUOUS
 62
     0
 10
4476.9333408239891
 20
-1170.668157808974
 30
0.0
  0
POINT
  5
12F9
  8
DEFPOINTS
  6
CONTINUOUS
 62
     0
 10
4813.3578462447331
 20
-1170.668157808974
 30
0.0
  0
ENDBLK
  5
12FA
  8
0
  0
BLOCK
  8
0
  2
*D14
 70
     1
 10
0.0
 20
0.0
 30
0.0
  3
*D14
  1

  0
LINE
  5
12FD
  8
SIZE
  6
CONTINUOUS
 62
     0
 10
4066.9333408239891
 20
-1524.573416190229
 30
0.0
 11
4066.9333408239891
 21
-1770.483104401475
 31
0.0
  0
LINE
  5
12FE
  8
SIZE
  6
CONTINUOUS
 62
     0
 10
3729.9333408239881
 20
-1466.668157808974
 30
0.0
 11
3729.9333408239881
 21
-1770.483104401475
 31
0.0
  0
LINE
  5
12FF
  8
SIZE
  6
CONTINUOUS
 62
     0
 10
4056.9333408239891
 20
-1740.483104401475
 30
0.0
 11
3739.9333408239891
 21
-1740.483104401475
 31
0.0
  0
INSERT
  5
1300
  8
SIZE
  6
CONTINUOUS
 62
     0
  2
_ORIGIN
 10
4066.9333408239891
 20
-1740.483104401475
 30
0.0
 41
10.0
 42
10.0
 43
10.0
  0
INSERT
  5
1301
  8
SIZE
  6
CONTINUOUS
 62
     0
  2
_ORIGIN
 10
3729.9333408239881
 20
-1740.483104401475
 30
0.0
 41
10.0
 42
10.0
 43
10.0
 50
180.0
  0
TEXT
  5
1302
  8
SIZE
  6
CONTINUOUS
 62
     0
 10
3824.3761979668461
 20
-1720.4831044014741
 30
0.0
 40
64.0
  1
337
 41
0.9
  0
POINT
  5
1303
  8
DEFPOINTS
  6
CONTINUOUS
 62
     0
 10
4066.9333408239891
 20
-1504.573416190229
 30
0.0
  0
POINT
  5
1304
  8
DEFPOINTS
  6
CONTINUOUS
 62
     0
 10
3729.9333408239881
 20
-1446.668157808974
 30
0.0
  0
POINT
  5
1305
  8
DEFPOINTS
  6
CONTINUOUS
 62
     0
 10
3729.9333408239881
 20
-1740.483104401475
 30
0.0
  0
ENDBLK
  5
1306
  8
0
  0
BLOCK
  8
0
  2
*D15
 70
     1
 10
0.0
 20
0.0
 30
0.0
  3
*D15
  1

  0
LINE
  5
1309
  8
SIZE
  6
CONTINUOUS
 62
     0
 10
4066.9333408239891
 20
-1524.573416190229
 30
0.0
 11
4066.9333408239891
 21
-1770.483104401475
 31
0.0
  0
LINE
  5
130A
  8
SIZE
  6
CONTINUOUS
 62
     0
 10
4418.9333408239891
 20
-1467.668157808974
 30
0.0
 11
4418.9333408239891
 21
-1770.483104401475
 31
0.0
  0
LINE
  5
130B
  8
SIZE
  6
CONTINUOUS
 62
     0
 10
4076.9333408239891
 20
-1740.483104401475
 30
0.0
 11
4408.9333408239872
 21
-1740.483104401475
 31
0.0
  0
INSERT
  5
130C
  8
SIZE
  6
CONTINUOUS
 62
     0
  2
_ORIGIN
 10
4066.9333408239891
 20
-1740.483104401475
 30
0.0
 41
10.0
 42
10.0
 43
10.0
 50
180.0
  0
INSERT
  5
130D
  8
SIZE
  6
CONTINUOUS
 62
     0
  2
_ORIGIN
 10
4418.9333408239891
 20
-1740.483104401475
 30
0.0
 41
10.0
 42
10.0
 43
10.0
  0
TEXT
  5
130E
  8
SIZE
  6
CONTINUOUS
 62
     0
 10
4168.8761979668461
 20
-1720.4831044014741
 30
0.0
 40
64.0
  1
352
 41
0.9
  0
POINT
  5
130F
  8
DEFPOINTS
  6
CONTINUOUS
 62
     0
 10
4066.9333408239891
 20
-1504.573416190229
 30
0.0
  0
POINT
  5
1310
  8
DEFPOINTS
  6
CONTINUOUS
 62
     0
 10
4418.9333408239891
 20
-1447.668157808974
 30
0.0
  0
POINT
  5
1311
  8
DEFPOINTS
  6
CONTINUOUS
 62
     0
 10
4418.9333408239891
 20
-1740.483104401475
 30
0.0
  0
ENDBLK
  5
1312
  8
0
  0
BLOCK
  8
0
  2
*D16
 70
     1
 10
0.0
 20
0.0
 30
0.0
  3
*D16
  1

  0
LINE
  5
1315
  8
SIZE
  6
CONTINUOUS
 62
     0
 10
-420.0
 20
-2717.387437050596
 30
0.0
 11
-420.0
 21
-2973.7524145030452
 31
0.0
  0
LINE
  5
1316
  8
SIZE
  6
CONTINUOUS
 62
     0
 10
420.0
 20
-2717.387437050596
 30
0.0
 11
420.0
 21
-2973.7524145030452
 31
0.0
  0
LINE
  5
1317
  8
SIZE
  6
CONTINUOUS
 62
     0
 10
-410.0
 20
-2943.7524145030461
 30
0.0
 11
410.0
 21
-2943.7524145030461
 31
0.0
  0
INSERT
  5
1318
  8
SIZE
  6
CONTINUOUS
 62
     0
  2
_ORIGIN
 10
-420.0
 20
-2943.7524145030461
 30
0.0
 41
10.0
 42
10.0
 43
10.0
 50
180.0
  0
INSERT
  5
1319
  8
SIZE
  6
CONTINUOUS
 62
     0
  2
_ORIGIN
 10
420.0
 20
-2943.7524145030461
 30
0.0
 41
10.0
 42
10.0
 43
10.0
  0
TEXT
  5
131A
  8
SIZE
  6
CONTINUOUS
 62
     0
 10
-74.057142857142864
 20
-2923.7524145030452
 30
0.0
 40
64.0
  1
840
 41
0.9
  0
POINT
  5
131B
  8
DEFPOINTS
  6
CONTINUOUS
 62
     0
 10
-420.0
 20
-2697.387437050596
 30
0.0
  0
POINT
  5
131C
  8
DEFPOINTS
  6
CONTINUOUS
 62
     0
 10
420.0
 20
-2697.387437050596
 30
0.0
  0
POINT
  5
131D
  8
DEFPOINTS
  6
CONTINUOUS
 62
     0
 10
420.0
 20
-2943.7524145030461
 30
0.0
  0
ENDBLK
  5
131E
  8
0
  0
BLOCK
  8
0
  2
*D17
 70
     1
 10
0.0
 20
0.0
 30
0.0
  3
*D17
  1

  0
LINE
  5
1321
  8
SIZE
  6
CONTINUOUS
 62
     0
 10
0.0000000000000012
 20
-2392.5947070505958
 30
0.0
 11
0.0000000000000138
 21
-2186.7197330398312
 31
0.0
  0
LINE
  5
1322
  8
SIZE
  6
CONTINUOUS
 62
     0
 10
-352.0
 20
-2424.387437050596
 30
0.0
 11
-352.0
 21
-2186.7197330398312
 31
0.0
  0
LINE
  5
1323
  8
SIZE
  6
CONTINUOUS
 62
     0
 10
-9.9999999999999876
 20
-2216.7197330398312
 30
0.0
 11
-342.0
 21
-2216.7197330398312
 31
0.0
  0
INSERT
  5
1324
  8
SIZE
  6
CONTINUOUS
 62
     0
  2
_ORIGIN
 10
0.000000000000012
 20
-2216.7197330398312
 30
0.0
 41
10.0
 42
10.0
 43
10.0
  0
INSERT
  5
1325
  8
SIZE
  6
CONTINUOUS
 62
     0
  2
_ORIGIN
 10
-352.0
 20
-2216.7197330398312
 30
0.0
 41
10.0
 42
10.0
 43
10.0
 50
180.0
  0
TEXT
  5
1326
  8
SIZE
  6
CONTINUOUS
 62
     0
 10
-250.05714285714279
 20
-2196.7197330398312
 30
0.0
 40
64.0
  1
352
 41
0.9
  0
POINT
  5
1327
  8
DEFPOINTS
  6
CONTINUOUS
 62
     0
 10
0.0
 20
-2412.5947070505958
 30
0.0
  0
POINT
  5
1328
  8
DEFPOINTS
  6
CONTINUOUS
 62
     0
 10
-352.0
 20
-2444.387437050596
 30
0.0
  0
POINT
  5
1329
  8
DEFPOINTS
  6
CONTINUOUS
 62
     0
 10
-352.0
 20
-2216.7197330398312
 30
0.0
  0
ENDBLK
  5
132A
  8
0
  0
BLOCK
  8
0
  2
*D18
 70
     1
 10
0.0
 20
0.0
 30
0.0
  3
*D18
  1

  0
LINE
  5
132D
  8
SIZE
  6
CONTINUOUS
 62
     0
 10
0.0000000000000012
 20
-2392.5947070505958
 30
0.0
 11
0.0000000000000138
 21
-2186.7197330398312
 31
0.0
  0
LINE
  5
132E
  8
SIZE
  6
CONTINUOUS
 62
     0
 10
337.0
 20
-2424.387437050596
 30
0.0
 11
337.0
 21
-2186.7197330398312
 31
0.0
  0
LINE
  5
132F
  8
SIZE
  6
CONTINUOUS
 62
     0
 10
10.000000000000011
 20
-2216.7197330398312
 30
0.0
 11
327.0
 21
-2216.7197330398312
 31
0.0
  0
INSERT
  5
1330
  8
SIZE
  6
CONTINUOUS
 62
     0
  2
_ORIGIN
 10
0.000000000000012
 20
-2216.7197330398312
 30
0.0
 41
10.0
 42
10.0
 43
10.0
 50
180.0
  0
INSERT
  5
1331
  8
SIZE
  6
CONTINUOUS
 62
     0
  2
_ORIGIN
 10
337.0
 20
-2216.7197330398312
 30
0.0
 41
10.0
 42
10.0
 43
10.0
  0
TEXT
  5
1332
  8
SIZE
  6
CONTINUOUS
 62
     0
 10
94.442857142857136
 20
-2196.7197330398312
 30
0.0
 40
64.0
  1
337
 41
0.9
  0
POINT
  5
1333
  8
DEFPOINTS
  6
CONTINUOUS
 62
     0
 10
0.0
 20
-2412.5947070505958
 30
0.0
  0
POINT
  5
1334
  8
DEFPOINTS
  6
CONTINUOUS
 62
     0
 10
337.0
 20
-2444.387437050596
 30
0.0
  0
POINT
  5
1335
  8
DEFPOINTS
  6
CONTINUOUS
 62
     0
 10
337.0
 20
-2216.7197330398312
 30
0.0
  0
ENDBLK
  5
1336
  8
0
  0
BLOCK
  8
0
  2
*D19
 70
     1
 10
0.0
 20
0.0
 30
0.0
  3
*D19
  1

  0
LINE
  5
1339
  8
SIZE
  6
CONTINUOUS
 62
     0
 10
-352.0
 20
-2424.387437050596
 30
0.0
 11
-352.0
 21
-2186.7197330398312
 31
0.0
  0
LINE
  5
133A
  8
SIZE
  6
CONTINUOUS
 62
     0
 10
-420.0
 20
-2494.1958027292148
 30
0.0
 11
-420.0
 21
-2186.7197330398312
 31
0.0
  0
LINE
  5
133B
  8
SIZE
  6
CONTINUOUS
 62
     0
 10
-342.0
 20
-2216.7197330398312
 30
0.0
 11
-332.0
 21
-2216.7197330398312
 31
0.0
  0
LINE
  5
133C
  8
SIZE
  6
CONTINUOUS
 62
     0
 10
-430.0
 20
-2216.7197330398312
 30
0.0
 11
-573.25714285714275
 21
-2216.7197330398312
 31
0.0
  0
LINE
  5
133D
  8
SIZE
  6
CONTINUOUS
 62
     0
 10
-352.0
 20
-2216.7197330398312
 30
0.0
 11
-420.0
 21
-2216.7197330398312
 31
0.0
  0
INSERT
  5
133E
  8
SIZE
  6
CONTINUOUS
 62
     0
  2
_ORIGIN
 10
-352.0
 20
-2216.7197330398312
 30
0.0
 41
10.0
 42
10.0
 43
10.0
 50
180.0
  0
INSERT
  5
133F
  8
SIZE
  6
CONTINUOUS
 62
     0
  2
_ORIGIN
 10
-420.0
 20
-2216.7197330398312
 30
0.0
 41
10.0
 42
10.0
 43
10.0
  0
TEXT
  5
1340
  8
SIZE
  6
CONTINUOUS
 62
     0
 10
-553.25714285714275
 20
-2196.7197330398312
 30
0.0
 40
64.0
  1
68
 41
0.9
  0
POINT
  5
1341
  8
DEFPOINTS
  6
CONTINUOUS
 62
     0
 10
-352.0
 20
-2444.387437050596
 30
0.0
  0
POINT
  5
1342
  8
DEFPOINTS
  6
CONTINUOUS
 62
     0
 10
-420.0
 20
-2514.1958027292148
 30
0.0
  0
POINT
  5
1343
  8
DEFPOINTS
  6
CONTINUOUS
 62
     0
 10
-420.0
 20
-2216.7197330398312
 30
0.0
  0
ENDBLK
  5
1344
  8
0
  0
BLOCK
  8
0
  2
*D20
 70
     1
 10
0.0
 20
0.0
 30
0.0
  3
*D20
  1

  0
LINE
  5
1347
  8
SIZE
  6
CONTINUOUS
 62
     0
 10
337.0
 20
-2424.387437050596
 30
0.0
 11
337.0
 21
-2186.7197330398312
 31
0.0
  0
LINE
  5
1348
  8
SIZE
  6
CONTINUOUS
 62
     0
 10
420.0
 20
-2494.1958027292148
 30
0.0
 11
420.0
 21
-2186.7197330398312
 31
0.0
  0
LINE
  5
1349
  8
SIZE
  6
CONTINUOUS
 62
     0
 10
327.0
 20
-2216.7197330398312
 30
0.0
 11
317.0
 21
-2216.7197330398312
 31
0.0
  0
LINE
  5
134A
  8
SIZE
  6
CONTINUOUS
 62
     0
 10
430.0
 20
-2216.7197330398312
 30
0.0
 11
573.25714285714287
 21
-2216.7197330398312
 31
0.0
  0
LINE
  5
134B
  8
SIZE
  6
CONTINUOUS
 62
     0
 10
337.0
 20
-2216.7197330398312
 30
0.0
 11
420.0
 21
-2216.7197330398312
 31
0.0
  0
INSERT
  5
134C
  8
SIZE
  6
CONTINUOUS
 62
     0
  2
_ORIGIN
 10
337.0
 20
-2216.7197330398312
 30
0.0
 41
10.0
 42
10.0
 43
10.0
  0
INSERT
  5
134D
  8
SIZE
  6
CONTINUOUS
 62
     0
  2
_ORIGIN
 10
420.0
 20
-2216.7197330398312
 30
0.0
 41
10.0
 42
10.0
 43
10.0
 50
180.0
  0
TEXT
  5
134E
  8
SIZE
  6
CONTINUOUS
 62
     0
 10
460.0
 20
-2196.7197330398312
 30
0.0
 40
64.0
  1
83
 41
0.9
  0
POINT
  5
134F
  8
DEFPOINTS
  6
CONTINUOUS
 62
     0
 10
337.0
 20
-2444.387437050596
 30
0.0
  0
POINT
  5
1350
  8
DEFPOINTS
  6
CONTINUOUS
 62
     0
 10
420.0
 20
-2514.1958027292148
 30
0.0
  0
POINT
  5
1351
  8
DEFPOINTS
  6
CONTINUOUS
 62
     0
 10
420.0
 20
-2216.7197330398312
 30
0.0
  0
ENDBLK
  5
1352
  8
0
  0
BLOCK
  8
0
  2
*D21
 70
     1
 10
0.0
 20
0.0
 30
0.0
  3
*D21
  1

  0
LINE
  5
1355
  8
SIZE
  6
CONTINUOUS
 62
     0
 10
3729.9333408239881
 20
-1466.668157808974
 30
0.0
 11
3729.9333408239881
 21
-1770.483104401475
 31
0.0
  0
LINE
  5
1356
  8
SIZE
  6
CONTINUOUS
 62
     0
 10
3646.9333408239891
 20
-1478.668157808974
 30
0.0
 11
3646.9333408239891
 21
-1770.483104401475
 31
0.0
  0
LINE
  5
1357
  8
SIZE
  6
CONTINUOUS
 62
     0
 10
3739.9333408239891
 20
-1740.483104401475
 30
0.0
 11
3749.9333408239891
 21
-1740.483104401475
 31
0.0
  0
LINE
  5
1358
  8
SIZE
  6
CONTINUOUS
 62
     0
 10
3636.9333408239891
 20
-1740.483104401475
 30
0.0
 11
3493.6761979668458
 21
-1740.483104401475
 31
0.0
  0
LINE
  5
1359
  8
SIZE
  6
CONTINUOUS
 62
     0
 10
3729.9333408239881
 20
-1740.483104401475
 30
0.0
 11
3646.9333408239891
 21
-1740.483104401475
 31
0.0
  0
INSERT
  5
135A
  8
SIZE
  6
CONTINUOUS
 62
     0
  2
_ORIGIN
 10
3729.9333408239881
 20
-1740.483104401475
 30
0.0
 41
10.0
 42
10.0
 43
10.0
 50
180.0
  0
INSERT
  5
135B
  8
SIZE
  6
CONTINUOUS
 62
     0
  2
_ORIGIN
 10
3646.9333408239891
 20
-1740.483104401475
 30
0.0
 41
10.0
 42
10.0
 43
10.0
  0
TEXT
  5
135C
  8
SIZE
  6
CONTINUOUS
 62
     0
 10
3513.676197966844
 20
-1720.4831044014741
 30
0.0
 40
64.0
  1
83
 41
0.9
  0
POINT
  5
135D
  8
DEFPOINTS
  6
CONTINUOUS
 62
     0
 10
3729.9333408239881
 20
-1446.668157808974
 30
0.0
  0
POINT
  5
135E
  8
DEFPOINTS
  6
CONTINUOUS
 62
     0
 10
3646.9333408239891
 20
-1458.668157808974
 30
0.0
  0
POINT
  5
135F
  8
DEFPOINTS
  6
CONTINUOUS
 62
     0
 10
3646.9333408239891
 20
-1740.483104401475
 30
0.0
  0
ENDBLK
  5
1360
  8
0
  0
BLOCK
  8
0
  2
*D22
 70
     1
 10
0.0
 20
0.0
 30
0.0
  3
*D22
  1

  0
LINE
  5
1363
  8
SIZE
  6
CONTINUOUS
 62
     0
 10
4418.9333408239891
 20
-1467.668157808974
 30
0.0
 11
4418.9333408239891
 21
-1770.483104401475
 31
0.0
  0
LINE
  5
1364
  8
SIZE
  6
CONTINUOUS
 62
     0
 10
4486.9333408239891
 20
-1478.668157808974
 30
0.0
 11
4486.9333408239891
 21
-1770.483104401475
 31
0.0
  0
LINE
  5
1365
  8
SIZE
  6
CONTINUOUS
 62
     0
 10
4408.9333408239872
 20
-1740.483104401475
 30
0.0
 11
4398.9333408239891
 21
-1740.483104401475
 31
0.0
  0
LINE
  5
1366
  8
SIZE
  6
CONTINUOUS
 62
     0
 10
4496.9333408239881
 20
-1740.483104401475
 30
0.0
 11
4640.1904836811318
 21
-1740.483104401475
 31
0.0
  0
LINE
  5
1367
  8
SIZE
  6
CONTINUOUS
 62
     0
 10
4418.9333408239891
 20
-1740.483104401475
 30
0.0
 11
4486.9333408239891
 21
-1740.483104401475
 31
0.0
  0
INSERT
  5
1368
  8
SIZE
  6
CONTINUOUS
 62
     0
  2
_ORIGIN
 10
4418.9333408239891
 20
-1740.483104401475
 30
0.0
 41
10.0
 42
10.0
 43
10.0
  0
INSERT
  5
1369
  8
SIZE
  6
CONTINUOUS
 62
     0
  2
_ORIGIN
 10
4486.9333408239891
 20
-1740.483104401475
 30
0.0
 41
10.0
 42
10.0
 43
10.0
 50
180.0
  0
TEXT
  5
136A
  8
SIZE
  6
CONTINUOUS
 62
     0
 10
4526.93334082399
 20
-1720.4831044014741
 30
0.0
 40
64.0
  1
68
 41
0.9
  0
POINT
  5
136B
  8
DEFPOINTS
  6
CONTINUOUS
 62
     0
 10
4418.9333408239891
 20
-1447.668157808974
 30
0.0
  0
POINT
  5
136C
  8
DEFPOINTS
  6
CONTINUOUS
 62
     0
 10
4486.9333408239891
 20
-1458.668157808974
 30
0.0
  0
POINT
  5
136D
  8
DEFPOINTS
  6
CONTINUOUS
 62
     0
 10
4486.9333408239891
 20
-1740.483104401475
 30
0.0
  0
ENDBLK
  5
136E
  8
0
  0
BLOCK
  8
0
  2
*D23
 70
     1
 10
0.0
 20
0.0
 30
0.0
  3
*D23
  1

  0
LINE
  5
1371
  8
SIZE
  6
CONTINUOUS
 62
     0
 10
-1345.3866894535561
 20
-1175.668157808974
 30
0.0
 11
-1345.3866894535561
 21
-996.99184137468546
 31
0.0
  0
LINE
  5
1372
  8
SIZE
  6
CONTINUOUS
 62
     0
 10
-1091.9086184966011
 20
-1253.616439730102
 30
0.0
 11
-1091.9086184966011
 21
-996.99184137468546
 31
0.0
  0
LINE
  5
1373
  8
SIZE
  6
CONTINUOUS
 62
     0
 10
-1335.3866894535561
 20
-1026.991841374685
 30
0.0
 11
-1101.9086184966011
 21
-1026.991841374685
 31
0.0
  0
INSERT
  5
1374
  8
SIZE
  6
CONTINUOUS
 62
     0
  2
_ORIGIN
 10
-1345.3866894535561
 20
-1026.991841374685
 30
0.0
 41
10.0
 42
10.0
 43
10.0
 50
180.0
  0
INSERT
  5
1375
  8
SIZE
  6
CONTINUOUS
 62
     0
  2
_ORIGIN
 10
-1091.9086184966011
 20
-1026.991841374685
 30
0.0
 41
10.0
 42
10.0
 43
10.0
  0
TEXT
  5
1376
  8
SIZE
  6
CONTINUOUS
 62
     0
 10
-1290.321015127299
 20
-1006.991841374685
 30
0.0
 40
64.0
  1
253
 41
0.9
  0
POINT
  5
1377
  8
DEFPOINTS
  6
CONTINUOUS
 62
     0
 10
-1345.3866894535561
 20
-1195.668157808974
 30
0.0
  0
POINT
  5
1378
  8
DEFPOINTS
  6
CONTINUOUS
 62
     0
 10
-1091.9086184966011
 20
-1273.616439730102
 30
0.0
  0
POINT
  5
1379
  8
DEFPOINTS
  6
CONTINUOUS
 62
     0
 10
-1091.9086184966011
 20
-1026.991841374685
 30
0.0
  0
ENDBLK
  5
137A
  8
0
  0
BLOCK
  8
0
  2
*D24
 70
     1
 10
0.0
 20
0.0
 30
0.0
  3
*D24
  1

  0
LINE
  5
137D
  8
SIZE
  6
CONTINUOUS
 62
     0
 10
-434.25
 20
0.0000000000000057
 30
0.0
 11
-580.75593806697725
 21
0.0000000000000472
 31
0.0
  0
LINE
  5
137E
  8
SIZE
  6
CONTINUOUS
 62
     0
 10
-420.0
 20
-253.0
 30
0.0
 11
-580.75593806697725
 21
-252.9999999999998
 31
0.0
  0
LINE
  5
137F
  8
SIZE
  6
CONTINUOUS
 62
     0
 10
-550.75593806697725
 20
-9.9999999999999591
 30
0.0
 11
-550.75593806697725
 21
-242.99999999999969
 31
0.0
  0
INSERT
  5
1380
  8
SIZE
  6
CONTINUOUS
 62
     0
  2
_ORIGIN
 10
-550.75593806697725
 20
0.0000000000000387
 30
0.0
 41
10.0
 42
10.0
 43
10.0
 50
90.0
  0
INSERT
  5
1381
  8
SIZE
  6
CONTINUOUS
 62
     0
  2
_ORIGIN
 10
-550.75593806697725
 20
-252.9999999999998
 30
0.0
 41
10.0
 42
10.0
 43
10.0
 50
270.0
  0
TEXT
  5
1382
  8
SIZE
  6
CONTINUOUS
 62
     0
 10
-570.75593806697725
 20
-191.29336733932439
 30
0.0
 40
64.0
  1
253
 50
90.0
 41
0.9
  0
POINT
  5
1383
  8
DEFPOINTS
  6
CONTINUOUS
 62
     0
 10
-414.25
 20
0.0
 30
0.0
  0
POINT
  5
1384
  8
DEFPOINTS
  6
CONTINUOUS
 62
     0
 10
-400.0
 20
-253.0
 30
0.0
  0
POINT
  5
1385
  8
DEFPOINTS
  6
CONTINUOUS
 62
     0
 10
-550.75593806697725
 20
-252.9999999999998
 30
0.0
  0
ENDBLK
  5
1386
  8
0
  0
BLOCK
  8
0
  2
*D25
 70
     1
 10
0.0
 20
0.0
 30
0.0
  3
*D25
  1

  0
LINE
  5
1389
  8
SIZE
  6
CONTINUOUS
 62
     0
 10
-434.25
 20
-2464.387437050596
 30
0.0
 11
-580.32075463927686
 21
-2464.387437050596
 31
0.0
  0
LINE
  5
138A
  8
SIZE
  6
CONTINUOUS
 62
     0
 10
-420.0
 20
-2717.387437050596
 30
0.0
 11
-580.32075463927686
 21
-2717.387437050596
 31
0.0
  0
LINE
  5
138B
  8
SIZE
  6
CONTINUOUS
 62
     0
 10
-550.32075463927686
 20
-2474.387437050596
 30
0.0
 11
-550.32075463927686
 21
-2707.387437050596
 31
0.0
  0
INSERT
  5
138C
  8
SIZE
  6
CONTINUOUS
 62
     0
  2
_ORIGIN
 10
-550.32075463927686
 20
-2464.387437050596
 30
0.0
 41
10.0
 42
10.0
 43
10.0
 50
90.0
  0
INSERT
  5
138D
  8
SIZE
  6
CONTINUOUS
 62
     0
  2
_ORIGIN
 10
-550.32075463927686
 20
-2717.387437050596
 30
0.0
 41
10.0
 42
10.0
 43
10.0
 50
270.0
  0
TEXT
  5
138E
  8
SIZE
  6
CONTINUOUS
 62
     0
 10
-570.32075463927617
 20
-2664.9445799077389
 30
0.0
 40
64.0
  1
253
 50
90.0
 41
0.9
  0
POINT
  5
138F
  8
DEFPOINTS
  6
CONTINUOUS
 62
     0
 10
-414.25
 20
-2464.387437050596
 30
0.0
  0
POINT
  5
1390
  8
DEFPOINTS
  6
CONTINUOUS
 62
     0
 10
-400.0
 20
-2717.387437050596
 30
0.0
  0
POINT
  5
1391
  8
DEFPOINTS
  6
CONTINUOUS
 62
     0
 10
-550.32075463927686
 20
-2717.387437050596
 30
0.0
  0
ENDBLK
  5
1392
  8
0
  0
BLOCK
  8
0
  2
*D26
 70
     1
 10
0.0
 20
0.0
 30
0.0
  3
*D26
  1

  0
LINE
  5
1395
  8
SIZE
  6
CONTINUOUS
 62
     0
 10
0.0000000000000012
 20
-5.0
 30
0.0
 11
0.0000000000000102
 21
142.2596348969202
 31
0.0
  0
LINE
  5
1396
  8
SIZE
  6
CONTINUOUS
 62
     0
 10
-253.47807095695481
 20
-82.948281921129364
 30
0.0
 11
-253.47807095695481
 21
142.2596348969202
 31
0.0
  0
LINE
  5
1397
  8
SIZE
  6
CONTINUOUS
 62
     0
 10
-9.9999999999999911
 20
112.2596348969205
 30
0.0
 11
-243.4780709569547
 21
112.2596348969205
 31
0.0
  0
INSERT
  5
1398
  8
SIZE
  6
CONTINUOUS
 62
     0
  2
_ORIGIN
 10
0.0000000000000084
 20
112.2596348969205
 30
0.0
 41
10.0
 42
10.0
 43
10.0
  0
INSERT
  5
1399
  8
SIZE
  6
CONTINUOUS
 62
     0
  2
_ORIGIN
 10
-253.47807095695481
 20
112.2596348969205
 30
0.0
 41
10.0
 42
10.0
 43
10.0
 50
180.0
  0
TEXT
  5
139A
  8
0
 62
     0
 10
-254.739
 20
50.979599999999998
 30
0.0
 40
64.0
  1
253
  0
POINT
  5
139B
  8
DEFPOINTS
  6
CONTINUOUS
 62
     0
 10
0.0
 20
-25.0
 30
0.0
  0
POINT
  5
139C
  8
DEFPOINTS
  6
CONTINUOUS
 62
     0
 10
-253.47807095695481
 20
-102.94828192112919
 30
0.0
  0
POINT
  5
139D
  8
DEFPOINTS
  6
CONTINUOUS
 62
     0
 10
-253.47807095695481
 20
112.2596348969205
 30
0.0
  0
ENDBLK
  5
139E
  8
0
  0
BLOCK
  8
0
  2
*D27
 70
     1
 10
0.0
 20
0.0
 30
0.0
  3
*D27
  1

  0
LINE
  5
13A1
  8
SIZE
  6
CONTINUOUS
 62
     0
 10
-417.49999999999989
 20
20.0
 30
0.0
 11
-417.49999999999989
 21
404.33789383212928
 31
0.0
  0
LINE
  5
13A2
  8
SIZE
  6
CONTINUOUS
 62
     0
 10
417.49999999999989
 20
20.0
 30
0.0
 11
417.49999999999989
 21
404.33789383212928
 31
0.0
  0
LINE
  5
13A3
  8
SIZE
  6
CONTINUOUS
 62
     0
 10
-407.5
 20
374.33789383212923
 30
0.0
 11
407.5
 21
374.33789383212923
 31
0.0
  0
INSERT
  5
13A4
  8
SIZE
  6
CONTINUOUS
 62
     0
  2
_ORIGIN
 10
-417.49999999999989
 20
374.33789383212923
 30
0.0
 41
10.0
 42
10.0
 43
10.0
 50
180.0
  0
INSERT
  5
13A5
  8
SIZE
  6
CONTINUOUS
 62
     0
  2
_ORIGIN
 10
417.49999999999989
 20
374.33789383212923
 30
0.0
 41
10.0
 42
10.0
 43
10.0
  0
TEXT
  5
13A6
  8
SIZE
  6
CONTINUOUS
 62
     0
 10
-74.057142857142836
 20
394.33789383212923
 30
0.0
 40
64.0
  1
835
 41
0.9
  0
POINT
  5
13A7
  8
DEFPOINTS
  6
CONTINUOUS
 62
     0
 10
-417.49999999999989
 20
0.0
 30
0.0
  0
POINT
  5
13A8
  8
DEFPOINTS
  6
CONTINUOUS
 62
     0
 10
417.49999999999989
 20
0.0
 30
0.0
  0
POINT
  5
13A9
  8
DEFPOINTS
  6
CONTINUOUS
 62
     0
 10
417.49999999999989
 20
374.33789383212923
 30
0.0
  0
ENDBLK
  5
13AA
  8
0
  0
BLOCK
  8
0
  2
*D28
 70
     1
 10
0.0
 20
0.0
 30
0.0
  3
*D28
  1

  0
LINE
  5
13AD
  8
SIZE
  6
CONTINUOUS
 62
     0
 10
-417.49999999999989
 20
-2444.387437050596
 30
0.0
 11
-417.49999999999989
 21
-2060.0495432184671
 31
0.0
  0
LINE
  5
13AE
  8
SIZE
  6
CONTINUOUS
 62
     0
 10
417.49999999999989
 20
-2444.387437050596
 30
0.0
 11
417.49999999999989
 21
-2060.0495432184671
 31
0.0
  0
LINE
  5
13AF
  8
SIZE
  6
CONTINUOUS
 62
     0
 10
-407.5
 20
-2090.0495432184671
 30
0.0
 11
407.5
 21
-2090.0495432184671
 31
0.0
  0
INSERT
  5
13B0
  8
SIZE
  6
CONTINUOUS
 62
     0
  2
_ORIGIN
 10
-417.49999999999989
 20
-2090.0495432184671
 30
0.0
 41
10.0
 42
10.0
 43
10.0
 50
180.0
  0
INSERT
  5
13B1
  8
SIZE
  6
CONTINUOUS
 62
     0
  2
_ORIGIN
 10
417.49999999999989
 20
-2090.0495432184671
 30
0.0
 41
10.0
 42
10.0
 43
10.0
  0
TEXT
  5
13B2
  8
SIZE
  6
CONTINUOUS
 62
     0
 10
-74.057142857142836
 20
-2070.0495432184671
 30
0.0
 40
64.0
  1
835
 41
0.9
  0
POINT
  5
13B3
  8
DEFPOINTS
  6
CONTINUOUS
 62
     0
 10
-417.49999999999989
 20
-2464.387437050596
 30
0.0
  0
POINT
  5
13B4
  8
DEFPOINTS
  6
CONTINUOUS
 62
     0
 10
417.49999999999989
 20
-2464.387437050596
 30
0.0
  0
POINT
  5
13B5
  8
DEFPOINTS
  6
CONTINUOUS
 62
     0
 10
417.49999999999989
 20
-2090.0495432184671
 30
0.0
  0
ENDBLK
  5
13B6
  8
0
  0
BLOCK
  8
0
  2
*D29
 70
     1
 10
0.0
 20
0.0
 30
0.0
  3
*D29
  1

  0
LINE
  5
13B9
  8
SIZE
  6
CONTINUOUS
 62
     0
 10
3636.9333408239891
 20
-1468.6681578089731
 30
0.0
 11
3492.2819173781322
 21
-1468.6681578089731
 31
0.0
  0
LINE
  5
13BA
  8
SIZE
  6
CONTINUOUS
 62
     0
 10
3689.9333408239891
 20
-1426.168157808974
 30
0.0
 11
3492.2819173781322
 21
-1426.168157808974
 31
0.0
  0
LINE
  5
13BB
  8
SIZE
  6
CONTINUOUS
 62
     0
 10
3522.2819173781322
 20
-1478.668157808974
 30
0.0
 11
3522.2819173781322
 21
-1488.668157808974
 31
0.0
  0
LINE
  5
13BC
  8
SIZE
  6
CONTINUOUS
 62
     0
 10
3522.2819173781322
 20
-1416.168157808974
 30
0.0
 11
3522.2819173781322
 21
-1190.6253006661159
 31
0.0
  0
LINE
  5
13BD
  8
SIZE
  6
CONTINUOUS
 62
     0
 10
3522.2819173781322
 20
-1468.6681578089731
 30
0.0
 11
3522.2819173781322
 21
-1426.168157808974
 31
0.0
  0
INSERT
  5
13BE
  8
SIZE
  6
CONTINUOUS
 62
     0
  2
_ORIGIN
 10
3522.2819173781322
 20
-1468.6681578089731
 30
0.0
 41
10.0
 42
10.0
 43
10.0
 50
90.0
  0
INSERT
  5
13BF
  8
SIZE
  6
CONTINUOUS
 62
     0
  2
_ORIGIN
 10
3522.2819173781322
 20
-1426.168157808974
 30
0.0
 41
10.0
 42
10.0
 43
10.0
 50
270.0
  0
TEXT
  5
13C0
  8
SIZE
  6
CONTINUOUS
 62
     0
 10
3502.2819173781322
 20
-1386.1681578089731
 30
0.0
 40
64.0
  1
42.5
 50
90.0
 41
0.9
  0
POINT
  5
13C1
  8
DEFPOINTS
  6
CONTINUOUS
 62
     0
 10
3656.9333408239891
 20
-1468.6681578089731
 30
0.0
  0
POINT
  5
13C2
  8
DEFPOINTS
  6
CONTINUOUS
 62
     0
 10
3709.9333408239891
 20
-1426.168157808974
 30
0.0
  0
POINT
  5
13C3
  8
DEFPOINTS
  6
CONTINUOUS
 62
     0
 10
3522.2819173781322
 20
-1426.168157808974
 30
0.0
  0
ENDBLK
  5
13C4
  8
0
  0
BLOCK
  8
0
  2
*D30
 70
     1
 10
0.0
 20
0.0
 30
0.0
  3
*D30
  1

  0
LINE
  5
13C7
  8
SIZE
  6
CONTINUOUS
 62
     0
 10
4496.9333408239881
 20
-1468.6681578089731
 30
0.0
 11
4693.1275807268466
 21
-1468.6681578089731
 31
0.0
  0
LINE
  5
13C8
  8
SIZE
  6
CONTINUOUS
 62
     0
 10
4458.9333408239881
 20
-1427.168157808974
 30
0.0
 11
4693.1275807268466
 21
-1427.168157808974
 31
0.0
  0
LINE
  5
13C9
  8
SIZE
  6
CONTINUOUS
 62
     0
 10
4663.1275807268457
 20
-1478.668157808974
 30
0.0
 11
4663.1275807268457
 21
-1488.668157808974
 31
0.0
  0
LINE
  5
13CA
  8
SIZE
  6
CONTINUOUS
 62
     0
 10
4663.1275807268457
 20
-1417.168157808974
 30
0.0
 11
4663.1275807268457
 21
-1202.596729237546
 31
0.0
  0
LINE
  5
13CB
  8
SIZE
  6
CONTINUOUS
 62
     0
 10
4663.1275807268457
 20
-1468.6681578089731
 30
0.0
 11
4663.1275807268457
 21
-1427.168157808974
 31
0.0
  0
INSERT
  5
13CC
  8
SIZE
  6
CONTINUOUS
 62
     0
  2
_ORIGIN
 10
4663.1275807268457
 20
-1468.6681578089731
 30
0.0
 41
10.0
 42
10.0
 43
10.0
 50
90.0
  0
INSERT
  5
13CD
  8
SIZE
  6
CONTINUOUS
 62
     0
  2
_ORIGIN
 10
4663.1275807268457
 20
-1427.168157808974
 30
0.0
 41
10.0
 42
10.0
 43
10.0
 50
270.0
  0
TEXT
  5
13CE
  8
SIZE
  6
CONTINUOUS
 62
     0
 10
4643.1275807268448
 20
-1387.1681578089731
 30
0.0
 40
64.0
  1
41.5
 50
90.0
 41
0.9
  0
POINT
  5
13CF
  8
DEFPOINTS
  6
CONTINUOUS
 62
     0
 10
4476.9333408239891
 20
-1468.6681578089731
 30
0.0
  0
POINT
  5
13D0
  8
DEFPOINTS
  6
CONTINUOUS
 62
     0
 10
4438.9333408239891
 20
-1427.168157808974
 30
0.0
  0
POINT
  5
13D1
  8
DEFPOINTS
  6
CONTINUOUS
 62
     0
 10
4663.1275807268457
 20
-1427.168157808974
 30
0.0
  0
ENDBLK
  5
13D2
  8
0
  0
BLOCK
  8
0
  2
*D31
 70
     1
 10
0.0
 20
0.0
 30
0.0
  3
*D31
  1

  0
LINE
  5
13D5
  8
SIZE
  6
CONTINUOUS
 62
     0
 10
20.0
 20
-298.0
 30
0.0
 11
294.25994256639001
 21
-298.0
 31
0.0
  0
LINE
  5
13D6
  8
SIZE
  6
CONTINUOUS
 62
     0
 10
40.0
 20
-256.49999999999989
 30
0.0
 11
294.25994256639001
 21
-256.49999999999989
 31
0.0
  0
LINE
  5
13D7
  8
SIZE
  6
CONTINUOUS
 62
     0
 10
264.25994256639018
 20
-308.0
 30
0.0
 11
264.25994256639018
 21
-318.0
 31
0.0
  0
LINE
  5
13D8
  8
SIZE
  6
CONTINUOUS
 62
     0
 10
264.25994256639018
 20
-246.4999999999998
 30
0.0
 11
264.25994256639018
 21
-31.928571428571502
 31
0.0
  0
LINE
  5
13D9
  8
SIZE
  6
CONTINUOUS
 62
     0
 10
264.25994256639018
 20
-298.0
 30
0.0
 11
264.25994256639018
 21
-256.49999999999989
 31
0.0
  0
INSERT
  5
13DA
  8
SIZE
  6
CONTINUOUS
 62
     0
  2
_ORIGIN
 10
264.25994256639018
 20
-298.0
 30
0.0
 41
10.0
 42
10.0
 43
10.0
 50
90.0
  0
INSERT
  5
13DB
  8
SIZE
  6
CONTINUOUS
 62
     0
  2
_ORIGIN
 10
264.25994256639018
 20
-256.49999999999989
 30
0.0
 41
10.0
 42
10.0
 43
10.0
 50
270.0
  0
TEXT
  5
13DC
  8
0
 62
     0
 10
84.259900000000002
 20
-247.494
 30
0.0
 40
64.0
  1
41.5
  0
POINT
  5
13DD
  8
DEFPOINTS
  6
CONTINUOUS
 62
     0
 10
0.0
 20
-298.0
 30
0.0
  0
POINT
  5
13DE
  8
DEFPOINTS
  6
CONTINUOUS
 62
     0
 10
20.0
 20
-256.49999999999989
 30
0.0
  0
POINT
  5
13DF
  8
DEFPOINTS
  6
CONTINUOUS
 62
     0
 10
264.25994256639018
 20
-256.49999999999989
 30
0.0
  0
ENDBLK
  5
13E0
  8
0
  0
BLOCK
  8
0
  2
*D32
 70
     1
 10
0.0
 20
0.0
 30
0.0
  3
*D32
  1

  0
LINE
  5
13E3
  8
SIZE
  6
CONTINUOUS
 62
     0
 10
40.0
 20
-255.5
 30
0.0
 11
387.5607421153253
 21
-255.50000000000011
 31
0.0
  0
LINE
  5
13E4
  8
SIZE
  6
CONTINUOUS
 62
     0
 10
20.0
 20
-298.0
 30
0.0
 11
387.5607421153253
 21
-298.0
 31
0.0
  0
LINE
  5
13E5
  8
SIZE
  6
CONTINUOUS
 62
     0
 10
357.56074211532518
 20
-308.0
 30
0.0
 11
357.56074211532518
 21
-318.0
 31
0.0
  0
LINE
  5
13E6
  8
SIZE
  6
CONTINUOUS
 62
     0
 10
357.56074211532518
 20
-245.5
 30
0.0
 11
357.56074211532541
 21
-19.95714285714271
 31
0.0
  0
LINE
  5
13E7
  8
SIZE
  6
CONTINUOUS
 62
     0
 10
357.56074211532518
 20
-298.0
 30
0.0
 11
357.56074211532518
 21
-255.50000000000011
 31
0.0
  0
INSERT
  5
13E8
  8
SIZE
  6
CONTINUOUS
 62
     0
  2
_ORIGIN
 10
357.56074211532518
 20
-298.0
 30
0.0
 41
10.0
 42
10.0
 43
10.0
 50
90.0
  0
INSERT
  5
13E9
  8
SIZE
  6
CONTINUOUS
 62
     0
  2
_ORIGIN
 10
357.56074211532518
 20
-255.50000000000011
 30
0.0
 41
10.0
 42
10.0
 43
10.0
 50
270.0
  0
TEXT
  5
13EA
  8
0
 62
     0
 10
177.56099999999989
 20
-241.0089999999999
 30
0.0
 40
64.0
  1
42.5
  0
POINT
  5
13EB
  8
DEFPOINTS
  6
CONTINUOUS
 62
     0
 10
20.0
 20
-255.5
 30
0.0
  0
POINT
  5
13EC
  8
DEFPOINTS
  6
CONTINUOUS
 62
     0
 10
0.0
 20
-298.0
 30
0.0
  0
POINT
  5
13ED
  8
DEFPOINTS
  6
CONTINUOUS
 62
     0
 10
357.56074211532518
 20
-298.0
 30
0.0
  0
ENDBLK
  5
13EE
  8
0
  0
BLOCK
  8
0
  2
*D33
 70
     1
 10
0.0
 20
0.0
 30
0.0
  3
*D33
  1

  0
LINE
  5
13F1
  8
SIZE
  6
CONTINUOUS
 62
     0
 10
-1385.3866894535561
 20
-1427.168157808974
 30
0.0
 11
-1618.133579922373
 21
-1427.168157808974
 31
0.0
  0
LINE
  5
13F2
  8
SIZE
  6
CONTINUOUS
 62
     0
 10
-1365.3866894535561
 20
-1468.6681578089731
 30
0.0
 11
-1618.133579922373
 21
-1468.6681578089731
 31
0.0
  0
LINE
  5
13F3
  8
SIZE
  6
CONTINUOUS
 62
     0
 10
-1588.1335799223741
 20
-1478.668157808974
 30
0.0
 11
-1588.1335799223741
 21
-1488.668157808974
 31
0.0
  0
LINE
  5
13F4
  8
SIZE
  6
CONTINUOUS
 62
     0
 10
-1588.1335799223741
 20
-1417.168157808974
 30
0.0
 11
-1588.1335799223741
 21
-1202.5967292375451
 31
0.0
  0
LINE
  5
13F5
  8
SIZE
  6
CONTINUOUS
 62
     0
 10
-1588.1335799223741
 20
-1468.6681578089731
 30
0.0
 11
-1588.1335799223741
 21
-1427.168157808974
 31
0.0
  0
INSERT
  5
13F6
  8
SIZE
  6
CONTINUOUS
 62
     0
  2
_ORIGIN
 10
-1588.1335799223741
 20
-1468.6681578089731
 30
0.0
 41
10.0
 42
10.0
 43
10.0
 50
90.0
  0
INSERT
  5
13F7
  8
SIZE
  6
CONTINUOUS
 62
     0
  2
_ORIGIN
 10
-1588.1335799223741
 20
-1427.168157808974
 30
0.0
 41
10.0
 42
10.0
 43
10.0
 50
270.0
  0
TEXT
  5
13F8
  8
SIZE
  6
CONTINUOUS
 62
     0
 10
-1608.1335799223741
 20
-1387.168157808974
 30
0.0
 40
64.0
  1
41.5
 50
90.0
 41
0.9
  0
POINT
  5
13F9
  8
DEFPOINTS
  6
CONTINUOUS
 62
     0
 10
-1365.3866894535561
 20
-1427.168157808974
 30
0.0
  0
POINT
  5
13FA
  8
DEFPOINTS
  6
CONTINUOUS
 62
     0
 10
-1345.3866894535561
 20
-1468.6681578089731
 30
0.0
  0
POINT
  5
13FB
  8
DEFPOINTS
  6
CONTINUOUS
 62
     0
 10
-1588.1335799223741
 20
-1468.6681578089731
 30
0.0
  0
ENDBLK
  5
13FC
  8
0
  0
BLOCK
  8
0
  2
*D34
 70
     1
 10
0.0
 20
0.0
 30
0.0
  3
*D34
  1

  0
LINE
  5
13FF
  8
SIZE
  6
CONTINUOUS
 62
     0
 10
-1365.3866894535561
 20
-1468.6681578089731
 30
0.0
 11
-1727.2737917006771
 21
-1468.6681578089731
 31
0.0
  0
LINE
  5
1400
  8
SIZE
  6
CONTINUOUS
 62
     0
 10
-1385.3866894535561
 20
-1426.168157808974
 30
0.0
 11
-1727.2737917006771
 21
-1426.168157808974
 31
0.0
  0
LINE
  5
1401
  8
SIZE
  6
CONTINUOUS
 62
     0
 10
-1697.2737917006771
 20
-1478.668157808974
 30
0.0
 11
-1697.2737917006771
 21
-1488.668157808974
 31
0.0
  0
LINE
  5
1402
  8
SIZE
  6
CONTINUOUS
 62
     0
 10
-1697.2737917006771
 20
-1416.168157808974
 30
0.0
 11
-1697.2737917006771
 21
-1190.6253006661159
 31
0.0
  0
LINE
  5
1403
  8
SIZE
  6
CONTINUOUS
 62
     0
 10
-1697.2737917006771
 20
-1468.6681578089731
 30
0.0
 11
-1697.2737917006771
 21
-1426.168157808974
 31
0.0
  0
INSERT
  5
1404
  8
SIZE
  6
CONTINUOUS
 62
     0
  2
_ORIGIN
 10
-1697.2737917006771
 20
-1468.6681578089731
 30
0.0
 41
10.0
 42
10.0
 43
10.0
 50
90.0
  0
INSERT
  5
1405
  8
SIZE
  6
CONTINUOUS
 62
     0
  2
_ORIGIN
 10
-1697.2737917006771
 20
-1426.168157808974
 30
0.0
 41
10.0
 42
10.0
 43
10.0
 50
270.0
  0
TEXT
  5
1406
  8
SIZE
  6
CONTINUOUS
 62
     0
 10
-1717.2737917006771
 20
-1386.168157808974
 30
0.0
 40
64.0
  1
42.5
 50
90.0
 41
0.9
  0
POINT
  5
1407
  8
DEFPOINTS
  6
CONTINUOUS
 62
     0
 10
-1345.3866894535561
 20
-1468.6681578089731
 30
0.0
  0
POINT
  5
1408
  8
DEFPOINTS
  6
CONTINUOUS
 62
     0
 10
-1365.3866894535561
 20
-1426.168157808974
 30
0.0
  0
POINT
  5
1409
  8
DEFPOINTS
  6
CONTINUOUS
 62
     0
 10
-1697.2737917006771
 20
-1426.168157808974
 30
0.0
  0
ENDBLK
  5
140A
  8
0
  0
BLOCK
  8
0
  2
*D35
 70
     1
 10
0.0
 20
0.0
 30
0.0
  3
*D35
  1

  0
LINE
  5
15E4
  8
SIZE
  6
CONTINUOUS
 62
     0
 10
-20.0
 20
-0.0000000000000057
 30
0.0
 11
491.4843902873871
 21
-0.0000000000001506
 31
0.0
  0
LINE
  5
15E5
  8
SIZE
  6
CONTINUOUS
 62
     0
 10
20.0
 20
-298.0
 30
0.0
 11
491.4843902873871
 21
-298.00000000000011
 31
0.0
  0
LINE
  5
15E6
  8
SIZE
  6
CONTINUOUS
 62
     0
 10
461.48439028738721
 20
-10.00000000000014
 30
0.0
 11
461.4843902873871
 21
-288.00000000000011
 31
0.0
  0
INSERT
  5
15E7
  8
SIZE
  6
CONTINUOUS
 62
     0
  2
_ORIGIN
 10
461.48439028738721
 20
-0.0000000000001421
 30
0.0
 41
10.0
 42
10.0
 43
10.0
 50
90.0
  0
INSERT
  5
15E8
  8
SIZE
  6
CONTINUOUS
 62
     0
  2
_ORIGIN
 10
461.4843902873871
 20
-298.00000000000011
 30
0.0
 41
10.0
 42
10.0
 43
10.0
 50
270.0
  0
TEXT
  8
0
  40
64
  5
160C
  62
0
  72
0
  71
0
 10
281.484
 20
-262.280
 30
0.000000
  1
298
  0
POINT
  5
15EA
  8
DEFPOINTS
  6
CONTINUOUS
 62
     0
 10
-40.0
 20
0.0
 30
0.0
  0
POINT
  5
15EB
  8
DEFPOINTS
  6
CONTINUOUS
 62
     0
 10
0.0
 20
-298.0
 30
0.0
  0
POINT
  5
15EC
  8
DEFPOINTS
  6
CONTINUOUS
 62
     0
 10
461.4843902873871
 20
-298.00000000000011
 30
0.0
  0
ENDBLK
  5
1419
  8
0
  0
BLOCK
  8
0
  2
*D36
 70
     1
 10
0.0
 20
0.0
 30
0.0
  3
*D36
  1

  0
LINE
  5
15ED
  8
SIZE
  6
CONTINUOUS
 62
     0
 10
0.0000000000000012
 20
-5.0
 30
0.0
 11
0.0000000000000102
 21
142.2596348969204
 31
0.0
  0
LINE
  5
15EE
  8
SIZE
  6
CONTINUOUS
 62
     0
 10
-253.47807095695481
 20
-82.948281921129208
 30
0.0
 11
-253.47807095695481
 21
142.2596348969204
 31
0.0
  0
LINE
  5
15EF
  8
SIZE
  6
CONTINUOUS
 62
     0
 10
-9.9999999999999911
 20
112.2596348969205
 30
0.0
 11
-243.4780709569547
 21
112.2596348969205
 31
0.0
  0
INSERT
  5
15F0
  8
SIZE
  6
CONTINUOUS
 62
     0
  2
_ORIGIN
 10
0.0000000000000084
 20
112.2596348969205
 30
0.0
 41
10.0
 42
10.0
 43
10.0
  0
INSERT
  5
15F1
  8
SIZE
  6
CONTINUOUS
 62
     0
  2
_ORIGIN
 10
-253.47807095695481
 20
112.2596348969205
 30
0.0
 41
10.0
 42
10.0
 43
10.0
 50
180.0
  0
TEXT
  8
0
  40
64
  5
160D
  62
0
  72
0
  71
0
 10
-254.739
 20
50.9796
 30
0.000000
  1
253
  0
POINT
  5
15F3
  8
DEFPOINTS
  6
CONTINUOUS
 62
     0
 10
0.0
 20
-25.0
 30
0.0
  0
POINT
  5
15F4
  8
DEFPOINTS
  6
CONTINUOUS
 62
     0
 10
-253.47807095695481
 20
-102.94828192112919
 30
0.0
  0
POINT
  5
15F5
  8
DEFPOINTS
  6
CONTINUOUS
 62
     0
 10
-253.47807095695481
 20
112.2596348969205
 30
0.0
  0
ENDBLK
  5
14E4
  8
0
  0
BLOCK
  8
0
  2
*D37
 70
     1
 10
0.0
 20
0.0
 30
0.0
  3
*D37
  1

  0
LINE
  5
15F6
  8
SIZE
  6
CONTINUOUS
 62
     0
 10
20.0
 20
-298.0
 30
0.0
 11
294.25994256639012
 21
-298.0
 31
0.0
  0
LINE
  5
15F7
  8
SIZE
  6
CONTINUOUS
 62
     0
 10
40.0
 20
-256.49999999999989
 30
0.0
 11
294.25994256639012
 21
-256.49999999999989
 31
0.0
  0
LINE
  5
15F8
  8
SIZE
  6
CONTINUOUS
 62
     0
 10
264.25994256639018
 20
-308.0
 30
0.0
 11
264.25994256639018
 21
-318.0
 31
0.0
  0
LINE
  5
15F9
  8
SIZE
  6
CONTINUOUS
 62
     0
 10
264.25994256639018
 20
-246.49999999999989
 30
0.0
 11
264.25994256639018
 21
-31.928571428571392
 31
0.0
  0
LINE
  5
15FA
  8
SIZE
  6
CONTINUOUS
 62
     0
 10
264.25994256639018
 20
-298.0
 30
0.0
 11
264.25994256639018
 21
-256.49999999999989
 31
0.0
  0
INSERT
  5
15FB
  8
SIZE
  6
CONTINUOUS
 62
     0
  2
_ORIGIN
 10
264.25994256639018
 20
-298.0
 30
0.0
 41
10.0
 42
10.0
 43
10.0
 50
90.0
  0
INSERT
  5
15FC
  8
SIZE
  6
CONTINUOUS
 62
     0
  2
_ORIGIN
 10
264.25994256639018
 20
-256.49999999999989
 30
0.0
 41
10.0
 42
10.0
 43
10.0
 50
270.0
  0
TEXT
  8
0
  40
64
  5
160E
  62
0
  72
0
  71
0
 10
84.2599
 20
-247.494
 30
0.000000
  1
41.5
  0
POINT
  5
15FE
  8
DEFPOINTS
  6
CONTINUOUS
 62
     0
 10
0.0
 20
-298.0
 30
0.0
  0
POINT
  5
15FF
  8
DEFPOINTS
  6
CONTINUOUS
 62
     0
 10
20.0
 20
-256.49999999999989
 30
0.0
  0
POINT
  5
1600
  8
DEFPOINTS
  6
CONTINUOUS
 62
     0
 10
264.25994256639018
 20
-256.49999999999989
 30
0.0
  0
ENDBLK
  5
14F3
  8
0
  0
BLOCK
  8
0
  2
*D38
 70
     1
 10
0.0
 20
0.0
 30
0.0
  3
*D38
  1

  0
LINE
  5
1601
  8
SIZE
  6
CONTINUOUS
 62
     0
 10
40.0
 20
-255.5
 30
0.0
 11
387.5607421153253
 21
-255.50000000000011
 31
0.0
  0
LINE
  5
1602
  8
SIZE
  6
CONTINUOUS
 62
     0
 10
20.0
 20
-298.0
 30
0.0
 11
387.5607421153253
 21
-298.00000000000011
 31
0.0
  0
LINE
  5
1603
  8
SIZE
  6
CONTINUOUS
 62
     0
 10
357.5607421153253
 20
-308.0
 30
0.0
 11
357.5607421153253
 21
-318.0
 31
0.0
  0
LINE
  5
1604
  8
SIZE
  6
CONTINUOUS
 62
     0
 10
357.5607421153253
 20
-245.50000000000011
 30
0.0
 11
357.56074211532541
 21
-19.957142857142671
 31
0.0
  0
LINE
  5
1605
  8
SIZE
  6
CONTINUOUS
 62
     0
 10
357.5607421153253
 20
-298.0
 30
0.0
 11
357.5607421153253
 21
-255.50000000000011
 31
0.0
  0
INSERT
  5
1606
  8
SIZE
  6
CONTINUOUS
 62
     0
  2
_ORIGIN
 10
357.5607421153253
 20
-298.0
 30
0.0
 41
10.0
 42
10.0
 43
10.0
 50
90.0
  0
INSERT
  5
1607
  8
SIZE
  6
CONTINUOUS
 62
     0
  2
_ORIGIN
 10
357.5607421153253
 20
-255.50000000000011
 30
0.0
 41
10.0
 42
10.0
 43
10.0
 50
270.0
  0
TEXT
  8
0
  40
64
  5
160F
  62
0
  72
0
  71
0
 10
177.561
 20
-241.009
 30
0.000000
  1
42.5
  0
POINT
  5
1609
  8
DEFPOINTS
  6
CONTINUOUS
 62
     0
 10
20.0
 20
-255.5
 30
0.0
  0
POINT
  5
160A
  8
DEFPOINTS
  6
CONTINUOUS
 62
     0
 10
0.0
 20
-298.0
 30
0.0
  0
POINT
  5
160B
  8
DEFPOINTS
  6
CONTINUOUS
 62
     0
 10
357.5607421153253
 20
-298.0
 30
0.0
  0
ENDBLK
  5
1502
  8
0
  0
ENDSEC
  0
SECTION
  2
ENTITIES
  0
TEXT
  5
140B
  8
ETC
 10
621.76423585478585
 20
238.48599197621351
 30
0.0
 40
64.0
  1
SMSZ2774
 41
0.8805031515330192
 72
     5
 11
1048.430905854786
 21
238.48599197621351
 31
0.0
  0
TEXT
  5
140C
  8
ETC
 10
629.18086585478613
 20
344.72308197621362
 30
0.0
 40
64.0
  1
RAC
 41
0.9051724137931021
 72
     5
 11
789.18086585478591
 21
344.72308197621362
 31
0.0
  0
DIMENSION
  5
140D
  8
SIZE
  6
CONTINUOUS
  2
*D35
 10
461.4843902873871
 20
-298.00000000000011
 30
0.0
 11
409.48439028738721
 21
-149.0
 31
0.0
 70
     0
 13
-40.0
 23
0.0
 33
0.0
 14
0.0
 24
-298.0
 34
0.0
 50
90.0
1001
ACAD
1000
DSTYLE
1002
{
1070
   287
1070
     3
1070
    41
1040
10.0
1070
    42
1040
20.0
1070
    43
1040
200.0
1070
    44
1040
30.0
1070
    73
1070
     0
1070
    74
1070
     0
1070
    77
1070
     1
1070
    78
1070
     8
1070
   140
1040
64.0
1070
   147
1040
20.0
1070
   172
1070
     1
1070
   275
1070
     0
1070
   279
1070
     0
1070
   284
1070
     0
1070
   285
1070
     0
1070
   286
1070
     0
1070
   341
1005
126E
1070
     5
1000
ORIGIN
1002
}
  0
ARC
  5
141A
  8
DETAIL
  6
CONTINUOUS
 10
169.44967873848319
 20
-93.895202530790556
 30
0.0
 40
363.766825205038
 50
165.6742825219699
 51
188.96724187192541
  0
CIRCLE
  5
141B
  8
ARRANGE
  6
CONTINUOUS
 62
     1
 10
0.0
 20
0.0
 30
0.0
 40
40.0
  0
CIRCLE
  5
141C
  8
ARRANGE
  6
CONTINUOUS
 10
0.0
 20
0.0
 30
0.0
 40
40.0
  0
LINE
  5
141D
  8
NOTE
  6
CONTINUOUS
 62
     4
 10
0.0
 20
-255.5
 30
0.0
 11
287.90161999999992
 21
57.104289999999992
 31
0.0
  0
LINE
  5
141E
  8
DETAIL
  6
CONTINUOUS
 10
0.0
 20
-25.0
 30
0.0
 11
0.0
 21
-298.0
 31
0.0
  0
ARC
  5
141F
  8
DETAIL
  6
CONTINUOUS
 10
-142.9138733142008
 20
-102.94828192112919
 30
0.0
 40
110.564197642754
 50
120.25979597655279
 51
205.52652397708661
  0
TEXT
  5
1420
  8
NOTE
 62
     4
 10
295.78606714285701
 20
-443.92957000000001
 30
0.0
 40
64.0
  1
D,RL,RG%%C65
 41
0.9
  0
LINE
  5
1421
  8
NOTE
  6
CONTINUOUS
 62
     4
 10
263.85847000000001
 20
-465.12463999999989
 30
0.0
 11
781.77221000000009
 21
-465.12463999999989
 31
0.0
  0
LINE
  5
1422
  8
NOTE
  6
CONTINUOUS
 62
     4
 10
0.0
 20
-256.49999999999989
 30
0.0
 11
263.85847000000001
 21
-465.12463999999989
 31
0.0
  0
LINE
  5
1423
  8
NOTE
  6
DASHDOT
 62
     4
 10
20.0
 20
-255.5
 30
0.0
 11
-20.0
 21
-255.5
 31
0.0
  0
LINE
  5
1424
  8
NOTE
  6
DASHDOT
 62
     4
 10
20.0
 20
-256.49999999999989
 30
0.0
 11
-20.0
 21
-256.49999999999989
 31
0.0
  0
LINE
  5
1425
  8
BASIS
  6
DASHDOT
 62
     6
 10
54.15284999999993
 20
-149.0
 30
0.0
 11
-278.78812999999991
 21
-149.0
 31
0.0
  0
LINE
  5
1426
  8
NOTE
  6
CONTINUOUS
 62
     4
 10
0.0
 20
-255.5
 30
0.0
 11
33.219360000000052
 21
-233.2183
 31
0.0
  0
LINE
  5
1427
  8
NOTE
  6
CONTINUOUS
 62
     4
 10
36.745809999999892
 20
-272.30335000000002
 30
0.0
 11
0.0
 21
-256.49999999999989
 31
0.0
  0
LINE
  5
1428
  8
NOTE
  6
CONTINUOUS
 62
     4
 10
0.0
 20
-256.49999999999989
 30
0.0
 11
23.921129999999941
 21
-288.55899999999991
 31
0.0
  0
ARC
  5
1429
  8
DETAIL
  6
CONTINUOUS
 10
-649.37544550782866
 20
-165.43208705069461
 30
0.0
 40
459.74385898481142
 50
346.28261328679702
 51
1.849344289184905
  0
POLYLINE
  5
142A
  8
DETAIL
 66
     1
 10
0.0
 20
0.0
 30
0.0
 70
     8
  0
VERTEX
  5
142B
  8
DETAIL
 10
-152.99299999999999
 20
-298.0
 30
0.0
 70
    32
  0
VERTEX
  5
142C
  8
DETAIL
 10
-154.161
 20
-297.435
 30
0.0
 70
    32
  0
VERTEX
  5
142D
  8
DETAIL
 10
-155.33500000000001
 20
-296.87099999999992
 30
0.0
 70
    32
  0
VERTEX
  5
142E
  8
DETAIL
 10
-156.5149999999999
 20
-296.30900000000003
 30
0.0
 70
    32
  0
VERTEX
  5
142F
  8
DETAIL
 10
-157.70099999999999
 20
-295.74799999999982
 30
0.0
 70
    32
  0
VERTEX
  5
1430
  8
DETAIL
 10
-158.89199999999991
 20
-295.18900000000002
 30
0.0
 70
    32
  0
VERTEX
  5
1431
  8
DETAIL
 10
-160.08899999999991
 20
-294.63099999999997
 30
0.0
 70
    32
  0
VERTEX
  5
1432
  8
DETAIL
 10
-161.2889999999999
 20
-294.07400000000001
 30
0.0
 70
    32
  0
VERTEX
  5
1433
  8
DETAIL
 10
-162.494
 20
-293.51900000000001
 30
0.0
 70
    32
  0
VERTEX
  5
1434
  8
DETAIL
 10
-163.703
 20
-292.964
 30
0.0
 70
    32
  0
VERTEX
  5
1435
  8
DETAIL
 10
-164.91499999999979
 20
-292.41000000000008
 30
0.0
 70
    32
  0
VERTEX
  5
1436
  8
DETAIL
 10
-166.12899999999991
 20
-291.85599999999988
 30
0.0
 70
    32
  0
VERTEX
  5
1437
  8
DETAIL
 10
-167.3459999999998
 20
-291.303
 30
0.0
 70
    32
  0
VERTEX
  5
1438
  8
DETAIL
 10
-168.5659999999998
 20
-290.75
 30
0.0
 70
    32
  0
VERTEX
  5
1439
  8
DETAIL
 10
-169.78699999999981
 20
-290.19799999999998
 30
0.0
 70
    32
  0
VERTEX
  5
143A
  8
DETAIL
 10
-171.0089999999999
 20
-289.6459999999999
 30
0.0
 70
    32
  0
VERTEX
  5
143B
  8
DETAIL
 10
-172.232
 20
-289.09399999999999
 30
0.0
 70
    32
  0
VERTEX
  5
143C
  8
DETAIL
 10
-173.45500000000001
 20
-288.54099999999983
 30
0.0
 70
    32
  0
VERTEX
  5
143D
  8
DETAIL
 10
-174.678
 20
-287.98899999999992
 30
0.0
 70
    32
  0
VERTEX
  5
143E
  8
DETAIL
 10
-175.9009999999999
 20
-287.43599999999992
 30
0.0
 70
    32
  0
VERTEX
  5
143F
  8
DETAIL
 10
-177.124
 20
-286.88199999999989
 30
0.0
 70
    32
  0
VERTEX
  5
1440
  8
DETAIL
 10
-178.34399999999991
 20
-286.32799999999992
 30
0.0
 70
    32
  0
VERTEX
  5
1441
  8
DETAIL
 10
-179.56399999999991
 20
-285.77299999999991
 30
0.0
 70
    32
  0
VERTEX
  5
1442
  8
DETAIL
 10
-180.78099999999989
 20
-285.21800000000002
 30
0.0
 70
    32
  0
VERTEX
  5
1443
  8
DETAIL
 10
-181.9959999999999
 20
-284.661
 30
0.0
 70
    32
  0
VERTEX
  5
1444
  8
DETAIL
 10
-183.20799999999991
 20
-284.10299999999989
 30
0.0
 70
    32
  0
VERTEX
  5
1445
  8
DETAIL
 10
-184.416
 20
-283.54399999999993
 30
0.0
 70
    32
  0
VERTEX
  5
1446
  8
DETAIL
 10
-185.6209999999999
 20
-282.98399999999992
 30
0.0
 70
    32
  0
VERTEX
  5
1447
  8
DETAIL
 10
-186.8219999999998
 20
-282.42200000000003
 30
0.0
 70
    32
  0
VERTEX
  5
1448
  8
DETAIL
 10
-188.01899999999981
 20
-281.858
 30
0.0
 70
    32
  0
VERTEX
  5
1449
  8
DETAIL
 10
-189.21000000000001
 20
-281.29300000000001
 30
0.0
 70
    32
  0
VERTEX
  5
144A
  8
DETAIL
 10
-190.3959999999999
 20
-280.72599999999989
 30
0.0
 70
    32
  0
VERTEX
  5
144B
  8
DETAIL
 10
-191.57599999999991
 20
-280.15699999999993
 30
0.0
 70
    32
  0
VERTEX
  5
144C
  8
DETAIL
 10
-192.75099999999981
 20
-279.58499999999992
 30
0.0
 70
    32
  0
VERTEX
  5
144D
  8
DETAIL
 10
-193.91800000000001
 20
-279.01199999999989
 30
0.0
 70
    32
  0
VERTEX
  5
144E
  8
DETAIL
 10
-195.07899999999981
 20
-278.43599999999992
 30
0.0
 70
    32
  0
VERTEX
  5
144F
  8
DETAIL
 10
-196.232
 20
-277.85700000000003
 30
0.0
 70
    32
  0
VERTEX
  5
1450
  8
DETAIL
 10
-197.3779999999999
 20
-277.27600000000001
 30
0.0
 70
    32
  0
VERTEX
  5
1451
  8
DETAIL
 10
-198.5149999999999
 20
-276.69299999999993
 30
0.0
 70
    32
  0
VERTEX
  5
1452
  8
DETAIL
 10
-199.64399999999981
 20
-276.10599999999999
 30
0.0
 70
    32
  0
VERTEX
  5
1453
  8
DETAIL
 10
-200.76400000000001
 20
-275.51599999999991
 30
0.0
 70
    32
  0
VERTEX
  5
1454
  8
DETAIL
 10
-201.874
 20
-274.923
 30
0.0
 70
    32
  0
VERTEX
  5
1455
  8
DETAIL
 10
-202.9739999999999
 20
-274.32699999999983
 30
0.0
 70
    32
  0
VERTEX
  5
1456
  8
DETAIL
 10
-204.0649999999998
 20
-273.72800000000001
 30
0.0
 70
    32
  0
VERTEX
  5
1457
  8
DETAIL
 10
-205.14399999999989
 20
-273.125
 30
0.0
 70
    32
  0
VERTEX
  5
1458
  8
DETAIL
 10
-206.21299999999991
 20
-272.51799999999992
 30
0.0
 70
    32
  0
VERTEX
  5
1459
  8
DETAIL
 10
-207.26900000000001
 20
-271.90800000000002
 30
0.0
 70
    32
  0
VERTEX
  5
145A
  8
DETAIL
 10
-208.3149999999998
 20
-271.29399999999993
 30
0.0
 70
    32
  0
VERTEX
  5
145B
  8
DETAIL
 10
-209.34699999999989
 20
-270.67599999999999
 30
0.0
 70
    32
  0
VERTEX
  5
145C
  8
DETAIL
 10
-210.36699999999999
 20
-270.053
 30
0.0
 70
    32
  0
VERTEX
  5
145D
  8
DETAIL
 10
-211.374
 20
-269.42700000000002
 30
0.0
 70
    32
  0
VERTEX
  5
145E
  8
DETAIL
 10
-212.36799999999991
 20
-268.79599999999988
 30
0.0
 70
    32
  0
VERTEX
  5
145F
  8
DETAIL
 10
-213.34699999999989
 20
-268.16000000000003
 30
0.0
 70
    32
  0
VERTEX
  5
1460
  8
DETAIL
 10
-214.31200000000001
 20
-267.51999999999992
 30
0.0
 70
    32
  0
VERTEX
  5
1461
  8
DETAIL
 10
-215.26300000000001
 20
-266.875
 30
0.0
 70
    32
  0
VERTEX
  5
1462
  8
DETAIL
 10
-216.19799999999981
 20
-266.22599999999977
 30
0.0
 70
    32
  0
VERTEX
  5
1463
  8
DETAIL
 10
-217.11699999999999
 20
-265.57099999999991
 30
0.0
 70
    32
  0
VERTEX
  5
1464
  8
DETAIL
 10
-218.0209999999999
 20
-264.91099999999977
 30
0.0
 70
    32
  0
VERTEX
  5
1465
  8
DETAIL
 10
-218.90799999999999
 20
-264.24599999999992
 30
0.0
 70
    32
  0
VERTEX
  5
1466
  8
DETAIL
 10
-219.779
 20
-263.57499999999982
 30
0.0
 70
    32
  0
VERTEX
  5
1467
  8
DETAIL
 10
-220.63200000000001
 20
-262.89899999999989
 30
0.0
 70
    32
  0
VERTEX
  5
1468
  8
DETAIL
 10
-221.46700000000001
 20
-262.21800000000002
 30
0.0
 70
    32
  0
VERTEX
  5
1469
  8
DETAIL
 10
-222.285
 20
-261.52999999999992
 30
0.0
 70
    32
  0
VERTEX
  5
146A
  8
DETAIL
 10
-223.084
 20
-260.83699999999982
 30
0.0
 70
    32
  0
VERTEX
  5
146B
  8
DETAIL
 10
-223.864
 20
-260.13799999999992
 30
0.0
 70
    32
  0
VERTEX
  5
146C
  8
DETAIL
 10
-224.6249999999998
 20
-259.43200000000002
 30
0.0
 70
    32
  0
VERTEX
  5
146D
  8
DETAIL
 10
-225.3659999999999
 20
-258.721
 30
0.0
 70
    32
  0
VERTEX
  5
146E
  8
DETAIL
 10
-226.08699999999999
 20
-258.00299999999982
 30
0.0
 70
    32
  0
VERTEX
  5
146F
  8
DETAIL
 10
-226.7879999999999
 20
-257.27800000000002
 30
0.0
 70
    32
  0
VERTEX
  5
1470
  8
DETAIL
 10
-227.4669999999999
 20
-256.54700000000003
 30
0.0
 70
    32
  0
VERTEX
  5
1471
  8
DETAIL
 10
-228.12599999999989
 20
-255.809
 30
0.0
 70
    32
  0
VERTEX
  5
1472
  8
DETAIL
 10
-228.76199999999989
 20
-255.06399999999999
 30
0.0
 70
    32
  0
VERTEX
  5
1473
  8
DETAIL
 10
-229.37700000000001
 20
-254.31200000000001
 30
0.0
 70
    32
  0
VERTEX
  5
1474
  8
DETAIL
 10
-229.96899999999999
 20
-253.553
 30
0.0
 70
    32
  0
VERTEX
  5
1475
  8
DETAIL
 10
-230.53699999999989
 20
-252.78700000000001
 30
0.0
 70
    32
  0
VERTEX
  5
1476
  8
DETAIL
 10
-231.083
 20
-252.01299999999989
 30
0.0
 70
    32
  0
VERTEX
  5
1477
  8
DETAIL
 10
-231.60499999999999
 20
-251.2319999999998
 30
0.0
 70
    32
  0
VERTEX
  5
1478
  8
DETAIL
 10
-232.1039999999999
 20
-250.4429999999999
 30
0.0
 70
    32
  0
VERTEX
  5
1479
  8
DETAIL
 10
-232.58000000000001
 20
-249.64699999999991
 30
0.0
 70
    32
  0
VERTEX
  5
147A
  8
DETAIL
 10
-233.03399999999999
 20
-248.84200000000001
 30
0.0
 70
    32
  0
VERTEX
  5
147B
  8
DETAIL
 10
-233.46599999999989
 20
-248.03
 30
0.0
 70
    32
  0
VERTEX
  5
147C
  8
DETAIL
 10
-233.87700000000001
 20
-247.21000000000001
 30
0.0
 70
    32
  0
VERTEX
  5
147D
  8
DETAIL
 10
-234.267
 20
-246.38200000000001
 30
0.0
 70
    32
  0
VERTEX
  5
147E
  8
DETAIL
 10
-234.6369999999998
 20
-245.5449999999999
 30
0.0
 70
    32
  0
VERTEX
  5
147F
  8
DETAIL
 10
-234.988
 20
-244.69999999999999
 30
0.0
 70
    32
  0
VERTEX
  5
1480
  8
DETAIL
 10
-235.31999999999999
 20
-243.84700000000001
 30
0.0
 70
    32
  0
VERTEX
  5
1481
  8
DETAIL
 10
-235.63200000000001
 20
-242.98599999999999
 30
0.0
 70
    32
  0
VERTEX
  5
1482
  8
DETAIL
 10
-235.92699999999991
 20
-242.11500000000001
 30
0.0
 70
    32
  0
VERTEX
  5
1483
  8
DETAIL
 10
-236.20399999999989
 20
-241.23599999999999
 30
0.0
 70
    32
  0
VERTEX
  5
1484
  8
DETAIL
 10
-236.464
 20
-240.34899999999999
 30
0.0
 70
    32
  0
VERTEX
  5
1485
  8
DETAIL
 10
-236.708
 20
-239.45199999999991
 30
0.0
 70
    32
  0
VERTEX
  5
1486
  8
DETAIL
 10
-236.935
 20
-238.547
 30
0.0
 70
    32
  0
VERTEX
  5
1487
  8
DETAIL
 10
-237.14699999999991
 20
-237.63200000000001
 30
0.0
 70
    32
  0
VERTEX
  5
1488
  8
DETAIL
 10
-237.34399999999991
 20
-236.708
 30
0.0
 70
    32
  0
VERTEX
  5
1489
  8
DETAIL
 10
-237.5269999999999
 20
-235.77500000000001
 30
0.0
 70
    32
  0
VERTEX
  5
148A
  8
DETAIL
 10
-237.69499999999991
 20
-234.833
 30
0.0
 70
    32
  0
VERTEX
  5
148B
  8
DETAIL
 10
-237.84999999999991
 20
-233.8809999999998
 30
0.0
 70
    32
  0
VERTEX
  5
148C
  8
DETAIL
 10
-237.9919999999999
 20
-232.9199999999999
 30
0.0
 70
    32
  0
VERTEX
  5
148D
  8
DETAIL
 10
-238.1209999999999
 20
-231.94900000000001
 30
0.0
 70
    32
  0
VERTEX
  5
148E
  8
DETAIL
 10
-238.23799999999989
 20
-230.9679999999999
 30
0.0
 70
    32
  0
VERTEX
  5
148F
  8
DETAIL
 10
-238.34399999999991
 20
-229.977
 30
0.0
 70
    32
  0
VERTEX
  5
1490
  8
DETAIL
 10
-238.43899999999991
 20
-228.977
 30
0.0
 70
    32
  0
VERTEX
  5
1491
  8
DETAIL
 10
-238.524
 20
-227.96599999999981
 30
0.0
 70
    32
  0
VERTEX
  5
1492
  8
DETAIL
 10
-238.59899999999999
 20
-226.94499999999991
 30
0.0
 70
    32
  0
VERTEX
  5
1493
  8
DETAIL
 10
-238.6639999999999
 20
-225.9139999999999
 30
0.0
 70
    32
  0
VERTEX
  5
1494
  8
DETAIL
 10
-238.71999999999991
 20
-224.87299999999999
 30
0.0
 70
    32
  0
VERTEX
  5
1495
  8
DETAIL
 10
-238.768
 20
-223.821
 30
0.0
 70
    32
  0
VERTEX
  5
1496
  8
DETAIL
 10
-238.80799999999991
 20
-222.7589999999999
 30
0.0
 70
    32
  0
VERTEX
  5
1497
  8
DETAIL
 10
-238.84099999999989
 20
-221.68600000000001
 30
0.0
 70
    32
  0
VERTEX
  5
1498
  8
DETAIL
 10
-238.8659999999999
 20
-220.602
 30
0.0
 70
    32
  0
VERTEX
  5
1499
  8
DETAIL
 10
-238.886
 20
-219.5079999999999
 30
0.0
 70
    32
  0
VERTEX
  5
149A
  8
DETAIL
 10
-238.899
 20
-218.4019999999999
 30
0.0
 70
    32
  0
VERTEX
  5
149B
  8
DETAIL
 10
-238.9079999999999
 20
-217.28599999999989
 30
0.0
 70
    32
  0
VERTEX
  5
149C
  8
DETAIL
 10
-238.9109999999998
 20
-216.1579999999999
 30
0.0
 70
    32
  0
VERTEX
  5
149D
  8
DETAIL
 10
-238.91
 20
-215.02000000000001
 30
0.0
 70
    32
  0
VERTEX
  5
149E
  8
DETAIL
 10
-238.905
 20
-213.87
 30
0.0
 70
    32
  0
VERTEX
  5
149F
  8
DETAIL
 10
-238.89699999999999
 20
-212.7079999999998
 30
0.0
 70
    32
  0
VERTEX
  5
14A0
  8
DETAIL
 10
-238.887
 20
-211.5349999999998
 30
0.0
 70
    32
  0
VERTEX
  5
14A1
  8
DETAIL
 10
-238.874
 20
-210.35099999999991
 30
0.0
 70
    32
  0
VERTEX
  5
14A2
  8
DETAIL
 10
-238.85900000000001
 20
-209.154
 30
0.0
 70
    32
  0
VERTEX
  5
14A3
  8
DETAIL
 10
-238.84299999999999
 20
-207.946
 30
0.0
 70
    32
  0
VERTEX
  5
14A4
  8
DETAIL
 10
-238.82599999999991
 20
-206.726
 30
0.0
 70
    32
  0
VERTEX
  5
14A5
  8
DETAIL
 10
-238.809
 20
-205.495
 30
0.0
 70
    32
  0
VERTEX
  5
14A6
  8
DETAIL
 10
-238.792
 20
-204.25099999999989
 30
0.0
 70
    32
  0
VERTEX
  5
14A7
  8
DETAIL
 10
-238.7759999999999
 20
-202.994
 30
0.0
 70
    32
  0
VERTEX
  5
14A8
  8
DETAIL
 10
-238.762
 20
-201.72599999999991
 30
0.0
 70
    32
  0
VERTEX
  5
14A9
  8
DETAIL
 10
-238.749
 20
-200.44499999999991
 30
0.0
 70
    32
  0
VERTEX
  5
14AA
  8
DETAIL
 10
-238.7379999999998
 20
-199.1519999999999
 30
0.0
 70
    32
  0
VERTEX
  5
14AB
  8
DETAIL
 10
-238.73099999999991
 20
-197.84599999999989
 30
0.0
 70
    32
  0
VERTEX
  5
14AC
  8
DETAIL
 10
-238.72599999999991
 20
-196.5269999999999
 30
0.0
 70
    32
  0
VERTEX
  5
14AD
  8
DETAIL
 10
-238.72599999999991
 20
-195.19599999999991
 30
0.0
 70
    32
  0
VERTEX
  5
14AE
  8
DETAIL
 10
-238.7299999999999
 20
-193.852
 30
0.0
 70
    32
  0
VERTEX
  5
14AF
  8
DETAIL
 10
-238.7379999999998
 20
-192.494
 30
0.0
 70
    32
  0
VERTEX
  5
14B0
  8
DETAIL
 10
-238.7529999999999
 20
-191.124
 30
0.0
 70
    32
  0
VERTEX
  5
14B1
  8
DETAIL
 10
-238.77299999999991
 20
-189.7409999999999
 30
0.0
 70
    32
  0
VERTEX
  5
14B2
  8
DETAIL
 10
-238.79900000000001
 20
-188.34399999999999
 30
0.0
 70
    32
  0
VERTEX
  5
14B3
  8
DETAIL
 10
-238.83299999999991
 20
-186.934
 30
0.0
 70
    32
  0
VERTEX
  5
14B4
  8
DETAIL
 10
-238.87299999999991
 20
-185.50999999999999
 30
0.0
 70
    32
  0
VERTEX
  5
14B5
  8
DETAIL
 10
-238.92199999999991
 20
-184.07299999999981
 30
0.0
 70
    32
  0
VERTEX
  5
14B6
  8
DETAIL
 10
-238.97900000000001
 20
-182.62299999999991
 30
0.0
 70
    32
  0
VERTEX
  5
14B7
  8
DETAIL
 10
-239.04599999999999
 20
-181.15799999999999
 30
0.0
 70
    32
  0
VERTEX
  5
14B8
  8
DETAIL
 10
-239.12100000000001
 20
-179.68000000000001
 30
0.0
 70
    32
  0
VERTEX
  5
14B9
  8
DETAIL
 10
-239.20699999999991
 20
-178.1879999999999
 30
0.0
 70
    32
  0
VERTEX
  5
14BA
  8
DETAIL
 10
-239.30299999999991
 20
-176.6819999999999
 30
0.0
 70
    32
  0
VERTEX
  5
14BB
  8
DETAIL
 10
-239.40999999999991
 20
-175.16099999999989
 30
0.0
 70
    32
  0
VERTEX
  5
14BC
  8
DETAIL
 10
-239.529
 20
-173.62700000000001
 30
0.0
 70
    32
  0
VERTEX
  5
14BD
  8
DETAIL
 10
-239.6599999999998
 20
-172.0779999999998
 30
0.0
 70
    32
  0
VERTEX
  5
14BE
  8
DETAIL
 10
-239.8029999999998
 20
-170.51400000000001
 30
0.0
 70
    32
  0
VERTEX
  5
14BF
  8
DETAIL
 10
-239.95899999999989
 20
-168.93700000000001
 30
0.0
 70
    32
  0
VERTEX
  5
14C0
  8
DETAIL
 10
-240.12899999999991
 20
-167.34399999999999
 30
0.0
 70
    32
  0
VERTEX
  5
14C1
  8
DETAIL
 10
-240.3129999999999
 20
-165.73699999999999
 30
0.0
 70
    32
  0
VERTEX
  5
14C2
  8
DETAIL
 10
-240.511
 20
-164.11500000000001
 30
0.0
 70
    32
  0
VERTEX
  5
14C3
  8
DETAIL
 10
-240.72499999999991
 20
-162.47799999999981
 30
0.0
 70
    32
  0
VERTEX
  5
14C4
  8
DETAIL
 10
-240.95400000000001
 20
-160.82599999999999
 30
0.0
 70
    32
  0
VERTEX
  5
14C5
  8
DETAIL
 10
-241.19900000000001
 20
-159.15899999999999
 30
0.0
 70
    32
  0
VERTEX
  5
14C6
  8
DETAIL
 10
-241.4609999999999
 20
-157.477
 30
0.0
 70
    32
  0
VERTEX
  5
14C7
  8
DETAIL
 10
-241.74000000000001
 20
-155.77899999999991
 30
0.0
 70
    32
  0
VERTEX
  5
14C8
  8
DETAIL
 10
-242.03700000000001
 20
-154.066
 30
0.0
 70
    32
  0
VERTEX
  5
14C9
  8
DETAIL
 10
-242.35199999999989
 20
-152.33799999999991
 30
0.0
 70
    32
  0
VERTEX
  5
14CA
  8
DETAIL
 10
-242.68499999999989
 20
-150.59399999999999
 30
0.0
 70
    32
  0
SEQEND
  5
14CB
  8
DETAIL
  0
LINE
  5
14CC
  8
NOTE
  6
DASHDOT
 62
     4
 10
0.0
 20
-235.49999999999989
 30
0.0
 11
0.0
 21
-275.49999999999989
 31
0.0
  0
LINE
  5
14CD
  8
NOTE
  6
DASHDOT
 62
     4
 10
0.0
 20
-236.5
 30
0.0
 11
0.0
 21
-276.5
 31
0.0
  0
LINE
  5
14CE
  8
NOTE
  6
CONTINUOUS
 62
     4
 10
17.62796000000003
 20
-219.5937999999999
 30
0.0
 11
0.0
 21
-255.5
 31
0.0
  0
LINE
  5
14CF
  8
DETAIL
  6
CONTINUOUS
 10
0.0
 20
-298.0
 30
0.0
 11
-152.99329678783511
 21
-298.0
 31
0.0
  0
TEXT
  5
14D0
  8
NOTE
 62
     4
 10
319.8292171428572
 20
78.299350000000004
 30
0.0
 40
64.0
  1
D,RL,RG%%C65
 41
0.9
  0
LINE
  5
14D1
  8
NOTE
  6
CONTINUOUS
 62
     4
 10
287.90161999999992
 20
57.104289999999992
 30
0.0
 11
805.81536000000006
 21
57.104289999999992
 31
0.0
  0
LINE
  5
14D2
  8
DETAIL
  6
CONTINUOUS
 10
-25.0
 20
-0.0000000000002274
 30
0.0
 11
-152.31000799999981
 21
0.0
 31
0.0
  0
ARC
  5
14D3
  8
DETAIL
  6
CONTINUOUS
 10
-25.0
 20
-25.0
 30
0.0
 40
25.0
 50
0.000000000000007
 51
90.0
  0
ARC
  5
14D4
  8
DETAIL
  6
CONTINUOUS
 10
-25.0
 20
-25.0
 30
0.0
 40
25.0
 50
0.000000000000007
 51
90.0
  0
POINT
  5
14D5
  8
ARRANGE
  6
CONTINUOUS
 10
0.0
 20
0.0
 30
0.0
  0
ARC
  5
14D6
  8
DETAIL
  6
CONTINUOUS
 10
-137.6550299999999
 20
-238.8798799999999
 30
0.0
 40
239.32899
 50
93.510623999999368
 51
104.7601280000035
  0
LINE
  5
14D7
  8
DETAIL
  6
CONTINUOUS
 10
-98.0
 20
0.0
 30
0.0
 11
-98.0
 21
-298.0
 31
0.0
  0
DIMENSION
  5
14D8
  8
SIZE
  6
CONTINUOUS
  2
*D36
 10
-253.47807095695481
 20
112.2596348969205
 30
0.0
 11
-126.7390354784774
 21
164.2596348969204
 31
0.0
 70
     0
 13
0.0
 23
-25.0
 33
0.0
 14
-253.47807095695481
 24
-102.94828192112919
 34
0.0
1001
ACAD
1000
DSTYLE
1002
{
1070
   287
1070
     3
1070
    41
1040
10.0
1070
    42
1040
20.0
1070
    43
1040
200.0
1070
    44
1040
30.0
1070
    73
1070
     0
1070
    74
1070
     0
1070
    77
1070
     1
1070
    78
1070
     8
1070
   140
1040
64.0
1070
   147
1040
20.0
1070
   172
1070
     1
1070
   271
1070
     0
1070
   272
1070
     0
1070
   275
1070
     0
1070
   279
1070
     0
1070
   284
1070
     0
1070
   285
1070
     0
1070
   286
1070
     0
1070
   341
1005
126E
1070
     5
1000
ORIGIN
1002
}
  0
DIMENSION
  5
14E5
  8
SIZE
  6
CONTINUOUS
  2
*D37
 10
264.25994256639018
 20
-256.49999999999989
 30
0.0
 11
212.25994256639021
 21
-134.21428571428561
 31
0.0
 70
     0
 13
0.0
 23
-298.0
 33
0.0
 14
20.0
 24
-256.49999999999989
 34
0.0
 50
90.0
1001
ACAD
1000
DSTYLE
1002
{
1070
   287
1070
     3
1070
    41
1040
10.0
1070
    42
1040
20.0
1070
    43
1040
200.0
1070
    44
1040
30.0
1070
    73
1070
     0
1070
    74
1070
     0
1070
    77
1070
     1
1070
    78
1070
     8
1070
   140
1040
64.0
1070
   147
1040
20.0
1070
   172
1070
     1
1070
   275
1070
     0
1070
   279
1070
     0
1070
   284
1070
     0
1070
   285
1070
     0
1070
   286
1070
     0
1070
   341
1005
126E
1070
     5
1000
ORIGIN
1002
}
  0
DIMENSION
  5
14F4
  8
SIZE
  6
CONTINUOUS
  2
*D38
 10
357.5607421153253
 20
-298.0
 30
0.0
 11
357.56074211532541
 21
-127.7285714285712
 31
0.0
 70
   128
 13
20.0
 23
-255.5
 33
0.0
 14
0.0
 24
-298.0
 34
0.0
 50
90.0
1001
ACAD
1000
DSTYLE
1002
{
1070
   287
1070
     3
1070
    41
1040
10.0
1070
    42
1040
20.0
1070
    43
1040
200.0
1070
    44
1040
30.0
1070
    73
1070
     0
1070
    74
1070
     0
1070
    77
1070
     1
1070
    78
1070
     8
1070
   140
1040
64.0
1070
   147
1040
20.0
1070
   172
1070
     1
1070
   275
1070
     0
1070
   279
1070
     0
1070
   284
1070
     0
1070
   285
1070
     0
1070
   286
1070
     0
1070
   341
1005
126E
1070
     5
1000
ORIGIN
1002
}
  0
POLYLINE
  5
1503
  8
OUTLINE
 66
     1
 10
0.0
 20
0.0
 30
0.0
 70
     8
  0
VERTEX
  5
1504
  8
OUTLINE
 10
-152.99299999999999
 20
-298.0
 30
0.0
 70
    32
  0
VERTEX
  5
1505
  8
OUTLINE
 10
-154.161
 20
-297.43499999999989
 30
0.0
 70
    32
  0
VERTEX
  5
1506
  8
OUTLINE
 10
-155.33500000000001
 20
-296.87099999999992
 30
0.0
 70
    32
  0
VERTEX
  5
1507
  8
OUTLINE
 10
-156.5149999999999
 20
-296.30899999999991
 30
0.0
 70
    32
  0
VERTEX
  5
1508
  8
OUTLINE
 10
-157.70099999999999
 20
-295.74799999999988
 30
0.0
 70
    32
  0
VERTEX
  5
1509
  8
OUTLINE
 10
-158.89199999999991
 20
-295.18900000000002
 30
0.0
 70
    32
  0
VERTEX
  5
150A
  8
OUTLINE
 10
-160.08899999999991
 20
-294.63099999999997
 30
0.0
 70
    32
  0
VERTEX
  5
150B
  8
OUTLINE
 10
-161.2889999999999
 20
-294.07400000000001
 30
0.0
 70
    32
  0
VERTEX
  5
150C
  8
OUTLINE
 10
-162.494
 20
-293.51900000000001
 30
0.0
 70
    32
  0
VERTEX
  5
150D
  8
OUTLINE
 10
-163.7029999999998
 20
-292.96399999999983
 30
0.0
 70
    32
  0
VERTEX
  5
150E
  8
OUTLINE
 10
-164.91499999999979
 20
-292.41000000000008
 30
0.0
 70
    32
  0
VERTEX
  5
150F
  8
OUTLINE
 10
-166.12899999999991
 20
-291.85599999999988
 30
0.0
 70
    32
  0
VERTEX
  5
1510
  8
OUTLINE
 10
-167.34599999999989
 20
-291.303
 30
0.0
 70
    32
  0
VERTEX
  5
1511
  8
OUTLINE
 10
-168.5659999999998
 20
-290.75
 30
0.0
 70
    32
  0
VERTEX
  5
1512
  8
OUTLINE
 10
-169.78699999999989
 20
-290.19799999999998
 30
0.0
 70
    32
  0
VERTEX
  5
1513
  8
OUTLINE
 10
-171.0089999999999
 20
-289.6459999999999
 30
0.0
 70
    32
  0
VERTEX
  5
1514
  8
OUTLINE
 10
-172.23199999999991
 20
-289.09399999999999
 30
0.0
 70
    32
  0
VERTEX
  5
1515
  8
OUTLINE
 10
-173.45500000000001
 20
-288.54099999999983
 30
0.0
 70
    32
  0
VERTEX
  5
1516
  8
OUTLINE
 10
-174.678
 20
-287.98899999999992
 30
0.0
 70
    32
  0
VERTEX
  5
1517
  8
OUTLINE
 10
-175.9009999999999
 20
-287.43599999999992
 30
0.0
 70
    32
  0
VERTEX
  5
1518
  8
OUTLINE
 10
-177.124
 20
-286.88199999999989
 30
0.0
 70
    32
  0
VERTEX
  5
1519
  8
OUTLINE
 10
-178.34399999999991
 20
-286.32799999999992
 30
0.0
 70
    32
  0
VERTEX
  5
151A
  8
OUTLINE
 10
-179.56399999999991
 20
-285.77299999999991
 30
0.0
 70
    32
  0
VERTEX
  5
151B
  8
OUTLINE
 10
-180.78099999999989
 20
-285.21800000000002
 30
0.0
 70
    32
  0
VERTEX
  5
151C
  8
OUTLINE
 10
-181.9959999999999
 20
-284.661
 30
0.0
 70
    32
  0
VERTEX
  5
151D
  8
OUTLINE
 10
-183.20799999999991
 20
-284.10299999999989
 30
0.0
 70
    32
  0
VERTEX
  5
151E
  8
OUTLINE
 10
-184.416
 20
-283.5440000000001
 30
0.0
 70
    32
  0
VERTEX
  5
151F
  8
OUTLINE
 10
-185.6209999999999
 20
-282.98399999999992
 30
0.0
 70
    32
  0
VERTEX
  5
1520
  8
OUTLINE
 10
-186.8219999999998
 20
-282.42200000000003
 30
0.0
 70
    32
  0
VERTEX
  5
1521
  8
OUTLINE
 10
-188.01899999999981
 20
-281.85799999999978
 30
0.0
 70
    32
  0
VERTEX
  5
1522
  8
OUTLINE
 10
-189.21000000000001
 20
-281.29300000000001
 30
0.0
 70
    32
  0
VERTEX
  5
1523
  8
OUTLINE
 10
-190.3959999999999
 20
-280.72599999999989
 30
0.0
 70
    32
  0
VERTEX
  5
1524
  8
OUTLINE
 10
-191.57599999999991
 20
-280.15699999999993
 30
0.0
 70
    32
  0
VERTEX
  5
1525
  8
OUTLINE
 10
-192.75099999999981
 20
-279.58499999999992
 30
0.0
 70
    32
  0
VERTEX
  5
1526
  8
OUTLINE
 10
-193.91800000000001
 20
-279.01199999999989
 30
0.0
 70
    32
  0
VERTEX
  5
1527
  8
OUTLINE
 10
-195.07899999999981
 20
-278.43599999999992
 30
0.0
 70
    32
  0
VERTEX
  5
1528
  8
OUTLINE
 10
-196.23199999999991
 20
-277.85699999999991
 30
0.0
 70
    32
  0
VERTEX
  5
1529
  8
OUTLINE
 10
-197.3779999999999
 20
-277.27600000000001
 30
0.0
 70
    32
  0
VERTEX
  5
152A
  8
OUTLINE
 10
-198.5149999999999
 20
-276.69299999999993
 30
0.0
 70
    32
  0
VERTEX
  5
152B
  8
OUTLINE
 10
-199.64399999999981
 20
-276.10599999999999
 30
0.0
 70
    32
  0
VERTEX
  5
152C
  8
OUTLINE
 10
-200.76400000000001
 20
-275.51599999999991
 30
0.0
 70
    32
  0
VERTEX
  5
152D
  8
OUTLINE
 10
-201.874
 20
-274.923
 30
0.0
 70
    32
  0
VERTEX
  5
152E
  8
OUTLINE
 10
-202.9739999999999
 20
-274.32699999999983
 30
0.0
 70
    32
  0
VERTEX
  5
152F
  8
OUTLINE
 10
-204.0649999999998
 20
-273.72800000000001
 30
0.0
 70
    32
  0
VERTEX
  5
1530
  8
OUTLINE
 10
-205.14399999999989
 20
-273.125
 30
0.0
 70
    32
  0
VERTEX
  5
1531
  8
OUTLINE
 10
-206.21299999999991
 20
-272.51799999999992
 30
0.0
 70
    32
  0
VERTEX
  5
1532
  8
OUTLINE
 10
-207.26900000000001
 20
-271.90800000000002
 30
0.0
 70
    32
  0
VERTEX
  5
1533
  8
OUTLINE
 10
-208.3149999999998
 20
-271.2940000000001
 30
0.0
 70
    32
  0
VERTEX
  5
1534
  8
OUTLINE
 10
-209.34699999999989
 20
-270.67599999999982
 30
0.0
 70
    32
  0
VERTEX
  5
1535
  8
OUTLINE
 10
-210.36699999999999
 20
-270.053
 30
0.0
 70
    32
  0
VERTEX
  5
1536
  8
OUTLINE
 10
-211.374
 20
-269.42700000000002
 30
0.0
 70
    32
  0
VERTEX
  5
1537
  8
OUTLINE
 10
-212.36799999999991
 20
-268.79599999999988
 30
0.0
 70
    32
  0
VERTEX
  5
1538
  8
OUTLINE
 10
-213.34699999999989
 20
-268.16000000000003
 30
0.0
 70
    32
  0
VERTEX
  5
1539
  8
OUTLINE
 10
-214.31200000000001
 20
-267.51999999999992
 30
0.0
 70
    32
  0
VERTEX
  5
153A
  8
OUTLINE
 10
-215.26300000000001
 20
-266.875
 30
0.0
 70
    32
  0
VERTEX
  5
153B
  8
OUTLINE
 10
-216.19799999999981
 20
-266.22599999999977
 30
0.0
 70
    32
  0
VERTEX
  5
153C
  8
OUTLINE
 10
-217.11699999999999
 20
-265.57099999999991
 30
0.0
 70
    32
  0
VERTEX
  5
153D
  8
OUTLINE
 10
-218.0209999999999
 20
-264.91099999999989
 30
0.0
 70
    32
  0
VERTEX
  5
153E
  8
OUTLINE
 10
-218.90799999999999
 20
-264.24599999999992
 30
0.0
 70
    32
  0
VERTEX
  5
153F
  8
OUTLINE
 10
-219.779
 20
-263.57499999999987
 30
0.0
 70
    32
  0
VERTEX
  5
1540
  8
OUTLINE
 10
-220.63200000000001
 20
-262.89899999999989
 30
0.0
 70
    32
  0
VERTEX
  5
1541
  8
OUTLINE
 10
-221.46700000000001
 20
-262.21800000000002
 30
0.0
 70
    32
  0
VERTEX
  5
1542
  8
OUTLINE
 10
-222.285
 20
-261.52999999999992
 30
0.0
 70
    32
  0
VERTEX
  5
1543
  8
OUTLINE
 10
-223.084
 20
-260.83699999999982
 30
0.0
 70
    32
  0
VERTEX
  5
1544
  8
OUTLINE
 10
-223.864
 20
-260.13799999999992
 30
0.0
 70
    32
  0
VERTEX
  5
1545
  8
OUTLINE
 10
-224.6249999999998
 20
-259.43200000000002
 30
0.0
 70
    32
  0
VERTEX
  5
1546
  8
OUTLINE
 10
-225.3659999999999
 20
-258.721
 30
0.0
 70
    32
  0
VERTEX
  5
1547
  8
OUTLINE
 10
-226.08699999999999
 20
-258.00299999999982
 30
0.0
 70
    32
  0
VERTEX
  5
1548
  8
OUTLINE
 10
-226.7879999999999
 20
-257.27800000000002
 30
0.0
 70
    32
  0
VERTEX
  5
1549
  8
OUTLINE
 10
-227.4669999999999
 20
-256.54700000000003
 30
0.0
 70
    32
  0
VERTEX
  5
154A
  8
OUTLINE
 10
-228.12599999999989
 20
-255.80899999999991
 30
0.0
 70
    32
  0
VERTEX
  5
154B
  8
OUTLINE
 10
-228.76199999999989
 20
-255.06399999999999
 30
0.0
 70
    32
  0
VERTEX
  5
154C
  8
OUTLINE
 10
-229.37700000000001
 20
-254.31200000000001
 30
0.0
 70
    32
  0
VERTEX
  5
154D
  8
OUTLINE
 10
-229.96899999999999
 20
-253.553
 30
0.0
 70
    32
  0
VERTEX
  5
154E
  8
OUTLINE
 10
-230.53699999999989
 20
-252.78700000000001
 30
0.0
 70
    32
  0
VERTEX
  5
154F
  8
OUTLINE
 10
-231.083
 20
-252.01299999999989
 30
0.0
 70
    32
  0
VERTEX
  5
1550
  8
OUTLINE
 10
-231.60499999999999
 20
-251.2319999999998
 30
0.0
 70
    32
  0
VERTEX
  5
1551
  8
OUTLINE
 10
-232.1039999999999
 20
-250.4429999999999
 30
0.0
 70
    32
  0
VERTEX
  5
1552
  8
OUTLINE
 10
-232.58000000000001
 20
-249.64699999999991
 30
0.0
 70
    32
  0
VERTEX
  5
1553
  8
OUTLINE
 10
-233.03399999999999
 20
-248.84200000000001
 30
0.0
 70
    32
  0
VERTEX
  5
1554
  8
OUTLINE
 10
-233.46599999999989
 20
-248.0299999999998
 30
0.0
 70
    32
  0
VERTEX
  5
1555
  8
OUTLINE
 10
-233.87700000000001
 20
-247.21000000000001
 30
0.0
 70
    32
  0
VERTEX
  5
1556
  8
OUTLINE
 10
-234.267
 20
-246.38200000000001
 30
0.0
 70
    32
  0
VERTEX
  5
1557
  8
OUTLINE
 10
-234.6369999999998
 20
-245.5449999999999
 30
0.0
 70
    32
  0
VERTEX
  5
1558
  8
OUTLINE
 10
-234.988
 20
-244.69999999999999
 30
0.0
 70
    32
  0
VERTEX
  5
1559
  8
OUTLINE
 10
-235.31999999999999
 20
-243.84699999999981
 30
0.0
 70
    32
  0
VERTEX
  5
155A
  8
OUTLINE
 10
-235.63200000000001
 20
-242.98599999999999
 30
0.0
 70
    32
  0
VERTEX
  5
155B
  8
OUTLINE
 10
-235.92699999999991
 20
-242.11500000000001
 30
0.0
 70
    32
  0
VERTEX
  5
155C
  8
OUTLINE
 10
-236.20399999999989
 20
-241.23599999999999
 30
0.0
 70
    32
  0
VERTEX
  5
155D
  8
OUTLINE
 10
-236.464
 20
-240.34899999999999
 30
0.0
 70
    32
  0
VERTEX
  5
155E
  8
OUTLINE
 10
-236.708
 20
-239.45199999999991
 30
0.0
 70
    32
  0
VERTEX
  5
155F
  8
OUTLINE
 10
-236.935
 20
-238.547
 30
0.0
 70
    32
  0
VERTEX
  5
1560
  8
OUTLINE
 10
-237.14699999999991
 20
-237.63200000000001
 30
0.0
 70
    32
  0
VERTEX
  5
1561
  8
OUTLINE
 10
-237.34399999999991
 20
-236.70799999999991
 30
0.0
 70
    32
  0
VERTEX
  5
1562
  8
OUTLINE
 10
-237.5269999999999
 20
-235.77499999999981
 30
0.0
 70
    32
  0
VERTEX
  5
1563
  8
OUTLINE
 10
-237.69499999999991
 20
-234.83299999999991
 30
0.0
 70
    32
  0
VERTEX
  5
1564
  8
OUTLINE
 10
-237.84999999999991
 20
-233.8809999999998
 30
0.0
 70
    32
  0
VERTEX
  5
1565
  8
OUTLINE
 10
-237.9919999999999
 20
-232.9199999999999
 30
0.0
 70
    32
  0
VERTEX
  5
1566
  8
OUTLINE
 10
-238.1209999999999
 20
-231.94900000000001
 30
0.0
 70
    32
  0
VERTEX
  5
1567
  8
OUTLINE
 10
-238.23799999999989
 20
-230.9679999999999
 30
0.0
 70
    32
  0
VERTEX
  5
1568
  8
OUTLINE
 10
-238.34399999999991
 20
-229.9769999999998
 30
0.0
 70
    32
  0
VERTEX
  5
1569
  8
OUTLINE
 10
-238.43899999999991
 20
-228.9769999999998
 30
0.0
 70
    32
  0
VERTEX
  5
156A
  8
OUTLINE
 10
-238.524
 20
-227.96600000000001
 30
0.0
 70
    32
  0
VERTEX
  5
156B
  8
OUTLINE
 10
-238.59899999999999
 20
-226.94499999999991
 30
0.0
 70
    32
  0
VERTEX
  5
156C
  8
OUTLINE
 10
-238.6639999999999
 20
-225.9139999999999
 30
0.0
 70
    32
  0
VERTEX
  5
156D
  8
OUTLINE
 10
-238.71999999999991
 20
-224.87299999999999
 30
0.0
 70
    32
  0
VERTEX
  5
156E
  8
OUTLINE
 10
-238.768
 20
-223.821
 30
0.0
 70
    32
  0
VERTEX
  5
156F
  8
OUTLINE
 10
-238.80799999999991
 20
-222.7589999999999
 30
0.0
 70
    32
  0
VERTEX
  5
1570
  8
OUTLINE
 10
-238.84099999999989
 20
-221.68599999999989
 30
0.0
 70
    32
  0
VERTEX
  5
1571
  8
OUTLINE
 10
-238.8659999999999
 20
-220.6019999999998
 30
0.0
 70
    32
  0
VERTEX
  5
1572
  8
OUTLINE
 10
-238.886
 20
-219.50800000000001
 30
0.0
 70
    32
  0
VERTEX
  5
1573
  8
OUTLINE
 10
-238.899
 20
-218.4019999999999
 30
0.0
 70
    32
  0
VERTEX
  5
1574
  8
OUTLINE
 10
-238.9079999999999
 20
-217.28599999999989
 30
0.0
 70
    32
  0
VERTEX
  5
1575
  8
OUTLINE
 10
-238.9109999999998
 20
-216.1579999999999
 30
0.0
 70
    32
  0
VERTEX
  5
1576
  8
OUTLINE
 10
-238.91
 20
-215.0199999999999
 30
0.0
 70
    32
  0
VERTEX
  5
1577
  8
OUTLINE
 10
-238.905
 20
-213.87
 30
0.0
 70
    32
  0
VERTEX
  5
1578
  8
OUTLINE
 10
-238.89699999999999
 20
-212.7079999999998
 30
0.0
 70
    32
  0
VERTEX
  5
1579
  8
OUTLINE
 10
-238.887
 20
-211.5349999999998
 30
0.0
 70
    32
  0
VERTEX
  5
157A
  8
OUTLINE
 10
-238.874
 20
-210.35099999999991
 30
0.0
 70
    32
  0
VERTEX
  5
157B
  8
OUTLINE
 10
-238.85900000000001
 20
-209.154
 30
0.0
 70
    32
  0
VERTEX
  5
157C
  8
OUTLINE
 10
-238.84299999999999
 20
-207.946
 30
0.0
 70
    32
  0
VERTEX
  5
157D
  8
OUTLINE
 10
-238.82599999999991
 20
-206.726
 30
0.0
 70
    32
  0
VERTEX
  5
157E
  8
OUTLINE
 10
-238.809
 20
-205.495
 30
0.0
 70
    32
  0
VERTEX
  5
157F
  8
OUTLINE
 10
-238.792
 20
-204.25099999999989
 30
0.0
 70
    32
  0
VERTEX
  5
1580
  8
OUTLINE
 10
-238.7759999999999
 20
-202.994
 30
0.0
 70
    32
  0
VERTEX
  5
1581
  8
OUTLINE
 10
-238.762
 20
-201.72599999999991
 30
0.0
 70
    32
  0
VERTEX
  5
1582
  8
OUTLINE
 10
-238.749
 20
-200.44499999999991
 30
0.0
 70
    32
  0
VERTEX
  5
1583
  8
OUTLINE
 10
-238.7379999999998
 20
-199.1519999999999
 30
0.0
 70
    32
  0
VERTEX
  5
1584
  8
OUTLINE
 10
-238.73099999999991
 20
-197.84599999999989
 30
0.0
 70
    32
  0
VERTEX
  5
1585
  8
OUTLINE
 10
-238.72599999999991
 20
-196.5269999999999
 30
0.0
 70
    32
  0
VERTEX
  5
1586
  8
OUTLINE
 10
-238.72599999999991
 20
-195.19599999999991
 30
0.0
 70
    32
  0
VERTEX
  5
1587
  8
OUTLINE
 10
-238.7299999999999
 20
-193.8519999999998
 30
0.0
 70
    32
  0
VERTEX
  5
1588
  8
OUTLINE
 10
-238.7379999999998
 20
-192.494
 30
0.0
 70
    32
  0
VERTEX
  5
1589
  8
OUTLINE
 10
-238.7529999999999
 20
-191.124
 30
0.0
 70
    32
  0
VERTEX
  5
158A
  8
OUTLINE
 10
-238.77299999999991
 20
-189.7409999999999
 30
0.0
 70
    32
  0
VERTEX
  5
158B
  8
OUTLINE
 10
-238.79900000000001
 20
-188.34399999999999
 30
0.0
 70
    32
  0
VERTEX
  5
158C
  8
OUTLINE
 10
-238.83299999999991
 20
-186.93399999999991
 30
0.0
 70
    32
  0
VERTEX
  5
158D
  8
OUTLINE
 10
-238.87299999999991
 20
-185.50999999999999
 30
0.0
 70
    32
  0
VERTEX
  5
158E
  8
OUTLINE
 10
-238.92199999999991
 20
-184.07299999999981
 30
0.0
 70
    32
  0
VERTEX
  5
158F
  8
OUTLINE
 10
-238.97900000000001
 20
-182.62299999999991
 30
0.0
 70
    32
  0
VERTEX
  5
1590
  8
OUTLINE
 10
-239.04599999999999
 20
-181.15799999999999
 30
0.0
 70
    32
  0
VERTEX
  5
1591
  8
OUTLINE
 10
-239.12100000000001
 20
-179.68000000000001
 30
0.0
 70
    32
  0
VERTEX
  5
1592
  8
OUTLINE
 10
-239.20699999999991
 20
-178.1879999999999
 30
0.0
 70
    32
  0
VERTEX
  5
1593
  8
OUTLINE
 10
-239.30299999999991
 20
-176.6819999999999
 30
0.0
 70
    32
  0
VERTEX
  5
1594
  8
OUTLINE
 10
-239.40999999999991
 20
-175.16099999999989
 30
0.0
 70
    32
  0
VERTEX
  5
1595
  8
OUTLINE
 10
-239.529
 20
-173.6269999999999
 30
0.0
 70
    32
  0
VERTEX
  5
1596
  8
OUTLINE
 10
-239.6599999999998
 20
-172.0779999999998
 30
0.0
 70
    32
  0
VERTEX
  5
1597
  8
OUTLINE
 10
-239.8029999999998
 20
-170.51400000000001
 30
0.0
 70
    32
  0
VERTEX
  5
1598
  8
OUTLINE
 10
-239.95899999999989
 20
-168.93700000000001
 30
0.0
 70
    32
  0
VERTEX
  5
1599
  8
OUTLINE
 10
-240.12899999999991
 20
-167.34399999999999
 30
0.0
 70
    32
  0
VERTEX
  5
159A
  8
OUTLINE
 10
-240.3129999999999
 20
-165.73699999999991
 30
0.0
 70
    32
  0
VERTEX
  5
159B
  8
OUTLINE
 10
-240.511
 20
-164.11500000000001
 30
0.0
 70
    32
  0
VERTEX
  5
159C
  8
OUTLINE
 10
-240.72499999999991
 20
-162.47799999999981
 30
0.0
 70
    32
  0
VERTEX
  5
159D
  8
OUTLINE
 10
-240.95400000000001
 20
-160.82599999999999
 30
0.0
 70
    32
  0
VERTEX
  5
159E
  8
OUTLINE
 10
-241.19900000000001
 20
-159.15899999999999
 30
0.0
 70
    32
  0
VERTEX
  5
159F
  8
OUTLINE
 10
-241.4609999999999
 20
-157.4769999999998
 30
0.0
 70
    32
  0
VERTEX
  5
15A0
  8
OUTLINE
 10
-241.74000000000001
 20
-155.77899999999991
 30
0.0
 70
    32
  0
VERTEX
  5
15A1
  8
OUTLINE
 10
-242.03700000000001
 20
-154.066
 30
0.0
 70
    32
  0
VERTEX
  5
15A2
  8
OUTLINE
 10
-242.35199999999989
 20
-152.33799999999991
 30
0.0
 70
    32
  0
VERTEX
  5
15A3
  8
OUTLINE
 10
-242.68499999999989
 20
-150.59399999999999
 30
0.0
 70
    32
  0
SEQEND
  5
15A4
  8
OUTLINE
  0
LINE
  5
15A5
  8
OUTLINE
  6
CONTINUOUS
 10
0.0
 20
-25.0
 30
0.0
 11
0.0
 21
-298.0
 31
0.0
  0
LINE
  5
15A6
  8
OUTLINE
  6
CONTINUOUS
 10
0.0
 20
-298.0
 30
0.0
 11
-152.99329678783511
 21
-298.0
 31
0.0
  0
ARC
  5
15A7
  8
OUTLINE
  6
CONTINUOUS
 10
-25.0
 20
-25.0
 30
0.0
 40
25.0
 50
0.000000000000007
 51
90.0
  0
ARC
  5
15A8
  8
OUTLINE
  6
CONTINUOUS
 10
-25.0
 20
-25.0
 30
0.0
 40
25.0
 50
0.000000000000007
 51
90.0
  0
ARC
  5
15A9
  8
OUTLINE
  6
CONTINUOUS
 10
-142.9138733142008
 20
-102.94828192112919
 30
0.0
 40
110.564197642754
 50
120.25979597655279
 51
205.52652397708661
  0
ARC
  5
15AA
  8
OUTLINE
  6
CONTINUOUS
 10
-137.6550299999999
 20
-238.8798799999999
 30
0.0
 40
239.32899
 50
93.510623999999368
 51
104.7601280000035
  0
LINE
  5
15AB
  8
OUTLINE
  6
CONTINUOUS
 10
-25.0
 20
-0.0000000000002274
 30
0.0
 11
-152.31000799999981
 21
0.0
 31
0.0
  0
ENDSEC
  0
EOF
