  0
SECTION
  2
HEADER
  9
$ACADVER
  1
AC1009
  9
$INSBASE
 10
0.0
 20
0.0
 30
0.0
  9
$EXTMIN
 10
-967.92245999999955
 20
-509.36497745244912
 30
0.0
  9
$EXTMAX
 10
1020.878898062939
 20
651.38988903062875
 30
0.0
  9
$LIMMIN
 10
-2428.899553052323
 20
-3385.7899241372602
  9
$LIMMAX
 10
5476.8888439526536
 20
849.23357081275742
  9
$ORTHOMODE
 70
     1
  9
$REGENMODE
 70
     1
  9
$FILLMODE
 70
     1
  9
$QTEXTMODE
 70
     0
  9
$MIRRTEXT
 70
     0
  9
$DRAGMODE
 70
     2
  9
$LTSCALE
 40
20.0
  9
$OSMODE
 70
    37
  9
$ATTMODE
 70
     1
  9
$TEXTSIZE
 40
64.0
  9
$TRACEWID
 40
0.05
  9
$TEXTSTYLE
  7
STANDARD
  9
$CLAYER
  8
SIZE
  9
$CELTYPE
  6
CONTINUOUS
  9
$CECOLOR
 62
   256
  9
$DIMSCALE
 40
1.0
  9
$DIMASZ
 40
10.0
  9
$DIMEXO
 40
20.0
  9
$DIMDLI
 40
200.0
  9
$DIMRND
 40
0.0
  9
$DIMDLE
 40
0.0
  9
$DIMEXE
 40
30.0
  9
$DIMTP
 40
0.0
  9
$DIMTM
 40
0.0
  9
$DIMTXT
 40
64.0
  9
$DIMCEN
 40
0.09
  9
$DIMTSZ
 40
0.0
  9
$DIMTOL
 70
     0
  9
$DIMLIM
 70
     0
  9
$DIMTIH
 70
     0
  9
$DIMTOH
 70
     0
  9
$DIMSE1
 70
     0
  9
$DIMSE2
 70
     0
  9
$DIMTAD
 70
     1
  9
$DIMZIN
 70
     8
  9
$DIMBLK
  1
ORIGIN
  9
$DIMASO
 70
     1
  9
$DIMSHO
 70
     0
  9
$DIMPOST
  1

  9
$DIMAPOST
  1

  9
$DIMALT
 70
     0
  9
$DIMALTD
 70
     2
  9
$DIMALTF
 40
25.399999999999999
  9
$DIMLFAC
 40
1.0
  9
$DIMTOFL
 70
     1
  9
$DIMTVP
 40
0.0
  9
$DIMTIX
 70
     0
  9
$DIMSOXD
 70
     0
  9
$DIMSAH
 70
     0
  9
$DIMBLK1
  1

  9
$DIMBLK2
  1

  9
$DIMSTYLE
  2
STANDARD
  9
$DIMCLRD
 70
     0
  9
$DIMCLRE
 70
     0
  9
$DIMCLRT
 70
     0
  9
$DIMTFAC
 40
1.0
  9
$DIMGAP
 40
20.0
  9
$LUNITS
 70
     2
  9
$LUPREC
 70
     4
  9
$SKETCHINC
 40
0.1
  9
$FILLETRAD
 40
5.0
  9
$AUNITS
 70
     1
  9
$AUPREC
 70
     3
  9
$MENU
  1
ACAD
  9
$ELEVATION
 40
0.0
  9
$PELEVATION
 40
0.0
  9
$THICKNESS
 40
0.0
  9
$LIMCHECK
 70
     0
  9
$BLIPMODE
 70
     0
  9
$CHAMFERA
 40
0.0
  9
$CHAMFERB
 40
0.0
  9
$SKPOLY
 70
     0
  9
$TDCREATE
 40
2450330.3932059952
  9
$TDUPDATE
 40
2453182.511561227
  9
$TDINDWG
 40
0.3830041782
  9
$TDUSRTIMER
 40
0.3830041782
  9
$USRTIMER
 70
     1
  9
$ANGBASE
 50
0.0
  9
$ANGDIR
 70
     0
  9
$PDMODE
 70
     3
  9
$PDSIZE
 40
-2.0
  9
$PLINEWID
 40
0.0
  9
$COORDS
 70
     1
  9
$SPLFRAME
 70
     0
  9
$SPLINETYPE
 70
     6
  9
$SPLINESEGS
 70
     8
  9
$ATTDIA
 70
     0
  9
$ATTREQ
 70
     1
  9
$HANDLING
 70
 10241
  9
$HANDSEED
  5
1018
  9
$SURFTAB1
 70
     6
  9
$SURFTAB2
 70
     6
  9
$SURFTYPE
 70
     6
  9
$SURFU
 70
     6
  9
$SURFV
 70
     6
  9
$UCSNAME
  2

  9
$UCSORG
 10
0.0
 20
0.0
 30
0.0
  9
$UCSXDIR
 10
1.0
 20
0.0
 30
0.0
  9
$UCSYDIR
 10
0.0
 20
1.0
 30
0.0
  9
$PUCSNAME
  2

  9
$PUCSORG
 10
0.0
 20
0.0
 30
0.0
  9
$PUCSXDIR
 10
1.0
 20
0.0
 30
0.0
  9
$PUCSYDIR
 10
0.0
 20
1.0
 30
0.0
  9
$USERI1
 70
     0
  9
$USERI2
 70
     0
  9
$USERI3
 70
     0
  9
$USERI4
 70
     0
  9
$USERI5
 70
     0
  9
$USERR1
 40
20.0
  9
$USERR2
 40
0.0
  9
$USERR3
 40
0.0
  9
$USERR4
 40
0.0
  9
$USERR5
 40
0.0
  9
$WORLDVIEW
 70
     1
  9
$SHADEDGE
 70
     3
  9
$SHADEDIF
 70
    70
  9
$TILEMODE
 70
     1
  9
$MAXACTVP
 70
    64
  9
$PLIMCHECK
 70
     0
  9
$PEXTMIN
 10
1.0000000000000000E+020
 20
1.0000000000000000E+020
 30
1.0000000000000000E+020
  9
$PEXTMAX
 10
-1.0000000000000000E+020
 20
-1.0000000000000000E+020
 30
-1.0000000000000000E+020
  9
$PLIMMIN
 10
0.0
 20
0.0
  9
$PLIMMAX
 10
12.0
 20
9.0
  9
$UNITMODE
 70
     0
  9
$VISRETAIN
 70
     1
  9
$PLINEGEN
 70
     0
  9
$PSLTSCALE
 70
     1
  0
ENDSEC
  0
SECTION
  2
TABLES
  0
TABLE
  2
VPORT
 70
     2
  0
VPORT
  2
*ACTIVE
 70
     0
 10
0.0
 20
0.0
 11
1.0
 21
1.0
 12
277.85183479525898
 22
-16.680417873783991
 13
0.0
 23
0.0
 14
50.0
 24
50.0
 15
100.0
 25
100.0
 16
0.0
 26
0.0
 36
1.0
 17
0.0
 27
0.0
 37
0.0
 40
2018.4267544952149
 41
1.5139593908629441
 42
50.0
 43
0.0
 44
0.0
 50
0.0
 51
0.0
 71
     0
 72
   500
 73
     1
 74
     0
 75
     0
 76
     0
 77
     0
 78
     0
  0
ENDTAB
  0
TABLE
  2
LTYPE
 70
    15
  0
LTYPE
  2
CONTINUOUS
 70
     0
  3
実線
 72
    65
 73
     0
 40
0.0
  0
LTYPE
  2
DASHDOT
 70
     0
  3
____ _ ____ _ ____ _ ____ _ ____ _ ____ _ ____
 72
    65
 73
     4
 40
5.5
 49
4.0
 49
-0.6
 49
0.3
 49
-0.6
  0
LTYPE
  2
CONTINOUS
 70
     0
  3
Solid line
 72
    65
 73
     0
 40
0.0
  0
LTYPE
  2
BORDER
 70
     0
  3
BORDER
 72
    65
 73
     6
 40
1.75
 49
0.5
 49
-0.25
 49
0.5
 49
-0.25
 49
0.0
 49
-0.25
  0
LTYPE
  2
CENTER
 70
     0
  3
CENTER
 72
    65
 73
     4
 40
2.0
 49
1.25
 49
-0.25
 49
0.25
 49
-0.25
  0
LTYPE
  2
DASHED
 70
     0
  3
DASHED
 72
    65
 73
     2
 40
0.75
 49
0.5
 49
-0.25
  0
LTYPE
  2
DIVIDE
 70
     0
  3
DIVIDE
 72
    65
 73
     6
 40
1.25
 49
0.5
 49
-0.25
 49
0.0
 49
-0.25
 49
0.0
 49
-0.25
  0
LTYPE
  2
DOT
 70
     0
  3
DOT
 72
    65
 73
     2
 40
0.25
 49
0.0
 49
-0.25
  0
LTYPE
  2
HIDDEN
 70
     0
  3
HIDDEN
 72
    65
 73
     2
 40
0.375
 49
0.25
 49
-0.125
  0
LTYPE
  2
PHANTOM
 70
     0
  3
PHANTOM
 72
    65
 73
     6
 40
2.5
 49
1.25
 49
-0.25
 49
0.25
 49
-0.25
 49
0.25
 49
-0.25
  0
LTYPE
  2
$INVISIBLE
 70
     0
  3
$INVISIBLE
 72
    65
 73
     2
 40
200.0
 49
-100.0
 49
-100.0
  0
LTYPE
  2
$MARGINS
 70
     0
  3
$MARGINS
 72
    65
 73
     2
 40
0.075
 49
0.05
 49
-0.025
  0
LTYPE
  2
JLSTYLE_0
 70
     0
  3
JLSTYLE_0
 72
    65
 73
     4
 40
1.0
 49
0.5
 49
-0.25
 49
0.0
 49
-0.25
  0
LTYPE
  2
JLSTYLE_1
 70
     0
  3
JLSTYLE_1
 72
    65
 73
     2
 40
0.75
 49
0.5
 49
-0.25
  0
LTYPE
  2
JLSTYLE_2
 70
     0
  3
JLSTYLE_2
 72
    65
 73
     6
 40
1.25
 49
0.5
 49
-0.25
 49
0.0
 49
-0.25
 49
0.0
 49
-0.25
  0
ENDTAB
  0
TABLE
  2
LAYER
 70
    13
  0
LAYER
  2
0
 70
     0
 62
     7
  6
CONTINUOUS
  0
LAYER
  2
SIZE
 70
     0
 62
    32
  6
CONTINUOUS
  0
LAYER
  2
DETAIL
 70
     0
 62
     5
  6
CONTINUOUS
  0
LAYER
  2
OUTLINE
 70
     0
 62
     3
  6
CONTINUOUS
  0
LAYER
  2
BASIS
 70
     0
 62
     6
  6
CONTINUOUS
  0
LAYER
  2
NOTE
 70
     0
 62
     4
  6
CONTINUOUS
  0
LAYER
  2
ARRANGE
 70
     0
 62
     1
  6
CONTINUOUS
  0
LAYER
  2
FIX
 70
     0
 62
   241
  6
CONTINUOUS
  0
LAYER
  2
ETC
 70
     0
 62
    83
  6
CONTINUOUS
  0
LAYER
  2
SERVICESPACE
 70
     0
 62
     2
  6
CONTINUOUS
  0
LAYER
  2
SYMBOLLINE
 70
     0
 62
    38
  6
CONTINUOUS
  0
LAYER
  2
DEFPOINTS
 70
     0
 62
     7
  6
CONTINUOUS
  0
LAYER
  2
SERVICE_SPACE
 70
     0
 62
     2
  6
CONTINUOUS
  0
ENDTAB
  0
TABLE
  2
STYLE
 70
     1
  0
STYLE
  2
STANDARD
 70
     0
 40
0.0
 41
0.9
 50
0.0
 71
     0
 42
64.0
  3
SIMPLEX
  4
BIGFONT
  0
ENDTAB
  0
TABLE
  2
VIEW
 70
     1
  0
VIEW
  2
ALL
 70
     0
 40
4282.6199999999999
 10
0.0
 20
41.309903999999989
 41
5940.0
 11
0.0
 21
0.0
 31
1.0
 12
0.0
 22
0.0
 32
0.0
 42
50.0
 43
0.0
 44
0.0
 50
0.0
 71
     0
  0
ENDTAB
  0
TABLE
  2
UCS
 70
     0
  0
ENDTAB
  0
TABLE
  2
APPID
 70
     1
  0
APPID
  2
ACAD
 70
     0
  0
ENDTAB
  0
TABLE
  2
DIMSTYLE
 70
     1
  0
DIMSTYLE
  2
STANDARD
 70
     0
  3

  4

  5

  6

  7

 40
1.0
 41
0.18
 42
0.0625
 43
0.38
 44
0.18
 45
0.0
 46
0.0
 47
0.0
 48
0.0
140
0.18
141
0.09
142
0.0
143
25.399999999999999
144
1.0
145
0.0
146
1.0
147
0.09
 71
     0
 72
     0
 73
     1
 74
     1
 75
     0
 76
     0
 77
     0
 78
     0
170
     0
171
     2
172
     0
173
     0
174
     0
175
     0
176
     0
177
     0
178
     0
  0
ENDTAB
  0
ENDSEC
  0
SECTION
  2
BLOCKS
  0
BLOCK
  8
0
  2
$MODEL_SPACE
 70
     0
 10
0.0
 20
0.0
 30
0.0
  3
$MODEL_SPACE
  1

  0
ENDBLK
  5
D3D
  8
0
  0
BLOCK
 67
     1
  8
0
  2
$PAPER_SPACE
 70
     0
 10
0.0
 20
0.0
 30
0.0
  3
$PAPER_SPACE
  1

  0
ENDBLK
  5
D39
 67
     1
  8
0
  0
BLOCK
  8
0
  2
_ORIGIN
 70
     0
 10
0.0
 20
0.0
 30
0.0
  3
_ORIGIN
  1

  0
CIRCLE
  5
D66
  8
0
  6
BYBLOCK
 62
     0
 10
0.0
 20
0.0
 30
0.0
 40
0.5
  0
LINE
  5
D67
  8
0
  6
BYBLOCK
 62
     0
 10
0.0
 20
0.0
 30
0.0
 11
-1.0
 21
0.0
 31
0.0
  0
ENDBLK
  5
D68
  8
0
  0
BLOCK
  8
0
  2
*D3
 70
     1
 10
0.0
 20
0.0
 30
0.0
  3
*D3
  1

  0
LINE
  5
D6B
  8
SIZE
  6
CONTINUOUS
 62
     0
 10
-420.0
 20
-253.0
 30
0.0
 11
-420.0
 21
-509.36497745244912
 31
0.0
  0
LINE
  5
D6C
  8
SIZE
  6
CONTINUOUS
 62
     0
 10
420.0
 20
-253.0
 30
0.0
 11
420.0
 21
-509.36497745244912
 31
0.0
  0
LINE
  5
D6D
  8
SIZE
  6
CONTINUOUS
 62
     0
 10
-410.0
 20
-479.36497745244912
 30
0.0
 11
410.0
 21
-479.36497745244912
 31
0.0
  0
INSERT
  5
D6E
  8
SIZE
  6
CONTINUOUS
 62
     0
  2
_ORIGIN
 10
-420.0
 20
-479.36497745244912
 30
0.0
 41
10.0
 42
10.0
 43
10.0
 50
180.0
  0
INSERT
  5
D6F
  8
SIZE
  6
CONTINUOUS
 62
     0
  2
_ORIGIN
 10
420.0
 20
-479.36497745244912
 30
0.0
 41
10.0
 42
10.0
 43
10.0
  0
TEXT
  5
D70
  8
SIZE
  6
CONTINUOUS
 62
     0
 10
-74.057142857142864
 20
-459.36497745244912
 30
0.0
 40
64.0
  1
840
 41
0.9
  0
POINT
  5
D71
  8
DEFPOINTS
  6
CONTINUOUS
 62
     0
 10
-420.0
 20
-233.0
 30
0.0
  0
POINT
  5
D72
  8
DEFPOINTS
  6
CONTINUOUS
 62
     0
 10
420.0
 20
-233.0
 30
0.0
  0
POINT
  5
D73
  8
DEFPOINTS
  6
CONTINUOUS
 62
     0
 10
420.0
 20
-479.36497745244912
 30
0.0
  0
ENDBLK
  5
D74
  8
0
  0
BLOCK
  8
0
  2
*D4
 70
     1
 10
0.0
 20
0.0
 30
0.0
  3
*D4
  1

  0
LINE
  5
D77
  8
SIZE
  6
CONTINUOUS
 62
     0
 10
0.0000000000000012
 20
71.79273000000002
 30
0.0
 11
0.0000000000000138
 21
277.66770401076423
 31
0.0
  0
LINE
  5
D78
  8
SIZE
  6
CONTINUOUS
 62
     0
 10
-352.0
 20
40.0
 30
0.0
 11
-352.0
 21
277.66770401076423
 31
0.0
  0
LINE
  5
D79
  8
SIZE
  6
CONTINUOUS
 62
     0
 10
-9.9999999999999876
 20
247.66770401076431
 30
0.0
 11
-342.0
 21
247.66770401076431
 31
0.0
  0
INSERT
  5
D7A
  8
SIZE
  6
CONTINUOUS
 62
     0
  2
_ORIGIN
 10
0.000000000000012
 20
247.66770401076431
 30
0.0
 41
10.0
 42
10.0
 43
10.0
  0
INSERT
  5
D7B
  8
SIZE
  6
CONTINUOUS
 62
     0
  2
_ORIGIN
 10
-352.0
 20
247.66770401076431
 30
0.0
 41
10.0
 42
10.0
 43
10.0
 50
180.0
  0
TEXT
  5
D7C
  8
SIZE
  6
CONTINUOUS
 62
     0
 10
-250.05714285714279
 20
267.66770401076423
 30
0.0
 40
64.0
  1
352
 41
0.9
  0
POINT
  5
D7D
  8
DEFPOINTS
  6
CONTINUOUS
 62
     0
 10
0.0
 20
51.792729999999999
 30
0.0
  0
POINT
  5
D7E
  8
DEFPOINTS
  6
CONTINUOUS
 62
     0
 10
-352.0
 20
20.0
 30
0.0
  0
POINT
  5
D7F
  8
DEFPOINTS
  6
CONTINUOUS
 62
     0
 10
-352.0
 20
247.66770401076431
 30
0.0
  0
ENDBLK
  5
D80
  8
0
  0
BLOCK
  8
0
  2
*D5
 70
     1
 10
0.0
 20
0.0
 30
0.0
  3
*D5
  1

  0
LINE
  5
D83
  8
SIZE
  6
CONTINUOUS
 62
     0
 10
0.0000000000000012
 20
71.79273000000002
 30
0.0
 11
0.0000000000000138
 21
277.66770401076423
 31
0.0
  0
LINE
  5
D84
  8
SIZE
  6
CONTINUOUS
 62
     0
 10
337.0
 20
40.0
 30
0.0
 11
337.0
 21
277.66770401076423
 31
0.0
  0
LINE
  5
D85
  8
SIZE
  6
CONTINUOUS
 62
     0
 10
10.000000000000011
 20
247.66770401076431
 30
0.0
 11
327.0
 21
247.66770401076431
 31
0.0
  0
INSERT
  5
D86
  8
SIZE
  6
CONTINUOUS
 62
     0
  2
_ORIGIN
 10
0.000000000000012
 20
247.66770401076431
 30
0.0
 41
10.0
 42
10.0
 43
10.0
 50
180.0
  0
INSERT
  5
D87
  8
SIZE
  6
CONTINUOUS
 62
     0
  2
_ORIGIN
 10
337.0
 20
247.66770401076431
 30
0.0
 41
10.0
 42
10.0
 43
10.0
  0
TEXT
  5
D88
  8
SIZE
  6
CONTINUOUS
 62
     0
 10
94.442857142857136
 20
267.66770401076423
 30
0.0
 40
64.0
  1
337
 41
0.9
  0
POINT
  5
D89
  8
DEFPOINTS
  6
CONTINUOUS
 62
     0
 10
0.0
 20
51.792729999999999
 30
0.0
  0
POINT
  5
D8A
  8
DEFPOINTS
  6
CONTINUOUS
 62
     0
 10
337.0
 20
20.0
 30
0.0
  0
POINT
  5
D8B
  8
DEFPOINTS
  6
CONTINUOUS
 62
     0
 10
337.0
 20
247.66770401076431
 30
0.0
  0
ENDBLK
  5
D8C
  8
0
  0
BLOCK
  8
0
  2
*D6
 70
     1
 10
0.0
 20
0.0
 30
0.0
  3
*D6
  1

  0
LINE
  5
D8F
  8
SIZE
  6
CONTINUOUS
 62
     0
 10
-352.0
 20
40.0
 30
0.0
 11
-352.0
 21
277.66770401076423
 31
0.0
  0
LINE
  5
D90
  8
SIZE
  6
CONTINUOUS
 62
     0
 10
-420.0
 20
-29.808365678619531
 30
0.0
 11
-420.0
 21
277.66770401076423
 31
0.0
  0
LINE
  5
D91
  8
SIZE
  6
CONTINUOUS
 62
     0
 10
-342.0
 20
247.66770401076431
 30
0.0
 11
-332.0
 21
247.66770401076431
 31
0.0
  0
LINE
  5
D92
  8
SIZE
  6
CONTINUOUS
 62
     0
 10
-430.0
 20
247.66770401076431
 30
0.0
 11
-573.25714285714275
 21
247.66770401076431
 31
0.0
  0
LINE
  5
D93
  8
SIZE
  6
CONTINUOUS
 62
     0
 10
-352.0
 20
247.66770401076431
 30
0.0
 11
-420.0
 21
247.66770401076431
 31
0.0
  0
INSERT
  5
D94
  8
SIZE
  6
CONTINUOUS
 62
     0
  2
_ORIGIN
 10
-352.0
 20
247.66770401076431
 30
0.0
 41
10.0
 42
10.0
 43
10.0
 50
180.0
  0
INSERT
  5
D95
  8
SIZE
  6
CONTINUOUS
 62
     0
  2
_ORIGIN
 10
-420.0
 20
247.66770401076431
 30
0.0
 41
10.0
 42
10.0
 43
10.0
  0
TEXT
  5
D96
  8
SIZE
  6
CONTINUOUS
 62
     0
 10
-553.25714285714275
 20
267.66770401076423
 30
0.0
 40
64.0
  1
68
 41
0.9
  0
POINT
  5
D97
  8
DEFPOINTS
  6
CONTINUOUS
 62
     0
 10
-352.0
 20
20.0
 30
0.0
  0
POINT
  5
D98
  8
DEFPOINTS
  6
CONTINUOUS
 62
     0
 10
-420.0
 20
-49.808365678619531
 30
0.0
  0
POINT
  5
D99
  8
DEFPOINTS
  6
CONTINUOUS
 62
     0
 10
-420.0
 20
247.66770401076431
 30
0.0
  0
ENDBLK
  5
D9A
  8
0
  0
BLOCK
  8
0
  2
*D7
 70
     1
 10
0.0
 20
0.0
 30
0.0
  3
*D7
  1

  0
LINE
  5
D9D
  8
SIZE
  6
CONTINUOUS
 62
     0
 10
337.0
 20
40.0
 30
0.0
 11
337.0
 21
277.66770401076423
 31
0.0
  0
LINE
  5
D9E
  8
SIZE
  6
CONTINUOUS
 62
     0
 10
420.00000000000011
 20
-29.808365678619591
 30
0.0
 11
420.00000000000011
 21
277.66770401076423
 31
0.0
  0
LINE
  5
D9F
  8
SIZE
  6
CONTINUOUS
 62
     0
 10
327.0
 20
247.66770401076431
 30
0.0
 11
317.0
 21
247.66770401076431
 31
0.0
  0
LINE
  5
DA0
  8
SIZE
  6
CONTINUOUS
 62
     0
 10
430.0
 20
247.66770401076431
 30
0.0
 11
573.25714285714287
 21
247.66770401076431
 31
0.0
  0
LINE
  5
DA1
  8
SIZE
  6
CONTINUOUS
 62
     0
 10
337.0
 20
247.66770401076431
 30
0.0
 11
420.00000000000011
 21
247.66770401076431
 31
0.0
  0
INSERT
  5
DA2
  8
SIZE
  6
CONTINUOUS
 62
     0
  2
_ORIGIN
 10
337.0
 20
247.66770401076431
 30
0.0
 41
10.0
 42
10.0
 43
10.0
  0
INSERT
  5
DA3
  8
SIZE
  6
CONTINUOUS
 62
     0
  2
_ORIGIN
 10
420.00000000000011
 20
247.66770401076431
 30
0.0
 41
10.0
 42
10.0
 43
10.0
 50
180.0
  0
TEXT
  5
DA4
  8
SIZE
  6
CONTINUOUS
 62
     0
 10
460.0
 20
267.66770401076423
 30
0.0
 40
64.0
  1
83
 41
0.9
  0
POINT
  5
DA5
  8
DEFPOINTS
  6
CONTINUOUS
 62
     0
 10
337.0
 20
20.0
 30
0.0
  0
POINT
  5
DA6
  8
DEFPOINTS
  6
CONTINUOUS
 62
     0
 10
420.00000000000011
 20
-49.808365678619602
 30
0.0
  0
POINT
  5
DA7
  8
DEFPOINTS
  6
CONTINUOUS
 62
     0
 10
420.00000000000011
 20
247.66770401076431
 30
0.0
  0
ENDBLK
  5
DA8
  8
0
  0
BLOCK
  8
0
  2
*D8
 70
     1
 10
0.0
 20
0.0
 30
0.0
  3
*D8
  1

  0
LINE
  5
DAB
  8
SIZE
  6
CONTINUOUS
 62
     0
 10
-430.0
 20
-1468.6681578089731
 30
0.0
 11
-607.88564535690955
 21
-1468.6681578089731
 31
0.0
  0
LINE
  5
DAC
  8
SIZE
  6
CONTINUOUS
 62
     0
 10
-430.0
 20
-1170.668157808974
 30
0.0
 11
-607.88564535690955
 21
-1170.668157808974
 31
0.0
  0
LINE
  5
DAD
  8
SIZE
  6
CONTINUOUS
 62
     0
 10
-577.88564535690966
 20
-1458.668157808974
 30
0.0
 11
-577.88564535690966
 21
-1180.668157808974
 31
0.0
  0
INSERT
  5
DAE
  8
SIZE
  6
CONTINUOUS
 62
     0
  2
_ORIGIN
 10
-577.88564535690966
 20
-1468.6681578089731
 30
0.0
 41
10.0
 42
10.0
 43
10.0
 50
270.0
  0
INSERT
  5
DAF
  8
SIZE
  6
CONTINUOUS
 62
     0
  2
_ORIGIN
 10
-577.88564535690966
 20
-1170.668157808974
 30
0.0
 41
10.0
 42
10.0
 43
10.0
 50
90.0
  0
TEXT
  5
DB0
  8
SIZE
  6
CONTINUOUS
 62
     0
 10
-597.88564535690955
 20
-1393.725300666116
 30
0.0
 40
64.0
  1
298
 50
90.0
 41
0.9
  0
POINT
  5
DB1
  8
DEFPOINTS
  6
CONTINUOUS
 62
     0
 10
-410.0
 20
-1468.6681578089731
 30
0.0
  0
POINT
  5
DB2
  8
DEFPOINTS
  6
CONTINUOUS
 62
     0
 10
-410.0
 20
-1170.668157808974
 30
0.0
  0
POINT
  5
DB3
  8
DEFPOINTS
  6
CONTINUOUS
 62
     0
 10
-577.88564535690966
 20
-1170.668157808974
 30
0.0
  0
ENDBLK
  5
DB4
  8
0
  0
BLOCK
  8
0
  2
*D9
 70
     1
 10
0.0
 20
0.0
 30
0.0
  3
*D9
  1

  0
LINE
  5
DB7
  8
SIZE
  6
CONTINUOUS
 62
     0
 10
-420.0
 20
-1160.6681578089731
 30
0.0
 11
-420.0
 21
-1002.493004975886
 31
0.0
  0
LINE
  5
DB8
  8
SIZE
  6
CONTINUOUS
 62
     0
 10
420.0
 20
-1160.6681578089731
 30
0.0
 11
420.0
 21
-1002.493004975886
 31
0.0
  0
LINE
  5
DB9
  8
SIZE
  6
CONTINUOUS
 62
     0
 10
-410.0
 20
-1032.4930049758859
 30
0.0
 11
410.0
 21
-1032.4930049758859
 31
0.0
  0
INSERT
  5
DBA
  8
SIZE
  6
CONTINUOUS
 62
     0
  2
_ORIGIN
 10
-420.0
 20
-1032.4930049758859
 30
0.0
 41
10.0
 42
10.0
 43
10.0
 50
180.0
  0
INSERT
  5
DBB
  8
SIZE
  6
CONTINUOUS
 62
     0
  2
_ORIGIN
 10
420.0
 20
-1032.4930049758859
 30
0.0
 41
10.0
 42
10.0
 43
10.0
  0
TEXT
  5
DBC
  8
SIZE
  6
CONTINUOUS
 62
     0
 10
-74.057142857142864
 20
-1012.493004975886
 30
0.0
 40
64.0
  1
840
 41
0.9
  0
POINT
  5
DBD
  8
DEFPOINTS
  6
CONTINUOUS
 62
     0
 10
-420.0
 20
-1180.668157808974
 30
0.0
  0
POINT
  5
DBE
  8
DEFPOINTS
  6
CONTINUOUS
 62
     0
 10
420.0
 20
-1180.668157808974
 30
0.0
  0
POINT
  5
DBF
  8
DEFPOINTS
  6
CONTINUOUS
 62
     0
 10
420.0
 20
-1032.4930049758859
 30
0.0
  0
ENDBLK
  5
DC0
  8
0
  0
BLOCK
  8
0
  2
*D10
 70
     1
 10
0.0
 20
0.0
 30
0.0
  3
*D10
  1

  0
LINE
  5
DC3
  8
SIZE
  6
CONTINUOUS
 62
     0
 10
-1325.3866894535561
 20
-1170.668157808974
 30
0.0
 11
-1836.871079740944
 21
-1170.668157808974
 31
0.0
  0
LINE
  5
DC4
  8
SIZE
  6
CONTINUOUS
 62
     0
 10
-1365.3866894535561
 20
-1468.6681578089731
 30
0.0
 11
-1836.871079740944
 21
-1468.6681578089731
 31
0.0
  0
LINE
  5
DC5
  8
SIZE
  6
CONTINUOUS
 62
     0
 10
-1806.871079740944
 20
-1180.668157808974
 30
0.0
 11
-1806.871079740944
 21
-1458.668157808974
 31
0.0
  0
INSERT
  5
DC6
  8
SIZE
  6
CONTINUOUS
 62
     0
  2
_ORIGIN
 10
-1806.871079740944
 20
-1170.668157808974
 30
0.0
 41
10.0
 42
10.0
 43
10.0
 50
90.0
  0
INSERT
  5
DC7
  8
SIZE
  6
CONTINUOUS
 62
     0
  2
_ORIGIN
 10
-1806.871079740944
 20
-1468.6681578089731
 30
0.0
 41
10.0
 42
10.0
 43
10.0
 50
270.0
  0
TEXT
  5
DC8
  8
SIZE
  6
CONTINUOUS
 62
     0
 10
-1826.8710797409431
 20
-1393.725300666116
 30
0.0
 40
64.0
  1
298
 50
90.0
 41
0.9
  0
POINT
  5
DC9
  8
DEFPOINTS
  6
CONTINUOUS
 62
     0
 10
-1305.3866894535561
 20
-1170.668157808974
 30
0.0
  0
POINT
  5
DCA
  8
DEFPOINTS
  6
CONTINUOUS
 62
     0
 10
-1345.3866894535561
 20
-1468.6681578089731
 30
0.0
  0
POINT
  5
DCB
  8
DEFPOINTS
  6
CONTINUOUS
 62
     0
 10
-1806.871079740944
 20
-1468.6681578089731
 30
0.0
  0
ENDBLK
  5
DCC
  8
0
  0
BLOCK
  8
0
  2
*D11
 70
     1
 10
0.0
 20
0.0
 30
0.0
  3
*D11
  1

  0
LINE
  5
DCF
  8
SIZE
  6
CONTINUOUS
 62
     0
 10
1680.553510123251
 20
-1170.668157808974
 30
0.0
 11
2192.037900410638
 21
-1170.668157808974
 31
0.0
  0
LINE
  5
DD0
  8
SIZE
  6
CONTINUOUS
 62
     0
 10
1720.553510123252
 20
-1468.6681578089731
 30
0.0
 11
2192.037900410638
 21
-1468.6681578089731
 31
0.0
  0
LINE
  5
DD1
  8
SIZE
  6
CONTINUOUS
 62
     0
 10
2162.0379004106398
 20
-1180.668157808974
 30
0.0
 11
2162.0379004106398
 21
-1458.668157808974
 31
0.0
  0
INSERT
  5
DD2
  8
SIZE
  6
CONTINUOUS
 62
     0
  2
_ORIGIN
 10
2162.0379004106398
 20
-1170.668157808974
 30
0.0
 41
10.0
 42
10.0
 43
10.0
 50
90.0
  0
INSERT
  5
DD3
  8
SIZE
  6
CONTINUOUS
 62
     0
  2
_ORIGIN
 10
2162.0379004106398
 20
-1468.6681578089731
 30
0.0
 41
10.0
 42
10.0
 43
10.0
 50
270.0
  0
TEXT
  5
DD4
  8
SIZE
  6
CONTINUOUS
 62
     0
 10
2142.0379004106398
 20
-1393.725300666116
 30
0.0
 40
64.0
  1
298
 50
90.0
 41
0.9
  0
POINT
  5
DD5
  8
DEFPOINTS
  6
CONTINUOUS
 62
     0
 10
1660.553510123252
 20
-1170.668157808974
 30
0.0
  0
POINT
  5
DD6
  8
DEFPOINTS
  6
CONTINUOUS
 62
     0
 10
1700.553510123252
 20
-1468.6681578089731
 30
0.0
  0
POINT
  5
DD7
  8
DEFPOINTS
  6
CONTINUOUS
 62
     0
 10
2162.0379004106398
 20
-1468.6681578089731
 30
0.0
  0
ENDBLK
  5
DD8
  8
0
  0
BLOCK
  8
0
  2
*D12
 70
     1
 10
0.0
 20
0.0
 30
0.0
  3
*D12
  1

  0
LINE
  5
DDB
  8
SIZE
  6
CONTINUOUS
 62
     0
 10
3646.9333408239891
 20
-1160.6681578089731
 30
0.0
 11
3646.9333408239891
 21
-964.67444707061622
 31
0.0
  0
LINE
  5
DDC
  8
SIZE
  6
CONTINUOUS
 62
     0
 10
4486.9333408239891
 20
-1160.6681578089731
 30
0.0
 11
4486.9333408239891
 21
-964.67444707061622
 31
0.0
  0
LINE
  5
DDD
  8
SIZE
  6
CONTINUOUS
 62
     0
 10
3656.9333408239891
 20
-994.674447070616
 30
0.0
 11
4476.9333408239891
 21
-994.674447070616
 31
0.0
  0
INSERT
  5
DDE
  8
SIZE
  6
CONTINUOUS
 62
     0
  2
_ORIGIN
 10
3646.9333408239891
 20
-994.674447070616
 30
0.0
 41
10.0
 42
10.0
 43
10.0
 50
180.0
  0
INSERT
  5
DDF
  8
SIZE
  6
CONTINUOUS
 62
     0
  2
_ORIGIN
 10
4486.9333408239891
 20
-994.674447070616
 30
0.0
 41
10.0
 42
10.0
 43
10.0
  0
TEXT
  5
DE0
  8
SIZE
  6
CONTINUOUS
 62
     0
 10
3992.8761979668461
 20
-974.67444707061588
 30
0.0
 40
64.0
  1
840
 41
0.9
  0
POINT
  5
DE1
  8
DEFPOINTS
  6
CONTINUOUS
 62
     0
 10
3646.9333408239891
 20
-1180.668157808974
 30
0.0
  0
POINT
  5
DE2
  8
DEFPOINTS
  6
CONTINUOUS
 62
     0
 10
4486.9333408239891
 20
-1180.668157808974
 30
0.0
  0
POINT
  5
DE3
  8
DEFPOINTS
  6
CONTINUOUS
 62
     0
 10
4486.9333408239891
 20
-994.674447070616
 30
0.0
  0
ENDBLK
  5
DE4
  8
0
  0
BLOCK
  8
0
  2
*D13
 70
     1
 10
0.0
 20
0.0
 30
0.0
  3
*D13
  1

  0
LINE
  5
DE7
  8
SIZE
  6
CONTINUOUS
 62
     0
 10
4496.9333408239881
 20
-1468.6681578089731
 30
0.0
 11
4843.3578462447331
 21
-1468.6681578089731
 31
0.0
  0
LINE
  5
DE8
  8
SIZE
  6
CONTINUOUS
 62
     0
 10
4496.9333408239881
 20
-1170.668157808974
 30
0.0
 11
4843.3578462447331
 21
-1170.668157808974
 31
0.0
  0
LINE
  5
DE9
  8
SIZE
  6
CONTINUOUS
 62
     0
 10
4813.3578462447331
 20
-1458.668157808974
 30
0.0
 11
4813.3578462447331
 21
-1180.668157808974
 31
0.0
  0
INSERT
  5
DEA
  8
SIZE
  6
CONTINUOUS
 62
     0
  2
_ORIGIN
 10
4813.3578462447331
 20
-1468.6681578089731
 30
0.0
 41
10.0
 42
10.0
 43
10.0
 50
270.0
  0
INSERT
  5
DEB
  8
SIZE
  6
CONTINUOUS
 62
     0
  2
_ORIGIN
 10
4813.3578462447331
 20
-1170.668157808974
 30
0.0
 41
10.0
 42
10.0
 43
10.0
 50
90.0
  0
TEXT
  5
DEC
  8
SIZE
  6
CONTINUOUS
 62
     0
 10
4793.3578462447331
 20
-1393.725300666116
 30
0.0
 40
64.0
  1
298
 50
90.0
 41
0.9
  0
POINT
  5
DED
  8
DEFPOINTS
  6
CONTINUOUS
 62
     0
 10
4476.9333408239891
 20
-1468.6681578089731
 30
0.0
  0
POINT
  5
DEE
  8
DEFPOINTS
  6
CONTINUOUS
 62
     0
 10
4476.9333408239891
 20
-1170.668157808974
 30
0.0
  0
POINT
  5
DEF
  8
DEFPOINTS
  6
CONTINUOUS
 62
     0
 10
4813.3578462447331
 20
-1170.668157808974
 30
0.0
  0
ENDBLK
  5
DF0
  8
0
  0
BLOCK
  8
0
  2
*D14
 70
     1
 10
0.0
 20
0.0
 30
0.0
  3
*D14
  1

  0
LINE
  5
DF3
  8
SIZE
  6
CONTINUOUS
 62
     0
 10
4066.9333408239891
 20
-1524.573416190229
 30
0.0
 11
4066.9333408239891
 21
-1770.483104401475
 31
0.0
  0
LINE
  5
DF4
  8
SIZE
  6
CONTINUOUS
 62
     0
 10
3729.9333408239881
 20
-1466.668157808974
 30
0.0
 11
3729.9333408239881
 21
-1770.483104401475
 31
0.0
  0
LINE
  5
DF5
  8
SIZE
  6
CONTINUOUS
 62
     0
 10
4056.9333408239891
 20
-1740.483104401475
 30
0.0
 11
3739.9333408239891
 21
-1740.483104401475
 31
0.0
  0
INSERT
  5
DF6
  8
SIZE
  6
CONTINUOUS
 62
     0
  2
_ORIGIN
 10
4066.9333408239891
 20
-1740.483104401475
 30
0.0
 41
10.0
 42
10.0
 43
10.0
  0
INSERT
  5
DF7
  8
SIZE
  6
CONTINUOUS
 62
     0
  2
_ORIGIN
 10
3729.9333408239881
 20
-1740.483104401475
 30
0.0
 41
10.0
 42
10.0
 43
10.0
 50
180.0
  0
TEXT
  5
DF8
  8
SIZE
  6
CONTINUOUS
 62
     0
 10
3824.3761979668461
 20
-1720.4831044014741
 30
0.0
 40
64.0
  1
337
 41
0.9
  0
POINT
  5
DF9
  8
DEFPOINTS
  6
CONTINUOUS
 62
     0
 10
4066.9333408239891
 20
-1504.573416190229
 30
0.0
  0
POINT
  5
DFA
  8
DEFPOINTS
  6
CONTINUOUS
 62
     0
 10
3729.9333408239881
 20
-1446.668157808974
 30
0.0
  0
POINT
  5
DFB
  8
DEFPOINTS
  6
CONTINUOUS
 62
     0
 10
3729.9333408239881
 20
-1740.483104401475
 30
0.0
  0
ENDBLK
  5
DFC
  8
0
  0
BLOCK
  8
0
  2
*D15
 70
     1
 10
0.0
 20
0.0
 30
0.0
  3
*D15
  1

  0
LINE
  5
DFF
  8
SIZE
  6
CONTINUOUS
 62
     0
 10
4066.9333408239891
 20
-1524.573416190229
 30
0.0
 11
4066.9333408239891
 21
-1770.483104401475
 31
0.0
  0
LINE
  5
E00
  8
SIZE
  6
CONTINUOUS
 62
     0
 10
4418.9333408239891
 20
-1467.668157808974
 30
0.0
 11
4418.9333408239891
 21
-1770.483104401475
 31
0.0
  0
LINE
  5
E01
  8
SIZE
  6
CONTINUOUS
 62
     0
 10
4076.9333408239891
 20
-1740.483104401475
 30
0.0
 11
4408.9333408239872
 21
-1740.483104401475
 31
0.0
  0
INSERT
  5
E02
  8
SIZE
  6
CONTINUOUS
 62
     0
  2
_ORIGIN
 10
4066.9333408239891
 20
-1740.483104401475
 30
0.0
 41
10.0
 42
10.0
 43
10.0
 50
180.0
  0
INSERT
  5
E03
  8
SIZE
  6
CONTINUOUS
 62
     0
  2
_ORIGIN
 10
4418.9333408239891
 20
-1740.483104401475
 30
0.0
 41
10.0
 42
10.0
 43
10.0
  0
TEXT
  5
E04
  8
SIZE
  6
CONTINUOUS
 62
     0
 10
4168.8761979668461
 20
-1720.4831044014741
 30
0.0
 40
64.0
  1
352
 41
0.9
  0
POINT
  5
E05
  8
DEFPOINTS
  6
CONTINUOUS
 62
     0
 10
4066.9333408239891
 20
-1504.573416190229
 30
0.0
  0
POINT
  5
E06
  8
DEFPOINTS
  6
CONTINUOUS
 62
     0
 10
4418.9333408239891
 20
-1447.668157808974
 30
0.0
  0
POINT
  5
E07
  8
DEFPOINTS
  6
CONTINUOUS
 62
     0
 10
4418.9333408239891
 20
-1740.483104401475
 30
0.0
  0
ENDBLK
  5
E08
  8
0
  0
BLOCK
  8
0
  2
*D16
 70
     1
 10
0.0
 20
0.0
 30
0.0
  3
*D16
  1

  0
LINE
  5
E0B
  8
SIZE
  6
CONTINUOUS
 62
     0
 10
-420.0
 20
-253.0
 30
0.0
 11
-420.0
 21
-509.36497745244912
 31
0.0
  0
LINE
  5
E0C
  8
SIZE
  6
CONTINUOUS
 62
     0
 10
420.0
 20
-253.0
 30
0.0
 11
420.0
 21
-509.36497745244912
 31
0.0
  0
LINE
  5
E0D
  8
SIZE
  6
CONTINUOUS
 62
     0
 10
-410.0
 20
-479.36497745244912
 30
0.0
 11
410.0
 21
-479.36497745244912
 31
0.0
  0
INSERT
  5
E0E
  8
SIZE
  6
CONTINUOUS
 62
     0
  2
_ORIGIN
 10
-420.0
 20
-479.36497745244912
 30
0.0
 41
10.0
 42
10.0
 43
10.0
 50
180.0
  0
INSERT
  5
E0F
  8
SIZE
  6
CONTINUOUS
 62
     0
  2
_ORIGIN
 10
420.0
 20
-479.36497745244912
 30
0.0
 41
10.0
 42
10.0
 43
10.0
  0
TEXT
  5
E10
  8
0
 62
     0
 10
-128.0
 20
-540.64499999999987
 30
0.0
 40
64.0
  1
840
  0
POINT
  5
E11
  8
DEFPOINTS
  6
CONTINUOUS
 62
     0
 10
-420.0
 20
-233.0
 30
0.0
  0
POINT
  5
E12
  8
DEFPOINTS
  6
CONTINUOUS
 62
     0
 10
420.0
 20
-233.0
 30
0.0
  0
POINT
  5
E13
  8
DEFPOINTS
  6
CONTINUOUS
 62
     0
 10
420.0
 20
-479.36497745244912
 30
0.0
  0
ENDBLK
  5
E14
  8
0
  0
BLOCK
  8
0
  2
*D17
 70
     1
 10
0.0
 20
0.0
 30
0.0
  3
*D17
  1

  0
LINE
  5
E17
  8
SIZE
  6
CONTINUOUS
 62
     0
 10
0.0000000000000012
 20
71.79273000000012
 30
0.0
 11
0.0000000000000138
 21
277.66770401076423
 31
0.0
  0
LINE
  5
E18
  8
SIZE
  6
CONTINUOUS
 62
     0
 10
-352.0
 20
40.0
 30
0.0
 11
-352.0
 21
277.66770401076423
 31
0.0
  0
LINE
  5
E19
  8
SIZE
  6
CONTINUOUS
 62
     0
 10
-9.9999999999999876
 20
247.66770401076431
 30
0.0
 11
-342.0
 21
247.66770401076431
 31
0.0
  0
INSERT
  5
E1A
  8
SIZE
  6
CONTINUOUS
 62
     0
  2
_ORIGIN
 10
0.000000000000012
 20
247.66770401076431
 30
0.0
 41
10.0
 42
10.0
 43
10.0
  0
INSERT
  5
E1B
  8
SIZE
  6
CONTINUOUS
 62
     0
  2
_ORIGIN
 10
-352.0
 20
247.66770401076431
 30
0.0
 41
10.0
 42
10.0
 43
10.0
 50
180.0
  0
TEXT
  5
E1C
  8
0
 62
     0
 10
-304.0
 20
186.38799999999989
 30
0.0
 40
64.0
  1
352
  0
POINT
  5
E1D
  8
DEFPOINTS
  6
CONTINUOUS
 62
     0
 10
0.0
 20
51.792730000000113
 30
0.0
  0
POINT
  5
E1E
  8
DEFPOINTS
  6
CONTINUOUS
 62
     0
 10
-352.0
 20
20.0
 30
0.0
  0
POINT
  5
E1F
  8
DEFPOINTS
  6
CONTINUOUS
 62
     0
 10
-352.0
 20
247.66770401076431
 30
0.0
  0
ENDBLK
  5
E20
  8
0
  0
BLOCK
  8
0
  2
*D18
 70
     1
 10
0.0
 20
0.0
 30
0.0
  3
*D18
  1

  0
LINE
  5
E23
  8
SIZE
  6
CONTINUOUS
 62
     0
 10
0.0000000000000012
 20
71.79273000000012
 30
0.0
 11
0.0000000000000138
 21
277.66770401076423
 31
0.0
  0
LINE
  5
E24
  8
SIZE
  6
CONTINUOUS
 62
     0
 10
337.0
 20
40.0
 30
0.0
 11
337.0
 21
277.66770401076423
 31
0.0
  0
LINE
  5
E25
  8
SIZE
  6
CONTINUOUS
 62
     0
 10
10.000000000000011
 20
247.66770401076431
 30
0.0
 11
327.0
 21
247.66770401076431
 31
0.0
  0
INSERT
  5
E26
  8
SIZE
  6
CONTINUOUS
 62
     0
  2
_ORIGIN
 10
0.000000000000012
 20
247.66770401076431
 30
0.0
 41
10.0
 42
10.0
 43
10.0
 50
180.0
  0
INSERT
  5
E27
  8
SIZE
  6
CONTINUOUS
 62
     0
  2
_ORIGIN
 10
337.0
 20
247.66770401076431
 30
0.0
 41
10.0
 42
10.0
 43
10.0
  0
TEXT
  5
E28
  8
0
 62
     0
 10
40.499999999999993
 20
186.38799999999989
 30
0.0
 40
64.0
  1
337
  0
POINT
  5
E29
  8
DEFPOINTS
  6
CONTINUOUS
 62
     0
 10
0.0
 20
51.792730000000113
 30
0.0
  0
POINT
  5
E2A
  8
DEFPOINTS
  6
CONTINUOUS
 62
     0
 10
337.0
 20
20.0
 30
0.0
  0
POINT
  5
E2B
  8
DEFPOINTS
  6
CONTINUOUS
 62
     0
 10
337.0
 20
247.66770401076431
 30
0.0
  0
ENDBLK
  5
E2C
  8
0
  0
BLOCK
  8
0
  2
*D19
 70
     1
 10
0.0
 20
0.0
 30
0.0
  3
*D19
  1

  0
LINE
  5
E2F
  8
SIZE
  6
CONTINUOUS
 62
     0
 10
-352.0
 20
40.0
 30
0.0
 11
-352.0
 21
277.66770401076423
 31
0.0
  0
LINE
  5
E30
  8
SIZE
  6
CONTINUOUS
 62
     0
 10
-420.0
 20
-29.808365678619332
 30
0.0
 11
-420.0
 21
277.66770401076423
 31
0.0
  0
LINE
  5
E31
  8
SIZE
  6
CONTINUOUS
 62
     0
 10
-342.0
 20
247.66770401076431
 30
0.0
 11
-332.0
 21
247.66770401076431
 31
0.0
  0
LINE
  5
E32
  8
SIZE
  6
CONTINUOUS
 62
     0
 10
-430.0
 20
247.66770401076431
 30
0.0
 11
-573.25714285714275
 21
247.66770401076431
 31
0.0
  0
LINE
  5
E33
  8
SIZE
  6
CONTINUOUS
 62
     0
 10
-352.0
 20
247.66770401076431
 30
0.0
 11
-420.0
 21
247.66770401076431
 31
0.0
  0
INSERT
  5
E34
  8
SIZE
  6
CONTINUOUS
 62
     0
  2
_ORIGIN
 10
-352.0
 20
247.66770401076431
 30
0.0
 41
10.0
 42
10.0
 43
10.0
 50
180.0
  0
INSERT
  5
E35
  8
SIZE
  6
CONTINUOUS
 62
     0
  2
_ORIGIN
 10
-420.0
 20
247.66770401076431
 30
0.0
 41
10.0
 42
10.0
 43
10.0
  0
TEXT
  5
E36
  8
0
 62
     0
 10
-634.62900000000002
 20
186.38799999999989
 30
0.0
 40
64.0
  1
68
  0
POINT
  5
E37
  8
DEFPOINTS
  6
CONTINUOUS
 62
     0
 10
-352.0
 20
20.0
 30
0.0
  0
POINT
  5
E38
  8
DEFPOINTS
  6
CONTINUOUS
 62
     0
 10
-420.0
 20
-49.808365678619353
 30
0.0
  0
POINT
  5
E39
  8
DEFPOINTS
  6
CONTINUOUS
 62
     0
 10
-420.0
 20
247.66770401076431
 30
0.0
  0
ENDBLK
  5
E3A
  8
0
  0
BLOCK
  8
0
  2
*D20
 70
     1
 10
0.0
 20
0.0
 30
0.0
  3
*D20
  1

  0
LINE
  5
E3D
  8
SIZE
  6
CONTINUOUS
 62
     0
 10
337.0
 20
40.0
 30
0.0
 11
337.0
 21
277.66770401076423
 31
0.0
  0
LINE
  5
E3E
  8
SIZE
  6
CONTINUOUS
 62
     0
 10
420.0
 20
-29.808365678619332
 30
0.0
 11
420.0
 21
277.66770401076423
 31
0.0
  0
LINE
  5
E3F
  8
SIZE
  6
CONTINUOUS
 62
     0
 10
327.0
 20
247.66770401076431
 30
0.0
 11
317.0
 21
247.66770401076431
 31
0.0
  0
LINE
  5
E40
  8
SIZE
  6
CONTINUOUS
 62
     0
 10
430.0
 20
247.66770401076431
 30
0.0
 11
573.25714285714287
 21
247.66770401076431
 31
0.0
  0
LINE
  5
E41
  8
SIZE
  6
CONTINUOUS
 62
     0
 10
337.0
 20
247.66770401076431
 30
0.0
 11
420.0
 21
247.66770401076431
 31
0.0
  0
INSERT
  5
E42
  8
SIZE
  6
CONTINUOUS
 62
     0
  2
_ORIGIN
 10
337.0
 20
247.66770401076431
 30
0.0
 41
10.0
 42
10.0
 43
10.0
  0
INSERT
  5
E43
  8
SIZE
  6
CONTINUOUS
 62
     0
  2
_ORIGIN
 10
420.0
 20
247.66770401076431
 30
0.0
 41
10.0
 42
10.0
 43
10.0
 50
180.0
  0
TEXT
  5
E44
  8
0
 62
     0
 10
378.62900000000002
 20
186.38799999999989
 30
0.0
 40
64.0
  1
83
  0
POINT
  5
E45
  8
DEFPOINTS
  6
CONTINUOUS
 62
     0
 10
337.0
 20
20.0
 30
0.0
  0
POINT
  5
E46
  8
DEFPOINTS
  6
CONTINUOUS
 62
     0
 10
420.0
 20
-49.808365678619353
 30
0.0
  0
POINT
  5
E47
  8
DEFPOINTS
  6
CONTINUOUS
 62
     0
 10
420.0
 20
247.66770401076431
 30
0.0
  0
ENDBLK
  5
E48
  8
0
  0
BLOCK
  8
0
  2
*D21
 70
     1
 10
0.0
 20
0.0
 30
0.0
  3
*D21
  1

  0
LINE
  5
E4B
  8
SIZE
  6
CONTINUOUS
 62
     0
 10
3729.9333408239881
 20
-1466.668157808974
 30
0.0
 11
3729.9333408239881
 21
-1770.483104401475
 31
0.0
  0
LINE
  5
E4C
  8
SIZE
  6
CONTINUOUS
 62
     0
 10
3646.9333408239891
 20
-1478.668157808974
 30
0.0
 11
3646.9333408239891
 21
-1770.483104401475
 31
0.0
  0
LINE
  5
E4D
  8
SIZE
  6
CONTINUOUS
 62
     0
 10
3739.9333408239891
 20
-1740.483104401475
 30
0.0
 11
3749.9333408239891
 21
-1740.483104401475
 31
0.0
  0
LINE
  5
E4E
  8
SIZE
  6
CONTINUOUS
 62
     0
 10
3636.9333408239891
 20
-1740.483104401475
 30
0.0
 11
3493.6761979668458
 21
-1740.483104401475
 31
0.0
  0
LINE
  5
E4F
  8
SIZE
  6
CONTINUOUS
 62
     0
 10
3729.9333408239881
 20
-1740.483104401475
 30
0.0
 11
3646.9333408239891
 21
-1740.483104401475
 31
0.0
  0
INSERT
  5
E50
  8
SIZE
  6
CONTINUOUS
 62
     0
  2
_ORIGIN
 10
3729.9333408239881
 20
-1740.483104401475
 30
0.0
 41
10.0
 42
10.0
 43
10.0
 50
180.0
  0
INSERT
  5
E51
  8
SIZE
  6
CONTINUOUS
 62
     0
  2
_ORIGIN
 10
3646.9333408239891
 20
-1740.483104401475
 30
0.0
 41
10.0
 42
10.0
 43
10.0
  0
TEXT
  5
E52
  8
SIZE
  6
CONTINUOUS
 62
     0
 10
3513.6761979668449
 20
-1720.4831044014741
 30
0.0
 40
64.0
  1
83
 41
0.9
  0
POINT
  5
E53
  8
DEFPOINTS
  6
CONTINUOUS
 62
     0
 10
3729.9333408239881
 20
-1446.668157808974
 30
0.0
  0
POINT
  5
E54
  8
DEFPOINTS
  6
CONTINUOUS
 62
     0
 10
3646.9333408239891
 20
-1458.668157808974
 30
0.0
  0
POINT
  5
E55
  8
DEFPOINTS
  6
CONTINUOUS
 62
     0
 10
3646.9333408239891
 20
-1740.483104401475
 30
0.0
  0
ENDBLK
  5
E56
  8
0
  0
BLOCK
  8
0
  2
*D22
 70
     1
 10
0.0
 20
0.0
 30
0.0
  3
*D22
  1

  0
LINE
  5
E59
  8
SIZE
  6
CONTINUOUS
 62
     0
 10
4418.9333408239891
 20
-1467.668157808974
 30
0.0
 11
4418.9333408239891
 21
-1770.483104401475
 31
0.0
  0
LINE
  5
E5A
  8
SIZE
  6
CONTINUOUS
 62
     0
 10
4486.9333408239891
 20
-1478.668157808974
 30
0.0
 11
4486.9333408239891
 21
-1770.483104401475
 31
0.0
  0
LINE
  5
E5B
  8
SIZE
  6
CONTINUOUS
 62
     0
 10
4408.9333408239872
 20
-1740.483104401475
 30
0.0
 11
4398.9333408239891
 21
-1740.483104401475
 31
0.0
  0
LINE
  5
E5C
  8
SIZE
  6
CONTINUOUS
 62
     0
 10
4496.9333408239881
 20
-1740.483104401475
 30
0.0
 11
4640.1904836811318
 21
-1740.483104401475
 31
0.0
  0
LINE
  5
E5D
  8
SIZE
  6
CONTINUOUS
 62
     0
 10
4418.9333408239891
 20
-1740.483104401475
 30
0.0
 11
4486.9333408239891
 21
-1740.483104401475
 31
0.0
  0
INSERT
  5
E5E
  8
SIZE
  6
CONTINUOUS
 62
     0
  2
_ORIGIN
 10
4418.9333408239891
 20
-1740.483104401475
 30
0.0
 41
10.0
 42
10.0
 43
10.0
  0
INSERT
  5
E5F
  8
SIZE
  6
CONTINUOUS
 62
     0
  2
_ORIGIN
 10
4486.9333408239891
 20
-1740.483104401475
 30
0.0
 41
10.0
 42
10.0
 43
10.0
 50
180.0
  0
TEXT
  5
E60
  8
SIZE
  6
CONTINUOUS
 62
     0
 10
4526.93334082399
 20
-1720.4831044014741
 30
0.0
 40
64.0
  1
68
 41
0.9
  0
POINT
  5
E61
  8
DEFPOINTS
  6
CONTINUOUS
 62
     0
 10
4418.9333408239891
 20
-1447.668157808974
 30
0.0
  0
POINT
  5
E62
  8
DEFPOINTS
  6
CONTINUOUS
 62
     0
 10
4486.9333408239891
 20
-1458.668157808974
 30
0.0
  0
POINT
  5
E63
  8
DEFPOINTS
  6
CONTINUOUS
 62
     0
 10
4486.9333408239891
 20
-1740.483104401475
 30
0.0
  0
ENDBLK
  5
E64
  8
0
  0
BLOCK
  8
0
  2
*D23
 70
     1
 10
0.0
 20
0.0
 30
0.0
  3
*D23
  1

  0
LINE
  5
E67
  8
SIZE
  6
CONTINUOUS
 62
     0
 10
-1345.3866894535561
 20
-1175.668157808974
 30
0.0
 11
-1345.3866894535561
 21
-996.99184137468546
 31
0.0
  0
LINE
  5
E68
  8
SIZE
  6
CONTINUOUS
 62
     0
 10
-1091.9086184966011
 20
-1253.616439730102
 30
0.0
 11
-1091.9086184966011
 21
-996.99184137468546
 31
0.0
  0
LINE
  5
E69
  8
SIZE
  6
CONTINUOUS
 62
     0
 10
-1335.3866894535561
 20
-1026.991841374685
 30
0.0
 11
-1101.9086184966011
 21
-1026.991841374685
 31
0.0
  0
INSERT
  5
E6A
  8
SIZE
  6
CONTINUOUS
 62
     0
  2
_ORIGIN
 10
-1345.3866894535561
 20
-1026.991841374685
 30
0.0
 41
10.0
 42
10.0
 43
10.0
 50
180.0
  0
INSERT
  5
E6B
  8
SIZE
  6
CONTINUOUS
 62
     0
  2
_ORIGIN
 10
-1091.9086184966011
 20
-1026.991841374685
 30
0.0
 41
10.0
 42
10.0
 43
10.0
  0
TEXT
  5
E6C
  8
SIZE
  6
CONTINUOUS
 62
     0
 10
-1290.321015127299
 20
-1006.991841374685
 30
0.0
 40
64.0
  1
253
 41
0.9
  0
POINT
  5
E6D
  8
DEFPOINTS
  6
CONTINUOUS
 62
     0
 10
-1345.3866894535561
 20
-1195.668157808974
 30
0.0
  0
POINT
  5
E6E
  8
DEFPOINTS
  6
CONTINUOUS
 62
     0
 10
-1091.9086184966011
 20
-1273.616439730102
 30
0.0
  0
POINT
  5
E6F
  8
DEFPOINTS
  6
CONTINUOUS
 62
     0
 10
-1091.9086184966011
 20
-1026.991841374685
 30
0.0
  0
ENDBLK
  5
E70
  8
0
  0
BLOCK
  8
0
  2
*D24
 70
     1
 10
0.0
 20
0.0
 30
0.0
  3
*D24
  1

  0
LINE
  5
E73
  8
SIZE
  6
CONTINUOUS
 62
     0
 10
-434.25
 20
0.0000000000000057
 30
0.0
 11
-580.75593806697725
 21
0.0000000000000472
 31
0.0
  0
LINE
  5
E74
  8
SIZE
  6
CONTINUOUS
 62
     0
 10
-420.0
 20
-253.0
 30
0.0
 11
-580.75593806697725
 21
-252.9999999999998
 31
0.0
  0
LINE
  5
E75
  8
SIZE
  6
CONTINUOUS
 62
     0
 10
-550.75593806697725
 20
-9.9999999999999591
 30
0.0
 11
-550.75593806697725
 21
-242.9999999999998
 31
0.0
  0
INSERT
  5
E76
  8
SIZE
  6
CONTINUOUS
 62
     0
  2
_ORIGIN
 10
-550.75593806697725
 20
0.0000000000000387
 30
0.0
 41
10.0
 42
10.0
 43
10.0
 50
90.0
  0
INSERT
  5
E77
  8
SIZE
  6
CONTINUOUS
 62
     0
  2
_ORIGIN
 10
-550.75593806697725
 20
-252.9999999999998
 30
0.0
 41
10.0
 42
10.0
 43
10.0
 50
270.0
  0
TEXT
  5
E78
  8
SIZE
  6
CONTINUOUS
 62
     0
 10
-570.75593806697725
 20
-191.29336733932439
 30
0.0
 40
64.0
  1
253
 50
90.0
 41
0.9
  0
POINT
  5
E79
  8
DEFPOINTS
  6
CONTINUOUS
 62
     0
 10
-414.25
 20
0.0
 30
0.0
  0
POINT
  5
E7A
  8
DEFPOINTS
  6
CONTINUOUS
 62
     0
 10
-400.0
 20
-253.0
 30
0.0
  0
POINT
  5
E7B
  8
DEFPOINTS
  6
CONTINUOUS
 62
     0
 10
-550.75593806697725
 20
-252.9999999999998
 30
0.0
  0
ENDBLK
  5
E7C
  8
0
  0
BLOCK
  8
0
  2
*D25
 70
     1
 10
0.0
 20
0.0
 30
0.0
  3
*D25
  1

  0
LINE
  5
E7F
  8
SIZE
  6
CONTINUOUS
 62
     0
 10
-434.25
 20
0.0000000000000057
 30
0.0
 11
-580.32075463927686
 21
0.000000000000047
 31
0.0
  0
LINE
  5
E80
  8
SIZE
  6
CONTINUOUS
 62
     0
 10
-420.0
 20
-253.0
 30
0.0
 11
-580.32075463927686
 21
-252.9999999999998
 31
0.0
  0
LINE
  5
E81
  8
SIZE
  6
CONTINUOUS
 62
     0
 10
-550.32075463927686
 20
-9.9999999999999591
 30
0.0
 11
-550.32075463927686
 21
-242.9999999999998
 31
0.0
  0
INSERT
  5
E82
  8
SIZE
  6
CONTINUOUS
 62
     0
  2
_ORIGIN
 10
-550.32075463927686
 20
0.0000000000000385
 30
0.0
 41
10.0
 42
10.0
 43
10.0
 50
90.0
  0
INSERT
  5
E83
  8
SIZE
  6
CONTINUOUS
 62
     0
  2
_ORIGIN
 10
-550.32075463927686
 20
-252.9999999999998
 30
0.0
 41
10.0
 42
10.0
 43
10.0
 50
270.0
  0
TEXT
  5
E84
  8
0
 62
     0
 10
-730.32099999999991
 20
-239.78
 30
0.0
 40
64.0
  1
253
  0
POINT
  5
E85
  8
DEFPOINTS
  6
CONTINUOUS
 62
     0
 10
-414.25
 20
0.0
 30
0.0
  0
POINT
  5
E86
  8
DEFPOINTS
  6
CONTINUOUS
 62
     0
 10
-400.0
 20
-253.0
 30
0.0
  0
POINT
  5
E87
  8
DEFPOINTS
  6
CONTINUOUS
 62
     0
 10
-550.32075463927686
 20
-252.9999999999998
 30
0.0
  0
ENDBLK
  5
E88
  8
0
  0
BLOCK
  8
0
  2
*D26
 70
     1
 10
0.0
 20
0.0
 30
0.0
  3
*D26
  1

  0
LINE
  5
E8B
  8
SIZE
  6
CONTINUOUS
 62
     0
 10
1700.553510123252
 20
-1175.668157808974
 30
0.0
 11
1700.553510123252
 21
-1028.4085229120531
 31
0.0
  0
LINE
  5
E8C
  8
SIZE
  6
CONTINUOUS
 62
     0
 10
1447.0754391662961
 20
-1253.616439730102
 30
0.0
 11
1447.0754391662961
 21
-1028.4085229120531
 31
0.0
  0
LINE
  5
E8D
  8
SIZE
  6
CONTINUOUS
 62
     0
 10
1690.553510123252
 20
-1058.4085229120531
 30
0.0
 11
1457.0754391662961
 21
-1058.4085229120531
 31
0.0
  0
INSERT
  5
E8E
  8
SIZE
  6
CONTINUOUS
 62
     0
  2
_ORIGIN
 10
1700.553510123252
 20
-1058.4085229120531
 30
0.0
 41
10.0
 42
10.0
 43
10.0
  0
INSERT
  5
E8F
  8
SIZE
  6
CONTINUOUS
 62
     0
  2
_ORIGIN
 10
1447.0754391662961
 20
-1058.4085229120531
 30
0.0
 41
10.0
 42
10.0
 43
10.0
 50
180.0
  0
TEXT
  5
E90
  8
SIZE
  6
CONTINUOUS
 62
     0
 10
1499.757331787632
 20
-1038.4085229120531
 30
0.0
 40
64.0
  1
253
 41
0.9
  0
POINT
  5
E91
  8
DEFPOINTS
  6
CONTINUOUS
 62
     0
 10
1700.553510123252
 20
-1195.668157808974
 30
0.0
  0
POINT
  5
E92
  8
DEFPOINTS
  6
CONTINUOUS
 62
     0
 10
1447.0754391662961
 20
-1273.616439730102
 30
0.0
  0
POINT
  5
E93
  8
DEFPOINTS
  6
CONTINUOUS
 62
     0
 10
1447.0754391662961
 20
-1058.4085229120531
 30
0.0
  0
ENDBLK
  5
E94
  8
0
  0
BLOCK
  8
0
  2
*D27
 70
     1
 10
0.0
 20
0.0
 30
0.0
  3
*D27
  1

  0
LINE
  5
E97
  8
SIZE
  6
CONTINUOUS
 62
     0
 10
-417.49999999999989
 20
20.0
 30
0.0
 11
-417.49999999999989
 21
404.33789383212928
 31
0.0
  0
LINE
  5
E98
  8
SIZE
  6
CONTINUOUS
 62
     0
 10
417.49999999999989
 20
20.0
 30
0.0
 11
417.49999999999989
 21
404.33789383212928
 31
0.0
  0
LINE
  5
E99
  8
SIZE
  6
CONTINUOUS
 62
     0
 10
-407.5
 20
374.33789383212923
 30
0.0
 11
407.5
 21
374.33789383212923
 31
0.0
  0
INSERT
  5
E9A
  8
SIZE
  6
CONTINUOUS
 62
     0
  2
_ORIGIN
 10
-417.49999999999989
 20
374.33789383212923
 30
0.0
 41
10.0
 42
10.0
 43
10.0
 50
180.0
  0
INSERT
  5
E9B
  8
SIZE
  6
CONTINUOUS
 62
     0
  2
_ORIGIN
 10
417.49999999999989
 20
374.33789383212923
 30
0.0
 41
10.0
 42
10.0
 43
10.0
  0
TEXT
  5
E9C
  8
SIZE
  6
CONTINUOUS
 62
     0
 10
-74.057142857142836
 20
394.33789383212923
 30
0.0
 40
64.0
  1
835
 41
0.9
  0
POINT
  5
E9D
  8
DEFPOINTS
  6
CONTINUOUS
 62
     0
 10
-417.49999999999989
 20
0.0
 30
0.0
  0
POINT
  5
E9E
  8
DEFPOINTS
  6
CONTINUOUS
 62
     0
 10
417.49999999999989
 20
0.0
 30
0.0
  0
POINT
  5
E9F
  8
DEFPOINTS
  6
CONTINUOUS
 62
     0
 10
417.49999999999989
 20
374.33789383212923
 30
0.0
  0
ENDBLK
  5
EA0
  8
0
  0
BLOCK
  8
0
  2
*D28
 70
     1
 10
0.0
 20
0.0
 30
0.0
  3
*D28
  1

  0
LINE
  5
EA3
  8
SIZE
  6
CONTINUOUS
 62
     0
 10
-417.49999999999989
 20
20.0
 30
0.0
 11
-417.49999999999989
 21
404.33789383212928
 31
0.0
  0
LINE
  5
EA4
  8
SIZE
  6
CONTINUOUS
 62
     0
 10
417.49999999999989
 20
20.0
 30
0.0
 11
417.49999999999989
 21
404.33789383212928
 31
0.0
  0
LINE
  5
EA5
  8
SIZE
  6
CONTINUOUS
 62
     0
 10
-407.5
 20
374.33789383212923
 30
0.0
 11
407.5
 21
374.33789383212923
 31
0.0
  0
INSERT
  5
EA6
  8
SIZE
  6
CONTINUOUS
 62
     0
  2
_ORIGIN
 10
-417.49999999999989
 20
374.33789383212923
 30
0.0
 41
10.0
 42
10.0
 43
10.0
 50
180.0
  0
INSERT
  5
EA7
  8
SIZE
  6
CONTINUOUS
 62
     0
  2
_ORIGIN
 10
417.49999999999989
 20
374.33789383212923
 30
0.0
 41
10.0
 42
10.0
 43
10.0
  0
TEXT
  5
EA8
  8
0
 62
     0
 10
-128.0
 20
313.05799999999999
 30
0.0
 40
64.0
  1
835
  0
POINT
  5
EA9
  8
DEFPOINTS
  6
CONTINUOUS
 62
     0
 10
-417.49999999999989
 20
0.0
 30
0.0
  0
POINT
  5
EAA
  8
DEFPOINTS
  6
CONTINUOUS
 62
     0
 10
417.49999999999989
 20
0.0
 30
0.0
  0
POINT
  5
EAB
  8
DEFPOINTS
  6
CONTINUOUS
 62
     0
 10
417.49999999999989
 20
374.33789383212923
 30
0.0
  0
ENDBLK
  5
EAC
  8
0
  0
BLOCK
  8
0
  2
*D29
 70
     1
 10
0.0
 20
0.0
 30
0.0
  3
*D29
  1

  0
LINE
  5
EAF
  8
SIZE
  6
CONTINUOUS
 62
     0
 10
3636.9333408239891
 20
-1468.6681578089731
 30
0.0
 11
3492.2819173781322
 21
-1468.6681578089731
 31
0.0
  0
LINE
  5
EB0
  8
SIZE
  6
CONTINUOUS
 62
     0
 10
3689.9333408239891
 20
-1426.168157808974
 30
0.0
 11
3492.2819173781322
 21
-1426.168157808974
 31
0.0
  0
LINE
  5
EB1
  8
SIZE
  6
CONTINUOUS
 62
     0
 10
3522.2819173781322
 20
-1478.668157808974
 30
0.0
 11
3522.2819173781322
 21
-1488.668157808974
 31
0.0
  0
LINE
  5
EB2
  8
SIZE
  6
CONTINUOUS
 62
     0
 10
3522.2819173781322
 20
-1416.168157808974
 30
0.0
 11
3522.2819173781322
 21
-1190.6253006661159
 31
0.0
  0
LINE
  5
EB3
  8
SIZE
  6
CONTINUOUS
 62
     0
 10
3522.2819173781322
 20
-1468.6681578089731
 30
0.0
 11
3522.2819173781322
 21
-1426.168157808974
 31
0.0
  0
INSERT
  5
EB4
  8
SIZE
  6
CONTINUOUS
 62
     0
  2
_ORIGIN
 10
3522.2819173781322
 20
-1468.6681578089731
 30
0.0
 41
10.0
 42
10.0
 43
10.0
 50
90.0
  0
INSERT
  5
EB5
  8
SIZE
  6
CONTINUOUS
 62
     0
  2
_ORIGIN
 10
3522.2819173781322
 20
-1426.168157808974
 30
0.0
 41
10.0
 42
10.0
 43
10.0
 50
270.0
  0
TEXT
  5
EB6
  8
SIZE
  6
CONTINUOUS
 62
     0
 10
3502.2819173781322
 20
-1386.1681578089731
 30
0.0
 40
64.0
  1
42.5
 50
90.0
 41
0.9
  0
POINT
  5
EB7
  8
DEFPOINTS
  6
CONTINUOUS
 62
     0
 10
3656.9333408239891
 20
-1468.6681578089731
 30
0.0
  0
POINT
  5
EB8
  8
DEFPOINTS
  6
CONTINUOUS
 62
     0
 10
3709.9333408239891
 20
-1426.168157808974
 30
0.0
  0
POINT
  5
EB9
  8
DEFPOINTS
  6
CONTINUOUS
 62
     0
 10
3522.2819173781322
 20
-1426.168157808974
 30
0.0
  0
ENDBLK
  5
EBA
  8
0
  0
BLOCK
  8
0
  2
*D30
 70
     1
 10
0.0
 20
0.0
 30
0.0
  3
*D30
  1

  0
LINE
  5
EBD
  8
SIZE
  6
CONTINUOUS
 62
     0
 10
4496.9333408239881
 20
-1468.6681578089731
 30
0.0
 11
4693.1275807268466
 21
-1468.6681578089731
 31
0.0
  0
LINE
  5
EBE
  8
SIZE
  6
CONTINUOUS
 62
     0
 10
4458.9333408239881
 20
-1427.168157808974
 30
0.0
 11
4693.1275807268466
 21
-1427.168157808974
 31
0.0
  0
LINE
  5
EBF
  8
SIZE
  6
CONTINUOUS
 62
     0
 10
4663.1275807268457
 20
-1478.668157808974
 30
0.0
 11
4663.1275807268457
 21
-1488.668157808974
 31
0.0
  0
LINE
  5
EC0
  8
SIZE
  6
CONTINUOUS
 62
     0
 10
4663.1275807268457
 20
-1417.168157808974
 30
0.0
 11
4663.1275807268457
 21
-1202.596729237546
 31
0.0
  0
LINE
  5
EC1
  8
SIZE
  6
CONTINUOUS
 62
     0
 10
4663.1275807268457
 20
-1468.6681578089731
 30
0.0
 11
4663.1275807268457
 21
-1427.168157808974
 31
0.0
  0
INSERT
  5
EC2
  8
SIZE
  6
CONTINUOUS
 62
     0
  2
_ORIGIN
 10
4663.1275807268457
 20
-1468.6681578089731
 30
0.0
 41
10.0
 42
10.0
 43
10.0
 50
90.0
  0
INSERT
  5
EC3
  8
SIZE
  6
CONTINUOUS
 62
     0
  2
_ORIGIN
 10
4663.1275807268457
 20
-1427.168157808974
 30
0.0
 41
10.0
 42
10.0
 43
10.0
 50
270.0
  0
TEXT
  5
EC4
  8
SIZE
  6
CONTINUOUS
 62
     0
 10
4643.1275807268448
 20
-1387.1681578089731
 30
0.0
 40
64.0
  1
41.5
 50
90.0
 41
0.9
  0
POINT
  5
EC5
  8
DEFPOINTS
  6
CONTINUOUS
 62
     0
 10
4476.9333408239891
 20
-1468.6681578089731
 30
0.0
  0
POINT
  5
EC6
  8
DEFPOINTS
  6
CONTINUOUS
 62
     0
 10
4438.9333408239891
 20
-1427.168157808974
 30
0.0
  0
POINT
  5
EC7
  8
DEFPOINTS
  6
CONTINUOUS
 62
     0
 10
4663.1275807268457
 20
-1427.168157808974
 30
0.0
  0
ENDBLK
  5
EC8
  8
0
  0
BLOCK
  8
0
  2
*D31
 70
     1
 10
0.0
 20
0.0
 30
0.0
  3
*D31
  1

  0
LINE
  5
ECB
  8
SIZE
  6
CONTINUOUS
 62
     0
 10
1720.553510123252
 20
-1468.6681578089731
 30
0.0
 11
1994.813452689642
 21
-1468.6681578089731
 31
0.0
  0
LINE
  5
ECC
  8
SIZE
  6
CONTINUOUS
 62
     0
 10
1740.553510123252
 20
-1427.168157808974
 30
0.0
 11
1994.813452689642
 21
-1427.168157808974
 31
0.0
  0
LINE
  5
ECD
  8
SIZE
  6
CONTINUOUS
 62
     0
 10
1964.813452689642
 20
-1478.668157808974
 30
0.0
 11
1964.813452689642
 21
-1488.668157808974
 31
0.0
  0
LINE
  5
ECE
  8
SIZE
  6
CONTINUOUS
 62
     0
 10
1964.813452689642
 20
-1417.168157808974
 30
0.0
 11
1964.813452689642
 21
-1202.5967292375451
 31
0.0
  0
LINE
  5
ECF
  8
SIZE
  6
CONTINUOUS
 62
     0
 10
1964.813452689642
 20
-1468.6681578089731
 30
0.0
 11
1964.813452689642
 21
-1427.168157808974
 31
0.0
  0
INSERT
  5
ED0
  8
SIZE
  6
CONTINUOUS
 62
     0
  2
_ORIGIN
 10
1964.813452689642
 20
-1468.6681578089731
 30
0.0
 41
10.0
 42
10.0
 43
10.0
 50
90.0
  0
INSERT
  5
ED1
  8
SIZE
  6
CONTINUOUS
 62
     0
  2
_ORIGIN
 10
1964.813452689642
 20
-1427.168157808974
 30
0.0
 41
10.0
 42
10.0
 43
10.0
 50
270.0
  0
TEXT
  5
ED2
  8
SIZE
  6
CONTINUOUS
 62
     0
 10
1944.8134526896431
 20
-1387.168157808974
 30
0.0
 40
64.0
  1
41.5
 50
90.0
 41
0.9
  0
POINT
  5
ED3
  8
DEFPOINTS
  6
CONTINUOUS
 62
     0
 10
1700.553510123252
 20
-1468.6681578089731
 30
0.0
  0
POINT
  5
ED4
  8
DEFPOINTS
  6
CONTINUOUS
 62
     0
 10
1720.553510123252
 20
-1427.168157808974
 30
0.0
  0
POINT
  5
ED5
  8
DEFPOINTS
  6
CONTINUOUS
 62
     0
 10
1964.813452689642
 20
-1427.168157808974
 30
0.0
  0
ENDBLK
  5
ED6
  8
0
  0
BLOCK
  8
0
  2
*D32
 70
     1
 10
0.0
 20
0.0
 30
0.0
  3
*D32
  1

  0
LINE
  5
ED9
  8
SIZE
  6
CONTINUOUS
 62
     0
 10
1740.553510123252
 20
-1426.168157808974
 30
0.0
 11
2088.1142522385771
 21
-1426.168157808974
 31
0.0
  0
LINE
  5
EDA
  8
SIZE
  6
CONTINUOUS
 62
     0
 10
1720.553510123252
 20
-1468.6681578089731
 30
0.0
 11
2088.1142522385771
 21
-1468.6681578089731
 31
0.0
  0
LINE
  5
EDB
  8
SIZE
  6
CONTINUOUS
 62
     0
 10
2058.1142522385758
 20
-1478.668157808974
 30
0.0
 11
2058.1142522385758
 21
-1488.668157808974
 31
0.0
  0
LINE
  5
EDC
  8
SIZE
  6
CONTINUOUS
 62
     0
 10
2058.1142522385758
 20
-1416.168157808974
 30
0.0
 11
2058.1142522385758
 21
-1190.625300666117
 31
0.0
  0
LINE
  5
EDD
  8
SIZE
  6
CONTINUOUS
 62
     0
 10
2058.1142522385758
 20
-1468.6681578089731
 30
0.0
 11
2058.1142522385758
 21
-1426.168157808974
 31
0.0
  0
INSERT
  5
EDE
  8
SIZE
  6
CONTINUOUS
 62
     0
  2
_ORIGIN
 10
2058.1142522385758
 20
-1468.6681578089731
 30
0.0
 41
10.0
 42
10.0
 43
10.0
 50
90.0
  0
INSERT
  5
EDF
  8
SIZE
  6
CONTINUOUS
 62
     0
  2
_ORIGIN
 10
2058.1142522385758
 20
-1426.168157808974
 30
0.0
 41
10.0
 42
10.0
 43
10.0
 50
270.0
  0
TEXT
  5
EE0
  8
SIZE
  6
CONTINUOUS
 62
     0
 10
2038.114252238578
 20
-1386.168157808974
 30
0.0
 40
64.0
  1
42.5
 50
90.0
 41
0.9
  0
POINT
  5
EE1
  8
DEFPOINTS
  6
CONTINUOUS
 62
     0
 10
1720.553510123252
 20
-1426.168157808974
 30
0.0
  0
POINT
  5
EE2
  8
DEFPOINTS
  6
CONTINUOUS
 62
     0
 10
1700.553510123252
 20
-1468.6681578089731
 30
0.0
  0
POINT
  5
EE3
  8
DEFPOINTS
  6
CONTINUOUS
 62
     0
 10
2058.1142522385758
 20
-1468.6681578089731
 30
0.0
  0
ENDBLK
  5
EE4
  8
0
  0
BLOCK
  8
0
  2
*D33
 70
     1
 10
0.0
 20
0.0
 30
0.0
  3
*D33
  1

  0
LINE
  5
EE7
  8
SIZE
  6
CONTINUOUS
 62
     0
 10
-1385.3866894535561
 20
-1427.168157808974
 30
0.0
 11
-1618.133579922373
 21
-1427.168157808974
 31
0.0
  0
LINE
  5
EE8
  8
SIZE
  6
CONTINUOUS
 62
     0
 10
-1365.3866894535561
 20
-1468.6681578089731
 30
0.0
 11
-1618.133579922373
 21
-1468.6681578089731
 31
0.0
  0
LINE
  5
EE9
  8
SIZE
  6
CONTINUOUS
 62
     0
 10
-1588.1335799223741
 20
-1478.668157808974
 30
0.0
 11
-1588.1335799223741
 21
-1488.668157808974
 31
0.0
  0
LINE
  5
EEA
  8
SIZE
  6
CONTINUOUS
 62
     0
 10
-1588.1335799223741
 20
-1417.168157808974
 30
0.0
 11
-1588.1335799223741
 21
-1202.5967292375451
 31
0.0
  0
LINE
  5
EEB
  8
SIZE
  6
CONTINUOUS
 62
     0
 10
-1588.1335799223741
 20
-1468.6681578089731
 30
0.0
 11
-1588.1335799223741
 21
-1427.168157808974
 31
0.0
  0
INSERT
  5
EEC
  8
SIZE
  6
CONTINUOUS
 62
     0
  2
_ORIGIN
 10
-1588.1335799223741
 20
-1468.6681578089731
 30
0.0
 41
10.0
 42
10.0
 43
10.0
 50
90.0
  0
INSERT
  5
EED
  8
SIZE
  6
CONTINUOUS
 62
     0
  2
_ORIGIN
 10
-1588.1335799223741
 20
-1427.168157808974
 30
0.0
 41
10.0
 42
10.0
 43
10.0
 50
270.0
  0
TEXT
  5
EEE
  8
SIZE
  6
CONTINUOUS
 62
     0
 10
-1608.1335799223741
 20
-1387.168157808974
 30
0.0
 40
64.0
  1
41.5
 50
90.0
 41
0.9
  0
POINT
  5
EEF
  8
DEFPOINTS
  6
CONTINUOUS
 62
     0
 10
-1365.3866894535561
 20
-1427.168157808974
 30
0.0
  0
POINT
  5
EF0
  8
DEFPOINTS
  6
CONTINUOUS
 62
     0
 10
-1345.3866894535561
 20
-1468.6681578089731
 30
0.0
  0
POINT
  5
EF1
  8
DEFPOINTS
  6
CONTINUOUS
 62
     0
 10
-1588.1335799223741
 20
-1468.6681578089731
 30
0.0
  0
ENDBLK
  5
EF2
  8
0
  0
BLOCK
  8
0
  2
*D34
 70
     1
 10
0.0
 20
0.0
 30
0.0
  3
*D34
  1

  0
LINE
  5
EF5
  8
SIZE
  6
CONTINUOUS
 62
     0
 10
-1365.3866894535561
 20
-1468.6681578089731
 30
0.0
 11
-1727.2737917006771
 21
-1468.6681578089731
 31
0.0
  0
LINE
  5
EF6
  8
SIZE
  6
CONTINUOUS
 62
     0
 10
-1385.3866894535561
 20
-1426.168157808974
 30
0.0
 11
-1727.2737917006771
 21
-1426.168157808974
 31
0.0
  0
LINE
  5
EF7
  8
SIZE
  6
CONTINUOUS
 62
     0
 10
-1697.2737917006771
 20
-1478.668157808974
 30
0.0
 11
-1697.2737917006771
 21
-1488.668157808974
 31
0.0
  0
LINE
  5
EF8
  8
SIZE
  6
CONTINUOUS
 62
     0
 10
-1697.2737917006771
 20
-1416.168157808974
 30
0.0
 11
-1697.2737917006771
 21
-1190.6253006661159
 31
0.0
  0
LINE
  5
EF9
  8
SIZE
  6
CONTINUOUS
 62
     0
 10
-1697.2737917006771
 20
-1468.6681578089731
 30
0.0
 11
-1697.2737917006771
 21
-1426.168157808974
 31
0.0
  0
INSERT
  5
EFA
  8
SIZE
  6
CONTINUOUS
 62
     0
  2
_ORIGIN
 10
-1697.2737917006771
 20
-1468.6681578089731
 30
0.0
 41
10.0
 42
10.0
 43
10.0
 50
90.0
  0
INSERT
  5
EFB
  8
SIZE
  6
CONTINUOUS
 62
     0
  2
_ORIGIN
 10
-1697.2737917006771
 20
-1426.168157808974
 30
0.0
 41
10.0
 42
10.0
 43
10.0
 50
270.0
  0
TEXT
  5
EFC
  8
SIZE
  6
CONTINUOUS
 62
     0
 10
-1717.2737917006771
 20
-1386.168157808974
 30
0.0
 40
64.0
  1
42.5
 50
90.0
 41
0.9
  0
POINT
  5
EFD
  8
DEFPOINTS
  6
CONTINUOUS
 62
     0
 10
-1345.3866894535561
 20
-1468.6681578089731
 30
0.0
  0
POINT
  5
EFE
  8
DEFPOINTS
  6
CONTINUOUS
 62
     0
 10
-1365.3866894535561
 20
-1426.168157808974
 30
0.0
  0
POINT
  5
EFF
  8
DEFPOINTS
  6
CONTINUOUS
 62
     0
 10
-1697.2737917006771
 20
-1426.168157808974
 30
0.0
  0
ENDBLK
  5
F00
  8
0
  0
BLOCK
  8
0
  2
*D35
 70
     1
 10
0.0
 20
0.0
 30
0.0
  3
*D35
  1

  0
LINE
  5
FD0
  8
SIZE
  6
CONTINUOUS
 62
     0
 10
-420.0
 20
-253.0
 30
0.0
 11
-420.0
 21
-509.36497745244912
 31
0.0
  0
LINE
  5
FD1
  8
SIZE
  6
CONTINUOUS
 62
     0
 10
420.0
 20
-253.0
 30
0.0
 11
420.0
 21
-509.36497745244912
 31
0.0
  0
LINE
  5
FD2
  8
SIZE
  6
CONTINUOUS
 62
     0
 10
-410.0
 20
-479.36497745244912
 30
0.0
 11
410.0
 21
-479.36497745244912
 31
0.0
  0
INSERT
  5
FD3
  8
SIZE
  6
CONTINUOUS
 62
     0
  2
_ORIGIN
 10
-420.0
 20
-479.36497745244912
 30
0.0
 41
10.0
 42
10.0
 43
10.0
 50
180.0
  0
INSERT
  5
FD4
  8
SIZE
  6
CONTINUOUS
 62
     0
  2
_ORIGIN
 10
420.0
 20
-479.36497745244912
 30
0.0
 41
10.0
 42
10.0
 43
10.0
  0
TEXT
  8
0
  40
64
  5
1011
  62
0
  72
0
  71
0
 10
-128.000
 20
-540.645
 30
0.000000
  1
840
  0
POINT
  5
FD6
  8
DEFPOINTS
  6
CONTINUOUS
 62
     0
 10
-420.0
 20
-233.0
 30
0.0
  0
POINT
  5
FD7
  8
DEFPOINTS
  6
CONTINUOUS
 62
     0
 10
420.0
 20
-233.0
 30
0.0
  0
POINT
  5
FD8
  8
DEFPOINTS
  6
CONTINUOUS
 62
     0
 10
420.0
 20
-479.36497745244912
 30
0.0
  0
ENDBLK
  5
F0F
  8
0
  0
BLOCK
  8
0
  2
*D36
 70
     1
 10
0.0
 20
0.0
 30
0.0
  3
*D36
  1

  0
LINE
  5
FD9
  8
SIZE
  6
CONTINUOUS
 62
     0
 10
0.0000000000000012
 20
71.79273000000012
 30
0.0
 11
0.0000000000000138
 21
277.66770401076423
 31
0.0
  0
LINE
  5
FDA
  8
SIZE
  6
CONTINUOUS
 62
     0
 10
-352.0
 20
40.0
 30
0.0
 11
-352.0
 21
277.66770401076423
 31
0.0
  0
LINE
  5
FDB
  8
SIZE
  6
CONTINUOUS
 62
     0
 10
-9.9999999999999876
 20
247.66770401076431
 30
0.0
 11
-342.0
 21
247.66770401076431
 31
0.0
  0
INSERT
  5
FDC
  8
SIZE
  6
CONTINUOUS
 62
     0
  2
_ORIGIN
 10
0.000000000000012
 20
247.66770401076431
 30
0.0
 41
10.0
 42
10.0
 43
10.0
  0
INSERT
  5
FDD
  8
SIZE
  6
CONTINUOUS
 62
     0
  2
_ORIGIN
 10
-352.0
 20
247.66770401076431
 30
0.0
 41
10.0
 42
10.0
 43
10.0
 50
180.0
  0
TEXT
  8
0
  40
64
  5
1012
  62
0
  72
0
  71
0
 10
-304.000
 20
186.388
 30
0.000000
  1
352
  0
POINT
  5
FDF
  8
DEFPOINTS
  6
CONTINUOUS
 62
     0
 10
0.0
 20
51.792730000000113
 30
0.0
  0
POINT
  5
FE0
  8
DEFPOINTS
  6
CONTINUOUS
 62
     0
 10
-352.0
 20
20.0
 30
0.0
  0
POINT
  5
FE1
  8
DEFPOINTS
  6
CONTINUOUS
 62
     0
 10
-352.0
 20
247.66770401076431
 30
0.0
  0
ENDBLK
  5
F1C
  8
0
  0
BLOCK
  8
0
  2
*D37
 70
     1
 10
0.0
 20
0.0
 30
0.0
  3
*D37
  1

  0
LINE
  5
FE2
  8
SIZE
  6
CONTINUOUS
 62
     0
 10
-352.0
 20
40.0
 30
0.0
 11
-352.0
 21
277.66770401076423
 31
0.0
  0
LINE
  5
FE3
  8
SIZE
  6
CONTINUOUS
 62
     0
 10
-420.0
 20
-29.808365678619339
 30
0.0
 11
-420.0
 21
277.66770401076428
 31
0.0
  0
LINE
  5
FE4
  8
SIZE
  6
CONTINUOUS
 62
     0
 10
-362.0
 20
247.66770401076431
 30
0.0
 11
-410.0
 21
247.66770401076431
 31
0.0
  0
LINE
  5
FE5
  8
SIZE
  6
CONTINUOUS
 62
     0
 10
-420.0
 20
247.66770401076431
 30
0.0
 11
-563.25714285714275
 21
247.66770401076431
 31
0.0
  0
INSERT
  5
FE6
  8
SIZE
  6
CONTINUOUS
 62
     0
  2
_ORIGIN
 10
-352.0
 20
247.66770401076431
 30
0.0
 41
10.0
 42
10.0
 43
10.0
  0
INSERT
  5
FE7
  8
SIZE
  6
CONTINUOUS
 62
     0
  2
_ORIGIN
 10
-420.0
 20
247.66770401076431
 30
0.0
 41
10.0
 42
10.0
 43
10.0
 50
180.0
  0
TEXT
  8
0
  40
64
  5
1013
  62
0
  72
0
  71
0
 10
-624.629
 20
186.388
 30
0.000000
  1
68
  0
POINT
  5
FE9
  8
DEFPOINTS
  6
CONTINUOUS
 62
     0
 10
-352.0
 20
20.0
 30
0.0
  0
POINT
  5
FEA
  8
DEFPOINTS
  6
CONTINUOUS
 62
     0
 10
-420.0
 20
-49.808365678619353
 30
0.0
  0
POINT
  5
FEB
  8
DEFPOINTS
  6
CONTINUOUS
 62
     0
 10
-420.0
 20
247.66770401076431
 30
0.0
  0
ENDBLK
  5
F33
  8
0
  0
BLOCK
  8
0
  2
*D38
 70
     1
 10
0.0
 20
0.0
 30
0.0
  3
*D38
  1

  0
LINE
  5
FEC
  8
SIZE
  6
CONTINUOUS
 62
     0
 10
0.0000000000000012
 20
71.79273000000012
 30
0.0
 11
0.0000000000000138
 21
277.66770401076423
 31
0.0
  0
LINE
  5
FED
  8
SIZE
  6
CONTINUOUS
 62
     0
 10
337.0
 20
40.0
 30
0.0
 11
337.0
 21
277.66770401076423
 31
0.0
  0
LINE
  5
FEE
  8
SIZE
  6
CONTINUOUS
 62
     0
 10
10.000000000000011
 20
247.66770401076431
 30
0.0
 11
327.0
 21
247.66770401076431
 31
0.0
  0
INSERT
  5
FEF
  8
SIZE
  6
CONTINUOUS
 62
     0
  2
_ORIGIN
 10
0.000000000000012
 20
247.66770401076431
 30
0.0
 41
10.0
 42
10.0
 43
10.0
 50
180.0
  0
INSERT
  5
FF0
  8
SIZE
  6
CONTINUOUS
 62
     0
  2
_ORIGIN
 10
337.0
 20
247.66770401076431
 30
0.0
 41
10.0
 42
10.0
 43
10.0
  0
TEXT
  8
0
  40
64
  5
1014
  62
0
  72
0
  71
0
 10
40.5000
 20
186.388
 30
0.000000
  1
337
  0
POINT
  5
FF2
  8
DEFPOINTS
  6
CONTINUOUS
 62
     0
 10
0.0
 20
51.792730000000113
 30
0.0
  0
POINT
  5
FF3
  8
DEFPOINTS
  6
CONTINUOUS
 62
     0
 10
337.0
 20
20.0
 30
0.0
  0
POINT
  5
FF4
  8
DEFPOINTS
  6
CONTINUOUS
 62
     0
 10
337.0
 20
247.66770401076431
 30
0.0
  0
ENDBLK
  5
F4B
  8
0
  0
BLOCK
  8
0
  2
*D39
 70
     1
 10
0.0
 20
0.0
 30
0.0
  3
*D39
  1

  0
LINE
  5
FF5
  8
SIZE
  6
CONTINUOUS
 62
     0
 10
337.0
 20
40.0
 30
0.0
 11
337.0
 21
277.66770401076423
 31
0.0
  0
LINE
  5
FF6
  8
SIZE
  6
CONTINUOUS
 62
     0
 10
420.0
 20
-29.808365678619339
 30
0.0
 11
420.0
 21
277.66770401076428
 31
0.0
  0
LINE
  5
FF7
  8
SIZE
  6
CONTINUOUS
 62
     0
 10
347.0
 20
247.66770401076431
 30
0.0
 11
410.0
 21
247.66770401076431
 31
0.0
  0
LINE
  5
FF8
  8
SIZE
  6
CONTINUOUS
 62
     0
 10
420.0
 20
247.66770401076431
 30
0.0
 11
563.25714285714275
 21
247.66770401076431
 31
0.0
  0
INSERT
  5
FF9
  8
SIZE
  6
CONTINUOUS
 62
     0
  2
_ORIGIN
 10
337.0
 20
247.66770401076431
 30
0.0
 41
10.0
 42
10.0
 43
10.0
 50
180.0
  0
INSERT
  5
FFA
  8
SIZE
  6
CONTINUOUS
 62
     0
  2
_ORIGIN
 10
420.0
 20
247.66770401076431
 30
0.0
 41
10.0
 42
10.0
 43
10.0
  0
TEXT
  8
0
  40
64
  5
1015
  62
0
  72
0
  71
0
 10
368.629
 20
186.388
 30
0.000000
  1
83
  0
POINT
  5
FFC
  8
DEFPOINTS
  6
CONTINUOUS
 62
     0
 10
337.0
 20
20.0
 30
0.0
  0
POINT
  5
FFD
  8
DEFPOINTS
  6
CONTINUOUS
 62
     0
 10
420.0
 20
-49.808365678619353
 30
0.0
  0
POINT
  5
FFE
  8
DEFPOINTS
  6
CONTINUOUS
 62
     0
 10
420.0
 20
247.66770401076431
 30
0.0
  0
ENDBLK
  5
F5A
  8
0
  0
BLOCK
  8
0
  2
*D40
 70
     1
 10
0.0
 20
0.0
 30
0.0
  3
*D40
  1

  0
LINE
  5
FFF
  8
SIZE
  6
CONTINUOUS
 62
     0
 10
-434.25
 20
0.0000000000000057
 30
0.0
 11
-580.32075463927686
 21
0.000000000000047
 31
0.0
  0
LINE
  5
1000
  8
SIZE
  6
CONTINUOUS
 62
     0
 10
-420.0
 20
-253.0
 30
0.0
 11
-580.32075463927686
 21
-252.99999999999989
 31
0.0
  0
LINE
  5
1001
  8
SIZE
  6
CONTINUOUS
 62
     0
 10
-550.32075463927686
 20
-9.9999999999999591
 30
0.0
 11
-550.32075463927686
 21
-242.99999999999989
 31
0.0
  0
INSERT
  5
1002
  8
SIZE
  6
CONTINUOUS
 62
     0
  2
_ORIGIN
 10
-550.32075463927686
 20
0.0000000000000385
 30
0.0
 41
10.0
 42
10.0
 43
10.0
 50
90.0
  0
INSERT
  5
1003
  8
SIZE
  6
CONTINUOUS
 62
     0
  2
_ORIGIN
 10
-550.32075463927686
 20
-252.99999999999989
 30
0.0
 41
10.0
 42
10.0
 43
10.0
 50
270.0
  0
TEXT
  8
0
  40
64
  5
1016
  62
0
  72
0
  71
0
 10
-730.321
 20
-239.780
 30
0.000000
  1
253
  0
POINT
  5
1005
  8
DEFPOINTS
  6
CONTINUOUS
 62
     0
 10
-414.25
 20
0.0
 30
0.0
  0
POINT
  5
1006
  8
DEFPOINTS
  6
CONTINUOUS
 62
     0
 10
-400.0
 20
-253.0
 30
0.0
  0
POINT
  5
1007
  8
DEFPOINTS
  6
CONTINUOUS
 62
     0
 10
-550.32075463927686
 20
-252.99999999999989
 30
0.0
  0
ENDBLK
  5
F6D
  8
0
  0
BLOCK
  8
0
  2
*D41
 70
     1
 10
0.0
 20
0.0
 30
0.0
  3
*D41
  1

  0
LINE
  5
1008
  8
SIZE
  6
CONTINUOUS
 62
     0
 10
-417.49999999999989
 20
20.0
 30
0.0
 11
-417.49999999999989
 21
404.33789383212928
 31
0.0
  0
LINE
  5
1009
  8
SIZE
  6
CONTINUOUS
 62
     0
 10
417.49999999999989
 20
20.0
 30
0.0
 11
417.49999999999989
 21
404.33789383212928
 31
0.0
  0
LINE
  5
100A
  8
SIZE
  6
CONTINUOUS
 62
     0
 10
-407.49999999999989
 20
374.33789383212923
 30
0.0
 11
407.49999999999989
 21
374.33789383212923
 31
0.0
  0
INSERT
  5
100B
  8
SIZE
  6
CONTINUOUS
 62
     0
  2
_ORIGIN
 10
-417.49999999999989
 20
374.33789383212923
 30
0.0
 41
10.0
 42
10.0
 43
10.0
 50
180.0
  0
INSERT
  5
100C
  8
SIZE
  6
CONTINUOUS
 62
     0
  2
_ORIGIN
 10
417.49999999999989
 20
374.33789383212923
 30
0.0
 41
10.0
 42
10.0
 43
10.0
  0
TEXT
  8
0
  40
64
  5
1017
  62
0
  72
0
  71
0
 10
-128.000
 20
313.058
 30
0.000000
  1
835
  0
POINT
  5
100E
  8
DEFPOINTS
  6
CONTINUOUS
 62
     0
 10
-417.49999999999989
 20
0.0
 30
0.0
  0
POINT
  5
100F
  8
DEFPOINTS
  6
CONTINUOUS
 62
     0
 10
417.49999999999989
 20
0.0
 30
0.0
  0
POINT
  5
1010
  8
DEFPOINTS
  6
CONTINUOUS
 62
     0
 10
417.49999999999989
 20
374.33789383212923
 30
0.0
  0
ENDBLK
  5
F7A
  8
0
  0
ENDSEC
  0
SECTION
  2
ENTITIES
  0
TEXT
  5
F01
  8
ETC
 10
594.21222806293963
 20
481.15279903062873
 30
0.0
 40
64.0
  1
SMSZ2776
 41
0.8917197521894893
 72
     5
 11
1020.878898062939
 21
481.15279903062873
 31
0.0
  0
TEXT
  5
F02
  8
ETC
 10
601.6288580629398
 20
587.38988903062864
 30
0.0
 40
64.0
  1
RAC
 41
0.9051724137931014
 72
     5
 11
761.62885806293934
 21
587.38988903062864
 31
0.0
  0
DIMENSION
  5
F03
  8
SIZE
  6
CONTINUOUS
  2
*D35
 10
420.0
 20
-479.36497745244912
 30
0.0
 11
0.0000000000000032
 21
-427.36497745244918
 31
0.0
 70
     0
 13
-420.0
 23
-233.0
 33
0.0
 14
420.0
 24
-233.0
 34
0.0
1001
ACAD
1000
DSTYLE
1002
{
1070
   287
1070
     3
1070
    41
1040
10.0
1070
    42
1040
20.0
1070
    43
1040
200.0
1070
    44
1040
30.0
1070
    73
1070
     0
1070
    74
1070
     0
1070
    77
1070
     1
1070
    78
1070
     8
1070
   140
1040
64.0
1070
   147
1040
20.0
1070
   172
1070
     1
1070
   275
1070
     0
1070
   279
1070
     0
1070
   284
1070
     0
1070
   285
1070
     0
1070
   286
1070
     0
1070
   341
1005
D64
1070
     5
1000
ORIGIN
1002
}
  0
DIMENSION
  5
F10
  8
SIZE
  6
CONTINUOUS
  2
*D36
 10
-352.0
 20
247.66770401076431
 30
0.0
 11
-176.0
 21
299.66770401076428
 31
0.0
 70
     0
 13
0.0
 23
51.792730000000113
 33
0.0
 14
-352.0
 24
20.0
 34
0.0
1001
ACAD
1000
DSTYLE
1002
{
1070
   287
1070
     3
1070
    41
1040
10.0
1070
    42
1040
20.0
1070
    43
1040
200.0
1070
    44
1040
30.0
1070
    73
1070
     0
1070
    74
1070
     0
1070
    77
1070
     1
1070
    78
1070
     8
1070
   140
1040
64.0
1070
   147
1040
20.0
1070
   172
1070
     1
1070
   275
1070
     0
1070
   279
1070
     0
1070
   284
1070
     0
1070
   285
1070
     0
1070
   286
1070
     0
1070
   341
1005
D64
1070
     5
1000
ORIGIN
1002
}
  0
LINE
  5
F1D
  8
DETAIL
  6
CONTINUOUS
 10
-417.49999999999989
 20
0.0000000000004547
 30
0.0
 11
417.49999999999989
 21
0.0
 31
0.0
  0
LINE
  5
F1E
  8
DETAIL
  6
CONTINUOUS
 10
-400.0
 20
-253.0
 30
0.0
 11
400.0
 21
-253.0
 31
0.0
  0
LINE
  5
F1F
  8
NOTE
  6
CONTINUOUS
 62
     4
 10
-441.8133624108703
 20
110.5573037204603
 30
0.0
 11
-967.92245999999955
 21
110.5573037204603
 31
0.0
  0
TEXT
  5
F20
  8
NOTE
 62
     4
 10
-959.3315399999999
 20
134.08822372046001
 30
0.0
 40
64.0
  1
D,RL,RG%%C65
 41
0.9
  0
ARC
  5
F21
  8
DETAIL
  6
CONTINUOUS
 10
-400.0
 20
-233.0
 30
0.0
 40
20.0
 50
180.0
 51
270.0
  0
LINE
  5
F22
  8
DETAIL
  6
CONTINUOUS
 10
-420.0
 20
-49.808365678619353
 30
0.0
 11
419.99999999999972
 21
-49.808365678619353
 31
0.0
  0
LINE
  5
F23
  8
DETAIL
  6
CONTINUOUS
 10
-420.0
 20
-49.808365678619353
 30
0.0
 11
-420.0
 21
-233.0
 31
0.0
  0
LINE
  5
F24
  8
NOTE
  6
CONTINUOUS
 62
     4
 10
-352.0
 20
0.0
 30
0.0
 11
-441.8133624108703
 21
110.5573037204603
 31
0.0
  0
DIMENSION
  5
F25
  8
SIZE
  6
CONTINUOUS
  2
*D37
 10
-420.0
 20
247.66770401076431
 30
0.0
 11
-496.62857142857138
 21
299.66770401076428
 31
0.0
 70
     0
 13
-352.0
 23
20.0
 33
0.0
 14
-420.0
 24
-49.808365678619353
 34
0.0
1001
ACAD
1000
DSTYLE
1002
{
1070
   287
1070
     3
1070
    41
1040
10.0
1070
    42
1040
20.0
1070
    43
1040
200.0
1070
    44
1040
30.0
1070
    73
1070
     0
1070
    74
1070
     0
1070
    77
1070
     1
1070
    78
1070
     8
1070
   140
1040
64.0
1070
   147
1040
20.0
1070
   172
1070
     1
1070
   275
1070
     0
1070
   279
1070
     0
1070
   284
1070
     0
1070
   285
1070
     0
1070
   286
1070
     0
1070
   341
1005
D64
1070
     5
1000
ORIGIN
1002
}
  0
LINE
  5
F34
  8
NOTE
  6
CONTINUOUS
 62
     4
 10
-352.0
 20
0.0
 30
0.0
 11
-368.59682999999978
 21
36.39429999999993
 31
0.0
  0
LINE
  5
F35
  8
NOTE
  6
CONTINUOUS
 62
     4
 10
-384.57042999999987
 20
23.21997999999985
 30
0.0
 11
-352.0
 21
0.0
 31
0.0
  0
LINE
  5
F36
  8
NOTE
  6
DASHDOT
 62
     4
 10
-352.0
 20
20.0
 30
0.0
 11
-352.0
 21
-20.0
 31
0.0
  0
LINE
  5
F37
  8
NOTE
  6
DASHDOT
 62
     4
 10
-372.0
 20
0.0
 30
0.0
 11
-332.0
 21
0.0
 31
0.0
  0
LINE
  5
F38
  8
NOTE
  6
CONTINUOUS
 62
     4
 10
431.82699589641732
 20
111.90556372045999
 30
0.0
 11
978.73234999999988
 21
111.90556372045999
 31
0.0
  0
TEXT
  5
F39
  8
NOTE
 62
     4
 10
475.78420999999992
 20
138.6564237204602
 30
0.0
 40
64.0
  1
D,RL,RG%%C65
 41
0.9
  0
LINE
  5
F3A
  8
BASIS
  6
DASHDOT
 62
     6
 10
0.0
 20
51.792730000000113
 30
0.0
 11
0.0
 21
-272.82677000000001
 31
0.0
  0
CIRCLE
  5
F3B
  8
ARRANGE
  6
CONTINUOUS
 10
0.0
 20
0.0
 30
0.0
 40
40.0
  0
POINT
  5
F3C
  8
ARRANGE
  6
CONTINUOUS
 10
0.0
 20
0.0
 30
0.0
  0
LINE
  5
F3D
  8
DETAIL
  6
CONTINUOUS
 10
420.0
 20
-49.808365678619353
 30
0.0
 11
420.0
 21
-233.0
 31
0.0
  0
ARC
  5
F3E
  8
DETAIL
  6
CONTINUOUS
 10
400.0
 20
-233.0
 30
0.0
 40
20.0
 50
270.0
 51
0.0
  0
DIMENSION
  5
F3F
  8
SIZE
  6
CONTINUOUS
  2
*D38
 10
337.0
 20
247.66770401076431
 30
0.0
 11
168.5
 21
299.66770401076428
 31
0.0
 70
     0
 13
0.0
 23
51.792730000000113
 33
0.0
 14
337.0
 24
20.0
 34
0.0
1001
ACAD
1000
DSTYLE
1002
{
1070
   287
1070
     3
1070
    41
1040
10.0
1070
    42
1040
20.0
1070
    43
1040
200.0
1070
    44
1040
30.0
1070
    73
1070
     0
1070
    74
1070
     0
1070
    77
1070
     1
1070
    78
1070
     8
1070
   140
1040
64.0
1070
   147
1040
20.0
1070
   172
1070
     1
1070
   275
1070
     0
1070
   279
1070
     0
1070
   284
1070
     0
1070
   285
1070
     0
1070
   286
1070
     0
1070
   341
1005
D64
1070
     5
1000
ORIGIN
1002
}
  0
DIMENSION
  5
F4C
  8
SIZE
  6
CONTINUOUS
  2
*D39
 10
420.0
 20
247.66770401076431
 30
0.0
 11
496.62857142857138
 21
299.66770401076428
 31
0.0
 70
     0
 13
337.0
 23
20.0
 33
0.0
 14
420.0
 24
-49.808365678619353
 34
0.0
1001
ACAD
1000
DSTYLE
1002
{
1070
   287
1070
     3
1070
    41
1040
10.0
1070
    42
1040
20.0
1070
    43
1040
200.0
1070
    44
1040
30.0
1070
    73
1070
     0
1070
    74
1070
     0
1070
    77
1070
     1
1070
    78
1070
     8
1070
   140
1040
64.0
1070
   147
1040
20.0
1070
   172
1070
     1
1070
   275
1070
     0
1070
   279
1070
     0
1070
   284
1070
     0
1070
   285
1070
     0
1070
   286
1070
     0
1070
   341
1005
D64
1070
     5
1000
ORIGIN
1002
}
  0
LINE
  5
F5B
  8
NOTE
  6
CONTINUOUS
 62
     4
 10
337.0
 20
0.0
 30
0.0
 11
431.82699589641732
 21
111.90556372045999
 31
0.0
  0
LINE
  5
F5C
  8
NOTE
  6
DASHDOT
 62
     4
 10
317.0
 20
0.0
 30
0.0
 11
357.0
 21
0.0
 31
0.0
  0
LINE
  5
F5D
  8
NOTE
  6
CONTINUOUS
 62
     4
 10
337.0
 20
0.0
 30
0.0
 11
369.95472999999993
 21
22.671249999999869
 31
0.0
  0
LINE
  5
F5E
  8
NOTE
  6
CONTINUOUS
 62
     4
 10
354.20400999999993
 20
36.11124999999992
 30
0.0
 11
337.0
 21
0.0
 31
0.0
  0
LINE
  5
F5F
  8
NOTE
  6
DASHDOT
 62
     4
 10
337.0
 20
20.0
 30
0.0
 11
337.0
 21
-20.0
 31
0.0
  0
LINE
  5
F60
  8
DETAIL
  6
CONTINUOUS
 10
-420.0
 20
-203.0
 30
0.0
 11
420.0
 21
-203.0
 31
0.0
  0
DIMENSION
  5
F61
  8
SIZE
  6
CONTINUOUS
  2
*D40
 10
-550.32075463927686
 20
-252.99999999999989
 30
0.0
 11
-602.32075463927686
 21
-126.5
 31
0.0
 70
     0
 13
-414.25
 23
0.0
 33
0.0
 14
-400.0
 24
-253.0
 34
0.0
 50
90.0
1001
ACAD
1000
DSTYLE
1002
{
1070
   287
1070
     3
1070
    41
1040
10.0
1070
    42
1040
20.0
1070
    43
1040
200.0
1070
    44
1040
30.0
1070
    73
1070
     0
1070
    74
1070
     0
1070
    77
1070
     1
1070
    78
1070
     8
1070
   140
1040
64.0
1070
   147
1040
20.0
1070
   172
1070
     1
1070
   275
1070
     0
1070
   279
1070
     0
1070
   284
1070
     0
1070
   285
1070
     0
1070
   286
1070
     0
1070
   341
1005
D64
1070
     5
1000
ORIGIN
1002
}
  0
DIMENSION
  5
F6E
  8
SIZE
  6
CONTINUOUS
  2
*D41
 10
417.49999999999989
 20
374.33789383212923
 30
0.0
 11
0.0000000000000032
 21
426.33789383212923
 31
0.0
 70
     0
 13
-417.49999999999989
 23
0.0
 33
0.0
 14
417.49999999999989
 24
0.0
 34
0.0
1001
ACAD
1000
DSTYLE
1002
{
1070
   287
1070
     3
1070
    41
1040
10.0
1070
    42
1040
20.0
1070
    43
1040
200.0
1070
    44
1040
30.0
1070
    73
1070
     0
1070
    74
1070
     0
1070
    77
1070
     1
1070
    78
1070
     8
1070
   140
1040
64.0
1070
   147
1040
20.0
1070
   172
1070
     1
1070
   275
1070
     0
1070
   279
1070
     0
1070
   284
1070
     0
1070
   285
1070
     0
1070
   286
1070
     0
1070
   341
1005
D64
1070
     5
1000
ORIGIN
1002
}
  0
LINE
  5
F7B
  8
DETAIL
 10
417.49999999999989
 20
0.0
 30
0.0
 11
417.49999999999989
 21
-47.324028099485979
 31
0.0
  0
ARC
  5
F7C
  8
DETAIL
  6
CONTINUOUS
 10
429.25
 20
-38.0
 30
0.0
 40
15.0
 50
218.4332063408508
 51
231.92687667707611
  0
LINE
  5
F7D
  8
DETAIL
 10
-417.49999999999989
 20
0.0000000000004547
 30
0.0
 11
-417.49999999999989
 21
-47.324028099485979
 31
0.0
  0
ARC
  5
F7E
  8
DETAIL
  6
CONTINUOUS
 10
-429.25
 20
-38.0
 30
0.0
 40
15.0
 50
308.07312332292361
 51
321.56679365914903
  0
LINE
  5
F7F
  8
OUTLINE
  6
CONTINUOUS
 10
420.0
 20
-49.808365678619353
 30
0.0
 11
420.0
 21
-233.0
 31
0.0
  0
LINE
  5
F80
  8
OUTLINE
  6
CONTINUOUS
 10
-420.0
 20
-49.808365678619353
 30
0.0
 11
-420.0
 21
-233.0
 31
0.0
  0
LINE
  5
F81
  8
OUTLINE
  6
CONTINUOUS
 10
-400.0
 20
-253.0
 30
0.0
 11
400.0
 21
-253.0
 31
0.0
  0
ARC
  5
F82
  8
OUTLINE
  6
CONTINUOUS
 10
-400.0
 20
-233.0
 30
0.0
 40
20.0
 50
180.0
 51
270.0
  0
ARC
  5
F83
  8
OUTLINE
  6
CONTINUOUS
 10
400.0
 20
-233.0
 30
0.0
 40
20.0
 50
270.0
 51
0.0
  0
LINE
  5
F84
  8
OUTLINE
  6
CONTINUOUS
 10
-417.49999999999989
 20
0.0000000000004547
 30
0.0
 11
417.49999999999989
 21
0.0
 31
0.0
  0
LINE
  5
F85
  8
OUTLINE
 10
-417.49999999999989
 20
0.0000000000004547
 30
0.0
 11
-417.49999999999989
 21
-47.324028099485979
 31
0.0
  0
ARC
  5
F86
  8
OUTLINE
  6
CONTINUOUS
 10
-429.25
 20
-38.0
 30
0.0
 40
15.0
 50
308.07312332292361
 51
321.56679365914903
  0
LINE
  5
F87
  8
OUTLINE
 10
417.49999999999989
 20
0.0
 30
0.0
 11
417.49999999999989
 21
-47.324028099485979
 31
0.0
  0
ARC
  5
F88
  8
OUTLINE
  6
CONTINUOUS
 10
429.25
 20
-38.0
 30
0.0
 40
15.0
 50
218.4332063408508
 51
231.92687667707611
  0
ENDSEC
  0
EOF
