  0
SECTION
  2
HEADER
  9
$ACADVER
  1
AC1009
  9
$INSBASE
 10
0.0
 20
0.0
 30
0.0
  9
$EXTMIN
 10
-805.81536000000006
 20
-465.12463999999989
 30
0.0
  9
$EXTMAX
 10
676.97012607801992
 20
442.27757102682932
 30
0.0
  9
$LIMMIN
 10
-2428.899553052323
 20
-3385.7899241372602
  9
$LIMMAX
 10
5476.8888439526536
 20
849.23357081275742
  9
$ORTHOMODE
 70
     1
  9
$REGENMODE
 70
     1
  9
$FILLMODE
 70
     1
  9
$QTEXTMODE
 70
     0
  9
$MIRRTEXT
 70
     0
  9
$DRAGMODE
 70
     2
  9
$LTSCALE
 40
20.0
  9
$OSMODE
 70
    37
  9
$ATTMODE
 70
     1
  9
$TEXTSIZE
 40
64.0
  9
$TRACEWID
 40
0.05
  9
$TEXTSTYLE
  7
STANDARD
  9
$CLAYER
  8
SIZE
  9
$CELTYPE
  6
CONTINUOUS
  9
$CECOLOR
 62
   256
  9
$DIMSCALE
 40
1.0
  9
$DIMASZ
 40
10.0
  9
$DIMEXO
 40
20.0
  9
$DIMDLI
 40
200.0
  9
$DIMRND
 40
0.0
  9
$DIMDLE
 40
0.0
  9
$DIMEXE
 40
30.0
  9
$DIMTP
 40
0.0
  9
$DIMTM
 40
0.0
  9
$DIMTXT
 40
64.0
  9
$DIMCEN
 40
0.09
  9
$DIMTSZ
 40
0.0
  9
$DIMTOL
 70
     0
  9
$DIMLIM
 70
     0
  9
$DIMTIH
 70
     0
  9
$DIMTOH
 70
     0
  9
$DIMSE1
 70
     0
  9
$DIMSE2
 70
     0
  9
$DIMTAD
 70
     1
  9
$DIMZIN
 70
     8
  9
$DIMBLK
  1
ORIGIN
  9
$DIMASO
 70
     1
  9
$DIMSHO
 70
     0
  9
$DIMPOST
  1

  9
$DIMAPOST
  1

  9
$DIMALT
 70
     0
  9
$DIMALTD
 70
     2
  9
$DIMALTF
 40
25.399999999999999
  9
$DIMLFAC
 40
1.0
  9
$DIMTOFL
 70
     1
  9
$DIMTVP
 40
0.0
  9
$DIMTIX
 70
     0
  9
$DIMSOXD
 70
     0
  9
$DIMSAH
 70
     0
  9
$DIMBLK1
  1

  9
$DIMBLK2
  1

  9
$DIMSTYLE
  2
STANDARD
  9
$DIMCLRD
 70
     0
  9
$DIMCLRE
 70
     0
  9
$DIMCLRT
 70
     0
  9
$DIMTFAC
 40
1.0
  9
$DIMGAP
 40
20.0
  9
$LUNITS
 70
     2
  9
$LUPREC
 70
     4
  9
$SKETCHINC
 40
0.1
  9
$FILLETRAD
 40
5.0
  9
$AUNITS
 70
     1
  9
$AUPREC
 70
     3
  9
$MENU
  1
ACAD
  9
$ELEVATION
 40
0.0
  9
$PELEVATION
 40
0.0
  9
$THICKNESS
 40
0.0
  9
$LIMCHECK
 70
     0
  9
$BLIPMODE
 70
     0
  9
$CHAMFERA
 40
0.0
  9
$CHAMFERB
 40
0.0
  9
$SKPOLY
 70
     0
  9
$TDCREATE
 40
2450330.3932059952
  9
$TDUPDATE
 40
2453182.5112704281
  9
$TDINDWG
 40
0.3911980903
  9
$TDUSRTIMER
 40
0.3911980903
  9
$USRTIMER
 70
     1
  9
$ANGBASE
 50
0.0
  9
$ANGDIR
 70
     0
  9
$PDMODE
 70
     3
  9
$PDSIZE
 40
-2.0
  9
$PLINEWID
 40
0.0
  9
$COORDS
 70
     1
  9
$SPLFRAME
 70
     0
  9
$SPLINETYPE
 70
     6
  9
$SPLINESEGS
 70
     8
  9
$ATTDIA
 70
     0
  9
$ATTREQ
 70
     1
  9
$HANDLING
 70
 10241
  9
$HANDSEED
  5
1238
  9
$SURFTAB1
 70
     6
  9
$SURFTAB2
 70
     6
  9
$SURFTYPE
 70
     6
  9
$SURFU
 70
     6
  9
$SURFV
 70
     6
  9
$UCSNAME
  2

  9
$UCSORG
 10
0.0
 20
0.0
 30
0.0
  9
$UCSXDIR
 10
1.0
 20
0.0
 30
0.0
  9
$UCSYDIR
 10
0.0
 20
1.0
 30
0.0
  9
$PUCSNAME
  2

  9
$PUCSORG
 10
0.0
 20
0.0
 30
0.0
  9
$PUCSXDIR
 10
1.0
 20
0.0
 30
0.0
  9
$PUCSYDIR
 10
0.0
 20
1.0
 30
0.0
  9
$USERI1
 70
     0
  9
$USERI2
 70
     0
  9
$USERI3
 70
     0
  9
$USERI4
 70
     0
  9
$USERI5
 70
     0
  9
$USERR1
 40
20.0
  9
$USERR2
 40
0.0
  9
$USERR3
 40
0.0
  9
$USERR4
 40
0.0
  9
$USERR5
 40
0.0
  9
$WORLDVIEW
 70
     1
  9
$SHADEDGE
 70
     3
  9
$SHADEDIF
 70
    70
  9
$TILEMODE
 70
     1
  9
$MAXACTVP
 70
    64
  9
$PLIMCHECK
 70
     0
  9
$PEXTMIN
 10
1.0000000000000000E+020
 20
1.0000000000000000E+020
 30
1.0000000000000000E+020
  9
$PEXTMAX
 10
-1.0000000000000000E+020
 20
-1.0000000000000000E+020
 30
-1.0000000000000000E+020
  9
$PLIMMIN
 10
0.0
 20
0.0
  9
$PLIMMAX
 10
12.0
 20
9.0
  9
$UNITMODE
 70
     0
  9
$VISRETAIN
 70
     1
  9
$PLINEGEN
 70
     0
  9
$PSLTSCALE
 70
     1
  0
ENDSEC
  0
SECTION
  2
TABLES
  0
TABLE
  2
VPORT
 70
     2
  0
VPORT
  2
*ACTIVE
 70
     0
 10
0.0
 20
0.0
 11
1.0
 21
1.0
 12
154.00169124184461
 22
221.0006537477675
 13
0.0
 23
0.0
 14
50.0
 24
50.0
 15
100.0
 25
100.0
 16
0.0
 26
0.0
 36
1.0
 17
0.0
 27
0.0
 37
0.0
 40
2274.4782951289958
 41
1.5139593908629441
 42
50.0
 43
0.0
 44
0.0
 50
0.0
 51
0.0
 71
     0
 72
   500
 73
     1
 74
     0
 75
     0
 76
     0
 77
     0
 78
     0
  0
ENDTAB
  0
TABLE
  2
LTYPE
 70
    15
  0
LTYPE
  2
CONTINUOUS
 70
     0
  3
実線
 72
    65
 73
     0
 40
0.0
  0
LTYPE
  2
DASHDOT
 70
     0
  3
____ _ ____ _ ____ _ ____ _ ____ _ ____ _ ____
 72
    65
 73
     4
 40
5.5
 49
4.0
 49
-0.6
 49
0.3
 49
-0.6
  0
LTYPE
  2
CONTINOUS
 70
     0
  3
Solid line
 72
    65
 73
     0
 40
0.0
  0
LTYPE
  2
BORDER
 70
     0
  3
BORDER
 72
    65
 73
     6
 40
1.75
 49
0.5
 49
-0.25
 49
0.5
 49
-0.25
 49
0.0
 49
-0.25
  0
LTYPE
  2
CENTER
 70
     0
  3
CENTER
 72
    65
 73
     4
 40
2.0
 49
1.25
 49
-0.25
 49
0.25
 49
-0.25
  0
LTYPE
  2
DASHED
 70
     0
  3
DASHED
 72
    65
 73
     2
 40
0.75
 49
0.5
 49
-0.25
  0
LTYPE
  2
DIVIDE
 70
     0
  3
DIVIDE
 72
    65
 73
     6
 40
1.25
 49
0.5
 49
-0.25
 49
0.0
 49
-0.25
 49
0.0
 49
-0.25
  0
LTYPE
  2
DOT
 70
     0
  3
DOT
 72
    65
 73
     2
 40
0.25
 49
0.0
 49
-0.25
  0
LTYPE
  2
HIDDEN
 70
     0
  3
HIDDEN
 72
    65
 73
     2
 40
0.375
 49
0.25
 49
-0.125
  0
LTYPE
  2
PHANTOM
 70
     0
  3
PHANTOM
 72
    65
 73
     6
 40
2.5
 49
1.25
 49
-0.25
 49
0.25
 49
-0.25
 49
0.25
 49
-0.25
  0
LTYPE
  2
$INVISIBLE
 70
     0
  3
$INVISIBLE
 72
    65
 73
     2
 40
200.0
 49
-100.0
 49
-100.0
  0
LTYPE
  2
$MARGINS
 70
     0
  3
$MARGINS
 72
    65
 73
     2
 40
0.075
 49
0.05
 49
-0.025
  0
LTYPE
  2
JLSTYLE_0
 70
     0
  3
JLSTYLE_0
 72
    65
 73
     4
 40
1.0
 49
0.5
 49
-0.25
 49
0.0
 49
-0.25
  0
LTYPE
  2
JLSTYLE_1
 70
     0
  3
JLSTYLE_1
 72
    65
 73
     2
 40
0.75
 49
0.5
 49
-0.25
  0
LTYPE
  2
JLSTYLE_2
 70
     0
  3
JLSTYLE_2
 72
    65
 73
     6
 40
1.25
 49
0.5
 49
-0.25
 49
0.0
 49
-0.25
 49
0.0
 49
-0.25
  0
ENDTAB
  0
TABLE
  2
LAYER
 70
    13
  0
LAYER
  2
0
 70
     0
 62
     7
  6
CONTINUOUS
  0
LAYER
  2
SIZE
 70
     0
 62
    32
  6
CONTINUOUS
  0
LAYER
  2
DETAIL
 70
     0
 62
     5
  6
CONTINUOUS
  0
LAYER
  2
OUTLINE
 70
     0
 62
     3
  6
CONTINUOUS
  0
LAYER
  2
BASIS
 70
     0
 62
     6
  6
CONTINUOUS
  0
LAYER
  2
NOTE
 70
     0
 62
     4
  6
CONTINUOUS
  0
LAYER
  2
ARRANGE
 70
     0
 62
     1
  6
CONTINUOUS
  0
LAYER
  2
FIX
 70
     0
 62
   241
  6
CONTINUOUS
  0
LAYER
  2
ETC
 70
     0
 62
    83
  6
CONTINUOUS
  0
LAYER
  2
SERVICESPACE
 70
     0
 62
     2
  6
CONTINUOUS
  0
LAYER
  2
SYMBOLLINE
 70
     0
 62
    38
  6
CONTINUOUS
  0
LAYER
  2
DEFPOINTS
 70
     0
 62
     7
  6
CONTINUOUS
  0
LAYER
  2
SERVICE_SPACE
 70
     0
 62
     2
  6
CONTINUOUS
  0
ENDTAB
  0
TABLE
  2
STYLE
 70
     1
  0
STYLE
  2
STANDARD
 70
     0
 40
0.0
 41
0.9
 50
0.0
 71
     0
 42
64.0
  3
SIMPLEX
  4
BIGFONT
  0
ENDTAB
  0
TABLE
  2
VIEW
 70
     1
  0
VIEW
  2
ALL
 70
     0
 40
4282.6199999999999
 10
0.0
 20
41.309903999999989
 41
5940.0
 11
0.0
 21
0.0
 31
1.0
 12
0.0
 22
0.0
 32
0.0
 42
50.0
 43
0.0
 44
0.0
 50
0.0
 71
     0
  0
ENDTAB
  0
TABLE
  2
UCS
 70
     0
  0
ENDTAB
  0
TABLE
  2
APPID
 70
     1
  0
APPID
  2
ACAD
 70
     0
  0
ENDTAB
  0
TABLE
  2
DIMSTYLE
 70
     1
  0
DIMSTYLE
  2
STANDARD
 70
     0
  3

  4

  5

  6

  7

 40
1.0
 41
0.18
 42
0.0625
 43
0.38
 44
0.18
 45
0.0
 46
0.0
 47
0.0
 48
0.0
140
0.18
141
0.09
142
0.0
143
25.399999999999999
144
1.0
145
0.0
146
1.0
147
0.09
 71
     0
 72
     0
 73
     1
 74
     1
 75
     0
 76
     0
 77
     0
 78
     0
170
     0
171
     2
172
     0
173
     0
174
     0
175
     0
176
     0
177
     0
178
     0
  0
ENDTAB
  0
ENDSEC
  0
SECTION
  2
BLOCKS
  0
BLOCK
  8
0
  2
$MODEL_SPACE
 70
     0
 10
0.0
 20
0.0
 30
0.0
  3
$MODEL_SPACE
  1

  0
ENDBLK
  5
E47
  8
0
  0
BLOCK
 67
     1
  8
0
  2
$PAPER_SPACE
 70
     0
 10
0.0
 20
0.0
 30
0.0
  3
$PAPER_SPACE
  1

  0
ENDBLK
  5
E43
 67
     1
  8
0
  0
BLOCK
  8
0
  2
_ORIGIN
 70
     0
 10
0.0
 20
0.0
 30
0.0
  3
_ORIGIN
  1

  0
CIRCLE
  5
E70
  8
0
  6
BYBLOCK
 62
     0
 10
0.0
 20
0.0
 30
0.0
 40
0.5
  0
LINE
  5
E71
  8
0
  6
BYBLOCK
 62
     0
 10
0.0
 20
0.0
 30
0.0
 11
-1.0
 21
0.0
 31
0.0
  0
ENDBLK
  5
E72
  8
0
  0
BLOCK
  8
0
  2
*D3
 70
     1
 10
0.0
 20
0.0
 30
0.0
  3
*D3
  1

  0
LINE
  5
E75
  8
SIZE
  6
CONTINUOUS
 62
     0
 10
-420.0
 20
-253.0
 30
0.0
 11
-420.0
 21
-509.36497745244912
 31
0.0
  0
LINE
  5
E76
  8
SIZE
  6
CONTINUOUS
 62
     0
 10
420.0
 20
-253.0
 30
0.0
 11
420.0
 21
-509.36497745244912
 31
0.0
  0
LINE
  5
E77
  8
SIZE
  6
CONTINUOUS
 62
     0
 10
-410.0
 20
-479.36497745244912
 30
0.0
 11
410.0
 21
-479.36497745244912
 31
0.0
  0
INSERT
  5
E78
  8
SIZE
  6
CONTINUOUS
 62
     0
  2
_ORIGIN
 10
-420.0
 20
-479.36497745244912
 30
0.0
 41
10.0
 42
10.0
 43
10.0
 50
180.0
  0
INSERT
  5
E79
  8
SIZE
  6
CONTINUOUS
 62
     0
  2
_ORIGIN
 10
420.0
 20
-479.36497745244912
 30
0.0
 41
10.0
 42
10.0
 43
10.0
  0
TEXT
  5
E7A
  8
SIZE
  6
CONTINUOUS
 62
     0
 10
-74.057142857142864
 20
-459.36497745244912
 30
0.0
 40
64.0
  1
840
 41
0.9
  0
POINT
  5
E7B
  8
DEFPOINTS
  6
CONTINUOUS
 62
     0
 10
-420.0
 20
-233.0
 30
0.0
  0
POINT
  5
E7C
  8
DEFPOINTS
  6
CONTINUOUS
 62
     0
 10
420.0
 20
-233.0
 30
0.0
  0
POINT
  5
E7D
  8
DEFPOINTS
  6
CONTINUOUS
 62
     0
 10
420.0
 20
-479.36497745244912
 30
0.0
  0
ENDBLK
  5
E7E
  8
0
  0
BLOCK
  8
0
  2
*D4
 70
     1
 10
0.0
 20
0.0
 30
0.0
  3
*D4
  1

  0
LINE
  5
E81
  8
SIZE
  6
CONTINUOUS
 62
     0
 10
0.0000000000000012
 20
71.79273000000002
 30
0.0
 11
0.0000000000000138
 21
277.66770401076423
 31
0.0
  0
LINE
  5
E82
  8
SIZE
  6
CONTINUOUS
 62
     0
 10
-352.0
 20
40.0
 30
0.0
 11
-352.0
 21
277.66770401076423
 31
0.0
  0
LINE
  5
E83
  8
SIZE
  6
CONTINUOUS
 62
     0
 10
-9.9999999999999876
 20
247.66770401076431
 30
0.0
 11
-342.0
 21
247.66770401076431
 31
0.0
  0
INSERT
  5
E84
  8
SIZE
  6
CONTINUOUS
 62
     0
  2
_ORIGIN
 10
0.000000000000012
 20
247.66770401076431
 30
0.0
 41
10.0
 42
10.0
 43
10.0
  0
INSERT
  5
E85
  8
SIZE
  6
CONTINUOUS
 62
     0
  2
_ORIGIN
 10
-352.0
 20
247.66770401076431
 30
0.0
 41
10.0
 42
10.0
 43
10.0
 50
180.0
  0
TEXT
  5
E86
  8
SIZE
  6
CONTINUOUS
 62
     0
 10
-250.05714285714279
 20
267.66770401076423
 30
0.0
 40
64.0
  1
352
 41
0.9
  0
POINT
  5
E87
  8
DEFPOINTS
  6
CONTINUOUS
 62
     0
 10
0.0
 20
51.792729999999999
 30
0.0
  0
POINT
  5
E88
  8
DEFPOINTS
  6
CONTINUOUS
 62
     0
 10
-352.0
 20
20.0
 30
0.0
  0
POINT
  5
E89
  8
DEFPOINTS
  6
CONTINUOUS
 62
     0
 10
-352.0
 20
247.66770401076431
 30
0.0
  0
ENDBLK
  5
E8A
  8
0
  0
BLOCK
  8
0
  2
*D5
 70
     1
 10
0.0
 20
0.0
 30
0.0
  3
*D5
  1

  0
LINE
  5
E8D
  8
SIZE
  6
CONTINUOUS
 62
     0
 10
0.0000000000000012
 20
71.79273000000002
 30
0.0
 11
0.0000000000000138
 21
277.66770401076423
 31
0.0
  0
LINE
  5
E8E
  8
SIZE
  6
CONTINUOUS
 62
     0
 10
337.0
 20
40.0
 30
0.0
 11
337.0
 21
277.66770401076423
 31
0.0
  0
LINE
  5
E8F
  8
SIZE
  6
CONTINUOUS
 62
     0
 10
10.000000000000011
 20
247.66770401076431
 30
0.0
 11
327.0
 21
247.66770401076431
 31
0.0
  0
INSERT
  5
E90
  8
SIZE
  6
CONTINUOUS
 62
     0
  2
_ORIGIN
 10
0.000000000000012
 20
247.66770401076431
 30
0.0
 41
10.0
 42
10.0
 43
10.0
 50
180.0
  0
INSERT
  5
E91
  8
SIZE
  6
CONTINUOUS
 62
     0
  2
_ORIGIN
 10
337.0
 20
247.66770401076431
 30
0.0
 41
10.0
 42
10.0
 43
10.0
  0
TEXT
  5
E92
  8
SIZE
  6
CONTINUOUS
 62
     0
 10
94.442857142857136
 20
267.66770401076423
 30
0.0
 40
64.0
  1
337
 41
0.9
  0
POINT
  5
E93
  8
DEFPOINTS
  6
CONTINUOUS
 62
     0
 10
0.0
 20
51.792729999999999
 30
0.0
  0
POINT
  5
E94
  8
DEFPOINTS
  6
CONTINUOUS
 62
     0
 10
337.0
 20
20.0
 30
0.0
  0
POINT
  5
E95
  8
DEFPOINTS
  6
CONTINUOUS
 62
     0
 10
337.0
 20
247.66770401076431
 30
0.0
  0
ENDBLK
  5
E96
  8
0
  0
BLOCK
  8
0
  2
*D6
 70
     1
 10
0.0
 20
0.0
 30
0.0
  3
*D6
  1

  0
LINE
  5
E99
  8
SIZE
  6
CONTINUOUS
 62
     0
 10
-352.0
 20
40.0
 30
0.0
 11
-352.0
 21
277.66770401076423
 31
0.0
  0
LINE
  5
E9A
  8
SIZE
  6
CONTINUOUS
 62
     0
 10
-420.0
 20
-29.808365678619531
 30
0.0
 11
-420.0
 21
277.66770401076423
 31
0.0
  0
LINE
  5
E9B
  8
SIZE
  6
CONTINUOUS
 62
     0
 10
-342.0
 20
247.66770401076431
 30
0.0
 11
-332.0
 21
247.66770401076431
 31
0.0
  0
LINE
  5
E9C
  8
SIZE
  6
CONTINUOUS
 62
     0
 10
-430.0
 20
247.66770401076431
 30
0.0
 11
-573.25714285714275
 21
247.66770401076431
 31
0.0
  0
LINE
  5
E9D
  8
SIZE
  6
CONTINUOUS
 62
     0
 10
-352.0
 20
247.66770401076431
 30
0.0
 11
-420.0
 21
247.66770401076431
 31
0.0
  0
INSERT
  5
E9E
  8
SIZE
  6
CONTINUOUS
 62
     0
  2
_ORIGIN
 10
-352.0
 20
247.66770401076431
 30
0.0
 41
10.0
 42
10.0
 43
10.0
 50
180.0
  0
INSERT
  5
E9F
  8
SIZE
  6
CONTINUOUS
 62
     0
  2
_ORIGIN
 10
-420.0
 20
247.66770401076431
 30
0.0
 41
10.0
 42
10.0
 43
10.0
  0
TEXT
  5
EA0
  8
SIZE
  6
CONTINUOUS
 62
     0
 10
-553.25714285714275
 20
267.66770401076423
 30
0.0
 40
64.0
  1
68
 41
0.9
  0
POINT
  5
EA1
  8
DEFPOINTS
  6
CONTINUOUS
 62
     0
 10
-352.0
 20
20.0
 30
0.0
  0
POINT
  5
EA2
  8
DEFPOINTS
  6
CONTINUOUS
 62
     0
 10
-420.0
 20
-49.808365678619531
 30
0.0
  0
POINT
  5
EA3
  8
DEFPOINTS
  6
CONTINUOUS
 62
     0
 10
-420.0
 20
247.66770401076431
 30
0.0
  0
ENDBLK
  5
EA4
  8
0
  0
BLOCK
  8
0
  2
*D7
 70
     1
 10
0.0
 20
0.0
 30
0.0
  3
*D7
  1

  0
LINE
  5
EA7
  8
SIZE
  6
CONTINUOUS
 62
     0
 10
337.0
 20
40.0
 30
0.0
 11
337.0
 21
277.66770401076423
 31
0.0
  0
LINE
  5
EA8
  8
SIZE
  6
CONTINUOUS
 62
     0
 10
420.00000000000011
 20
-29.808365678619591
 30
0.0
 11
420.00000000000011
 21
277.66770401076423
 31
0.0
  0
LINE
  5
EA9
  8
SIZE
  6
CONTINUOUS
 62
     0
 10
327.0
 20
247.66770401076431
 30
0.0
 11
317.0
 21
247.66770401076431
 31
0.0
  0
LINE
  5
EAA
  8
SIZE
  6
CONTINUOUS
 62
     0
 10
430.0
 20
247.66770401076431
 30
0.0
 11
573.25714285714287
 21
247.66770401076431
 31
0.0
  0
LINE
  5
EAB
  8
SIZE
  6
CONTINUOUS
 62
     0
 10
337.0
 20
247.66770401076431
 30
0.0
 11
420.00000000000011
 21
247.66770401076431
 31
0.0
  0
INSERT
  5
EAC
  8
SIZE
  6
CONTINUOUS
 62
     0
  2
_ORIGIN
 10
337.0
 20
247.66770401076431
 30
0.0
 41
10.0
 42
10.0
 43
10.0
  0
INSERT
  5
EAD
  8
SIZE
  6
CONTINUOUS
 62
     0
  2
_ORIGIN
 10
420.00000000000011
 20
247.66770401076431
 30
0.0
 41
10.0
 42
10.0
 43
10.0
 50
180.0
  0
TEXT
  5
EAE
  8
SIZE
  6
CONTINUOUS
 62
     0
 10
460.0
 20
267.66770401076423
 30
0.0
 40
64.0
  1
83
 41
0.9
  0
POINT
  5
EAF
  8
DEFPOINTS
  6
CONTINUOUS
 62
     0
 10
337.0
 20
20.0
 30
0.0
  0
POINT
  5
EB0
  8
DEFPOINTS
  6
CONTINUOUS
 62
     0
 10
420.00000000000011
 20
-49.808365678619602
 30
0.0
  0
POINT
  5
EB1
  8
DEFPOINTS
  6
CONTINUOUS
 62
     0
 10
420.00000000000011
 20
247.66770401076431
 30
0.0
  0
ENDBLK
  5
EB2
  8
0
  0
BLOCK
  8
0
  2
*D8
 70
     1
 10
0.0
 20
0.0
 30
0.0
  3
*D8
  1

  0
LINE
  5
EB5
  8
SIZE
  6
CONTINUOUS
 62
     0
 10
-430.0
 20
-1468.6681578089731
 30
0.0
 11
-607.88564535690955
 21
-1468.6681578089731
 31
0.0
  0
LINE
  5
EB6
  8
SIZE
  6
CONTINUOUS
 62
     0
 10
-430.0
 20
-1170.668157808974
 30
0.0
 11
-607.88564535690955
 21
-1170.668157808974
 31
0.0
  0
LINE
  5
EB7
  8
SIZE
  6
CONTINUOUS
 62
     0
 10
-577.88564535690966
 20
-1458.668157808974
 30
0.0
 11
-577.88564535690966
 21
-1180.668157808974
 31
0.0
  0
INSERT
  5
EB8
  8
SIZE
  6
CONTINUOUS
 62
     0
  2
_ORIGIN
 10
-577.88564535690966
 20
-1468.6681578089731
 30
0.0
 41
10.0
 42
10.0
 43
10.0
 50
270.0
  0
INSERT
  5
EB9
  8
SIZE
  6
CONTINUOUS
 62
     0
  2
_ORIGIN
 10
-577.88564535690966
 20
-1170.668157808974
 30
0.0
 41
10.0
 42
10.0
 43
10.0
 50
90.0
  0
TEXT
  5
EBA
  8
SIZE
  6
CONTINUOUS
 62
     0
 10
-597.88564535690955
 20
-1393.725300666116
 30
0.0
 40
64.0
  1
298
 50
90.0
 41
0.9
  0
POINT
  5
EBB
  8
DEFPOINTS
  6
CONTINUOUS
 62
     0
 10
-410.0
 20
-1468.6681578089731
 30
0.0
  0
POINT
  5
EBC
  8
DEFPOINTS
  6
CONTINUOUS
 62
     0
 10
-410.0
 20
-1170.668157808974
 30
0.0
  0
POINT
  5
EBD
  8
DEFPOINTS
  6
CONTINUOUS
 62
     0
 10
-577.88564535690966
 20
-1170.668157808974
 30
0.0
  0
ENDBLK
  5
EBE
  8
0
  0
BLOCK
  8
0
  2
*D9
 70
     1
 10
0.0
 20
0.0
 30
0.0
  3
*D9
  1

  0
LINE
  5
EC1
  8
SIZE
  6
CONTINUOUS
 62
     0
 10
-420.0
 20
-1160.6681578089731
 30
0.0
 11
-420.0
 21
-1002.493004975886
 31
0.0
  0
LINE
  5
EC2
  8
SIZE
  6
CONTINUOUS
 62
     0
 10
420.0
 20
-1160.6681578089731
 30
0.0
 11
420.0
 21
-1002.493004975886
 31
0.0
  0
LINE
  5
EC3
  8
SIZE
  6
CONTINUOUS
 62
     0
 10
-410.0
 20
-1032.4930049758859
 30
0.0
 11
410.0
 21
-1032.4930049758859
 31
0.0
  0
INSERT
  5
EC4
  8
SIZE
  6
CONTINUOUS
 62
     0
  2
_ORIGIN
 10
-420.0
 20
-1032.4930049758859
 30
0.0
 41
10.0
 42
10.0
 43
10.0
 50
180.0
  0
INSERT
  5
EC5
  8
SIZE
  6
CONTINUOUS
 62
     0
  2
_ORIGIN
 10
420.0
 20
-1032.4930049758859
 30
0.0
 41
10.0
 42
10.0
 43
10.0
  0
TEXT
  5
EC6
  8
SIZE
  6
CONTINUOUS
 62
     0
 10
-74.057142857142864
 20
-1012.493004975886
 30
0.0
 40
64.0
  1
840
 41
0.9
  0
POINT
  5
EC7
  8
DEFPOINTS
  6
CONTINUOUS
 62
     0
 10
-420.0
 20
-1180.668157808974
 30
0.0
  0
POINT
  5
EC8
  8
DEFPOINTS
  6
CONTINUOUS
 62
     0
 10
420.0
 20
-1180.668157808974
 30
0.0
  0
POINT
  5
EC9
  8
DEFPOINTS
  6
CONTINUOUS
 62
     0
 10
420.0
 20
-1032.4930049758859
 30
0.0
  0
ENDBLK
  5
ECA
  8
0
  0
BLOCK
  8
0
  2
*D10
 70
     1
 10
0.0
 20
0.0
 30
0.0
  3
*D10
  1

  0
LINE
  5
ECD
  8
SIZE
  6
CONTINUOUS
 62
     0
 10
20.0
 20
0.0000000000000057
 30
0.0
 11
-491.4843902873871
 21
0.0000000000001506
 31
0.0
  0
LINE
  5
ECE
  8
SIZE
  6
CONTINUOUS
 62
     0
 10
-20.0
 20
-298.0
 30
0.0
 11
-491.4843902873871
 21
-297.99999999999972
 31
0.0
  0
LINE
  5
ECF
  8
SIZE
  6
CONTINUOUS
 62
     0
 10
-461.4843902873871
 20
-9.9999999999998561
 30
0.0
 11
-461.4843902873871
 21
-287.99999999999989
 31
0.0
  0
INSERT
  5
ED0
  8
SIZE
  6
CONTINUOUS
 62
     0
  2
_ORIGIN
 10
-461.4843902873871
 20
0.0000000000001421
 30
0.0
 41
10.0
 42
10.0
 43
10.0
 50
90.0
  0
INSERT
  5
ED1
  8
SIZE
  6
CONTINUOUS
 62
     0
  2
_ORIGIN
 10
-461.4843902873871
 20
-297.99999999999989
 30
0.0
 41
10.0
 42
10.0
 43
10.0
 50
270.0
  0
TEXT
  5
ED2
  8
0
 62
     0
 10
-641.48400000000004
 20
-262.27999999999992
 30
0.0
 40
64.0
  1
298
  0
POINT
  5
ED3
  8
DEFPOINTS
  6
CONTINUOUS
 62
     0
 10
40.0
 20
0.0
 30
0.0
  0
POINT
  5
ED4
  8
DEFPOINTS
  6
CONTINUOUS
 62
     0
 10
0.0
 20
-298.0
 30
0.0
  0
POINT
  5
ED5
  8
DEFPOINTS
  6
CONTINUOUS
 62
     0
 10
-461.4843902873871
 20
-297.99999999999989
 30
0.0
  0
ENDBLK
  5
ED6
  8
0
  0
BLOCK
  8
0
  2
*D11
 70
     1
 10
0.0
 20
0.0
 30
0.0
  3
*D11
  1

  0
LINE
  5
ED9
  8
SIZE
  6
CONTINUOUS
 62
     0
 10
1680.553510123251
 20
-1170.668157808974
 30
0.0
 11
2192.037900410638
 21
-1170.668157808974
 31
0.0
  0
LINE
  5
EDA
  8
SIZE
  6
CONTINUOUS
 62
     0
 10
1720.553510123252
 20
-1468.6681578089731
 30
0.0
 11
2192.037900410638
 21
-1468.6681578089731
 31
0.0
  0
LINE
  5
EDB
  8
SIZE
  6
CONTINUOUS
 62
     0
 10
2162.0379004106398
 20
-1180.668157808974
 30
0.0
 11
2162.0379004106398
 21
-1458.668157808974
 31
0.0
  0
INSERT
  5
EDC
  8
SIZE
  6
CONTINUOUS
 62
     0
  2
_ORIGIN
 10
2162.0379004106398
 20
-1170.668157808974
 30
0.0
 41
10.0
 42
10.0
 43
10.0
 50
90.0
  0
INSERT
  5
EDD
  8
SIZE
  6
CONTINUOUS
 62
     0
  2
_ORIGIN
 10
2162.0379004106398
 20
-1468.6681578089731
 30
0.0
 41
10.0
 42
10.0
 43
10.0
 50
270.0
  0
TEXT
  5
EDE
  8
SIZE
  6
CONTINUOUS
 62
     0
 10
2142.0379004106398
 20
-1393.725300666116
 30
0.0
 40
64.0
  1
298
 50
90.0
 41
0.9
  0
POINT
  5
EDF
  8
DEFPOINTS
  6
CONTINUOUS
 62
     0
 10
1660.553510123252
 20
-1170.668157808974
 30
0.0
  0
POINT
  5
EE0
  8
DEFPOINTS
  6
CONTINUOUS
 62
     0
 10
1700.553510123252
 20
-1468.6681578089731
 30
0.0
  0
POINT
  5
EE1
  8
DEFPOINTS
  6
CONTINUOUS
 62
     0
 10
2162.0379004106398
 20
-1468.6681578089731
 30
0.0
  0
ENDBLK
  5
EE2
  8
0
  0
BLOCK
  8
0
  2
*D12
 70
     1
 10
0.0
 20
0.0
 30
0.0
  3
*D12
  1

  0
LINE
  5
EE5
  8
SIZE
  6
CONTINUOUS
 62
     0
 10
3646.9333408239891
 20
-1160.6681578089731
 30
0.0
 11
3646.9333408239891
 21
-964.67444707061622
 31
0.0
  0
LINE
  5
EE6
  8
SIZE
  6
CONTINUOUS
 62
     0
 10
4486.9333408239891
 20
-1160.6681578089731
 30
0.0
 11
4486.9333408239891
 21
-964.67444707061622
 31
0.0
  0
LINE
  5
EE7
  8
SIZE
  6
CONTINUOUS
 62
     0
 10
3656.9333408239891
 20
-994.674447070616
 30
0.0
 11
4476.9333408239891
 21
-994.674447070616
 31
0.0
  0
INSERT
  5
EE8
  8
SIZE
  6
CONTINUOUS
 62
     0
  2
_ORIGIN
 10
3646.9333408239891
 20
-994.674447070616
 30
0.0
 41
10.0
 42
10.0
 43
10.0
 50
180.0
  0
INSERT
  5
EE9
  8
SIZE
  6
CONTINUOUS
 62
     0
  2
_ORIGIN
 10
4486.9333408239891
 20
-994.674447070616
 30
0.0
 41
10.0
 42
10.0
 43
10.0
  0
TEXT
  5
EEA
  8
SIZE
  6
CONTINUOUS
 62
     0
 10
3992.8761979668461
 20
-974.67444707061588
 30
0.0
 40
64.0
  1
840
 41
0.9
  0
POINT
  5
EEB
  8
DEFPOINTS
  6
CONTINUOUS
 62
     0
 10
3646.9333408239891
 20
-1180.668157808974
 30
0.0
  0
POINT
  5
EEC
  8
DEFPOINTS
  6
CONTINUOUS
 62
     0
 10
4486.9333408239891
 20
-1180.668157808974
 30
0.0
  0
POINT
  5
EED
  8
DEFPOINTS
  6
CONTINUOUS
 62
     0
 10
4486.9333408239891
 20
-994.674447070616
 30
0.0
  0
ENDBLK
  5
EEE
  8
0
  0
BLOCK
  8
0
  2
*D13
 70
     1
 10
0.0
 20
0.0
 30
0.0
  3
*D13
  1

  0
LINE
  5
EF1
  8
SIZE
  6
CONTINUOUS
 62
     0
 10
4496.9333408239881
 20
-1468.6681578089731
 30
0.0
 11
4843.3578462447331
 21
-1468.6681578089731
 31
0.0
  0
LINE
  5
EF2
  8
SIZE
  6
CONTINUOUS
 62
     0
 10
4496.9333408239881
 20
-1170.668157808974
 30
0.0
 11
4843.3578462447331
 21
-1170.668157808974
 31
0.0
  0
LINE
  5
EF3
  8
SIZE
  6
CONTINUOUS
 62
     0
 10
4813.3578462447331
 20
-1458.668157808974
 30
0.0
 11
4813.3578462447331
 21
-1180.668157808974
 31
0.0
  0
INSERT
  5
EF4
  8
SIZE
  6
CONTINUOUS
 62
     0
  2
_ORIGIN
 10
4813.3578462447331
 20
-1468.6681578089731
 30
0.0
 41
10.0
 42
10.0
 43
10.0
 50
270.0
  0
INSERT
  5
EF5
  8
SIZE
  6
CONTINUOUS
 62
     0
  2
_ORIGIN
 10
4813.3578462447331
 20
-1170.668157808974
 30
0.0
 41
10.0
 42
10.0
 43
10.0
 50
90.0
  0
TEXT
  5
EF6
  8
SIZE
  6
CONTINUOUS
 62
     0
 10
4793.3578462447331
 20
-1393.725300666116
 30
0.0
 40
64.0
  1
298
 50
90.0
 41
0.9
  0
POINT
  5
EF7
  8
DEFPOINTS
  6
CONTINUOUS
 62
     0
 10
4476.9333408239891
 20
-1468.6681578089731
 30
0.0
  0
POINT
  5
EF8
  8
DEFPOINTS
  6
CONTINUOUS
 62
     0
 10
4476.9333408239891
 20
-1170.668157808974
 30
0.0
  0
POINT
  5
EF9
  8
DEFPOINTS
  6
CONTINUOUS
 62
     0
 10
4813.3578462447331
 20
-1170.668157808974
 30
0.0
  0
ENDBLK
  5
EFA
  8
0
  0
BLOCK
  8
0
  2
*D14
 70
     1
 10
0.0
 20
0.0
 30
0.0
  3
*D14
  1

  0
LINE
  5
EFD
  8
SIZE
  6
CONTINUOUS
 62
     0
 10
4066.9333408239891
 20
-1524.573416190229
 30
0.0
 11
4066.9333408239891
 21
-1770.483104401475
 31
0.0
  0
LINE
  5
EFE
  8
SIZE
  6
CONTINUOUS
 62
     0
 10
3729.9333408239881
 20
-1466.668157808974
 30
0.0
 11
3729.9333408239881
 21
-1770.483104401475
 31
0.0
  0
LINE
  5
EFF
  8
SIZE
  6
CONTINUOUS
 62
     0
 10
4056.9333408239891
 20
-1740.483104401475
 30
0.0
 11
3739.9333408239891
 21
-1740.483104401475
 31
0.0
  0
INSERT
  5
F00
  8
SIZE
  6
CONTINUOUS
 62
     0
  2
_ORIGIN
 10
4066.9333408239891
 20
-1740.483104401475
 30
0.0
 41
10.0
 42
10.0
 43
10.0
  0
INSERT
  5
F01
  8
SIZE
  6
CONTINUOUS
 62
     0
  2
_ORIGIN
 10
3729.9333408239881
 20
-1740.483104401475
 30
0.0
 41
10.0
 42
10.0
 43
10.0
 50
180.0
  0
TEXT
  5
F02
  8
SIZE
  6
CONTINUOUS
 62
     0
 10
3824.3761979668461
 20
-1720.4831044014741
 30
0.0
 40
64.0
  1
337
 41
0.9
  0
POINT
  5
F03
  8
DEFPOINTS
  6
CONTINUOUS
 62
     0
 10
4066.9333408239891
 20
-1504.573416190229
 30
0.0
  0
POINT
  5
F04
  8
DEFPOINTS
  6
CONTINUOUS
 62
     0
 10
3729.9333408239881
 20
-1446.668157808974
 30
0.0
  0
POINT
  5
F05
  8
DEFPOINTS
  6
CONTINUOUS
 62
     0
 10
3729.9333408239881
 20
-1740.483104401475
 30
0.0
  0
ENDBLK
  5
F06
  8
0
  0
BLOCK
  8
0
  2
*D15
 70
     1
 10
0.0
 20
0.0
 30
0.0
  3
*D15
  1

  0
LINE
  5
F09
  8
SIZE
  6
CONTINUOUS
 62
     0
 10
4066.9333408239891
 20
-1524.573416190229
 30
0.0
 11
4066.9333408239891
 21
-1770.483104401475
 31
0.0
  0
LINE
  5
F0A
  8
SIZE
  6
CONTINUOUS
 62
     0
 10
4418.9333408239891
 20
-1467.668157808974
 30
0.0
 11
4418.9333408239891
 21
-1770.483104401475
 31
0.0
  0
LINE
  5
F0B
  8
SIZE
  6
CONTINUOUS
 62
     0
 10
4076.9333408239891
 20
-1740.483104401475
 30
0.0
 11
4408.9333408239872
 21
-1740.483104401475
 31
0.0
  0
INSERT
  5
F0C
  8
SIZE
  6
CONTINUOUS
 62
     0
  2
_ORIGIN
 10
4066.9333408239891
 20
-1740.483104401475
 30
0.0
 41
10.0
 42
10.0
 43
10.0
 50
180.0
  0
INSERT
  5
F0D
  8
SIZE
  6
CONTINUOUS
 62
     0
  2
_ORIGIN
 10
4418.9333408239891
 20
-1740.483104401475
 30
0.0
 41
10.0
 42
10.0
 43
10.0
  0
TEXT
  5
F0E
  8
SIZE
  6
CONTINUOUS
 62
     0
 10
4168.8761979668461
 20
-1720.4831044014741
 30
0.0
 40
64.0
  1
352
 41
0.9
  0
POINT
  5
F0F
  8
DEFPOINTS
  6
CONTINUOUS
 62
     0
 10
4066.9333408239891
 20
-1504.573416190229
 30
0.0
  0
POINT
  5
F10
  8
DEFPOINTS
  6
CONTINUOUS
 62
     0
 10
4418.9333408239891
 20
-1447.668157808974
 30
0.0
  0
POINT
  5
F11
  8
DEFPOINTS
  6
CONTINUOUS
 62
     0
 10
4418.9333408239891
 20
-1740.483104401475
 30
0.0
  0
ENDBLK
  5
F12
  8
0
  0
BLOCK
  8
0
  2
*D16
 70
     1
 10
0.0
 20
0.0
 30
0.0
  3
*D16
  1

  0
LINE
  5
F15
  8
SIZE
  6
CONTINUOUS
 62
     0
 10
-420.0
 20
-2717.387437050596
 30
0.0
 11
-420.0
 21
-2973.7524145030452
 31
0.0
  0
LINE
  5
F16
  8
SIZE
  6
CONTINUOUS
 62
     0
 10
420.0
 20
-2717.387437050596
 30
0.0
 11
420.0
 21
-2973.7524145030452
 31
0.0
  0
LINE
  5
F17
  8
SIZE
  6
CONTINUOUS
 62
     0
 10
-410.0
 20
-2943.7524145030461
 30
0.0
 11
410.0
 21
-2943.7524145030461
 31
0.0
  0
INSERT
  5
F18
  8
SIZE
  6
CONTINUOUS
 62
     0
  2
_ORIGIN
 10
-420.0
 20
-2943.7524145030461
 30
0.0
 41
10.0
 42
10.0
 43
10.0
 50
180.0
  0
INSERT
  5
F19
  8
SIZE
  6
CONTINUOUS
 62
     0
  2
_ORIGIN
 10
420.0
 20
-2943.7524145030461
 30
0.0
 41
10.0
 42
10.0
 43
10.0
  0
TEXT
  5
F1A
  8
SIZE
  6
CONTINUOUS
 62
     0
 10
-74.057142857142864
 20
-2923.7524145030452
 30
0.0
 40
64.0
  1
840
 41
0.9
  0
POINT
  5
F1B
  8
DEFPOINTS
  6
CONTINUOUS
 62
     0
 10
-420.0
 20
-2697.387437050596
 30
0.0
  0
POINT
  5
F1C
  8
DEFPOINTS
  6
CONTINUOUS
 62
     0
 10
420.0
 20
-2697.387437050596
 30
0.0
  0
POINT
  5
F1D
  8
DEFPOINTS
  6
CONTINUOUS
 62
     0
 10
420.0
 20
-2943.7524145030461
 30
0.0
  0
ENDBLK
  5
F1E
  8
0
  0
BLOCK
  8
0
  2
*D17
 70
     1
 10
0.0
 20
0.0
 30
0.0
  3
*D17
  1

  0
LINE
  5
F21
  8
SIZE
  6
CONTINUOUS
 62
     0
 10
0.0000000000000012
 20
-2392.5947070505958
 30
0.0
 11
0.0000000000000138
 21
-2186.7197330398312
 31
0.0
  0
LINE
  5
F22
  8
SIZE
  6
CONTINUOUS
 62
     0
 10
-352.0
 20
-2424.387437050596
 30
0.0
 11
-352.0
 21
-2186.7197330398312
 31
0.0
  0
LINE
  5
F23
  8
SIZE
  6
CONTINUOUS
 62
     0
 10
-9.9999999999999876
 20
-2216.7197330398312
 30
0.0
 11
-342.0
 21
-2216.7197330398312
 31
0.0
  0
INSERT
  5
F24
  8
SIZE
  6
CONTINUOUS
 62
     0
  2
_ORIGIN
 10
0.000000000000012
 20
-2216.7197330398312
 30
0.0
 41
10.0
 42
10.0
 43
10.0
  0
INSERT
  5
F25
  8
SIZE
  6
CONTINUOUS
 62
     0
  2
_ORIGIN
 10
-352.0
 20
-2216.7197330398312
 30
0.0
 41
10.0
 42
10.0
 43
10.0
 50
180.0
  0
TEXT
  5
F26
  8
SIZE
  6
CONTINUOUS
 62
     0
 10
-250.05714285714279
 20
-2196.7197330398312
 30
0.0
 40
64.0
  1
352
 41
0.9
  0
POINT
  5
F27
  8
DEFPOINTS
  6
CONTINUOUS
 62
     0
 10
0.0
 20
-2412.5947070505958
 30
0.0
  0
POINT
  5
F28
  8
DEFPOINTS
  6
CONTINUOUS
 62
     0
 10
-352.0
 20
-2444.387437050596
 30
0.0
  0
POINT
  5
F29
  8
DEFPOINTS
  6
CONTINUOUS
 62
     0
 10
-352.0
 20
-2216.7197330398312
 30
0.0
  0
ENDBLK
  5
F2A
  8
0
  0
BLOCK
  8
0
  2
*D18
 70
     1
 10
0.0
 20
0.0
 30
0.0
  3
*D18
  1

  0
LINE
  5
F2D
  8
SIZE
  6
CONTINUOUS
 62
     0
 10
0.0000000000000012
 20
-2392.5947070505958
 30
0.0
 11
0.0000000000000138
 21
-2186.7197330398312
 31
0.0
  0
LINE
  5
F2E
  8
SIZE
  6
CONTINUOUS
 62
     0
 10
337.0
 20
-2424.387437050596
 30
0.0
 11
337.0
 21
-2186.7197330398312
 31
0.0
  0
LINE
  5
F2F
  8
SIZE
  6
CONTINUOUS
 62
     0
 10
10.000000000000011
 20
-2216.7197330398312
 30
0.0
 11
327.0
 21
-2216.7197330398312
 31
0.0
  0
INSERT
  5
F30
  8
SIZE
  6
CONTINUOUS
 62
     0
  2
_ORIGIN
 10
0.000000000000012
 20
-2216.7197330398312
 30
0.0
 41
10.0
 42
10.0
 43
10.0
 50
180.0
  0
INSERT
  5
F31
  8
SIZE
  6
CONTINUOUS
 62
     0
  2
_ORIGIN
 10
337.0
 20
-2216.7197330398312
 30
0.0
 41
10.0
 42
10.0
 43
10.0
  0
TEXT
  5
F32
  8
SIZE
  6
CONTINUOUS
 62
     0
 10
94.442857142857136
 20
-2196.7197330398312
 30
0.0
 40
64.0
  1
337
 41
0.9
  0
POINT
  5
F33
  8
DEFPOINTS
  6
CONTINUOUS
 62
     0
 10
0.0
 20
-2412.5947070505958
 30
0.0
  0
POINT
  5
F34
  8
DEFPOINTS
  6
CONTINUOUS
 62
     0
 10
337.0
 20
-2444.387437050596
 30
0.0
  0
POINT
  5
F35
  8
DEFPOINTS
  6
CONTINUOUS
 62
     0
 10
337.0
 20
-2216.7197330398312
 30
0.0
  0
ENDBLK
  5
F36
  8
0
  0
BLOCK
  8
0
  2
*D19
 70
     1
 10
0.0
 20
0.0
 30
0.0
  3
*D19
  1

  0
LINE
  5
F39
  8
SIZE
  6
CONTINUOUS
 62
     0
 10
-352.0
 20
-2424.387437050596
 30
0.0
 11
-352.0
 21
-2186.7197330398312
 31
0.0
  0
LINE
  5
F3A
  8
SIZE
  6
CONTINUOUS
 62
     0
 10
-420.0
 20
-2494.1958027292148
 30
0.0
 11
-420.0
 21
-2186.7197330398312
 31
0.0
  0
LINE
  5
F3B
  8
SIZE
  6
CONTINUOUS
 62
     0
 10
-342.0
 20
-2216.7197330398312
 30
0.0
 11
-332.0
 21
-2216.7197330398312
 31
0.0
  0
LINE
  5
F3C
  8
SIZE
  6
CONTINUOUS
 62
     0
 10
-430.0
 20
-2216.7197330398312
 30
0.0
 11
-573.25714285714275
 21
-2216.7197330398312
 31
0.0
  0
LINE
  5
F3D
  8
SIZE
  6
CONTINUOUS
 62
     0
 10
-352.0
 20
-2216.7197330398312
 30
0.0
 11
-420.0
 21
-2216.7197330398312
 31
0.0
  0
INSERT
  5
F3E
  8
SIZE
  6
CONTINUOUS
 62
     0
  2
_ORIGIN
 10
-352.0
 20
-2216.7197330398312
 30
0.0
 41
10.0
 42
10.0
 43
10.0
 50
180.0
  0
INSERT
  5
F3F
  8
SIZE
  6
CONTINUOUS
 62
     0
  2
_ORIGIN
 10
-420.0
 20
-2216.7197330398312
 30
0.0
 41
10.0
 42
10.0
 43
10.0
  0
TEXT
  5
F40
  8
SIZE
  6
CONTINUOUS
 62
     0
 10
-553.25714285714275
 20
-2196.7197330398312
 30
0.0
 40
64.0
  1
68
 41
0.9
  0
POINT
  5
F41
  8
DEFPOINTS
  6
CONTINUOUS
 62
     0
 10
-352.0
 20
-2444.387437050596
 30
0.0
  0
POINT
  5
F42
  8
DEFPOINTS
  6
CONTINUOUS
 62
     0
 10
-420.0
 20
-2514.1958027292148
 30
0.0
  0
POINT
  5
F43
  8
DEFPOINTS
  6
CONTINUOUS
 62
     0
 10
-420.0
 20
-2216.7197330398312
 30
0.0
  0
ENDBLK
  5
F44
  8
0
  0
BLOCK
  8
0
  2
*D20
 70
     1
 10
0.0
 20
0.0
 30
0.0
  3
*D20
  1

  0
LINE
  5
F47
  8
SIZE
  6
CONTINUOUS
 62
     0
 10
337.0
 20
-2424.387437050596
 30
0.0
 11
337.0
 21
-2186.7197330398312
 31
0.0
  0
LINE
  5
F48
  8
SIZE
  6
CONTINUOUS
 62
     0
 10
420.0
 20
-2494.1958027292148
 30
0.0
 11
420.0
 21
-2186.7197330398312
 31
0.0
  0
LINE
  5
F49
  8
SIZE
  6
CONTINUOUS
 62
     0
 10
327.0
 20
-2216.7197330398312
 30
0.0
 11
317.0
 21
-2216.7197330398312
 31
0.0
  0
LINE
  5
F4A
  8
SIZE
  6
CONTINUOUS
 62
     0
 10
430.0
 20
-2216.7197330398312
 30
0.0
 11
573.25714285714287
 21
-2216.7197330398312
 31
0.0
  0
LINE
  5
F4B
  8
SIZE
  6
CONTINUOUS
 62
     0
 10
337.0
 20
-2216.7197330398312
 30
0.0
 11
420.0
 21
-2216.7197330398312
 31
0.0
  0
INSERT
  5
F4C
  8
SIZE
  6
CONTINUOUS
 62
     0
  2
_ORIGIN
 10
337.0
 20
-2216.7197330398312
 30
0.0
 41
10.0
 42
10.0
 43
10.0
  0
INSERT
  5
F4D
  8
SIZE
  6
CONTINUOUS
 62
     0
  2
_ORIGIN
 10
420.0
 20
-2216.7197330398312
 30
0.0
 41
10.0
 42
10.0
 43
10.0
 50
180.0
  0
TEXT
  5
F4E
  8
SIZE
  6
CONTINUOUS
 62
     0
 10
460.0
 20
-2196.7197330398312
 30
0.0
 40
64.0
  1
83
 41
0.9
  0
POINT
  5
F4F
  8
DEFPOINTS
  6
CONTINUOUS
 62
     0
 10
337.0
 20
-2444.387437050596
 30
0.0
  0
POINT
  5
F50
  8
DEFPOINTS
  6
CONTINUOUS
 62
     0
 10
420.0
 20
-2514.1958027292148
 30
0.0
  0
POINT
  5
F51
  8
DEFPOINTS
  6
CONTINUOUS
 62
     0
 10
420.0
 20
-2216.7197330398312
 30
0.0
  0
ENDBLK
  5
F52
  8
0
  0
BLOCK
  8
0
  2
*D21
 70
     1
 10
0.0
 20
0.0
 30
0.0
  3
*D21
  1

  0
LINE
  5
F55
  8
SIZE
  6
CONTINUOUS
 62
     0
 10
3729.9333408239881
 20
-1466.668157808974
 30
0.0
 11
3729.9333408239881
 21
-1770.483104401475
 31
0.0
  0
LINE
  5
F56
  8
SIZE
  6
CONTINUOUS
 62
     0
 10
3646.9333408239891
 20
-1478.668157808974
 30
0.0
 11
3646.9333408239891
 21
-1770.483104401475
 31
0.0
  0
LINE
  5
F57
  8
SIZE
  6
CONTINUOUS
 62
     0
 10
3739.9333408239891
 20
-1740.483104401475
 30
0.0
 11
3749.9333408239891
 21
-1740.483104401475
 31
0.0
  0
LINE
  5
F58
  8
SIZE
  6
CONTINUOUS
 62
     0
 10
3636.9333408239891
 20
-1740.483104401475
 30
0.0
 11
3493.6761979668458
 21
-1740.483104401475
 31
0.0
  0
LINE
  5
F59
  8
SIZE
  6
CONTINUOUS
 62
     0
 10
3729.9333408239881
 20
-1740.483104401475
 30
0.0
 11
3646.9333408239891
 21
-1740.483104401475
 31
0.0
  0
INSERT
  5
F5A
  8
SIZE
  6
CONTINUOUS
 62
     0
  2
_ORIGIN
 10
3729.9333408239881
 20
-1740.483104401475
 30
0.0
 41
10.0
 42
10.0
 43
10.0
 50
180.0
  0
INSERT
  5
F5B
  8
SIZE
  6
CONTINUOUS
 62
     0
  2
_ORIGIN
 10
3646.9333408239891
 20
-1740.483104401475
 30
0.0
 41
10.0
 42
10.0
 43
10.0
  0
TEXT
  5
F5C
  8
SIZE
  6
CONTINUOUS
 62
     0
 10
3513.6761979668449
 20
-1720.4831044014741
 30
0.0
 40
64.0
  1
83
 41
0.9
  0
POINT
  5
F5D
  8
DEFPOINTS
  6
CONTINUOUS
 62
     0
 10
3729.9333408239881
 20
-1446.668157808974
 30
0.0
  0
POINT
  5
F5E
  8
DEFPOINTS
  6
CONTINUOUS
 62
     0
 10
3646.9333408239891
 20
-1458.668157808974
 30
0.0
  0
POINT
  5
F5F
  8
DEFPOINTS
  6
CONTINUOUS
 62
     0
 10
3646.9333408239891
 20
-1740.483104401475
 30
0.0
  0
ENDBLK
  5
F60
  8
0
  0
BLOCK
  8
0
  2
*D22
 70
     1
 10
0.0
 20
0.0
 30
0.0
  3
*D22
  1

  0
LINE
  5
F63
  8
SIZE
  6
CONTINUOUS
 62
     0
 10
4418.9333408239891
 20
-1467.668157808974
 30
0.0
 11
4418.9333408239891
 21
-1770.483104401475
 31
0.0
  0
LINE
  5
F64
  8
SIZE
  6
CONTINUOUS
 62
     0
 10
4486.9333408239891
 20
-1478.668157808974
 30
0.0
 11
4486.9333408239891
 21
-1770.483104401475
 31
0.0
  0
LINE
  5
F65
  8
SIZE
  6
CONTINUOUS
 62
     0
 10
4408.9333408239872
 20
-1740.483104401475
 30
0.0
 11
4398.9333408239891
 21
-1740.483104401475
 31
0.0
  0
LINE
  5
F66
  8
SIZE
  6
CONTINUOUS
 62
     0
 10
4496.9333408239881
 20
-1740.483104401475
 30
0.0
 11
4640.1904836811318
 21
-1740.483104401475
 31
0.0
  0
LINE
  5
F67
  8
SIZE
  6
CONTINUOUS
 62
     0
 10
4418.9333408239891
 20
-1740.483104401475
 30
0.0
 11
4486.9333408239891
 21
-1740.483104401475
 31
0.0
  0
INSERT
  5
F68
  8
SIZE
  6
CONTINUOUS
 62
     0
  2
_ORIGIN
 10
4418.9333408239891
 20
-1740.483104401475
 30
0.0
 41
10.0
 42
10.0
 43
10.0
  0
INSERT
  5
F69
  8
SIZE
  6
CONTINUOUS
 62
     0
  2
_ORIGIN
 10
4486.9333408239891
 20
-1740.483104401475
 30
0.0
 41
10.0
 42
10.0
 43
10.0
 50
180.0
  0
TEXT
  5
F6A
  8
SIZE
  6
CONTINUOUS
 62
     0
 10
4526.93334082399
 20
-1720.4831044014741
 30
0.0
 40
64.0
  1
68
 41
0.9
  0
POINT
  5
F6B
  8
DEFPOINTS
  6
CONTINUOUS
 62
     0
 10
4418.9333408239891
 20
-1447.668157808974
 30
0.0
  0
POINT
  5
F6C
  8
DEFPOINTS
  6
CONTINUOUS
 62
     0
 10
4486.9333408239891
 20
-1458.668157808974
 30
0.0
  0
POINT
  5
F6D
  8
DEFPOINTS
  6
CONTINUOUS
 62
     0
 10
4486.9333408239891
 20
-1740.483104401475
 30
0.0
  0
ENDBLK
  5
F6E
  8
0
  0
BLOCK
  8
0
  2
*D23
 70
     1
 10
0.0
 20
0.0
 30
0.0
  3
*D23
  1

  0
LINE
  5
F71
  8
SIZE
  6
CONTINUOUS
 62
     0
 10
0.0000000000000012
 20
-5.0
 30
0.0
 11
0.0000000000000122
 21
173.67631643428871
 31
0.0
  0
LINE
  5
F72
  8
SIZE
  6
CONTINUOUS
 62
     0
 10
253.47807095695481
 20
-82.948281921129364
 30
0.0
 11
253.47807095695501
 21
173.67631643428871
 31
0.0
  0
LINE
  5
F73
  8
SIZE
  6
CONTINUOUS
 62
     0
 10
10.000000000000011
 20
143.67631643428871
 30
0.0
 11
243.47807095695501
 21
143.67631643428871
 31
0.0
  0
INSERT
  5
F74
  8
SIZE
  6
CONTINUOUS
 62
     0
  2
_ORIGIN
 10
0.0000000000000103
 20
143.67631643428871
 30
0.0
 41
10.0
 42
10.0
 43
10.0
 50
180.0
  0
INSERT
  5
F75
  8
SIZE
  6
CONTINUOUS
 62
     0
  2
_ORIGIN
 10
253.47807095695501
 20
143.67631643428871
 30
0.0
 41
10.0
 42
10.0
 43
10.0
  0
TEXT
  5
F76
  8
0
 62
     0
 10
1.1228199999999999
 20
82.396299999999997
 30
0.0
 40
64.0
  1
253
  0
POINT
  5
F77
  8
DEFPOINTS
  6
CONTINUOUS
 62
     0
 10
0.0
 20
-25.0
 30
0.0
  0
POINT
  5
F78
  8
DEFPOINTS
  6
CONTINUOUS
 62
     0
 10
253.47807095695481
 20
-102.94828192112919
 30
0.0
  0
POINT
  5
F79
  8
DEFPOINTS
  6
CONTINUOUS
 62
     0
 10
253.47807095695501
 20
143.67631643428871
 30
0.0
  0
ENDBLK
  5
F7A
  8
0
  0
BLOCK
  8
0
  2
*D24
 70
     1
 10
0.0
 20
0.0
 30
0.0
  3
*D24
  1

  0
LINE
  5
F7D
  8
SIZE
  6
CONTINUOUS
 62
     0
 10
-434.25
 20
0.0000000000000057
 30
0.0
 11
-580.75593806697725
 21
0.0000000000000472
 31
0.0
  0
LINE
  5
F7E
  8
SIZE
  6
CONTINUOUS
 62
     0
 10
-420.0
 20
-253.0
 30
0.0
 11
-580.75593806697725
 21
-252.9999999999998
 31
0.0
  0
LINE
  5
F7F
  8
SIZE
  6
CONTINUOUS
 62
     0
 10
-550.75593806697725
 20
-9.9999999999999591
 30
0.0
 11
-550.75593806697725
 21
-242.9999999999998
 31
0.0
  0
INSERT
  5
F80
  8
SIZE
  6
CONTINUOUS
 62
     0
  2
_ORIGIN
 10
-550.75593806697725
 20
0.0000000000000387
 30
0.0
 41
10.0
 42
10.0
 43
10.0
 50
90.0
  0
INSERT
  5
F81
  8
SIZE
  6
CONTINUOUS
 62
     0
  2
_ORIGIN
 10
-550.75593806697725
 20
-252.9999999999998
 30
0.0
 41
10.0
 42
10.0
 43
10.0
 50
270.0
  0
TEXT
  5
F82
  8
SIZE
  6
CONTINUOUS
 62
     0
 10
-570.75593806697725
 20
-191.29336733932439
 30
0.0
 40
64.0
  1
253
 50
90.0
 41
0.9
  0
POINT
  5
F83
  8
DEFPOINTS
  6
CONTINUOUS
 62
     0
 10
-414.25
 20
0.0
 30
0.0
  0
POINT
  5
F84
  8
DEFPOINTS
  6
CONTINUOUS
 62
     0
 10
-400.0
 20
-253.0
 30
0.0
  0
POINT
  5
F85
  8
DEFPOINTS
  6
CONTINUOUS
 62
     0
 10
-550.75593806697725
 20
-252.9999999999998
 30
0.0
  0
ENDBLK
  5
F86
  8
0
  0
BLOCK
  8
0
  2
*D25
 70
     1
 10
0.0
 20
0.0
 30
0.0
  3
*D25
  1

  0
LINE
  5
F89
  8
SIZE
  6
CONTINUOUS
 62
     0
 10
-434.25
 20
-2464.387437050596
 30
0.0
 11
-580.32075463927686
 21
-2464.387437050596
 31
0.0
  0
LINE
  5
F8A
  8
SIZE
  6
CONTINUOUS
 62
     0
 10
-420.0
 20
-2717.387437050596
 30
0.0
 11
-580.32075463927686
 21
-2717.387437050596
 31
0.0
  0
LINE
  5
F8B
  8
SIZE
  6
CONTINUOUS
 62
     0
 10
-550.32075463927686
 20
-2474.387437050596
 30
0.0
 11
-550.32075463927686
 21
-2707.387437050596
 31
0.0
  0
INSERT
  5
F8C
  8
SIZE
  6
CONTINUOUS
 62
     0
  2
_ORIGIN
 10
-550.32075463927686
 20
-2464.387437050596
 30
0.0
 41
10.0
 42
10.0
 43
10.0
 50
90.0
  0
INSERT
  5
F8D
  8
SIZE
  6
CONTINUOUS
 62
     0
  2
_ORIGIN
 10
-550.32075463927686
 20
-2717.387437050596
 30
0.0
 41
10.0
 42
10.0
 43
10.0
 50
270.0
  0
TEXT
  5
F8E
  8
SIZE
  6
CONTINUOUS
 62
     0
 10
-570.32075463927617
 20
-2664.9445799077389
 30
0.0
 40
64.0
  1
253
 50
90.0
 41
0.9
  0
POINT
  5
F8F
  8
DEFPOINTS
  6
CONTINUOUS
 62
     0
 10
-414.25
 20
-2464.387437050596
 30
0.0
  0
POINT
  5
F90
  8
DEFPOINTS
  6
CONTINUOUS
 62
     0
 10
-400.0
 20
-2717.387437050596
 30
0.0
  0
POINT
  5
F91
  8
DEFPOINTS
  6
CONTINUOUS
 62
     0
 10
-550.32075463927686
 20
-2717.387437050596
 30
0.0
  0
ENDBLK
  5
F92
  8
0
  0
BLOCK
  8
0
  2
*D26
 70
     1
 10
0.0
 20
0.0
 30
0.0
  3
*D26
  1

  0
LINE
  5
F95
  8
SIZE
  6
CONTINUOUS
 62
     0
 10
1700.553510123252
 20
-1175.668157808974
 30
0.0
 11
1700.553510123252
 21
-1028.4085229120531
 31
0.0
  0
LINE
  5
F96
  8
SIZE
  6
CONTINUOUS
 62
     0
 10
1447.0754391662961
 20
-1253.616439730102
 30
0.0
 11
1447.0754391662961
 21
-1028.4085229120531
 31
0.0
  0
LINE
  5
F97
  8
SIZE
  6
CONTINUOUS
 62
     0
 10
1690.553510123252
 20
-1058.4085229120531
 30
0.0
 11
1457.0754391662961
 21
-1058.4085229120531
 31
0.0
  0
INSERT
  5
F98
  8
SIZE
  6
CONTINUOUS
 62
     0
  2
_ORIGIN
 10
1700.553510123252
 20
-1058.4085229120531
 30
0.0
 41
10.0
 42
10.0
 43
10.0
  0
INSERT
  5
F99
  8
SIZE
  6
CONTINUOUS
 62
     0
  2
_ORIGIN
 10
1447.0754391662961
 20
-1058.4085229120531
 30
0.0
 41
10.0
 42
10.0
 43
10.0
 50
180.0
  0
TEXT
  5
F9A
  8
SIZE
  6
CONTINUOUS
 62
     0
 10
1499.757331787632
 20
-1038.4085229120531
 30
0.0
 40
64.0
  1
253
 41
0.9
  0
POINT
  5
F9B
  8
DEFPOINTS
  6
CONTINUOUS
 62
     0
 10
1700.553510123252
 20
-1195.668157808974
 30
0.0
  0
POINT
  5
F9C
  8
DEFPOINTS
  6
CONTINUOUS
 62
     0
 10
1447.0754391662961
 20
-1273.616439730102
 30
0.0
  0
POINT
  5
F9D
  8
DEFPOINTS
  6
CONTINUOUS
 62
     0
 10
1447.0754391662961
 20
-1058.4085229120531
 30
0.0
  0
ENDBLK
  5
F9E
  8
0
  0
BLOCK
  8
0
  2
*D27
 70
     1
 10
0.0
 20
0.0
 30
0.0
  3
*D27
  1

  0
LINE
  5
FA1
  8
SIZE
  6
CONTINUOUS
 62
     0
 10
-417.49999999999989
 20
20.0
 30
0.0
 11
-417.49999999999989
 21
404.33789383212928
 31
0.0
  0
LINE
  5
FA2
  8
SIZE
  6
CONTINUOUS
 62
     0
 10
417.49999999999989
 20
20.0
 30
0.0
 11
417.49999999999989
 21
404.33789383212928
 31
0.0
  0
LINE
  5
FA3
  8
SIZE
  6
CONTINUOUS
 62
     0
 10
-407.5
 20
374.33789383212923
 30
0.0
 11
407.5
 21
374.33789383212923
 31
0.0
  0
INSERT
  5
FA4
  8
SIZE
  6
CONTINUOUS
 62
     0
  2
_ORIGIN
 10
-417.49999999999989
 20
374.33789383212923
 30
0.0
 41
10.0
 42
10.0
 43
10.0
 50
180.0
  0
INSERT
  5
FA5
  8
SIZE
  6
CONTINUOUS
 62
     0
  2
_ORIGIN
 10
417.49999999999989
 20
374.33789383212923
 30
0.0
 41
10.0
 42
10.0
 43
10.0
  0
TEXT
  5
FA6
  8
SIZE
  6
CONTINUOUS
 62
     0
 10
-74.057142857142836
 20
394.33789383212923
 30
0.0
 40
64.0
  1
835
 41
0.9
  0
POINT
  5
FA7
  8
DEFPOINTS
  6
CONTINUOUS
 62
     0
 10
-417.49999999999989
 20
0.0
 30
0.0
  0
POINT
  5
FA8
  8
DEFPOINTS
  6
CONTINUOUS
 62
     0
 10
417.49999999999989
 20
0.0
 30
0.0
  0
POINT
  5
FA9
  8
DEFPOINTS
  6
CONTINUOUS
 62
     0
 10
417.49999999999989
 20
374.33789383212923
 30
0.0
  0
ENDBLK
  5
FAA
  8
0
  0
BLOCK
  8
0
  2
*D28
 70
     1
 10
0.0
 20
0.0
 30
0.0
  3
*D28
  1

  0
LINE
  5
FAD
  8
SIZE
  6
CONTINUOUS
 62
     0
 10
-417.49999999999989
 20
-2444.387437050596
 30
0.0
 11
-417.49999999999989
 21
-2060.0495432184671
 31
0.0
  0
LINE
  5
FAE
  8
SIZE
  6
CONTINUOUS
 62
     0
 10
417.49999999999989
 20
-2444.387437050596
 30
0.0
 11
417.49999999999989
 21
-2060.0495432184671
 31
0.0
  0
LINE
  5
FAF
  8
SIZE
  6
CONTINUOUS
 62
     0
 10
-407.5
 20
-2090.0495432184671
 30
0.0
 11
407.5
 21
-2090.0495432184671
 31
0.0
  0
INSERT
  5
FB0
  8
SIZE
  6
CONTINUOUS
 62
     0
  2
_ORIGIN
 10
-417.49999999999989
 20
-2090.0495432184671
 30
0.0
 41
10.0
 42
10.0
 43
10.0
 50
180.0
  0
INSERT
  5
FB1
  8
SIZE
  6
CONTINUOUS
 62
     0
  2
_ORIGIN
 10
417.49999999999989
 20
-2090.0495432184671
 30
0.0
 41
10.0
 42
10.0
 43
10.0
  0
TEXT
  5
FB2
  8
SIZE
  6
CONTINUOUS
 62
     0
 10
-74.057142857142836
 20
-2070.0495432184671
 30
0.0
 40
64.0
  1
835
 41
0.9
  0
POINT
  5
FB3
  8
DEFPOINTS
  6
CONTINUOUS
 62
     0
 10
-417.49999999999989
 20
-2464.387437050596
 30
0.0
  0
POINT
  5
FB4
  8
DEFPOINTS
  6
CONTINUOUS
 62
     0
 10
417.49999999999989
 20
-2464.387437050596
 30
0.0
  0
POINT
  5
FB5
  8
DEFPOINTS
  6
CONTINUOUS
 62
     0
 10
417.49999999999989
 20
-2090.0495432184671
 30
0.0
  0
ENDBLK
  5
FB6
  8
0
  0
BLOCK
  8
0
  2
*D29
 70
     1
 10
0.0
 20
0.0
 30
0.0
  3
*D29
  1

  0
LINE
  5
FB9
  8
SIZE
  6
CONTINUOUS
 62
     0
 10
3636.9333408239891
 20
-1468.6681578089731
 30
0.0
 11
3492.2819173781322
 21
-1468.6681578089731
 31
0.0
  0
LINE
  5
FBA
  8
SIZE
  6
CONTINUOUS
 62
     0
 10
3689.9333408239891
 20
-1426.168157808974
 30
0.0
 11
3492.2819173781322
 21
-1426.168157808974
 31
0.0
  0
LINE
  5
FBB
  8
SIZE
  6
CONTINUOUS
 62
     0
 10
3522.2819173781322
 20
-1478.668157808974
 30
0.0
 11
3522.2819173781322
 21
-1488.668157808974
 31
0.0
  0
LINE
  5
FBC
  8
SIZE
  6
CONTINUOUS
 62
     0
 10
3522.2819173781322
 20
-1416.168157808974
 30
0.0
 11
3522.2819173781322
 21
-1190.6253006661159
 31
0.0
  0
LINE
  5
FBD
  8
SIZE
  6
CONTINUOUS
 62
     0
 10
3522.2819173781322
 20
-1468.6681578089731
 30
0.0
 11
3522.2819173781322
 21
-1426.168157808974
 31
0.0
  0
INSERT
  5
FBE
  8
SIZE
  6
CONTINUOUS
 62
     0
  2
_ORIGIN
 10
3522.2819173781322
 20
-1468.6681578089731
 30
0.0
 41
10.0
 42
10.0
 43
10.0
 50
90.0
  0
INSERT
  5
FBF
  8
SIZE
  6
CONTINUOUS
 62
     0
  2
_ORIGIN
 10
3522.2819173781322
 20
-1426.168157808974
 30
0.0
 41
10.0
 42
10.0
 43
10.0
 50
270.0
  0
TEXT
  5
FC0
  8
SIZE
  6
CONTINUOUS
 62
     0
 10
3502.2819173781322
 20
-1386.1681578089731
 30
0.0
 40
64.0
  1
42.5
 50
90.0
 41
0.9
  0
POINT
  5
FC1
  8
DEFPOINTS
  6
CONTINUOUS
 62
     0
 10
3656.9333408239891
 20
-1468.6681578089731
 30
0.0
  0
POINT
  5
FC2
  8
DEFPOINTS
  6
CONTINUOUS
 62
     0
 10
3709.9333408239891
 20
-1426.168157808974
 30
0.0
  0
POINT
  5
FC3
  8
DEFPOINTS
  6
CONTINUOUS
 62
     0
 10
3522.2819173781322
 20
-1426.168157808974
 30
0.0
  0
ENDBLK
  5
FC4
  8
0
  0
BLOCK
  8
0
  2
*D30
 70
     1
 10
0.0
 20
0.0
 30
0.0
  3
*D30
  1

  0
LINE
  5
FC7
  8
SIZE
  6
CONTINUOUS
 62
     0
 10
4496.9333408239881
 20
-1468.6681578089731
 30
0.0
 11
4693.1275807268466
 21
-1468.6681578089731
 31
0.0
  0
LINE
  5
FC8
  8
SIZE
  6
CONTINUOUS
 62
     0
 10
4458.9333408239881
 20
-1427.168157808974
 30
0.0
 11
4693.1275807268466
 21
-1427.168157808974
 31
0.0
  0
LINE
  5
FC9
  8
SIZE
  6
CONTINUOUS
 62
     0
 10
4663.1275807268457
 20
-1478.668157808974
 30
0.0
 11
4663.1275807268457
 21
-1488.668157808974
 31
0.0
  0
LINE
  5
FCA
  8
SIZE
  6
CONTINUOUS
 62
     0
 10
4663.1275807268457
 20
-1417.168157808974
 30
0.0
 11
4663.1275807268457
 21
-1202.596729237546
 31
0.0
  0
LINE
  5
FCB
  8
SIZE
  6
CONTINUOUS
 62
     0
 10
4663.1275807268457
 20
-1468.6681578089731
 30
0.0
 11
4663.1275807268457
 21
-1427.168157808974
 31
0.0
  0
INSERT
  5
FCC
  8
SIZE
  6
CONTINUOUS
 62
     0
  2
_ORIGIN
 10
4663.1275807268457
 20
-1468.6681578089731
 30
0.0
 41
10.0
 42
10.0
 43
10.0
 50
90.0
  0
INSERT
  5
FCD
  8
SIZE
  6
CONTINUOUS
 62
     0
  2
_ORIGIN
 10
4663.1275807268457
 20
-1427.168157808974
 30
0.0
 41
10.0
 42
10.0
 43
10.0
 50
270.0
  0
TEXT
  5
FCE
  8
SIZE
  6
CONTINUOUS
 62
     0
 10
4643.1275807268448
 20
-1387.1681578089731
 30
0.0
 40
64.0
  1
41.5
 50
90.0
 41
0.9
  0
POINT
  5
FCF
  8
DEFPOINTS
  6
CONTINUOUS
 62
     0
 10
4476.9333408239891
 20
-1468.6681578089731
 30
0.0
  0
POINT
  5
FD0
  8
DEFPOINTS
  6
CONTINUOUS
 62
     0
 10
4438.9333408239891
 20
-1427.168157808974
 30
0.0
  0
POINT
  5
FD1
  8
DEFPOINTS
  6
CONTINUOUS
 62
     0
 10
4663.1275807268457
 20
-1427.168157808974
 30
0.0
  0
ENDBLK
  5
FD2
  8
0
  0
BLOCK
  8
0
  2
*D31
 70
     1
 10
0.0
 20
0.0
 30
0.0
  3
*D31
  1

  0
LINE
  5
FD5
  8
SIZE
  6
CONTINUOUS
 62
     0
 10
1720.553510123252
 20
-1468.6681578089731
 30
0.0
 11
1994.813452689642
 21
-1468.6681578089731
 31
0.0
  0
LINE
  5
FD6
  8
SIZE
  6
CONTINUOUS
 62
     0
 10
1740.553510123252
 20
-1427.168157808974
 30
0.0
 11
1994.813452689642
 21
-1427.168157808974
 31
0.0
  0
LINE
  5
FD7
  8
SIZE
  6
CONTINUOUS
 62
     0
 10
1964.813452689642
 20
-1478.668157808974
 30
0.0
 11
1964.813452689642
 21
-1488.668157808974
 31
0.0
  0
LINE
  5
FD8
  8
SIZE
  6
CONTINUOUS
 62
     0
 10
1964.813452689642
 20
-1417.168157808974
 30
0.0
 11
1964.813452689642
 21
-1202.5967292375451
 31
0.0
  0
LINE
  5
FD9
  8
SIZE
  6
CONTINUOUS
 62
     0
 10
1964.813452689642
 20
-1468.6681578089731
 30
0.0
 11
1964.813452689642
 21
-1427.168157808974
 31
0.0
  0
INSERT
  5
FDA
  8
SIZE
  6
CONTINUOUS
 62
     0
  2
_ORIGIN
 10
1964.813452689642
 20
-1468.6681578089731
 30
0.0
 41
10.0
 42
10.0
 43
10.0
 50
90.0
  0
INSERT
  5
FDB
  8
SIZE
  6
CONTINUOUS
 62
     0
  2
_ORIGIN
 10
1964.813452689642
 20
-1427.168157808974
 30
0.0
 41
10.0
 42
10.0
 43
10.0
 50
270.0
  0
TEXT
  5
FDC
  8
SIZE
  6
CONTINUOUS
 62
     0
 10
1944.8134526896431
 20
-1387.168157808974
 30
0.0
 40
64.0
  1
41.5
 50
90.0
 41
0.9
  0
POINT
  5
FDD
  8
DEFPOINTS
  6
CONTINUOUS
 62
     0
 10
1700.553510123252
 20
-1468.6681578089731
 30
0.0
  0
POINT
  5
FDE
  8
DEFPOINTS
  6
CONTINUOUS
 62
     0
 10
1720.553510123252
 20
-1427.168157808974
 30
0.0
  0
POINT
  5
FDF
  8
DEFPOINTS
  6
CONTINUOUS
 62
     0
 10
1964.813452689642
 20
-1427.168157808974
 30
0.0
  0
ENDBLK
  5
FE0
  8
0
  0
BLOCK
  8
0
  2
*D32
 70
     1
 10
0.0
 20
0.0
 30
0.0
  3
*D32
  1

  0
LINE
  5
FE3
  8
SIZE
  6
CONTINUOUS
 62
     0
 10
1740.553510123252
 20
-1426.168157808974
 30
0.0
 11
2088.1142522385771
 21
-1426.168157808974
 31
0.0
  0
LINE
  5
FE4
  8
SIZE
  6
CONTINUOUS
 62
     0
 10
1720.553510123252
 20
-1468.6681578089731
 30
0.0
 11
2088.1142522385771
 21
-1468.6681578089731
 31
0.0
  0
LINE
  5
FE5
  8
SIZE
  6
CONTINUOUS
 62
     0
 10
2058.1142522385758
 20
-1478.668157808974
 30
0.0
 11
2058.1142522385758
 21
-1488.668157808974
 31
0.0
  0
LINE
  5
FE6
  8
SIZE
  6
CONTINUOUS
 62
     0
 10
2058.1142522385758
 20
-1416.168157808974
 30
0.0
 11
2058.1142522385758
 21
-1190.625300666117
 31
0.0
  0
LINE
  5
FE7
  8
SIZE
  6
CONTINUOUS
 62
     0
 10
2058.1142522385758
 20
-1468.6681578089731
 30
0.0
 11
2058.1142522385758
 21
-1426.168157808974
 31
0.0
  0
INSERT
  5
FE8
  8
SIZE
  6
CONTINUOUS
 62
     0
  2
_ORIGIN
 10
2058.1142522385758
 20
-1468.6681578089731
 30
0.0
 41
10.0
 42
10.0
 43
10.0
 50
90.0
  0
INSERT
  5
FE9
  8
SIZE
  6
CONTINUOUS
 62
     0
  2
_ORIGIN
 10
2058.1142522385758
 20
-1426.168157808974
 30
0.0
 41
10.0
 42
10.0
 43
10.0
 50
270.0
  0
TEXT
  5
FEA
  8
SIZE
  6
CONTINUOUS
 62
     0
 10
2038.114252238578
 20
-1386.168157808974
 30
0.0
 40
64.0
  1
42.5
 50
90.0
 41
0.9
  0
POINT
  5
FEB
  8
DEFPOINTS
  6
CONTINUOUS
 62
     0
 10
1720.553510123252
 20
-1426.168157808974
 30
0.0
  0
POINT
  5
FEC
  8
DEFPOINTS
  6
CONTINUOUS
 62
     0
 10
1700.553510123252
 20
-1468.6681578089731
 30
0.0
  0
POINT
  5
FED
  8
DEFPOINTS
  6
CONTINUOUS
 62
     0
 10
2058.1142522385758
 20
-1468.6681578089731
 30
0.0
  0
ENDBLK
  5
FEE
  8
0
  0
BLOCK
  8
0
  2
*D33
 70
     1
 10
0.0
 20
0.0
 30
0.0
  3
*D33
  1

  0
LINE
  5
FF1
  8
SIZE
  6
CONTINUOUS
 62
     0
 10
-40.0
 20
-256.49999999999989
 30
0.0
 11
-272.74689046881753
 21
-256.49999999999989
 31
0.0
  0
LINE
  5
FF2
  8
SIZE
  6
CONTINUOUS
 62
     0
 10
-19.999999999999758
 20
-298.0
 30
0.0
 11
-272.74689046881753
 21
-297.99999999999989
 31
0.0
  0
LINE
  5
FF3
  8
SIZE
  6
CONTINUOUS
 62
     0
 10
-242.7468904688175
 20
-307.99999999999977
 30
0.0
 11
-242.7468904688175
 21
-317.99999999999977
 31
0.0
  0
LINE
  5
FF4
  8
SIZE
  6
CONTINUOUS
 62
     0
 10
-242.7468904688175
 20
-246.4999999999998
 30
0.0
 11
-242.74689046881741
 21
-31.928571428571392
 31
0.0
  0
LINE
  5
FF5
  8
SIZE
  6
CONTINUOUS
 62
     0
 10
-242.7468904688175
 20
-297.99999999999989
 30
0.0
 11
-242.7468904688175
 21
-256.49999999999989
 31
0.0
  0
INSERT
  5
FF6
  8
SIZE
  6
CONTINUOUS
 62
     0
  2
_ORIGIN
 10
-242.7468904688175
 20
-297.99999999999989
 30
0.0
 41
10.0
 42
10.0
 43
10.0
 50
90.0
  0
INSERT
  5
FF7
  8
SIZE
  6
CONTINUOUS
 62
     0
  2
_ORIGIN
 10
-242.7468904688175
 20
-256.49999999999989
 30
0.0
 41
10.0
 42
10.0
 43
10.0
 50
270.0
  0
TEXT
  5
FF8
  8
0
 62
     0
 10
-422.7469999999999
 20
-247.494
 30
0.0
 40
64.0
  1
41.5
  0
POINT
  5
FF9
  8
DEFPOINTS
  6
CONTINUOUS
 62
     0
 10
-20.0
 20
-256.49999999999989
 30
0.0
  0
POINT
  5
FFA
  8
DEFPOINTS
  6
CONTINUOUS
 62
     0
 10
0.0000000000002274
 20
-298.0
 30
0.0
  0
POINT
  5
FFB
  8
DEFPOINTS
  6
CONTINUOUS
 62
     0
 10
-242.7468904688175
 20
-297.99999999999989
 30
0.0
  0
ENDBLK
  5
FFC
  8
0
  0
BLOCK
  8
0
  2
*D34
 70
     1
 10
0.0
 20
0.0
 30
0.0
  3
*D34
  1

  0
LINE
  5
FFF
  8
SIZE
  6
CONTINUOUS
 62
     0
 10
-19.999999999999758
 20
-298.0
 30
0.0
 11
-381.88710224712122
 21
-297.99999999999989
 31
0.0
  0
LINE
  5
1000
  8
SIZE
  6
CONTINUOUS
 62
     0
 10
-40.0
 20
-255.5
 30
0.0
 11
-381.88710224712122
 21
-255.49999999999969
 31
0.0
  0
LINE
  5
1001
  8
SIZE
  6
CONTINUOUS
 62
     0
 10
-351.88710224712122
 20
-307.99999999999977
 30
0.0
 11
-351.88710224712122
 21
-317.99999999999977
 31
0.0
  0
LINE
  5
1002
  8
SIZE
  6
CONTINUOUS
 62
     0
 10
-351.88710224712122
 20
-245.49999999999969
 30
0.0
 11
-351.88710224712099
 21
-19.95714285714271
 31
0.0
  0
LINE
  5
1003
  8
SIZE
  6
CONTINUOUS
 62
     0
 10
-351.88710224712122
 20
-297.99999999999989
 30
0.0
 11
-351.88710224712122
 21
-255.49999999999969
 31
0.0
  0
INSERT
  5
1004
  8
SIZE
  6
CONTINUOUS
 62
     0
  2
_ORIGIN
 10
-351.88710224712122
 20
-297.99999999999989
 30
0.0
 41
10.0
 42
10.0
 43
10.0
 50
90.0
  0
INSERT
  5
1005
  8
SIZE
  6
CONTINUOUS
 62
     0
  2
_ORIGIN
 10
-351.88710224712122
 20
-255.49999999999969
 30
0.0
 41
10.0
 42
10.0
 43
10.0
 50
270.0
  0
TEXT
  5
1006
  8
0
 62
     0
 10
-531.88699999999994
 20
-241.00899999999999
 30
0.0
 40
64.0
  1
42.5
  0
POINT
  5
1007
  8
DEFPOINTS
  6
CONTINUOUS
 62
     0
 10
0.0000000000002274
 20
-298.0
 30
0.0
  0
POINT
  5
1008
  8
DEFPOINTS
  6
CONTINUOUS
 62
     0
 10
-20.0
 20
-255.5
 30
0.0
  0
POINT
  5
1009
  8
DEFPOINTS
  6
CONTINUOUS
 62
     0
 10
-351.88710224712122
 20
-255.49999999999969
 30
0.0
  0
ENDBLK
  5
100A
  8
0
  0
BLOCK
  8
0
  2
*D35
 70
     1
 10
0.0
 20
0.0
 30
0.0
  3
*D35
  1

  0
LINE
  5
120C
  8
SIZE
  6
CONTINUOUS
 62
     0
 10
20.0
 20
0.0000000000000057
 30
0.0
 11
-491.4843902873871
 21
0.0000000000001506
 31
0.0
  0
LINE
  5
120D
  8
SIZE
  6
CONTINUOUS
 62
     0
 10
-20.0
 20
-298.0
 30
0.0
 11
-491.4843902873871
 21
-297.99999999999977
 31
0.0
  0
LINE
  5
120E
  8
SIZE
  6
CONTINUOUS
 62
     0
 10
-461.4843902873871
 20
-9.9999999999998561
 30
0.0
 11
-461.4843902873871
 21
-287.99999999999989
 31
0.0
  0
INSERT
  5
120F
  8
SIZE
  6
CONTINUOUS
 62
     0
  2
_ORIGIN
 10
-461.4843902873871
 20
0.0000000000001421
 30
0.0
 41
10.0
 42
10.0
 43
10.0
 50
90.0
  0
INSERT
  5
1210
  8
SIZE
  6
CONTINUOUS
 62
     0
  2
_ORIGIN
 10
-461.4843902873871
 20
-297.99999999999989
 30
0.0
 41
10.0
 42
10.0
 43
10.0
 50
270.0
  0
TEXT
  8
0
  40
64
  5
1234
  62
0
  72
0
  71
0
 10
-641.484
 20
-262.280
 30
0.000000
  1
298
  0
POINT
  5
1212
  8
DEFPOINTS
  6
CONTINUOUS
 62
     0
 10
40.0
 20
0.0
 30
0.0
  0
POINT
  5
1213
  8
DEFPOINTS
  6
CONTINUOUS
 62
     0
 10
0.0
 20
-298.0
 30
0.0
  0
POINT
  5
1214
  8
DEFPOINTS
  6
CONTINUOUS
 62
     0
 10
-461.4843902873871
 20
-297.99999999999989
 30
0.0
  0
ENDBLK
  5
10D6
  8
0
  0
BLOCK
  8
0
  2
*D36
 70
     1
 10
0.0
 20
0.0
 30
0.0
  3
*D36
  1

  0
LINE
  5
1215
  8
SIZE
  6
CONTINUOUS
 62
     0
 10
0.0000000000000012
 20
-5.0
 30
0.0
 11
0.0000000000000122
 21
173.67631643428871
 31
0.0
  0
LINE
  5
1216
  8
SIZE
  6
CONTINUOUS
 62
     0
 10
253.47807095695481
 20
-82.948281921129279
 30
0.0
 11
253.47807095695481
 21
173.67631643428871
 31
0.0
  0
LINE
  5
1217
  8
SIZE
  6
CONTINUOUS
 62
     0
 10
10.000000000000011
 20
143.67631643428871
 30
0.0
 11
243.47807095695481
 21
143.67631643428871
 31
0.0
  0
INSERT
  5
1218
  8
SIZE
  6
CONTINUOUS
 62
     0
  2
_ORIGIN
 10
0.0000000000000103
 20
143.67631643428871
 30
0.0
 41
10.0
 42
10.0
 43
10.0
 50
180.0
  0
INSERT
  5
1219
  8
SIZE
  6
CONTINUOUS
 62
     0
  2
_ORIGIN
 10
253.47807095695481
 20
143.67631643428871
 30
0.0
 41
10.0
 42
10.0
 43
10.0
  0
TEXT
  8
0
  40
64
  5
1235
  62
0
  72
0
  71
0
 10
-1.26096
 20
82.3963
 30
0.000000
  1
253
  0
POINT
  5
121B
  8
DEFPOINTS
  6
CONTINUOUS
 62
     0
 10
0.0
 20
-25.0
 30
0.0
  0
POINT
  5
121C
  8
DEFPOINTS
  6
CONTINUOUS
 62
     0
 10
253.47807095695481
 20
-102.94828192112919
 30
0.0
  0
POINT
  5
121D
  8
DEFPOINTS
  6
CONTINUOUS
 62
     0
 10
253.47807095695481
 20
143.67631643428871
 30
0.0
  0
ENDBLK
  5
10E5
  8
0
  0
BLOCK
  8
0
  2
*D37
 70
     1
 10
0.0
 20
0.0
 30
0.0
  3
*D37
  1

  0
LINE
  5
121E
  8
SIZE
  6
CONTINUOUS
 62
     0
 10
-40.0
 20
-256.49999999999989
 30
0.0
 11
-272.74689046881753
 21
-256.49999999999977
 31
0.0
  0
LINE
  5
121F
  8
SIZE
  6
CONTINUOUS
 62
     0
 10
-19.999999999999769
 20
-298.0
 30
0.0
 11
-272.74689046881753
 21
-297.99999999999989
 31
0.0
  0
LINE
  5
1220
  8
SIZE
  6
CONTINUOUS
 62
     0
 10
-242.7468904688175
 20
-307.99999999999989
 30
0.0
 11
-242.7468904688175
 21
-317.99999999999989
 31
0.0
  0
LINE
  5
1221
  8
SIZE
  6
CONTINUOUS
 62
     0
 10
-242.7468904688175
 20
-246.4999999999998
 30
0.0
 11
-242.74689046881741
 21
-31.928571428571271
 31
0.0
  0
LINE
  5
1222
  8
SIZE
  6
CONTINUOUS
 62
     0
 10
-242.7468904688175
 20
-297.99999999999989
 30
0.0
 11
-242.7468904688175
 21
-256.49999999999977
 31
0.0
  0
INSERT
  5
1223
  8
SIZE
  6
CONTINUOUS
 62
     0
  2
_ORIGIN
 10
-242.7468904688175
 20
-297.99999999999989
 30
0.0
 41
10.0
 42
10.0
 43
10.0
 50
90.0
  0
INSERT
  5
1224
  8
SIZE
  6
CONTINUOUS
 62
     0
  2
_ORIGIN
 10
-242.7468904688175
 20
-256.49999999999977
 30
0.0
 41
10.0
 42
10.0
 43
10.0
 50
270.0
  0
TEXT
  8
0
  40
64
  5
1236
  62
0
  72
0
  71
0
 10
-422.747
 20
-247.494
 30
0.000000
  1
41.5
  0
POINT
  5
1226
  8
DEFPOINTS
  6
CONTINUOUS
 62
     0
 10
-20.0
 20
-256.49999999999989
 30
0.0
  0
POINT
  5
1227
  8
DEFPOINTS
  6
CONTINUOUS
 62
     0
 10
0.0000000000002274
 20
-298.0
 30
0.0
  0
POINT
  5
1228
  8
DEFPOINTS
  6
CONTINUOUS
 62
     0
 10
-242.7468904688175
 20
-297.99999999999989
 30
0.0
  0
ENDBLK
  5
119D
  8
0
  0
BLOCK
  8
0
  2
*D38
 70
     1
 10
0.0
 20
0.0
 30
0.0
  3
*D38
  1

  0
LINE
  5
1229
  8
SIZE
  6
CONTINUOUS
 62
     0
 10
-19.999999999999769
 20
-298.0
 30
0.0
 11
-381.88710224712122
 21
-297.99999999999989
 31
0.0
  0
LINE
  5
122A
  8
SIZE
  6
CONTINUOUS
 62
     0
 10
-40.0
 20
-255.5
 30
0.0
 11
-381.88710224712122
 21
-255.4999999999998
 31
0.0
  0
LINE
  5
122B
  8
SIZE
  6
CONTINUOUS
 62
     0
 10
-351.88710224712122
 20
-307.99999999999989
 30
0.0
 11
-351.88710224712122
 21
-317.99999999999989
 31
0.0
  0
LINE
  5
122C
  8
SIZE
  6
CONTINUOUS
 62
     0
 10
-351.88710224712122
 20
-245.4999999999998
 30
0.0
 11
-351.88710224712111
 21
-19.957142857142721
 31
0.0
  0
LINE
  5
122D
  8
SIZE
  6
CONTINUOUS
 62
     0
 10
-351.88710224712122
 20
-297.99999999999989
 30
0.0
 11
-351.88710224712122
 21
-255.4999999999998
 31
0.0
  0
INSERT
  5
122E
  8
SIZE
  6
CONTINUOUS
 62
     0
  2
_ORIGIN
 10
-351.88710224712122
 20
-297.99999999999989
 30
0.0
 41
10.0
 42
10.0
 43
10.0
 50
90.0
  0
INSERT
  5
122F
  8
SIZE
  6
CONTINUOUS
 62
     0
  2
_ORIGIN
 10
-351.88710224712122
 20
-255.4999999999998
 30
0.0
 41
10.0
 42
10.0
 43
10.0
 50
270.0
  0
TEXT
  8
0
  40
64
  5
1237
  62
0
  72
0
  71
0
 10
-531.887
 20
-241.009
 30
0.000000
  1
42.5
  0
POINT
  5
1231
  8
DEFPOINTS
  6
CONTINUOUS
 62
     0
 10
0.0000000000002274
 20
-298.0
 30
0.0
  0
POINT
  5
1232
  8
DEFPOINTS
  6
CONTINUOUS
 62
     0
 10
-20.0
 20
-255.5
 30
0.0
  0
POINT
  5
1233
  8
DEFPOINTS
  6
CONTINUOUS
 62
     0
 10
-351.88710224712122
 20
-255.4999999999998
 30
0.0
  0
ENDBLK
  5
11AC
  8
0
  0
ENDSEC
  0
SECTION
  2
ENTITIES
  0
CIRCLE
  5
100B
  8
ARRANGE
  6
CONTINUOUS
 62
     1
 10
0.0
 20
0.0
 30
0.0
 40
40.0
  0
LINE
  5
100C
  8
NOTE
  6
DASHDOT
 62
     4
 10
-20.0
 20
-255.5
 30
0.0
 11
20.0
 21
-255.5
 31
0.0
  0
LINE
  5
100D
  8
NOTE
  6
DASHDOT
 62
     4
 10
-20.0
 20
-256.49999999999989
 30
0.0
 11
20.0
 21
-256.49999999999989
 31
0.0
  0
LINE
  5
100E
  8
BASIS
  6
DASHDOT
 62
     6
 10
-54.15284999999993
 20
-149.0
 30
0.0
 11
278.78812999999991
 21
-149.0
 31
0.0
  0
ARC
  5
100F
  8
DETAIL
  6
CONTINUOUS
 10
25.0
 20
-25.0
 30
0.0
 40
25.0
 50
90.0
 51
180.0
  0
LINE
  5
1010
  8
DETAIL
  6
CONTINUOUS
 10
0.0000000000002274
 20
-298.0
 30
0.0
 11
152.99329678783511
 21
-298.0
 31
0.0
  0
ARC
  5
1011
  8
DETAIL
  6
CONTINUOUS
 10
25.0
 20
-25.0
 30
0.0
 40
25.0
 50
90.0
 51
180.0
  0
CIRCLE
  5
1012
  8
ARRANGE
  6
CONTINUOUS
 10
0.0
 20
0.0
 30
0.0
 40
40.0
  0
POINT
  5
1013
  8
ARRANGE
  6
CONTINUOUS
 10
0.0
 20
0.0
 30
0.0
  0
LINE
  5
1014
  8
NOTE
  6
CONTINUOUS
 62
     4
 10
0.0
 20
-255.5
 30
0.0
 11
-287.90161999999992
 21
57.104289999999992
 31
0.0
  0
TEXT
  5
1015
  8
NOTE
 62
     4
 10
-773.04320999999982
 20
-443.92957000000001
 30
0.0
 40
64.0
  1
D,RL,RG%%C65
 41
0.9
  0
LINE
  5
1016
  8
NOTE
  6
CONTINUOUS
 62
     4
 10
-263.85847000000001
 20
-465.12463999999989
 30
0.0
 11
-781.77221000000009
 21
-465.12463999999989
 31
0.0
  0
LINE
  5
1017
  8
NOTE
  6
CONTINUOUS
 62
     4
 10
0.0
 20
-256.49999999999989
 30
0.0
 11
-263.85847000000001
 21
-465.12463999999989
 31
0.0
  0
LINE
  5
1018
  8
DETAIL
  6
CONTINUOUS
 10
0.0
 20
-25.0
 30
0.0
 11
0.0000000000002274
 21
-298.0
 31
0.0
  0
LINE
  5
1019
  8
NOTE
  6
DASHDOT
 62
     4
 10
0.0000000000002274
 20
-234.5000000000004
 30
0.0
 11
0.0000000000002274
 21
-274.5000000000004
 31
0.0
  0
LINE
  5
101A
  8
NOTE
  6
DASHDOT
 62
     4
 10
0.0000000000002274
 20
-235.5000000000004
 30
0.0
 11
0.0000000000002274
 21
-275.50000000000028
 31
0.0
  0
LINE
  5
101B
  8
NOTE
  6
CONTINUOUS
 62
     4
 10
-17.62796000000003
 20
-219.59379999999999
 30
0.0
 11
0.0
 21
-255.5
 31
0.0
  0
LINE
  5
101C
  8
NOTE
  6
CONTINUOUS
 62
     4
 10
0.0
 20
-255.5
 30
0.0
 11
-33.219360000000052
 21
-233.2183
 31
0.0
  0
LINE
  5
101D
  8
NOTE
  6
CONTINUOUS
 62
     4
 10
-36.745809999999892
 20
-272.30335000000002
 30
0.0
 11
0.0
 21
-256.49999999999989
 31
0.0
  0
LINE
  5
101E
  8
NOTE
  6
CONTINUOUS
 62
     4
 10
0.0
 20
-256.49999999999989
 30
0.0
 11
-23.921129999999941
 21
-288.55899999999991
 31
0.0
  0
TEXT
  5
101F
  8
NOTE
 62
     4
 10
-797.08636000000013
 20
78.299350000000004
 30
0.0
 40
64.0
  1
D,RL,RG%%C65
 41
0.9
  0
LINE
  5
1020
  8
NOTE
  6
CONTINUOUS
 62
     4
 10
-287.90161999999992
 20
57.104289999999992
 30
0.0
 11
-805.81536000000006
 21
57.104289999999992
 31
0.0
  0
ARC
  5
1021
  8
DETAIL
  6
CONTINUOUS
 10
137.6550299999999
 20
-238.8798799999999
 30
0.0
 40
239.32899
 50
75.239871999996382
 51
86.489376000000647
  0
LINE
  5
1022
  8
DETAIL
  6
CONTINUOUS
 10
25.0
 20
-0.0000000000002274
 30
0.0
 11
152.31000799999981
 21
0.0
 31
0.0
  0
TEXT
  5
1023
  8
ETC
 10
250.30345607801991
 20
272.04048102682941
 30
0.0
 40
64.0
  1
SMSZ2775
 41
0.8860759562895573
 72
     5
 11
676.97012607802014
 21
272.04048102682941
 31
0.0
  0
TEXT
  5
1024
  8
ETC
 10
257.7200860780199
 20
378.27757102682921
 30
0.0
 40
64.0
  1
RAC
 41
0.9051724137931033
 72
     5
 11
417.72008607801979
 21
378.27757102682921
 31
0.0
  0
POLYLINE
  5
1025
  8
0
 66
     1
 10
0.0
 20
0.0
 30
0.0
 70
     8
  0
VERTEX
  5
1026
  8
0
 10
152.99299999999999
 20
-298.0
 30
0.0
 70
    32
  0
VERTEX
  5
1027
  8
0
 10
154.161
 20
-297.435
 30
0.0
 70
    32
  0
VERTEX
  5
1028
  8
0
 10
155.33500000000001
 20
-296.87099999999992
 30
0.0
 70
    32
  0
VERTEX
  5
1029
  8
0
 10
156.5149999999999
 20
-296.30900000000003
 30
0.0
 70
    32
  0
VERTEX
  5
102A
  8
0
 10
157.70099999999999
 20
-295.74799999999988
 30
0.0
 70
    32
  0
VERTEX
  5
102B
  8
0
 10
158.89199999999991
 20
-295.18900000000002
 30
0.0
 70
    32
  0
VERTEX
  5
102C
  8
0
 10
160.08899999999991
 20
-294.63099999999997
 30
0.0
 70
    32
  0
VERTEX
  5
102D
  8
0
 10
161.2889999999999
 20
-294.07400000000001
 30
0.0
 70
    32
  0
VERTEX
  5
102E
  8
0
 10
162.494
 20
-293.51900000000001
 30
0.0
 70
    32
  0
VERTEX
  5
102F
  8
0
 10
163.703
 20
-292.964
 30
0.0
 70
    32
  0
VERTEX
  5
1030
  8
0
 10
164.91499999999991
 20
-292.41000000000003
 30
0.0
 70
    32
  0
VERTEX
  5
1031
  8
0
 10
166.12899999999999
 20
-291.85599999999988
 30
0.0
 70
    32
  0
VERTEX
  5
1032
  8
0
 10
167.34599999999989
 20
-291.303
 30
0.0
 70
    32
  0
VERTEX
  5
1033
  8
0
 10
168.56599999999989
 20
-290.75
 30
0.0
 70
    32
  0
VERTEX
  5
1034
  8
0
 10
169.78699999999989
 20
-290.19799999999998
 30
0.0
 70
    32
  0
VERTEX
  5
1035
  8
0
 10
171.00899999999999
 20
-289.6459999999999
 30
0.0
 70
    32
  0
VERTEX
  5
1036
  8
0
 10
172.232
 20
-289.09399999999999
 30
0.0
 70
    32
  0
VERTEX
  5
1037
  8
0
 10
173.45500000000001
 20
-288.54099999999988
 30
0.0
 70
    32
  0
VERTEX
  5
1038
  8
0
 10
174.678
 20
-287.98899999999998
 30
0.0
 70
    32
  0
VERTEX
  5
1039
  8
0
 10
175.9009999999999
 20
-287.43599999999992
 30
0.0
 70
    32
  0
VERTEX
  5
103A
  8
0
 10
177.124
 20
-286.88199999999989
 30
0.0
 70
    32
  0
VERTEX
  5
103B
  8
0
 10
178.34399999999999
 20
-286.32799999999992
 30
0.0
 70
    32
  0
VERTEX
  5
103C
  8
0
 10
179.56399999999999
 20
-285.77299999999991
 30
0.0
 70
    32
  0
VERTEX
  5
103D
  8
0
 10
180.78099999999989
 20
-285.21800000000002
 30
0.0
 70
    32
  0
VERTEX
  5
103E
  8
0
 10
181.9959999999999
 20
-284.661
 30
0.0
 70
    32
  0
VERTEX
  5
103F
  8
0
 10
183.20799999999991
 20
-284.10299999999989
 30
0.0
 70
    32
  0
VERTEX
  5
1040
  8
0
 10
184.416
 20
-283.54399999999998
 30
0.0
 70
    32
  0
VERTEX
  5
1041
  8
0
 10
185.6209999999999
 20
-282.98399999999998
 30
0.0
 70
    32
  0
VERTEX
  5
1042
  8
0
 10
186.82199999999989
 20
-282.42200000000003
 30
0.0
 70
    32
  0
VERTEX
  5
1043
  8
0
 10
188.01899999999989
 20
-281.858
 30
0.0
 70
    32
  0
VERTEX
  5
1044
  8
0
 10
189.21000000000001
 20
-281.29300000000001
 30
0.0
 70
    32
  0
VERTEX
  5
1045
  8
0
 10
190.3959999999999
 20
-280.72599999999989
 30
0.0
 70
    32
  0
VERTEX
  5
1046
  8
0
 10
191.57599999999991
 20
-280.15699999999993
 30
0.0
 70
    32
  0
VERTEX
  5
1047
  8
0
 10
192.75099999999989
 20
-279.58499999999992
 30
0.0
 70
    32
  0
VERTEX
  5
1048
  8
0
 10
193.91800000000001
 20
-279.01199999999989
 30
0.0
 70
    32
  0
VERTEX
  5
1049
  8
0
 10
195.07899999999989
 20
-278.43599999999992
 30
0.0
 70
    32
  0
VERTEX
  5
104A
  8
0
 10
196.232
 20
-277.85700000000003
 30
0.0
 70
    32
  0
VERTEX
  5
104B
  8
0
 10
197.3779999999999
 20
-277.27600000000001
 30
0.0
 70
    32
  0
VERTEX
  5
104C
  8
0
 10
198.5149999999999
 20
-276.69299999999993
 30
0.0
 70
    32
  0
VERTEX
  5
104D
  8
0
 10
199.64399999999989
 20
-276.10599999999999
 30
0.0
 70
    32
  0
VERTEX
  5
104E
  8
0
 10
200.76400000000001
 20
-275.51599999999991
 30
0.0
 70
    32
  0
VERTEX
  5
104F
  8
0
 10
201.874
 20
-274.923
 30
0.0
 70
    32
  0
VERTEX
  5
1050
  8
0
 10
202.97399999999999
 20
-274.32699999999988
 30
0.0
 70
    32
  0
VERTEX
  5
1051
  8
0
 10
204.06499999999991
 20
-273.72800000000001
 30
0.0
 70
    32
  0
VERTEX
  5
1052
  8
0
 10
205.14399999999989
 20
-273.125
 30
0.0
 70
    32
  0
VERTEX
  5
1053
  8
0
 10
206.21299999999991
 20
-272.51799999999992
 30
0.0
 70
    32
  0
VERTEX
  5
1054
  8
0
 10
207.26900000000001
 20
-271.90800000000002
 30
0.0
 70
    32
  0
VERTEX
  5
1055
  8
0
 10
208.31499999999991
 20
-271.29399999999998
 30
0.0
 70
    32
  0
VERTEX
  5
1056
  8
0
 10
209.34699999999989
 20
-270.67599999999999
 30
0.0
 70
    32
  0
VERTEX
  5
1057
  8
0
 10
210.36699999999999
 20
-270.053
 30
0.0
 70
    32
  0
VERTEX
  5
1058
  8
0
 10
211.374
 20
-269.42700000000002
 30
0.0
 70
    32
  0
VERTEX
  5
1059
  8
0
 10
212.36799999999991
 20
-268.79599999999988
 30
0.0
 70
    32
  0
VERTEX
  5
105A
  8
0
 10
213.34699999999989
 20
-268.16000000000003
 30
0.0
 70
    32
  0
VERTEX
  5
105B
  8
0
 10
214.31200000000001
 20
-267.51999999999992
 30
0.0
 70
    32
  0
VERTEX
  5
105C
  8
0
 10
215.26300000000001
 20
-266.875
 30
0.0
 70
    32
  0
VERTEX
  5
105D
  8
0
 10
216.19799999999989
 20
-266.22599999999989
 30
0.0
 70
    32
  0
VERTEX
  5
105E
  8
0
 10
217.11699999999999
 20
-265.57099999999991
 30
0.0
 70
    32
  0
VERTEX
  5
105F
  8
0
 10
218.0209999999999
 20
-264.91099999999989
 30
0.0
 70
    32
  0
VERTEX
  5
1060
  8
0
 10
218.90799999999999
 20
-264.24599999999992
 30
0.0
 70
    32
  0
VERTEX
  5
1061
  8
0
 10
219.779
 20
-263.57499999999987
 30
0.0
 70
    32
  0
VERTEX
  5
1062
  8
0
 10
220.63200000000001
 20
-262.89899999999989
 30
0.0
 70
    32
  0
VERTEX
  5
1063
  8
0
 10
221.46700000000001
 20
-262.21800000000002
 30
0.0
 70
    32
  0
VERTEX
  5
1064
  8
0
 10
222.285
 20
-261.52999999999992
 30
0.0
 70
    32
  0
VERTEX
  5
1065
  8
0
 10
223.084
 20
-260.83699999999988
 30
0.0
 70
    32
  0
VERTEX
  5
1066
  8
0
 10
223.864
 20
-260.13799999999992
 30
0.0
 70
    32
  0
VERTEX
  5
1067
  8
0
 10
224.62499999999989
 20
-259.43200000000002
 30
0.0
 70
    32
  0
VERTEX
  5
1068
  8
0
 10
225.3659999999999
 20
-258.721
 30
0.0
 70
    32
  0
VERTEX
  5
1069
  8
0
 10
226.08699999999999
 20
-258.00299999999987
 30
0.0
 70
    32
  0
VERTEX
  5
106A
  8
0
 10
226.7879999999999
 20
-257.27800000000002
 30
0.0
 70
    32
  0
VERTEX
  5
106B
  8
0
 10
227.4669999999999
 20
-256.54700000000003
 30
0.0
 70
    32
  0
VERTEX
  5
106C
  8
0
 10
228.12599999999989
 20
-255.809
 30
0.0
 70
    32
  0
VERTEX
  5
106D
  8
0
 10
228.76199999999989
 20
-255.06399999999999
 30
0.0
 70
    32
  0
VERTEX
  5
106E
  8
0
 10
229.37700000000001
 20
-254.31200000000001
 30
0.0
 70
    32
  0
VERTEX
  5
106F
  8
0
 10
229.96899999999999
 20
-253.553
 30
0.0
 70
    32
  0
VERTEX
  5
1070
  8
0
 10
230.53699999999989
 20
-252.78700000000001
 30
0.0
 70
    32
  0
VERTEX
  5
1071
  8
0
 10
231.083
 20
-252.01299999999989
 30
0.0
 70
    32
  0
VERTEX
  5
1072
  8
0
 10
231.60499999999999
 20
-251.23199999999991
 30
0.0
 70
    32
  0
VERTEX
  5
1073
  8
0
 10
232.1039999999999
 20
-250.4429999999999
 30
0.0
 70
    32
  0
VERTEX
  5
1074
  8
0
 10
232.58000000000001
 20
-249.64699999999999
 30
0.0
 70
    32
  0
VERTEX
  5
1075
  8
0
 10
233.03399999999999
 20
-248.84200000000001
 30
0.0
 70
    32
  0
VERTEX
  5
1076
  8
0
 10
233.46599999999989
 20
-248.03
 30
0.0
 70
    32
  0
VERTEX
  5
1077
  8
0
 10
233.87700000000001
 20
-247.21000000000001
 30
0.0
 70
    32
  0
VERTEX
  5
1078
  8
0
 10
234.267
 20
-246.38200000000001
 30
0.0
 70
    32
  0
VERTEX
  5
1079
  8
0
 10
234.63699999999989
 20
-245.5449999999999
 30
0.0
 70
    32
  0
VERTEX
  5
107A
  8
0
 10
234.988
 20
-244.69999999999999
 30
0.0
 70
    32
  0
VERTEX
  5
107B
  8
0
 10
235.31999999999999
 20
-243.84700000000001
 30
0.0
 70
    32
  0
VERTEX
  5
107C
  8
0
 10
235.63200000000001
 20
-242.98599999999999
 30
0.0
 70
    32
  0
VERTEX
  5
107D
  8
0
 10
235.92699999999999
 20
-242.11500000000001
 30
0.0
 70
    32
  0
VERTEX
  5
107E
  8
0
 10
236.20399999999989
 20
-241.23599999999999
 30
0.0
 70
    32
  0
VERTEX
  5
107F
  8
0
 10
236.464
 20
-240.34899999999999
 30
0.0
 70
    32
  0
VERTEX
  5
1080
  8
0
 10
236.708
 20
-239.45199999999991
 30
0.0
 70
    32
  0
VERTEX
  5
1081
  8
0
 10
236.935
 20
-238.547
 30
0.0
 70
    32
  0
VERTEX
  5
1082
  8
0
 10
237.14699999999999
 20
-237.63200000000001
 30
0.0
 70
    32
  0
VERTEX
  5
1083
  8
0
 10
237.34399999999999
 20
-236.708
 30
0.0
 70
    32
  0
VERTEX
  5
1084
  8
0
 10
237.5269999999999
 20
-235.77500000000001
 30
0.0
 70
    32
  0
VERTEX
  5
1085
  8
0
 10
237.69499999999991
 20
-234.833
 30
0.0
 70
    32
  0
VERTEX
  5
1086
  8
0
 10
237.84999999999991
 20
-233.88099999999989
 30
0.0
 70
    32
  0
VERTEX
  5
1087
  8
0
 10
237.99199999999999
 20
-232.9199999999999
 30
0.0
 70
    32
  0
VERTEX
  5
1088
  8
0
 10
238.1209999999999
 20
-231.94900000000001
 30
0.0
 70
    32
  0
VERTEX
  5
1089
  8
0
 10
238.23799999999989
 20
-230.9679999999999
 30
0.0
 70
    32
  0
VERTEX
  5
108A
  8
0
 10
238.34399999999999
 20
-229.977
 30
0.0
 70
    32
  0
VERTEX
  5
108B
  8
0
 10
238.43899999999999
 20
-228.977
 30
0.0
 70
    32
  0
VERTEX
  5
108C
  8
0
 10
238.524
 20
-227.96599999999989
 30
0.0
 70
    32
  0
VERTEX
  5
108D
  8
0
 10
238.59899999999999
 20
-226.94499999999991
 30
0.0
 70
    32
  0
VERTEX
  5
108E
  8
0
 10
238.66399999999999
 20
-225.91399999999999
 30
0.0
 70
    32
  0
VERTEX
  5
108F
  8
0
 10
238.71999999999991
 20
-224.87299999999999
 30
0.0
 70
    32
  0
VERTEX
  5
1090
  8
0
 10
238.768
 20
-223.821
 30
0.0
 70
    32
  0
VERTEX
  5
1091
  8
0
 10
238.80799999999991
 20
-222.75899999999999
 30
0.0
 70
    32
  0
VERTEX
  5
1092
  8
0
 10
238.84099999999989
 20
-221.68600000000001
 30
0.0
 70
    32
  0
VERTEX
  5
1093
  8
0
 10
238.8659999999999
 20
-220.602
 30
0.0
 70
    32
  0
VERTEX
  5
1094
  8
0
 10
238.886
 20
-219.5079999999999
 30
0.0
 70
    32
  0
VERTEX
  5
1095
  8
0
 10
238.899
 20
-218.40199999999999
 30
0.0
 70
    32
  0
VERTEX
  5
1096
  8
0
 10
238.9079999999999
 20
-217.28599999999989
 30
0.0
 70
    32
  0
VERTEX
  5
1097
  8
0
 10
238.91099999999989
 20
-216.1579999999999
 30
0.0
 70
    32
  0
VERTEX
  5
1098
  8
0
 10
238.91
 20
-215.02000000000001
 30
0.0
 70
    32
  0
VERTEX
  5
1099
  8
0
 10
238.905
 20
-213.87
 30
0.0
 70
    32
  0
VERTEX
  5
109A
  8
0
 10
238.89699999999999
 20
-212.70799999999991
 30
0.0
 70
    32
  0
VERTEX
  5
109B
  8
0
 10
238.887
 20
-211.53499999999991
 30
0.0
 70
    32
  0
VERTEX
  5
109C
  8
0
 10
238.874
 20
-210.35099999999991
 30
0.0
 70
    32
  0
VERTEX
  5
109D
  8
0
 10
238.85900000000001
 20
-209.154
 30
0.0
 70
    32
  0
VERTEX
  5
109E
  8
0
 10
238.84299999999999
 20
-207.946
 30
0.0
 70
    32
  0
VERTEX
  5
109F
  8
0
 10
238.82599999999991
 20
-206.726
 30
0.0
 70
    32
  0
VERTEX
  5
10A0
  8
0
 10
238.809
 20
-205.495
 30
0.0
 70
    32
  0
VERTEX
  5
10A1
  8
0
 10
238.792
 20
-204.25099999999989
 30
0.0
 70
    32
  0
VERTEX
  5
10A2
  8
0
 10
238.7759999999999
 20
-202.994
 30
0.0
 70
    32
  0
VERTEX
  5
10A3
  8
0
 10
238.762
 20
-201.72599999999991
 30
0.0
 70
    32
  0
VERTEX
  5
10A4
  8
0
 10
238.749
 20
-200.44499999999991
 30
0.0
 70
    32
  0
VERTEX
  5
10A5
  8
0
 10
238.73799999999989
 20
-199.15199999999999
 30
0.0
 70
    32
  0
VERTEX
  5
10A6
  8
0
 10
238.73099999999991
 20
-197.84599999999989
 30
0.0
 70
    32
  0
VERTEX
  5
10A7
  8
0
 10
238.72599999999991
 20
-196.52699999999999
 30
0.0
 70
    32
  0
VERTEX
  5
10A8
  8
0
 10
238.72599999999991
 20
-195.19599999999991
 30
0.0
 70
    32
  0
VERTEX
  5
10A9
  8
0
 10
238.7299999999999
 20
-193.852
 30
0.0
 70
    32
  0
VERTEX
  5
10AA
  8
0
 10
238.73799999999989
 20
-192.494
 30
0.0
 70
    32
  0
VERTEX
  5
10AB
  8
0
 10
238.7529999999999
 20
-191.124
 30
0.0
 70
    32
  0
VERTEX
  5
10AC
  8
0
 10
238.77299999999991
 20
-189.7409999999999
 30
0.0
 70
    32
  0
VERTEX
  5
10AD
  8
0
 10
238.79900000000001
 20
-188.34399999999999
 30
0.0
 70
    32
  0
VERTEX
  5
10AE
  8
0
 10
238.83299999999991
 20
-186.934
 30
0.0
 70
    32
  0
VERTEX
  5
10AF
  8
0
 10
238.87299999999991
 20
-185.50999999999999
 30
0.0
 70
    32
  0
VERTEX
  5
10B0
  8
0
 10
238.92199999999991
 20
-184.07299999999989
 30
0.0
 70
    32
  0
VERTEX
  5
10B1
  8
0
 10
238.97900000000001
 20
-182.62299999999991
 30
0.0
 70
    32
  0
VERTEX
  5
10B2
  8
0
 10
239.04599999999999
 20
-181.15799999999999
 30
0.0
 70
    32
  0
VERTEX
  5
10B3
  8
0
 10
239.12100000000001
 20
-179.68000000000001
 30
0.0
 70
    32
  0
VERTEX
  5
10B4
  8
0
 10
239.20699999999991
 20
-178.1879999999999
 30
0.0
 70
    32
  0
VERTEX
  5
10B5
  8
0
 10
239.30299999999991
 20
-176.68199999999999
 30
0.0
 70
    32
  0
VERTEX
  5
10B6
  8
0
 10
239.40999999999991
 20
-175.16099999999989
 30
0.0
 70
    32
  0
VERTEX
  5
10B7
  8
0
 10
239.529
 20
-173.62700000000001
 30
0.0
 70
    32
  0
VERTEX
  5
10B8
  8
0
 10
239.65999999999991
 20
-172.07799999999989
 30
0.0
 70
    32
  0
VERTEX
  5
10B9
  8
0
 10
239.80299999999991
 20
-170.51400000000001
 30
0.0
 70
    32
  0
VERTEX
  5
10BA
  8
0
 10
239.95899999999989
 20
-168.93700000000001
 30
0.0
 70
    32
  0
VERTEX
  5
10BB
  8
0
 10
240.12899999999999
 20
-167.34399999999999
 30
0.0
 70
    32
  0
VERTEX
  5
10BC
  8
0
 10
240.3129999999999
 20
-165.73699999999999
 30
0.0
 70
    32
  0
VERTEX
  5
10BD
  8
0
 10
240.511
 20
-164.11500000000001
 30
0.0
 70
    32
  0
VERTEX
  5
10BE
  8
0
 10
240.72499999999991
 20
-162.47799999999989
 30
0.0
 70
    32
  0
VERTEX
  5
10BF
  8
0
 10
240.95400000000001
 20
-160.82599999999999
 30
0.0
 70
    32
  0
VERTEX
  5
10C0
  8
0
 10
241.19900000000001
 20
-159.15899999999999
 30
0.0
 70
    32
  0
VERTEX
  5
10C1
  8
0
 10
241.4609999999999
 20
-157.477
 30
0.0
 70
    32
  0
VERTEX
  5
10C2
  8
0
 10
241.74000000000001
 20
-155.77899999999991
 30
0.0
 70
    32
  0
VERTEX
  5
10C3
  8
0
 10
242.03700000000001
 20
-154.066
 30
0.0
 70
    32
  0
VERTEX
  5
10C4
  8
0
 10
242.35199999999989
 20
-152.33799999999991
 30
0.0
 70
    32
  0
VERTEX
  5
10C5
  8
0
 10
242.68499999999989
 20
-150.59399999999999
 30
0.0
 70
    32
  0
SEQEND
  5
10C6
  8
0
  0
ARC
  5
10C7
  8
DETAIL
  6
CONTINUOUS
 10
142.9138733142008
 20
-102.94828192112919
 30
0.0
 40
110.564197642754
 50
334.47347602291342
 51
59.740204023447141
  0
ARC
  5
10C8
  8
DETAIL
  6
CONTINUOUS
 10
-169.44967873848319
 20
-93.89520253079057
 30
0.0
 40
363.766825205038
 50
351.03275812807448
 51
14.32571747803008
  0
ARC
  5
10C9
  8
DETAIL
  6
CONTINUOUS
 10
649.37544550782877
 20
-165.43208705069461
 30
0.0
 40
459.74385898481142
 50
178.15065571081499
 51
193.7173867132029
  0
DIMENSION
  5
10CA
  8
SIZE
  6
CONTINUOUS
  2
*D35
 10
-461.4843902873871
 20
-297.99999999999989
 30
0.0
 11
-513.48439028738699
 21
-148.99999999999989
 31
0.0
 70
     0
 13
40.0
 23
0.0
 33
0.0
 14
0.0
 24
-298.0
 34
0.0
 50
90.0
1001
ACAD
1000
DSTYLE
1002
{
1070
   287
1070
     3
1070
    41
1040
10.0
1070
    42
1040
20.0
1070
    43
1040
200.0
1070
    44
1040
30.0
1070
    73
1070
     0
1070
    74
1070
     0
1070
    77
1070
     1
1070
    78
1070
     8
1070
   140
1040
64.0
1070
   147
1040
20.0
1070
   172
1070
     1
1070
   275
1070
     0
1070
   279
1070
     0
1070
   284
1070
     0
1070
   285
1070
     0
1070
   286
1070
     0
1070
   341
1005
E6E
1070
     5
1000
ORIGIN
1002
}
  0
LINE
  5
10D7
  8
DETAIL
  6
CONTINUOUS
 10
98.0
 20
0.0
 30
0.0
 11
98.0
 21
-298.0
 31
0.0
  0
DIMENSION
  5
10D8
  8
SIZE
  6
CONTINUOUS
  2
*D36
 10
253.47807095695481
 20
143.67631643428871
 30
0.0
 11
126.7390354784774
 21
143.67631643428871
 31
0.0
 70
   128
 13
0.0
 23
-25.0
 33
0.0
 14
253.47807095695481
 24
-102.94828192112919
 34
0.0
1001
ACAD
1000
DSTYLE
1002
{
1070
   287
1070
     3
1070
    41
1040
10.0
1070
    42
1040
20.0
1070
    43
1040
200.0
1070
    44
1040
30.0
1070
    73
1070
     0
1070
    74
1070
     0
1070
    77
1070
     1
1070
    78
1070
     8
1070
   140
1040
64.0
1070
   147
1040
20.0
1070
   172
1070
     1
1070
   271
1070
     0
1070
   272
1070
     0
1070
   275
1070
     0
1070
   279
1070
     0
1070
   284
1070
     0
1070
   285
1070
     0
1070
   286
1070
     0
1070
   341
1005
E6E
1070
     5
1000
ORIGIN
1002
}
  0
LINE
  5
10E6
  8
OUTLINE
  6
CONTINUOUS
 10
0.0
 20
-25.0
 30
0.0
 11
0.0000000000002274
 21
-298.0
 31
0.0
  0
ARC
  5
10E7
  8
OUTLINE
  6
CONTINUOUS
 10
142.9138733142008
 20
-102.94828192112919
 30
0.0
 40
110.564197642754
 50
334.47347602291342
 51
59.740204023447141
  0
POLYLINE
  5
10E8
  8
0
 66
     1
 10
0.0
 20
0.0
 30
0.0
 70
     8
  0
VERTEX
  5
10E9
  8
0
 10
152.99299999999999
 20
-298.0
 30
0.0
 70
    32
  0
VERTEX
  5
10EA
  8
0
 10
154.161
 20
-297.435
 30
0.0
 70
    32
  0
VERTEX
  5
10EB
  8
0
 10
155.33500000000001
 20
-296.87099999999992
 30
0.0
 70
    32
  0
VERTEX
  5
10EC
  8
0
 10
156.5149999999999
 20
-296.30900000000003
 30
0.0
 70
    32
  0
VERTEX
  5
10ED
  8
0
 10
157.70099999999999
 20
-295.74799999999988
 30
0.0
 70
    32
  0
VERTEX
  5
10EE
  8
0
 10
158.89199999999991
 20
-295.18900000000002
 30
0.0
 70
    32
  0
VERTEX
  5
10EF
  8
0
 10
160.08899999999991
 20
-294.63099999999997
 30
0.0
 70
    32
  0
VERTEX
  5
10F0
  8
0
 10
161.2889999999999
 20
-294.07400000000001
 30
0.0
 70
    32
  0
VERTEX
  5
10F1
  8
0
 10
162.494
 20
-293.51900000000001
 30
0.0
 70
    32
  0
VERTEX
  5
10F2
  8
0
 10
163.703
 20
-292.964
 30
0.0
 70
    32
  0
VERTEX
  5
10F3
  8
0
 10
164.91499999999991
 20
-292.41000000000003
 30
0.0
 70
    32
  0
VERTEX
  5
10F4
  8
0
 10
166.12899999999999
 20
-291.85599999999988
 30
0.0
 70
    32
  0
VERTEX
  5
10F5
  8
0
 10
167.34599999999989
 20
-291.303
 30
0.0
 70
    32
  0
VERTEX
  5
10F6
  8
0
 10
168.56599999999989
 20
-290.75
 30
0.0
 70
    32
  0
VERTEX
  5
10F7
  8
0
 10
169.78699999999989
 20
-290.19799999999998
 30
0.0
 70
    32
  0
VERTEX
  5
10F8
  8
0
 10
171.00899999999999
 20
-289.6459999999999
 30
0.0
 70
    32
  0
VERTEX
  5
10F9
  8
0
 10
172.232
 20
-289.09399999999999
 30
0.0
 70
    32
  0
VERTEX
  5
10FA
  8
0
 10
173.45500000000001
 20
-288.54099999999988
 30
0.0
 70
    32
  0
VERTEX
  5
10FB
  8
0
 10
174.678
 20
-287.98899999999998
 30
0.0
 70
    32
  0
VERTEX
  5
10FC
  8
0
 10
175.9009999999999
 20
-287.43599999999992
 30
0.0
 70
    32
  0
VERTEX
  5
10FD
  8
0
 10
177.124
 20
-286.88199999999989
 30
0.0
 70
    32
  0
VERTEX
  5
10FE
  8
0
 10
178.34399999999999
 20
-286.32799999999992
 30
0.0
 70
    32
  0
VERTEX
  5
10FF
  8
0
 10
179.56399999999999
 20
-285.77299999999991
 30
0.0
 70
    32
  0
VERTEX
  5
1100
  8
0
 10
180.78099999999989
 20
-285.21800000000002
 30
0.0
 70
    32
  0
VERTEX
  5
1101
  8
0
 10
181.9959999999999
 20
-284.661
 30
0.0
 70
    32
  0
VERTEX
  5
1102
  8
0
 10
183.20799999999991
 20
-284.10299999999989
 30
0.0
 70
    32
  0
VERTEX
  5
1103
  8
0
 10
184.416
 20
-283.54399999999998
 30
0.0
 70
    32
  0
VERTEX
  5
1104
  8
0
 10
185.6209999999999
 20
-282.98399999999998
 30
0.0
 70
    32
  0
VERTEX
  5
1105
  8
0
 10
186.82199999999989
 20
-282.42200000000003
 30
0.0
 70
    32
  0
VERTEX
  5
1106
  8
0
 10
188.01899999999989
 20
-281.858
 30
0.0
 70
    32
  0
VERTEX
  5
1107
  8
0
 10
189.21000000000001
 20
-281.29300000000001
 30
0.0
 70
    32
  0
VERTEX
  5
1108
  8
0
 10
190.3959999999999
 20
-280.72599999999989
 30
0.0
 70
    32
  0
VERTEX
  5
1109
  8
0
 10
191.57599999999991
 20
-280.15699999999993
 30
0.0
 70
    32
  0
VERTEX
  5
110A
  8
0
 10
192.75099999999989
 20
-279.58499999999992
 30
0.0
 70
    32
  0
VERTEX
  5
110B
  8
0
 10
193.91800000000001
 20
-279.01199999999989
 30
0.0
 70
    32
  0
VERTEX
  5
110C
  8
0
 10
195.07899999999989
 20
-278.43599999999992
 30
0.0
 70
    32
  0
VERTEX
  5
110D
  8
0
 10
196.232
 20
-277.85700000000003
 30
0.0
 70
    32
  0
VERTEX
  5
110E
  8
0
 10
197.3779999999999
 20
-277.27600000000001
 30
0.0
 70
    32
  0
VERTEX
  5
110F
  8
0
 10
198.5149999999999
 20
-276.69299999999993
 30
0.0
 70
    32
  0
VERTEX
  5
1110
  8
0
 10
199.64399999999989
 20
-276.10599999999999
 30
0.0
 70
    32
  0
VERTEX
  5
1111
  8
0
 10
200.76400000000001
 20
-275.51599999999991
 30
0.0
 70
    32
  0
VERTEX
  5
1112
  8
0
 10
201.874
 20
-274.923
 30
0.0
 70
    32
  0
VERTEX
  5
1113
  8
0
 10
202.97399999999999
 20
-274.32699999999988
 30
0.0
 70
    32
  0
VERTEX
  5
1114
  8
0
 10
204.06499999999991
 20
-273.72800000000001
 30
0.0
 70
    32
  0
VERTEX
  5
1115
  8
0
 10
205.14399999999989
 20
-273.125
 30
0.0
 70
    32
  0
VERTEX
  5
1116
  8
0
 10
206.21299999999991
 20
-272.51799999999992
 30
0.0
 70
    32
  0
VERTEX
  5
1117
  8
0
 10
207.26900000000001
 20
-271.90800000000002
 30
0.0
 70
    32
  0
VERTEX
  5
1118
  8
0
 10
208.31499999999991
 20
-271.29399999999998
 30
0.0
 70
    32
  0
VERTEX
  5
1119
  8
0
 10
209.34699999999989
 20
-270.67599999999999
 30
0.0
 70
    32
  0
VERTEX
  5
111A
  8
0
 10
210.36699999999999
 20
-270.053
 30
0.0
 70
    32
  0
VERTEX
  5
111B
  8
0
 10
211.374
 20
-269.42700000000002
 30
0.0
 70
    32
  0
VERTEX
  5
111C
  8
0
 10
212.36799999999991
 20
-268.79599999999988
 30
0.0
 70
    32
  0
VERTEX
  5
111D
  8
0
 10
213.34699999999989
 20
-268.16000000000003
 30
0.0
 70
    32
  0
VERTEX
  5
111E
  8
0
 10
214.31200000000001
 20
-267.51999999999992
 30
0.0
 70
    32
  0
VERTEX
  5
111F
  8
0
 10
215.26300000000001
 20
-266.875
 30
0.0
 70
    32
  0
VERTEX
  5
1120
  8
0
 10
216.19799999999989
 20
-266.22599999999989
 30
0.0
 70
    32
  0
VERTEX
  5
1121
  8
0
 10
217.11699999999999
 20
-265.57099999999991
 30
0.0
 70
    32
  0
VERTEX
  5
1122
  8
0
 10
218.0209999999999
 20
-264.91099999999989
 30
0.0
 70
    32
  0
VERTEX
  5
1123
  8
0
 10
218.90799999999999
 20
-264.24599999999992
 30
0.0
 70
    32
  0
VERTEX
  5
1124
  8
0
 10
219.779
 20
-263.57499999999987
 30
0.0
 70
    32
  0
VERTEX
  5
1125
  8
0
 10
220.63200000000001
 20
-262.89899999999989
 30
0.0
 70
    32
  0
VERTEX
  5
1126
  8
0
 10
221.46700000000001
 20
-262.21800000000002
 30
0.0
 70
    32
  0
VERTEX
  5
1127
  8
0
 10
222.285
 20
-261.52999999999992
 30
0.0
 70
    32
  0
VERTEX
  5
1128
  8
0
 10
223.084
 20
-260.83699999999988
 30
0.0
 70
    32
  0
VERTEX
  5
1129
  8
0
 10
223.864
 20
-260.13799999999992
 30
0.0
 70
    32
  0
VERTEX
  5
112A
  8
0
 10
224.62499999999989
 20
-259.43200000000002
 30
0.0
 70
    32
  0
VERTEX
  5
112B
  8
0
 10
225.3659999999999
 20
-258.721
 30
0.0
 70
    32
  0
VERTEX
  5
112C
  8
0
 10
226.08699999999999
 20
-258.00299999999987
 30
0.0
 70
    32
  0
VERTEX
  5
112D
  8
0
 10
226.7879999999999
 20
-257.27800000000002
 30
0.0
 70
    32
  0
VERTEX
  5
112E
  8
0
 10
227.4669999999999
 20
-256.54700000000003
 30
0.0
 70
    32
  0
VERTEX
  5
112F
  8
0
 10
228.12599999999989
 20
-255.809
 30
0.0
 70
    32
  0
VERTEX
  5
1130
  8
0
 10
228.76199999999989
 20
-255.06399999999999
 30
0.0
 70
    32
  0
VERTEX
  5
1131
  8
0
 10
229.37700000000001
 20
-254.31200000000001
 30
0.0
 70
    32
  0
VERTEX
  5
1132
  8
0
 10
229.96899999999999
 20
-253.553
 30
0.0
 70
    32
  0
VERTEX
  5
1133
  8
0
 10
230.53699999999989
 20
-252.78700000000001
 30
0.0
 70
    32
  0
VERTEX
  5
1134
  8
0
 10
231.083
 20
-252.01299999999989
 30
0.0
 70
    32
  0
VERTEX
  5
1135
  8
0
 10
231.60499999999999
 20
-251.23199999999991
 30
0.0
 70
    32
  0
VERTEX
  5
1136
  8
0
 10
232.1039999999999
 20
-250.4429999999999
 30
0.0
 70
    32
  0
VERTEX
  5
1137
  8
0
 10
232.58000000000001
 20
-249.64699999999999
 30
0.0
 70
    32
  0
VERTEX
  5
1138
  8
0
 10
233.03399999999999
 20
-248.84200000000001
 30
0.0
 70
    32
  0
VERTEX
  5
1139
  8
0
 10
233.46599999999989
 20
-248.03
 30
0.0
 70
    32
  0
VERTEX
  5
113A
  8
0
 10
233.87700000000001
 20
-247.21000000000001
 30
0.0
 70
    32
  0
VERTEX
  5
113B
  8
0
 10
234.267
 20
-246.38200000000001
 30
0.0
 70
    32
  0
VERTEX
  5
113C
  8
0
 10
234.63699999999989
 20
-245.5449999999999
 30
0.0
 70
    32
  0
VERTEX
  5
113D
  8
0
 10
234.988
 20
-244.69999999999999
 30
0.0
 70
    32
  0
VERTEX
  5
113E
  8
0
 10
235.31999999999999
 20
-243.84700000000001
 30
0.0
 70
    32
  0
VERTEX
  5
113F
  8
0
 10
235.63200000000001
 20
-242.98599999999999
 30
0.0
 70
    32
  0
VERTEX
  5
1140
  8
0
 10
235.92699999999999
 20
-242.11500000000001
 30
0.0
 70
    32
  0
VERTEX
  5
1141
  8
0
 10
236.20399999999989
 20
-241.23599999999999
 30
0.0
 70
    32
  0
VERTEX
  5
1142
  8
0
 10
236.464
 20
-240.34899999999999
 30
0.0
 70
    32
  0
VERTEX
  5
1143
  8
0
 10
236.708
 20
-239.45199999999991
 30
0.0
 70
    32
  0
VERTEX
  5
1144
  8
0
 10
236.935
 20
-238.547
 30
0.0
 70
    32
  0
VERTEX
  5
1145
  8
0
 10
237.14699999999999
 20
-237.63200000000001
 30
0.0
 70
    32
  0
VERTEX
  5
1146
  8
0
 10
237.34399999999999
 20
-236.708
 30
0.0
 70
    32
  0
VERTEX
  5
1147
  8
0
 10
237.5269999999999
 20
-235.77500000000001
 30
0.0
 70
    32
  0
VERTEX
  5
1148
  8
0
 10
237.69499999999991
 20
-234.833
 30
0.0
 70
    32
  0
VERTEX
  5
1149
  8
0
 10
237.84999999999991
 20
-233.88099999999989
 30
0.0
 70
    32
  0
VERTEX
  5
114A
  8
0
 10
237.99199999999999
 20
-232.9199999999999
 30
0.0
 70
    32
  0
VERTEX
  5
114B
  8
0
 10
238.1209999999999
 20
-231.94900000000001
 30
0.0
 70
    32
  0
VERTEX
  5
114C
  8
0
 10
238.23799999999989
 20
-230.9679999999999
 30
0.0
 70
    32
  0
VERTEX
  5
114D
  8
0
 10
238.34399999999999
 20
-229.977
 30
0.0
 70
    32
  0
VERTEX
  5
114E
  8
0
 10
238.43899999999999
 20
-228.977
 30
0.0
 70
    32
  0
VERTEX
  5
114F
  8
0
 10
238.524
 20
-227.96599999999989
 30
0.0
 70
    32
  0
VERTEX
  5
1150
  8
0
 10
238.59899999999999
 20
-226.94499999999991
 30
0.0
 70
    32
  0
VERTEX
  5
1151
  8
0
 10
238.66399999999999
 20
-225.91399999999999
 30
0.0
 70
    32
  0
VERTEX
  5
1152
  8
0
 10
238.71999999999991
 20
-224.87299999999999
 30
0.0
 70
    32
  0
VERTEX
  5
1153
  8
0
 10
238.768
 20
-223.821
 30
0.0
 70
    32
  0
VERTEX
  5
1154
  8
0
 10
238.80799999999991
 20
-222.75899999999999
 30
0.0
 70
    32
  0
VERTEX
  5
1155
  8
0
 10
238.84099999999989
 20
-221.68600000000001
 30
0.0
 70
    32
  0
VERTEX
  5
1156
  8
0
 10
238.8659999999999
 20
-220.602
 30
0.0
 70
    32
  0
VERTEX
  5
1157
  8
0
 10
238.886
 20
-219.5079999999999
 30
0.0
 70
    32
  0
VERTEX
  5
1158
  8
0
 10
238.899
 20
-218.40199999999999
 30
0.0
 70
    32
  0
VERTEX
  5
1159
  8
0
 10
238.9079999999999
 20
-217.28599999999989
 30
0.0
 70
    32
  0
VERTEX
  5
115A
  8
0
 10
238.91099999999989
 20
-216.1579999999999
 30
0.0
 70
    32
  0
VERTEX
  5
115B
  8
0
 10
238.91
 20
-215.02000000000001
 30
0.0
 70
    32
  0
VERTEX
  5
115C
  8
0
 10
238.905
 20
-213.87
 30
0.0
 70
    32
  0
VERTEX
  5
115D
  8
0
 10
238.89699999999999
 20
-212.70799999999991
 30
0.0
 70
    32
  0
VERTEX
  5
115E
  8
0
 10
238.887
 20
-211.53499999999991
 30
0.0
 70
    32
  0
VERTEX
  5
115F
  8
0
 10
238.874
 20
-210.35099999999991
 30
0.0
 70
    32
  0
VERTEX
  5
1160
  8
0
 10
238.85900000000001
 20
-209.154
 30
0.0
 70
    32
  0
VERTEX
  5
1161
  8
0
 10
238.84299999999999
 20
-207.946
 30
0.0
 70
    32
  0
VERTEX
  5
1162
  8
0
 10
238.82599999999991
 20
-206.726
 30
0.0
 70
    32
  0
VERTEX
  5
1163
  8
0
 10
238.809
 20
-205.495
 30
0.0
 70
    32
  0
VERTEX
  5
1164
  8
0
 10
238.792
 20
-204.25099999999989
 30
0.0
 70
    32
  0
VERTEX
  5
1165
  8
0
 10
238.7759999999999
 20
-202.994
 30
0.0
 70
    32
  0
VERTEX
  5
1166
  8
0
 10
238.762
 20
-201.72599999999991
 30
0.0
 70
    32
  0
VERTEX
  5
1167
  8
0
 10
238.749
 20
-200.44499999999991
 30
0.0
 70
    32
  0
VERTEX
  5
1168
  8
0
 10
238.73799999999989
 20
-199.15199999999999
 30
0.0
 70
    32
  0
VERTEX
  5
1169
  8
0
 10
238.73099999999991
 20
-197.84599999999989
 30
0.0
 70
    32
  0
VERTEX
  5
116A
  8
0
 10
238.72599999999991
 20
-196.52699999999999
 30
0.0
 70
    32
  0
VERTEX
  5
116B
  8
0
 10
238.72599999999991
 20
-195.19599999999991
 30
0.0
 70
    32
  0
VERTEX
  5
116C
  8
0
 10
238.7299999999999
 20
-193.852
 30
0.0
 70
    32
  0
VERTEX
  5
116D
  8
0
 10
238.73799999999989
 20
-192.494
 30
0.0
 70
    32
  0
VERTEX
  5
116E
  8
0
 10
238.7529999999999
 20
-191.124
 30
0.0
 70
    32
  0
VERTEX
  5
116F
  8
0
 10
238.77299999999991
 20
-189.7409999999999
 30
0.0
 70
    32
  0
VERTEX
  5
1170
  8
0
 10
238.79900000000001
 20
-188.34399999999999
 30
0.0
 70
    32
  0
VERTEX
  5
1171
  8
0
 10
238.83299999999991
 20
-186.934
 30
0.0
 70
    32
  0
VERTEX
  5
1172
  8
0
 10
238.87299999999991
 20
-185.50999999999999
 30
0.0
 70
    32
  0
VERTEX
  5
1173
  8
0
 10
238.92199999999991
 20
-184.07299999999989
 30
0.0
 70
    32
  0
VERTEX
  5
1174
  8
0
 10
238.97900000000001
 20
-182.62299999999991
 30
0.0
 70
    32
  0
VERTEX
  5
1175
  8
0
 10
239.04599999999999
 20
-181.15799999999999
 30
0.0
 70
    32
  0
VERTEX
  5
1176
  8
0
 10
239.12100000000001
 20
-179.68000000000001
 30
0.0
 70
    32
  0
VERTEX
  5
1177
  8
0
 10
239.20699999999991
 20
-178.1879999999999
 30
0.0
 70
    32
  0
VERTEX
  5
1178
  8
0
 10
239.30299999999991
 20
-176.68199999999999
 30
0.0
 70
    32
  0
VERTEX
  5
1179
  8
0
 10
239.40999999999991
 20
-175.16099999999989
 30
0.0
 70
    32
  0
VERTEX
  5
117A
  8
0
 10
239.529
 20
-173.62700000000001
 30
0.0
 70
    32
  0
VERTEX
  5
117B
  8
0
 10
239.65999999999991
 20
-172.07799999999989
 30
0.0
 70
    32
  0
VERTEX
  5
117C
  8
0
 10
239.80299999999991
 20
-170.51400000000001
 30
0.0
 70
    32
  0
VERTEX
  5
117D
  8
0
 10
239.95899999999989
 20
-168.93700000000001
 30
0.0
 70
    32
  0
VERTEX
  5
117E
  8
0
 10
240.12899999999999
 20
-167.34399999999999
 30
0.0
 70
    32
  0
VERTEX
  5
117F
  8
0
 10
240.3129999999999
 20
-165.73699999999999
 30
0.0
 70
    32
  0
VERTEX
  5
1180
  8
0
 10
240.511
 20
-164.11500000000001
 30
0.0
 70
    32
  0
VERTEX
  5
1181
  8
0
 10
240.72499999999991
 20
-162.47799999999989
 30
0.0
 70
    32
  0
VERTEX
  5
1182
  8
0
 10
240.95400000000001
 20
-160.82599999999999
 30
0.0
 70
    32
  0
VERTEX
  5
1183
  8
0
 10
241.19900000000001
 20
-159.15899999999999
 30
0.0
 70
    32
  0
VERTEX
  5
1184
  8
0
 10
241.4609999999999
 20
-157.477
 30
0.0
 70
    32
  0
VERTEX
  5
1185
  8
0
 10
241.74000000000001
 20
-155.77899999999991
 30
0.0
 70
    32
  0
VERTEX
  5
1186
  8
0
 10
242.03700000000001
 20
-154.066
 30
0.0
 70
    32
  0
VERTEX
  5
1187
  8
0
 10
242.35199999999989
 20
-152.33799999999991
 30
0.0
 70
    32
  0
VERTEX
  5
1188
  8
0
 10
242.68499999999989
 20
-150.59399999999999
 30
0.0
 70
    32
  0
SEQEND
  5
1189
  8
0
  0
LINE
  5
118A
  8
OUTLINE
  6
CONTINUOUS
 10
0.0000000000002274
 20
-298.0
 30
0.0
 11
152.99329678783511
 21
-298.0
 31
0.0
  0
LINE
  5
118B
  8
OUTLINE
  6
CONTINUOUS
 10
25.0
 20
-0.0000000000002274
 30
0.0
 11
152.31000799999981
 21
0.0
 31
0.0
  0
ARC
  5
118C
  8
OUTLINE
  6
CONTINUOUS
 10
25.0
 20
-25.0
 30
0.0
 40
25.0
 50
90.0
 51
180.0
  0
ARC
  5
118D
  8
OUTLINE
  6
CONTINUOUS
 10
25.0
 20
-25.0
 30
0.0
 40
25.0
 50
90.0
 51
180.0
  0
ARC
  5
118E
  8
OUTLINE
  6
CONTINUOUS
 10
137.6550299999999
 20
-238.8798799999999
 30
0.0
 40
239.32899
 50
75.239871999996382
 51
86.489376000000647
  0
DIMENSION
  5
118F
  8
SIZE
  6
CONTINUOUS
  2
*D37
 10
-242.7468904688175
 20
-297.99999999999989
 30
0.0
 11
-242.74689046881741
 21
-134.2142857142855
 31
0.0
 70
   128
 13
-20.0
 23
-256.49999999999989
 33
0.0
 14
0.0000000000002274
 24
-298.0
 34
0.0
 50
90.0
1001
ACAD
1000
DSTYLE
1002
{
1070
   287
1070
     3
1070
    41
1040
10.0
1070
    42
1040
20.0
1070
    43
1040
200.0
1070
    44
1040
30.0
1070
    73
1070
     0
1070
    74
1070
     0
1070
    77
1070
     1
1070
    78
1070
     8
1070
   140
1040
64.0
1070
   147
1040
20.0
1070
   172
1070
     1
1070
   275
1070
     0
1070
   279
1070
     0
1070
   284
1070
     0
1070
   285
1070
     0
1070
   286
1070
     0
1070
   341
1005
E6E
1070
     5
1000
ORIGIN
1002
}
  0
DIMENSION
  5
119E
  8
SIZE
  6
CONTINUOUS
  2
*D38
 10
-351.88710224712122
 20
-255.4999999999998
 30
0.0
 11
-403.88710224712111
 21
-127.7285714285713
 31
0.0
 70
     0
 13
0.0000000000002274
 23
-298.0
 33
0.0
 14
-20.0
 24
-255.5
 34
0.0
 50
90.0
1001
ACAD
1000
DSTYLE
1002
{
1070
   287
1070
     3
1070
    41
1040
10.0
1070
    42
1040
20.0
1070
    43
1040
200.0
1070
    44
1040
30.0
1070
    73
1070
     0
1070
    74
1070
     0
1070
    77
1070
     1
1070
    78
1070
     8
1070
   140
1040
64.0
1070
   147
1040
20.0
1070
   172
1070
     1
1070
   275
1070
     0
1070
   279
1070
     0
1070
   284
1070
     0
1070
   285
1070
     0
1070
   286
1070
     0
1070
   341
1005
E6E
1070
     5
1000
ORIGIN
1002
}
  0
ENDSEC
  0
EOF
