  0
SECTION
  2
HEADER
  9
$ACADVER
  1
AC1018
  9
$ACADMAINTVER
 70
   104
  9
$DWGCODEPAGE
  3
ANSI_932
  9
$LASTSAVEDBY
  1
SERIZAH
  9
$INSBASE
 10
0.0
 20
0.0
 30
0.0
  9
$EXTMIN
 10
-896.8175360557761
 20
-580.9597549241261
 30
-0.0000000000000058
  9
$EXTMAX
 10
1194.136689399412
 20
2343.086497858942
 30
0.0000000000000104
  9
$LIMMIN
 10
-7701.482809615668
 20
-4596.480551477671
  9
$LIMMAX
 10
1918.227734001724
 20
1602.221407980116
  9
$ORTHOMODE
 70
     0
  9
$REGENMODE
 70
     1
  9
$FILLMODE
 70
     1
  9
$QTEXTMODE
 70
     0
  9
$MIRRTEXT
 70
     0
  9
$LTSCALE
 40
20.0
  9
$ATTMODE
 70
     1
  9
$TEXTSIZE
 40
64.0
  9
$TRACEWID
 40
0.05
  9
$TEXTSTYLE
  7
STANDARD
  9
$CLAYER
  8
SIZE
  9
$CELTYPE
  6
CONTINUOUS
  9
$CECOLOR
 62
   256
  9
$CELTSCALE
 40
1.0
  9
$DISPSILH
 70
     0
  9
$DIMSCALE
 40
1.0
  9
$DIMASZ
 40
10.0
  9
$DIMEXO
 40
20.0
  9
$DIMDLI
 40
200.0
  9
$DIMRND
 40
0.0
  9
$DIMDLE
 40
0.0
  9
$DIMEXE
 40
20.0
  9
$DIMTP
 40
0.0
  9
$DIMTM
 40
0.0
  9
$DIMTXT
 40
50.0
  9
$DIMCEN
 40
0.082
  9
$DIMTSZ
 40
0.0
  9
$DIMTOL
 70
     0
  9
$DIMLIM
 70
     0
  9
$DIMTIH
 70
     0
  9
$DIMTOH
 70
     0
  9
$DIMSE1
 70
     0
  9
$DIMSE2
 70
     0
  9
$DIMTAD
 70
     1
  9
$DIMZIN
 70
     8
  9
$DIMBLK
  1
ORIGIN
  9
$DIMASO
 70
     1
  9
$DIMSHO
 70
     0
  9
$DIMPOST
  1

  9
$DIMAPOST
  1

  9
$DIMALT
 70
     0
  9
$DIMALTD
 70
     2
  9
$DIMALTF
 40
25.4
  9
$DIMLFAC
 40
1.0
  9
$DIMTOFL
 70
     1
  9
$DIMTVP
 40
0.0
  9
$DIMTIX
 70
     0
  9
$DIMSOXD
 70
     0
  9
$DIMSAH
 70
     0
  9
$DIMBLK1
  1

  9
$DIMBLK2
  1

  9
$DIMSTYLE
  2
STANDARD
  9
$DIMCLRD
 70
     0
  9
$DIMCLRE
 70
     0
  9
$DIMCLRT
 70
     0
  9
$DIMTFAC
 40
1.0
  9
$DIMGAP
 40
10.0
  9
$DIMJUST
 70
     0
  9
$DIMSD1
 70
     0
  9
$DIMSD2
 70
     0
  9
$DIMTOLJ
 70
     1
  9
$DIMTZIN
 70
     0
  9
$DIMALTZ
 70
     0
  9
$DIMALTTZ
 70
     0
  9
$DIMUPT
 70
     0
  9
$DIMDEC
 70
     4
  9
$DIMTDEC
 70
     4
  9
$DIMALTU
 70
     2
  9
$DIMALTTD
 70
     2
  9
$DIMTXSTY
  7
STANDARD
  9
$DIMAUNIT
 70
     0
  9
$DIMADEC
 70
     0
  9
$DIMALTRND
 40
0.0
  9
$DIMAZIN
 70
     0
  9
$DIMDSEP
 70
    46
  9
$DIMATFIT
 70
     3
  9
$DIMFRAC
 70
     0
  9
$DIMLDRBLK
  1
ORIGIN
  9
$DIMLUNIT
 70
     2
  9
$DIMLWD
 70
    -2
  9
$DIMLWE
 70
    -2
  9
$DIMTMOVE
 70
     0
  9
$LUNITS
 70
     2
  9
$LUPREC
 70
     4
  9
$SKETCHINC
 40
0.1
  9
$FILLETRAD
 40
5.0
  9
$AUNITS
 70
     1
  9
$AUPREC
 70
     3
  9
$MENU
  1
ACAD
  9
$ELEVATION
 40
0.0
  9
$PELEVATION
 40
0.0
  9
$THICKNESS
 40
0.0
  9
$LIMCHECK
 70
     0
  9
$CHAMFERA
 40
0.0
  9
$CHAMFERB
 40
0.0
  9
$CHAMFERC
 40
0.0
  9
$CHAMFERD
 40
0.0
  9
$SKPOLY
 70
     0
  9
$TDCREATE
 40
2450330.393194445
  9
$TDUCREATE
 40
2450330.018194445
  9
$TDUPDATE
 40
2459117.728379629
  9
$TDUUPDATE
 40
2459117.353379629
  9
$TDINDWG
 40
0.7220464815
  9
$TDUSRTIMER
 40
0.7220463079
  9
$USRTIMER
 70
     1
  9
$ANGBASE
 50
0.0
  9
$ANGDIR
 70
     0
  9
$PDMODE
 70
     3
  9
$PDSIZE
 40
-2.0
  9
$PLINEWID
 40
0.0
  9
$SPLFRAME
 70
     0
  9
$SPLINETYPE
 70
     6
  9
$SPLINESEGS
 70
     8
  9
$HANDSEED
  5
99B8
  9
$SURFTAB1
 70
     6
  9
$SURFTAB2
 70
     6
  9
$SURFTYPE
 70
     6
  9
$SURFU
 70
     6
  9
$SURFV
 70
     6
  9
$UCSBASE
  2

  9
$UCSNAME
  2

  9
$UCSORG
 10
0.0
 20
0.0
 30
0.0
  9
$UCSXDIR
 10
1.0
 20
0.0
 30
0.0
  9
$UCSYDIR
 10
0.0
 20
1.0
 30
0.0
  9
$UCSORTHOREF
  2

  9
$UCSORTHOVIEW
 70
     0
  9
$UCSORGTOP
 10
0.0
 20
0.0
 30
0.0
  9
$UCSORGBOTTOM
 10
0.0
 20
0.0
 30
0.0
  9
$UCSORGLEFT
 10
0.0
 20
0.0
 30
0.0
  9
$UCSORGRIGHT
 10
0.0
 20
0.0
 30
0.0
  9
$UCSORGFRONT
 10
0.0
 20
0.0
 30
0.0
  9
$UCSORGBACK
 10
0.0
 20
0.0
 30
0.0
  9
$PUCSBASE
  2

  9
$PUCSNAME
  2

  9
$PUCSORG
 10
0.0
 20
0.0
 30
0.0
  9
$PUCSXDIR
 10
1.0
 20
0.0
 30
0.0
  9
$PUCSYDIR
 10
0.0
 20
1.0
 30
0.0
  9
$PUCSORTHOREF
  2

  9
$PUCSORTHOVIEW
 70
     0
  9
$PUCSORGTOP
 10
0.0
 20
0.0
 30
0.0
  9
$PUCSORGBOTTOM
 10
0.0
 20
0.0
 30
0.0
  9
$PUCSORGLEFT
 10
0.0
 20
0.0
 30
0.0
  9
$PUCSORGRIGHT
 10
0.0
 20
0.0
 30
0.0
  9
$PUCSORGFRONT
 10
0.0
 20
0.0
 30
0.0
  9
$PUCSORGBACK
 10
0.0
 20
0.0
 30
0.0
  9
$USERI1
 70
     0
  9
$USERI2
 70
     0
  9
$USERI3
 70
     0
  9
$USERI4
 70
     0
  9
$USERI5
 70
     0
  9
$USERR1
 40
20.0
  9
$USERR2
 40
0.0
  9
$USERR3
 40
0.0
  9
$USERR4
 40
0.0
  9
$USERR5
 40
0.0
  9
$WORLDVIEW
 70
     1
  9
$SHADEDGE
 70
     3
  9
$SHADEDIF
 70
    70
  9
$TILEMODE
 70
     1
  9
$MAXACTVP
 70
    64
  9
$PINSBASE
 10
0.0
 20
0.0
 30
0.0
  9
$PLIMCHECK
 70
     0
  9
$PEXTMIN
 10
1.000000000000000E+20
 20
1.000000000000000E+20
 30
1.000000000000000E+20
  9
$PEXTMAX
 10
-1.000000000000000E+20
 20
-1.000000000000000E+20
 30
-1.000000000000000E+20
  9
$PLIMMIN
 10
0.0
 20
0.0
  9
$PLIMMAX
 10
12.0
 20
9.0
  9
$UNITMODE
 70
     0
  9
$VISRETAIN
 70
     1
  9
$PLINEGEN
 70
     0
  9
$PSLTSCALE
 70
     1
  9
$TREEDEPTH
 70
  3020
  9
$CMLSTYLE
  2
STANDARD
  9
$CMLJUST
 70
     0
  9
$CMLSCALE
 40
1.0
  9
$PROXYGRAPHICS
 70
     1
  9
$MEASUREMENT
 70
     0
  9
$CELWEIGHT
370
    -1
  9
$ENDCAPS
280
     0
  9
$JOINSTYLE
280
     0
  9
$LWDISPLAY
290
     0
  9
$INSUNITS
 70
     0
  9
$HYPERLINKBASE
  1

  9
$STYLESHEET
  1

  9
$XEDIT
290
     1
  9
$CEPSNTYPE
380
     0
  9
$PSTYLEMODE
290
     1
  9
$FINGERPRINTGUID
  2
{1CDFC60D-B076-47AB-80D2-044DDF3E796A}
  9
$VERSIONGUID
  2
{4218AA2F-DA2E-F34B-9CD7-DC87AC6CB635}
  9
$EXTNAMES
290
     1
  9
$PSVPSCALE
 40
0.0
  9
$OLESTARTUP
290
     0
  9
$SORTENTS
280
   127
  9
$INDEXCTL
280
     0
  9
$HIDETEXT
280
     0
  9
$XCLIPFRAME
290
     0
  9
$HALOGAP
280
     0
  9
$OBSCOLOR
 70
   257
  9
$OBSLTYPE
280
     0
  9
$INTERSECTIONDISPLAY
280
     0
  9
$INTERSECTIONCOLOR
 70
   257
  9
$DIMASSOC
280
     1
  9
$PROJECTNAME
  1

  0
ENDSEC
  0
SECTION
  2
CLASSES
  0
CLASS
  1
ACDBDICTIONARYWDFLT
  2
AcDbDictionaryWithDefault
  3
ObjectDBX Classes
 90
        0
 91
        1
280
     0
281
     0
  0
CLASS
  1
MATERIAL
  2
AcDbMaterial
  3
ObjectDBX Classes
 90
     1153
 91
        3
280
     0
281
     0
  0
CLASS
  1
VISUALSTYLE
  2
AcDbVisualStyle
  3
ObjectDBX Classes
 90
     4095
 91
       24
280
     0
281
     0
  0
CLASS
  1
TABLESTYLE
  2
AcDbTableStyle
  3
ObjectDBX Classes
 90
     4095
 91
        1
280
     0
281
     0
  0
CLASS
  1
SCALE
  2
AcDbScale
  3
ObjectDBX Classes
 90
     1153
 91
       17
280
     0
281
     0
  0
CLASS
  1
MLEADERSTYLE
  2
AcDbMLeaderStyle
  3
ACDB_MLEADERSTYLE_CLASS
 90
     4095
 91
        1
280
     0
281
     0
  0
CLASS
  1
ACDBSECTIONVIEWSTYLE
  2
AcDbSectionViewStyle
  3
ObjectDBX Classes
 90
     1025
 91
        1
280
     0
281
     0
  0
CLASS
  1
ACDBDETAILVIEWSTYLE
  2
AcDbDetailViewStyle
  3
ObjectDBX Classes
 90
     1025
 91
        1
280
     0
281
     0
  0
CLASS
  1
DICTIONARYVAR
  2
AcDbDictionaryVar
  3
ObjectDBX Classes
 90
        0
 91
       15
280
     0
281
     0
  0
CLASS
  1
CELLSTYLEMAP
  2
AcDbCellStyleMap
  3
ObjectDBX Classes
 90
     1152
 91
        2
280
     0
281
     0
  0
CLASS
  1
SORTENTSTABLE
  2
AcDbSortentsTable
  3
ObjectDBX Classes
 90
        0
 91
        1
280
     0
281
     0
  0
ENDSEC
  0
SECTION
  2
TABLES
  0
TABLE
  2
VPORT
  5
8D1F
330
0
100
AcDbSymbolTable
 70
     1
1001
ACAD
1000
DbSaveVer
1071
       51
  0
VPORT
  5
9393
330
8D1F
100
AcDbSymbolTableRecord
100
AcDbViewportTableRecord
  2
*ACTIVE
 70
     0
 10
0.0
 20
0.0
 11
1.0
 21
1.0
 12
148.6595766718178
 22
881.0633714674075
 13
0.0
 23
0.0
 14
50.0
 24
50.0
 15
100.0
 25
100.0
 16
0.0
 26
0.0
 36
1.0
 17
0.0
 27
0.0
 37
0.0
 40
2946.452737478723
 41
2.021739130434782
 42
50.0
 43
0.0
 44
0.0
 50
0.0
 51
0.0
 71
     0
 72
   500
 73
     1
 74
     0
 75
     0
 76
     0
 77
     0
 78
     0
281
     0
 65
     1
110
0.0
120
0.0
130
0.0
111
1.0
121
0.0
131
0.0
112
0.0
122
1.0
132
0.0
 79
     0
146
0.0
1001
ACAD_NAV_VCDISPLAY
1070
     3
  0
ENDTAB
  0
TABLE
  2
LTYPE
  5
8D1C
330
0
100
AcDbSymbolTable
 70
     1
  0
LTYPE
  5
8D2A
330
8D1C
100
AcDbSymbolTableRecord
100
AcDbLinetypeTableRecord
  2
BYBLOCK
 70
     0
  3

 72
    65
 73
     0
 40
0.0
  0
LTYPE
  5
8D2B
330
8D1C
100
AcDbSymbolTableRecord
100
AcDbLinetypeTableRecord
  2
BYLAYER
 70
     0
  3

 72
    65
 73
     0
 40
0.0
  0
LTYPE
  5
8D2C
330
8D1C
100
AcDbSymbolTableRecord
100
AcDbLinetypeTableRecord
  2
CONTINUOUS
 70
     0
  3
実線
 72
    65
 73
     0
 40
0.0
  0
ENDTAB
  0
TABLE
  2
LAYER
  5
8D19
102
{ACAD_XDICTIONARY
360
9549
102
}
330
0
100
AcDbSymbolTable
 70
     9
  0
LAYER
  5
8D27
102
{ACAD_XDICTIONARY
360
940B
102
}
330
8D19
100
AcDbSymbolTableRecord
100
AcDbLayerTableRecord
  2
0
 70
     0
 62
     7
  6
CONTINUOUS
370
    -3
390
8D26
  0
LAYER
  5
8D39
102
{ACAD_XDICTIONARY
360
940D
102
}
330
8D19
100
AcDbSymbolTableRecord
100
AcDbLayerTableRecord
  2
SIZE
 70
     0
 62
    30
  6
CONTINUOUS
370
    -3
390
8D26
  0
LAYER
  5
8D49
102
{ACAD_XDICTIONARY
360
940F
102
}
330
8D19
100
AcDbSymbolTableRecord
100
AcDbLayerTableRecord
  2
DETAIL
 70
     0
 62
     5
  6
CONTINUOUS
370
    -3
390
8D26
  0
LAYER
  5
8D4A
102
{ACAD_XDICTIONARY
360
9411
102
}
330
8D19
100
AcDbSymbolTableRecord
100
AcDbLayerTableRecord
  2
OUTLINE
 70
     0
 62
     3
  6
CONTINUOUS
370
    -3
390
8D26
  0
LAYER
  5
8D4C
102
{ACAD_XDICTIONARY
360
9413
102
}
330
8D19
100
AcDbSymbolTableRecord
100
AcDbLayerTableRecord
  2
NOTE
 70
     0
 62
     4
  6
CONTINUOUS
370
    -3
390
8D26
  0
LAYER
  5
8D4D
102
{ACAD_XDICTIONARY
360
9415
102
}
330
8D19
100
AcDbSymbolTableRecord
100
AcDbLayerTableRecord
  2
ARRANGE
 70
     0
 62
     1
  6
CONTINUOUS
370
    -3
390
8D26
  0
LAYER
  5
8D4E
102
{ACAD_XDICTIONARY
360
9417
102
}
330
8D19
100
AcDbSymbolTableRecord
100
AcDbLayerTableRecord
  2
FIX
 70
     0
 62
    11
  6
CONTINUOUS
370
    -3
390
8D26
  0
LAYER
  5
8D4F
102
{ACAD_XDICTIONARY
360
9419
102
}
330
8D19
100
AcDbSymbolTableRecord
100
AcDbLayerTableRecord
  2
ETC
 70
     0
 62
    61
  6
CONTINUOUS
370
    -3
390
8D26
  0
LAYER
  5
8D52
330
8D19
100
AcDbSymbolTableRecord
100
AcDbLayerTableRecord
  2
DEFPOINTS
 70
     0
 62
     7
  6
CONTINUOUS
290
     0
370
    -3
390
8D26
  0
ENDTAB
  0
TABLE
  2
STYLE
  5
8D1A
330
0
100
AcDbSymbolTable
 70
     1
  0
STYLE
  5
8D28
330
8D1A
100
AcDbSymbolTableRecord
100
AcDbTextStyleTableRecord
  2
STANDARD
 70
     0
 40
0.0
 41
0.9
 50
0.0
 71
     0
 42
64.0
  3
SIMPLEX
  4
BIGFONT
  0
ENDTAB
  0
TABLE
  2
VIEW
  5
8D1D
330
0
100
AcDbSymbolTable
 70
     1
  0
VIEW
  5
8D56
330
8D1D
100
AcDbSymbolTableRecord
100
AcDbViewTableRecord
  2
ALL
 70
     0
 40
4282.62
 10
0.0
 20
41.30990399999999
 41
5940.0
 11
0.0
 21
0.0
 31
1.0
 12
0.0
 22
0.0
 32
0.0
 42
50.0
 43
0.0
 44
0.0
 50
0.0
 71
     0
281
     0
 72
     0
  0
ENDTAB
  0
TABLE
  2
UCS
  5
8D1E
330
0
100
AcDbSymbolTable
 70
     0
  0
ENDTAB
  0
TABLE
  2
APPID
  5
8D20
330
0
100
AcDbSymbolTable
 70
     8
  0
APPID
  5
8D29
330
8D20
100
AcDbSymbolTableRecord
100
AcDbRegAppTableRecord
  2
ACAD
 70
     0
  0
APPID
  5
9426
330
8D20
100
AcDbSymbolTableRecord
100
AcDbRegAppTableRecord
  2
ACAD_NAV_VCDISPLAY
 70
     0
  0
APPID
  5
945A
330
8D20
100
AcDbSymbolTableRecord
100
AcDbRegAppTableRecord
  2
ACAD_MLEADERVER
 70
     0
  0
APPID
  5
94E9
330
8D20
100
AcDbSymbolTableRecord
100
AcDbRegAppTableRecord
  2
ACAD_EXEMPT_FROM_CAD_STANDARDS
 70
     0
  0
APPID
  5
953B
330
8D20
100
AcDbSymbolTableRecord
100
AcDbRegAppTableRecord
  2
ACAD_DSTYLE_DIMRADIAL_EXTENSION
 70
     0
  0
APPID
  5
98BB
330
8D20
100
AcDbSymbolTableRecord
100
AcDbRegAppTableRecord
  2
ACAD_DSTYLE_DIMJAG
 70
     0
  0
APPID
  5
98BC
330
8D20
100
AcDbSymbolTableRecord
100
AcDbRegAppTableRecord
  2
ACAD_DSTYLE_DIMTALN
 70
     0
  0
APPID
  5
98EA
330
8D20
100
AcDbSymbolTableRecord
100
AcDbRegAppTableRecord
  2
ACAD_PSEXT
 70
     0
  0
ENDTAB
  0
TABLE
  2
DIMSTYLE
  5
8D21
330
0
100
AcDbSymbolTable
 70
     1
100
AcDbDimStyleTable
 71
     1
340
8D57
  0
DIMSTYLE
105
8D57
102
{ACAD_REACTORS
330
98BD
102
}
330
8D21
100
AcDbSymbolTableRecord
100
AcDbDimStyleTableRecord
  2
STANDARD
 70
     0
275
     1
284
     8
285
     8
286
     8
340
8D28
  0
ENDTAB
  0
TABLE
  2
BLOCK_RECORD
  5
8D18
330
0
100
AcDbSymbolTable
 70
     5
  0
BLOCK_RECORD
  5
8D35
102
{ACAD_XDICTIONARY
360
938A
102
}
330
8D18
100
AcDbSymbolTableRecord
100
AcDbBlockTableRecord
  2
*MODEL_SPACE
340
9408
  0
BLOCK_RECORD
  5
8D31
102
{ACAD_XDICTIONARY
360
9388
102
}
330
8D18
100
AcDbSymbolTableRecord
100
AcDbBlockTableRecord
  2
*PAPER_SPACE
340
9409
  0
BLOCK_RECORD
  5
8D61
330
8D18
100
AcDbSymbolTableRecord
100
AcDbBlockTableRecord
  2
_ORIGIN
340
0
102
{BLKREFS
331
98DC
331
98DD
102
}
  0
BLOCK_RECORD
  5
95A1
102
{ACAD_XDICTIONARY
360
95A5
102
}
330
8D18
100
AcDbSymbolTableRecord
100
AcDbBlockTableRecord
  2
A$C1938062D
340
0
  0
BLOCK_RECORD
  5
96DC
330
8D18
100
AcDbSymbolTableRecord
100
AcDbBlockTableRecord
  2
A$C43763577
340
0
  0
BLOCK_RECORD
  5
9762
330
8D18
100
AcDbSymbolTableRecord
100
AcDbBlockTableRecord
  2
A$C05AD6D1D
340
0
  0
BLOCK_RECORD
  5
98BE
330
8D18
100
AcDbSymbolTableRecord
100
AcDbBlockTableRecord
  2
*D4
340
0
  0
ENDTAB
  0
ENDSEC
  0
SECTION
  2
BLOCKS
  0
BLOCK
  5
8D36
330
8D35
100
AcDbEntity
  8
0
100
AcDbBlockBegin
  2
*MODEL_SPACE
 70
     0
 10
0.0
 20
0.0
 30
0.0
  3
*MODEL_SPACE
  1

  0
ENDBLK
  5
8D37
330
8D35
100
AcDbEntity
  8
0
100
AcDbBlockEnd
  0
BLOCK
  5
8D32
330
8D31
100
AcDbEntity
 67
     1
  8
0
100
AcDbBlockBegin
  2
*PAPER_SPACE
 70
     0
 10
0.0
 20
0.0
 30
0.0
  3
*PAPER_SPACE
  1

  0
ENDBLK
  5
8D33
330
8D31
100
AcDbEntity
 67
     1
  8
0
100
AcDbBlockEnd
  0
BLOCK
  5
8D62
330
8D61
100
AcDbEntity
  8
0
100
AcDbBlockBegin
  2
_ORIGIN
 70
     0
 10
0.0
 20
0.0
 30
0.0
  3
_ORIGIN
  1

  0
CIRCLE
  5
8D63
330
8D61
100
AcDbEntity
  8
0
  6
ByBlock
 62
     0
100
AcDbCircle
 10
0.0
 20
0.0
 30
0.0
 40
0.5
  0
LINE
  5
8D64
330
8D61
100
AcDbEntity
  8
0
  6
ByBlock
 62
     0
100
AcDbLine
 10
0.0
 20
0.0
 30
0.0
 11
-1.0
 21
0.0
 31
0.0
  0
ENDBLK
  5
8D65
330
8D61
100
AcDbEntity
  8
0
100
AcDbBlockEnd
  0
BLOCK
  5
95A6
330
95A1
100
AcDbEntity
  8
0
100
AcDbBlockBegin
  2
A$C1938062D
 70
     0
 10
0.0
 20
0.0
 30
0.0
  3
A$C1938062D
  1

  0
TEXT
  5
95A2
330
95A1
100
AcDbEntity
  8
NOTE
  6
Continuous
100
AcDbText
 10
178.6549539266798
 20
102.5298715173502
 30
0.0
 40
50.0
  1
D,RL,RG
 41
0.9
100
AcDbText
  0
LINE
  5
95A3
330
95A1
100
AcDbEntity
  8
NOTE
  6
Continuous
100
AcDbLine
 10
595.2068042971502
 20
77.86875251734989
 30
0.0
 11
0.0
 21
77.8687525173504
 31
0.0
  0
TEXT
  5
95A4
330
95A1
100
AcDbEntity
  8
NOTE
  6
Continuous
100
AcDbText
 10
2.053517172673309
 20
0.0000000000000568
 30
0.0
 40
50.0
  1
90×60ノックアウト穴
 41
0.9
100
AcDbText
  0
ENDBLK
  5
95A7
330
95A1
100
AcDbEntity
  8
0
100
AcDbBlockEnd
  0
BLOCK
  5
9760
330
96DC
100
AcDbEntity
  8
0
100
AcDbBlockBegin
  2
A$C43763577
 70
     0
 10
0.0
 20
0.0
 30
0.0
  3
A$C43763577
  1

  0
LINE
  5
96DD
330
96DC
100
AcDbEntity
  8
NOTE
  6
Continuous
100
AcDbLine
 10
0.0000025260434313
 20
982.0809985084252
 30
0.0
 11
614.5181520932565
 21
982.0809985084252
 31
0.0
  0
TEXT
  5
96DE
330
96DC
100
AcDbEntity
  8
NOTE
  6
Continuous
100
AcDbText
 10
27.70719066564197
 20
998.8990735084254
 30
0.0
 40
50.0
  1
EL,D,RL,RG用K.O.穴
 41
0.9
100
AcDbText
  0
LINE
  5
96DF
330
96DC
100
AcDbEntity
  8
NOTE
  6
Continuous
100
AcDbLine
 10
803.7870290273604
 20
799.3122998179878
 30
0.0
 11
614.5181520932565
 21
982.0809985084252
 31
0.0
  0
LWPOLYLINE
  5
96E0
330
96DC
100
AcDbEntity
  8
NOTE
  6
Continuous
100
AcDbPolyline
 90
        3
 70
     0
 43
0.0
 10
784.2043327464794
 20
834.1909183392605
 10
803.7870290273604
 20
799.3122998179878
 10
769.3886076313048
 20
819.7267210745117
  0
LINE
  5
96E1
330
96DC
100
AcDbEntity
  8
NOTE
  6
Continuous
100
AcDbLine
 10
1064.78702902736
 20
1279.312299817988
 30
0.0
 11
726.3526562683987
 21
1495.77215337199
 31
0.0
  0
LINE
  5
96E2
330
96DC
100
AcDbEntity
  8
NOTE
  6
Continuous
100
AcDbLine
 10
880.78702902736
 20
689.3122998179883
 30
0.0
 11
628.1316255302015
 21
414.221842744868
 31
0.0
  0
LINE
  5
96E3
330
96DC
100
AcDbEntity
  8
NOTE
  6
Continuous
100
AcDbLine
 10
993.7870290273604
 20
829.3122998179878
 30
0.0
 11
704.0202965034067
 21
1124.779948506885
 31
0.0
  0
LINE
  5
96E4
330
96DC
100
AcDbEntity
  8
NOTE
  6
Continuous
100
AcDbLine
 10
703.67551165006
 20
1124.779948506885
 30
0.0
 11
993.7870290273604
 21
779.3122998179878
 31
0.0
  0
LINE
  5
96E5
330
96DC
100
AcDbEntity
  8
NOTE
  6
Continuous
100
AcDbLine
 10
1064.78702902736
 20
1169.312299817988
 30
0.0
 11
726.3526562683987
 21
1385.77215337199
 31
0.0
  0
POINT
  5
96E6
330
96DC
100
AcDbEntity
  8
ARRANGE
  6
Continuous
100
AcDbPoint
 10
803.7870290273604
 20
689.3122998179879
 30
0.0
  0
CIRCLE
  5
96E7
330
96DC
100
AcDbEntity
  8
ARRANGE
  6
Continuous
100
AcDbCircle
 10
803.7870290273604
 20
689.3122998179879
 30
0.0
 40
40.0
  0
LINE
  5
96E8
330
96DC
100
AcDbEntity
  8
NOTE
  6
Continuous
100
AcDbLine
 10
783.7870290273602
 20
799.3122998179878
 30
0.0
 11
823.7870290273601
 21
799.3122998179878
 31
0.0
  0
LINE
  5
96E9
330
96DC
100
AcDbEntity
  8
DETAIL
  6
Continuous
100
AcDbLine
 10
803.7870290273604
 20
2629.312299817988
 30
0.0
 11
803.7870290273604
 21
689.3122998179879
 31
0.0
  0
LINE
  5
96EA
330
96DC
100
AcDbEntity
  8
NOTE
  6
Continuous
100
AcDbLine
 10
880.78702902736
 20
709.3122998179879
 30
0.0
 11
880.78702902736
 21
669.3122998179878
 31
0.0
  0
CIRCLE
  5
96EB
330
96DC
100
AcDbEntity
  8
FIX
  6
Continuous
100
AcDbCircle
 10
880.78702902736
 20
689.3122998179879
 30
0.0
 40
40.0
  0
CIRCLE
  5
96EC
330
96DC
100
AcDbEntity
  8
FIX
  6
Continuous
100
AcDbCircle
 10
1081.78702902736
 20
689.3122998179879
 30
0.0
 40
40.0
  0
LINE
  5
96ED
330
96DC
100
AcDbEntity
  8
SIZE
  6
ByBlock
100
AcDbLine
 10
1138.78702902736
 20
689.3122998179879
 30
0.0
 11
1532.617194979118
 21
689.3122998179879
 31
0.0
  0
LINE
  5
96EE
330
96DC
100
AcDbEntity
  8
DETAIL
  6
Continuous
100
AcDbLine
 10
803.7870290273604
 20
689.3122998179879
 30
0.0
 11
1113.78702902736
 21
689.3122998179879
 31
0.0
  0
LINE
  5
96EF
330
96DC
100
AcDbEntity
  8
NOTE
  6
Continuous
100
AcDbLine
 10
1061.78702902736
 20
689.3122998179879
 30
0.0
 11
1101.78702902736
 21
689.3122998179879
 31
0.0
  0
LINE
  5
96F0
330
96DC
100
AcDbEntity
  8
NOTE
  6
Continuous
100
AcDbLine
 10
860.7870290273604
 20
689.3122998179879
 30
0.0
 11
900.7870290273604
 21
689.3122998179879
 31
0.0
  0
LWPOLYLINE
  5
96F1
330
96DC
100
AcDbEntity
  8
NOTE
  6
Continuous
100
AcDbPolyline
 90
        3
 70
     0
 43
0.0
 10
862.6819833189818
 20
653.6442850326525
 10
880.7870290273578
 20
689.3122998179897
 10
847.2735920739552
 20
667.4754149783227
  0
LINE
  5
96F2
330
96DC
100
AcDbEntity
  8
NOTE
  6
Continuous
100
AcDbLine
 10
1064.78702902736
 20
1189.312299817988
 30
0.0
 11
1064.78702902736
 21
1149.312299817988
 31
0.0
  0
LINE
  5
96F3
330
96DC
100
AcDbEntity
  8
DETAIL
  6
Continuous
100
AcDbLine
 10
803.7870290273604
 20
719.3122998179878
 30
0.0
 11
1163.78702902736
 21
719.3122998179878
 31
0.0
  0
LWPOLYLINE
  5
96F4
330
96DC
100
AcDbEntity
  8
NOTE
  6
Continuous
100
AcDbPolyline
 90
        3
 70
     0
 43
0.0
 10
975.6875746200796
 20
814.9831531026139
 10
993.7870290273604
 20
779.3122998179878
 10
960.27701507006
 20
801.1544371405786
  0
LWPOLYLINE
  5
96F5
330
96DC
100
AcDbEntity
  8
NOTE
  6
Continuous
100
AcDbPolyline
 90
        3
 70
     0
 43
0.0
 10
976.6285856436264
 20
865.4452187612061
 10
993.7870290273604
 20
829.3122998179878
 10
960.8609220785215
 20
852.025104195903
  0
CIRCLE
  5
96F6
330
96DC
100
AcDbEntity
  8
DETAIL
  6
Continuous
100
AcDbCircle
 10
993.7870290273604
 20
779.3122998179878
 30
0.0
 40
13.5
  0
LINE
  5
96F7
330
96DC
100
AcDbEntity
  8
NOTE
  6
Continuous
100
AcDbLine
 10
973.7870290273603
 20
779.3122998179878
 30
0.0
 11
1013.78702902736
 21
779.3122998179878
 31
0.0
  0
LINE
  5
96F8
330
96DC
100
AcDbEntity
  8
NOTE
  6
Continuous
100
AcDbLine
 10
993.7870290273604
 20
799.3122998179878
 30
0.0
 11
993.7870290273604
 21
759.3122998179879
 31
0.0
  0
CIRCLE
  5
96F9
330
96DC
100
AcDbEntity
  8
DETAIL
  6
Continuous
100
AcDbCircle
 10
993.7870290273604
 20
829.3122998179878
 30
0.0
 40
13.5
  0
LINE
  5
96FA
330
96DC
100
AcDbEntity
  8
NOTE
  6
Continuous
100
AcDbLine
 10
973.7870290273603
 20
829.3122998179878
 30
0.0
 11
1013.78702902736
 21
829.3122998179878
 31
0.0
  0
LINE
  5
96FB
330
96DC
100
AcDbEntity
  8
NOTE
  6
Continuous
100
AcDbLine
 10
993.7870290273604
 20
849.3122998179879
 30
0.0
 11
993.7870290273604
 21
809.3122998179879
 31
0.0
  0
LINE
  5
96FC
330
96DC
100
AcDbEntity
  8
NOTE
  6
Continuous
100
AcDbLine
 10
803.7870290273604
 20
819.3122998179878
 30
0.0
 11
803.7870290273604
 21
779.3122998179878
 31
0.0
  0
LINE
  5
96FD
330
96DC
100
AcDbEntity
  8
NOTE
  6
Continuous
100
AcDbLine
 10
1064.78702902736
 20
1299.312299817988
 30
0.0
 11
1064.78702902736
 21
1259.312299817988
 31
0.0
  0
LINE
  5
96FE
330
96DC
100
AcDbEntity
  8
NOTE
  6
Continuous
100
AcDbLine
 10
1044.78702902736
 20
1169.312299817988
 30
0.0
 11
1084.78702902736
 21
1169.312299817988
 31
0.0
  0
LWPOLYLINE
  5
96FF
330
96DC
100
AcDbEntity
  8
NOTE
  6
Continuous
100
AcDbPolyline
 90
        3
 70
     0
 43
0.0
 10
1045.511394687319
 20
1204.361550043269
 10
1064.78702902736
 20
1169.312299817988
 10
1030.569215124384
 20
1190.028023652467
  0
LWPOLYLINE
  5
9700
330
96DC
100
AcDbEntity
  8
NOTE
  6
Continuous
100
AcDbPolyline
 90
        3
 70
     0
 43
0.0
 10
1045.511394687319
 20
1314.36155004327
 10
1064.78702902736
 20
1279.312299817988
 10
1030.569215124384
 20
1300.028023652467
  0
LINE
  5
9701
330
96DC
100
AcDbEntity
  8
NOTE
  6
Continuous
100
AcDbLine
 10
1044.78702902736
 20
1279.312299817988
 30
0.0
 11
1084.78702902736
 21
1279.312299817988
 31
0.0
  0
LINE
  5
9702
330
96DC
100
AcDbEntity
  8
NOTE
  6
Continuous
100
AcDbLine
 10
628.1316255302015
 20
414.221842744868
 30
0.0
 11
280.0304663988653
 21
414.221842744868
 31
0.0
  0
TEXT
  5
9703
330
96DC
100
AcDbEntity
  8
NOTE
  6
Continuous
100
AcDbText
 10
295.6920575025034
 20
423.7224277448683
 30
0.0
 40
50.0
  1
AH 4-%%C10
 41
0.9
100
AcDbText
  0
TEXT
  5
9704
330
96DC
100
AcDbEntity
  8
NOTE
  6
Continuous
100
AcDbText
 10
286.3841577802396
 20
1395.27273837199
 30
0.0
 40
50.0
  1
RG %%C15.88
 41
0.9
100
AcDbText
  0
LINE
  5
9705
330
96DC
100
AcDbEntity
  8
NOTE
  6
Continuous
100
AcDbLine
 10
379.4608853091053
 20
1124.779948506885
 30
0.0
 11
704.0202965034067
 21
1124.779948506885
 31
0.0
  0
TEXT
  5
9706
330
96DC
100
AcDbEntity
  8
NOTE
  6
Continuous
100
AcDbText
 10
390.1892473656955
 20
1136.157590875089
 30
0.0
 40
50.0
  1
EL用K.O.穴
 41
0.9
100
AcDbText
  0
LINE
  5
9707
330
96DC
100
AcDbEntity
  8
NOTE
  6
Continuous
100
AcDbLine
 10
726.3526562683987
 20
1385.77215337199
 30
0.0
 11
261.9780936487611
 21
1385.77215337199
 31
0.0
  0
LINE
  5
9708
330
96DC
100
AcDbEntity
  8
DETAIL
  6
Continuous
100
AcDbLine
 10
1113.78702902736
 20
719.3122998179878
 30
0.0
 11
1113.78702902736
 21
689.3122998179879
 31
0.0
  0
LINE
  5
9709
330
96DC
100
AcDbEntity
  8
DETAIL
  6
Continuous
100
AcDbLine
 10
1163.78702902736
 20
2589.312299817988
 30
0.0
 11
1163.78702902736
 21
719.3122998179878
 31
0.0
  0
LINE
  5
970A
330
96DC
100
AcDbEntity
  8
SIZE
  6
Continuous
100
AcDbLine
 10
1103.78702902736
 20
804.3122998179878
 30
0.0
 11
1334.83061288036
 21
804.3122998179878
 31
0.0
  0
LINE
  5
970B
330
96DC
100
AcDbEntity
  8
SIZE
  6
Continuous
100
AcDbLine
 10
1033.78702902736
 20
829.3122998179878
 30
0.0
 11
1334.83061288036
 21
829.3122998179876
 31
0.0
  0
LINE
  5
970C
330
96DC
100
AcDbEntity
  8
SIZE
  6
Continuous
100
AcDbLine
 10
1138.78702902736
 20
689.3122998179879
 30
0.0
 11
1450.425947337665
 21
689.3122998179879
 31
0.0
  0
LINE
  5
970D
330
96DC
100
AcDbEntity
  8
SIZE
  6
Continuous
100
AcDbLine
 10
1103.78702902736
 20
804.3122998179878
 30
0.0
 11
1450.425947337665
 21
804.3122998179875
 31
0.0
  0
LINE
  5
970E
330
96DC
100
AcDbEntity
  8
SIZE
  6
Continuous
100
AcDbLine
 10
1103.78702902736
 20
804.3122998179878
 30
0.0
 11
1334.83061288036
 21
804.3122998179878
 31
0.0
  0
LINE
  5
970F
330
96DC
100
AcDbEntity
  8
SIZE
  6
Continuous
100
AcDbLine
 10
1033.78702902736
 20
779.3122998179878
 30
0.0
 11
1334.83061288036
 21
779.3122998179878
 31
0.0
  0
LINE
  5
9710
330
96DC
100
AcDbEntity
  8
SIZE
  6
Continuous
100
AcDbLine
 10
1138.78702902736
 20
689.3122998179879
 30
0.0
 11
1804.262654890976
 21
689.3122998179876
 31
0.0
  0
LINE
  5
9711
330
96DC
100
AcDbEntity
  8
SIZE
  6
Continuous
100
AcDbLine
 10
1138.78702902736
 20
689.3122998179879
 30
0.0
 11
1569.790247406102
 21
689.3122998179879
 31
0.0
  0
LINE
  5
9712
330
96DC
100
AcDbEntity
  8
SIZE
  6
Continuous
100
AcDbLine
 10
1104.78702902736
 20
1169.312299817988
 30
0.0
 11
1569.790247406102
 21
1169.312299817987
 31
0.0
  0
LINE
  5
9713
330
96DC
100
AcDbEntity
  8
SIZE
  6
Continuous
100
AcDbLine
 10
1138.78702902736
 20
689.3122998179879
 30
0.0
 11
1700.863144246891
 21
689.3122998179879
 31
0.0
  0
LINE
  5
9714
330
96DC
100
AcDbEntity
  8
SIZE
  6
Continuous
100
AcDbLine
 10
1104.78702902736
 20
1279.312299817988
 30
0.0
 11
1700.863144246891
 21
1279.312299817987
 31
0.0
  0
LINE
  5
9715
330
96DC
100
AcDbEntity
  8
SIZE
  6
Continuous
100
AcDbLine
 10
793.7870290273604
 20
689.3122998179879
 30
0.0
 11
500.2227927701391
 21
689.312299817988
 31
0.0
  0
LINE
  5
9716
330
96DC
100
AcDbEntity
  8
SIZE
  6
Continuous
100
AcDbLine
 10
773.7870290273604
 20
799.3122998179878
 30
0.0
 11
500.2227927701391
 21
799.3122998179878
 31
0.0
  0
LINE
  5
9717
330
96DC
100
AcDbEntity
  8
SIZE
  6
Continuous
100
AcDbLine
 10
520.222792770139
 20
679.312299817988
 30
0.0
 11
520.222792770139
 21
669.3122998179878
 31
0.0
  0
LINE
  5
9718
330
96DC
100
AcDbEntity
  8
SIZE
  6
Continuous
100
AcDbLine
 10
520.222792770139
 20
809.3122998179879
 30
0.0
 11
520.222792770139
 21
819.312299817988
 31
0.0
  0
LINE
  5
9719
330
96DC
100
AcDbEntity
  8
SIZE
  6
Continuous
100
AcDbLine
 10
520.222792770139
 20
689.312299817988
 30
0.0
 11
520.222792770139
 21
799.3122998179878
 31
0.0
  0
LINE
  5
971A
330
96DC
100
AcDbEntity
  8
SIZE
  6
Continuous
100
AcDbLine
 10
1063.78702902736
 20
764.3122998179879
 30
0.0
 11
1060.682082848333
 21
272.4594594359555
 31
0.0
  0
LINE
  5
971B
330
96DC
100
AcDbEntity
  8
SIZE
  6
Continuous
100
AcDbLine
 10
993.7870290273604
 20
739.3122998179879
 30
0.0
 11
990.6820828483333
 21
272.4594594359555
 31
0.0
  0
LINE
  5
971C
330
96DC
100
AcDbEntity
  8
SIZE
  6
Continuous
100
AcDbLine
 10
1070.682082848333
 20
302.4594594359552
 30
0.0
 11
1080.682082848333
 21
302.4594594359552
 31
0.0
  0
LINE
  5
971D
330
96DC
100
AcDbEntity
  8
SIZE
  6
Continuous
100
AcDbLine
 10
980.6820828483333
 20
302.4594594359552
 30
0.0
 11
857.4249399911902
 21
302.4594594359552
 31
0.0
  0
LINE
  5
971E
330
96DC
100
AcDbEntity
  8
SIZE
  6
Continuous
100
AcDbLine
 10
1060.682082848333
 20
302.4594594359552
 30
0.0
 11
990.6820828483333
 21
302.4594594359552
 31
0.0
  0
LINE
  5
971F
330
96DC
100
AcDbEntity
  8
SIZE
  6
Continuous
100
AcDbLine
 10
803.7870290273604
 20
669.3122998179878
 30
0.0
 11
800.6820828483334
 21
129.2236261194905
 31
0.0
  0
LINE
  5
9720
330
96DC
100
AcDbEntity
  8
SIZE
  6
Continuous
100
AcDbLine
 10
1063.78702902736
 20
764.3122998179879
 30
0.0
 11
1060.682082848333
 21
129.2236261194905
 31
0.0
  0
LINE
  5
9721
330
96DC
100
AcDbEntity
  8
SIZE
  6
Continuous
100
AcDbLine
 10
810.6820828483334
 20
159.2236261194905
 30
0.0
 11
1050.682082848333
 21
159.2236261194905
 31
0.0
  0
LINE
  5
9722
330
96DC
100
AcDbEntity
  8
SIZE
  6
Continuous
100
AcDbLine
 10
783.7870290273602
 20
719.3122998179878
 30
0.0
 11
604.9208093964623
 21
719.3122998179878
 31
0.0
  0
LINE
  5
9723
330
96DC
100
AcDbEntity
  8
SIZE
  6
Continuous
100
AcDbLine
 10
783.7870290273602
 20
689.3122998179879
 30
0.0
 11
604.9208093964623
 21
689.312299817988
 31
0.0
  0
LINE
  5
9724
330
96DC
100
AcDbEntity
  8
SIZE
  6
Continuous
100
AcDbLine
 10
634.9208093964628
 20
729.3122998179878
 30
0.0
 11
634.9208093964628
 21
739.312299817988
 31
0.0
  0
LINE
  5
9725
330
96DC
100
AcDbEntity
  8
SIZE
  6
Continuous
100
AcDbLine
 10
634.9208093964628
 20
679.312299817988
 30
0.0
 11
634.9208093964628
 21
593.8618600979006
 31
0.0
  0
LINE
  5
9726
330
96DC
100
AcDbEntity
  8
SIZE
  6
Continuous
100
AcDbLine
 10
634.9208093964628
 20
719.3122998179878
 30
0.0
 11
634.9208093964628
 21
689.312299817988
 31
0.0
  0
LINE
  5
9727
330
96DC
100
AcDbEntity
  8
SIZE
  6
Continuous
100
AcDbLine
 10
803.7870290273604
 20
669.3122998179878
 30
0.0
 11
800.6820828483334
 21
0.000002835719215
 31
0.0
  0
LINE
  5
9728
330
96DC
100
AcDbEntity
  8
SIZE
  6
Continuous
100
AcDbLine
 10
1113.78702902736
 20
669.3122998179878
 30
0.0
 11
1110.682082848333
 21
0.000002835719215
 31
0.0
  0
LINE
  5
9729
330
96DC
100
AcDbEntity
  8
SIZE
  6
Continuous
100
AcDbLine
 10
803.7870290273604
 20
679.3122998179877
 30
0.0
 11
800.6820828483334
 21
392.7318737752022
 31
0.0
  0
LINE
  5
972A
330
96DC
100
AcDbEntity
  8
SIZE
  6
Continuous
100
AcDbLine
 10
880.78702902736
 20
659.3122998179879
 30
0.0
 11
877.6820828483334
 21
392.7318737752022
 31
0.0
  0
LINE
  5
972B
330
96DC
100
AcDbEntity
  8
SIZE
  6
Continuous
100
AcDbLine
 10
790.6820828483334
 20
412.7318737752021
 30
0.0
 11
716.203469257236
 21
412.7318737752021
 31
0.0
  0
LINE
  5
972C
330
96DC
100
AcDbEntity
  8
SIZE
  6
Continuous
100
AcDbLine
 10
887.6820828483332
 20
412.7318737752021
 30
0.0
 11
897.6820828483333
 21
412.7318737752021
 31
0.0
  0
LINE
  5
972D
330
96DC
100
AcDbEntity
  8
SIZE
  6
Continuous
100
AcDbLine
 10
800.6820828483334
 20
412.7318737752021
 30
0.0
 11
877.6820828483334
 21
412.7318737752021
 31
0.0
  0
LINE
  5
972E
330
96DC
100
AcDbEntity
  8
SIZE
  6
Continuous
100
AcDbLine
 10
880.78702902736
 20
659.3122998179879
 30
0.0
 11
877.6820828483334
 21
392.7318737752022
 31
0.0
  0
LINE
  5
972F
330
96DC
100
AcDbEntity
  8
SIZE
  6
Continuous
100
AcDbLine
 10
1081.78702902736
 20
659.3122998179879
 30
0.0
 11
1078.682082848333
 21
392.7318737752022
 31
0.0
  0
LINE
  5
9730
330
96DC
100
AcDbEntity
  8
SIZE
  6
Continuous
100
AcDbLine
 10
887.6820828483332
 20
412.7318737752021
 30
0.0
 11
1070.682082848333
 21
412.7318737752021
 31
0.0
  0
LINE
  5
9731
330
96DC
100
AcDbEntity
  8
SIZE
  6
Continuous
100
AcDbLine
 10
1064.78702902736
 20
1309.312299817988
 30
0.0
 11
1064.78702902736
 21
1555.045669301259
 31
0.0
  0
CIRCLE
  5
9732
330
96DC
100
AcDbEntity
  8
SIZE
  6
ByBlock
100
AcDbCircle
 10
634.9208093964628
 20
689.312299817988
 30
0.0
 40
5.0
  0
LINE
  5
9733
330
96DC
100
AcDbEntity
  8
SIZE
  6
ByBlock
100
AcDbLine
 10
634.9208093964628
 20
689.312299817988
 30
0.0
 11
634.9208093964628
 21
679.312299817988
 31
0.0
  0
TEXT
  5
9734
330
96DC
100
AcDbEntity
  8
SIZE
  6
Continuous
100
AcDbText
 10
500.2227927701391
 20
681.2265855322736
 30
0.0
 40
50.0
  1
110
 50
90.0
 41
0.9
100
AcDbText
  0
CIRCLE
  5
9735
330
96DC
100
AcDbEntity
  8
SIZE
  6
ByBlock
100
AcDbCircle
 10
520.222792770139
 20
689.312299817988
 30
0.0
 40
5.0
  0
LINE
  5
9736
330
96DC
100
AcDbEntity
  8
SIZE
  6
ByBlock
100
AcDbLine
 10
520.222792770139
 20
689.312299817988
 30
0.0
 11
520.222792770139
 21
679.312299817988
 31
0.0
  0
TEXT
  5
9737
330
96DC
100
AcDbEntity
  8
SIZE
  6
Continuous
100
AcDbText
 10
721.8261500623793
 20
436.0551795384573
 30
0.0
 40
50.0
  1
77
 41
0.9
100
AcDbText
  0
CIRCLE
  5
9738
330
96DC
100
AcDbEntity
  8
SIZE
  6
ByBlock
100
AcDbCircle
 10
800.6820828483334
 20
159.2236261194905
 30
0.0
 40
5.0
  0
LINE
  5
9739
330
96DC
100
AcDbEntity
  8
SIZE
  6
ByBlock
100
AcDbLine
 10
800.6820828483334
 20
159.2236261194905
 30
0.0
 11
810.6820828483334
 21
159.2236261194905
 31
0.0
  0
TEXT
  5
973A
330
96DC
100
AcDbEntity
  8
SIZE
  6
Continuous
100
AcDbText
 10
624.9208093964628
 20
591.9356893913072
 30
0.0
 40
50.0
  1
30
 50
90.0
 41
0.9
100
AcDbText
  0
CIRCLE
  5
973B
330
96DC
100
AcDbEntity
  8
SIZE
  6
ByBlock
100
AcDbCircle
 10
800.6820828483334
 20
412.7318737752021
 30
0.0
 40
5.0
  0
LINE
  5
973C
330
96DC
100
AcDbEntity
  8
SIZE
  6
ByBlock
100
AcDbLine
 10
800.6820828483334
 20
412.7318737752021
 30
0.0
 11
790.6820828483334
 21
412.7318737752021
 31
0.0
  0
TEXT
  5
973D
330
96DC
100
AcDbEntity
  8
SIZE
  6
Continuous
100
AcDbText
 10
867.4249399911905
 20
312.4594594359552
 30
0.0
 40
50.0
  1
70
 41
0.9
100
AcDbText
  0
TEXT
  5
973E
330
96DC
100
AcDbEntity
  8
SIZE
  6
Continuous
100
AcDbText
 10
852.4123172170076
 20
169.2236261194905
 30
0.0
 40
50.0
  1
260
 41
0.9
100
AcDbText
  0
CIRCLE
  5
973F
330
96DC
100
AcDbEntity
  8
SIZE
  6
ByBlock
100
AcDbCircle
 10
990.6820828483333
 20
302.4594594359552
 30
0.0
 40
5.0
  0
LINE
  5
9740
330
96DC
100
AcDbEntity
  8
SIZE
  6
ByBlock
100
AcDbLine
 10
990.6820828483333
 20
302.4594594359552
 30
0.0
 11
980.6820828483333
 21
302.4594594359552
 31
0.0
  0
CIRCLE
  5
9741
330
96DC
100
AcDbEntity
  8
SIZE
  6
ByBlock
100
AcDbCircle
 10
1060.682082848333
 20
159.2236261194905
 30
0.0
 40
5.0
  0
LINE
  5
9742
330
96DC
100
AcDbEntity
  8
SIZE
  6
ByBlock
100
AcDbLine
 10
1060.682082848333
 20
159.2236261194905
 30
0.0
 11
1050.682082848333
 21
159.2236261194905
 31
0.0
  0
CIRCLE
  5
9743
330
96DC
100
AcDbEntity
  8
SIZE
  6
ByBlock
100
AcDbCircle
 10
1060.682082848333
 20
302.4594594359552
 30
0.0
 40
5.0
  0
LINE
  5
9744
330
96DC
100
AcDbEntity
  8
SIZE
  6
ByBlock
100
AcDbLine
 10
1060.682082848333
 20
302.4594594359552
 30
0.0
 11
1070.682082848333
 21
302.4594594359552
 31
0.0
  0
TEXT
  5
9745
330
96DC
100
AcDbEntity
  8
SIZE
  6
Continuous
100
AcDbText
 10
883.8529175757267
 20
433.3129945213596
 30
0.0
 40
50.0
  1
201
 41
0.9
100
AcDbText
  0
CIRCLE
  5
9746
330
96DC
100
AcDbEntity
  8
SIZE
  6
ByBlock
100
AcDbCircle
 10
877.6820828483334
 20
412.7318737752021
 30
0.0
 40
5.0
  0
LINE
  5
9747
330
96DC
100
AcDbEntity
  8
SIZE
  6
ByBlock
100
AcDbLine
 10
877.6820828483334
 20
412.7318737752021
 30
0.0
 11
887.6820828483332
 21
412.7318737752021
 31
0.0
  0
CIRCLE
  5
9748
330
96DC
100
AcDbEntity
  8
SIZE
  6
ByBlock
100
AcDbCircle
 10
877.6820828483334
 20
412.7318737752021
 30
0.0
 40
5.0
  0
LINE
  5
9749
330
96DC
100
AcDbEntity
  8
SIZE
  6
ByBlock
100
AcDbLine
 10
877.6820828483334
 20
412.7318737752021
 30
0.0
 11
887.6820828483332
 21
412.7318737752021
 31
0.0
  0
CIRCLE
  5
974A
330
96DC
100
AcDbEntity
  8
SIZE
  6
ByBlock
100
AcDbCircle
 10
1078.682082848333
 20
412.7318737752021
 30
0.0
 40
5.0
  0
LINE
  5
974B
330
96DC
100
AcDbEntity
  8
SIZE
  6
ByBlock
100
AcDbLine
 10
1078.682082848333
 20
412.7318737752021
 30
0.0
 11
1068.682082848333
 21
412.7318737752021
 31
0.0
  0
CIRCLE
  5
974C
330
96DC
100
AcDbEntity
  8
SIZE
  6
ByBlock
100
AcDbCircle
 10
520.222792770139
 20
799.3122998179878
 30
0.0
 40
5.0
  0
LINE
  5
974D
330
96DC
100
AcDbEntity
  8
SIZE
  6
ByBlock
100
AcDbLine
 10
520.222792770139
 20
799.3122998179878
 30
0.0
 11
520.222792770139
 21
809.3122998179879
 31
0.0
  0
CIRCLE
  5
974E
330
96DC
100
AcDbEntity
  8
SIZE
  6
ByBlock
100
AcDbCircle
 10
634.9208093964628
 20
719.3122998179878
 30
0.0
 40
5.0
  0
LINE
  5
974F
330
96DC
100
AcDbEntity
  8
SIZE
  6
ByBlock
100
AcDbLine
 10
634.9208093964628
 20
719.3122998179878
 30
0.0
 11
634.9208093964628
 21
729.3122998179878
 31
0.0
  0
TEXT
  5
9750
330
96DC
100
AcDbEntity
  8
SIZE
  6
Continuous
100
AcDbText
 10
1294.83061288036
 20
590.6751944293064
 30
0.0
 40
50.0
  1
25
 50
90.0
 41
0.9
100
AcDbText
  0
TEXT
  5
9751
330
96DC
100
AcDbEntity
  8
SIZE
  6
Continuous
100
AcDbText
 10
1294.83061288036
 20
859.3122998179879
 30
0.0
 40
50.0
  1
25
 50
90.0
 41
0.9
100
AcDbText
  0
LINE
  5
9752
330
96DC
100
AcDbEntity
  8
OUTLINE
  6
Continuous
100
AcDbLine
 10
803.7870290273602
 20
689.3122998179879
 30
0.0
 11
1113.78702902736
 21
689.3122998179879
 31
0.0
  0
LINE
  5
9753
330
96DC
100
AcDbEntity
  8
OUTLINE
  6
Continuous
100
AcDbLine
 10
1113.78702902736
 20
719.3122998179878
 30
0.0
 11
1163.78702902736
 21
719.3122998179878
 31
0.0
  0
LINE
  5
9754
330
96DC
100
AcDbEntity
  8
OUTLINE
  6
Continuous
100
AcDbLine
 10
803.7870290273602
 20
2589.312299817987
 30
0.0
 11
803.7870290273602
 21
689.3122998179879
 31
0.0
  0
LINE
  5
9755
330
96DC
100
AcDbEntity
  8
OUTLINE
  6
Continuous
100
AcDbLine
 10
1113.78702902736
 20
719.3122998179878
 30
0.0
 11
1113.78702902736
 21
689.3122998179879
 31
0.0
  0
LINE
  5
9756
330
96DC
100
AcDbEntity
  8
OUTLINE
  6
Continuous
100
AcDbLine
 10
1163.78702902736
 20
2589.312299817987
 30
0.0
 11
1163.78702902736
 21
719.3122998179878
 31
0.0
  0
LINE
  5
9757
330
96DC
100
AcDbEntity
  8
NOTE
  6
Continuous
100
AcDbLine
 10
1081.78702902736
 20
709.3122998179879
 30
0.0
 11
1081.78702902736
 21
669.3122998179878
 31
0.0
  0
LINE
  5
9758
330
96DC
100
AcDbEntity
  8
NOTE
  6
Continuous
100
AcDbLine
 10
1086.588700832817
 20
769.7759646367776
 30
0.0
 11
1300.136130015476
 21
416.1606736808924
 31
0.0
  0
LWPOLYLINE
  5
9759
330
96DC
100
AcDbEntity
  8
NOTE
  6
Continuous
100
AcDbPolyline
 90
        3
 70
     0
 43
0.0
 10
1098.439904865343
 20
731.5719208844621
 10
1086.588700832817
 20
769.7759646367776
 10
1115.954166389717
 20
742.6158939667263
  0
LINE
  5
975A
330
96DC
100
AcDbEntity
  8
NOTE
  6
Continuous
100
AcDbLine
 10
1028.676447315283
 20
804.3122998179878
 30
0.0
 11
1098.726253043405
 21
804.3122998179878
 31
0.0
  0
LINE
  5
975B
330
96DC
100
AcDbEntity
  8
NOTE
  6
Continuous
100
AcDbLine
 10
1063.78702902736
 20
858.4716259437591
 30
0.0
 11
1063.78702902736
 21
750.1529736922166
 31
0.0
  0
LINE
  5
975C
330
96DC
100
AcDbEntity
  8
DETAIL
  6
Continuous
100
AcDbLine
 10
1093.78702902736
 20
789.3122998179879
 30
0.0
 11
1093.78702902736
 21
819.3122998179878
 31
0.0
  0
LINE
  5
975D
330
96DC
100
AcDbEntity
  8
DETAIL
  6
Continuous
100
AcDbLine
 10
1033.78702902736
 20
789.3122998179879
 30
0.0
 11
1033.78702902736
 21
819.3122998179878
 31
0.0
  0
ARC
  5
975E
330
96DC
100
AcDbEntity
  8
DETAIL
  6
Continuous
100
AcDbCircle
 10
1063.78702902736
 20
819.3122998179878
 30
0.0
 40
30.0
100
AcDbArc
 50
0.0
 51
180.0
  0
ARC
  5
975F
330
96DC
100
AcDbEntity
  8
DETAIL
  6
Continuous
100
AcDbCircle
 10
1063.78702902736
 20
789.3122998179879
 30
0.0
 40
30.0
100
AcDbArc
 50
180.0
 51
0.0
  0
ENDBLK
  5
9761
330
96DC
100
AcDbEntity
  8
0
100
AcDbBlockEnd
  0
BLOCK
  5
97E6
330
9762
100
AcDbEntity
  8
0
100
AcDbBlockBegin
  2
A$C05AD6D1D
 70
     0
 10
0.0
 20
0.0
 30
0.0
  3
A$C05AD6D1D
  1

  0
LINE
  5
9763
330
9762
100
AcDbEntity
  8
NOTE
  6
Continuous
100
AcDbLine
 10
0.0000025260434313
 20
982.0809985084252
 30
0.0
 11
614.5181520932565
 21
982.0809985084252
 31
0.0
  0
TEXT
  5
9764
330
9762
100
AcDbEntity
  8
NOTE
  6
Continuous
100
AcDbText
 10
27.70719066564197
 20
998.8990735084254
 30
0.0
 40
50.0
  1
EL,D,RL,RG用K.O.穴
 41
0.9
100
AcDbText
  0
LINE
  5
9765
330
9762
100
AcDbEntity
  8
NOTE
  6
Continuous
100
AcDbLine
 10
803.7870290273604
 20
799.3122998179878
 30
0.0
 11
614.5181520932565
 21
982.0809985084252
 31
0.0
  0
LWPOLYLINE
  5
9766
330
9762
100
AcDbEntity
  8
NOTE
  6
Continuous
100
AcDbPolyline
 90
        3
 70
     0
 43
0.0
 10
784.2043327464794
 20
834.1909183392605
 10
803.7870290273604
 20
799.3122998179878
 10
769.3886076313048
 20
819.7267210745117
  0
LINE
  5
9767
330
9762
100
AcDbEntity
  8
NOTE
  6
Continuous
100
AcDbLine
 10
1064.78702902736
 20
1279.312299817988
 30
0.0
 11
726.3526562683987
 21
1495.77215337199
 31
0.0
  0
LINE
  5
9768
330
9762
100
AcDbEntity
  8
NOTE
  6
Continuous
100
AcDbLine
 10
880.78702902736
 20
689.3122998179883
 30
0.0
 11
628.1316255302015
 21
414.221842744868
 31
0.0
  0
LINE
  5
9769
330
9762
100
AcDbEntity
  8
NOTE
  6
Continuous
100
AcDbLine
 10
993.7870290273604
 20
829.3122998179878
 30
0.0
 11
704.0202965034067
 21
1124.779948506885
 31
0.0
  0
LINE
  5
976A
330
9762
100
AcDbEntity
  8
NOTE
  6
Continuous
100
AcDbLine
 10
703.67551165006
 20
1124.779948506885
 30
0.0
 11
993.7870290273604
 21
779.3122998179878
 31
0.0
  0
LINE
  5
976B
330
9762
100
AcDbEntity
  8
NOTE
  6
Continuous
100
AcDbLine
 10
1064.78702902736
 20
1169.312299817988
 30
0.0
 11
726.3526562683987
 21
1385.77215337199
 31
0.0
  0
POINT
  5
976C
330
9762
100
AcDbEntity
  8
ARRANGE
  6
Continuous
100
AcDbPoint
 10
803.7870290273604
 20
689.3122998179879
 30
0.0
  0
CIRCLE
  5
976D
330
9762
100
AcDbEntity
  8
ARRANGE
  6
Continuous
100
AcDbCircle
 10
803.7870290273604
 20
689.3122998179879
 30
0.0
 40
40.0
  0
LINE
  5
976E
330
9762
100
AcDbEntity
  8
NOTE
  6
Continuous
100
AcDbLine
 10
783.7870290273602
 20
799.3122998179878
 30
0.0
 11
823.7870290273601
 21
799.3122998179878
 31
0.0
  0
LINE
  5
976F
330
9762
100
AcDbEntity
  8
DETAIL
  6
Continuous
100
AcDbLine
 10
803.7870290273604
 20
2629.312299817988
 30
0.0
 11
803.7870290273604
 21
689.3122998179879
 31
0.0
  0
LINE
  5
9770
330
9762
100
AcDbEntity
  8
NOTE
  6
Continuous
100
AcDbLine
 10
880.78702902736
 20
709.3122998179879
 30
0.0
 11
880.78702902736
 21
669.3122998179878
 31
0.0
  0
CIRCLE
  5
9771
330
9762
100
AcDbEntity
  8
FIX
  6
Continuous
100
AcDbCircle
 10
880.78702902736
 20
689.3122998179879
 30
0.0
 40
40.0
  0
CIRCLE
  5
9772
330
9762
100
AcDbEntity
  8
FIX
  6
Continuous
100
AcDbCircle
 10
1081.78702902736
 20
689.3122998179879
 30
0.0
 40
40.0
  0
LINE
  5
9773
330
9762
100
AcDbEntity
  8
SIZE
  6
ByBlock
100
AcDbLine
 10
1138.78702902736
 20
689.3122998179879
 30
0.0
 11
1532.617194979118
 21
689.3122998179879
 31
0.0
  0
LINE
  5
9774
330
9762
100
AcDbEntity
  8
DETAIL
  6
Continuous
100
AcDbLine
 10
803.7870290273604
 20
689.3122998179879
 30
0.0
 11
1113.78702902736
 21
689.3122998179879
 31
0.0
  0
LINE
  5
9775
330
9762
100
AcDbEntity
  8
NOTE
  6
Continuous
100
AcDbLine
 10
1061.78702902736
 20
689.3122998179879
 30
0.0
 11
1101.78702902736
 21
689.3122998179879
 31
0.0
  0
LINE
  5
9776
330
9762
100
AcDbEntity
  8
NOTE
  6
Continuous
100
AcDbLine
 10
860.7870290273604
 20
689.3122998179879
 30
0.0
 11
900.7870290273604
 21
689.3122998179879
 31
0.0
  0
LWPOLYLINE
  5
9777
330
9762
100
AcDbEntity
  8
NOTE
  6
Continuous
100
AcDbPolyline
 90
        3
 70
     0
 43
0.0
 10
862.6819833189818
 20
653.6442850326525
 10
880.7870290273578
 20
689.3122998179897
 10
847.2735920739552
 20
667.4754149783227
  0
LINE
  5
9778
330
9762
100
AcDbEntity
  8
NOTE
  6
Continuous
100
AcDbLine
 10
1064.78702902736
 20
1189.312299817988
 30
0.0
 11
1064.78702902736
 21
1149.312299817988
 31
0.0
  0
LINE
  5
9779
330
9762
100
AcDbEntity
  8
DETAIL
  6
Continuous
100
AcDbLine
 10
803.7870290273604
 20
719.3122998179878
 30
0.0
 11
1163.78702902736
 21
719.3122998179878
 31
0.0
  0
LWPOLYLINE
  5
977A
330
9762
100
AcDbEntity
  8
NOTE
  6
Continuous
100
AcDbPolyline
 90
        3
 70
     0
 43
0.0
 10
975.6875746200796
 20
814.9831531026139
 10
993.7870290273604
 20
779.3122998179878
 10
960.27701507006
 20
801.1544371405786
  0
LWPOLYLINE
  5
977B
330
9762
100
AcDbEntity
  8
NOTE
  6
Continuous
100
AcDbPolyline
 90
        3
 70
     0
 43
0.0
 10
976.6285856436264
 20
865.4452187612061
 10
993.7870290273604
 20
829.3122998179878
 10
960.8609220785215
 20
852.025104195903
  0
CIRCLE
  5
977C
330
9762
100
AcDbEntity
  8
DETAIL
  6
Continuous
100
AcDbCircle
 10
993.7870290273604
 20
779.3122998179878
 30
0.0
 40
13.5
  0
LINE
  5
977D
330
9762
100
AcDbEntity
  8
NOTE
  6
Continuous
100
AcDbLine
 10
973.7870290273603
 20
779.3122998179878
 30
0.0
 11
1013.78702902736
 21
779.3122998179878
 31
0.0
  0
LINE
  5
977E
330
9762
100
AcDbEntity
  8
NOTE
  6
Continuous
100
AcDbLine
 10
993.7870290273604
 20
799.3122998179878
 30
0.0
 11
993.7870290273604
 21
759.3122998179879
 31
0.0
  0
CIRCLE
  5
977F
330
9762
100
AcDbEntity
  8
DETAIL
  6
Continuous
100
AcDbCircle
 10
993.7870290273604
 20
829.3122998179878
 30
0.0
 40
13.5
  0
LINE
  5
9780
330
9762
100
AcDbEntity
  8
NOTE
  6
Continuous
100
AcDbLine
 10
973.7870290273603
 20
829.3122998179878
 30
0.0
 11
1013.78702902736
 21
829.3122998179878
 31
0.0
  0
LINE
  5
9781
330
9762
100
AcDbEntity
  8
NOTE
  6
Continuous
100
AcDbLine
 10
993.7870290273604
 20
849.3122998179879
 30
0.0
 11
993.7870290273604
 21
809.3122998179879
 31
0.0
  0
LINE
  5
9782
330
9762
100
AcDbEntity
  8
NOTE
  6
Continuous
100
AcDbLine
 10
803.7870290273604
 20
819.3122998179878
 30
0.0
 11
803.7870290273604
 21
779.3122998179878
 31
0.0
  0
LINE
  5
9783
330
9762
100
AcDbEntity
  8
NOTE
  6
Continuous
100
AcDbLine
 10
1064.78702902736
 20
1299.312299817988
 30
0.0
 11
1064.78702902736
 21
1259.312299817988
 31
0.0
  0
LINE
  5
9784
330
9762
100
AcDbEntity
  8
NOTE
  6
Continuous
100
AcDbLine
 10
1044.78702902736
 20
1169.312299817988
 30
0.0
 11
1084.78702902736
 21
1169.312299817988
 31
0.0
  0
LWPOLYLINE
  5
9785
330
9762
100
AcDbEntity
  8
NOTE
  6
Continuous
100
AcDbPolyline
 90
        3
 70
     0
 43
0.0
 10
1045.511394687319
 20
1204.361550043269
 10
1064.78702902736
 20
1169.312299817988
 10
1030.569215124384
 20
1190.028023652467
  0
LWPOLYLINE
  5
9786
330
9762
100
AcDbEntity
  8
NOTE
  6
Continuous
100
AcDbPolyline
 90
        3
 70
     0
 43
0.0
 10
1045.511394687319
 20
1314.36155004327
 10
1064.78702902736
 20
1279.312299817988
 10
1030.569215124384
 20
1300.028023652467
  0
LINE
  5
9787
330
9762
100
AcDbEntity
  8
NOTE
  6
Continuous
100
AcDbLine
 10
1044.78702902736
 20
1279.312299817988
 30
0.0
 11
1084.78702902736
 21
1279.312299817988
 31
0.0
  0
LINE
  5
9788
330
9762
100
AcDbEntity
  8
NOTE
  6
Continuous
100
AcDbLine
 10
628.1316255302015
 20
414.221842744868
 30
0.0
 11
280.0304663988653
 21
414.221842744868
 31
0.0
  0
TEXT
  5
9789
330
9762
100
AcDbEntity
  8
NOTE
  6
Continuous
100
AcDbText
 10
295.6920575025034
 20
423.7224277448683
 30
0.0
 40
50.0
  1
AH 4-%%C10
 41
0.9
100
AcDbText
  0
TEXT
  5
978A
330
9762
100
AcDbEntity
  8
NOTE
  6
Continuous
100
AcDbText
 10
286.3841577802396
 20
1395.27273837199
 30
0.0
 40
50.0
  1
RG %%C15.88
 41
0.9
100
AcDbText
  0
LINE
  5
978B
330
9762
100
AcDbEntity
  8
NOTE
  6
Continuous
100
AcDbLine
 10
379.4608853091053
 20
1124.779948506885
 30
0.0
 11
704.0202965034067
 21
1124.779948506885
 31
0.0
  0
TEXT
  5
978C
330
9762
100
AcDbEntity
  8
NOTE
  6
Continuous
100
AcDbText
 10
390.1892473656955
 20
1136.157590875089
 30
0.0
 40
50.0
  1
EL用K.O.穴
 41
0.9
100
AcDbText
  0
LINE
  5
978D
330
9762
100
AcDbEntity
  8
NOTE
  6
Continuous
100
AcDbLine
 10
726.3526562683987
 20
1385.77215337199
 30
0.0
 11
261.9780936487611
 21
1385.77215337199
 31
0.0
  0
LINE
  5
978E
330
9762
100
AcDbEntity
  8
DETAIL
  6
Continuous
100
AcDbLine
 10
1113.78702902736
 20
719.3122998179878
 30
0.0
 11
1113.78702902736
 21
689.3122998179879
 31
0.0
  0
LINE
  5
978F
330
9762
100
AcDbEntity
  8
DETAIL
  6
Continuous
100
AcDbLine
 10
1163.78702902736
 20
2589.312299817988
 30
0.0
 11
1163.78702902736
 21
719.3122998179878
 31
0.0
  0
LINE
  5
9790
330
9762
100
AcDbEntity
  8
SIZE
  6
Continuous
100
AcDbLine
 10
1103.78702902736
 20
804.3122998179878
 30
0.0
 11
1334.83061288036
 21
804.3122998179878
 31
0.0
  0
LINE
  5
9791
330
9762
100
AcDbEntity
  8
SIZE
  6
Continuous
100
AcDbLine
 10
1033.78702902736
 20
829.3122998179878
 30
0.0
 11
1334.83061288036
 21
829.3122998179876
 31
0.0
  0
LINE
  5
9792
330
9762
100
AcDbEntity
  8
SIZE
  6
Continuous
100
AcDbLine
 10
1138.78702902736
 20
689.3122998179879
 30
0.0
 11
1450.425947337665
 21
689.3122998179879
 31
0.0
  0
LINE
  5
9793
330
9762
100
AcDbEntity
  8
SIZE
  6
Continuous
100
AcDbLine
 10
1103.78702902736
 20
804.3122998179878
 30
0.0
 11
1450.425947337665
 21
804.3122998179875
 31
0.0
  0
LINE
  5
9794
330
9762
100
AcDbEntity
  8
SIZE
  6
Continuous
100
AcDbLine
 10
1103.78702902736
 20
804.3122998179878
 30
0.0
 11
1334.83061288036
 21
804.3122998179878
 31
0.0
  0
LINE
  5
9795
330
9762
100
AcDbEntity
  8
SIZE
  6
Continuous
100
AcDbLine
 10
1033.78702902736
 20
779.3122998179878
 30
0.0
 11
1334.83061288036
 21
779.3122998179878
 31
0.0
  0
LINE
  5
9796
330
9762
100
AcDbEntity
  8
SIZE
  6
Continuous
100
AcDbLine
 10
1138.78702902736
 20
689.3122998179879
 30
0.0
 11
1804.262654890976
 21
689.3122998179876
 31
0.0
  0
LINE
  5
9797
330
9762
100
AcDbEntity
  8
SIZE
  6
Continuous
100
AcDbLine
 10
1138.78702902736
 20
689.3122998179879
 30
0.0
 11
1569.790247406102
 21
689.3122998179879
 31
0.0
  0
LINE
  5
9798
330
9762
100
AcDbEntity
  8
SIZE
  6
Continuous
100
AcDbLine
 10
1104.78702902736
 20
1169.312299817988
 30
0.0
 11
1569.790247406102
 21
1169.312299817987
 31
0.0
  0
LINE
  5
9799
330
9762
100
AcDbEntity
  8
SIZE
  6
Continuous
100
AcDbLine
 10
1138.78702902736
 20
689.3122998179879
 30
0.0
 11
1700.863144246891
 21
689.3122998179879
 31
0.0
  0
LINE
  5
979A
330
9762
100
AcDbEntity
  8
SIZE
  6
Continuous
100
AcDbLine
 10
1104.78702902736
 20
1279.312299817988
 30
0.0
 11
1700.863144246891
 21
1279.312299817987
 31
0.0
  0
LINE
  5
979B
330
9762
100
AcDbEntity
  8
SIZE
  6
Continuous
100
AcDbLine
 10
793.7870290273604
 20
689.3122998179879
 30
0.0
 11
500.2227927701391
 21
689.312299817988
 31
0.0
  0
LINE
  5
979C
330
9762
100
AcDbEntity
  8
SIZE
  6
Continuous
100
AcDbLine
 10
773.7870290273604
 20
799.3122998179878
 30
0.0
 11
500.2227927701391
 21
799.3122998179878
 31
0.0
  0
LINE
  5
979D
330
9762
100
AcDbEntity
  8
SIZE
  6
Continuous
100
AcDbLine
 10
520.222792770139
 20
679.312299817988
 30
0.0
 11
520.222792770139
 21
669.3122998179878
 31
0.0
  0
LINE
  5
979E
330
9762
100
AcDbEntity
  8
SIZE
  6
Continuous
100
AcDbLine
 10
520.222792770139
 20
809.3122998179879
 30
0.0
 11
520.222792770139
 21
819.312299817988
 31
0.0
  0
LINE
  5
979F
330
9762
100
AcDbEntity
  8
SIZE
  6
Continuous
100
AcDbLine
 10
520.222792770139
 20
689.312299817988
 30
0.0
 11
520.222792770139
 21
799.3122998179878
 31
0.0
  0
LINE
  5
97A0
330
9762
100
AcDbEntity
  8
SIZE
  6
Continuous
100
AcDbLine
 10
1063.78702902736
 20
764.3122998179879
 30
0.0
 11
1060.682082848333
 21
272.4594594359555
 31
0.0
  0
LINE
  5
97A1
330
9762
100
AcDbEntity
  8
SIZE
  6
Continuous
100
AcDbLine
 10
993.7870290273604
 20
739.3122998179879
 30
0.0
 11
990.6820828483333
 21
272.4594594359555
 31
0.0
  0
LINE
  5
97A2
330
9762
100
AcDbEntity
  8
SIZE
  6
Continuous
100
AcDbLine
 10
1070.682082848333
 20
302.4594594359552
 30
0.0
 11
1080.682082848333
 21
302.4594594359552
 31
0.0
  0
LINE
  5
97A3
330
9762
100
AcDbEntity
  8
SIZE
  6
Continuous
100
AcDbLine
 10
980.6820828483333
 20
302.4594594359552
 30
0.0
 11
857.4249399911902
 21
302.4594594359552
 31
0.0
  0
LINE
  5
97A4
330
9762
100
AcDbEntity
  8
SIZE
  6
Continuous
100
AcDbLine
 10
1060.682082848333
 20
302.4594594359552
 30
0.0
 11
990.6820828483333
 21
302.4594594359552
 31
0.0
  0
LINE
  5
97A5
330
9762
100
AcDbEntity
  8
SIZE
  6
Continuous
100
AcDbLine
 10
803.7870290273604
 20
669.3122998179878
 30
0.0
 11
800.6820828483334
 21
129.2236261194905
 31
0.0
  0
LINE
  5
97A6
330
9762
100
AcDbEntity
  8
SIZE
  6
Continuous
100
AcDbLine
 10
1063.78702902736
 20
764.3122998179879
 30
0.0
 11
1060.682082848333
 21
129.2236261194905
 31
0.0
  0
LINE
  5
97A7
330
9762
100
AcDbEntity
  8
SIZE
  6
Continuous
100
AcDbLine
 10
810.6820828483334
 20
159.2236261194905
 30
0.0
 11
1050.682082848333
 21
159.2236261194905
 31
0.0
  0
LINE
  5
97A8
330
9762
100
AcDbEntity
  8
SIZE
  6
Continuous
100
AcDbLine
 10
783.7870290273602
 20
719.3122998179878
 30
0.0
 11
604.9208093964623
 21
719.3122998179878
 31
0.0
  0
LINE
  5
97A9
330
9762
100
AcDbEntity
  8
SIZE
  6
Continuous
100
AcDbLine
 10
783.7870290273602
 20
689.3122998179879
 30
0.0
 11
604.9208093964623
 21
689.312299817988
 31
0.0
  0
LINE
  5
97AA
330
9762
100
AcDbEntity
  8
SIZE
  6
Continuous
100
AcDbLine
 10
634.9208093964628
 20
729.3122998179878
 30
0.0
 11
634.9208093964628
 21
739.312299817988
 31
0.0
  0
LINE
  5
97AB
330
9762
100
AcDbEntity
  8
SIZE
  6
Continuous
100
AcDbLine
 10
634.9208093964628
 20
679.312299817988
 30
0.0
 11
634.9208093964628
 21
593.8618600979006
 31
0.0
  0
LINE
  5
97AC
330
9762
100
AcDbEntity
  8
SIZE
  6
Continuous
100
AcDbLine
 10
634.9208093964628
 20
719.3122998179878
 30
0.0
 11
634.9208093964628
 21
689.312299817988
 31
0.0
  0
LINE
  5
97AD
330
9762
100
AcDbEntity
  8
SIZE
  6
Continuous
100
AcDbLine
 10
803.7870290273604
 20
669.3122998179878
 30
0.0
 11
800.6820828483334
 21
0.000002835719215
 31
0.0
  0
LINE
  5
97AE
330
9762
100
AcDbEntity
  8
SIZE
  6
Continuous
100
AcDbLine
 10
1113.78702902736
 20
669.3122998179878
 30
0.0
 11
1110.682082848333
 21
0.000002835719215
 31
0.0
  0
LINE
  5
97AF
330
9762
100
AcDbEntity
  8
SIZE
  6
Continuous
100
AcDbLine
 10
803.7870290273604
 20
679.3122998179877
 30
0.0
 11
800.6820828483334
 21
392.7318737752022
 31
0.0
  0
LINE
  5
97B0
330
9762
100
AcDbEntity
  8
SIZE
  6
Continuous
100
AcDbLine
 10
880.78702902736
 20
659.3122998179879
 30
0.0
 11
877.6820828483334
 21
392.7318737752022
 31
0.0
  0
LINE
  5
97B1
330
9762
100
AcDbEntity
  8
SIZE
  6
Continuous
100
AcDbLine
 10
790.6820828483334
 20
412.7318737752021
 30
0.0
 11
716.203469257236
 21
412.7318737752021
 31
0.0
  0
LINE
  5
97B2
330
9762
100
AcDbEntity
  8
SIZE
  6
Continuous
100
AcDbLine
 10
887.6820828483332
 20
412.7318737752021
 30
0.0
 11
897.6820828483333
 21
412.7318737752021
 31
0.0
  0
LINE
  5
97B3
330
9762
100
AcDbEntity
  8
SIZE
  6
Continuous
100
AcDbLine
 10
800.6820828483334
 20
412.7318737752021
 30
0.0
 11
877.6820828483334
 21
412.7318737752021
 31
0.0
  0
LINE
  5
97B4
330
9762
100
AcDbEntity
  8
SIZE
  6
Continuous
100
AcDbLine
 10
880.78702902736
 20
659.3122998179879
 30
0.0
 11
877.6820828483334
 21
392.7318737752022
 31
0.0
  0
LINE
  5
97B5
330
9762
100
AcDbEntity
  8
SIZE
  6
Continuous
100
AcDbLine
 10
1081.78702902736
 20
659.3122998179879
 30
0.0
 11
1078.682082848333
 21
392.7318737752022
 31
0.0
  0
LINE
  5
97B6
330
9762
100
AcDbEntity
  8
SIZE
  6
Continuous
100
AcDbLine
 10
887.6820828483332
 20
412.7318737752021
 30
0.0
 11
1070.682082848333
 21
412.7318737752021
 31
0.0
  0
LINE
  5
97B7
330
9762
100
AcDbEntity
  8
SIZE
  6
Continuous
100
AcDbLine
 10
1064.78702902736
 20
1309.312299817988
 30
0.0
 11
1064.78702902736
 21
1555.045669301259
 31
0.0
  0
CIRCLE
  5
97B8
330
9762
100
AcDbEntity
  8
SIZE
  6
ByBlock
100
AcDbCircle
 10
634.9208093964628
 20
689.312299817988
 30
0.0
 40
5.0
  0
LINE
  5
97B9
330
9762
100
AcDbEntity
  8
SIZE
  6
ByBlock
100
AcDbLine
 10
634.9208093964628
 20
689.312299817988
 30
0.0
 11
634.9208093964628
 21
679.312299817988
 31
0.0
  0
TEXT
  5
97BA
330
9762
100
AcDbEntity
  8
SIZE
  6
Continuous
100
AcDbText
 10
500.2227927701391
 20
681.2265855322736
 30
0.0
 40
50.0
  1
110
 50
90.0
 41
0.9
100
AcDbText
  0
CIRCLE
  5
97BB
330
9762
100
AcDbEntity
  8
SIZE
  6
ByBlock
100
AcDbCircle
 10
520.222792770139
 20
689.312299817988
 30
0.0
 40
5.0
  0
LINE
  5
97BC
330
9762
100
AcDbEntity
  8
SIZE
  6
ByBlock
100
AcDbLine
 10
520.222792770139
 20
689.312299817988
 30
0.0
 11
520.222792770139
 21
679.312299817988
 31
0.0
  0
TEXT
  5
97BD
330
9762
100
AcDbEntity
  8
SIZE
  6
Continuous
100
AcDbText
 10
721.8261500623793
 20
436.0551795384573
 30
0.0
 40
50.0
  1
77
 41
0.9
100
AcDbText
  0
CIRCLE
  5
97BE
330
9762
100
AcDbEntity
  8
SIZE
  6
ByBlock
100
AcDbCircle
 10
800.6820828483334
 20
159.2236261194905
 30
0.0
 40
5.0
  0
LINE
  5
97BF
330
9762
100
AcDbEntity
  8
SIZE
  6
ByBlock
100
AcDbLine
 10
800.6820828483334
 20
159.2236261194905
 30
0.0
 11
810.6820828483334
 21
159.2236261194905
 31
0.0
  0
TEXT
  5
97C0
330
9762
100
AcDbEntity
  8
SIZE
  6
Continuous
100
AcDbText
 10
624.9208093964628
 20
591.9356893913072
 30
0.0
 40
50.0
  1
30
 50
90.0
 41
0.9
100
AcDbText
  0
CIRCLE
  5
97C1
330
9762
100
AcDbEntity
  8
SIZE
  6
ByBlock
100
AcDbCircle
 10
800.6820828483334
 20
412.7318737752021
 30
0.0
 40
5.0
  0
LINE
  5
97C2
330
9762
100
AcDbEntity
  8
SIZE
  6
ByBlock
100
AcDbLine
 10
800.6820828483334
 20
412.7318737752021
 30
0.0
 11
790.6820828483334
 21
412.7318737752021
 31
0.0
  0
TEXT
  5
97C3
330
9762
100
AcDbEntity
  8
SIZE
  6
Continuous
100
AcDbText
 10
867.4249399911905
 20
312.4594594359552
 30
0.0
 40
50.0
  1
70
 41
0.9
100
AcDbText
  0
TEXT
  5
97C4
330
9762
100
AcDbEntity
  8
SIZE
  6
Continuous
100
AcDbText
 10
852.4123172170076
 20
169.2236261194905
 30
0.0
 40
50.0
  1
260
 41
0.9
100
AcDbText
  0
CIRCLE
  5
97C5
330
9762
100
AcDbEntity
  8
SIZE
  6
ByBlock
100
AcDbCircle
 10
990.6820828483333
 20
302.4594594359552
 30
0.0
 40
5.0
  0
LINE
  5
97C6
330
9762
100
AcDbEntity
  8
SIZE
  6
ByBlock
100
AcDbLine
 10
990.6820828483333
 20
302.4594594359552
 30
0.0
 11
980.6820828483333
 21
302.4594594359552
 31
0.0
  0
CIRCLE
  5
97C7
330
9762
100
AcDbEntity
  8
SIZE
  6
ByBlock
100
AcDbCircle
 10
1060.682082848333
 20
159.2236261194905
 30
0.0
 40
5.0
  0
LINE
  5
97C8
330
9762
100
AcDbEntity
  8
SIZE
  6
ByBlock
100
AcDbLine
 10
1060.682082848333
 20
159.2236261194905
 30
0.0
 11
1050.682082848333
 21
159.2236261194905
 31
0.0
  0
CIRCLE
  5
97C9
330
9762
100
AcDbEntity
  8
SIZE
  6
ByBlock
100
AcDbCircle
 10
1060.682082848333
 20
302.4594594359552
 30
0.0
 40
5.0
  0
LINE
  5
97CA
330
9762
100
AcDbEntity
  8
SIZE
  6
ByBlock
100
AcDbLine
 10
1060.682082848333
 20
302.4594594359552
 30
0.0
 11
1070.682082848333
 21
302.4594594359552
 31
0.0
  0
TEXT
  5
97CB
330
9762
100
AcDbEntity
  8
SIZE
  6
Continuous
100
AcDbText
 10
883.8529175757267
 20
433.3129945213596
 30
0.0
 40
50.0
  1
201
 41
0.9
100
AcDbText
  0
CIRCLE
  5
97CC
330
9762
100
AcDbEntity
  8
SIZE
  6
ByBlock
100
AcDbCircle
 10
877.6820828483334
 20
412.7318737752021
 30
0.0
 40
5.0
  0
LINE
  5
97CD
330
9762
100
AcDbEntity
  8
SIZE
  6
ByBlock
100
AcDbLine
 10
877.6820828483334
 20
412.7318737752021
 30
0.0
 11
887.6820828483332
 21
412.7318737752021
 31
0.0
  0
CIRCLE
  5
97CE
330
9762
100
AcDbEntity
  8
SIZE
  6
ByBlock
100
AcDbCircle
 10
877.6820828483334
 20
412.7318737752021
 30
0.0
 40
5.0
  0
LINE
  5
97CF
330
9762
100
AcDbEntity
  8
SIZE
  6
ByBlock
100
AcDbLine
 10
877.6820828483334
 20
412.7318737752021
 30
0.0
 11
887.6820828483332
 21
412.7318737752021
 31
0.0
  0
CIRCLE
  5
97D0
330
9762
100
AcDbEntity
  8
SIZE
  6
ByBlock
100
AcDbCircle
 10
1078.682082848333
 20
412.7318737752021
 30
0.0
 40
5.0
  0
LINE
  5
97D1
330
9762
100
AcDbEntity
  8
SIZE
  6
ByBlock
100
AcDbLine
 10
1078.682082848333
 20
412.7318737752021
 30
0.0
 11
1068.682082848333
 21
412.7318737752021
 31
0.0
  0
CIRCLE
  5
97D2
330
9762
100
AcDbEntity
  8
SIZE
  6
ByBlock
100
AcDbCircle
 10
520.222792770139
 20
799.3122998179878
 30
0.0
 40
5.0
  0
LINE
  5
97D3
330
9762
100
AcDbEntity
  8
SIZE
  6
ByBlock
100
AcDbLine
 10
520.222792770139
 20
799.3122998179878
 30
0.0
 11
520.222792770139
 21
809.3122998179879
 31
0.0
  0
CIRCLE
  5
97D4
330
9762
100
AcDbEntity
  8
SIZE
  6
ByBlock
100
AcDbCircle
 10
634.9208093964628
 20
719.3122998179878
 30
0.0
 40
5.0
  0
LINE
  5
97D5
330
9762
100
AcDbEntity
  8
SIZE
  6
ByBlock
100
AcDbLine
 10
634.9208093964628
 20
719.3122998179878
 30
0.0
 11
634.9208093964628
 21
729.3122998179878
 31
0.0
  0
TEXT
  5
97D6
330
9762
100
AcDbEntity
  8
SIZE
  6
Continuous
100
AcDbText
 10
1294.83061288036
 20
590.6751944293064
 30
0.0
 40
50.0
  1
25
 50
90.0
 41
0.9
100
AcDbText
  0
TEXT
  5
97D7
330
9762
100
AcDbEntity
  8
SIZE
  6
Continuous
100
AcDbText
 10
1294.83061288036
 20
859.3122998179879
 30
0.0
 40
50.0
  1
25
 50
90.0
 41
0.9
100
AcDbText
  0
LINE
  5
97D8
330
9762
100
AcDbEntity
  8
OUTLINE
  6
Continuous
100
AcDbLine
 10
803.7870290273602
 20
689.3122998179879
 30
0.0
 11
1113.78702902736
 21
689.3122998179879
 31
0.0
  0
LINE
  5
97D9
330
9762
100
AcDbEntity
  8
OUTLINE
  6
Continuous
100
AcDbLine
 10
1113.78702902736
 20
719.3122998179878
 30
0.0
 11
1163.78702902736
 21
719.3122998179878
 31
0.0
  0
LINE
  5
97DA
330
9762
100
AcDbEntity
  8
OUTLINE
  6
Continuous
100
AcDbLine
 10
803.7870290273602
 20
2589.312299817987
 30
0.0
 11
803.7870290273602
 21
689.3122998179879
 31
0.0
  0
LINE
  5
97DB
330
9762
100
AcDbEntity
  8
OUTLINE
  6
Continuous
100
AcDbLine
 10
1113.78702902736
 20
719.3122998179878
 30
0.0
 11
1113.78702902736
 21
689.3122998179879
 31
0.0
  0
LINE
  5
97DC
330
9762
100
AcDbEntity
  8
OUTLINE
  6
Continuous
100
AcDbLine
 10
1163.78702902736
 20
2589.312299817987
 30
0.0
 11
1163.78702902736
 21
719.3122998179878
 31
0.0
  0
LINE
  5
97DD
330
9762
100
AcDbEntity
  8
NOTE
  6
Continuous
100
AcDbLine
 10
1081.78702902736
 20
709.3122998179879
 30
0.0
 11
1081.78702902736
 21
669.3122998179878
 31
0.0
  0
LINE
  5
97DE
330
9762
100
AcDbEntity
  8
NOTE
  6
Continuous
100
AcDbLine
 10
1086.588700832817
 20
769.7759646367776
 30
0.0
 11
1300.136130015476
 21
416.1606736808924
 31
0.0
  0
LWPOLYLINE
  5
97DF
330
9762
100
AcDbEntity
  8
NOTE
  6
Continuous
100
AcDbPolyline
 90
        3
 70
     0
 43
0.0
 10
1098.439904865343
 20
731.5719208844621
 10
1086.588700832817
 20
769.7759646367776
 10
1115.954166389717
 20
742.6158939667263
  0
LINE
  5
97E0
330
9762
100
AcDbEntity
  8
NOTE
  6
Continuous
100
AcDbLine
 10
1028.676447315283
 20
804.3122998179878
 30
0.0
 11
1098.726253043405
 21
804.3122998179878
 31
0.0
  0
LINE
  5
97E1
330
9762
100
AcDbEntity
  8
NOTE
  6
Continuous
100
AcDbLine
 10
1063.78702902736
 20
858.4716259437591
 30
0.0
 11
1063.78702902736
 21
750.1529736922166
 31
0.0
  0
LINE
  5
97E2
330
9762
100
AcDbEntity
  8
DETAIL
  6
Continuous
100
AcDbLine
 10
1093.78702902736
 20
789.3122998179879
 30
0.0
 11
1093.78702902736
 21
819.3122998179878
 31
0.0
  0
LINE
  5
97E3
330
9762
100
AcDbEntity
  8
DETAIL
  6
Continuous
100
AcDbLine
 10
1033.78702902736
 20
789.3122998179879
 30
0.0
 11
1033.78702902736
 21
819.3122998179878
 31
0.0
  0
ARC
  5
97E4
330
9762
100
AcDbEntity
  8
DETAIL
  6
Continuous
100
AcDbCircle
 10
1063.78702902736
 20
819.3122998179878
 30
0.0
 40
30.0
100
AcDbArc
 50
0.0
 51
180.0
  0
ARC
  5
97E5
330
9762
100
AcDbEntity
  8
DETAIL
  6
Continuous
100
AcDbCircle
 10
1063.78702902736
 20
789.3122998179879
 30
0.0
 40
30.0
100
AcDbArc
 50
180.0
 51
0.0
  0
ENDBLK
  5
97E7
330
9762
100
AcDbEntity
  8
0
100
AcDbBlockEnd
  0
BLOCK
  5
98BF
330
98BE
100
AcDbEntity
  8
0
100
AcDbBlockBegin
  2
*D4
 70
     1
 10
0.0
 20
0.0
 30
0.0
  3
*D4
  1

  0
LINE
  5
98D7
330
98BE
100
AcDbEntity
  8
SIZE
  6
Continuous
 62
     0
440
 16777216
370
    -2
100
AcDbLine
 10
-255.0000000000001
 20
-0.0000000000000032
 30
0.0
 11
-442.8479689627024
 21
-0.0000000000000334
 31
0.0
  0
LINE
  5
98D8
330
98BE
100
AcDbEntity
  8
SIZE
  6
Continuous
 62
     0
440
 16777216
370
    -2
100
AcDbLine
 10
-290.0000000000001
 20
30.00000000000001
 30
0.0
 11
-442.8479689627024
 21
29.99999999999999
 31
0.0
  0
LINE
  5
98D9
330
98BE
100
AcDbEntity
  8
SIZE
  6
Continuous
 62
     0
440
 16777216
370
    -2
100
AcDbLine
 10
-422.8479689627024
 20
40.0
 30
0.0
 11
-422.8479689627024
 21
50.0
 31
0.0
  0
LINE
  5
98DA
330
98BE
100
AcDbEntity
  8
SIZE
  6
Continuous
 62
     0
440
 16777216
370
    -2
100
AcDbLine
 10
-422.8479689627024
 20
-10.00000000000003
 30
0.0
 11
-422.8479689627024
 21
-112.8571428571429
 31
0.0
  0
LINE
  5
98DB
330
98BE
100
AcDbEntity
  8
SIZE
  6
Continuous
 62
     0
440
 16777216
370
    -2
100
AcDbLine
 10
-422.8479689627024
 20
30.0
 30
0.0
 11
-422.8479689627024
 21
-0.0000000000000302
 31
0.0
  0
INSERT
  5
98DC
330
98BE
100
AcDbEntity
  8
SIZE
  6
Continuous
 62
     0
440
 16777216
370
    -2
100
AcDbBlockReference
  2
_ORIGIN
 10
-422.8479689627024
 20
30.0
 30
0.0
 41
10.0
 42
10.0
 43
10.0
 50
270.0
  0
INSERT
  5
98DD
330
98BE
100
AcDbEntity
  8
SIZE
  6
Continuous
 62
     0
440
 16777216
370
    -2
100
AcDbBlockReference
  2
_ORIGIN
 10
-422.8479689627024
 20
-0.0000000000000302
 30
0.0
 41
10.0
 42
10.0
 43
10.0
 50
90.0
  0
MTEXT
  5
98DE
330
98BE
100
AcDbEntity
  8
SIZE
  6
Continuous
 62
     0
440
 16777216
100
AcDbMText
 10
-457.8479689627023
 20
-66.42857142857133
 30
0.0
 40
50.0
 41
0.0
 71
     5
 72
     1
  1
\A1;30
 11
0.0000000000000001
 21
1.0
 31
0.0
 73
     1
 44
1.0
  0
POINT
  5
98DF
330
98BE
100
AcDbEntity
  8
DEFPOINTS
  6
Continuous
 62
     0
440
 16777216
100
AcDbPoint
 10
-235.0000000000001
 20
0.0
 30
0.0
  0
POINT
  5
98E0
330
98BE
100
AcDbEntity
  8
DEFPOINTS
  6
Continuous
 62
     0
440
 16777216
100
AcDbPoint
 10
-270.0000000000001
 20
30.00000000000002
 30
0.0
  0
POINT
  5
98E1
330
98BE
100
AcDbEntity
  8
DEFPOINTS
  6
Continuous
 62
     0
440
 16777216
100
AcDbPoint
 10
-422.8479689627024
 20
30.0
 30
0.0
  0
ENDBLK
  5
98C0
330
98BE
100
AcDbEntity
  8
0
100
AcDbBlockEnd
  0
ENDSEC
  0
SECTION
  2
ENTITIES
  0
CIRCLE
  5
91C0
330
8D35
100
AcDbEntity
  8
SIZE
  6
Continuous
100
AcDbCircle
 10
0.0
 20
2147.266999999998
 30
0.0
 40
6.0
  0
CIRCLE
  5
91C1
330
8D35
100
AcDbEntity
  8
FIX
  6
Continuous
100
AcDbCircle
 10
0.0
 20
1920.0
 30
0.0
 40
40.0
  0
LINE
  5
91C2
330
8D35
100
AcDbEntity
  8
NOTE
  6
Continuous
100
AcDbLine
 10
20.0
 20
1920.0
 30
0.0
 11
-20.0
 21
1920.0
 31
0.0
  0
CIRCLE
  5
91C3
330
8D35
100
AcDbEntity
  8
ARRANGE
  6
Continuous
100
AcDbCircle
 10
0.0
 20
0.0
 30
0.0
 40
40.0
  0
POINT
  5
91C4
330
8D35
100
AcDbEntity
  8
ARRANGE
  6
Continuous
100
AcDbPoint
 10
0.0
 20
0.0
 30
0.0
  0
LINE
  5
91C6
330
8D35
100
AcDbEntity
  8
NOTE
  6
Continuous
100
AcDbLine
 10
-100.8989434808302
 20
149.9709964514524
 30
0.0
 11
83.97920383229575
 21
352.5210352219438
 31
0.0
  0
CIRCLE
  5
91C7
330
8D35
100
AcDbEntity
  8
SIZE
  6
Continuous
100
AcDbCircle
 10
-549.4537676596861
 20
0.0000000000000071
 30
0.0
 40
6.0
  0
TEXT
  5
91C8
330
8D35
100
AcDbEntity
  8
SIZE
  6
ByBlock
100
AcDbText
 10
-581.4537676596862
 20
-5.585713999999816
 30
0.0
 40
50.0
  1
115
 50
90.0
 41
0.9
100
AcDbText
  0
LINE
  5
91C9
330
8D35
100
AcDbEntity
  8
SIZE
  6
ByBlock
100
AcDbLine
 10
-549.4537676596861
 20
115.0
 30
0.0
 11
-549.4537676596861
 21
0.0000000000000071
 31
0.0
  0
CIRCLE
  5
91CA
330
8D35
100
AcDbEntity
  8
FIX
  6
Continuous
100
AcDbCircle
 10
-198.0
 20
0.0
 30
0.0
 40
40.0
  0
CIRCLE
  5
91CB
330
8D35
100
AcDbEntity
  8
FIX
  6
Continuous
100
AcDbCircle
 10
-55.0
 20
0.0
 30
0.0
 40
40.0
  0
LINE
  5
91CC
330
8D35
100
AcDbEntity
  8
NOTE
  6
Continuous
100
AcDbLine
 10
-55.0
 20
20.0
 30
0.0
 11
-55.0
 21
-20.0
 31
0.0
  0
LINE
  5
91CD
330
8D35
100
AcDbEntity
  8
NOTE
  6
Continuous
100
AcDbLine
 10
-198.0
 20
20.0
 30
0.0
 11
-198.0
 21
-20.0
 31
0.0
  0
LINE
  5
91CE
330
8D35
100
AcDbEntity
  8
DETAIL
  6
Continuous
100
AcDbLine
 10
-235.0
 20
30.0
 30
0.0
 11
-235.0
 21
0.0
 31
0.0
  0
LINE
  5
91CF
330
8D35
100
AcDbEntity
  8
DETAIL
  6
Continuous
100
AcDbLine
 10
-235.0
 20
30.0
 30
0.0
 11
-235.0
 21
0.0
 31
0.0
  0
LINE
  5
91D0
330
8D35
100
AcDbEntity
  8
DETAIL
  6
Continuous
100
AcDbLine
 10
0.0
 20
1940.0
 30
0.0
 11
0.0
 21
0.0
 31
0.0
  0
LINE
  5
91D1
330
8D35
100
AcDbEntity
  8
SIZE
  6
ByBlock
100
AcDbLine
 10
-255.0
 20
0.0
 30
0.0
 11
-579.4537676596863
 21
0.0000000000000071
 31
0.0
  0
LINE
  5
91D2
330
8D35
100
AcDbEntity
  8
SIZE
  6
ByBlock
100
AcDbLine
 10
-549.4537676596861
 20
-1.999999999999992
 30
0.0
 11
-549.4537676596861
 21
-3.999999999999991
 31
0.0
  0
LINE
  5
91D3
330
8D35
100
AcDbEntity
  8
DETAIL
  6
Continuous
100
AcDbLine
 10
0.0
 20
0.0
 30
0.0
 11
-235.0
 21
0.0
 31
0.0
  0
LINE
  5
91D4
330
8D35
100
AcDbEntity
  8
NOTE
  6
Continuous
100
AcDbLine
 10
-178.0
 20
0.0
 30
0.0
 11
-218.0
 21
0.0
 31
0.0
  0
LINE
  5
91D5
330
8D35
100
AcDbEntity
  8
NOTE
  6
Continuous
100
AcDbLine
 10
-35.0
 20
0.0
 30
0.0
 11
-75.0
 21
0.0
 31
0.0
  0
LINE
  5
91D6
330
8D35
100
AcDbEntity
  8
DETAIL
  6
Continuous
100
AcDbLine
 10
-270.0
 20
1900.0
 30
0.0
 11
-270.0
 21
30.0
 31
0.0
  0
LWPOLYLINE
  5
91D7
330
8D35
100
AcDbEntity
  8
NOTE
  6
Continuous
100
AcDbPolyline
 90
        3
 70
     0
 43
0.0
 10
-225.8676974540503
 20
483.250645355014
 10
-186.0
 20
479.9999999999982
 10
-218.9011162521564
 20
502.7489897361211
  0
LINE
  5
91DC
330
8D35
100
AcDbEntity
  8
NOTE
  6
Continuous
100
AcDbLine
 10
-186.0
 20
500.0
 30
0.0
 11
-186.0
 21
460.0
 31
0.0
  0
LINE
  5
91DD
330
8D35
100
AcDbEntity
  8
NOTE
  6
Continuous
100
AcDbLine
 10
-186.0
 20
479.9999999999982
 30
0.0
 11
-366.7299114819833
 21
556.9071397853832
 31
0.0
  0
LINE
  5
91DE
330
8D35
100
AcDbEntity
  8
SIZE
  6
ByBlock
100
AcDbLine
 10
0.0
 20
115.0
 30
0.0
 11
379.4804895440631
 21
115.0
 31
0.0
  0
LINE
  5
91DF
330
8D35
100
AcDbEntity
  8
SIZE
  6
ByBlock
100
AcDbLine
 10
-70.0
 20
140.0
 30
0.0
 11
379.4804895440631
 21
140.0
 31
0.0
  0
LINE
  5
91E0
330
8D35
100
AcDbEntity
  8
SIZE
  6
ByBlock
100
AcDbLine
 10
-220.0
 20
115.0
 30
0.0
 11
-579.4537676596863
 21
115.0
 31
0.0
  0
CIRCLE
  5
91E1
330
8D35
100
AcDbEntity
  8
SIZE
  6
Continuous
100
AcDbCircle
 10
-549.4537676596861
 20
115.0
 30
0.0
 40
6.0
  0
CIRCLE
  5
91E2
330
8D35
100
AcDbEntity
  8
SIZE
  6
Continuous
100
AcDbCircle
 10
349.4804895440628
 20
115.0
 30
0.0
 40
6.0
  0
TEXT
  5
91E3
330
8D35
100
AcDbEntity
  8
SIZE
  6
ByBlock
100
AcDbText
 10
330.8184366058067
 20
157.5755340509767
 30
0.0
 40
50.0
  1
25
 50
90.0
 41
0.7
100
AcDbText
  0
LINE
  5
91E4
330
8D35
100
AcDbEntity
  8
SIZE
  6
ByBlock
100
AcDbLine
 10
349.4804895440628
 20
115.0
 30
0.0
 11
349.4804895440628
 21
232.0300629869598
 31
0.0
  0
LINE
  5
91E5
330
8D35
100
AcDbEntity
  8
SIZE
  6
ByBlock
100
AcDbLine
 10
349.4804895440628
 20
113.0
 30
0.0
 11
349.4804895440628
 21
111.0
 31
0.0
  0
LINE
  5
91E6
330
8D35
100
AcDbEntity
  8
SIZE
  6
ByBlock
100
AcDbLine
 10
-549.4537676596861
 20
117.0
 30
0.0
 11
-549.4537676596861
 21
119.0
 31
0.0
  0
CIRCLE
  5
91E7
330
8D35
100
AcDbEntity
  8
SIZE
  6
Continuous
100
AcDbCircle
 10
349.4804895440628
 20
140.0
 30
0.0
 40
6.0
  0
LINE
  5
91E8
330
8D35
100
AcDbEntity
  8
SIZE
  6
ByBlock
100
AcDbLine
 10
349.4804895440628
 20
142.0
 30
0.0
 11
349.4804895440628
 21
144.0
 31
0.0
  0
LINE
  5
91E9
330
8D35
100
AcDbEntity
  8
NOTE
  6
Continuous
100
AcDbLine
 10
-144.889418287923
 20
115.0
 30
0.0
 11
-214.939224016045
 21
115.0
 31
0.0
  0
LINE
  5
91EA
330
8D35
100
AcDbEntity
  8
DETAIL
  6
Continuous
100
AcDbLine
 10
0.0
 20
30.0
 30
0.0
 11
-270.0
 21
30.0
 31
0.0
  0
LINE
  5
91EB
330
8D35
100
AcDbEntity
  8
NOTE
  6
Continuous
100
AcDbLine
 10
-180.0
 20
169.1593261257712
 30
0.0
 11
-180.0
 21
60.84067387422874
 31
0.0
  0
LINE
  5
91EC
330
8D35
100
AcDbEntity
  8
DETAIL
  6
Continuous
100
AcDbLine
 10
-210.0
 20
100.0
 30
0.0
 11
-210.0
 21
130.0
 31
0.0
  0
LINE
  5
91ED
330
8D35
100
AcDbEntity
  8
DETAIL
  6
Continuous
100
AcDbLine
 10
-150.0
 20
100.0
 30
0.0
 11
-150.0
 21
130.0
 31
0.0
  0
LINE
  5
91EE
330
8D35
100
AcDbEntity
  8
SIZE
  6
ByBlock
100
AcDbLine
 10
-220.0
 20
115.0
 30
0.0
 11
-315.816528000003
 21
115.0
 31
0.0
  0
LINE
  5
91F6
330
8D35
100
AcDbEntity
  8
NOTE
  6
Continuous
100
AcDbLine
 10
-110.0
 20
110.0
 30
0.0
 11
-110.0
 21
70.0
 31
0.0
  0
LINE
  5
91F7
330
8D35
100
AcDbEntity
  8
NOTE
  6
Continuous
100
AcDbLine
 10
-90.0
 20
90.0
 30
0.0
 11
-130.0
 21
90.0
 31
0.0
  0
CIRCLE
  5
91F8
330
8D35
100
AcDbEntity
  8
DETAIL
  6
Continuous
100
AcDbCircle
 10
-110.0
 20
90.0
 30
0.0
 40
13.5
  0
LWPOLYLINE
  5
91F9
330
8D35
100
AcDbEntity
  8
NOTE
  6
Continuous
100
AcDbPolyline
 90
        3
 70
     0
 43
0.0
 10
-82.34468049141192
 20
185.4074090186052
 10
-100.8989434808302
 20
149.9709964514524
 10
-67.11227446838396
 20
171.3826988255988
  0
LINE
  5
91FE
330
8D35
100
AcDbEntity
  8
NOTE
  6
Continuous
100
AcDbLine
 10
-110.0
 20
160.0
 30
0.0
 11
-110.0
 21
120.0
 31
0.0
  0
LINE
  5
91FF
330
8D35
100
AcDbEntity
  8
NOTE
  6
Continuous
100
AcDbLine
 10
-90.0
 20
140.0
 30
0.0
 11
-130.0
 21
140.0
 31
0.0
  0
CIRCLE
  5
9200
330
8D35
100
AcDbEntity
  8
DETAIL
  6
Continuous
100
AcDbCircle
 10
-110.0
 20
140.0
 30
0.0
 40
13.5
  0
LINE
  5
9201
330
8D35
100
AcDbEntity
  8
NOTE
  6
Continuous
100
AcDbLine
 10
-186.0
 20
590.0
 30
0.0
 11
-372.1102410000019
 21
714.8597399999996
 31
0.0
  0
LINE
  5
9202
330
8D35
100
AcDbEntity
  8
NOTE
  6
Continuous
100
AcDbLine
 10
-186.0
 20
610.0
 30
0.0
 11
-186.0
 21
570.0
 31
0.0
  0
LINE
  5
9203
330
8D35
100
AcDbEntity
  8
NOTE
  6
Continuous
100
AcDbLine
 10
-166.0
 20
480.0
 30
0.0
 11
-206.0
 21
480.0
 31
0.0
  0
LWPOLYLINE
  5
9204
330
8D35
100
AcDbEntity
  8
NOTE
  6
Continuous
100
AcDbPolyline
 90
        3
 70
     0
 43
0.0
 10
-223.0989750000006
 20
604.9554679999999
 10
-186.0
 20
590.0
 10
-210.6509210000004
 20
621.501303
  0
LINE
  5
9209
330
8D35
100
AcDbEntity
  8
NOTE
  6
Continuous
100
AcDbLine
 10
-166.0
 20
590.0
 30
0.0
 11
-206.0
 21
590.0
 31
0.0
  0
LINE
  5
920A
330
8D35
100
AcDbEntity
  8
SIZE
  6
ByBlock
100
AcDbLine
 10
0.0
 20
1960.0
 30
0.0
 11
0.0
 21
2177.267
 31
0.0
  0
LINE
  5
920B
330
8D35
100
AcDbEntity
  8
SIZE
  6
ByBlock
100
AcDbLine
 10
-270.0
 20
1920.0
 30
0.0
 11
-270.0
 21
2177.267
 31
0.0
  0
LINE
  5
920C
330
8D35
100
AcDbEntity
  8
DETAIL
  6
Continuous
100
AcDbLine
 10
0.0
 20
1900.0
 30
0.0
 11
-270.0
 21
1900.0
 31
0.0
  0
LINE
  5
920D
330
8D35
100
AcDbEntity
  8
DETAIL
  6
Continuous
100
AcDbLine
 10
-111.0
 20
1901.0
 30
0.0
 11
-1.0
 21
1901.0
 31
0.0
  0
LINE
  5
920E
330
8D35
100
AcDbEntity
  8
DETAIL
  6
Continuous
100
AcDbLine
 10
-111.0
 20
1901.0
 30
0.0
 11
-111.0
 21
1900.0
 31
0.0
  0
LINE
  5
920F
330
8D35
100
AcDbEntity
  8
NOTE
  6
Continuous
100
AcDbLine
 10
0.0
 20
1940.0
 30
0.0
 11
0.0
 21
1900.0
 31
0.0
  0
LINE
  5
9210
330
8D35
100
AcDbEntity
  8
DETAIL
  6
Continuous
100
AcDbLine
 10
-1.0
 20
1940.0
 30
0.0
 11
-1.0
 21
1901.0
 31
0.0
  0
LINE
  5
9211
330
8D35
100
AcDbEntity
  8
DETAIL
  6
Continuous
100
AcDbLine
 10
0.0
 20
1940.0
 30
0.0
 11
-1.0
 21
1940.0
 31
0.0
  0
TEXT
  5
9212
330
8D35
100
AcDbEntity
  8
SIZE
  6
ByBlock
100
AcDbText
 10
-209.0571430000054
 20
2179.266999999998
 30
0.0
 40
50.0
  1
270
 41
0.9
100
AcDbText
  0
LINE
  5
9213
330
8D35
100
AcDbEntity
  8
SIZE
  6
ByBlock
100
AcDbLine
 10
-268.0
 20
2147.266999999998
 30
0.0
 11
-2.0
 21
2147.266999999998
 31
0.0
  0
CIRCLE
  5
9214
330
8D35
100
AcDbEntity
  8
SIZE
  6
Continuous
100
AcDbCircle
 10
-270.0
 20
2147.266999999998
 30
0.0
 40
6.0
  0
LINE
  5
9215
330
8D35
100
AcDbEntity
  8
NOTE
  6
Continuous
100
AcDbLine
 10
396.795518693285
 20
352.5210352219438
 30
0.0
 11
83.97920383229575
 21
352.5210352219438
 31
0.0
  0
LINE
  5
9217
330
8D35
100
AcDbEntity
  8
NOTE
  6
Continuous
100
AcDbLine
 10
-372.1102410000019
 20
714.8597399999996
 30
0.0
 11
-755.6791931661937
 21
714.8597399999996
 31
0.0
  0
TEXT
  5
9218
330
8D35
100
AcDbEntity
  8
NOTE
  6
Continuous
100
AcDbText
 10
-726.5941460482716
 20
733.9904050000003
 30
0.0
 40
50.0
  1
RL %%c9.52
 41
0.9
100
AcDbText
  0
TEXT
  5
9219
330
8D35
100
AcDbEntity
  8
NOTE
  6
Continuous
100
AcDbText
 10
-746.7413698056625
 20
573.9960466224029
 30
0.0
 40
50.0
  1
RG %%c15.88
 41
0.9
100
AcDbText
  0
LINE
  5
921A
330
8D35
100
AcDbEntity
  8
NOTE
  6
Continuous
100
AcDbLine
 10
-366.7299114819833
 20
556.9071397853832
 30
0.0
 11
-758.3747628974962
 21
556.9071397853832
 31
0.0
  0
LINE
  5
9227
330
8D35
100
AcDbEntity
  8
NOTE
  6
Continuous
100
AcDbLine
 10
-207.8879618252343
 20
141.0571960837399
 30
0.0
 11
-400.6826258289219
 21
321.195436207734
 31
0.0
  0
LWPOLYLINE
  5
9228
330
8D35
100
AcDbEntity
  8
NOTE
  6
Continuous
100
AcDbPolyline
 90
        3
 70
     0
 43
0.0
 10
-242.8412010682607
 20
160.5063872126823
 10
-207.8879618252343
 20
141.0571960837399
 10
-228.4337595482959
 20
175.3773096145733
  0
LINE
  5
922D
330
8D35
100
AcDbEntity
  8
NOTE
  6
Continuous
100
AcDbLine
 10
-834.6943864568817
 20
-310.7871894083573
 30
0.0
 11
-413.882573169014
 21
-310.7871894083573
 31
0.0
  0
TEXT
  5
922E
330
8D35
100
AcDbEntity
  8
NOTE
  6
Continuous
100
AcDbText
 10
-813.337193456878
 20
-294.8715974083582
 30
0.0
 40
50.0
  1
AH 4-%%C10
 41
0.9
100
AcDbText
  0
LINE
  5
922F
330
8D35
100
AcDbEntity
  8
NOTE
  6
Continuous
100
AcDbLine
 10
-198.0
 20
0.0
 30
0.0
 11
-413.882573169014
 21
-310.7871894083573
 31
0.0
  0
LWPOLYLINE
  5
9230
330
8D35
100
AcDbEntity
  8
NOTE
  6
Continuous
100
AcDbPolyline
 90
        3
 70
     0
 43
0.0
 10
-209.9697905109962
 20
-38.16705498996397
 10
-198.0
 20
0.0
 10
-227.4496710200911
 20
-27.06874368188972
  0
TEXT
  5
9235
330
8D35
100
AcDbEntity
  8
ETC
  6
Continuous
100
AcDbText
 10
815.1758110199269
 20
2166.884804753256
 30
0.0
 40
64.0
  1
PAC
 41
0.9
100
AcDbText
  0
TEXT
  5
9236
330
8D35
100
AcDbEntity
  8
ETC
  6
Continuous
100
AcDbText
 10
815.1758110199269
 20
2278.709308053038
 30
0.0
 40
64.0
  1
PSH0044
 41
0.9
100
AcDbText
  0
LINE
  5
92CD
330
8D35
100
AcDbEntity
  8
SIZE
  6
Continuous
100
AcDbLine
 10
-0.0000000000000012
 20
-20.0
 30
0.0
 11
-0.0000000000000755
 21
-446.4128910373873
 31
0.0
  0
LINE
  5
92CE
330
8D35
100
AcDbEntity
  8
SIZE
  6
Continuous
100
AcDbLine
 10
-55.0
 20
-40.0
 30
0.0
 11
-55.00000000000007
 21
-446.4128910373873
 31
0.0
  0
LINE
  5
92CF
330
8D35
100
AcDbEntity
  8
SIZE
  6
Continuous
100
AcDbLine
 10
-45.00000000000006
 20
-426.4128910373874
 30
0.0
 11
-10.00000000000005
 21
-426.4128910373874
 31
0.0
  0
LINE
  5
92D0
330
8D35
100
AcDbEntity
  8
SIZE
  6
Continuous
100
AcDbLine
 10
-0.0000000000000743
 20
-426.4128910373874
 30
0.0
 11
133.2571428571444
 21
-426.4128910373874
 31
0.0
  0
LINE
  5
92D4
330
8D35
100
AcDbEntity
  8
SIZE
  6
Continuous
100
AcDbLine
 10
20.0
 20
1900.0
 30
0.0
 11
728.2382770582566
 21
1899.999999999999
 31
0.0
  0
LINE
  5
92D5
330
8D35
100
AcDbEntity
  8
SIZE
  6
Continuous
100
AcDbLine
 10
19.5
 20
1940.0
 30
0.0
 11
728.2382770582566
 21
1939.999999999999
 31
0.0
  0
LINE
  5
92D6
330
8D35
100
AcDbEntity
  8
SIZE
  6
Continuous
100
AcDbLine
 10
708.2382770582567
 20
1909.999999999999
 30
0.0
 11
708.2382770582567
 21
1929.999999999999
 31
0.0
  0
LINE
  5
92D7
330
8D35
100
AcDbEntity
  8
SIZE
  6
Continuous
100
AcDbLine
 10
708.2382770582567
 20
1939.999999999999
 30
0.0
 11
708.2382770582567
 21
2063.257142857142
 31
0.0
  0
LINE
  5
92DB
330
8D35
100
AcDbEntity
  8
SIZE
  6
Continuous
100
AcDbLine
 10
20.0
 20
-0.0000000000000057
 30
0.0
 11
728.2382770582565
 21
-0.0000000000001806
 31
0.0
  0
LINE
  5
92DC
330
8D35
100
AcDbEntity
  8
SIZE
  6
Continuous
100
AcDbLine
 10
20.0
 20
1900.0
 30
0.0
 11
728.2382770582566
 21
1899.999999999999
 31
0.0
  0
LINE
  5
92DD
330
8D35
100
AcDbEntity
  8
SIZE
  6
Continuous
100
AcDbLine
 10
708.2382770582563
 20
9.999999999999824
 30
0.0
 11
708.2382770582567
 21
1889.999999999999
 31
0.0
  0
LINE
  5
92E1
330
8D35
100
AcDbEntity
  8
SIZE
  6
Continuous
100
AcDbLine
 10
20.0
 20
-0.0000000000000057
 30
0.0
 11
620.8010382452425
 21
-0.0000000000001502
 31
0.0
  0
LINE
  5
92E2
330
8D35
100
AcDbEntity
  8
SIZE
  6
Continuous
100
AcDbLine
 10
-146.0
 20
590.0
 30
0.0
 11
620.801038245243
 21
589.9999999999997
 31
0.0
  0
LINE
  5
92E3
330
8D35
100
AcDbEntity
  8
SIZE
  6
Continuous
100
AcDbLine
 10
600.8010382452424
 20
9.999999999999847
 30
0.0
 11
600.801038245243
 21
579.9999999999998
 31
0.0
  0
LINE
  5
92E8
330
8D35
100
AcDbEntity
  8
SIZE
  6
Continuous
100
AcDbLine
 10
-146.0
 20
480.0
 30
0.0
 11
511.3743073454187
 21
479.9999999999998
 31
0.0
  0
LINE
  5
92E9
330
8D35
100
AcDbEntity
  8
SIZE
  6
Continuous
100
AcDbLine
 10
491.3743073454184
 20
9.999999999999886
 30
0.0
 11
491.3743073454184
 21
469.9999999999997
 31
0.0
  0
LINE
  5
92ED
330
8D35
100
AcDbEntity
  8
SIZE
  6
Continuous
100
AcDbLine
 10
-235.0
 20
-20.0
 30
0.0
 11
-235.0
 21
-580.6802745973
 31
0.0
  0
LINE
  5
92EE
330
8D35
100
AcDbEntity
  8
SIZE
  6
Continuous
100
AcDbLine
 10
-0.0000000000000012
 20
-20.0
 30
0.0
 11
-0.0000000000000837
 21
-580.6802745973
 31
0.0
  0
LINE
  5
92EF
330
8D35
100
AcDbEntity
  8
SIZE
  6
Continuous
100
AcDbLine
 10
-225.0
 20
-560.6802745972998
 30
0.0
 11
-10.00000000000006
 21
-560.6802745972998
 31
0.0
  0
LINE
  5
92F3
330
8D35
100
AcDbEntity
  8
SIZE
  6
Continuous
100
AcDbLine
 10
-55.0
 20
-40.0
 30
0.0
 11
-55.00000000000007
 21
-446.4128910373873
 31
0.0
  0
LINE
  5
92F4
330
8D35
100
AcDbEntity
  8
SIZE
  6
Continuous
100
AcDbLine
 10
-198.0
 20
-40.0
 30
0.0
 11
-198.0
 21
-446.4128910373873
 31
0.0
  0
LINE
  5
92F5
330
8D35
100
AcDbEntity
  8
SIZE
  6
Continuous
100
AcDbLine
 10
-65.00000000000007
 20
-426.4128910373874
 30
0.0
 11
-188.0
 21
-426.4128910373874
 31
0.0
  0
LINE
  5
92F6
330
8D35
100
AcDbEntity
  8
SIZE
  6
Continuous
100
AcDbLine
 10
-198.0
 20
-426.4128910373874
 30
0.0
 11
-445.0952656902601
 21
-426.4128910373874
 31
0.0
  0
LINE
  5
92FB
330
8D35
100
AcDbEntity
  8
SIZE
  6
Continuous
100
AcDbLine
 10
-186.0
 20
630.0
 30
0.0
 11
-186.0
 21
770.400318157639
 31
0.0
  0
LINE
  5
92FC
330
8D35
100
AcDbEntity
  8
SIZE
  6
Continuous
100
AcDbLine
 10
162.6926423460172
 20
750.400318157639
 30
0.0
 11
-176.0
 21
750.400318157639
 31
0.0
  0
LINE
  5
9300
330
8D35
100
AcDbEntity
  8
SIZE
  6
Continuous
100
AcDbLine
 10
-132.3867054823367
 20
115.0
 30
0.0
 11
369.4804895440628
 21
115.0
 31
0.0
  0
LINE
  5
9301
330
8D35
100
AcDbEntity
  8
SIZE
  6
Continuous
100
AcDbLine
 10
-70.0
 20
90.0
 30
0.0
 11
369.4804895440628
 21
90.00000000000005
 31
0.0
  0
LINE
  5
9302
330
8D35
100
AcDbEntity
  8
SIZE
  6
Continuous
100
AcDbLine
 10
349.4804895440628
 20
125.0
 30
0.0
 11
349.4804895440627
 21
135.0
 31
0.0
  0
LINE
  5
9303
330
8D35
100
AcDbEntity
  8
SIZE
  6
Continuous
100
AcDbLine
 10
349.4804895440628
 20
80.00000000000007
 30
0.0
 11
349.4804895440628
 21
7.678875314966718
 31
0.0
  0
LINE
  5
9304
330
8D35
100
AcDbEntity
  8
SIZE
  6
Continuous
100
AcDbLine
 10
349.4804895440628
 20
115.0
 30
0.0
 11
349.4804895440628
 21
90.00000000000005
 31
0.0
  0
LINE
  5
9309
330
8D35
100
AcDbEntity
  8
SIZE
  6
Continuous
100
AcDbLine
 10
-110.0
 20
56.5
 30
0.0
 11
-109.9999999999998
 21
-219.8329567787296
 31
0.0
  0
LINE
  5
930A
330
8D35
100
AcDbEntity
  8
SIZE
  6
Continuous
100
AcDbLine
 10
-170.0000000000001
 20
-199.6434758506057
 30
0.0
 11
-120.0
 21
-199.6434758506057
 31
0.0
  0
LINE
  5
9310
330
8D35
100
AcDbEntity
  8
SIZE
  6
Continuous
100
AcDbLine
 10
-180.0
 20
55.0
 30
0.0
 11
-180.0
 21
-337.7266759294234
 31
0.0
  0
LINE
  5
9311
330
8D35
100
AcDbEntity
  8
SIZE
  6
Continuous
100
AcDbLine
 10
169.5488399681963
 20
-311.8190925663766
 30
0.0
 11
-170.0000000000001
 21
-311.8190925663766
 31
0.0
  0
TEXT
  5
9315
330
8D35
100
AcDbEntity
  8
SIZE
  6
Continuous
100
AcDbText
 10
30.00000000000173
 20
-416.4128910373873
 30
0.0
 40
50.0
  1
55
 41
0.9
100
AcDbText
  0
TEXT
  5
9316
330
8D35
100
AcDbEntity
  8
SIZE
  6
Continuous
100
AcDbText
 10
-435.0952656902601
 20
-416.4128910373873
 30
0.0
 40
50.0
  1
143
 41
0.9
100
AcDbText
  0
TEXT
  5
9317
330
8D35
100
AcDbEntity
  8
SIZE
  6
Continuous
100
AcDbText
 10
-191.5571428571429
 20
-550.6802745972996
 30
0.0
 40
50.0
  1
235
 41
0.9
100
AcDbText
  0
CIRCLE
  5
9318
330
8D35
100
AcDbEntity
  8
SIZE
  6
ByBlock
100
AcDbCircle
 10
-235.0
 20
-560.6802745972998
 30
0.0
 40
5.0
  0
LINE
  5
9319
330
8D35
100
AcDbEntity
  8
SIZE
  6
ByBlock
100
AcDbLine
 10
-235.0
 20
-560.6802745972998
 30
0.0
 11
-225.0
 21
-560.6802745972998
 31
0.0
  0
CIRCLE
  5
931A
330
8D35
100
AcDbEntity
  8
SIZE
  6
ByBlock
100
AcDbCircle
 10
-0.0000000000000825
 20
-560.6802745972998
 30
0.0
 40
5.0
  0
LINE
  5
931B
330
8D35
100
AcDbEntity
  8
SIZE
  6
ByBlock
100
AcDbLine
 10
-0.0000000000000825
 20
-560.6802745972998
 30
0.0
 11
-10.00000000000006
 21
-560.6802745972998
 31
0.0
  0
CIRCLE
  5
931C
330
8D35
100
AcDbEntity
  8
SIZE
  6
ByBlock
100
AcDbCircle
 10
-198.0
 20
-426.4128910373874
 30
0.0
 40
5.0
  0
LINE
  5
931D
330
8D35
100
AcDbEntity
  8
SIZE
  6
ByBlock
100
AcDbLine
 10
-198.0
 20
-426.4128910373874
 30
0.0
 11
-188.0
 21
-426.4128910373874
 31
0.0
  0
CIRCLE
  5
931E
330
8D35
100
AcDbEntity
  8
SIZE
  6
ByBlock
100
AcDbCircle
 10
-55.00000000000007
 20
-426.4128910373874
 30
0.0
 40
5.0
  0
LINE
  5
931F
330
8D35
100
AcDbEntity
  8
SIZE
  6
ByBlock
100
AcDbLine
 10
-55.00000000000007
 20
-426.4128910373874
 30
0.0
 11
-65.00000000000007
 21
-426.4128910373874
 31
0.0
  0
CIRCLE
  5
9320
330
8D35
100
AcDbEntity
  8
SIZE
  6
ByBlock
100
AcDbCircle
 10
-0.0000000000000743
 20
-426.4128910373874
 30
0.0
 40
5.0
  0
LINE
  5
9321
330
8D35
100
AcDbEntity
  8
SIZE
  6
ByBlock
100
AcDbLine
 10
-0.0000000000000743
 20
-426.4128910373874
 30
0.0
 11
-10.00000000000005
 21
-426.4128910373874
 31
0.0
  0
CIRCLE
  5
9322
330
8D35
100
AcDbEntity
  8
SIZE
  6
ByBlock
100
AcDbCircle
 10
-55.00000000000007
 20
-426.4128910373874
 30
0.0
 40
5.0
  0
LINE
  5
9323
330
8D35
100
AcDbEntity
  8
SIZE
  6
ByBlock
100
AcDbLine
 10
-55.00000000000007
 20
-426.4128910373874
 30
0.0
 11
-45.00000000000006
 21
-426.4128910373874
 31
0.0
  0
TEXT
  5
9324
330
8D35
100
AcDbEntity
  8
SIZE
  6
Continuous
100
AcDbText
 10
329.1283867375331
 20
19.38977527089446
 30
0.0
 40
50.0
  1
25
 50
90.0
 41
0.7
100
AcDbText
  0
CIRCLE
  5
9325
330
8D35
100
AcDbEntity
  8
SIZE
  6
ByBlock
100
AcDbCircle
 10
349.4804895440628
 20
90.00000000000005
 30
0.0
 40
5.0
  0
LINE
  5
9326
330
8D35
100
AcDbEntity
  8
SIZE
  6
ByBlock
100
AcDbLine
 10
349.4804895440628
 20
90.00000000000005
 30
0.0
 11
349.4804895440628
 21
80.00000000000007
 31
0.0
  0
LINE
  5
9328
330
8D35
100
AcDbEntity
  8
SIZE
  6
ByBlock
100
AcDbLine
 10
349.4804895440628
 20
115.0
 30
0.0
 11
349.4804895440628
 21
125.0
 31
0.0
  0
TEXT
  5
9329
330
8D35
100
AcDbEntity
  8
SIZE
  6
Continuous
100
AcDbText
 10
23.82364395944023
 20
-301.8190925663767
 30
0.0
 40
50.0
  1
180
 41
0.9
100
AcDbText
  0
TEXT
  5
932A
330
8D35
100
AcDbEntity
  8
SIZE
  6
Continuous
100
AcDbText
 10
-169.8802432814773
 20
-189.6434758506059
 30
0.0
 40
50.0
  1
70
 41
0.5
100
AcDbText
  0
CIRCLE
  5
932B
330
8D35
100
AcDbEntity
  8
SIZE
  6
ByBlock
100
AcDbCircle
 10
-180.0000000000001
 20
-199.6434758506057
 30
0.0
 40
5.0
  0
LINE
  5
932C
330
8D35
100
AcDbEntity
  8
SIZE
  6
ByBlock
100
AcDbLine
 10
-180.0000000000001
 20
-199.6434758506057
 30
0.0
 11
-170.0000000000001
 21
-199.6434758506057
 31
0.0
  0
CIRCLE
  5
932D
330
8D35
100
AcDbEntity
  8
SIZE
  6
ByBlock
100
AcDbCircle
 10
-109.9999999999999
 20
-199.6434758506057
 30
0.0
 40
5.0
  0
LINE
  5
932E
330
8D35
100
AcDbEntity
  8
SIZE
  6
ByBlock
100
AcDbLine
 10
-109.9999999999999
 20
-199.6434758506057
 30
0.0
 11
-120.0
 21
-199.6434758506057
 31
0.0
  0
CIRCLE
  5
932F
330
8D35
100
AcDbEntity
  8
SIZE
  6
ByBlock
100
AcDbCircle
 10
-180.0000000000001
 20
-311.8190925663766
 30
0.0
 40
5.0
  0
LINE
  5
9330
330
8D35
100
AcDbEntity
  8
SIZE
  6
ByBlock
100
AcDbLine
 10
-180.0000000000001
 20
-311.8190925663766
 30
0.0
 11
-170.0000000000001
 21
-311.8190925663766
 31
0.0
  0
CIRCLE
  5
9331
330
8D35
100
AcDbEntity
  8
SIZE
  6
ByBlock
100
AcDbCircle
 10
-0.0000000000001309
 20
-311.8190925663766
 30
0.0
 40
5.0
  0
LINE
  5
9332
330
8D35
100
AcDbEntity
  8
SIZE
  6
ByBlock
100
AcDbLine
 10
-0.0000000000001309
 20
-311.8190925663766
 30
0.0
 11
-10.00000000000013
 21
-311.8190925663766
 31
0.0
  0
TEXT
  5
9333
330
8D35
100
AcDbEntity
  8
SIZE
  6
Continuous
100
AcDbText
 10
57.33895431330893
 20
760.400318157639
 30
0.0
 40
50.0
  1
186
 41
0.9
100
AcDbText
  0
CIRCLE
  5
9334
330
8D35
100
AcDbEntity
  8
SIZE
  6
ByBlock
100
AcDbCircle
 10
-186.0
 20
750.400318157639
 30
0.0
 40
5.0
  0
LINE
  5
9335
330
8D35
100
AcDbEntity
  8
SIZE
  6
ByBlock
100
AcDbLine
 10
-186.0
 20
750.400318157639
 30
0.0
 11
-176.0
 21
750.400318157639
 31
0.0
  0
CIRCLE
  5
9336
330
8D35
100
AcDbEntity
  8
SIZE
  6
ByBlock
100
AcDbCircle
 10
0.0000000000000459
 20
750.400318157639
 30
0.0
 40
5.0
  0
LINE
  5
9337
330
8D35
100
AcDbEntity
  8
SIZE
  6
ByBlock
100
AcDbLine
 10
0.0000000000000459
 20
750.400318157639
 30
0.0
 11
-9.999999999999953
 21
750.400318157639
 31
0.0
  0
TEXT
  5
9338
330
8D35
100
AcDbEntity
  8
SIZE
  6
Continuous
100
AcDbText
 10
698.2382770582566
 20
854.0
 30
0.0
 40
50.0
  1
1900
 50
90.0
 41
0.9
100
AcDbText
  0
TEXT
  5
9339
330
8D35
100
AcDbEntity
  8
SIZE
  6
Continuous
100
AcDbText
 10
590.8010382452427
 20
220.9428571428571
 30
0.0
 40
50.0
  1
590
 50
90.0
 41
0.9
100
AcDbText
  0
TEXT
  5
933A
330
8D35
100
AcDbEntity
  8
SIZE
  6
Continuous
100
AcDbText
 10
481.3743073454184
 20
165.942857142857
 30
0.0
 40
50.0
  1
480
 50
90.0
 41
0.9
100
AcDbText
  0
CIRCLE
  5
933B
330
8D35
100
AcDbEntity
  8
SIZE
  6
ByBlock
100
AcDbCircle
 10
491.3743073454184
 20
-0.0000000000001135
 30
0.0
 40
5.0
  0
LINE
  5
933C
330
8D35
100
AcDbEntity
  8
SIZE
  6
ByBlock
100
AcDbLine
 10
491.3743073454184
 20
-0.0000000000001135
 30
0.0
 11
491.3743073454184
 21
9.999999999999886
 31
0.0
  0
CIRCLE
  5
933D
330
8D35
100
AcDbEntity
  8
SIZE
  6
ByBlock
100
AcDbCircle
 10
600.8010382452424
 20
-0.0000000000001445
 30
0.0
 40
5.0
  0
LINE
  5
933E
330
8D35
100
AcDbEntity
  8
SIZE
  6
ByBlock
100
AcDbLine
 10
600.8010382452424
 20
-0.0000000000001445
 30
0.0
 11
600.8010382452424
 21
9.999999999999856
 31
0.0
  0
CIRCLE
  5
933F
330
8D35
100
AcDbEntity
  8
SIZE
  6
ByBlock
100
AcDbCircle
 10
708.2382770582563
 20
-0.0000000000001749
 30
0.0
 40
5.0
  0
LINE
  5
9340
330
8D35
100
AcDbEntity
  8
SIZE
  6
ByBlock
100
AcDbLine
 10
708.2382770582563
 20
-0.0000000000001749
 30
0.0
 11
708.2382770582563
 21
9.999999999999824
 31
0.0
  0
CIRCLE
  5
9341
330
8D35
100
AcDbEntity
  8
SIZE
  6
ByBlock
100
AcDbCircle
 10
491.3743073454184
 20
479.9999999999998
 30
0.0
 40
5.0
  0
LINE
  5
9342
330
8D35
100
AcDbEntity
  8
SIZE
  6
ByBlock
100
AcDbLine
 10
491.3743073454184
 20
479.9999999999998
 30
0.0
 11
491.3743073454184
 21
469.9999999999997
 31
0.0
  0
CIRCLE
  5
9343
330
8D35
100
AcDbEntity
  8
SIZE
  6
ByBlock
100
AcDbCircle
 10
600.801038245243
 20
589.9999999999997
 30
0.0
 40
5.0
  0
LINE
  5
9344
330
8D35
100
AcDbEntity
  8
SIZE
  6
ByBlock
100
AcDbLine
 10
600.801038245243
 20
589.9999999999997
 30
0.0
 11
600.801038245243
 21
579.9999999999998
 31
0.0
  0
CIRCLE
  5
9345
330
8D35
100
AcDbEntity
  8
SIZE
  6
ByBlock
100
AcDbCircle
 10
708.2382770582567
 20
1899.999999999999
 30
0.0
 40
5.0
  0
LINE
  5
9346
330
8D35
100
AcDbEntity
  8
SIZE
  6
ByBlock
100
AcDbLine
 10
708.2382770582567
 20
1899.999999999999
 30
0.0
 11
708.2382770582567
 21
1889.999999999999
 31
0.0
  0
CIRCLE
  5
9347
330
8D35
100
AcDbEntity
  8
SIZE
  6
ByBlock
100
AcDbCircle
 10
708.2382770582567
 20
1899.999999999999
 30
0.0
 40
5.0
  0
LINE
  5
9348
330
8D35
100
AcDbEntity
  8
SIZE
  6
ByBlock
100
AcDbLine
 10
708.2382770582567
 20
1899.999999999999
 30
0.0
 11
708.2382770582567
 21
1909.999999999999
 31
0.0
  0
TEXT
  5
9349
330
8D35
100
AcDbEntity
  8
SIZE
  6
Continuous
100
AcDbText
 10
698.2382770582566
 20
1960.0
 30
0.0
 40
50.0
  1
40
 50
90.0
 41
0.9
100
AcDbText
  0
CIRCLE
  5
934A
330
8D35
100
AcDbEntity
  8
SIZE
  6
ByBlock
100
AcDbCircle
 10
708.2382770582567
 20
1939.999999999999
 30
0.0
 40
5.0
  0
LINE
  5
934B
330
8D35
100
AcDbEntity
  8
SIZE
  6
ByBlock
100
AcDbLine
 10
708.2382770582567
 20
1939.999999999999
 30
0.0
 11
708.2382770582567
 21
1929.999999999999
 31
0.0
  0
LINE
  5
934C
330
8D35
100
AcDbEntity
  8
OUTLINE
  6
Continuous
100
AcDbLine
 10
-270.0
 20
1900.0
 30
0.0
 11
-270.0
 21
30.0
 31
0.0
  0
LINE
  5
934D
330
8D35
100
AcDbEntity
  8
OUTLINE
  6
Continuous
100
AcDbLine
 10
0.0
 20
1940.0
 30
0.0
 11
0.0
 21
0.0
 31
0.0
  0
LINE
  5
934E
330
8D35
100
AcDbEntity
  8
OUTLINE
  6
Continuous
100
AcDbLine
 10
-235.0
 20
30.0
 30
0.0
 11
-270.0
 21
30.0
 31
0.0
  0
LINE
  5
934F
330
8D35
100
AcDbEntity
  8
OUTLINE
  6
Continuous
100
AcDbLine
 10
0.0
 20
0.0
 30
0.0
 11
-235.0
 21
0.0
 31
0.0
  0
LINE
  5
9350
330
8D35
100
AcDbEntity
  8
OUTLINE
  6
Continuous
100
AcDbLine
 10
-235.0
 20
30.0
 30
0.0
 11
-235.0
 21
0.0
 31
0.0
  0
LINE
  5
9351
330
8D35
100
AcDbEntity
  8
OUTLINE
  6
Continuous
100
AcDbLine
 10
-235.0
 20
30.0
 30
0.0
 11
-235.0
 21
0.0
 31
0.0
  0
LINE
  5
9358
330
8D35
100
AcDbEntity
  8
OUTLINE
  6
Continuous
100
AcDbLine
 10
0.0
 20
1900.0
 30
0.0
 11
-270.0
 21
1900.0
 31
0.0
  0
LINE
  5
9359
330
8D35
100
AcDbEntity
  8
OUTLINE
  6
Continuous
100
AcDbLine
 10
-111.0
 20
1901.0
 30
0.0
 11
-1.0
 21
1901.0
 31
0.0
  0
LINE
  5
935A
330
8D35
100
AcDbEntity
  8
OUTLINE
  6
Continuous
100
AcDbLine
 10
-111.0
 20
1901.0
 30
0.0
 11
-111.0
 21
1900.0
 31
0.0
  0
LINE
  5
935B
330
8D35
100
AcDbEntity
  8
OUTLINE
  6
Continuous
100
AcDbLine
 10
-1.0
 20
1940.0
 30
0.0
 11
-1.0
 21
1901.0
 31
0.0
  0
LINE
  5
935C
330
8D35
100
AcDbEntity
  8
OUTLINE
  6
Continuous
100
AcDbLine
 10
0.0
 20
1940.0
 30
0.0
 11
-1.0
 21
1940.0
 31
0.0
  0
LINE
  5
94EB
330
8D35
100
AcDbEntity
  8
NOTE
  6
Continuous
100
AcDbLine
 10
-209.0
 20
64.00000000000003
 30
0.0
 11
-209.0
 21
24.00000000000002
 31
0.0
  0
LINE
  5
94EC
330
8D35
100
AcDbEntity
  8
NOTE
  6
Continuous
100
AcDbLine
 10
-188.9999999999999
 20
44.00000000000002
 30
0.0
 11
-229.0
 21
44.00000000000002
 31
0.0
  0
LINE
  5
94ED
330
8D35
100
AcDbEntity
  8
NOTE
  6
Continuous
100
AcDbLine
 10
-812.4135151614497
 20
-179.5610167549739
 30
0.0
 11
-406.2805565720155
 21
-179.5610167549739
 31
0.0
  0
TEXT
  5
94EE
330
8D35
100
AcDbEntity
  8
NOTE
  6
Continuous
100
AcDbText
 10
-791.056322161446
 20
-163.6454247549747
 30
0.0
 40
50.0
  1
D VP-20
 41
0.9
100
AcDbText
  0
LINE
  5
94EF
330
8D35
100
AcDbEntity
  8
NOTE
  6
Continuous
100
AcDbLine
 10
-209.0
 20
44.00000000000003
 30
0.0
 11
-406.2805565720155
 21
-179.5610167549739
 31
0.0
  0
LWPOLYLINE
  5
94F0
330
8D35
100
AcDbEntity
  8
NOTE
  6
Continuous
100
AcDbPolyline
 90
        3
 70
     0
 43
0.0
 10
-228.1412737154823
 20
8.877192423824487
 10
-209.0
 20
44.00000000000003
 10
-243.1382338820548
 20
23.15339367854907
  0
ARC
  5
953D
330
8D35
100
AcDbEntity
  8
DETAIL
  6
Continuous
100
AcDbCircle
 10
-180.0
 20
130.0
 30
0.0
 40
30.0
100
AcDbArc
 50
0.0000000000000763
 51
180.0
  0
ARC
  5
953E
330
8D35
100
AcDbEntity
  8
DETAIL
  6
Continuous
100
AcDbCircle
 10
-180.0
 20
100.0
 30
0.0
 40
30.0
100
AcDbArc
 50
180.0
 51
0.0
  0
LINE
  5
959F
330
8D35
100
AcDbEntity
  8
NOTE
  6
Continuous
100
AcDbLine
 10
-400.6826258289219
 20
321.195436207734
 30
0.0
 11
-895.1625205133202
 21
321.1954362077346
 31
0.0
  0
TEXT
  5
95B0
330
8D35
100
AcDbEntity
  8
NOTE
  6
Continuous
100
AcDbText
 10
87.85410542915268
 20
286.1681995570998
 30
0.0
 40
50.0
  1
EL用K.O.穴
 41
0.9
100
AcDbText
  0
DIMENSION
  5
98BD
330
8D35
100
AcDbEntity
  8
SIZE
  6
Continuous
100
AcDbDimension
  2
*D4
 10
-422.8479689627024
 20
30.0
 30
0.0
 11
-422.8479689627023
 21
-66.42857142857133
 31
0.0
 70
   160
 71
     5
 42
30.00000000000002
  3
STANDARD
100
AcDbAlignedDimension
 13
-235.0
 23
0.0
 33
0.0
 14
-270.0
 24
30.0
 34
0.0
 50
90.0
100
AcDbRotatedDimension
1001
ACAD
1000
DSTYLE
1002
{
1070
    41
1040
10.0
1070
    42
1040
20.0
1070
    43
1040
200.0
1070
    44
1040
20.0
1070
    73
1070
     0
1070
    74
1070
     0
1070
    77
1070
     1
1070
    78
1070
     8
1070
   140
1040
50.0
1070
   141
1040
0.082
1070
   147
1040
10.0
1070
   172
1070
     1
1070
   275
1070
     0
1070
   284
1070
     0
1070
   285
1070
     0
1070
   286
1070
     0
1070
   341
1005
8D61
1070
   342
1005
8D61
1002
}
  0
TEXT
  5
98E9
330
8D35
100
AcDbEntity
  8
NOTE
  6
Continuous
100
AcDbText
 10
-811.890519192906
 20
-391.4362849646768
 30
0.0
 40
50.0
  1
床固定用
 41
0.9
100
AcDbText
  0
TEXT
  5
98F9
330
8D35
100
AcDbEntity
  8
NOTE
  6
Continuous
100
AcDbText
 10
-892.9098478957019
 20
255.0404358247988
 30
0.0
 40
50.0
  1
D,RL,RG用K.O.穴
 41
0.9
100
AcDbText
  0
LINE
  5
98FB
330
8D35
100
AcDbEntity
  8
NOTE
  6
Continuous
100
AcDbLine
 10
0.0
 20
1920.0
 30
0.0
 11
163.0954233457137
 21
2147.266999999998
 31
0.0
  0
LINE
  5
98FC
330
8D35
100
AcDbEntity
  8
NOTE
  6
Continuous
100
AcDbLine
 10
163.0954233457137
 20
2147.266999999998
 30
0.0
 11
736.1117781561265
 21
2147.266999999998
 31
0.0
  0
TEXT
  5
98FD
330
8D35
100
AcDbEntity
  8
NOTE
  6
Continuous
100
AcDbText
 10
172.5610293457144
 20
2164.94729912271
 30
0.0
 40
50.0
  1
AH 3-10×20長穴
 41
0.9
100
AcDbText
  0
LWPOLYLINE
  5
98FE
330
8D35
100
AcDbEntity
  8
NOTE
  6
Continuous
100
AcDbPolyline
 90
        3
 70
     0
 43
0.0
 10
32.60867254491086
 20
1943.166234775815
 10
0.0
 20
1920.0
 10
16.65682219227619
 20
1956.366884254571
  0
TEXT
  5
98FF
330
8D35
100
AcDbEntity
  8
NOTE
  6
Continuous
100
AcDbText
 10
167.7268778989244
 20
2080.409481939298
 30
0.0
 40
50.0
  1
転倒防止金具用
 41
0.9
100
AcDbText
  0
TEXT
  5
9900
330
8D35
100
AcDbEntity
  8
NOTE
  6
Continuous
100
AcDbText
 10
-896.5412773873472
 20
349.4909732996902
 30
0.0
 40
50.0
  1
90×60長穴 
 41
0.9
100
AcDbText
  0
TEXT
  5
9908
330
8D35
100
AcDbEntity
  8
NOTE
  6
Continuous
100
AcDbText
 10
89.52045423106836
 20
368.1669277398823
 30
0.0
 40
50.0
  1
2-φ27
 41
0.9
100
AcDbText
  0
ENDSEC
  0
SECTION
  2
OBJECTS
  0
DICTIONARY
  5
8D23
330
0
100
AcDbDictionary
281
     1
  3
ACAD_CIP_PREVIOUS_PRODUCT_INFO
350
940A
  3
ACAD_COLOR
350
93ED
  3
ACAD_DETAILVIEWSTYLE
350
9406
  3
ACAD_GROUP
350
8D24
  3
ACAD_LAYOUT
350
8D30
  3
ACAD_MATERIAL
350
93BB
  3
ACAD_MLEADERSTYLE
350
9402
  3
ACAD_MLINESTYLE
350
8D2D
  3
ACAD_PLOTSETTINGS
350
8D2F
  3
ACAD_PLOTSTYLENAME
350
8D25
  3
ACAD_SCALELIST
350
93F0
  3
ACAD_SECTIONVIEWSTYLE
350
9404
  3
ACAD_TABLESTYLE
350
93EE
  3
ACAD_VISUALSTYLE
350
93D4
  3
ACDB_RECOMPOSE_DATA
350
9982
  3
AcDbVariableDictionary
350
941B
  0
DICTIONARY
  5
9549
330
8D19
100
AcDbDictionary
280
     1
281
     1
  3
ACAD_LAYERSTATES
360
954A
  0
DICTIONARY
  5
940B
330
8D27
100
AcDbDictionary
280
     1
281
     1
  3
ADSK_XREC_LAYER_RECONCILED
360
940C
  0
DICTIONARY
  5
940D
330
8D39
100
AcDbDictionary
280
     1
281
     1
  3
ADSK_XREC_LAYER_RECONCILED
360
940E
  0
DICTIONARY
  5
940F
330
8D49
100
AcDbDictionary
280
     1
281
     1
  3
ADSK_XREC_LAYER_RECONCILED
360
9410
  0
DICTIONARY
  5
9411
330
8D4A
100
AcDbDictionary
280
     1
281
     1
  3
ADSK_XREC_LAYER_RECONCILED
360
9412
  0
DICTIONARY
  5
9413
330
8D4C
100
AcDbDictionary
280
     1
281
     1
  3
ADSK_XREC_LAYER_RECONCILED
360
9414
  0
DICTIONARY
  5
9415
330
8D4D
100
AcDbDictionary
280
     1
281
     1
  3
ADSK_XREC_LAYER_RECONCILED
360
9416
  0
DICTIONARY
  5
9417
330
8D4E
100
AcDbDictionary
280
     1
281
     1
  3
ADSK_XREC_LAYER_RECONCILED
360
9418
  0
DICTIONARY
  5
9419
330
8D4F
100
AcDbDictionary
280
     1
281
     1
  3
ADSK_XREC_LAYER_RECONCILED
360
941A
  0
DICTIONARY
  5
938A
330
8D35
100
AcDbDictionary
280
     1
281
     1
  3
ACAD_LAYOUTSELFREF
360
93B6
  3
ACAD_SORTENTS
360
953A
  0
DICTIONARY
  5
9388
330
8D31
100
AcDbDictionary
280
     1
281
     1
  3
ACAD_LAYOUTSELFREF
360
93B5
  0
DICTIONARY
  5
95A5
330
95A1
100
AcDbDictionary
280
     1
281
     1
  0
XRECORD
  5
940A
102
{ACAD_REACTORS
330
8D23
102
}
330
8D23
100
AcDbXrecord
280
     1
300
ACD
300
2018
300
86830ACD_2018_0F
  0
DICTIONARY
  5
93ED
102
{ACAD_REACTORS
330
8D23
102
}
330
8D23
100
AcDbDictionary
281
     1
  0
DICTIONARY
  5
9406
102
{ACAD_REACTORS
330
8D23
102
}
330
8D23
100
AcDbDictionary
281
     1
  3
Imperial24
350
9407
  0
DICTIONARY
  5
8D24
102
{ACAD_REACTORS
330
8D23
102
}
330
8D23
100
AcDbDictionary
281
     1
  0
DICTIONARY
  5
8D30
102
{ACAD_REACTORS
330
8D23
102
}
330
8D23
100
AcDbDictionary
281
     1
  3
Model
350
9408
  3
レイアウト1
350
9409
  0
DICTIONARY
  5
93BB
102
{ACAD_REACTORS
330
8D23
102
}
330
8D23
100
AcDbDictionary
281
     1
  3
ByBlock
350
93C4
  3
ByLayer
350
93BC
  3
Global
350
93CC
  0
DICTIONARY
  5
9402
102
{ACAD_REACTORS
330
8D23
102
}
330
8D23
100
AcDbDictionary
281
     1
  3
Standard
350
9403
  0
DICTIONARY
  5
8D2D
102
{ACAD_REACTORS
330
8D23
102
}
330
8D23
100
AcDbDictionary
281
     1
  3
STANDARD
350
8D2E
  0
DICTIONARY
  5
8D2F
102
{ACAD_REACTORS
330
8D23
102
}
330
8D23
100
AcDbDictionary
281
     1
  0
ACDBDICTIONARYWDFLT
  5
8D25
102
{ACAD_REACTORS
330
8D23
102
}
330
8D23
100
AcDbDictionary
281
     1
  3
Normal
350
8D26
100
AcDbDictionaryWithDefault
340
8D26
  0
DICTIONARY
  5
93F0
102
{ACAD_REACTORS
330
8D23
102
}
330
8D23
100
AcDbDictionary
281
     1
  3
A0
350
93F1
  3
A1
350
93F2
  3
A2
350
93F3
  3
A3
350
93F4
  3
A4
350
93F5
  3
A5
350
93F6
  3
A6
350
93F7
  3
A7
350
93F8
  3
A8
350
93F9
  3
A9
350
93FA
  3
B0
350
93FB
  3
B1
350
93FC
  3
B2
350
93FD
  3
B3
350
93FE
  3
B4
350
93FF
  3
B5
350
9400
  3
B6
350
9401
  0
DICTIONARY
  5
9404
102
{ACAD_REACTORS
330
8D23
102
}
330
8D23
100
AcDbDictionary
281
     1
  3
Imperial24
350
9405
  0
DICTIONARY
  5
93EE
102
{ACAD_REACTORS
330
8D23
102
}
330
8D23
100
AcDbDictionary
281
     1
  3
Standard
350
93EF
  0
DICTIONARY
  5
93D4
102
{ACAD_REACTORS
330
8D23
102
}
330
8D23
100
AcDbDictionary
281
     1
  3
2dWireframe
350
93DA
  3
Basic
350
93D9
  3
Brighten
350
93E0
  3
ColorChange
350
93E4
  3
Conceptual
350
93DD
  3
Dim
350
93DF
  3
EdgeColorOff
350
93EC
  3
Facepattern
350
93E3
  3
Flat
350
93D5
  3
FlatWithEdges
350
93D6
  3
Gouraud
350
93D7
  3
GouraudWithEdges
350
93D8
  3
Hidden
350
93DC
  3
JitterOff
350
93EA
  3
Linepattern
350
93E2
  3
OverhangOff
350
93EB
  3
Realistic
350
93DE
  3
Shaded
350
93E9
  3
Shaded with edges
350
93E8
  3
Shades of Gray
350
93E5
  3
Sketchy
350
93E6
  3
Thicken
350
93E1
  3
Wireframe
350
93DB
  3
X-Ray
350
93E7
  0
XRECORD
  5
9982
102
{ACAD_REACTORS
330
8D23
102
}
330
8D23
100
AcDbXrecord
280
     1
 90
        1
330
93EF
  0
DICTIONARY
  5
941B
102
{ACAD_REACTORS
330
8D23
102
}
330
8D23
100
AcDbDictionary
281
     1
  3
CANNOSCALE
350
9421
  3
CMLEADERSTYLE
350
941D
  3
CTABLESTYLE
350
941C
  3
CVIEWDETAILSTYLE
350
941E
  3
CVIEWSECTIONSTYLE
350
941F
  3
LAYEREVAL
350
9423
  3
LAYERNOTIFY
350
9424
  3
LIGHTINGUNITS
350
9422
  3
LOFTANG1
350
997E
  3
LOFTANG2
350
997F
  3
MSLTSCALE
350
9420
  3
XCLIPFRAME
350
9980
  0
DICTIONARY
  5
954A
102
{ACAD_REACTORS
330
9549
102
}
330
9549
100
AcDbDictionary
281
     1
  0
XRECORD
  5
940C
102
{ACAD_REACTORS
330
940B
102
}
330
940B
100
AcDbXrecord
280
     1
290
     1
  0
XRECORD
  5
940E
102
{ACAD_REACTORS
330
940D
102
}
330
940D
100
AcDbXrecord
280
     1
290
     1
  0
XRECORD
  5
9410
102
{ACAD_REACTORS
330
940F
102
}
330
940F
100
AcDbXrecord
280
     1
290
     1
  0
XRECORD
  5
9412
102
{ACAD_REACTORS
330
9411
102
}
330
9411
100
AcDbXrecord
280
     1
290
     1
  0
XRECORD
  5
9414
102
{ACAD_REACTORS
330
9413
102
}
330
9413
100
AcDbXrecord
280
     1
290
     1
  0
XRECORD
  5
9416
102
{ACAD_REACTORS
330
9415
102
}
330
9415
100
AcDbXrecord
280
     1
290
     1
  0
XRECORD
  5
9418
102
{ACAD_REACTORS
330
9417
102
}
330
9417
100
AcDbXrecord
280
     1
290
     1
  0
XRECORD
  5
941A
102
{ACAD_REACTORS
330
9419
102
}
330
9419
100
AcDbXrecord
280
     1
290
     1
  0
XRECORD
  5
93B6
102
{ACAD_REACTORS
330
938A
102
}
330
938A
100
AcDbXrecord
280
     1
340
8D35
  0
SORTENTSTABLE
  5
953A
102
{ACAD_REACTORS
330
938A
102
}
330
938A
100
AcDbSortentsTable
330
8D35
331
91EB
  5
91EB
331
9228
  5
9228
331
91E3
  5
91E3
331
91E7
  5
91E7
331
94F0
  5
94F0
331
9323
  5
9323
331
92E2
  5
92E2
331
931B
  5
931B
331
931F
  5
931F
331
91FF
  5
91FF
331
9230
  5
9230
331
91F7
  5
91F7
331
9332
  5
9332
331
9336
  5
9336
331
92F5
  5
92F5
331
92E9
  5
92E9
331
932A
  5
932A
331
932E
  5
932E
331
92ED
  5
92ED
331
91CB
  5
91CB
331
91CF
  5
91CF
331
920C
  5
920C
331
91C3
  5
91C3
331
9200
  5
9200
331
91C7
  5
91C7
331
9204
  5
9204
331
9348
  5
9348
331
934C
  5
934C
331
9340
  5
9340
331
9344
  5
9344
331
9301
  5
9301
331
933A
  5
933A
331
933E
  5
933E
331
94ED
  5
94ED
331
91DF
  5
91DF
331
9218
  5
9218
331
91D3
  5
91D3
331
9210
  5
9210
331
91D7
  5
91D7
331
9214
  5
9214
331
9358
  5
9358
331
935C
  5
935C
331
9350
  5
9350
331
9316
  5
9316
331
92D5
  5
92D5
331
930A
  5
930A
331
92CD
  5
92CD
331
91EA
  5
91EA
331
91EE
  5
91EE
331
922F
  5
922F
331
91E2
  5
91E2
331
9227
  5
9227
331
91E6
  5
91E6
331
9322
  5
9322
331
92E1
  5
92E1
331
9326
  5
9326
331
931A
  5
931A
331
92DD
  5
92DD
331
931E
  5
931E
331
91FE
  5
91FE
331
91F6
  5
91F6
331
9331
  5
9331
331
9335
  5
9335
331
92F4
  5
92F4
331
92E8
  5
92E8
331
9329
  5
9329
331
932D
  5
932D
331
920B
  5
920B
331
91CA
  5
91CA
331
91CE
  5
91CE
331
920F
  5
920F
331
9203
  5
9203
331
91C2
  5
91C2
331
91C6
  5
91C6
331
934B
  5
934B
331
934F
  5
934F
331
9343
  5
9343
331
9347
  5
9347
331
9300
  5
9300
331
9304
  5
9304
331
9339
  5
9339
331
933D
  5
933D
331
92FC
  5
92FC
331
94EC
  5
94EC
331
91DE
  5
91DE
331
9213
  5
9213
331
91D2
  5
91D2
331
9217
  5
9217
331
91D6
  5
91D6
331
935B
  5
935B
331
9311
  5
9311
331
92D0
  5
92D0
331
9315
  5
9315
331
92D4
  5
92D4
331
9309
  5
9309
331
91E9
  5
91E9
331
922E
  5
922E
331
91ED
  5
91ED
331
91E1
  5
91E1
331
91E5
  5
91E5
331
9321
  5
9321
331
9325
  5
9325
331
9319
  5
9319
331
92DC
  5
92DC
331
931D
  5
931D
331
91F9
  5
91F9
331
9236
  5
9236
331
92F3
  5
92F3
331
9330
  5
9330
331
9334
  5
9334
331
92EF
  5
92EF
331
9328
  5
9328
331
932C
  5
932C
331
920A
  5
920A
331
91C9
  5
91C9
331
91CD
  5
91CD
331
920E
  5
920E
331
9202
  5
9202
331
91C1
  5
91C1
331
934A
  5
934A
331
934E
  5
934E
331
9342
  5
9342
331
9346
  5
9346
331
9303
  5
9303
331
92FB
  5
92FB
331
9338
  5
9338
331
933C
  5
933C
331
94EB
  5
94EB
331
94EF
  5
94EF
331
921A
  5
921A
331
91DD
  5
91DD
331
9212
  5
9212
331
91D1
  5
91D1
331
91D5
  5
91D5
331
935A
  5
935A
331
9310
  5
9310
331
92D7
  5
92D7
331
92CF
  5
92CF
331
91E8
  5
91E8
331
922D
  5
922D
331
91EC
  5
91EC
331
91E0
  5
91E0
331
91E4
  5
91E4
331
92E3
  5
92E3
331
9320
  5
9320
331
9324
  5
9324
331
92DB
  5
92DB
331
9318
  5
9318
331
931C
  5
931C
331
91F8
  5
91F8
331
9235
  5
9235
331
9333
  5
9333
331
9337
  5
9337
331
92F6
  5
92F6
331
932B
  5
932B
331
932F
  5
932F
331
92EE
  5
92EE
331
91C8
  5
91C8
331
9209
  5
9209
331
91CC
  5
91CC
331
920D
  5
920D
331
9201
  5
9201
331
91C0
  5
91C0
331
91C4
  5
91C4
331
9349
  5
9349
331
934D
  5
934D
331
9341
  5
9341
331
9345
  5
9345
331
9302
  5
9302
331
933B
  5
933B
331
933F
  5
933F
331
94EE
  5
94EE
331
9219
  5
9219
331
91DC
  5
91DC
331
9211
  5
9211
331
91D0
  5
91D0
331
9215
  5
9215
331
91D4
  5
91D4
331
9359
  5
9359
331
9351
  5
9351
331
9317
  5
9317
331
92D6
  5
92D6
331
92CE
  5
92CE
  0
XRECORD
  5
93B5
102
{ACAD_REACTORS
330
9388
102
}
330
9388
100
AcDbXrecord
280
     1
340
8D31
  0
ACDBDETAILVIEWSTYLE
  5
9407
102
{ACAD_XDICTIONARY
360
99B6
102
}
102
{ACAD_REACTORS
330
9406
102
}
330
9406
100
AcDbModelDocViewStyle
 70
     0
  3
Imperial24
290
     0
100
AcDbDetailViewStyle
 70
     0
 71
     0
 90
        3
 71
     1
340
8D28
 62
   256
 40
0.24
340
0
 62
   256
 40
0.24
300

 40
0.36
280
     3
 71
     2
340
8D2C
 90
       25
 62
   256
 71
     3
340
8D28
 62
   256
 40
0.24
 90
        1
 40
0.75
 90
        1
300
%<\AcVar ViewType \f "%tc1">% %<\AcVar ViewDetailId>%\PSCALE %<\AcVar ViewScale \f "%sn">%
 71
     4
340
8D2C
 90
       25
 62
   256
340
8D2C
 90
       25
 62
   256
280
     0
  0
LAYOUT
  5
9408
102
{ACAD_REACTORS
330
8D30
102
}
330
8D30
100
AcDbPlotSettings
  1

  2
C:\Users\okazakz.MEENT01\AppData\Roaming\Autodesk\AutoCAD LT 2019\R25\jpn\plotters\AutoCAD PDF (General Documentation).pc3
  4

  6

 40
0.0
 41
0.0
 42
0.0
 43
0.0
 44
0.0
 45
0.0
 46
0.0
 47
0.0
 48
0.0
 49
0.0
140
0.0
141
0.0
142
1.0
143
1.0
 70
  1712
 72
     0
 73
     0
 74
     0
  7

 75
     0
147
1.0
 76
     0
 77
     2
 78
   300
148
0.0
149
0.0
100
AcDbLayout
  1
Model
 70
     1
 71
     0
 10
0.0
 20
0.0
 11
12.0
 21
9.0
 12
0.0
 22
0.0
 32
0.0
 14
0.0
 24
0.0
 34
0.0
 15
0.0
 25
0.0
 35
0.0
146
0.0
 13
0.0
 23
0.0
 33
0.0
 16
1.0
 26
0.0
 36
0.0
 17
0.0
 27
1.0
 37
0.0
 76
     0
330
8D35
331
9393
  0
LAYOUT
  5
9409
102
{ACAD_REACTORS
330
8D30
102
}
330
8D30
100
AcDbPlotSettings
  1

  2
C:\Users\okazakz.MEENT01\AppData\Roaming\Autodesk\AutoCAD LT 2019\R25\jpn\plotters\AutoCAD PDF (General Documentation).pc3
  4

  6

 40
0.0
 41
0.0
 42
0.0
 43
0.0
 44
0.0
 45
0.0
 46
0.0
 47
0.0
 48
0.0
 49
0.0
140
0.0
141
0.0
142
1.0
143
1.0
 70
   688
 72
     0
 73
     0
 74
     5
  7

 75
    16
147
1.0
 76
     0
 77
     2
 78
   300
148
0.0
149
0.0
100
AcDbLayout
  1
レイアウト1
 70
     1
 71
     1
 10
0.0
 20
0.0
 11
12.0
 21
9.0
 12
0.0
 22
0.0
 32
0.0
 14
1.000000000000000E+20
 24
1.000000000000000E+20
 34
1.000000000000000E+20
 15
-1.000000000000000E+20
 25
-1.000000000000000E+20
 35
-1.000000000000000E+20
146
0.0
 13
0.0
 23
0.0
 33
0.0
 16
1.0
 26
0.0
 36
0.0
 17
0.0
 27
1.0
 37
0.0
 76
     0
330
8D31
  0
MATERIAL
  5
93C4
102
{ACAD_XDICTIONARY
360
93C5
102
}
102
{ACAD_REACTORS
330
93BB
102
}
330
93BB
100
AcDbMaterial
  1
ByBlock
 72
     0
 43
0.0208333333333333
 43
0.0
 43
0.0
 43
0.0
 43
0.0
 43
0.0208333333333333
 43
0.0
 43
0.0
 43
0.0
 43
0.0
 43
1.0
 43
0.0
 43
0.0
 43
0.0
 43
0.0
 43
1.0
 77
     0
 47
0.0208333333333333
 47
0.0
 47
0.0
 47
0.0
 47
0.0
 47
0.0208333333333333
 47
0.0
 47
0.0
 47
0.0
 47
0.0
 47
1.0
 47
0.0
 47
0.0
 47
0.0
 47
0.0
 47
1.0
171
     0
 49
0.0208333333333333
 49
0.0
 49
0.0
 49
0.0
 49
0.0
 49
0.0208333333333333
 49
0.0
 49
0.0
 49
0.0
 49
0.0
 49
1.0
 49
0.0
 49
0.0
 49
0.0
 49
0.0
 49
1.0
175
     0
142
0.0208333333333333
142
0.0
142
0.0
142
0.0
142
0.0
142
0.0208333333333333
142
0.0
142
0.0
142
0.0
142
0.0
142
1.0
142
0.0
142
0.0
142
0.0
142
0.0
142
1.0
179
     0
144
0.0208333333333333
144
0.0
144
0.0
144
0.0
144
0.0
144
0.0208333333333333
144
0.0
144
0.0
144
0.0
144
0.0
144
1.0
144
0.0
144
0.0
144
0.0
144
0.0
144
1.0
147
0.0208333333333333
147
0.0
147
0.0
147
0.0
147
0.0
147
0.0208333333333333
147
0.0
147
0.0
147
0.0
147
0.0
147
1.0
147
0.0
147
0.0
147
0.0
147
0.0
147
1.0
  0
MATERIAL
  5
93BC
102
{ACAD_XDICTIONARY
360
93BD
102
}
102
{ACAD_REACTORS
330
93BB
102
}
330
93BB
100
AcDbMaterial
  1
ByLayer
 72
     0
 43
0.0208333333333333
 43
0.0
 43
0.0
 43
0.0
 43
0.0
 43
0.0208333333333333
 43
0.0
 43
0.0
 43
0.0
 43
0.0
 43
1.0
 43
0.0
 43
0.0
 43
0.0
 43
0.0
 43
1.0
 77
     0
 47
0.0208333333333333
 47
0.0
 47
0.0
 47
0.0
 47
0.0
 47
0.0208333333333333
 47
0.0
 47
0.0
 47
0.0
 47
0.0
 47
1.0
 47
0.0
 47
0.0
 47
0.0
 47
0.0
 47
1.0
171
     0
 49
0.0208333333333333
 49
0.0
 49
0.0
 49
0.0
 49
0.0
 49
0.0208333333333333
 49
0.0
 49
0.0
 49
0.0
 49
0.0
 49
1.0
 49
0.0
 49
0.0
 49
0.0
 49
0.0
 49
1.0
175
     0
142
0.0208333333333333
142
0.0
142
0.0
142
0.0
142
0.0
142
0.0208333333333333
142
0.0
142
0.0
142
0.0
142
0.0
142
1.0
142
0.0
142
0.0
142
0.0
142
0.0
142
1.0
179
     0
144
0.0208333333333333
144
0.0
144
0.0
144
0.0
144
0.0
144
0.0208333333333333
144
0.0
144
0.0
144
0.0
144
0.0
144
1.0
144
0.0
144
0.0
144
0.0
144
0.0
144
1.0
147
0.0208333333333333
147
0.0
147
0.0
147
0.0
147
0.0
147
0.0208333333333333
147
0.0
147
0.0
147
0.0
147
0.0
147
1.0
147
0.0
147
0.0
147
0.0
147
0.0
147
1.0
  0
MATERIAL
  5
93CC
102
{ACAD_XDICTIONARY
360
93CD
102
}
102
{ACAD_REACTORS
330
93BB
102
}
330
93BB
100
AcDbMaterial
  1
Global
 72
     0
 43
0.0208333333333333
 43
0.0
 43
0.0
 43
0.0
 43
0.0
 43
0.0208333333333333
 43
0.0
 43
0.0
 43
0.0
 43
0.0
 43
1.0
 43
0.0
 43
0.0
 43
0.0
 43
0.0
 43
1.0
 77
     0
 47
0.0208333333333333
 47
0.0
 47
0.0
 47
0.0
 47
0.0
 47
0.0208333333333333
 47
0.0
 47
0.0
 47
0.0
 47
0.0
 47
1.0
 47
0.0
 47
0.0
 47
0.0
 47
0.0
 47
1.0
171
     0
 49
0.0208333333333333
 49
0.0
 49
0.0
 49
0.0
 49
0.0
 49
0.0208333333333333
 49
0.0
 49
0.0
 49
0.0
 49
0.0
 49
1.0
 49
0.0
 49
0.0
 49
0.0
 49
0.0
 49
1.0
175
     0
142
0.0208333333333333
142
0.0
142
0.0
142
0.0
142
0.0
142
0.0208333333333333
142
0.0
142
0.0
142
0.0
142
0.0
142
1.0
142
0.0
142
0.0
142
0.0
142
0.0
142
1.0
179
     0
144
0.0208333333333333
144
0.0
144
0.0
144
0.0
144
0.0
144
0.0208333333333333
144
0.0
144
0.0
144
0.0
144
0.0
144
1.0
144
0.0
144
0.0
144
0.0
144
0.0
144
1.0
147
0.0208333333333333
147
0.0
147
0.0
147
0.0
147
0.0
147
0.0208333333333333
147
0.0
147
0.0
147
0.0
147
0.0
147
1.0
147
0.0
147
0.0
147
0.0
147
0.0
147
1.0
  0
MLEADERSTYLE
  5
9403
102
{ACAD_REACTORS
330
9402
102
}
330
9402
100
AcDbMLeaderStyle
170
     2
171
     1
172
     0
 90
        2
 40
0.0
 41
0.0
173
     1
 91
-1056964608
340
8D2A
 92
       -2
290
     1
 42
0.09
291
     1
 43
0.36
  3
Standard
 44
0.18
300

342
8D28
174
     1
178
     6
175
     1
176
     0
 93
-1056964608
 45
0.18
292
     0
297
     0
 46
0.18
 94
-1056964608
 47
1.0
 49
1.0
140
1.0
293
     1
141
0.0
294
     1
177
     0
142
1.0
295
     0
296
     0
143
0.125
1001
ACAD_MLEADERVER
1070
     2
  0
MLINESTYLE
  5
8D2E
102
{ACAD_REACTORS
330
8D2D
102
}
330
8D2D
100
AcDbMlineStyle
  2
STANDARD
 70
     0
  3

 62
   256
 51
90.0
 52
90.0
 71
     2
 49
0.5
 62
   256
  6
BYLAYER
 49
-0.5
 62
   256
  6
BYLAYER
  0
ACDBPLACEHOLDER
  5
8D26
102
{ACAD_REACTORS
330
8D25
102
}
330
8D25
  0
SCALE
  5
93F1
102
{ACAD_REACTORS
330
93F0
102
}
330
93F0
100
AcDbScale
 70
     0
300
1:1
140
1.0
141
1.0
290
     1
  0
SCALE
  5
93F2
102
{ACAD_REACTORS
330
93F0
102
}
330
93F0
100
AcDbScale
 70
     0
300
1/128" = 1'-0"
140
0.0078125
141
12.0
290
     0
  0
SCALE
  5
93F3
102
{ACAD_REACTORS
330
93F0
102
}
330
93F0
100
AcDbScale
 70
     0
300
1/64" = 1'-0"
140
0.015625
141
12.0
290
     0
  0
SCALE
  5
93F4
102
{ACAD_REACTORS
330
93F0
102
}
330
93F0
100
AcDbScale
 70
     0
300
1/32" = 1'-0"
140
0.03125
141
12.0
290
     0
  0
SCALE
  5
93F5
102
{ACAD_REACTORS
330
93F0
102
}
330
93F0
100
AcDbScale
 70
     0
300
1/16" = 1'-0"
140
0.0625
141
12.0
290
     0
  0
SCALE
  5
93F6
102
{ACAD_REACTORS
330
93F0
102
}
330
93F0
100
AcDbScale
 70
     0
300
3/32" = 1'-0"
140
0.09375
141
12.0
290
     0
  0
SCALE
  5
93F7
102
{ACAD_REACTORS
330
93F0
102
}
330
93F0
100
AcDbScale
 70
     0
300
1/8" = 1'-0"
140
0.125
141
12.0
290
     0
  0
SCALE
  5
93F8
102
{ACAD_REACTORS
330
93F0
102
}
330
93F0
100
AcDbScale
 70
     0
300
3/16" = 1'-0"
140
0.1875
141
12.0
290
     0
  0
SCALE
  5
93F9
102
{ACAD_REACTORS
330
93F0
102
}
330
93F0
100
AcDbScale
 70
     0
300
1/4" = 1'-0"
140
0.25
141
12.0
290
     0
  0
SCALE
  5
93FA
102
{ACAD_REACTORS
330
93F0
102
}
330
93F0
100
AcDbScale
 70
     0
300
3/8" = 1'-0"
140
0.375
141
12.0
290
     0
  0
SCALE
  5
93FB
102
{ACAD_REACTORS
330
93F0
102
}
330
93F0
100
AcDbScale
 70
     0
300
1/2" = 1'-0"
140
0.5
141
12.0
290
     0
  0
SCALE
  5
93FC
102
{ACAD_REACTORS
330
93F0
102
}
330
93F0
100
AcDbScale
 70
     0
300
3/4" = 1'-0"
140
0.75
141
12.0
290
     0
  0
SCALE
  5
93FD
102
{ACAD_REACTORS
330
93F0
102
}
330
93F0
100
AcDbScale
 70
     0
300
1" = 1'-0"
140
1.0
141
12.0
290
     0
  0
SCALE
  5
93FE
102
{ACAD_REACTORS
330
93F0
102
}
330
93F0
100
AcDbScale
 70
     0
300
1-1/2" = 1'-0"
140
1.5
141
12.0
290
     0
  0
SCALE
  5
93FF
102
{ACAD_REACTORS
330
93F0
102
}
330
93F0
100
AcDbScale
 70
     0
300
3" = 1'-0"
140
3.0
141
12.0
290
     0
  0
SCALE
  5
9400
102
{ACAD_REACTORS
330
93F0
102
}
330
93F0
100
AcDbScale
 70
     0
300
6" = 1'-0"
140
6.0
141
12.0
290
     0
  0
SCALE
  5
9401
102
{ACAD_REACTORS
330
93F0
102
}
330
93F0
100
AcDbScale
 70
     0
300
1'-0" = 1'-0"
140
12.0
141
12.0
290
     0
  0
ACDBSECTIONVIEWSTYLE
  5
9405
102
{ACAD_XDICTIONARY
360
99B4
102
}
102
{ACAD_REACTORS
330
9404
102
}
330
9404
100
AcDbModelDocViewStyle
 70
     0
  3
Imperial24
290
     0
100
AcDbSectionViewStyle
 70
     0
 71
     0
 90
       78
 71
     1
340
8D28
 62
   256
 40
0.24
340
0
340
0
 62
   256
 40
0.24
300
I, O, Q, S, X, Z
 40
0.48
 90
        3
 40
0.18
 90
        1
 71
     2
340
8D2C
 90
       25
 62
   256
340
8D2C
 90
       50
 62
   256
 40
0.24
 40
0.0
 40
0.24
 71
     3
340
8D28
 62
   256
 40
0.24
 90
        1
 40
0.75
 90
        1
300
%<\AcVar ViewType \f "%tc1">% %<\AcVar ViewSectionStartId>%-%<\AcVar ViewSectionEndId>%\PSCALE %<\AcVar ViewScale \f "%sn">%
 71
     4
 62
   256
 62
   257
300
ANSI31
 40
1.0
 90
        0
290
     0
290
     0
 90
        6
 40
0.0
 40
1.570796326794896
 40
0.2617993877991494
 40
1.308996938995747
 40
-0.2617993877991494
 40
1.832595714594044
  0
TABLESTYLE
  5
93EF
102
{ACAD_XDICTIONARY
360
9427
102
}
102
{ACAD_REACTORS
330
93EE
102
}
330
93EE
100
AcDbTableStyle
  3
Standard
 70
     0
 71
     0
 40
0.06
 41
0.06
280
     0
281
     0
  7
STANDARD
140
0.18
170
     2
 62
     0
 63
     7
283
     0
274
    -2
284
     1
 64
     0
275
    -2
285
     1
 65
     0
276
    -2
286
     1
 66
     0
277
    -2
287
     1
 67
     0
278
    -2
288
     1
 68
     0
279
    -2
289
     1
 69
     0
  7
STANDARD
140
0.25
170
     5
 62
     0
 63
     7
283
     0
274
    -2
284
     1
 64
     0
275
    -2
285
     1
 65
     0
276
    -2
286
     1
 66
     0
277
    -2
287
     1
 67
     0
278
    -2
288
     1
 68
     0
279
    -2
289
     1
 69
     0
  7
STANDARD
140
0.18
170
     5
 62
     0
 63
     7
283
     0
274
    -2
284
     1
 64
     0
275
    -2
285
     1
 65
     0
276
    -2
286
     1
 66
     0
277
    -2
287
     1
 67
     0
278
    -2
288
     1
 68
     0
279
    -2
289
     1
 69
     0
  0
VISUALSTYLE
  5
93DA
102
{ACAD_XDICTIONARY
360
998D
102
}
102
{ACAD_REACTORS
330
93D4
102
}
330
93D4
100
AcDbVisualStyle
  2

 70
     4
 71
     0
 72
     2
 73
     0
 90
        0
 40
-0.6
 41
-30.0
 62
     5
 63
     7
421
 16777215
 74
     1
 91
        4
 64
     7
 65
   257
 75
     1
175
     1
 42
1.0
 92
        0
 66
   257
 43
1.0
 76
     1
 77
     6
 78
     2
 67
     7
 79
     5
170
     0
171
     0
290
     0
174
     0
 93
        1
 44
0.0
173
     0
291
     0
 45
0.0
1001
ACAD
1000
AcDbSavedByObjectVersion
1070
     0
  0
VISUALSTYLE
  5
93D9
102
{ACAD_XDICTIONARY
360
998B
102
}
102
{ACAD_REACTORS
330
93D4
102
}
330
93D4
100
AcDbVisualStyle
  2

 70
     7
 71
     1
 72
     0
 73
     1
 90
        0
 40
-0.6
 41
-30.0
 62
     5
 63
     7
421
 16777215
 74
     0
 91
        4
 64
     7
 65
   257
 75
     1
175
     1
 42
1.0
 92
        8
 66
     7
 43
1.0
 76
     1
 77
     6
 78
     2
 67
     7
 79
     5
170
     0
171
     0
290
     0
174
     0
 93
        1
 44
0.0
173
     0
291
     1
 45
0.0
1001
ACAD
1000
AcDbSavedByObjectVersion
1070
     0
  0
VISUALSTYLE
  5
93E0
102
{ACAD_XDICTIONARY
360
9999
102
}
102
{ACAD_REACTORS
330
93D4
102
}
330
93D4
100
AcDbVisualStyle
  2

 70
    12
 71
     2
 72
     2
 73
     0
 90
        0
 40
-0.6
 41
-30.0
 62
     5
 63
     7
421
 16777215
 74
     1
 91
        4
 64
     7
 65
   257
 75
     1
175
     1
 42
1.0
 92
        8
 66
     7
 43
1.0
 76
     1
 77
     6
 78
     2
 67
     7
 79
     5
170
     0
171
     0
290
     0
174
     0
 93
        1
 44
50.0
173
     0
291
     1
 45
0.0
1001
ACAD
1000
AcDbSavedByObjectVersion
1070
     0
  0
VISUALSTYLE
  5
93E4
102
{ACAD_XDICTIONARY
360
99A1
102
}
102
{ACAD_REACTORS
330
93D4
102
}
330
93D4
100
AcDbVisualStyle
  2

 70
    16
 71
     2
 72
     2
 73
     3
 90
        0
 40
-0.6
 41
-30.0
 62
     5
 63
     8
421
  8421504
 74
     1
 91
        4
 64
     7
 65
   257
 75
     1
175
     1
 42
1.0
 92
        8
 66
     8
424
  8421504
 43
1.0
 76
     1
 77
     6
 78
     2
 67
     7
 79
     5
170
     0
171
     0
290
     0
174
     0
 93
        1
 44
0.0
173
     0
291
     1
 45
0.0
1001
ACAD
1000
AcDbSavedByObjectVersion
1070
     0
  0
VISUALSTYLE
  5
93DD
102
{ACAD_XDICTIONARY
360
9993
102
}
102
{ACAD_REACTORS
330
93D4
102
}
330
93D4
100
AcDbVisualStyle
  2

 70
     9
 71
     3
 72
     2
 73
     0
 90
        0
 40
-0.6
 41
-30.0
 62
     5
 63
     7
421
 16777215
 74
     2
 91
        2
 64
     7
 65
   257
 75
     1
175
     1
 42
179.0
 92
        8
 66
     7
 43
1.0
 76
     1
 77
     6
 78
     2
 67
     7
 79
     3
170
     0
171
     0
290
     0
174
     0
 93
        1
 44
0.0
173
     0
291
     0
 45
0.0
1001
ACAD
1000
AcDbSavedByObjectVersion
1070
     0
  0
VISUALSTYLE
  5
93DF
102
{ACAD_XDICTIONARY
360
9997
102
}
102
{ACAD_REACTORS
330
93D4
102
}
330
93D4
100
AcDbVisualStyle
  2

 70
    11
 71
     2
 72
     2
 73
     0
 90
        0
 40
-0.6
 41
-30.0
 62
     5
 63
     7
421
 16777215
 74
     1
 91
        4
 64
     7
 65
   257
 75
     1
175
     1
 42
1.0
 92
        8
 66
     7
 43
1.0
 76
     1
 77
     6
 78
     2
 67
     7
 79
     5
170
     0
171
     0
290
     0
174
     0
 93
        1
 44
-50.0
173
     0
291
     1
 45
0.0
1001
ACAD
1000
AcDbSavedByObjectVersion
1070
     0
  0
VISUALSTYLE
  5
93EC
102
{ACAD_XDICTIONARY
360
99B1
102
}
102
{ACAD_REACTORS
330
93D4
102
}
330
93D4
100
AcDbVisualStyle
  2

 70
    22
 71
     2
 72
     2
 73
     0
 90
        0
 40
-0.6
 41
-30.0
 62
     5
 63
     7
421
 16777215
 74
     1
 91
        4
 64
     7
 65
   257
 75
     1
175
     1
 42
1.0
 92
        8
 66
     7
 43
1.0
 76
     1
 77
     6
 78
     2
 67
     7
 79
     5
170
     0
171
     0
290
     0
174
     0
 93
        1
 44
0.0
173
     0
291
     1
 45
0.0
1001
ACAD
1000
AcDbSavedByObjectVersion
1070
     0
  0
VISUALSTYLE
  5
93E3
102
{ACAD_XDICTIONARY
360
999F
102
}
102
{ACAD_REACTORS
330
93D4
102
}
330
93D4
100
AcDbVisualStyle
  2

 70
    15
 71
     2
 72
     2
 73
     0
 90
        0
 40
-0.6
 41
-30.0
 62
     5
 63
     7
421
 16777215
 74
     1
 91
        4
 64
     7
 65
   257
 75
     1
175
     1
 42
1.0
 92
        8
 66
     7
 43
1.0
 76
     1
 77
     6
 78
     2
 67
     7
 79
     5
170
     0
171
     0
290
     0
174
     0
 93
        1
 44
0.0
173
     0
291
     1
 45
0.0
1001
ACAD
1000
AcDbSavedByObjectVersion
1070
     0
  0
VISUALSTYLE
  5
93D5
102
{ACAD_XDICTIONARY
360
9983
102
}
102
{ACAD_REACTORS
330
93D4
102
}
330
93D4
100
AcDbVisualStyle
  2

 70
     0
 71
     2
 72
     1
 73
     1
 90
        2
 40
-0.6
 41
30.0
 62
     5
 63
     7
421
 16777215
 74
     0
 91
        0
 64
     7
 65
   257
 75
     1
175
     1
 42
1.0
 92
        8
 66
     7
 43
1.0
 76
     1
 77
     6
 78
     2
 67
     7
 79
     5
170
     0
171
     0
290
     0
174
     0
 93
       13
 44
0.0
173
     0
291
     1
 45
0.0
1001
ACAD
1000
AcDbSavedByObjectVersion
1070
     0
  0
VISUALSTYLE
  5
93D6
102
{ACAD_XDICTIONARY
360
9985
102
}
102
{ACAD_REACTORS
330
93D4
102
}
330
93D4
100
AcDbVisualStyle
  2

 70
     1
 71
     2
 72
     1
 73
     1
 90
        2
 40
-0.6
 41
30.0
 62
     5
 63
     7
421
 16777215
 74
     1
 91
        0
 64
     7
 65
   257
 75
     1
175
     1
 42
1.0
 92
        0
 66
   257
 43
1.0
 76
     1
 77
     6
 78
     2
 67
     7
 79
     5
170
     0
171
     0
290
     0
174
     0
 93
       13
 44
0.0
173
     0
291
     1
 45
0.0
1001
ACAD
1000
AcDbSavedByObjectVersion
1070
     0
  0
VISUALSTYLE
  5
93D7
102
{ACAD_XDICTIONARY
360
9987
102
}
102
{ACAD_REACTORS
330
93D4
102
}
330
93D4
100
AcDbVisualStyle
  2

 70
     2
 71
     2
 72
     2
 73
     1
 90
        2
 40
-0.6
 41
30.0
 62
     5
 63
     7
421
 16777215
 74
     0
 91
        0
 64
     7
 65
   257
 75
     1
175
     1
 42
1.0
 92
        0
 66
     7
 43
1.0
 76
     1
 77
     6
 78
     2
 67
     7
 79
     5
170
     0
171
     0
290
     0
174
     0
 93
       13
 44
0.0
173
     0
291
     1
 45
0.0
1001
ACAD
1000
AcDbSavedByObjectVersion
1070
     0
  0
VISUALSTYLE
  5
93D8
102
{ACAD_XDICTIONARY
360
9989
102
}
102
{ACAD_REACTORS
330
93D4
102
}
330
93D4
100
AcDbVisualStyle
  2

 70
     3
 71
     2
 72
     2
 73
     1
 90
        2
 40
-0.6
 41
30.0
 62
     5
 63
     7
421
 16777215
 74
     1
 91
        0
 64
     7
 65
   257
 75
     1
175
     1
 42
1.0
 92
        0
 66
   257
 43
1.0
 76
     1
 77
     6
 78
     2
 67
     7
 79
     5
170
     0
171
     0
290
     0
174
     0
 93
       13
 44
0.0
173
     0
291
     1
 45
0.0
1001
ACAD
1000
AcDbSavedByObjectVersion
1070
     0
  0
VISUALSTYLE
  5
93DC
102
{ACAD_XDICTIONARY
360
9991
102
}
102
{ACAD_REACTORS
330
93D4
102
}
330
93D4
100
AcDbVisualStyle
  2

 70
     6
 71
     1
 72
     2
 73
     2
 90
        0
 40
-0.6
 41
-30.0
 62
     5
 63
     7
421
 16777215
 74
     2
 91
        2
 64
     7
 65
   257
 75
     2
175
     1
 42
40.0
 92
        0
 66
   257
 43
1.0
 76
     1
 77
     6
 78
     2
 67
     7
 79
     3
170
     0
171
     0
290
     0
174
     0
 93
        1
 44
0.0
173
     0
291
     0
 45
0.0
1001
ACAD
1000
AcDbSavedByObjectVersion
1070
     0
  0
VISUALSTYLE
  5
93EA
102
{ACAD_XDICTIONARY
360
99AD
102
}
102
{ACAD_REACTORS
330
93D4
102
}
330
93D4
100
AcDbVisualStyle
  2

 70
    20
 71
     2
 72
     2
 73
     0
 90
        0
 40
-0.6
 41
-30.0
 62
     5
 63
     7
421
 16777215
 74
     1
 91
        4
 64
     7
 65
   257
 75
     1
175
     1
 42
1.0
 92
       10
 66
     7
 43
1.0
 76
     1
 77
     6
 78
     2
 67
     7
 79
     5
170
     0
171
     0
290
     0
174
     0
 93
        1
 44
0.0
173
     0
291
     1
 45
0.0
1001
ACAD
1000
AcDbSavedByObjectVersion
1070
     0
  0
VISUALSTYLE
  5
93E2
102
{ACAD_XDICTIONARY
360
999D
102
}
102
{ACAD_REACTORS
330
93D4
102
}
330
93D4
100
AcDbVisualStyle
  2

 70
    14
 71
     2
 72
     2
 73
     0
 90
        0
 40
-0.6
 41
-30.0
 62
     5
 63
     7
421
 16777215
 74
     1
 91
        4
 64
     7
 65
   257
 75
     7
175
     7
 42
1.0
 92
        8
 66
     7
 43
1.0
 76
     1
 77
     6
 78
     2
 67
     7
 79
     5
170
     0
171
     0
290
     0
174
     0
 93
        1
 44
0.0
173
     0
291
     1
 45
0.0
1001
ACAD
1000
AcDbSavedByObjectVersion
1070
     0
  0
VISUALSTYLE
  5
93EB
102
{ACAD_XDICTIONARY
360
99AF
102
}
102
{ACAD_REACTORS
330
93D4
102
}
330
93D4
100
AcDbVisualStyle
  2

 70
    21
 71
     2
 72
     2
 73
     0
 90
        0
 40
-0.6
 41
-30.0
 62
     5
 63
     7
421
 16777215
 74
     1
 91
        4
 64
     7
 65
   257
 75
     1
175
     1
 42
1.0
 92
        9
 66
     7
 43
1.0
 76
     1
 77
     6
 78
     2
 67
     7
 79
     5
170
     0
171
     0
290
     0
174
     0
 93
        1
 44
0.0
173
     0
291
     1
 45
0.0
1001
ACAD
1000
AcDbSavedByObjectVersion
1070
     0
  0
VISUALSTYLE
  5
93DE
102
{ACAD_XDICTIONARY
360
9995
102
}
102
{ACAD_REACTORS
330
93D4
102
}
330
93D4
100
AcDbVisualStyle
  2

 70
     8
 71
     2
 72
     3
 73
     0
 90
        2
 40
-0.6
 41
30.0
 62
     5
 63
     7
421
 16777215
 74
     0
 91
        0
 64
     7
 65
   257
 75
     1
175
     1
 42
1.0
 92
        8
 66
   257
 43
1.0
 76
     1
 77
     6
 78
     2
 67
     7
 79
     3
170
     0
171
     0
290
     0
174
     0
 93
       13
 44
0.0
173
     0
291
     0
 45
0.0
1001
ACAD
1000
AcDbSavedByObjectVersion
1070
     0
  0
VISUALSTYLE
  5
93E9
102
{ACAD_XDICTIONARY
360
99AB
102
}
102
{ACAD_REACTORS
330
93D4
102
}
330
93D4
100
AcDbVisualStyle
  2

 70
    27
 71
     2
 72
     2
 73
     1
 90
        2
 40
-0.6
 41
30.0
 62
     5
 63
     7
421
 16777215
 74
     0
 91
        4
 64
     7
 65
   257
 75
     1
175
     1
 42
1.0
 92
        8
 66
   257
 43
1.0
 76
     1
 77
     6
 78
     2
 67
     8
425
  7895160
 79
     3
170
     0
171
     0
290
     0
174
     0
 93
        5
 44
0.0
173
     0
291
     0
 45
0.0
1001
ACAD
1000
AcDbSavedByObjectVersion
1070
     0
  0
VISUALSTYLE
  5
93E8
102
{ACAD_XDICTIONARY
360
99A9
102
}
102
{ACAD_REACTORS
330
93D4
102
}
330
93D4
100
AcDbVisualStyle
  2

 70
    26
 71
     2
 72
     2
 73
     1
 90
        2
 40
-0.6
 41
30.0
 62
     5
 63
     7
421
 16777215
 74
     1
 91
        2
 64
     7
 65
   257
 75
     2
175
     1
 42
1.0
 92
        8
 66
   257
 43
1.0
 76
     1
 77
     6
 78
     2
 67
     7
 79
     3
170
     0
171
     0
290
     0
174
     0
 93
        5
 44
0.0
173
     0
291
     0
 45
0.0
1001
ACAD
1000
AcDbSavedByObjectVersion
1070
     0
  0
VISUALSTYLE
  5
93E5
102
{ACAD_XDICTIONARY
360
99A3
102
}
102
{ACAD_REACTORS
330
93D4
102
}
330
93D4
100
AcDbVisualStyle
  2

 70
    23
 71
     2
 72
     2
 73
     3
 90
        0
 40
-0.6
 41
-30.0
 62
     5
 63
     7
421
 16777215
 74
     2
 91
        2
 64
     7
 65
     7
 75
     1
175
     1
 42
40.0
 92
        8
 66
     7
 43
1.0
 76
     1
 77
     6
 78
     2
 67
     7
 79
     3
170
     0
171
     0
290
     0
174
     0
 93
        1
 44
0.0
173
     0
291
     0
 45
0.0
1001
ACAD
1000
AcDbSavedByObjectVersion
1070
     0
  0
VISUALSTYLE
  5
93E6
102
{ACAD_XDICTIONARY
360
99A5
102
}
102
{ACAD_REACTORS
330
93D4
102
}
330
93D4
100
AcDbVisualStyle
  2

 70
    24
 71
     1
 72
     2
 73
     2
 90
        0
 40
-0.6
 41
-30.0
 62
     5
 63
     7
421
 16777215
 74
     2
 91
        2
 64
     7
 65
     7
 75
     1
175
     1
 42
40.0
 92
       11
 66
     7
 43
1.0
 76
     1
 77
     6
 78
     2
 67
     7
 79
     6
170
     0
171
     0
290
     0
174
     0
 93
        1
 44
0.0
173
     0
291
     0
 45
0.0
1001
ACAD
1000
AcDbSavedByObjectVersion
1070
     0
  0
VISUALSTYLE
  5
93E1
102
{ACAD_XDICTIONARY
360
999B
102
}
102
{ACAD_REACTORS
330
93D4
102
}
330
93D4
100
AcDbVisualStyle
  2

 70
    13
 71
     2
 72
     2
 73
     0
 90
        0
 40
-0.6
 41
-30.0
 62
     5
 63
     7
421
 16777215
 74
     1
 91
        4
 64
     7
 65
   257
 75
     1
175
     1
 42
1.0
 92
       12
 66
     7
 43
1.0
 76
     1
 77
     6
 78
     2
 67
     7
 79
     5
170
     0
171
     0
290
     0
174
     0
 93
        1
 44
0.0
173
     0
291
     1
 45
0.0
1001
ACAD
1000
AcDbSavedByObjectVersion
1070
     0
  0
VISUALSTYLE
  5
93DB
102
{ACAD_XDICTIONARY
360
998F
102
}
102
{ACAD_REACTORS
330
93D4
102
}
330
93D4
100
AcDbVisualStyle
  2

 70
     5
 71
     0
 72
     2
 73
     0
 90
        0
 40
-0.6
 41
-30.0
 62
     5
 63
     7
421
 16777215
 74
     1
 91
        4
 64
     7
 65
   257
 75
     1
175
     1
 42
1.0
 92
        0
 66
   257
 43
1.0
 76
     1
 77
     6
 78
     2
 67
     7
 79
     3
170
     0
171
     0
290
     0
174
     0
 93
        1
 44
0.0
173
     0
291
     0
 45
0.0
1001
ACAD
1000
AcDbSavedByObjectVersion
1070
     0
  0
VISUALSTYLE
  5
93E7
102
{ACAD_XDICTIONARY
360
99A7
102
}
102
{ACAD_REACTORS
330
93D4
102
}
330
93D4
100
AcDbVisualStyle
  2

 70
    25
 71
     2
 72
     2
 73
     1
 90
        1
 40
0.5
 41
-30.0
 62
     5
 63
     7
421
 16777215
 74
     1
 91
        0
 64
     7
 65
   257
 75
     1
175
     1
 42
1.0
 92
        8
 66
     7
 43
1.0
 76
     1
 77
     6
 78
     2
 67
     7
 79
     3
170
     0
171
     0
290
     0
174
     0
 93
       13
 44
0.0
173
     0
291
     0
 45
0.0
1001
ACAD
1000
AcDbSavedByObjectVersion
1070
     0
  0
DICTIONARYVAR
  5
9421
102
{ACAD_REACTORS
330
941B
102
}
330
941B
100
DictionaryVariables
280
     0
  1
1:1
  0
DICTIONARYVAR
  5
941D
102
{ACAD_REACTORS
330
941B
102
}
330
941B
100
DictionaryVariables
280
     0
  1
STANDARD
  0
DICTIONARYVAR
  5
941C
102
{ACAD_REACTORS
330
941B
102
}
330
941B
100
DictionaryVariables
280
     0
  1
STANDARD
  0
DICTIONARYVAR
  5
941E
102
{ACAD_REACTORS
330
941B
102
}
330
941B
100
DictionaryVariables
280
     0
  1
Imperial24
  0
DICTIONARYVAR
  5
941F
102
{ACAD_REACTORS
330
941B
102
}
330
941B
100
DictionaryVariables
280
     0
  1
Imperial24
  0
DICTIONARYVAR
  5
9423
102
{ACAD_REACTORS
330
941B
102
}
330
941B
100
DictionaryVariables
280
     0
  1
1
  0
DICTIONARYVAR
  5
9424
102
{ACAD_REACTORS
330
941B
102
}
330
941B
100
DictionaryVariables
280
     0
  1
15
  0
DICTIONARYVAR
  5
9422
102
{ACAD_REACTORS
330
941B
102
}
330
941B
100
DictionaryVariables
280
     0
  1
0
  0
DICTIONARYVAR
  5
997E
102
{ACAD_REACTORS
330
941B
102
}
330
941B
100
DictionaryVariables
280
     0
  1
1.570796
  0
DICTIONARYVAR
  5
997F
102
{ACAD_REACTORS
330
941B
102
}
330
941B
100
DictionaryVariables
280
     0
  1
1.570796
  0
DICTIONARYVAR
  5
9420
102
{ACAD_REACTORS
330
941B
102
}
330
941B
100
DictionaryVariables
280
     0
  1
0
  0
DICTIONARYVAR
  5
9980
102
{ACAD_REACTORS
330
941B
102
}
330
941B
100
DictionaryVariables
280
     0
  1
2
  0
DICTIONARY
  5
99B6
330
9407
100
AcDbDictionary
280
     1
281
     1
  3
ACAD_XREC_ROUNDTRIP
360
99B7
  0
DICTIONARY
  5
93C5
330
93C4
100
AcDbDictionary
280
     1
281
     1
  3
ACAD_XREC_ROUNDTRIP
360
9470
  3
BUMPTILE
360
93C7
  3
DIFFUSETILE
360
93C6
  3
OPACITYTILE
360
93CA
  3
REFLECTIONTILE
360
93C9
  3
REFRACTIONTILE
360
93CB
  3
SPECULARTILE
360
93C8
  0
DICTIONARY
  5
93BD
330
93BC
100
AcDbDictionary
280
     1
281
     1
  3
ACAD_XREC_ROUNDTRIP
360
946F
  3
BUMPTILE
360
93BF
  3
DIFFUSETILE
360
93BE
  3
OPACITYTILE
360
93C2
  3
REFLECTIONTILE
360
93C1
  3
REFRACTIONTILE
360
93C3
  3
SPECULARTILE
360
93C0
  0
DICTIONARY
  5
93CD
330
93CC
100
AcDbDictionary
280
     1
281
     1
  3
ACAD_XREC_ROUNDTRIP
360
9471
  3
BUMPTILE
360
93CF
  3
DIFFUSETILE
360
93CE
  3
FBXASSET
360
98BA
  3
OPACITYTILE
360
93D2
  3
REFLECTIONTILE
360
93D1
  3
REFRACTIONTILE
360
93D3
  3
SPECULARTILE
360
93D0
  0
DICTIONARY
  5
99B4
330
9405
100
AcDbDictionary
280
     1
281
     1
  3
ACAD_XREC_ROUNDTRIP
360
99B5
  0
DICTIONARY
  5
9427
330
93EF
100
AcDbDictionary
280
     1
281
     1
  3
ACAD_ROUNDTRIP_2008_TABLESTYLE_CELLSTYLEMAP
360
9981
  3
ACAD_XREC_ROUNDTRIP
360
99B3
  0
DICTIONARY
  5
998D
330
93DA
100
AcDbDictionary
280
     1
281
     1
  3
ACAD_XREC_ROUNDTRIP
360
998E
  0
DICTIONARY
  5
998B
330
93D9
100
AcDbDictionary
280
     1
281
     1
  3
ACAD_XREC_ROUNDTRIP
360
998C
  0
DICTIONARY
  5
9999
330
93E0
100
AcDbDictionary
280
     1
281
     1
  3
ACAD_XREC_ROUNDTRIP
360
999A
  0
DICTIONARY
  5
99A1
330
93E4
100
AcDbDictionary
280
     1
281
     1
  3
ACAD_XREC_ROUNDTRIP
360
99A2
  0
DICTIONARY
  5
9993
330
93DD
100
AcDbDictionary
280
     1
281
     1
  3
ACAD_XREC_ROUNDTRIP
360
9994
  0
DICTIONARY
  5
9997
330
93DF
100
AcDbDictionary
280
     1
281
     1
  3
ACAD_XREC_ROUNDTRIP
360
9998
  0
DICTIONARY
  5
99B1
330
93EC
100
AcDbDictionary
280
     1
281
     1
  3
ACAD_XREC_ROUNDTRIP
360
99B2
  0
DICTIONARY
  5
999F
330
93E3
100
AcDbDictionary
280
     1
281
     1
  3
ACAD_XREC_ROUNDTRIP
360
99A0
  0
DICTIONARY
  5
9983
330
93D5
100
AcDbDictionary
280
     1
281
     1
  3
ACAD_XREC_ROUNDTRIP
360
9984
  0
DICTIONARY
  5
9985
330
93D6
100
AcDbDictionary
280
     1
281
     1
  3
ACAD_XREC_ROUNDTRIP
360
9986
  0
DICTIONARY
  5
9987
330
93D7
100
AcDbDictionary
280
     1
281
     1
  3
ACAD_XREC_ROUNDTRIP
360
9988
  0
DICTIONARY
  5
9989
330
93D8
100
AcDbDictionary
280
     1
281
     1
  3
ACAD_XREC_ROUNDTRIP
360
998A
  0
DICTIONARY
  5
9991
330
93DC
100
AcDbDictionary
280
     1
281
     1
  3
ACAD_XREC_ROUNDTRIP
360
9992
  0
DICTIONARY
  5
99AD
330
93EA
100
AcDbDictionary
280
     1
281
     1
  3
ACAD_XREC_ROUNDTRIP
360
99AE
  0
DICTIONARY
  5
999D
330
93E2
100
AcDbDictionary
280
     1
281
     1
  3
ACAD_XREC_ROUNDTRIP
360
999E
  0
DICTIONARY
  5
99AF
330
93EB
100
AcDbDictionary
280
     1
281
     1
  3
ACAD_XREC_ROUNDTRIP
360
99B0
  0
DICTIONARY
  5
9995
330
93DE
100
AcDbDictionary
280
     1
281
     1
  3
ACAD_XREC_ROUNDTRIP
360
9996
  0
DICTIONARY
  5
99AB
330
93E9
100
AcDbDictionary
280
     1
281
     1
  3
ACAD_XREC_ROUNDTRIP
360
99AC
  0
DICTIONARY
  5
99A9
330
93E8
100
AcDbDictionary
280
     1
281
     1
  3
ACAD_XREC_ROUNDTRIP
360
99AA
  0
DICTIONARY
  5
99A3
330
93E5
100
AcDbDictionary
280
     1
281
     1
  3
ACAD_XREC_ROUNDTRIP
360
99A4
  0
DICTIONARY
  5
99A5
330
93E6
100
AcDbDictionary
280
     1
281
     1
  3
ACAD_XREC_ROUNDTRIP
360
99A6
  0
DICTIONARY
  5
999B
330
93E1
100
AcDbDictionary
280
     1
281
     1
  3
ACAD_XREC_ROUNDTRIP
360
999C
  0
DICTIONARY
  5
998F
330
93DB
100
AcDbDictionary
280
     1
281
     1
  3
ACAD_XREC_ROUNDTRIP
360
9990
  0
DICTIONARY
  5
99A7
330
93E7
100
AcDbDictionary
280
     1
281
     1
  3
ACAD_XREC_ROUNDTRIP
360
99A8
  0
XRECORD
  5
99B7
102
{ACAD_REACTORS
330
99B6
102
}
330
99B6
100
AcDbXrecord
280
     1
102
DISPLAYNAME
  1
Imperial24
102
FLAGS
 90
        0
  0
XRECORD
  5
9470
102
{ACAD_REACTORS
330
93C5
102
}
330
93C5
100
AcDbXrecord
280
     1
102
MATERIAL
148
0.0
149
0.0
149
0.0
 93
        0
 94
      127
282
     0
 72
     0
 77
     0
171
     0
175
     0
179
     0
273
     0
  0
XRECORD
  5
93C7
102
{ACAD_REACTORS
330
93C5
102
}
330
93C5
100
AcDbXrecord
280
     1
270
     1
271
     1
  0
XRECORD
  5
93C6
102
{ACAD_REACTORS
330
93C5
102
}
330
93C5
100
AcDbXrecord
280
     1
270
     1
271
     1
  0
XRECORD
  5
93CA
102
{ACAD_REACTORS
330
93C5
102
}
330
93C5
100
AcDbXrecord
280
     1
270
     1
271
     1
  0
XRECORD
  5
93C9
102
{ACAD_REACTORS
330
93C5
102
}
330
93C5
100
AcDbXrecord
280
     1
270
     1
271
     1
  0
XRECORD
  5
93CB
102
{ACAD_REACTORS
330
93C5
102
}
330
93C5
100
AcDbXrecord
280
     1
270
     1
271
     1
  0
XRECORD
  5
93C8
102
{ACAD_REACTORS
330
93C5
102
}
330
93C5
100
AcDbXrecord
280
     1
270
     1
271
     1
  0
XRECORD
  5
946F
102
{ACAD_REACTORS
330
93BD
102
}
330
93BD
100
AcDbXrecord
280
     1
102
MATERIAL
148
0.0
149
0.0
149
0.0
 93
        0
 94
      127
282
     0
 72
     0
 77
     0
171
     0
175
     0
179
     0
273
     0
  0
XRECORD
  5
93BF
102
{ACAD_REACTORS
330
93BD
102
}
330
93BD
100
AcDbXrecord
280
     1
270
     1
271
     1
  0
XRECORD
  5
93BE
102
{ACAD_REACTORS
330
93BD
102
}
330
93BD
100
AcDbXrecord
280
     1
270
     1
271
     1
  0
XRECORD
  5
93C2
102
{ACAD_REACTORS
330
93BD
102
}
330
93BD
100
AcDbXrecord
280
     1
270
     1
271
     1
  0
XRECORD
  5
93C1
102
{ACAD_REACTORS
330
93BD
102
}
330
93BD
100
AcDbXrecord
280
     1
270
     1
271
     1
  0
XRECORD
  5
93C3
102
{ACAD_REACTORS
330
93BD
102
}
330
93BD
100
AcDbXrecord
280
     1
270
     1
271
     1
  0
XRECORD
  5
93C0
102
{ACAD_REACTORS
330
93BD
102
}
330
93BD
100
AcDbXrecord
280
     1
270
     1
271
     1
  0
XRECORD
  5
9471
102
{ACAD_REACTORS
330
93CD
102
}
330
93CD
100
AcDbXrecord
280
     1
102
MATERIAL
148
0.0
149
0.0
149
0.0
 93
        0
 94
      127
282
     0
 72
     0
 77
     0
171
     0
175
     0
179
     0
273
     0
  0
XRECORD
  5
93CF
102
{ACAD_REACTORS
330
93CD
102
}
330
93CD
100
AcDbXrecord
280
     1
270
     1
271
     1
  0
XRECORD
  5
93CE
102
{ACAD_REACTORS
330
93CD
102
}
330
93CD
100
AcDbXrecord
280
     1
270
     1
271
     1
  0
XRECORD
  5
98BA
102
{ACAD_REACTORS
330
93CD
102
}
330
93CD
100
AcDbXrecord
280
     1
 70
     1
 90
652598616
 71
     1
  1
EB9BC956-9019-4CD4-8E01-9D2BE95DF0BE
311
504B03041400060808005D7A3851502777840F010000A80100004F00000039433536423636332D314546462D344541392D384444432D3636453245363644363039412F4173736574446174612F446566696E6974696F6E4974657261746F7250726F706572746965732E62696E75504D4BC430108D828AB042057F8007AF31
311
4D3FD246106D9AC49317FD0192AD71B7906D974D8BD73DFAAF75B256581407DECCE4CD64E6311F08A1CFC9204507802DF833880FB6B39BB6796E967665D071605C3F37EE0A3251D2ACCA8B14175A0B9C15926291E81AD3BC2E75AA689EB0EC10FA4E00D2BE99D10D61E463EB1BEB9CE96C3FFA7320A61D972B33C02EE3AEC3
311
A7538442D802D04FC187498B6F4541E43BC0BCAE6FEE8CF776B825BCCE99602CC554698D3355715C4A5963C654A218932CE61579B2BE1F378DF544092E6A9E33CC63CA7156CB0C972AA698CB44289E4B1D0B4586E5184E731164CC3BD33A129349C2CBBA5B00FDC7F66FB95FBC8747059845B31D1D4547BBF89FFB3DE70B50
311
4B03041400060808005D7A3851C584A93A0E010000300200004500000039433536423636332D314546462D344541392D384444432D3636453245363644363039412F4173736574446174612F496E7374616E636550726F706572746965732E62696EEB606060F80F0540260323103700495E20ED9E9A975A94991C9C9C919A
311
9BA802147075B27472B63435D3B53430B4D435717631D1B5703530D4B574317272B5347571337072654768046931363471713532B5D435353131D635313332D475727372D13534373670367376B67474B5042A03DBCBA019D37FE8ABC6157B20CD04146B0062181F4C03F940F0C11EA29A8141C08141002C0426541C106CAC
311
2CA046088033B02A030AC2157C6006F21A8018AAF50194E6010A610250382264E08660284CD9E98021862280A91564B406929A0FF62C401E28B6F88038B83CB1243943D7A928312F2535052423F16C65E68F7AA04F9E42E80B507A03949E00A50BA07400943680D20250FAC313A87E280D00504B03041400060808005D7A38
311
5188E57597CD3F0000904100006B00000039433536423636332D314546462D344541392D384444432D3636453245363644363039412F5265736F75726365732F45423942433935362D393031392D344344342D384530312D3944324245393544463042452F7468756D626E61696C2F302F67656E657269635F706E67355B77
311
3CD4FF1FBF73E71C0E67EF7576C9DEF3EC995D46C6A1EC5046649CBDF79E192942562825CE965D8A868C2842C8DE9FDFD1F7E7F138F7078FCF6B3F5FCFD7EBFDFEC41B196891913091804020321D6D7513FC77D8C5070EC3FFEE51B21F068154CC75D455CC028A3EA68992803810109FDDE5D5CEC5521B28A1B422BF807416
311
95D5B529DA1C2D058AD2388BDA9F476F7C2CADC939304173DBF48A452BF8A700C0C70C3D121C1AA15A5270C22E2B9E28763651F7DA0D12CE11077B2ECD0D560B5E3DE2368B1E65C5E1C87384A4CC5F2D9FB8BE39E9B77C753783A37998F5CEF1B4FEE553463245C9712270880DF339E0B882A6BA713D865F6F384C842D4409
311
34EF264F4A304F8DE4EEFA1E2BF5E2D91F5ADD9613D6E31DDB33ED31DB1D7916CAF091286EA3D31B9CFECB78BB0060245B943C4C040119FF780A74DD308BA9D028678674EB5504ECF284EE814DAED07440BAF649BE4B55DA2890F4D73E2D489A59EE54FDB0A85B59F2F52C4858A02705C4815A792B0C4A996A2023ECB19507
311
3E115E3E3647F64243A8338F2000BCB58DA5692C7E7C3D413F963FEDF3CF00FBB0F831A9D51360FECA43819F527B89FA260EB63C5DA676830AA3626A3693B23F1A17A0DFFCE3EE164E31B5365EDF0C89EF64D8E38AB0BA9A1117D7C3A0EC44F44F4023095E80BA610DE336D0F99593A88BFC5306E72DF98F7FD132ED95878D
311
F2964EA7E43071359FD83B2BDF9C6B5BDF768F0F3C0FC351199526F53D9460A34511F75D1B63E488178569472C91A94497807A3FD4A390C6558F26D416365C3656DE6E769DA9D8FC73774E1709812842DD8EF96AED1960F79D21B395CDDFE6F92CB4EB962A4668C76990E2EF29798C8941D67DA50F4A5F947872460F1F6FDB
311
794E8A29FD7AC0C0D6E0714339CE258FB17AE8535221E3464A10F29A0BE5EEECEFC5675926A89F49EB14E5711894F6586DB5754EB4D5DA9C6437EBA57DB97A24F8B8A8DB295FFD73266CF57E82694DF5166DDF93573AFE9C9C5EB05F8FEF8E89E0A8917B0B3724DB7BEBB53252581EFC3E38166BA131A3A5B42FE2AD00A769
311
BBFA4458D2DE7822F8C4F63D0B8E21B285AE13325F3410A435C648C9D91FDEB109E73CEDA7BC796961AF79175E1A3CE4C5E8B0D009B0C9E29EFD98BC8E97554E3D8D838424E270F7685226E5AC268E021EDE3522D583E8F20C0BDE2959EF5BBFEEDAB32FE9A3ED0E39F211A86AA9DEBFC68182EDED132AB8BB794442D2D7EA
311
9F4D8BFF52BC4D55BB165124EE90A42D101E67BBBB292FFB4F66DE5BF2300E44546757DA7CEF8932BFC9F92A0707953491A55C5A5ACEDABD9FA1AEA01BAC3DC5A24E22E7C47213493996EFBC369D086ED9397C9BA6C7F9855C7BD5E15BFC8C53DB3D2A4C5901A57ACD2FBDF4D1676E95338B2C2BCE65FDA4C64F5FEFDC7D9C
311
A5AA1FCF11E193F2FDABF0F4916BF13FB916A224380E6462A9815F2300DC49CC4DF8D055CEF76462F4B7A7ACA7365C2707891370BC1D0AA6203C44CCAB47084FEC057F27FFCD57F89B8B9852459798A675C66BD7CE572CAF71FF7E6D7ECF7BF62CAB7B3F1107DCD04DC55A3F9961700286141C94A4F771FEB2BCDA2DDEE0CB
311
0BAE402FF1DB0100F8E475DFFFC074DDB4498AB7D186A7654DDB1CB680D703D47CEB4E72F8CB13D86A4AA68116E26387B93FD6738779B34FEDB8E517EDF2BAF28D9BE93A1D3A164320E07D42E514725C29515FF361754213EDE06B079A2E99EB1CA82A02019EADEEB87B9AF005BD04BBCECB14AACD6B24EFBE482194A97DD3
311
2400685FF1FEF1544D1B14EFB1E7F08E6D2CD2AF52DE757F35F5E62332EE88EA26417AD5C3E0E319D68F25414E6D672BD4522B278C57D18F0113921C71D96527E091F00CEB15AE23D24667369BD3CEFA10C7549D930890BA4366F4EBC55F01F746109F98ABCDD5A3EE06619C6AD78AB33E48E4C9BD21BF7478B385EC05C4F8
311
987E2C1BFA0A60EBEDAA0AE0B015C2720ECE180FB6F2DEFBEB822D96338C9B63822183BBF52FB664A7AE57003AABCE512BF77E7E31BDA2E739AC4C131657DDFE5225E900FB56CC01CDE808FA4A9C9DA16AC679656BB64796283D89812B8F91136AE18EE5EBBAF47A73BE3C153EB5D4CD491B4BFB4FE690A4CF9ABA08C0D8AA
311
64220C438C96EA6CA80B58FE5761E697B3A292EB9FBDA502FA863E49FE694ADDFFF9D62C520BDD1A22014147A0903A05B9B729F54272EF83931FEEC057BFF8C8055C279EAC5C0011804828734024F6CFA319C9CC6867C727184465CD9BB7ED386AFFD96B294A85E3802FAE47244602D8273615952B98C4F23F7EAE4463D9D6
311
38EEE374A20959E0FE519C4CFB0FBFE5DD80C2AA3F9DB961D1BDE57E67C9BB47B77FDD74EE3094F5DBBE3EBC1FBDB7393F5116263009E2EFE1AF9A221B2AE234C902BF70E9F280ED23E73908361565964333A3F01D0B006AF32FB21AA1316744B489D5A198E85299241735BE559675130955C902A8ED761FC0DBE337A9F919
311
19AF5CE32AF902ADF9AB2615E00E8A94586BA1A90839B61832FF1BFB76D2EFADE6DB1BA04CCAD3DA649E7E2A0219F592E22F2AD54847EEA8E42271011E9074F8F3DD9FBA6CDF88FFC9FC7E811AD1CA8F4557CE4AFC7BBEDCF0114A48689F20A584520C74DA8127124B767E2FB91A6B186246727BE63C9445BAE02088D58B8E
311
FDC0F1072407CD9B89A13F6303B4A928F593AD489B58E6869325790ADC406036C591729FE14021F94B7796BB11848D463536A092A26F077F94639F7CEEE2A724C66EC885F4A24F8B8A0AC321F8FD149BA529460FAA34E4663C02D41FDF80BCA222D42F0ABFF8490F4FA74C673807C2051D8E467B47B616072860069A9A303A
311
BA9B319D58404461401B0A0F9BE5E1E151C14BC33B32ABE03DDE91708DFAEB15E7C0D593C86BB7D7EC17BE56E57975F077BFD5525F3A1A361D584A75E08CF29FC7B44B2B3085014F3A5A14517377C3F6B8F37E59514C3B12F8AACDEDDA4DFC49BE5710101534CD6FB6DE15B50F11A09472AABA727F0C49D9CB906B15803006
311
5F48EB3625E010CEC1D511D0053474B11E6A4F01C0D6EF1BED3A944FDEC70E0DDCDC756C86545910E0DAE3BE3AA9A404574C2995CD5CAF9549226BC94B4F4F0F5F9086F418F6B32346464610D8BC7391D3C3A3CCF04CFC1FB2A3A3170E369511868F14EEA4E5E438CC73DB1F3248AA94B6B2FF33B222FF3D1E7BF146CAD229
311
770158063BCE4F5391964DF62F7E52A7BE0EEA829C9E13C4C147D6F93FE59E111DAB5E4594D6F3CD1AD375EE039930EFE5AF2BB2D41C83C7DABD8C659BAFBE8FAB392CA634F3D15C1D945DB4588D2B0824A4EC928AAC565557CA2F0DAA588CA5BE30B3A8004F7BF005E96CBF891D7F18112A3619FDF530DC8AA64954258E18
311
11789B5189B49B4EB53F5F89F7D37523894F3EB57B373763C91E502F52CC99EB7BDDF933FC324C4FFC2561DFFA7339FAFDD0A4BFBE6D3A8FF9ED1FC49898139864602458968913181918F719CCF5A68B2EE9C1FF050E34E63107003B8120FA982C21B30A874E4F5E4B38D5A8290C4B8D9BE48A0BE31EA995BDC37AC6DE90BA
311
17D259DEF53605D55922FEB1855D915B659FBEB350EE0DFB2F9F766E1C84CC8964B75D08667445EAB966015F63A18A9E0A325C1B3DC628C0D3CB60F767FA93CC65F25458BD23C3B312716E5F40E5858AC06EBA9AB14F95DB99147B832069201541D09A0D856E12C629CF32683760EE855537D1901988D5EBC156676C7DD51D
311
7207CF3267AF1D76C2AD867315E44618015313A98B19941C696FED3461CAA9B5415F918556D7802EDACEFD6B2E45853A9735DFC9DBF7E440F9319F8B6805A973BCCDC76C069A9144E51F187EDCC12FC31B5DEAAF0A76137199B106EC84ADA6B6EE697D4E6A96E007417F4E880E8B1E89B4BCE9D81EF611E2ED8F0C1A6C25F6
311
20FAFAAB656A7C42D464880E8AFAB0E0FC8EA38CA9A8AEEAEE3E4648BA4680270A89743CDD3E6C6CBF34B7B640EFA285ABC7EA0A1E28F3CC963D114A80123EE66D0AF7D5380EB41909B605AB4765B709B808590458157E69BA1378FEC4B48CAF6A730E3BE3C5EF2DD1A5EAF94B1DDE50CEB55DDFD7EE9A16747FA4B223359F
311
B1FCC69E1194892BABB93A1D5C4E807AC0EA2E30180811E77A2291F6E7F7FAA5E0F60215BC6024E48DE436C511F0628B8CA189982D4D83CCA17D305A7E923C37941CFDFDCD93ACAF735EF5F0E61BBD3E6C41A59B242790D3A3BAC7064DCD89AA2E37214EC839820949D5CAA31E240D2948E48F690298974A96BA9A8432BC90
311
F5071D6537C9666EA4564796B7AFFFA548077BEEA75F63083435074BA182F3699557397F71548383FDA8CA34D99B981E72835ECDA5DDDC151315173D05A21F651AAF8524E88209E2E7A737ED1045800CE3390050BCFB8BE588DF111617874C62575039CA588EEFDEFEFE319B739DE2EDC147092A262611E159650E78791788
311
5EF08F1F51B8F2D8A71D60B58B190FEF9541A1BE94BC19FEA50784DA1419FE4B0FB51B8D36B5FF8E1286FD8AF42B91E59A5F1CC4D60174E764045FD8C57B18209B217F89A62252BD20BE0E63E12B8E8F029FE19E0E8D0870F58721A557082250D5424F7909369376E41666C0EE77CD87CB283F661D5FB6D0DA023CB67320A2
311
0DC7BE661E9E1BFE5463085C557DA1FF9BE835733766C3D139F2CF9E2208873AD0EB4814DE9E6BF2CAF81614D4D43906ED1C05A3265CABBFE192770FC2F64F940CB6B17B5F166F133C9AEEAD2641807C3E69515171DD74C4A85311513D6EC9530B3B601B6BA3EBFF3B5C3D2F7D69765141E345F75433953D013ADDF8F6AA7D
311
C3F4A7563FE5C7D367937E2900D7EAD0F9FC9A4A1A9B5BDF1FEF08532660C01C5D6DE22199AA774383E306DAB87E301ABB7D213887F9869D4942D0D71E94B27EDF216A318BD488D45DF84529EF575AF3C3938C0AAA0215B01994153E2054A0B894DA5C784980633AAD48576957CF4AEAEAFADC7C587368551C73DBE1E57C58
311
AC713303A8BFC258BD04B51724459FF9E24C03A81E0E0679CEB9B348C0DC998FEB9C6D6EFA77D247CC8F92D3848599ED89A23218D0636465AD1CEEB7DC140D7426F83491C4E8E8281C2FB35240918FFECE880CA2A42D70E8B20B34DF5221C7DB0CF90ECCB9C745B37A47E9B716FF7A97B7A252C1F3814DC7B1E1A7F72B8751
311
D524EF7CAE45B0C73B3BE7D08ED39781B380DDFC9AA4A4749C9493DB5BAD07A6EA6C092FBD0E85DB004DF06B8C9D3089C5320187E4CE1846158C7EA7DDAE8AD9AFFF21AA3A1026BB06A259845E8232DEE62811A4DA9CEAB3A4887320B76E2AE5615EAB7BDF738CBDD01F1E64064BC13D9EC53576751CA8CACD58B3CEB0E6CA
311
585BD089B2A59B9FC101403387AADBDBE70586B93D64BF3AD4453EF9C3B6A93817E8346991798601344F79A83C51F3D50F7BF2683A3605F51A72449489E0EE6169C749C60B1035651103AEE24D24E51A759C840DD3FC6504DA6FE107510E447B43461C79D22970B75DE5E1BD3007D1AFC619A4A4A69B5626AF5E9B8374E206
311
77F77E2F8E73DF868E8BEC7EBA7B6A75EEF7205E1AB9486CB642741D6E03FF13FCCEDB1C4AC129886268B01CDF4B124AF797CF784F3C6DEC97A17D4B558070A0F1C04DA4FF9BDBF34159AEFE958479824B3F58EBD1E19088A2AFDE501B6F2052368A3FD0E650A179EFAB1561E1D27527077136E652676C3670F42DCB3352F4
311
8F6BC86D2C3B0051727E41A0A4DC6CE2BE9D47F5CAA2935A3C0539AF080665997194ABECD723B08129CC5B6B21D2E7D54CD4D12610E7E9FB8306771A89576C7A982002775ED44F3F744CF21EEBB27A631671D921938AAEE3EB0D19CD1E083727F607823E817BF599DCED5394E37EEBC2E88782E638920CA641EF74D4CDFCDE
311
F06F4278ECB18E31E7E9876F2D783C8BF429C75395F57E98C2B495A3DA077EB3AC3C158608B6B57FE3EA48484D9A480096FCEE0DE880950E7E5A5714131C5C41AAA29FD19AE81AC145FA1B9E85C7169A5AB837B213493DF7E9AA4B5FBF9CDEB36EBD21EF1181B7CF7366AB2A951D01E37AF4EB835D1BE8C117CFBE7625D2EB
311
CDB0B20C5A4B45CED0BCDE3EE8DA9DA78C2E21DEAAFFD1197E463C33CC6A80FB785669B856EFF7A8CCCA2841B5A5369173320B1170C368B2748D81062EA0296E5E2D95D7667A4A46D98A6FF475C76AAB0A8C8D45E226FAFC9FE0133EA9F60111F99CA81ACE03A1D14C89E8B0D69079C91464FA1D99E651D0EAF606F345C42A
311
8A1AA9BA391031582B96D5B4176A77AADB01F12FD298A75DEEBB2C82F0B8650E880722F8DDD90C56A7A058E5FDEF1AC93545BA27367C76F5D8F9690CB6F8DAE141EDD7971F0FB548A2AE435F224D6E5954CA155512F7332029D5A1230854B79F258EC5FFDB09F5F6343A8EB193229B7F7E79B3E48F8E183860B38C8269D1B5
311
3738FF1E0BACF6AADA6D4869E9DE708E79B5DADCC09B1BC76F649731CFAF59A83FD8BAE4C749D66FA87A3810D4D62FFE826FA400C0F325D2BC0F3CA35F5847B82A2ACC7961745C823E4D863D54460AF792CE6F79B5C7A33B25C3AEA6CDE15A919B6367D781E9D44F61BF828672594A3E1D9EDD6DF179A81F27EAC05B936575
311
D73E05C209DDD2115CFB705DF9BBF3C911589B3640735E9E618FC9C36A7326C82B2205E244C55D56FDB9D5DC93CE958D4BF8174D2B3DA54CB3C09F2C2A6DFF73D23B2197355761AD421EC581284A7EF8DE2CE3497C0C804D49B41DFD6A7360844E5BEFFB495CFCDB97A4595911CDBA623274CE852B5E278AF0BEB1770E9D37
311
CD977B2766A7DED0E94B840E1E95E8C77DE5CB6354AF7871427C28ADBEEF7BA0A28E19DE9ACD75F379FE373EAE6DDDAE3834692F9C2B03B4FCA8FCA9ABE8EEEBEBB725B88A7C90941E850682CA04061A7DF0CE82ED49BFAFFD42C309818FAE14755CAAE78B0F73243ECCCAD7DF58FCB9CDFAE7A4D3E6671A613639130D056C
311
8383C8F4FCF4808C331E544DD26E4755D09EA05253B3049A1E32587CC25D72E073E2CD96D04A71BBCB0038FEC3F53D254199C3CDC67CD66640269431860225392B2CB3ECD0B4498AAE78BA1994246AE1EE78F2EDFB79F6C6CB6B5E279C4D373FBC21CB2698C9ACBBEB6A4BB6B39E16AB0E421CCBFC7654D81ED86022F9BB52
311
2146F9F4772E2D0E4FA70120C95A85A417BF5078B232F4754363EB1750B2AC2148EB46B1EA72AD9B4D23ADCBC589D70106C3EC2ABEEED84DFE28E718C6C83502C28E9FDD3B09DA0A6F6F7B72B706A31C9E2A331EE70DA56A083D2177BFD63C55B11D8D949FAFCF90B23A1E24B9B5018B9A17E99F2890EC302F330FE7936E2C
311
23F0D237EC8916F5166AB84B62A21BB0B950146962D754F92CC2C8877BED8FC7B7B25726DD19545392570B3A2C66B58F027BEF412E552D12A588C4A3CC5C3193FCB3485EFFF700D0B9EEC077754A33DC1FB9E25AF814628F91DDFECB667D3F7690803F38D13F8AE39353523BB08FC6760144AFA2CE28236F65EDBB3D5F59A5
311
7D612B99E3D7E5F8A851666BF9B5A6658EFC96EEB37A378ABB0EB3FDDF1303AF32C41BD1C8560745D7BD81066B0D6313359CF488563D3BA3F8E2185D1FAA3EBA1397C9D0E3DD232180A4DCADB6AF25DB3AC3CC26589C8239E66E81547BC7E2F328F9884764CA37EB5DBE390DFC03A5246B456A7C3684C4377D0EEF9A350680
311
FA9A077E8B2957B489E09AB1AD41316944C2254B5984830F691C93CAA767EECF976FA5647538830B5E63236A6F0365C1E0F3E327F24FE35EDDBD7360B0F7374837409F7A6311BECC12B7026D4FA1AE204FA3F5FE904B1F420C7A9044AE58E403E7C4848E7DA25DC9EDAC79DD756FAA26B9EA83ACE8A214A2612A22AFA19DAE
311
7DBAC5F8CDE1292A485F98DAC731A29FE01A3966E96BCB9FB5A4C8830E1B9AF0C54B87FBE221A097036E5D28D1F869F810C06A9BB0AC0612F69AEBAF893C6E7AD59460208BAB3A6B09CA4F6BDDAB8CF0D1F84B72487498395A70DCD754796E271099A567A55CF242BBED64696378BB6CF25EF0FCDB589F3A82F1116D010A9A
311
B9FA4358809EE0C973A2B4229BAA876A70B03AB49CBA7FBE71DB1832FFD32F9BF2C8E98075CACAFB36921235D0F552B6A67E94E094097A5D7DF681B40623DA535ADA7A9AD8E9A62407D7C9A5AE51D62A17A83A23728DE86BB56115804D3F2675F2C6B87541A0FC497BF0CA86420F558C9859EBE9FAD62747E323E3AADC03FD
311
CDDFE7407B09DA90B44E3185723C5381EAEF589765E2F7A099BA46695BAD60CEF3491B8A171F5F56444F7CE9455312C3498C74173AEA0214EC029833B34B650CBB5A5508D5091665309642791708ECF27CF11DB3D797D6CFE474453BD4BFADB768094B2147814D81C7CBAF8228DCAF5564B5891F5EF6A860EB2E323CB82AB8
311
68D8EA048880D63B0DE5341F1B3D53297B928A11E15F25E5148990F710747C3509ED14909C552EBE3973246FCE55D00564D8310BC3EBC5085D08D806799B77D6C57FDF5E55837F9E934F09C03C729271B64F12D0A9F9E938107CAF7BF1EC8CF1BB9B42363D33070F4CACB425E605DDB0A34A12BB936DE286B9887A4E2E558F
311
0886498BFF49C311D96C277CF6A9FC0D75AD0ECC5226D7E0E3572012E56D7FDE4410CEC7A6D0F997F225A2055B8B92E3956E875AE4993CB3D4C9063AF98FD45E1BAB165640A43439A2C9181A7C355B297C0A0CCFFAE19B6FA3C2BA238A885FBC98B8F6DAF4B94B97304878DF4D8BFF6A4AEDF79E90ED4E68F00CD7299F4E0D
311
83E35601AF0CBEF18C1E870E74758FA91F5131075004DB3CFCF09AE1DABC11957FD9808C92E8A678CE9DBE40DDA0E0D1D505AAFBCBA208232BFB6FB3704E8985E61ADE53DE74152F5C7DE74B1DEDCD37DC3E8FB30D7EBA8B9EFFC3606BF90B8D438279CB7709FC7C00D327F41817EEA71CD9E49FE9C8C9A81C70915D9F0F15
311
958EC5AA4C3BBFAF46986B90F188BDB24B89DE3C6F29EC3E6F66D84856EE96A35E657CA41B41EFD8DBFA16AD6E91439EA92B40B21C053249F51AE50EB0B24C770FFAF40DF12C8436366819C48E36547D4E7B72FE2BBF10828583057814A668BDF183F6B2E58DFB151103E56303E63D00F39C27C4661605DB644D19175D02E3
311
F0241E8FC3458D17AAAADB117CE9EEA690D0DB01E634878C04C2C9310B69FCAB831151E3AD293BEF6E46B0ABCECB50F5939B39C613D41E81FAE8D34CAE3C4566B761D37185FE864AC32FCB71AEF39DAA5BAB88609BB980CD2F07A8F941653B529567726E2B2A58D079DD57E1E5E31426CF184A04D7B03B985F276D47406AF2
311
76FE32E3328BA866EB1FD39BEF57863A317634AA5FE467409B3873F5069EF0D71AF00AD189D17BA1974ECDB2D623E9E14086386A6AAB5807825C37B015BFE892AFD154920EC437EB945D958E18622E1E0FE2FA06557CE4BB9BBD05A2D40E774DA2B65473791E314B7D6C886820B2FCFE4AA272B3B8B15E7344A145E8AF919B
311
5454D89D36D413E87211186BF6F645E5EC94DCCE8E1C799022E4EC9BC86D7A0F2AFB1FC4B2CE48F84B3F49ECE65BAD24CADCC07EFF39AB06BE9E6B27A059938EA7208838455383DDBCFCD967DDE4650EF92A14FF933C975DB20BD7FEEBC4487576485963D757D16340D9599FEB362F775F38CA4185A86F74B629C81B133644
311
A3B18FD056E997E0734F9BE26D11C0AAFC669E2AC9FC41D281F8B2E1C35AE27BCE05F3DA295488096688719D974DF1B5D182DB7792288697F8763CFB43562C1CDEE11C4AABD5C22B6E33F6F389CFC3477C5919DC0D533F8A7A1846B7ADB60ABDC26C43D0CFC8910B7C15EE22675BD02702ED39DB77A87A192CA7A543E6205B
311
979B9F5A6B512A3CA799E198B2D5797C0AF8D1D872CA455D4D431A7879D4DD76110B5FF7F4176B54477A9EB5E4A5D11214FDA585F0382751D8E2582BA5D2075053298FEB8F1537304E32CB22C2E2B693DC0A760B1DFCA751BDC445AFDCBB12820ED85F6D5298933C7EF1211E9E057684056CDA3FEF3BB6052355E162DF27C5
311
9E965A8DDB7F9437EB72CDDA3A090DE65A5B2F50326247B7EC67B73ACC7047FC9B353D6EE990F772207C6EC52B39DC2F3C0754821DAB559F7C1809C7D0DD5B0499D0442E0A6E391B3D5DB46D11E731E6794EC77523FBDAA242ED67F9FA1FB684255671F63C9BCFE6E7E896D51001A6113EF2298BA494E0B0980D1FA5B9D607
311
96554C02256B1E0345FB7C6186B6A19D2DCA270416262845FA4F42DB5D9B0A0B6F07FCA2E56C242522E001E0CEB734AF310FC8BFB57E38E03AACE93B3326A2197891E68452B26A6307FDABFEE0223D3C03C3C73D2D5BC054C8311F12004CAE488E5C29287F8156A2CAA4AD0D7BE6B97264E4139F437CE73ADF52E5134C52B8
311
19777C18B323A5924E4F67AFD13B1CDC3A61793A79FAF5C0CEB718E441071E797C6DCCB9EFCF7E4A1E9F3DF3C2F9C9E8294E9586868788C972857FB0556D7A26941A7EEB9B580AD78EC40B85DC906B4120A563CA3B87797ED612D3B035962BB75F6515A393F4CB057F564CDF54F2E5A024514E6A1F901DB80C7E70B1FC05E3
311
56A7E72FABF4775B3E3FB8F70A2A8E7B6A94542BB304157978CCC999E707A29CC795E67A59CC546A5D47B368954CA7B6E75EC9E1F6FC73CE3B4F71F8CB1A6B15923D61EAAEB14626AAA9D04A26EB9C66CD1BE86CA31A5D8703DE04CD1EBCE4F5CCB62F93909AD11E55799A781A956ED27D3E738F4538CB04ADABC7DAEF20BC
311
35BA6A90BCC1DC61BA05F20D8832FFB9BC9B15E2DB838A0AFBB7E0C82A562127E0446894F427794C3037186F622BF24DE1B00AA10A23BFA47B2A180D6DA5AD6F7326FEB8C100C2D7142EB2A0B2A9D1008A09BA343D70E054AB69E2A7EDB783CBD92537FAF4A44D1296AC2792729104B3276C276C951D0CF3CF3F1E6B017720
311
A7B8505A5FF9589365979678C36F1BAF759EAF57C60F1FF5FE9DCF5F8E764FF25A2D06CF25117A8FED51884C13B2B750DB0E4F5E3D64124FCF11F0AD8F1CC3B3DA4B38ED22BF1CB2585EE6BFEBBA63FBFD44F9537B9B37BDD6B358720F98A8125AED4349CCFEB0E135F19E208A04CA7E2B10711185D72E381F448036EF57C9
311
F874E54A971CA37A639E986AC0226DC5AA00D5B14FEA9192234B3DE617814FC221C92F33F1D392F297731B567FD98FD91D989379AF567A65B8ADF177591DB90FBEA99BF4ED11B16E50A0AB1DBF1156D034BBE04D69D08F939D8E92BF525A1DDAFF80ECBC95D8F45D3FDD289FD23F7D8B452F8EBB34EC082DEEE68E18EDDF07
311
2060FAD2AB1504DD4879BF67099FC58F6E9DEFBF645D16334A3E9A127C6F1AF6132CF287E433B43A0EE93812B4AA0B194E03EE3FF91EF9C6ED0074A2F6EB18A96A7C9890B1FCDA1F2095E944DB911ED54C60DF16FB74C8CE9BDC7C54C4F14078CF73C2FFF1F1BBCCD7CF64F71407EA1683DBC410D226627F66E509060D5C0A
311
FD611DE681D509DB8DD12FB1265B03C6F5C55FF4C30BD94187FF692B4F152982502F193098A789526A038AB529A52BC0DC4FB6285CBAC10A8B8DB75DCD9BDABBB221E27D1F8DA9F5EE5926A1C8AA9BA9BC09239C6A7F12914EA3B59EFF7AAEC3FFCCE56F1C5C2980AD072793527565E774F4631DB178CEEC691B1F367BEA0C
311
F2907E1D6B854D527065979DDEF002D8B2ACEA7CE21AE297737EDE1D45B31233B73FEA35BCFDD0B09721FDBAF6432681F2FD10C3E9EFB246FD6E854B344ACC9D8A0EEF876A7314B49B6A499FC650B099D650DBFEC7638ADFD245E2B7839DA5AC5F7D5623FC0ECEEC8653FC9B2BDD1AD4D00A566FBA7186DD3C9CD265125516
311
37498CADB950FEC71ADB9A5524285DE328B8EC7EC75D2345AEC6A27C42AF6D9B92155315C80DBFCABBB7DA0FAE425C4FB896B15C9BFAC4FE67DF5A23D30C93DA4D8F36FB15D100050DA6062E22AEC5F4DAC4F6FEEF97AE05DE63C6D38F9E068A20BC5E3B6BCD75320C5090924E7F93640A7735B1A43451C2D91EE62C6238B7
311
97349E59890AF3A520DF4A87095F3ABEC2E61F0593416CE46CDCBE0E00E2523FCCD04408588B5B6C9DB6459C786CE378770B54F51DA3A5E1DF2A3349BEAAC234A6CF8993B598B3B25B4B113E353A4D750FA7534749430F3EBF2512E7EA3FD43C6AB9A1F765A58463B306721A15D224FAFE8C6F5E3432D57EE697DA0DD5A9D4
311
866A8BCCAAA9DFF1F06047851408FEC060471D0E3EB86BFAF46E4B5E60311DC3E3CEA147C75CF971BE74689507154FF2D2E92F15CDB2B9182B11459FD8ACAC5A85F174BC94A7F4EE4C4F5CAFA7C02E37BF0BC77B7DCD0C047BC316F562A01A441AFA7931CC84A28CB9F4AA367EB515778F29BFE61195FA671F4352E5E46E3A
311
64773F1F76EE5EB36D7BCE9BCEAD837A4D77F8DB8C92AEEF6711920D7C7D0F76B0FD0EB7AB83724CD35BCA7D36DDDF5FBB7FF6F04A91F3E2BB3B8F1A43CD659639507FF6331C5F697BCC782AE57D757A27D97F1AB9E0AEDB43F92F1B2AACDF5FEC8ADBAF9F814E2027003BA2F9E144B1938A7A04050AE5D953B82C45619165
311
C813A10E76DD6906B3C16438064D14CDA713AEC420034613E1AC7241904A49FBF87409AFB1FCB9B72FE7933A87D8FBEDACECE4EDCF6A4FE9FB94D5DEB74FAB7CFEAE17EE965DF980DCCA2D04134994F9A2E94D2265DA4FE6AA7B7AC15FACAC2B5ABBCD7DFF542C5314FDAB2E1B9D8B65220B8E2B638BE008E8DCA22678C820
311
C5053664D15E89F2D735B51A84955E81A443545E9FF787BE0FA700A76D136C27DA179A7C6E8939E01BE756E19CB292798063D8B97F44E8A27BCF3A614FEB8BE974A718E86F7EC99B53CA35FA24F61F2B07266684623A3D4CF073E511F3A10A8FDAFAF0078C577F4DF9D339FE7862E5FA47CF4344209E5BF76D783B1B48E152
311
AD281B15FCB934DCDA49CEC5706B1EE8B460F435324A5CAD154725E21AB8044B75A557A79F6C807B9340AA3D92503E866F4274412926C8C504E4D5EF8C0E68DD0B028781A6B4054F11CF18941F101C57CCC796773ABC8DED9CD91FE5788806C05E548895354AEAC96546D55B0E94A59F148D061F42AA398D822CDECA4CDE79
311
E13469BDCC44FDC990F366BA5978C15F97ED80CBFD73B0CD9B8B83A4F6845BDFBFAF034019473FB9A63BD55D3A4A7284757071574029A4D016DCCBE95DD679EF3C4880BF169422F8C89B68A988D2B13793CAED4F74DE7486C72DC94DF46B8E93D8E02EFCB1FF9B3BA10C8AE7F653DF94F4AF466CDDCEF5776687F7C4C14B63
311
E4EED1719DC2EC482D7DBCC7AE518CDE3D5FF86D39000EC3673C0044E1D308BF05F74D1B5F033A7D1BE7F74BC55BBE3E4A20F920946CA0271EB17BD2B80E5660ACB8A29A79F5E4BBA49D4D945B6EEF4A7EFEAA65E5555BBB57A7E15D2F83C69F30BBB978D2B39F1F26FC097424D39BB33CA3D87ABF64E307938B685BAD44F7
311
1556A30B7E712CA4FE600613C3E554B69ADE949A7CFE214DF1FFF05CB82151EC6FC31950239F94CF7AD39DC473F6EA356E5EC2C4EFA04383CEFE985A127484366FBEE3C0EC4FEA363E4F6632AE781392FD45D67B63FB8DF70E82734F431FD3443172A0E30A83D60982D55FA6A2CF86DBA8382502ACC6CDEF3B907982EED116
311
0E14863FA242F9757347E1544275CCDCF71ECD5F8621CBEA326B8BA884AD7F825781923E66971F04010D574C541D8427A438A37EEF8AF88240EED7362C953F5A81DE2D56109CDE2524EA0F5D2F87308C0C47BD97AD605878AB8589E17CA83930CB5E0DCCD75853D68B1AB136594926DE426C367428E9334AFAFF90ECE221BB
311
5DC9E5BB53D2CDEF954EAA9CD814F0E5725F1965DD458E5F8487683AD86B9D0076BE3EE91EB1CECC5331A67A3F79D8B27587C12EC2A6A70474749F27B4C0BBAFB94B34189E88DC18964BE4121B9137FD516C7755356E50D6714E31ACD222621EBBCD1CFF81D87479056A9DA0E0B8EA19D24CF937DA89F78E8650CCBDC110AA
311
B6C4E46DCBFD0446BA9E2060E81F314AC2031E88135E5476AC0160EF5C0DD2EEF1B8B5CB2D198BE9A554A9093B5F7D7E4B5407DDFCA1D9C152FD97F55BFFFDFE802954DFEC8995B983E28AC92F1971E28F531DC407A1280EB125F64A72E617EFB27DFBCEDCDA2D6F2BDADA36873EE46B9BE1782998C63DA7182BC383FB6FD1
311
5DA472B175D7E8B4FC88F38D6E07FEAA3FA3CBB8F6B449ECF14D2175E5C5CCA3A42ABF24CA6C9395AF74535F4DDB38CB84F56614B0FD32D7E19CA5CF988DB4449C40E23DF2B16772594554579094450F56F253CD25EA7F77366FB1CFE79696C428BB64D5A41E986189427E5E4D7E2DAE3D5BB4972B3DC44EAABDDDD63A2264
311
ECFA5C786EB0EE1FDC5BE34FA0F08376869FD1E61EA06CAE15191135445EE8F0394161C3266A596AA035572BB0C8876180D8B9C77D307DF9DCDF7365ABDA6F3A2366436457A4DFC1F259666569A9E4A79C817BDD5610E5200FCE894A358EC72858D50EF67545DA81C6FACE3D457BAF70367E1E6BDD9A952FB4F56247F58F52
311
3B97E640246051A72F79BE42FFA0B3187F63097F91C48B868586F714B0EBD5A00A8412C1236E1298F60C72BE6C96B82B404CADAA304AE9F303176B14BA53FBC2D5E86377E35542019E24D97B96A49B2C0E5006E7795954DEAF5DA58958839043C6C70BD3B1B33B6DC5C31316D8A6923F142E26F6711A2258AF977DDF1F970E
311
CC4F1F2B434B96D81BEB6E89BF3BBB3C7C8CC80505070723D6D7D7D3C8CA27CA164A26024FED94B12A86031867241DA53D929636DA600F050BC40CE48B8BA03D69224720DEE2ED2127390BDF5E6EA64527BBD4C4C63FA76BB801FEEC0E61218EC98A8A86CD8313781617877E66692839B9468CF4DB8E50A73986E558E309C0
311
D6F676F921BE02F1185454DC75B111572FF9D27D85EA14C05AD7271225B391C4275659CA4A43759D0BA44639BE4C30A84DB7F67A41399FB95CBF923B1B1672ABC807C1590557FB18D811983FA97F5E609516D62281D38B1281F68FC75528C35E4CD7DF0F7DBB5E5DD69C414EBEA2F4A5B241B996BA77AE6C772E367408C633
311
EA3E438B68563EA8BE7667F3A4C4FDEEA52ABD78A2820F443B7914A15F180018D231E64519C56A12F6CA7C8DAE18F06F6B769DBF92329EF6A5D18FBCE600F36BD8E8198DE5CDAA96181F3A756EBA5501CEE58F497EA4F418A2B82565B9BCC611713C0B708CCA1F398B78C5F7D03B3437CC18F13061F55C7BEDADD5ACB1DB0E
311
36D3CE47FF6EA1A563A57E9649EA5D14D1A50EAA457463381C073777EF1600607BAF6428A7DDC079D47A204EF1E1F1F0589FB054D45E02CE623B3823C317C601E589E22B1E88B448524B86A82828E32345EC18AE17214B42F8C41C6D428016D9BA31DDCB47572561E5A402E5BA4FCE55F78AF7268524AA04130F3A20BA5D1E
311
9F9948EA48FC8F5314FDB35E21898198060034ACE5E3E2BBCA34092518F275190AF65F45867FF0900AA4B81F25427414C372BF51DC29AA855C5428EE1EEDD6B849AD60F6E73475C2D2523F8A2772C840A478DED18A8C5C91B085F255DC4F54EA7AA8947354FD17ECF8FB3B4A0DE7B483CAF3A1165EE05BBA413E5C1FEF3DE1
311
D6B8F2F3F3251C17D9FCAB48A9AAF63AC773A0E413BBC46A9ADF84A566FC920E4D8C52C9769EE3301CADEEEDD92B312E02E2A7E35B7F1E7D203FE5A7D75578B06E99D0E46FFADB8FDA17ED8880390DA29094202D6F645F76F6F96409CDA05495A96E84B04A00D1A6C6C81D7F3DE9376E828CCF144EE50E364ACCE7237EA0BF
311
B5607ED1AC3CFE73794E5B61739D14DF1743441B1AC98F00ECEDE9E7301FA29755FBEFA68C91EF2B314CF510537EF1ABFC9A762496280B546F5EDAAF8A5B387D469FC9A878A92828C88608453ACEC6094DCA54111E7AD5B2663DFE2DD151B7F123B9F4FEF8EE36AB125FD7AD52A59B1B765B3E3F73E3F73DEA93875004D2AF
311
FE3CDE9493B87A9904DD052028949041A91DC0E1BA47BA714343FD5B25E0A6A09503AFC17C790058A836A324FE31D7893512E28230332F153181C1E018E1124EBE1BA262AA428A518237D1EA7275E48C5C561BD19ED6912EDD8367DA0F31E40EEAE9683DA9257525AEA7B632B97119E17145A90231768A4F3B9120FF32E831
311
9B015E3CBE26F1A754177D8185345817C096B0CE443A955D13AC15E1FB5DEEA0239EC32A3C92241A237B0B02FFCB4F93CF2B02570C8D192E2F2A68CEEB42F12E6F8CEEFF46C251E22B4341C56FB08CCE550E7A9D6F4D6564B9EA52A83D5BF2C6E03FA19D2775E15A8A7ACF30A13C259EE7F5EF2AC3BA354F1500E1A07FC63F
311
B4686E2F12EC69719F9ECF5FE3F35598DF2CE944008CE78F0911BA5BE5D0A34E0098FF038669C26030BA9B300303039852A8F6F496341737CA7E0D2E3AAA36DE0A70AA7D9CA0D54D9AD84B18A44C9E625475E1C97B93BEBB38DCE7D227E67A2D00F531436136355F243D1FC0D712C5765754FA22FCFFAE97919161F46D6E61
311
ACB37D83777B385889770B50765B127768443A5C4D3A4E35A3151111F146B7CA116F918A049F1C272F2CD7976C69A0068773451659A97E0F4A08FE604C3FF6CE7385DB19F4D3ABC8A0D80DA8A42096AC377DB49382B36E270B6FA7570188B4B7D1DDDDA82ACA487CCA5D38BD3BD039ADBAFA4ACFF27809239B722081E2EB9F
311
145320553D183F28471C388BC8814E5045676767AB58A8E72D1CED2CA731379515D2E533E4CF0B39DFC625F97AC4836831A4DE330E87A8126FA17EBE583D614E71E22A8DBF2825599743E0640037303E8E1B1E8EA4E1ABFA4F62907B5E4E0E5DCFDAB417C36C6848A2B8D15F1E505434C0707E16B1CFC2A1C36A42BBF55734
311
F8F4301DDC2A5110CEE8C0747F69519265012A2174BF4E955ECD4FDE095A3ABC70536B7AD0B9D7892F81287D667C108703C9B66A221E9A0929D030008F77FF6F5D2108EF5706FC87A3069B976F7C9FC3239D13D283CDEA83597461079FEEE049B0F392889898B7D87D31F8D60ED7B56B91823A8E4EDDB36C6172ECEE42BD42
311
B12CD67994FA0F0DFAE9389356F4CD4425A4B8AA55CBF7ECD585C6A2C2316791E43D5C06841ADBB226A87FD61515FFBB0167B74E56BD7F3E90A57A97FEDCBDF483A0D6699A8C0849CAEB4947FAA90D8E332D9DEBD9F4738C37DA0CAF9CF3DAA68BCB67C420459C7A64498D6E848E5CADE92BB6901F607AA331104A67F7CD65
311
0EE169B1DAE94D2C31C2F993632259B6957E246EFE4C5481107B07118607700040E5812A2A2A38DA0076875258C753F60E0F2662C748EDD5F3F3686B8FC3BD6FE631ECCAA1E8B1C1E565AD117E54893E79F4672E32F9E46B2A183DFDCF3EECB4D4D077DBEA0DA254D256045109670050129E9B9B1A9E4A11344D61497A9927
311
78095151510C4BB7EF2009B63AA4360635312E4CF668B7E0D3D85A8688E2BD83B569439892ADB63461930D428E0DE42E4AC57CE48DA5CC1449530D8BD3D6A0F08DF20C8E8F570F2CFFFCEA286E30969B4654D498A58D9DA782E19FE3F002181838925592C4A1EF0B332D88B61A92C644547BED490D3A42CFFAB70E36D961F6
311
94F6307F72FF15A1C79D5B1B5CEFD353D9E2B52566DEC8F8F09CB3E8359C0F68EBBB7898243E34E12A015B2685AB303C04D3A9E00671FF3DFF0A184E4A2ABEB2B666AF5B3A209C73D8EF29DCDB069C9F391EEE9DD0F74C7BCDE16F8F02E3B8816122BBEB50665775B600549D8BB33A54A6BF940C028118BC6878C79958D678
311
4F9DEAA6E26748386FFAF8D0D0101E2847B6563F5D8DC1D78F787BE00E2C941AE12148D4A81599FE8F68D4DA5CDED75530ADE138240300EE13B0FC13A1687FED6774662C05A2B7DFB186732F0D7A93545D8B0A6390AE5054D9CB582DA846D7A061B3358B45E2B52DDE63E114397EDB7E09233A579155D795BE76102CF277F4
311
DF8B188C4F2879BEAE3C08347124BF9ED23B128259FE107D31E34A652F090B30B39E0D9AF917B76A2806135621A8A60681F16AF216514BBD02711585B5B1AE823F4B2D0369EA5B6BCB863072727FFC871CA6C9AB79A814D989057E9470A3D238BC87CBB4A0EA49AFE2B86F22E499793CAA9047080450166BDC357524561E25
311
8C77CB697F1ABB32562CF87C3B7AA12F911EF19FB3E5C02222E887D08202A60A17151F5E053A86B437771088B4FEE14D652C43E8D939995D34545E12E2FF93D4E366EAD25F10CB7DED141563C3D0C447AF06078A91135FD4B9611583CB4BF3BD167F2399CEAB0E0100F8FFC305F00F1711717173138B4B48C83022295DE657
311
EFEDD97F238ECA80F528AFB4F8D67AD4E2594B9A3AA86D7487EFC313BA95745C186F0CDD84CC12DC9CB0424B42203D351FD9C0A3AF10CC7F388E0329279087386421F194F4A29464C1DEF7EF8BE515E4A199DCD5B909342598D8FE6A231F71336248D5CEC5454455C7BE383B3BC7B260FED27F703FDC39A170F3827239102F
311
59D4DEE7FEF82EAA1A5E4BA94DCC4CC44E7E2EDE20F24244E4454369D2E87C3F823F193FD4FD27E1C23984B01898D15ABC20711A8A558054951A6AE280096BA36CBA439603B7B0B4C45F248C14B2383B4B5CD8ECECE4FF859AD4A6CA2326D020EF090F4041D28DB66E5256B56232CC52829DE8060BAE6BBF37D4B7469B8224
311
54FE93210A3E8D15E69FFCF01123222611C51C4FD0A041A0CFA2471CF6BE38D2B20FA4C3525B5B8B586759475CF80ADFE67A284AC24651E52B8E683D24C2622642F27E7C3C22783BCF63648BC398BD6CD0D9C97E7E7E3EACB6126DB7A6C1FD9F1031302EE67ED96F22B77C7CA0239BB324207559B105E4693EB26EC46182A9
311
2C9C0DBD24F29B31C5C5AC1F84300E0E17CEEAC15F5736FA4A98971E2F1423BFCD68D4BBD5F86E74B40A369F39507C88FCDB35D2DD8DEBEA4AF999E23CF2816D204200DF6E611781B9884C1AC8888B4DE397320472959434323A5A36B22A8E1F721A270DF3BD65E4A31C11FF048AFB0D8B7B6881423793963A23CFCE935FC1
311
89ED36FAE35C46DA3574C979E4394BE52084F3081837BE033396D2EBD80F1F691B273F660D2B32FA27A33B1DE4ADA5F0FA4651511102DFA410DDA86E065272CA314D5249DF91B06BB92807B28EFD54F08F7B525252782CD276DD02E6B0319B13DF87B1F6361AD6B28FC0D711CF445429B9E5A433CD493051C49A9E03DDB1B1
311
47D880253514A5DED88009018620EE229101C041950E2D8AA8E1F5F5438E0C0C0C60EEDEE9E3E0C051948C69F84BB7B2A48A1F3C8EB9E6864687F4F4F6F6E2FA87608ADAF9C5E117B7C1A737E710769DA1D15ECE6A84502AA855398712D5FB51BE92E4EF824969CE18278798AC303C2C7980DD2500ADF8FB1E6D6C2FAAFF99
311
87178923334A244758BAA01A9A1B70FA5097D01E1CC2A58DAD0EC94CE6430AA9B0C10D75E3C6BAC670EFBADEE1607739CE0FC18A2587E3EC3058562014C64219C69BC269082D5C2F4A659278D585755912176D78A1B641719C2A394CED495A1AC5D583FD2F5EDD93308EA7EAE8A6DD396598BDBD3D4CFED62D18A5BDFDE0DD
311
5C80D1A89BA62697B131AE7CE9A6594138582F1B37D68F1749AC7CB67A70695D48A4A056AC1FBD4E82358CEAE38F54B95A9016F9000F9879C0D9D131768635CA798895F27D6F1614F11F2838A83611AA51C9A3DDB539D42979C29F10465655C17BEC3E2760B80DCBF609198C7B171A531905F3EC218D696025975E986C6B4C
311
666666787271F202805577DD5A3EF0CAFAF91B62DC4B2DB4217A7606282F31D8DDBC290593BAA93EA6353AFA9939B877978481E15CFC9F2755CDC00C538F63A4BA3E80AE009B73CA0185687D339A507D165B74290D6EE46D5C58148F020C3668ABE9EF2F7549170DC80DB41FFC1D678FF19AEB10C7133832B104B80F691B31
311
38F97A92D26E551F1F110400D45AC71A9B9AC41A1A1B1DAEED0B0810638EFFB511D46B121C6FEA0F38CD00E03CFFEB9713FE1F9C263E4DDEC160D0497FA9A132BA608584057FB15380825DE6C7FC3C667EE947D488A09898D8E939C4953BF4EC9836344D2CC6B2971B2A21A572B06096F4982D2CC7232D46E8EA69DC83722E
311
267754D777F97F96D5DA74E1E75178084D0E70F12AD33E5F71EF2AFA599B2BEBF60A5BE475F444F240CBFE8143C334E7ED9150FEEFEF7EB020C4DBED388DD1D6A167A76F3CBF119B578AE8CFA7736ACAFA4440A1C47185638A0D2F3EB5BDDEFDA958FB13CE4AA4923D5BF840392D45544329525749734866684BF7F8D9D54D
311
892E19BCA9F829A0F8BFCBEEA6CFDFC61D74EA1A645ED7A1FF241739F15694BD835B66FEC5677E40FE69BD3F91AE402F036537218A401CB0828604AD189E575015C6F3F6BBC8AC79CF6C70653847254B31551EFCBEB5978B9DB85D58D0FA41A9DFE9C624834AA04949D24B5AE6D299E072D152D12097920F14AA92C31C3B97
311
E28B6C2E6E9C23D63043ECBBC0A60FDF5BD0C33C127EA8A3308B8B6AFFEB28B4455BF6E7AF4FC6222728357EB8E46E85053E6A8843AB23295BF838ABDA94658FEF3F832F147046B4ACD6F7D48E8FCC9618582961C898D1C7A253C91BFECBDA6BA18A1FCF70755DCCEE2222F41B76D23CA98D0CB3D95F0CF66D57FFF65E2A90
311
F5DF40FC3187621E981BD0BC1D992787212688976B94A8F0C6EF646624B570B78E068826F87CE27041A95C9A4871FF65CC17FCB1639629AD6A9517000D63AC231F3D741CB8430777E7ECF80CE7A3F73C0F162F7E56AA71F4DA80A33CD6ACEE78E2C11FAC03DAFCE929B106F8F6B3ED2DC71FF994BD9CEF4E9A94896EF1B6E2
311
B7B4978168BCF0847A3D2A4F1B0500B926E634B174548E9FBAD27153FB5FC36799B1E6C7C38A94E1F9E996796D7B485E635D5287A2AE76FBD11A341DB3F8F810385BB7296391973DC6C37C452A9305AEBBE0CDB6C566DB59FE60C8E94B1FD090354BF51439FFD1B48D725228FFA88C84F686F547107A7A235665A4593B7C34
311
D748C1AC8D56DD5DA861EEFBADDECBBD65117E65851F90351AEB65F0EFCFF4BCFEF24CB7A5879699FAC437A7AF9099186CF006BB923A59E37D7A36A29FD8D2CBB914A5E9D0A8FD212FBF796AE9A67958FF1D5D8B85F78F96219D4714EB919929241B6C018AAE0C02069F8D919961EC5DDFBFB7573E3AC8E08BFB7C8534BE6D
311
E045B3CD63DBD71F7638BA2309CAE398EA3A7D8F98BBBC7AEB367EFA5CFA27A9F8F2F52FE878058E6209C026453F8E7E8A237DFC389E9590F6059B397CFD65183BBF936E86896612A5B5FEE49DAC8455D026218AFEBEC12B3523A45B57B82C9C97E02ACFA1184DB18E48CF615DBF39C3CC6F0B4AE6BBEEA2E39D944E290302
311
FA3DE33FA7E40296E2EF7BF1CD855BBECFAD0FD622BEE9746FC4FDFDE545AE6E3BC234CADF83A0FB76DFB145BF3828AE3436368AC24989454F8FF70A177672C711CAA1A76107218CF948CA01F873520E7A2B118EBB161ABAD432932029628B6761590C98AB590C8C8C79798CE9F715BA696E839E9131A4BB68BE923F1747FB
311
FF165331FFDD4D05997ACD168F12CA75348DAC04C7F509FE83898A8B421181AF492861CE81E4A2DD0A30850CFA95E05F097FF70F9E777310D584A75BA7018922E271DAB1D785671157685B7D383D3E074DDB4F1E44EF04B07BAAC75A062077C54B9752C738C9D804D402E02851F3F89605AF189738C18C021D2139EAF72513
311
824E10DDD3047BACC8521ED7E98B257D1166903B1B08FA6F918FD7E162913FEC7D0EF4787E29C35FBA8C6E2C9C20E9AB30AE42CA2A01A090E7D010C1B5BF9CEE2A304BF3A987FB40D836979B79E18D70F257DA61E808472DD85B82761825779D6B90CAEB0F23360C6F80A7D7D77545E95B3DFF0CF96A827F9B5BCECD2C9698
311
718417EF80FEEDEE938AFF55859D0D540B7FE09435583A6F04874A0C7E8CF234DF4879722000167F5872CEC6BF3EF7E5A8CC8121E6A359227C8A29C95212F9F735BC72A887D56B8F309FC525BFB4FD767AAEC4AEFF249CFBBD2DE1AB9969A6155C7D8DABC307E47324C1F916C7BCFF40ABA5644E9FFB9238D19ADADA49D961
311
0F01ABBA57E4DFCBDCCBB2B93C8953206C91DE01B0E2651A6D6C31721915B31F7B7CBCE55466F6D70402788FA91D73BE4ADCBA99A35F17D6B83383704917D6833F0FA3CD45C926ADB8BC17999A4A0AFBCE2541F7B8CF4C2F5FBA611B3E626D64407CB32C122DFF4EF8674D6EDBB86C8F7C6A16D50FA685E2CCA34F8F7D1D82
311
65BB0042E9D7F1F666F7BE5FAA5184DF58E12122A42EF02F461B3F369AC746F96528AD208512AB56844CF75B97F352DF7995024FB02855385854F3798670D01CAC771AC3E1889EC25F61A20C1F8CAB46898817F9C47E2CDA1F286BF2F358298709FE567C91133E2638C8B53975E753EA8BFD3578B5F7186B7BF084EBA3F77B
311
AC3132A5779902EC22AF2D2E79F42D324E083386DAEE9810D1B44A5DAA54513C7A71E52A4AB9257D975B621308FE4D2141CC3DCFE946C154A3C1DFCCA7629EC69ACFA831634ADDA93C0388D2A9A2DDAFCF957C6995BCE7FBB6DC4EBAE79E63EB08E9A25F52F67076F7093CA545CA3053B5BF576DEAD4E0017143C5F759F32B
311
2D6F145B52B67B48909B7C7FCA6586EE385A2189C16932CB6DDFD9152AE317C430492A578ED27B72D85D40C7C93C097939E1B50F4D67F05334FE9DC362C30B7FF561B95259138ECFD9274C8D695C31B14D4EAA9F3D7FA8DDF652F8C5DEFA23284C799B7D94416DEE81E05A866302DC70192A5368EA65E1CED8BF107A1E2D31
311
19A71E85DC1A7B0C1E93274CE04DD0F2ABC8AC7C987FDB002B6F81757B43502EF7A0D92E416494FAEEA4C9C090CD9557AA4D532F4996A272B94355C5A0E4974EEA9627476F30809B94D8D8D860062E02204643BEC7D0438AF800FC7E2B26955D595421E83C69E1A07E0E3122285835F014AD538188CF9737CE76D464A353FA
311
55A001AB2526B84E985083693BC76FE211CA1D000679C889E3C009832C87E1AC2EDD05C302557422DF0800E316FCAC86978A371F025A6C7DAA9F333E7BD160403A1A06EA75AA9888FF01504B03041400060808005D7A385128BB58AF800100009E0500003D00000039433536423636332D314546462D344541392D38444443
311
2D3636453245363644363039412F536368656D61732F436F6D6D6F6E536368656D612E786D6CBD544D4FC23018BEFB2B96DE15493C78601010A34B880709DEDFB52FD0D8B54BD70DF6EFED3AC0B12E6442E2716BFB3CEFF3D18E26FB440405EA8C2B1992E1C323095052C5B8DC842437EBFB673219DF8DA659866649B798C0
311
78B48AE6410122242F2A4994AC7F93815DF85C049C8564CA0A901499DD886B2EB9B1E02448F358701A9235880C49A0119892A20C89D1B9FD768815CAD268CB5E0355B40B1E47F3E37A2020464BED06AA57CE8FCC20C3C3446D46761A2632A8C1283D07031EFF2AE7CCB1BFEEE916E406DFAC8E36FFD99A9D60A6944090EEDC
311
3B670C7DC13DE86B6B2C5C240D6E503BB85ACD579D513F1B9F9A69DC9CC22AFA80C426D40AF0B21EA168559156B6276F0F726A6BFF04DCD513A87A62CAD41FB24FCB2858B3952E3D852084DA25B9303C15687973CC8E8AAE11DF2836C38C6A9E765E8C1BA1BFB1DC29CDFE518C8B5A7655A4ED7E77291ABEB80DBD82EC866A
311
DE1B8D05AF9E35CF09D7A061F38A986D9EC412B8F0F65E5D81534D9B231D1E5A8FE577A241F3A5FD01504B03041400060808005D7A3851670136ADA9040000B41400003E00000039433536423636332D314546462D344541392D384444432D3636453245363644363039412F536368656D61732F47656E6572696353636865
311
6D612E786D6CDD586D6FE3360CFEBE5F21F87BD3245B0E2D90F4905CD12E1F8A0CCDF5BE0A8AAC24DAE417C872DAECD78FD48BE3D44EE3B5C3E16E010EE75A34C5877C48911A7F7E4914D9095DC82C9D44835E3F2222E5592CD3CD242ACDFAE22AFA7CF3CB785A14C22CF95624EC66FC34BF253BA626D1BD488596DCBD8F2E
311
6FC6335608B7F428D258E807664080A98384D9E75E22F16B2CCF05D32CE502359492C878124DE31DBE89612BB196A934605E44F272A5249F446BA60A11112D589CA56A3F898C2EE16F6B136C595C7AC3C2FF076D3D808BDBC824572211A961A8D96E393F7AF5806BEA91EDDFB1ABFB769EB08DE8BCDFE27EF98E9DE0ABCE3B
311
FCA1C54E8AE777ECE2BFFC92A94C87EDE6A9111BA1ADE75C74BF391275D33FAAC5FABF89F1D33C9836CB3225980B2A479BE96A4FB3D59F821BCF11CF1FC55602586C7191D99E2C9C0CF2B8A662E3484E59466361985485D7E248E7953C01F19DA23B9D256461B6E09C40FF02D1DEA98C19EBAFBA4659184B7D47DEDF22E2F5
311
3DB017721B164F5B845961697F0C699AAC2410982C385725A6361A500F59CD848221F103A8C1A7CA84A55F407794695C905C688E69B111550ACA946B9B4785FC1BDE0E229240B62665328986D5B32C400CEDD88188F35AC25EBCD40836F47F35E5C0EA4B6F767B50568CFFB5665C505E2AD5EA8A9997205F50A2350EAB32C9
311
294B0024108429953DF32C4D812E226658F78A490408362A94987E6F787DFCBBBABAAEDC36758ADEE9B58B41BF0F35D87BB1E991E02BF0B513748E6C0AA2EB2CE56EC68E97585643D82DE284E51DE03E4E22B00738761F1E66E1616A03EE093B0327B6BB9797262B0DCD72C6A5817ADAC1C3C0A3909CF6639B404D18B15CAF
311
4B3C09CEAA4414BD5F0723F059ED37048E7A64271711EDC9C5230F58FBDA5DE00DA512CF04BA6671A0D201A83D2EC81D2EB552C7E5CD1BF9D6913567B2CD53A659AC362A2B200B440195E2ACBBD167A32A86F7874F7F00686DB55D163481DADE5E417E979BAD827FC6B2B0AD8A6AB1567038E466EB4B10C4C2F3F71196A092
311
60938125FDAB8662456EAD68AB2F7C1DFF709C874887B76A4355564F017256531BF73D7D754A40E23401DA38EFC907CF8D8E3C1E5E7505D8E432C60BE1EDA01E5166683F169B6EAC6EC046153F66C2BE0679FD3F407982ABFA28F92E0E457501938D96B12090869079360D3F947CA8BBC3D9FCE1ECF3C676C9BE80EB67CABE
311
004FC290F8E26BE6A0371AD6CE66781C408A1FAA8CFFA63DD93A94CD5E1F3BA6A3DFB05B34E1247BB3949E3C332105035203136EA14AE89FF99E3E0B3C4EFE65C581A3A3D2D0EE84EFDB22B49DA31A07059E69B81628A8ED1228B63E42C3D840C3C01F460D1F331FE199821B03F22CCDB6DBF074B49566B12C3B3626074EA1
311
B130B4596BDBFBB642A835954A9509E5769234228129889952870EEE13F494954AD7A27EAD09411BDEEC5B6B6AD752C11509F826EF4007E86281B1AE63750FD09DBA87A34EF4CE2A75F3E85960004EA6B519F4806609E8C91CD18380BD81691D9F2CB5730631E6DDBAFBC30E96D3E1D3D67EE8FB72BAD92AD4C1FD3CEDFBD2
311
681858ED6583CA3853294B80AF67AECFAC6418D08164D5FD1E52E8B546BCC77B87C6E9D1655FFD384FB26A28AADD82E04B9C64EBF78FFF00504B03041400060808005D7A38518DFFFC99640100009B0300004500000039433536423636332D314546462D344541392D384444432D3636453245363644363039412F53636865
311
6D61732F52656E6465724D6174657269616C536368656D612E786D6CA5535D6BC230147DDFAF08799F5FDB600FADA20EA430D968A7AF12D36B1B481349529DFF7EF9A85A718860DFDA73EFB987734EA3D16FC5D10E946652C4B8DFE9610482CA9C8922C6B5D93CBFE3D1F0291A6B0D26A3255464182D920FB4233CC629881C
311
D49C18508CF000E3EE309A100D61622AAB4A8A33B2483F11CB639C545B0E1508438C3D3C0361192846DB7ACD198DF186700D182920B914FC1063A36AFBEE8FBA03FFD3CC1D1F4FC9E151A2AF59F628C5B7821D83FDFD3489305080F2EE04BF962195FB285E9D2DD352320A9E827AE357594914E42B1F5FE35F83688F60C4C9
311
1A6C946ED0668E8F244BC2EB0BA6E3BCCFC0B6A4B507F9F9F8D51EB315D9BA9E08D308E89F96931666E577837E2B4172199C68C4FE306156D47DF51C698C7B9D97FE5BEFE2190C3C38BB054E6E8163FB039CB4B993C80BF18D969203116D6BBD26238B821F9BB909AD6D9C71B85BCD8C33D66FEA3D31B4BC0AD45BEA46BBED
311
DFEC0F504B03041400060808005D7A3851C84F237251000000570000004700000039433536423636332D314546462D344541392D384444432D3636453245363644363039412F4173736574446174612F41737365745461626C654F66436F6E74656E74732E62696E536160607075B27472B63435D3B53430B4D435717631D1
311
B5703530D4B574317272B53475713370721502AACB4D2C492DCA4CCC492C28484D2C4ACC4B4E050A82012F90744FCD03CA26072767A4E6260200504B03041400060808005D7A3851C55C663656000000680000004500000039433536423636332D314546462D344541392D384444432D3636453245363644363039412F4173
311
736574446174612F53747265616D56657273696F6E5461626C652E696E665D8CBD0A80300C06F73E4B29FE6CDD8A2E82A083B8B7F209014925C9FBA3AEAEC7DD2555D896CB85E51C2A1BD834F6A1F56EC4494C4695278364ABB24ABD2146F88CCEBB89D5321FF8F3F43D672A3B44DF3CB6A1710F504B03041400060808005D
311
7A3851F4FBB76E37010000A20400003600000039433536423636332D314546462D344541392D384444432D3636453245363644363039412F4173736574446174612F636E782E786D6CCD94314FC3301085FF4A648931761251A9548E2B044B2790A818D8AECEA55875ECC8BE20F8F7D86D0650115387AEA7EFEE9E9FFC4EAE
311
3F075B7C6088C6BB96D5BC62053AED3BE3F62D9BA82F97AC582B19BCA71F182B1C0CD8B25C664AEE839FC6B9D4610F93CD556BDC612EDEC788B4859DC5A7FEC13B42479115DA428C2D8BFA1D07E03091EF301E780704BCE601A39F82C63489CC80F3241D10083BA69AAAA9CAEAAE6C6EB7F562552F578BE59B14995472E7BD
311
9D799396053FDE34953EED65AA9222034A4EC1CC547E0D537FA9E43BE3A448A49291427265EEA0AF3175C0385AA3819279C26B422A1384304871829514D9855F5E3C626F9CC92D9B240DC887E724100319BC424FFE537B796F362E12388DD7ECC8B9C6CBFBF072FC45AFA7581E73737D6939D7C88DEB2F9015713C27293AF9
311
BAA86F504B03041400060808005D7A385156BEE59DE7000000600100006700000039433536423636332D314546462D344541392D384444432D3636453245363644363039412F5265736F75726365732F45423942433935362D393031392D344344342D384530312D3944324245393544463042452F7468756D626E61696C2F
311
302F636E782E786D6C4D90C16EC4200C447F2542EA3181445D69BB22EC4FF4D44BE5126F8A966004A66AFFBED072D8D358E327CB33FAFA7DF8E10B53761456314F4A0C182C6D2EECAB287C1BCF62B81A9D88F8011343800357D16C61F49EA8C46E6D7883E29BEB5DB87773C780C9D9F7187631580F39AF22DB4F3C6082C2B4
311
61BE4F1B304CF39430534916EB017607F6033621306EC22C6A51A37A1997E7D7F97499CF97D3F94DCB461AFD41E43BEF0263A2F8B4284B750CF51FA565038C2EC975AA8510E6E1392DEBD2E8CCA9E6EF10FFC40A418CDE59E05A9324CBC86385100E2DFF61A365CB5BE5AF8CAAAD1BF30B504B03041400060808005D7A3851
311
A233C2345D000000800000006500000039433536423636332D314546462D344541392D384444432D3636453245363644363039412F5265736F75726365732F45423942433935362D393031392D344344342D384530312D3944324245393544463042452F7468756D626E61696C2F636E782E786D6C4D8B490E80201004BF42
311
E6EE76F3C0F216234B883063108CCF170C074F95AE5473F5C4C06E932E4F28601967600677D21E9D8092EDB002539227A2FCCB80E1168D80A6417297A89C5D6963B7129A0D1E8F2EE73AA7B62BBEB8B27DE50B504B03041400060808005D7A3851BE89762363000000880000005B00000039433536423636332D314546462D
311
344541392D384444432D3636453245363644363039412F5265736F75726365732F45423942433935362D393031392D344344342D384530312D3944324245393544463042452F636E782E786D6C4DCC3B0E80201004D0AB90EDFD75167CCE820A4A845D83603CBE602CAC26799919AEEEE0D965E2E908050C6D0FCCE04C8BC3
311
55404EB6198129C92351FAD580A10E464065907C8D948F8F166375F655BDC3FDC3B4E530A176BE7057BDC43B2A593FE403504B03041400060808005D7A3851ACAE6DD07E000000A30000003600000039433536423636332D314546462D344541392D384444432D3636453245363644363039412F5265736F75726365732F63
311
6E782E786D6C4D8CD10AC22018465F45FE7BCBC516FB411D38ED3D467343721A36A3C74F63175D7D70F8CEE1C367F3E46DD3CBC520A039312036DCE3ECC22A20EF0BED810C92A718F7BF1B90306D5640C520F99A627E1E68B6CB947DA5DE85C7018D42356277A5C81AA4EDA85BDA1BD650D41765B0D337A64C31CE5529F3EB
311
95AD79F905504B03041400060808005D7A385110CFB09B0B010000550300003400000039433536423636332D314546462D344541392D384444432D3636453245363644363039412F536368656D61732F636E782E786D6CCD93BD4E042114855F654262390C33719375C3B08585958D5AD921DC5DC90277C28FD1B717468ADD
311
C44E8BEDE0E4CBCD39072EDF7F3ADB7D408806FD4C46CA48075EA136FE38939C0EFD96747BC103623AC348E7A583995499087E0C9897266938C86CAB6A8D3F35F11E9D43FFACDEC149D2292B639C495CAF54E6841AE2896A99241D698088392828139271D026A800328126626213EBD95D3FDDBE8C9BDDB8DD6DB6AF7CA8A4
311
E06F88B6F1C62708B8DC4C4C6139FA6288F1A10282E7601A55531071EE8E963EF85008C1630AA58546A6AFA5907259AC513295B28615FC61041F6AD88BC80FE0211875AD992FECFD5BE827F01AC26379A960A4BDD6ECBFB9FC5B05C3BA01E51BD48510DF504B03041400060808005D7A3851E3603EBE7A000000C20000002C
311
00000039433536423636332D314546462D344541392D384444432D3636453245363644363039412F636E782E786D6C6DCD410EC2201085E1AB90D9DBEACE05D09878023D01A1D34A8419C380F1F82DA68B9AB8FDFEC93C3D7C52546FCC12980C9CBA232824CF63A0D9402DD3E10C6AB03A3397DD192872090D3406ABE7CCF5
311
B5D18893ABB1690CF4DCF02282E5EA8A5BB96FFE536F285CB347F95BEFFE81C9ED5AFF9D5B1FB575BB00504B03041400060808005D7A3851549594967F000000A300000007000000636E782E786D6C4D8CCB0E832014057F85DC3DADF671230960ACE07F988A8614A1A1D2F4F30B8D8BAE4E323933BCFDAC8EBC4D7CD9E005
311
D4870A88F1F73059BF0848DB4C1B20ADE43184EDEF06C48FAB11503048BEC4909E3B9ACC3C2657A8B3FEB143D65FF18678A6B51E067AD11DA38D523D45D4278DA8B0625D368E45C9F3EBE52D79F905504B03041400060808005D7A3851CA1DF9C9A900000073010000130000005B436F6E74656E745F54797065735D2E786D
311
6CA590410EC2300C04BF12E5DEBA70400835E500FC800F84E0B411AD13252E2ABF27A55740421CEDDDD9B55CEFA7A117778CC979527255565220197F75D42A39B22DB652EC9BFAFC089844F65252B2630E3B80643A1C742A7D40CA8AF571D09CC7D842D0E6A65B8475556DC07862242E78CE904D7D44ABC79EC569CAEBA537
311
E3521C16DF5CA5A40EA17746733E0B6615DE7217475F386F18B9481C510F1F021CD9FF027EA0E1F5C4E609504B03041400060808005D7A38513DEE336E64000000790000001B0000006175746F6465736B2D64657369676E2D7061636B6167652E786D6C35CBC10E83200C00D05F21DCA56CA76D41FC96062B120735B69A7D
311
BE268BB7777961F8D5AF396893C2ADB70FE7ADA196782C2DF776D7A97B5933C430F15651E5469C55D70F80A4992A3ADC954792C525AE70A1E4D6AD9816CC044FEFDF01FE3FDE907802504B03041400060808005D7A3851630DCE62FA000000960100003700000039433536423636332D314546462D344541392D384444432D
311
3636453245363644363039412F4173736574446174612F636F72652E786D6C8550416E833010FC0ADABBC1065248641CB5405ED0536F96ED102BC146D8AEFAFCDA814AEDA9A75DCDCECCEE0E3D7FCD8FEC53AD4E5BD301C93164CA082BB5993A08FE8A5AC8CE8CAED6FA5F34C80C9F5507090646A7D586658784355E99841A
311
2BD50E72E794874C3C62D381133735F39C071F19EE9E2F5CDCF9A472926F3C4643D072976A19DDF455AB1558733936C3F0D6A0B17E19513DE0111D6BD2A07EC46579E9ABAA1F6A5A2431A35ECF3FDBC5AAB8571258894B8CF01195F53B399C487B3AB41FB4484C469D5FE3CFFBD2F41DB0D774F5C03DA7C536FDE31A16F9BF
311
6BD0C657E5EEBA291C30128F7C0E182D524AB13C238C3525CABE01504B03041400060808005D7A3851589DCBBAF40000008E0100006800000039433536423636332D314546462D344541392D384444432D3636453245363644363039412F5265736F75726365732F45423942433935362D393031392D344344342D38453031
311
2D3944324245393544463042452F7468756D626E61696C2F302F636F72652E786D6C8550C16E842010FD15337714D1ADBA4136A9BA5FD0536F04584B760523D0F4F30BAB4DDA534F3379F3DE9B99472F5FCB23FB549BD3D6F450E61832658495DACC3D047F432D641746376BFD2F1A64862FAA870403A3F366C37A40C21AAF
311
4C428D95EA00B973CA43261EB1E9C1890FB5F09C071F19EE9EAF5CDCF9ACF232DF798C86A0E521D532BAE99B561BB0E6DA35E3F8DAA0A97E99503DE2097575D9A061C2845C87AA1AC69A1649CCA8D7CBCF76B129EE95044630C1087788D46FE5E95CB6E753FB4E8BC464D4F92DFE7C2C4DDF01C3B4D8D13F6E6195FFBB056D
311
7C450EB75DE18095F1B8E780D122A513CB33BA585392EC1B504B03041400060808005D7A385103C3FF60FA000000960100006600000039433536423636332D314546462D344541392D384444432D3636453245363644363039412F5265736F75726365732F45423942433935362D393031392D344344342D384530312D3944
311
324245393544463042452F7468756D626E61696C2F636F72652E786D6C8550CB6E833010FC15B4778331A440641CA940BEA0A7DE5C708815B0911F553FBF76A0527BEA6957B333B3BB432F5FEB927C0A63A5562DE4298644A8514F52CD2D787743352417468DD6EE170D12C557D1428481D1D968BF1DD0A895132AA24A4FE2
311
00B9B5C241322EA169C18E77B1F2947B1718F6916E7C7CF059A479BAF318F55E4E87544EC14DDEA430C0AA6B53F5FD6B8586F26540658F07D4947985BA011372ED8AA2EB4B9A4531A34EAE3FDB4723B8131330820946B841A47CCB4FE7BC3E9FEA779A4526A3D699F0F3B1347E07CCDDFDFAA1B85C68B64FFFB8FA6DFADFD5
311
4BE50A72B8EE0A0B2C0F473E078C6631A5509E11861A1365DF504B03041400060808005D7A385147FDEAFF0D010000B10100005C00000039433536423636332D314546462D344541392D384444432D3636453245363644363039412F5265736F75726365732F45423942433935362D393031392D344344342D384530312D39
311
44324245393544463042452F636F72652E786D6C8550C16E842010FD15C31D055657D9209BA8EC17F4D41B51D6925DC10834FDFCC26A93F6D4D34CDEBC376FE6B1EBD7F2CC3ED5E6B4352DC039029932A39DB4995B10FC1D3620BB72B659EB7FD14066E4A25A9060C0D9BCD9B01ED0688D5726A1C64EEA00A573CA836C7CC6
311
A6056EFC508BCC65F091E11EF92AC7879C558EF39DC759087A3AA47A8ADBF45DAB0DF0FA46EB61E86A28CAB380E58004A425AE612F1021B7FE74EA87921549CC99D7CB8FFBB829E9D50438410441442129DF7075C1CDA56ADE5991989C39BFC59F0FD3F41DE0A2A35D4FAB33A4085358C6E5B01108433A904ED06AB8A14EB0
311
6217FE310CEBF4BF61D0C69FC861B82B1CE038DEFF1A7056A4006379A51B6B0A9B7F03504B03041400060808005D7A3851F751A93FFA000000960100003700000039433536423636332D314546462D344541392D384444432D3636453245363644363039412F5265736F75726365732F636F72652E786D6C8550CB6E833010
311
FC15B477F34E219171A402F980AAA7DE2CB32156828DFCA8FAF9B50395DA534FBB9A9D99DD1D7AFE5A1EC9271A2BB5EAA048734850093D493577E0DD95B4909C19355ABB5F3448145FB0830803A3B3D17EDD21A195431551A527DC416E2D3A48C423341D5871C385A7DCBBC0B0F774E5E2CE674C8B74E331EABD9C76A99C82
311
9BBC4A34C09ACBB11986D7868CF5CB48EA211FC9B12E1AD28F79595EFAAAEA879A6651CCA893CBCF7661903B9C8095799993FC48CAFABD389C8AF674683F6816998C5A67C2CFFBD2F81DB037B4DA1B819666DBF48FAB5FA7FF5DBD54AE2A77D74D618115E1C8E780D12CA614CA33C25063A2EC1B504B03041400060808005D
311
7A3851E3BAC58DF8000000940100003500000039433536423636332D314546462D344541392D384444432D3636453245363644363039412F536368656D61732F636F72652E786D6C8550CB6E833010FC15B4778379A440641CA9407EA03DF5661987580936F2A3EAE7D7062AB5A79E76353B33BB3BE4F2B53C934F61ACD4AA
311
833CC59008C5F524D5DC817737D44072A1C468ED7ED120516C111D441828998DF6EB0171AD9C5011557A1207C8AC150E12FE0C4D0796DFC5C252E65D60D847BA32FE60B348F374E751E2BD9C0EA99C829BBC496180D6D7B61E86D71A8DD5CB88AA018FA8ADF21AF5232E8A6B5F96FD50912C8A297172F9D9CE8D604E4C400B
311
5C60845B5454EFF9E99C37E753F341B2C8A4C43A137E3E96C6EF80BE6D775A92EDB33F9E7E9DFEF7F452B9B2383C7785059A8713B7012559CC28942DC050639EF41B504B03041400060808005D7A385199C6334703010000D80100002D00000039433536423636332D314546462D344541392D384444432D36364532453636
311
44363039412F636F72652E786D6C95914D6EC3201085AF62CD1EFFC6C88E30519A3827E8AA3B0A130725060B70D5E317D7AEDAEEDA15E8F1BD19DE0C3BBC8F8FE40D9DD7D67450A4392468A455DA0C1DCCE14A1A480E9C396BC30F0C122346EC609181B3C1D979DA24694D40B3A8C62ADC44E13D0648E4235E3AF0F286A348
311
C51C22E1EFE924E45D0C9816E9CA7116F4F865950E454005BCCCCB9CE42D2977CF45BD2F9A7DDDBCB06C21399BB50955B935C3F1155562A7102301AF2B96ADCF119BB5DA20ADE227F555A303DE9E6AFA4469458AFE7221BBFED892E67C3E114AFBB2A7F44CF3F6188B4433673EB8389AADC83284BFDA57E3AF68F3A4FE196D
311
7578E0C577A86C993367D9E712E2B9EC847F00504B03041400060808005D7A385131AC245E08010000B201000008000000636F72652E786D6C8D50C16E842014FC15F2EE28A25BDD0DB249D5FD829E7AA3C2BA64158CE0A6FDFBC26A93F6D6D32333F3DE0CC3CE9FD3881E6A71DA9A1AB2840052A6B7529BA186D55F7105E8
311
CCD962ADFF250364C4A46A883070362C769D77A8B7C62B135163A5DA41E19CF280FA313C6A70FD4D4D2211AB0F0A774F66D1DFC5A0922CD9749C793DFDACF68B125E49E0945082C911D3E22D3B9CB2EA74A8DE591A959CADAB96BB9596C15D5FB55A80979763D9B6AF25EE8A970E172DE9F0B1C84ADC7484D24B93E74D5BB0
311
342E73E6FC12FEBC1F09393D72E2117D59BA519C7D583BEE82104A226BC62FE084A591F8137A9DE53F426BE373BA1FDC361CF02C047A12C1383618C6B3DE3063DBFC1B504B010214001400060808005D7A3851502777840F010000A80100004F000000000000000000000000000000000039433536423636332D314546462D
311
344541392D384444432D3636453245363644363039412F4173736574446174612F446566696E6974696F6E4974657261746F7250726F706572746965732E62696E504B010214001400060808005D7A3851C584A93A0E0100003002000045000000000000000000000000007C01000039433536423636332D314546462D3445
311
41392D384444432D3636453245363644363039412F4173736574446174612F496E7374616E636550726F706572746965732E62696E504B010214001400060808005D7A385188E57597CD3F0000904100006B00000000000000000000000000ED02000039433536423636332D314546462D344541392D384444432D36364532
311
45363644363039412F5265736F75726365732F45423942433935362D393031392D344344342D384530312D3944324245393544463042452F7468756D626E61696C2F302F67656E657269635F706E67504B010214001400060808005D7A385128BB58AF800100009E0500003D00000000000000000000000000434300003943
311
3536423636332D314546462D344541392D384444432D3636453245363644363039412F536368656D61732F436F6D6D6F6E536368656D612E786D6C504B010214001400060808005D7A3851670136ADA9040000B41400003E000000000000000000000000001E45000039433536423636332D314546462D344541392D384444
311
432D3636453245363644363039412F536368656D61732F47656E65726963536368656D612E786D6C504B010214001400060808005D7A38518DFFFC99640100009B0300004500000000000000000000000000234A000039433536423636332D314546462D344541392D384444432D3636453245363644363039412F53636865
311
6D61732F52656E6465724D6174657269616C536368656D612E786D6C504B010214001400060808005D7A3851C84F237251000000570000004700000000000000000000000000EA4B000039433536423636332D314546462D344541392D384444432D3636453245363644363039412F4173736574446174612F417373657454
311
61626C654F66436F6E74656E74732E62696E504B010214001400060808005D7A3851C55C663656000000680000004500000000000000000000000000A04C000039433536423636332D314546462D344541392D384444432D3636453245363644363039412F4173736574446174612F53747265616D56657273696F6E546162
311
6C652E696E66504B010214001400060808005D7A3851F4FBB76E37010000A20400003600000000000000000000000000594D000039433536423636332D314546462D344541392D384444432D3636453245363644363039412F4173736574446174612F636E782E786D6C504B010214001400060808005D7A385156BEE59DE7
311
000000600100006700000000000000000000000000E44E000039433536423636332D314546462D344541392D384444432D3636453245363644363039412F5265736F75726365732F45423942433935362D393031392D344344342D384530312D3944324245393544463042452F7468756D626E61696C2F302F636E782E786D
311
6C504B010214001400060808005D7A3851A233C2345D0000008000000065000000000000000000000000005050000039433536423636332D314546462D344541392D384444432D3636453245363644363039412F5265736F75726365732F45423942433935362D393031392D344344342D384530312D394432424539354446
311
3042452F7468756D626E61696C2F636E782E786D6C504B010214001400060808005D7A3851BE89762363000000880000005B000000000000000000000000003051000039433536423636332D314546462D344541392D384444432D3636453245363644363039412F5265736F75726365732F45423942433935362D39303139
311
2D344344342D384530312D3944324245393544463042452F636E782E786D6C504B010214001400060808005D7A3851ACAE6DD07E000000A300000036000000000000000000000000000C52000039433536423636332D314546462D344541392D384444432D3636453245363644363039412F5265736F75726365732F636E78
311
2E786D6C504B010214001400060808005D7A385110CFB09B0B010000550300003400000000000000000000000000DE52000039433536423636332D314546462D344541392D384444432D3636453245363644363039412F536368656D61732F636E782E786D6C504B010214001400060808005D7A3851E3603EBE7A000000C2
311
0000002C000000000000000000000000003B54000039433536423636332D314546462D344541392D384444432D3636453245363644363039412F636E782E786D6C504B010214001400060808005D7A3851549594967F000000A30000000700000000000000000000000000FF540000636E782E786D6C504B01021400140006
311
0808005D7A3851CA1DF9C9A9000000730100001300000000000000000000000000A35500005B436F6E74656E745F54797065735D2E786D6C504B010214001400060808005D7A38513DEE336E64000000790000001B000000000000000000000000007D5600006175746F6465736B2D64657369676E2D7061636B6167652E78
311
6D6C504B010214001400060808005D7A3851630DCE62FA0000009601000037000000000000000000000000001A57000039433536423636332D314546462D344541392D384444432D3636453245363644363039412F4173736574446174612F636F72652E786D6C504B010214001400060808005D7A3851589DCBBAF4000000
311
8E01000068000000000000000000000000006958000039433536423636332D314546462D344541392D384444432D3636453245363644363039412F5265736F75726365732F45423942433935362D393031392D344344342D384530312D3944324245393544463042452F7468756D626E61696C2F302F636F72652E786D6C50
311
4B010214001400060808005D7A385103C3FF60FA000000960100006600000000000000000000000000E359000039433536423636332D314546462D344541392D384444432D3636453245363644363039412F5265736F75726365732F45423942433935362D393031392D344344342D384530312D3944324245393544463042
311
452F7468756D626E61696C2F636F72652E786D6C504B010214001400060808005D7A385147FDEAFF0D010000B10100005C00000000000000000000000000615B000039433536423636332D314546462D344541392D384444432D3636453245363644363039412F5265736F75726365732F45423942433935362D393031392D
311
344344342D384530312D3944324245393544463042452F636F72652E786D6C504B010214001400060808005D7A3851F751A93FFA000000960100003700000000000000000000000000E85C000039433536423636332D314546462D344541392D384444432D3636453245363644363039412F5265736F75726365732F636F72
311
652E786D6C504B010214001400060808005D7A3851E3BAC58DF8000000940100003500000000000000000000000000375E000039433536423636332D314546462D344541392D384444432D3636453245363644363039412F536368656D61732F636F72652E786D6C504B010214001400060808005D7A385199C63347030100
311
00D80100002D00000000000000000000000000825F000039433536423636332D314546462D344541392D384444432D3636453245363644363039412F636F72652E786D6C504B010214001400060808005D7A385131AC245E08010000B20100000800000000000000000000000000D0600000636F72652E786D6C504B050600
311
0000001A001A00210B0000FE6100000000
310
504B03041400060808005D7A3851000000000000000000000000370000006662782F38444435373045422D363335352D344538352D413836442D3239434536414634424631312F617474726962757465732E62696E504B03041400060808005D7A3851000000000000000000000000350000006662782F3844443537304542
310
2D363335352D344538352D413836442D3239434536414634424631312F76657274696365732E62696E504B03041400060808005D7A3851F270F1330600000004000000360000006662782F38444435373045422D363335352D344538352D413836442D3239434536414634424631312F747269616E676C65732E62696E6366
310
60600000504B03041400060808005D7A385188E57597CD3F000090410000420000006662782F38444435373045422D363335352D344538352D413836442D3239434536414634424631312F7265736F75726365732F322F305F67656E657269632E706E67355B773CD4FF1FBF73E71C0E67EF7576C9DEF3EC995D46C6A1EC50
310
46649CBDF79E192942562825CE965D8A868C2842C8DE9FDFD1F7E7F138F7078FCF6B3F5FCFD7EBFDFEC41B196891913091804020321D6D7513FC77D8C5070EC3FFEE51B21F068154CC75D455CC028A3EA68992803810109FDDE5D5CEC5521B28A1B422BF80741695D5B529DA1C2D058AD2388BDA9F476F7C2CADC939304173
310
DBF48A452BF8A700C0C70C3D121C1AA15A5270C22E2B9E28763651F7DA0D12CE11077B2ECD0D560B5E3DE2368B1E65C5E1C87384A4CC5F2D9FB8BE39E9B77C753783A37998F5CEF1B4FEE553463245C9712270880DF339E0B882A6BA713D865F6F384C842D440934EF264F4A304F8DE4EEFA1E2BF5E2D91F5ADD9613D6E31D
310
DB33ED31DB1D7916CAF091286EA3D31B9CFECB78BB0060245B943C4C040119FF780A74DD308BA9D028678674EB5504ECF284EE814DAED07440BAF649BE4B55DA2890F4D73E2D489A59EE54FDB0A85B59F2F52C4858A02705C4815A792B0C4A996A2023ECB195073E115E3E3647F64243A8338F2000BCB58DA5692C7E7C3D41
310
3F963FEDF3CF00FBB0F831A9D51360FECA43819F527B89FA260EB63C5DA676830AA3626A3693B23F1A17A0DFFCE3EE164E31B5365EDF0C89EF64D8E38AB0BA9A1117D7C3A0EC44F44F4023095E80BA610DE336D0F99593A88BFC5306E72DF98F7FD132ED95878DF2964EA7E43071359FD83B2BDF9C6B5BDF768F0F3C0FC351
310
199526F53D9460A34511F75D1B63E488178569472C91A94497807A3FD4A390C6558F26D416365C3656DE6E769DA9D8FC73774E1709812842DD8EF96AED1960F79D21B395CDDFE6F92CB4EB962A4668C76990E2EF29798C8941D67DA50F4A5F947872460F1F6FDB794E8A29FD7AC0C0D6E0714339CE258FB17AE8535221E346
310
4A10F29A0BE5EEECEFC5675926A89F49EB14E5711894F6586DB5754EB4D5DA9C6437EBA57DB97A24F8B8A8DB295FFD73266CF57E82694DF5166DDF93573AFE9C9C5EB05F8FEF8E89E0A8917B0B3724DB7BEBB53252581EFC3E38166BA131A3A5B42FE2AD00A769BBFA4458D2DE7822F8C4F63D0B8E21B285AE13325F3410A4
310
35C648C9D91FDEB109E73CEDA7BC796961AF79175E1A3CE4C5E8B0D009B0C9E29EFD98BC8E97554E3D8D838424E270F7685226E5AC268E021EDE3522D583E8F20C0BDE2959EF5BBFEEDAB32FE9A3ED0E39F211A86AA9DEBFC68182EDED132AB8BB794442D2D7EA9F4D8BFF52BC4D55BB165124EE90A42D101E67BBBB292FFB
310
4F66DE5BF2300E44546757DA7CEF8932BFC9F92A0707953491A55C5A5ACEDABD9FA1AEA01BAC3DC5A24E22E7C47213493996EFBC369D086ED9397C9BA6C7F9855C7BD5E15BFC8C53DB3D2A4C5901A57ACD2FBDF4D1676E95338B2C2BCE65FDA4C64F5FEFDC7D9CA5AA1FCF11E193F2FDABF0F4916BF13FB916A224380E6462
310
A9815F2300DC49CC4DF8D055CEF76462F4B7A7ACA7365C2707891370BC1D0AA6203C44CCAB47084FEC057F27FFCD57F89B8B9852459798A675C66BD7CE572CAF71FF7E6D7ECF7BF62CAB7B3F1107DCD04DC55A3F9961700286141C94A4F771FEB2BCDA2DDEE0CB0BAE402FF1DB0100F8E475DFFFC074DDB4498AB7D186A765
310
4DDB1CB680D703D47CEB4E72F8CB13D86A4AA68116E26387B93FD6738779B34FEDB8E517EDF2BAF28D9BE93A1D3A164320E07D42E514725C29515FF361754213EDE06B079A2E99EB1CA82A02019EADEEB87B9AF005BD04BBCECB14AACD6B24EFBE482194A97DD32400685FF1FEF1544D1B14EFB1E7F08E6D2CD2AF52DE757F
310
35F5E62332EE88EA26417AD5C3E0E319D68F25414E6D672BD4522B278C57D18F0113921C71D96527E091F00CEB15AE23D24667369BD3CEFA10C7549D930890BA4366F4EBC55F01F746109F98ABCDD5A3EE06619C6AD78AB33E48E4C9BD21BF7478B385EC05C4F8987E2C1BFA0A60EBEDAA0AE0B015C2720ECE180FB6F2DEFB
310
EB822D96338C9B63822183BBF52FB664A7AE57003AABCE512BF77E7E31BDA2E739AC4C131657DDFE5225E900FB56CC01CDE808FA4A9C9DA16AC679656BB64796283D89812B8F91136AE18EE5EBBAF47A73BE3C153EB5D4CD491B4BFB4FE690A4CF9ABA08C0D8AA64220C438C96EA6CA80B58FE5761E697B3A292EB9FBDA502
310
FA863E49FE694ADDFFF9D62C520BDD1A22014147A0903A05B9B729F54272EF83931FEEC057BFF8C8055C279EAC5C0011804828734024F6CFA319C9CC6867C727184465CD9BB7ED386AFFD96B294A85E3802FAE47244602D8273615952B98C4F23F7EAE4463D9D638EEE374A20959E0FE519C4CFB0FBFE5DD80C2AA3F9DB961
310
D1BDE57E67C9BB47B77FDD74EE3094F5DBBE3EBC1FBDB7393F5116263009E2EFE1AF9A221B2AE234C902BF70E9F280ED23E73908361565964333A3F01D0B006AF32FB21AA1316744B489D5A198E85299241735BE559675130955C902A8ED761FC0DBE337A9F91919AF5CE32AF902ADF9AB2615E00E8A94586BA1A90839B618
310
32FF1BFB76D2EFADE6DB1BA04CCAD3DA649E7E2A0219F592E22F2AD54847EEA8E42271011E9074F8F3DD9FBA6CDF88FFC9FC7E811AD1CA8F4557CE4AFC7BBEDCF0114A48689F20A584520C74DA8127124B767E2FB91A6B186246727BE63C9445BAE02088D58B8EFDC0F1072407CD9B89A13F6303B4A928F593AD489B58E686
310
9325790ADC406036C591729FE14021F94B7796BB11848D463536A092A26F077F94639F7CEEE2A724C66EC885F4A24F8B8A0AC321F8FD149BA529460FAA34E4663C02D41FDF80BCA222D42F0ABFF8490F4FA74C673807C2051D8E467B47B616072860069A9A303ABA9B319D58404461401B0A0F9BE5E1E151C14BC33B32ABE0
310
3DDE91708DFAEB15E7C0D593C86BB7D7EC17BE56E57975F077BFD5525F3A1A361D584A75E08CF29FC7B44B2B3085014F3A5A14517377C3F6B8F37E59514C3B12F8AACDEDDA4DFC49BE5710101534CD6FB6DE15B50F11A09472AABA727F0C49D9CB906B158030065F48EB3625E010CEC1D511D0053474B11E6A4F01C0D6EF1B
310
ED3A944FDEC70E0DDCDC756C86545910E0DAE3BE3AA9A404574C2995CD5CAF9549226BC94B4F4F0F5F9086F418F6B32346464610D8BC7391D3C3A3CCF04CFC1FB2A3A3170E369511868F14EEA4E5E438CC73DB1F3248AA94B6B2FF33B222FF3D1E7BF146CAD229770158063BCE4F5391964DF62F7E52A7BE0EEA829C9E13C4
310
C147D6F93FE59E111DAB5E4594D6F3CD1AD375EE039930EFE5AF2BB2D41C83C7DABD8C659BAFBE8FAB392CA634F3D15C1D945DB4588D2B0824A4EC928AAC565557CA2F0DAA588CA5BE30B3A8004F7BF005E96CBF891D7F18112A3619FDF530DC8AA64954258E1811789B5189B49B4EB53F5F89F7D37523894F3EB57B373763
310
C91E502F52CC99EB7BDDF933FC324C4FFC2561DFFA7339FAFDD0A4BFBE6D3A8FF9ED1FC49898139864602458968913181918F719CCF5A68B2EE9C1FF050E34E63107003B8120FA982C21B30A874E4F5E4B38D5A8290C4B8D9BE48A0BE31EA995BDC37AC6DE90BA17D259DEF53605D55922FEB1855D915B659FBEB350EE0DFB
310
2F9F766E1C84CC8964B75D08667445EAB966015F63A18A9E0A325C1B3DC628C0D3CB60F767FA93CC65F25458BD23C3B312716E5F40E5858AC06EBA9AB14F95DB99147B832069201541D09A0D856E12C629CF32683760EE855537D1901988D5EBC156676C7DD51D7207CF3267AF1D76C2AD867315E44618015313A98B19941C
310
696FED3461CAA9B5415F918556D7802EDACEFD6B2E45853A9735DFC9DBF7E440F9319F8B6805A973BCCDC76C069A9144E51F187EDCC12FC31B5DEAAF0A76137199B106EC84ADA6B6EE697D4E6A96E007417F4E880E8B1E89B4BCE9D81EF611E2ED8F0C1A6C25F620FAFAAB656A7C42D464880E8AFAB0E0FC8EA38CA9A8AEEA
310
EE3E4648BA4680270A89743CDD3E6C6CBF34B7B640EFA285ABC7EA0A1E28F3CC963D114A80123EE66D0AF7D5380EB41909B605AB4765B709B808590458157E69BA1378FEC4B48CAF6A730E3BE3C5EF2DD1A5EAF94B1DDE50CEB55DDFD7EE9A16747FA4B223359FB1FCC69E1194892BABB93A1D5C4E807AC0EA2E30180811E7
310
7A2291F6E7F7FAA5E0F60215BC6024E48DE436C511F0628B8CA189982D4D83CCA17D305A7E923C37941CFDFDCD93ACAF735EF5F0E61BBD3E6C41A59B242790D3A3BAC7064DCD89AA2E37214EC839820949D5CAA31E240D2948E48F690298974A96BA9A8432BC90F5071D6537C9666EA4564796B7AFFFA548077BEEA75F6308
310
3435074BA182F3699557397F71548383FDA8CA34D99B981E72835ECDA5DDDC151315173D05A21F651AAF8524E88209E2E7A737ED1045800CE3390050BCFB8BE588DF111617874C62575039CA588EEFDEFEFE319B739DE2EDC147092A262611E159650E787917885EF08F1F51B8F2D8A71D60B58B190FEF9541A1BE94BC19FE
310
A50784DA1419FE4B0FB51B8D36B5FF8E1286FD8AF42B91E59A5F1CC4D60174E764045FD8C57B18209B217F89A62252BD20BE0E63E12B8E8F029FE19E0E8D0870F58721A557082250D5424F7909369376E41666C0EE77CD87CB283F661D5FB6D0DA023CB67320A20DC7BE661E9E1BFE5463085C557DA1FF9BE835733766C3D1
310
39F2CF9E2208873AD0EB4814DE9E6BF2CAF81614D4D43906ED1C05A3265CABBFE192770FC2F64F940CB6B17B5F166F133C9AEEAD2641807C3E69515171DD74C4A85311513D6EC9530B3B601B6BA3EBFF3B5C3D2F7D69765141E345F75433953D013ADDF8F6AA7DC3F4A7563FE5C7D367937E2900D7EAD0F9FC9A4A1A9B5BDF
310
1FEF08532660C01C5D6DE22199AA774383E306DAB87E301ABB7D213887F9869D4942D0D71E94B27EDF216A318BD488D45DF84529EF575AF3C3938C0AAA0215B01994153E2054A0B894DA5C784980633AAD48576957CF4AEAEAFADC7C587368551C73DBE1E57C58AC713303A8BFC258BD04B51724459FF9E24C03A81E0E0679
310
CEB9B348C0DC998FEB9C6D6EFA77D247CC8F92D3848599ED89A23218D0636465AD1CEEB7DC140D7426F83491C4E8E8281C2FB35240918FFECE880CA2A42D70E8B20B34DF5221C7DB0CF90ECCB9C745B37A47E9B716FF7A97B7A252C1F3814DC7B1E1A7F72B8751D524EF7CAE45B0C73B3BE7D08ED39781B380DDFC9AA4A474
310
9C9493DB5BAD07A6EA6C092FBD0E85DB004DF06B8C9D3089C5320187E4CE1846158C7EA7DDAE8AD9AFFF21AA3A1026BB06A259845E8232DEE62811A4DA9CEAB3A4887320B76E2AE5615EAB7BDF738CBDD01F1E64064BC13D9EC53576751CA8CACD58B3CEB0E6CA585BD089B2A59B9FC101403387AADBDBE70586B93D64BF3A
310
D4453EF9C3B6A93817E8346991798601344F79A83C51F3D50F7BF2683A3605F51A72449489E0EE6169C749C60B1035651103AEE24D24E51A759C840DD3FC6504DA6FE107510E447B43461C79D22970B75DE5E1BD3007D1AFC619A4A4A69B5626AF5E9B8374E20677F77E2F8E73DF868E8BEC7EBA7B6A75EEF7205E1AB9486C
310
B642741D6E03FF13FCCEDB1C4AC129886268B01CDF4B124AF797CF784F3C6DEC97A17D4B558070A0F1C04DA4FF9BDBF34159AEFE958479824B3F58EBD1E19088A2AFDE501B6F2052368A3FD0E650A179EFAB1561E1D27527077136E652676C3670F42DCB3352F48F6BC86D2C3B0051727E41A0A4DC6CE2BE9D47F5CAA2935A
310
3C0539AF080665997194ABECD723B08129CC5B6B21D2E7D54CD4D12610E7E9FB8306771A89576C7A982002775ED44F3F744CF21EEBB27A631671D921938AAEE3EB0D19CD1E083727F607823E817BF599DCED5394E37EEBC2E88782E638920CA641EF74D4CDFCDEF06F4278ECB18E31E7E9876F2D783C8BF429C75395F57E98
310
C2B495A3DA077EB3AC3C158608B6B57FE3EA48484D9A480096FCEE0DE880950E7E5A5714131C5C41AAA29FD19AE81AC145FA1B9E85C7169A5AB837B213493DF7E9AA4B5FBF9CDEB36EBD21EF1181B7CF7366AB2A951D01E37AF4EB835D1BE8C117CFBE7625D2EBCDB0B20C5A4B45CED0BCDE3EE8DA9DA78C2E21DEAAFFD119
310
7E463C33CC6A80FB785669B856EFF7A8CCCA2841B5A5369173320B1170C368B2748D81062EA0296E5E2D95D7667A4A46D98A6FF475C76AAB0A8C8D45E226FAFC9FE0133EA9F60111F99CA81ACE03A1D14C89E8B0D69079C91464FA1D99E651D0EAF606F345C42A8A1AA9BA391031582B96D5B4176A77AADB01F12FD298A75D
310
EEBB2C82F0B8650E880722F8DDD90C56A7A058E5FDEF1AC93545BA27367C76F5D8F9690CB6F8DAE141EDD7971F0FB548A2AE435F224D6E5954CA155512F7332029D5A1230854B79F258EC5FFDB09F5F6343A8EB193229B7F7E79B3E48F8E183860B38C8269D1B53738FF1E0BACF6AADA6D4869E9DE708E79B5DADCC09B1BC7
310
6F649731CFAF59A83FD8BAE4C749D66FA87A3810D4D62FFE826FA400C0F325D2BC0F3CA35F5847B82A2ACC7961745C823E4D863D54460AF792CE6F79B5C7A33B25C3AEA6CDE15A919B6367D781E9D44F61BF828672594A3E1D9EDD6DF179A81F27EAC05B936575D73E05C209DDD2115CFB705DF9BBF3C911589B3640735E9E
310
618FC9C36A7326C82B2205E244C55D56FDB9D5DC93CE958D4BF8174D2B3DA54CB3C09F2C2A6DFF73D23B2197355761AD421EC581284A7EF8DE2CE3497C0C804D49B41DFD6A7360844E5BEFFB495CFCDB97A4595911CDBA623274CE852B5E278AF0BEB1770E9D37CD977B2766A7DED0E94B840E1E95E8C77DE5CB6354AF7871
310
427C28ADBEEF7BA0A28E19DE9ACD75F379FE373EAE6DDDAE3834692F9C2B03B4FCA8FCA9ABE8EEEBEBB725B88A7C90941E850682CA04061A7DF0CE82ED49BFAFFD42C309818FAE14755CAAE78B0F73243ECCCAD7DF58FCB9CDFAE7A4D3E6671A613639130D056C8383C8F4FCF4808C331E544DD26E4755D09EA05253B3049A
310
1E32587CC25D72E073E2CD96D04A71BBCB0038FEC3F53D254199C3CDC67CD66640269431860225392B2CB3ECD0B4498AAE78BA1994246AE1EE78F2EDFB79F6C6CB6B5E279C4D373FBC21CB2698C9ACBBEB6A4BB6B39E16AB0E421CCBFC7654D81ED86022F9BB522146F9F4772E2D0E4FA70120C95A85A417BF5078B232F475
310
4363EB1750B2AC2148EB46B1EA72AD9B4D23ADCBC589D70106C3EC2ABEEED84DFE28E718C6C83502C28E9FDD3B09DA0A6F6F7B72B706A31C9E2A331EE70DA56A083D2177BFD63C55B11D8D949FAFCF90B23A1E24B9B5018B9A17E99F2890EC302F330FE7936E2C23F0D237EC8916F5166AB84B62A21BB0B950146962D754F9
310
2CC2C8877BED8FC7B7B25726DD19545392570B3A2C66B58F027BEF412E552D12A588C4A3CC5C3193FCB3485EFFF700D0B9EEC077754A33DC1FB9E25AF814628F91DDFECB667D3F7690803F38D13F8AE39353523BB08FC6760144AFA2CE28236F65EDBB3D5F59A57D612B99E3D7E5F8A851666BF9B5A6658EFC96EEB37A378A
310
BB0EB3FDDF1303AF32C41BD1C8560745D7BD81066B0D6313359CF488563D3BA3F8E2185D1FAA3EBA1397C9D0E3DD232180A4DCADB6AF25DB3AC3CC26589C8239E66E81547BC7E2F328F9884764CA37EB5DBE390DFC03A5246B456A7C3684C4377D0EEF9A350680FA9A077E8B2957B489E09AB1AD41316944C2254B5984830F
310
691C93CAA767EECF976FA5647538830B5E63236A6F0365C1E0F3E327F24FE35EDDBD7360B0F7374837409F7A6311BECC12B7026D4FA1AE204FA3F5FE904B1F420C7A9044AE58E403E7C4848E7DA25DC9EDAC79DD756FAA26B9EA83ACE8A214A2612A22AFA19DAE7DBAC5F8CDE1292A485F98DAC731A29FE01A3966E96BCB9F
310
B5A4C8830E1B9AF0C54B87FBE221A097036E5D28D1F869F810C06A9BB0AC0612F69AEBAF893C6E7AD59460208BAB3A6B09CA4F6BDDAB8CF0D1F84B72487498395A70DCD754796E271099A567A55CF242BBED64696378BB6CF25EF0FCDB589F3A82F1116D010A9AB9FA4358809EE0C973A2B4229BAA876A70B03AB49CBA7FBE
310
71DB1832FFD32F9BF2C8E98075CACAFB36921235D0F552B6A67E94E094097A5D7DF681B40623DA535ADA7A9AD8E9A62407D7C9A5AE51D62A17A83A23728DE86BB56115804D3F2675F2C6B87541A0FC497BF0CA86420F558C9859EBE9FAD62747E323E3AADC03FDCDDFE7407B09DA90B44E3185723C5381EAEF589765E2F7A0
310
99BA46695BAD60CEF3491B8A171F5F56444F7CE9455312C3498C74173AEA0214EC029833B34B650CBB5A5508D5091665309642791708ECF27CF11DB3D797D6CFE474453BD4BFADB768094B2147814D81C7CBAF8228DCAF5564B5891F5EF6A860EB2E323CB82AB868D8EA048880D63B0DE5341F1B3D53297B928A11E15F25E5
310
148990F710747C3509ED14909C552EBE3973246FCE55D00564D8310BC3EBC5085D08D806799B77D6C57FDF5E55837F9E934F09C03C729271B64F12D0A9F9E938107CAF7BF1EC8CF1BB9B42363D33070F4CACB425E605DDB0A34A12BB936DE286B9887A4E2E558F0886498BFF49C311D96C277CF6A9FC0D75AD0ECC5226D7E0
310
E3572012E56D7FDE4410CEC7A6D0F997F225A2055B8B92E3956E875AE4993CB3D4C9063AF98FD45E1BAB165640A43439A2C9181A7C355B297C0A0CCFFAE19B6FA3C2BA238A885FBC98B8F6DAF4B94B97304878DF4D8BFF6A4AEDF79E90ED4E68F00CD7299F4E0D83E35601AF0CBEF18C1E870E74758FA91F5131075004DB3C
310
FCF09AE1DABC11957FD9808C92E8A678CE9DBE40DDA0E0D1D505AAFBCBA208232BFB6FB3704E8985E61ADE53DE74152F5C7DE74B1DEDCD37DC3E8FB30D7EBA8B9EFFC3606BF90B8D438279CB7709FC7C00D327F41817EEA71CD9E49FE9C8C9A81C70915D9F0F15958EC5AA4C3BBFAF46986B90F188BDB24B89DE3C6F29EC3E
310
6F66D84856EE96A35E657CA41B41EFD8DBFA16AD6E91439EA92B40B21C053249F51AE50EB0B24C770FFAF40DF12C8436366819C48E36547D4E7B72FE2BBF10828583057814A668BDF183F6B2E58DFB151103E56303E63D00F39C27C4661605DB644D19175D02E3F0241E8FC3458D17AAAADB117CE9EEA690D0DB01E634878C
310
04C2C9310B69FCAB831151E3AD293BEF6E46B0ABCECB50F5939B39C613D41E81FAE8D34CAE3C4566B761D37185FE864AC32FCB71AEF39DAA5BAB88609BB980CD2F07A8F941653B529567726E2B2A58D079DD57E1E5E31426CF184A04D7B03B985F276D47406AF276FE32E3328BA866EB1FD39BEF57863A317634AA5FE46740
310
9B3873F5069EF0D71AF00AD189D17BA1974ECDB2D623E9E14086386A6AAB5807825C37B015BFE892AFD154920EC437EB945D958E18622E1E0FE2FA06557CE4BB9BBD05A2D40E774DA2B65473791E314B7D6C886820B2FCFE4AA272B3B8B15E7344A145E8AF919B5454D89D36D413E87211186BF6F645E5EC94DCCE8E1C7990
310
22E4EC9BC86D7A0F2AFB1FC4B2CE48F84B3F49ECE65BAD24CADCC07EFF39AB06BE9E6B27A059938EA7208838455383DDBCFCD967DDE4650EF92A14FF933C975DB20BD7FEEBC4487576485963D757D16340D9599FEB362F775F38CA4185A86F74B629C81B133644A3B18FD056E997E0734F9BE26D11C0AAFC669E2AC9FC41D2
310
81F8B2E1C35AE27BCE05F3DA295488096688719D974DF1B5D182DB7792288697F8763CFB43562C1CDEE11C4AABD5C22B6E33F6F389CFC3477C5919DC0D533F8A7A1846B7ADB60ABDC26C43D0CFC8910B7C15EE22675BD02702ED39DB77A87A192CA7A543E6205B979B9F5A6B512A3CA799E198B2D5797C0AF8D1D872CA455D
310
4D431A7879D4DD76110B5FF7F4176B54477A9EB5E4A5D11214FDA585F0382751D8E2582BA5D2075053298FEB8F1537304E32CB22C2E2B693DC0A760B1DFCA751BDC445AFDCBB12820ED85F6D5298933C7EF1211E9E057684056CDA3FEF3BB6052355E162DF27C59E965A8DDB7F9437EB72CDDA3A090DE65A5B2F50326247B7
310
EC67B73ACC7047FC9B353D6EE990F772207C6EC52B39DC2F3C0754821DAB559F7C1809C7D0DD5B0499D0442E0A6E391B3D5DB46D11E731E6794EC77523FBDAA242ED67F9FA1FB684255671F63C9BCFE6E7E896D51001A6113EF2298BA494E0B0980D1FA5B9D60796554C02256B1E0345FB7C6186B6A19D2DCA270416262845
310
FA4F42DB5D9B0A0B6F07FCA2E56C242522E001E0CEB734AF310FC8BFB57E38E03AACE93B3326A2197891E68452B26A6307FDABFEE0223D3C03C3C73D2D5BC054C8311F12004CAE488E5C29287F8156A2CAA4AD0D7BE6B97264E4139F437CE73ADF52E5134C52B819777C18B323A5924E4F67AFD13B1CDC3A61793A79FAF5C0
310
CEB718E441071E797C6DCCB9EFCF7E4A1E9F3DF3C2F9C9E8294E9586868788C972857FB0556D7A26941A7EEB9B580AD78EC40B85DC906B4120A563CA3B87797ED612D3B035962BB75F6515A393F4CB057F564CDF54F2E5A024514E6A1F901DB80C7E70B1FC05E356A7E72FABF4775B3E3FB8F70A2A8E7B6A94542BB3041579
310
78CCC999E707A29CC795E67A59CC546A5D47B368954CA7B6E75EC9E1F6FC73CE3B4F71F8CB1A6B15923D61EAAEB14626AAA9D04A26EB9C66CD1BE86CA31A5D8703DE04CD1EBCE4F5CCB62F93909AD11E55799A781A956ED27D3E738F4538CB04ADABC7DAEF20BC35BA6A90BCC1DC61BA05F20D8832FFB9BC9B15E2DB838A0A
310
FBB7E0C82A562127E0446894F427794C3037186F622BF24DE1B00AA10A23BFA47B2A180D6DA5AD6F7326FEB8C100C2D7142EB2A0B2A9D1008A09BA343D70E054AB69E2A7EDB783CBD92537FAF4A44D1296AC2792729104B3276C276C951D0CF3CF3F1E6B017720A7B8505A5FF9589365979678C36F1BAF759EAF57C60F1FF5
310
FE9DCF5F8E764FF25A2D06CF25117A8FED51884C13B2B750DB0E4F5E3D64124FCF11F0AD8F1CC3B3DA4B38ED22BF1CB2585EE6BFEBBA63FBFD44F9537B9B37BDD6B358720F98A8125AED4349CCFEB0E135F19E208A04CA7E2B10711185D72E381F448036EF57C9F874E54A971CA37A639E986AC0226DC5AA00D5B14FEA9192
310
234B3DE617814FC221C92F33F1D392F297731B567FD98FD91D989379AF567A65B8ADF177591DB90FBEA99BF4ED11B16E50A0AB1DBF1156D034BBE04D69D08F939D8E92BF525A1DDAFF80ECBC95D8F45D3FDD289FD23F7D8B452F8EBB34EC082DEEE68E18EDDF072060FAD2AB1504DD4879BF67099FC58F6E9DEFBF645D1633
310
4A3E9A127C6F1AF6132CF287E433B43A0EE93812B4AA0B194E03EE3FF91EF9C6ED0074A2F6EB18A96A7C9890B1FCDA1F2095E944DB911ED54C60DF16FB74C8CE9BDC7C54C4F14078CF73C2FFF1F1BBCCD7CF64F71407EA1683DBC410D226627F66E509060D5C0AFD611DE681D509DB8DD12FB1265B03C6F5C55FF4C30BD941
310
87FF692B4F152982502F193098A789526A038AB529A52BC0DC4FB6285CBAC10A8B8DB75DCD9BDABBB221E27D1F8DA9F5EE5926A1C8AA9BA9BC09239C6A7F12914EA3B59EFF7AAEC3FFCCE56F1C5C2980AD072793527565E774F4631DB178CEEC691B1F367BEA0CF2907E1D6B854D527065979DDEF002D8B2ACEA7CE21AE297
310
737EDE1D45B31233B73FEA35BCFDD0B09721FDBAF6432681F2FD10C3E9EFB246FD6E854B344ACC9D8A0EEF876A7314B49B6A499FC650B099D650DBFEC7638ADFD245E2B7839DA5AC5F7D5623FC0ECEEC8653FC9B2BDD1AD4D00A566FBA7186DD3C9CD26512551637498CADB950FEC71ADB9A5524285DE328B8EC7EC75D2345
310
AEC6A27C42AF6D9B92155315C80DBFCABBB7DA0FAE425C4FB896B15C9BFAC4FE67DF5A23D30C93DA4D8F36FB15D100050DA6062E22AEC5F4DAC4F6FEEF97AE05DE63C6D38F9E068A20BC5E3B6BCD75320C5090924E7F93640A7735B1A43451C2D91EE62C6238B797349E59890AF3A520DF4A87095F3ABEC2E61F0593416CE4
310
6CDCBE0E00E2523FCCD04408588B5B6C9DB6459C786CE378770B54F51DA3A5E1DF2A3349BEAAC234A6CF8993B598B3B25B4B113E353A4D750FA7534749430F3EBF2512E7EA3FD43C6AB9A1F765A58463B306721A15D224FAFE8C6F5E3432D57EE697DA0DD5A9D4866A8BCCAAA9DFF1F06047851408FEC060471D0E3EB86BFA
310
F46E4B5E60311DC3E3CEA147C75CF971BE74689507154FF2D2E92F15CDB2B9182B11459FD8ACAC5A85F174BC94A7F4EE4C4F5CAFA7C02E37BF0BC77B7DCD0C047BC316F562A01A441AFA7931CC84A28CB9F4AA367EB515778F29BFE61195FA671F4352E5E46E3A64773F1F76EE5EB36D7BCE9BCEAD837A4D77F8DB8C92AEEF
310
6711920D7C7D0F76B0FD0EB7AB83724CD35BCA7D36DDDF5FBB7FF6F04A91F3E2BB3B8F1A43CD659639507FF6331C5F697BCC782AE57D757A27D97F1AB9E0AEDB43F92F1B2AACDF5FEC8ADBAF9F814E2027003BA2F9E144B1938A7A04050AE5D953B82C45619165C813A10E76DD6906B3C16438064D14CDA713AEC420034613
310
E1AC7241904A49FBF87409AFB1FCB9B72FE7933A87D8FBEDACECE4EDCF6A4FE9FB94D5DEB74FAB7CFEAE17EE965DF980DCCA2D04134994F9A2E94D2265DA4FE6AA7B7AC15FACAC2B5ABBCD7DFF542C5314FDAB2E1B9D8B65220B8E2B638BE008E8DCA22678C820C5053664D15E89F2D735B51A84955E81A443545E9FF787BE
310
0FA700A76D136C27DA179A7C6E8939E01BE756E19CB292798063D8B97F44E8A27BCF3A614FEB8BE974A718E86F7EC99B53CA35FA24F61F2B07266684623A3D4CF073E511F3A10A8FDAFAF0078C577F4DF9D339FE7862E5FA47CF4344209E5BF76D783B1B48E152AD281B15FCB934DCDA49CEC5706B1EE8B460F435324A5CAD
310
154725E21AB8044B75A557A79F6C807B9340AA3D92503E866F4274412926C8C504E4D5EF8C0E68DD0B028781A6B4054F11CF18941F101C57CCC796773ABC8DED9CD91FE5788806C05E548895354AEAC96546D55B0E94A59F148D061F42AA398D822CDECA4CDE79E13469BDCC44FDC990F366BA5978C15F97ED80CBFD73B0CD
310
9B8B83A4F6845BDFBFAF034019473FB9A63BD55D3A4A7284757071574029A4D016DCCBE95DD679EF3C4880BF169422F8C89B68A988D2B13793CAED4F74DE7486C72DC94DF46B8E93D8E02EFCB1FF9B3BA10C8AE7F653DF94F4AF466CDDCEF5776687F7C4C14B63E4EED1719DC2EC482D7DBCC7AE518CDE3D5FF86D39000EC3
310
673C0044E1D308BF05F74D1B5F033A7D1BE7F74BC55BBE3E4A20F920946CA0271EB17BD2B80E5660ACB8A29A79F5E4BBA49D4D945B6EEF4A7EFEAA65E5555BBB57A7E15D2F83C69F30BBB978D2B39F1F26FC097424D39BB33CA3D87ABF64E307938B685BAD44F71556A30B7E712CA4FE600613C3E554B69ADE949A7CFE214D
310
F1FFF05CB82151EC6FC31950239F94CF7AD39DC473F6EA356E5EC2C4EFA04383CEFE985A127484366FBEE3C0EC4FEA363E4F6632AE781392FD45D67B63FB8DF70E82734F431FD3443172A0E30A83D60982D55FA6A2CF86DBA8382502ACC6CDEF3B907982EED1160E14863FA242F9757347E1544275CCDCF71ECD5F8621CBEA
310
326B8BA884AD7F825781923E66971F04010D574C541D8427A438A37EEF8AF88240EED7362C953F5A81DE2D56109CDE2524EA0F5D2F87308C0C47BD97AD605878AB8589E17CA83930CB5E0DCCD75853D68B1AB136594926DE426C367428E9334AFAFF90ECE221BB5DC9E5BB53D2CDEF954EAA9CD814F0E5725F1965DD458E5F
310
8487683AD86B9D0076BE3EE91EB1CECC5331A67A3F79D8B27587C12EC2A6A70474749F27B4C0BBAFB94B34189E88DC18964BE4121B9137FD516C7755356E50D6714E31ACD222621EBBCD1CFF81D87479056A9DA0E0B8EA19D24CF937DA89F78E8650CCBDC110AAB6C4E46DCBFD0446BA9E2060E81F314AC2031E88135E5476
310
AC0160EF5C0DD2EEF1B8B5CB2D198BE9A554A9093B5F7D7E4B5407DDFCA1D9C152FD97F55BFFFDFE802954DFEC8995B983E28AC92F1971E28F531DC407A1280EB125F64A72E617EFB27DFBCEDCDA2D6F2BDADA36873EE46B9BE1782998C63DA7182BC383FB6FD15DA472B175D7E8B4FC88F38D6E07FEAA3FA3CBB8F6B449EC
310
F14D2175E5C5CCA3A42ABF24CA6C9395AF74535F4DDB38CB84F56614B0FD32D7E19CA5CF988DB4449C40E23DF2B16772594554579094450F56F253CD25EA7F77366FB1CFE79696C428BB64D5A41E986189427E5E4D7E2DAE3D5BB4972B3DC44EAABDDDD63A2264ECFA5C786EB0EE1FDC5BE34FA0F08376869FD1E61EA06CAE
310
15191135445EE8F0394161C3266A596AA035572BB0C8876180D8B9C77D307DF9DCDF7365ABDA6F3A2366436457A4DFC1F259666569A9E4A79C817BDD5610E5200FCE894A358EC72858D50EF67545DA81C6FACE3D457BAF70367E1E6BDD9A952FB4F56247F58F523B97E640246051A72F79BE42FFA0B3187F63097F91C48B86
310
8586F714B0EBD5A00A8412C1236E1298F60C72BE6C96B82B404CADAA304AE9F303176B14BA53FBC2D5E86377E35542019E24D97B96A49B2C0E5006E7795954DEAF5DA58958839043C6C70BD3B1B33B6DC5C31316D8A6923F142E26F6711A2258AF977DDF1F970ECC4F1F2B434B96D81BEB6E89BF3BBB3C7C8CC80505070723
310
D6D7D7D3C8CA27CA164A26024FED94B12A86031867241DA53D929636DA600F050BC40CE48B8BA03D69224720DEE2ED2127390BDF5E6EA64527BBD4C4C63FA76BB801FEEC0E61218EC98A8A86CD8313781617877E66692839B9468CF4DB8E50A73986E558E309C0D6F676F921BE02F1185454DC75B111572FF9D27D85EA14C0
310
5AD7271225B391C4275659CA4A43759D0BA44639BE4C30A84DB7F67A41399FB95CBF923B1B1672ABC807C1590557FB18D811983FA97F5E609516D62281D38B1281F68FC75528C35E4CD7DF0F7DBB5E5DD69C414EBEA2F4A5B241B996BA77AE6C772E367408C633EA3E438B68563EA8BE7667F3A4C4FDEEA52ABD78A2820F44
310
3B7914A15F180018D231E64519C56A12F6CA7C8DAE18F06F6B769DBF92329EF6A5D18FBCE600F36BD8E8198DE5CDAA96181F3A756EBA5501CEE58F497EA4F418A2B82565B9BCC611713C0B708CCA1F398B78C5F7D03B3437CC18F13061F55C7BEDADD5ACB1DB0E36D3CE47FF6EA1A563A57E9649EA5D14D1A50EAA45746338
310
1C073777EF1600607BAF6428A7DDC079D47A204EF1E1F1F0589FB054D45E02CE623B3823C317C601E589E22B1E88B448524B86A82828E32345EC18AE17214B42F8C41C6D428016D9BA31DDCB47572561E5A402E5BA4FCE55F78AF7268524AA04130F3A20BA5D1E9F9948EA48FC8F5314FDB35E21898198060034ACE5E3E2BB
310
CA34092518F275190AF65F45867FF0900AA4B81F25427414C372BF51DC29AA855C5428EE1EEDD6B849AD60F6E73475C2D2523F8A2772C840A478DED18A8C5C91B085F255DC4F54EA7AA8947354FD17ECF8FB3B4A0DE7B483CAF3A1165EE05BBA413E5C1FEF3DE1D6B8F2F3F3251C17D9FCAB48A9AAF63AC773A0E413BBC46A
310
9ADF84A566FC920E4D8C52C9769EE3301CADEEEDD92B312E02E2A7E35B7F1E7D203FE5A7D75578B06E99D0E46FFADB8FDA17ED8880390DA29094202D6F645F76F6F96409CDA05495A96E84B04A00D1A6C6C81D7F3DE9376E828CCF144EE50E364ACCE7237EA0BFB5607ED1AC3CFE73794E5B61739D14DF1743441B1AC98F00
310
ECEDE9E7301FA29755FBEFA68C91EF2B314CF510537EF1ABFC9A762496280B546F5EDAAF8A5B387D469FC9A878A92828C88608453ACEC6094DCA54111E7AD5B2663DFE2DD151B7F123B9F4FEF8EE36AB125FD7AD52A59B1B765B3E3F73E3F73DEA93875004D2AFFE3CDE9493B87A9904DD052028949041A91DC0E1BA47BA71
310
4343FD5B25E0A6A09503AFC17C790058A836A324FE31D7893512E28230332F153181C1E018E1124EBE1BA262AA428A518237D1EA7275E48C5C561BD19ED6912EDD8367DA0F31E40EEAE9683DA9257525AEA7B632B97119E17145A90231768A4F3B9120FF32E8319B015E3CBE26F1A754177D8185345817C096B0CE443A955D
310
13AC15E1FB5DEEA0239EC32A3C92241A237B0B02FFCB4F93CF2B02570C8D192E2F2A68CEEB42F12E6F8CEEFF46C251E22B4341C56FB08CCE550E7A9D6F4D6564B9EA52A83D5BF2C6E03FA19D2775E15A8A7ACF30A13C259EE7F5EF2AC3BA354F1500E1A07FC63FB4686E2F12EC69719F9ECF5FE3F35598DF2CE944008CE78F
310
0911BA5BE5D0A34E0098FF038669C26030BA9B300303039852A8F6F496341737CA7E0D2E3AAA36DE0A70AA7D9CA0D54D9AD84B18A44C9E625475E1C97B93BEBB38DCE7D227E67A2D00F531436136355F243D1FC0D712C5765754FA22FCFFAE97919161F46D6E61ACB37D83777B385889770B50765B127768443A5C4D3A4E35
310
A3151111F146B7CA116F918A049F1C272F2CD7976C69A0068773451659A97E0F4A08FE604C3FF6CE7385DB19F4D3ABC8A0D80DA8A42096AC377DB49382B36E270B6FA7570188B4B7D1DDDDA82ACA487CCA5D38BD3BD039ADBAFA4ACFF27809239B722081E2EB9F145320553D183F28471C388BC8814E5045676767AB58A8E7
310
2D1CED2CA731379515D2E533E4CF0B39DFC625F97AC4836831A4DE330E87A8126FA17EBE583D614E71E22A8DBF2825599743E0640037303E8E1B1E8EA4E1ABFA4F62907B5E4E0E5DCFDAB417C36C6848A2B8D15F1E505434C0707E16B1CFC2A1C36A42BBF55734F8F4301DDC2A5110CEE8C0747F69519265012A2174BF4E95
310
5ECD4FDE095A3ABC70536B7AD0B9D7892F81287D667C108703C9B66A221E9A0929D030008F77FF6F5D2108EF5706FC87A3069B976F7C9FC3239D13D283CDEA83597461079FEEE049B0F392889898B7D87D31F8D60ED7B56B91823A8E4EDDB36C6172ECEE42BD42B12CD67994FA0F0DFAE9389356F4CD4425A4B8AA55CBF7EC
310
D585C6A2C2316791E43D5C06841ADBB226A87FD61515FFBB0167B74E56BD7F3E90A57A97FEDCBDF483A0D6699A8C0849CAEB4947FAA90D8E332D9DEBD9F4738C37DA0CAF9CF3DAA68BCB67C420459C7A64498D6E848E5CADE92BB6901F607AA331104A67F7CD650EE169B1DAE94D2C31C2F993632259B6957E246EFE4C5481
310
107B07118607700040E5812A2A2A38DA0076875258C753F60E0F2662C748EDD5F3F3686B8FC3BD6FE631ECCAA1E8B1C1E565AD117E54893E79F4672E32F9E46B2A183DFDCF3EECB4D4D077DBEA0DA254D256045109670050129E9B9B1A9E4A11344D61497A992778095151510C4BB7EF2009B63AA4360635312E4CF668B7E0
310
D3D85A8688E2BD83B569439892ADB63461930D428E0DE42E4AC57CE48DA5CC1449530D8BD3D6A0F08DF20C8E8F570F2CFFFCEA286E30969B4654D498A58D9DA782E19FE3F002181838925592C4A1EF0B332D88B61A92C644547BED490D3A42CFFAB70E36D961F694F6307F72FF15A1C79D5B1B5CEFD353D9E2B52566DEC8F8
310
F09CB3E8359C0F68EBBB7898243E34E12A015B2685AB303C04D3A9E00671FF3DFF0A184E4A2ABEB2B666AF5B3A209C73D8EF29DCDB069C9F391EEE9DD0F74C7BCDE16F8F02E3B8816122BBEB50665775B600549D8BB33A54A6BF940C028118BC6878C79958D6784F9DEAA6E26748386FFAF8D0D0101E2847B6563F5D8DC1D7
310
8F787BE00E2C941AE12148D4A81599FE8F68D4DA5CDED75530ADE138240300EE13B0FC13A1687FED6774662C05A2B7DFB186732F0D7A93545D8B0A6390AE5054D9CB582DA846D7A061B3358B45E2B52DDE63E114397EDB7E09233A579155D795BE76102CF277F4DF8B188C4F2879BEAE3C08347124BF9ED23B128259FE107D
310
31E34A652F090B30B39E0D9AF917B76A2806135621A8A60681F16AF216514BBD02711585B5B1AE823F4B2D0369EA5B6BCB863072727FFC871CA6C9AB79A814D989057E9470A3D238BC87CBB4A0EA49AFE2B86F22E499793CAA9047080450166BDC357524561E258C77CB697F1ABB32562CF87C3B7AA12F911EF19FB3E5C022
310
22E887D08202A60A17151F5E053A86B437771088B4FEE14D652C43E8D939995D34545E12E2FF93D4E366EAD25F10CB7DED141563C3D0C447AF06078A91135FD4B9611583CB4BF3BD167F2399CEAB0E0100F8FFC305F00F1711717173138B4B48C83022295DE657EFEDD97F238ECA80F528AFB4F8D67AD4E2594B9A3AA86D74
310
87EFC313BA95745C186F0CDD84CC12DC9CB0424B42203D351FD9C0A3AF10CC7F388E0329279087386421F194F4A29464C1DEF7EF8BE515E4A199DCD5B909342598D8FE6A231F71336248D5CEC5454455C7BE383B3BC7B260FED27F703FDC39A170F3827239102F59D4DEE7FEF82EAA1A5E4BA94DCC4CC44E7E2EDE20F24244
310
E4454369D2E87C3F823F193FD4FD27E1C23984B01898D15ABC20711A8A558054951A6AE280096BA36CBA439603B7B0B4C45F248C14B2383B4B5CD8ECECE4FF859AD4A6CA2326D020EF090F4041D28DB66E5256B56232CC52829DE8060BAE6BBF37D4B7469B822454FE93210A3E8D15E69FFCF01123222611C51C4FD0A041A0
310
CFA2471CF6BE38D2B20FA4C3525B5B8B586759475CF80ADFE67A284AC24651E52B8E683D24C2622642F27E7C3C22783BCF63648BC398BD6CD0D9C97E7E7E3EACB6126DB7A6C1FD9F1031302EE67ED96F22B77C7CA0239BB324207559B105E4693EB26EC46182A92C9C0DBD24F29B31C5C5AC1F84300E0E17CEEAC15F5736FA
310
4A98971E2F1423BFCD68D4BBD5F86E74B40A369F39507C88FCDB35D2DD8DEBEA4AF999E23CF2816D204200DF6E611781B9884C1AC8888B4DE397320472959434323A5A36B22A8E1F721A270DF3BD65E4A31C11FF048AFB0D8B7B6881423793963A23CFCE935FC189ED36FAE35C46DA3574C979E4394BE52084F3081837BE03
310
3396D2EBD80F1F691B273F660D2B32FA27A33B1DE4ADA5F0FA4651511102DFA410DDA86E065272CA314D5249DF91B06BB92807B28EFD54F08F7B525252782CD276DD02E6B0319B13DF87B1F6361AD6B28FC0D711CF445429B9E5A433CD493051C49A9E03DDB1B147D880253514A5DED88009018620EE229101C041950E2D8A
310
A8E1F5F5438E0C0C0C60EEDEE9E3E0C051948C69F84BB7B2A48A1F3C8EB9E6864687F4F4F6F6E2FA87608ADAF9C5E117B7C1A737E710769DA1D15ECE6A84502AA855398712D5FB51BE92E4EF824969CE18278798AC303C2C7980DD2500ADF8FB1E6D6C2FAAFF9987178923334A244758BAA01A9A1B70FA5097D01E1CC2A58D
310
AD0EC94CE6430AA9B0C10D75E3C6BAC670EFBADEE1607739CE0FC18A2587E3EC3058562014C64219C69BC269082D5C2F4A659278D585755912176D78A1B641719C2A394CED495A1AC5D583FD2F5EDD93308EA7EAE8A6DD396598BDBD3D4CFED62D18A5BDFDE0DD5C80D1A89BA62697B131AE7CE9A6594138582F1B37D68F17
310
49AC7CB67A70695D48A4A056AC1FBD4E82358CEAE38F54B95A9016F9000F9879C0D9D131768635CA798895F27D6F1614F11F2838A83611AA51C9A3DDB539D42979C29F10465655C17BEC3E2760B80DCBF609198C7B171A531905F3EC218D696025975E986C6B4C666666787271F202805577DD5A3EF0CAFAF91B62DC4B2DB4
310
217A7606282F31D8DDBC290593BAA93EA6353AFA9939B877978481E15CFC9F2755CDC00C538F63A4BA3E80AE009B73CA0185687D339A507D165B74290D6EE46D5C58148F020C3668ABE9EF2F7549170DC80DB41FFC1D678FF19AEB10C7133832B104B80F691B3138F97A92D26E551F1F110400D45AC71A9B9AC41A1A1B1DAE
310
ED0B0810638EFFB511D46B121C6FEA0F38CD00E03CFFEB9713FE1F9C263E4DDEC160D0497FA9A132BA608584057FB15380825DE6C7FC3C667EE947D488A09898D8E939C4953BF4EC9836344D2CC6B2971B2A21A572B06096F4982D2CC7232D46E8EA69DC83722E267754D777F97F96D5DA74E1E75178084D0E70F12AD33E5F
310
71EF2AFA599B2BEBF60A5BE475F444F240CBFE8143C334E7ED9150FEEFEF7EB020C4DBED388DD1D6A167A76F3CBF119B578AE8CFA7736ACAFA4440A1C47185638A0D2F3EB5BDDEFDA958FB13CE4AA4923D5BF840392D45544329525749734866684BF7F8D9D54D892E19BCA9F829A0F8BFCBEEA6CFDFC61D74EA1A645ED7A1
310
FF241739F15694BD835B66FEC5677E40FE69BD3F91AE402F036537218A401CB0828604AD189E575015C6F3F6BBC8AC79CF6C70653847254B31551EFCBEB5978B9DB85D58D0FA41A9DFE9C624834AA04949D24B5AE6D299E072D152D12097920F14AA92C31C3B97E28B6C2E6E9C23D63043ECBBC0A60FDF5BD0C33C127EA8A3
310
308B8B6AFFEB28B4455BF6E7AF4FC6222728357EB8E46E85053E6A8843AB23295BF838ABDA94658FEF3F832F147046B4ACD6F7D48E8FCC9618582961C898D1C7A253C91BFECBDA6BA18A1FCF70755DCCEE2222F41B76D23CA98D0CB3D95F0CF66D57FFF65E2A90F5DF40FC3187621E981BD0BC1D992787212688976B94A8F0
310
C6EF646624B570B78E068826F87CE27041A95C9A4871FF65CC17FCB1639629AD6A9517000D63AC231F3D741CB8430777E7ECF80CE7A3F73C0F162F7E56AA71F4DA80A33CD6ACEE78E2C11FAC03DAFCE929B106F8F6B3ED2DC71FF994BD9CEF4E9A94896EF1B6E2B7B4978168BCF0847A3D2A4F1B0500B926E634B174548E9F
310
BAD27153FB5FC36799B1E6C7C38A94E1F9E996796D7B485E635D5287A2AE76FBD11A341DB3F8F810385BB7296391973DC6C37C452A9305AEBBE0CDB6C566DB59FE60C8E94B1FD090354BF51439FFD1B48D725228FFA88C84F686F547107A7A235665A4593B7C34D748C1AC8D56DD5DA861EEFBADDECBBD65117E65851F9035
310
1AEB65F0EFCFF4BCFEF24CB7A5879699FAC437A7AF9099186CF006BB923A59E37D7A36A29FD8D2CBB914A5E9D0A8FD212FBF796AE9A67958FF1D5D8B85F78F96219D4714EB919929241B6C018AAE0C02069F8D919961EC5DDFBFB7573E3AC8E08BFB7C8534BE6DE045B3CD63DBD71F7638BA2309CAE398EA3A7D8F98BBBC7A
310
EB367EFA5CFA27A9F8F2F52FE878058E6209C026453F8E7E8A237DFC389E9590F6059B397CFD65183BBF936E86896612A5B5FEE49DAC8455D026218AFEBEC12B3523A45B57B82C9C97E02ACFA1184DB18E48CF615DBF39C3CC6F0B4AE6BBEEA2E39D944E290302FA3DE33FA7E40296E2EF7BF1CD855BBECFAD0FD622BEE974
310
6FC4FDFDE545AE6E3BC234CADF83A0FB76DFB145BF3828AE3436368AC24989454F8FF70A177672C711CAA1A76107218CF948CA01F873520E7A2B118EBB161ABAD432932029628B6761590C98AB590C8C8C79798CE9F715BA696E839E9131A4BB68BE923F1747FBFF165331FFDD4D05997ACD168F12CA75348DAC04C7F509FE
310
83898A8B421181AF492861CE81E4A2DD0A30850CFA95E05F097FF70F9E777310D584A75BA7018922E271DAB1D785671157685B7D383D3E074DDB4F1E44EF04B07BAAC75A062077C54B9752C738C9D804D402E02851F3F89605AF189738C18C021D2139EAF72513824E10DDD3047BACC8521ED7E98B257D1166903B1B08FA6F
310
918FD7E162913FEC7D0EF4787E29C35FBA8C6E2C9C20E9AB30AE42CA2A01A090E7D010C1B5BF9CEE2A304BF3A987FB40D836979B79E18D70F257DA61E808472DD85B82761825779D6B90CAEB0F23360C6F80A7D7D77545E95B3DFF0CF96A827F9B5BCECD2C9698718417EF80FEEDEE938AFF55859D0D540B7FE09435583A6F
310
04874A0C7E8CF234DF4879722000167F5872CEC6BF3EF7E5A8CC8121E6A359227C8A29C95212F9F735BC72A887D56B8F309FC525BFB4FD767AAEC4AEFF249CFBBD2DE1AB9969A6155C7D8DABC307E47324C1F916C7BCFF40ABA5644E9FFB9238D19ADADA49D9610F01ABBA57E4DFCBDCCBB2B93C8953206C91DE01B0E2651A
310
6D6C31721915B31F7B7CBCE55466F6D70402788FA91D73BE4ADCBA99A35F17D6B83383704917D6833F0FA3CD45C926ADB8BC17999A4A0AFBCE2541F7B8CF4C2F5FBA611B3E626D64407CB32C122DFF4EF8674D6EDBB86C8F7C6A16D50FA685E2CCA34F8F7D1D8265BB0042E9D7F1F666F7BE5FAA5184DF58E12122A42EF02F
310
461B3F369AC746F96528AD208512AB56844CF75B97F352DF7995024FB02855385854F3798670D01CAC771AC3E1889EC25F61A20C1F8CAB46898817F9C47E2CDA1F286BF2F358298709FE567C91133E2638C8B53975E753EA8BFD3578B5F7186B7BF084EBA3F77BAC3132A5779902EC22AF2D2E79F42D324E083386DAEE9810
310
D1B44A5DAA54513C7A71E52A4AB9257D975B621308FE4D2141CC3DCFE946C154A3C1DFCCA7629EC69ACFA831634ADDA93C0388D2A9A2DDAFCF957C6995BCE7FBB6DC4EBAE79E63EB08E9A25F52F67076F7093CA545CA3053B5BF576DEAD4E0017143C5F759F32B2D6F145B52B67B48909B7C7FCA6586EE385A2189C16932CB
310
6DDFD9152AE317C430492A578ED27B72D85D40C7C93C097939E1B50F4D67F05334FE9DC362C30B7FF561B95259138ECFD9274C8D695C31B14D4EAA9F3D7FA8DDF652F8C5DEFA23284C799B7D94416DEE81E05A866302DC70192A5368EA65E1CED8BF107A1E2D3119A71E85DC1A7B0C1E93274CE04DD0F2ABC8AC7C987FDB00
310
2B6F81757B43502EF7A0D92E416494FAEEA4C9C090CD9557AA4D532F4996A272B94355C5A0E4974EEA9627476F30809B94D8D8D860062E02204643BEC7D0438AF800FC7E2B26955D595421E83C69E1A07E0E3122285835F014AD538188CF9737CE76D464A353FA55A001AB2526B84E985083693BC76FE211CA1D000679C889
310
E3C009832C87E1AC2EDD05C302557422DF0800E316FCAC86978A371F025A6C7DAA9F333E7BD160403A1A06EA75AA9888FF01504B03041400060808005D7A385151464CB48900000043010000360000006662782F38444435373045422D363335352D344538352D413836442D3239434536414634424631312F646972656374
310
6F72792E786D6C9D8F310EC2300C45AF127987122606C71DD918B841D4B851A43646695A717C52A85029031293A5A76FBF6FACEF7DA7264E43906840EF0FA03836E242F406C6DCEE4EA06AC22492573150D1F66C60C640E8938CB705396EEDD86DE9B5042FE27813D640EA63BB001C722AF6E55CB61E4863F58284D5D3F53D
310
D715CE1C3985E63FD7F1B7EBDD617E9F1E504B03041400060808005D7A3851F09DD0F746070000541C0000340000006662782F38444435373045422D363335352D344538352D413836442D3239434536414634424631312F6F626A656374732E786D6CDD59596FDB3810FE2B84F665F74196E4AB56E1B8888F044691B6A8D1
310
C5BE09B44C3BDC5007282971F6D7EF902265519163A507B0D804881D8A1CCE7C738FA61F8E11438F84673489AF2CAFE75A88C461B2A3F1E1CA2AF2BD3DB1D087199AF224C96BFB2C14E3885C5962D99A4D0F3C2952B5B4237B5CB0E6EACDFC2F94852426160A19CEB22B2B0BEF49847BB8C8931DC91E7A3B9CE3DE617FEC79
310
BD72A349F6C0717ADFB82AC59CC439B00AEB3150511C78E6BF2092339B3A6283B16DD06D5BFF956D8E14DC6494C6598EE3F005578DEBFA67B86A5C37F086CB557FE4DBA3E170600FC77DCF9EDFCC97B6F76EE02EC68B857FBDF22D349B6E9384550A4849BC032D3E5B336FEA882795F80A8536BEC3248E49A8D06CDBB0238A
310
2E2559131303584F8A565348296B6D61D051F833DB3A8162B064A0AD85D39F75EB4DB67F030859172BE51911569EE51C74ADB02FFDC19D3AE5AAA1179AA108E78453CC10A35B8E392808B6960A32C8086F11A490C04C6A51D3ABF30A867DD997DAB8DC178C09FFB566D2D302F04792679233FA0FE127EEEBB7014F206D41E3
310
7CA284CD9F5320E14F1DB9583E1BF4D5C31248B467F800D602628A4D837E03AF858805EBA535FB78B33D6E447C68BF3CE5494A782E2C4F3AB3F23BADC19A6981F17500A5C4D5D4DD0995AF00FD2740BEE2054D41739C1E87C7A1969DE338DB273C02ED2017D92EFC7191F8FAE2DBD4A90ECF103262E5394CC16D7F12A68618
310
C6DD354867D34730FA840F94709B1033B0E93B1A0B3F0743412C812588F7FBEDD19AAD2198C2229CC20CA487DFA923BE22F828E940BC6968A82DFC7650947698A69F9D74750B36C36958A9CA90F11CBEA39F82EFF572F37153F03D0EC99D72EC25D9D398E6904CDB193240375CFEDBFA93F4C85B966C313B9D36368570CD21
310
1171A3452D1BA51624F5029C88345C6A46AEDC51F076C6704C922253EB6D712A4C58C283ED7350BA70EB5D7F6A1B282F5306D01ACB20B9879CA602136BA6B45505C25E4D50B030CC95051E4AAD06DB224A031C25452C42ED4B536CF201714658225095D4B4616BAFD5647774BF2F32085EAD24170690CA9F35E1D2C28710C7
310
DAF8E564CF3124D1240E28E4607096D61B8C0B2AF05EE739236C1F50C68A28D85306792488707A867E4709EA99EB813C3F257CD74AD0B42CED93DA8604E00A580D92CE5665CC573AE5E4918A3253E6339D0D8C1DAA0EB566C333E942648A1640B5314A335FCDFDF9C21F8D6DDFF57C7BB8580EEDC9CAF56C7FD99FAFFCD1F2
310
C69DAF9A7CEA6855CF77A04A51E618FE97DF17D136C694C1032136DEA5EF3FC8EC79E540687426CBE5E89DBB9ADBE3C168640F5793917D3D192FEDBEBF588DAF6F86F31BCF7338C99282872473FA8E1B68934CE3C339AE34772F6328943597939DD6575398FF710C6DE6044389FFD5205AC5AE9682B06B1015479B2114870F
310
22450521547DADEED308A24D3EDAE2DC1BE3B2DB1BB8F2C7F3FCBEEBF727FE68D431ECC99B7E38D2B5C91042E759E44192E290E6ED29B5814C4796DF945D7A036F5462A3FFF6FB08F0EABC5A31F57A66524C0534C20712ECB1E82B5A42E925895BB3DE812559466392C9BEF045BDD8A0E9F6A0FC32B3748BD9D22C88488EBF
310
C76265A3D1F00288E62C800E361733848B7544E502AA67394751F4CB90EAA5FCCF4186A39495BDF1250CBCBE864077456D162A9816573C827D06380FDC1D91A38E4BD42BF67545D1AAB52675FFBBC99F81475742BF101E7D45F762AB37F27CF1338130341E7983F1BB4A1597D0D297E5A2F7630574ABE173F044E8E1BE5371
310
DA4D2BB532AF2CC4731241EB8BF38277F2D83144136D5B5A2015191A2E51BBE98D05A5ECF974D70797C9A6EF5C495CBB066A571AC36CAC93202FA4683562A90B390714E3AE3778B6C6E622D51F8E98BFBCCAAEBB5F2407469771800ABB0CC12AFE1875786BA56ED450D913CE4308A51BF969CFC1237664776AE60C726D65BD
310
AE692F55DC6B11522398F2621169EFC417F61583AAA1E3CE9CDBB2D073CAF5B5486D3D18689FF8309836697DBEDD34A8C04AE7D35F0446E4A94141AD2E4407FD0AA96FEBD39CA0414149F46DFDCAF1FF4417A215581BBDC104394B1885413ED9A10349207FC3A8A24387C22392C9BC0CC6AB82947E8BD0E1F4633987CDF196
310
E9D3E13D86613653FD5B11C2201572E695A5D6D16F303A15D34B39D0EA3D40EBA66298850A4EAF2CB0D89C4287D6DBC2084C0E1C25F5C688131C1BC70791F1CB53D5FFA763021D884A27B9AA3D5D70519219CE04A5702ADF2D40DD573E984DBF5F74CD0EC2397CDD167925CC69E1248D0241BF4428858349E18382F70825C5
310
EB72793DB9C780A4D334FF553B28A9DA39E6073992AFE17DBDFCE28869FAFA334A597110EA7CAD633628D9A253674539B99A82612831532CAAC8C57BE70B4FE0B554846E281801FAFD3819FFE12C92284AE272C9B9562FB7D0E61E5E55ED1C3D2684D6DFF5268E9C1CA85701C11667A48777D9032C806A3915F3D41262C300
310
AA685A3300AD11A10B3866EC5F2F91AA8E6A53957AD815F0C8F700081C49BCFF116E53DF501B5A822F0057F2E1E98B5E983A1C06E7B37F01504B03041400060808005D7A385178D88D70E1000000550100003C0000006662782F38444435373045422D363335352D344538352D413836442D3239434536414634424631312F
310
7265736F75726365732F322F636E782E786D6C4D90CD6A042110845F6510721C75862C4C16C77D899C72598CF61A59B5077F42F2F6D18D819CBAA9FA68AA4B5CBE829F3E21658771270BE56482A8D1B8687752CB6DDEC874912221967F1899A20AB0932E13296CC27A0CC9C04D55DF55EFE27D88FC6A214272FA7A444B26ED
310
55CE3BC9FA0382A2AA163490EFD4A8A2E8421364AC49433B515C8071422750050C912B5FF9CC5FE6F5F975399D97ED7CDADE04EBA414EF887EF02E1648783CAD5C635B634BC405EB801435B941F5379AF1178FB67882355B8A5C52EB6060E5FB68980BCA027B20BFAE14AC3FD9C6A381367B21F207504B0304140006080800
310
5D7A3851FF15A4A45D000000800000003A0000006662782F38444435373045422D363335352D344538352D413836442D3239434536414634424631312F7265736F75726365732F636E782E786D6C4D8B3B0E80201005AF42B6F75B59F0390B113044D83508C6E30BC6C26AF226F3B8BA6360974DA7271430F523308B2B198F
310
9B80925DB700539227A2FCCB80A18E5640D320F996A81C9F32D6E9129A0D1EF74FCE750E6D57BC7165FBCA07504B03041400060808005D7A3851311551FC4201000056050000300000006662782F38444435373045422D363335352D344538352D413836442D3239434536414634424631312F636E782E786D6CCD94CF4A03
310
3110C65F650978DCEC1F2CD4924DC1834FE041BC65B3D335369B2CC944ECDB9BD4B455A4E8A1606F61F20B7CDFCC9761EBF749176FE0BCB2A6230DAD490146DA4199B1230137E592146BCE9CB5F805238511137424950967A3B361CEA5013622E854D5CA6C7351203AD507044F0AA985F71DF1F205264145403B80DFD241A0
310
A00D75E06D7012E27B5413E4F7D2814018086FEBB62EEBBBB2BD7D6C16AB66B95A2C9F599548CE7A6B75E695417076BE696B69E3D1443935AB12C059702A53C903E1276DB4578655F19E331FF59A3173B89B1337CF5A4981B151959508584608C4C4AA4F98B32A39FEE6FBE1FEE9A4219E06E540A275BB7F6B4373AE0D4769
310
3426E26F5DD883BF99B7FD6BB4FC7F733F6B380BBB98DD43727D8CEECF24C43C0933EA6BFC00476997CF7F5C2CA8E4359A3E28BB90E76ABF02E3E0D346E41F504B03041400060808005D7A385140BE56287F000000A30000000B0000006662782F636E782E786D6C4D8CD10E822018465F85FDF79494106D80D3C0F77089CE
310
85D0485A8F1F342FBAFAB6B3EF1CD17C5687DE36BE96E025904305C8FA7B18173F4B48DB8439A0468918C2F67703E487D54A281894986348CF1D8D761A922BD42DFEB143AE35BD54A6C3EC4C29AE0DA7B8E54CE3D3F56658DBD75D4F48368E45C9F3EBE52D79F505504B03041400060808005D7A3851A6D797065F00000082
310
00000007000000636E782E786D6C4DCB3B0E80201045D1AD90E9FD7516806B51190811670C8A61F982B1B0BAC9C97B72CA7B1037C6D3332918DA1E04D2CAC69353902EDB8C20262D23F3F59B81A079470595414B17391D1F19B4730A5583A7ED43BBE4025D9592775E5ADFFA01504B03041400060808005D7A3851ECFD112D
310
A800000026010000130000005B436F6E74656E745F54797065735D2E786D6C7D4F4B0EC22010BD0A61DF525D18634ABB506FE00510A79458060253536F2FD89D5197F3FED3F68B9BD80362B21E25DFD40D6780DADF2C1AC9671AAA3D677DD75E9E0112CB5A4C928F44E12044D22338956A1F003333F8E814E5331A1194BE2B
310
0362DB343BA13D122055543278D79E6050F344ECBC6478EDCD76CE8EABAE5449AE4298AC56946789C28AAFBEABC53F3EAF09A84A1441B91F0101CD4780756578C173A578FFDDBD00504B03041400060808005D7A38513DEE336E64000000790000001B0000006175746F6465736B2D64657369676E2D7061636B6167652E78
310
6D6C35CBC10E83200C00D05F21DCA56CA76D41FC96062B120735B69A7DBE268BB7777961F8D5AF396893C2ADB70FE7ADA196782C2DF776D7A97B5933C430F15651E5469C55D70F80A4992A3ADC954792C525AE70A1E4D6AD9816CC044FEFDF01FE3FDE907802504B03041400060808005D7A38515DCD4746F40000008E0100
310
003D0000006662782F38444435373045422D363335352D344538352D413836442D3239434536414634424631312F7265736F75726365732F322F636F72652E786D6C8550CB6EC32010FC156BEFD8C68FC44498A86DDC2FE8A93704C44589C1E251F5F30BB12BB5A79E76353B33BB3BF4FCB5DC8B4FE5BCB666045CD6502823
310
ACD4661E21862B1AA03833EAAC0DBF685018BEA811320C8CCECEC67587843541998C1A2BD50E72EF558042DC533382171F6AE1258F2131FCAD5CB9B8F15995B8DC788CC6A8E52ED532B9E9AB560E18C1C7A96DC92BBA906E401D3912F434F518E1EEF082C9E132B5CF0DADB298D1A0979FEDC2291E9404D6D44D8D6A829AEE
310
0DF7273C9CFAE19D5699C9A80F2EFDBC2FCDDF253AAD36F48F5B5CE5FF6E519BD036BBDBA6F0C0703AEE3160B4CAE9A4F2882ED59C24FB06504B03041400060808005D7A38511ADDF19BF9000000960100003B0000006662782F38444435373045422D363335352D344538352D413836442D3239434536414634424631312F
310
7265736F75726365732F636F72652E786D6C8550CB4EC33010FC9568EF4EE23CDAB8725C012D5FC0899BE56C83D5C68EFC407C3E761B243871DAD5ECCCECEEF0E3D7722B3ED1796DCD08B4ACA140A3ECA4CD3C420C1732407114DC591B7ED1A03072C111320C82CFCEC675839435014D468D9D7003A5F718A050B7D48CE0D5
310
072EB294312486BF96AB5457396349CB074FF018F5B449F594DCF445A303C1E8FEDCB6EC959C5837908EED19793AF794D06EF742D9EE746E9F1B5E65B1E0412F3FDB9543197002D1D44D4D6A469AEE8DF6073A1CFAE19D579929B80F2EFDBC2DCDDF8170E86D740A3DAF1ED33FAE719DFE778DDA84B6D95C1F0A0F82A623EF
310
03C1AB9C522AF70853CD898A6F504B03041400060808005D7A385168FF8D35F3000000B1010000310000006662782F38444435373045422D363335352D344538352D413836442D3239434536414634424631312F636F72652E786D6C8D504B6EC32014BC8AC51EDB38C62511264A6AE7045D758780382831587CAA1EBF10BB
310
52BBCBEAA17933CCBCA1C7EFF9517C29E7B5353D40650D0A658495DA4C3D88E10A09288E8C3A6BC31F1A280C9F550F320C189D9C8DCB06096B8232193556AA0DE4DEAB000AF1488F1E787153332F790C89E1EFE5C2C59D4FAA44E5CA6334E8F9572A9CE24149C09ABAA961BD874DFB81F0019103269FB4CA4C4663D472B3D2
310
32B9EBAB560E30320CF8AD1ECFB0DB610CDB91607822DD009BFDFBD89D2EEDF98210ADB298511F5CBA79FB245FF7AA7C15FECB1C17F942666DC2AED90C5785072CE7792E18AD7281693CDB4D3397CD7E00504B03041400060808005D7A38516B591FE754010000DD0200000C0000006662782F636F72652E786D6C8D525D6F
310
832014FD2B867754D4B6DA20CDB676BF604F7BA3481DA9824130FDF9033FE27C58B7982039F7DE73EE39019F1E6D130C5CF742C912A0300601974C5542D625B0E60673109C08D64A991F6D2090B4E525F03020B8D6CA7633C494345C7A54AA8ACF20ED7B6E40C01A772941CFBE784B436A8DEBE8EF6147D99DD63C44E1D447
310
B0B5A29A4745E5D8C44D700D48810E97342DDEE1B9C87298158702BE5C7608A26CFF868AFDF992BE2638F2C3041BD12EEA4C736A7805481227318C0B98641F687744F971977FE2C87712DC1BED3CCFA2DE1D20B7EB034713BEE1B35DF5379F15D2A4C9CC374DF48020B7DE582038F2F9B8DF18DE364327ECF233F4DA2C16EE
310
0E1A38334A67AE5229BB9606DA58EEA8E360FC7034551DF348F01B4FF284E739870B8ACADAAD468DBB5EADF1EADB9D3AAEE1601E8154BAA5CDBADCB4E27AAE421B4BCB38538DD2FF995EAC2E6146FE61926F504B03041400060808005D7A3851915C3F0F08010000B201000008000000636F72652E786D6C8D50CB6EC32010
310
FC15B4776CE34762224CD436E917F4D41B35C441B1C1021CB57F5F885DA9BDF5B4686676671876FC9C467457CE6B6B3A2059014899DE4A6D860E9670C12DA02367CEDAF04B06C88849759060E06C70769937A8B72628935063A5DA40E1BD0A80FA313E3AF0FD554D22134B880A7FCB66D1DFC4A03292AD3ACE829E7E567BA7
310
445012785994052E282EEB37D21C487B68DA7796272567CBA2E566A56574D717AD1C704AF6E7AAA2AFF844EB16D7744FF1D3B92198D4BB174277A773F55CB23C2D73E6838B7FDE8EC49C0179714FBE2C5F29CE3EAC1D37410C259135E317F082E589F8137A99E53F426B13AA723BB86E78E024067A10D1383518C7A3DE3853
310
DBFC1B504B010214001400060808005D7A38510000000000000000000000003700000000000000000000000000000000006662782F38444435373045422D363335352D344538352D413836442D3239434536414634424631312F617474726962757465732E62696E504B010214001400060808005D7A385100000000000000
310
00000000003500000000000000000000000000550000006662782F38444435373045422D363335352D344538352D413836442D3239434536414634424631312F76657274696365732E62696E504B010214001400060808005D7A3851F270F13306000000040000003600000000000000000000000000A80000006662782F38
310
444435373045422D363335352D344538352D413836442D3239434536414634424631312F747269616E676C65732E62696E504B010214001400060808005D7A385188E57597CD3F0000904100004200000000000000000000000000020100006662782F38444435373045422D363335352D344538352D413836442D32394345
310
36414634424631312F7265736F75726365732F322F305F67656E657269632E706E67504B010214001400060808005D7A385151464CB4890000004301000036000000000000000000000000002F4100006662782F38444435373045422D363335352D344538352D413836442D3239434536414634424631312F646972656374
310
6F72792E786D6C504B010214001400060808005D7A3851F09DD0F746070000541C000034000000000000000000000000000C4200006662782F38444435373045422D363335352D344538352D413836442D3239434536414634424631312F6F626A656374732E786D6C504B010214001400060808005D7A385178D88D70E100
310
0000550100003C00000000000000000000000000A44900006662782F38444435373045422D363335352D344538352D413836442D3239434536414634424631312F7265736F75726365732F322F636E782E786D6C504B010214001400060808005D7A3851FF15A4A45D000000800000003A00000000000000000000000000DF
310
4A00006662782F38444435373045422D363335352D344538352D413836442D3239434536414634424631312F7265736F75726365732F636E782E786D6C504B010214001400060808005D7A3851311551FC42010000560500003000000000000000000000000000944B00006662782F38444435373045422D363335352D3445
310
38352D413836442D3239434536414634424631312F636E782E786D6C504B010214001400060808005D7A385140BE56287F000000A30000000B00000000000000000000000000244D00006662782F636E782E786D6C504B010214001400060808005D7A3851A6D797065F000000820000000700000000000000000000000000
310
CC4D0000636E782E786D6C504B010214001400060808005D7A3851ECFD112DA8000000260100001300000000000000000000000000504E00005B436F6E74656E745F54797065735D2E786D6C504B010214001400060808005D7A38513DEE336E64000000790000001B00000000000000000000000000294F00006175746F64
310
65736B2D64657369676E2D7061636B6167652E786D6C504B010214001400060808005D7A38515DCD4746F40000008E0100003D00000000000000000000000000C64F00006662782F38444435373045422D363335352D344538352D413836442D3239434536414634424631312F7265736F75726365732F322F636F72652E78
310
6D6C504B010214001400060808005D7A38511ADDF19BF9000000960100003B00000000000000000000000000155100006662782F38444435373045422D363335352D344538352D413836442D3239434536414634424631312F7265736F75726365732F636F72652E786D6C504B010214001400060808005D7A385168FF8D35
310
F3000000B10100003100000000000000000000000000675200006662782F38444435373045422D363335352D344538352D413836442D3239434536414634424631312F636F72652E786D6C504B010214001400060808005D7A38516B591FE754010000DD0200000C00000000000000000000000000A95300006662782F636F
310
72652E786D6C504B010214001400060808005D7A3851915C3F0F08010000B2010000080000000000000000000000000027550000636F72652E786D6C504B050600000000120012002D060000555600000000
  0
XRECORD
  5
93D2
102
{ACAD_REACTORS
330
93CD
102
}
330
93CD
100
AcDbXrecord
280
     1
270
     1
271
     1
  0
XRECORD
  5
93D1
102
{ACAD_REACTORS
330
93CD
102
}
330
93CD
100
AcDbXrecord
280
     1
270
     1
271
     1
  0
XRECORD
  5
93D3
102
{ACAD_REACTORS
330
93CD
102
}
330
93CD
100
AcDbXrecord
280
     1
270
     1
271
     1
  0
XRECORD
  5
93D0
102
{ACAD_REACTORS
330
93CD
102
}
330
93CD
100
AcDbXrecord
280
     1
270
     1
271
     1
  0
XRECORD
  5
99B5
102
{ACAD_REACTORS
330
99B4
102
}
330
99B4
100
AcDbXrecord
280
     1
102
DISPLAYNAME
  1
Imperial24
102
FLAGS
 90
        0
  0
CELLSTYLEMAP
  5
9981
102
{ACAD_REACTORS
330
9427
102
}
330
9427
100
AcDbCellStyleMap
 90
        3
300
CELLSTYLE
  1
TABLEFORMAT_BEGIN
 90
        5
170
     1
 91
        0
 92
    32768
 62
   257
 93
        1
300
CONTENTFORMAT
  1
CONTENTFORMAT_BEGIN
 90
        0
 91
        0
 92
      512
 93
        0
300

 40
0.0
140
1.0
 94
        5
 62
     0
340
8D28
144
0.25
309
CONTENTFORMAT_END
171
     1
301
MARGIN
  1
CELLMARGIN_BEGIN
 40
0.06
 40
0.06
 40
0.06
 40
0.06
 40
0.18
 40
0.18
309
CELLMARGIN_END
 94
        6
 95
        1
302
GRIDFORMAT
  1
GRIDFORMAT_BEGIN
 90
        0
 91
        1
 62
     0
 92
       -2
340
0
 93
        0
 40
0.045
309
GRIDFORMAT_END
 95
        2
302
GRIDFORMAT
  1
GRIDFORMAT_BEGIN
 90
        0
 91
        1
 62
     0
 92
       -2
340
0
 93
        0
 40
0.045
309
GRIDFORMAT_END
 95
        4
302
GRIDFORMAT
  1
GRIDFORMAT_BEGIN
 90
        0
 91
        1
 62
     0
 92
       -2
340
0
 93
        0
 40
0.045
309
GRIDFORMAT_END
 95
        8
302
GRIDFORMAT
  1
GRIDFORMAT_BEGIN
 90
        0
 91
        1
 62
     0
 92
       -2
340
0
 93
        0
 40
0.045
309
GRIDFORMAT_END
 95
       16
302
GRIDFORMAT
  1
GRIDFORMAT_BEGIN
 90
        0
 91
        1
 62
     0
 92
       -2
340
0
 93
        0
 40
0.045
309
GRIDFORMAT_END
 95
       32
302
GRIDFORMAT
  1
GRIDFORMAT_BEGIN
 90
        0
 91
        1
 62
     0
 92
       -2
340
0
 93
        0
 40
0.045
309
GRIDFORMAT_END
309
TABLEFORMAT_END
  1
CELLSTYLE_BEGIN
 90
        1
 91
        1
300
_TITLE
309
CELLSTYLE_END
300
CELLSTYLE
  1
TABLEFORMAT_BEGIN
 90
        5
170
     1
 91
        0
 92
        0
 62
   257
 93
        1
300
CONTENTFORMAT
  1
CONTENTFORMAT_BEGIN
 90
        0
 91
        0
 92
      512
 93
        0
300

 40
0.0
140
1.0
 94
        5
 62
     0
340
8D28
144
0.18
309
CONTENTFORMAT_END
171
     1
301
MARGIN
  1
CELLMARGIN_BEGIN
 40
0.06
 40
0.06
 40
0.06
 40
0.06
 40
0.18
 40
0.18
309
CELLMARGIN_END
 94
        6
 95
        1
302
GRIDFORMAT
  1
GRIDFORMAT_BEGIN
 90
        0
 91
        1
 62
     0
 92
       -2
340
0
 93
        0
 40
0.045
309
GRIDFORMAT_END
 95
        2
302
GRIDFORMAT
  1
GRIDFORMAT_BEGIN
 90
        0
 91
        1
 62
     0
 92
       -2
340
0
 93
        0
 40
0.045
309
GRIDFORMAT_END
 95
        4
302
GRIDFORMAT
  1
GRIDFORMAT_BEGIN
 90
        0
 91
        1
 62
     0
 92
       -2
340
0
 93
        0
 40
0.045
309
GRIDFORMAT_END
 95
        8
302
GRIDFORMAT
  1
GRIDFORMAT_BEGIN
 90
        0
 91
        1
 62
     0
 92
       -2
340
0
 93
        0
 40
0.045
309
GRIDFORMAT_END
 95
       16
302
GRIDFORMAT
  1
GRIDFORMAT_BEGIN
 90
        0
 91
        1
 62
     0
 92
       -2
340
0
 93
        0
 40
0.045
309
GRIDFORMAT_END
 95
       32
302
GRIDFORMAT
  1
GRIDFORMAT_BEGIN
 90
        0
 91
        1
 62
     0
 92
       -2
340
0
 93
        0
 40
0.045
309
GRIDFORMAT_END
309
TABLEFORMAT_END
  1
CELLSTYLE_BEGIN
 90
        2
 91
        1
300
_HEADER
309
CELLSTYLE_END
300
CELLSTYLE
  1
TABLEFORMAT_BEGIN
 90
        5
170
     1
 91
        0
 92
        0
 62
   257
 93
        1
300
CONTENTFORMAT
  1
CONTENTFORMAT_BEGIN
 90
        0
 91
        0
 92
      512
 93
        0
300

 40
0.0
140
1.0
 94
        2
 62
     0
340
8D28
144
0.18
309
CONTENTFORMAT_END
171
     1
301
MARGIN
  1
CELLMARGIN_BEGIN
 40
0.06
 40
0.06
 40
0.06
 40
0.06
 40
0.18
 40
0.18
309
CELLMARGIN_END
 94
        6
 95
        1
302
GRIDFORMAT
  1
GRIDFORMAT_BEGIN
 90
        0
 91
        1
 62
     0
 92
       -2
340
0
 93
        0
 40
0.045
309
GRIDFORMAT_END
 95
        2
302
GRIDFORMAT
  1
GRIDFORMAT_BEGIN
 90
        0
 91
        1
 62
     0
 92
       -2
340
0
 93
        0
 40
0.045
309
GRIDFORMAT_END
 95
        4
302
GRIDFORMAT
  1
GRIDFORMAT_BEGIN
 90
        0
 91
        1
 62
     0
 92
       -2
340
0
 93
        0
 40
0.045
309
GRIDFORMAT_END
 95
        8
302
GRIDFORMAT
  1
GRIDFORMAT_BEGIN
 90
        0
 91
        1
 62
     0
 92
       -2
340
0
 93
        0
 40
0.045
309
GRIDFORMAT_END
 95
       16
302
GRIDFORMAT
  1
GRIDFORMAT_BEGIN
 90
        0
 91
        1
 62
     0
 92
       -2
340
0
 93
        0
 40
0.045
309
GRIDFORMAT_END
 95
       32
302
GRIDFORMAT
  1
GRIDFORMAT_BEGIN
 90
        0
 91
        1
 62
     0
 92
       -2
340
0
 93
        0
 40
0.045
309
GRIDFORMAT_END
309
TABLEFORMAT_END
  1
CELLSTYLE_BEGIN
 90
        3
 91
        2
300
_DATA
309
CELLSTYLE_END
  0
XRECORD
  5
99B3
102
{ACAD_REACTORS
330
9427
102
}
330
9427
100
AcDbXrecord
280
     1
102
ACAD_ROUNDTRIP_PRE2007_TABLESTYLE
 90
      512
 91
        0
  1

 92
      512
 93
        0
  2

 94
      512
 95
        0
  3

  0
XRECORD
  5
998E
102
{ACAD_REACTORS
330
998D
102
}
330
998D
100
AcDbXrecord
280
     1
102
RTVSPost2010Prop28
280
     1
102
RTVSPost2010PropOp28
 70
     1
102
RTVSPost2010Prop29
280
     1
102
RTVSPost2010PropOp29
 70
     1
102
RTVSPost2010Prop30
280
     0
102
RTVSPost2010PropOp30
 70
     1
102
RTVSPost2010Prop31
280
     0
102
RTVSPost2010PropOp31
 70
     1
102
RTVSPost2010Prop32
280
     0
102
RTVSPost2010PropOp32
 70
     1
102
RTVSPost2010Prop33
280
     0
102
RTVSPost2010PropOp33
 70
     1
102
RTVSPost2010Prop34
280
     0
102
RTVSPost2010PropOp34
 70
     1
102
RTVSPost2010Prop35
280
     0
102
RTVSPost2010PropOp35
 70
     1
102
RTVSPost2010Prop36
280
     0
102
RTVSPost2010PropOp36
 70
     1
102
RTVSPost2010Prop37
 90
       50
102
RTVSPost2010PropOp37
 70
     1
102
RTVSPost2010Prop38
140
0.0
102
RTVSPost2010PropOp38
 70
     1
102
RTVSPost2010Prop39
140
1.0
102
RTVSPost2010PropOp39
 70
     1
102
RTVSPost2010Prop40
 90
        0
102
RTVSPost2010PropOp40
 70
     1
102
RTVSPost2010Prop41ColorIndex
 90
       18
102
RTVSPost2010Prop41ColorRGB
 90
-16777216
102
RTVSPost2010PropOp41
 70
     1
102
RTVSPost2010Prop42
 90
       50
102
RTVSPost2010PropOp42
 70
     1
102
RTVSPost2010Prop43
 90
        3
102
RTVSPost2010PropOp43
 70
     1
102
RTVSPost2010Prop44ColorIndex
 90
        5
102
RTVSPost2010Prop44ColorRGB
 90
      255
102
RTVSPost2010PropOp44
 70
     1
102
RTVSPost2010Prop45
280
     0
102
RTVSPost2010PropOp45
 70
     1
102
RTVSPost2010Prop46
 90
       50
102
RTVSPost2010PropOp46
 70
     1
102
RTVSPost2010Prop47
 90
       50
102
RTVSPost2010PropOp47
 70
     1
102
RTVSPost2010Prop48
 90
       50
102
RTVSPost2010PropOp48
 70
     1
102
RTVSPost2010Prop49
280
     0
102
RTVSPost2010PropOp49
 70
     1
102
RTVSPost2010Prop50
 90
       50
102
RTVSPost2010PropOp50
 70
     1
102
RTVSPost2010Prop51ColorIndex
 90
      256
102
RTVSPost2010Prop51ColorRGB
 90
-16777216
102
RTVSPost2010PropOp51
 70
     0
102
RTVSPost2010Prop52
140
1.0
102
RTVSPost2010PropOp52
 70
     0
102
RTVSPost2010Prop53
 90
        2
102
RTVSPost2010PropOp53
 70
     1
102
RTVSPost2010Prop54
  1
strokes_ogs.tif
102
RTVSPost2010PropOp54
 70
     1
102
RTVSPost2010Prop55
280
     0
102
RTVSPost2010PropOp55
 70
     1
102
RTVSPost2010Prop56
140
1.0
102
RTVSPost2010PropOp56
 70
     1
102
RTVSPost2010Prop57
140
1.0
102
RTVSPost2010PropOp57
 70
     1
102
RTVSPropertyOp0
 70
     1
102
RTVSPropertyOp1
 70
     1
102
RTVSPropertyOp2
 70
     1
102
RTVSPropertyOp3
 70
     1
102
RTVSPropertyOp4
 70
     1
102
RTVSPropertyOp5
 70
     1
102
RTVSPropertyOp6
 70
     1
102
RTVSPropertyOp7
 70
     1
102
RTVSPropertyOp8
 70
     1
102
RTVSPropertyOp9
 70
     1
102
RTVSPropertyOp10
 70
     1
102
RTVSPropertyOp11
 70
     1
102
RTVSPropertyOp12
 70
     1
102
RTVSPropertyOp13
 70
     1
102
RTVSPropertyOp14
 70
     1
102
RTVSPropertyOp15
 70
     1
102
RTVSPropertyOp16
 70
     1
102
RTVSPropertyOp17
 70
     1
102
RTVSPropertyOp18
 70
     1
102
RTVSPropertyOp19
 70
     1
102
RTVSPropertyOp20
 70
     1
102
RTVSPropertyOp21
 70
     1
102
RTVSPropertyOp22
 70
     1
102
RTVSPropertyOp23
 70
     1
102
RTVSPropertyOp24
 70
     1
102
RTVSPropertyOp25
 70
     1
102
RTVSPropertyOp26
 70
     1
102
RTVSPropertyOp27
 70
     1
102
RTVSPropertyOp28
 70
     1
102
RTVSPropertyOp29
 70
     1
102
RTVSPropertyOp30
 70
     1
102
RTVSPropertyOp31
 70
     1
102
RTVSPropertyOp32
 70
     1
102
RTVSPropertyOp33
 70
     1
102
RTVSPropertyOp34
 70
     1
102
RTVSPropertyOp35
 70
     1
102
RTVSPropertyOp36
 70
     1
102
RTVSPropertyOp37
 70
     1
102
RTVSPropertyOp38
 70
     1
102
RTVSPropertyOp39
 70
     1
102
RTVSPropertyOp40
 70
     1
102
RTVSPropertyOp41
 70
     1
102
RTVSPropertyOp42
 70
     1
102
RTVSPropertyOp43
 70
     1
102
RTVSPropertyOp44
 70
     1
102
RTVSPropertyOp45
 70
     1
102
RTVSPropertyOp46
 70
     1
102
RTVSPropertyOp47
 70
     1
102
RTVSPropertyOp48
 70
     1
102
RTVSPropertyOp49
 70
     1
102
RTVSPropertyOp50
 70
     1
102
RTVSPropertyOp51
 70
     0
102
RTVSPropertyOp52
 70
     0
102
RTVSPropertyOp53
 70
     1
102
RTVSPropertyOp54
 70
     1
102
RTVSPropertyOp55
 70
     1
102
RTVSPropertyOp56
 70
     1
102
RTVSPropertyOp57
 70
     1
102
RTVSPropertyOp58
 70
     1
102
RTVSPropertyOp59
 70
     1
102
RTVSPropertyOp60
 70
     1
102
RTVSPropertyOp61
 70
     1
102
RTVSPropertyOp62
 70
     1
  0
XRECORD
  5
998C
102
{ACAD_REACTORS
330
998B
102
}
330
998B
100
AcDbXrecord
280
     1
102
RTVSPost2010Prop28
280
     0
102
RTVSPost2010PropOp28
 70
     1
102
RTVSPost2010Prop29
280
     1
102
RTVSPost2010PropOp29
 70
     1
102
RTVSPost2010Prop30
280
     1
102
RTVSPost2010PropOp30
 70
     1
102
RTVSPost2010Prop31
280
     0
102
RTVSPost2010PropOp31
 70
     1
102
RTVSPost2010Prop32
280
     0
102
RTVSPost2010PropOp32
 70
     1
102
RTVSPost2010Prop33
280
     0
102
RTVSPost2010PropOp33
 70
     1
102
RTVSPost2010Prop34
280
     0
102
RTVSPost2010PropOp34
 70
     1
102
RTVSPost2010Prop35
280
     0
102
RTVSPost2010PropOp35
 70
     1
102
RTVSPost2010Prop36
280
     0
102
RTVSPost2010PropOp36
 70
     1
102
RTVSPost2010Prop37
 90
       50
102
RTVSPost2010PropOp37
 70
     1
102
RTVSPost2010Prop38
140
0.0
102
RTVSPost2010PropOp38
 70
     1
102
RTVSPost2010Prop39
140
1.0
102
RTVSPost2010PropOp39
 70
     1
102
RTVSPost2010Prop40
 90
        0
102
RTVSPost2010PropOp40
 70
     1
102
RTVSPost2010Prop41ColorIndex
 90
       18
102
RTVSPost2010Prop41ColorRGB
 90
-16777216
102
RTVSPost2010PropOp41
 70
     1
102
RTVSPost2010Prop42
 90
       50
102
RTVSPost2010PropOp42
 70
     1
102
RTVSPost2010Prop43
 90
        3
102
RTVSPost2010PropOp43
 70
     1
102
RTVSPost2010Prop44ColorIndex
 90
        5
102
RTVSPost2010Prop44ColorRGB
 90
      255
102
RTVSPost2010PropOp44
 70
     1
102
RTVSPost2010Prop45
280
     0
102
RTVSPost2010PropOp45
 70
     1
102
RTVSPost2010Prop46
 90
       50
102
RTVSPost2010PropOp46
 70
     1
102
RTVSPost2010Prop47
 90
       50
102
RTVSPost2010PropOp47
 70
     1
102
RTVSPost2010Prop48
 90
       50
102
RTVSPost2010PropOp48
 70
     1
102
RTVSPost2010Prop49
280
     0
102
RTVSPost2010PropOp49
 70
     1
102
RTVSPost2010Prop50
 90
       50
102
RTVSPost2010PropOp50
 70
     1
102
RTVSPost2010Prop51ColorIndex
 90
      256
102
RTVSPost2010Prop51ColorRGB
 90
-16777216
102
RTVSPost2010PropOp51
 70
     0
102
RTVSPost2010Prop52
140
1.0
102
RTVSPost2010PropOp52
 70
     0
102
RTVSPost2010Prop53
 90
        2
102
RTVSPost2010PropOp53
 70
     1
102
RTVSPost2010Prop54
  1
strokes_ogs.tif
102
RTVSPost2010PropOp54
 70
     1
102
RTVSPost2010Prop55
280
     0
102
RTVSPost2010PropOp55
 70
     1
102
RTVSPost2010Prop56
140
1.0
102
RTVSPost2010PropOp56
 70
     1
102
RTVSPost2010Prop57
140
1.0
102
RTVSPost2010PropOp57
 70
     1
102
RTVSPropertyOp0
 70
     1
102
RTVSPropertyOp1
 70
     1
102
RTVSPropertyOp2
 70
     1
102
RTVSPropertyOp3
 70
     1
102
RTVSPropertyOp4
 70
     1
102
RTVSPropertyOp5
 70
     1
102
RTVSPropertyOp6
 70
     1
102
RTVSPropertyOp7
 70
     1
102
RTVSPropertyOp8
 70
     1
102
RTVSPropertyOp9
 70
     1
102
RTVSPropertyOp10
 70
     1
102
RTVSPropertyOp11
 70
     1
102
RTVSPropertyOp12
 70
     1
102
RTVSPropertyOp13
 70
     1
102
RTVSPropertyOp14
 70
     1
102
RTVSPropertyOp15
 70
     1
102
RTVSPropertyOp16
 70
     1
102
RTVSPropertyOp17
 70
     1
102
RTVSPropertyOp18
 70
     1
102
RTVSPropertyOp19
 70
     1
102
RTVSPropertyOp20
 70
     1
102
RTVSPropertyOp21
 70
     1
102
RTVSPropertyOp22
 70
     1
102
RTVSPropertyOp23
 70
     1
102
RTVSPropertyOp24
 70
     1
102
RTVSPropertyOp25
 70
     1
102
RTVSPropertyOp26
 70
     1
102
RTVSPropertyOp27
 70
     1
102
RTVSPropertyOp28
 70
     1
102
RTVSPropertyOp29
 70
     1
102
RTVSPropertyOp30
 70
     1
102
RTVSPropertyOp31
 70
     1
102
RTVSPropertyOp32
 70
     1
102
RTVSPropertyOp33
 70
     1
102
RTVSPropertyOp34
 70
     1
102
RTVSPropertyOp35
 70
     1
102
RTVSPropertyOp36
 70
     1
102
RTVSPropertyOp37
 70
     1
102
RTVSPropertyOp38
 70
     1
102
RTVSPropertyOp39
 70
     1
102
RTVSPropertyOp40
 70
     1
102
RTVSPropertyOp41
 70
     1
102
RTVSPropertyOp42
 70
     1
102
RTVSPropertyOp43
 70
     1
102
RTVSPropertyOp44
 70
     1
102
RTVSPropertyOp45
 70
     1
102
RTVSPropertyOp46
 70
     1
102
RTVSPropertyOp47
 70
     1
102
RTVSPropertyOp48
 70
     1
102
RTVSPropertyOp49
 70
     1
102
RTVSPropertyOp50
 70
     1
102
RTVSPropertyOp51
 70
     0
102
RTVSPropertyOp52
 70
     0
102
RTVSPropertyOp53
 70
     1
102
RTVSPropertyOp54
 70
     1
102
RTVSPropertyOp55
 70
     1
102
RTVSPropertyOp56
 70
     1
102
RTVSPropertyOp57
 70
     1
102
RTVSPropertyOp58
 70
     1
102
RTVSPropertyOp59
 70
     1
102
RTVSPropertyOp60
 70
     1
102
RTVSPropertyOp61
 70
     1
102
RTVSPropertyOp62
 70
     1
  0
XRECORD
  5
999A
102
{ACAD_REACTORS
330
9999
102
}
330
9999
100
AcDbXrecord
280
     1
102
RTVSPost2010Prop28
280
     0
102
RTVSPost2010PropOp28
 70
     1
102
RTVSPost2010Prop29
280
     1
102
RTVSPost2010PropOp29
 70
     1
102
RTVSPost2010Prop30
280
     1
102
RTVSPost2010PropOp30
 70
     1
102
RTVSPost2010Prop31
280
     0
102
RTVSPost2010PropOp31
 70
     1
102
RTVSPost2010Prop32
280
     0
102
RTVSPost2010PropOp32
 70
     1
102
RTVSPost2010Prop33
280
     0
102
RTVSPost2010PropOp33
 70
     1
102
RTVSPost2010Prop34
280
     0
102
RTVSPost2010PropOp34
 70
     1
102
RTVSPost2010Prop35
280
     0
102
RTVSPost2010PropOp35
 70
     1
102
RTVSPost2010Prop36
280
     0
102
RTVSPost2010PropOp36
 70
     1
102
RTVSPost2010Prop37
 90
       50
102
RTVSPost2010PropOp37
 70
     1
102
RTVSPost2010Prop38
140
0.0
102
RTVSPost2010PropOp38
 70
     1
102
RTVSPost2010Prop39
140
1.0
102
RTVSPost2010PropOp39
 70
     1
102
RTVSPost2010Prop40
 90
        0
102
RTVSPost2010PropOp40
 70
     1
102
RTVSPost2010Prop41ColorIndex
 90
       18
102
RTVSPost2010Prop41ColorRGB
 90
-16777216
102
RTVSPost2010PropOp41
 70
     1
102
RTVSPost2010Prop42
 90
       50
102
RTVSPost2010PropOp42
 70
     1
102
RTVSPost2010Prop43
 90
        3
102
RTVSPost2010PropOp43
 70
     1
102
RTVSPost2010Prop44ColorIndex
 90
        5
102
RTVSPost2010Prop44ColorRGB
 90
      255
102
RTVSPost2010PropOp44
 70
     1
102
RTVSPost2010Prop45
280
     0
102
RTVSPost2010PropOp45
 70
     1
102
RTVSPost2010Prop46
 90
       50
102
RTVSPost2010PropOp46
 70
     1
102
RTVSPost2010Prop47
 90
       50
102
RTVSPost2010PropOp47
 70
     1
102
RTVSPost2010Prop48
 90
       50
102
RTVSPost2010PropOp48
 70
     1
102
RTVSPost2010Prop49
280
     0
102
RTVSPost2010PropOp49
 70
     1
102
RTVSPost2010Prop50
 90
       50
102
RTVSPost2010PropOp50
 70
     1
102
RTVSPost2010Prop51ColorIndex
 90
      256
102
RTVSPost2010Prop51ColorRGB
 90
-16777216
102
RTVSPost2010PropOp51
 70
     0
102
RTVSPost2010Prop52
140
1.0
102
RTVSPost2010PropOp52
 70
     0
102
RTVSPost2010Prop53
 90
        2
102
RTVSPost2010PropOp53
 70
     1
102
RTVSPost2010Prop54
  1
strokes_ogs.tif
102
RTVSPost2010PropOp54
 70
     1
102
RTVSPost2010Prop55
280
     0
102
RTVSPost2010PropOp55
 70
     1
102
RTVSPost2010Prop56
140
1.0
102
RTVSPost2010PropOp56
 70
     1
102
RTVSPost2010Prop57
140
1.0
102
RTVSPost2010PropOp57
 70
     1
102
RTVSPropertyOp0
 70
     1
102
RTVSPropertyOp1
 70
     1
102
RTVSPropertyOp2
 70
     1
102
RTVSPropertyOp3
 70
     1
102
RTVSPropertyOp4
 70
     1
102
RTVSPropertyOp5
 70
     1
102
RTVSPropertyOp6
 70
     1
102
RTVSPropertyOp7
 70
     1
102
RTVSPropertyOp8
 70
     1
102
RTVSPropertyOp9
 70
     1
102
RTVSPropertyOp10
 70
     1
102
RTVSPropertyOp11
 70
     1
102
RTVSPropertyOp12
 70
     1
102
RTVSPropertyOp13
 70
     1
102
RTVSPropertyOp14
 70
     1
102
RTVSPropertyOp15
 70
     1
102
RTVSPropertyOp16
 70
     1
102
RTVSPropertyOp17
 70
     1
102
RTVSPropertyOp18
 70
     1
102
RTVSPropertyOp19
 70
     1
102
RTVSPropertyOp20
 70
     1
102
RTVSPropertyOp21
 70
     1
102
RTVSPropertyOp22
 70
     1
102
RTVSPropertyOp23
 70
     1
102
RTVSPropertyOp24
 70
     1
102
RTVSPropertyOp25
 70
     1
102
RTVSPropertyOp26
 70
     1
102
RTVSPropertyOp27
 70
     1
102
RTVSPropertyOp28
 70
     1
102
RTVSPropertyOp29
 70
     1
102
RTVSPropertyOp30
 70
     1
102
RTVSPropertyOp31
 70
     1
102
RTVSPropertyOp32
 70
     1
102
RTVSPropertyOp33
 70
     1
102
RTVSPropertyOp34
 70
     1
102
RTVSPropertyOp35
 70
     1
102
RTVSPropertyOp36
 70
     1
102
RTVSPropertyOp37
 70
     1
102
RTVSPropertyOp38
 70
     1
102
RTVSPropertyOp39
 70
     1
102
RTVSPropertyOp40
 70
     1
102
RTVSPropertyOp41
 70
     1
102
RTVSPropertyOp42
 70
     1
102
RTVSPropertyOp43
 70
     1
102
RTVSPropertyOp44
 70
     1
102
RTVSPropertyOp45
 70
     1
102
RTVSPropertyOp46
 70
     1
102
RTVSPropertyOp47
 70
     1
102
RTVSPropertyOp48
 70
     1
102
RTVSPropertyOp49
 70
     1
102
RTVSPropertyOp50
 70
     1
102
RTVSPropertyOp51
 70
     0
102
RTVSPropertyOp52
 70
     0
102
RTVSPropertyOp53
 70
     1
102
RTVSPropertyOp54
 70
     1
102
RTVSPropertyOp55
 70
     1
102
RTVSPropertyOp56
 70
     1
102
RTVSPropertyOp57
 70
     1
102
RTVSPropertyOp58
 70
     1
102
RTVSPropertyOp59
 70
     1
102
RTVSPropertyOp60
 70
     1
102
RTVSPropertyOp61
 70
     1
102
RTVSPropertyOp62
 70
     1
  0
XRECORD
  5
99A2
102
{ACAD_REACTORS
330
99A1
102
}
330
99A1
100
AcDbXrecord
280
     1
102
RTVSPost2010Prop28
280
     0
102
RTVSPost2010PropOp28
 70
     1
102
RTVSPost2010Prop29
280
     1
102
RTVSPost2010PropOp29
 70
     1
102
RTVSPost2010Prop30
280
     1
102
RTVSPost2010PropOp30
 70
     1
102
RTVSPost2010Prop31
280
     0
102
RTVSPost2010PropOp31
 70
     1
102
RTVSPost2010Prop32
280
     0
102
RTVSPost2010PropOp32
 70
     1
102
RTVSPost2010Prop33
280
     0
102
RTVSPost2010PropOp33
 70
     1
102
RTVSPost2010Prop34
280
     0
102
RTVSPost2010PropOp34
 70
     1
102
RTVSPost2010Prop35
280
     0
102
RTVSPost2010PropOp35
 70
     1
102
RTVSPost2010Prop36
280
     0
102
RTVSPost2010PropOp36
 70
     1
102
RTVSPost2010Prop37
 90
       50
102
RTVSPost2010PropOp37
 70
     1
102
RTVSPost2010Prop38
140
0.0
102
RTVSPost2010PropOp38
 70
     1
102
RTVSPost2010Prop39
140
1.0
102
RTVSPost2010PropOp39
 70
     1
102
RTVSPost2010Prop40
 90
        0
102
RTVSPost2010PropOp40
 70
     1
102
RTVSPost2010Prop41ColorIndex
 90
       18
102
RTVSPost2010Prop41ColorRGB
 90
-16777216
102
RTVSPost2010PropOp41
 70
     1
102
RTVSPost2010Prop42
 90
       50
102
RTVSPost2010PropOp42
 70
     1
102
RTVSPost2010Prop43
 90
        3
102
RTVSPost2010PropOp43
 70
     1
102
RTVSPost2010Prop44ColorIndex
 90
        5
102
RTVSPost2010Prop44ColorRGB
 90
      255
102
RTVSPost2010PropOp44
 70
     1
102
RTVSPost2010Prop45
280
     0
102
RTVSPost2010PropOp45
 70
     1
102
RTVSPost2010Prop46
 90
       50
102
RTVSPost2010PropOp46
 70
     1
102
RTVSPost2010Prop47
 90
       50
102
RTVSPost2010PropOp47
 70
     1
102
RTVSPost2010Prop48
 90
       50
102
RTVSPost2010PropOp48
 70
     1
102
RTVSPost2010Prop49
280
     0
102
RTVSPost2010PropOp49
 70
     1
102
RTVSPost2010Prop50
 90
       50
102
RTVSPost2010PropOp50
 70
     1
102
RTVSPost2010Prop51ColorIndex
 90
      256
102
RTVSPost2010Prop51ColorRGB
 90
-16777216
102
RTVSPost2010PropOp51
 70
     0
102
RTVSPost2010Prop52
140
1.0
102
RTVSPost2010PropOp52
 70
     0
102
RTVSPost2010Prop53
 90
        2
102
RTVSPost2010PropOp53
 70
     1
102
RTVSPost2010Prop54
  1
strokes_ogs.tif
102
RTVSPost2010PropOp54
 70
     1
102
RTVSPost2010Prop55
280
     0
102
RTVSPost2010PropOp55
 70
     1
102
RTVSPost2010Prop56
140
1.0
102
RTVSPost2010PropOp56
 70
     1
102
RTVSPost2010Prop57
140
1.0
102
RTVSPost2010PropOp57
 70
     1
102
RTVSPropertyOp0
 70
     1
102
RTVSPropertyOp1
 70
     1
102
RTVSPropertyOp2
 70
     1
102
RTVSPropertyOp3
 70
     1
102
RTVSPropertyOp4
 70
     1
102
RTVSPropertyOp5
 70
     1
102
RTVSPropertyOp6
 70
     1
102
RTVSPropertyOp7
 70
     1
102
RTVSPropertyOp8
 70
     1
102
RTVSPropertyOp9
 70
     1
102
RTVSPropertyOp10
 70
     1
102
RTVSPropertyOp11
 70
     1
102
RTVSPropertyOp12
 70
     1
102
RTVSPropertyOp13
 70
     1
102
RTVSPropertyOp14
 70
     1
102
RTVSPropertyOp15
 70
     1
102
RTVSPropertyOp16
 70
     1
102
RTVSPropertyOp17
 70
     1
102
RTVSPropertyOp18
 70
     1
102
RTVSPropertyOp19
 70
     1
102
RTVSPropertyOp20
 70
     1
102
RTVSPropertyOp21
 70
     1
102
RTVSPropertyOp22
 70
     1
102
RTVSPropertyOp23
 70
     1
102
RTVSPropertyOp24
 70
     1
102
RTVSPropertyOp25
 70
     1
102
RTVSPropertyOp26
 70
     1
102
RTVSPropertyOp27
 70
     1
102
RTVSPropertyOp28
 70
     1
102
RTVSPropertyOp29
 70
     1
102
RTVSPropertyOp30
 70
     1
102
RTVSPropertyOp31
 70
     1
102
RTVSPropertyOp32
 70
     1
102
RTVSPropertyOp33
 70
     1
102
RTVSPropertyOp34
 70
     1
102
RTVSPropertyOp35
 70
     1
102
RTVSPropertyOp36
 70
     1
102
RTVSPropertyOp37
 70
     1
102
RTVSPropertyOp38
 70
     1
102
RTVSPropertyOp39
 70
     1
102
RTVSPropertyOp40
 70
     1
102
RTVSPropertyOp41
 70
     1
102
RTVSPropertyOp42
 70
     1
102
RTVSPropertyOp43
 70
     1
102
RTVSPropertyOp44
 70
     1
102
RTVSPropertyOp45
 70
     1
102
RTVSPropertyOp46
 70
     1
102
RTVSPropertyOp47
 70
     1
102
RTVSPropertyOp48
 70
     1
102
RTVSPropertyOp49
 70
     1
102
RTVSPropertyOp50
 70
     1
102
RTVSPropertyOp51
 70
     0
102
RTVSPropertyOp52
 70
     0
102
RTVSPropertyOp53
 70
     1
102
RTVSPropertyOp54
 70
     1
102
RTVSPropertyOp55
 70
     1
102
RTVSPropertyOp56
 70
     1
102
RTVSPropertyOp57
 70
     1
102
RTVSPropertyOp58
 70
     1
102
RTVSPropertyOp59
 70
     1
102
RTVSPropertyOp60
 70
     1
102
RTVSPropertyOp61
 70
     1
102
RTVSPropertyOp62
 70
     1
  0
XRECORD
  5
9994
102
{ACAD_REACTORS
330
9993
102
}
330
9993
100
AcDbXrecord
280
     1
102
RTVSPost2010Prop28
280
     0
102
RTVSPost2010PropOp28
 70
     1
102
RTVSPost2010Prop29
280
     1
102
RTVSPost2010PropOp29
 70
     1
102
RTVSPost2010Prop30
280
     1
102
RTVSPost2010PropOp30
 70
     1
102
RTVSPost2010Prop31
280
     0
102
RTVSPost2010PropOp31
 70
     1
102
RTVSPost2010Prop32
280
     0
102
RTVSPost2010PropOp32
 70
     1
102
RTVSPost2010Prop33
280
     0
102
RTVSPost2010PropOp33
 70
     1
102
RTVSPost2010Prop34
280
     0
102
RTVSPost2010PropOp34
 70
     1
102
RTVSPost2010Prop35
280
     0
102
RTVSPost2010PropOp35
 70
     1
102
RTVSPost2010Prop36
280
     0
102
RTVSPost2010PropOp36
 70
     1
102
RTVSPost2010Prop37
 90
       50
102
RTVSPost2010PropOp37
 70
     1
102
RTVSPost2010Prop38
140
0.0
102
RTVSPost2010PropOp38
 70
     1
102
RTVSPost2010Prop39
140
1.0
102
RTVSPost2010PropOp39
 70
     1
102
RTVSPost2010Prop40
 90
        0
102
RTVSPost2010PropOp40
 70
     1
102
RTVSPost2010Prop41ColorIndex
 90
       18
102
RTVSPost2010Prop41ColorRGB
 90
-16777216
102
RTVSPost2010PropOp41
 70
     1
102
RTVSPost2010Prop42
 90
       50
102
RTVSPost2010PropOp42
 70
     1
102
RTVSPost2010Prop43
 90
        3
102
RTVSPost2010PropOp43
 70
     1
102
RTVSPost2010Prop44ColorIndex
 90
        5
102
RTVSPost2010Prop44ColorRGB
 90
      255
102
RTVSPost2010PropOp44
 70
     1
102
RTVSPost2010Prop45
280
     0
102
RTVSPost2010PropOp45
 70
     1
102
RTVSPost2010Prop46
 90
       50
102
RTVSPost2010PropOp46
 70
     1
102
RTVSPost2010Prop47
 90
       50
102
RTVSPost2010PropOp47
 70
     1
102
RTVSPost2010Prop48
 90
       50
102
RTVSPost2010PropOp48
 70
     1
102
RTVSPost2010Prop49
280
     0
102
RTVSPost2010PropOp49
 70
     1
102
RTVSPost2010Prop50
 90
       50
102
RTVSPost2010PropOp50
 70
     1
102
RTVSPost2010Prop51ColorIndex
 90
      256
102
RTVSPost2010Prop51ColorRGB
 90
-16777216
102
RTVSPost2010PropOp51
 70
     0
102
RTVSPost2010Prop52
140
1.0
102
RTVSPost2010PropOp52
 70
     0
102
RTVSPost2010Prop53
 90
        2
102
RTVSPost2010PropOp53
 70
     1
102
RTVSPost2010Prop54
  1
strokes_ogs.tif
102
RTVSPost2010PropOp54
 70
     1
102
RTVSPost2010Prop55
280
     0
102
RTVSPost2010PropOp55
 70
     1
102
RTVSPost2010Prop56
140
1.0
102
RTVSPost2010PropOp56
 70
     1
102
RTVSPost2010Prop57
140
1.0
102
RTVSPost2010PropOp57
 70
     1
102
RTVSPropertyOp0
 70
     1
102
RTVSPropertyOp1
 70
     1
102
RTVSPropertyOp2
 70
     1
102
RTVSPropertyOp3
 70
     1
102
RTVSPropertyOp4
 70
     1
102
RTVSPropertyOp5
 70
     1
102
RTVSPropertyOp6
 70
     1
102
RTVSPropertyOp7
 70
     1
102
RTVSPropertyOp8
 70
     1
102
RTVSPropertyOp9
 70
     1
102
RTVSPropertyOp10
 70
     1
102
RTVSPropertyOp11
 70
     1
102
RTVSPropertyOp12
 70
     1
102
RTVSPropertyOp13
 70
     1
102
RTVSPropertyOp14
 70
     1
102
RTVSPropertyOp15
 70
     1
102
RTVSPropertyOp16
 70
     1
102
RTVSPropertyOp17
 70
     1
102
RTVSPropertyOp18
 70
     1
102
RTVSPropertyOp19
 70
     1
102
RTVSPropertyOp20
 70
     1
102
RTVSPropertyOp21
 70
     1
102
RTVSPropertyOp22
 70
     1
102
RTVSPropertyOp23
 70
     1
102
RTVSPropertyOp24
 70
     1
102
RTVSPropertyOp25
 70
     1
102
RTVSPropertyOp26
 70
     1
102
RTVSPropertyOp27
 70
     1
102
RTVSPropertyOp28
 70
     1
102
RTVSPropertyOp29
 70
     1
102
RTVSPropertyOp30
 70
     1
102
RTVSPropertyOp31
 70
     1
102
RTVSPropertyOp32
 70
     1
102
RTVSPropertyOp33
 70
     1
102
RTVSPropertyOp34
 70
     1
102
RTVSPropertyOp35
 70
     1
102
RTVSPropertyOp36
 70
     1
102
RTVSPropertyOp37
 70
     1
102
RTVSPropertyOp38
 70
     1
102
RTVSPropertyOp39
 70
     1
102
RTVSPropertyOp40
 70
     1
102
RTVSPropertyOp41
 70
     1
102
RTVSPropertyOp42
 70
     1
102
RTVSPropertyOp43
 70
     1
102
RTVSPropertyOp44
 70
     1
102
RTVSPropertyOp45
 70
     1
102
RTVSPropertyOp46
 70
     1
102
RTVSPropertyOp47
 70
     1
102
RTVSPropertyOp48
 70
     1
102
RTVSPropertyOp49
 70
     1
102
RTVSPropertyOp50
 70
     1
102
RTVSPropertyOp51
 70
     0
102
RTVSPropertyOp52
 70
     0
102
RTVSPropertyOp53
 70
     1
102
RTVSPropertyOp54
 70
     1
102
RTVSPropertyOp55
 70
     1
102
RTVSPropertyOp56
 70
     1
102
RTVSPropertyOp57
 70
     1
102
RTVSPropertyOp58
 70
     1
102
RTVSPropertyOp59
 70
     1
102
RTVSPropertyOp60
 70
     1
102
RTVSPropertyOp61
 70
     1
102
RTVSPropertyOp62
 70
     1
  0
XRECORD
  5
9998
102
{ACAD_REACTORS
330
9997
102
}
330
9997
100
AcDbXrecord
280
     1
102
RTVSPost2010Prop28
280
     0
102
RTVSPost2010PropOp28
 70
     1
102
RTVSPost2010Prop29
280
     1
102
RTVSPost2010PropOp29
 70
     1
102
RTVSPost2010Prop30
280
     1
102
RTVSPost2010PropOp30
 70
     1
102
RTVSPost2010Prop31
280
     0
102
RTVSPost2010PropOp31
 70
     1
102
RTVSPost2010Prop32
280
     0
102
RTVSPost2010PropOp32
 70
     1
102
RTVSPost2010Prop33
280
     0
102
RTVSPost2010PropOp33
 70
     1
102
RTVSPost2010Prop34
280
     0
102
RTVSPost2010PropOp34
 70
     1
102
RTVSPost2010Prop35
280
     0
102
RTVSPost2010PropOp35
 70
     1
102
RTVSPost2010Prop36
280
     0
102
RTVSPost2010PropOp36
 70
     1
102
RTVSPost2010Prop37
 90
       50
102
RTVSPost2010PropOp37
 70
     1
102
RTVSPost2010Prop38
140
0.0
102
RTVSPost2010PropOp38
 70
     1
102
RTVSPost2010Prop39
140
1.0
102
RTVSPost2010PropOp39
 70
     1
102
RTVSPost2010Prop40
 90
        0
102
RTVSPost2010PropOp40
 70
     1
102
RTVSPost2010Prop41ColorIndex
 90
       18
102
RTVSPost2010Prop41ColorRGB
 90
-16777216
102
RTVSPost2010PropOp41
 70
     1
102
RTVSPost2010Prop42
 90
       50
102
RTVSPost2010PropOp42
 70
     1
102
RTVSPost2010Prop43
 90
        3
102
RTVSPost2010PropOp43
 70
     1
102
RTVSPost2010Prop44ColorIndex
 90
        5
102
RTVSPost2010Prop44ColorRGB
 90
      255
102
RTVSPost2010PropOp44
 70
     1
102
RTVSPost2010Prop45
280
     0
102
RTVSPost2010PropOp45
 70
     1
102
RTVSPost2010Prop46
 90
       50
102
RTVSPost2010PropOp46
 70
     1
102
RTVSPost2010Prop47
 90
       50
102
RTVSPost2010PropOp47
 70
     1
102
RTVSPost2010Prop48
 90
       50
102
RTVSPost2010PropOp48
 70
     1
102
RTVSPost2010Prop49
280
     0
102
RTVSPost2010PropOp49
 70
     1
102
RTVSPost2010Prop50
 90
       50
102
RTVSPost2010PropOp50
 70
     1
102
RTVSPost2010Prop51ColorIndex
 90
      256
102
RTVSPost2010Prop51ColorRGB
 90
-16777216
102
RTVSPost2010PropOp51
 70
     0
102
RTVSPost2010Prop52
140
1.0
102
RTVSPost2010PropOp52
 70
     0
102
RTVSPost2010Prop53
 90
        2
102
RTVSPost2010PropOp53
 70
     1
102
RTVSPost2010Prop54
  1
strokes_ogs.tif
102
RTVSPost2010PropOp54
 70
     1
102
RTVSPost2010Prop55
280
     0
102
RTVSPost2010PropOp55
 70
     1
102
RTVSPost2010Prop56
140
1.0
102
RTVSPost2010PropOp56
 70
     1
102
RTVSPost2010Prop57
140
1.0
102
RTVSPost2010PropOp57
 70
     1
102
RTVSPropertyOp0
 70
     1
102
RTVSPropertyOp1
 70
     1
102
RTVSPropertyOp2
 70
     1
102
RTVSPropertyOp3
 70
     1
102
RTVSPropertyOp4
 70
     1
102
RTVSPropertyOp5
 70
     1
102
RTVSPropertyOp6
 70
     1
102
RTVSPropertyOp7
 70
     1
102
RTVSPropertyOp8
 70
     1
102
RTVSPropertyOp9
 70
     1
102
RTVSPropertyOp10
 70
     1
102
RTVSPropertyOp11
 70
     1
102
RTVSPropertyOp12
 70
     1
102
RTVSPropertyOp13
 70
     1
102
RTVSPropertyOp14
 70
     1
102
RTVSPropertyOp15
 70
     1
102
RTVSPropertyOp16
 70
     1
102
RTVSPropertyOp17
 70
     1
102
RTVSPropertyOp18
 70
     1
102
RTVSPropertyOp19
 70
     1
102
RTVSPropertyOp20
 70
     1
102
RTVSPropertyOp21
 70
     1
102
RTVSPropertyOp22
 70
     1
102
RTVSPropertyOp23
 70
     1
102
RTVSPropertyOp24
 70
     1
102
RTVSPropertyOp25
 70
     1
102
RTVSPropertyOp26
 70
     1
102
RTVSPropertyOp27
 70
     1
102
RTVSPropertyOp28
 70
     1
102
RTVSPropertyOp29
 70
     1
102
RTVSPropertyOp30
 70
     1
102
RTVSPropertyOp31
 70
     1
102
RTVSPropertyOp32
 70
     1
102
RTVSPropertyOp33
 70
     1
102
RTVSPropertyOp34
 70
     1
102
RTVSPropertyOp35
 70
     1
102
RTVSPropertyOp36
 70
     1
102
RTVSPropertyOp37
 70
     1
102
RTVSPropertyOp38
 70
     1
102
RTVSPropertyOp39
 70
     1
102
RTVSPropertyOp40
 70
     1
102
RTVSPropertyOp41
 70
     1
102
RTVSPropertyOp42
 70
     1
102
RTVSPropertyOp43
 70
     1
102
RTVSPropertyOp44
 70
     1
102
RTVSPropertyOp45
 70
     1
102
RTVSPropertyOp46
 70
     1
102
RTVSPropertyOp47
 70
     1
102
RTVSPropertyOp48
 70
     1
102
RTVSPropertyOp49
 70
     1
102
RTVSPropertyOp50
 70
     1
102
RTVSPropertyOp51
 70
     0
102
RTVSPropertyOp52
 70
     0
102
RTVSPropertyOp53
 70
     1
102
RTVSPropertyOp54
 70
     1
102
RTVSPropertyOp55
 70
     1
102
RTVSPropertyOp56
 70
     1
102
RTVSPropertyOp57
 70
     1
102
RTVSPropertyOp58
 70
     1
102
RTVSPropertyOp59
 70
     1
102
RTVSPropertyOp60
 70
     1
102
RTVSPropertyOp61
 70
     1
102
RTVSPropertyOp62
 70
     1
  0
XRECORD
  5
99B2
102
{ACAD_REACTORS
330
99B1
102
}
330
99B1
100
AcDbXrecord
280
     1
102
RTVSPost2010Prop28
280
     0
102
RTVSPost2010PropOp28
 70
     1
102
RTVSPost2010Prop29
280
     1
102
RTVSPost2010PropOp29
 70
     1
102
RTVSPost2010Prop30
280
     1
102
RTVSPost2010PropOp30
 70
     1
102
RTVSPost2010Prop31
280
     0
102
RTVSPost2010PropOp31
 70
     1
102
RTVSPost2010Prop32
280
     0
102
RTVSPost2010PropOp32
 70
     1
102
RTVSPost2010Prop33
280
     0
102
RTVSPost2010PropOp33
 70
     1
102
RTVSPost2010Prop34
280
     0
102
RTVSPost2010PropOp34
 70
     1
102
RTVSPost2010Prop35
280
     0
102
RTVSPost2010PropOp35
 70
     1
102
RTVSPost2010Prop36
280
     0
102
RTVSPost2010PropOp36
 70
     1
102
RTVSPost2010Prop37
 90
       50
102
RTVSPost2010PropOp37
 70
     0
102
RTVSPost2010Prop38
140
0.0
102
RTVSPost2010PropOp38
 70
     0
102
RTVSPost2010Prop39
140
1.0
102
RTVSPost2010PropOp39
 70
     0
102
RTVSPost2010Prop40
 90
        0
102
RTVSPost2010PropOp40
 70
     0
102
RTVSPost2010Prop41ColorIndex
 90
       18
102
RTVSPost2010Prop41ColorRGB
 90
-16777216
102
RTVSPost2010PropOp41
 70
     0
102
RTVSPost2010Prop42
 90
       50
102
RTVSPost2010PropOp42
 70
     0
102
RTVSPost2010Prop43
 90
        3
102
RTVSPost2010PropOp43
 70
     0
102
RTVSPost2010Prop44ColorIndex
 90
        5
102
RTVSPost2010Prop44ColorRGB
 90
      255
102
RTVSPost2010PropOp44
 70
     0
102
RTVSPost2010Prop45
280
     0
102
RTVSPost2010PropOp45
 70
     1
102
RTVSPost2010Prop46
 90
       50
102
RTVSPost2010PropOp46
 70
     0
102
RTVSPost2010Prop47
 90
       50
102
RTVSPost2010PropOp47
 70
     0
102
RTVSPost2010Prop48
 90
       50
102
RTVSPost2010PropOp48
 70
     0
102
RTVSPost2010Prop49
280
     0
102
RTVSPost2010PropOp49
 70
     1
102
RTVSPost2010Prop50
 90
       50
102
RTVSPost2010PropOp50
 70
     0
102
RTVSPost2010Prop51ColorIndex
 90
      256
102
RTVSPost2010Prop51ColorRGB
 90
-16777216
102
RTVSPost2010PropOp51
 70
     0
102
RTVSPost2010Prop52
140
1.0
102
RTVSPost2010PropOp52
 70
     0
102
RTVSPost2010Prop53
 90
        2
102
RTVSPost2010PropOp53
 70
     0
102
RTVSPost2010Prop54
  1
strokes_ogs.tif
102
RTVSPost2010PropOp54
 70
     0
102
RTVSPost2010Prop55
280
     0
102
RTVSPost2010PropOp55
 70
     1
102
RTVSPost2010Prop56
140
1.0
102
RTVSPost2010PropOp56
 70
     0
102
RTVSPost2010Prop57
140
1.0
102
RTVSPost2010PropOp57
 70
     0
102
RTVSPropertyOp0
 70
     0
102
RTVSPropertyOp1
 70
     0
102
RTVSPropertyOp2
 70
     0
102
RTVSPropertyOp3
 70
     0
102
RTVSPropertyOp4
 70
     0
102
RTVSPropertyOp5
 70
     0
102
RTVSPropertyOp6
 70
     0
102
RTVSPropertyOp7
 70
     0
102
RTVSPropertyOp8
 70
     0
102
RTVSPropertyOp9
 70
     0
102
RTVSPropertyOp10
 70
     0
102
RTVSPropertyOp11
 70
     0
102
RTVSPropertyOp12
 70
     0
102
RTVSPropertyOp13
 70
     0
102
RTVSPropertyOp14
 70
     2
102
RTVSPropertyOp15
 70
     0
102
RTVSPropertyOp16
 70
     0
102
RTVSPropertyOp17
 70
     0
102
RTVSPropertyOp18
 70
     0
102
RTVSPropertyOp19
 70
     0
102
RTVSPropertyOp20
 70
     0
102
RTVSPropertyOp21
 70
     0
102
RTVSPropertyOp22
 70
     0
102
RTVSPropertyOp23
 70
     0
102
RTVSPropertyOp24
 70
     0
102
RTVSPropertyOp25
 70
     0
102
RTVSPropertyOp26
 70
     0
102
RTVSPropertyOp27
 70
     0
102
RTVSPropertyOp28
 70
     1
102
RTVSPropertyOp29
 70
     1
102
RTVSPropertyOp30
 70
     1
102
RTVSPropertyOp31
 70
     1
102
RTVSPropertyOp32
 70
     1
102
RTVSPropertyOp33
 70
     1
102
RTVSPropertyOp34
 70
     1
102
RTVSPropertyOp35
 70
     1
102
RTVSPropertyOp36
 70
     1
102
RTVSPropertyOp37
 70
     0
102
RTVSPropertyOp38
 70
     0
102
RTVSPropertyOp39
 70
     0
102
RTVSPropertyOp40
 70
     0
102
RTVSPropertyOp41
 70
     0
102
RTVSPropertyOp42
 70
     0
102
RTVSPropertyOp43
 70
     0
102
RTVSPropertyOp44
 70
     0
102
RTVSPropertyOp45
 70
     1
102
RTVSPropertyOp46
 70
     0
102
RTVSPropertyOp47
 70
     0
102
RTVSPropertyOp48
 70
     0
102
RTVSPropertyOp49
 70
     1
102
RTVSPropertyOp50
 70
     0
102
RTVSPropertyOp51
 70
     0
102
RTVSPropertyOp52
 70
     0
102
RTVSPropertyOp53
 70
     0
102
RTVSPropertyOp54
 70
     0
102
RTVSPropertyOp55
 70
     1
102
RTVSPropertyOp56
 70
     0
102
RTVSPropertyOp57
 70
     0
102
RTVSPropertyOp58
 70
     1
102
RTVSPropertyOp59
 70
     1
102
RTVSPropertyOp60
 70
     1
102
RTVSPropertyOp61
 70
     1
102
RTVSPropertyOp62
 70
     1
  0
XRECORD
  5
99A0
102
{ACAD_REACTORS
330
999F
102
}
330
999F
100
AcDbXrecord
280
     1
102
RTVSPost2010Prop28
280
     0
102
RTVSPost2010PropOp28
 70
     1
102
RTVSPost2010Prop29
280
     1
102
RTVSPost2010PropOp29
 70
     1
102
RTVSPost2010Prop30
280
     1
102
RTVSPost2010PropOp30
 70
     1
102
RTVSPost2010Prop31
280
     0
102
RTVSPost2010PropOp31
 70
     1
102
RTVSPost2010Prop32
280
     0
102
RTVSPost2010PropOp32
 70
     1
102
RTVSPost2010Prop33
280
     0
102
RTVSPost2010PropOp33
 70
     1
102
RTVSPost2010Prop34
280
     0
102
RTVSPost2010PropOp34
 70
     1
102
RTVSPost2010Prop35
280
     0
102
RTVSPost2010PropOp35
 70
     1
102
RTVSPost2010Prop36
280
     0
102
RTVSPost2010PropOp36
 70
     1
102
RTVSPost2010Prop37
 90
       50
102
RTVSPost2010PropOp37
 70
     1
102
RTVSPost2010Prop38
140
0.0
102
RTVSPost2010PropOp38
 70
     1
102
RTVSPost2010Prop39
140
1.0
102
RTVSPost2010PropOp39
 70
     1
102
RTVSPost2010Prop40
 90
        0
102
RTVSPost2010PropOp40
 70
     1
102
RTVSPost2010Prop41ColorIndex
 90
       18
102
RTVSPost2010Prop41ColorRGB
 90
-16777216
102
RTVSPost2010PropOp41
 70
     1
102
RTVSPost2010Prop42
 90
       50
102
RTVSPost2010PropOp42
 70
     1
102
RTVSPost2010Prop43
 90
        3
102
RTVSPost2010PropOp43
 70
     1
102
RTVSPost2010Prop44ColorIndex
 90
        5
102
RTVSPost2010Prop44ColorRGB
 90
      255
102
RTVSPost2010PropOp44
 70
     1
102
RTVSPost2010Prop45
280
     0
102
RTVSPost2010PropOp45
 70
     1
102
RTVSPost2010Prop46
 90
       50
102
RTVSPost2010PropOp46
 70
     1
102
RTVSPost2010Prop47
 90
       50
102
RTVSPost2010PropOp47
 70
     1
102
RTVSPost2010Prop48
 90
       50
102
RTVSPost2010PropOp48
 70
     1
102
RTVSPost2010Prop49
280
     0
102
RTVSPost2010PropOp49
 70
     1
102
RTVSPost2010Prop50
 90
       50
102
RTVSPost2010PropOp50
 70
     1
102
RTVSPost2010Prop51ColorIndex
 90
      256
102
RTVSPost2010Prop51ColorRGB
 90
-16777216
102
RTVSPost2010PropOp51
 70
     0
102
RTVSPost2010Prop52
140
1.0
102
RTVSPost2010PropOp52
 70
     0
102
RTVSPost2010Prop53
 90
        2
102
RTVSPost2010PropOp53
 70
     1
102
RTVSPost2010Prop54
  1
strokes_ogs.tif
102
RTVSPost2010PropOp54
 70
     1
102
RTVSPost2010Prop55
280
     0
102
RTVSPost2010PropOp55
 70
     1
102
RTVSPost2010Prop56
140
1.0
102
RTVSPost2010PropOp56
 70
     1
102
RTVSPost2010Prop57
140
1.0
102
RTVSPost2010PropOp57
 70
     1
102
RTVSPropertyOp0
 70
     1
102
RTVSPropertyOp1
 70
     1
102
RTVSPropertyOp2
 70
     1
102
RTVSPropertyOp3
 70
     1
102
RTVSPropertyOp4
 70
     1
102
RTVSPropertyOp5
 70
     1
102
RTVSPropertyOp6
 70
     1
102
RTVSPropertyOp7
 70
     1
102
RTVSPropertyOp8
 70
     1
102
RTVSPropertyOp9
 70
     1
102
RTVSPropertyOp10
 70
     1
102
RTVSPropertyOp11
 70
     1
102
RTVSPropertyOp12
 70
     1
102
RTVSPropertyOp13
 70
     1
102
RTVSPropertyOp14
 70
     1
102
RTVSPropertyOp15
 70
     1
102
RTVSPropertyOp16
 70
     1
102
RTVSPropertyOp17
 70
     1
102
RTVSPropertyOp18
 70
     1
102
RTVSPropertyOp19
 70
     1
102
RTVSPropertyOp20
 70
     1
102
RTVSPropertyOp21
 70
     1
102
RTVSPropertyOp22
 70
     1
102
RTVSPropertyOp23
 70
     1
102
RTVSPropertyOp24
 70
     1
102
RTVSPropertyOp25
 70
     1
102
RTVSPropertyOp26
 70
     1
102
RTVSPropertyOp27
 70
     1
102
RTVSPropertyOp28
 70
     1
102
RTVSPropertyOp29
 70
     1
102
RTVSPropertyOp30
 70
     1
102
RTVSPropertyOp31
 70
     1
102
RTVSPropertyOp32
 70
     1
102
RTVSPropertyOp33
 70
     1
102
RTVSPropertyOp34
 70
     1
102
RTVSPropertyOp35
 70
     1
102
RTVSPropertyOp36
 70
     1
102
RTVSPropertyOp37
 70
     1
102
RTVSPropertyOp38
 70
     1
102
RTVSPropertyOp39
 70
     1
102
RTVSPropertyOp40
 70
     1
102
RTVSPropertyOp41
 70
     1
102
RTVSPropertyOp42
 70
     1
102
RTVSPropertyOp43
 70
     1
102
RTVSPropertyOp44
 70
     1
102
RTVSPropertyOp45
 70
     1
102
RTVSPropertyOp46
 70
     1
102
RTVSPropertyOp47
 70
     1
102
RTVSPropertyOp48
 70
     1
102
RTVSPropertyOp49
 70
     1
102
RTVSPropertyOp50
 70
     1
102
RTVSPropertyOp51
 70
     0
102
RTVSPropertyOp52
 70
     0
102
RTVSPropertyOp53
 70
     1
102
RTVSPropertyOp54
 70
     1
102
RTVSPropertyOp55
 70
     1
102
RTVSPropertyOp56
 70
     1
102
RTVSPropertyOp57
 70
     1
102
RTVSPropertyOp58
 70
     1
102
RTVSPropertyOp59
 70
     1
102
RTVSPropertyOp60
 70
     1
102
RTVSPropertyOp61
 70
     1
102
RTVSPropertyOp62
 70
     1
  0
XRECORD
  5
9984
102
{ACAD_REACTORS
330
9983
102
}
330
9983
100
AcDbXrecord
280
     1
102
RTVSPost2010Prop28
280
     0
102
RTVSPost2010PropOp28
 70
     1
102
RTVSPost2010Prop29
280
     1
102
RTVSPost2010PropOp29
 70
     1
102
RTVSPost2010Prop30
280
     1
102
RTVSPost2010PropOp30
 70
     1
102
RTVSPost2010Prop31
280
     0
102
RTVSPost2010PropOp31
 70
     1
102
RTVSPost2010Prop32
280
     0
102
RTVSPost2010PropOp32
 70
     1
102
RTVSPost2010Prop33
280
     0
102
RTVSPost2010PropOp33
 70
     1
102
RTVSPost2010Prop34
280
     0
102
RTVSPost2010PropOp34
 70
     1
102
RTVSPost2010Prop35
280
     0
102
RTVSPost2010PropOp35
 70
     1
102
RTVSPost2010Prop36
280
     0
102
RTVSPost2010PropOp36
 70
     1
102
RTVSPost2010Prop37
 90
       50
102
RTVSPost2010PropOp37
 70
     1
102
RTVSPost2010Prop38
140
0.0
102
RTVSPost2010PropOp38
 70
     1
102
RTVSPost2010Prop39
140
1.0
102
RTVSPost2010PropOp39
 70
     1
102
RTVSPost2010Prop40
 90
        0
102
RTVSPost2010PropOp40
 70
     1
102
RTVSPost2010Prop41ColorIndex
 90
       18
102
RTVSPost2010Prop41ColorRGB
 90
-16777216
102
RTVSPost2010PropOp41
 70
     1
102
RTVSPost2010Prop42
 90
       50
102
RTVSPost2010PropOp42
 70
     1
102
RTVSPost2010Prop43
 90
        3
102
RTVSPost2010PropOp43
 70
     1
102
RTVSPost2010Prop44ColorIndex
 90
        5
102
RTVSPost2010Prop44ColorRGB
 90
      255
102
RTVSPost2010PropOp44
 70
     1
102
RTVSPost2010Prop45
280
     0
102
RTVSPost2010PropOp45
 70
     1
102
RTVSPost2010Prop46
 90
       50
102
RTVSPost2010PropOp46
 70
     1
102
RTVSPost2010Prop47
 90
       50
102
RTVSPost2010PropOp47
 70
     1
102
RTVSPost2010Prop48
 90
       50
102
RTVSPost2010PropOp48
 70
     1
102
RTVSPost2010Prop49
280
     0
102
RTVSPost2010PropOp49
 70
     1
102
RTVSPost2010Prop50
 90
       50
102
RTVSPost2010PropOp50
 70
     1
102
RTVSPost2010Prop51ColorIndex
 90
      256
102
RTVSPost2010Prop51ColorRGB
 90
-16777216
102
RTVSPost2010PropOp51
 70
     0
102
RTVSPost2010Prop52
140
1.0
102
RTVSPost2010PropOp52
 70
     0
102
RTVSPost2010Prop53
 90
        2
102
RTVSPost2010PropOp53
 70
     1
102
RTVSPost2010Prop54
  1
strokes_ogs.tif
102
RTVSPost2010PropOp54
 70
     1
102
RTVSPost2010Prop55
280
     0
102
RTVSPost2010PropOp55
 70
     1
102
RTVSPost2010Prop56
140
1.0
102
RTVSPost2010PropOp56
 70
     1
102
RTVSPost2010Prop57
140
1.0
102
RTVSPost2010PropOp57
 70
     1
102
RTVSPropertyOp0
 70
     1
102
RTVSPropertyOp1
 70
     1
102
RTVSPropertyOp2
 70
     1
102
RTVSPropertyOp3
 70
     1
102
RTVSPropertyOp4
 70
     1
102
RTVSPropertyOp5
 70
     1
102
RTVSPropertyOp6
 70
     1
102
RTVSPropertyOp7
 70
     1
102
RTVSPropertyOp8
 70
     1
102
RTVSPropertyOp9
 70
     1
102
RTVSPropertyOp10
 70
     1
102
RTVSPropertyOp11
 70
     1
102
RTVSPropertyOp12
 70
     1
102
RTVSPropertyOp13
 70
     1
102
RTVSPropertyOp14
 70
     1
102
RTVSPropertyOp15
 70
     1
102
RTVSPropertyOp16
 70
     1
102
RTVSPropertyOp17
 70
     1
102
RTVSPropertyOp18
 70
     1
102
RTVSPropertyOp19
 70
     1
102
RTVSPropertyOp20
 70
     1
102
RTVSPropertyOp21
 70
     1
102
RTVSPropertyOp22
 70
     1
102
RTVSPropertyOp23
 70
     1
102
RTVSPropertyOp24
 70
     1
102
RTVSPropertyOp25
 70
     1
102
RTVSPropertyOp26
 70
     1
102
RTVSPropertyOp27
 70
     1
102
RTVSPropertyOp28
 70
     1
102
RTVSPropertyOp29
 70
     1
102
RTVSPropertyOp30
 70
     1
102
RTVSPropertyOp31
 70
     1
102
RTVSPropertyOp32
 70
     1
102
RTVSPropertyOp33
 70
     1
102
RTVSPropertyOp34
 70
     1
102
RTVSPropertyOp35
 70
     1
102
RTVSPropertyOp36
 70
     1
102
RTVSPropertyOp37
 70
     1
102
RTVSPropertyOp38
 70
     1
102
RTVSPropertyOp39
 70
     1
102
RTVSPropertyOp40
 70
     1
102
RTVSPropertyOp41
 70
     1
102
RTVSPropertyOp42
 70
     1
102
RTVSPropertyOp43
 70
     1
102
RTVSPropertyOp44
 70
     1
102
RTVSPropertyOp45
 70
     1
102
RTVSPropertyOp46
 70
     1
102
RTVSPropertyOp47
 70
     1
102
RTVSPropertyOp48
 70
     1
102
RTVSPropertyOp49
 70
     1
102
RTVSPropertyOp50
 70
     1
102
RTVSPropertyOp51
 70
     0
102
RTVSPropertyOp52
 70
     0
102
RTVSPropertyOp53
 70
     1
102
RTVSPropertyOp54
 70
     1
102
RTVSPropertyOp55
 70
     1
102
RTVSPropertyOp56
 70
     1
102
RTVSPropertyOp57
 70
     1
102
RTVSPropertyOp58
 70
     1
102
RTVSPropertyOp59
 70
     1
102
RTVSPropertyOp60
 70
     1
102
RTVSPropertyOp61
 70
     1
102
RTVSPropertyOp62
 70
     1
  0
XRECORD
  5
9986
102
{ACAD_REACTORS
330
9985
102
}
330
9985
100
AcDbXrecord
280
     1
102
RTVSPost2010Prop28
280
     0
102
RTVSPost2010PropOp28
 70
     1
102
RTVSPost2010Prop29
280
     1
102
RTVSPost2010PropOp29
 70
     1
102
RTVSPost2010Prop30
280
     1
102
RTVSPost2010PropOp30
 70
     1
102
RTVSPost2010Prop31
280
     0
102
RTVSPost2010PropOp31
 70
     1
102
RTVSPost2010Prop32
280
     0
102
RTVSPost2010PropOp32
 70
     1
102
RTVSPost2010Prop33
280
     0
102
RTVSPost2010PropOp33
 70
     1
102
RTVSPost2010Prop34
280
     0
102
RTVSPost2010PropOp34
 70
     1
102
RTVSPost2010Prop35
280
     0
102
RTVSPost2010PropOp35
 70
     1
102
RTVSPost2010Prop36
280
     0
102
RTVSPost2010PropOp36
 70
     1
102
RTVSPost2010Prop37
 90
       50
102
RTVSPost2010PropOp37
 70
     1
102
RTVSPost2010Prop38
140
0.0
102
RTVSPost2010PropOp38
 70
     1
102
RTVSPost2010Prop39
140
1.0
102
RTVSPost2010PropOp39
 70
     1
102
RTVSPost2010Prop40
 90
        0
102
RTVSPost2010PropOp40
 70
     1
102
RTVSPost2010Prop41ColorIndex
 90
       18
102
RTVSPost2010Prop41ColorRGB
 90
-16777216
102
RTVSPost2010PropOp41
 70
     1
102
RTVSPost2010Prop42
 90
       50
102
RTVSPost2010PropOp42
 70
     1
102
RTVSPost2010Prop43
 90
        3
102
RTVSPost2010PropOp43
 70
     1
102
RTVSPost2010Prop44ColorIndex
 90
        5
102
RTVSPost2010Prop44ColorRGB
 90
      255
102
RTVSPost2010PropOp44
 70
     1
102
RTVSPost2010Prop45
280
     0
102
RTVSPost2010PropOp45
 70
     1
102
RTVSPost2010Prop46
 90
       50
102
RTVSPost2010PropOp46
 70
     1
102
RTVSPost2010Prop47
 90
       50
102
RTVSPost2010PropOp47
 70
     1
102
RTVSPost2010Prop48
 90
       50
102
RTVSPost2010PropOp48
 70
     1
102
RTVSPost2010Prop49
280
     0
102
RTVSPost2010PropOp49
 70
     1
102
RTVSPost2010Prop50
 90
       50
102
RTVSPost2010PropOp50
 70
     1
102
RTVSPost2010Prop51ColorIndex
 90
      256
102
RTVSPost2010Prop51ColorRGB
 90
-16777216
102
RTVSPost2010PropOp51
 70
     0
102
RTVSPost2010Prop52
140
1.0
102
RTVSPost2010PropOp52
 70
     0
102
RTVSPost2010Prop53
 90
        2
102
RTVSPost2010PropOp53
 70
     1
102
RTVSPost2010Prop54
  1
strokes_ogs.tif
102
RTVSPost2010PropOp54
 70
     1
102
RTVSPost2010Prop55
280
     0
102
RTVSPost2010PropOp55
 70
     1
102
RTVSPost2010Prop56
140
1.0
102
RTVSPost2010PropOp56
 70
     1
102
RTVSPost2010Prop57
140
1.0
102
RTVSPost2010PropOp57
 70
     1
102
RTVSPropertyOp0
 70
     1
102
RTVSPropertyOp1
 70
     1
102
RTVSPropertyOp2
 70
     1
102
RTVSPropertyOp3
 70
     1
102
RTVSPropertyOp4
 70
     1
102
RTVSPropertyOp5
 70
     1
102
RTVSPropertyOp6
 70
     1
102
RTVSPropertyOp7
 70
     1
102
RTVSPropertyOp8
 70
     1
102
RTVSPropertyOp9
 70
     1
102
RTVSPropertyOp10
 70
     1
102
RTVSPropertyOp11
 70
     1
102
RTVSPropertyOp12
 70
     1
102
RTVSPropertyOp13
 70
     1
102
RTVSPropertyOp14
 70
     1
102
RTVSPropertyOp15
 70
     1
102
RTVSPropertyOp16
 70
     1
102
RTVSPropertyOp17
 70
     1
102
RTVSPropertyOp18
 70
     1
102
RTVSPropertyOp19
 70
     1
102
RTVSPropertyOp20
 70
     1
102
RTVSPropertyOp21
 70
     1
102
RTVSPropertyOp22
 70
     1
102
RTVSPropertyOp23
 70
     1
102
RTVSPropertyOp24
 70
     1
102
RTVSPropertyOp25
 70
     1
102
RTVSPropertyOp26
 70
     1
102
RTVSPropertyOp27
 70
     1
102
RTVSPropertyOp28
 70
     1
102
RTVSPropertyOp29
 70
     1
102
RTVSPropertyOp30
 70
     1
102
RTVSPropertyOp31
 70
     1
102
RTVSPropertyOp32
 70
     1
102
RTVSPropertyOp33
 70
     1
102
RTVSPropertyOp34
 70
     1
102
RTVSPropertyOp35
 70
     1
102
RTVSPropertyOp36
 70
     1
102
RTVSPropertyOp37
 70
     1
102
RTVSPropertyOp38
 70
     1
102
RTVSPropertyOp39
 70
     1
102
RTVSPropertyOp40
 70
     1
102
RTVSPropertyOp41
 70
     1
102
RTVSPropertyOp42
 70
     1
102
RTVSPropertyOp43
 70
     1
102
RTVSPropertyOp44
 70
     1
102
RTVSPropertyOp45
 70
     1
102
RTVSPropertyOp46
 70
     1
102
RTVSPropertyOp47
 70
     1
102
RTVSPropertyOp48
 70
     1
102
RTVSPropertyOp49
 70
     1
102
RTVSPropertyOp50
 70
     1
102
RTVSPropertyOp51
 70
     0
102
RTVSPropertyOp52
 70
     0
102
RTVSPropertyOp53
 70
     1
102
RTVSPropertyOp54
 70
     1
102
RTVSPropertyOp55
 70
     1
102
RTVSPropertyOp56
 70
     1
102
RTVSPropertyOp57
 70
     1
102
RTVSPropertyOp58
 70
     1
102
RTVSPropertyOp59
 70
     1
102
RTVSPropertyOp60
 70
     1
102
RTVSPropertyOp61
 70
     1
102
RTVSPropertyOp62
 70
     1
  0
XRECORD
  5
9988
102
{ACAD_REACTORS
330
9987
102
}
330
9987
100
AcDbXrecord
280
     1
102
RTVSPost2010Prop28
280
     0
102
RTVSPost2010PropOp28
 70
     1
102
RTVSPost2010Prop29
280
     1
102
RTVSPost2010PropOp29
 70
     1
102
RTVSPost2010Prop30
280
     1
102
RTVSPost2010PropOp30
 70
     1
102
RTVSPost2010Prop31
280
     0
102
RTVSPost2010PropOp31
 70
     1
102
RTVSPost2010Prop32
280
     0
102
RTVSPost2010PropOp32
 70
     1
102
RTVSPost2010Prop33
280
     0
102
RTVSPost2010PropOp33
 70
     1
102
RTVSPost2010Prop34
280
     0
102
RTVSPost2010PropOp34
 70
     1
102
RTVSPost2010Prop35
280
     0
102
RTVSPost2010PropOp35
 70
     1
102
RTVSPost2010Prop36
280
     0
102
RTVSPost2010PropOp36
 70
     1
102
RTVSPost2010Prop37
 90
       50
102
RTVSPost2010PropOp37
 70
     1
102
RTVSPost2010Prop38
140
0.0
102
RTVSPost2010PropOp38
 70
     1
102
RTVSPost2010Prop39
140
1.0
102
RTVSPost2010PropOp39
 70
     1
102
RTVSPost2010Prop40
 90
        0
102
RTVSPost2010PropOp40
 70
     1
102
RTVSPost2010Prop41ColorIndex
 90
       18
102
RTVSPost2010Prop41ColorRGB
 90
-16777216
102
RTVSPost2010PropOp41
 70
     1
102
RTVSPost2010Prop42
 90
       50
102
RTVSPost2010PropOp42
 70
     1
102
RTVSPost2010Prop43
 90
        3
102
RTVSPost2010PropOp43
 70
     1
102
RTVSPost2010Prop44ColorIndex
 90
        5
102
RTVSPost2010Prop44ColorRGB
 90
      255
102
RTVSPost2010PropOp44
 70
     1
102
RTVSPost2010Prop45
280
     0
102
RTVSPost2010PropOp45
 70
     1
102
RTVSPost2010Prop46
 90
       50
102
RTVSPost2010PropOp46
 70
     1
102
RTVSPost2010Prop47
 90
       50
102
RTVSPost2010PropOp47
 70
     1
102
RTVSPost2010Prop48
 90
       50
102
RTVSPost2010PropOp48
 70
     1
102
RTVSPost2010Prop49
280
     0
102
RTVSPost2010PropOp49
 70
     1
102
RTVSPost2010Prop50
 90
       50
102
RTVSPost2010PropOp50
 70
     1
102
RTVSPost2010Prop51ColorIndex
 90
      256
102
RTVSPost2010Prop51ColorRGB
 90
-16777216
102
RTVSPost2010PropOp51
 70
     0
102
RTVSPost2010Prop52
140
1.0
102
RTVSPost2010PropOp52
 70
     0
102
RTVSPost2010Prop53
 90
        2
102
RTVSPost2010PropOp53
 70
     1
102
RTVSPost2010Prop54
  1
strokes_ogs.tif
102
RTVSPost2010PropOp54
 70
     1
102
RTVSPost2010Prop55
280
     0
102
RTVSPost2010PropOp55
 70
     1
102
RTVSPost2010Prop56
140
1.0
102
RTVSPost2010PropOp56
 70
     1
102
RTVSPost2010Prop57
140
1.0
102
RTVSPost2010PropOp57
 70
     1
102
RTVSPropertyOp0
 70
     1
102
RTVSPropertyOp1
 70
     1
102
RTVSPropertyOp2
 70
     1
102
RTVSPropertyOp3
 70
     1
102
RTVSPropertyOp4
 70
     1
102
RTVSPropertyOp5
 70
     1
102
RTVSPropertyOp6
 70
     1
102
RTVSPropertyOp7
 70
     1
102
RTVSPropertyOp8
 70
     1
102
RTVSPropertyOp9
 70
     1
102
RTVSPropertyOp10
 70
     1
102
RTVSPropertyOp11
 70
     1
102
RTVSPropertyOp12
 70
     1
102
RTVSPropertyOp13
 70
     1
102
RTVSPropertyOp14
 70
     1
102
RTVSPropertyOp15
 70
     1
102
RTVSPropertyOp16
 70
     1
102
RTVSPropertyOp17
 70
     1
102
RTVSPropertyOp18
 70
     1
102
RTVSPropertyOp19
 70
     1
102
RTVSPropertyOp20
 70
     1
102
RTVSPropertyOp21
 70
     1
102
RTVSPropertyOp22
 70
     1
102
RTVSPropertyOp23
 70
     1
102
RTVSPropertyOp24
 70
     1
102
RTVSPropertyOp25
 70
     1
102
RTVSPropertyOp26
 70
     1
102
RTVSPropertyOp27
 70
     1
102
RTVSPropertyOp28
 70
     1
102
RTVSPropertyOp29
 70
     1
102
RTVSPropertyOp30
 70
     1
102
RTVSPropertyOp31
 70
     1
102
RTVSPropertyOp32
 70
     1
102
RTVSPropertyOp33
 70
     1
102
RTVSPropertyOp34
 70
     1
102
RTVSPropertyOp35
 70
     1
102
RTVSPropertyOp36
 70
     1
102
RTVSPropertyOp37
 70
     1
102
RTVSPropertyOp38
 70
     1
102
RTVSPropertyOp39
 70
     1
102
RTVSPropertyOp40
 70
     1
102
RTVSPropertyOp41
 70
     1
102
RTVSPropertyOp42
 70
     1
102
RTVSPropertyOp43
 70
     1
102
RTVSPropertyOp44
 70
     1
102
RTVSPropertyOp45
 70
     1
102
RTVSPropertyOp46
 70
     1
102
RTVSPropertyOp47
 70
     1
102
RTVSPropertyOp48
 70
     1
102
RTVSPropertyOp49
 70
     1
102
RTVSPropertyOp50
 70
     1
102
RTVSPropertyOp51
 70
     0
102
RTVSPropertyOp52
 70
     0
102
RTVSPropertyOp53
 70
     1
102
RTVSPropertyOp54
 70
     1
102
RTVSPropertyOp55
 70
     1
102
RTVSPropertyOp56
 70
     1
102
RTVSPropertyOp57
 70
     1
102
RTVSPropertyOp58
 70
     1
102
RTVSPropertyOp59
 70
     1
102
RTVSPropertyOp60
 70
     1
102
RTVSPropertyOp61
 70
     1
102
RTVSPropertyOp62
 70
     1
  0
XRECORD
  5
998A
102
{ACAD_REACTORS
330
9989
102
}
330
9989
100
AcDbXrecord
280
     1
102
RTVSPost2010Prop28
280
     0
102
RTVSPost2010PropOp28
 70
     1
102
RTVSPost2010Prop29
280
     1
102
RTVSPost2010PropOp29
 70
     1
102
RTVSPost2010Prop30
280
     1
102
RTVSPost2010PropOp30
 70
     1
102
RTVSPost2010Prop31
280
     0
102
RTVSPost2010PropOp31
 70
     1
102
RTVSPost2010Prop32
280
     0
102
RTVSPost2010PropOp32
 70
     1
102
RTVSPost2010Prop33
280
     0
102
RTVSPost2010PropOp33
 70
     1
102
RTVSPost2010Prop34
280
     0
102
RTVSPost2010PropOp34
 70
     1
102
RTVSPost2010Prop35
280
     0
102
RTVSPost2010PropOp35
 70
     1
102
RTVSPost2010Prop36
280
     0
102
RTVSPost2010PropOp36
 70
     1
102
RTVSPost2010Prop37
 90
       50
102
RTVSPost2010PropOp37
 70
     1
102
RTVSPost2010Prop38
140
0.0
102
RTVSPost2010PropOp38
 70
     1
102
RTVSPost2010Prop39
140
1.0
102
RTVSPost2010PropOp39
 70
     1
102
RTVSPost2010Prop40
 90
        0
102
RTVSPost2010PropOp40
 70
     1
102
RTVSPost2010Prop41ColorIndex
 90
       18
102
RTVSPost2010Prop41ColorRGB
 90
-16777216
102
RTVSPost2010PropOp41
 70
     1
102
RTVSPost2010Prop42
 90
       50
102
RTVSPost2010PropOp42
 70
     1
102
RTVSPost2010Prop43
 90
        3
102
RTVSPost2010PropOp43
 70
     1
102
RTVSPost2010Prop44ColorIndex
 90
        5
102
RTVSPost2010Prop44ColorRGB
 90
      255
102
RTVSPost2010PropOp44
 70
     1
102
RTVSPost2010Prop45
280
     0
102
RTVSPost2010PropOp45
 70
     1
102
RTVSPost2010Prop46
 90
       50
102
RTVSPost2010PropOp46
 70
     1
102
RTVSPost2010Prop47
 90
       50
102
RTVSPost2010PropOp47
 70
     1
102
RTVSPost2010Prop48
 90
       50
102
RTVSPost2010PropOp48
 70
     1
102
RTVSPost2010Prop49
280
     0
102
RTVSPost2010PropOp49
 70
     1
102
RTVSPost2010Prop50
 90
       50
102
RTVSPost2010PropOp50
 70
     1
102
RTVSPost2010Prop51ColorIndex
 90
      256
102
RTVSPost2010Prop51ColorRGB
 90
-16777216
102
RTVSPost2010PropOp51
 70
     0
102
RTVSPost2010Prop52
140
1.0
102
RTVSPost2010PropOp52
 70
     0
102
RTVSPost2010Prop53
 90
        2
102
RTVSPost2010PropOp53
 70
     1
102
RTVSPost2010Prop54
  1
strokes_ogs.tif
102
RTVSPost2010PropOp54
 70
     1
102
RTVSPost2010Prop55
280
     0
102
RTVSPost2010PropOp55
 70
     1
102
RTVSPost2010Prop56
140
1.0
102
RTVSPost2010PropOp56
 70
     1
102
RTVSPost2010Prop57
140
1.0
102
RTVSPost2010PropOp57
 70
     1
102
RTVSPropertyOp0
 70
     1
102
RTVSPropertyOp1
 70
     1
102
RTVSPropertyOp2
 70
     1
102
RTVSPropertyOp3
 70
     1
102
RTVSPropertyOp4
 70
     1
102
RTVSPropertyOp5
 70
     1
102
RTVSPropertyOp6
 70
     1
102
RTVSPropertyOp7
 70
     1
102
RTVSPropertyOp8
 70
     1
102
RTVSPropertyOp9
 70
     1
102
RTVSPropertyOp10
 70
     1
102
RTVSPropertyOp11
 70
     1
102
RTVSPropertyOp12
 70
     1
102
RTVSPropertyOp13
 70
     1
102
RTVSPropertyOp14
 70
     1
102
RTVSPropertyOp15
 70
     1
102
RTVSPropertyOp16
 70
     1
102
RTVSPropertyOp17
 70
     1
102
RTVSPropertyOp18
 70
     1
102
RTVSPropertyOp19
 70
     1
102
RTVSPropertyOp20
 70
     1
102
RTVSPropertyOp21
 70
     1
102
RTVSPropertyOp22
 70
     1
102
RTVSPropertyOp23
 70
     1
102
RTVSPropertyOp24
 70
     1
102
RTVSPropertyOp25
 70
     1
102
RTVSPropertyOp26
 70
     1
102
RTVSPropertyOp27
 70
     1
102
RTVSPropertyOp28
 70
     1
102
RTVSPropertyOp29
 70
     1
102
RTVSPropertyOp30
 70
     1
102
RTVSPropertyOp31
 70
     1
102
RTVSPropertyOp32
 70
     1
102
RTVSPropertyOp33
 70
     1
102
RTVSPropertyOp34
 70
     1
102
RTVSPropertyOp35
 70
     1
102
RTVSPropertyOp36
 70
     1
102
RTVSPropertyOp37
 70
     1
102
RTVSPropertyOp38
 70
     1
102
RTVSPropertyOp39
 70
     1
102
RTVSPropertyOp40
 70
     1
102
RTVSPropertyOp41
 70
     1
102
RTVSPropertyOp42
 70
     1
102
RTVSPropertyOp43
 70
     1
102
RTVSPropertyOp44
 70
     1
102
RTVSPropertyOp45
 70
     1
102
RTVSPropertyOp46
 70
     1
102
RTVSPropertyOp47
 70
     1
102
RTVSPropertyOp48
 70
     1
102
RTVSPropertyOp49
 70
     1
102
RTVSPropertyOp50
 70
     1
102
RTVSPropertyOp51
 70
     0
102
RTVSPropertyOp52
 70
     0
102
RTVSPropertyOp53
 70
     1
102
RTVSPropertyOp54
 70
     1
102
RTVSPropertyOp55
 70
     1
102
RTVSPropertyOp56
 70
     1
102
RTVSPropertyOp57
 70
     1
102
RTVSPropertyOp58
 70
     1
102
RTVSPropertyOp59
 70
     1
102
RTVSPropertyOp60
 70
     1
102
RTVSPropertyOp61
 70
     1
102
RTVSPropertyOp62
 70
     1
  0
XRECORD
  5
9992
102
{ACAD_REACTORS
330
9991
102
}
330
9991
100
AcDbXrecord
280
     1
102
RTVSPost2010Prop28
280
     0
102
RTVSPost2010PropOp28
 70
     1
102
RTVSPost2010Prop29
280
     1
102
RTVSPost2010PropOp29
 70
     1
102
RTVSPost2010Prop30
280
     1
102
RTVSPost2010PropOp30
 70
     1
102
RTVSPost2010Prop31
280
     0
102
RTVSPost2010PropOp31
 70
     1
102
RTVSPost2010Prop32
280
     0
102
RTVSPost2010PropOp32
 70
     1
102
RTVSPost2010Prop33
280
     0
102
RTVSPost2010PropOp33
 70
     1
102
RTVSPost2010Prop34
280
     0
102
RTVSPost2010PropOp34
 70
     1
102
RTVSPost2010Prop35
280
     0
102
RTVSPost2010PropOp35
 70
     1
102
RTVSPost2010Prop36
280
     0
102
RTVSPost2010PropOp36
 70
     1
102
RTVSPost2010Prop37
 90
       50
102
RTVSPost2010PropOp37
 70
     1
102
RTVSPost2010Prop38
140
0.0
102
RTVSPost2010PropOp38
 70
     1
102
RTVSPost2010Prop39
140
1.0
102
RTVSPost2010PropOp39
 70
     1
102
RTVSPost2010Prop40
 90
        0
102
RTVSPost2010PropOp40
 70
     1
102
RTVSPost2010Prop41ColorIndex
 90
       18
102
RTVSPost2010Prop41ColorRGB
 90
-16777216
102
RTVSPost2010PropOp41
 70
     1
102
RTVSPost2010Prop42
 90
       50
102
RTVSPost2010PropOp42
 70
     1
102
RTVSPost2010Prop43
 90
        3
102
RTVSPost2010PropOp43
 70
     1
102
RTVSPost2010Prop44ColorIndex
 90
        5
102
RTVSPost2010Prop44ColorRGB
 90
      255
102
RTVSPost2010PropOp44
 70
     1
102
RTVSPost2010Prop45
280
     0
102
RTVSPost2010PropOp45
 70
     1
102
RTVSPost2010Prop46
 90
       50
102
RTVSPost2010PropOp46
 70
     1
102
RTVSPost2010Prop47
 90
       50
102
RTVSPost2010PropOp47
 70
     1
102
RTVSPost2010Prop48
 90
       50
102
RTVSPost2010PropOp48
 70
     1
102
RTVSPost2010Prop49
280
     0
102
RTVSPost2010PropOp49
 70
     1
102
RTVSPost2010Prop50
 90
       50
102
RTVSPost2010PropOp50
 70
     1
102
RTVSPost2010Prop51ColorIndex
 90
      256
102
RTVSPost2010Prop51ColorRGB
 90
-16777216
102
RTVSPost2010PropOp51
 70
     0
102
RTVSPost2010Prop52
140
1.0
102
RTVSPost2010PropOp52
 70
     0
102
RTVSPost2010Prop53
 90
        2
102
RTVSPost2010PropOp53
 70
     1
102
RTVSPost2010Prop54
  1
strokes_ogs.tif
102
RTVSPost2010PropOp54
 70
     1
102
RTVSPost2010Prop55
280
     0
102
RTVSPost2010PropOp55
 70
     1
102
RTVSPost2010Prop56
140
1.0
102
RTVSPost2010PropOp56
 70
     1
102
RTVSPost2010Prop57
140
1.0
102
RTVSPost2010PropOp57
 70
     1
102
RTVSPropertyOp0
 70
     1
102
RTVSPropertyOp1
 70
     1
102
RTVSPropertyOp2
 70
     1
102
RTVSPropertyOp3
 70
     1
102
RTVSPropertyOp4
 70
     1
102
RTVSPropertyOp5
 70
     1
102
RTVSPropertyOp6
 70
     1
102
RTVSPropertyOp7
 70
     1
102
RTVSPropertyOp8
 70
     1
102
RTVSPropertyOp9
 70
     1
102
RTVSPropertyOp10
 70
     1
102
RTVSPropertyOp11
 70
     1
102
RTVSPropertyOp12
 70
     1
102
RTVSPropertyOp13
 70
     1
102
RTVSPropertyOp14
 70
     1
102
RTVSPropertyOp15
 70
     1
102
RTVSPropertyOp16
 70
     1
102
RTVSPropertyOp17
 70
     1
102
RTVSPropertyOp18
 70
     1
102
RTVSPropertyOp19
 70
     1
102
RTVSPropertyOp20
 70
     1
102
RTVSPropertyOp21
 70
     1
102
RTVSPropertyOp22
 70
     1
102
RTVSPropertyOp23
 70
     1
102
RTVSPropertyOp24
 70
     1
102
RTVSPropertyOp25
 70
     1
102
RTVSPropertyOp26
 70
     1
102
RTVSPropertyOp27
 70
     1
102
RTVSPropertyOp28
 70
     1
102
RTVSPropertyOp29
 70
     1
102
RTVSPropertyOp30
 70
     1
102
RTVSPropertyOp31
 70
     1
102
RTVSPropertyOp32
 70
     1
102
RTVSPropertyOp33
 70
     1
102
RTVSPropertyOp34
 70
     1
102
RTVSPropertyOp35
 70
     1
102
RTVSPropertyOp36
 70
     1
102
RTVSPropertyOp37
 70
     1
102
RTVSPropertyOp38
 70
     1
102
RTVSPropertyOp39
 70
     1
102
RTVSPropertyOp40
 70
     1
102
RTVSPropertyOp41
 70
     1
102
RTVSPropertyOp42
 70
     1
102
RTVSPropertyOp43
 70
     1
102
RTVSPropertyOp44
 70
     1
102
RTVSPropertyOp45
 70
     1
102
RTVSPropertyOp46
 70
     1
102
RTVSPropertyOp47
 70
     1
102
RTVSPropertyOp48
 70
     1
102
RTVSPropertyOp49
 70
     1
102
RTVSPropertyOp50
 70
     1
102
RTVSPropertyOp51
 70
     0
102
RTVSPropertyOp52
 70
     0
102
RTVSPropertyOp53
 70
     1
102
RTVSPropertyOp54
 70
     1
102
RTVSPropertyOp55
 70
     1
102
RTVSPropertyOp56
 70
     1
102
RTVSPropertyOp57
 70
     1
102
RTVSPropertyOp58
 70
     1
102
RTVSPropertyOp59
 70
     1
102
RTVSPropertyOp60
 70
     1
102
RTVSPropertyOp61
 70
     1
102
RTVSPropertyOp62
 70
     1
  0
XRECORD
  5
99AE
102
{ACAD_REACTORS
330
99AD
102
}
330
99AD
100
AcDbXrecord
280
     1
102
RTVSPost2010Prop28
280
     0
102
RTVSPost2010PropOp28
 70
     1
102
RTVSPost2010Prop29
280
     1
102
RTVSPost2010PropOp29
 70
     1
102
RTVSPost2010Prop30
280
     1
102
RTVSPost2010PropOp30
 70
     1
102
RTVSPost2010Prop31
280
     0
102
RTVSPost2010PropOp31
 70
     1
102
RTVSPost2010Prop32
280
     0
102
RTVSPost2010PropOp32
 70
     1
102
RTVSPost2010Prop33
280
     0
102
RTVSPost2010PropOp33
 70
     1
102
RTVSPost2010Prop34
280
     0
102
RTVSPost2010PropOp34
 70
     1
102
RTVSPost2010Prop35
280
     0
102
RTVSPost2010PropOp35
 70
     1
102
RTVSPost2010Prop36
280
     0
102
RTVSPost2010PropOp36
 70
     1
102
RTVSPost2010Prop37
 90
       50
102
RTVSPost2010PropOp37
 70
     0
102
RTVSPost2010Prop38
140
0.0
102
RTVSPost2010PropOp38
 70
     0
102
RTVSPost2010Prop39
140
1.0
102
RTVSPost2010PropOp39
 70
     0
102
RTVSPost2010Prop40
 90
        0
102
RTVSPost2010PropOp40
 70
     0
102
RTVSPost2010Prop41ColorIndex
 90
       18
102
RTVSPost2010Prop41ColorRGB
 90
-16777216
102
RTVSPost2010PropOp41
 70
     0
102
RTVSPost2010Prop42
 90
       50
102
RTVSPost2010PropOp42
 70
     0
102
RTVSPost2010Prop43
 90
        3
102
RTVSPost2010PropOp43
 70
     0
102
RTVSPost2010Prop44ColorIndex
 90
        5
102
RTVSPost2010Prop44ColorRGB
 90
      255
102
RTVSPost2010PropOp44
 70
     0
102
RTVSPost2010Prop45
280
     0
102
RTVSPost2010PropOp45
 70
     1
102
RTVSPost2010Prop46
 90
       50
102
RTVSPost2010PropOp46
 70
     0
102
RTVSPost2010Prop47
 90
       50
102
RTVSPost2010PropOp47
 70
     0
102
RTVSPost2010Prop48
 90
       50
102
RTVSPost2010PropOp48
 70
     0
102
RTVSPost2010Prop49
280
     0
102
RTVSPost2010PropOp49
 70
     1
102
RTVSPost2010Prop50
 90
       50
102
RTVSPost2010PropOp50
 70
     0
102
RTVSPost2010Prop51ColorIndex
 90
      256
102
RTVSPost2010Prop51ColorRGB
 90
-16777216
102
RTVSPost2010PropOp51
 70
     0
102
RTVSPost2010Prop52
140
1.0
102
RTVSPost2010PropOp52
 70
     0
102
RTVSPost2010Prop53
 90
        2
102
RTVSPost2010PropOp53
 70
     0
102
RTVSPost2010Prop54
  1
strokes_ogs.tif
102
RTVSPost2010PropOp54
 70
     0
102
RTVSPost2010Prop55
280
     0
102
RTVSPost2010PropOp55
 70
     1
102
RTVSPost2010Prop56
140
1.0
102
RTVSPost2010PropOp56
 70
     0
102
RTVSPost2010Prop57
140
1.0
102
RTVSPost2010PropOp57
 70
     0
102
RTVSPropertyOp0
 70
     0
102
RTVSPropertyOp1
 70
     0
102
RTVSPropertyOp2
 70
     0
102
RTVSPropertyOp3
 70
     0
102
RTVSPropertyOp4
 70
     0
102
RTVSPropertyOp5
 70
     0
102
RTVSPropertyOp6
 70
     0
102
RTVSPropertyOp7
 70
     0
102
RTVSPropertyOp8
 70
     0
102
RTVSPropertyOp9
 70
     0
102
RTVSPropertyOp10
 70
     0
102
RTVSPropertyOp11
 70
     0
102
RTVSPropertyOp12
 70
     0
102
RTVSPropertyOp13
 70
     0
102
RTVSPropertyOp14
 70
     2
102
RTVSPropertyOp15
 70
     0
102
RTVSPropertyOp16
 70
     0
102
RTVSPropertyOp17
 70
     0
102
RTVSPropertyOp18
 70
     0
102
RTVSPropertyOp19
 70
     0
102
RTVSPropertyOp20
 70
     0
102
RTVSPropertyOp21
 70
     0
102
RTVSPropertyOp22
 70
     0
102
RTVSPropertyOp23
 70
     0
102
RTVSPropertyOp24
 70
     0
102
RTVSPropertyOp25
 70
     0
102
RTVSPropertyOp26
 70
     0
102
RTVSPropertyOp27
 70
     0
102
RTVSPropertyOp28
 70
     1
102
RTVSPropertyOp29
 70
     1
102
RTVSPropertyOp30
 70
     1
102
RTVSPropertyOp31
 70
     1
102
RTVSPropertyOp32
 70
     1
102
RTVSPropertyOp33
 70
     1
102
RTVSPropertyOp34
 70
     1
102
RTVSPropertyOp35
 70
     1
102
RTVSPropertyOp36
 70
     1
102
RTVSPropertyOp37
 70
     0
102
RTVSPropertyOp38
 70
     0
102
RTVSPropertyOp39
 70
     0
102
RTVSPropertyOp40
 70
     0
102
RTVSPropertyOp41
 70
     0
102
RTVSPropertyOp42
 70
     0
102
RTVSPropertyOp43
 70
     0
102
RTVSPropertyOp44
 70
     0
102
RTVSPropertyOp45
 70
     1
102
RTVSPropertyOp46
 70
     0
102
RTVSPropertyOp47
 70
     0
102
RTVSPropertyOp48
 70
     0
102
RTVSPropertyOp49
 70
     1
102
RTVSPropertyOp50
 70
     0
102
RTVSPropertyOp51
 70
     0
102
RTVSPropertyOp52
 70
     0
102
RTVSPropertyOp53
 70
     0
102
RTVSPropertyOp54
 70
     0
102
RTVSPropertyOp55
 70
     1
102
RTVSPropertyOp56
 70
     0
102
RTVSPropertyOp57
 70
     0
102
RTVSPropertyOp58
 70
     1
102
RTVSPropertyOp59
 70
     1
102
RTVSPropertyOp60
 70
     1
102
RTVSPropertyOp61
 70
     1
102
RTVSPropertyOp62
 70
     1
  0
XRECORD
  5
999E
102
{ACAD_REACTORS
330
999D
102
}
330
999D
100
AcDbXrecord
280
     1
102
RTVSPost2010Prop28
280
     0
102
RTVSPost2010PropOp28
 70
     1
102
RTVSPost2010Prop29
280
     1
102
RTVSPost2010PropOp29
 70
     1
102
RTVSPost2010Prop30
280
     1
102
RTVSPost2010PropOp30
 70
     1
102
RTVSPost2010Prop31
280
     0
102
RTVSPost2010PropOp31
 70
     1
102
RTVSPost2010Prop32
280
     0
102
RTVSPost2010PropOp32
 70
     1
102
RTVSPost2010Prop33
280
     0
102
RTVSPost2010PropOp33
 70
     1
102
RTVSPost2010Prop34
280
     0
102
RTVSPost2010PropOp34
 70
     1
102
RTVSPost2010Prop35
280
     0
102
RTVSPost2010PropOp35
 70
     1
102
RTVSPost2010Prop36
280
     0
102
RTVSPost2010PropOp36
 70
     1
102
RTVSPost2010Prop37
 90
       50
102
RTVSPost2010PropOp37
 70
     1
102
RTVSPost2010Prop38
140
0.0
102
RTVSPost2010PropOp38
 70
     1
102
RTVSPost2010Prop39
140
1.0
102
RTVSPost2010PropOp39
 70
     1
102
RTVSPost2010Prop40
 90
        0
102
RTVSPost2010PropOp40
 70
     1
102
RTVSPost2010Prop41ColorIndex
 90
       18
102
RTVSPost2010Prop41ColorRGB
 90
-16777216
102
RTVSPost2010PropOp41
 70
     1
102
RTVSPost2010Prop42
 90
       50
102
RTVSPost2010PropOp42
 70
     1
102
RTVSPost2010Prop43
 90
        3
102
RTVSPost2010PropOp43
 70
     1
102
RTVSPost2010Prop44ColorIndex
 90
        5
102
RTVSPost2010Prop44ColorRGB
 90
      255
102
RTVSPost2010PropOp44
 70
     1
102
RTVSPost2010Prop45
280
     0
102
RTVSPost2010PropOp45
 70
     1
102
RTVSPost2010Prop46
 90
       50
102
RTVSPost2010PropOp46
 70
     1
102
RTVSPost2010Prop47
 90
       50
102
RTVSPost2010PropOp47
 70
     1
102
RTVSPost2010Prop48
 90
       50
102
RTVSPost2010PropOp48
 70
     1
102
RTVSPost2010Prop49
280
     0
102
RTVSPost2010PropOp49
 70
     1
102
RTVSPost2010Prop50
 90
       50
102
RTVSPost2010PropOp50
 70
     1
102
RTVSPost2010Prop51ColorIndex
 90
      256
102
RTVSPost2010Prop51ColorRGB
 90
-16777216
102
RTVSPost2010PropOp51
 70
     0
102
RTVSPost2010Prop52
140
1.0
102
RTVSPost2010PropOp52
 70
     0
102
RTVSPost2010Prop53
 90
        2
102
RTVSPost2010PropOp53
 70
     1
102
RTVSPost2010Prop54
  1
strokes_ogs.tif
102
RTVSPost2010PropOp54
 70
     1
102
RTVSPost2010Prop55
280
     0
102
RTVSPost2010PropOp55
 70
     1
102
RTVSPost2010Prop56
140
1.0
102
RTVSPost2010PropOp56
 70
     1
102
RTVSPost2010Prop57
140
1.0
102
RTVSPost2010PropOp57
 70
     1
102
RTVSPropertyOp0
 70
     1
102
RTVSPropertyOp1
 70
     1
102
RTVSPropertyOp2
 70
     1
102
RTVSPropertyOp3
 70
     1
102
RTVSPropertyOp4
 70
     1
102
RTVSPropertyOp5
 70
     1
102
RTVSPropertyOp6
 70
     1
102
RTVSPropertyOp7
 70
     1
102
RTVSPropertyOp8
 70
     1
102
RTVSPropertyOp9
 70
     1
102
RTVSPropertyOp10
 70
     1
102
RTVSPropertyOp11
 70
     1
102
RTVSPropertyOp12
 70
     1
102
RTVSPropertyOp13
 70
     1
102
RTVSPropertyOp14
 70
     1
102
RTVSPropertyOp15
 70
     1
102
RTVSPropertyOp16
 70
     1
102
RTVSPropertyOp17
 70
     1
102
RTVSPropertyOp18
 70
     1
102
RTVSPropertyOp19
 70
     1
102
RTVSPropertyOp20
 70
     1
102
RTVSPropertyOp21
 70
     1
102
RTVSPropertyOp22
 70
     1
102
RTVSPropertyOp23
 70
     1
102
RTVSPropertyOp24
 70
     1
102
RTVSPropertyOp25
 70
     1
102
RTVSPropertyOp26
 70
     1
102
RTVSPropertyOp27
 70
     1
102
RTVSPropertyOp28
 70
     1
102
RTVSPropertyOp29
 70
     1
102
RTVSPropertyOp30
 70
     1
102
RTVSPropertyOp31
 70
     1
102
RTVSPropertyOp32
 70
     1
102
RTVSPropertyOp33
 70
     1
102
RTVSPropertyOp34
 70
     1
102
RTVSPropertyOp35
 70
     1
102
RTVSPropertyOp36
 70
     1
102
RTVSPropertyOp37
 70
     1
102
RTVSPropertyOp38
 70
     1
102
RTVSPropertyOp39
 70
     1
102
RTVSPropertyOp40
 70
     1
102
RTVSPropertyOp41
 70
     1
102
RTVSPropertyOp42
 70
     1
102
RTVSPropertyOp43
 70
     1
102
RTVSPropertyOp44
 70
     1
102
RTVSPropertyOp45
 70
     1
102
RTVSPropertyOp46
 70
     1
102
RTVSPropertyOp47
 70
     1
102
RTVSPropertyOp48
 70
     1
102
RTVSPropertyOp49
 70
     1
102
RTVSPropertyOp50
 70
     1
102
RTVSPropertyOp51
 70
     0
102
RTVSPropertyOp52
 70
     0
102
RTVSPropertyOp53
 70
     1
102
RTVSPropertyOp54
 70
     1
102
RTVSPropertyOp55
 70
     1
102
RTVSPropertyOp56
 70
     1
102
RTVSPropertyOp57
 70
     1
102
RTVSPropertyOp58
 70
     1
102
RTVSPropertyOp59
 70
     1
102
RTVSPropertyOp60
 70
     1
102
RTVSPropertyOp61
 70
     1
102
RTVSPropertyOp62
 70
     1
  0
XRECORD
  5
99B0
102
{ACAD_REACTORS
330
99AF
102
}
330
99AF
100
AcDbXrecord
280
     1
102
RTVSPost2010Prop28
280
     0
102
RTVSPost2010PropOp28
 70
     1
102
RTVSPost2010Prop29
280
     1
102
RTVSPost2010PropOp29
 70
     1
102
RTVSPost2010Prop30
280
     1
102
RTVSPost2010PropOp30
 70
     1
102
RTVSPost2010Prop31
280
     0
102
RTVSPost2010PropOp31
 70
     1
102
RTVSPost2010Prop32
280
     0
102
RTVSPost2010PropOp32
 70
     1
102
RTVSPost2010Prop33
280
     0
102
RTVSPost2010PropOp33
 70
     1
102
RTVSPost2010Prop34
280
     0
102
RTVSPost2010PropOp34
 70
     1
102
RTVSPost2010Prop35
280
     0
102
RTVSPost2010PropOp35
 70
     1
102
RTVSPost2010Prop36
280
     0
102
RTVSPost2010PropOp36
 70
     1
102
RTVSPost2010Prop37
 90
       50
102
RTVSPost2010PropOp37
 70
     0
102
RTVSPost2010Prop38
140
0.0
102
RTVSPost2010PropOp38
 70
     0
102
RTVSPost2010Prop39
140
1.0
102
RTVSPost2010PropOp39
 70
     0
102
RTVSPost2010Prop40
 90
        0
102
RTVSPost2010PropOp40
 70
     0
102
RTVSPost2010Prop41ColorIndex
 90
       18
102
RTVSPost2010Prop41ColorRGB
 90
-16777216
102
RTVSPost2010PropOp41
 70
     0
102
RTVSPost2010Prop42
 90
       50
102
RTVSPost2010PropOp42
 70
     0
102
RTVSPost2010Prop43
 90
        3
102
RTVSPost2010PropOp43
 70
     0
102
RTVSPost2010Prop44ColorIndex
 90
        5
102
RTVSPost2010Prop44ColorRGB
 90
      255
102
RTVSPost2010PropOp44
 70
     0
102
RTVSPost2010Prop45
280
     0
102
RTVSPost2010PropOp45
 70
     1
102
RTVSPost2010Prop46
 90
       50
102
RTVSPost2010PropOp46
 70
     0
102
RTVSPost2010Prop47
 90
       50
102
RTVSPost2010PropOp47
 70
     0
102
RTVSPost2010Prop48
 90
       50
102
RTVSPost2010PropOp48
 70
     0
102
RTVSPost2010Prop49
280
     0
102
RTVSPost2010PropOp49
 70
     1
102
RTVSPost2010Prop50
 90
       50
102
RTVSPost2010PropOp50
 70
     0
102
RTVSPost2010Prop51ColorIndex
 90
      256
102
RTVSPost2010Prop51ColorRGB
 90
-16777216
102
RTVSPost2010PropOp51
 70
     0
102
RTVSPost2010Prop52
140
1.0
102
RTVSPost2010PropOp52
 70
     0
102
RTVSPost2010Prop53
 90
        2
102
RTVSPost2010PropOp53
 70
     0
102
RTVSPost2010Prop54
  1
strokes_ogs.tif
102
RTVSPost2010PropOp54
 70
     0
102
RTVSPost2010Prop55
280
     0
102
RTVSPost2010PropOp55
 70
     1
102
RTVSPost2010Prop56
140
1.0
102
RTVSPost2010PropOp56
 70
     0
102
RTVSPost2010Prop57
140
1.0
102
RTVSPost2010PropOp57
 70
     0
102
RTVSPropertyOp0
 70
     0
102
RTVSPropertyOp1
 70
     0
102
RTVSPropertyOp2
 70
     0
102
RTVSPropertyOp3
 70
     0
102
RTVSPropertyOp4
 70
     0
102
RTVSPropertyOp5
 70
     0
102
RTVSPropertyOp6
 70
     0
102
RTVSPropertyOp7
 70
     0
102
RTVSPropertyOp8
 70
     0
102
RTVSPropertyOp9
 70
     0
102
RTVSPropertyOp10
 70
     0
102
RTVSPropertyOp11
 70
     0
102
RTVSPropertyOp12
 70
     0
102
RTVSPropertyOp13
 70
     0
102
RTVSPropertyOp14
 70
     2
102
RTVSPropertyOp15
 70
     0
102
RTVSPropertyOp16
 70
     0
102
RTVSPropertyOp17
 70
     0
102
RTVSPropertyOp18
 70
     0
102
RTVSPropertyOp19
 70
     0
102
RTVSPropertyOp20
 70
     0
102
RTVSPropertyOp21
 70
     0
102
RTVSPropertyOp22
 70
     0
102
RTVSPropertyOp23
 70
     0
102
RTVSPropertyOp24
 70
     0
102
RTVSPropertyOp25
 70
     0
102
RTVSPropertyOp26
 70
     0
102
RTVSPropertyOp27
 70
     0
102
RTVSPropertyOp28
 70
     1
102
RTVSPropertyOp29
 70
     1
102
RTVSPropertyOp30
 70
     1
102
RTVSPropertyOp31
 70
     1
102
RTVSPropertyOp32
 70
     1
102
RTVSPropertyOp33
 70
     1
102
RTVSPropertyOp34
 70
     1
102
RTVSPropertyOp35
 70
     1
102
RTVSPropertyOp36
 70
     1
102
RTVSPropertyOp37
 70
     0
102
RTVSPropertyOp38
 70
     0
102
RTVSPropertyOp39
 70
     0
102
RTVSPropertyOp40
 70
     0
102
RTVSPropertyOp41
 70
     0
102
RTVSPropertyOp42
 70
     0
102
RTVSPropertyOp43
 70
     0
102
RTVSPropertyOp44
 70
     0
102
RTVSPropertyOp45
 70
     1
102
RTVSPropertyOp46
 70
     0
102
RTVSPropertyOp47
 70
     0
102
RTVSPropertyOp48
 70
     0
102
RTVSPropertyOp49
 70
     1
102
RTVSPropertyOp50
 70
     0
102
RTVSPropertyOp51
 70
     0
102
RTVSPropertyOp52
 70
     0
102
RTVSPropertyOp53
 70
     0
102
RTVSPropertyOp54
 70
     0
102
RTVSPropertyOp55
 70
     1
102
RTVSPropertyOp56
 70
     0
102
RTVSPropertyOp57
 70
     0
102
RTVSPropertyOp58
 70
     1
102
RTVSPropertyOp59
 70
     1
102
RTVSPropertyOp60
 70
     1
102
RTVSPropertyOp61
 70
     1
102
RTVSPropertyOp62
 70
     1
  0
XRECORD
  5
9996
102
{ACAD_REACTORS
330
9995
102
}
330
9995
100
AcDbXrecord
280
     1
102
RTVSPost2010Prop28
280
     0
102
RTVSPost2010PropOp28
 70
     1
102
RTVSPost2010Prop29
280
     1
102
RTVSPost2010PropOp29
 70
     1
102
RTVSPost2010Prop30
280
     1
102
RTVSPost2010PropOp30
 70
     1
102
RTVSPost2010Prop31
280
     0
102
RTVSPost2010PropOp31
 70
     1
102
RTVSPost2010Prop32
280
     0
102
RTVSPost2010PropOp32
 70
     1
102
RTVSPost2010Prop33
280
     0
102
RTVSPost2010PropOp33
 70
     1
102
RTVSPost2010Prop34
280
     0
102
RTVSPost2010PropOp34
 70
     1
102
RTVSPost2010Prop35
280
     0
102
RTVSPost2010PropOp35
 70
     1
102
RTVSPost2010Prop36
280
     0
102
RTVSPost2010PropOp36
 70
     1
102
RTVSPost2010Prop37
 90
       50
102
RTVSPost2010PropOp37
 70
     1
102
RTVSPost2010Prop38
140
0.0
102
RTVSPost2010PropOp38
 70
     1
102
RTVSPost2010Prop39
140
1.0
102
RTVSPost2010PropOp39
 70
     1
102
RTVSPost2010Prop40
 90
        0
102
RTVSPost2010PropOp40
 70
     1
102
RTVSPost2010Prop41ColorIndex
 90
       18
102
RTVSPost2010Prop41ColorRGB
 90
-16777216
102
RTVSPost2010PropOp41
 70
     1
102
RTVSPost2010Prop42
 90
       50
102
RTVSPost2010PropOp42
 70
     1
102
RTVSPost2010Prop43
 90
        3
102
RTVSPost2010PropOp43
 70
     1
102
RTVSPost2010Prop44ColorIndex
 90
        5
102
RTVSPost2010Prop44ColorRGB
 90
      255
102
RTVSPost2010PropOp44
 70
     1
102
RTVSPost2010Prop45
280
     0
102
RTVSPost2010PropOp45
 70
     1
102
RTVSPost2010Prop46
 90
       50
102
RTVSPost2010PropOp46
 70
     1
102
RTVSPost2010Prop47
 90
       50
102
RTVSPost2010PropOp47
 70
     1
102
RTVSPost2010Prop48
 90
       50
102
RTVSPost2010PropOp48
 70
     1
102
RTVSPost2010Prop49
280
     0
102
RTVSPost2010PropOp49
 70
     1
102
RTVSPost2010Prop50
 90
       50
102
RTVSPost2010PropOp50
 70
     1
102
RTVSPost2010Prop51ColorIndex
 90
      256
102
RTVSPost2010Prop51ColorRGB
 90
-16777216
102
RTVSPost2010PropOp51
 70
     0
102
RTVSPost2010Prop52
140
1.0
102
RTVSPost2010PropOp52
 70
     0
102
RTVSPost2010Prop53
 90
        2
102
RTVSPost2010PropOp53
 70
     1
102
RTVSPost2010Prop54
  1
strokes_ogs.tif
102
RTVSPost2010PropOp54
 70
     1
102
RTVSPost2010Prop55
280
     0
102
RTVSPost2010PropOp55
 70
     1
102
RTVSPost2010Prop56
140
1.0
102
RTVSPost2010PropOp56
 70
     1
102
RTVSPost2010Prop57
140
1.0
102
RTVSPost2010PropOp57
 70
     1
102
RTVSPropertyOp0
 70
     1
102
RTVSPropertyOp1
 70
     1
102
RTVSPropertyOp2
 70
     1
102
RTVSPropertyOp3
 70
     1
102
RTVSPropertyOp4
 70
     1
102
RTVSPropertyOp5
 70
     1
102
RTVSPropertyOp6
 70
     1
102
RTVSPropertyOp7
 70
     1
102
RTVSPropertyOp8
 70
     1
102
RTVSPropertyOp9
 70
     1
102
RTVSPropertyOp10
 70
     1
102
RTVSPropertyOp11
 70
     1
102
RTVSPropertyOp12
 70
     1
102
RTVSPropertyOp13
 70
     1
102
RTVSPropertyOp14
 70
     1
102
RTVSPropertyOp15
 70
     1
102
RTVSPropertyOp16
 70
     1
102
RTVSPropertyOp17
 70
     1
102
RTVSPropertyOp18
 70
     1
102
RTVSPropertyOp19
 70
     1
102
RTVSPropertyOp20
 70
     1
102
RTVSPropertyOp21
 70
     1
102
RTVSPropertyOp22
 70
     1
102
RTVSPropertyOp23
 70
     1
102
RTVSPropertyOp24
 70
     1
102
RTVSPropertyOp25
 70
     1
102
RTVSPropertyOp26
 70
     1
102
RTVSPropertyOp27
 70
     1
102
RTVSPropertyOp28
 70
     1
102
RTVSPropertyOp29
 70
     1
102
RTVSPropertyOp30
 70
     1
102
RTVSPropertyOp31
 70
     1
102
RTVSPropertyOp32
 70
     1
102
RTVSPropertyOp33
 70
     1
102
RTVSPropertyOp34
 70
     1
102
RTVSPropertyOp35
 70
     1
102
RTVSPropertyOp36
 70
     1
102
RTVSPropertyOp37
 70
     1
102
RTVSPropertyOp38
 70
     1
102
RTVSPropertyOp39
 70
     1
102
RTVSPropertyOp40
 70
     1
102
RTVSPropertyOp41
 70
     1
102
RTVSPropertyOp42
 70
     1
102
RTVSPropertyOp43
 70
     1
102
RTVSPropertyOp44
 70
     1
102
RTVSPropertyOp45
 70
     1
102
RTVSPropertyOp46
 70
     1
102
RTVSPropertyOp47
 70
     1
102
RTVSPropertyOp48
 70
     1
102
RTVSPropertyOp49
 70
     1
102
RTVSPropertyOp50
 70
     1
102
RTVSPropertyOp51
 70
     0
102
RTVSPropertyOp52
 70
     0
102
RTVSPropertyOp53
 70
     1
102
RTVSPropertyOp54
 70
     1
102
RTVSPropertyOp55
 70
     1
102
RTVSPropertyOp56
 70
     1
102
RTVSPropertyOp57
 70
     1
102
RTVSPropertyOp58
 70
     1
102
RTVSPropertyOp59
 70
     1
102
RTVSPropertyOp60
 70
     1
102
RTVSPropertyOp61
 70
     1
102
RTVSPropertyOp62
 70
     1
  0
XRECORD
  5
99AC
102
{ACAD_REACTORS
330
99AB
102
}
330
99AB
100
AcDbXrecord
280
     1
102
RTVSPost2010Prop28
280
     0
102
RTVSPost2010PropOp28
 70
     1
102
RTVSPost2010Prop29
280
     1
102
RTVSPost2010PropOp29
 70
     1
102
RTVSPost2010Prop30
280
     1
102
RTVSPost2010PropOp30
 70
     1
102
RTVSPost2010Prop31
280
     0
102
RTVSPost2010PropOp31
 70
     1
102
RTVSPost2010Prop32
280
     0
102
RTVSPost2010PropOp32
 70
     1
102
RTVSPost2010Prop33
280
     0
102
RTVSPost2010PropOp33
 70
     1
102
RTVSPost2010Prop34
280
     0
102
RTVSPost2010PropOp34
 70
     1
102
RTVSPost2010Prop35
280
     0
102
RTVSPost2010PropOp35
 70
     1
102
RTVSPost2010Prop36
280
     0
102
RTVSPost2010PropOp36
 70
     1
102
RTVSPost2010Prop37
 90
       50
102
RTVSPost2010PropOp37
 70
     1
102
RTVSPost2010Prop38
140
0.0
102
RTVSPost2010PropOp38
 70
     1
102
RTVSPost2010Prop39
140
1.0
102
RTVSPost2010PropOp39
 70
     1
102
RTVSPost2010Prop40
 90
        0
102
RTVSPost2010PropOp40
 70
     1
102
RTVSPost2010Prop41ColorIndex
 90
       18
102
RTVSPost2010Prop41ColorRGB
 90
-16777216
102
RTVSPost2010PropOp41
 70
     1
102
RTVSPost2010Prop42
 90
       50
102
RTVSPost2010PropOp42
 70
     1
102
RTVSPost2010Prop43
 90
        3
102
RTVSPost2010PropOp43
 70
     1
102
RTVSPost2010Prop44ColorIndex
 90
        5
102
RTVSPost2010Prop44ColorRGB
 90
      255
102
RTVSPost2010PropOp44
 70
     1
102
RTVSPost2010Prop45
280
     0
102
RTVSPost2010PropOp45
 70
     1
102
RTVSPost2010Prop46
 90
       50
102
RTVSPost2010PropOp46
 70
     1
102
RTVSPost2010Prop47
 90
       50
102
RTVSPost2010PropOp47
 70
     1
102
RTVSPost2010Prop48
 90
       50
102
RTVSPost2010PropOp48
 70
     1
102
RTVSPost2010Prop49
280
     0
102
RTVSPost2010PropOp49
 70
     1
102
RTVSPost2010Prop50
 90
       50
102
RTVSPost2010PropOp50
 70
     1
102
RTVSPost2010Prop51ColorIndex
 90
      256
102
RTVSPost2010Prop51ColorRGB
 90
-16777216
102
RTVSPost2010PropOp51
 70
     0
102
RTVSPost2010Prop52
140
1.0
102
RTVSPost2010PropOp52
 70
     0
102
RTVSPost2010Prop53
 90
        2
102
RTVSPost2010PropOp53
 70
     1
102
RTVSPost2010Prop54
  1
strokes_ogs.tif
102
RTVSPost2010PropOp54
 70
     1
102
RTVSPost2010Prop55
280
     0
102
RTVSPost2010PropOp55
 70
     1
102
RTVSPost2010Prop56
140
1.0
102
RTVSPost2010PropOp56
 70
     1
102
RTVSPost2010Prop57
140
1.0
102
RTVSPost2010PropOp57
 70
     1
102
RTVSPropertyOp0
 70
     1
102
RTVSPropertyOp1
 70
     1
102
RTVSPropertyOp2
 70
     1
102
RTVSPropertyOp3
 70
     1
102
RTVSPropertyOp4
 70
     1
102
RTVSPropertyOp5
 70
     1
102
RTVSPropertyOp6
 70
     1
102
RTVSPropertyOp7
 70
     1
102
RTVSPropertyOp8
 70
     1
102
RTVSPropertyOp9
 70
     1
102
RTVSPropertyOp10
 70
     1
102
RTVSPropertyOp11
 70
     1
102
RTVSPropertyOp12
 70
     1
102
RTVSPropertyOp13
 70
     1
102
RTVSPropertyOp14
 70
     1
102
RTVSPropertyOp15
 70
     1
102
RTVSPropertyOp16
 70
     1
102
RTVSPropertyOp17
 70
     1
102
RTVSPropertyOp18
 70
     1
102
RTVSPropertyOp19
 70
     1
102
RTVSPropertyOp20
 70
     1
102
RTVSPropertyOp21
 70
     1
102
RTVSPropertyOp22
 70
     1
102
RTVSPropertyOp23
 70
     1
102
RTVSPropertyOp24
 70
     1
102
RTVSPropertyOp25
 70
     1
102
RTVSPropertyOp26
 70
     1
102
RTVSPropertyOp27
 70
     1
102
RTVSPropertyOp28
 70
     1
102
RTVSPropertyOp29
 70
     1
102
RTVSPropertyOp30
 70
     1
102
RTVSPropertyOp31
 70
     1
102
RTVSPropertyOp32
 70
     1
102
RTVSPropertyOp33
 70
     1
102
RTVSPropertyOp34
 70
     1
102
RTVSPropertyOp35
 70
     1
102
RTVSPropertyOp36
 70
     1
102
RTVSPropertyOp37
 70
     1
102
RTVSPropertyOp38
 70
     1
102
RTVSPropertyOp39
 70
     1
102
RTVSPropertyOp40
 70
     1
102
RTVSPropertyOp41
 70
     1
102
RTVSPropertyOp42
 70
     1
102
RTVSPropertyOp43
 70
     1
102
RTVSPropertyOp44
 70
     1
102
RTVSPropertyOp45
 70
     1
102
RTVSPropertyOp46
 70
     1
102
RTVSPropertyOp47
 70
     1
102
RTVSPropertyOp48
 70
     1
102
RTVSPropertyOp49
 70
     1
102
RTVSPropertyOp50
 70
     1
102
RTVSPropertyOp51
 70
     0
102
RTVSPropertyOp52
 70
     0
102
RTVSPropertyOp53
 70
     1
102
RTVSPropertyOp54
 70
     1
102
RTVSPropertyOp55
 70
     1
102
RTVSPropertyOp56
 70
     1
102
RTVSPropertyOp57
 70
     1
102
RTVSPropertyOp58
 70
     1
102
RTVSPropertyOp59
 70
     1
102
RTVSPropertyOp60
 70
     1
102
RTVSPropertyOp61
 70
     1
102
RTVSPropertyOp62
 70
     1
  0
XRECORD
  5
99AA
102
{ACAD_REACTORS
330
99A9
102
}
330
99A9
100
AcDbXrecord
280
     1
102
RTVSPost2010Prop28
280
     0
102
RTVSPost2010PropOp28
 70
     1
102
RTVSPost2010Prop29
280
     1
102
RTVSPost2010PropOp29
 70
     1
102
RTVSPost2010Prop30
280
     1
102
RTVSPost2010PropOp30
 70
     1
102
RTVSPost2010Prop31
280
     0
102
RTVSPost2010PropOp31
 70
     1
102
RTVSPost2010Prop32
280
     0
102
RTVSPost2010PropOp32
 70
     1
102
RTVSPost2010Prop33
280
     0
102
RTVSPost2010PropOp33
 70
     1
102
RTVSPost2010Prop34
280
     0
102
RTVSPost2010PropOp34
 70
     1
102
RTVSPost2010Prop35
280
     0
102
RTVSPost2010PropOp35
 70
     1
102
RTVSPost2010Prop36
280
     0
102
RTVSPost2010PropOp36
 70
     1
102
RTVSPost2010Prop37
 90
       50
102
RTVSPost2010PropOp37
 70
     1
102
RTVSPost2010Prop38
140
0.0
102
RTVSPost2010PropOp38
 70
     1
102
RTVSPost2010Prop39
140
1.0
102
RTVSPost2010PropOp39
 70
     1
102
RTVSPost2010Prop40
 90
        0
102
RTVSPost2010PropOp40
 70
     1
102
RTVSPost2010Prop41ColorIndex
 90
       18
102
RTVSPost2010Prop41ColorRGB
 90
-16777216
102
RTVSPost2010PropOp41
 70
     1
102
RTVSPost2010Prop42
 90
       50
102
RTVSPost2010PropOp42
 70
     1
102
RTVSPost2010Prop43
 90
        3
102
RTVSPost2010PropOp43
 70
     1
102
RTVSPost2010Prop44ColorIndex
 90
        5
102
RTVSPost2010Prop44ColorRGB
 90
      255
102
RTVSPost2010PropOp44
 70
     1
102
RTVSPost2010Prop45
280
     0
102
RTVSPost2010PropOp45
 70
     1
102
RTVSPost2010Prop46
 90
       50
102
RTVSPost2010PropOp46
 70
     1
102
RTVSPost2010Prop47
 90
       50
102
RTVSPost2010PropOp47
 70
     1
102
RTVSPost2010Prop48
 90
       50
102
RTVSPost2010PropOp48
 70
     1
102
RTVSPost2010Prop49
280
     0
102
RTVSPost2010PropOp49
 70
     1
102
RTVSPost2010Prop50
 90
       50
102
RTVSPost2010PropOp50
 70
     1
102
RTVSPost2010Prop51ColorIndex
 90
      256
102
RTVSPost2010Prop51ColorRGB
 90
-16777216
102
RTVSPost2010PropOp51
 70
     0
102
RTVSPost2010Prop52
140
1.0
102
RTVSPost2010PropOp52
 70
     0
102
RTVSPost2010Prop53
 90
        2
102
RTVSPost2010PropOp53
 70
     1
102
RTVSPost2010Prop54
  1
strokes_ogs.tif
102
RTVSPost2010PropOp54
 70
     1
102
RTVSPost2010Prop55
280
     0
102
RTVSPost2010PropOp55
 70
     1
102
RTVSPost2010Prop56
140
1.0
102
RTVSPost2010PropOp56
 70
     1
102
RTVSPost2010Prop57
140
1.0
102
RTVSPost2010PropOp57
 70
     1
102
RTVSPropertyOp0
 70
     1
102
RTVSPropertyOp1
 70
     1
102
RTVSPropertyOp2
 70
     1
102
RTVSPropertyOp3
 70
     1
102
RTVSPropertyOp4
 70
     1
102
RTVSPropertyOp5
 70
     1
102
RTVSPropertyOp6
 70
     1
102
RTVSPropertyOp7
 70
     1
102
RTVSPropertyOp8
 70
     1
102
RTVSPropertyOp9
 70
     1
102
RTVSPropertyOp10
 70
     1
102
RTVSPropertyOp11
 70
     1
102
RTVSPropertyOp12
 70
     1
102
RTVSPropertyOp13
 70
     1
102
RTVSPropertyOp14
 70
     1
102
RTVSPropertyOp15
 70
     1
102
RTVSPropertyOp16
 70
     1
102
RTVSPropertyOp17
 70
     1
102
RTVSPropertyOp18
 70
     1
102
RTVSPropertyOp19
 70
     1
102
RTVSPropertyOp20
 70
     1
102
RTVSPropertyOp21
 70
     1
102
RTVSPropertyOp22
 70
     1
102
RTVSPropertyOp23
 70
     1
102
RTVSPropertyOp24
 70
     1
102
RTVSPropertyOp25
 70
     1
102
RTVSPropertyOp26
 70
     1
102
RTVSPropertyOp27
 70
     1
102
RTVSPropertyOp28
 70
     1
102
RTVSPropertyOp29
 70
     1
102
RTVSPropertyOp30
 70
     1
102
RTVSPropertyOp31
 70
     1
102
RTVSPropertyOp32
 70
     1
102
RTVSPropertyOp33
 70
     1
102
RTVSPropertyOp34
 70
     1
102
RTVSPropertyOp35
 70
     1
102
RTVSPropertyOp36
 70
     1
102
RTVSPropertyOp37
 70
     1
102
RTVSPropertyOp38
 70
     1
102
RTVSPropertyOp39
 70
     1
102
RTVSPropertyOp40
 70
     1
102
RTVSPropertyOp41
 70
     1
102
RTVSPropertyOp42
 70
     1
102
RTVSPropertyOp43
 70
     1
102
RTVSPropertyOp44
 70
     1
102
RTVSPropertyOp45
 70
     1
102
RTVSPropertyOp46
 70
     1
102
RTVSPropertyOp47
 70
     1
102
RTVSPropertyOp48
 70
     1
102
RTVSPropertyOp49
 70
     1
102
RTVSPropertyOp50
 70
     1
102
RTVSPropertyOp51
 70
     0
102
RTVSPropertyOp52
 70
     0
102
RTVSPropertyOp53
 70
     1
102
RTVSPropertyOp54
 70
     1
102
RTVSPropertyOp55
 70
     1
102
RTVSPropertyOp56
 70
     1
102
RTVSPropertyOp57
 70
     1
102
RTVSPropertyOp58
 70
     1
102
RTVSPropertyOp59
 70
     1
102
RTVSPropertyOp60
 70
     1
102
RTVSPropertyOp61
 70
     1
102
RTVSPropertyOp62
 70
     1
  0
XRECORD
  5
99A4
102
{ACAD_REACTORS
330
99A3
102
}
330
99A3
100
AcDbXrecord
280
     1
102
RTVSPost2010Prop28
280
     0
102
RTVSPost2010PropOp28
 70
     1
102
RTVSPost2010Prop29
280
     1
102
RTVSPost2010PropOp29
 70
     1
102
RTVSPost2010Prop30
280
     1
102
RTVSPost2010PropOp30
 70
     1
102
RTVSPost2010Prop31
280
     0
102
RTVSPost2010PropOp31
 70
     1
102
RTVSPost2010Prop32
280
     0
102
RTVSPost2010PropOp32
 70
     1
102
RTVSPost2010Prop33
280
     0
102
RTVSPost2010PropOp33
 70
     1
102
RTVSPost2010Prop34
280
     0
102
RTVSPost2010PropOp34
 70
     1
102
RTVSPost2010Prop35
280
     0
102
RTVSPost2010PropOp35
 70
     1
102
RTVSPost2010Prop36
280
     0
102
RTVSPost2010PropOp36
 70
     1
102
RTVSPost2010Prop37
 90
       50
102
RTVSPost2010PropOp37
 70
     1
102
RTVSPost2010Prop38
140
0.0
102
RTVSPost2010PropOp38
 70
     1
102
RTVSPost2010Prop39
140
1.0
102
RTVSPost2010PropOp39
 70
     1
102
RTVSPost2010Prop40
 90
        0
102
RTVSPost2010PropOp40
 70
     1
102
RTVSPost2010Prop41ColorIndex
 90
       18
102
RTVSPost2010Prop41ColorRGB
 90
-16777216
102
RTVSPost2010PropOp41
 70
     1
102
RTVSPost2010Prop42
 90
       50
102
RTVSPost2010PropOp42
 70
     1
102
RTVSPost2010Prop43
 90
        3
102
RTVSPost2010PropOp43
 70
     1
102
RTVSPost2010Prop44ColorIndex
 90
        5
102
RTVSPost2010Prop44ColorRGB
 90
      255
102
RTVSPost2010PropOp44
 70
     1
102
RTVSPost2010Prop45
280
     0
102
RTVSPost2010PropOp45
 70
     1
102
RTVSPost2010Prop46
 90
       50
102
RTVSPost2010PropOp46
 70
     1
102
RTVSPost2010Prop47
 90
       50
102
RTVSPost2010PropOp47
 70
     1
102
RTVSPost2010Prop48
 90
       50
102
RTVSPost2010PropOp48
 70
     1
102
RTVSPost2010Prop49
280
     0
102
RTVSPost2010PropOp49
 70
     1
102
RTVSPost2010Prop50
 90
       50
102
RTVSPost2010PropOp50
 70
     1
102
RTVSPost2010Prop51ColorIndex
 90
      256
102
RTVSPost2010Prop51ColorRGB
 90
-16777216
102
RTVSPost2010PropOp51
 70
     0
102
RTVSPost2010Prop52
140
1.0
102
RTVSPost2010PropOp52
 70
     0
102
RTVSPost2010Prop53
 90
        2
102
RTVSPost2010PropOp53
 70
     1
102
RTVSPost2010Prop54
  1
strokes_ogs.tif
102
RTVSPost2010PropOp54
 70
     1
102
RTVSPost2010Prop55
280
     0
102
RTVSPost2010PropOp55
 70
     1
102
RTVSPost2010Prop56
140
1.0
102
RTVSPost2010PropOp56
 70
     1
102
RTVSPost2010Prop57
140
1.0
102
RTVSPost2010PropOp57
 70
     1
102
RTVSPropertyOp0
 70
     1
102
RTVSPropertyOp1
 70
     1
102
RTVSPropertyOp2
 70
     1
102
RTVSPropertyOp3
 70
     1
102
RTVSPropertyOp4
 70
     1
102
RTVSPropertyOp5
 70
     1
102
RTVSPropertyOp6
 70
     1
102
RTVSPropertyOp7
 70
     1
102
RTVSPropertyOp8
 70
     1
102
RTVSPropertyOp9
 70
     1
102
RTVSPropertyOp10
 70
     1
102
RTVSPropertyOp11
 70
     1
102
RTVSPropertyOp12
 70
     1
102
RTVSPropertyOp13
 70
     1
102
RTVSPropertyOp14
 70
     1
102
RTVSPropertyOp15
 70
     1
102
RTVSPropertyOp16
 70
     1
102
RTVSPropertyOp17
 70
     1
102
RTVSPropertyOp18
 70
     1
102
RTVSPropertyOp19
 70
     1
102
RTVSPropertyOp20
 70
     1
102
RTVSPropertyOp21
 70
     1
102
RTVSPropertyOp22
 70
     1
102
RTVSPropertyOp23
 70
     1
102
RTVSPropertyOp24
 70
     1
102
RTVSPropertyOp25
 70
     1
102
RTVSPropertyOp26
 70
     1
102
RTVSPropertyOp27
 70
     1
102
RTVSPropertyOp28
 70
     1
102
RTVSPropertyOp29
 70
     1
102
RTVSPropertyOp30
 70
     1
102
RTVSPropertyOp31
 70
     1
102
RTVSPropertyOp32
 70
     1
102
RTVSPropertyOp33
 70
     1
102
RTVSPropertyOp34
 70
     1
102
RTVSPropertyOp35
 70
     1
102
RTVSPropertyOp36
 70
     1
102
RTVSPropertyOp37
 70
     1
102
RTVSPropertyOp38
 70
     1
102
RTVSPropertyOp39
 70
     1
102
RTVSPropertyOp40
 70
     1
102
RTVSPropertyOp41
 70
     1
102
RTVSPropertyOp42
 70
     1
102
RTVSPropertyOp43
 70
     1
102
RTVSPropertyOp44
 70
     1
102
RTVSPropertyOp45
 70
     1
102
RTVSPropertyOp46
 70
     1
102
RTVSPropertyOp47
 70
     1
102
RTVSPropertyOp48
 70
     1
102
RTVSPropertyOp49
 70
     1
102
RTVSPropertyOp50
 70
     1
102
RTVSPropertyOp51
 70
     0
102
RTVSPropertyOp52
 70
     0
102
RTVSPropertyOp53
 70
     1
102
RTVSPropertyOp54
 70
     1
102
RTVSPropertyOp55
 70
     1
102
RTVSPropertyOp56
 70
     1
102
RTVSPropertyOp57
 70
     1
102
RTVSPropertyOp58
 70
     1
102
RTVSPropertyOp59
 70
     1
102
RTVSPropertyOp60
 70
     1
102
RTVSPropertyOp61
 70
     1
102
RTVSPropertyOp62
 70
     1
  0
XRECORD
  5
99A6
102
{ACAD_REACTORS
330
99A5
102
}
330
99A5
100
AcDbXrecord
280
     1
102
RTVSPost2010Prop28
280
     0
102
RTVSPost2010PropOp28
 70
     1
102
RTVSPost2010Prop29
280
     1
102
RTVSPost2010PropOp29
 70
     1
102
RTVSPost2010Prop30
280
     1
102
RTVSPost2010PropOp30
 70
     1
102
RTVSPost2010Prop31
280
     0
102
RTVSPost2010PropOp31
 70
     1
102
RTVSPost2010Prop32
280
     0
102
RTVSPost2010PropOp32
 70
     1
102
RTVSPost2010Prop33
280
     0
102
RTVSPost2010PropOp33
 70
     1
102
RTVSPost2010Prop34
280
     0
102
RTVSPost2010PropOp34
 70
     1
102
RTVSPost2010Prop35
280
     0
102
RTVSPost2010PropOp35
 70
     1
102
RTVSPost2010Prop36
280
     0
102
RTVSPost2010PropOp36
 70
     1
102
RTVSPost2010Prop37
 90
       50
102
RTVSPost2010PropOp37
 70
     1
102
RTVSPost2010Prop38
140
0.0
102
RTVSPost2010PropOp38
 70
     1
102
RTVSPost2010Prop39
140
1.0
102
RTVSPost2010PropOp39
 70
     1
102
RTVSPost2010Prop40
 90
        0
102
RTVSPost2010PropOp40
 70
     1
102
RTVSPost2010Prop41ColorIndex
 90
       18
102
RTVSPost2010Prop41ColorRGB
 90
-16777216
102
RTVSPost2010PropOp41
 70
     1
102
RTVSPost2010Prop42
 90
       50
102
RTVSPost2010PropOp42
 70
     1
102
RTVSPost2010Prop43
 90
        3
102
RTVSPost2010PropOp43
 70
     1
102
RTVSPost2010Prop44ColorIndex
 90
        5
102
RTVSPost2010Prop44ColorRGB
 90
      255
102
RTVSPost2010PropOp44
 70
     1
102
RTVSPost2010Prop45
280
     0
102
RTVSPost2010PropOp45
 70
     1
102
RTVSPost2010Prop46
 90
       50
102
RTVSPost2010PropOp46
 70
     1
102
RTVSPost2010Prop47
 90
       50
102
RTVSPost2010PropOp47
 70
     1
102
RTVSPost2010Prop48
 90
       50
102
RTVSPost2010PropOp48
 70
     1
102
RTVSPost2010Prop49
280
     0
102
RTVSPost2010PropOp49
 70
     1
102
RTVSPost2010Prop50
 90
       50
102
RTVSPost2010PropOp50
 70
     1
102
RTVSPost2010Prop51ColorIndex
 90
      256
102
RTVSPost2010Prop51ColorRGB
 90
-16777216
102
RTVSPost2010PropOp51
 70
     0
102
RTVSPost2010Prop52
140
1.0
102
RTVSPost2010PropOp52
 70
     0
102
RTVSPost2010Prop53
 90
        2
102
RTVSPost2010PropOp53
 70
     1
102
RTVSPost2010Prop54
  1
strokes_ogs.tif
102
RTVSPost2010PropOp54
 70
     1
102
RTVSPost2010Prop55
280
     0
102
RTVSPost2010PropOp55
 70
     1
102
RTVSPost2010Prop56
140
1.0
102
RTVSPost2010PropOp56
 70
     1
102
RTVSPost2010Prop57
140
1.0
102
RTVSPost2010PropOp57
 70
     1
102
RTVSPropertyOp0
 70
     1
102
RTVSPropertyOp1
 70
     1
102
RTVSPropertyOp2
 70
     1
102
RTVSPropertyOp3
 70
     1
102
RTVSPropertyOp4
 70
     1
102
RTVSPropertyOp5
 70
     1
102
RTVSPropertyOp6
 70
     1
102
RTVSPropertyOp7
 70
     1
102
RTVSPropertyOp8
 70
     1
102
RTVSPropertyOp9
 70
     1
102
RTVSPropertyOp10
 70
     1
102
RTVSPropertyOp11
 70
     1
102
RTVSPropertyOp12
 70
     1
102
RTVSPropertyOp13
 70
     1
102
RTVSPropertyOp14
 70
     1
102
RTVSPropertyOp15
 70
     1
102
RTVSPropertyOp16
 70
     1
102
RTVSPropertyOp17
 70
     1
102
RTVSPropertyOp18
 70
     1
102
RTVSPropertyOp19
 70
     1
102
RTVSPropertyOp20
 70
     1
102
RTVSPropertyOp21
 70
     1
102
RTVSPropertyOp22
 70
     1
102
RTVSPropertyOp23
 70
     1
102
RTVSPropertyOp24
 70
     1
102
RTVSPropertyOp25
 70
     1
102
RTVSPropertyOp26
 70
     1
102
RTVSPropertyOp27
 70
     1
102
RTVSPropertyOp28
 70
     1
102
RTVSPropertyOp29
 70
     1
102
RTVSPropertyOp30
 70
     1
102
RTVSPropertyOp31
 70
     1
102
RTVSPropertyOp32
 70
     1
102
RTVSPropertyOp33
 70
     1
102
RTVSPropertyOp34
 70
     1
102
RTVSPropertyOp35
 70
     1
102
RTVSPropertyOp36
 70
     1
102
RTVSPropertyOp37
 70
     1
102
RTVSPropertyOp38
 70
     1
102
RTVSPropertyOp39
 70
     1
102
RTVSPropertyOp40
 70
     1
102
RTVSPropertyOp41
 70
     1
102
RTVSPropertyOp42
 70
     1
102
RTVSPropertyOp43
 70
     1
102
RTVSPropertyOp44
 70
     1
102
RTVSPropertyOp45
 70
     1
102
RTVSPropertyOp46
 70
     1
102
RTVSPropertyOp47
 70
     1
102
RTVSPropertyOp48
 70
     1
102
RTVSPropertyOp49
 70
     1
102
RTVSPropertyOp50
 70
     1
102
RTVSPropertyOp51
 70
     0
102
RTVSPropertyOp52
 70
     0
102
RTVSPropertyOp53
 70
     1
102
RTVSPropertyOp54
 70
     1
102
RTVSPropertyOp55
 70
     1
102
RTVSPropertyOp56
 70
     1
102
RTVSPropertyOp57
 70
     1
102
RTVSPropertyOp58
 70
     1
102
RTVSPropertyOp59
 70
     1
102
RTVSPropertyOp60
 70
     1
102
RTVSPropertyOp61
 70
     1
102
RTVSPropertyOp62
 70
     1
  0
XRECORD
  5
999C
102
{ACAD_REACTORS
330
999B
102
}
330
999B
100
AcDbXrecord
280
     1
102
RTVSPost2010Prop28
280
     0
102
RTVSPost2010PropOp28
 70
     1
102
RTVSPost2010Prop29
280
     1
102
RTVSPost2010PropOp29
 70
     1
102
RTVSPost2010Prop30
280
     1
102
RTVSPost2010PropOp30
 70
     1
102
RTVSPost2010Prop31
280
     0
102
RTVSPost2010PropOp31
 70
     1
102
RTVSPost2010Prop32
280
     0
102
RTVSPost2010PropOp32
 70
     1
102
RTVSPost2010Prop33
280
     0
102
RTVSPost2010PropOp33
 70
     1
102
RTVSPost2010Prop34
280
     0
102
RTVSPost2010PropOp34
 70
     1
102
RTVSPost2010Prop35
280
     0
102
RTVSPost2010PropOp35
 70
     1
102
RTVSPost2010Prop36
280
     0
102
RTVSPost2010PropOp36
 70
     1
102
RTVSPost2010Prop37
 90
       50
102
RTVSPost2010PropOp37
 70
     1
102
RTVSPost2010Prop38
140
0.0
102
RTVSPost2010PropOp38
 70
     1
102
RTVSPost2010Prop39
140
1.0
102
RTVSPost2010PropOp39
 70
     1
102
RTVSPost2010Prop40
 90
        0
102
RTVSPost2010PropOp40
 70
     1
102
RTVSPost2010Prop41ColorIndex
 90
       18
102
RTVSPost2010Prop41ColorRGB
 90
-16777216
102
RTVSPost2010PropOp41
 70
     1
102
RTVSPost2010Prop42
 90
       50
102
RTVSPost2010PropOp42
 70
     1
102
RTVSPost2010Prop43
 90
        3
102
RTVSPost2010PropOp43
 70
     1
102
RTVSPost2010Prop44ColorIndex
 90
        5
102
RTVSPost2010Prop44ColorRGB
 90
      255
102
RTVSPost2010PropOp44
 70
     1
102
RTVSPost2010Prop45
280
     0
102
RTVSPost2010PropOp45
 70
     1
102
RTVSPost2010Prop46
 90
       50
102
RTVSPost2010PropOp46
 70
     1
102
RTVSPost2010Prop47
 90
       50
102
RTVSPost2010PropOp47
 70
     1
102
RTVSPost2010Prop48
 90
       50
102
RTVSPost2010PropOp48
 70
     1
102
RTVSPost2010Prop49
280
     0
102
RTVSPost2010PropOp49
 70
     1
102
RTVSPost2010Prop50
 90
       50
102
RTVSPost2010PropOp50
 70
     1
102
RTVSPost2010Prop51ColorIndex
 90
      256
102
RTVSPost2010Prop51ColorRGB
 90
-16777216
102
RTVSPost2010PropOp51
 70
     0
102
RTVSPost2010Prop52
140
1.0
102
RTVSPost2010PropOp52
 70
     0
102
RTVSPost2010Prop53
 90
        2
102
RTVSPost2010PropOp53
 70
     1
102
RTVSPost2010Prop54
  1
strokes_ogs.tif
102
RTVSPost2010PropOp54
 70
     1
102
RTVSPost2010Prop55
280
     0
102
RTVSPost2010PropOp55
 70
     1
102
RTVSPost2010Prop56
140
1.0
102
RTVSPost2010PropOp56
 70
     1
102
RTVSPost2010Prop57
140
1.0
102
RTVSPost2010PropOp57
 70
     1
102
RTVSPropertyOp0
 70
     1
102
RTVSPropertyOp1
 70
     1
102
RTVSPropertyOp2
 70
     1
102
RTVSPropertyOp3
 70
     1
102
RTVSPropertyOp4
 70
     1
102
RTVSPropertyOp5
 70
     1
102
RTVSPropertyOp6
 70
     1
102
RTVSPropertyOp7
 70
     1
102
RTVSPropertyOp8
 70
     1
102
RTVSPropertyOp9
 70
     1
102
RTVSPropertyOp10
 70
     1
102
RTVSPropertyOp11
 70
     1
102
RTVSPropertyOp12
 70
     1
102
RTVSPropertyOp13
 70
     1
102
RTVSPropertyOp14
 70
     1
102
RTVSPropertyOp15
 70
     1
102
RTVSPropertyOp16
 70
     1
102
RTVSPropertyOp17
 70
     1
102
RTVSPropertyOp18
 70
     1
102
RTVSPropertyOp19
 70
     1
102
RTVSPropertyOp20
 70
     1
102
RTVSPropertyOp21
 70
     1
102
RTVSPropertyOp22
 70
     1
102
RTVSPropertyOp23
 70
     1
102
RTVSPropertyOp24
 70
     1
102
RTVSPropertyOp25
 70
     1
102
RTVSPropertyOp26
 70
     1
102
RTVSPropertyOp27
 70
     1
102
RTVSPropertyOp28
 70
     1
102
RTVSPropertyOp29
 70
     1
102
RTVSPropertyOp30
 70
     1
102
RTVSPropertyOp31
 70
     1
102
RTVSPropertyOp32
 70
     1
102
RTVSPropertyOp33
 70
     1
102
RTVSPropertyOp34
 70
     1
102
RTVSPropertyOp35
 70
     1
102
RTVSPropertyOp36
 70
     1
102
RTVSPropertyOp37
 70
     1
102
RTVSPropertyOp38
 70
     1
102
RTVSPropertyOp39
 70
     1
102
RTVSPropertyOp40
 70
     1
102
RTVSPropertyOp41
 70
     1
102
RTVSPropertyOp42
 70
     1
102
RTVSPropertyOp43
 70
     1
102
RTVSPropertyOp44
 70
     1
102
RTVSPropertyOp45
 70
     1
102
RTVSPropertyOp46
 70
     1
102
RTVSPropertyOp47
 70
     1
102
RTVSPropertyOp48
 70
     1
102
RTVSPropertyOp49
 70
     1
102
RTVSPropertyOp50
 70
     1
102
RTVSPropertyOp51
 70
     0
102
RTVSPropertyOp52
 70
     0
102
RTVSPropertyOp53
 70
     1
102
RTVSPropertyOp54
 70
     1
102
RTVSPropertyOp55
 70
     1
102
RTVSPropertyOp56
 70
     1
102
RTVSPropertyOp57
 70
     1
102
RTVSPropertyOp58
 70
     1
102
RTVSPropertyOp59
 70
     1
102
RTVSPropertyOp60
 70
     1
102
RTVSPropertyOp61
 70
     1
102
RTVSPropertyOp62
 70
     1
  0
XRECORD
  5
9990
102
{ACAD_REACTORS
330
998F
102
}
330
998F
100
AcDbXrecord
280
     1
102
RTVSPost2010Prop28
280
     0
102
RTVSPost2010PropOp28
 70
     1
102
RTVSPost2010Prop29
280
     1
102
RTVSPost2010PropOp29
 70
     1
102
RTVSPost2010Prop30
280
     1
102
RTVSPost2010PropOp30
 70
     1
102
RTVSPost2010Prop31
280
     0
102
RTVSPost2010PropOp31
 70
     1
102
RTVSPost2010Prop32
280
     0
102
RTVSPost2010PropOp32
 70
     1
102
RTVSPost2010Prop33
280
     0
102
RTVSPost2010PropOp33
 70
     1
102
RTVSPost2010Prop34
280
     0
102
RTVSPost2010PropOp34
 70
     1
102
RTVSPost2010Prop35
280
     0
102
RTVSPost2010PropOp35
 70
     1
102
RTVSPost2010Prop36
280
     0
102
RTVSPost2010PropOp36
 70
     1
102
RTVSPost2010Prop37
 90
       50
102
RTVSPost2010PropOp37
 70
     1
102
RTVSPost2010Prop38
140
0.0
102
RTVSPost2010PropOp38
 70
     1
102
RTVSPost2010Prop39
140
1.0
102
RTVSPost2010PropOp39
 70
     1
102
RTVSPost2010Prop40
 90
        0
102
RTVSPost2010PropOp40
 70
     1
102
RTVSPost2010Prop41ColorIndex
 90
       18
102
RTVSPost2010Prop41ColorRGB
 90
-16777216
102
RTVSPost2010PropOp41
 70
     1
102
RTVSPost2010Prop42
 90
       50
102
RTVSPost2010PropOp42
 70
     1
102
RTVSPost2010Prop43
 90
        3
102
RTVSPost2010PropOp43
 70
     1
102
RTVSPost2010Prop44ColorIndex
 90
        5
102
RTVSPost2010Prop44ColorRGB
 90
      255
102
RTVSPost2010PropOp44
 70
     1
102
RTVSPost2010Prop45
280
     0
102
RTVSPost2010PropOp45
 70
     1
102
RTVSPost2010Prop46
 90
       50
102
RTVSPost2010PropOp46
 70
     1
102
RTVSPost2010Prop47
 90
       50
102
RTVSPost2010PropOp47
 70
     1
102
RTVSPost2010Prop48
 90
       50
102
RTVSPost2010PropOp48
 70
     1
102
RTVSPost2010Prop49
280
     0
102
RTVSPost2010PropOp49
 70
     1
102
RTVSPost2010Prop50
 90
       50
102
RTVSPost2010PropOp50
 70
     1
102
RTVSPost2010Prop51ColorIndex
 90
      256
102
RTVSPost2010Prop51ColorRGB
 90
-16777216
102
RTVSPost2010PropOp51
 70
     0
102
RTVSPost2010Prop52
140
1.0
102
RTVSPost2010PropOp52
 70
     0
102
RTVSPost2010Prop53
 90
        2
102
RTVSPost2010PropOp53
 70
     1
102
RTVSPost2010Prop54
  1
strokes_ogs.tif
102
RTVSPost2010PropOp54
 70
     1
102
RTVSPost2010Prop55
280
     0
102
RTVSPost2010PropOp55
 70
     1
102
RTVSPost2010Prop56
140
1.0
102
RTVSPost2010PropOp56
 70
     1
102
RTVSPost2010Prop57
140
1.0
102
RTVSPost2010PropOp57
 70
     1
102
RTVSPropertyOp0
 70
     1
102
RTVSPropertyOp1
 70
     1
102
RTVSPropertyOp2
 70
     1
102
RTVSPropertyOp3
 70
     1
102
RTVSPropertyOp4
 70
     1
102
RTVSPropertyOp5
 70
     1
102
RTVSPropertyOp6
 70
     1
102
RTVSPropertyOp7
 70
     1
102
RTVSPropertyOp8
 70
     1
102
RTVSPropertyOp9
 70
     1
102
RTVSPropertyOp10
 70
     1
102
RTVSPropertyOp11
 70
     1
102
RTVSPropertyOp12
 70
     1
102
RTVSPropertyOp13
 70
     1
102
RTVSPropertyOp14
 70
     1
102
RTVSPropertyOp15
 70
     1
102
RTVSPropertyOp16
 70
     1
102
RTVSPropertyOp17
 70
     1
102
RTVSPropertyOp18
 70
     1
102
RTVSPropertyOp19
 70
     1
102
RTVSPropertyOp20
 70
     1
102
RTVSPropertyOp21
 70
     1
102
RTVSPropertyOp22
 70
     1
102
RTVSPropertyOp23
 70
     1
102
RTVSPropertyOp24
 70
     1
102
RTVSPropertyOp25
 70
     1
102
RTVSPropertyOp26
 70
     1
102
RTVSPropertyOp27
 70
     1
102
RTVSPropertyOp28
 70
     1
102
RTVSPropertyOp29
 70
     1
102
RTVSPropertyOp30
 70
     1
102
RTVSPropertyOp31
 70
     1
102
RTVSPropertyOp32
 70
     1
102
RTVSPropertyOp33
 70
     1
102
RTVSPropertyOp34
 70
     1
102
RTVSPropertyOp35
 70
     1
102
RTVSPropertyOp36
 70
     1
102
RTVSPropertyOp37
 70
     1
102
RTVSPropertyOp38
 70
     1
102
RTVSPropertyOp39
 70
     1
102
RTVSPropertyOp40
 70
     1
102
RTVSPropertyOp41
 70
     1
102
RTVSPropertyOp42
 70
     1
102
RTVSPropertyOp43
 70
     1
102
RTVSPropertyOp44
 70
     1
102
RTVSPropertyOp45
 70
     1
102
RTVSPropertyOp46
 70
     1
102
RTVSPropertyOp47
 70
     1
102
RTVSPropertyOp48
 70
     1
102
RTVSPropertyOp49
 70
     1
102
RTVSPropertyOp50
 70
     1
102
RTVSPropertyOp51
 70
     0
102
RTVSPropertyOp52
 70
     0
102
RTVSPropertyOp53
 70
     1
102
RTVSPropertyOp54
 70
     1
102
RTVSPropertyOp55
 70
     1
102
RTVSPropertyOp56
 70
     1
102
RTVSPropertyOp57
 70
     1
102
RTVSPropertyOp58
 70
     1
102
RTVSPropertyOp59
 70
     1
102
RTVSPropertyOp60
 70
     1
102
RTVSPropertyOp61
 70
     1
102
RTVSPropertyOp62
 70
     1
  0
XRECORD
  5
99A8
102
{ACAD_REACTORS
330
99A7
102
}
330
99A7
100
AcDbXrecord
280
     1
102
RTVSPost2010Prop28
280
     0
102
RTVSPost2010PropOp28
 70
     1
102
RTVSPost2010Prop29
280
     1
102
RTVSPost2010PropOp29
 70
     1
102
RTVSPost2010Prop30
280
     1
102
RTVSPost2010PropOp30
 70
     1
102
RTVSPost2010Prop31
280
     0
102
RTVSPost2010PropOp31
 70
     1
102
RTVSPost2010Prop32
280
     0
102
RTVSPost2010PropOp32
 70
     1
102
RTVSPost2010Prop33
280
     0
102
RTVSPost2010PropOp33
 70
     1
102
RTVSPost2010Prop34
280
     0
102
RTVSPost2010PropOp34
 70
     1
102
RTVSPost2010Prop35
280
     0
102
RTVSPost2010PropOp35
 70
     1
102
RTVSPost2010Prop36
280
     0
102
RTVSPost2010PropOp36
 70
     1
102
RTVSPost2010Prop37
 90
       50
102
RTVSPost2010PropOp37
 70
     1
102
RTVSPost2010Prop38
140
0.0
102
RTVSPost2010PropOp38
 70
     1
102
RTVSPost2010Prop39
140
1.0
102
RTVSPost2010PropOp39
 70
     1
102
RTVSPost2010Prop40
 90
        0
102
RTVSPost2010PropOp40
 70
     1
102
RTVSPost2010Prop41ColorIndex
 90
       18
102
RTVSPost2010Prop41ColorRGB
 90
-16777216
102
RTVSPost2010PropOp41
 70
     1
102
RTVSPost2010Prop42
 90
       50
102
RTVSPost2010PropOp42
 70
     1
102
RTVSPost2010Prop43
 90
        3
102
RTVSPost2010PropOp43
 70
     1
102
RTVSPost2010Prop44ColorIndex
 90
        5
102
RTVSPost2010Prop44ColorRGB
 90
      255
102
RTVSPost2010PropOp44
 70
     1
102
RTVSPost2010Prop45
280
     0
102
RTVSPost2010PropOp45
 70
     1
102
RTVSPost2010Prop46
 90
       50
102
RTVSPost2010PropOp46
 70
     1
102
RTVSPost2010Prop47
 90
       50
102
RTVSPost2010PropOp47
 70
     1
102
RTVSPost2010Prop48
 90
       50
102
RTVSPost2010PropOp48
 70
     1
102
RTVSPost2010Prop49
280
     0
102
RTVSPost2010PropOp49
 70
     1
102
RTVSPost2010Prop50
 90
       50
102
RTVSPost2010PropOp50
 70
     1
102
RTVSPost2010Prop51ColorIndex
 90
      256
102
RTVSPost2010Prop51ColorRGB
 90
-16777216
102
RTVSPost2010PropOp51
 70
     0
102
RTVSPost2010Prop52
140
1.0
102
RTVSPost2010PropOp52
 70
     0
102
RTVSPost2010Prop53
 90
        2
102
RTVSPost2010PropOp53
 70
     1
102
RTVSPost2010Prop54
  1
strokes_ogs.tif
102
RTVSPost2010PropOp54
 70
     1
102
RTVSPost2010Prop55
280
     0
102
RTVSPost2010PropOp55
 70
     1
102
RTVSPost2010Prop56
140
1.0
102
RTVSPost2010PropOp56
 70
     1
102
RTVSPost2010Prop57
140
1.0
102
RTVSPost2010PropOp57
 70
     1
102
RTVSPropertyOp0
 70
     1
102
RTVSPropertyOp1
 70
     1
102
RTVSPropertyOp2
 70
     1
102
RTVSPropertyOp3
 70
     1
102
RTVSPropertyOp4
 70
     1
102
RTVSPropertyOp5
 70
     1
102
RTVSPropertyOp6
 70
     1
102
RTVSPropertyOp7
 70
     1
102
RTVSPropertyOp8
 70
     1
102
RTVSPropertyOp9
 70
     1
102
RTVSPropertyOp10
 70
     1
102
RTVSPropertyOp11
 70
     1
102
RTVSPropertyOp12
 70
     1
102
RTVSPropertyOp13
 70
     1
102
RTVSPropertyOp14
 70
     1
102
RTVSPropertyOp15
 70
     1
102
RTVSPropertyOp16
 70
     1
102
RTVSPropertyOp17
 70
     1
102
RTVSPropertyOp18
 70
     1
102
RTVSPropertyOp19
 70
     1
102
RTVSPropertyOp20
 70
     1
102
RTVSPropertyOp21
 70
     1
102
RTVSPropertyOp22
 70
     1
102
RTVSPropertyOp23
 70
     1
102
RTVSPropertyOp24
 70
     1
102
RTVSPropertyOp25
 70
     1
102
RTVSPropertyOp26
 70
     1
102
RTVSPropertyOp27
 70
     1
102
RTVSPropertyOp28
 70
     1
102
RTVSPropertyOp29
 70
     1
102
RTVSPropertyOp30
 70
     1
102
RTVSPropertyOp31
 70
     1
102
RTVSPropertyOp32
 70
     1
102
RTVSPropertyOp33
 70
     1
102
RTVSPropertyOp34
 70
     1
102
RTVSPropertyOp35
 70
     1
102
RTVSPropertyOp36
 70
     1
102
RTVSPropertyOp37
 70
     1
102
RTVSPropertyOp38
 70
     1
102
RTVSPropertyOp39
 70
     1
102
RTVSPropertyOp40
 70
     1
102
RTVSPropertyOp41
 70
     1
102
RTVSPropertyOp42
 70
     1
102
RTVSPropertyOp43
 70
     1
102
RTVSPropertyOp44
 70
     1
102
RTVSPropertyOp45
 70
     1
102
RTVSPropertyOp46
 70
     1
102
RTVSPropertyOp47
 70
     1
102
RTVSPropertyOp48
 70
     1
102
RTVSPropertyOp49
 70
     1
102
RTVSPropertyOp50
 70
     1
102
RTVSPropertyOp51
 70
     0
102
RTVSPropertyOp52
 70
     0
102
RTVSPropertyOp53
 70
     1
102
RTVSPropertyOp54
 70
     1
102
RTVSPropertyOp55
 70
     1
102
RTVSPropertyOp56
 70
     1
102
RTVSPropertyOp57
 70
     1
102
RTVSPropertyOp58
 70
     1
102
RTVSPropertyOp59
 70
     1
102
RTVSPropertyOp60
 70
     1
102
RTVSPropertyOp61
 70
     1
102
RTVSPropertyOp62
 70
     1
  0
ENDSEC
  0
EOF
