  0
SECTION
  2
HEADER
  9
$ACADVER
  1
AC1018
  9
$ACADMAINTVER
 70
   104
  9
$DWGCODEPAGE
  3
ANSI_932
  9
$LASTSAVEDBY
  1
SERIZAH
  9
$INSBASE
 10
0.0
 20
0.0
 30
0.0
  9
$EXTMIN
 10
-1381.350094794551
 20
-1346.70222151175
 30
0.0
  9
$EXTMAX
 10
1398.635742343711
 20
667.3207499889705
 30
0.0
  9
$LIMMIN
 10
-1223.571898230231
 20
-1531.82223032627
  9
$LIMMAX
 10
1644.019269133059
 20
825.3757661995187
  9
$ORTHOMODE
 70
     0
  9
$REGENMODE
 70
     0
  9
$FILLMODE
 70
     1
  9
$QTEXTMODE
 70
     0
  9
$MIRRTEXT
 70
     0
  9
$LTSCALE
 40
30.0
  9
$ATTMODE
 70
     1
  9
$TEXTSIZE
 40
64.0
  9
$TRACEWID
 40
0.05
  9
$TEXTSTYLE
  7
STANDARD
  9
$CLAYER
  8
FIX
  9
$CELTYPE
  6
CONTINUOUS
  9
$CECOLOR
 62
   256
  9
$CELTSCALE
 40
1.0
  9
$DISPSILH
 70
     0
  9
$DIMSCALE
 40
1.0
  9
$DIMASZ
 40
10.0
  9
$DIMEXO
 40
20.0
  9
$DIMDLI
 40
200.0
  9
$DIMRND
 40
0.0
  9
$DIMDLE
 40
0.0
  9
$DIMEXE
 40
30.0
  9
$DIMTP
 40
0.0
  9
$DIMTM
 40
0.0
  9
$DIMTXT
 40
64.0
  9
$DIMCEN
 40
0.09
  9
$DIMTSZ
 40
0.0
  9
$DIMTOL
 70
     0
  9
$DIMLIM
 70
     0
  9
$DIMTIH
 70
     0
  9
$DIMTOH
 70
     0
  9
$DIMSE1
 70
     0
  9
$DIMSE2
 70
     0
  9
$DIMTAD
 70
     1
  9
$DIMZIN
 70
     8
  9
$DIMBLK
  1
ORIGIN
  9
$DIMASO
 70
     1
  9
$DIMSHO
 70
     0
  9
$DIMPOST
  1

  9
$DIMAPOST
  1

  9
$DIMALT
 70
     0
  9
$DIMALTD
 70
     2
  9
$DIMALTF
 40
25.4
  9
$DIMLFAC
 40
1.0
  9
$DIMTOFL
 70
     1
  9
$DIMTVP
 40
0.0
  9
$DIMTIX
 70
     1
  9
$DIMSOXD
 70
     0
  9
$DIMSAH
 70
     0
  9
$DIMBLK1
  1

  9
$DIMBLK2
  1

  9
$DIMSTYLE
  2
STANDARD
  9
$DIMCLRD
 70
     0
  9
$DIMCLRE
 70
     0
  9
$DIMCLRT
 70
     0
  9
$DIMTFAC
 40
1.0
  9
$DIMGAP
 40
20.0
  9
$DIMJUST
 70
     0
  9
$DIMSD1
 70
     0
  9
$DIMSD2
 70
     0
  9
$DIMTOLJ
 70
     1
  9
$DIMTZIN
 70
     0
  9
$DIMALTZ
 70
     0
  9
$DIMALTTZ
 70
     0
  9
$DIMUPT
 70
     0
  9
$DIMDEC
 70
     0
  9
$DIMTDEC
 70
     0
  9
$DIMALTU
 70
     2
  9
$DIMALTTD
 70
     2
  9
$DIMTXSTY
  7
STANDARD
  9
$DIMAUNIT
 70
     0
  9
$DIMADEC
 70
     0
  9
$DIMALTRND
 40
0.0
  9
$DIMAZIN
 70
     0
  9
$DIMDSEP
 70
    46
  9
$DIMATFIT
 70
     3
  9
$DIMFRAC
 70
     0
  9
$DIMLDRBLK
  1
ORIGIN
  9
$DIMLUNIT
 70
     2
  9
$DIMLWD
 70
    -2
  9
$DIMLWE
 70
    -2
  9
$DIMTMOVE
 70
     0
  9
$LUNITS
 70
     2
  9
$LUPREC
 70
     4
  9
$SKETCHINC
 40
0.1
  9
$FILLETRAD
 40
1.0
  9
$AUNITS
 70
     1
  9
$AUPREC
 70
     3
  9
$MENU
  1
ACAD
  9
$ELEVATION
 40
0.0
  9
$PELEVATION
 40
0.0
  9
$THICKNESS
 40
0.0
  9
$LIMCHECK
 70
     1
  9
$CHAMFERA
 40
0.0
  9
$CHAMFERB
 40
0.0
  9
$CHAMFERC
 40
0.0
  9
$CHAMFERD
 40
0.0
  9
$SKPOLY
 70
     0
  9
$TDCREATE
 40
2450322.443287037
  9
$TDUCREATE
 40
2450322.068298600
  9
$TDUPDATE
 40
2459012.436793982
  9
$TDUUPDATE
 40
2459012.061793982
  9
$TDINDWG
 40
0.5914985417
  9
$TDUSRTIMER
 40
0.5914985417
  9
$USRTIMER
 70
     1
  9
$ANGBASE
 50
0.0
  9
$ANGDIR
 70
     0
  9
$PDMODE
 70
     3
  9
$PDSIZE
 40
-2.0
  9
$PLINEWID
 40
0.0
  9
$SPLFRAME
 70
     0
  9
$SPLINETYPE
 70
     6
  9
$SPLINESEGS
 70
     8
  9
$HANDSEED
  5
58E7
  9
$SURFTAB1
 70
     6
  9
$SURFTAB2
 70
     6
  9
$SURFTYPE
 70
     6
  9
$SURFU
 70
     6
  9
$SURFV
 70
     6
  9
$UCSBASE
  2

  9
$UCSNAME
  2

  9
$UCSORG
 10
0.0
 20
0.0
 30
0.0
  9
$UCSXDIR
 10
1.0
 20
0.0
 30
0.0
  9
$UCSYDIR
 10
0.0
 20
1.0
 30
0.0
  9
$UCSORTHOREF
  2

  9
$UCSORTHOVIEW
 70
     0
  9
$UCSORGTOP
 10
0.0
 20
0.0
 30
0.0
  9
$UCSORGBOTTOM
 10
0.0
 20
0.0
 30
0.0
  9
$UCSORGLEFT
 10
0.0
 20
0.0
 30
0.0
  9
$UCSORGRIGHT
 10
0.0
 20
0.0
 30
0.0
  9
$UCSORGFRONT
 10
0.0
 20
0.0
 30
0.0
  9
$UCSORGBACK
 10
0.0
 20
0.0
 30
0.0
  9
$PUCSBASE
  2

  9
$PUCSNAME
  2

  9
$PUCSORG
 10
0.0
 20
0.0
 30
0.0
  9
$PUCSXDIR
 10
1.0
 20
0.0
 30
0.0
  9
$PUCSYDIR
 10
0.0
 20
1.0
 30
0.0
  9
$PUCSORTHOREF
  2

  9
$PUCSORTHOVIEW
 70
     0
  9
$PUCSORGTOP
 10
0.0
 20
0.0
 30
0.0
  9
$PUCSORGBOTTOM
 10
0.0
 20
0.0
 30
0.0
  9
$PUCSORGLEFT
 10
0.0
 20
0.0
 30
0.0
  9
$PUCSORGRIGHT
 10
0.0
 20
0.0
 30
0.0
  9
$PUCSORGFRONT
 10
0.0
 20
0.0
 30
0.0
  9
$PUCSORGBACK
 10
0.0
 20
0.0
 30
0.0
  9
$USERI1
 70
     0
  9
$USERI2
 70
     0
  9
$USERI3
 70
     0
  9
$USERI4
 70
     0
  9
$USERI5
 70
     0
  9
$USERR1
 40
20.0
  9
$USERR2
 40
0.0
  9
$USERR3
 40
0.0
  9
$USERR4
 40
0.0
  9
$USERR5
 40
0.0
  9
$WORLDVIEW
 70
     1
  9
$SHADEDGE
 70
     3
  9
$SHADEDIF
 70
    70
  9
$TILEMODE
 70
     1
  9
$MAXACTVP
 70
    64
  9
$PINSBASE
 10
0.0
 20
0.0
 30
0.0
  9
$PLIMCHECK
 70
     0
  9
$PEXTMIN
 10
0.0
 20
0.0
 30
0.0
  9
$PEXTMAX
 10
0.0
 20
0.0
 30
0.0
  9
$PLIMMIN
 10
0.0
 20
0.0
  9
$PLIMMAX
 10
0.0
 20
0.0
  9
$UNITMODE
 70
     0
  9
$VISRETAIN
 70
     1
  9
$PLINEGEN
 70
     0
  9
$PSLTSCALE
 70
     1
  9
$TREEDEPTH
 70
  3020
  9
$CMLSTYLE
  2
STANDARD
  9
$CMLJUST
 70
     0
  9
$CMLSCALE
 40
1.0
  9
$PROXYGRAPHICS
 70
     1
  9
$MEASUREMENT
 70
     0
  9
$CELWEIGHT
370
    -1
  9
$ENDCAPS
280
     0
  9
$JOINSTYLE
280
     0
  9
$LWDISPLAY
290
     1
  9
$INSUNITS
 70
     0
  9
$HYPERLINKBASE
  1

  9
$STYLESHEET
  1

  9
$XEDIT
290
     1
  9
$CEPSNTYPE
380
     0
  9
$PSTYLEMODE
290
     0
  9
$FINGERPRINTGUID
  2
{A6FF70D2-A361-4CC0-B5C4-66635CB0F7A7}
  9
$VERSIONGUID
  2
{28995B30-48FF-B441-9A76-56C243753452}
  9
$EXTNAMES
290
     1
  9
$PSVPSCALE
 40
0.0
  9
$OLESTARTUP
290
     0
  9
$SORTENTS
280
   127
  9
$INDEXCTL
280
     0
  9
$HIDETEXT
280
     0
  9
$XCLIPFRAME
290
     0
  9
$HALOGAP
280
     0
  9
$OBSCOLOR
 70
   257
  9
$OBSLTYPE
280
     0
  9
$INTERSECTIONDISPLAY
280
     0
  9
$INTERSECTIONCOLOR
 70
   257
  9
$DIMASSOC
280
     1
  9
$PROJECTNAME
  1

  0
ENDSEC
  0
SECTION
  2
CLASSES
  0
CLASS
  1
ACDBDICTIONARYWDFLT
  2
AcDbDictionaryWithDefault
  3
ObjectDBX Classes
 90
        0
 91
        1
280
     0
281
     0
  0
CLASS
  1
MATERIAL
  2
AcDbMaterial
  3
ObjectDBX Classes
 90
     1153
 91
        3
280
     0
281
     0
  0
CLASS
  1
VISUALSTYLE
  2
AcDbVisualStyle
  3
ObjectDBX Classes
 90
     4095
 91
       24
280
     0
281
     0
  0
CLASS
  1
TABLESTYLE
  2
AcDbTableStyle
  3
ObjectDBX Classes
 90
     4095
 91
        1
280
     0
281
     0
  0
CLASS
  1
SCALE
  2
AcDbScale
  3
ObjectDBX Classes
 90
     1153
 91
       17
280
     0
281
     0
  0
CLASS
  1
MLEADERSTYLE
  2
AcDbMLeaderStyle
  3
ACDB_MLEADERSTYLE_CLASS
 90
     4095
 91
        1
280
     0
281
     0
  0
CLASS
  1
ACDBSECTIONVIEWSTYLE
  2
AcDbSectionViewStyle
  3
ObjectDBX Classes
 90
     1025
 91
        1
280
     0
281
     0
  0
CLASS
  1
ACDBDETAILVIEWSTYLE
  2
AcDbDetailViewStyle
  3
ObjectDBX Classes
 90
     1025
 91
        1
280
     0
281
     0
  0
CLASS
  1
DICTIONARYVAR
  2
AcDbDictionaryVar
  3
ObjectDBX Classes
 90
        0
 91
       16
280
     0
281
     0
  0
CLASS
  1
CELLSTYLEMAP
  2
AcDbCellStyleMap
  3
ObjectDBX Classes
 90
     1152
 91
        2
280
     0
281
     0
  0
ENDSEC
  0
SECTION
  2
TABLES
  0
TABLE
  2
VPORT
  5
8
330
0
100
AcDbSymbolTable
 70
     1
1001
ACAD
1000
DbSaveVer
1071
      105
  0
VPORT
  5
54BC
330
8
100
AcDbSymbolTableRecord
100
AcDbViewportTableRecord
  2
*ACTIVE
 70
     0
 10
0.0
 20
0.0
 11
1.0
 21
1.0
 12
11.74415914852852
 22
-448.9256964185724
 13
0.0
 23
0.0
 14
400.0
 24
400.0
 15
400.0
 25
400.0
 16
0.0
 26
0.0
 36
1.0
 17
0.0
 27
0.0
 37
0.0
 40
2093.578454452677
 41
2.021739130434782
 42
50.0
 43
0.0
 44
0.0
 50
0.0
 51
0.0
 71
     0
 72
   500
 73
     1
 74
     0
 75
     0
 76
     0
 77
     0
 78
     1
281
     0
 65
     1
110
0.0
120
0.0
130
0.0
111
1.0
121
0.0
131
0.0
112
0.0
122
1.0
132
0.0
 79
     0
146
0.0
1001
ACAD_NAV_VCDISPLAY
1070
     3
  0
ENDTAB
  0
TABLE
  2
LTYPE
  5
5
330
0
100
AcDbSymbolTable
 70
     2
  0
LTYPE
  5
13
330
5
100
AcDbSymbolTableRecord
100
AcDbLinetypeTableRecord
  2
BYBLOCK
 70
     0
  3

 72
    65
 73
     0
 40
0.0
  0
LTYPE
  5
14
330
5
100
AcDbSymbolTableRecord
100
AcDbLinetypeTableRecord
  2
BYLAYER
 70
     0
  3

 72
    65
 73
     0
 40
0.0
  0
LTYPE
  5
15
330
5
100
AcDbSymbolTableRecord
100
AcDbLinetypeTableRecord
  2
CONTINUOUS
 70
     0
  3
実線
 72
    65
 73
     0
 40
0.0
  0
LTYPE
  5
22
330
5
100
AcDbSymbolTableRecord
100
AcDbLinetypeTableRecord
  2
DASHDOT
 70
     0
  3
____ _ ____ _ ____ _ ____ _ ____ _ ____ _ ____
 72
    65
 73
     4
 40
5.5
 49
4.0
 74
     0
 49
-0.6
 74
     0
 49
0.3
 74
     0
 49
-0.6
 74
     0
  0
ENDTAB
  0
TABLE
  2
LAYER
  5
2
102
{ACAD_XDICTIONARY
360
57DC
102
}
330
0
100
AcDbSymbolTable
 70
    10
  0
LAYER
  5
10
102
{ACAD_XDICTIONARY
360
554A
102
}
330
2
100
AcDbSymbolTableRecord
100
AcDbLayerTableRecord
  2
0
 70
     0
 62
     7
  6
CONTINUOUS
370
    -3
390
F
  0
LAYER
  5
28
102
{ACAD_XDICTIONARY
360
554C
102
}
330
2
100
AcDbSymbolTableRecord
100
AcDbLayerTableRecord
  2
OUTLINE
 70
     0
 62
     3
  6
CONTINUOUS
370
    -3
390
F
  0
LAYER
  5
29
102
{ACAD_XDICTIONARY
360
554E
102
}
330
2
100
AcDbSymbolTableRecord
100
AcDbLayerTableRecord
  2
DETAIL
 70
     0
 62
     5
  6
CONTINUOUS
370
    -3
390
F
  0
LAYER
  5
2A
102
{ACAD_XDICTIONARY
360
5550
102
}
330
2
100
AcDbSymbolTableRecord
100
AcDbLayerTableRecord
  2
BASIS
 70
     0
 62
     6
  6
CONTINUOUS
370
    -3
390
F
  0
LAYER
  5
2B
102
{ACAD_XDICTIONARY
360
5552
102
}
330
2
100
AcDbSymbolTableRecord
100
AcDbLayerTableRecord
  2
NOTE
 70
     0
 62
     4
  6
CONTINUOUS
370
    -3
390
F
  0
LAYER
  5
2C
330
2
100
AcDbSymbolTableRecord
100
AcDbLayerTableRecord
  2
DEFPOINTS
 70
     0
 62
     7
  6
CONTINUOUS
290
     0
370
    -3
390
F
  0
LAYER
  5
2D
102
{ACAD_XDICTIONARY
360
5554
102
}
330
2
100
AcDbSymbolTableRecord
100
AcDbLayerTableRecord
  2
SIZE
 70
     0
 62
    30
  6
CONTINUOUS
370
    -3
390
F
  0
LAYER
  5
2E
102
{ACAD_XDICTIONARY
360
5556
102
}
330
2
100
AcDbSymbolTableRecord
100
AcDbLayerTableRecord
  2
FIX
 70
     0
 62
    11
  6
CONTINUOUS
370
    -3
390
F
  0
LAYER
  5
2F
102
{ACAD_XDICTIONARY
360
5558
102
}
330
2
100
AcDbSymbolTableRecord
100
AcDbLayerTableRecord
  2
ETC
 70
     0
 62
    61
  6
CONTINUOUS
370
    -3
390
F
  0
LAYER
  5
30
102
{ACAD_XDICTIONARY
360
555A
102
}
330
2
100
AcDbSymbolTableRecord
100
AcDbLayerTableRecord
  2
ARRANGE
 70
     0
 62
     1
  6
CONTINUOUS
370
    -3
390
F
  0
ENDTAB
  0
TABLE
  2
STYLE
  5
3
330
0
100
AcDbSymbolTable
 70
     1
  0
STYLE
  5
11
330
3
100
AcDbSymbolTableRecord
100
AcDbTextStyleTableRecord
  2
STANDARD
 70
     0
 40
0.0
 41
0.8
 50
0.0
 71
     0
 42
64.0
  3
SIMPLEX.shx
  4
BIGFONT.shx
  0
ENDTAB
  0
TABLE
  2
VIEW
  5
6
330
0
100
AcDbSymbolTable
 70
     1
  0
VIEW
  5
33
330
6
100
AcDbSymbolTableRecord
100
AcDbViewTableRecord
  2
ALL
 70
     0
 40
4508.021
 10
0.0
 20
41.30990399999999
 41
6252.632
 11
0.0
 21
0.0
 31
1.0
 12
0.0
 22
0.0
 32
0.0
 42
50.0
 43
0.0
 44
0.0
 50
0.0
 71
     0
281
     0
 72
     0
  0
ENDTAB
  0
TABLE
  2
UCS
  5
7
330
0
100
AcDbSymbolTable
 70
     0
  0
ENDTAB
  0
TABLE
  2
APPID
  5
9
330
0
100
AcDbSymbolTable
 70
     7
  0
APPID
  5
12
330
9
100
AcDbSymbolTableRecord
100
AcDbRegAppTableRecord
  2
ACAD
 70
     0
  0
APPID
  5
5539
330
9
100
AcDbSymbolTableRecord
100
AcDbRegAppTableRecord
  2
ACAD_EXEMPT_FROM_CAD_STANDARDS
 70
     0
  0
APPID
  5
5548
330
9
100
AcDbSymbolTableRecord
100
AcDbRegAppTableRecord
  2
ACAD_DSTYLE_DIMJAG
 70
     0
  0
APPID
  5
5549
330
9
100
AcDbSymbolTableRecord
100
AcDbRegAppTableRecord
  2
ACAD_DSTYLE_DIMTALN
 70
     0
  0
APPID
  5
5565
330
9
100
AcDbSymbolTableRecord
100
AcDbRegAppTableRecord
  2
ACAD_NAV_VCDISPLAY
 70
     0
  0
APPID
  5
565A
330
9
100
AcDbSymbolTableRecord
100
AcDbRegAppTableRecord
  2
ACAD_MLEADERVER
 70
     0
  0
APPID
  5
5692
330
9
100
AcDbSymbolTableRecord
100
AcDbRegAppTableRecord
  2
AcadAnnoPO
 70
     0
  0
ENDTAB
  0
TABLE
  2
DIMSTYLE
  5
A
330
0
100
AcDbSymbolTable
 70
     1
100
AcDbDimStyleTable
 71
     0
  0
DIMSTYLE
105
11F
102
{ACAD_REACTORS
330
5587
330
5596
330
55A3
330
55C4
330
55F1
102
}
330
A
100
AcDbSymbolTableRecord
100
AcDbDimStyleTableRecord
  2
STANDARD
 70
     0
340
11
  0
ENDTAB
  0
TABLE
  2
BLOCK_RECORD
  5
1
330
0
100
AcDbSymbolTable
 70
     6
  0
BLOCK_RECORD
  5
1E
330
1
100
AcDbSymbolTableRecord
100
AcDbBlockTableRecord
  2
*MODEL_SPACE
340
5536
  0
BLOCK_RECORD
  5
1A
330
1
100
AcDbSymbolTableRecord
100
AcDbBlockTableRecord
  2
*PAPER_SPACE
340
5537
  0
BLOCK_RECORD
  5
125
330
1
100
AcDbSymbolTableRecord
100
AcDbBlockTableRecord
  2
_ORIGIN
340
0
102
{BLKREFS
331
566A
331
566B
331
559D
331
559E
331
55AA
331
55AB
331
57D3
331
57D4
331
56AC
331
56AD
102
}
  0
BLOCK_RECORD
  5
5588
330
1
100
AcDbSymbolTableRecord
100
AcDbBlockTableRecord
  2
*D1
340
0
  0
BLOCK_RECORD
  5
5597
330
1
100
AcDbSymbolTableRecord
100
AcDbBlockTableRecord
  2
*D2
340
0
  0
BLOCK_RECORD
  5
55A4
330
1
100
AcDbSymbolTableRecord
100
AcDbBlockTableRecord
  2
*D3
340
0
  0
BLOCK_RECORD
  5
55C5
330
1
100
AcDbSymbolTableRecord
100
AcDbBlockTableRecord
  2
*D4
340
0
  0
BLOCK_RECORD
  5
55F2
330
1
100
AcDbSymbolTableRecord
100
AcDbBlockTableRecord
  2
*D5
340
0
  0
ENDTAB
  0
ENDSEC
  0
SECTION
  2
BLOCKS
  0
BLOCK
  5
1F
330
1E
100
AcDbEntity
  8
0
100
AcDbBlockBegin
  2
*MODEL_SPACE
 70
     0
 10
0.0
 20
0.0
 30
0.0
  3
*MODEL_SPACE
  1

  0
ENDBLK
  5
20
330
1E
100
AcDbEntity
  8
0
100
AcDbBlockEnd
  0
BLOCK
  5
1B
330
1A
100
AcDbEntity
 67
     1
  8
0
100
AcDbBlockBegin
  2
*PAPER_SPACE
 70
     0
 10
0.0
 20
0.0
 30
0.0
  3
*PAPER_SPACE
  1

  0
ENDBLK
  5
1C
330
1A
100
AcDbEntity
 67
     1
  8
0
100
AcDbBlockEnd
  0
BLOCK
  5
128
330
125
100
AcDbEntity
  8
0
100
AcDbBlockBegin
  2
_ORIGIN
 70
     0
 10
0.0
 20
0.0
 30
0.0
  3
_ORIGIN
  1

  0
CIRCLE
  5
126
330
125
100
AcDbEntity
  8
0
  6
ByBlock
 62
     0
100
AcDbCircle
 10
0.0
 20
0.0
 30
0.0
 40
0.5
  0
LINE
  5
127
330
125
100
AcDbEntity
  8
0
  6
ByBlock
 62
     0
100
AcDbLine
 10
0.0
 20
0.0
 30
0.0
 11
-1.0
 21
0.0
 31
0.0
  0
ENDBLK
  5
129
330
125
100
AcDbEntity
  8
0
100
AcDbBlockEnd
  0
BLOCK
  5
5589
330
5588
100
AcDbEntity
  8
0
100
AcDbBlockBegin
  2
*D1
 70
     1
 10
0.0
 20
0.0
 30
0.0
  3
*D1
  1

  0
LINE
  5
5666
330
5588
100
AcDbEntity
  8
SIZE
  6
Continuous
 62
     0
440
 16777216
370
    -2
100
AcDbLine
 10
481.2999999999919
 20
-442.3708800000271
 30
0.0
 11
481.2999999999919
 21
128.9913738396481
 31
0.0
  0
LINE
  5
5667
330
5588
100
AcDbEntity
  8
SIZE
  6
Continuous
 62
     0
440
 16777216
370
    -2
100
AcDbLine
 10
395.2999999999993
 20
-183.0
 30
0.0
 11
395.2999999999993
 21
128.9913738396481
 31
0.0
  0
LINE
  5
5668
330
5588
100
AcDbEntity
  8
SIZE
  6
Continuous
 62
     0
440
 16777216
370
    -2
100
AcDbLine
 10
481.2999999999919
 20
98.99137383964808
 30
0.0
 11
618.0047619047535
 21
98.99137383964808
 31
0.0
  0
LINE
  5
5669
330
5588
100
AcDbEntity
  8
SIZE
  6
Continuous
 62
     0
440
 16777216
370
    -2
100
AcDbLine
 10
471.2999999999919
 20
98.99137383964808
 30
0.0
 11
405.2999999999993
 21
98.99137383964808
 31
0.0
  0
INSERT
  5
566A
330
5588
100
AcDbEntity
  8
SIZE
 62
     0
440
 16777216
370
    -2
100
AcDbBlockReference
  2
_ORIGIN
 10
481.2999999999919
 20
98.99137383964808
 30
0.0
 41
10.0
 42
10.0
 43
10.0
  0
INSERT
  5
566B
330
5588
100
AcDbEntity
  8
SIZE
 62
     0
440
 16777216
370
    -2
100
AcDbBlockReference
  2
_ORIGIN
 10
395.2999999999993
 20
98.99137383964808
 30
0.0
 41
10.0
 42
10.0
 43
10.0
 50
180.0
  0
MTEXT
  5
566C
330
5588
100
AcDbEntity
  8
SIZE
  6
Continuous
 62
     0
440
 16777216
100
AcDbMText
 10
556.5571428571344
 20
150.9913738396481
 30
0.0
 40
64.0
 41
0.0
 71
     5
 72
     1
  1
\A1;86
 73
     1
 44
1.0
  0
POINT
  5
566D
330
5588
100
AcDbEntity
  8
DEFPOINTS
 62
     0
440
 16777216
100
AcDbPoint
 10
481.2999999999919
 20
-462.3708800000271
 30
0.0
  0
POINT
  5
566E
330
5588
100
AcDbEntity
  8
DEFPOINTS
 62
     0
440
 16777216
100
AcDbPoint
 10
395.2999999999993
 20
-203.0
 30
0.0
  0
POINT
  5
566F
330
5588
100
AcDbEntity
  8
DEFPOINTS
 62
     0
440
 16777216
100
AcDbPoint
 10
395.2999999999993
 20
98.99137383964808
 30
0.0
  0
ENDBLK
  5
558A
330
5588
100
AcDbEntity
  8
0
100
AcDbBlockEnd
  0
BLOCK
  5
5598
330
5597
100
AcDbEntity
  8
0
100
AcDbBlockBegin
  2
*D2
 70
     1
 10
0.0
 20
0.0
 30
0.0
  3
*D2
  1

  0
LINE
  5
559A
330
5597
100
AcDbEntity
  8
SIZE
  6
Continuous
 62
     0
440
 16777216
370
    -2
100
AcDbLine
 10
481.2999999999919
 20
-442.3708800000273
 30
0.0
 11
481.2999999999919
 21
270.9402435302418
 31
0.0
  0
LINE
  5
559B
330
5597
100
AcDbEntity
  8
SIZE
  6
Continuous
 62
     0
440
 16777216
370
    -2
100
AcDbLine
 10
203.2999999999993
 20
0.0
 30
0.0
 11
203.2999999999993
 21
270.9402435302418
 31
0.0
  0
LINE
  5
559C
330
5597
100
AcDbEntity
  8
SIZE
  6
Continuous
 62
     0
440
 16777216
370
    -2
100
AcDbLine
 10
471.2999999999919
 20
240.9402435302418
 30
0.0
 11
213.2999999999993
 21
240.9402435302418
 31
0.0
  0
INSERT
  5
559D
330
5597
100
AcDbEntity
  8
SIZE
 62
     0
440
 16777216
370
    -2
100
AcDbBlockReference
  2
_ORIGIN
 10
481.2999999999919
 20
240.9402435302418
 30
0.0
 41
10.0
 42
10.0
 43
10.0
  0
INSERT
  5
559E
330
5597
100
AcDbEntity
  8
SIZE
 62
     0
440
 16777216
370
    -2
100
AcDbBlockReference
  2
_ORIGIN
 10
203.2999999999993
 20
240.9402435302418
 30
0.0
 41
10.0
 42
10.0
 43
10.0
 50
180.0
  0
MTEXT
  5
559F
330
5597
100
AcDbEntity
  8
SIZE
  6
Continuous
 62
     0
440
 16777216
100
AcDbMText
 10
342.2999999999956
 20
292.9402435302418
 30
0.0
 40
64.0
 41
0.0
 71
     5
 72
     1
  1
\A1;278
 73
     1
 44
1.0
  0
POINT
  5
55A0
330
5597
100
AcDbEntity
  8
DEFPOINTS
 62
     0
440
 16777216
100
AcDbPoint
 10
481.2999999999919
 20
-462.3708800000273
 30
0.0
  0
POINT
  5
55A1
330
5597
100
AcDbEntity
  8
DEFPOINTS
 62
     0
440
 16777216
100
AcDbPoint
 10
203.2999999999993
 20
-20.0
 30
0.0
  0
POINT
  5
55A2
330
5597
100
AcDbEntity
  8
DEFPOINTS
 62
     0
440
 16777216
100
AcDbPoint
 10
203.2999999999993
 20
240.9402435302418
 30
0.0
  0
ENDBLK
  5
5599
330
5597
100
AcDbEntity
  8
0
100
AcDbBlockEnd
  0
BLOCK
  5
55A5
330
55A4
100
AcDbEntity
  8
0
100
AcDbBlockBegin
  2
*D3
 70
     1
 10
0.0
 20
0.0
 30
0.0
  3
*D3
  1

  0
LINE
  5
55A7
330
55A4
100
AcDbEntity
  8
SIZE
  6
Continuous
 62
     0
440
 16777216
370
    -2
100
AcDbLine
 10
481.2999999999919
 20
-442.3708799999984
 30
0.0
 11
481.2999999999919
 21
384.6587476595905
 31
0.0
  0
LINE
  5
55A8
330
55A4
100
AcDbEntity
  8
SIZE
  6
Continuous
 62
     0
440
 16777216
370
    -2
100
AcDbLine
 10
197.2999999999993
 20
0.0
 30
0.0
 11
197.2999999999993
 21
384.6587476595905
 31
0.0
  0
LINE
  5
55A9
330
55A4
100
AcDbEntity
  8
SIZE
  6
Continuous
 62
     0
440
 16777216
370
    -2
100
AcDbLine
 10
471.2999999999919
 20
354.6587476595905
 30
0.0
 11
207.2999999999993
 21
354.6587476595905
 31
0.0
  0
INSERT
  5
55AA
330
55A4
100
AcDbEntity
  8
SIZE
 62
     0
440
 16777216
370
    -2
100
AcDbBlockReference
  2
_ORIGIN
 10
481.2999999999919
 20
354.6587476595905
 30
0.0
 41
10.0
 42
10.0
 43
10.0
  0
INSERT
  5
55AB
330
55A4
100
AcDbEntity
  8
SIZE
 62
     0
440
 16777216
370
    -2
100
AcDbBlockReference
  2
_ORIGIN
 10
197.2999999999993
 20
354.6587476595905
 30
0.0
 41
10.0
 42
10.0
 43
10.0
 50
180.0
  0
MTEXT
  5
55AC
330
55A4
100
AcDbEntity
  8
SIZE
  6
Continuous
 62
     0
440
 16777216
100
AcDbMText
 10
339.2999999999956
 20
406.6587476595905
 30
0.0
 40
64.0
 41
0.0
 71
     5
 72
     1
  1
\A1;284
 73
     1
 44
1.0
  0
POINT
  5
55AD
330
55A4
100
AcDbEntity
  8
DEFPOINTS
 62
     0
440
 16777216
100
AcDbPoint
 10
481.2999999999919
 20
-462.3708799999985
 30
0.0
  0
POINT
  5
55AE
330
55A4
100
AcDbEntity
  8
DEFPOINTS
 62
     0
440
 16777216
100
AcDbPoint
 10
197.2999999999993
 20
-20.0
 30
0.0
  0
POINT
  5
55AF
330
55A4
100
AcDbEntity
  8
DEFPOINTS
 62
     0
440
 16777216
100
AcDbPoint
 10
197.2999999999993
 20
354.6587476595905
 30
0.0
  0
ENDBLK
  5
55A6
330
55A4
100
AcDbEntity
  8
0
100
AcDbBlockEnd
  0
BLOCK
  5
55C6
330
55C5
100
AcDbEntity
  8
0
100
AcDbBlockBegin
  2
*D4
 70
     1
 10
0.0
 20
0.0
 30
0.0
  3
*D4
  1

  0
LINE
  5
57D0
330
55C5
100
AcDbEntity
  8
SIZE
  6
Continuous
 62
     0
440
 16777216
370
    -2
100
AcDbLine
 10
343.2999999999993
 20
-286.0
 30
0.0
 11
343.2999999999993
 21
-858.0101113281568
 31
0.0
  0
LINE
  5
57D1
330
55C5
100
AcDbEntity
  8
SIZE
  6
Continuous
 62
     0
440
 16777216
370
    -2
100
AcDbLine
 10
481.2999999999919
 20
-482.3708800000272
 30
0.0
 11
481.2999999999919
 21
-858.0101113281568
 31
0.0
  0
LINE
  5
57D2
330
55C5
100
AcDbEntity
  8
SIZE
  6
Continuous
 62
     0
440
 16777216
370
    -2
100
AcDbLine
 10
353.2999999999993
 20
-828.0101113281567
 30
0.0
 11
471.2999999999919
 21
-828.0101113281567
 31
0.0
  0
INSERT
  5
57D3
330
55C5
100
AcDbEntity
  8
SIZE
 62
     0
440
 16777216
370
    -2
100
AcDbBlockReference
  2
_ORIGIN
 10
343.2999999999993
 20
-828.0101113281567
 30
0.0
 41
10.0
 42
10.0
 43
10.0
 50
180.0
  0
INSERT
  5
57D4
330
55C5
100
AcDbEntity
  8
SIZE
 62
     0
440
 16777216
370
    -2
100
AcDbBlockReference
  2
_ORIGIN
 10
481.2999999999919
 20
-828.0101113281567
 30
0.0
 41
10.0
 42
10.0
 43
10.0
  0
MTEXT
  5
57D5
330
55C5
100
AcDbEntity
  8
SIZE
  6
Continuous
 62
     0
440
 16777216
100
AcDbMText
 10
259.4246546338018
 20
-775.3350941665766
 30
0.0
 40
64.0
 41
0.0
 71
     5
 72
     1
  1
\A1;138
 73
     1
 44
1.0
  0
POINT
  5
57D6
330
55C5
100
AcDbEntity
  8
DEFPOINTS
 62
     0
440
 16777216
100
AcDbPoint
 10
343.2999999999993
 20
-266.0
 30
0.0
  0
POINT
  5
57D7
330
55C5
100
AcDbEntity
  8
DEFPOINTS
 62
     0
440
 16777216
100
AcDbPoint
 10
481.2999999999919
 20
-462.3708800000271
 30
0.0
  0
POINT
  5
57D8
330
55C5
100
AcDbEntity
  8
DEFPOINTS
 62
     0
440
 16777216
100
AcDbPoint
 10
481.2999999999919
 20
-828.0101113281567
 30
0.0
  0
ENDBLK
  5
55C7
330
55C5
100
AcDbEntity
  8
0
100
AcDbBlockEnd
  0
BLOCK
  5
55F3
330
55F2
100
AcDbEntity
  8
0
100
AcDbBlockBegin
  2
*D5
 70
     1
 10
0.0
 20
0.0
 30
0.0
  3
*D5
  1

  0
LINE
  5
56A8
330
55F2
100
AcDbEntity
  8
SIZE
  6
Continuous
 62
     0
440
 16777216
370
    -2
100
AcDbLine
 10
-403.699999999997
 20
-285.3309101330882
 30
0.0
 11
-403.699999999997
 21
-522.7215443364275
 31
0.0
  0
LINE
  5
56A9
330
55F2
100
AcDbEntity
  8
SIZE
  6
Continuous
 62
     0
440
 16777216
370
    -2
100
AcDbLine
 10
-478.7000000000076
 20
-482.3708799999984
 30
0.0
 11
-478.7000000000076
 21
-522.7215443364275
 31
0.0
  0
LINE
  5
56AA
330
55F2
100
AcDbEntity
  8
SIZE
  6
Continuous
 62
     0
440
 16777216
370
    -2
100
AcDbLine
 10
-478.7000000000076
 20
-492.7215443364275
 30
0.0
 11
-648.6283072295659
 21
-492.7215443364275
 31
0.0
  0
LINE
  5
56AB
330
55F2
100
AcDbEntity
  8
SIZE
  6
Continuous
 62
     0
440
 16777216
370
    -2
100
AcDbLine
 10
-413.699999999997
 20
-492.7215443364275
 30
0.0
 11
-468.7000000000075
 21
-492.7215443364275
 31
0.0
  0
INSERT
  5
56AC
330
55F2
100
AcDbEntity
  8
SIZE
 62
     0
440
 16777216
370
    -2
100
AcDbBlockReference
  2
_ORIGIN
 10
-403.699999999997
 20
-492.7215443364275
 30
0.0
 41
10.0
 42
10.0
 43
10.0
  0
INSERT
  5
56AD
330
55F2
100
AcDbEntity
  8
SIZE
 62
     0
440
 16777216
370
    -2
100
AcDbBlockReference
  2
_ORIGIN
 10
-478.7000000000076
 20
-492.7215443364275
 30
0.0
 41
10.0
 42
10.0
 43
10.0
 50
180.0
  0
MTEXT
  5
56AE
330
55F2
100
AcDbEntity
  8
SIZE
  6
Continuous
 62
     0
440
 16777216
100
AcDbMText
 10
-587.1806881819471
 20
-440.7215443364274
 30
0.0
 40
64.0
 41
0.0
 71
     5
 72
     1
  1
\A1;75
 73
     1
 44
1.0
  0
POINT
  5
56AF
330
55F2
100
AcDbEntity
  8
DEFPOINTS
 62
     0
440
 16777216
100
AcDbPoint
 10
-403.699999999997
 20
-265.3309101330882
 30
0.0
  0
POINT
  5
56B0
330
55F2
100
AcDbEntity
  8
DEFPOINTS
 62
     0
440
 16777216
100
AcDbPoint
 10
-478.7000000000076
 20
-462.3708799999985
 30
0.0
  0
POINT
  5
56B1
330
55F2
100
AcDbEntity
  8
DEFPOINTS
 62
     0
440
 16777216
100
AcDbPoint
 10
-478.7000000000076
 20
-492.7215443364275
 30
0.0
  0
ENDBLK
  5
55F4
330
55F2
100
AcDbEntity
  8
0
100
AcDbBlockEnd
  0
ENDSEC
  0
SECTION
  2
ENTITIES
  0
ARC
  5
18AC
330
1E
100
AcDbEntity
  8
DETAIL
100
AcDbCircle
 10
469.0522899999996
 20
-74.12774000000354
 30
0.0
 40
3.0
100
AcDbArc
 50
180.0
 51
223.7617430000175
  0
ARC
  5
18AD
330
1E
100
AcDbEntity
  8
DETAIL
100
AcDbCircle
 10
462.5522900000032
 20
-80.35268999999971
 30
0.0
 40
6.0
100
AcDbArc
 50
270.0
 51
43.7617430000174
  0
LINE
  5
18AE
330
1E
100
AcDbEntity
  8
DETAIL
100
AcDbLine
 10
457.5522900000033
 20
-86.35269000000333
 30
0.0
 11
462.5522900000032
 21
-86.35269000000333
 31
0.0
  0
ARC
  5
18AF
330
1E
100
AcDbEntity
  8
DETAIL
100
AcDbCircle
 10
457.5522900000033
 20
-80.35268999999971
 30
0.0
 40
6.0
100
AcDbArc
 50
136.2382569999825
 51
270.0
  0
ARC
  5
18B0
330
1E
100
AcDbEntity
  8
DETAIL
100
AcDbCircle
 10
451.0522900000068
 20
-74.12774000000354
 30
0.0
 40
3.0
100
AcDbArc
 50
316.2382569999825
 51
0.0
  0
LINE
  5
18B1
330
1E
100
AcDbEntity
  8
DETAIL
100
AcDbLine
 10
454.0522899999992
 20
-74.12774000000354
 30
0.0
 11
454.0522899999992
 21
-61.50137000000539
 31
0.0
  0
ARC
  5
18B2
330
1E
100
AcDbEntity
  8
DETAIL
100
AcDbCircle
 10
449.0522899999993
 20
-61.50137000000539
 30
0.0
 40
5.0
100
AcDbArc
 50
0.0
 51
25.87684699997967
  0
LINE
  5
18B3
330
1E
100
AcDbEntity
  8
DETAIL
100
AcDbLine
 10
445.6732000000011
 20
-45.35268999999971
 30
0.0
 11
442.5522900000031
 21
-45.35268999999971
 31
0.0
  0
LINE
  5
18B4
330
1E
100
AcDbEntity
  8
DETAIL
100
AcDbLine
 10
453.5509599999931
 20
-59.31918000000222
 30
0.0
 11
448.3724000000074
 21
-47.04337000000123
 31
0.0
  0
ARC
  5
18B5
330
1E
100
AcDbEntity
  8
DETAIL
100
AcDbCircle
 10
445.6732000000011
 20
-48.35269000000153
 30
0.0
 40
3.0
100
AcDbArc
 50
25.87684699997944
 51
90.0
  0
LINE
  5
18B6
330
1E
100
AcDbEntity
  8
DETAIL
100
AcDbLine
 10
475.9522900000046
 20
-58.75269000000114
 30
0.0
 11
466.0522900000067
 21
-58.75269000000114
 31
0.0
  0
LINE
  5
18B7
330
1E
100
AcDbEntity
  8
DETAIL
100
AcDbLine
 10
466.0522900000067
 20
-74.12774000000354
 30
0.0
 11
466.0522900000067
 21
-58.75269000000114
 31
0.0
  0
LINE
  5
18B8
330
1E
100
AcDbEntity
  8
DETAIL
100
AcDbLine
 10
479.1522900000018
 20
-61.95268999999824
 30
0.0
 11
475.9522900000046
 21
-61.95268999999824
 31
0.0
  0
LINE
  5
18B9
330
1E
100
AcDbEntity
  8
DETAIL
100
AcDbLine
 10
475.9522900000046
 20
-58.75269000000114
 30
0.0
 11
475.9522900000046
 21
-61.95268999999824
 31
0.0
  0
LINE
  5
18BA
330
1E
100
AcDbEntity
  8
DETAIL
100
AcDbLine
 10
470.9522900000046
 20
-140.3526899999997
 30
0.0
 11
472.5522900000029
 21
-140.3526899999997
 31
0.0
  0
LINE
  5
18BB
330
1E
100
AcDbEntity
  8
DETAIL
100
AcDbLine
 10
470.9522900000046
 20
-140.3526899999997
 30
0.0
 11
470.9522900000046
 21
-137.0499500000005
 31
0.0
  0
ARC
  5
18BC
330
1E
100
AcDbEntity
  8
DETAIL
100
AcDbCircle
 10
475.9522900000046
 20
-137.0499500000005
 30
0.0
 40
5.0
100
AcDbArc
 50
120.0000000000104
 51
180.0
  0
LINE
  5
18BD
330
1E
100
AcDbEntity
  8
DETAIL
100
AcDbLine
 10
473.4522900000047
 20
-132.719820000002
 30
0.0
 11
477.5522900000033
 21
-130.3526899999997
 31
0.0
  0
LINE
  5
18BE
330
1E
100
AcDbEntity
  8
DETAIL
100
AcDbLine
 10
477.5522900000033
 20
-130.3526899999997
 30
0.0
 11
479.1522900000018
 21
-130.3526899999997
 31
0.0
  0
LINE
  5
18BF
330
1E
100
AcDbEntity
  8
DETAIL
100
AcDbLine
 10
479.1522900000018
 20
-61.95268999999824
 30
0.0
 11
479.1522900000018
 21
-130.3526899999997
 31
0.0
  0
ARC
  5
18C0
330
1E
100
AcDbEntity
  8
DETAIL
100
AcDbCircle
 10
464.0522899999996
 20
-326.1261900000044
 30
0.0
 40
10.0
100
AcDbArc
 50
120.0000000000101
 51
180.0
  0
LINE
  5
18C1
330
1E
100
AcDbEntity
  8
DETAIL
100
AcDbLine
 10
459.0522899999996
 20
-317.4659299999984
 30
0.0
 11
470.9522900000046
 21
-310.5954699999983
 31
0.0
  0
LINE
  5
18C2
330
1E
100
AcDbEntity
  8
DETAIL
100
AcDbLine
 10
472.5522900000029
 20
-310.5954699999983
 30
0.0
 11
472.5522900000029
 21
-140.3526899999997
 31
0.0
  0
LINE
  5
18C3
330
1E
100
AcDbEntity
  8
DETAIL
100
AcDbLine
 10
470.9522900000046
 20
-310.5954699999983
 30
0.0
 11
472.5522900000029
 21
-310.5954699999983
 31
0.0
  0
LINE
  5
18C4
330
1E
100
AcDbEntity
  8
DETAIL
100
AcDbLine
 10
457.5522900000033
 20
-406.3526900000033
 30
0.0
 11
462.5522900000032
 21
-406.3526900000033
 31
0.0
  0
ARC
  5
18C5
330
1E
100
AcDbEntity
  8
DETAIL
100
AcDbCircle
 10
457.5522900000033
 20
-400.3526899999997
 30
0.0
 40
6.0
100
AcDbArc
 50
136.2382569999825
 51
270.0
  0
LINE
  5
18C6
330
1E
100
AcDbEntity
  8
DETAIL
100
AcDbLine
 10
454.0522899999992
 20
-394.1277400000035
 30
0.0
 11
454.0522899999992
 21
-326.1261900000044
 31
0.0
  0
ARC
  5
18C7
330
1E
100
AcDbEntity
  8
DETAIL
100
AcDbCircle
 10
451.0522900000068
 20
-394.1277400000035
 30
0.0
 40
3.0
100
AcDbArc
 50
316.2382569999829
 51
0.0
  0
LINE
  5
18C8
330
1E
100
AcDbEntity
  8
DETAIL
100
AcDbLine
 10
479.1522900000018
 20
-381.9526899999981
 30
0.0
 11
475.9522900000046
 21
-381.9526899999981
 31
0.0
  0
LINE
  5
18C9
330
1E
100
AcDbEntity
  8
DETAIL
100
AcDbLine
 10
475.9522900000046
 20
-378.7526900000012
 30
0.0
 11
466.0522900000067
 21
-378.7526900000012
 31
0.0
  0
LINE
  5
18CA
330
1E
100
AcDbEntity
  8
DETAIL
100
AcDbLine
 10
475.9522900000046
 20
-381.9526899999981
 30
0.0
 11
475.9522900000046
 21
-378.7526900000012
 31
0.0
  0
LINE
  5
18CB
330
1E
100
AcDbEntity
  8
DETAIL
100
AcDbLine
 10
466.0522900000067
 20
-394.1277400000035
 30
0.0
 11
466.0522900000067
 21
-378.7526900000012
 31
0.0
  0
ARC
  5
18CC
330
1E
100
AcDbEntity
  8
DETAIL
100
AcDbCircle
 10
469.0522899999996
 20
-394.1277400000035
 30
0.0
 40
3.0
100
AcDbArc
 50
180.0
 51
223.7617430000171
  0
ARC
  5
18CD
330
1E
100
AcDbEntity
  8
DETAIL
100
AcDbCircle
 10
462.5522900000032
 20
-400.3526899999997
 30
0.0
 40
6.0
100
AcDbArc
 50
270.0
 51
43.76174300001752
  0
LINE
  5
18CE
330
1E
100
AcDbEntity
  8
DETAIL
100
AcDbLine
 10
442.5522900000031
 20
-471.3526900000031
 30
0.0
 11
442.5522900000031
 21
-45.35268999999971
 31
0.0
  0
LINE
  5
18CF
330
1E
100
AcDbEntity
  8
DETAIL
100
AcDbLine
 10
442.5522900000031
 20
-471.3526900000031
 30
0.0
 11
449.8727999999935
 21
-471.3526900000031
 31
0.0
  0
ARC
  5
18D0
330
1E
100
AcDbEntity
  8
DETAIL
100
AcDbCircle
 10
449.8727999999935
 20
-461.3526900000032
 30
0.0
 40
10.0
100
AcDbArc
 50
270.0
 51
300.0000000000101
  0
LINE
  5
18D1
330
1E
100
AcDbEntity
  8
DETAIL
100
AcDbLine
 10
454.8727999999933
 20
-470.0129399999966
 30
0.0
 11
477.5522900000033
 21
-456.9189300000015
 31
0.0
  0
LINE
  5
18D2
330
1E
100
AcDbEntity
  8
DETAIL
100
AcDbLine
 10
479.1522900000018
 20
-456.9189300000015
 30
0.0
 11
477.5522900000033
 21
-456.9189300000015
 31
0.0
  0
LINE
  5
18D3
330
1E
100
AcDbEntity
  8
DETAIL
100
AcDbLine
 10
479.1522900000018
 20
-456.9189300000015
 30
0.0
 11
479.1522900000018
 21
-381.9526899999981
 31
0.0
  0
LINE
  5
18D4
330
1E
100
AcDbEntity
  8
DETAIL
100
AcDbLine
 10
-476.1000000000056
 20
-456.5662400000019
 30
0.0
 11
-476.1000000000056
 21
-381.5999999999985
 31
0.0
  0
LINE
  5
18D5
330
1E
100
AcDbEntity
  8
DETAIL
100
AcDbLine
 10
-476.1000000000056
 20
-456.5662400000019
 30
0.0
 11
-474.5000000000071
 21
-456.5662400000019
 31
0.0
  0
LINE
  5
18D6
330
1E
100
AcDbEntity
  8
DETAIL
100
AcDbLine
 10
-451.8205099999977
 20
-469.6602499999971
 30
0.0
 11
-474.5000000000071
 21
-456.5662400000019
 31
0.0
  0
ARC
  5
18D7
330
1E
100
AcDbEntity
  8
DETAIL
100
AcDbCircle
 10
-446.8205099999977
 20
-461.0000000000036
 30
0.0
 40
10.0
100
AcDbArc
 50
239.9999999999894
 51
270.0
  0
LINE
  5
18D8
330
1E
100
AcDbEntity
  8
DETAIL
100
AcDbLine
 10
-439.5000000000071
 20
-471.0000000000036
 30
0.0
 11
-446.8205099999977
 21
-471.0000000000036
 31
0.0
  0
LINE
  5
18D9
330
1E
100
AcDbEntity
  8
DETAIL
100
AcDbLine
 10
-439.5000000000071
 20
-471.0000000000036
 30
0.0
 11
-439.5000000000071
 21
-45.0
 31
0.0
  0
ARC
  5
18DA
330
1E
100
AcDbEntity
  8
DETAIL
100
AcDbCircle
 10
-459.5000000000071
 20
-400.0
 30
0.0
 40
6.0
100
AcDbArc
 50
136.2382569999825
 51
270.0
  0
ARC
  5
18DB
330
1E
100
AcDbEntity
  8
DETAIL
100
AcDbCircle
 10
-466.0000000000036
 20
-393.7750500000039
 30
0.0
 40
3.0
100
AcDbArc
 50
316.2382569999829
 51
0.0
  0
LINE
  5
18DC
330
1E
100
AcDbEntity
  8
DETAIL
100
AcDbLine
 10
-462.9999999999926
 20
-393.7750500000039
 30
0.0
 11
-462.9999999999926
 21
-378.4000000000014
 31
0.0
  0
LINE
  5
18DD
330
1E
100
AcDbEntity
  8
DETAIL
100
AcDbLine
 10
-472.8999999999903
 20
-381.5999999999985
 30
0.0
 11
-472.8999999999903
 21
-378.4000000000014
 31
0.0
  0
LINE
  5
18DE
330
1E
100
AcDbEntity
  8
DETAIL
100
AcDbLine
 10
-472.8999999999903
 20
-378.4000000000014
 30
0.0
 11
-462.9999999999926
 21
-378.4000000000014
 31
0.0
  0
LINE
  5
18DF
330
1E
100
AcDbEntity
  8
DETAIL
100
AcDbLine
 10
-476.1000000000056
 20
-381.5999999999985
 30
0.0
 11
-472.8999999999903
 21
-381.5999999999985
 31
0.0
  0
ARC
  5
18E0
330
1E
100
AcDbEntity
  8
DETAIL
100
AcDbCircle
 10
-447.9999999999926
 20
-393.7750500000039
 30
0.0
 40
3.0
100
AcDbArc
 50
180.0
 51
223.7617430000171
  0
LINE
  5
18E1
330
1E
100
AcDbEntity
  8
DETAIL
100
AcDbLine
 10
-451.0000000000035
 20
-393.7750500000039
 30
0.0
 11
-451.0000000000035
 21
-325.7735000000047
 31
0.0
  0
ARC
  5
18E2
330
1E
100
AcDbEntity
  8
DETAIL
100
AcDbCircle
 10
-454.500000000007
 20
-400.0
 30
0.0
 40
6.0
100
AcDbArc
 50
270.0
 51
43.76174300001752
  0
LINE
  5
18E3
330
1E
100
AcDbEntity
  8
DETAIL
100
AcDbLine
 10
-454.500000000007
 20
-406.0000000000036
 30
0.0
 11
-459.5000000000071
 21
-406.0000000000036
 31
0.0
  0
LINE
  5
18E4
330
1E
100
AcDbEntity
  8
DETAIL
100
AcDbLine
 10
-467.8999999999905
 20
-310.2427799999986
 30
0.0
 11
-469.5000000000071
 21
-310.2427799999986
 31
0.0
  0
LINE
  5
18E5
330
1E
100
AcDbEntity
  8
DETAIL
100
AcDbLine
 10
-469.5000000000071
 20
-310.2427799999986
 30
0.0
 11
-469.5000000000071
 21
-140.0
 31
0.0
  0
LINE
  5
18E6
330
1E
100
AcDbEntity
  8
DETAIL
100
AcDbLine
 10
-456.0000000000033
 20
-317.1132500000021
 30
0.0
 11
-467.8999999999905
 21
-310.2427799999986
 31
0.0
  0
ARC
  5
18E7
330
1E
100
AcDbEntity
  8
DETAIL
100
AcDbCircle
 10
-461.0000000000036
 20
-325.7735000000047
 30
0.0
 40
10.0
100
AcDbArc
 50
0.0
 51
59.99999999998991
  0
LINE
  5
18E8
330
1E
100
AcDbEntity
  8
DETAIL
100
AcDbLine
 10
-476.1000000000056
 20
-61.59999999999854
 30
0.0
 11
-476.1000000000056
 21
-130.0
 31
0.0
  0
LINE
  5
18E9
330
1E
100
AcDbEntity
  8
DETAIL
100
AcDbLine
 10
-474.5000000000071
 20
-130.0
 30
0.0
 11
-476.1000000000056
 21
-130.0
 31
0.0
  0
LINE
  5
18EA
330
1E
100
AcDbEntity
  8
DETAIL
100
AcDbLine
 10
-470.3999999999903
 20
-132.3671300000023
 30
0.0
 11
-474.5000000000071
 21
-130.0
 31
0.0
  0
ARC
  5
18EB
330
1E
100
AcDbEntity
  8
DETAIL
100
AcDbCircle
 10
-472.8999999999903
 20
-136.6972600000008
 30
0.0
 40
5.0
100
AcDbArc
 50
0.0
 51
59.99999999998946
  0
LINE
  5
18EC
330
1E
100
AcDbEntity
  8
DETAIL
100
AcDbLine
 10
-467.8999999999905
 20
-140.0
 30
0.0
 11
-467.8999999999905
 21
-136.6972600000008
 31
0.0
  0
LINE
  5
18ED
330
1E
100
AcDbEntity
  8
DETAIL
100
AcDbLine
 10
-467.8999999999905
 20
-140.0
 30
0.0
 11
-469.5000000000071
 21
-140.0
 31
0.0
  0
LINE
  5
18EE
330
1E
100
AcDbEntity
  8
DETAIL
100
AcDbLine
 10
-472.8999999999903
 20
-58.40000000000145
 30
0.0
 11
-472.8999999999903
 21
-61.59999999999854
 31
0.0
  0
LINE
  5
18EF
330
1E
100
AcDbEntity
  8
DETAIL
100
AcDbLine
 10
-476.1000000000056
 20
-61.59999999999854
 30
0.0
 11
-472.8999999999903
 21
-61.59999999999854
 31
0.0
  0
LINE
  5
18F0
330
1E
100
AcDbEntity
  8
DETAIL
100
AcDbLine
 10
-462.9999999999926
 20
-73.77505000000383
 30
0.0
 11
-462.9999999999926
 21
-58.40000000000145
 31
0.0
  0
LINE
  5
18F1
330
1E
100
AcDbEntity
  8
DETAIL
100
AcDbLine
 10
-472.8999999999903
 20
-58.40000000000145
 30
0.0
 11
-462.9999999999926
 21
-58.40000000000145
 31
0.0
  0
ARC
  5
18F2
330
1E
100
AcDbEntity
  8
DETAIL
100
AcDbCircle
 10
-442.620910000005
 20
-48.00000000000181
 30
0.0
 40
3.0
100
AcDbArc
 50
90.0
 51
154.1231530000206
  0
LINE
  5
18F3
330
1E
100
AcDbEntity
  8
DETAIL
100
AcDbLine
 10
-450.4986800000005
 20
-58.96649000000253
 30
0.0
 11
-445.3201099999932
 21
-46.69068000000152
 31
0.0
  0
LINE
  5
18F4
330
1E
100
AcDbEntity
  8
DETAIL
100
AcDbLine
 10
-442.620910000005
 20
-45.0
 30
0.0
 11
-439.5000000000071
 21
-45.0
 31
0.0
  0
ARC
  5
18F5
330
1E
100
AcDbEntity
  8
DETAIL
100
AcDbCircle
 10
-446.0000000000036
 20
-61.14868000000568
 30
0.0
 40
5.0
100
AcDbArc
 50
154.1231530000203
 51
180.0
  0
LINE
  5
18F6
330
1E
100
AcDbEntity
  8
DETAIL
100
AcDbLine
 10
-451.0000000000035
 20
-73.77505000000383
 30
0.0
 11
-451.0000000000035
 21
-61.14868000000568
 31
0.0
  0
ARC
  5
18F7
330
1E
100
AcDbEntity
  8
DETAIL
100
AcDbCircle
 10
-447.9999999999926
 20
-73.77505000000383
 30
0.0
 40
3.0
100
AcDbArc
 50
180.0
 51
223.7617430000175
  0
ARC
  5
18F8
330
1E
100
AcDbEntity
  8
DETAIL
100
AcDbCircle
 10
-454.500000000007
 20
-80.0
 30
0.0
 40
6.0
100
AcDbArc
 50
270.0
 51
43.7617430000174
  0
LINE
  5
18F9
330
1E
100
AcDbEntity
  8
DETAIL
100
AcDbLine
 10
-454.500000000007
 20
-86.00000000000362
 30
0.0
 11
-459.5000000000071
 21
-86.00000000000362
 31
0.0
  0
ARC
  5
18FA
330
1E
100
AcDbEntity
  8
DETAIL
100
AcDbCircle
 10
-459.5000000000071
 20
-80.0
 30
0.0
 40
6.0
100
AcDbArc
 50
136.2382569999825
 51
270.0
  0
ARC
  5
18FB
330
1E
100
AcDbEntity
  8
DETAIL
100
AcDbCircle
 10
-466.0000000000036
 20
-73.77505000000383
 30
0.0
 40
3.0
100
AcDbArc
 50
316.2382569999825
 51
0.0
  0
LINE
  5
1BF8
330
1E
100
AcDbEntity
  8
DETAIL
100
AcDbLine
 10
441.2999999999919
 20
-635.5000000000017
 30
0.0
 11
440.1000000000022
 21
-635.5000000000017
 31
0.0
  0
LINE
  5
1BF9
330
1E
100
AcDbEntity
  8
DETAIL
100
AcDbLine
 10
-438.700000000008
 20
-635.5000000000017
 30
0.0
 11
-437.4999999999998
 21
-635.5000000000017
 31
0.0
  0
LINE
  5
1BFA
330
1E
100
AcDbEntity
  8
DETAIL
100
AcDbLine
 10
-437.4999999999998
 20
-633.0000000000016
 30
0.0
 11
440.1000000000022
 21
-633.0000000000016
 31
0.0
  0
LINE
  5
1BFB
330
1E
100
AcDbEntity
  8
DETAIL
100
AcDbLine
 10
-438.700000000008
 20
-670.0
 30
0.0
 11
441.2999999999919
 21
-670.0
 31
0.0
  0
LINE
  5
1BFC
330
1E
100
AcDbEntity
  8
DETAIL
100
AcDbLine
 10
-438.700000000008
 20
-675.0
 30
0.0
 11
441.2999999999919
 21
-675.0
 31
0.0
  0
LINE
  5
1BFD
330
1E
100
AcDbEntity
  8
DETAIL
100
AcDbLine
 10
-437.4999999999998
 20
-680.0
 30
0.0
 11
440.1000000000038
 21
-680.0
 31
0.0
  0
LINE
  5
1BFE
330
1E
100
AcDbEntity
  8
DETAIL
100
AcDbLine
 10
441.2999999999919
 20
-635.5000000000017
 30
0.0
 11
441.2999999999919
 21
-678.6270500000044
 31
0.0
  0
ARC
  5
1BFF
330
1E
100
AcDbEntity
  8
DETAIL
100
AcDbCircle
 10
440.1000000000022
 20
-678.7999999999993
 30
0.0
 40
1.199999999999999
100
AcDbArc
 50
270.0
 51
0.0
  0
LINE
  5
1C00
330
1E
100
AcDbEntity
  8
DETAIL
100
AcDbLine
 10
440.1000000000022
 20
-625.0
 30
0.0
 11
440.1000000000022
 21
-635.5000000000017
 31
0.0
  0
ARC
  5
1C01
330
1E
100
AcDbEntity
  8
DETAIL
100
AcDbCircle
 10
437.1000000000092
 20
-625.0
 30
0.0
 40
3.0
100
AcDbArc
 50
0.0
 51
42.83342800000736
  0
ARC
  5
1C02
330
1E
100
AcDbEntity
  8
DETAIL
100
AcDbCircle
 10
-434.5000000000071
 20
-625.0
 30
0.0
 40
3.0
100
AcDbArc
 50
137.1665719999926
 51
180.0
  0
LINE
  5
1C03
330
1E
100
AcDbEntity
  8
DETAIL
100
AcDbLine
 10
-437.4999999999998
 20
-625.0
 30
0.0
 11
-437.4999999999998
 21
-635.5000000000017
 31
0.0
  0
LINE
  5
1C04
330
1E
100
AcDbEntity
  8
DETAIL
100
AcDbLine
 10
-438.700000000008
 20
-635.5000000000017
 30
0.0
 11
-438.7000000000006
 21
-678.7999999999993
 31
0.0
  0
ARC
  5
1C05
330
1E
100
AcDbEntity
  8
DETAIL
100
AcDbCircle
 10
-437.4999999999998
 20
-678.7999999999993
 30
0.0
 40
1.199999999999999
100
AcDbArc
 50
180.0
 51
270.0
  0
LINE
  5
1C87
330
1E
100
AcDbEntity
  8
DETAIL
100
AcDbLine
 10
452.8623200000036
 20
-473.3586999999988
 30
0.0
 11
453.6380500000086
 21
-473.3451599999987
 31
0.0
  0
LINE
  5
1C88
330
1E
100
AcDbEntity
  8
DETAIL
100
AcDbLine
 10
454.3099599999912
 20
-472.957240000005
 30
0.0
 11
479.8000000000064
 21
-458.2405543493496
 31
0.0
  0
ARC
  5
1C89
330
1E
100
AcDbEntity
  8
DETAIL
100
AcDbCircle
 10
452.8099599999948
 20
-470.359159999998
 30
0.0
 40
3.0
100
AcDbArc
 50
270.9999999999757
 51
300.0000000000102
  0
ARC
  5
1C8A
330
1E
100
AcDbEntity
  8
DETAIL
100
AcDbCircle
 10
478.3000000000046
 20
-455.6424781379972
 30
0.0
 40
3.0
100
AcDbArc
 50
300.0000000000102
 51
0.0
  0
LINE
  5
1C8B
330
1E
100
AcDbEntity
  8
DETAIL
100
AcDbLine
 10
453.6380500000086
 20
-473.3451599999987
 30
0.0
 11
454.3099599999912
 21
-472.957240000005
 31
0.0
  0
ARC
  5
1C8C
330
1E
100
AcDbEntity
  8
DETAIL
100
AcDbCircle
 10
461.8000000000029
 20
-323.9259800000036
 30
0.0
 40
3.0
100
AcDbArc
 50
120.0000000000102
 51
180.0
  0
ARC
  5
1C8D
330
1E
100
AcDbEntity
  8
DETAIL
100
AcDbCircle
 10
471.8000000000029
 20
-311.2242700000024
 30
0.0
 40
3.0
100
AcDbArc
 50
300.0000000000102
 51
0.0
  0
LINE
  5
1C8E
330
1E
100
AcDbEntity
  8
DETAIL
100
AcDbLine
 10
460.3000000000063
 20
-321.3278999999965
 30
0.0
 11
473.2999999999993
 21
-313.8223500000003
 31
0.0
  0
LINE
  5
1C8F
330
1E
100
AcDbEntity
  8
DETAIL
100
AcDbLine
 10
474.7999999999956
 20
-311.2242700000024
 30
0.0
 11
474.7999999999956
 21
-138.256110000002
 31
0.0
  0
ARC
  5
1C90
330
1E
100
AcDbEntity
  8
DETAIL
100
AcDbCircle
 10
478.3000000000028
 20
-131.0392287886406
 30
0.0
 40
3.0
100
AcDbArc
 50
300.0000000000099
 51
0.0
  0
ARC
  5
1C91
330
1E
100
AcDbEntity
  8
DETAIL
100
AcDbCircle
 10
477.800000000006
 20
-138.256110000002
 30
0.0
 40
3.0
100
AcDbArc
 50
120.00000000001
 51
180.0
  0
LINE
  5
1C92
330
1E
100
AcDbEntity
  8
DETAIL
100
AcDbLine
 10
476.2999999999919
 20
-135.6580300000041
 30
0.0
 11
479.8000000000047
 21
-133.6373049999929
 31
0.0
  0
ARC
  5
1C93
330
1E
100
AcDbEntity
  8
DETAIL
100
AcDbCircle
 10
445.3000000000065
 20
-476.491160000005
 30
0.0
 40
3.0
100
AcDbArc
 50
90.99999999997571
 51
180.0
  0
LINE
  5
1C94
330
1E
100
AcDbEntity
  8
DETAIL
100
AcDbLine
 10
445.2476399999977
 20
-473.4916200000043
 30
0.0
 11
452.8623200000036
 21
-473.3586999999988
 31
0.0
  0
ARC
  5
1C95
330
1E
100
AcDbEntity
  8
DETAIL
100
AcDbCircle
 10
482.2999999999956
 20
-1.715810000005149
 30
0.0
 40
1.0
100
AcDbArc
 50
0.0
 51
89.0000000000243
  0
LINE
  5
1C96
330
1E
100
AcDbEntity
  8
DETAIL
100
AcDbLine
 10
483.2999999999993
 20
-1.715810000005149
 30
0.0
 11
483.2999999999993
 21
-448.3708800000022
 31
0.0
  0
LINE
  5
1C97
330
1E
100
AcDbEntity
  8
DETAIL
100
AcDbLine
 10
474.8761600000031
 20
-479.0595899999971
 30
0.0
 11
479.7238300000025
 21
-466.9404099999974
 31
0.0
  0
ARC
  5
1C98
330
1E
100
AcDbEntity
  8
DETAIL
100
AcDbCircle
 10
433.2999999999993
 20
-448.3708800000022
 30
0.0
 40
50.0
100
AcDbArc
 50
338.1986149999935
 51
0.0
  0
ARC
  5
1C99
330
1E
100
AcDbEntity
  8
DETAIL
100
AcDbCircle
 10
521.299999999992
 20
-497.6291200000011
 30
0.0
 40
50.0
100
AcDbArc
 50
158.1986160000337
 51
180.0
  0
ARC
  5
1C9A
330
1E
100
AcDbEntity
  8
DETAIL
100
AcDbCircle
 10
468.2999999999993
 20
-625.5282499999974
 30
0.0
 40
3.0
100
AcDbArc
 50
270.9999999999757
 51
0.0
  0
LINE
  5
1C9B
330
1E
100
AcDbEntity
  8
DETAIL
100
AcDbLine
 10
441.2999999999919
 20
-628.9999999999962
 30
0.0
 11
468.3523500000045
 21
-628.5278000000015
 31
0.0
  0
LINE
  5
1C9C
330
1E
100
AcDbEntity
  8
DETAIL
100
AcDbLine
 10
442.2999999999956
 20
-628.9825399999972
 30
0.0
 11
442.2999999999956
 21
-476.491160000005
 31
0.0
  0
LINE
  5
1C9D
330
1E
100
AcDbEntity
  8
DETAIL
100
AcDbLine
 10
441.2999999999919
 20
0.0
 30
0.0
 11
482.3174499999914
 21
-0.7159599999977218
 31
0.0
  0
ARC
  5
1C9E
330
1E
100
AcDbEntity
  8
DETAIL
100
AcDbCircle
 10
468.2999999999993
 20
-666.5282500000012
 30
0.0
 40
3.0
100
AcDbArc
 50
270.9999999999757
 51
0.0
  0
ARC
  5
1C9F
330
1E
100
AcDbEntity
  8
DETAIL
100
AcDbCircle
 10
473.2999999999993
 20
-671.4409799999976
 30
0.0
 40
3.0
100
AcDbArc
 50
270.9999999999757
 51
0.0
  0
LINE
  5
1CA0
330
1E
100
AcDbEntity
  8
DETAIL
100
AcDbLine
 10
441.2999999999919
 20
-670.0
 30
0.0
 11
468.3523500000045
 21
-669.5278000000053
 31
0.0
  0
LINE
  5
1CA1
330
1E
100
AcDbEntity
  8
DETAIL
100
AcDbLine
 10
441.2999999999919
 20
-675.0
 30
0.0
 11
473.3523500000044
 21
-674.4405199999983
 31
0.0
  0
ARC
  5
1CA2
330
1E
100
AcDbEntity
  8
DETAIL
100
AcDbCircle
 10
476.2999999999919
 20
-674.2441899999994
 30
0.0
 40
5.0
100
AcDbArc
 50
270.9999999999764
 51
0.0
  0
LINE
  5
1CA3
330
1E
100
AcDbEntity
  8
DETAIL
100
AcDbLine
 10
441.2999999999919
 20
-679.8558800000046
 30
0.0
 11
476.3872599999922
 21
-679.2434299999967
 31
0.0
  0
LINE
  5
1CA4
330
1E
100
AcDbEntity
  8
DETAIL
100
AcDbLine
 10
481.2999999999919
 20
-674.2441899999994
 30
0.0
 11
481.2999999999919
 21
-462.3708799999985
 31
0.0
  0
LINE
  5
1CA5
330
1E
100
AcDbEntity
  8
DETAIL
100
AcDbLine
 10
476.2999999999919
 20
-671.4409799999976
 30
0.0
 11
476.2999999999919
 21
-475.5000000000018
 31
0.0
  0
LINE
  5
1CA6
330
1E
100
AcDbEntity
  8
DETAIL
100
AcDbLine
 10
471.2999999999919
 20
-666.5282500000012
 30
0.0
 11
471.2999999999919
 21
-497.6291200000011
 31
0.0
  0
LINE
  5
1CA7
330
1E
100
AcDbEntity
  8
DETAIL
100
AcDbLine
 10
441.2999999999919
 20
-679.8558800000046
 30
0.0
 11
441.2999999999919
 21
-628.9999999999962
 31
0.0
  0
ARC
  5
1CA9
330
1E
100
AcDbEntity
  8
DETAIL
100
AcDbCircle
 10
478.3000000000065
 20
-47.94555000000399
 30
0.0
 40
3.0
100
AcDbArc
 50
0.0
 51
86.99999999999441
  0
LINE
  5
1CAB
330
1E
100
AcDbEntity
  8
DETAIL
100
AcDbLine
 10
458.7999999999919
 20
-361.1512000000038
 30
0.0
 11
458.7999999999919
 21
-323.9259800000036
 31
0.0
  0
ARC
  5
1CAC
330
1E
100
AcDbEntity
  8
DETAIL
100
AcDbCircle
 10
478.3000000000065
 20
-368.0241613461457
 30
0.0
 40
3.0
100
AcDbArc
 50
0.0
 51
86.99999999999443
  0
ARC
  5
1CAD
330
1E
100
AcDbEntity
  8
DETAIL
100
AcDbCircle
 10
461.8000000000029
 20
-361.1512000000038
 30
0.0
 40
3.0
100
AcDbArc
 50
180.0
 51
266.9999999999934
  0
LINE
  5
1CAE
330
1E
100
AcDbEntity
  8
DETAIL
100
AcDbLine
 10
478.4570078687356
 20
-365.0282727418816
 30
0.0
 11
461.6429900000001
 21
-364.1470800000023
 31
0.0
  0
LINE
  5
1CAF
330
1E
100
AcDbEntity
  8
DETAIL
100
AcDbLine
 10
455.5586700000094
 20
-43.8020099999994
 30
0.0
 11
478.4570078687356
 21
-44.94966139573988
 31
0.0
  0
ARC
  5
1CB0
330
1E
100
AcDbEntity
  8
DETAIL
100
AcDbCircle
 10
455.7156700000086
 20
-40.80613000000083
 30
0.0
 40
3.0
100
AcDbArc
 50
202.8725040000185
 51
266.9999999999934
  0
LINE
  5
1CB1
330
1E
100
AcDbEntity
  8
DETAIL
100
AcDbLine
 10
452.9515600000013
 20
-41.97216999999909
 30
0.0
 11
449.9028700000053
 21
-34.7452499999963
 31
0.0
  0
LINE
  5
1CB2
330
1E
100
AcDbEntity
  8
DETAIL
100
AcDbLine
 10
443.8999999999942
 20
-28.66770000000542
 30
0.0
 11
443.8999999999942
 21
-0.0349100000039471
 31
0.0
  0
ARC
  5
1CB3
330
1E
100
AcDbEntity
  8
DETAIL
100
AcDbCircle
 10
446.900000000005
 20
-28.66770000000542
 30
0.0
 40
3.0
100
AcDbArc
 50
180.0
 51
255.0000000000054
  0
ARC
  5
1CB4
330
1E
100
AcDbEntity
  8
DETAIL
100
AcDbCircle
 10
445.2209000000039
 20
-36.49999999999636
 30
0.0
 40
5.0
100
AcDbArc
 50
20.54545700002097
 51
75.00000000000553
  0
LINE
  5
1CB5
330
1E
100
AcDbEntity
  8
DETAIL
100
AcDbLine
 10
446.5149999999994
 20
-31.67037000000163
 30
0.0
 11
446.1235400000076
 21
-31.56547999999929
 31
0.0
  0
LINE
  5
1CB6
330
1E
100
AcDbEntity
  8
DETAIL
100
AcDbLine
 10
-443.9150100000005
 20
-31.67037000000163
 30
0.0
 11
-443.5235499999906
 21
-31.56547999999929
 31
0.0
  0
ARC
  5
1CB7
330
1E
100
AcDbEntity
  8
DETAIL
100
AcDbCircle
 10
-442.620910000005
 20
-36.49999999999636
 30
0.0
 40
5.0
100
AcDbArc
 50
104.9999999999945
 51
159.454542999979
  0
ARC
  5
1CB8
330
1E
100
AcDbEntity
  8
DETAIL
100
AcDbCircle
 10
-444.3000000000028
 20
-28.66770000000542
 30
0.0
 40
3.0
100
AcDbArc
 50
284.9999999999945
 51
0.0
  0
LINE
  5
1CB9
330
1E
100
AcDbEntity
  8
DETAIL
100
AcDbLine
 10
-441.2999999999922
 20
-28.66770000000542
 30
0.0
 11
-441.2999999999922
 21
-0.0349100000039471
 31
0.0
  0
LINE
  5
1CBA
330
1E
100
AcDbEntity
  8
DETAIL
100
AcDbLine
 10
-450.3515700000025
 20
-41.97216999999909
 30
0.0
 11
-447.3028800000066
 21
-34.7452499999963
 31
0.0
  0
ARC
  5
1CBB
330
1E
100
AcDbEntity
  8
DETAIL
100
AcDbCircle
 10
-453.1156799999916
 20
-40.80613000000083
 30
0.0
 40
3.0
100
AcDbArc
 50
273.0000000000056
 51
337.1274959999815
  0
LINE
  5
1CBC
330
1E
100
AcDbEntity
  8
DETAIL
100
AcDbLine
 10
-452.9586799999923
 20
-43.8020099999994
 30
0.0
 11
-475.8570078687315
 21
-45.03011053663429
 31
0.0
  0
LINE
  5
1CBD
330
1E
100
AcDbEntity
  8
DETAIL
100
AcDbLine
 10
-475.8570078687333
 20
-365.0282722177998
 30
0.0
 11
-459.0430000000013
 21
-364.1470800000023
 31
0.0
  0
ARC
  5
1CBE
330
1E
100
AcDbEntity
  8
DETAIL
100
AcDbCircle
 10
-459.2000000000006
 20
-361.1512000000038
 30
0.0
 40
3.0
100
AcDbArc
 50
273.0000000000056
 51
0.0
  0
ARC
  5
1CBF
330
1E
100
AcDbEntity
  8
DETAIL
100
AcDbCircle
 10
-475.7000000000044
 20
-368.024160822064
 30
0.0
 40
3.0
100
AcDbArc
 50
93.00000000000558
 51
180.0
  0
LINE
  5
1CC0
330
1E
100
AcDbEntity
  8
DETAIL
100
AcDbLine
 10
-456.200000000008
 20
-361.1512000000038
 30
0.0
 11
-456.200000000008
 21
-323.9259800000036
 31
0.0
  0
ARC
  5
1CC2
330
1E
100
AcDbEntity
  8
DETAIL
100
AcDbCircle
 10
-475.7000000000044
 20
-48.02599914089842
 30
0.0
 40
3.0
100
AcDbArc
 50
93.00000000000558
 51
180.0
  0
LINE
  5
1CC4
330
1E
100
AcDbEntity
  8
DETAIL
100
AcDbLine
 10
-468.700000000008
 20
-666.5282500000012
 30
0.0
 11
-468.700000000008
 21
-497.6291200000011
 31
0.0
  0
LINE
  5
1CC5
330
1E
100
AcDbEntity
  8
DETAIL
100
AcDbLine
 10
-473.7000000000078
 20
-671.4409799999976
 30
0.0
 11
-473.7000000000078
 21
-475.5000000000018
 31
0.0
  0
LINE
  5
1CC6
330
1E
100
AcDbEntity
  8
DETAIL
100
AcDbLine
 10
-478.7000000000076
 20
-674.2441899999994
 30
0.0
 11
-478.7000000000076
 21
-462.3708799999985
 31
0.0
  0
LINE
  5
1CC7
330
1E
100
AcDbEntity
  8
DETAIL
100
AcDbLine
 10
-437.4999999999998
 20
-680.0
 30
0.0
 11
-473.7872699999932
 21
-679.2434299999967
 31
0.0
  0
ARC
  5
1CC8
330
1E
100
AcDbEntity
  8
DETAIL
100
AcDbCircle
 10
-473.7000000000078
 20
-674.2441899999994
 30
0.0
 40
5.0
100
AcDbArc
 50
180.0
 51
269.0000000000236
  0
LINE
  5
1CC9
330
1E
100
AcDbEntity
  8
DETAIL
100
AcDbLine
 10
-438.700000000008
 20
-675.0
 30
0.0
 11
-470.7523600000057
 21
-674.4405199999983
 31
0.0
  0
LINE
  5
1CCA
330
1E
100
AcDbEntity
  8
DETAIL
100
AcDbLine
 10
-438.700000000008
 20
-670.0
 30
0.0
 11
-465.7523600000057
 21
-669.5278000000053
 31
0.0
  0
ARC
  5
1CCB
330
1E
100
AcDbEntity
  8
DETAIL
100
AcDbCircle
 10
-470.699999999997
 20
-671.4409799999976
 30
0.0
 40
3.0
100
AcDbArc
 50
180.0
 51
269.0000000000243
  0
ARC
  5
1CCC
330
1E
100
AcDbEntity
  8
DETAIL
100
AcDbCircle
 10
-465.699999999997
 20
-666.5282500000012
 30
0.0
 40
3.0
100
AcDbArc
 50
180.0
 51
269.0000000000243
  0
LINE
  5
1CCD
330
1E
100
AcDbEntity
  8
DETAIL
100
AcDbLine
 10
-438.700000000008
 20
0.0
 30
0.0
 11
-479.7174599999925
 21
-0.7159599999977218
 31
0.0
  0
LINE
  5
1CCE
330
1E
100
AcDbEntity
  8
DETAIL
100
AcDbLine
 10
-438.700000000008
 20
-629.6259900000038
 30
0.0
 11
-439.6999999999932
 21
-629.6259900000038
 31
0.0
  0
LINE
  5
1CCF
330
1E
100
AcDbEntity
  8
DETAIL
100
AcDbLine
 10
-439.6999999999932
 20
-629.6259900000038
 30
0.0
 11
-439.6999999999932
 21
-476.491160000005
 31
0.0
  0
LINE
  5
1CD0
330
1E
100
AcDbEntity
  8
DETAIL
100
AcDbLine
 10
-438.700000000008
 20
-628.9999999999962
 30
0.0
 11
-465.7523600000057
 21
-628.5278000000015
 31
0.0
  0
ARC
  5
1CD1
330
1E
100
AcDbEntity
  8
DETAIL
100
AcDbCircle
 10
-465.699999999997
 20
-625.5282499999974
 30
0.0
 40
3.0
100
AcDbArc
 50
180.0
 51
269.0000000000243
  0
ARC
  5
1CD2
330
1E
100
AcDbEntity
  8
DETAIL
100
AcDbCircle
 10
-518.700000000008
 20
-497.6291200000011
 30
0.0
 40
50.0
100
AcDbArc
 50
0.0
 51
21.80138399996625
  0
ARC
  5
1CD3
330
1E
100
AcDbEntity
  8
DETAIL
100
AcDbCircle
 10
-430.699999999997
 20
-448.3708800000022
 30
0.0
 40
50.0
100
AcDbArc
 50
180.0
 51
201.8013850000064
  0
LINE
  5
1CD4
330
1E
100
AcDbEntity
  8
DETAIL
100
AcDbLine
 10
-472.2761700000046
 20
-479.0595899999971
 30
0.0
 11
-477.1238400000038
 21
-466.9404099999974
 31
0.0
  0
LINE
  5
1CD5
330
1E
100
AcDbEntity
  8
DETAIL
100
AcDbLine
 10
-480.699999999997
 20
-1.715810000005149
 30
0.0
 11
-480.699999999997
 21
-448.3708800000022
 31
0.0
  0
ARC
  5
1CD6
330
1E
100
AcDbEntity
  8
DETAIL
100
AcDbCircle
 10
-479.6999999999932
 20
-1.715810000005149
 30
0.0
 40
1.0
100
AcDbArc
 50
90.99999999997571
 51
180.0
  0
LINE
  5
1CD7
330
1E
100
AcDbEntity
  8
DETAIL
100
AcDbLine
 10
-442.6476499999987
 20
-473.4916200000043
 30
0.0
 11
-450.262330000005
 21
-473.3586999999988
 31
0.0
  0
ARC
  5
1CD8
330
1E
100
AcDbEntity
  8
DETAIL
100
AcDbCircle
 10
-442.7000000000044
 20
-476.491160000005
 30
0.0
 40
3.0
100
AcDbArc
 50
0.0
 51
89.0000000000243
  0
LINE
  5
1CD9
330
1E
100
AcDbEntity
  8
DETAIL
100
AcDbLine
 10
-473.7000000000078
 20
-135.6580300000041
 30
0.0
 11
-477.2000000000043
 21
-133.6373049999838
 31
0.0
  0
ARC
  5
1CDA
330
1E
100
AcDbEntity
  8
DETAIL
100
AcDbCircle
 10
-475.2000000000044
 20
-138.256110000002
 30
0.0
 40
3.0
100
AcDbArc
 50
0.0
 51
59.99999999999005
  0
LINE
  5
1CDC
330
1E
100
AcDbEntity
  8
DETAIL
100
AcDbLine
 10
-472.1999999999932
 20
-311.2242700000024
 30
0.0
 11
-472.1999999999932
 21
-138.256110000002
 31
0.0
  0
LINE
  5
1CDD
330
1E
100
AcDbEntity
  8
DETAIL
100
AcDbLine
 10
-457.7000000000043
 20
-321.3278999999965
 30
0.0
 11
-470.699999999997
 21
-313.8223500000003
 31
0.0
  0
ARC
  5
1CDE
330
1E
100
AcDbEntity
  8
DETAIL
100
AcDbCircle
 10
-469.2000000000006
 20
-311.2242700000024
 30
0.0
 40
3.0
100
AcDbArc
 50
180.0
 51
239.9999999999898
  0
ARC
  5
1CDF
330
1E
100
AcDbEntity
  8
DETAIL
100
AcDbCircle
 10
-459.2000000000006
 20
-323.9259800000036
 30
0.0
 40
3.0
100
AcDbArc
 50
0.0
 51
59.99999999998978
  0
ARC
  5
1CE2
330
1E
100
AcDbEntity
  8
DETAIL
100
AcDbCircle
 10
-475.7000000000025
 20
-455.6424777770025
 30
0.0
 40
3.0
100
AcDbArc
 50
180.0
 51
239.9999999999898
  0
ARC
  5
1CE3
330
1E
100
AcDbEntity
  8
DETAIL
100
AcDbCircle
 10
-450.2099699999962
 20
-470.359159999998
 30
0.0
 40
3.0
100
AcDbArc
 50
239.9999999999898
 51
269.0000000000243
  0
LINE
  5
1CE4
330
1E
100
AcDbEntity
  8
DETAIL
100
AcDbLine
 10
-451.7099699999926
 20
-472.957240000005
 30
0.0
 11
-477.2000000000006
 21
-458.2405539883565
 31
0.0
  0
LINE
  5
1D1C
330
1E
100
AcDbEntity
  8
DETAIL
100
AcDbLine
 10
-438.700000000008
 20
0.0
 30
0.0
 11
-438.700000000008
 21
-621.0000000000036
 31
0.0
  0
LINE
  5
1D1D
330
1E
100
AcDbEntity
  8
DETAIL
100
AcDbLine
 10
442.5999999999913
 20
0.0
 30
0.0
 11
-439.9999999999926
 21
0.0
 31
0.0
  0
ARC
  5
1D1E
330
1E
100
AcDbEntity
  8
DETAIL
100
AcDbCircle
 10
-433.7000000000077
 20
-630.0
 30
0.0
 40
3.0
100
AcDbArc
 50
180.0
 51
270.0
  0
LINE
  5
1D1F
330
1E
100
AcDbEntity
  8
DETAIL
100
AcDbLine
 10
-436.7000000000007
 20
-630.0
 30
0.0
 11
-436.7000000000007
 21
-621.0000000000036
 31
0.0
  0
ARC
  5
1D20
330
1E
100
AcDbEntity
  8
DETAIL
100
AcDbCircle
 10
436.2999999999918
 20
-630.0
 30
0.0
 40
3.0
100
AcDbArc
 50
270.0
 51
0.0
  0
LINE
  5
1D21
330
1E
100
AcDbEntity
  8
DETAIL
100
AcDbLine
 10
439.3000000000029
 20
-621.0000000000036
 30
0.0
 11
439.3000000000029
 21
-630.0
 31
0.0
  0
LINE
  5
1D22
330
1E
100
AcDbEntity
  8
DETAIL
100
AcDbLine
 10
439.3000000000029
 20
-621.0000000000036
 30
0.0
 11
441.2999999999919
 21
-621.0000000000036
 31
0.0
  0
LINE
  5
1D23
330
1E
100
AcDbEntity
  8
DETAIL
100
AcDbLine
 10
441.2999999999919
 20
-621.0000000000036
 30
0.0
 11
441.2999999999919
 21
0.0
 31
0.0
  0
LINE
  5
1D24
330
1E
100
AcDbEntity
  8
DETAIL
100
AcDbLine
 10
-436.7000000000007
 20
-621.0000000000036
 30
0.0
 11
-438.700000000008
 21
-621.0000000000036
 31
0.0
  0
LINE
  5
1D25
330
1E
100
AcDbEntity
  8
DETAIL
100
AcDbLine
 10
436.2999999999918
 20
-633.0000000000016
 30
0.0
 11
-433.7000000000077
 21
-633.0000000000016
 31
0.0
  0
LINE
  5
1D26
330
1E
100
AcDbEntity
  8
DETAIL
100
AcDbLine
 10
439.3000000000029
 20
-621.8000000000029
 30
0.0
 11
-436.7000000000007
 21
-621.8000000000029
 31
0.0
  0
LINE
  5
1D31
330
1E
100
AcDbEntity
  8
DETAIL
100
AcDbLine
 10
401.2999999999919
 20
-17.60000000000218
 30
0.0
 11
301.299999999992
 21
-17.60000000000218
 31
0.0
  0
ARC
  5
1D32
330
1E
100
AcDbEntity
  8
DETAIL
100
AcDbCircle
 10
401.2999999999919
 20
-37.60000000000218
 30
0.0
 40
20.0
100
AcDbArc
 50
0.0
 51
90.0
  0
LINE
  5
1D33
330
1E
100
AcDbEntity
  8
DETAIL
100
AcDbLine
 10
421.2999999999919
 20
-37.60000000000218
 30
0.0
 11
421.2999999999919
 21
-147.6000000000022
 31
0.0
  0
ARC
  5
1D34
330
1E
100
AcDbEntity
  8
DETAIL
100
AcDbCircle
 10
401.2999999999919
 20
-147.6000000000022
 30
0.0
 40
20.0
100
AcDbArc
 50
270.0
 51
0.0
  0
LINE
  5
1D35
330
1E
100
AcDbEntity
  8
DETAIL
100
AcDbLine
 10
301.299999999992
 20
-167.6000000000021
 30
0.0
 11
401.2999999999919
 21
-167.6000000000021
 31
0.0
  0
ARC
  5
1D36
330
1E
100
AcDbEntity
  8
DETAIL
100
AcDbCircle
 10
301.299999999992
 20
-147.6000000000022
 30
0.0
 40
20.0
100
AcDbArc
 50
180.0
 51
270.0
  0
ARC
  5
1D37
330
1E
100
AcDbEntity
  8
DETAIL
100
AcDbCircle
 10
301.299999999992
 20
-37.60000000000218
 30
0.0
 40
20.0
100
AcDbArc
 50
90.0
 51
180.0
  0
LINE
  5
1D38
330
1E
100
AcDbEntity
  8
DETAIL
100
AcDbLine
 10
281.2999999999919
 20
-37.60000000000218
 30
0.0
 11
281.2999999999919
 21
-147.6000000000022
 31
0.0
  0
LINE
  5
1DAA
330
1E
100
AcDbEntity
  8
DETAIL
100
AcDbLine
 10
181.9686200000069
 20
-505.6000000000039
 30
0.0
 11
181.9686200000069
 21
-337.3504200000025
 31
0.0
  0
LINE
  5
1DAD
330
1E
100
AcDbEntity
  8
DETAIL
100
AcDbLine
 10
166.6313699999954
 20
-505.6000000000039
 30
0.0
 11
166.6313699999954
 21
-337.3504200000025
 31
0.0
  0
LINE
  5
1DAE
330
1E
100
AcDbEntity
  8
DETAIL
100
AcDbLine
 10
-438.700000000008
 20
-307.5542800000039
 30
0.0
 11
441.2999999999919
 21
-307.5542800000039
 31
0.0
  0
LINE
  5
1DAF
330
1E
100
AcDbEntity
  8
DETAIL
100
AcDbLine
 10
186.9686200000069
 20
-332.3504200000024
 30
0.0
 11
441.2999999999919
 21
-332.3504200000024
 31
0.0
  0
ARC
  5
1DB0
330
1E
100
AcDbEntity
  8
DETAIL
100
AcDbCircle
 10
186.9686200000069
 20
-337.3504200000025
 30
0.0
 40
5.0
100
AcDbArc
 50
90.0
 51
180.0
  0
ARC
  5
1DB4
330
1E
100
AcDbEntity
  8
DETAIL
100
AcDbCircle
 10
161.6313699999954
 20
-337.3504200000025
 30
0.0
 40
5.0
100
AcDbArc
 50
0.0
 51
90.0
  0
LINE
  5
1DB5
330
1E
100
AcDbEntity
  8
DETAIL
100
AcDbLine
 10
-438.700000000008
 20
-248.2313700000031
 30
0.0
 11
441.2999999999919
 21
-248.2313700000031
 31
0.0
  0
LINE
  5
1DB6
330
1E
100
AcDbEntity
  8
DETAIL
100
AcDbLine
 10
-438.700000000008
 20
-255.1878000000033
 30
0.0
 11
441.2999999999919
 21
-255.1878000000033
 31
0.0
  0
LINE
  5
1E13
330
1E
100
AcDbEntity
  8
DETAIL
100
AcDbLine
 10
-141.0313800000039
 20
-505.6000000000039
 30
0.0
 11
-141.0313800000039
 21
-337.3504200000025
 31
0.0
  0
LINE
  5
1E16
330
1E
100
AcDbEntity
  8
DETAIL
100
AcDbLine
 10
-156.3686299999971
 20
-505.6000000000039
 30
0.0
 11
-156.3686299999971
 21
-337.3504200000025
 31
0.0
  0
LINE
  5
1E17
330
1E
100
AcDbEntity
  8
DETAIL
100
AcDbLine
 10
-438.700000000008
 20
-332.3504200000024
 30
0.0
 11
-161.3686299999971
 21
-332.3504200000024
 31
0.0
  0
LINE
  5
1E18
330
1E
100
AcDbEntity
  8
DETAIL
100
AcDbLine
 10
-136.0313800000039
 20
-332.3504200000024
 30
0.0
 11
161.6313699999954
 21
-332.3504200000024
 31
0.0
  0
ARC
  5
1E19
330
1E
100
AcDbEntity
  8
DETAIL
100
AcDbCircle
 10
-136.0313800000039
 20
-337.3504200000025
 30
0.0
 40
5.0
100
AcDbArc
 50
90.0
 51
180.0
  0
ARC
  5
1E1D
330
1E
100
AcDbEntity
  8
DETAIL
100
AcDbCircle
 10
-161.3686299999971
 20
-337.3504200000025
 30
0.0
 40
5.0
100
AcDbArc
 50
0.0
 51
90.0
  0
ARC
  5
1E30
330
1E
100
AcDbEntity
  8
DETAIL
100
AcDbCircle
 10
174.3000000000029
 20
-505.6000000000039
 30
0.0
 40
7.668629999999997
100
AcDbArc
 50
180.0
 51
0.0
  0
ARC
  5
1E32
330
1E
100
AcDbEntity
  8
DETAIL
100
AcDbCircle
 10
-148.7000000000079
 20
-505.6000000000039
 30
0.0
 40
7.668629999999997
100
AcDbArc
 50
180.0
 51
0.0
  0
LINE
  5
1F92
330
1E
100
AcDbEntity
  8
BASIS
  6
DASHDOT
100
AcDbLine
 10
460.0522900000029
 20
-29.10469999999804
 30
0.0
 11
460.0522900000029
 21
-446.580895921903
 31
0.0
  0
LINE
  5
1F93
330
1E
100
AcDbEntity
  8
BASIS
  6
DASHDOT
100
AcDbLine
 10
444.4143799999984
 20
-80.0
 30
0.0
 11
474.8131199999988
 21
-80.0
 31
0.0
  0
LINE
  5
1F94
330
1E
100
AcDbEntity
  8
BASIS
  6
DASHDOT
100
AcDbLine
 10
444.4143799999984
 20
-400.0
 30
0.0
 11
474.8131199999988
 21
-400.0
 31
0.0
  0
LINE
  5
1F95
330
1E
100
AcDbEntity
  8
BASIS
  6
DASHDOT
100
AcDbLine
 10
-457.0000000000071
 20
-29.10469999999804
 30
0.0
 11
-457.0000000000071
 21
-436.2454205512221
 31
0.0
  0
LINE
  5
1F96
330
1E
100
AcDbEntity
  8
BASIS
  6
DASHDOT
100
AcDbLine
 10
-473.1889600000067
 20
-80.0
 30
0.0
 11
-442.7510599999913
 21
-80.0
 31
0.0
  0
LINE
  5
1F97
330
1E
100
AcDbEntity
  8
BASIS
  6
DASHDOT
100
AcDbLine
 10
-473.1889600000067
 20
-400.0
 30
0.0
 11
-442.7510599999913
 21
-400.0
 31
0.0
  0
LINE
  5
21B6
330
1E
100
AcDbEntity
  8
BASIS
  6
DASHDOT
100
AcDbLine
 10
1.299999999999271
 20
48.88933193806952
 30
0.0
 11
1.299999999999271
 21
-734.4680350229497
 31
0.0
  0
LINE
  5
21F6
330
1E
100
AcDbEntity
  8
BASIS
  6
DASHDOT
100
AcDbLine
 10
-586.9839379028307
 20
-340.0
 30
0.0
 11
590.8014885540579
 21
-340.0
 31
0.0
  0
POINT
  5
21F8
330
1E
100
AcDbEntity
  8
ARRANGE
  6
Continuous
100
AcDbPoint
 10
1.299999999999271
 20
0.0
 30
0.0
  0
CIRCLE
  5
21F9
330
1E
100
AcDbEntity
  8
ARRANGE
  6
Continuous
100
AcDbCircle
 10
0.0
 20
0.0
 30
0.0
 40
40.0
  0
LINE
  5
21FB
330
1E
100
AcDbEntity
  8
NOTE
  6
Continuous
100
AcDbLine
 10
460.0522900000029
 20
-400.0
 30
0.0
 11
646.5228836152728
 21
-587.4234534567513
 31
0.0
  0
LINE
  5
21FC
330
1E
100
AcDbEntity
  8
NOTE
  6
Continuous
100
AcDbLine
 10
460.0522900000029
 20
-380.0
 30
0.0
 11
460.0522900000029
 21
-420.0
 31
0.0
  0
CIRCLE
  5
21FD
330
1E
100
AcDbEntity
  8
FIX
  6
Continuous
100
AcDbCircle
 10
460.0522900000029
 20
-400.0
 30
0.0
 40
5.0
  0
LWPOLYLINE
  5
21FF
330
1E
100
AcDbEntity
  8
NOTE
  6
Continuous
100
AcDbPolyline
 90
        3
 70
     0
 43
0.0
 10
494.8670160000038
 20
-419.6960619999998
 10
460.0522900000029
 20
-400.0
 10
480.3546960000039
 20
-434.464653
  0
LINE
  5
2200
330
1E
100
AcDbEntity
  8
NOTE
  6
Continuous
100
AcDbLine
 10
440.0522900000033
 20
-400.0
 30
0.0
 11
480.0522900000031
 21
-400.0
 31
0.0
  0
TEXT
  5
2201
330
1E
100
AcDbEntity
  8
NOTE
  6
Continuous
100
AcDbText
 10
658.6466067205365
 20
-564.7880314567518
 30
0.0
 40
55.0
  1
AH
 41
0.8
100
AcDbText
  0
LINE
  5
2202
330
1E
100
AcDbEntity
  8
NOTE
  6
Continuous
100
AcDbLine
 10
646.5228836152728
 20
-587.4234534567513
 30
0.0
 11
790.8733331643269
 21
-587.4234534567513
 31
0.0
  0
LINE
  5
2203
330
1E
100
AcDbEntity
  8
NOTE
  6
Continuous
100
AcDbLine
 10
440.0522900000033
 20
-80.0
 30
0.0
 11
480.0522900000031
 21
-80.0
 31
0.0
  0
LINE
  5
2204
330
1E
100
AcDbEntity
  8
NOTE
  6
Continuous
100
AcDbLine
 10
460.0522900000029
 20
-60.0
 30
0.0
 11
460.0522900000029
 21
-100.0
 31
0.0
  0
CIRCLE
  5
2205
330
1E
100
AcDbEntity
  8
FIX
  6
Continuous
100
AcDbCircle
 10
460.0522900000029
 20
-80.0
 30
0.0
 40
5.0
  0
LINE
  5
2206
330
1E
100
AcDbEntity
  8
NOTE
  6
Continuous
100
AcDbLine
 10
-477.0000000000071
 20
-80.0
 30
0.0
 11
-437.0000000000071
 21
-80.0
 31
0.0
  0
LINE
  5
2207
330
1E
100
AcDbEntity
  8
NOTE
  6
Continuous
100
AcDbLine
 10
-457.0000000000071
 20
-60.0
 30
0.0
 11
-457.0000000000071
 21
-100.0
 31
0.0
  0
CIRCLE
  5
2208
330
1E
100
AcDbEntity
  8
FIX
  6
Continuous
100
AcDbCircle
 10
-457.0000000000071
 20
-80.0
 30
0.0
 40
5.0
  0
LINE
  5
2209
330
1E
100
AcDbEntity
  8
NOTE
  6
Continuous
100
AcDbLine
 10
-477.0000000000071
 20
-400.0
 30
0.0
 11
-437.0000000000071
 21
-400.0
 31
0.0
  0
CIRCLE
  5
220A
330
1E
100
AcDbEntity
  8
FIX
  6
Continuous
100
AcDbCircle
 10
-457.0000000000071
 20
-400.0
 30
0.0
 40
5.0
  0
LINE
  5
220B
330
1E
100
AcDbEntity
  8
NOTE
  6
Continuous
100
AcDbLine
 10
-457.0000000000071
 20
-380.0
 30
0.0
 11
-457.0000000000071
 21
-420.0
 31
0.0
  0
TEXT
  5
220E
330
1E
100
AcDbEntity
  8
NOTE
  6
Continuous
100
AcDbText
 10
701.7313470000042
 20
101.6753069999995
 30
0.0
 40
55.0
  1
AH
 41
0.8
100
AcDbText
  0
LINE
  5
220F
330
1E
100
AcDbEntity
  8
NOTE
  6
Continuous
100
AcDbLine
 10
684.7544670000026
 20
79.03988500000014
 30
0.0
 11
814.9105510000044
 21
79.03988500000014
 31
0.0
  0
LINE
  5
2210
330
1E
100
AcDbEntity
  8
NOTE
  6
Continuous
100
AcDbLine
 10
460.0522900000029
 20
-80.0
 30
0.0
 11
684.7544670000026
 21
79.03988500000014
 31
0.0
  0
LWPOLYLINE
  5
2211
330
1E
100
AcDbEntity
  8
NOTE
  6
Continuous
100
AcDbPolyline
 90
        3
 70
     0
 43
0.0
 10
485.5783370000025
 20
-49.20355699999982
 10
460.0522900000029
 20
-80.0
 10
497.5567170000029
 20
-66.09252199999992
  0
TEXT
  5
2212
330
1E
100
AcDbEntity
  8
NOTE
  6
Continuous
100
AcDbText
 10
-737.4240912772511
 20
230.6888180775422
 30
0.0
 40
55.0
  1
AH
 41
0.8
100
AcDbText
  0
LINE
  5
2213
330
1E
100
AcDbEntity
  8
NOTE
  6
Continuous
100
AcDbLine
 10
-457.0000000000071
 20
-80.0
 30
0.0
 11
-608.3284262950546
 21
210.8828240775401
 31
0.0
  0
LINE
  5
2214
330
1E
100
AcDbEntity
  8
NOTE
  6
Continuous
100
AcDbLine
 10
-608.3284262950546
 20
210.8828240775401
 30
0.0
 11
-760.0599322772522
 21
210.8828240775401
 31
0.0
  0
LWPOLYLINE
  5
2215
330
1E
100
AcDbEntity
  8
NOTE
  6
Continuous
100
AcDbPolyline
 90
        3
 70
     0
 43
0.0
 10
-483.5986370000064
 20
-50.12505199999987
 10
-457.0000000000071
 20
-80.0
 10
-465.0976220000065
 20
-40.82821800000011
  0
LINE
  5
2216
330
1E
100
AcDbEntity
  8
NOTE
  6
Continuous
100
AcDbLine
 10
-457.0000000000071
 20
-400.0
 30
0.0
 11
-583.8817880000078
 21
-585.8756379999994
 31
0.0
  0
LINE
  5
2217
330
1E
100
AcDbEntity
  8
NOTE
  6
Continuous
100
AcDbLine
 10
-583.8817880000078
 20
-585.8756379999994
 30
0.0
 11
-736.6737130000073
 21
-585.8756379999994
 31
0.0
  0
TEXT
  5
2218
330
1E
100
AcDbEntity
  8
NOTE
  6
Continuous
100
AcDbText
 10
-708.3789130000077
 20
-566.0696429999989
 30
0.0
 40
55.0
  1
AH
 41
0.8
100
AcDbText
  0
LWPOLYLINE
  5
2219
330
1E
100
AcDbEntity
  8
NOTE
  6
Continuous
100
AcDbPolyline
 90
        3
 70
     0
 43
0.0
 10
-469.8925611060656
 20
-437.8653121340039
 10
-457.0000000000071
 20
-400.0
 10
-487.0979416954686
 20
-426.3460413760006
  0
LINE
  5
2252
330
1E
100
AcDbEntity
  8
DETAIL
100
AcDbLine
 10
481.2999999999993
 20
-47.94555000000399
 30
0.0
 11
481.2999999999974
 21
-131.0392287886406
 31
0.0
  0
LINE
  5
2258
330
1E
100
AcDbEntity
  8
DETAIL
100
AcDbLine
 10
481.2999999999993
 20
-368.0241613461457
 30
0.0
 11
481.2999999999993
 21
-455.6424781379972
 31
0.0
  0
LINE
  5
2260
330
1E
100
AcDbEntity
  8
DETAIL
100
AcDbLine
 10
-478.699999999997
 20
-47.94555000000399
 30
0.0
 11
-478.699999999997
 21
-131.0392287886315
 31
0.0
  0
LINE
  5
2264
330
1E
100
AcDbEntity
  8
DETAIL
100
AcDbLine
 10
-478.6999999999988
 20
-368.024160822064
 30
0.0
 11
-478.6999999999933
 21
-455.6424777770025
 31
0.0
  0
ARC
  5
2265
330
1E
100
AcDbEntity
  8
DETAIL
100
AcDbCircle
 10
-475.7000000000044
 20
-131.0392287886315
 30
0.0
 40
3.0
100
AcDbArc
 50
180.0
 51
239.9999999999898
  0
TEXT
  5
22C1
330
1E
100
AcDbEntity
  8
NOTE
  6
Continuous
100
AcDbText
 10
-249.4433797597557
 20
-1058.735658597059
 30
0.0
 40
55.0
  1
吊りボルトピッチ
 41
0.8
100
AcDbText
  0
LINE
  5
2323
330
1E
100
AcDbEntity
  8
NOTE
  6
Continuous
100
AcDbLine
 10
375.2999999999993
 20
-203.0
 30
0.0
 11
415.2999999999993
 21
-203.0
 31
0.0
  0
LINE
  5
2324
330
1E
100
AcDbEntity
  8
NOTE
  6
Continuous
100
AcDbLine
 10
395.2999999999993
 20
-183.0
 30
0.0
 11
395.2999999999993
 21
-223.0
 31
0.0
  0
LINE
  5
2327
330
1E
100
AcDbEntity
  8
NOTE
  6
Continuous
100
AcDbLine
 10
310.2999999999993
 20
-164.0
 30
0.0
 11
310.2999999999993
 21
-204.0
 31
0.0
  0
LINE
  5
2328
330
1E
100
AcDbEntity
  8
NOTE
  6
Continuous
100
AcDbLine
 10
290.2999999999993
 20
-184.0
 30
0.0
 11
330.2999999999993
 21
-184.0
 31
0.0
  0
LINE
  5
232D
330
1E
100
AcDbEntity
  8
NOTE
  6
Continuous
100
AcDbLine
 10
323.2999999999993
 20
-246.0000000000018
 30
0.0
 11
363.2999999999993
 21
-246.0000000000018
 31
0.0
  0
LINE
  5
2331
330
1E
100
AcDbEntity
  8
NOTE
  6
Continuous
100
AcDbLine
 10
197.2999999999993
 20
20.0
 30
0.0
 11
197.2999999999993
 21
-20.0
 31
0.0
  0
LINE
  5
2332
330
1E
100
AcDbEntity
  8
NOTE
  6
Continuous
100
AcDbLine
 10
177.2999999999993
 20
0.0
 30
0.0
 11
217.2999999999993
 21
0.0
 31
0.0
  0
LINE
  5
2334
330
1E
100
AcDbEntity
  8
NOTE
  6
Continuous
100
AcDbLine
 10
139.2999999999993
 20
0.0
 30
0.0
 11
179.2999999999993
 21
0.0
 31
0.0
  0
LINE
  5
2337
330
1E
100
AcDbEntity
  8
NOTE
  6
Continuous
100
AcDbLine
 10
203.2999999999993
 20
20.0
 30
0.0
 11
203.2999999999993
 21
-20.0
 31
0.0
  0
LINE
  5
2338
330
1E
100
AcDbEntity
  8
NOTE
  6
Continuous
100
AcDbLine
 10
183.2999999999993
 20
0.0
 30
0.0
 11
223.2999999999993
 21
0.0
 31
0.0
  0
LINE
  5
2339
330
1E
100
AcDbEntity
  8
NOTE
  6
Continuous
100
AcDbLine
 10
165.2999999999993
 20
20.0
 30
0.0
 11
165.2999999999993
 21
-20.0
 31
0.0
  0
LINE
  5
233A
330
1E
100
AcDbEntity
  8
NOTE
  6
Continuous
100
AcDbLine
 10
145.2999999999993
 20
0.0
 30
0.0
 11
185.2999999999993
 21
0.0
 31
0.0
  0
LINE
  5
2396
330
1E
100
AcDbEntity
  8
NOTE
  6
Continuous
100
AcDbLine
 10
343.3000000000011
 20
-246.0000000000018
 30
0.0
 11
733.2965287617916
 21
-471.3742360036794
 31
0.0
  0
TEXT
  5
2397
330
1E
100
AcDbEntity
  8
NOTE
  6
Continuous
100
AcDbText
 10
754.2252368646313
 20
-448.2234760036772
 30
0.0
 40
55.0
  1
D φ26(VP-20)
 41
0.8
100
AcDbText
  0
LINE
  5
2398
330
1E
100
AcDbEntity
  8
NOTE
  6
Continuous
100
AcDbLine
 10
733.2965287617916
 20
-471.3742360036794
 30
0.0
 11
1044.861291712977
 21
-471.3742360036776
 31
0.0
  0
LWPOLYLINE
  5
2399
330
1E
100
AcDbEntity
  8
NOTE
  6
Continuous
100
AcDbPolyline
 90
        3
 70
     0
 43
0.0
 10
381.9450648156853
 20
-256.3227412951073
 10
343.3000000000011
 20
-246.0000000000018
 10
371.6062368624607
 20
-274.2622882367522
  0
LINE
  5
239A
330
1E
100
AcDbEntity
  8
NOTE
  6
Continuous
100
AcDbLine
 10
395.2999999999993
 20
-203.0
 30
0.0
 11
698.2800470000003
 21
-366.7835359999988
 31
0.0
  0
TEXT
  5
239B
330
1E
100
AcDbEntity
  8
NOTE
  6
Continuous
100
AcDbText
 10
725.5938879999994
 20
-352.4304310000006
 30
0.0
 40
55.0
  1
RG φ12.7
 41
0.8
100
AcDbText
  0
LINE
  5
239C
330
1E
100
AcDbEntity
  8
NOTE
  6
Continuous
100
AcDbLine
 10
698.2800470000003
 20
-366.7835359999988
 30
0.0
 11
1107.27
 21
-366.7835359999988
 31
0.0
  0
LWPOLYLINE
  5
239D
330
1E
100
AcDbEntity
  8
NOTE
  6
Continuous
100
AcDbPolyline
 90
        3
 70
     0
 43
0.0
 10
434.2619729999986
 20
-212.053433
 10
395.2999999999993
 20
-203.0
 10
424.5153419999986
 20
-230.3214889999999
  0
LINE
  5
239E
330
1E
100
AcDbEntity
  8
NOTE
  6
Continuous
100
AcDbLine
 10
963.9015592485176
 20
274.3537850229949
 30
0.0
 11
539.2636133337362
 21
274.3537850229949
 31
0.0
  0
TEXT
  5
239F
330
1E
100
AcDbEntity
  8
NOTE
  6
Continuous
100
AcDbText
 10
572.4671462485185
 20
295.2134050229961
 30
0.0
 40
55.0
  1
RL φ6.35
 41
0.8
100
AcDbText
  0
LINE
  5
23A0
330
1E
100
AcDbEntity
  8
NOTE
  6
Continuous
100
AcDbLine
 10
310.2999999999993
 20
-184.0
 30
0.0
 11
539.2636133337362
 21
274.3537850229949
 31
0.0
  0
LWPOLYLINE
  5
23A1
330
1E
100
AcDbEntity
  8
NOTE
  6
Continuous
100
AcDbPolyline
 90
        3
 70
     0
 43
0.0
 10
318.0218214779651
 20
-144.7524077483485
 10
310.2999999999993
 20
-184.0
 10
336.611089323287
 20
-153.8714994749734
  0
TEXT
  5
23A6
330
1E
100
AcDbEntity
  8
ETC
  6
Continuous
100
AcDbText
 10
942.4798488270081
 20
472.4855389889707
 30
0.0
 40
55.0
  1
SMPC4661
 41
0.8
100
AcDbText
  0
TEXT
  5
23A7
330
1E
100
AcDbEntity
  8
ETC
  6
Continuous
100
AcDbText
 10
942.4798488270081
 20
612.3207499889702
 30
0.0
 40
55.0
  1
PAC
 41
0.8
100
AcDbText
  0
TEXT
  5
23E4
330
1E
100
AcDbEntity
  8
NOTE
  6
Continuous
100
AcDbText
 10
-828.0194291604747
 20
-450.0099319856363
 30
0.0
 40
55.0
  1
吊りボルトピッチ
 50
90.0
 41
0.8
100
AcDbText
  0
TEXT
  5
2424
330
1E
100
AcDbEntity
  8
NOTE
  6
Continuous
100
AcDbText
 10
-481.5821511729916
 20
381.3825729725722
 30
0.0
 40
55.0
  1
EL 2-φ26
 41
0.8
100
AcDbText
  0
LINE
  5
2425
330
1E
100
AcDbEntity
  8
NOTE
  6
Continuous
100
AcDbLine
 10
6.136999317022861
 20
352.8376659725727
 30
0.0
 11
-516.7170121729923
 21
352.8376659725727
 31
0.0
  0
LINE
  5
2426
330
1E
100
AcDbEntity
  8
NOTE
  6
Continuous
100
AcDbLine
 10
203.2999999999993
 20
0.0
 30
0.0
 11
6.136999317022861
 21
352.8376659725727
 31
0.0
  0
LWPOLYLINE
  5
2427
330
1E
100
AcDbEntity
  8
NOTE
  6
Continuous
100
AcDbPolyline
 90
        3
 70
     0
 43
0.0
 10
175.3836589091928
 20
28.64747617027678
 10
203.2999999999993
 20
0.0
 10
193.4474765568788
 20
38.76761297147707
  0
TEXT
  5
2428
330
1E
100
AcDbEntity
  8
NOTE
  6
Continuous
100
AcDbText
 10
-512.7836604839431
 20
253.8270280322394
 30
0.0
 40
55.0
  1
EL 2-φ22.2
 41
0.8
100
AcDbText
  0
LINE
  5
2429
330
1E
100
AcDbEntity
  8
NOTE
  6
Continuous
100
AcDbLine
 10
13.67368898494713
 20
225.2821210322399
 30
0.0
 11
-556.3435461015757
 21
225.0722802485652
 31
0.0
  0
LINE
  5
242A
330
1E
100
AcDbEntity
  8
NOTE
  6
Continuous
100
AcDbLine
 10
159.2999999999993
 20
0.0
 30
0.0
 11
13.67368898494713
 21
225.2821210322399
 31
0.0
  0
LWPOLYLINE
  5
242B
330
1E
100
AcDbEntity
  8
NOTE
  6
Continuous
100
AcDbPolyline
 90
        3
 70
     0
 43
0.0
 10
130.1268683895941
 20
27.36655591898272
 10
159.2999999999993
 20
0.0
 10
147.7186039011649
 20
38.28669870993554
  0
LINE
  5
2D5D
330
1E
100
AcDbEntity
  8
NOTE
  6
Continuous
100
AcDbLine
 10
343.2999999999993
 20
-226.0
 30
0.0
 11
343.2999999999993
 21
-266.0
 31
0.0
  0
LINE
  5
2DF2
330
1E
100
AcDbEntity
  8
NOTE
  6
Continuous
100
AcDbLine
 10
159.2999999999993
 20
20.0
 30
0.0
 11
159.2999999999993
 21
-20.0
 31
0.0
  0
LINE
  5
4AA1
330
1E
100
AcDbEntity
  8
NOTE
  6
Continuous
100
AcDbLine
 10
-423.699999999997
 20
-246.0000000000018
 30
0.0
 11
-383.6999999999971
 21
-246.0000000000018
 31
0.0
  0
LINE
  5
4AA2
330
1E
100
AcDbEntity
  8
NOTE
  6
Continuous
100
AcDbLine
 10
-403.699999999997
 20
-226.0000000000018
 30
0.0
 11
-403.699999999997
 21
-266.0000000000018
 31
0.0
  0
TEXT
  5
4AF1
330
1E
100
AcDbEntity
  8
NOTE
  6
Continuous
100
AcDbText
 10
-1325.869974679676
 20
102.0596628692546
 30
0.0
 40
55.0
  1
D φ26（VP-20）
 41
0.8
100
AcDbText
  0
LINE
  5
4AF2
330
1E
100
AcDbEntity
  8
NOTE
  6
Continuous
100
AcDbLine
 10
-1381.350094794551
 20
78.9089028692524
 30
0.0
 11
-615.3350267126693
 21
78.90890286925423
 31
0.0
  0
LINE
  5
4AF3
330
1E
100
AcDbEntity
  8
NOTE
  6
Continuous
100
AcDbLine
 10
-403.699999999997
 20
-246.0000000000018
 30
0.0
 11
-615.3350267126693
 21
78.90890286925423
 31
0.0
  0
LWPOLYLINE
  5
4AF4
330
1E
100
AcDbEntity
  8
NOTE
  6
Continuous
100
AcDbPolyline
 90
        3
 70
     0
 43
0.0
 10
-433.4941375332346
 20
-219.3108750404862
 10
-403.699999999997
 20
-246.0000000000018
 10
-416.157917361701
 20
-207.9894715019682
  0
LINE
  5
5240
330
1E
100
AcDbEntity
  8
SIZE
100
AcDbLine
 10
481.3000000000046
 20
-822.7002036606148
 30
0.0
 11
481.3000000000046
 21
-1199.555269850887
 31
0.0
  0
LINE
  5
5241
330
1E
100
AcDbEntity
  8
SIZE
100
AcDbLine
 10
483.2999999999993
 20
-468.3708800000021
 30
0.0
 11
483.299999999999
 21
-1199.555269850887
 31
0.0
  0
LINE
  5
5242
330
1E
100
AcDbEntity
  8
SIZE
100
AcDbLine
 10
471.3000000000047
 20
-1169.555269850887
 30
0.0
 11
461.3000000000046
 21
-1169.555269850887
 31
0.0
  0
LINE
  5
5243
330
1E
100
AcDbEntity
  8
SIZE
100
AcDbLine
 10
493.299999999999
 20
-1169.555269850887
 30
0.0
 11
581.7
 21
-1169.555269850887
 31
0.0
  0
LINE
  5
5244
330
1E
100
AcDbEntity
  8
SIZE
100
AcDbLine
 10
481.3000000000046
 20
-1169.555269850887
 30
0.0
 11
483.299999999999
 21
-1169.555269850887
 31
0.0
  0
LINE
  5
5249
330
1E
100
AcDbEntity
  8
SIZE
100
AcDbLine
 10
483.2999999999993
 20
-245.0433450000037
 30
0.0
 11
483.2999999999993
 21
-540.3365018461081
 31
0.0
  0
LINE
  5
524F
330
1E
100
AcDbEntity
  8
SIZE
100
AcDbLine
 10
-478.6999999999915
 20
-475.642477777002
 30
0.0
 11
-478.6999999999917
 21
-1199.555269850887
 31
0.0
  0
LINE
  5
5250
330
1E
100
AcDbEntity
  8
SIZE
100
AcDbLine
 10
-480.699999999997
 20
-468.3708800000021
 30
0.0
 11
-480.699999999997
 21
-1199.555269850887
 31
0.0
  0
LINE
  5
5251
330
1E
100
AcDbEntity
  8
SIZE
100
AcDbLine
 10
-468.6999999999915
 20
-1169.555269850887
 30
0.0
 11
-458.6999999999915
 21
-1169.555269850887
 31
0.0
  0
LINE
  5
5252
330
1E
100
AcDbEntity
  8
SIZE
100
AcDbLine
 10
-490.699999999997
 20
-1169.555269850887
 30
0.0
 11
-582.5426321117328
 21
-1169.555269850887
 31
0.0
  0
LINE
  5
5253
330
1E
100
AcDbEntity
  8
SIZE
100
AcDbLine
 10
-478.6999999999917
 20
-1169.555269850887
 30
0.0
 11
-480.699999999997
 21
-1169.555269850887
 31
0.0
  0
LINE
  5
5257
330
1E
100
AcDbEntity
  8
SIZE
100
AcDbLine
 10
-458.7000000000077
 20
0.0000000000000057
 30
0.0
 11
-964.4952837766503
 21
0.0000000000001489
 31
0.0
  0
LINE
  5
5258
330
1E
100
AcDbEntity
  8
SIZE
100
AcDbLine
 10
-457.4999999999998
 20
-680.0
 30
0.0
 11
-964.4952837766503
 21
-679.9999999999998
 31
0.0
  0
LINE
  5
5259
330
1E
100
AcDbEntity
  8
SIZE
100
AcDbLine
 10
-934.4952837766504
 20
-9.999999999999859
 30
0.0
 11
-934.4952837766504
 21
-669.9999999999999
 31
0.0
  0
LINE
  5
525D
330
1E
100
AcDbEntity
  8
SIZE
100
AcDbLine
 10
-457.0000000000071
 20
-456.2454205512221
 30
0.0
 11
-457.0000000000071
 21
-1010.247446721627
 31
0.0
  0
LINE
  5
525E
330
1E
100
AcDbEntity
  8
SIZE
100
AcDbLine
 10
460.0522900000029
 20
-466.5808959219027
 30
0.0
 11
460.0522900000029
 21
-1010.247446721627
 31
0.0
  0
LINE
  5
525F
330
1E
100
AcDbEntity
  8
SIZE
100
AcDbLine
 10
-447.0000000000071
 20
-980.2474467216271
 30
0.0
 11
450.0522900000032
 21
-980.2474467216271
 31
0.0
  0
LINE
  5
5263
330
1E
100
AcDbEntity
  8
SIZE
100
AcDbLine
 10
-480.699999999997
 20
-468.3708800000021
 30
0.0
 11
-480.699999999997
 21
-1346.70222151175
 31
0.0
  0
LINE
  5
5264
330
1E
100
AcDbEntity
  8
SIZE
100
AcDbLine
 10
483.2999999999993
 20
-468.3708800000021
 30
0.0
 11
483.299999999999
 21
-1346.70222151175
 31
0.0
  0
LINE
  5
5265
330
1E
100
AcDbEntity
  8
SIZE
100
AcDbLine
 10
-470.699999999997
 20
-1316.70222151175
 30
0.0
 11
473.2999999999989
 21
-1316.70222151175
 31
0.0
  0
LINE
  5
5269
330
1E
100
AcDbEntity
  8
SIZE
100
AcDbLine
 10
-478.6999999999915
 20
-475.642477777002
 30
0.0
 11
-478.6999999999917
 21
-1199.555269850887
 31
0.0
  0
LINE
  5
526A
330
1E
100
AcDbEntity
  8
SIZE
100
AcDbLine
 10
481.2999999999993
 20
-822.7002036606148
 30
0.0
 11
481.2999999999989
 21
-1199.555269850887
 31
0.0
  0
LINE
  5
526B
330
1E
100
AcDbEntity
  8
SIZE
100
AcDbLine
 10
-468.6999999999915
 20
-1169.555269850887
 30
0.0
 11
471.299999999999
 21
-1169.555269850887
 31
0.0
  0
LINE
  5
526F
330
1E
100
AcDbEntity
  8
SIZE
100
AcDbLine
 10
-458.7000000000077
 20
0.0000000000000057
 30
0.0
 11
-749.3711426280825
 21
0.000000000000088
 31
0.0
  0
LINE
  5
5270
330
1E
100
AcDbEntity
  8
SIZE
100
AcDbLine
 10
-497.0000000000071
 20
-79.99999999999999
 30
0.0
 11
-749.3711426280825
 21
-79.9999999999999
 31
0.0
  0
LINE
  5
5271
330
1E
100
AcDbEntity
  8
SIZE
100
AcDbLine
 10
-719.3711426280826
 20
10.00000000000007
 30
0.0
 11
-719.3711426280826
 21
20.00000000000007
 31
0.0
  0
LINE
  5
5272
330
1E
100
AcDbEntity
  8
SIZE
100
AcDbLine
 10
-719.3711426280826
 20
-89.99999999999991
 30
0.0
 11
-719.3711426280826
 21
-99.99999999999992
 31
0.0
  0
LINE
  5
5273
330
1E
100
AcDbEntity
  8
SIZE
100
AcDbLine
 10
-719.3711426280826
 20
0.0000000000000795
 30
0.0
 11
-719.3711426280826
 21
-79.9999999999999
 31
0.0
  0
LINE
  5
5277
330
1E
100
AcDbEntity
  8
SIZE
100
AcDbLine
 10
-496.1000000000057
 20
-79.99999999999999
 30
0.0
 11
-749.3711426280825
 21
-79.9999999999999
 31
0.0
  0
LINE
  5
5278
330
1E
100
AcDbEntity
  8
SIZE
100
AcDbLine
 10
-497.0000000000071
 20
-400.0
 30
0.0
 11
-749.3711426280825
 21
-399.9999999999998
 31
0.0
  0
LINE
  5
5279
330
1E
100
AcDbEntity
  8
SIZE
100
AcDbLine
 10
-719.3711426280826
 20
-89.99999999999991
 30
0.0
 11
-719.3711426280826
 21
-389.9999999999998
 31
0.0
  0
LINE
  5
527D
330
1E
100
AcDbEntity
  8
SIZE
100
AcDbLine
 10
-458.7000000000077
 20
0.0000000000000057
 30
0.0
 11
-616.2438087088774
 21
0.0000000000000503
 31
0.0
  0
LINE
  5
527E
330
1E
100
AcDbEntity
  8
SIZE
100
AcDbLine
 10
-443.699999999997
 20
-246.0000000000018
 30
0.0
 11
-616.2438087088774
 21
-246.0000000000017
 31
0.0
  0
LINE
  5
527F
330
1E
100
AcDbEntity
  8
SIZE
100
AcDbLine
 10
-586.2438087088776
 20
-9.99999999999996
 30
0.0
 11
-586.2438087088776
 21
-236.0000000000017
 31
0.0
  0
LINE
  5
5283
330
1E
100
AcDbEntity
  8
SIZE
100
AcDbLine
 10
-480.699999999997
 20
-266.0000000000018
 30
0.0
 11
-480.699999999997
 21
-386.9788704039784
 31
0.0
  0
LINE
  5
528A
330
1E
100
AcDbEntity
  8
SIZE
100
AcDbLine
 10
461.2999999999918
 20
-0.0000000000000057
 30
0.0
 11
854.8862110917212
 21
-0.0000000000001172
 31
0.0
  0
LINE
  5
528B
330
1E
100
AcDbEntity
  8
SIZE
100
AcDbLine
 10
435.2999999999993
 20
-203.0
 30
0.0
 11
854.8862110917212
 21
-203.0000000000001
 31
0.0
  0
LINE
  5
528C
330
1E
100
AcDbEntity
  8
SIZE
100
AcDbLine
 10
824.8862110917215
 20
-10.0000000000001
 30
0.0
 11
824.8862110917215
 21
-193.0000000000001
 31
0.0
  0
LINE
  5
5290
330
1E
100
AcDbEntity
  8
SIZE
100
AcDbLine
 10
461.2999999999918
 20
-0.0000000000000057
 30
0.0
 11
1007.353085702237
 21
-0.0000000000001603
 31
0.0
  0
LINE
  5
5291
330
1E
100
AcDbEntity
  8
SIZE
100
AcDbLine
 10
385.2999999999994
 20
-246.0
 30
0.0
 11
1007.353085702237
 21
-246.0000000000001
 31
0.0
  0
LINE
  5
5292
330
1E
100
AcDbEntity
  8
SIZE
100
AcDbLine
 10
977.3530857022379
 20
-10.00000000000015
 30
0.0
 11
977.3530857022379
 21
-236.0000000000001
 31
0.0
  0
LINE
  5
5296
330
1E
100
AcDbEntity
  8
SIZE
100
AcDbLine
 10
461.2999999999918
 20
-0.0000000000000057
 30
0.0
 11
701.2751468514141
 21
-0.0000000000000736
 31
0.0
  0
LINE
  5
5297
330
1E
100
AcDbEntity
  8
SIZE
100
AcDbLine
 10
350.2999999999993
 20
-184.0
 30
0.0
 11
701.2751468514141
 21
-184.0
 31
0.0
  0
LINE
  5
5298
330
1E
100
AcDbEntity
  8
SIZE
100
AcDbLine
 10
671.2751468514142
 20
-10.00000000000006
 30
0.0
 11
671.2751468514142
 21
-174.0
 31
0.0
  0
LINE
  5
529C
330
1E
100
AcDbEntity
  8
SIZE
100
AcDbLine
 10
395.2999999999993
 20
-163.0
 30
0.0
 11
395.2999999999993
 21
128.9884906005136
 31
0.0
  0
LINE
  5
529D
330
1E
100
AcDbEntity
  8
SIZE
100
AcDbLine
 10
310.2999999999993
 20
-144.0
 30
0.0
 11
310.2999999999993
 21
128.9884906005136
 31
0.0
  0
LINE
  5
529E
330
1E
100
AcDbEntity
  8
SIZE
100
AcDbLine
 10
385.2999999999994
 20
98.98849060051359
 30
0.0
 11
320.2999999999993
 21
98.98849060051359
 31
0.0
  0
LINE
  5
52A3
330
1E
100
AcDbEntity
  8
SIZE
100
AcDbLine
 10
395.2999999999993
 20
-163.0
 30
0.0
 11
395.2999999999993
 21
128.9884906005136
 31
0.0
  0
LINE
  5
52AA
330
1E
100
AcDbEntity
  8
SIZE
100
AcDbLine
 10
203.2999999999993
 20
40.0
 30
0.0
 11
203.2999999999993
 21
271.168449249013
 31
0.0
  0
LINE
  5
52AF
330
1E
100
AcDbEntity
  8
SIZE
100
AcDbLine
 10
197.2999999999993
 20
40.0
 30
0.0
 11
197.2999999999993
 21
384.5549252475284
 31
0.0
  0
LINE
  5
52B5
330
1E
100
AcDbEntity
  8
SIZE
100
AcDbLine
 10
203.2999999999993
 20
40.0
 30
0.0
 11
203.2999999999993
 21
271.168449249013
 31
0.0
  0
LINE
  5
52B6
330
1E
100
AcDbEntity
  8
SIZE
100
AcDbLine
 10
165.2999999999993
 20
40.0
 30
0.0
 11
165.2999999999993
 21
271.168449249013
 31
0.0
  0
LINE
  5
52B7
330
1E
100
AcDbEntity
  8
SIZE
100
AcDbLine
 10
213.2999999999993
 20
241.168449249013
 30
0.0
 11
223.2999999999993
 21
241.168449249013
 31
0.0
  0
LINE
  5
52B8
330
1E
100
AcDbEntity
  8
SIZE
100
AcDbLine
 10
155.2999999999993
 20
241.168449249013
 30
0.0
 11
84.11702341101227
 21
241.168449249013
 31
0.0
  0
LINE
  5
52B9
330
1E
100
AcDbEntity
  8
SIZE
100
AcDbLine
 10
203.2999999999993
 20
241.168449249013
 30
0.0
 11
165.2999999999993
 21
241.168449249013
 31
0.0
  0
LINE
  5
52BD
330
1E
100
AcDbEntity
  8
SIZE
100
AcDbLine
 10
159.2999999999993
 20
40.0
 30
0.0
 11
159.2999999999993
 21
384.5549252475284
 31
0.0
  0
LINE
  5
52BE
330
1E
100
AcDbEntity
  8
SIZE
100
AcDbLine
 10
197.2999999999993
 20
40.0
 30
0.0
 11
197.2999999999993
 21
384.5549252475284
 31
0.0
  0
LINE
  5
52BF
330
1E
100
AcDbEntity
  8
SIZE
100
AcDbLine
 10
149.2999999999993
 20
354.5549252475284
 30
0.0
 11
76.98188031639801
 21
354.5549252475284
 31
0.0
  0
LINE
  5
52C0
330
1E
100
AcDbEntity
  8
SIZE
100
AcDbLine
 10
207.2999999999993
 20
354.5549252475284
 30
0.0
 11
217.2999999999993
 21
354.5549252475284
 31
0.0
  0
LINE
  5
52C1
330
1E
100
AcDbEntity
  8
SIZE
100
AcDbLine
 10
159.2999999999993
 20
354.5549252475284
 30
0.0
 11
197.2999999999993
 21
354.5549252475284
 31
0.0
  0
TEXT
  5
52C5
330
1E
100
AcDbEntity
  8
SIZE
100
AcDbText
 10
-72.75714285713909
 20
-1149.555269850887
 30
0.0
 40
55.0
  1
960
 41
0.8
100
AcDbText
  0
TEXT
  5
52C6
330
1E
100
AcDbEntity
  8
SIZE
100
AcDbText
 10
-74.12857142857038
 20
-1296.70222151175
 30
0.0
 40
55.0
  1
964
 41
0.8
100
AcDbText
  0
TEXT
  5
52C7
330
1E
100
AcDbEntity
  8
SIZE
100
AcDbText
 10
-67.0452835714306
 20
-960.247446721627
 30
0.0
 40
55.0
  1
917
 41
0.8
100
AcDbText
  0
CIRCLE
  5
52C8
330
1E
100
AcDbEntity
  8
SIZE
100
AcDbCircle
 10
-934.4952837766504
 20
-679.9999999999998
 30
0.0
 40
5.0
  0
LINE
  5
52C9
330
1E
100
AcDbEntity
  8
SIZE
100
AcDbLine
 10
-934.4952837766504
 20
-679.9999999999998
 30
0.0
 11
-934.4952837766504
 21
-669.9999999999999
 31
0.0
  0
CIRCLE
  5
52CA
330
1E
100
AcDbEntity
  8
SIZE
100
AcDbCircle
 10
-480.699999999997
 20
-1316.70222151175
 30
0.0
 40
5.0
  0
LINE
  5
52CB
330
1E
100
AcDbEntity
  8
SIZE
100
AcDbLine
 10
-480.699999999997
 20
-1316.70222151175
 30
0.0
 11
-470.699999999997
 21
-1316.70222151175
 31
0.0
  0
TEXT
  5
52CC
330
1E
100
AcDbEntity
  8
SIZE
100
AcDbText
 10
-562.5426321117331
 20
-1149.555269850887
 30
0.0
 40
55.0
  1
2
 41
0.8
100
AcDbText
  0
CIRCLE
  5
52CD
330
1E
100
AcDbEntity
  8
SIZE
100
AcDbCircle
 10
-478.6999999999917
 20
-1169.555269850887
 30
0.0
 40
5.0
  0
LINE
  5
52CE
330
1E
100
AcDbEntity
  8
SIZE
100
AcDbLine
 10
-478.6999999999917
 20
-1169.555269850887
 30
0.0
 11
-468.6999999999915
 21
-1169.555269850887
 31
0.0
  0
CIRCLE
  5
52CF
330
1E
100
AcDbEntity
  8
SIZE
100
AcDbCircle
 10
-480.699999999997
 20
-1169.555269850887
 30
0.0
 40
5.0
  0
LINE
  5
52D0
330
1E
100
AcDbEntity
  8
SIZE
100
AcDbLine
 10
-480.699999999997
 20
-1169.555269850887
 30
0.0
 11
-490.699999999997
 21
-1169.555269850887
 31
0.0
  0
CIRCLE
  5
52D1
330
1E
100
AcDbEntity
  8
SIZE
100
AcDbCircle
 10
-478.6999999999917
 20
-1169.555269850887
 30
0.0
 40
5.0
  0
LINE
  5
52D2
330
1E
100
AcDbEntity
  8
SIZE
100
AcDbLine
 10
-478.6999999999917
 20
-1169.555269850887
 30
0.0
 11
-468.6999999999915
 21
-1169.555269850887
 31
0.0
  0
CIRCLE
  5
52D3
330
1E
100
AcDbEntity
  8
SIZE
100
AcDbCircle
 10
-457.0000000000071
 20
-980.2474467216271
 30
0.0
 40
5.0
  0
LINE
  5
52D4
330
1E
100
AcDbEntity
  8
SIZE
100
AcDbLine
 10
-457.0000000000071
 20
-980.2474467216271
 30
0.0
 11
-447.0000000000071
 21
-980.2474467216271
 31
0.0
  0
CIRCLE
  5
52D5
330
1E
100
AcDbEntity
  8
SIZE
100
AcDbCircle
 10
483.299999999999
 20
-1316.70222151175
 30
0.0
 40
5.0
  0
LINE
  5
52D6
330
1E
100
AcDbEntity
  8
SIZE
100
AcDbLine
 10
483.299999999999
 20
-1316.70222151175
 30
0.0
 11
473.2999999999989
 21
-1316.70222151175
 31
0.0
  0
TEXT
  5
52D7
330
1E
100
AcDbEntity
  8
SIZE
100
AcDbText
 10
523.2999999999996
 20
-1149.555269850887
 30
0.0
 40
55.0
  1
2
 41
0.8
100
AcDbText
  0
CIRCLE
  5
52D8
330
1E
100
AcDbEntity
  8
SIZE
100
AcDbCircle
 10
481.2999999999989
 20
-1169.555269850887
 30
0.0
 40
5.0
  0
LINE
  5
52D9
330
1E
100
AcDbEntity
  8
SIZE
100
AcDbLine
 10
481.2999999999989
 20
-1169.555269850887
 30
0.0
 11
471.299999999999
 21
-1169.555269850887
 31
0.0
  0
CIRCLE
  5
52DA
330
1E
100
AcDbEntity
  8
SIZE
100
AcDbCircle
 10
483.299999999999
 20
-1169.555269850887
 30
0.0
 40
5.0
  0
LINE
  5
52DB
330
1E
100
AcDbEntity
  8
SIZE
100
AcDbLine
 10
483.299999999999
 20
-1169.555269850887
 30
0.0
 11
493.299999999999
 21
-1169.555269850887
 31
0.0
  0
CIRCLE
  5
52DC
330
1E
100
AcDbEntity
  8
SIZE
100
AcDbCircle
 10
481.3000000000046
 20
-1169.555269850887
 30
0.0
 40
5.0
  0
LINE
  5
52DD
330
1E
100
AcDbEntity
  8
SIZE
100
AcDbLine
 10
481.3000000000046
 20
-1169.555269850887
 30
0.0
 11
471.3000000000047
 21
-1169.555269850887
 31
0.0
  0
CIRCLE
  5
52DE
330
1E
100
AcDbEntity
  8
SIZE
100
AcDbCircle
 10
460.0522900000029
 20
-980.2474467216271
 30
0.0
 40
5.0
  0
LINE
  5
52DF
330
1E
100
AcDbEntity
  8
SIZE
100
AcDbLine
 10
460.0522900000029
 20
-980.2474467216271
 30
0.0
 11
450.0522900000032
 21
-980.2474467216271
 31
0.0
  0
CIRCLE
  5
52E0
330
1E
100
AcDbEntity
  8
SIZE
100
AcDbCircle
 10
-719.3711426280826
 20
-399.9999999999998
 30
0.0
 40
5.0
  0
LINE
  5
52E1
330
1E
100
AcDbEntity
  8
SIZE
100
AcDbLine
 10
-719.3711426280826
 20
-399.9999999999998
 30
0.0
 11
-719.3711426280826
 21
-389.9999999999998
 31
0.0
  0
CIRCLE
  5
52E2
330
1E
100
AcDbEntity
  8
SIZE
100
AcDbCircle
 10
-719.3711426280826
 20
-79.9999999999999
 30
0.0
 40
5.0
  0
LINE
  5
52E3
330
1E
100
AcDbEntity
  8
SIZE
100
AcDbLine
 10
-719.3711426280826
 20
-79.9999999999999
 30
0.0
 11
-719.3711426280826
 21
-89.99999999999991
 31
0.0
  0
CIRCLE
  5
52E4
330
1E
100
AcDbEntity
  8
SIZE
100
AcDbCircle
 10
-719.3711426280826
 20
-79.9999999999999
 30
0.0
 40
5.0
  0
LINE
  5
52E5
330
1E
100
AcDbEntity
  8
SIZE
100
AcDbLine
 10
-719.3711426280826
 20
-79.9999999999999
 30
0.0
 11
-719.3711426280826
 21
-89.99999999999991
 31
0.0
  0
CIRCLE
  5
52E6
330
1E
100
AcDbEntity
  8
SIZE
100
AcDbCircle
 10
-719.3711426280826
 20
0.0000000000000795
 30
0.0
 40
5.0
  0
LINE
  5
52E7
330
1E
100
AcDbEntity
  8
SIZE
100
AcDbLine
 10
-719.3711426280826
 20
0.0000000000000795
 30
0.0
 11
-719.3711426280826
 21
10.00000000000007
 31
0.0
  0
TEXT
  5
52E8
330
1E
100
AcDbEntity
  8
SIZE
100
AcDbText
 10
-739.3711426280825
 20
-86.62857142857149
 30
0.0
 40
55.0
  1
80
 50
90.0
 41
0.8
100
AcDbText
  0
TEXT
  5
52E9
330
1E
100
AcDbEntity
  8
SIZE
100
AcDbText
 10
-739.3711426280825
 20
-314.0571428571412
 30
0.0
 40
55.0
  1
320
 50
90.0
 41
0.8
100
AcDbText
  0
TEXT
  5
52EA
330
1E
100
AcDbEntity
  8
SIZE
100
AcDbText
 10
-954.4952837766503
 20
-414.0571428571426
 30
0.0
 40
55.0
  1
680
 50
90.0
 41
0.8
100
AcDbText
  0
CIRCLE
  5
52EB
330
1E
100
AcDbEntity
  8
SIZE
100
AcDbCircle
 10
-934.4952837766504
 20
0.0000000000001404
 30
0.0
 40
5.0
  0
LINE
  5
52EC
330
1E
100
AcDbEntity
  8
SIZE
100
AcDbLine
 10
-934.4952837766504
 20
0.0000000000001404
 30
0.0
 11
-934.4952837766504
 21
-9.999999999999859
 31
0.0
  0
TEXT
  5
52F2
330
1E
100
AcDbEntity
  8
SIZE
100
AcDbText
 10
-606.2438087088776
 20
-210.3429724371062
 30
0.0
 40
55.0
  1
246
 50
90.0
 41
0.8
100
AcDbText
  0
CIRCLE
  5
52F3
330
1E
100
AcDbEntity
  8
SIZE
100
AcDbCircle
 10
-586.2438087088776
 20
-246.0000000000017
 30
0.0
 40
5.0
  0
LINE
  5
52F4
330
1E
100
AcDbEntity
  8
SIZE
100
AcDbLine
 10
-586.2438087088776
 20
-246.0000000000017
 30
0.0
 11
-586.2438087088776
 21
-236.0000000000017
 31
0.0
  0
CIRCLE
  5
52F5
330
1E
100
AcDbEntity
  8
SIZE
100
AcDbCircle
 10
-586.2438087088776
 20
0.0000000000000418
 30
0.0
 40
5.0
  0
LINE
  5
52F6
330
1E
100
AcDbEntity
  8
SIZE
100
AcDbLine
 10
-586.2438087088776
 20
0.0000000000000418
 30
0.0
 11
-586.2438087088776
 21
-9.999999999999957
 31
0.0
  0
TEXT
  5
52F7
330
1E
100
AcDbEntity
  8
SIZE
100
AcDbText
 10
651.2751468514141
 20
-161.9428571428571
 30
0.0
 40
55.0
  1
184
 50
90.0
 41
0.8
100
AcDbText
  0
CIRCLE
  5
52FD
330
1E
100
AcDbEntity
  8
SIZE
100
AcDbCircle
 10
671.2751468514142
 20
-184.0
 30
0.0
 40
5.0
  0
LINE
  5
52FE
330
1E
100
AcDbEntity
  8
SIZE
100
AcDbLine
 10
671.2751468514142
 20
-184.0
 30
0.0
 11
671.2751468514142
 21
-174.0
 31
0.0
  0
TEXT
  5
5301
330
1E
100
AcDbEntity
  8
SIZE
100
AcDbText
 10
316.9920288868817
 20
118.5502538000319
 30
0.0
 40
55.0
  1
85
 41
0.8
100
AcDbText
  0
CIRCLE
  5
5302
330
1E
100
AcDbEntity
  8
SIZE
100
AcDbCircle
 10
310.2999999999993
 20
98.98849060051359
 30
0.0
 40
5.0
  0
LINE
  5
5303
330
1E
100
AcDbEntity
  8
SIZE
100
AcDbLine
 10
310.2999999999993
 20
98.98849060051359
 30
0.0
 11
320.2999999999993
 21
98.98849060051359
 31
0.0
  0
TEXT
  5
5304
330
1E
100
AcDbEntity
  8
SIZE
100
AcDbText
 10
76.53386824355038
 20
374.560111955574
 30
0.0
 40
55.0
  1
38
 41
0.8
100
AcDbText
  0
TEXT
  5
5305
330
1E
100
AcDbEntity
  8
SIZE
100
AcDbText
 10
76.53386824355038
 20
264.2801581124486
 30
0.0
 40
55.0
  1
38
 41
0.8
100
AcDbText
  0
CIRCLE
  5
5306
330
1E
100
AcDbEntity
  8
SIZE
100
AcDbCircle
 10
165.2999999999993
 20
241.168449249013
 30
0.0
 40
5.0
  0
LINE
  5
5307
330
1E
100
AcDbEntity
  8
SIZE
100
AcDbLine
 10
165.2999999999993
 20
241.168449249013
 30
0.0
 11
155.2999999999993
 21
241.168449249013
 31
0.0
  0
CIRCLE
  5
5308
330
1E
100
AcDbEntity
  8
SIZE
100
AcDbCircle
 10
159.2999999999993
 20
354.5549252475284
 30
0.0
 40
5.0
  0
LINE
  5
5309
330
1E
100
AcDbEntity
  8
SIZE
100
AcDbLine
 10
159.2999999999993
 20
354.5549252475284
 30
0.0
 11
149.2999999999993
 21
354.5549252475284
 31
0.0
  0
CIRCLE
  5
530A
330
1E
100
AcDbEntity
  8
SIZE
100
AcDbCircle
 10
203.2999999999993
 20
241.168449249013
 30
0.0
 40
5.0
  0
LINE
  5
530B
330
1E
100
AcDbEntity
  8
SIZE
100
AcDbLine
 10
203.2999999999993
 20
241.168449249013
 30
0.0
 11
213.2999999999993
 21
241.168449249013
 31
0.0
  0
CIRCLE
  5
530C
330
1E
100
AcDbEntity
  8
SIZE
100
AcDbCircle
 10
203.2999999999993
 20
241.168449249013
 30
0.0
 40
5.0
  0
LINE
  5
530D
330
1E
100
AcDbEntity
  8
SIZE
100
AcDbLine
 10
203.2999999999993
 20
241.168449249013
 30
0.0
 11
213.2999999999993
 21
241.168449249013
 31
0.0
  0
CIRCLE
  5
530E
330
1E
100
AcDbEntity
  8
SIZE
100
AcDbCircle
 10
197.2999999999993
 20
354.5549252475284
 30
0.0
 40
5.0
  0
LINE
  5
530F
330
1E
100
AcDbEntity
  8
SIZE
100
AcDbLine
 10
197.2999999999993
 20
354.5549252475284
 30
0.0
 11
207.2999999999993
 21
354.5549252475284
 31
0.0
  0
CIRCLE
  5
5310
330
1E
100
AcDbEntity
  8
SIZE
100
AcDbCircle
 10
197.2999999999993
 20
354.5549252475284
 30
0.0
 40
5.0
  0
LINE
  5
5311
330
1E
100
AcDbEntity
  8
SIZE
100
AcDbLine
 10
197.2999999999993
 20
354.5549252475284
 30
0.0
 11
207.2999999999993
 21
354.5549252475284
 31
0.0
  0
CIRCLE
  5
5315
330
1E
100
AcDbEntity
  8
SIZE
100
AcDbCircle
 10
395.2999999999993
 20
98.98849060051359
 30
0.0
 40
5.0
  0
LINE
  5
5316
330
1E
100
AcDbEntity
  8
SIZE
100
AcDbLine
 10
395.2999999999993
 20
98.98849060051359
 30
0.0
 11
405.2999999999993
 21
98.98849060051359
 31
0.0
  0
CIRCLE
  5
5317
330
1E
100
AcDbEntity
  8
SIZE
100
AcDbCircle
 10
395.2999999999993
 20
98.98849060051359
 30
0.0
 40
5.0
  0
LINE
  5
5318
330
1E
100
AcDbEntity
  8
SIZE
100
AcDbLine
 10
395.2999999999993
 20
98.98849060051359
 30
0.0
 11
385.2999999999994
 21
98.98849060051359
 31
0.0
  0
CIRCLE
  5
5319
330
1E
100
AcDbEntity
  8
SIZE
100
AcDbCircle
 10
671.2751468514142
 20
-0.0000000000000651
 30
0.0
 40
5.0
  0
LINE
  5
531A
330
1E
100
AcDbEntity
  8
SIZE
100
AcDbLine
 10
671.2751468514142
 20
-0.0000000000000651
 30
0.0
 11
671.2751468514142
 21
-10.00000000000006
 31
0.0
  0
TEXT
  5
531F
330
1E
100
AcDbEntity
  8
SIZE
100
AcDbText
 10
804.8862110917212
 20
-175.5571428571428
 30
0.0
 40
55.0
  1
203
 50
90.0
 41
0.8
100
AcDbText
  0
TEXT
  5
5320
330
1E
100
AcDbEntity
  8
SIZE
100
AcDbText
 10
957.3530857022374
 20
-195.6857142857142
 30
0.0
 40
55.0
  1
246
 50
90.0
 41
0.8
100
AcDbText
  0
CIRCLE
  5
5321
330
1E
100
AcDbEntity
  8
SIZE
100
AcDbCircle
 10
824.8862110917215
 20
-203.0000000000001
 30
0.0
 40
5.0
  0
LINE
  5
5322
330
1E
100
AcDbEntity
  8
SIZE
100
AcDbLine
 10
824.8862110917215
 20
-203.0000000000001
 30
0.0
 11
824.8862110917215
 21
-193.0000000000001
 31
0.0
  0
CIRCLE
  5
5323
330
1E
100
AcDbEntity
  8
SIZE
100
AcDbCircle
 10
977.3530857022379
 20
-246.0000000000001
 30
0.0
 40
5.0
  0
LINE
  5
5324
330
1E
100
AcDbEntity
  8
SIZE
100
AcDbLine
 10
977.3530857022379
 20
-246.0000000000001
 30
0.0
 11
977.3530857022379
 21
-236.0000000000001
 31
0.0
  0
CIRCLE
  5
5325
330
1E
100
AcDbEntity
  8
SIZE
100
AcDbCircle
 10
824.8862110917215
 20
-0.0000000000001087
 30
0.0
 40
5.0
  0
LINE
  5
5326
330
1E
100
AcDbEntity
  8
SIZE
100
AcDbLine
 10
824.8862110917215
 20
-0.0000000000001087
 30
0.0
 11
824.8862110917215
 21
-10.0000000000001
 31
0.0
  0
CIRCLE
  5
5327
330
1E
100
AcDbEntity
  8
SIZE
100
AcDbCircle
 10
977.3530857022379
 20
-0.0000000000001519
 30
0.0
 40
5.0
  0
LINE
  5
5328
330
1E
100
AcDbEntity
  8
SIZE
100
AcDbLine
 10
977.3530857022379
 20
-0.0000000000001519
 30
0.0
 11
977.3530857022379
 21
-10.00000000000015
 31
0.0
  0
LINE
  5
532B
330
1E
100
AcDbEntity
  8
OUTLINE
100
AcDbLine
 10
481.2999999999919
 20
-674.2441899999994
 30
0.0
 11
481.2999999999919
 21
-462.3708799999985
 31
0.0
  0
LINE
  5
5332
330
1E
100
AcDbEntity
  8
OUTLINE
100
AcDbLine
 10
-478.7000000000076
 20
-674.2441899999994
 30
0.0
 11
-478.7000000000076
 21
-462.3708799999985
 31
0.0
  0
LINE
  5
5337
330
1E
100
AcDbEntity
  8
OUTLINE
100
AcDbLine
 10
-437.4999999999998
 20
-680.0
 30
0.0
 11
440.1000000000038
 21
-680.0
 31
0.0
  0
LINE
  5
533B
330
1E
100
AcDbEntity
  8
OUTLINE
100
AcDbLine
 10
-437.4999999999998
 20
-680.0
 30
0.0
 11
-473.7872699999932
 21
-679.2434299999967
 31
0.0
  0
ARC
  5
533E
330
1E
100
AcDbEntity
  8
OUTLINE
100
AcDbCircle
 10
-473.7000000000078
 20
-674.2441899999994
 30
0.0
 40
5.0
100
AcDbArc
 50
180.0
 51
269.0000000000236
  0
LINE
  5
5350
330
1E
100
AcDbEntity
  8
OUTLINE
100
AcDbLine
 10
441.2999999999919
 20
-679.8558800000046
 30
0.0
 11
441.2999999999919
 21
-678.7999999999993
 31
0.0
  0
LINE
  5
5353
330
1E
100
AcDbEntity
  8
OUTLINE
100
AcDbLine
 10
441.2999999999919
 20
-679.8558800000046
 30
0.0
 11
476.3872599999922
 21
-679.2434299999967
 31
0.0
  0
ARC
  5
5354
330
1E
100
AcDbEntity
  8
OUTLINE
100
AcDbCircle
 10
440.1000000000022
 20
-678.7999999999993
 30
0.0
 40
1.199999999999999
100
AcDbArc
 50
270.0
 51
0.0
  0
ARC
  5
5357
330
1E
100
AcDbEntity
  8
OUTLINE
100
AcDbCircle
 10
476.2999999999919
 20
-674.2441899999994
 30
0.0
 40
5.0
100
AcDbArc
 50
270.9999999999764
 51
0.0
  0
LINE
  5
5369
330
1E
100
AcDbEntity
  8
OUTLINE
100
AcDbLine
 10
442.5999999999913
 20
0.0
 30
0.0
 11
-439.9999999999926
 21
0.0
 31
0.0
  0
LINE
  5
5378
330
1E
100
AcDbEntity
  8
OUTLINE
100
AcDbLine
 10
-480.699999999997
 20
-1.715810000005149
 30
0.0
 11
-480.699999999997
 21
-448.3708800000022
 31
0.0
  0
ARC
  5
5389
330
1E
100
AcDbEntity
  8
OUTLINE
100
AcDbCircle
 10
-430.699999999997
 20
-448.3708800000022
 30
0.0
 40
50.0
100
AcDbArc
 50
180.0
 51
196.2602047082675
  0
LINE
  5
5411
330
1E
100
AcDbEntity
  8
OUTLINE
100
AcDbLine
 10
-438.700000000008
 20
0.0
 30
0.0
 11
-479.7174599999925
 21
-0.7159599999977218
 31
0.0
  0
ARC
  5
5412
330
1E
100
AcDbEntity
  8
OUTLINE
100
AcDbCircle
 10
-479.6999999999932
 20
-1.715810000005149
 30
0.0
 40
1.0
100
AcDbArc
 50
90.99999999997571
 51
180.0
  0
LINE
  5
541F
330
1E
100
AcDbEntity
  8
OUTLINE
100
AcDbLine
 10
483.2999999999993
 20
-1.715810000005149
 30
0.0
 11
483.2999999999993
 21
-448.3708800000022
 31
0.0
  0
ARC
  5
5476
330
1E
100
AcDbEntity
  8
OUTLINE
100
AcDbCircle
 10
433.2999999999993
 20
-448.3708800000022
 30
0.0
 40
50.0
100
AcDbArc
 50
343.7397952916581
 51
0.0
  0
LINE
  5
54B6
330
1E
100
AcDbEntity
  8
OUTLINE
100
AcDbLine
 10
441.2999999999919
 20
0.0
 30
0.0
 11
482.3174499999914
 21
-0.7159599999977218
 31
0.0
  0
ARC
  5
54B8
330
1E
100
AcDbEntity
  8
OUTLINE
100
AcDbCircle
 10
482.2999999999956
 20
-1.715810000005149
 30
0.0
 40
1.0
100
AcDbArc
 50
0.0
 51
89.0000000000243
  0
LINE
  5
5543
330
1E
100
AcDbEntity
  8
NOTE
  6
Continuous
100
AcDbLine
 10
1044.861291712977
 20
-471.3742360036776
 30
0.0
 11
1044.861291712977
 21
-471.3742360036776
 31
0.0
  0
LINE
  5
5544
330
1E
100
AcDbEntity
  8
NOTE
  6
Continuous
100
AcDbLine
 10
1044.861291712977
 20
-471.3742360036776
 30
0.0
 11
1398.635742343711
 21
-471.3742360036776
 31
0.0
  0
DIMENSION
  5
5587
330
1E
100
AcDbEntity
  8
SIZE
  6
Continuous
100
AcDbDimension
  2
*D1
 10
395.2999999999993
 20
98.99137383964808
 30
0.0
 11
556.5571428571344
 21
98.99137383964808
 31
0.0
 70
   160
 71
     5
 42
85.99999999999262
  3
STANDARD
100
AcDbAlignedDimension
 13
481.2999999999919
 23
-462.3708800000271
 33
0.0
 14
395.2999999999993
 24
-203.0
 34
0.0
100
AcDbRotatedDimension
1001
ACAD
1000
DSTYLE
1002
{
1070
    41
1040
10.0
1070
    42
1040
20.0
1070
    43
1040
200.0
1070
    44
1040
30.0
1070
    73
1070
     0
1070
    74
1070
     0
1070
    77
1070
     1
1070
    78
1070
     8
1070
   140
1040
64.0
1070
   147
1040
20.0
1070
   172
1070
     1
1070
   174
1070
     1
1070
   341
1005
125
1070
   342
1005
125
1002
}
  0
DIMENSION
  5
5596
330
1E
100
AcDbEntity
  8
SIZE
  6
Continuous
100
AcDbDimension
  2
*D2
 10
203.2999999999993
 20
240.9402435302418
 30
0.0
 11
342.2999999999956
 21
292.9402435302418
 31
0.0
 70
    32
 71
     5
 42
277.9999999999926
  3
STANDARD
100
AcDbAlignedDimension
 13
481.2999999999919
 23
-462.3708800000273
 33
0.0
 14
203.2999999999993
 24
-20.0
 34
0.0
100
AcDbRotatedDimension
1001
ACAD
1000
DSTYLE
1002
{
1070
    41
1040
10.0
1070
    42
1040
20.0
1070
    43
1040
200.0
1070
    44
1040
30.0
1070
    73
1070
     0
1070
    74
1070
     0
1070
    77
1070
     1
1070
    78
1070
     8
1070
   140
1040
64.0
1070
   147
1040
20.0
1070
   172
1070
     1
1070
   174
1070
     1
1070
   341
1005
125
1070
   342
1005
125
1002
}
  0
DIMENSION
  5
55A3
330
1E
100
AcDbEntity
  8
SIZE
  6
Continuous
100
AcDbDimension
  2
*D3
 10
197.2999999999993
 20
354.6587476595905
 30
0.0
 11
339.2999999999956
 21
406.6587476595905
 31
0.0
 70
    32
 71
     5
 42
283.9999999999926
  3
STANDARD
100
AcDbAlignedDimension
 13
481.2999999999919
 23
-462.3708799999985
 33
0.0
 14
197.2999999999993
 24
-20.0
 34
0.0
100
AcDbRotatedDimension
1001
ACAD
1000
DSTYLE
1002
{
1070
    41
1040
10.0
1070
    42
1040
20.0
1070
    43
1040
200.0
1070
    44
1040
30.0
1070
    73
1070
     0
1070
    74
1070
     0
1070
    77
1070
     1
1070
    78
1070
     8
1070
   140
1040
64.0
1070
   147
1040
20.0
1070
   172
1070
     1
1070
   174
1070
     1
1070
   341
1005
125
1070
   342
1005
125
1002
}
  0
DIMENSION
  5
55C4
330
1E
100
AcDbEntity
  8
SIZE
  6
Continuous
100
AcDbDimension
  2
*D4
 10
481.2999999999919
 20
-828.0101113281567
 30
0.0
 11
259.4246546338018
 21
-775.3350941665766
 31
0.0
 70
   160
 71
     5
 42
137.9999999999926
  3
STANDARD
100
AcDbAlignedDimension
 13
343.2999999999993
 23
-266.0
 33
0.0
 14
481.2999999999919
 24
-462.3708800000271
 34
0.0
100
AcDbRotatedDimension
1001
ACAD
1000
DSTYLE
1002
{
1070
    41
1040
10.0
1070
    42
1040
20.0
1070
    43
1040
200.0
1070
    44
1040
30.0
1070
    73
1070
     0
1070
    74
1070
     0
1070
    77
1070
     1
1070
    78
1070
     8
1070
   140
1040
64.0
1070
   147
1040
20.0
1070
   172
1070
     1
1070
   174
1070
     1
1070
   271
1070
     0
1070
   272
1070
     0
1070
   279
1070
     2
1070
   341
1005
125
1070
   342
1005
125
1002
}
  0
DIMENSION
  5
55F1
330
1E
100
AcDbEntity
  8
SIZE
  6
Continuous
100
AcDbDimension
  2
*D5
 10
-478.7000000000076
 20
-492.7215443364275
 30
0.0
 11
-587.1806881819471
 21
-492.7215443364275
 31
0.0
 70
   160
 71
     5
 42
75.00000000001057
  3
STANDARD
100
AcDbAlignedDimension
 13
-403.699999999997
 23
-265.3309101330882
 33
0.0
 14
-478.7000000000076
 24
-462.3708799999985
 34
0.0
100
AcDbRotatedDimension
1001
ACAD
1000
DSTYLE
1002
{
1070
    41
1040
10.0
1070
    42
1040
20.0
1070
    43
1040
200.0
1070
    44
1040
30.0
1070
    73
1070
     0
1070
    74
1070
     0
1070
    77
1070
     1
1070
    78
1070
     8
1070
   140
1040
64.0
1070
   147
1040
20.0
1070
   172
1070
     1
1070
   174
1070
     1
1070
   271
1070
     0
1070
   272
1070
     0
1070
   341
1005
125
1070
   342
1005
125
1002
}
  0
LINE
  5
569D
330
1E
100
AcDbEntity
  8
SIZE
  6
Continuous
100
AcDbLine
 10
343.2999999999993
 20
-828.0101113281567
 30
0.0
 11
199.2256029059681
 21
-828.0101113281567
 31
0.0
  0
VIEWPORT
  5
523B
330
1A
100
AcDbEntity
 67
     1
  8
0
  6
Continuous
100
AcDbViewport
 10
0.0
 20
0.0
 30
0.0
 40
0.0
 41
0.0
 68
     1
 69
     1
 12
0.0
 22
0.0
 13
0.0
 23
0.0
 14
10.0
 24
10.0
 15
10.0
 25
10.0
 16
0.0
 26
0.0
 36
1.0
 17
0.0
 27
0.0
 37
0.0
 42
50.0
 43
0.0
 44
0.0
 45
0.0
 50
0.0
 51
0.0
 72
   500
 90
    32800
  1

281
     0
 71
     1
 74
     0
110
0.0
120
0.0
130
0.0
111
1.0
121
0.0
131
0.0
112
0.0
122
1.0
132
0.0
 79
     0
146
0.0
170
     0
  0
VIEWPORT
  5
523D
330
1A
100
AcDbEntity
 67
     1
  8
SIZE
  6
Continuous
100
AcDbViewport
 10
0.0
 20
0.0
 30
0.0
 40
0.0
 41
0.0
 68
     0
 69
     2
 12
856.3357600192235
 22
-457.0977056749288
 13
0.0
 23
0.0
 14
400.0
 24
400.0
 15
400.0
 25
400.0
 16
0.0
 26
0.0
 36
1.0
 17
0.0
 27
0.0
 37
0.0
 42
50.0
 43
0.0
 44
0.0
 45
4243.491610511205
 50
0.0
 51
0.0
 72
   500
 90
   167936
  1

281
     0
 71
     1
 74
     0
110
0.0
120
0.0
130
0.0
111
1.0
121
0.0
131
0.0
112
0.0
122
1.0
132
0.0
 79
     0
146
0.0
170
     0
  0
ENDSEC
  0
SECTION
  2
OBJECTS
  0
DICTIONARY
  5
C
330
0
100
AcDbDictionary
281
     1
  3
ACAD_CIP_PREVIOUS_PRODUCT_INFO
350
5538
  3
ACAD_COLOR
350
551B
  3
ACAD_DETAILVIEWSTYLE
350
5534
  3
ACAD_GROUP
350
D
  3
ACAD_LAYOUT
350
19
  3
ACAD_MATERIAL
350
54E9
  3
ACAD_MLEADERSTYLE
350
5530
  3
ACAD_MLINESTYLE
350
16
  3
ACAD_PLOTSETTINGS
350
18
  3
ACAD_PLOTSTYLENAME
350
E
  3
ACAD_SCALELIST
350
551E
  3
ACAD_SECTIONVIEWSTYLE
350
5532
  3
ACAD_TABLESTYLE
350
551C
  3
ACAD_VISUALSTYLE
350
5502
  3
ACDB_RECOMPOSE_DATA
350
58B1
  3
AcDbVariableDictionary
350
5545
  0
DICTIONARY
  5
57DC
330
2
100
AcDbDictionary
280
     1
281
     1
  3
ACAD_LAYERSTATES
360
57DD
  0
DICTIONARY
  5
554A
330
10
100
AcDbDictionary
280
     1
281
     1
  3
ADSK_XREC_LAYER_RECONCILED
360
554B
  0
DICTIONARY
  5
554C
330
28
100
AcDbDictionary
280
     1
281
     1
  3
ADSK_XREC_LAYER_RECONCILED
360
554D
  0
DICTIONARY
  5
554E
330
29
100
AcDbDictionary
280
     1
281
     1
  3
ADSK_XREC_LAYER_RECONCILED
360
554F
  0
DICTIONARY
  5
5550
330
2A
100
AcDbDictionary
280
     1
281
     1
  3
ADSK_XREC_LAYER_RECONCILED
360
5551
  0
DICTIONARY
  5
5552
330
2B
100
AcDbDictionary
280
     1
281
     1
  3
ADSK_XREC_LAYER_RECONCILED
360
5553
  0
DICTIONARY
  5
5554
330
2D
100
AcDbDictionary
280
     1
281
     1
  3
ADSK_XREC_LAYER_RECONCILED
360
5555
  0
DICTIONARY
  5
5556
330
2E
100
AcDbDictionary
280
     1
281
     1
  3
ADSK_XREC_LAYER_RECONCILED
360
5557
  0
DICTIONARY
  5
5558
330
2F
100
AcDbDictionary
280
     1
281
     1
  3
ADSK_XREC_LAYER_RECONCILED
360
5559
  0
DICTIONARY
  5
555A
330
30
100
AcDbDictionary
280
     1
281
     1
  3
ADSK_XREC_LAYER_RECONCILED
360
555B
  0
XRECORD
  5
5538
102
{ACAD_REACTORS
330
C
102
}
330
C
100
AcDbXrecord
280
     1
300
ACD
300
2018
300
86830ACD_2018_0F
  0
DICTIONARY
  5
551B
102
{ACAD_REACTORS
330
C
102
}
330
C
100
AcDbDictionary
281
     1
  0
DICTIONARY
  5
5534
102
{ACAD_REACTORS
330
C
102
}
330
C
100
AcDbDictionary
281
     1
  3
Imperial24
350
5535
  0
DICTIONARY
  5
D
102
{ACAD_REACTORS
330
C
102
}
330
C
100
AcDbDictionary
281
     1
  0
DICTIONARY
  5
19
102
{ACAD_REACTORS
330
C
102
}
330
C
100
AcDbDictionary
281
     1
  3
Model
350
5536
  3
レイアウト1
350
5537
  0
DICTIONARY
  5
54E9
102
{ACAD_REACTORS
330
C
102
}
330
C
100
AcDbDictionary
281
     1
  3
ByBlock
350
54F2
  3
ByLayer
350
54EA
  3
Global
350
54FA
  0
DICTIONARY
  5
5530
102
{ACAD_REACTORS
330
C
102
}
330
C
100
AcDbDictionary
281
     1
  3
Standard
350
5531
  0
DICTIONARY
  5
16
102
{ACAD_REACTORS
330
C
102
}
330
C
100
AcDbDictionary
281
     1
  3
STANDARD
350
17
  0
DICTIONARY
  5
18
102
{ACAD_REACTORS
330
C
102
}
330
C
100
AcDbDictionary
281
     1
  0
ACDBDICTIONARYWDFLT
  5
E
102
{ACAD_REACTORS
330
C
102
}
330
C
100
AcDbDictionary
281
     1
  3
Normal
350
F
100
AcDbDictionaryWithDefault
340
F
  0
DICTIONARY
  5
551E
102
{ACAD_REACTORS
330
C
102
}
330
C
100
AcDbDictionary
281
     1
  3
A0
350
551F
  3
A1
350
5520
  3
A2
350
5521
  3
A3
350
5522
  3
A4
350
5523
  3
A5
350
5524
  3
A6
350
5525
  3
A7
350
5526
  3
A8
350
5527
  3
A9
350
5528
  3
B0
350
5529
  3
B1
350
552A
  3
B2
350
552B
  3
B3
350
552C
  3
B4
350
552D
  3
B5
350
552E
  3
B6
350
552F
  0
DICTIONARY
  5
5532
102
{ACAD_REACTORS
330
C
102
}
330
C
100
AcDbDictionary
281
     1
  3
Imperial24
350
5533
  0
DICTIONARY
  5
551C
102
{ACAD_REACTORS
330
C
102
}
330
C
100
AcDbDictionary
281
     1
  3
Standard
350
551D
  0
DICTIONARY
  5
5502
102
{ACAD_REACTORS
330
C
102
}
330
C
100
AcDbDictionary
281
     1
  3
2dWireframe
350
5508
  3
Basic
350
5507
  3
Brighten
350
550E
  3
ColorChange
350
5512
  3
Conceptual
350
550B
  3
Dim
350
550D
  3
EdgeColorOff
350
551A
  3
Facepattern
350
5511
  3
Flat
350
5503
  3
FlatWithEdges
350
5504
  3
Gouraud
350
5505
  3
GouraudWithEdges
350
5506
  3
Hidden
350
550A
  3
JitterOff
350
5518
  3
Linepattern
350
5510
  3
OverhangOff
350
5519
  3
Realistic
350
550C
  3
Shaded
350
5517
  3
Shaded with edges
350
5516
  3
Shades of Gray
350
5513
  3
Sketchy
350
5514
  3
Thicken
350
550F
  3
Wireframe
350
5509
  3
X-Ray
350
5515
  0
XRECORD
  5
58B1
102
{ACAD_REACTORS
330
C
102
}
330
C
100
AcDbXrecord
280
     1
 90
        1
330
551D
  0
DICTIONARY
  5
5545
102
{ACAD_REACTORS
330
C
102
}
330
C
100
AcDbDictionary
281
     1
  3
CANNOSCALE
350
5561
  3
CMLEADERSTYLE
350
555D
  3
CTABLESTYLE
350
555C
  3
CVIEWDETAILSTYLE
350
555E
  3
CVIEWSECTIONSTYLE
350
555F
  3
DIMLAYER
350
5546
  3
LAYEREVAL
350
5563
  3
LAYERNOTIFY
350
5564
  3
LIGHTINGUNITS
350
5562
  3
LOFTANG1
350
58AD
  3
LOFTANG2
350
58AE
  3
MSLTSCALE
350
5560
  3
XCLIPFRAME
350
58AF
  0
DICTIONARY
  5
57DD
102
{ACAD_REACTORS
330
57DC
102
}
330
57DC
100
AcDbDictionary
281
     1
  0
XRECORD
  5
554B
102
{ACAD_REACTORS
330
554A
102
}
330
554A
100
AcDbXrecord
280
     1
290
     1
  0
XRECORD
  5
554D
102
{ACAD_REACTORS
330
554C
102
}
330
554C
100
AcDbXrecord
280
     1
290
     1
  0
XRECORD
  5
554F
102
{ACAD_REACTORS
330
554E
102
}
330
554E
100
AcDbXrecord
280
     1
290
     1
  0
XRECORD
  5
5551
102
{ACAD_REACTORS
330
5550
102
}
330
5550
100
AcDbXrecord
280
     1
290
     1
  0
XRECORD
  5
5553
102
{ACAD_REACTORS
330
5552
102
}
330
5552
100
AcDbXrecord
280
     1
290
     1
  0
XRECORD
  5
5555
102
{ACAD_REACTORS
330
5554
102
}
330
5554
100
AcDbXrecord
280
     1
290
     1
  0
XRECORD
  5
5557
102
{ACAD_REACTORS
330
5556
102
}
330
5556
100
AcDbXrecord
280
     1
290
     1
  0
XRECORD
  5
5559
102
{ACAD_REACTORS
330
5558
102
}
330
5558
100
AcDbXrecord
280
     1
290
     1
  0
XRECORD
  5
555B
102
{ACAD_REACTORS
330
555A
102
}
330
555A
100
AcDbXrecord
280
     1
290
     1
  0
ACDBDETAILVIEWSTYLE
  5
5535
102
{ACAD_XDICTIONARY
360
58E5
102
}
102
{ACAD_REACTORS
330
5534
102
}
330
5534
100
AcDbModelDocViewStyle
 70
     0
  3
Imperial24
290
     0
100
AcDbDetailViewStyle
 70
     0
 71
     0
 90
        3
 71
     1
340
11
 62
   256
 40
0.24
340
0
 62
   256
 40
0.24
300

 40
0.36
280
     3
 71
     2
340
15
 90
       25
 62
   256
 71
     3
340
11
 62
   256
 40
0.24
 90
        1
 40
0.75
 90
        1
300
%<\AcVar ViewType \f "%tc1">% %<\AcVar ViewDetailId>%\PSCALE %<\AcVar ViewScale \f "%sn">%
 71
     4
340
15
 90
       25
 62
   256
340
15
 90
       25
 62
   256
280
     0
  0
LAYOUT
  5
5536
102
{ACAD_REACTORS
330
19
102
}
330
19
100
AcDbPlotSettings
  1

  2
C:\Users\okazakz.MEENT01\AppData\Roaming\Autodesk\AutoCAD LT 2019\R25\jpn\plotters\AutoCAD PDF (General Documentation).pc3
  4

  6

 40
0.0
 41
0.0
 42
0.0
 43
0.0
 44
0.0
 45
0.0
 46
0.0
 47
0.0
 48
0.0
 49
0.0
140
0.0
141
0.0
142
1.0
143
1.0
 70
  1712
 72
     0
 73
     0
 74
     0
  7

 75
     0
147
1.0
 76
     0
 77
     2
 78
   300
148
0.0
149
0.0
100
AcDbLayout
  1
Model
 70
     1
 71
     0
 10
0.0
 20
0.0
 11
12.0
 21
9.0
 12
0.0
 22
0.0
 32
0.0
 14
0.0
 24
0.0
 34
0.0
 15
0.0
 25
0.0
 35
0.0
146
0.0
 13
0.0
 23
0.0
 33
0.0
 16
1.0
 26
0.0
 36
0.0
 17
0.0
 27
1.0
 37
0.0
 76
     0
330
1E
331
54BC
  0
LAYOUT
  5
5537
102
{ACAD_REACTORS
330
19
102
}
330
19
100
AcDbPlotSettings
  1

  2
C:\Users\okazakz.MEENT01\AppData\Roaming\Autodesk\AutoCAD LT 2019\R25\jpn\plotters\AutoCAD PDF (General Documentation).pc3
  4

  6

 40
0.0
 41
0.0
 42
0.0
 43
0.0
 44
0.0
 45
0.0
 46
0.0
 47
0.0
 48
0.0
 49
0.0
140
0.0
141
0.0
142
1.0
143
1.0
 70
   688
 72
     0
 73
     0
 74
     5
  7

 75
    16
147
1.0
 76
     0
 77
     2
 78
   300
148
0.0
149
0.0
100
AcDbLayout
  1
レイアウト1
 70
     1
 71
     1
 10
0.0
 20
0.0
 11
0.0
 21
0.0
 12
0.0
 22
0.0
 32
0.0
 14
0.0
 24
0.0
 34
0.0
 15
0.0
 25
0.0
 35
0.0
146
0.0
 13
0.0
 23
0.0
 33
0.0
 16
1.0
 26
0.0
 36
0.0
 17
0.0
 27
1.0
 37
0.0
 76
     0
330
1A
331
523B
  0
MATERIAL
  5
54F2
102
{ACAD_XDICTIONARY
360
586A
102
}
102
{ACAD_REACTORS
330
54E9
102
}
330
54E9
100
AcDbMaterial
  1
ByBlock
 72
     0
 43
0.0208333333333333
 43
0.0
 43
0.0
 43
0.0
 43
0.0
 43
0.0208333333333333
 43
0.0
 43
0.0
 43
0.0
 43
0.0
 43
1.0
 43
0.0
 43
0.0
 43
0.0
 43
0.0
 43
1.0
 77
     0
 47
0.0208333333333333
 47
0.0
 47
0.0
 47
0.0
 47
0.0
 47
0.0208333333333333
 47
0.0
 47
0.0
 47
0.0
 47
0.0
 47
1.0
 47
0.0
 47
0.0
 47
0.0
 47
0.0
 47
1.0
171
     0
 49
0.0208333333333333
 49
0.0
 49
0.0
 49
0.0
 49
0.0
 49
0.0208333333333333
 49
0.0
 49
0.0
 49
0.0
 49
0.0
 49
1.0
 49
0.0
 49
0.0
 49
0.0
 49
0.0
 49
1.0
175
     0
142
0.0208333333333333
142
0.0
142
0.0
142
0.0
142
0.0
142
0.0208333333333333
142
0.0
142
0.0
142
0.0
142
0.0
142
1.0
142
0.0
142
0.0
142
0.0
142
0.0
142
1.0
179
     0
144
0.0208333333333333
144
0.0
144
0.0
144
0.0
144
0.0
144
0.0208333333333333
144
0.0
144
0.0
144
0.0
144
0.0
144
1.0
144
0.0
144
0.0
144
0.0
144
0.0
144
1.0
147
0.0208333333333333
147
0.0
147
0.0
147
0.0
147
0.0
147
0.0208333333333333
147
0.0
147
0.0
147
0.0
147
0.0
147
1.0
147
0.0
147
0.0
147
0.0
147
0.0
147
1.0
  0
MATERIAL
  5
54EA
102
{ACAD_XDICTIONARY
360
586C
102
}
102
{ACAD_REACTORS
330
54E9
102
}
330
54E9
100
AcDbMaterial
  1
ByLayer
 72
     0
 43
0.0208333333333333
 43
0.0
 43
0.0
 43
0.0
 43
0.0
 43
0.0208333333333333
 43
0.0
 43
0.0
 43
0.0
 43
0.0
 43
1.0
 43
0.0
 43
0.0
 43
0.0
 43
0.0
 43
1.0
 77
     0
 47
0.0208333333333333
 47
0.0
 47
0.0
 47
0.0
 47
0.0
 47
0.0208333333333333
 47
0.0
 47
0.0
 47
0.0
 47
0.0
 47
1.0
 47
0.0
 47
0.0
 47
0.0
 47
0.0
 47
1.0
171
     0
 49
0.0208333333333333
 49
0.0
 49
0.0
 49
0.0
 49
0.0
 49
0.0208333333333333
 49
0.0
 49
0.0
 49
0.0
 49
0.0
 49
1.0
 49
0.0
 49
0.0
 49
0.0
 49
0.0
 49
1.0
175
     0
142
0.0208333333333333
142
0.0
142
0.0
142
0.0
142
0.0
142
0.0208333333333333
142
0.0
142
0.0
142
0.0
142
0.0
142
1.0
142
0.0
142
0.0
142
0.0
142
0.0
142
1.0
179
     0
144
0.0208333333333333
144
0.0
144
0.0
144
0.0
144
0.0
144
0.0208333333333333
144
0.0
144
0.0
144
0.0
144
0.0
144
1.0
144
0.0
144
0.0
144
0.0
144
0.0
144
1.0
147
0.0208333333333333
147
0.0
147
0.0
147
0.0
147
0.0
147
0.0208333333333333
147
0.0
147
0.0
147
0.0
147
0.0
147
1.0
147
0.0
147
0.0
147
0.0
147
0.0
147
1.0
  0
MATERIAL
  5
54FA
102
{ACAD_XDICTIONARY
360
54FB
102
}
102
{ACAD_REACTORS
330
54E9
102
}
330
54E9
100
AcDbMaterial
  1
Global
 72
     0
 43
0.0208333333333333
 43
0.0
 43
0.0
 43
0.0
 43
0.0
 43
0.0208333333333333
 43
0.0
 43
0.0
 43
0.0
 43
0.0
 43
1.0
 43
0.0
 43
0.0
 43
0.0
 43
0.0
 43
1.0
 77
     0
 47
0.0208333333333333
 47
0.0
 47
0.0
 47
0.0
 47
0.0
 47
0.0208333333333333
 47
0.0
 47
0.0
 47
0.0
 47
0.0
 47
1.0
 47
0.0
 47
0.0
 47
0.0
 47
0.0
 47
1.0
171
     0
 49
0.0208333333333333
 49
0.0
 49
0.0
 49
0.0
 49
0.0
 49
0.0208333333333333
 49
0.0
 49
0.0
 49
0.0
 49
0.0
 49
1.0
 49
0.0
 49
0.0
 49
0.0
 49
0.0
 49
1.0
175
     0
142
0.0208333333333333
142
0.0
142
0.0
142
0.0
142
0.0
142
0.0208333333333333
142
0.0
142
0.0
142
0.0
142
0.0
142
1.0
142
0.0
142
0.0
142
0.0
142
0.0
142
1.0
179
     0
144
0.0208333333333333
144
0.0
144
0.0
144
0.0
144
0.0
144
0.0208333333333333
144
0.0
144
0.0
144
0.0
144
0.0
144
1.0
144
0.0
144
0.0
144
0.0
144
0.0
144
1.0
147
0.0208333333333333
147
0.0
147
0.0
147
0.0
147
0.0
147
0.0208333333333333
147
0.0
147
0.0
147
0.0
147
0.0
147
1.0
147
0.0
147
0.0
147
0.0
147
0.0
147
1.0
  0
MLEADERSTYLE
  5
5531
102
{ACAD_REACTORS
330
5530
102
}
330
5530
100
AcDbMLeaderStyle
170
     2
171
     1
172
     0
 90
        2
 40
0.0
 41
0.0
173
     1
 91
-1056964608
340
13
 92
       -2
290
     1
 42
0.09
291
     1
 43
0.36
  3
Standard
 44
0.18
300

342
11
174
     1
178
     6
175
     1
176
     0
 93
-1056964608
 45
0.18
292
     0
297
     0
 46
0.18
 94
-1056964608
 47
1.0
 49
1.0
140
1.0
293
     1
141
0.0
294
     1
177
     0
142
1.0
295
     0
296
     0
143
0.125
1001
ACAD_MLEADERVER
1070
     2
  0
MLINESTYLE
  5
17
102
{ACAD_REACTORS
330
16
102
}
330
16
100
AcDbMlineStyle
  2
STANDARD
 70
     0
  3

 62
   256
 51
90.0
 52
90.0
 71
     2
 49
0.5
 62
   256
  6
BYLAYER
 49
-0.5
 62
   256
  6
BYLAYER
  0
ACDBPLACEHOLDER
  5
F
102
{ACAD_REACTORS
330
E
102
}
330
E
  0
SCALE
  5
551F
102
{ACAD_REACTORS
330
551E
102
}
330
551E
100
AcDbScale
 70
     0
300
1:1
140
1.0
141
1.0
290
     1
  0
SCALE
  5
5520
102
{ACAD_REACTORS
330
551E
102
}
330
551E
100
AcDbScale
 70
     0
300
1/128" = 1'-0"
140
0.0078125
141
12.0
290
     0
  0
SCALE
  5
5521
102
{ACAD_REACTORS
330
551E
102
}
330
551E
100
AcDbScale
 70
     0
300
1/64" = 1'-0"
140
0.015625
141
12.0
290
     0
  0
SCALE
  5
5522
102
{ACAD_REACTORS
330
551E
102
}
330
551E
100
AcDbScale
 70
     0
300
1/32" = 1'-0"
140
0.03125
141
12.0
290
     0
  0
SCALE
  5
5523
102
{ACAD_REACTORS
330
551E
102
}
330
551E
100
AcDbScale
 70
     0
300
1/16" = 1'-0"
140
0.0625
141
12.0
290
     0
  0
SCALE
  5
5524
102
{ACAD_REACTORS
330
551E
102
}
330
551E
100
AcDbScale
 70
     0
300
3/32" = 1'-0"
140
0.09375
141
12.0
290
     0
  0
SCALE
  5
5525
102
{ACAD_REACTORS
330
551E
102
}
330
551E
100
AcDbScale
 70
     0
300
1/8" = 1'-0"
140
0.125
141
12.0
290
     0
  0
SCALE
  5
5526
102
{ACAD_REACTORS
330
551E
102
}
330
551E
100
AcDbScale
 70
     0
300
3/16" = 1'-0"
140
0.1875
141
12.0
290
     0
  0
SCALE
  5
5527
102
{ACAD_REACTORS
330
551E
102
}
330
551E
100
AcDbScale
 70
     0
300
1/4" = 1'-0"
140
0.25
141
12.0
290
     0
  0
SCALE
  5
5528
102
{ACAD_REACTORS
330
551E
102
}
330
551E
100
AcDbScale
 70
     0
300
3/8" = 1'-0"
140
0.375
141
12.0
290
     0
  0
SCALE
  5
5529
102
{ACAD_REACTORS
330
551E
102
}
330
551E
100
AcDbScale
 70
     0
300
1/2" = 1'-0"
140
0.5
141
12.0
290
     0
  0
SCALE
  5
552A
102
{ACAD_REACTORS
330
551E
102
}
330
551E
100
AcDbScale
 70
     0
300
3/4" = 1'-0"
140
0.75
141
12.0
290
     0
  0
SCALE
  5
552B
102
{ACAD_REACTORS
330
551E
102
}
330
551E
100
AcDbScale
 70
     0
300
1" = 1'-0"
140
1.0
141
12.0
290
     0
  0
SCALE
  5
552C
102
{ACAD_REACTORS
330
551E
102
}
330
551E
100
AcDbScale
 70
     0
300
1-1/2" = 1'-0"
140
1.5
141
12.0
290
     0
  0
SCALE
  5
552D
102
{ACAD_REACTORS
330
551E
102
}
330
551E
100
AcDbScale
 70
     0
300
3" = 1'-0"
140
3.0
141
12.0
290
     0
  0
SCALE
  5
552E
102
{ACAD_REACTORS
330
551E
102
}
330
551E
100
AcDbScale
 70
     0
300
6" = 1'-0"
140
6.0
141
12.0
290
     0
  0
SCALE
  5
552F
102
{ACAD_REACTORS
330
551E
102
}
330
551E
100
AcDbScale
 70
     0
300
1'-0" = 1'-0"
140
12.0
141
12.0
290
     0
  0
ACDBSECTIONVIEWSTYLE
  5
5533
102
{ACAD_XDICTIONARY
360
58E3
102
}
102
{ACAD_REACTORS
330
5532
102
}
330
5532
100
AcDbModelDocViewStyle
 70
     0
  3
Imperial24
290
     0
100
AcDbSectionViewStyle
 70
     0
 71
     0
 90
       78
 71
     1
340
11
 62
   256
 40
0.24
340
0
340
0
 62
   256
 40
0.24
300
I, O, Q, S, X, Z
 40
0.48
 90
        3
 40
0.18
 90
        1
 71
     2
340
15
 90
       25
 62
   256
340
15
 90
       50
 62
   256
 40
0.24
 40
0.0
 40
0.24
 71
     3
340
11
 62
   256
 40
0.24
 90
        1
 40
0.75
 90
        1
300
%<\AcVar ViewType \f "%tc1">% %<\AcVar ViewSectionStartId>%-%<\AcVar ViewSectionEndId>%\PSCALE %<\AcVar ViewScale \f "%sn">%
 71
     4
 62
   256
 62
   257
300
ANSI31
 40
1.0
 90
        0
290
     0
290
     0
 90
        6
 40
0.0
 40
1.570796326794896
 40
0.2617993877991494
 40
1.308996938995747
 40
-0.2617993877991494
 40
1.832595714594044
  0
TABLESTYLE
  5
551D
102
{ACAD_XDICTIONARY
360
5872
102
}
102
{ACAD_REACTORS
330
551C
102
}
330
551C
100
AcDbTableStyle
  3
Standard
 70
     0
 71
     0
 40
0.06
 41
0.06
280
     0
281
     0
  7
STANDARD
140
0.18
170
     2
 62
     0
 63
     7
283
     0
274
    -2
284
     1
 64
     0
275
    -2
285
     1
 65
     0
276
    -2
286
     1
 66
     0
277
    -2
287
     1
 67
     0
278
    -2
288
     1
 68
     0
279
    -2
289
     1
 69
     0
  7
STANDARD
140
0.25
170
     5
 62
     0
 63
     7
283
     0
274
    -2
284
     1
 64
     0
275
    -2
285
     1
 65
     0
276
    -2
286
     1
 66
     0
277
    -2
287
     1
 67
     0
278
    -2
288
     1
 68
     0
279
    -2
289
     1
 69
     0
  7
STANDARD
140
0.18
170
     5
 62
     0
 63
     7
283
     0
274
    -2
284
     1
 64
     0
275
    -2
285
     1
 65
     0
276
    -2
286
     1
 66
     0
277
    -2
287
     1
 67
     0
278
    -2
288
     1
 68
     0
279
    -2
289
     1
 69
     0
  0
VISUALSTYLE
  5
5508
102
{ACAD_XDICTIONARY
360
58BC
102
}
102
{ACAD_REACTORS
330
5502
102
}
330
5502
100
AcDbVisualStyle
  2

 70
     4
 71
     0
 72
     2
 73
     0
 90
        0
 40
-0.6
 41
-30.0
 62
     5
 63
     7
421
 16777215
 74
     1
 91
        4
 64
     7
 65
   257
 75
     1
175
     1
 42
1.0
 92
        0
 66
   257
 43
1.0
 76
     1
 77
     6
 78
     2
 67
     7
 79
     5
170
     0
171
     0
290
     0
174
     0
 93
        1
 44
0.0
173
     0
291
     0
 45
0.0
1001
ACAD
1000
AcDbSavedByObjectVersion
1070
     0
  0
VISUALSTYLE
  5
5507
102
{ACAD_XDICTIONARY
360
58BA
102
}
102
{ACAD_REACTORS
330
5502
102
}
330
5502
100
AcDbVisualStyle
  2

 70
     7
 71
     1
 72
     0
 73
     1
 90
        0
 40
-0.6
 41
-30.0
 62
     5
 63
     7
421
 16777215
 74
     0
 91
        4
 64
     7
 65
   257
 75
     1
175
     1
 42
1.0
 92
        8
 66
     7
 43
1.0
 76
     1
 77
     6
 78
     2
 67
     7
 79
     5
170
     0
171
     0
290
     0
174
     0
 93
        1
 44
0.0
173
     0
291
     1
 45
0.0
1001
ACAD
1000
AcDbSavedByObjectVersion
1070
     0
  0
VISUALSTYLE
  5
550E
102
{ACAD_XDICTIONARY
360
58C8
102
}
102
{ACAD_REACTORS
330
5502
102
}
330
5502
100
AcDbVisualStyle
  2

 70
    12
 71
     2
 72
     2
 73
     0
 90
        0
 40
-0.6
 41
-30.0
 62
     5
 63
     7
421
 16777215
 74
     1
 91
        4
 64
     7
 65
   257
 75
     1
175
     1
 42
1.0
 92
        8
 66
     7
 43
1.0
 76
     1
 77
     6
 78
     2
 67
     7
 79
     5
170
     0
171
     0
290
     0
174
     0
 93
        1
 44
50.0
173
     0
291
     1
 45
0.0
1001
ACAD
1000
AcDbSavedByObjectVersion
1070
     0
  0
VISUALSTYLE
  5
5512
102
{ACAD_XDICTIONARY
360
58D0
102
}
102
{ACAD_REACTORS
330
5502
102
}
330
5502
100
AcDbVisualStyle
  2

 70
    16
 71
     2
 72
     2
 73
     3
 90
        0
 40
-0.6
 41
-30.0
 62
     5
 63
     8
421
  8421504
 74
     1
 91
        4
 64
     7
 65
   257
 75
     1
175
     1
 42
1.0
 92
        8
 66
     8
424
  8421504
 43
1.0
 76
     1
 77
     6
 78
     2
 67
     7
 79
     5
170
     0
171
     0
290
     0
174
     0
 93
        1
 44
0.0
173
     0
291
     1
 45
0.0
1001
ACAD
1000
AcDbSavedByObjectVersion
1070
     0
  0
VISUALSTYLE
  5
550B
102
{ACAD_XDICTIONARY
360
58C2
102
}
102
{ACAD_REACTORS
330
5502
102
}
330
5502
100
AcDbVisualStyle
  2

 70
     9
 71
     3
 72
     2
 73
     0
 90
        0
 40
-0.6
 41
-30.0
 62
     5
 63
     7
421
 16777215
 74
     2
 91
        2
 64
     7
 65
   257
 75
     1
175
     1
 42
179.0
 92
        8
 66
     7
 43
1.0
 76
     1
 77
     6
 78
     2
 67
     7
 79
     3
170
     0
171
     0
290
     0
174
     0
 93
        1
 44
0.0
173
     0
291
     0
 45
0.0
1001
ACAD
1000
AcDbSavedByObjectVersion
1070
     0
  0
VISUALSTYLE
  5
550D
102
{ACAD_XDICTIONARY
360
58C6
102
}
102
{ACAD_REACTORS
330
5502
102
}
330
5502
100
AcDbVisualStyle
  2

 70
    11
 71
     2
 72
     2
 73
     0
 90
        0
 40
-0.6
 41
-30.0
 62
     5
 63
     7
421
 16777215
 74
     1
 91
        4
 64
     7
 65
   257
 75
     1
175
     1
 42
1.0
 92
        8
 66
     7
 43
1.0
 76
     1
 77
     6
 78
     2
 67
     7
 79
     5
170
     0
171
     0
290
     0
174
     0
 93
        1
 44
-50.0
173
     0
291
     1
 45
0.0
1001
ACAD
1000
AcDbSavedByObjectVersion
1070
     0
  0
VISUALSTYLE
  5
551A
102
{ACAD_XDICTIONARY
360
58E0
102
}
102
{ACAD_REACTORS
330
5502
102
}
330
5502
100
AcDbVisualStyle
  2

 70
    22
 71
     2
 72
     2
 73
     0
 90
        0
 40
-0.6
 41
-30.0
 62
     5
 63
     7
421
 16777215
 74
     1
 91
        4
 64
     7
 65
   257
 75
     1
175
     1
 42
1.0
 92
        8
 66
     7
 43
1.0
 76
     1
 77
     6
 78
     2
 67
     7
 79
     5
170
     0
171
     0
290
     0
174
     0
 93
        1
 44
0.0
173
     0
291
     1
 45
0.0
1001
ACAD
1000
AcDbSavedByObjectVersion
1070
     0
  0
VISUALSTYLE
  5
5511
102
{ACAD_XDICTIONARY
360
58CE
102
}
102
{ACAD_REACTORS
330
5502
102
}
330
5502
100
AcDbVisualStyle
  2

 70
    15
 71
     2
 72
     2
 73
     0
 90
        0
 40
-0.6
 41
-30.0
 62
     5
 63
     7
421
 16777215
 74
     1
 91
        4
 64
     7
 65
   257
 75
     1
175
     1
 42
1.0
 92
        8
 66
     7
 43
1.0
 76
     1
 77
     6
 78
     2
 67
     7
 79
     5
170
     0
171
     0
290
     0
174
     0
 93
        1
 44
0.0
173
     0
291
     1
 45
0.0
1001
ACAD
1000
AcDbSavedByObjectVersion
1070
     0
  0
VISUALSTYLE
  5
5503
102
{ACAD_XDICTIONARY
360
58B2
102
}
102
{ACAD_REACTORS
330
5502
102
}
330
5502
100
AcDbVisualStyle
  2

 70
     0
 71
     2
 72
     1
 73
     1
 90
        2
 40
-0.6
 41
30.0
 62
     5
 63
     7
421
 16777215
 74
     0
 91
        0
 64
     7
 65
   257
 75
     1
175
     1
 42
1.0
 92
        8
 66
     7
 43
1.0
 76
     1
 77
     6
 78
     2
 67
     7
 79
     5
170
     0
171
     0
290
     0
174
     0
 93
       13
 44
0.0
173
     0
291
     1
 45
0.0
1001
ACAD
1000
AcDbSavedByObjectVersion
1070
     0
  0
VISUALSTYLE
  5
5504
102
{ACAD_XDICTIONARY
360
58B4
102
}
102
{ACAD_REACTORS
330
5502
102
}
330
5502
100
AcDbVisualStyle
  2

 70
     1
 71
     2
 72
     1
 73
     1
 90
        2
 40
-0.6
 41
30.0
 62
     5
 63
     7
421
 16777215
 74
     1
 91
        0
 64
     7
 65
   257
 75
     1
175
     1
 42
1.0
 92
        0
 66
   257
 43
1.0
 76
     1
 77
     6
 78
     2
 67
     7
 79
     5
170
     0
171
     0
290
     0
174
     0
 93
       13
 44
0.0
173
     0
291
     1
 45
0.0
1001
ACAD
1000
AcDbSavedByObjectVersion
1070
     0
  0
VISUALSTYLE
  5
5505
102
{ACAD_XDICTIONARY
360
58B6
102
}
102
{ACAD_REACTORS
330
5502
102
}
330
5502
100
AcDbVisualStyle
  2

 70
     2
 71
     2
 72
     2
 73
     1
 90
        2
 40
-0.6
 41
30.0
 62
     5
 63
     7
421
 16777215
 74
     0
 91
        0
 64
     7
 65
   257
 75
     1
175
     1
 42
1.0
 92
        0
 66
     7
 43
1.0
 76
     1
 77
     6
 78
     2
 67
     7
 79
     5
170
     0
171
     0
290
     0
174
     0
 93
       13
 44
0.0
173
     0
291
     1
 45
0.0
1001
ACAD
1000
AcDbSavedByObjectVersion
1070
     0
  0
VISUALSTYLE
  5
5506
102
{ACAD_XDICTIONARY
360
58B8
102
}
102
{ACAD_REACTORS
330
5502
102
}
330
5502
100
AcDbVisualStyle
  2

 70
     3
 71
     2
 72
     2
 73
     1
 90
        2
 40
-0.6
 41
30.0
 62
     5
 63
     7
421
 16777215
 74
     1
 91
        0
 64
     7
 65
   257
 75
     1
175
     1
 42
1.0
 92
        0
 66
   257
 43
1.0
 76
     1
 77
     6
 78
     2
 67
     7
 79
     5
170
     0
171
     0
290
     0
174
     0
 93
       13
 44
0.0
173
     0
291
     1
 45
0.0
1001
ACAD
1000
AcDbSavedByObjectVersion
1070
     0
  0
VISUALSTYLE
  5
550A
102
{ACAD_XDICTIONARY
360
58C0
102
}
102
{ACAD_REACTORS
330
5502
102
}
330
5502
100
AcDbVisualStyle
  2

 70
     6
 71
     1
 72
     2
 73
     2
 90
        0
 40
-0.6
 41
-30.0
 62
     5
 63
     7
421
 16777215
 74
     2
 91
        2
 64
     7
 65
   257
 75
     2
175
     1
 42
40.0
 92
        0
 66
   257
 43
1.0
 76
     1
 77
     6
 78
     2
 67
     7
 79
     3
170
     0
171
     0
290
     0
174
     0
 93
        1
 44
0.0
173
     0
291
     0
 45
0.0
1001
ACAD
1000
AcDbSavedByObjectVersion
1070
     0
  0
VISUALSTYLE
  5
5518
102
{ACAD_XDICTIONARY
360
58DC
102
}
102
{ACAD_REACTORS
330
5502
102
}
330
5502
100
AcDbVisualStyle
  2

 70
    20
 71
     2
 72
     2
 73
     0
 90
        0
 40
-0.6
 41
-30.0
 62
     5
 63
     7
421
 16777215
 74
     1
 91
        4
 64
     7
 65
   257
 75
     1
175
     1
 42
1.0
 92
       10
 66
     7
 43
1.0
 76
     1
 77
     6
 78
     2
 67
     7
 79
     5
170
     0
171
     0
290
     0
174
     0
 93
        1
 44
0.0
173
     0
291
     1
 45
0.0
1001
ACAD
1000
AcDbSavedByObjectVersion
1070
     0
  0
VISUALSTYLE
  5
5510
102
{ACAD_XDICTIONARY
360
58CC
102
}
102
{ACAD_REACTORS
330
5502
102
}
330
5502
100
AcDbVisualStyle
  2

 70
    14
 71
     2
 72
     2
 73
     0
 90
        0
 40
-0.6
 41
-30.0
 62
     5
 63
     7
421
 16777215
 74
     1
 91
        4
 64
     7
 65
   257
 75
     7
175
     7
 42
1.0
 92
        8
 66
     7
 43
1.0
 76
     1
 77
     6
 78
     2
 67
     7
 79
     5
170
     0
171
     0
290
     0
174
     0
 93
        1
 44
0.0
173
     0
291
     1
 45
0.0
1001
ACAD
1000
AcDbSavedByObjectVersion
1070
     0
  0
VISUALSTYLE
  5
5519
102
{ACAD_XDICTIONARY
360
58DE
102
}
102
{ACAD_REACTORS
330
5502
102
}
330
5502
100
AcDbVisualStyle
  2

 70
    21
 71
     2
 72
     2
 73
     0
 90
        0
 40
-0.6
 41
-30.0
 62
     5
 63
     7
421
 16777215
 74
     1
 91
        4
 64
     7
 65
   257
 75
     1
175
     1
 42
1.0
 92
        9
 66
     7
 43
1.0
 76
     1
 77
     6
 78
     2
 67
     7
 79
     5
170
     0
171
     0
290
     0
174
     0
 93
        1
 44
0.0
173
     0
291
     1
 45
0.0
1001
ACAD
1000
AcDbSavedByObjectVersion
1070
     0
  0
VISUALSTYLE
  5
550C
102
{ACAD_XDICTIONARY
360
58C4
102
}
102
{ACAD_REACTORS
330
5502
102
}
330
5502
100
AcDbVisualStyle
  2

 70
     8
 71
     2
 72
     3
 73
     0
 90
        2
 40
-0.6
 41
30.0
 62
     5
 63
     7
421
 16777215
 74
     0
 91
        0
 64
     7
 65
   257
 75
     1
175
     1
 42
1.0
 92
        8
 66
   257
 43
1.0
 76
     1
 77
     6
 78
     2
 67
     7
 79
     3
170
     0
171
     0
290
     0
174
     0
 93
       13
 44
0.0
173
     0
291
     0
 45
0.0
1001
ACAD
1000
AcDbSavedByObjectVersion
1070
     0
  0
VISUALSTYLE
  5
5517
102
{ACAD_XDICTIONARY
360
58DA
102
}
102
{ACAD_REACTORS
330
5502
102
}
330
5502
100
AcDbVisualStyle
  2

 70
    27
 71
     2
 72
     2
 73
     1
 90
        2
 40
-0.6
 41
30.0
 62
     5
 63
     7
421
 16777215
 74
     0
 91
        4
 64
     7
 65
   257
 75
     1
175
     1
 42
1.0
 92
        8
 66
   257
 43
1.0
 76
     1
 77
     6
 78
     2
 67
     8
425
  7895160
 79
     3
170
     0
171
     0
290
     0
174
     0
 93
        5
 44
0.0
173
     0
291
     0
 45
0.0
1001
ACAD
1000
AcDbSavedByObjectVersion
1070
     0
  0
VISUALSTYLE
  5
5516
102
{ACAD_XDICTIONARY
360
58D8
102
}
102
{ACAD_REACTORS
330
5502
102
}
330
5502
100
AcDbVisualStyle
  2

 70
    26
 71
     2
 72
     2
 73
     1
 90
        2
 40
-0.6
 41
30.0
 62
     5
 63
     7
421
 16777215
 74
     1
 91
        2
 64
     7
 65
   257
 75
     2
175
     1
 42
1.0
 92
        8
 66
   257
 43
1.0
 76
     1
 77
     6
 78
     2
 67
     7
 79
     3
170
     0
171
     0
290
     0
174
     0
 93
        5
 44
0.0
173
     0
291
     0
 45
0.0
1001
ACAD
1000
AcDbSavedByObjectVersion
1070
     0
  0
VISUALSTYLE
  5
5513
102
{ACAD_XDICTIONARY
360
58D2
102
}
102
{ACAD_REACTORS
330
5502
102
}
330
5502
100
AcDbVisualStyle
  2

 70
    23
 71
     2
 72
     2
 73
     3
 90
        0
 40
-0.6
 41
-30.0
 62
     5
 63
     7
421
 16777215
 74
     2
 91
        2
 64
     7
 65
     7
 75
     1
175
     1
 42
40.0
 92
        8
 66
     7
 43
1.0
 76
     1
 77
     6
 78
     2
 67
     7
 79
     3
170
     0
171
     0
290
     0
174
     0
 93
        1
 44
0.0
173
     0
291
     0
 45
0.0
1001
ACAD
1000
AcDbSavedByObjectVersion
1070
     0
  0
VISUALSTYLE
  5
5514
102
{ACAD_XDICTIONARY
360
58D4
102
}
102
{ACAD_REACTORS
330
5502
102
}
330
5502
100
AcDbVisualStyle
  2

 70
    24
 71
     1
 72
     2
 73
     2
 90
        0
 40
-0.6
 41
-30.0
 62
     5
 63
     7
421
 16777215
 74
     2
 91
        2
 64
     7
 65
     7
 75
     1
175
     1
 42
40.0
 92
       11
 66
     7
 43
1.0
 76
     1
 77
     6
 78
     2
 67
     7
 79
     6
170
     0
171
     0
290
     0
174
     0
 93
        1
 44
0.0
173
     0
291
     0
 45
0.0
1001
ACAD
1000
AcDbSavedByObjectVersion
1070
     0
  0
VISUALSTYLE
  5
550F
102
{ACAD_XDICTIONARY
360
58CA
102
}
102
{ACAD_REACTORS
330
5502
102
}
330
5502
100
AcDbVisualStyle
  2

 70
    13
 71
     2
 72
     2
 73
     0
 90
        0
 40
-0.6
 41
-30.0
 62
     5
 63
     7
421
 16777215
 74
     1
 91
        4
 64
     7
 65
   257
 75
     1
175
     1
 42
1.0
 92
       12
 66
     7
 43
1.0
 76
     1
 77
     6
 78
     2
 67
     7
 79
     5
170
     0
171
     0
290
     0
174
     0
 93
        1
 44
0.0
173
     0
291
     1
 45
0.0
1001
ACAD
1000
AcDbSavedByObjectVersion
1070
     0
  0
VISUALSTYLE
  5
5509
102
{ACAD_XDICTIONARY
360
58BE
102
}
102
{ACAD_REACTORS
330
5502
102
}
330
5502
100
AcDbVisualStyle
  2

 70
     5
 71
     0
 72
     2
 73
     0
 90
        0
 40
-0.6
 41
-30.0
 62
     5
 63
     7
421
 16777215
 74
     1
 91
        4
 64
     7
 65
   257
 75
     1
175
     1
 42
1.0
 92
        0
 66
   257
 43
1.0
 76
     1
 77
     6
 78
     2
 67
     7
 79
     3
170
     0
171
     0
290
     0
174
     0
 93
        1
 44
0.0
173
     0
291
     0
 45
0.0
1001
ACAD
1000
AcDbSavedByObjectVersion
1070
     0
  0
VISUALSTYLE
  5
5515
102
{ACAD_XDICTIONARY
360
58D6
102
}
102
{ACAD_REACTORS
330
5502
102
}
330
5502
100
AcDbVisualStyle
  2

 70
    25
 71
     2
 72
     2
 73
     1
 90
        1
 40
0.5
 41
-30.0
 62
     5
 63
     7
421
 16777215
 74
     1
 91
        0
 64
     7
 65
   257
 75
     1
175
     1
 42
1.0
 92
        8
 66
     7
 43
1.0
 76
     1
 77
     6
 78
     2
 67
     7
 79
     3
170
     0
171
     0
290
     0
174
     0
 93
       13
 44
0.0
173
     0
291
     0
 45
0.0
1001
ACAD
1000
AcDbSavedByObjectVersion
1070
     0
  0
DICTIONARYVAR
  5
5561
102
{ACAD_REACTORS
330
5545
102
}
330
5545
100
DictionaryVariables
280
     0
  1
1:1
  0
DICTIONARYVAR
  5
555D
102
{ACAD_REACTORS
330
5545
102
}
330
5545
100
DictionaryVariables
280
     0
  1
STANDARD
  0
DICTIONARYVAR
  5
555C
102
{ACAD_REACTORS
330
5545
102
}
330
5545
100
DictionaryVariables
280
     0
  1
STANDARD
  0
DICTIONARYVAR
  5
555E
102
{ACAD_REACTORS
330
5545
102
}
330
5545
100
DictionaryVariables
280
     0
  1
Imperial24
  0
DICTIONARYVAR
  5
555F
102
{ACAD_REACTORS
330
5545
102
}
330
5545
100
DictionaryVariables
280
     0
  1
Imperial24
  0
DICTIONARYVAR
  5
5546
102
{ACAD_REACTORS
330
5545
102
}
330
5545
100
DictionaryVariables
280
     0
  1
SIZE
  0
DICTIONARYVAR
  5
5563
102
{ACAD_REACTORS
330
5545
102
}
330
5545
100
DictionaryVariables
280
     0
  1
1
  0
DICTIONARYVAR
  5
5564
102
{ACAD_REACTORS
330
5545
102
}
330
5545
100
DictionaryVariables
280
     0
  1
15
  0
DICTIONARYVAR
  5
5562
102
{ACAD_REACTORS
330
5545
102
}
330
5545
100
DictionaryVariables
280
     0
  1
0
  0
DICTIONARYVAR
  5
58AD
102
{ACAD_REACTORS
330
5545
102
}
330
5545
100
DictionaryVariables
280
     0
  1
1.570796
  0
DICTIONARYVAR
  5
58AE
102
{ACAD_REACTORS
330
5545
102
}
330
5545
100
DictionaryVariables
280
     0
  1
1.570796
  0
DICTIONARYVAR
  5
5560
102
{ACAD_REACTORS
330
5545
102
}
330
5545
100
DictionaryVariables
280
     0
  1
0
  0
DICTIONARYVAR
  5
58AF
102
{ACAD_REACTORS
330
5545
102
}
330
5545
100
DictionaryVariables
280
     0
  1
2
  0
DICTIONARY
  5
58E5
330
5535
100
AcDbDictionary
280
     1
281
     1
  3
ACAD_XREC_ROUNDTRIP
360
58E6
  0
DICTIONARY
  5
586A
330
54F2
100
AcDbDictionary
280
     1
281
     1
  3
ACAD_XREC_ROUNDTRIP
360
586B
  0
DICTIONARY
  5
586C
330
54EA
100
AcDbDictionary
280
     1
281
     1
  3
ACAD_XREC_ROUNDTRIP
360
586D
  0
DICTIONARY
  5
54FB
330
54FA
100
AcDbDictionary
280
     1
281
     1
  3
ACAD_XREC_ROUNDTRIP
360
586E
  3
FBXASSET
360
5547
  0
DICTIONARY
  5
58E3
330
5533
100
AcDbDictionary
280
     1
281
     1
  3
ACAD_XREC_ROUNDTRIP
360
58E4
  0
DICTIONARY
  5
5872
330
551D
100
AcDbDictionary
280
     1
281
     1
  3
ACAD_ROUNDTRIP_2008_TABLESTYLE_CELLSTYLEMAP
360
58B0
  3
ACAD_XREC_ROUNDTRIP
360
58E2
  0
DICTIONARY
  5
58BC
330
5508
100
AcDbDictionary
280
     1
281
     1
  3
ACAD_XREC_ROUNDTRIP
360
58BD
  0
DICTIONARY
  5
58BA
330
5507
100
AcDbDictionary
280
     1
281
     1
  3
ACAD_XREC_ROUNDTRIP
360
58BB
  0
DICTIONARY
  5
58C8
330
550E
100
AcDbDictionary
280
     1
281
     1
  3
ACAD_XREC_ROUNDTRIP
360
58C9
  0
DICTIONARY
  5
58D0
330
5512
100
AcDbDictionary
280
     1
281
     1
  3
ACAD_XREC_ROUNDTRIP
360
58D1
  0
DICTIONARY
  5
58C2
330
550B
100
AcDbDictionary
280
     1
281
     1
  3
ACAD_XREC_ROUNDTRIP
360
58C3
  0
DICTIONARY
  5
58C6
330
550D
100
AcDbDictionary
280
     1
281
     1
  3
ACAD_XREC_ROUNDTRIP
360
58C7
  0
DICTIONARY
  5
58E0
330
551A
100
AcDbDictionary
280
     1
281
     1
  3
ACAD_XREC_ROUNDTRIP
360
58E1
  0
DICTIONARY
  5
58CE
330
5511
100
AcDbDictionary
280
     1
281
     1
  3
ACAD_XREC_ROUNDTRIP
360
58CF
  0
DICTIONARY
  5
58B2
330
5503
100
AcDbDictionary
280
     1
281
     1
  3
ACAD_XREC_ROUNDTRIP
360
58B3
  0
DICTIONARY
  5
58B4
330
5504
100
AcDbDictionary
280
     1
281
     1
  3
ACAD_XREC_ROUNDTRIP
360
58B5
  0
DICTIONARY
  5
58B6
330
5505
100
AcDbDictionary
280
     1
281
     1
  3
ACAD_XREC_ROUNDTRIP
360
58B7
  0
DICTIONARY
  5
58B8
330
5506
100
AcDbDictionary
280
     1
281
     1
  3
ACAD_XREC_ROUNDTRIP
360
58B9
  0
DICTIONARY
  5
58C0
330
550A
100
AcDbDictionary
280
     1
281
     1
  3
ACAD_XREC_ROUNDTRIP
360
58C1
  0
DICTIONARY
  5
58DC
330
5518
100
AcDbDictionary
280
     1
281
     1
  3
ACAD_XREC_ROUNDTRIP
360
58DD
  0
DICTIONARY
  5
58CC
330
5510
100
AcDbDictionary
280
     1
281
     1
  3
ACAD_XREC_ROUNDTRIP
360
58CD
  0
DICTIONARY
  5
58DE
330
5519
100
AcDbDictionary
280
     1
281
     1
  3
ACAD_XREC_ROUNDTRIP
360
58DF
  0
DICTIONARY
  5
58C4
330
550C
100
AcDbDictionary
280
     1
281
     1
  3
ACAD_XREC_ROUNDTRIP
360
58C5
  0
DICTIONARY
  5
58DA
330
5517
100
AcDbDictionary
280
     1
281
     1
  3
ACAD_XREC_ROUNDTRIP
360
58DB
  0
DICTIONARY
  5
58D8
330
5516
100
AcDbDictionary
280
     1
281
     1
  3
ACAD_XREC_ROUNDTRIP
360
58D9
  0
DICTIONARY
  5
58D2
330
5513
100
AcDbDictionary
280
     1
281
     1
  3
ACAD_XREC_ROUNDTRIP
360
58D3
  0
DICTIONARY
  5
58D4
330
5514
100
AcDbDictionary
280
     1
281
     1
  3
ACAD_XREC_ROUNDTRIP
360
58D5
  0
DICTIONARY
  5
58CA
330
550F
100
AcDbDictionary
280
     1
281
     1
  3
ACAD_XREC_ROUNDTRIP
360
58CB
  0
DICTIONARY
  5
58BE
330
5509
100
AcDbDictionary
280
     1
281
     1
  3
ACAD_XREC_ROUNDTRIP
360
58BF
  0
DICTIONARY
  5
58D6
330
5515
100
AcDbDictionary
280
     1
281
     1
  3
ACAD_XREC_ROUNDTRIP
360
58D7
  0
XRECORD
  5
58E6
102
{ACAD_REACTORS
330
58E5
102
}
330
58E5
100
AcDbXrecord
280
     1
102
DISPLAYNAME
  1
Imperial24
102
FLAGS
 90
        0
  0
XRECORD
  5
586B
102
{ACAD_REACTORS
330
586A
102
}
330
586A
100
AcDbXrecord
280
     1
102
MATERIAL
148
0.0
149
0.0
149
0.0
 93
        0
 94
      127
282
     0
 72
     0
 77
     0
171
     0
175
     0
179
     0
273
     0
  0
XRECORD
  5
586D
102
{ACAD_REACTORS
330
586C
102
}
330
586C
100
AcDbXrecord
280
     1
102
MATERIAL
148
0.0
149
0.0
149
0.0
 93
        0
 94
      127
282
     0
 72
     0
 77
     0
171
     0
175
     0
179
     0
273
     0
  0
XRECORD
  5
586E
102
{ACAD_REACTORS
330
54FB
102
}
330
54FB
100
AcDbXrecord
280
     1
102
MATERIAL
148
0.0
149
0.0
149
0.0
 93
        0
 94
      127
282
     0
 72
     0
 77
     0
171
     0
175
     0
179
     0
273
     0
  0
XRECORD
  5
5547
102
{ACAD_REACTORS
330
54FB
102
}
330
54FB
100
AcDbXrecord
280
     1
 70
     1
 90
652598616
 71
     1
  1
601C2071-F7E9-4CD4-B924-10F3AB104C5C
311
504B03041400060808006484DB4C4107AEA410010000A80100004F00000036464145323346372D353546312D343333322D383646372D3234323145413744444538462F4173736574446174612F446566696E6974696F6E4974657261746F7250726F706572746965732E62696E75504B4B0331108E1E2A153C08FE000F5E63
311
9EFB1244B38F78F2A2274F92AEB15D48774BB38BD71EFD51FE34A14EEA0A4571E09BC737C9CCC7BC2384B6A3418A0E001BF02710EF6C6BD74DFD582FECD2A049605C3733EE02B24452C198CA308D94C252E71A2B19712CB2B4D25CE79426EA10DE1D014AFB6A06D78791F78DAFAD73A6B5DDE04F8118779C2F4D0FBB8CBB0C
311
9FA60885B001A09F860F93E6DF8A82C8378079595DDD18EF6D7F4D62AD2A2E7482A348332C85E0388DA1E492B34A256559A59A3C58DF0DEBDA7A125356709A30AC932AC3B22825CE332E31A35AA89C51594405E9174338CD5990316B4DE30825A384E7553B07FA8FEDDF72BF790B85021C4F3E76F4E7F46917FF73BFE77C01
311
504B03041400060808006484DB4CC61C3462EC000000300200004500000036464145323346372D353546312D343333322D383646372D3234323145413744444538462F4173736574446174612F496E7374616E636550726F706572746965732E62696EEB606060F80F0540260323103700495E20ED9E9A975A94991C9C9C91
311
9A9BA802143033307436323037D4753377B5D435717631D175B23432D1353470337674323430713675664768046931363471713532B5D435353131D635313332D475727372D13534373670367376B67474B5042A03DBCBA019D37FE8ABC6157B20CD04146B0062181F4C03F940F0C11EA29A8141C08141002C0426541C106C
311
AC2CA046088033B02A030AC2157C6006F21A8018AAF50194E6010A610250382264E08660284CD9E98021862280A91564B406929A0FF62C401E28B6F88038B83CB1243943D7A928312F25350524432B0000504B03041400060808006484DB4C88E57597CD3F0000904100006B00000036464145323346372D353546312D3433
311
33322D383646372D3234323145413744444538462F5265736F75726365732F36303143323037312D463745392D344344342D423932342D3130463341423130344335432F7468756D626E61696C2F302F67656E657269635F706E67355B773CD4FF1FBF73E71C0E67EF7576C9DEF3EC995D46C6A1EC5046649CBDF79E192942
311
562825CE965D8A868C2842C8DE9FDFD1F7E7F138F7078FCF6B3F5FCFD7EBFDFEC41B196891913091804020321D6D7513FC77D8C5070EC3FFEE51B21F068154CC75D455CC028A3EA68992803810109FDDE5D5CEC5521B28A1B422BF80741695D5B529DA1C2D058AD2388BDA9F476F7C2CADC939304173DBF48A452BF8A700C0
311
C70C3D121C1AA15A5270C22E2B9E28763651F7DA0D12CE11077B2ECD0D560B5E3DE2368B1E65C5E1C87384A4CC5F2D9FB8BE39E9B77C753783A37998F5CEF1B4FEE553463245C9712270880DF339E0B882A6BA713D865F6F384C842D440934EF264F4A304F8DE4EEFA1E2BF5E2D91F5ADD9613D6E31DDB33ED31DB1D7916CA
311
F091286EA3D31B9CFECB78BB0060245B943C4C040119FF780A74DD308BA9D028678674EB5504ECF284EE814DAED07440BAF649BE4B55DA2890F4D73E2D489A59EE54FDB0A85B59F2F52C4858A02705C4815A792B0C4A996A2023ECB195073E115E3E3647F64243A8338F2000BCB58DA5692C7E7C3D413F963FEDF3CF00FBB0
311
F831A9D51360FECA43819F527B89FA260EB63C5DA676830AA3626A3693B23F1A17A0DFFCE3EE164E31B5365EDF0C89EF64D8E38AB0BA9A1117D7C3A0EC44F44F4023095E80BA610DE336D0F99593A88BFC5306E72DF98F7FD132ED95878DF2964EA7E43071359FD83B2BDF9C6B5BDF768F0F3C0FC351199526F53D9460A345
311
11F75D1B63E488178569472C91A94497807A3FD4A390C6558F26D416365C3656DE6E769DA9D8FC73774E1709812842DD8EF96AED1960F79D21B395CDDFE6F92CB4EB962A4668C76990E2EF29798C8941D67DA50F4A5F947872460F1F6FDB794E8A29FD7AC0C0D6E0714339CE258FB17AE8535221E3464A10F29A0BE5EEECEF
311
C5675926A89F49EB14E5711894F6586DB5754EB4D5DA9C6437EBA57DB97A24F8B8A8DB295FFD73266CF57E82694DF5166DDF93573AFE9C9C5EB05F8FEF8E89E0A8917B0B3724DB7BEBB53252581EFC3E38166BA131A3A5B42FE2AD00A769BBFA4458D2DE7822F8C4F63D0B8E21B285AE13325F3410A435C648C9D91FDEB109
311
E73CEDA7BC796961AF79175E1A3CE4C5E8B0D009B0C9E29EFD98BC8E97554E3D8D838424E270F7685226E5AC268E021EDE3522D583E8F20C0BDE2959EF5BBFEEDAB32FE9A3ED0E39F211A86AA9DEBFC68182EDED132AB8BB794442D2D7EA9F4D8BFF52BC4D55BB165124EE90A42D101E67BBBB292FFB4F66DE5BF2300E4454
311
6757DA7CEF8932BFC9F92A0707953491A55C5A5ACEDABD9FA1AEA01BAC3DC5A24E22E7C47213493996EFBC369D086ED9397C9BA6C7F9855C7BD5E15BFC8C53DB3D2A4C5901A57ACD2FBDF4D1676E95338B2C2BCE65FDA4C64F5FEFDC7D9CA5AA1FCF11E193F2FDABF0F4916BF13FB916A224380E6462A9815F2300DC49CC4D
311
F8D055CEF76462F4B7A7ACA7365C2707891370BC1D0AA6203C44CCAB47084FEC057F27FFCD57F89B8B9852459798A675C66BD7CE572CAF71FF7E6D7ECF7BF62CAB7B3F1107DCD04DC55A3F9961700286141C94A4F771FEB2BCDA2DDEE0CB0BAE402FF1DB0100F8E475DFFFC074DDB4498AB7D186A7654DDB1CB680D703D47C
311
EB4E72F8CB13D86A4AA68116E26387B93FD6738779B34FEDB8E517EDF2BAF28D9BE93A1D3A164320E07D42E514725C29515FF361754213EDE06B079A2E99EB1CA82A02019EADEEB87B9AF005BD04BBCECB14AACD6B24EFBE482194A97DD32400685FF1FEF1544D1B14EFB1E7F08E6D2CD2AF52DE757F35F5E62332EE88EA26
311
417AD5C3E0E319D68F25414E6D672BD4522B278C57D18F0113921C71D96527E091F00CEB15AE23D24667369BD3CEFA10C7549D930890BA4366F4EBC55F01F746109F98ABCDD5A3EE06619C6AD78AB33E48E4C9BD21BF7478B385EC05C4F8987E2C1BFA0A60EBEDAA0AE0B015C2720ECE180FB6F2DEFBEB822D96338C9B6382
311
2183BBF52FB664A7AE57003AABCE512BF77E7E31BDA2E739AC4C131657DDFE5225E900FB56CC01CDE808FA4A9C9DA16AC679656BB64796283D89812B8F91136AE18EE5EBBAF47A73BE3C153EB5D4CD491B4BFB4FE690A4CF9ABA08C0D8AA64220C438C96EA6CA80B58FE5761E697B3A292EB9FBDA502FA863E49FE694ADDFF
311
F9D62C520BDD1A22014147A0903A05B9B729F54272EF83931FEEC057BFF8C8055C279EAC5C0011804828734024F6CFA319C9CC6867C727184465CD9BB7ED386AFFD96B294A85E3802FAE47244602D8273615952B98C4F23F7EAE4463D9D638EEE374A20959E0FE519C4CFB0FBFE5DD80C2AA3F9DB961D1BDE57E67C9BB47B7
311
7FDD74EE3094F5DBBE3EBC1FBDB7393F5116263009E2EFE1AF9A221B2AE234C902BF70E9F280ED23E73908361565964333A3F01D0B006AF32FB21AA1316744B489D5A198E85299241735BE559675130955C902A8ED761FC0DBE337A9F91919AF5CE32AF902ADF9AB2615E00E8A94586BA1A90839B61832FF1BFB76D2EFADE6
311
DB1BA04CCAD3DA649E7E2A0219F592E22F2AD54847EEA8E42271011E9074F8F3DD9FBA6CDF88FFC9FC7E811AD1CA8F4557CE4AFC7BBEDCF0114A48689F20A584520C74DA8127124B767E2FB91A6B186246727BE63C9445BAE02088D58B8EFDC0F1072407CD9B89A13F6303B4A928F593AD489B58E6869325790ADC406036C5
311
91729FE14021F94B7796BB11848D463536A092A26F077F94639F7CEEE2A724C66EC885F4A24F8B8A0AC321F8FD149BA529460FAA34E4663C02D41FDF80BCA222D42F0ABFF8490F4FA74C673807C2051D8E467B47B616072860069A9A303ABA9B319D58404461401B0A0F9BE5E1E151C14BC33B32ABE03DDE91708DFAEB15E7
311
C0D593C86BB7D7EC17BE56E57975F077BFD5525F3A1A361D584A75E08CF29FC7B44B2B3085014F3A5A14517377C3F6B8F37E59514C3B12F8AACDEDDA4DFC49BE5710101534CD6FB6DE15B50F11A09472AABA727F0C49D9CB906B158030065F48EB3625E010CEC1D511D0053474B11E6A4F01C0D6EF1BED3A944FDEC70E0DDC
311
DC756C86545910E0DAE3BE3AA9A404574C2995CD5CAF9549226BC94B4F4F0F5F9086F418F6B32346464610D8BC7391D3C3A3CCF04CFC1FB2A3A3170E369511868F14EEA4E5E438CC73DB1F3248AA94B6B2FF33B222FF3D1E7BF146CAD229770158063BCE4F5391964DF62F7E52A7BE0EEA829C9E13C4C147D6F93FE59E111D
311
AB5E4594D6F3CD1AD375EE039930EFE5AF2BB2D41C83C7DABD8C659BAFBE8FAB392CA634F3D15C1D945DB4588D2B0824A4EC928AAC565557CA2F0DAA588CA5BE30B3A8004F7BF005E96CBF891D7F18112A3619FDF530DC8AA64954258E1811789B5189B49B4EB53F5F89F7D37523894F3EB57B373763C91E502F52CC99EB7B
311
DDF933FC324C4FFC2561DFFA7339FAFDD0A4BFBE6D3A8FF9ED1FC49898139864602458968913181918F719CCF5A68B2EE9C1FF050E34E63107003B8120FA982C21B30A874E4F5E4B38D5A8290C4B8D9BE48A0BE31EA995BDC37AC6DE90BA17D259DEF53605D55922FEB1855D915B659FBEB350EE0DFB2F9F766E1C84CC8964
311
B75D08667445EAB966015F63A18A9E0A325C1B3DC628C0D3CB60F767FA93CC65F25458BD23C3B312716E5F40E5858AC06EBA9AB14F95DB99147B832069201541D09A0D856E12C629CF32683760EE855537D1901988D5EBC156676C7DD51D7207CF3267AF1D76C2AD867315E44618015313A98B19941C696FED3461CAA9B541
311
5F918556D7802EDACEFD6B2E45853A9735DFC9DBF7E440F9319F8B6805A973BCCDC76C069A9144E51F187EDCC12FC31B5DEAAF0A76137199B106EC84ADA6B6EE697D4E6A96E007417F4E880E8B1E89B4BCE9D81EF611E2ED8F0C1A6C25F620FAFAAB656A7C42D464880E8AFAB0E0FC8EA38CA9A8AEEAEE3E4648BA4680270A
311
89743CDD3E6C6CBF34B7B640EFA285ABC7EA0A1E28F3CC963D114A80123EE66D0AF7D5380EB41909B605AB4765B709B808590458157E69BA1378FEC4B48CAF6A730E3BE3C5EF2DD1A5EAF94B1DDE50CEB55DDFD7EE9A16747FA4B223359FB1FCC69E1194892BABB93A1D5C4E807AC0EA2E30180811E77A2291F6E7F7FAA5E0
311
F60215BC6024E48DE436C511F0628B8CA189982D4D83CCA17D305A7E923C37941CFDFDCD93ACAF735EF5F0E61BBD3E6C41A59B242790D3A3BAC7064DCD89AA2E37214EC839820949D5CAA31E240D2948E48F690298974A96BA9A8432BC90F5071D6537C9666EA4564796B7AFFFA548077BEEA75F63083435074BA182F36995
311
57397F71548383FDA8CA34D99B981E72835ECDA5DDDC151315173D05A21F651AAF8524E88209E2E7A737ED1045800CE3390050BCFB8BE588DF111617874C62575039CA588EEFDEFEFE319B739DE2EDC147092A262611E159650E787917885EF08F1F51B8F2D8A71D60B58B190FEF9541A1BE94BC19FEA50784DA1419FE4B0F
311
B51B8D36B5FF8E1286FD8AF42B91E59A5F1CC4D60174E764045FD8C57B18209B217F89A62252BD20BE0E63E12B8E8F029FE19E0E8D0870F58721A557082250D5424F7909369376E41666C0EE77CD87CB283F661D5FB6D0DA023CB67320A20DC7BE661E9E1BFE5463085C557DA1FF9BE835733766C3D139F2CF9E2208873AD0
311
EB4814DE9E6BF2CAF81614D4D43906ED1C05A3265CABBFE192770FC2F64F940CB6B17B5F166F133C9AEEAD2641807C3E69515171DD74C4A85311513D6EC9530B3B601B6BA3EBFF3B5C3D2F7D69765141E345F75433953D013ADDF8F6AA7DC3F4A7563FE5C7D367937E2900D7EAD0F9FC9A4A1A9B5BDF1FEF08532660C01C5D
311
6DE22199AA774383E306DAB87E301ABB7D213887F9869D4942D0D71E94B27EDF216A318BD488D45DF84529EF575AF3C3938C0AAA0215B01994153E2054A0B894DA5C784980633AAD48576957CF4AEAEAFADC7C587368551C73DBE1E57C58AC713303A8BFC258BD04B51724459FF9E24C03A81E0E0679CEB9B348C0DC998FEB
311
9C6D6EFA77D247CC8F92D3848599ED89A23218D0636465AD1CEEB7DC140D7426F83491C4E8E8281C2FB35240918FFECE880CA2A42D70E8B20B34DF5221C7DB0CF90ECCB9C745B37A47E9B716FF7A97B7A252C1F3814DC7B1E1A7F72B8751D524EF7CAE45B0C73B3BE7D08ED39781B380DDFC9AA4A4749C9493DB5BAD07A6EA
311
6C092FBD0E85DB004DF06B8C9D3089C5320187E4CE1846158C7EA7DDAE8AD9AFFF21AA3A1026BB06A259845E8232DEE62811A4DA9CEAB3A4887320B76E2AE5615EAB7BDF738CBDD01F1E64064BC13D9EC53576751CA8CACD58B3CEB0E6CA585BD089B2A59B9FC101403387AADBDBE70586B93D64BF3AD4453EF9C3B6A93817
311
E8346991798601344F79A83C51F3D50F7BF2683A3605F51A72449489E0EE6169C749C60B1035651103AEE24D24E51A759C840DD3FC6504DA6FE107510E447B43461C79D22970B75DE5E1BD3007D1AFC619A4A4A69B5626AF5E9B8374E20677F77E2F8E73DF868E8BEC7EBA7B6A75EEF7205E1AB9486CB642741D6E03FF13FC
311
CEDB1C4AC129886268B01CDF4B124AF797CF784F3C6DEC97A17D4B558070A0F1C04DA4FF9BDBF34159AEFE958479824B3F58EBD1E19088A2AFDE501B6F2052368A3FD0E650A179EFAB1561E1D27527077136E652676C3670F42DCB3352F48F6BC86D2C3B0051727E41A0A4DC6CE2BE9D47F5CAA2935A3C0539AF0806659971
311
94ABECD723B08129CC5B6B21D2E7D54CD4D12610E7E9FB8306771A89576C7A982002775ED44F3F744CF21EEBB27A631671D921938AAEE3EB0D19CD1E083727F607823E817BF599DCED5394E37EEBC2E88782E638920CA641EF74D4CDFCDEF06F4278ECB18E31E7E9876F2D783C8BF429C75395F57E98C2B495A3DA077EB3AC
311
3C158608B6B57FE3EA48484D9A480096FCEE0DE880950E7E5A5714131C5C41AAA29FD19AE81AC145FA1B9E85C7169A5AB837B213493DF7E9AA4B5FBF9CDEB36EBD21EF1181B7CF7366AB2A951D01E37AF4EB835D1BE8C117CFBE7625D2EBCDB0B20C5A4B45CED0BCDE3EE8DA9DA78C2E21DEAAFFD1197E463C33CC6A80FB78
311
5669B856EFF7A8CCCA2841B5A5369173320B1170C368B2748D81062EA0296E5E2D95D7667A4A46D98A6FF475C76AAB0A8C8D45E226FAFC9FE0133EA9F60111F99CA81ACE03A1D14C89E8B0D69079C91464FA1D99E651D0EAF606F345C42A8A1AA9BA391031582B96D5B4176A77AADB01F12FD298A75DEEBB2C82F0B8650E88
311
0722F8DDD90C56A7A058E5FDEF1AC93545BA27367C76F5D8F9690CB6F8DAE141EDD7971F0FB548A2AE435F224D6E5954CA155512F7332029D5A1230854B79F258EC5FFDB09F5F6343A8EB193229B7F7E79B3E48F8E183860B38C8269D1B53738FF1E0BACF6AADA6D4869E9DE708E79B5DADCC09B1BC76F649731CFAF59A83F
311
D8BAE4C749D66FA87A3810D4D62FFE826FA400C0F325D2BC0F3CA35F5847B82A2ACC7961745C823E4D863D54460AF792CE6F79B5C7A33B25C3AEA6CDE15A919B6367D781E9D44F61BF828672594A3E1D9EDD6DF179A81F27EAC05B936575D73E05C209DDD2115CFB705DF9BBF3C911589B3640735E9E618FC9C36A7326C82B
311
2205E244C55D56FDB9D5DC93CE958D4BF8174D2B3DA54CB3C09F2C2A6DFF73D23B2197355761AD421EC581284A7EF8DE2CE3497C0C804D49B41DFD6A7360844E5BEFFB495CFCDB97A4595911CDBA623274CE852B5E278AF0BEB1770E9D37CD977B2766A7DED0E94B840E1E95E8C77DE5CB6354AF7871427C28ADBEEF7BA0A2
311
8E19DE9ACD75F379FE373EAE6DDDAE3834692F9C2B03B4FCA8FCA9ABE8EEEBEBB725B88A7C90941E850682CA04061A7DF0CE82ED49BFAFFD42C309818FAE14755CAAE78B0F73243ECCCAD7DF58FCB9CDFAE7A4D3E6671A613639130D056C8383C8F4FCF4808C331E544DD26E4755D09EA05253B3049A1E32587CC25D72E073
311
E2CD96D04A71BBCB0038FEC3F53D254199C3CDC67CD66640269431860225392B2CB3ECD0B4498AAE78BA1994246AE1EE78F2EDFB79F6C6CB6B5E279C4D373FBC21CB2698C9ACBBEB6A4BB6B39E16AB0E421CCBFC7654D81ED86022F9BB522146F9F4772E2D0E4FA70120C95A85A417BF5078B232F4754363EB1750B2AC2148
311
EB46B1EA72AD9B4D23ADCBC589D70106C3EC2ABEEED84DFE28E718C6C83502C28E9FDD3B09DA0A6F6F7B72B706A31C9E2A331EE70DA56A083D2177BFD63C55B11D8D949FAFCF90B23A1E24B9B5018B9A17E99F2890EC302F330FE7936E2C23F0D237EC8916F5166AB84B62A21BB0B950146962D754F92CC2C8877BED8FC7B7
311
B25726DD19545392570B3A2C66B58F027BEF412E552D12A588C4A3CC5C3193FCB3485EFFF700D0B9EEC077754A33DC1FB9E25AF814628F91DDFECB667D3F7690803F38D13F8AE39353523BB08FC6760144AFA2CE28236F65EDBB3D5F59A57D612B99E3D7E5F8A851666BF9B5A6658EFC96EEB37A378ABB0EB3FDDF1303AF32
311
C41BD1C8560745D7BD81066B0D6313359CF488563D3BA3F8E2185D1FAA3EBA1397C9D0E3DD232180A4DCADB6AF25DB3AC3CC26589C8239E66E81547BC7E2F328F9884764CA37EB5DBE390DFC03A5246B456A7C3684C4377D0EEF9A350680FA9A077E8B2957B489E09AB1AD41316944C2254B5984830F691C93CAA767EECF97
311
6FA5647538830B5E63236A6F0365C1E0F3E327F24FE35EDDBD7360B0F7374837409F7A6311BECC12B7026D4FA1AE204FA3F5FE904B1F420C7A9044AE58E403E7C4848E7DA25DC9EDAC79DD756FAA26B9EA83ACE8A214A2612A22AFA19DAE7DBAC5F8CDE1292A485F98DAC731A29FE01A3966E96BCB9FB5A4C8830E1B9AF0C5
311
4B87FBE221A097036E5D28D1F869F810C06A9BB0AC0612F69AEBAF893C6E7AD59460208BAB3A6B09CA4F6BDDAB8CF0D1F84B72487498395A70DCD754796E271099A567A55CF242BBED64696378BB6CF25EF0FCDB589F3A82F1116D010A9AB9FA4358809EE0C973A2B4229BAA876A70B03AB49CBA7FBE71DB1832FFD32F9BF2
311
C8E98075CACAFB36921235D0F552B6A67E94E094097A5D7DF681B40623DA535ADA7A9AD8E9A62407D7C9A5AE51D62A17A83A23728DE86BB56115804D3F2675F2C6B87541A0FC497BF0CA86420F558C9859EBE9FAD62747E323E3AADC03FDCDDFE7407B09DA90B44E3185723C5381EAEF589765E2F7A099BA46695BAD60CEF3
311
491B8A171F5F56444F7CE9455312C3498C74173AEA0214EC029833B34B650CBB5A5508D5091665309642791708ECF27CF11DB3D797D6CFE474453BD4BFADB768094B2147814D81C7CBAF8228DCAF5564B5891F5EF6A860EB2E323CB82AB868D8EA048880D63B0DE5341F1B3D53297B928A11E15F25E5148990F710747C3509
311
ED14909C552EBE3973246FCE55D00564D8310BC3EBC5085D08D806799B77D6C57FDF5E55837F9E934F09C03C729271B64F12D0A9F9E938107CAF7BF1EC8CF1BB9B42363D33070F4CACB425E605DDB0A34A12BB936DE286B9887A4E2E558F0886498BFF49C311D96C277CF6A9FC0D75AD0ECC5226D7E0E3572012E56D7FDE44
311
10CEC7A6D0F997F225A2055B8B92E3956E875AE4993CB3D4C9063AF98FD45E1BAB165640A43439A2C9181A7C355B297C0A0CCFFAE19B6FA3C2BA238A885FBC98B8F6DAF4B94B97304878DF4D8BFF6A4AEDF79E90ED4E68F00CD7299F4E0D83E35601AF0CBEF18C1E870E74758FA91F5131075004DB3CFCF09AE1DABC11957F
311
D9808C92E8A678CE9DBE40DDA0E0D1D505AAFBCBA208232BFB6FB3704E8985E61ADE53DE74152F5C7DE74B1DEDCD37DC3E8FB30D7EBA8B9EFFC3606BF90B8D438279CB7709FC7C00D327F41817EEA71CD9E49FE9C8C9A81C70915D9F0F15958EC5AA4C3BBFAF46986B90F188BDB24B89DE3C6F29EC3E6F66D84856EE96A35E
311
657CA41B41EFD8DBFA16AD6E91439EA92B40B21C053249F51AE50EB0B24C770FFAF40DF12C8436366819C48E36547D4E7B72FE2BBF10828583057814A668BDF183F6B2E58DFB151103E56303E63D00F39C27C4661605DB644D19175D02E3F0241E8FC3458D17AAAADB117CE9EEA690D0DB01E634878C04C2C9310B69FCAB83
311
1151E3AD293BEF6E46B0ABCECB50F5939B39C613D41E81FAE8D34CAE3C4566B761D37185FE864AC32FCB71AEF39DAA5BAB88609BB980CD2F07A8F941653B529567726E2B2A58D079DD57E1E5E31426CF184A04D7B03B985F276D47406AF276FE32E3328BA866EB1FD39BEF57863A317634AA5FE467409B3873F5069EF0D71A
311
F00AD189D17BA1974ECDB2D623E9E14086386A6AAB5807825C37B015BFE892AFD154920EC437EB945D958E18622E1E0FE2FA06557CE4BB9BBD05A2D40E774DA2B65473791E314B7D6C886820B2FCFE4AA272B3B8B15E7344A145E8AF919B5454D89D36D413E87211186BF6F645E5EC94DCCE8E1C799022E4EC9BC86D7A0F2A
311
FB1FC4B2CE48F84B3F49ECE65BAD24CADCC07EFF39AB06BE9E6B27A059938EA7208838455383DDBCFCD967DDE4650EF92A14FF933C975DB20BD7FEEBC4487576485963D757D16340D9599FEB362F775F38CA4185A86F74B629C81B133644A3B18FD056E997E0734F9BE26D11C0AAFC669E2AC9FC41D281F8B2E1C35AE27BCE
311
05F3DA295488096688719D974DF1B5D182DB7792288697F8763CFB43562C1CDEE11C4AABD5C22B6E33F6F389CFC3477C5919DC0D533F8A7A1846B7ADB60ABDC26C43D0CFC8910B7C15EE22675BD02702ED39DB77A87A192CA7A543E6205B979B9F5A6B512A3CA799E198B2D5797C0AF8D1D872CA455D4D431A7879D4DD7611
311
0B5FF7F4176B54477A9EB5E4A5D11214FDA585F0382751D8E2582BA5D2075053298FEB8F1537304E32CB22C2E2B693DC0A760B1DFCA751BDC445AFDCBB12820ED85F6D5298933C7EF1211E9E057684056CDA3FEF3BB6052355E162DF27C59E965A8DDB7F9437EB72CDDA3A090DE65A5B2F50326247B7EC67B73ACC7047FC9B
311
353D6EE990F772207C6EC52B39DC2F3C0754821DAB559F7C1809C7D0DD5B0499D0442E0A6E391B3D5DB46D11E731E6794EC77523FBDAA242ED67F9FA1FB684255671F63C9BCFE6E7E896D51001A6113EF2298BA494E0B0980D1FA5B9D60796554C02256B1E0345FB7C6186B6A19D2DCA270416262845FA4F42DB5D9B0A0B6F
311
07FCA2E56C242522E001E0CEB734AF310FC8BFB57E38E03AACE93B3326A2197891E68452B26A6307FDABFEE0223D3C03C3C73D2D5BC054C8311F12004CAE488E5C29287F8156A2CAA4AD0D7BE6B97264E4139F437CE73ADF52E5134C52B819777C18B323A5924E4F67AFD13B1CDC3A61793A79FAF5C0CEB718E441071E797C
311
6DCCB9EFCF7E4A1E9F3DF3C2F9C9E8294E9586868788C972857FB0556D7A26941A7EEB9B580AD78EC40B85DC906B4120A563CA3B87797ED612D3B035962BB75F6515A393F4CB057F564CDF54F2E5A024514E6A1F901DB80C7E70B1FC05E356A7E72FABF4775B3E3FB8F70A2A8E7B6A94542BB304157978CCC999E707A29CC7
311
95E67A59CC546A5D47B368954CA7B6E75EC9E1F6FC73CE3B4F71F8CB1A6B15923D61EAAEB14626AAA9D04A26EB9C66CD1BE86CA31A5D8703DE04CD1EBCE4F5CCB62F93909AD11E55799A781A956ED27D3E738F4538CB04ADABC7DAEF20BC35BA6A90BCC1DC61BA05F20D8832FFB9BC9B15E2DB838A0AFBB7E0C82A562127E0
311
446894F427794C3037186F622BF24DE1B00AA10A23BFA47B2A180D6DA5AD6F7326FEB8C100C2D7142EB2A0B2A9D1008A09BA343D70E054AB69E2A7EDB783CBD92537FAF4A44D1296AC2792729104B3276C276C951D0CF3CF3F1E6B017720A7B8505A5FF9589365979678C36F1BAF759EAF57C60F1FF5FE9DCF5F8E764FF25A
311
2D06CF25117A8FED51884C13B2B750DB0E4F5E3D64124FCF11F0AD8F1CC3B3DA4B38ED22BF1CB2585EE6BFEBBA63FBFD44F9537B9B37BDD6B358720F98A8125AED4349CCFEB0E135F19E208A04CA7E2B10711185D72E381F448036EF57C9F874E54A971CA37A639E986AC0226DC5AA00D5B14FEA9192234B3DE617814FC221
311
C92F33F1D392F297731B567FD98FD91D989379AF567A65B8ADF177591DB90FBEA99BF4ED11B16E50A0AB1DBF1156D034BBE04D69D08F939D8E92BF525A1DDAFF80ECBC95D8F45D3FDD289FD23F7D8B452F8EBB34EC082DEEE68E18EDDF072060FAD2AB1504DD4879BF67099FC58F6E9DEFBF645D16334A3E9A127C6F1AF613
311
2CF287E433B43A0EE93812B4AA0B194E03EE3FF91EF9C6ED0074A2F6EB18A96A7C9890B1FCDA1F2095E944DB911ED54C60DF16FB74C8CE9BDC7C54C4F14078CF73C2FFF1F1BBCCD7CF64F71407EA1683DBC410D226627F66E509060D5C0AFD611DE681D509DB8DD12FB1265B03C6F5C55FF4C30BD94187FF692B4F15298250
311
2F193098A789526A038AB529A52BC0DC4FB6285CBAC10A8B8DB75DCD9BDABBB221E27D1F8DA9F5EE5926A1C8AA9BA9BC09239C6A7F12914EA3B59EFF7AAEC3FFCCE56F1C5C2980AD072793527565E774F4631DB178CEEC691B1F367BEA0CF2907E1D6B854D527065979DDEF002D8B2ACEA7CE21AE297737EDE1D45B31233B7
311
3FEA35BCFDD0B09721FDBAF6432681F2FD10C3E9EFB246FD6E854B344ACC9D8A0EEF876A7314B49B6A499FC650B099D650DBFEC7638ADFD245E2B7839DA5AC5F7D5623FC0ECEEC8653FC9B2BDD1AD4D00A566FBA7186DD3C9CD26512551637498CADB950FEC71ADB9A5524285DE328B8EC7EC75D2345AEC6A27C42AF6D9B92
311
155315C80DBFCABBB7DA0FAE425C4FB896B15C9BFAC4FE67DF5A23D30C93DA4D8F36FB15D100050DA6062E22AEC5F4DAC4F6FEEF97AE05DE63C6D38F9E068A20BC5E3B6BCD75320C5090924E7F93640A7735B1A43451C2D91EE62C6238B797349E59890AF3A520DF4A87095F3ABEC2E61F0593416CE46CDCBE0E00E2523FCC
311
D04408588B5B6C9DB6459C786CE378770B54F51DA3A5E1DF2A3349BEAAC234A6CF8993B598B3B25B4B113E353A4D750FA7534749430F3EBF2512E7EA3FD43C6AB9A1F765A58463B306721A15D224FAFE8C6F5E3432D57EE697DA0DD5A9D4866A8BCCAAA9DFF1F06047851408FEC060471D0E3EB86BFAF46E4B5E60311DC3E3
311
CEA147C75CF971BE74689507154FF2D2E92F15CDB2B9182B11459FD8ACAC5A85F174BC94A7F4EE4C4F5CAFA7C02E37BF0BC77B7DCD0C047BC316F562A01A441AFA7931CC84A28CB9F4AA367EB515778F29BFE61195FA671F4352E5E46E3A64773F1F76EE5EB36D7BCE9BCEAD837A4D77F8DB8C92AEEF6711920D7C7D0F76B0
311
FD0EB7AB83724CD35BCA7D36DDDF5FBB7FF6F04A91F3E2BB3B8F1A43CD659639507FF6331C5F697BCC782AE57D757A27D97F1AB9E0AEDB43F92F1B2AACDF5FEC8ADBAF9F814E2027003BA2F9E144B1938A7A04050AE5D953B82C45619165C813A10E76DD6906B3C16438064D14CDA713AEC420034613E1AC7241904A49FBF8
311
7409AFB1FCB9B72FE7933A87D8FBEDACECE4EDCF6A4FE9FB94D5DEB74FAB7CFEAE17EE965DF980DCCA2D04134994F9A2E94D2265DA4FE6AA7B7AC15FACAC2B5ABBCD7DFF542C5314FDAB2E1B9D8B65220B8E2B638BE008E8DCA22678C820C5053664D15E89F2D735B51A84955E81A443545E9FF787BE0FA700A76D136C27DA
311
179A7C6E8939E01BE756E19CB292798063D8B97F44E8A27BCF3A614FEB8BE974A718E86F7EC99B53CA35FA24F61F2B07266684623A3D4CF073E511F3A10A8FDAFAF0078C577F4DF9D339FE7862E5FA47CF4344209E5BF76D783B1B48E152AD281B15FCB934DCDA49CEC5706B1EE8B460F435324A5CAD154725E21AB8044B75
311
A557A79F6C807B9340AA3D92503E866F4274412926C8C504E4D5EF8C0E68DD0B028781A6B4054F11CF18941F101C57CCC796773ABC8DED9CD91FE5788806C05E548895354AEAC96546D55B0E94A59F148D061F42AA398D822CDECA4CDE79E13469BDCC44FDC990F366BA5978C15F97ED80CBFD73B0CD9B8B83A4F6845BDFBF
311
AF034019473FB9A63BD55D3A4A7284757071574029A4D016DCCBE95DD679EF3C4880BF169422F8C89B68A988D2B13793CAED4F74DE7486C72DC94DF46B8E93D8E02EFCB1FF9B3BA10C8AE7F653DF94F4AF466CDDCEF5776687F7C4C14B63E4EED1719DC2EC482D7DBCC7AE518CDE3D5FF86D39000EC3673C0044E1D308BF05
311
F74D1B5F033A7D1BE7F74BC55BBE3E4A20F920946CA0271EB17BD2B80E5660ACB8A29A79F5E4BBA49D4D945B6EEF4A7EFEAA65E5555BBB57A7E15D2F83C69F30BBB978D2B39F1F26FC097424D39BB33CA3D87ABF64E307938B685BAD44F71556A30B7E712CA4FE600613C3E554B69ADE949A7CFE214DF1FFF05CB82151EC6F
311
C31950239F94CF7AD39DC473F6EA356E5EC2C4EFA04383CEFE985A127484366FBEE3C0EC4FEA363E4F6632AE781392FD45D67B63FB8DF70E82734F431FD3443172A0E30A83D60982D55FA6A2CF86DBA8382502ACC6CDEF3B907982EED1160E14863FA242F9757347E1544275CCDCF71ECD5F8621CBEA326B8BA884AD7F8257
311
81923E66971F04010D574C541D8427A438A37EEF8AF88240EED7362C953F5A81DE2D56109CDE2524EA0F5D2F87308C0C47BD97AD605878AB8589E17CA83930CB5E0DCCD75853D68B1AB136594926DE426C367428E9334AFAFF90ECE221BB5DC9E5BB53D2CDEF954EAA9CD814F0E5725F1965DD458E5F8487683AD86B9D0076
311
BE3EE91EB1CECC5331A67A3F79D8B27587C12EC2A6A70474749F27B4C0BBAFB94B34189E88DC18964BE4121B9137FD516C7755356E50D6714E31ACD222621EBBCD1CFF81D87479056A9DA0E0B8EA19D24CF937DA89F78E8650CCBDC110AAB6C4E46DCBFD0446BA9E2060E81F314AC2031E88135E5476AC0160EF5C0DD2EEF1
311
B8B5CB2D198BE9A554A9093B5F7D7E4B5407DDFCA1D9C152FD97F55BFFFDFE802954DFEC8995B983E28AC92F1971E28F531DC407A1280EB125F64A72E617EFB27DFBCEDCDA2D6F2BDADA36873EE46B9BE1782998C63DA7182BC383FB6FD15DA472B175D7E8B4FC88F38D6E07FEAA3FA3CBB8F6B449ECF14D2175E5C5CCA3A4
311
2ABF24CA6C9395AF74535F4DDB38CB84F56614B0FD32D7E19CA5CF988DB4449C40E23DF2B16772594554579094450F56F253CD25EA7F77366FB1CFE79696C428BB64D5A41E986189427E5E4D7E2DAE3D5BB4972B3DC44EAABDDDD63A2264ECFA5C786EB0EE1FDC5BE34FA0F08376869FD1E61EA06CAE15191135445EE8F039
311
4161C3266A596AA035572BB0C8876180D8B9C77D307DF9DCDF7365ABDA6F3A2366436457A4DFC1F259666569A9E4A79C817BDD5610E5200FCE894A358EC72858D50EF67545DA81C6FACE3D457BAF70367E1E6BDD9A952FB4F56247F58F523B97E640246051A72F79BE42FFA0B3187F63097F91C48B868586F714B0EBD5A00A
311
8412C1236E1298F60C72BE6C96B82B404CADAA304AE9F303176B14BA53FBC2D5E86377E35542019E24D97B96A49B2C0E5006E7795954DEAF5DA58958839043C6C70BD3B1B33B6DC5C31316D8A6923F142E26F6711A2258AF977DDF1F970ECC4F1F2B434B96D81BEB6E89BF3BBB3C7C8CC80505070723D6D7D7D3C8CA27CA16
311
4A26024FED94B12A86031867241DA53D929636DA600F050BC40CE48B8BA03D69224720DEE2ED2127390BDF5E6EA64527BBD4C4C63FA76BB801FEEC0E61218EC98A8A86CD8313781617877E66692839B9468CF4DB8E50A73986E558E309C0D6F676F921BE02F1185454DC75B111572FF9D27D85EA14C05AD7271225B391C427
311
5659CA4A43759D0BA44639BE4C30A84DB7F67A41399FB95CBF923B1B1672ABC807C1590557FB18D811983FA97F5E609516D62281D38B1281F68FC75528C35E4CD7DF0F7DBB5E5DD69C414EBEA2F4A5B241B996BA77AE6C772E367408C633EA3E438B68563EA8BE7667F3A4C4FDEEA52ABD78A2820F443B7914A15F180018D2
311
31E64519C56A12F6CA7C8DAE18F06F6B769DBF92329EF6A5D18FBCE600F36BD8E8198DE5CDAA96181F3A756EBA5501CEE58F497EA4F418A2B82565B9BCC611713C0B708CCA1F398B78C5F7D03B3437CC18F13061F55C7BEDADD5ACB1DB0E36D3CE47FF6EA1A563A57E9649EA5D14D1A50EAA457463381C073777EF1600607B
311
AF6428A7DDC079D47A204EF1E1F1F0589FB054D45E02CE623B3823C317C601E589E22B1E88B448524B86A82828E32345EC18AE17214B42F8C41C6D428016D9BA31DDCB47572561E5A402E5BA4FCE55F78AF7268524AA04130F3A20BA5D1E9F9948EA48FC8F5314FDB35E21898198060034ACE5E3E2BBCA34092518F275190A
311
F65F45867FF0900AA4B81F25427414C372BF51DC29AA855C5428EE1EEDD6B849AD60F6E73475C2D2523F8A2772C840A478DED18A8C5C91B085F255DC4F54EA7AA8947354FD17ECF8FB3B4A0DE7B483CAF3A1165EE05BBA413E5C1FEF3DE1D6B8F2F3F3251C17D9FCAB48A9AAF63AC773A0E413BBC46A9ADF84A566FC920E4D
311
8C52C9769EE3301CADEEEDD92B312E02E2A7E35B7F1E7D203FE5A7D75578B06E99D0E46FFADB8FDA17ED8880390DA29094202D6F645F76F6F96409CDA05495A96E84B04A00D1A6C6C81D7F3DE9376E828CCF144EE50E364ACCE7237EA0BFB5607ED1AC3CFE73794E5B61739D14DF1743441B1AC98F00ECEDE9E7301FA29755
311
FBEFA68C91EF2B314CF510537EF1ABFC9A762496280B546F5EDAAF8A5B387D469FC9A878A92828C88608453ACEC6094DCA54111E7AD5B2663DFE2DD151B7F123B9F4FEF8EE36AB125FD7AD52A59B1B765B3E3F73E3F73DEA93875004D2AFFE3CDE9493B87A9904DD052028949041A91DC0E1BA47BA714343FD5B25E0A6A095
311
03AFC17C790058A836A324FE31D7893512E28230332F153181C1E018E1124EBE1BA262AA428A518237D1EA7275E48C5C561BD19ED6912EDD8367DA0F31E40EEAE9683DA9257525AEA7B632B97119E17145A90231768A4F3B9120FF32E8319B015E3CBE26F1A754177D8185345817C096B0CE443A955D13AC15E1FB5DEEA023
311
9EC32A3C92241A237B0B02FFCB4F93CF2B02570C8D192E2F2A68CEEB42F12E6F8CEEFF46C251E22B4341C56FB08CCE550E7A9D6F4D6564B9EA52A83D5BF2C6E03FA19D2775E15A8A7ACF30A13C259EE7F5EF2AC3BA354F1500E1A07FC63FB4686E2F12EC69719F9ECF5FE3F35598DF2CE944008CE78F0911BA5BE5D0A34E00
311
98FF038669C26030BA9B300303039852A8F6F496341737CA7E0D2E3AAA36DE0A70AA7D9CA0D54D9AD84B18A44C9E625475E1C97B93BEBB38DCE7D227E67A2D00F531436136355F243D1FC0D712C5765754FA22FCFFAE97919161F46D6E61ACB37D83777B385889770B50765B127768443A5C4D3A4E35A3151111F146B7CA11
311
6F918A049F1C272F2CD7976C69A0068773451659A97E0F4A08FE604C3FF6CE7385DB19F4D3ABC8A0D80DA8A42096AC377DB49382B36E270B6FA7570188B4B7D1DDDDA82ACA487CCA5D38BD3BD039ADBAFA4ACFF27809239B722081E2EB9F145320553D183F28471C388BC8814E5045676767AB58A8E72D1CED2CA731379515
311
D2E533E4CF0B39DFC625F97AC4836831A4DE330E87A8126FA17EBE583D614E71E22A8DBF2825599743E0640037303E8E1B1E8EA4E1ABFA4F62907B5E4E0E5DCFDAB417C36C6848A2B8D15F1E505434C0707E16B1CFC2A1C36A42BBF55734F8F4301DDC2A5110CEE8C0747F69519265012A2174BF4E955ECD4FDE095A3ABC70
311
536B7AD0B9D7892F81287D667C108703C9B66A221E9A0929D030008F77FF6F5D2108EF5706FC87A3069B976F7C9FC3239D13D283CDEA83597461079FEEE049B0F392889898B7D87D31F8D60ED7B56B91823A8E4EDDB36C6172ECEE42BD42B12CD67994FA0F0DFAE9389356F4CD4425A4B8AA55CBF7ECD585C6A2C2316791E4
311
3D5C06841ADBB226A87FD61515FFBB0167B74E56BD7F3E90A57A97FEDCBDF483A0D6699A8C0849CAEB4947FAA90D8E332D9DEBD9F4738C37DA0CAF9CF3DAA68BCB67C420459C7A64498D6E848E5CADE92BB6901F607AA331104A67F7CD650EE169B1DAE94D2C31C2F993632259B6957E246EFE4C5481107B07118607700040
311
E5812A2A2A38DA0076875258C753F60E0F2662C748EDD5F3F3686B8FC3BD6FE631ECCAA1E8B1C1E565AD117E54893E79F4672E32F9E46B2A183DFDCF3EECB4D4D077DBEA0DA254D256045109670050129E9B9B1A9E4A11344D61497A992778095151510C4BB7EF2009B63AA4360635312E4CF668B7E0D3D85A8688E2BD83B5
311
69439892ADB63461930D428E0DE42E4AC57CE48DA5CC1449530D8BD3D6A0F08DF20C8E8F570F2CFFFCEA286E30969B4654D498A58D9DA782E19FE3F002181838925592C4A1EF0B332D88B61A92C644547BED490D3A42CFFAB70E36D961F694F6307F72FF15A1C79D5B1B5CEFD353D9E2B52566DEC8F8F09CB3E8359C0F68EB
311
BB7898243E34E12A015B2685AB303C04D3A9E00671FF3DFF0A184E4A2ABEB2B666AF5B3A209C73D8EF29DCDB069C9F391EEE9DD0F74C7BCDE16F8F02E3B8816122BBEB50665775B600549D8BB33A54A6BF940C028118BC6878C79958D6784F9DEAA6E26748386FFAF8D0D0101E2847B6563F5D8DC1D78F787BE00E2C941AE1
311
2148D4A81599FE8F68D4DA5CDED75530ADE138240300EE13B0FC13A1687FED6774662C05A2B7DFB186732F0D7A93545D8B0A6390AE5054D9CB582DA846D7A061B3358B45E2B52DDE63E114397EDB7E09233A579155D795BE76102CF277F4DF8B188C4F2879BEAE3C08347124BF9ED23B128259FE107D31E34A652F090B30B3
311
9E0D9AF917B76A2806135621A8A60681F16AF216514BBD02711585B5B1AE823F4B2D0369EA5B6BCB863072727FFC871CA6C9AB79A814D989057E9470A3D238BC87CBB4A0EA49AFE2B86F22E499793CAA9047080450166BDC357524561E258C77CB697F1ABB32562CF87C3B7AA12F911EF19FB3E5C02222E887D08202A60A17
311
151F5E053A86B437771088B4FEE14D652C43E8D939995D34545E12E2FF93D4E366EAD25F10CB7DED141563C3D0C447AF06078A91135FD4B9611583CB4BF3BD167F2399CEAB0E0100F8FFC305F00F1711717173138B4B48C83022295DE657EFEDD97F238ECA80F528AFB4F8D67AD4E2594B9A3AA86D7487EFC313BA95745C18
311
6F0CDD84CC12DC9CB0424B42203D351FD9C0A3AF10CC7F388E0329279087386421F194F4A29464C1DEF7EF8BE515E4A199DCD5B909342598D8FE6A231F71336248D5CEC5454455C7BE383B3BC7B260FED27F703FDC39A170F3827239102F59D4DEE7FEF82EAA1A5E4BA94DCC4CC44E7E2EDE20F24244E4454369D2E87C3F82
311
3F193FD4FD27E1C23984B01898D15ABC20711A8A558054951A6AE280096BA36CBA439603B7B0B4C45F248C14B2383B4B5CD8ECECE4FF859AD4A6CA2326D020EF090F4041D28DB66E5256B56232CC52829DE8060BAE6BBF37D4B7469B822454FE93210A3E8D15E69FFCF01123222611C51C4FD0A041A0CFA2471CF6BE38D2B2
311
0FA4C3525B5B8B586759475CF80ADFE67A284AC24651E52B8E683D24C2622642F27E7C3C22783BCF63648BC398BD6CD0D9C97E7E7E3EACB6126DB7A6C1FD9F1031302EE67ED96F22B77C7CA0239BB324207559B105E4693EB26EC46182A92C9C0DBD24F29B31C5C5AC1F84300E0E17CEEAC15F5736FA4A98971E2F1423BFCD
311
68D4BBD5F86E74B40A369F39507C88FCDB35D2DD8DEBEA4AF999E23CF2816D204200DF6E611781B9884C1AC8888B4DE397320472959434323A5A36B22A8E1F721A270DF3BD65E4A31C11FF048AFB0D8B7B6881423793963A23CFCE935FC189ED36FAE35C46DA3574C979E4394BE52084F3081837BE033396D2EBD80F1F691B
311
273F660D2B32FA27A33B1DE4ADA5F0FA4651511102DFA410DDA86E065272CA314D5249DF91B06BB92807B28EFD54F08F7B525252782CD276DD02E6B0319B13DF87B1F6361AD6B28FC0D711CF445429B9E5A433CD493051C49A9E03DDB1B147D880253514A5DED88009018620EE229101C041950E2D8AA8E1F5F5438E0C0C0C
311
60EEDEE9E3E0C051948C69F84BB7B2A48A1F3C8EB9E6864687F4F4F6F6E2FA87608ADAF9C5E117B7C1A737E710769DA1D15ECE6A84502AA855398712D5FB51BE92E4EF824969CE18278798AC303C2C7980DD2500ADF8FB1E6D6C2FAAFF9987178923334A244758BAA01A9A1B70FA5097D01E1CC2A58DAD0EC94CE6430AA9B0
311
C10D75E3C6BAC670EFBADEE1607739CE0FC18A2587E3EC3058562014C64219C69BC269082D5C2F4A659278D585755912176D78A1B641719C2A394CED495A1AC5D583FD2F5EDD93308EA7EAE8A6DD396598BDBD3D4CFED62D18A5BDFDE0DD5C80D1A89BA62697B131AE7CE9A6594138582F1B37D68F1749AC7CB67A70695D48
311
A4A056AC1FBD4E82358CEAE38F54B95A9016F9000F9879C0D9D131768635CA798895F27D6F1614F11F2838A83611AA51C9A3DDB539D42979C29F10465655C17BEC3E2760B80DCBF609198C7B171A531905F3EC218D696025975E986C6B4C666666787271F202805577DD5A3EF0CAFAF91B62DC4B2DB4217A7606282F31D8DD
311
BC290593BAA93EA6353AFA9939B877978481E15CFC9F2755CDC00C538F63A4BA3E80AE009B73CA0185687D339A507D165B74290D6EE46D5C58148F020C3668ABE9EF2F7549170DC80DB41FFC1D678FF19AEB10C7133832B104B80F691B3138F97A92D26E551F1F110400D45AC71A9B9AC41A1A1B1DAEED0B0810638EFFB511
311
D46B121C6FEA0F38CD00E03CFFEB9713FE1F9C263E4DDEC160D0497FA9A132BA608584057FB15380825DE6C7FC3C667EE947D488A09898D8E939C4953BF4EC9836344D2CC6B2971B2A21A572B06096F4982D2CC7232D46E8EA69DC83722E267754D777F97F96D5DA74E1E75178084D0E70F12AD33E5F71EF2AFA599B2BEBF6
311
0A5BE475F444F240CBFE8143C334E7ED9150FEEFEF7EB020C4DBED388DD1D6A167A76F3CBF119B578AE8CFA7736ACAFA4440A1C47185638A0D2F3EB5BDDEFDA958FB13CE4AA4923D5BF840392D45544329525749734866684BF7F8D9D54D892E19BCA9F829A0F8BFCBEEA6CFDFC61D74EA1A645ED7A1FF241739F15694BD83
311
5B66FEC5677E40FE69BD3F91AE402F036537218A401CB0828604AD189E575015C6F3F6BBC8AC79CF6C70653847254B31551EFCBEB5978B9DB85D58D0FA41A9DFE9C624834AA04949D24B5AE6D299E072D152D12097920F14AA92C31C3B97E28B6C2E6E9C23D63043ECBBC0A60FDF5BD0C33C127EA8A3308B8B6AFFEB28B445
311
5BF6E7AF4FC6222728357EB8E46E85053E6A8843AB23295BF838ABDA94658FEF3F832F147046B4ACD6F7D48E8FCC9618582961C898D1C7A253C91BFECBDA6BA18A1FCF70755DCCEE2222F41B76D23CA98D0CB3D95F0CF66D57FFF65E2A90F5DF40FC3187621E981BD0BC1D992787212688976B94A8F0C6EF646624B570B78E
311
068826F87CE27041A95C9A4871FF65CC17FCB1639629AD6A9517000D63AC231F3D741CB8430777E7ECF80CE7A3F73C0F162F7E56AA71F4DA80A33CD6ACEE78E2C11FAC03DAFCE929B106F8F6B3ED2DC71FF994BD9CEF4E9A94896EF1B6E2B7B4978168BCF0847A3D2A4F1B0500B926E634B174548E9FBAD27153FB5FC36799
311
B1E6C7C38A94E1F9E996796D7B485E635D5287A2AE76FBD11A341DB3F8F810385BB7296391973DC6C37C452A9305AEBBE0CDB6C566DB59FE60C8E94B1FD090354BF51439FFD1B48D725228FFA88C84F686F547107A7A235665A4593B7C34D748C1AC8D56DD5DA861EEFBADDECBBD65117E65851F90351AEB65F0EFCFF4BCFE
311
F24CB7A5879699FAC437A7AF9099186CF006BB923A59E37D7A36A29FD8D2CBB914A5E9D0A8FD212FBF796AE9A67958FF1D5D8B85F78F96219D4714EB919929241B6C018AAE0C02069F8D919961EC5DDFBFB7573E3AC8E08BFB7C8534BE6DE045B3CD63DBD71F7638BA2309CAE398EA3A7D8F98BBBC7AEB367EFA5CFA27A9F8
311
F2F52FE878058E6209C026453F8E7E8A237DFC389E9590F6059B397CFD65183BBF936E86896612A5B5FEE49DAC8455D026218AFEBEC12B3523A45B57B82C9C97E02ACFA1184DB18E48CF615DBF39C3CC6F0B4AE6BBEEA2E39D944E290302FA3DE33FA7E40296E2EF7BF1CD855BBECFAD0FD622BEE9746FC4FDFDE545AE6E3B
311
C234CADF83A0FB76DFB145BF3828AE3436368AC24989454F8FF70A177672C711CAA1A76107218CF948CA01F873520E7A2B118EBB161ABAD432932029628B6761590C98AB590C8C8C79798CE9F715BA696E839E9131A4BB68BE923F1747FBFF165331FFDD4D05997ACD168F12CA75348DAC04C7F509FE83898A8B421181AF49
311
2861CE81E4A2DD0A30850CFA95E05F097FF70F9E777310D584A75BA7018922E271DAB1D785671157685B7D383D3E074DDB4F1E44EF04B07BAAC75A062077C54B9752C738C9D804D402E02851F3F89605AF189738C18C021D2139EAF72513824E10DDD3047BACC8521ED7E98B257D1166903B1B08FA6F918FD7E162913FEC7D
311
0EF4787E29C35FBA8C6E2C9C20E9AB30AE42CA2A01A090E7D010C1B5BF9CEE2A304BF3A987FB40D836979B79E18D70F257DA61E808472DD85B82761825779D6B90CAEB0F23360C6F80A7D7D77545E95B3DFF0CF96A827F9B5BCECD2C9698718417EF80FEEDEE938AFF55859D0D540B7FE09435583A6F04874A0C7E8CF234DF
311
4879722000167F5872CEC6BF3EF7E5A8CC8121E6A359227C8A29C95212F9F735BC72A887D56B8F309FC525BFB4FD767AAEC4AEFF249CFBBD2DE1AB9969A6155C7D8DABC307E47324C1F916C7BCFF40ABA5644E9FFB9238D19ADADA49D9610F01ABBA57E4DFCBDCCBB2B93C8953206C91DE01B0E2651A6D6C31721915B31F7B
311
7CBCE55466F6D70402788FA91D73BE4ADCBA99A35F17D6B83383704917D6833F0FA3CD45C926ADB8BC17999A4A0AFBCE2541F7B8CF4C2F5FBA611B3E626D64407CB32C122DFF4EF8674D6EDBB86C8F7C6A16D50FA685E2CCA34F8F7D1D8265BB0042E9D7F1F666F7BE5FAA5184DF58E12122A42EF02F461B3F369AC746F965
311
28AD208512AB56844CF75B97F352DF7995024FB02855385854F3798670D01CAC771AC3E1889EC25F61A20C1F8CAB46898817F9C47E2CDA1F286BF2F358298709FE567C91133E2638C8B53975E753EA8BFD3578B5F7186B7BF084EBA3F77BAC3132A5779902EC22AF2D2E79F42D324E083386DAEE9810D1B44A5DAA54513C7A
311
71E52A4AB9257D975B621308FE4D2141CC3DCFE946C154A3C1DFCCA7629EC69ACFA831634ADDA93C0388D2A9A2DDAFCF957C6995BCE7FBB6DC4EBAE79E63EB08E9A25F52F67076F7093CA545CA3053B5BF576DEAD4E0017143C5F759F32B2D6F145B52B67B48909B7C7FCA6586EE385A2189C16932CB6DDFD9152AE317C430
311
492A578ED27B72D85D40C7C93C097939E1B50F4D67F05334FE9DC362C30B7FF561B95259138ECFD9274C8D695C31B14D4EAA9F3D7FA8DDF652F8C5DEFA23284C799B7D94416DEE81E05A866302DC70192A5368EA65E1CED8BF107A1E2D3119A71E85DC1A7B0C1E93274CE04DD0F2ABC8AC7C987FDB002B6F81757B43502EF7
311
A0D92E416494FAEEA4C9C090CD9557AA4D532F4996A272B94355C5A0E4974EEA9627476F30809B94D8D8D860062E02204643BEC7D0438AF800FC7E2B26955D595421E83C69E1A07E0E3122285835F014AD538188CF9737CE76D464A353FA55A001AB2526B84E985083693BC76FE211CA1D000679C889E3C009832C87E1AC2E
311
DD05C302557422DF0800E316FCAC86978A371F025A6C7DAA9F333E7BD160403A1A06EA75AA9888FF01504B03041400060808006484DB4C28BB58AF800100009E0500003D00000036464145323346372D353546312D343333322D383646372D3234323145413744444538462F536368656D61732F436F6D6D6F6E536368656D
311
612E786D6CBD544D4FC23018BEFB2B96DE15493C78601010A34B880709DEDFB52FD0D8B54BD70DF6EFED3AC0B12E6442E2716BFB3CEFF3D18E26FB440405EA8C2B1992E1C323095052C5B8DC842437EBFB673219DF8DA659866649B798C078B48AE6410122242F2A4994AC7F93815DF85C049C8564CA0A901499DD886B2EB9
311
B1E02448F358701A9235880C49A0119892A20C89D1B9FD768815CAD268CB5E0355B40B1E47F3E37A2020464BED06AA57CE8FCC20C3C3446D46761A2632A8C1283D07031EFF2AE7CCB1BFEEE916E406DFAC8E36FFD99A9D60A6944090EEDC3B670C7DC13DE86B6B2C5C240D6E503BB85ACD579D513F1B9F9A69DC9CC22AFA80
311
C426D40AF0B21EA168559156B6276F0F726A6BFF04DCD513A87A62CAD41FB24FCB2858B3952E3D852084DA25B9303C15687973CC8E8AAE11DF2836C38C6A9E765E8C1BA1BFB1DC29CDFE518C8B5A7655A4ED7E77291ABEB80DBD82EC866ADE1B8D05AF9E35CF09D7A061F38A986D9EC412B8F0F65E5D81534D9B231D1E5A8F
311
E577A241F3A5FD01504B03041400060808006484DB4C670136ADA9040000B41400003E00000036464145323346372D353546312D343333322D383646372D3234323145413744444538462F536368656D61732F47656E65726963536368656D612E786D6CDD586D6FE3360CFEBE5F21F87BD3245B0E2D90F4905CD12E1F8A0C
311
CDF5BE0A8AAC24DAE417C872DAECD78FD48BE3D44EE3B5C3E16E010EE75A34C5877C48911A7F7E4914D9095DC82C9D44835E3F2222E5592CD3CD242ACDFAE22AFA7CF3CB785A14C22CF95624EC66FC34BF253BA626D1BD488596DCBD8F2E6FC6335608B7F428D258E807664080A98384D9E75E22F16B2CCF05D32CE5023594
311
92C878124DE31DBE89612BB196A934605E44F272A5249F446BA60A11112D589CA56A3F898C2EE16F6B136C595C7AC3C2FF076D3D808BDBC824572211A961A8D96E393F7AF5806BEA91EDDFB1ABFB769EB08DE8BCDFE27EF98E9DE0ABCE3BFCA1C54E8AE777ECE2BFFC92A94C87EDE6A9111BA1ADE75C74BF391275D33FAAC5
311
FABF89F1D33C9836CB3225980B2A479BE96A4FB3D59F821BCF11CF1FC55602586C7191D99E2C9C0CF2B8A662E3484E59466361985485D7E248E7953C01F19DA23B9D256461B6E09C40FF02D1DEA98C19EBAFBA4659184B7D47DEDF22E2F53DB017721B164F5B845961697F0C699AAC2410982C385725A6361A500F59CD8482
311
21F103A8C1A7CA84A55F407794695C905C688E69B111550ACA946B9B4785FC1BDE0E229240B62665328986D5B32C400CEDD88188F35AC25EBCD40836F47F35E5C0EA4B6F767B50568CFFB5665C505E2AD5EA8A9997205F50A2350EAB32C9294B0024108429953DF32C4D812E226658F78A490408362A94987E6F787DFCBBBA
311
BAAEDC36758ADEE9B58B41BF0F35D87BB1E991E02BF0B513748E6C0AA2EB2CE56EC68E97585643D82DE284E51DE03E4E22B00738761F1E66E1616A03EE093B0327B6BB9797262B0DCD72C6A5817ADAC1C3C0A3909CF6639B404D18B15CAF4B3C09CEAA4414BD5F0723F059ED37048E7A64271711EDC9C5230F58FBDA5DE00D
311
A512CF04BA6671A0D201A83D2EC81D2EB552C7E5CD1BF9D6913567B2CD53A659AC362A2B200B440195E2ACBBD167A32A86F7874F7F00686DB55D163481DADE5E417E979BAD827FC6B2B0AD8A6AB1567038E466EB4B10C4C2F3F71196A09260938125FDAB8662456EAD68AB2F7C1DFF709C874887B76A4355564F017256531B
311
F73D7D754A40E23401DA38EFC907CF8D8E3C1E5E7505D8E432C60BE1EDA01E5166683F169B6EAC6EC046153F66C2BE0679FD3F407982ABFA28F92E0E457501938D96B12090869079360D3F947CA8BBC3D9FCE1ECF3C676C9BE80EB67CABE004FC290F8E26BE6A0371AD6CE66781C408A1FAA8CFFA63DD93A94CD5E1F3BA6A3
311
DFB05B34E1247BB3949E3C332105035203136EA14AE89FF99E3E0B3C4EFE65C581A3A3D2D0EE84EFDB22B49DA31A07059E69B81628A8ED1228B63E42C3D840C3C01F460D1F331FE199821B03F22CCDB6DBF074B49566B12C3B3626074EA1B130B4596BDBFBB642A835954A9509E5769234228129889952870EEE13F494954A
311
D7A27EAD09411BDEEC5B6B6AD752C11509F826EF4007E86281B1AE63750FD09DBA87A34EF4CE2A75F3E85960004EA6B519F4806609E8C91CD18380BD81691D9F2CB5730631E6DDBAFBC30E96D3E1D3D67EE8FB72BAD92AD4C1FD3CEDFBD2681858ED6583CA3853294B80AF67AECFAC6418D08164D5FD1E52E8B546BCC77B87
311
C6E9D1655FFD384FB26A28AADD82E04B9C64EBF78FFF00504B03041400060808006484DB4C8DFFFC99640100009B0300004500000036464145323346372D353546312D343333322D383646372D3234323145413744444538462F536368656D61732F52656E6465724D6174657269616C536368656D612E786D6CA5535D6BC2
311
30147DDFAF08799F5FDB600FADA20EA430D968A7AF12D36B1B481349529DFF7EF9A85A718860DFDA73EFB987734EA3D16FC5D10E946652C4B8DFE9610482CA9C8922C6B5D93CBFE3D1F0291A6B0D26A3255464182D920FB4233CC629881CD49C18508CF000E3EE309A100D61622AAB4A8A33B2483F11CB639C545B0E150843
311
8C3D3C0361192846DB7ACD198DF186700D182920B914FC1063A36AFBEE8FBA03FFD3CC1D1F4FC9E151A2AF59F628C5B7821D83FDFD3489305080F2EE04BF962195FB285E9D2DD352320A9E827AE357594914E42B1F5FE35F83688F60C4C91A6C946ED0668E8F244BC2EB0BA6E3BCCFC0B6A4B507F9F9F8D51EB315D9BA9E08
311
D308E89F96931666E577837E2B4172199C68C4FE306156D47DF51C698C7B9D97FE5BEFE2190C3C38BB054E6E8163FB039CB4B993C80BF18D969203116D6BBD26238B821F9BB909AD6D9C71B85BCD8C33D66FEA3D31B4BC0AD45BEA46BBEDDFEC0F504B03041400060808006484DB4C49353693510000005700000047000000
311
36464145323346372D353546312D343333322D383646372D3234323145413744444538462F4173736574446174612F41737365745461626C654F66436F6E74656E74732E62696E536160603033307436323037D4753377B5D435717631D175B23432D13534703376743234307136751602AACB4D2C492DCA4CCC492C28484D
311
2C4ACC4B4E050A82012F90744FCD03CA26072767A4E6260200504B03041400060808006484DB4CC55C663656000000680000004500000036464145323346372D353546312D343333322D383646372D3234323145413744444538462F4173736574446174612F53747265616D56657273696F6E5461626C652E696E665D8CBD
311
0A80300C06F73E4B29FE6CDD8A2E82A083B8B7F209014925C9FBA3AEAEC7DD2555D896CB85E51C2A1BD834F6A1F56EC4494C4695278364ABB24ABD2146F88CCEBB89D5321FF8F3F43D672A3B44DF3CB6A1710F504B03041400060808006484DB4C3299888438010000A20400003600000036464145323346372D353546312D
311
343333322D383646372D3234323145413744444538462F4173736574446174612F636E782E786D6CCD94314FC3301085FF4A6489317652442995E30AC1D209242A06B6AB7329561D3BB22F08FE3D769B0154C4D4A1EBE9BBBBE727BF93ABCFDE161F18A2F1AE6135AF58814EFBD6B85DC346EACA052B564A06EFE907C60A07
311
3D362C979992BBE0C7612AB5D8C16873D51AB79F8AF731226D606BF1A97BF08ED0516485B61063C3A27EC71E388CE45B8C7BDE0201AF79C0E8C7A0314D22D3E334490704C296A959552FCA6A5ECE6E37F57C797DB3ACEEDEA4C8A4925BEFEDC49BB42CF8E16A56E9E35EA62A2932A0E418CC44E5D730F5974ABE354E8A442A
311
19292457A60EFA1A52070C83351A289927BC26A4324108BD14475849915DF8E5C52376C699DCB24ED2807C784E023190C10BF4E43FB5E7F766ED2281D378C98E9C6A3CBF0F2F875FF47A8CE52137979796538DDCB8EE0C5911877392A293AF8BFA06504B03041400060808006484DB4C44AED736E800000060010000670000
311
0036464145323346372D353546312D343333322D383646372D3234323145413744444538462F5265736F75726365732F36303143323037312D463745392D344344342D423932342D3130463341423130344335432F7468756D626E61696C2F302F636E782E786D6C4D90C16EC4200C447F25B2D46302D9AADBED8AB03FD153
311
2F1525DE142DC1084CD5FE7DA1E5B0A7B1C64F9667D4E57BF7C317A6EC282C304F12060C965617B6050A5FC7130C17AD1211DF613004B3E302CD06ADB64425766BC5AB29BEB9DE855B37370C989C7D8F6183C17A93F302D97EE26E26539856CCB769356CA6794A98A9248BF500BB1DFB019BD030AEA00F723E8DF2381E9E5F
311
E7E3F9F1E92C5FDE9468A4561F44BEF32E30268A0F0769A98EA1FE239568805625B94EB510A0EF9E53A22EB5CA9C6AFE0EF14FAC9089D13B6BB8D624C832F2582134BB12FFB056A2E5ADF25746D5D68DFE05504B03041400060808006484DB4CA233C2345D000000800000006500000036464145323346372D353546312D34
311
3333322D383646372D3234323145413744444538462F5265736F75726365732F36303143323037312D463745392D344344342D423932342D3130463341423130344335432F7468756D626E61696C2F636E782E786D6C4D8B490E80201004BF42E6EE76F3C0F216234B883063108CCF170C074F95AE5473F5C4C06E932E4F28
311
601967600677D21E9D8092EDB002539227A2FCCB80E1168D80A6417297A89C5D6963B7129A0D1E8F2EE73AA7B62BBEB8B27DE50B504B03041400060808006484DB4CBE89762363000000880000005B00000036464145323346372D353546312D343333322D383646372D3234323145413744444538462F5265736F75726365
311
732F36303143323037312D463745392D344344342D423932342D3130463341423130344335432F636E782E786D6C4DCC3B0E80201004D0AB90EDFD75167CCE820A4A845D83603CBE602CAC26799919AEEEE0D965E2E908050C6D0FCCE04C8BC355404EB6198129C92351FAD580A10E464065907C8D948F8F166375F655BDC3
311
FDC3B4E530A176BE7057BDC43B2A593FE403504B03041400060808006484DB4CF9C454997F000000A30000003600000036464145323346372D353546312D343333322D383646372D3234323145413744444538462F5265736F75726365732F636E782E786D6C4D8C410EC2201405AF42FE1EE557B436011A8BF61E8DA50D91
311
82C1623CBE60BA70F592C99B11ED6771E46DE2CB062F01770C88F1F7305A3F4B48EB44CF405A256208EBDF0D881F1623A16050628E213D37349A6948AE5067FD63832786BA6235D2BEBE3594EB2BA75D53718AAC3F5C3A645C1F7536F645C9F3EBE52D79F505504B03041400060808006484DB4C89D4D0AA0C010000550300
311
003400000036464145323346372D353546312D343333322D383646372D3234323145413744444538462F536368656D61732F636E782E786D6CCD93BD4E042114855F65426239C08C715D370C5B5858D9A8951D327757B2C09DF063F4ED85956237B1D3623B38F97273CE812BB69FCE761F10A2413F918172D281D7381BBF9F
311
484EBB7E4DBAAD1401319D60A4F3CAC144AA4CA4D807CC4B9366D8A96CAB6A8D3F34F11E9D43FFACDFC129D269AB629C483C5EA9CA096788073AABA4E8400344CC414399908C8336410750096622473EAC7BBEEAC7DB9761B5B9BED9F0BB57C12A29C51BA26DBCF109022E5723D7588EBE18E28255408A1C4CA36A0A224FDD
311
D1D28760859022A6505A6864FA5A0AA996C51AAD52298B1DC11F460A56C39E457E000FC1E84BCD7C66EFDF423F819F213C96970A46D94BCDFE9BCBBF55C08E1B50BE415D08F90D504B03041400060808006484DB4CE3603EBE7A000000C20000002C00000036464145323346372D353546312D343333322D383646372D3234
311
323145413744444538462F636E782E786D6C6DCD410EC2201085E1AB90D9DBEACE05D09878023D01A1D34A8419C380F1F82DA68B9AB8FDFEC93C3D7C52546FCC12980C9CBA232824CF63A0D9402DD3E10C6AB03A3397DD192872090D3406ABE7CCF5B5D18893ABB1690CF4DCF02282E5EA8A5BB96FFE536F285CB347F95BEF
311
FE81C9ED5AFF9D5B1FB575BB00504B03041400060808006484DB4C4A08031E7E000000A300000007000000636E782E786D6C4D8C4D0EC2201844AF42BE3D2AD01F1640D3A4708FC6D28648C160311E5F305DB87A99979911C367F7E86DD3CBC520815C6E806CB8C7C5854D423E56CC010D4AA4188FBF1AA030EF5642D5A0C4
311
96627E9E6AB1EB9C7DB5DE85C7293B336ACA4C8FDBD610DC304631EF4AA40D257AECA749735316D73A29F8FD15D67BF505504B03041400060808006484DB4CCA1DF9C9A900000073010000130000005B436F6E74656E745F54797065735D2E786D6CA590410EC2300C04BF12E5DEBA70400835E500FC800F84E0B411AD1325
311
2E2ABF27A55740421CEDDDD9B55CEFA7A117778CC979527255565220197F75D42A39B22DB652EC9BFAFC089844F65252B2630E3B80643A1C742A7D40CA8AF571D09CC7D842D0E6A65B8475556DC07862242E78CE904D7D44ABC79EC569CAEBA537E3521C16DF5CA5A40EA17746733E0B6615DE7217475F386F18B9481C510F
311
1F021CD9FF027EA0E1F5C4E609504B03041400060808006484DB4C3DEE336E64000000790000001B0000006175746F6465736B2D64657369676E2D7061636B6167652E786D6C35CBC10E83200C00D05F21DCA56CA76D41FC96062B120735B69A7DBE268BB7777961F8D5AF396893C2ADB70FE7ADA196782C2DF776D7A97B59
311
33C430F15651E5469C55D70F80A4992A3ADC954792C525AE70A1E4D6AD9816CC044FEFDF01FE3FDE907802504B03041400060808006484DB4C8AFDFB65F9000000960100003700000036464145323346372D353546312D343333322D383646372D3234323145413744444538462F4173736574446174612F636F72652E786D
311
6C8550CB6EC32010FC156BEFF8193B38C244CEA35FD0536F0888831283C5A3EAE71762576A4F3DED6A76767667C8F16B7E669FD23A65F400555E4226353742E96980E06F084376A4C41AE37FD120D36C960324182899AC09CB0671A3BDD409D546C80D64CE490F197FC66600C7EF7266390B3E32DC235F187FB049E655BEF2
311
280941896D5589A8A66E4A5AA055DBF5EDFEDA218C2F67B43B618CFAA63BA3533DEEDE306EC6F15A92222D53E2D5FC739D5BC9BC1440EBB2C2A8EC50BD7FAFBA43D31ECAFE8314894989F3367ADE8E267740C7F4F58579468A75FA47352CE27FD5A0B46FEA4D75DD70D1477CF235A0A44829C5F28A30D69428FD06504B0304
311
1400060808006484DB4C1F61A878F40000008E0100006800000036464145323346372D353546312D343333322D383646372D3234323145413744444538462F5265736F75726365732F36303143323037312D463745392D344344342D423932342D3130463341423130344335432F7468756D626E61696C2F302F636F72652E
311
786D6C8550CB6EC32010FC156BEFF8193B38C2444E9A7E414FBD21202E4A0C168F2A9F1F885DA93DF5B4ABD999D9DD21C7C77CCFBEA575CAE801AABC844C6A6E84D2D300C15F1186EC488935C6FFA241A6D92C07483050325913960DE2467BA913AA8D901BC89C931E327E8FCD008E7FC999E52CF8C870B77C61FCC6269957
311
F9CAA324042536A912D14D5D95B440ABB6EBDBFDA54318BF9DD1EE8431EA9BEE8C4EF5B87BC7B819C74B498A24A6C4ABF9673BB792792980D6658551D9A17AFF517587A63D94FD2729129312E76DFC795B9ABE031ABD56F48F5B58C4FF6E4169DFD49BDBAA70F1FE78DC6B404991D289E5155DAC2949FA04504B0304140006
311
0808006484DB4CEA33CA67FA000000960100006600000036464145323346372D353546312D343333322D383646372D3234323145413744444538462F5265736F75726365732F36303143323037312D463745392D344344342D423932342D3130463341423130344335432F7468756D626E61696C2F636F72652E786D6C8550
311
CB6EC32010FC156BEFF8193B24C2444E9A7E414FBD51200E8A0D168FAA9F5F885DA93DF5B4687666961972FA9AA7EC535AA78CEEA1CA4BC8A4E646283DF610FC0D61C84E945863FC2F1A649ACDB287040325A33561D9206EB4973AA1DA08B981CC39E921E3537CF4E0F85DCE2C67C147867BE40BE30F36CABCCA571E252128
311
B14995886EEAA6A4055AB5DDA1DD5F3B84F1CB05EDCE18A343D35DD0B91E76AF1837C3702D4991C4947835FF5CE756322F05D0BAAC302A3B54EFDFAAEED8B4C7F2F04E8AC4A4C4791B336F47533AA0FE1EE60FCDD4448A75FBC7352CE27FD7A0B46FEACD7555B898237EF2B9A0A4482DC5F1AC30CED428FD06504B03041400
311
060808006484DB4C82C15C6F0D010000B10100005C00000036464145323346372D353546312D343333322D383646372D3234323145413744444538462F5265736F75726365732F36303143323037312D463745392D344344342D423932342D3130463341423130344335432F636F72652E786D6C8550CD6E8420187C15C31D
311
057F71836CD4D527E8A937A2AC25BB821168FAF885D526EDA9A7EFCB30F30D33F4FAB53EA34FB11BA95503708C4024D4A467A99606387B870444574677ADED2F1A88145F4503020C185D76EDB6139AB4B2420554E9599C20374658104D4FBF34C04C1F62E53177D633CC23DEF8F4E08B88717CF018754ECEA754CEFE9ABC4B
311
B103868BB22EAAA18484DC7A987784C03A2B7BD8A56D3E1292B5ED806812C48C5AB9FEB84FBBE056CC80A50813884A98566FB8BC64C505D5EF34094C468DDD7DE6D334A403AC44B84F5185E1580D35CCFB5B0EBB3ACD214663D67618E57DD1D3E410FE3174DBFCBFA193CA66E96978288C8FE8FFFF7A60340905FAF16AD7CF
311
5036FB06504B03041400060808006484DB4C1EA19C38FA000000960100003700000036464145323346372D353546312D343333322D383646372D3234323145413744444538462F5265736F75726365732F636F72652E786D6C8550CB6EC32010FC158B3B7EC60E8E309193A61F50F5D41B828D831283C5A3EAE71762576A4F
311
3D2D9A9D9965861EBFE647F609D629A30754E525CA400B23959E0614FC1513941D19B5C6F85F3494693EC380128C189DAC09CB0609A33DE8846A236103B973E051261EF13120276E30F39C071F19EE9E2F5CDCF9047995AF3C46435072932A19DDD4558145AC6ABBBEDD5F3A4CC8CB19EF4E84E0BEE9CEF8548FBB57429A71
311
BC94B4486246BD9A7FAE0B0BDC8344AC2E2B82CB0ED7FBF7AA3B34EDA1EC3F6891988C3A6F63E6ED684A87D81B3813AC00478B75FBC7352CF27FD7A0B46FEACD7555B898237EF2B960B4482DC5F1AC30CED428FB06504B03041400060808006484DB4C49993ABAF8000000940100003500000036464145323346372D353546
311
312D343333322D383646372D3234323145413744444538462F536368656D61732F636F72652E786D6C8550CB6EC32010FC156BEFF8193B24C2444E9AFE407BEA0D01715062B07854FDFC82ED4AEDA9A75DCDCECEEE0C397D4DCFEC535AA78CEEA1CA4BC8A4E646283DF610FC0D61C84E945863FC2F1A649A4DB287040325A3
311
3561DE206EB4973AA1DA08B981CC39E921E3CFD8F4E0F85D4E2C67C147867BE433E30F36CABCCA571E252128B1AD2A11D5D44D490BB46ABB43BBBF7608E3970BDA9D314687A6BBA0733DEC5E316E86E15A92222D53E2D5F4739D5BC9BC1440EBB2C2A8EC50BD7FAFBA63D31ECBC30729129312E76DF4BC1D4DEE80BE2D7F3A
311
52ACB33F9A6116FF6B06A57D536F9AEB868B2EE28BCB8092226514CB1260AC294FFA0D504B03041400060808006484DB4C9B22D94102010000D80100002D00000036464145323346372D353546312D343333322D383646372D3234323145413744444538462F636F72652E786D6C9591CB6EC32010457F05CDDE0F70FC6884
311
8922C5FE82AEBAA366E2A0C46001AEFAF9C5B5ABB6BB76055CCE1DB833FCF43E3DC81B3AAFAD6981A63910348355DA8C2D2CE19A34404E823B6BC30F0C889113B6B0CA20F8E8EC32EFD2604D40B3AAC62ADC45E93D0620C3236E5AF0C30D2799CA2544C2DFD3590E7739624AD38D133CE8E9CB3A389401150896D326C9AB84
311
D5CFB43A16E5317F7AE1D94A0ABE68130AB63F86D32B2A62E7102381280B9E6DD7115BB4DA21ADE227F555A30351F5E78E157D9D94654F934351B0A4A9E2911D18EDCEF5E5D2357D2C12CD82FBE0626BF6226B13FE6ADF8CBFA22DB3FA67B4CDE141D0EF50D9DA67C1B3CF21C4759D89F800504B03041400060808006484DB
311
4C9136F41006010000B201000008000000636F72652E786D6C8D50496EC32014BD0A628FC7D8C1112672D2F4045D75470D71506CB018A2F6F685984AEDAEAB8FDE7F139F1C3F97193C84B152AB1E9659018150A3E6524D3DF4EE8A3004474A8CD6EE170D02C516D1C308434A26A3FD9AA0512B27544495E62281CC5AE12018
311
E7F0E8A11D6F626119F32E30EC3D5BD9786793C8CA6CE351E2E4F2231D8D604E7048ABA2C4A86851B57F2BDB43DD1C8AEE9DE4914989F792A728C943BABC4A61202D9BB66BF6971661FC7246BB13C6A8ABDB333A55C3EE15E37A182E05C9A39812EB4CF87332093D1DB0EC117349BEAD28F9D07A4E84508A03ADE62F488343
311
5CFC29ED57FE8FD252B9BA4A869BC286CEA1D0731182E305C3789E37CC786DFA0D504B010214001400060808006484DB4C4107AEA410010000A80100004F000000000000000000000000000000000036464145323346372D353546312D343333322D383646372D3234323145413744444538462F4173736574446174612F44
311
6566696E6974696F6E4974657261746F7250726F706572746965732E62696E504B010214001400060808006484DB4CC61C3462EC0000003002000045000000000000000000000000007D01000036464145323346372D353546312D343333322D383646372D3234323145413744444538462F4173736574446174612F496E73
311
74616E636550726F706572746965732E62696E504B010214001400060808006484DB4C88E57597CD3F0000904100006B00000000000000000000000000CC02000036464145323346372D353546312D343333322D383646372D3234323145413744444538462F5265736F75726365732F36303143323037312D463745392D34
311
4344342D423932342D3130463341423130344335432F7468756D626E61696C2F302F67656E657269635F706E67504B010214001400060808006484DB4C28BB58AF800100009E0500003D000000000000000000000000002243000036464145323346372D353546312D343333322D383646372D323432314541374444453846
311
2F536368656D61732F436F6D6D6F6E536368656D612E786D6C504B010214001400060808006484DB4C670136ADA9040000B41400003E00000000000000000000000000FD44000036464145323346372D353546312D343333322D383646372D3234323145413744444538462F536368656D61732F47656E6572696353636865
311
6D612E786D6C504B010214001400060808006484DB4C8DFFFC99640100009B0300004500000000000000000000000000024A000036464145323346372D353546312D343333322D383646372D3234323145413744444538462F536368656D61732F52656E6465724D6174657269616C536368656D612E786D6C504B01021400
311
1400060808006484DB4C4935369351000000570000004700000000000000000000000000C94B000036464145323346372D353546312D343333322D383646372D3234323145413744444538462F4173736574446174612F41737365745461626C654F66436F6E74656E74732E62696E504B010214001400060808006484DB4C
311
C55C6636560000006800000045000000000000000000000000007F4C000036464145323346372D353546312D343333322D383646372D3234323145413744444538462F4173736574446174612F53747265616D56657273696F6E5461626C652E696E66504B010214001400060808006484DB4C3299888438010000A2040000
311
3600000000000000000000000000384D000036464145323346372D353546312D343333322D383646372D3234323145413744444538462F4173736574446174612F636E782E786D6C504B010214001400060808006484DB4C44AED736E8000000600100006700000000000000000000000000C44E000036464145323346372D
311
353546312D343333322D383646372D3234323145413744444538462F5265736F75726365732F36303143323037312D463745392D344344342D423932342D3130463341423130344335432F7468756D626E61696C2F302F636E782E786D6C504B010214001400060808006484DB4CA233C2345D000000800000006500000000
311
0000000000000000003150000036464145323346372D353546312D343333322D383646372D3234323145413744444538462F5265736F75726365732F36303143323037312D463745392D344344342D423932342D3130463341423130344335432F7468756D626E61696C2F636E782E786D6C504B0102140014000608080064
311
84DB4CBE89762363000000880000005B000000000000000000000000001151000036464145323346372D353546312D343333322D383646372D3234323145413744444538462F5265736F75726365732F36303143323037312D463745392D344344342D423932342D3130463341423130344335432F636E782E786D6C504B01
311
0214001400060808006484DB4CF9C454997F000000A30000003600000000000000000000000000ED51000036464145323346372D353546312D343333322D383646372D3234323145413744444538462F5265736F75726365732F636E782E786D6C504B010214001400060808006484DB4C89D4D0AA0C010000550300003400
311
000000000000000000000000C052000036464145323346372D353546312D343333322D383646372D3234323145413744444538462F536368656D61732F636E782E786D6C504B010214001400060808006484DB4CE3603EBE7A000000C20000002C000000000000000000000000001E54000036464145323346372D35354631
311
2D343333322D383646372D3234323145413744444538462F636E782E786D6C504B010214001400060808006484DB4C4A08031E7E000000A30000000700000000000000000000000000E2540000636E782E786D6C504B010214001400060808006484DB4CCA1DF9C9A900000073010000130000000000000000000000000085
311
5500005B436F6E74656E745F54797065735D2E786D6C504B010214001400060808006484DB4C3DEE336E64000000790000001B000000000000000000000000005F5600006175746F6465736B2D64657369676E2D7061636B6167652E786D6C504B010214001400060808006484DB4C8AFDFB65F90000009601000037000000
311
00000000000000000000FC56000036464145323346372D353546312D343333322D383646372D3234323145413744444538462F4173736574446174612F636F72652E786D6C504B010214001400060808006484DB4C1F61A878F40000008E01000068000000000000000000000000004A58000036464145323346372D353546
311
312D343333322D383646372D3234323145413744444538462F5265736F75726365732F36303143323037312D463745392D344344342D423932342D3130463341423130344335432F7468756D626E61696C2F302F636F72652E786D6C504B010214001400060808006484DB4CEA33CA67FA0000009601000066000000000000
311
00000000000000C459000036464145323346372D353546312D343333322D383646372D3234323145413744444538462F5265736F75726365732F36303143323037312D463745392D344344342D423932342D3130463341423130344335432F7468756D626E61696C2F636F72652E786D6C504B010214001400060808006484
311
DB4C82C15C6F0D010000B10100005C00000000000000000000000000425B000036464145323346372D353546312D343333322D383646372D3234323145413744444538462F5265736F75726365732F36303143323037312D463745392D344344342D423932342D3130463341423130344335432F636F72652E786D6C504B01
311
0214001400060808006484DB4C1EA19C38FA000000960100003700000000000000000000000000C95C000036464145323346372D353546312D343333322D383646372D3234323145413744444538462F5265736F75726365732F636F72652E786D6C504B010214001400060808006484DB4C49993ABAF80000009401000035
311
00000000000000000000000000185E000036464145323346372D353546312D343333322D383646372D3234323145413744444538462F536368656D61732F636F72652E786D6C504B010214001400060808006484DB4C9B22D94102010000D80100002D00000000000000000000000000635F000036464145323346372D3535
311
46312D343333322D383646372D3234323145413744444538462F636F72652E786D6C504B010214001400060808006484DB4C9136F41006010000B20100000800000000000000000000000000B0600000636F72652E786D6C504B0506000000001A001A00210B0000DC6100000000
310
504B03041400060808006484DB4C000000000000000000000000370000006662782F32304344433730422D424141382D344445462D423345432D4544364442334437314145442F617474726962757465732E62696E504B03041400060808006484DB4C000000000000000000000000350000006662782F3230434443373042
310
2D424141382D344445462D423345432D4544364442334437314145442F76657274696365732E62696E504B03041400060808006484DB4CF270F1330600000004000000360000006662782F32304344433730422D424141382D344445462D423345432D4544364442334437314145442F747269616E676C65732E62696E6366
310
60600000504B03041400060808006484DB4C88E57597CD3F000090410000420000006662782F32304344433730422D424141382D344445462D423345432D4544364442334437314145442F7265736F75726365732F322F305F67656E657269632E706E67355B773CD4FF1FBF73E71C0E67EF7576C9DEF3EC995D46C6A1EC50
310
46649CBDF79E192942562825CE965D8A868C2842C8DE9FDFD1F7E7F138F7078FCF6B3F5FCFD7EBFDFEC41B196891913091804020321D6D7513FC77D8C5070EC3FFEE51B21F068154CC75D455CC028A3EA68992803810109FDDE5D5CEC5521B28A1B422BF80741695D5B529DA1C2D058AD2388BDA9F476F7C2CADC939304173
310
DBF48A452BF8A700C0C70C3D121C1AA15A5270C22E2B9E28763651F7DA0D12CE11077B2ECD0D560B5E3DE2368B1E65C5E1C87384A4CC5F2D9FB8BE39E9B77C753783A37998F5CEF1B4FEE553463245C9712270880DF339E0B882A6BA713D865F6F384C842D440934EF264F4A304F8DE4EEFA1E2BF5E2D91F5ADD9613D6E31D
310
DB33ED31DB1D7916CAF091286EA3D31B9CFECB78BB0060245B943C4C040119FF780A74DD308BA9D028678674EB5504ECF284EE814DAED07440BAF649BE4B55DA2890F4D73E2D489A59EE54FDB0A85B59F2F52C4858A02705C4815A792B0C4A996A2023ECB195073E115E3E3647F64243A8338F2000BCB58DA5692C7E7C3D41
310
3F963FEDF3CF00FBB0F831A9D51360FECA43819F527B89FA260EB63C5DA676830AA3626A3693B23F1A17A0DFFCE3EE164E31B5365EDF0C89EF64D8E38AB0BA9A1117D7C3A0EC44F44F4023095E80BA610DE336D0F99593A88BFC5306E72DF98F7FD132ED95878DF2964EA7E43071359FD83B2BDF9C6B5BDF768F0F3C0FC351
310
199526F53D9460A34511F75D1B63E488178569472C91A94497807A3FD4A390C6558F26D416365C3656DE6E769DA9D8FC73774E1709812842DD8EF96AED1960F79D21B395CDDFE6F92CB4EB962A4668C76990E2EF29798C8941D67DA50F4A5F947872460F1F6FDB794E8A29FD7AC0C0D6E0714339CE258FB17AE8535221E346
310
4A10F29A0BE5EEECEFC5675926A89F49EB14E5711894F6586DB5754EB4D5DA9C6437EBA57DB97A24F8B8A8DB295FFD73266CF57E82694DF5166DDF93573AFE9C9C5EB05F8FEF8E89E0A8917B0B3724DB7BEBB53252581EFC3E38166BA131A3A5B42FE2AD00A769BBFA4458D2DE7822F8C4F63D0B8E21B285AE13325F3410A4
310
35C648C9D91FDEB109E73CEDA7BC796961AF79175E1A3CE4C5E8B0D009B0C9E29EFD98BC8E97554E3D8D838424E270F7685226E5AC268E021EDE3522D583E8F20C0BDE2959EF5BBFEEDAB32FE9A3ED0E39F211A86AA9DEBFC68182EDED132AB8BB794442D2D7EA9F4D8BFF52BC4D55BB165124EE90A42D101E67BBBB292FFB
310
4F66DE5BF2300E44546757DA7CEF8932BFC9F92A0707953491A55C5A5ACEDABD9FA1AEA01BAC3DC5A24E22E7C47213493996EFBC369D086ED9397C9BA6C7F9855C7BD5E15BFC8C53DB3D2A4C5901A57ACD2FBDF4D1676E95338B2C2BCE65FDA4C64F5FEFDC7D9CA5AA1FCF11E193F2FDABF0F4916BF13FB916A224380E6462
310
A9815F2300DC49CC4DF8D055CEF76462F4B7A7ACA7365C2707891370BC1D0AA6203C44CCAB47084FEC057F27FFCD57F89B8B9852459798A675C66BD7CE572CAF71FF7E6D7ECF7BF62CAB7B3F1107DCD04DC55A3F9961700286141C94A4F771FEB2BCDA2DDEE0CB0BAE402FF1DB0100F8E475DFFFC074DDB4498AB7D186A765
310
4DDB1CB680D703D47CEB4E72F8CB13D86A4AA68116E26387B93FD6738779B34FEDB8E517EDF2BAF28D9BE93A1D3A164320E07D42E514725C29515FF361754213EDE06B079A2E99EB1CA82A02019EADEEB87B9AF005BD04BBCECB14AACD6B24EFBE482194A97DD32400685FF1FEF1544D1B14EFB1E7F08E6D2CD2AF52DE757F
310
35F5E62332EE88EA26417AD5C3E0E319D68F25414E6D672BD4522B278C57D18F0113921C71D96527E091F00CEB15AE23D24667369BD3CEFA10C7549D930890BA4366F4EBC55F01F746109F98ABCDD5A3EE06619C6AD78AB33E48E4C9BD21BF7478B385EC05C4F8987E2C1BFA0A60EBEDAA0AE0B015C2720ECE180FB6F2DEFB
310
EB822D96338C9B63822183BBF52FB664A7AE57003AABCE512BF77E7E31BDA2E739AC4C131657DDFE5225E900FB56CC01CDE808FA4A9C9DA16AC679656BB64796283D89812B8F91136AE18EE5EBBAF47A73BE3C153EB5D4CD491B4BFB4FE690A4CF9ABA08C0D8AA64220C438C96EA6CA80B58FE5761E697B3A292EB9FBDA502
310
FA863E49FE694ADDFFF9D62C520BDD1A22014147A0903A05B9B729F54272EF83931FEEC057BFF8C8055C279EAC5C0011804828734024F6CFA319C9CC6867C727184465CD9BB7ED386AFFD96B294A85E3802FAE47244602D8273615952B98C4F23F7EAE4463D9D638EEE374A20959E0FE519C4CFB0FBFE5DD80C2AA3F9DB961
310
D1BDE57E67C9BB47B77FDD74EE3094F5DBBE3EBC1FBDB7393F5116263009E2EFE1AF9A221B2AE234C902BF70E9F280ED23E73908361565964333A3F01D0B006AF32FB21AA1316744B489D5A198E85299241735BE559675130955C902A8ED761FC0DBE337A9F91919AF5CE32AF902ADF9AB2615E00E8A94586BA1A90839B618
310
32FF1BFB76D2EFADE6DB1BA04CCAD3DA649E7E2A0219F592E22F2AD54847EEA8E42271011E9074F8F3DD9FBA6CDF88FFC9FC7E811AD1CA8F4557CE4AFC7BBEDCF0114A48689F20A584520C74DA8127124B767E2FB91A6B186246727BE63C9445BAE02088D58B8EFDC0F1072407CD9B89A13F6303B4A928F593AD489B58E686
310
9325790ADC406036C591729FE14021F94B7796BB11848D463536A092A26F077F94639F7CEEE2A724C66EC885F4A24F8B8A0AC321F8FD149BA529460FAA34E4663C02D41FDF80BCA222D42F0ABFF8490F4FA74C673807C2051D8E467B47B616072860069A9A303ABA9B319D58404461401B0A0F9BE5E1E151C14BC33B32ABE0
310
3DDE91708DFAEB15E7C0D593C86BB7D7EC17BE56E57975F077BFD5525F3A1A361D584A75E08CF29FC7B44B2B3085014F3A5A14517377C3F6B8F37E59514C3B12F8AACDEDDA4DFC49BE5710101534CD6FB6DE15B50F11A09472AABA727F0C49D9CB906B158030065F48EB3625E010CEC1D511D0053474B11E6A4F01C0D6EF1B
310
ED3A944FDEC70E0DDCDC756C86545910E0DAE3BE3AA9A404574C2995CD5CAF9549226BC94B4F4F0F5F9086F418F6B32346464610D8BC7391D3C3A3CCF04CFC1FB2A3A3170E369511868F14EEA4E5E438CC73DB1F3248AA94B6B2FF33B222FF3D1E7BF146CAD229770158063BCE4F5391964DF62F7E52A7BE0EEA829C9E13C4
310
C147D6F93FE59E111DAB5E4594D6F3CD1AD375EE039930EFE5AF2BB2D41C83C7DABD8C659BAFBE8FAB392CA634F3D15C1D945DB4588D2B0824A4EC928AAC565557CA2F0DAA588CA5BE30B3A8004F7BF005E96CBF891D7F18112A3619FDF530DC8AA64954258E1811789B5189B49B4EB53F5F89F7D37523894F3EB57B373763
310
C91E502F52CC99EB7BDDF933FC324C4FFC2561DFFA7339FAFDD0A4BFBE6D3A8FF9ED1FC49898139864602458968913181918F719CCF5A68B2EE9C1FF050E34E63107003B8120FA982C21B30A874E4F5E4B38D5A8290C4B8D9BE48A0BE31EA995BDC37AC6DE90BA17D259DEF53605D55922FEB1855D915B659FBEB350EE0DFB
310
2F9F766E1C84CC8964B75D08667445EAB966015F63A18A9E0A325C1B3DC628C0D3CB60F767FA93CC65F25458BD23C3B312716E5F40E5858AC06EBA9AB14F95DB99147B832069201541D09A0D856E12C629CF32683760EE855537D1901988D5EBC156676C7DD51D7207CF3267AF1D76C2AD867315E44618015313A98B19941C
310
696FED3461CAA9B5415F918556D7802EDACEFD6B2E45853A9735DFC9DBF7E440F9319F8B6805A973BCCDC76C069A9144E51F187EDCC12FC31B5DEAAF0A76137199B106EC84ADA6B6EE697D4E6A96E007417F4E880E8B1E89B4BCE9D81EF611E2ED8F0C1A6C25F620FAFAAB656A7C42D464880E8AFAB0E0FC8EA38CA9A8AEEA
310
EE3E4648BA4680270A89743CDD3E6C6CBF34B7B640EFA285ABC7EA0A1E28F3CC963D114A80123EE66D0AF7D5380EB41909B605AB4765B709B808590458157E69BA1378FEC4B48CAF6A730E3BE3C5EF2DD1A5EAF94B1DDE50CEB55DDFD7EE9A16747FA4B223359FB1FCC69E1194892BABB93A1D5C4E807AC0EA2E30180811E7
310
7A2291F6E7F7FAA5E0F60215BC6024E48DE436C511F0628B8CA189982D4D83CCA17D305A7E923C37941CFDFDCD93ACAF735EF5F0E61BBD3E6C41A59B242790D3A3BAC7064DCD89AA2E37214EC839820949D5CAA31E240D2948E48F690298974A96BA9A8432BC90F5071D6537C9666EA4564796B7AFFFA548077BEEA75F6308
310
3435074BA182F3699557397F71548383FDA8CA34D99B981E72835ECDA5DDDC151315173D05A21F651AAF8524E88209E2E7A737ED1045800CE3390050BCFB8BE588DF111617874C62575039CA588EEFDEFEFE319B739DE2EDC147092A262611E159650E787917885EF08F1F51B8F2D8A71D60B58B190FEF9541A1BE94BC19FE
310
A50784DA1419FE4B0FB51B8D36B5FF8E1286FD8AF42B91E59A5F1CC4D60174E764045FD8C57B18209B217F89A62252BD20BE0E63E12B8E8F029FE19E0E8D0870F58721A557082250D5424F7909369376E41666C0EE77CD87CB283F661D5FB6D0DA023CB67320A20DC7BE661E9E1BFE5463085C557DA1FF9BE835733766C3D1
310
39F2CF9E2208873AD0EB4814DE9E6BF2CAF81614D4D43906ED1C05A3265CABBFE192770FC2F64F940CB6B17B5F166F133C9AEEAD2641807C3E69515171DD74C4A85311513D6EC9530B3B601B6BA3EBFF3B5C3D2F7D69765141E345F75433953D013ADDF8F6AA7DC3F4A7563FE5C7D367937E2900D7EAD0F9FC9A4A1A9B5BDF
310
1FEF08532660C01C5D6DE22199AA774383E306DAB87E301ABB7D213887F9869D4942D0D71E94B27EDF216A318BD488D45DF84529EF575AF3C3938C0AAA0215B01994153E2054A0B894DA5C784980633AAD48576957CF4AEAEAFADC7C587368551C73DBE1E57C58AC713303A8BFC258BD04B51724459FF9E24C03A81E0E0679
310
CEB9B348C0DC998FEB9C6D6EFA77D247CC8F92D3848599ED89A23218D0636465AD1CEEB7DC140D7426F83491C4E8E8281C2FB35240918FFECE880CA2A42D70E8B20B34DF5221C7DB0CF90ECCB9C745B37A47E9B716FF7A97B7A252C1F3814DC7B1E1A7F72B8751D524EF7CAE45B0C73B3BE7D08ED39781B380DDFC9AA4A474
310
9C9493DB5BAD07A6EA6C092FBD0E85DB004DF06B8C9D3089C5320187E4CE1846158C7EA7DDAE8AD9AFFF21AA3A1026BB06A259845E8232DEE62811A4DA9CEAB3A4887320B76E2AE5615EAB7BDF738CBDD01F1E64064BC13D9EC53576751CA8CACD58B3CEB0E6CA585BD089B2A59B9FC101403387AADBDBE70586B93D64BF3A
310
D4453EF9C3B6A93817E8346991798601344F79A83C51F3D50F7BF2683A3605F51A72449489E0EE6169C749C60B1035651103AEE24D24E51A759C840DD3FC6504DA6FE107510E447B43461C79D22970B75DE5E1BD3007D1AFC619A4A4A69B5626AF5E9B8374E20677F77E2F8E73DF868E8BEC7EBA7B6A75EEF7205E1AB9486C
310
B642741D6E03FF13FCCEDB1C4AC129886268B01CDF4B124AF797CF784F3C6DEC97A17D4B558070A0F1C04DA4FF9BDBF34159AEFE958479824B3F58EBD1E19088A2AFDE501B6F2052368A3FD0E650A179EFAB1561E1D27527077136E652676C3670F42DCB3352F48F6BC86D2C3B0051727E41A0A4DC6CE2BE9D47F5CAA2935A
310
3C0539AF080665997194ABECD723B08129CC5B6B21D2E7D54CD4D12610E7E9FB8306771A89576C7A982002775ED44F3F744CF21EEBB27A631671D921938AAEE3EB0D19CD1E083727F607823E817BF599DCED5394E37EEBC2E88782E638920CA641EF74D4CDFCDEF06F4278ECB18E31E7E9876F2D783C8BF429C75395F57E98
310
C2B495A3DA077EB3AC3C158608B6B57FE3EA48484D9A480096FCEE0DE880950E7E5A5714131C5C41AAA29FD19AE81AC145FA1B9E85C7169A5AB837B213493DF7E9AA4B5FBF9CDEB36EBD21EF1181B7CF7366AB2A951D01E37AF4EB835D1BE8C117CFBE7625D2EBCDB0B20C5A4B45CED0BCDE3EE8DA9DA78C2E21DEAAFFD119
310
7E463C33CC6A80FB785669B856EFF7A8CCCA2841B5A5369173320B1170C368B2748D81062EA0296E5E2D95D7667A4A46D98A6FF475C76AAB0A8C8D45E226FAFC9FE0133EA9F60111F99CA81ACE03A1D14C89E8B0D69079C91464FA1D99E651D0EAF606F345C42A8A1AA9BA391031582B96D5B4176A77AADB01F12FD298A75D
310
EEBB2C82F0B8650E880722F8DDD90C56A7A058E5FDEF1AC93545BA27367C76F5D8F9690CB6F8DAE141EDD7971F0FB548A2AE435F224D6E5954CA155512F7332029D5A1230854B79F258EC5FFDB09F5F6343A8EB193229B7F7E79B3E48F8E183860B38C8269D1B53738FF1E0BACF6AADA6D4869E9DE708E79B5DADCC09B1BC7
310
6F649731CFAF59A83FD8BAE4C749D66FA87A3810D4D62FFE826FA400C0F325D2BC0F3CA35F5847B82A2ACC7961745C823E4D863D54460AF792CE6F79B5C7A33B25C3AEA6CDE15A919B6367D781E9D44F61BF828672594A3E1D9EDD6DF179A81F27EAC05B936575D73E05C209DDD2115CFB705DF9BBF3C911589B3640735E9E
310
618FC9C36A7326C82B2205E244C55D56FDB9D5DC93CE958D4BF8174D2B3DA54CB3C09F2C2A6DFF73D23B2197355761AD421EC581284A7EF8DE2CE3497C0C804D49B41DFD6A7360844E5BEFFB495CFCDB97A4595911CDBA623274CE852B5E278AF0BEB1770E9D37CD977B2766A7DED0E94B840E1E95E8C77DE5CB6354AF7871
310
427C28ADBEEF7BA0A28E19DE9ACD75F379FE373EAE6DDDAE3834692F9C2B03B4FCA8FCA9ABE8EEEBEBB725B88A7C90941E850682CA04061A7DF0CE82ED49BFAFFD42C309818FAE14755CAAE78B0F73243ECCCAD7DF58FCB9CDFAE7A4D3E6671A613639130D056C8383C8F4FCF4808C331E544DD26E4755D09EA05253B3049A
310
1E32587CC25D72E073E2CD96D04A71BBCB0038FEC3F53D254199C3CDC67CD66640269431860225392B2CB3ECD0B4498AAE78BA1994246AE1EE78F2EDFB79F6C6CB6B5E279C4D373FBC21CB2698C9ACBBEB6A4BB6B39E16AB0E421CCBFC7654D81ED86022F9BB522146F9F4772E2D0E4FA70120C95A85A417BF5078B232F475
310
4363EB1750B2AC2148EB46B1EA72AD9B4D23ADCBC589D70106C3EC2ABEEED84DFE28E718C6C83502C28E9FDD3B09DA0A6F6F7B72B706A31C9E2A331EE70DA56A083D2177BFD63C55B11D8D949FAFCF90B23A1E24B9B5018B9A17E99F2890EC302F330FE7936E2C23F0D237EC8916F5166AB84B62A21BB0B950146962D754F9
310
2CC2C8877BED8FC7B7B25726DD19545392570B3A2C66B58F027BEF412E552D12A588C4A3CC5C3193FCB3485EFFF700D0B9EEC077754A33DC1FB9E25AF814628F91DDFECB667D3F7690803F38D13F8AE39353523BB08FC6760144AFA2CE28236F65EDBB3D5F59A57D612B99E3D7E5F8A851666BF9B5A6658EFC96EEB37A378A
310
BB0EB3FDDF1303AF32C41BD1C8560745D7BD81066B0D6313359CF488563D3BA3F8E2185D1FAA3EBA1397C9D0E3DD232180A4DCADB6AF25DB3AC3CC26589C8239E66E81547BC7E2F328F9884764CA37EB5DBE390DFC03A5246B456A7C3684C4377D0EEF9A350680FA9A077E8B2957B489E09AB1AD41316944C2254B5984830F
310
691C93CAA767EECF976FA5647538830B5E63236A6F0365C1E0F3E327F24FE35EDDBD7360B0F7374837409F7A6311BECC12B7026D4FA1AE204FA3F5FE904B1F420C7A9044AE58E403E7C4848E7DA25DC9EDAC79DD756FAA26B9EA83ACE8A214A2612A22AFA19DAE7DBAC5F8CDE1292A485F98DAC731A29FE01A3966E96BCB9F
310
B5A4C8830E1B9AF0C54B87FBE221A097036E5D28D1F869F810C06A9BB0AC0612F69AEBAF893C6E7AD59460208BAB3A6B09CA4F6BDDAB8CF0D1F84B72487498395A70DCD754796E271099A567A55CF242BBED64696378BB6CF25EF0FCDB589F3A82F1116D010A9AB9FA4358809EE0C973A2B4229BAA876A70B03AB49CBA7FBE
310
71DB1832FFD32F9BF2C8E98075CACAFB36921235D0F552B6A67E94E094097A5D7DF681B40623DA535ADA7A9AD8E9A62407D7C9A5AE51D62A17A83A23728DE86BB56115804D3F2675F2C6B87541A0FC497BF0CA86420F558C9859EBE9FAD62747E323E3AADC03FDCDDFE7407B09DA90B44E3185723C5381EAEF589765E2F7A0
310
99BA46695BAD60CEF3491B8A171F5F56444F7CE9455312C3498C74173AEA0214EC029833B34B650CBB5A5508D5091665309642791708ECF27CF11DB3D797D6CFE474453BD4BFADB768094B2147814D81C7CBAF8228DCAF5564B5891F5EF6A860EB2E323CB82AB868D8EA048880D63B0DE5341F1B3D53297B928A11E15F25E5
310
148990F710747C3509ED14909C552EBE3973246FCE55D00564D8310BC3EBC5085D08D806799B77D6C57FDF5E55837F9E934F09C03C729271B64F12D0A9F9E938107CAF7BF1EC8CF1BB9B42363D33070F4CACB425E605DDB0A34A12BB936DE286B9887A4E2E558F0886498BFF49C311D96C277CF6A9FC0D75AD0ECC5226D7E0
310
E3572012E56D7FDE4410CEC7A6D0F997F225A2055B8B92E3956E875AE4993CB3D4C9063AF98FD45E1BAB165640A43439A2C9181A7C355B297C0A0CCFFAE19B6FA3C2BA238A885FBC98B8F6DAF4B94B97304878DF4D8BFF6A4AEDF79E90ED4E68F00CD7299F4E0D83E35601AF0CBEF18C1E870E74758FA91F5131075004DB3C
310
FCF09AE1DABC11957FD9808C92E8A678CE9DBE40DDA0E0D1D505AAFBCBA208232BFB6FB3704E8985E61ADE53DE74152F5C7DE74B1DEDCD37DC3E8FB30D7EBA8B9EFFC3606BF90B8D438279CB7709FC7C00D327F41817EEA71CD9E49FE9C8C9A81C70915D9F0F15958EC5AA4C3BBFAF46986B90F188BDB24B89DE3C6F29EC3E
310
6F66D84856EE96A35E657CA41B41EFD8DBFA16AD6E91439EA92B40B21C053249F51AE50EB0B24C770FFAF40DF12C8436366819C48E36547D4E7B72FE2BBF10828583057814A668BDF183F6B2E58DFB151103E56303E63D00F39C27C4661605DB644D19175D02E3F0241E8FC3458D17AAAADB117CE9EEA690D0DB01E634878C
310
04C2C9310B69FCAB831151E3AD293BEF6E46B0ABCECB50F5939B39C613D41E81FAE8D34CAE3C4566B761D37185FE864AC32FCB71AEF39DAA5BAB88609BB980CD2F07A8F941653B529567726E2B2A58D079DD57E1E5E31426CF184A04D7B03B985F276D47406AF276FE32E3328BA866EB1FD39BEF57863A317634AA5FE46740
310
9B3873F5069EF0D71AF00AD189D17BA1974ECDB2D623E9E14086386A6AAB5807825C37B015BFE892AFD154920EC437EB945D958E18622E1E0FE2FA06557CE4BB9BBD05A2D40E774DA2B65473791E314B7D6C886820B2FCFE4AA272B3B8B15E7344A145E8AF919B5454D89D36D413E87211186BF6F645E5EC94DCCE8E1C7990
310
22E4EC9BC86D7A0F2AFB1FC4B2CE48F84B3F49ECE65BAD24CADCC07EFF39AB06BE9E6B27A059938EA7208838455383DDBCFCD967DDE4650EF92A14FF933C975DB20BD7FEEBC4487576485963D757D16340D9599FEB362F775F38CA4185A86F74B629C81B133644A3B18FD056E997E0734F9BE26D11C0AAFC669E2AC9FC41D2
310
81F8B2E1C35AE27BCE05F3DA295488096688719D974DF1B5D182DB7792288697F8763CFB43562C1CDEE11C4AABD5C22B6E33F6F389CFC3477C5919DC0D533F8A7A1846B7ADB60ABDC26C43D0CFC8910B7C15EE22675BD02702ED39DB77A87A192CA7A543E6205B979B9F5A6B512A3CA799E198B2D5797C0AF8D1D872CA455D
310
4D431A7879D4DD76110B5FF7F4176B54477A9EB5E4A5D11214FDA585F0382751D8E2582BA5D2075053298FEB8F1537304E32CB22C2E2B693DC0A760B1DFCA751BDC445AFDCBB12820ED85F6D5298933C7EF1211E9E057684056CDA3FEF3BB6052355E162DF27C59E965A8DDB7F9437EB72CDDA3A090DE65A5B2F50326247B7
310
EC67B73ACC7047FC9B353D6EE990F772207C6EC52B39DC2F3C0754821DAB559F7C1809C7D0DD5B0499D0442E0A6E391B3D5DB46D11E731E6794EC77523FBDAA242ED67F9FA1FB684255671F63C9BCFE6E7E896D51001A6113EF2298BA494E0B0980D1FA5B9D60796554C02256B1E0345FB7C6186B6A19D2DCA270416262845
310
FA4F42DB5D9B0A0B6F07FCA2E56C242522E001E0CEB734AF310FC8BFB57E38E03AACE93B3326A2197891E68452B26A6307FDABFEE0223D3C03C3C73D2D5BC054C8311F12004CAE488E5C29287F8156A2CAA4AD0D7BE6B97264E4139F437CE73ADF52E5134C52B819777C18B323A5924E4F67AFD13B1CDC3A61793A79FAF5C0
310
CEB718E441071E797C6DCCB9EFCF7E4A1E9F3DF3C2F9C9E8294E9586868788C972857FB0556D7A26941A7EEB9B580AD78EC40B85DC906B4120A563CA3B87797ED612D3B035962BB75F6515A393F4CB057F564CDF54F2E5A024514E6A1F901DB80C7E70B1FC05E356A7E72FABF4775B3E3FB8F70A2A8E7B6A94542BB3041579
310
78CCC999E707A29CC795E67A59CC546A5D47B368954CA7B6E75EC9E1F6FC73CE3B4F71F8CB1A6B15923D61EAAEB14626AAA9D04A26EB9C66CD1BE86CA31A5D8703DE04CD1EBCE4F5CCB62F93909AD11E55799A781A956ED27D3E738F4538CB04ADABC7DAEF20BC35BA6A90BCC1DC61BA05F20D8832FFB9BC9B15E2DB838A0A
310
FBB7E0C82A562127E0446894F427794C3037186F622BF24DE1B00AA10A23BFA47B2A180D6DA5AD6F7326FEB8C100C2D7142EB2A0B2A9D1008A09BA343D70E054AB69E2A7EDB783CBD92537FAF4A44D1296AC2792729104B3276C276C951D0CF3CF3F1E6B017720A7B8505A5FF9589365979678C36F1BAF759EAF57C60F1FF5
310
FE9DCF5F8E764FF25A2D06CF25117A8FED51884C13B2B750DB0E4F5E3D64124FCF11F0AD8F1CC3B3DA4B38ED22BF1CB2585EE6BFEBBA63FBFD44F9537B9B37BDD6B358720F98A8125AED4349CCFEB0E135F19E208A04CA7E2B10711185D72E381F448036EF57C9F874E54A971CA37A639E986AC0226DC5AA00D5B14FEA9192
310
234B3DE617814FC221C92F33F1D392F297731B567FD98FD91D989379AF567A65B8ADF177591DB90FBEA99BF4ED11B16E50A0AB1DBF1156D034BBE04D69D08F939D8E92BF525A1DDAFF80ECBC95D8F45D3FDD289FD23F7D8B452F8EBB34EC082DEEE68E18EDDF072060FAD2AB1504DD4879BF67099FC58F6E9DEFBF645D1633
310
4A3E9A127C6F1AF6132CF287E433B43A0EE93812B4AA0B194E03EE3FF91EF9C6ED0074A2F6EB18A96A7C9890B1FCDA1F2095E944DB911ED54C60DF16FB74C8CE9BDC7C54C4F14078CF73C2FFF1F1BBCCD7CF64F71407EA1683DBC410D226627F66E509060D5C0AFD611DE681D509DB8DD12FB1265B03C6F5C55FF4C30BD941
310
87FF692B4F152982502F193098A789526A038AB529A52BC0DC4FB6285CBAC10A8B8DB75DCD9BDABBB221E27D1F8DA9F5EE5926A1C8AA9BA9BC09239C6A7F12914EA3B59EFF7AAEC3FFCCE56F1C5C2980AD072793527565E774F4631DB178CEEC691B1F367BEA0CF2907E1D6B854D527065979DDEF002D8B2ACEA7CE21AE297
310
737EDE1D45B31233B73FEA35BCFDD0B09721FDBAF6432681F2FD10C3E9EFB246FD6E854B344ACC9D8A0EEF876A7314B49B6A499FC650B099D650DBFEC7638ADFD245E2B7839DA5AC5F7D5623FC0ECEEC8653FC9B2BDD1AD4D00A566FBA7186DD3C9CD26512551637498CADB950FEC71ADB9A5524285DE328B8EC7EC75D2345
310
AEC6A27C42AF6D9B92155315C80DBFCABBB7DA0FAE425C4FB896B15C9BFAC4FE67DF5A23D30C93DA4D8F36FB15D100050DA6062E22AEC5F4DAC4F6FEEF97AE05DE63C6D38F9E068A20BC5E3B6BCD75320C5090924E7F93640A7735B1A43451C2D91EE62C6238B797349E59890AF3A520DF4A87095F3ABEC2E61F0593416CE4
310
6CDCBE0E00E2523FCCD04408588B5B6C9DB6459C786CE378770B54F51DA3A5E1DF2A3349BEAAC234A6CF8993B598B3B25B4B113E353A4D750FA7534749430F3EBF2512E7EA3FD43C6AB9A1F765A58463B306721A15D224FAFE8C6F5E3432D57EE697DA0DD5A9D4866A8BCCAAA9DFF1F06047851408FEC060471D0E3EB86BFA
310
F46E4B5E60311DC3E3CEA147C75CF971BE74689507154FF2D2E92F15CDB2B9182B11459FD8ACAC5A85F174BC94A7F4EE4C4F5CAFA7C02E37BF0BC77B7DCD0C047BC316F562A01A441AFA7931CC84A28CB9F4AA367EB515778F29BFE61195FA671F4352E5E46E3A64773F1F76EE5EB36D7BCE9BCEAD837A4D77F8DB8C92AEEF
310
6711920D7C7D0F76B0FD0EB7AB83724CD35BCA7D36DDDF5FBB7FF6F04A91F3E2BB3B8F1A43CD659639507FF6331C5F697BCC782AE57D757A27D97F1AB9E0AEDB43F92F1B2AACDF5FEC8ADBAF9F814E2027003BA2F9E144B1938A7A04050AE5D953B82C45619165C813A10E76DD6906B3C16438064D14CDA713AEC420034613
310
E1AC7241904A49FBF87409AFB1FCB9B72FE7933A87D8FBEDACECE4EDCF6A4FE9FB94D5DEB74FAB7CFEAE17EE965DF980DCCA2D04134994F9A2E94D2265DA4FE6AA7B7AC15FACAC2B5ABBCD7DFF542C5314FDAB2E1B9D8B65220B8E2B638BE008E8DCA22678C820C5053664D15E89F2D735B51A84955E81A443545E9FF787BE
310
0FA700A76D136C27DA179A7C6E8939E01BE756E19CB292798063D8B97F44E8A27BCF3A614FEB8BE974A718E86F7EC99B53CA35FA24F61F2B07266684623A3D4CF073E511F3A10A8FDAFAF0078C577F4DF9D339FE7862E5FA47CF4344209E5BF76D783B1B48E152AD281B15FCB934DCDA49CEC5706B1EE8B460F435324A5CAD
310
154725E21AB8044B75A557A79F6C807B9340AA3D92503E866F4274412926C8C504E4D5EF8C0E68DD0B028781A6B4054F11CF18941F101C57CCC796773ABC8DED9CD91FE5788806C05E548895354AEAC96546D55B0E94A59F148D061F42AA398D822CDECA4CDE79E13469BDCC44FDC990F366BA5978C15F97ED80CBFD73B0CD
310
9B8B83A4F6845BDFBFAF034019473FB9A63BD55D3A4A7284757071574029A4D016DCCBE95DD679EF3C4880BF169422F8C89B68A988D2B13793CAED4F74DE7486C72DC94DF46B8E93D8E02EFCB1FF9B3BA10C8AE7F653DF94F4AF466CDDCEF5776687F7C4C14B63E4EED1719DC2EC482D7DBCC7AE518CDE3D5FF86D39000EC3
310
673C0044E1D308BF05F74D1B5F033A7D1BE7F74BC55BBE3E4A20F920946CA0271EB17BD2B80E5660ACB8A29A79F5E4BBA49D4D945B6EEF4A7EFEAA65E5555BBB57A7E15D2F83C69F30BBB978D2B39F1F26FC097424D39BB33CA3D87ABF64E307938B685BAD44F71556A30B7E712CA4FE600613C3E554B69ADE949A7CFE214D
310
F1FFF05CB82151EC6FC31950239F94CF7AD39DC473F6EA356E5EC2C4EFA04383CEFE985A127484366FBEE3C0EC4FEA363E4F6632AE781392FD45D67B63FB8DF70E82734F431FD3443172A0E30A83D60982D55FA6A2CF86DBA8382502ACC6CDEF3B907982EED1160E14863FA242F9757347E1544275CCDCF71ECD5F8621CBEA
310
326B8BA884AD7F825781923E66971F04010D574C541D8427A438A37EEF8AF88240EED7362C953F5A81DE2D56109CDE2524EA0F5D2F87308C0C47BD97AD605878AB8589E17CA83930CB5E0DCCD75853D68B1AB136594926DE426C367428E9334AFAFF90ECE221BB5DC9E5BB53D2CDEF954EAA9CD814F0E5725F1965DD458E5F
310
8487683AD86B9D0076BE3EE91EB1CECC5331A67A3F79D8B27587C12EC2A6A70474749F27B4C0BBAFB94B34189E88DC18964BE4121B9137FD516C7755356E50D6714E31ACD222621EBBCD1CFF81D87479056A9DA0E0B8EA19D24CF937DA89F78E8650CCBDC110AAB6C4E46DCBFD0446BA9E2060E81F314AC2031E88135E5476
310
AC0160EF5C0DD2EEF1B8B5CB2D198BE9A554A9093B5F7D7E4B5407DDFCA1D9C152FD97F55BFFFDFE802954DFEC8995B983E28AC92F1971E28F531DC407A1280EB125F64A72E617EFB27DFBCEDCDA2D6F2BDADA36873EE46B9BE1782998C63DA7182BC383FB6FD15DA472B175D7E8B4FC88F38D6E07FEAA3FA3CBB8F6B449EC
310
F14D2175E5C5CCA3A42ABF24CA6C9395AF74535F4DDB38CB84F56614B0FD32D7E19CA5CF988DB4449C40E23DF2B16772594554579094450F56F253CD25EA7F77366FB1CFE79696C428BB64D5A41E986189427E5E4D7E2DAE3D5BB4972B3DC44EAABDDDD63A2264ECFA5C786EB0EE1FDC5BE34FA0F08376869FD1E61EA06CAE
310
15191135445EE8F0394161C3266A596AA035572BB0C8876180D8B9C77D307DF9DCDF7365ABDA6F3A2366436457A4DFC1F259666569A9E4A79C817BDD5610E5200FCE894A358EC72858D50EF67545DA81C6FACE3D457BAF70367E1E6BDD9A952FB4F56247F58F523B97E640246051A72F79BE42FFA0B3187F63097F91C48B86
310
8586F714B0EBD5A00A8412C1236E1298F60C72BE6C96B82B404CADAA304AE9F303176B14BA53FBC2D5E86377E35542019E24D97B96A49B2C0E5006E7795954DEAF5DA58958839043C6C70BD3B1B33B6DC5C31316D8A6923F142E26F6711A2258AF977DDF1F970ECC4F1F2B434B96D81BEB6E89BF3BBB3C7C8CC80505070723
310
D6D7D7D3C8CA27CA164A26024FED94B12A86031867241DA53D929636DA600F050BC40CE48B8BA03D69224720DEE2ED2127390BDF5E6EA64527BBD4C4C63FA76BB801FEEC0E61218EC98A8A86CD8313781617877E66692839B9468CF4DB8E50A73986E558E309C0D6F676F921BE02F1185454DC75B111572FF9D27D85EA14C0
310
5AD7271225B391C4275659CA4A43759D0BA44639BE4C30A84DB7F67A41399FB95CBF923B1B1672ABC807C1590557FB18D811983FA97F5E609516D62281D38B1281F68FC75528C35E4CD7DF0F7DBB5E5DD69C414EBEA2F4A5B241B996BA77AE6C772E367408C633EA3E438B68563EA8BE7667F3A4C4FDEEA52ABD78A2820F44
310
3B7914A15F180018D231E64519C56A12F6CA7C8DAE18F06F6B769DBF92329EF6A5D18FBCE600F36BD8E8198DE5CDAA96181F3A756EBA5501CEE58F497EA4F418A2B82565B9BCC611713C0B708CCA1F398B78C5F7D03B3437CC18F13061F55C7BEDADD5ACB1DB0E36D3CE47FF6EA1A563A57E9649EA5D14D1A50EAA45746338
310
1C073777EF1600607BAF6428A7DDC079D47A204EF1E1F1F0589FB054D45E02CE623B3823C317C601E589E22B1E88B448524B86A82828E32345EC18AE17214B42F8C41C6D428016D9BA31DDCB47572561E5A402E5BA4FCE55F78AF7268524AA04130F3A20BA5D1E9F9948EA48FC8F5314FDB35E21898198060034ACE5E3E2BB
310
CA34092518F275190AF65F45867FF0900AA4B81F25427414C372BF51DC29AA855C5428EE1EEDD6B849AD60F6E73475C2D2523F8A2772C840A478DED18A8C5C91B085F255DC4F54EA7AA8947354FD17ECF8FB3B4A0DE7B483CAF3A1165EE05BBA413E5C1FEF3DE1D6B8F2F3F3251C17D9FCAB48A9AAF63AC773A0E413BBC46A
310
9ADF84A566FC920E4D8C52C9769EE3301CADEEEDD92B312E02E2A7E35B7F1E7D203FE5A7D75578B06E99D0E46FFADB8FDA17ED8880390DA29094202D6F645F76F6F96409CDA05495A96E84B04A00D1A6C6C81D7F3DE9376E828CCF144EE50E364ACCE7237EA0BFB5607ED1AC3CFE73794E5B61739D14DF1743441B1AC98F00
310
ECEDE9E7301FA29755FBEFA68C91EF2B314CF510537EF1ABFC9A762496280B546F5EDAAF8A5B387D469FC9A878A92828C88608453ACEC6094DCA54111E7AD5B2663DFE2DD151B7F123B9F4FEF8EE36AB125FD7AD52A59B1B765B3E3F73E3F73DEA93875004D2AFFE3CDE9493B87A9904DD052028949041A91DC0E1BA47BA71
310
4343FD5B25E0A6A09503AFC17C790058A836A324FE31D7893512E28230332F153181C1E018E1124EBE1BA262AA428A518237D1EA7275E48C5C561BD19ED6912EDD8367DA0F31E40EEAE9683DA9257525AEA7B632B97119E17145A90231768A4F3B9120FF32E8319B015E3CBE26F1A754177D8185345817C096B0CE443A955D
310
13AC15E1FB5DEEA0239EC32A3C92241A237B0B02FFCB4F93CF2B02570C8D192E2F2A68CEEB42F12E6F8CEEFF46C251E22B4341C56FB08CCE550E7A9D6F4D6564B9EA52A83D5BF2C6E03FA19D2775E15A8A7ACF30A13C259EE7F5EF2AC3BA354F1500E1A07FC63FB4686E2F12EC69719F9ECF5FE3F35598DF2CE944008CE78F
310
0911BA5BE5D0A34E0098FF038669C26030BA9B300303039852A8F6F496341737CA7E0D2E3AAA36DE0A70AA7D9CA0D54D9AD84B18A44C9E625475E1C97B93BEBB38DCE7D227E67A2D00F531436136355F243D1FC0D712C5765754FA22FCFFAE97919161F46D6E61ACB37D83777B385889770B50765B127768443A5C4D3A4E35
310
A3151111F146B7CA116F918A049F1C272F2CD7976C69A0068773451659A97E0F4A08FE604C3FF6CE7385DB19F4D3ABC8A0D80DA8A42096AC377DB49382B36E270B6FA7570188B4B7D1DDDDA82ACA487CCA5D38BD3BD039ADBAFA4ACFF27809239B722081E2EB9F145320553D183F28471C388BC8814E5045676767AB58A8E7
310
2D1CED2CA731379515D2E533E4CF0B39DFC625F97AC4836831A4DE330E87A8126FA17EBE583D614E71E22A8DBF2825599743E0640037303E8E1B1E8EA4E1ABFA4F62907B5E4E0E5DCFDAB417C36C6848A2B8D15F1E505434C0707E16B1CFC2A1C36A42BBF55734F8F4301DDC2A5110CEE8C0747F69519265012A2174BF4E95
310
5ECD4FDE095A3ABC70536B7AD0B9D7892F81287D667C108703C9B66A221E9A0929D030008F77FF6F5D2108EF5706FC87A3069B976F7C9FC3239D13D283CDEA83597461079FEEE049B0F392889898B7D87D31F8D60ED7B56B91823A8E4EDDB36C6172ECEE42BD42B12CD67994FA0F0DFAE9389356F4CD4425A4B8AA55CBF7EC
310
D585C6A2C2316791E43D5C06841ADBB226A87FD61515FFBB0167B74E56BD7F3E90A57A97FEDCBDF483A0D6699A8C0849CAEB4947FAA90D8E332D9DEBD9F4738C37DA0CAF9CF3DAA68BCB67C420459C7A64498D6E848E5CADE92BB6901F607AA331104A67F7CD650EE169B1DAE94D2C31C2F993632259B6957E246EFE4C5481
310
107B07118607700040E5812A2A2A38DA0076875258C753F60E0F2662C748EDD5F3F3686B8FC3BD6FE631ECCAA1E8B1C1E565AD117E54893E79F4672E32F9E46B2A183DFDCF3EECB4D4D077DBEA0DA254D256045109670050129E9B9B1A9E4A11344D61497A992778095151510C4BB7EF2009B63AA4360635312E4CF668B7E0
310
D3D85A8688E2BD83B569439892ADB63461930D428E0DE42E4AC57CE48DA5CC1449530D8BD3D6A0F08DF20C8E8F570F2CFFFCEA286E30969B4654D498A58D9DA782E19FE3F002181838925592C4A1EF0B332D88B61A92C644547BED490D3A42CFFAB70E36D961F694F6307F72FF15A1C79D5B1B5CEFD353D9E2B52566DEC8F8
310
F09CB3E8359C0F68EBBB7898243E34E12A015B2685AB303C04D3A9E00671FF3DFF0A184E4A2ABEB2B666AF5B3A209C73D8EF29DCDB069C9F391EEE9DD0F74C7BCDE16F8F02E3B8816122BBEB50665775B600549D8BB33A54A6BF940C028118BC6878C79958D6784F9DEAA6E26748386FFAF8D0D0101E2847B6563F5D8DC1D7
310
8F787BE00E2C941AE12148D4A81599FE8F68D4DA5CDED75530ADE138240300EE13B0FC13A1687FED6774662C05A2B7DFB186732F0D7A93545D8B0A6390AE5054D9CB582DA846D7A061B3358B45E2B52DDE63E114397EDB7E09233A579155D795BE76102CF277F4DF8B188C4F2879BEAE3C08347124BF9ED23B128259FE107D
310
31E34A652F090B30B39E0D9AF917B76A2806135621A8A60681F16AF216514BBD02711585B5B1AE823F4B2D0369EA5B6BCB863072727FFC871CA6C9AB79A814D989057E9470A3D238BC87CBB4A0EA49AFE2B86F22E499793CAA9047080450166BDC357524561E258C77CB697F1ABB32562CF87C3B7AA12F911EF19FB3E5C022
310
22E887D08202A60A17151F5E053A86B437771088B4FEE14D652C43E8D939995D34545E12E2FF93D4E366EAD25F10CB7DED141563C3D0C447AF06078A91135FD4B9611583CB4BF3BD167F2399CEAB0E0100F8FFC305F00F1711717173138B4B48C83022295DE657EFEDD97F238ECA80F528AFB4F8D67AD4E2594B9A3AA86D74
310
87EFC313BA95745C186F0CDD84CC12DC9CB0424B42203D351FD9C0A3AF10CC7F388E0329279087386421F194F4A29464C1DEF7EF8BE515E4A199DCD5B909342598D8FE6A231F71336248D5CEC5454455C7BE383B3BC7B260FED27F703FDC39A170F3827239102F59D4DEE7FEF82EAA1A5E4BA94DCC4CC44E7E2EDE20F24244
310
E4454369D2E87C3F823F193FD4FD27E1C23984B01898D15ABC20711A8A558054951A6AE280096BA36CBA439603B7B0B4C45F248C14B2383B4B5CD8ECECE4FF859AD4A6CA2326D020EF090F4041D28DB66E5256B56232CC52829DE8060BAE6BBF37D4B7469B822454FE93210A3E8D15E69FFCF01123222611C51C4FD0A041A0
310
CFA2471CF6BE38D2B20FA4C3525B5B8B586759475CF80ADFE67A284AC24651E52B8E683D24C2622642F27E7C3C22783BCF63648BC398BD6CD0D9C97E7E7E3EACB6126DB7A6C1FD9F1031302EE67ED96F22B77C7CA0239BB324207559B105E4693EB26EC46182A92C9C0DBD24F29B31C5C5AC1F84300E0E17CEEAC15F5736FA
310
4A98971E2F1423BFCD68D4BBD5F86E74B40A369F39507C88FCDB35D2DD8DEBEA4AF999E23CF2816D204200DF6E611781B9884C1AC8888B4DE397320472959434323A5A36B22A8E1F721A270DF3BD65E4A31C11FF048AFB0D8B7B6881423793963A23CFCE935FC189ED36FAE35C46DA3574C979E4394BE52084F3081837BE03
310
3396D2EBD80F1F691B273F660D2B32FA27A33B1DE4ADA5F0FA4651511102DFA410DDA86E065272CA314D5249DF91B06BB92807B28EFD54F08F7B525252782CD276DD02E6B0319B13DF87B1F6361AD6B28FC0D711CF445429B9E5A433CD493051C49A9E03DDB1B147D880253514A5DED88009018620EE229101C041950E2D8A
310
A8E1F5F5438E0C0C0C60EEDEE9E3E0C051948C69F84BB7B2A48A1F3C8EB9E6864687F4F4F6F6E2FA87608ADAF9C5E117B7C1A737E710769DA1D15ECE6A84502AA855398712D5FB51BE92E4EF824969CE18278798AC303C2C7980DD2500ADF8FB1E6D6C2FAAFF9987178923334A244758BAA01A9A1B70FA5097D01E1CC2A58D
310
AD0EC94CE6430AA9B0C10D75E3C6BAC670EFBADEE1607739CE0FC18A2587E3EC3058562014C64219C69BC269082D5C2F4A659278D585755912176D78A1B641719C2A394CED495A1AC5D583FD2F5EDD93308EA7EAE8A6DD396598BDBD3D4CFED62D18A5BDFDE0DD5C80D1A89BA62697B131AE7CE9A6594138582F1B37D68F17
310
49AC7CB67A70695D48A4A056AC1FBD4E82358CEAE38F54B95A9016F9000F9879C0D9D131768635CA798895F27D6F1614F11F2838A83611AA51C9A3DDB539D42979C29F10465655C17BEC3E2760B80DCBF609198C7B171A531905F3EC218D696025975E986C6B4C666666787271F202805577DD5A3EF0CAFAF91B62DC4B2DB4
310
217A7606282F31D8DDBC290593BAA93EA6353AFA9939B877978481E15CFC9F2755CDC00C538F63A4BA3E80AE009B73CA0185687D339A507D165B74290D6EE46D5C58148F020C3668ABE9EF2F7549170DC80DB41FFC1D678FF19AEB10C7133832B104B80F691B3138F97A92D26E551F1F110400D45AC71A9B9AC41A1A1B1DAE
310
ED0B0810638EFFB511D46B121C6FEA0F38CD00E03CFFEB9713FE1F9C263E4DDEC160D0497FA9A132BA608584057FB15380825DE6C7FC3C667EE947D488A09898D8E939C4953BF4EC9836344D2CC6B2971B2A21A572B06096F4982D2CC7232D46E8EA69DC83722E267754D777F97F96D5DA74E1E75178084D0E70F12AD33E5F
310
71EF2AFA599B2BEBF60A5BE475F444F240CBFE8143C334E7ED9150FEEFEF7EB020C4DBED388DD1D6A167A76F3CBF119B578AE8CFA7736ACAFA4440A1C47185638A0D2F3EB5BDDEFDA958FB13CE4AA4923D5BF840392D45544329525749734866684BF7F8D9D54D892E19BCA9F829A0F8BFCBEEA6CFDFC61D74EA1A645ED7A1
310
FF241739F15694BD835B66FEC5677E40FE69BD3F91AE402F036537218A401CB0828604AD189E575015C6F3F6BBC8AC79CF6C70653847254B31551EFCBEB5978B9DB85D58D0FA41A9DFE9C624834AA04949D24B5AE6D299E072D152D12097920F14AA92C31C3B97E28B6C2E6E9C23D63043ECBBC0A60FDF5BD0C33C127EA8A3
310
308B8B6AFFEB28B4455BF6E7AF4FC6222728357EB8E46E85053E6A8843AB23295BF838ABDA94658FEF3F832F147046B4ACD6F7D48E8FCC9618582961C898D1C7A253C91BFECBDA6BA18A1FCF70755DCCEE2222F41B76D23CA98D0CB3D95F0CF66D57FFF65E2A90F5DF40FC3187621E981BD0BC1D992787212688976B94A8F0
310
C6EF646624B570B78E068826F87CE27041A95C9A4871FF65CC17FCB1639629AD6A9517000D63AC231F3D741CB8430777E7ECF80CE7A3F73C0F162F7E56AA71F4DA80A33CD6ACEE78E2C11FAC03DAFCE929B106F8F6B3ED2DC71FF994BD9CEF4E9A94896EF1B6E2B7B4978168BCF0847A3D2A4F1B0500B926E634B174548E9F
310
BAD27153FB5FC36799B1E6C7C38A94E1F9E996796D7B485E635D5287A2AE76FBD11A341DB3F8F810385BB7296391973DC6C37C452A9305AEBBE0CDB6C566DB59FE60C8E94B1FD090354BF51439FFD1B48D725228FFA88C84F686F547107A7A235665A4593B7C34D748C1AC8D56DD5DA861EEFBADDECBBD65117E65851F9035
310
1AEB65F0EFCFF4BCFEF24CB7A5879699FAC437A7AF9099186CF006BB923A59E37D7A36A29FD8D2CBB914A5E9D0A8FD212FBF796AE9A67958FF1D5D8B85F78F96219D4714EB919929241B6C018AAE0C02069F8D919961EC5DDFBFB7573E3AC8E08BFB7C8534BE6DE045B3CD63DBD71F7638BA2309CAE398EA3A7D8F98BBBC7A
310
EB367EFA5CFA27A9F8F2F52FE878058E6209C026453F8E7E8A237DFC389E9590F6059B397CFD65183BBF936E86896612A5B5FEE49DAC8455D026218AFEBEC12B3523A45B57B82C9C97E02ACFA1184DB18E48CF615DBF39C3CC6F0B4AE6BBEEA2E39D944E290302FA3DE33FA7E40296E2EF7BF1CD855BBECFAD0FD622BEE974
310
6FC4FDFDE545AE6E3BC234CADF83A0FB76DFB145BF3828AE3436368AC24989454F8FF70A177672C711CAA1A76107218CF948CA01F873520E7A2B118EBB161ABAD432932029628B6761590C98AB590C8C8C79798CE9F715BA696E839E9131A4BB68BE923F1747FBFF165331FFDD4D05997ACD168F12CA75348DAC04C7F509FE
310
83898A8B421181AF492861CE81E4A2DD0A30850CFA95E05F097FF70F9E777310D584A75BA7018922E271DAB1D785671157685B7D383D3E074DDB4F1E44EF04B07BAAC75A062077C54B9752C738C9D804D402E02851F3F89605AF189738C18C021D2139EAF72513824E10DDD3047BACC8521ED7E98B257D1166903B1B08FA6F
310
918FD7E162913FEC7D0EF4787E29C35FBA8C6E2C9C20E9AB30AE42CA2A01A090E7D010C1B5BF9CEE2A304BF3A987FB40D836979B79E18D70F257DA61E808472DD85B82761825779D6B90CAEB0F23360C6F80A7D7D77545E95B3DFF0CF96A827F9B5BCECD2C9698718417EF80FEEDEE938AFF55859D0D540B7FE09435583A6F
310
04874A0C7E8CF234DF4879722000167F5872CEC6BF3EF7E5A8CC8121E6A359227C8A29C95212F9F735BC72A887D56B8F309FC525BFB4FD767AAEC4AEFF249CFBBD2DE1AB9969A6155C7D8DABC307E47324C1F916C7BCFF40ABA5644E9FFB9238D19ADADA49D9610F01ABBA57E4DFCBDCCBB2B93C8953206C91DE01B0E2651A
310
6D6C31721915B31F7B7CBCE55466F6D70402788FA91D73BE4ADCBA99A35F17D6B83383704917D6833F0FA3CD45C926ADB8BC17999A4A0AFBCE2541F7B8CF4C2F5FBA611B3E626D64407CB32C122DFF4EF8674D6EDBB86C8F7C6A16D50FA685E2CCA34F8F7D1D8265BB0042E9D7F1F666F7BE5FAA5184DF58E12122A42EF02F
310
461B3F369AC746F96528AD208512AB56844CF75B97F352DF7995024FB02855385854F3798670D01CAC771AC3E1889EC25F61A20C1F8CAB46898817F9C47E2CDA1F286BF2F358298709FE567C91133E2638C8B53975E753EA8BFD3578B5F7186B7BF084EBA3F77BAC3132A5779902EC22AF2D2E79F42D324E083386DAEE9810
310
D1B44A5DAA54513C7A71E52A4AB9257D975B621308FE4D2141CC3DCFE946C154A3C1DFCCA7629EC69ACFA831634ADDA93C0388D2A9A2DDAFCF957C6995BCE7FBB6DC4EBAE79E63EB08E9A25F52F67076F7093CA545CA3053B5BF576DEAD4E0017143C5F759F32B2D6F145B52B67B48909B7C7FCA6586EE385A2189C16932CB
310
6DDFD9152AE317C430492A578ED27B72D85D40C7C93C097939E1B50F4D67F05334FE9DC362C30B7FF561B95259138ECFD9274C8D695C31B14D4EAA9F3D7FA8DDF652F8C5DEFA23284C799B7D94416DEE81E05A866302DC70192A5368EA65E1CED8BF107A1E2D3119A71E85DC1A7B0C1E93274CE04DD0F2ABC8AC7C987FDB00
310
2B6F81757B43502EF7A0D92E416494FAEEA4C9C090CD9557AA4D532F4996A272B94355C5A0E4974EEA9627476F30809B94D8D8D860062E02204643BEC7D0438AF800FC7E2B26955D595421E83C69E1A07E0E3122285835F014AD538188CF9737CE76D464A353FA55A001AB2526B84E985083693BC76FE211CA1D000679C889
310
E3C009832C87E1AC2EDD05C302557422DF0800E316FCAC86978A371F025A6C7DAA9F333E7BD160403A1A06EA75AA9888FF01504B03041400060808006484DB4C51464CB48900000043010000360000006662782F32304344433730422D424141382D344445462D423345432D4544364442334437314145442F646972656374
310
6F72792E786D6C9D8F310EC2300C45AF127987122606C71DD918B841D4B851A43646695A717C52A85029031293A5A76FBF6FACEF7DA7264E43906840EF0FA03836E242F406C6DCEE4EA06AC22492573150D1F66C60C640E8938CB705396EEDD86DE9B5042FE27813D640EA63BB001C722AF6E55CB61E4863F58284D5D3F53D
310
D715CE1C3985E63FD7F1B7EBDD617E9F1E504B03041400060808006484DB4C46B43DB648070000541C0000340000006662782F32304344433730422D424141382D344445462D423345432D4544364442334437314145442F6F626A656374732E786D6CDD59596FDB3810FE2B84F665F74197AFC485E3C247521845DAA24617
310
FB26D032ED70431DA0A4C4D95FBF438A944545B6951EC0621DC056286A38F3CD3D9ABC3F440C3D119ED124BEB17CC7B31089C3644BE3FD8D55E43BFBDA42EFA768C29324AFEDB3508C23726389656B3AD9F3A448D5D296EC70C19AAB77F3BF5016929858286438CB6EAC2C7C2011767091275B923D3A5B9C6367BF3B38BE53
310
6E34C9EE394E1F1A47A59893380756613D062A8A03DFFC174472A713576C30B6F5BB6DEB9DD9E64AC14D46699CE5380E5F71D538AE7782ABC6717D7FB0BCED0DC7F67030E8DB8351CFB7E777F3A5ED5FF5BDC568B118CF6EC7169A4E3649C22A05A424DE82165FACA93F71C59D4A7C85421BDF6112C7245468B66DD8124597
310
92AC898901AC2F45AB29A494B5B6D0EF28FC896D9D40315832D0D6C2E9DFBAF5269BBF0184AC8B95F28C082BCF720EBA56D897FEE04DDC72D5D00BCD508473C2296688D10DC71C14045B4B05196484B70852486026B5A8E9D57905C3BEEC4B6D5CEE0AC684FF5A53E96901F823C933C919FD87F023F7F5D3802790B6A0717E
310
AD84CD5F5220319EB872B1BCD7EFA99B259068C7F01EAC05C4149BFABD065E0B110B564B6BFAF16E73588BF8D07E78CA9394F05C589E7466E5775A8335D302E3EB004A89ABA9BB232A5F01FA4F807CC50B9A80E6383D0C0E032D3BC771B64B7804DA411EB23DF8F290B87C753571AB87A70819B1F214A6E0B63F0953430CE3
310
EC1AA4D3C913187DC2FB4AB8758819D8F43D8D859F83A12096C012C4FBDDE6604D57104C61119EC20CA487BF892B2E11FC947420DE3434D4167E3B284A3B4CD3CF8EBAFA0036C36958A9CA90F114BEC39F82EF6CB9FEB82EF80E87E45E39F692EC684C7348A6ED0C19A01B2EFF6DF5497AE407966C303B3E6D6C0AE1987D22
310
E2468B5AD64A2D48EA05381169B8D48C5CB9A7E0ED8CE1982445A6D6DBE25498B084079B97A074E1D6B3FED436501EA60CA0359641720F394D0526D65469AB0A844E4D50B030CC9505EE4BAD069B224A031C25452C42ED6B536CF201714658225095D4B4616BAFD564B774B72B32085EAD24170690CA9F35E1D2C20710C7DA
310
F8E564C73124D1240E28E4607096D6138C032AF0CEF39C11B60B28634514EC28833C1244383D41BFA304F5CCF5485E9E13BE6D25685A96F6496D43027005AC064967AB32E62B9D72F244459929F399CE06C60E55875AD3C189742132450BA0DA18A5998F3C7FD1F3AE7CFBEEEA766C0F16CB813D1FF706B6EFDDF56773DF1B
310
2C86008FB21289C0315AD5F31DA852943986FFE50F45B4893165704350C0DBF4DD7B993D6F5C088D6ECF5B2C1757DEDC9ECF66D736546E77F6BC7FBBB06F97A3E5BCBFBCF267B74B97932C29784832B7E77A8136C934DE9FE2AA8AA5226B81FCF0AD2085B2E672B2D3FA6A0AF33F8EA1CD9C6028F1BF1A44ABD8D55210760D
310
A2E2D16608C5E1A348514108555FABFB348268938FB638F7C6B8EC397D4F7E7C7FDCF3C6BDEBF170D831ECC9937E38D2B5C91042E759E44192E290E6ED29B5814C4796DF945D9CBE3F2CB1D1DFBD1E02BC3AAF564C9DCF4C8AA98046784F821D167D454B28BD24716BD6DBB324CB684C32D917BEAA171B343D07CA2F334BB7
310
982DCD8288E4F87B2C56361A0D2F8068CE02E860733143B85847542EA07A96531445BF0CA95ECAFF1264384A59D91B5FC2C0EF69087457D466A1826971C413D86780F3C0DB1239EAB844BD625F5714AD5A6B521F7F37F913F0E84AE817C2A38FE85E6C39437F2C3ED710864643BF3FBAAA5471092D7D582E7A3F5640B71ABE
310
04CF84EE1F3A15A7DDB4522BF3CA423C2711B4BE382F78278F1D4134D1B6A5055291A1E112B593DE5850CA9E4F777D70986CFA4E95C4B563A076A531CCC63A09F24A8A562396BA90734031EE7A83676B6C2E52FDE188F9CBABECBAFB45501C76C1012AEC3204ABF863D4E1AD95BA514365CF380F2194AEE5AF3D078FD892ED
310
B19933C8B595F5BAA6BD5471AF44488D60CA8B45A4BD1717EC2B065543C79DB91FCA42CF2DD75722B53930D03EF261306DD2FAFC61DDA0022B9D9FFE223022CF0D0A6A75213AE833A4BEAD8E7382060525D1B7D599C7FF135D885660AD1B81097296300A837CB2457B9240FE865145870E8547249379F9D8D9E8B7081D9E7E
310
2AE7B039DE30DD17850F1886D94CF56F45088354C89937965A47BFC1E8544C2FE540CB7984D64DC5300B159CDE5860B139850ECDD9C0084C0E1C25F5C688131C1BC77B91F1CBA7AAFF8F8FBDEAD8AA3D5D70519219CE04A5702ADF2D40DD57DE984EBE5F74CD0EC2395C6E8ABC12E6B870944681A05F2294C2C1A4F051C17B
310
8092E2BC5CBE23F7184D6CA769FE593B28A9DA39E67B3992AFD9E46CF9C515D3F4D56794B2622FD479AE633628D9A253674539B99A80612831532CAAC8C53BF70B4FE0B55484EE281801FAFD703DFAC35D245194C4E5923B532FB7D0FA015E556D5D3D2684D6DFF3C7AE9C1CA85701C10667C4C1DBEC111640B59C8A796A09
310
B161005534AD1980D688D0053C66EC5F2D91AA8E6A53957AD815F0C8F700081C49BCFF116E53DF501B5A822F0057F2E6F1422F4C5C0E83F3E9BF504B03041400060808006484DB4CB87157DAE2000000550100003C0000006662782F32304344433730422D424141382D344445462D423345432D4544364442334437314145
310
442F7265736F75726365732F322F636E782E786D6C4D90CD4E042110845F6542E2718019E3BA6E18F6253C79D920F42259A027FC187D7B61C5C45377AABE74AA4B9CBF829F3E21658771230BE56482A8D1B8683752CB753E92E92C45422CFF3032451560235D2652D884751F9281ABAABEABDEC5DB10F9C54284E4F4658F96
310
4CDAAB9C3792F5070445552D6820DFA85145D18526C858938676A2B800E3844EA00A182257BE1C677E98D7E7D7E5707A7C3AF19737C13A29C53BA21FBC8B0512EE0F2BD7D8D6D81271C13A20454D6E50FD8D66FCC5A32D9E60CD962297D43A1858F9DE1BE682B2C0EEC8AF2B05EB4FB6716FA0CD5E88FC01504B0304140006
310
0808006484DB4CFF15A4A45D000000800000003A0000006662782F32304344433730422D424141382D344445462D423345432D4544364442334437314145442F7265736F75726365732F636E782E786D6C4D8B3B0E80201005AF42B6F75B59F0390B113044D83508C6E30BC6C26AF226F3B8BA6360974DA7271430F523308B
310
2B198F9B80925DB700539227A2FCCB80A18E5640D320F996A81C9F32D6E9129A0D1EF74FCE750E6D57BC7165FBCA07504B03041400060808006484DB4CC6F297B74301000056050000300000006662782F32304344433730422D424141382D344445462D423345432D4544364442334437314145442F636E782E786D6CCD94
310
C14E032110865F6543E27197DD1A6B6D589A78F0093C186F2C3B5DB12C6C6030F6ED854AADC6347A68D2DEC8F091FCFFCCCFB0D5FBA88B37705E59D392A6AA490146DA5E99A12501D7E582142BCE9CB5F80D23851123B42495096783B361CAA51ED622E854D5CA6C7251203AD505044F0AA985F72DF1F20546518980B607BF
310
A97A81A26A2A07DE062721BE4735427E2F1D08849EF059DD2CCA7A5ECE6E1F9BF9F2FA6659DF3D339A48CE3A6B75E695417076BA9AD5D2C6A389726A4613C059702A53C903E1076D55A70CA3F19E331FF59A2173B89D12374D5A4981B151D44A042C23046264F413E68C26C73F7C3FDC3F1D34C453AF1C48B46E7BB63634C7
310
DAF025AD8A89F85F1776E05FE66DF71A2D9F6FEE470D676127B3BB4FAE8FD1FD9D84982761067D891FE04BDAE9F31F170B2A7989A6F7CA4EE499EE56601C7CDA88FC03504B03041400060808006484DB4CA9F42ACD7E000000A30000000B0000006662782F636E782E786D6C4D8C4D0EC2201805AF42BE3D4A5B63BB001AFE
310
BC47636943A460B0188F2F982E5CBD64F266E8F8D93C7ADBF4723130684E04900DF738BBB032C8FB82074023A729C6FDEF06284C9B65503170BAA6989F079AED32655FA977E171C09628AD7A22B11462C0176D6E58764661A3AF5A76BA6F84D1C53857A5CCAF57B6E6F917504B03041400060808006484DB4CA6D797065F00
310
00008200000007000000636E782E786D6C4DCB3B0E80201045D1AD90E9FD7516806B51190811670C8A61F982B1B0BAC9C97B72CA7B1037C6D3332918DA1E04D2CAC69353902EDB8C20262D23F3F59B81A079470595414B17391D1F19B4730A5583A7ED43BBE4025D9592775E5ADFFA01504B03041400060808006484DB4CEC
310
FD112DA800000026010000130000005B436F6E74656E745F54797065735D2E786D6C7D4F4B0EC22010BD0A61DF525D18634ABB506FE00510A79458060253536F2FD89D5197F3FED3F68B9BD80362B21E25DFD40D6780DADF2C1AC9671AAA3D677DD75E9E0112CB5A4C928F44E12044D22338956A1F003333F8E814E5331A11
310
94BE2B0362DB343BA13D122055543278D79E6050F344ECBC6478EDCD76CE8EABAE5449AE4298AC56946789C28AAFBEABC53F3EAF09A84A1441B91F0101CD4780756578C173A578FFDDBD00504B03041400060808006484DB4C3DEE336E64000000790000001B0000006175746F6465736B2D64657369676E2D7061636B6167
310
652E786D6C35CBC10E83200C00D05F21DCA56CA76D41FC96062B120735B69A7DBE268BB7777961F8D5AF396893C2ADB70FE7ADA196782C2DF776D7A97B5933C430F15651E5469C55D70F80A4992A3ADC954792C525AE70A1E4D6AD9816CC044FEFDF01FE3FDE907802504B03041400060808006484DB4C20D8CED3F4000000
310
8E0100003D0000006662782F32304344433730422D424141382D344445462D423345432D4544364442334437314145442F7265736F75726365732F322F636F72652E786D6C8550CB6E833010FC15B47703864020328E5A48BEA0A7DE2CDBA156828DFCA8FAF9B50395DA534FBB9A9D99DD1D72FE5A1ED9A7B44E193D00CE4B
310
C8A4E646283D0F10FC0D75909D29B1C6F85F34C8345BE40009064A666BC2BA43DC682F7542B51172079973D243C61FB119C0F10FB9B09C051F19EE9EAF8CDFD92C739C6F3C4A425062972A11DDD44D490BB4E9F1A57DBDD4A8BE5E1B7498C617D44FFD18BB435D4D786CBA63458A24A6C4ABE5673BB7927929805625EE50D9
310
A2EAF886DB53DD9CCAFE9D14894989F336FEBC2F4DDF453A2936F48F5B58C5FF6E41695F57BBDBA67040713CEE39A0A448E9C4F28C2ED69424FD06504B03041400060808006484DB4CBDAA1D23F9000000960100003B0000006662782F32304344433730422D424141382D344445462D423345432D45443644423344373141
310
45442F7265736F75726365732F636F72652E786D6C8550CB6E833010FC15B4771E864020328E5A48BEA0A7DE2CB3A156828DFCA8FAF9B50395DA534FBB9A9D99DD1D7AFE5A1EC9271A2BB5EA81640524A8849EA49A7BF0EE96B6909C19355ABB5F3448145FB0870803A3B3D17EDD21A195431551A527DC416E2D3A48C42334
310
3D58F1810BCFB8778161EFD9CAC59DCF98916CE331EABD9C76A99C829BBC4934C0EA8E5C9AD74B9556D76B9D1EC6E125EDC66E08DDA12A4732D4EDB1A4791433EAE4F2B35D18E40E27606541DAB468D2F2F8469A53559F8AEE9DE691C9A87526FCBC2F8DDF013368B537022DCDB7E91F57BF4EFFBB7AA95C55EEAE9BC20223
310
E1C8E780D13CA614CA33C25063A2EC1B504B03041400060808006484DB4C511AAF7DF2000000B1010000310000006662782F32304344433730422D424141382D344445462D423345432D4544364442334437314145442F636F72652E786D6C8D50CD6E8420187C15C31D156DD56E908D8A7D829E7A23C0BA645730FC347DFC
310
C26A93F6B6A78FCC37C3CC37F8FCBDDEB32F699D32BA07282F4126353742E9A507C15F6007B233C1D618FF870632CD56D983040382176BC27640DC682F7542B511F2009973D2838CDFE3A3078E5FE5CA72167C64B85BBE317E638BCC51BEF308F66AFD95722B99970290AA441D2C1B58B51FA839D5AFA7F2ED131789497008
310
4A1C564A44777551D226C944A7B61CE1380C1D7CA1F33B1CEB7982336DE858D3160D33C5451213ECBC8D371F9FA4EB9E95EFC27F99C3269EC8ACB4AFABC37057384050CCF358105CA402E378B41B672A9BFC00504B03041400060808006484DB4C74B2866C53010000DD0200000C0000006662782F636F72652E786D6C8D52
310
CB6E833010FC15E43BEF9084C8386AF3F8829E7A738C43AD808D8C8DF2F95DF310E5D0B44282D5ECEECCCE087C7C36B5D773DD09250B140711F2B864AA14B22A9035777F8FBC23C15A29F3630C799236BC400E4604575AD976829892864B874A55F209A45DC70DF2580D45813AF6C51B1A506B60A27B042D650F5AF1200EC6
310
3982AD15E5B42A4A601377C13522591E5FB6EF97D44FAFD7CCDF9C4F6F7E7ECE4F506DD2E41C9FB2FD2EC1A15B26D8886656679A53C34B449228DEFBD1D64F761FF1F690668728FFC4A19B24B8331A3C4FA2CE1D22F7DB138723BEE2B36DF9379F15D2A4C9C4376E7488C470DED0203874F9C067086F9D2108437E86DEEAD9
310
C203A09E33A3F4063AA5B24BABA7B5E5401D79C383C3B10BCC03C16F3CC90B9ED71C101495159C460D94376B9CFAFAA6966BBF374F4F2ADDD07A396E3C71792F422B4BF33A53B5D2FFD99EADCE6186EEC724DF504B03041400060808006484DB4CFF8C4A7908010000B201000008000000636F72652E786D6C8D50416E8330
310
10FC8AB57703864042641CB590BCA0A7DE5CEC102B60236CA2F6F7B5832BB5B79E763533BB33BBF4F4398DE82117AB8C6E80241920A97B23941E1A58DD151F009D185D8C71BF6480349F640301064687C5AC73847AA39DD401D546C808726BA503D48FBE69C0F63739F184AFCE2BEC3D99797FE7834C48B2E918756AFA19ED
310
17C99D14C0F28C1C7056E17CFF46AA63511EB3FA9DA641C9E8BA2A11AD94F0EEEAAAE402ACACC9B97A3D17B8B85C4ABCEBDA175C7775EBBB5D9177A42D0FFB9CA6619851EB167F735CE2733A64F923F8D274A318FD30668C021F4A20A3C72F60194D03F127F43A8B7F8456DA15795CB84D5860C4077A12DE387CD097E77B7D
310
0DDF66DF504B010214001400060808006484DB4C0000000000000000000000003700000000000000000000000000000000006662782F32304344433730422D424141382D344445462D423345432D4544364442334437314145442F617474726962757465732E62696E504B010214001400060808006484DB4C000000000000
310
0000000000003500000000000000000000000000550000006662782F32304344433730422D424141382D344445462D423345432D4544364442334437314145442F76657274696365732E62696E504B010214001400060808006484DB4CF270F13306000000040000003600000000000000000000000000A80000006662782F
310
32304344433730422D424141382D344445462D423345432D4544364442334437314145442F747269616E676C65732E62696E504B010214001400060808006484DB4C88E57597CD3F0000904100004200000000000000000000000000020100006662782F32304344433730422D424141382D344445462D423345432D454436
310
4442334437314145442F7265736F75726365732F322F305F67656E657269632E706E67504B010214001400060808006484DB4C51464CB4890000004301000036000000000000000000000000002F4100006662782F32304344433730422D424141382D344445462D423345432D4544364442334437314145442F6469726563
310
746F72792E786D6C504B010214001400060808006484DB4C46B43DB648070000541C000034000000000000000000000000000C4200006662782F32304344433730422D424141382D344445462D423345432D4544364442334437314145442F6F626A656374732E786D6C504B010214001400060808006484DB4CB87157DAE2
310
000000550100003C00000000000000000000000000A64900006662782F32304344433730422D424141382D344445462D423345432D4544364442334437314145442F7265736F75726365732F322F636E782E786D6C504B010214001400060808006484DB4CFF15A4A45D000000800000003A00000000000000000000000000
310
E24A00006662782F32304344433730422D424141382D344445462D423345432D4544364442334437314145442F7265736F75726365732F636E782E786D6C504B010214001400060808006484DB4CC6F297B743010000560500003000000000000000000000000000974B00006662782F32304344433730422D424141382D34
310
4445462D423345432D4544364442334437314145442F636E782E786D6C504B010214001400060808006484DB4CA9F42ACD7E000000A30000000B00000000000000000000000000284D00006662782F636E782E786D6C504B010214001400060808006484DB4CA6D797065F0000008200000007000000000000000000000000
310
00CF4D0000636E782E786D6C504B010214001400060808006484DB4CECFD112DA8000000260100001300000000000000000000000000534E00005B436F6E74656E745F54797065735D2E786D6C504B010214001400060808006484DB4C3DEE336E64000000790000001B000000000000000000000000002C4F00006175746F
310
6465736B2D64657369676E2D7061636B6167652E786D6C504B010214001400060808006484DB4C20D8CED3F40000008E0100003D00000000000000000000000000C94F00006662782F32304344433730422D424141382D344445462D423345432D4544364442334437314145442F7265736F75726365732F322F636F72652E
310
786D6C504B010214001400060808006484DB4CBDAA1D23F9000000960100003B00000000000000000000000000185100006662782F32304344433730422D424141382D344445462D423345432D4544364442334437314145442F7265736F75726365732F636F72652E786D6C504B010214001400060808006484DB4C511AAF
310
7DF2000000B101000031000000000000000000000000006A5200006662782F32304344433730422D424141382D344445462D423345432D4544364442334437314145442F636F72652E786D6C504B010214001400060808006484DB4C74B2866C53010000DD0200000C00000000000000000000000000AB5300006662782F63
310
6F72652E786D6C504B010214001400060808006484DB4CFF8C4A7908010000B2010000080000000000000000000000000028550000636F72652E786D6C504B050600000000120012002D060000565600000000
  0
XRECORD
  5
58E4
102
{ACAD_REACTORS
330
58E3
102
}
330
58E3
100
AcDbXrecord
280
     1
102
DISPLAYNAME
  1
Imperial24
102
FLAGS
 90
        0
  0
CELLSTYLEMAP
  5
58B0
102
{ACAD_REACTORS
330
5872
102
}
330
5872
100
AcDbCellStyleMap
 90
        3
300
CELLSTYLE
  1
TABLEFORMAT_BEGIN
 90
        5
170
     1
 91
        0
 92
    32768
 62
   257
 93
        1
300
CONTENTFORMAT
  1
CONTENTFORMAT_BEGIN
 90
        0
 91
        0
 92
      512
 93
        0
300

 40
0.0
140
1.0
 94
        5
 62
     0
340
11
144
0.25
309
CONTENTFORMAT_END
171
     1
301
MARGIN
  1
CELLMARGIN_BEGIN
 40
0.06
 40
0.06
 40
0.06
 40
0.06
 40
0.18
 40
0.18
309
CELLMARGIN_END
 94
        6
 95
        1
302
GRIDFORMAT
  1
GRIDFORMAT_BEGIN
 90
        0
 91
        1
 62
     0
 92
       -2
340
0
 93
        0
 40
0.045
309
GRIDFORMAT_END
 95
        2
302
GRIDFORMAT
  1
GRIDFORMAT_BEGIN
 90
        0
 91
        1
 62
     0
 92
       -2
340
0
 93
        0
 40
0.045
309
GRIDFORMAT_END
 95
        4
302
GRIDFORMAT
  1
GRIDFORMAT_BEGIN
 90
        0
 91
        1
 62
     0
 92
       -2
340
0
 93
        0
 40
0.045
309
GRIDFORMAT_END
 95
        8
302
GRIDFORMAT
  1
GRIDFORMAT_BEGIN
 90
        0
 91
        1
 62
     0
 92
       -2
340
0
 93
        0
 40
0.045
309
GRIDFORMAT_END
 95
       16
302
GRIDFORMAT
  1
GRIDFORMAT_BEGIN
 90
        0
 91
        1
 62
     0
 92
       -2
340
0
 93
        0
 40
0.045
309
GRIDFORMAT_END
 95
       32
302
GRIDFORMAT
  1
GRIDFORMAT_BEGIN
 90
        0
 91
        1
 62
     0
 92
       -2
340
0
 93
        0
 40
0.045
309
GRIDFORMAT_END
309
TABLEFORMAT_END
  1
CELLSTYLE_BEGIN
 90
        1
 91
        1
300
_TITLE
309
CELLSTYLE_END
300
CELLSTYLE
  1
TABLEFORMAT_BEGIN
 90
        5
170
     1
 91
        0
 92
        0
 62
   257
 93
        1
300
CONTENTFORMAT
  1
CONTENTFORMAT_BEGIN
 90
        0
 91
        0
 92
      512
 93
        0
300

 40
0.0
140
1.0
 94
        5
 62
     0
340
11
144
0.18
309
CONTENTFORMAT_END
171
     1
301
MARGIN
  1
CELLMARGIN_BEGIN
 40
0.06
 40
0.06
 40
0.06
 40
0.06
 40
0.18
 40
0.18
309
CELLMARGIN_END
 94
        6
 95
        1
302
GRIDFORMAT
  1
GRIDFORMAT_BEGIN
 90
        0
 91
        1
 62
     0
 92
       -2
340
0
 93
        0
 40
0.045
309
GRIDFORMAT_END
 95
        2
302
GRIDFORMAT
  1
GRIDFORMAT_BEGIN
 90
        0
 91
        1
 62
     0
 92
       -2
340
0
 93
        0
 40
0.045
309
GRIDFORMAT_END
 95
        4
302
GRIDFORMAT
  1
GRIDFORMAT_BEGIN
 90
        0
 91
        1
 62
     0
 92
       -2
340
0
 93
        0
 40
0.045
309
GRIDFORMAT_END
 95
        8
302
GRIDFORMAT
  1
GRIDFORMAT_BEGIN
 90
        0
 91
        1
 62
     0
 92
       -2
340
0
 93
        0
 40
0.045
309
GRIDFORMAT_END
 95
       16
302
GRIDFORMAT
  1
GRIDFORMAT_BEGIN
 90
        0
 91
        1
 62
     0
 92
       -2
340
0
 93
        0
 40
0.045
309
GRIDFORMAT_END
 95
       32
302
GRIDFORMAT
  1
GRIDFORMAT_BEGIN
 90
        0
 91
        1
 62
     0
 92
       -2
340
0
 93
        0
 40
0.045
309
GRIDFORMAT_END
309
TABLEFORMAT_END
  1
CELLSTYLE_BEGIN
 90
        2
 91
        1
300
_HEADER
309
CELLSTYLE_END
300
CELLSTYLE
  1
TABLEFORMAT_BEGIN
 90
        5
170
     1
 91
        0
 92
        0
 62
   257
 93
        1
300
CONTENTFORMAT
  1
CONTENTFORMAT_BEGIN
 90
        0
 91
        0
 92
      512
 93
        0
300

 40
0.0
140
1.0
 94
        2
 62
     0
340
11
144
0.18
309
CONTENTFORMAT_END
171
     1
301
MARGIN
  1
CELLMARGIN_BEGIN
 40
0.06
 40
0.06
 40
0.06
 40
0.06
 40
0.18
 40
0.18
309
CELLMARGIN_END
 94
        6
 95
        1
302
GRIDFORMAT
  1
GRIDFORMAT_BEGIN
 90
        0
 91
        1
 62
     0
 92
       -2
340
0
 93
        0
 40
0.045
309
GRIDFORMAT_END
 95
        2
302
GRIDFORMAT
  1
GRIDFORMAT_BEGIN
 90
        0
 91
        1
 62
     0
 92
       -2
340
0
 93
        0
 40
0.045
309
GRIDFORMAT_END
 95
        4
302
GRIDFORMAT
  1
GRIDFORMAT_BEGIN
 90
        0
 91
        1
 62
     0
 92
       -2
340
0
 93
        0
 40
0.045
309
GRIDFORMAT_END
 95
        8
302
GRIDFORMAT
  1
GRIDFORMAT_BEGIN
 90
        0
 91
        1
 62
     0
 92
       -2
340
0
 93
        0
 40
0.045
309
GRIDFORMAT_END
 95
       16
302
GRIDFORMAT
  1
GRIDFORMAT_BEGIN
 90
        0
 91
        1
 62
     0
 92
       -2
340
0
 93
        0
 40
0.045
309
GRIDFORMAT_END
 95
       32
302
GRIDFORMAT
  1
GRIDFORMAT_BEGIN
 90
        0
 91
        1
 62
     0
 92
       -2
340
0
 93
        0
 40
0.045
309
GRIDFORMAT_END
309
TABLEFORMAT_END
  1
CELLSTYLE_BEGIN
 90
        3
 91
        2
300
_DATA
309
CELLSTYLE_END
  0
XRECORD
  5
58E2
102
{ACAD_REACTORS
330
5872
102
}
330
5872
100
AcDbXrecord
280
     1
102
ACAD_ROUNDTRIP_PRE2007_TABLESTYLE
 90
      512
 91
        0
  1

 92
      512
 93
        0
  2

 94
      512
 95
        0
  3

  0
XRECORD
  5
58BD
102
{ACAD_REACTORS
330
58BC
102
}
330
58BC
100
AcDbXrecord
280
     1
102
RTVSPost2010Prop28
280
     1
102
RTVSPost2010PropOp28
 70
     1
102
RTVSPost2010Prop29
280
     1
102
RTVSPost2010PropOp29
 70
     1
102
RTVSPost2010Prop30
280
     0
102
RTVSPost2010PropOp30
 70
     1
102
RTVSPost2010Prop31
280
     0
102
RTVSPost2010PropOp31
 70
     1
102
RTVSPost2010Prop32
280
     0
102
RTVSPost2010PropOp32
 70
     1
102
RTVSPost2010Prop33
280
     0
102
RTVSPost2010PropOp33
 70
     1
102
RTVSPost2010Prop34
280
     0
102
RTVSPost2010PropOp34
 70
     1
102
RTVSPost2010Prop35
280
     0
102
RTVSPost2010PropOp35
 70
     1
102
RTVSPost2010Prop36
280
     0
102
RTVSPost2010PropOp36
 70
     1
102
RTVSPost2010Prop37
 90
       50
102
RTVSPost2010PropOp37
 70
     1
102
RTVSPost2010Prop38
140
0.0
102
RTVSPost2010PropOp38
 70
     1
102
RTVSPost2010Prop39
140
1.0
102
RTVSPost2010PropOp39
 70
     1
102
RTVSPost2010Prop40
 90
        0
102
RTVSPost2010PropOp40
 70
     1
102
RTVSPost2010Prop41ColorIndex
 90
       18
102
RTVSPost2010Prop41ColorRGB
 90
-16777216
102
RTVSPost2010PropOp41
 70
     1
102
RTVSPost2010Prop42
 90
       50
102
RTVSPost2010PropOp42
 70
     1
102
RTVSPost2010Prop43
 90
        3
102
RTVSPost2010PropOp43
 70
     1
102
RTVSPost2010Prop44ColorIndex
 90
        5
102
RTVSPost2010Prop44ColorRGB
 90
      255
102
RTVSPost2010PropOp44
 70
     1
102
RTVSPost2010Prop45
280
     0
102
RTVSPost2010PropOp45
 70
     1
102
RTVSPost2010Prop46
 90
       50
102
RTVSPost2010PropOp46
 70
     1
102
RTVSPost2010Prop47
 90
       50
102
RTVSPost2010PropOp47
 70
     1
102
RTVSPost2010Prop48
 90
       50
102
RTVSPost2010PropOp48
 70
     1
102
RTVSPost2010Prop49
280
     0
102
RTVSPost2010PropOp49
 70
     1
102
RTVSPost2010Prop50
 90
       50
102
RTVSPost2010PropOp50
 70
     1
102
RTVSPost2010Prop51ColorIndex
 90
      256
102
RTVSPost2010Prop51ColorRGB
 90
-16777216
102
RTVSPost2010PropOp51
 70
     0
102
RTVSPost2010Prop52
140
1.0
102
RTVSPost2010PropOp52
 70
     0
102
RTVSPost2010Prop53
 90
        2
102
RTVSPost2010PropOp53
 70
     1
102
RTVSPost2010Prop54
  1
strokes_ogs.tif
102
RTVSPost2010PropOp54
 70
     1
102
RTVSPost2010Prop55
280
     0
102
RTVSPost2010PropOp55
 70
     1
102
RTVSPost2010Prop56
140
1.0
102
RTVSPost2010PropOp56
 70
     1
102
RTVSPost2010Prop57
140
1.0
102
RTVSPost2010PropOp57
 70
     1
102
RTVSPropertyOp0
 70
     1
102
RTVSPropertyOp1
 70
     1
102
RTVSPropertyOp2
 70
     1
102
RTVSPropertyOp3
 70
     1
102
RTVSPropertyOp4
 70
     1
102
RTVSPropertyOp5
 70
     1
102
RTVSPropertyOp6
 70
     1
102
RTVSPropertyOp7
 70
     1
102
RTVSPropertyOp8
 70
     1
102
RTVSPropertyOp9
 70
     1
102
RTVSPropertyOp10
 70
     1
102
RTVSPropertyOp11
 70
     1
102
RTVSPropertyOp12
 70
     1
102
RTVSPropertyOp13
 70
     1
102
RTVSPropertyOp14
 70
     1
102
RTVSPropertyOp15
 70
     1
102
RTVSPropertyOp16
 70
     1
102
RTVSPropertyOp17
 70
     1
102
RTVSPropertyOp18
 70
     1
102
RTVSPropertyOp19
 70
     1
102
RTVSPropertyOp20
 70
     1
102
RTVSPropertyOp21
 70
     1
102
RTVSPropertyOp22
 70
     1
102
RTVSPropertyOp23
 70
     1
102
RTVSPropertyOp24
 70
     1
102
RTVSPropertyOp25
 70
     1
102
RTVSPropertyOp26
 70
     1
102
RTVSPropertyOp27
 70
     1
102
RTVSPropertyOp28
 70
     1
102
RTVSPropertyOp29
 70
     1
102
RTVSPropertyOp30
 70
     1
102
RTVSPropertyOp31
 70
     1
102
RTVSPropertyOp32
 70
     1
102
RTVSPropertyOp33
 70
     1
102
RTVSPropertyOp34
 70
     1
102
RTVSPropertyOp35
 70
     1
102
RTVSPropertyOp36
 70
     1
102
RTVSPropertyOp37
 70
     1
102
RTVSPropertyOp38
 70
     1
102
RTVSPropertyOp39
 70
     1
102
RTVSPropertyOp40
 70
     1
102
RTVSPropertyOp41
 70
     1
102
RTVSPropertyOp42
 70
     1
102
RTVSPropertyOp43
 70
     1
102
RTVSPropertyOp44
 70
     1
102
RTVSPropertyOp45
 70
     1
102
RTVSPropertyOp46
 70
     1
102
RTVSPropertyOp47
 70
     1
102
RTVSPropertyOp48
 70
     1
102
RTVSPropertyOp49
 70
     1
102
RTVSPropertyOp50
 70
     1
102
RTVSPropertyOp51
 70
     0
102
RTVSPropertyOp52
 70
     0
102
RTVSPropertyOp53
 70
     1
102
RTVSPropertyOp54
 70
     1
102
RTVSPropertyOp55
 70
     1
102
RTVSPropertyOp56
 70
     1
102
RTVSPropertyOp57
 70
     1
102
RTVSPropertyOp58
 70
     1
102
RTVSPropertyOp59
 70
     1
102
RTVSPropertyOp60
 70
     1
102
RTVSPropertyOp61
 70
     1
102
RTVSPropertyOp62
 70
     1
  0
XRECORD
  5
58BB
102
{ACAD_REACTORS
330
58BA
102
}
330
58BA
100
AcDbXrecord
280
     1
102
RTVSPost2010Prop28
280
     0
102
RTVSPost2010PropOp28
 70
     1
102
RTVSPost2010Prop29
280
     1
102
RTVSPost2010PropOp29
 70
     1
102
RTVSPost2010Prop30
280
     1
102
RTVSPost2010PropOp30
 70
     1
102
RTVSPost2010Prop31
280
     0
102
RTVSPost2010PropOp31
 70
     1
102
RTVSPost2010Prop32
280
     0
102
RTVSPost2010PropOp32
 70
     1
102
RTVSPost2010Prop33
280
     0
102
RTVSPost2010PropOp33
 70
     1
102
RTVSPost2010Prop34
280
     0
102
RTVSPost2010PropOp34
 70
     1
102
RTVSPost2010Prop35
280
     0
102
RTVSPost2010PropOp35
 70
     1
102
RTVSPost2010Prop36
280
     0
102
RTVSPost2010PropOp36
 70
     1
102
RTVSPost2010Prop37
 90
       50
102
RTVSPost2010PropOp37
 70
     1
102
RTVSPost2010Prop38
140
0.0
102
RTVSPost2010PropOp38
 70
     1
102
RTVSPost2010Prop39
140
1.0
102
RTVSPost2010PropOp39
 70
     1
102
RTVSPost2010Prop40
 90
        0
102
RTVSPost2010PropOp40
 70
     1
102
RTVSPost2010Prop41ColorIndex
 90
       18
102
RTVSPost2010Prop41ColorRGB
 90
-16777216
102
RTVSPost2010PropOp41
 70
     1
102
RTVSPost2010Prop42
 90
       50
102
RTVSPost2010PropOp42
 70
     1
102
RTVSPost2010Prop43
 90
        3
102
RTVSPost2010PropOp43
 70
     1
102
RTVSPost2010Prop44ColorIndex
 90
        5
102
RTVSPost2010Prop44ColorRGB
 90
      255
102
RTVSPost2010PropOp44
 70
     1
102
RTVSPost2010Prop45
280
     0
102
RTVSPost2010PropOp45
 70
     1
102
RTVSPost2010Prop46
 90
       50
102
RTVSPost2010PropOp46
 70
     1
102
RTVSPost2010Prop47
 90
       50
102
RTVSPost2010PropOp47
 70
     1
102
RTVSPost2010Prop48
 90
       50
102
RTVSPost2010PropOp48
 70
     1
102
RTVSPost2010Prop49
280
     0
102
RTVSPost2010PropOp49
 70
     1
102
RTVSPost2010Prop50
 90
       50
102
RTVSPost2010PropOp50
 70
     1
102
RTVSPost2010Prop51ColorIndex
 90
      256
102
RTVSPost2010Prop51ColorRGB
 90
-16777216
102
RTVSPost2010PropOp51
 70
     0
102
RTVSPost2010Prop52
140
1.0
102
RTVSPost2010PropOp52
 70
     0
102
RTVSPost2010Prop53
 90
        2
102
RTVSPost2010PropOp53
 70
     1
102
RTVSPost2010Prop54
  1
strokes_ogs.tif
102
RTVSPost2010PropOp54
 70
     1
102
RTVSPost2010Prop55
280
     0
102
RTVSPost2010PropOp55
 70
     1
102
RTVSPost2010Prop56
140
1.0
102
RTVSPost2010PropOp56
 70
     1
102
RTVSPost2010Prop57
140
1.0
102
RTVSPost2010PropOp57
 70
     1
102
RTVSPropertyOp0
 70
     1
102
RTVSPropertyOp1
 70
     1
102
RTVSPropertyOp2
 70
     1
102
RTVSPropertyOp3
 70
     1
102
RTVSPropertyOp4
 70
     1
102
RTVSPropertyOp5
 70
     1
102
RTVSPropertyOp6
 70
     1
102
RTVSPropertyOp7
 70
     1
102
RTVSPropertyOp8
 70
     1
102
RTVSPropertyOp9
 70
     1
102
RTVSPropertyOp10
 70
     1
102
RTVSPropertyOp11
 70
     1
102
RTVSPropertyOp12
 70
     1
102
RTVSPropertyOp13
 70
     1
102
RTVSPropertyOp14
 70
     1
102
RTVSPropertyOp15
 70
     1
102
RTVSPropertyOp16
 70
     1
102
RTVSPropertyOp17
 70
     1
102
RTVSPropertyOp18
 70
     1
102
RTVSPropertyOp19
 70
     1
102
RTVSPropertyOp20
 70
     1
102
RTVSPropertyOp21
 70
     1
102
RTVSPropertyOp22
 70
     1
102
RTVSPropertyOp23
 70
     1
102
RTVSPropertyOp24
 70
     1
102
RTVSPropertyOp25
 70
     1
102
RTVSPropertyOp26
 70
     1
102
RTVSPropertyOp27
 70
     1
102
RTVSPropertyOp28
 70
     1
102
RTVSPropertyOp29
 70
     1
102
RTVSPropertyOp30
 70
     1
102
RTVSPropertyOp31
 70
     1
102
RTVSPropertyOp32
 70
     1
102
RTVSPropertyOp33
 70
     1
102
RTVSPropertyOp34
 70
     1
102
RTVSPropertyOp35
 70
     1
102
RTVSPropertyOp36
 70
     1
102
RTVSPropertyOp37
 70
     1
102
RTVSPropertyOp38
 70
     1
102
RTVSPropertyOp39
 70
     1
102
RTVSPropertyOp40
 70
     1
102
RTVSPropertyOp41
 70
     1
102
RTVSPropertyOp42
 70
     1
102
RTVSPropertyOp43
 70
     1
102
RTVSPropertyOp44
 70
     1
102
RTVSPropertyOp45
 70
     1
102
RTVSPropertyOp46
 70
     1
102
RTVSPropertyOp47
 70
     1
102
RTVSPropertyOp48
 70
     1
102
RTVSPropertyOp49
 70
     1
102
RTVSPropertyOp50
 70
     1
102
RTVSPropertyOp51
 70
     0
102
RTVSPropertyOp52
 70
     0
102
RTVSPropertyOp53
 70
     1
102
RTVSPropertyOp54
 70
     1
102
RTVSPropertyOp55
 70
     1
102
RTVSPropertyOp56
 70
     1
102
RTVSPropertyOp57
 70
     1
102
RTVSPropertyOp58
 70
     1
102
RTVSPropertyOp59
 70
     1
102
RTVSPropertyOp60
 70
     1
102
RTVSPropertyOp61
 70
     1
102
RTVSPropertyOp62
 70
     1
  0
XRECORD
  5
58C9
102
{ACAD_REACTORS
330
58C8
102
}
330
58C8
100
AcDbXrecord
280
     1
102
RTVSPost2010Prop28
280
     0
102
RTVSPost2010PropOp28
 70
     1
102
RTVSPost2010Prop29
280
     1
102
RTVSPost2010PropOp29
 70
     1
102
RTVSPost2010Prop30
280
     1
102
RTVSPost2010PropOp30
 70
     1
102
RTVSPost2010Prop31
280
     0
102
RTVSPost2010PropOp31
 70
     1
102
RTVSPost2010Prop32
280
     0
102
RTVSPost2010PropOp32
 70
     1
102
RTVSPost2010Prop33
280
     0
102
RTVSPost2010PropOp33
 70
     1
102
RTVSPost2010Prop34
280
     0
102
RTVSPost2010PropOp34
 70
     1
102
RTVSPost2010Prop35
280
     0
102
RTVSPost2010PropOp35
 70
     1
102
RTVSPost2010Prop36
280
     0
102
RTVSPost2010PropOp36
 70
     1
102
RTVSPost2010Prop37
 90
       50
102
RTVSPost2010PropOp37
 70
     1
102
RTVSPost2010Prop38
140
0.0
102
RTVSPost2010PropOp38
 70
     1
102
RTVSPost2010Prop39
140
1.0
102
RTVSPost2010PropOp39
 70
     1
102
RTVSPost2010Prop40
 90
        0
102
RTVSPost2010PropOp40
 70
     1
102
RTVSPost2010Prop41ColorIndex
 90
       18
102
RTVSPost2010Prop41ColorRGB
 90
-16777216
102
RTVSPost2010PropOp41
 70
     1
102
RTVSPost2010Prop42
 90
       50
102
RTVSPost2010PropOp42
 70
     1
102
RTVSPost2010Prop43
 90
        3
102
RTVSPost2010PropOp43
 70
     1
102
RTVSPost2010Prop44ColorIndex
 90
        5
102
RTVSPost2010Prop44ColorRGB
 90
      255
102
RTVSPost2010PropOp44
 70
     1
102
RTVSPost2010Prop45
280
     0
102
RTVSPost2010PropOp45
 70
     1
102
RTVSPost2010Prop46
 90
       50
102
RTVSPost2010PropOp46
 70
     1
102
RTVSPost2010Prop47
 90
       50
102
RTVSPost2010PropOp47
 70
     1
102
RTVSPost2010Prop48
 90
       50
102
RTVSPost2010PropOp48
 70
     1
102
RTVSPost2010Prop49
280
     0
102
RTVSPost2010PropOp49
 70
     1
102
RTVSPost2010Prop50
 90
       50
102
RTVSPost2010PropOp50
 70
     1
102
RTVSPost2010Prop51ColorIndex
 90
      256
102
RTVSPost2010Prop51ColorRGB
 90
-16777216
102
RTVSPost2010PropOp51
 70
     0
102
RTVSPost2010Prop52
140
1.0
102
RTVSPost2010PropOp52
 70
     0
102
RTVSPost2010Prop53
 90
        2
102
RTVSPost2010PropOp53
 70
     1
102
RTVSPost2010Prop54
  1
strokes_ogs.tif
102
RTVSPost2010PropOp54
 70
     1
102
RTVSPost2010Prop55
280
     0
102
RTVSPost2010PropOp55
 70
     1
102
RTVSPost2010Prop56
140
1.0
102
RTVSPost2010PropOp56
 70
     1
102
RTVSPost2010Prop57
140
1.0
102
RTVSPost2010PropOp57
 70
     1
102
RTVSPropertyOp0
 70
     1
102
RTVSPropertyOp1
 70
     1
102
RTVSPropertyOp2
 70
     1
102
RTVSPropertyOp3
 70
     1
102
RTVSPropertyOp4
 70
     1
102
RTVSPropertyOp5
 70
     1
102
RTVSPropertyOp6
 70
     1
102
RTVSPropertyOp7
 70
     1
102
RTVSPropertyOp8
 70
     1
102
RTVSPropertyOp9
 70
     1
102
RTVSPropertyOp10
 70
     1
102
RTVSPropertyOp11
 70
     1
102
RTVSPropertyOp12
 70
     1
102
RTVSPropertyOp13
 70
     1
102
RTVSPropertyOp14
 70
     1
102
RTVSPropertyOp15
 70
     1
102
RTVSPropertyOp16
 70
     1
102
RTVSPropertyOp17
 70
     1
102
RTVSPropertyOp18
 70
     1
102
RTVSPropertyOp19
 70
     1
102
RTVSPropertyOp20
 70
     1
102
RTVSPropertyOp21
 70
     1
102
RTVSPropertyOp22
 70
     1
102
RTVSPropertyOp23
 70
     1
102
RTVSPropertyOp24
 70
     1
102
RTVSPropertyOp25
 70
     1
102
RTVSPropertyOp26
 70
     1
102
RTVSPropertyOp27
 70
     1
102
RTVSPropertyOp28
 70
     1
102
RTVSPropertyOp29
 70
     1
102
RTVSPropertyOp30
 70
     1
102
RTVSPropertyOp31
 70
     1
102
RTVSPropertyOp32
 70
     1
102
RTVSPropertyOp33
 70
     1
102
RTVSPropertyOp34
 70
     1
102
RTVSPropertyOp35
 70
     1
102
RTVSPropertyOp36
 70
     1
102
RTVSPropertyOp37
 70
     1
102
RTVSPropertyOp38
 70
     1
102
RTVSPropertyOp39
 70
     1
102
RTVSPropertyOp40
 70
     1
102
RTVSPropertyOp41
 70
     1
102
RTVSPropertyOp42
 70
     1
102
RTVSPropertyOp43
 70
     1
102
RTVSPropertyOp44
 70
     1
102
RTVSPropertyOp45
 70
     1
102
RTVSPropertyOp46
 70
     1
102
RTVSPropertyOp47
 70
     1
102
RTVSPropertyOp48
 70
     1
102
RTVSPropertyOp49
 70
     1
102
RTVSPropertyOp50
 70
     1
102
RTVSPropertyOp51
 70
     0
102
RTVSPropertyOp52
 70
     0
102
RTVSPropertyOp53
 70
     1
102
RTVSPropertyOp54
 70
     1
102
RTVSPropertyOp55
 70
     1
102
RTVSPropertyOp56
 70
     1
102
RTVSPropertyOp57
 70
     1
102
RTVSPropertyOp58
 70
     1
102
RTVSPropertyOp59
 70
     1
102
RTVSPropertyOp60
 70
     1
102
RTVSPropertyOp61
 70
     1
102
RTVSPropertyOp62
 70
     1
  0
XRECORD
  5
58D1
102
{ACAD_REACTORS
330
58D0
102
}
330
58D0
100
AcDbXrecord
280
     1
102
RTVSPost2010Prop28
280
     0
102
RTVSPost2010PropOp28
 70
     1
102
RTVSPost2010Prop29
280
     1
102
RTVSPost2010PropOp29
 70
     1
102
RTVSPost2010Prop30
280
     1
102
RTVSPost2010PropOp30
 70
     1
102
RTVSPost2010Prop31
280
     0
102
RTVSPost2010PropOp31
 70
     1
102
RTVSPost2010Prop32
280
     0
102
RTVSPost2010PropOp32
 70
     1
102
RTVSPost2010Prop33
280
     0
102
RTVSPost2010PropOp33
 70
     1
102
RTVSPost2010Prop34
280
     0
102
RTVSPost2010PropOp34
 70
     1
102
RTVSPost2010Prop35
280
     0
102
RTVSPost2010PropOp35
 70
     1
102
RTVSPost2010Prop36
280
     0
102
RTVSPost2010PropOp36
 70
     1
102
RTVSPost2010Prop37
 90
       50
102
RTVSPost2010PropOp37
 70
     1
102
RTVSPost2010Prop38
140
0.0
102
RTVSPost2010PropOp38
 70
     1
102
RTVSPost2010Prop39
140
1.0
102
RTVSPost2010PropOp39
 70
     1
102
RTVSPost2010Prop40
 90
        0
102
RTVSPost2010PropOp40
 70
     1
102
RTVSPost2010Prop41ColorIndex
 90
       18
102
RTVSPost2010Prop41ColorRGB
 90
-16777216
102
RTVSPost2010PropOp41
 70
     1
102
RTVSPost2010Prop42
 90
       50
102
RTVSPost2010PropOp42
 70
     1
102
RTVSPost2010Prop43
 90
        3
102
RTVSPost2010PropOp43
 70
     1
102
RTVSPost2010Prop44ColorIndex
 90
        5
102
RTVSPost2010Prop44ColorRGB
 90
      255
102
RTVSPost2010PropOp44
 70
     1
102
RTVSPost2010Prop45
280
     0
102
RTVSPost2010PropOp45
 70
     1
102
RTVSPost2010Prop46
 90
       50
102
RTVSPost2010PropOp46
 70
     1
102
RTVSPost2010Prop47
 90
       50
102
RTVSPost2010PropOp47
 70
     1
102
RTVSPost2010Prop48
 90
       50
102
RTVSPost2010PropOp48
 70
     1
102
RTVSPost2010Prop49
280
     0
102
RTVSPost2010PropOp49
 70
     1
102
RTVSPost2010Prop50
 90
       50
102
RTVSPost2010PropOp50
 70
     1
102
RTVSPost2010Prop51ColorIndex
 90
      256
102
RTVSPost2010Prop51ColorRGB
 90
-16777216
102
RTVSPost2010PropOp51
 70
     0
102
RTVSPost2010Prop52
140
1.0
102
RTVSPost2010PropOp52
 70
     0
102
RTVSPost2010Prop53
 90
        2
102
RTVSPost2010PropOp53
 70
     1
102
RTVSPost2010Prop54
  1
strokes_ogs.tif
102
RTVSPost2010PropOp54
 70
     1
102
RTVSPost2010Prop55
280
     0
102
RTVSPost2010PropOp55
 70
     1
102
RTVSPost2010Prop56
140
1.0
102
RTVSPost2010PropOp56
 70
     1
102
RTVSPost2010Prop57
140
1.0
102
RTVSPost2010PropOp57
 70
     1
102
RTVSPropertyOp0
 70
     1
102
RTVSPropertyOp1
 70
     1
102
RTVSPropertyOp2
 70
     1
102
RTVSPropertyOp3
 70
     1
102
RTVSPropertyOp4
 70
     1
102
RTVSPropertyOp5
 70
     1
102
RTVSPropertyOp6
 70
     1
102
RTVSPropertyOp7
 70
     1
102
RTVSPropertyOp8
 70
     1
102
RTVSPropertyOp9
 70
     1
102
RTVSPropertyOp10
 70
     1
102
RTVSPropertyOp11
 70
     1
102
RTVSPropertyOp12
 70
     1
102
RTVSPropertyOp13
 70
     1
102
RTVSPropertyOp14
 70
     1
102
RTVSPropertyOp15
 70
     1
102
RTVSPropertyOp16
 70
     1
102
RTVSPropertyOp17
 70
     1
102
RTVSPropertyOp18
 70
     1
102
RTVSPropertyOp19
 70
     1
102
RTVSPropertyOp20
 70
     1
102
RTVSPropertyOp21
 70
     1
102
RTVSPropertyOp22
 70
     1
102
RTVSPropertyOp23
 70
     1
102
RTVSPropertyOp24
 70
     1
102
RTVSPropertyOp25
 70
     1
102
RTVSPropertyOp26
 70
     1
102
RTVSPropertyOp27
 70
     1
102
RTVSPropertyOp28
 70
     1
102
RTVSPropertyOp29
 70
     1
102
RTVSPropertyOp30
 70
     1
102
RTVSPropertyOp31
 70
     1
102
RTVSPropertyOp32
 70
     1
102
RTVSPropertyOp33
 70
     1
102
RTVSPropertyOp34
 70
     1
102
RTVSPropertyOp35
 70
     1
102
RTVSPropertyOp36
 70
     1
102
RTVSPropertyOp37
 70
     1
102
RTVSPropertyOp38
 70
     1
102
RTVSPropertyOp39
 70
     1
102
RTVSPropertyOp40
 70
     1
102
RTVSPropertyOp41
 70
     1
102
RTVSPropertyOp42
 70
     1
102
RTVSPropertyOp43
 70
     1
102
RTVSPropertyOp44
 70
     1
102
RTVSPropertyOp45
 70
     1
102
RTVSPropertyOp46
 70
     1
102
RTVSPropertyOp47
 70
     1
102
RTVSPropertyOp48
 70
     1
102
RTVSPropertyOp49
 70
     1
102
RTVSPropertyOp50
 70
     1
102
RTVSPropertyOp51
 70
     0
102
RTVSPropertyOp52
 70
     0
102
RTVSPropertyOp53
 70
     1
102
RTVSPropertyOp54
 70
     1
102
RTVSPropertyOp55
 70
     1
102
RTVSPropertyOp56
 70
     1
102
RTVSPropertyOp57
 70
     1
102
RTVSPropertyOp58
 70
     1
102
RTVSPropertyOp59
 70
     1
102
RTVSPropertyOp60
 70
     1
102
RTVSPropertyOp61
 70
     1
102
RTVSPropertyOp62
 70
     1
  0
XRECORD
  5
58C3
102
{ACAD_REACTORS
330
58C2
102
}
330
58C2
100
AcDbXrecord
280
     1
102
RTVSPost2010Prop28
280
     0
102
RTVSPost2010PropOp28
 70
     1
102
RTVSPost2010Prop29
280
     1
102
RTVSPost2010PropOp29
 70
     1
102
RTVSPost2010Prop30
280
     1
102
RTVSPost2010PropOp30
 70
     1
102
RTVSPost2010Prop31
280
     0
102
RTVSPost2010PropOp31
 70
     1
102
RTVSPost2010Prop32
280
     0
102
RTVSPost2010PropOp32
 70
     1
102
RTVSPost2010Prop33
280
     0
102
RTVSPost2010PropOp33
 70
     1
102
RTVSPost2010Prop34
280
     0
102
RTVSPost2010PropOp34
 70
     1
102
RTVSPost2010Prop35
280
     0
102
RTVSPost2010PropOp35
 70
     1
102
RTVSPost2010Prop36
280
     0
102
RTVSPost2010PropOp36
 70
     1
102
RTVSPost2010Prop37
 90
       50
102
RTVSPost2010PropOp37
 70
     1
102
RTVSPost2010Prop38
140
0.0
102
RTVSPost2010PropOp38
 70
     1
102
RTVSPost2010Prop39
140
1.0
102
RTVSPost2010PropOp39
 70
     1
102
RTVSPost2010Prop40
 90
        0
102
RTVSPost2010PropOp40
 70
     1
102
RTVSPost2010Prop41ColorIndex
 90
       18
102
RTVSPost2010Prop41ColorRGB
 90
-16777216
102
RTVSPost2010PropOp41
 70
     1
102
RTVSPost2010Prop42
 90
       50
102
RTVSPost2010PropOp42
 70
     1
102
RTVSPost2010Prop43
 90
        3
102
RTVSPost2010PropOp43
 70
     1
102
RTVSPost2010Prop44ColorIndex
 90
        5
102
RTVSPost2010Prop44ColorRGB
 90
      255
102
RTVSPost2010PropOp44
 70
     1
102
RTVSPost2010Prop45
280
     0
102
RTVSPost2010PropOp45
 70
     1
102
RTVSPost2010Prop46
 90
       50
102
RTVSPost2010PropOp46
 70
     1
102
RTVSPost2010Prop47
 90
       50
102
RTVSPost2010PropOp47
 70
     1
102
RTVSPost2010Prop48
 90
       50
102
RTVSPost2010PropOp48
 70
     1
102
RTVSPost2010Prop49
280
     0
102
RTVSPost2010PropOp49
 70
     1
102
RTVSPost2010Prop50
 90
       50
102
RTVSPost2010PropOp50
 70
     1
102
RTVSPost2010Prop51ColorIndex
 90
      256
102
RTVSPost2010Prop51ColorRGB
 90
-16777216
102
RTVSPost2010PropOp51
 70
     0
102
RTVSPost2010Prop52
140
1.0
102
RTVSPost2010PropOp52
 70
     0
102
RTVSPost2010Prop53
 90
        2
102
RTVSPost2010PropOp53
 70
     1
102
RTVSPost2010Prop54
  1
strokes_ogs.tif
102
RTVSPost2010PropOp54
 70
     1
102
RTVSPost2010Prop55
280
     0
102
RTVSPost2010PropOp55
 70
     1
102
RTVSPost2010Prop56
140
1.0
102
RTVSPost2010PropOp56
 70
     1
102
RTVSPost2010Prop57
140
1.0
102
RTVSPost2010PropOp57
 70
     1
102
RTVSPropertyOp0
 70
     1
102
RTVSPropertyOp1
 70
     1
102
RTVSPropertyOp2
 70
     1
102
RTVSPropertyOp3
 70
     1
102
RTVSPropertyOp4
 70
     1
102
RTVSPropertyOp5
 70
     1
102
RTVSPropertyOp6
 70
     1
102
RTVSPropertyOp7
 70
     1
102
RTVSPropertyOp8
 70
     1
102
RTVSPropertyOp9
 70
     1
102
RTVSPropertyOp10
 70
     1
102
RTVSPropertyOp11
 70
     1
102
RTVSPropertyOp12
 70
     1
102
RTVSPropertyOp13
 70
     1
102
RTVSPropertyOp14
 70
     1
102
RTVSPropertyOp15
 70
     1
102
RTVSPropertyOp16
 70
     1
102
RTVSPropertyOp17
 70
     1
102
RTVSPropertyOp18
 70
     1
102
RTVSPropertyOp19
 70
     1
102
RTVSPropertyOp20
 70
     1
102
RTVSPropertyOp21
 70
     1
102
RTVSPropertyOp22
 70
     1
102
RTVSPropertyOp23
 70
     1
102
RTVSPropertyOp24
 70
     1
102
RTVSPropertyOp25
 70
     1
102
RTVSPropertyOp26
 70
     1
102
RTVSPropertyOp27
 70
     1
102
RTVSPropertyOp28
 70
     1
102
RTVSPropertyOp29
 70
     1
102
RTVSPropertyOp30
 70
     1
102
RTVSPropertyOp31
 70
     1
102
RTVSPropertyOp32
 70
     1
102
RTVSPropertyOp33
 70
     1
102
RTVSPropertyOp34
 70
     1
102
RTVSPropertyOp35
 70
     1
102
RTVSPropertyOp36
 70
     1
102
RTVSPropertyOp37
 70
     1
102
RTVSPropertyOp38
 70
     1
102
RTVSPropertyOp39
 70
     1
102
RTVSPropertyOp40
 70
     1
102
RTVSPropertyOp41
 70
     1
102
RTVSPropertyOp42
 70
     1
102
RTVSPropertyOp43
 70
     1
102
RTVSPropertyOp44
 70
     1
102
RTVSPropertyOp45
 70
     1
102
RTVSPropertyOp46
 70
     1
102
RTVSPropertyOp47
 70
     1
102
RTVSPropertyOp48
 70
     1
102
RTVSPropertyOp49
 70
     1
102
RTVSPropertyOp50
 70
     1
102
RTVSPropertyOp51
 70
     0
102
RTVSPropertyOp52
 70
     0
102
RTVSPropertyOp53
 70
     1
102
RTVSPropertyOp54
 70
     1
102
RTVSPropertyOp55
 70
     1
102
RTVSPropertyOp56
 70
     1
102
RTVSPropertyOp57
 70
     1
102
RTVSPropertyOp58
 70
     1
102
RTVSPropertyOp59
 70
     1
102
RTVSPropertyOp60
 70
     1
102
RTVSPropertyOp61
 70
     1
102
RTVSPropertyOp62
 70
     1
  0
XRECORD
  5
58C7
102
{ACAD_REACTORS
330
58C6
102
}
330
58C6
100
AcDbXrecord
280
     1
102
RTVSPost2010Prop28
280
     0
102
RTVSPost2010PropOp28
 70
     1
102
RTVSPost2010Prop29
280
     1
102
RTVSPost2010PropOp29
 70
     1
102
RTVSPost2010Prop30
280
     1
102
RTVSPost2010PropOp30
 70
     1
102
RTVSPost2010Prop31
280
     0
102
RTVSPost2010PropOp31
 70
     1
102
RTVSPost2010Prop32
280
     0
102
RTVSPost2010PropOp32
 70
     1
102
RTVSPost2010Prop33
280
     0
102
RTVSPost2010PropOp33
 70
     1
102
RTVSPost2010Prop34
280
     0
102
RTVSPost2010PropOp34
 70
     1
102
RTVSPost2010Prop35
280
     0
102
RTVSPost2010PropOp35
 70
     1
102
RTVSPost2010Prop36
280
     0
102
RTVSPost2010PropOp36
 70
     1
102
RTVSPost2010Prop37
 90
       50
102
RTVSPost2010PropOp37
 70
     1
102
RTVSPost2010Prop38
140
0.0
102
RTVSPost2010PropOp38
 70
     1
102
RTVSPost2010Prop39
140
1.0
102
RTVSPost2010PropOp39
 70
     1
102
RTVSPost2010Prop40
 90
        0
102
RTVSPost2010PropOp40
 70
     1
102
RTVSPost2010Prop41ColorIndex
 90
       18
102
RTVSPost2010Prop41ColorRGB
 90
-16777216
102
RTVSPost2010PropOp41
 70
     1
102
RTVSPost2010Prop42
 90
       50
102
RTVSPost2010PropOp42
 70
     1
102
RTVSPost2010Prop43
 90
        3
102
RTVSPost2010PropOp43
 70
     1
102
RTVSPost2010Prop44ColorIndex
 90
        5
102
RTVSPost2010Prop44ColorRGB
 90
      255
102
RTVSPost2010PropOp44
 70
     1
102
RTVSPost2010Prop45
280
     0
102
RTVSPost2010PropOp45
 70
     1
102
RTVSPost2010Prop46
 90
       50
102
RTVSPost2010PropOp46
 70
     1
102
RTVSPost2010Prop47
 90
       50
102
RTVSPost2010PropOp47
 70
     1
102
RTVSPost2010Prop48
 90
       50
102
RTVSPost2010PropOp48
 70
     1
102
RTVSPost2010Prop49
280
     0
102
RTVSPost2010PropOp49
 70
     1
102
RTVSPost2010Prop50
 90
       50
102
RTVSPost2010PropOp50
 70
     1
102
RTVSPost2010Prop51ColorIndex
 90
      256
102
RTVSPost2010Prop51ColorRGB
 90
-16777216
102
RTVSPost2010PropOp51
 70
     0
102
RTVSPost2010Prop52
140
1.0
102
RTVSPost2010PropOp52
 70
     0
102
RTVSPost2010Prop53
 90
        2
102
RTVSPost2010PropOp53
 70
     1
102
RTVSPost2010Prop54
  1
strokes_ogs.tif
102
RTVSPost2010PropOp54
 70
     1
102
RTVSPost2010Prop55
280
     0
102
RTVSPost2010PropOp55
 70
     1
102
RTVSPost2010Prop56
140
1.0
102
RTVSPost2010PropOp56
 70
     1
102
RTVSPost2010Prop57
140
1.0
102
RTVSPost2010PropOp57
 70
     1
102
RTVSPropertyOp0
 70
     1
102
RTVSPropertyOp1
 70
     1
102
RTVSPropertyOp2
 70
     1
102
RTVSPropertyOp3
 70
     1
102
RTVSPropertyOp4
 70
     1
102
RTVSPropertyOp5
 70
     1
102
RTVSPropertyOp6
 70
     1
102
RTVSPropertyOp7
 70
     1
102
RTVSPropertyOp8
 70
     1
102
RTVSPropertyOp9
 70
     1
102
RTVSPropertyOp10
 70
     1
102
RTVSPropertyOp11
 70
     1
102
RTVSPropertyOp12
 70
     1
102
RTVSPropertyOp13
 70
     1
102
RTVSPropertyOp14
 70
     1
102
RTVSPropertyOp15
 70
     1
102
RTVSPropertyOp16
 70
     1
102
RTVSPropertyOp17
 70
     1
102
RTVSPropertyOp18
 70
     1
102
RTVSPropertyOp19
 70
     1
102
RTVSPropertyOp20
 70
     1
102
RTVSPropertyOp21
 70
     1
102
RTVSPropertyOp22
 70
     1
102
RTVSPropertyOp23
 70
     1
102
RTVSPropertyOp24
 70
     1
102
RTVSPropertyOp25
 70
     1
102
RTVSPropertyOp26
 70
     1
102
RTVSPropertyOp27
 70
     1
102
RTVSPropertyOp28
 70
     1
102
RTVSPropertyOp29
 70
     1
102
RTVSPropertyOp30
 70
     1
102
RTVSPropertyOp31
 70
     1
102
RTVSPropertyOp32
 70
     1
102
RTVSPropertyOp33
 70
     1
102
RTVSPropertyOp34
 70
     1
102
RTVSPropertyOp35
 70
     1
102
RTVSPropertyOp36
 70
     1
102
RTVSPropertyOp37
 70
     1
102
RTVSPropertyOp38
 70
     1
102
RTVSPropertyOp39
 70
     1
102
RTVSPropertyOp40
 70
     1
102
RTVSPropertyOp41
 70
     1
102
RTVSPropertyOp42
 70
     1
102
RTVSPropertyOp43
 70
     1
102
RTVSPropertyOp44
 70
     1
102
RTVSPropertyOp45
 70
     1
102
RTVSPropertyOp46
 70
     1
102
RTVSPropertyOp47
 70
     1
102
RTVSPropertyOp48
 70
     1
102
RTVSPropertyOp49
 70
     1
102
RTVSPropertyOp50
 70
     1
102
RTVSPropertyOp51
 70
     0
102
RTVSPropertyOp52
 70
     0
102
RTVSPropertyOp53
 70
     1
102
RTVSPropertyOp54
 70
     1
102
RTVSPropertyOp55
 70
     1
102
RTVSPropertyOp56
 70
     1
102
RTVSPropertyOp57
 70
     1
102
RTVSPropertyOp58
 70
     1
102
RTVSPropertyOp59
 70
     1
102
RTVSPropertyOp60
 70
     1
102
RTVSPropertyOp61
 70
     1
102
RTVSPropertyOp62
 70
     1
  0
XRECORD
  5
58E1
102
{ACAD_REACTORS
330
58E0
102
}
330
58E0
100
AcDbXrecord
280
     1
102
RTVSPost2010Prop28
280
     0
102
RTVSPost2010PropOp28
 70
     1
102
RTVSPost2010Prop29
280
     1
102
RTVSPost2010PropOp29
 70
     1
102
RTVSPost2010Prop30
280
     1
102
RTVSPost2010PropOp30
 70
     1
102
RTVSPost2010Prop31
280
     0
102
RTVSPost2010PropOp31
 70
     1
102
RTVSPost2010Prop32
280
     0
102
RTVSPost2010PropOp32
 70
     1
102
RTVSPost2010Prop33
280
     0
102
RTVSPost2010PropOp33
 70
     1
102
RTVSPost2010Prop34
280
     0
102
RTVSPost2010PropOp34
 70
     1
102
RTVSPost2010Prop35
280
     0
102
RTVSPost2010PropOp35
 70
     1
102
RTVSPost2010Prop36
280
     0
102
RTVSPost2010PropOp36
 70
     1
102
RTVSPost2010Prop37
 90
       50
102
RTVSPost2010PropOp37
 70
     0
102
RTVSPost2010Prop38
140
0.0
102
RTVSPost2010PropOp38
 70
     0
102
RTVSPost2010Prop39
140
1.0
102
RTVSPost2010PropOp39
 70
     0
102
RTVSPost2010Prop40
 90
        0
102
RTVSPost2010PropOp40
 70
     0
102
RTVSPost2010Prop41ColorIndex
 90
       18
102
RTVSPost2010Prop41ColorRGB
 90
-16777216
102
RTVSPost2010PropOp41
 70
     0
102
RTVSPost2010Prop42
 90
       50
102
RTVSPost2010PropOp42
 70
     0
102
RTVSPost2010Prop43
 90
        3
102
RTVSPost2010PropOp43
 70
     0
102
RTVSPost2010Prop44ColorIndex
 90
        5
102
RTVSPost2010Prop44ColorRGB
 90
      255
102
RTVSPost2010PropOp44
 70
     0
102
RTVSPost2010Prop45
280
     0
102
RTVSPost2010PropOp45
 70
     1
102
RTVSPost2010Prop46
 90
       50
102
RTVSPost2010PropOp46
 70
     0
102
RTVSPost2010Prop47
 90
       50
102
RTVSPost2010PropOp47
 70
     0
102
RTVSPost2010Prop48
 90
       50
102
RTVSPost2010PropOp48
 70
     0
102
RTVSPost2010Prop49
280
     0
102
RTVSPost2010PropOp49
 70
     1
102
RTVSPost2010Prop50
 90
       50
102
RTVSPost2010PropOp50
 70
     0
102
RTVSPost2010Prop51ColorIndex
 90
      256
102
RTVSPost2010Prop51ColorRGB
 90
-16777216
102
RTVSPost2010PropOp51
 70
     0
102
RTVSPost2010Prop52
140
1.0
102
RTVSPost2010PropOp52
 70
     0
102
RTVSPost2010Prop53
 90
        2
102
RTVSPost2010PropOp53
 70
     0
102
RTVSPost2010Prop54
  1
strokes_ogs.tif
102
RTVSPost2010PropOp54
 70
     0
102
RTVSPost2010Prop55
280
     0
102
RTVSPost2010PropOp55
 70
     1
102
RTVSPost2010Prop56
140
1.0
102
RTVSPost2010PropOp56
 70
     0
102
RTVSPost2010Prop57
140
1.0
102
RTVSPost2010PropOp57
 70
     0
102
RTVSPropertyOp0
 70
     0
102
RTVSPropertyOp1
 70
     0
102
RTVSPropertyOp2
 70
     0
102
RTVSPropertyOp3
 70
     0
102
RTVSPropertyOp4
 70
     0
102
RTVSPropertyOp5
 70
     0
102
RTVSPropertyOp6
 70
     0
102
RTVSPropertyOp7
 70
     0
102
RTVSPropertyOp8
 70
     0
102
RTVSPropertyOp9
 70
     0
102
RTVSPropertyOp10
 70
     0
102
RTVSPropertyOp11
 70
     0
102
RTVSPropertyOp12
 70
     0
102
RTVSPropertyOp13
 70
     0
102
RTVSPropertyOp14
 70
     2
102
RTVSPropertyOp15
 70
     0
102
RTVSPropertyOp16
 70
     0
102
RTVSPropertyOp17
 70
     0
102
RTVSPropertyOp18
 70
     0
102
RTVSPropertyOp19
 70
     0
102
RTVSPropertyOp20
 70
     0
102
RTVSPropertyOp21
 70
     0
102
RTVSPropertyOp22
 70
     0
102
RTVSPropertyOp23
 70
     0
102
RTVSPropertyOp24
 70
     0
102
RTVSPropertyOp25
 70
     0
102
RTVSPropertyOp26
 70
     0
102
RTVSPropertyOp27
 70
     0
102
RTVSPropertyOp28
 70
     1
102
RTVSPropertyOp29
 70
     1
102
RTVSPropertyOp30
 70
     1
102
RTVSPropertyOp31
 70
     1
102
RTVSPropertyOp32
 70
     1
102
RTVSPropertyOp33
 70
     1
102
RTVSPropertyOp34
 70
     1
102
RTVSPropertyOp35
 70
     1
102
RTVSPropertyOp36
 70
     1
102
RTVSPropertyOp37
 70
     0
102
RTVSPropertyOp38
 70
     0
102
RTVSPropertyOp39
 70
     0
102
RTVSPropertyOp40
 70
     0
102
RTVSPropertyOp41
 70
     0
102
RTVSPropertyOp42
 70
     0
102
RTVSPropertyOp43
 70
     0
102
RTVSPropertyOp44
 70
     0
102
RTVSPropertyOp45
 70
     1
102
RTVSPropertyOp46
 70
     0
102
RTVSPropertyOp47
 70
     0
102
RTVSPropertyOp48
 70
     0
102
RTVSPropertyOp49
 70
     1
102
RTVSPropertyOp50
 70
     0
102
RTVSPropertyOp51
 70
     0
102
RTVSPropertyOp52
 70
     0
102
RTVSPropertyOp53
 70
     0
102
RTVSPropertyOp54
 70
     0
102
RTVSPropertyOp55
 70
     1
102
RTVSPropertyOp56
 70
     0
102
RTVSPropertyOp57
 70
     0
102
RTVSPropertyOp58
 70
     1
102
RTVSPropertyOp59
 70
     1
102
RTVSPropertyOp60
 70
     1
102
RTVSPropertyOp61
 70
     1
102
RTVSPropertyOp62
 70
     1
  0
XRECORD
  5
58CF
102
{ACAD_REACTORS
330
58CE
102
}
330
58CE
100
AcDbXrecord
280
     1
102
RTVSPost2010Prop28
280
     0
102
RTVSPost2010PropOp28
 70
     1
102
RTVSPost2010Prop29
280
     1
102
RTVSPost2010PropOp29
 70
     1
102
RTVSPost2010Prop30
280
     1
102
RTVSPost2010PropOp30
 70
     1
102
RTVSPost2010Prop31
280
     0
102
RTVSPost2010PropOp31
 70
     1
102
RTVSPost2010Prop32
280
     0
102
RTVSPost2010PropOp32
 70
     1
102
RTVSPost2010Prop33
280
     0
102
RTVSPost2010PropOp33
 70
     1
102
RTVSPost2010Prop34
280
     0
102
RTVSPost2010PropOp34
 70
     1
102
RTVSPost2010Prop35
280
     0
102
RTVSPost2010PropOp35
 70
     1
102
RTVSPost2010Prop36
280
     0
102
RTVSPost2010PropOp36
 70
     1
102
RTVSPost2010Prop37
 90
       50
102
RTVSPost2010PropOp37
 70
     1
102
RTVSPost2010Prop38
140
0.0
102
RTVSPost2010PropOp38
 70
     1
102
RTVSPost2010Prop39
140
1.0
102
RTVSPost2010PropOp39
 70
     1
102
RTVSPost2010Prop40
 90
        0
102
RTVSPost2010PropOp40
 70
     1
102
RTVSPost2010Prop41ColorIndex
 90
       18
102
RTVSPost2010Prop41ColorRGB
 90
-16777216
102
RTVSPost2010PropOp41
 70
     1
102
RTVSPost2010Prop42
 90
       50
102
RTVSPost2010PropOp42
 70
     1
102
RTVSPost2010Prop43
 90
        3
102
RTVSPost2010PropOp43
 70
     1
102
RTVSPost2010Prop44ColorIndex
 90
        5
102
RTVSPost2010Prop44ColorRGB
 90
      255
102
RTVSPost2010PropOp44
 70
     1
102
RTVSPost2010Prop45
280
     0
102
RTVSPost2010PropOp45
 70
     1
102
RTVSPost2010Prop46
 90
       50
102
RTVSPost2010PropOp46
 70
     1
102
RTVSPost2010Prop47
 90
       50
102
RTVSPost2010PropOp47
 70
     1
102
RTVSPost2010Prop48
 90
       50
102
RTVSPost2010PropOp48
 70
     1
102
RTVSPost2010Prop49
280
     0
102
RTVSPost2010PropOp49
 70
     1
102
RTVSPost2010Prop50
 90
       50
102
RTVSPost2010PropOp50
 70
     1
102
RTVSPost2010Prop51ColorIndex
 90
      256
102
RTVSPost2010Prop51ColorRGB
 90
-16777216
102
RTVSPost2010PropOp51
 70
     0
102
RTVSPost2010Prop52
140
1.0
102
RTVSPost2010PropOp52
 70
     0
102
RTVSPost2010Prop53
 90
        2
102
RTVSPost2010PropOp53
 70
     1
102
RTVSPost2010Prop54
  1
strokes_ogs.tif
102
RTVSPost2010PropOp54
 70
     1
102
RTVSPost2010Prop55
280
     0
102
RTVSPost2010PropOp55
 70
     1
102
RTVSPost2010Prop56
140
1.0
102
RTVSPost2010PropOp56
 70
     1
102
RTVSPost2010Prop57
140
1.0
102
RTVSPost2010PropOp57
 70
     1
102
RTVSPropertyOp0
 70
     1
102
RTVSPropertyOp1
 70
     1
102
RTVSPropertyOp2
 70
     1
102
RTVSPropertyOp3
 70
     1
102
RTVSPropertyOp4
 70
     1
102
RTVSPropertyOp5
 70
     1
102
RTVSPropertyOp6
 70
     1
102
RTVSPropertyOp7
 70
     1
102
RTVSPropertyOp8
 70
     1
102
RTVSPropertyOp9
 70
     1
102
RTVSPropertyOp10
 70
     1
102
RTVSPropertyOp11
 70
     1
102
RTVSPropertyOp12
 70
     1
102
RTVSPropertyOp13
 70
     1
102
RTVSPropertyOp14
 70
     1
102
RTVSPropertyOp15
 70
     1
102
RTVSPropertyOp16
 70
     1
102
RTVSPropertyOp17
 70
     1
102
RTVSPropertyOp18
 70
     1
102
RTVSPropertyOp19
 70
     1
102
RTVSPropertyOp20
 70
     1
102
RTVSPropertyOp21
 70
     1
102
RTVSPropertyOp22
 70
     1
102
RTVSPropertyOp23
 70
     1
102
RTVSPropertyOp24
 70
     1
102
RTVSPropertyOp25
 70
     1
102
RTVSPropertyOp26
 70
     1
102
RTVSPropertyOp27
 70
     1
102
RTVSPropertyOp28
 70
     1
102
RTVSPropertyOp29
 70
     1
102
RTVSPropertyOp30
 70
     1
102
RTVSPropertyOp31
 70
     1
102
RTVSPropertyOp32
 70
     1
102
RTVSPropertyOp33
 70
     1
102
RTVSPropertyOp34
 70
     1
102
RTVSPropertyOp35
 70
     1
102
RTVSPropertyOp36
 70
     1
102
RTVSPropertyOp37
 70
     1
102
RTVSPropertyOp38
 70
     1
102
RTVSPropertyOp39
 70
     1
102
RTVSPropertyOp40
 70
     1
102
RTVSPropertyOp41
 70
     1
102
RTVSPropertyOp42
 70
     1
102
RTVSPropertyOp43
 70
     1
102
RTVSPropertyOp44
 70
     1
102
RTVSPropertyOp45
 70
     1
102
RTVSPropertyOp46
 70
     1
102
RTVSPropertyOp47
 70
     1
102
RTVSPropertyOp48
 70
     1
102
RTVSPropertyOp49
 70
     1
102
RTVSPropertyOp50
 70
     1
102
RTVSPropertyOp51
 70
     0
102
RTVSPropertyOp52
 70
     0
102
RTVSPropertyOp53
 70
     1
102
RTVSPropertyOp54
 70
     1
102
RTVSPropertyOp55
 70
     1
102
RTVSPropertyOp56
 70
     1
102
RTVSPropertyOp57
 70
     1
102
RTVSPropertyOp58
 70
     1
102
RTVSPropertyOp59
 70
     1
102
RTVSPropertyOp60
 70
     1
102
RTVSPropertyOp61
 70
     1
102
RTVSPropertyOp62
 70
     1
  0
XRECORD
  5
58B3
102
{ACAD_REACTORS
330
58B2
102
}
330
58B2
100
AcDbXrecord
280
     1
102
RTVSPost2010Prop28
280
     0
102
RTVSPost2010PropOp28
 70
     1
102
RTVSPost2010Prop29
280
     1
102
RTVSPost2010PropOp29
 70
     1
102
RTVSPost2010Prop30
280
     1
102
RTVSPost2010PropOp30
 70
     1
102
RTVSPost2010Prop31
280
     0
102
RTVSPost2010PropOp31
 70
     1
102
RTVSPost2010Prop32
280
     0
102
RTVSPost2010PropOp32
 70
     1
102
RTVSPost2010Prop33
280
     0
102
RTVSPost2010PropOp33
 70
     1
102
RTVSPost2010Prop34
280
     0
102
RTVSPost2010PropOp34
 70
     1
102
RTVSPost2010Prop35
280
     0
102
RTVSPost2010PropOp35
 70
     1
102
RTVSPost2010Prop36
280
     0
102
RTVSPost2010PropOp36
 70
     1
102
RTVSPost2010Prop37
 90
       50
102
RTVSPost2010PropOp37
 70
     1
102
RTVSPost2010Prop38
140
0.0
102
RTVSPost2010PropOp38
 70
     1
102
RTVSPost2010Prop39
140
1.0
102
RTVSPost2010PropOp39
 70
     1
102
RTVSPost2010Prop40
 90
        0
102
RTVSPost2010PropOp40
 70
     1
102
RTVSPost2010Prop41ColorIndex
 90
       18
102
RTVSPost2010Prop41ColorRGB
 90
-16777216
102
RTVSPost2010PropOp41
 70
     1
102
RTVSPost2010Prop42
 90
       50
102
RTVSPost2010PropOp42
 70
     1
102
RTVSPost2010Prop43
 90
        3
102
RTVSPost2010PropOp43
 70
     1
102
RTVSPost2010Prop44ColorIndex
 90
        5
102
RTVSPost2010Prop44ColorRGB
 90
      255
102
RTVSPost2010PropOp44
 70
     1
102
RTVSPost2010Prop45
280
     0
102
RTVSPost2010PropOp45
 70
     1
102
RTVSPost2010Prop46
 90
       50
102
RTVSPost2010PropOp46
 70
     1
102
RTVSPost2010Prop47
 90
       50
102
RTVSPost2010PropOp47
 70
     1
102
RTVSPost2010Prop48
 90
       50
102
RTVSPost2010PropOp48
 70
     1
102
RTVSPost2010Prop49
280
     0
102
RTVSPost2010PropOp49
 70
     1
102
RTVSPost2010Prop50
 90
       50
102
RTVSPost2010PropOp50
 70
     1
102
RTVSPost2010Prop51ColorIndex
 90
      256
102
RTVSPost2010Prop51ColorRGB
 90
-16777216
102
RTVSPost2010PropOp51
 70
     0
102
RTVSPost2010Prop52
140
1.0
102
RTVSPost2010PropOp52
 70
     0
102
RTVSPost2010Prop53
 90
        2
102
RTVSPost2010PropOp53
 70
     1
102
RTVSPost2010Prop54
  1
strokes_ogs.tif
102
RTVSPost2010PropOp54
 70
     1
102
RTVSPost2010Prop55
280
     0
102
RTVSPost2010PropOp55
 70
     1
102
RTVSPost2010Prop56
140
1.0
102
RTVSPost2010PropOp56
 70
     1
102
RTVSPost2010Prop57
140
1.0
102
RTVSPost2010PropOp57
 70
     1
102
RTVSPropertyOp0
 70
     1
102
RTVSPropertyOp1
 70
     1
102
RTVSPropertyOp2
 70
     1
102
RTVSPropertyOp3
 70
     1
102
RTVSPropertyOp4
 70
     1
102
RTVSPropertyOp5
 70
     1
102
RTVSPropertyOp6
 70
     1
102
RTVSPropertyOp7
 70
     1
102
RTVSPropertyOp8
 70
     1
102
RTVSPropertyOp9
 70
     1
102
RTVSPropertyOp10
 70
     1
102
RTVSPropertyOp11
 70
     1
102
RTVSPropertyOp12
 70
     1
102
RTVSPropertyOp13
 70
     1
102
RTVSPropertyOp14
 70
     1
102
RTVSPropertyOp15
 70
     1
102
RTVSPropertyOp16
 70
     1
102
RTVSPropertyOp17
 70
     1
102
RTVSPropertyOp18
 70
     1
102
RTVSPropertyOp19
 70
     1
102
RTVSPropertyOp20
 70
     1
102
RTVSPropertyOp21
 70
     1
102
RTVSPropertyOp22
 70
     1
102
RTVSPropertyOp23
 70
     1
102
RTVSPropertyOp24
 70
     1
102
RTVSPropertyOp25
 70
     1
102
RTVSPropertyOp26
 70
     1
102
RTVSPropertyOp27
 70
     1
102
RTVSPropertyOp28
 70
     1
102
RTVSPropertyOp29
 70
     1
102
RTVSPropertyOp30
 70
     1
102
RTVSPropertyOp31
 70
     1
102
RTVSPropertyOp32
 70
     1
102
RTVSPropertyOp33
 70
     1
102
RTVSPropertyOp34
 70
     1
102
RTVSPropertyOp35
 70
     1
102
RTVSPropertyOp36
 70
     1
102
RTVSPropertyOp37
 70
     1
102
RTVSPropertyOp38
 70
     1
102
RTVSPropertyOp39
 70
     1
102
RTVSPropertyOp40
 70
     1
102
RTVSPropertyOp41
 70
     1
102
RTVSPropertyOp42
 70
     1
102
RTVSPropertyOp43
 70
     1
102
RTVSPropertyOp44
 70
     1
102
RTVSPropertyOp45
 70
     1
102
RTVSPropertyOp46
 70
     1
102
RTVSPropertyOp47
 70
     1
102
RTVSPropertyOp48
 70
     1
102
RTVSPropertyOp49
 70
     1
102
RTVSPropertyOp50
 70
     1
102
RTVSPropertyOp51
 70
     0
102
RTVSPropertyOp52
 70
     0
102
RTVSPropertyOp53
 70
     1
102
RTVSPropertyOp54
 70
     1
102
RTVSPropertyOp55
 70
     1
102
RTVSPropertyOp56
 70
     1
102
RTVSPropertyOp57
 70
     1
102
RTVSPropertyOp58
 70
     1
102
RTVSPropertyOp59
 70
     1
102
RTVSPropertyOp60
 70
     1
102
RTVSPropertyOp61
 70
     1
102
RTVSPropertyOp62
 70
     1
  0
XRECORD
  5
58B5
102
{ACAD_REACTORS
330
58B4
102
}
330
58B4
100
AcDbXrecord
280
     1
102
RTVSPost2010Prop28
280
     0
102
RTVSPost2010PropOp28
 70
     1
102
RTVSPost2010Prop29
280
     1
102
RTVSPost2010PropOp29
 70
     1
102
RTVSPost2010Prop30
280
     1
102
RTVSPost2010PropOp30
 70
     1
102
RTVSPost2010Prop31
280
     0
102
RTVSPost2010PropOp31
 70
     1
102
RTVSPost2010Prop32
280
     0
102
RTVSPost2010PropOp32
 70
     1
102
RTVSPost2010Prop33
280
     0
102
RTVSPost2010PropOp33
 70
     1
102
RTVSPost2010Prop34
280
     0
102
RTVSPost2010PropOp34
 70
     1
102
RTVSPost2010Prop35
280
     0
102
RTVSPost2010PropOp35
 70
     1
102
RTVSPost2010Prop36
280
     0
102
RTVSPost2010PropOp36
 70
     1
102
RTVSPost2010Prop37
 90
       50
102
RTVSPost2010PropOp37
 70
     1
102
RTVSPost2010Prop38
140
0.0
102
RTVSPost2010PropOp38
 70
     1
102
RTVSPost2010Prop39
140
1.0
102
RTVSPost2010PropOp39
 70
     1
102
RTVSPost2010Prop40
 90
        0
102
RTVSPost2010PropOp40
 70
     1
102
RTVSPost2010Prop41ColorIndex
 90
       18
102
RTVSPost2010Prop41ColorRGB
 90
-16777216
102
RTVSPost2010PropOp41
 70
     1
102
RTVSPost2010Prop42
 90
       50
102
RTVSPost2010PropOp42
 70
     1
102
RTVSPost2010Prop43
 90
        3
102
RTVSPost2010PropOp43
 70
     1
102
RTVSPost2010Prop44ColorIndex
 90
        5
102
RTVSPost2010Prop44ColorRGB
 90
      255
102
RTVSPost2010PropOp44
 70
     1
102
RTVSPost2010Prop45
280
     0
102
RTVSPost2010PropOp45
 70
     1
102
RTVSPost2010Prop46
 90
       50
102
RTVSPost2010PropOp46
 70
     1
102
RTVSPost2010Prop47
 90
       50
102
RTVSPost2010PropOp47
 70
     1
102
RTVSPost2010Prop48
 90
       50
102
RTVSPost2010PropOp48
 70
     1
102
RTVSPost2010Prop49
280
     0
102
RTVSPost2010PropOp49
 70
     1
102
RTVSPost2010Prop50
 90
       50
102
RTVSPost2010PropOp50
 70
     1
102
RTVSPost2010Prop51ColorIndex
 90
      256
102
RTVSPost2010Prop51ColorRGB
 90
-16777216
102
RTVSPost2010PropOp51
 70
     0
102
RTVSPost2010Prop52
140
1.0
102
RTVSPost2010PropOp52
 70
     0
102
RTVSPost2010Prop53
 90
        2
102
RTVSPost2010PropOp53
 70
     1
102
RTVSPost2010Prop54
  1
strokes_ogs.tif
102
RTVSPost2010PropOp54
 70
     1
102
RTVSPost2010Prop55
280
     0
102
RTVSPost2010PropOp55
 70
     1
102
RTVSPost2010Prop56
140
1.0
102
RTVSPost2010PropOp56
 70
     1
102
RTVSPost2010Prop57
140
1.0
102
RTVSPost2010PropOp57
 70
     1
102
RTVSPropertyOp0
 70
     1
102
RTVSPropertyOp1
 70
     1
102
RTVSPropertyOp2
 70
     1
102
RTVSPropertyOp3
 70
     1
102
RTVSPropertyOp4
 70
     1
102
RTVSPropertyOp5
 70
     1
102
RTVSPropertyOp6
 70
     1
102
RTVSPropertyOp7
 70
     1
102
RTVSPropertyOp8
 70
     1
102
RTVSPropertyOp9
 70
     1
102
RTVSPropertyOp10
 70
     1
102
RTVSPropertyOp11
 70
     1
102
RTVSPropertyOp12
 70
     1
102
RTVSPropertyOp13
 70
     1
102
RTVSPropertyOp14
 70
     1
102
RTVSPropertyOp15
 70
     1
102
RTVSPropertyOp16
 70
     1
102
RTVSPropertyOp17
 70
     1
102
RTVSPropertyOp18
 70
     1
102
RTVSPropertyOp19
 70
     1
102
RTVSPropertyOp20
 70
     1
102
RTVSPropertyOp21
 70
     1
102
RTVSPropertyOp22
 70
     1
102
RTVSPropertyOp23
 70
     1
102
RTVSPropertyOp24
 70
     1
102
RTVSPropertyOp25
 70
     1
102
RTVSPropertyOp26
 70
     1
102
RTVSPropertyOp27
 70
     1
102
RTVSPropertyOp28
 70
     1
102
RTVSPropertyOp29
 70
     1
102
RTVSPropertyOp30
 70
     1
102
RTVSPropertyOp31
 70
     1
102
RTVSPropertyOp32
 70
     1
102
RTVSPropertyOp33
 70
     1
102
RTVSPropertyOp34
 70
     1
102
RTVSPropertyOp35
 70
     1
102
RTVSPropertyOp36
 70
     1
102
RTVSPropertyOp37
 70
     1
102
RTVSPropertyOp38
 70
     1
102
RTVSPropertyOp39
 70
     1
102
RTVSPropertyOp40
 70
     1
102
RTVSPropertyOp41
 70
     1
102
RTVSPropertyOp42
 70
     1
102
RTVSPropertyOp43
 70
     1
102
RTVSPropertyOp44
 70
     1
102
RTVSPropertyOp45
 70
     1
102
RTVSPropertyOp46
 70
     1
102
RTVSPropertyOp47
 70
     1
102
RTVSPropertyOp48
 70
     1
102
RTVSPropertyOp49
 70
     1
102
RTVSPropertyOp50
 70
     1
102
RTVSPropertyOp51
 70
     0
102
RTVSPropertyOp52
 70
     0
102
RTVSPropertyOp53
 70
     1
102
RTVSPropertyOp54
 70
     1
102
RTVSPropertyOp55
 70
     1
102
RTVSPropertyOp56
 70
     1
102
RTVSPropertyOp57
 70
     1
102
RTVSPropertyOp58
 70
     1
102
RTVSPropertyOp59
 70
     1
102
RTVSPropertyOp60
 70
     1
102
RTVSPropertyOp61
 70
     1
102
RTVSPropertyOp62
 70
     1
  0
XRECORD
  5
58B7
102
{ACAD_REACTORS
330
58B6
102
}
330
58B6
100
AcDbXrecord
280
     1
102
RTVSPost2010Prop28
280
     0
102
RTVSPost2010PropOp28
 70
     1
102
RTVSPost2010Prop29
280
     1
102
RTVSPost2010PropOp29
 70
     1
102
RTVSPost2010Prop30
280
     1
102
RTVSPost2010PropOp30
 70
     1
102
RTVSPost2010Prop31
280
     0
102
RTVSPost2010PropOp31
 70
     1
102
RTVSPost2010Prop32
280
     0
102
RTVSPost2010PropOp32
 70
     1
102
RTVSPost2010Prop33
280
     0
102
RTVSPost2010PropOp33
 70
     1
102
RTVSPost2010Prop34
280
     0
102
RTVSPost2010PropOp34
 70
     1
102
RTVSPost2010Prop35
280
     0
102
RTVSPost2010PropOp35
 70
     1
102
RTVSPost2010Prop36
280
     0
102
RTVSPost2010PropOp36
 70
     1
102
RTVSPost2010Prop37
 90
       50
102
RTVSPost2010PropOp37
 70
     1
102
RTVSPost2010Prop38
140
0.0
102
RTVSPost2010PropOp38
 70
     1
102
RTVSPost2010Prop39
140
1.0
102
RTVSPost2010PropOp39
 70
     1
102
RTVSPost2010Prop40
 90
        0
102
RTVSPost2010PropOp40
 70
     1
102
RTVSPost2010Prop41ColorIndex
 90
       18
102
RTVSPost2010Prop41ColorRGB
 90
-16777216
102
RTVSPost2010PropOp41
 70
     1
102
RTVSPost2010Prop42
 90
       50
102
RTVSPost2010PropOp42
 70
     1
102
RTVSPost2010Prop43
 90
        3
102
RTVSPost2010PropOp43
 70
     1
102
RTVSPost2010Prop44ColorIndex
 90
        5
102
RTVSPost2010Prop44ColorRGB
 90
      255
102
RTVSPost2010PropOp44
 70
     1
102
RTVSPost2010Prop45
280
     0
102
RTVSPost2010PropOp45
 70
     1
102
RTVSPost2010Prop46
 90
       50
102
RTVSPost2010PropOp46
 70
     1
102
RTVSPost2010Prop47
 90
       50
102
RTVSPost2010PropOp47
 70
     1
102
RTVSPost2010Prop48
 90
       50
102
RTVSPost2010PropOp48
 70
     1
102
RTVSPost2010Prop49
280
     0
102
RTVSPost2010PropOp49
 70
     1
102
RTVSPost2010Prop50
 90
       50
102
RTVSPost2010PropOp50
 70
     1
102
RTVSPost2010Prop51ColorIndex
 90
      256
102
RTVSPost2010Prop51ColorRGB
 90
-16777216
102
RTVSPost2010PropOp51
 70
     0
102
RTVSPost2010Prop52
140
1.0
102
RTVSPost2010PropOp52
 70
     0
102
RTVSPost2010Prop53
 90
        2
102
RTVSPost2010PropOp53
 70
     1
102
RTVSPost2010Prop54
  1
strokes_ogs.tif
102
RTVSPost2010PropOp54
 70
     1
102
RTVSPost2010Prop55
280
     0
102
RTVSPost2010PropOp55
 70
     1
102
RTVSPost2010Prop56
140
1.0
102
RTVSPost2010PropOp56
 70
     1
102
RTVSPost2010Prop57
140
1.0
102
RTVSPost2010PropOp57
 70
     1
102
RTVSPropertyOp0
 70
     1
102
RTVSPropertyOp1
 70
     1
102
RTVSPropertyOp2
 70
     1
102
RTVSPropertyOp3
 70
     1
102
RTVSPropertyOp4
 70
     1
102
RTVSPropertyOp5
 70
     1
102
RTVSPropertyOp6
 70
     1
102
RTVSPropertyOp7
 70
     1
102
RTVSPropertyOp8
 70
     1
102
RTVSPropertyOp9
 70
     1
102
RTVSPropertyOp10
 70
     1
102
RTVSPropertyOp11
 70
     1
102
RTVSPropertyOp12
 70
     1
102
RTVSPropertyOp13
 70
     1
102
RTVSPropertyOp14
 70
     1
102
RTVSPropertyOp15
 70
     1
102
RTVSPropertyOp16
 70
     1
102
RTVSPropertyOp17
 70
     1
102
RTVSPropertyOp18
 70
     1
102
RTVSPropertyOp19
 70
     1
102
RTVSPropertyOp20
 70
     1
102
RTVSPropertyOp21
 70
     1
102
RTVSPropertyOp22
 70
     1
102
RTVSPropertyOp23
 70
     1
102
RTVSPropertyOp24
 70
     1
102
RTVSPropertyOp25
 70
     1
102
RTVSPropertyOp26
 70
     1
102
RTVSPropertyOp27
 70
     1
102
RTVSPropertyOp28
 70
     1
102
RTVSPropertyOp29
 70
     1
102
RTVSPropertyOp30
 70
     1
102
RTVSPropertyOp31
 70
     1
102
RTVSPropertyOp32
 70
     1
102
RTVSPropertyOp33
 70
     1
102
RTVSPropertyOp34
 70
     1
102
RTVSPropertyOp35
 70
     1
102
RTVSPropertyOp36
 70
     1
102
RTVSPropertyOp37
 70
     1
102
RTVSPropertyOp38
 70
     1
102
RTVSPropertyOp39
 70
     1
102
RTVSPropertyOp40
 70
     1
102
RTVSPropertyOp41
 70
     1
102
RTVSPropertyOp42
 70
     1
102
RTVSPropertyOp43
 70
     1
102
RTVSPropertyOp44
 70
     1
102
RTVSPropertyOp45
 70
     1
102
RTVSPropertyOp46
 70
     1
102
RTVSPropertyOp47
 70
     1
102
RTVSPropertyOp48
 70
     1
102
RTVSPropertyOp49
 70
     1
102
RTVSPropertyOp50
 70
     1
102
RTVSPropertyOp51
 70
     0
102
RTVSPropertyOp52
 70
     0
102
RTVSPropertyOp53
 70
     1
102
RTVSPropertyOp54
 70
     1
102
RTVSPropertyOp55
 70
     1
102
RTVSPropertyOp56
 70
     1
102
RTVSPropertyOp57
 70
     1
102
RTVSPropertyOp58
 70
     1
102
RTVSPropertyOp59
 70
     1
102
RTVSPropertyOp60
 70
     1
102
RTVSPropertyOp61
 70
     1
102
RTVSPropertyOp62
 70
     1
  0
XRECORD
  5
58B9
102
{ACAD_REACTORS
330
58B8
102
}
330
58B8
100
AcDbXrecord
280
     1
102
RTVSPost2010Prop28
280
     0
102
RTVSPost2010PropOp28
 70
     1
102
RTVSPost2010Prop29
280
     1
102
RTVSPost2010PropOp29
 70
     1
102
RTVSPost2010Prop30
280
     1
102
RTVSPost2010PropOp30
 70
     1
102
RTVSPost2010Prop31
280
     0
102
RTVSPost2010PropOp31
 70
     1
102
RTVSPost2010Prop32
280
     0
102
RTVSPost2010PropOp32
 70
     1
102
RTVSPost2010Prop33
280
     0
102
RTVSPost2010PropOp33
 70
     1
102
RTVSPost2010Prop34
280
     0
102
RTVSPost2010PropOp34
 70
     1
102
RTVSPost2010Prop35
280
     0
102
RTVSPost2010PropOp35
 70
     1
102
RTVSPost2010Prop36
280
     0
102
RTVSPost2010PropOp36
 70
     1
102
RTVSPost2010Prop37
 90
       50
102
RTVSPost2010PropOp37
 70
     1
102
RTVSPost2010Prop38
140
0.0
102
RTVSPost2010PropOp38
 70
     1
102
RTVSPost2010Prop39
140
1.0
102
RTVSPost2010PropOp39
 70
     1
102
RTVSPost2010Prop40
 90
        0
102
RTVSPost2010PropOp40
 70
     1
102
RTVSPost2010Prop41ColorIndex
 90
       18
102
RTVSPost2010Prop41ColorRGB
 90
-16777216
102
RTVSPost2010PropOp41
 70
     1
102
RTVSPost2010Prop42
 90
       50
102
RTVSPost2010PropOp42
 70
     1
102
RTVSPost2010Prop43
 90
        3
102
RTVSPost2010PropOp43
 70
     1
102
RTVSPost2010Prop44ColorIndex
 90
        5
102
RTVSPost2010Prop44ColorRGB
 90
      255
102
RTVSPost2010PropOp44
 70
     1
102
RTVSPost2010Prop45
280
     0
102
RTVSPost2010PropOp45
 70
     1
102
RTVSPost2010Prop46
 90
       50
102
RTVSPost2010PropOp46
 70
     1
102
RTVSPost2010Prop47
 90
       50
102
RTVSPost2010PropOp47
 70
     1
102
RTVSPost2010Prop48
 90
       50
102
RTVSPost2010PropOp48
 70
     1
102
RTVSPost2010Prop49
280
     0
102
RTVSPost2010PropOp49
 70
     1
102
RTVSPost2010Prop50
 90
       50
102
RTVSPost2010PropOp50
 70
     1
102
RTVSPost2010Prop51ColorIndex
 90
      256
102
RTVSPost2010Prop51ColorRGB
 90
-16777216
102
RTVSPost2010PropOp51
 70
     0
102
RTVSPost2010Prop52
140
1.0
102
RTVSPost2010PropOp52
 70
     0
102
RTVSPost2010Prop53
 90
        2
102
RTVSPost2010PropOp53
 70
     1
102
RTVSPost2010Prop54
  1
strokes_ogs.tif
102
RTVSPost2010PropOp54
 70
     1
102
RTVSPost2010Prop55
280
     0
102
RTVSPost2010PropOp55
 70
     1
102
RTVSPost2010Prop56
140
1.0
102
RTVSPost2010PropOp56
 70
     1
102
RTVSPost2010Prop57
140
1.0
102
RTVSPost2010PropOp57
 70
     1
102
RTVSPropertyOp0
 70
     1
102
RTVSPropertyOp1
 70
     1
102
RTVSPropertyOp2
 70
     1
102
RTVSPropertyOp3
 70
     1
102
RTVSPropertyOp4
 70
     1
102
RTVSPropertyOp5
 70
     1
102
RTVSPropertyOp6
 70
     1
102
RTVSPropertyOp7
 70
     1
102
RTVSPropertyOp8
 70
     1
102
RTVSPropertyOp9
 70
     1
102
RTVSPropertyOp10
 70
     1
102
RTVSPropertyOp11
 70
     1
102
RTVSPropertyOp12
 70
     1
102
RTVSPropertyOp13
 70
     1
102
RTVSPropertyOp14
 70
     1
102
RTVSPropertyOp15
 70
     1
102
RTVSPropertyOp16
 70
     1
102
RTVSPropertyOp17
 70
     1
102
RTVSPropertyOp18
 70
     1
102
RTVSPropertyOp19
 70
     1
102
RTVSPropertyOp20
 70
     1
102
RTVSPropertyOp21
 70
     1
102
RTVSPropertyOp22
 70
     1
102
RTVSPropertyOp23
 70
     1
102
RTVSPropertyOp24
 70
     1
102
RTVSPropertyOp25
 70
     1
102
RTVSPropertyOp26
 70
     1
102
RTVSPropertyOp27
 70
     1
102
RTVSPropertyOp28
 70
     1
102
RTVSPropertyOp29
 70
     1
102
RTVSPropertyOp30
 70
     1
102
RTVSPropertyOp31
 70
     1
102
RTVSPropertyOp32
 70
     1
102
RTVSPropertyOp33
 70
     1
102
RTVSPropertyOp34
 70
     1
102
RTVSPropertyOp35
 70
     1
102
RTVSPropertyOp36
 70
     1
102
RTVSPropertyOp37
 70
     1
102
RTVSPropertyOp38
 70
     1
102
RTVSPropertyOp39
 70
     1
102
RTVSPropertyOp40
 70
     1
102
RTVSPropertyOp41
 70
     1
102
RTVSPropertyOp42
 70
     1
102
RTVSPropertyOp43
 70
     1
102
RTVSPropertyOp44
 70
     1
102
RTVSPropertyOp45
 70
     1
102
RTVSPropertyOp46
 70
     1
102
RTVSPropertyOp47
 70
     1
102
RTVSPropertyOp48
 70
     1
102
RTVSPropertyOp49
 70
     1
102
RTVSPropertyOp50
 70
     1
102
RTVSPropertyOp51
 70
     0
102
RTVSPropertyOp52
 70
     0
102
RTVSPropertyOp53
 70
     1
102
RTVSPropertyOp54
 70
     1
102
RTVSPropertyOp55
 70
     1
102
RTVSPropertyOp56
 70
     1
102
RTVSPropertyOp57
 70
     1
102
RTVSPropertyOp58
 70
     1
102
RTVSPropertyOp59
 70
     1
102
RTVSPropertyOp60
 70
     1
102
RTVSPropertyOp61
 70
     1
102
RTVSPropertyOp62
 70
     1
  0
XRECORD
  5
58C1
102
{ACAD_REACTORS
330
58C0
102
}
330
58C0
100
AcDbXrecord
280
     1
102
RTVSPost2010Prop28
280
     0
102
RTVSPost2010PropOp28
 70
     1
102
RTVSPost2010Prop29
280
     1
102
RTVSPost2010PropOp29
 70
     1
102
RTVSPost2010Prop30
280
     1
102
RTVSPost2010PropOp30
 70
     1
102
RTVSPost2010Prop31
280
     0
102
RTVSPost2010PropOp31
 70
     1
102
RTVSPost2010Prop32
280
     0
102
RTVSPost2010PropOp32
 70
     1
102
RTVSPost2010Prop33
280
     0
102
RTVSPost2010PropOp33
 70
     1
102
RTVSPost2010Prop34
280
     0
102
RTVSPost2010PropOp34
 70
     1
102
RTVSPost2010Prop35
280
     0
102
RTVSPost2010PropOp35
 70
     1
102
RTVSPost2010Prop36
280
     0
102
RTVSPost2010PropOp36
 70
     1
102
RTVSPost2010Prop37
 90
       50
102
RTVSPost2010PropOp37
 70
     1
102
RTVSPost2010Prop38
140
0.0
102
RTVSPost2010PropOp38
 70
     1
102
RTVSPost2010Prop39
140
1.0
102
RTVSPost2010PropOp39
 70
     1
102
RTVSPost2010Prop40
 90
        0
102
RTVSPost2010PropOp40
 70
     1
102
RTVSPost2010Prop41ColorIndex
 90
       18
102
RTVSPost2010Prop41ColorRGB
 90
-16777216
102
RTVSPost2010PropOp41
 70
     1
102
RTVSPost2010Prop42
 90
       50
102
RTVSPost2010PropOp42
 70
     1
102
RTVSPost2010Prop43
 90
        3
102
RTVSPost2010PropOp43
 70
     1
102
RTVSPost2010Prop44ColorIndex
 90
        5
102
RTVSPost2010Prop44ColorRGB
 90
      255
102
RTVSPost2010PropOp44
 70
     1
102
RTVSPost2010Prop45
280
     0
102
RTVSPost2010PropOp45
 70
     1
102
RTVSPost2010Prop46
 90
       50
102
RTVSPost2010PropOp46
 70
     1
102
RTVSPost2010Prop47
 90
       50
102
RTVSPost2010PropOp47
 70
     1
102
RTVSPost2010Prop48
 90
       50
102
RTVSPost2010PropOp48
 70
     1
102
RTVSPost2010Prop49
280
     0
102
RTVSPost2010PropOp49
 70
     1
102
RTVSPost2010Prop50
 90
       50
102
RTVSPost2010PropOp50
 70
     1
102
RTVSPost2010Prop51ColorIndex
 90
      256
102
RTVSPost2010Prop51ColorRGB
 90
-16777216
102
RTVSPost2010PropOp51
 70
     0
102
RTVSPost2010Prop52
140
1.0
102
RTVSPost2010PropOp52
 70
     0
102
RTVSPost2010Prop53
 90
        2
102
RTVSPost2010PropOp53
 70
     1
102
RTVSPost2010Prop54
  1
strokes_ogs.tif
102
RTVSPost2010PropOp54
 70
     1
102
RTVSPost2010Prop55
280
     0
102
RTVSPost2010PropOp55
 70
     1
102
RTVSPost2010Prop56
140
1.0
102
RTVSPost2010PropOp56
 70
     1
102
RTVSPost2010Prop57
140
1.0
102
RTVSPost2010PropOp57
 70
     1
102
RTVSPropertyOp0
 70
     1
102
RTVSPropertyOp1
 70
     1
102
RTVSPropertyOp2
 70
     1
102
RTVSPropertyOp3
 70
     1
102
RTVSPropertyOp4
 70
     1
102
RTVSPropertyOp5
 70
     1
102
RTVSPropertyOp6
 70
     1
102
RTVSPropertyOp7
 70
     1
102
RTVSPropertyOp8
 70
     1
102
RTVSPropertyOp9
 70
     1
102
RTVSPropertyOp10
 70
     1
102
RTVSPropertyOp11
 70
     1
102
RTVSPropertyOp12
 70
     1
102
RTVSPropertyOp13
 70
     1
102
RTVSPropertyOp14
 70
     1
102
RTVSPropertyOp15
 70
     1
102
RTVSPropertyOp16
 70
     1
102
RTVSPropertyOp17
 70
     1
102
RTVSPropertyOp18
 70
     1
102
RTVSPropertyOp19
 70
     1
102
RTVSPropertyOp20
 70
     1
102
RTVSPropertyOp21
 70
     1
102
RTVSPropertyOp22
 70
     1
102
RTVSPropertyOp23
 70
     1
102
RTVSPropertyOp24
 70
     1
102
RTVSPropertyOp25
 70
     1
102
RTVSPropertyOp26
 70
     1
102
RTVSPropertyOp27
 70
     1
102
RTVSPropertyOp28
 70
     1
102
RTVSPropertyOp29
 70
     1
102
RTVSPropertyOp30
 70
     1
102
RTVSPropertyOp31
 70
     1
102
RTVSPropertyOp32
 70
     1
102
RTVSPropertyOp33
 70
     1
102
RTVSPropertyOp34
 70
     1
102
RTVSPropertyOp35
 70
     1
102
RTVSPropertyOp36
 70
     1
102
RTVSPropertyOp37
 70
     1
102
RTVSPropertyOp38
 70
     1
102
RTVSPropertyOp39
 70
     1
102
RTVSPropertyOp40
 70
     1
102
RTVSPropertyOp41
 70
     1
102
RTVSPropertyOp42
 70
     1
102
RTVSPropertyOp43
 70
     1
102
RTVSPropertyOp44
 70
     1
102
RTVSPropertyOp45
 70
     1
102
RTVSPropertyOp46
 70
     1
102
RTVSPropertyOp47
 70
     1
102
RTVSPropertyOp48
 70
     1
102
RTVSPropertyOp49
 70
     1
102
RTVSPropertyOp50
 70
     1
102
RTVSPropertyOp51
 70
     0
102
RTVSPropertyOp52
 70
     0
102
RTVSPropertyOp53
 70
     1
102
RTVSPropertyOp54
 70
     1
102
RTVSPropertyOp55
 70
     1
102
RTVSPropertyOp56
 70
     1
102
RTVSPropertyOp57
 70
     1
102
RTVSPropertyOp58
 70
     1
102
RTVSPropertyOp59
 70
     1
102
RTVSPropertyOp60
 70
     1
102
RTVSPropertyOp61
 70
     1
102
RTVSPropertyOp62
 70
     1
  0
XRECORD
  5
58DD
102
{ACAD_REACTORS
330
58DC
102
}
330
58DC
100
AcDbXrecord
280
     1
102
RTVSPost2010Prop28
280
     0
102
RTVSPost2010PropOp28
 70
     1
102
RTVSPost2010Prop29
280
     1
102
RTVSPost2010PropOp29
 70
     1
102
RTVSPost2010Prop30
280
     1
102
RTVSPost2010PropOp30
 70
     1
102
RTVSPost2010Prop31
280
     0
102
RTVSPost2010PropOp31
 70
     1
102
RTVSPost2010Prop32
280
     0
102
RTVSPost2010PropOp32
 70
     1
102
RTVSPost2010Prop33
280
     0
102
RTVSPost2010PropOp33
 70
     1
102
RTVSPost2010Prop34
280
     0
102
RTVSPost2010PropOp34
 70
     1
102
RTVSPost2010Prop35
280
     0
102
RTVSPost2010PropOp35
 70
     1
102
RTVSPost2010Prop36
280
     0
102
RTVSPost2010PropOp36
 70
     1
102
RTVSPost2010Prop37
 90
       50
102
RTVSPost2010PropOp37
 70
     0
102
RTVSPost2010Prop38
140
0.0
102
RTVSPost2010PropOp38
 70
     0
102
RTVSPost2010Prop39
140
1.0
102
RTVSPost2010PropOp39
 70
     0
102
RTVSPost2010Prop40
 90
        0
102
RTVSPost2010PropOp40
 70
     0
102
RTVSPost2010Prop41ColorIndex
 90
       18
102
RTVSPost2010Prop41ColorRGB
 90
-16777216
102
RTVSPost2010PropOp41
 70
     0
102
RTVSPost2010Prop42
 90
       50
102
RTVSPost2010PropOp42
 70
     0
102
RTVSPost2010Prop43
 90
        3
102
RTVSPost2010PropOp43
 70
     0
102
RTVSPost2010Prop44ColorIndex
 90
        5
102
RTVSPost2010Prop44ColorRGB
 90
      255
102
RTVSPost2010PropOp44
 70
     0
102
RTVSPost2010Prop45
280
     0
102
RTVSPost2010PropOp45
 70
     1
102
RTVSPost2010Prop46
 90
       50
102
RTVSPost2010PropOp46
 70
     0
102
RTVSPost2010Prop47
 90
       50
102
RTVSPost2010PropOp47
 70
     0
102
RTVSPost2010Prop48
 90
       50
102
RTVSPost2010PropOp48
 70
     0
102
RTVSPost2010Prop49
280
     0
102
RTVSPost2010PropOp49
 70
     1
102
RTVSPost2010Prop50
 90
       50
102
RTVSPost2010PropOp50
 70
     0
102
RTVSPost2010Prop51ColorIndex
 90
      256
102
RTVSPost2010Prop51ColorRGB
 90
-16777216
102
RTVSPost2010PropOp51
 70
     0
102
RTVSPost2010Prop52
140
1.0
102
RTVSPost2010PropOp52
 70
     0
102
RTVSPost2010Prop53
 90
        2
102
RTVSPost2010PropOp53
 70
     0
102
RTVSPost2010Prop54
  1
strokes_ogs.tif
102
RTVSPost2010PropOp54
 70
     0
102
RTVSPost2010Prop55
280
     0
102
RTVSPost2010PropOp55
 70
     1
102
RTVSPost2010Prop56
140
1.0
102
RTVSPost2010PropOp56
 70
     0
102
RTVSPost2010Prop57
140
1.0
102
RTVSPost2010PropOp57
 70
     0
102
RTVSPropertyOp0
 70
     0
102
RTVSPropertyOp1
 70
     0
102
RTVSPropertyOp2
 70
     0
102
RTVSPropertyOp3
 70
     0
102
RTVSPropertyOp4
 70
     0
102
RTVSPropertyOp5
 70
     0
102
RTVSPropertyOp6
 70
     0
102
RTVSPropertyOp7
 70
     0
102
RTVSPropertyOp8
 70
     0
102
RTVSPropertyOp9
 70
     0
102
RTVSPropertyOp10
 70
     0
102
RTVSPropertyOp11
 70
     0
102
RTVSPropertyOp12
 70
     0
102
RTVSPropertyOp13
 70
     0
102
RTVSPropertyOp14
 70
     2
102
RTVSPropertyOp15
 70
     0
102
RTVSPropertyOp16
 70
     0
102
RTVSPropertyOp17
 70
     0
102
RTVSPropertyOp18
 70
     0
102
RTVSPropertyOp19
 70
     0
102
RTVSPropertyOp20
 70
     0
102
RTVSPropertyOp21
 70
     0
102
RTVSPropertyOp22
 70
     0
102
RTVSPropertyOp23
 70
     0
102
RTVSPropertyOp24
 70
     0
102
RTVSPropertyOp25
 70
     0
102
RTVSPropertyOp26
 70
     0
102
RTVSPropertyOp27
 70
     0
102
RTVSPropertyOp28
 70
     1
102
RTVSPropertyOp29
 70
     1
102
RTVSPropertyOp30
 70
     1
102
RTVSPropertyOp31
 70
     1
102
RTVSPropertyOp32
 70
     1
102
RTVSPropertyOp33
 70
     1
102
RTVSPropertyOp34
 70
     1
102
RTVSPropertyOp35
 70
     1
102
RTVSPropertyOp36
 70
     1
102
RTVSPropertyOp37
 70
     0
102
RTVSPropertyOp38
 70
     0
102
RTVSPropertyOp39
 70
     0
102
RTVSPropertyOp40
 70
     0
102
RTVSPropertyOp41
 70
     0
102
RTVSPropertyOp42
 70
     0
102
RTVSPropertyOp43
 70
     0
102
RTVSPropertyOp44
 70
     0
102
RTVSPropertyOp45
 70
     1
102
RTVSPropertyOp46
 70
     0
102
RTVSPropertyOp47
 70
     0
102
RTVSPropertyOp48
 70
     0
102
RTVSPropertyOp49
 70
     1
102
RTVSPropertyOp50
 70
     0
102
RTVSPropertyOp51
 70
     0
102
RTVSPropertyOp52
 70
     0
102
RTVSPropertyOp53
 70
     0
102
RTVSPropertyOp54
 70
     0
102
RTVSPropertyOp55
 70
     1
102
RTVSPropertyOp56
 70
     0
102
RTVSPropertyOp57
 70
     0
102
RTVSPropertyOp58
 70
     1
102
RTVSPropertyOp59
 70
     1
102
RTVSPropertyOp60
 70
     1
102
RTVSPropertyOp61
 70
     1
102
RTVSPropertyOp62
 70
     1
  0
XRECORD
  5
58CD
102
{ACAD_REACTORS
330
58CC
102
}
330
58CC
100
AcDbXrecord
280
     1
102
RTVSPost2010Prop28
280
     0
102
RTVSPost2010PropOp28
 70
     1
102
RTVSPost2010Prop29
280
     1
102
RTVSPost2010PropOp29
 70
     1
102
RTVSPost2010Prop30
280
     1
102
RTVSPost2010PropOp30
 70
     1
102
RTVSPost2010Prop31
280
     0
102
RTVSPost2010PropOp31
 70
     1
102
RTVSPost2010Prop32
280
     0
102
RTVSPost2010PropOp32
 70
     1
102
RTVSPost2010Prop33
280
     0
102
RTVSPost2010PropOp33
 70
     1
102
RTVSPost2010Prop34
280
     0
102
RTVSPost2010PropOp34
 70
     1
102
RTVSPost2010Prop35
280
     0
102
RTVSPost2010PropOp35
 70
     1
102
RTVSPost2010Prop36
280
     0
102
RTVSPost2010PropOp36
 70
     1
102
RTVSPost2010Prop37
 90
       50
102
RTVSPost2010PropOp37
 70
     1
102
RTVSPost2010Prop38
140
0.0
102
RTVSPost2010PropOp38
 70
     1
102
RTVSPost2010Prop39
140
1.0
102
RTVSPost2010PropOp39
 70
     1
102
RTVSPost2010Prop40
 90
        0
102
RTVSPost2010PropOp40
 70
     1
102
RTVSPost2010Prop41ColorIndex
 90
       18
102
RTVSPost2010Prop41ColorRGB
 90
-16777216
102
RTVSPost2010PropOp41
 70
     1
102
RTVSPost2010Prop42
 90
       50
102
RTVSPost2010PropOp42
 70
     1
102
RTVSPost2010Prop43
 90
        3
102
RTVSPost2010PropOp43
 70
     1
102
RTVSPost2010Prop44ColorIndex
 90
        5
102
RTVSPost2010Prop44ColorRGB
 90
      255
102
RTVSPost2010PropOp44
 70
     1
102
RTVSPost2010Prop45
280
     0
102
RTVSPost2010PropOp45
 70
     1
102
RTVSPost2010Prop46
 90
       50
102
RTVSPost2010PropOp46
 70
     1
102
RTVSPost2010Prop47
 90
       50
102
RTVSPost2010PropOp47
 70
     1
102
RTVSPost2010Prop48
 90
       50
102
RTVSPost2010PropOp48
 70
     1
102
RTVSPost2010Prop49
280
     0
102
RTVSPost2010PropOp49
 70
     1
102
RTVSPost2010Prop50
 90
       50
102
RTVSPost2010PropOp50
 70
     1
102
RTVSPost2010Prop51ColorIndex
 90
      256
102
RTVSPost2010Prop51ColorRGB
 90
-16777216
102
RTVSPost2010PropOp51
 70
     0
102
RTVSPost2010Prop52
140
1.0
102
RTVSPost2010PropOp52
 70
     0
102
RTVSPost2010Prop53
 90
        2
102
RTVSPost2010PropOp53
 70
     1
102
RTVSPost2010Prop54
  1
strokes_ogs.tif
102
RTVSPost2010PropOp54
 70
     1
102
RTVSPost2010Prop55
280
     0
102
RTVSPost2010PropOp55
 70
     1
102
RTVSPost2010Prop56
140
1.0
102
RTVSPost2010PropOp56
 70
     1
102
RTVSPost2010Prop57
140
1.0
102
RTVSPost2010PropOp57
 70
     1
102
RTVSPropertyOp0
 70
     1
102
RTVSPropertyOp1
 70
     1
102
RTVSPropertyOp2
 70
     1
102
RTVSPropertyOp3
 70
     1
102
RTVSPropertyOp4
 70
     1
102
RTVSPropertyOp5
 70
     1
102
RTVSPropertyOp6
 70
     1
102
RTVSPropertyOp7
 70
     1
102
RTVSPropertyOp8
 70
     1
102
RTVSPropertyOp9
 70
     1
102
RTVSPropertyOp10
 70
     1
102
RTVSPropertyOp11
 70
     1
102
RTVSPropertyOp12
 70
     1
102
RTVSPropertyOp13
 70
     1
102
RTVSPropertyOp14
 70
     1
102
RTVSPropertyOp15
 70
     1
102
RTVSPropertyOp16
 70
     1
102
RTVSPropertyOp17
 70
     1
102
RTVSPropertyOp18
 70
     1
102
RTVSPropertyOp19
 70
     1
102
RTVSPropertyOp20
 70
     1
102
RTVSPropertyOp21
 70
     1
102
RTVSPropertyOp22
 70
     1
102
RTVSPropertyOp23
 70
     1
102
RTVSPropertyOp24
 70
     1
102
RTVSPropertyOp25
 70
     1
102
RTVSPropertyOp26
 70
     1
102
RTVSPropertyOp27
 70
     1
102
RTVSPropertyOp28
 70
     1
102
RTVSPropertyOp29
 70
     1
102
RTVSPropertyOp30
 70
     1
102
RTVSPropertyOp31
 70
     1
102
RTVSPropertyOp32
 70
     1
102
RTVSPropertyOp33
 70
     1
102
RTVSPropertyOp34
 70
     1
102
RTVSPropertyOp35
 70
     1
102
RTVSPropertyOp36
 70
     1
102
RTVSPropertyOp37
 70
     1
102
RTVSPropertyOp38
 70
     1
102
RTVSPropertyOp39
 70
     1
102
RTVSPropertyOp40
 70
     1
102
RTVSPropertyOp41
 70
     1
102
RTVSPropertyOp42
 70
     1
102
RTVSPropertyOp43
 70
     1
102
RTVSPropertyOp44
 70
     1
102
RTVSPropertyOp45
 70
     1
102
RTVSPropertyOp46
 70
     1
102
RTVSPropertyOp47
 70
     1
102
RTVSPropertyOp48
 70
     1
102
RTVSPropertyOp49
 70
     1
102
RTVSPropertyOp50
 70
     1
102
RTVSPropertyOp51
 70
     0
102
RTVSPropertyOp52
 70
     0
102
RTVSPropertyOp53
 70
     1
102
RTVSPropertyOp54
 70
     1
102
RTVSPropertyOp55
 70
     1
102
RTVSPropertyOp56
 70
     1
102
RTVSPropertyOp57
 70
     1
102
RTVSPropertyOp58
 70
     1
102
RTVSPropertyOp59
 70
     1
102
RTVSPropertyOp60
 70
     1
102
RTVSPropertyOp61
 70
     1
102
RTVSPropertyOp62
 70
     1
  0
XRECORD
  5
58DF
102
{ACAD_REACTORS
330
58DE
102
}
330
58DE
100
AcDbXrecord
280
     1
102
RTVSPost2010Prop28
280
     0
102
RTVSPost2010PropOp28
 70
     1
102
RTVSPost2010Prop29
280
     1
102
RTVSPost2010PropOp29
 70
     1
102
RTVSPost2010Prop30
280
     1
102
RTVSPost2010PropOp30
 70
     1
102
RTVSPost2010Prop31
280
     0
102
RTVSPost2010PropOp31
 70
     1
102
RTVSPost2010Prop32
280
     0
102
RTVSPost2010PropOp32
 70
     1
102
RTVSPost2010Prop33
280
     0
102
RTVSPost2010PropOp33
 70
     1
102
RTVSPost2010Prop34
280
     0
102
RTVSPost2010PropOp34
 70
     1
102
RTVSPost2010Prop35
280
     0
102
RTVSPost2010PropOp35
 70
     1
102
RTVSPost2010Prop36
280
     0
102
RTVSPost2010PropOp36
 70
     1
102
RTVSPost2010Prop37
 90
       50
102
RTVSPost2010PropOp37
 70
     0
102
RTVSPost2010Prop38
140
0.0
102
RTVSPost2010PropOp38
 70
     0
102
RTVSPost2010Prop39
140
1.0
102
RTVSPost2010PropOp39
 70
     0
102
RTVSPost2010Prop40
 90
        0
102
RTVSPost2010PropOp40
 70
     0
102
RTVSPost2010Prop41ColorIndex
 90
       18
102
RTVSPost2010Prop41ColorRGB
 90
-16777216
102
RTVSPost2010PropOp41
 70
     0
102
RTVSPost2010Prop42
 90
       50
102
RTVSPost2010PropOp42
 70
     0
102
RTVSPost2010Prop43
 90
        3
102
RTVSPost2010PropOp43
 70
     0
102
RTVSPost2010Prop44ColorIndex
 90
        5
102
RTVSPost2010Prop44ColorRGB
 90
      255
102
RTVSPost2010PropOp44
 70
     0
102
RTVSPost2010Prop45
280
     0
102
RTVSPost2010PropOp45
 70
     1
102
RTVSPost2010Prop46
 90
       50
102
RTVSPost2010PropOp46
 70
     0
102
RTVSPost2010Prop47
 90
       50
102
RTVSPost2010PropOp47
 70
     0
102
RTVSPost2010Prop48
 90
       50
102
RTVSPost2010PropOp48
 70
     0
102
RTVSPost2010Prop49
280
     0
102
RTVSPost2010PropOp49
 70
     1
102
RTVSPost2010Prop50
 90
       50
102
RTVSPost2010PropOp50
 70
     0
102
RTVSPost2010Prop51ColorIndex
 90
      256
102
RTVSPost2010Prop51ColorRGB
 90
-16777216
102
RTVSPost2010PropOp51
 70
     0
102
RTVSPost2010Prop52
140
1.0
102
RTVSPost2010PropOp52
 70
     0
102
RTVSPost2010Prop53
 90
        2
102
RTVSPost2010PropOp53
 70
     0
102
RTVSPost2010Prop54
  1
strokes_ogs.tif
102
RTVSPost2010PropOp54
 70
     0
102
RTVSPost2010Prop55
280
     0
102
RTVSPost2010PropOp55
 70
     1
102
RTVSPost2010Prop56
140
1.0
102
RTVSPost2010PropOp56
 70
     0
102
RTVSPost2010Prop57
140
1.0
102
RTVSPost2010PropOp57
 70
     0
102
RTVSPropertyOp0
 70
     0
102
RTVSPropertyOp1
 70
     0
102
RTVSPropertyOp2
 70
     0
102
RTVSPropertyOp3
 70
     0
102
RTVSPropertyOp4
 70
     0
102
RTVSPropertyOp5
 70
     0
102
RTVSPropertyOp6
 70
     0
102
RTVSPropertyOp7
 70
     0
102
RTVSPropertyOp8
 70
     0
102
RTVSPropertyOp9
 70
     0
102
RTVSPropertyOp10
 70
     0
102
RTVSPropertyOp11
 70
     0
102
RTVSPropertyOp12
 70
     0
102
RTVSPropertyOp13
 70
     0
102
RTVSPropertyOp14
 70
     2
102
RTVSPropertyOp15
 70
     0
102
RTVSPropertyOp16
 70
     0
102
RTVSPropertyOp17
 70
     0
102
RTVSPropertyOp18
 70
     0
102
RTVSPropertyOp19
 70
     0
102
RTVSPropertyOp20
 70
     0
102
RTVSPropertyOp21
 70
     0
102
RTVSPropertyOp22
 70
     0
102
RTVSPropertyOp23
 70
     0
102
RTVSPropertyOp24
 70
     0
102
RTVSPropertyOp25
 70
     0
102
RTVSPropertyOp26
 70
     0
102
RTVSPropertyOp27
 70
     0
102
RTVSPropertyOp28
 70
     1
102
RTVSPropertyOp29
 70
     1
102
RTVSPropertyOp30
 70
     1
102
RTVSPropertyOp31
 70
     1
102
RTVSPropertyOp32
 70
     1
102
RTVSPropertyOp33
 70
     1
102
RTVSPropertyOp34
 70
     1
102
RTVSPropertyOp35
 70
     1
102
RTVSPropertyOp36
 70
     1
102
RTVSPropertyOp37
 70
     0
102
RTVSPropertyOp38
 70
     0
102
RTVSPropertyOp39
 70
     0
102
RTVSPropertyOp40
 70
     0
102
RTVSPropertyOp41
 70
     0
102
RTVSPropertyOp42
 70
     0
102
RTVSPropertyOp43
 70
     0
102
RTVSPropertyOp44
 70
     0
102
RTVSPropertyOp45
 70
     1
102
RTVSPropertyOp46
 70
     0
102
RTVSPropertyOp47
 70
     0
102
RTVSPropertyOp48
 70
     0
102
RTVSPropertyOp49
 70
     1
102
RTVSPropertyOp50
 70
     0
102
RTVSPropertyOp51
 70
     0
102
RTVSPropertyOp52
 70
     0
102
RTVSPropertyOp53
 70
     0
102
RTVSPropertyOp54
 70
     0
102
RTVSPropertyOp55
 70
     1
102
RTVSPropertyOp56
 70
     0
102
RTVSPropertyOp57
 70
     0
102
RTVSPropertyOp58
 70
     1
102
RTVSPropertyOp59
 70
     1
102
RTVSPropertyOp60
 70
     1
102
RTVSPropertyOp61
 70
     1
102
RTVSPropertyOp62
 70
     1
  0
XRECORD
  5
58C5
102
{ACAD_REACTORS
330
58C4
102
}
330
58C4
100
AcDbXrecord
280
     1
102
RTVSPost2010Prop28
280
     0
102
RTVSPost2010PropOp28
 70
     1
102
RTVSPost2010Prop29
280
     1
102
RTVSPost2010PropOp29
 70
     1
102
RTVSPost2010Prop30
280
     1
102
RTVSPost2010PropOp30
 70
     1
102
RTVSPost2010Prop31
280
     0
102
RTVSPost2010PropOp31
 70
     1
102
RTVSPost2010Prop32
280
     0
102
RTVSPost2010PropOp32
 70
     1
102
RTVSPost2010Prop33
280
     0
102
RTVSPost2010PropOp33
 70
     1
102
RTVSPost2010Prop34
280
     0
102
RTVSPost2010PropOp34
 70
     1
102
RTVSPost2010Prop35
280
     0
102
RTVSPost2010PropOp35
 70
     1
102
RTVSPost2010Prop36
280
     0
102
RTVSPost2010PropOp36
 70
     1
102
RTVSPost2010Prop37
 90
       50
102
RTVSPost2010PropOp37
 70
     1
102
RTVSPost2010Prop38
140
0.0
102
RTVSPost2010PropOp38
 70
     1
102
RTVSPost2010Prop39
140
1.0
102
RTVSPost2010PropOp39
 70
     1
102
RTVSPost2010Prop40
 90
        0
102
RTVSPost2010PropOp40
 70
     1
102
RTVSPost2010Prop41ColorIndex
 90
       18
102
RTVSPost2010Prop41ColorRGB
 90
-16777216
102
RTVSPost2010PropOp41
 70
     1
102
RTVSPost2010Prop42
 90
       50
102
RTVSPost2010PropOp42
 70
     1
102
RTVSPost2010Prop43
 90
        3
102
RTVSPost2010PropOp43
 70
     1
102
RTVSPost2010Prop44ColorIndex
 90
        5
102
RTVSPost2010Prop44ColorRGB
 90
      255
102
RTVSPost2010PropOp44
 70
     1
102
RTVSPost2010Prop45
280
     0
102
RTVSPost2010PropOp45
 70
     1
102
RTVSPost2010Prop46
 90
       50
102
RTVSPost2010PropOp46
 70
     1
102
RTVSPost2010Prop47
 90
       50
102
RTVSPost2010PropOp47
 70
     1
102
RTVSPost2010Prop48
 90
       50
102
RTVSPost2010PropOp48
 70
     1
102
RTVSPost2010Prop49
280
     0
102
RTVSPost2010PropOp49
 70
     1
102
RTVSPost2010Prop50
 90
       50
102
RTVSPost2010PropOp50
 70
     1
102
RTVSPost2010Prop51ColorIndex
 90
      256
102
RTVSPost2010Prop51ColorRGB
 90
-16777216
102
RTVSPost2010PropOp51
 70
     0
102
RTVSPost2010Prop52
140
1.0
102
RTVSPost2010PropOp52
 70
     0
102
RTVSPost2010Prop53
 90
        2
102
RTVSPost2010PropOp53
 70
     1
102
RTVSPost2010Prop54
  1
strokes_ogs.tif
102
RTVSPost2010PropOp54
 70
     1
102
RTVSPost2010Prop55
280
     0
102
RTVSPost2010PropOp55
 70
     1
102
RTVSPost2010Prop56
140
1.0
102
RTVSPost2010PropOp56
 70
     1
102
RTVSPost2010Prop57
140
1.0
102
RTVSPost2010PropOp57
 70
     1
102
RTVSPropertyOp0
 70
     1
102
RTVSPropertyOp1
 70
     1
102
RTVSPropertyOp2
 70
     1
102
RTVSPropertyOp3
 70
     1
102
RTVSPropertyOp4
 70
     1
102
RTVSPropertyOp5
 70
     1
102
RTVSPropertyOp6
 70
     1
102
RTVSPropertyOp7
 70
     1
102
RTVSPropertyOp8
 70
     1
102
RTVSPropertyOp9
 70
     1
102
RTVSPropertyOp10
 70
     1
102
RTVSPropertyOp11
 70
     1
102
RTVSPropertyOp12
 70
     1
102
RTVSPropertyOp13
 70
     1
102
RTVSPropertyOp14
 70
     1
102
RTVSPropertyOp15
 70
     1
102
RTVSPropertyOp16
 70
     1
102
RTVSPropertyOp17
 70
     1
102
RTVSPropertyOp18
 70
     1
102
RTVSPropertyOp19
 70
     1
102
RTVSPropertyOp20
 70
     1
102
RTVSPropertyOp21
 70
     1
102
RTVSPropertyOp22
 70
     1
102
RTVSPropertyOp23
 70
     1
102
RTVSPropertyOp24
 70
     1
102
RTVSPropertyOp25
 70
     1
102
RTVSPropertyOp26
 70
     1
102
RTVSPropertyOp27
 70
     1
102
RTVSPropertyOp28
 70
     1
102
RTVSPropertyOp29
 70
     1
102
RTVSPropertyOp30
 70
     1
102
RTVSPropertyOp31
 70
     1
102
RTVSPropertyOp32
 70
     1
102
RTVSPropertyOp33
 70
     1
102
RTVSPropertyOp34
 70
     1
102
RTVSPropertyOp35
 70
     1
102
RTVSPropertyOp36
 70
     1
102
RTVSPropertyOp37
 70
     1
102
RTVSPropertyOp38
 70
     1
102
RTVSPropertyOp39
 70
     1
102
RTVSPropertyOp40
 70
     1
102
RTVSPropertyOp41
 70
     1
102
RTVSPropertyOp42
 70
     1
102
RTVSPropertyOp43
 70
     1
102
RTVSPropertyOp44
 70
     1
102
RTVSPropertyOp45
 70
     1
102
RTVSPropertyOp46
 70
     1
102
RTVSPropertyOp47
 70
     1
102
RTVSPropertyOp48
 70
     1
102
RTVSPropertyOp49
 70
     1
102
RTVSPropertyOp50
 70
     1
102
RTVSPropertyOp51
 70
     0
102
RTVSPropertyOp52
 70
     0
102
RTVSPropertyOp53
 70
     1
102
RTVSPropertyOp54
 70
     1
102
RTVSPropertyOp55
 70
     1
102
RTVSPropertyOp56
 70
     1
102
RTVSPropertyOp57
 70
     1
102
RTVSPropertyOp58
 70
     1
102
RTVSPropertyOp59
 70
     1
102
RTVSPropertyOp60
 70
     1
102
RTVSPropertyOp61
 70
     1
102
RTVSPropertyOp62
 70
     1
  0
XRECORD
  5
58DB
102
{ACAD_REACTORS
330
58DA
102
}
330
58DA
100
AcDbXrecord
280
     1
102
RTVSPost2010Prop28
280
     0
102
RTVSPost2010PropOp28
 70
     1
102
RTVSPost2010Prop29
280
     1
102
RTVSPost2010PropOp29
 70
     1
102
RTVSPost2010Prop30
280
     1
102
RTVSPost2010PropOp30
 70
     1
102
RTVSPost2010Prop31
280
     0
102
RTVSPost2010PropOp31
 70
     1
102
RTVSPost2010Prop32
280
     0
102
RTVSPost2010PropOp32
 70
     1
102
RTVSPost2010Prop33
280
     0
102
RTVSPost2010PropOp33
 70
     1
102
RTVSPost2010Prop34
280
     0
102
RTVSPost2010PropOp34
 70
     1
102
RTVSPost2010Prop35
280
     0
102
RTVSPost2010PropOp35
 70
     1
102
RTVSPost2010Prop36
280
     0
102
RTVSPost2010PropOp36
 70
     1
102
RTVSPost2010Prop37
 90
       50
102
RTVSPost2010PropOp37
 70
     1
102
RTVSPost2010Prop38
140
0.0
102
RTVSPost2010PropOp38
 70
     1
102
RTVSPost2010Prop39
140
1.0
102
RTVSPost2010PropOp39
 70
     1
102
RTVSPost2010Prop40
 90
        0
102
RTVSPost2010PropOp40
 70
     1
102
RTVSPost2010Prop41ColorIndex
 90
       18
102
RTVSPost2010Prop41ColorRGB
 90
-16777216
102
RTVSPost2010PropOp41
 70
     1
102
RTVSPost2010Prop42
 90
       50
102
RTVSPost2010PropOp42
 70
     1
102
RTVSPost2010Prop43
 90
        3
102
RTVSPost2010PropOp43
 70
     1
102
RTVSPost2010Prop44ColorIndex
 90
        5
102
RTVSPost2010Prop44ColorRGB
 90
      255
102
RTVSPost2010PropOp44
 70
     1
102
RTVSPost2010Prop45
280
     0
102
RTVSPost2010PropOp45
 70
     1
102
RTVSPost2010Prop46
 90
       50
102
RTVSPost2010PropOp46
 70
     1
102
RTVSPost2010Prop47
 90
       50
102
RTVSPost2010PropOp47
 70
     1
102
RTVSPost2010Prop48
 90
       50
102
RTVSPost2010PropOp48
 70
     1
102
RTVSPost2010Prop49
280
     0
102
RTVSPost2010PropOp49
 70
     1
102
RTVSPost2010Prop50
 90
       50
102
RTVSPost2010PropOp50
 70
     1
102
RTVSPost2010Prop51ColorIndex
 90
      256
102
RTVSPost2010Prop51ColorRGB
 90
-16777216
102
RTVSPost2010PropOp51
 70
     0
102
RTVSPost2010Prop52
140
1.0
102
RTVSPost2010PropOp52
 70
     0
102
RTVSPost2010Prop53
 90
        2
102
RTVSPost2010PropOp53
 70
     1
102
RTVSPost2010Prop54
  1
strokes_ogs.tif
102
RTVSPost2010PropOp54
 70
     1
102
RTVSPost2010Prop55
280
     0
102
RTVSPost2010PropOp55
 70
     1
102
RTVSPost2010Prop56
140
1.0
102
RTVSPost2010PropOp56
 70
     1
102
RTVSPost2010Prop57
140
1.0
102
RTVSPost2010PropOp57
 70
     1
102
RTVSPropertyOp0
 70
     1
102
RTVSPropertyOp1
 70
     1
102
RTVSPropertyOp2
 70
     1
102
RTVSPropertyOp3
 70
     1
102
RTVSPropertyOp4
 70
     1
102
RTVSPropertyOp5
 70
     1
102
RTVSPropertyOp6
 70
     1
102
RTVSPropertyOp7
 70
     1
102
RTVSPropertyOp8
 70
     1
102
RTVSPropertyOp9
 70
     1
102
RTVSPropertyOp10
 70
     1
102
RTVSPropertyOp11
 70
     1
102
RTVSPropertyOp12
 70
     1
102
RTVSPropertyOp13
 70
     1
102
RTVSPropertyOp14
 70
     1
102
RTVSPropertyOp15
 70
     1
102
RTVSPropertyOp16
 70
     1
102
RTVSPropertyOp17
 70
     1
102
RTVSPropertyOp18
 70
     1
102
RTVSPropertyOp19
 70
     1
102
RTVSPropertyOp20
 70
     1
102
RTVSPropertyOp21
 70
     1
102
RTVSPropertyOp22
 70
     1
102
RTVSPropertyOp23
 70
     1
102
RTVSPropertyOp24
 70
     1
102
RTVSPropertyOp25
 70
     1
102
RTVSPropertyOp26
 70
     1
102
RTVSPropertyOp27
 70
     1
102
RTVSPropertyOp28
 70
     1
102
RTVSPropertyOp29
 70
     1
102
RTVSPropertyOp30
 70
     1
102
RTVSPropertyOp31
 70
     1
102
RTVSPropertyOp32
 70
     1
102
RTVSPropertyOp33
 70
     1
102
RTVSPropertyOp34
 70
     1
102
RTVSPropertyOp35
 70
     1
102
RTVSPropertyOp36
 70
     1
102
RTVSPropertyOp37
 70
     1
102
RTVSPropertyOp38
 70
     1
102
RTVSPropertyOp39
 70
     1
102
RTVSPropertyOp40
 70
     1
102
RTVSPropertyOp41
 70
     1
102
RTVSPropertyOp42
 70
     1
102
RTVSPropertyOp43
 70
     1
102
RTVSPropertyOp44
 70
     1
102
RTVSPropertyOp45
 70
     1
102
RTVSPropertyOp46
 70
     1
102
RTVSPropertyOp47
 70
     1
102
RTVSPropertyOp48
 70
     1
102
RTVSPropertyOp49
 70
     1
102
RTVSPropertyOp50
 70
     1
102
RTVSPropertyOp51
 70
     0
102
RTVSPropertyOp52
 70
     0
102
RTVSPropertyOp53
 70
     1
102
RTVSPropertyOp54
 70
     1
102
RTVSPropertyOp55
 70
     1
102
RTVSPropertyOp56
 70
     1
102
RTVSPropertyOp57
 70
     1
102
RTVSPropertyOp58
 70
     1
102
RTVSPropertyOp59
 70
     1
102
RTVSPropertyOp60
 70
     1
102
RTVSPropertyOp61
 70
     1
102
RTVSPropertyOp62
 70
     1
  0
XRECORD
  5
58D9
102
{ACAD_REACTORS
330
58D8
102
}
330
58D8
100
AcDbXrecord
280
     1
102
RTVSPost2010Prop28
280
     0
102
RTVSPost2010PropOp28
 70
     1
102
RTVSPost2010Prop29
280
     1
102
RTVSPost2010PropOp29
 70
     1
102
RTVSPost2010Prop30
280
     1
102
RTVSPost2010PropOp30
 70
     1
102
RTVSPost2010Prop31
280
     0
102
RTVSPost2010PropOp31
 70
     1
102
RTVSPost2010Prop32
280
     0
102
RTVSPost2010PropOp32
 70
     1
102
RTVSPost2010Prop33
280
     0
102
RTVSPost2010PropOp33
 70
     1
102
RTVSPost2010Prop34
280
     0
102
RTVSPost2010PropOp34
 70
     1
102
RTVSPost2010Prop35
280
     0
102
RTVSPost2010PropOp35
 70
     1
102
RTVSPost2010Prop36
280
     0
102
RTVSPost2010PropOp36
 70
     1
102
RTVSPost2010Prop37
 90
       50
102
RTVSPost2010PropOp37
 70
     1
102
RTVSPost2010Prop38
140
0.0
102
RTVSPost2010PropOp38
 70
     1
102
RTVSPost2010Prop39
140
1.0
102
RTVSPost2010PropOp39
 70
     1
102
RTVSPost2010Prop40
 90
        0
102
RTVSPost2010PropOp40
 70
     1
102
RTVSPost2010Prop41ColorIndex
 90
       18
102
RTVSPost2010Prop41ColorRGB
 90
-16777216
102
RTVSPost2010PropOp41
 70
     1
102
RTVSPost2010Prop42
 90
       50
102
RTVSPost2010PropOp42
 70
     1
102
RTVSPost2010Prop43
 90
        3
102
RTVSPost2010PropOp43
 70
     1
102
RTVSPost2010Prop44ColorIndex
 90
        5
102
RTVSPost2010Prop44ColorRGB
 90
      255
102
RTVSPost2010PropOp44
 70
     1
102
RTVSPost2010Prop45
280
     0
102
RTVSPost2010PropOp45
 70
     1
102
RTVSPost2010Prop46
 90
       50
102
RTVSPost2010PropOp46
 70
     1
102
RTVSPost2010Prop47
 90
       50
102
RTVSPost2010PropOp47
 70
     1
102
RTVSPost2010Prop48
 90
       50
102
RTVSPost2010PropOp48
 70
     1
102
RTVSPost2010Prop49
280
     0
102
RTVSPost2010PropOp49
 70
     1
102
RTVSPost2010Prop50
 90
       50
102
RTVSPost2010PropOp50
 70
     1
102
RTVSPost2010Prop51ColorIndex
 90
      256
102
RTVSPost2010Prop51ColorRGB
 90
-16777216
102
RTVSPost2010PropOp51
 70
     0
102
RTVSPost2010Prop52
140
1.0
102
RTVSPost2010PropOp52
 70
     0
102
RTVSPost2010Prop53
 90
        2
102
RTVSPost2010PropOp53
 70
     1
102
RTVSPost2010Prop54
  1
strokes_ogs.tif
102
RTVSPost2010PropOp54
 70
     1
102
RTVSPost2010Prop55
280
     0
102
RTVSPost2010PropOp55
 70
     1
102
RTVSPost2010Prop56
140
1.0
102
RTVSPost2010PropOp56
 70
     1
102
RTVSPost2010Prop57
140
1.0
102
RTVSPost2010PropOp57
 70
     1
102
RTVSPropertyOp0
 70
     1
102
RTVSPropertyOp1
 70
     1
102
RTVSPropertyOp2
 70
     1
102
RTVSPropertyOp3
 70
     1
102
RTVSPropertyOp4
 70
     1
102
RTVSPropertyOp5
 70
     1
102
RTVSPropertyOp6
 70
     1
102
RTVSPropertyOp7
 70
     1
102
RTVSPropertyOp8
 70
     1
102
RTVSPropertyOp9
 70
     1
102
RTVSPropertyOp10
 70
     1
102
RTVSPropertyOp11
 70
     1
102
RTVSPropertyOp12
 70
     1
102
RTVSPropertyOp13
 70
     1
102
RTVSPropertyOp14
 70
     1
102
RTVSPropertyOp15
 70
     1
102
RTVSPropertyOp16
 70
     1
102
RTVSPropertyOp17
 70
     1
102
RTVSPropertyOp18
 70
     1
102
RTVSPropertyOp19
 70
     1
102
RTVSPropertyOp20
 70
     1
102
RTVSPropertyOp21
 70
     1
102
RTVSPropertyOp22
 70
     1
102
RTVSPropertyOp23
 70
     1
102
RTVSPropertyOp24
 70
     1
102
RTVSPropertyOp25
 70
     1
102
RTVSPropertyOp26
 70
     1
102
RTVSPropertyOp27
 70
     1
102
RTVSPropertyOp28
 70
     1
102
RTVSPropertyOp29
 70
     1
102
RTVSPropertyOp30
 70
     1
102
RTVSPropertyOp31
 70
     1
102
RTVSPropertyOp32
 70
     1
102
RTVSPropertyOp33
 70
     1
102
RTVSPropertyOp34
 70
     1
102
RTVSPropertyOp35
 70
     1
102
RTVSPropertyOp36
 70
     1
102
RTVSPropertyOp37
 70
     1
102
RTVSPropertyOp38
 70
     1
102
RTVSPropertyOp39
 70
     1
102
RTVSPropertyOp40
 70
     1
102
RTVSPropertyOp41
 70
     1
102
RTVSPropertyOp42
 70
     1
102
RTVSPropertyOp43
 70
     1
102
RTVSPropertyOp44
 70
     1
102
RTVSPropertyOp45
 70
     1
102
RTVSPropertyOp46
 70
     1
102
RTVSPropertyOp47
 70
     1
102
RTVSPropertyOp48
 70
     1
102
RTVSPropertyOp49
 70
     1
102
RTVSPropertyOp50
 70
     1
102
RTVSPropertyOp51
 70
     0
102
RTVSPropertyOp52
 70
     0
102
RTVSPropertyOp53
 70
     1
102
RTVSPropertyOp54
 70
     1
102
RTVSPropertyOp55
 70
     1
102
RTVSPropertyOp56
 70
     1
102
RTVSPropertyOp57
 70
     1
102
RTVSPropertyOp58
 70
     1
102
RTVSPropertyOp59
 70
     1
102
RTVSPropertyOp60
 70
     1
102
RTVSPropertyOp61
 70
     1
102
RTVSPropertyOp62
 70
     1
  0
XRECORD
  5
58D3
102
{ACAD_REACTORS
330
58D2
102
}
330
58D2
100
AcDbXrecord
280
     1
102
RTVSPost2010Prop28
280
     0
102
RTVSPost2010PropOp28
 70
     1
102
RTVSPost2010Prop29
280
     1
102
RTVSPost2010PropOp29
 70
     1
102
RTVSPost2010Prop30
280
     1
102
RTVSPost2010PropOp30
 70
     1
102
RTVSPost2010Prop31
280
     0
102
RTVSPost2010PropOp31
 70
     1
102
RTVSPost2010Prop32
280
     0
102
RTVSPost2010PropOp32
 70
     1
102
RTVSPost2010Prop33
280
     0
102
RTVSPost2010PropOp33
 70
     1
102
RTVSPost2010Prop34
280
     0
102
RTVSPost2010PropOp34
 70
     1
102
RTVSPost2010Prop35
280
     0
102
RTVSPost2010PropOp35
 70
     1
102
RTVSPost2010Prop36
280
     0
102
RTVSPost2010PropOp36
 70
     1
102
RTVSPost2010Prop37
 90
       50
102
RTVSPost2010PropOp37
 70
     1
102
RTVSPost2010Prop38
140
0.0
102
RTVSPost2010PropOp38
 70
     1
102
RTVSPost2010Prop39
140
1.0
102
RTVSPost2010PropOp39
 70
     1
102
RTVSPost2010Prop40
 90
        0
102
RTVSPost2010PropOp40
 70
     1
102
RTVSPost2010Prop41ColorIndex
 90
       18
102
RTVSPost2010Prop41ColorRGB
 90
-16777216
102
RTVSPost2010PropOp41
 70
     1
102
RTVSPost2010Prop42
 90
       50
102
RTVSPost2010PropOp42
 70
     1
102
RTVSPost2010Prop43
 90
        3
102
RTVSPost2010PropOp43
 70
     1
102
RTVSPost2010Prop44ColorIndex
 90
        5
102
RTVSPost2010Prop44ColorRGB
 90
      255
102
RTVSPost2010PropOp44
 70
     1
102
RTVSPost2010Prop45
280
     0
102
RTVSPost2010PropOp45
 70
     1
102
RTVSPost2010Prop46
 90
       50
102
RTVSPost2010PropOp46
 70
     1
102
RTVSPost2010Prop47
 90
       50
102
RTVSPost2010PropOp47
 70
     1
102
RTVSPost2010Prop48
 90
       50
102
RTVSPost2010PropOp48
 70
     1
102
RTVSPost2010Prop49
280
     0
102
RTVSPost2010PropOp49
 70
     1
102
RTVSPost2010Prop50
 90
       50
102
RTVSPost2010PropOp50
 70
     1
102
RTVSPost2010Prop51ColorIndex
 90
      256
102
RTVSPost2010Prop51ColorRGB
 90
-16777216
102
RTVSPost2010PropOp51
 70
     0
102
RTVSPost2010Prop52
140
1.0
102
RTVSPost2010PropOp52
 70
     0
102
RTVSPost2010Prop53
 90
        2
102
RTVSPost2010PropOp53
 70
     1
102
RTVSPost2010Prop54
  1
strokes_ogs.tif
102
RTVSPost2010PropOp54
 70
     1
102
RTVSPost2010Prop55
280
     0
102
RTVSPost2010PropOp55
 70
     1
102
RTVSPost2010Prop56
140
1.0
102
RTVSPost2010PropOp56
 70
     1
102
RTVSPost2010Prop57
140
1.0
102
RTVSPost2010PropOp57
 70
     1
102
RTVSPropertyOp0
 70
     1
102
RTVSPropertyOp1
 70
     1
102
RTVSPropertyOp2
 70
     1
102
RTVSPropertyOp3
 70
     1
102
RTVSPropertyOp4
 70
     1
102
RTVSPropertyOp5
 70
     1
102
RTVSPropertyOp6
 70
     1
102
RTVSPropertyOp7
 70
     1
102
RTVSPropertyOp8
 70
     1
102
RTVSPropertyOp9
 70
     1
102
RTVSPropertyOp10
 70
     1
102
RTVSPropertyOp11
 70
     1
102
RTVSPropertyOp12
 70
     1
102
RTVSPropertyOp13
 70
     1
102
RTVSPropertyOp14
 70
     1
102
RTVSPropertyOp15
 70
     1
102
RTVSPropertyOp16
 70
     1
102
RTVSPropertyOp17
 70
     1
102
RTVSPropertyOp18
 70
     1
102
RTVSPropertyOp19
 70
     1
102
RTVSPropertyOp20
 70
     1
102
RTVSPropertyOp21
 70
     1
102
RTVSPropertyOp22
 70
     1
102
RTVSPropertyOp23
 70
     1
102
RTVSPropertyOp24
 70
     1
102
RTVSPropertyOp25
 70
     1
102
RTVSPropertyOp26
 70
     1
102
RTVSPropertyOp27
 70
     1
102
RTVSPropertyOp28
 70
     1
102
RTVSPropertyOp29
 70
     1
102
RTVSPropertyOp30
 70
     1
102
RTVSPropertyOp31
 70
     1
102
RTVSPropertyOp32
 70
     1
102
RTVSPropertyOp33
 70
     1
102
RTVSPropertyOp34
 70
     1
102
RTVSPropertyOp35
 70
     1
102
RTVSPropertyOp36
 70
     1
102
RTVSPropertyOp37
 70
     1
102
RTVSPropertyOp38
 70
     1
102
RTVSPropertyOp39
 70
     1
102
RTVSPropertyOp40
 70
     1
102
RTVSPropertyOp41
 70
     1
102
RTVSPropertyOp42
 70
     1
102
RTVSPropertyOp43
 70
     1
102
RTVSPropertyOp44
 70
     1
102
RTVSPropertyOp45
 70
     1
102
RTVSPropertyOp46
 70
     1
102
RTVSPropertyOp47
 70
     1
102
RTVSPropertyOp48
 70
     1
102
RTVSPropertyOp49
 70
     1
102
RTVSPropertyOp50
 70
     1
102
RTVSPropertyOp51
 70
     0
102
RTVSPropertyOp52
 70
     0
102
RTVSPropertyOp53
 70
     1
102
RTVSPropertyOp54
 70
     1
102
RTVSPropertyOp55
 70
     1
102
RTVSPropertyOp56
 70
     1
102
RTVSPropertyOp57
 70
     1
102
RTVSPropertyOp58
 70
     1
102
RTVSPropertyOp59
 70
     1
102
RTVSPropertyOp60
 70
     1
102
RTVSPropertyOp61
 70
     1
102
RTVSPropertyOp62
 70
     1
  0
XRECORD
  5
58D5
102
{ACAD_REACTORS
330
58D4
102
}
330
58D4
100
AcDbXrecord
280
     1
102
RTVSPost2010Prop28
280
     0
102
RTVSPost2010PropOp28
 70
     1
102
RTVSPost2010Prop29
280
     1
102
RTVSPost2010PropOp29
 70
     1
102
RTVSPost2010Prop30
280
     1
102
RTVSPost2010PropOp30
 70
     1
102
RTVSPost2010Prop31
280
     0
102
RTVSPost2010PropOp31
 70
     1
102
RTVSPost2010Prop32
280
     0
102
RTVSPost2010PropOp32
 70
     1
102
RTVSPost2010Prop33
280
     0
102
RTVSPost2010PropOp33
 70
     1
102
RTVSPost2010Prop34
280
     0
102
RTVSPost2010PropOp34
 70
     1
102
RTVSPost2010Prop35
280
     0
102
RTVSPost2010PropOp35
 70
     1
102
RTVSPost2010Prop36
280
     0
102
RTVSPost2010PropOp36
 70
     1
102
RTVSPost2010Prop37
 90
       50
102
RTVSPost2010PropOp37
 70
     1
102
RTVSPost2010Prop38
140
0.0
102
RTVSPost2010PropOp38
 70
     1
102
RTVSPost2010Prop39
140
1.0
102
RTVSPost2010PropOp39
 70
     1
102
RTVSPost2010Prop40
 90
        0
102
RTVSPost2010PropOp40
 70
     1
102
RTVSPost2010Prop41ColorIndex
 90
       18
102
RTVSPost2010Prop41ColorRGB
 90
-16777216
102
RTVSPost2010PropOp41
 70
     1
102
RTVSPost2010Prop42
 90
       50
102
RTVSPost2010PropOp42
 70
     1
102
RTVSPost2010Prop43
 90
        3
102
RTVSPost2010PropOp43
 70
     1
102
RTVSPost2010Prop44ColorIndex
 90
        5
102
RTVSPost2010Prop44ColorRGB
 90
      255
102
RTVSPost2010PropOp44
 70
     1
102
RTVSPost2010Prop45
280
     0
102
RTVSPost2010PropOp45
 70
     1
102
RTVSPost2010Prop46
 90
       50
102
RTVSPost2010PropOp46
 70
     1
102
RTVSPost2010Prop47
 90
       50
102
RTVSPost2010PropOp47
 70
     1
102
RTVSPost2010Prop48
 90
       50
102
RTVSPost2010PropOp48
 70
     1
102
RTVSPost2010Prop49
280
     0
102
RTVSPost2010PropOp49
 70
     1
102
RTVSPost2010Prop50
 90
       50
102
RTVSPost2010PropOp50
 70
     1
102
RTVSPost2010Prop51ColorIndex
 90
      256
102
RTVSPost2010Prop51ColorRGB
 90
-16777216
102
RTVSPost2010PropOp51
 70
     0
102
RTVSPost2010Prop52
140
1.0
102
RTVSPost2010PropOp52
 70
     0
102
RTVSPost2010Prop53
 90
        2
102
RTVSPost2010PropOp53
 70
     1
102
RTVSPost2010Prop54
  1
strokes_ogs.tif
102
RTVSPost2010PropOp54
 70
     1
102
RTVSPost2010Prop55
280
     0
102
RTVSPost2010PropOp55
 70
     1
102
RTVSPost2010Prop56
140
1.0
102
RTVSPost2010PropOp56
 70
     1
102
RTVSPost2010Prop57
140
1.0
102
RTVSPost2010PropOp57
 70
     1
102
RTVSPropertyOp0
 70
     1
102
RTVSPropertyOp1
 70
     1
102
RTVSPropertyOp2
 70
     1
102
RTVSPropertyOp3
 70
     1
102
RTVSPropertyOp4
 70
     1
102
RTVSPropertyOp5
 70
     1
102
RTVSPropertyOp6
 70
     1
102
RTVSPropertyOp7
 70
     1
102
RTVSPropertyOp8
 70
     1
102
RTVSPropertyOp9
 70
     1
102
RTVSPropertyOp10
 70
     1
102
RTVSPropertyOp11
 70
     1
102
RTVSPropertyOp12
 70
     1
102
RTVSPropertyOp13
 70
     1
102
RTVSPropertyOp14
 70
     1
102
RTVSPropertyOp15
 70
     1
102
RTVSPropertyOp16
 70
     1
102
RTVSPropertyOp17
 70
     1
102
RTVSPropertyOp18
 70
     1
102
RTVSPropertyOp19
 70
     1
102
RTVSPropertyOp20
 70
     1
102
RTVSPropertyOp21
 70
     1
102
RTVSPropertyOp22
 70
     1
102
RTVSPropertyOp23
 70
     1
102
RTVSPropertyOp24
 70
     1
102
RTVSPropertyOp25
 70
     1
102
RTVSPropertyOp26
 70
     1
102
RTVSPropertyOp27
 70
     1
102
RTVSPropertyOp28
 70
     1
102
RTVSPropertyOp29
 70
     1
102
RTVSPropertyOp30
 70
     1
102
RTVSPropertyOp31
 70
     1
102
RTVSPropertyOp32
 70
     1
102
RTVSPropertyOp33
 70
     1
102
RTVSPropertyOp34
 70
     1
102
RTVSPropertyOp35
 70
     1
102
RTVSPropertyOp36
 70
     1
102
RTVSPropertyOp37
 70
     1
102
RTVSPropertyOp38
 70
     1
102
RTVSPropertyOp39
 70
     1
102
RTVSPropertyOp40
 70
     1
102
RTVSPropertyOp41
 70
     1
102
RTVSPropertyOp42
 70
     1
102
RTVSPropertyOp43
 70
     1
102
RTVSPropertyOp44
 70
     1
102
RTVSPropertyOp45
 70
     1
102
RTVSPropertyOp46
 70
     1
102
RTVSPropertyOp47
 70
     1
102
RTVSPropertyOp48
 70
     1
102
RTVSPropertyOp49
 70
     1
102
RTVSPropertyOp50
 70
     1
102
RTVSPropertyOp51
 70
     0
102
RTVSPropertyOp52
 70
     0
102
RTVSPropertyOp53
 70
     1
102
RTVSPropertyOp54
 70
     1
102
RTVSPropertyOp55
 70
     1
102
RTVSPropertyOp56
 70
     1
102
RTVSPropertyOp57
 70
     1
102
RTVSPropertyOp58
 70
     1
102
RTVSPropertyOp59
 70
     1
102
RTVSPropertyOp60
 70
     1
102
RTVSPropertyOp61
 70
     1
102
RTVSPropertyOp62
 70
     1
  0
XRECORD
  5
58CB
102
{ACAD_REACTORS
330
58CA
102
}
330
58CA
100
AcDbXrecord
280
     1
102
RTVSPost2010Prop28
280
     0
102
RTVSPost2010PropOp28
 70
     1
102
RTVSPost2010Prop29
280
     1
102
RTVSPost2010PropOp29
 70
     1
102
RTVSPost2010Prop30
280
     1
102
RTVSPost2010PropOp30
 70
     1
102
RTVSPost2010Prop31
280
     0
102
RTVSPost2010PropOp31
 70
     1
102
RTVSPost2010Prop32
280
     0
102
RTVSPost2010PropOp32
 70
     1
102
RTVSPost2010Prop33
280
     0
102
RTVSPost2010PropOp33
 70
     1
102
RTVSPost2010Prop34
280
     0
102
RTVSPost2010PropOp34
 70
     1
102
RTVSPost2010Prop35
280
     0
102
RTVSPost2010PropOp35
 70
     1
102
RTVSPost2010Prop36
280
     0
102
RTVSPost2010PropOp36
 70
     1
102
RTVSPost2010Prop37
 90
       50
102
RTVSPost2010PropOp37
 70
     1
102
RTVSPost2010Prop38
140
0.0
102
RTVSPost2010PropOp38
 70
     1
102
RTVSPost2010Prop39
140
1.0
102
RTVSPost2010PropOp39
 70
     1
102
RTVSPost2010Prop40
 90
        0
102
RTVSPost2010PropOp40
 70
     1
102
RTVSPost2010Prop41ColorIndex
 90
       18
102
RTVSPost2010Prop41ColorRGB
 90
-16777216
102
RTVSPost2010PropOp41
 70
     1
102
RTVSPost2010Prop42
 90
       50
102
RTVSPost2010PropOp42
 70
     1
102
RTVSPost2010Prop43
 90
        3
102
RTVSPost2010PropOp43
 70
     1
102
RTVSPost2010Prop44ColorIndex
 90
        5
102
RTVSPost2010Prop44ColorRGB
 90
      255
102
RTVSPost2010PropOp44
 70
     1
102
RTVSPost2010Prop45
280
     0
102
RTVSPost2010PropOp45
 70
     1
102
RTVSPost2010Prop46
 90
       50
102
RTVSPost2010PropOp46
 70
     1
102
RTVSPost2010Prop47
 90
       50
102
RTVSPost2010PropOp47
 70
     1
102
RTVSPost2010Prop48
 90
       50
102
RTVSPost2010PropOp48
 70
     1
102
RTVSPost2010Prop49
280
     0
102
RTVSPost2010PropOp49
 70
     1
102
RTVSPost2010Prop50
 90
       50
102
RTVSPost2010PropOp50
 70
     1
102
RTVSPost2010Prop51ColorIndex
 90
      256
102
RTVSPost2010Prop51ColorRGB
 90
-16777216
102
RTVSPost2010PropOp51
 70
     0
102
RTVSPost2010Prop52
140
1.0
102
RTVSPost2010PropOp52
 70
     0
102
RTVSPost2010Prop53
 90
        2
102
RTVSPost2010PropOp53
 70
     1
102
RTVSPost2010Prop54
  1
strokes_ogs.tif
102
RTVSPost2010PropOp54
 70
     1
102
RTVSPost2010Prop55
280
     0
102
RTVSPost2010PropOp55
 70
     1
102
RTVSPost2010Prop56
140
1.0
102
RTVSPost2010PropOp56
 70
     1
102
RTVSPost2010Prop57
140
1.0
102
RTVSPost2010PropOp57
 70
     1
102
RTVSPropertyOp0
 70
     1
102
RTVSPropertyOp1
 70
     1
102
RTVSPropertyOp2
 70
     1
102
RTVSPropertyOp3
 70
     1
102
RTVSPropertyOp4
 70
     1
102
RTVSPropertyOp5
 70
     1
102
RTVSPropertyOp6
 70
     1
102
RTVSPropertyOp7
 70
     1
102
RTVSPropertyOp8
 70
     1
102
RTVSPropertyOp9
 70
     1
102
RTVSPropertyOp10
 70
     1
102
RTVSPropertyOp11
 70
     1
102
RTVSPropertyOp12
 70
     1
102
RTVSPropertyOp13
 70
     1
102
RTVSPropertyOp14
 70
     1
102
RTVSPropertyOp15
 70
     1
102
RTVSPropertyOp16
 70
     1
102
RTVSPropertyOp17
 70
     1
102
RTVSPropertyOp18
 70
     1
102
RTVSPropertyOp19
 70
     1
102
RTVSPropertyOp20
 70
     1
102
RTVSPropertyOp21
 70
     1
102
RTVSPropertyOp22
 70
     1
102
RTVSPropertyOp23
 70
     1
102
RTVSPropertyOp24
 70
     1
102
RTVSPropertyOp25
 70
     1
102
RTVSPropertyOp26
 70
     1
102
RTVSPropertyOp27
 70
     1
102
RTVSPropertyOp28
 70
     1
102
RTVSPropertyOp29
 70
     1
102
RTVSPropertyOp30
 70
     1
102
RTVSPropertyOp31
 70
     1
102
RTVSPropertyOp32
 70
     1
102
RTVSPropertyOp33
 70
     1
102
RTVSPropertyOp34
 70
     1
102
RTVSPropertyOp35
 70
     1
102
RTVSPropertyOp36
 70
     1
102
RTVSPropertyOp37
 70
     1
102
RTVSPropertyOp38
 70
     1
102
RTVSPropertyOp39
 70
     1
102
RTVSPropertyOp40
 70
     1
102
RTVSPropertyOp41
 70
     1
102
RTVSPropertyOp42
 70
     1
102
RTVSPropertyOp43
 70
     1
102
RTVSPropertyOp44
 70
     1
102
RTVSPropertyOp45
 70
     1
102
RTVSPropertyOp46
 70
     1
102
RTVSPropertyOp47
 70
     1
102
RTVSPropertyOp48
 70
     1
102
RTVSPropertyOp49
 70
     1
102
RTVSPropertyOp50
 70
     1
102
RTVSPropertyOp51
 70
     0
102
RTVSPropertyOp52
 70
     0
102
RTVSPropertyOp53
 70
     1
102
RTVSPropertyOp54
 70
     1
102
RTVSPropertyOp55
 70
     1
102
RTVSPropertyOp56
 70
     1
102
RTVSPropertyOp57
 70
     1
102
RTVSPropertyOp58
 70
     1
102
RTVSPropertyOp59
 70
     1
102
RTVSPropertyOp60
 70
     1
102
RTVSPropertyOp61
 70
     1
102
RTVSPropertyOp62
 70
     1
  0
XRECORD
  5
58BF
102
{ACAD_REACTORS
330
58BE
102
}
330
58BE
100
AcDbXrecord
280
     1
102
RTVSPost2010Prop28
280
     0
102
RTVSPost2010PropOp28
 70
     1
102
RTVSPost2010Prop29
280
     1
102
RTVSPost2010PropOp29
 70
     1
102
RTVSPost2010Prop30
280
     1
102
RTVSPost2010PropOp30
 70
     1
102
RTVSPost2010Prop31
280
     0
102
RTVSPost2010PropOp31
 70
     1
102
RTVSPost2010Prop32
280
     0
102
RTVSPost2010PropOp32
 70
     1
102
RTVSPost2010Prop33
280
     0
102
RTVSPost2010PropOp33
 70
     1
102
RTVSPost2010Prop34
280
     0
102
RTVSPost2010PropOp34
 70
     1
102
RTVSPost2010Prop35
280
     0
102
RTVSPost2010PropOp35
 70
     1
102
RTVSPost2010Prop36
280
     0
102
RTVSPost2010PropOp36
 70
     1
102
RTVSPost2010Prop37
 90
       50
102
RTVSPost2010PropOp37
 70
     1
102
RTVSPost2010Prop38
140
0.0
102
RTVSPost2010PropOp38
 70
     1
102
RTVSPost2010Prop39
140
1.0
102
RTVSPost2010PropOp39
 70
     1
102
RTVSPost2010Prop40
 90
        0
102
RTVSPost2010PropOp40
 70
     1
102
RTVSPost2010Prop41ColorIndex
 90
       18
102
RTVSPost2010Prop41ColorRGB
 90
-16777216
102
RTVSPost2010PropOp41
 70
     1
102
RTVSPost2010Prop42
 90
       50
102
RTVSPost2010PropOp42
 70
     1
102
RTVSPost2010Prop43
 90
        3
102
RTVSPost2010PropOp43
 70
     1
102
RTVSPost2010Prop44ColorIndex
 90
        5
102
RTVSPost2010Prop44ColorRGB
 90
      255
102
RTVSPost2010PropOp44
 70
     1
102
RTVSPost2010Prop45
280
     0
102
RTVSPost2010PropOp45
 70
     1
102
RTVSPost2010Prop46
 90
       50
102
RTVSPost2010PropOp46
 70
     1
102
RTVSPost2010Prop47
 90
       50
102
RTVSPost2010PropOp47
 70
     1
102
RTVSPost2010Prop48
 90
       50
102
RTVSPost2010PropOp48
 70
     1
102
RTVSPost2010Prop49
280
     0
102
RTVSPost2010PropOp49
 70
     1
102
RTVSPost2010Prop50
 90
       50
102
RTVSPost2010PropOp50
 70
     1
102
RTVSPost2010Prop51ColorIndex
 90
      256
102
RTVSPost2010Prop51ColorRGB
 90
-16777216
102
RTVSPost2010PropOp51
 70
     0
102
RTVSPost2010Prop52
140
1.0
102
RTVSPost2010PropOp52
 70
     0
102
RTVSPost2010Prop53
 90
        2
102
RTVSPost2010PropOp53
 70
     1
102
RTVSPost2010Prop54
  1
strokes_ogs.tif
102
RTVSPost2010PropOp54
 70
     1
102
RTVSPost2010Prop55
280
     0
102
RTVSPost2010PropOp55
 70
     1
102
RTVSPost2010Prop56
140
1.0
102
RTVSPost2010PropOp56
 70
     1
102
RTVSPost2010Prop57
140
1.0
102
RTVSPost2010PropOp57
 70
     1
102
RTVSPropertyOp0
 70
     1
102
RTVSPropertyOp1
 70
     1
102
RTVSPropertyOp2
 70
     1
102
RTVSPropertyOp3
 70
     1
102
RTVSPropertyOp4
 70
     1
102
RTVSPropertyOp5
 70
     1
102
RTVSPropertyOp6
 70
     1
102
RTVSPropertyOp7
 70
     1
102
RTVSPropertyOp8
 70
     1
102
RTVSPropertyOp9
 70
     1
102
RTVSPropertyOp10
 70
     1
102
RTVSPropertyOp11
 70
     1
102
RTVSPropertyOp12
 70
     1
102
RTVSPropertyOp13
 70
     1
102
RTVSPropertyOp14
 70
     1
102
RTVSPropertyOp15
 70
     1
102
RTVSPropertyOp16
 70
     1
102
RTVSPropertyOp17
 70
     1
102
RTVSPropertyOp18
 70
     1
102
RTVSPropertyOp19
 70
     1
102
RTVSPropertyOp20
 70
     1
102
RTVSPropertyOp21
 70
     1
102
RTVSPropertyOp22
 70
     1
102
RTVSPropertyOp23
 70
     1
102
RTVSPropertyOp24
 70
     1
102
RTVSPropertyOp25
 70
     1
102
RTVSPropertyOp26
 70
     1
102
RTVSPropertyOp27
 70
     1
102
RTVSPropertyOp28
 70
     1
102
RTVSPropertyOp29
 70
     1
102
RTVSPropertyOp30
 70
     1
102
RTVSPropertyOp31
 70
     1
102
RTVSPropertyOp32
 70
     1
102
RTVSPropertyOp33
 70
     1
102
RTVSPropertyOp34
 70
     1
102
RTVSPropertyOp35
 70
     1
102
RTVSPropertyOp36
 70
     1
102
RTVSPropertyOp37
 70
     1
102
RTVSPropertyOp38
 70
     1
102
RTVSPropertyOp39
 70
     1
102
RTVSPropertyOp40
 70
     1
102
RTVSPropertyOp41
 70
     1
102
RTVSPropertyOp42
 70
     1
102
RTVSPropertyOp43
 70
     1
102
RTVSPropertyOp44
 70
     1
102
RTVSPropertyOp45
 70
     1
102
RTVSPropertyOp46
 70
     1
102
RTVSPropertyOp47
 70
     1
102
RTVSPropertyOp48
 70
     1
102
RTVSPropertyOp49
 70
     1
102
RTVSPropertyOp50
 70
     1
102
RTVSPropertyOp51
 70
     0
102
RTVSPropertyOp52
 70
     0
102
RTVSPropertyOp53
 70
     1
102
RTVSPropertyOp54
 70
     1
102
RTVSPropertyOp55
 70
     1
102
RTVSPropertyOp56
 70
     1
102
RTVSPropertyOp57
 70
     1
102
RTVSPropertyOp58
 70
     1
102
RTVSPropertyOp59
 70
     1
102
RTVSPropertyOp60
 70
     1
102
RTVSPropertyOp61
 70
     1
102
RTVSPropertyOp62
 70
     1
  0
XRECORD
  5
58D7
102
{ACAD_REACTORS
330
58D6
102
}
330
58D6
100
AcDbXrecord
280
     1
102
RTVSPost2010Prop28
280
     0
102
RTVSPost2010PropOp28
 70
     1
102
RTVSPost2010Prop29
280
     1
102
RTVSPost2010PropOp29
 70
     1
102
RTVSPost2010Prop30
280
     1
102
RTVSPost2010PropOp30
 70
     1
102
RTVSPost2010Prop31
280
     0
102
RTVSPost2010PropOp31
 70
     1
102
RTVSPost2010Prop32
280
     0
102
RTVSPost2010PropOp32
 70
     1
102
RTVSPost2010Prop33
280
     0
102
RTVSPost2010PropOp33
 70
     1
102
RTVSPost2010Prop34
280
     0
102
RTVSPost2010PropOp34
 70
     1
102
RTVSPost2010Prop35
280
     0
102
RTVSPost2010PropOp35
 70
     1
102
RTVSPost2010Prop36
280
     0
102
RTVSPost2010PropOp36
 70
     1
102
RTVSPost2010Prop37
 90
       50
102
RTVSPost2010PropOp37
 70
     1
102
RTVSPost2010Prop38
140
0.0
102
RTVSPost2010PropOp38
 70
     1
102
RTVSPost2010Prop39
140
1.0
102
RTVSPost2010PropOp39
 70
     1
102
RTVSPost2010Prop40
 90
        0
102
RTVSPost2010PropOp40
 70
     1
102
RTVSPost2010Prop41ColorIndex
 90
       18
102
RTVSPost2010Prop41ColorRGB
 90
-16777216
102
RTVSPost2010PropOp41
 70
     1
102
RTVSPost2010Prop42
 90
       50
102
RTVSPost2010PropOp42
 70
     1
102
RTVSPost2010Prop43
 90
        3
102
RTVSPost2010PropOp43
 70
     1
102
RTVSPost2010Prop44ColorIndex
 90
        5
102
RTVSPost2010Prop44ColorRGB
 90
      255
102
RTVSPost2010PropOp44
 70
     1
102
RTVSPost2010Prop45
280
     0
102
RTVSPost2010PropOp45
 70
     1
102
RTVSPost2010Prop46
 90
       50
102
RTVSPost2010PropOp46
 70
     1
102
RTVSPost2010Prop47
 90
       50
102
RTVSPost2010PropOp47
 70
     1
102
RTVSPost2010Prop48
 90
       50
102
RTVSPost2010PropOp48
 70
     1
102
RTVSPost2010Prop49
280
     0
102
RTVSPost2010PropOp49
 70
     1
102
RTVSPost2010Prop50
 90
       50
102
RTVSPost2010PropOp50
 70
     1
102
RTVSPost2010Prop51ColorIndex
 90
      256
102
RTVSPost2010Prop51ColorRGB
 90
-16777216
102
RTVSPost2010PropOp51
 70
     0
102
RTVSPost2010Prop52
140
1.0
102
RTVSPost2010PropOp52
 70
     0
102
RTVSPost2010Prop53
 90
        2
102
RTVSPost2010PropOp53
 70
     1
102
RTVSPost2010Prop54
  1
strokes_ogs.tif
102
RTVSPost2010PropOp54
 70
     1
102
RTVSPost2010Prop55
280
     0
102
RTVSPost2010PropOp55
 70
     1
102
RTVSPost2010Prop56
140
1.0
102
RTVSPost2010PropOp56
 70
     1
102
RTVSPost2010Prop57
140
1.0
102
RTVSPost2010PropOp57
 70
     1
102
RTVSPropertyOp0
 70
     1
102
RTVSPropertyOp1
 70
     1
102
RTVSPropertyOp2
 70
     1
102
RTVSPropertyOp3
 70
     1
102
RTVSPropertyOp4
 70
     1
102
RTVSPropertyOp5
 70
     1
102
RTVSPropertyOp6
 70
     1
102
RTVSPropertyOp7
 70
     1
102
RTVSPropertyOp8
 70
     1
102
RTVSPropertyOp9
 70
     1
102
RTVSPropertyOp10
 70
     1
102
RTVSPropertyOp11
 70
     1
102
RTVSPropertyOp12
 70
     1
102
RTVSPropertyOp13
 70
     1
102
RTVSPropertyOp14
 70
     1
102
RTVSPropertyOp15
 70
     1
102
RTVSPropertyOp16
 70
     1
102
RTVSPropertyOp17
 70
     1
102
RTVSPropertyOp18
 70
     1
102
RTVSPropertyOp19
 70
     1
102
RTVSPropertyOp20
 70
     1
102
RTVSPropertyOp21
 70
     1
102
RTVSPropertyOp22
 70
     1
102
RTVSPropertyOp23
 70
     1
102
RTVSPropertyOp24
 70
     1
102
RTVSPropertyOp25
 70
     1
102
RTVSPropertyOp26
 70
     1
102
RTVSPropertyOp27
 70
     1
102
RTVSPropertyOp28
 70
     1
102
RTVSPropertyOp29
 70
     1
102
RTVSPropertyOp30
 70
     1
102
RTVSPropertyOp31
 70
     1
102
RTVSPropertyOp32
 70
     1
102
RTVSPropertyOp33
 70
     1
102
RTVSPropertyOp34
 70
     1
102
RTVSPropertyOp35
 70
     1
102
RTVSPropertyOp36
 70
     1
102
RTVSPropertyOp37
 70
     1
102
RTVSPropertyOp38
 70
     1
102
RTVSPropertyOp39
 70
     1
102
RTVSPropertyOp40
 70
     1
102
RTVSPropertyOp41
 70
     1
102
RTVSPropertyOp42
 70
     1
102
RTVSPropertyOp43
 70
     1
102
RTVSPropertyOp44
 70
     1
102
RTVSPropertyOp45
 70
     1
102
RTVSPropertyOp46
 70
     1
102
RTVSPropertyOp47
 70
     1
102
RTVSPropertyOp48
 70
     1
102
RTVSPropertyOp49
 70
     1
102
RTVSPropertyOp50
 70
     1
102
RTVSPropertyOp51
 70
     0
102
RTVSPropertyOp52
 70
     0
102
RTVSPropertyOp53
 70
     1
102
RTVSPropertyOp54
 70
     1
102
RTVSPropertyOp55
 70
     1
102
RTVSPropertyOp56
 70
     1
102
RTVSPropertyOp57
 70
     1
102
RTVSPropertyOp58
 70
     1
102
RTVSPropertyOp59
 70
     1
102
RTVSPropertyOp60
 70
     1
102
RTVSPropertyOp61
 70
     1
102
RTVSPropertyOp62
 70
     1
  0
ENDSEC
  0
EOF
