  0
SECTION
  2
HEADER
  9
$ACADVER
  1
AC1018
  9
$ACADMAINTVER
 70
   104
  9
$DWGCODEPAGE
  3
ANSI_932
  9
$LASTSAVEDBY
  1
SERIZAH
  9
$INSBASE
 10
0.0
 20
0.0
 30
0.0
  9
$EXTMIN
 10
-1237.587482023512
 20
-1339.500545761226
 30
-0.0000000349181948
  9
$EXTMAX
 10
1334.084951902869
 20
688.6714996359432
 30
0.0000000814935747
  9
$LIMMIN
 10
-1263.494104720812
 20
-1490.026088172586
  9
$LIMMAX
 10
1699.535513065009
 20
599.2834588780465
  9
$ORTHOMODE
 70
     0
  9
$REGENMODE
 70
     1
  9
$FILLMODE
 70
     1
  9
$QTEXTMODE
 70
     0
  9
$MIRRTEXT
 70
     1
  9
$LTSCALE
 40
30.0
  9
$ATTMODE
 70
     1
  9
$TEXTSIZE
 40
0.2
  9
$TRACEWID
 40
0.05
  9
$TEXTSTYLE
  7
Standard
  9
$CLAYER
  8
0
  9
$CELTYPE
  6
ByLayer
  9
$CECOLOR
 62
   256
  9
$CELTSCALE
 40
1.0
  9
$DISPSILH
 70
     0
  9
$DIMSCALE
 40
1.0
  9
$DIMASZ
 40
8.0
  9
$DIMEXO
 40
0.0625
  9
$DIMDLI
 40
0.38
  9
$DIMRND
 40
0.0
  9
$DIMDLE
 40
0.0
  9
$DIMEXE
 40
0.18
  9
$DIMTP
 40
0.0
  9
$DIMTM
 40
0.0
  9
$DIMTXT
 40
64.0
  9
$DIMCEN
 40
0.09
  9
$DIMTSZ
 40
0.0
  9
$DIMTOL
 70
     0
  9
$DIMLIM
 70
     0
  9
$DIMTIH
 70
     0
  9
$DIMTOH
 70
     0
  9
$DIMSE1
 70
     0
  9
$DIMSE2
 70
     0
  9
$DIMTAD
 70
     1
  9
$DIMZIN
 70
     0
  9
$DIMBLK
  1
Origin
  9
$DIMASO
 70
     1
  9
$DIMSHO
 70
     1
  9
$DIMPOST
  1

  9
$DIMAPOST
  1

  9
$DIMALT
 70
     0
  9
$DIMALTD
 70
     2
  9
$DIMALTF
 40
25.4
  9
$DIMLFAC
 40
1.0
  9
$DIMTOFL
 70
     0
  9
$DIMTVP
 40
0.0
  9
$DIMTIX
 70
     0
  9
$DIMSOXD
 70
     0
  9
$DIMSAH
 70
     0
  9
$DIMBLK1
  1

  9
$DIMBLK2
  1

  9
$DIMSTYLE
  2
Standard
  9
$DIMCLRD
 70
     0
  9
$DIMCLRE
 70
     0
  9
$DIMCLRT
 70
     0
  9
$DIMTFAC
 40
1.0
  9
$DIMGAP
 40
5.0
  9
$DIMJUST
 70
     0
  9
$DIMSD1
 70
     0
  9
$DIMSD2
 70
     0
  9
$DIMTOLJ
 70
     1
  9
$DIMTZIN
 70
     0
  9
$DIMALTZ
 70
     0
  9
$DIMALTTZ
 70
     0
  9
$DIMUPT
 70
     0
  9
$DIMDEC
 70
     0
  9
$DIMTDEC
 70
     0
  9
$DIMALTU
 70
     2
  9
$DIMALTTD
 70
     2
  9
$DIMTXSTY
  7
Standard
  9
$DIMAUNIT
 70
     0
  9
$DIMADEC
 70
     0
  9
$DIMALTRND
 40
0.0
  9
$DIMAZIN
 70
     0
  9
$DIMDSEP
 70
    46
  9
$DIMATFIT
 70
     3
  9
$DIMFRAC
 70
     0
  9
$DIMLDRBLK
  1

  9
$DIMLUNIT
 70
     2
  9
$DIMLWD
 70
    -2
  9
$DIMLWE
 70
    -2
  9
$DIMTMOVE
 70
     0
  9
$LUNITS
 70
     2
  9
$LUPREC
 70
     4
  9
$SKETCHINC
 40
0.1
  9
$FILLETRAD
 40
0.5
  9
$AUNITS
 70
     1
  9
$AUPREC
 70
     3
  9
$MENU
  1
.
  9
$ELEVATION
 40
0.0
  9
$PELEVATION
 40
0.0
  9
$THICKNESS
 40
0.0
  9
$LIMCHECK
 70
     0
  9
$CHAMFERA
 40
0.0
  9
$CHAMFERB
 40
0.0
  9
$CHAMFERC
 40
0.0
  9
$CHAMFERD
 40
0.0
  9
$SKPOLY
 70
     0
  9
$TDCREATE
 40
2456927.635034722
  9
$TDUCREATE
 40
2456927.260040428
  9
$TDUPDATE
 40
2459012.436678241
  9
$TDUUPDATE
 40
2459012.061678241
  9
$TDINDWG
 40
0.1239699190
  9
$TDUSRTIMER
 40
0.1239699190
  9
$USRTIMER
 70
     1
  9
$ANGBASE
 50
0.0
  9
$ANGDIR
 70
     0
  9
$PDMODE
 70
     0
  9
$PDSIZE
 40
0.0
  9
$PLINEWID
 40
0.0
  9
$SPLFRAME
 70
     0
  9
$SPLINETYPE
 70
     6
  9
$SPLINESEGS
 70
     8
  9
$HANDSEED
  5
C80
  9
$SURFTAB1
 70
     6
  9
$SURFTAB2
 70
     6
  9
$SURFTYPE
 70
     6
  9
$SURFU
 70
     6
  9
$SURFV
 70
     6
  9
$UCSBASE
  2

  9
$UCSNAME
  2

  9
$UCSORG
 10
0.0
 20
0.0
 30
0.0
  9
$UCSXDIR
 10
1.0
 20
0.0
 30
0.0
  9
$UCSYDIR
 10
0.0
 20
1.0
 30
0.0
  9
$UCSORTHOREF
  2

  9
$UCSORTHOVIEW
 70
     0
  9
$UCSORGTOP
 10
0.0
 20
0.0
 30
0.0
  9
$UCSORGBOTTOM
 10
0.0
 20
0.0
 30
0.0
  9
$UCSORGLEFT
 10
0.0
 20
0.0
 30
0.0
  9
$UCSORGRIGHT
 10
0.0
 20
0.0
 30
0.0
  9
$UCSORGFRONT
 10
0.0
 20
0.0
 30
0.0
  9
$UCSORGBACK
 10
0.0
 20
0.0
 30
0.0
  9
$PUCSBASE
  2

  9
$PUCSNAME
  2

  9
$PUCSORG
 10
0.0
 20
0.0
 30
0.0
  9
$PUCSXDIR
 10
1.0
 20
0.0
 30
0.0
  9
$PUCSYDIR
 10
0.0
 20
1.0
 30
0.0
  9
$PUCSORTHOREF
  2

  9
$PUCSORTHOVIEW
 70
     0
  9
$PUCSORGTOP
 10
0.0
 20
0.0
 30
0.0
  9
$PUCSORGBOTTOM
 10
0.0
 20
0.0
 30
0.0
  9
$PUCSORGLEFT
 10
0.0
 20
0.0
 30
0.0
  9
$PUCSORGRIGHT
 10
0.0
 20
0.0
 30
0.0
  9
$PUCSORGFRONT
 10
0.0
 20
0.0
 30
0.0
  9
$PUCSORGBACK
 10
0.0
 20
0.0
 30
0.0
  9
$USERI1
 70
     0
  9
$USERI2
 70
     0
  9
$USERI3
 70
     0
  9
$USERI4
 70
     0
  9
$USERI5
 70
     0
  9
$USERR1
 40
0.0
  9
$USERR2
 40
0.0
  9
$USERR3
 40
0.0
  9
$USERR4
 40
0.0
  9
$USERR5
 40
0.0
  9
$WORLDVIEW
 70
     1
  9
$SHADEDGE
 70
     3
  9
$SHADEDIF
 70
    70
  9
$TILEMODE
 70
     1
  9
$MAXACTVP
 70
    64
  9
$PINSBASE
 10
0.0
 20
0.0
 30
0.0
  9
$PLIMCHECK
 70
     0
  9
$PEXTMIN
 10
-9.375
 20
-25.0
 30
0.0
  9
$PEXTMAX
 10
371.25
 20
262.5
 30
0.0
  9
$PLIMMIN
 10
-7.5
 20
-20.0
  9
$PLIMMAX
 10
297.0
 20
210.0
  9
$UNITMODE
 70
     0
  9
$VISRETAIN
 70
     1
  9
$PLINEGEN
 70
     0
  9
$PSLTSCALE
 70
     1
  9
$TREEDEPTH
 70
  3020
  9
$CMLSTYLE
  2
Standard
  9
$CMLJUST
 70
     0
  9
$CMLSCALE
 40
1.0
  9
$PROXYGRAPHICS
 70
     1
  9
$MEASUREMENT
 70
     0
  9
$CELWEIGHT
370
    -1
  9
$ENDCAPS
280
     0
  9
$JOINSTYLE
280
     0
  9
$LWDISPLAY
290
     0
  9
$INSUNITS
 70
     0
  9
$HYPERLINKBASE
  1

  9
$STYLESHEET
  1

  9
$XEDIT
290
     1
  9
$CEPSNTYPE
380
     0
  9
$PSTYLEMODE
290
     1
  9
$FINGERPRINTGUID
  2
{A17BA3EF-25BB-4F42-87F7-34808F6D342F}
  9
$VERSIONGUID
  2
{9AC0E6A2-9EE1-7345-8310-8B13408AC519}
  9
$EXTNAMES
290
     1
  9
$PSVPSCALE
 40
0.0
  9
$OLESTARTUP
290
     0
  9
$SORTENTS
280
   127
  9
$INDEXCTL
280
     0
  9
$HIDETEXT
280
     1
  9
$XCLIPFRAME
290
     0
  9
$HALOGAP
280
     0
  9
$OBSCOLOR
 70
   257
  9
$OBSLTYPE
280
     0
  9
$INTERSECTIONDISPLAY
280
     0
  9
$INTERSECTIONCOLOR
 70
   257
  9
$DIMASSOC
280
     2
  9
$PROJECTNAME
  1

  0
ENDSEC
  0
SECTION
  2
CLASSES
  0
CLASS
  1
ACDBDICTIONARYWDFLT
  2
AcDbDictionaryWithDefault
  3
ObjectDBX Classes
 90
        0
 91
        1
280
     0
281
     0
  0
CLASS
  1
VISUALSTYLE
  2
AcDbVisualStyle
  3
ObjectDBX Classes
 90
     4095
 91
       24
280
     0
281
     0
  0
CLASS
  1
MATERIAL
  2
AcDbMaterial
  3
ObjectDBX Classes
 90
     1153
 91
        3
280
     0
281
     0
  0
CLASS
  1
SCALE
  2
AcDbScale
  3
ObjectDBX Classes
 90
     1153
 91
       33
280
     0
281
     0
  0
CLASS
  1
SUN
  2
AcDbSun
  3
SCENEOE
 90
     1153
 91
        0
280
     0
281
     0
  0
CLASS
  1
RASTERVARIABLES
  2
AcDbRasterVariables
  3
ISM
 90
        0
 91
        1
280
     0
281
     0
  0
CLASS
  1
DICTIONARYVAR
  2
AcDbDictionaryVar
  3
ObjectDBX Classes
 90
        0
 91
       17
280
     0
281
     0
  0
CLASS
  1
TABLESTYLE
  2
AcDbTableStyle
  3
ObjectDBX Classes
 90
     4095
 91
        1
280
     0
281
     0
  0
CLASS
  1
MLEADERSTYLE
  2
AcDbMLeaderStyle
  3
ACDB_MLEADERSTYLE_CLASS
 90
     4095
 91
        1
280
     0
281
     0
  0
CLASS
  1
ACDBSECTIONVIEWSTYLE
  2
AcDbSectionViewStyle
  3
ObjectDBX Classes
 90
     1025
 91
        1
280
     0
281
     0
  0
CLASS
  1
ACDBDETAILVIEWSTYLE
  2
AcDbDetailViewStyle
  3
ObjectDBX Classes
 90
     1025
 91
        1
280
     0
281
     0
  0
CLASS
  1
CELLSTYLEMAP
  2
AcDbCellStyleMap
  3
ObjectDBX Classes
 90
     1152
 91
        2
280
     0
281
     0
  0
CLASS
  1
DIMASSOC
  2
AcDbDimAssoc
  3
"AcDbDimAssoc|Product Desc:     AcDim ARX App For Dimension|Company:          Autodesk, Inc.|WEB Address:      www.autodesk.com"
 90
        0
 91
        5
280
     0
281
     0
  0
ENDSEC
  0
SECTION
  2
TABLES
  0
TABLE
  2
VPORT
  5
8
330
0
100
AcDbSymbolTable
 70
     1
1001
ACAD
1000
DbSaveVer
1071
       51
  0
VPORT
  5
29
330
8
100
AcDbSymbolTableRecord
100
AcDbViewportTableRecord
  2
*Active
 70
     0
 10
0.0
 20
0.0
 11
1.0
 21
1.0
 12
48.24873493967834
 22
-325.4145230626414
 13
0.0
 23
0.0
 14
0.5
 24
0.5
 15
0.5
 25
0.5
 16
0.0
 26
0.0
 36
1.0
 17
0.0
 27
0.0
 37
0.0
 40
2043.713593637761
 41
2.021739130434782
 42
50.0
 43
0.0
 44
0.0
 50
0.0
 51
0.0
 71
     0
 72
 20000
 73
     1
 74
     3
 75
     0
 76
     0
 77
     0
 78
     0
281
     0
 65
     1
110
0.0
120
0.0
130
0.0
111
1.0
121
0.0
131
0.0
112
0.0
122
1.0
132
0.0
 79
     0
146
0.0
1001
ACAD_NAV_VCDISPLAY
1070
     3
  0
ENDTAB
  0
TABLE
  2
LTYPE
  5
5
330
0
100
AcDbSymbolTable
 70
     2
  0
LTYPE
  5
14
330
5
100
AcDbSymbolTableRecord
100
AcDbLinetypeTableRecord
  2
ByBlock
 70
     0
  3

 72
    65
 73
     0
 40
0.0
  0
LTYPE
  5
15
330
5
100
AcDbSymbolTableRecord
100
AcDbLinetypeTableRecord
  2
ByLayer
 70
     0
  3

 72
    65
 73
     0
 40
0.0
  0
LTYPE
  5
16
330
5
100
AcDbSymbolTableRecord
100
AcDbLinetypeTableRecord
  2
Continuous
 70
     0
  3
Solid line
 72
    65
 73
     0
 40
0.0
  0
LTYPE
  5
6C
330
5
100
AcDbSymbolTableRecord
100
AcDbLinetypeTableRecord
  2
DASHDOT
 70
     0
  3

 72
    65
 73
     4
 40
5.499999999999999
 49
4.0
 74
     0
 49
-0.6
 74
     0
 49
0.3
 74
     0
 49
-0.6
 74
     0
  0
ENDTAB
  0
TABLE
  2
LAYER
  5
2
102
{ACAD_XDICTIONARY
360
9FF
102
}
330
0
100
AcDbSymbolTable
 70
    11
  0
LAYER
  5
10
102
{ACAD_XDICTIONARY
360
527
102
}
330
2
100
AcDbSymbolTableRecord
100
AcDbLayerTableRecord
  2
0
 70
     0
 62
     7
  6
Continuous
370
    35
390
F
  0
LAYER
  5
6D
102
{ACAD_XDICTIONARY
360
529
102
}
330
2
100
AcDbSymbolTableRecord
100
AcDbLayerTableRecord
  2
OUTLINE
 70
     0
 62
     3
  6
Continuous
370
    35
390
F
  0
LAYER
  5
6E
102
{ACAD_XDICTIONARY
360
52B
102
}
330
2
100
AcDbSymbolTableRecord
100
AcDbLayerTableRecord
  2
DETAIL
 70
     0
 62
     5
  6
Continuous
370
    35
390
F
  0
LAYER
  5
6F
102
{ACAD_XDICTIONARY
360
52D
102
}
330
2
100
AcDbSymbolTableRecord
100
AcDbLayerTableRecord
  2
BASIS
 70
     0
 62
     6
  6
Continuous
370
    35
390
F
  0
LAYER
  5
70
102
{ACAD_XDICTIONARY
360
52F
102
}
330
2
100
AcDbSymbolTableRecord
100
AcDbLayerTableRecord
  2
NOTE
 70
     0
 62
     4
  6
Continuous
370
    35
390
F
  0
LAYER
  5
71
330
2
100
AcDbSymbolTableRecord
100
AcDbLayerTableRecord
  2
DEFPOINTS
 70
     0
 62
     7
  6
Continuous
290
     0
370
    35
390
F
  0
LAYER
  5
72
102
{ACAD_XDICTIONARY
360
531
102
}
330
2
100
AcDbSymbolTableRecord
100
AcDbLayerTableRecord
  2
SIZE
 70
     0
 62
    30
  6
Continuous
370
    35
390
F
  0
LAYER
  5
73
102
{ACAD_XDICTIONARY
360
533
102
}
330
2
100
AcDbSymbolTableRecord
100
AcDbLayerTableRecord
  2
FIX
 70
     0
 62
    11
  6
Continuous
370
    35
390
F
  0
LAYER
  5
74
102
{ACAD_XDICTIONARY
360
535
102
}
330
2
100
AcDbSymbolTableRecord
100
AcDbLayerTableRecord
  2
ETC
 70
     0
 62
    61
  6
Continuous
370
    35
390
F
  0
LAYER
  5
75
102
{ACAD_XDICTIONARY
360
537
102
}
330
2
100
AcDbSymbolTableRecord
100
AcDbLayerTableRecord
  2
ARRANGE
 70
     0
 62
     1
  6
Continuous
370
    35
390
F
  0
LAYER
  5
76
102
{ACAD_XDICTIONARY
360
539
102
}
330
2
100
AcDbSymbolTableRecord
100
AcDbLayerTableRecord
  2
rcviewportframe
 70
     0
 62
     7
  6
Continuous
370
    -3
390
F
  0
ENDTAB
  0
TABLE
  2
STYLE
  5
3
330
0
100
AcDbSymbolTable
 70
     4
  0
STYLE
  5
11
330
3
100
AcDbSymbolTableRecord
100
AcDbTextStyleTableRecord
  2
Standard
 70
     0
 40
0.0
 41
0.8
 50
0.0
 71
     0
 42
0.2
  3
simplex.shx
  4
bigfont.shx
  0
STYLE
  5
77
330
3
100
AcDbSymbolTableRecord
100
AcDbTextStyleTableRecord
  2
MS PGothic
 70
     0
 40
0.0
 41
1.0
 50
0.0
 71
     0
 42
0.2
  3
MS PGothic.ttf
  4

1001
ACAD
1000
ＭＳ Ｐゴシック
1071
    32818
  0
STYLE
  5
78
330
3
100
AcDbSymbolTableRecord
100
AcDbTextStyleTableRecord
  2
VERTICAL
 70
     4
 40
0.0
 41
1.0
 50
0.0
 71
     0
 42
0.2
  3
txt.shx
  4
extfont
  0
STYLE
  5
79
330
3
100
AcDbSymbolTableRecord
100
AcDbTextStyleTableRecord
  2
VERTICAL MS PGothic
 70
     0
 40
0.0
 41
1.0
 50
0.0
 71
     0
 42
0.2
  3
MS PGothic.ttf
  4

1001
ACAD
1000
@ＭＳ Ｐゴシック
1071
    32818
  0
ENDTAB
  0
TABLE
  2
VIEW
  5
6
330
0
100
AcDbSymbolTable
 70
     0
  0
ENDTAB
  0
TABLE
  2
UCS
  5
7
330
0
100
AcDbSymbolTable
 70
     0
  0
ENDTAB
  0
TABLE
  2
APPID
  5
9
330
0
100
AcDbSymbolTable
 70
     8
  0
APPID
  5
12
330
9
100
AcDbSymbolTableRecord
100
AcDbRegAppTableRecord
  2
ACAD
 70
     0
  0
APPID
  5
6A
330
9
100
AcDbSymbolTableRecord
100
AcDbRegAppTableRecord
  2
RootPro CAD
 70
     0
  0
APPID
  5
51F
330
9
100
AcDbSymbolTableRecord
100
AcDbRegAppTableRecord
  2
ACAD_EXEMPT_FROM_CAD_STANDARDS
 70
     0
  0
APPID
  5
542
330
9
100
AcDbSymbolTableRecord
100
AcDbRegAppTableRecord
  2
ACAD_NAV_VCDISPLAY
 70
     0
  0
APPID
  5
550
330
9
100
AcDbSymbolTableRecord
100
AcDbRegAppTableRecord
  2
ACAD_DSTYLE_DIMJAG
 70
     0
  0
APPID
  5
551
330
9
100
AcDbSymbolTableRecord
100
AcDbRegAppTableRecord
  2
ACAD_DSTYLE_DIMTALN
 70
     0
  0
APPID
  5
690
330
9
100
AcDbSymbolTableRecord
100
AcDbRegAppTableRecord
  2
ACAD_MLEADERVER
 70
     0
  0
APPID
  5
6DF
330
9
100
AcDbSymbolTableRecord
100
AcDbRegAppTableRecord
  2
AcadAnnoPO
 70
     0
  0
ENDTAB
  0
TABLE
  2
DIMSTYLE
  5
A
330
0
100
AcDbSymbolTable
 70
     1
100
AcDbDimStyleTable
 71
     1
340
27
  0
DIMSTYLE
105
27
102
{ACAD_REACTORS
330
5A6
330
5C2
330
5DA
330
60A
330
624
102
}
330
A
100
AcDbSymbolTableRecord
100
AcDbDimStyleTableRecord
  2
Standard
 70
     0
 41
8.0
 73
     0
 74
     0
 77
     1
140
64.0
147
5.0
271
     0
272
     0
340
11
342
54B
1001
ACAD_DSTYLE_DIMJAG
1070
   388
1040
1.5
1001
ACAD_DSTYLE_DIMTALN
1070
   392
1070
     0
  0
ENDTAB
  0
TABLE
  2
BLOCK_RECORD
  5
1
330
0
100
AcDbSymbolTable
 70
     6
  0
BLOCK_RECORD
  5
1F
330
1
100
AcDbSymbolTableRecord
100
AcDbBlockTableRecord
  2
*Model_Space
340
22
  0
BLOCK_RECORD
  5
1B
330
1
100
AcDbSymbolTableRecord
100
AcDbBlockTableRecord
  2
*Paper_Space
340
1E
  0
BLOCK_RECORD
  5
54B
330
1
100
AcDbSymbolTableRecord
100
AcDbBlockTableRecord
  2
_Origin
340
0
102
{BLKREFS
331
BD3
331
BD4
331
BDC
331
BDD
331
BE6
331
BE7
331
BF0
331
BF1
331
BFA
331
BFB
102
}
  0
BLOCK_RECORD
  5
5A7
330
1
100
AcDbSymbolTableRecord
100
AcDbBlockTableRecord
  2
*D1
340
0
  0
BLOCK_RECORD
  5
5C3
330
1
100
AcDbSymbolTableRecord
100
AcDbBlockTableRecord
  2
*D2
340
0
  0
BLOCK_RECORD
  5
5DB
330
1
100
AcDbSymbolTableRecord
100
AcDbBlockTableRecord
  2
*D3
340
0
  0
BLOCK_RECORD
  5
60B
330
1
100
AcDbSymbolTableRecord
100
AcDbBlockTableRecord
  2
*D4
340
0
  0
BLOCK_RECORD
  5
625
330
1
100
AcDbSymbolTableRecord
100
AcDbBlockTableRecord
  2
*D5
340
0
  0
ENDTAB
  0
ENDSEC
  0
SECTION
  2
BLOCKS
  0
BLOCK
  5
20
330
1F
100
AcDbEntity
  8
0
100
AcDbBlockBegin
  2
*Model_Space
 70
     0
 10
0.0
 20
0.0
 30
0.0
  3
*Model_Space
  1
*Model_Space
  0
ENDBLK
  5
21
330
1F
100
AcDbEntity
  8
0
100
AcDbBlockEnd
  0
BLOCK
  5
1C
330
1B
100
AcDbEntity
 67
     1
  8
0
100
AcDbBlockBegin
  2
*Paper_Space
 70
     0
 10
0.0
 20
0.0
 30
0.0
  3
*Paper_Space
  1
*Paper_Space
  0
ENDBLK
  5
1D
330
1B
100
AcDbEntity
 67
     1
  8
0
100
AcDbBlockEnd
  0
BLOCK
  5
54E
330
54B
100
AcDbEntity
  8
0
100
AcDbBlockBegin
  2
_Origin
 70
     0
 10
0.0
 20
0.0
 30
0.0
  3
_Origin
  1

  0
CIRCLE
  5
54C
330
54B
100
AcDbEntity
  8
0
  6
ByBlock
 62
     0
370
    -2
100
AcDbCircle
 10
0.0
 20
0.0
 30
0.0
 40
0.5
  0
LINE
  5
54D
330
54B
100
AcDbEntity
  8
0
  6
ByBlock
 62
     0
370
    -2
100
AcDbLine
 10
0.0
 20
0.0
 30
0.0
 11
-1.0
 21
0.0
 31
0.0
  0
ENDBLK
  5
54F
330
54B
100
AcDbEntity
  8
0
100
AcDbBlockEnd
  0
BLOCK
  5
5A8
330
5A7
100
AcDbEntity
  8
0
100
AcDbBlockBegin
  2
*D1
 70
     1
 10
0.0
 20
0.0
 30
0.0
  3
*D1
  1

  0
LINE
  5
BE2
330
5A7
100
AcDbEntity
  8
SIZE
 62
     0
440
 16777216
370
    -2
100
AcDbLine
 10
394.0
 20
-192.0465900000035
 30
0.0
 11
394.0
 21
99.58255137918394
 31
0.0
  0
LINE
  5
BE3
330
5A7
100
AcDbEntity
  8
SIZE
 62
     0
440
 16777216
370
    -2
100
AcDbLine
 10
480.0000000000143
 20
-0.937500000003637
 30
0.0
 11
480.0000000000143
 21
99.58255137918392
 31
0.0
  0
LINE
  5
BE4
330
5A7
100
AcDbEntity
  8
SIZE
 62
     0
440
 16777216
370
    -2
100
AcDbLine
 10
402.0
 20
99.40255137918391
 30
0.0
 11
472.0000000000143
 21
99.40255137918391
 31
0.0
  0
LINE
  5
BE5
330
5A7
100
AcDbEntity
  8
SIZE
 62
     0
440
 16777216
370
    -2
100
AcDbLine
 10
480.0000000000143
 20
99.40255137918391
 30
0.0
 11
578.4571428571571
 21
99.40255137918391
 31
0.0
  0
INSERT
  5
BE6
330
5A7
100
AcDbEntity
  8
SIZE
 62
     0
440
 16777216
370
    -2
100
AcDbBlockReference
  2
_Origin
 10
394.0
 20
99.40255137918391
 30
0.0
 41
8.0
 42
8.0
 43
8.0
 50
180.0
  0
INSERT
  5
BE7
330
5A7
100
AcDbEntity
  8
SIZE
 62
     0
440
 16777216
370
    -2
100
AcDbBlockReference
  2
_Origin
 10
480.0000000000143
 20
99.40255137918391
 30
0.0
 41
8.0
 42
8.0
 43
8.0
  0
MTEXT
  5
BE8
330
5A7
100
AcDbEntity
  8
SIZE
 62
     0
440
 16777216
100
AcDbMText
 10
533.2285714285855
 20
136.4025513791839
 30
0.0
 40
64.0
 41
0.0
 71
     5
 72
     1
  1
\A1;86
 73
     1
 44
1.0
  0
POINT
  5
BE9
330
5A7
100
AcDbEntity
  8
DEFPOINTS
 62
     0
440
 16777216
100
AcDbPoint
 10
394.0
 20
-192.1090900000035
 30
0.0
  0
POINT
  5
BEA
330
5A7
100
AcDbEntity
  8
DEFPOINTS
 62
     0
440
 16777216
100
AcDbPoint
 10
480.0000000000143
 20
-1.000000000003637
 30
0.0
  0
POINT
  5
BEB
330
5A7
100
AcDbEntity
  8
DEFPOINTS
 62
     0
440
 16777216
100
AcDbPoint
 10
480.0000000000143
 20
99.40255137918391
 30
0.0
  0
ENDBLK
  5
5A9
330
5A7
100
AcDbEntity
  8
0
100
AcDbBlockEnd
  0
BLOCK
  5
5C4
330
5C3
100
AcDbEntity
  8
0
100
AcDbBlockBegin
  2
*D2
 70
     1
 10
0.0
 20
0.0
 30
0.0
  3
*D2
  1

  0
LINE
  5
BD9
330
5C3
100
AcDbEntity
  8
SIZE
 62
     0
440
 16777216
370
    -2
100
AcDbLine
 10
480.0000000000143
 20
-0.937500000003637
 30
0.0
 11
480.0000000000143
 21
241.0565279705085
 31
0.0
  0
LINE
  5
BDA
330
5C3
100
AcDbEntity
  8
SIZE
 62
     0
440
 16777216
370
    -2
100
AcDbLine
 10
202.0
 20
20.0625
 30
0.0
 11
202.0
 21
241.0565279705085
 31
0.0
  0
LINE
  5
BDB
330
5C3
100
AcDbEntity
  8
SIZE
 62
     0
440
 16777216
370
    -2
100
AcDbLine
 10
472.0000000000143
 20
240.8765279705085
 30
0.0
 11
210.0
 21
240.8765279705085
 31
0.0
  0
INSERT
  5
BDC
330
5C3
100
AcDbEntity
  8
SIZE
 62
     0
440
 16777216
370
    -2
100
AcDbBlockReference
  2
_Origin
 10
480.0000000000143
 20
240.8765279705085
 30
0.0
 41
8.0
 42
8.0
 43
8.0
  0
INSERT
  5
BDD
330
5C3
100
AcDbEntity
  8
SIZE
 62
     0
440
 16777216
370
    -2
100
AcDbBlockReference
  2
_Origin
 10
202.0
 20
240.8765279705085
 30
0.0
 41
8.0
 42
8.0
 43
8.0
 50
180.0
  0
MTEXT
  5
BDE
330
5C3
100
AcDbEntity
  8
SIZE
 62
     0
440
 16777216
100
AcDbMText
 10
341.0000000000072
 20
277.8765279705085
 30
0.0
 40
64.0
 41
0.0
 71
     5
 72
     1
  1
\A1;278
 73
     1
 44
1.0
  0
POINT
  5
BDF
330
5C3
100
AcDbEntity
  8
DEFPOINTS
 62
     0
440
 16777216
100
AcDbPoint
 10
480.0000000000143
 20
-1.000000000003637
 30
0.0
  0
POINT
  5
BE0
330
5C3
100
AcDbEntity
  8
DEFPOINTS
 62
     0
440
 16777216
100
AcDbPoint
 10
202.0
 20
20.0
 30
0.0
  0
POINT
  5
BE1
330
5C3
100
AcDbEntity
  8
DEFPOINTS
 62
     0
440
 16777216
100
AcDbPoint
 10
202.0
 20
240.8765279705085
 30
0.0
  0
ENDBLK
  5
5C5
330
5C3
100
AcDbEntity
  8
0
100
AcDbBlockEnd
  0
BLOCK
  5
5DC
330
5DB
100
AcDbEntity
  8
0
100
AcDbBlockBegin
  2
*D3
 70
     1
 10
0.0
 20
0.0
 30
0.0
  3
*D3
  1

  0
LINE
  5
BD0
330
5DB
100
AcDbEntity
  8
SIZE
 62
     0
440
 16777216
370
    -2
100
AcDbLine
 10
480.0000000000143
 20
-0.937500000003637
 30
0.0
 11
480.0000000000143
 21
354.7349252475284
 31
0.0
  0
LINE
  5
BD1
330
5DB
100
AcDbEntity
  8
SIZE
 62
     0
440
 16777216
370
    -2
100
AcDbLine
 10
196.0
 20
20.0625
 30
0.0
 11
196.0
 21
354.7349252475284
 31
0.0
  0
LINE
  5
BD2
330
5DB
100
AcDbEntity
  8
SIZE
 62
     0
440
 16777216
370
    -2
100
AcDbLine
 10
472.0000000000143
 20
354.5549252475284
 30
0.0
 11
204.0
 21
354.5549252475284
 31
0.0
  0
INSERT
  5
BD3
330
5DB
100
AcDbEntity
  8
SIZE
 62
     0
440
 16777216
370
    -2
100
AcDbBlockReference
  2
_Origin
 10
480.0000000000143
 20
354.5549252475284
 30
0.0
 41
8.0
 42
8.0
 43
8.0
  0
INSERT
  5
BD4
330
5DB
100
AcDbEntity
  8
SIZE
 62
     0
440
 16777216
370
    -2
100
AcDbBlockReference
  2
_Origin
 10
196.0
 20
354.5549252475284
 30
0.0
 41
8.0
 42
8.0
 43
8.0
 50
180.0
  0
MTEXT
  5
BD5
330
5DB
100
AcDbEntity
  8
SIZE
 62
     0
440
 16777216
100
AcDbMText
 10
338.0000000000072
 20
391.5549252475284
 30
0.0
 40
64.0
 41
0.0
 71
     5
 72
     1
  1
\A1;284
 73
     1
 44
1.0
  0
POINT
  5
BD6
330
5DB
100
AcDbEntity
  8
DEFPOINTS
 62
     0
440
 16777216
100
AcDbPoint
 10
480.0000000000143
 20
-1.000000000003637
 30
0.0
  0
POINT
  5
BD7
330
5DB
100
AcDbEntity
  8
DEFPOINTS
 62
     0
440
 16777216
100
AcDbPoint
 10
196.0
 20
20.0
 30
0.0
  0
POINT
  5
BD8
330
5DB
100
AcDbEntity
  8
DEFPOINTS
 62
     0
440
 16777216
100
AcDbPoint
 10
196.0
 20
354.5549252475284
 30
0.0
  0
ENDBLK
  5
5DD
330
5DB
100
AcDbEntity
  8
0
100
AcDbBlockEnd
  0
BLOCK
  5
60C
330
60B
100
AcDbEntity
  8
0
100
AcDbBlockBegin
  2
*D4
 70
     1
 10
0.0
 20
0.0
 30
0.0
  3
*D4
  1

  0
LINE
  5
BF6
330
60B
100
AcDbEntity
  8
SIZE
 62
     0
440
 16777216
370
    -2
100
AcDbLine
 10
-404.9999999999963
 20
-265.9375000000018
 30
0.0
 11
-404.9999999999963
 21
98.11810622151796
 31
0.0
  0
LINE
  5
BF7
330
60B
100
AcDbEntity
  8
SIZE
 62
     0
440
 16777216
370
    -2
100
AcDbLine
 10
-480.0
 20
-337.9375000000018
 30
0.0
 11
-480.0
 21
98.11810622151796
 31
0.0
  0
LINE
  5
BF8
330
60B
100
AcDbEntity
  8
SIZE
 62
     0
440
 16777216
370
    -2
100
AcDbLine
 10
-472.0
 20
97.93810622151795
 30
0.0
 11
-412.9999999999963
 21
97.93810622151795
 31
0.0
  0
LINE
  5
BF9
330
60B
100
AcDbEntity
  8
SIZE
 62
     0
440
 16777216
370
    -2
100
AcDbLine
 10
-404.9999999999963
 20
97.93810622151795
 30
0.0
 11
-304.1047619047582
 21
97.93810622151795
 31
0.0
  0
INSERT
  5
BFA
330
60B
100
AcDbEntity
  8
SIZE
 62
     0
440
 16777216
370
    -2
100
AcDbBlockReference
  2
_Origin
 10
-480.0
 20
97.93810622151795
 30
0.0
 41
8.0
 42
8.0
 43
8.0
 50
180.0
  0
INSERT
  5
BFB
330
60B
100
AcDbEntity
  8
SIZE
 62
     0
440
 16777216
370
    -2
100
AcDbBlockReference
  2
_Origin
 10
-404.9999999999963
 20
97.93810622151795
 30
0.0
 41
8.0
 42
8.0
 43
8.0
  0
MTEXT
  5
BFC
330
60B
100
AcDbEntity
  8
SIZE
 62
     0
440
 16777216
100
AcDbMText
 10
-350.5523809523773
 20
134.9381062215179
 30
0.0
 40
64.0
 41
0.0
 71
     5
 72
     1
  1
\A1;75
 73
     1
 44
1.0
  0
POINT
  5
BFD
330
60B
100
AcDbEntity
  8
DEFPOINTS
 62
     0
440
 16777216
100
AcDbPoint
 10
-404.9999999999963
 20
-266.0000000000018
 30
0.0
  0
POINT
  5
BFE
330
60B
100
AcDbEntity
  8
DEFPOINTS
 62
     0
440
 16777216
100
AcDbPoint
 10
-480.0
 20
-338.0000000000018
 30
0.0
  0
POINT
  5
BFF
330
60B
100
AcDbEntity
  8
DEFPOINTS
 62
     0
440
 16777216
100
AcDbPoint
 10
-480.0
 20
97.93810622151795
 30
0.0
  0
ENDBLK
  5
60D
330
60B
100
AcDbEntity
  8
0
100
AcDbBlockEnd
  0
BLOCK
  5
626
330
625
100
AcDbEntity
  8
0
100
AcDbBlockBegin
  2
*D5
 70
     1
 10
0.0
 20
0.0
 30
0.0
  3
*D5
  1

  0
LINE
  5
BEC
330
625
100
AcDbEntity
  8
SIZE
 62
     0
440
 16777216
370
    -2
100
AcDbLine
 10
480.0000000000053
 20
-625.4856500000059
 30
0.0
 11
480.0000000000053
 21
-833.0653971132321
 31
0.0
  0
LINE
  5
BED
330
625
100
AcDbEntity
  8
SIZE
 62
     0
440
 16777216
370
    -2
100
AcDbLine
 10
342.0
 20
-266.0625000000009
 30
0.0
 11
341.9999999999999
 21
-833.0653971132321
 31
0.0
  0
LINE
  5
BEE
330
625
100
AcDbEntity
  8
SIZE
 62
     0
440
 16777216
370
    -2
100
AcDbLine
 10
472.0000000000053
 20
-832.8853971132321
 30
0.0
 11
350.0
 21
-832.8853971132321
 31
0.0
  0
LINE
  5
BEF
330
625
100
AcDbEntity
  8
SIZE
 62
     0
440
 16777216
370
    -2
100
AcDbLine
 10
341.9999999999999
 20
-832.8853971132321
 30
0.0
 11
194.4761904761904
 21
-832.8853971132321
 31
0.0
  0
INSERT
  5
BF0
330
625
100
AcDbEntity
  8
SIZE
 62
     0
440
 16777216
370
    -2
100
AcDbBlockReference
  2
_Origin
 10
480.0000000000053
 20
-832.8853971132321
 30
0.0
 41
8.0
 42
8.0
 43
8.0
  0
INSERT
  5
BF1
330
625
100
AcDbEntity
  8
SIZE
 62
     0
440
 16777216
370
    -2
100
AcDbBlockReference
  2
_Origin
 10
341.9999999999999
 20
-832.8853971132321
 30
0.0
 41
8.0
 42
8.0
 43
8.0
 50
180.0
  0
MTEXT
  5
BF2
330
625
100
AcDbEntity
  8
SIZE
 62
     0
440
 16777216
100
AcDbMText
 10
260.4285714285714
 20
-795.8853971132321
 30
0.0
 40
64.0
 41
0.0
 71
     5
 72
     1
  1
\A1;138
 73
     1
 44
1.0
  0
POINT
  5
BF3
330
625
100
AcDbEntity
  8
DEFPOINTS
 62
     0
440
 16777216
100
AcDbPoint
 10
480.0000000000053
 20
-625.4231500000059
 30
0.0
  0
POINT
  5
BF4
330
625
100
AcDbEntity
  8
DEFPOINTS
 62
     0
440
 16777216
100
AcDbPoint
 10
342.0
 20
-266.0000000000009
 30
0.0
  0
POINT
  5
BF5
330
625
100
AcDbEntity
  8
DEFPOINTS
 62
     0
440
 16777216
100
AcDbPoint
 10
341.9999999999999
 20
-832.8853971132321
 30
0.0
  0
ENDBLK
  5
627
330
625
100
AcDbEntity
  8
0
100
AcDbBlockEnd
  0
ENDSEC
  0
SECTION
  2
ENTITIES
  0
LINE
  5
7A
330
1F
100
AcDbEntity
  8
OUTLINE
100
AcDbLine
 10
0.0
 20
-680.0
 30
0.0
 11
477.0
 21
-680.0
 31
0.0
  0
LINE
  5
7B
330
1F
100
AcDbEntity
  8
OUTLINE
100
AcDbLine
 10
481.0
 20
-0.000000000003638
 30
0.0
 11
0.0
 21
0.0
 31
0.0
  0
LINE
  5
7C
330
1F
100
AcDbEntity
  8
OUTLINE
100
AcDbLine
 10
-482.0
 20
-675.0
 30
0.0
 11
-482.0
 21
-1.000000000003637
 31
0.0
  0
LINE
  5
7D
330
1F
100
AcDbEntity
  8
OUTLINE
100
AcDbLine
 10
0.0
 20
-680.0
 30
0.0
 11
-477.0
 21
-680.0
 31
0.0
  0
ARC
  5
7E
330
1F
100
AcDbEntity
  8
OUTLINE
100
AcDbCircle
 10
-477.0
 20
-675.0
 30
0.0
 40
5.0
100
AcDbArc
 50
180.0
 51
270.0
  0
LINE
  5
7F
330
1F
100
AcDbEntity
  8
OUTLINE
100
AcDbLine
 10
-481.0
 20
-0.000000000003638
 30
0.0
 11
0.0
 21
0.0
 31
0.0
  0
ARC
  5
80
330
1F
100
AcDbEntity
  8
OUTLINE
100
AcDbCircle
 10
-481.0
 20
-1.000000000003637
 30
0.0
 40
1.0
100
AcDbArc
 50
90.00000000000001
 51
180.0
  0
LINE
  5
81
330
1F
100
AcDbEntity
  8
OUTLINE
100
AcDbLine
 10
482.0
 20
-675.0
 30
0.0
 11
482.0
 21
-1.000000000003637
 31
0.0
  0
ARC
  5
82
330
1F
100
AcDbEntity
  8
OUTLINE
100
AcDbCircle
 10
477.0
 20
-675.0
 30
0.0
 40
5.0
100
AcDbArc
 50
270.0
 51
0.0
  0
ARC
  5
83
330
1F
100
AcDbEntity
  8
OUTLINE
100
AcDbCircle
 10
481.0
 20
-1.000000000003637
 30
0.0
 40
1.0
100
AcDbArc
 50
0.0
 51
90.00000000000001
  0
ARC
  5
84
330
1F
100
AcDbEntity
  8
DETAIL
100
AcDbCircle
 10
-438.0741799999849
 20
-1.109089999999917
 30
0.0
 40
0.92582
100
AcDbArc
 50
90.00000000000001
 51
180.0
  0
ARC
  5
85
330
1F
100
AcDbEntity
  8
DETAIL
100
AcDbCircle
 10
-438.0741799999849
 20
-1.109089999999917
 30
0.0
 40
0.92582
100
AcDbArc
 50
90.00000000000001
 51
180.0
  0
ARC
  5
86
330
1F
100
AcDbEntity
  8
DETAIL
100
AcDbCircle
 10
-438.1090899999981
 20
-253.1090900000072
 30
0.0
 40
0.89091
100
AcDbArc
 50
180.0
 51
270.0
  0
LINE
  5
A5
330
1F
100
AcDbEntity
  8
DETAIL
100
AcDbLine
 10
-74.09999999999854
 20
-221.1117999999987
 30
0.0
 11
-365.3999999999905
 21
-221.1117999999987
 31
0.0
  0
LINE
  5
A6
330
1F
100
AcDbEntity
  8
DETAIL
100
AcDbLine
 10
-0.4999999999927243
 20
-206.6090900000017
 30
0.0
 11
-438.9999999999964
 21
-206.6090900000017
 31
0.0
  0
LINE
  5
A7
330
1F
100
AcDbEntity
  8
DETAIL
100
AcDbLine
 10
-0.4999999999927243
 20
-192.1090900000035
 30
0.0
 11
-438.9999999999964
 21
-192.1090900000035
 31
0.0
  0
LINE
  5
A8
330
1F
100
AcDbEntity
  8
DETAIL
100
AcDbLine
 10
-0.4999999999927243
 20
-177.6090900000053
 30
0.0
 11
-438.9999999999964
 21
-177.6090900000053
 31
0.0
  0
LINE
  5
A9
330
1F
100
AcDbEntity
  8
DETAIL
100
AcDbLine
 10
-439.08727
 20
-163.1090900000071
 30
0.0
 11
-0.4999999999927243
 21
-163.1090900000071
 31
0.0
  0
LINE
  5
AA
330
1F
100
AcDbEntity
  8
DETAIL
100
AcDbLine
 10
-439.08727
 20
-148.6090899999999
 30
0.0
 11
-0.4999999999927243
 21
-148.6090899999999
 31
0.0
  0
LINE
  5
AB
330
1F
100
AcDbEntity
  8
DETAIL
100
AcDbLine
 10
-439.08727
 20
-134.1090900000017
 30
0.0
 11
-0.4999999999927243
 21
-134.1090900000017
 31
0.0
  0
LINE
  5
AC
330
1F
100
AcDbEntity
  8
DETAIL
100
AcDbLine
 10
-439.08727
 20
-119.6090900000035
 30
0.0
 11
-0.4999999999927243
 21
-119.6090900000035
 31
0.0
  0
LINE
  5
AD
330
1F
100
AcDbEntity
  8
DETAIL
100
AcDbLine
 10
-439.08727
 20
-105.1090900000053
 30
0.0
 11
-0.4999999999927243
 21
-105.1090900000053
 31
0.0
  0
LINE
  5
AE
330
1F
100
AcDbEntity
  8
DETAIL
100
AcDbLine
 10
-439.08727
 20
-90.60909000000721
 30
0.0
 11
-0.4999999999927243
 21
-90.60909000000721
 31
0.0
  0
LINE
  5
AF
330
1F
100
AcDbEntity
  8
DETAIL
100
AcDbLine
 10
-439.08727
 20
-76.10908999999992
 30
0.0
 11
-0.4999999999927243
 21
-76.10908999999992
 31
0.0
  0
LINE
  5
B0
330
1F
100
AcDbEntity
  8
DETAIL
100
AcDbLine
 10
-439.08727
 20
-61.60909000000174
 30
0.0
 11
-0.4999999999927243
 21
-61.60909000000174
 31
0.0
  0
LINE
  5
B1
330
1F
100
AcDbEntity
  8
DETAIL
100
AcDbLine
 10
-439.08727
 20
-47.10909000000357
 30
0.0
 11
-0.4999999999927243
 21
-47.10909000000357
 31
0.0
  0
LINE
  5
B2
330
1F
100
AcDbEntity
  8
DETAIL
100
AcDbLine
 10
-439.08727
 20
-32.60909000000538
 30
0.0
 11
-0.4999999999927243
 21
-32.60909000000538
 31
0.0
  0
LINE
  5
B3
330
1F
100
AcDbEntity
  8
DETAIL
100
AcDbLine
 10
-439.08727
 20
-235.6090900000072
 30
0.0
 11
-0.4999999999927243
 21
-235.6090900000072
 31
0.0
  0
LINE
  5
B4
330
1F
100
AcDbEntity
  8
DETAIL
100
AcDbLine
 10
-438.1090899999981
 20
-254.0000000000054
 30
0.0
 11
-1.390919999994362
 21
-254.0000000000054
 31
0.0
  0
LINE
  5
B6
330
1F
100
AcDbEntity
  8
DETAIL
100
AcDbLine
 10
-438.9999999999964
 20
-17.75032000000464
 30
0.0
 11
-0.4999999999927243
 21
-17.75032000000464
 31
0.0
  0
LINE
  5
C6
330
1F
100
AcDbEntity
  8
DETAIL
100
AcDbLine
 10
-71.25
 20
-236.9828300000063
 30
0.0
 11
-72.24999999998543
 21
-236.9828300000063
 31
0.0
  0
LINE
  5
C7
330
1F
100
AcDbEntity
  8
DETAIL
100
AcDbLine
 10
-71.25
 20
-235.6090900000072
 30
0.0
 11
-71.25
 21
-236.9828300000063
 31
0.0
  0
LINE
  5
C8
330
1F
100
AcDbEntity
  8
DETAIL
100
AcDbLine
 10
-48.24999999998908
 20
-236.9020900000032
 30
0.0
 11
-71.25
 21
-236.9020900000032
 31
0.0
  0
LINE
  5
C9
330
1F
100
AcDbEntity
  8
DETAIL
100
AcDbLine
 10
-72.24999999998543
 20
-236.9828300000063
 30
0.0
 11
-72.24999999998543
 21
-251.0960000000068
 31
0.0
  0
LINE
  5
CA
330
1F
100
AcDbEntity
  8
DETAIL
100
AcDbLine
 10
-73.24999999998908
 20
-235.6090900000072
 30
0.0
 11
-73.24999999998908
 21
-254.1090900000017
 31
0.0
  0
LINE
  5
CB
330
1F
100
AcDbEntity
  8
DETAIL
100
AcDbLine
 10
-47.24999999998543
 20
-236.9828300000063
 30
0.0
 11
-48.24999999998908
 21
-236.9828300000063
 31
0.0
  0
LINE
  5
CC
330
1F
100
AcDbEntity
  8
DETAIL
100
AcDbLine
 10
-48.24999999998908
 20
-235.6090900000072
 30
0.0
 11
-48.24999999998908
 21
-236.9828300000063
 31
0.0
  0
LINE
  5
CD
330
1F
100
AcDbEntity
  8
DETAIL
100
AcDbLine
 10
-47.24999999998543
 20
-236.9828300000063
 30
0.0
 11
-47.24999999998543
 21
-251.0960000000068
 31
0.0
  0
LINE
  5
CE
330
1F
100
AcDbEntity
  8
DETAIL
100
AcDbLine
 10
-46.25
 20
-235.6090900000072
 30
0.0
 11
-46.25
 21
-254.1090900000017
 31
0.0
  0
LINE
  5
CF
330
1F
100
AcDbEntity
  8
DETAIL
100
AcDbLine
 10
-47.24999999998543
 20
-251.0960000000068
 30
0.0
 11
-72.24999999998543
 21
-251.0960000000068
 31
0.0
  0
LINE
  5
FD
330
1F
100
AcDbEntity
  8
DETAIL
100
AcDbLine
 10
-74.09999999999854
 20
-211.5437800000017
 30
0.0
 11
-74.09999999999854
 21
-235.6090900000072
 31
0.0
  0
LINE
  5
FE
330
1F
100
AcDbEntity
  8
DETAIL
100
AcDbLine
 10
-74.09999999999854
 20
-211.5437800000017
 30
0.0
 11
-76.74999999999272
 21
-211.5437800000017
 31
0.0
  0
LINE
  5
FF
330
1F
100
AcDbEntity
  8
DETAIL
100
AcDbLine
 10
-74.09999999999854
 20
-225.9897799999998
 30
0.0
 11
-76.74999999999272
 21
-225.9897799999998
 31
0.0
  0
LINE
  5
100
330
1F
100
AcDbEntity
  8
DETAIL
100
AcDbLine
 10
-76.74999999999272
 20
-225.9897799999998
 30
0.0
 11
-76.74999999999272
 21
-235.6090900000072
 31
0.0
  0
LINE
  5
101
330
1F
100
AcDbEntity
  8
DETAIL
100
AcDbLine
 10
-45.39999999999054
 20
-211.5437800000017
 30
0.0
 11
-45.39999999999054
 21
-235.6090900000072
 31
0.0
  0
LINE
  5
102
330
1F
100
AcDbEntity
  8
DETAIL
100
AcDbLine
 10
-42.74999999999636
 20
-225.9897799999998
 30
0.0
 11
-45.39999999999054
 21
-225.9897799999998
 31
0.0
  0
LINE
  5
103
330
1F
100
AcDbEntity
  8
DETAIL
100
AcDbLine
 10
-42.74999999999636
 20
-225.9897799999998
 30
0.0
 11
-42.74999999999636
 21
-235.6090900000072
 31
0.0
  0
LINE
  5
104
330
1F
100
AcDbEntity
  8
DETAIL
100
AcDbLine
 10
-42.74999999999636
 20
-211.5437800000017
 30
0.0
 11
-45.39999999999054
 21
-211.5437800000017
 31
0.0
  0
LINE
  5
105
330
1F
100
AcDbEntity
  8
DETAIL
100
AcDbLine
 10
-42.74999999999636
 20
-211.5437800000017
 30
0.0
 11
-42.74999999999636
 21
-221.1117999999987
 31
0.0
  0
LINE
  5
106
330
1F
100
AcDbEntity
  8
DETAIL
100
AcDbLine
 10
-45.39999999999054
 20
-215.1211300000068
 30
0.0
 11
-74.09999999999854
 21
-215.1211300000068
 31
0.0
  0
LINE
  5
107
330
1F
100
AcDbEntity
  8
DETAIL
100
AcDbLine
 10
-42.74999999999636
 20
-220.9023200000046
 30
0.0
 11
-45.39999999999054
 21
-220.9023200000046
 31
0.0
  0
LINE
  5
108
330
1F
100
AcDbEntity
  8
DETAIL
100
AcDbLine
 10
-76.74999999999272
 20
-211.5437800000017
 30
0.0
 11
-76.74999999999272
 21
-221.1117999999987
 31
0.0
  0
LINE
  5
109
330
1F
100
AcDbEntity
  8
DETAIL
100
AcDbLine
 10
-74.09999999999854
 20
-220.9023200000046
 30
0.0
 11
-76.74999999999272
 21
-220.9023200000046
 31
0.0
  0
LINE
  5
10A
330
1F
100
AcDbEntity
  8
DETAIL
100
AcDbLine
 10
-57.89999999999054
 20
-221.1090899999999
 30
0.0
 11
-61.59999999999854
 21
-221.1090899999999
 31
0.0
  0
LINE
  5
10B
330
1F
100
AcDbEntity
  8
DETAIL
100
AcDbLine
 10
-57.89999999999054
 20
-229.309090000006
 30
0.0
 11
-61.59999999999854
 21
-229.309090000006
 31
0.0
  0
LINE
  5
10C
330
1F
100
AcDbEntity
  8
DETAIL
100
AcDbLine
 10
-61.59999999999854
 20
-221.1090899999999
 30
0.0
 11
-61.59999999999854
 21
-229.309090000006
 31
0.0
  0
LINE
  5
10D
330
1F
100
AcDbEntity
  8
DETAIL
100
AcDbLine
 10
-57.89999999999054
 20
-221.1090899999999
 30
0.0
 11
-57.89999999999054
 21
-229.309090000006
 31
0.0
  0
LINE
  5
10E
330
1F
100
AcDbEntity
  8
DETAIL
100
AcDbLine
 10
-45.39999999999054
 20
-232.3765400000047
 30
0.0
 11
-74.09999999999854
 21
-232.3765400000047
 31
0.0
  0
LINE
  5
10F
330
1F
100
AcDbEntity
  8
DETAIL
100
AcDbLine
 10
-0.4999999999927243
 20
-221.1117999999987
 30
0.0
 11
-45.39999999999054
 21
-221.1117999999987
 31
0.0
  0
LINE
  5
118
330
1F
100
AcDbEntity
  8
DETAIL
100
AcDbLine
 10
-393.249999999989
 20
-235.6090900000072
 30
0.0
 11
-393.249999999989
 21
-254.1090900000017
 31
0.0
  0
LINE
  5
119
330
1F
100
AcDbEntity
  8
DETAIL
100
AcDbLine
 10
-392.2499999999853
 20
-236.9828300000063
 30
0.0
 11
-392.2499999999853
 21
-251.0960000000068
 31
0.0
  0
LINE
  5
11A
330
1F
100
AcDbEntity
  8
DETAIL
100
AcDbLine
 10
-366.25
 20
-235.6090900000072
 30
0.0
 11
-366.25
 21
-254.1090900000017
 31
0.0
  0
LINE
  5
11B
330
1F
100
AcDbEntity
  8
DETAIL
100
AcDbLine
 10
-367.2499999999853
 20
-236.9828300000063
 30
0.0
 11
-367.2499999999853
 21
-251.0960000000068
 31
0.0
  0
LINE
  5
11C
330
1F
100
AcDbEntity
  8
DETAIL
100
AcDbLine
 10
-368.249999999989
 20
-236.9020900000032
 30
0.0
 11
-391.25
 21
-236.9020900000032
 31
0.0
  0
LINE
  5
11D
330
1F
100
AcDbEntity
  8
DETAIL
100
AcDbLine
 10
-367.2499999999853
 20
-251.0960000000068
 30
0.0
 11
-392.2499999999853
 21
-251.0960000000068
 31
0.0
  0
LINE
  5
11E
330
1F
100
AcDbEntity
  8
DETAIL
100
AcDbLine
 10
-391.25
 20
-235.6090900000072
 30
0.0
 11
-391.25
 21
-236.9828300000063
 31
0.0
  0
LINE
  5
11F
330
1F
100
AcDbEntity
  8
DETAIL
100
AcDbLine
 10
-368.249999999989
 20
-235.6090900000072
 30
0.0
 11
-368.249999999989
 21
-236.9828300000063
 31
0.0
  0
LINE
  5
121
330
1F
100
AcDbEntity
  8
DETAIL
100
AcDbLine
 10
-367.2499999999853
 20
-236.9828300000063
 30
0.0
 11
-368.249999999989
 21
-236.9828300000063
 31
0.0
  0
LINE
  5
123
330
1F
100
AcDbEntity
  8
DETAIL
100
AcDbLine
 10
-391.25
 20
-236.9828300000063
 30
0.0
 11
-392.2499999999853
 21
-236.9828300000063
 31
0.0
  0
LINE
  5
130
330
1F
100
AcDbEntity
  8
DETAIL
100
AcDbLine
 10
-394.0999999999985
 20
-221.1117999999987
 30
0.0
 11
-438.9999999999964
 21
-221.1117999999987
 31
0.0
  0
LINE
  5
133
330
1F
100
AcDbEntity
  8
DETAIL
100
AcDbLine
 10
-394.0999999999985
 20
-211.5437800000017
 30
0.0
 11
-394.0999999999985
 21
-235.6090900000072
 31
0.0
  0
LINE
  5
134
330
1F
100
AcDbEntity
  8
DETAIL
100
AcDbLine
 10
-394.0999999999985
 20
-211.5437800000017
 30
0.0
 11
-396.7499999999927
 21
-211.5437800000017
 31
0.0
  0
LINE
  5
135
330
1F
100
AcDbEntity
  8
DETAIL
100
AcDbLine
 10
-394.0999999999985
 20
-225.9897799999998
 30
0.0
 11
-396.7499999999927
 21
-225.9897799999998
 31
0.0
  0
LINE
  5
136
330
1F
100
AcDbEntity
  8
DETAIL
100
AcDbLine
 10
-396.7499999999927
 20
-225.9897799999998
 30
0.0
 11
-396.7499999999927
 21
-235.6090900000072
 31
0.0
  0
LINE
  5
137
330
1F
100
AcDbEntity
  8
DETAIL
100
AcDbLine
 10
-365.3999999999905
 20
-211.5437800000017
 30
0.0
 11
-365.3999999999905
 21
-235.6090900000072
 31
0.0
  0
LINE
  5
138
330
1F
100
AcDbEntity
  8
DETAIL
100
AcDbLine
 10
-362.7499999999963
 20
-225.9897799999998
 30
0.0
 11
-365.3999999999905
 21
-225.9897799999998
 31
0.0
  0
LINE
  5
139
330
1F
100
AcDbEntity
  8
DETAIL
100
AcDbLine
 10
-362.7499999999963
 20
-225.9897799999998
 30
0.0
 11
-362.7499999999963
 21
-235.6090900000072
 31
0.0
  0
LINE
  5
13A
330
1F
100
AcDbEntity
  8
DETAIL
100
AcDbLine
 10
-362.7499999999963
 20
-211.5437800000017
 30
0.0
 11
-365.3999999999905
 21
-211.5437800000017
 31
0.0
  0
LINE
  5
13B
330
1F
100
AcDbEntity
  8
DETAIL
100
AcDbLine
 10
-362.7499999999963
 20
-211.5437800000017
 30
0.0
 11
-362.7499999999963
 21
-221.1117999999987
 31
0.0
  0
LINE
  5
13C
330
1F
100
AcDbEntity
  8
DETAIL
100
AcDbLine
 10
-365.3999999999905
 20
-215.1211300000068
 30
0.0
 11
-394.0999999999985
 21
-215.1211300000068
 31
0.0
  0
LINE
  5
13D
330
1F
100
AcDbEntity
  8
DETAIL
100
AcDbLine
 10
-362.7499999999963
 20
-220.9023200000046
 30
0.0
 11
-365.3999999999905
 21
-220.9023200000046
 31
0.0
  0
LINE
  5
13F
330
1F
100
AcDbEntity
  8
DETAIL
100
AcDbLine
 10
-396.7499999999927
 20
-211.5437800000017
 30
0.0
 11
-396.7499999999927
 21
-221.1117999999987
 31
0.0
  0
LINE
  5
141
330
1F
100
AcDbEntity
  8
DETAIL
100
AcDbLine
 10
-394.0999999999985
 20
-220.9023200000046
 30
0.0
 11
-396.7499999999927
 21
-220.9023200000046
 31
0.0
  0
LINE
  5
143
330
1F
100
AcDbEntity
  8
DETAIL
100
AcDbLine
 10
-377.8999999999905
 20
-221.1090899999999
 30
0.0
 11
-381.5999999999985
 21
-221.1090899999999
 31
0.0
  0
LINE
  5
145
330
1F
100
AcDbEntity
  8
DETAIL
100
AcDbLine
 10
-377.8999999999905
 20
-229.309090000006
 30
0.0
 11
-381.5999999999985
 21
-229.309090000006
 31
0.0
  0
LINE
  5
146
330
1F
100
AcDbEntity
  8
DETAIL
100
AcDbLine
 10
-381.5999999999985
 20
-221.1090899999999
 30
0.0
 11
-381.5999999999985
 21
-229.309090000006
 31
0.0
  0
LINE
  5
148
330
1F
100
AcDbEntity
  8
DETAIL
100
AcDbLine
 10
-377.8999999999905
 20
-221.1090899999999
 30
0.0
 11
-377.8999999999905
 21
-229.309090000006
 31
0.0
  0
LINE
  5
14A
330
1F
100
AcDbEntity
  8
DETAIL
100
AcDbLine
 10
-365.3999999999905
 20
-232.3765400000047
 30
0.0
 11
-394.0999999999985
 21
-232.3765400000047
 31
0.0
  0
ARC
  5
1D6
330
1F
100
AcDbEntity
  8
DETAIL
100
AcDbCircle
 10
-1.390919999994362
 20
-253.1090900000072
 30
0.0
 40
0.89091
100
AcDbArc
 50
270.0
 51
0.0
  0
LINE
  5
1D8
330
1F
100
AcDbEntity
  8
DETAIL
100
AcDbLine
 10
-0.4999999999927243
 20
-253.1090900000072
 30
0.0
 11
-0.4999999999927243
 21
-1.109089999999917
 31
0.0
  0
ARC
  5
1D9
330
1F
100
AcDbEntity
  8
DETAIL
100
AcDbCircle
 10
-1.425829999989218
 20
-1.109089999999917
 30
0.0
 40
0.92582
100
AcDbArc
 50
0.0
 51
90.00000000000001
  0
LINE
  5
1DA
330
1F
100
AcDbEntity
  8
DETAIL
100
AcDbLine
 10
-1.425829999989218
 20
-0.1832700000068144
 30
0.0
 11
-438.0741799999849
 21
-0.1832700000068144
 31
0.0
  0
LINE
  5
1DB
330
1F
100
AcDbEntity
  8
DETAIL
100
AcDbLine
 10
-438.9999999999964
 20
-253.1090900000072
 30
0.0
 11
-438.9999999999964
 21
-1.109089999999917
 31
0.0
  0
ARC
  5
1DC
330
1F
100
AcDbEntity
  8
DETAIL
100
AcDbCircle
 10
1.425820000004023
 20
-1.109089999999917
 30
0.0
 40
0.92582
100
AcDbArc
 50
90.00000000000001
 51
180.0
  0
ARC
  5
1DD
330
1F
100
AcDbEntity
  8
DETAIL
100
AcDbCircle
 10
1.425820000004023
 20
-1.109089999999917
 30
0.0
 40
0.92582
100
AcDbArc
 50
90.00000000000001
 51
180.0
  0
ARC
  5
1DE
330
1F
100
AcDbEntity
  8
DETAIL
100
AcDbCircle
 10
1.390910000009168
 20
-253.1090900000072
 30
0.0
 40
0.89091
100
AcDbArc
 50
180.0
 51
270.0
  0
LINE
  5
1DF
330
1F
100
AcDbEntity
  8
DETAIL
100
AcDbLine
 10
438.0741699999998
 20
-0.1832700000068144
 30
0.0
 11
1.425820000004023
 21
-0.1832700000068144
 31
0.0
  0
ARC
  5
1E0
330
1F
100
AcDbEntity
  8
DETAIL
100
AcDbCircle
 10
438.0741699999998
 20
-1.109089999999917
 30
0.0
 40
0.92582
100
AcDbArc
 50
0.0
 51
90.00000000000001
  0
LINE
  5
1E1
330
1F
100
AcDbEntity
  8
DETAIL
100
AcDbLine
 10
439.0000000000145
 20
-253.1090900000072
 30
0.0
 11
439.0000000000145
 21
-1.109089999999917
 31
0.0
  0
ARC
  5
1E3
330
1F
100
AcDbEntity
  8
DETAIL
100
AcDbCircle
 10
438.1090800000129
 20
-253.1090900000072
 30
0.0
 40
0.89091
100
AcDbArc
 50
270.0
 51
0.0
  0
LINE
  5
26F
330
1F
100
AcDbEntity
  8
DETAIL
100
AcDbLine
 10
74.10000000001673
 20
-232.3765400000047
 30
0.0
 11
45.40000000000872
 21
-232.3765400000047
 31
0.0
  0
LINE
  5
271
330
1F
100
AcDbEntity
  8
DETAIL
100
AcDbLine
 10
61.60000000001673
 20
-221.1090899999999
 30
0.0
 11
61.60000000001673
 21
-229.309090000006
 31
0.0
  0
LINE
  5
273
330
1F
100
AcDbEntity
  8
DETAIL
100
AcDbLine
 10
57.90000000000873
 20
-221.1090899999999
 30
0.0
 11
57.90000000000873
 21
-229.309090000006
 31
0.0
  0
LINE
  5
274
330
1F
100
AcDbEntity
  8
DETAIL
100
AcDbLine
 10
61.60000000001673
 20
-229.309090000006
 30
0.0
 11
57.90000000000873
 21
-229.309090000006
 31
0.0
  0
LINE
  5
276
330
1F
100
AcDbEntity
  8
DETAIL
100
AcDbLine
 10
61.60000000001673
 20
-221.1090899999999
 30
0.0
 11
57.90000000000873
 21
-221.1090899999999
 31
0.0
  0
LINE
  5
278
330
1F
100
AcDbEntity
  8
DETAIL
100
AcDbLine
 10
45.40000000000872
 20
-220.9023200000046
 30
0.0
 11
42.75000000001454
 21
-220.9023200000046
 31
0.0
  0
LINE
  5
27A
330
1F
100
AcDbEntity
  8
DETAIL
100
AcDbLine
 10
42.75000000001454
 20
-211.5437800000017
 30
0.0
 11
42.75000000001454
 21
-221.1117999999987
 31
0.0
  0
LINE
  5
27C
330
1F
100
AcDbEntity
  8
DETAIL
100
AcDbLine
 10
76.75000000001091
 20
-220.9023200000046
 30
0.0
 11
74.10000000001673
 21
-220.9023200000046
 31
0.0
  0
LINE
  5
27D
330
1F
100
AcDbEntity
  8
DETAIL
100
AcDbLine
 10
74.10000000001673
 20
-215.1211300000068
 30
0.0
 11
45.40000000000872
 21
-215.1211300000068
 31
0.0
  0
LINE
  5
27E
330
1F
100
AcDbEntity
  8
DETAIL
100
AcDbLine
 10
76.75000000001091
 20
-211.5437800000017
 30
0.0
 11
76.75000000001091
 21
-221.1117999999987
 31
0.0
  0
LINE
  5
27F
330
1F
100
AcDbEntity
  8
DETAIL
100
AcDbLine
 10
76.75000000001091
 20
-211.5437800000017
 30
0.0
 11
74.10000000001673
 21
-211.5437800000017
 31
0.0
  0
LINE
  5
280
330
1F
100
AcDbEntity
  8
DETAIL
100
AcDbLine
 10
76.75000000001091
 20
-225.9897799999998
 30
0.0
 11
76.75000000001091
 21
-235.6090900000072
 31
0.0
  0
LINE
  5
281
330
1F
100
AcDbEntity
  8
DETAIL
100
AcDbLine
 10
76.75000000001091
 20
-225.9897799999998
 30
0.0
 11
74.10000000001673
 21
-225.9897799999998
 31
0.0
  0
LINE
  5
282
330
1F
100
AcDbEntity
  8
DETAIL
100
AcDbLine
 10
74.10000000001673
 20
-211.5437800000017
 30
0.0
 11
74.10000000001673
 21
-235.6090900000072
 31
0.0
  0
LINE
  5
283
330
1F
100
AcDbEntity
  8
DETAIL
100
AcDbLine
 10
42.75000000001454
 20
-225.9897799999998
 30
0.0
 11
42.75000000001454
 21
-235.6090900000072
 31
0.0
  0
LINE
  5
284
330
1F
100
AcDbEntity
  8
DETAIL
100
AcDbLine
 10
45.40000000000872
 20
-225.9897799999998
 30
0.0
 11
42.75000000001454
 21
-225.9897799999998
 31
0.0
  0
LINE
  5
285
330
1F
100
AcDbEntity
  8
DETAIL
100
AcDbLine
 10
45.40000000000872
 20
-211.5437800000017
 30
0.0
 11
42.75000000001454
 21
-211.5437800000017
 31
0.0
  0
LINE
  5
286
330
1F
100
AcDbEntity
  8
DETAIL
100
AcDbLine
 10
45.40000000000872
 20
-211.5437800000017
 30
0.0
 11
45.40000000000872
 21
-235.6090900000072
 31
0.0
  0
LINE
  5
289
330
1F
100
AcDbEntity
  8
DETAIL
100
AcDbLine
 10
45.40000000000872
 20
-221.1117999999987
 30
0.0
 11
0.500000000010914
 21
-221.1117999999987
 31
0.0
  0
LINE
  5
296
330
1F
100
AcDbEntity
  8
DETAIL
100
AcDbLine
 10
48.25000000000727
 20
-236.9828300000063
 30
0.0
 11
47.25000000000362
 21
-236.9828300000063
 31
0.0
  0
LINE
  5
298
330
1F
100
AcDbEntity
  8
DETAIL
100
AcDbLine
 10
72.25000000000362
 20
-236.9828300000063
 30
0.0
 11
71.25
 21
-236.9828300000063
 31
0.0
  0
LINE
  5
29A
330
1F
100
AcDbEntity
  8
DETAIL
100
AcDbLine
 10
71.25
 20
-235.6090900000072
 30
0.0
 11
71.25
 21
-236.9828300000063
 31
0.0
  0
LINE
  5
29B
330
1F
100
AcDbEntity
  8
DETAIL
100
AcDbLine
 10
48.25000000000727
 20
-235.6090900000072
 30
0.0
 11
48.25000000000727
 21
-236.9828300000063
 31
0.0
  0
LINE
  5
29C
330
1F
100
AcDbEntity
  8
DETAIL
100
AcDbLine
 10
72.25000000000362
 20
-251.0960000000068
 30
0.0
 11
47.25000000000362
 21
-251.0960000000068
 31
0.0
  0
LINE
  5
29D
330
1F
100
AcDbEntity
  8
DETAIL
100
AcDbLine
 10
71.25
 20
-236.9020900000032
 30
0.0
 11
48.25000000000727
 21
-236.9020900000032
 31
0.0
  0
LINE
  5
29E
330
1F
100
AcDbEntity
  8
DETAIL
100
AcDbLine
 10
72.25000000000362
 20
-236.9828300000063
 30
0.0
 11
72.25000000000362
 21
-251.0960000000068
 31
0.0
  0
LINE
  5
29F
330
1F
100
AcDbEntity
  8
DETAIL
100
AcDbLine
 10
73.25000000000726
 20
-235.6090900000072
 30
0.0
 11
73.25000000000726
 21
-254.1090900000017
 31
0.0
  0
LINE
  5
2A0
330
1F
100
AcDbEntity
  8
DETAIL
100
AcDbLine
 10
47.25000000000362
 20
-236.9828300000063
 30
0.0
 11
47.25000000000362
 21
-251.0960000000068
 31
0.0
  0
LINE
  5
2A1
330
1F
100
AcDbEntity
  8
DETAIL
100
AcDbLine
 10
46.25
 20
-235.6090900000072
 30
0.0
 11
46.25
 21
-254.1090900000017
 31
0.0
  0
LINE
  5
2AA
330
1F
100
AcDbEntity
  8
DETAIL
100
AcDbLine
 10
439.0000000000145
 20
-221.1117999999987
 30
0.0
 11
394.1000000000167
 21
-221.1117999999987
 31
0.0
  0
LINE
  5
2AB
330
1F
100
AcDbEntity
  8
DETAIL
100
AcDbLine
 10
394.1000000000167
 20
-232.3765400000047
 30
0.0
 11
365.4000000000087
 21
-232.3765400000047
 31
0.0
  0
LINE
  5
2AC
330
1F
100
AcDbEntity
  8
DETAIL
100
AcDbLine
 10
381.6000000000167
 20
-221.1090899999999
 30
0.0
 11
381.6000000000167
 21
-229.309090000006
 31
0.0
  0
LINE
  5
2AD
330
1F
100
AcDbEntity
  8
DETAIL
100
AcDbLine
 10
377.9000000000087
 20
-221.1090899999999
 30
0.0
 11
377.9000000000087
 21
-229.309090000006
 31
0.0
  0
LINE
  5
2AE
330
1F
100
AcDbEntity
  8
DETAIL
100
AcDbLine
 10
381.6000000000167
 20
-229.309090000006
 30
0.0
 11
377.9000000000087
 21
-229.309090000006
 31
0.0
  0
LINE
  5
2AF
330
1F
100
AcDbEntity
  8
DETAIL
100
AcDbLine
 10
381.6000000000167
 20
-221.1090899999999
 30
0.0
 11
377.9000000000087
 21
-221.1090899999999
 31
0.0
  0
LINE
  5
2B0
330
1F
100
AcDbEntity
  8
DETAIL
100
AcDbLine
 10
365.4000000000087
 20
-220.9023200000046
 30
0.0
 11
362.7500000000145
 21
-220.9023200000046
 31
0.0
  0
LINE
  5
2B1
330
1F
100
AcDbEntity
  8
DETAIL
100
AcDbLine
 10
362.7500000000145
 20
-211.5437800000017
 30
0.0
 11
362.7500000000145
 21
-221.1117999999987
 31
0.0
  0
LINE
  5
2B2
330
1F
100
AcDbEntity
  8
DETAIL
100
AcDbLine
 10
396.7500000000109
 20
-220.9023200000046
 30
0.0
 11
394.1000000000167
 21
-220.9023200000046
 31
0.0
  0
LINE
  5
2B3
330
1F
100
AcDbEntity
  8
DETAIL
100
AcDbLine
 10
394.1000000000167
 20
-215.1211300000068
 30
0.0
 11
365.4000000000087
 21
-215.1211300000068
 31
0.0
  0
LINE
  5
2B4
330
1F
100
AcDbEntity
  8
DETAIL
100
AcDbLine
 10
396.7500000000109
 20
-211.5437800000017
 30
0.0
 11
396.7500000000109
 21
-221.1117999999987
 31
0.0
  0
LINE
  5
2B5
330
1F
100
AcDbEntity
  8
DETAIL
100
AcDbLine
 10
396.7500000000109
 20
-211.5437800000017
 30
0.0
 11
394.1000000000167
 21
-211.5437800000017
 31
0.0
  0
LINE
  5
2B6
330
1F
100
AcDbEntity
  8
DETAIL
100
AcDbLine
 10
396.7500000000109
 20
-225.9897799999998
 30
0.0
 11
396.7500000000109
 21
-235.6090900000072
 31
0.0
  0
LINE
  5
2B7
330
1F
100
AcDbEntity
  8
DETAIL
100
AcDbLine
 10
396.7500000000109
 20
-225.9897799999998
 30
0.0
 11
394.1000000000167
 21
-225.9897799999998
 31
0.0
  0
LINE
  5
2B8
330
1F
100
AcDbEntity
  8
DETAIL
100
AcDbLine
 10
394.1000000000167
 20
-211.5437800000017
 30
0.0
 11
394.1000000000167
 21
-235.6090900000072
 31
0.0
  0
LINE
  5
2B9
330
1F
100
AcDbEntity
  8
DETAIL
100
AcDbLine
 10
362.7500000000145
 20
-225.9897799999998
 30
0.0
 11
362.7500000000145
 21
-235.6090900000072
 31
0.0
  0
LINE
  5
2BA
330
1F
100
AcDbEntity
  8
DETAIL
100
AcDbLine
 10
365.4000000000087
 20
-225.9897799999998
 30
0.0
 11
362.7500000000145
 21
-225.9897799999998
 31
0.0
  0
LINE
  5
2BB
330
1F
100
AcDbEntity
  8
DETAIL
100
AcDbLine
 10
365.4000000000087
 20
-211.5437800000017
 30
0.0
 11
362.7500000000145
 21
-211.5437800000017
 31
0.0
  0
LINE
  5
2BC
330
1F
100
AcDbEntity
  8
DETAIL
100
AcDbLine
 10
365.4000000000087
 20
-211.5437800000017
 30
0.0
 11
365.4000000000087
 21
-235.6090900000072
 31
0.0
  0
LINE
  5
2EA
330
1F
100
AcDbEntity
  8
DETAIL
100
AcDbLine
 10
392.2500000000036
 20
-251.0960000000068
 30
0.0
 11
367.2500000000036
 21
-251.0960000000068
 31
0.0
  0
LINE
  5
2EB
330
1F
100
AcDbEntity
  8
DETAIL
100
AcDbLine
 10
393.2500000000072
 20
-235.6090900000072
 30
0.0
 11
393.2500000000072
 21
-254.1090900000017
 31
0.0
  0
LINE
  5
2EC
330
1F
100
AcDbEntity
  8
DETAIL
100
AcDbLine
 10
392.2500000000036
 20
-236.9828300000063
 30
0.0
 11
392.2500000000036
 21
-251.0960000000068
 31
0.0
  0
LINE
  5
2ED
330
1F
100
AcDbEntity
  8
DETAIL
100
AcDbLine
 10
391.25
 20
-235.6090900000072
 30
0.0
 11
391.25
 21
-236.9828300000063
 31
0.0
  0
LINE
  5
2EE
330
1F
100
AcDbEntity
  8
DETAIL
100
AcDbLine
 10
392.2500000000036
 20
-236.9828300000063
 30
0.0
 11
391.25
 21
-236.9828300000063
 31
0.0
  0
LINE
  5
2EF
330
1F
100
AcDbEntity
  8
DETAIL
100
AcDbLine
 10
366.25
 20
-235.6090900000072
 30
0.0
 11
366.25
 21
-254.1090900000017
 31
0.0
  0
LINE
  5
2F0
330
1F
100
AcDbEntity
  8
DETAIL
100
AcDbLine
 10
367.2500000000036
 20
-236.9828300000063
 30
0.0
 11
367.2500000000036
 21
-251.0960000000068
 31
0.0
  0
LINE
  5
2F1
330
1F
100
AcDbEntity
  8
DETAIL
100
AcDbLine
 10
391.25
 20
-236.9020900000032
 30
0.0
 11
368.2500000000072
 21
-236.9020900000032
 31
0.0
  0
LINE
  5
2F2
330
1F
100
AcDbEntity
  8
DETAIL
100
AcDbLine
 10
368.2500000000072
 20
-235.6090900000072
 30
0.0
 11
368.2500000000072
 21
-236.9828300000063
 31
0.0
  0
LINE
  5
2F3
330
1F
100
AcDbEntity
  8
DETAIL
100
AcDbLine
 10
368.2500000000072
 20
-236.9828300000063
 30
0.0
 11
367.2500000000036
 21
-236.9828300000063
 31
0.0
  0
LINE
  5
303
330
1F
100
AcDbEntity
  8
DETAIL
100
AcDbLine
 10
0.500000000010914
 20
-17.75032000000464
 30
0.0
 11
439.0000000000145
 21
-17.75032000000464
 31
0.0
  0
LINE
  5
305
330
1F
100
AcDbEntity
  8
DETAIL
100
AcDbLine
 10
1.390910000009168
 20
-254.0000000000054
 30
0.0
 11
438.1090800000129
 21
-254.0000000000054
 31
0.0
  0
LINE
  5
306
330
1F
100
AcDbEntity
  8
DETAIL
100
AcDbLine
 10
0.4127300000072867
 20
-235.6090900000072
 30
0.0
 11
439.0000000000145
 21
-235.6090900000072
 31
0.0
  0
LINE
  5
307
330
1F
100
AcDbEntity
  8
DETAIL
100
AcDbLine
 10
0.4127300000072867
 20
-32.60909000000538
 30
0.0
 11
439.0000000000145
 21
-32.60909000000538
 31
0.0
  0
LINE
  5
308
330
1F
100
AcDbEntity
  8
DETAIL
100
AcDbLine
 10
0.4127300000072867
 20
-47.10909000000357
 30
0.0
 11
439.0000000000145
 21
-47.10909000000357
 31
0.0
  0
LINE
  5
309
330
1F
100
AcDbEntity
  8
DETAIL
100
AcDbLine
 10
0.4127300000072867
 20
-61.60909000000174
 30
0.0
 11
439.0000000000145
 21
-61.60909000000174
 31
0.0
  0
LINE
  5
30A
330
1F
100
AcDbEntity
  8
DETAIL
100
AcDbLine
 10
0.4127300000072867
 20
-76.10908999999992
 30
0.0
 11
439.0000000000145
 21
-76.10908999999992
 31
0.0
  0
LINE
  5
30B
330
1F
100
AcDbEntity
  8
DETAIL
100
AcDbLine
 10
0.4127300000072867
 20
-90.60909000000721
 30
0.0
 11
439.0000000000145
 21
-90.60909000000721
 31
0.0
  0
LINE
  5
30C
330
1F
100
AcDbEntity
  8
DETAIL
100
AcDbLine
 10
0.4127300000072867
 20
-105.1090900000053
 30
0.0
 11
439.0000000000145
 21
-105.1090900000053
 31
0.0
  0
LINE
  5
30D
330
1F
100
AcDbEntity
  8
DETAIL
100
AcDbLine
 10
0.4127300000072867
 20
-119.6090900000035
 30
0.0
 11
439.0000000000145
 21
-119.6090900000035
 31
0.0
  0
LINE
  5
30E
330
1F
100
AcDbEntity
  8
DETAIL
100
AcDbLine
 10
0.4127300000072867
 20
-134.1090900000017
 30
0.0
 11
439.0000000000145
 21
-134.1090900000017
 31
0.0
  0
LINE
  5
30F
330
1F
100
AcDbEntity
  8
DETAIL
100
AcDbLine
 10
0.4127300000072867
 20
-148.6090899999999
 30
0.0
 11
439.0000000000145
 21
-148.6090899999999
 31
0.0
  0
LINE
  5
310
330
1F
100
AcDbEntity
  8
DETAIL
100
AcDbLine
 10
0.4127300000072867
 20
-163.1090900000071
 30
0.0
 11
439.0000000000145
 21
-163.1090900000071
 31
0.0
  0
LINE
  5
311
330
1F
100
AcDbEntity
  8
DETAIL
100
AcDbLine
 10
439.0000000000145
 20
-177.6090900000053
 30
0.0
 11
0.500000000010914
 21
-177.6090900000053
 31
0.0
  0
LINE
  5
312
102
{ACAD_REACTORS
330
5BF
102
}
330
1F
100
AcDbEntity
  8
DETAIL
100
AcDbLine
 10
439.0000000000145
 20
-192.1090900000035
 30
0.0
 11
0.500000000010914
 21
-192.1090900000035
 31
0.0
  0
LINE
  5
313
330
1F
100
AcDbEntity
  8
DETAIL
100
AcDbLine
 10
439.0000000000145
 20
-206.6090900000017
 30
0.0
 11
0.500000000010914
 21
-206.6090900000017
 31
0.0
  0
LINE
  5
314
330
1F
100
AcDbEntity
  8
DETAIL
100
AcDbLine
 10
365.4000000000087
 20
-221.1117999999987
 30
0.0
 11
74.10000000001673
 21
-221.1117999999987
 31
0.0
  0
LINE
  5
333
330
1F
100
AcDbEntity
  8
DETAIL
100
AcDbLine
 10
0.500000000010914
 20
-253.1090900000072
 30
0.0
 11
0.500000000010914
 21
-1.109089999999917
 31
0.0
  0
LINE
  5
334
330
1F
100
AcDbEntity
  8
DETAIL
100
AcDbLine
 10
-481.0
 20
-0.000000000003638
 30
0.0
 11
0.0
 21
0.0
 31
0.0
  0
ARC
  5
357
330
1F
100
AcDbEntity
  8
DETAIL
100
AcDbCircle
 10
232.5
 20
-520.5173300000024
 30
0.0
 40
1.0
100
AcDbArc
 50
180.0
 51
270.0
  0
ARC
  5
358
330
1F
100
AcDbEntity
  8
DETAIL
100
AcDbCircle
 10
232.5
 20
-502.276500000007
 30
0.0
 40
1.0
100
AcDbArc
 50
90.00000000000001
 51
180.0
  0
ARC
  5
359
330
1F
100
AcDbEntity
  8
DETAIL
100
AcDbCircle
 10
260.5000000000109
 20
-502.276500000007
 30
0.0
 40
1.0
100
AcDbArc
 50
0.0
 51
90.00000000000001
  0
ARC
  5
35A
330
1F
100
AcDbEntity
  8
DETAIL
100
AcDbCircle
 10
260.5000000000109
 20
-520.5173300000024
 30
0.0
 40
1.0
100
AcDbArc
 50
270.0
 51
0.0
  0
LINE
  5
35B
330
1F
100
AcDbEntity
  8
DETAIL
100
AcDbLine
 10
231.5000000000145
 20
-520.5173300000024
 30
0.0
 11
231.5000000000145
 21
-502.276500000007
 31
0.0
  0
LINE
  5
35C
330
1F
100
AcDbEntity
  8
DETAIL
100
AcDbLine
 10
261.5000000000145
 20
-502.276500000007
 30
0.0
 11
261.5000000000145
 21
-520.5173300000024
 31
0.0
  0
LINE
  5
35D
330
1F
100
AcDbEntity
  8
DETAIL
100
AcDbLine
 10
232.5
 20
-501.2765000000036
 30
0.0
 11
260.5000000000109
 21
-501.2765000000036
 31
0.0
  0
LINE
  5
35E
330
1F
100
AcDbEntity
  8
DETAIL
100
AcDbLine
 10
232.5
 20
-521.517330000006
 30
0.0
 11
260.5000000000109
 21
-521.517330000006
 31
0.0
  0
ARC
  5
35F
330
1F
100
AcDbEntity
  8
DETAIL
100
AcDbCircle
 10
227.4999999999999
 20
-498.3433599999989
 30
0.0
 40
1.0
100
AcDbArc
 50
90.00000000000001
 51
180.0
  0
ARC
  5
360
330
1F
100
AcDbEntity
  8
DETAIL
100
AcDbCircle
 10
265.5000000000109
 20
-498.3433599999989
 30
0.0
 40
1.0
100
AcDbArc
 50
0.0
 51
90.00000000000001
  0
ARC
  5
361
330
1F
100
AcDbEntity
  8
DETAIL
100
AcDbCircle
 10
265.5000000000109
 20
-483.5768499999995
 30
0.0
 40
1.0
100
AcDbArc
 50
0.0
 51
90.00000000000001
  0
ARC
  5
362
330
1F
100
AcDbEntity
  8
DETAIL
100
AcDbCircle
 10
227.4999999999999
 20
-483.5768499999995
 30
0.0
 40
1.0
100
AcDbArc
 50
90.00000000000001
 51
180.0
  0
ARC
  5
363
330
1F
100
AcDbEntity
  8
DETAIL
100
AcDbCircle
 10
227.4999999999999
 20
-524.4103900000026
 30
0.0
 40
1.0
100
AcDbArc
 50
180.0
 51
270.0
  0
ARC
  5
364
330
1F
100
AcDbEntity
  8
DETAIL
100
AcDbCircle
 10
265.5000000000109
 20
-524.4103900000026
 30
0.0
 40
1.0
100
AcDbArc
 50
270.0
 51
0.0
  0
LINE
  5
365
330
1F
100
AcDbEntity
  8
DETAIL
100
AcDbLine
 10
226.5000000000145
 20
-483.5768499999995
 30
0.0
 11
226.5000000000145
 21
-524.4103900000026
 31
0.0
  0
LINE
  5
366
330
1F
100
AcDbEntity
  8
DETAIL
100
AcDbLine
 10
266.5000000000145
 20
-483.5768499999995
 30
0.0
 11
266.5000000000145
 21
-524.4103900000026
 31
0.0
  0
LINE
  5
367
330
1F
100
AcDbEntity
  8
DETAIL
100
AcDbLine
 10
265.5000000000109
 20
-482.5768500000048
 30
0.0
 11
227.4999999999999
 21
-482.5768500000048
 31
0.0
  0
LINE
  5
368
330
1F
100
AcDbEntity
  8
DETAIL
100
AcDbLine
 10
227.4999999999999
 20
-497.3433600000043
 30
0.0
 11
265.5000000000109
 21
-497.3433600000043
 31
0.0
  0
LINE
  5
369
330
1F
100
AcDbEntity
  8
DETAIL
100
AcDbLine
 10
227.4999999999999
 20
-525.4103900000063
 30
0.0
 11
265.5000000000109
 21
-525.4103900000063
 31
0.0
  0
ARC
  5
36D
102
{ACAD_REACTORS
330
5BF
330
5D9
330
5F1
102
}
330
1F
100
AcDbEntity
  8
DETAIL
100
AcDbCircle
 10
479.0000000000143
 20
-1.000000000003637
 30
0.0
 40
1.0
100
AcDbArc
 50
0.0
 51
90.00000000000001
  0
LINE
  5
36E
330
1F
100
AcDbEntity
  8
DETAIL
100
AcDbLine
 10
480.0
 20
-675.0
 30
0.0
 11
480.0
 21
-1.000000000003637
 31
0.0
  0
ARC
  5
36F
102
{ACAD_REACTORS
330
63B
102
}
330
1F
100
AcDbEntity
  8
DETAIL
100
AcDbCircle
 10
475.0
 20
-625.4231500000059
 30
0.0
 40
5.0
100
AcDbArc
 50
270.0
 51
0.0
  0
ARC
  5
370
330
1F
100
AcDbEntity
  8
DETAIL
100
AcDbCircle
 10
475.0
 20
-632.5400500000069
 30
0.0
 40
5.0
100
AcDbArc
 50
270.0
 51
0.0
  0
ARC
  5
371
330
1F
100
AcDbEntity
  8
DETAIL
100
AcDbCircle
 10
475.0
 20
-634.3212500000027
 30
0.0
 40
5.0
100
AcDbArc
 50
270.0
 51
0.0
  0
ARC
  5
372
330
1F
100
AcDbEntity
  8
DETAIL
100
AcDbCircle
 10
475.0
 20
-675.0
 30
0.0
 40
5.0
100
AcDbArc
 50
270.0
 51
0.0
  0
LINE
  5
373
330
1F
100
AcDbEntity
  8
DETAIL
100
AcDbLine
 10
0.0
 20
-630.4231500000057
 30
0.0
 11
475.0
 21
-630.4231500000057
 31
0.0
  0
LINE
  5
374
330
1F
100
AcDbEntity
  8
DETAIL
100
AcDbLine
 10
0.0
 20
-585.423150000006
 30
0.0
 11
443.0000000000108
 21
-585.423150000006
 31
0.0
  0
LINE
  5
375
330
1F
100
AcDbEntity
  8
DETAIL
100
AcDbLine
 10
0.0
 20
-637.5400500000067
 30
0.0
 11
475.0
 21
-637.5400500000067
 31
0.0
  0
LINE
  5
376
330
1F
100
AcDbEntity
  8
DETAIL
100
AcDbLine
 10
440.0
 20
-255.0
 30
0.0
 11
0.0
 21
-255.0
 31
0.0
  0
LINE
  5
378
330
1F
100
AcDbEntity
  8
DETAIL
100
AcDbLine
 10
0.0
 20
-680.0
 30
0.0
 11
477.0
 21
-680.0
 31
0.0
  0
LINE
  5
379
330
1F
100
AcDbEntity
  8
DETAIL
100
AcDbLine
 10
0.0
 20
-668.5521700000025
 30
0.0
 11
414.0000000000145
 21
-668.5521700000025
 31
0.0
  0
LINE
  5
37A
330
1F
100
AcDbEntity
  8
DETAIL
100
AcDbLine
 10
-447.9999999999924
 20
-580.4231400000026
 30
0.0
 11
-447.9999999999924
 21
0.0
 31
0.0
  0
LINE
  5
37B
102
{ACAD_REACTORS
330
623
102
}
330
1F
100
AcDbEntity
  8
DETAIL
100
AcDbLine
 10
-480.0
 20
-675.0
 30
0.0
 11
-480.0
 21
-1.000000000003637
 31
0.0
  0
LINE
  5
37C
330
1F
100
AcDbEntity
  8
DETAIL
100
AcDbLine
 10
481.0
 20
-0.000000000003638
 30
0.0
 11
0.0
 21
0.0
 31
0.0
  0
LINE
  5
37E
330
1F
100
AcDbEntity
  8
DETAIL
100
AcDbLine
 10
-440.0
 20
-644.0000000000052
 30
0.0
 11
-440.0
 21
0.0
 31
0.0
  0
LINE
  5
37F
330
1F
100
AcDbEntity
  8
DETAIL
100
AcDbLine
 10
448.0000000000109
 20
-580.4231500000057
 30
0.0
 11
448.0000000000109
 21
0.0
 31
0.0
  0
LINE
  5
380
330
1F
100
AcDbEntity
  8
DETAIL
100
AcDbLine
 10
440.0
 20
-644.0000000000052
 30
0.0
 11
440.0
 21
0.0
 31
0.0
  0
ARC
  5
381
330
1F
100
AcDbEntity
  8
DETAIL
100
AcDbCircle
 10
-442.9999999999925
 20
-580.4231500000057
 30
0.0
 40
5.0
100
AcDbArc
 50
179.9999760000184
 51
270.0
  0
LINE
  5
382
330
1F
100
AcDbEntity
  8
DETAIL
100
AcDbLine
 10
-440.0
 20
-680.0
 30
0.0
 11
-440.0
 21
-644.0000000000052
 31
0.0
  0
LINE
  5
383
330
1F
100
AcDbEntity
  8
DETAIL
100
AcDbLine
 10
-440.0
 20
-639.3212500000027
 30
0.0
 11
-475.0
 21
-639.3212500000027
 31
0.0
  0
LINE
  5
384
330
1F
100
AcDbEntity
  8
DETAIL
100
AcDbLine
 10
-446.7755099999886
 20
-583.7011900000016
 30
0.0
 11
-478.7755099999958
 21
-628.7011900000016
 31
0.0
  0
LINE
  5
386
330
1F
100
AcDbEntity
  8
DETAIL
100
AcDbLine
 10
0.0
 20
-680.0
 30
0.0
 11
-477.0
 21
-680.0
 31
0.0
  0
LINE
  5
388
330
1F
100
AcDbEntity
  8
DETAIL
100
AcDbLine
 10
0.0
 20
-637.5400500000067
 30
0.0
 11
-475.0
 21
-637.5400500000067
 31
0.0
  0
LINE
  5
389
330
1F
100
AcDbEntity
  8
DETAIL
100
AcDbLine
 10
0.0
 20
-585.423150000006
 30
0.0
 11
-442.9999999999925
 21
-585.423150000006
 31
0.0
  0
LINE
  5
38A
330
1F
100
AcDbEntity
  8
DETAIL
100
AcDbLine
 10
0.0
 20
-630.4231500000057
 30
0.0
 11
-475.0
 21
-630.4231500000057
 31
0.0
  0
LINE
  5
38B
330
1F
100
AcDbEntity
  8
DETAIL
100
AcDbLine
 10
-426.4999999999963
 20
-665.567260000007
 30
0.0
 11
-440.0
 21
-665.567260000007
 31
0.0
  0
LINE
  5
38C
330
1F
100
AcDbEntity
  8
DETAIL
100
AcDbLine
 10
-440.0
 20
-255.0
 30
0.0
 11
0.0
 21
-255.0
 31
0.0
  0
ARC
  5
38D
330
1F
100
AcDbEntity
  8
DETAIL
100
AcDbCircle
 10
-478.9999999999963
 20
-1.000000000003637
 30
0.0
 40
1.0
100
AcDbArc
 50
90.00000000000001
 51
180.0
  0
ARC
  5
38E
330
1F
100
AcDbEntity
  8
DETAIL
100
AcDbCircle
 10
-475.0
 20
-675.0
 30
0.0
 40
5.0
100
AcDbArc
 50
180.0
 51
270.0
  0
ARC
  5
38F
330
1F
100
AcDbEntity
  8
DETAIL
100
AcDbCircle
 10
-475.0
 20
-634.3212500000027
 30
0.0
 40
5.0
100
AcDbArc
 50
180.0
 51
270.0
  0
ARC
  5
390
330
1F
100
AcDbEntity
  8
DETAIL
100
AcDbCircle
 10
-475.0
 20
-632.5400500000069
 30
0.0
 40
5.0
100
AcDbArc
 50
180.0
 51
270.0
  0
ARC
  5
391
330
1F
100
AcDbEntity
  8
DETAIL
100
AcDbCircle
 10
-475.0
 20
-625.4231500000059
 30
0.0
 40
5.0
100
AcDbArc
 50
180.0
 51
270.0
  0
ARC
  5
394
330
1F
100
AcDbEntity
  8
DETAIL
100
AcDbCircle
 10
-413.9999999999963
 20
-667.552169999999
 30
0.0
 40
1.0
100
AcDbArc
 50
180.0
 51
270.0
  0
LINE
  5
395
330
1F
100
AcDbEntity
  8
DETAIL
100
AcDbLine
 10
-415.0
 20
-667.552169999999
 30
0.0
 11
-415.0
 21
-637.5400500000067
 31
0.0
  0
LINE
  5
396
330
1F
100
AcDbEntity
  8
DETAIL
100
AcDbLine
 10
-426.4999999999963
 20
-665.567260000007
 30
0.0
 11
-426.4999999999963
 21
-637.5400500000067
 31
0.0
  0
LINE
  5
397
330
1F
100
AcDbEntity
  8
DETAIL
100
AcDbLine
 10
0.0
 20
-668.5521700000025
 30
0.0
 11
-413.9999999999963
 21
-668.5521700000025
 31
0.0
  0
LINE
  5
398
330
1F
100
AcDbEntity
  8
DETAIL
100
AcDbLine
 10
426.5000000000145
 20
-665.567260000007
 30
0.0
 11
426.5000000000145
 21
-637.5400500000067
 31
0.0
  0
LINE
  5
399
330
1F
100
AcDbEntity
  8
DETAIL
100
AcDbLine
 10
415.0
 20
-667.552169999999
 30
0.0
 11
415.0
 21
-637.5400500000067
 31
0.0
  0
ARC
  5
39A
330
1F
100
AcDbEntity
  8
DETAIL
100
AcDbCircle
 10
216.0000000000036
 20
-479.1126800000074
 30
0.0
 40
3.5
100
AcDbArc
 50
90.00000000000001
 51
180.0
  0
LINE
  5
39B
330
1F
100
AcDbEntity
  8
DETAIL
100
AcDbLine
 10
212.5
 20
-479.1126800000074
 30
0.0
 11
212.5
 21
-529.9565800000073
 31
0.0
  0
ARC
  5
39C
330
1F
100
AcDbEntity
  8
DETAIL
100
AcDbCircle
 10
216.0000000000036
 20
-529.9565800000073
 30
0.0
 40
3.5
100
AcDbArc
 50
180.0
 51
270.0
  0
LINE
  5
3A2
330
1F
100
AcDbEntity
  8
DETAIL
100
AcDbLine
 10
216.0000000000036
 20
-533.4565800000018
 30
0.0
 11
392.0000000000072
 21
-533.4565800000018
 31
0.0
  0
LINE
  5
3A3
330
1F
100
AcDbEntity
  8
DETAIL
100
AcDbLine
 10
217.0000000000072
 20
-530.9565800000018
 30
0.0
 11
391.0000000000037
 21
-530.9565800000018
 31
0.0
  0
ARC
  5
3A4
330
1F
100
AcDbEntity
  8
DETAIL
100
AcDbCircle
 10
217.0000000000072
 20
-528.9565800000036
 30
0.0
 40
2.0
100
AcDbArc
 50
180.0
 51
270.0
  0
ARC
  5
3A5
330
1F
100
AcDbEntity
  8
DETAIL
100
AcDbCircle
 10
443.0000000000108
 20
-580.4231500000057
 30
0.0
 40
5.0
100
AcDbArc
 50
270.0
 51
0.0
  0
LINE
  5
3A6
330
1F
100
AcDbEntity
  8
DETAIL
100
AcDbLine
 10
446.7755000000034
 20
-583.7011900000016
 30
0.0
 11
478.7755000000106
 21
-628.7011900000016
 31
0.0
  0
LINE
  5
3A7
330
1F
100
AcDbEntity
  8
DETAIL
100
AcDbLine
 10
395.5000000000109
 20
-479.1126800000074
 30
0.0
 11
395.5000000000109
 21
-529.9565800000073
 31
0.0
  0
ARC
  5
3A8
330
1F
100
AcDbEntity
  8
DETAIL
100
AcDbCircle
 10
392.0000000000072
 20
-529.9565800000073
 30
0.0
 40
3.5
100
AcDbArc
 50
270.0
 51
0.0
  0
LINE
  5
3AB
330
1F
100
AcDbEntity
  8
DETAIL
100
AcDbLine
 10
393.0000000000109
 20
-480.112680000002
 30
0.0
 11
393.0000000000109
 21
-528.9565800000036
 31
0.0
  0
ARC
  5
3AC
330
1F
100
AcDbEntity
  8
DETAIL
100
AcDbCircle
 10
391.0000000000037
 20
-528.9565800000036
 30
0.0
 40
2.0
100
AcDbArc
 50
270.0
 51
0.0
  0
LINE
  5
3AD
330
1F
100
AcDbEntity
  8
DETAIL
100
AcDbLine
 10
216.0000000000036
 20
-475.6126800000038
 30
0.0
 11
392.0000000000072
 21
-475.6126800000038
 31
0.0
  0
LINE
  5
3AE
330
1F
100
AcDbEntity
  8
DETAIL
100
AcDbLine
 10
215.0
 20
-480.112680000002
 30
0.0
 11
215.0
 21
-528.9565800000036
 31
0.0
  0
ARC
  5
3AF
330
1F
100
AcDbEntity
  8
DETAIL
100
AcDbCircle
 10
217.0000000000072
 20
-480.112680000002
 30
0.0
 40
2.0
100
AcDbArc
 50
90.00000000000001
 51
180.0
  0
LINE
  5
3B0
330
1F
100
AcDbEntity
  8
DETAIL
100
AcDbLine
 10
217.0000000000072
 20
-478.1126800000038
 30
0.0
 11
391.0000000000037
 21
-478.1126800000038
 31
0.0
  0
ARC
  5
3B2
330
1F
100
AcDbEntity
  8
DETAIL
100
AcDbCircle
 10
391.0000000000037
 20
-480.112680000002
 30
0.0
 40
2.0
100
AcDbArc
 50
0.0
 51
90.00000000000001
  0
ARC
  5
3B3
330
1F
100
AcDbEntity
  8
DETAIL
100
AcDbCircle
 10
392.0000000000072
 20
-479.1126800000074
 30
0.0
 40
3.5
100
AcDbArc
 50
0.0
 51
90.00000000000001
  0
LINE
  5
3B4
330
1F
100
AcDbEntity
  8
DETAIL
100
AcDbLine
 10
440.0
 20
-639.3212500000027
 30
0.0
 11
475.0
 21
-639.3212500000027
 31
0.0
  0
LINE
  5
3B5
330
1F
100
AcDbEntity
  8
DETAIL
100
AcDbLine
 10
440.0
 20
-680.0
 30
0.0
 11
440.0
 21
-644.0000000000052
 31
0.0
  0
ARC
  5
3B6
330
1F
100
AcDbEntity
  8
DETAIL
100
AcDbCircle
 10
414.0000000000145
 20
-667.552169999999
 30
0.0
 40
1.0
100
AcDbArc
 50
270.0
 51
0.0
  0
LINE
  5
3B9
330
1F
100
AcDbEntity
  8
DETAIL
100
AcDbLine
 10
426.5000000000145
 20
-665.567260000007
 30
0.0
 11
440.0
 21
-665.567260000007
 31
0.0
  0
LINE
  5
3BD
330
1F
100
AcDbEntity
  8
DETAIL
100
AcDbLine
 10
482.0
 20
-675.0
 30
0.0
 11
482.0
 21
-1.000000000003637
 31
0.0
  0
LINE
  5
3BE
330
1F
100
AcDbEntity
  8
DETAIL
100
AcDbLine
 10
-482.0
 20
-675.0
 30
0.0
 11
-482.0
 21
-1.000000000003637
 31
0.0
  0
ARC
  5
3BF
330
1F
100
AcDbEntity
  8
DETAIL
100
AcDbCircle
 10
-481.0
 20
-1.000000000003637
 30
0.0
 40
1.0
100
AcDbArc
 50
90.00000000000001
 51
180.0
  0
ARC
  5
3C0
330
1F
100
AcDbEntity
  8
DETAIL
100
AcDbCircle
 10
481.0
 20
-1.000000000003637
 30
0.0
 40
1.0
100
AcDbArc
 50
0.0
 51
90.00000000000001
  0
ARC
  5
3C1
330
1F
100
AcDbEntity
  8
DETAIL
100
AcDbCircle
 10
477.0
 20
-675.0
 30
0.0
 40
5.0
100
AcDbArc
 50
270.0
 51
0.0
  0
ARC
  5
3C2
330
1F
100
AcDbEntity
  8
DETAIL
100
AcDbCircle
 10
-477.0
 20
-675.0
 30
0.0
 40
5.0
100
AcDbArc
 50
180.0
 51
270.0
  0
LINE
  5
3C3
330
1F
100
AcDbEntity
  8
BASIS
  6
DASHDOT
100
AcDbLine
 10
0.0
 20
0.0
 30
0.0
 11
0.0
 21
-695.7128549611224
 31
0.0
  0
LINE
  5
3C4
330
1F
100
AcDbEntity
  8
BASIS
  6
DASHDOT
100
AcDbLine
 10
-588.28393790283
 20
-340.0000000000009
 30
0.0
 11
589.5014885540586
 21
-340.0000000000009
 31
0.0
  0
LINE
  5
3C5
330
1F
100
AcDbEntity
  8
BASIS
  6
DASHDOT
100
AcDbLine
 10
-458.3000000000065
 20
-29.10469999999804
 30
0.0
 11
-458.3000000000065
 21
-436.2454205512228
 31
0.0
  0
LINE
  5
3C6
330
1F
100
AcDbEntity
  8
BASIS
  6
DASHDOT
100
AcDbLine
 10
-474.488960000006
 20
-400.0000000000008
 30
0.0
 11
-444.0510599999907
 21
-400.0000000000008
 31
0.0
  0
LINE
  5
3C7
330
1F
100
AcDbEntity
  8
BASIS
  6
DASHDOT
100
AcDbLine
 10
-474.488960000006
 20
-80.0
 30
0.0
 11
-444.0510599999907
 21
-80.0
 31
0.0
  0
LINE
  5
3C8
330
1F
100
AcDbEntity
  8
BASIS
  6
DASHDOT
100
AcDbLine
 10
458.7522900000037
 20
-29.10469999999804
 30
0.0
 11
458.7522900000037
 21
-446.5808959219038
 31
0.0
  0
LINE
  5
3C9
330
1F
100
AcDbEntity
  8
BASIS
  6
DASHDOT
100
AcDbLine
 10
443.1143799999992
 20
-400.0000000000008
 30
0.0
 11
473.5131199999996
 21
-400.0000000000008
 31
0.0
  0
LINE
  5
3CA
330
1F
100
AcDbEntity
  8
BASIS
  6
DASHDOT
100
AcDbLine
 10
443.1143800000064
 20
-80.0
 30
0.0
 11
473.5131200000068
 21
-80.0
 31
0.0
  0
LINE
  5
3CB
330
1F
100
AcDbEntity
  8
NOTE
  6
Continuous
100
AcDbLine
 10
202.0
 20
0.0
 30
0.0
 11
19.61274427370518
 21
352.8376659725727
 31
0.0
  0
LINE
  5
3CC
330
1F
100
AcDbEntity
  8
NOTE
  6
Continuous
100
AcDbLine
 10
158.0
 20
0.0
 30
0.0
 11
27.14943394162946
 21
225.2821210322399
 31
0.0
  0
LINE
  5
3CD
330
1F
100
AcDbEntity
  8
NOTE
  6
Continuous
100
AcDbLine
 10
309.0
 20
-184.0
 30
0.0
 11
537.963613333737
 21
274.3537850229959
 31
0.0
  0
LINE
  5
3CE
330
1F
100
AcDbEntity
  8
NOTE
  6
Continuous
100
AcDbLine
 10
-458.3000000000065
 20
-80.0
 30
0.0
 11
-588.6997327533594
 21
170.6537829733106
 31
0.0
  0
LINE
  5
3CF
330
1F
100
AcDbEntity
  8
NOTE
  6
Continuous
100
AcDbLine
 10
458.7522900000037
 20
-80.0
 30
0.0
 11
683.4544670000033
 21
79.03988500000014
 31
0.0
  0
LINE
  5
3D0
330
1F
100
AcDbEntity
  8
NOTE
  6
Continuous
100
AcDbLine
 10
342.0000000000018
 20
-246.0000000000009
 30
0.0
 11
731.9965287617924
 21
-471.3742360036786
 31
0.0
  0
LWPOLYLINE
  5
3D1
330
1F
100
AcDbEntity
  8
NOTE
  6
Continuous
100
AcDbPolyline
 90
        3
 70
     0
 43
0.0
 10
370.3062368624614
 20
-274.2622882367513
 10
342.0000000000018
 20
-246.0000000000009
 10
380.6450648156861
 20
-256.3227412951064
  0
TEXT
  5
3D2
330
1F
100
AcDbEntity
  8
NOTE
  6
Continuous
100
AcDbText
 10
-250.743379759755
 20
-1053.140950300108
 30
0.0
 40
55.0
  1
吊りボルトピッチ
 41
0.9
 11
-250.743379759755
 21
-1060.474283633442
 31
0.0
100
AcDbText
 73
     1
  0
TEXT
  5
3D3
330
1F
100
AcDbEntity
  8
NOTE
  6
Continuous
100
AcDbText
 10
-829.6553609412562
 20
-448.2897951230361
 30
0.0
 40
55.0
  1
吊りボルトピッチ
 50
90.0
 41
0.6
 11
-822.3220276079228
 21
-448.2897951230361
 31
0.0
100
AcDbText
 73
     1
  0
LINE
  5
3D4
330
1F
100
AcDbEntity
  8
NOTE
  6
Continuous
100
AcDbLine
 10
-458.3000000000065
 20
-400.0000000000008
 30
0.0
 11
-585.1817880000071
 21
-585.8756380000004
 31
0.0
  0
TEXT
  5
3D5
330
1F
100
AcDbEntity
  8
NOTE
  6
Continuous
100
AcDbText
 10
-709.678913000007
 20
-567.7363096666664
 30
0.0
 40
55.0
  1
AH
 41
0.9
 11
-709.678913000007
 21
-575.0696429999997
 31
0.0
100
AcDbText
 73
     1
  0
LINE
  5
3D6
330
1F
100
AcDbEntity
  8
NOTE
  6
Continuous
100
AcDbLine
 10
-585.1817880000071
 20
-585.8756380000004
 30
0.0
 11
-737.9737130000067
 21
-585.8756380000004
 31
0.0
  0
LWPOLYLINE
  5
3D7
330
1F
100
AcDbEntity
  8
NOTE
  6
Continuous
100
AcDbPolyline
 90
        3
 70
     0
 43
0.0
 10
-488.3979416954679
 20
-426.3460413760013
 10
-458.3000000000065
 20
-400.0000000000008
 10
-471.1925611060649
 20
-437.8653121340039
  0
LINE
  5
3D8
330
1F
100
AcDbEntity
  8
NOTE
  6
Continuous
100
AcDbLine
 10
-458.3000000000065
 20
-380.0000000000009
 30
0.0
 11
-458.3000000000065
 21
-420.0000000000008
 31
0.0
  0
LINE
  5
3D9
330
1F
100
AcDbEntity
  8
NOTE
  6
Continuous
100
AcDbLine
 10
-478.3000000000065
 20
-400.0000000000008
 30
0.0
 11
-438.3000000000064
 21
-400.0000000000008
 31
0.0
  0
LWPOLYLINE
  5
3DA
330
1F
100
AcDbEntity
  8
NOTE
  6
Continuous
100
AcDbPolyline
 90
        3
 70
     0
 43
0.0
 10
-466.3976220000058
 20
-40.82821799999964
 10
-458.3000000000065
 20
-80.0
 10
-484.8986370000057
 20
-50.12505200000032
  0
LINE
  5
3DB
330
1F
100
AcDbEntity
  8
NOTE
  6
Continuous
100
AcDbLine
 10
-458.3000000000065
 20
-60.0
 30
0.0
 11
-458.3000000000065
 21
-100.0
 31
0.0
  0
LINE
  5
3DC
330
1F
100
AcDbEntity
  8
NOTE
  6
Continuous
100
AcDbLine
 10
-478.3000000000065
 20
-80.0
 30
0.0
 11
-438.3000000000064
 21
-80.0
 31
0.0
  0
LINE
  5
3DD
330
1F
100
AcDbEntity
  8
NOTE
  6
Continuous
100
AcDbLine
 10
176.0
 20
0.0
 30
0.0
 11
216.0
 21
0.0
 31
0.0
  0
LINE
  5
3DE
330
1F
100
AcDbEntity
  8
NOTE
  6
Continuous
100
AcDbLine
 10
182.0
 20
0.0
 30
0.0
 11
222.0
 21
0.0
 31
0.0
  0
LINE
  5
3DF
102
{ACAD_REACTORS
330
5F1
102
}
330
1F
100
AcDbEntity
  8
NOTE
  6
Continuous
100
AcDbLine
 10
196.0
 20
20.0
 30
0.0
 11
196.0
 21
-20.0
 31
0.0
  0
LINE
  5
3E0
102
{ACAD_REACTORS
330
5D9
102
}
330
1F
100
AcDbEntity
  8
NOTE
  6
Continuous
100
AcDbLine
 10
202.0
 20
20.0
 30
0.0
 11
202.0
 21
-20.0
 31
0.0
  0
LWPOLYLINE
  5
3E1
330
1F
100
AcDbEntity
  8
NOTE
  6
Continuous
100
AcDbPolyline
 90
        3
 70
     0
 43
0.0
 10
192.1640873277239
 20
38.77613471885812
 10
201.9775816945696
 20
-0.0013763154431956
 10
174.0900917441065
 20
28.67418636583029
  0
LINE
  5
3E2
330
1F
100
AcDbEntity
  8
NOTE
  6
Continuous
100
AcDbLine
 10
138.0
 20
0.0
 30
0.0
 11
178.0
 21
0.0
 31
0.0
  0
LINE
  5
3E3
330
1F
100
AcDbEntity
  8
NOTE
  6
Continuous
100
AcDbLine
 10
144.0
 20
0.0
 30
0.0
 11
184.0
 21
0.0
 31
0.0
  0
LINE
  5
3E4
330
1F
100
AcDbEntity
  8
NOTE
  6
Continuous
100
AcDbLine
 10
164.0
 20
20.0
 30
0.0
 11
164.0
 21
-20.0
 31
0.0
  0
LWPOLYLINE
  5
3E5
330
1F
100
AcDbEntity
  8
NOTE
  6
Continuous
100
AcDbPolyline
 90
        3
 70
     0
 43
0.0
 10
146.1625551412429
 20
38.2083097364873
 10
157.9999999999998
 20
-0.0000000000001776
 10
128.6443181438654
 20
27.17064470317624
  0
LINE
  5
3E6
330
1F
100
AcDbEntity
  8
NOTE
  6
Continuous
100
AcDbLine
 10
158.0
 20
20.0
 30
0.0
 11
158.0
 21
-20.0
 31
0.0
  0
LINE
  5
3E7
330
1F
100
AcDbEntity
  8
NOTE
  6
Continuous
100
AcDbLine
 10
322.0
 20
-246.0000000000009
 30
0.0
 11
362.0
 21
-246.0000000000009
 31
0.0
  0
LINE
  5
3E8
102
{ACAD_REACTORS
330
63B
102
}
330
1F
100
AcDbEntity
  8
NOTE
  6
Continuous
100
AcDbLine
 10
342.0
 20
-226.0000000000009
 30
0.0
 11
342.0
 21
-266.0000000000009
 31
0.0
  0
LWPOLYLINE
  5
3E9
330
1F
100
AcDbEntity
  8
NOTE
  6
Continuous
100
AcDbPolyline
 90
        3
 70
     0
 43
0.0
 10
335.3110893232878
 20
-153.8714994749734
 10
309.0
 20
-184.0
 10
316.7218214779659
 20
-144.7524077483485
  0
LINE
  5
3EA
330
1F
100
AcDbEntity
  8
NOTE
  6
Continuous
100
AcDbLine
 10
289.0
 20
-184.0
 30
0.0
 11
329.0
 21
-184.0
 31
0.0
  0
LINE
  5
3EB
330
1F
100
AcDbEntity
  8
NOTE
  6
Continuous
100
AcDbLine
 10
309.0
 20
-164.0
 30
0.0
 11
309.0
 21
-204.0000000000008
 31
0.0
  0
TEXT
  5
3EC
330
1F
100
AcDbEntity
  8
NOTE
  6
Continuous
100
AcDbText
 10
752.9252368646321
 20
-449.8901426703429
 30
0.0
 40
55.0
  1
D φ26(VP-20)
 41
0.9
 11
752.9252368646321
 21
-457.2234760036763
 31
0.0
100
AcDbText
 73
     1
  0
LINE
  5
3ED
330
1F
100
AcDbEntity
  8
NOTE
  6
Continuous
100
AcDbLine
 10
731.9965287617924
 20
-471.3742360036786
 30
0.0
 11
1334.071049943695
 21
-471.3742360036786
 31
0.0
  0
LINE
  5
3EE
330
1F
100
AcDbEntity
  8
NOTE
  6
Continuous
100
AcDbLine
 10
696.9800470000009
 20
-366.7835359999998
 30
0.0
 11
1105.970000000001
 21
-366.7835359999998
 31
0.0
  0
TEXT
  5
3EF
330
1F
100
AcDbEntity
  8
NOTE
  6
Continuous
100
AcDbText
 10
724.2938880000003
 20
-354.0970976666664
 30
0.0
 40
55.0
  1
RG φ12.7
 41
0.9
 11
724.2938880000003
 21
-361.4304309999997
 31
0.0
100
AcDbText
 73
     1
  0
LINE
  5
3F0
330
1F
100
AcDbEntity
  8
NOTE
  6
Continuous
100
AcDbLine
 10
394.0
 20
-203.0000000000009
 30
0.0
 11
696.9800470000009
 21
-366.7835359999998
 31
0.0
  0
LINE
  5
3F1
330
1F
100
AcDbEntity
  8
NOTE
  6
Continuous
100
AcDbLine
 10
645.2228836152735
 20
-587.4234534567522
 30
0.0
 11
789.5733331643277
 21
-587.4234534567522
 31
0.0
  0
TEXT
  5
3F2
330
1F
100
AcDbEntity
  8
NOTE
  6
Continuous
100
AcDbText
 10
657.3466067205372
 20
-566.4546981234194
 30
0.0
 40
55.0
  1
AH
 41
0.9
 11
657.3466067205372
 21
-573.7880314567528
 31
0.0
100
AcDbText
 73
     1
  0
LINE
  5
3F3
330
1F
100
AcDbEntity
  8
NOTE
  6
Continuous
100
AcDbLine
 10
438.752290000004
 20
-400.0000000000008
 30
0.0
 11
478.7522900000038
 21
-400.0000000000008
 31
0.0
  0
LWPOLYLINE
  5
3F4
330
1F
100
AcDbEntity
  8
NOTE
  6
Continuous
100
AcDbPolyline
 90
        3
 70
     0
 43
0.0
 10
479.0546960000046
 20
-434.464653
 10
458.7522900000037
 20
-400.0000000000008
 10
493.5670160000045
 20
-419.6960619999998
  0
LINE
  5
3F5
330
1F
100
AcDbEntity
  8
NOTE
  6
Continuous
100
AcDbLine
 10
458.7522900000037
 20
-380.0000000000009
 30
0.0
 11
458.7522900000037
 21
-420.0000000000008
 31
0.0
  0
LINE
  5
3F6
330
1F
100
AcDbEntity
  8
NOTE
  6
Continuous
100
AcDbLine
 10
458.7522900000037
 20
-400.0000000000008
 30
0.0
 11
645.2228836152735
 21
-587.4234534567522
 31
0.0
  0
LWPOLYLINE
  5
3F7
330
1F
100
AcDbEntity
  8
NOTE
  6
Continuous
100
AcDbPolyline
 90
        3
 70
     0
 43
0.0
 10
423.2153419999994
 20
-230.321488999999
 10
394.0
 20
-203.0000000000009
 10
432.9619729999993
 20
-212.053433
  0
LINE
  5
3F8
102
{ACAD_REACTORS
330
5BF
102
}
330
1F
100
AcDbEntity
  8
NOTE
  6
Continuous
100
AcDbLine
 10
394.0
 20
-183.0
 30
0.0
 11
394.0
 21
-223.0000000000009
 31
0.0
  0
LINE
  5
3F9
330
1F
100
AcDbEntity
  8
NOTE
  6
Continuous
100
AcDbLine
 10
374.0
 20
-203.0000000000009
 30
0.0
 11
414.0
 21
-203.0000000000009
 31
0.0
  0
LWPOLYLINE
  5
3FA
330
1F
100
AcDbEntity
  8
NOTE
  6
Continuous
100
AcDbPolyline
 90
        3
 70
     0
 43
0.0
 10
496.2567170000111
 20
-66.09252199999992
 10
458.7522900000112
 20
-80.0
 10
484.2783370000105
 20
-49.20355699999982
  0
LINE
  5
3FB
330
1F
100
AcDbEntity
  8
NOTE
  6
Continuous
100
AcDbLine
 10
458.7522900000112
 20
-60.0
 30
0.0
 11
458.7522900000112
 21
-100.0
 31
0.0
  0
LINE
  5
3FC
330
1F
100
AcDbEntity
  8
NOTE
  6
Continuous
100
AcDbLine
 10
438.7522900000113
 20
-80.0
 30
0.0
 11
478.7522900000111
 21
-80.0
 31
0.0
  0
LINE
  5
3FD
330
1F
100
AcDbEntity
  8
NOTE
  6
Continuous
100
AcDbLine
 10
19.61274427370518
 20
352.8376659725727
 30
0.0
 11
-503.2412672163099
 21
352.8376659725727
 31
0.0
  0
TEXT
  5
3FE
330
1F
100
AcDbEntity
  8
NOTE
  6
Continuous
100
AcDbText
 10
-466.2271249387702
 20
252.1603613655736
 30
0.0
 40
55.0
  1
EL 2-φ22.2
 41
0.9
 11
-466.2271249387702
 21
244.8270280322403
 31
0.0
100
AcDbText
 73
     1
  0
LINE
  5
3FF
330
1F
100
AcDbEntity
  8
NOTE
  6
Continuous
100
AcDbLine
 10
27.14943394162946
 20
225.2821210322399
 30
0.0
 11
-498.0904037774489
 21
225.0722802485652
 31
0.0
  0
LINE
  5
400
330
1F
100
AcDbEntity
  8
NOTE
  6
Continuous
100
AcDbLine
 10
-588.6997327533594
 20
170.6537829733106
 30
0.0
 11
-754.4223633570855
 21
170.6537829733106
 31
0.0
  0
TEXT
  5
401
330
1F
100
AcDbEntity
  8
NOTE
  6
Continuous
100
AcDbText
 10
-731.7865223570842
 20
188.7931103066442
 30
0.0
 40
55.0
  1
AH
 41
0.9
 11
-731.7865223570842
 21
181.4597769733109
 31
0.0
100
AcDbText
 73
     1
  0
LINE
  5
402
330
1F
100
AcDbEntity
  8
NOTE
  6
Continuous
100
AcDbLine
 10
962.6015592485183
 20
274.3537850229959
 30
0.0
 11
537.963613333737
 21
274.3537850229959
 31
0.0
  0
TEXT
  5
403
330
1F
100
AcDbEntity
  8
NOTE
  6
Continuous
100
AcDbText
 10
571.1671462485193
 20
293.5467383563284
 30
0.0
 40
55.0
  1
RL φ6.35
 41
0.9
 11
571.1671462485193
 21
286.2134050229951
 31
0.0
100
AcDbText
 73
     1
  0
LINE
  5
404
330
1F
100
AcDbEntity
  8
NOTE
  6
Continuous
100
AcDbLine
 10
683.4544670000033
 20
79.03988500000014
 30
0.0
 11
813.6105510000051
 21
79.03988500000014
 31
0.0
  0
TEXT
  5
405
330
1F
100
AcDbEntity
  8
NOTE
  6
Continuous
100
AcDbText
 10
700.4313470000051
 20
100.0086403333337
 30
0.0
 40
55.0
  1
AH
 41
0.9
 11
700.4313470000051
 21
92.6753070000004
 31
0.0
100
AcDbText
 73
     1
  0
TEXT
  5
406
330
1F
100
AcDbEntity
  8
NOTE
  6
Continuous
100
AcDbText
 10
-468.1064062163094
 20
379.7159063059064
 30
0.0
 40
55.0
  1
EL 2-φ26
 41
0.9
 11
-468.1064062163094
 21
372.3825729725731
 31
0.0
100
AcDbText
 73
     1
  0
LINE
  5
407
330
1F
100
AcDbEntity
  8
NOTE
  6
Continuous
100
AcDbLine
 10
-404.9999999999963
 20
-246.0000000000018
 30
0.0
 11
-600.3499375954447
 21
53.90751004504636
 31
0.0
  0
LWPOLYLINE
  5
408
330
1F
100
AcDbEntity
  8
NOTE
  6
Continuous
100
AcDbPolyline
 90
        3
 70
     0
 43
0.0
 10
-417.4579173617003
 20
-207.9894715019682
 10
-404.9999999999963
 20
-246.0000000000018
 10
-434.7941375332339
 20
-219.3108750404862
  0
LINE
  5
409
102
{ACAD_REACTORS
330
623
102
}
330
1F
100
AcDbEntity
  8
NOTE
  6
Continuous
100
AcDbLine
 10
-404.9999999999963
 20
-226.0000000000018
 30
0.0
 11
-404.9999999999963
 21
-266.0000000000018
 31
0.0
  0
LINE
  5
40A
330
1F
100
AcDbEntity
  8
NOTE
  6
Continuous
100
AcDbLine
 10
-424.9999999999963
 20
-246.0000000000018
 30
0.0
 11
-384.9999999999964
 21
-246.0000000000018
 31
0.0
  0
TEXT
  5
40B
330
1F
100
AcDbEntity
  8
NOTE
  6
Continuous
100
AcDbText
 10
-1233.504119747096
 20
86.44548759131644
 30
0.0
 40
55.0
  1
D φ26(VP-20)
 41
0.9
 11
-1233.504119747096
 21
79.11215425798312
 31
0.0
100
AcDbText
 73
     1
  0
LINE
  5
40C
330
1F
100
AcDbEntity
  8
NOTE
  6
Continuous
100
AcDbLine
 10
-1237.436422938736
 20
53.45192455550478
 30
0.0
 11
-600.3499375954447
 21
53.90751004504636
 31
0.0
  0
LINE
  5
40D
330
1F
100
AcDbEntity
  8
SIZE
100
AcDbLine
 10
-479.9999999999908
 20
-475.6424777770016
 30
0.0
 11
-479.999999999991
 21
-1192.293894887272
 31
0.0
  0
LINE
  5
40E
330
1F
100
AcDbEntity
  8
SIZE
100
AcDbLine
 10
480.0
 20
-475.6424781379982
 30
0.0
 11
479.9999999999998
 21
-1192.293894887272
 31
0.0
  0
LINE
  5
40F
330
1F
100
AcDbEntity
  8
SIZE
100
AcDbLine
 10
-469.9999999999908
 20
-1162.293894887272
 30
0.0
 11
469.9999999999998
 21
-1162.293894887272
 31
0.0
  0
LINE
  5
410
330
1F
100
AcDbEntity
  8
SIZE
100
AcDbLine
 10
-481.9999999999963
 20
-468.3708800000031
 30
0.0
 11
-481.9999999999963
 21
-1339.440846548135
 31
0.0
  0
LINE
  5
411
330
1F
100
AcDbEntity
  8
SIZE
100
AcDbLine
 10
482.0
 20
-468.3708800000031
 30
0.0
 11
481.9999999999998
 21
-1339.440846548135
 31
0.0
  0
LINE
  5
412
330
1F
100
AcDbEntity
  8
SIZE
100
AcDbLine
 10
-471.9999999999963
 20
-1309.440846548135
 30
0.0
 11
471.9999999999997
 21
-1309.440846548135
 31
0.0
  0
LINE
  5
413
330
1F
100
AcDbEntity
  8
SIZE
100
AcDbLine
 10
-458.3000000000065
 20
-456.2454205512231
 30
0.0
 11
-458.3000000000065
 21
-1002.986071758011
 31
0.0
  0
LINE
  5
414
330
1F
100
AcDbEntity
  8
SIZE
100
AcDbLine
 10
458.7522900000037
 20
-466.5808959219038
 30
0.0
 11
458.7522900000037
 21
-1002.986071758011
 31
0.0
  0
LINE
  5
415
330
1F
100
AcDbEntity
  8
SIZE
100
AcDbLine
 10
-448.3000000000065
 20
-972.9860717580116
 30
0.0
 11
448.752290000004
 21
-972.9860717580116
 31
0.0
  0
LINE
  5
416
330
1F
100
AcDbEntity
  8
SIZE
100
AcDbLine
 10
-497.400000000005
 20
-79.99999999999999
 30
0.0
 11
-771.3160456018847
 21
-79.9999999999999
 31
0.0
  0
LINE
  5
417
330
1F
100
AcDbEntity
  8
SIZE
100
AcDbLine
 10
-498.3000000000065
 20
-400.0000000000008
 30
0.0
 11
-771.3160456018851
 21
-400.0000000000008
 31
0.0
  0
LINE
  5
418
330
1F
100
AcDbEntity
  8
SIZE
100
AcDbLine
 10
-741.3160456018847
 20
-89.99999999999991
 30
0.0
 11
-741.316045601885
 21
-390.0000000000009
 31
0.0
  0
LINE
  5
41D
330
1F
100
AcDbEntity
  8
SIZE
100
AcDbLine
 10
-460.0000000000071
 20
0.0000000000000057
 30
0.0
 11
-965.7952837766496
 21
0.0000000000001489
 31
0.0
  0
LINE
  5
41E
330
1F
100
AcDbEntity
  8
SIZE
100
AcDbLine
 10
-458.7999999999992
 20
-680.0000000000007
 30
0.0
 11
-965.7952837766496
 21
-680.0000000000007
 31
0.0
  0
LINE
  5
41F
330
1F
100
AcDbEntity
  8
SIZE
100
AcDbLine
 10
-935.7952837766497
 20
-9.999999999999859
 30
0.0
 11
-935.7952837766497
 21
-670.0000000000008
 31
0.0
  0
LINE
  5
420
330
1F
100
AcDbEntity
  8
SIZE
100
AcDbLine
 10
-479.9999999999908
 20
-475.6424777770016
 30
0.0
 11
-479.999999999991
 21
-1192.293894887272
 31
0.0
  0
LINE
  5
421
330
1F
100
AcDbEntity
  8
SIZE
100
AcDbLine
 10
-481.9999999999963
 20
-468.3708800000031
 30
0.0
 11
-481.9999999999963
 21
-1192.293894887272
 31
0.0
  0
LINE
  5
422
330
1F
100
AcDbEntity
  8
SIZE
100
AcDbLine
 10
-469.9999999999908
 20
-1162.293894887272
 30
0.0
 11
-459.9999999999908
 21
-1162.293894887272
 31
0.0
  0
LINE
  5
423
330
1F
100
AcDbEntity
  8
SIZE
100
AcDbLine
 10
-491.9999999999963
 20
-1162.293894887272
 30
0.0
 11
-583.8426321117322
 21
-1162.293894887272
 31
0.0
  0
LINE
  5
424
330
1F
100
AcDbEntity
  8
SIZE
100
AcDbLine
 10
-479.999999999991
 20
-1162.293894887272
 30
0.0
 11
-481.9999999999963
 21
-1162.293894887272
 31
0.0
  0
LINE
  5
425
330
1F
100
AcDbEntity
  8
SIZE
100
AcDbLine
 10
-460.0000000000071
 20
0.0000000000000057
 30
0.0
 11
-771.3160456018868
 21
0.0000000000000939
 31
0.0
  0
LINE
  5
426
330
1F
100
AcDbEntity
  8
SIZE
100
AcDbLine
 10
-498.3000000000065
 20
-79.99999999999999
 30
0.0
 11
-771.3160456018868
 21
-79.9999999999999
 31
0.0
  0
LINE
  5
427
330
1F
100
AcDbEntity
  8
SIZE
100
AcDbLine
 10
-741.3160456018868
 20
10.00000000000008
 30
0.0
 11
-741.3160456018868
 21
20.00000000000008
 31
0.0
  0
LINE
  5
428
330
1F
100
AcDbEntity
  8
SIZE
100
AcDbLine
 10
-741.3160456018868
 20
-89.99999999999991
 30
0.0
 11
-741.3160456018868
 21
-99.99999999999992
 31
0.0
  0
LINE
  5
429
330
1F
100
AcDbEntity
  8
SIZE
100
AcDbLine
 10
-741.3160456018868
 20
0.0000000000000854
 30
0.0
 11
-741.3160456018868
 21
-79.9999999999999
 31
0.0
  0
LINE
  5
42A
330
1F
100
AcDbEntity
  8
SIZE
100
AcDbLine
 10
-460.0000000000071
 20
0.0000000000000057
 30
0.0
 11
-617.5438087088767
 21
0.0000000000000503
 31
0.0
  0
LINE
  5
42B
330
1F
100
AcDbEntity
  8
SIZE
100
AcDbLine
 10
-444.9999999999963
 20
-246.0000000000018
 30
0.0
 11
-617.5438087088767
 21
-246.0000000000017
 31
0.0
  0
LINE
  5
42C
330
1F
100
AcDbEntity
  8
SIZE
100
AcDbLine
 10
-587.5438087088769
 20
-9.99999999999996
 30
0.0
 11
-587.5438087088769
 21
-236.0000000000017
 31
0.0
  0
LINE
  5
42E
330
1F
100
AcDbEntity
  8
SIZE
100
AcDbLine
 10
482.0
 20
-245.0433450000026
 30
0.0
 11
482.0
 21
-482.6483153432491
 31
0.0
  0
LINE
  5
431
102
{ACAD_REACTORS
330
63B
102
}
330
1F
100
AcDbEntity
  8
SIZE
100
AcDbLine
 10
480.0000000000053
 20
-475.6424781379982
 30
0.0
 11
480.0000000000053
 21
-1192.293894887272
 31
0.0
  0
LINE
  5
432
330
1F
100
AcDbEntity
  8
SIZE
100
AcDbLine
 10
482.0
 20
-468.3708800000031
 30
0.0
 11
481.9999999999998
 21
-1192.293894887272
 31
0.0
  0
LINE
  5
433
330
1F
100
AcDbEntity
  8
SIZE
100
AcDbLine
 10
470.0000000000053
 20
-1162.293894887272
 30
0.0
 11
460.0000000000053
 21
-1162.293894887272
 31
0.0
  0
LINE
  5
434
330
1F
100
AcDbEntity
  8
SIZE
100
AcDbLine
 10
491.9999999999998
 20
-1162.293894887272
 30
0.0
 11
580.4000000000008
 21
-1162.293894887272
 31
0.0
  0
LINE
  5
435
330
1F
100
AcDbEntity
  8
SIZE
100
AcDbLine
 10
480.0000000000053
 20
-1162.293894887272
 30
0.0
 11
481.9999999999998
 21
-1162.293894887272
 31
0.0
  0
LINE
  5
436
330
1F
100
AcDbEntity
  8
SIZE
100
AcDbLine
 10
459.9999999999925
 20
-0.0000000000000057
 30
0.0
 11
1006.053085702238
 21
-0.0000000000001603
 31
0.0
  0
LINE
  5
437
330
1F
100
AcDbEntity
  8
SIZE
100
AcDbLine
 10
384.0
 20
-246.0000000000009
 30
0.0
 11
1006.053085702238
 21
-246.0000000000011
 31
0.0
  0
LINE
  5
438
330
1F
100
AcDbEntity
  8
SIZE
100
AcDbLine
 10
976.0530857022386
 20
-10.00000000000015
 30
0.0
 11
976.0530857022386
 21
-236.000000000001
 31
0.0
  0
LINE
  5
439
330
1F
100
AcDbEntity
  8
SIZE
100
AcDbLine
 10
459.9999999999925
 20
-0.0000000000000057
 30
0.0
 11
853.5862110917221
 21
-0.0000000000001172
 31
0.0
  0
LINE
  5
43A
330
1F
100
AcDbEntity
  8
SIZE
100
AcDbLine
 10
434.0
 20
-203.0000000000009
 30
0.0
 11
853.5862110917221
 21
-203.000000000001
 31
0.0
  0
LINE
  5
43B
330
1F
100
AcDbEntity
  8
SIZE
100
AcDbLine
 10
823.5862110917222
 20
-10.0000000000001
 30
0.0
 11
823.5862110917222
 21
-193.000000000001
 31
0.0
  0
LINE
  5
43D
330
1F
100
AcDbEntity
  8
SIZE
100
AcDbLine
 10
202.0
 20
40.0
 30
0.0
 11
202.0
 21
271.168449249013
 31
0.0
  0
LINE
  5
43F
330
1F
100
AcDbEntity
  8
SIZE
100
AcDbLine
 10
202.0
 20
40.0
 30
0.0
 11
202.0
 21
271.168449249013
 31
0.0
  0
LINE
  5
440
330
1F
100
AcDbEntity
  8
SIZE
100
AcDbLine
 10
164.0
 20
40.0
 30
0.0
 11
164.0
 21
271.168449249013
 31
0.0
  0
LINE
  5
441
330
1F
100
AcDbEntity
  8
SIZE
100
AcDbLine
 10
212.0
 20
241.168449249013
 30
0.0
 11
222.0
 21
241.168449249013
 31
0.0
  0
LINE
  5
442
330
1F
100
AcDbEntity
  8
SIZE
100
AcDbLine
 10
154.0
 20
241.168449249013
 30
0.0
 11
87.47767481341361
 21
241.168449249013
 31
0.0
  0
LINE
  5
443
330
1F
100
AcDbEntity
  8
SIZE
100
AcDbLine
 10
202.0
 20
241.168449249013
 30
0.0
 11
164.0
 21
241.168449249013
 31
0.0
  0
LINE
  5
444
330
1F
100
AcDbEntity
  8
SIZE
100
AcDbLine
 10
394.0
 20
-163.0
 30
0.0
 11
394.0
 21
128.9884906005136
 31
0.0
  0
LINE
  5
445
330
1F
100
AcDbEntity
  8
SIZE
100
AcDbLine
 10
309.0
 20
-144.0
 30
0.0
 11
309.0
 21
128.9884906005136
 31
0.0
  0
LINE
  5
446
330
1F
100
AcDbEntity
  8
SIZE
100
AcDbLine
 10
384.0
 20
98.98849060051359
 30
0.0
 11
319.0
 21
98.98849060051359
 31
0.0
  0
LINE
  5
448
330
1F
100
AcDbEntity
  8
SIZE
100
AcDbLine
 10
394.0
 20
-163.0
 30
0.0
 11
394.0
 21
128.9884906005136
 31
0.0
  0
LINE
  5
44B
330
1F
100
AcDbEntity
  8
SIZE
100
AcDbLine
 10
196.0
 20
40.0
 30
0.0
 11
196.0
 21
384.5549252475284
 31
0.0
  0
LINE
  5
44E
330
1F
100
AcDbEntity
  8
SIZE
100
AcDbLine
 10
158.0
 20
40.0
 30
0.0
 11
158.0
 21
384.5549252475284
 31
0.0
  0
LINE
  5
44F
330
1F
100
AcDbEntity
  8
SIZE
100
AcDbLine
 10
196.0
 20
40.0
 30
0.0
 11
196.0
 21
384.5549252475284
 31
0.0
  0
LINE
  5
450
330
1F
100
AcDbEntity
  8
SIZE
100
AcDbLine
 10
148.0
 20
354.5549252475284
 30
0.0
 11
83.02438812833136
 21
354.5549252475284
 31
0.0
  0
LINE
  5
451
330
1F
100
AcDbEntity
  8
SIZE
100
AcDbLine
 10
206.0
 20
354.5549252475284
 30
0.0
 11
216.0
 21
354.5549252475284
 31
0.0
  0
LINE
  5
452
330
1F
100
AcDbEntity
  8
SIZE
100
AcDbLine
 10
158.0
 20
354.5549252475284
 30
0.0
 11
196.0
 21
354.5549252475284
 31
0.0
  0
LINE
  5
453
330
1F
100
AcDbEntity
  8
SIZE
100
AcDbLine
 10
459.9999999999925
 20
-0.0000000000000057
 30
0.0
 11
699.9751468514149
 21
-0.0000000000000736
 31
0.0
  0
LINE
  5
454
330
1F
100
AcDbEntity
  8
SIZE
100
AcDbLine
 10
349.0
 20
-184.0
 30
0.0
 11
699.9751468514149
 21
-184.0
 31
0.0
  0
LINE
  5
455
330
1F
100
AcDbEntity
  8
SIZE
100
AcDbLine
 10
669.9751468514151
 20
-10.00000000000006
 30
0.0
 11
669.9751468514151
 21
-174.0
 31
0.0
  0
TEXT
  5
456
330
1F
100
AcDbEntity
  8
SIZE
100
AcDbText
 10
-68.34528357142986
 20
-954.6527384246783
 30
0.0
 40
55.0
  1
917
 41
0.9
 11
-68.34528357142986
 21
-961.9860717580115
 31
0.0
100
AcDbText
 73
     1
  0
TEXT
  5
457
330
1F
100
AcDbEntity
  8
SIZE
100
AcDbText
 10
-75.42857142856965
 20
-1291.107513214802
 30
0.0
 40
55.0
  1
964
 41
0.9
 11
-75.42857142856965
 21
-1298.440846548135
 31
0.0
100
AcDbText
 73
     1
  0
TEXT
  5
458
330
1F
100
AcDbEntity
  8
SIZE
100
AcDbText
 10
-74.05714285713838
 20
-1143.960561553939
 30
0.0
 40
55.0
  1
960
 41
0.9
 11
-74.05714285713838
 21
-1151.293894887272
 31
0.0
100
AcDbText
 73
     1
  0
TEXT
  5
459
330
1F
100
AcDbEntity
  8
SIZE
100
AcDbText
 10
-954.128617109983
 20
-414.0571428571433
 30
0.0
 40
55.0
  1
680
 50
90.0
 41
0.9
 11
-946.7952837766496
 21
-414.0571428571433
 31
0.0
100
AcDbText
 73
     1
  0
CIRCLE
  5
45B
330
1F
100
AcDbEntity
  8
SIZE
100
AcDbCircle
 10
-935.7952837766497
 20
-680.0000000000007
 30
0.0
 40
5.0
  0
LINE
  5
45C
330
1F
100
AcDbEntity
  8
SIZE
100
AcDbLine
 10
-935.7952837766497
 20
-680.0000000000007
 30
0.0
 11
-935.7952837766497
 21
-670.0000000000008
 31
0.0
  0
CIRCLE
  5
45D
330
1F
100
AcDbEntity
  8
SIZE
100
AcDbCircle
 10
-741.316045601885
 20
-400.0000000000008
 30
0.0
 40
5.0
  0
LINE
  5
45E
330
1F
100
AcDbEntity
  8
SIZE
100
AcDbLine
 10
-741.316045601885
 20
-400.0000000000008
 30
0.0
 11
-741.316045601885
 21
-390.0000000000009
 31
0.0
  0
TEXT
  5
45F
330
1F
100
AcDbEntity
  8
SIZE
100
AcDbText
 10
-563.8426321117324
 20
-1143.960561553939
 30
0.0
 40
55.0
  1
2
 41
0.9
 11
-563.8426321117324
 21
-1151.293894887272
 31
0.0
100
AcDbText
 73
     1
  0
CIRCLE
  5
460
330
1F
100
AcDbEntity
  8
SIZE
100
AcDbCircle
 10
-481.9999999999963
 20
-1309.440846548135
 30
0.0
 40
5.0
  0
LINE
  5
461
330
1F
100
AcDbEntity
  8
SIZE
100
AcDbLine
 10
-481.9999999999963
 20
-1309.440846548135
 30
0.0
 11
-471.9999999999963
 21
-1309.440846548135
 31
0.0
  0
CIRCLE
  5
462
330
1F
100
AcDbEntity
  8
SIZE
100
AcDbCircle
 10
-481.9999999999963
 20
-1162.293894887272
 30
0.0
 40
5.0
  0
LINE
  5
463
330
1F
100
AcDbEntity
  8
SIZE
100
AcDbLine
 10
-481.9999999999963
 20
-1162.293894887272
 30
0.0
 11
-491.9999999999963
 21
-1162.293894887272
 31
0.0
  0
CIRCLE
  5
464
330
1F
100
AcDbEntity
  8
SIZE
100
AcDbCircle
 10
-479.999999999991
 20
-1162.293894887272
 30
0.0
 40
5.0
  0
LINE
  5
465
330
1F
100
AcDbEntity
  8
SIZE
100
AcDbLine
 10
-479.999999999991
 20
-1162.293894887272
 30
0.0
 11
-469.9999999999908
 21
-1162.293894887272
 31
0.0
  0
CIRCLE
  5
466
330
1F
100
AcDbEntity
  8
SIZE
100
AcDbCircle
 10
-479.999999999991
 20
-1162.293894887272
 30
0.0
 40
5.0
  0
LINE
  5
467
330
1F
100
AcDbEntity
  8
SIZE
100
AcDbLine
 10
-479.999999999991
 20
-1162.293894887272
 30
0.0
 11
-469.9999999999908
 21
-1162.293894887272
 31
0.0
  0
CIRCLE
  5
468
330
1F
100
AcDbEntity
  8
SIZE
100
AcDbCircle
 10
-458.3000000000065
 20
-972.9860717580116
 30
0.0
 40
5.0
  0
LINE
  5
469
330
1F
100
AcDbEntity
  8
SIZE
100
AcDbLine
 10
-458.3000000000065
 20
-972.9860717580116
 30
0.0
 11
-448.3000000000065
 21
-972.9860717580116
 31
0.0
  0
TEXT
  5
46E
330
1F
100
AcDbEntity
  8
SIZE
100
AcDbText
 10
-759.6493789352181
 20
-316.9446811060923
 30
0.0
 40
55.0
  1
320
 50
90.0
 41
0.9
 11
-752.3160456018847
 21
-316.9446811060923
 31
0.0
100
AcDbText
 73
     1
  0
CIRCLE
  5
46F
330
1F
100
AcDbEntity
  8
SIZE
100
AcDbCircle
 10
-935.7952837766497
 20
0.0000000000001404
 30
0.0
 40
5.0
  0
LINE
  5
470
330
1F
100
AcDbEntity
  8
SIZE
100
AcDbLine
 10
-935.7952837766497
 20
0.0000000000001404
 30
0.0
 11
-935.7952837766497
 21
-9.999999999999859
 31
0.0
  0
TEXT
  5
471
330
1F
100
AcDbEntity
  8
SIZE
100
AcDbText
 10
-759.6493789352201
 20
-86.62857142857149
 30
0.0
 40
55.0
  1
80
 50
90.0
 41
0.7
 11
-752.3160456018867
 21
-86.62857142857149
 31
0.0
100
AcDbText
 73
     1
  0
CIRCLE
  5
472
330
1F
100
AcDbEntity
  8
SIZE
100
AcDbCircle
 10
-741.3160456018868
 20
0.0000000000000854
 30
0.0
 40
5.0
  0
LINE
  5
473
330
1F
100
AcDbEntity
  8
SIZE
100
AcDbLine
 10
-741.3160456018868
 20
0.0000000000000854
 30
0.0
 11
-741.3160456018868
 21
10.00000000000008
 31
0.0
  0
CIRCLE
  5
474
330
1F
100
AcDbEntity
  8
SIZE
100
AcDbCircle
 10
-741.3160456018868
 20
-79.9999999999999
 30
0.0
 40
5.0
  0
LINE
  5
475
330
1F
100
AcDbEntity
  8
SIZE
100
AcDbLine
 10
-741.3160456018868
 20
-79.9999999999999
 30
0.0
 11
-741.3160456018868
 21
-89.99999999999991
 31
0.0
  0
CIRCLE
  5
476
330
1F
100
AcDbEntity
  8
SIZE
100
AcDbCircle
 10
-741.3160456018847
 20
-79.9999999999999
 30
0.0
 40
5.0
  0
LINE
  5
477
330
1F
100
AcDbEntity
  8
SIZE
100
AcDbLine
 10
-741.3160456018847
 20
-79.9999999999999
 30
0.0
 11
-741.3160456018847
 21
-89.99999999999991
 31
0.0
  0
TEXT
  5
478
330
1F
100
AcDbEntity
  8
SIZE
100
AcDbText
 10
-604.572258674901
 20
-216.9082404095043
 30
0.0
 40
55.0
  1
246
 50
90.0
 41
0.7
 11
-597.2389253415676
 21
-216.9082404095043
 31
0.0
100
AcDbText
 73
     1
  0
CIRCLE
  5
479
330
1F
100
AcDbEntity
  8
SIZE
100
AcDbCircle
 10
-587.5438087088769
 20
-246.0000000000017
 30
0.0
 40
5.0
  0
LINE
  5
47A
330
1F
100
AcDbEntity
  8
SIZE
100
AcDbLine
 10
-587.5438087088769
 20
-246.0000000000017
 30
0.0
 11
-587.5438087088769
 21
-236.0000000000017
 31
0.0
  0
CIRCLE
  5
47B
330
1F
100
AcDbEntity
  8
SIZE
100
AcDbCircle
 10
-587.5438087088769
 20
0.0000000000000418
 30
0.0
 40
5.0
  0
LINE
  5
47C
330
1F
100
AcDbEntity
  8
SIZE
100
AcDbLine
 10
-587.5438087088769
 20
0.0000000000000418
 30
0.0
 11
-587.5438087088769
 21
-9.999999999999957
 31
0.0
  0
TEXT
  5
47D
330
1F
100
AcDbEntity
  8
SIZE
100
AcDbText
 10
522.0000000000005
 20
-1143.960561553939
 30
0.0
 40
55.0
  1
2
 41
0.9
 11
522.0000000000005
 21
-1151.293894887272
 31
0.0
100
AcDbText
 73
     1
  0
CIRCLE
  5
47E
330
1F
100
AcDbEntity
  8
SIZE
100
AcDbCircle
 10
481.9999999999998
 20
-1309.440846548135
 30
0.0
 40
5.0
  0
LINE
  5
47F
330
1F
100
AcDbEntity
  8
SIZE
100
AcDbLine
 10
481.9999999999998
 20
-1309.440846548135
 30
0.0
 11
471.9999999999997
 21
-1309.440846548135
 31
0.0
  0
CIRCLE
  5
480
330
1F
100
AcDbEntity
  8
SIZE
100
AcDbCircle
 10
481.9999999999998
 20
-1162.293894887272
 30
0.0
 40
5.0
  0
LINE
  5
481
330
1F
100
AcDbEntity
  8
SIZE
100
AcDbLine
 10
481.9999999999998
 20
-1162.293894887272
 30
0.0
 11
491.9999999999998
 21
-1162.293894887272
 31
0.0
  0
CIRCLE
  5
482
330
1F
100
AcDbEntity
  8
SIZE
100
AcDbCircle
 10
480.0000000000053
 20
-1162.293894887272
 30
0.0
 40
5.0
  0
LINE
  5
483
330
1F
100
AcDbEntity
  8
SIZE
100
AcDbLine
 10
480.0000000000053
 20
-1162.293894887272
 30
0.0
 11
470.0000000000053
 21
-1162.293894887272
 31
0.0
  0
CIRCLE
  5
484
330
1F
100
AcDbEntity
  8
SIZE
100
AcDbCircle
 10
479.9999999999998
 20
-1162.293894887272
 30
0.0
 40
5.0
  0
LINE
  5
485
330
1F
100
AcDbEntity
  8
SIZE
100
AcDbLine
 10
479.9999999999998
 20
-1162.293894887272
 30
0.0
 11
469.9999999999998
 21
-1162.293894887272
 31
0.0
  0
CIRCLE
  5
486
330
1F
100
AcDbEntity
  8
SIZE
100
AcDbCircle
 10
458.7522900000037
 20
-972.9860717580116
 30
0.0
 40
5.0
  0
LINE
  5
487
330
1F
100
AcDbEntity
  8
SIZE
100
AcDbLine
 10
458.7522900000037
 20
-972.9860717580116
 30
0.0
 11
448.752290000004
 21
-972.9860717580116
 31
0.0
  0
CIRCLE
  5
48D
330
1F
100
AcDbEntity
  8
SIZE
100
AcDbCircle
 10
309.0
 20
98.98849060051359
 30
0.0
 40
5.0
  0
LINE
  5
48E
330
1F
100
AcDbEntity
  8
SIZE
100
AcDbLine
 10
309.0
 20
98.98849060051359
 30
0.0
 11
319.0
 21
98.98849060051359
 31
0.0
  0
TEXT
  5
48F
330
1F
100
AcDbEntity
  8
SIZE
100
AcDbText
 10
651.6418135180816
 20
-161.9428571428571
 30
0.0
 40
55.0
  1
184
 50
90.0
 41
0.9
 11
658.975146851415
 21
-161.9428571428571
 31
0.0
100
AcDbText
 73
     1
  0
CIRCLE
  5
490
330
1F
100
AcDbEntity
  8
SIZE
100
AcDbCircle
 10
669.9751468514151
 20
-184.0
 30
0.0
 40
5.0
  0
LINE
  5
491
330
1F
100
AcDbEntity
  8
SIZE
100
AcDbLine
 10
669.9751468514151
 20
-184.0
 30
0.0
 11
669.9751468514151
 21
-174.0
 31
0.0
  0
CIRCLE
  5
492
330
1F
100
AcDbEntity
  8
SIZE
100
AcDbCircle
 10
394.0
 20
98.98849060051359
 30
0.0
 40
5.0
  0
LINE
  5
493
330
1F
100
AcDbEntity
  8
SIZE
100
AcDbLine
 10
394.0
 20
98.98849060051359
 30
0.0
 11
404.0
 21
98.98849060051359
 31
0.0
  0
CIRCLE
  5
494
330
1F
100
AcDbEntity
  8
SIZE
100
AcDbCircle
 10
394.0
 20
98.98849060051359
 30
0.0
 40
5.0
  0
LINE
  5
495
330
1F
100
AcDbEntity
  8
SIZE
100
AcDbLine
 10
394.0
 20
98.98849060051359
 30
0.0
 11
384.0
 21
98.98849060051359
 31
0.0
  0
CIRCLE
  5
498
330
1F
100
AcDbEntity
  8
SIZE
100
AcDbCircle
 10
669.9751468514151
 20
-0.0000000000000651
 30
0.0
 40
5.0
  0
LINE
  5
499
330
1F
100
AcDbEntity
  8
SIZE
100
AcDbLine
 10
669.9751468514151
 20
-0.0000000000000651
 30
0.0
 11
669.9751468514151
 21
-10.00000000000006
 31
0.0
  0
TEXT
  5
49B
330
1F
100
AcDbEntity
  8
SIZE
100
AcDbText
 10
304.8714285714285
 20
117.3218239338469
 30
0.0
 40
55.0
  1
85
 41
0.8
 11
304.8714285714285
 21
109.9884906005136
 31
0.0
100
AcDbText
 73
     1
  0
TEXT
  5
49D
330
1F
100
AcDbEntity
  8
SIZE
100
AcDbText
 10
92.27480751113034
 20
259.5017825823463
 30
0.0
 40
55.0
  1
38
 41
0.6
 11
92.27480751113034
 21
252.168449249013
 31
0.0
100
AcDbText
 73
     1
  0
CIRCLE
  5
49E
330
1F
100
AcDbEntity
  8
SIZE
100
AcDbCircle
 10
164.0
 20
241.168449249013
 30
0.0
 40
5.0
  0
LINE
  5
49F
330
1F
100
AcDbEntity
  8
SIZE
100
AcDbLine
 10
164.0
 20
241.168449249013
 30
0.0
 11
154.0
 21
241.168449249013
 31
0.0
  0
CIRCLE
  5
4A0
330
1F
100
AcDbEntity
  8
SIZE
100
AcDbCircle
 10
202.0
 20
241.168449249013
 30
0.0
 40
5.0
  0
LINE
  5
4A1
330
1F
100
AcDbEntity
  8
SIZE
100
AcDbLine
 10
202.0
 20
241.168449249013
 30
0.0
 11
212.0
 21
241.168449249013
 31
0.0
  0
CIRCLE
  5
4A2
330
1F
100
AcDbEntity
  8
SIZE
100
AcDbCircle
 10
202.0
 20
241.168449249013
 30
0.0
 40
5.0
  0
LINE
  5
4A3
330
1F
100
AcDbEntity
  8
SIZE
100
AcDbLine
 10
202.0
 20
241.168449249013
 30
0.0
 11
212.0
 21
241.168449249013
 31
0.0
  0
TEXT
  5
4A4
330
1F
100
AcDbEntity
  8
SIZE
100
AcDbText
 10
85.7648752492423
 20
372.8882585808617
 30
0.0
 40
55.0
  1
38
 41
0.6
 11
85.7648752492423
 21
365.5549252475284
 31
0.0
100
AcDbText
 73
     1
  0
CIRCLE
  5
4A5
330
1F
100
AcDbEntity
  8
SIZE
100
AcDbCircle
 10
158.0
 20
354.5549252475284
 30
0.0
 40
5.0
  0
LINE
  5
4A6
330
1F
100
AcDbEntity
  8
SIZE
100
AcDbLine
 10
158.0
 20
354.5549252475284
 30
0.0
 11
148.0
 21
354.5549252475284
 31
0.0
  0
CIRCLE
  5
4A7
330
1F
100
AcDbEntity
  8
SIZE
100
AcDbCircle
 10
196.0
 20
354.5549252475284
 30
0.0
 40
5.0
  0
LINE
  5
4A8
330
1F
100
AcDbEntity
  8
SIZE
100
AcDbLine
 10
196.0
 20
354.5549252475284
 30
0.0
 11
206.0
 21
354.5549252475284
 31
0.0
  0
CIRCLE
  5
4A9
330
1F
100
AcDbEntity
  8
SIZE
100
AcDbCircle
 10
196.0
 20
354.5549252475284
 30
0.0
 40
5.0
  0
LINE
  5
4AA
330
1F
100
AcDbEntity
  8
SIZE
100
AcDbLine
 10
196.0
 20
354.5549252475284
 30
0.0
 11
206.0
 21
354.5549252475284
 31
0.0
  0
TEXT
  5
4B0
330
1F
100
AcDbEntity
  8
SIZE
100
AcDbText
 10
805.2528777583887
 20
-175.5571428571431
 30
0.0
 40
55.0
  1
203
 50
90.0
 41
0.9
 11
812.5862110917221
 21
-175.5571428571431
 31
0.0
100
AcDbText
 73
     1
  0
TEXT
  5
4B1
330
1F
100
AcDbEntity
  8
SIZE
100
AcDbText
 10
957.7197523689052
 20
-195.6857142857147
 30
0.0
 40
55.0
  1
246
 50
90.0
 41
0.9
 11
965.0530857022387
 21
-195.6857142857147
 31
0.0
100
AcDbText
 73
     1
  0
CIRCLE
  5
4B2
330
1F
100
AcDbEntity
  8
SIZE
100
AcDbCircle
 10
823.5862110917222
 20
-203.000000000001
 30
0.0
 40
5.0
  0
LINE
  5
4B3
330
1F
100
AcDbEntity
  8
SIZE
100
AcDbLine
 10
823.5862110917222
 20
-203.000000000001
 30
0.0
 11
823.5862110917222
 21
-193.000000000001
 31
0.0
  0
CIRCLE
  5
4B4
330
1F
100
AcDbEntity
  8
SIZE
100
AcDbCircle
 10
976.0530857022386
 20
-246.0000000000011
 30
0.0
 40
5.0
  0
LINE
  5
4B5
330
1F
100
AcDbEntity
  8
SIZE
100
AcDbLine
 10
976.0530857022386
 20
-246.0000000000011
 30
0.0
 11
976.0530857022386
 21
-236.000000000001
 31
0.0
  0
CIRCLE
  5
4B6
330
1F
100
AcDbEntity
  8
SIZE
100
AcDbCircle
 10
823.5862110917222
 20
-0.0000000000001087
 30
0.0
 40
5.0
  0
LINE
  5
4B7
330
1F
100
AcDbEntity
  8
SIZE
100
AcDbLine
 10
823.5862110917222
 20
-0.0000000000001087
 30
0.0
 11
823.5862110917222
 21
-10.0000000000001
 31
0.0
  0
CIRCLE
  5
4B8
330
1F
100
AcDbEntity
  8
SIZE
100
AcDbCircle
 10
976.0530857022386
 20
-0.0000000000001519
 30
0.0
 40
5.0
  0
LINE
  5
4B9
330
1F
100
AcDbEntity
  8
SIZE
100
AcDbLine
 10
976.0530857022386
 20
-0.0000000000001519
 30
0.0
 11
976.0530857022386
 21
-10.00000000000015
 31
0.0
  0
CIRCLE
  5
4BA
330
1F
100
AcDbEntity
  8
FIX
  6
Continuous
100
AcDbCircle
 10
-458.3000000000065
 20
-400.0000000000008
 30
0.0
 40
5.0
  0
CIRCLE
  5
4BB
330
1F
100
AcDbEntity
  8
FIX
  6
Continuous
100
AcDbCircle
 10
-458.3000000000065
 20
-80.0
 30
0.0
 40
5.0
  0
CIRCLE
  5
4BC
330
1F
100
AcDbEntity
  8
FIX
  6
Continuous
100
AcDbCircle
 10
458.7522900000037
 20
-400.0000000000008
 30
0.0
 40
5.0
  0
CIRCLE
  5
4BD
330
1F
100
AcDbEntity
  8
FIX
  6
Continuous
100
AcDbCircle
 10
458.7522900000112
 20
-80.0
 30
0.0
 40
5.0
  0
POINT
  5
4C0
330
1F
100
AcDbEntity
  8
ARRANGE
  6
Continuous
100
AcDbPoint
 10
0.0
 20
0.0000000000009095
 30
0.0
  0
CIRCLE
  5
4C1
330
1F
100
AcDbEntity
  8
ARRANGE
  6
Continuous
100
AcDbCircle
 10
0.0
 20
0.0000000000009095
 30
0.0
 40
40.0
  0
DIMENSION
  5
5A6
102
{ACAD_XDICTIONARY
360
5B4
102
}
102
{ACAD_REACTORS
330
5BF
102
}
330
1F
100
AcDbEntity
  8
SIZE
100
AcDbDimension
  2
*D1
 10
480.0000000000143
 20
99.40255137918391
 30
0.0
 11
533.2285714285855
 21
136.4025513791839
 31
0.0
 70
    32
 71
     5
 42
86.00000000001433
  3
Standard
100
AcDbAlignedDimension
 13
394.0
 23
-192.1090900000035
 33
0.0
 14
480.0000000000143
 24
-1.000000000003637
 34
0.0
100
AcDbRotatedDimension
1001
ACAD
1000
DSTYLE
1002
{
1070
   140
1040
55.0
1070
   340
1005
11
1002
}
  0
LINE
  5
5C0
330
1F
100
AcDbEntity
  8
SIZE
100
AcDbLine
 10
480.0000000000143
 20
49.32252568959015
 30
0.0
 11
480.0000000000143
 21
99.40255137918391
 31
0.0
  0
LINE
  5
5C1
330
1F
100
AcDbEntity
  8
SIZE
100
AcDbLine
 10
480.0000000000143
 20
99.40255137918391
 30
0.0
 11
480.0000000000143
 21
127.2711790800022
 31
0.0
  0
DIMENSION
  5
5C2
102
{ACAD_XDICTIONARY
360
5CF
102
}
102
{ACAD_REACTORS
330
5D9
102
}
330
1F
100
AcDbEntity
  8
SIZE
100
AcDbDimension
  2
*D2
 10
202.0
 20
240.8765279705085
 30
0.0
 11
341.0000000000072
 21
240.8765279705085
 31
0.0
 70
   160
 71
     5
 42
278.0000000000143
  3
Standard
100
AcDbAlignedDimension
 13
480.0000000000143
 23
-1.000000000003637
 33
0.0
 14
202.0
 24
20.0
 34
0.0
100
AcDbRotatedDimension
1001
ACAD
1000
DSTYLE
1002
{
1070
   140
1040
55.0
1002
}
  0
DIMENSION
  5
5DA
102
{ACAD_XDICTIONARY
360
5E7
102
}
102
{ACAD_REACTORS
330
5F1
102
}
330
1F
100
AcDbEntity
  8
SIZE
100
AcDbDimension
  2
*D3
 10
196.0
 20
354.5549252475284
 30
0.0
 11
338.0000000000072
 21
354.5549252475284
 31
0.0
 70
   160
 71
     5
 42
284.0000000000143
  3
Standard
100
AcDbAlignedDimension
 13
480.0000000000143
 23
-1.000000000003637
 33
0.0
 14
196.0
 24
20.0
 34
0.0
100
AcDbRotatedDimension
1001
ACAD
1000
DSTYLE
1002
{
1070
   140
1040
55.0
1002
}
  0
LINE
  5
5F2
330
1F
100
AcDbEntity
  8
SIZE
100
AcDbLine
 10
480.0000000000143
 20
354.7349252475284
 30
0.0
 11
480.0000000000143
 21
393.4691767450095
 31
0.0
  0
DIMENSION
  5
60A
102
{ACAD_XDICTIONARY
360
618
102
}
102
{ACAD_REACTORS
330
623
102
}
330
1F
100
AcDbEntity
  8
SIZE
100
AcDbDimension
  2
*D4
 10
-480.0
 20
97.93810622151795
 30
0.0
 11
-350.5523809523773
 21
97.93810622151795
 31
0.0
 70
   160
 71
     5
 42
75.00000000000364
  3
Standard
100
AcDbAlignedDimension
 13
-404.9999999999963
 23
-266.0000000000018
 33
0.0
 14
-480.0
 24
-338.0000000000018
 34
0.0
100
AcDbRotatedDimension
1001
ACAD
1000
DSTYLE
1002
{
1070
   140
1040
55.0
1002
}
  0
DIMENSION
  5
624
102
{ACAD_XDICTIONARY
360
631
102
}
102
{ACAD_REACTORS
330
63B
102
}
330
1F
100
AcDbEntity
  8
SIZE
100
AcDbDimension
  2
*D5
 10
341.9999999999999
 20
-832.8853971132321
 30
0.0
 11
260.4285714285714
 21
-832.8853971132321
 31
0.0
 70
   160
 71
     5
 42
138.0000000000053
  3
Standard
100
AcDbAlignedDimension
 13
480.0000000000053
 23
-625.4231500000059
 33
0.0
 14
342.0
 24
-266.0000000000009
 34
0.0
100
AcDbRotatedDimension
1001
ACAD
1000
DSTYLE
1002
{
1070
   140
1040
55.0
1070
   340
1005
11
1002
}
  0
TEXT
  5
8D8
330
1F
100
AcDbEntity
  8
ETC
  6
Continuous
100
AcDbText
 10
934.0891195865934
 20
493.7155713746105
 30
0.0
 40
55.0
  1
SMPC4666
 41
0.9
100
AcDbText
  0
TEXT
  5
8D9
330
1F
100
AcDbEntity
  8
ETC
  6
Continuous
100
AcDbText
 10
934.0891195865934
 20
633.5507823746101
 30
0.0
 40
55.0
  1
PAC
 41
0.9
100
AcDbText
  0
VIEWPORT
  5
4C2
330
1B
100
AcDbEntity
 67
     1
  8
0
100
AcDbViewport
 10
0.0
 20
0.0
 30
0.0
 40
2478.277972316061
 41
1747.498505153149
 68
     1
 69
     1
 12
1195.211847114329
 22
845.7238188202532
 13
0.0
 23
0.0
 14
0.5
 24
0.5
 15
0.5
 25
0.5
 16
0.0
 26
0.0
 36
1.0
 17
0.0
 27
0.0
 37
0.0
 42
50.0
 43
0.0
 44
0.0
 45
1747.498505153149
 50
0.0
 51
0.0
 72
   100
 90
   557152
  1

281
     0
 71
     1
 74
     0
110
0.0
120
0.0
130
0.0
111
1.0
121
0.0
131
0.0
112
0.0
122
1.0
132
0.0
 79
     0
146
0.0
170
     0
  0
POLYLINE
  5
4C4
330
1B
100
AcDbEntity
 67
     1
  8
rcviewportframe
100
AcDb2dPolyline
 66
     1
 10
0.0
 20
0.0
 30
0.0
 70
     1
  0
VERTEX
  5
4C5
330
4C4
100
AcDbEntity
 67
     1
  8
rcviewportframe
100
AcDbVertex
100
AcDb2dVertex
 10
-19.6302961778581
 20
-10.8930954705063
 30
0.0
  0
VERTEX
  5
4C6
330
4C4
100
AcDbEntity
 67
     1
  8
rcviewportframe
100
AcDbVertex
100
AcDb2dVertex
 10
2410.053990406515
 20
-10.8930954705063
 30
0.0
  0
VERTEX
  5
4C7
330
4C4
100
AcDbEntity
 67
     1
  8
rcviewportframe
100
AcDbVertex
100
AcDb2dVertex
 10
2410.053990406515
 20
1702.340733111012
 30
0.0
  0
VERTEX
  5
4C8
330
4C4
100
AcDbEntity
 67
     1
  8
rcviewportframe
100
AcDbVertex
100
AcDb2dVertex
 10
-19.6302961778581
 20
1702.340733111012
 30
0.0
  0
SEQEND
  5
4C9
330
4C4
100
AcDbEntity
 67
     1
  8
rcviewportframe
  0
VIEWPORT
  5
4CA
330
1B
100
AcDbEntity
 67
     1
  8
SIZE
100
AcDbViewport
 10
1195.211847114329
 20
845.7238188202532
 30
0.0
 40
2429.684286584374
 41
1713.233828581518
 68
     2
 69
     2
 12
174.4165633376788
 22
-356.2970517178158
 13
0.0
 23
0.0
 14
0.5
 24
0.5
 15
0.5
 25
0.5
 16
0.0
 26
0.0
 36
1.0
 17
0.0
 27
0.0
 37
0.0
 42
50.0
 43
0.0
 44
0.0
 45
1713.233828581518
 50
0.0
 51
0.0
 72
   100
 90
   622688
340
4C4
  1

281
     0
 71
     1
 74
     0
110
0.0
120
0.0
130
0.0
111
1.0
121
0.0
131
0.0
112
0.0
122
1.0
132
0.0
 79
     0
146
0.0
170
     0
  0
ENDSEC
  0
SECTION
  2
OBJECTS
  0
DICTIONARY
  5
C
330
0
100
AcDbDictionary
281
     1
  3
ACAD_CIP_PREVIOUS_PRODUCT_INFO
350
51D
  3
ACAD_COLOR
350
511
  3
ACAD_DETAILVIEWSTYLE
350
517
  3
ACAD_GROUP
350
D
  3
ACAD_IMAGE_VARS
350
6B
  3
ACAD_LAYOUT
350
1A
  3
ACAD_MATERIAL
350
43
  3
ACAD_MLEADERSTYLE
350
4CE
  3
ACAD_MLINESTYLE
350
17
  3
ACAD_PLOTSETTINGS
350
19
  3
ACAD_PLOTSTYLENAME
350
E
  3
ACAD_SCALELIST
350
47
  3
ACAD_SECTIONVIEWSTYLE
350
515
  3
ACAD_TABLESTYLE
350
512
  3
ACAD_VISUALSTYLE
350
2A
  3
ACDB_RECOMPOSE_DATA
350
C4A
  3
AcDbVariableDictionary
350
4CC
  0
DICTIONARY
  5
9FF
330
2
100
AcDbDictionary
280
     1
281
     1
  3
ACAD_LAYERSTATES
360
A00
  0
DICTIONARY
  5
527
330
10
100
AcDbDictionary
280
     1
281
     1
  3
ADSK_XREC_LAYER_RECONCILED
360
528
  0
DICTIONARY
  5
529
330
6D
100
AcDbDictionary
280
     1
281
     1
  3
ADSK_XREC_LAYER_RECONCILED
360
52A
  0
DICTIONARY
  5
52B
330
6E
100
AcDbDictionary
280
     1
281
     1
  3
ADSK_XREC_LAYER_RECONCILED
360
52C
  0
DICTIONARY
  5
52D
330
6F
100
AcDbDictionary
280
     1
281
     1
  3
ADSK_XREC_LAYER_RECONCILED
360
52E
  0
DICTIONARY
  5
52F
330
70
100
AcDbDictionary
280
     1
281
     1
  3
ADSK_XREC_LAYER_RECONCILED
360
530
  0
DICTIONARY
  5
531
330
72
100
AcDbDictionary
280
     1
281
     1
  3
ADSK_XREC_LAYER_RECONCILED
360
532
  0
DICTIONARY
  5
533
330
73
100
AcDbDictionary
280
     1
281
     1
  3
ADSK_XREC_LAYER_RECONCILED
360
534
  0
DICTIONARY
  5
535
330
74
100
AcDbDictionary
280
     1
281
     1
  3
ADSK_XREC_LAYER_RECONCILED
360
536
  0
DICTIONARY
  5
537
330
75
100
AcDbDictionary
280
     1
281
     1
  3
ADSK_XREC_LAYER_RECONCILED
360
538
  0
DICTIONARY
  5
539
330
76
100
AcDbDictionary
280
     1
281
     1
  3
ADSK_XREC_LAYER_RECONCILED
360
53A
  0
DICTIONARY
  5
5B4
330
5A6
100
AcDbDictionary
280
     1
281
     1
  3
ACAD_DIMASSOC
360
5BF
  0
DICTIONARY
  5
5CF
330
5C2
100
AcDbDictionary
280
     1
281
     1
  3
ACAD_DIMASSOC
360
5D9
  0
DICTIONARY
  5
5E7
330
5DA
100
AcDbDictionary
280
     1
281
     1
  3
ACAD_DIMASSOC
360
5F1
  0
DICTIONARY
  5
618
330
60A
100
AcDbDictionary
280
     1
281
     1
  3
ACAD_DIMASSOC
360
623
  0
DICTIONARY
  5
631
330
624
100
AcDbDictionary
280
     1
281
     1
  3
ACAD_DIMASSOC
360
63B
  0
XRECORD
  5
51D
102
{ACAD_REACTORS
330
C
102
}
330
C
100
AcDbXrecord
280
     1
300
ACD
300
2018
300
86830ACD_2018_0F
  0
DICTIONARY
  5
511
102
{ACAD_REACTORS
330
C
102
}
330
C
100
AcDbDictionary
281
     1
  0
DICTIONARY
  5
517
102
{ACAD_REACTORS
330
C
102
}
330
C
100
AcDbDictionary
281
     1
  3
Imperial24
350
518
  0
DICTIONARY
  5
D
102
{ACAD_REACTORS
330
C
102
}
330
C
100
AcDbDictionary
281
     1
  0
RASTERVARIABLES
  5
6B
102
{ACAD_REACTORS
330
C
102
}
330
C
100
AcDbRasterVariables
 90
        0
 70
     0
 71
     1
 72
     0
  0
DICTIONARY
  5
1A
102
{ACAD_REACTORS
330
C
102
}
330
C
100
AcDbDictionary
281
     1
  3
Model
350
22
  3
レイアウト1
350
1E
  0
DICTIONARY
  5
43
102
{ACAD_REACTORS
330
C
102
}
330
C
100
AcDbDictionary
281
     1
  3
ByBlock
350
45
  3
ByLayer
350
44
  3
Global
350
46
  0
DICTIONARY
  5
4CE
102
{ACAD_REACTORS
330
C
102
}
330
C
100
AcDbDictionary
281
     1
  3
Standard
350
514
  0
DICTIONARY
  5
17
102
{ACAD_REACTORS
330
C
102
}
330
C
100
AcDbDictionary
281
     1
  3
Standard
350
18
  0
DICTIONARY
  5
19
102
{ACAD_REACTORS
330
C
102
}
330
C
100
AcDbDictionary
281
     1
  0
ACDBDICTIONARYWDFLT
  5
E
102
{ACAD_REACTORS
330
C
102
}
330
C
100
AcDbDictionary
281
     1
  3
Normal
350
F
100
AcDbDictionaryWithDefault
340
F
  0
DICTIONARY
  5
47
102
{ACAD_REACTORS
330
C
102
}
330
C
100
AcDbDictionary
281
     1
  3
A0
350
48
  3
A1
350
49
  3
A2
350
4A
  3
A3
350
4B
  3
A4
350
4C
  3
A5
350
4D
  3
A6
350
4E
  3
A7
350
4F
  3
A8
350
50
  3
A9
350
51
  3
B0
350
52
  3
B1
350
53
  3
B2
350
54
  3
B3
350
55
  3
B4
350
56
  3
B5
350
57
  3
B6
350
58
  3
B7
350
59
  3
B8
350
5A
  3
B9
350
5B
  3
C0
350
5C
  3
C1
350
5D
  3
C2
350
5E
  3
C3
350
5F
  3
C4
350
60
  3
C5
350
61
  3
C6
350
62
  3
C7
350
63
  3
C8
350
64
  3
C9
350
65
  3
D0
350
66
  3
D1
350
67
  3
D2
350
68
  0
DICTIONARY
  5
515
102
{ACAD_REACTORS
330
C
102
}
330
C
100
AcDbDictionary
281
     1
  3
Imperial24
350
516
  0
DICTIONARY
  5
512
102
{ACAD_REACTORS
330
C
102
}
330
C
100
AcDbDictionary
281
     1
  3
Standard
350
513
  0
DICTIONARY
  5
2A
102
{ACAD_REACTORS
330
C
102
}
330
C
100
AcDbDictionary
281
     1
  3
2dWireframe
350
2F
  3
Basic
350
32
  3
Brighten
350
36
  3
ColorChange
350
3A
  3
Conceptual
350
34
  3
Dim
350
35
  3
EdgeColorOff
350
3D
  3
Facepattern
350
39
  3
Flat
350
2B
  3
FlatWithEdges
350
2C
  3
Gouraud
350
2D
  3
GouraudWithEdges
350
2E
  3
Hidden
350
31
  3
JitterOff
350
3B
  3
Linepattern
350
38
  3
OverhangOff
350
3C
  3
Realistic
350
33
  3
Shaded
350
42
  3
Shaded with edges
350
41
  3
Shades of Gray
350
3E
  3
Sketchy
350
3F
  3
Thicken
350
37
  3
Wireframe
350
30
  3
X-Ray
350
40
  0
XRECORD
  5
C4A
102
{ACAD_REACTORS
330
C
102
}
330
C
100
AcDbXrecord
280
     1
 90
        1
330
513
  0
DICTIONARY
  5
4CC
102
{ACAD_REACTORS
330
C
102
}
330
C
100
AcDbDictionary
281
     1
  3
CANNOSCALE
350
4D3
  3
CMLEADERSTYLE
350
53C
  3
CTABLESTYLE
350
53B
  3
CVIEWDETAILSTYLE
350
53D
  3
CVIEWSECTIONSTYLE
350
53E
  3
DIMASSOC
350
4D1
  3
HIDETEXT
350
4D2
  3
LAYEREVAL
350
540
  3
LAYERNOTIFY
350
541
  3
LIGHTINGUNITS
350
53F
  3
LOFTANG1
350
C46
  3
LOFTANG2
350
C47
  3
MSLTSCALE
350
4D4
  3
XCLIPFRAME
350
C48
  0
DICTIONARY
  5
A00
102
{ACAD_REACTORS
330
9FF
102
}
330
9FF
100
AcDbDictionary
281
     1
  0
XRECORD
  5
528
102
{ACAD_REACTORS
330
527
102
}
330
527
100
AcDbXrecord
280
     1
290
     1
  0
XRECORD
  5
52A
102
{ACAD_REACTORS
330
529
102
}
330
529
100
AcDbXrecord
280
     1
290
     1
  0
XRECORD
  5
52C
102
{ACAD_REACTORS
330
52B
102
}
330
52B
100
AcDbXrecord
280
     1
290
     1
  0
XRECORD
  5
52E
102
{ACAD_REACTORS
330
52D
102
}
330
52D
100
AcDbXrecord
280
     1
290
     1
  0
XRECORD
  5
530
102
{ACAD_REACTORS
330
52F
102
}
330
52F
100
AcDbXrecord
280
     1
290
     1
  0
XRECORD
  5
532
102
{ACAD_REACTORS
330
531
102
}
330
531
100
AcDbXrecord
280
     1
290
     1
  0
XRECORD
  5
534
102
{ACAD_REACTORS
330
533
102
}
330
533
100
AcDbXrecord
280
     1
290
     1
  0
XRECORD
  5
536
102
{ACAD_REACTORS
330
535
102
}
330
535
100
AcDbXrecord
280
     1
290
     1
  0
XRECORD
  5
538
102
{ACAD_REACTORS
330
537
102
}
330
537
100
AcDbXrecord
280
     1
290
     1
  0
XRECORD
  5
53A
102
{ACAD_REACTORS
330
539
102
}
330
539
100
AcDbXrecord
280
     1
290
     1
  0
DIMASSOC
  5
5BF
102
{ACAD_REACTORS
330
5B4
102
}
330
5B4
100
AcDbDimAssoc
330
5A6
 90
        3
 70
     0
 71
     0
  1
AcDbOsnapPointRef
 72
     6
331
3F8
 73
     2
 91
        0
 40
0.2277272500000825
 10
0.0
 20
0.0
 30
0.0
332
312
 74
     2
 92
        0
 75
     0
  1
AcDbOsnapPointRef
 72
    13
331
36D
 73
     2
 91
        0
 40
0.0
 10
0.0
 20
0.0
 30
2.000000000000000E+50
 75
     0
  0
DIMASSOC
  5
5D9
102
{ACAD_REACTORS
330
5CF
102
}
330
5CF
100
AcDbDimAssoc
330
5C2
 90
        3
 70
     0
 71
     0
  1
AcDbOsnapPointRef
 72
    13
331
36D
 73
     2
 91
        0
 40
0.0
 10
0.0
 20
0.0
 30
2.000000000000000E+50
 75
     0
  1
AcDbOsnapPointRef
 72
    13
331
3E0
 73
     2
 91
        0
 40
0.0
 10
0.0
 20
0.0
 30
2.000000000000000E+50
 75
     0
  0
DIMASSOC
  5
5F1
102
{ACAD_REACTORS
330
5E7
102
}
330
5E7
100
AcDbDimAssoc
330
5DA
 90
        3
 70
     0
 71
     0
  1
AcDbOsnapPointRef
 72
    13
331
36D
 73
     2
 91
        0
 40
0.0
 10
0.0
 20
0.0
 30
2.000000000000000E+50
 75
     0
  1
AcDbOsnapPointRef
 72
    13
331
3DF
 73
     2
 91
        0
 40
0.0
 10
0.0
 20
0.0
 30
2.000000000000000E+50
 75
     0
  0
DIMASSOC
  5
623
102
{ACAD_REACTORS
330
618
102
}
330
618
100
AcDbDimAssoc
330
60A
 90
        3
 70
     0
 71
     0
  1
AcDbOsnapPointRef
 72
     1
331
409
 73
     2
 91
        0
 40
1.0
 10
0.0
 20
0.0
 30
2.000000000000000E+50
 75
     0
  1
AcDbOsnapPointRef
 72
     2
331
37B
 73
     2
 91
        0
 40
0.5
 10
0.0
 20
0.0
 30
0.0
 75
     0
  0
DIMASSOC
  5
63B
102
{ACAD_REACTORS
330
631
102
}
330
631
100
AcDbDimAssoc
330
624
 90
        3
 70
     0
 71
     0
  1
AcDbOsnapPointRef
 72
     6
331
431
 73
     2
 91
        0
 40
0.2631278969192241
 10
0.0
 20
0.0
 30
0.0
332
36F
 74
     2
 92
        0
 75
     0
  1
AcDbOsnapPointRef
 72
     1
331
3E8
 73
     2
 91
        0
 40
1.0
 10
0.0
 20
0.0
 30
2.000000000000000E+50
 75
     0
  0
ACDBDETAILVIEWSTYLE
  5
518
102
{ACAD_XDICTIONARY
360
C7E
102
}
102
{ACAD_REACTORS
330
517
102
}
330
517
100
AcDbModelDocViewStyle
 70
     0
  3
Imperial24
290
     0
100
AcDbDetailViewStyle
 70
     0
 71
     0
 90
        3
 71
     1
340
11
 62
   256
 40
0.24
340
0
 62
   256
 40
0.24
300

 40
0.36
280
     3
 71
     2
340
16
 90
       25
 62
   256
 71
     3
340
11
 62
   256
 40
0.24
 90
        1
 40
0.75
 90
        1
300
%<\AcVar ViewType \f "%tc1">% %<\AcVar ViewDetailId>%\PSCALE %<\AcVar ViewScale \f "%sn">%
 71
     4
340
16
 90
       25
 62
   256
340
16
 90
       25
 62
   256
280
     0
  0
LAYOUT
  5
22
102
{ACAD_REACTORS
330
1A
102
}
330
1A
100
AcDbPlotSettings
  1

  2
none_device
  4
Letter_(8.50_x_11.00_Inches)
  6

 40
6.349999999999997
 41
6.349999999999997
 42
6.350005079999997
 43
6.350005079999997
 44
215.9
 45
279.4
 46
0.0
 47
0.0
 48
0.0
 49
0.0
140
0.0
141
0.0
142
1.0
143
1.0
 70
  1712
 72
     0
 73
     0
 74
     0
  7

 75
     0
147
1.0
 76
     0
 77
     2
 78
   300
148
0.0
149
0.0
100
AcDbLayout
  1
Model
 70
     1
 71
     0
 10
-1263.494104720812
 20
-1490.026088172586
 11
1699.535513065009
 21
599.2834588780465
 12
0.0
 22
0.0
 32
0.0
 14
-1263.494104720812
 24
-1490.026088172586
 34
0.0
 15
1699.535513065009
 25
599.2834588780465
 35
0.0
146
0.0
 13
0.0
 23
0.0
 33
0.0
 16
1.0
 26
0.0
 36
0.0
 17
0.0
 27
1.0
 37
0.0
 76
     0
330
1F
331
29
  0
LAYOUT
  5
1E
102
{ACAD_REACTORS
330
1A
102
}
330
1A
100
AcDbPlotSettings
  1

  2
none_device
  4
ISO_A4_(297.00_x_210.00_MM)
  6

 40
7.5
 41
20.0
 42
7.5
 43
20.0
 44
297.0
 45
210.0
 46
-7.5
 47
-20.0
 48
0.0
 49
0.0
140
0.0
141
0.0
142
1.0
143
1.0
 70
   688
 72
     1
 73
     0
 74
     5
  7

 75
    16
147
1.0
 76
     0
 77
     2
 78
   300
148
0.0
149
0.0
100
AcDbLayout
  1
レイアウト1
 70
     1
 71
     1
 10
-7.5
 20
-20.0
 11
297.0
 21
210.0
 12
0.0
 22
0.0
 32
0.0
 14
-9.375
 24
-25.0
 34
0.0
 15
371.25
 25
262.5
 35
0.0
146
0.0
 13
0.0
 23
0.0
 33
0.0
 16
1.0
 26
0.0
 36
0.0
 17
0.0
 27
1.0
 37
0.0
 76
     0
330
1B
331
4C2
  0
MATERIAL
  5
45
102
{ACAD_XDICTIONARY
360
507
102
}
102
{ACAD_REACTORS
330
43
102
}
330
43
100
AcDbMaterial
  1
ByBlock
  0
MATERIAL
  5
44
102
{ACAD_XDICTIONARY
360
505
102
}
102
{ACAD_REACTORS
330
43
102
}
330
43
100
AcDbMaterial
  1
ByLayer
  0
MATERIAL
  5
46
102
{ACAD_XDICTIONARY
360
509
102
}
102
{ACAD_REACTORS
330
43
102
}
330
43
100
AcDbMaterial
  1
Global
  0
MLEADERSTYLE
  5
514
102
{ACAD_REACTORS
330
4CE
102
}
330
4CE
100
AcDbMLeaderStyle
170
     2
171
     1
172
     0
 90
        2
 40
0.0
 41
0.0
173
     1
 91
-1056964608
340
14
 92
       -2
290
     1
 42
0.09
291
     1
 43
0.36
  3
Standard
 44
0.18
300

342
11
174
     1
178
     6
175
     1
176
     0
 93
-1056964608
 45
0.18
292
     0
297
     0
 46
0.18
 94
-1056964608
 47
1.0
 49
1.0
140
1.0
293
     1
141
0.0
294
     1
177
     0
142
1.0
295
     0
296
     0
143
0.125
1001
ACAD_MLEADERVER
1070
     2
  0
MLINESTYLE
  5
18
102
{ACAD_REACTORS
330
17
102
}
330
17
100
AcDbMlineStyle
  2
STANDARD
 70
     0
  3

 62
   256
 51
90.0
 52
90.0
 71
     2
 49
0.5
 62
   256
  6
BYLAYER
 49
-0.5
 62
   256
  6
BYLAYER
  0
ACDBPLACEHOLDER
  5
F
102
{ACAD_REACTORS
330
E
102
}
330
E
  0
SCALE
  5
48
102
{ACAD_REACTORS
330
47
102
}
330
47
100
AcDbScale
 70
     0
300
1:1
140
1.0
141
1.0
290
     1
  0
SCALE
  5
49
102
{ACAD_REACTORS
330
47
102
}
330
47
100
AcDbScale
 70
     0
300
1:2
140
1.0
141
2.0
290
     0
  0
SCALE
  5
4A
102
{ACAD_REACTORS
330
47
102
}
330
47
100
AcDbScale
 70
     0
300
1:4
140
1.0
141
4.0
290
     0
  0
SCALE
  5
4B
102
{ACAD_REACTORS
330
47
102
}
330
47
100
AcDbScale
 70
     0
300
1:5
140
1.0
141
5.0
290
     0
  0
SCALE
  5
4C
102
{ACAD_REACTORS
330
47
102
}
330
47
100
AcDbScale
 70
     0
300
1:8
140
1.0
141
8.0
290
     0
  0
SCALE
  5
4D
102
{ACAD_REACTORS
330
47
102
}
330
47
100
AcDbScale
 70
     0
300
1:10
140
1.0
141
10.0
290
     0
  0
SCALE
  5
4E
102
{ACAD_REACTORS
330
47
102
}
330
47
100
AcDbScale
 70
     0
300
1:16
140
1.0
141
16.0
290
     0
  0
SCALE
  5
4F
102
{ACAD_REACTORS
330
47
102
}
330
47
100
AcDbScale
 70
     0
300
1:20
140
1.0
141
20.0
290
     0
  0
SCALE
  5
50
102
{ACAD_REACTORS
330
47
102
}
330
47
100
AcDbScale
 70
     0
300
1:30
140
1.0
141
30.0
290
     0
  0
SCALE
  5
51
102
{ACAD_REACTORS
330
47
102
}
330
47
100
AcDbScale
 70
     0
300
1:40
140
1.0
141
40.0
290
     0
  0
SCALE
  5
52
102
{ACAD_REACTORS
330
47
102
}
330
47
100
AcDbScale
 70
     0
300
1:50
140
1.0
141
50.0
290
     0
  0
SCALE
  5
53
102
{ACAD_REACTORS
330
47
102
}
330
47
100
AcDbScale
 70
     0
300
1:100
140
1.0
141
100.0
290
     0
  0
SCALE
  5
54
102
{ACAD_REACTORS
330
47
102
}
330
47
100
AcDbScale
 70
     0
300
2:1
140
2.0
141
1.0
290
     0
  0
SCALE
  5
55
102
{ACAD_REACTORS
330
47
102
}
330
47
100
AcDbScale
 70
     0
300
4:1
140
4.0
141
1.0
290
     0
  0
SCALE
  5
56
102
{ACAD_REACTORS
330
47
102
}
330
47
100
AcDbScale
 70
     0
300
8:1
140
8.0
141
1.0
290
     0
  0
SCALE
  5
57
102
{ACAD_REACTORS
330
47
102
}
330
47
100
AcDbScale
 70
     0
300
10:1
140
10.0
141
1.0
290
     0
  0
SCALE
  5
58
102
{ACAD_REACTORS
330
47
102
}
330
47
100
AcDbScale
 70
     0
300
100:1
140
100.0
141
1.0
290
     0
  0
SCALE
  5
59
102
{ACAD_REACTORS
330
47
102
}
330
47
100
AcDbScale
 70
     0
300
1/128" = 1'-0"
140
0.0078125
141
12.0
290
     0
  0
SCALE
  5
5A
102
{ACAD_REACTORS
330
47
102
}
330
47
100
AcDbScale
 70
     0
300
1/64" = 1'-0"
140
0.015625
141
12.0
290
     0
  0
SCALE
  5
5B
102
{ACAD_REACTORS
330
47
102
}
330
47
100
AcDbScale
 70
     0
300
1/32" = 1'-0"
140
0.03125
141
12.0
290
     0
  0
SCALE
  5
5C
102
{ACAD_REACTORS
330
47
102
}
330
47
100
AcDbScale
 70
     0
300
1/16" = 1'-0"
140
0.0625
141
12.0
290
     0
  0
SCALE
  5
5D
102
{ACAD_REACTORS
330
47
102
}
330
47
100
AcDbScale
 70
     0
300
3/32" = 1'-0"
140
0.09375
141
12.0
290
     0
  0
SCALE
  5
5E
102
{ACAD_REACTORS
330
47
102
}
330
47
100
AcDbScale
 70
     0
300
1/8" = 1'-0"
140
0.125
141
12.0
290
     0
  0
SCALE
  5
5F
102
{ACAD_REACTORS
330
47
102
}
330
47
100
AcDbScale
 70
     0
300
3/16" = 1'-0"
140
0.1875
141
12.0
290
     0
  0
SCALE
  5
60
102
{ACAD_REACTORS
330
47
102
}
330
47
100
AcDbScale
 70
     0
300
1/4" = 1'-0"
140
0.25
141
12.0
290
     0
  0
SCALE
  5
61
102
{ACAD_REACTORS
330
47
102
}
330
47
100
AcDbScale
 70
     0
300
3/8" = 1'-0"
140
0.375
141
12.0
290
     0
  0
SCALE
  5
62
102
{ACAD_REACTORS
330
47
102
}
330
47
100
AcDbScale
 70
     0
300
1/2" = 1'-0"
140
0.5
141
12.0
290
     0
  0
SCALE
  5
63
102
{ACAD_REACTORS
330
47
102
}
330
47
100
AcDbScale
 70
     0
300
3/4" = 1'-0"
140
0.75
141
12.0
290
     0
  0
SCALE
  5
64
102
{ACAD_REACTORS
330
47
102
}
330
47
100
AcDbScale
 70
     0
300
1" = 1'-0"
140
1.0
141
12.0
290
     0
  0
SCALE
  5
65
102
{ACAD_REACTORS
330
47
102
}
330
47
100
AcDbScale
 70
     0
300
1-1/2" = 1'-0"
140
1.5
141
12.0
290
     0
  0
SCALE
  5
66
102
{ACAD_REACTORS
330
47
102
}
330
47
100
AcDbScale
 70
     0
300
3" = 1'-0"
140
3.0
141
12.0
290
     0
  0
SCALE
  5
67
102
{ACAD_REACTORS
330
47
102
}
330
47
100
AcDbScale
 70
     0
300
6" = 1'-0"
140
6.0
141
12.0
290
     0
  0
SCALE
  5
68
102
{ACAD_REACTORS
330
47
102
}
330
47
100
AcDbScale
 70
     0
300
1'-0" = 1'-0"
140
12.0
141
12.0
290
     0
  0
ACDBSECTIONVIEWSTYLE
  5
516
102
{ACAD_XDICTIONARY
360
C7C
102
}
102
{ACAD_REACTORS
330
515
102
}
330
515
100
AcDbModelDocViewStyle
 70
     0
  3
Imperial24
290
     0
100
AcDbSectionViewStyle
 70
     0
 71
     0
 90
       78
 71
     1
340
11
 62
   256
 40
0.24
340
0
340
0
 62
   256
 40
0.24
300
I, O, Q, S, X, Z
 40
0.48
 90
        3
 40
0.18
 90
        1
 71
     2
340
16
 90
       25
 62
   256
340
16
 90
       50
 62
   256
 40
0.24
 40
0.0
 40
0.24
 71
     3
340
11
 62
   256
 40
0.24
 90
        1
 40
0.75
 90
        1
300
%<\AcVar ViewType \f "%tc1">% %<\AcVar ViewSectionStartId>%-%<\AcVar ViewSectionEndId>%\PSCALE %<\AcVar ViewScale \f "%sn">%
 71
     4
 62
   256
 62
   257
300
ANSI31
 40
1.0
 90
        0
290
     0
290
     0
 90
        6
 40
0.0
 40
1.570796326794896
 40
0.2617993877991494
 40
1.308996938995747
 40
-0.2617993877991494
 40
1.832595714594044
  0
TABLESTYLE
  5
513
102
{ACAD_XDICTIONARY
360
559
102
}
102
{ACAD_REACTORS
330
512
102
}
330
512
100
AcDbTableStyle
  3
Standard
 70
     0
 71
     0
 40
0.06
 41
0.06
280
     0
281
     0
  7
Standard
140
0.18
170
     2
 62
     0
 63
     7
283
     0
274
    -2
284
     1
 64
     0
275
    -2
285
     1
 65
     0
276
    -2
286
     1
 66
     0
277
    -2
287
     1
 67
     0
278
    -2
288
     1
 68
     0
279
    -2
289
     1
 69
     0
  7
Standard
140
0.25
170
     5
 62
     0
 63
     7
283
     0
274
    -2
284
     1
 64
     0
275
    -2
285
     1
 65
     0
276
    -2
286
     1
 66
     0
277
    -2
287
     1
 67
     0
278
    -2
288
     1
 68
     0
279
    -2
289
     1
 69
     0
  7
Standard
140
0.18
170
     5
 62
     0
 63
     7
283
     0
274
    -2
284
     1
 64
     0
275
    -2
285
     1
 65
     0
276
    -2
286
     1
 66
     0
277
    -2
287
     1
 67
     0
278
    -2
288
     1
 68
     0
279
    -2
289
     1
 69
     0
  0
VISUALSTYLE
  5
2F
102
{ACAD_XDICTIONARY
360
C53
102
}
102
{ACAD_REACTORS
330
2A
102
}
330
2A
100
AcDbVisualStyle
  2

 70
     4
 71
     0
 72
     2
 73
     0
 90
        0
 40
-0.6
 41
-30.0
 62
     5
 63
     7
 74
     1
 91
        4
 64
     7
 65
   257
 75
     1
175
     1
 42
1.0
 92
        0
 66
   257
 43
1.0
 76
     1
 77
     6
 78
     2
 67
     7
 79
     5
170
     0
171
     0
290
     0
174
     0
 93
        1
 44
0.0
173
     0
291
     0
 45
0.0
1001
ACAD
1000
AcDbSavedByObjectVersion
1070
     0
  0
VISUALSTYLE
  5
32
102
{ACAD_XDICTIONARY
360
C59
102
}
102
{ACAD_REACTORS
330
2A
102
}
330
2A
100
AcDbVisualStyle
  2

 70
     7
 71
     1
 72
     0
 73
     1
 90
        0
 40
-0.6
 41
-30.0
 62
     5
 63
     7
 74
     0
 91
        4
 64
     7
 65
   257
 75
     1
175
     1
 42
1.0
 92
        8
 66
     7
 43
1.0
 76
     1
 77
     6
 78
     2
 67
     7
 79
     5
170
     0
171
     0
290
     0
174
     0
 93
        1
 44
0.0
173
     0
291
     1
 45
0.0
1001
ACAD
1000
AcDbSavedByObjectVersion
1070
     0
  0
VISUALSTYLE
  5
36
102
{ACAD_XDICTIONARY
360
C61
102
}
102
{ACAD_REACTORS
330
2A
102
}
330
2A
100
AcDbVisualStyle
  2

 70
    12
 71
     2
 72
     2
 73
     0
 90
        0
 40
-0.6
 41
-30.0
 62
     5
 63
     7
 74
     1
 91
        4
 64
     7
 65
   257
 75
     1
175
     1
 42
1.0
 92
        8
 66
     7
 43
1.0
 76
     1
 77
     6
 78
     2
 67
     7
 79
     5
170
     0
171
     0
290
     0
174
     0
 93
        1
 44
50.0
173
     0
291
     1
 45
0.0
1001
ACAD
1000
AcDbSavedByObjectVersion
1070
     0
  0
VISUALSTYLE
  5
3A
102
{ACAD_XDICTIONARY
360
C69
102
}
102
{ACAD_REACTORS
330
2A
102
}
330
2A
100
AcDbVisualStyle
  2

 70
    16
 71
     2
 72
     2
 73
     3
 90
        0
 40
-0.6
 41
-30.0
 62
     5
 63
     8
 74
     1
 91
        4
 64
     7
 65
   257
 75
     1
175
     1
 42
1.0
 92
        8
 66
     8
 43
1.0
 76
     1
 77
     6
 78
     2
 67
     7
 79
     5
170
     0
171
     0
290
     0
174
     0
 93
        1
 44
0.0
173
     0
291
     1
 45
0.0
1001
ACAD
1000
AcDbSavedByObjectVersion
1070
     0
  0
VISUALSTYLE
  5
34
102
{ACAD_XDICTIONARY
360
C5D
102
}
102
{ACAD_REACTORS
330
2A
102
}
330
2A
100
AcDbVisualStyle
  2

 70
     9
 71
     3
 72
     2
 73
     0
 90
        0
 40
-0.6
 41
-30.0
 62
     5
 63
     7
 74
     2
 91
        2
 64
     7
 65
   257
 75
     1
175
     1
 42
179.0
 92
        8
 66
     7
 43
1.0
 76
     1
 77
     6
 78
     2
 67
     7
 79
     3
170
     0
171
     0
290
     0
174
     0
 93
        1
 44
0.0
173
     0
291
     0
 45
0.0
1001
ACAD
1000
AcDbSavedByObjectVersion
1070
     0
  0
VISUALSTYLE
  5
35
102
{ACAD_XDICTIONARY
360
C5F
102
}
102
{ACAD_REACTORS
330
2A
102
}
330
2A
100
AcDbVisualStyle
  2

 70
    11
 71
     2
 72
     2
 73
     0
 90
        0
 40
-0.6
 41
-30.0
 62
     5
 63
     7
 74
     1
 91
        4
 64
     7
 65
   257
 75
     1
175
     1
 42
1.0
 92
        8
 66
     7
 43
1.0
 76
     1
 77
     6
 78
     2
 67
     7
 79
     5
170
     0
171
     0
290
     0
174
     0
 93
        1
 44
-50.0
173
     0
291
     1
 45
0.0
1001
ACAD
1000
AcDbSavedByObjectVersion
1070
     0
  0
VISUALSTYLE
  5
3D
102
{ACAD_XDICTIONARY
360
C6F
102
}
102
{ACAD_REACTORS
330
2A
102
}
330
2A
100
AcDbVisualStyle
  2

 70
    22
 71
     2
 72
     2
 73
     0
 90
        0
 40
-0.6
 41
-30.0
 62
     5
 63
     7
 74
     1
 91
        4
 64
     7
 65
   257
 75
     1
175
     1
 42
1.0
 92
        8
 66
     7
 43
1.0
 76
     1
 77
     6
 78
     2
 67
     7
 79
     5
170
     0
171
     0
290
     0
174
     0
 93
        1
 44
0.0
173
     0
291
     1
 45
0.0
1001
ACAD
1000
AcDbSavedByObjectVersion
1070
     0
  0
VISUALSTYLE
  5
39
102
{ACAD_XDICTIONARY
360
C67
102
}
102
{ACAD_REACTORS
330
2A
102
}
330
2A
100
AcDbVisualStyle
  2

 70
    15
 71
     2
 72
     2
 73
     0
 90
        0
 40
-0.6
 41
-30.0
 62
     5
 63
     7
 74
     1
 91
        4
 64
     7
 65
   257
 75
     1
175
     1
 42
1.0
 92
        8
 66
     7
 43
1.0
 76
     1
 77
     6
 78
     2
 67
     7
 79
     5
170
     0
171
     0
290
     0
174
     0
 93
        1
 44
0.0
173
     0
291
     1
 45
0.0
1001
ACAD
1000
AcDbSavedByObjectVersion
1070
     0
  0
VISUALSTYLE
  5
2B
102
{ACAD_XDICTIONARY
360
C4B
102
}
102
{ACAD_REACTORS
330
2A
102
}
330
2A
100
AcDbVisualStyle
  2

 70
     0
 71
     2
 72
     1
 73
     1
 90
        2
 40
-0.6
 41
30.0
 62
     5
 63
     7
 74
     0
 91
        0
 64
     7
 65
   257
 75
     1
175
     1
 42
1.0
 92
        8
 66
     7
 43
1.0
 76
     1
 77
     6
 78
     2
 67
     7
 79
     5
170
     0
171
     0
290
     0
174
     0
 93
       13
 44
0.0
173
     0
291
     1
 45
0.0
1001
ACAD
1000
AcDbSavedByObjectVersion
1070
     0
  0
VISUALSTYLE
  5
2C
102
{ACAD_XDICTIONARY
360
C4D
102
}
102
{ACAD_REACTORS
330
2A
102
}
330
2A
100
AcDbVisualStyle
  2

 70
     1
 71
     2
 72
     1
 73
     1
 90
        2
 40
-0.6
 41
30.0
 62
     5
 63
     7
 74
     1
 91
        0
 64
     7
 65
   257
 75
     1
175
     1
 42
1.0
 92
        0
 66
   257
 43
1.0
 76
     1
 77
     6
 78
     2
 67
     7
 79
     5
170
     0
171
     0
290
     0
174
     0
 93
       13
 44
0.0
173
     0
291
     1
 45
0.0
1001
ACAD
1000
AcDbSavedByObjectVersion
1070
     0
  0
VISUALSTYLE
  5
2D
102
{ACAD_XDICTIONARY
360
C4F
102
}
102
{ACAD_REACTORS
330
2A
102
}
330
2A
100
AcDbVisualStyle
  2

 70
     2
 71
     2
 72
     2
 73
     1
 90
        2
 40
-0.6
 41
30.0
 62
     5
 63
     7
 74
     0
 91
        0
 64
     7
 65
   257
 75
     1
175
     1
 42
1.0
 92
        0
 66
     7
 43
1.0
 76
     1
 77
     6
 78
     2
 67
     7
 79
     5
170
     0
171
     0
290
     0
174
     0
 93
       13
 44
0.0
173
     0
291
     1
 45
0.0
1001
ACAD
1000
AcDbSavedByObjectVersion
1070
     0
  0
VISUALSTYLE
  5
2E
102
{ACAD_XDICTIONARY
360
C51
102
}
102
{ACAD_REACTORS
330
2A
102
}
330
2A
100
AcDbVisualStyle
  2

 70
     3
 71
     2
 72
     2
 73
     1
 90
        2
 40
-0.6
 41
30.0
 62
     5
 63
     7
 74
     1
 91
        0
 64
     7
 65
   257
 75
     1
175
     1
 42
1.0
 92
        0
 66
   257
 43
1.0
 76
     1
 77
     6
 78
     2
 67
     7
 79
     5
170
     0
171
     0
290
     0
174
     0
 93
       13
 44
0.0
173
     0
291
     1
 45
0.0
1001
ACAD
1000
AcDbSavedByObjectVersion
1070
     0
  0
VISUALSTYLE
  5
31
102
{ACAD_XDICTIONARY
360
C57
102
}
102
{ACAD_REACTORS
330
2A
102
}
330
2A
100
AcDbVisualStyle
  2

 70
     6
 71
     1
 72
     2
 73
     2
 90
        0
 40
-0.6
 41
-30.0
 62
     5
 63
     7
 74
     2
 91
        2
 64
     7
 65
   257
 75
     2
175
     1
 42
40.0
 92
        0
 66
   257
 43
1.0
 76
     1
 77
     6
 78
     2
 67
     7
 79
     3
170
     0
171
     0
290
     0
174
     0
 93
        1
 44
0.0
173
     0
291
     0
 45
0.0
1001
ACAD
1000
AcDbSavedByObjectVersion
1070
     0
  0
VISUALSTYLE
  5
3B
102
{ACAD_XDICTIONARY
360
C6B
102
}
102
{ACAD_REACTORS
330
2A
102
}
330
2A
100
AcDbVisualStyle
  2

 70
    20
 71
     2
 72
     2
 73
     0
 90
        0
 40
-0.6
 41
-30.0
 62
     5
 63
     7
 74
     1
 91
        4
 64
     7
 65
   257
 75
     1
175
     1
 42
1.0
 92
       10
 66
     7
 43
1.0
 76
     1
 77
     6
 78
     2
 67
     7
 79
     5
170
     0
171
     0
290
     0
174
     0
 93
        1
 44
0.0
173
     0
291
     1
 45
0.0
1001
ACAD
1000
AcDbSavedByObjectVersion
1070
     0
  0
VISUALSTYLE
  5
38
102
{ACAD_XDICTIONARY
360
C65
102
}
102
{ACAD_REACTORS
330
2A
102
}
330
2A
100
AcDbVisualStyle
  2

 70
    14
 71
     2
 72
     2
 73
     0
 90
        0
 40
-0.6
 41
-30.0
 62
     5
 63
     7
 74
     1
 91
        4
 64
     7
 65
   257
 75
     7
175
     7
 42
1.0
 92
        8
 66
     7
 43
1.0
 76
     1
 77
     6
 78
     2
 67
     7
 79
     5
170
     0
171
     0
290
     0
174
     0
 93
        1
 44
0.0
173
     0
291
     1
 45
0.0
1001
ACAD
1000
AcDbSavedByObjectVersion
1070
     0
  0
VISUALSTYLE
  5
3C
102
{ACAD_XDICTIONARY
360
C6D
102
}
102
{ACAD_REACTORS
330
2A
102
}
330
2A
100
AcDbVisualStyle
  2

 70
    21
 71
     2
 72
     2
 73
     0
 90
        0
 40
-0.6
 41
-30.0
 62
     5
 63
     7
 74
     1
 91
        4
 64
     7
 65
   257
 75
     1
175
     1
 42
1.0
 92
        9
 66
     7
 43
1.0
 76
     1
 77
     6
 78
     2
 67
     7
 79
     5
170
     0
171
     0
290
     0
174
     0
 93
        1
 44
0.0
173
     0
291
     1
 45
0.0
1001
ACAD
1000
AcDbSavedByObjectVersion
1070
     0
  0
VISUALSTYLE
  5
33
102
{ACAD_XDICTIONARY
360
C5B
102
}
102
{ACAD_REACTORS
330
2A
102
}
330
2A
100
AcDbVisualStyle
  2

 70
     8
 71
     2
 72
     3
 73
     0
 90
        2
 40
-0.6
 41
30.0
 62
     5
 63
     7
 74
     0
 91
        0
 64
     7
 65
   257
 75
     1
175
     1
 42
1.0
 92
        8
 66
   257
 43
1.0
 76
     1
 77
     6
 78
     2
 67
     7
 79
     3
170
     0
171
     0
290
     0
174
     0
 93
       13
 44
0.0
173
     0
291
     0
 45
0.0
1001
ACAD
1000
AcDbSavedByObjectVersion
1070
     0
  0
VISUALSTYLE
  5
42
102
{ACAD_XDICTIONARY
360
C79
102
}
102
{ACAD_REACTORS
330
2A
102
}
330
2A
100
AcDbVisualStyle
  2

 70
    27
 71
     2
 72
     2
 73
     1
 90
        2
 40
-0.6
 41
30.0
 62
     5
 63
     7
 74
     0
 91
        4
 64
     7
 65
   257
 75
     1
175
     1
 42
1.0
 92
        8
 66
   257
 43
1.0
 76
     1
 77
     6
 78
     2
 67
     8
 79
     3
170
     0
171
     0
290
     0
174
     0
 93
        5
 44
0.0
173
     0
291
     0
 45
0.0
1001
ACAD
1000
AcDbSavedByObjectVersion
1070
     0
  0
VISUALSTYLE
  5
41
102
{ACAD_XDICTIONARY
360
C77
102
}
102
{ACAD_REACTORS
330
2A
102
}
330
2A
100
AcDbVisualStyle
  2

 70
    26
 71
     2
 72
     2
 73
     1
 90
        2
 40
-0.6
 41
30.0
 62
     5
 63
     7
 74
     1
 91
        2
 64
     7
 65
   257
 75
     2
175
     1
 42
1.0
 92
        8
 66
   257
 43
1.0
 76
     1
 77
     6
 78
     2
 67
     7
 79
     3
170
     0
171
     0
290
     0
174
     0
 93
        5
 44
0.0
173
     0
291
     0
 45
0.0
1001
ACAD
1000
AcDbSavedByObjectVersion
1070
     0
  0
VISUALSTYLE
  5
3E
102
{ACAD_XDICTIONARY
360
C71
102
}
102
{ACAD_REACTORS
330
2A
102
}
330
2A
100
AcDbVisualStyle
  2

 70
    23
 71
     2
 72
     2
 73
     3
 90
        0
 40
-0.6
 41
-30.0
 62
     5
 63
     7
 74
     2
 91
        2
 64
     7
 65
     7
 75
     1
175
     1
 42
40.0
 92
        8
 66
     7
 43
1.0
 76
     1
 77
     6
 78
     2
 67
     7
 79
     3
170
     0
171
     0
290
     0
174
     0
 93
        1
 44
0.0
173
     0
291
     0
 45
0.0
1001
ACAD
1000
AcDbSavedByObjectVersion
1070
     0
  0
VISUALSTYLE
  5
3F
102
{ACAD_XDICTIONARY
360
C73
102
}
102
{ACAD_REACTORS
330
2A
102
}
330
2A
100
AcDbVisualStyle
  2

 70
    24
 71
     1
 72
     2
 73
     2
 90
        0
 40
-0.6
 41
-30.0
 62
     5
 63
     7
 74
     2
 91
        2
 64
     7
 65
     7
 75
     1
175
     1
 42
40.0
 92
       11
 66
     7
 43
1.0
 76
     1
 77
     6
 78
     2
 67
     7
 79
     6
170
     0
171
     0
290
     0
174
     0
 93
        1
 44
0.0
173
     0
291
     0
 45
0.0
1001
ACAD
1000
AcDbSavedByObjectVersion
1070
     0
  0
VISUALSTYLE
  5
37
102
{ACAD_XDICTIONARY
360
C63
102
}
102
{ACAD_REACTORS
330
2A
102
}
330
2A
100
AcDbVisualStyle
  2

 70
    13
 71
     2
 72
     2
 73
     0
 90
        0
 40
-0.6
 41
-30.0
 62
     5
 63
     7
 74
     1
 91
        4
 64
     7
 65
   257
 75
     1
175
     1
 42
1.0
 92
       12
 66
     7
 43
1.0
 76
     1
 77
     6
 78
     2
 67
     7
 79
     5
170
     0
171
     0
290
     0
174
     0
 93
        1
 44
0.0
173
     0
291
     1
 45
0.0
1001
ACAD
1000
AcDbSavedByObjectVersion
1070
     0
  0
VISUALSTYLE
  5
30
102
{ACAD_XDICTIONARY
360
C55
102
}
102
{ACAD_REACTORS
330
2A
102
}
330
2A
100
AcDbVisualStyle
  2

 70
     5
 71
     0
 72
     2
 73
     0
 90
        0
 40
-0.6
 41
-30.0
 62
     5
 63
     7
 74
     1
 91
        4
 64
     7
 65
   257
 75
     1
175
     1
 42
1.0
 92
        0
 66
   257
 43
1.0
 76
     1
 77
     6
 78
     2
 67
     7
 79
     3
170
     0
171
     0
290
     0
174
     0
 93
        1
 44
0.0
173
     0
291
     0
 45
0.0
1001
ACAD
1000
AcDbSavedByObjectVersion
1070
     0
  0
VISUALSTYLE
  5
40
102
{ACAD_XDICTIONARY
360
C75
102
}
102
{ACAD_REACTORS
330
2A
102
}
330
2A
100
AcDbVisualStyle
  2

 70
    25
 71
     2
 72
     2
 73
     1
 90
        1
 40
0.5
 41
-30.0
 62
     5
 63
     7
 74
     1
 91
        0
 64
     7
 65
   257
 75
     1
175
     1
 42
1.0
 92
        8
 66
     7
 43
1.0
 76
     1
 77
     6
 78
     2
 67
     7
 79
     3
170
     0
171
     0
290
     0
174
     0
 93
       13
 44
0.0
173
     0
291
     0
 45
0.0
1001
ACAD
1000
AcDbSavedByObjectVersion
1070
     0
  0
DICTIONARYVAR
  5
4D3
102
{ACAD_REACTORS
330
4CC
102
}
330
4CC
100
DictionaryVariables
280
     0
  1
1:1
  0
DICTIONARYVAR
  5
53C
102
{ACAD_REACTORS
330
4CC
102
}
330
4CC
100
DictionaryVariables
280
     0
  1
STANDARD
  0
DICTIONARYVAR
  5
53B
102
{ACAD_REACTORS
330
4CC
102
}
330
4CC
100
DictionaryVariables
280
     0
  1
STANDARD
  0
DICTIONARYVAR
  5
53D
102
{ACAD_REACTORS
330
4CC
102
}
330
4CC
100
DictionaryVariables
280
     0
  1
Imperial24
  0
DICTIONARYVAR
  5
53E
102
{ACAD_REACTORS
330
4CC
102
}
330
4CC
100
DictionaryVariables
280
     0
  1
Imperial24
  0
DICTIONARYVAR
  5
4D1
102
{ACAD_REACTORS
330
4CC
102
}
330
4CC
100
DictionaryVariables
280
     0
  1
2
  0
DICTIONARYVAR
  5
4D2
102
{ACAD_REACTORS
330
4CC
102
}
330
4CC
100
DictionaryVariables
280
     0
  1
1
  0
DICTIONARYVAR
  5
540
102
{ACAD_REACTORS
330
4CC
102
}
330
4CC
100
DictionaryVariables
280
     0
  1
1
  0
DICTIONARYVAR
  5
541
102
{ACAD_REACTORS
330
4CC
102
}
330
4CC
100
DictionaryVariables
280
     0
  1
15
  0
DICTIONARYVAR
  5
53F
102
{ACAD_REACTORS
330
4CC
102
}
330
4CC
100
DictionaryVariables
280
     0
  1
0
  0
DICTIONARYVAR
  5
C46
102
{ACAD_REACTORS
330
4CC
102
}
330
4CC
100
DictionaryVariables
280
     0
  1
1.570796
  0
DICTIONARYVAR
  5
C47
102
{ACAD_REACTORS
330
4CC
102
}
330
4CC
100
DictionaryVariables
280
     0
  1
1.570796
  0
DICTIONARYVAR
  5
4D4
102
{ACAD_REACTORS
330
4CC
102
}
330
4CC
100
DictionaryVariables
280
     0
  1
1
  0
DICTIONARYVAR
  5
C48
102
{ACAD_REACTORS
330
4CC
102
}
330
4CC
100
DictionaryVariables
280
     0
  1
2
  0
DICTIONARY
  5
C7E
330
518
100
AcDbDictionary
280
     1
281
     1
  3
ACAD_XREC_ROUNDTRIP
360
C7F
  0
DICTIONARY
  5
507
330
45
100
AcDbDictionary
280
     1
281
     1
  3
ACAD_XREC_ROUNDTRIP
360
508
  0
DICTIONARY
  5
505
330
44
100
AcDbDictionary
280
     1
281
     1
  3
ACAD_XREC_ROUNDTRIP
360
506
  0
DICTIONARY
  5
509
330
46
100
AcDbDictionary
280
     1
281
     1
  3
ACAD_XREC_ROUNDTRIP
360
50A
  3
FBXASSET
360
54A
  0
DICTIONARY
  5
C7C
330
516
100
AcDbDictionary
280
     1
281
     1
  3
ACAD_XREC_ROUNDTRIP
360
C7D
  0
DICTIONARY
  5
559
330
513
100
AcDbDictionary
280
     1
281
     1
  3
ACAD_ROUNDTRIP_2008_TABLESTYLE_CELLSTYLEMAP
360
C49
  3
ACAD_XREC_ROUNDTRIP
360
C7B
  0
DICTIONARY
  5
C53
330
2F
100
AcDbDictionary
280
     1
281
     1
  3
ACAD_XREC_ROUNDTRIP
360
C54
  0
DICTIONARY
  5
C59
330
32
100
AcDbDictionary
280
     1
281
     1
  3
ACAD_XREC_ROUNDTRIP
360
C5A
  0
DICTIONARY
  5
C61
330
36
100
AcDbDictionary
280
     1
281
     1
  3
ACAD_XREC_ROUNDTRIP
360
C62
  0
DICTIONARY
  5
C69
330
3A
100
AcDbDictionary
280
     1
281
     1
  3
ACAD_XREC_ROUNDTRIP
360
C6A
  0
DICTIONARY
  5
C5D
330
34
100
AcDbDictionary
280
     1
281
     1
  3
ACAD_XREC_ROUNDTRIP
360
C5E
  0
DICTIONARY
  5
C5F
330
35
100
AcDbDictionary
280
     1
281
     1
  3
ACAD_XREC_ROUNDTRIP
360
C60
  0
DICTIONARY
  5
C6F
330
3D
100
AcDbDictionary
280
     1
281
     1
  3
ACAD_XREC_ROUNDTRIP
360
C70
  0
DICTIONARY
  5
C67
330
39
100
AcDbDictionary
280
     1
281
     1
  3
ACAD_XREC_ROUNDTRIP
360
C68
  0
DICTIONARY
  5
C4B
330
2B
100
AcDbDictionary
280
     1
281
     1
  3
ACAD_XREC_ROUNDTRIP
360
C4C
  0
DICTIONARY
  5
C4D
330
2C
100
AcDbDictionary
280
     1
281
     1
  3
ACAD_XREC_ROUNDTRIP
360
C4E
  0
DICTIONARY
  5
C4F
330
2D
100
AcDbDictionary
280
     1
281
     1
  3
ACAD_XREC_ROUNDTRIP
360
C50
  0
DICTIONARY
  5
C51
330
2E
100
AcDbDictionary
280
     1
281
     1
  3
ACAD_XREC_ROUNDTRIP
360
C52
  0
DICTIONARY
  5
C57
330
31
100
AcDbDictionary
280
     1
281
     1
  3
ACAD_XREC_ROUNDTRIP
360
C58
  0
DICTIONARY
  5
C6B
330
3B
100
AcDbDictionary
280
     1
281
     1
  3
ACAD_XREC_ROUNDTRIP
360
C6C
  0
DICTIONARY
  5
C65
330
38
100
AcDbDictionary
280
     1
281
     1
  3
ACAD_XREC_ROUNDTRIP
360
C66
  0
DICTIONARY
  5
C6D
330
3C
100
AcDbDictionary
280
     1
281
     1
  3
ACAD_XREC_ROUNDTRIP
360
C6E
  0
DICTIONARY
  5
C5B
330
33
100
AcDbDictionary
280
     1
281
     1
  3
ACAD_XREC_ROUNDTRIP
360
C5C
  0
DICTIONARY
  5
C79
330
42
100
AcDbDictionary
280
     1
281
     1
  3
ACAD_XREC_ROUNDTRIP
360
C7A
  0
DICTIONARY
  5
C77
330
41
100
AcDbDictionary
280
     1
281
     1
  3
ACAD_XREC_ROUNDTRIP
360
C78
  0
DICTIONARY
  5
C71
330
3E
100
AcDbDictionary
280
     1
281
     1
  3
ACAD_XREC_ROUNDTRIP
360
C72
  0
DICTIONARY
  5
C73
330
3F
100
AcDbDictionary
280
     1
281
     1
  3
ACAD_XREC_ROUNDTRIP
360
C74
  0
DICTIONARY
  5
C63
330
37
100
AcDbDictionary
280
     1
281
     1
  3
ACAD_XREC_ROUNDTRIP
360
C64
  0
DICTIONARY
  5
C55
330
30
100
AcDbDictionary
280
     1
281
     1
  3
ACAD_XREC_ROUNDTRIP
360
C56
  0
DICTIONARY
  5
C75
330
40
100
AcDbDictionary
280
     1
281
     1
  3
ACAD_XREC_ROUNDTRIP
360
C76
  0
XRECORD
  5
C7F
102
{ACAD_REACTORS
330
C7E
102
}
330
C7E
100
AcDbXrecord
280
     1
102
DISPLAYNAME
  1
Imperial24
102
FLAGS
 90
        0
  0
XRECORD
  5
508
102
{ACAD_REACTORS
330
507
102
}
330
507
100
AcDbXrecord
280
     1
102
MATERIAL
148
0.0
149
0.0
149
0.0
 93
        0
 94
      127
282
     0
 72
     1
 77
     1
171
     1
175
     1
179
     1
273
     0
  0
XRECORD
  5
506
102
{ACAD_REACTORS
330
505
102
}
330
505
100
AcDbXrecord
280
     1
102
MATERIAL
148
0.0
149
0.0
149
0.0
 93
        0
 94
      127
282
     0
 72
     1
 77
     1
171
     1
175
     1
179
     1
273
     0
  0
XRECORD
  5
50A
102
{ACAD_REACTORS
330
509
102
}
330
509
100
AcDbXrecord
280
     1
102
MATERIAL
148
0.0
149
0.0
149
0.0
 93
        0
 94
      127
282
     0
 72
     1
 77
     1
171
     1
175
     1
179
     1
273
     0
  0
XRECORD
  5
54A
102
{ACAD_REACTORS
330
509
102
}
330
509
100
AcDbXrecord
280
     1
 70
     1
 90
650459304
 71
     1
  1
A9BD6F63-3E15-4C6C-8A13-47AF3D89BE3E
311
504B03041400060808003967DB4C77A13642F7000000A80100004F00000046373741304246372D413346322D343446442D383342412D3142464236363346433530312F4173736574446174612F446566696E6974696F6E4974657261746F7250726F706572746965732E62696EBD50BD4EC33010360C200606241E8081F570
311
5CBB4E8C84901DC74C2CED0320379836929B547522D68EBC359C4578054EFAEE4EDFFD7DBA2F42C8F76C989233C409FD35C697D08763D7AEDB5DD87B729199386C7CBCC7CC31AB852A2C28C50D888A393066C1C0969A99C6168DAAAB73ECBB44D8F0E1A738E695AF5D6A438CBE0FC3946E90986FDCEDFD88B77C7CC8435784
311
E4704290BF42CA9BB6BF8AB2C84F847F3F3C3EFB94C2F8445D59EAC2B81234770B10C259A8B8D1C08C335272572F0B4657210DD3B10D896A65AC7492036FD812442D6BA834E3204AEDB8AD94697843C7DD945F739B656C7ADF455AD059C2DBA1DF22FD6FF603504B03041400060808003967DB4C25E08B97EB000000300200
311
004500000046373741304246372D413346322D343446442D383342412D3142464236363346433530312F4173736574446174612F496E7374616E636550726F706572746965732E62696EEB606060F80F0540260323103700495E20ED9E9A975A94991C9C9C919A9BA8021470B4747231733333D635763534D535713673D6B5
311
703434D6353177743376B1B074723576654768046931363471713532B5D4353531012A343332D475727372D13534373600EA77B67474B5042A03DBCBA019D37FE8ABC6157B20CD04146B0062181F4C03F940F0C11EA29A8141C08141002C0426541C106CAC2CA046088033B02A030AC2157C6006F21A8018AAF50194E6010A
311
610250382264E08660284CD9E98021862280A91564B406929A0FF62C401E28B6F88038B83CB1243943D7A928312F25350524F393460000504B03041400060808003967DB4C88E57597CD3F0000904100006B00000046373741304246372D413346322D343446442D383342412D3142464236363346433530312F5265736F75
311
726365732F41394244364636332D334531352D344336432D384131332D3437414633443839424533452F7468756D626E61696C2F302F67656E657269635F706E67355B773CD4FF1FBF73E71C0E67EF7576C9DEF3EC995D46C6A1EC5046649CBDF79E192942562825CE965D8A868C2842C8DE9FDFD1F7E7F138F7078FCF6B3F
311
5FCFD7EBFDFEC41B196891913091804020321D6D7513FC77D8C5070EC3FFEE51B21F068154CC75D455CC028A3EA68992803810109FDDE5D5CEC5521B28A1B422BF80741695D5B529DA1C2D058AD2388BDA9F476F7C2CADC939304173DBF48A452BF8A700C0C70C3D121C1AA15A5270C22E2B9E28763651F7DA0D12CE11077B
311
2ECD0D560B5E3DE2368B1E65C5E1C87384A4CC5F2D9FB8BE39E9B77C753783A37998F5CEF1B4FEE553463245C9712270880DF339E0B882A6BA713D865F6F384C842D440934EF264F4A304F8DE4EEFA1E2BF5E2D91F5ADD9613D6E31DDB33ED31DB1D7916CAF091286EA3D31B9CFECB78BB0060245B943C4C040119FF780A74
311
DD308BA9D028678674EB5504ECF284EE814DAED07440BAF649BE4B55DA2890F4D73E2D489A59EE54FDB0A85B59F2F52C4858A02705C4815A792B0C4A996A2023ECB195073E115E3E3647F64243A8338F2000BCB58DA5692C7E7C3D413F963FEDF3CF00FBB0F831A9D51360FECA43819F527B89FA260EB63C5DA676830AA362
311
6A3693B23F1A17A0DFFCE3EE164E31B5365EDF0C89EF64D8E38AB0BA9A1117D7C3A0EC44F44F4023095E80BA610DE336D0F99593A88BFC5306E72DF98F7FD132ED95878DF2964EA7E43071359FD83B2BDF9C6B5BDF768F0F3C0FC351199526F53D9460A34511F75D1B63E488178569472C91A94497807A3FD4A390C6558F26
311
D416365C3656DE6E769DA9D8FC73774E1709812842DD8EF96AED1960F79D21B395CDDFE6F92CB4EB962A4668C76990E2EF29798C8941D67DA50F4A5F947872460F1F6FDB794E8A29FD7AC0C0D6E0714339CE258FB17AE8535221E3464A10F29A0BE5EEECEFC5675926A89F49EB14E5711894F6586DB5754EB4D5DA9C6437EB
311
A57DB97A24F8B8A8DB295FFD73266CF57E82694DF5166DDF93573AFE9C9C5EB05F8FEF8E89E0A8917B0B3724DB7BEBB53252581EFC3E38166BA131A3A5B42FE2AD00A769BBFA4458D2DE7822F8C4F63D0B8E21B285AE13325F3410A435C648C9D91FDEB109E73CEDA7BC796961AF79175E1A3CE4C5E8B0D009B0C9E29EFD98
311
BC8E97554E3D8D838424E270F7685226E5AC268E021EDE3522D583E8F20C0BDE2959EF5BBFEEDAB32FE9A3ED0E39F211A86AA9DEBFC68182EDED132AB8BB794442D2D7EA9F4D8BFF52BC4D55BB165124EE90A42D101E67BBBB292FFB4F66DE5BF2300E44546757DA7CEF8932BFC9F92A0707953491A55C5A5ACEDABD9FA1AE
311
A01BAC3DC5A24E22E7C47213493996EFBC369D086ED9397C9BA6C7F9855C7BD5E15BFC8C53DB3D2A4C5901A57ACD2FBDF4D1676E95338B2C2BCE65FDA4C64F5FEFDC7D9CA5AA1FCF11E193F2FDABF0F4916BF13FB916A224380E6462A9815F2300DC49CC4DF8D055CEF76462F4B7A7ACA7365C2707891370BC1D0AA6203C44
311
CCAB47084FEC057F27FFCD57F89B8B9852459798A675C66BD7CE572CAF71FF7E6D7ECF7BF62CAB7B3F1107DCD04DC55A3F9961700286141C94A4F771FEB2BCDA2DDEE0CB0BAE402FF1DB0100F8E475DFFFC074DDB4498AB7D186A7654DDB1CB680D703D47CEB4E72F8CB13D86A4AA68116E26387B93FD6738779B34FEDB8E5
311
17EDF2BAF28D9BE93A1D3A164320E07D42E514725C29515FF361754213EDE06B079A2E99EB1CA82A02019EADEEB87B9AF005BD04BBCECB14AACD6B24EFBE482194A97DD32400685FF1FEF1544D1B14EFB1E7F08E6D2CD2AF52DE757F35F5E62332EE88EA26417AD5C3E0E319D68F25414E6D672BD4522B278C57D18F011392
311
1C71D96527E091F00CEB15AE23D24667369BD3CEFA10C7549D930890BA4366F4EBC55F01F746109F98ABCDD5A3EE06619C6AD78AB33E48E4C9BD21BF7478B385EC05C4F8987E2C1BFA0A60EBEDAA0AE0B015C2720ECE180FB6F2DEFBEB822D96338C9B63822183BBF52FB664A7AE57003AABCE512BF77E7E31BDA2E739AC4C
311
131657DDFE5225E900FB56CC01CDE808FA4A9C9DA16AC679656BB64796283D89812B8F91136AE18EE5EBBAF47A73BE3C153EB5D4CD491B4BFB4FE690A4CF9ABA08C0D8AA64220C438C96EA6CA80B58FE5761E697B3A292EB9FBDA502FA863E49FE694ADDFFF9D62C520BDD1A22014147A0903A05B9B729F54272EF83931FEE
311
C057BFF8C8055C279EAC5C0011804828734024F6CFA319C9CC6867C727184465CD9BB7ED386AFFD96B294A85E3802FAE47244602D8273615952B98C4F23F7EAE4463D9D638EEE374A20959E0FE519C4CFB0FBFE5DD80C2AA3F9DB961D1BDE57E67C9BB47B77FDD74EE3094F5DBBE3EBC1FBDB7393F5116263009E2EFE1AF9A
311
221B2AE234C902BF70E9F280ED23E73908361565964333A3F01D0B006AF32FB21AA1316744B489D5A198E85299241735BE559675130955C902A8ED761FC0DBE337A9F91919AF5CE32AF902ADF9AB2615E00E8A94586BA1A90839B61832FF1BFB76D2EFADE6DB1BA04CCAD3DA649E7E2A0219F592E22F2AD54847EEA8E42271
311
011E9074F8F3DD9FBA6CDF88FFC9FC7E811AD1CA8F4557CE4AFC7BBEDCF0114A48689F20A584520C74DA8127124B767E2FB91A6B186246727BE63C9445BAE02088D58B8EFDC0F1072407CD9B89A13F6303B4A928F593AD489B58E6869325790ADC406036C591729FE14021F94B7796BB11848D463536A092A26F077F94639F
311
7CEEE2A724C66EC885F4A24F8B8A0AC321F8FD149BA529460FAA34E4663C02D41FDF80BCA222D42F0ABFF8490F4FA74C673807C2051D8E467B47B616072860069A9A303ABA9B319D58404461401B0A0F9BE5E1E151C14BC33B32ABE03DDE91708DFAEB15E7C0D593C86BB7D7EC17BE56E57975F077BFD5525F3A1A361D584A
311
75E08CF29FC7B44B2B3085014F3A5A14517377C3F6B8F37E59514C3B12F8AACDEDDA4DFC49BE5710101534CD6FB6DE15B50F11A09472AABA727F0C49D9CB906B158030065F48EB3625E010CEC1D511D0053474B11E6A4F01C0D6EF1BED3A944FDEC70E0DDCDC756C86545910E0DAE3BE3AA9A404574C2995CD5CAF9549226B
311
C94B4F4F0F5F9086F418F6B32346464610D8BC7391D3C3A3CCF04CFC1FB2A3A3170E369511868F14EEA4E5E438CC73DB1F3248AA94B6B2FF33B222FF3D1E7BF146CAD229770158063BCE4F5391964DF62F7E52A7BE0EEA829C9E13C4C147D6F93FE59E111DAB5E4594D6F3CD1AD375EE039930EFE5AF2BB2D41C83C7DABD8C
311
659BAFBE8FAB392CA634F3D15C1D945DB4588D2B0824A4EC928AAC565557CA2F0DAA588CA5BE30B3A8004F7BF005E96CBF891D7F18112A3619FDF530DC8AA64954258E1811789B5189B49B4EB53F5F89F7D37523894F3EB57B373763C91E502F52CC99EB7BDDF933FC324C4FFC2561DFFA7339FAFDD0A4BFBE6D3A8FF9ED1F
311
C49898139864602458968913181918F719CCF5A68B2EE9C1FF050E34E63107003B8120FA982C21B30A874E4F5E4B38D5A8290C4B8D9BE48A0BE31EA995BDC37AC6DE90BA17D259DEF53605D55922FEB1855D915B659FBEB350EE0DFB2F9F766E1C84CC8964B75D08667445EAB966015F63A18A9E0A325C1B3DC628C0D3CB60
311
F767FA93CC65F25458BD23C3B312716E5F40E5858AC06EBA9AB14F95DB99147B832069201541D09A0D856E12C629CF32683760EE855537D1901988D5EBC156676C7DD51D7207CF3267AF1D76C2AD867315E44618015313A98B19941C696FED3461CAA9B5415F918556D7802EDACEFD6B2E45853A9735DFC9DBF7E440F9319F
311
8B6805A973BCCDC76C069A9144E51F187EDCC12FC31B5DEAAF0A76137199B106EC84ADA6B6EE697D4E6A96E007417F4E880E8B1E89B4BCE9D81EF611E2ED8F0C1A6C25F620FAFAAB656A7C42D464880E8AFAB0E0FC8EA38CA9A8AEEAEE3E4648BA4680270A89743CDD3E6C6CBF34B7B640EFA285ABC7EA0A1E28F3CC963D11
311
4A80123EE66D0AF7D5380EB41909B605AB4765B709B808590458157E69BA1378FEC4B48CAF6A730E3BE3C5EF2DD1A5EAF94B1DDE50CEB55DDFD7EE9A16747FA4B223359FB1FCC69E1194892BABB93A1D5C4E807AC0EA2E30180811E77A2291F6E7F7FAA5E0F60215BC6024E48DE436C511F0628B8CA189982D4D83CCA17D30
311
5A7E923C37941CFDFDCD93ACAF735EF5F0E61BBD3E6C41A59B242790D3A3BAC7064DCD89AA2E37214EC839820949D5CAA31E240D2948E48F690298974A96BA9A8432BC90F5071D6537C9666EA4564796B7AFFFA548077BEEA75F63083435074BA182F3699557397F71548383FDA8CA34D99B981E72835ECDA5DDDC15131517
311
3D05A21F651AAF8524E88209E2E7A737ED1045800CE3390050BCFB8BE588DF111617874C62575039CA588EEFDEFEFE319B739DE2EDC147092A262611E159650E787917885EF08F1F51B8F2D8A71D60B58B190FEF9541A1BE94BC19FEA50784DA1419FE4B0FB51B8D36B5FF8E1286FD8AF42B91E59A5F1CC4D60174E764045F
311
D8C57B18209B217F89A62252BD20BE0E63E12B8E8F029FE19E0E8D0870F58721A557082250D5424F7909369376E41666C0EE77CD87CB283F661D5FB6D0DA023CB67320A20DC7BE661E9E1BFE5463085C557DA1FF9BE835733766C3D139F2CF9E2208873AD0EB4814DE9E6BF2CAF81614D4D43906ED1C05A3265CABBFE19277
311
0FC2F64F940CB6B17B5F166F133C9AEEAD2641807C3E69515171DD74C4A85311513D6EC9530B3B601B6BA3EBFF3B5C3D2F7D69765141E345F75433953D013ADDF8F6AA7DC3F4A7563FE5C7D367937E2900D7EAD0F9FC9A4A1A9B5BDF1FEF08532660C01C5D6DE22199AA774383E306DAB87E301ABB7D213887F9869D4942D0
311
D71E94B27EDF216A318BD488D45DF84529EF575AF3C3938C0AAA0215B01994153E2054A0B894DA5C784980633AAD48576957CF4AEAEAFADC7C587368551C73DBE1E57C58AC713303A8BFC258BD04B51724459FF9E24C03A81E0E0679CEB9B348C0DC998FEB9C6D6EFA77D247CC8F92D3848599ED89A23218D0636465AD1CEE
311
B7DC140D7426F83491C4E8E8281C2FB35240918FFECE880CA2A42D70E8B20B34DF5221C7DB0CF90ECCB9C745B37A47E9B716FF7A97B7A252C1F3814DC7B1E1A7F72B8751D524EF7CAE45B0C73B3BE7D08ED39781B380DDFC9AA4A4749C9493DB5BAD07A6EA6C092FBD0E85DB004DF06B8C9D3089C5320187E4CE1846158C7E
311
A7DDAE8AD9AFFF21AA3A1026BB06A259845E8232DEE62811A4DA9CEAB3A4887320B76E2AE5615EAB7BDF738CBDD01F1E64064BC13D9EC53576751CA8CACD58B3CEB0E6CA585BD089B2A59B9FC101403387AADBDBE70586B93D64BF3AD4453EF9C3B6A93817E8346991798601344F79A83C51F3D50F7BF2683A3605F51A7244
311
9489E0EE6169C749C60B1035651103AEE24D24E51A759C840DD3FC6504DA6FE107510E447B43461C79D22970B75DE5E1BD3007D1AFC619A4A4A69B5626AF5E9B8374E20677F77E2F8E73DF868E8BEC7EBA7B6A75EEF7205E1AB9486CB642741D6E03FF13FCCEDB1C4AC129886268B01CDF4B124AF797CF784F3C6DEC97A17D
311
4B558070A0F1C04DA4FF9BDBF34159AEFE958479824B3F58EBD1E19088A2AFDE501B6F2052368A3FD0E650A179EFAB1561E1D27527077136E652676C3670F42DCB3352F48F6BC86D2C3B0051727E41A0A4DC6CE2BE9D47F5CAA2935A3C0539AF080665997194ABECD723B08129CC5B6B21D2E7D54CD4D12610E7E9FB830677
311
1A89576C7A982002775ED44F3F744CF21EEBB27A631671D921938AAEE3EB0D19CD1E083727F607823E817BF599DCED5394E37EEBC2E88782E638920CA641EF74D4CDFCDEF06F4278ECB18E31E7E9876F2D783C8BF429C75395F57E98C2B495A3DA077EB3AC3C158608B6B57FE3EA48484D9A480096FCEE0DE880950E7E5A57
311
14131C5C41AAA29FD19AE81AC145FA1B9E85C7169A5AB837B213493DF7E9AA4B5FBF9CDEB36EBD21EF1181B7CF7366AB2A951D01E37AF4EB835D1BE8C117CFBE7625D2EBCDB0B20C5A4B45CED0BCDE3EE8DA9DA78C2E21DEAAFFD1197E463C33CC6A80FB785669B856EFF7A8CCCA2841B5A5369173320B1170C368B2748D81
311
062EA0296E5E2D95D7667A4A46D98A6FF475C76AAB0A8C8D45E226FAFC9FE0133EA9F60111F99CA81ACE03A1D14C89E8B0D69079C91464FA1D99E651D0EAF606F345C42A8A1AA9BA391031582B96D5B4176A77AADB01F12FD298A75DEEBB2C82F0B8650E880722F8DDD90C56A7A058E5FDEF1AC93545BA27367C76F5D8F969
311
0CB6F8DAE141EDD7971F0FB548A2AE435F224D6E5954CA155512F7332029D5A1230854B79F258EC5FFDB09F5F6343A8EB193229B7F7E79B3E48F8E183860B38C8269D1B53738FF1E0BACF6AADA6D4869E9DE708E79B5DADCC09B1BC76F649731CFAF59A83FD8BAE4C749D66FA87A3810D4D62FFE826FA400C0F325D2BC0F3C
311
A35F5847B82A2ACC7961745C823E4D863D54460AF792CE6F79B5C7A33B25C3AEA6CDE15A919B6367D781E9D44F61BF828672594A3E1D9EDD6DF179A81F27EAC05B936575D73E05C209DDD2115CFB705DF9BBF3C911589B3640735E9E618FC9C36A7326C82B2205E244C55D56FDB9D5DC93CE958D4BF8174D2B3DA54CB3C09F
311
2C2A6DFF73D23B2197355761AD421EC581284A7EF8DE2CE3497C0C804D49B41DFD6A7360844E5BEFFB495CFCDB97A4595911CDBA623274CE852B5E278AF0BEB1770E9D37CD977B2766A7DED0E94B840E1E95E8C77DE5CB6354AF7871427C28ADBEEF7BA0A28E19DE9ACD75F379FE373EAE6DDDAE3834692F9C2B03B4FCA8FC
311
A9ABE8EEEBEBB725B88A7C90941E850682CA04061A7DF0CE82ED49BFAFFD42C309818FAE14755CAAE78B0F73243ECCCAD7DF58FCB9CDFAE7A4D3E6671A613639130D056C8383C8F4FCF4808C331E544DD26E4755D09EA05253B3049A1E32587CC25D72E073E2CD96D04A71BBCB0038FEC3F53D254199C3CDC67CD666402694
311
31860225392B2CB3ECD0B4498AAE78BA1994246AE1EE78F2EDFB79F6C6CB6B5E279C4D373FBC21CB2698C9ACBBEB6A4BB6B39E16AB0E421CCBFC7654D81ED86022F9BB522146F9F4772E2D0E4FA70120C95A85A417BF5078B232F4754363EB1750B2AC2148EB46B1EA72AD9B4D23ADCBC589D70106C3EC2ABEEED84DFE28E7
311
18C6C83502C28E9FDD3B09DA0A6F6F7B72B706A31C9E2A331EE70DA56A083D2177BFD63C55B11D8D949FAFCF90B23A1E24B9B5018B9A17E99F2890EC302F330FE7936E2C23F0D237EC8916F5166AB84B62A21BB0B950146962D754F92CC2C8877BED8FC7B7B25726DD19545392570B3A2C66B58F027BEF412E552D12A588C4
311
A3CC5C3193FCB3485EFFF700D0B9EEC077754A33DC1FB9E25AF814628F91DDFECB667D3F7690803F38D13F8AE39353523BB08FC6760144AFA2CE28236F65EDBB3D5F59A57D612B99E3D7E5F8A851666BF9B5A6658EFC96EEB37A378ABB0EB3FDDF1303AF32C41BD1C8560745D7BD81066B0D6313359CF488563D3BA3F8E218
311
5D1FAA3EBA1397C9D0E3DD232180A4DCADB6AF25DB3AC3CC26589C8239E66E81547BC7E2F328F9884764CA37EB5DBE390DFC03A5246B456A7C3684C4377D0EEF9A350680FA9A077E8B2957B489E09AB1AD41316944C2254B5984830F691C93CAA767EECF976FA5647538830B5E63236A6F0365C1E0F3E327F24FE35EDDBD73
311
60B0F7374837409F7A6311BECC12B7026D4FA1AE204FA3F5FE904B1F420C7A9044AE58E403E7C4848E7DA25DC9EDAC79DD756FAA26B9EA83ACE8A214A2612A22AFA19DAE7DBAC5F8CDE1292A485F98DAC731A29FE01A3966E96BCB9FB5A4C8830E1B9AF0C54B87FBE221A097036E5D28D1F869F810C06A9BB0AC0612F69AEB
311
AF893C6E7AD59460208BAB3A6B09CA4F6BDDAB8CF0D1F84B72487498395A70DCD754796E271099A567A55CF242BBED64696378BB6CF25EF0FCDB589F3A82F1116D010A9AB9FA4358809EE0C973A2B4229BAA876A70B03AB49CBA7FBE71DB1832FFD32F9BF2C8E98075CACAFB36921235D0F552B6A67E94E094097A5D7DF681
311
B40623DA535ADA7A9AD8E9A62407D7C9A5AE51D62A17A83A23728DE86BB56115804D3F2675F2C6B87541A0FC497BF0CA86420F558C9859EBE9FAD62747E323E3AADC03FDCDDFE7407B09DA90B44E3185723C5381EAEF589765E2F7A099BA46695BAD60CEF3491B8A171F5F56444F7CE9455312C3498C74173AEA0214EC0298
311
33B34B650CBB5A5508D5091665309642791708ECF27CF11DB3D797D6CFE474453BD4BFADB768094B2147814D81C7CBAF8228DCAF5564B5891F5EF6A860EB2E323CB82AB868D8EA048880D63B0DE5341F1B3D53297B928A11E15F25E5148990F710747C3509ED14909C552EBE3973246FCE55D00564D8310BC3EBC5085D08D8
311
06799B77D6C57FDF5E55837F9E934F09C03C729271B64F12D0A9F9E938107CAF7BF1EC8CF1BB9B42363D33070F4CACB425E605DDB0A34A12BB936DE286B9887A4E2E558F0886498BFF49C311D96C277CF6A9FC0D75AD0ECC5226D7E0E3572012E56D7FDE4410CEC7A6D0F997F225A2055B8B92E3956E875AE4993CB3D4C906
311
3AF98FD45E1BAB165640A43439A2C9181A7C355B297C0A0CCFFAE19B6FA3C2BA238A885FBC98B8F6DAF4B94B97304878DF4D8BFF6A4AEDF79E90ED4E68F00CD7299F4E0D83E35601AF0CBEF18C1E870E74758FA91F5131075004DB3CFCF09AE1DABC11957FD9808C92E8A678CE9DBE40DDA0E0D1D505AAFBCBA208232BFB6F
311
B3704E8985E61ADE53DE74152F5C7DE74B1DEDCD37DC3E8FB30D7EBA8B9EFFC3606BF90B8D438279CB7709FC7C00D327F41817EEA71CD9E49FE9C8C9A81C70915D9F0F15958EC5AA4C3BBFAF46986B90F188BDB24B89DE3C6F29EC3E6F66D84856EE96A35E657CA41B41EFD8DBFA16AD6E91439EA92B40B21C053249F51AE5
311
0EB0B24C770FFAF40DF12C8436366819C48E36547D4E7B72FE2BBF10828583057814A668BDF183F6B2E58DFB151103E56303E63D00F39C27C4661605DB644D19175D02E3F0241E8FC3458D17AAAADB117CE9EEA690D0DB01E634878C04C2C9310B69FCAB831151E3AD293BEF6E46B0ABCECB50F5939B39C613D41E81FAE8D3
311
4CAE3C4566B761D37185FE864AC32FCB71AEF39DAA5BAB88609BB980CD2F07A8F941653B529567726E2B2A58D079DD57E1E5E31426CF184A04D7B03B985F276D47406AF276FE32E3328BA866EB1FD39BEF57863A317634AA5FE467409B3873F5069EF0D71AF00AD189D17BA1974ECDB2D623E9E14086386A6AAB5807825C37
311
B015BFE892AFD154920EC437EB945D958E18622E1E0FE2FA06557CE4BB9BBD05A2D40E774DA2B65473791E314B7D6C886820B2FCFE4AA272B3B8B15E7344A145E8AF919B5454D89D36D413E87211186BF6F645E5EC94DCCE8E1C799022E4EC9BC86D7A0F2AFB1FC4B2CE48F84B3F49ECE65BAD24CADCC07EFF39AB06BE9E6B
311
27A059938EA7208838455383DDBCFCD967DDE4650EF92A14FF933C975DB20BD7FEEBC4487576485963D757D16340D9599FEB362F775F38CA4185A86F74B629C81B133644A3B18FD056E997E0734F9BE26D11C0AAFC669E2AC9FC41D281F8B2E1C35AE27BCE05F3DA295488096688719D974DF1B5D182DB7792288697F8763C
311
FB43562C1CDEE11C4AABD5C22B6E33F6F389CFC3477C5919DC0D533F8A7A1846B7ADB60ABDC26C43D0CFC8910B7C15EE22675BD02702ED39DB77A87A192CA7A543E6205B979B9F5A6B512A3CA799E198B2D5797C0AF8D1D872CA455D4D431A7879D4DD76110B5FF7F4176B54477A9EB5E4A5D11214FDA585F0382751D8E258
311
2BA5D2075053298FEB8F1537304E32CB22C2E2B693DC0A760B1DFCA751BDC445AFDCBB12820ED85F6D5298933C7EF1211E9E057684056CDA3FEF3BB6052355E162DF27C59E965A8DDB7F9437EB72CDDA3A090DE65A5B2F50326247B7EC67B73ACC7047FC9B353D6EE990F772207C6EC52B39DC2F3C0754821DAB559F7C1809
311
C7D0DD5B0499D0442E0A6E391B3D5DB46D11E731E6794EC77523FBDAA242ED67F9FA1FB684255671F63C9BCFE6E7E896D51001A6113EF2298BA494E0B0980D1FA5B9D60796554C02256B1E0345FB7C6186B6A19D2DCA270416262845FA4F42DB5D9B0A0B6F07FCA2E56C242522E001E0CEB734AF310FC8BFB57E38E03AACE9
311
3B3326A2197891E68452B26A6307FDABFEE0223D3C03C3C73D2D5BC054C8311F12004CAE488E5C29287F8156A2CAA4AD0D7BE6B97264E4139F437CE73ADF52E5134C52B819777C18B323A5924E4F67AFD13B1CDC3A61793A79FAF5C0CEB718E441071E797C6DCCB9EFCF7E4A1E9F3DF3C2F9C9E8294E9586868788C972857F
311
B0556D7A26941A7EEB9B580AD78EC40B85DC906B4120A563CA3B87797ED612D3B035962BB75F6515A393F4CB057F564CDF54F2E5A024514E6A1F901DB80C7E70B1FC05E356A7E72FABF4775B3E3FB8F70A2A8E7B6A94542BB304157978CCC999E707A29CC795E67A59CC546A5D47B368954CA7B6E75EC9E1F6FC73CE3B4F71
311
F8CB1A6B15923D61EAAEB14626AAA9D04A26EB9C66CD1BE86CA31A5D8703DE04CD1EBCE4F5CCB62F93909AD11E55799A781A956ED27D3E738F4538CB04ADABC7DAEF20BC35BA6A90BCC1DC61BA05F20D8832FFB9BC9B15E2DB838A0AFBB7E0C82A562127E0446894F427794C3037186F622BF24DE1B00AA10A23BFA47B2A18
311
0D6DA5AD6F7326FEB8C100C2D7142EB2A0B2A9D1008A09BA343D70E054AB69E2A7EDB783CBD92537FAF4A44D1296AC2792729104B3276C276C951D0CF3CF3F1E6B017720A7B8505A5FF9589365979678C36F1BAF759EAF57C60F1FF5FE9DCF5F8E764FF25A2D06CF25117A8FED51884C13B2B750DB0E4F5E3D64124FCF11F0
311
AD8F1CC3B3DA4B38ED22BF1CB2585EE6BFEBBA63FBFD44F9537B9B37BDD6B358720F98A8125AED4349CCFEB0E135F19E208A04CA7E2B10711185D72E381F448036EF57C9F874E54A971CA37A639E986AC0226DC5AA00D5B14FEA9192234B3DE617814FC221C92F33F1D392F297731B567FD98FD91D989379AF567A65B8ADF1
311
77591DB90FBEA99BF4ED11B16E50A0AB1DBF1156D034BBE04D69D08F939D8E92BF525A1DDAFF80ECBC95D8F45D3FDD289FD23F7D8B452F8EBB34EC082DEEE68E18EDDF072060FAD2AB1504DD4879BF67099FC58F6E9DEFBF645D16334A3E9A127C6F1AF6132CF287E433B43A0EE93812B4AA0B194E03EE3FF91EF9C6ED0074
311
A2F6EB18A96A7C9890B1FCDA1F2095E944DB911ED54C60DF16FB74C8CE9BDC7C54C4F14078CF73C2FFF1F1BBCCD7CF64F71407EA1683DBC410D226627F66E509060D5C0AFD611DE681D509DB8DD12FB1265B03C6F5C55FF4C30BD94187FF692B4F152982502F193098A789526A038AB529A52BC0DC4FB6285CBAC10A8B8DB7
311
5DCD9BDABBB221E27D1F8DA9F5EE5926A1C8AA9BA9BC09239C6A7F12914EA3B59EFF7AAEC3FFCCE56F1C5C2980AD072793527565E774F4631DB178CEEC691B1F367BEA0CF2907E1D6B854D527065979DDEF002D8B2ACEA7CE21AE297737EDE1D45B31233B73FEA35BCFDD0B09721FDBAF6432681F2FD10C3E9EFB246FD6E85
311
4B344ACC9D8A0EEF876A7314B49B6A499FC650B099D650DBFEC7638ADFD245E2B7839DA5AC5F7D5623FC0ECEEC8653FC9B2BDD1AD4D00A566FBA7186DD3C9CD26512551637498CADB950FEC71ADB9A5524285DE328B8EC7EC75D2345AEC6A27C42AF6D9B92155315C80DBFCABBB7DA0FAE425C4FB896B15C9BFAC4FE67DF5A
311
23D30C93DA4D8F36FB15D100050DA6062E22AEC5F4DAC4F6FEEF97AE05DE63C6D38F9E068A20BC5E3B6BCD75320C5090924E7F93640A7735B1A43451C2D91EE62C6238B797349E59890AF3A520DF4A87095F3ABEC2E61F0593416CE46CDCBE0E00E2523FCCD04408588B5B6C9DB6459C786CE378770B54F51DA3A5E1DF2A33
311
49BEAAC234A6CF8993B598B3B25B4B113E353A4D750FA7534749430F3EBF2512E7EA3FD43C6AB9A1F765A58463B306721A15D224FAFE8C6F5E3432D57EE697DA0DD5A9D4866A8BCCAAA9DFF1F06047851408FEC060471D0E3EB86BFAF46E4B5E60311DC3E3CEA147C75CF971BE74689507154FF2D2E92F15CDB2B9182B1145
311
9FD8ACAC5A85F174BC94A7F4EE4C4F5CAFA7C02E37BF0BC77B7DCD0C047BC316F562A01A441AFA7931CC84A28CB9F4AA367EB515778F29BFE61195FA671F4352E5E46E3A64773F1F76EE5EB36D7BCE9BCEAD837A4D77F8DB8C92AEEF6711920D7C7D0F76B0FD0EB7AB83724CD35BCA7D36DDDF5FBB7FF6F04A91F3E2BB3B8F
311
1A43CD659639507FF6331C5F697BCC782AE57D757A27D97F1AB9E0AEDB43F92F1B2AACDF5FEC8ADBAF9F814E2027003BA2F9E144B1938A7A04050AE5D953B82C45619165C813A10E76DD6906B3C16438064D14CDA713AEC420034613E1AC7241904A49FBF87409AFB1FCB9B72FE7933A87D8FBEDACECE4EDCF6A4FE9FB94D5
311
DEB74FAB7CFEAE17EE965DF980DCCA2D04134994F9A2E94D2265DA4FE6AA7B7AC15FACAC2B5ABBCD7DFF542C5314FDAB2E1B9D8B65220B8E2B638BE008E8DCA22678C820C5053664D15E89F2D735B51A84955E81A443545E9FF787BE0FA700A76D136C27DA179A7C6E8939E01BE756E19CB292798063D8B97F44E8A27BCF3A
311
614FEB8BE974A718E86F7EC99B53CA35FA24F61F2B07266684623A3D4CF073E511F3A10A8FDAFAF0078C577F4DF9D339FE7862E5FA47CF4344209E5BF76D783B1B48E152AD281B15FCB934DCDA49CEC5706B1EE8B460F435324A5CAD154725E21AB8044B75A557A79F6C807B9340AA3D92503E866F4274412926C8C504E4D5
311
EF8C0E68DD0B028781A6B4054F11CF18941F101C57CCC796773ABC8DED9CD91FE5788806C05E548895354AEAC96546D55B0E94A59F148D061F42AA398D822CDECA4CDE79E13469BDCC44FDC990F366BA5978C15F97ED80CBFD73B0CD9B8B83A4F6845BDFBFAF034019473FB9A63BD55D3A4A7284757071574029A4D016DCCB
311
E95DD679EF3C4880BF169422F8C89B68A988D2B13793CAED4F74DE7486C72DC94DF46B8E93D8E02EFCB1FF9B3BA10C8AE7F653DF94F4AF466CDDCEF5776687F7C4C14B63E4EED1719DC2EC482D7DBCC7AE518CDE3D5FF86D39000EC3673C0044E1D308BF05F74D1B5F033A7D1BE7F74BC55BBE3E4A20F920946CA0271EB17B
311
D2B80E5660ACB8A29A79F5E4BBA49D4D945B6EEF4A7EFEAA65E5555BBB57A7E15D2F83C69F30BBB978D2B39F1F26FC097424D39BB33CA3D87ABF64E307938B685BAD44F71556A30B7E712CA4FE600613C3E554B69ADE949A7CFE214DF1FFF05CB82151EC6FC31950239F94CF7AD39DC473F6EA356E5EC2C4EFA04383CEFE98
311
5A127484366FBEE3C0EC4FEA363E4F6632AE781392FD45D67B63FB8DF70E82734F431FD3443172A0E30A83D60982D55FA6A2CF86DBA8382502ACC6CDEF3B907982EED1160E14863FA242F9757347E1544275CCDCF71ECD5F8621CBEA326B8BA884AD7F825781923E66971F04010D574C541D8427A438A37EEF8AF88240EED7
311
362C953F5A81DE2D56109CDE2524EA0F5D2F87308C0C47BD97AD605878AB8589E17CA83930CB5E0DCCD75853D68B1AB136594926DE426C367428E9334AFAFF90ECE221BB5DC9E5BB53D2CDEF954EAA9CD814F0E5725F1965DD458E5F8487683AD86B9D0076BE3EE91EB1CECC5331A67A3F79D8B27587C12EC2A6A70474749F
311
27B4C0BBAFB94B34189E88DC18964BE4121B9137FD516C7755356E50D6714E31ACD222621EBBCD1CFF81D87479056A9DA0E0B8EA19D24CF937DA89F78E8650CCBDC110AAB6C4E46DCBFD0446BA9E2060E81F314AC2031E88135E5476AC0160EF5C0DD2EEF1B8B5CB2D198BE9A554A9093B5F7D7E4B5407DDFCA1D9C152FD97
311
F55BFFFDFE802954DFEC8995B983E28AC92F1971E28F531DC407A1280EB125F64A72E617EFB27DFBCEDCDA2D6F2BDADA36873EE46B9BE1782998C63DA7182BC383FB6FD15DA472B175D7E8B4FC88F38D6E07FEAA3FA3CBB8F6B449ECF14D2175E5C5CCA3A42ABF24CA6C9395AF74535F4DDB38CB84F56614B0FD32D7E19CA5
311
CF988DB4449C40E23DF2B16772594554579094450F56F253CD25EA7F77366FB1CFE79696C428BB64D5A41E986189427E5E4D7E2DAE3D5BB4972B3DC44EAABDDDD63A2264ECFA5C786EB0EE1FDC5BE34FA0F08376869FD1E61EA06CAE15191135445EE8F0394161C3266A596AA035572BB0C8876180D8B9C77D307DF9DCDF73
311
65ABDA6F3A2366436457A4DFC1F259666569A9E4A79C817BDD5610E5200FCE894A358EC72858D50EF67545DA81C6FACE3D457BAF70367E1E6BDD9A952FB4F56247F58F523B97E640246051A72F79BE42FFA0B3187F63097F91C48B868586F714B0EBD5A00A8412C1236E1298F60C72BE6C96B82B404CADAA304AE9F303176B
311
14BA53FBC2D5E86377E35542019E24D97B96A49B2C0E5006E7795954DEAF5DA58958839043C6C70BD3B1B33B6DC5C31316D8A6923F142E26F6711A2258AF977DDF1F970ECC4F1F2B434B96D81BEB6E89BF3BBB3C7C8CC80505070723D6D7D7D3C8CA27CA164A26024FED94B12A86031867241DA53D929636DA600F050BC40C
311
E48B8BA03D69224720DEE2ED2127390BDF5E6EA64527BBD4C4C63FA76BB801FEEC0E61218EC98A8A86CD8313781617877E66692839B9468CF4DB8E50A73986E558E309C0D6F676F921BE02F1185454DC75B111572FF9D27D85EA14C05AD7271225B391C4275659CA4A43759D0BA44639BE4C30A84DB7F67A41399FB95CBF92
311
3B1B1672ABC807C1590557FB18D811983FA97F5E609516D62281D38B1281F68FC75528C35E4CD7DF0F7DBB5E5DD69C414EBEA2F4A5B241B996BA77AE6C772E367408C633EA3E438B68563EA8BE7667F3A4C4FDEEA52ABD78A2820F443B7914A15F180018D231E64519C56A12F6CA7C8DAE18F06F6B769DBF92329EF6A5D18F
311
BCE600F36BD8E8198DE5CDAA96181F3A756EBA5501CEE58F497EA4F418A2B82565B9BCC611713C0B708CCA1F398B78C5F7D03B3437CC18F13061F55C7BEDADD5ACB1DB0E36D3CE47FF6EA1A563A57E9649EA5D14D1A50EAA457463381C073777EF1600607BAF6428A7DDC079D47A204EF1E1F1F0589FB054D45E02CE623B38
311
23C317C601E589E22B1E88B448524B86A82828E32345EC18AE17214B42F8C41C6D428016D9BA31DDCB47572561E5A402E5BA4FCE55F78AF7268524AA04130F3A20BA5D1E9F9948EA48FC8F5314FDB35E21898198060034ACE5E3E2BBCA34092518F275190AF65F45867FF0900AA4B81F25427414C372BF51DC29AA855C5428
311
EE1EEDD6B849AD60F6E73475C2D2523F8A2772C840A478DED18A8C5C91B085F255DC4F54EA7AA8947354FD17ECF8FB3B4A0DE7B483CAF3A1165EE05BBA413E5C1FEF3DE1D6B8F2F3F3251C17D9FCAB48A9AAF63AC773A0E413BBC46A9ADF84A566FC920E4D8C52C9769EE3301CADEEEDD92B312E02E2A7E35B7F1E7D203FE5
311
A7D75578B06E99D0E46FFADB8FDA17ED8880390DA29094202D6F645F76F6F96409CDA05495A96E84B04A00D1A6C6C81D7F3DE9376E828CCF144EE50E364ACCE7237EA0BFB5607ED1AC3CFE73794E5B61739D14DF1743441B1AC98F00ECEDE9E7301FA29755FBEFA68C91EF2B314CF510537EF1ABFC9A762496280B546F5EDA
311
AF8A5B387D469FC9A878A92828C88608453ACEC6094DCA54111E7AD5B2663DFE2DD151B7F123B9F4FEF8EE36AB125FD7AD52A59B1B765B3E3F73E3F73DEA93875004D2AFFE3CDE9493B87A9904DD052028949041A91DC0E1BA47BA714343FD5B25E0A6A09503AFC17C790058A836A324FE31D7893512E28230332F153181C1
311
E018E1124EBE1BA262AA428A518237D1EA7275E48C5C561BD19ED6912EDD8367DA0F31E40EEAE9683DA9257525AEA7B632B97119E17145A90231768A4F3B9120FF32E8319B015E3CBE26F1A754177D8185345817C096B0CE443A955D13AC15E1FB5DEEA0239EC32A3C92241A237B0B02FFCB4F93CF2B02570C8D192E2F2A68
311
CEEB42F12E6F8CEEFF46C251E22B4341C56FB08CCE550E7A9D6F4D6564B9EA52A83D5BF2C6E03FA19D2775E15A8A7ACF30A13C259EE7F5EF2AC3BA354F1500E1A07FC63FB4686E2F12EC69719F9ECF5FE3F35598DF2CE944008CE78F0911BA5BE5D0A34E0098FF038669C26030BA9B300303039852A8F6F496341737CA7E0D
311
2E3AAA36DE0A70AA7D9CA0D54D9AD84B18A44C9E625475E1C97B93BEBB38DCE7D227E67A2D00F531436136355F243D1FC0D712C5765754FA22FCFFAE97919161F46D6E61ACB37D83777B385889770B50765B127768443A5C4D3A4E35A3151111F146B7CA116F918A049F1C272F2CD7976C69A0068773451659A97E0F4A08FE
311
604C3FF6CE7385DB19F4D3ABC8A0D80DA8A42096AC377DB49382B36E270B6FA7570188B4B7D1DDDDA82ACA487CCA5D38BD3BD039ADBAFA4ACFF27809239B722081E2EB9F145320553D183F28471C388BC8814E5045676767AB58A8E72D1CED2CA731379515D2E533E4CF0B39DFC625F97AC4836831A4DE330E87A8126FA17E
311
BE583D614E71E22A8DBF2825599743E0640037303E8E1B1E8EA4E1ABFA4F62907B5E4E0E5DCFDAB417C36C6848A2B8D15F1E505434C0707E16B1CFC2A1C36A42BBF55734F8F4301DDC2A5110CEE8C0747F69519265012A2174BF4E955ECD4FDE095A3ABC70536B7AD0B9D7892F81287D667C108703C9B66A221E9A0929D030
311
008F77FF6F5D2108EF5706FC87A3069B976F7C9FC3239D13D283CDEA83597461079FEEE049B0F392889898B7D87D31F8D60ED7B56B91823A8E4EDDB36C6172ECEE42BD42B12CD67994FA0F0DFAE9389356F4CD4425A4B8AA55CBF7ECD585C6A2C2316791E43D5C06841ADBB226A87FD61515FFBB0167B74E56BD7F3E90A57A
311
97FEDCBDF483A0D6699A8C0849CAEB4947FAA90D8E332D9DEBD9F4738C37DA0CAF9CF3DAA68BCB67C420459C7A64498D6E848E5CADE92BB6901F607AA331104A67F7CD650EE169B1DAE94D2C31C2F993632259B6957E246EFE4C5481107B07118607700040E5812A2A2A38DA0076875258C753F60E0F2662C748EDD5F3F368
311
6B8FC3BD6FE631ECCAA1E8B1C1E565AD117E54893E79F4672E32F9E46B2A183DFDCF3EECB4D4D077DBEA0DA254D256045109670050129E9B9B1A9E4A11344D61497A992778095151510C4BB7EF2009B63AA4360635312E4CF668B7E0D3D85A8688E2BD83B569439892ADB63461930D428E0DE42E4AC57CE48DA5CC1449530D
311
8BD3D6A0F08DF20C8E8F570F2CFFFCEA286E30969B4654D498A58D9DA782E19FE3F002181838925592C4A1EF0B332D88B61A92C644547BED490D3A42CFFAB70E36D961F694F6307F72FF15A1C79D5B1B5CEFD353D9E2B52566DEC8F8F09CB3E8359C0F68EBBB7898243E34E12A015B2685AB303C04D3A9E00671FF3DFF0A18
311
4E4A2ABEB2B666AF5B3A209C73D8EF29DCDB069C9F391EEE9DD0F74C7BCDE16F8F02E3B8816122BBEB50665775B600549D8BB33A54A6BF940C028118BC6878C79958D6784F9DEAA6E26748386FFAF8D0D0101E2847B6563F5D8DC1D78F787BE00E2C941AE12148D4A81599FE8F68D4DA5CDED75530ADE138240300EE13B0FC
311
13A1687FED6774662C05A2B7DFB186732F0D7A93545D8B0A6390AE5054D9CB582DA846D7A061B3358B45E2B52DDE63E114397EDB7E09233A579155D795BE76102CF277F4DF8B188C4F2879BEAE3C08347124BF9ED23B128259FE107D31E34A652F090B30B39E0D9AF917B76A2806135621A8A60681F16AF216514BBD027115
311
85B5B1AE823F4B2D0369EA5B6BCB863072727FFC871CA6C9AB79A814D989057E9470A3D238BC87CBB4A0EA49AFE2B86F22E499793CAA9047080450166BDC357524561E258C77CB697F1ABB32562CF87C3B7AA12F911EF19FB3E5C02222E887D08202A60A17151F5E053A86B437771088B4FEE14D652C43E8D939995D34545E
311
12E2FF93D4E366EAD25F10CB7DED141563C3D0C447AF06078A91135FD4B9611583CB4BF3BD167F2399CEAB0E0100F8FFC305F00F1711717173138B4B48C83022295DE657EFEDD97F238ECA80F528AFB4F8D67AD4E2594B9A3AA86D7487EFC313BA95745C186F0CDD84CC12DC9CB0424B42203D351FD9C0A3AF10CC7F388E03
311
29279087386421F194F4A29464C1DEF7EF8BE515E4A199DCD5B909342598D8FE6A231F71336248D5CEC5454455C7BE383B3BC7B260FED27F703FDC39A170F3827239102F59D4DEE7FEF82EAA1A5E4BA94DCC4CC44E7E2EDE20F24244E4454369D2E87C3F823F193FD4FD27E1C23984B01898D15ABC20711A8A558054951A6A
311
E280096BA36CBA439603B7B0B4C45F248C14B2383B4B5CD8ECECE4FF859AD4A6CA2326D020EF090F4041D28DB66E5256B56232CC52829DE8060BAE6BBF37D4B7469B822454FE93210A3E8D15E69FFCF01123222611C51C4FD0A041A0CFA2471CF6BE38D2B20FA4C3525B5B8B586759475CF80ADFE67A284AC24651E52B8E68
311
3D24C2622642F27E7C3C22783BCF63648BC398BD6CD0D9C97E7E7E3EACB6126DB7A6C1FD9F1031302EE67ED96F22B77C7CA0239BB324207559B105E4693EB26EC46182A92C9C0DBD24F29B31C5C5AC1F84300E0E17CEEAC15F5736FA4A98971E2F1423BFCD68D4BBD5F86E74B40A369F39507C88FCDB35D2DD8DEBEA4AF999
311
E23CF2816D204200DF6E611781B9884C1AC8888B4DE397320472959434323A5A36B22A8E1F721A270DF3BD65E4A31C11FF048AFB0D8B7B6881423793963A23CFCE935FC189ED36FAE35C46DA3574C979E4394BE52084F3081837BE033396D2EBD80F1F691B273F660D2B32FA27A33B1DE4ADA5F0FA4651511102DFA410DDA8
311
6E065272CA314D5249DF91B06BB92807B28EFD54F08F7B525252782CD276DD02E6B0319B13DF87B1F6361AD6B28FC0D711CF445429B9E5A433CD493051C49A9E03DDB1B147D880253514A5DED88009018620EE229101C041950E2D8AA8E1F5F5438E0C0C0C60EEDEE9E3E0C051948C69F84BB7B2A48A1F3C8EB9E6864687F4
311
F4F6F6E2FA87608ADAF9C5E117B7C1A737E710769DA1D15ECE6A84502AA855398712D5FB51BE92E4EF824969CE18278798AC303C2C7980DD2500ADF8FB1E6D6C2FAAFF9987178923334A244758BAA01A9A1B70FA5097D01E1CC2A58DAD0EC94CE6430AA9B0C10D75E3C6BAC670EFBADEE1607739CE0FC18A2587E3EC305856
311
2014C64219C69BC269082D5C2F4A659278D585755912176D78A1B641719C2A394CED495A1AC5D583FD2F5EDD93308EA7EAE8A6DD396598BDBD3D4CFED62D18A5BDFDE0DD5C80D1A89BA62697B131AE7CE9A6594138582F1B37D68F1749AC7CB67A70695D48A4A056AC1FBD4E82358CEAE38F54B95A9016F9000F9879C0D9D1
311
31768635CA798895F27D6F1614F11F2838A83611AA51C9A3DDB539D42979C29F10465655C17BEC3E2760B80DCBF609198C7B171A531905F3EC218D696025975E986C6B4C666666787271F202805577DD5A3EF0CAFAF91B62DC4B2DB4217A7606282F31D8DDBC290593BAA93EA6353AFA9939B877978481E15CFC9F2755CDC0
311
0C538F63A4BA3E80AE009B73CA0185687D339A507D165B74290D6EE46D5C58148F020C3668ABE9EF2F7549170DC80DB41FFC1D678FF19AEB10C7133832B104B80F691B3138F97A92D26E551F1F110400D45AC71A9B9AC41A1A1B1DAEED0B0810638EFFB511D46B121C6FEA0F38CD00E03CFFEB9713FE1F9C263E4DDEC160D0
311
497FA9A132BA608584057FB15380825DE6C7FC3C667EE947D488A09898D8E939C4953BF4EC9836344D2CC6B2971B2A21A572B06096F4982D2CC7232D46E8EA69DC83722E267754D777F97F96D5DA74E1E75178084D0E70F12AD33E5F71EF2AFA599B2BEBF60A5BE475F444F240CBFE8143C334E7ED9150FEEFEF7EB020C4DB
311
ED388DD1D6A167A76F3CBF119B578AE8CFA7736ACAFA4440A1C47185638A0D2F3EB5BDDEFDA958FB13CE4AA4923D5BF840392D45544329525749734866684BF7F8D9D54D892E19BCA9F829A0F8BFCBEEA6CFDFC61D74EA1A645ED7A1FF241739F15694BD835B66FEC5677E40FE69BD3F91AE402F036537218A401CB0828604
311
AD189E575015C6F3F6BBC8AC79CF6C70653847254B31551EFCBEB5978B9DB85D58D0FA41A9DFE9C624834AA04949D24B5AE6D299E072D152D12097920F14AA92C31C3B97E28B6C2E6E9C23D63043ECBBC0A60FDF5BD0C33C127EA8A3308B8B6AFFEB28B4455BF6E7AF4FC6222728357EB8E46E85053E6A8843AB23295BF838
311
ABDA94658FEF3F832F147046B4ACD6F7D48E8FCC9618582961C898D1C7A253C91BFECBDA6BA18A1FCF70755DCCEE2222F41B76D23CA98D0CB3D95F0CF66D57FFF65E2A90F5DF40FC3187621E981BD0BC1D992787212688976B94A8F0C6EF646624B570B78E068826F87CE27041A95C9A4871FF65CC17FCB1639629AD6A9517
311
000D63AC231F3D741CB8430777E7ECF80CE7A3F73C0F162F7E56AA71F4DA80A33CD6ACEE78E2C11FAC03DAFCE929B106F8F6B3ED2DC71FF994BD9CEF4E9A94896EF1B6E2B7B4978168BCF0847A3D2A4F1B0500B926E634B174548E9FBAD27153FB5FC36799B1E6C7C38A94E1F9E996796D7B485E635D5287A2AE76FBD11A34
311
1DB3F8F810385BB7296391973DC6C37C452A9305AEBBE0CDB6C566DB59FE60C8E94B1FD090354BF51439FFD1B48D725228FFA88C84F686F547107A7A235665A4593B7C34D748C1AC8D56DD5DA861EEFBADDECBBD65117E65851F90351AEB65F0EFCFF4BCFEF24CB7A5879699FAC437A7AF9099186CF006BB923A59E37D7A36
311
A29FD8D2CBB914A5E9D0A8FD212FBF796AE9A67958FF1D5D8B85F78F96219D4714EB919929241B6C018AAE0C02069F8D919961EC5DDFBFB7573E3AC8E08BFB7C8534BE6DE045B3CD63DBD71F7638BA2309CAE398EA3A7D8F98BBBC7AEB367EFA5CFA27A9F8F2F52FE878058E6209C026453F8E7E8A237DFC389E9590F6059B
311
397CFD65183BBF936E86896612A5B5FEE49DAC8455D026218AFEBEC12B3523A45B57B82C9C97E02ACFA1184DB18E48CF615DBF39C3CC6F0B4AE6BBEEA2E39D944E290302FA3DE33FA7E40296E2EF7BF1CD855BBECFAD0FD622BEE9746FC4FDFDE545AE6E3BC234CADF83A0FB76DFB145BF3828AE3436368AC24989454F8FF7
311
0A177672C711CAA1A76107218CF948CA01F873520E7A2B118EBB161ABAD432932029628B6761590C98AB590C8C8C79798CE9F715BA696E839E9131A4BB68BE923F1747FBFF165331FFDD4D05997ACD168F12CA75348DAC04C7F509FE83898A8B421181AF492861CE81E4A2DD0A30850CFA95E05F097FF70F9E777310D584A7
311
5BA7018922E271DAB1D785671157685B7D383D3E074DDB4F1E44EF04B07BAAC75A062077C54B9752C738C9D804D402E02851F3F89605AF189738C18C021D2139EAF72513824E10DDD3047BACC8521ED7E98B257D1166903B1B08FA6F918FD7E162913FEC7D0EF4787E29C35FBA8C6E2C9C20E9AB30AE42CA2A01A090E7D010
311
C1B5BF9CEE2A304BF3A987FB40D836979B79E18D70F257DA61E808472DD85B82761825779D6B90CAEB0F23360C6F80A7D7D77545E95B3DFF0CF96A827F9B5BCECD2C9698718417EF80FEEDEE938AFF55859D0D540B7FE09435583A6F04874A0C7E8CF234DF4879722000167F5872CEC6BF3EF7E5A8CC8121E6A359227C8A29
311
C95212F9F735BC72A887D56B8F309FC525BFB4FD767AAEC4AEFF249CFBBD2DE1AB9969A6155C7D8DABC307E47324C1F916C7BCFF40ABA5644E9FFB9238D19ADADA49D9610F01ABBA57E4DFCBDCCBB2B93C8953206C91DE01B0E2651A6D6C31721915B31F7B7CBCE55466F6D70402788FA91D73BE4ADCBA99A35F17D6B83383
311
704917D6833F0FA3CD45C926ADB8BC17999A4A0AFBCE2541F7B8CF4C2F5FBA611B3E626D64407CB32C122DFF4EF8674D6EDBB86C8F7C6A16D50FA685E2CCA34F8F7D1D8265BB0042E9D7F1F666F7BE5FAA5184DF58E12122A42EF02F461B3F369AC746F96528AD208512AB56844CF75B97F352DF7995024FB02855385854F3
311
798670D01CAC771AC3E1889EC25F61A20C1F8CAB46898817F9C47E2CDA1F286BF2F358298709FE567C91133E2638C8B53975E753EA8BFD3578B5F7186B7BF084EBA3F77BAC3132A5779902EC22AF2D2E79F42D324E083386DAEE9810D1B44A5DAA54513C7A71E52A4AB9257D975B621308FE4D2141CC3DCFE946C154A3C1DF
311
CCA7629EC69ACFA831634ADDA93C0388D2A9A2DDAFCF957C6995BCE7FBB6DC4EBAE79E63EB08E9A25F52F67076F7093CA545CA3053B5BF576DEAD4E0017143C5F759F32B2D6F145B52B67B48909B7C7FCA6586EE385A2189C16932CB6DDFD9152AE317C430492A578ED27B72D85D40C7C93C097939E1B50F4D67F05334FE9D
311
C362C30B7FF561B95259138ECFD9274C8D695C31B14D4EAA9F3D7FA8DDF652F8C5DEFA23284C799B7D94416DEE81E05A866302DC70192A5368EA65E1CED8BF107A1E2D3119A71E85DC1A7B0C1E93274CE04DD0F2ABC8AC7C987FDB002B6F81757B43502EF7A0D92E416494FAEEA4C9C090CD9557AA4D532F4996A272B94355
311
C5A0E4974EEA9627476F30809B94D8D8D860062E02204643BEC7D0438AF800FC7E2B26955D595421E83C69E1A07E0E3122285835F014AD538188CF9737CE76D464A353FA55A001AB2526B84E985083693BC76FE211CA1D000679C889E3C009832C87E1AC2EDD05C302557422DF0800E316FCAC86978A371F025A6C7DAA9F33
311
3E7BD160403A1A06EA75AA9888FF01504B03041400060808003967DB4C28BB58AF800100009E0500003D00000046373741304246372D413346322D343446442D383342412D3142464236363346433530312F536368656D61732F436F6D6D6F6E536368656D612E786D6CBD544D4FC23018BEFB2B96DE15493C78601010A34B
311
880709DEDFB52FD0D8B54BD70DF6EFED3AC0B12E6442E2716BFB3CEFF3D18E26FB440405EA8C2B1992E1C323095052C5B8DC842437EBFB673219DF8DA659866649B798C078B48AE6410122242F2A4994AC7F93815DF85C049C8564CA0A901499DD886B2EB9B1E02448F358701A9235880C49A0119892A20C89D1B9FD768815
311
CAD268CB5E0355B40B1E47F3E37A2020464BED06AA57CE8FCC20C3C3446D46761A2632A8C1283D07031EFF2AE7CCB1BFEEE916E406DFAC8E36FFD99A9D60A6944090EEDC3B670C7DC13DE86B6B2C5C240D6E503BB85ACD579D513F1B9F9A69DC9CC22AFA80C426D40AF0B21EA168559156B6276F0F726A6BFF04DCD513A87A
311
62CAD41FB24FCB2858B3952E3D852084DA25B9303C15687973CC8E8AAE11DF2836C38C6A9E765E8C1BA1BFB1DC29CDFE518C8B5A7655A4ED7E77291ABEB80DBD82EC866ADE1B8D05AF9E35CF09D7A061F38A986D9EC412B8F0F65E5D81534D9B231D1E5A8FE577A241F3A5FD01504B03041400060808003967DB4C670136AD
311
A9040000B41400003E00000046373741304246372D413346322D343446442D383342412D3142464236363346433530312F536368656D61732F47656E65726963536368656D612E786D6CDD586D6FE3360CFEBE5F21F87BD3245B0E2D90F4905CD12E1F8A0CCDF5BE0A8AAC24DAE417C872DAECD78FD48BE3D44EE3B5C3E16E
311
010EE75A34C5877C48911A7F7E4914D9095DC82C9D44835E3F2222E5592CD3CD242ACDFAE22AFA7CF3CB785A14C22CF95624EC66FC34BF253BA626D1BD488596DCBD8F2E6FC6335608B7F428D258E807664080A98384D9E75E22F16B2CCF05D32CE502359492C878124DE31DBE89612BB196A934605E44F272A5249F446BA6
311
0A11112D589CA56A3F898C2EE16F6B136C595C7AC3C2FF076D3D808BDBC824572211A961A8D96E393F7AF5806BEA91EDDFB1ABFB769EB08DE8BCDFE27EF98E9DE0ABCE3BFCA1C54E8AE777ECE2BFFC92A94C87EDE6A9111BA1ADE75C74BF391275D33FAAC5FABF89F1D33C9836CB3225980B2A479BE96A4FB3D59F821BCF11
311
CF1FC55602586C7191D99E2C9C0CF2B8A662E3484E59466361985485D7E248E7953C01F19DA23B9D256461B6E09C40FF02D1DEA98C19EBAFBA4659184B7D47DEDF22E2F53DB017721B164F5B845961697F0C699AAC2410982C385725A6361A500F59CD848221F103A8C1A7CA84A55F407794695C905C688E69B111550ACA94
311
6B9B4785FC1BDE0E229240B62665328986D5B32C400CEDD88188F35AC25EBCD40836F47F35E5C0EA4B6F767B50568CFFB5665C505E2AD5EA8A9997205F50A2350EAB32C9294B0024108429953DF32C4D812E226658F78A490408362A94987E6F787DFCBBBABAAEDC36758ADEE9B58B41BF0F35D87BB1E991E02BF0B513748E
311
6C0AA2EB2CE56EC68E97585643D82DE284E51DE03E4E22B00738761F1E66E1616A03EE093B0327B6BB9797262B0DCD72C6A5817ADAC1C3C0A3909CF6639B404D18B15CAF4B3C09CEAA4414BD5F0723F059ED37048E7A64271711EDC9C5230F58FBDA5DE00DA512CF04BA6671A0D201A83D2EC81D2EB552C7E5CD1BF9D69135
311
67B2CD53A659AC362A2B200B440195E2ACBBD167A32A86F7874F7F00686DB55D163481DADE5E417E979BAD827FC6B2B0AD8A6AB1567038E466EB4B10C4C2F3F71196A09260938125FDAB8662456EAD68AB2F7C1DFF709C874887B76A4355564F017256531BF73D7D754A40E23401DA38EFC907CF8D8E3C1E5E7505D8E432C6
311
0BE1EDA01E5166683F169B6EAC6EC046153F66C2BE0679FD3F407982ABFA28F92E0E457501938D96B12090869079360D3F947CA8BBC3D9FCE1ECF3C676C9BE80EB67CABE004FC290F8E26BE6A0371AD6CE66781C408A1FAA8CFFA63DD93A94CD5E1F3BA6A3DFB05B34E1247BB3949E3C332105035203136EA14AE89FF99E3E
311
0B3C4EFE65C581A3A3D2D0EE84EFDB22B49DA31A07059E69B81628A8ED1228B63E42C3D840C3C01F460D1F331FE199821B03F22CCDB6DBF074B49566B12C3B3626074EA1B130B4596BDBFBB642A835954A9509E5769234228129889952870EEE13F494954AD7A27EAD09411BDEEC5B6B6AD752C11509F826EF4007E86281B1
311
AE63750FD09DBA87A34EF4CE2A75F3E85960004EA6B519F4806609E8C91CD18380BD81691D9F2CB5730631E6DDBAFBC30E96D3E1D3D67EE8FB72BAD92AD4C1FD3CEDFBD2681858ED6583CA3853294B80AF67AECFAC6418D08164D5FD1E52E8B546BCC77B87C6E9D1655FFD384FB26A28AADD82E04B9C64EBF78FFF00504B03
311
041400060808003967DB4C8DFFFC99640100009B0300004500000046373741304246372D413346322D343446442D383342412D3142464236363346433530312F536368656D61732F52656E6465724D6174657269616C536368656D612E786D6CA5535D6BC230147DDFAF08799F5FDB600FADA20EA430D968A7AF12D36B1B48
311
1349529DFF7EF9A85A718860DFDA73EFB987734EA3D16FC5D10E946652C4B8DFE9610482CA9C8922C6B5D93CBFE3D1F0291A6B0D26A3255464182D920FB4233CC629881CD49C18508CF000E3EE309A100D61622AAB4A8A33B2483F11CB639C545B0E1508438C3D3C0361192846DB7ACD198DF186700D182920B914FC1063A3
311
6AFBEE8FBA03FFD3CC1D1F4FC9E151A2AF59F628C5B7821D83FDFD3489305080F2EE04BF962195FB285E9D2DD352320A9E827AE357594914E42B1F5FE35F83688F60C4C91A6C946ED0668E8F244BC2EB0BA6E3BCCFC0B6A4B507F9F9F8D51EB315D9BA9E08D308E89F96931666E577837E2B4172199C68C4FE306156D47DF5
311
1C698C7B9D97FE5BEFE2190C3C38BB054E6E8163FB039CB4B993C80BF18D969203116D6BBD26238B821F9BB909AD6D9C71B85BCD8C33D66FEA3D31B4BC0AD45BEA46BBEDDFEC0F504B03041400060808003967DB4C6C95E24A51000000570000004700000046373741304246372D413346322D343446442D383342412D3142
311
464236363346433530312F4173736574446174612F41737365745461626C654F66436F6E74656E74732E62696E5361606070B4747231733333D635763534D535713673D6B5703434D6353177743376B1B0747235761502AACB4D2C492DCA4CCC492C28484D2C4ACC4B4E050A82012F90744FCD03CA26072767A4E626020050
311
4B03041400060808003967DB4CC55C663656000000680000004500000046373741304246372D413346322D343446442D383342412D3142464236363346433530312F4173736574446174612F53747265616D56657273696F6E5461626C652E696E665D8CBD0A80300C06F73E4B29FE6CDD8A2E82A083B8B7F209014925C9FB
311
A3AEAEC7DD2555D896CB85E51C2A1BD834F6A1F56EC4494C4695278364ABB24ABD2146F88CCEBB89D5321FF8F3F43D672A3B44DF3CB6A1710F504B03041400060808003967DB4C2D1DBF8637010000A20400003600000046373741304246372D413346322D343446442D383342412D3142464236363346433530312F417373
311
6574446174612F636E782E786D6CCD94314FC3301085FF4A6489317612A9B4428E2B044B2790A818D8AECEA55875ECC8BE20F8F7D86D0650115387AEA7EFEE9E9FFC4EAE3F075B7C6088C6BB96D5BC62053AED3BE3F62D9BA82F57AC582B19BCA71F182B1C0CD8B25C664AEE839FC6B9D4610F93CD556BDC612EDEC788B485
311
9DC5A7FEC13B42479115DA428C2D8BFA1D07E03091EF301E780704BCE601A39F82C63489CC80F3241D10083BA69AAA5E95D56DD92CB77573B758DE2DAA372932A9E4CE7B3BF3262D0B7EBC692A7DDACB54254506949C8299A9FC1AA6FE52C977C6499148252385E4CADC415F63EA8071B4460325F384D7845426086190E204
311
2B29B20BBFBC78C4DE38935B36491A900FCF4920063278859EFCA7F6F2DE6C5C24701AAFD991738D97F7E1E5F88B5E4FB13CE6E6FAD272AE911BD75F202BE2784E5274F27551DF504B03041400060808003967DB4C2F4107BBE7000000600100006700000046373741304246372D413346322D343446442D383342412D3142
311
464236363346433530312F5265736F75726365732F41394244364636332D334531352D344336432D384131332D3437414633443839424533452F7468756D626E61696C2F302F636E782E786D6C4D90C16EC4200C447F2542EA318144DAEE6A45D89FE8A997CA25DE14956004A66AFFBED072D8D358E327CB33FAF67DF8E10B
311
53761456314F4A0C182C6D2EECAB287C1F2F62B8199D88F8011343800357D16C61F49EA8C46E6D7887E29BEB5DF8ECE68E0193B36F31EC62B01E725E45B61F78C0048569C3FC396DC030CD53C24C2559AC07D81DD80FD884C0B809B3A8F932AAE77139BFCCCBF574BE9ED4AB968D34FA9DC877DE05C644F1695196EA18EA3F
311
4ACB06185D92EB540B21CCC3735AD6A5D19953CDDF21FE89158218BDB3C0B526499691C70A211C5AFEC346CB96B7CA5F19555B37E617504B03041400060808003967DB4CA233C2345D000000800000006500000046373741304246372D413346322D343446442D383342412D3142464236363346433530312F5265736F7572
311
6365732F41394244364636332D334531352D344336432D384131332D3437414633443839424533452F7468756D626E61696C2F636E782E786D6C4D8B490E80201004BF42E6EE76F3C0F216234B883063108CCF170C074F95AE5473F5C4C06E932E4F28601967600677D21E9D8092EDB002539227A2FCCB80E1168D80A64172
311
97A89C5D6963B7129A0D1E8F2EE73AA7B62BBEB8B27DE50B504B03041400060808003967DB4CBE89762363000000880000005B00000046373741304246372D413346322D343446442D383342412D3142464236363346433530312F5265736F75726365732F41394244364636332D334531352D344336432D384131332D3437
311
414633443839424533452F636E782E786D6C4DCC3B0E80201004D0AB90EDFD75167CCE820A4A845D83603CBE602CAC26799919AEEEE0D965E2E908050C6D0FCCE04C8BC355404EB6198129C92351FAD580A10E464065907C8D948F8F166375F655BDC3FDC3B4E530A176BE7057BDC43B2A593FE403504B0304140006080800
311
3967DB4CA9F4C9C07F000000A30000003600000046373741304246372D413346322D343446442D383342412D3142464236363346433530312F5265736F75726365732F636E782E786D6C4D8CD10E822018465F85FDF7540C23DC10878AEFE1121D0BA191B41E3F685E74F56D67DF39A2FD6C0EBD4D7CD9E01B20A70B20E3EF
311
61B67E6D20ED0BE6805A296208FBDF0D909F36D340C120C51A437A1E6836CB945CA1CEFAC70155DD0D6C6414534DAEB8EA598FB92214573735D281D79DA63A1BE7A2E4F9F5F296BCFC02504B03041400060808003967DB4C07AD77CE0C010000550300003400000046373741304246372D413346322D343446442D38334241
311
2D3142464236363346433530312F536368656D61732F636E782E786D6CCD93BD6E032110845FE58494F20EEE24C796C5E12245AA3449AA7404D63632B0277EA2E4ED030E852DA54B0A7730FAB49A1958BEFB74B6FB80100DFA998C03231D7885DAF8C34C72DAF71BD2ED040F88E902239D970E66526522F821605E9AA4612F
311
B3ADAA35FED4C407740EFD8B3A8293A45356C6389378BE0E3227D4104F8396490EE31020620E0ACA84641CB4092A804CA08998D8B8E9D97D3FAD5FC769BB5A6F57EC8DD34A0AFE8E681B6F7C8280CBDDC41496A32F8618A715103C07D3A89A82884B7743E983D342081E53282D34327D2D8594CB628D92A99445CFE00F2338
311
AD61AF223F828760D4AD66BEB2F76FA19FC16B084FE5A58291F656B3FFE6F26F15D0F306946F5017427C03504B03041400060808003967DB4CE3603EBE7A000000C20000002C00000046373741304246372D413346322D343446442D383342412D3142464236363346433530312F636E782E786D6C6DCD410EC2201085E1AB
311
90D9DBEACE05D09878023D01A1D34A8419C380F1F82DA68B9AB8FDFEC93C3D7C52546FCC12980C9CBA232824CF63A0D9402DD3E10C6AB03A3397DD192872090D3406ABE7CCF5B5D18893ABB1690CF4DCF02282E5EA8A5BB96FFE536F285CB347F95BEFFE81C9ED5AFF9D5B1FB575BB00504B03041400060808003967DB4CF1
311
B712137E000000A300000007000000636E782E786D6C4D8C410EC2201405AF42FE1E85524B1740031AEED158DA105B30588CC7174C17AE5E32793362F86C2B7ABBF4F23148A02702C8857B9C7C5824E47DC63DA0418914E3FE770314C6CD49A818945852CCCF034D6E1EF35AE9EAC3E38096734D8CE55833DBE0B6B537DC33
311
A33135D6741DB3D70BA1C53857A5CCAF57B6E6D517504B03041400060808003967DB4CCA1DF9C9A900000073010000130000005B436F6E74656E745F54797065735D2E786D6CA590410EC2300C04BF12E5DEBA70400835E500FC800F84E0B411AD13252E2ABF27A55740421CEDDDD9B55CEFA7A117778CC979527255565220
311
197F75D42A39B22DB652EC9BFAFC089844F65252B2630E3B80643A1C742A7D40CA8AF571D09CC7D842D0E6A65B8475556DC07862242E78CE904D7D44ABC79EC569CAEBA537E3521C16DF5CA5A40EA17746733E0B6615DE7217475F386F18B9481C510F1F021CD9FF027EA0E1F5C4E609504B03041400060808003967DB4C3D
311
EE336E64000000790000001B0000006175746F6465736B2D64657369676E2D7061636B6167652E786D6C35CBC10E83200C00D05F21DCA56CA76D41FC96062B120735B69A7DBE268BB7777961F8D5AF396893C2ADB70FE7ADA196782C2DF776D7A97B5933C430F15651E5469C55D70F80A4992A3ADC954792C525AE70A1E4D6
311
AD9816CC044FEFDF01FE3FDE907802504B03041400060808003967DB4C82B42983F9000000960100003700000046373741304246372D413346322D343446442D383342412D3142464236363346433530312F4173736574446174612F636F72652E786D6C8550CB6E833010FC15B47783311093C838A28DF8829E7AB38C43AD
311
041BF951F5F36B27546A4F3DED6A76667677D8F96BBD179FCA796DCD007589A15046DA599B658018AEA887E2CC99B336FCA24161C4AA06C83070B6381BB71D92D60465326AECAC765078AF0214F29E9A01BCFC50AB28450C89E16FE526E44D2CAAACCB278FB318F5BC4BF59CDCF4552B079C8EE4E538F504D1637F412DA507
311
3412D2204CC834E1EE95B64DCBAA2CE62CE8F567BB744A04350327B8EE113E2042DF6A72EAE8A9C3EFACCA4CCE7C70E9E77D69FE0EF898AFBE882058F59CFE718DDBFCBF6BD4263464777D2A3CF03A1DF9187056E594527944986A4E947F03504B03041400060808003967DB4CF92247DDF40000008E010000680000004637
311
3741304246372D413346322D343446442D383342412D3142464236363346433530312F5265736F75726365732F41394244364636332D334531352D344336432D384131332D3437414633443839424533452F7468756D626E61696C2F302F636F72652E786D6C8550CB6E833010FC15B47783311093C8384A5BF1053DF56619
311
87580936F2A3EAE7D70E546A4F3DED6A76667677D8F96B79149FCA796DCD007589A15046DA499B798018AEA887E2CC99B336FCA24161C4A206C83070363B1BD71D92D60465326AECA4765078AF0214F2919A01BCBCA945942286C4F0F77215F22E6655D6E5C6E32C463DED523D25377DD5CA01A717F2721C7B82E8B17F432D
311
A5077421A441989071C4DD2B6D9B965559CC59D0CBCF76E994086A024E70DD237C4084BED7E4D4D153873F5895999CF9E0D2CFFBD2FC1D70CCAA0DFDE316D7E97FB7A84D68C8EEB6293CF03A1DF71C7056E574527946976A4E927F03504B03041400060808003967DB4CE27A1881FA00000096010000660000004637374130
311
4246372D413346322D343446442D383342412D3142464236363346433530312F5265736F75726365732F41394244364636332D334531352D344336432D384131332D3437414633443839424533452F7468756D626E61696C2F636F72652E786D6C8550416E833010FC0ADABBC1188849641C25AD78414FBDB9D82156C046D8
311
AEFAFCDA814AEDA9A75DCDCECCEE0E3B7FCD53F6A956A7ADE9A0CC3164CA0C566A337610FC0DB5909D395BADF5BF68901931AB0E120C9C8DAB0DCB0E0DD67865126AAC543B289C531EB2618A4D076EB8AB59E422F8C8708F7C11C3438C2A2FF38DC759085AEE522DA39BBE69B502A717723DF62D41F4D8BEA29AD203BA1052
311
214C48DFE3E685D655CD8A24E6CCEBF967FBB02AE195044E70D9227C4084BE95E4D4D05383DF5991989C39BFC69FF7A5E93BE0FE1EE60F23F4C48A6DFAC7352CF27FD7A08DAFC8EEBA291CF0321EF91C7056A494627946186B4A947F03504B03041400060808003967DB4CA127049F0E010000B10100005C00000046373741
311
304246372D413346322D343446442D383342412D3142464236363346433530312F5265736F75726365732F41394244364636332D334531352D344336432D384131332D3437414633443839424533452F636F72652E786D6C8590CD6EC32010845FC5DA3BB601DBD81126727EFC043DF5866C92A2C41019A8FAF885C495DA53
311
4F8B86193E76F8FE6BB9679F6A75DA9A1E705E42A6CC64676DAE3D047F412D647BC1576BFD2F1B64462EAA872483E0D7D586C7264DD67865926AECAC36513AA73C64D33D1E7A70D3875A642E838F0E77CB1F72BAC9ABCA71FEF2091E829EB7A89EE36BFAA2D50A820DE4D08D2D41AC6B4FA862AC4103211495848C63591F59
311
452B5EA4B0E05E2F3FF46955D2AB190429718BCA0611F686C9AE66BBBA7CE745720AEEFC1A77DEA0693B10437738356343113DE31A55C7E688DA01D3081E467A6ABBC3999E79F10AFE0186C7FC3F3068E329D980AF840381E3FF9F178217A9C0389EEDC699CA16DF504B03041400060808003967DB4C16E84EDEFA00000096
311
0100003700000046373741304246372D413346322D343446442D383342412D3142464236363346433530312F5265736F75726365732F636F72652E786D6C8550CB4EC33010FC9568EFCEC369EBB4725C15503F0071E266D9DB60B5B12B3F109F8FDD04094E9C76353B33BB3BFCF835DFAA4FF4C1383B4257B750A1554E1B3B
311
8D90E2850C501D05F7CEC55F34A8AC9C71840283E09377E9BE42CAD988B6A0D6695C41190246A8D42D372304F581B3AC658A9911AEF55DAAAB9CB0EEEA8527784A46AF52A3B39BB918F420D8893EEDCF03256C3FBC900D633B72A2B4272DA5E773BB7D669B7EC39B22163C9AF967BBF228236A10B4ED06D2EE08656F1D3D6C
311
D961DBBEF3A630050FD1E79FD7A5E53B10AF185CF20A036F96E91FD774D7FFBB2663634F57D745114074F9C8C740F0A6A494CB23C25C4BA2E21B504B03041400060808003967DB4C78D0EDA8F7000000940100003500000046373741304246372D413346322D343446442D383342412D3142464236363346433530312F5363
311
68656D61732F636F72652E786D6C8550CB6EC32010FC156BEFF881EDE04498286DE51F684FBD21202E4A0C168FAA9F5F705CA93DF5B4ABD999D9DDA1E7AFE55E7C2AE7B5352334650D8532C24A6DE61162B8A2018A33A3CEDAF08B0685E18B1A21C3C0E8EC6C5C7748581394C9A8B152ED20F75E0528C43D352378F1A1165E
311
F21812C3DFCA958B1B9F55D9940F1EA3316AB94BB54C6EFAAA9503462EF8E9380D1891E3F0823A420EE882718B6A8CA7A9EE9F49D776B4CA6246835E7EB60BA778501218AE9B01D50784C95B834F3D39F5F53BAD3293511F5CFA795F9ABF03F6BADDE969F598FDF18CABFCDF336A135ABC7B3E141E58934EDC068C5639A354
311
B60053CD79B26F504B03041400060808003967DB4CE9CDD79B04010000D80100002D00000046373741304246372D413346322D343446442D383342412D3142464236363346433530312F636F72652E786D6C9551CB6E833010FC15B4770386F050641C412B7F414FBDB97843AD041B6153F5F36B072AB5B7F6B4D678667767
311
965D3EE77BF281ABD3D67440D31C1234A355DA4C1D6CFE4A5A482E9CADD6FA1F34488C9CB183080367D36AB7E580466B3C9A881AABF000A573E82119EFE1D1811BDF7196A9DC7C60B85BBAC8F126274C69BAF338F37AFE968E2B4A8F0A7891D396E435299A175A9CABE65CE5AF2C8B4CCE366D7C591CC3707E4395D8C5074B
311
C0AB9265FB77A06D5A1D24ADC292FAAA71052E9AA6CF07D190BE1405399DC43369CBA1277410435D97E2A9CA696812C49C39BF86688E263184BFCA77E12F6BDBA2FE696D5738E0719F8767CEB29873288F23841A6FC2BF00504B03041400060808003967DB4C84BC234D07010000B201000008000000636F72652E786D6C8D
311
50C16E842014FC15F2EE28A22EEE06D96CDBF8053DF54685B564158CE0A6FDFBC26A93F6D6D32333F3DE0CC3CF9FD388EE7AF1C6D9168A8C00D2B677CAD8A185355C7103E82CF8E25CF8250364E5A45B4830083E2C6E9D77A87736689B50EB94DE41E9BD0E80FA313E5AF0FD879E6426D71015FE96CDB2BFC9416745B6E904
311
0F66FA59ED172D83562028291A4C0E98B2D7829E6A76AAC91BCF9352F075356AB7322ABA9BABD10B0876A14FC7AEA1981D9B175C3176C0174A4B4C28ED3A523FB3AAAC789E9605F761897FDE8FC49C0179794FBE3CDF28C1DF9D1B77410CA590B3E31708C2F344FC09BDCEEA1FA18D0D25DD0F6E1B1E4411033D88689C1A8C
311
E3516F9CA96DF10D504B010214001400060808003967DB4C77A13642F7000000A80100004F000000000000000000000000000000000046373741304246372D413346322D343446442D383342412D3142464236363346433530312F4173736574446174612F446566696E6974696F6E4974657261746F7250726F7065727469
311
65732E62696E504B010214001400060808003967DB4C25E08B97EB0000003002000045000000000000000000000000006401000046373741304246372D413346322D343446442D383342412D3142464236363346433530312F4173736574446174612F496E7374616E636550726F706572746965732E62696E504B01021400
311
1400060808003967DB4C88E57597CD3F0000904100006B00000000000000000000000000B202000046373741304246372D413346322D343446442D383342412D3142464236363346433530312F5265736F75726365732F41394244364636332D334531352D344336432D384131332D3437414633443839424533452F746875
311
6D626E61696C2F302F67656E657269635F706E67504B010214001400060808003967DB4C28BB58AF800100009E0500003D000000000000000000000000000843000046373741304246372D413346322D343446442D383342412D3142464236363346433530312F536368656D61732F436F6D6D6F6E536368656D612E786D6C
311
504B010214001400060808003967DB4C670136ADA9040000B41400003E00000000000000000000000000E344000046373741304246372D413346322D343446442D383342412D3142464236363346433530312F536368656D61732F47656E65726963536368656D612E786D6C504B010214001400060808003967DB4C8DFFFC
311
99640100009B0300004500000000000000000000000000E849000046373741304246372D413346322D343446442D383342412D3142464236363346433530312F536368656D61732F52656E6465724D6174657269616C536368656D612E786D6C504B010214001400060808003967DB4C6C95E24A5100000057000000470000
311
0000000000000000000000AF4B000046373741304246372D413346322D343446442D383342412D3142464236363346433530312F4173736574446174612F41737365745461626C654F66436F6E74656E74732E62696E504B010214001400060808003967DB4CC55C6636560000006800000045000000000000000000000000
311
00654C000046373741304246372D413346322D343446442D383342412D3142464236363346433530312F4173736574446174612F53747265616D56657273696F6E5461626C652E696E66504B010214001400060808003967DB4C2D1DBF8637010000A204000036000000000000000000000000001E4D000046373741304246
311
372D413346322D343446442D383342412D3142464236363346433530312F4173736574446174612F636E782E786D6C504B010214001400060808003967DB4C2F4107BBE7000000600100006700000000000000000000000000A94E000046373741304246372D413346322D343446442D383342412D31424642363633464335
311
30312F5265736F75726365732F41394244364636332D334531352D344336432D384131332D3437414633443839424533452F7468756D626E61696C2F302F636E782E786D6C504B010214001400060808003967DB4CA233C2345D0000008000000065000000000000000000000000001550000046373741304246372D413346
311
322D343446442D383342412D3142464236363346433530312F5265736F75726365732F41394244364636332D334531352D344336432D384131332D3437414633443839424533452F7468756D626E61696C2F636E782E786D6C504B010214001400060808003967DB4CBE89762363000000880000005B000000000000000000
311
00000000F550000046373741304246372D413346322D343446442D383342412D3142464236363346433530312F5265736F75726365732F41394244364636332D334531352D344336432D384131332D3437414633443839424533452F636E782E786D6C504B010214001400060808003967DB4CA9F4C9C07F000000A3000000
311
3600000000000000000000000000D151000046373741304246372D413346322D343446442D383342412D3142464236363346433530312F5265736F75726365732F636E782E786D6C504B010214001400060808003967DB4C07AD77CE0C010000550300003400000000000000000000000000A452000046373741304246372D
311
413346322D343446442D383342412D3142464236363346433530312F536368656D61732F636E782E786D6C504B010214001400060808003967DB4CE3603EBE7A000000C20000002C000000000000000000000000000254000046373741304246372D413346322D343446442D383342412D3142464236363346433530312F63
311
6E782E786D6C504B010214001400060808003967DB4CF1B712137E000000A30000000700000000000000000000000000C6540000636E782E786D6C504B010214001400060808003967DB4CCA1DF9C9A9000000730100001300000000000000000000000000695500005B436F6E74656E745F54797065735D2E786D6C504B01
311
0214001400060808003967DB4C3DEE336E64000000790000001B00000000000000000000000000435600006175746F6465736B2D64657369676E2D7061636B6167652E786D6C504B010214001400060808003967DB4C82B42983F9000000960100003700000000000000000000000000E056000046373741304246372D4133
311
46322D343446442D383342412D3142464236363346433530312F4173736574446174612F636F72652E786D6C504B010214001400060808003967DB4CF92247DDF40000008E01000068000000000000000000000000002E58000046373741304246372D413346322D343446442D383342412D3142464236363346433530312F
311
5265736F75726365732F41394244364636332D334531352D344336432D384131332D3437414633443839424533452F7468756D626E61696C2F302F636F72652E786D6C504B010214001400060808003967DB4CE27A1881FA000000960100006600000000000000000000000000A859000046373741304246372D413346322D
311
343446442D383342412D3142464236363346433530312F5265736F75726365732F41394244364636332D334531352D344336432D384131332D3437414633443839424533452F7468756D626E61696C2F636F72652E786D6C504B010214001400060808003967DB4CA127049F0E010000B10100005C00000000000000000000
311
000000265B000046373741304246372D413346322D343446442D383342412D3142464236363346433530312F5265736F75726365732F41394244364636332D334531352D344336432D384131332D3437414633443839424533452F636F72652E786D6C504B010214001400060808003967DB4C16E84EDEFA00000096010000
311
3700000000000000000000000000AE5C000046373741304246372D413346322D343446442D383342412D3142464236363346433530312F5265736F75726365732F636F72652E786D6C504B010214001400060808003967DB4C78D0EDA8F7000000940100003500000000000000000000000000FD5D00004637374130424637
311
2D413346322D343446442D383342412D3142464236363346433530312F536368656D61732F636F72652E786D6C504B010214001400060808003967DB4CE9CDD79B04010000D80100002D00000000000000000000000000475F000046373741304246372D413346322D343446442D383342412D314246423636334643353031
311
2F636F72652E786D6C504B010214001400060808003967DB4C84BC234D07010000B2010000080000000000000000000000000096600000636F72652E786D6C504B0506000000001A001A00210B0000C36100000000
310
504B03041400060808003967DB4C000000000000000000000000370000006662782F39313342343946372D323142382D344337442D413045302D3643453136314333353346442F617474726962757465732E62696E504B03041400060808003967DB4C000000000000000000000000350000006662782F3931334234394637
310
2D323142382D344337442D413045302D3643453136314333353346442F76657274696365732E62696E504B03041400060808003967DB4CF270F1330600000004000000360000006662782F39313342343946372D323142382D344337442D413045302D3643453136314333353346442F747269616E676C65732E62696E6366
310
60600000504B03041400060808003967DB4C88E57597CD3F000090410000420000006662782F39313342343946372D323142382D344337442D413045302D3643453136314333353346442F7265736F75726365732F322F305F67656E657269632E706E67355B773CD4FF1FBF73E71C0E67EF7576C9DEF3EC995D46C6A1EC50
310
46649CBDF79E192942562825CE965D8A868C2842C8DE9FDFD1F7E7F138F7078FCF6B3F5FCFD7EBFDFEC41B196891913091804020321D6D7513FC77D8C5070EC3FFEE51B21F068154CC75D455CC028A3EA68992803810109FDDE5D5CEC5521B28A1B422BF80741695D5B529DA1C2D058AD2388BDA9F476F7C2CADC939304173
310
DBF48A452BF8A700C0C70C3D121C1AA15A5270C22E2B9E28763651F7DA0D12CE11077B2ECD0D560B5E3DE2368B1E65C5E1C87384A4CC5F2D9FB8BE39E9B77C753783A37998F5CEF1B4FEE553463245C9712270880DF339E0B882A6BA713D865F6F384C842D440934EF264F4A304F8DE4EEFA1E2BF5E2D91F5ADD9613D6E31D
310
DB33ED31DB1D7916CAF091286EA3D31B9CFECB78BB0060245B943C4C040119FF780A74DD308BA9D028678674EB5504ECF284EE814DAED07440BAF649BE4B55DA2890F4D73E2D489A59EE54FDB0A85B59F2F52C4858A02705C4815A792B0C4A996A2023ECB195073E115E3E3647F64243A8338F2000BCB58DA5692C7E7C3D41
310
3F963FEDF3CF00FBB0F831A9D51360FECA43819F527B89FA260EB63C5DA676830AA3626A3693B23F1A17A0DFFCE3EE164E31B5365EDF0C89EF64D8E38AB0BA9A1117D7C3A0EC44F44F4023095E80BA610DE336D0F99593A88BFC5306E72DF98F7FD132ED95878DF2964EA7E43071359FD83B2BDF9C6B5BDF768F0F3C0FC351
310
199526F53D9460A34511F75D1B63E488178569472C91A94497807A3FD4A390C6558F26D416365C3656DE6E769DA9D8FC73774E1709812842DD8EF96AED1960F79D21B395CDDFE6F92CB4EB962A4668C76990E2EF29798C8941D67DA50F4A5F947872460F1F6FDB794E8A29FD7AC0C0D6E0714339CE258FB17AE8535221E346
310
4A10F29A0BE5EEECEFC5675926A89F49EB14E5711894F6586DB5754EB4D5DA9C6437EBA57DB97A24F8B8A8DB295FFD73266CF57E82694DF5166DDF93573AFE9C9C5EB05F8FEF8E89E0A8917B0B3724DB7BEBB53252581EFC3E38166BA131A3A5B42FE2AD00A769BBFA4458D2DE7822F8C4F63D0B8E21B285AE13325F3410A4
310
35C648C9D91FDEB109E73CEDA7BC796961AF79175E1A3CE4C5E8B0D009B0C9E29EFD98BC8E97554E3D8D838424E270F7685226E5AC268E021EDE3522D583E8F20C0BDE2959EF5BBFEEDAB32FE9A3ED0E39F211A86AA9DEBFC68182EDED132AB8BB794442D2D7EA9F4D8BFF52BC4D55BB165124EE90A42D101E67BBBB292FFB
310
4F66DE5BF2300E44546757DA7CEF8932BFC9F92A0707953491A55C5A5ACEDABD9FA1AEA01BAC3DC5A24E22E7C47213493996EFBC369D086ED9397C9BA6C7F9855C7BD5E15BFC8C53DB3D2A4C5901A57ACD2FBDF4D1676E95338B2C2BCE65FDA4C64F5FEFDC7D9CA5AA1FCF11E193F2FDABF0F4916BF13FB916A224380E6462
310
A9815F2300DC49CC4DF8D055CEF76462F4B7A7ACA7365C2707891370BC1D0AA6203C44CCAB47084FEC057F27FFCD57F89B8B9852459798A675C66BD7CE572CAF71FF7E6D7ECF7BF62CAB7B3F1107DCD04DC55A3F9961700286141C94A4F771FEB2BCDA2DDEE0CB0BAE402FF1DB0100F8E475DFFFC074DDB4498AB7D186A765
310
4DDB1CB680D703D47CEB4E72F8CB13D86A4AA68116E26387B93FD6738779B34FEDB8E517EDF2BAF28D9BE93A1D3A164320E07D42E514725C29515FF361754213EDE06B079A2E99EB1CA82A02019EADEEB87B9AF005BD04BBCECB14AACD6B24EFBE482194A97DD32400685FF1FEF1544D1B14EFB1E7F08E6D2CD2AF52DE757F
310
35F5E62332EE88EA26417AD5C3E0E319D68F25414E6D672BD4522B278C57D18F0113921C71D96527E091F00CEB15AE23D24667369BD3CEFA10C7549D930890BA4366F4EBC55F01F746109F98ABCDD5A3EE06619C6AD78AB33E48E4C9BD21BF7478B385EC05C4F8987E2C1BFA0A60EBEDAA0AE0B015C2720ECE180FB6F2DEFB
310
EB822D96338C9B63822183BBF52FB664A7AE57003AABCE512BF77E7E31BDA2E739AC4C131657DDFE5225E900FB56CC01CDE808FA4A9C9DA16AC679656BB64796283D89812B8F91136AE18EE5EBBAF47A73BE3C153EB5D4CD491B4BFB4FE690A4CF9ABA08C0D8AA64220C438C96EA6CA80B58FE5761E697B3A292EB9FBDA502
310
FA863E49FE694ADDFFF9D62C520BDD1A22014147A0903A05B9B729F54272EF83931FEEC057BFF8C8055C279EAC5C0011804828734024F6CFA319C9CC6867C727184465CD9BB7ED386AFFD96B294A85E3802FAE47244602D8273615952B98C4F23F7EAE4463D9D638EEE374A20959E0FE519C4CFB0FBFE5DD80C2AA3F9DB961
310
D1BDE57E67C9BB47B77FDD74EE3094F5DBBE3EBC1FBDB7393F5116263009E2EFE1AF9A221B2AE234C902BF70E9F280ED23E73908361565964333A3F01D0B006AF32FB21AA1316744B489D5A198E85299241735BE559675130955C902A8ED761FC0DBE337A9F91919AF5CE32AF902ADF9AB2615E00E8A94586BA1A90839B618
310
32FF1BFB76D2EFADE6DB1BA04CCAD3DA649E7E2A0219F592E22F2AD54847EEA8E42271011E9074F8F3DD9FBA6CDF88FFC9FC7E811AD1CA8F4557CE4AFC7BBEDCF0114A48689F20A584520C74DA8127124B767E2FB91A6B186246727BE63C9445BAE02088D58B8EFDC0F1072407CD9B89A13F6303B4A928F593AD489B58E686
310
9325790ADC406036C591729FE14021F94B7796BB11848D463536A092A26F077F94639F7CEEE2A724C66EC885F4A24F8B8A0AC321F8FD149BA529460FAA34E4663C02D41FDF80BCA222D42F0ABFF8490F4FA74C673807C2051D8E467B47B616072860069A9A303ABA9B319D58404461401B0A0F9BE5E1E151C14BC33B32ABE0
310
3DDE91708DFAEB15E7C0D593C86BB7D7EC17BE56E57975F077BFD5525F3A1A361D584A75E08CF29FC7B44B2B3085014F3A5A14517377C3F6B8F37E59514C3B12F8AACDEDDA4DFC49BE5710101534CD6FB6DE15B50F11A09472AABA727F0C49D9CB906B158030065F48EB3625E010CEC1D511D0053474B11E6A4F01C0D6EF1B
310
ED3A944FDEC70E0DDCDC756C86545910E0DAE3BE3AA9A404574C2995CD5CAF9549226BC94B4F4F0F5F9086F418F6B32346464610D8BC7391D3C3A3CCF04CFC1FB2A3A3170E369511868F14EEA4E5E438CC73DB1F3248AA94B6B2FF33B222FF3D1E7BF146CAD229770158063BCE4F5391964DF62F7E52A7BE0EEA829C9E13C4
310
C147D6F93FE59E111DAB5E4594D6F3CD1AD375EE039930EFE5AF2BB2D41C83C7DABD8C659BAFBE8FAB392CA634F3D15C1D945DB4588D2B0824A4EC928AAC565557CA2F0DAA588CA5BE30B3A8004F7BF005E96CBF891D7F18112A3619FDF530DC8AA64954258E1811789B5189B49B4EB53F5F89F7D37523894F3EB57B373763
310
C91E502F52CC99EB7BDDF933FC324C4FFC2561DFFA7339FAFDD0A4BFBE6D3A8FF9ED1FC49898139864602458968913181918F719CCF5A68B2EE9C1FF050E34E63107003B8120FA982C21B30A874E4F5E4B38D5A8290C4B8D9BE48A0BE31EA995BDC37AC6DE90BA17D259DEF53605D55922FEB1855D915B659FBEB350EE0DFB
310
2F9F766E1C84CC8964B75D08667445EAB966015F63A18A9E0A325C1B3DC628C0D3CB60F767FA93CC65F25458BD23C3B312716E5F40E5858AC06EBA9AB14F95DB99147B832069201541D09A0D856E12C629CF32683760EE855537D1901988D5EBC156676C7DD51D7207CF3267AF1D76C2AD867315E44618015313A98B19941C
310
696FED3461CAA9B5415F918556D7802EDACEFD6B2E45853A9735DFC9DBF7E440F9319F8B6805A973BCCDC76C069A9144E51F187EDCC12FC31B5DEAAF0A76137199B106EC84ADA6B6EE697D4E6A96E007417F4E880E8B1E89B4BCE9D81EF611E2ED8F0C1A6C25F620FAFAAB656A7C42D464880E8AFAB0E0FC8EA38CA9A8AEEA
310
EE3E4648BA4680270A89743CDD3E6C6CBF34B7B640EFA285ABC7EA0A1E28F3CC963D114A80123EE66D0AF7D5380EB41909B605AB4765B709B808590458157E69BA1378FEC4B48CAF6A730E3BE3C5EF2DD1A5EAF94B1DDE50CEB55DDFD7EE9A16747FA4B223359FB1FCC69E1194892BABB93A1D5C4E807AC0EA2E30180811E7
310
7A2291F6E7F7FAA5E0F60215BC6024E48DE436C511F0628B8CA189982D4D83CCA17D305A7E923C37941CFDFDCD93ACAF735EF5F0E61BBD3E6C41A59B242790D3A3BAC7064DCD89AA2E37214EC839820949D5CAA31E240D2948E48F690298974A96BA9A8432BC90F5071D6537C9666EA4564796B7AFFFA548077BEEA75F6308
310
3435074BA182F3699557397F71548383FDA8CA34D99B981E72835ECDA5DDDC151315173D05A21F651AAF8524E88209E2E7A737ED1045800CE3390050BCFB8BE588DF111617874C62575039CA588EEFDEFEFE319B739DE2EDC147092A262611E159650E787917885EF08F1F51B8F2D8A71D60B58B190FEF9541A1BE94BC19FE
310
A50784DA1419FE4B0FB51B8D36B5FF8E1286FD8AF42B91E59A5F1CC4D60174E764045FD8C57B18209B217F89A62252BD20BE0E63E12B8E8F029FE19E0E8D0870F58721A557082250D5424F7909369376E41666C0EE77CD87CB283F661D5FB6D0DA023CB67320A20DC7BE661E9E1BFE5463085C557DA1FF9BE835733766C3D1
310
39F2CF9E2208873AD0EB4814DE9E6BF2CAF81614D4D43906ED1C05A3265CABBFE192770FC2F64F940CB6B17B5F166F133C9AEEAD2641807C3E69515171DD74C4A85311513D6EC9530B3B601B6BA3EBFF3B5C3D2F7D69765141E345F75433953D013ADDF8F6AA7DC3F4A7563FE5C7D367937E2900D7EAD0F9FC9A4A1A9B5BDF
310
1FEF08532660C01C5D6DE22199AA774383E306DAB87E301ABB7D213887F9869D4942D0D71E94B27EDF216A318BD488D45DF84529EF575AF3C3938C0AAA0215B01994153E2054A0B894DA5C784980633AAD48576957CF4AEAEAFADC7C587368551C73DBE1E57C58AC713303A8BFC258BD04B51724459FF9E24C03A81E0E0679
310
CEB9B348C0DC998FEB9C6D6EFA77D247CC8F92D3848599ED89A23218D0636465AD1CEEB7DC140D7426F83491C4E8E8281C2FB35240918FFECE880CA2A42D70E8B20B34DF5221C7DB0CF90ECCB9C745B37A47E9B716FF7A97B7A252C1F3814DC7B1E1A7F72B8751D524EF7CAE45B0C73B3BE7D08ED39781B380DDFC9AA4A474
310
9C9493DB5BAD07A6EA6C092FBD0E85DB004DF06B8C9D3089C5320187E4CE1846158C7EA7DDAE8AD9AFFF21AA3A1026BB06A259845E8232DEE62811A4DA9CEAB3A4887320B76E2AE5615EAB7BDF738CBDD01F1E64064BC13D9EC53576751CA8CACD58B3CEB0E6CA585BD089B2A59B9FC101403387AADBDBE70586B93D64BF3A
310
D4453EF9C3B6A93817E8346991798601344F79A83C51F3D50F7BF2683A3605F51A72449489E0EE6169C749C60B1035651103AEE24D24E51A759C840DD3FC6504DA6FE107510E447B43461C79D22970B75DE5E1BD3007D1AFC619A4A4A69B5626AF5E9B8374E20677F77E2F8E73DF868E8BEC7EBA7B6A75EEF7205E1AB9486C
310
B642741D6E03FF13FCCEDB1C4AC129886268B01CDF4B124AF797CF784F3C6DEC97A17D4B558070A0F1C04DA4FF9BDBF34159AEFE958479824B3F58EBD1E19088A2AFDE501B6F2052368A3FD0E650A179EFAB1561E1D27527077136E652676C3670F42DCB3352F48F6BC86D2C3B0051727E41A0A4DC6CE2BE9D47F5CAA2935A
310
3C0539AF080665997194ABECD723B08129CC5B6B21D2E7D54CD4D12610E7E9FB8306771A89576C7A982002775ED44F3F744CF21EEBB27A631671D921938AAEE3EB0D19CD1E083727F607823E817BF599DCED5394E37EEBC2E88782E638920CA641EF74D4CDFCDEF06F4278ECB18E31E7E9876F2D783C8BF429C75395F57E98
310
C2B495A3DA077EB3AC3C158608B6B57FE3EA48484D9A480096FCEE0DE880950E7E5A5714131C5C41AAA29FD19AE81AC145FA1B9E85C7169A5AB837B213493DF7E9AA4B5FBF9CDEB36EBD21EF1181B7CF7366AB2A951D01E37AF4EB835D1BE8C117CFBE7625D2EBCDB0B20C5A4B45CED0BCDE3EE8DA9DA78C2E21DEAAFFD119
310
7E463C33CC6A80FB785669B856EFF7A8CCCA2841B5A5369173320B1170C368B2748D81062EA0296E5E2D95D7667A4A46D98A6FF475C76AAB0A8C8D45E226FAFC9FE0133EA9F60111F99CA81ACE03A1D14C89E8B0D69079C91464FA1D99E651D0EAF606F345C42A8A1AA9BA391031582B96D5B4176A77AADB01F12FD298A75D
310
EEBB2C82F0B8650E880722F8DDD90C56A7A058E5FDEF1AC93545BA27367C76F5D8F9690CB6F8DAE141EDD7971F0FB548A2AE435F224D6E5954CA155512F7332029D5A1230854B79F258EC5FFDB09F5F6343A8EB193229B7F7E79B3E48F8E183860B38C8269D1B53738FF1E0BACF6AADA6D4869E9DE708E79B5DADCC09B1BC7
310
6F649731CFAF59A83FD8BAE4C749D66FA87A3810D4D62FFE826FA400C0F325D2BC0F3CA35F5847B82A2ACC7961745C823E4D863D54460AF792CE6F79B5C7A33B25C3AEA6CDE15A919B6367D781E9D44F61BF828672594A3E1D9EDD6DF179A81F27EAC05B936575D73E05C209DDD2115CFB705DF9BBF3C911589B3640735E9E
310
618FC9C36A7326C82B2205E244C55D56FDB9D5DC93CE958D4BF8174D2B3DA54CB3C09F2C2A6DFF73D23B2197355761AD421EC581284A7EF8DE2CE3497C0C804D49B41DFD6A7360844E5BEFFB495CFCDB97A4595911CDBA623274CE852B5E278AF0BEB1770E9D37CD977B2766A7DED0E94B840E1E95E8C77DE5CB6354AF7871
310
427C28ADBEEF7BA0A28E19DE9ACD75F379FE373EAE6DDDAE3834692F9C2B03B4FCA8FCA9ABE8EEEBEBB725B88A7C90941E850682CA04061A7DF0CE82ED49BFAFFD42C309818FAE14755CAAE78B0F73243ECCCAD7DF58FCB9CDFAE7A4D3E6671A613639130D056C8383C8F4FCF4808C331E544DD26E4755D09EA05253B3049A
310
1E32587CC25D72E073E2CD96D04A71BBCB0038FEC3F53D254199C3CDC67CD66640269431860225392B2CB3ECD0B4498AAE78BA1994246AE1EE78F2EDFB79F6C6CB6B5E279C4D373FBC21CB2698C9ACBBEB6A4BB6B39E16AB0E421CCBFC7654D81ED86022F9BB522146F9F4772E2D0E4FA70120C95A85A417BF5078B232F475
310
4363EB1750B2AC2148EB46B1EA72AD9B4D23ADCBC589D70106C3EC2ABEEED84DFE28E718C6C83502C28E9FDD3B09DA0A6F6F7B72B706A31C9E2A331EE70DA56A083D2177BFD63C55B11D8D949FAFCF90B23A1E24B9B5018B9A17E99F2890EC302F330FE7936E2C23F0D237EC8916F5166AB84B62A21BB0B950146962D754F9
310
2CC2C8877BED8FC7B7B25726DD19545392570B3A2C66B58F027BEF412E552D12A588C4A3CC5C3193FCB3485EFFF700D0B9EEC077754A33DC1FB9E25AF814628F91DDFECB667D3F7690803F38D13F8AE39353523BB08FC6760144AFA2CE28236F65EDBB3D5F59A57D612B99E3D7E5F8A851666BF9B5A6658EFC96EEB37A378A
310
BB0EB3FDDF1303AF32C41BD1C8560745D7BD81066B0D6313359CF488563D3BA3F8E2185D1FAA3EBA1397C9D0E3DD232180A4DCADB6AF25DB3AC3CC26589C8239E66E81547BC7E2F328F9884764CA37EB5DBE390DFC03A5246B456A7C3684C4377D0EEF9A350680FA9A077E8B2957B489E09AB1AD41316944C2254B5984830F
310
691C93CAA767EECF976FA5647538830B5E63236A6F0365C1E0F3E327F24FE35EDDBD7360B0F7374837409F7A6311BECC12B7026D4FA1AE204FA3F5FE904B1F420C7A9044AE58E403E7C4848E7DA25DC9EDAC79DD756FAA26B9EA83ACE8A214A2612A22AFA19DAE7DBAC5F8CDE1292A485F98DAC731A29FE01A3966E96BCB9F
310
B5A4C8830E1B9AF0C54B87FBE221A097036E5D28D1F869F810C06A9BB0AC0612F69AEBAF893C6E7AD59460208BAB3A6B09CA4F6BDDAB8CF0D1F84B72487498395A70DCD754796E271099A567A55CF242BBED64696378BB6CF25EF0FCDB589F3A82F1116D010A9AB9FA4358809EE0C973A2B4229BAA876A70B03AB49CBA7FBE
310
71DB1832FFD32F9BF2C8E98075CACAFB36921235D0F552B6A67E94E094097A5D7DF681B40623DA535ADA7A9AD8E9A62407D7C9A5AE51D62A17A83A23728DE86BB56115804D3F2675F2C6B87541A0FC497BF0CA86420F558C9859EBE9FAD62747E323E3AADC03FDCDDFE7407B09DA90B44E3185723C5381EAEF589765E2F7A0
310
99BA46695BAD60CEF3491B8A171F5F56444F7CE9455312C3498C74173AEA0214EC029833B34B650CBB5A5508D5091665309642791708ECF27CF11DB3D797D6CFE474453BD4BFADB768094B2147814D81C7CBAF8228DCAF5564B5891F5EF6A860EB2E323CB82AB868D8EA048880D63B0DE5341F1B3D53297B928A11E15F25E5
310
148990F710747C3509ED14909C552EBE3973246FCE55D00564D8310BC3EBC5085D08D806799B77D6C57FDF5E55837F9E934F09C03C729271B64F12D0A9F9E938107CAF7BF1EC8CF1BB9B42363D33070F4CACB425E605DDB0A34A12BB936DE286B9887A4E2E558F0886498BFF49C311D96C277CF6A9FC0D75AD0ECC5226D7E0
310
E3572012E56D7FDE4410CEC7A6D0F997F225A2055B8B92E3956E875AE4993CB3D4C9063AF98FD45E1BAB165640A43439A2C9181A7C355B297C0A0CCFFAE19B6FA3C2BA238A885FBC98B8F6DAF4B94B97304878DF4D8BFF6A4AEDF79E90ED4E68F00CD7299F4E0D83E35601AF0CBEF18C1E870E74758FA91F5131075004DB3C
310
FCF09AE1DABC11957FD9808C92E8A678CE9DBE40DDA0E0D1D505AAFBCBA208232BFB6FB3704E8985E61ADE53DE74152F5C7DE74B1DEDCD37DC3E8FB30D7EBA8B9EFFC3606BF90B8D438279CB7709FC7C00D327F41817EEA71CD9E49FE9C8C9A81C70915D9F0F15958EC5AA4C3BBFAF46986B90F188BDB24B89DE3C6F29EC3E
310
6F66D84856EE96A35E657CA41B41EFD8DBFA16AD6E91439EA92B40B21C053249F51AE50EB0B24C770FFAF40DF12C8436366819C48E36547D4E7B72FE2BBF10828583057814A668BDF183F6B2E58DFB151103E56303E63D00F39C27C4661605DB644D19175D02E3F0241E8FC3458D17AAAADB117CE9EEA690D0DB01E634878C
310
04C2C9310B69FCAB831151E3AD293BEF6E46B0ABCECB50F5939B39C613D41E81FAE8D34CAE3C4566B761D37185FE864AC32FCB71AEF39DAA5BAB88609BB980CD2F07A8F941653B529567726E2B2A58D079DD57E1E5E31426CF184A04D7B03B985F276D47406AF276FE32E3328BA866EB1FD39BEF57863A317634AA5FE46740
310
9B3873F5069EF0D71AF00AD189D17BA1974ECDB2D623E9E14086386A6AAB5807825C37B015BFE892AFD154920EC437EB945D958E18622E1E0FE2FA06557CE4BB9BBD05A2D40E774DA2B65473791E314B7D6C886820B2FCFE4AA272B3B8B15E7344A145E8AF919B5454D89D36D413E87211186BF6F645E5EC94DCCE8E1C7990
310
22E4EC9BC86D7A0F2AFB1FC4B2CE48F84B3F49ECE65BAD24CADCC07EFF39AB06BE9E6B27A059938EA7208838455383DDBCFCD967DDE4650EF92A14FF933C975DB20BD7FEEBC4487576485963D757D16340D9599FEB362F775F38CA4185A86F74B629C81B133644A3B18FD056E997E0734F9BE26D11C0AAFC669E2AC9FC41D2
310
81F8B2E1C35AE27BCE05F3DA295488096688719D974DF1B5D182DB7792288697F8763CFB43562C1CDEE11C4AABD5C22B6E33F6F389CFC3477C5919DC0D533F8A7A1846B7ADB60ABDC26C43D0CFC8910B7C15EE22675BD02702ED39DB77A87A192CA7A543E6205B979B9F5A6B512A3CA799E198B2D5797C0AF8D1D872CA455D
310
4D431A7879D4DD76110B5FF7F4176B54477A9EB5E4A5D11214FDA585F0382751D8E2582BA5D2075053298FEB8F1537304E32CB22C2E2B693DC0A760B1DFCA751BDC445AFDCBB12820ED85F6D5298933C7EF1211E9E057684056CDA3FEF3BB6052355E162DF27C59E965A8DDB7F9437EB72CDDA3A090DE65A5B2F50326247B7
310
EC67B73ACC7047FC9B353D6EE990F772207C6EC52B39DC2F3C0754821DAB559F7C1809C7D0DD5B0499D0442E0A6E391B3D5DB46D11E731E6794EC77523FBDAA242ED67F9FA1FB684255671F63C9BCFE6E7E896D51001A6113EF2298BA494E0B0980D1FA5B9D60796554C02256B1E0345FB7C6186B6A19D2DCA270416262845
310
FA4F42DB5D9B0A0B6F07FCA2E56C242522E001E0CEB734AF310FC8BFB57E38E03AACE93B3326A2197891E68452B26A6307FDABFEE0223D3C03C3C73D2D5BC054C8311F12004CAE488E5C29287F8156A2CAA4AD0D7BE6B97264E4139F437CE73ADF52E5134C52B819777C18B323A5924E4F67AFD13B1CDC3A61793A79FAF5C0
310
CEB718E441071E797C6DCCB9EFCF7E4A1E9F3DF3C2F9C9E8294E9586868788C972857FB0556D7A26941A7EEB9B580AD78EC40B85DC906B4120A563CA3B87797ED612D3B035962BB75F6515A393F4CB057F564CDF54F2E5A024514E6A1F901DB80C7E70B1FC05E356A7E72FABF4775B3E3FB8F70A2A8E7B6A94542BB3041579
310
78CCC999E707A29CC795E67A59CC546A5D47B368954CA7B6E75EC9E1F6FC73CE3B4F71F8CB1A6B15923D61EAAEB14626AAA9D04A26EB9C66CD1BE86CA31A5D8703DE04CD1EBCE4F5CCB62F93909AD11E55799A781A956ED27D3E738F4538CB04ADABC7DAEF20BC35BA6A90BCC1DC61BA05F20D8832FFB9BC9B15E2DB838A0A
310
FBB7E0C82A562127E0446894F427794C3037186F622BF24DE1B00AA10A23BFA47B2A180D6DA5AD6F7326FEB8C100C2D7142EB2A0B2A9D1008A09BA343D70E054AB69E2A7EDB783CBD92537FAF4A44D1296AC2792729104B3276C276C951D0CF3CF3F1E6B017720A7B8505A5FF9589365979678C36F1BAF759EAF57C60F1FF5
310
FE9DCF5F8E764FF25A2D06CF25117A8FED51884C13B2B750DB0E4F5E3D64124FCF11F0AD8F1CC3B3DA4B38ED22BF1CB2585EE6BFEBBA63FBFD44F9537B9B37BDD6B358720F98A8125AED4349CCFEB0E135F19E208A04CA7E2B10711185D72E381F448036EF57C9F874E54A971CA37A639E986AC0226DC5AA00D5B14FEA9192
310
234B3DE617814FC221C92F33F1D392F297731B567FD98FD91D989379AF567A65B8ADF177591DB90FBEA99BF4ED11B16E50A0AB1DBF1156D034BBE04D69D08F939D8E92BF525A1DDAFF80ECBC95D8F45D3FDD289FD23F7D8B452F8EBB34EC082DEEE68E18EDDF072060FAD2AB1504DD4879BF67099FC58F6E9DEFBF645D1633
310
4A3E9A127C6F1AF6132CF287E433B43A0EE93812B4AA0B194E03EE3FF91EF9C6ED0074A2F6EB18A96A7C9890B1FCDA1F2095E944DB911ED54C60DF16FB74C8CE9BDC7C54C4F14078CF73C2FFF1F1BBCCD7CF64F71407EA1683DBC410D226627F66E509060D5C0AFD611DE681D509DB8DD12FB1265B03C6F5C55FF4C30BD941
310
87FF692B4F152982502F193098A789526A038AB529A52BC0DC4FB6285CBAC10A8B8DB75DCD9BDABBB221E27D1F8DA9F5EE5926A1C8AA9BA9BC09239C6A7F12914EA3B59EFF7AAEC3FFCCE56F1C5C2980AD072793527565E774F4631DB178CEEC691B1F367BEA0CF2907E1D6B854D527065979DDEF002D8B2ACEA7CE21AE297
310
737EDE1D45B31233B73FEA35BCFDD0B09721FDBAF6432681F2FD10C3E9EFB246FD6E854B344ACC9D8A0EEF876A7314B49B6A499FC650B099D650DBFEC7638ADFD245E2B7839DA5AC5F7D5623FC0ECEEC8653FC9B2BDD1AD4D00A566FBA7186DD3C9CD26512551637498CADB950FEC71ADB9A5524285DE328B8EC7EC75D2345
310
AEC6A27C42AF6D9B92155315C80DBFCABBB7DA0FAE425C4FB896B15C9BFAC4FE67DF5A23D30C93DA4D8F36FB15D100050DA6062E22AEC5F4DAC4F6FEEF97AE05DE63C6D38F9E068A20BC5E3B6BCD75320C5090924E7F93640A7735B1A43451C2D91EE62C6238B797349E59890AF3A520DF4A87095F3ABEC2E61F0593416CE4
310
6CDCBE0E00E2523FCCD04408588B5B6C9DB6459C786CE378770B54F51DA3A5E1DF2A3349BEAAC234A6CF8993B598B3B25B4B113E353A4D750FA7534749430F3EBF2512E7EA3FD43C6AB9A1F765A58463B306721A15D224FAFE8C6F5E3432D57EE697DA0DD5A9D4866A8BCCAAA9DFF1F06047851408FEC060471D0E3EB86BFA
310
F46E4B5E60311DC3E3CEA147C75CF971BE74689507154FF2D2E92F15CDB2B9182B11459FD8ACAC5A85F174BC94A7F4EE4C4F5CAFA7C02E37BF0BC77B7DCD0C047BC316F562A01A441AFA7931CC84A28CB9F4AA367EB515778F29BFE61195FA671F4352E5E46E3A64773F1F76EE5EB36D7BCE9BCEAD837A4D77F8DB8C92AEEF
310
6711920D7C7D0F76B0FD0EB7AB83724CD35BCA7D36DDDF5FBB7FF6F04A91F3E2BB3B8F1A43CD659639507FF6331C5F697BCC782AE57D757A27D97F1AB9E0AEDB43F92F1B2AACDF5FEC8ADBAF9F814E2027003BA2F9E144B1938A7A04050AE5D953B82C45619165C813A10E76DD6906B3C16438064D14CDA713AEC420034613
310
E1AC7241904A49FBF87409AFB1FCB9B72FE7933A87D8FBEDACECE4EDCF6A4FE9FB94D5DEB74FAB7CFEAE17EE965DF980DCCA2D04134994F9A2E94D2265DA4FE6AA7B7AC15FACAC2B5ABBCD7DFF542C5314FDAB2E1B9D8B65220B8E2B638BE008E8DCA22678C820C5053664D15E89F2D735B51A84955E81A443545E9FF787BE
310
0FA700A76D136C27DA179A7C6E8939E01BE756E19CB292798063D8B97F44E8A27BCF3A614FEB8BE974A718E86F7EC99B53CA35FA24F61F2B07266684623A3D4CF073E511F3A10A8FDAFAF0078C577F4DF9D339FE7862E5FA47CF4344209E5BF76D783B1B48E152AD281B15FCB934DCDA49CEC5706B1EE8B460F435324A5CAD
310
154725E21AB8044B75A557A79F6C807B9340AA3D92503E866F4274412926C8C504E4D5EF8C0E68DD0B028781A6B4054F11CF18941F101C57CCC796773ABC8DED9CD91FE5788806C05E548895354AEAC96546D55B0E94A59F148D061F42AA398D822CDECA4CDE79E13469BDCC44FDC990F366BA5978C15F97ED80CBFD73B0CD
310
9B8B83A4F6845BDFBFAF034019473FB9A63BD55D3A4A7284757071574029A4D016DCCBE95DD679EF3C4880BF169422F8C89B68A988D2B13793CAED4F74DE7486C72DC94DF46B8E93D8E02EFCB1FF9B3BA10C8AE7F653DF94F4AF466CDDCEF5776687F7C4C14B63E4EED1719DC2EC482D7DBCC7AE518CDE3D5FF86D39000EC3
310
673C0044E1D308BF05F74D1B5F033A7D1BE7F74BC55BBE3E4A20F920946CA0271EB17BD2B80E5660ACB8A29A79F5E4BBA49D4D945B6EEF4A7EFEAA65E5555BBB57A7E15D2F83C69F30BBB978D2B39F1F26FC097424D39BB33CA3D87ABF64E307938B685BAD44F71556A30B7E712CA4FE600613C3E554B69ADE949A7CFE214D
310
F1FFF05CB82151EC6FC31950239F94CF7AD39DC473F6EA356E5EC2C4EFA04383CEFE985A127484366FBEE3C0EC4FEA363E4F6632AE781392FD45D67B63FB8DF70E82734F431FD3443172A0E30A83D60982D55FA6A2CF86DBA8382502ACC6CDEF3B907982EED1160E14863FA242F9757347E1544275CCDCF71ECD5F8621CBEA
310
326B8BA884AD7F825781923E66971F04010D574C541D8427A438A37EEF8AF88240EED7362C953F5A81DE2D56109CDE2524EA0F5D2F87308C0C47BD97AD605878AB8589E17CA83930CB5E0DCCD75853D68B1AB136594926DE426C367428E9334AFAFF90ECE221BB5DC9E5BB53D2CDEF954EAA9CD814F0E5725F1965DD458E5F
310
8487683AD86B9D0076BE3EE91EB1CECC5331A67A3F79D8B27587C12EC2A6A70474749F27B4C0BBAFB94B34189E88DC18964BE4121B9137FD516C7755356E50D6714E31ACD222621EBBCD1CFF81D87479056A9DA0E0B8EA19D24CF937DA89F78E8650CCBDC110AAB6C4E46DCBFD0446BA9E2060E81F314AC2031E88135E5476
310
AC0160EF5C0DD2EEF1B8B5CB2D198BE9A554A9093B5F7D7E4B5407DDFCA1D9C152FD97F55BFFFDFE802954DFEC8995B983E28AC92F1971E28F531DC407A1280EB125F64A72E617EFB27DFBCEDCDA2D6F2BDADA36873EE46B9BE1782998C63DA7182BC383FB6FD15DA472B175D7E8B4FC88F38D6E07FEAA3FA3CBB8F6B449EC
310
F14D2175E5C5CCA3A42ABF24CA6C9395AF74535F4DDB38CB84F56614B0FD32D7E19CA5CF988DB4449C40E23DF2B16772594554579094450F56F253CD25EA7F77366FB1CFE79696C428BB64D5A41E986189427E5E4D7E2DAE3D5BB4972B3DC44EAABDDDD63A2264ECFA5C786EB0EE1FDC5BE34FA0F08376869FD1E61EA06CAE
310
15191135445EE8F0394161C3266A596AA035572BB0C8876180D8B9C77D307DF9DCDF7365ABDA6F3A2366436457A4DFC1F259666569A9E4A79C817BDD5610E5200FCE894A358EC72858D50EF67545DA81C6FACE3D457BAF70367E1E6BDD9A952FB4F56247F58F523B97E640246051A72F79BE42FFA0B3187F63097F91C48B86
310
8586F714B0EBD5A00A8412C1236E1298F60C72BE6C96B82B404CADAA304AE9F303176B14BA53FBC2D5E86377E35542019E24D97B96A49B2C0E5006E7795954DEAF5DA58958839043C6C70BD3B1B33B6DC5C31316D8A6923F142E26F6711A2258AF977DDF1F970ECC4F1F2B434B96D81BEB6E89BF3BBB3C7C8CC80505070723
310
D6D7D7D3C8CA27CA164A26024FED94B12A86031867241DA53D929636DA600F050BC40CE48B8BA03D69224720DEE2ED2127390BDF5E6EA64527BBD4C4C63FA76BB801FEEC0E61218EC98A8A86CD8313781617877E66692839B9468CF4DB8E50A73986E558E309C0D6F676F921BE02F1185454DC75B111572FF9D27D85EA14C0
310
5AD7271225B391C4275659CA4A43759D0BA44639BE4C30A84DB7F67A41399FB95CBF923B1B1672ABC807C1590557FB18D811983FA97F5E609516D62281D38B1281F68FC75528C35E4CD7DF0F7DBB5E5DD69C414EBEA2F4A5B241B996BA77AE6C772E367408C633EA3E438B68563EA8BE7667F3A4C4FDEEA52ABD78A2820F44
310
3B7914A15F180018D231E64519C56A12F6CA7C8DAE18F06F6B769DBF92329EF6A5D18FBCE600F36BD8E8198DE5CDAA96181F3A756EBA5501CEE58F497EA4F418A2B82565B9BCC611713C0B708CCA1F398B78C5F7D03B3437CC18F13061F55C7BEDADD5ACB1DB0E36D3CE47FF6EA1A563A57E9649EA5D14D1A50EAA45746338
310
1C073777EF1600607BAF6428A7DDC079D47A204EF1E1F1F0589FB054D45E02CE623B3823C317C601E589E22B1E88B448524B86A82828E32345EC18AE17214B42F8C41C6D428016D9BA31DDCB47572561E5A402E5BA4FCE55F78AF7268524AA04130F3A20BA5D1E9F9948EA48FC8F5314FDB35E21898198060034ACE5E3E2BB
310
CA34092518F275190AF65F45867FF0900AA4B81F25427414C372BF51DC29AA855C5428EE1EEDD6B849AD60F6E73475C2D2523F8A2772C840A478DED18A8C5C91B085F255DC4F54EA7AA8947354FD17ECF8FB3B4A0DE7B483CAF3A1165EE05BBA413E5C1FEF3DE1D6B8F2F3F3251C17D9FCAB48A9AAF63AC773A0E413BBC46A
310
9ADF84A566FC920E4D8C52C9769EE3301CADEEEDD92B312E02E2A7E35B7F1E7D203FE5A7D75578B06E99D0E46FFADB8FDA17ED8880390DA29094202D6F645F76F6F96409CDA05495A96E84B04A00D1A6C6C81D7F3DE9376E828CCF144EE50E364ACCE7237EA0BFB5607ED1AC3CFE73794E5B61739D14DF1743441B1AC98F00
310
ECEDE9E7301FA29755FBEFA68C91EF2B314CF510537EF1ABFC9A762496280B546F5EDAAF8A5B387D469FC9A878A92828C88608453ACEC6094DCA54111E7AD5B2663DFE2DD151B7F123B9F4FEF8EE36AB125FD7AD52A59B1B765B3E3F73E3F73DEA93875004D2AFFE3CDE9493B87A9904DD052028949041A91DC0E1BA47BA71
310
4343FD5B25E0A6A09503AFC17C790058A836A324FE31D7893512E28230332F153181C1E018E1124EBE1BA262AA428A518237D1EA7275E48C5C561BD19ED6912EDD8367DA0F31E40EEAE9683DA9257525AEA7B632B97119E17145A90231768A4F3B9120FF32E8319B015E3CBE26F1A754177D8185345817C096B0CE443A955D
310
13AC15E1FB5DEEA0239EC32A3C92241A237B0B02FFCB4F93CF2B02570C8D192E2F2A68CEEB42F12E6F8CEEFF46C251E22B4341C56FB08CCE550E7A9D6F4D6564B9EA52A83D5BF2C6E03FA19D2775E15A8A7ACF30A13C259EE7F5EF2AC3BA354F1500E1A07FC63FB4686E2F12EC69719F9ECF5FE3F35598DF2CE944008CE78F
310
0911BA5BE5D0A34E0098FF038669C26030BA9B300303039852A8F6F496341737CA7E0D2E3AAA36DE0A70AA7D9CA0D54D9AD84B18A44C9E625475E1C97B93BEBB38DCE7D227E67A2D00F531436136355F243D1FC0D712C5765754FA22FCFFAE97919161F46D6E61ACB37D83777B385889770B50765B127768443A5C4D3A4E35
310
A3151111F146B7CA116F918A049F1C272F2CD7976C69A0068773451659A97E0F4A08FE604C3FF6CE7385DB19F4D3ABC8A0D80DA8A42096AC377DB49382B36E270B6FA7570188B4B7D1DDDDA82ACA487CCA5D38BD3BD039ADBAFA4ACFF27809239B722081E2EB9F145320553D183F28471C388BC8814E5045676767AB58A8E7
310
2D1CED2CA731379515D2E533E4CF0B39DFC625F97AC4836831A4DE330E87A8126FA17EBE583D614E71E22A8DBF2825599743E0640037303E8E1B1E8EA4E1ABFA4F62907B5E4E0E5DCFDAB417C36C6848A2B8D15F1E505434C0707E16B1CFC2A1C36A42BBF55734F8F4301DDC2A5110CEE8C0747F69519265012A2174BF4E95
310
5ECD4FDE095A3ABC70536B7AD0B9D7892F81287D667C108703C9B66A221E9A0929D030008F77FF6F5D2108EF5706FC87A3069B976F7C9FC3239D13D283CDEA83597461079FEEE049B0F392889898B7D87D31F8D60ED7B56B91823A8E4EDDB36C6172ECEE42BD42B12CD67994FA0F0DFAE9389356F4CD4425A4B8AA55CBF7EC
310
D585C6A2C2316791E43D5C06841ADBB226A87FD61515FFBB0167B74E56BD7F3E90A57A97FEDCBDF483A0D6699A8C0849CAEB4947FAA90D8E332D9DEBD9F4738C37DA0CAF9CF3DAA68BCB67C420459C7A64498D6E848E5CADE92BB6901F607AA331104A67F7CD650EE169B1DAE94D2C31C2F993632259B6957E246EFE4C5481
310
107B07118607700040E5812A2A2A38DA0076875258C753F60E0F2662C748EDD5F3F3686B8FC3BD6FE631ECCAA1E8B1C1E565AD117E54893E79F4672E32F9E46B2A183DFDCF3EECB4D4D077DBEA0DA254D256045109670050129E9B9B1A9E4A11344D61497A992778095151510C4BB7EF2009B63AA4360635312E4CF668B7E0
310
D3D85A8688E2BD83B569439892ADB63461930D428E0DE42E4AC57CE48DA5CC1449530D8BD3D6A0F08DF20C8E8F570F2CFFFCEA286E30969B4654D498A58D9DA782E19FE3F002181838925592C4A1EF0B332D88B61A92C644547BED490D3A42CFFAB70E36D961F694F6307F72FF15A1C79D5B1B5CEFD353D9E2B52566DEC8F8
310
F09CB3E8359C0F68EBBB7898243E34E12A015B2685AB303C04D3A9E00671FF3DFF0A184E4A2ABEB2B666AF5B3A209C73D8EF29DCDB069C9F391EEE9DD0F74C7BCDE16F8F02E3B8816122BBEB50665775B600549D8BB33A54A6BF940C028118BC6878C79958D6784F9DEAA6E26748386FFAF8D0D0101E2847B6563F5D8DC1D7
310
8F787BE00E2C941AE12148D4A81599FE8F68D4DA5CDED75530ADE138240300EE13B0FC13A1687FED6774662C05A2B7DFB186732F0D7A93545D8B0A6390AE5054D9CB582DA846D7A061B3358B45E2B52DDE63E114397EDB7E09233A579155D795BE76102CF277F4DF8B188C4F2879BEAE3C08347124BF9ED23B128259FE107D
310
31E34A652F090B30B39E0D9AF917B76A2806135621A8A60681F16AF216514BBD02711585B5B1AE823F4B2D0369EA5B6BCB863072727FFC871CA6C9AB79A814D989057E9470A3D238BC87CBB4A0EA49AFE2B86F22E499793CAA9047080450166BDC357524561E258C77CB697F1ABB32562CF87C3B7AA12F911EF19FB3E5C022
310
22E887D08202A60A17151F5E053A86B437771088B4FEE14D652C43E8D939995D34545E12E2FF93D4E366EAD25F10CB7DED141563C3D0C447AF06078A91135FD4B9611583CB4BF3BD167F2399CEAB0E0100F8FFC305F00F1711717173138B4B48C83022295DE657EFEDD97F238ECA80F528AFB4F8D67AD4E2594B9A3AA86D74
310
87EFC313BA95745C186F0CDD84CC12DC9CB0424B42203D351FD9C0A3AF10CC7F388E0329279087386421F194F4A29464C1DEF7EF8BE515E4A199DCD5B909342598D8FE6A231F71336248D5CEC5454455C7BE383B3BC7B260FED27F703FDC39A170F3827239102F59D4DEE7FEF82EAA1A5E4BA94DCC4CC44E7E2EDE20F24244
310
E4454369D2E87C3F823F193FD4FD27E1C23984B01898D15ABC20711A8A558054951A6AE280096BA36CBA439603B7B0B4C45F248C14B2383B4B5CD8ECECE4FF859AD4A6CA2326D020EF090F4041D28DB66E5256B56232CC52829DE8060BAE6BBF37D4B7469B822454FE93210A3E8D15E69FFCF01123222611C51C4FD0A041A0
310
CFA2471CF6BE38D2B20FA4C3525B5B8B586759475CF80ADFE67A284AC24651E52B8E683D24C2622642F27E7C3C22783BCF63648BC398BD6CD0D9C97E7E7E3EACB6126DB7A6C1FD9F1031302EE67ED96F22B77C7CA0239BB324207559B105E4693EB26EC46182A92C9C0DBD24F29B31C5C5AC1F84300E0E17CEEAC15F5736FA
310
4A98971E2F1423BFCD68D4BBD5F86E74B40A369F39507C88FCDB35D2DD8DEBEA4AF999E23CF2816D204200DF6E611781B9884C1AC8888B4DE397320472959434323A5A36B22A8E1F721A270DF3BD65E4A31C11FF048AFB0D8B7B6881423793963A23CFCE935FC189ED36FAE35C46DA3574C979E4394BE52084F3081837BE03
310
3396D2EBD80F1F691B273F660D2B32FA27A33B1DE4ADA5F0FA4651511102DFA410DDA86E065272CA314D5249DF91B06BB92807B28EFD54F08F7B525252782CD276DD02E6B0319B13DF87B1F6361AD6B28FC0D711CF445429B9E5A433CD493051C49A9E03DDB1B147D880253514A5DED88009018620EE229101C041950E2D8A
310
A8E1F5F5438E0C0C0C60EEDEE9E3E0C051948C69F84BB7B2A48A1F3C8EB9E6864687F4F4F6F6E2FA87608ADAF9C5E117B7C1A737E710769DA1D15ECE6A84502AA855398712D5FB51BE92E4EF824969CE18278798AC303C2C7980DD2500ADF8FB1E6D6C2FAAFF9987178923334A244758BAA01A9A1B70FA5097D01E1CC2A58D
310
AD0EC94CE6430AA9B0C10D75E3C6BAC670EFBADEE1607739CE0FC18A2587E3EC3058562014C64219C69BC269082D5C2F4A659278D585755912176D78A1B641719C2A394CED495A1AC5D583FD2F5EDD93308EA7EAE8A6DD396598BDBD3D4CFED62D18A5BDFDE0DD5C80D1A89BA62697B131AE7CE9A6594138582F1B37D68F17
310
49AC7CB67A70695D48A4A056AC1FBD4E82358CEAE38F54B95A9016F9000F9879C0D9D131768635CA798895F27D6F1614F11F2838A83611AA51C9A3DDB539D42979C29F10465655C17BEC3E2760B80DCBF609198C7B171A531905F3EC218D696025975E986C6B4C666666787271F202805577DD5A3EF0CAFAF91B62DC4B2DB4
310
217A7606282F31D8DDBC290593BAA93EA6353AFA9939B877978481E15CFC9F2755CDC00C538F63A4BA3E80AE009B73CA0185687D339A507D165B74290D6EE46D5C58148F020C3668ABE9EF2F7549170DC80DB41FFC1D678FF19AEB10C7133832B104B80F691B3138F97A92D26E551F1F110400D45AC71A9B9AC41A1A1B1DAE
310
ED0B0810638EFFB511D46B121C6FEA0F38CD00E03CFFEB9713FE1F9C263E4DDEC160D0497FA9A132BA608584057FB15380825DE6C7FC3C667EE947D488A09898D8E939C4953BF4EC9836344D2CC6B2971B2A21A572B06096F4982D2CC7232D46E8EA69DC83722E267754D777F97F96D5DA74E1E75178084D0E70F12AD33E5F
310
71EF2AFA599B2BEBF60A5BE475F444F240CBFE8143C334E7ED9150FEEFEF7EB020C4DBED388DD1D6A167A76F3CBF119B578AE8CFA7736ACAFA4440A1C47185638A0D2F3EB5BDDEFDA958FB13CE4AA4923D5BF840392D45544329525749734866684BF7F8D9D54D892E19BCA9F829A0F8BFCBEEA6CFDFC61D74EA1A645ED7A1
310
FF241739F15694BD835B66FEC5677E40FE69BD3F91AE402F036537218A401CB0828604AD189E575015C6F3F6BBC8AC79CF6C70653847254B31551EFCBEB5978B9DB85D58D0FA41A9DFE9C624834AA04949D24B5AE6D299E072D152D12097920F14AA92C31C3B97E28B6C2E6E9C23D63043ECBBC0A60FDF5BD0C33C127EA8A3
310
308B8B6AFFEB28B4455BF6E7AF4FC6222728357EB8E46E85053E6A8843AB23295BF838ABDA94658FEF3F832F147046B4ACD6F7D48E8FCC9618582961C898D1C7A253C91BFECBDA6BA18A1FCF70755DCCEE2222F41B76D23CA98D0CB3D95F0CF66D57FFF65E2A90F5DF40FC3187621E981BD0BC1D992787212688976B94A8F0
310
C6EF646624B570B78E068826F87CE27041A95C9A4871FF65CC17FCB1639629AD6A9517000D63AC231F3D741CB8430777E7ECF80CE7A3F73C0F162F7E56AA71F4DA80A33CD6ACEE78E2C11FAC03DAFCE929B106F8F6B3ED2DC71FF994BD9CEF4E9A94896EF1B6E2B7B4978168BCF0847A3D2A4F1B0500B926E634B174548E9F
310
BAD27153FB5FC36799B1E6C7C38A94E1F9E996796D7B485E635D5287A2AE76FBD11A341DB3F8F810385BB7296391973DC6C37C452A9305AEBBE0CDB6C566DB59FE60C8E94B1FD090354BF51439FFD1B48D725228FFA88C84F686F547107A7A235665A4593B7C34D748C1AC8D56DD5DA861EEFBADDECBBD65117E65851F9035
310
1AEB65F0EFCFF4BCFEF24CB7A5879699FAC437A7AF9099186CF006BB923A59E37D7A36A29FD8D2CBB914A5E9D0A8FD212FBF796AE9A67958FF1D5D8B85F78F96219D4714EB919929241B6C018AAE0C02069F8D919961EC5DDFBFB7573E3AC8E08BFB7C8534BE6DE045B3CD63DBD71F7638BA2309CAE398EA3A7D8F98BBBC7A
310
EB367EFA5CFA27A9F8F2F52FE878058E6209C026453F8E7E8A237DFC389E9590F6059B397CFD65183BBF936E86896612A5B5FEE49DAC8455D026218AFEBEC12B3523A45B57B82C9C97E02ACFA1184DB18E48CF615DBF39C3CC6F0B4AE6BBEEA2E39D944E290302FA3DE33FA7E40296E2EF7BF1CD855BBECFAD0FD622BEE974
310
6FC4FDFDE545AE6E3BC234CADF83A0FB76DFB145BF3828AE3436368AC24989454F8FF70A177672C711CAA1A76107218CF948CA01F873520E7A2B118EBB161ABAD432932029628B6761590C98AB590C8C8C79798CE9F715BA696E839E9131A4BB68BE923F1747FBFF165331FFDD4D05997ACD168F12CA75348DAC04C7F509FE
310
83898A8B421181AF492861CE81E4A2DD0A30850CFA95E05F097FF70F9E777310D584A75BA7018922E271DAB1D785671157685B7D383D3E074DDB4F1E44EF04B07BAAC75A062077C54B9752C738C9D804D402E02851F3F89605AF189738C18C021D2139EAF72513824E10DDD3047BACC8521ED7E98B257D1166903B1B08FA6F
310
918FD7E162913FEC7D0EF4787E29C35FBA8C6E2C9C20E9AB30AE42CA2A01A090E7D010C1B5BF9CEE2A304BF3A987FB40D836979B79E18D70F257DA61E808472DD85B82761825779D6B90CAEB0F23360C6F80A7D7D77545E95B3DFF0CF96A827F9B5BCECD2C9698718417EF80FEEDEE938AFF55859D0D540B7FE09435583A6F
310
04874A0C7E8CF234DF4879722000167F5872CEC6BF3EF7E5A8CC8121E6A359227C8A29C95212F9F735BC72A887D56B8F309FC525BFB4FD767AAEC4AEFF249CFBBD2DE1AB9969A6155C7D8DABC307E47324C1F916C7BCFF40ABA5644E9FFB9238D19ADADA49D9610F01ABBA57E4DFCBDCCBB2B93C8953206C91DE01B0E2651A
310
6D6C31721915B31F7B7CBCE55466F6D70402788FA91D73BE4ADCBA99A35F17D6B83383704917D6833F0FA3CD45C926ADB8BC17999A4A0AFBCE2541F7B8CF4C2F5FBA611B3E626D64407CB32C122DFF4EF8674D6EDBB86C8F7C6A16D50FA685E2CCA34F8F7D1D8265BB0042E9D7F1F666F7BE5FAA5184DF58E12122A42EF02F
310
461B3F369AC746F96528AD208512AB56844CF75B97F352DF7995024FB02855385854F3798670D01CAC771AC3E1889EC25F61A20C1F8CAB46898817F9C47E2CDA1F286BF2F358298709FE567C91133E2638C8B53975E753EA8BFD3578B5F7186B7BF084EBA3F77BAC3132A5779902EC22AF2D2E79F42D324E083386DAEE9810
310
D1B44A5DAA54513C7A71E52A4AB9257D975B621308FE4D2141CC3DCFE946C154A3C1DFCCA7629EC69ACFA831634ADDA93C0388D2A9A2DDAFCF957C6995BCE7FBB6DC4EBAE79E63EB08E9A25F52F67076F7093CA545CA3053B5BF576DEAD4E0017143C5F759F32B2D6F145B52B67B48909B7C7FCA6586EE385A2189C16932CB
310
6DDFD9152AE317C430492A578ED27B72D85D40C7C93C097939E1B50F4D67F05334FE9DC362C30B7FF561B95259138ECFD9274C8D695C31B14D4EAA9F3D7FA8DDF652F8C5DEFA23284C799B7D94416DEE81E05A866302DC70192A5368EA65E1CED8BF107A1E2D3119A71E85DC1A7B0C1E93274CE04DD0F2ABC8AC7C987FDB00
310
2B6F81757B43502EF7A0D92E416494FAEEA4C9C090CD9557AA4D532F4996A272B94355C5A0E4974EEA9627476F30809B94D8D8D860062E02204643BEC7D0438AF800FC7E2B26955D595421E83C69E1A07E0E3122285835F014AD538188CF9737CE76D464A353FA55A001AB2526B84E985083693BC76FE211CA1D000679C889
310
E3C009832C87E1AC2EDD05C302557422DF0800E316FCAC86978A371F025A6C7DAA9F333E7BD160403A1A06EA75AA9888FF01504B03041400060808003967DB4C51464CB48900000043010000360000006662782F39313342343946372D323142382D344337442D413045302D3643453136314333353346442F646972656374
310
6F72792E786D6C9D8F310EC2300C45AF127987122606C71DD918B841D4B851A43646695A717C52A85029031293A5A76FBF6FACEF7DA7264E43906840EF0FA03836E242F406C6DCEE4EA06AC22492573150D1F66C60C640E8938CB705396EEDD86DE9B5042FE27813D640EA63BB001C722AF6E55CB61E4863F58284D5D3F53D
310
D715CE1C3985E63FD7F1B7EBDD617E9F1E504B03041400060808003967DB4C9DBFEFFA44070000541C0000340000006662782F39313342343946372D323142382D344337442D413045302D3643453136314333353346442F6F626A656374732E786D6CDD595B6FE23814FE2B56F665F7818410A030A28CB894111A75663468
310
56FB169960A8B7CE454ED2D2FDF57BECD8214E03A4739156DB4A853AF6F139DFB99F4CDE1F43869E084F691CDD5AAEDDB51089827847A3C3AD9567FBCEC842EFA768C2E338ABECB3508443726B89656B3A39F0384FD4D28EEC71CEEAABABF95F280D48442C14309CA6B7561A3C9010DB38CFE21D491FED1DCEB07DD81F6DD7
310
2E369A640F1C270FB5AB12CC499401ABB01E0115C5816BFE0B2239D389233618DBBC76DB7A17B639527093511AA5198E82575CD5AEEB9DE1AA769DE7F69777BDC1B833E8F7BD4E7FD8733BF3D57CD9716FBCEE62B8588C6777630B4D27DB3866A5021212ED408B2FD6D49D38E24929BE42A189EF208E221228349B36EC88A2
310
4B495AC7C400D695A2551452C85A59F05A0A7F665B2B500C960CB4B570FAB36ABDF1F66F00216D63A53C25C2CAD38C83AE15F6853F74274EB16AE885A628C419E11433C4E896630E0A82AD85820C32C25B04292430935AD4F4AABC82615FF7A5262EF73963C27FADA9F4341FFC9164A9E48CFE43F889FBEA6DC013489BD328
310
1B2961B39704488C278E5C2C9E793DF5B00012ED193E80B580986293D7ABE1B510B160BDB4A61F57DBE346C487E6CB131E278467C2F2A4332BBFD31AAC9816185F0B500A5C4DDD9D50F90AD07F02E44B5ED00434C7E9B17FEC6BD9398ED27DCC43D00EEAA24E17FE7491F8FAEADBC4290F4F113262E5394CC16D7F12A68618
310
C6DD1548A7932730FA987B4AB84D8019D8F43D8D849F83A12016C312C4FBFDF6684DD7104C61114E6106D2C3EFC4115F117C147420DED434D4147E5B284A3B4CDDCF4EBAFA0036C36950AACA90F11CBE839F82EF6CB9F9B8C9F91E07E45E39F692EC69443348A6CD0C19A01B2EFF6DFD497AE407166F313B9D36360570CD21
310
1671A3412D1BA51624F5029C88345C6846AEDC53F076C67044E23C55EB4D712A8859CCFDED8B5FB870E35D7F6A1B282E5306D018CB20B9079C2602136BAAB4550642BB22285818E6CA020F8556FD6D1E263E0EE33C12A1F6B529D6F98038232C11A84A6ADAB0B5D76AB23BBADFE72904AF46920B0348E5CF9A7061E17D8863
310
4DFC72B2E71892681CF9147230384BE30DC605257897794E09DBFB94B13CF4F794411EF1439C9CA1DF52826AE67A242FCF31DF3512342D4BFBA4B62101B8025683A4B35511F3954E3979A2A2CC94F94C67036387AA43AD69FF4CBA1099A201506D8CD2CC67E3F972B81A7A1DEFCE1D74FA5024754633176AA79BD9CA5B8EC6
310
F33BEFAECEA78E56D57C07AA14658EE17FD9431E6E234C193C1062E35DF2EEBDCC9EB70E844667EC7AF3FE7875D3E9B9F311DC7DB3ECCCBA77DDCE7071E70EDD8537F0564B879334CE794052A7E7747D6D92497438C795E6EE750C85B2E67AB2D3FAAA0BF33F8EA1F59C6028F1BF1A44CBD8D55010B60DA2E2683D84E2E051
310
A4283F80AAAFD17D6A41B4CE47539C7B635CEEDA5E57FEB8EEB8D71DF746E3C1A065D89337FD70A46B922180CE33CFFC38C101CD9A536A0D99962CBF29BBD89E3B28B0D17F7B3D0478B55E2D99BA9C9914533E0DF181F87B2CFA8A86507A4DE2C6AC7760719AD288A4B22F7C552FD668766D28BFCC2CDD60B634F54392E1EF
310
B158D968D4BC00A239F3A183CDC40CE16A1D51BA80EA59CE5114FD32A47A29FF8B9FE23061456F7C0D03B7A721D05D5193850AA6C5154F609F3ECEFCEE8EC851C735EA25FBBAA268D45A9DFAF8BBC99F81475742BF101E7D45FB62CB1EB863F1338230341CB8DEF0A654C535B4F46599E8FD580EDD6AF0E23F137A7868559C
310
B6D34AA5CC2B0AF18C84D0FAE22CE7AD3C7608D144DB96164845869A4B546E7A6341297B3EDDF5C165B2E93B571257AE81DA9546301B6B25C82B291A8D58EA42CE01C5B8EB0D9EADB1B94AF58723E62FAFB2ABEE17CA81D1751CA0C22E42B08A3F461DDE58A91B3554FA8CB30042E9467E76E6E0113BB23B357306B9A6B25E
310
D7B4D72AEEB508A9214C79B188B4F7E20BFB8A41D5D071A7CE87A2D0738AF5B5486D360CB44F7C184C9BB43E7FD8D4A8C04AEBD35F0446E4B94641AD2E44077D81D4B7F5694E50A3A024FAB6BE70FC3FD185680556466F30414E634661904F76E84062C8DF30AA68D1A1F090A4322F83F1AA20A5DF22B438FD54CC6133BC65
310
FA74F0806198CD54FF96073048859C796BA975F41B8C4EC5F4520EB4EC4768DD540CB350CEE9AD05169B51E8D0EC2D8CC0E4C05152AF8D38C1B171741019BF3855FE7F3A26D081A87492ABDCD306172599E14C500A27F2DD02D47DC583E9E4FB45D7EC209CC1D76D9E95C29C164ED22810F44B84423898143E2A788F50525C
310
96CBB5E51E039256D3FC8B765050ED64981FE448BE82F76CF9C511D3F4F56794B0FC20D479A96336287544A7CEF262723501C35062265854918B77CE171EC36BA910AD281801FAFD381AFEE12CE2308CA362C999A9975B68F300AFAA768E1E1342EBDF75C78E9C1CA85701FE16A7C4C6BBF4111640B59C8A796A01B1610065
310
34AD1880D688D0051C33F6AF9748554795A94A35EC0A78E47B00048E24DEFF08B7A96EA80C2DC117802BF9F0F4452F4C1C0E83F3E9BF504B03041400060808003967DB4C5AB7E2C7E1000000550100003C0000006662782F39313342343946372D323142382D344337442D413045302D3643453136314333353346442F7265
310
736F75726365732F322F636E782E786D6C4D90DD6A032110855F65117AB9EA2EA409C1352F91ABDE04AB132B5167F1A7B46F5F4D2DF46A86733E8633475CBE829F3E21658771230BE56482A8D1B8683752CB7D3E91E92245422CFF3032451560235D2652D884751F9281BBAABEABDEC5C710F9CD4284E4F46D8F964CDAAB9C
310
3792F5070445552D68203FA85145D18526C858938676A2B800E3844EA00A182257BE9C66FE3AAFC7EBB29E0FC7F381BF09D64929DE11FDE05D2C90707F59B9C6B6C696880BD601296A7283EA6F34E32F1E6DF1046BB614B9A4D6C1C0CAF7DE30179405F6447E5D29587FB28D67036DF642E40F504B03041400060808003967
310
DB4CFF15A4A45D000000800000003A0000006662782F39313342343946372D323142382D344337442D413045302D3643453136314333353346442F7265736F75726365732F636E782E786D6C4D8B3B0E80201005AF42B6F75B59F0390B113044D83508C6E30BC6C26AF226F3B8BA6360974DA7271430F523308B2B198F9B80
310
925DB700539227A2FCCB80A18E5640D320F996A81C9F32D6E9129A0D1EF74FCE750E6D57BC7165FBCA07504B03041400060808003967DB4CF4901FED4301000056050000300000006662782F39313342343946372D323142382D344337442D413045302D3643453136314333353346442F636E782E786D6CCD94416AC33010
310
45AF62045D5AB20D69429015E8A227E8A27427CB13578D2D19695C9ADB574A95A4A5847661487662F404FFCF7C0DDF7C0C7DF60ECE6B6B6A52D2826460946DB5E96A32E1365F916C23B8B316BF61243372809AC43211BC73761A53A985AD9CFA58EDB5D9A5A24474BA99103CC9542FBDAF8957AF30482A27B42DF81D6D254A
310
5A5207DE4E4E41788F7A80F45E3990082D115551AEF2E23EAF964F65B55E2CD78BE285B3480ADE58DB275E1B0467C7BBAA50361C4D9053701601C127A713153D1071D6461B6D380BF782FBA0D77489C3FD18B971ECB592181AC5AC42C03C402007CEBE60C15974FCC3F7E3C3F3594338B5DA8142EBF6576B4379A90D276934
310
24E27F5D38807F99B7CD5BB07CBDB95F349C84CD66F7985C1FA2FB3B09214FD274FD2D7E8093B4F9F31F160B6A758BA68FCA66F2CC0E2B300C3E6E44F109504B03041400060808003967DB4CEEE4F2AA7F000000A30000000B0000006662782F636E782E786D6C4D8CDF0E82201C465F85FDEE2908F3CF06B8447D0F97E858
310
088DA4F5F841F3A2AB6F3BFBCEE1ED67B3E8ADC3CB7827809E0820EDEE7E366E1510F705D7805AC983F7FBDF0D909B362D2063907C0D3E3E0F34EB658A36536BDCE3800D655DD18C15BED0AEC685AA7A7C2303C1A51A684915BBB2B14FC6392B697EBDB4392FBF504B03041400060808003967DB4CA6D797065F0000008200
310
000007000000636E782E786D6C4DCB3B0E80201045D1AD90E9FD7516806B51190811670C8A61F982B1B0BAC9C97B72CA7B1037C6D3332918DA1E04D2CAC69353902EDB8C20262D23F3F59B81A079470595414B17391D1F19B4730A5583A7ED43BBE4025D9592775E5ADFFA01504B03041400060808003967DB4CECFD112DA8
310
00000026010000130000005B436F6E74656E745F54797065735D2E786D6C7D4F4B0EC22010BD0A61DF525D18634ABB506FE00510A79458060253536F2FD89D5197F3FED3F68B9BD80362B21E25DFD40D6780DADF2C1AC9671AAA3D677DD75E9E0112CB5A4C928F44E12044D22338956A1F003333F8E814E5331A1194BE2B03
310
62DB343BA13D122055543278D79E6050F344ECBC6478EDCD76CE8EABAE5449AE4298AC56946789C28AAFBEABC53F3EAF09A84A1441B91F0101CD4780756578C173A578FFDDBD00504B03041400060808003967DB4C3DEE336E64000000790000001B0000006175746F6465736B2D64657369676E2D7061636B6167652E786D
310
6C35CBC10E83200C00D05F21DCA56CA76D41FC96062B120735B69A7DBE268BB7777961F8D5AF396893C2ADB70FE7ADA196782C2DF776D7A97B5933C430F15651E5469C55D70F80A4992A3ADC954792C525AE70A1E4D6AD9816CC044FEFDF01FE3FDE907802504B03041400060808003967DB4CEF316BDCF40000008E010000
310
3D0000006662782F39313342343946372D323142382D344337442D413045302D3643453136314333353346442F7265736F75726365732F322F636F72652E786D6C8550CB6EC32010FC156BEFD8C68F92469828B59B2FE8A93704C44589C1E251F5F30BB12BB5A79E76353B33BB3BF4F4B5DC8B4FE5BCB666005CD6502823AC
310
D4661E20862B3A407162D4591B7ED1A0307C51036418189D9D8DEB0E096B8232193556AA1DE4DEAB0085B8A766002F3ED4C24B1E4362F85BB97271E3B32A71B9F1188D51CB5DAA6572D357AD1CB09AF4DDA57F26E805B70475E3D4A1C3F8DAA1F14C2ED3D4B5A46FCEB4CA6246835E7EB60BA77850125853E303AA9F5043DE
310
7073ECC9B1AFDF6995998CFAE0D2CFFBD2FC5DA2D36A43FFB8C555FEEF16B5096DB3BB6D0A0F0CA7E31E0346AB9C4E2A8FE852CD49B26F504B03041400060808003967DB4CD5B87954F9000000960100003B0000006662782F39313342343946372D323142382D344337442D413045302D3643453136314333353346442F72
310
65736F75726365732F636F72652E786D6C8550CB4EC33010FC9568EFCE3BB8548EAB92D02FE0C4CD72B6C16A63477E203E1FBB09129C38ED6A76667677D8E96BB9679F689D32BA872A2F21432DCDA4F4DC43F0577280ECC49935C6FFA241A6C5823D2418389BAD09EB0E49A33DEA846A33E10E0AE7D04326EFB1E9C1C90F5C
310
442E828F0C77CB57216F62C6BCCA371E6721A86997AA29BAA9AB420BBCA45D7BE99E2979A91A4ADA616CC961786DC970A697716C1BDAD567562431675E2D3FDBA545E171025E97D581944FA4A66F557DECE8B12BDF5991989C396FE3CFFBD2F41D708BCE042BD1B1629BFE710DEBF4BF6B50DA37F5EEBA291CF02A1EF91870
310
56A494627944186B4A947F03504B03041400060808003967DB4CC1CE0EF1F3000000B1010000310000006662782F39313342343946372D323142382D344337442D413045302D3643453136314333353346442F636F72652E786D6C8D50CB6EC32010FC156BEFD860C78F4498A871922FE8A93784898B1283C5A3EAE7176257
310
6A6F392D9A9D6166871EBFE747F625AD5346F740720C99D4C28C4A4F3D047F431D644746AD31FE0F0D32CD67D9438281D1C99AB06C9030DA4B9D506D46B981DC39E921138FF8E8C1894F39F39C071F19EE9E2F5CDCF9247392AF3C46BD9A7FA5C24AEEE508ACC4A443B84165FB4ECA43DD1E6AFC418BC4643404356E566A8C
310
EEEAA6A405B627D569B7BFB6A824A70EED86F68CDEF005A366B890860C555D5DCFB44862469DB7F1E6ED9374DDABF255F82F7358C617322BEDAB72335C150E1889799E0B468B54601CCF76E34C65B31F504B03041400060808003967DB4CED2F215255010000DD0200000C0000006662782F636F72652E786D6C8D52CB6EC3
310
2010FC158B3B7EC5AED30813A549F3053DF5463071516CB03058F9FC2E7EC8CDA1696509A3D9DD999D11647F6F9B6010A6975A952809631408C57525555D2267AF788B823D25466BFBA30D058AB5A2441E4694D446BB6E86B85656288F2A5D8919647D2F2C0A78039712F5FC4BB42C64CE42477F0B3BC66FAC1661124E7D94
310
3827AB795456C026AF521844E322CFCEF96B81DF924D81B3E329C3DBE37B868F87E27C3A659B224F0F24F2C39458D92EEADC08664585681A275B1CBFE0B4F848D25D5EECF2F89344BE9392DE1AF03C8B7A77885E2F77124DF8039FEBAABFF99C547693CE7CD3448F6802EB8D054A229F0FFCC6F01E330461C8CFB24BB358B8
310
0134086EB5C9A05269B79606D63801D471307E249AAAC03C12FCC6933EE179CE01413155C36ACCC2F5E2AC577FDCA913060FF61E286D5AD6ACCB4D2BAEE72AF4606919E7BAD1E63FD38BD525CCC83F4CFA0D504B03041400060808003967DB4CC750761008010000B201000008000000636F72652E786D6C8D504B6EC32014
310
BC0A628F6DFC296E848952BB394157DD51200E8A0D16E0A8BD7D2176A576D7D54333F3DE0C438F9FF304EECA796D4D07715640A08CB0529BB1836BB8A0168223A3CEDAF04B0681E1B3EA608221A3A3B3EBB243C29AA04C428D956A07B9F72A4020A6F8E8A0175735F38CAF212AFC2D5BB8B8F1516538DB748C063DFFAC0AA7
310
785012B2B2C02D2A9E5049DE707968C8A129DE699E948CAEAB96BB9596D15D5FB4729015A4A9CFCD33412FB822A8EE871AB5FD6B8DFA13390F435D91A63CD13C2D33EA838B7FDE8FC49C01787E4FBE34DF28463FAC9D76410C258135D35734A17922FE845E17F98FD0DA84AADC0F6E1B1E321C033D88689C1A8CE3516F9CA9
310
6DF60D504B010214001400060808003967DB4C0000000000000000000000003700000000000000000000000000000000006662782F39313342343946372D323142382D344337442D413045302D3643453136314333353346442F617474726962757465732E62696E504B010214001400060808003967DB4C00000000000000
310
00000000003500000000000000000000000000550000006662782F39313342343946372D323142382D344337442D413045302D3643453136314333353346442F76657274696365732E62696E504B010214001400060808003967DB4CF270F13306000000040000003600000000000000000000000000A80000006662782F39
310
313342343946372D323142382D344337442D413045302D3643453136314333353346442F747269616E676C65732E62696E504B010214001400060808003967DB4C88E57597CD3F0000904100004200000000000000000000000000020100006662782F39313342343946372D323142382D344337442D413045302D36434531
310
36314333353346442F7265736F75726365732F322F305F67656E657269632E706E67504B010214001400060808003967DB4C51464CB4890000004301000036000000000000000000000000002F4100006662782F39313342343946372D323142382D344337442D413045302D3643453136314333353346442F646972656374
310
6F72792E786D6C504B010214001400060808003967DB4C9DBFEFFA44070000541C000034000000000000000000000000000C4200006662782F39313342343946372D323142382D344337442D413045302D3643453136314333353346442F6F626A656374732E786D6C504B010214001400060808003967DB4C5AB7E2C7E100
310
0000550100003C00000000000000000000000000A24900006662782F39313342343946372D323142382D344337442D413045302D3643453136314333353346442F7265736F75726365732F322F636E782E786D6C504B010214001400060808003967DB4CFF15A4A45D000000800000003A00000000000000000000000000DD
310
4A00006662782F39313342343946372D323142382D344337442D413045302D3643453136314333353346442F7265736F75726365732F636E782E786D6C504B010214001400060808003967DB4CF4901FED43010000560500003000000000000000000000000000924B00006662782F39313342343946372D323142382D3443
310
37442D413045302D3643453136314333353346442F636E782E786D6C504B010214001400060808003967DB4CEEE4F2AA7F000000A30000000B00000000000000000000000000234D00006662782F636E782E786D6C504B010214001400060808003967DB4CA6D797065F000000820000000700000000000000000000000000
310
CB4D0000636E782E786D6C504B010214001400060808003967DB4CECFD112DA80000002601000013000000000000000000000000004F4E00005B436F6E74656E745F54797065735D2E786D6C504B010214001400060808003967DB4C3DEE336E64000000790000001B00000000000000000000000000284F00006175746F64
310
65736B2D64657369676E2D7061636B6167652E786D6C504B010214001400060808003967DB4CEF316BDCF40000008E0100003D00000000000000000000000000C54F00006662782F39313342343946372D323142382D344337442D413045302D3643453136314333353346442F7265736F75726365732F322F636F72652E78
310
6D6C504B010214001400060808003967DB4CD5B87954F9000000960100003B00000000000000000000000000145100006662782F39313342343946372D323142382D344337442D413045302D3643453136314333353346442F7265736F75726365732F636F72652E786D6C504B010214001400060808003967DB4CC1CE0EF1
310
F3000000B10100003100000000000000000000000000665200006662782F39313342343946372D323142382D344337442D413045302D3643453136314333353346442F636F72652E786D6C504B010214001400060808003967DB4CED2F215255010000DD0200000C00000000000000000000000000A85300006662782F636F
310
72652E786D6C504B010214001400060808003967DB4CC750761008010000B2010000080000000000000000000000000027550000636F72652E786D6C504B050600000000120012002D060000555600000000
  0
XRECORD
  5
C7D
102
{ACAD_REACTORS
330
C7C
102
}
330
C7C
100
AcDbXrecord
280
     1
102
DISPLAYNAME
  1
Imperial24
102
FLAGS
 90
        0
  0
CELLSTYLEMAP
  5
C49
102
{ACAD_REACTORS
330
559
102
}
330
559
100
AcDbCellStyleMap
 90
        3
300
CELLSTYLE
  1
TABLEFORMAT_BEGIN
 90
        5
170
     1
 91
        0
 92
    32768
 62
   257
 93
        1
300
CONTENTFORMAT
  1
CONTENTFORMAT_BEGIN
 90
        0
 91
        0
 92
      512
 93
        0
300

 40
0.0
140
1.0
 94
        5
 62
     0
340
11
144
0.25
309
CONTENTFORMAT_END
171
     1
301
MARGIN
  1
CELLMARGIN_BEGIN
 40
0.06
 40
0.06
 40
0.06
 40
0.06
 40
0.18
 40
0.18
309
CELLMARGIN_END
 94
        6
 95
        1
302
GRIDFORMAT
  1
GRIDFORMAT_BEGIN
 90
        0
 91
        1
 62
     0
 92
       -2
340
0
 93
        0
 40
0.045
309
GRIDFORMAT_END
 95
        2
302
GRIDFORMAT
  1
GRIDFORMAT_BEGIN
 90
        0
 91
        1
 62
     0
 92
       -2
340
0
 93
        0
 40
0.045
309
GRIDFORMAT_END
 95
        4
302
GRIDFORMAT
  1
GRIDFORMAT_BEGIN
 90
        0
 91
        1
 62
     0
 92
       -2
340
0
 93
        0
 40
0.045
309
GRIDFORMAT_END
 95
        8
302
GRIDFORMAT
  1
GRIDFORMAT_BEGIN
 90
        0
 91
        1
 62
     0
 92
       -2
340
0
 93
        0
 40
0.045
309
GRIDFORMAT_END
 95
       16
302
GRIDFORMAT
  1
GRIDFORMAT_BEGIN
 90
        0
 91
        1
 62
     0
 92
       -2
340
0
 93
        0
 40
0.045
309
GRIDFORMAT_END
 95
       32
302
GRIDFORMAT
  1
GRIDFORMAT_BEGIN
 90
        0
 91
        1
 62
     0
 92
       -2
340
0
 93
        0
 40
0.045
309
GRIDFORMAT_END
309
TABLEFORMAT_END
  1
CELLSTYLE_BEGIN
 90
        1
 91
        1
300
_TITLE
309
CELLSTYLE_END
300
CELLSTYLE
  1
TABLEFORMAT_BEGIN
 90
        5
170
     1
 91
        0
 92
        0
 62
   257
 93
        1
300
CONTENTFORMAT
  1
CONTENTFORMAT_BEGIN
 90
        0
 91
        0
 92
      512
 93
        0
300

 40
0.0
140
1.0
 94
        5
 62
     0
340
11
144
0.18
309
CONTENTFORMAT_END
171
     1
301
MARGIN
  1
CELLMARGIN_BEGIN
 40
0.06
 40
0.06
 40
0.06
 40
0.06
 40
0.18
 40
0.18
309
CELLMARGIN_END
 94
        6
 95
        1
302
GRIDFORMAT
  1
GRIDFORMAT_BEGIN
 90
        0
 91
        1
 62
     0
 92
       -2
340
0
 93
        0
 40
0.045
309
GRIDFORMAT_END
 95
        2
302
GRIDFORMAT
  1
GRIDFORMAT_BEGIN
 90
        0
 91
        1
 62
     0
 92
       -2
340
0
 93
        0
 40
0.045
309
GRIDFORMAT_END
 95
        4
302
GRIDFORMAT
  1
GRIDFORMAT_BEGIN
 90
        0
 91
        1
 62
     0
 92
       -2
340
0
 93
        0
 40
0.045
309
GRIDFORMAT_END
 95
        8
302
GRIDFORMAT
  1
GRIDFORMAT_BEGIN
 90
        0
 91
        1
 62
     0
 92
       -2
340
0
 93
        0
 40
0.045
309
GRIDFORMAT_END
 95
       16
302
GRIDFORMAT
  1
GRIDFORMAT_BEGIN
 90
        0
 91
        1
 62
     0
 92
       -2
340
0
 93
        0
 40
0.045
309
GRIDFORMAT_END
 95
       32
302
GRIDFORMAT
  1
GRIDFORMAT_BEGIN
 90
        0
 91
        1
 62
     0
 92
       -2
340
0
 93
        0
 40
0.045
309
GRIDFORMAT_END
309
TABLEFORMAT_END
  1
CELLSTYLE_BEGIN
 90
        2
 91
        1
300
_HEADER
309
CELLSTYLE_END
300
CELLSTYLE
  1
TABLEFORMAT_BEGIN
 90
        5
170
     1
 91
        0
 92
        0
 62
   257
 93
        1
300
CONTENTFORMAT
  1
CONTENTFORMAT_BEGIN
 90
        0
 91
        0
 92
      512
 93
        0
300

 40
0.0
140
1.0
 94
        2
 62
     0
340
11
144
0.18
309
CONTENTFORMAT_END
171
     1
301
MARGIN
  1
CELLMARGIN_BEGIN
 40
0.06
 40
0.06
 40
0.06
 40
0.06
 40
0.18
 40
0.18
309
CELLMARGIN_END
 94
        6
 95
        1
302
GRIDFORMAT
  1
GRIDFORMAT_BEGIN
 90
        0
 91
        1
 62
     0
 92
       -2
340
0
 93
        0
 40
0.045
309
GRIDFORMAT_END
 95
        2
302
GRIDFORMAT
  1
GRIDFORMAT_BEGIN
 90
        0
 91
        1
 62
     0
 92
       -2
340
0
 93
        0
 40
0.045
309
GRIDFORMAT_END
 95
        4
302
GRIDFORMAT
  1
GRIDFORMAT_BEGIN
 90
        0
 91
        1
 62
     0
 92
       -2
340
0
 93
        0
 40
0.045
309
GRIDFORMAT_END
 95
        8
302
GRIDFORMAT
  1
GRIDFORMAT_BEGIN
 90
        0
 91
        1
 62
     0
 92
       -2
340
0
 93
        0
 40
0.045
309
GRIDFORMAT_END
 95
       16
302
GRIDFORMAT
  1
GRIDFORMAT_BEGIN
 90
        0
 91
        1
 62
     0
 92
       -2
340
0
 93
        0
 40
0.045
309
GRIDFORMAT_END
 95
       32
302
GRIDFORMAT
  1
GRIDFORMAT_BEGIN
 90
        0
 91
        1
 62
     0
 92
       -2
340
0
 93
        0
 40
0.045
309
GRIDFORMAT_END
309
TABLEFORMAT_END
  1
CELLSTYLE_BEGIN
 90
        3
 91
        2
300
_DATA
309
CELLSTYLE_END
  0
XRECORD
  5
C7B
102
{ACAD_REACTORS
330
559
102
}
330
559
100
AcDbXrecord
280
     1
102
ACAD_ROUNDTRIP_PRE2007_TABLESTYLE
 90
      512
 91
        0
  1

 92
      512
 93
        0
  2

 94
      512
 95
        0
  3

  0
XRECORD
  5
C54
102
{ACAD_REACTORS
330
C53
102
}
330
C53
100
AcDbXrecord
280
     1
102
RTVSPost2010Prop28
280
     1
102
RTVSPost2010PropOp28
 70
     1
102
RTVSPost2010Prop29
280
     1
102
RTVSPost2010PropOp29
 70
     1
102
RTVSPost2010Prop30
280
     0
102
RTVSPost2010PropOp30
 70
     1
102
RTVSPost2010Prop31
280
     0
102
RTVSPost2010PropOp31
 70
     1
102
RTVSPost2010Prop32
280
     0
102
RTVSPost2010PropOp32
 70
     1
102
RTVSPost2010Prop33
280
     0
102
RTVSPost2010PropOp33
 70
     1
102
RTVSPost2010Prop34
280
     0
102
RTVSPost2010PropOp34
 70
     1
102
RTVSPost2010Prop35
280
     0
102
RTVSPost2010PropOp35
 70
     1
102
RTVSPost2010Prop36
280
     0
102
RTVSPost2010PropOp36
 70
     1
102
RTVSPost2010Prop37
 90
       50
102
RTVSPost2010PropOp37
 70
     1
102
RTVSPost2010Prop38
140
0.0
102
RTVSPost2010PropOp38
 70
     1
102
RTVSPost2010Prop39
140
1.0
102
RTVSPost2010PropOp39
 70
     1
102
RTVSPost2010Prop40
 90
        0
102
RTVSPost2010PropOp40
 70
     1
102
RTVSPost2010Prop41ColorIndex
 90
       18
102
RTVSPost2010Prop41ColorRGB
 90
-16777216
102
RTVSPost2010PropOp41
 70
     1
102
RTVSPost2010Prop42
 90
       50
102
RTVSPost2010PropOp42
 70
     1
102
RTVSPost2010Prop43
 90
        3
102
RTVSPost2010PropOp43
 70
     1
102
RTVSPost2010Prop44ColorIndex
 90
        5
102
RTVSPost2010Prop44ColorRGB
 90
      255
102
RTVSPost2010PropOp44
 70
     1
102
RTVSPost2010Prop45
280
     0
102
RTVSPost2010PropOp45
 70
     1
102
RTVSPost2010Prop46
 90
       50
102
RTVSPost2010PropOp46
 70
     1
102
RTVSPost2010Prop47
 90
       50
102
RTVSPost2010PropOp47
 70
     1
102
RTVSPost2010Prop48
 90
       50
102
RTVSPost2010PropOp48
 70
     1
102
RTVSPost2010Prop49
280
     0
102
RTVSPost2010PropOp49
 70
     1
102
RTVSPost2010Prop50
 90
       50
102
RTVSPost2010PropOp50
 70
     1
102
RTVSPost2010Prop51ColorIndex
 90
      256
102
RTVSPost2010Prop51ColorRGB
 90
-16777216
102
RTVSPost2010PropOp51
 70
     0
102
RTVSPost2010Prop52
140
1.0
102
RTVSPost2010PropOp52
 70
     0
102
RTVSPost2010Prop53
 90
        2
102
RTVSPost2010PropOp53
 70
     1
102
RTVSPost2010Prop54
  1
strokes_ogs.tif
102
RTVSPost2010PropOp54
 70
     1
102
RTVSPost2010Prop55
280
     0
102
RTVSPost2010PropOp55
 70
     1
102
RTVSPost2010Prop56
140
1.0
102
RTVSPost2010PropOp56
 70
     1
102
RTVSPost2010Prop57
140
1.0
102
RTVSPost2010PropOp57
 70
     1
102
RTVSPropertyOp0
 70
     1
102
RTVSPropertyOp1
 70
     1
102
RTVSPropertyOp2
 70
     1
102
RTVSPropertyOp3
 70
     1
102
RTVSPropertyOp4
 70
     1
102
RTVSPropertyOp5
 70
     1
102
RTVSPropertyOp6
 70
     1
102
RTVSPropertyOp7
 70
     1
102
RTVSPropertyOp8
 70
     1
102
RTVSPropertyOp9
 70
     1
102
RTVSPropertyOp10
 70
     1
102
RTVSPropertyOp11
 70
     1
102
RTVSPropertyOp12
 70
     1
102
RTVSPropertyOp13
 70
     1
102
RTVSPropertyOp14
 70
     1
102
RTVSPropertyOp15
 70
     1
102
RTVSPropertyOp16
 70
     1
102
RTVSPropertyOp17
 70
     1
102
RTVSPropertyOp18
 70
     1
102
RTVSPropertyOp19
 70
     1
102
RTVSPropertyOp20
 70
     1
102
RTVSPropertyOp21
 70
     1
102
RTVSPropertyOp22
 70
     1
102
RTVSPropertyOp23
 70
     1
102
RTVSPropertyOp24
 70
     1
102
RTVSPropertyOp25
 70
     1
102
RTVSPropertyOp26
 70
     1
102
RTVSPropertyOp27
 70
     1
102
RTVSPropertyOp28
 70
     1
102
RTVSPropertyOp29
 70
     1
102
RTVSPropertyOp30
 70
     1
102
RTVSPropertyOp31
 70
     1
102
RTVSPropertyOp32
 70
     1
102
RTVSPropertyOp33
 70
     1
102
RTVSPropertyOp34
 70
     1
102
RTVSPropertyOp35
 70
     1
102
RTVSPropertyOp36
 70
     1
102
RTVSPropertyOp37
 70
     1
102
RTVSPropertyOp38
 70
     1
102
RTVSPropertyOp39
 70
     1
102
RTVSPropertyOp40
 70
     1
102
RTVSPropertyOp41
 70
     1
102
RTVSPropertyOp42
 70
     1
102
RTVSPropertyOp43
 70
     1
102
RTVSPropertyOp44
 70
     1
102
RTVSPropertyOp45
 70
     1
102
RTVSPropertyOp46
 70
     1
102
RTVSPropertyOp47
 70
     1
102
RTVSPropertyOp48
 70
     1
102
RTVSPropertyOp49
 70
     1
102
RTVSPropertyOp50
 70
     1
102
RTVSPropertyOp51
 70
     0
102
RTVSPropertyOp52
 70
     0
102
RTVSPropertyOp53
 70
     1
102
RTVSPropertyOp54
 70
     1
102
RTVSPropertyOp55
 70
     1
102
RTVSPropertyOp56
 70
     1
102
RTVSPropertyOp57
 70
     1
102
RTVSPropertyOp58
 70
     1
102
RTVSPropertyOp59
 70
     1
102
RTVSPropertyOp60
 70
     1
102
RTVSPropertyOp61
 70
     1
102
RTVSPropertyOp62
 70
     1
  0
XRECORD
  5
C5A
102
{ACAD_REACTORS
330
C59
102
}
330
C59
100
AcDbXrecord
280
     1
102
RTVSPost2010Prop28
280
     0
102
RTVSPost2010PropOp28
 70
     1
102
RTVSPost2010Prop29
280
     1
102
RTVSPost2010PropOp29
 70
     1
102
RTVSPost2010Prop30
280
     1
102
RTVSPost2010PropOp30
 70
     1
102
RTVSPost2010Prop31
280
     0
102
RTVSPost2010PropOp31
 70
     1
102
RTVSPost2010Prop32
280
     0
102
RTVSPost2010PropOp32
 70
     1
102
RTVSPost2010Prop33
280
     0
102
RTVSPost2010PropOp33
 70
     1
102
RTVSPost2010Prop34
280
     0
102
RTVSPost2010PropOp34
 70
     1
102
RTVSPost2010Prop35
280
     0
102
RTVSPost2010PropOp35
 70
     1
102
RTVSPost2010Prop36
280
     0
102
RTVSPost2010PropOp36
 70
     1
102
RTVSPost2010Prop37
 90
       50
102
RTVSPost2010PropOp37
 70
     1
102
RTVSPost2010Prop38
140
0.0
102
RTVSPost2010PropOp38
 70
     1
102
RTVSPost2010Prop39
140
1.0
102
RTVSPost2010PropOp39
 70
     1
102
RTVSPost2010Prop40
 90
        0
102
RTVSPost2010PropOp40
 70
     1
102
RTVSPost2010Prop41ColorIndex
 90
       18
102
RTVSPost2010Prop41ColorRGB
 90
-16777216
102
RTVSPost2010PropOp41
 70
     1
102
RTVSPost2010Prop42
 90
       50
102
RTVSPost2010PropOp42
 70
     1
102
RTVSPost2010Prop43
 90
        3
102
RTVSPost2010PropOp43
 70
     1
102
RTVSPost2010Prop44ColorIndex
 90
        5
102
RTVSPost2010Prop44ColorRGB
 90
      255
102
RTVSPost2010PropOp44
 70
     1
102
RTVSPost2010Prop45
280
     0
102
RTVSPost2010PropOp45
 70
     1
102
RTVSPost2010Prop46
 90
       50
102
RTVSPost2010PropOp46
 70
     1
102
RTVSPost2010Prop47
 90
       50
102
RTVSPost2010PropOp47
 70
     1
102
RTVSPost2010Prop48
 90
       50
102
RTVSPost2010PropOp48
 70
     1
102
RTVSPost2010Prop49
280
     0
102
RTVSPost2010PropOp49
 70
     1
102
RTVSPost2010Prop50
 90
       50
102
RTVSPost2010PropOp50
 70
     1
102
RTVSPost2010Prop51ColorIndex
 90
      256
102
RTVSPost2010Prop51ColorRGB
 90
-16777216
102
RTVSPost2010PropOp51
 70
     0
102
RTVSPost2010Prop52
140
1.0
102
RTVSPost2010PropOp52
 70
     0
102
RTVSPost2010Prop53
 90
        2
102
RTVSPost2010PropOp53
 70
     1
102
RTVSPost2010Prop54
  1
strokes_ogs.tif
102
RTVSPost2010PropOp54
 70
     1
102
RTVSPost2010Prop55
280
     0
102
RTVSPost2010PropOp55
 70
     1
102
RTVSPost2010Prop56
140
1.0
102
RTVSPost2010PropOp56
 70
     1
102
RTVSPost2010Prop57
140
1.0
102
RTVSPost2010PropOp57
 70
     1
102
RTVSPropertyOp0
 70
     1
102
RTVSPropertyOp1
 70
     1
102
RTVSPropertyOp2
 70
     1
102
RTVSPropertyOp3
 70
     1
102
RTVSPropertyOp4
 70
     1
102
RTVSPropertyOp5
 70
     1
102
RTVSPropertyOp6
 70
     1
102
RTVSPropertyOp7
 70
     1
102
RTVSPropertyOp8
 70
     1
102
RTVSPropertyOp9
 70
     1
102
RTVSPropertyOp10
 70
     1
102
RTVSPropertyOp11
 70
     1
102
RTVSPropertyOp12
 70
     1
102
RTVSPropertyOp13
 70
     1
102
RTVSPropertyOp14
 70
     1
102
RTVSPropertyOp15
 70
     1
102
RTVSPropertyOp16
 70
     1
102
RTVSPropertyOp17
 70
     1
102
RTVSPropertyOp18
 70
     1
102
RTVSPropertyOp19
 70
     1
102
RTVSPropertyOp20
 70
     1
102
RTVSPropertyOp21
 70
     1
102
RTVSPropertyOp22
 70
     1
102
RTVSPropertyOp23
 70
     1
102
RTVSPropertyOp24
 70
     1
102
RTVSPropertyOp25
 70
     1
102
RTVSPropertyOp26
 70
     1
102
RTVSPropertyOp27
 70
     1
102
RTVSPropertyOp28
 70
     1
102
RTVSPropertyOp29
 70
     1
102
RTVSPropertyOp30
 70
     1
102
RTVSPropertyOp31
 70
     1
102
RTVSPropertyOp32
 70
     1
102
RTVSPropertyOp33
 70
     1
102
RTVSPropertyOp34
 70
     1
102
RTVSPropertyOp35
 70
     1
102
RTVSPropertyOp36
 70
     1
102
RTVSPropertyOp37
 70
     1
102
RTVSPropertyOp38
 70
     1
102
RTVSPropertyOp39
 70
     1
102
RTVSPropertyOp40
 70
     1
102
RTVSPropertyOp41
 70
     1
102
RTVSPropertyOp42
 70
     1
102
RTVSPropertyOp43
 70
     1
102
RTVSPropertyOp44
 70
     1
102
RTVSPropertyOp45
 70
     1
102
RTVSPropertyOp46
 70
     1
102
RTVSPropertyOp47
 70
     1
102
RTVSPropertyOp48
 70
     1
102
RTVSPropertyOp49
 70
     1
102
RTVSPropertyOp50
 70
     1
102
RTVSPropertyOp51
 70
     0
102
RTVSPropertyOp52
 70
     0
102
RTVSPropertyOp53
 70
     1
102
RTVSPropertyOp54
 70
     1
102
RTVSPropertyOp55
 70
     1
102
RTVSPropertyOp56
 70
     1
102
RTVSPropertyOp57
 70
     1
102
RTVSPropertyOp58
 70
     1
102
RTVSPropertyOp59
 70
     1
102
RTVSPropertyOp60
 70
     1
102
RTVSPropertyOp61
 70
     1
102
RTVSPropertyOp62
 70
     1
  0
XRECORD
  5
C62
102
{ACAD_REACTORS
330
C61
102
}
330
C61
100
AcDbXrecord
280
     1
102
RTVSPost2010Prop28
280
     0
102
RTVSPost2010PropOp28
 70
     1
102
RTVSPost2010Prop29
280
     1
102
RTVSPost2010PropOp29
 70
     1
102
RTVSPost2010Prop30
280
     1
102
RTVSPost2010PropOp30
 70
     1
102
RTVSPost2010Prop31
280
     0
102
RTVSPost2010PropOp31
 70
     1
102
RTVSPost2010Prop32
280
     0
102
RTVSPost2010PropOp32
 70
     1
102
RTVSPost2010Prop33
280
     0
102
RTVSPost2010PropOp33
 70
     1
102
RTVSPost2010Prop34
280
     0
102
RTVSPost2010PropOp34
 70
     1
102
RTVSPost2010Prop35
280
     0
102
RTVSPost2010PropOp35
 70
     1
102
RTVSPost2010Prop36
280
     0
102
RTVSPost2010PropOp36
 70
     1
102
RTVSPost2010Prop37
 90
       50
102
RTVSPost2010PropOp37
 70
     1
102
RTVSPost2010Prop38
140
0.0
102
RTVSPost2010PropOp38
 70
     1
102
RTVSPost2010Prop39
140
1.0
102
RTVSPost2010PropOp39
 70
     1
102
RTVSPost2010Prop40
 90
        0
102
RTVSPost2010PropOp40
 70
     1
102
RTVSPost2010Prop41ColorIndex
 90
       18
102
RTVSPost2010Prop41ColorRGB
 90
-16777216
102
RTVSPost2010PropOp41
 70
     1
102
RTVSPost2010Prop42
 90
       50
102
RTVSPost2010PropOp42
 70
     1
102
RTVSPost2010Prop43
 90
        3
102
RTVSPost2010PropOp43
 70
     1
102
RTVSPost2010Prop44ColorIndex
 90
        5
102
RTVSPost2010Prop44ColorRGB
 90
      255
102
RTVSPost2010PropOp44
 70
     1
102
RTVSPost2010Prop45
280
     0
102
RTVSPost2010PropOp45
 70
     1
102
RTVSPost2010Prop46
 90
       50
102
RTVSPost2010PropOp46
 70
     1
102
RTVSPost2010Prop47
 90
       50
102
RTVSPost2010PropOp47
 70
     1
102
RTVSPost2010Prop48
 90
       50
102
RTVSPost2010PropOp48
 70
     1
102
RTVSPost2010Prop49
280
     0
102
RTVSPost2010PropOp49
 70
     1
102
RTVSPost2010Prop50
 90
       50
102
RTVSPost2010PropOp50
 70
     1
102
RTVSPost2010Prop51ColorIndex
 90
      256
102
RTVSPost2010Prop51ColorRGB
 90
-16777216
102
RTVSPost2010PropOp51
 70
     0
102
RTVSPost2010Prop52
140
1.0
102
RTVSPost2010PropOp52
 70
     0
102
RTVSPost2010Prop53
 90
        2
102
RTVSPost2010PropOp53
 70
     1
102
RTVSPost2010Prop54
  1
strokes_ogs.tif
102
RTVSPost2010PropOp54
 70
     1
102
RTVSPost2010Prop55
280
     0
102
RTVSPost2010PropOp55
 70
     1
102
RTVSPost2010Prop56
140
1.0
102
RTVSPost2010PropOp56
 70
     1
102
RTVSPost2010Prop57
140
1.0
102
RTVSPost2010PropOp57
 70
     1
102
RTVSPropertyOp0
 70
     1
102
RTVSPropertyOp1
 70
     1
102
RTVSPropertyOp2
 70
     1
102
RTVSPropertyOp3
 70
     1
102
RTVSPropertyOp4
 70
     1
102
RTVSPropertyOp5
 70
     1
102
RTVSPropertyOp6
 70
     1
102
RTVSPropertyOp7
 70
     1
102
RTVSPropertyOp8
 70
     1
102
RTVSPropertyOp9
 70
     1
102
RTVSPropertyOp10
 70
     1
102
RTVSPropertyOp11
 70
     1
102
RTVSPropertyOp12
 70
     1
102
RTVSPropertyOp13
 70
     1
102
RTVSPropertyOp14
 70
     1
102
RTVSPropertyOp15
 70
     1
102
RTVSPropertyOp16
 70
     1
102
RTVSPropertyOp17
 70
     1
102
RTVSPropertyOp18
 70
     1
102
RTVSPropertyOp19
 70
     1
102
RTVSPropertyOp20
 70
     1
102
RTVSPropertyOp21
 70
     1
102
RTVSPropertyOp22
 70
     1
102
RTVSPropertyOp23
 70
     1
102
RTVSPropertyOp24
 70
     1
102
RTVSPropertyOp25
 70
     1
102
RTVSPropertyOp26
 70
     1
102
RTVSPropertyOp27
 70
     1
102
RTVSPropertyOp28
 70
     1
102
RTVSPropertyOp29
 70
     1
102
RTVSPropertyOp30
 70
     1
102
RTVSPropertyOp31
 70
     1
102
RTVSPropertyOp32
 70
     1
102
RTVSPropertyOp33
 70
     1
102
RTVSPropertyOp34
 70
     1
102
RTVSPropertyOp35
 70
     1
102
RTVSPropertyOp36
 70
     1
102
RTVSPropertyOp37
 70
     1
102
RTVSPropertyOp38
 70
     1
102
RTVSPropertyOp39
 70
     1
102
RTVSPropertyOp40
 70
     1
102
RTVSPropertyOp41
 70
     1
102
RTVSPropertyOp42
 70
     1
102
RTVSPropertyOp43
 70
     1
102
RTVSPropertyOp44
 70
     1
102
RTVSPropertyOp45
 70
     1
102
RTVSPropertyOp46
 70
     1
102
RTVSPropertyOp47
 70
     1
102
RTVSPropertyOp48
 70
     1
102
RTVSPropertyOp49
 70
     1
102
RTVSPropertyOp50
 70
     1
102
RTVSPropertyOp51
 70
     0
102
RTVSPropertyOp52
 70
     0
102
RTVSPropertyOp53
 70
     1
102
RTVSPropertyOp54
 70
     1
102
RTVSPropertyOp55
 70
     1
102
RTVSPropertyOp56
 70
     1
102
RTVSPropertyOp57
 70
     1
102
RTVSPropertyOp58
 70
     1
102
RTVSPropertyOp59
 70
     1
102
RTVSPropertyOp60
 70
     1
102
RTVSPropertyOp61
 70
     1
102
RTVSPropertyOp62
 70
     1
  0
XRECORD
  5
C6A
102
{ACAD_REACTORS
330
C69
102
}
330
C69
100
AcDbXrecord
280
     1
102
RTVSPost2010Prop28
280
     0
102
RTVSPost2010PropOp28
 70
     1
102
RTVSPost2010Prop29
280
     1
102
RTVSPost2010PropOp29
 70
     1
102
RTVSPost2010Prop30
280
     1
102
RTVSPost2010PropOp30
 70
     1
102
RTVSPost2010Prop31
280
     0
102
RTVSPost2010PropOp31
 70
     1
102
RTVSPost2010Prop32
280
     0
102
RTVSPost2010PropOp32
 70
     1
102
RTVSPost2010Prop33
280
     0
102
RTVSPost2010PropOp33
 70
     1
102
RTVSPost2010Prop34
280
     0
102
RTVSPost2010PropOp34
 70
     1
102
RTVSPost2010Prop35
280
     0
102
RTVSPost2010PropOp35
 70
     1
102
RTVSPost2010Prop36
280
     0
102
RTVSPost2010PropOp36
 70
     1
102
RTVSPost2010Prop37
 90
       50
102
RTVSPost2010PropOp37
 70
     1
102
RTVSPost2010Prop38
140
0.0
102
RTVSPost2010PropOp38
 70
     1
102
RTVSPost2010Prop39
140
1.0
102
RTVSPost2010PropOp39
 70
     1
102
RTVSPost2010Prop40
 90
        0
102
RTVSPost2010PropOp40
 70
     1
102
RTVSPost2010Prop41ColorIndex
 90
       18
102
RTVSPost2010Prop41ColorRGB
 90
-16777216
102
RTVSPost2010PropOp41
 70
     1
102
RTVSPost2010Prop42
 90
       50
102
RTVSPost2010PropOp42
 70
     1
102
RTVSPost2010Prop43
 90
        3
102
RTVSPost2010PropOp43
 70
     1
102
RTVSPost2010Prop44ColorIndex
 90
        5
102
RTVSPost2010Prop44ColorRGB
 90
      255
102
RTVSPost2010PropOp44
 70
     1
102
RTVSPost2010Prop45
280
     0
102
RTVSPost2010PropOp45
 70
     1
102
RTVSPost2010Prop46
 90
       50
102
RTVSPost2010PropOp46
 70
     1
102
RTVSPost2010Prop47
 90
       50
102
RTVSPost2010PropOp47
 70
     1
102
RTVSPost2010Prop48
 90
       50
102
RTVSPost2010PropOp48
 70
     1
102
RTVSPost2010Prop49
280
     0
102
RTVSPost2010PropOp49
 70
     1
102
RTVSPost2010Prop50
 90
       50
102
RTVSPost2010PropOp50
 70
     1
102
RTVSPost2010Prop51ColorIndex
 90
      256
102
RTVSPost2010Prop51ColorRGB
 90
-16777216
102
RTVSPost2010PropOp51
 70
     0
102
RTVSPost2010Prop52
140
1.0
102
RTVSPost2010PropOp52
 70
     0
102
RTVSPost2010Prop53
 90
        2
102
RTVSPost2010PropOp53
 70
     1
102
RTVSPost2010Prop54
  1
strokes_ogs.tif
102
RTVSPost2010PropOp54
 70
     1
102
RTVSPost2010Prop55
280
     0
102
RTVSPost2010PropOp55
 70
     1
102
RTVSPost2010Prop56
140
1.0
102
RTVSPost2010PropOp56
 70
     1
102
RTVSPost2010Prop57
140
1.0
102
RTVSPost2010PropOp57
 70
     1
102
RTVSPropertyOp0
 70
     1
102
RTVSPropertyOp1
 70
     1
102
RTVSPropertyOp2
 70
     1
102
RTVSPropertyOp3
 70
     1
102
RTVSPropertyOp4
 70
     1
102
RTVSPropertyOp5
 70
     1
102
RTVSPropertyOp6
 70
     1
102
RTVSPropertyOp7
 70
     1
102
RTVSPropertyOp8
 70
     1
102
RTVSPropertyOp9
 70
     1
102
RTVSPropertyOp10
 70
     1
102
RTVSPropertyOp11
 70
     1
102
RTVSPropertyOp12
 70
     1
102
RTVSPropertyOp13
 70
     1
102
RTVSPropertyOp14
 70
     1
102
RTVSPropertyOp15
 70
     1
102
RTVSPropertyOp16
 70
     1
102
RTVSPropertyOp17
 70
     1
102
RTVSPropertyOp18
 70
     1
102
RTVSPropertyOp19
 70
     1
102
RTVSPropertyOp20
 70
     1
102
RTVSPropertyOp21
 70
     1
102
RTVSPropertyOp22
 70
     1
102
RTVSPropertyOp23
 70
     1
102
RTVSPropertyOp24
 70
     1
102
RTVSPropertyOp25
 70
     1
102
RTVSPropertyOp26
 70
     1
102
RTVSPropertyOp27
 70
     1
102
RTVSPropertyOp28
 70
     1
102
RTVSPropertyOp29
 70
     1
102
RTVSPropertyOp30
 70
     1
102
RTVSPropertyOp31
 70
     1
102
RTVSPropertyOp32
 70
     1
102
RTVSPropertyOp33
 70
     1
102
RTVSPropertyOp34
 70
     1
102
RTVSPropertyOp35
 70
     1
102
RTVSPropertyOp36
 70
     1
102
RTVSPropertyOp37
 70
     1
102
RTVSPropertyOp38
 70
     1
102
RTVSPropertyOp39
 70
     1
102
RTVSPropertyOp40
 70
     1
102
RTVSPropertyOp41
 70
     1
102
RTVSPropertyOp42
 70
     1
102
RTVSPropertyOp43
 70
     1
102
RTVSPropertyOp44
 70
     1
102
RTVSPropertyOp45
 70
     1
102
RTVSPropertyOp46
 70
     1
102
RTVSPropertyOp47
 70
     1
102
RTVSPropertyOp48
 70
     1
102
RTVSPropertyOp49
 70
     1
102
RTVSPropertyOp50
 70
     1
102
RTVSPropertyOp51
 70
     0
102
RTVSPropertyOp52
 70
     0
102
RTVSPropertyOp53
 70
     1
102
RTVSPropertyOp54
 70
     1
102
RTVSPropertyOp55
 70
     1
102
RTVSPropertyOp56
 70
     1
102
RTVSPropertyOp57
 70
     1
102
RTVSPropertyOp58
 70
     1
102
RTVSPropertyOp59
 70
     1
102
RTVSPropertyOp60
 70
     1
102
RTVSPropertyOp61
 70
     1
102
RTVSPropertyOp62
 70
     1
  0
XRECORD
  5
C5E
102
{ACAD_REACTORS
330
C5D
102
}
330
C5D
100
AcDbXrecord
280
     1
102
RTVSPost2010Prop28
280
     0
102
RTVSPost2010PropOp28
 70
     1
102
RTVSPost2010Prop29
280
     1
102
RTVSPost2010PropOp29
 70
     1
102
RTVSPost2010Prop30
280
     1
102
RTVSPost2010PropOp30
 70
     1
102
RTVSPost2010Prop31
280
     0
102
RTVSPost2010PropOp31
 70
     1
102
RTVSPost2010Prop32
280
     0
102
RTVSPost2010PropOp32
 70
     1
102
RTVSPost2010Prop33
280
     0
102
RTVSPost2010PropOp33
 70
     1
102
RTVSPost2010Prop34
280
     0
102
RTVSPost2010PropOp34
 70
     1
102
RTVSPost2010Prop35
280
     0
102
RTVSPost2010PropOp35
 70
     1
102
RTVSPost2010Prop36
280
     0
102
RTVSPost2010PropOp36
 70
     1
102
RTVSPost2010Prop37
 90
       50
102
RTVSPost2010PropOp37
 70
     1
102
RTVSPost2010Prop38
140
0.0
102
RTVSPost2010PropOp38
 70
     1
102
RTVSPost2010Prop39
140
1.0
102
RTVSPost2010PropOp39
 70
     1
102
RTVSPost2010Prop40
 90
        0
102
RTVSPost2010PropOp40
 70
     1
102
RTVSPost2010Prop41ColorIndex
 90
       18
102
RTVSPost2010Prop41ColorRGB
 90
-16777216
102
RTVSPost2010PropOp41
 70
     1
102
RTVSPost2010Prop42
 90
       50
102
RTVSPost2010PropOp42
 70
     1
102
RTVSPost2010Prop43
 90
        3
102
RTVSPost2010PropOp43
 70
     1
102
RTVSPost2010Prop44ColorIndex
 90
        5
102
RTVSPost2010Prop44ColorRGB
 90
      255
102
RTVSPost2010PropOp44
 70
     1
102
RTVSPost2010Prop45
280
     0
102
RTVSPost2010PropOp45
 70
     1
102
RTVSPost2010Prop46
 90
       50
102
RTVSPost2010PropOp46
 70
     1
102
RTVSPost2010Prop47
 90
       50
102
RTVSPost2010PropOp47
 70
     1
102
RTVSPost2010Prop48
 90
       50
102
RTVSPost2010PropOp48
 70
     1
102
RTVSPost2010Prop49
280
     0
102
RTVSPost2010PropOp49
 70
     1
102
RTVSPost2010Prop50
 90
       50
102
RTVSPost2010PropOp50
 70
     1
102
RTVSPost2010Prop51ColorIndex
 90
      256
102
RTVSPost2010Prop51ColorRGB
 90
-16777216
102
RTVSPost2010PropOp51
 70
     0
102
RTVSPost2010Prop52
140
1.0
102
RTVSPost2010PropOp52
 70
     0
102
RTVSPost2010Prop53
 90
        2
102
RTVSPost2010PropOp53
 70
     1
102
RTVSPost2010Prop54
  1
strokes_ogs.tif
102
RTVSPost2010PropOp54
 70
     1
102
RTVSPost2010Prop55
280
     0
102
RTVSPost2010PropOp55
 70
     1
102
RTVSPost2010Prop56
140
1.0
102
RTVSPost2010PropOp56
 70
     1
102
RTVSPost2010Prop57
140
1.0
102
RTVSPost2010PropOp57
 70
     1
102
RTVSPropertyOp0
 70
     1
102
RTVSPropertyOp1
 70
     1
102
RTVSPropertyOp2
 70
     1
102
RTVSPropertyOp3
 70
     1
102
RTVSPropertyOp4
 70
     1
102
RTVSPropertyOp5
 70
     1
102
RTVSPropertyOp6
 70
     1
102
RTVSPropertyOp7
 70
     1
102
RTVSPropertyOp8
 70
     1
102
RTVSPropertyOp9
 70
     1
102
RTVSPropertyOp10
 70
     1
102
RTVSPropertyOp11
 70
     1
102
RTVSPropertyOp12
 70
     1
102
RTVSPropertyOp13
 70
     1
102
RTVSPropertyOp14
 70
     1
102
RTVSPropertyOp15
 70
     1
102
RTVSPropertyOp16
 70
     1
102
RTVSPropertyOp17
 70
     1
102
RTVSPropertyOp18
 70
     1
102
RTVSPropertyOp19
 70
     1
102
RTVSPropertyOp20
 70
     1
102
RTVSPropertyOp21
 70
     1
102
RTVSPropertyOp22
 70
     1
102
RTVSPropertyOp23
 70
     1
102
RTVSPropertyOp24
 70
     1
102
RTVSPropertyOp25
 70
     1
102
RTVSPropertyOp26
 70
     1
102
RTVSPropertyOp27
 70
     1
102
RTVSPropertyOp28
 70
     1
102
RTVSPropertyOp29
 70
     1
102
RTVSPropertyOp30
 70
     1
102
RTVSPropertyOp31
 70
     1
102
RTVSPropertyOp32
 70
     1
102
RTVSPropertyOp33
 70
     1
102
RTVSPropertyOp34
 70
     1
102
RTVSPropertyOp35
 70
     1
102
RTVSPropertyOp36
 70
     1
102
RTVSPropertyOp37
 70
     1
102
RTVSPropertyOp38
 70
     1
102
RTVSPropertyOp39
 70
     1
102
RTVSPropertyOp40
 70
     1
102
RTVSPropertyOp41
 70
     1
102
RTVSPropertyOp42
 70
     1
102
RTVSPropertyOp43
 70
     1
102
RTVSPropertyOp44
 70
     1
102
RTVSPropertyOp45
 70
     1
102
RTVSPropertyOp46
 70
     1
102
RTVSPropertyOp47
 70
     1
102
RTVSPropertyOp48
 70
     1
102
RTVSPropertyOp49
 70
     1
102
RTVSPropertyOp50
 70
     1
102
RTVSPropertyOp51
 70
     0
102
RTVSPropertyOp52
 70
     0
102
RTVSPropertyOp53
 70
     1
102
RTVSPropertyOp54
 70
     1
102
RTVSPropertyOp55
 70
     1
102
RTVSPropertyOp56
 70
     1
102
RTVSPropertyOp57
 70
     1
102
RTVSPropertyOp58
 70
     1
102
RTVSPropertyOp59
 70
     1
102
RTVSPropertyOp60
 70
     1
102
RTVSPropertyOp61
 70
     1
102
RTVSPropertyOp62
 70
     1
  0
XRECORD
  5
C60
102
{ACAD_REACTORS
330
C5F
102
}
330
C5F
100
AcDbXrecord
280
     1
102
RTVSPost2010Prop28
280
     0
102
RTVSPost2010PropOp28
 70
     1
102
RTVSPost2010Prop29
280
     1
102
RTVSPost2010PropOp29
 70
     1
102
RTVSPost2010Prop30
280
     1
102
RTVSPost2010PropOp30
 70
     1
102
RTVSPost2010Prop31
280
     0
102
RTVSPost2010PropOp31
 70
     1
102
RTVSPost2010Prop32
280
     0
102
RTVSPost2010PropOp32
 70
     1
102
RTVSPost2010Prop33
280
     0
102
RTVSPost2010PropOp33
 70
     1
102
RTVSPost2010Prop34
280
     0
102
RTVSPost2010PropOp34
 70
     1
102
RTVSPost2010Prop35
280
     0
102
RTVSPost2010PropOp35
 70
     1
102
RTVSPost2010Prop36
280
     0
102
RTVSPost2010PropOp36
 70
     1
102
RTVSPost2010Prop37
 90
       50
102
RTVSPost2010PropOp37
 70
     1
102
RTVSPost2010Prop38
140
0.0
102
RTVSPost2010PropOp38
 70
     1
102
RTVSPost2010Prop39
140
1.0
102
RTVSPost2010PropOp39
 70
     1
102
RTVSPost2010Prop40
 90
        0
102
RTVSPost2010PropOp40
 70
     1
102
RTVSPost2010Prop41ColorIndex
 90
       18
102
RTVSPost2010Prop41ColorRGB
 90
-16777216
102
RTVSPost2010PropOp41
 70
     1
102
RTVSPost2010Prop42
 90
       50
102
RTVSPost2010PropOp42
 70
     1
102
RTVSPost2010Prop43
 90
        3
102
RTVSPost2010PropOp43
 70
     1
102
RTVSPost2010Prop44ColorIndex
 90
        5
102
RTVSPost2010Prop44ColorRGB
 90
      255
102
RTVSPost2010PropOp44
 70
     1
102
RTVSPost2010Prop45
280
     0
102
RTVSPost2010PropOp45
 70
     1
102
RTVSPost2010Prop46
 90
       50
102
RTVSPost2010PropOp46
 70
     1
102
RTVSPost2010Prop47
 90
       50
102
RTVSPost2010PropOp47
 70
     1
102
RTVSPost2010Prop48
 90
       50
102
RTVSPost2010PropOp48
 70
     1
102
RTVSPost2010Prop49
280
     0
102
RTVSPost2010PropOp49
 70
     1
102
RTVSPost2010Prop50
 90
       50
102
RTVSPost2010PropOp50
 70
     1
102
RTVSPost2010Prop51ColorIndex
 90
      256
102
RTVSPost2010Prop51ColorRGB
 90
-16777216
102
RTVSPost2010PropOp51
 70
     0
102
RTVSPost2010Prop52
140
1.0
102
RTVSPost2010PropOp52
 70
     0
102
RTVSPost2010Prop53
 90
        2
102
RTVSPost2010PropOp53
 70
     1
102
RTVSPost2010Prop54
  1
strokes_ogs.tif
102
RTVSPost2010PropOp54
 70
     1
102
RTVSPost2010Prop55
280
     0
102
RTVSPost2010PropOp55
 70
     1
102
RTVSPost2010Prop56
140
1.0
102
RTVSPost2010PropOp56
 70
     1
102
RTVSPost2010Prop57
140
1.0
102
RTVSPost2010PropOp57
 70
     1
102
RTVSPropertyOp0
 70
     1
102
RTVSPropertyOp1
 70
     1
102
RTVSPropertyOp2
 70
     1
102
RTVSPropertyOp3
 70
     1
102
RTVSPropertyOp4
 70
     1
102
RTVSPropertyOp5
 70
     1
102
RTVSPropertyOp6
 70
     1
102
RTVSPropertyOp7
 70
     1
102
RTVSPropertyOp8
 70
     1
102
RTVSPropertyOp9
 70
     1
102
RTVSPropertyOp10
 70
     1
102
RTVSPropertyOp11
 70
     1
102
RTVSPropertyOp12
 70
     1
102
RTVSPropertyOp13
 70
     1
102
RTVSPropertyOp14
 70
     1
102
RTVSPropertyOp15
 70
     1
102
RTVSPropertyOp16
 70
     1
102
RTVSPropertyOp17
 70
     1
102
RTVSPropertyOp18
 70
     1
102
RTVSPropertyOp19
 70
     1
102
RTVSPropertyOp20
 70
     1
102
RTVSPropertyOp21
 70
     1
102
RTVSPropertyOp22
 70
     1
102
RTVSPropertyOp23
 70
     1
102
RTVSPropertyOp24
 70
     1
102
RTVSPropertyOp25
 70
     1
102
RTVSPropertyOp26
 70
     1
102
RTVSPropertyOp27
 70
     1
102
RTVSPropertyOp28
 70
     1
102
RTVSPropertyOp29
 70
     1
102
RTVSPropertyOp30
 70
     1
102
RTVSPropertyOp31
 70
     1
102
RTVSPropertyOp32
 70
     1
102
RTVSPropertyOp33
 70
     1
102
RTVSPropertyOp34
 70
     1
102
RTVSPropertyOp35
 70
     1
102
RTVSPropertyOp36
 70
     1
102
RTVSPropertyOp37
 70
     1
102
RTVSPropertyOp38
 70
     1
102
RTVSPropertyOp39
 70
     1
102
RTVSPropertyOp40
 70
     1
102
RTVSPropertyOp41
 70
     1
102
RTVSPropertyOp42
 70
     1
102
RTVSPropertyOp43
 70
     1
102
RTVSPropertyOp44
 70
     1
102
RTVSPropertyOp45
 70
     1
102
RTVSPropertyOp46
 70
     1
102
RTVSPropertyOp47
 70
     1
102
RTVSPropertyOp48
 70
     1
102
RTVSPropertyOp49
 70
     1
102
RTVSPropertyOp50
 70
     1
102
RTVSPropertyOp51
 70
     0
102
RTVSPropertyOp52
 70
     0
102
RTVSPropertyOp53
 70
     1
102
RTVSPropertyOp54
 70
     1
102
RTVSPropertyOp55
 70
     1
102
RTVSPropertyOp56
 70
     1
102
RTVSPropertyOp57
 70
     1
102
RTVSPropertyOp58
 70
     1
102
RTVSPropertyOp59
 70
     1
102
RTVSPropertyOp60
 70
     1
102
RTVSPropertyOp61
 70
     1
102
RTVSPropertyOp62
 70
     1
  0
XRECORD
  5
C70
102
{ACAD_REACTORS
330
C6F
102
}
330
C6F
100
AcDbXrecord
280
     1
102
RTVSPost2010Prop28
280
     0
102
RTVSPost2010PropOp28
 70
     0
102
RTVSPost2010Prop29
280
     1
102
RTVSPost2010PropOp29
 70
     0
102
RTVSPost2010Prop30
280
     1
102
RTVSPost2010PropOp30
 70
     0
102
RTVSPost2010Prop31
280
     0
102
RTVSPost2010PropOp31
 70
     0
102
RTVSPost2010Prop32
280
     0
102
RTVSPost2010PropOp32
 70
     0
102
RTVSPost2010Prop33
280
     0
102
RTVSPost2010PropOp33
 70
     0
102
RTVSPost2010Prop34
280
     0
102
RTVSPost2010PropOp34
 70
     0
102
RTVSPost2010Prop35
280
     0
102
RTVSPost2010PropOp35
 70
     0
102
RTVSPost2010Prop36
280
     0
102
RTVSPost2010PropOp36
 70
     0
102
RTVSPost2010Prop37
 90
       50
102
RTVSPost2010PropOp37
 70
     0
102
RTVSPost2010Prop38
140
0.0
102
RTVSPost2010PropOp38
 70
     0
102
RTVSPost2010Prop39
140
1.0
102
RTVSPost2010PropOp39
 70
     0
102
RTVSPost2010Prop40
 90
        0
102
RTVSPost2010PropOp40
 70
     0
102
RTVSPost2010Prop41ColorIndex
 90
       18
102
RTVSPost2010Prop41ColorRGB
 90
-16777216
102
RTVSPost2010PropOp41
 70
     0
102
RTVSPost2010Prop42
 90
       50
102
RTVSPost2010PropOp42
 70
     0
102
RTVSPost2010Prop43
 90
        3
102
RTVSPost2010PropOp43
 70
     0
102
RTVSPost2010Prop44ColorIndex
 90
        5
102
RTVSPost2010Prop44ColorRGB
 90
      255
102
RTVSPost2010PropOp44
 70
     0
102
RTVSPost2010Prop45
280
     0
102
RTVSPost2010PropOp45
 70
     0
102
RTVSPost2010Prop46
 90
       50
102
RTVSPost2010PropOp46
 70
     0
102
RTVSPost2010Prop47
 90
       50
102
RTVSPost2010PropOp47
 70
     0
102
RTVSPost2010Prop48
 90
       50
102
RTVSPost2010PropOp48
 70
     0
102
RTVSPost2010Prop49
280
     0
102
RTVSPost2010PropOp49
 70
     0
102
RTVSPost2010Prop50
 90
       50
102
RTVSPost2010PropOp50
 70
     0
102
RTVSPost2010Prop51ColorIndex
 90
      256
102
RTVSPost2010Prop51ColorRGB
 90
-16777216
102
RTVSPost2010PropOp51
 70
     0
102
RTVSPost2010Prop52
140
1.0
102
RTVSPost2010PropOp52
 70
     0
102
RTVSPost2010Prop53
 90
        2
102
RTVSPost2010PropOp53
 70
     0
102
RTVSPost2010Prop54
  1
strokes_ogs.tif
102
RTVSPost2010PropOp54
 70
     0
102
RTVSPost2010Prop55
280
     0
102
RTVSPost2010PropOp55
 70
     0
102
RTVSPost2010Prop56
140
1.0
102
RTVSPost2010PropOp56
 70
     0
102
RTVSPost2010Prop57
140
1.0
102
RTVSPost2010PropOp57
 70
     0
102
RTVSPropertyOp0
 70
     0
102
RTVSPropertyOp1
 70
     0
102
RTVSPropertyOp2
 70
     0
102
RTVSPropertyOp3
 70
     0
102
RTVSPropertyOp4
 70
     0
102
RTVSPropertyOp5
 70
     0
102
RTVSPropertyOp6
 70
     0
102
RTVSPropertyOp7
 70
     0
102
RTVSPropertyOp8
 70
     0
102
RTVSPropertyOp9
 70
     0
102
RTVSPropertyOp10
 70
     0
102
RTVSPropertyOp11
 70
     0
102
RTVSPropertyOp12
 70
     0
102
RTVSPropertyOp13
 70
     0
102
RTVSPropertyOp14
 70
     2
102
RTVSPropertyOp15
 70
     0
102
RTVSPropertyOp16
 70
     0
102
RTVSPropertyOp17
 70
     0
102
RTVSPropertyOp18
 70
     0
102
RTVSPropertyOp19
 70
     0
102
RTVSPropertyOp20
 70
     0
102
RTVSPropertyOp21
 70
     0
102
RTVSPropertyOp22
 70
     0
102
RTVSPropertyOp23
 70
     0
102
RTVSPropertyOp24
 70
     0
102
RTVSPropertyOp25
 70
     0
102
RTVSPropertyOp26
 70
     0
102
RTVSPropertyOp27
 70
     0
102
RTVSPropertyOp28
 70
     0
102
RTVSPropertyOp29
 70
     0
102
RTVSPropertyOp30
 70
     0
102
RTVSPropertyOp31
 70
     0
102
RTVSPropertyOp32
 70
     0
102
RTVSPropertyOp33
 70
     0
102
RTVSPropertyOp34
 70
     0
102
RTVSPropertyOp35
 70
     0
102
RTVSPropertyOp36
 70
     0
102
RTVSPropertyOp37
 70
     0
102
RTVSPropertyOp38
 70
     0
102
RTVSPropertyOp39
 70
     0
102
RTVSPropertyOp40
 70
     0
102
RTVSPropertyOp41
 70
     0
102
RTVSPropertyOp42
 70
     0
102
RTVSPropertyOp43
 70
     0
102
RTVSPropertyOp44
 70
     0
102
RTVSPropertyOp45
 70
     0
102
RTVSPropertyOp46
 70
     0
102
RTVSPropertyOp47
 70
     0
102
RTVSPropertyOp48
 70
     0
102
RTVSPropertyOp49
 70
     0
102
RTVSPropertyOp50
 70
     0
102
RTVSPropertyOp51
 70
     0
102
RTVSPropertyOp52
 70
     0
102
RTVSPropertyOp53
 70
     0
102
RTVSPropertyOp54
 70
     0
102
RTVSPropertyOp55
 70
     0
102
RTVSPropertyOp56
 70
     0
102
RTVSPropertyOp57
 70
     0
102
RTVSPropertyOp58
 70
     1
102
RTVSPropertyOp59
 70
     1
102
RTVSPropertyOp60
 70
     1
102
RTVSPropertyOp61
 70
     1
102
RTVSPropertyOp62
 70
     1
  0
XRECORD
  5
C68
102
{ACAD_REACTORS
330
C67
102
}
330
C67
100
AcDbXrecord
280
     1
102
RTVSPost2010Prop28
280
     0
102
RTVSPost2010PropOp28
 70
     1
102
RTVSPost2010Prop29
280
     1
102
RTVSPost2010PropOp29
 70
     1
102
RTVSPost2010Prop30
280
     1
102
RTVSPost2010PropOp30
 70
     1
102
RTVSPost2010Prop31
280
     0
102
RTVSPost2010PropOp31
 70
     1
102
RTVSPost2010Prop32
280
     0
102
RTVSPost2010PropOp32
 70
     1
102
RTVSPost2010Prop33
280
     0
102
RTVSPost2010PropOp33
 70
     1
102
RTVSPost2010Prop34
280
     0
102
RTVSPost2010PropOp34
 70
     1
102
RTVSPost2010Prop35
280
     0
102
RTVSPost2010PropOp35
 70
     1
102
RTVSPost2010Prop36
280
     0
102
RTVSPost2010PropOp36
 70
     1
102
RTVSPost2010Prop37
 90
       50
102
RTVSPost2010PropOp37
 70
     1
102
RTVSPost2010Prop38
140
0.0
102
RTVSPost2010PropOp38
 70
     1
102
RTVSPost2010Prop39
140
1.0
102
RTVSPost2010PropOp39
 70
     1
102
RTVSPost2010Prop40
 90
        0
102
RTVSPost2010PropOp40
 70
     1
102
RTVSPost2010Prop41ColorIndex
 90
       18
102
RTVSPost2010Prop41ColorRGB
 90
-16777216
102
RTVSPost2010PropOp41
 70
     1
102
RTVSPost2010Prop42
 90
       50
102
RTVSPost2010PropOp42
 70
     1
102
RTVSPost2010Prop43
 90
        3
102
RTVSPost2010PropOp43
 70
     1
102
RTVSPost2010Prop44ColorIndex
 90
        5
102
RTVSPost2010Prop44ColorRGB
 90
      255
102
RTVSPost2010PropOp44
 70
     1
102
RTVSPost2010Prop45
280
     0
102
RTVSPost2010PropOp45
 70
     1
102
RTVSPost2010Prop46
 90
       50
102
RTVSPost2010PropOp46
 70
     1
102
RTVSPost2010Prop47
 90
       50
102
RTVSPost2010PropOp47
 70
     1
102
RTVSPost2010Prop48
 90
       50
102
RTVSPost2010PropOp48
 70
     1
102
RTVSPost2010Prop49
280
     0
102
RTVSPost2010PropOp49
 70
     1
102
RTVSPost2010Prop50
 90
       50
102
RTVSPost2010PropOp50
 70
     1
102
RTVSPost2010Prop51ColorIndex
 90
      256
102
RTVSPost2010Prop51ColorRGB
 90
-16777216
102
RTVSPost2010PropOp51
 70
     0
102
RTVSPost2010Prop52
140
1.0
102
RTVSPost2010PropOp52
 70
     0
102
RTVSPost2010Prop53
 90
        2
102
RTVSPost2010PropOp53
 70
     1
102
RTVSPost2010Prop54
  1
strokes_ogs.tif
102
RTVSPost2010PropOp54
 70
     1
102
RTVSPost2010Prop55
280
     0
102
RTVSPost2010PropOp55
 70
     1
102
RTVSPost2010Prop56
140
1.0
102
RTVSPost2010PropOp56
 70
     1
102
RTVSPost2010Prop57
140
1.0
102
RTVSPost2010PropOp57
 70
     1
102
RTVSPropertyOp0
 70
     1
102
RTVSPropertyOp1
 70
     1
102
RTVSPropertyOp2
 70
     1
102
RTVSPropertyOp3
 70
     1
102
RTVSPropertyOp4
 70
     1
102
RTVSPropertyOp5
 70
     1
102
RTVSPropertyOp6
 70
     1
102
RTVSPropertyOp7
 70
     1
102
RTVSPropertyOp8
 70
     1
102
RTVSPropertyOp9
 70
     1
102
RTVSPropertyOp10
 70
     1
102
RTVSPropertyOp11
 70
     1
102
RTVSPropertyOp12
 70
     1
102
RTVSPropertyOp13
 70
     1
102
RTVSPropertyOp14
 70
     1
102
RTVSPropertyOp15
 70
     1
102
RTVSPropertyOp16
 70
     1
102
RTVSPropertyOp17
 70
     1
102
RTVSPropertyOp18
 70
     1
102
RTVSPropertyOp19
 70
     1
102
RTVSPropertyOp20
 70
     1
102
RTVSPropertyOp21
 70
     1
102
RTVSPropertyOp22
 70
     1
102
RTVSPropertyOp23
 70
     1
102
RTVSPropertyOp24
 70
     1
102
RTVSPropertyOp25
 70
     1
102
RTVSPropertyOp26
 70
     1
102
RTVSPropertyOp27
 70
     1
102
RTVSPropertyOp28
 70
     1
102
RTVSPropertyOp29
 70
     1
102
RTVSPropertyOp30
 70
     1
102
RTVSPropertyOp31
 70
     1
102
RTVSPropertyOp32
 70
     1
102
RTVSPropertyOp33
 70
     1
102
RTVSPropertyOp34
 70
     1
102
RTVSPropertyOp35
 70
     1
102
RTVSPropertyOp36
 70
     1
102
RTVSPropertyOp37
 70
     1
102
RTVSPropertyOp38
 70
     1
102
RTVSPropertyOp39
 70
     1
102
RTVSPropertyOp40
 70
     1
102
RTVSPropertyOp41
 70
     1
102
RTVSPropertyOp42
 70
     1
102
RTVSPropertyOp43
 70
     1
102
RTVSPropertyOp44
 70
     1
102
RTVSPropertyOp45
 70
     1
102
RTVSPropertyOp46
 70
     1
102
RTVSPropertyOp47
 70
     1
102
RTVSPropertyOp48
 70
     1
102
RTVSPropertyOp49
 70
     1
102
RTVSPropertyOp50
 70
     1
102
RTVSPropertyOp51
 70
     0
102
RTVSPropertyOp52
 70
     0
102
RTVSPropertyOp53
 70
     1
102
RTVSPropertyOp54
 70
     1
102
RTVSPropertyOp55
 70
     1
102
RTVSPropertyOp56
 70
     1
102
RTVSPropertyOp57
 70
     1
102
RTVSPropertyOp58
 70
     1
102
RTVSPropertyOp59
 70
     1
102
RTVSPropertyOp60
 70
     1
102
RTVSPropertyOp61
 70
     1
102
RTVSPropertyOp62
 70
     1
  0
XRECORD
  5
C4C
102
{ACAD_REACTORS
330
C4B
102
}
330
C4B
100
AcDbXrecord
280
     1
102
RTVSPost2010Prop28
280
     0
102
RTVSPost2010PropOp28
 70
     1
102
RTVSPost2010Prop29
280
     1
102
RTVSPost2010PropOp29
 70
     1
102
RTVSPost2010Prop30
280
     1
102
RTVSPost2010PropOp30
 70
     1
102
RTVSPost2010Prop31
280
     0
102
RTVSPost2010PropOp31
 70
     1
102
RTVSPost2010Prop32
280
     0
102
RTVSPost2010PropOp32
 70
     1
102
RTVSPost2010Prop33
280
     0
102
RTVSPost2010PropOp33
 70
     1
102
RTVSPost2010Prop34
280
     0
102
RTVSPost2010PropOp34
 70
     1
102
RTVSPost2010Prop35
280
     0
102
RTVSPost2010PropOp35
 70
     1
102
RTVSPost2010Prop36
280
     0
102
RTVSPost2010PropOp36
 70
     1
102
RTVSPost2010Prop37
 90
       50
102
RTVSPost2010PropOp37
 70
     1
102
RTVSPost2010Prop38
140
0.0
102
RTVSPost2010PropOp38
 70
     1
102
RTVSPost2010Prop39
140
1.0
102
RTVSPost2010PropOp39
 70
     1
102
RTVSPost2010Prop40
 90
        0
102
RTVSPost2010PropOp40
 70
     1
102
RTVSPost2010Prop41ColorIndex
 90
       18
102
RTVSPost2010Prop41ColorRGB
 90
-16777216
102
RTVSPost2010PropOp41
 70
     1
102
RTVSPost2010Prop42
 90
       50
102
RTVSPost2010PropOp42
 70
     1
102
RTVSPost2010Prop43
 90
        3
102
RTVSPost2010PropOp43
 70
     1
102
RTVSPost2010Prop44ColorIndex
 90
        5
102
RTVSPost2010Prop44ColorRGB
 90
      255
102
RTVSPost2010PropOp44
 70
     1
102
RTVSPost2010Prop45
280
     0
102
RTVSPost2010PropOp45
 70
     1
102
RTVSPost2010Prop46
 90
       50
102
RTVSPost2010PropOp46
 70
     1
102
RTVSPost2010Prop47
 90
       50
102
RTVSPost2010PropOp47
 70
     1
102
RTVSPost2010Prop48
 90
       50
102
RTVSPost2010PropOp48
 70
     1
102
RTVSPost2010Prop49
280
     0
102
RTVSPost2010PropOp49
 70
     1
102
RTVSPost2010Prop50
 90
       50
102
RTVSPost2010PropOp50
 70
     1
102
RTVSPost2010Prop51ColorIndex
 90
      256
102
RTVSPost2010Prop51ColorRGB
 90
-16777216
102
RTVSPost2010PropOp51
 70
     0
102
RTVSPost2010Prop52
140
1.0
102
RTVSPost2010PropOp52
 70
     0
102
RTVSPost2010Prop53
 90
        2
102
RTVSPost2010PropOp53
 70
     1
102
RTVSPost2010Prop54
  1
strokes_ogs.tif
102
RTVSPost2010PropOp54
 70
     1
102
RTVSPost2010Prop55
280
     0
102
RTVSPost2010PropOp55
 70
     1
102
RTVSPost2010Prop56
140
1.0
102
RTVSPost2010PropOp56
 70
     1
102
RTVSPost2010Prop57
140
1.0
102
RTVSPost2010PropOp57
 70
     1
102
RTVSPropertyOp0
 70
     1
102
RTVSPropertyOp1
 70
     1
102
RTVSPropertyOp2
 70
     1
102
RTVSPropertyOp3
 70
     1
102
RTVSPropertyOp4
 70
     1
102
RTVSPropertyOp5
 70
     1
102
RTVSPropertyOp6
 70
     1
102
RTVSPropertyOp7
 70
     1
102
RTVSPropertyOp8
 70
     1
102
RTVSPropertyOp9
 70
     1
102
RTVSPropertyOp10
 70
     1
102
RTVSPropertyOp11
 70
     1
102
RTVSPropertyOp12
 70
     1
102
RTVSPropertyOp13
 70
     1
102
RTVSPropertyOp14
 70
     1
102
RTVSPropertyOp15
 70
     1
102
RTVSPropertyOp16
 70
     1
102
RTVSPropertyOp17
 70
     1
102
RTVSPropertyOp18
 70
     1
102
RTVSPropertyOp19
 70
     1
102
RTVSPropertyOp20
 70
     1
102
RTVSPropertyOp21
 70
     1
102
RTVSPropertyOp22
 70
     1
102
RTVSPropertyOp23
 70
     1
102
RTVSPropertyOp24
 70
     1
102
RTVSPropertyOp25
 70
     1
102
RTVSPropertyOp26
 70
     1
102
RTVSPropertyOp27
 70
     1
102
RTVSPropertyOp28
 70
     1
102
RTVSPropertyOp29
 70
     1
102
RTVSPropertyOp30
 70
     1
102
RTVSPropertyOp31
 70
     1
102
RTVSPropertyOp32
 70
     1
102
RTVSPropertyOp33
 70
     1
102
RTVSPropertyOp34
 70
     1
102
RTVSPropertyOp35
 70
     1
102
RTVSPropertyOp36
 70
     1
102
RTVSPropertyOp37
 70
     1
102
RTVSPropertyOp38
 70
     1
102
RTVSPropertyOp39
 70
     1
102
RTVSPropertyOp40
 70
     1
102
RTVSPropertyOp41
 70
     1
102
RTVSPropertyOp42
 70
     1
102
RTVSPropertyOp43
 70
     1
102
RTVSPropertyOp44
 70
     1
102
RTVSPropertyOp45
 70
     1
102
RTVSPropertyOp46
 70
     1
102
RTVSPropertyOp47
 70
     1
102
RTVSPropertyOp48
 70
     1
102
RTVSPropertyOp49
 70
     1
102
RTVSPropertyOp50
 70
     1
102
RTVSPropertyOp51
 70
     0
102
RTVSPropertyOp52
 70
     0
102
RTVSPropertyOp53
 70
     1
102
RTVSPropertyOp54
 70
     1
102
RTVSPropertyOp55
 70
     1
102
RTVSPropertyOp56
 70
     1
102
RTVSPropertyOp57
 70
     1
102
RTVSPropertyOp58
 70
     1
102
RTVSPropertyOp59
 70
     1
102
RTVSPropertyOp60
 70
     1
102
RTVSPropertyOp61
 70
     1
102
RTVSPropertyOp62
 70
     1
  0
XRECORD
  5
C4E
102
{ACAD_REACTORS
330
C4D
102
}
330
C4D
100
AcDbXrecord
280
     1
102
RTVSPost2010Prop28
280
     0
102
RTVSPost2010PropOp28
 70
     1
102
RTVSPost2010Prop29
280
     1
102
RTVSPost2010PropOp29
 70
     1
102
RTVSPost2010Prop30
280
     1
102
RTVSPost2010PropOp30
 70
     1
102
RTVSPost2010Prop31
280
     0
102
RTVSPost2010PropOp31
 70
     1
102
RTVSPost2010Prop32
280
     0
102
RTVSPost2010PropOp32
 70
     1
102
RTVSPost2010Prop33
280
     0
102
RTVSPost2010PropOp33
 70
     1
102
RTVSPost2010Prop34
280
     0
102
RTVSPost2010PropOp34
 70
     1
102
RTVSPost2010Prop35
280
     0
102
RTVSPost2010PropOp35
 70
     1
102
RTVSPost2010Prop36
280
     0
102
RTVSPost2010PropOp36
 70
     1
102
RTVSPost2010Prop37
 90
       50
102
RTVSPost2010PropOp37
 70
     1
102
RTVSPost2010Prop38
140
0.0
102
RTVSPost2010PropOp38
 70
     1
102
RTVSPost2010Prop39
140
1.0
102
RTVSPost2010PropOp39
 70
     1
102
RTVSPost2010Prop40
 90
        0
102
RTVSPost2010PropOp40
 70
     1
102
RTVSPost2010Prop41ColorIndex
 90
       18
102
RTVSPost2010Prop41ColorRGB
 90
-16777216
102
RTVSPost2010PropOp41
 70
     1
102
RTVSPost2010Prop42
 90
       50
102
RTVSPost2010PropOp42
 70
     1
102
RTVSPost2010Prop43
 90
        3
102
RTVSPost2010PropOp43
 70
     1
102
RTVSPost2010Prop44ColorIndex
 90
        5
102
RTVSPost2010Prop44ColorRGB
 90
      255
102
RTVSPost2010PropOp44
 70
     1
102
RTVSPost2010Prop45
280
     0
102
RTVSPost2010PropOp45
 70
     1
102
RTVSPost2010Prop46
 90
       50
102
RTVSPost2010PropOp46
 70
     1
102
RTVSPost2010Prop47
 90
       50
102
RTVSPost2010PropOp47
 70
     1
102
RTVSPost2010Prop48
 90
       50
102
RTVSPost2010PropOp48
 70
     1
102
RTVSPost2010Prop49
280
     0
102
RTVSPost2010PropOp49
 70
     1
102
RTVSPost2010Prop50
 90
       50
102
RTVSPost2010PropOp50
 70
     1
102
RTVSPost2010Prop51ColorIndex
 90
      256
102
RTVSPost2010Prop51ColorRGB
 90
-16777216
102
RTVSPost2010PropOp51
 70
     0
102
RTVSPost2010Prop52
140
1.0
102
RTVSPost2010PropOp52
 70
     0
102
RTVSPost2010Prop53
 90
        2
102
RTVSPost2010PropOp53
 70
     1
102
RTVSPost2010Prop54
  1
strokes_ogs.tif
102
RTVSPost2010PropOp54
 70
     1
102
RTVSPost2010Prop55
280
     0
102
RTVSPost2010PropOp55
 70
     1
102
RTVSPost2010Prop56
140
1.0
102
RTVSPost2010PropOp56
 70
     1
102
RTVSPost2010Prop57
140
1.0
102
RTVSPost2010PropOp57
 70
     1
102
RTVSPropertyOp0
 70
     1
102
RTVSPropertyOp1
 70
     1
102
RTVSPropertyOp2
 70
     1
102
RTVSPropertyOp3
 70
     1
102
RTVSPropertyOp4
 70
     1
102
RTVSPropertyOp5
 70
     1
102
RTVSPropertyOp6
 70
     1
102
RTVSPropertyOp7
 70
     1
102
RTVSPropertyOp8
 70
     1
102
RTVSPropertyOp9
 70
     1
102
RTVSPropertyOp10
 70
     1
102
RTVSPropertyOp11
 70
     1
102
RTVSPropertyOp12
 70
     1
102
RTVSPropertyOp13
 70
     1
102
RTVSPropertyOp14
 70
     1
102
RTVSPropertyOp15
 70
     1
102
RTVSPropertyOp16
 70
     1
102
RTVSPropertyOp17
 70
     1
102
RTVSPropertyOp18
 70
     1
102
RTVSPropertyOp19
 70
     1
102
RTVSPropertyOp20
 70
     1
102
RTVSPropertyOp21
 70
     1
102
RTVSPropertyOp22
 70
     1
102
RTVSPropertyOp23
 70
     1
102
RTVSPropertyOp24
 70
     1
102
RTVSPropertyOp25
 70
     1
102
RTVSPropertyOp26
 70
     1
102
RTVSPropertyOp27
 70
     1
102
RTVSPropertyOp28
 70
     1
102
RTVSPropertyOp29
 70
     1
102
RTVSPropertyOp30
 70
     1
102
RTVSPropertyOp31
 70
     1
102
RTVSPropertyOp32
 70
     1
102
RTVSPropertyOp33
 70
     1
102
RTVSPropertyOp34
 70
     1
102
RTVSPropertyOp35
 70
     1
102
RTVSPropertyOp36
 70
     1
102
RTVSPropertyOp37
 70
     1
102
RTVSPropertyOp38
 70
     1
102
RTVSPropertyOp39
 70
     1
102
RTVSPropertyOp40
 70
     1
102
RTVSPropertyOp41
 70
     1
102
RTVSPropertyOp42
 70
     1
102
RTVSPropertyOp43
 70
     1
102
RTVSPropertyOp44
 70
     1
102
RTVSPropertyOp45
 70
     1
102
RTVSPropertyOp46
 70
     1
102
RTVSPropertyOp47
 70
     1
102
RTVSPropertyOp48
 70
     1
102
RTVSPropertyOp49
 70
     1
102
RTVSPropertyOp50
 70
     1
102
RTVSPropertyOp51
 70
     0
102
RTVSPropertyOp52
 70
     0
102
RTVSPropertyOp53
 70
     1
102
RTVSPropertyOp54
 70
     1
102
RTVSPropertyOp55
 70
     1
102
RTVSPropertyOp56
 70
     1
102
RTVSPropertyOp57
 70
     1
102
RTVSPropertyOp58
 70
     1
102
RTVSPropertyOp59
 70
     1
102
RTVSPropertyOp60
 70
     1
102
RTVSPropertyOp61
 70
     1
102
RTVSPropertyOp62
 70
     1
  0
XRECORD
  5
C50
102
{ACAD_REACTORS
330
C4F
102
}
330
C4F
100
AcDbXrecord
280
     1
102
RTVSPost2010Prop28
280
     0
102
RTVSPost2010PropOp28
 70
     1
102
RTVSPost2010Prop29
280
     1
102
RTVSPost2010PropOp29
 70
     1
102
RTVSPost2010Prop30
280
     1
102
RTVSPost2010PropOp30
 70
     1
102
RTVSPost2010Prop31
280
     0
102
RTVSPost2010PropOp31
 70
     1
102
RTVSPost2010Prop32
280
     0
102
RTVSPost2010PropOp32
 70
     1
102
RTVSPost2010Prop33
280
     0
102
RTVSPost2010PropOp33
 70
     1
102
RTVSPost2010Prop34
280
     0
102
RTVSPost2010PropOp34
 70
     1
102
RTVSPost2010Prop35
280
     0
102
RTVSPost2010PropOp35
 70
     1
102
RTVSPost2010Prop36
280
     0
102
RTVSPost2010PropOp36
 70
     1
102
RTVSPost2010Prop37
 90
       50
102
RTVSPost2010PropOp37
 70
     1
102
RTVSPost2010Prop38
140
0.0
102
RTVSPost2010PropOp38
 70
     1
102
RTVSPost2010Prop39
140
1.0
102
RTVSPost2010PropOp39
 70
     1
102
RTVSPost2010Prop40
 90
        0
102
RTVSPost2010PropOp40
 70
     1
102
RTVSPost2010Prop41ColorIndex
 90
       18
102
RTVSPost2010Prop41ColorRGB
 90
-16777216
102
RTVSPost2010PropOp41
 70
     1
102
RTVSPost2010Prop42
 90
       50
102
RTVSPost2010PropOp42
 70
     1
102
RTVSPost2010Prop43
 90
        3
102
RTVSPost2010PropOp43
 70
     1
102
RTVSPost2010Prop44ColorIndex
 90
        5
102
RTVSPost2010Prop44ColorRGB
 90
      255
102
RTVSPost2010PropOp44
 70
     1
102
RTVSPost2010Prop45
280
     0
102
RTVSPost2010PropOp45
 70
     1
102
RTVSPost2010Prop46
 90
       50
102
RTVSPost2010PropOp46
 70
     1
102
RTVSPost2010Prop47
 90
       50
102
RTVSPost2010PropOp47
 70
     1
102
RTVSPost2010Prop48
 90
       50
102
RTVSPost2010PropOp48
 70
     1
102
RTVSPost2010Prop49
280
     0
102
RTVSPost2010PropOp49
 70
     1
102
RTVSPost2010Prop50
 90
       50
102
RTVSPost2010PropOp50
 70
     1
102
RTVSPost2010Prop51ColorIndex
 90
      256
102
RTVSPost2010Prop51ColorRGB
 90
-16777216
102
RTVSPost2010PropOp51
 70
     0
102
RTVSPost2010Prop52
140
1.0
102
RTVSPost2010PropOp52
 70
     0
102
RTVSPost2010Prop53
 90
        2
102
RTVSPost2010PropOp53
 70
     1
102
RTVSPost2010Prop54
  1
strokes_ogs.tif
102
RTVSPost2010PropOp54
 70
     1
102
RTVSPost2010Prop55
280
     0
102
RTVSPost2010PropOp55
 70
     1
102
RTVSPost2010Prop56
140
1.0
102
RTVSPost2010PropOp56
 70
     1
102
RTVSPost2010Prop57
140
1.0
102
RTVSPost2010PropOp57
 70
     1
102
RTVSPropertyOp0
 70
     1
102
RTVSPropertyOp1
 70
     1
102
RTVSPropertyOp2
 70
     1
102
RTVSPropertyOp3
 70
     1
102
RTVSPropertyOp4
 70
     1
102
RTVSPropertyOp5
 70
     1
102
RTVSPropertyOp6
 70
     1
102
RTVSPropertyOp7
 70
     1
102
RTVSPropertyOp8
 70
     1
102
RTVSPropertyOp9
 70
     1
102
RTVSPropertyOp10
 70
     1
102
RTVSPropertyOp11
 70
     1
102
RTVSPropertyOp12
 70
     1
102
RTVSPropertyOp13
 70
     1
102
RTVSPropertyOp14
 70
     1
102
RTVSPropertyOp15
 70
     1
102
RTVSPropertyOp16
 70
     1
102
RTVSPropertyOp17
 70
     1
102
RTVSPropertyOp18
 70
     1
102
RTVSPropertyOp19
 70
     1
102
RTVSPropertyOp20
 70
     1
102
RTVSPropertyOp21
 70
     1
102
RTVSPropertyOp22
 70
     1
102
RTVSPropertyOp23
 70
     1
102
RTVSPropertyOp24
 70
     1
102
RTVSPropertyOp25
 70
     1
102
RTVSPropertyOp26
 70
     1
102
RTVSPropertyOp27
 70
     1
102
RTVSPropertyOp28
 70
     1
102
RTVSPropertyOp29
 70
     1
102
RTVSPropertyOp30
 70
     1
102
RTVSPropertyOp31
 70
     1
102
RTVSPropertyOp32
 70
     1
102
RTVSPropertyOp33
 70
     1
102
RTVSPropertyOp34
 70
     1
102
RTVSPropertyOp35
 70
     1
102
RTVSPropertyOp36
 70
     1
102
RTVSPropertyOp37
 70
     1
102
RTVSPropertyOp38
 70
     1
102
RTVSPropertyOp39
 70
     1
102
RTVSPropertyOp40
 70
     1
102
RTVSPropertyOp41
 70
     1
102
RTVSPropertyOp42
 70
     1
102
RTVSPropertyOp43
 70
     1
102
RTVSPropertyOp44
 70
     1
102
RTVSPropertyOp45
 70
     1
102
RTVSPropertyOp46
 70
     1
102
RTVSPropertyOp47
 70
     1
102
RTVSPropertyOp48
 70
     1
102
RTVSPropertyOp49
 70
     1
102
RTVSPropertyOp50
 70
     1
102
RTVSPropertyOp51
 70
     0
102
RTVSPropertyOp52
 70
     0
102
RTVSPropertyOp53
 70
     1
102
RTVSPropertyOp54
 70
     1
102
RTVSPropertyOp55
 70
     1
102
RTVSPropertyOp56
 70
     1
102
RTVSPropertyOp57
 70
     1
102
RTVSPropertyOp58
 70
     1
102
RTVSPropertyOp59
 70
     1
102
RTVSPropertyOp60
 70
     1
102
RTVSPropertyOp61
 70
     1
102
RTVSPropertyOp62
 70
     1
  0
XRECORD
  5
C52
102
{ACAD_REACTORS
330
C51
102
}
330
C51
100
AcDbXrecord
280
     1
102
RTVSPost2010Prop28
280
     0
102
RTVSPost2010PropOp28
 70
     1
102
RTVSPost2010Prop29
280
     1
102
RTVSPost2010PropOp29
 70
     1
102
RTVSPost2010Prop30
280
     1
102
RTVSPost2010PropOp30
 70
     1
102
RTVSPost2010Prop31
280
     0
102
RTVSPost2010PropOp31
 70
     1
102
RTVSPost2010Prop32
280
     0
102
RTVSPost2010PropOp32
 70
     1
102
RTVSPost2010Prop33
280
     0
102
RTVSPost2010PropOp33
 70
     1
102
RTVSPost2010Prop34
280
     0
102
RTVSPost2010PropOp34
 70
     1
102
RTVSPost2010Prop35
280
     0
102
RTVSPost2010PropOp35
 70
     1
102
RTVSPost2010Prop36
280
     0
102
RTVSPost2010PropOp36
 70
     1
102
RTVSPost2010Prop37
 90
       50
102
RTVSPost2010PropOp37
 70
     1
102
RTVSPost2010Prop38
140
0.0
102
RTVSPost2010PropOp38
 70
     1
102
RTVSPost2010Prop39
140
1.0
102
RTVSPost2010PropOp39
 70
     1
102
RTVSPost2010Prop40
 90
        0
102
RTVSPost2010PropOp40
 70
     1
102
RTVSPost2010Prop41ColorIndex
 90
       18
102
RTVSPost2010Prop41ColorRGB
 90
-16777216
102
RTVSPost2010PropOp41
 70
     1
102
RTVSPost2010Prop42
 90
       50
102
RTVSPost2010PropOp42
 70
     1
102
RTVSPost2010Prop43
 90
        3
102
RTVSPost2010PropOp43
 70
     1
102
RTVSPost2010Prop44ColorIndex
 90
        5
102
RTVSPost2010Prop44ColorRGB
 90
      255
102
RTVSPost2010PropOp44
 70
     1
102
RTVSPost2010Prop45
280
     0
102
RTVSPost2010PropOp45
 70
     1
102
RTVSPost2010Prop46
 90
       50
102
RTVSPost2010PropOp46
 70
     1
102
RTVSPost2010Prop47
 90
       50
102
RTVSPost2010PropOp47
 70
     1
102
RTVSPost2010Prop48
 90
       50
102
RTVSPost2010PropOp48
 70
     1
102
RTVSPost2010Prop49
280
     0
102
RTVSPost2010PropOp49
 70
     1
102
RTVSPost2010Prop50
 90
       50
102
RTVSPost2010PropOp50
 70
     1
102
RTVSPost2010Prop51ColorIndex
 90
      256
102
RTVSPost2010Prop51ColorRGB
 90
-16777216
102
RTVSPost2010PropOp51
 70
     0
102
RTVSPost2010Prop52
140
1.0
102
RTVSPost2010PropOp52
 70
     0
102
RTVSPost2010Prop53
 90
        2
102
RTVSPost2010PropOp53
 70
     1
102
RTVSPost2010Prop54
  1
strokes_ogs.tif
102
RTVSPost2010PropOp54
 70
     1
102
RTVSPost2010Prop55
280
     0
102
RTVSPost2010PropOp55
 70
     1
102
RTVSPost2010Prop56
140
1.0
102
RTVSPost2010PropOp56
 70
     1
102
RTVSPost2010Prop57
140
1.0
102
RTVSPost2010PropOp57
 70
     1
102
RTVSPropertyOp0
 70
     1
102
RTVSPropertyOp1
 70
     1
102
RTVSPropertyOp2
 70
     1
102
RTVSPropertyOp3
 70
     1
102
RTVSPropertyOp4
 70
     1
102
RTVSPropertyOp5
 70
     1
102
RTVSPropertyOp6
 70
     1
102
RTVSPropertyOp7
 70
     1
102
RTVSPropertyOp8
 70
     1
102
RTVSPropertyOp9
 70
     1
102
RTVSPropertyOp10
 70
     1
102
RTVSPropertyOp11
 70
     1
102
RTVSPropertyOp12
 70
     1
102
RTVSPropertyOp13
 70
     1
102
RTVSPropertyOp14
 70
     1
102
RTVSPropertyOp15
 70
     1
102
RTVSPropertyOp16
 70
     1
102
RTVSPropertyOp17
 70
     1
102
RTVSPropertyOp18
 70
     1
102
RTVSPropertyOp19
 70
     1
102
RTVSPropertyOp20
 70
     1
102
RTVSPropertyOp21
 70
     1
102
RTVSPropertyOp22
 70
     1
102
RTVSPropertyOp23
 70
     1
102
RTVSPropertyOp24
 70
     1
102
RTVSPropertyOp25
 70
     1
102
RTVSPropertyOp26
 70
     1
102
RTVSPropertyOp27
 70
     1
102
RTVSPropertyOp28
 70
     1
102
RTVSPropertyOp29
 70
     1
102
RTVSPropertyOp30
 70
     1
102
RTVSPropertyOp31
 70
     1
102
RTVSPropertyOp32
 70
     1
102
RTVSPropertyOp33
 70
     1
102
RTVSPropertyOp34
 70
     1
102
RTVSPropertyOp35
 70
     1
102
RTVSPropertyOp36
 70
     1
102
RTVSPropertyOp37
 70
     1
102
RTVSPropertyOp38
 70
     1
102
RTVSPropertyOp39
 70
     1
102
RTVSPropertyOp40
 70
     1
102
RTVSPropertyOp41
 70
     1
102
RTVSPropertyOp42
 70
     1
102
RTVSPropertyOp43
 70
     1
102
RTVSPropertyOp44
 70
     1
102
RTVSPropertyOp45
 70
     1
102
RTVSPropertyOp46
 70
     1
102
RTVSPropertyOp47
 70
     1
102
RTVSPropertyOp48
 70
     1
102
RTVSPropertyOp49
 70
     1
102
RTVSPropertyOp50
 70
     1
102
RTVSPropertyOp51
 70
     0
102
RTVSPropertyOp52
 70
     0
102
RTVSPropertyOp53
 70
     1
102
RTVSPropertyOp54
 70
     1
102
RTVSPropertyOp55
 70
     1
102
RTVSPropertyOp56
 70
     1
102
RTVSPropertyOp57
 70
     1
102
RTVSPropertyOp58
 70
     1
102
RTVSPropertyOp59
 70
     1
102
RTVSPropertyOp60
 70
     1
102
RTVSPropertyOp61
 70
     1
102
RTVSPropertyOp62
 70
     1
  0
XRECORD
  5
C58
102
{ACAD_REACTORS
330
C57
102
}
330
C57
100
AcDbXrecord
280
     1
102
RTVSPost2010Prop28
280
     0
102
RTVSPost2010PropOp28
 70
     1
102
RTVSPost2010Prop29
280
     1
102
RTVSPost2010PropOp29
 70
     1
102
RTVSPost2010Prop30
280
     1
102
RTVSPost2010PropOp30
 70
     1
102
RTVSPost2010Prop31
280
     0
102
RTVSPost2010PropOp31
 70
     1
102
RTVSPost2010Prop32
280
     0
102
RTVSPost2010PropOp32
 70
     1
102
RTVSPost2010Prop33
280
     0
102
RTVSPost2010PropOp33
 70
     1
102
RTVSPost2010Prop34
280
     0
102
RTVSPost2010PropOp34
 70
     1
102
RTVSPost2010Prop35
280
     0
102
RTVSPost2010PropOp35
 70
     1
102
RTVSPost2010Prop36
280
     0
102
RTVSPost2010PropOp36
 70
     1
102
RTVSPost2010Prop37
 90
       50
102
RTVSPost2010PropOp37
 70
     1
102
RTVSPost2010Prop38
140
0.0
102
RTVSPost2010PropOp38
 70
     1
102
RTVSPost2010Prop39
140
1.0
102
RTVSPost2010PropOp39
 70
     1
102
RTVSPost2010Prop40
 90
        0
102
RTVSPost2010PropOp40
 70
     1
102
RTVSPost2010Prop41ColorIndex
 90
       18
102
RTVSPost2010Prop41ColorRGB
 90
-16777216
102
RTVSPost2010PropOp41
 70
     1
102
RTVSPost2010Prop42
 90
       50
102
RTVSPost2010PropOp42
 70
     1
102
RTVSPost2010Prop43
 90
        3
102
RTVSPost2010PropOp43
 70
     1
102
RTVSPost2010Prop44ColorIndex
 90
        5
102
RTVSPost2010Prop44ColorRGB
 90
      255
102
RTVSPost2010PropOp44
 70
     1
102
RTVSPost2010Prop45
280
     0
102
RTVSPost2010PropOp45
 70
     1
102
RTVSPost2010Prop46
 90
       50
102
RTVSPost2010PropOp46
 70
     1
102
RTVSPost2010Prop47
 90
       50
102
RTVSPost2010PropOp47
 70
     1
102
RTVSPost2010Prop48
 90
       50
102
RTVSPost2010PropOp48
 70
     1
102
RTVSPost2010Prop49
280
     0
102
RTVSPost2010PropOp49
 70
     1
102
RTVSPost2010Prop50
 90
       50
102
RTVSPost2010PropOp50
 70
     1
102
RTVSPost2010Prop51ColorIndex
 90
      256
102
RTVSPost2010Prop51ColorRGB
 90
-16777216
102
RTVSPost2010PropOp51
 70
     0
102
RTVSPost2010Prop52
140
1.0
102
RTVSPost2010PropOp52
 70
     0
102
RTVSPost2010Prop53
 90
        2
102
RTVSPost2010PropOp53
 70
     1
102
RTVSPost2010Prop54
  1
strokes_ogs.tif
102
RTVSPost2010PropOp54
 70
     1
102
RTVSPost2010Prop55
280
     0
102
RTVSPost2010PropOp55
 70
     1
102
RTVSPost2010Prop56
140
1.0
102
RTVSPost2010PropOp56
 70
     1
102
RTVSPost2010Prop57
140
1.0
102
RTVSPost2010PropOp57
 70
     1
102
RTVSPropertyOp0
 70
     1
102
RTVSPropertyOp1
 70
     1
102
RTVSPropertyOp2
 70
     1
102
RTVSPropertyOp3
 70
     1
102
RTVSPropertyOp4
 70
     1
102
RTVSPropertyOp5
 70
     1
102
RTVSPropertyOp6
 70
     1
102
RTVSPropertyOp7
 70
     1
102
RTVSPropertyOp8
 70
     1
102
RTVSPropertyOp9
 70
     1
102
RTVSPropertyOp10
 70
     1
102
RTVSPropertyOp11
 70
     1
102
RTVSPropertyOp12
 70
     1
102
RTVSPropertyOp13
 70
     1
102
RTVSPropertyOp14
 70
     1
102
RTVSPropertyOp15
 70
     1
102
RTVSPropertyOp16
 70
     1
102
RTVSPropertyOp17
 70
     1
102
RTVSPropertyOp18
 70
     1
102
RTVSPropertyOp19
 70
     1
102
RTVSPropertyOp20
 70
     1
102
RTVSPropertyOp21
 70
     1
102
RTVSPropertyOp22
 70
     1
102
RTVSPropertyOp23
 70
     1
102
RTVSPropertyOp24
 70
     1
102
RTVSPropertyOp25
 70
     1
102
RTVSPropertyOp26
 70
     1
102
RTVSPropertyOp27
 70
     1
102
RTVSPropertyOp28
 70
     1
102
RTVSPropertyOp29
 70
     1
102
RTVSPropertyOp30
 70
     1
102
RTVSPropertyOp31
 70
     1
102
RTVSPropertyOp32
 70
     1
102
RTVSPropertyOp33
 70
     1
102
RTVSPropertyOp34
 70
     1
102
RTVSPropertyOp35
 70
     1
102
RTVSPropertyOp36
 70
     1
102
RTVSPropertyOp37
 70
     1
102
RTVSPropertyOp38
 70
     1
102
RTVSPropertyOp39
 70
     1
102
RTVSPropertyOp40
 70
     1
102
RTVSPropertyOp41
 70
     1
102
RTVSPropertyOp42
 70
     1
102
RTVSPropertyOp43
 70
     1
102
RTVSPropertyOp44
 70
     1
102
RTVSPropertyOp45
 70
     1
102
RTVSPropertyOp46
 70
     1
102
RTVSPropertyOp47
 70
     1
102
RTVSPropertyOp48
 70
     1
102
RTVSPropertyOp49
 70
     1
102
RTVSPropertyOp50
 70
     1
102
RTVSPropertyOp51
 70
     0
102
RTVSPropertyOp52
 70
     0
102
RTVSPropertyOp53
 70
     1
102
RTVSPropertyOp54
 70
     1
102
RTVSPropertyOp55
 70
     1
102
RTVSPropertyOp56
 70
     1
102
RTVSPropertyOp57
 70
     1
102
RTVSPropertyOp58
 70
     1
102
RTVSPropertyOp59
 70
     1
102
RTVSPropertyOp60
 70
     1
102
RTVSPropertyOp61
 70
     1
102
RTVSPropertyOp62
 70
     1
  0
XRECORD
  5
C6C
102
{ACAD_REACTORS
330
C6B
102
}
330
C6B
100
AcDbXrecord
280
     1
102
RTVSPost2010Prop28
280
     0
102
RTVSPost2010PropOp28
 70
     0
102
RTVSPost2010Prop29
280
     1
102
RTVSPost2010PropOp29
 70
     0
102
RTVSPost2010Prop30
280
     1
102
RTVSPost2010PropOp30
 70
     0
102
RTVSPost2010Prop31
280
     0
102
RTVSPost2010PropOp31
 70
     0
102
RTVSPost2010Prop32
280
     0
102
RTVSPost2010PropOp32
 70
     0
102
RTVSPost2010Prop33
280
     0
102
RTVSPost2010PropOp33
 70
     0
102
RTVSPost2010Prop34
280
     0
102
RTVSPost2010PropOp34
 70
     0
102
RTVSPost2010Prop35
280
     0
102
RTVSPost2010PropOp35
 70
     0
102
RTVSPost2010Prop36
280
     0
102
RTVSPost2010PropOp36
 70
     0
102
RTVSPost2010Prop37
 90
       50
102
RTVSPost2010PropOp37
 70
     0
102
RTVSPost2010Prop38
140
0.0
102
RTVSPost2010PropOp38
 70
     0
102
RTVSPost2010Prop39
140
1.0
102
RTVSPost2010PropOp39
 70
     0
102
RTVSPost2010Prop40
 90
        0
102
RTVSPost2010PropOp40
 70
     0
102
RTVSPost2010Prop41ColorIndex
 90
       18
102
RTVSPost2010Prop41ColorRGB
 90
-16777216
102
RTVSPost2010PropOp41
 70
     0
102
RTVSPost2010Prop42
 90
       50
102
RTVSPost2010PropOp42
 70
     0
102
RTVSPost2010Prop43
 90
        3
102
RTVSPost2010PropOp43
 70
     0
102
RTVSPost2010Prop44ColorIndex
 90
        5
102
RTVSPost2010Prop44ColorRGB
 90
      255
102
RTVSPost2010PropOp44
 70
     0
102
RTVSPost2010Prop45
280
     0
102
RTVSPost2010PropOp45
 70
     0
102
RTVSPost2010Prop46
 90
       50
102
RTVSPost2010PropOp46
 70
     0
102
RTVSPost2010Prop47
 90
       50
102
RTVSPost2010PropOp47
 70
     0
102
RTVSPost2010Prop48
 90
       50
102
RTVSPost2010PropOp48
 70
     0
102
RTVSPost2010Prop49
280
     0
102
RTVSPost2010PropOp49
 70
     0
102
RTVSPost2010Prop50
 90
       50
102
RTVSPost2010PropOp50
 70
     0
102
RTVSPost2010Prop51ColorIndex
 90
      256
102
RTVSPost2010Prop51ColorRGB
 90
-16777216
102
RTVSPost2010PropOp51
 70
     0
102
RTVSPost2010Prop52
140
1.0
102
RTVSPost2010PropOp52
 70
     0
102
RTVSPost2010Prop53
 90
        2
102
RTVSPost2010PropOp53
 70
     0
102
RTVSPost2010Prop54
  1
strokes_ogs.tif
102
RTVSPost2010PropOp54
 70
     0
102
RTVSPost2010Prop55
280
     0
102
RTVSPost2010PropOp55
 70
     0
102
RTVSPost2010Prop56
140
1.0
102
RTVSPost2010PropOp56
 70
     0
102
RTVSPost2010Prop57
140
1.0
102
RTVSPost2010PropOp57
 70
     0
102
RTVSPropertyOp0
 70
     0
102
RTVSPropertyOp1
 70
     0
102
RTVSPropertyOp2
 70
     0
102
RTVSPropertyOp3
 70
     0
102
RTVSPropertyOp4
 70
     0
102
RTVSPropertyOp5
 70
     0
102
RTVSPropertyOp6
 70
     0
102
RTVSPropertyOp7
 70
     0
102
RTVSPropertyOp8
 70
     0
102
RTVSPropertyOp9
 70
     0
102
RTVSPropertyOp10
 70
     0
102
RTVSPropertyOp11
 70
     0
102
RTVSPropertyOp12
 70
     0
102
RTVSPropertyOp13
 70
     0
102
RTVSPropertyOp14
 70
     2
102
RTVSPropertyOp15
 70
     0
102
RTVSPropertyOp16
 70
     0
102
RTVSPropertyOp17
 70
     0
102
RTVSPropertyOp18
 70
     0
102
RTVSPropertyOp19
 70
     0
102
RTVSPropertyOp20
 70
     0
102
RTVSPropertyOp21
 70
     0
102
RTVSPropertyOp22
 70
     0
102
RTVSPropertyOp23
 70
     0
102
RTVSPropertyOp24
 70
     0
102
RTVSPropertyOp25
 70
     0
102
RTVSPropertyOp26
 70
     0
102
RTVSPropertyOp27
 70
     0
102
RTVSPropertyOp28
 70
     0
102
RTVSPropertyOp29
 70
     0
102
RTVSPropertyOp30
 70
     0
102
RTVSPropertyOp31
 70
     0
102
RTVSPropertyOp32
 70
     0
102
RTVSPropertyOp33
 70
     0
102
RTVSPropertyOp34
 70
     0
102
RTVSPropertyOp35
 70
     0
102
RTVSPropertyOp36
 70
     0
102
RTVSPropertyOp37
 70
     0
102
RTVSPropertyOp38
 70
     0
102
RTVSPropertyOp39
 70
     0
102
RTVSPropertyOp40
 70
     0
102
RTVSPropertyOp41
 70
     0
102
RTVSPropertyOp42
 70
     0
102
RTVSPropertyOp43
 70
     0
102
RTVSPropertyOp44
 70
     0
102
RTVSPropertyOp45
 70
     0
102
RTVSPropertyOp46
 70
     0
102
RTVSPropertyOp47
 70
     0
102
RTVSPropertyOp48
 70
     0
102
RTVSPropertyOp49
 70
     0
102
RTVSPropertyOp50
 70
     0
102
RTVSPropertyOp51
 70
     0
102
RTVSPropertyOp52
 70
     0
102
RTVSPropertyOp53
 70
     0
102
RTVSPropertyOp54
 70
     0
102
RTVSPropertyOp55
 70
     0
102
RTVSPropertyOp56
 70
     0
102
RTVSPropertyOp57
 70
     0
102
RTVSPropertyOp58
 70
     1
102
RTVSPropertyOp59
 70
     1
102
RTVSPropertyOp60
 70
     1
102
RTVSPropertyOp61
 70
     1
102
RTVSPropertyOp62
 70
     1
  0
XRECORD
  5
C66
102
{ACAD_REACTORS
330
C65
102
}
330
C65
100
AcDbXrecord
280
     1
102
RTVSPost2010Prop28
280
     0
102
RTVSPost2010PropOp28
 70
     1
102
RTVSPost2010Prop29
280
     1
102
RTVSPost2010PropOp29
 70
     1
102
RTVSPost2010Prop30
280
     1
102
RTVSPost2010PropOp30
 70
     1
102
RTVSPost2010Prop31
280
     0
102
RTVSPost2010PropOp31
 70
     1
102
RTVSPost2010Prop32
280
     0
102
RTVSPost2010PropOp32
 70
     1
102
RTVSPost2010Prop33
280
     0
102
RTVSPost2010PropOp33
 70
     1
102
RTVSPost2010Prop34
280
     0
102
RTVSPost2010PropOp34
 70
     1
102
RTVSPost2010Prop35
280
     0
102
RTVSPost2010PropOp35
 70
     1
102
RTVSPost2010Prop36
280
     0
102
RTVSPost2010PropOp36
 70
     1
102
RTVSPost2010Prop37
 90
       50
102
RTVSPost2010PropOp37
 70
     1
102
RTVSPost2010Prop38
140
0.0
102
RTVSPost2010PropOp38
 70
     1
102
RTVSPost2010Prop39
140
1.0
102
RTVSPost2010PropOp39
 70
     1
102
RTVSPost2010Prop40
 90
        0
102
RTVSPost2010PropOp40
 70
     1
102
RTVSPost2010Prop41ColorIndex
 90
       18
102
RTVSPost2010Prop41ColorRGB
 90
-16777216
102
RTVSPost2010PropOp41
 70
     1
102
RTVSPost2010Prop42
 90
       50
102
RTVSPost2010PropOp42
 70
     1
102
RTVSPost2010Prop43
 90
        3
102
RTVSPost2010PropOp43
 70
     1
102
RTVSPost2010Prop44ColorIndex
 90
        5
102
RTVSPost2010Prop44ColorRGB
 90
      255
102
RTVSPost2010PropOp44
 70
     1
102
RTVSPost2010Prop45
280
     0
102
RTVSPost2010PropOp45
 70
     1
102
RTVSPost2010Prop46
 90
       50
102
RTVSPost2010PropOp46
 70
     1
102
RTVSPost2010Prop47
 90
       50
102
RTVSPost2010PropOp47
 70
     1
102
RTVSPost2010Prop48
 90
       50
102
RTVSPost2010PropOp48
 70
     1
102
RTVSPost2010Prop49
280
     0
102
RTVSPost2010PropOp49
 70
     1
102
RTVSPost2010Prop50
 90
       50
102
RTVSPost2010PropOp50
 70
     1
102
RTVSPost2010Prop51ColorIndex
 90
      256
102
RTVSPost2010Prop51ColorRGB
 90
-16777216
102
RTVSPost2010PropOp51
 70
     0
102
RTVSPost2010Prop52
140
1.0
102
RTVSPost2010PropOp52
 70
     0
102
RTVSPost2010Prop53
 90
        2
102
RTVSPost2010PropOp53
 70
     1
102
RTVSPost2010Prop54
  1
strokes_ogs.tif
102
RTVSPost2010PropOp54
 70
     1
102
RTVSPost2010Prop55
280
     0
102
RTVSPost2010PropOp55
 70
     1
102
RTVSPost2010Prop56
140
1.0
102
RTVSPost2010PropOp56
 70
     1
102
RTVSPost2010Prop57
140
1.0
102
RTVSPost2010PropOp57
 70
     1
102
RTVSPropertyOp0
 70
     1
102
RTVSPropertyOp1
 70
     1
102
RTVSPropertyOp2
 70
     1
102
RTVSPropertyOp3
 70
     1
102
RTVSPropertyOp4
 70
     1
102
RTVSPropertyOp5
 70
     1
102
RTVSPropertyOp6
 70
     1
102
RTVSPropertyOp7
 70
     1
102
RTVSPropertyOp8
 70
     1
102
RTVSPropertyOp9
 70
     1
102
RTVSPropertyOp10
 70
     1
102
RTVSPropertyOp11
 70
     1
102
RTVSPropertyOp12
 70
     1
102
RTVSPropertyOp13
 70
     1
102
RTVSPropertyOp14
 70
     1
102
RTVSPropertyOp15
 70
     1
102
RTVSPropertyOp16
 70
     1
102
RTVSPropertyOp17
 70
     1
102
RTVSPropertyOp18
 70
     1
102
RTVSPropertyOp19
 70
     1
102
RTVSPropertyOp20
 70
     1
102
RTVSPropertyOp21
 70
     1
102
RTVSPropertyOp22
 70
     1
102
RTVSPropertyOp23
 70
     1
102
RTVSPropertyOp24
 70
     1
102
RTVSPropertyOp25
 70
     1
102
RTVSPropertyOp26
 70
     1
102
RTVSPropertyOp27
 70
     1
102
RTVSPropertyOp28
 70
     1
102
RTVSPropertyOp29
 70
     1
102
RTVSPropertyOp30
 70
     1
102
RTVSPropertyOp31
 70
     1
102
RTVSPropertyOp32
 70
     1
102
RTVSPropertyOp33
 70
     1
102
RTVSPropertyOp34
 70
     1
102
RTVSPropertyOp35
 70
     1
102
RTVSPropertyOp36
 70
     1
102
RTVSPropertyOp37
 70
     1
102
RTVSPropertyOp38
 70
     1
102
RTVSPropertyOp39
 70
     1
102
RTVSPropertyOp40
 70
     1
102
RTVSPropertyOp41
 70
     1
102
RTVSPropertyOp42
 70
     1
102
RTVSPropertyOp43
 70
     1
102
RTVSPropertyOp44
 70
     1
102
RTVSPropertyOp45
 70
     1
102
RTVSPropertyOp46
 70
     1
102
RTVSPropertyOp47
 70
     1
102
RTVSPropertyOp48
 70
     1
102
RTVSPropertyOp49
 70
     1
102
RTVSPropertyOp50
 70
     1
102
RTVSPropertyOp51
 70
     0
102
RTVSPropertyOp52
 70
     0
102
RTVSPropertyOp53
 70
     1
102
RTVSPropertyOp54
 70
     1
102
RTVSPropertyOp55
 70
     1
102
RTVSPropertyOp56
 70
     1
102
RTVSPropertyOp57
 70
     1
102
RTVSPropertyOp58
 70
     1
102
RTVSPropertyOp59
 70
     1
102
RTVSPropertyOp60
 70
     1
102
RTVSPropertyOp61
 70
     1
102
RTVSPropertyOp62
 70
     1
  0
XRECORD
  5
C6E
102
{ACAD_REACTORS
330
C6D
102
}
330
C6D
100
AcDbXrecord
280
     1
102
RTVSPost2010Prop28
280
     0
102
RTVSPost2010PropOp28
 70
     0
102
RTVSPost2010Prop29
280
     1
102
RTVSPost2010PropOp29
 70
     0
102
RTVSPost2010Prop30
280
     1
102
RTVSPost2010PropOp30
 70
     0
102
RTVSPost2010Prop31
280
     0
102
RTVSPost2010PropOp31
 70
     0
102
RTVSPost2010Prop32
280
     0
102
RTVSPost2010PropOp32
 70
     0
102
RTVSPost2010Prop33
280
     0
102
RTVSPost2010PropOp33
 70
     0
102
RTVSPost2010Prop34
280
     0
102
RTVSPost2010PropOp34
 70
     0
102
RTVSPost2010Prop35
280
     0
102
RTVSPost2010PropOp35
 70
     0
102
RTVSPost2010Prop36
280
     0
102
RTVSPost2010PropOp36
 70
     0
102
RTVSPost2010Prop37
 90
       50
102
RTVSPost2010PropOp37
 70
     0
102
RTVSPost2010Prop38
140
0.0
102
RTVSPost2010PropOp38
 70
     0
102
RTVSPost2010Prop39
140
1.0
102
RTVSPost2010PropOp39
 70
     0
102
RTVSPost2010Prop40
 90
        0
102
RTVSPost2010PropOp40
 70
     0
102
RTVSPost2010Prop41ColorIndex
 90
       18
102
RTVSPost2010Prop41ColorRGB
 90
-16777216
102
RTVSPost2010PropOp41
 70
     0
102
RTVSPost2010Prop42
 90
       50
102
RTVSPost2010PropOp42
 70
     0
102
RTVSPost2010Prop43
 90
        3
102
RTVSPost2010PropOp43
 70
     0
102
RTVSPost2010Prop44ColorIndex
 90
        5
102
RTVSPost2010Prop44ColorRGB
 90
      255
102
RTVSPost2010PropOp44
 70
     0
102
RTVSPost2010Prop45
280
     0
102
RTVSPost2010PropOp45
 70
     0
102
RTVSPost2010Prop46
 90
       50
102
RTVSPost2010PropOp46
 70
     0
102
RTVSPost2010Prop47
 90
       50
102
RTVSPost2010PropOp47
 70
     0
102
RTVSPost2010Prop48
 90
       50
102
RTVSPost2010PropOp48
 70
     0
102
RTVSPost2010Prop49
280
     0
102
RTVSPost2010PropOp49
 70
     0
102
RTVSPost2010Prop50
 90
       50
102
RTVSPost2010PropOp50
 70
     0
102
RTVSPost2010Prop51ColorIndex
 90
      256
102
RTVSPost2010Prop51ColorRGB
 90
-16777216
102
RTVSPost2010PropOp51
 70
     0
102
RTVSPost2010Prop52
140
1.0
102
RTVSPost2010PropOp52
 70
     0
102
RTVSPost2010Prop53
 90
        2
102
RTVSPost2010PropOp53
 70
     0
102
RTVSPost2010Prop54
  1
strokes_ogs.tif
102
RTVSPost2010PropOp54
 70
     0
102
RTVSPost2010Prop55
280
     0
102
RTVSPost2010PropOp55
 70
     0
102
RTVSPost2010Prop56
140
1.0
102
RTVSPost2010PropOp56
 70
     0
102
RTVSPost2010Prop57
140
1.0
102
RTVSPost2010PropOp57
 70
     0
102
RTVSPropertyOp0
 70
     0
102
RTVSPropertyOp1
 70
     0
102
RTVSPropertyOp2
 70
     0
102
RTVSPropertyOp3
 70
     0
102
RTVSPropertyOp4
 70
     0
102
RTVSPropertyOp5
 70
     0
102
RTVSPropertyOp6
 70
     0
102
RTVSPropertyOp7
 70
     0
102
RTVSPropertyOp8
 70
     0
102
RTVSPropertyOp9
 70
     0
102
RTVSPropertyOp10
 70
     0
102
RTVSPropertyOp11
 70
     0
102
RTVSPropertyOp12
 70
     0
102
RTVSPropertyOp13
 70
     0
102
RTVSPropertyOp14
 70
     2
102
RTVSPropertyOp15
 70
     0
102
RTVSPropertyOp16
 70
     0
102
RTVSPropertyOp17
 70
     0
102
RTVSPropertyOp18
 70
     0
102
RTVSPropertyOp19
 70
     0
102
RTVSPropertyOp20
 70
     0
102
RTVSPropertyOp21
 70
     0
102
RTVSPropertyOp22
 70
     0
102
RTVSPropertyOp23
 70
     0
102
RTVSPropertyOp24
 70
     0
102
RTVSPropertyOp25
 70
     0
102
RTVSPropertyOp26
 70
     0
102
RTVSPropertyOp27
 70
     0
102
RTVSPropertyOp28
 70
     0
102
RTVSPropertyOp29
 70
     0
102
RTVSPropertyOp30
 70
     0
102
RTVSPropertyOp31
 70
     0
102
RTVSPropertyOp32
 70
     0
102
RTVSPropertyOp33
 70
     0
102
RTVSPropertyOp34
 70
     0
102
RTVSPropertyOp35
 70
     0
102
RTVSPropertyOp36
 70
     0
102
RTVSPropertyOp37
 70
     0
102
RTVSPropertyOp38
 70
     0
102
RTVSPropertyOp39
 70
     0
102
RTVSPropertyOp40
 70
     0
102
RTVSPropertyOp41
 70
     0
102
RTVSPropertyOp42
 70
     0
102
RTVSPropertyOp43
 70
     0
102
RTVSPropertyOp44
 70
     0
102
RTVSPropertyOp45
 70
     0
102
RTVSPropertyOp46
 70
     0
102
RTVSPropertyOp47
 70
     0
102
RTVSPropertyOp48
 70
     0
102
RTVSPropertyOp49
 70
     0
102
RTVSPropertyOp50
 70
     0
102
RTVSPropertyOp51
 70
     0
102
RTVSPropertyOp52
 70
     0
102
RTVSPropertyOp53
 70
     0
102
RTVSPropertyOp54
 70
     0
102
RTVSPropertyOp55
 70
     0
102
RTVSPropertyOp56
 70
     0
102
RTVSPropertyOp57
 70
     0
102
RTVSPropertyOp58
 70
     1
102
RTVSPropertyOp59
 70
     1
102
RTVSPropertyOp60
 70
     1
102
RTVSPropertyOp61
 70
     1
102
RTVSPropertyOp62
 70
     1
  0
XRECORD
  5
C5C
102
{ACAD_REACTORS
330
C5B
102
}
330
C5B
100
AcDbXrecord
280
     1
102
RTVSPost2010Prop28
280
     0
102
RTVSPost2010PropOp28
 70
     1
102
RTVSPost2010Prop29
280
     1
102
RTVSPost2010PropOp29
 70
     1
102
RTVSPost2010Prop30
280
     1
102
RTVSPost2010PropOp30
 70
     1
102
RTVSPost2010Prop31
280
     0
102
RTVSPost2010PropOp31
 70
     1
102
RTVSPost2010Prop32
280
     0
102
RTVSPost2010PropOp32
 70
     1
102
RTVSPost2010Prop33
280
     0
102
RTVSPost2010PropOp33
 70
     1
102
RTVSPost2010Prop34
280
     0
102
RTVSPost2010PropOp34
 70
     1
102
RTVSPost2010Prop35
280
     0
102
RTVSPost2010PropOp35
 70
     1
102
RTVSPost2010Prop36
280
     0
102
RTVSPost2010PropOp36
 70
     1
102
RTVSPost2010Prop37
 90
       50
102
RTVSPost2010PropOp37
 70
     1
102
RTVSPost2010Prop38
140
0.0
102
RTVSPost2010PropOp38
 70
     1
102
RTVSPost2010Prop39
140
1.0
102
RTVSPost2010PropOp39
 70
     1
102
RTVSPost2010Prop40
 90
        0
102
RTVSPost2010PropOp40
 70
     1
102
RTVSPost2010Prop41ColorIndex
 90
       18
102
RTVSPost2010Prop41ColorRGB
 90
-16777216
102
RTVSPost2010PropOp41
 70
     1
102
RTVSPost2010Prop42
 90
       50
102
RTVSPost2010PropOp42
 70
     1
102
RTVSPost2010Prop43
 90
        3
102
RTVSPost2010PropOp43
 70
     1
102
RTVSPost2010Prop44ColorIndex
 90
        5
102
RTVSPost2010Prop44ColorRGB
 90
      255
102
RTVSPost2010PropOp44
 70
     1
102
RTVSPost2010Prop45
280
     0
102
RTVSPost2010PropOp45
 70
     1
102
RTVSPost2010Prop46
 90
       50
102
RTVSPost2010PropOp46
 70
     1
102
RTVSPost2010Prop47
 90
       50
102
RTVSPost2010PropOp47
 70
     1
102
RTVSPost2010Prop48
 90
       50
102
RTVSPost2010PropOp48
 70
     1
102
RTVSPost2010Prop49
280
     0
102
RTVSPost2010PropOp49
 70
     1
102
RTVSPost2010Prop50
 90
       50
102
RTVSPost2010PropOp50
 70
     1
102
RTVSPost2010Prop51ColorIndex
 90
      256
102
RTVSPost2010Prop51ColorRGB
 90
-16777216
102
RTVSPost2010PropOp51
 70
     0
102
RTVSPost2010Prop52
140
1.0
102
RTVSPost2010PropOp52
 70
     0
102
RTVSPost2010Prop53
 90
        2
102
RTVSPost2010PropOp53
 70
     1
102
RTVSPost2010Prop54
  1
strokes_ogs.tif
102
RTVSPost2010PropOp54
 70
     1
102
RTVSPost2010Prop55
280
     0
102
RTVSPost2010PropOp55
 70
     1
102
RTVSPost2010Prop56
140
1.0
102
RTVSPost2010PropOp56
 70
     1
102
RTVSPost2010Prop57
140
1.0
102
RTVSPost2010PropOp57
 70
     1
102
RTVSPropertyOp0
 70
     1
102
RTVSPropertyOp1
 70
     1
102
RTVSPropertyOp2
 70
     1
102
RTVSPropertyOp3
 70
     1
102
RTVSPropertyOp4
 70
     1
102
RTVSPropertyOp5
 70
     1
102
RTVSPropertyOp6
 70
     1
102
RTVSPropertyOp7
 70
     1
102
RTVSPropertyOp8
 70
     1
102
RTVSPropertyOp9
 70
     1
102
RTVSPropertyOp10
 70
     1
102
RTVSPropertyOp11
 70
     1
102
RTVSPropertyOp12
 70
     1
102
RTVSPropertyOp13
 70
     1
102
RTVSPropertyOp14
 70
     1
102
RTVSPropertyOp15
 70
     1
102
RTVSPropertyOp16
 70
     1
102
RTVSPropertyOp17
 70
     1
102
RTVSPropertyOp18
 70
     1
102
RTVSPropertyOp19
 70
     1
102
RTVSPropertyOp20
 70
     1
102
RTVSPropertyOp21
 70
     1
102
RTVSPropertyOp22
 70
     1
102
RTVSPropertyOp23
 70
     1
102
RTVSPropertyOp24
 70
     1
102
RTVSPropertyOp25
 70
     1
102
RTVSPropertyOp26
 70
     1
102
RTVSPropertyOp27
 70
     1
102
RTVSPropertyOp28
 70
     1
102
RTVSPropertyOp29
 70
     1
102
RTVSPropertyOp30
 70
     1
102
RTVSPropertyOp31
 70
     1
102
RTVSPropertyOp32
 70
     1
102
RTVSPropertyOp33
 70
     1
102
RTVSPropertyOp34
 70
     1
102
RTVSPropertyOp35
 70
     1
102
RTVSPropertyOp36
 70
     1
102
RTVSPropertyOp37
 70
     1
102
RTVSPropertyOp38
 70
     1
102
RTVSPropertyOp39
 70
     1
102
RTVSPropertyOp40
 70
     1
102
RTVSPropertyOp41
 70
     1
102
RTVSPropertyOp42
 70
     1
102
RTVSPropertyOp43
 70
     1
102
RTVSPropertyOp44
 70
     1
102
RTVSPropertyOp45
 70
     1
102
RTVSPropertyOp46
 70
     1
102
RTVSPropertyOp47
 70
     1
102
RTVSPropertyOp48
 70
     1
102
RTVSPropertyOp49
 70
     1
102
RTVSPropertyOp50
 70
     1
102
RTVSPropertyOp51
 70
     0
102
RTVSPropertyOp52
 70
     0
102
RTVSPropertyOp53
 70
     1
102
RTVSPropertyOp54
 70
     1
102
RTVSPropertyOp55
 70
     1
102
RTVSPropertyOp56
 70
     1
102
RTVSPropertyOp57
 70
     1
102
RTVSPropertyOp58
 70
     1
102
RTVSPropertyOp59
 70
     1
102
RTVSPropertyOp60
 70
     1
102
RTVSPropertyOp61
 70
     1
102
RTVSPropertyOp62
 70
     1
  0
XRECORD
  5
C7A
102
{ACAD_REACTORS
330
C79
102
}
330
C79
100
AcDbXrecord
280
     1
102
RTVSPost2010Prop28
280
     0
102
RTVSPost2010PropOp28
 70
     1
102
RTVSPost2010Prop29
280
     1
102
RTVSPost2010PropOp29
 70
     1
102
RTVSPost2010Prop30
280
     1
102
RTVSPost2010PropOp30
 70
     1
102
RTVSPost2010Prop31
280
     0
102
RTVSPost2010PropOp31
 70
     1
102
RTVSPost2010Prop32
280
     0
102
RTVSPost2010PropOp32
 70
     1
102
RTVSPost2010Prop33
280
     0
102
RTVSPost2010PropOp33
 70
     1
102
RTVSPost2010Prop34
280
     0
102
RTVSPost2010PropOp34
 70
     1
102
RTVSPost2010Prop35
280
     0
102
RTVSPost2010PropOp35
 70
     1
102
RTVSPost2010Prop36
280
     0
102
RTVSPost2010PropOp36
 70
     1
102
RTVSPost2010Prop37
 90
       50
102
RTVSPost2010PropOp37
 70
     1
102
RTVSPost2010Prop38
140
0.0
102
RTVSPost2010PropOp38
 70
     1
102
RTVSPost2010Prop39
140
1.0
102
RTVSPost2010PropOp39
 70
     1
102
RTVSPost2010Prop40
 90
        0
102
RTVSPost2010PropOp40
 70
     1
102
RTVSPost2010Prop41ColorIndex
 90
       18
102
RTVSPost2010Prop41ColorRGB
 90
-16777216
102
RTVSPost2010PropOp41
 70
     1
102
RTVSPost2010Prop42
 90
       50
102
RTVSPost2010PropOp42
 70
     1
102
RTVSPost2010Prop43
 90
        3
102
RTVSPost2010PropOp43
 70
     1
102
RTVSPost2010Prop44ColorIndex
 90
        5
102
RTVSPost2010Prop44ColorRGB
 90
      255
102
RTVSPost2010PropOp44
 70
     1
102
RTVSPost2010Prop45
280
     0
102
RTVSPost2010PropOp45
 70
     1
102
RTVSPost2010Prop46
 90
       50
102
RTVSPost2010PropOp46
 70
     1
102
RTVSPost2010Prop47
 90
       50
102
RTVSPost2010PropOp47
 70
     1
102
RTVSPost2010Prop48
 90
       50
102
RTVSPost2010PropOp48
 70
     1
102
RTVSPost2010Prop49
280
     0
102
RTVSPost2010PropOp49
 70
     1
102
RTVSPost2010Prop50
 90
       50
102
RTVSPost2010PropOp50
 70
     1
102
RTVSPost2010Prop51ColorIndex
 90
      256
102
RTVSPost2010Prop51ColorRGB
 90
-16777216
102
RTVSPost2010PropOp51
 70
     0
102
RTVSPost2010Prop52
140
1.0
102
RTVSPost2010PropOp52
 70
     0
102
RTVSPost2010Prop53
 90
        2
102
RTVSPost2010PropOp53
 70
     1
102
RTVSPost2010Prop54
  1
strokes_ogs.tif
102
RTVSPost2010PropOp54
 70
     1
102
RTVSPost2010Prop55
280
     0
102
RTVSPost2010PropOp55
 70
     1
102
RTVSPost2010Prop56
140
1.0
102
RTVSPost2010PropOp56
 70
     1
102
RTVSPost2010Prop57
140
1.0
102
RTVSPost2010PropOp57
 70
     1
102
RTVSPropertyOp0
 70
     1
102
RTVSPropertyOp1
 70
     1
102
RTVSPropertyOp2
 70
     1
102
RTVSPropertyOp3
 70
     1
102
RTVSPropertyOp4
 70
     1
102
RTVSPropertyOp5
 70
     1
102
RTVSPropertyOp6
 70
     1
102
RTVSPropertyOp7
 70
     1
102
RTVSPropertyOp8
 70
     1
102
RTVSPropertyOp9
 70
     1
102
RTVSPropertyOp10
 70
     1
102
RTVSPropertyOp11
 70
     1
102
RTVSPropertyOp12
 70
     1
102
RTVSPropertyOp13
 70
     1
102
RTVSPropertyOp14
 70
     1
102
RTVSPropertyOp15
 70
     1
102
RTVSPropertyOp16
 70
     1
102
RTVSPropertyOp17
 70
     1
102
RTVSPropertyOp18
 70
     1
102
RTVSPropertyOp19
 70
     1
102
RTVSPropertyOp20
 70
     1
102
RTVSPropertyOp21
 70
     1
102
RTVSPropertyOp22
 70
     1
102
RTVSPropertyOp23
 70
     1
102
RTVSPropertyOp24
 70
     1
102
RTVSPropertyOp25
 70
     1
102
RTVSPropertyOp26
 70
     1
102
RTVSPropertyOp27
 70
     1
102
RTVSPropertyOp28
 70
     1
102
RTVSPropertyOp29
 70
     1
102
RTVSPropertyOp30
 70
     1
102
RTVSPropertyOp31
 70
     1
102
RTVSPropertyOp32
 70
     1
102
RTVSPropertyOp33
 70
     1
102
RTVSPropertyOp34
 70
     1
102
RTVSPropertyOp35
 70
     1
102
RTVSPropertyOp36
 70
     1
102
RTVSPropertyOp37
 70
     1
102
RTVSPropertyOp38
 70
     1
102
RTVSPropertyOp39
 70
     1
102
RTVSPropertyOp40
 70
     1
102
RTVSPropertyOp41
 70
     1
102
RTVSPropertyOp42
 70
     1
102
RTVSPropertyOp43
 70
     1
102
RTVSPropertyOp44
 70
     1
102
RTVSPropertyOp45
 70
     1
102
RTVSPropertyOp46
 70
     1
102
RTVSPropertyOp47
 70
     1
102
RTVSPropertyOp48
 70
     1
102
RTVSPropertyOp49
 70
     1
102
RTVSPropertyOp50
 70
     1
102
RTVSPropertyOp51
 70
     0
102
RTVSPropertyOp52
 70
     0
102
RTVSPropertyOp53
 70
     1
102
RTVSPropertyOp54
 70
     1
102
RTVSPropertyOp55
 70
     1
102
RTVSPropertyOp56
 70
     1
102
RTVSPropertyOp57
 70
     1
102
RTVSPropertyOp58
 70
     1
102
RTVSPropertyOp59
 70
     1
102
RTVSPropertyOp60
 70
     1
102
RTVSPropertyOp61
 70
     1
102
RTVSPropertyOp62
 70
     1
  0
XRECORD
  5
C78
102
{ACAD_REACTORS
330
C77
102
}
330
C77
100
AcDbXrecord
280
     1
102
RTVSPost2010Prop28
280
     0
102
RTVSPost2010PropOp28
 70
     1
102
RTVSPost2010Prop29
280
     1
102
RTVSPost2010PropOp29
 70
     1
102
RTVSPost2010Prop30
280
     1
102
RTVSPost2010PropOp30
 70
     1
102
RTVSPost2010Prop31
280
     0
102
RTVSPost2010PropOp31
 70
     1
102
RTVSPost2010Prop32
280
     0
102
RTVSPost2010PropOp32
 70
     1
102
RTVSPost2010Prop33
280
     0
102
RTVSPost2010PropOp33
 70
     1
102
RTVSPost2010Prop34
280
     0
102
RTVSPost2010PropOp34
 70
     1
102
RTVSPost2010Prop35
280
     0
102
RTVSPost2010PropOp35
 70
     1
102
RTVSPost2010Prop36
280
     0
102
RTVSPost2010PropOp36
 70
     1
102
RTVSPost2010Prop37
 90
       50
102
RTVSPost2010PropOp37
 70
     1
102
RTVSPost2010Prop38
140
0.0
102
RTVSPost2010PropOp38
 70
     1
102
RTVSPost2010Prop39
140
1.0
102
RTVSPost2010PropOp39
 70
     1
102
RTVSPost2010Prop40
 90
        0
102
RTVSPost2010PropOp40
 70
     1
102
RTVSPost2010Prop41ColorIndex
 90
       18
102
RTVSPost2010Prop41ColorRGB
 90
-16777216
102
RTVSPost2010PropOp41
 70
     1
102
RTVSPost2010Prop42
 90
       50
102
RTVSPost2010PropOp42
 70
     1
102
RTVSPost2010Prop43
 90
        3
102
RTVSPost2010PropOp43
 70
     1
102
RTVSPost2010Prop44ColorIndex
 90
        5
102
RTVSPost2010Prop44ColorRGB
 90
      255
102
RTVSPost2010PropOp44
 70
     1
102
RTVSPost2010Prop45
280
     0
102
RTVSPost2010PropOp45
 70
     1
102
RTVSPost2010Prop46
 90
       50
102
RTVSPost2010PropOp46
 70
     1
102
RTVSPost2010Prop47
 90
       50
102
RTVSPost2010PropOp47
 70
     1
102
RTVSPost2010Prop48
 90
       50
102
RTVSPost2010PropOp48
 70
     1
102
RTVSPost2010Prop49
280
     0
102
RTVSPost2010PropOp49
 70
     1
102
RTVSPost2010Prop50
 90
       50
102
RTVSPost2010PropOp50
 70
     1
102
RTVSPost2010Prop51ColorIndex
 90
      256
102
RTVSPost2010Prop51ColorRGB
 90
-16777216
102
RTVSPost2010PropOp51
 70
     0
102
RTVSPost2010Prop52
140
1.0
102
RTVSPost2010PropOp52
 70
     0
102
RTVSPost2010Prop53
 90
        2
102
RTVSPost2010PropOp53
 70
     1
102
RTVSPost2010Prop54
  1
strokes_ogs.tif
102
RTVSPost2010PropOp54
 70
     1
102
RTVSPost2010Prop55
280
     0
102
RTVSPost2010PropOp55
 70
     1
102
RTVSPost2010Prop56
140
1.0
102
RTVSPost2010PropOp56
 70
     1
102
RTVSPost2010Prop57
140
1.0
102
RTVSPost2010PropOp57
 70
     1
102
RTVSPropertyOp0
 70
     1
102
RTVSPropertyOp1
 70
     1
102
RTVSPropertyOp2
 70
     1
102
RTVSPropertyOp3
 70
     1
102
RTVSPropertyOp4
 70
     1
102
RTVSPropertyOp5
 70
     1
102
RTVSPropertyOp6
 70
     1
102
RTVSPropertyOp7
 70
     1
102
RTVSPropertyOp8
 70
     1
102
RTVSPropertyOp9
 70
     1
102
RTVSPropertyOp10
 70
     1
102
RTVSPropertyOp11
 70
     1
102
RTVSPropertyOp12
 70
     1
102
RTVSPropertyOp13
 70
     1
102
RTVSPropertyOp14
 70
     1
102
RTVSPropertyOp15
 70
     1
102
RTVSPropertyOp16
 70
     1
102
RTVSPropertyOp17
 70
     1
102
RTVSPropertyOp18
 70
     1
102
RTVSPropertyOp19
 70
     1
102
RTVSPropertyOp20
 70
     1
102
RTVSPropertyOp21
 70
     1
102
RTVSPropertyOp22
 70
     1
102
RTVSPropertyOp23
 70
     1
102
RTVSPropertyOp24
 70
     1
102
RTVSPropertyOp25
 70
     1
102
RTVSPropertyOp26
 70
     1
102
RTVSPropertyOp27
 70
     1
102
RTVSPropertyOp28
 70
     1
102
RTVSPropertyOp29
 70
     1
102
RTVSPropertyOp30
 70
     1
102
RTVSPropertyOp31
 70
     1
102
RTVSPropertyOp32
 70
     1
102
RTVSPropertyOp33
 70
     1
102
RTVSPropertyOp34
 70
     1
102
RTVSPropertyOp35
 70
     1
102
RTVSPropertyOp36
 70
     1
102
RTVSPropertyOp37
 70
     1
102
RTVSPropertyOp38
 70
     1
102
RTVSPropertyOp39
 70
     1
102
RTVSPropertyOp40
 70
     1
102
RTVSPropertyOp41
 70
     1
102
RTVSPropertyOp42
 70
     1
102
RTVSPropertyOp43
 70
     1
102
RTVSPropertyOp44
 70
     1
102
RTVSPropertyOp45
 70
     1
102
RTVSPropertyOp46
 70
     1
102
RTVSPropertyOp47
 70
     1
102
RTVSPropertyOp48
 70
     1
102
RTVSPropertyOp49
 70
     1
102
RTVSPropertyOp50
 70
     1
102
RTVSPropertyOp51
 70
     0
102
RTVSPropertyOp52
 70
     0
102
RTVSPropertyOp53
 70
     1
102
RTVSPropertyOp54
 70
     1
102
RTVSPropertyOp55
 70
     1
102
RTVSPropertyOp56
 70
     1
102
RTVSPropertyOp57
 70
     1
102
RTVSPropertyOp58
 70
     1
102
RTVSPropertyOp59
 70
     1
102
RTVSPropertyOp60
 70
     1
102
RTVSPropertyOp61
 70
     1
102
RTVSPropertyOp62
 70
     1
  0
XRECORD
  5
C72
102
{ACAD_REACTORS
330
C71
102
}
330
C71
100
AcDbXrecord
280
     1
102
RTVSPost2010Prop28
280
     0
102
RTVSPost2010PropOp28
 70
     1
102
RTVSPost2010Prop29
280
     1
102
RTVSPost2010PropOp29
 70
     1
102
RTVSPost2010Prop30
280
     1
102
RTVSPost2010PropOp30
 70
     1
102
RTVSPost2010Prop31
280
     0
102
RTVSPost2010PropOp31
 70
     1
102
RTVSPost2010Prop32
280
     0
102
RTVSPost2010PropOp32
 70
     1
102
RTVSPost2010Prop33
280
     0
102
RTVSPost2010PropOp33
 70
     1
102
RTVSPost2010Prop34
280
     0
102
RTVSPost2010PropOp34
 70
     1
102
RTVSPost2010Prop35
280
     0
102
RTVSPost2010PropOp35
 70
     1
102
RTVSPost2010Prop36
280
     0
102
RTVSPost2010PropOp36
 70
     1
102
RTVSPost2010Prop37
 90
       50
102
RTVSPost2010PropOp37
 70
     1
102
RTVSPost2010Prop38
140
0.0
102
RTVSPost2010PropOp38
 70
     1
102
RTVSPost2010Prop39
140
1.0
102
RTVSPost2010PropOp39
 70
     1
102
RTVSPost2010Prop40
 90
        0
102
RTVSPost2010PropOp40
 70
     1
102
RTVSPost2010Prop41ColorIndex
 90
       18
102
RTVSPost2010Prop41ColorRGB
 90
-16777216
102
RTVSPost2010PropOp41
 70
     1
102
RTVSPost2010Prop42
 90
       50
102
RTVSPost2010PropOp42
 70
     1
102
RTVSPost2010Prop43
 90
        3
102
RTVSPost2010PropOp43
 70
     1
102
RTVSPost2010Prop44ColorIndex
 90
        5
102
RTVSPost2010Prop44ColorRGB
 90
      255
102
RTVSPost2010PropOp44
 70
     1
102
RTVSPost2010Prop45
280
     0
102
RTVSPost2010PropOp45
 70
     1
102
RTVSPost2010Prop46
 90
       50
102
RTVSPost2010PropOp46
 70
     1
102
RTVSPost2010Prop47
 90
       50
102
RTVSPost2010PropOp47
 70
     1
102
RTVSPost2010Prop48
 90
       50
102
RTVSPost2010PropOp48
 70
     1
102
RTVSPost2010Prop49
280
     0
102
RTVSPost2010PropOp49
 70
     1
102
RTVSPost2010Prop50
 90
       50
102
RTVSPost2010PropOp50
 70
     1
102
RTVSPost2010Prop51ColorIndex
 90
      256
102
RTVSPost2010Prop51ColorRGB
 90
-16777216
102
RTVSPost2010PropOp51
 70
     0
102
RTVSPost2010Prop52
140
1.0
102
RTVSPost2010PropOp52
 70
     0
102
RTVSPost2010Prop53
 90
        2
102
RTVSPost2010PropOp53
 70
     1
102
RTVSPost2010Prop54
  1
strokes_ogs.tif
102
RTVSPost2010PropOp54
 70
     1
102
RTVSPost2010Prop55
280
     0
102
RTVSPost2010PropOp55
 70
     1
102
RTVSPost2010Prop56
140
1.0
102
RTVSPost2010PropOp56
 70
     1
102
RTVSPost2010Prop57
140
1.0
102
RTVSPost2010PropOp57
 70
     1
102
RTVSPropertyOp0
 70
     1
102
RTVSPropertyOp1
 70
     1
102
RTVSPropertyOp2
 70
     1
102
RTVSPropertyOp3
 70
     1
102
RTVSPropertyOp4
 70
     1
102
RTVSPropertyOp5
 70
     1
102
RTVSPropertyOp6
 70
     1
102
RTVSPropertyOp7
 70
     1
102
RTVSPropertyOp8
 70
     1
102
RTVSPropertyOp9
 70
     1
102
RTVSPropertyOp10
 70
     1
102
RTVSPropertyOp11
 70
     1
102
RTVSPropertyOp12
 70
     1
102
RTVSPropertyOp13
 70
     1
102
RTVSPropertyOp14
 70
     1
102
RTVSPropertyOp15
 70
     1
102
RTVSPropertyOp16
 70
     1
102
RTVSPropertyOp17
 70
     1
102
RTVSPropertyOp18
 70
     1
102
RTVSPropertyOp19
 70
     1
102
RTVSPropertyOp20
 70
     1
102
RTVSPropertyOp21
 70
     1
102
RTVSPropertyOp22
 70
     1
102
RTVSPropertyOp23
 70
     1
102
RTVSPropertyOp24
 70
     1
102
RTVSPropertyOp25
 70
     1
102
RTVSPropertyOp26
 70
     1
102
RTVSPropertyOp27
 70
     1
102
RTVSPropertyOp28
 70
     1
102
RTVSPropertyOp29
 70
     1
102
RTVSPropertyOp30
 70
     1
102
RTVSPropertyOp31
 70
     1
102
RTVSPropertyOp32
 70
     1
102
RTVSPropertyOp33
 70
     1
102
RTVSPropertyOp34
 70
     1
102
RTVSPropertyOp35
 70
     1
102
RTVSPropertyOp36
 70
     1
102
RTVSPropertyOp37
 70
     1
102
RTVSPropertyOp38
 70
     1
102
RTVSPropertyOp39
 70
     1
102
RTVSPropertyOp40
 70
     1
102
RTVSPropertyOp41
 70
     1
102
RTVSPropertyOp42
 70
     1
102
RTVSPropertyOp43
 70
     1
102
RTVSPropertyOp44
 70
     1
102
RTVSPropertyOp45
 70
     1
102
RTVSPropertyOp46
 70
     1
102
RTVSPropertyOp47
 70
     1
102
RTVSPropertyOp48
 70
     1
102
RTVSPropertyOp49
 70
     1
102
RTVSPropertyOp50
 70
     1
102
RTVSPropertyOp51
 70
     0
102
RTVSPropertyOp52
 70
     0
102
RTVSPropertyOp53
 70
     1
102
RTVSPropertyOp54
 70
     1
102
RTVSPropertyOp55
 70
     1
102
RTVSPropertyOp56
 70
     1
102
RTVSPropertyOp57
 70
     1
102
RTVSPropertyOp58
 70
     1
102
RTVSPropertyOp59
 70
     1
102
RTVSPropertyOp60
 70
     1
102
RTVSPropertyOp61
 70
     1
102
RTVSPropertyOp62
 70
     1
  0
XRECORD
  5
C74
102
{ACAD_REACTORS
330
C73
102
}
330
C73
100
AcDbXrecord
280
     1
102
RTVSPost2010Prop28
280
     0
102
RTVSPost2010PropOp28
 70
     1
102
RTVSPost2010Prop29
280
     1
102
RTVSPost2010PropOp29
 70
     1
102
RTVSPost2010Prop30
280
     1
102
RTVSPost2010PropOp30
 70
     1
102
RTVSPost2010Prop31
280
     0
102
RTVSPost2010PropOp31
 70
     1
102
RTVSPost2010Prop32
280
     0
102
RTVSPost2010PropOp32
 70
     1
102
RTVSPost2010Prop33
280
     0
102
RTVSPost2010PropOp33
 70
     1
102
RTVSPost2010Prop34
280
     0
102
RTVSPost2010PropOp34
 70
     1
102
RTVSPost2010Prop35
280
     0
102
RTVSPost2010PropOp35
 70
     1
102
RTVSPost2010Prop36
280
     0
102
RTVSPost2010PropOp36
 70
     1
102
RTVSPost2010Prop37
 90
       50
102
RTVSPost2010PropOp37
 70
     1
102
RTVSPost2010Prop38
140
0.0
102
RTVSPost2010PropOp38
 70
     1
102
RTVSPost2010Prop39
140
1.0
102
RTVSPost2010PropOp39
 70
     1
102
RTVSPost2010Prop40
 90
        0
102
RTVSPost2010PropOp40
 70
     1
102
RTVSPost2010Prop41ColorIndex
 90
       18
102
RTVSPost2010Prop41ColorRGB
 90
-16777216
102
RTVSPost2010PropOp41
 70
     1
102
RTVSPost2010Prop42
 90
       50
102
RTVSPost2010PropOp42
 70
     1
102
RTVSPost2010Prop43
 90
        3
102
RTVSPost2010PropOp43
 70
     1
102
RTVSPost2010Prop44ColorIndex
 90
        5
102
RTVSPost2010Prop44ColorRGB
 90
      255
102
RTVSPost2010PropOp44
 70
     1
102
RTVSPost2010Prop45
280
     0
102
RTVSPost2010PropOp45
 70
     1
102
RTVSPost2010Prop46
 90
       50
102
RTVSPost2010PropOp46
 70
     1
102
RTVSPost2010Prop47
 90
       50
102
RTVSPost2010PropOp47
 70
     1
102
RTVSPost2010Prop48
 90
       50
102
RTVSPost2010PropOp48
 70
     1
102
RTVSPost2010Prop49
280
     0
102
RTVSPost2010PropOp49
 70
     1
102
RTVSPost2010Prop50
 90
       50
102
RTVSPost2010PropOp50
 70
     1
102
RTVSPost2010Prop51ColorIndex
 90
      256
102
RTVSPost2010Prop51ColorRGB
 90
-16777216
102
RTVSPost2010PropOp51
 70
     0
102
RTVSPost2010Prop52
140
1.0
102
RTVSPost2010PropOp52
 70
     0
102
RTVSPost2010Prop53
 90
        2
102
RTVSPost2010PropOp53
 70
     1
102
RTVSPost2010Prop54
  1
strokes_ogs.tif
102
RTVSPost2010PropOp54
 70
     1
102
RTVSPost2010Prop55
280
     0
102
RTVSPost2010PropOp55
 70
     1
102
RTVSPost2010Prop56
140
1.0
102
RTVSPost2010PropOp56
 70
     1
102
RTVSPost2010Prop57
140
1.0
102
RTVSPost2010PropOp57
 70
     1
102
RTVSPropertyOp0
 70
     1
102
RTVSPropertyOp1
 70
     1
102
RTVSPropertyOp2
 70
     1
102
RTVSPropertyOp3
 70
     1
102
RTVSPropertyOp4
 70
     1
102
RTVSPropertyOp5
 70
     1
102
RTVSPropertyOp6
 70
     1
102
RTVSPropertyOp7
 70
     1
102
RTVSPropertyOp8
 70
     1
102
RTVSPropertyOp9
 70
     1
102
RTVSPropertyOp10
 70
     1
102
RTVSPropertyOp11
 70
     1
102
RTVSPropertyOp12
 70
     1
102
RTVSPropertyOp13
 70
     1
102
RTVSPropertyOp14
 70
     1
102
RTVSPropertyOp15
 70
     1
102
RTVSPropertyOp16
 70
     1
102
RTVSPropertyOp17
 70
     1
102
RTVSPropertyOp18
 70
     1
102
RTVSPropertyOp19
 70
     1
102
RTVSPropertyOp20
 70
     1
102
RTVSPropertyOp21
 70
     1
102
RTVSPropertyOp22
 70
     1
102
RTVSPropertyOp23
 70
     1
102
RTVSPropertyOp24
 70
     1
102
RTVSPropertyOp25
 70
     1
102
RTVSPropertyOp26
 70
     1
102
RTVSPropertyOp27
 70
     1
102
RTVSPropertyOp28
 70
     1
102
RTVSPropertyOp29
 70
     1
102
RTVSPropertyOp30
 70
     1
102
RTVSPropertyOp31
 70
     1
102
RTVSPropertyOp32
 70
     1
102
RTVSPropertyOp33
 70
     1
102
RTVSPropertyOp34
 70
     1
102
RTVSPropertyOp35
 70
     1
102
RTVSPropertyOp36
 70
     1
102
RTVSPropertyOp37
 70
     1
102
RTVSPropertyOp38
 70
     1
102
RTVSPropertyOp39
 70
     1
102
RTVSPropertyOp40
 70
     1
102
RTVSPropertyOp41
 70
     1
102
RTVSPropertyOp42
 70
     1
102
RTVSPropertyOp43
 70
     1
102
RTVSPropertyOp44
 70
     1
102
RTVSPropertyOp45
 70
     1
102
RTVSPropertyOp46
 70
     1
102
RTVSPropertyOp47
 70
     1
102
RTVSPropertyOp48
 70
     1
102
RTVSPropertyOp49
 70
     1
102
RTVSPropertyOp50
 70
     1
102
RTVSPropertyOp51
 70
     0
102
RTVSPropertyOp52
 70
     0
102
RTVSPropertyOp53
 70
     1
102
RTVSPropertyOp54
 70
     1
102
RTVSPropertyOp55
 70
     1
102
RTVSPropertyOp56
 70
     1
102
RTVSPropertyOp57
 70
     1
102
RTVSPropertyOp58
 70
     1
102
RTVSPropertyOp59
 70
     1
102
RTVSPropertyOp60
 70
     1
102
RTVSPropertyOp61
 70
     1
102
RTVSPropertyOp62
 70
     1
  0
XRECORD
  5
C64
102
{ACAD_REACTORS
330
C63
102
}
330
C63
100
AcDbXrecord
280
     1
102
RTVSPost2010Prop28
280
     0
102
RTVSPost2010PropOp28
 70
     1
102
RTVSPost2010Prop29
280
     1
102
RTVSPost2010PropOp29
 70
     1
102
RTVSPost2010Prop30
280
     1
102
RTVSPost2010PropOp30
 70
     1
102
RTVSPost2010Prop31
280
     0
102
RTVSPost2010PropOp31
 70
     1
102
RTVSPost2010Prop32
280
     0
102
RTVSPost2010PropOp32
 70
     1
102
RTVSPost2010Prop33
280
     0
102
RTVSPost2010PropOp33
 70
     1
102
RTVSPost2010Prop34
280
     0
102
RTVSPost2010PropOp34
 70
     1
102
RTVSPost2010Prop35
280
     0
102
RTVSPost2010PropOp35
 70
     1
102
RTVSPost2010Prop36
280
     0
102
RTVSPost2010PropOp36
 70
     1
102
RTVSPost2010Prop37
 90
       50
102
RTVSPost2010PropOp37
 70
     1
102
RTVSPost2010Prop38
140
0.0
102
RTVSPost2010PropOp38
 70
     1
102
RTVSPost2010Prop39
140
1.0
102
RTVSPost2010PropOp39
 70
     1
102
RTVSPost2010Prop40
 90
        0
102
RTVSPost2010PropOp40
 70
     1
102
RTVSPost2010Prop41ColorIndex
 90
       18
102
RTVSPost2010Prop41ColorRGB
 90
-16777216
102
RTVSPost2010PropOp41
 70
     1
102
RTVSPost2010Prop42
 90
       50
102
RTVSPost2010PropOp42
 70
     1
102
RTVSPost2010Prop43
 90
        3
102
RTVSPost2010PropOp43
 70
     1
102
RTVSPost2010Prop44ColorIndex
 90
        5
102
RTVSPost2010Prop44ColorRGB
 90
      255
102
RTVSPost2010PropOp44
 70
     1
102
RTVSPost2010Prop45
280
     0
102
RTVSPost2010PropOp45
 70
     1
102
RTVSPost2010Prop46
 90
       50
102
RTVSPost2010PropOp46
 70
     1
102
RTVSPost2010Prop47
 90
       50
102
RTVSPost2010PropOp47
 70
     1
102
RTVSPost2010Prop48
 90
       50
102
RTVSPost2010PropOp48
 70
     1
102
RTVSPost2010Prop49
280
     0
102
RTVSPost2010PropOp49
 70
     1
102
RTVSPost2010Prop50
 90
       50
102
RTVSPost2010PropOp50
 70
     1
102
RTVSPost2010Prop51ColorIndex
 90
      256
102
RTVSPost2010Prop51ColorRGB
 90
-16777216
102
RTVSPost2010PropOp51
 70
     0
102
RTVSPost2010Prop52
140
1.0
102
RTVSPost2010PropOp52
 70
     0
102
RTVSPost2010Prop53
 90
        2
102
RTVSPost2010PropOp53
 70
     1
102
RTVSPost2010Prop54
  1
strokes_ogs.tif
102
RTVSPost2010PropOp54
 70
     1
102
RTVSPost2010Prop55
280
     0
102
RTVSPost2010PropOp55
 70
     1
102
RTVSPost2010Prop56
140
1.0
102
RTVSPost2010PropOp56
 70
     1
102
RTVSPost2010Prop57
140
1.0
102
RTVSPost2010PropOp57
 70
     1
102
RTVSPropertyOp0
 70
     1
102
RTVSPropertyOp1
 70
     1
102
RTVSPropertyOp2
 70
     1
102
RTVSPropertyOp3
 70
     1
102
RTVSPropertyOp4
 70
     1
102
RTVSPropertyOp5
 70
     1
102
RTVSPropertyOp6
 70
     1
102
RTVSPropertyOp7
 70
     1
102
RTVSPropertyOp8
 70
     1
102
RTVSPropertyOp9
 70
     1
102
RTVSPropertyOp10
 70
     1
102
RTVSPropertyOp11
 70
     1
102
RTVSPropertyOp12
 70
     1
102
RTVSPropertyOp13
 70
     1
102
RTVSPropertyOp14
 70
     1
102
RTVSPropertyOp15
 70
     1
102
RTVSPropertyOp16
 70
     1
102
RTVSPropertyOp17
 70
     1
102
RTVSPropertyOp18
 70
     1
102
RTVSPropertyOp19
 70
     1
102
RTVSPropertyOp20
 70
     1
102
RTVSPropertyOp21
 70
     1
102
RTVSPropertyOp22
 70
     1
102
RTVSPropertyOp23
 70
     1
102
RTVSPropertyOp24
 70
     1
102
RTVSPropertyOp25
 70
     1
102
RTVSPropertyOp26
 70
     1
102
RTVSPropertyOp27
 70
     1
102
RTVSPropertyOp28
 70
     1
102
RTVSPropertyOp29
 70
     1
102
RTVSPropertyOp30
 70
     1
102
RTVSPropertyOp31
 70
     1
102
RTVSPropertyOp32
 70
     1
102
RTVSPropertyOp33
 70
     1
102
RTVSPropertyOp34
 70
     1
102
RTVSPropertyOp35
 70
     1
102
RTVSPropertyOp36
 70
     1
102
RTVSPropertyOp37
 70
     1
102
RTVSPropertyOp38
 70
     1
102
RTVSPropertyOp39
 70
     1
102
RTVSPropertyOp40
 70
     1
102
RTVSPropertyOp41
 70
     1
102
RTVSPropertyOp42
 70
     1
102
RTVSPropertyOp43
 70
     1
102
RTVSPropertyOp44
 70
     1
102
RTVSPropertyOp45
 70
     1
102
RTVSPropertyOp46
 70
     1
102
RTVSPropertyOp47
 70
     1
102
RTVSPropertyOp48
 70
     1
102
RTVSPropertyOp49
 70
     1
102
RTVSPropertyOp50
 70
     1
102
RTVSPropertyOp51
 70
     0
102
RTVSPropertyOp52
 70
     0
102
RTVSPropertyOp53
 70
     1
102
RTVSPropertyOp54
 70
     1
102
RTVSPropertyOp55
 70
     1
102
RTVSPropertyOp56
 70
     1
102
RTVSPropertyOp57
 70
     1
102
RTVSPropertyOp58
 70
     1
102
RTVSPropertyOp59
 70
     1
102
RTVSPropertyOp60
 70
     1
102
RTVSPropertyOp61
 70
     1
102
RTVSPropertyOp62
 70
     1
  0
XRECORD
  5
C56
102
{ACAD_REACTORS
330
C55
102
}
330
C55
100
AcDbXrecord
280
     1
102
RTVSPost2010Prop28
280
     0
102
RTVSPost2010PropOp28
 70
     1
102
RTVSPost2010Prop29
280
     1
102
RTVSPost2010PropOp29
 70
     1
102
RTVSPost2010Prop30
280
     1
102
RTVSPost2010PropOp30
 70
     1
102
RTVSPost2010Prop31
280
     0
102
RTVSPost2010PropOp31
 70
     1
102
RTVSPost2010Prop32
280
     0
102
RTVSPost2010PropOp32
 70
     1
102
RTVSPost2010Prop33
280
     0
102
RTVSPost2010PropOp33
 70
     1
102
RTVSPost2010Prop34
280
     0
102
RTVSPost2010PropOp34
 70
     1
102
RTVSPost2010Prop35
280
     0
102
RTVSPost2010PropOp35
 70
     1
102
RTVSPost2010Prop36
280
     0
102
RTVSPost2010PropOp36
 70
     1
102
RTVSPost2010Prop37
 90
       50
102
RTVSPost2010PropOp37
 70
     1
102
RTVSPost2010Prop38
140
0.0
102
RTVSPost2010PropOp38
 70
     1
102
RTVSPost2010Prop39
140
1.0
102
RTVSPost2010PropOp39
 70
     1
102
RTVSPost2010Prop40
 90
        0
102
RTVSPost2010PropOp40
 70
     1
102
RTVSPost2010Prop41ColorIndex
 90
       18
102
RTVSPost2010Prop41ColorRGB
 90
-16777216
102
RTVSPost2010PropOp41
 70
     1
102
RTVSPost2010Prop42
 90
       50
102
RTVSPost2010PropOp42
 70
     1
102
RTVSPost2010Prop43
 90
        3
102
RTVSPost2010PropOp43
 70
     1
102
RTVSPost2010Prop44ColorIndex
 90
        5
102
RTVSPost2010Prop44ColorRGB
 90
      255
102
RTVSPost2010PropOp44
 70
     1
102
RTVSPost2010Prop45
280
     0
102
RTVSPost2010PropOp45
 70
     1
102
RTVSPost2010Prop46
 90
       50
102
RTVSPost2010PropOp46
 70
     1
102
RTVSPost2010Prop47
 90
       50
102
RTVSPost2010PropOp47
 70
     1
102
RTVSPost2010Prop48
 90
       50
102
RTVSPost2010PropOp48
 70
     1
102
RTVSPost2010Prop49
280
     0
102
RTVSPost2010PropOp49
 70
     1
102
RTVSPost2010Prop50
 90
       50
102
RTVSPost2010PropOp50
 70
     1
102
RTVSPost2010Prop51ColorIndex
 90
      256
102
RTVSPost2010Prop51ColorRGB
 90
-16777216
102
RTVSPost2010PropOp51
 70
     0
102
RTVSPost2010Prop52
140
1.0
102
RTVSPost2010PropOp52
 70
     0
102
RTVSPost2010Prop53
 90
        2
102
RTVSPost2010PropOp53
 70
     1
102
RTVSPost2010Prop54
  1
strokes_ogs.tif
102
RTVSPost2010PropOp54
 70
     1
102
RTVSPost2010Prop55
280
     0
102
RTVSPost2010PropOp55
 70
     1
102
RTVSPost2010Prop56
140
1.0
102
RTVSPost2010PropOp56
 70
     1
102
RTVSPost2010Prop57
140
1.0
102
RTVSPost2010PropOp57
 70
     1
102
RTVSPropertyOp0
 70
     1
102
RTVSPropertyOp1
 70
     1
102
RTVSPropertyOp2
 70
     1
102
RTVSPropertyOp3
 70
     1
102
RTVSPropertyOp4
 70
     1
102
RTVSPropertyOp5
 70
     1
102
RTVSPropertyOp6
 70
     1
102
RTVSPropertyOp7
 70
     1
102
RTVSPropertyOp8
 70
     1
102
RTVSPropertyOp9
 70
     1
102
RTVSPropertyOp10
 70
     1
102
RTVSPropertyOp11
 70
     1
102
RTVSPropertyOp12
 70
     1
102
RTVSPropertyOp13
 70
     1
102
RTVSPropertyOp14
 70
     1
102
RTVSPropertyOp15
 70
     1
102
RTVSPropertyOp16
 70
     1
102
RTVSPropertyOp17
 70
     1
102
RTVSPropertyOp18
 70
     1
102
RTVSPropertyOp19
 70
     1
102
RTVSPropertyOp20
 70
     1
102
RTVSPropertyOp21
 70
     1
102
RTVSPropertyOp22
 70
     1
102
RTVSPropertyOp23
 70
     1
102
RTVSPropertyOp24
 70
     1
102
RTVSPropertyOp25
 70
     1
102
RTVSPropertyOp26
 70
     1
102
RTVSPropertyOp27
 70
     1
102
RTVSPropertyOp28
 70
     1
102
RTVSPropertyOp29
 70
     1
102
RTVSPropertyOp30
 70
     1
102
RTVSPropertyOp31
 70
     1
102
RTVSPropertyOp32
 70
     1
102
RTVSPropertyOp33
 70
     1
102
RTVSPropertyOp34
 70
     1
102
RTVSPropertyOp35
 70
     1
102
RTVSPropertyOp36
 70
     1
102
RTVSPropertyOp37
 70
     1
102
RTVSPropertyOp38
 70
     1
102
RTVSPropertyOp39
 70
     1
102
RTVSPropertyOp40
 70
     1
102
RTVSPropertyOp41
 70
     1
102
RTVSPropertyOp42
 70
     1
102
RTVSPropertyOp43
 70
     1
102
RTVSPropertyOp44
 70
     1
102
RTVSPropertyOp45
 70
     1
102
RTVSPropertyOp46
 70
     1
102
RTVSPropertyOp47
 70
     1
102
RTVSPropertyOp48
 70
     1
102
RTVSPropertyOp49
 70
     1
102
RTVSPropertyOp50
 70
     1
102
RTVSPropertyOp51
 70
     0
102
RTVSPropertyOp52
 70
     0
102
RTVSPropertyOp53
 70
     1
102
RTVSPropertyOp54
 70
     1
102
RTVSPropertyOp55
 70
     1
102
RTVSPropertyOp56
 70
     1
102
RTVSPropertyOp57
 70
     1
102
RTVSPropertyOp58
 70
     1
102
RTVSPropertyOp59
 70
     1
102
RTVSPropertyOp60
 70
     1
102
RTVSPropertyOp61
 70
     1
102
RTVSPropertyOp62
 70
     1
  0
XRECORD
  5
C76
102
{ACAD_REACTORS
330
C75
102
}
330
C75
100
AcDbXrecord
280
     1
102
RTVSPost2010Prop28
280
     0
102
RTVSPost2010PropOp28
 70
     1
102
RTVSPost2010Prop29
280
     1
102
RTVSPost2010PropOp29
 70
     1
102
RTVSPost2010Prop30
280
     1
102
RTVSPost2010PropOp30
 70
     1
102
RTVSPost2010Prop31
280
     0
102
RTVSPost2010PropOp31
 70
     1
102
RTVSPost2010Prop32
280
     0
102
RTVSPost2010PropOp32
 70
     1
102
RTVSPost2010Prop33
280
     0
102
RTVSPost2010PropOp33
 70
     1
102
RTVSPost2010Prop34
280
     0
102
RTVSPost2010PropOp34
 70
     1
102
RTVSPost2010Prop35
280
     0
102
RTVSPost2010PropOp35
 70
     1
102
RTVSPost2010Prop36
280
     0
102
RTVSPost2010PropOp36
 70
     1
102
RTVSPost2010Prop37
 90
       50
102
RTVSPost2010PropOp37
 70
     1
102
RTVSPost2010Prop38
140
0.0
102
RTVSPost2010PropOp38
 70
     1
102
RTVSPost2010Prop39
140
1.0
102
RTVSPost2010PropOp39
 70
     1
102
RTVSPost2010Prop40
 90
        0
102
RTVSPost2010PropOp40
 70
     1
102
RTVSPost2010Prop41ColorIndex
 90
       18
102
RTVSPost2010Prop41ColorRGB
 90
-16777216
102
RTVSPost2010PropOp41
 70
     1
102
RTVSPost2010Prop42
 90
       50
102
RTVSPost2010PropOp42
 70
     1
102
RTVSPost2010Prop43
 90
        3
102
RTVSPost2010PropOp43
 70
     1
102
RTVSPost2010Prop44ColorIndex
 90
        5
102
RTVSPost2010Prop44ColorRGB
 90
      255
102
RTVSPost2010PropOp44
 70
     1
102
RTVSPost2010Prop45
280
     0
102
RTVSPost2010PropOp45
 70
     1
102
RTVSPost2010Prop46
 90
       50
102
RTVSPost2010PropOp46
 70
     1
102
RTVSPost2010Prop47
 90
       50
102
RTVSPost2010PropOp47
 70
     1
102
RTVSPost2010Prop48
 90
       50
102
RTVSPost2010PropOp48
 70
     1
102
RTVSPost2010Prop49
280
     0
102
RTVSPost2010PropOp49
 70
     1
102
RTVSPost2010Prop50
 90
       50
102
RTVSPost2010PropOp50
 70
     1
102
RTVSPost2010Prop51ColorIndex
 90
      256
102
RTVSPost2010Prop51ColorRGB
 90
-16777216
102
RTVSPost2010PropOp51
 70
     0
102
RTVSPost2010Prop52
140
1.0
102
RTVSPost2010PropOp52
 70
     0
102
RTVSPost2010Prop53
 90
        2
102
RTVSPost2010PropOp53
 70
     1
102
RTVSPost2010Prop54
  1
strokes_ogs.tif
102
RTVSPost2010PropOp54
 70
     1
102
RTVSPost2010Prop55
280
     0
102
RTVSPost2010PropOp55
 70
     1
102
RTVSPost2010Prop56
140
1.0
102
RTVSPost2010PropOp56
 70
     1
102
RTVSPost2010Prop57
140
1.0
102
RTVSPost2010PropOp57
 70
     1
102
RTVSPropertyOp0
 70
     1
102
RTVSPropertyOp1
 70
     1
102
RTVSPropertyOp2
 70
     1
102
RTVSPropertyOp3
 70
     1
102
RTVSPropertyOp4
 70
     1
102
RTVSPropertyOp5
 70
     1
102
RTVSPropertyOp6
 70
     1
102
RTVSPropertyOp7
 70
     1
102
RTVSPropertyOp8
 70
     1
102
RTVSPropertyOp9
 70
     1
102
RTVSPropertyOp10
 70
     1
102
RTVSPropertyOp11
 70
     1
102
RTVSPropertyOp12
 70
     1
102
RTVSPropertyOp13
 70
     1
102
RTVSPropertyOp14
 70
     1
102
RTVSPropertyOp15
 70
     1
102
RTVSPropertyOp16
 70
     1
102
RTVSPropertyOp17
 70
     1
102
RTVSPropertyOp18
 70
     1
102
RTVSPropertyOp19
 70
     1
102
RTVSPropertyOp20
 70
     1
102
RTVSPropertyOp21
 70
     1
102
RTVSPropertyOp22
 70
     1
102
RTVSPropertyOp23
 70
     1
102
RTVSPropertyOp24
 70
     1
102
RTVSPropertyOp25
 70
     1
102
RTVSPropertyOp26
 70
     1
102
RTVSPropertyOp27
 70
     1
102
RTVSPropertyOp28
 70
     1
102
RTVSPropertyOp29
 70
     1
102
RTVSPropertyOp30
 70
     1
102
RTVSPropertyOp31
 70
     1
102
RTVSPropertyOp32
 70
     1
102
RTVSPropertyOp33
 70
     1
102
RTVSPropertyOp34
 70
     1
102
RTVSPropertyOp35
 70
     1
102
RTVSPropertyOp36
 70
     1
102
RTVSPropertyOp37
 70
     1
102
RTVSPropertyOp38
 70
     1
102
RTVSPropertyOp39
 70
     1
102
RTVSPropertyOp40
 70
     1
102
RTVSPropertyOp41
 70
     1
102
RTVSPropertyOp42
 70
     1
102
RTVSPropertyOp43
 70
     1
102
RTVSPropertyOp44
 70
     1
102
RTVSPropertyOp45
 70
     1
102
RTVSPropertyOp46
 70
     1
102
RTVSPropertyOp47
 70
     1
102
RTVSPropertyOp48
 70
     1
102
RTVSPropertyOp49
 70
     1
102
RTVSPropertyOp50
 70
     1
102
RTVSPropertyOp51
 70
     0
102
RTVSPropertyOp52
 70
     0
102
RTVSPropertyOp53
 70
     1
102
RTVSPropertyOp54
 70
     1
102
RTVSPropertyOp55
 70
     1
102
RTVSPropertyOp56
 70
     1
102
RTVSPropertyOp57
 70
     1
102
RTVSPropertyOp58
 70
     1
102
RTVSPropertyOp59
 70
     1
102
RTVSPropertyOp60
 70
     1
102
RTVSPropertyOp61
 70
     1
102
RTVSPropertyOp62
 70
     1
  0
ENDSEC
  0
EOF
