  0
SECTION
  2
HEADER
  9
$ACADVER
  1
AC1009
  9
$INSBASE
 10
0.0
 20
0.0
 30
0.0
  9
$EXTMIN
 10
-1272.100361090862
 20
-1435.335958734194
 30
-0.0015258207003583
  9
$EXTMAX
 10
1177.4712271493511
 20
992.81446802402559
 30
0.0000000349246037
  9
$LIMMIN
 10
14697.082162881299
 20
-4251.2165646074718
  9
$LIMMAX
 10
26334.278560697228
 20
2088.67453764228
  9
$ORTHOMODE
 70
     1
  9
$REGENMODE
 70
     1
  9
$FILLMODE
 70
     1
  9
$QTEXTMODE
 70
     0
  9
$MIRRTEXT
 70
     0
  9
$DRAGMODE
 70
     2
  9
$LTSCALE
 40
20.0
  9
$OSMODE
 70
    63
  9
$ATTMODE
 70
     1
  9
$TEXTSIZE
 40
64.0
  9
$TRACEWID
 40
0.05
  9
$TEXTSTYLE
  7
STANDARD
  9
$CLAYER
  8
SIZE
  9
$CELTYPE
  6
CONTINUOUS
  9
$CECOLOR
 62
   256
  9
$DIMSCALE
 40
1.0
  9
$DIMASZ
 40
10.0
  9
$DIMEXO
 40
20.0
  9
$DIMDLI
 40
200.0
  9
$DIMRND
 40
0.0
  9
$DIMDLE
 40
0.0
  9
$DIMEXE
 40
20.0
  9
$DIMTP
 40
0.0
  9
$DIMTM
 40
0.0
  9
$DIMTXT
 40
64.0
  9
$DIMCEN
 40
0.082
  9
$DIMTSZ
 40
0.0
  9
$DIMTOL
 70
     0
  9
$DIMLIM
 70
     0
  9
$DIMTIH
 70
     0
  9
$DIMTOH
 70
     0
  9
$DIMSE1
 70
     0
  9
$DIMSE2
 70
     0
  9
$DIMTAD
 70
     1
  9
$DIMZIN
 70
     8
  9
$DIMBLK
  1
ORIGIN
  9
$DIMASO
 70
     1
  9
$DIMSHO
 70
     0
  9
$DIMPOST
  1

  9
$DIMAPOST
  1

  9
$DIMALT
 70
     0
  9
$DIMALTD
 70
     2
  9
$DIMALTF
 40
25.399999999999999
  9
$DIMLFAC
 40
1.0
  9
$DIMTOFL
 70
     1
  9
$DIMTVP
 40
0.0
  9
$DIMTIX
 70
     0
  9
$DIMSOXD
 70
     0
  9
$DIMSAH
 70
     0
  9
$DIMBLK1
  1

  9
$DIMBLK2
  1

  9
$DIMSTYLE
  2
STANDARD
  9
$DIMCLRD
 70
     0
  9
$DIMCLRE
 70
     0
  9
$DIMCLRT
 70
     0
  9
$DIMTFAC
 40
1.0
  9
$DIMGAP
 40
10.0
  9
$LUNITS
 70
     2
  9
$LUPREC
 70
     4
  9
$SKETCHINC
 40
0.1
  9
$FILLETRAD
 40
5.0
  9
$AUNITS
 70
     1
  9
$AUPREC
 70
     3
  9
$MENU
  1
ACAD
  9
$ELEVATION
 40
0.0
  9
$PELEVATION
 40
0.0
  9
$THICKNESS
 40
0.0
  9
$LIMCHECK
 70
     0
  9
$BLIPMODE
 70
     0
  9
$CHAMFERA
 40
0.0
  9
$CHAMFERB
 40
0.0
  9
$SKPOLY
 70
     0
  9
$TDCREATE
 40
2450330.3932059952
  9
$TDUPDATE
 40
2452979.472808518
  9
$TDINDWG
 40
0.5543934259
  9
$TDUSRTIMER
 40
0.5543934259
  9
$USRTIMER
 70
     1
  9
$ANGBASE
 50
0.0
  9
$ANGDIR
 70
     0
  9
$PDMODE
 70
     3
  9
$PDSIZE
 40
-2.0
  9
$PLINEWID
 40
0.0
  9
$COORDS
 70
     2
  9
$SPLFRAME
 70
     0
  9
$SPLINETYPE
 70
     6
  9
$SPLINESEGS
 70
     8
  9
$ATTDIA
 70
     0
  9
$ATTREQ
 70
     1
  9
$HANDLING
 70
-16383
  9
$HANDSEED
  5
9870
  9
$SURFTAB1
 70
     6
  9
$SURFTAB2
 70
     6
  9
$SURFTYPE
 70
     6
  9
$SURFU
 70
     6
  9
$SURFV
 70
     6
  9
$UCSNAME
  2

  9
$UCSORG
 10
0.0
 20
0.0
 30
0.0
  9
$UCSXDIR
 10
1.0
 20
0.0
 30
0.0
  9
$UCSYDIR
 10
0.0
 20
1.0
 30
0.0
  9
$PUCSNAME
  2

  9
$PUCSORG
 10
0.0
 20
0.0
 30
0.0
  9
$PUCSXDIR
 10
1.0
 20
0.0
 30
0.0
  9
$PUCSYDIR
 10
0.0
 20
1.0
 30
0.0
  9
$USERI1
 70
     0
  9
$USERI2
 70
     0
  9
$USERI3
 70
     0
  9
$USERI4
 70
     0
  9
$USERI5
 70
     0
  9
$USERR1
 40
20.0
  9
$USERR2
 40
0.0
  9
$USERR3
 40
0.0
  9
$USERR4
 40
0.0
  9
$USERR5
 40
0.0
  9
$WORLDVIEW
 70
     1
  9
$SHADEDGE
 70
     3
  9
$SHADEDIF
 70
    70
  9
$TILEMODE
 70
     1
  9
$MAXACTVP
 70
    64
  9
$PLIMCHECK
 70
     0
  9
$PEXTMIN
 10
1.0000000000000000E+020
 20
1.0000000000000000E+020
 30
1.0000000000000000E+020
  9
$PEXTMAX
 10
-1.0000000000000000E+020
 20
-1.0000000000000000E+020
 30
-1.0000000000000000E+020
  9
$PLIMMIN
 10
0.0
 20
0.0
  9
$PLIMMAX
 10
12.0
 20
9.0
  9
$UNITMODE
 70
     0
  9
$VISRETAIN
 70
     1
  9
$PLINEGEN
 70
     0
  9
$PSLTSCALE
 70
     1
  0
ENDSEC
  0
SECTION
  2
TABLES
  0
TABLE
  2
VPORT
 70
     2
  0
VPORT
  2
*ACTIVE
 70
     0
 10
0.0
 20
0.0
 11
1.0
 21
1.0
 12
38.037523372995558
 22
-194.9337293009491
 13
0.0
 23
0.0
 14
50.0
 24
50.0
 15
100.0
 25
100.0
 16
0.0
 26
0.0
 36
1.0
 17
0.0
 27
0.0
 37
0.0
 40
3007.107712740019
 41
1.2953367875647659
 42
50.0
 43
0.0
 44
0.0
 50
0.0
 51
0.0
 71
     0
 72
   500
 73
     1
 74
     0
 75
     0
 76
     0
 77
     0
 78
     0
  0
ENDTAB
  0
TABLE
  2
LTYPE
 70
    15
  0
LTYPE
  2
CONTINUOUS
 70
     0
  3
実線
 72
    65
 73
     0
 40
0.0
  0
LTYPE
  2
DASHDOT
 70
     0
  3
____ _ ____ _ ____ _ ____ _ ____ _ ____ _ ____
 72
    65
 73
     4
 40
5.5
 49
4.0
 49
-0.6
 49
0.3
 49
-0.6
  0
LTYPE
  2
CONTINOUS
 70
     0
  3
Solid line
 72
    65
 73
     0
 40
0.0
  0
LTYPE
  2
BORDER
 70
     0
  3
BORDER
 72
    65
 73
     6
 40
1.75
 49
0.5
 49
-0.25
 49
0.5
 49
-0.25
 49
0.0
 49
-0.25
  0
LTYPE
  2
CENTER
 70
     0
  3
CENTER
 72
    65
 73
     4
 40
2.0
 49
1.25
 49
-0.25
 49
0.25
 49
-0.25
  0
LTYPE
  2
DASHED
 70
     0
  3
DASHED
 72
    65
 73
     2
 40
0.75
 49
0.5
 49
-0.25
  0
LTYPE
  2
DIVIDE
 70
     0
  3
DIVIDE
 72
    65
 73
     6
 40
1.25
 49
0.5
 49
-0.25
 49
0.0
 49
-0.25
 49
0.0
 49
-0.25
  0
LTYPE
  2
DOT
 70
     0
  3
DOT
 72
    65
 73
     2
 40
0.25
 49
0.0
 49
-0.25
  0
LTYPE
  2
HIDDEN
 70
     0
  3
HIDDEN
 72
    65
 73
     2
 40
0.375
 49
0.25
 49
-0.125
  0
LTYPE
  2
PHANTOM
 70
     0
  3
PHANTOM
 72
    65
 73
     6
 40
2.5
 49
1.25
 49
-0.25
 49
0.25
 49
-0.25
 49
0.25
 49
-0.25
  0
LTYPE
  2
$INVISIBLE
 70
     0
  3
$INVISIBLE
 72
    65
 73
     2
 40
200.0
 49
-100.0
 49
-100.0
  0
LTYPE
  2
$MARGINS
 70
     0
  3
$MARGINS
 72
    65
 73
     2
 40
0.075
 49
0.05
 49
-0.025
  0
LTYPE
  2
JLSTYLE_0
 70
     0
  3
JLSTYLE_0
 72
    65
 73
     4
 40
1.0
 49
0.5
 49
-0.25
 49
0.0
 49
-0.25
  0
LTYPE
  2
JLSTYLE_1
 70
     0
  3
JLSTYLE_1
 72
    65
 73
     2
 40
0.75
 49
0.5
 49
-0.25
  0
LTYPE
  2
JLSTYLE_2
 70
     0
  3
JLSTYLE_2
 72
    65
 73
     6
 40
1.25
 49
0.5
 49
-0.25
 49
0.0
 49
-0.25
 49
0.0
 49
-0.25
  0
ENDTAB
  0
TABLE
  2
LAYER
 70
    14
  0
LAYER
  2
0
 70
     0
 62
     7
  6
CONTINUOUS
  0
LAYER
  2
SIZE
 70
     0
 62
    32
  6
CONTINUOUS
  0
LAYER
  2
DETAIL
 70
     0
 62
     5
  6
CONTINUOUS
  0
LAYER
  2
OUTLINE
 70
     0
 62
     3
  6
CONTINUOUS
  0
LAYER
  2
BASIS
 70
     0
 62
     6
  6
CONTINUOUS
  0
LAYER
  2
NOTE
 70
     0
 62
     4
  6
CONTINUOUS
  0
LAYER
  2
ARRANGE
 70
     0
 62
     1
  6
CONTINUOUS
  0
LAYER
  2
FIX
 70
     0
 62
   241
  6
CONTINUOUS
  0
LAYER
  2
ETC
 70
     0
 62
    83
  6
CONTINUOUS
  0
LAYER
  2
SERVICESPACE
 70
     0
 62
     2
  6
CONTINUOUS
  0
LAYER
  2
SYMBOLLINE
 70
     0
 62
    38
  6
CONTINUOUS
  0
LAYER
  2
DEFPOINTS
 70
     0
 62
     7
  6
CONTINUOUS
  0
LAYER
  2
SERVICE_SPACE
 70
     0
 62
     2
  6
CONTINUOUS
  0
LAYER
  2
16
 70
     0
 62
   150
  6
CONTINUOUS
  0
ENDTAB
  0
TABLE
  2
STYLE
 70
     2
  0
STYLE
  2
STANDARD
 70
     0
 40
0.0
 41
0.9
 50
0.0
 71
     0
 42
64.0
  3
SIMPLEX
  4
BIGFONT
  0
STYLE
  2
STANDARD1
 70
     0
 40
0.0
 41
1.0
 50
0.0
 71
     0
 42
3.5
  3
MONOTXT
  4
BIGFONT
  0
ENDTAB
  0
TABLE
  2
VIEW
 70
     1
  0
VIEW
  2
ALL
 70
     0
 40
4282.6199999999999
 10
0.0
 20
41.309903999999989
 41
5940.0
 11
0.0
 21
0.0
 31
1.0
 12
0.0
 22
0.0
 32
0.0
 42
50.0
 43
0.0
 44
0.0
 50
0.0
 71
     0
  0
ENDTAB
  0
TABLE
  2
UCS
 70
     0
  0
ENDTAB
  0
TABLE
  2
APPID
 70
     1
  0
APPID
  2
ACAD
 70
     0
  0
ENDTAB
  0
TABLE
  2
DIMSTYLE
 70
     1
  0
DIMSTYLE
  2
STANDARD
 70
     0
  3

  4

  5

  6

  7

 40
1.0
 41
0.18
 42
0.0625
 43
0.38
 44
0.18
 45
0.0
 46
0.0
 47
0.0
 48
0.0
140
0.18
141
0.09
142
0.0
143
25.399999999999999
144
1.0
145
0.0
146
1.0
147
0.09
 71
     0
 72
     0
 73
     1
 74
     1
 75
     0
 76
     0
 77
     0
 78
     0
170
     0
171
     2
172
     0
173
     0
174
     0
175
     0
176
     0
177
     0
178
     0
  0
ENDTAB
  0
ENDSEC
  0
SECTION
  2
BLOCKS
  0
BLOCK
  8
0
  2
$MODEL_SPACE
 70
     0
 10
0.0
 20
0.0
 30
0.0
  3
$MODEL_SPACE
  1

  0
ENDBLK
  5
20
  8
0
  0
BLOCK
 67
     1
  8
0
  2
$PAPER_SPACE
 70
     0
 10
0.0
 20
0.0
 30
0.0
  3
$PAPER_SPACE
  1

  0
ENDBLK
  5
1C
 67
     1
  8
0
  0
BLOCK
  8
0
  2
_ORIGIN
 70
     0
 10
0.0
 20
0.0
 30
0.0
  3
_ORIGIN
  1

  0
CIRCLE
  5
48
  8
0
  6
BYBLOCK
 62
     0
 10
0.0
 20
0.0
 30
0.0
 40
0.5
  0
LINE
  5
49
  8
0
  6
BYBLOCK
 62
     0
 10
0.0
 20
0.0
 30
0.0
 11
-1.0
 21
0.0
 31
0.0
  0
ENDBLK
  5
4A
  8
0
  0
BLOCK
  8
0
  2
_DOTBLANK
 70
     0
 10
0.0
 20
0.0
 30
0.0
  3
_DOTBLANK
  1

  0
CIRCLE
  5
CE8
  8
0
  6
BYBLOCK
 62
     0
 10
0.0
 20
0.0
 30
0.0
 40
0.5
  0
LINE
  5
CE9
  8
0
  6
BYBLOCK
 62
     0
 10
-0.5
 20
0.0
 30
0.0
 11
-1.0
 21
0.0
 31
0.0
  0
ENDBLK
  5
CEB
  8
0
  0
BLOCK
  8
0
  2
_NONE
 70
     0
 10
0.0
 20
0.0
 30
0.0
  3
_NONE
  1

  0
ENDBLK
  5
175C
  8
0
  0
BLOCK
  8
0
  2
A$C0A7E6B4B
 70
     0
 10
0.0
 20
0.0
 30
0.0
  3
A$C0A7E6B4B
  1

  0
LINE
  5
740E
  8
NOTE
  6
CONTINUOUS
 10
1114.10099748633
 20
570.27489164577116
 30
0.0
 11
1154.10099748633
 21
570.27489164577116
 31
0.0
  0
LINE
  5
740F
  8
NOTE
  6
CONTINUOUS
 10
1114.10099748633
 20
525.27489164577116
 30
0.0
 11
1154.10099748633
 21
525.27489164577116
 31
0.0
  0
LINE
  5
7410
  8
NOTE
  6
CONTINUOUS
 10
1114.10099748633
 20
487.27489164577122
 30
0.0
 11
1154.10099748633
 21
487.27489164577122
 31
0.0
  0
LINE
  5
7411
  8
NOTE
  6
CONTINUOUS
 10
1114.10099748633
 20
481.27489164577128
 30
0.0
 11
1154.10099748633
 21
481.27489164577128
 31
0.0
  0
POLYLINE
  5
7412
  8
NOTE
  6
CONTINUOUS
 66
     1
 10
0.0
 20
0.0
 30
0.0
  0
VERTEX
  5
9810
  8
NOTE
  6
CONTINUOUS
 10
1158.590507486331
 20
601.90184064577124
 30
0.0
  0
VERTEX
  5
9811
  8
NOTE
  6
CONTINUOUS
 10
1134.10099748633
 20
570.27489164577116
 30
0.0
  0
VERTEX
  5
9812
  8
NOTE
  6
CONTINUOUS
 10
1171.1230094863299
 20
585.41987764577129
 30
0.0
  0
SEQEND
  5
9813
  8
NOTE
  6
CONTINUOUS
  0
POLYLINE
  5
7413
  8
NOTE
  6
CONTINUOUS
 66
     1
 10
0.0
 20
0.0
 30
0.0
  0
VERTEX
  5
9814
  8
NOTE
  6
CONTINUOUS
 10
1173.3283294863311
 20
517.45079964577121
 30
0.0
  0
VERTEX
  5
9815
  8
NOTE
  6
CONTINUOUS
 10
1134.10099748633
 20
525.27489164577116
 30
0.0
  0
VERTEX
  5
9816
  8
NOTE
  6
CONTINUOUS
 10
1164.16081748633
 20
498.88536264577118
 30
0.0
  0
SEQEND
  5
9817
  8
NOTE
  6
CONTINUOUS
  0
POLYLINE
  5
7414
  8
NOTE
  6
CONTINUOUS
 66
     1
 10
0.0
 20
0.0
 30
0.0
  0
VERTEX
  5
9818
  8
NOTE
  6
CONTINUOUS
 10
1164.3040294863299
 20
461.04939164577121
 30
0.0
  0
VERTEX
  5
9819
  8
NOTE
  6
CONTINUOUS
 10
1134.10099748633
 20
487.27489164577122
 30
0.0
  0
VERTEX
  5
981A
  8
NOTE
  6
CONTINUOUS
 10
1147.1448404863299
 20
449.46142664577133
 30
0.0
  0
SEQEND
  5
981B
  8
NOTE
  6
CONTINUOUS
  0
POLYLINE
  5
7415
  8
NOTE
  6
CONTINUOUS
 66
     1
 10
0.0
 20
0.0
 30
0.0
  0
VERTEX
  5
981C
  8
NOTE
  6
CONTINUOUS
 10
1156.7202774863299
 20
448.28446664577132
 30
0.0
  0
VERTEX
  5
981D
  8
NOTE
  6
CONTINUOUS
 10
1134.10099748633
 20
481.27489164577128
 30
0.0
  0
VERTEX
  5
981E
  8
NOTE
  6
CONTINUOUS
 10
1137.1946564863299
 20
441.39470464577118
 30
0.0
  0
SEQEND
  5
981F
  8
NOTE
  6
CONTINUOUS
  0
CIRCLE
  5
7416
  8
SIZE
  6
CONTINUOUS
 10
1134.10099748633
 20
939.73460964577112
 30
0.0
 40
6.0
  0
CIRCLE
  5
7417
  8
SIZE
  6
CONTINUOUS
 10
1134.10099748633
 20
817.67982464577119
 30
0.0
 40
6.0
  0
CIRCLE
  5
7418
  8
SIZE
  6
CONTINUOUS
 10
1134.10099748633
 20
86.62382264577127
 30
0.0
 40
6.0
  0
CIRCLE
  5
7419
  8
SIZE
  6
CONTINUOUS
 10
1134.10099748633
 20
243.4217936457712
 30
0.0
 40
6.0
  0
LINE
  5
741A
  8
SIZE
  6
BYBLOCK
 10
1094.10099748633
 20
692.27489164577116
 30
0.0
 11
1342.33324748633
 21
692.27489164577116
 31
0.0
  0
TEXT
  5
741B
  8
SIZE
  6
BYBLOCK
 10
1047.472426486331
 20
849.67982464577119
 30
0.0
 40
64.0
  1
80
 41
0.9
  0
LINE
  5
741C
  8
NOTE
  6
CONTINUOUS
 10
1134.10099748633
 20
570.27489164577116
 30
0.0
 11
1271.236384486331
 21
919.06389564577125
 31
0.0
  0
LINE
  5
741D
  8
NOTE
  6
CONTINUOUS
 10
1134.10099748633
 20
525.27489164577116
 30
0.0
 11
1641.6296164863311
 21
249.63571464577129
 31
0.0
  0
LINE
  5
741E
  8
NOTE
  6
CONTINUOUS
 10
1134.10099748633
 20
487.27489164577122
 30
0.0
 11
1352.5893744863311
 21
131.38721764577119
 31
0.0
  0
LINE
  5
741F
  8
NOTE
  6
CONTINUOUS
 10
1134.10099748633
 20
481.27489164577128
 30
0.0
 11
1294.983451486331
 21
-0.0000013542287434
 31
0.0
  0
LINE
  5
7420
  8
NOTE
  6
CONTINUOUS
 10
1134.10099748633
 20
570.27489164577116
 30
0.0
 11
1459.12052948633
 21
816.9537306457712
 31
0.0
  0
LINE
  5
7421
  8
NOTE
  6
CONTINUOUS
 10
1053.387699486331
 20
692.17097264577114
 30
0.0
 11
1227.838504486331
 21
1013.532024645771
 31
0.0
  0
LINE
  5
7422
  8
BASIS
  6
DASHDOT
 10
1238.7484744863309
 20
587.77489164577116
 30
0.0
 11
373.55186648633088
 21
587.77489164577116
 31
0.0
  0
CIRCLE
  5
7423
  8
ARRANGE
  6
CONTINUOUS
 10
1134.10099748633
 20
735.27489164577128
 30
0.0
 40
40.0
  0
POINT
  5
7424
  8
ARRANGE
  6
CONTINUOUS
 10
1134.10099748633
 20
735.27489164577128
 30
0.0
  0
CIRCLE
  5
7425
  8
SIZE
  6
CONTINUOUS
 10
95.999997486330813
 20
735.27489164577128
 30
0.0
 40
6.0
  0
CIRCLE
  5
7426
  8
SIZE
  6
CONTINUOUS
 10
220.59268848633101
 20
735.27489164577128
 30
0.0
 40
6.0
  0
CIRCLE
  5
7427
  8
SIZE
  6
CONTINUOUS
 10
348.20360248633079
 20
735.27489164577128
 30
0.0
 40
6.0
  0
TEXT
  5
7428
  8
SIZE
  6
BYBLOCK
 10
316.20360248633079
 20
651.14632064577131
 30
0.0
 40
64.0
  1
75
 50
90.0
 41
0.9
  0
LINE
  5
7429
  8
SIZE
  6
BYBLOCK
 10
1054.10099748633
 20
732.27489164577128
 30
0.0
 11
1054.10099748633
 21
847.6798246457713
 31
0.0
  0
LINE
  5
742A
  8
SIZE
  6
BYBLOCK
 10
734.10099748633093
 20
732.27489164577128
 30
0.0
 11
734.10099748633093
 21
847.6798246457713
 31
0.0
  0
LINE
  5
742B
  8
SIZE
  6
BYBLOCK
 10
1054.10099748633
 20
732.27489164577128
 30
0.0
 11
1054.10099748633
 21
847.6798246457713
 31
0.0
  0
LINE
  5
742C
  8
SIZE
  6
BYBLOCK
 10
564.10099748633093
 20
680.27489164577116
 30
0.0
 11
564.10099748633093
 21
969.73460964577146
 31
0.0
  0
LINE
  5
742D
  8
NOTE
  6
CONTINUOUS
 10
734.10099748633093
 20
692.27489164577116
 30
0.0
 11
451.97803148633091
 21
904.36197264577129
 31
0.0
  0
LINE
  5
742E
  8
SIZE
  6
BYBLOCK
 10
704.10099748633093
 20
455.27489164577122
 30
0.0
 11
190.5926884863309
 21
455.27489164577122
 31
0.0
  0
LINE
  5
742F
  8
SIZE
  6
BYBLOCK
 10
619.10099748633093
 20
735.27489164577128
 30
0.0
 11
190.5926884863309
 21
735.27489164577128
 31
0.0
  0
LINE
  5
7430
  8
SIZE
  6
BYBLOCK
 10
825.10099748633093
 20
440.27489164577128
 30
0.0
 11
65.999997486330813
 21
440.27489164577128
 31
0.0
  0
LINE
  5
7431
  8
SIZE
  6
BYBLOCK
 10
619.10099748633093
 20
735.27489164577128
 30
0.0
 11
65.999997486330813
 21
735.27489164577128
 31
0.0
  0
TEXT
  5
7432
  8
SIZE
  6
BYBLOCK
 10
188.5926884863309
 20
521.21774864577117
 30
0.0
 40
64.0
  1
280
 50
90.0
 41
0.9
  0
TEXT
  5
7433
  8
SIZE
  6
BYBLOCK
 10
63.999997486330813
 20
513.71774864577117
 30
0.0
 40
64.0
  1
295
 50
90.0
 41
0.9
  0
LINE
  5
7434
  8
SIZE
  6
BYBLOCK
 10
95.999997486330813
 20
733.27489164577116
 30
0.0
 11
95.999997486330813
 21
442.27489164577122
 31
0.0
  0
CIRCLE
  5
7435
  8
SIZE
  6
CONTINUOUS
 10
95.999997486330813
 20
440.27489164577128
 30
0.0
 40
6.0
  0
LINE
  5
7436
  8
SIZE
  6
BYBLOCK
 10
484.10099748633093
 20
640.27489164577128
 30
0.0
 11
484.10099748633093
 21
56.62382264577127
 31
0.0
  0
LINE
  5
7437
  8
SIZE
  6
BYBLOCK
 10
1134.10099748633
 20
420.27489164577122
 30
0.0
 11
1134.10099748633
 21
56.62382264577127
 31
0.0
  0
LINE
  5
7438
  8
SIZE
  6
BYBLOCK
 10
1132.10099748633
 20
86.62382264577127
 30
0.0
 11
486.10099748633093
 21
86.62382264577127
 31
0.0
  0
LINE
  5
7439
  8
OUTLINE
  6
CONTINUOUS
 10
1134.10099748633
 20
735.27489164577128
 30
0.0
 11
639.10099748633093
 21
735.27489164577128
 31
0.0
  0
LINE
  5
743A
  8
OUTLINE
  6
CONTINUOUS
 10
724.10099748633093
 20
455.27489164577122
 30
0.0
 11
509.10099748633093
 21
492.27489164577122
 31
0.0
  0
LINE
  5
743B
  8
DETAIL
  6
CONTINUOUS
 10
724.10099748633093
 20
455.27489164577122
 30
0.0
 11
509.10099748633093
 21
492.27489164577122
 31
0.0
  0
LINE
  5
743C
  8
DETAIL
  6
CONTINUOUS
 10
1134.10099748633
 20
735.27489164577128
 30
0.0
 11
639.10099748633093
 21
735.27489164577128
 31
0.0
  0
CIRCLE
  5
743D
  8
SIZE
  6
CONTINUOUS
 10
484.10099748633093
 20
86.62382264577127
 30
0.0
 40
6.0
  0
LINE
  5
743E
  8
SIZE
  6
BYBLOCK
 10
464.10099748633093
 20
660.27489164577128
 30
0.0
 11
318.20360248633079
 21
660.27489164577128
 31
0.0
  0
LINE
  5
743F
  8
SIZE
  6
BYBLOCK
 10
619.10099748633093
 20
735.27489164577128
 30
0.0
 11
318.20360248633079
 21
735.27489164577128
 31
0.0
  0
LINE
  5
7440
  8
SIZE
  6
BYBLOCK
 10
220.59268848633101
 20
733.27489164577116
 30
0.0
 11
220.59268848633101
 21
457.27489164577128
 31
0.0
  0
CIRCLE
  5
7441
  8
SIZE
  6
CONTINUOUS
 10
220.59268848633101
 20
455.27489164577122
 30
0.0
 40
6.0
  0
CIRCLE
  5
7442
  8
SIZE
  6
CONTINUOUS
 10
348.20360248633079
 20
660.27489164577128
 30
0.0
 40
6.0
  0
LINE
  5
7443
  8
SIZE
  6
BYBLOCK
 10
348.20360248633079
 20
660.27489164577128
 30
0.0
 11
348.20360248633079
 21
735.27489164577128
 31
0.0
  0
LINE
  5
7444
  8
SIZE
  6
BYBLOCK
 10
348.20360248633079
 20
658.27489164577116
 30
0.0
 11
348.20360248633079
 21
656.27489164577128
 31
0.0
  0
LINE
  5
7445
  8
OUTLINE
  6
CONTINUOUS
 10
509.10099748633093
 20
492.27489164577122
 30
0.0
 11
484.10099748633093
 21
660.27489164577128
 31
0.0
  0
LINE
  5
7446
  8
DETAIL
  6
CONTINUOUS
 10
509.10099748633093
 20
492.27489164577122
 30
0.0
 11
484.10099748633093
 21
660.27489164577128
 31
0.0
  0
LINE
  5
7447
  8
OUTLINE
  6
CONTINUOUS
 10
564.10099748633093
 20
660.27489164577128
 30
0.0
 11
484.10099748633093
 21
660.27489164577128
 31
0.0
  0
LINE
  5
7448
  8
DETAIL
  6
CONTINUOUS
 10
564.10099748633093
 20
660.27489164577128
 30
0.0
 11
484.10099748633093
 21
660.27489164577128
 31
0.0
  0
LINE
  5
7449
  8
OUTLINE
  6
CONTINUOUS
 10
639.10099748633093
 20
735.27489164577128
 30
0.0
 11
564.10099748633093
 21
660.27489164577128
 31
0.0
  0
LINE
  5
744A
  8
DETAIL
  6
CONTINUOUS
 10
639.10099748633093
 20
735.27489164577128
 30
0.0
 11
564.10099748633093
 21
660.27489164577128
 31
0.0
  0
LINE
  5
744B
  8
SIZE
  6
BYBLOCK
 10
845.10099748633093
 20
420.27489164577122
 30
0.0
 11
845.10099748633093
 21
213.4217936457712
 31
0.0
  0
LINE
  5
744C
  8
SIZE
  6
BYBLOCK
 10
1134.10099748633
 20
420.27489164577122
 30
0.0
 11
1134.10099748633
 21
213.4217936457712
 31
0.0
  0
LINE
  5
744D
  8
SIZE
  6
BYBLOCK
 10
1132.10099748633
 20
243.4217936457712
 30
0.0
 11
847.10099748633081
 21
243.4217936457712
 31
0.0
  0
CIRCLE
  5
744E
  8
SIZE
  6
CONTINUOUS
 10
845.10099748633093
 20
243.4217936457712
 30
0.0
 40
6.0
  0
TEXT
  5
744F
  8
SIZE
  6
BYBLOCK
 10
735.04385448633093
 20
118.6238226457712
 30
0.0
 40
64.0
  1
650
 41
0.9
  0
TEXT
  5
7450
  8
SIZE
  6
BYBLOCK
 10
916.91528348633085
 20
275.42179364577117
 30
0.0
 40
64.0
  1
289
 41
0.9
  0
LINE
  5
7451
  8
DETAIL
  6
CONTINUOUS
 10
1134.10099748633
 20
453.27489164577128
 30
0.0
 11
845.10099748633093
 21
453.27489164577128
 31
0.0
  0
LINE
  5
7452
  8
OUTLINE
  6
CONTINUOUS
 10
1134.10099748633
 20
440.27489164577128
 30
0.0
 11
845.10099748633093
 21
440.27489164577128
 31
0.0
  0
LINE
  5
7453
  8
DETAIL
  6
CONTINUOUS
 10
1134.10099748633
 20
440.27489164577128
 30
0.0
 11
845.10099748633093
 21
440.27489164577128
 31
0.0
  0
LINE
  5
7454
  8
OUTLINE
  6
CONTINUOUS
 10
845.10099748633093
 20
455.27489164577122
 30
0.0
 11
724.10099748633093
 21
455.27489164577122
 31
0.0
  0
LINE
  5
7455
  8
DETAIL
  6
CONTINUOUS
 10
845.10099748633093
 20
455.27489164577122
 30
0.0
 11
724.10099748633093
 21
455.27489164577122
 31
0.0
  0
LINE
  5
7456
  8
OUTLINE
  6
CONTINUOUS
 10
845.10099748633093
 20
440.27489164577128
 30
0.0
 11
845.10099748633093
 21
455.27489164577122
 31
0.0
  0
LINE
  5
7457
  8
DETAIL
  6
CONTINUOUS
 10
845.10099748633093
 20
440.27489164577128
 30
0.0
 11
845.10099748633093
 21
455.27489164577122
 31
0.0
  0
LINE
  5
7458
  8
NOTE
  6
CONTINUOUS
 10
714.10099748633093
 20
692.27489164577116
 30
0.0
 11
754.10099748633093
 21
692.27489164577116
 31
0.0
  0
POLYLINE
  5
7459
  8
NOTE
  6
CONTINUOUS
 66
     1
 10
0.0
 20
0.0
 30
0.0
  0
VERTEX
  5
9820
  8
NOTE
  6
CONTINUOUS
 10
696.94121248633098
 20
707.07862064577125
 30
0.0
  0
VERTEX
  5
9821
  8
NOTE
  6
CONTINUOUS
 10
734.10099748633093
 20
692.27489164577116
 30
0.0
  0
VERTEX
  5
9822
  8
NOTE
  6
CONTINUOUS
 10
709.32154448633082
 20
723.6751896457713
 30
0.0
  0
SEQEND
  5
9823
  8
NOTE
  6
CONTINUOUS
  0
LINE
  5
745A
  8
DETAIL
  6
CONTINUOUS
 10
764.10099748633093
 20
725.27489164577116
 30
0.0
 11
704.10099748633093
 21
725.27489164577116
 31
0.0
  0
LINE
  5
745B
  8
DETAIL
  6
CONTINUOUS
 10
764.10099748633093
 20
694.77489164577128
 30
0.0
 11
704.10099748633093
 21
694.77489164577128
 31
0.0
  0
LINE
  5
745C
  8
DETAIL
  6
CONTINUOUS
 10
764.10099748633093
 20
689.77489164577128
 30
0.0
 11
704.10099748633093
 21
689.77489164577128
 31
0.0
  0
LINE
  5
745D
  8
DETAIL
  6
CONTINUOUS
 10
704.10099748633093
 20
725.27489164577116
 30
0.0
 11
704.10099748633093
 21
689.77489164577128
 31
0.0
  0
LINE
  5
745E
  8
NOTE
  6
CONTINUOUS
 10
734.10099748633093
 20
672.27489164577116
 30
0.0
 11
734.10099748633093
 21
712.27489164577116
 31
0.0
  0
CIRCLE
  5
745F
  8
FIX
  6
CONTINUOUS
 10
734.10099748633093
 20
692.27489164577116
 30
0.0
 40
5.0
  0
LINE
  5
7460
  8
DETAIL
  6
CONTINUOUS
 10
764.10099748633093
 20
725.27489164577116
 30
0.0
 11
764.10099748633093
 21
689.77489164577128
 31
0.0
  0
LINE
  5
7461
  8
NOTE
  6
CONTINUOUS
 10
1134.10099748633
 20
550.27489164577116
 30
0.0
 11
1134.10099748633
 21
590.27489164577128
 31
0.0
  0
LINE
  5
7462
  8
OUTLINE
  6
CONTINUOUS
 10
1134.10099748633
 20
735.27489164577128
 30
0.0
 11
1134.10099748633
 21
440.27489164577128
 31
0.0
  0
LINE
  5
7463
  8
DETAIL
  6
CONTINUOUS
 10
1134.10099748633
 20
735.27489164577128
 30
0.0
 11
1134.10099748633
 21
440.27489164577128
 31
0.0
  0
LINE
  5
7464
  8
NOTE
  6
CONTINUOUS
 10
1134.10099748633
 20
467.27489164577122
 30
0.0
 11
1134.10099748633
 21
507.27489164577128
 31
0.0
  0
LINE
  5
7465
  8
NOTE
  6
CONTINUOUS
 10
1134.10099748633
 20
461.27489164577128
 30
0.0
 11
1134.10099748633
 21
501.27489164577122
 31
0.0
  0
LINE
  5
7466
  8
NOTE
  6
CONTINUOUS
 10
1134.10099748633
 20
505.27489164577122
 30
0.0
 11
1134.10099748633
 21
545.27489164577116
 31
0.0
  0
POLYLINE
  5
7467
  8
NOTE
  6
CONTINUOUS
 66
     1
 10
0.0
 20
0.0
 30
0.0
  0
VERTEX
  5
9824
  8
NOTE
  6
CONTINUOUS
 10
1063.6501294863299
 20
730.83209764577123
 30
0.0
  0
VERTEX
  5
9825
  8
NOTE
  6
CONTINUOUS
 10
1053.387699486331
 20
692.17097264577114
 30
0.0
  0
VERTEX
  5
9826
  8
NOTE
  6
CONTINUOUS
 10
1081.605786486331
 20
720.5212736457712
 30
0.0
  0
SEQEND
  5
9827
  8
NOTE
  6
CONTINUOUS
  0
LINE
  5
7468
  8
DETAIL
  6
CONTINUOUS
 10
1084.10099748633
 20
725.27489164577116
 30
0.0
 11
1024.1009974863309
 21
725.27489164577116
 31
0.0
  0
LINE
  5
7469
  8
DETAIL
  6
CONTINUOUS
 10
1084.10099748633
 20
689.77489164577128
 30
0.0
 11
1024.1009974863309
 21
689.77489164577128
 31
0.0
  0
LINE
  5
746A
  8
DETAIL
  6
CONTINUOUS
 10
1084.10099748633
 20
694.77489164577128
 30
0.0
 11
1024.1009974863309
 21
694.77489164577128
 31
0.0
  0
LINE
  5
746B
  8
NOTE
  6
CONTINUOUS
 10
1034.1009974863309
 20
692.27489164577116
 30
0.0
 11
1074.1009974863309
 21
692.27489164577116
 31
0.0
  0
LINE
  5
746C
  8
NOTE
  6
CONTINUOUS
 10
1054.10099748633
 20
672.27489164577116
 30
0.0
 11
1054.10099748633
 21
712.27489164577116
 31
0.0
  0
CIRCLE
  5
746D
  8
FIX
  6
CONTINUOUS
 10
1054.10099748633
 20
692.27489164577116
 30
0.0
 40
5.0
  0
LINE
  5
746E
  8
DETAIL
  6
CONTINUOUS
 10
1024.1009974863309
 20
725.27489164577116
 30
0.0
 11
1024.1009974863309
 21
689.77489164577128
 31
0.0
  0
LINE
  5
746F
  8
DETAIL
  6
CONTINUOUS
 10
1084.10099748633
 20
725.27489164577116
 30
0.0
 11
1084.10099748633
 21
689.77489164577128
 31
0.0
  0
TEXT
  5
7470
  8
NOTE
  6
CONTINUOUS
 10
24.763997486330929
 20
930.89271864577131
 30
0.0
 40
64.0
  1
AH 4-φ10
 41
0.9
  0
LINE
  5
7471
  8
NOTE
  6
CONTINUOUS
 10
451.97803148633091
 20
904.36197264577129
 30
0.0
 11
5.4309974863308517
 21
904.36197264577129
 31
0.0
  0
LINE
  5
7472
  8
SIZE
  6
BYBLOCK
 10
1132.10099748633
 20
939.73460964577112
 30
0.0
 11
641.10099748633093
 21
939.73460964577112
 31
0.0
  0
LINE
  5
7473
  8
SIZE
  6
BYBLOCK
 10
348.20360248633079
 20
737.27489164577116
 30
0.0
 11
348.20360248633079
 21
739.27489164577116
 31
0.0
  0
LINE
  5
7474
  8
SIZE
  6
BYBLOCK
 10
639.10099748633093
 20
755.27489164577116
 30
0.0
 11
639.10099748633093
 21
969.73460964577146
 31
0.0
  0
LINE
  5
7475
  8
SIZE
  6
BYBLOCK
 10
639.10099748633093
 20
755.27489164577116
 30
0.0
 11
639.10099748633093
 21
969.73460964577146
 31
0.0
  0
TEXT
  5
7476
  8
SIZE
  6
BYBLOCK
 10
554.97242648633085
 20
971.73460964577134
 30
0.0
 40
64.0
  1
75
 41
0.9
  0
LINE
  5
7477
  8
SIZE
  6
BYBLOCK
 10
564.10099748633093
 20
939.73460964577112
 30
0.0
 11
639.10099748633093
 21
939.73460964577112
 31
0.0
  0
CIRCLE
  5
7478
  8
SIZE
  6
CONTINUOUS
 10
564.10099748633093
 20
939.73460964577112
 30
0.0
 40
6.0
  0
LINE
  5
7479
  8
SIZE
  6
BYBLOCK
 10
562.10099748633093
 20
939.73460964577112
 30
0.0
 11
560.10099748633093
 21
939.73460964577112
 31
0.0
  0
CIRCLE
  5
747A
  8
SIZE
  6
CONTINUOUS
 10
639.10099748633093
 20
939.73460964577112
 30
0.0
 40
6.0
  0
CIRCLE
  5
747B
  8
SIZE
  6
CONTINUOUS
 10
639.10099748633093
 20
939.73460964577112
 30
0.0
 40
6.0
  0
LINE
  5
747C
  8
SIZE
  6
BYBLOCK
 10
641.10099748633093
 20
939.73460964577112
 30
0.0
 11
643.10099748633093
 21
939.73460964577112
 31
0.0
  0
TEXT
  5
747D
  8
SIZE
  6
BYBLOCK
 10
820.04385448633104
 20
849.67982464577119
 30
0.0
 40
64.0
  1
320
 41
0.9
  0
LINE
  5
747E
  8
SIZE
  6
BYBLOCK
 10
1052.10099748633
 20
817.67982464577119
 30
0.0
 11
736.10099748633093
 21
817.67982464577119
 31
0.0
  0
TEXT
  5
747F
  8
SIZE
  6
BYBLOCK
 10
812.54385448633093
 20
971.73460964577134
 30
0.0
 40
64.0
  1
495
 41
0.9
  0
CIRCLE
  5
7480
  8
SIZE
  6
CONTINUOUS
 10
734.10099748633093
 20
817.67982464577119
 30
0.0
 40
6.0
  0
LINE
  5
7481
  8
SIZE
  6
BYBLOCK
 10
1134.10099748633
 20
755.27489164577116
 30
0.0
 11
1134.10099748633
 21
969.73460964577146
 31
0.0
  0
CIRCLE
  5
7482
  8
SIZE
  6
CONTINUOUS
 10
1054.10099748633
 20
817.67982464577119
 30
0.0
 40
6.0
  0
CIRCLE
  5
7483
  8
SIZE
  6
CONTINUOUS
 10
1054.10099748633
 20
817.67982464577119
 30
0.0
 40
6.0
  0
LINE
  5
7484
  8
SIZE
  6
BYBLOCK
 10
1134.10099748633
 20
755.27489164577116
 30
0.0
 11
1134.10099748633
 21
847.6798246457713
 31
0.0
  0
LINE
  5
7485
  8
SIZE
  6
BYBLOCK
 10
1054.10099748633
 20
817.67982464577119
 30
0.0
 11
1134.10099748633
 21
817.67982464577119
 31
0.0
  0
LINE
  5
7486
  8
SIZE
  6
BYBLOCK
 10
1052.10099748633
 20
817.67982464577119
 30
0.0
 11
1050.1009974863309
 21
817.67982464577119
 31
0.0
  0
CIRCLE
  5
7487
  8
SIZE
  6
CONTINUOUS
 10
1707.30594848633
 20
735.27489164577128
 30
0.0
 40
6.0
  0
CIRCLE
  5
7488
  8
SIZE
  6
CONTINUOUS
 10
1575.102184486331
 20
735.27489164577128
 30
0.0
 40
6.0
  0
CIRCLE
  5
7489
  8
SIZE
  6
CONTINUOUS
 10
1312.33324748633
 20
735.27489164577128
 30
0.0
 40
6.0
  0
CIRCLE
  5
748A
  8
SIZE
  6
CONTINUOUS
 10
1441.0590454863309
 20
735.27489164577128
 30
0.0
 40
6.0
  0
TEXT
  5
748B
  8
SIZE
  6
BYBLOCK
 10
1280.3332474863309
 20
667.14632064577131
 30
0.0
 40
64.0
  1
43
 50
90.0
 41
0.9
  0
LINE
  5
748C
  8
NOTE
  6
CONTINUOUS
 10
1294.983451486331
 20
-0.0000013542287434
 30
0.0
 11
1621.417012486331
 21
-0.0000013542287434
 31
0.0
  0
TEXT
  5
748D
  8
NOTE
  6
CONTINUOUS
 10
1302.6376594863309
 20
11.517476645771239
 30
0.0
 40
64.0
  1
D φ32
 41
0.9
  0
LINE
  5
748E
  8
SIZE
  6
BYBLOCK
 10
1174.1009974863309
 20
525.27489164577116
 30
0.0
 11
1605.102184486331
 21
525.27489164577116
 31
0.0
  0
LINE
  5
748F
  8
SIZE
  6
BYBLOCK
 10
1154.10099748633
 20
735.27489164577128
 30
0.0
 11
1605.102184486331
 21
735.27489164577128
 31
0.0
  0
LINE
  5
7490
  8
SIZE
  6
BYBLOCK
 10
1174.1009974863309
 20
487.27489164577122
 30
0.0
 11
1605.102184486331
 21
487.27489164577122
 31
0.0
  0
LINE
  5
7491
  8
SIZE
  6
BYBLOCK
 10
1174.1009974863309
 20
525.27489164577116
 30
0.0
 11
1605.102184486331
 21
525.27489164577116
 31
0.0
  0
LINE
  5
7492
  8
SIZE
  6
BYBLOCK
 10
1174.1009974863309
 20
481.27489164577128
 30
0.0
 11
1737.30594848633
 21
481.27489164577128
 31
0.0
  0
LINE
  5
7493
  8
SIZE
  6
BYBLOCK
 10
1154.10099748633
 20
735.27489164577128
 30
0.0
 11
1737.30594848633
 21
735.27489164577128
 31
0.0
  0
TEXT
  5
7494
  8
NOTE
  6
CONTINUOUS
 10
1361.900869486331
 20
147.1437656457712
 30
0.0
 40
64.0
  1
EL φ27
 41
0.9
  0
LINE
  5
7495
  8
NOTE
  6
CONTINUOUS
 10
1352.5893744863311
 20
131.38721764577119
 30
0.0
 11
1669.9272624863311
 21
131.38721764577119
 31
0.0
  0
TEXT
  5
7496
  8
SIZE
  6
BYBLOCK
 10
1543.102184486331
 20
376.2438516457712
 30
0.0
 40
64.0
  1
38
 50
90.0
 41
0.9
  0
TEXT
  5
7497
  8
SIZE
  6
BYBLOCK
 10
1291.9013354863309
 20
344.0721166457713
 30
0.0
 40
64.0
  1
13
 50
90.0
 41
0.9
  0
LINE
  5
7498
  8
SIZE
  6
CONTINUOUS
 10
1323.9013354863309
 20
438.27489164577122
 30
0.0
 11
1323.9013354863309
 21
336.51171364577118
 31
0.0
  0
LINE
  5
7499
  8
SIZE
  6
CONTINUOUS
 10
1575.102184486331
 20
487.27489164577122
 30
0.0
 11
1575.102184486331
 21
346.53840364577121
 31
0.0
  0
TEXT
  5
749A
  8
SIZE
  6
BYBLOCK
 10
1409.0590454863309
 20
584.20346264577131
 30
0.0
 40
64.0
  1
165
 50
90.0
 41
0.9
  0
LINE
  5
749B
  8
SIZE
  6
BYBLOCK
 10
1174.1009974863309
 20
570.27489164577116
 30
0.0
 11
1471.0590454863309
 21
570.27489164577116
 31
0.0
  0
LINE
  5
749C
  8
SIZE
  6
BYBLOCK
 10
1154.10099748633
 20
735.27489164577128
 30
0.0
 11
1471.0590454863309
 21
735.27489164577128
 31
0.0
  0
LINE
  5
749D
  8
SIZE
  6
BYBLOCK
 10
1154.10099748633
 20
440.27489164577128
 30
0.0
 11
1353.90133548633
 21
440.27489164577128
 31
0.0
  0
LINE
  5
749E
  8
SIZE
  6
BYBLOCK
 10
1154.10099748633
 20
453.27489164577128
 30
0.0
 11
1353.90133548633
 21
453.27489164577128
 31
0.0
  0
CIRCLE
  5
749F
  8
SIZE
  6
CONTINUOUS
 10
1323.9013354863309
 20
440.27489164577128
 30
0.0
 40
6.0
  0
CIRCLE
  5
74A0
  8
SIZE
  6
CONTINUOUS
 10
1323.9013354863309
 20
453.27489164577128
 30
0.0
 40
6.0
  0
LINE
  5
74A1
  8
SIZE
  6
BYBLOCK
 10
1323.9013354863309
 20
440.27489164577128
 30
0.0
 11
1323.9013354863309
 21
453.27489164577128
 31
0.0
  0
LINE
  5
74A2
  8
SIZE
  6
BYBLOCK
 10
1323.9013354863309
 20
455.27489164577122
 30
0.0
 11
1323.9013354863309
 21
457.27489164577128
 31
0.0
  0
LINE
  5
74A3
  8
SIZE
  6
BYBLOCK
 10
1323.9013354863309
 20
438.27489164577122
 30
0.0
 11
1323.9013354863309
 21
436.27489164577128
 31
0.0
  0
LINE
  5
74A4
  8
SIZE
  6
BYBLOCK
 10
1154.10099748633
 20
735.27489164577128
 30
0.0
 11
1342.33324748633
 21
735.27489164577128
 31
0.0
  0
CIRCLE
  5
74A5
  8
SIZE
  6
CONTINUOUS
 10
1312.33324748633
 20
692.27489164577116
 30
0.0
 40
6.0
  0
LINE
  5
74A6
  8
SIZE
  6
BYBLOCK
 10
1312.33324748633
 20
692.27489164577116
 30
0.0
 11
1312.33324748633
 21
735.27489164577128
 31
0.0
  0
LINE
  5
74A7
  8
SIZE
  6
BYBLOCK
 10
1312.33324748633
 20
690.27489164577128
 30
0.0
 11
1312.33324748633
 21
688.27489164577116
 31
0.0
  0
CIRCLE
  5
74A8
  8
SIZE
  6
CONTINUOUS
 10
1441.0590454863309
 20
570.27489164577116
 30
0.0
 40
6.0
  0
TEXT
  5
74A9
  8
SIZE
  6
BYBLOCK
 10
1543.102184486331
 20
561.70346264577131
 30
0.0
 40
64.0
  1
210
 50
90.0
 41
0.9
  0
LINE
  5
74AA
  8
SIZE
  6
BYBLOCK
 10
1575.102184486331
 20
527.27489164577128
 30
0.0
 11
1575.102184486331
 21
630.27489164577116
 31
0.0
  0
CIRCLE
  5
74AB
  8
SIZE
  6
CONTINUOUS
 10
1575.102184486331
 20
487.27489164577122
 30
0.0
 40
6.0
  0
LINE
  5
74AC
  8
SIZE
  6
BYBLOCK
 10
1575.102184486331
 20
487.27489164577122
 30
0.0
 11
1575.102184486331
 21
525.27489164577116
 31
0.0
  0
LINE
  5
74AD
  8
SIZE
  6
BYBLOCK
 10
1575.102184486331
 20
485.27489164577122
 30
0.0
 11
1575.102184486331
 21
483.27489164577122
 31
0.0
  0
CIRCLE
  5
74AE
  8
SIZE
  6
CONTINUOUS
 10
1575.102184486331
 20
525.27489164577116
 30
0.0
 40
6.0
  0
CIRCLE
  5
74AF
  8
SIZE
  6
CONTINUOUS
 10
1575.102184486331
 20
525.27489164577116
 30
0.0
 40
6.0
  0
LINE
  5
74B0
  8
SIZE
  6
BYBLOCK
 10
1575.102184486331
 20
527.27489164577128
 30
0.0
 11
1575.102184486331
 21
529.27489164577116
 31
0.0
  0
LINE
  5
74B1
  8
SIZE
  6
BYBLOCK
 10
1441.0590454863309
 20
733.27489164577116
 30
0.0
 11
1441.0590454863309
 21
652.77489164577128
 31
0.0
  0
LINE
  5
74B2
  8
SIZE
  6
BYBLOCK
 10
1441.0590454863309
 20
572.27489164577116
 30
0.0
 11
1441.0590454863309
 21
652.77489164577128
 31
0.0
  0
LINE
  5
74B3
  8
SIZE
  6
BYBLOCK
 10
1575.102184486331
 20
733.27489164577116
 30
0.0
 11
1575.102184486331
 21
630.27489164577116
 31
0.0
  0
TEXT
  5
74B4
  8
NOTE
  6
CONTINUOUS
 10
1652.518532486331
 20
267.95373764577118
 30
0.0
 40
64.0
  1
EL φ27
 41
0.9
  0
LINE
  5
74B5
  8
NOTE
  6
CONTINUOUS
 10
1641.6296164863311
 20
249.63571464577129
 30
0.0
 11
1954.92498448633
 21
249.63571464577129
 31
0.0
  0
TEXT
  5
74B6
  8
SIZE
  6
BYBLOCK
 10
1675.30594848633
 20
532.84632064577124
 30
0.0
 40
64.0
  1
254
 50
90.0
 41
0.9
  0
LINE
  5
74B7
  8
SIZE
  6
BYBLOCK
 10
1707.30594848633
 20
483.27489164577122
 30
0.0
 11
1707.30594848633
 21
608.27489164577116
 31
0.0
  0
CIRCLE
  5
74B8
  8
SIZE
  6
CONTINUOUS
 10
1707.30594848633
 20
481.27489164577128
 30
0.0
 40
6.0
  0
LINE
  5
74B9
  8
SIZE
  6
BYBLOCK
 10
1707.30594848633
 20
733.27489164577116
 30
0.0
 11
1707.30594848633
 21
608.27489164577116
 31
0.0
  0
TEXT
  5
74BA
  8
ETC
  6
CONTINUOUS
 10
1556.9254724863299
 20
1122.891453645771
 30
0.0
 40
64.0
  1
PAC
 41
0.9
  0
TEXT
  5
74BB
  8
NOTE
  6
CONTINUOUS
 10
1288.3203644863311
 20
929.11425364577121
 30
0.0
 40
64.0
  1
RL φ9.52
 41
0.9
  0
LINE
  5
74BC
  8
NOTE
  6
CONTINUOUS
 10
1271.236384486331
 20
919.06389564577125
 30
0.0
 11
1707.3803284863311
 21
919.06389564577125
 31
0.0
  0
TEXT
  5
74BD
  8
NOTE
  6
CONTINUOUS
 10
1472.1298784863311
 20
833.98580364577117
 30
0.0
 40
64.0
  1
RG φ19.05
 41
0.9
  0
LINE
  5
74BE
  8
NOTE
  6
CONTINUOUS
 10
1459.12052948633
 20
816.9537306457712
 30
0.0
 11
1910.378200486331
 21
816.9537306457712
 31
0.0
  0
TEXT
  5
74BF
  8
ETC
  6
CONTINUOUS
 10
1551.5644384863299
 20
1243.5210996457711
 30
0.0
 40
64.0
  1
PCA0024
 41
0.9
  0
TEXT
  5
74C0
  8
NOTE
  6
CONTINUOUS
 10
1234.44489248633
 20
1023.073805645771
 30
0.0
 40
64.0
  1
AH
 41
0.9
  0
LINE
  5
74C1
  8
SIZE
  6
BYBLOCK
 10
1136.10099748633
 20
817.67982464577119
 30
0.0
 11
1138.10099748633
 21
817.67982464577119
 31
0.0
  0
LINE
  5
74C2
  8
SIZE
  6
BYBLOCK
 10
1312.33324748633
 20
737.27489164577116
 30
0.0
 11
1312.33324748633
 21
739.27489164577116
 31
0.0
  0
LINE
  5
74C3
  8
NOTE
  6
CONTINUOUS
 10
1227.838504486331
 20
1013.532024645771
 30
0.0
 11
1349.689659486331
 21
1013.532024645771
 31
0.0
  0
ENDBLK
  5
74C5
  8
0
  0
BLOCK
  8
0
  2
A$C3B263967
 70
     0
 10
0.0
 20
0.0
 30
0.0
  3
A$C3B263967
  1

  0
TEXT
  5
7AA3
  8
SIZE
  6
BYBLOCK
 10
1329.9527025161549
 20
62.000000771584148
 30
0.0
 40
64.0
  1
1520
 41
0.9
  0
LINE
  5
7AA4
  8
SIZE
  6
BYBLOCK
 10
2183.9527025161551
 20
30.000000771584151
 30
0.0
 11
1425.9527025161549
 21
30.000000771584151
 31
0.0
  0
TEXT
  5
7AA5
  8
SIZE
  6
BYBLOCK
 10
1328.5812735161551
 20
1225.740565771584
 30
0.0
 40
64.0
  1
1564
 41
0.9
  0
LINE
  5
7AA6
  8
SIZE
  6
BYBLOCK
 10
2205.9527025161542
 20
1193.740565771584
 30
0.0
 11
1425.9527025161549
 21
1193.740565771584
 31
0.0
  0
TEXT
  5
7AA7
  8
SIZE
  6
BYBLOCK
 10
1329.9527025161549
 20
1354.8010157715839
 30
0.0
 40
64.0
  1
1608
 41
0.9
  0
LINE
  5
7AA8
  8
SIZE
  6
BYBLOCK
 10
2227.9527025161551
 20
1322.8010157715839
 30
0.0
 11
1425.9527025161549
 21
1322.8010157715839
 31
0.0
  0
LINE
  5
7AA9
  8
SIZE
  6
BYBLOCK
 10
1405.9527025161549
 20
176.79790777158411
 30
0.0
 11
1841.9527025161549
 21
176.79790777158411
 31
0.0
  0
LINE
  5
7AAA
  8
BASIS
  6
DASHDOT
 10
1271.671169516155
 20
775.74614777158422
 30
0.0
 11
1542.1002595161549
 21
775.74614777158422
 31
0.0
  0
CIRCLE
  5
7AAB
  8
DETAIL
  6
CONTINUOUS
 10
1403.9527025161549
 20
775.74614777158422
 30
0.0
 40
100.0
  0
LINE
  5
7AAC
  8
OUTLINE
  6
CONTINUOUS
 10
665.95270251615511
 20
623.74614777158422
 30
0.0
 11
2185.9527025161551
 21
623.74614777158422
 31
0.0
  0
LINE
  5
7AAD
  8
OUTLINE
  6
CONTINUOUS
 10
665.95270251615511
 20
905.74614777158411
 30
0.0
 11
2185.9527025161551
 21
905.74614777158411
 31
0.0
  0
LINE
  5
7AAE
  8
DETAIL
  6
CONTINUOUS
 10
665.95270251615511
 20
623.74614777158422
 30
0.0
 11
2185.9527025161551
 21
623.74614777158422
 31
0.0
  0
CIRCLE
  5
7AAF
  8
ARRANGE
  6
CONTINUOUS
 10
1425.9527025161549
 20
905.74614777158411
 30
0.0
 40
40.0
  0
LINE
  5
7AB0
  8
DETAIL
  6
CONTINUOUS
 10
665.95270251615511
 20
905.74614777158411
 30
0.0
 11
2185.9527025161551
 21
905.74614777158411
 31
0.0
  0
POINT
  5
7AB1
  8
ARRANGE
  6
CONTINUOUS
 10
1425.9527025161549
 20
905.74614777158411
 30
0.0
  0
CIRCLE
  5
7AB2
  8
SIZE
  6
CONTINUOUS
 10
1207.4295745161551
 20
905.74614777158411
 30
0.0
 40
6.0
  0
CIRCLE
  5
7AB3
  8
SIZE
  6
CONTINUOUS
 10
440.09440651615489
 20
905.74614777158411
 30
0.0
 40
6.0
  0
CIRCLE
  5
7AB4
  8
SIZE
  6
CONTINUOUS
 10
569.95967851615512
 20
905.74614777158411
 30
0.0
 40
6.0
  0
CIRCLE
  5
7AB5
  8
SIZE
  6
CONTINUOUS
 10
311.53770251615509
 20
905.74614777158411
 30
0.0
 40
6.0
  0
LINE
  5
7AB6
  8
SIZE
  6
BYBLOCK
 10
643.95270251615511
 20
902.74614777158422
 30
0.0
 11
643.95270251615511
 21
1223.740565771584
 31
0.0
  0
LINE
  5
7AB7
  8
SIZE
  6
BYBLOCK
 10
621.95270251615511
 20
880.24614777158422
 30
0.0
 11
621.95270251615511
 21
1352.8010157715839
 31
0.0
  0
LINE
  5
7AB8
  8
SIZE
  6
BYBLOCK
 10
710.952702516155
 20
780.74614777158411
 30
0.0
 11
710.952702516155
 21
999.19550677158418
 31
0.0
  0
LINE
  5
7AB9
  8
SIZE
  6
BYBLOCK
 10
795.95270251615511
 20
780.74614777158411
 30
0.0
 11
795.95270251615511
 21
999.19550677158418
 31
0.0
  0
LINE
  5
7ABA
  8
SIZE
  6
BYBLOCK
 10
710.952702516155
 20
780.74614777158411
 30
0.0
 11
710.952702516155
 21
999.19550677158418
 31
0.0
  0
LINE
  5
7ABB
  8
NOTE
  6
CONTINUOUS
 10
710.952702516155
 20
740.74614777158422
 30
0.0
 11
453.12001351615498
 21
965.15754277158419
 31
0.0
  0
LINE
  5
7ABC
  8
NOTE
  6
CONTINUOUS
 10
643.95270251615511
 20
862.74614777158422
 30
0.0
 11
444.28446751615508
 21
1100.221721771584
 31
0.0
  0
LINE
  5
7ABD
  8
NOTE
  6
CONTINUOUS
 10
795.95270251615511
 20
740.74614777158422
 30
0.0
 11
488.4621975161549
 21
1236.548183771584
 31
0.0
  0
LINE
  5
7ABE
  8
BASIS
  6
DASHDOT
 10
1425.9527025161549
 20
520.64143977158415
 30
0.0
 11
1425.9527025161549
 21
1023.0553357715841
 31
0.0
  0
LINE
  5
7ABF
  8
SIZE
  6
BYBLOCK
 10
645.95270251615511
 20
610.74614777158422
 30
0.0
 11
281.53770251615509
 21
610.74614777158422
 31
0.0
  0
LINE
  5
7AC0
  8
SIZE
  6
BYBLOCK
 10
645.95270251615511
 20
905.74614777158411
 30
0.0
 11
281.53770251615509
 21
905.74614777158411
 31
0.0
  0
TEXT
  5
7AC1
  8
SIZE
  6
BYBLOCK
 10
537.95967851615512
 20
754.67471877158425
 30
0.0
 40
64.0
  1
165
 50
90.0
 41
0.9
  0
LINE
  5
7AC2
  8
SIZE
  6
BYBLOCK
 10
730.95270251615511
 20
651.74614777158411
 30
0.0
 11
410.094702516155
 21
651.74614777158411
 31
0.0
  0
LINE
  5
7AC3
  8
SIZE
  6
BYBLOCK
 10
645.95270251615511
 20
905.74614777158411
 30
0.0
 11
410.094702516155
 21
905.74614777158411
 31
0.0
  0
LINE
  5
7AC4
  8
NOTE
  6
CONTINUOUS
 10
770.95270251615511
 20
651.74614777158411
 30
0.0
 11
463.98393251615522
 21
444.60031477158418
 31
0.0
  0
TEXT
  5
7AC5
  8
NOTE
  6
CONTINUOUS
 10
218.82370251615509
 20
469.2026987715841
 30
0.0
 40
64.0
  1
D φ32
 41
0.9
  0
LINE
  5
7AC6
  8
NOTE
  6
CONTINUOUS
 10
463.98393251615522
 20
444.60031477158418
 30
0.0
 11
193.32970251615501
 21
444.60031477158418
 31
0.0
  0
TEXT
  5
7AC7
  8
SIZE
  6
BYBLOCK
 10
279.53770251615509
 20
684.18900477158422
 30
0.0
 40
64.0
  1
295
 50
90.0
 41
0.9
  0
LINE
  5
7AC8
  8
SIZE
  6
BYBLOCK
 10
311.53770251615509
 20
612.74614777158422
 30
0.0
 11
311.53770251615509
 21
758.24614777158422
 31
0.0
  0
TEXT
  5
7AC9
  8
SIZE
  6
BYBLOCK
 10
408.094702516155
 20
703.31757677158407
 30
0.0
 40
64.0
  1
254
 50
90.0
 41
0.9
  0
LINE
  5
7ACA
  8
SIZE
  6
BYBLOCK
 10
440.09440651615489
 20
903.74614777158422
 30
0.0
 11
440.09440651615489
 21
653.74614777158422
 31
0.0
  0
CIRCLE
  5
7ACB
  8
SIZE
  6
CONTINUOUS
 10
311.53770251615509
 20
610.74614777158422
 30
0.0
 40
6.0
  0
CIRCLE
  5
7ACC
  8
SIZE
  6
CONTINUOUS
 10
440.09440651615489
 20
651.74614777158411
 30
0.0
 40
6.0
  0
LINE
  5
7ACD
  8
SIZE
  6
BYBLOCK
 10
311.53770251615509
 20
903.74614777158422
 30
0.0
 11
311.53770251615509
 21
758.24614777158422
 31
0.0
  0
LINE
  5
7ACE
  8
SIZE
  6
BYBLOCK
 10
665.95270251615511
 20
592.74614777158422
 30
0.0
 11
665.95270251615511
 21
0.0000007715841548
 31
0.0
  0
TEXT
  5
7ACF
  8
SIZE
  6
BYBLOCK
 10
740.895559516155
 20
208.79790777158411
 30
0.0
 40
64.0
  1
298
 41
0.9
  0
LINE
  5
7AD0
  8
SIZE
  6
BYBLOCK
 10
963.95270251615523
 20
603.74614777158422
 30
0.0
 11
963.95270251615523
 21
146.79790777158411
 31
0.0
  0
LINE
  5
7AD1
  8
SIZE
  6
BYBLOCK
 10
665.95270251615511
 20
590.74614777158422
 30
0.0
 11
665.95270251615511
 21
146.79790777158411
 31
0.0
  0
TEXT
  5
7AD2
  8
SIZE
  6
BYBLOCK
 10
1109.8955595161549
 20
208.79790777158411
 30
0.0
 40
64.0
  1
440
 41
0.9
  0
LINE
  5
7AD3
  8
SIZE
  6
BYBLOCK
 10
1403.9527025161549
 20
603.74614777158422
 30
0.0
 11
1403.9527025161549
 21
146.79790777158411
 31
0.0
  0
LINE
  5
7AD4
  8
SIZE
  6
BYBLOCK
 10
963.95270251615523
 20
603.74614777158422
 30
0.0
 11
963.95270251615523
 21
146.79790777158411
 31
0.0
  0
LINE
  5
7AD5
  8
SIZE
  6
BYBLOCK
 10
1403.9527025161549
 20
603.74614777158422
 30
0.0
 11
1403.9527025161549
 21
146.79790777158411
 31
0.0
  0
CIRCLE
  5
7AD6
  8
SIZE
  6
CONTINUOUS
 10
963.95270251615523
 20
176.79790777158411
 30
0.0
 40
6.0
  0
CIRCLE
  5
7AD7
  8
SIZE
  6
CONTINUOUS
 10
963.95270251615523
 20
176.79790777158411
 30
0.0
 40
6.0
  0
LINE
  5
7AD8
  8
SIZE
  6
BYBLOCK
 10
667.95270251615511
 20
30.000000771584151
 30
0.0
 11
1425.9527025161549
 21
30.000000771584151
 31
0.0
  0
LINE
  5
7AD9
  8
SIZE
  6
BYBLOCK
 10
667.95270251615511
 20
176.79790777158411
 30
0.0
 11
961.952702516155
 21
176.79790777158411
 31
0.0
  0
CIRCLE
  5
7ADA
  8
SIZE
  6
CONTINUOUS
 10
665.95270251615511
 20
30.000000771584151
 30
0.0
 40
6.0
  0
CIRCLE
  5
7ADB
  8
SIZE
  6
CONTINUOUS
 10
665.95270251615511
 20
176.79790777158411
 30
0.0
 40
6.0
  0
LINE
  5
7ADC
  8
SIZE
  6
BYBLOCK
 10
965.95270251615511
 20
176.79790777158411
 30
0.0
 11
1401.9527025161549
 21
176.79790777158411
 31
0.0
  0
CIRCLE
  5
7ADD
  8
SIZE
  6
CONTINUOUS
 10
1403.9527025161549
 20
176.79790777158411
 30
0.0
 40
6.0
  0
CIRCLE
  5
7ADE
  8
SIZE
  6
CONTINUOUS
 10
1403.9527025161549
 20
176.79790777158411
 30
0.0
 40
6.0
  0
LINE
  5
7ADF
  8
SIZE
  6
BYBLOCK
 10
881.95270251615511
 20
695.74614777158422
 30
0.0
 11
1237.4295745161551
 21
695.74614777158422
 31
0.0
  0
LINE
  5
7AE0
  8
SIZE
  6
BYBLOCK
 10
881.95270251615511
 20
657.74614777158422
 30
0.0
 11
1237.4295745161551
 21
657.74614777158422
 31
0.0
  0
LINE
  5
7AE1
  8
SIZE
  6
BYBLOCK
 10
881.95270251615511
 20
695.74614777158422
 30
0.0
 11
1237.4295745161551
 21
695.74614777158422
 31
0.0
  0
LINE
  5
7AE2
  8
NOTE
  6
CONTINUOUS
 10
986.56795451615505
 20
312.91555777158419
 30
0.0
 11
841.95270251615511
 21
657.74614777158422
 31
0.0
  0
LINE
  5
7AE3
  8
NOTE
  6
CONTINUOUS
 10
841.95270251615511
 20
695.74614777158422
 30
0.0
 11
986.56795451615505
 21
312.91555777158419
 31
0.0
  0
CIRCLE
  5
7AE4
  8
DETAIL
  6
CONTINUOUS
 10
963.95270251615523
 20
775.74614777158422
 30
0.0
 40
100.0
  0
LINE
  5
7AE5
  8
BASIS
  6
DASHDOT
 10
812.81406951615509
 20
775.74614777158422
 30
0.0
 11
1118.1372345161551
 21
775.74614777158422
 31
0.0
  0
LINE
  5
7AE6
  8
DETAIL
  6
CONTINUOUS
 10
665.95270251615511
 20
610.74614777158422
 30
0.0
 11
1025.9527025161549
 21
610.74614777158422
 31
0.0
  0
LINE
  5
7AE7
  8
SIZE
  6
BYBLOCK
 10
770.95270251615511
 20
611.74614777158422
 30
0.0
 11
770.95270251615511
 21
438.68796677158429
 31
0.0
  0
LINE
  5
7AE8
  8
SIZE
  6
BYBLOCK
 10
665.95270251615511
 20
590.74614777158422
 30
0.0
 11
665.95270251615511
 21
438.68796677158429
 31
0.0
  0
LINE
  5
7AE9
  8
SIZE
  6
BYBLOCK
 10
841.95270251615511
 20
617.74614777158422
 30
0.0
 11
841.95270251615511
 21
277.04869277158417
 31
0.0
  0
LINE
  5
7AEA
  8
SIZE
  6
BYBLOCK
 10
665.95270251615511
 20
590.74614777158422
 30
0.0
 11
665.95270251615511
 21
277.04869277158417
 31
0.0
  0
TEXT
  5
7AEB
  8
SIZE
  6
BYBLOCK
 10
649.88127351615515
 20
500.68796677158417
 30
0.0
 40
64.0
  1
105
 41
0.9
  0
LINE
  5
7AEC
  8
SIZE
  6
BYBLOCK
 10
770.95270251615511
 20
468.68796677158417
 30
0.0
 11
665.95270251615511
 21
468.68796677158417
 31
0.0
  0
TEXT
  5
7AED
  8
SIZE
  6
BYBLOCK
 10
686.75270251615507
 20
339.04869277158417
 30
0.0
 40
64.0
  1
176
 41
0.9
  0
LINE
  5
7AEE
  8
SIZE
  6
BYBLOCK
 10
667.95270251615511
 20
307.04869277158417
 30
0.0
 11
753.95270251615511
 21
307.04869277158417
 31
0.0
  0
CIRCLE
  5
7AEF
  8
SIZE
  6
CONTINUOUS
 10
665.95270251615511
 20
307.04869277158417
 30
0.0
 40
6.0
  0
CIRCLE
  5
7AF0
  8
SIZE
  6
CONTINUOUS
 10
665.95270251615511
 20
468.68796677158417
 30
0.0
 40
6.0
  0
LINE
  5
7AF1
  8
SIZE
  6
BYBLOCK
 10
663.95270251615511
 20
468.68796677158417
 30
0.0
 11
661.95270251615511
 21
468.68796677158417
 31
0.0
  0
CIRCLE
  5
7AF2
  8
SIZE
  6
CONTINUOUS
 10
841.95270251615511
 20
307.04869277158417
 30
0.0
 40
6.0
  0
LINE
  5
7AF3
  8
SIZE
  6
BYBLOCK
 10
839.95270251615511
 20
307.04869277158417
 30
0.0
 11
753.95270251615511
 21
307.04869277158417
 31
0.0
  0
CIRCLE
  5
7AF4
  8
SIZE
  6
CONTINUOUS
 10
770.95270251615511
 20
468.68796677158417
 30
0.0
 40
6.0
  0
LINE
  5
7AF5
  8
SIZE
  6
BYBLOCK
 10
772.95270251615511
 20
468.68796677158417
 30
0.0
 11
774.95270251615511
 21
468.68796677158417
 31
0.0
  0
LINE
  5
7AF6
  8
NOTE
  6
CONTINUOUS
 10
690.95270251615511
 20
740.74614777158422
 30
0.0
 11
730.95270251615511
 21
740.74614777158422
 31
0.0
  0
LINE
  5
7AF7
  8
NOTE
  6
CONTINUOUS
 10
710.952702516155
 20
720.74614777158422
 30
0.0
 11
710.952702516155
 21
760.74614777158422
 31
0.0
  0
POLYLINE
  5
7AF8
  8
NOTE
  6
CONTINUOUS
 66
     1
 10
0.0
 20
0.0
 30
0.0
  0
VERTEX
  5
9828
  8
NOTE
  6
CONTINUOUS
 10
675.21099251615499
 20
758.70527277158419
 30
0.0
  0
VERTEX
  5
9829
  8
NOTE
  6
CONTINUOUS
 10
710.952702516155
 20
740.74614777158422
 30
0.0
  0
VERTEX
  5
982A
  8
NOTE
  6
CONTINUOUS
 10
688.97903551615514
 20
774.17006077158408
 30
0.0
  0
SEQEND
  5
982B
  8
NOTE
  6
CONTINUOUS
  0
CIRCLE
  5
7AF9
  8
SIZE
  6
CONTINUOUS
 10
569.95967851615512
 20
740.74614777158422
 30
0.0
 40
6.0
  0
CIRCLE
  5
7AFA
  8
DETAIL
  6
CONTINUOUS
 10
710.952702516155
 20
740.74614777158422
 30
0.0
 40
9.5250000000000004
  0
LINE
  5
7AFB
  8
OUTLINE
  6
CONTINUOUS
 10
665.95270251615511
 20
623.74614777158422
 30
0.0
 11
665.95270251615511
 21
905.74614777158411
 31
0.0
  0
LINE
  5
7AFC
  8
DETAIL
  6
CONTINUOUS
 10
665.95270251615511
 20
610.74614777158422
 30
0.0
 11
665.95270251615511
 21
905.74614777158411
 31
0.0
  0
LINE
  5
7AFD
  8
SIZE
  6
BYBLOCK
 10
670.95270251615511
 20
740.74614777158422
 30
0.0
 11
539.95967851615512
 21
740.74614777158422
 31
0.0
  0
POLYLINE
  5
7AFE
  8
NOTE
  6
CONTINUOUS
 66
     1
 10
0.0
 20
0.0
 30
0.0
  0
VERTEX
  5
982C
  8
NOTE
  6
CONTINUOUS
 10
611.24162751615495
 20
885.76756277158415
 30
0.0
  0
VERTEX
  5
982D
  8
NOTE
  6
CONTINUOUS
 10
643.95270251615511
 20
862.74614777158422
 30
0.0
  0
VERTEX
  5
982E
  8
NOTE
  6
CONTINUOUS
 10
627.13478851615514
 20
899.03881577158427
 30
0.0
  0
SEQEND
  5
982F
  8
NOTE
  6
CONTINUOUS
  0
LINE
  5
7AFF
  8
SIZE
  6
BYBLOCK
 10
645.95270251615511
 20
905.74614777158411
 30
0.0
 11
539.95967851615512
 21
905.74614777158411
 31
0.0
  0
LINE
  5
7B00
  8
SIZE
  6
BYBLOCK
 10
569.95967851615512
 20
903.74614777158422
 30
0.0
 11
569.95967851615512
 21
742.74614777158422
 31
0.0
  0
LINE
  5
7B01
  8
NOTE
  6
CONTINUOUS
 10
623.952702516155
 20
862.74614777158422
 30
0.0
 11
663.95270251615511
 21
862.74614777158422
 31
0.0
  0
LINE
  5
7B02
  8
NOTE
  6
CONTINUOUS
 10
643.95270251615511
 20
842.74614777158422
 30
0.0
 11
643.95270251615511
 21
882.74614777158411
 31
0.0
  0
CIRCLE
  5
7B03
  8
FIX
  6
CONTINUOUS
 10
643.95270251615511
 20
862.74614777158422
 30
0.0
 40
5.0
  0
LINE
  5
7B04
  8
DETAIL
  6
CONTINUOUS
 10
621.95270251615511
 20
860.24614777158411
 30
0.0
 11
665.95270251615511
 21
860.24614777158411
 31
0.0
  0
LINE
  5
7B05
  8
DETAIL
  6
CONTINUOUS
 10
621.95270251615511
 20
865.24614777158422
 30
0.0
 11
665.95270251615511
 21
865.24614777158422
 31
0.0
  0
LINE
  5
7B06
  8
DETAIL
  6
CONTINUOUS
 10
621.95270251615511
 20
860.24614777158411
 30
0.0
 11
621.95270251615511
 21
865.24614777158422
 31
0.0
  0
LINE
  5
7B07
  8
NOTE
  6
CONTINUOUS
 10
795.95270251615511
 20
720.74614777158422
 30
0.0
 11
795.95270251615511
 21
760.74614777158422
 31
0.0
  0
POLYLINE
  5
7B08
  8
NOTE
  6
CONTINUOUS
 66
     1
 10
0.0
 20
0.0
 30
0.0
  0
VERTEX
  5
9830
  8
NOTE
  6
CONTINUOUS
 10
766.74764251615511
 20
768.07862777158425
 30
0.0
  0
VERTEX
  5
9831
  8
NOTE
  6
CONTINUOUS
 10
795.95270251615511
 20
740.74614777158422
 30
0.0
  0
VERTEX
  5
9832
  8
NOTE
  6
CONTINUOUS
 10
784.32661851615512
 20
779.0192997715842
 30
0.0
  0
SEQEND
  5
9833
  8
NOTE
  6
CONTINUOUS
  0
CIRCLE
  5
7B09
  8
DETAIL
  6
CONTINUOUS
 10
795.95270251615511
 20
740.74614777158422
 30
0.0
 40
4.7599999999999989
  0
LINE
  5
7B0A
  8
NOTE
  6
CONTINUOUS
 10
821.952702516155
 20
695.74614777158422
 30
0.0
 11
861.952702516155
 21
695.74614777158422
 31
0.0
  0
LINE
  5
7B0B
  8
NOTE
  6
CONTINUOUS
 10
821.952702516155
 20
657.74614777158422
 30
0.0
 11
861.952702516155
 21
657.74614777158422
 31
0.0
  0
POLYLINE
  5
7B0C
  8
NOTE
  6
CONTINUOUS
 66
     1
 10
0.0
 20
0.0
 30
0.0
  0
VERTEX
  5
9834
  8
NOTE
  6
CONTINUOUS
 10
866.26821251615502
 20
663.98522877158405
 30
0.0
  0
VERTEX
  5
9835
  8
NOTE
  6
CONTINUOUS
 10
841.95270251615511
 20
695.74614777158422
 30
0.0
  0
VERTEX
  5
9836
  8
NOTE
  6
CONTINUOUS
 10
847.13009151615506
 20
656.08262977158415
 30
0.0
  0
SEQEND
  5
9837
  8
NOTE
  6
CONTINUOUS
  0
POLYLINE
  5
7B0D
  8
NOTE
  6
CONTINUOUS
 66
     1
 10
0.0
 20
0.0
 30
0.0
  0
VERTEX
  5
9838
  8
NOTE
  6
CONTINUOUS
 10
867.81281251615508
 20
627.22968177158407
 30
0.0
  0
VERTEX
  5
9839
  8
NOTE
  6
CONTINUOUS
 10
841.95270251615511
 20
657.74614777158422
 30
0.0
  0
VERTEX
  5
983A
  8
NOTE
  6
CONTINUOUS
 10
849.08998151615515
 20
618.38805777158416
 30
0.0
  0
SEQEND
  5
983B
  8
NOTE
  6
CONTINUOUS
  0
CIRCLE
  5
7B0E
  8
DETAIL
  6
CONTINUOUS
 10
841.95270251615511
 20
657.74614777158422
 30
0.0
 40
13.5
  0
CIRCLE
  5
7B0F
  8
DETAIL
  6
CONTINUOUS
 10
841.95270251615511
 20
695.74614777158422
 30
0.0
 40
13.5
  0
LINE
  5
7B10
  8
NOTE
  6
CONTINUOUS
 10
770.95270251615511
 20
631.74614777158422
 30
0.0
 11
770.95270251615511
 21
671.74614777158422
 31
0.0
  0
LINE
  5
7B11
  8
NOTE
  6
CONTINUOUS
 10
841.95270251615511
 20
637.74614777158422
 30
0.0
 11
841.95270251615511
 21
677.74614777158422
 31
0.0
  0
CIRCLE
  5
7B12
  8
DETAIL
  6
CONTINUOUS
 10
770.95270251615511
 20
651.74614777158411
 30
0.0
 40
16.0
  0
LINE
  5
7B13
  8
NOTE
  6
CONTINUOUS
 10
750.95270251615511
 20
651.74614777158411
 30
0.0
 11
790.95270251615511
 21
651.74614777158411
 31
0.0
  0
POLYLINE
  5
7B14
  8
NOTE
  6
CONTINUOUS
 66
     1
 10
0.0
 20
0.0
 30
0.0
  0
VERTEX
  5
983C
  8
NOTE
  6
CONTINUOUS
 10
744.34015751615505
 20
621.88358777158408
 30
0.0
  0
VERTEX
  5
983D
  8
NOTE
  6
CONTINUOUS
 10
770.95270251615511
 20
651.74614777158411
 30
0.0
  0
VERTEX
  5
983E
  8
NOTE
  6
CONTINUOUS
 10
732.97428351615508
 20
639.19068477158419
 30
0.0
  0
SEQEND
  5
983F
  8
NOTE
  6
CONTINUOUS
  0
LINE
  5
7B15
  8
NOTE
  6
CONTINUOUS
 10
775.95270251615511
 20
740.74614777158422
 30
0.0
 11
815.95270251615511
 21
740.74614777158422
 31
0.0
  0
LINE
  5
7B16
  8
NOTE
  6
CONTINUOUS
 10
841.95270251615511
 20
675.74614777158422
 30
0.0
 11
841.95270251615511
 21
715.74614777158422
 31
0.0
  0
TEXT
  5
7B17
  8
SIZE
  6
BYBLOCK
 10
1175.4295745161551
 20
510.55917977158418
 30
0.0
 40
64.0
  1
38
 50
90.0
 41
0.9
  0
LINE
  5
7B18
  8
SIZE
  6
CONTINUOUS
 10
1207.4295745161551
 20
657.74614777158422
 30
0.0
 11
1207.4295745161551
 21
500.11226677158419
 31
0.0
  0
TEXT
  5
7B19
  8
NOTE
  6
CONTINUOUS
 10
990.01604751615525
 20
332.91765777158417
 30
0.0
 40
64.0
  1
EL 2-φ27
 41
0.9
  0
LINE
  5
7B1A
  8
NOTE
  6
CONTINUOUS
 10
986.56795451615505
 20
312.91555777158419
 30
0.0
 11
1394.2512665161551
 21
312.91555777158419
 31
0.0
  0
LINE
  5
7B1B
  8
DETAIL
  6
CONTINUOUS
 10
1052.9527025161549
 20
610.74614777158422
 30
0.0
 11
1412.9527025161549
 21
610.74614777158422
 31
0.0
  0
TEXT
  5
7B1C
  8
SIZE
  6
BYBLOCK
 10
1175.4295745161551
 20
732.17471877158425
 30
0.0
 40
64.0
  1
210
 50
90.0
 41
0.9
  0
LINE
  5
7B1D
  8
BASIS
  6
DASHDOT
 10
963.95270251615523
 20
623.74614777158422
 30
0.0
 11
963.95270251615523
 21
905.74614777158411
 31
0.0
  0
LINE
  5
7B1E
  8
DETAIL
  6
CONTINUOUS
 10
1052.9527025161549
 20
610.74614777158422
 30
0.0
 11
1052.9527025161549
 21
623.74614777158422
 31
0.0
  0
LINE
  5
7B1F
  8
DETAIL
  6
CONTINUOUS
 10
1025.9527025161549
 20
610.74614777158422
 30
0.0
 11
1025.9527025161549
 21
623.74614777158422
 31
0.0
  0
LINE
  5
7B20
  8
SIZE
  6
BYBLOCK
 10
1207.4295745161551
 20
903.74614777158422
 30
0.0
 11
1207.4295745161551
 21
697.74614777158411
 31
0.0
  0
LINE
  5
7B21
  8
BASIS
  6
DASHDOT
 10
1403.9527025161549
 20
623.74614777158422
 30
0.0
 11
1403.9527025161549
 21
905.74614777158411
 31
0.0
  0
CIRCLE
  5
7B22
  8
SIZE
  6
CONTINUOUS
 10
1207.4295745161551
 20
657.74614777158422
 30
0.0
 40
6.0
  0
LINE
  5
7B23
  8
SIZE
  6
BYBLOCK
 10
1207.4295745161551
 20
657.74614777158422
 30
0.0
 11
1207.4295745161551
 21
695.74614777158422
 31
0.0
  0
LINE
  5
7B24
  8
SIZE
  6
BYBLOCK
 10
1207.4295745161551
 20
655.74614777158411
 30
0.0
 11
1207.4295745161551
 21
653.74614777158422
 31
0.0
  0
CIRCLE
  5
7B25
  8
SIZE
  6
CONTINUOUS
 10
1207.4295745161551
 20
695.74614777158422
 30
0.0
 40
6.0
  0
CIRCLE
  5
7B26
  8
SIZE
  6
CONTINUOUS
 10
1207.4295745161551
 20
695.74614777158422
 30
0.0
 40
6.0
  0
LINE
  5
7B27
  8
SIZE
  6
BYBLOCK
 10
1207.4295745161551
 20
697.74614777158411
 30
0.0
 11
1207.4295745161551
 21
699.74614777158422
 31
0.0
  0
LINE
  5
7B28
  8
DETAIL
  6
CONTINUOUS
 10
1412.9527025161549
 20
610.74614777158422
 30
0.0
 11
1412.9527025161549
 21
623.74614777158422
 31
0.0
  0
LINE
  5
7B29
  8
SIZE
  6
BYBLOCK
 10
1220.338092516155
 20
905.74614777158411
 30
0.0
 11
1237.4295745161551
 21
905.74614777158411
 31
0.0
  0
TEXT
  5
7B2A
  8
NOTE
  6
CONTINUOUS
 10
118.9717025161551
 20
1257.3794997715841
 30
0.0
 40
64.0
  1
RL φ9.52
 41
0.9
  0
TEXT
  5
7B2B
  8
NOTE
  6
CONTINUOUS
 10
21.244982516155229
 20
989.69681277158418
 30
0.0
 40
64.0
  1
RG φ19.05
 41
0.9
  0
LINE
  5
7B2C
  8
NOTE
  6
CONTINUOUS
 10
453.12001351615498
 20
965.15754277158419
 30
0.0
 11
0.0000025161550639
 21
965.15754277158419
 31
0.0
  0
TEXT
  5
7B2D
  8
NOTE
  6
CONTINUOUS
 10
335.67070251615519
 20
1108.666895771584
 30
0.0
 40
64.0
  1
AH
 41
0.9
  0
LINE
  5
7B2E
  8
NOTE
  6
CONTINUOUS
 10
444.28446751615508
 20
1100.221721771584
 30
0.0
 11
308.05270251615502
 21
1100.221721771584
 31
0.0
  0
LINE
  5
7B2F
  8
NOTE
  6
CONTINUOUS
 10
488.4621975161549
 20
1236.548183771584
 30
0.0
 11
111.0577025161551
 21
1236.548183771584
 31
0.0
  0
LINE
  5
7B30
  8
SIZE
  6
BYBLOCK
 10
645.95270251615511
 20
1193.740565771584
 30
0.0
 11
1425.9527025161549
 21
1193.740565771584
 31
0.0
  0
LINE
  5
7B31
  8
SIZE
  6
BYBLOCK
 10
623.952702516155
 20
1322.8010157715839
 30
0.0
 11
1425.9527025161549
 21
1322.8010157715839
 31
0.0
  0
LINE
  5
7B32
  8
SIZE
  6
CONTINUOUS
 10
795.95270251615511
 20
969.19550677158406
 30
0.0
 11
978.01128251615501
 21
969.19550677158406
 31
0.0
  0
TEXT
  5
7B33
  8
SIZE
  6
BYBLOCK
 10
641.82413151615515
 20
1001.195506771584
 30
0.0
 40
64.0
  1
45
 41
0.9
  0
LINE
  5
7B34
  8
SIZE
  6
BYBLOCK
 10
795.95270251615511
 20
969.19550677158406
 30
0.0
 11
710.952702516155
 21
969.19550677158406
 31
0.0
  0
LINE
  5
7B35
  8
SIZE
  6
BYBLOCK
 10
665.95270251615511
 20
925.74614777158433
 30
0.0
 11
665.95270251615511
 21
999.19550677158418
 31
0.0
  0
CIRCLE
  5
7B36
  8
SIZE
  6
CONTINUOUS
 10
665.95270251615511
 20
969.19550677158406
 30
0.0
 40
6.0
  0
LINE
  5
7B37
  8
SIZE
  6
BYBLOCK
 10
710.952702516155
 20
969.19550677158406
 30
0.0
 11
665.95270251615511
 21
969.19550677158406
 31
0.0
  0
LINE
  5
7B38
  8
SIZE
  6
BYBLOCK
 10
663.95270251615511
 20
969.19550677158406
 30
0.0
 11
661.95270251615511
 21
969.19550677158406
 31
0.0
  0
CIRCLE
  5
7B39
  8
SIZE
  6
CONTINUOUS
 10
710.952702516155
 20
969.19550677158406
 30
0.0
 40
6.0
  0
CIRCLE
  5
7B3A
  8
SIZE
  6
CONTINUOUS
 10
710.952702516155
 20
969.19550677158406
 30
0.0
 40
6.0
  0
LINE
  5
7B3B
  8
SIZE
  6
BYBLOCK
 10
712.95270251615511
 20
969.19550677158406
 30
0.0
 11
714.95270251615511
 21
969.19550677158406
 31
0.0
  0
LINE
  5
7B3C
  8
SIZE
  6
BYBLOCK
 10
708.95270251615511
 20
969.19550677158406
 30
0.0
 11
706.952702516155
 21
969.19550677158406
 31
0.0
  0
CIRCLE
  5
7B3D
  8
SIZE
  6
CONTINUOUS
 10
643.95270251615511
 20
1193.740565771584
 30
0.0
 40
6.0
  0
TEXT
  5
7B3E
  8
SIZE
  6
BYBLOCK
 10
835.8275725161551
 20
1001.195506771584
 30
0.0
 40
64.0
  1
85
 41
0.9
  0
CIRCLE
  5
7B3F
  8
SIZE
  6
CONTINUOUS
 10
795.95270251615511
 20
969.19550677158406
 30
0.0
 40
6.0
  0
LINE
  5
7B40
  8
SIZE
  6
BYBLOCK
 10
797.95270251615511
 20
969.19550677158406
 30
0.0
 11
799.95270251615511
 21
969.19550677158406
 31
0.0
  0
CIRCLE
  5
7B41
  8
SIZE
  6
CONTINUOUS
 10
621.95270251615511
 20
1322.8010157715839
 30
0.0
 40
6.0
  0
CIRCLE
  5
7B42
  8
SIZE
  6
CONTINUOUS
 10
2567.9177025161548
 20
905.74614777158411
 30
0.0
 40
6.0
  0
CIRCLE
  5
7B43
  8
SIZE
  6
CONTINUOUS
 10
2377.0551145161548
 20
905.74614777158411
 30
0.0
 40
6.0
  0
LINE
  5
7B44
  8
SIZE
  6
BYBLOCK
 10
2207.9527025161551
 20
902.74614777158422
 30
0.0
 11
2207.9527025161551
 21
1223.740565771584
 31
0.0
  0
LINE
  5
7B45
  8
SIZE
  6
BYBLOCK
 10
2229.9527025161551
 20
880.24614777158422
 30
0.0
 11
2229.9527025161551
 21
1352.8010157715839
 31
0.0
  0
TEXT
  5
7B46
  8
SIZE
  6
BYBLOCK
 10
2535.9177025161548
 20
772.17471877158425
 30
0.0
 40
64.0
  1
130
 50
90.0
 41
0.9
  0
LINE
  5
7B47
  8
SIZE
  6
BYBLOCK
 10
1943.9527025161549
 20
795.74614777158422
 30
0.0
 11
1943.9527025161549
 21
1012.558720771584
 31
0.0
  0
LINE
  5
7B48
  8
SIZE
  6
BYBLOCK
 10
1743.9527025161549
 20
795.74614777158422
 30
0.0
 11
1743.9527025161549
 21
1012.558720771584
 31
0.0
  0
LINE
  5
7B49
  8
SIZE
  6
CONTINUOUS
 10
2377.0551145161548
 20
905.74614777158411
 30
0.0
 11
2377.0551145161548
 21
1018.5515097715841
 31
0.0
  0
LINE
  5
7B4A
  8
SIZE
  6
BYBLOCK
 10
2247.9527025161551
 20
862.74614777158422
 30
0.0
 11
2407.0551145161548
 21
862.74614777158422
 31
0.0
  0
LINE
  5
7B4B
  8
SIZE
  6
BYBLOCK
 10
2205.9527025161542
 20
905.74614777158411
 30
0.0
 11
2407.0551145161548
 21
905.74614777158411
 31
0.0
  0
TEXT
  5
7B4C
  8
SIZE
  6
BYBLOCK
 10
2355.5795245161548
 20
666.51672877158421
 30
0.0
 40
64.0
  1
13
 50
90.0
 41
0.9
  0
LINE
  5
7B4D
  8
SIZE
  6
BYBLOCK
 10
2205.9527025161542
 20
610.74614777158422
 30
0.0
 11
2406.7296095161551
 21
610.74614777158422
 31
0.0
  0
LINE
  5
7B4E
  8
SIZE
  6
BYBLOCK
 10
2205.9527025161542
 20
623.74614777158422
 30
0.0
 11
2406.7296095161551
 21
623.74614777158422
 31
0.0
  0
LINE
  5
7B4F
  8
SIZE
  6
BYBLOCK
 10
2003.510321516155
 20
775.74614777158422
 30
0.0
 11
2597.9177025161548
 21
775.74614777158422
 31
0.0
  0
LINE
  5
7B50
  8
SIZE
  6
BYBLOCK
 10
2205.9527025161542
 20
905.74614777158411
 30
0.0
 11
2597.9177025161548
 21
905.74614777158411
 31
0.0
  0
LINE
  5
7B51
  8
NOTE
  6
CONTINUOUS
 10
2349.9386025161548
 20
419.83929977158408
 30
0.0
 11
2820.9757025161548
 21
419.83929977158408
 31
0.0
  0
LINE
  5
7B52
  8
SIZE
  6
BYBLOCK
 10
2185.9527025161551
 20
592.74614777158422
 30
0.0
 11
2185.9527025161551
 21
0.0000007715841548
 31
0.0
  0
TEXT
  5
7B53
  8
SIZE
  6
BYBLOCK
 10
1549.8955595161549
 20
208.79790777158411
 30
0.0
 40
64.0
  1
440
 41
0.9
  0
LINE
  5
7B54
  8
SIZE
  6
BYBLOCK
 10
1843.9527025161549
 20
603.74614777158422
 30
0.0
 11
1843.9527025161549
 21
146.79790777158411
 31
0.0
  0
CIRCLE
  5
7B55
  8
SIZE
  6
CONTINUOUS
 10
1843.9527025161549
 20
176.79790777158411
 30
0.0
 40
6.0
  0
CIRCLE
  5
7B56
  8
SIZE
  6
CONTINUOUS
 10
2185.9527025161551
 20
30.000000771584151
 30
0.0
 40
6.0
  0
LINE
  5
7B57
  8
SIZE
  6
BYBLOCK
 10
2183.9527025161551
 20
458.41586577158421
 30
0.0
 11
1827.9527025161549
 21
458.41586577158421
 31
0.0
  0
LINE
  5
7B58
  8
BASIS
  6
DASHDOT
 10
1702.613009516155
 20
775.74614777158422
 30
0.0
 11
1983.510321516155
 21
775.74614777158422
 31
0.0
  0
CIRCLE
  5
7B59
  8
DETAIL
  6
CONTINUOUS
 10
1843.9527025161549
 20
775.74614777158422
 30
0.0
 40
100.0
  0
LINE
  5
7B5A
  8
DETAIL
  6
CONTINUOUS
 10
1825.9527025161549
 20
610.74614777158422
 30
0.0
 11
2185.9527025161551
 21
610.74614777158422
 31
0.0
  0
LINE
  5
7B5B
  8
SIZE
  6
BYBLOCK
 10
1825.9527025161549
 20
592.74614777158422
 30
0.0
 11
1825.9527025161549
 21
428.41586577158421
 31
0.0
  0
CIRCLE
  5
7B5C
  8
SIZE
  6
CONTINUOUS
 10
1825.9527025161549
 20
458.41586577158421
 30
0.0
 40
6.0
  0
LINE
  5
7B5D
  8
DETAIL
  6
CONTINUOUS
 10
1438.9527025161549
 20
610.74614777158422
 30
0.0
 11
1798.9527025161549
 21
610.74614777158422
 31
0.0
  0
LINE
  5
7B5E
  8
DETAIL
  6
CONTINUOUS
 10
1438.9527025161549
 20
610.74614777158422
 30
0.0
 11
1438.9527025161549
 21
623.74614777158422
 31
0.0
  0
LINE
  5
7B5F
  8
BASIS
  6
DASHDOT
 10
1843.9527025161549
 20
623.74614777158422
 30
0.0
 11
1843.9527025161549
 21
905.74614777158411
 31
0.0
  0
LINE
  5
7B60
  8
DETAIL
  6
CONTINUOUS
 10
1798.9527025161549
 20
610.74614777158422
 30
0.0
 11
1798.9527025161549
 21
623.74614777158422
 31
0.0
  0
LINE
  5
7B61
  8
DETAIL
  6
CONTINUOUS
 10
1825.9527025161549
 20
610.74614777158422
 30
0.0
 11
1825.9527025161549
 21
623.74614777158422
 31
0.0
  0
LINE
  5
7B62
  8
SIZE
  6
BYBLOCK
 10
2185.9527025161551
 20
592.74614777158422
 30
0.0
 11
2185.9527025161551
 21
428.41586577158421
 31
0.0
  0
LINE
  5
7B63
  8
NOTE
  6
CONTINUOUS
 10
2207.9527025161551
 20
862.74614777158422
 30
0.0
 11
2349.9386025161548
 21
419.83929977158408
 31
0.0
  0
TEXT
  5
7B64
  8
SIZE
  6
BYBLOCK
 10
1931.8955595161549
 20
490.41586577158421
 30
0.0
 40
64.0
  1
360
 41
0.9
  0
CIRCLE
  5
7B65
  8
SIZE
  6
CONTINUOUS
 10
2185.9527025161551
 20
458.41586577158421
 30
0.0
 40
6.0
  0
LINE
  5
7B66
  8
OUTLINE
  6
CONTINUOUS
 10
2185.9527025161551
 20
623.74614777158422
 30
0.0
 11
2185.9527025161551
 21
905.74614777158411
 31
0.0
  0
LINE
  5
7B67
  8
DETAIL
  6
CONTINUOUS
 10
2185.9527025161551
 20
610.74614777158422
 30
0.0
 11
2185.9527025161551
 21
905.74614777158411
 31
0.0
  0
POLYLINE
  5
7B68
  8
NOTE
  6
CONTINUOUS
 66
     1
 10
0.0
 20
0.0
 30
0.0
  0
VERTEX
  5
9840
  8
NOTE
  6
CONTINUOUS
 10
2230.1325255161551
 20
829.45868077158411
 30
0.0
  0
VERTEX
  5
9841
  8
NOTE
  6
CONTINUOUS
 10
2207.9527025161551
 20
862.74614777158422
 30
0.0
  0
VERTEX
  5
9842
  8
NOTE
  6
CONTINUOUS
 10
2210.517258516154
 20
822.82844477158426
 30
0.0
  0
SEQEND
  5
9843
  8
NOTE
  6
CONTINUOUS
  0
LINE
  5
7B69
  8
NOTE
  6
CONTINUOUS
 10
2187.9527025161551
 20
862.74614777158422
 30
0.0
 11
2227.9527025161551
 21
862.74614777158422
 31
0.0
  0
LINE
  5
7B6A
  8
NOTE
  6
CONTINUOUS
 10
2207.9527025161551
 20
842.74614777158422
 30
0.0
 11
2207.9527025161551
 21
882.74614777158411
 31
0.0
  0
CIRCLE
  5
7B6B
  8
FIX
  6
CONTINUOUS
 10
2207.9527025161551
 20
862.74614777158422
 30
0.0
 40
5.0
  0
LINE
  5
7B6C
  8
DETAIL
  6
CONTINUOUS
 10
2185.9527025161551
 20
865.24614777158422
 30
0.0
 11
2229.9527025161551
 21
865.24614777158422
 31
0.0
  0
LINE
  5
7B6D
  8
DETAIL
  6
CONTINUOUS
 10
2185.9527025161551
 20
860.24614777158411
 30
0.0
 11
2229.9527025161551
 21
860.24614777158411
 31
0.0
  0
LINE
  5
7B6E
  8
DETAIL
  6
CONTINUOUS
 10
2229.9527025161551
 20
860.24614777158411
 30
0.0
 11
2229.9527025161551
 21
865.24614777158422
 31
0.0
  0
TEXT
  5
7B6F
  8
NOTE
  6
CONTINUOUS
 10
2372.7063745161549
 20
435.81706477158423
 30
0.0
 40
64.0
  1
AH 4-φ10
 41
0.9
  0
LINE
  5
7B70
  8
SIZE
  6
CONTINUOUS
 10
2376.7296095161551
 20
627.74614777158422
 30
0.0
 11
2376.7296095161551
 21
766.27706277158416
 31
0.0
  0
CIRCLE
  5
7B71
  8
SIZE
  6
CONTINUOUS
 10
2376.7296095161551
 20
610.74614777158422
 30
0.0
 40
6.0
  0
CIRCLE
  5
7B72
  8
SIZE
  6
CONTINUOUS
 10
2376.7296095161551
 20
623.74614777158422
 30
0.0
 40
6.0
  0
LINE
  5
7B73
  8
SIZE
  6
BYBLOCK
 10
2376.7296095161551
 20
610.74614777158422
 30
0.0
 11
2376.7296095161551
 21
623.74614777158422
 31
0.0
  0
LINE
  5
7B74
  8
SIZE
  6
BYBLOCK
 10
2376.7296095161551
 20
625.74614777158422
 30
0.0
 11
2376.7296095161551
 21
627.74614777158422
 31
0.0
  0
LINE
  5
7B75
  8
SIZE
  6
BYBLOCK
 10
2376.7296095161551
 20
608.74614777158422
 30
0.0
 11
2376.7296095161551
 21
606.74614777158422
 31
0.0
  0
CIRCLE
  5
7B76
  8
SIZE
  6
CONTINUOUS
 10
2377.0551145161548
 20
862.74614777158422
 30
0.0
 40
6.0
  0
LINE
  5
7B77
  8
SIZE
  6
BYBLOCK
 10
2377.0551145161548
 20
862.74614777158422
 30
0.0
 11
2377.0551145161548
 21
905.74614777158411
 31
0.0
  0
LINE
  5
7B78
  8
SIZE
  6
BYBLOCK
 10
2377.0551145161548
 20
860.74614777158422
 30
0.0
 11
2377.0551145161548
 21
858.74614777158433
 31
0.0
  0
LINE
  5
7B79
  8
SIZE
  6
BYBLOCK
 10
2567.9177025161548
 20
775.74614777158422
 30
0.0
 11
2567.9177025161548
 21
905.74614777158411
 31
0.0
  0
CIRCLE
  5
7B7A
  8
SIZE
  6
CONTINUOUS
 10
2567.9177025161548
 20
775.74614777158422
 30
0.0
 40
6.0
  0
LINE
  5
7B7B
  8
SIZE
  6
BYBLOCK
 10
2567.9177025161548
 20
773.74614777158422
 30
0.0
 11
2567.9177025161548
 21
771.74614777158422
 31
0.0
  0
TEXT
  5
7B7C
  8
SIZE
  6
BYBLOCK
 10
1741.0955595161549
 20
1014.558720771584
 30
0.0
 40
64.0
  1
φ200
 41
0.9
  0
LINE
  5
7B7D
  8
SIZE
  6
BYBLOCK
 10
1943.9527025161549
 20
982.55872077158426
 30
0.0
 11
1743.9527025161549
 21
982.55872077158426
 31
0.0
  0
CIRCLE
  5
7B7E
  8
SIZE
  6
CONTINUOUS
 10
1743.9527025161549
 20
982.55872077158426
 30
0.0
 40
6.0
  0
LINE
  5
7B7F
  8
SIZE
  6
BYBLOCK
 10
1741.9527025161549
 20
982.55872077158426
 30
0.0
 11
1739.9527025161549
 21
982.55872077158426
 31
0.0
  0
CIRCLE
  5
7B80
  8
SIZE
  6
CONTINUOUS
 10
1943.9527025161549
 20
982.55872077158426
 30
0.0
 40
6.0
  0
LINE
  5
7B81
  8
SIZE
  6
BYBLOCK
 10
1945.9527025161549
 20
982.55872077158426
 30
0.0
 11
1947.9527025161549
 21
982.55872077158426
 31
0.0
  0
TEXT
  5
7B82
  8
SIZE
  6
BYBLOCK
 10
2345.0551145161548
 20
915.27750677158406
 30
0.0
 40
64.0
  1
43
 50
90.0
 41
0.9
  0
CIRCLE
  5
7B83
  8
SIZE
  6
CONTINUOUS
 10
2207.9527025161551
 20
1193.740565771584
 30
0.0
 40
6.0
  0
CIRCLE
  5
7B84
  8
SIZE
  6
CONTINUOUS
 10
2229.9527025161551
 20
1322.8010157715839
 30
0.0
 40
6.0
  0
TEXT
  5
7B85
  8
ETC
  6
CONTINUOUS
 10
2512.3057025161552
 20
1475.145412771584
 30
0.0
 40
64.0
  1
PCA0023
 41
0.9
  0
LINE
  5
7B86
  8
SIZE
  6
BYBLOCK
 10
2377.0551145161548
 20
907.74614777158411
 30
0.0
 11
2377.0551145161548
 21
909.74614777158422
 31
0.0
  0
LINE
  5
7B87
  8
SIZE
  6
BYBLOCK
 10
2567.9177025161548
 20
907.74614777158411
 30
0.0
 11
2567.9177025161548
 21
909.74614777158422
 31
0.0
  0
TEXT
  5
7B88
  8
ETC
  6
CONTINUOUS
 10
2517.6668425161552
 20
1354.5157667715839
 30
0.0
 40
64.0
  1
PAC
 41
0.9
  0
ENDBLK
  5
7B8A
  8
0
  0
BLOCK
  8
0
  2
*D7
 70
     1
 10
0.0
 20
0.0
 30
0.0
  3
*D7
  1

  0
LINE
  5
9858
  8
SIZE
  6
CONTINUOUS
 62
     0
 10
-315.0
 20
-425.0
 30
0.0
 11
-708.48610758013103
 21
-424.99999999999989
 31
0.0
  0
LINE
  5
9859
  8
SIZE
  6
CONTINUOUS
 62
     0
 10
-135.0
 20
-490.99999999999989
 30
0.0
 11
-708.48610758013103
 21
-490.99999999999972
 31
0.0
  0
LINE
  5
985A
  8
SIZE
  6
CONTINUOUS
 62
     0
 10
-688.48610758013103
 20
-500.99999999999977
 30
0.0
 11
-688.48610758013103
 21
-510.99999999999972
 31
0.0
  0
LINE
  5
985B
  8
SIZE
  6
CONTINUOUS
 62
     0
 10
-688.48610758013103
 20
-414.99999999999977
 30
0.0
 11
-688.48610758013103
 21
-294.48571428571108
 31
0.0
  0
LINE
  5
985C
  8
SIZE
  6
CONTINUOUS
 62
     0
 10
-688.48610758013103
 20
-490.99999999999972
 30
0.0
 11
-688.48610758013103
 21
-424.99999999999989
 31
0.0
  0
INSERT
  5
985D
  8
SIZE
  6
CONTINUOUS
 62
     0
  2
_ORIGIN
 10
-688.48610758013103
 20
-490.99999999999972
 30
0.0
 41
10.0
 42
10.0
 43
10.0
 50
90.0
  0
INSERT
  5
985E
  8
SIZE
  6
CONTINUOUS
 62
     0
  2
_ORIGIN
 10
-688.48610758013103
 20
-424.99999999999989
 30
0.0
 41
10.0
 42
10.0
 43
10.0
 50
270.0
  0
TEXT
  8
0
  40
64
  5
986E
  62
0
  72
0
  71
0
 10
-858.486
 20
-463.023
 30
0.000000
  1
66
  0
POINT
  5
9860
  8
DEFPOINTS
  6
CONTINUOUS
 62
     0
 10
-295.0
 20
-425.0
 30
0.0
  0
POINT
  5
9861
  8
DEFPOINTS
  6
CONTINUOUS
 62
     0
 10
-115.0
 20
-491.0
 30
0.0
  0
POINT
  5
9862
  8
DEFPOINTS
  6
CONTINUOUS
 62
     0
 10
-688.48610758013103
 20
-490.99999999999972
 30
0.0
  0
ENDBLK
  5
9541
  8
0
  0
BLOCK
  8
0
  2
*D8
 70
     1
 10
0.0
 20
0.0
 30
0.0
  3
*D8
  1

  0
LINE
  5
9863
  8
SIZE
  6
CONTINUOUS
 62
     0
 10
-315.0
 20
-425.0
 30
0.0
 11
-829.69874563038331
 21
-424.99999999999977
 31
0.0
  0
LINE
  5
9864
  8
SIZE
  6
CONTINUOUS
 62
     0
 10
-50.0
 20
-497.0
 30
0.0
 11
-829.69874563038331
 21
-496.99999999999972
 31
0.0
  0
LINE
  5
9865
  8
SIZE
  6
CONTINUOUS
 62
     0
 10
-809.6987456303832
 20
-506.99999999999972
 30
0.0
 11
-809.6987456303832
 21
-516.99999999999977
 31
0.0
  0
LINE
  5
9866
  8
SIZE
  6
CONTINUOUS
 62
     0
 10
-809.6987456303832
 20
-414.99999999999977
 30
0.0
 11
-809.6987456303832
 21
-287.21557726599139
 31
0.0
  0
LINE
  5
9867
  8
SIZE
  6
CONTINUOUS
 62
     0
 10
-809.6987456303832
 20
-496.99999999999972
 30
0.0
 11
-809.6987456303832
 21
-424.99999999999977
 31
0.0
  0
INSERT
  5
9868
  8
SIZE
  6
CONTINUOUS
 62
     0
  2
_ORIGIN
 10
-809.6987456303832
 20
-496.99999999999972
 30
0.0
 41
10.0
 42
10.0
 43
10.0
 50
90.0
  0
INSERT
  5
9869
  8
SIZE
  6
CONTINUOUS
 62
     0
  2
_ORIGIN
 10
-809.6987456303832
 20
-424.99999999999977
 30
0.0
 41
10.0
 42
10.0
 43
10.0
 50
270.0
  0
TEXT
  8
0
  40
64
  5
986F
  62
0
  72
0
  71
0
 10
-979.699
 20
-457.124
 30
0.000000
  1
72
  0
POINT
  5
986B
  8
DEFPOINTS
  6
CONTINUOUS
 62
     0
 10
-295.0
 20
-425.0
 30
0.0
  0
POINT
  5
986C
  8
DEFPOINTS
  6
CONTINUOUS
 62
     0
 10
-30.0
 20
-497.0
 30
0.0
  0
POINT
  5
986D
  8
DEFPOINTS
  6
CONTINUOUS
 62
     0
 10
-809.6987456303832
 20
-496.99999999999972
 30
0.0
  0
ENDBLK
  5
955B
  8
0
  0
BLOCK
  8
0
  2
*D9
 70
     1
 10
0.0
 20
0.0
 30
0.0
  3
*D9
  1

  0
LINE
  5
9586
  8
SIZE
  6
CONTINUOUS
 62
     0
 10
16226.1132760703
 20
-1572.664885381156
 30
0.0
 11
16226.1132760703
 21
-1227.155245329486
 31
0.0
  0
LINE
  5
9587
  8
SIZE
  6
CONTINUOUS
 62
     0
 10
16249.1132760703
 20
-1585.664885381156
 30
0.0
 11
16249.1132760703
 21
-1227.155245329486
 31
0.0
  0
LINE
  5
9588
  8
SIZE
  6
CONTINUOUS
 62
     0
 10
16259.1132760703
 20
-1247.155245329486
 30
0.0
 11
16269.1132760703
 21
-1247.155245329486
 31
0.0
  0
LINE
  5
9589
  8
SIZE
  6
CONTINUOUS
 62
     0
 10
16216.1132760703
 20
-1247.155245329486
 30
0.0
 11
16092.85613321315
 21
-1247.155245329486
 31
0.0
  0
LINE
  5
958A
  8
SIZE
  6
CONTINUOUS
 62
     0
 10
16249.1132760703
 20
-1247.155245329486
 30
0.0
 11
16226.1132760703
 21
-1247.155245329486
 31
0.0
  0
INSERT
  5
958B
  8
SIZE
  6
CONTINUOUS
 62
     0
  2
_ORIGIN
 10
16249.1132760703
 20
-1247.155245329486
 30
0.0
 41
10.0
 42
10.0
 43
10.0
 50
180.0
  0
INSERT
  5
958C
  8
SIZE
  6
CONTINUOUS
 62
     0
  2
_ORIGIN
 10
16226.1132760703
 20
-1247.155245329486
 30
0.0
 41
10.0
 42
10.0
 43
10.0
  0
TEXT
  5
958D
  8
SIZE
  6
CONTINUOUS
 62
     0
 10
16102.85613321315
 20
-1237.155245329486
 30
0.0
 40
64.0
  1
23
 41
0.9
  0
POINT
  5
958E
  8
DEFPOINTS
  6
CONTINUOUS
 62
     0
 10
16226.1132760703
 20
-1592.664885381156
 30
0.0
  0
POINT
  5
958F
  8
DEFPOINTS
  6
CONTINUOUS
 62
     0
 10
16249.1132760703
 20
-1605.664885381156
 30
0.0
  0
POINT
  5
9590
  8
DEFPOINTS
  6
CONTINUOUS
 62
     0
 10
16249.1132760703
 20
-1247.155245329486
 30
0.0
  0
ENDBLK
  5
9585
  8
0
  0
BLOCK
  8
0
  2
*D10
 70
     1
 10
0.0
 20
0.0
 30
0.0
  3
*D10
  1

  0
LINE
  5
95BA
  8
SIZE
  6
CONTINUOUS
 62
     0
 10
16226.1132760703
 20
-1572.664885381156
 30
0.0
 11
16226.1132760703
 21
-1422.2689099820341
 31
0.0
  0
LINE
  5
95BB
  8
SIZE
  6
CONTINUOUS
 62
     0
 10
16292.1132760703
 20
-1660.664885381156
 30
0.0
 11
16292.1132760703
 21
-1422.2689099820341
 31
0.0
  0
LINE
  5
95BC
  8
SIZE
  6
CONTINUOUS
 62
     0
 10
16216.1132760703
 20
-1442.2689099820341
 30
0.0
 11
16206.1132760703
 21
-1442.2689099820341
 31
0.0
  0
LINE
  5
95BD
  8
SIZE
  6
CONTINUOUS
 62
     0
 10
16302.1132760703
 20
-1442.2689099820341
 30
0.0
 11
16422.627561784579
 21
-1442.2689099820341
 31
0.0
  0
LINE
  5
95BE
  8
SIZE
  6
CONTINUOUS
 62
     0
 10
16226.1132760703
 20
-1442.2689099820341
 30
0.0
 11
16292.1132760703
 21
-1442.2689099820341
 31
0.0
  0
INSERT
  5
95BF
  8
SIZE
  6
CONTINUOUS
 62
     0
  2
_ORIGIN
 10
16226.1132760703
 20
-1442.2689099820341
 30
0.0
 41
10.0
 42
10.0
 43
10.0
  0
INSERT
  5
95C0
  8
SIZE
  6
CONTINUOUS
 62
     0
  2
_ORIGIN
 10
16292.1132760703
 20
-1442.2689099820341
 30
0.0
 41
10.0
 42
10.0
 43
10.0
 50
180.0
  0
TEXT
  5
95C1
  8
SIZE
  6
CONTINUOUS
 62
     0
 10
16322.1132760703
 20
-1432.2689099820341
 30
0.0
 40
64.0
  1
66
 41
0.9
  0
POINT
  5
95C2
  8
DEFPOINTS
  6
CONTINUOUS
 62
     0
 10
16226.1132760703
 20
-1592.664885381156
 30
0.0
  0
POINT
  5
95C3
  8
DEFPOINTS
  6
CONTINUOUS
 62
     0
 10
16292.1132760703
 20
-1680.664885381156
 30
0.0
  0
POINT
  5
95C4
  8
DEFPOINTS
  6
CONTINUOUS
 62
     0
 10
16292.1132760703
 20
-1442.2689099820341
 30
0.0
  0
ENDBLK
  5
959F
  8
0
  0
BLOCK
  8
0
  2
*D11
 70
     1
 10
0.0
 20
0.0
 30
0.0
  3
*D11
  1

  0
LINE
  5
95C5
  8
SIZE
  6
CONTINUOUS
 62
     0
 10
16298.1132760703
 20
-1607.664885381156
 30
0.0
 11
16298.1132760703
 21
-1323.5700236855189
 31
0.0
  0
LINE
  5
95C6
  8
SIZE
  6
CONTINUOUS
 62
     0
 10
16226.1132760703
 20
-1572.664885381156
 30
0.0
 11
16226.1132760703
 21
-1323.5700236855189
 31
0.0
  0
LINE
  5
95C7
  8
SIZE
  6
CONTINUOUS
 62
     0
 10
16216.1132760703
 20
-1343.5700236855189
 30
0.0
 11
16206.1132760703
 21
-1343.5700236855189
 31
0.0
  0
LINE
  5
95C8
  8
SIZE
  6
CONTINUOUS
 62
     0
 10
16308.1132760703
 20
-1343.5700236855189
 30
0.0
 11
16431.370418927439
 21
-1343.5700236855189
 31
0.0
  0
LINE
  5
95C9
  8
SIZE
  6
CONTINUOUS
 62
     0
 10
16226.1132760703
 20
-1343.5700236855189
 30
0.0
 11
16298.1132760703
 21
-1343.5700236855189
 31
0.0
  0
INSERT
  5
95CA
  8
SIZE
  6
CONTINUOUS
 62
     0
  2
_ORIGIN
 10
16226.1132760703
 20
-1343.5700236855189
 30
0.0
 41
10.0
 42
10.0
 43
10.0
  0
INSERT
  5
95CB
  8
SIZE
  6
CONTINUOUS
 62
     0
  2
_ORIGIN
 10
16298.1132760703
 20
-1343.5700236855189
 30
0.0
 41
10.0
 42
10.0
 43
10.0
 50
180.0
  0
TEXT
  5
95CC
  8
SIZE
  6
CONTINUOUS
 62
     0
 10
16328.1132760703
 20
-1333.5700236855189
 30
0.0
 40
64.0
  1
72
 41
0.9
  0
POINT
  5
95CD
  8
DEFPOINTS
  6
CONTINUOUS
 62
     0
 10
16298.1132760703
 20
-1627.664885381156
 30
0.0
  0
POINT
  5
95CE
  8
DEFPOINTS
  6
CONTINUOUS
 62
     0
 10
16226.1132760703
 20
-1592.664885381156
 30
0.0
  0
POINT
  5
95CF
  8
DEFPOINTS
  6
CONTINUOUS
 62
     0
 10
16226.1132760703
 20
-1343.5700236855189
 30
0.0
  0
ENDBLK
  5
95AE
  8
0
  0
BLOCK
  8
0
  2
*D12
 70
     1
 10
0.0
 20
0.0
 30
0.0
  3
*D12
  1

  0
LINE
  5
95D6
  8
SIZE
  6
CONTINUOUS
 62
     0
 10
16226.1132760703
 20
-1572.664885381156
 30
0.0
 11
16226.1132760703
 21
-1102.1491314132941
 31
0.0
  0
LINE
  5
95D7
  8
SIZE
  6
CONTINUOUS
 62
     0
 10
15286.1132760703
 20
-1572.664885381156
 30
0.0
 11
15286.1132760703
 21
-1102.1491314132941
 31
0.0
  0
LINE
  5
95D8
  8
SIZE
  6
CONTINUOUS
 62
     0
 10
16216.1132760703
 20
-1122.1491314132941
 30
0.0
 11
15296.1132760703
 21
-1122.1491314132941
 31
0.0
  0
INSERT
  5
95D9
  8
SIZE
  6
CONTINUOUS
 62
     0
  2
_ORIGIN
 10
16226.1132760703
 20
-1122.1491314132941
 30
0.0
 41
10.0
 42
10.0
 43
10.0
  0
INSERT
  5
95DA
  8
SIZE
  6
CONTINUOUS
 62
     0
  2
_ORIGIN
 10
15286.1132760703
 20
-1122.1491314132941
 30
0.0
 41
10.0
 42
10.0
 43
10.0
 50
180.0
  0
TEXT
  5
95DB
  8
SIZE
  6
CONTINUOUS
 62
     0
 10
15682.056133213149
 20
-1112.1491314132941
 30
0.0
 40
64.0
  1
940
 41
0.9
  0
POINT
  5
95DC
  8
DEFPOINTS
  6
CONTINUOUS
 62
     0
 10
16226.1132760703
 20
-1592.664885381156
 30
0.0
  0
POINT
  5
95DD
  8
DEFPOINTS
  6
CONTINUOUS
 62
     0
 10
15286.1132760703
 20
-1592.664885381156
 30
0.0
  0
POINT
  5
95DE
  8
DEFPOINTS
  6
CONTINUOUS
 62
     0
 10
15286.1132760703
 20
-1122.1491314132941
 30
0.0
  0
ENDBLK
  5
95E0
  8
0
  0
BLOCK
  8
0
  2
*D13
 70
     1
 10
0.0
 20
0.0
 30
0.0
  3
*D13
  1

  0
LINE
  5
95E3
  8
SIZE
  6
CONTINUOUS
 62
     0
 10
16226.1132760703
 20
-1572.664885381156
 30
0.0
 11
16226.1132760703
 21
-1102.1491314132941
 31
0.0
  0
LINE
  5
95E4
  8
SIZE
  6
CONTINUOUS
 62
     0
 10
16396.1132760703
 20
-1770.664885381156
 30
0.0
 11
16396.1132760703
 21
-1102.1491314132941
 31
0.0
  0
LINE
  5
95E5
  8
SIZE
  6
CONTINUOUS
 62
     0
 10
16236.1132760703
 20
-1122.1491314132941
 30
0.0
 11
16386.1132760703
 21
-1122.1491314132941
 31
0.0
  0
INSERT
  5
95E6
  8
SIZE
  6
CONTINUOUS
 62
     0
  2
_ORIGIN
 10
16226.1132760703
 20
-1122.1491314132941
 30
0.0
 41
10.0
 42
10.0
 43
10.0
 50
180.0
  0
INSERT
  5
95E7
  8
SIZE
  6
CONTINUOUS
 62
     0
  2
_ORIGIN
 10
16396.1132760703
 20
-1122.1491314132941
 30
0.0
 41
10.0
 42
10.0
 43
10.0
  0
TEXT
  5
95E8
  8
SIZE
  6
CONTINUOUS
 62
     0
 10
16242.541847498869
 20
-1112.1491314132941
 30
0.0
 40
64.0
  1
170
 41
0.9
  0
POINT
  5
95E9
  8
DEFPOINTS
  6
CONTINUOUS
 62
     0
 10
16226.1132760703
 20
-1592.664885381156
 30
0.0
  0
POINT
  5
95EA
  8
DEFPOINTS
  6
CONTINUOUS
 62
     0
 10
16396.1132760703
 20
-1790.664885381156
 30
0.0
  0
POINT
  5
95EB
  8
DEFPOINTS
  6
CONTINUOUS
 62
     0
 10
16396.1132760703
 20
-1122.1491314132941
 30
0.0
  0
ENDBLK
  5
95ED
  8
0
  0
BLOCK
  8
0
  2
*D14
 70
     1
 10
0.0
 20
0.0
 30
0.0
  3
*D14
  1

  0
LINE
  5
95F0
  8
SIZE
  6
CONTINUOUS
 62
     0
 10
15286.1132760703
 20
-1572.664885381156
 30
0.0
 11
15286.1132760703
 21
-1102.1491314132941
 31
0.0
  0
LINE
  5
95F1
  8
SIZE
  6
CONTINUOUS
 62
     0
 10
15206.1132760703
 20
-1770.664885381156
 30
0.0
 11
15206.1132760703
 21
-1102.1491314132941
 31
0.0
  0
LINE
  5
95F2
  8
SIZE
  6
CONTINUOUS
 62
     0
 10
15296.1132760703
 20
-1122.1491314132941
 30
0.0
 11
15306.1132760703
 21
-1122.1491314132941
 31
0.0
  0
LINE
  5
95F3
  8
SIZE
  6
CONTINUOUS
 62
     0
 10
15196.1132760703
 20
-1122.1491314132941
 30
0.0
 11
15072.85613321315
 21
-1122.1491314132941
 31
0.0
  0
LINE
  5
95F4
  8
SIZE
  6
CONTINUOUS
 62
     0
 10
15286.1132760703
 20
-1122.1491314132941
 30
0.0
 11
15206.1132760703
 21
-1122.1491314132941
 31
0.0
  0
INSERT
  5
95F5
  8
SIZE
  6
CONTINUOUS
 62
     0
  2
_ORIGIN
 10
15286.1132760703
 20
-1122.1491314132941
 30
0.0
 41
10.0
 42
10.0
 43
10.0
 50
180.0
  0
INSERT
  5
95F6
  8
SIZE
  6
CONTINUOUS
 62
     0
  2
_ORIGIN
 10
15206.1132760703
 20
-1122.1491314132941
 30
0.0
 41
10.0
 42
10.0
 43
10.0
  0
TEXT
  5
95F7
  8
SIZE
  6
CONTINUOUS
 62
     0
 10
15082.85613321315
 20
-1112.1491314132941
 30
0.0
 40
64.0
  1
80
 41
0.9
  0
POINT
  5
95F8
  8
DEFPOINTS
  6
CONTINUOUS
 62
     0
 10
15286.1132760703
 20
-1592.664885381156
 30
0.0
  0
POINT
  5
95F9
  8
DEFPOINTS
  6
CONTINUOUS
 62
     0
 10
15206.1132760703
 20
-1790.664885381156
 30
0.0
  0
POINT
  5
95FA
  8
DEFPOINTS
  6
CONTINUOUS
 62
     0
 10
15206.1132760703
 20
-1122.1491314132941
 30
0.0
  0
ENDBLK
  5
95FC
  8
0
  0
BLOCK
  8
0
  2
*D15
 70
     1
 10
0.0
 20
0.0
 30
0.0
  3
*D15
  1

  0
LINE
  5
96EB
  8
SIZE
  6
CONTINUOUS
 62
     0
 10
21862.41323553403
 20
-1572.664885381156
 30
0.0
 11
21862.41323553403
 21
-1227.155245329486
 31
0.0
  0
LINE
  5
96EC
  8
SIZE
  6
CONTINUOUS
 62
     0
 10
21839.41323553403
 20
-1585.664885381156
 30
0.0
 11
21839.41323553403
 21
-1227.155245329486
 31
0.0
  0
LINE
  5
96ED
  8
SIZE
  6
CONTINUOUS
 62
     0
 10
21829.41323553403
 20
-1247.155245329486
 30
0.0
 11
21819.41323553403
 21
-1247.155245329486
 31
0.0
  0
LINE
  5
96EE
  8
SIZE
  6
CONTINUOUS
 62
     0
 10
21872.41323553403
 20
-1247.155245329486
 30
0.0
 11
21995.67037839118
 21
-1247.155245329486
 31
0.0
  0
LINE
  5
96EF
  8
SIZE
  6
CONTINUOUS
 62
     0
 10
21839.41323553403
 20
-1247.155245329486
 30
0.0
 11
21862.41323553403
 21
-1247.155245329486
 31
0.0
  0
INSERT
  5
96F0
  8
SIZE
  6
CONTINUOUS
 62
     0
  2
_ORIGIN
 10
21839.41323553403
 20
-1247.155245329486
 30
0.0
 41
10.0
 42
10.0
 43
10.0
  0
INSERT
  5
96F1
  8
SIZE
  6
CONTINUOUS
 62
     0
  2
_ORIGIN
 10
21862.41323553403
 20
-1247.155245329486
 30
0.0
 41
10.0
 42
10.0
 43
10.0
 50
180.0
  0
TEXT
  5
96F2
  8
SIZE
  6
CONTINUOUS
 62
     0
 10
21892.41323553403
 20
-1237.155245329486
 30
0.0
 40
64.0
  1
23
 41
0.9
  0
POINT
  5
96F3
  8
DEFPOINTS
  6
CONTINUOUS
 62
     0
 10
21862.41323553403
 20
-1592.664885381156
 30
0.0
  0
POINT
  5
96F4
  8
DEFPOINTS
  6
CONTINUOUS
 62
     0
 10
21839.41323553403
 20
-1605.664885381156
 30
0.0
  0
POINT
  5
96F5
  8
DEFPOINTS
  6
CONTINUOUS
 62
     0
 10
21839.41323553403
 20
-1247.155245329486
 30
0.0
  0
ENDBLK
  5
96A8
  8
0
  0
BLOCK
  8
0
  2
*D16
 70
     1
 10
0.0
 20
0.0
 30
0.0
  3
*D16
  1

  0
LINE
  5
96F6
  8
SIZE
  6
CONTINUOUS
 62
     0
 10
21862.41323553403
 20
-1572.664885381156
 30
0.0
 11
21862.41323553403
 21
-1422.2689099820341
 31
0.0
  0
LINE
  5
96F7
  8
SIZE
  6
CONTINUOUS
 62
     0
 10
21796.41323553403
 20
-1660.664885381156
 30
0.0
 11
21796.41323553403
 21
-1422.2689099820341
 31
0.0
  0
LINE
  5
96F8
  8
SIZE
  6
CONTINUOUS
 62
     0
 10
21872.41323553403
 20
-1442.2689099820341
 30
0.0
 11
21882.41323553403
 21
-1442.2689099820341
 31
0.0
  0
LINE
  5
96F9
  8
SIZE
  6
CONTINUOUS
 62
     0
 10
21786.41323553403
 20
-1442.2689099820341
 30
0.0
 11
21665.898949819752
 21
-1442.2689099820341
 31
0.0
  0
LINE
  5
96FA
  8
SIZE
  6
CONTINUOUS
 62
     0
 10
21862.41323553403
 20
-1442.2689099820341
 30
0.0
 11
21796.41323553403
 21
-1442.2689099820341
 31
0.0
  0
INSERT
  5
96FB
  8
SIZE
  6
CONTINUOUS
 62
     0
  2
_ORIGIN
 10
21862.41323553403
 20
-1442.2689099820341
 30
0.0
 41
10.0
 42
10.0
 43
10.0
 50
180.0
  0
INSERT
  5
96FC
  8
SIZE
  6
CONTINUOUS
 62
     0
  2
_ORIGIN
 10
21796.41323553403
 20
-1442.2689099820341
 30
0.0
 41
10.0
 42
10.0
 43
10.0
  0
TEXT
  5
96FD
  8
SIZE
  6
CONTINUOUS
 62
     0
 10
21675.898949819752
 20
-1432.2689099820341
 30
0.0
 40
64.0
  1
66
 41
0.9
  0
POINT
  5
96FE
  8
DEFPOINTS
  6
CONTINUOUS
 62
     0
 10
21862.41323553403
 20
-1592.664885381156
 30
0.0
  0
POINT
  5
96FF
  8
DEFPOINTS
  6
CONTINUOUS
 62
     0
 10
21796.41323553403
 20
-1680.664885381156
 30
0.0
  0
POINT
  5
9700
  8
DEFPOINTS
  6
CONTINUOUS
 62
     0
 10
21796.41323553403
 20
-1442.2689099820341
 30
0.0
  0
ENDBLK
  5
96B6
  8
0
  0
BLOCK
  8
0
  2
*D17
 70
     1
 10
0.0
 20
0.0
 30
0.0
  3
*D17
  1

  0
LINE
  5
9701
  8
SIZE
  6
CONTINUOUS
 62
     0
 10
21790.41323553403
 20
-1607.664885381156
 30
0.0
 11
21790.41323553403
 21
-1323.5700236855189
 31
0.0
  0
LINE
  5
9702
  8
SIZE
  6
CONTINUOUS
 62
     0
 10
21862.41323553403
 20
-1572.664885381156
 30
0.0
 11
21862.41323553403
 21
-1323.5700236855189
 31
0.0
  0
LINE
  5
9703
  8
SIZE
  6
CONTINUOUS
 62
     0
 10
21872.41323553403
 20
-1343.5700236855189
 30
0.0
 11
21882.41323553403
 21
-1343.5700236855189
 31
0.0
  0
LINE
  5
9704
  8
SIZE
  6
CONTINUOUS
 62
     0
 10
21780.41323553403
 20
-1343.5700236855189
 30
0.0
 11
21657.156092676891
 21
-1343.5700236855189
 31
0.0
  0
LINE
  5
9705
  8
SIZE
  6
CONTINUOUS
 62
     0
 10
21862.41323553403
 20
-1343.5700236855189
 30
0.0
 11
21790.41323553403
 21
-1343.5700236855189
 31
0.0
  0
INSERT
  5
9706
  8
SIZE
  6
CONTINUOUS
 62
     0
  2
_ORIGIN
 10
21862.41323553403
 20
-1343.5700236855189
 30
0.0
 41
10.0
 42
10.0
 43
10.0
 50
180.0
  0
INSERT
  5
9707
  8
SIZE
  6
CONTINUOUS
 62
     0
  2
_ORIGIN
 10
21790.41323553403
 20
-1343.5700236855189
 30
0.0
 41
10.0
 42
10.0
 43
10.0
  0
TEXT
  5
9708
  8
SIZE
  6
CONTINUOUS
 62
     0
 10
21667.156092676891
 20
-1333.5700236855189
 30
0.0
 40
64.0
  1
72
 41
0.9
  0
POINT
  5
9709
  8
DEFPOINTS
  6
CONTINUOUS
 62
     0
 10
21790.41323553403
 20
-1627.664885381156
 30
0.0
  0
POINT
  5
970A
  8
DEFPOINTS
  6
CONTINUOUS
 62
     0
 10
21862.41323553403
 20
-1592.664885381156
 30
0.0
  0
POINT
  5
970B
  8
DEFPOINTS
  6
CONTINUOUS
 62
     0
 10
21862.41323553403
 20
-1343.5700236855189
 30
0.0
  0
ENDBLK
  5
96C4
  8
0
  0
BLOCK
  8
0
  2
*D18
 70
     1
 10
0.0
 20
0.0
 30
0.0
  3
*D18
  1

  0
LINE
  5
970C
  8
SIZE
  6
CONTINUOUS
 62
     0
 10
21862.41323553403
 20
-1572.664885381156
 30
0.0
 11
21862.41323553403
 21
-1102.1491314132941
 31
0.0
  0
LINE
  5
970D
  8
SIZE
  6
CONTINUOUS
 62
     0
 10
22802.41323553403
 20
-1572.664885381156
 30
0.0
 11
22802.41323553403
 21
-1102.1491314132941
 31
0.0
  0
LINE
  5
970E
  8
SIZE
  6
CONTINUOUS
 62
     0
 10
21872.41323553403
 20
-1122.1491314132941
 30
0.0
 11
22792.41323553403
 21
-1122.1491314132941
 31
0.0
  0
INSERT
  5
970F
  8
SIZE
  6
CONTINUOUS
 62
     0
  2
_ORIGIN
 10
21862.41323553403
 20
-1122.1491314132941
 30
0.0
 41
10.0
 42
10.0
 43
10.0
 50
180.0
  0
INSERT
  5
9710
  8
SIZE
  6
CONTINUOUS
 62
     0
  2
_ORIGIN
 10
22802.41323553403
 20
-1122.1491314132941
 30
0.0
 41
10.0
 42
10.0
 43
10.0
  0
TEXT
  5
9711
  8
SIZE
  6
CONTINUOUS
 62
     0
 10
22258.356092676891
 20
-1112.1491314132941
 30
0.0
 40
64.0
  1
940
 41
0.9
  0
POINT
  5
9712
  8
DEFPOINTS
  6
CONTINUOUS
 62
     0
 10
21862.41323553403
 20
-1592.664885381156
 30
0.0
  0
POINT
  5
9713
  8
DEFPOINTS
  6
CONTINUOUS
 62
     0
 10
22802.41323553403
 20
-1592.664885381156
 30
0.0
  0
POINT
  5
9714
  8
DEFPOINTS
  6
CONTINUOUS
 62
     0
 10
22802.41323553403
 20
-1122.1491314132941
 30
0.0
  0
ENDBLK
  5
96D0
  8
0
  0
BLOCK
  8
0
  2
*D19
 70
     1
 10
0.0
 20
0.0
 30
0.0
  3
*D19
  1

  0
LINE
  5
9715
  8
SIZE
  6
CONTINUOUS
 62
     0
 10
21862.41323553403
 20
-1572.664885381156
 30
0.0
 11
21862.41323553403
 21
-1102.1491314132941
 31
0.0
  0
LINE
  5
9716
  8
SIZE
  6
CONTINUOUS
 62
     0
 10
21692.41323553403
 20
-1770.664885381156
 30
0.0
 11
21692.41323553403
 21
-1102.1491314132941
 31
0.0
  0
LINE
  5
9717
  8
SIZE
  6
CONTINUOUS
 62
     0
 10
21852.41323553403
 20
-1122.1491314132941
 30
0.0
 11
21702.41323553403
 21
-1122.1491314132941
 31
0.0
  0
INSERT
  5
9718
  8
SIZE
  6
CONTINUOUS
 62
     0
  2
_ORIGIN
 10
21862.41323553403
 20
-1122.1491314132941
 30
0.0
 41
10.0
 42
10.0
 43
10.0
  0
INSERT
  5
9719
  8
SIZE
  6
CONTINUOUS
 62
     0
  2
_ORIGIN
 10
21692.41323553403
 20
-1122.1491314132941
 30
0.0
 41
10.0
 42
10.0
 43
10.0
 50
180.0
  0
TEXT
  5
971A
  8
SIZE
  6
CONTINUOUS
 62
     0
 10
21708.84180696261
 20
-1112.1491314132941
 30
0.0
 40
64.0
  1
170
 41
0.9
  0
POINT
  5
971B
  8
DEFPOINTS
  6
CONTINUOUS
 62
     0
 10
21862.41323553403
 20
-1592.664885381156
 30
0.0
  0
POINT
  5
971C
  8
DEFPOINTS
  6
CONTINUOUS
 62
     0
 10
21692.41323553403
 20
-1790.664885381156
 30
0.0
  0
POINT
  5
971D
  8
DEFPOINTS
  6
CONTINUOUS
 62
     0
 10
21692.41323553403
 20
-1122.1491314132941
 30
0.0
  0
ENDBLK
  5
96DC
  8
0
  0
BLOCK
  8
0
  2
*D20
 70
     1
 10
0.0
 20
0.0
 30
0.0
  3
*D20
  1

  0
LINE
  5
971E
  8
SIZE
  6
CONTINUOUS
 62
     0
 10
22802.41323553403
 20
-1572.664885381156
 30
0.0
 11
22802.41323553403
 21
-1102.1491314132941
 31
0.0
  0
LINE
  5
971F
  8
SIZE
  6
CONTINUOUS
 62
     0
 10
22882.41323553403
 20
-1770.664885381156
 30
0.0
 11
22882.41323553403
 21
-1102.1491314132941
 31
0.0
  0
LINE
  5
9720
  8
SIZE
  6
CONTINUOUS
 62
     0
 10
22792.41323553403
 20
-1122.1491314132941
 30
0.0
 11
22782.413235534041
 21
-1122.1491314132941
 31
0.0
  0
LINE
  5
9721
  8
SIZE
  6
CONTINUOUS
 62
     0
 10
22892.41323553403
 20
-1122.1491314132941
 30
0.0
 11
23015.670378391169
 21
-1122.1491314132941
 31
0.0
  0
LINE
  5
9722
  8
SIZE
  6
CONTINUOUS
 62
     0
 10
22802.41323553403
 20
-1122.1491314132941
 30
0.0
 11
22882.41323553403
 21
-1122.1491314132941
 31
0.0
  0
INSERT
  5
9723
  8
SIZE
  6
CONTINUOUS
 62
     0
  2
_ORIGIN
 10
22802.41323553403
 20
-1122.1491314132941
 30
0.0
 41
10.0
 42
10.0
 43
10.0
  0
INSERT
  5
9724
  8
SIZE
  6
CONTINUOUS
 62
     0
  2
_ORIGIN
 10
22882.41323553403
 20
-1122.1491314132941
 30
0.0
 41
10.0
 42
10.0
 43
10.0
 50
180.0
  0
TEXT
  5
9725
  8
SIZE
  6
CONTINUOUS
 62
     0
 10
22912.41323553403
 20
-1112.1491314132941
 30
0.0
 40
64.0
  1
80
 41
0.9
  0
POINT
  5
9726
  8
DEFPOINTS
  6
CONTINUOUS
 62
     0
 10
22802.41323553403
 20
-1592.664885381156
 30
0.0
  0
POINT
  5
9727
  8
DEFPOINTS
  6
CONTINUOUS
 62
     0
 10
22882.41323553403
 20
-1790.664885381156
 30
0.0
  0
POINT
  5
9728
  8
DEFPOINTS
  6
CONTINUOUS
 62
     0
 10
22882.41323553403
 20
-1122.1491314132941
 30
0.0
  0
ENDBLK
  5
96EA
  8
0
  0
ENDSEC
  0
SECTION
  2
ENTITIES
  0
TEXT
  5
9427
  8
SIZE
  6
BYBLOCK
 10
-64.057142999998177
 20
-873.85840199999996
 30
0.0
 40
64.0
  1
440
 41
0.9
  0
LINE
  5
9428
  8
SIZE
  6
BYBLOCK
 10
228.0
 20
-905.85840199999996
 30
0.0
 11
-208.0
 21
-905.85840199999996
 31
0.0
  0
TEXT
  5
9429
  8
SIZE
  6
BYBLOCK
 10
-76.557142999998177
 20
928.37267900000006
 30
0.0
 40
64.0
  1
655
 41
0.9
  0
LINE
  5
942A
  8
SIZE
  6
BYBLOCK
 10
323.0
 20
896.37267899999995
 30
0.0
 11
-328.0
 21
896.37267899999995
 31
0.0
  0
TEXT
  5
942B
  8
SIZE
  6
BYBLOCK
 10
-58.571428999999632
 20
690.66029200000003
 30
0.0
 40
64.0
  1
610
 41
0.9
  0
LINE
  5
942C
  8
SIZE
  6
BYBLOCK
 10
313.0
 20
658.66029200000003
 30
0.0
 11
-293.0
 21
658.66029200000003
 31
0.0
  0
LINE
  5
942D
  8
SIZE
  6
BYBLOCK
 10
-293.0
 20
-1405.0050000000001
 30
0.0
 11
107.0
 21
-1405.0050000000001
 31
0.0
  0
POINT
  5
942E
  8
ARRANGE
  6
CONTINUOUS
 10
0.0
 20
0.0
 30
0.0
  0
CIRCLE
  5
9431
  8
ARRANGE
  6
CONTINUOUS
 10
0.0
 20
0.0
 30
0.0
 40
40.0
  0
LINE
  5
9432
  8
DETAIL
  6
CONTINOUS
 10
315.0
 20
-425.0
 30
0.0
 11
-295.0
 21
-425.0
 31
0.0
  0
LINE
  5
9433
  8
DETAIL
  6
CONTINOUS
 10
315.0
 20
515.0
 30
0.0
 11
-295.0
 21
515.0
 31
0.0
  0
LINE
  5
9434
  8
DETAIL
  6
CONTINOUS
 10
345.0
 20
595.0
 30
0.0
 11
-345.0
 21
595.0
 31
0.0
  0
LINE
  5
9435
  8
DETAIL
  6
CONTINOUS
 10
345.0
 20
-595.0
 30
0.0
 11
-345.0
 21
-595.0
 31
0.0
  0
LINE
  5
9436
  8
BASIS
  6
DASHDOT
 10
418.26075800000029
 20
0.0
 30
0.0
 11
-418.26075800000029
 21
0.0
 31
0.0
  0
LINE
  5
9437
  8
NOTE
  6
CONTINOUS
 10
-30.0
 20
-497.0
 30
0.0
 11
10.0
 21
-497.0
 31
0.0
  0
TEXT
  5
9438
  8
SIZE
  6
BYBLOCK
 10
22.819920000001719
 20
-421.18791699999991
 30
0.0
 40
64.0
  1
23
 50
90.0
 41
0.9
  0
TEXT
  5
943B
  8
NOTE
  6
CONTINUOUS
 10
-162.10809900000089
 20
816.07153599999992
 30
0.0
 40
64.0
  1
天井開口穴
 41
0.9
  0
LINE
  5
943C
  8
SERVICESPACE
  6
DASHDOT
 10
325.0
 20
-575.0
 30
0.0
 11
-330.0
 21
-575.0
 31
0.0
  0
LINE
  5
943D
  8
SERVICESPACE
  6
DASHDOT
 10
-330.0
 20
575.0
 30
0.0
 11
325.0
 21
575.0
 31
0.0
  0
TEXT
  5
943E
  8
SIZE
  6
BYBLOCK
 10
-955.68599199999881
 20
-29.057142999999989
 30
0.0
 40
64.0
  1
940
 50
90.0
 41
0.9
  0
LINE
  5
943F
  8
SIZE
  6
BYBLOCK
 10
-923.68599199999881
 20
-423.0
 30
0.0
 11
-923.68599199999881
 21
513.0
 31
0.0
  0
TEXT
  5
9440
  8
SIZE
  6
BYBLOCK
 10
-1097.6729999999991
 20
-90.514286000000084
 30
0.0
 40
64.0
  1
1150
 50
90.0
 41
0.9
  0
LINE
  5
9441
  8
SIZE
  6
BYBLOCK
 10
-1065.672999999998
 20
-573.0
 30
0.0
 11
-1065.672999999998
 21
573.0
 31
0.0
  0
LINE
  5
9443
  8
DETAIL
  6
CONTINOUS
 10
-295.0
 20
515.0
 30
0.0
 11
-295.0
 21
-425.0
 31
0.0
  0
LINE
  5
9444
  8
DETAIL
  6
CONTINOUS
 10
-345.0
 20
595.0
 30
0.0
 11
-345.0
 21
-595.0
 31
0.0
  0
LINE
  5
9445
  8
BASIS
  6
DASHDOT
 10
0.0
 20
664.41879149999988
 30
0.0
 11
0.0
 21
-664.41879149999988
 31
0.0
  0
TEXT
  5
9446
  8
NOTE
  6
CONTINUOUS
 10
-1207.2580100000009
 20
-174.50117399999991
 30
0.0
 40
64.0
  1
天井開口穴
 50
90.0
 41
0.9
  0
LINE
  5
9447
  8
SERVICESPACE
  6
DASHDOT
 10
-330.0
 20
-575.0
 30
0.0
 11
-330.0
 21
575.0
 31
0.0
  0
LINE
  5
9448
  8
SIZE
  6
BYBLOCK
 10
-210.0
 20
-490.0
 30
0.0
 11
-210.0
 21
-935.85840199999996
 31
0.0
  0
LINE
  5
9449
  8
SIZE
  6
BYBLOCK
 10
-95.0
 20
-518.0
 30
0.0
 11
-95.0
 21
-1114.0839999999989
 31
0.0
  0
LINE
  5
944A
  8
SIZE
  6
BYBLOCK
 10
-295.0
 20
-445.0
 30
0.0
 11
-295.0
 21
-1114.0839999999989
 31
0.0
  0
LINE
  5
944B
  8
SIZE
  6
BYBLOCK
 10
-10.0
 20
-534.0
 30
0.0
 11
-10.0
 21
-1277.5340000000001
 31
0.0
  0
LINE
  5
944C
  8
SIZE
  6
BYBLOCK
 10
-295.0
 20
-445.0
 30
0.0
 11
-295.0
 21
-1277.5340000000001
 31
0.0
  0
LINE
  5
944D
  8
SIZE
  6
BYBLOCK
 10
-295.0
 20
-445.0
 30
0.0
 11
-295.0
 21
-1435.0050000000001
 31
0.0
  0
CIRCLE
  5
944E
  8
SIZE
  6
CONTINUOUS
 10
-295.0
 20
-1405.0050000000001
 30
0.0
 40
6.0
  0
TEXT
  5
944F
  8
SIZE
  6
BYBLOCK
 10
-226.55714299999809
 20
-1215.533999999999
 30
0.0
 40
64.0
  1
285
 41
0.9
  0
LINE
  5
9450
  8
SIZE
  6
BYBLOCK
 10
-293.0
 20
-1247.533999999999
 30
0.0
 11
-12.0
 21
-1247.533999999999
 31
0.0
  0
TEXT
  5
9451
  8
SIZE
  6
BYBLOCK
 10
-168.42857100000029
 20
-1373.0050000000001
 30
0.0
 40
64.0
  1
404
 41
0.9
  0
CIRCLE
  5
9452
  8
SIZE
  6
CONTINUOUS
 10
-295.0
 20
-1247.533999999999
 30
0.0
 40
6.0
  0
CIRCLE
  5
9453
  8
SIZE
  6
CONTINUOUS
 10
-10.0
 20
-1247.533999999999
 30
0.0
 40
6.0
  0
TEXT
  5
9454
  8
SIZE
  6
BYBLOCK
 10
-269.05714299999812
 20
-1052.0839999999989
 30
0.0
 40
64.0
  1
200
 41
0.9
  0
LINE
  5
9455
  8
SIZE
  6
BYBLOCK
 10
-293.0
 20
-1084.0839999999989
 30
0.0
 11
-97.0
 21
-1084.0839999999989
 31
0.0
  0
CIRCLE
  5
9456
  8
SIZE
  6
CONTINUOUS
 10
-295.0
 20
-1084.0839999999989
 30
0.0
 40
6.0
  0
CIRCLE
  5
9457
  8
SIZE
  6
CONTINUOUS
 10
-95.0
 20
-1084.0839999999989
 30
0.0
 40
6.0
  0
LINE
  5
9458
  8
SIZE
  6
BYBLOCK
 10
-315.0
 20
-425.0
 30
0.0
 11
-661.59891300000163
 21
-425.0
 31
0.0
  0
LINE
  5
945B
  8
SIZE
  6
BYBLOCK
 10
-315.0
 20
-425.0
 30
0.0
 11
-803.58568699999887
 21
-425.0
 31
0.0
  0
LINE
  5
945C
  8
SIZE
  6
BYBLOCK
 10
-350.0
 20
-575.0
 30
0.0
 11
-953.68599199999881
 21
-575.0
 31
0.0
  0
LINE
  5
945D
  8
SIZE
  6
BYBLOCK
 10
-315.0
 20
-425.0
 30
0.0
 11
-953.68599199999881
 21
-425.0
 31
0.0
  0
LINE
  5
945E
  8
SIZE
  6
BYBLOCK
 10
-335.0
 20
-425.0
 30
0.0
 11
-953.68599199999881
 21
-425.0
 31
0.0
  0
LINE
  5
945F
  8
SIZE
  6
BYBLOCK
 10
-350.0
 20
-575.0
 30
0.0
 11
-1095.672999999998
 21
-575.0
 31
0.0
  0
LINE
  5
9460
  8
SIZE
  6
BYBLOCK
 10
-365.0
 20
-595.0
 30
0.0
 11
-1095.672999999998
 21
-595.0
 31
0.0
  0
LINE
  5
9461
  8
SIZE
  6
BYBLOCK
 10
-350.0
 20
-575.0
 30
0.0
 11
-1095.672999999998
 21
-575.0
 31
0.0
  0
TEXT
  5
9465
  8
SIZE
  6
BYBLOCK
 10
-955.68599199999881
 20
-568.57142899999985
 30
0.0
 40
64.0
  1
150
 50
90.0
 41
0.9
  0
LINE
  5
9466
  8
SIZE
  6
BYBLOCK
 10
-923.68599199999881
 20
-427.0
 30
0.0
 11
-923.68599199999881
 21
-573.0
 31
0.0
  0
TEXT
  5
9467
  8
SIZE
  6
BYBLOCK
 10
-1097.6729999999991
 20
-631.62857099999985
 30
0.0
 40
64.0
  1
20
 50
90.0
 41
0.9
  0
CIRCLE
  5
9468
  8
SIZE
  6
CONTINUOUS
 10
-1065.672999999998
 20
-575.0
 30
0.0
 40
6.0
  0
CIRCLE
  5
9469
  8
SIZE
  6
CONTINUOUS
 10
-1065.672999999998
 20
-575.0
 30
0.0
 40
6.0
  0
LINE
  5
946A
  8
SIZE
  6
BYBLOCK
 10
-1065.672999999998
 20
-595.0
 30
0.0
 11
-1065.672999999998
 21
-575.0
 31
0.0
  0
CIRCLE
  5
946B
  8
SIZE
  6
CONTINUOUS
 10
-1065.672999999998
 20
-595.0
 30
0.0
 40
6.0
  0
LINE
  5
946C
  8
SIZE
  6
BYBLOCK
 10
-1065.672999999998
 20
-597.0
 30
0.0
 11
-1065.672999999998
 21
-599.0
 31
0.0
  0
LINE
  5
946D
  8
SIZE
  6
BYBLOCK
 10
-1065.672999999998
 20
-573.0
 30
0.0
 11
-1065.672999999998
 21
-571.0
 31
0.0
  0
CIRCLE
  5
946E
  8
SIZE
  6
CONTINUOUS
 10
-923.68599199999881
 20
-575.0
 30
0.0
 40
6.0
  0
CIRCLE
  5
9471
  8
SIZE
  6
CONTINUOUS
 10
-923.68599199999881
 20
-425.0
 30
0.0
 40
6.0
  0
CIRCLE
  5
9472
  8
SIZE
  6
CONTINUOUS
 10
-923.68599199999881
 20
-425.0
 30
0.0
 40
6.0
  0
POLYLINE
  5
9475
  8
NOTE
  6
CONTINUOUS
 66
     1
 10
0.0
 20
0.0
 30
0.0
  0
VERTEX
  5
9844
  8
NOTE
  6
CONTINUOUS
 10
-118.406300999999
 20
-523.43678500000158
 30
0.0
  0
VERTEX
  5
9845
  8
NOTE
  6
CONTINUOUS
 10
-95.0
 20
-491.0
 30
0.0
  0
VERTEX
  5
9846
  8
NOTE
  6
CONTINUOUS
 10
-131.48884399999949
 20
-507.38792900000038
 30
0.0
  0
SEQEND
  5
9847
  8
NOTE
  6
CONTINUOUS
  0
CIRCLE
  5
9478
  8
FIX
  6
CONTINUOUS
 10
-210.0
 20
-450.0
 30
0.0
 40
40.0
  0
LINE
  5
9479
  8
NOTE
  6
CONTINOUS
 10
-95.0
 20
-471.0
 30
0.0
 11
-95.0
 21
-511.0
 31
0.0
  0
LINE
  5
947A
  8
NOTE
  6
CONTINOUS
 10
-210.0
 20
-430.0
 30
0.0
 11
-210.0
 21
-470.0
 31
0.0
  0
LINE
  5
947C
  8
NOTE
  6
CONTINUOUS
 10
-95.0
 20
-491.0
 30
0.0
 11
-390.55539160069378
 21
-744.96858373953216
 31
0.0
  0
LINE
  5
947D
  8
DETAIL
  6
CONTINUOUS
 10
-185.0
 20
-475.0
 30
0.0
 11
-185.0
 21
-425.0
 31
0.0
  0
LINE
  5
947E
  8
DETAIL
  6
CONTINUOUS
 10
-235.0
 20
-475.0
 30
0.0
 11
-235.0
 21
-425.0
 31
0.0
  0
LINE
  5
947F
  8
DETAIL
  6
CONTINUOUS
 10
-3.6500000000014552
 20
-497.0
 30
0.0
 11
-3.6500000000014552
 21
-425.0
 31
0.0
  0
LINE
  5
9480
  8
DETAIL
  6
CONTINUOUS
 10
-16.349999999998541
 20
-497.0
 30
0.0
 11
-16.349999999998541
 21
-425.0
 31
0.0
  0
LINE
  5
9481
  8
DETAIL
  6
CONTINUOUS
 10
-91.825000000000728
 20
-491.0
 30
0.0
 11
-91.825000000000728
 21
-425.0
 31
0.0
  0
LINE
  5
9482
  8
DETAIL
  6
CONTINUOUS
 10
-98.174999999999272
 20
-491.0
 30
0.0
 11
-98.174999999999272
 21
-425.0
 31
0.0
  0
CIRCLE
  5
9485
  8
SIZE
  6
CONTINUOUS
 10
-210.0
 20
-905.85840199999996
 30
0.0
 40
6.0
  0
LINE
  5
9486
  8
DETAIL
  6
CONTINOUS
 10
-185.0
 20
-475.0
 30
0.0
 11
-235.0
 21
-475.0
 31
0.0
  0
LINE
  5
9487
  8
NOTE
  6
CONTINOUS
 10
-115.0
 20
-491.0
 30
0.0
 11
-75.0
 21
-491.0
 31
0.0
  0
LINE
  5
9488
  8
DETAIL
  6
CONTINUOUS
 10
-91.825000000000728
 20
-491.0
 30
0.0
 11
-98.174999999999272
 21
-491.0
 31
0.0
  0
LINE
  5
9489
  8
NOTE
  6
CONTINOUS
 10
-10.0
 20
-477.0
 30
0.0
 11
-10.0
 21
-517.0
 31
0.0
  0
LINE
  5
948A
  8
DETAIL
  6
CONTINUOUS
 10
-3.6500000000014552
 20
-497.0
 30
0.0
 11
-16.349999999998541
 21
-497.0
 31
0.0
  0
LINE
  5
948B
  8
NOTE
  6
CONTINUOUS
 10
-210.0
 20
-450.0
 30
0.0
 11
-443.2967040000002
 21
-302.87900100000002
 31
0.0
  0
TEXT
  5
948C
  8
NOTE
  6
CONTINUOUS
 10
-589.59151199999906
 20
-289.49846099999979
 30
0.0
 40
64.0
  1
AH
 41
0.9
  0
LINE
  5
948D
  8
NOTE
  6
CONTINUOUS
 10
-443.2967040000002
 20
-302.87900100000002
 30
0.0
 11
-604.5235700000012
 21
-302.87900100000002
 31
0.0
  0
POLYLINE
  5
9492
  8
NOTE
  6
CONTINUOUS
 66
     1
 10
0.0
 20
0.0
 30
0.0
  0
VERTEX
  5
9848
  8
NOTE
  6
CONTINUOUS
 10
-248.23185400000139
 20
-438.23882099999992
 30
0.0
  0
VERTEX
  5
9849
  8
NOTE
  6
CONTINUOUS
 10
-210.0
 20
-450.0
 30
0.0
  0
VERTEX
  5
984A
  8
NOTE
  6
CONTINUOUS
 10
-237.22916800000161
 20
-420.69859300000002
 30
0.0
  0
SEQEND
  5
984B
  8
NOTE
  6
CONTINUOUS
  0
LINE
  5
9493
  8
NOTE
  6
CONTINOUS
 10
-230.0
 20
-450.0
 30
0.0
 11
-190.0
 21
-450.0
 31
0.0
  0
LINE
  5
9495
  8
SIZE
  6
BYBLOCK
 10
-315.0
 20
515.0
 30
0.0
 11
-953.68599199999881
 21
515.0
 31
0.0
  0
LINE
  5
9496
  8
SIZE
  6
BYBLOCK
 10
-350.0
 20
575.0
 30
0.0
 11
-953.68599199999881
 21
575.0
 31
0.0
  0
LINE
  5
9497
  8
SIZE
  6
BYBLOCK
 10
-315.0
 20
515.0
 30
0.0
 11
-953.68599199999881
 21
515.0
 31
0.0
  0
LINE
  5
9498
  8
SIZE
  6
BYBLOCK
 10
-350.0
 20
575.0
 30
0.0
 11
-1095.672999999998
 21
575.0
 31
0.0
  0
LINE
  5
9499
  8
SIZE
  6
BYBLOCK
 10
-365.0
 20
595.0
 30
0.0
 11
-1095.672999999998
 21
595.0
 31
0.0
  0
LINE
  5
949A
  8
SIZE
  6
BYBLOCK
 10
-350.0
 20
575.0
 30
0.0
 11
-1095.672999999998
 21
575.0
 31
0.0
  0
TEXT
  5
949B
  8
SIZE
  6
BYBLOCK
 10
-955.68599199999881
 20
498.37142899999998
 30
0.0
 40
64.0
  1
60
 50
90.0
 41
0.9
  0
TEXT
  5
949C
  8
SIZE
  6
BYBLOCK
 10
-1097.6729999999991
 20
538.37142900000003
 30
0.0
 40
64.0
  1
20
 50
90.0
 41
0.9
  0
CIRCLE
  5
949D
  8
SIZE
  6
CONTINUOUS
 10
-1065.672999999998
 20
575.0
 30
0.0
 40
6.0
  0
CIRCLE
  5
949E
  8
SIZE
  6
CONTINUOUS
 10
-1065.672999999998
 20
575.0
 30
0.0
 40
6.0
  0
LINE
  5
949F
  8
SIZE
  6
BYBLOCK
 10
-1065.672999999998
 20
575.0
 30
0.0
 11
-1065.672999999998
 21
595.0
 31
0.0
  0
LINE
  5
94A0
  8
SIZE
  6
BYBLOCK
 10
-1065.672999999998
 20
573.0
 30
0.0
 11
-1065.672999999998
 21
571.0
 31
0.0
  0
CIRCLE
  5
94A1
  8
SIZE
  6
CONTINUOUS
 10
-1065.672999999998
 20
595.0
 30
0.0
 40
6.0
  0
LINE
  5
94A2
  8
SIZE
  6
BYBLOCK
 10
-1065.672999999998
 20
597.0
 30
0.0
 11
-1065.672999999998
 21
599.0
 31
0.0
  0
CIRCLE
  5
94A3
  8
SIZE
  6
CONTINUOUS
 10
-923.68599199999881
 20
575.0
 30
0.0
 40
6.0
  0
CIRCLE
  5
94A4
  8
SIZE
  6
CONTINUOUS
 10
-923.68599199999881
 20
515.0
 30
0.0
 40
6.0
  0
CIRCLE
  5
94A5
  8
SIZE
  6
CONTINUOUS
 10
-923.68599199999881
 20
515.0
 30
0.0
 40
6.0
  0
LINE
  5
94A6
  8
SIZE
  6
BYBLOCK
 10
-923.68599199999881
 20
575.0
 30
0.0
 11
-923.68599199999881
 21
515.0
 31
0.0
  0
LINE
  5
94A7
  8
SIZE
  6
BYBLOCK
 10
-923.68599199999881
 20
513.0
 30
0.0
 11
-923.68599199999881
 21
511.0
 31
0.0
  0
LINE
  5
94A8
  8
SIZE
  6
BYBLOCK
 10
-923.68599199999881
 20
577.0
 30
0.0
 11
-923.68599199999881
 21
579.0
 31
0.0
  0
CIRCLE
  5
94A9
  8
SIZE
  6
CONTINUOUS
 10
-330.0
 20
658.66029200000003
 30
0.0
 40
6.0
  0
CIRCLE
  5
94AA
  8
SIZE
  6
CONTINUOUS
 10
-330.0
 20
896.37267899999995
 30
0.0
 40
6.0
  0
CIRCLE
  5
94AB
  8
SIZE
  6
CONTINUOUS
 10
-330.0
 20
896.37267899999995
 30
0.0
 40
6.0
  0
TEXT
  5
94AC
  8
SIZE
  6
BYBLOCK
 10
-359.1285710000011
 20
690.66029200000003
 30
0.0
 40
64.0
  1
35
 41
0.9
  0
LINE
  5
94AD
  8
SIZE
  6
BYBLOCK
 10
-330.0
 20
658.66029200000003
 30
0.0
 11
-295.0
 21
658.66029200000003
 31
0.0
  0
LINE
  5
94AE
  8
SIZE
  6
BYBLOCK
 10
-345.0
 20
615.0
 30
0.0
 11
-345.0
 21
926.37267900000006
 31
0.0
  0
LINE
  5
94AF
  8
SIZE
  6
BYBLOCK
 10
-330.0
 20
595.0
 30
0.0
 11
-330.0
 21
926.37267900000006
 31
0.0
  0
LINE
  5
94B0
  8
SIZE
  6
BYBLOCK
 10
-330.0
 20
595.0
 30
0.0
 11
-330.0
 21
926.37267900000006
 31
0.0
  0
LINE
  5
94B1
  8
SIZE
  6
BYBLOCK
 10
-332.0
 20
658.66029200000003
 30
0.0
 11
-334.0
 21
658.66029200000003
 31
0.0
  0
LINE
  5
94B2
  8
SIZE
  6
BYBLOCK
 10
-330.0
 20
595.0
 30
0.0
 11
-330.0
 21
688.66029200000003
 31
0.0
  0
CIRCLE
  5
94B3
  8
SIZE
  6
CONTINUOUS
 10
-345.0
 20
896.37267899999995
 30
0.0
 40
6.0
  0
LINE
  5
94B4
  8
SIZE
  6
BYBLOCK
 10
-345.0
 20
896.37267899999995
 30
0.0
 11
-330.0
 21
896.37267899999995
 31
0.0
  0
LINE
  5
94B5
  8
SIZE
  6
BYBLOCK
 10
-347.0
 20
896.37267899999995
 30
0.0
 11
-349.0
 21
896.37267899999995
 31
0.0
  0
LINE
  5
94B6
  8
SIZE
  6
BYBLOCK
 10
-295.0
 20
535.0
 30
0.0
 11
-295.0
 21
688.66029200000003
 31
0.0
  0
LINE
  5
94B7
  8
SIZE
  6
BYBLOCK
 10
-295.0
 20
535.0
 30
0.0
 11
-295.0
 21
688.66029200000003
 31
0.0
  0
CIRCLE
  5
94B8
  8
FIX
  6
CONTINUOUS
 10
-210.0
 20
537.0
 30
0.0
 40
40.0
  0
LINE
  5
94BA
  8
NOTE
  6
CONTINOUS
 10
-230.0
 20
537.0
 30
0.0
 11
-190.0
 21
537.0
 31
0.0
  0
LINE
  5
94BB
  8
NOTE
  6
CONTINOUS
 10
-210.0
 20
557.0
 30
0.0
 11
-210.0
 21
517.0
 31
0.0
  0
LINE
  5
94BC
  8
DETAIL
  6
CONTINUOUS
 10
-185.0
 20
515.0
 30
0.0
 11
-185.0
 21
565.0
 31
0.0
  0
LINE
  5
94BD
  8
DETAIL
  6
CONTINUOUS
 10
-235.0
 20
515.0
 30
0.0
 11
-235.0
 21
565.0
 31
0.0
  0
LINE
  5
94BE
  8
DETAIL
  6
CONTINOUS
 10
-185.0
 20
565.0
 30
0.0
 11
-235.0
 21
565.0
 31
0.0
  0
CIRCLE
  5
94BF
  8
SIZE
  6
CONTINUOUS
 10
-295.0
 20
658.66029200000003
 30
0.0
 40
6.0
  0
CIRCLE
  5
94C0
  8
SIZE
  6
CONTINUOUS
 10
-295.0
 20
658.66029200000003
 30
0.0
 40
6.0
  0
LINE
  5
94C1
  8
SIZE
  6
BYBLOCK
 10
-293.0
 20
658.66029200000003
 30
0.0
 11
-291.0
 21
658.66029200000003
 31
0.0
  0
LINE
  5
94C2
  8
SIZE
  6
BYBLOCK
 10
-328.0
 20
896.37267899999995
 30
0.0
 11
-326.0
 21
896.37267899999995
 31
0.0
  0
TEXT
  5
94C3
  8
SIZE
  6
BYBLOCK
 10
-378.64285699999891
 20
928.37267900000006
 30
0.0
 40
64.0
  1
15
 41
0.9
  0
TEXT
  5
94C4
  8
SIZE
  6
BYBLOCK
 10
561.54411400000015
 20
-30.557142999999989
 30
0.0
 40
64.0
  1
987
 50
90.0
 41
0.9
  0
LINE
  5
94C5
  8
SIZE
  6
BYBLOCK
 10
593.54411400000015
 20
535.0
 30
0.0
 11
593.54411400000015
 21
-448.0
 31
0.0
  0
LINE
  5
94C7
  8
DETAIL
  6
CONTINOUS
 10
315.0
 20
515.0
 30
0.0
 11
315.0
 21
-425.0
 31
0.0
  0
LINE
  5
94C8
  8
DETAIL
  6
CONTINOUS
 10
345.0
 20
595.0
 30
0.0
 11
345.0
 21
-595.0
 31
0.0
  0
LINE
  5
94C9
  8
SERVICESPACE
  6
DASHDOT
 10
325.0
 20
575.0
 30
0.0
 11
325.0
 21
-575.0
 31
0.0
  0
LINE
  5
94CA
  8
SIZE
  6
BYBLOCK
 10
230.0
 20
-490.0
 30
0.0
 11
230.0
 21
-935.85840199999996
 31
0.0
  0
LINE
  5
94CB
  8
SIZE
  6
BYBLOCK
 10
230.0
 20
-490.0
 30
0.0
 11
230.0
 21
-935.85840199999996
 31
0.0
  0
LINE
  5
94CC
  8
SIZE
  6
BYBLOCK
 10
325.0
 20
-595.0
 30
0.0
 11
325.0
 21
-935.85840199999996
 31
0.0
  0
LINE
  5
94CD
  8
SIZE
  6
BYBLOCK
 10
109.0
 20
-488.0
 30
0.0
 11
109.0
 21
-1435.0050000000001
 31
0.0
  0
CIRCLE
  5
94CE
  8
SIZE
  6
CONTINUOUS
 10
109.0
 20
-1405.0050000000001
 30
0.0
 40
6.0
  0
POLYLINE
  5
94CF
  8
NOTE
  6
CONTINUOUS
 66
     1
 10
0.0
 20
0.0
 30
0.0
  0
VERTEX
  5
984C
  8
NOTE
  6
CONTINUOUS
 10
128.54849299999839
 20
-482.89779900000008
 30
0.0
  0
VERTEX
  5
984D
  8
NOTE
  6
CONTINUOUS
 10
109.0
 20
-448.0
 30
0.0
  0
VERTEX
  5
984E
  8
NOTE
  6
CONTINUOUS
 10
108.4805919999998
 20
-487.9966280000001
 30
0.0
  0
SEQEND
  5
984F
  8
NOTE
  6
CONTINUOUS
  0
CIRCLE
  5
94D0
  8
FIX
  6
CONTINUOUS
 10
230.0
 20
-450.0
 30
0.0
 40
40.0
  0
LINE
  5
94D1
  8
NOTE
  6
CONTINOUS
 10
109.0
 20
-428.0
 30
0.0
 11
109.0
 21
-468.0
 31
0.0
  0
LINE
  5
94D2
  8
NOTE
  6
CONTINOUS
 10
230.0
 20
-430.0
 30
0.0
 11
230.0
 21
-470.0
 31
0.0
  0
LINE
  5
94D3
  8
DETAIL
  6
CONTINUOUS
 10
205.0
 20
-472.0
 30
0.0
 11
205.0
 21
-425.0
 31
0.0
  0
LINE
  5
94D4
  8
DETAIL
  6
CONTINUOUS
 10
255.0
 20
-475.0
 30
0.0
 11
255.0
 21
-425.0
 31
0.0
  0
LINE
  5
94D5
  8
DETAIL
  6
CONTINUOUS
 10
205.0
 20
-475.0
 30
0.0
 11
205.0
 21
-425.0
 31
0.0
  0
LINE
  5
94D6
  8
NOTE
  6
CONTINUOUS
 10
109.0
 20
-448.0
 30
0.0
 11
144.46437000000151
 21
-684.48662499999989
 31
0.0
  0
CIRCLE
  5
94D7
  8
SIZE
  6
CONTINUOUS
 10
325.0
 20
-905.85840199999996
 30
0.0
 40
6.0
  0
TEXT
  5
94D8
  8
SIZE
  6
BYBLOCK
 10
230.8714289999989
 20
-873.85840199999996
 30
0.0
 40
64.0
  1
95
 41
0.9
  0
LINE
  5
94D9
  8
SIZE
  6
BYBLOCK
 10
323.0
 20
-905.85840199999996
 30
0.0
 11
232.0
 21
-905.85840199999996
 31
0.0
  0
CIRCLE
  5
94DA
  8
SIZE
  6
CONTINUOUS
 10
230.0
 20
-905.85840199999996
 30
0.0
 40
6.0
  0
CIRCLE
  5
94DB
  8
SIZE
  6
CONTINUOUS
 10
230.0
 20
-905.85840199999996
 30
0.0
 40
6.0
  0
TEXT
  5
94DC
  8
NOTE
  6
CONTINUOUS
 10
162.5256049999989
 20
-668.60357599999998
 30
0.0
 40
64.0
  1
D %%C32
 41
0.9
  0
LINE
  5
94DD
  8
NOTE
  6
CONTINUOUS
 10
144.46437000000151
 20
-684.48662499999989
 30
0.0
 11
414.0604892293922
 21
-684.48662499999989
 31
0.0
  0
LINE
  5
94DE
  8
DETAIL
  6
CONTINOUS
 10
255.0
 20
-475.0
 30
0.0
 11
205.0
 21
-475.0
 31
0.0
  0
LINE
  5
94DF
  8
SIZE
  6
BYBLOCK
 10
270.0
 20
-450.0
 30
0.0
 11
623.54411400000015
 21
-450.0
 31
0.0
  0
LINE
  5
94E3
  8
NOTE
  6
CONTINUOUS
 10
274.0
 20
-425.0
 30
0.0
 11
429.10368400000152
 21
-296.26321799999999
 31
0.0
  0
LINE
  5
94E6
  8
SIZE
  6
BYBLOCK
 10
295.0
 20
-425.0
 30
0.0
 11
3.689327000000048
 21
-425.0
 31
0.0
  0
CIRCLE
  5
94E7
  8
SIZE
  6
CONTINUOUS
 10
33.689327000000048
 20
-425.0
 30
0.0
 40
6.0
  0
CIRCLE
  5
94E8
  8
SIZE
  6
CONTINUOUS
 10
33.689327000000048
 20
-448.0
 30
0.0
 40
6.0
  0
LINE
  5
94E9
  8
SIZE
  6
BYBLOCK
 10
69.0
 20
-448.0
 30
0.0
 11
3.689327000000048
 21
-448.0
 31
0.0
  0
LINE
  5
94EA
  8
SIZE
  6
BYBLOCK
 10
33.689327000000048
 20
-450.0
 30
0.0
 11
33.689327000000048
 21
-452.0
 31
0.0
  0
LINE
  5
94EB
  8
SIZE
  6
BYBLOCK
 10
33.689327000000048
 20
-423.0
 30
0.0
 11
33.689327000000048
 21
-421.0
 31
0.0
  0
LINE
  5
94EC
  8
SIZE
  6
BYBLOCK
 10
33.689327000000048
 20
-448.0
 30
0.0
 11
33.689327000000048
 21
-425.0
 31
0.0
  0
LINE
  5
94ED
  8
NOTE
  6
CONTINOUS
 10
89.0
 20
-448.0
 30
0.0
 11
129.0
 21
-448.0
 31
0.0
  0
LINE
  5
94EE
  8
DETAIL
  6
CONTINUOUS
 10
125.0
 20
-448.0
 30
0.0
 11
125.0
 21
-425.0
 31
0.0
  0
LINE
  5
94EF
  8
DETAIL
  6
CONTINUOUS
 10
93.0
 20
-448.0
 30
0.0
 11
93.0
 21
-425.0
 31
0.0
  0
LINE
  5
94F0
  8
DETAIL
  6
CONTINUOUS
 10
125.0
 20
-448.0
 30
0.0
 11
93.0
 21
-448.0
 31
0.0
  0
POLYLINE
  5
94F1
  8
NOTE
  6
CONTINUOUS
 66
     1
 10
0.0
 20
0.0
 30
0.0
  0
VERTEX
  5
9850
  8
NOTE
  6
CONTINUOUS
 10
298.79956600000151
 20
-393.6155849999995
 30
0.0
  0
VERTEX
  5
9851
  8
NOTE
  6
CONTINUOUS
 10
274.0
 20
-425.0
 30
0.0
  0
VERTEX
  5
9852
  8
NOTE
  6
CONTINUOUS
 10
311.16926199999938
 20
-410.2200830000001
 30
0.0
  0
SEQEND
  5
9853
  8
NOTE
  6
CONTINUOUS
  0
LINE
  5
94F2
  8
NOTE
  6
CONTINOUS
 10
210.0
 20
-450.0
 30
0.0
 11
250.0
 21
-450.0
 31
0.0
  0
LINE
  5
94F4
  8
NOTE
  6
CONTINUOUS
 10
274.0
 20
-405.0
 30
0.0
 11
274.0
 21
-445.0
 31
0.0
  0
LINE
  5
94F5
  8
NOTE
  6
CONTINUOUS
 10
254.0
 20
-425.0
 30
0.0
 11
294.0
 21
-425.0
 31
0.0
  0
LINE
  5
94F6
  8
NOTE
  6
CONTINOUS
 10
274.0
 20
-405.0
 30
0.0
 11
274.0
 21
-445.0
 31
0.0
  0
LINE
  5
94F7
  8
DETAIL
  6
CONTINOUS
 10
254.0
 20
-425.0
 30
0.0
 11
294.0
 21
-425.0
 31
0.0
  0
CIRCLE
  5
94F8
  8
SIZE
  6
CONTINUOUS
 10
593.54411400000015
 20
-450.0
 30
0.0
 40
6.0
  0
TEXT
  5
94F9
  8
ETC
  6
CONTINUOUS
 10
766.02938544216522
 20
727.93655353079919
 30
0.0
 40
64.0
  1
SMPM2711
 41
0.9
  0
TEXT
  5
94FA
  8
ETC
  6
CONTINUOUS
 10
772.66658144216478
 20
836.38182453079924
 30
0.0
 40
64.0
  1
PAC
 41
0.9
  0
CIRCLE
  5
94FE
  8
SIZE
  6
CONTINUOUS
 10
325.0
 20
658.66029200000003
 30
0.0
 40
6.0
  0
CIRCLE
  5
94FF
  8
SIZE
  6
CONTINUOUS
 10
325.0
 20
896.37267899999995
 30
0.0
 40
6.0
  0
CIRCLE
  5
9500
  8
SIZE
  6
CONTINUOUS
 10
325.0
 20
896.37267899999995
 30
0.0
 40
6.0
  0
LINE
  5
9501
  8
SIZE
  6
BYBLOCK
 10
325.0
 20
896.37267899999995
 30
0.0
 11
345.0
 21
896.37267899999995
 31
0.0
  0
TEXT
  5
9502
  8
SIZE
  6
BYBLOCK
 10
278.85714300000097
 20
690.66029200000003
 30
0.0
 40
64.0
  1
10
 41
0.9
  0
LINE
  5
9503
  8
SIZE
  6
BYBLOCK
 10
327.0
 20
658.66029200000003
 30
0.0
 11
329.0
 21
658.66029200000003
 31
0.0
  0
LINE
  5
9504
  8
SIZE
  6
BYBLOCK
 10
270.0
 20
537.0
 30
0.0
 11
623.54411400000015
 21
537.0
 31
0.0
  0
LINE
  5
9505
  8
SIZE
  6
BYBLOCK
 10
270.0
 20
537.0
 30
0.0
 11
623.54411400000015
 21
537.0
 31
0.0
  0
LINE
  5
9506
  8
SIZE
  6
BYBLOCK
 10
325.0
 20
595.0
 30
0.0
 11
325.0
 21
926.37267900000006
 31
0.0
  0
LINE
  5
9507
  8
SIZE
  6
BYBLOCK
 10
325.0
 20
595.0
 30
0.0
 11
325.0
 21
926.37267900000006
 31
0.0
  0
LINE
  5
9508
  8
SIZE
  6
BYBLOCK
 10
315.0
 20
535.0
 30
0.0
 11
315.0
 21
688.66029200000003
 31
0.0
  0
LINE
  5
9509
  8
SIZE
  6
BYBLOCK
 10
315.0
 20
535.0
 30
0.0
 11
315.0
 21
688.66029200000003
 31
0.0
  0
CIRCLE
  5
950A
  8
FIX
  6
CONTINUOUS
 10
230.0
 20
537.0
 30
0.0
 40
40.0
  0
LINE
  5
950B
  8
NOTE
  6
CONTINOUS
 10
210.0
 20
537.0
 30
0.0
 11
250.0
 21
537.0
 31
0.0
  0
LINE
  5
950C
  8
DETAIL
  6
CONTINOUS
 10
255.0
 20
565.0
 30
0.0
 11
205.0
 21
565.0
 31
0.0
  0
LINE
  5
950E
  8
NOTE
  6
CONTINOUS
 10
230.0
 20
557.0
 30
0.0
 11
230.0
 21
517.0
 31
0.0
  0
LINE
  5
950F
  8
DETAIL
  6
CONTINUOUS
 10
205.0
 20
565.0
 30
0.0
 11
205.0
 21
515.0
 31
0.0
  0
LINE
  5
9510
  8
DETAIL
  6
CONTINUOUS
 10
255.0
 20
515.0
 30
0.0
 11
255.0
 21
565.0
 31
0.0
  0
CIRCLE
  5
9511
  8
SIZE
  6
CONTINUOUS
 10
315.0
 20
658.66029200000003
 30
0.0
 40
6.0
  0
CIRCLE
  5
9512
  8
SIZE
  6
CONTINUOUS
 10
315.0
 20
658.66029200000003
 30
0.0
 40
6.0
  0
LINE
  5
9513
  8
SIZE
  6
BYBLOCK
 10
315.0
 20
658.66029200000003
 30
0.0
 11
325.0
 21
658.66029200000003
 31
0.0
  0
LINE
  5
9514
  8
SIZE
  6
BYBLOCK
 10
313.0
 20
658.66029200000003
 30
0.0
 11
311.0
 21
658.66029200000003
 31
0.0
  0
LINE
  5
9515
  8
SIZE
  6
BYBLOCK
 10
325.0
 20
595.0
 30
0.0
 11
325.0
 21
688.66029200000003
 31
0.0
  0
LINE
  5
9516
  8
SIZE
  6
BYBLOCK
 10
323.0
 20
896.37267899999995
 30
0.0
 11
321.0
 21
896.37267899999995
 31
0.0
  0
LINE
  5
9517
  8
SIZE
  6
BYBLOCK
 10
345.0
 20
615.0
 30
0.0
 11
345.0
 21
926.37267900000006
 31
0.0
  0
LINE
  5
9518
  8
SIZE
  6
BYBLOCK
 10
345.0
 20
575.0
 30
0.0
 11
623.54411400000015
 21
575.0
 31
0.0
  0
CIRCLE
  5
9519
  8
SIZE
  6
CONTINUOUS
 10
593.54411400000015
 20
575.0
 30
0.0
 40
6.0
  0
TEXT
  5
951A
  8
SIZE
  6
BYBLOCK
 10
561.54411400000015
 20
509.37142899999998
 30
0.0
 40
64.0
  1
38
 50
90.0
 41
0.9
  0
CIRCLE
  5
951B
  8
SIZE
  6
CONTINUOUS
 10
593.54411400000015
 20
537.0
 30
0.0
 40
6.0
  0
CIRCLE
  5
951C
  8
SIZE
  6
CONTINUOUS
 10
593.54411400000015
 20
537.0
 30
0.0
 40
6.0
  0
LINE
  5
951D
  8
SIZE
  6
BYBLOCK
 10
593.54411400000015
 20
537.0
 30
0.0
 11
593.54411400000015
 21
575.0
 31
0.0
  0
LINE
  5
951E
  8
SIZE
  6
BYBLOCK
 10
593.54411400000015
 20
577.0
 30
0.0
 11
593.54411400000015
 21
579.0
 31
0.0
  0
LINE
  5
951F
  8
SIZE
  6
BYBLOCK
 10
593.54411400000015
 20
535.0
 30
0.0
 11
593.54411400000015
 21
533.0
 31
0.0
  0
CIRCLE
  5
9520
  8
SIZE
  6
CONTINUOUS
 10
345.0
 20
896.37267899999995
 30
0.0
 40
6.0
  0
LINE
  5
9521
  8
SIZE
  6
BYBLOCK
 10
347.0
 20
896.37267899999995
 30
0.0
 11
349.0
 21
896.37267899999995
 31
0.0
  0
TEXT
  5
9522
  8
SIZE
  6
BYBLOCK
 10
288.3714289999989
 20
928.37267900000006
 30
0.0
 40
64.0
  1
20
 41
0.9
  0
LINE
  5
952A
  8
NOTE
  6
CONTINUOUS
 10
855.60967900000105
 20
-296.26321799999999
 30
0.0
 11
429.10368400000152
 21
-296.26321799999999
 31
0.0
  0
TEXT
  5
952B
  8
NOTE
  6
CONTINUOUS
 10
452.7750979999982
 20
-274.20357900000022
 30
0.0
 40
64.0
  1
EL,CL %%C22
 41
0.9
  0
LINE
  5
952C
  8
NOTE
  6
CONTINUOUS
 10
-796.85072514882268
 20
-744.96858373953216
 30
0.0
 11
-390.55539160069378
 21
-744.96858373953216
 31
0.0
  0
TEXT
  5
952D
  8
NOTE
  6
CONTINUOUS
 10
-786.57377714882375
 20
-721.84587173953207
 30
0.0
 40
64.0
  1
RL %%C6.35
 41
0.9
  0
LINE
  5
952E
  8
NOTE
  6
CONTINUOUS
 10
-10.0
 20
-497.0
 30
0.0
 11
-447.685790083553
 21
-873.10019437783546
 31
0.0
  0
POLYLINE
  5
952F
  8
NOTE
  6
CONTINUOUS
 66
     1
 10
0.0
 20
0.0
 30
0.0
  0
VERTEX
  5
9854
  8
NOTE
  6
CONTINUOUS
 10
-33.406300999999068
 20
-529.43678500000169
 30
0.0
  0
VERTEX
  5
9855
  8
NOTE
  6
CONTINUOUS
 10
-10.0
 20
-497.0
 30
0.0
  0
VERTEX
  5
9856
  8
NOTE
  6
CONTINUOUS
 10
-46.488843999999517
 20
-513.38792900000044
 30
0.0
  0
SEQEND
  5
9857
  8
NOTE
  6
CONTINUOUS
  0
TEXT
  5
9530
  8
NOTE
  6
CONTINUOUS
 10
-814.76324651145114
 20
-848.62400237783572
 30
0.0
 40
64.0
  1
RG %%C12.7
 41
0.9
  0
LINE
  5
9531
  8
NOTE
  6
CONTINUOUS
 10
-838.89008151145026
 20
-873.10019437783546
 30
0.0
 11
-447.685790083553
 21
-873.10019437783546
 31
0.0
  0
DIMENSION
  5
9533
  8
SIZE
  6
CONTINUOUS
  2
*D7
 10
-688.48610758013103
 20
-490.99999999999972
 30
0.0
 11
-688.48610758013092
 21
-349.74285714285401
 31
0.0
 70
   128
 13
-295.0
 23
-425.0
 33
0.0
 14
-115.0
 24
-491.0
 34
0.0
 50
90.0
1001
ACAD
1000
DSTYLE
1002
{
1070
   287
1070
     0
1070
    41
1040
10.0
1070
    42
1040
20.0
1070
    43
1040
200.0
1070
    44
1040
20.0
1070
    73
1070
     0
1070
    74
1070
     0
1070
    77
1070
     1
1070
    78
1070
     8
1070
   140
1040
64.0
1070
   141
1040
0.082
1070
   147
1040
10.0
1070
   172
1070
     1
1070
   271
1070
     0
1070
   272
1070
     0
1070
   289
1070
     0
1070
   341
1005
175A
1070
     5
1000
ORIGIN
1002
}
  0
DIMENSION
  5
954D
  8
SIZE
  6
CONTINUOUS
  2
*D8
 10
-809.6987456303832
 20
-496.99999999999972
 30
0.0
 11
-809.6987456303832
 21
-343.84414869456299
 31
0.0
 70
   128
 13
-295.0
 23
-425.0
 33
0.0
 14
-30.0
 24
-497.0
 34
0.0
 50
90.0
1001
ACAD
1000
DSTYLE
1002
{
1070
   287
1070
     0
1070
    41
1040
10.0
1070
    42
1040
20.0
1070
    43
1040
200.0
1070
    44
1040
20.0
1070
    73
1070
     0
1070
    74
1070
     0
1070
    77
1070
     1
1070
    78
1070
     8
1070
   140
1040
64.0
1070
   141
1040
0.082
1070
   147
1040
10.0
1070
   172
1070
     1
1070
   271
1070
     0
1070
   272
1070
     0
1070
   289
1070
     0
1070
   341
1005
175A
1070
     5
1000
ORIGIN
1002
}
  0
LINE
  5
97B3
  8
OUTLINE
  6
CONTINOUS
 10
345.0
 20
595.0
 30
0.0
 11
345.0
 21
-595.0
 31
0.0
  0
LINE
  5
97B5
  8
OUTLINE
  6
CONTINOUS
 10
-345.0
 20
595.0
 30
0.0
 11
-345.0
 21
-595.0
 31
0.0
  0
LINE
  5
97B9
  8
OUTLINE
  6
CONTINOUS
 10
345.0
 20
-595.0
 30
0.0
 11
-345.0
 21
-595.0
 31
0.0
  0
LINE
  5
97CF
  8
OUTLINE
  6
CONTINOUS
 10
345.0
 20
595.0
 30
0.0
 11
-345.0
 21
595.0
 31
0.0
  0
ENDSEC
  0
EOF
