  0
SECTION
  2
HEADER
  9
$ACADVER
  1
AC1009
  9
$INSBASE
 10
0.0
 20
0.0
 30
0.0
  9
$EXTMIN
 10
-1828.7808229686741
 20
-543.40181519793975
 30
-0.0015258207003583
  9
$EXTMAX
 10
1276.0223137018841
 20
790.14613497538437
 30
0.0000000349246037
  9
$LIMMIN
 10
14697.082162881299
 20
-4251.2165646074718
  9
$LIMMAX
 10
26334.278560697228
 20
2088.67453764228
  9
$ORTHOMODE
 70
     1
  9
$REGENMODE
 70
     1
  9
$FILLMODE
 70
     1
  9
$QTEXTMODE
 70
     0
  9
$MIRRTEXT
 70
     0
  9
$DRAGMODE
 70
     2
  9
$LTSCALE
 40
20.0
  9
$OSMODE
 70
    63
  9
$ATTMODE
 70
     1
  9
$TEXTSIZE
 40
64.0
  9
$TRACEWID
 40
0.05
  9
$TEXTSTYLE
  7
STANDARD
  9
$CLAYER
  8
SIZE
  9
$CELTYPE
  6
CONTINUOUS
  9
$CECOLOR
 62
   256
  9
$DIMSCALE
 40
1.0
  9
$DIMASZ
 40
10.0
  9
$DIMEXO
 40
20.0
  9
$DIMDLI
 40
200.0
  9
$DIMRND
 40
0.0
  9
$DIMDLE
 40
0.0
  9
$DIMEXE
 40
20.0
  9
$DIMTP
 40
0.0
  9
$DIMTM
 40
0.0
  9
$DIMTXT
 40
64.0
  9
$DIMCEN
 40
0.082
  9
$DIMTSZ
 40
0.0
  9
$DIMTOL
 70
     0
  9
$DIMLIM
 70
     0
  9
$DIMTIH
 70
     0
  9
$DIMTOH
 70
     0
  9
$DIMSE1
 70
     0
  9
$DIMSE2
 70
     0
  9
$DIMTAD
 70
     1
  9
$DIMZIN
 70
     8
  9
$DIMBLK
  1
ORIGIN
  9
$DIMASO
 70
     1
  9
$DIMSHO
 70
     0
  9
$DIMPOST
  1

  9
$DIMAPOST
  1

  9
$DIMALT
 70
     0
  9
$DIMALTD
 70
     2
  9
$DIMALTF
 40
25.399999999999999
  9
$DIMLFAC
 40
1.0
  9
$DIMTOFL
 70
     1
  9
$DIMTVP
 40
0.0
  9
$DIMTIX
 70
     0
  9
$DIMSOXD
 70
     0
  9
$DIMSAH
 70
     0
  9
$DIMBLK1
  1

  9
$DIMBLK2
  1

  9
$DIMSTYLE
  2
STANDARD
  9
$DIMCLRD
 70
     0
  9
$DIMCLRE
 70
     0
  9
$DIMCLRT
 70
     0
  9
$DIMTFAC
 40
1.0
  9
$DIMGAP
 40
10.0
  9
$LUNITS
 70
     2
  9
$LUPREC
 70
     4
  9
$SKETCHINC
 40
0.1
  9
$FILLETRAD
 40
5.0
  9
$AUNITS
 70
     1
  9
$AUPREC
 70
     3
  9
$MENU
  1
ACAD
  9
$ELEVATION
 40
0.0
  9
$PELEVATION
 40
0.0
  9
$THICKNESS
 40
0.0
  9
$LIMCHECK
 70
     0
  9
$BLIPMODE
 70
     0
  9
$CHAMFERA
 40
0.0
  9
$CHAMFERB
 40
0.0
  9
$SKPOLY
 70
     0
  9
$TDCREATE
 40
2450330.3932059952
  9
$TDUPDATE
 40
2452979.47531647
  9
$TDINDWG
 40
0.5570545718
  9
$TDUSRTIMER
 40
0.5570545718
  9
$USRTIMER
 70
     1
  9
$ANGBASE
 50
0.0
  9
$ANGDIR
 70
     0
  9
$PDMODE
 70
     3
  9
$PDSIZE
 40
-2.0
  9
$PLINEWID
 40
0.0
  9
$COORDS
 70
     2
  9
$SPLFRAME
 70
     0
  9
$SPLINETYPE
 70
     6
  9
$SPLINESEGS
 70
     8
  9
$ATTDIA
 70
     0
  9
$ATTREQ
 70
     1
  9
$HANDLING
 70
-16383
  9
$HANDSEED
  5
98CF
  9
$SURFTAB1
 70
     6
  9
$SURFTAB2
 70
     6
  9
$SURFTYPE
 70
     6
  9
$SURFU
 70
     6
  9
$SURFV
 70
     6
  9
$UCSNAME
  2

  9
$UCSORG
 10
0.0
 20
0.0
 30
0.0
  9
$UCSXDIR
 10
1.0
 20
0.0
 30
0.0
  9
$UCSYDIR
 10
0.0
 20
1.0
 30
0.0
  9
$PUCSNAME
  2

  9
$PUCSORG
 10
0.0
 20
0.0
 30
0.0
  9
$PUCSXDIR
 10
1.0
 20
0.0
 30
0.0
  9
$PUCSYDIR
 10
0.0
 20
1.0
 30
0.0
  9
$USERI1
 70
     0
  9
$USERI2
 70
     0
  9
$USERI3
 70
     0
  9
$USERI4
 70
     0
  9
$USERI5
 70
     0
  9
$USERR1
 40
20.0
  9
$USERR2
 40
0.0
  9
$USERR3
 40
0.0
  9
$USERR4
 40
0.0
  9
$USERR5
 40
0.0
  9
$WORLDVIEW
 70
     1
  9
$SHADEDGE
 70
     3
  9
$SHADEDIF
 70
    70
  9
$TILEMODE
 70
     1
  9
$MAXACTVP
 70
    64
  9
$PLIMCHECK
 70
     0
  9
$PEXTMIN
 10
1.0000000000000000E+020
 20
1.0000000000000000E+020
 30
1.0000000000000000E+020
  9
$PEXTMAX
 10
-1.0000000000000000E+020
 20
-1.0000000000000000E+020
 30
-1.0000000000000000E+020
  9
$PLIMMIN
 10
0.0
 20
0.0
  9
$PLIMMAX
 10
12.0
 20
9.0
  9
$UNITMODE
 70
     0
  9
$VISRETAIN
 70
     1
  9
$PLINEGEN
 70
     0
  9
$PSLTSCALE
 70
     1
  0
ENDSEC
  0
SECTION
  2
TABLES
  0
TABLE
  2
VPORT
 70
     2
  0
VPORT
  2
*ACTIVE
 70
     0
 10
0.0
 20
0.0
 11
1.0
 21
1.0
 12
13.81638118595901
 22
145.85157014892499
 13
0.0
 23
0.0
 14
50.0
 24
50.0
 15
100.0
 25
100.0
 16
0.0
 26
0.0
 36
1.0
 17
0.0
 27
0.0
 37
0.0
 40
3309.2649558275039
 41
1.2953367875647659
 42
50.0
 43
0.0
 44
0.0
 50
0.0
 51
0.0
 71
     0
 72
   500
 73
     1
 74
     0
 75
     0
 76
     0
 77
     0
 78
     0
  0
ENDTAB
  0
TABLE
  2
LTYPE
 70
    15
  0
LTYPE
  2
CONTINUOUS
 70
     0
  3
Ä└É³
 72
    65
 73
     0
 40
0.0
  0
LTYPE
  2
DASHDOT
 70
     0
  3
____ _ ____ _ ____ _ ____ _ ____ _ ____ _ ____
 72
    65
 73
     4
 40
5.5
 49
4.0
 49
-0.6
 49
0.3
 49
-0.6
  0
LTYPE
  2
CONTINOUS
 70
     0
  3
Solid line
 72
    65
 73
     0
 40
0.0
  0
LTYPE
  2
BORDER
 70
     0
  3
BORDER
 72
    65
 73
     6
 40
1.75
 49
0.5
 49
-0.25
 49
0.5
 49
-0.25
 49
0.0
 49
-0.25
  0
LTYPE
  2
CENTER
 70
     0
  3
CENTER
 72
    65
 73
     4
 40
2.0
 49
1.25
 49
-0.25
 49
0.25
 49
-0.25
  0
LTYPE
  2
DASHED
 70
     0
  3
DASHED
 72
    65
 73
     2
 40
0.75
 49
0.5
 49
-0.25
  0
LTYPE
  2
DIVIDE
 70
     0
  3
DIVIDE
 72
    65
 73
     6
 40
1.25
 49
0.5
 49
-0.25
 49
0.0
 49
-0.25
 49
0.0
 49
-0.25
  0
LTYPE
  2
DOT
 70
     0
  3
DOT
 72
    65
 73
     2
 40
0.25
 49
0.0
 49
-0.25
  0
LTYPE
  2
HIDDEN
 70
     0
  3
HIDDEN
 72
    65
 73
     2
 40
0.375
 49
0.25
 49
-0.125
  0
LTYPE
  2
PHANTOM
 70
     0
  3
PHANTOM
 72
    65
 73
     6
 40
2.5
 49
1.25
 49
-0.25
 49
0.25
 49
-0.25
 49
0.25
 49
-0.25
  0
LTYPE
  2
$INVISIBLE
 70
     0
  3
$INVISIBLE
 72
    65
 73
     2
 40
200.0
 49
-100.0
 49
-100.0
  0
LTYPE
  2
$MARGINS
 70
     0
  3
$MARGINS
 72
    65
 73
     2
 40
0.075
 49
0.05
 49
-0.025
  0
LTYPE
  2
JLSTYLE_0
 70
     0
  3
JLSTYLE_0
 72
    65
 73
     4
 40
1.0
 49
0.5
 49
-0.25
 49
0.0
 49
-0.25
  0
LTYPE
  2
JLSTYLE_1
 70
     0
  3
JLSTYLE_1
 72
    65
 73
     2
 40
0.75
 49
0.5
 49
-0.25
  0
LTYPE
  2
JLSTYLE_2
 70
     0
  3
JLSTYLE_2
 72
    65
 73
     6
 40
1.25
 49
0.5
 49
-0.25
 49
0.0
 49
-0.25
 49
0.0
 49
-0.25
  0
ENDTAB
  0
TABLE
  2
LAYER
 70
    14
  0
LAYER
  2
0
 70
     0
 62
     7
  6
CONTINUOUS
  0
LAYER
  2
SIZE
 70
     0
 62
    32
  6
CONTINUOUS
  0
LAYER
  2
DETAIL
 70
     0
 62
     5
  6
CONTINUOUS
  0
LAYER
  2
OUTLINE
 70
     0
 62
     3
  6
CONTINUOUS
  0
LAYER
  2
BASIS
 70
     0
 62
     6
  6
CONTINUOUS
  0
LAYER
  2
NOTE
 70
     0
 62
     4
  6
CONTINUOUS
  0
LAYER
  2
ARRANGE
 70
     0
 62
     1
  6
CONTINUOUS
  0
LAYER
  2
FIX
 70
     0
 62
   241
  6
CONTINUOUS
  0
LAYER
  2
ETC
 70
     0
 62
    83
  6
CONTINUOUS
  0
LAYER
  2
SERVICESPACE
 70
     0
 62
     2
  6
CONTINUOUS
  0
LAYER
  2
SYMBOLLINE
 70
     0
 62
    38
  6
CONTINUOUS
  0
LAYER
  2
DEFPOINTS
 70
     0
 62
     7
  6
CONTINUOUS
  0
LAYER
  2
SERVICE_SPACE
 70
     0
 62
     2
  6
CONTINUOUS
  0
LAYER
  2
16
 70
     0
 62
   150
  6
CONTINUOUS
  0
ENDTAB
  0
TABLE
  2
STYLE
 70
     2
  0
STYLE
  2
STANDARD
 70
     0
 40
0.0
 41
0.9
 50
0.0
 71
     0
 42
64.0
  3
SIMPLEX
  4
BIGFONT
  0
STYLE
  2
STANDARD1
 70
     0
 40
0.0
 41
1.0
 50
0.0
 71
     0
 42
3.5
  3
MONOTXT
  4
BIGFONT
  0
ENDTAB
  0
TABLE
  2
VIEW
 70
     1
  0
VIEW
  2
ALL
 70
     0
 40
4282.6199999999999
 10
0.0
 20
41.309903999999989
 41
5940.0
 11
0.0
 21
0.0
 31
1.0
 12
0.0
 22
0.0
 32
0.0
 42
50.0
 43
0.0
 44
0.0
 50
0.0
 71
     0
  0
ENDTAB
  0
TABLE
  2
UCS
 70
     0
  0
ENDTAB
  0
TABLE
  2
APPID
 70
     1
  0
APPID
  2
ACAD
 70
     0
  0
ENDTAB
  0
TABLE
  2
DIMSTYLE
 70
     1
  0
DIMSTYLE
  2
STANDARD
 70
     0
  3

  4

  5

  6

  7

 40
1.0
 41
0.18
 42
0.0625
 43
0.38
 44
0.18
 45
0.0
 46
0.0
 47
0.0
 48
0.0
140
0.18
141
0.09
142
0.0
143
25.399999999999999
144
1.0
145
0.0
146
1.0
147
0.09
 71
     0
 72
     0
 73
     1
 74
     1
 75
     0
 76
     0
 77
     0
 78
     0
170
     0
171
     2
172
     0
173
     0
174
     0
175
     0
176
     0
177
     0
178
     0
  0
ENDTAB
  0
ENDSEC
  0
SECTION
  2
BLOCKS
  0
BLOCK
  8
0
  2
$MODEL_SPACE
 70
     0
 10
0.0
 20
0.0
 30
0.0
  3
$MODEL_SPACE
  1

  0
ENDBLK
  5
20
  8
0
  0
BLOCK
 67
     1
  8
0
  2
$PAPER_SPACE
 70
     0
 10
0.0
 20
0.0
 30
0.0
  3
$PAPER_SPACE
  1

  0
ENDBLK
  5
1C
 67
     1
  8
0
  0
BLOCK
  8
0
  2
_ORIGIN
 70
     0
 10
0.0
 20
0.0
 30
0.0
  3
_ORIGIN
  1

  0
CIRCLE
  5
48
  8
0
  6
BYBLOCK
 62
     0
 10
0.0
 20
0.0
 30
0.0
 40
0.5
  0
LINE
  5
49
  8
0
  6
BYBLOCK
 62
     0
 10
0.0
 20
0.0
 30
0.0
 11
-1.0
 21
0.0
 31
0.0
  0
ENDBLK
  5
4A
  8
0
  0
BLOCK
  8
0
  2
_DOTBLANK
 70
     0
 10
0.0
 20
0.0
 30
0.0
  3
_DOTBLANK
  1

  0
CIRCLE
  5
CE8
  8
0
  6
BYBLOCK
 62
     0
 10
0.0
 20
0.0
 30
0.0
 40
0.5
  0
LINE
  5
CE9
  8
0
  6
BYBLOCK
 62
     0
 10
-0.5
 20
0.0
 30
0.0
 11
-1.0
 21
0.0
 31
0.0
  0
ENDBLK
  5
CEB
  8
0
  0
BLOCK
  8
0
  2
_NONE
 70
     0
 10
0.0
 20
0.0
 30
0.0
  3
_NONE
  1

  0
ENDBLK
  5
175C
  8
0
  0
BLOCK
  8
0
  2
A$C0A7E6B4B
 70
     0
 10
0.0
 20
0.0
 30
0.0
  3
A$C0A7E6B4B
  1

  0
LINE
  5
740E
  8
NOTE
  6
CONTINUOUS
 10
1114.10099748633
 20
570.27489164577116
 30
0.0
 11
1154.10099748633
 21
570.27489164577116
 31
0.0
  0
LINE
  5
740F
  8
NOTE
  6
CONTINUOUS
 10
1114.10099748633
 20
525.27489164577116
 30
0.0
 11
1154.10099748633
 21
525.27489164577116
 31
0.0
  0
LINE
  5
7410
  8
NOTE
  6
CONTINUOUS
 10
1114.10099748633
 20
487.27489164577122
 30
0.0
 11
1154.10099748633
 21
487.27489164577122
 31
0.0
  0
LINE
  5
7411
  8
NOTE
  6
CONTINUOUS
 10
1114.10099748633
 20
481.27489164577128
 30
0.0
 11
1154.10099748633
 21
481.27489164577128
 31
0.0
  0
POLYLINE
  5
7412
  8
NOTE
  6
CONTINUOUS
 66
     1
 10
0.0
 20
0.0
 30
0.0
  0
VERTEX
  5
983B
  8
NOTE
  6
CONTINUOUS
 10
1158.590507486331
 20
601.90184064577124
 30
0.0
  0
VERTEX
  5
983C
  8
NOTE
  6
CONTINUOUS
 10
1134.10099748633
 20
570.27489164577116
 30
0.0
  0
VERTEX
  5
983D
  8
NOTE
  6
CONTINUOUS
 10
1171.1230094863299
 20
585.41987764577129
 30
0.0
  0
SEQEND
  5
983E
  8
NOTE
  6
CONTINUOUS
  0
POLYLINE
  5
7413
  8
NOTE
  6
CONTINUOUS
 66
     1
 10
0.0
 20
0.0
 30
0.0
  0
VERTEX
  5
983F
  8
NOTE
  6
CONTINUOUS
 10
1173.3283294863311
 20
517.45079964577121
 30
0.0
  0
VERTEX
  5
9840
  8
NOTE
  6
CONTINUOUS
 10
1134.10099748633
 20
525.27489164577116
 30
0.0
  0
VERTEX
  5
9841
  8
NOTE
  6
CONTINUOUS
 10
1164.16081748633
 20
498.88536264577118
 30
0.0
  0
SEQEND
  5
9842
  8
NOTE
  6
CONTINUOUS
  0
POLYLINE
  5
7414
  8
NOTE
  6
CONTINUOUS
 66
     1
 10
0.0
 20
0.0
 30
0.0
  0
VERTEX
  5
9843
  8
NOTE
  6
CONTINUOUS
 10
1164.3040294863299
 20
461.04939164577121
 30
0.0
  0
VERTEX
  5
9844
  8
NOTE
  6
CONTINUOUS
 10
1134.10099748633
 20
487.27489164577122
 30
0.0
  0
VERTEX
  5
9845
  8
NOTE
  6
CONTINUOUS
 10
1147.1448404863299
 20
449.46142664577133
 30
0.0
  0
SEQEND
  5
9846
  8
NOTE
  6
CONTINUOUS
  0
POLYLINE
  5
7415
  8
NOTE
  6
CONTINUOUS
 66
     1
 10
0.0
 20
0.0
 30
0.0
  0
VERTEX
  5
9847
  8
NOTE
  6
CONTINUOUS
 10
1156.7202774863299
 20
448.28446664577132
 30
0.0
  0
VERTEX
  5
9848
  8
NOTE
  6
CONTINUOUS
 10
1134.10099748633
 20
481.27489164577128
 30
0.0
  0
VERTEX
  5
9849
  8
NOTE
  6
CONTINUOUS
 10
1137.1946564863299
 20
441.39470464577118
 30
0.0
  0
SEQEND
  5
984A
  8
NOTE
  6
CONTINUOUS
  0
CIRCLE
  5
7416
  8
SIZE
  6
CONTINUOUS
 10
1134.10099748633
 20
939.73460964577112
 30
0.0
 40
6.0
  0
CIRCLE
  5
7417
  8
SIZE
  6
CONTINUOUS
 10
1134.10099748633
 20
817.67982464577119
 30
0.0
 40
6.0
  0
CIRCLE
  5
7418
  8
SIZE
  6
CONTINUOUS
 10
1134.10099748633
 20
86.62382264577127
 30
0.0
 40
6.0
  0
CIRCLE
  5
7419
  8
SIZE
  6
CONTINUOUS
 10
1134.10099748633
 20
243.4217936457712
 30
0.0
 40
6.0
  0
LINE
  5
741A
  8
SIZE
  6
BYBLOCK
 10
1094.10099748633
 20
692.27489164577116
 30
0.0
 11
1342.33324748633
 21
692.27489164577116
 31
0.0
  0
TEXT
  5
741B
  8
SIZE
  6
BYBLOCK
 10
1047.472426486331
 20
849.67982464577119
 30
0.0
 40
64.0
  1
80
 41
0.9
  0
LINE
  5
741C
  8
NOTE
  6
CONTINUOUS
 10
1134.10099748633
 20
570.27489164577116
 30
0.0
 11
1271.236384486331
 21
919.06389564577125
 31
0.0
  0
LINE
  5
741D
  8
NOTE
  6
CONTINUOUS
 10
1134.10099748633
 20
525.27489164577116
 30
0.0
 11
1641.6296164863311
 21
249.63571464577129
 31
0.0
  0
LINE
  5
741E
  8
NOTE
  6
CONTINUOUS
 10
1134.10099748633
 20
487.27489164577122
 30
0.0
 11
1352.5893744863311
 21
131.38721764577119
 31
0.0
  0
LINE
  5
741F
  8
NOTE
  6
CONTINUOUS
 10
1134.10099748633
 20
481.27489164577128
 30
0.0
 11
1294.983451486331
 21
-0.0000013542287434
 31
0.0
  0
LINE
  5
7420
  8
NOTE
  6
CONTINUOUS
 10
1134.10099748633
 20
570.27489164577116
 30
0.0
 11
1459.12052948633
 21
816.9537306457712
 31
0.0
  0
LINE
  5
7421
  8
NOTE
  6
CONTINUOUS
 10
1053.387699486331
 20
692.17097264577114
 30
0.0
 11
1227.838504486331
 21
1013.532024645771
 31
0.0
  0
LINE
  5
7422
  8
BASIS
  6
DASHDOT
 10
1238.7484744863309
 20
587.77489164577116
 30
0.0
 11
373.55186648633088
 21
587.77489164577116
 31
0.0
  0
CIRCLE
  5
7423
  8
ARRANGE
  6
CONTINUOUS
 10
1134.10099748633
 20
735.27489164577128
 30
0.0
 40
40.0
  0
POINT
  5
7424
  8
ARRANGE
  6
CONTINUOUS
 10
1134.10099748633
 20
735.27489164577128
 30
0.0
  0
CIRCLE
  5
7425
  8
SIZE
  6
CONTINUOUS
 10
95.999997486330813
 20
735.27489164577128
 30
0.0
 40
6.0
  0
CIRCLE
  5
7426
  8
SIZE
  6
CONTINUOUS
 10
220.59268848633101
 20
735.27489164577128
 30
0.0
 40
6.0
  0
CIRCLE
  5
7427
  8
SIZE
  6
CONTINUOUS
 10
348.20360248633079
 20
735.27489164577128
 30
0.0
 40
6.0
  0
TEXT
  5
7428
  8
SIZE
  6
BYBLOCK
 10
316.20360248633079
 20
651.14632064577131
 30
0.0
 40
64.0
  1
75
 50
90.0
 41
0.9
  0
LINE
  5
7429
  8
SIZE
  6
BYBLOCK
 10
1054.10099748633
 20
732.27489164577128
 30
0.0
 11
1054.10099748633
 21
847.6798246457713
 31
0.0
  0
LINE
  5
742A
  8
SIZE
  6
BYBLOCK
 10
734.10099748633093
 20
732.27489164577128
 30
0.0
 11
734.10099748633093
 21
847.6798246457713
 31
0.0
  0
LINE
  5
742B
  8
SIZE
  6
BYBLOCK
 10
1054.10099748633
 20
732.27489164577128
 30
0.0
 11
1054.10099748633
 21
847.6798246457713
 31
0.0
  0
LINE
  5
742C
  8
SIZE
  6
BYBLOCK
 10
564.10099748633093
 20
680.27489164577116
 30
0.0
 11
564.10099748633093
 21
969.73460964577146
 31
0.0
  0
LINE
  5
742D
  8
NOTE
  6
CONTINUOUS
 10
734.10099748633093
 20
692.27489164577116
 30
0.0
 11
451.97803148633091
 21
904.36197264577129
 31
0.0
  0
LINE
  5
742E
  8
SIZE
  6
BYBLOCK
 10
704.10099748633093
 20
455.27489164577122
 30
0.0
 11
190.5926884863309
 21
455.27489164577122
 31
0.0
  0
LINE
  5
742F
  8
SIZE
  6
BYBLOCK
 10
619.10099748633093
 20
735.27489164577128
 30
0.0
 11
190.5926884863309
 21
735.27489164577128
 31
0.0
  0
LINE
  5
7430
  8
SIZE
  6
BYBLOCK
 10
825.10099748633093
 20
440.27489164577128
 30
0.0
 11
65.999997486330813
 21
440.27489164577128
 31
0.0
  0
LINE
  5
7431
  8
SIZE
  6
BYBLOCK
 10
619.10099748633093
 20
735.27489164577128
 30
0.0
 11
65.999997486330813
 21
735.27489164577128
 31
0.0
  0
TEXT
  5
7432
  8
SIZE
  6
BYBLOCK
 10
188.5926884863309
 20
521.21774864577117
 30
0.0
 40
64.0
  1
280
 50
90.0
 41
0.9
  0
TEXT
  5
7433
  8
SIZE
  6
BYBLOCK
 10
63.999997486330813
 20
513.71774864577117
 30
0.0
 40
64.0
  1
295
 50
90.0
 41
0.9
  0
LINE
  5
7434
  8
SIZE
  6
BYBLOCK
 10
95.999997486330813
 20
733.27489164577116
 30
0.0
 11
95.999997486330813
 21
442.27489164577122
 31
0.0
  0
CIRCLE
  5
7435
  8
SIZE
  6
CONTINUOUS
 10
95.999997486330813
 20
440.27489164577128
 30
0.0
 40
6.0
  0
LINE
  5
7436
  8
SIZE
  6
BYBLOCK
 10
484.10099748633093
 20
640.27489164577128
 30
0.0
 11
484.10099748633093
 21
56.62382264577127
 31
0.0
  0
LINE
  5
7437
  8
SIZE
  6
BYBLOCK
 10
1134.10099748633
 20
420.27489164577122
 30
0.0
 11
1134.10099748633
 21
56.62382264577127
 31
0.0
  0
LINE
  5
7438
  8
SIZE
  6
BYBLOCK
 10
1132.10099748633
 20
86.62382264577127
 30
0.0
 11
486.10099748633093
 21
86.62382264577127
 31
0.0
  0
LINE
  5
7439
  8
OUTLINE
  6
CONTINUOUS
 10
1134.10099748633
 20
735.27489164577128
 30
0.0
 11
639.10099748633093
 21
735.27489164577128
 31
0.0
  0
LINE
  5
743A
  8
OUTLINE
  6
CONTINUOUS
 10
724.10099748633093
 20
455.27489164577122
 30
0.0
 11
509.10099748633093
 21
492.27489164577122
 31
0.0
  0
LINE
  5
743B
  8
DETAIL
  6
CONTINUOUS
 10
724.10099748633093
 20
455.27489164577122
 30
0.0
 11
509.10099748633093
 21
492.27489164577122
 31
0.0
  0
LINE
  5
743C
  8
DETAIL
  6
CONTINUOUS
 10
1134.10099748633
 20
735.27489164577128
 30
0.0
 11
639.10099748633093
 21
735.27489164577128
 31
0.0
  0
CIRCLE
  5
743D
  8
SIZE
  6
CONTINUOUS
 10
484.10099748633093
 20
86.62382264577127
 30
0.0
 40
6.0
  0
LINE
  5
743E
  8
SIZE
  6
BYBLOCK
 10
464.10099748633093
 20
660.27489164577128
 30
0.0
 11
318.20360248633079
 21
660.27489164577128
 31
0.0
  0
LINE
  5
743F
  8
SIZE
  6
BYBLOCK
 10
619.10099748633093
 20
735.27489164577128
 30
0.0
 11
318.20360248633079
 21
735.27489164577128
 31
0.0
  0
LINE
  5
7440
  8
SIZE
  6
BYBLOCK
 10
220.59268848633101
 20
733.27489164577116
 30
0.0
 11
220.59268848633101
 21
457.27489164577128
 31
0.0
  0
CIRCLE
  5
7441
  8
SIZE
  6
CONTINUOUS
 10
220.59268848633101
 20
455.27489164577122
 30
0.0
 40
6.0
  0
CIRCLE
  5
7442
  8
SIZE
  6
CONTINUOUS
 10
348.20360248633079
 20
660.27489164577128
 30
0.0
 40
6.0
  0
LINE
  5
7443
  8
SIZE
  6
BYBLOCK
 10
348.20360248633079
 20
660.27489164577128
 30
0.0
 11
348.20360248633079
 21
735.27489164577128
 31
0.0
  0
LINE
  5
7444
  8
SIZE
  6
BYBLOCK
 10
348.20360248633079
 20
658.27489164577116
 30
0.0
 11
348.20360248633079
 21
656.27489164577128
 31
0.0
  0
LINE
  5
7445
  8
OUTLINE
  6
CONTINUOUS
 10
509.10099748633093
 20
492.27489164577122
 30
0.0
 11
484.10099748633093
 21
660.27489164577128
 31
0.0
  0
LINE
  5
7446
  8
DETAIL
  6
CONTINUOUS
 10
509.10099748633093
 20
492.27489164577122
 30
0.0
 11
484.10099748633093
 21
660.27489164577128
 31
0.0
  0
LINE
  5
7447
  8
OUTLINE
  6
CONTINUOUS
 10
564.10099748633093
 20
660.27489164577128
 30
0.0
 11
484.10099748633093
 21
660.27489164577128
 31
0.0
  0
LINE
  5
7448
  8
DETAIL
  6
CONTINUOUS
 10
564.10099748633093
 20
660.27489164577128
 30
0.0
 11
484.10099748633093
 21
660.27489164577128
 31
0.0
  0
LINE
  5
7449
  8
OUTLINE
  6
CONTINUOUS
 10
639.10099748633093
 20
735.27489164577128
 30
0.0
 11
564.10099748633093
 21
660.27489164577128
 31
0.0
  0
LINE
  5
744A
  8
DETAIL
  6
CONTINUOUS
 10
639.10099748633093
 20
735.27489164577128
 30
0.0
 11
564.10099748633093
 21
660.27489164577128
 31
0.0
  0
LINE
  5
744B
  8
SIZE
  6
BYBLOCK
 10
845.10099748633093
 20
420.27489164577122
 30
0.0
 11
845.10099748633093
 21
213.4217936457712
 31
0.0
  0
LINE
  5
744C
  8
SIZE
  6
BYBLOCK
 10
1134.10099748633
 20
420.27489164577122
 30
0.0
 11
1134.10099748633
 21
213.4217936457712
 31
0.0
  0
LINE
  5
744D
  8
SIZE
  6
BYBLOCK
 10
1132.10099748633
 20
243.4217936457712
 30
0.0
 11
847.10099748633081
 21
243.4217936457712
 31
0.0
  0
CIRCLE
  5
744E
  8
SIZE
  6
CONTINUOUS
 10
845.10099748633093
 20
243.4217936457712
 30
0.0
 40
6.0
  0
TEXT
  5
744F
  8
SIZE
  6
BYBLOCK
 10
735.04385448633093
 20
118.6238226457712
 30
0.0
 40
64.0
  1
650
 41
0.9
  0
TEXT
  5
7450
  8
SIZE
  6
BYBLOCK
 10
916.91528348633085
 20
275.42179364577117
 30
0.0
 40
64.0
  1
289
 41
0.9
  0
LINE
  5
7451
  8
DETAIL
  6
CONTINUOUS
 10
1134.10099748633
 20
453.27489164577128
 30
0.0
 11
845.10099748633093
 21
453.27489164577128
 31
0.0
  0
LINE
  5
7452
  8
OUTLINE
  6
CONTINUOUS
 10
1134.10099748633
 20
440.27489164577128
 30
0.0
 11
845.10099748633093
 21
440.27489164577128
 31
0.0
  0
LINE
  5
7453
  8
DETAIL
  6
CONTINUOUS
 10
1134.10099748633
 20
440.27489164577128
 30
0.0
 11
845.10099748633093
 21
440.27489164577128
 31
0.0
  0
LINE
  5
7454
  8
OUTLINE
  6
CONTINUOUS
 10
845.10099748633093
 20
455.27489164577122
 30
0.0
 11
724.10099748633093
 21
455.27489164577122
 31
0.0
  0
LINE
  5
7455
  8
DETAIL
  6
CONTINUOUS
 10
845.10099748633093
 20
455.27489164577122
 30
0.0
 11
724.10099748633093
 21
455.27489164577122
 31
0.0
  0
LINE
  5
7456
  8
OUTLINE
  6
CONTINUOUS
 10
845.10099748633093
 20
440.27489164577128
 30
0.0
 11
845.10099748633093
 21
455.27489164577122
 31
0.0
  0
LINE
  5
7457
  8
DETAIL
  6
CONTINUOUS
 10
845.10099748633093
 20
440.27489164577128
 30
0.0
 11
845.10099748633093
 21
455.27489164577122
 31
0.0
  0
LINE
  5
7458
  8
NOTE
  6
CONTINUOUS
 10
714.10099748633093
 20
692.27489164577116
 30
0.0
 11
754.10099748633093
 21
692.27489164577116
 31
0.0
  0
POLYLINE
  5
7459
  8
NOTE
  6
CONTINUOUS
 66
     1
 10
0.0
 20
0.0
 30
0.0
  0
VERTEX
  5
984B
  8
NOTE
  6
CONTINUOUS
 10
696.94121248633098
 20
707.07862064577125
 30
0.0
  0
VERTEX
  5
984C
  8
NOTE
  6
CONTINUOUS
 10
734.10099748633093
 20
692.27489164577116
 30
0.0
  0
VERTEX
  5
984D
  8
NOTE
  6
CONTINUOUS
 10
709.32154448633082
 20
723.6751896457713
 30
0.0
  0
SEQEND
  5
984E
  8
NOTE
  6
CONTINUOUS
  0
LINE
  5
745A
  8
DETAIL
  6
CONTINUOUS
 10
764.10099748633093
 20
725.27489164577116
 30
0.0
 11
704.10099748633093
 21
725.27489164577116
 31
0.0
  0
LINE
  5
745B
  8
DETAIL
  6
CONTINUOUS
 10
764.10099748633093
 20
694.77489164577128
 30
0.0
 11
704.10099748633093
 21
694.77489164577128
 31
0.0
  0
LINE
  5
745C
  8
DETAIL
  6
CONTINUOUS
 10
764.10099748633093
 20
689.77489164577128
 30
0.0
 11
704.10099748633093
 21
689.77489164577128
 31
0.0
  0
LINE
  5
745D
  8
DETAIL
  6
CONTINUOUS
 10
704.10099748633093
 20
725.27489164577116
 30
0.0
 11
704.10099748633093
 21
689.77489164577128
 31
0.0
  0
LINE
  5
745E
  8
NOTE
  6
CONTINUOUS
 10
734.10099748633093
 20
672.27489164577116
 30
0.0
 11
734.10099748633093
 21
712.27489164577116
 31
0.0
  0
CIRCLE
  5
745F
  8
FIX
  6
CONTINUOUS
 10
734.10099748633093
 20
692.27489164577116
 30
0.0
 40
5.0
  0
LINE
  5
7460
  8
DETAIL
  6
CONTINUOUS
 10
764.10099748633093
 20
725.27489164577116
 30
0.0
 11
764.10099748633093
 21
689.77489164577128
 31
0.0
  0
LINE
  5
7461
  8
NOTE
  6
CONTINUOUS
 10
1134.10099748633
 20
550.27489164577116
 30
0.0
 11
1134.10099748633
 21
590.27489164577128
 31
0.0
  0
LINE
  5
7462
  8
OUTLINE
  6
CONTINUOUS
 10
1134.10099748633
 20
735.27489164577128
 30
0.0
 11
1134.10099748633
 21
440.27489164577128
 31
0.0
  0
LINE
  5
7463
  8
DETAIL
  6
CONTINUOUS
 10
1134.10099748633
 20
735.27489164577128
 30
0.0
 11
1134.10099748633
 21
440.27489164577128
 31
0.0
  0
LINE
  5
7464
  8
NOTE
  6
CONTINUOUS
 10
1134.10099748633
 20
467.27489164577122
 30
0.0
 11
1134.10099748633
 21
507.27489164577128
 31
0.0
  0
LINE
  5
7465
  8
NOTE
  6
CONTINUOUS
 10
1134.10099748633
 20
461.27489164577128
 30
0.0
 11
1134.10099748633
 21
501.27489164577122
 31
0.0
  0
LINE
  5
7466
  8
NOTE
  6
CONTINUOUS
 10
1134.10099748633
 20
505.27489164577122
 30
0.0
 11
1134.10099748633
 21
545.27489164577116
 31
0.0
  0
POLYLINE
  5
7467
  8
NOTE
  6
CONTINUOUS
 66
     1
 10
0.0
 20
0.0
 30
0.0
  0
VERTEX
  5
984F
  8
NOTE
  6
CONTINUOUS
 10
1063.6501294863299
 20
730.83209764577123
 30
0.0
  0
VERTEX
  5
9850
  8
NOTE
  6
CONTINUOUS
 10
1053.387699486331
 20
692.17097264577114
 30
0.0
  0
VERTEX
  5
9851
  8
NOTE
  6
CONTINUOUS
 10
1081.605786486331
 20
720.5212736457712
 30
0.0
  0
SEQEND
  5
9852
  8
NOTE
  6
CONTINUOUS
  0
LINE
  5
7468
  8
DETAIL
  6
CONTINUOUS
 10
1084.10099748633
 20
725.27489164577116
 30
0.0
 11
1024.1009974863309
 21
725.27489164577116
 31
0.0
  0
LINE
  5
7469
  8
DETAIL
  6
CONTINUOUS
 10
1084.10099748633
 20
689.77489164577128
 30
0.0
 11
1024.1009974863309
 21
689.77489164577128
 31
0.0
  0
LINE
  5
746A
  8
DETAIL
  6
CONTINUOUS
 10
1084.10099748633
 20
694.77489164577128
 30
0.0
 11
1024.1009974863309
 21
694.77489164577128
 31
0.0
  0
LINE
  5
746B
  8
NOTE
  6
CONTINUOUS
 10
1034.1009974863309
 20
692.27489164577116
 30
0.0
 11
1074.1009974863309
 21
692.27489164577116
 31
0.0
  0
LINE
  5
746C
  8
NOTE
  6
CONTINUOUS
 10
1054.10099748633
 20
672.27489164577116
 30
0.0
 11
1054.10099748633
 21
712.27489164577116
 31
0.0
  0
CIRCLE
  5
746D
  8
FIX
  6
CONTINUOUS
 10
1054.10099748633
 20
692.27489164577116
 30
0.0
 40
5.0
  0
LINE
  5
746E
  8
DETAIL
  6
CONTINUOUS
 10
1024.1009974863309
 20
725.27489164577116
 30
0.0
 11
1024.1009974863309
 21
689.77489164577128
 31
0.0
  0
LINE
  5
746F
  8
DETAIL
  6
CONTINUOUS
 10
1084.10099748633
 20
725.27489164577116
 30
0.0
 11
1084.10099748633
 21
689.77489164577128
 31
0.0
  0
TEXT
  5
7470
  8
NOTE
  6
CONTINUOUS
 10
24.763997486330929
 20
930.89271864577131
 30
0.0
 40
64.0
  1
AH 4-âË10
 41
0.9
  0
LINE
  5
7471
  8
NOTE
  6
CONTINUOUS
 10
451.97803148633091
 20
904.36197264577129
 30
0.0
 11
5.4309974863308517
 21
904.36197264577129
 31
0.0
  0
LINE
  5
7472
  8
SIZE
  6
BYBLOCK
 10
1132.10099748633
 20
939.73460964577112
 30
0.0
 11
641.10099748633093
 21
939.73460964577112
 31
0.0
  0
LINE
  5
7473
  8
SIZE
  6
BYBLOCK
 10
348.20360248633079
 20
737.27489164577116
 30
0.0
 11
348.20360248633079
 21
739.27489164577116
 31
0.0
  0
LINE
  5
7474
  8
SIZE
  6
BYBLOCK
 10
639.10099748633093
 20
755.27489164577116
 30
0.0
 11
639.10099748633093
 21
969.73460964577146
 31
0.0
  0
LINE
  5
7475
  8
SIZE
  6
BYBLOCK
 10
639.10099748633093
 20
755.27489164577116
 30
0.0
 11
639.10099748633093
 21
969.73460964577146
 31
0.0
  0
TEXT
  5
7476
  8
SIZE
  6
BYBLOCK
 10
554.97242648633085
 20
971.73460964577134
 30
0.0
 40
64.0
  1
75
 41
0.9
  0
LINE
  5
7477
  8
SIZE
  6
BYBLOCK
 10
564.10099748633093
 20
939.73460964577112
 30
0.0
 11
639.10099748633093
 21
939.73460964577112
 31
0.0
  0
CIRCLE
  5
7478
  8
SIZE
  6
CONTINUOUS
 10
564.10099748633093
 20
939.73460964577112
 30
0.0
 40
6.0
  0
LINE
  5
7479
  8
SIZE
  6
BYBLOCK
 10
562.10099748633093
 20
939.73460964577112
 30
0.0
 11
560.10099748633093
 21
939.73460964577112
 31
0.0
  0
CIRCLE
  5
747A
  8
SIZE
  6
CONTINUOUS
 10
639.10099748633093
 20
939.73460964577112
 30
0.0
 40
6.0
  0
CIRCLE
  5
747B
  8
SIZE
  6
CONTINUOUS
 10
639.10099748633093
 20
939.73460964577112
 30
0.0
 40
6.0
  0
LINE
  5
747C
  8
SIZE
  6
BYBLOCK
 10
641.10099748633093
 20
939.73460964577112
 30
0.0
 11
643.10099748633093
 21
939.73460964577112
 31
0.0
  0
TEXT
  5
747D
  8
SIZE
  6
BYBLOCK
 10
820.04385448633104
 20
849.67982464577119
 30
0.0
 40
64.0
  1
320
 41
0.9
  0
LINE
  5
747E
  8
SIZE
  6
BYBLOCK
 10
1052.10099748633
 20
817.67982464577119
 30
0.0
 11
736.10099748633093
 21
817.67982464577119
 31
0.0
  0
TEXT
  5
747F
  8
SIZE
  6
BYBLOCK
 10
812.54385448633093
 20
971.73460964577134
 30
0.0
 40
64.0
  1
495
 41
0.9
  0
CIRCLE
  5
7480
  8
SIZE
  6
CONTINUOUS
 10
734.10099748633093
 20
817.67982464577119
 30
0.0
 40
6.0
  0
LINE
  5
7481
  8
SIZE
  6
BYBLOCK
 10
1134.10099748633
 20
755.27489164577116
 30
0.0
 11
1134.10099748633
 21
969.73460964577146
 31
0.0
  0
CIRCLE
  5
7482
  8
SIZE
  6
CONTINUOUS
 10
1054.10099748633
 20
817.67982464577119
 30
0.0
 40
6.0
  0
CIRCLE
  5
7483
  8
SIZE
  6
CONTINUOUS
 10
1054.10099748633
 20
817.67982464577119
 30
0.0
 40
6.0
  0
LINE
  5
7484
  8
SIZE
  6
BYBLOCK
 10
1134.10099748633
 20
755.27489164577116
 30
0.0
 11
1134.10099748633
 21
847.6798246457713
 31
0.0
  0
LINE
  5
7485
  8
SIZE
  6
BYBLOCK
 10
1054.10099748633
 20
817.67982464577119
 30
0.0
 11
1134.10099748633
 21
817.67982464577119
 31
0.0
  0
LINE
  5
7486
  8
SIZE
  6
BYBLOCK
 10
1052.10099748633
 20
817.67982464577119
 30
0.0
 11
1050.1009974863309
 21
817.67982464577119
 31
0.0
  0
CIRCLE
  5
7487
  8
SIZE
  6
CONTINUOUS
 10
1707.30594848633
 20
735.27489164577128
 30
0.0
 40
6.0
  0
CIRCLE
  5
7488
  8
SIZE
  6
CONTINUOUS
 10
1575.102184486331
 20
735.27489164577128
 30
0.0
 40
6.0
  0
CIRCLE
  5
7489
  8
SIZE
  6
CONTINUOUS
 10
1312.33324748633
 20
735.27489164577128
 30
0.0
 40
6.0
  0
CIRCLE
  5
748A
  8
SIZE
  6
CONTINUOUS
 10
1441.0590454863309
 20
735.27489164577128
 30
0.0
 40
6.0
  0
TEXT
  5
748B
  8
SIZE
  6
BYBLOCK
 10
1280.3332474863309
 20
667.14632064577131
 30
0.0
 40
64.0
  1
43
 50
90.0
 41
0.9
  0
LINE
  5
748C
  8
NOTE
  6
CONTINUOUS
 10
1294.983451486331
 20
-0.0000013542287434
 30
0.0
 11
1621.417012486331
 21
-0.0000013542287434
 31
0.0
  0
TEXT
  5
748D
  8
NOTE
  6
CONTINUOUS
 10
1302.6376594863309
 20
11.517476645771239
 30
0.0
 40
64.0
  1
D âË32
 41
0.9
  0
LINE
  5
748E
  8
SIZE
  6
BYBLOCK
 10
1174.1009974863309
 20
525.27489164577116
 30
0.0
 11
1605.102184486331
 21
525.27489164577116
 31
0.0
  0
LINE
  5
748F
  8
SIZE
  6
BYBLOCK
 10
1154.10099748633
 20
735.27489164577128
 30
0.0
 11
1605.102184486331
 21
735.27489164577128
 31
0.0
  0
LINE
  5
7490
  8
SIZE
  6
BYBLOCK
 10
1174.1009974863309
 20
487.27489164577122
 30
0.0
 11
1605.102184486331
 21
487.27489164577122
 31
0.0
  0
LINE
  5
7491
  8
SIZE
  6
BYBLOCK
 10
1174.1009974863309
 20
525.27489164577116
 30
0.0
 11
1605.102184486331
 21
525.27489164577116
 31
0.0
  0
LINE
  5
7492
  8
SIZE
  6
BYBLOCK
 10
1174.1009974863309
 20
481.27489164577128
 30
0.0
 11
1737.30594848633
 21
481.27489164577128
 31
0.0
  0
LINE
  5
7493
  8
SIZE
  6
BYBLOCK
 10
1154.10099748633
 20
735.27489164577128
 30
0.0
 11
1737.30594848633
 21
735.27489164577128
 31
0.0
  0
TEXT
  5
7494
  8
NOTE
  6
CONTINUOUS
 10
1361.900869486331
 20
147.1437656457712
 30
0.0
 40
64.0
  1
EL âË27
 41
0.9
  0
LINE
  5
7495
  8
NOTE
  6
CONTINUOUS
 10
1352.5893744863311
 20
131.38721764577119
 30
0.0
 11
1669.9272624863311
 21
131.38721764577119
 31
0.0
  0
TEXT
  5
7496
  8
SIZE
  6
BYBLOCK
 10
1543.102184486331
 20
376.2438516457712
 30
0.0
 40
64.0
  1
38
 50
90.0
 41
0.9
  0
TEXT
  5
7497
  8
SIZE
  6
BYBLOCK
 10
1291.9013354863309
 20
344.0721166457713
 30
0.0
 40
64.0
  1
13
 50
90.0
 41
0.9
  0
LINE
  5
7498
  8
SIZE
  6
CONTINUOUS
 10
1323.9013354863309
 20
438.27489164577122
 30
0.0
 11
1323.9013354863309
 21
336.51171364577118
 31
0.0
  0
LINE
  5
7499
  8
SIZE
  6
CONTINUOUS
 10
1575.102184486331
 20
487.27489164577122
 30
0.0
 11
1575.102184486331
 21
346.53840364577121
 31
0.0
  0
TEXT
  5
749A
  8
SIZE
  6
BYBLOCK
 10
1409.0590454863309
 20
584.20346264577131
 30
0.0
 40
64.0
  1
165
 50
90.0
 41
0.9
  0
LINE
  5
749B
  8
SIZE
  6
BYBLOCK
 10
1174.1009974863309
 20
570.27489164577116
 30
0.0
 11
1471.0590454863309
 21
570.27489164577116
 31
0.0
  0
LINE
  5
749C
  8
SIZE
  6
BYBLOCK
 10
1154.10099748633
 20
735.27489164577128
 30
0.0
 11
1471.0590454863309
 21
735.27489164577128
 31
0.0
  0
LINE
  5
749D
  8
SIZE
  6
BYBLOCK
 10
1154.10099748633
 20
440.27489164577128
 30
0.0
 11
1353.90133548633
 21
440.27489164577128
 31
0.0
  0
LINE
  5
749E
  8
SIZE
  6
BYBLOCK
 10
1154.10099748633
 20
453.27489164577128
 30
0.0
 11
1353.90133548633
 21
453.27489164577128
 31
0.0
  0
CIRCLE
  5
749F
  8
SIZE
  6
CONTINUOUS
 10
1323.9013354863309
 20
440.27489164577128
 30
0.0
 40
6.0
  0
CIRCLE
  5
74A0
  8
SIZE
  6
CONTINUOUS
 10
1323.9013354863309
 20
453.27489164577128
 30
0.0
 40
6.0
  0
LINE
  5
74A1
  8
SIZE
  6
BYBLOCK
 10
1323.9013354863309
 20
440.27489164577128
 30
0.0
 11
1323.9013354863309
 21
453.27489164577128
 31
0.0
  0
LINE
  5
74A2
  8
SIZE
  6
BYBLOCK
 10
1323.9013354863309
 20
455.27489164577122
 30
0.0
 11
1323.9013354863309
 21
457.27489164577128
 31
0.0
  0
LINE
  5
74A3
  8
SIZE
  6
BYBLOCK
 10
1323.9013354863309
 20
438.27489164577122
 30
0.0
 11
1323.9013354863309
 21
436.27489164577128
 31
0.0
  0
LINE
  5
74A4
  8
SIZE
  6
BYBLOCK
 10
1154.10099748633
 20
735.27489164577128
 30
0.0
 11
1342.33324748633
 21
735.27489164577128
 31
0.0
  0
CIRCLE
  5
74A5
  8
SIZE
  6
CONTINUOUS
 10
1312.33324748633
 20
692.27489164577116
 30
0.0
 40
6.0
  0
LINE
  5
74A6
  8
SIZE
  6
BYBLOCK
 10
1312.33324748633
 20
692.27489164577116
 30
0.0
 11
1312.33324748633
 21
735.27489164577128
 31
0.0
  0
LINE
  5
74A7
  8
SIZE
  6
BYBLOCK
 10
1312.33324748633
 20
690.27489164577128
 30
0.0
 11
1312.33324748633
 21
688.27489164577116
 31
0.0
  0
CIRCLE
  5
74A8
  8
SIZE
  6
CONTINUOUS
 10
1441.0590454863309
 20
570.27489164577116
 30
0.0
 40
6.0
  0
TEXT
  5
74A9
  8
SIZE
  6
BYBLOCK
 10
1543.102184486331
 20
561.70346264577131
 30
0.0
 40
64.0
  1
210
 50
90.0
 41
0.9
  0
LINE
  5
74AA
  8
SIZE
  6
BYBLOCK
 10
1575.102184486331
 20
527.27489164577128
 30
0.0
 11
1575.102184486331
 21
630.27489164577116
 31
0.0
  0
CIRCLE
  5
74AB
  8
SIZE
  6
CONTINUOUS
 10
1575.102184486331
 20
487.27489164577122
 30
0.0
 40
6.0
  0
LINE
  5
74AC
  8
SIZE
  6
BYBLOCK
 10
1575.102184486331
 20
487.27489164577122
 30
0.0
 11
1575.102184486331
 21
525.27489164577116
 31
0.0
  0
LINE
  5
74AD
  8
SIZE
  6
BYBLOCK
 10
1575.102184486331
 20
485.27489164577122
 30
0.0
 11
1575.102184486331
 21
483.27489164577122
 31
0.0
  0
CIRCLE
  5
74AE
  8
SIZE
  6
CONTINUOUS
 10
1575.102184486331
 20
525.27489164577116
 30
0.0
 40
6.0
  0
CIRCLE
  5
74AF
  8
SIZE
  6
CONTINUOUS
 10
1575.102184486331
 20
525.27489164577116
 30
0.0
 40
6.0
  0
LINE
  5
74B0
  8
SIZE
  6
BYBLOCK
 10
1575.102184486331
 20
527.27489164577128
 30
0.0
 11
1575.102184486331
 21
529.27489164577116
 31
0.0
  0
LINE
  5
74B1
  8
SIZE
  6
BYBLOCK
 10
1441.0590454863309
 20
733.27489164577116
 30
0.0
 11
1441.0590454863309
 21
652.77489164577128
 31
0.0
  0
LINE
  5
74B2
  8
SIZE
  6
BYBLOCK
 10
1441.0590454863309
 20
572.27489164577116
 30
0.0
 11
1441.0590454863309
 21
652.77489164577128
 31
0.0
  0
LINE
  5
74B3
  8
SIZE
  6
BYBLOCK
 10
1575.102184486331
 20
733.27489164577116
 30
0.0
 11
1575.102184486331
 21
630.27489164577116
 31
0.0
  0
TEXT
  5
74B4
  8
NOTE
  6
CONTINUOUS
 10
1652.518532486331
 20
267.95373764577118
 30
0.0
 40
64.0
  1
EL âË27
 41
0.9
  0
LINE
  5
74B5
  8
NOTE
  6
CONTINUOUS
 10
1641.6296164863311
 20
249.63571464577129
 30
0.0
 11
1954.92498448633
 21
249.63571464577129
 31
0.0
  0
TEXT
  5
74B6
  8
SIZE
  6
BYBLOCK
 10
1675.30594848633
 20
532.84632064577124
 30
0.0
 40
64.0
  1
254
 50
90.0
 41
0.9
  0
LINE
  5
74B7
  8
SIZE
  6
BYBLOCK
 10
1707.30594848633
 20
483.27489164577122
 30
0.0
 11
1707.30594848633
 21
608.27489164577116
 31
0.0
  0
CIRCLE
  5
74B8
  8
SIZE
  6
CONTINUOUS
 10
1707.30594848633
 20
481.27489164577128
 30
0.0
 40
6.0
  0
LINE
  5
74B9
  8
SIZE
  6
BYBLOCK
 10
1707.30594848633
 20
733.27489164577116
 30
0.0
 11
1707.30594848633
 21
608.27489164577116
 31
0.0
  0
TEXT
  5
74BA
  8
ETC
  6
CONTINUOUS
 10
1556.9254724863299
 20
1122.891453645771
 30
0.0
 40
64.0
  1
PAC
 41
0.9
  0
TEXT
  5
74BB
  8
NOTE
  6
CONTINUOUS
 10
1288.3203644863311
 20
929.11425364577121
 30
0.0
 40
64.0
  1
RL âË9.52
 41
0.9
  0
LINE
  5
74BC
  8
NOTE
  6
CONTINUOUS
 10
1271.236384486331
 20
919.06389564577125
 30
0.0
 11
1707.3803284863311
 21
919.06389564577125
 31
0.0
  0
TEXT
  5
74BD
  8
NOTE
  6
CONTINUOUS
 10
1472.1298784863311
 20
833.98580364577117
 30
0.0
 40
64.0
  1
RG âË19.05
 41
0.9
  0
LINE
  5
74BE
  8
NOTE
  6
CONTINUOUS
 10
1459.12052948633
 20
816.9537306457712
 30
0.0
 11
1910.378200486331
 21
816.9537306457712
 31
0.0
  0
TEXT
  5
74BF
  8
ETC
  6
CONTINUOUS
 10
1551.5644384863299
 20
1243.5210996457711
 30
0.0
 40
64.0
  1
PCA0024
 41
0.9
  0
TEXT
  5
74C0
  8
NOTE
  6
CONTINUOUS
 10
1234.44489248633
 20
1023.073805645771
 30
0.0
 40
64.0
  1
AH
 41
0.9
  0
LINE
  5
74C1
  8
SIZE
  6
BYBLOCK
 10
1136.10099748633
 20
817.67982464577119
 30
0.0
 11
1138.10099748633
 21
817.67982464577119
 31
0.0
  0
LINE
  5
74C2
  8
SIZE
  6
BYBLOCK
 10
1312.33324748633
 20
737.27489164577116
 30
0.0
 11
1312.33324748633
 21
739.27489164577116
 31
0.0
  0
LINE
  5
74C3
  8
NOTE
  6
CONTINUOUS
 10
1227.838504486331
 20
1013.532024645771
 30
0.0
 11
1349.689659486331
 21
1013.532024645771
 31
0.0
  0
ENDBLK
  5
74C5
  8
0
  0
BLOCK
  8
0
  2
A$C3B263967
 70
     0
 10
0.0
 20
0.0
 30
0.0
  3
A$C3B263967
  1

  0
TEXT
  5
7AA3
  8
SIZE
  6
BYBLOCK
 10
1329.9527025161549
 20
62.000000771584148
 30
0.0
 40
64.0
  1
1520
 41
0.9
  0
LINE
  5
7AA4
  8
SIZE
  6
BYBLOCK
 10
2183.9527025161551
 20
30.000000771584151
 30
0.0
 11
1425.9527025161549
 21
30.000000771584151
 31
0.0
  0
TEXT
  5
7AA5
  8
SIZE
  6
BYBLOCK
 10
1328.5812735161551
 20
1225.740565771584
 30
0.0
 40
64.0
  1
1564
 41
0.9
  0
LINE
  5
7AA6
  8
SIZE
  6
BYBLOCK
 10
2205.9527025161542
 20
1193.740565771584
 30
0.0
 11
1425.9527025161549
 21
1193.740565771584
 31
0.0
  0
TEXT
  5
7AA7
  8
SIZE
  6
BYBLOCK
 10
1329.9527025161549
 20
1354.8010157715839
 30
0.0
 40
64.0
  1
1608
 41
0.9
  0
LINE
  5
7AA8
  8
SIZE
  6
BYBLOCK
 10
2227.9527025161551
 20
1322.8010157715839
 30
0.0
 11
1425.9527025161549
 21
1322.8010157715839
 31
0.0
  0
LINE
  5
7AA9
  8
SIZE
  6
BYBLOCK
 10
1405.9527025161549
 20
176.79790777158411
 30
0.0
 11
1841.9527025161549
 21
176.79790777158411
 31
0.0
  0
LINE
  5
7AAA
  8
BASIS
  6
DASHDOT
 10
1271.671169516155
 20
775.74614777158422
 30
0.0
 11
1542.1002595161549
 21
775.74614777158422
 31
0.0
  0
CIRCLE
  5
7AAB
  8
DETAIL
  6
CONTINUOUS
 10
1403.9527025161549
 20
775.74614777158422
 30
0.0
 40
100.0
  0
LINE
  5
7AAC
  8
OUTLINE
  6
CONTINUOUS
 10
665.95270251615511
 20
623.74614777158422
 30
0.0
 11
2185.9527025161551
 21
623.74614777158422
 31
0.0
  0
LINE
  5
7AAD
  8
OUTLINE
  6
CONTINUOUS
 10
665.95270251615511
 20
905.74614777158411
 30
0.0
 11
2185.9527025161551
 21
905.74614777158411
 31
0.0
  0
LINE
  5
7AAE
  8
DETAIL
  6
CONTINUOUS
 10
665.95270251615511
 20
623.74614777158422
 30
0.0
 11
2185.9527025161551
 21
623.74614777158422
 31
0.0
  0
CIRCLE
  5
7AAF
  8
ARRANGE
  6
CONTINUOUS
 10
1425.9527025161549
 20
905.74614777158411
 30
0.0
 40
40.0
  0
LINE
  5
7AB0
  8
DETAIL
  6
CONTINUOUS
 10
665.95270251615511
 20
905.74614777158411
 30
0.0
 11
2185.9527025161551
 21
905.74614777158411
 31
0.0
  0
POINT
  5
7AB1
  8
ARRANGE
  6
CONTINUOUS
 10
1425.9527025161549
 20
905.74614777158411
 30
0.0
  0
CIRCLE
  5
7AB2
  8
SIZE
  6
CONTINUOUS
 10
1207.4295745161551
 20
905.74614777158411
 30
0.0
 40
6.0
  0
CIRCLE
  5
7AB3
  8
SIZE
  6
CONTINUOUS
 10
440.09440651615489
 20
905.74614777158411
 30
0.0
 40
6.0
  0
CIRCLE
  5
7AB4
  8
SIZE
  6
CONTINUOUS
 10
569.95967851615512
 20
905.74614777158411
 30
0.0
 40
6.0
  0
CIRCLE
  5
7AB5
  8
SIZE
  6
CONTINUOUS
 10
311.53770251615509
 20
905.74614777158411
 30
0.0
 40
6.0
  0
LINE
  5
7AB6
  8
SIZE
  6
BYBLOCK
 10
643.95270251615511
 20
902.74614777158422
 30
0.0
 11
643.95270251615511
 21
1223.740565771584
 31
0.0
  0
LINE
  5
7AB7
  8
SIZE
  6
BYBLOCK
 10
621.95270251615511
 20
880.24614777158422
 30
0.0
 11
621.95270251615511
 21
1352.8010157715839
 31
0.0
  0
LINE
  5
7AB8
  8
SIZE
  6
BYBLOCK
 10
710.952702516155
 20
780.74614777158411
 30
0.0
 11
710.952702516155
 21
999.19550677158418
 31
0.0
  0
LINE
  5
7AB9
  8
SIZE
  6
BYBLOCK
 10
795.95270251615511
 20
780.74614777158411
 30
0.0
 11
795.95270251615511
 21
999.19550677158418
 31
0.0
  0
LINE
  5
7ABA
  8
SIZE
  6
BYBLOCK
 10
710.952702516155
 20
780.74614777158411
 30
0.0
 11
710.952702516155
 21
999.19550677158418
 31
0.0
  0
LINE
  5
7ABB
  8
NOTE
  6
CONTINUOUS
 10
710.952702516155
 20
740.74614777158422
 30
0.0
 11
453.12001351615498
 21
965.15754277158419
 31
0.0
  0
LINE
  5
7ABC
  8
NOTE
  6
CONTINUOUS
 10
643.95270251615511
 20
862.74614777158422
 30
0.0
 11
444.28446751615508
 21
1100.221721771584
 31
0.0
  0
LINE
  5
7ABD
  8
NOTE
  6
CONTINUOUS
 10
795.95270251615511
 20
740.74614777158422
 30
0.0
 11
488.4621975161549
 21
1236.548183771584
 31
0.0
  0
LINE
  5
7ABE
  8
BASIS
  6
DASHDOT
 10
1425.9527025161549
 20
520.64143977158415
 30
0.0
 11
1425.9527025161549
 21
1023.0553357715841
 31
0.0
  0
LINE
  5
7ABF
  8
SIZE
  6
BYBLOCK
 10
645.95270251615511
 20
610.74614777158422
 30
0.0
 11
281.53770251615509
 21
610.74614777158422
 31
0.0
  0
LINE
  5
7AC0
  8
SIZE
  6
BYBLOCK
 10
645.95270251615511
 20
905.74614777158411
 30
0.0
 11
281.53770251615509
 21
905.74614777158411
 31
0.0
  0
TEXT
  5
7AC1
  8
SIZE
  6
BYBLOCK
 10
537.95967851615512
 20
754.67471877158425
 30
0.0
 40
64.0
  1
165
 50
90.0
 41
0.9
  0
LINE
  5
7AC2
  8
SIZE
  6
BYBLOCK
 10
730.95270251615511
 20
651.74614777158411
 30
0.0
 11
410.094702516155
 21
651.74614777158411
 31
0.0
  0
LINE
  5
7AC3
  8
SIZE
  6
BYBLOCK
 10
645.95270251615511
 20
905.74614777158411
 30
0.0
 11
410.094702516155
 21
905.74614777158411
 31
0.0
  0
LINE
  5
7AC4
  8
NOTE
  6
CONTINUOUS
 10
770.95270251615511
 20
651.74614777158411
 30
0.0
 11
463.98393251615522
 21
444.60031477158418
 31
0.0
  0
TEXT
  5
7AC5
  8
NOTE
  6
CONTINUOUS
 10
218.82370251615509
 20
469.2026987715841
 30
0.0
 40
64.0
  1
D âË32
 41
0.9
  0
LINE
  5
7AC6
  8
NOTE
  6
CONTINUOUS
 10
463.98393251615522
 20
444.60031477158418
 30
0.0
 11
193.32970251615501
 21
444.60031477158418
 31
0.0
  0
TEXT
  5
7AC7
  8
SIZE
  6
BYBLOCK
 10
279.53770251615509
 20
684.18900477158422
 30
0.0
 40
64.0
  1
295
 50
90.0
 41
0.9
  0
LINE
  5
7AC8
  8
SIZE
  6
BYBLOCK
 10
311.53770251615509
 20
612.74614777158422
 30
0.0
 11
311.53770251615509
 21
758.24614777158422
 31
0.0
  0
TEXT
  5
7AC9
  8
SIZE
  6
BYBLOCK
 10
408.094702516155
 20
703.31757677158407
 30
0.0
 40
64.0
  1
254
 50
90.0
 41
0.9
  0
LINE
  5
7ACA
  8
SIZE
  6
BYBLOCK
 10
440.09440651615489
 20
903.74614777158422
 30
0.0
 11
440.09440651615489
 21
653.74614777158422
 31
0.0
  0
CIRCLE
  5
7ACB
  8
SIZE
  6
CONTINUOUS
 10
311.53770251615509
 20
610.74614777158422
 30
0.0
 40
6.0
  0
CIRCLE
  5
7ACC
  8
SIZE
  6
CONTINUOUS
 10
440.09440651615489
 20
651.74614777158411
 30
0.0
 40
6.0
  0
LINE
  5
7ACD
  8
SIZE
  6
BYBLOCK
 10
311.53770251615509
 20
903.74614777158422
 30
0.0
 11
311.53770251615509
 21
758.24614777158422
 31
0.0
  0
LINE
  5
7ACE
  8
SIZE
  6
BYBLOCK
 10
665.95270251615511
 20
592.74614777158422
 30
0.0
 11
665.95270251615511
 21
0.0000007715841548
 31
0.0
  0
TEXT
  5
7ACF
  8
SIZE
  6
BYBLOCK
 10
740.895559516155
 20
208.79790777158411
 30
0.0
 40
64.0
  1
298
 41
0.9
  0
LINE
  5
7AD0
  8
SIZE
  6
BYBLOCK
 10
963.95270251615523
 20
603.74614777158422
 30
0.0
 11
963.95270251615523
 21
146.79790777158411
 31
0.0
  0
LINE
  5
7AD1
  8
SIZE
  6
BYBLOCK
 10
665.95270251615511
 20
590.74614777158422
 30
0.0
 11
665.95270251615511
 21
146.79790777158411
 31
0.0
  0
TEXT
  5
7AD2
  8
SIZE
  6
BYBLOCK
 10
1109.8955595161549
 20
208.79790777158411
 30
0.0
 40
64.0
  1
440
 41
0.9
  0
LINE
  5
7AD3
  8
SIZE
  6
BYBLOCK
 10
1403.9527025161549
 20
603.74614777158422
 30
0.0
 11
1403.9527025161549
 21
146.79790777158411
 31
0.0
  0
LINE
  5
7AD4
  8
SIZE
  6
BYBLOCK
 10
963.95270251615523
 20
603.74614777158422
 30
0.0
 11
963.95270251615523
 21
146.79790777158411
 31
0.0
  0
LINE
  5
7AD5
  8
SIZE
  6
BYBLOCK
 10
1403.9527025161549
 20
603.74614777158422
 30
0.0
 11
1403.9527025161549
 21
146.79790777158411
 31
0.0
  0
CIRCLE
  5
7AD6
  8
SIZE
  6
CONTINUOUS
 10
963.95270251615523
 20
176.79790777158411
 30
0.0
 40
6.0
  0
CIRCLE
  5
7AD7
  8
SIZE
  6
CONTINUOUS
 10
963.95270251615523
 20
176.79790777158411
 30
0.0
 40
6.0
  0
LINE
  5
7AD8
  8
SIZE
  6
BYBLOCK
 10
667.95270251615511
 20
30.000000771584151
 30
0.0
 11
1425.9527025161549
 21
30.000000771584151
 31
0.0
  0
LINE
  5
7AD9
  8
SIZE
  6
BYBLOCK
 10
667.95270251615511
 20
176.79790777158411
 30
0.0
 11
961.952702516155
 21
176.79790777158411
 31
0.0
  0
CIRCLE
  5
7ADA
  8
SIZE
  6
CONTINUOUS
 10
665.95270251615511
 20
30.000000771584151
 30
0.0
 40
6.0
  0
CIRCLE
  5
7ADB
  8
SIZE
  6
CONTINUOUS
 10
665.95270251615511
 20
176.79790777158411
 30
0.0
 40
6.0
  0
LINE
  5
7ADC
  8
SIZE
  6
BYBLOCK
 10
965.95270251615511
 20
176.79790777158411
 30
0.0
 11
1401.9527025161549
 21
176.79790777158411
 31
0.0
  0
CIRCLE
  5
7ADD
  8
SIZE
  6
CONTINUOUS
 10
1403.9527025161549
 20
176.79790777158411
 30
0.0
 40
6.0
  0
CIRCLE
  5
7ADE
  8
SIZE
  6
CONTINUOUS
 10
1403.9527025161549
 20
176.79790777158411
 30
0.0
 40
6.0
  0
LINE
  5
7ADF
  8
SIZE
  6
BYBLOCK
 10
881.95270251615511
 20
695.74614777158422
 30
0.0
 11
1237.4295745161551
 21
695.74614777158422
 31
0.0
  0
LINE
  5
7AE0
  8
SIZE
  6
BYBLOCK
 10
881.95270251615511
 20
657.74614777158422
 30
0.0
 11
1237.4295745161551
 21
657.74614777158422
 31
0.0
  0
LINE
  5
7AE1
  8
SIZE
  6
BYBLOCK
 10
881.95270251615511
 20
695.74614777158422
 30
0.0
 11
1237.4295745161551
 21
695.74614777158422
 31
0.0
  0
LINE
  5
7AE2
  8
NOTE
  6
CONTINUOUS
 10
986.56795451615505
 20
312.91555777158419
 30
0.0
 11
841.95270251615511
 21
657.74614777158422
 31
0.0
  0
LINE
  5
7AE3
  8
NOTE
  6
CONTINUOUS
 10
841.95270251615511
 20
695.74614777158422
 30
0.0
 11
986.56795451615505
 21
312.91555777158419
 31
0.0
  0
CIRCLE
  5
7AE4
  8
DETAIL
  6
CONTINUOUS
 10
963.95270251615523
 20
775.74614777158422
 30
0.0
 40
100.0
  0
LINE
  5
7AE5
  8
BASIS
  6
DASHDOT
 10
812.81406951615509
 20
775.74614777158422
 30
0.0
 11
1118.1372345161551
 21
775.74614777158422
 31
0.0
  0
LINE
  5
7AE6
  8
DETAIL
  6
CONTINUOUS
 10
665.95270251615511
 20
610.74614777158422
 30
0.0
 11
1025.9527025161549
 21
610.74614777158422
 31
0.0
  0
LINE
  5
7AE7
  8
SIZE
  6
BYBLOCK
 10
770.95270251615511
 20
611.74614777158422
 30
0.0
 11
770.95270251615511
 21
438.68796677158429
 31
0.0
  0
LINE
  5
7AE8
  8
SIZE
  6
BYBLOCK
 10
665.95270251615511
 20
590.74614777158422
 30
0.0
 11
665.95270251615511
 21
438.68796677158429
 31
0.0
  0
LINE
  5
7AE9
  8
SIZE
  6
BYBLOCK
 10
841.95270251615511
 20
617.74614777158422
 30
0.0
 11
841.95270251615511
 21
277.04869277158417
 31
0.0
  0
LINE
  5
7AEA
  8
SIZE
  6
BYBLOCK
 10
665.95270251615511
 20
590.74614777158422
 30
0.0
 11
665.95270251615511
 21
277.04869277158417
 31
0.0
  0
TEXT
  5
7AEB
  8
SIZE
  6
BYBLOCK
 10
649.88127351615515
 20
500.68796677158417
 30
0.0
 40
64.0
  1
105
 41
0.9
  0
LINE
  5
7AEC
  8
SIZE
  6
BYBLOCK
 10
770.95270251615511
 20
468.68796677158417
 30
0.0
 11
665.95270251615511
 21
468.68796677158417
 31
0.0
  0
TEXT
  5
7AED
  8
SIZE
  6
BYBLOCK
 10
686.75270251615507
 20
339.04869277158417
 30
0.0
 40
64.0
  1
176
 41
0.9
  0
LINE
  5
7AEE
  8
SIZE
  6
BYBLOCK
 10
667.95270251615511
 20
307.04869277158417
 30
0.0
 11
753.95270251615511
 21
307.04869277158417
 31
0.0
  0
CIRCLE
  5
7AEF
  8
SIZE
  6
CONTINUOUS
 10
665.95270251615511
 20
307.04869277158417
 30
0.0
 40
6.0
  0
CIRCLE
  5
7AF0
  8
SIZE
  6
CONTINUOUS
 10
665.95270251615511
 20
468.68796677158417
 30
0.0
 40
6.0
  0
LINE
  5
7AF1
  8
SIZE
  6
BYBLOCK
 10
663.95270251615511
 20
468.68796677158417
 30
0.0
 11
661.95270251615511
 21
468.68796677158417
 31
0.0
  0
CIRCLE
  5
7AF2
  8
SIZE
  6
CONTINUOUS
 10
841.95270251615511
 20
307.04869277158417
 30
0.0
 40
6.0
  0
LINE
  5
7AF3
  8
SIZE
  6
BYBLOCK
 10
839.95270251615511
 20
307.04869277158417
 30
0.0
 11
753.95270251615511
 21
307.04869277158417
 31
0.0
  0
CIRCLE
  5
7AF4
  8
SIZE
  6
CONTINUOUS
 10
770.95270251615511
 20
468.68796677158417
 30
0.0
 40
6.0
  0
LINE
  5
7AF5
  8
SIZE
  6
BYBLOCK
 10
772.95270251615511
 20
468.68796677158417
 30
0.0
 11
774.95270251615511
 21
468.68796677158417
 31
0.0
  0
LINE
  5
7AF6
  8
NOTE
  6
CONTINUOUS
 10
690.95270251615511
 20
740.74614777158422
 30
0.0
 11
730.95270251615511
 21
740.74614777158422
 31
0.0
  0
LINE
  5
7AF7
  8
NOTE
  6
CONTINUOUS
 10
710.952702516155
 20
720.74614777158422
 30
0.0
 11
710.952702516155
 21
760.74614777158422
 31
0.0
  0
POLYLINE
  5
7AF8
  8
NOTE
  6
CONTINUOUS
 66
     1
 10
0.0
 20
0.0
 30
0.0
  0
VERTEX
  5
9853
  8
NOTE
  6
CONTINUOUS
 10
675.21099251615499
 20
758.70527277158419
 30
0.0
  0
VERTEX
  5
9854
  8
NOTE
  6
CONTINUOUS
 10
710.952702516155
 20
740.74614777158422
 30
0.0
  0
VERTEX
  5
9855
  8
NOTE
  6
CONTINUOUS
 10
688.97903551615514
 20
774.17006077158408
 30
0.0
  0
SEQEND
  5
9856
  8
NOTE
  6
CONTINUOUS
  0
CIRCLE
  5
7AF9
  8
SIZE
  6
CONTINUOUS
 10
569.95967851615512
 20
740.74614777158422
 30
0.0
 40
6.0
  0
CIRCLE
  5
7AFA
  8
DETAIL
  6
CONTINUOUS
 10
710.952702516155
 20
740.74614777158422
 30
0.0
 40
9.5250000000000004
  0
LINE
  5
7AFB
  8
OUTLINE
  6
CONTINUOUS
 10
665.95270251615511
 20
623.74614777158422
 30
0.0
 11
665.95270251615511
 21
905.74614777158411
 31
0.0
  0
LINE
  5
7AFC
  8
DETAIL
  6
CONTINUOUS
 10
665.95270251615511
 20
610.74614777158422
 30
0.0
 11
665.95270251615511
 21
905.74614777158411
 31
0.0
  0
LINE
  5
7AFD
  8
SIZE
  6
BYBLOCK
 10
670.95270251615511
 20
740.74614777158422
 30
0.0
 11
539.95967851615512
 21
740.74614777158422
 31
0.0
  0
POLYLINE
  5
7AFE
  8
NOTE
  6
CONTINUOUS
 66
     1
 10
0.0
 20
0.0
 30
0.0
  0
VERTEX
  5
9857
  8
NOTE
  6
CONTINUOUS
 10
611.24162751615495
 20
885.76756277158415
 30
0.0
  0
VERTEX
  5
9858
  8
NOTE
  6
CONTINUOUS
 10
643.95270251615511
 20
862.74614777158422
 30
0.0
  0
VERTEX
  5
9859
  8
NOTE
  6
CONTINUOUS
 10
627.13478851615514
 20
899.03881577158427
 30
0.0
  0
SEQEND
  5
985A
  8
NOTE
  6
CONTINUOUS
  0
LINE
  5
7AFF
  8
SIZE
  6
BYBLOCK
 10
645.95270251615511
 20
905.74614777158411
 30
0.0
 11
539.95967851615512
 21
905.74614777158411
 31
0.0
  0
LINE
  5
7B00
  8
SIZE
  6
BYBLOCK
 10
569.95967851615512
 20
903.74614777158422
 30
0.0
 11
569.95967851615512
 21
742.74614777158422
 31
0.0
  0
LINE
  5
7B01
  8
NOTE
  6
CONTINUOUS
 10
623.952702516155
 20
862.74614777158422
 30
0.0
 11
663.95270251615511
 21
862.74614777158422
 31
0.0
  0
LINE
  5
7B02
  8
NOTE
  6
CONTINUOUS
 10
643.95270251615511
 20
842.74614777158422
 30
0.0
 11
643.95270251615511
 21
882.74614777158411
 31
0.0
  0
CIRCLE
  5
7B03
  8
FIX
  6
CONTINUOUS
 10
643.95270251615511
 20
862.74614777158422
 30
0.0
 40
5.0
  0
LINE
  5
7B04
  8
DETAIL
  6
CONTINUOUS
 10
621.95270251615511
 20
860.24614777158411
 30
0.0
 11
665.95270251615511
 21
860.24614777158411
 31
0.0
  0
LINE
  5
7B05
  8
DETAIL
  6
CONTINUOUS
 10
621.95270251615511
 20
865.24614777158422
 30
0.0
 11
665.95270251615511
 21
865.24614777158422
 31
0.0
  0
LINE
  5
7B06
  8
DETAIL
  6
CONTINUOUS
 10
621.95270251615511
 20
860.24614777158411
 30
0.0
 11
621.95270251615511
 21
865.24614777158422
 31
0.0
  0
LINE
  5
7B07
  8
NOTE
  6
CONTINUOUS
 10
795.95270251615511
 20
720.74614777158422
 30
0.0
 11
795.95270251615511
 21
760.74614777158422
 31
0.0
  0
POLYLINE
  5
7B08
  8
NOTE
  6
CONTINUOUS
 66
     1
 10
0.0
 20
0.0
 30
0.0
  0
VERTEX
  5
985B
  8
NOTE
  6
CONTINUOUS
 10
766.74764251615511
 20
768.07862777158425
 30
0.0
  0
VERTEX
  5
985C
  8
NOTE
  6
CONTINUOUS
 10
795.95270251615511
 20
740.74614777158422
 30
0.0
  0
VERTEX
  5
985D
  8
NOTE
  6
CONTINUOUS
 10
784.32661851615512
 20
779.0192997715842
 30
0.0
  0
SEQEND
  5
985E
  8
NOTE
  6
CONTINUOUS
  0
CIRCLE
  5
7B09
  8
DETAIL
  6
CONTINUOUS
 10
795.95270251615511
 20
740.74614777158422
 30
0.0
 40
4.7599999999999989
  0
LINE
  5
7B0A
  8
NOTE
  6
CONTINUOUS
 10
821.952702516155
 20
695.74614777158422
 30
0.0
 11
861.952702516155
 21
695.74614777158422
 31
0.0
  0
LINE
  5
7B0B
  8
NOTE
  6
CONTINUOUS
 10
821.952702516155
 20
657.74614777158422
 30
0.0
 11
861.952702516155
 21
657.74614777158422
 31
0.0
  0
POLYLINE
  5
7B0C
  8
NOTE
  6
CONTINUOUS
 66
     1
 10
0.0
 20
0.0
 30
0.0
  0
VERTEX
  5
985F
  8
NOTE
  6
CONTINUOUS
 10
866.26821251615502
 20
663.98522877158405
 30
0.0
  0
VERTEX
  5
9860
  8
NOTE
  6
CONTINUOUS
 10
841.95270251615511
 20
695.74614777158422
 30
0.0
  0
VERTEX
  5
9861
  8
NOTE
  6
CONTINUOUS
 10
847.13009151615506
 20
656.08262977158415
 30
0.0
  0
SEQEND
  5
9862
  8
NOTE
  6
CONTINUOUS
  0
POLYLINE
  5
7B0D
  8
NOTE
  6
CONTINUOUS
 66
     1
 10
0.0
 20
0.0
 30
0.0
  0
VERTEX
  5
9863
  8
NOTE
  6
CONTINUOUS
 10
867.81281251615508
 20
627.22968177158407
 30
0.0
  0
VERTEX
  5
9864
  8
NOTE
  6
CONTINUOUS
 10
841.95270251615511
 20
657.74614777158422
 30
0.0
  0
VERTEX
  5
9865
  8
NOTE
  6
CONTINUOUS
 10
849.08998151615515
 20
618.38805777158416
 30
0.0
  0
SEQEND
  5
9866
  8
NOTE
  6
CONTINUOUS
  0
CIRCLE
  5
7B0E
  8
DETAIL
  6
CONTINUOUS
 10
841.95270251615511
 20
657.74614777158422
 30
0.0
 40
13.5
  0
CIRCLE
  5
7B0F
  8
DETAIL
  6
CONTINUOUS
 10
841.95270251615511
 20
695.74614777158422
 30
0.0
 40
13.5
  0
LINE
  5
7B10
  8
NOTE
  6
CONTINUOUS
 10
770.95270251615511
 20
631.74614777158422
 30
0.0
 11
770.95270251615511
 21
671.74614777158422
 31
0.0
  0
LINE
  5
7B11
  8
NOTE
  6
CONTINUOUS
 10
841.95270251615511
 20
637.74614777158422
 30
0.0
 11
841.95270251615511
 21
677.74614777158422
 31
0.0
  0
CIRCLE
  5
7B12
  8
DETAIL
  6
CONTINUOUS
 10
770.95270251615511
 20
651.74614777158411
 30
0.0
 40
16.0
  0
LINE
  5
7B13
  8
NOTE
  6
CONTINUOUS
 10
750.95270251615511
 20
651.74614777158411
 30
0.0
 11
790.95270251615511
 21
651.74614777158411
 31
0.0
  0
POLYLINE
  5
7B14
  8
NOTE
  6
CONTINUOUS
 66
     1
 10
0.0
 20
0.0
 30
0.0
  0
VERTEX
  5
9867
  8
NOTE
  6
CONTINUOUS
 10
744.34015751615505
 20
621.88358777158408
 30
0.0
  0
VERTEX
  5
9868
  8
NOTE
  6
CONTINUOUS
 10
770.95270251615511
 20
651.74614777158411
 30
0.0
  0
VERTEX
  5
9869
  8
NOTE
  6
CONTINUOUS
 10
732.97428351615508
 20
639.19068477158419
 30
0.0
  0
SEQEND
  5
986A
  8
NOTE
  6
CONTINUOUS
  0
LINE
  5
7B15
  8
NOTE
  6
CONTINUOUS
 10
775.95270251615511
 20
740.74614777158422
 30
0.0
 11
815.95270251615511
 21
740.74614777158422
 31
0.0
  0
LINE
  5
7B16
  8
NOTE
  6
CONTINUOUS
 10
841.95270251615511
 20
675.74614777158422
 30
0.0
 11
841.95270251615511
 21
715.74614777158422
 31
0.0
  0
TEXT
  5
7B17
  8
SIZE
  6
BYBLOCK
 10
1175.4295745161551
 20
510.55917977158418
 30
0.0
 40
64.0
  1
38
 50
90.0
 41
0.9
  0
LINE
  5
7B18
  8
SIZE
  6
CONTINUOUS
 10
1207.4295745161551
 20
657.74614777158422
 30
0.0
 11
1207.4295745161551
 21
500.11226677158419
 31
0.0
  0
TEXT
  5
7B19
  8
NOTE
  6
CONTINUOUS
 10
990.01604751615525
 20
332.91765777158417
 30
0.0
 40
64.0
  1
EL 2-âË27
 41
0.9
  0
LINE
  5
7B1A
  8
NOTE
  6
CONTINUOUS
 10
986.56795451615505
 20
312.91555777158419
 30
0.0
 11
1394.2512665161551
 21
312.91555777158419
 31
0.0
  0
LINE
  5
7B1B
  8
DETAIL
  6
CONTINUOUS
 10
1052.9527025161549
 20
610.74614777158422
 30
0.0
 11
1412.9527025161549
 21
610.74614777158422
 31
0.0
  0
TEXT
  5
7B1C
  8
SIZE
  6
BYBLOCK
 10
1175.4295745161551
 20
732.17471877158425
 30
0.0
 40
64.0
  1
210
 50
90.0
 41
0.9
  0
LINE
  5
7B1D
  8
BASIS
  6
DASHDOT
 10
963.95270251615523
 20
623.74614777158422
 30
0.0
 11
963.95270251615523
 21
905.74614777158411
 31
0.0
  0
LINE
  5
7B1E
  8
DETAIL
  6
CONTINUOUS
 10
1052.9527025161549
 20
610.74614777158422
 30
0.0
 11
1052.9527025161549
 21
623.74614777158422
 31
0.0
  0
LINE
  5
7B1F
  8
DETAIL
  6
CONTINUOUS
 10
1025.9527025161549
 20
610.74614777158422
 30
0.0
 11
1025.9527025161549
 21
623.74614777158422
 31
0.0
  0
LINE
  5
7B20
  8
SIZE
  6
BYBLOCK
 10
1207.4295745161551
 20
903.74614777158422
 30
0.0
 11
1207.4295745161551
 21
697.74614777158411
 31
0.0
  0
LINE
  5
7B21
  8
BASIS
  6
DASHDOT
 10
1403.9527025161549
 20
623.74614777158422
 30
0.0
 11
1403.9527025161549
 21
905.74614777158411
 31
0.0
  0
CIRCLE
  5
7B22
  8
SIZE
  6
CONTINUOUS
 10
1207.4295745161551
 20
657.74614777158422
 30
0.0
 40
6.0
  0
LINE
  5
7B23
  8
SIZE
  6
BYBLOCK
 10
1207.4295745161551
 20
657.74614777158422
 30
0.0
 11
1207.4295745161551
 21
695.74614777158422
 31
0.0
  0
LINE
  5
7B24
  8
SIZE
  6
BYBLOCK
 10
1207.4295745161551
 20
655.74614777158411
 30
0.0
 11
1207.4295745161551
 21
653.74614777158422
 31
0.0
  0
CIRCLE
  5
7B25
  8
SIZE
  6
CONTINUOUS
 10
1207.4295745161551
 20
695.74614777158422
 30
0.0
 40
6.0
  0
CIRCLE
  5
7B26
  8
SIZE
  6
CONTINUOUS
 10
1207.4295745161551
 20
695.74614777158422
 30
0.0
 40
6.0
  0
LINE
  5
7B27
  8
SIZE
  6
BYBLOCK
 10
1207.4295745161551
 20
697.74614777158411
 30
0.0
 11
1207.4295745161551
 21
699.74614777158422
 31
0.0
  0
LINE
  5
7B28
  8
DETAIL
  6
CONTINUOUS
 10
1412.9527025161549
 20
610.74614777158422
 30
0.0
 11
1412.9527025161549
 21
623.74614777158422
 31
0.0
  0
LINE
  5
7B29
  8
SIZE
  6
BYBLOCK
 10
1220.338092516155
 20
905.74614777158411
 30
0.0
 11
1237.4295745161551
 21
905.74614777158411
 31
0.0
  0
TEXT
  5
7B2A
  8
NOTE
  6
CONTINUOUS
 10
118.9717025161551
 20
1257.3794997715841
 30
0.0
 40
64.0
  1
RL âË9.52
 41
0.9
  0
TEXT
  5
7B2B
  8
NOTE
  6
CONTINUOUS
 10
21.244982516155229
 20
989.69681277158418
 30
0.0
 40
64.0
  1
RG âË19.05
 41
0.9
  0
LINE
  5
7B2C
  8
NOTE
  6
CONTINUOUS
 10
453.12001351615498
 20
965.15754277158419
 30
0.0
 11
0.0000025161550639
 21
965.15754277158419
 31
0.0
  0
TEXT
  5
7B2D
  8
NOTE
  6
CONTINUOUS
 10
335.67070251615519
 20
1108.666895771584
 30
0.0
 40
64.0
  1
AH
 41
0.9
  0
LINE
  5
7B2E
  8
NOTE
  6
CONTINUOUS
 10
444.28446751615508
 20
1100.221721771584
 30
0.0
 11
308.05270251615502
 21
1100.221721771584
 31
0.0
  0
LINE
  5
7B2F
  8
NOTE
  6
CONTINUOUS
 10
488.4621975161549
 20
1236.548183771584
 30
0.0
 11
111.0577025161551
 21
1236.548183771584
 31
0.0
  0
LINE
  5
7B30
  8
SIZE
  6
BYBLOCK
 10
645.95270251615511
 20
1193.740565771584
 30
0.0
 11
1425.9527025161549
 21
1193.740565771584
 31
0.0
  0
LINE
  5
7B31
  8
SIZE
  6
BYBLOCK
 10
623.952702516155
 20
1322.8010157715839
 30
0.0
 11
1425.9527025161549
 21
1322.8010157715839
 31
0.0
  0
LINE
  5
7B32
  8
SIZE
  6
CONTINUOUS
 10
795.95270251615511
 20
969.19550677158406
 30
0.0
 11
978.01128251615501
 21
969.19550677158406
 31
0.0
  0
TEXT
  5
7B33
  8
SIZE
  6
BYBLOCK
 10
641.82413151615515
 20
1001.195506771584
 30
0.0
 40
64.0
  1
45
 41
0.9
  0
LINE
  5
7B34
  8
SIZE
  6
BYBLOCK
 10
795.95270251615511
 20
969.19550677158406
 30
0.0
 11
710.952702516155
 21
969.19550677158406
 31
0.0
  0
LINE
  5
7B35
  8
SIZE
  6
BYBLOCK
 10
665.95270251615511
 20
925.74614777158433
 30
0.0
 11
665.95270251615511
 21
999.19550677158418
 31
0.0
  0
CIRCLE
  5
7B36
  8
SIZE
  6
CONTINUOUS
 10
665.95270251615511
 20
969.19550677158406
 30
0.0
 40
6.0
  0
LINE
  5
7B37
  8
SIZE
  6
BYBLOCK
 10
710.952702516155
 20
969.19550677158406
 30
0.0
 11
665.95270251615511
 21
969.19550677158406
 31
0.0
  0
LINE
  5
7B38
  8
SIZE
  6
BYBLOCK
 10
663.95270251615511
 20
969.19550677158406
 30
0.0
 11
661.95270251615511
 21
969.19550677158406
 31
0.0
  0
CIRCLE
  5
7B39
  8
SIZE
  6
CONTINUOUS
 10
710.952702516155
 20
969.19550677158406
 30
0.0
 40
6.0
  0
CIRCLE
  5
7B3A
  8
SIZE
  6
CONTINUOUS
 10
710.952702516155
 20
969.19550677158406
 30
0.0
 40
6.0
  0
LINE
  5
7B3B
  8
SIZE
  6
BYBLOCK
 10
712.95270251615511
 20
969.19550677158406
 30
0.0
 11
714.95270251615511
 21
969.19550677158406
 31
0.0
  0
LINE
  5
7B3C
  8
SIZE
  6
BYBLOCK
 10
708.95270251615511
 20
969.19550677158406
 30
0.0
 11
706.952702516155
 21
969.19550677158406
 31
0.0
  0
CIRCLE
  5
7B3D
  8
SIZE
  6
CONTINUOUS
 10
643.95270251615511
 20
1193.740565771584
 30
0.0
 40
6.0
  0
TEXT
  5
7B3E
  8
SIZE
  6
BYBLOCK
 10
835.8275725161551
 20
1001.195506771584
 30
0.0
 40
64.0
  1
85
 41
0.9
  0
CIRCLE
  5
7B3F
  8
SIZE
  6
CONTINUOUS
 10
795.95270251615511
 20
969.19550677158406
 30
0.0
 40
6.0
  0
LINE
  5
7B40
  8
SIZE
  6
BYBLOCK
 10
797.95270251615511
 20
969.19550677158406
 30
0.0
 11
799.95270251615511
 21
969.19550677158406
 31
0.0
  0
CIRCLE
  5
7B41
  8
SIZE
  6
CONTINUOUS
 10
621.95270251615511
 20
1322.8010157715839
 30
0.0
 40
6.0
  0
CIRCLE
  5
7B42
  8
SIZE
  6
CONTINUOUS
 10
2567.9177025161548
 20
905.74614777158411
 30
0.0
 40
6.0
  0
CIRCLE
  5
7B43
  8
SIZE
  6
CONTINUOUS
 10
2377.0551145161548
 20
905.74614777158411
 30
0.0
 40
6.0
  0
LINE
  5
7B44
  8
SIZE
  6
BYBLOCK
 10
2207.9527025161551
 20
902.74614777158422
 30
0.0
 11
2207.9527025161551
 21
1223.740565771584
 31
0.0
  0
LINE
  5
7B45
  8
SIZE
  6
BYBLOCK
 10
2229.9527025161551
 20
880.24614777158422
 30
0.0
 11
2229.9527025161551
 21
1352.8010157715839
 31
0.0
  0
TEXT
  5
7B46
  8
SIZE
  6
BYBLOCK
 10
2535.9177025161548
 20
772.17471877158425
 30
0.0
 40
64.0
  1
130
 50
90.0
 41
0.9
  0
LINE
  5
7B47
  8
SIZE
  6
BYBLOCK
 10
1943.9527025161549
 20
795.74614777158422
 30
0.0
 11
1943.9527025161549
 21
1012.558720771584
 31
0.0
  0
LINE
  5
7B48
  8
SIZE
  6
BYBLOCK
 10
1743.9527025161549
 20
795.74614777158422
 30
0.0
 11
1743.9527025161549
 21
1012.558720771584
 31
0.0
  0
LINE
  5
7B49
  8
SIZE
  6
CONTINUOUS
 10
2377.0551145161548
 20
905.74614777158411
 30
0.0
 11
2377.0551145161548
 21
1018.5515097715841
 31
0.0
  0
LINE
  5
7B4A
  8
SIZE
  6
BYBLOCK
 10
2247.9527025161551
 20
862.74614777158422
 30
0.0
 11
2407.0551145161548
 21
862.74614777158422
 31
0.0
  0
LINE
  5
7B4B
  8
SIZE
  6
BYBLOCK
 10
2205.9527025161542
 20
905.74614777158411
 30
0.0
 11
2407.0551145161548
 21
905.74614777158411
 31
0.0
  0
TEXT
  5
7B4C
  8
SIZE
  6
BYBLOCK
 10
2355.5795245161548
 20
666.51672877158421
 30
0.0
 40
64.0
  1
13
 50
90.0
 41
0.9
  0
LINE
  5
7B4D
  8
SIZE
  6
BYBLOCK
 10
2205.9527025161542
 20
610.74614777158422
 30
0.0
 11
2406.7296095161551
 21
610.74614777158422
 31
0.0
  0
LINE
  5
7B4E
  8
SIZE
  6
BYBLOCK
 10
2205.9527025161542
 20
623.74614777158422
 30
0.0
 11
2406.7296095161551
 21
623.74614777158422
 31
0.0
  0
LINE
  5
7B4F
  8
SIZE
  6
BYBLOCK
 10
2003.510321516155
 20
775.74614777158422
 30
0.0
 11
2597.9177025161548
 21
775.74614777158422
 31
0.0
  0
LINE
  5
7B50
  8
SIZE
  6
BYBLOCK
 10
2205.9527025161542
 20
905.74614777158411
 30
0.0
 11
2597.9177025161548
 21
905.74614777158411
 31
0.0
  0
LINE
  5
7B51
  8
NOTE
  6
CONTINUOUS
 10
2349.9386025161548
 20
419.83929977158408
 30
0.0
 11
2820.9757025161548
 21
419.83929977158408
 31
0.0
  0
LINE
  5
7B52
  8
SIZE
  6
BYBLOCK
 10
2185.9527025161551
 20
592.74614777158422
 30
0.0
 11
2185.9527025161551
 21
0.0000007715841548
 31
0.0
  0
TEXT
  5
7B53
  8
SIZE
  6
BYBLOCK
 10
1549.8955595161549
 20
208.79790777158411
 30
0.0
 40
64.0
  1
440
 41
0.9
  0
LINE
  5
7B54
  8
SIZE
  6
BYBLOCK
 10
1843.9527025161549
 20
603.74614777158422
 30
0.0
 11
1843.9527025161549
 21
146.79790777158411
 31
0.0
  0
CIRCLE
  5
7B55
  8
SIZE
  6
CONTINUOUS
 10
1843.9527025161549
 20
176.79790777158411
 30
0.0
 40
6.0
  0
CIRCLE
  5
7B56
  8
SIZE
  6
CONTINUOUS
 10
2185.9527025161551
 20
30.000000771584151
 30
0.0
 40
6.0
  0
LINE
  5
7B57
  8
SIZE
  6
BYBLOCK
 10
2183.9527025161551
 20
458.41586577158421
 30
0.0
 11
1827.9527025161549
 21
458.41586577158421
 31
0.0
  0
LINE
  5
7B58
  8
BASIS
  6
DASHDOT
 10
1702.613009516155
 20
775.74614777158422
 30
0.0
 11
1983.510321516155
 21
775.74614777158422
 31
0.0
  0
CIRCLE
  5
7B59
  8
DETAIL
  6
CONTINUOUS
 10
1843.9527025161549
 20
775.74614777158422
 30
0.0
 40
100.0
  0
LINE
  5
7B5A
  8
DETAIL
  6
CONTINUOUS
 10
1825.9527025161549
 20
610.74614777158422
 30
0.0
 11
2185.9527025161551
 21
610.74614777158422
 31
0.0
  0
LINE
  5
7B5B
  8
SIZE
  6
BYBLOCK
 10
1825.9527025161549
 20
592.74614777158422
 30
0.0
 11
1825.9527025161549
 21
428.41586577158421
 31
0.0
  0
CIRCLE
  5
7B5C
  8
SIZE
  6
CONTINUOUS
 10
1825.9527025161549
 20
458.41586577158421
 30
0.0
 40
6.0
  0
LINE
  5
7B5D
  8
DETAIL
  6
CONTINUOUS
 10
1438.9527025161549
 20
610.74614777158422
 30
0.0
 11
1798.9527025161549
 21
610.74614777158422
 31
0.0
  0
LINE
  5
7B5E
  8
DETAIL
  6
CONTINUOUS
 10
1438.9527025161549
 20
610.74614777158422
 30
0.0
 11
1438.9527025161549
 21
623.74614777158422
 31
0.0
  0
LINE
  5
7B5F
  8
BASIS
  6
DASHDOT
 10
1843.9527025161549
 20
623.74614777158422
 30
0.0
 11
1843.9527025161549
 21
905.74614777158411
 31
0.0
  0
LINE
  5
7B60
  8
DETAIL
  6
CONTINUOUS
 10
1798.9527025161549
 20
610.74614777158422
 30
0.0
 11
1798.9527025161549
 21
623.74614777158422
 31
0.0
  0
LINE
  5
7B61
  8
DETAIL
  6
CONTINUOUS
 10
1825.9527025161549
 20
610.74614777158422
 30
0.0
 11
1825.9527025161549
 21
623.74614777158422
 31
0.0
  0
LINE
  5
7B62
  8
SIZE
  6
BYBLOCK
 10
2185.9527025161551
 20
592.74614777158422
 30
0.0
 11
2185.9527025161551
 21
428.41586577158421
 31
0.0
  0
LINE
  5
7B63
  8
NOTE
  6
CONTINUOUS
 10
2207.9527025161551
 20
862.74614777158422
 30
0.0
 11
2349.9386025161548
 21
419.83929977158408
 31
0.0
  0
TEXT
  5
7B64
  8
SIZE
  6
BYBLOCK
 10
1931.8955595161549
 20
490.41586577158421
 30
0.0
 40
64.0
  1
360
 41
0.9
  0
CIRCLE
  5
7B65
  8
SIZE
  6
CONTINUOUS
 10
2185.9527025161551
 20
458.41586577158421
 30
0.0
 40
6.0
  0
LINE
  5
7B66
  8
OUTLINE
  6
CONTINUOUS
 10
2185.9527025161551
 20
623.74614777158422
 30
0.0
 11
2185.9527025161551
 21
905.74614777158411
 31
0.0
  0
LINE
  5
7B67
  8
DETAIL
  6
CONTINUOUS
 10
2185.9527025161551
 20
610.74614777158422
 30
0.0
 11
2185.9527025161551
 21
905.74614777158411
 31
0.0
  0
POLYLINE
  5
7B68
  8
NOTE
  6
CONTINUOUS
 66
     1
 10
0.0
 20
0.0
 30
0.0
  0
VERTEX
  5
986B
  8
NOTE
  6
CONTINUOUS
 10
2230.1325255161551
 20
829.45868077158411
 30
0.0
  0
VERTEX
  5
986C
  8
NOTE
  6
CONTINUOUS
 10
2207.9527025161551
 20
862.74614777158422
 30
0.0
  0
VERTEX
  5
986D
  8
NOTE
  6
CONTINUOUS
 10
2210.517258516154
 20
822.82844477158426
 30
0.0
  0
SEQEND
  5
986E
  8
NOTE
  6
CONTINUOUS
  0
LINE
  5
7B69
  8
NOTE
  6
CONTINUOUS
 10
2187.9527025161551
 20
862.74614777158422
 30
0.0
 11
2227.9527025161551
 21
862.74614777158422
 31
0.0
  0
LINE
  5
7B6A
  8
NOTE
  6
CONTINUOUS
 10
2207.9527025161551
 20
842.74614777158422
 30
0.0
 11
2207.9527025161551
 21
882.74614777158411
 31
0.0
  0
CIRCLE
  5
7B6B
  8
FIX
  6
CONTINUOUS
 10
2207.9527025161551
 20
862.74614777158422
 30
0.0
 40
5.0
  0
LINE
  5
7B6C
  8
DETAIL
  6
CONTINUOUS
 10
2185.9527025161551
 20
865.24614777158422
 30
0.0
 11
2229.9527025161551
 21
865.24614777158422
 31
0.0
  0
LINE
  5
7B6D
  8
DETAIL
  6
CONTINUOUS
 10
2185.9527025161551
 20
860.24614777158411
 30
0.0
 11
2229.9527025161551
 21
860.24614777158411
 31
0.0
  0
LINE
  5
7B6E
  8
DETAIL
  6
CONTINUOUS
 10
2229.9527025161551
 20
860.24614777158411
 30
0.0
 11
2229.9527025161551
 21
865.24614777158422
 31
0.0
  0
TEXT
  5
7B6F
  8
NOTE
  6
CONTINUOUS
 10
2372.7063745161549
 20
435.81706477158423
 30
0.0
 40
64.0
  1
AH 4-âË10
 41
0.9
  0
LINE
  5
7B70
  8
SIZE
  6
CONTINUOUS
 10
2376.7296095161551
 20
627.74614777158422
 30
0.0
 11
2376.7296095161551
 21
766.27706277158416
 31
0.0
  0
CIRCLE
  5
7B71
  8
SIZE
  6
CONTINUOUS
 10
2376.7296095161551
 20
610.74614777158422
 30
0.0
 40
6.0
  0
CIRCLE
  5
7B72
  8
SIZE
  6
CONTINUOUS
 10
2376.7296095161551
 20
623.74614777158422
 30
0.0
 40
6.0
  0
LINE
  5
7B73
  8
SIZE
  6
BYBLOCK
 10
2376.7296095161551
 20
610.74614777158422
 30
0.0
 11
2376.7296095161551
 21
623.74614777158422
 31
0.0
  0
LINE
  5
7B74
  8
SIZE
  6
BYBLOCK
 10
2376.7296095161551
 20
625.74614777158422
 30
0.0
 11
2376.7296095161551
 21
627.74614777158422
 31
0.0
  0
LINE
  5
7B75
  8
SIZE
  6
BYBLOCK
 10
2376.7296095161551
 20
608.74614777158422
 30
0.0
 11
2376.7296095161551
 21
606.74614777158422
 31
0.0
  0
CIRCLE
  5
7B76
  8
SIZE
  6
CONTINUOUS
 10
2377.0551145161548
 20
862.74614777158422
 30
0.0
 40
6.0
  0
LINE
  5
7B77
  8
SIZE
  6
BYBLOCK
 10
2377.0551145161548
 20
862.74614777158422
 30
0.0
 11
2377.0551145161548
 21
905.74614777158411
 31
0.0
  0
LINE
  5
7B78
  8
SIZE
  6
BYBLOCK
 10
2377.0551145161548
 20
860.74614777158422
 30
0.0
 11
2377.0551145161548
 21
858.74614777158433
 31
0.0
  0
LINE
  5
7B79
  8
SIZE
  6
BYBLOCK
 10
2567.9177025161548
 20
775.74614777158422
 30
0.0
 11
2567.9177025161548
 21
905.74614777158411
 31
0.0
  0
CIRCLE
  5
7B7A
  8
SIZE
  6
CONTINUOUS
 10
2567.9177025161548
 20
775.74614777158422
 30
0.0
 40
6.0
  0
LINE
  5
7B7B
  8
SIZE
  6
BYBLOCK
 10
2567.9177025161548
 20
773.74614777158422
 30
0.0
 11
2567.9177025161548
 21
771.74614777158422
 31
0.0
  0
TEXT
  5
7B7C
  8
SIZE
  6
BYBLOCK
 10
1741.0955595161549
 20
1014.558720771584
 30
0.0
 40
64.0
  1
âË200
 41
0.9
  0
LINE
  5
7B7D
  8
SIZE
  6
BYBLOCK
 10
1943.9527025161549
 20
982.55872077158426
 30
0.0
 11
1743.9527025161549
 21
982.55872077158426
 31
0.0
  0
CIRCLE
  5
7B7E
  8
SIZE
  6
CONTINUOUS
 10
1743.9527025161549
 20
982.55872077158426
 30
0.0
 40
6.0
  0
LINE
  5
7B7F
  8
SIZE
  6
BYBLOCK
 10
1741.9527025161549
 20
982.55872077158426
 30
0.0
 11
1739.9527025161549
 21
982.55872077158426
 31
0.0
  0
CIRCLE
  5
7B80
  8
SIZE
  6
CONTINUOUS
 10
1943.9527025161549
 20
982.55872077158426
 30
0.0
 40
6.0
  0
LINE
  5
7B81
  8
SIZE
  6
BYBLOCK
 10
1945.9527025161549
 20
982.55872077158426
 30
0.0
 11
1947.9527025161549
 21
982.55872077158426
 31
0.0
  0
TEXT
  5
7B82
  8
SIZE
  6
BYBLOCK
 10
2345.0551145161548
 20
915.27750677158406
 30
0.0
 40
64.0
  1
43
 50
90.0
 41
0.9
  0
CIRCLE
  5
7B83
  8
SIZE
  6
CONTINUOUS
 10
2207.9527025161551
 20
1193.740565771584
 30
0.0
 40
6.0
  0
CIRCLE
  5
7B84
  8
SIZE
  6
CONTINUOUS
 10
2229.9527025161551
 20
1322.8010157715839
 30
0.0
 40
6.0
  0
TEXT
  5
7B85
  8
ETC
  6
CONTINUOUS
 10
2512.3057025161552
 20
1475.145412771584
 30
0.0
 40
64.0
  1
PCA0023
 41
0.9
  0
LINE
  5
7B86
  8
SIZE
  6
BYBLOCK
 10
2377.0551145161548
 20
907.74614777158411
 30
0.0
 11
2377.0551145161548
 21
909.74614777158422
 31
0.0
  0
LINE
  5
7B87
  8
SIZE
  6
BYBLOCK
 10
2567.9177025161548
 20
907.74614777158411
 30
0.0
 11
2567.9177025161548
 21
909.74614777158422
 31
0.0
  0
TEXT
  5
7B88
  8
ETC
  6
CONTINUOUS
 10
2517.6668425161552
 20
1354.5157667715839
 30
0.0
 40
64.0
  1
PAC
 41
0.9
  0
ENDBLK
  5
7B8A
  8
0
  0
BLOCK
  8
0
  2
*D7
 70
     1
 10
0.0
 20
0.0
 30
0.0
  3
*D7
  1

  0
LINE
  5
9542
  8
SIZE
  6
CONTINUOUS
 62
     0
 10
18822.832422324678
 20
433.38147511529309
 30
0.0
 11
18429.346314744551
 21
433.38147511529331
 31
0.0
  0
LINE
  5
9543
  8
SIZE
  6
CONTINUOUS
 62
     0
 10
19002.832422324678
 20
367.38147511529309
 30
0.0
 11
18429.346314744551
 21
367.38147511529331
 31
0.0
  0
LINE
  5
9544
  8
SIZE
  6
CONTINUOUS
 62
     0
 10
18449.346314744551
 20
357.38147511529331
 30
0.0
 11
18449.346314744551
 21
347.38147511529331
 31
0.0
  0
LINE
  5
9545
  8
SIZE
  6
CONTINUOUS
 62
     0
 10
18449.346314744551
 20
443.3814751152932
 30
0.0
 11
18449.346314744551
 21
563.89576082957899
 31
0.0
  0
LINE
  5
9546
  8
SIZE
  6
CONTINUOUS
 62
     0
 10
18449.346314744551
 20
367.38147511529331
 30
0.0
 11
18449.346314744551
 21
433.38147511529331
 31
0.0
  0
INSERT
  5
9547
  8
SIZE
  6
CONTINUOUS
 62
     0
  2
_ORIGIN
 10
18449.346314744551
 20
367.38147511529331
 30
0.0
 41
10.0
 42
10.0
 43
10.0
 50
90.0
  0
INSERT
  5
9548
  8
SIZE
  6
CONTINUOUS
 62
     0
  2
_ORIGIN
 10
18449.346314744551
 20
433.38147511529331
 30
0.0
 41
10.0
 42
10.0
 43
10.0
 50
270.0
  0
TEXT
  5
9549
  8
SIZE
  6
CONTINUOUS
 62
     0
 10
18439.346314744551
 20
463.38147511529621
 30
0.0
 40
64.0
  1
66
 50
90.0
 41
0.9
  0
POINT
  5
954A
  8
DEFPOINTS
  6
CONTINUOUS
 62
     0
 10
18842.832422324678
 20
433.38147511529309
 30
0.0
  0
POINT
  5
954B
  8
DEFPOINTS
  6
CONTINUOUS
 62
     0
 10
19022.832422324678
 20
367.38147511529309
 30
0.0
  0
POINT
  5
954C
  8
DEFPOINTS
  6
CONTINUOUS
 62
     0
 10
18449.346314744551
 20
367.38147511529331
 30
0.0
  0
ENDBLK
  5
9541
  8
0
  0
BLOCK
  8
0
  2
*D8
 70
     1
 10
0.0
 20
0.0
 30
0.0
  3
*D8
  1

  0
LINE
  5
9567
  8
SIZE
  6
CONTINUOUS
 62
     0
 10
18822.832422324678
 20
433.38147511529309
 30
0.0
 11
18308.133676694299
 21
433.38147511529331
 31
0.0
  0
LINE
  5
9568
  8
SIZE
  6
CONTINUOUS
 62
     0
 10
19087.832422324678
 20
361.38147511529309
 30
0.0
 11
18308.133676694299
 21
361.38147511529331
 31
0.0
  0
LINE
  5
9569
  8
SIZE
  6
CONTINUOUS
 62
     0
 10
18328.133676694291
 20
351.38147511529331
 30
0.0
 11
18328.133676694291
 21
341.38147511529331
 31
0.0
  0
LINE
  5
956A
  8
SIZE
  6
CONTINUOUS
 62
     0
 10
18328.133676694291
 20
443.38147511529331
 30
0.0
 11
18328.133676694291
 21
571.16589784929852
 31
0.0
  0
LINE
  5
956B
  8
SIZE
  6
CONTINUOUS
 62
     0
 10
18328.133676694291
 20
361.38147511529331
 30
0.0
 11
18328.133676694291
 21
433.38147511529331
 31
0.0
  0
INSERT
  5
956C
  8
SIZE
  6
CONTINUOUS
 62
     0
  2
_ORIGIN
 10
18328.133676694291
 20
361.38147511529331
 30
0.0
 41
10.0
 42
10.0
 43
10.0
 50
90.0
  0
INSERT
  5
956D
  8
SIZE
  6
CONTINUOUS
 62
     0
  2
_ORIGIN
 10
18328.133676694291
 20
433.38147511529331
 30
0.0
 41
10.0
 42
10.0
 43
10.0
 50
270.0
  0
TEXT
  5
956E
  8
SIZE
  6
CONTINUOUS
 62
     0
 10
18318.133676694291
 20
467.90875499215861
 30
0.0
 40
64.0
  1
72
 50
90.0
 41
0.9
  0
POINT
  5
956F
  8
DEFPOINTS
  6
CONTINUOUS
 62
     0
 10
18842.832422324678
 20
433.38147511529309
 30
0.0
  0
POINT
  5
9570
  8
DEFPOINTS
  6
CONTINUOUS
 62
     0
 10
19107.832422324678
 20
361.38147511529309
 30
0.0
  0
POINT
  5
9571
  8
DEFPOINTS
  6
CONTINUOUS
 62
     0
 10
18328.133676694291
 20
361.38147511529331
 30
0.0
  0
ENDBLK
  5
955B
  8
0
  0
BLOCK
  8
0
  2
*D9
 70
     1
 10
0.0
 20
0.0
 30
0.0
  3
*D9
  1

  0
LINE
  5
9586
  8
SIZE
  6
CONTINUOUS
 62
     0
 10
16226.1132760703
 20
-1572.664885381156
 30
0.0
 11
16226.1132760703
 21
-1227.155245329486
 31
0.0
  0
LINE
  5
9587
  8
SIZE
  6
CONTINUOUS
 62
     0
 10
16249.1132760703
 20
-1585.664885381156
 30
0.0
 11
16249.1132760703
 21
-1227.155245329486
 31
0.0
  0
LINE
  5
9588
  8
SIZE
  6
CONTINUOUS
 62
     0
 10
16259.1132760703
 20
-1247.155245329486
 30
0.0
 11
16269.1132760703
 21
-1247.155245329486
 31
0.0
  0
LINE
  5
9589
  8
SIZE
  6
CONTINUOUS
 62
     0
 10
16216.1132760703
 20
-1247.155245329486
 30
0.0
 11
16092.85613321315
 21
-1247.155245329486
 31
0.0
  0
LINE
  5
958A
  8
SIZE
  6
CONTINUOUS
 62
     0
 10
16249.1132760703
 20
-1247.155245329486
 30
0.0
 11
16226.1132760703
 21
-1247.155245329486
 31
0.0
  0
INSERT
  5
958B
  8
SIZE
  6
CONTINUOUS
 62
     0
  2
_ORIGIN
 10
16249.1132760703
 20
-1247.155245329486
 30
0.0
 41
10.0
 42
10.0
 43
10.0
 50
180.0
  0
INSERT
  5
958C
  8
SIZE
  6
CONTINUOUS
 62
     0
  2
_ORIGIN
 10
16226.1132760703
 20
-1247.155245329486
 30
0.0
 41
10.0
 42
10.0
 43
10.0
  0
TEXT
  5
958D
  8
SIZE
  6
CONTINUOUS
 62
     0
 10
16102.85613321315
 20
-1237.155245329486
 30
0.0
 40
64.0
  1
23
 41
0.9
  0
POINT
  5
958E
  8
DEFPOINTS
  6
CONTINUOUS
 62
     0
 10
16226.1132760703
 20
-1592.664885381156
 30
0.0
  0
POINT
  5
958F
  8
DEFPOINTS
  6
CONTINUOUS
 62
     0
 10
16249.1132760703
 20
-1605.664885381156
 30
0.0
  0
POINT
  5
9590
  8
DEFPOINTS
  6
CONTINUOUS
 62
     0
 10
16249.1132760703
 20
-1247.155245329486
 30
0.0
  0
ENDBLK
  5
9585
  8
0
  0
BLOCK
  8
0
  2
*D10
 70
     1
 10
0.0
 20
0.0
 30
0.0
  3
*D10
  1

  0
LINE
  5
95BA
  8
SIZE
  6
CONTINUOUS
 62
     0
 10
16226.1132760703
 20
-1572.664885381156
 30
0.0
 11
16226.1132760703
 21
-1422.2689099820341
 31
0.0
  0
LINE
  5
95BB
  8
SIZE
  6
CONTINUOUS
 62
     0
 10
16292.1132760703
 20
-1660.664885381156
 30
0.0
 11
16292.1132760703
 21
-1422.2689099820341
 31
0.0
  0
LINE
  5
95BC
  8
SIZE
  6
CONTINUOUS
 62
     0
 10
16216.1132760703
 20
-1442.2689099820341
 30
0.0
 11
16206.1132760703
 21
-1442.2689099820341
 31
0.0
  0
LINE
  5
95BD
  8
SIZE
  6
CONTINUOUS
 62
     0
 10
16302.1132760703
 20
-1442.2689099820341
 30
0.0
 11
16422.627561784579
 21
-1442.2689099820341
 31
0.0
  0
LINE
  5
95BE
  8
SIZE
  6
CONTINUOUS
 62
     0
 10
16226.1132760703
 20
-1442.2689099820341
 30
0.0
 11
16292.1132760703
 21
-1442.2689099820341
 31
0.0
  0
INSERT
  5
95BF
  8
SIZE
  6
CONTINUOUS
 62
     0
  2
_ORIGIN
 10
16226.1132760703
 20
-1442.2689099820341
 30
0.0
 41
10.0
 42
10.0
 43
10.0
  0
INSERT
  5
95C0
  8
SIZE
  6
CONTINUOUS
 62
     0
  2
_ORIGIN
 10
16292.1132760703
 20
-1442.2689099820341
 30
0.0
 41
10.0
 42
10.0
 43
10.0
 50
180.0
  0
TEXT
  5
95C1
  8
SIZE
  6
CONTINUOUS
 62
     0
 10
16322.1132760703
 20
-1432.2689099820341
 30
0.0
 40
64.0
  1
66
 41
0.9
  0
POINT
  5
95C2
  8
DEFPOINTS
  6
CONTINUOUS
 62
     0
 10
16226.1132760703
 20
-1592.664885381156
 30
0.0
  0
POINT
  5
95C3
  8
DEFPOINTS
  6
CONTINUOUS
 62
     0
 10
16292.1132760703
 20
-1680.664885381156
 30
0.0
  0
POINT
  5
95C4
  8
DEFPOINTS
  6
CONTINUOUS
 62
     0
 10
16292.1132760703
 20
-1442.2689099820341
 30
0.0
  0
ENDBLK
  5
959F
  8
0
  0
BLOCK
  8
0
  2
*D11
 70
     1
 10
0.0
 20
0.0
 30
0.0
  3
*D11
  1

  0
LINE
  5
95C5
  8
SIZE
  6
CONTINUOUS
 62
     0
 10
16298.1132760703
 20
-1607.664885381156
 30
0.0
 11
16298.1132760703
 21
-1323.5700236855189
 31
0.0
  0
LINE
  5
95C6
  8
SIZE
  6
CONTINUOUS
 62
     0
 10
16226.1132760703
 20
-1572.664885381156
 30
0.0
 11
16226.1132760703
 21
-1323.5700236855189
 31
0.0
  0
LINE
  5
95C7
  8
SIZE
  6
CONTINUOUS
 62
     0
 10
16216.1132760703
 20
-1343.5700236855189
 30
0.0
 11
16206.1132760703
 21
-1343.5700236855189
 31
0.0
  0
LINE
  5
95C8
  8
SIZE
  6
CONTINUOUS
 62
     0
 10
16308.1132760703
 20
-1343.5700236855189
 30
0.0
 11
16431.370418927439
 21
-1343.5700236855189
 31
0.0
  0
LINE
  5
95C9
  8
SIZE
  6
CONTINUOUS
 62
     0
 10
16226.1132760703
 20
-1343.5700236855189
 30
0.0
 11
16298.1132760703
 21
-1343.5700236855189
 31
0.0
  0
INSERT
  5
95CA
  8
SIZE
  6
CONTINUOUS
 62
     0
  2
_ORIGIN
 10
16226.1132760703
 20
-1343.5700236855189
 30
0.0
 41
10.0
 42
10.0
 43
10.0
  0
INSERT
  5
95CB
  8
SIZE
  6
CONTINUOUS
 62
     0
  2
_ORIGIN
 10
16298.1132760703
 20
-1343.5700236855189
 30
0.0
 41
10.0
 42
10.0
 43
10.0
 50
180.0
  0
TEXT
  5
95CC
  8
SIZE
  6
CONTINUOUS
 62
     0
 10
16328.1132760703
 20
-1333.5700236855189
 30
0.0
 40
64.0
  1
72
 41
0.9
  0
POINT
  5
95CD
  8
DEFPOINTS
  6
CONTINUOUS
 62
     0
 10
16298.1132760703
 20
-1627.664885381156
 30
0.0
  0
POINT
  5
95CE
  8
DEFPOINTS
  6
CONTINUOUS
 62
     0
 10
16226.1132760703
 20
-1592.664885381156
 30
0.0
  0
POINT
  5
95CF
  8
DEFPOINTS
  6
CONTINUOUS
 62
     0
 10
16226.1132760703
 20
-1343.5700236855189
 30
0.0
  0
ENDBLK
  5
95AE
  8
0
  0
BLOCK
  8
0
  2
*D12
 70
     1
 10
0.0
 20
0.0
 30
0.0
  3
*D12
  1

  0
LINE
  5
95D6
  8
SIZE
  6
CONTINUOUS
 62
     0
 10
16226.1132760703
 20
-1572.664885381156
 30
0.0
 11
16226.1132760703
 21
-1102.1491314132941
 31
0.0
  0
LINE
  5
95D7
  8
SIZE
  6
CONTINUOUS
 62
     0
 10
15286.1132760703
 20
-1572.664885381156
 30
0.0
 11
15286.1132760703
 21
-1102.1491314132941
 31
0.0
  0
LINE
  5
95D8
  8
SIZE
  6
CONTINUOUS
 62
     0
 10
16216.1132760703
 20
-1122.1491314132941
 30
0.0
 11
15296.1132760703
 21
-1122.1491314132941
 31
0.0
  0
INSERT
  5
95D9
  8
SIZE
  6
CONTINUOUS
 62
     0
  2
_ORIGIN
 10
16226.1132760703
 20
-1122.1491314132941
 30
0.0
 41
10.0
 42
10.0
 43
10.0
  0
INSERT
  5
95DA
  8
SIZE
  6
CONTINUOUS
 62
     0
  2
_ORIGIN
 10
15286.1132760703
 20
-1122.1491314132941
 30
0.0
 41
10.0
 42
10.0
 43
10.0
 50
180.0
  0
TEXT
  5
95DB
  8
SIZE
  6
CONTINUOUS
 62
     0
 10
15682.056133213149
 20
-1112.1491314132941
 30
0.0
 40
64.0
  1
940
 41
0.9
  0
POINT
  5
95DC
  8
DEFPOINTS
  6
CONTINUOUS
 62
     0
 10
16226.1132760703
 20
-1592.664885381156
 30
0.0
  0
POINT
  5
95DD
  8
DEFPOINTS
  6
CONTINUOUS
 62
     0
 10
15286.1132760703
 20
-1592.664885381156
 30
0.0
  0
POINT
  5
95DE
  8
DEFPOINTS
  6
CONTINUOUS
 62
     0
 10
15286.1132760703
 20
-1122.1491314132941
 30
0.0
  0
ENDBLK
  5
95E0
  8
0
  0
BLOCK
  8
0
  2
*D13
 70
     1
 10
0.0
 20
0.0
 30
0.0
  3
*D13
  1

  0
LINE
  5
95E3
  8
SIZE
  6
CONTINUOUS
 62
     0
 10
16226.1132760703
 20
-1572.664885381156
 30
0.0
 11
16226.1132760703
 21
-1102.1491314132941
 31
0.0
  0
LINE
  5
95E4
  8
SIZE
  6
CONTINUOUS
 62
     0
 10
16396.1132760703
 20
-1770.664885381156
 30
0.0
 11
16396.1132760703
 21
-1102.1491314132941
 31
0.0
  0
LINE
  5
95E5
  8
SIZE
  6
CONTINUOUS
 62
     0
 10
16236.1132760703
 20
-1122.1491314132941
 30
0.0
 11
16386.1132760703
 21
-1122.1491314132941
 31
0.0
  0
INSERT
  5
95E6
  8
SIZE
  6
CONTINUOUS
 62
     0
  2
_ORIGIN
 10
16226.1132760703
 20
-1122.1491314132941
 30
0.0
 41
10.0
 42
10.0
 43
10.0
 50
180.0
  0
INSERT
  5
95E7
  8
SIZE
  6
CONTINUOUS
 62
     0
  2
_ORIGIN
 10
16396.1132760703
 20
-1122.1491314132941
 30
0.0
 41
10.0
 42
10.0
 43
10.0
  0
TEXT
  5
95E8
  8
SIZE
  6
CONTINUOUS
 62
     0
 10
16242.541847498869
 20
-1112.1491314132941
 30
0.0
 40
64.0
  1
170
 41
0.9
  0
POINT
  5
95E9
  8
DEFPOINTS
  6
CONTINUOUS
 62
     0
 10
16226.1132760703
 20
-1592.664885381156
 30
0.0
  0
POINT
  5
95EA
  8
DEFPOINTS
  6
CONTINUOUS
 62
     0
 10
16396.1132760703
 20
-1790.664885381156
 30
0.0
  0
POINT
  5
95EB
  8
DEFPOINTS
  6
CONTINUOUS
 62
     0
 10
16396.1132760703
 20
-1122.1491314132941
 30
0.0
  0
ENDBLK
  5
95ED
  8
0
  0
BLOCK
  8
0
  2
*D14
 70
     1
 10
0.0
 20
0.0
 30
0.0
  3
*D14
  1

  0
LINE
  5
95F0
  8
SIZE
  6
CONTINUOUS
 62
     0
 10
15286.1132760703
 20
-1572.664885381156
 30
0.0
 11
15286.1132760703
 21
-1102.1491314132941
 31
0.0
  0
LINE
  5
95F1
  8
SIZE
  6
CONTINUOUS
 62
     0
 10
15206.1132760703
 20
-1770.664885381156
 30
0.0
 11
15206.1132760703
 21
-1102.1491314132941
 31
0.0
  0
LINE
  5
95F2
  8
SIZE
  6
CONTINUOUS
 62
     0
 10
15296.1132760703
 20
-1122.1491314132941
 30
0.0
 11
15306.1132760703
 21
-1122.1491314132941
 31
0.0
  0
LINE
  5
95F3
  8
SIZE
  6
CONTINUOUS
 62
     0
 10
15196.1132760703
 20
-1122.1491314132941
 30
0.0
 11
15072.85613321315
 21
-1122.1491314132941
 31
0.0
  0
LINE
  5
95F4
  8
SIZE
  6
CONTINUOUS
 62
     0
 10
15286.1132760703
 20
-1122.1491314132941
 30
0.0
 11
15206.1132760703
 21
-1122.1491314132941
 31
0.0
  0
INSERT
  5
95F5
  8
SIZE
  6
CONTINUOUS
 62
     0
  2
_ORIGIN
 10
15286.1132760703
 20
-1122.1491314132941
 30
0.0
 41
10.0
 42
10.0
 43
10.0
 50
180.0
  0
INSERT
  5
95F6
  8
SIZE
  6
CONTINUOUS
 62
     0
  2
_ORIGIN
 10
15206.1132760703
 20
-1122.1491314132941
 30
0.0
 41
10.0
 42
10.0
 43
10.0
  0
TEXT
  5
95F7
  8
SIZE
  6
CONTINUOUS
 62
     0
 10
15082.85613321315
 20
-1112.1491314132941
 30
0.0
 40
64.0
  1
80
 41
0.9
  0
POINT
  5
95F8
  8
DEFPOINTS
  6
CONTINUOUS
 62
     0
 10
15286.1132760703
 20
-1592.664885381156
 30
0.0
  0
POINT
  5
95F9
  8
DEFPOINTS
  6
CONTINUOUS
 62
     0
 10
15206.1132760703
 20
-1790.664885381156
 30
0.0
  0
POINT
  5
95FA
  8
DEFPOINTS
  6
CONTINUOUS
 62
     0
 10
15206.1132760703
 20
-1122.1491314132941
 30
0.0
  0
ENDBLK
  5
95FC
  8
0
  0
BLOCK
  8
0
  2
*D15
 70
     1
 10
0.0
 20
0.0
 30
0.0
  3
*D15
  1

  0
LINE
  5
98B2
  8
SIZE
  6
CONTINUOUS
 62
     0
 10
-425.0
 20
218.0
 30
0.0
 11
-425.0
 21
563.50964005167043
 31
0.0
  0
LINE
  5
98B3
  8
SIZE
  6
CONTINUOUS
 62
     0
 10
-448.0
 20
205.0
 30
0.0
 11
-448.0
 21
563.50964005167043
 31
0.0
  0
LINE
  5
98B4
  8
SIZE
  6
CONTINUOUS
 62
     0
 10
-458.0
 20
543.50964005167043
 30
0.0
 11
-468.0
 21
543.50964005167043
 31
0.0
  0
LINE
  5
98B5
  8
SIZE
  6
CONTINUOUS
 62
     0
 10
-415.0
 20
543.50964005167043
 30
0.0
 11
-291.74285714285531
 21
543.50964005167043
 31
0.0
  0
LINE
  5
98B6
  8
SIZE
  6
CONTINUOUS
 62
     0
 10
-448.0
 20
543.50964005167043
 30
0.0
 11
-425.0
 21
543.50964005167043
 31
0.0
  0
INSERT
  5
98B7
  8
SIZE
  6
CONTINUOUS
 62
     0
  2
_ORIGIN
 10
-448.0
 20
543.50964005167043
 30
0.0
 41
10.0
 42
10.0
 43
10.0
  0
INSERT
  5
98B8
  8
SIZE
  6
CONTINUOUS
 62
     0
  2
_ORIGIN
 10
-425.0
 20
543.50964005167043
 30
0.0
 41
10.0
 42
10.0
 43
10.0
 50
180.0
  0
TEXT
  8
0
  40
64
  5
98C9
  62
0
  72
0
  71
0
 10
-476.371
 20
472.230
 30
0.000000
  1
23
  0
POINT
  5
98BA
  8
DEFPOINTS
  6
CONTINUOUS
 62
     0
 10
-425.0
 20
198.0
 30
0.0
  0
POINT
  5
98BB
  8
DEFPOINTS
  6
CONTINUOUS
 62
     0
 10
-448.0
 20
185.0
 30
0.0
  0
POINT
  5
98BC
  8
DEFPOINTS
  6
CONTINUOUS
 62
     0
 10
-448.0
 20
543.50964005167043
 30
0.0
  0
ENDBLK
  5
96A8
  8
0
  0
BLOCK
  8
0
  2
*D16
 70
     1
 10
0.0
 20
0.0
 30
0.0
  3
*D16
  1

  0
LINE
  5
9890
  8
SIZE
  6
CONTINUOUS
 62
     0
 10
-425.0
 20
218.0
 30
0.0
 11
-425.0
 21
368.39597539912211
 31
0.0
  0
LINE
  5
9891
  8
SIZE
  6
CONTINUOUS
 62
     0
 10
-491.0
 20
130.0
 30
0.0
 11
-491.0
 21
368.39597539912211
 31
0.0
  0
LINE
  5
9892
  8
SIZE
  6
CONTINUOUS
 62
     0
 10
-415.0
 20
348.39597539912211
 30
0.0
 11
-405.0
 21
348.39597539912211
 31
0.0
  0
LINE
  5
9893
  8
SIZE
  6
CONTINUOUS
 62
     0
 10
-501.0
 20
348.39597539912211
 30
0.0
 11
-621.51428571428573
 21
348.39597539912211
 31
0.0
  0
LINE
  5
9894
  8
SIZE
  6
CONTINUOUS
 62
     0
 10
-425.0
 20
348.39597539912211
 30
0.0
 11
-491.0
 21
348.39597539912211
 31
0.0
  0
INSERT
  5
9895
  8
SIZE
  6
CONTINUOUS
 62
     0
  2
_ORIGIN
 10
-425.0
 20
348.39597539912211
 30
0.0
 41
10.0
 42
10.0
 43
10.0
 50
180.0
  0
INSERT
  5
9896
  8
SIZE
  6
CONTINUOUS
 62
     0
  2
_ORIGIN
 10
-491.0
 20
348.39597539912211
 30
0.0
 41
10.0
 42
10.0
 43
10.0
  0
TEXT
  8
0
  40
64
  5
98CA
  62
0
  72
0
  71
0
 10
-694.257
 20
277.116
 30
0.000000
  1
66
  0
POINT
  5
9898
  8
DEFPOINTS
  6
CONTINUOUS
 62
     0
 10
-425.0
 20
198.0
 30
0.0
  0
POINT
  5
9899
  8
DEFPOINTS
  6
CONTINUOUS
 62
     0
 10
-491.0
 20
110.0
 30
0.0
  0
POINT
  5
989A
  8
DEFPOINTS
  6
CONTINUOUS
 62
     0
 10
-491.0
 20
348.39597539912211
 30
0.0
  0
ENDBLK
  5
96B6
  8
0
  0
BLOCK
  8
0
  2
*D17
 70
     1
 10
0.0
 20
0.0
 30
0.0
  3
*D17
  1

  0
LINE
  5
98A7
  8
SIZE
  6
CONTINUOUS
 62
     0
 10
-497.0
 20
183.0
 30
0.0
 11
-497.0
 21
467.09486169563741
 31
0.0
  0
LINE
  5
98A8
  8
SIZE
  6
CONTINUOUS
 62
     0
 10
-425.0
 20
218.0
 30
0.0
 11
-425.0
 21
467.09486169563741
 31
0.0
  0
LINE
  5
98A9
  8
SIZE
  6
CONTINUOUS
 62
     0
 10
-415.0
 20
447.09486169563752
 30
0.0
 11
-405.0
 21
447.09486169563752
 31
0.0
  0
LINE
  5
98AA
  8
SIZE
  6
CONTINUOUS
 62
     0
 10
-507.0
 20
447.09486169563752
 30
0.0
 11
-630.25714285714469
 21
447.09486169563752
 31
0.0
  0
LINE
  5
98AB
  8
SIZE
  6
CONTINUOUS
 62
     0
 10
-425.0
 20
447.09486169563752
 30
0.0
 11
-497.0
 21
447.09486169563752
 31
0.0
  0
INSERT
  5
98AC
  8
SIZE
  6
CONTINUOUS
 62
     0
  2
_ORIGIN
 10
-425.0
 20
447.09486169563752
 30
0.0
 41
10.0
 42
10.0
 43
10.0
 50
180.0
  0
INSERT
  5
98AD
  8
SIZE
  6
CONTINUOUS
 62
     0
  2
_ORIGIN
 10
-497.0
 20
447.09486169563752
 30
0.0
 41
10.0
 42
10.0
 43
10.0
  0
TEXT
  8
0
  40
64
  5
98CB
  62
0
  72
0
  71
0
 10
-701.629
 20
375.815
 30
0.000000
  1
72
  0
POINT
  5
98AF
  8
DEFPOINTS
  6
CONTINUOUS
 62
     0
 10
-497.0
 20
163.0
 30
0.0
  0
POINT
  5
98B0
  8
DEFPOINTS
  6
CONTINUOUS
 62
     0
 10
-425.0
 20
198.0
 30
0.0
  0
POINT
  5
98B1
  8
DEFPOINTS
  6
CONTINUOUS
 62
     0
 10
-425.0
 20
447.09486169563752
 30
0.0
  0
ENDBLK
  5
96C4
  8
0
  0
BLOCK
  8
0
  2
*D18
 70
     1
 10
0.0
 20
0.0
 30
0.0
  3
*D18
  1

  0
LINE
  5
9883
  8
SIZE
  6
CONTINUOUS
 62
     0
 10
-425.0
 20
218.0
 30
0.0
 11
-424.99999999999989
 21
688.51575396786211
 31
0.0
  0
LINE
  5
9884
  8
SIZE
  6
CONTINUOUS
 62
     0
 10
515.0
 20
218.0
 30
0.0
 11
515.0
 21
688.51575396786211
 31
0.0
  0
LINE
  5
9885
  8
SIZE
  6
CONTINUOUS
 62
     0
 10
-414.99999999999989
 20
668.51575396786211
 30
0.0
 11
505.0
 21
668.51575396786211
 31
0.0
  0
INSERT
  5
9886
  8
SIZE
  6
CONTINUOUS
 62
     0
  2
_ORIGIN
 10
-424.99999999999989
 20
668.51575396786211
 30
0.0
 41
10.0
 42
10.0
 43
10.0
 50
180.0
  0
INSERT
  5
9887
  8
SIZE
  6
CONTINUOUS
 62
     0
  2
_ORIGIN
 10
515.0
 20
668.51575396786211
 30
0.0
 41
10.0
 42
10.0
 43
10.0
  0
TEXT
  8
0
  40
64
  5
98CC
  62
0
  72
0
  71
0
 10
-83.0000
 20
597.236
 30
0.000000
  1
940
  0
POINT
  5
9889
  8
DEFPOINTS
  6
CONTINUOUS
 62
     0
 10
-425.0
 20
198.0
 30
0.0
  0
POINT
  5
988A
  8
DEFPOINTS
  6
CONTINUOUS
 62
     0
 10
515.0
 20
198.0
 30
0.0
  0
POINT
  5
988B
  8
DEFPOINTS
  6
CONTINUOUS
 62
     0
 10
515.0
 20
668.51575396786211
 30
0.0
  0
ENDBLK
  5
96D0
  8
0
  0
BLOCK
  8
0
  2
*D19
 70
     1
 10
0.0
 20
0.0
 30
0.0
  3
*D19
  1

  0
LINE
  5
987A
  8
SIZE
  6
CONTINUOUS
 62
     0
 10
-425.0
 20
218.0
 30
0.0
 11
-424.99999999999989
 21
688.51575396786211
 31
0.0
  0
LINE
  5
987B
  8
SIZE
  6
CONTINUOUS
 62
     0
 10
-595.0
 20
20.0
 30
0.0
 11
-595.0
 21
688.51575396786211
 31
0.0
  0
LINE
  5
987C
  8
SIZE
  6
CONTINUOUS
 62
     0
 10
-434.99999999999989
 20
668.51575396786211
 30
0.0
 11
-585.0
 21
668.51575396786211
 31
0.0
  0
INSERT
  5
987D
  8
SIZE
  6
CONTINUOUS
 62
     0
  2
_ORIGIN
 10
-424.99999999999989
 20
668.51575396786211
 30
0.0
 41
10.0
 42
10.0
 43
10.0
  0
INSERT
  5
987E
  8
SIZE
  6
CONTINUOUS
 62
     0
  2
_ORIGIN
 10
-595.0
 20
668.51575396786211
 30
0.0
 41
10.0
 42
10.0
 43
10.0
 50
180.0
  0
TEXT
  8
0
  40
64
  5
98CD
  62
0
  72
0
  71
0
 10
-638.000
 20
597.236
 30
0.000000
  1
170
  0
POINT
  5
9880
  8
DEFPOINTS
  6
CONTINUOUS
 62
     0
 10
-425.0
 20
198.0
 30
0.0
  0
POINT
  5
9881
  8
DEFPOINTS
  6
CONTINUOUS
 62
     0
 10
-595.0
 20
0.0
 30
0.0
  0
POINT
  5
9882
  8
DEFPOINTS
  6
CONTINUOUS
 62
     0
 10
-595.0
 20
668.51575396786211
 30
0.0
  0
ENDBLK
  5
96DC
  8
0
  0
BLOCK
  8
0
  2
*D20
 70
     1
 10
0.0
 20
0.0
 30
0.0
  3
*D20
  1

  0
LINE
  5
986F
  8
SIZE
  6
CONTINUOUS
 62
     0
 10
515.0
 20
218.0
 30
0.0
 11
515.0
 21
688.51575396786211
 31
0.0
  0
LINE
  5
9870
  8
SIZE
  6
CONTINUOUS
 62
     0
 10
595.0
 20
20.0
 30
0.0
 11
595.0
 21
688.51575396786211
 31
0.0
  0
LINE
  5
9871
  8
SIZE
  6
CONTINUOUS
 62
     0
 10
505.0
 20
668.51575396786211
 30
0.0
 11
495.0
 21
668.51575396786211
 31
0.0
  0
LINE
  5
9872
  8
SIZE
  6
CONTINUOUS
 62
     0
 10
605.0
 20
668.51575396786211
 30
0.0
 11
728.25714285714275
 21
668.51575396786211
 31
0.0
  0
LINE
  5
9873
  8
SIZE
  6
CONTINUOUS
 62
     0
 10
515.0
 20
668.51575396786211
 30
0.0
 11
595.0
 21
668.51575396786211
 31
0.0
  0
INSERT
  5
9874
  8
SIZE
  6
CONTINUOUS
 62
     0
  2
_ORIGIN
 10
515.0
 20
668.51575396786211
 30
0.0
 41
10.0
 42
10.0
 43
10.0
  0
INSERT
  5
9875
  8
SIZE
  6
CONTINUOUS
 62
     0
  2
_ORIGIN
 10
595.0
 20
668.51575396786211
 30
0.0
 41
10.0
 42
10.0
 43
10.0
 50
180.0
  0
TEXT
  8
0
  40
64
  5
98CE
  62
0
  72
0
  71
0
 10
543.629
 20
597.236
 30
0.000000
  1
80
  0
POINT
  5
9877
  8
DEFPOINTS
  6
CONTINUOUS
 62
     0
 10
515.0
 20
198.0
 30
0.0
  0
POINT
  5
9878
  8
DEFPOINTS
  6
CONTINUOUS
 62
     0
 10
595.0
 20
0.0
 30
0.0
  0
POINT
  5
9879
  8
DEFPOINTS
  6
CONTINUOUS
 62
     0
 10
595.0
 20
668.51575396786211
 30
0.0
  0
ENDBLK
  5
96EA
  8
0
  0
ENDSEC
  0
SECTION
  2
ENTITIES
  0
DIMENSION
  5
9601
  8
SIZE
  6
CONTINUOUS
  2
*D20
 10
595.0
 20
668.51575396786211
 30
0.0
 11
671.62857142857138
 21
710.51575396786211
 31
0.0
 70
     0
 13
515.0
 23
198.0
 33
0.0
 14
595.0
 24
0.0
 34
0.0
 50
180.0
1001
ACAD
1000
DSTYLE
1002
{
1070
   287
1070
     0
1070
    41
1040
10.0
1070
    42
1040
20.0
1070
    43
1040
200.0
1070
    44
1040
20.0
1070
    73
1070
     0
1070
    74
1070
     0
1070
    77
1070
     1
1070
    78
1070
     8
1070
   140
1040
64.0
1070
   141
1040
0.082
1070
   147
1040
10.0
1070
   172
1070
     1
1070
   271
1070
     0
1070
   272
1070
     0
1070
   289
1070
     0
1070
   341
1005
175A
1070
     5
1000
ORIGIN
1002
}
  0
DIMENSION
  5
9602
  8
SIZE
  6
CONTINUOUS
  2
*D19
 10
-595.0
 20
668.51575396786211
 30
0.0
 11
-510.0
 21
710.51575396786211
 31
0.0
 70
     0
 13
-425.0
 23
198.0
 33
0.0
 14
-595.0
 24
0.0
 34
0.0
 50
180.0
1001
ACAD
1000
DSTYLE
1002
{
1070
   287
1070
     0
1070
    41
1040
10.0
1070
    42
1040
20.0
1070
    43
1040
200.0
1070
    44
1040
20.0
1070
    73
1070
     0
1070
    74
1070
     0
1070
    77
1070
     1
1070
    78
1070
     8
1070
   140
1040
64.0
1070
   141
1040
0.082
1070
   147
1040
10.0
1070
   172
1070
     1
1070
   271
1070
     0
1070
   272
1070
     0
1070
   289
1070
     0
1070
   341
1005
175A
1070
     5
1000
ORIGIN
1002
}
  0
DIMENSION
  5
9603
  8
SIZE
  6
CONTINUOUS
  2
*D18
 10
515.0
 20
668.51575396786211
 30
0.0
 11
45.000000000000021
 21
710.51575396786211
 31
0.0
 70
     0
 13
-425.0
 23
198.0
 33
0.0
 14
515.0
 24
198.0
 34
0.0
 50
180.0
1001
ACAD
1000
DSTYLE
1002
{
1070
   287
1070
     0
1070
    41
1040
10.0
1070
    42
1040
20.0
1070
    43
1040
200.0
1070
    44
1040
20.0
1070
    73
1070
     0
1070
    74
1070
     0
1070
    77
1070
     1
1070
    78
1070
     8
1070
   140
1040
64.0
1070
   141
1040
0.082
1070
   147
1040
10.0
1070
   172
1070
     1
1070
   271
1070
     0
1070
   272
1070
     0
1070
   289
1070
     0
1070
   341
1005
175A
1070
     5
1000
ORIGIN
1002
}
  0
LINE
  5
9604
  8
NOTE
  6
CONTINUOUS
 10
-136.7175741032697
 20
-182.3187113900764
 30
0.0
 11
-288.09248602112342
 21
-182.3187113900764
 31
0.0
  0
TEXT
  5
9605
  8
NOTE
  6
CONTINUOUS
 10
-258.2246182461239
 20
-162.2913243900766
 30
0.0
 40
64.0
  1
AH
 41
0.9
  0
LINE
  5
9606
  8
NOTE
  6
CONTINUOUS
 10
-324.09966669448841
 20
397.63869375255581
 30
0.0
 11
-88.009438377692277
 21
397.63869375255598
 31
0.0
  0
TEXT
  5
9607
  8
NOTE
  6
CONTINUOUS
 10
-332.7577239491219
 20
411.2531877525559
 30
0.0
 40
64.0
  1
D %%C32
 41
0.9
  0
LINE
  5
9608
  8
NOTE
  6
CONTINUOUS
 10
204.21649826462451
 20
285.54865298783579
 30
0.0
 11
-241.23672384958991
 21
285.54865298783579
 31
0.0
  0
TEXT
  5
9609
  8
NOTE
  6
CONTINUOUS
 10
-237.37121230680711
 20
307.42500898783572
 30
0.0
 40
64.0
  1
EL,CL %%C22
 41
0.9
  0
LINE
  5
960A
  8
DETAIL
  6
CONTINOUS
 10
515.0
 20
198.0
 30
0.0
 11
-425.0
 21
198.0
 31
0.0
  0
LINE
  5
960B
  8
DETAIL
  6
CONTINOUS
 10
595.0
 20
0.0
 30
0.0
 11
-595.0
 21
0.0
 31
0.0
  0
LINE
  5
960C
  8
DETAIL
  6
CONTINOUS
 10
595.0
 20
-10.0
 30
0.0
 11
-595.0
 21
-10.0
 31
0.0
  0
LINE
  5
960D
  8
DETAIL
  6
CONTINOUS
 10
480.0
 20
-23.0
 30
0.0
 11
-480.0
 21
-23.0
 31
0.0
  0
LINE
  5
960E
  8
SIZE
  6
BYBLOCK
 10
-593.0
 20
-512.95999900000015
 30
0.0
 11
593.0
 21
-512.95999900000015
 31
0.0
  0
LINE
  5
960F
  8
SIZE
  6
BYBLOCK
 10
535.0
 20
-390.74511200000001
 30
0.0
 11
-448.0
 21
-390.74511200000001
 31
0.0
  0
CIRCLE
  5
9610
  8
SIZE
  6
CONTINUOUS
 10
537.0
 20
-390.74511200000001
 30
0.0
 40
6.0
  0
CIRCLE
  5
9611
  8
SIZE
  6
CONTINUOUS
 10
537.0
 20
-390.74511200000001
 30
0.0
 40
6.0
  0
CIRCLE
  5
9612
  8
SIZE
  6
CONTINUOUS
 10
595.0
 20
-390.74511200000001
 30
0.0
 40
6.0
  0
LINE
  5
9613
  8
SIZE
  6
BYBLOCK
 10
595.0
 20
-50.0
 30
0.0
 11
595.0
 21
-420.74511200000001
 31
0.0
  0
LINE
  5
9614
  8
SIZE
  6
BYBLOCK
 10
595.0
 20
-30.0
 30
0.0
 11
595.0
 21
-542.95999900000015
 31
0.0
  0
LINE
  5
9615
  8
SIZE
  6
BYBLOCK
 10
537.0
 20
60.0
 30
0.0
 11
537.0
 21
-420.74511200000001
 31
0.0
  0
LINE
  5
9616
  8
SIZE
  6
BYBLOCK
 10
537.0
 20
40.0
 30
0.0
 11
537.0
 21
-420.74511200000001
 31
0.0
  0
CIRCLE
  5
9617
  8
SIZE
  6
CONTINUOUS
 10
595.0
 20
-512.95999900000015
 30
0.0
 40
6.0
  0
TEXT
  5
9618
  8
SIZE
  6
BYBLOCK
 10
-90.514285428569565
 20
-480.9599990000001
 30
0.0
 40
64.0
  1
1190
 41
0.9
  0
LINE
  5
9619
  8
NOTE
  6
CONTINUOUS
 10
537.0
 20
100.0
 30
0.0
 11
597.25550586147074
 21
195.0013938350186
 31
0.0
  0
POLYLINE
  5
961A
  8
NOTE
  6
CONTINUOUS
 66
     1
 10
0.0
 20
0.0
 30
0.0
  0
VERTEX
  5
988C
  8
NOTE
  6
CONTINUOUS
 10
565.94132095700843
 20
127.6115901781649
 30
0.0
  0
VERTEX
  5
988D
  8
NOTE
  6
CONTINUOUS
 10
537.0
 20
100.0
 30
0.0
  0
VERTEX
  5
988E
  8
NOTE
  6
CONTINUOUS
 10
548.25812474980194
 20
138.38299888017619
 30
0.0
  0
SEQEND
  5
988F
  8
NOTE
  6
CONTINUOUS
  0
LINE
  5
961B
  8
NOTE
  6
CONTINOUS
 10
537.0
 20
80.0
 30
0.0
 11
537.0
 21
120.0
 31
0.0
  0
CIRCLE
  5
961C
  8
FIX
  6
CONTINUOUS
 10
537.0
 20
100.0
 30
0.0
 40
40.0
  0
LINE
  5
961D
  8
BASIS
  6
DASHDOT
 10
0.0
 20
257.02284899999989
 30
0.0
 11
0.0
 21
-109.8728949999999
 31
0.0
  0
LINE
  5
961E
  8
DETAIL
  6
CONTINOUS
 10
515.0
 20
0.0
 30
0.0
 11
515.0
 21
198.0
 31
0.0
  0
TEXT
  5
961F
  8
SIZE
  6
BYBLOCK
 10
811.20102399999826
 20
-18.57142900000008
 30
0.0
 40
64.0
  1
100
 50
90.0
 41
0.9
  0
LINE
  5
9620
  8
SIZE
  6
BYBLOCK
 10
535.0
 20
-390.74511200000001
 30
0.0
 11
533.0
 21
-390.74511200000001
 31
0.0
  0
LINE
  5
9621
  8
SIZE
  6
BYBLOCK
 10
597.0
 20
-390.74511200000001
 30
0.0
 11
599.0
 21
-390.74511200000001
 31
0.0
  0
LINE
  5
9622
  8
SIZE
  6
BYBLOCK
 10
595.0
 20
-390.74511200000001
 30
0.0
 11
537.0
 21
-390.74511200000001
 31
0.0
  0
TEXT
  5
9623
  8
SIZE
  6
BYBLOCK
 10
519.37142814285471
 20
-358.74511200000001
 30
0.0
 40
64.0
  1
58
 41
0.9
  0
TEXT
  5
9624
  8
SIZE
  6
BYBLOCK
 10
-30.557142714282229
 20
-358.74511200000001
 30
0.0
 40
64.0
  1
987
 41
0.9
  0
LINE
  5
9625
  8
DETAIL
  6
CONTINOUS
 10
480.0
 20
-10.0
 30
0.0
 11
480.0
 21
-23.0
 31
0.0
  0
LINE
  5
9626
  8
SIZE
  6
BYBLOCK
 10
577.0
 20
100.0
 30
0.0
 11
745.20102399999814
 21
100.0
 31
0.0
  0
LINE
  5
9627
  8
SIZE
  6
BYBLOCK
 10
615.0
 20
0.0
 30
0.0
 11
745.20102399999814
 21
0.0
 31
0.0
  0
LINE
  5
9628
  8
SIZE
  6
BYBLOCK
 10
715.20102399999814
 20
102.0
 30
0.0
 11
715.20102399999814
 21
104.0
 31
0.0
  0
CIRCLE
  5
9629
  8
SIZE
  6
CONTINUOUS
 10
715.20102399999814
 20
100.0
 30
0.0
 40
6.0
  0
LINE
  5
962A
  8
SIZE
  6
BYBLOCK
 10
715.20102399999814
 20
-2.0
 30
0.0
 11
715.20102399999814
 21
-4.0
 31
0.0
  0
LINE
  5
962B
  8
SIZE
  6
BYBLOCK
 10
715.20102399999814
 20
100.0
 30
0.0
 11
715.20102399999814
 21
0.0
 31
0.0
  0
CIRCLE
  5
962C
  8
SIZE
  6
CONTINUOUS
 10
715.20102399999814
 20
0.0
 30
0.0
 40
6.0
  0
LINE
  5
962D
  8
NOTE
  6
CONTINOUS
 10
557.0
 20
100.0
 30
0.0
 11
517.0
 21
100.0
 31
0.0
  0
LINE
  5
962E
  8
DETAIL
  6
CONTINOUS
 10
595.0
 20
-10.0
 30
0.0
 11
595.0
 21
0.0
 31
0.0
  0
POINT
  5
962F
  8
ARRANGE
  6
CONTINUOUS
 10
0.0
 20
0.0
 30
0.0
  0
CIRCLE
  5
9630
  8
ARRANGE
  6
CONTINUOUS
 10
0.0
 20
0.0
 30
0.0
 40
40.0
  0
TEXT
  5
9631
  8
NOTE
  6
CONTINUOUS
 10
623.58914316204755
 20
215.02878083501849
 30
0.0
 40
64.0
  1
AH
 41
0.9
  0
LINE
  5
9632
  8
NOTE
  6
CONTINUOUS
 10
745.09618730490183
 20
195.0013938350186
 30
0.0
 11
597.25550586147074
 21
195.0013938350186
 31
0.0
  0
CIRCLE
  5
9633
  8
SIZE
  6
CONTINUOUS
 10
-450.0
 20
-390.74511200000001
 30
0.0
 40
6.0
  0
LINE
  5
9634
  8
SIZE
  6
BYBLOCK
 10
-595.0
 20
-30.0
 30
0.0
 11
-595.0
 21
-542.95999900000015
 31
0.0
  0
LINE
  5
9635
  8
SIZE
  6
BYBLOCK
 10
-450.0
 20
60.0
 30
0.0
 11
-450.0
 21
-420.74511200000001
 31
0.0
  0
CIRCLE
  5
9636
  8
SIZE
  6
CONTINUOUS
 10
-595.0
 20
-512.95999900000015
 30
0.0
 40
6.0
  0
LINE
  5
9637
  8
SIZE
  6
BYBLOCK
 10
-1561.757000000001
 20
301.83021193120652
 30
0.0
 11
-1561.757000000001
 21
75.0
 31
0.0
  0
DIMENSION
  5
9638
  8
SIZE
  6
CONTINUOUS
  2
*D16
 10
-491.0
 20
348.39597539912211
 30
0.0
 11
-566.25714285714275
 21
348.39597539912211
 31
0.0
 70
   128
 13
-425.0
 23
198.0
 33
0.0
 14
-491.0
 24
110.0
 34
0.0
 50
180.0
1001
ACAD
1000
DSTYLE
1002
{
1070
   287
1070
     0
1070
    41
1040
10.0
1070
    42
1040
20.0
1070
    43
1040
200.0
1070
    44
1040
20.0
1070
    73
1070
     0
1070
    74
1070
     0
1070
    77
1070
     1
1070
    78
1070
     8
1070
   140
1040
64.0
1070
   141
1040
0.082
1070
   147
1040
10.0
1070
   172
1070
     1
1070
   271
1070
     0
1070
   272
1070
     0
1070
   289
1070
     0
1070
   341
1005
175A
1070
     5
1000
ORIGIN
1002
}
  0
LINE
  5
9639
  8
NOTE
  6
CONTINUOUS
 10
-425.0
 20
75.0
 30
0.0
 11
-241.23672384958991
 21
285.54865298783579
 31
0.0
  0
CIRCLE
  5
963B
  8
SIZE
  6
CONTINUOUS
 10
-1561.757000000001
 20
120.0
 30
0.0
 40
6.0
  0
LINE
  5
963C
  8
SIZE
  6
BYBLOCK
 10
-1029.170000000001
 20
2.0
 30
0.0
 11
-1029.170000000001
 21
196.0
 31
0.0
  0
LINE
  5
963E
  8
NOTE
  6
CONTINOUS
 10
-425.0
 20
100.0
 30
0.0
 11
-425.0
 21
140.0
 31
0.0
  0
LINE
  5
963F
  8
NOTE
  6
CONTINOUS
 10
-450.0
 20
80.0
 30
0.0
 11
-450.0
 21
120.0
 31
0.0
  0
CIRCLE
  5
9640
  8
FIX
  6
CONTINUOUS
 10
-450.0
 20
100.0
 30
0.0
 40
40.0
  0
LINE
  5
9641
  8
DETAIL
  6
CONTINOUS
 10
-425.0
 20
0.0
 30
0.0
 11
-425.0
 21
198.0
 31
0.0
  0
LINE
  5
9643
  8
SIZE
  6
BYBLOCK
 10
-465.0
 20
75.0
 30
0.0
 11
-1591.757000000001
 21
75.0
 31
0.0
  0
LINE
  5
9644
  8
SIZE
  6
BYBLOCK
 10
-490.0
 20
100.0
 30
0.0
 11
-1419.7299999999991
 21
100.0
 31
0.0
  0
LINE
  5
9645
  8
SIZE
  6
BYBLOCK
 10
-615.0
 20
0.0
 30
0.0
 11
-1786.0659999999989
 21
0.0
 31
0.0
  0
LINE
  5
9646
  8
SIZE
  6
BYBLOCK
 10
-615.0
 20
0.0
 30
0.0
 11
-1419.7299999999991
 21
0.0
 31
0.0
  0
LINE
  5
9647
  8
NOTE
  6
CONTINUOUS
 10
-288.09248602112342
 20
-182.3187113900764
 30
0.0
 11
-450.0
 21
100.0
 31
0.0
  0
LINE
  5
9648
  8
NOTE
  6
CONTINUOUS
 10
-627.57258703378454
 20
-285.49215734146708
 30
0.0
 11
-491.0
 21
90.0
 31
0.0
  0
LINE
  5
9649
  8
NOTE
  6
CONTINUOUS
 10
-627.57258703378454
 20
-285.49215734146708
 30
0.0
 11
-1070.116722743438
 21
-285.49215734146708
 31
0.0
  0
TEXT
  5
964A
  8
NOTE
  6
CONTINUOUS
 10
-1048.2605790291491
 20
-262.36944534146733
 30
0.0
 40
64.0
  1
RL %%C6.35
 41
0.9
  0
LINE
  5
964B
  8
SIZE
  6
BYBLOCK
 10
-465.0
 20
75.0
 30
0.0
 11
-1228.3310000000019
 21
75.0
 31
0.0
  0
LINE
  5
964C
  8
SIZE
  6
BYBLOCK
 10
-518.0
 20
90.0
 30
0.0
 11
-1320.6369999999979
 21
90.0
 31
0.0
  0
LINE
  5
964D
  8
SIZE
  6
BYBLOCK
 10
-615.0
 20
0.0
 30
0.0
 11
-1228.3310000000019
 21
0.0
 31
0.0
  0
LINE
  5
964E
  8
SIZE
  6
BYBLOCK
 10
-615.0
 20
-10.0
 30
0.0
 11
-923.11747900000034
 21
-10.0
 31
0.0
  0
LINE
  5
964F
  8
SIZE
  6
BYBLOCK
 10
-500.0
 20
-23.0
 30
0.0
 11
-923.11747900000034
 21
-23.0
 31
0.0
  0
LINE
  5
9650
  8
SIZE
  6
BYBLOCK
 10
-615.0
 20
-10.0
 30
0.0
 11
-923.11747900000034
 21
-10.0
 31
0.0
  0
LINE
  5
9651
  8
SIZE
  6
BYBLOCK
 10
-615.0
 20
0.0
 30
0.0
 11
-923.11747900000034
 21
0.0
 31
0.0
  0
LINE
  5
9652
  8
SIZE
  6
BYBLOCK
 10
-615.0
 20
0.0
 30
0.0
 11
-1059.170000000001
 21
0.0
 31
0.0
  0
LINE
  5
9653
  8
SIZE
  6
BYBLOCK
 10
-615.0
 20
0.0
 30
0.0
 11
-1320.6369999999979
 21
0.0
 31
0.0
  0
LINE
  5
9654
  8
DETAIL
  6
CONTINOUS
 10
-480.0
 20
-10.0
 30
0.0
 11
-480.0
 21
-23.0
 31
0.0
  0
LINE
  5
9655
  8
DETAIL
  6
CONTINUOUS
 10
-491.0
 20
86.824999999999804
 30
0.0
 11
-425.0
 21
86.825000000000045
 31
0.0
  0
LINE
  5
9656
  8
DETAIL
  6
CONTINUOUS
 10
-491.0
 20
93.174999999999955
 30
0.0
 11
-425.0
 21
93.174999999999955
 31
0.0
  0
LINE
  5
9657
  8
NOTE
  6
CONTINOUS
 10
-471.0
 20
90.0
 30
0.0
 11
-511.0
 21
90.0
 31
0.0
  0
POLYLINE
  5
9658
  8
NOTE
  6
CONTINUOUS
 66
     1
 10
0.0
 20
0.0
 30
0.0
  0
VERTEX
  5
989B
  8
NOTE
  6
CONTINUOUS
 10
-442.44672591531702
 20
60.719622734277429
 30
0.0
  0
VERTEX
  5
989C
  8
NOTE
  6
CONTINUOUS
 10
-450.0
 20
100.0
 30
0.0
  0
VERTEX
  5
989D
  8
NOTE
  6
CONTINUOUS
 10
-423.81848444441488
 20
69.758832675450321
 30
0.0
  0
SEQEND
  5
989E
  8
NOTE
  6
CONTINUOUS
  0
LINE
  5
9659
  8
NOTE
  6
CONTINOUS
 10
-425.0
 20
55.0
 30
0.0
 11
-425.0
 21
95.0
 31
0.0
  0
LINE
  5
965A
  8
NOTE
  6
CONTINOUS
 10
-430.0
 20
100.0
 30
0.0
 11
-470.0
 21
100.0
 31
0.0
  0
LINE
  5
965B
  8
NOTE
  6
CONTINOUS
 10
-405.0
 20
75.0
 30
0.0
 11
-445.0
 21
75.0
 31
0.0
  0
POLYLINE
  5
965C
  8
NOTE
  6
CONTINUOUS
 66
     1
 10
0.0
 20
0.0
 30
0.0
  0
VERTEX
  5
989F
  8
NOTE
  6
CONTINUOUS
 10
-391.36087899999978
 20
96.642771000000039
 30
0.0
  0
VERTEX
  5
98A0
  8
NOTE
  6
CONTINUOUS
 10
-425.0
 20
75.0
 30
0.0
  0
VERTEX
  5
98A1
  8
NOTE
  6
CONTINUOUS
 10
-406.68905199999779
 20
110.56274999999999
 30
0.0
  0
SEQEND
  5
98A2
  8
NOTE
  6
CONTINUOUS
  0
LINE
  5
965D
  8
NOTE
  6
CONTINOUS
 10
-491.0
 20
70.0
 30
0.0
 11
-491.0
 21
110.0
 31
0.0
  0
LINE
  5
965E
  8
DETAIL
  6
CONTINUOUS
 10
-491.0
 20
93.174999999999955
 30
0.0
 11
-491.0
 21
86.825000000000045
 31
0.0
  0
POLYLINE
  5
965F
  8
NOTE
  6
CONTINUOUS
 66
     1
 10
0.0
 20
0.0
 30
0.0
  0
VERTEX
  5
98A3
  8
NOTE
  6
CONTINUOUS
 10
-516.13832200000252
 20
58.886261000000097
 30
0.0
  0
VERTEX
  5
98A4
  8
NOTE
  6
CONTINUOUS
 10
-491.0
 20
90.0
 30
0.0
  0
VERTEX
  5
98A5
  8
NOTE
  6
CONTINUOUS
 10
-497.21355599999879
 20
50.48555099999998
 30
0.0
  0
SEQEND
  5
98A6
  8
NOTE
  6
CONTINUOUS
  0
LINE
  5
9660
  8
DETAIL
  6
CONTINOUS
 10
-595.0
 20
-10.0
 30
0.0
 11
-595.0
 21
0.0
 31
0.0
  0
LINE
  5
9661
  8
SIZE
  6
BYBLOCK
 10
-1290.6369999999979
 20
90.0
 30
0.0
 11
-1290.6369999999979
 21
-131.09399539104919
 31
0.0
  0
LINE
  5
9662
  8
SIZE
  6
BYBLOCK
 10
-1198.3310000000019
 20
75.0
 30
0.0
 11
-1198.3310000000019
 21
-129.98967623118361
 31
0.0
  0
LINE
  5
9663
  8
SIZE
  6
BYBLOCK
 10
-893.11747900000046
 20
-12.0
 30
0.0
 11
-893.11747900000046
 21
-16.5
 31
0.0
  0
CIRCLE
  5
9664
  8
SIZE
  6
CONTINUOUS
 10
-893.11747900000046
 20
-10.0
 30
0.0
 40
6.0
  0
CIRCLE
  5
9665
  8
SIZE
  6
CONTINUOUS
 10
-893.11747900000046
 20
-10.0
 30
0.0
 40
6.0
  0
LINE
  5
9666
  8
SIZE
  6
BYBLOCK
 10
-893.11747900000046
 20
-21.0
 30
0.0
 11
-893.11747900000046
 21
-16.5
 31
0.0
  0
CIRCLE
  5
9667
  8
SIZE
  6
CONTINUOUS
 10
-893.11747900000046
 20
-23.0
 30
0.0
 40
6.0
  0
LINE
  5
9668
  8
SIZE
  6
CONTINUOUS
 10
-893.11747900000046
 20
-21.0
 30
0.0
 11
-893.11747900000046
 21
-125.6260360000001
 31
0.0
  0
LINE
  5
966D
  8
SIZE
  6
BYBLOCK
 10
-893.11747900000046
 20
-8.0
 30
0.0
 11
-893.11747900000046
 21
-5.0
 31
0.0
  0
LINE
  5
966E
  8
SIZE
  6
BYBLOCK
 10
-893.11747900000046
 20
-2.0
 30
0.0
 11
-893.11747900000046
 21
-5.0
 31
0.0
  0
LINE
  5
966F
  8
SIZE
  6
CONTINUOUS
 10
-893.11747900000046
 20
-2.0
 30
0.0
 11
-893.11747900000046
 21
100.41008000000009
 31
0.0
  0
CIRCLE
  5
9670
  8
SIZE
  6
CONTINUOUS
 10
-1029.170000000001
 20
0.0
 30
0.0
 40
6.0
  0
CIRCLE
  5
9671
  8
SIZE
  6
CONTINUOUS
 10
-893.11747900000046
 20
0.0
 30
0.0
 40
6.0
  0
LINE
  5
9672
  8
SIZE
  6
BYBLOCK
 10
-1290.6369999999979
 20
92.0
 30
0.0
 11
-1290.6369999999979
 21
94.0
 31
0.0
  0
CIRCLE
  5
9673
  8
SIZE
  6
CONTINUOUS
 10
-1290.6369999999979
 20
90.0
 30
0.0
 40
6.0
  0
LINE
  5
9674
  8
SIZE
  6
BYBLOCK
 10
-1198.3310000000019
 20
77.0
 30
0.0
 11
-1198.3310000000019
 21
79.0
 31
0.0
  0
CIRCLE
  5
9675
  8
SIZE
  6
CONTINUOUS
 10
-1198.3310000000019
 20
75.0
 30
0.0
 40
6.0
  0
LINE
  5
9676
  8
SIZE
  6
BYBLOCK
 10
-1290.6369999999979
 20
-2.0
 30
0.0
 11
-1290.6369999999979
 21
-4.0
 31
0.0
  0
LINE
  5
9677
  8
SIZE
  6
BYBLOCK
 10
-1198.3310000000019
 20
-2.0
 30
0.0
 11
-1198.3310000000019
 21
-4.0
 31
0.0
  0
CIRCLE
  5
9678
  8
SIZE
  6
CONTINUOUS
 10
-1198.3310000000019
 20
0.0
 30
0.0
 40
6.0
  0
CIRCLE
  5
9679
  8
SIZE
  6
CONTINUOUS
 10
-1290.6369999999979
 20
0.0
 30
0.0
 40
6.0
  0
LINE
  5
967A
  8
SIZE
  6
BYBLOCK
 10
-1389.7299999999991
 20
100.0
 30
0.0
 11
-1389.7299999999991
 21
-154.28483877602409
 31
0.0
  0
LINE
  5
967B
  8
SIZE
  6
BYBLOCK
 10
-1561.757000000001
 20
73.0
 30
0.0
 11
-1561.757000000001
 21
71.0
 31
0.0
  0
CIRCLE
  5
967C
  8
SIZE
  6
CONTINUOUS
 10
-1561.757000000001
 20
75.0
 30
0.0
 40
6.0
  0
LINE
  5
967D
  8
SIZE
  6
BYBLOCK
 10
-1389.7299999999991
 20
102.0
 30
0.0
 11
-1389.7299999999991
 21
104.0
 31
0.0
  0
CIRCLE
  5
967E
  8
SIZE
  6
CONTINUOUS
 10
-1389.7299999999991
 20
100.0
 30
0.0
 40
6.0
  0
LINE
  5
967F
  8
SIZE
  6
BYBLOCK
 10
-1389.7299999999991
 20
-2.0
 30
0.0
 11
-1389.7299999999991
 21
-4.0
 31
0.0
  0
CIRCLE
  5
9680
  8
SIZE
  6
CONTINUOUS
 10
-1389.7299999999991
 20
0.0
 30
0.0
 40
6.0
  0
LINE
  5
9681
  8
SIZE
  6
BYBLOCK
 10
-488.0
 20
165.0
 30
0.0
 11
-1786.0659999999989
 21
165.0
 31
0.0
  0
LINE
  5
9682
  8
SIZE
  6
BYBLOCK
 10
-445.0
 20
120.0
 30
0.0
 11
-1591.757000000001
 21
120.0
 31
0.0
  0
TEXT
  5
9683
  8
NOTE
  6
CONTINUOUS
 10
-1023.367075285714
 20
340.65626499999979
 30
0.0
 40
64.0
  1
RG %%C12.7
 41
0.9
  0
DIMENSION
  5
9684
  8
SIZE
  6
CONTINUOUS
  2
*D17
 10
-425.0
 20
447.09486169563752
 30
0.0
 11
-573.6285714285732
 21
447.09486169563752
 31
0.0
 70
   128
 13
-497.0
 23
163.0
 33
0.0
 14
-425.0
 24
198.0
 34
0.0
 50
180.0
1001
ACAD
1000
DSTYLE
1002
{
1070
   287
1070
     0
1070
    41
1040
10.0
1070
    42
1040
20.0
1070
    43
1040
200.0
1070
    44
1040
20.0
1070
    73
1070
     0
1070
    74
1070
     0
1070
    77
1070
     1
1070
    78
1070
     8
1070
   140
1040
64.0
1070
   141
1040
0.082
1070
   147
1040
10.0
1070
   172
1070
     1
1070
   271
1070
     0
1070
   272
1070
     0
1070
   289
1070
     0
1070
   341
1005
175A
1070
     5
1000
ORIGIN
1002
}
  0
DIMENSION
  5
9685
  8
SIZE
  6
CONTINUOUS
  2
*D15
 10
-448.0
 20
543.50964005167043
 30
0.0
 11
-348.3714285714268
 21
543.50964005167043
 31
0.0
 70
   128
 13
-425.0
 23
198.0
 33
0.0
 14
-448.0
 24
185.0
 34
0.0
 50
180.0
1001
ACAD
1000
DSTYLE
1002
{
1070
   287
1070
     0
1070
    41
1040
10.0
1070
    42
1040
20.0
1070
    43
1040
200.0
1070
    44
1040
20.0
1070
    73
1070
     0
1070
    74
1070
     0
1070
    77
1070
     1
1070
    78
1070
     8
1070
   140
1040
64.0
1070
   141
1040
0.082
1070
   147
1040
10.0
1070
   172
1070
     1
1070
   271
1070
     0
1070
   272
1070
     0
1070
   289
1070
     0
1070
   341
1005
175A
1070
     5
1000
ORIGIN
1002
}
  0
LINE
  5
9686
  8
NOTE
  6
CONTINUOUS
 10
-324.09966669448841
 20
397.63869375255581
 30
0.0
 11
-448.0
 21
165.0
 31
0.0
  0
LINE
  5
9687
  8
NOTE
  6
CONTINUOUS
 10
-632.7945260000015
 20
316.18007299999988
 30
0.0
 11
-1084.6935650000009
 21
316.18007299999988
 31
0.0
  0
LINE
  5
9688
  8
SIZE
  6
BYBLOCK
 10
-445.0
 20
198.0
 30
0.0
 11
-1059.170000000001
 21
198.0
 31
0.0
  0
LINE
  5
9689
  8
NOTE
  6
CONTINUOUS
 10
-632.7945260000015
 20
316.18007299999988
 30
0.0
 11
-497.0
 21
143.0
 31
0.0
  0
LINE
  5
968A
  8
NOTE
  6
CONTINUOUS
 10
-241.23672384958991
 20
285.54865298783579
 30
0.0
 11
-425.0
 21
120.0
 31
0.0
  0
LINE
  5
968B
  8
DETAIL
  6
CONTINUOUS
 10
-497.00000000000358
 20
149.34999999999991
 30
0.0
 11
-425.0
 21
149.34999999999991
 31
0.0
  0
LINE
  5
968C
  8
DETAIL
  6
CONTINUOUS
 10
-497.00000000000358
 20
136.65000000000029
 30
0.0
 11
-425.0
 21
136.65000000000001
 31
0.0
  0
LINE
  5
968D
  8
NOTE
  6
CONTINOUS
 10
-477.0
 20
143.0
 30
0.0
 11
-517.0
 21
143.0
 31
0.0
  0
LINE
  5
968E
  8
DETAIL
  6
CONTINUOUS
 10
-448.0
 20
181.0
 30
0.0
 11
-448.0
 21
149.34999999999991
 31
0.0
  0
LINE
  5
968F
  8
DETAIL
  6
CONTINUOUS
 10
-448.0
 20
181.0
 30
0.0
 11
-425.0
 21
181.0
 31
0.0
  0
LINE
  5
9690
  8
NOTE
  6
CONTINOUS
 10
-448.0
 20
145.0
 30
0.0
 11
-448.0
 21
185.0
 31
0.0
  0
LINE
  5
9691
  8
NOTE
  6
CONTINOUS
 10
-428.0
 20
165.0
 30
0.0
 11
-468.0
 21
165.0
 31
0.0
  0
POLYLINE
  5
9692
  8
NOTE
  6
CONTINUOUS
 66
     1
 10
0.0
 20
0.0
 30
0.0
  0
VERTEX
  5
98BD
  8
NOTE
  6
CONTINUOUS
 10
-420.75524299999961
 20
194.286912
 30
0.0
  0
VERTEX
  5
98BE
  8
NOTE
  6
CONTINUOUS
 10
-448.0
 20
165.0
 30
0.0
  0
VERTEX
  5
98BF
  8
NOTE
  6
CONTINUOUS
 10
-439.04880400000178
 20
203.98558800000001
 30
0.0
  0
SEQEND
  5
98C0
  8
NOTE
  6
CONTINUOUS
  0
LINE
  5
9693
  8
NOTE
  6
CONTINOUS
 10
-405.0
 20
120.0
 30
0.0
 11
-445.0
 21
120.0
 31
0.0
  0
POLYLINE
  5
9694
  8
NOTE
  6
CONTINUOUS
 66
     1
 10
0.0
 20
0.0
 30
0.0
  0
VERTEX
  5
98C1
  8
NOTE
  6
CONTINUOUS
 10
-388.89593099999911
 20
137.219065
 30
0.0
  0
VERTEX
  5
98C2
  8
NOTE
  6
CONTINUOUS
 10
-425.0
 20
120.0
 30
0.0
  0
VERTEX
  5
98C3
  8
NOTE
  6
CONTINUOUS
 10
-402.34249099999931
 20
152.96418199999991
 30
0.0
  0
SEQEND
  5
98C4
  8
NOTE
  6
CONTINUOUS
  0
POLYLINE
  5
9695
  8
NOTE
  6
CONTINUOUS
 66
     1
 10
0.0
 20
0.0
 30
0.0
  0
VERTEX
  5
98C5
  8
NOTE
  6
CONTINUOUS
 10
-513.53177800000037
 20
179.42389800000001
 30
0.0
  0
VERTEX
  5
98C6
  8
NOTE
  6
CONTINUOUS
 10
-497.0
 20
143.0
 30
0.0
  0
VERTEX
  5
98C7
  8
NOTE
  6
CONTINUOUS
 10
-529.52888800000073
 20
166.27813199999991
 30
0.0
  0
SEQEND
  5
98C8
  8
NOTE
  6
CONTINUOUS
  0
LINE
  5
9696
  8
NOTE
  6
CONTINOUS
 10
-497.0
 20
123.0
 30
0.0
 11
-497.0
 21
163.0
 31
0.0
  0
LINE
  5
9697
  8
DETAIL
  6
CONTINUOUS
 10
-497.0
 20
149.34999999999991
 30
0.0
 11
-497.0
 21
136.65000000000001
 31
0.0
  0
CIRCLE
  5
9698
  8
SIZE
  6
CONTINUOUS
 10
-1029.170000000001
 20
198.0
 30
0.0
 40
6.0
  0
TEXT
  5
9699
  8
SIZE
  6
BYBLOCK
 10
-1576.435291408724
 20
186.98027890919909
 30
0.0
 40
64.0
  1
45
 50
90.0
 41
0.9
  0
LINE
  5
969A
  8
SIZE
  6
BYBLOCK
 10
-1561.757000000001
 20
122.0
 30
0.0
 11
-1561.757000000001
 21
124.0
 31
0.0
  0
LINE
  5
9729
  8
SIZE
  6
BYBLOCK
 10
-1742.670344835692
 20
2.0
 30
0.0
 11
-1742.670344835692
 21
163.0
 31
0.0
  0
CIRCLE
  5
972A
  8
SIZE
  6
CONTINUOUS
 10
-1742.670344835692
 20
0.0
 30
0.0
 40
6.0
  0
CIRCLE
  5
972B
  8
SIZE
  6
CONTINUOUS
 10
-1742.670344835692
 20
165.0
 30
0.0
 40
6.0
  0
TEXT
  5
972C
  8
SIZE
  6
BYBLOCK
 10
-1764.3006216781141
 20
13.92857099999992
 30
0.0
 40
64.0
  1
165
 50
90.0
 41
0.9
  0
TEXT
  5
972D
  8
SIZE
  6
BYBLOCK
 10
-1413.3730058871761
 20
-147.77765212810161
 30
0.0
 40
64.0
  1
100
 50
90.0
 41
0.9
  0
TEXT
  5
972E
  8
SIZE
  6
BYBLOCK
 10
-1315.3846952904239
 20
-108.748234646008
 30
0.0
 40
64.0
  1
90
 50
90.0
 41
0.9
  0
TEXT
  5
972F
  8
SIZE
  6
BYBLOCK
 10
-1223.078639744901
 20
-121.7698657022836
 30
0.0
 40
64.0
  1
75
 50
90.0
 41
0.9
  0
TEXT
  5
9730
  8
SIZE
  6
BYBLOCK
 10
-1046.4688859188791
 20
30.428570999999909
 30
0.0
 40
64.0
  1
198
 50
90.0
 41
0.9
  0
TEXT
  5
9731
  8
SIZE
  6
BYBLOCK
 10
-913.96522546439894
 20
-115.6311799999998
 30
0.0
 40
64.0
  1
13
 50
90.0
 41
0.9
  0
TEXT
  5
9732
  8
SIZE
  6
BYBLOCK
 10
-910.41601946439914
 20
5.9282899999998326
 30
0.0
 40
64.0
  1
10
 50
90.0
 41
0.9
  0
TEXT
  5
9737
  8
ETC
  6
CONTINUOUS
 10
836.55547179745906
 20
617.69510613266209
 30
0.0
 40
64.0
  1
SMPM2714
 41
0.9
  0
TEXT
  5
9738
  8
ETC
  6
CONTINUOUS
 10
843.19266779745885
 20
726.14037713266225
 30
0.0
 40
64.0
  1
PAC
 41
0.9
  0
LINE
  5
979B
  8
OUTLINE
  6
CONTINOUS
 10
595.0
 20
-10.0
 30
0.0
 11
-595.0
 21
-10.0
 31
0.0
  0
LINE
  5
979C
  8
OUTLINE
  6
CONTINOUS
 10
595.0
 20
0.0
 30
0.0
 11
-595.0
 21
0.0
 31
0.0
  0
LINE
  5
979D
  8
OUTLINE
  6
CONTINOUS
 10
515.0
 20
198.0
 30
0.0
 11
-425.0
 21
198.0
 31
0.0
  0
LINE
  5
979E
  8
OUTLINE
  6
CONTINOUS
 10
-425.0
 20
0.0
 30
0.0
 11
-425.0
 21
198.0
 31
0.0
  0
LINE
  5
979F
  8
OUTLINE
  6
CONTINOUS
 10
480.0
 20
-23.0
 30
0.0
 11
-480.0
 21
-23.0
 31
0.0
  0
LINE
  5
97A0
  8
OUTLINE
  6
CONTINOUS
 10
-480.0
 20
-10.0
 30
0.0
 11
-480.0
 21
-23.0
 31
0.0
  0
LINE
  5
97A1
  8
OUTLINE
  6
CONTINOUS
 10
-595.0
 20
-10.0
 30
0.0
 11
-595.0
 21
0.0
 31
0.0
  0
LINE
  5
97A2
  8
OUTLINE
  6
CONTINUOUS
 10
-491.0
 20
93.175000000000182
 30
0.0
 11
-491.0
 21
86.824999999999804
 31
0.0
  0
LINE
  5
97A3
  8
OUTLINE
  6
CONTINUOUS
 10
-491.0
 20
93.175000000000182
 30
0.0
 11
-425.0
 21
93.175000000000182
 31
0.0
  0
LINE
  5
97A4
  8
OUTLINE
  6
CONTINUOUS
 10
-491.0
 20
86.824999999999804
 30
0.0
 11
-425.0
 21
86.824999999999804
 31
0.0
  0
LINE
  5
97A5
  8
OUTLINE
  6
CONTINOUS
 10
480.0
 20
-10.0
 30
0.0
 11
480.0
 21
-23.0
 31
0.0
  0
LINE
  5
97A6
  8
OUTLINE
  6
CONTINUOUS
 10
-497.0
 20
149.35000000000031
 30
0.0
 11
-497.0
 21
136.64999999999961
 31
0.0
  0
LINE
  5
97A7
  8
OUTLINE
  6
CONTINUOUS
 10
-448.0
 20
181.0
 30
0.0
 11
-425.0
 21
181.0
 31
0.0
  0
LINE
  5
97A8
  8
OUTLINE
  6
CONTINUOUS
 10
-448.0
 20
181.0
 30
0.0
 11
-448.0
 21
149.35000000000031
 31
0.0
  0
LINE
  5
97A9
  8
OUTLINE
  6
CONTINUOUS
 10
-497.00000000000358
 20
136.65000000000049
 30
0.0
 11
-425.0
 21
136.64999999999961
 31
0.0
  0
LINE
  5
97AA
  8
OUTLINE
  6
CONTINUOUS
 10
-497.00000000000358
 20
149.35000000000031
 30
0.0
 11
-425.0
 21
149.35000000000031
 31
0.0
  0
LINE
  5
97AB
  8
OUTLINE
  6
CONTINOUS
 10
515.0
 20
0.0
 30
0.0
 11
515.0
 21
198.0
 31
0.0
  0
LINE
  5
97AC
  8
OUTLINE
  6
CONTINOUS
 10
595.0
 20
-10.0
 30
0.0
 11
595.0
 21
0.0
 31
0.0
  0
ENDSEC
  0
EOF
