  0
SECTION
  2
HEADER
  9
$ACADVER
  1
AC1018
  9
$ACADMAINTVER
 70
     0
  9
$DWGCODEPAGE
  3
ANSI_932
  9
$INSBASE
 10
0.0
 20
0.0
 30
0.0
  9
$EXTMIN
 10
-1433.451399316611
 20
-766.3348892073691
 30
0.0
  9
$EXTMAX
 10
2227.495466922743
 20
844.1644669925604
 30
0.0
  9
$LIMMIN
 10
-1433.451399316611
 20
-766.3348892073691
  9
$LIMMAX
 10
2227.495466922743
 20
844.1644669925604
  9
$ORTHOMODE
 70
     0
  9
$REGENMODE
 70
     1
  9
$FILLMODE
 70
     1
  9
$QTEXTMODE
 70
     0
  9
$MIRRTEXT
 70
     1
  9
$LTSCALE
 40
1.0
  9
$ATTMODE
 70
     1
  9
$TEXTSIZE
 40
0.2
  9
$TRACEWID
 40
0.05
  9
$TEXTSTYLE
  7
Standard
  9
$CLAYER
  8
SIZE
  9
$CELTYPE
  6
ByLayer
  9
$CECOLOR
 62
   256
  9
$CELTSCALE
 40
1.0
  9
$DISPSILH
 70
     0
  9
$DIMSCALE
 40
1.0
  9
$DIMASZ
 40
0.18
  9
$DIMEXO
 40
0.0625
  9
$DIMDLI
 40
0.38
  9
$DIMRND
 40
0.0
  9
$DIMDLE
 40
0.0
  9
$DIMEXE
 40
0.18
  9
$DIMTP
 40
0.0
  9
$DIMTM
 40
0.0
  9
$DIMTXT
 40
0.18
  9
$DIMCEN
 40
0.09
  9
$DIMTSZ
 40
0.0
  9
$DIMTOL
 70
     0
  9
$DIMLIM
 70
     0
  9
$DIMTIH
 70
     1
  9
$DIMTOH
 70
     1
  9
$DIMSE1
 70
     0
  9
$DIMSE2
 70
     0
  9
$DIMTAD
 70
     0
  9
$DIMZIN
 70
     0
  9
$DIMBLK
  1

  9
$DIMASO
 70
     1
  9
$DIMSHO
 70
     1
  9
$DIMPOST
  1

  9
$DIMAPOST
  1

  9
$DIMALT
 70
     0
  9
$DIMALTD
 70
     2
  9
$DIMALTF
 40
25.4
  9
$DIMLFAC
 40
1.0
  9
$DIMTOFL
 70
     0
  9
$DIMTVP
 40
0.0
  9
$DIMTIX
 70
     0
  9
$DIMSOXD
 70
     0
  9
$DIMSAH
 70
     0
  9
$DIMBLK1
  1

  9
$DIMBLK2
  1

  9
$DIMSTYLE
  2
Standard
  9
$DIMCLRD
 70
     0
  9
$DIMCLRE
 70
     0
  9
$DIMCLRT
 70
     0
  9
$DIMTFAC
 40
1.0
  9
$DIMGAP
 40
0.09
  9
$DIMJUST
 70
     0
  9
$DIMSD1
 70
     0
  9
$DIMSD2
 70
     0
  9
$DIMTOLJ
 70
     1
  9
$DIMTZIN
 70
     0
  9
$DIMALTZ
 70
     0
  9
$DIMALTTZ
 70
     0
  9
$DIMUPT
 70
     0
  9
$DIMDEC
 70
     4
  9
$DIMTDEC
 70
     4
  9
$DIMALTU
 70
     2
  9
$DIMALTTD
 70
     2
  9
$DIMTXSTY
  7
Standard
  9
$DIMAUNIT
 70
     0
  9
$DIMADEC
 70
     0
  9
$DIMALTRND
 40
0.0
  9
$DIMAZIN
 70
     0
  9
$DIMDSEP
 70
    46
  9
$DIMATFIT
 70
     3
  9
$DIMFRAC
 70
     0
  9
$DIMLDRBLK
  1

  9
$DIMLUNIT
 70
     2
  9
$DIMLWD
 70
    -2
  9
$DIMLWE
 70
    -2
  9
$DIMTMOVE
 70
     0
  9
$LUNITS
 70
     2
  9
$LUPREC
 70
     4
  9
$SKETCHINC
 40
0.1
  9
$FILLETRAD
 40
0.5
  9
$AUNITS
 70
     1
  9
$AUPREC
 70
     3
  9
$MENU
  1
.
  9
$ELEVATION
 40
0.0
  9
$PELEVATION
 40
0.0
  9
$THICKNESS
 40
0.0
  9
$LIMCHECK
 70
     0
  9
$CHAMFERA
 40
0.0
  9
$CHAMFERB
 40
0.0
  9
$CHAMFERC
 40
0.0
  9
$CHAMFERD
 40
0.0
  9
$SKPOLY
 70
     0
  9
$TDCREATE
 40
2458067.793783808
  9
$TDUCREATE
 40
2458067.418783808
  9
$TDUPDATE
 40
2458067.793790672
  9
$TDUUPDATE
 40
2458067.418790672
  9
$TDINDWG
 40
0.0000000116
  9
$TDUSRTIMER
 40
0.0000000116
  9
$USRTIMER
 70
     1
  9
$ANGBASE
 50
0.0
  9
$ANGDIR
 70
     0
  9
$PDMODE
 70
     0
  9
$PDSIZE
 40
0.0
  9
$PLINEWID
 40
0.0
  9
$SPLFRAME
 70
     0
  9
$SPLINETYPE
 70
     6
  9
$SPLINESEGS
 70
     8
  9
$HANDSEED
  5
2BD
  9
$SURFTAB1
 70
     6
  9
$SURFTAB2
 70
     6
  9
$SURFTYPE
 70
     6
  9
$SURFU
 70
     6
  9
$SURFV
 70
     6
  9
$UCSBASE
  2

  9
$UCSNAME
  2

  9
$UCSORG
 10
0.0
 20
0.0
 30
0.0
  9
$UCSXDIR
 10
1.0
 20
0.0
 30
0.0
  9
$UCSYDIR
 10
0.0
 20
1.0
 30
0.0
  9
$UCSORTHOREF
  2

  9
$UCSORTHOVIEW
 70
     0
  9
$UCSORGTOP
 10
0.0
 20
0.0
 30
0.0
  9
$UCSORGBOTTOM
 10
0.0
 20
0.0
 30
0.0
  9
$UCSORGLEFT
 10
0.0
 20
0.0
 30
0.0
  9
$UCSORGRIGHT
 10
0.0
 20
0.0
 30
0.0
  9
$UCSORGFRONT
 10
0.0
 20
0.0
 30
0.0
  9
$UCSORGBACK
 10
0.0
 20
0.0
 30
0.0
  9
$PUCSBASE
  2

  9
$PUCSNAME
  2

  9
$PUCSORG
 10
0.0
 20
0.0
 30
0.0
  9
$PUCSXDIR
 10
1.0
 20
0.0
 30
0.0
  9
$PUCSYDIR
 10
0.0
 20
1.0
 30
0.0
  9
$PUCSORTHOREF
  2

  9
$PUCSORTHOVIEW
 70
     0
  9
$PUCSORGTOP
 10
0.0
 20
0.0
 30
0.0
  9
$PUCSORGBOTTOM
 10
0.0
 20
0.0
 30
0.0
  9
$PUCSORGLEFT
 10
0.0
 20
0.0
 30
0.0
  9
$PUCSORGRIGHT
 10
0.0
 20
0.0
 30
0.0
  9
$PUCSORGFRONT
 10
0.0
 20
0.0
 30
0.0
  9
$PUCSORGBACK
 10
0.0
 20
0.0
 30
0.0
  9
$USERI1
 70
     0
  9
$USERI2
 70
     0
  9
$USERI3
 70
     0
  9
$USERI4
 70
     0
  9
$USERI5
 70
     0
  9
$USERR1
 40
0.0
  9
$USERR2
 40
0.0
  9
$USERR3
 40
0.0
  9
$USERR4
 40
0.0
  9
$USERR5
 40
0.0
  9
$WORLDVIEW
 70
     1
  9
$SHADEDGE
 70
     3
  9
$SHADEDIF
 70
    70
  9
$TILEMODE
 70
     1
  9
$MAXACTVP
 70
    64
  9
$PINSBASE
 10
0.0
 20
0.0
 30
0.0
  9
$PLIMCHECK
 70
     0
  9
$PEXTMIN
 10
1.000000000000000E+20
 20
1.000000000000000E+20
 30
1.000000000000000E+20
  9
$PEXTMAX
 10
-1.000000000000000E+20
 20
-1.000000000000000E+20
 30
-1.000000000000000E+20
  9
$PLIMMIN
 10
0.0
 20
0.0
  9
$PLIMMAX
 10
12.0
 20
9.0
  9
$UNITMODE
 70
     0
  9
$VISRETAIN
 70
     1
  9
$PLINEGEN
 70
     0
  9
$PSLTSCALE
 70
     1
  9
$TREEDEPTH
 70
  3020
  9
$CMLSTYLE
  2
Standard
  9
$CMLJUST
 70
     0
  9
$CMLSCALE
 40
1.0
  9
$PROXYGRAPHICS
 70
     1
  9
$MEASUREMENT
 70
     1
  9
$CELWEIGHT
370
    -1
  9
$ENDCAPS
280
     0
  9
$JOINSTYLE
280
     0
  9
$LWDISPLAY
290
     0
  9
$INSUNITS
 70
     0
  9
$HYPERLINKBASE
  1

  9
$STYLESHEET
  1

  9
$XEDIT
290
     1
  9
$CEPSNTYPE
380
     0
  9
$PSTYLEMODE
290
     1
  9
$FINGERPRINTGUID
  2
{3EF69230-334D-4461-9970-7F68FF39E248}
  9
$VERSIONGUID
  2
{FAEB1C32-E019-11D5-929B-00C0DF256EC4}
  9
$EXTNAMES
290
     1
  9
$PSVPSCALE
 40
0.0
  9
$OLESTARTUP
290
     0
  9
$SORTENTS
280
   127
  9
$INDEXCTL
280
     0
  9
$HIDETEXT
280
     1
  9
$XCLIPFRAME
290
     0
  9
$HALOGAP
280
     0
  9
$OBSCOLOR
 70
   257
  9
$OBSLTYPE
280
     0
  9
$INTERSECTIONDISPLAY
280
     0
  9
$INTERSECTIONCOLOR
 70
   257
  9
$DIMASSOC
280
     2
  9
$PROJECTNAME
  1

  0
ENDSEC
  0
SECTION
  2
CLASSES
  0
CLASS
  1
ACDBDICTIONARYWDFLT
  2
AcDbDictionaryWithDefault
  3
ObjectDBX Classes
 90
        0
 91
        4
280
     0
281
     0
  0
CLASS
  1
VISUALSTYLE
  2
AcDbVisualStyle
  3
ObjectDBX Classes
 90
     4095
 91
        4
280
     0
281
     0
  0
CLASS
  1
MATERIAL
  2
AcDbMaterial
  3
ObjectDBX Classes
 90
     1153
 91
        4
280
     0
281
     0
  0
CLASS
  1
SCALE
  2
AcDbScale
  3
ObjectDBX Classes
 90
     1153
 91
        4
280
     0
281
     0
  0
CLASS
  1
SUN
  2
AcDbSun
  3
SCENEOE
 90
     1153
 91
        4
280
     0
281
     0
  0
CLASS
  1
RASTERVARIABLES
  2
AcDbRasterVariables
  3
ISM
 90
        0
 91
        4
280
     0
281
     0
  0
CLASS
  1
DICTIONARYVAR
  2
AcDbDictionaryVar
  3
ObjectDBX Classes
 90
        0
 91
        4
280
     0
281
     0
  0
ENDSEC
  0
SECTION
  2
TABLES
  0
TABLE
  2
VPORT
  5
8
330
0
100
AcDbSymbolTable
 70
     1
  0
VPORT
  5
29
330
8
100
AcDbSymbolTableRecord
100
AcDbViewportTableRecord
  2
*Active
 70
     0
 10
0.0
 20
0.0
 11
1.0
 21
1.0
 12
317.6176270424527
 22
31.13183111407653
 13
0.0
 23
0.0
 14
0.5
 24
0.5
 15
0.5
 25
0.5
 16
0.0
 26
0.0
 36
1.0
 17
0.0
 27
0.0
 37
0.0
 40
1352.819459207941
 41
2.27317499516273
 42
50.0
 43
0.0
 44
0.0
 50
0.0
 51
0.0
 71
     0
 72
 20000
 73
     1
 74
     3
 75
     0
 76
     0
 77
     0
 78
     0
281
     0
 65
     1
110
0.0
120
0.0
130
0.0
111
1.0
121
0.0
131
0.0
112
0.0
122
1.0
132
0.0
 79
     0
146
0.0
  0
ENDTAB
  0
TABLE
  2
LTYPE
  5
5
330
0
100
AcDbSymbolTable
 70
     3
  0
LTYPE
  5
14
330
5
100
AcDbSymbolTableRecord
100
AcDbLinetypeTableRecord
  2
ByBlock
 70
     0
  3

 72
    65
 73
     0
 40
0.0
  0
LTYPE
  5
15
330
5
100
AcDbSymbolTableRecord
100
AcDbLinetypeTableRecord
  2
ByLayer
 70
     0
  3

 72
    65
 73
     0
 40
0.0
  0
LTYPE
  5
16
330
5
100
AcDbSymbolTableRecord
100
AcDbLinetypeTableRecord
  2
Continuous
 70
     0
  3
Solid line
 72
    65
 73
     0
 40
0.0
  0
LTYPE
  5
6C
330
5
100
AcDbSymbolTableRecord
100
AcDbLinetypeTableRecord
  2
DASHDOT
 70
     0
  3

 72
    65
 73
     4
 40
5.499999999999999
 49
4.0
 74
     0
 49
-0.6
 74
     0
 49
0.3
 74
     0
 49
-0.6
 74
     0
  0
LTYPE
  5
6D
330
5
100
AcDbSymbolTableRecord
100
AcDbLinetypeTableRecord
  2
CONTINOUS
 70
     0
  3

 72
    65
 73
     0
 40
0.0
  0
ENDTAB
  0
TABLE
  2
LAYER
  5
2
330
0
100
AcDbSymbolTable
 70
    12
  0
LAYER
  5
10
330
2
100
AcDbSymbolTableRecord
100
AcDbLayerTableRecord
  2
0
 70
     0
 62
     7
  6
Continuous
370
    25
390
F
  0
LAYER
  5
6E
330
2
100
AcDbSymbolTableRecord
100
AcDbLayerTableRecord
  2
SIZE
 70
     0
 62
    32
  6
Continuous
370
    25
390
F
  0
LAYER
  5
6F
330
2
100
AcDbSymbolTableRecord
100
AcDbLayerTableRecord
  2
DETAIL
 70
     0
 62
     5
  6
Continuous
370
    25
390
F
  0
LAYER
  5
70
330
2
100
AcDbSymbolTableRecord
100
AcDbLayerTableRecord
  2
OUTLINE
 70
     0
 62
     3
  6
Continuous
370
    25
390
F
  0
LAYER
  5
71
330
2
100
AcDbSymbolTableRecord
100
AcDbLayerTableRecord
  2
BASIS
 70
     0
 62
     6
  6
Continuous
370
    25
390
F
  0
LAYER
  5
72
330
2
100
AcDbSymbolTableRecord
100
AcDbLayerTableRecord
  2
NOTE
 70
     0
 62
     4
  6
Continuous
370
    25
390
F
  0
LAYER
  5
73
330
2
100
AcDbSymbolTableRecord
100
AcDbLayerTableRecord
  2
ARRANGE
 70
     0
 62
     1
  6
Continuous
370
    25
390
F
  0
LAYER
  5
74
330
2
100
AcDbSymbolTableRecord
100
AcDbLayerTableRecord
  2
FIX
 70
     0
 62
   241
  6
Continuous
370
    25
390
F
  0
LAYER
  5
75
330
2
100
AcDbSymbolTableRecord
100
AcDbLayerTableRecord
  2
ETC
 70
     0
 62
    83
  6
Continuous
370
    25
390
F
  0
LAYER
  5
76
330
2
100
AcDbSymbolTableRecord
100
AcDbLayerTableRecord
  2
SERVICESPACE
 70
     0
 62
     2
  6
Continuous
370
    25
390
F
  0
LAYER
  5
77
330
2
100
AcDbSymbolTableRecord
100
AcDbLayerTableRecord
  2
SYMBOLLINE
 70
     0
 62
    38
  6
Continuous
370
    25
390
F
  0
LAYER
  5
78
330
2
100
AcDbSymbolTableRecord
100
AcDbLayerTableRecord
  2
DEFPOINTS
 70
     0
 62
     7
  6
Continuous
290
     0
370
    25
390
F
  0
ENDTAB
  0
TABLE
  2
STYLE
  5
3
330
0
100
AcDbSymbolTable
 70
     6
  0
STYLE
  5
11
330
3
100
AcDbSymbolTableRecord
100
AcDbTextStyleTableRecord
  2
Standard
 70
     0
 40
0.0
 41
1.0
 50
0.0
 71
     0
 42
0.2
  3
txt.shx
  4
extfont
  0
STYLE
  5
79
330
3
100
AcDbSymbolTableRecord
100
AcDbTextStyleTableRecord
  2
MS PGothic
 70
     0
 40
0.0
 41
1.0
 50
0.0
 71
     0
 42
0.2
  3
msgothic_0.ttc
  4

1001
ACAD
1000
ＭＳ Ｐゴシック
1071
    32818
  0
STYLE
  5
7A
330
3
100
AcDbSymbolTableRecord
100
AcDbTextStyleTableRecord
  2
VERTICAL
 70
     4
 40
0.0
 41
1.0
 50
0.0
 71
     0
 42
0.2
  3
txt.shx
  4
extfont
  0
STYLE
  5
7B
330
3
100
AcDbSymbolTableRecord
100
AcDbTextStyleTableRecord
  2
VERTICAL MS PGothic
 70
     0
 40
0.0
 41
1.0
 50
0.0
 71
     0
 42
0.2
  3
MS PGothic.ttf
  4

1001
ACAD
1000
@ＭＳ Ｐゴシック
1071
    32818
  0
STYLE
  5
7F
330
3
100
AcDbSymbolTableRecord
100
AcDbTextStyleTableRecord
  2
Simplex
 70
     0
 40
0.0
 41
1.0
 50
0.0
 71
     0
 42
0.2
  3
simplex_.ttf
  4
extfont
1001
ACAD
1000
Simplex
1071
        2
  0
STYLE
  5
136
330
3
100
AcDbSymbolTableRecord
100
AcDbTextStyleTableRecord
  2
Simplex w9
 70
     0
 40
0.0
 41
0.9
 50
0.0
 71
     0
 42
0.2
  3
simplex_.ttf
  4
extfont
1001
ACAD
1000
Simplex
1071
        2
  0
ENDTAB
  0
TABLE
  2
VIEW
  5
6
330
0
100
AcDbSymbolTable
 70
     0
  0
ENDTAB
  0
TABLE
  2
UCS
  5
7
330
0
100
AcDbSymbolTable
 70
     0
  0
ENDTAB
  0
TABLE
  2
APPID
  5
9
330
0
100
AcDbSymbolTable
 70
     6
  0
APPID
  5
12
330
9
100
AcDbSymbolTableRecord
100
AcDbRegAppTableRecord
  2
ACAD
 70
     0
  0
APPID
  5
6A
330
9
100
AcDbSymbolTableRecord
100
AcDbRegAppTableRecord
  2
RootPro CAD
 70
     0
  0
APPID
  5
27C
330
9
100
AcDbSymbolTableRecord
100
AcDbRegAppTableRecord
  2
ACAD_DSTYLE_DIM_LINETYPE
 70
     0
  0
APPID
  5
27D
330
9
100
AcDbSymbolTableRecord
100
AcDbRegAppTableRecord
  2
ACAD_DSTYLE_DIM_EXT1_LINETYPE
 70
     0
  0
APPID
  5
27E
330
9
100
AcDbSymbolTableRecord
100
AcDbRegAppTableRecord
  2
ACAD_DSTYLE_DIMFLIPARROW_SYMBOL
 70
     0
  0
APPID
  5
27F
330
9
100
AcDbSymbolTableRecord
100
AcDbRegAppTableRecord
  2
ACAD_DSTYLE_DIMFLIPARROW_WHICH_SYMBOL
 70
     0
  0
ENDTAB
  0
TABLE
  2
DIMSTYLE
  5
A
330
0
100
AcDbSymbolTable
 70
     1
100
AcDbDimStyleTable
  0
DIMSTYLE
105
27
102
{ACAD_REACTORS
330
13C
330
146
330
152
330
15C
330
166
330
170
330
17D
330
187
330
192
330
19D
330
1AD
330
1B7
330
1D0
330
1DD
330
1E8
330
1F3
102
}
330
A
100
AcDbSymbolTableRecord
100
AcDbDimStyleTableRecord
  2
Standard
 70
     0
178
     0
340
11
  0
ENDTAB
  0
TABLE
  2
BLOCK_RECORD
  5
1
330
0
100
AcDbSymbolTable
 70
    20
  0
BLOCK_RECORD
  5
1F
330
1
100
AcDbSymbolTableRecord
100
AcDbBlockTableRecord
  2
*Model_Space
340
22
  0
BLOCK_RECORD
  5
1B
330
1
100
AcDbSymbolTableRecord
100
AcDbBlockTableRecord
  2
*Paper_Space
340
1E
  0
BLOCK_RECORD
  5
23
330
1
100
AcDbSymbolTableRecord
100
AcDbBlockTableRecord
  2
*Paper_Space0
340
26
  0
BLOCK_RECORD
  5
7C
330
1
100
AcDbSymbolTableRecord
100
AcDbBlockTableRecord
  2
A$C5F2C697A
340
0
  0
BLOCK_RECORD
  5
10C
330
1
100
AcDbSymbolTableRecord
100
AcDbBlockTableRecord
  2
_ORIGIN2
340
0
  0
BLOCK_RECORD
  5
137
330
1
100
AcDbSymbolTableRecord
100
AcDbBlockTableRecord
  2
_DOTBLANK
340
0
  0
BLOCK_RECORD
  5
13D
330
1
100
AcDbSymbolTableRecord
100
AcDbBlockTableRecord
  2
*D4
340
0
  0
BLOCK_RECORD
  5
147
330
1
100
AcDbSymbolTableRecord
100
AcDbBlockTableRecord
  2
*D5
340
0
  0
BLOCK_RECORD
  5
153
330
1
100
AcDbSymbolTableRecord
100
AcDbBlockTableRecord
  2
*D6
340
0
  0
BLOCK_RECORD
  5
15D
330
1
100
AcDbSymbolTableRecord
100
AcDbBlockTableRecord
  2
*D7
340
0
  0
BLOCK_RECORD
  5
167
330
1
100
AcDbSymbolTableRecord
100
AcDbBlockTableRecord
  2
*D8
340
0
  0
BLOCK_RECORD
  5
171
330
1
100
AcDbSymbolTableRecord
100
AcDbBlockTableRecord
  2
*D9
340
0
  0
BLOCK_RECORD
  5
17E
330
1
100
AcDbSymbolTableRecord
100
AcDbBlockTableRecord
  2
*D10
340
0
  0
BLOCK_RECORD
  5
188
330
1
100
AcDbSymbolTableRecord
100
AcDbBlockTableRecord
  2
*D11
340
0
  0
BLOCK_RECORD
  5
193
330
1
100
AcDbSymbolTableRecord
100
AcDbBlockTableRecord
  2
*D12
340
0
  0
BLOCK_RECORD
  5
19E
330
1
100
AcDbSymbolTableRecord
100
AcDbBlockTableRecord
  2
*D13
340
0
  0
BLOCK_RECORD
  5
1AE
330
1
100
AcDbSymbolTableRecord
100
AcDbBlockTableRecord
  2
*D14
340
0
  0
BLOCK_RECORD
  5
1B8
330
1
100
AcDbSymbolTableRecord
100
AcDbBlockTableRecord
  2
*D15
340
0
  0
BLOCK_RECORD
  5
1D1
330
1
100
AcDbSymbolTableRecord
100
AcDbBlockTableRecord
  2
*D16
340
0
  0
BLOCK_RECORD
  5
1DE
330
1
100
AcDbSymbolTableRecord
100
AcDbBlockTableRecord
  2
*D17
340
0
  0
BLOCK_RECORD
  5
1E9
330
1
100
AcDbSymbolTableRecord
100
AcDbBlockTableRecord
  2
*D18
340
0
  0
BLOCK_RECORD
  5
1F4
330
1
100
AcDbSymbolTableRecord
100
AcDbBlockTableRecord
  2
*D19
340
0
  0
ENDTAB
  0
ENDSEC
  0
SECTION
  2
BLOCKS
  0
BLOCK
  5
20
330
1F
100
AcDbEntity
  8
0
100
AcDbBlockBegin
  2
*Model_Space
 70
     0
 10
0.0
 20
0.0
 30
0.0
  3
*Model_Space
  1
*Model_Space
  0
ENDBLK
  5
21
330
1F
100
AcDbEntity
  8
0
100
AcDbBlockEnd
  0
BLOCK
  5
1C
330
1B
100
AcDbEntity
 67
     1
  8
0
100
AcDbBlockBegin
  2
*Paper_Space
 70
     0
 10
0.0
 20
0.0
 30
0.0
  3
*Paper_Space
  1
*Paper_Space
  0
ENDBLK
  5
1D
330
1B
100
AcDbEntity
 67
     1
  8
0
100
AcDbBlockEnd
  0
BLOCK
  5
24
330
23
100
AcDbEntity
  8
0
100
AcDbBlockBegin
  2
*Paper_Space0
 70
     0
 10
0.0
 20
0.0
 30
0.0
  3
*Paper_Space0
  1
*Paper_Space0
  0
ENDBLK
  5
25
330
23
100
AcDbEntity
  8
0
100
AcDbBlockEnd
  0
BLOCK
  5
7D
330
7C
100
AcDbEntity
  8
0
100
AcDbBlockBegin
  2
A$C5F2C697A
 70
     0
 10
0.0
 20
0.0
 30
0.0
  3
A$C5F2C697A
  1
A$C5F2C697A
  0
TEXT
  5
80
330
7C
100
AcDbEntity
  8
SIZE
100
AcDbText
 10
910.8147643978815
 20
143.9085462278353
 30
0.0
 40
70.28565910188316
  1
370
 41
0.9
  7
Simplex
 11
910.8147643978815
 21
108.2756206846195
 31
0.0
100
AcDbText
 73
     1
  0
LINE
  5
81
330
7C
100
AcDbEntity
  8
SIZE
100
AcDbLine
 10
801.8719073978815
 20
95.36127978650259
 30
0.0
 11
1167.87190739788
 21
95.36127978650259
 31
0.0
  0
TEXT
  5
82
330
7C
100
AcDbEntity
  8
SIZE
100
AcDbText
 10
915.8147643978814
 20
1441.050018227835
 30
0.0
 40
70.28565910188316
  1
330
 41
0.9
  7
Simplex
 11
915.8147643978814
 21
1405.417092684619
 31
0.0
100
AcDbText
 73
     1
  0
LINE
  5
83
330
7C
100
AcDbEntity
  8
SIZE
100
AcDbLine
 10
826.8719073978815
 20
1392.502751786502
 30
0.0
 11
1152.87190739788
 21
1392.502751786502
 31
0.0
  0
LINE
  5
84
330
7C
100
AcDbEntity
  8
OUTLINE
  6
Continuous
100
AcDbLine
 10
771.8719063978815
 20
290.0777517865025
 30
0.0
 11
1183.871906397881
 21
290.0777517865025
 31
0.0
  0
LINE
  5
85
330
7C
100
AcDbEntity
  8
OUTLINE
  6
Continuous
100
AcDbLine
 10
771.8719063978815
 20
323.0777517865025
 30
0.0
 11
1183.871906397881
 21
323.0777517865025
 31
0.0
  0
LINE
  5
86
330
7C
100
AcDbEntity
  8
OUTLINE
  6
Continuous
100
AcDbLine
 10
824.8719063978814
 20
1145.077751786502
 30
0.0
 11
1154.87190639788
 21
1145.077751786502
 31
0.0
  0
CIRCLE
  5
87
330
7C
100
AcDbEntity
  8
ARRANGE
  6
Continuous
100
AcDbCircle
 10
989.8719063978814
 20
290.0777517865025
 30
0.0
 40
40.0
  0
LINE
  5
88
330
7C
100
AcDbEntity
  8
DETAIL
  6
CONTINOUS
100
AcDbLine
 10
771.8719063978815
 20
290.0777517865025
 30
0.0
 11
1183.871906397881
 21
290.0777517865025
 31
0.0
  0
LINE
  5
89
330
7C
100
AcDbEntity
  8
DETAIL
  6
CONTINOUS
100
AcDbLine
 10
824.8719063978814
 20
1145.077751786502
 30
0.0
 11
1154.87190639788
 21
1145.077751786502
 31
0.0
  0
TEXT
  5
8A
330
7C
100
AcDbEntity
  8
NOTE
  6
Continuous
100
AcDbText
 10
973.9808703978814
 20
930.3934972278353
 30
0.0
 40
70.28565910188316
  1
EL,CL
 41
0.9
  7
Simplex
 11
973.9808703978814
 21
894.7605716846194
 31
0.0
100
AcDbText
 73
     1
  0
LINE
  5
8B
330
7C
100
AcDbEntity
  8
NOTE
  6
Continuous
100
AcDbLine
 10
879.8719063978815
 20
686.0777517865025
 30
0.0
 11
1040.77148939788
 21
625.2040537865025
 31
0.0
  0
LINE
  5
8C
330
7C
100
AcDbEntity
  8
NOTE
  6
Continuous
100
AcDbLine
 10
1205.83098439788
 20
895.3889597865027
 30
0.0
 11
918.8708563978817
 21
895.3889597865027
 31
0.0
  0
POINT
  5
8D
330
7C
100
AcDbEntity
  8
ARRANGE
  6
Continuous
100
AcDbPoint
 10
989.8719063978814
 20
290.0777517865025
 30
0.0
  0
LINE
  5
8E
330
7C
100
AcDbEntity
  8
DETAIL
  6
CONTINOUS
100
AcDbLine
 10
771.8719063978815
 20
323.0777517865025
 30
0.0
 11
1183.871906397881
 21
323.0777517865025
 31
0.0
  0
LINE
  5
8F
330
7C
100
AcDbEntity
  8
NOTE
  6
Continuous
100
AcDbLine
 10
882.8719063978814
 20
724.0777517865025
 30
0.0
 11
1040.77148939788
 21
812.3038517865023
 31
0.0
  0
CIRCLE
  5
90
330
7C
100
AcDbEntity
  8
SIZE
  6
Continuous
100
AcDbCircle
 10
220.7875803978813
 20
290.0777517865025
 30
0.0
 40
6.0
  0
CIRCLE
  5
91
330
7C
100
AcDbEntity
  8
SIZE
  6
Continuous
100
AcDbCircle
 10
503.5566813978814
 20
290.0777517865025
 30
0.0
 40
6.0
  0
CIRCLE
  5
92
330
7C
100
AcDbEntity
  8
SIZE
  6
Continuous
100
AcDbCircle
 10
649.7442583978815
 20
290.0777517865025
 30
0.0
 40
6.0
  0
CIRCLE
  5
93
330
7C
100
AcDbEntity
  8
SIZE
  6
Continuous
100
AcDbCircle
 10
350.8350553978814
 20
290.0777517865025
 30
0.0
 40
6.0
  0
LINE
  5
94
330
7C
100
AcDbEntity
  8
OUTLINE
  6
Continuous
100
AcDbLine
 10
771.8719063978815
 20
290.0777517865025
 30
0.0
 11
771.8719063978815
 21
323.0777517865025
 31
0.0
  0
CIRCLE
  5
95
330
7C
100
AcDbEntity
  8
FIX
  6
Continuous
100
AcDbCircle
 10
799.8719063978815
 20
290.0777517865025
 30
0.0
 40
40.0
  0
LINE
  5
96
330
7C
100
AcDbEntity
  8
DETAIL
  6
CONTINOUS
100
AcDbLine
 10
771.8719063978815
 20
290.0777517865025
 30
0.0
 11
771.8719063978815
 21
323.0777517865025
 31
0.0
  0
LINE
  5
97
330
7C
100
AcDbEntity
  8
BASIS
  6
DASHDOT
100
AcDbLine
 10
989.8719063978814
 20
239.4419287865025
 30
0.0
 11
989.8719063978814
 21
1184.296115786501
 31
0.0
  0
LINE
  5
98
330
7C
100
AcDbEntity
  8
NOTE
  6
CONTINOUS
100
AcDbLine
 10
799.8719063978815
 20
270.0777517865024
 30
0.0
 11
799.8719063978815
 21
310.0777517865025
 31
0.0
  0
LINE
  5
99
330
7C
100
AcDbEntity
  8
NOTE
  6
Continuous
100
AcDbLine
 10
0.0000023978816444
 20
-0.000002213497396
 30
0.0
 11
579.8068043978815
 21
-0.000002213497396
 31
0.0
  0
TEXT
  5
9A
330
7C
100
AcDbEntity
  8
NOTE
  6
Continuous
100
AcDbText
 10
14.78030739788152
 20
18.90599333195722
 30
0.0
 40
59.57818181818182
  1
AH 2-12×36
 41
0.9
  7
MS PGothic
 11
14.78030739788152
 21
6.724116968320851
 31
0.0
100
AcDbText
 73
     1
  0
LINE
  5
9B
330
7C
100
AcDbEntity
  8
SIZE
100
AcDbLine
 10
715.7017103978814
 20
290.0777517865025
 30
0.0
 11
320.8350553978815
 21
290.0777517865025
 31
0.0
  0
LINE
  5
9C
330
7C
100
AcDbEntity
  8
SIZE
100
AcDbLine
 10
735.7017103978814
 20
290.0777517865025
 30
0.0
 11
473.5566813978812
 21
290.0777517865025
 31
0.0
  0
LINE
  5
9D
330
7C
100
AcDbEntity
  8
SIZE
100
AcDbLine
 10
735.7017103978814
 20
290.0777517865025
 30
0.0
 11
190.7875803978813
 21
290.0777517865025
 31
0.0
  0
LINE
  5
9E
330
7C
100
AcDbEntity
  8
NOTE
  6
Continuous
100
AcDbLine
 10
579.8068043978815
 20
-0.000002213497396
 30
0.0
 11
799.8719063978815
 21
290.0777517865025
 31
0.0
  0
TEXT
  5
9F
330
7C
100
AcDbEntity
  8
SIZE
100
AcDbText
 10
739.2433353978814
 20
143.9085462278353
 30
0.0
 40
70.28565910188316
  1
28
 41
0.9
  7
Simplex
 11
739.2433353978814
 21
108.2756206846195
 31
0.0
100
AcDbText
 73
     1
  0
LINE
  5
A0
330
7C
100
AcDbEntity
  8
SIZE
100
AcDbLine
 10
735.7017103978814
 20
290.0777517865025
 30
0.0
 11
619.7442583978815
 21
290.0777517865025
 31
0.0
  0
LINE
  5
A1
330
7C
100
AcDbEntity
  8
SIZE
100
AcDbLine
 10
799.8719073978815
 20
250.0777517865026
 30
0.0
 11
799.8719073978815
 21
65.36127978650262
 31
0.0
  0
LINE
  5
A2
330
7C
100
AcDbEntity
  8
SIZE
100
AcDbLine
 10
799.8719073978815
 20
250.0777517865026
 30
0.0
 11
799.8719073978815
 21
65.36127978650262
 31
0.0
  0
LINE
  5
A3
330
7C
100
AcDbEntity
  8
SIZE
100
AcDbLine
 10
771.8719073978815
 20
270.0777517865024
 30
0.0
 11
771.8719073978815
 21
65.36127978650262
 31
0.0
  0
CIRCLE
  5
A4
330
7C
100
AcDbEntity
  8
SIZE
  6
Continuous
100
AcDbCircle
 10
799.8719073978815
 20
95.36127978650259
 30
0.0
 40
6.0
  0
CIRCLE
  5
A5
330
7C
100
AcDbEntity
  8
SIZE
  6
Continuous
100
AcDbCircle
 10
771.8719073978815
 20
95.36127978650259
 30
0.0
 40
6.0
  0
CIRCLE
  5
A6
330
7C
100
AcDbEntity
  8
SIZE
  6
Continuous
100
AcDbCircle
 10
799.8719073978815
 20
95.36127978650259
 30
0.0
 40
6.0
  0
LINE
  5
A7
330
7C
100
AcDbEntity
  8
SIZE
100
AcDbLine
 10
799.8719073978815
 20
95.36127978650259
 30
0.0
 11
771.8719073978815
 21
95.36127978650259
 31
0.0
  0
LINE
  5
A8
330
7C
100
AcDbEntity
  8
SIZE
100
AcDbLine
 10
769.8719073978815
 20
95.36127978650259
 30
0.0
 11
767.8719073978815
 21
95.36127978650259
 31
0.0
  0
LINE
  5
A9
330
7C
100
AcDbEntity
  8
SIZE
100
AcDbLine
 10
801.8719073978815
 20
95.36127978650259
 30
0.0
 11
803.8719073978814
 21
95.36127978650259
 31
0.0
  0
LINE
  5
AA
330
7C
100
AcDbEntity
  8
NOTE
  6
CONTINOUS
100
AcDbLine
 10
779.8719063978815
 20
290.0777517865025
 30
0.0
 11
819.8719063978815
 21
290.0777517865025
 31
0.0
  0
LINE
  5
AB
330
7C
100
AcDbEntity
  8
NOTE
  6
Continuous
100
AcDbLine
 10
799.8719063978815
 20
290.0777517865025
 30
0.0
 11
784.7676663978813
 21
253.0390967865026
 31
0.0
  0
LINE
  5
AC
330
7C
100
AcDbEntity
  8
NOTE
  6
Continuous
100
AcDbLine
 10
799.8719063978815
 20
290.0777517865025
 30
0.0
 11
768.2719233978814
 21
265.5534567865024
 31
0.0
  0
LINE
  5
AD
330
7C
100
AcDbEntity
  8
SIZE
100
AcDbLine
 10
771.8719073978815
 20
343.0777517865025
 30
0.0
 11
771.8719073978815
 21
1422.502751786502
 31
0.0
  0
LINE
  5
AE
330
7C
100
AcDbEntity
  8
OUTLINE
  6
Continuous
100
AcDbLine
 10
824.8719063978814
 20
323.0777517865025
 30
0.0
 11
824.8719063978814
 21
1145.077751786502
 31
0.0
  0
LINE
  5
AF
330
7C
100
AcDbEntity
  8
DETAIL
  6
CONTINOUS
100
AcDbLine
 10
824.8719063978814
 20
323.0777517865025
 30
0.0
 11
824.8719063978814
 21
1145.077751786502
 31
0.0
  0
LINE
  5
B0
330
7C
100
AcDbEntity
  8
DETAIL
  6
CONTINOUS
100
AcDbLine
 10
804.8719063978815
 20
462.0777517865024
 30
0.0
 11
804.8719063978815
 21
1002.077751786502
 31
0.0
  0
LINE
  5
B1
330
7C
100
AcDbEntity
  8
SIZE
100
AcDbLine
 10
714.4427113978816
 20
732.0777517865025
 30
0.0
 11
320.8350553978815
 21
732.0777517865025
 31
0.0
  0
LINE
  5
B2
330
7C
100
AcDbEntity
  8
SIZE
100
AcDbLine
 10
856.8719073978815
 20
724.0777517865025
 30
0.0
 11
473.5566813978812
 21
724.0777517865025
 31
0.0
  0
LINE
  5
B3
330
7C
100
AcDbEntity
  8
SIZE
100
AcDbLine
 10
777.2745573978816
 20
810.0801537865023
 30
0.0
 11
190.4274553978813
 21
810.0801537865023
 31
0.0
  0
LINE
  5
B4
330
7C
100
AcDbEntity
  8
SIZE
100
AcDbLine
 10
350.8350553978814
 20
292.0777517865025
 30
0.0
 11
350.8350553978814
 21
730.0777517865025
 31
0.0
  0
LINE
  5
B5
330
7C
100
AcDbEntity
  8
SIZE
100
AcDbLine
 10
503.5566813978814
 20
292.0777517865025
 30
0.0
 11
503.5566813978814
 21
724.0777517865025
 31
0.0
  0
TEXT
  5
B6
330
7C
100
AcDbEntity
  8
SIZE
100
AcDbText
 10
172.2403139565487
 20
529.5206087865024
 30
0.0
 40
70.28565910188316
  1
520
 50
90.0
 41
0.9
  7
Simplex
 11
207.8732394997645
 21
529.5206087865024
 31
0.0
100
AcDbText
 73
     1
  0
LINE
  5
B7
330
7C
100
AcDbEntity
  8
SIZE
100
AcDbLine
 10
220.7875803978813
 20
810.0801537865023
 30
0.0
 11
220.7875803978813
 21
603.5777517865025
 31
0.0
  0
TEXT
  5
B8
330
7C
100
AcDbEntity
  8
SIZE
100
AcDbText
 10
302.2877889565489
 20
437.0206087865025
 30
0.0
 40
70.28565910188316
  1
442
 50
90.0
 41
0.9
  7
Simplex
 11
337.9207144997647
 21
437.0206087865025
 31
0.0
100
AcDbText
 73
     1
  0
LINE
  5
B9
330
7C
100
AcDbEntity
  8
SIZE
100
AcDbLine
 10
220.7875803978813
 20
292.0777517865025
 30
0.0
 11
220.7875803978813
 21
603.5777517865025
 31
0.0
  0
TEXT
  5
BA
330
7C
100
AcDbEntity
  8
SIZE
100
AcDbText
 10
455.0094149565487
 20
427.1348947865025
 30
0.0
 40
70.28565910188316
  1
434
 50
90.0
 41
0.9
  7
Simplex
 11
490.6423404997645
 21
427.1348947865025
 31
0.0
100
AcDbText
 73
     1
  0
CIRCLE
  5
BB
330
7C
100
AcDbEntity
  8
SIZE
  6
Continuous
100
AcDbCircle
 10
220.4274553978814
 20
810.0801537865023
 30
0.0
 40
6.0
  0
CIRCLE
  5
BC
330
7C
100
AcDbEntity
  8
SIZE
  6
Continuous
100
AcDbCircle
 10
350.8350553978814
 20
732.0777517865025
 30
0.0
 40
6.0
  0
CIRCLE
  5
BD
330
7C
100
AcDbEntity
  8
SIZE
  6
Continuous
100
AcDbCircle
 10
503.5566813978814
 20
724.0777517865025
 30
0.0
 40
6.0
  0
LINE
  5
BE
330
7C
100
AcDbEntity
  8
SIZE
100
AcDbLine
 10
649.7442583978815
 20
292.0777517865025
 30
0.0
 11
649.7442583978815
 21
684.0777517865025
 31
0.0
  0
TEXT
  5
BF
330
7C
100
AcDbEntity
  8
SIZE
100
AcDbText
 10
601.1969919565488
 20
415.3920377865025
 30
0.0
 40
70.28565910188316
  1
396
 50
90.0
 41
0.9
  7
Simplex
 11
636.8299174997646
 21
415.3920377865025
 31
0.0
100
AcDbText
 73
     1
  0
LINE
  5
C0
330
7C
100
AcDbEntity
  8
DETAIL
  6
CONTINOUS
100
AcDbLine
 10
824.8719063978814
 20
462.0777517865024
 30
0.0
 11
804.8719063978815
 21
462.0777517865024
 31
0.0
  0
LINE
  5
C1
330
7C
100
AcDbEntity
  8
SIZE
100
AcDbLine
 10
836.2639373978815
 20
686.0777517865025
 30
0.0
 11
619.7442583978815
 21
686.0777517865025
 31
0.0
  0
LINE
  5
C2
330
7C
100
AcDbEntity
  8
BASIS
  6
DASHDOT
100
AcDbLine
 10
734.4427113978815
 20
732.0777517865025
 30
0.0
 11
884.1456433978814
 21
732.0777517865025
 31
0.0
  0
CIRCLE
  5
C3
330
7C
100
AcDbEntity
  8
SIZE
  6
Continuous
100
AcDbCircle
 10
649.7442583978815
 20
686.0777517865025
 30
0.0
 40
6.0
  0
LINE
  5
C4
330
7C
100
AcDbEntity
  8
NOTE
  6
CONTINOUS
100
AcDbLine
 10
862.8719063978815
 20
724.0777517865025
 30
0.0
 11
902.8719063978815
 21
724.0777517865025
 31
0.0
  0
LINE
  5
C5
330
7C
100
AcDbEntity
  8
NOTE
  6
CONTINOUS
100
AcDbLine
 10
859.8719063978816
 20
686.0777517865025
 30
0.0
 11
899.8719063978814
 21
686.0777517865025
 31
0.0
  0
LINE
  5
C6
330
7C
100
AcDbEntity
  8
NOTE
  6
CONTINOUS
100
AcDbLine
 10
879.8719063978815
 20
666.0777517865025
 30
0.0
 11
879.8719063978815
 21
706.0777517865025
 31
0.0
  0
LWPOLYLINE
  5
C7
330
7C
100
AcDbEntity
  8
NOTE
  6
Continuous
100
AcDbPolyline
 90
        3
 70
     0
 43
0.0
 10
911.0696893978815
 20
661.0438077865024
 10
879.8719063978815
 20
686.0777517865025
 10
919.4069503978812
 20
679.9966117865025
  0
LWPOLYLINE
  5
C8
330
7C
100
AcDbEntity
  8
NOTE
  6
Continuous
100
AcDbPolyline
 90
        3
 70
     0
 43
0.0
 10
921.6507193978817
 20
733.8860997865025
 10
882.8719063978814
 20
724.0777517865025
 10
911.5511693978815
 20
751.9614367865025
  0
LINE
  5
C9
330
7C
100
AcDbEntity
  8
NOTE
  6
CONTINOUS
100
AcDbLine
 10
882.8719063978814
 20
704.0777517865024
 30
0.0
 11
882.8719063978814
 21
744.0777517865025
 31
0.0
  0
LINE
  5
CA
330
7C
100
AcDbEntity
  8
NOTE
  6
Continuous
100
AcDbLine
 10
824.5117813978815
 20
810.0801537865023
 30
0.0
 11
918.8708563978817
 21
895.3889597865027
 31
0.0
  0
LINE
  5
CB
330
7C
100
AcDbEntity
  8
NOTE
  6
CONTINOUS
100
AcDbLine
 10
804.5117813978814
 20
810.0801537865023
 30
0.0
 11
844.5117813978814
 21
810.0801537865023
 31
0.0
  0
LWPOLYLINE
  5
CC
330
7C
100
AcDbEntity
  8
NOTE
  6
Continuous
100
AcDbPolyline
 90
        3
 70
     0
 43
0.0
 10
860.3388213978815
 20
827.8684427865026
 10
824.5117813978815
 20
810.0801537865023
 10
846.6447643978813
 20
843.3987837865027
  0
LINE
  5
CD
330
7C
100
AcDbEntity
  8
NOTE
  6
CONTINOUS
100
AcDbLine
 10
824.5117813978815
 20
790.0801537865023
 30
0.0
 11
824.5117813978815
 21
830.0801537865023
 31
0.0
  0
POINT
  5
CE
330
7C
100
AcDbEntity
  8
NOTE
  6
Continuous
100
AcDbPoint
 10
872.3575503978814
 20
933.9301367865024
 30
0.0
  0
LINE
  5
CF
330
7C
100
AcDbEntity
  8
SIZE
100
AcDbLine
 10
824.8719073978815
 20
1185.077751786502
 30
0.0
 11
824.8719073978815
 21
1422.502751786502
 31
0.0
  0
LINE
  5
D0
330
7C
100
AcDbEntity
  8
SIZE
100
AcDbLine
 10
824.8719073978815
 20
1165.077751786502
 30
0.0
 11
824.8719073978815
 21
1422.502751786502
 31
0.0
  0
LINE
  5
D1
330
7C
100
AcDbEntity
  8
SIZE
100
AcDbLine
 10
824.8719073978815
 20
1165.077751786502
 30
0.0
 11
824.8719073978815
 21
1293.248751786502
 31
0.0
  0
LINE
  5
D2
330
7C
100
AcDbEntity
  8
SIZE
100
AcDbLine
 10
804.8719073978814
 20
1022.077751786502
 30
0.0
 11
804.8719073978814
 21
1293.248751786502
 31
0.0
  0
LINE
  5
D3
330
7C
100
AcDbEntity
  8
DETAIL
  6
CONTINOUS
100
AcDbLine
 10
824.8719063978814
 20
1002.077751786502
 30
0.0
 11
804.8719063978815
 21
1002.077751786502
 31
0.0
  0
LINE
  5
D4
330
7C
100
AcDbEntity
  8
SIZE
  6
Continuous
100
AcDbLine
 10
814.8719063978814
 20
1263.249145786502
 30
0.0
 11
945.9402583978814
 21
1263.249145786502
 31
0.0
  0
LINE
  5
D5
330
7C
100
AcDbEntity
  8
SIZE
100
AcDbLine
 10
822.8719073978815
 20
1263.249145786502
 30
0.0
 11
814.8719073978815
 21
1263.249145786502
 31
0.0
  0
CIRCLE
  5
D6
330
7C
100
AcDbEntity
  8
SIZE
  6
Continuous
100
AcDbCircle
 10
804.8719073978814
 20
1263.249145786502
 30
0.0
 40
6.0
  0
LINE
  5
D7
330
7C
100
AcDbEntity
  8
SIZE
100
AcDbLine
 10
806.8719073978815
 20
1263.249145786502
 30
0.0
 11
814.8719073978815
 21
1263.249145786502
 31
0.0
  0
CIRCLE
  5
D8
330
7C
100
AcDbEntity
  8
SIZE
  6
Continuous
100
AcDbCircle
 10
824.8719073978815
 20
1263.249145786502
 30
0.0
 40
6.0
  0
TEXT
  5
D9
330
7C
100
AcDbEntity
  8
SIZE
100
AcDbText
 10
751.7433353978814
 20
1441.050018227835
 30
0.0
 40
70.28565910188316
  1
53
 41
0.9
  7
Simplex
 11
751.7433353978814
 21
1405.417092684619
 31
0.0
100
AcDbText
 73
     1
  0
TEXT
  5
DA
330
7C
100
AcDbEntity
  8
SIZE
100
AcDbText
 10
843.215705397881
 20
1311.796018227835
 30
0.0
 40
70.28565910188316
  1
20
 41
0.9
  7
Simplex
 11
843.215705397881
 21
1276.163092684619
 31
0.0
100
AcDbText
 73
     1
  0
LINE
  5
DB
330
7C
100
AcDbEntity
  8
SIZE
100
AcDbLine
 10
824.8719073978815
 20
1392.502751786502
 30
0.0
 11
771.8719073978815
 21
1392.502751786502
 31
0.0
  0
CIRCLE
  5
DC
330
7C
100
AcDbEntity
  8
SIZE
  6
Continuous
100
AcDbCircle
 10
771.8719073978815
 20
1392.502751786502
 30
0.0
 40
6.0
  0
LINE
  5
DD
330
7C
100
AcDbEntity
  8
SIZE
100
AcDbLine
 10
769.8719073978815
 20
1392.502751786502
 30
0.0
 11
767.8719073978815
 21
1392.502751786502
 31
0.0
  0
CIRCLE
  5
DE
330
7C
100
AcDbEntity
  8
SIZE
  6
Continuous
100
AcDbCircle
 10
824.8719073978815
 20
1392.502751786502
 30
0.0
 40
6.0
  0
CIRCLE
  5
DF
330
7C
100
AcDbEntity
  8
SIZE
  6
Continuous
100
AcDbCircle
 10
824.8719073978815
 20
1392.502751786502
 30
0.0
 40
6.0
  0
LINE
  5
E0
330
7C
100
AcDbEntity
  8
SIZE
100
AcDbLine
 10
826.8719073978815
 20
1392.502751786502
 30
0.0
 11
828.8719073978814
 21
1392.502751786502
 31
0.0
  0
CIRCLE
  5
E1
330
7C
100
AcDbEntity
  8
SIZE
  6
Continuous
100
AcDbCircle
 10
1420.44446039788
 20
290.0777517865025
 30
0.0
 40
6.0
  0
CIRCLE
  5
E2
330
7C
100
AcDbEntity
  8
FIX
  6
Continuous
100
AcDbCircle
 10
1169.871906397881
 20
290.0777517865025
 30
0.0
 40
40.0
  0
LINE
  5
E3
330
7C
100
AcDbEntity
  8
OUTLINE
  6
Continuous
100
AcDbLine
 10
1183.871906397881
 20
323.0777517865025
 30
0.0
 11
1183.871906397881
 21
290.0777517865025
 31
0.0
  0
TEXT
  5
E4
330
7C
100
AcDbEntity
  8
ETC
  6
Continuous
100
AcDbText
 10
1573.111262397881
 20
292.4403323319572
 30
0.0
 40
59.57818181818182
  1
室外機
 41
0.9
  7
MS PGothic
 11
1573.111262397881
 21
280.2584559683208
 31
0.0
100
AcDbText
 73
     1
  0
LINE
  5
E5
330
7C
100
AcDbEntity
  8
DETAIL
  6
CONTINOUS
100
AcDbLine
 10
1183.871906397881
 20
290.0777517865025
 30
0.0
 11
1183.871906397881
 21
323.0777517865025
 31
0.0
  0
LINE
  5
E6
330
7C
100
AcDbEntity
  8
NOTE
  6
CONTINOUS
100
AcDbLine
 10
1169.871906397881
 20
270.0777517865024
 30
0.0
 11
1169.871906397881
 21
310.0777517865025
 31
0.0
  0
LINE
  5
E7
330
7C
100
AcDbEntity
  8
NOTE
  6
Continuous
100
AcDbLine
 10
1969.74381039788
 20
-0.000002213497396
 30
0.0
 11
1389.937008397881
 21
-0.000002213497396
 31
0.0
  0
TEXT
  5
E8
330
7C
100
AcDbEntity
  8
NOTE
  6
Continuous
100
AcDbText
 10
1415.169219397881
 20
31.64956522783537
 30
0.0
 40
70.28565910188316
  1
AH 2-U cut
 41
0.9
  7
Simplex
 11
1415.169219397881
 21
-3.983360315380478
 31
0.0
100
AcDbText
 73
     1
  0
LINE
  5
E9
330
7C
100
AcDbEntity
  8
NOTE
  6
Continuous
100
AcDbLine
 10
1389.937008397881
 20
-0.000002213497396
 30
0.0
 11
1169.871906397881
 21
290.0777517865025
 31
0.0
  0
LINE
  5
EA
330
7C
100
AcDbEntity
  8
SIZE
100
AcDbLine
 10
1214.713746397881
 20
290.0777517865025
 30
0.0
 11
1450.44446039788
 21
290.0777517865025
 31
0.0
  0
LINE
  5
EB
330
7C
100
AcDbEntity
  8
SIZE
100
AcDbLine
 10
1183.87190739788
 20
270.0777517865024
 30
0.0
 11
1183.87190739788
 21
65.36127978650262
 31
0.0
  0
LINE
  5
EC
330
7C
100
AcDbEntity
  8
SIZE
100
AcDbLine
 10
1169.87190739788
 20
250.0777517865026
 30
0.0
 11
1169.87190739788
 21
65.36127978650262
 31
0.0
  0
LINE
  5
ED
330
7C
100
AcDbEntity
  8
SIZE
100
AcDbLine
 10
1169.87190739788
 20
250.0777517865026
 30
0.0
 11
1169.87190739788
 21
65.36127978650262
 31
0.0
  0
CIRCLE
  5
EE
330
7C
100
AcDbEntity
  8
SIZE
  6
Continuous
100
AcDbCircle
 10
1169.87190739788
 20
95.36127978650259
 30
0.0
 40
6.0
  0
CIRCLE
  5
EF
330
7C
100
AcDbEntity
  8
SIZE
  6
Continuous
100
AcDbCircle
 10
1169.87190739788
 20
95.36127978650259
 30
0.0
 40
6.0
  0
CIRCLE
  5
F0
330
7C
100
AcDbEntity
  8
SIZE
  6
Continuous
100
AcDbCircle
 10
1183.87190739788
 20
95.36127978650259
 30
0.0
 40
6.0
  0
LINE
  5
F1
330
7C
100
AcDbEntity
  8
SIZE
100
AcDbLine
 10
1183.87190739788
 20
95.36127978650259
 30
0.0
 11
1169.87190739788
 21
95.36127978650259
 31
0.0
  0
LINE
  5
F2
330
7C
100
AcDbEntity
  8
SIZE
100
AcDbLine
 10
1167.87190739788
 20
95.36127978650259
 30
0.0
 11
1165.87190739788
 21
95.36127978650259
 31
0.0
  0
LINE
  5
F3
330
7C
100
AcDbEntity
  8
SIZE
100
AcDbLine
 10
1185.87190739788
 20
95.36127978650259
 30
0.0
 11
1187.87190739788
 21
95.36127978650259
 31
0.0
  0
TEXT
  5
F4
330
7C
100
AcDbEntity
  8
SIZE
100
AcDbText
 10
1134.357621397881
 20
143.9085462278353
 30
0.0
 40
70.28565910188316
  1
14
 41
0.9
  7
Simplex
 11
1134.357621397881
 21
108.2756206846195
 31
0.0
100
AcDbText
 73
     1
  0
LINE
  5
F5
330
7C
100
AcDbEntity
  8
NOTE
  6
CONTINOUS
100
AcDbLine
 10
1149.871906397881
 20
290.0777517865025
 30
0.0
 11
1189.871906397881
 21
290.0777517865025
 31
0.0
  0
LINE
  5
F6
330
7C
100
AcDbEntity
  8
NOTE
  6
Continuous
100
AcDbLine
 10
1169.871906397881
 20
290.0777517865025
 30
0.0
 11
1184.97614639788
 21
253.0390967865026
 31
0.0
  0
LINE
  5
F7
330
7C
100
AcDbEntity
  8
NOTE
  6
Continuous
100
AcDbLine
 10
1169.871906397881
 20
290.0777517865025
 30
0.0
 11
1201.47188939788
 21
265.5534567865024
 31
0.0
  0
TEXT
  5
F8
330
7C
100
AcDbEntity
  8
ETC
  6
Continuous
100
AcDbText
 10
1561.288518397879
 20
424.3505052278352
 30
0.0
 40
70.28565910188316
  1
SPUZ0824
 41
0.9
  7
Simplex
 11
1561.288518397879
 21
388.7175796846194
 31
0.0
100
AcDbText
 73
     1
  0
LINE
  5
F9
330
7C
100
AcDbEntity
  8
SIZE
100
AcDbLine
 10
1420.44446039788
 20
1143.077751786502
 30
0.0
 11
1420.44446039788
 21
717.5777517865025
 31
0.0
  0
LINE
  5
FA
330
7C
100
AcDbEntity
  8
OUTLINE
  6
Continuous
100
AcDbLine
 10
1154.87190639788
 20
1145.077751786502
 30
0.0
 11
1154.87190639788
 21
323.0777517865025
 31
0.0
  0
LINE
  5
FB
330
7C
100
AcDbEntity
  8
DETAIL
  6
CONTINOUS
100
AcDbLine
 10
1154.87190639788
 20
323.0777517865025
 30
0.0
 11
1154.87190639788
 21
1145.077751786502
 31
0.0
  0
LINE
  5
FC
330
7C
100
AcDbEntity
  8
SIZE
100
AcDbLine
 10
1420.44446039788
 20
292.0777517865025
 30
0.0
 11
1420.44446039788
 21
717.5777517865025
 31
0.0
  0
LINE
  5
FD
330
7C
100
AcDbEntity
  8
NOTE
  6
Continuous
100
AcDbLine
 10
1124.871906397881
 20
323.0777517865025
 30
0.0
 11
1231.96219639788
 21
428.5736107865025
 31
0.0
  0
LINE
  5
FE
330
7C
100
AcDbEntity
  8
NOTE
  6
CONTINOUS
100
AcDbLine
 10
1104.871906397881
 20
323.0777517865025
 30
0.0
 11
1144.871906397881
 21
323.0777517865025
 31
0.0
  0
LWPOLYLINE
  5
FF
330
7C
100
AcDbEntity
  8
NOTE
  6
Continuous
100
AcDbPolyline
 90
        3
 70
     0
 43
0.0
 10
1159.661957397881
 20
342.8173667865026
 10
1124.871906397881
 20
323.0777517865025
 10
1145.131166397881
 20
357.5677847865026
  0
LINE
  5
100
330
7C
100
AcDbEntity
  8
NOTE
  6
CONTINOUS
100
AcDbLine
 10
1124.871906397881
 20
303.0777517865026
 30
0.0
 11
1124.871906397881
 21
343.0777517865025
 31
0.0
  0
TEXT
  5
101
330
7C
100
AcDbEntity
  8
NOTE
  6
Continuous
100
AcDbText
 10
1251.940121397881
 20
454.9920182278352
 30
0.0
 40
70.28565910188316
  1
D
 41
0.9
  7
Simplex
 11
1251.940121397881
 21
419.3590926846193
 31
0.0
100
AcDbText
 73
     1
  0
LINE
  5
102
330
7C
100
AcDbEntity
  8
NOTE
  6
Continuous
100
AcDbLine
 10
1231.96219639788
 20
428.5736107865025
 30
0.0
 11
1302.198482397881
 21
428.5736107865025
 31
0.0
  0
TEXT
  5
103
330
7C
100
AcDbEntity
  8
NOTE
  6
Continuous
100
AcDbText
 10
1060.708654397879
 20
652.1866632278352
 30
0.0
 40
70.28565910188316
  1
RG
 41
0.9
  7
Simplex
 11
1060.708654397879
 21
616.5537376846194
 31
0.0
100
AcDbText
 73
     1
  0
LINE
  5
104
330
7C
100
AcDbEntity
  8
NOTE
  6
Continuous
100
AcDbLine
 10
1040.77148939788
 20
625.2040537865025
 30
0.0
 11
1180.455218397881
 21
625.2040537865025
 31
0.0
  0
TEXT
  5
105
330
7C
100
AcDbEntity
  8
NOTE
  6
Continuous
100
AcDbText
 10
1060.92620539788
 20
838.7222592278353
 30
0.0
 40
70.28565910188316
  1
RL
 41
0.9
  7
Simplex
 11
1060.92620539788
 21
803.0893336846194
 31
0.0
100
AcDbText
 73
     1
  0
LINE
  5
106
330
7C
100
AcDbEntity
  8
NOTE
  6
Continuous
100
AcDbLine
 10
1040.77148939788
 20
812.3038517865023
 30
0.0
 11
1170.35759939788
 21
812.3038517865023
 31
0.0
  0
TEXT
  5
107
330
7C
100
AcDbEntity
  8
SIZE
100
AcDbText
 10
1371.897193956547
 20
643.5206087865025
 30
0.0
 40
70.28565910188316
  1
855
 50
90.0
 41
0.9
  7
Simplex
 11
1407.530119499763
 21
643.5206087865025
 31
0.0
100
AcDbText
 73
     1
  0
LINE
  5
108
330
7C
100
AcDbEntity
  8
SIZE
100
AcDbLine
 10
1154.87190739788
 20
1165.077751786502
 30
0.0
 11
1154.87190739788
 21
1422.502751786502
 31
0.0
  0
LINE
  5
109
330
7C
100
AcDbEntity
  8
SIZE
100
AcDbLine
 10
1203.87190739788
 20
1145.077751786502
 30
0.0
 11
1450.44446039788
 21
1145.077751786502
 31
0.0
  0
CIRCLE
  5
10A
330
7C
100
AcDbEntity
  8
SIZE
  6
Continuous
100
AcDbCircle
 10
1420.44446039788
 20
1145.077751786502
 30
0.0
 40
6.0
  0
CIRCLE
  5
10B
330
7C
100
AcDbEntity
  8
SIZE
  6
Continuous
100
AcDbCircle
 10
1154.87190739788
 20
1392.502751786502
 30
0.0
 40
6.0
  0
ENDBLK
  5
7E
330
7C
100
AcDbEntity
  8
0
100
AcDbBlockEnd
  0
BLOCK
  5
10D
330
10C
100
AcDbEntity
  8
0
100
AcDbBlockBegin
  2
_ORIGIN2
 70
     0
 10
0.0
 20
0.0
 30
0.0
  3
_ORIGIN2
  1
_ORIGIN2
  0
CIRCLE
  5
10F
330
10C
100
AcDbEntity
  8
0
100
AcDbCircle
 10
0.0
 20
0.0
 30
0.0
 40
0.5
  0
CIRCLE
  5
110
330
10C
100
AcDbEntity
  8
0
100
AcDbCircle
 10
0.0
 20
0.0
 30
0.0
 40
0.25
  0
LINE
  5
111
330
10C
100
AcDbEntity
  8
0
100
AcDbLine
 10
-0.5
 20
0.0
 30
0.0
 11
-1.0
 21
0.0
 31
0.0
  0
ENDBLK
  5
10E
330
10C
100
AcDbEntity
  8
0
100
AcDbBlockEnd
  0
BLOCK
  5
138
330
137
100
AcDbEntity
  8
0
100
AcDbBlockBegin
  2
_DOTBLANK
 70
     0
 10
0.0
 20
0.0
 30
0.0
  3
_DOTBLANK
  1
_DOTBLANK
  0
CIRCLE
  5
13A
330
137
100
AcDbEntity
  8
0
  6
ByBlock
 62
     0
370
    -2
100
AcDbCircle
 10
0.0
 20
0.0
 30
0.0
 40
0.5
  0
LINE
  5
13B
330
137
100
AcDbEntity
  8
0
  6
ByBlock
 62
     0
370
    -2
100
AcDbLine
 10
-0.5
 20
0.0
 30
0.0
 11
-1.0
 21
0.0
 31
0.0
  0
ENDBLK
  5
139
330
137
100
AcDbEntity
  8
0
100
AcDbBlockEnd
  0
BLOCK
  5
144
330
13D
100
AcDbEntity
  8
0
100
AcDbBlockBegin
  2
*D4
 70
     1
 10
0.0
 20
0.0
 30
0.0
  3
*D4
  1
*D4
  0
MTEXT
  5
13E
330
13D
100
AcDbEntity
  8
SIZE
100
AcDbMText
 10
-617.8508357658418
 20
-71.29668961166578
 30
0.0
 40
70.28565910188316
 41
120.0278930664062
 71
     7
 72
     1
  1
{\fSimplex|b0|i0;330}
  7
Simplex w9
 11
6.123233995736766E-17
 21
1.0
 31
0.0
 73
     1
 44
0.75
  0
LINE
  5
13F
330
13D
100
AcDbEntity
  8
SIZE
  6
Continuous
100
AcDbLine
 10
-494.9999999999999
 20
-165.0
 30
0.0
 11
-647.7608357658416
 21
-165.0
 31
0.0
  0
LINE
  5
140
330
13D
100
AcDbEntity
  8
SIZE
  6
Continuous
100
AcDbLine
 10
-494.9999999999999
 20
165.0
 30
0.0
 11
-647.7608357658416
 21
165.0
 31
0.0
  0
CIRCLE
  5
141
330
13D
100
AcDbEntity
  8
SIZE
  6
Continuous
100
AcDbCircle
 10
-617.7608357658416
 20
-165.0
 30
0.0
 40
5.0
  0
CIRCLE
  5
142
330
13D
100
AcDbEntity
  8
SIZE
  6
Continuous
100
AcDbCircle
 10
-617.7608357658416
 20
165.0
 30
0.0
 40
5.0
  0
LINE
  5
143
330
13D
100
AcDbEntity
  8
SIZE
  6
Continuous
100
AcDbLine
 10
-617.7608357658416
 20
-160.0
 30
0.0
 11
-617.7608357658416
 21
160.0
 31
0.0
  0
ENDBLK
  5
145
330
13D
100
AcDbEntity
  8
0
100
AcDbBlockEnd
  0
BLOCK
  5
150
330
147
100
AcDbEntity
  8
0
100
AcDbBlockBegin
  2
*D5
 70
     1
 10
0.0
 20
0.0
 30
0.0
  3
*D5
  1
*D5
  0
MTEXT
  5
148
330
147
100
AcDbEntity
  8
SIZE
100
AcDbMText
 10
-617.8508357658418
 20
-224.0452194213867
 30
0.0
 40
70.28565910188316
 41
75.98260498046875
 71
     7
 72
     1
  1
{\fSimplex|b0|i0;30}
  7
Simplex w9
 11
6.123233995736766E-17
 21
1.0
 31
0.0
 73
     1
 44
0.75
  0
LINE
  5
149
330
147
100
AcDbEntity
  8
SIZE
  6
Continuous
100
AcDbLine
 10
-494.9999999999999
 20
-165.0
 30
0.0
 11
-647.7608357658416
 21
-165.0
 31
0.0
  0
LINE
  5
14A
330
147
100
AcDbEntity
  8
SIZE
  6
Continuous
100
AcDbLine
 10
-461.9999999998473
 20
-195.0
 30
0.0
 11
-647.7608357658416
 21
-195.0
 31
0.0
  0
CIRCLE
  5
14B
330
147
100
AcDbEntity
  8
SIZE
  6
Continuous
100
AcDbCircle
 10
-617.7608357658416
 20
-165.0
 30
0.0
 40
5.0
  0
CIRCLE
  5
14C
330
147
100
AcDbEntity
  8
SIZE
  6
Continuous
100
AcDbCircle
 10
-617.7608357658416
 20
-195.0
 30
0.0
 40
5.0
  0
LINE
  5
14D
330
147
100
AcDbEntity
  8
SIZE
  6
Continuous
100
AcDbLine
 10
-617.7608357658416
 20
-170.0
 30
0.0
 11
-617.7608357658416
 21
-190.0
 31
0.0
  0
LINE
  5
14E
330
147
100
AcDbEntity
  8
SIZE
  6
Continuous
100
AcDbLine
 10
-617.7608357658416
 20
-165.0
 30
0.0
 11
-617.7608357658416
 21
-135.9547805786133
 31
0.0
  0
LINE
  5
14F
330
147
100
AcDbEntity
  8
SIZE
  6
Continuous
100
AcDbLine
 10
-617.7608357658416
 20
-195.0
 30
0.0
 11
-617.7608357658416
 21
-224.0452194213867
 31
0.0
  0
ENDBLK
  5
151
330
147
100
AcDbEntity
  8
0
100
AcDbBlockEnd
  0
BLOCK
  5
15A
330
153
100
AcDbEntity
  8
0
100
AcDbBlockBegin
  2
*D6
 70
     1
 10
0.0
 20
0.0
 30
0.0
  3
*D6
  1
*D6
  0
MTEXT
  5
154
330
153
100
AcDbEntity
  8
SIZE
100
AcDbMText
 10
-448.2900929806574
 20
408.071303463148
 30
0.0
 40
70.28565910188316
 41
108.784912109375
 71
     7
 72
     1
  1
{\fSimplex|b0|i0;175}
  7
Simplex w9
 73
     1
 44
0.75
  0
LINE
  5
155
330
153
100
AcDbEntity
  8
SIZE
  6
Continuous
100
AcDbLine
 10
-474.9999999999999
 20
185.0
 30
0.0
 11
-474.9999999999999
 21
437.9813034631479
 31
0.0
  0
LINE
  5
156
330
153
100
AcDbEntity
  8
SIZE
  6
Continuous
100
AcDbLine
 10
-300.0
 20
220.0
 30
0.0
 11
-300.0
 21
437.9813034631479
 31
0.0
  0
CIRCLE
  5
157
330
153
100
AcDbEntity
  8
SIZE
  6
Continuous
100
AcDbCircle
 10
-474.9999999999999
 20
407.9813034631479
 30
0.0
 40
5.0
  0
CIRCLE
  5
158
330
153
100
AcDbEntity
  8
SIZE
  6
Continuous
100
AcDbCircle
 10
-300.0
 20
407.9813034631479
 30
0.0
 40
5.0
  0
LINE
  5
159
330
153
100
AcDbEntity
  8
SIZE
  6
Continuous
100
AcDbLine
 10
-469.9999999999999
 20
407.9813034631479
 30
0.0
 11
-305.0
 21
407.9813034631479
 31
0.0
  0
ENDBLK
  5
15B
330
153
100
AcDbEntity
  8
0
100
AcDbBlockEnd
  0
BLOCK
  5
164
330
15D
100
AcDbEntity
  8
0
100
AcDbBlockBegin
  2
*D7
 70
     1
 10
0.0
 20
0.0
 30
0.0
  3
*D7
  1
*D7
  0
MTEXT
  5
15E
330
15D
100
AcDbEntity
  8
SIZE
100
AcDbMText
 10
-60.67600334702274
 20
408.071303463148
 30
0.0
 40
70.28565910188316
 41
117.8657455444336
 71
     7
 72
     1
  1
{\fSimplex|b0|i0;600}
  7
Simplex w9
 73
     1
 44
0.75
  0
LINE
  5
15F
330
15D
100
AcDbEntity
  8
SIZE
  6
Continuous
100
AcDbLine
 10
-300.0
 20
220.0
 30
0.0
 11
-300.0
 21
437.9813034631479
 31
0.0
  0
LINE
  5
160
330
15D
100
AcDbEntity
  8
SIZE
  6
Continuous
100
AcDbLine
 10
300.0
 20
220.0
 30
0.0
 11
300.0
 21
437.9813034631479
 31
0.0
  0
CIRCLE
  5
161
330
15D
100
AcDbEntity
  8
SIZE
  6
Continuous
100
AcDbCircle
 10
-300.0
 20
407.9813034631479
 30
0.0
 40
5.0
  0
CIRCLE
  5
162
330
15D
100
AcDbEntity
  8
SIZE
  6
Continuous
100
AcDbCircle
 10
300.0
 20
407.9813034631479
 30
0.0
 40
5.0
  0
LINE
  5
163
330
15D
100
AcDbEntity
  8
SIZE
  6
Continuous
100
AcDbLine
 10
-295.0
 20
407.9813034631479
 30
0.0
 11
295.0
 21
407.9813034631479
 31
0.0
  0
ENDBLK
  5
165
330
15D
100
AcDbEntity
  8
0
100
AcDbBlockEnd
  0
BLOCK
  5
16E
330
167
100
AcDbEntity
  8
0
100
AcDbBlockBegin
  2
*D8
 70
     1
 10
0.0
 20
0.0
 30
0.0
  3
*D8
  1
*D8
  0
MTEXT
  5
168
330
167
100
AcDbEntity
  8
SIZE
100
AcDbMText
 10
315.74105099999
 20
408.0713034631479
 30
0.0
 40
70.28565910188316
 41
108.784912109375
 71
     7
 72
     1
  1
{\fSimplex|b0|i0;175}
  7
Simplex w9
 73
     1
 44
0.75
  0
LINE
  5
169
330
167
100
AcDbEntity
  8
SIZE
  6
Continuous
100
AcDbLine
 10
300.0
 20
220.0
 30
0.0
 11
300.0
 21
437.9813034631479
 31
0.0
  0
LINE
  5
16A
330
167
100
AcDbEntity
  8
SIZE
  6
Continuous
100
AcDbLine
 10
475.0
 20
185.0
 30
0.0
 11
475.0
 21
437.9813034631479
 31
0.0
  0
CIRCLE
  5
16B
330
167
100
AcDbEntity
  8
SIZE
  6
Continuous
100
AcDbCircle
 10
300.0
 20
407.9813034631479
 30
0.0
 40
5.0
  0
CIRCLE
  5
16C
330
167
100
AcDbEntity
  8
SIZE
  6
Continuous
100
AcDbCircle
 10
475.0
 20
407.9813034631479
 30
0.0
 40
5.0
  0
LINE
  5
16D
330
167
100
AcDbEntity
  8
SIZE
  6
Continuous
100
AcDbLine
 10
305.0
 20
407.9813034631479
 30
0.0
 11
470.0
 21
407.9813034631479
 31
0.0
  0
ENDBLK
  5
16F
330
167
100
AcDbEntity
  8
0
100
AcDbBlockEnd
  0
BLOCK
  5
178
330
171
100
AcDbEntity
  8
0
100
AcDbBlockBegin
  2
*D9
 70
     1
 10
0.0
 20
0.0
 30
0.0
  3
*D9
  1
*D9
  0
MTEXT
  5
172
330
171
100
AcDbEntity
  8
SIZE
100
AcDbMText
 10
-74.98370148719005
 20
577.7621766213921
 30
0.0
 40
70.28565910188316
 41
117.8657455444336
 71
     7
 72
     1
  1
{\fSimplex|b0|i0;950}
  7
Simplex w9
 73
     1
 44
0.75
  0
LINE
  5
173
330
171
100
AcDbEntity
  8
SIZE
  6
Continuous
100
AcDbLine
 10
-474.9999999999999
 20
185.0
 30
0.0
 11
-474.9999999999999
 21
607.672176621392
 31
0.0
  0
LINE
  5
174
330
171
100
AcDbEntity
  8
SIZE
  6
Continuous
100
AcDbLine
 10
475.0
 20
185.0
 30
0.0
 11
475.0
 21
607.672176621392
 31
0.0
  0
CIRCLE
  5
175
330
171
100
AcDbEntity
  8
SIZE
  6
Continuous
100
AcDbCircle
 10
-474.9999999999999
 20
577.672176621392
 30
0.0
 40
5.0
  0
CIRCLE
  5
176
330
171
100
AcDbEntity
  8
SIZE
  6
Continuous
100
AcDbCircle
 10
475.0
 20
577.672176621392
 30
0.0
 40
5.0
  0
LINE
  5
177
330
171
100
AcDbEntity
  8
SIZE
  6
Continuous
100
AcDbLine
 10
-469.9999999999999
 20
577.672176621392
 30
0.0
 11
470.0
 21
577.672176621392
 31
0.0
  0
ENDBLK
  5
179
330
171
100
AcDbEntity
  8
0
100
AcDbBlockEnd
  0
BLOCK
  5
185
330
17E
100
AcDbEntity
  8
0
100
AcDbBlockBegin
  2
*D10
 70
     1
 10
0.0
 20
0.0
 30
0.0
  3
*D10
  1
*D10
  0
MTEXT
  5
17F
330
17E
100
AcDbEntity
  8
SIZE
100
AcDbMText
 10
974.8221006341489
 20
-56.99260712310195
 30
0.0
 40
70.28565910188316
 41
120.0278930664062
 71
     7
 72
     1
  1
{\fSimplex|b0|i0;370}
  7
Simplex w9
 11
6.123233995736766E-17
 21
1.0
 31
0.0
 73
     1
 44
0.75
  0
LINE
  5
180
330
17E
100
AcDbEntity
  8
SIZE
  6
Continuous
100
AcDbLine
 10
340.0
 20
-189.6
 30
0.0
 11
1004.912100634149
 21
-189.6
 31
0.0
  0
LINE
  5
181
330
17E
100
AcDbEntity
  8
SIZE
  6
Continuous
100
AcDbLine
 10
340.0
 20
180.4
 30
0.0
 11
1004.912100634149
 21
180.4
 31
0.0
  0
CIRCLE
  5
182
330
17E
100
AcDbEntity
  8
SIZE
  6
Continuous
100
AcDbCircle
 10
974.912100634149
 20
-189.6
 30
0.0
 40
5.0
  0
CIRCLE
  5
183
330
17E
100
AcDbEntity
  8
SIZE
  6
Continuous
100
AcDbCircle
 10
974.912100634149
 20
180.4
 30
0.0
 40
5.0
  0
LINE
  5
184
330
17E
100
AcDbEntity
  8
SIZE
  6
Continuous
100
AcDbLine
 10
974.912100634149
 20
-184.6
 30
0.0
 11
974.912100634149
 21
175.4
 31
0.0
  0
ENDBLK
  5
186
330
17E
100
AcDbEntity
  8
0
100
AcDbBlockEnd
  0
BLOCK
  5
190
330
188
100
AcDbEntity
  8
0
100
AcDbBlockBegin
  2
*D11
 70
     1
 10
0.0
 20
0.0
 30
0.0
  3
*D11
  1
*D11
  0
MTEXT
  5
189
330
188
100
AcDbEntity
  8
SIZE
100
AcDbMText
 10
974.822100634146
 20
-329.634065437982
 30
0.0
 40
70.28565910188316
 41
76.72393798828125
 71
     7
 72
     1
  1
{\fSimplex|b0|i0;28}
  7
Simplex w9
 11
6.123233995736766E-17
 21
1.0
 31
0.0
 73
     1
 44
0.75
  0
LINE
  5
18A
330
188
100
AcDbEntity
  8
SIZE
  6
Continuous
100
AcDbLine
 10
340.0
 20
-189.5999999999977
 30
0.0
 11
1004.912100634146
 21
-189.5999999999221
 31
0.0
  0
LINE
  5
18B
330
188
100
AcDbEntity
  8
SIZE
  6
Continuous
100
AcDbLine
 10
336.0
 20
-217.5999999999977
 30
0.0
 11
1004.912100634149
 21
-217.5999999999217
 31
0.0
  0
CIRCLE
  5
18C
330
188
100
AcDbEntity
  8
SIZE
  6
Continuous
100
AcDbCircle
 10
974.9121006341459
 20
-189.5999999999255
 30
0.0
 40
5.0
  0
CIRCLE
  5
18D
330
188
100
AcDbEntity
  8
SIZE
  6
Continuous
100
AcDbCircle
 10
974.912100634149
 20
-217.5999999999251
 30
0.0
 40
5.0
  0
LINE
  5
18E
330
188
100
AcDbEntity
  8
SIZE
  6
Continuous
100
AcDbLine
 10
974.9121006341464
 20
-194.5999999999255
 30
0.0
 11
974.9121006341485
 21
-212.5999999999251
 31
0.0
  0
LINE
  5
18F
330
188
100
AcDbEntity
  8
SIZE
  6
Continuous
100
AcDbLine
 10
974.912100634149
 20
-217.5999999999251
 30
0.0
 11
974.9121006341618
 21
-329.6340654379763
 31
0.0
  0
ENDBLK
  5
191
330
188
100
AcDbEntity
  8
0
100
AcDbBlockEnd
  0
BLOCK
  5
19B
330
193
100
AcDbEntity
  8
0
100
AcDbBlockBegin
  2
*D12
 70
     1
 10
0.0
 20
0.0
 30
0.0
  3
*D12
  1
*D12
  0
MTEXT
  5
194
330
193
100
AcDbEntity
  8
SIZE
100
AcDbMText
 10
974.822100634149
 20
215.4770647922725
 30
0.0
 40
70.28565910188316
 41
64.73968505859375
 71
     7
 72
     1
  1
{\fSimplex|b0|i0;19}
  7
Simplex w9
 11
6.123233995736766E-17
 21
1.0
 31
0.0
 73
     1
 44
0.75
  0
LINE
  5
195
330
193
100
AcDbEntity
  8
SIZE
  6
Continuous
100
AcDbLine
 10
340.0
 20
180.4
 30
0.0
 11
1004.912100634149
 21
180.4
 31
0.0
  0
LINE
  5
196
330
193
100
AcDbEntity
  8
SIZE
  6
Continuous
100
AcDbLine
 10
336.0
 20
199.4
 30
0.0
 11
1004.912100634147
 21
199.4
 31
0.0
  0
CIRCLE
  5
197
330
193
100
AcDbEntity
  8
SIZE
  6
Continuous
100
AcDbCircle
 10
974.912100634149
 20
180.4
 30
0.0
 40
5.0
  0
CIRCLE
  5
198
330
193
100
AcDbEntity
  8
SIZE
  6
Continuous
100
AcDbCircle
 10
974.9121006341469
 20
199.4
 30
0.0
 40
5.0
  0
LINE
  5
199
330
193
100
AcDbEntity
  8
SIZE
  6
Continuous
100
AcDbLine
 10
974.9121006341485
 20
185.4
 30
0.0
 11
974.9121006341475
 21
194.4
 31
0.0
  0
LINE
  5
19A
330
193
100
AcDbEntity
  8
SIZE
  6
Continuous
100
AcDbLine
 10
974.9121006341469
 20
199.4
 30
0.0
 11
974.9121006341361
 21
294.7337481418874
 31
0.0
  0
ENDBLK
  5
19C
330
193
100
AcDbEntity
  8
0
100
AcDbBlockEnd
  0
BLOCK
  5
1A5
330
19E
100
AcDbEntity
  8
0
100
AcDbBlockBegin
  2
*D13
 70
     1
 10
0.0
 20
0.0
 30
0.0
  3
*D13
  1
*D13
  0
MTEXT
  5
19F
330
19E
100
AcDbEntity
  8
SIZE
100
AcDbMText
 10
1188.70926485939
 20
-61.15818155359625
 30
0.0
 40
70.28565910188316
 41
112.08984375
 71
     7
 72
     1
  1
{\fSimplex|b0|i0;417}
  7
Simplex w9
 11
6.123233995736766E-17
 21
1.0
 31
0.0
 73
     1
 44
0.75
  0
LINE
  5
1A0
330
19E
100
AcDbEntity
  8
SIZE
  6
Continuous
100
AcDbLine
 10
336.0
 20
-217.6
 30
0.0
 11
1218.79926485939
 21
-217.6
 31
0.0
  0
LINE
  5
1A1
330
19E
100
AcDbEntity
  8
SIZE
  6
Continuous
100
AcDbLine
 10
336.0
 20
199.4
 30
0.0
 11
1218.79926485939
 21
199.4
 31
0.0
  0
CIRCLE
  5
1A2
330
19E
100
AcDbEntity
  8
SIZE
  6
Continuous
100
AcDbCircle
 10
1188.79926485939
 20
-217.6
 30
0.0
 40
5.0
  0
CIRCLE
  5
1A3
330
19E
100
AcDbEntity
  8
SIZE
  6
Continuous
100
AcDbCircle
 10
1188.79926485939
 20
199.4
 30
0.0
 40
5.0
  0
LINE
  5
1A4
330
19E
100
AcDbEntity
  8
SIZE
  6
Continuous
100
AcDbLine
 10
1188.79926485939
 20
-212.6
 30
0.0
 11
1188.79926485939
 21
194.4
 31
0.0
  0
ENDBLK
  5
1A6
330
19E
100
AcDbEntity
  8
0
100
AcDbBlockEnd
  0
BLOCK
  5
1B5
330
1AE
100
AcDbEntity
  8
0
100
AcDbBlockBegin
  2
*D14
 70
     1
 10
0.0
 20
0.0
 30
0.0
  3
*D14
  1
*D14
  0
MTEXT
  5
1AF
330
1AE
100
AcDbEntity
  8
SIZE
100
AcDbMText
 10
308.4626345629931
 20
-582.9779113658954
 30
0.0
 40
70.28565910188316
 41
120.7691345214844
 71
     7
 72
     1
  1
{\fSimplex|b0|i0;200}
  7
Simplex w9
 73
     1
 44
0.75
  0
LINE
  5
1B0
330
1AE
100
AcDbEntity
  8
SIZE
  6
Continuous
100
AcDbLine
 10
475.0
 20
-185.0
 30
0.0
 11
474.9999999999999
 21
-613.0679113658953
 31
0.0
  0
LINE
  5
1B1
330
1AE
100
AcDbEntity
  8
SIZE
  6
Continuous
100
AcDbLine
 10
275.0
 20
-165.0
 30
0.0
 11
274.9999999999999
 21
-613.0679113658725
 31
0.0
  0
CIRCLE
  5
1B2
330
1AE
100
AcDbEntity
  8
SIZE
  6
Continuous
100
AcDbCircle
 10
474.9999999999999
 20
-583.0679113658953
 30
0.0
 40
5.0
  0
CIRCLE
  5
1B3
330
1AE
100
AcDbEntity
  8
SIZE
  6
Continuous
100
AcDbCircle
 10
274.9999999999999
 20
-583.0679113658725
 30
0.0
 40
5.0
  0
LINE
  5
1B4
330
1AE
100
AcDbEntity
  8
SIZE
  6
Continuous
100
AcDbLine
 10
469.9999999999999
 20
-583.0679113658947
 30
0.0
 11
279.9999999999999
 21
-583.0679113658731
 31
0.0
  0
ENDBLK
  5
1B6
330
1AE
100
AcDbEntity
  8
0
100
AcDbBlockEnd
  0
BLOCK
  5
1BF
330
1B8
100
AcDbEntity
  8
0
100
AcDbBlockBegin
  2
*D15
 70
     1
 10
0.0
 20
0.0
 30
0.0
  3
*D15
  1
*D15
  0
MTEXT
  5
1B9
330
1B8
100
AcDbEntity
  8
SIZE
100
AcDbMText
 10
-369.7223061912591
 20
-447.7159722088946
 30
0.0
 40
70.28565910188316
 41
119.5336761474609
 71
     7
 72
     1
  1
{\fSimplex|b0|i0;322}
  7
Simplex w9
 73
     1
 44
0.75
  0
LINE
  5
1BA
330
1B8
100
AcDbEntity
  8
SIZE
  6
Continuous
100
AcDbLine
 10
-474.9999999999999
 20
-185.0
 30
0.0
 11
-475.0
 21
-477.8059722088946
 31
0.0
  0
LINE
  5
1BB
330
1B8
100
AcDbEntity
  8
SIZE
  6
Continuous
100
AcDbLine
 10
-152.9999999999998
 20
-272.8656194999999
 30
0.0
 11
-152.9999999999998
 21
-477.8059722088946
 31
0.0
  0
CIRCLE
  5
1BC
330
1B8
100
AcDbEntity
  8
SIZE
  6
Continuous
100
AcDbCircle
 10
-475.0
 20
-447.8059722088946
 30
0.0
 40
5.0
  0
CIRCLE
  5
1BD
330
1B8
100
AcDbEntity
  8
SIZE
  6
Continuous
100
AcDbCircle
 10
-152.9999999999998
 20
-447.8059722088946
 30
0.0
 40
5.0
  0
LINE
  5
1BE
330
1B8
100
AcDbEntity
  8
SIZE
  6
Continuous
100
AcDbLine
 10
-470.0
 20
-447.8059722088946
 30
0.0
 11
-157.9999999999998
 21
-447.8059722088946
 31
0.0
  0
ENDBLK
  5
1C0
330
1B8
100
AcDbEntity
  8
0
100
AcDbBlockEnd
  0
BLOCK
  5
1D9
330
1D1
100
AcDbEntity
  8
0
100
AcDbBlockBegin
  2
*D16
 70
     1
 10
0.0
 20
0.0
 30
0.0
  3
*D16
  1
*D16
  0
MTEXT
  5
1D2
330
1D1
100
AcDbEntity
  8
SIZE
100
AcDbMText
 10
621.1233111569491
 20
-88.74594305477876
 30
0.0
 40
70.28565910188316
 41
76.53857421875
 71
     7
 72
     1
  1
{\fSimplex|b0|i0;40}
  7
Simplex w9
 11
6.123233995736766E-17
 21
1.0
 31
0.0
 73
     1
 44
0.75
  0
LINE
  5
1D3
330
1D1
100
AcDbEntity
  8
SIZE
  6
Continuous
100
AcDbLine
 10
417.0
 20
-125.0
 30
0.0
 11
651.2133111569491
 21
-125.0
 31
0.0
  0
LINE
  5
1D4
330
1D1
100
AcDbEntity
  8
SIZE
  6
Continuous
100
AcDbLine
 10
495.0
 20
-165.0
 30
0.0
 11
651.2133111569491
 21
-165.0
 31
0.0
  0
CIRCLE
  5
1D5
330
1D1
100
AcDbEntity
  8
SIZE
  6
Continuous
100
AcDbCircle
 10
621.2133111569491
 20
-125.0
 30
0.0
 40
5.0
  0
CIRCLE
  5
1D6
330
1D1
100
AcDbEntity
  8
SIZE
  6
Continuous
100
AcDbCircle
 10
621.2133111569491
 20
-165.0
 30
0.0
 40
5.0
  0
LINE
  5
1D7
330
1D1
100
AcDbEntity
  8
SIZE
  6
Continuous
100
AcDbLine
 10
621.2133111569491
 20
-130.0
 30
0.0
 11
621.2133111569491
 21
-160.0
 31
0.0
  0
LINE
  5
1D8
330
1D1
100
AcDbEntity
  8
SIZE
  6
Continuous
100
AcDbLine
 10
621.2133111569491
 20
-125.0
 30
0.0
 11
621.2133111569491
 21
-0.6555042120052974
 31
0.0
  0
ENDBLK
  5
1DA
330
1D1
100
AcDbEntity
  8
0
100
AcDbBlockEnd
  0
BLOCK
  5
1E6
330
1DE
100
AcDbEntity
  8
0
100
AcDbBlockBegin
  2
*D17
 70
     1
 10
0.0
 20
0.0
 30
0.0
  3
*D17
  1
*D17
  0
MTEXT
  5
1DF
330
1DE
100
AcDbEntity
  8
SIZE
100
AcDbMText
 10
508.655590222519
 20
-367.5438164941554
 30
0.0
 40
70.28565910188316
 41
76.53857421875
 71
     7
 72
     1
  1
{\fSimplex|b0|i0;43}
  7
Simplex w9
 73
     1
 44
0.75
  0
LINE
  5
1E0
330
1DE
100
AcDbEntity
  8
SIZE
  6
Continuous
100
AcDbLine
 10
431.9999999999999
 20
-144.0
 30
0.0
 11
431.9999999999999
 21
-397.6338164941553
 31
0.0
  0
LINE
  5
1E1
330
1DE
100
AcDbEntity
  8
SIZE
  6
Continuous
100
AcDbLine
 10
475.0
 20
-185.0
 30
0.0
 11
474.9999999999999
 21
-397.6338164941553
 31
0.0
  0
CIRCLE
  5
1E2
330
1DE
100
AcDbEntity
  8
SIZE
  6
Continuous
100
AcDbCircle
 10
431.9999999999999
 20
-367.6338164941553
 30
0.0
 40
5.0
  0
CIRCLE
  5
1E3
330
1DE
100
AcDbEntity
  8
SIZE
  6
Continuous
100
AcDbCircle
 10
474.9999999999999
 20
-367.6338164941553
 30
0.0
 40
5.0
  0
LINE
  5
1E4
330
1DE
100
AcDbEntity
  8
SIZE
  6
Continuous
100
AcDbLine
 10
436.9999999999999
 20
-367.6338164941553
 30
0.0
 11
469.9999999999999
 21
-367.6338164941553
 31
0.0
  0
LINE
  5
1E5
330
1DE
100
AcDbEntity
  8
SIZE
  6
Continuous
100
AcDbLine
 10
474.9999999999999
 20
-367.6338164941553
 30
0.0
 11
596.7460290652924
 21
-367.6338164941553
 31
0.0
  0
ENDBLK
  5
1E7
330
1DE
100
AcDbEntity
  8
0
100
AcDbBlockEnd
  0
BLOCK
  5
1F1
330
1E9
100
AcDbEntity
  8
0
100
AcDbBlockBegin
  2
*D18
 70
     1
 10
0.0
 20
0.0
 30
0.0
  3
*D18
  1
*D18
  0
MTEXT
  5
1EA
330
1E9
100
AcDbEntity
  8
SIZE
100
AcDbMText
 10
276.2362091500419
 20
-367.5438164941554
 30
0.0
 40
70.28565910188316
 41
75.98263549804688
 71
     7
 72
     1
  1
{\fSimplex|b0|i0;55}
  7
Simplex w9
 73
     1
 44
0.75
  0
LINE
  5
1EB
330
1E9
100
AcDbEntity
  8
SIZE
  6
Continuous
100
AcDbLine
 10
377.0
 20
-165.0
 30
0.0
 11
376.9999999999999
 21
-397.6338164941553
 31
0.0
  0
LINE
  5
1EC
330
1E9
100
AcDbEntity
  8
SIZE
  6
Continuous
100
AcDbLine
 10
431.9999999999999
 20
-144.0
 30
0.0
 11
431.9999999999998
 21
-397.6338164941553
 31
0.0
  0
CIRCLE
  5
1ED
330
1E9
100
AcDbEntity
  8
SIZE
  6
Continuous
100
AcDbCircle
 10
376.9999999999999
 20
-367.6338164941553
 30
0.0
 40
5.0
  0
CIRCLE
  5
1EE
330
1E9
100
AcDbEntity
  8
SIZE
  6
Continuous
100
AcDbCircle
 10
431.9999999999998
 20
-367.6338164941553
 30
0.0
 40
5.0
  0
LINE
  5
1EF
330
1E9
100
AcDbEntity
  8
SIZE
  6
Continuous
100
AcDbLine
 10
381.9999999999999
 20
-367.6338164941553
 30
0.0
 11
426.9999999999998
 21
-367.6338164941553
 31
0.0
  0
LINE
  5
1F0
330
1E9
100
AcDbEntity
  8
SIZE
  6
Continuous
100
AcDbLine
 10
376.9999999999999
 20
-367.6338164941553
 30
0.0
 11
276.2362091500419
 21
-367.6338164941553
 31
0.0
  0
ENDBLK
  5
1F2
330
1E9
100
AcDbEntity
  8
0
100
AcDbBlockEnd
  0
BLOCK
  5
1FC
330
1F4
100
AcDbEntity
  8
0
100
AcDbBlockBegin
  2
*D19
 70
     1
 10
0.0
 20
0.0
 30
0.0
  3
*D19
  1
*D19
  0
MTEXT
  5
1F5
330
1F4
100
AcDbEntity
  8
SIZE
100
AcDbMText
 10
726.2749895323215
 20
-99.25262738909032
 30
0.0
 40
70.28565910188316
 41
56.12213134765625
 71
     7
 72
     1
  1
{\fSimplex|b0|i0;61}
  7
Simplex w9
 11
6.123233995736766E-17
 21
1.0
 31
0.0
 73
     1
 44
0.75
  0
LINE
  5
1F6
330
1F4
100
AcDbEntity
  8
SIZE
  6
Continuous
100
AcDbLine
 10
495.0
 20
-165.0
 30
0.0
 11
756.3649895323214
 21
-165.0
 31
0.0
  0
LINE
  5
1F7
330
1F4
100
AcDbEntity
  8
SIZE
  6
Continuous
100
AcDbLine
 10
471.9999999999999
 20
-104.0
 30
0.0
 11
756.3649895323144
 21
-104.0
 31
0.0
  0
CIRCLE
  5
1F8
330
1F4
100
AcDbEntity
  8
SIZE
  6
Continuous
100
AcDbCircle
 10
726.3649895323214
 20
-165.0
 30
0.0
 40
5.0
  0
CIRCLE
  5
1F9
330
1F4
100
AcDbEntity
  8
SIZE
  6
Continuous
100
AcDbCircle
 10
726.3649895323144
 20
-104.0
 30
0.0
 40
5.0
  0
LINE
  5
1FA
330
1F4
100
AcDbEntity
  8
SIZE
  6
Continuous
100
AcDbLine
 10
726.3649895323208
 20
-160.0
 30
0.0
 11
726.364989532315
 21
-109.0
 31
0.0
  0
LINE
  5
1FB
330
1F4
100
AcDbEntity
  8
SIZE
  6
Continuous
100
AcDbLine
 10
726.3649895323144
 20
-104.0
 30
0.0
 11
726.3649895323049
 21
-19.99594403947538
 31
0.0
  0
ENDBLK
  5
1FD
330
1F4
100
AcDbEntity
  8
0
100
AcDbBlockEnd
  0
ENDSEC
  0
SECTION
  2
ENTITIES
  0
TEXT
  5
112
330
1F
100
AcDbEntity
  8
ETC
  6
Continuous
100
AcDbText
 10
1422.932073001085
 20
-467.7979359498597
 30
0.0
 40
70.28565910188316
  1
SMPU2941
 41
0.9
  7
Simplex
 11
1422.932073001085
 21
-503.4308614930756
 31
0.0
100
AcDbText
 73
     1
  0
POINT
  5
113
330
1F
100
AcDbEntity
  8
ARRANGE
  6
Continuous
100
AcDbPoint
 10
0.0
 20
0.0
 30
0.0
  0
LINE
  5
114
330
1F
100
AcDbEntity
  8
NOTE
  6
Continuous
100
AcDbLine
 10
698.3122299331214
 20
388.4120716480801
 30
0.0
 11
1129.349206149297
 21
388.4120716480801
 31
0.0
  0
LINE
  5
115
330
1F
100
AcDbEntity
  8
NOTE
  6
Continuous
100
AcDbLine
 10
1070.117609824031
 20
518.4108473520621
 30
0.0
 11
722.928066131834
 21
518.4108473520621
 31
0.0
  0
TEXT
  5
116
330
1F
100
AcDbEntity
  8
NOTE
  6
Continuous
100
AcDbText
 10
730.8351247717744
 20
412.4971221935348
 30
0.0
 40
59.57818181818182
  1
RGφ15.88
 41
0.9
  7
MS PGothic
 11
730.8351247717744
 21
400.3152458298984
 31
0.0
100
AcDbText
 73
     1
  0
TEXT
  5
117
330
1F
100
AcDbEntity
  8
NOTE
  6
Continuous
100
AcDbText
 10
731.4876840863401
 20
541.9311891463456
 30
0.0
 40
59.57818181818182
  1
RLφ9.52
 41
0.9
  7
MS PGothic
 11
731.4876840863401
 21
529.7493127827092
 31
0.0
100
AcDbText
 73
     1
  0
LINE
  5
118
330
1F
100
AcDbEntity
  8
NOTE
  6
CONTINOUS
100
AcDbLine
 10
-300.0
 20
205.0
 30
0.0
 11
-300.0
 21
165.0
 31
0.0
  0
LINE
  5
119
330
1F
100
AcDbEntity
  8
NOTE
  6
CONTINOUS
100
AcDbLine
 10
-280.0
 20
180.4
 30
0.0
 11
-320.0
 21
180.4
 31
0.0
  0
LINE
  5
11A
330
1F
100
AcDbEntity
  8
NOTE
  6
CONTINOUS
100
AcDbLine
 10
320.0
 20
-189.6
 30
0.0
 11
280.0
 21
-189.6
 31
0.0
  0
LINE
  5
11B
330
1F
100
AcDbEntity
  8
NOTE
  6
CONTINOUS
100
AcDbLine
 10
300.0
 20
-169.6
 30
0.0
 11
300.0
 21
-209.6
 31
0.0
  0
LINE
  5
11C
330
1F
100
AcDbEntity
  8
NOTE
  6
CONTINOUS
100
AcDbLine
 10
-300.0
 20
-165.0
 30
0.0
 11
-300.0
 21
-205.0
 31
0.0
  0
LINE
  5
11D
330
1F
100
AcDbEntity
  8
NOTE
  6
CONTINOUS
100
AcDbLine
 10
-280.0
 20
-189.6
 30
0.0
 11
-320.0
 21
-189.6
 31
0.0
  0
LINE
  5
11E
330
1F
100
AcDbEntity
  8
NOTE
  6
CONTINOUS
100
AcDbLine
 10
397.0
 20
-125.0
 30
0.0
 11
357.0
 21
-125.0
 31
0.0
  0
LINE
  5
11F
330
1F
100
AcDbEntity
  8
NOTE
  6
CONTINOUS
100
AcDbLine
 10
377.0
 20
-145.0
 30
0.0
 11
377.0
 21
-105.0
 31
0.0
  0
LINE
  5
120
330
1F
100
AcDbEntity
  8
NOTE
  6
CONTINOUS
100
AcDbLine
 10
431.9999999999999
 20
-124.0
 30
0.0
 11
431.9999999999999
 21
-84.0
 31
0.0
  0
LINE
  5
121
330
1F
100
AcDbEntity
  8
NOTE
  6
CONTINOUS
100
AcDbLine
 10
451.9999999999999
 20
-104.0
 30
0.0
 11
411.9999999999999
 21
-104.0
 31
0.0
  0
LINE
  5
122
330
1F
100
AcDbEntity
  8
NOTE
  6
CONTINOUS
100
AcDbLine
 10
295.0
 20
-165.0
 30
0.0
 11
255.0
 21
-165.0
 31
0.0
  0
LINE
  5
123
330
1F
100
AcDbEntity
  8
NOTE
  6
CONTINOUS
100
AcDbLine
 10
275.0
 20
-185.0
 30
0.0
 11
275.0
 21
-145.0
 31
0.0
  0
LINE
  5
124
330
1F
100
AcDbEntity
  8
BASIS
  6
DASHDOT
100
AcDbLine
 10
518.9188715
 20
0.0
 30
0.0
 11
-518.9188715
 21
0.0
 31
0.0
  0
LINE
  5
125
330
1F
100
AcDbEntity
  8
BASIS
  6
DASHDOT
100
AcDbLine
 10
-152.9999999999998
 20
-252.8656194999999
 30
0.0
 11
-152.9999999999998
 21
-117.1343805
 31
0.0
  0
LINE
  5
126
330
1F
100
AcDbEntity
  8
DETAIL
  6
CONTINOUS
100
AcDbLine
 10
475.0
 20
-165.0
 30
0.0
 11
475.0
 21
165.0
 31
0.0
  0
LINE
  5
127
330
1F
100
AcDbEntity
  8
DETAIL
  6
CONTINOUS
100
AcDbLine
 10
-474.9999999999999
 20
165.0
 30
0.0
 11
-474.9999999999999
 21
-165.0
 31
0.0
  0
LINE
  5
128
330
1F
100
AcDbEntity
  8
DETAIL
  6
CONTINOUS
100
AcDbLine
 10
475.0
 20
165.0
 30
0.0
 11
-474.9999999999999
 21
165.0
 31
0.0
  0
LINE
  5
129
330
1F
100
AcDbEntity
  8
DETAIL
  6
CONTINOUS
100
AcDbLine
 10
475.0
 20
-165.0
 30
0.0
 11
-474.9999999999999
 21
-165.0
 31
0.0
  0
TEXT
  5
12A
330
1F
100
AcDbEntity
  8
ETC
  6
Continuous
100
AcDbText
 10
1434.754817001083
 20
-599.708108845738
 30
0.0
 40
59.57818181818182
  1
室外機
 41
0.9
  7
MS PGothic
 11
1434.754817001083
 21
-611.8899852093743
 31
0.0
100
AcDbText
 73
     1
  0
CIRCLE
  5
12B
330
1F
100
AcDbEntity
  8
ARRANGE
  6
Continuous
100
AcDbCircle
 10
0.0
 20
0.0
 30
0.0
 40
40.0
  0
CIRCLE
  5
12C
330
1F
100
AcDbEntity
  8
FIX
  6
Continuous
100
AcDbCircle
 10
-300.0
 20
-189.6
 30
0.0
 40
40.0
  0
CIRCLE
  5
12D
330
1F
100
AcDbEntity
  8
FIX
  6
Continuous
100
AcDbCircle
 10
300.0
 20
-189.6
 30
0.0
 40
40.0
  0
CIRCLE
  5
12E
330
1F
100
AcDbEntity
  8
FIX
  6
Continuous
100
AcDbCircle
 10
-300.0
 20
180.4
 30
0.0
 40
40.0
  0
POINT
  5
12F
330
1F
100
AcDbEntity
  8
NOTE
  6
CONTINOUS
100
AcDbPoint
 10
300.0
 20
-172.0
 30
0.0
  0
TEXT
  5
130
330
1F
100
AcDbEntity
  8
NOTE
  6
Continuous
100
AcDbText
 10
-1119.055049453289
 20
523.429734052305
 30
0.0
 40
70.28565910188316
  1
AH 2-U cut
 41
0.9
  7
Simplex
 11
-1119.055049453289
 21
487.7968085090891
 31
0.0
100
AcDbText
 73
     1
  0
LINE
  5
131
330
1F
100
AcDbEntity
  8
NOTE
  6
Continuous
100
AcDbLine
 10
-1146.761119453289
 20
496.294769610972
 30
0.0
 11
-588.9639448179616
 21
496.294769610972
 31
0.0
  0
LINE
  5
132
330
1F
100
AcDbEntity
  8
BASIS
  6
DASHDOT
100
AcDbLine
 10
0.0
 20
224.9004311819998
 30
0.0
 11
0.0
 21
-224.9004311819998
 31
0.0
  0
LINE
  5
133
330
1F
100
AcDbEntity
  8
DETAIL
  6
CONTINOUS
100
AcDbLine
 10
136.0000000001531
 20
-195.0
 30
0.0
 11
-441.9999999998473
 21
-195.0
 31
0.0
  0
LINE
  5
134
330
1F
100
AcDbEntity
  8
DETAIL
  6
CONTINOUS
100
AcDbLine
 10
-441.9999999998473
 20
-165.0
 30
0.0
 11
-441.9999999998473
 21
-195.0
 31
0.0
  0
LINE
  5
135
330
1F
100
AcDbEntity
  8
DETAIL
  6
CONTINOUS
100
AcDbLine
 10
136.0000000001531
 20
-165.0
 30
0.0
 11
136.0000000001531
 21
-195.0
 31
0.0
  0
DIMENSION
  5
13C
330
1F
100
AcDbEntity
  8
SIZE
  6
Continuous
100
AcDbDimension
  2
*D4
 10
-617.7608357658416
 20
165.0
 30
0.0
 11
-666.6355342521698
 21
-5.228864294283028
 31
0.0
 70
    32
 71
     5
 42
-1.0
  3
Standard
100
AcDbAlignedDimension
 13
-474.9999999999999
 23
-165.0
 33
0.0
 14
-474.9999999999999
 24
165.0
 34
0.0
 50
270.0
100
AcDbRotatedDimension
1001
ACAD
1000
DSTYLE
1002
{
1070
    41
1040
10.0
1070
   289
1070
     1
1070
   342
1005
137
1070
    44
1040
30.0
1070
    42
1040
20.0
1070
    77
1070
     1
1070
    73
1070
     0
1070
   174
1070
     1
1070
   172
1070
     1
1070
    74
1070
     0
1070
   340
1005
136
1070
   140
1040
70.28565910188316
1070
   284
1070
     1
1070
    78
1070
     8
1070
   345
1005
16
1070
   346
1005
14
1002
}
1001
ACAD_DSTYLE_DIM_LINETYPE
1070
   380
1005
16
1001
ACAD_DSTYLE_DIM_EXT1_LINETYPE
1070
   381
1005
14
  0
DIMENSION
  5
146
330
1F
100
AcDbEntity
  8
SIZE
  6
Continuous
100
AcDbDimension
  2
*D5
 10
-617.7608357658416
 20
-195.0
 30
0.0
 11
-666.6355342521698
 21
-180.0
 31
0.0
 70
    32
 71
     5
 42
-1.0
  3
Standard
100
AcDbAlignedDimension
 13
-474.9999999999999
 23
-165.0
 33
0.0
 14
-441.9999999998473
 24
-195.0
 34
0.0
 50
90.0
100
AcDbRotatedDimension
1001
ACAD
1000
DSTYLE
1002
{
1070
    41
1040
10.0
1070
   289
1070
     1
1070
   342
1005
137
1070
    44
1040
30.0
1070
    42
1040
20.0
1070
    77
1070
     1
1070
    73
1070
     0
1070
   174
1070
     1
1070
   172
1070
     1
1070
    74
1070
     0
1070
   340
1005
136
1070
   140
1040
70.28565910188316
1070
   284
1070
     1
1070
    78
1070
     8
1070
   345
1005
16
1070
   346
1005
14
1002
}
1001
ACAD_DSTYLE_DIM_LINETYPE
1070
   380
1005
16
1001
ACAD_DSTYLE_DIM_EXT1_LINETYPE
1070
   381
1005
14
1001
ACAD_DSTYLE_DIMFLIPARROW_SYMBOL
1070
   385
1070
     0
1001
ACAD_DSTYLE_DIMFLIPARROW_WHICH_SYMBOL
1070
   386
1070
     3
  0
DIMENSION
  5
152
330
1F
100
AcDbEntity
  8
SIZE
  6
Continuous
100
AcDbDimension
  2
*D6
 10
-300.0
 20
407.9813034631479
 30
0.0
 11
-386.6391415951593
 21
456.8560019494761
 31
0.0
 70
    32
 71
     5
 42
-1.0
  3
Standard
100
AcDbAlignedDimension
 13
-474.9999999999999
 23
165.0
 33
0.0
 14
-300.0
 24
200.0
 34
0.0
100
AcDbRotatedDimension
1001
ACAD
1000
DSTYLE
1002
{
1070
    41
1040
10.0
1070
   289
1070
     1
1070
   342
1005
137
1070
    44
1040
30.0
1070
    42
1040
20.0
1070
    77
1070
     1
1070
    73
1070
     0
1070
   174
1070
     1
1070
   172
1070
     1
1070
    74
1070
     0
1070
   340
1005
136
1070
   140
1040
70.28565910188316
1070
   284
1070
     1
1070
    78
1070
     8
1070
   345
1005
16
1070
   346
1005
14
1002
}
1001
ACAD_DSTYLE_DIM_LINETYPE
1070
   380
1005
16
1001
ACAD_DSTYLE_DIM_EXT1_LINETYPE
1070
   381
1005
14
  0
DIMENSION
  5
15C
330
1F
100
AcDbEntity
  8
SIZE
  6
Continuous
100
AcDbDimension
  2
*D7
 10
300.0
 20
407.9813034631479
 30
0.0
 11
5.39182197036007
 21
456.8560019494761
 31
0.0
 70
    32
 71
     5
 42
-1.0
  3
Standard
100
AcDbAlignedDimension
 13
-300.0
 23
200.0
 33
0.0
 14
300.0
 24
200.0
 34
0.0
100
AcDbRotatedDimension
1001
ACAD
1000
DSTYLE
1002
{
1070
    41
1040
10.0
1070
   289
1070
     1
1070
   342
1005
137
1070
    44
1040
30.0
1070
    42
1040
20.0
1070
    77
1070
     1
1070
    73
1070
     0
1070
   174
1070
     1
1070
   172
1070
     1
1070
    74
1070
     0
1070
   340
1005
136
1070
   140
1040
70.28565910188316
1070
   284
1070
     1
1070
    78
1070
     8
1070
   345
1005
16
1070
   346
1005
14
1002
}
1001
ACAD_DSTYLE_DIM_LINETYPE
1070
   380
1005
16
1001
ACAD_DSTYLE_DIM_EXT1_LINETYPE
1070
   381
1005
14
  0
DIMENSION
  5
166
330
1F
100
AcDbEntity
  8
SIZE
  6
Continuous
100
AcDbDimension
  2
*D8
 10
475.0
 20
407.9813034631479
 30
0.0
 11
377.392002385488
 21
456.856001949476
 31
0.0
 70
    32
 71
     5
 42
-1.0
  3
Standard
100
AcDbAlignedDimension
 13
300.0
 23
200.0
 33
0.0
 14
475.0
 24
165.0
 34
0.0
100
AcDbRotatedDimension
1001
ACAD
1000
DSTYLE
1002
{
1070
    41
1040
10.0
1070
   289
1070
     1
1070
   342
1005
137
1070
    44
1040
30.0
1070
    42
1040
20.0
1070
    77
1070
     1
1070
    73
1070
     0
1070
   174
1070
     1
1070
   172
1070
     1
1070
    74
1070
     0
1070
   340
1005
136
1070
   140
1040
70.28565910188316
1070
   284
1070
     1
1070
    78
1070
     8
1070
   345
1005
16
1070
   346
1005
14
1002
}
1001
ACAD_DSTYLE_DIM_LINETYPE
1070
   380
1005
16
1001
ACAD_DSTYLE_DIM_EXT1_LINETYPE
1070
   381
1005
14
  0
DIMENSION
  5
170
330
1F
100
AcDbEntity
  8
SIZE
  6
Continuous
100
AcDbDimension
  2
*D9
 10
475.0
 20
577.672176621392
 30
0.0
 11
-8.915876169807234
 21
626.5468751077202
 31
0.0
 70
    32
 71
     5
 42
-1.0
  3
Standard
100
AcDbAlignedDimension
 13
-474.9999999999999
 23
165.0
 33
0.0
 14
475.0
 24
165.0
 34
0.0
100
AcDbRotatedDimension
1001
ACAD
1000
DSTYLE
1002
{
1070
    41
1040
10.0
1070
   289
1070
     1
1070
   342
1005
137
1070
    44
1040
30.0
1070
    42
1040
20.0
1070
    77
1070
     1
1070
    73
1070
     0
1070
   174
1070
     1
1070
   172
1070
     1
1070
    74
1070
     0
1070
   340
1005
136
1070
   140
1040
70.28565910188316
1070
   284
1070
     1
1070
    78
1070
     8
1070
   345
1005
16
1070
   346
1005
14
1002
}
1001
ACAD_DSTYLE_DIM_LINETYPE
1070
   380
1005
16
1001
ACAD_DSTYLE_DIM_EXT1_LINETYPE
1070
   381
1005
14
  0
CIRCLE
  5
17A
330
1F
100
AcDbEntity
  8
FIX
  6
Continuous
100
AcDbCircle
 10
300.0
 20
180.4
 30
0.0
 40
40.0
  0
LINE
  5
17B
330
1F
100
AcDbEntity
  8
NOTE
  6
CONTINOUS
100
AcDbLine
 10
280.0
 20
180.4
 30
0.0
 11
320.0
 21
180.4
 31
0.0
  0
LINE
  5
17C
330
1F
100
AcDbEntity
  8
NOTE
  6
CONTINOUS
100
AcDbLine
 10
300.0
 20
205.0
 30
0.0
 11
300.0
 21
165.0
 31
0.0
  0
DIMENSION
  5
17D
330
1F
100
AcDbEntity
  8
SIZE
  6
Continuous
100
AcDbDimension
  2
*D10
 10
974.912100634149
 20
180.4
 30
0.0
 11
926.0374021478209
 21
9.075218194280929
 31
0.0
 70
    32
 71
     5
 42
-1.0
  3
Standard
100
AcDbAlignedDimension
 13
320.0
 23
-189.6
 33
0.0
 14
320.0
 24
180.4
 34
0.0
 50
270.0
100
AcDbRotatedDimension
1001
ACAD
1000
DSTYLE
1002
{
1070
    41
1040
10.0
1070
   289
1070
     1
1070
   342
1005
137
1070
    44
1040
30.0
1070
    42
1040
20.0
1070
    77
1070
     1
1070
    73
1070
     0
1070
   174
1070
     1
1070
   172
1070
     1
1070
    74
1070
     0
1070
   340
1005
136
1070
   140
1040
70.28565910188316
1070
   284
1070
     1
1070
    78
1070
     8
1070
   345
1005
16
1070
   346
1005
14
1002
}
1001
ACAD_DSTYLE_DIM_LINETYPE
1070
   380
1005
16
1001
ACAD_DSTYLE_DIM_EXT1_LINETYPE
1070
   381
1005
14
  0
DIMENSION
  5
187
330
1F
100
AcDbEntity
  8
SIZE
  6
Continuous
100
AcDbDimension
  2
*D11
 10
974.9121006341459
 20
-217.5999999999251
 30
0.0
 11
926.0374021478177
 21
-285.5888460165952
 31
0.0
 70
    32
 71
     5
 42
-1.0
  3
Standard
100
AcDbAlignedDimension
 13
320.0
 23
-189.6
 33
0.0
 14
316.0
 24
-217.6
 34
0.0
 50
90.0
100
AcDbRotatedDimension
1001
ACAD
1000
DSTYLE
1002
{
1070
    41
1040
10.0
1070
   289
1070
     1
1070
   342
1005
137
1070
    44
1040
30.0
1070
    42
1040
20.0
1070
    77
1070
     1
1070
    73
1070
     0
1070
   174
1070
     1
1070
   172
1070
     1
1070
    74
1070
     0
1070
   340
1005
136
1070
   140
1040
70.28565910188316
1070
   284
1070
     1
1070
    78
1070
     8
1070
   345
1005
16
1070
   346
1005
14
1002
}
1001
ACAD_DSTYLE_DIM_LINETYPE
1070
   380
1005
16
1001
ACAD_DSTYLE_DIM_EXT1_LINETYPE
1070
   381
1005
14
1001
ACAD_DSTYLE_DIMFLIPARROW_SYMBOL
1070
   385
1070
     0
1001
ACAD_DSTYLE_DIMFLIPARROW_WHICH_SYMBOL
1070
   386
1070
     3
  0
DIMENSION
  5
192
330
1F
100
AcDbEntity
  8
SIZE
  6
Continuous
100
AcDbDimension
  2
*D12
 10
974.912100634149
 20
199.4
 30
0.0
 11
926.0374021478209
 21
255.1054064670772
 31
0.0
 70
    32
 71
     5
 42
-1.0
  3
Standard
100
AcDbAlignedDimension
 13
320.0
 23
180.4
 33
0.0
 14
316.0
 24
199.4
 34
0.0
 50
270.0
100
AcDbRotatedDimension
1001
ACAD
1000
DSTYLE
1002
{
1070
    41
1040
10.0
1070
   289
1070
     1
1070
   342
1005
137
1070
    44
1040
30.0
1070
    42
1040
20.0
1070
    77
1070
     1
1070
    73
1070
     0
1070
   174
1070
     1
1070
   172
1070
     1
1070
    74
1070
     0
1070
   340
1005
136
1070
   140
1040
70.28565910188316
1070
   284
1070
     1
1070
    78
1070
     8
1070
   345
1005
16
1070
   346
1005
14
1002
}
1001
ACAD_DSTYLE_DIM_LINETYPE
1070
   380
1005
16
1001
ACAD_DSTYLE_DIM_EXT1_LINETYPE
1070
   381
1005
14
1001
ACAD_DSTYLE_DIMFLIPARROW_SYMBOL
1070
   385
1070
     0
1001
ACAD_DSTYLE_DIMFLIPARROW_WHICH_SYMBOL
1070
   386
1070
     3
  0
DIMENSION
  5
19D
330
1F
100
AcDbEntity
  8
SIZE
  6
Continuous
100
AcDbDimension
  2
*D13
 10
1188.79926485939
 20
199.4
 30
0.0
 11
1139.924566373062
 21
0.4927698319017395
 31
0.0
 70
    32
 71
     5
 42
-1.0
  3
Standard
100
AcDbAlignedDimension
 13
316.0
 23
-217.6
 33
0.0
 14
316.0
 24
199.4
 34
0.0
 50
270.0
100
AcDbRotatedDimension
1001
ACAD
1000
DSTYLE
1002
{
1070
    41
1040
10.0
1070
   289
1070
     1
1070
   342
1005
137
1070
    44
1040
30.0
1070
    42
1040
20.0
1070
    77
1070
     1
1070
    73
1070
     0
1070
   174
1070
     1
1070
   172
1070
     1
1070
    74
1070
     0
1070
   340
1005
136
1070
   140
1040
70.28565910188316
1070
   284
1070
     1
1070
    78
1070
     8
1070
   345
1005
16
1070
   346
1005
14
1002
}
1001
ACAD_DSTYLE_DIM_LINETYPE
1070
   380
1005
16
1001
ACAD_DSTYLE_DIM_EXT1_LINETYPE
1070
   381
1005
14
  0
LWPOLYLINE
  5
1A7
330
1F
100
AcDbEntity
  8
NOTE
  6
Continuous
100
AcDbPolyline
 90
        3
 70
     0
 43
0.0
 10
-318.4268637309043
 20
215.8968266003338
 10
-300.0
 20
180.394
 10
-333.7095452919433
 20
201.9269183732254
  0
LINE
  5
1A8
330
1F
100
AcDbEntity
  8
NOTE
  6
Continuous
100
AcDbLine
 10
-300.0
 20
180.4
 30
0.0
 11
-588.9639448179616
 21
496.294769610972
 31
0.0
  0
LWPOLYLINE
  5
1A9
330
1F
100
AcDbEntity
  8
NOTE
  6
Continuous
100
AcDbPolyline
 90
        3
 70
     0
 43
0.0
 10
465.937427308149
 20
-69.56644406713393
 10
438.3880560316877
 20
-98.56699830049972
 10
447.7462348044709
 20
-59.67709591550776
  0
LINE
  5
1AA
330
1F
100
AcDbEntity
  8
NOTE
  6
Continuous
100
AcDbLine
 10
438.3880560316877
 20
-98.56699830049972
 30
0.0
 11
698.3122299331214
 21
388.4120716480801
 31
0.0
  0
LINE
  5
1AB
330
1F
100
AcDbEntity
  8
NOTE
  6
Continuous
100
AcDbLine
 10
380.8704229285277
 20
-122.448794349122
 30
0.0
 11
722.928066131834
 21
518.4108473520621
 31
0.0
  0
LWPOLYLINE
  5
1AC
330
1F
100
AcDbEntity
  8
NOTE
  6
Continuous
100
AcDbPolyline
 90
        3
 70
     0
 43
0.0
 10
408.419794204989
 20
-93.44824011575626
 10
380.8704229285277
 20
-122.448794349122
 10
390.2286017013108
 20
-83.55889196413007
  0
DIMENSION
  5
1AD
330
1F
100
AcDbEntity
  8
SIZE
  6
Continuous
100
AcDbDimension
  2
*D14
 10
274.9999999999999
 20
-583.0679113658953
 30
0.0
 11
374.5304598803759
 21
-534.1932128795672
 31
0.0
 70
    32
 71
     5
 42
-1.0
  3
Standard
100
AcDbAlignedDimension
 13
475.0
 23
-165.0
 33
0.0
 14
275.0
 24
-145.0
 34
0.0
100
AcDbRotatedDimension
1001
ACAD
1000
DSTYLE
1002
{
1070
    41
1040
10.0
1070
   289
1070
     1
1070
   342
1005
137
1070
    44
1040
30.0
1070
    42
1040
20.0
1070
    77
1070
     1
1070
    73
1070
     0
1070
   174
1070
     1
1070
   172
1070
     1
1070
    74
1070
     0
1070
   340
1005
136
1070
   140
1040
70.28565910188316
1070
   284
1070
     1
1070
    78
1070
     8
1070
   345
1005
16
1070
   346
1005
14
1002
}
1001
ACAD_DSTYLE_DIM_LINETYPE
1070
   380
1005
16
1001
ACAD_DSTYLE_DIM_EXT1_LINETYPE
1070
   381
1005
14
  0
DIMENSION
  5
1B7
330
1F
100
AcDbEntity
  8
SIZE
  6
Continuous
100
AcDbDimension
  2
*D15
 10
-152.9999999999998
 20
-447.8059722088946
 30
0.0
 11
-303.6544808738763
 21
-398.9312737225665
 31
0.0
 70
    32
 71
     5
 42
-1.0
  3
Standard
100
AcDbAlignedDimension
 13
-474.9999999999999
 23
-165.0
 33
0.0
 14
-152.9999999999998
 24
-252.8656194999999
 34
0.0
100
AcDbRotatedDimension
1001
ACAD
1000
DSTYLE
1002
{
1070
    41
1040
10.0
1070
   289
1070
     1
1070
   342
1005
137
1070
    44
1040
30.0
1070
    42
1040
20.0
1070
    77
1070
     1
1070
    73
1070
     0
1070
   174
1070
     1
1070
   172
1070
     1
1070
    74
1070
     0
1070
   340
1005
136
1070
   140
1040
70.28565910188316
1070
   284
1070
     1
1070
    78
1070
     8
1070
   345
1005
16
1070
   346
1005
14
1002
}
1001
ACAD_DSTYLE_DIM_LINETYPE
1070
   380
1005
16
1001
ACAD_DSTYLE_DIM_EXT1_LINETYPE
1070
   381
1005
14
  0
LINE
  5
1C1
330
1F
100
AcDbEntity
  8
NOTE
  6
Continuous
100
AcDbLine
 10
275.0
 20
-164.9999999999998
 30
0.0
 11
117.3246862707628
 21
-352.55838789165
 31
0.0
  0
LWPOLYLINE
  5
1C2
330
1F
100
AcDbEntity
  8
NOTE
  6
Continuous
100
AcDbPolyline
 90
        3
 70
     0
 43
0.0
 10
242.0381638788712
 20
-187.6609214970299
 10
275.0
 20
-164.9999999999998
 10
257.7846728056788
 20
-201.1058517009367
  0
TEXT
  5
1C3
330
1F
100
AcDbEntity
  8
NOTE
  6
Continuous
100
AcDbText
 10
-116.3153460269598
 20
-320.9088204503174
 30
0.0
 40
70.28565910188316
  1
EL,CL
 41
0.9
  7
Simplex
 11
-116.3153460269598
 21
-356.5417459935333
 31
0.0
100
AcDbText
 73
     1
  0
LINE
  5
1C4
330
1F
100
AcDbEntity
  8
NOTE
  6
Continuous
100
AcDbLine
 10
-131.0956510269599
 20
-352.55838789165
 30
0.0
 11
117.3246862707628
 21
-352.55838789165
 31
0.0
  0
LINE
  5
1C5
330
1F
100
AcDbEntity
  8
NOTE
  6
Continuous
100
AcDbLine
 10
-1103.609479033234
 20
-459.2326822769414
 30
0.0
 11
-530.5400718084968
 21
-459.2326822769414
 31
0.0
  0
TEXT
  5
1C6
330
1F
100
AcDbEntity
  8
NOTE
  6
Continuous
100
AcDbText
 10
-1088.829174033236
 20
-440.3266867314869
 30
0.0
 40
59.57818181818182
  1
AH 2-12×36
 41
0.9
  7
MS PGothic
 11
-1088.829174033236
 21
-452.5085630951233
 31
0.0
100
AcDbText
 73
     1
  0
LINE
  5
1C7
330
1F
100
AcDbEntity
  8
NOTE
  6
Continuous
100
AcDbLine
 10
-300.0
 20
-189.6
 30
0.0
 11
-530.5400718084968
 21
-459.2326822769414
 31
0.0
  0
LWPOLYLINE
  5
1C8
330
1F
100
AcDbEntity
  8
NOTE
  6
Continuous
100
AcDbPolyline
 90
        3
 70
     0
 43
0.0
 10
-332.9618361211283
 20
-212.2509214970299
 10
-300.0
 20
-189.59
 10
-317.2153271943211
 20
-225.6958517009369
  0
LINE
  5
1C9
330
1F
100
AcDbEntity
  8
OUTLINE
100
AcDbLine
 10
136.0000000001527
 20
-195.0
 30
0.0
 11
-441.9999999998472
 21
-195.0
 31
0.0
  0
LINE
  5
1CA
330
1F
100
AcDbEntity
  8
OUTLINE
100
AcDbLine
 10
475.0
 20
-165.0
 30
0.0
 11
-475.0
 21
-165.0
 31
0.0
  0
LINE
  5
1CB
330
1F
100
AcDbEntity
  8
OUTLINE
100
AcDbLine
 10
475.0
 20
165.0
 30
0.0
 11
-475.0
 21
165.0
 31
0.0
  0
LINE
  5
1CC
330
1F
100
AcDbEntity
  8
OUTLINE
100
AcDbLine
 10
-475.0
 20
165.0
 30
0.0
 11
-475.0
 21
-165.0
 31
0.0
  0
LINE
  5
1CD
330
1F
100
AcDbEntity
  8
OUTLINE
100
AcDbLine
 10
-441.9999999998472
 20
-165.0
 30
0.0
 11
-441.9999999998472
 21
-195.0
 31
0.0
  0
LINE
  5
1CE
330
1F
100
AcDbEntity
  8
OUTLINE
100
AcDbLine
 10
136.0000000001527
 20
-165.0
 30
0.0
 11
136.0000000001527
 21
-195.0
 31
0.0
  0
LINE
  5
1CF
330
1F
100
AcDbEntity
  8
OUTLINE
100
AcDbLine
 10
475.0
 20
-165.0
 30
0.0
 11
475.0
 21
165.0
 31
0.0
  0
DIMENSION
  5
1D0
330
1F
100
AcDbEntity
  8
SIZE
  6
Continuous
100
AcDbDimension
  2
*D16
 10
621.2133111569491
 20
-165.0
 30
0.0
 11
572.3386126706209
 21
-44.70072363339202
 31
0.0
 70
    32
 71
     5
 42
-1.0
  3
Standard
100
AcDbAlignedDimension
 13
397.0
 23
-125.0
 33
0.0
 14
475.0
 24
-165.0
 34
0.0
 50
90.0
100
AcDbRotatedDimension
1001
ACAD
1000
DSTYLE
1002
{
1070
    41
1040
10.0
1070
   289
1070
     1
1070
   342
1005
137
1070
    44
1040
30.0
1070
    42
1040
20.0
1070
    77
1070
     1
1070
    73
1070
     0
1070
   174
1070
     1
1070
   172
1070
     1
1070
    74
1070
     0
1070
   340
1005
136
1070
   140
1040
70.28565910188316
1070
   284
1070
     1
1070
    78
1070
     8
1070
   345
1005
16
1070
   346
1005
14
1002
}
1001
ACAD_DSTYLE_DIM_LINETYPE
1070
   380
1005
16
1001
ACAD_DSTYLE_DIM_EXT1_LINETYPE
1070
   381
1005
14
1001
ACAD_DSTYLE_DIMFLIPARROW_SYMBOL
1070
   385
1070
     0
1001
ACAD_DSTYLE_DIMFLIPARROW_WHICH_SYMBOL
1070
   386
1070
     3
  0
CIRCLE
  5
1DB
330
1F
100
AcDbEntity
  8
DETAIL
  6
Continuous
 62
     5
100
AcDbCircle
 10
432.0
 20
-104.0
 30
0.0
 40
7.94
  0
CIRCLE
  5
1DC
330
1F
100
AcDbEntity
  8
DETAIL
  6
Continuous
100
AcDbCircle
 10
377.0
 20
-125.0
 30
0.0
 40
4.759999999999999
  0
DIMENSION
  5
1DD
330
1F
100
AcDbEntity
  8
SIZE
  6
Continuous
100
AcDbDimension
  2
*D17
 10
474.9999999999999
 20
-367.6338164941553
 30
0.0
 11
552.7008096439057
 21
-318.7591180078272
 31
0.0
 70
    32
 71
     5
 42
-1.0
  3
Standard
100
AcDbAlignedDimension
 13
431.9999999999999
 23
-124.0
 33
0.0
 14
475.0
 24
-165.0
 34
0.0
100
AcDbRotatedDimension
1001
ACAD
1000
DSTYLE
1002
{
1070
    41
1040
10.0
1070
   289
1070
     1
1070
   342
1005
137
1070
    44
1040
30.0
1070
    42
1040
20.0
1070
    77
1070
     1
1070
    73
1070
     0
1070
   174
1070
     1
1070
   172
1070
     1
1070
    74
1070
     0
1070
   340
1005
136
1070
   140
1040
70.28565910188316
1070
   284
1070
     1
1070
    78
1070
     8
1070
   345
1005
16
1070
   346
1005
14
1002
}
1001
ACAD_DSTYLE_DIM_LINETYPE
1070
   380
1005
16
1001
ACAD_DSTYLE_DIM_EXT1_LINETYPE
1070
   381
1005
14
1001
ACAD_DSTYLE_DIMFLIPARROW_SYMBOL
1070
   385
1070
     0
1001
ACAD_DSTYLE_DIMFLIPARROW_WHICH_SYMBOL
1070
   386
1070
     3
  0
DIMENSION
  5
1E8
330
1F
100
AcDbEntity
  8
SIZE
  6
Continuous
100
AcDbDimension
  2
*D18
 10
431.9999999999998
 20
-367.6338164941553
 30
0.0
 11
320.2814285714286
 21
-318.7591180078272
 31
0.0
 70
    32
 71
     5
 42
-1.0
  3
Standard
100
AcDbAlignedDimension
 13
377.0
 23
-145.0
 33
0.0
 14
431.9999999999999
 24
-124.0
 34
0.0
100
AcDbRotatedDimension
1001
ACAD
1000
DSTYLE
1002
{
1070
    41
1040
10.0
1070
   289
1070
     1
1070
   342
1005
137
1070
    44
1040
30.0
1070
    42
1040
20.0
1070
    77
1070
     1
1070
    73
1070
     0
1070
   174
1070
     1
1070
   172
1070
     1
1070
    74
1070
     0
1070
   340
1005
136
1070
   140
1040
70.28565910188316
1070
   284
1070
     1
1070
    78
1070
     8
1070
   345
1005
16
1070
   346
1005
14
1002
}
1001
ACAD_DSTYLE_DIM_LINETYPE
1070
   380
1005
16
1001
ACAD_DSTYLE_DIM_EXT1_LINETYPE
1070
   381
1005
14
1001
ACAD_DSTYLE_DIMFLIPARROW_SYMBOL
1070
   385
1070
     0
1001
ACAD_DSTYLE_DIMFLIPARROW_WHICH_SYMBOL
1070
   386
1070
     3
  0
DIMENSION
  5
1F3
330
1F
100
AcDbEntity
  8
SIZE
  6
Continuous
100
AcDbDimension
  2
*D19
 10
726.3649895323214
 20
-104.0
 30
0.0
 11
677.4902910459933
 21
-59.62428571428562
 31
0.0
 70
    32
 71
     5
 42
-1.0
  3
Standard
100
AcDbAlignedDimension
 13
475.0
 23
-165.0
 33
0.0
 14
451.9999999999999
 24
-104.0
 34
0.0
 50
270.0
100
AcDbRotatedDimension
1001
ACAD
1000
DSTYLE
1002
{
1070
    41
1040
10.0
1070
   289
1070
     1
1070
   342
1005
137
1070
    44
1040
30.0
1070
    42
1040
20.0
1070
    77
1070
     1
1070
    73
1070
     0
1070
   174
1070
     1
1070
   172
1070
     1
1070
    74
1070
     0
1070
   340
1005
136
1070
   140
1040
70.28565910188316
1070
   284
1070
     1
1070
    78
1070
     8
1070
   345
1005
16
1070
   346
1005
14
1002
}
1001
ACAD_DSTYLE_DIM_LINETYPE
1070
   380
1005
16
1001
ACAD_DSTYLE_DIM_EXT1_LINETYPE
1070
   381
1005
14
1001
ACAD_DSTYLE_DIMFLIPARROW_SYMBOL
1070
   385
1070
     0
1001
ACAD_DSTYLE_DIMFLIPARROW_WHICH_SYMBOL
1070
   386
1070
     3
  0
LINE
  5
1FE
330
1F
100
AcDbEntity
  8
DETAIL
  6
Continuous
100
AcDbLine
 10
-335.0
 20
191.4
 30
0.0
 11
-335.0
 21
165.0
 31
0.0
  0
LINE
  5
1FF
330
1F
100
AcDbEntity
  8
OUTLINE
  6
Continuous
100
AcDbLine
 10
-335.0
 20
191.4
 30
0.0
 11
-335.0
 21
165.0
 31
0.0
  0
ARC
  5
200
330
1F
100
AcDbEntity
  8
DETAIL
  6
Continuous
100
AcDbCircle
 10
-268.0
 20
191.4
 30
0.0
 40
3.000003966047536
100
AcDbArc
 50
0.0000757457827885
 51
89.99992425426932
  0
ARC
  5
201
330
1F
100
AcDbEntity
  8
DETAIL
  6
Continuous
100
AcDbCircle
 10
-325.0
 20
194.4
 30
0.0
 40
4.999997862511465
100
AcDbArc
 50
89.99997550611786
 51
180.0000244938299
  0
ARC
  5
202
330
1F
100
AcDbEntity
  8
DETAIL
  6
Continuous
100
AcDbCircle
 10
-332.0
 20
191.4
 30
0.0
 40
2.999997862540873
100
AcDbArc
 50
89.99995917748845
 51
180.0000408225114
  0
LINE
  5
203
330
1F
100
AcDbEntity
  8
DETAIL
  6
Continuous
100
AcDbLine
 10
-330.0
 20
194.4
 30
0.0
 11
-330.0
 21
165.0
 31
0.0
  0
LINE
  5
204
330
1F
100
AcDbEntity
  8
DETAIL
  6
Continuous
100
AcDbLine
 10
-332.0
 20
194.4
 30
0.0
 11
-330.0
 21
194.4
 31
0.0
  0
ARC
  5
205
330
1F
100
AcDbEntity
  8
DETAIL
  6
Continuous
100
AcDbCircle
 10
-275.0
 20
194.4
 30
0.0
 40
5.000003966018521
100
AcDbArc
 50
0.0000454471622229
 51
89.99995455281172
  0
ARC
  5
206
330
1F
100
AcDbEntity
  8
DETAIL
  6
Continuous
100
AcDbCircle
 10
-289.0
 20
194.4
 30
0.0
 40
4.999997862511465
100
AcDbArc
 50
89.99997550611786
 51
180.0000244938299
  0
ARC
  5
207
330
1F
100
AcDbEntity
  8
DETAIL
  6
Continuous
100
AcDbCircle
 10
-311.0
 20
194.4
 30
0.0
 40
5.000003966018521
100
AcDbArc
 50
0.0000454471622229
 51
89.99995455281172
  0
ARC
  5
208
330
1F
100
AcDbEntity
  8
DETAIL
  6
Continuous
100
AcDbCircle
 10
-300.0
 20
180.4
 30
0.0
 40
6.0
100
AcDbArc
 50
180.0
 51
0.0
  0
LINE
  5
209
330
1F
100
AcDbEntity
  8
DETAIL
  6
Continuous
100
AcDbLine
 10
-289.0
 20
199.4
 30
0.0
 11
-275.0
 21
199.4
 31
0.0
  0
LINE
  5
20A
330
1F
100
AcDbEntity
  8
DETAIL
  6
Continuous
100
AcDbLine
 10
-270.0
 20
194.4
 30
0.0
 11
-268.0
 21
194.4
 31
0.0
  0
LINE
  5
20B
330
1F
100
AcDbEntity
  8
DETAIL
  6
Continuous
100
AcDbLine
 10
-294.0
 20
180.4
 30
0.0
 11
-294.0
 21
194.4
 31
0.0
  0
LINE
  5
20C
330
1F
100
AcDbEntity
  8
DETAIL
  6
Continuous
100
AcDbLine
 10
-270.0
 20
194.4
 30
0.0
 11
-270.0
 21
165.0
 31
0.0
  0
LINE
  5
20D
330
1F
100
AcDbEntity
  8
DETAIL
  6
Continuous
100
AcDbLine
 10
-306.0
 20
194.4
 30
0.0
 11
-306.0
 21
180.4
 31
0.0
  0
LINE
  5
20E
330
1F
100
AcDbEntity
  8
DETAIL
  6
Continuous
100
AcDbLine
 10
-325.0
 20
199.4
 30
0.0
 11
-311.0
 21
199.4
 31
0.0
  0
LINE
  5
20F
330
1F
100
AcDbEntity
  8
DETAIL
  6
Continuous
100
AcDbLine
 10
-265.0
 20
191.4
 30
0.0
 11
-265.0
 21
165.0
 31
0.0
  0
ARC
  5
210
330
1F
100
AcDbEntity
  8
OUTLINE
  6
Continuous
100
AcDbCircle
 10
-325.0
 20
194.4
 30
0.0
 40
4.999997862511465
100
AcDbArc
 50
89.99997550611786
 51
180.0000244938299
  0
ARC
  5
211
330
1F
100
AcDbEntity
  8
OUTLINE
  6
Continuous
100
AcDbCircle
 10
-275.0
 20
194.4
 30
0.0
 40
5.000003966018521
100
AcDbArc
 50
0.0000454471622229
 51
89.99995455281172
  0
ARC
  5
212
330
1F
100
AcDbEntity
  8
OUTLINE
  6
Continuous
100
AcDbCircle
 10
-289.0
 20
194.4
 30
0.0
 40
4.999997862511465
100
AcDbArc
 50
89.99997550611786
 51
180.0000244938299
  0
ARC
  5
213
330
1F
100
AcDbEntity
  8
OUTLINE
  6
Continuous
100
AcDbCircle
 10
-311.0
 20
194.4
 30
0.0
 40
5.000003966018521
100
AcDbArc
 50
0.0000454471622229
 51
89.99995455281172
  0
ARC
  5
214
330
1F
100
AcDbEntity
  8
OUTLINE
  6
Continuous
100
AcDbCircle
 10
-300.0
 20
180.4
 30
0.0
 40
6.0
100
AcDbArc
 50
180.0
 51
0.0
  0
ARC
  5
215
330
1F
100
AcDbEntity
  8
OUTLINE
  6
Continuous
100
AcDbCircle
 10
-332.0
 20
191.4
 30
0.0
 40
2.999997862540873
100
AcDbArc
 50
89.99995917748845
 51
180.0000408225114
  0
LINE
  5
216
330
1F
100
AcDbEntity
  8
OUTLINE
  6
Continuous
100
AcDbLine
 10
-330.0
 20
194.4
 30
0.0
 11
-330.0
 21
165.0
 31
0.0
  0
LINE
  5
217
330
1F
100
AcDbEntity
  8
OUTLINE
  6
Continuous
100
AcDbLine
 10
-332.0
 20
194.4
 30
0.0
 11
-330.0
 21
194.4
 31
0.0
  0
LINE
  5
218
330
1F
100
AcDbEntity
  8
OUTLINE
  6
Continuous
100
AcDbLine
 10
-306.0
 20
194.4
 30
0.0
 11
-306.0
 21
180.4
 31
0.0
  0
ARC
  5
219
330
1F
100
AcDbEntity
  8
OUTLINE
  6
Continuous
100
AcDbCircle
 10
-268.0
 20
191.4
 30
0.0
 40
3.000003966047536
100
AcDbArc
 50
0.0000757457827885
 51
89.99992425426932
  0
LINE
  5
21A
330
1F
100
AcDbEntity
  8
OUTLINE
  6
Continuous
100
AcDbLine
 10
-270.0
 20
194.4
 30
0.0
 11
-268.0
 21
194.4
 31
0.0
  0
LINE
  5
21B
330
1F
100
AcDbEntity
  8
OUTLINE
  6
Continuous
100
AcDbLine
 10
-294.0
 20
180.4
 30
0.0
 11
-294.0
 21
194.4
 31
0.0
  0
LINE
  5
21C
330
1F
100
AcDbEntity
  8
OUTLINE
  6
Continuous
100
AcDbLine
 10
-270.0
 20
194.4
 30
0.0
 11
-270.0
 21
165.0
 31
0.0
  0
LINE
  5
21D
330
1F
100
AcDbEntity
  8
OUTLINE
  6
Continuous
100
AcDbLine
 10
-265.0
 20
191.4
 30
0.0
 11
-265.0
 21
165.0
 31
0.0
  0
LINE
  5
21E
330
1F
100
AcDbEntity
  8
OUTLINE
  6
Continuous
100
AcDbLine
 10
-325.0
 20
199.4
 30
0.0
 11
-311.0
 21
199.4
 31
0.0
  0
LINE
  5
21F
330
1F
100
AcDbEntity
  8
OUTLINE
  6
Continuous
100
AcDbLine
 10
-289.0
 20
199.4
 30
0.0
 11
-275.0
 21
199.4
 31
0.0
  0
ARC
  5
220
330
1F
100
AcDbEntity
  8
DETAIL
  6
Continuous
100
AcDbCircle
 10
-300.0
 20
-203.6
 30
0.0
 40
6.0
100
AcDbArc
 50
180.0
 51
0.0
  0
LINE
  5
221
330
1F
100
AcDbEntity
  8
DETAIL
  6
Continuous
100
AcDbLine
 10
-275.0
 20
-217.6
 30
0.0
 11
-325.0
 21
-217.6
 31
0.0
  0
ARC
  5
222
330
1F
100
AcDbEntity
  8
DETAIL
  6
Continuous
100
AcDbCircle
 10
-332.0
 20
-209.6
 30
0.0
 40
2.999992219268819
100
AcDbArc
 50
179.9998513984144
 51
270.0001486016375
  0
ARC
  5
223
330
1F
100
AcDbEntity
  8
DETAIL
  6
Continuous
100
AcDbCircle
 10
-325.0
 20
-212.6
 30
0.0
 40
4.999992219293091
100
AcDbArc
 50
179.9999108394603
 51
270.0000891605656
  0
LINE
  5
224
330
1F
100
AcDbEntity
  8
DETAIL
  6
Continuous
100
AcDbLine
 10
-306.0
 20
-195.0
 30
0.0
 11
-306.0
 21
-203.6
 31
0.0
  0
LINE
  5
225
330
1F
100
AcDbEntity
  8
DETAIL
  6
Continuous
100
AcDbLine
 10
-330.0
 20
-212.6
 30
0.0
 11
-330.0
 21
-195.0
 31
0.0
  0
LINE
  5
226
330
1F
100
AcDbEntity
  8
DETAIL
  6
Continuous
100
AcDbLine
 10
-332.0
 20
-212.6
 30
0.0
 11
-330.0
 21
-212.6
 31
0.0
  0
LINE
  5
227
330
1F
100
AcDbEntity
  8
DETAIL
  6
Continuous
100
AcDbLine
 10
-335.0
 20
-195.0
 30
0.0
 11
-335.0
 21
-209.6
 31
0.0
  0
LINE
  5
228
330
1F
100
AcDbEntity
  8
DETAIL
  6
Continuous
100
AcDbLine
 10
-265.0
 20
-195.0
 30
0.0
 11
-265.0
 21
-209.6
 31
0.0
  0
ARC
  5
229
330
1F
100
AcDbEntity
  8
DETAIL
  6
Continuous
100
AcDbCircle
 10
-268.0
 20
-209.6
 30
0.0
 40
2.999998322775367
100
AcDbArc
 50
269.9999679673341
 51
0.0000320326658989
  0
ARC
  5
22A
330
1F
100
AcDbEntity
  8
DETAIL
  6
Continuous
100
AcDbCircle
 10
-275.0
 20
-212.6
 30
0.0
 40
4.999998322800193
100
AcDbArc
 50
269.9999807807131
 51
0.0000192193129332
  0
LINE
  5
22B
330
1F
100
AcDbEntity
  8
DETAIL
  6
Continuous
100
AcDbLine
 10
-294.0
 20
-203.6
 30
0.0
 11
-294.0
 21
-195.0
 31
0.0
  0
LINE
  5
22C
330
1F
100
AcDbEntity
  8
DETAIL
  6
Continuous
100
AcDbLine
 10
-270.0
 20
-195.0
 30
0.0
 11
-270.0
 21
-212.6
 31
0.0
  0
LINE
  5
22D
330
1F
100
AcDbEntity
  8
DETAIL
  6
Continuous
100
AcDbLine
 10
-268.0
 20
-212.6
 30
0.0
 11
-270.0
 21
-212.6
 31
0.0
  0
LINE
  5
22E
330
1F
100
AcDbEntity
  8
OUTLINE
  6
Continuous
100
AcDbLine
 10
-265.0
 20
-195.0
 30
0.0
 11
-265.0
 21
-209.6
 31
0.0
  0
LINE
  5
22F
330
1F
100
AcDbEntity
  8
OUTLINE
  6
Continuous
100
AcDbLine
 10
-270.0
 20
-195.0
 30
0.0
 11
-270.0
 21
-212.6
 31
0.0
  0
LINE
  5
230
330
1F
100
AcDbEntity
  8
OUTLINE
  6
Continuous
100
AcDbLine
 10
-306.0
 20
-195.0
 30
0.0
 11
-306.0
 21
-203.6
 31
0.0
  0
LINE
  5
231
330
1F
100
AcDbEntity
  8
OUTLINE
  6
Continuous
100
AcDbLine
 10
-330.0
 20
-212.6
 30
0.0
 11
-330.0
 21
-195.0
 31
0.0
  0
LINE
  5
232
330
1F
100
AcDbEntity
  8
OUTLINE
  6
Continuous
100
AcDbLine
 10
-335.0
 20
-195.0
 30
0.0
 11
-335.0
 21
-209.6
 31
0.0
  0
LINE
  5
233
330
1F
100
AcDbEntity
  8
OUTLINE
  6
Continuous
100
AcDbLine
 10
-294.0
 20
-203.6
 30
0.0
 11
-294.0
 21
-195.0
 31
0.0
  0
ARC
  5
234
330
1F
100
AcDbEntity
  8
OUTLINE
  6
Continuous
100
AcDbCircle
 10
-325.0
 20
-212.6
 30
0.0
 40
4.999992219293091
100
AcDbArc
 50
179.9999108394603
 51
270.0000891605656
  0
ARC
  5
235
330
1F
100
AcDbEntity
  8
OUTLINE
  6
Continuous
100
AcDbCircle
 10
-332.0
 20
-209.6
 30
0.0
 40
2.999992219268819
100
AcDbArc
 50
179.9998513984144
 51
270.0001486016375
  0
LINE
  5
236
330
1F
100
AcDbEntity
  8
OUTLINE
  6
Continuous
100
AcDbLine
 10
-332.0
 20
-212.6
 30
0.0
 11
-330.0
 21
-212.6
 31
0.0
  0
ARC
  5
237
330
1F
100
AcDbEntity
  8
OUTLINE
  6
Continuous
100
AcDbCircle
 10
-268.0
 20
-209.6
 30
0.0
 40
2.999998322775367
100
AcDbArc
 50
269.9999679673341
 51
0.0000320326658989
  0
ARC
  5
238
330
1F
100
AcDbEntity
  8
OUTLINE
  6
Continuous
100
AcDbCircle
 10
-275.0
 20
-212.6
 30
0.0
 40
4.999998322800193
100
AcDbArc
 50
269.9999807807131
 51
0.0000192193129332
  0
ARC
  5
239
330
1F
100
AcDbEntity
  8
OUTLINE
  6
Continuous
100
AcDbCircle
 10
-300.0
 20
-203.6
 30
0.0
 40
6.0
100
AcDbArc
 50
180.0
 51
0.0
  0
LINE
  5
23A
330
1F
100
AcDbEntity
  8
OUTLINE
  6
Continuous
100
AcDbLine
 10
-275.0
 20
-217.6
 30
0.0
 11
-325.0
 21
-217.6
 31
0.0
  0
LINE
  5
23B
330
1F
100
AcDbEntity
  8
OUTLINE
  6
Continuous
100
AcDbLine
 10
-268.0
 20
-212.6
 30
0.0
 11
-270.0
 21
-212.6
 31
0.0
  0
ARC
  5
23C
330
1F
100
AcDbEntity
  8
DETAIL
  6
Continuous
100
AcDbCircle
 10
332.0
 20
191.4
 30
0.0
 40
3.000003966047536
100
AcDbArc
 50
0.0000757457827885
 51
89.99992425426932
  0
ARC
  5
23D
330
1F
100
AcDbEntity
  8
DETAIL
  6
Continuous
100
AcDbCircle
 10
275.0
 20
194.4
 30
0.0
 40
4.999997862511465
100
AcDbArc
 50
89.99997550611786
 51
180.0000244938299
  0
ARC
  5
23E
330
1F
100
AcDbEntity
  8
DETAIL
  6
Continuous
100
AcDbCircle
 10
268.0
 20
191.4
 30
0.0
 40
2.999997862540873
100
AcDbArc
 50
89.99995917748845
 51
180.0000408225114
  0
LINE
  5
23F
330
1F
100
AcDbEntity
  8
DETAIL
  6
Continuous
100
AcDbLine
 10
270.0
 20
194.4
 30
0.0
 11
270.0
 21
165.0
 31
0.0
  0
LINE
  5
240
330
1F
100
AcDbEntity
  8
DETAIL
  6
Continuous
100
AcDbLine
 10
268.0
 20
194.4
 30
0.0
 11
270.0
 21
194.4
 31
0.0
  0
LINE
  5
241
330
1F
100
AcDbEntity
  8
DETAIL
  6
Continuous
100
AcDbLine
 10
265.0
 20
191.4
 30
0.0
 11
265.0
 21
165.0
 31
0.0
  0
ARC
  5
242
330
1F
100
AcDbEntity
  8
DETAIL
  6
Continuous
100
AcDbCircle
 10
325.0
 20
194.4
 30
0.0
 40
5.000003966018521
100
AcDbArc
 50
0.0000454471622229
 51
89.99995455281172
  0
ARC
  5
243
330
1F
100
AcDbEntity
  8
DETAIL
  6
Continuous
100
AcDbCircle
 10
311.0
 20
194.4
 30
0.0
 40
4.999997862511465
100
AcDbArc
 50
89.99997550611786
 51
180.0000244938299
  0
ARC
  5
244
330
1F
100
AcDbEntity
  8
DETAIL
  6
Continuous
100
AcDbCircle
 10
289.0
 20
194.4
 30
0.0
 40
5.000003966018521
100
AcDbArc
 50
0.0000454471622229
 51
89.99995455281172
  0
ARC
  5
245
330
1F
100
AcDbEntity
  8
DETAIL
  6
Continuous
100
AcDbCircle
 10
300.0
 20
180.4
 30
0.0
 40
6.0
100
AcDbArc
 50
180.0
 51
0.0
  0
LINE
  5
246
330
1F
100
AcDbEntity
  8
DETAIL
  6
Continuous
100
AcDbLine
 10
311.0
 20
199.4
 30
0.0
 11
325.0
 21
199.4
 31
0.0
  0
LINE
  5
247
330
1F
100
AcDbEntity
  8
DETAIL
  6
Continuous
100
AcDbLine
 10
330.0
 20
194.4
 30
0.0
 11
332.0
 21
194.4
 31
0.0
  0
LINE
  5
248
330
1F
100
AcDbEntity
  8
DETAIL
  6
Continuous
100
AcDbLine
 10
306.0
 20
180.4
 30
0.0
 11
306.0
 21
194.4
 31
0.0
  0
LINE
  5
249
330
1F
100
AcDbEntity
  8
DETAIL
  6
Continuous
100
AcDbLine
 10
330.0
 20
194.4
 30
0.0
 11
330.0
 21
165.0
 31
0.0
  0
LINE
  5
24A
330
1F
100
AcDbEntity
  8
DETAIL
  6
Continuous
100
AcDbLine
 10
294.0
 20
194.4
 30
0.0
 11
294.0
 21
180.4
 31
0.0
  0
LINE
  5
24B
330
1F
100
AcDbEntity
  8
DETAIL
  6
Continuous
100
AcDbLine
 10
275.0
 20
199.4
 30
0.0
 11
289.0
 21
199.4
 31
0.0
  0
LINE
  5
24C
330
1F
100
AcDbEntity
  8
DETAIL
  6
Continuous
100
AcDbLine
 10
335.0
 20
191.4
 30
0.0
 11
335.0
 21
165.0
 31
0.0
  0
ARC
  5
24D
330
1F
100
AcDbEntity
  8
OUTLINE
  6
Continuous
100
AcDbCircle
 10
275.0
 20
194.4
 30
0.0
 40
4.999997862511465
100
AcDbArc
 50
89.99997550611786
 51
180.0000244938299
  0
ARC
  5
24E
330
1F
100
AcDbEntity
  8
OUTLINE
  6
Continuous
100
AcDbCircle
 10
325.0
 20
194.4
 30
0.0
 40
5.000003966018521
100
AcDbArc
 50
0.0000454471622229
 51
89.99995455281172
  0
ARC
  5
24F
330
1F
100
AcDbEntity
  8
OUTLINE
  6
Continuous
100
AcDbCircle
 10
311.0
 20
194.4
 30
0.0
 40
4.999997862511465
100
AcDbArc
 50
89.99997550611786
 51
180.0000244938299
  0
ARC
  5
250
330
1F
100
AcDbEntity
  8
OUTLINE
  6
Continuous
100
AcDbCircle
 10
289.0
 20
194.4
 30
0.0
 40
5.000003966018521
100
AcDbArc
 50
0.0000454471622229
 51
89.99995455281172
  0
ARC
  5
251
330
1F
100
AcDbEntity
  8
OUTLINE
  6
Continuous
100
AcDbCircle
 10
300.0
 20
180.4
 30
0.0
 40
6.0
100
AcDbArc
 50
180.0
 51
0.0
  0
ARC
  5
252
330
1F
100
AcDbEntity
  8
OUTLINE
  6
Continuous
100
AcDbCircle
 10
268.0
 20
191.4
 30
0.0
 40
2.999997862540873
100
AcDbArc
 50
89.99995917748845
 51
180.0000408225114
  0
LINE
  5
253
330
1F
100
AcDbEntity
  8
OUTLINE
  6
Continuous
100
AcDbLine
 10
270.0
 20
194.4
 30
0.0
 11
270.0
 21
165.0
 31
0.0
  0
LINE
  5
254
330
1F
100
AcDbEntity
  8
OUTLINE
  6
Continuous
100
AcDbLine
 10
268.0
 20
194.4
 30
0.0
 11
270.0
 21
194.4
 31
0.0
  0
LINE
  5
255
330
1F
100
AcDbEntity
  8
OUTLINE
  6
Continuous
100
AcDbLine
 10
265.0
 20
191.4
 30
0.0
 11
265.0
 21
165.0
 31
0.0
  0
LINE
  5
256
330
1F
100
AcDbEntity
  8
OUTLINE
  6
Continuous
100
AcDbLine
 10
294.0
 20
194.4
 30
0.0
 11
294.0
 21
180.4
 31
0.0
  0
ARC
  5
257
330
1F
100
AcDbEntity
  8
OUTLINE
  6
Continuous
100
AcDbCircle
 10
332.0
 20
191.4
 30
0.0
 40
3.000003966047536
100
AcDbArc
 50
0.0000757457827885
 51
89.99992425426932
  0
LINE
  5
258
330
1F
100
AcDbEntity
  8
OUTLINE
  6
Continuous
100
AcDbLine
 10
330.0
 20
194.4
 30
0.0
 11
332.0
 21
194.4
 31
0.0
  0
LINE
  5
259
330
1F
100
AcDbEntity
  8
OUTLINE
  6
Continuous
100
AcDbLine
 10
306.0
 20
180.4
 30
0.0
 11
306.0
 21
194.4
 31
0.0
  0
LINE
  5
25A
330
1F
100
AcDbEntity
  8
OUTLINE
  6
Continuous
100
AcDbLine
 10
330.0
 20
194.4
 30
0.0
 11
330.0
 21
165.0
 31
0.0
  0
LINE
  5
25B
330
1F
100
AcDbEntity
  8
OUTLINE
  6
Continuous
100
AcDbLine
 10
335.0
 20
191.4
 30
0.0
 11
335.0
 21
165.0
 31
0.0
  0
LINE
  5
25C
330
1F
100
AcDbEntity
  8
OUTLINE
  6
Continuous
100
AcDbLine
 10
275.0
 20
199.4
 30
0.0
 11
289.0
 21
199.4
 31
0.0
  0
LINE
  5
25D
330
1F
100
AcDbEntity
  8
OUTLINE
  6
Continuous
100
AcDbLine
 10
311.0
 20
199.4
 30
0.0
 11
325.0
 21
199.4
 31
0.0
  0
ARC
  5
25E
330
1F
100
AcDbEntity
  8
DETAIL
  6
Continuous
100
AcDbCircle
 10
332.0
 20
-209.6
 30
0.0
 40
2.999998322775367
100
AcDbArc
 50
269.9999679673341
 51
0.0000320326658989
  0
ARC
  5
25F
330
1F
100
AcDbEntity
  8
DETAIL
  6
Continuous
100
AcDbCircle
 10
300.0
 20
-179.6
 30
0.0
 40
6.0
100
AcDbArc
 50
0.0
 51
180.0
  0
LINE
  5
260
330
1F
100
AcDbEntity
  8
DETAIL
  6
Continuous
100
AcDbLine
 10
330.0
 20
-165.0
 30
0.0
 11
330.0
 21
-212.6
 31
0.0
  0
LINE
  5
261
330
1F
100
AcDbEntity
  8
DETAIL
  6
Continuous
100
AcDbLine
 10
270.0
 20
-212.6
 30
0.0
 11
270.0
 21
-165.0
 31
0.0
  0
LINE
  5
262
330
1F
100
AcDbEntity
  8
DETAIL
  6
Continuous
100
AcDbLine
 10
265.0
 20
-165.0
 30
0.0
 11
265.0
 21
-209.6
 31
0.0
  0
ARC
  5
263
330
1F
100
AcDbEntity
  8
DETAIL
  6
Continuous
100
AcDbCircle
 10
275.0
 20
-212.6
 30
0.0
 40
4.999992219292976
100
AcDbArc
 50
179.9999108394603
 51
270.0000891605656
  0
ARC
  5
264
330
1F
100
AcDbEntity
  8
DETAIL
  6
Continuous
100
AcDbCircle
 10
268.0
 20
-209.6
 30
0.0
 40
2.999992219268133
100
AcDbArc
 50
179.9998513984144
 51
270.0001486016375
  0
LINE
  5
265
330
1F
100
AcDbEntity
  8
DETAIL
  6
Continuous
100
AcDbLine
 10
270.0
 20
-212.6
 30
0.0
 11
268.0
 21
-212.6
 31
0.0
  0
ARC
  5
266
330
1F
100
AcDbEntity
  8
DETAIL
  6
Continuous
100
AcDbCircle
 10
325.0
 20
-212.6
 30
0.0
 40
4.999998322800193
100
AcDbArc
 50
269.9999807807131
 51
0.0000192193129332
  0
ARC
  5
267
330
1F
100
AcDbEntity
  8
DETAIL
  6
Continuous
100
AcDbCircle
 10
300.0
 20
-203.6
 30
0.0
 40
6.0
100
AcDbArc
 50
180.0
 51
0.0
  0
LINE
  5
268
330
1F
100
AcDbEntity
  8
DETAIL
  6
Continuous
100
AcDbLine
 10
332.0
 20
-212.6
 30
0.0
 11
330.0
 21
-212.6
 31
0.0
  0
LINE
  5
269
330
1F
100
AcDbEntity
  8
DETAIL
  6
Continuous
100
AcDbLine
 10
306.0
 20
-203.6
 30
0.0
 11
306.0
 21
-179.6
 31
0.0
  0
LINE
  5
26A
330
1F
100
AcDbEntity
  8
DETAIL
  6
Continuous
100
AcDbLine
 10
294.0
 20
-179.6
 30
0.0
 11
294.0
 21
-203.6
 31
0.0
  0
LINE
  5
26B
330
1F
100
AcDbEntity
  8
DETAIL
  6
Continuous
100
AcDbLine
 10
325.0
 20
-217.6
 30
0.0
 11
275.0
 21
-217.6
 31
0.0
  0
LINE
  5
26C
330
1F
100
AcDbEntity
  8
DETAIL
  6
Continuous
100
AcDbLine
 10
335.0
 20
-165.0
 30
0.0
 11
335.0
 21
-209.6
 31
0.0
  0
LINE
  5
26D
330
1F
100
AcDbEntity
  8
OUTLINE
  6
Continuous
100
AcDbLine
 10
330.0
 20
-165.0
 30
0.0
 11
330.0
 21
-212.6
 31
0.0
  0
LINE
  5
26E
330
1F
100
AcDbEntity
  8
OUTLINE
  6
Continuous
100
AcDbLine
 10
270.0
 20
-212.6
 30
0.0
 11
270.0
 21
-165.0
 31
0.0
  0
LINE
  5
26F
330
1F
100
AcDbEntity
  8
OUTLINE
  6
Continuous
100
AcDbLine
 10
265.0
 20
-165.0
 30
0.0
 11
265.0
 21
-209.6
 31
0.0
  0
LINE
  5
270
330
1F
100
AcDbEntity
  8
OUTLINE
  6
Continuous
100
AcDbLine
 10
306.0
 20
-203.6
 30
0.0
 11
306.0
 21
-179.6
 31
0.0
  0
LINE
  5
271
330
1F
100
AcDbEntity
  8
OUTLINE
  6
Continuous
100
AcDbLine
 10
294.0
 20
-179.6
 30
0.0
 11
294.0
 21
-203.6
 31
0.0
  0
LINE
  5
272
330
1F
100
AcDbEntity
  8
OUTLINE
  6
Continuous
100
AcDbLine
 10
335.0
 20
-165.0
 30
0.0
 11
335.0
 21
-209.6
 31
0.0
  0
ARC
  5
273
330
1F
100
AcDbEntity
  8
OUTLINE
  6
Continuous
100
AcDbCircle
 10
300.0
 20
-203.6
 30
0.0
 40
6.0
100
AcDbArc
 50
180.0
 51
0.0
  0
LINE
  5
274
330
1F
100
AcDbEntity
  8
OUTLINE
  6
Continuous
100
AcDbLine
 10
325.0
 20
-217.6
 30
0.0
 11
275.0
 21
-217.6
 31
0.0
  0
ARC
  5
275
330
1F
100
AcDbEntity
  8
OUTLINE
  6
Continuous
100
AcDbCircle
 10
275.0
 20
-212.6
 30
0.0
 40
4.999992219292976
100
AcDbArc
 50
179.9999108394603
 51
270.0000891605656
  0
ARC
  5
276
330
1F
100
AcDbEntity
  8
OUTLINE
  6
Continuous
100
AcDbCircle
 10
268.0
 20
-209.6
 30
0.0
 40
2.999992219268133
100
AcDbArc
 50
179.9998513984144
 51
270.0001486016375
  0
LINE
  5
277
330
1F
100
AcDbEntity
  8
OUTLINE
  6
Continuous
100
AcDbLine
 10
270.0
 20
-212.6
 30
0.0
 11
268.0
 21
-212.6
 31
0.0
  0
ARC
  5
278
330
1F
100
AcDbEntity
  8
OUTLINE
  6
Continuous
100
AcDbCircle
 10
332.0
 20
-209.6
 30
0.0
 40
2.999998322775367
100
AcDbArc
 50
269.9999679673341
 51
0.0000320326658989
  0
ARC
  5
279
330
1F
100
AcDbEntity
  8
OUTLINE
  6
Continuous
100
AcDbCircle
 10
325.0
 20
-212.6
 30
0.0
 40
4.999998322800193
100
AcDbArc
 50
269.9999807807131
 51
0.0000192193129332
  0
LINE
  5
27A
330
1F
100
AcDbEntity
  8
OUTLINE
  6
Continuous
100
AcDbLine
 10
332.0
 20
-212.6
 30
0.0
 11
330.0
 21
-212.6
 31
0.0
  0
ARC
  5
27B
330
1F
100
AcDbEntity
  8
OUTLINE
  6
Continuous
100
AcDbCircle
 10
300.0
 20
-179.6
 30
0.0
 40
6.0
100
AcDbArc
 50
0.0
 51
180.0
  0
ENDSEC
  0
SECTION
  2
OBJECTS
  0
DICTIONARY
  5
C
330
0
100
AcDbDictionary
281
     1
  3
ACAD_DETAILVIEWSTYLE
350
2BB
  3
ACAD_GROUP
350
D
  3
ACAD_IMAGE_VARS
350
6B
  3
ACAD_LAYOUT
350
1A
  3
ACAD_MATERIAL
350
43
  3
ACAD_MLEADERSTYLE
350
2BA
  3
ACAD_MLINESTYLE
350
17
  3
ACAD_PLOTSETTINGS
350
19
  3
ACAD_PLOTSTYLENAME
350
E
  3
ACAD_SCALELIST
350
47
  3
ACAD_SECTIONVIEWSTYLE
350
2BC
  3
ACAD_TABLESTYLE
350
2B9
  3
ACAD_VISUALSTYLE
350
2A
  3
AcDbVariableDictionary
350
280
  0
DICTIONARY
  5
2BB
102
{ACAD_REACTORS
330
C
102
}
330
C
100
AcDbDictionary
281
     1
  0
DICTIONARY
  5
D
102
{ACAD_REACTORS
330
C
102
}
330
C
100
AcDbDictionary
281
     1
  0
RASTERVARIABLES
  5
6B
102
{ACAD_REACTORS
330
C
102
}
330
C
100
AcDbRasterVariables
 90
        0
 70
     0
 71
     1
 72
     0
  0
DICTIONARY
  5
1A
102
{ACAD_REACTORS
330
C
102
}
330
C
100
AcDbDictionary
281
     1
  3
Layout1
350
1E
  3
Layout2
350
26
  3
Model
350
22
  0
DICTIONARY
  5
43
102
{ACAD_REACTORS
330
C
102
}
330
C
100
AcDbDictionary
281
     1
  3
ByBlock
350
45
  3
ByLayer
350
44
  3
Global
350
46
  0
DICTIONARY
  5
2BA
102
{ACAD_REACTORS
330
C
102
}
330
C
100
AcDbDictionary
281
     1
  0
DICTIONARY
  5
17
102
{ACAD_REACTORS
330
C
102
}
330
C
100
AcDbDictionary
281
     1
  3
Standard
350
18
  0
DICTIONARY
  5
19
102
{ACAD_REACTORS
330
C
102
}
330
C
100
AcDbDictionary
281
     1
  0
ACDBDICTIONARYWDFLT
  5
E
102
{ACAD_REACTORS
330
C
102
}
330
C
100
AcDbDictionary
281
     1
  3
Normal
350
F
100
AcDbDictionaryWithDefault
340
F
  0
DICTIONARY
  5
47
102
{ACAD_REACTORS
330
C
102
}
330
C
100
AcDbDictionary
281
     1
  3
A0
350
48
  3
A1
350
49
  3
A2
350
4A
  3
A3
350
4B
  3
A4
350
4C
  3
A5
350
4D
  3
A6
350
4E
  3
A7
350
4F
  3
A8
350
50
  3
A9
350
51
  3
B0
350
52
  3
B1
350
53
  3
B2
350
54
  3
B3
350
55
  3
B4
350
56
  3
B5
350
57
  3
B6
350
58
  3
B7
350
59
  3
B8
350
5A
  3
B9
350
5B
  3
C0
350
5C
  3
C1
350
5D
  3
C2
350
5E
  3
C3
350
5F
  3
C4
350
60
  3
C5
350
61
  3
C6
350
62
  3
C7
350
63
  3
C8
350
64
  3
C9
350
65
  3
D0
350
66
  3
D1
350
67
  3
D2
350
68
  0
DICTIONARY
  5
2BC
102
{ACAD_REACTORS
330
C
102
}
330
C
100
AcDbDictionary
281
     1
  0
DICTIONARY
  5
2B9
102
{ACAD_REACTORS
330
C
102
}
330
C
100
AcDbDictionary
281
     1
  0
DICTIONARY
  5
2A
102
{ACAD_REACTORS
330
C
102
}
330
C
100
AcDbDictionary
281
     1
  3
2dWireframe
350
2F
  3
Basic
350
32
  3
Brighten
350
36
  3
ColorChange
350
3A
  3
Conceptual
350
34
  3
Dim
350
35
  3
EdgeColorOff
350
3D
  3
Facepattern
350
39
  3
Flat
350
2B
  3
FlatWithEdges
350
2C
  3
Gouraud
350
2D
  3
GouraudWithEdges
350
2E
  3
Hidden
350
31
  3
JitterOff
350
3B
  3
Linepattern
350
38
  3
OverhangOff
350
3C
  3
Realistic
350
33
  3
Shaded
350
42
  3
Shaded with edges
350
41
  3
Shades of Gray
350
3E
  3
Sketchy
350
3F
  3
Thicken
350
37
  3
Wireframe
350
30
  3
X-Ray
350
40
  0
DICTIONARY
  5
280
102
{ACAD_REACTORS
330
C
102
}
330
C
100
AcDbDictionary
281
     1
  3
CANNOSCALE
350
281
  3
MSLTSCALE
350
282
  0
LAYOUT
  5
1E
102
{ACAD_REACTORS
330
1A
102
}
330
1A
100
AcDbPlotSettings
  1

  2
none_device
  4

  6

 40
0.0
 41
0.0
 42
0.0
 43
0.0
 44
0.0
 45
0.0
 46
0.0
 47
0.0
 48
0.0
 49
0.0
140
0.0
141
0.0
142
1.0
143
1.0
 70
   688
 72
     0
 73
     0
 74
     5
  7

 75
    16
 76
     0
 77
     2
 78
   300
147
1.0
148
0.0
149
0.0
100
AcDbLayout
  1
Layout1
 70
     1
 71
     1
 10
0.0
 20
0.0
 11
12.0
 21
9.0
 12
0.0
 22
0.0
 32
0.0
 14
1.000000000000000E+20
 24
1.000000000000000E+20
 34
1.000000000000000E+20
 15
-1.000000000000000E+20
 25
-1.000000000000000E+20
 35
-1.000000000000000E+20
146
0.0
 13
0.0
 23
0.0
 33
0.0
 16
1.0
 26
0.0
 36
0.0
 17
0.0
 27
1.0
 37
0.0
 76
     0
330
1B
  0
LAYOUT
  5
26
102
{ACAD_REACTORS
330
1A
102
}
330
1A
100
AcDbPlotSettings
  1

  2
none_device
  4

  6

 40
0.0
 41
0.0
 42
0.0
 43
0.0
 44
0.0
 45
0.0
 46
0.0
 47
0.0
 48
0.0
 49
0.0
140
0.0
141
0.0
142
1.0
143
1.0
 70
   688
 72
     0
 73
     0
 74
     5
  7

 75
    16
 76
     0
 77
     2
 78
   300
147
1.0
148
0.0
149
0.0
100
AcDbLayout
  1
Layout2
 70
     1
 71
     2
 10
0.0
 20
0.0
 11
0.0
 21
0.0
 12
0.0
 22
0.0
 32
0.0
 14
0.0
 24
0.0
 34
0.0
 15
0.0
 25
0.0
 35
0.0
146
0.0
 13
0.0
 23
0.0
 33
0.0
 16
1.0
 26
0.0
 36
0.0
 17
0.0
 27
1.0
 37
0.0
 76
     0
330
23
  0
LAYOUT
  5
22
102
{ACAD_REACTORS
330
1A
102
}
330
1A
100
AcDbPlotSettings
  1

  2
none_device
  4
Letter_(8.50_x_11.00_Inches)
  6

 40
6.35
 41
6.35
 42
6.35000508
 43
6.35000508
 44
215.9
 45
279.4
 46
0.0
 47
0.0
 48
0.0
 49
0.0
140
0.0
141
0.0
142
1.0
143
1.0
 70
  1712
 72
     0
 73
     0
 74
     0
  7

 75
     0
 76
     0
 77
     2
 78
   300
147
1.0
148
0.0
149
0.0
100
AcDbLayout
  1
Model
 70
     1
 71
     0
 10
-1433.451399316611
 20
-766.3348892073691
 11
2227.495466922743
 21
844.1644669925604
 12
0.0
 22
0.0
 32
0.0
 14
-1433.451399316611
 24
-766.3348892073691
 34
0.0
 15
2227.495466922743
 25
844.1644669925604
 35
0.0
146
0.0
 13
0.0
 23
0.0
 33
0.0
 16
1.0
 26
0.0
 36
0.0
 17
0.0
 27
1.0
 37
0.0
 76
     0
330
1F
331
29
  0
MATERIAL
  5
45
102
{ACAD_REACTORS
330
43
102
}
102
{ACAD_XDICTIONARY
360
2B5
102
}
330
43
100
AcDbMaterial
  1
ByBlock
  0
MATERIAL
  5
44
102
{ACAD_REACTORS
330
43
102
}
102
{ACAD_XDICTIONARY
360
2B3
102
}
330
43
100
AcDbMaterial
  1
ByLayer
  0
MATERIAL
  5
46
102
{ACAD_REACTORS
330
43
102
}
102
{ACAD_XDICTIONARY
360
2B7
102
}
330
43
100
AcDbMaterial
  1
Global
  0
MLINESTYLE
  5
18
102
{ACAD_REACTORS
330
17
102
}
330
17
100
AcDbMlineStyle
  2
Standard
 70
     0
  3

 62
   256
 51
90.0
 52
90.0
 71
     2
 49
0.5
 62
   256
  6
BYLAYER
 49
-0.5
 62
   256
  6
BYLAYER
  0
ACDBPLACEHOLDER
  5
F
102
{ACAD_REACTORS
330
E
102
}
330
E
  0
SCALE
  5
48
102
{ACAD_REACTORS
330
47
102
}
330
47
100
AcDbScale
 70
     0
300
1:1
140
1.0
141
1.0
290
     1
  0
SCALE
  5
49
102
{ACAD_REACTORS
330
47
102
}
330
47
100
AcDbScale
 70
     0
300
1:2
140
1.0
141
2.0
290
     0
  0
SCALE
  5
4A
102
{ACAD_REACTORS
330
47
102
}
330
47
100
AcDbScale
 70
     0
300
1:4
140
1.0
141
4.0
290
     0
  0
SCALE
  5
4B
102
{ACAD_REACTORS
330
47
102
}
330
47
100
AcDbScale
 70
     0
300
1:5
140
1.0
141
5.0
290
     0
  0
SCALE
  5
4C
102
{ACAD_REACTORS
330
47
102
}
330
47
100
AcDbScale
 70
     0
300
1:8
140
1.0
141
8.0
290
     0
  0
SCALE
  5
4D
102
{ACAD_REACTORS
330
47
102
}
330
47
100
AcDbScale
 70
     0
300
1:10
140
1.0
141
10.0
290
     0
  0
SCALE
  5
4E
102
{ACAD_REACTORS
330
47
102
}
330
47
100
AcDbScale
 70
     0
300
1:16
140
1.0
141
16.0
290
     0
  0
SCALE
  5
4F
102
{ACAD_REACTORS
330
47
102
}
330
47
100
AcDbScale
 70
     0
300
1:20
140
1.0
141
20.0
290
     0
  0
SCALE
  5
50
102
{ACAD_REACTORS
330
47
102
}
330
47
100
AcDbScale
 70
     0
300
1:30
140
1.0
141
30.0
290
     0
  0
SCALE
  5
51
102
{ACAD_REACTORS
330
47
102
}
330
47
100
AcDbScale
 70
     0
300
1:40
140
1.0
141
40.0
290
     0
  0
SCALE
  5
52
102
{ACAD_REACTORS
330
47
102
}
330
47
100
AcDbScale
 70
     0
300
1:50
140
1.0
141
50.0
290
     0
  0
SCALE
  5
53
102
{ACAD_REACTORS
330
47
102
}
330
47
100
AcDbScale
 70
     0
300
1:100
140
1.0
141
100.0
290
     0
  0
SCALE
  5
54
102
{ACAD_REACTORS
330
47
102
}
330
47
100
AcDbScale
 70
     0
300
2:1
140
2.0
141
1.0
290
     0
  0
SCALE
  5
55
102
{ACAD_REACTORS
330
47
102
}
330
47
100
AcDbScale
 70
     0
300
4:1
140
4.0
141
1.0
290
     0
  0
SCALE
  5
56
102
{ACAD_REACTORS
330
47
102
}
330
47
100
AcDbScale
 70
     0
300
8:1
140
8.0
141
1.0
290
     0
  0
SCALE
  5
57
102
{ACAD_REACTORS
330
47
102
}
330
47
100
AcDbScale
 70
     0
300
10:1
140
10.0
141
1.0
290
     0
  0
SCALE
  5
58
102
{ACAD_REACTORS
330
47
102
}
330
47
100
AcDbScale
 70
     0
300
100:1
140
100.0
141
1.0
290
     0
  0
SCALE
  5
59
102
{ACAD_REACTORS
330
47
102
}
330
47
100
AcDbScale
 70
     0
300
1/128" = 1'-0"
140
0.0078125
141
12.0
290
     0
  0
SCALE
  5
5A
102
{ACAD_REACTORS
330
47
102
}
330
47
100
AcDbScale
 70
     0
300
1/64" = 1'-0"
140
0.015625
141
12.0
290
     0
  0
SCALE
  5
5B
102
{ACAD_REACTORS
330
47
102
}
330
47
100
AcDbScale
 70
     0
300
1/32" = 1'-0"
140
0.03125
141
12.0
290
     0
  0
SCALE
  5
5C
102
{ACAD_REACTORS
330
47
102
}
330
47
100
AcDbScale
 70
     0
300
1/16" = 1'-0"
140
0.0625
141
12.0
290
     0
  0
SCALE
  5
5D
102
{ACAD_REACTORS
330
47
102
}
330
47
100
AcDbScale
 70
     0
300
3/32" = 1'-0"
140
0.09375
141
12.0
290
     0
  0
SCALE
  5
5E
102
{ACAD_REACTORS
330
47
102
}
330
47
100
AcDbScale
 70
     0
300
1/8" = 1'-0"
140
0.125
141
12.0
290
     0
  0
SCALE
  5
5F
102
{ACAD_REACTORS
330
47
102
}
330
47
100
AcDbScale
 70
     0
300
3/16" = 1'-0"
140
0.1875
141
12.0
290
     0
  0
SCALE
  5
60
102
{ACAD_REACTORS
330
47
102
}
330
47
100
AcDbScale
 70
     0
300
1/4" = 1'-0"
140
0.25
141
12.0
290
     0
  0
SCALE
  5
61
102
{ACAD_REACTORS
330
47
102
}
330
47
100
AcDbScale
 70
     0
300
3/8" = 1'-0"
140
0.375
141
12.0
290
     0
  0
SCALE
  5
62
102
{ACAD_REACTORS
330
47
102
}
330
47
100
AcDbScale
 70
     0
300
1/2" = 1'-0"
140
0.5
141
12.0
290
     0
  0
SCALE
  5
63
102
{ACAD_REACTORS
330
47
102
}
330
47
100
AcDbScale
 70
     0
300
3/4" = 1'-0"
140
0.75
141
12.0
290
     0
  0
SCALE
  5
64
102
{ACAD_REACTORS
330
47
102
}
330
47
100
AcDbScale
 70
     0
300
1" = 1'-0"
140
1.0
141
12.0
290
     0
  0
SCALE
  5
65
102
{ACAD_REACTORS
330
47
102
}
330
47
100
AcDbScale
 70
     0
300
1-1/2" = 1'-0"
140
1.5
141
12.0
290
     0
  0
SCALE
  5
66
102
{ACAD_REACTORS
330
47
102
}
330
47
100
AcDbScale
 70
     0
300
3" = 1'-0"
140
3.0
141
12.0
290
     0
  0
SCALE
  5
67
102
{ACAD_REACTORS
330
47
102
}
330
47
100
AcDbScale
 70
     0
300
6" = 1'-0"
140
6.0
141
12.0
290
     0
  0
SCALE
  5
68
102
{ACAD_REACTORS
330
47
102
}
330
47
100
AcDbScale
 70
     0
300
1'-0" = 1'-0"
140
12.0
141
12.0
290
     0
  0
VISUALSTYLE
  5
2F
102
{ACAD_REACTORS
330
2A
102
}
102
{ACAD_XDICTIONARY
360
28B
102
}
330
2A
100
AcDbVisualStyle
  2
2dWireframe
 70
     4
 71
     0
 72
     2
 73
     0
 90
        0
 40
0.6
 41
30.0
 62
     5
 63
     7
421
 16777215
 74
     1
 91
        4
 64
     7
 65
   257
 75
     1
175
     1
 42
1.0
 92
        0
 66
   257
 43
1.0
 76
     1
 77
     6
 78
     2
 67
     7
 79
     5
170
     0
171
     0
290
     0
174
     0
 93
        1
 44
0.0
173
     0
291
     0
 45
0.0
1001
ACAD
1000
AcDbSavedByObjectVersion
1070
     0
  0
VISUALSTYLE
  5
32
102
{ACAD_REACTORS
330
2A
102
}
102
{ACAD_XDICTIONARY
360
291
102
}
330
2A
100
AcDbVisualStyle
  2
Basic
 70
     7
 71
     1
 72
     0
 73
     1
 90
        0
 40
0.6
 41
30.0
 62
     5
 63
     7
421
 16777215
 74
     0
 91
        4
 64
     7
 65
   257
 75
     1
175
     1
 42
1.0
 92
        8
 66
     7
 43
1.0
 76
     1
 77
     6
 78
     2
 67
     7
 79
     5
170
     0
171
     0
290
     0
174
     0
 93
        1
 44
0.0
173
     0
291
     1
 45
0.0
1001
ACAD
1000
AcDbSavedByObjectVersion
1070
     0
  0
VISUALSTYLE
  5
36
102
{ACAD_REACTORS
330
2A
102
}
102
{ACAD_XDICTIONARY
360
299
102
}
330
2A
100
AcDbVisualStyle
  2
Brighten
 70
    12
 71
     2
 72
     2
 73
     0
 90
        0
 40
0.6
 41
30.0
 62
     5
 63
     7
421
 16777215
 74
     1
 91
        4
 64
     7
 65
   257
 75
     1
175
     1
 42
1.0
 92
        8
 66
     7
 43
1.0
 76
     1
 77
     6
 78
     2
 67
     7
 79
     5
170
     0
171
     0
290
     0
174
     0
 93
        1
 44
50.0
173
     0
291
     1
 45
0.0
1001
ACAD
1000
AcDbSavedByObjectVersion
1070
     0
  0
VISUALSTYLE
  5
3A
102
{ACAD_REACTORS
330
2A
102
}
102
{ACAD_XDICTIONARY
360
2A1
102
}
330
2A
100
AcDbVisualStyle
  2
ColorChange
 70
    16
 71
     2
 72
     2
 73
     3
 90
        0
 40
0.6
 41
30.0
 62
     5
 63
     8
421
  8421504
 74
     1
 91
        4
 64
     7
 65
   257
 75
     1
175
     1
 42
1.0
 92
        8
 66
     8
424
  8421504
 43
1.0
 76
     1
 77
     6
 78
     2
 67
     7
 79
     5
170
     0
171
     0
290
     0
174
     0
 93
        1
 44
0.0
173
     0
291
     1
 45
0.0
1001
ACAD
1000
AcDbSavedByObjectVersion
1070
     0
  0
VISUALSTYLE
  5
34
102
{ACAD_REACTORS
330
2A
102
}
102
{ACAD_XDICTIONARY
360
295
102
}
330
2A
100
AcDbVisualStyle
  2
Conceptual
 70
     9
 71
     3
 72
     2
 73
     0
 90
        0
 40
0.6
 41
30.0
 62
     5
 63
     7
421
 16777215
 74
     2
 91
        2
 64
     7
 65
   257
 75
     1
175
     1
 42
179.0
 92
        8
 66
     7
 43
1.0
 76
     1
 77
     6
 78
     2
 67
     7
 79
     3
170
     0
171
     0
290
     0
174
     0
 93
        1
 44
0.0
173
     0
291
     0
 45
0.0
1001
ACAD
1000
AcDbSavedByObjectVersion
1070
     0
  0
VISUALSTYLE
  5
35
102
{ACAD_REACTORS
330
2A
102
}
102
{ACAD_XDICTIONARY
360
297
102
}
330
2A
100
AcDbVisualStyle
  2
Dim
 70
    11
 71
     2
 72
     2
 73
     0
 90
        0
 40
0.6
 41
30.0
 62
     5
 63
     7
421
 16777215
 74
     1
 91
        4
 64
     7
 65
   257
 75
     1
175
     1
 42
1.0
 92
        8
 66
     7
 43
1.0
 76
     1
 77
     6
 78
     2
 67
     7
 79
     5
170
     0
171
     0
290
     0
174
     0
 93
        1
 44
-50.0
173
     0
291
     1
 45
0.0
1001
ACAD
1000
AcDbSavedByObjectVersion
1070
     0
  0
VISUALSTYLE
  5
3D
102
{ACAD_REACTORS
330
2A
102
}
102
{ACAD_XDICTIONARY
360
2A7
102
}
330
2A
100
AcDbVisualStyle
  2
EdgeColorOff
 70
    22
 71
     2
 72
     2
 73
     0
 90
        0
 40
0.6
 41
30.0
 62
     5
 63
     7
421
 16777215
 74
     1
 91
        4
 64
     7
 65
   257
 75
     1
175
     1
 42
1.0
 92
        8
 66
     7
 43
1.0
 76
     1
 77
     6
 78
     2
 67
     7
 79
     5
170
     0
171
     0
290
     0
174
     0
 93
        1
 44
0.0
173
     0
291
     1
 45
0.0
1001
ACAD
1000
AcDbSavedByObjectVersion
1070
     0
  0
VISUALSTYLE
  5
39
102
{ACAD_REACTORS
330
2A
102
}
102
{ACAD_XDICTIONARY
360
29F
102
}
330
2A
100
AcDbVisualStyle
  2
Facepattern
 70
    15
 71
     2
 72
     2
 73
     0
 90
        0
 40
0.6
 41
30.0
 62
     5
 63
     7
421
 16777215
 74
     1
 91
        4
 64
     7
 65
   257
 75
     1
175
     1
 42
1.0
 92
        8
 66
     7
 43
1.0
 76
     1
 77
     6
 78
     2
 67
     7
 79
     5
170
     0
171
     0
290
     0
174
     0
 93
        1
 44
0.0
173
     0
291
     1
 45
0.0
1001
ACAD
1000
AcDbSavedByObjectVersion
1070
     0
  0
VISUALSTYLE
  5
2B
102
{ACAD_REACTORS
330
2A
102
}
102
{ACAD_XDICTIONARY
360
283
102
}
330
2A
100
AcDbVisualStyle
  2
Flat
 70
     0
 71
     2
 72
     1
 73
     1
 90
        2
 40
0.6
 41
30.0
 62
     5
 63
     7
421
 16777215
 74
     0
 91
        0
 64
     7
 65
   257
 75
     1
175
     1
 42
1.0
 92
        8
 66
     7
 43
1.0
 76
     1
 77
     6
 78
     2
 67
     7
 79
     5
170
     0
171
     0
290
     0
174
     0
 93
       13
 44
0.0
173
     0
291
     1
 45
0.0
1001
ACAD
1000
AcDbSavedByObjectVersion
1070
     0
  0
VISUALSTYLE
  5
2C
102
{ACAD_REACTORS
330
2A
102
}
102
{ACAD_XDICTIONARY
360
285
102
}
330
2A
100
AcDbVisualStyle
  2
FlatWithEdges
 70
     1
 71
     2
 72
     1
 73
     1
 90
        2
 40
0.6
 41
30.0
 62
     5
 63
     7
421
 16777215
 74
     1
 91
        0
 64
     7
 65
   257
 75
     1
175
     1
 42
1.0
 92
        0
 66
   257
 43
1.0
 76
     1
 77
     6
 78
     2
 67
     7
 79
     5
170
     0
171
     0
290
     0
174
     0
 93
       13
 44
0.0
173
     0
291
     1
 45
0.0
1001
ACAD
1000
AcDbSavedByObjectVersion
1070
     0
  0
VISUALSTYLE
  5
2D
102
{ACAD_REACTORS
330
2A
102
}
102
{ACAD_XDICTIONARY
360
287
102
}
330
2A
100
AcDbVisualStyle
  2
Gouraud
 70
     2
 71
     2
 72
     2
 73
     1
 90
        2
 40
0.6
 41
30.0
 62
     5
 63
     7
421
 16777215
 74
     0
 91
        0
 64
     7
 65
   257
 75
     1
175
     1
 42
1.0
 92
        0
 66
     7
 43
1.0
 76
     1
 77
     6
 78
     2
 67
     7
 79
     5
170
     0
171
     0
290
     0
174
     0
 93
       13
 44
0.0
173
     0
291
     1
 45
0.0
1001
ACAD
1000
AcDbSavedByObjectVersion
1070
     0
  0
VISUALSTYLE
  5
2E
102
{ACAD_REACTORS
330
2A
102
}
102
{ACAD_XDICTIONARY
360
289
102
}
330
2A
100
AcDbVisualStyle
  2
GouraudWithEdges
 70
     3
 71
     2
 72
     2
 73
     1
 90
        2
 40
0.6
 41
30.0
 62
     5
 63
     7
421
 16777215
 74
     1
 91
        0
 64
     7
 65
   257
 75
     1
175
     1
 42
1.0
 92
        0
 66
   257
 43
1.0
 76
     1
 77
     6
 78
     2
 67
     7
 79
     5
170
     0
171
     0
290
     0
174
     0
 93
       13
 44
0.0
173
     0
291
     1
 45
0.0
1001
ACAD
1000
AcDbSavedByObjectVersion
1070
     0
  0
VISUALSTYLE
  5
31
102
{ACAD_REACTORS
330
2A
102
}
102
{ACAD_XDICTIONARY
360
28F
102
}
330
2A
100
AcDbVisualStyle
  2
Hidden
 70
     6
 71
     1
 72
     2
 73
     2
 90
        0
 40
0.6
 41
30.0
 62
     5
 63
     7
421
 16777215
 74
     2
 91
        2
 64
     7
 65
   257
 75
     2
175
     1
 42
40.0
 92
        0
 66
   257
 43
1.0
 76
     1
 77
     6
 78
     2
 67
     7
 79
     3
170
     0
171
     0
290
     0
174
     0
 93
        1
 44
0.0
173
     0
291
     0
 45
0.0
1001
ACAD
1000
AcDbSavedByObjectVersion
1070
     0
  0
VISUALSTYLE
  5
3B
102
{ACAD_REACTORS
330
2A
102
}
102
{ACAD_XDICTIONARY
360
2A3
102
}
330
2A
100
AcDbVisualStyle
  2
JitterOff
 70
    20
 71
     2
 72
     2
 73
     0
 90
        0
 40
0.6
 41
30.0
 62
     5
 63
     7
421
 16777215
 74
     1
 91
        4
 64
     7
 65
   257
 75
     1
175
     1
 42
1.0
 92
       10
 66
     7
 43
1.0
 76
     1
 77
     6
 78
     2
 67
     7
 79
     5
170
     0
171
     0
290
     0
174
     0
 93
        1
 44
0.0
173
     0
291
     1
 45
0.0
1001
ACAD
1000
AcDbSavedByObjectVersion
1070
     0
  0
VISUALSTYLE
  5
38
102
{ACAD_REACTORS
330
2A
102
}
102
{ACAD_XDICTIONARY
360
29D
102
}
330
2A
100
AcDbVisualStyle
  2
Linepattern
 70
    14
 71
     2
 72
     2
 73
     0
 90
        0
 40
0.6
 41
30.0
 62
     5
 63
     7
421
 16777215
 74
     1
 91
        4
 64
     7
 65
   257
 75
     7
175
     7
 42
1.0
 92
        8
 66
     7
 43
1.0
 76
     1
 77
     6
 78
     2
 67
     7
 79
     5
170
     0
171
     0
290
     0
174
     0
 93
        1
 44
0.0
173
     0
291
     1
 45
0.0
1001
ACAD
1000
AcDbSavedByObjectVersion
1070
     0
  0
VISUALSTYLE
  5
3C
102
{ACAD_REACTORS
330
2A
102
}
102
{ACAD_XDICTIONARY
360
2A5
102
}
330
2A
100
AcDbVisualStyle
  2
OverhangOff
 70
    21
 71
     2
 72
     2
 73
     0
 90
        0
 40
0.6
 41
30.0
 62
     5
 63
     7
421
 16777215
 74
     1
 91
        4
 64
     7
 65
   257
 75
     1
175
     1
 42
1.0
 92
        9
 66
     7
 43
1.0
 76
     1
 77
     6
 78
     2
 67
     7
 79
     5
170
     0
171
     0
290
     0
174
     0
 93
        1
 44
0.0
173
     0
291
     1
 45
0.0
1001
ACAD
1000
AcDbSavedByObjectVersion
1070
     0
  0
VISUALSTYLE
  5
33
102
{ACAD_REACTORS
330
2A
102
}
102
{ACAD_XDICTIONARY
360
293
102
}
330
2A
100
AcDbVisualStyle
  2
Realistic
 70
     8
 71
     2
 72
     3
 73
     0
 90
        2
 40
0.6
 41
30.0
 62
     5
 63
     7
421
 16777215
 74
     0
 91
        0
 64
     7
 65
   257
 75
     1
175
     1
 42
1.0
 92
        8
 66
   257
 43
1.0
 76
     1
 77
     6
 78
     2
 67
     7
 79
     3
170
     0
171
     0
290
     0
174
     0
 93
       13
 44
0.0
173
     0
291
     0
 45
0.0
1001
ACAD
1000
AcDbSavedByObjectVersion
1070
     0
  0
VISUALSTYLE
  5
42
102
{ACAD_REACTORS
330
2A
102
}
102
{ACAD_XDICTIONARY
360
2B1
102
}
330
2A
100
AcDbVisualStyle
  2
Shaded
 70
    27
 71
     2
 72
     2
 73
     1
 90
        2
 40
0.6
 41
30.0
 62
     5
 63
     7
421
 16777215
 74
     0
 91
        4
 64
     7
 65
   257
 75
     1
175
     1
 42
1.0
 92
        8
 66
   257
 43
1.0
 76
     1
 77
     6
 78
     2
 67
     8
425
  7895160
 79
     3
170
     0
171
     0
290
     0
174
     0
 93
        5
 44
0.0
173
     0
291
     0
 45
0.0
1001
ACAD
1000
AcDbSavedByObjectVersion
1070
     0
  0
VISUALSTYLE
  5
41
102
{ACAD_REACTORS
330
2A
102
}
102
{ACAD_XDICTIONARY
360
2AF
102
}
330
2A
100
AcDbVisualStyle
  2
Shaded with edges
 70
    26
 71
     2
 72
     2
 73
     1
 90
        2
 40
0.6
 41
30.0
 62
     5
 63
     7
421
 16777215
 74
     1
 91
       10
 64
     7
 65
   257
 75
     2
175
     1
 42
1.0
 92
        8
 66
   257
 43
1.0
 76
     1
 77
     6
 78
     2
 67
     7
 79
     3
170
     0
171
     0
290
     0
174
     0
 93
        5
 44
0.0
173
     0
291
     0
 45
0.0
1001
ACAD
1000
AcDbSavedByObjectVersion
1070
     0
  0
VISUALSTYLE
  5
3E
102
{ACAD_REACTORS
330
2A
102
}
102
{ACAD_XDICTIONARY
360
2A9
102
}
330
2A
100
AcDbVisualStyle
  2
Shades of Gray
 70
    23
 71
     2
 72
     2
 73
     3
 90
        0
 40
0.6
 41
30.0
 62
     5
 63
     7
421
 16777215
 74
     2
 91
        2
 64
     7
 65
     7
 75
     1
175
     1
 42
40.0
 92
        8
 66
     7
 43
1.0
 76
     1
 77
     6
 78
     2
 67
     7
 79
     3
170
     0
171
     0
290
     0
174
     0
 93
        1
 44
0.0
173
     0
291
     0
 45
0.0
1001
ACAD
1000
AcDbSavedByObjectVersion
1070
     0
  0
VISUALSTYLE
  5
3F
102
{ACAD_REACTORS
330
2A
102
}
102
{ACAD_XDICTIONARY
360
2AB
102
}
330
2A
100
AcDbVisualStyle
  2
Sketchy
 70
    24
 71
     1
 72
     2
 73
     2
 90
        0
 40
0.6
 41
30.0
 62
     5
 63
     7
421
 16777215
 74
     2
 91
        2
 64
     7
 65
     7
 75
     1
175
     1
 42
40.0
 92
       11
 66
     7
 43
1.0
 76
     1
 77
     6
 78
     2
 67
     7
 79
     6
170
     0
171
     0
290
     0
174
     0
 93
        1
 44
0.0
173
     0
291
     0
 45
0.0
1001
ACAD
1000
AcDbSavedByObjectVersion
1070
     0
  0
VISUALSTYLE
  5
37
102
{ACAD_REACTORS
330
2A
102
}
102
{ACAD_XDICTIONARY
360
29B
102
}
330
2A
100
AcDbVisualStyle
  2
Thicken
 70
    13
 71
     2
 72
     2
 73
     0
 90
        0
 40
0.6
 41
30.0
 62
     5
 63
     7
421
 16777215
 74
     1
 91
        4
 64
     7
 65
   257
 75
     1
175
     1
 42
1.0
 92
       12
 66
     7
 43
1.0
 76
     1
 77
     6
 78
     2
 67
     7
 79
     5
170
     0
171
     0
290
     0
174
     0
 93
        1
 44
0.0
173
     0
291
     1
 45
0.0
1001
ACAD
1000
AcDbSavedByObjectVersion
1070
     0
  0
VISUALSTYLE
  5
30
102
{ACAD_REACTORS
330
2A
102
}
102
{ACAD_XDICTIONARY
360
28D
102
}
330
2A
100
AcDbVisualStyle
  2
Wireframe
 70
     5
 71
     0
 72
     2
 73
     0
 90
        0
 40
0.6
 41
30.0
 62
     5
 63
     7
421
 16777215
 74
     1
 91
        4
 64
     7
 65
   257
 75
     1
175
     1
 42
1.0
 92
        0
 66
   257
 43
1.0
 76
     1
 77
     6
 78
     2
 67
     7
 79
     3
170
     0
171
     0
290
     0
174
     0
 93
        1
 44
0.0
173
     0
291
     0
 45
0.0
1001
ACAD
1000
AcDbSavedByObjectVersion
1070
     0
  0
VISUALSTYLE
  5
40
102
{ACAD_REACTORS
330
2A
102
}
102
{ACAD_XDICTIONARY
360
2AD
102
}
330
2A
100
AcDbVisualStyle
  2
X-Ray
 70
    25
 71
     2
 72
     2
 73
     1
 90
        1
 40
0.5
 41
30.0
 62
     5
 63
     7
421
 16777215
 74
     1
 91
        0
 64
     7
 65
   257
 75
     1
175
     1
 42
1.0
 92
        8
 66
     7
 43
1.0
 76
     1
 77
     6
 78
     2
 67
     7
 79
     3
170
     0
171
     0
290
     0
174
     0
 93
       13
 44
0.0
173
     0
291
     0
 45
0.0
1001
ACAD
1000
AcDbSavedByObjectVersion
1070
     0
  0
DICTIONARYVAR
  5
281
102
{ACAD_REACTORS
330
280
102
}
330
280
100
DictionaryVariables
280
     0
  1
1:1
  0
DICTIONARYVAR
  5
282
102
{ACAD_REACTORS
330
280
102
}
330
280
100
DictionaryVariables
280
     0
  1
1
  0
DICTIONARY
  5
2B5
330
45
100
AcDbDictionary
280
     1
281
     1
  3
ACAD_XREC_ROUNDTRIP
360
2B6
  0
DICTIONARY
  5
2B3
330
44
100
AcDbDictionary
280
     1
281
     1
  3
ACAD_XREC_ROUNDTRIP
360
2B4
  0
DICTIONARY
  5
2B7
330
46
100
AcDbDictionary
280
     1
281
     1
  3
ACAD_XREC_ROUNDTRIP
360
2B8
  0
DICTIONARY
  5
28B
330
2F
100
AcDbDictionary
280
     1
281
     1
  3
ACAD_XREC_ROUNDTRIP
360
28C
  0
DICTIONARY
  5
291
330
32
100
AcDbDictionary
280
     1
281
     1
  3
ACAD_XREC_ROUNDTRIP
360
292
  0
DICTIONARY
  5
299
330
36
100
AcDbDictionary
280
     1
281
     1
  3
ACAD_XREC_ROUNDTRIP
360
29A
  0
DICTIONARY
  5
2A1
330
3A
100
AcDbDictionary
280
     1
281
     1
  3
ACAD_XREC_ROUNDTRIP
360
2A2
  0
DICTIONARY
  5
295
330
34
100
AcDbDictionary
280
     1
281
     1
  3
ACAD_XREC_ROUNDTRIP
360
296
  0
DICTIONARY
  5
297
330
35
100
AcDbDictionary
280
     1
281
     1
  3
ACAD_XREC_ROUNDTRIP
360
298
  0
DICTIONARY
  5
2A7
330
3D
100
AcDbDictionary
280
     1
281
     1
  3
ACAD_XREC_ROUNDTRIP
360
2A8
  0
DICTIONARY
  5
29F
330
39
100
AcDbDictionary
280
     1
281
     1
  3
ACAD_XREC_ROUNDTRIP
360
2A0
  0
DICTIONARY
  5
283
330
2B
100
AcDbDictionary
280
     1
281
     1
  3
ACAD_XREC_ROUNDTRIP
360
284
  0
DICTIONARY
  5
285
330
2C
100
AcDbDictionary
280
     1
281
     1
  3
ACAD_XREC_ROUNDTRIP
360
286
  0
DICTIONARY
  5
287
330
2D
100
AcDbDictionary
280
     1
281
     1
  3
ACAD_XREC_ROUNDTRIP
360
288
  0
DICTIONARY
  5
289
330
2E
100
AcDbDictionary
280
     1
281
     1
  3
ACAD_XREC_ROUNDTRIP
360
28A
  0
DICTIONARY
  5
28F
330
31
100
AcDbDictionary
280
     1
281
     1
  3
ACAD_XREC_ROUNDTRIP
360
290
  0
DICTIONARY
  5
2A3
330
3B
100
AcDbDictionary
280
     1
281
     1
  3
ACAD_XREC_ROUNDTRIP
360
2A4
  0
DICTIONARY
  5
29D
330
38
100
AcDbDictionary
280
     1
281
     1
  3
ACAD_XREC_ROUNDTRIP
360
29E
  0
DICTIONARY
  5
2A5
330
3C
100
AcDbDictionary
280
     1
281
     1
  3
ACAD_XREC_ROUNDTRIP
360
2A6
  0
DICTIONARY
  5
293
330
33
100
AcDbDictionary
280
     1
281
     1
  3
ACAD_XREC_ROUNDTRIP
360
294
  0
DICTIONARY
  5
2B1
330
42
100
AcDbDictionary
280
     1
281
     1
  3
ACAD_XREC_ROUNDTRIP
360
2B2
  0
DICTIONARY
  5
2AF
330
41
100
AcDbDictionary
280
     1
281
     1
  3
ACAD_XREC_ROUNDTRIP
360
2B0
  0
DICTIONARY
  5
2A9
330
3E
100
AcDbDictionary
280
     1
281
     1
  3
ACAD_XREC_ROUNDTRIP
360
2AA
  0
DICTIONARY
  5
2AB
330
3F
100
AcDbDictionary
280
     1
281
     1
  3
ACAD_XREC_ROUNDTRIP
360
2AC
  0
DICTIONARY
  5
29B
330
37
100
AcDbDictionary
280
     1
281
     1
  3
ACAD_XREC_ROUNDTRIP
360
29C
  0
DICTIONARY
  5
28D
330
30
100
AcDbDictionary
280
     1
281
     1
  3
ACAD_XREC_ROUNDTRIP
360
28E
  0
DICTIONARY
  5
2AD
330
40
100
AcDbDictionary
280
     1
281
     1
  3
ACAD_XREC_ROUNDTRIP
360
2AE
  0
XRECORD
  5
2B6
102
{ACAD_REACTORS
330
2B5
102
}
330
2B5
100
AcDbXrecord
280
     1
102
MATERIAL
148
0.0
149
0.0
149
0.0
 93
        0
 94
      127
282
     0
 72
     1
 77
     1
171
     1
175
     1
179
     1
273
     0
  0
XRECORD
  5
2B4
102
{ACAD_REACTORS
330
2B3
102
}
330
2B3
100
AcDbXrecord
280
     1
102
MATERIAL
148
0.0
149
0.0
149
0.0
 93
        0
 94
      127
282
     0
 72
     1
 77
     1
171
     1
175
     1
179
     1
273
     0
  0
XRECORD
  5
2B8
102
{ACAD_REACTORS
330
2B7
102
}
330
2B7
100
AcDbXrecord
280
     1
102
MATERIAL
148
0.0
149
0.0
149
0.0
 93
        0
 94
      127
282
     0
 72
     1
 77
     1
171
     1
175
     1
179
     1
273
     0
  0
XRECORD
  5
28C
102
{ACAD_REACTORS
330
28B
102
}
330
28B
100
AcDbXrecord
280
     1
102
RTVSPropertyOp0
 70
     1
102
RTVSPropertyOp1
 70
     1
102
RTVSPropertyOp2
 70
     1
102
RTVSPropertyOp3
 70
     1
102
RTVSPropertyOp4
 70
     1
102
RTVSPropertyOp5
 70
     1
102
RTVSPropertyOp6
 70
     1
102
RTVSPropertyOp7
 70
     1
102
RTVSPropertyOp8
 70
     1
102
RTVSPropertyOp9
 70
     1
102
RTVSPropertyOp10
 70
     1
102
RTVSPropertyOp11
 70
     1
102
RTVSPropertyOp12
 70
     1
102
RTVSPropertyOp13
 70
     1
102
RTVSPropertyOp14
 70
     1
102
RTVSPropertyOp15
 70
     1
102
RTVSPropertyOp16
 70
     1
102
RTVSPropertyOp17
 70
     1
102
RTVSPropertyOp18
 70
     1
102
RTVSPropertyOp19
 70
     1
102
RTVSPropertyOp20
 70
     1
102
RTVSPropertyOp21
 70
     1
102
RTVSPropertyOp22
 70
     1
102
RTVSPropertyOp23
 70
     1
102
RTVSPropertyOp24
 70
     1
102
RTVSPropertyOp25
 70
     1
102
RTVSPropertyOp26
 70
     1
102
RTVSPropertyOp27
 70
     1
102
RTVSPropertyOp28
 70
     1
102
RTVSPropertyOp29
 70
     1
102
RTVSPropertyOp30
 70
     1
102
RTVSPropertyOp31
 70
     1
102
RTVSPropertyOp32
 70
     1
102
RTVSPropertyOp33
 70
     1
102
RTVSPropertyOp34
 70
     1
102
RTVSPropertyOp35
 70
     1
102
RTVSPropertyOp36
 70
     1
102
RTVSPropertyOp37
 70
     1
102
RTVSPropertyOp38
 70
     1
102
RTVSPropertyOp39
 70
     1
102
RTVSPropertyOp40
 70
     1
102
RTVSPropertyOp41
 70
     1
102
RTVSPropertyOp42
 70
     1
102
RTVSPropertyOp43
 70
     1
102
RTVSPropertyOp44
 70
     1
102
RTVSPropertyOp45
 70
     1
102
RTVSPropertyOp46
 70
     1
102
RTVSPropertyOp47
 70
     1
102
RTVSPropertyOp48
 70
     1
102
RTVSPropertyOp49
 70
     1
102
RTVSPropertyOp50
 70
     1
102
RTVSPropertyOp51
 70
     0
102
RTVSPropertyOp52
 70
     0
102
RTVSPropertyOp53
 70
     1
102
RTVSPropertyOp54
 70
     1
102
RTVSPropertyOp55
 70
     1
102
RTVSPropertyOp56
 70
     1
102
RTVSPropertyOp57
 70
     1
102
RTVSPost2010Prop28
280
     1
102
RTVSPost2010PropOp28
 70
     1
102
RTVSPost2010Prop29
280
     1
102
RTVSPost2010PropOp29
 70
     1
102
RTVSPost2010Prop30
280
     0
102
RTVSPost2010PropOp30
 70
     1
102
RTVSPost2010Prop31
280
     0
102
RTVSPost2010PropOp31
 70
     1
102
RTVSPost2010Prop32
280
     0
102
RTVSPost2010PropOp32
 70
     1
102
RTVSPost2010Prop33
280
     0
102
RTVSPost2010PropOp33
 70
     1
102
RTVSPost2010Prop34
280
     0
102
RTVSPost2010PropOp34
 70
     1
102
RTVSPost2010Prop35
280
     0
102
RTVSPost2010PropOp35
 70
     1
102
RTVSPost2010Prop36
280
     0
102
RTVSPost2010PropOp36
 70
     1
102
RTVSPost2010Prop37
 90
       50
102
RTVSPost2010PropOp37
 70
     1
102
RTVSPost2010Prop38
140
0.0
102
RTVSPost2010PropOp38
 70
     1
102
RTVSPost2010Prop39
140
1.0
102
RTVSPost2010PropOp39
 70
     1
102
RTVSPost2010Prop40
 90
        0
102
RTVSPost2010PropOp40
 70
     1
102
RTVSPost2010Prop41ColorIndex
 90
       18
102
RTVSPost2010Prop41ColorRGB
 90
        0
102
RTVSPost2010PropOp41
 70
     1
102
RTVSPost2010Prop42
 90
       50
102
RTVSPost2010PropOp42
 70
     1
102
RTVSPost2010Prop43
 90
        3
102
RTVSPost2010PropOp43
 70
     1
102
RTVSPost2010Prop44ColorIndex
 90
        5
102
RTVSPost2010Prop44ColorRGB
 90
      255
102
RTVSPost2010PropOp44
 70
     1
102
RTVSPost2010Prop45
280
     0
102
RTVSPost2010PropOp45
 70
     1
102
RTVSPost2010Prop46
 90
       50
102
RTVSPost2010PropOp46
 70
     1
102
RTVSPost2010Prop47
 90
       50
102
RTVSPost2010PropOp47
 70
     1
102
RTVSPost2010Prop48
 90
       50
102
RTVSPost2010PropOp48
 70
     1
102
RTVSPost2010Prop49
280
     0
102
RTVSPost2010PropOp49
 70
     1
102
RTVSPost2010Prop50
 90
       50
102
RTVSPost2010PropOp50
 70
     1
102
RTVSPost2010Prop51ColorIndex
 90
      256
102
RTVSPost2010Prop51ColorRGB
 90
-16777216
102
RTVSPost2010PropOp51
 70
     0
102
RTVSPost2010Prop52
140
1.0
102
RTVSPost2010PropOp52
 70
     0
102
RTVSPost2010Prop53
 90
        2
102
RTVSPost2010PropOp53
 70
     1
102
RTVSPost2010Prop54
  1
strokes_ogs.tif
102
RTVSPost2010PropOp54
 70
     1
102
RTVSPost2010Prop55
280
     0
102
RTVSPost2010PropOp55
 70
     1
102
RTVSPost2010Prop56
140
1.0
102
RTVSPost2010PropOp56
 70
     1
102
RTVSPost2010Prop57
140
1.0
102
RTVSPost2010PropOp57
 70
     1
  0
XRECORD
  5
292
102
{ACAD_REACTORS
330
291
102
}
330
291
100
AcDbXrecord
280
     1
102
RTVSPropertyOp0
 70
     1
102
RTVSPropertyOp1
 70
     1
102
RTVSPropertyOp2
 70
     1
102
RTVSPropertyOp3
 70
     1
102
RTVSPropertyOp4
 70
     1
102
RTVSPropertyOp5
 70
     1
102
RTVSPropertyOp6
 70
     1
102
RTVSPropertyOp7
 70
     1
102
RTVSPropertyOp8
 70
     1
102
RTVSPropertyOp9
 70
     1
102
RTVSPropertyOp10
 70
     1
102
RTVSPropertyOp11
 70
     1
102
RTVSPropertyOp12
 70
     1
102
RTVSPropertyOp13
 70
     1
102
RTVSPropertyOp14
 70
     1
102
RTVSPropertyOp15
 70
     1
102
RTVSPropertyOp16
 70
     1
102
RTVSPropertyOp17
 70
     1
102
RTVSPropertyOp18
 70
     1
102
RTVSPropertyOp19
 70
     1
102
RTVSPropertyOp20
 70
     1
102
RTVSPropertyOp21
 70
     1
102
RTVSPropertyOp22
 70
     1
102
RTVSPropertyOp23
 70
     1
102
RTVSPropertyOp24
 70
     1
102
RTVSPropertyOp25
 70
     1
102
RTVSPropertyOp26
 70
     1
102
RTVSPropertyOp27
 70
     1
102
RTVSPropertyOp28
 70
     1
102
RTVSPropertyOp29
 70
     1
102
RTVSPropertyOp30
 70
     1
102
RTVSPropertyOp31
 70
     1
102
RTVSPropertyOp32
 70
     1
102
RTVSPropertyOp33
 70
     1
102
RTVSPropertyOp34
 70
     1
102
RTVSPropertyOp35
 70
     1
102
RTVSPropertyOp36
 70
     1
102
RTVSPropertyOp37
 70
     1
102
RTVSPropertyOp38
 70
     1
102
RTVSPropertyOp39
 70
     1
102
RTVSPropertyOp40
 70
     1
102
RTVSPropertyOp41
 70
     1
102
RTVSPropertyOp42
 70
     1
102
RTVSPropertyOp43
 70
     1
102
RTVSPropertyOp44
 70
     1
102
RTVSPropertyOp45
 70
     1
102
RTVSPropertyOp46
 70
     1
102
RTVSPropertyOp47
 70
     1
102
RTVSPropertyOp48
 70
     1
102
RTVSPropertyOp49
 70
     1
102
RTVSPropertyOp50
 70
     1
102
RTVSPropertyOp51
 70
     0
102
RTVSPropertyOp52
 70
     0
102
RTVSPropertyOp53
 70
     1
102
RTVSPropertyOp54
 70
     1
102
RTVSPropertyOp55
 70
     1
102
RTVSPropertyOp56
 70
     1
102
RTVSPropertyOp57
 70
     1
102
RTVSPost2010Prop28
280
     0
102
RTVSPost2010PropOp28
 70
     1
102
RTVSPost2010Prop29
280
     1
102
RTVSPost2010PropOp29
 70
     1
102
RTVSPost2010Prop30
280
     1
102
RTVSPost2010PropOp30
 70
     1
102
RTVSPost2010Prop31
280
     0
102
RTVSPost2010PropOp31
 70
     1
102
RTVSPost2010Prop32
280
     0
102
RTVSPost2010PropOp32
 70
     1
102
RTVSPost2010Prop33
280
     0
102
RTVSPost2010PropOp33
 70
     1
102
RTVSPost2010Prop34
280
     0
102
RTVSPost2010PropOp34
 70
     1
102
RTVSPost2010Prop35
280
     0
102
RTVSPost2010PropOp35
 70
     1
102
RTVSPost2010Prop36
280
     0
102
RTVSPost2010PropOp36
 70
     1
102
RTVSPost2010Prop37
 90
       50
102
RTVSPost2010PropOp37
 70
     1
102
RTVSPost2010Prop38
140
0.0
102
RTVSPost2010PropOp38
 70
     1
102
RTVSPost2010Prop39
140
1.0
102
RTVSPost2010PropOp39
 70
     1
102
RTVSPost2010Prop40
 90
        0
102
RTVSPost2010PropOp40
 70
     1
102
RTVSPost2010Prop41ColorIndex
 90
       18
102
RTVSPost2010Prop41ColorRGB
 90
        0
102
RTVSPost2010PropOp41
 70
     1
102
RTVSPost2010Prop42
 90
       50
102
RTVSPost2010PropOp42
 70
     1
102
RTVSPost2010Prop43
 90
        3
102
RTVSPost2010PropOp43
 70
     1
102
RTVSPost2010Prop44ColorIndex
 90
        5
102
RTVSPost2010Prop44ColorRGB
 90
      255
102
RTVSPost2010PropOp44
 70
     1
102
RTVSPost2010Prop45
280
     0
102
RTVSPost2010PropOp45
 70
     1
102
RTVSPost2010Prop46
 90
       50
102
RTVSPost2010PropOp46
 70
     1
102
RTVSPost2010Prop47
 90
       50
102
RTVSPost2010PropOp47
 70
     1
102
RTVSPost2010Prop48
 90
       50
102
RTVSPost2010PropOp48
 70
     1
102
RTVSPost2010Prop49
280
     0
102
RTVSPost2010PropOp49
 70
     1
102
RTVSPost2010Prop50
 90
       50
102
RTVSPost2010PropOp50
 70
     1
102
RTVSPost2010Prop51ColorIndex
 90
      256
102
RTVSPost2010Prop51ColorRGB
 90
-16777216
102
RTVSPost2010PropOp51
 70
     0
102
RTVSPost2010Prop52
140
1.0
102
RTVSPost2010PropOp52
 70
     0
102
RTVSPost2010Prop53
 90
        2
102
RTVSPost2010PropOp53
 70
     1
102
RTVSPost2010Prop54
  1
strokes_ogs.tif
102
RTVSPost2010PropOp54
 70
     1
102
RTVSPost2010Prop55
280
     0
102
RTVSPost2010PropOp55
 70
     1
102
RTVSPost2010Prop56
140
1.0
102
RTVSPost2010PropOp56
 70
     1
102
RTVSPost2010Prop57
140
1.0
102
RTVSPost2010PropOp57
 70
     1
  0
XRECORD
  5
29A
102
{ACAD_REACTORS
330
299
102
}
330
299
100
AcDbXrecord
280
     1
102
RTVSPropertyOp0
 70
     1
102
RTVSPropertyOp1
 70
     1
102
RTVSPropertyOp2
 70
     1
102
RTVSPropertyOp3
 70
     1
102
RTVSPropertyOp4
 70
     1
102
RTVSPropertyOp5
 70
     1
102
RTVSPropertyOp6
 70
     1
102
RTVSPropertyOp7
 70
     1
102
RTVSPropertyOp8
 70
     1
102
RTVSPropertyOp9
 70
     1
102
RTVSPropertyOp10
 70
     1
102
RTVSPropertyOp11
 70
     1
102
RTVSPropertyOp12
 70
     1
102
RTVSPropertyOp13
 70
     1
102
RTVSPropertyOp14
 70
     1
102
RTVSPropertyOp15
 70
     1
102
RTVSPropertyOp16
 70
     1
102
RTVSPropertyOp17
 70
     1
102
RTVSPropertyOp18
 70
     1
102
RTVSPropertyOp19
 70
     1
102
RTVSPropertyOp20
 70
     1
102
RTVSPropertyOp21
 70
     1
102
RTVSPropertyOp22
 70
     1
102
RTVSPropertyOp23
 70
     1
102
RTVSPropertyOp24
 70
     1
102
RTVSPropertyOp25
 70
     1
102
RTVSPropertyOp26
 70
     1
102
RTVSPropertyOp27
 70
     1
102
RTVSPropertyOp28
 70
     1
102
RTVSPropertyOp29
 70
     1
102
RTVSPropertyOp30
 70
     1
102
RTVSPropertyOp31
 70
     1
102
RTVSPropertyOp32
 70
     1
102
RTVSPropertyOp33
 70
     1
102
RTVSPropertyOp34
 70
     1
102
RTVSPropertyOp35
 70
     1
102
RTVSPropertyOp36
 70
     1
102
RTVSPropertyOp37
 70
     1
102
RTVSPropertyOp38
 70
     1
102
RTVSPropertyOp39
 70
     1
102
RTVSPropertyOp40
 70
     1
102
RTVSPropertyOp41
 70
     1
102
RTVSPropertyOp42
 70
     1
102
RTVSPropertyOp43
 70
     1
102
RTVSPropertyOp44
 70
     1
102
RTVSPropertyOp45
 70
     1
102
RTVSPropertyOp46
 70
     1
102
RTVSPropertyOp47
 70
     1
102
RTVSPropertyOp48
 70
     1
102
RTVSPropertyOp49
 70
     1
102
RTVSPropertyOp50
 70
     1
102
RTVSPropertyOp51
 70
     0
102
RTVSPropertyOp52
 70
     0
102
RTVSPropertyOp53
 70
     1
102
RTVSPropertyOp54
 70
     1
102
RTVSPropertyOp55
 70
     1
102
RTVSPropertyOp56
 70
     1
102
RTVSPropertyOp57
 70
     1
102
RTVSPost2010Prop28
280
     0
102
RTVSPost2010PropOp28
 70
     1
102
RTVSPost2010Prop29
280
     1
102
RTVSPost2010PropOp29
 70
     1
102
RTVSPost2010Prop30
280
     1
102
RTVSPost2010PropOp30
 70
     1
102
RTVSPost2010Prop31
280
     0
102
RTVSPost2010PropOp31
 70
     1
102
RTVSPost2010Prop32
280
     0
102
RTVSPost2010PropOp32
 70
     1
102
RTVSPost2010Prop33
280
     0
102
RTVSPost2010PropOp33
 70
     1
102
RTVSPost2010Prop34
280
     0
102
RTVSPost2010PropOp34
 70
     1
102
RTVSPost2010Prop35
280
     0
102
RTVSPost2010PropOp35
 70
     1
102
RTVSPost2010Prop36
280
     0
102
RTVSPost2010PropOp36
 70
     1
102
RTVSPost2010Prop37
 90
       50
102
RTVSPost2010PropOp37
 70
     1
102
RTVSPost2010Prop38
140
0.0
102
RTVSPost2010PropOp38
 70
     1
102
RTVSPost2010Prop39
140
1.0
102
RTVSPost2010PropOp39
 70
     1
102
RTVSPost2010Prop40
 90
        0
102
RTVSPost2010PropOp40
 70
     1
102
RTVSPost2010Prop41ColorIndex
 90
       18
102
RTVSPost2010Prop41ColorRGB
 90
        0
102
RTVSPost2010PropOp41
 70
     1
102
RTVSPost2010Prop42
 90
       50
102
RTVSPost2010PropOp42
 70
     1
102
RTVSPost2010Prop43
 90
        3
102
RTVSPost2010PropOp43
 70
     1
102
RTVSPost2010Prop44ColorIndex
 90
        5
102
RTVSPost2010Prop44ColorRGB
 90
      255
102
RTVSPost2010PropOp44
 70
     1
102
RTVSPost2010Prop45
280
     0
102
RTVSPost2010PropOp45
 70
     1
102
RTVSPost2010Prop46
 90
       50
102
RTVSPost2010PropOp46
 70
     1
102
RTVSPost2010Prop47
 90
       50
102
RTVSPost2010PropOp47
 70
     1
102
RTVSPost2010Prop48
 90
       50
102
RTVSPost2010PropOp48
 70
     1
102
RTVSPost2010Prop49
280
     0
102
RTVSPost2010PropOp49
 70
     1
102
RTVSPost2010Prop50
 90
       50
102
RTVSPost2010PropOp50
 70
     1
102
RTVSPost2010Prop51ColorIndex
 90
      256
102
RTVSPost2010Prop51ColorRGB
 90
-16777216
102
RTVSPost2010PropOp51
 70
     0
102
RTVSPost2010Prop52
140
1.0
102
RTVSPost2010PropOp52
 70
     0
102
RTVSPost2010Prop53
 90
        2
102
RTVSPost2010PropOp53
 70
     1
102
RTVSPost2010Prop54
  1
strokes_ogs.tif
102
RTVSPost2010PropOp54
 70
     1
102
RTVSPost2010Prop55
280
     0
102
RTVSPost2010PropOp55
 70
     1
102
RTVSPost2010Prop56
140
1.0
102
RTVSPost2010PropOp56
 70
     1
102
RTVSPost2010Prop57
140
1.0
102
RTVSPost2010PropOp57
 70
     1
  0
XRECORD
  5
2A2
102
{ACAD_REACTORS
330
2A1
102
}
330
2A1
100
AcDbXrecord
280
     1
102
RTVSPropertyOp0
 70
     1
102
RTVSPropertyOp1
 70
     1
102
RTVSPropertyOp2
 70
     1
102
RTVSPropertyOp3
 70
     1
102
RTVSPropertyOp4
 70
     1
102
RTVSPropertyOp5
 70
     1
102
RTVSPropertyOp6
 70
     1
102
RTVSPropertyOp7
 70
     1
102
RTVSPropertyOp8
 70
     1
102
RTVSPropertyOp9
 70
     1
102
RTVSPropertyOp10
 70
     1
102
RTVSPropertyOp11
 70
     1
102
RTVSPropertyOp12
 70
     1
102
RTVSPropertyOp13
 70
     1
102
RTVSPropertyOp14
 70
     1
102
RTVSPropertyOp15
 70
     1
102
RTVSPropertyOp16
 70
     1
102
RTVSPropertyOp17
 70
     1
102
RTVSPropertyOp18
 70
     1
102
RTVSPropertyOp19
 70
     1
102
RTVSPropertyOp20
 70
     1
102
RTVSPropertyOp21
 70
     1
102
RTVSPropertyOp22
 70
     1
102
RTVSPropertyOp23
 70
     1
102
RTVSPropertyOp24
 70
     1
102
RTVSPropertyOp25
 70
     1
102
RTVSPropertyOp26
 70
     1
102
RTVSPropertyOp27
 70
     1
102
RTVSPropertyOp28
 70
     1
102
RTVSPropertyOp29
 70
     1
102
RTVSPropertyOp30
 70
     1
102
RTVSPropertyOp31
 70
     1
102
RTVSPropertyOp32
 70
     1
102
RTVSPropertyOp33
 70
     1
102
RTVSPropertyOp34
 70
     1
102
RTVSPropertyOp35
 70
     1
102
RTVSPropertyOp36
 70
     1
102
RTVSPropertyOp37
 70
     1
102
RTVSPropertyOp38
 70
     1
102
RTVSPropertyOp39
 70
     1
102
RTVSPropertyOp40
 70
     1
102
RTVSPropertyOp41
 70
     1
102
RTVSPropertyOp42
 70
     1
102
RTVSPropertyOp43
 70
     1
102
RTVSPropertyOp44
 70
     1
102
RTVSPropertyOp45
 70
     1
102
RTVSPropertyOp46
 70
     1
102
RTVSPropertyOp47
 70
     1
102
RTVSPropertyOp48
 70
     1
102
RTVSPropertyOp49
 70
     1
102
RTVSPropertyOp50
 70
     1
102
RTVSPropertyOp51
 70
     0
102
RTVSPropertyOp52
 70
     0
102
RTVSPropertyOp53
 70
     1
102
RTVSPropertyOp54
 70
     1
102
RTVSPropertyOp55
 70
     1
102
RTVSPropertyOp56
 70
     1
102
RTVSPropertyOp57
 70
     1
102
RTVSPost2010Prop28
280
     0
102
RTVSPost2010PropOp28
 70
     1
102
RTVSPost2010Prop29
280
     1
102
RTVSPost2010PropOp29
 70
     1
102
RTVSPost2010Prop30
280
     1
102
RTVSPost2010PropOp30
 70
     1
102
RTVSPost2010Prop31
280
     0
102
RTVSPost2010PropOp31
 70
     1
102
RTVSPost2010Prop32
280
     0
102
RTVSPost2010PropOp32
 70
     1
102
RTVSPost2010Prop33
280
     0
102
RTVSPost2010PropOp33
 70
     1
102
RTVSPost2010Prop34
280
     0
102
RTVSPost2010PropOp34
 70
     1
102
RTVSPost2010Prop35
280
     0
102
RTVSPost2010PropOp35
 70
     1
102
RTVSPost2010Prop36
280
     0
102
RTVSPost2010PropOp36
 70
     1
102
RTVSPost2010Prop37
 90
       50
102
RTVSPost2010PropOp37
 70
     1
102
RTVSPost2010Prop38
140
0.0
102
RTVSPost2010PropOp38
 70
     1
102
RTVSPost2010Prop39
140
1.0
102
RTVSPost2010PropOp39
 70
     1
102
RTVSPost2010Prop40
 90
        0
102
RTVSPost2010PropOp40
 70
     1
102
RTVSPost2010Prop41ColorIndex
 90
       18
102
RTVSPost2010Prop41ColorRGB
 90
        0
102
RTVSPost2010PropOp41
 70
     1
102
RTVSPost2010Prop42
 90
       50
102
RTVSPost2010PropOp42
 70
     1
102
RTVSPost2010Prop43
 90
        3
102
RTVSPost2010PropOp43
 70
     1
102
RTVSPost2010Prop44ColorIndex
 90
        5
102
RTVSPost2010Prop44ColorRGB
 90
      255
102
RTVSPost2010PropOp44
 70
     1
102
RTVSPost2010Prop45
280
     0
102
RTVSPost2010PropOp45
 70
     1
102
RTVSPost2010Prop46
 90
       50
102
RTVSPost2010PropOp46
 70
     1
102
RTVSPost2010Prop47
 90
       50
102
RTVSPost2010PropOp47
 70
     1
102
RTVSPost2010Prop48
 90
       50
102
RTVSPost2010PropOp48
 70
     1
102
RTVSPost2010Prop49
280
     0
102
RTVSPost2010PropOp49
 70
     1
102
RTVSPost2010Prop50
 90
       50
102
RTVSPost2010PropOp50
 70
     1
102
RTVSPost2010Prop51ColorIndex
 90
      256
102
RTVSPost2010Prop51ColorRGB
 90
-16777216
102
RTVSPost2010PropOp51
 70
     0
102
RTVSPost2010Prop52
140
1.0
102
RTVSPost2010PropOp52
 70
     0
102
RTVSPost2010Prop53
 90
        2
102
RTVSPost2010PropOp53
 70
     1
102
RTVSPost2010Prop54
  1
strokes_ogs.tif
102
RTVSPost2010PropOp54
 70
     1
102
RTVSPost2010Prop55
280
     0
102
RTVSPost2010PropOp55
 70
     1
102
RTVSPost2010Prop56
140
1.0
102
RTVSPost2010PropOp56
 70
     1
102
RTVSPost2010Prop57
140
1.0
102
RTVSPost2010PropOp57
 70
     1
  0
XRECORD
  5
296
102
{ACAD_REACTORS
330
295
102
}
330
295
100
AcDbXrecord
280
     1
102
RTVSPropertyOp0
 70
     1
102
RTVSPropertyOp1
 70
     1
102
RTVSPropertyOp2
 70
     1
102
RTVSPropertyOp3
 70
     1
102
RTVSPropertyOp4
 70
     1
102
RTVSPropertyOp5
 70
     1
102
RTVSPropertyOp6
 70
     1
102
RTVSPropertyOp7
 70
     1
102
RTVSPropertyOp8
 70
     1
102
RTVSPropertyOp9
 70
     1
102
RTVSPropertyOp10
 70
     1
102
RTVSPropertyOp11
 70
     1
102
RTVSPropertyOp12
 70
     1
102
RTVSPropertyOp13
 70
     1
102
RTVSPropertyOp14
 70
     1
102
RTVSPropertyOp15
 70
     1
102
RTVSPropertyOp16
 70
     1
102
RTVSPropertyOp17
 70
     1
102
RTVSPropertyOp18
 70
     1
102
RTVSPropertyOp19
 70
     1
102
RTVSPropertyOp20
 70
     1
102
RTVSPropertyOp21
 70
     1
102
RTVSPropertyOp22
 70
     1
102
RTVSPropertyOp23
 70
     1
102
RTVSPropertyOp24
 70
     1
102
RTVSPropertyOp25
 70
     1
102
RTVSPropertyOp26
 70
     1
102
RTVSPropertyOp27
 70
     1
102
RTVSPropertyOp28
 70
     1
102
RTVSPropertyOp29
 70
     1
102
RTVSPropertyOp30
 70
     1
102
RTVSPropertyOp31
 70
     1
102
RTVSPropertyOp32
 70
     1
102
RTVSPropertyOp33
 70
     1
102
RTVSPropertyOp34
 70
     1
102
RTVSPropertyOp35
 70
     1
102
RTVSPropertyOp36
 70
     1
102
RTVSPropertyOp37
 70
     1
102
RTVSPropertyOp38
 70
     1
102
RTVSPropertyOp39
 70
     1
102
RTVSPropertyOp40
 70
     1
102
RTVSPropertyOp41
 70
     1
102
RTVSPropertyOp42
 70
     1
102
RTVSPropertyOp43
 70
     1
102
RTVSPropertyOp44
 70
     1
102
RTVSPropertyOp45
 70
     1
102
RTVSPropertyOp46
 70
     1
102
RTVSPropertyOp47
 70
     1
102
RTVSPropertyOp48
 70
     1
102
RTVSPropertyOp49
 70
     1
102
RTVSPropertyOp50
 70
     1
102
RTVSPropertyOp51
 70
     0
102
RTVSPropertyOp52
 70
     0
102
RTVSPropertyOp53
 70
     1
102
RTVSPropertyOp54
 70
     1
102
RTVSPropertyOp55
 70
     1
102
RTVSPropertyOp56
 70
     1
102
RTVSPropertyOp57
 70
     1
102
RTVSPost2010Prop28
280
     0
102
RTVSPost2010PropOp28
 70
     1
102
RTVSPost2010Prop29
280
     1
102
RTVSPost2010PropOp29
 70
     1
102
RTVSPost2010Prop30
280
     1
102
RTVSPost2010PropOp30
 70
     1
102
RTVSPost2010Prop31
280
     0
102
RTVSPost2010PropOp31
 70
     1
102
RTVSPost2010Prop32
280
     0
102
RTVSPost2010PropOp32
 70
     1
102
RTVSPost2010Prop33
280
     0
102
RTVSPost2010PropOp33
 70
     1
102
RTVSPost2010Prop34
280
     0
102
RTVSPost2010PropOp34
 70
     1
102
RTVSPost2010Prop35
280
     0
102
RTVSPost2010PropOp35
 70
     1
102
RTVSPost2010Prop36
280
     0
102
RTVSPost2010PropOp36
 70
     1
102
RTVSPost2010Prop37
 90
       50
102
RTVSPost2010PropOp37
 70
     1
102
RTVSPost2010Prop38
140
0.0
102
RTVSPost2010PropOp38
 70
     1
102
RTVSPost2010Prop39
140
1.0
102
RTVSPost2010PropOp39
 70
     1
102
RTVSPost2010Prop40
 90
        0
102
RTVSPost2010PropOp40
 70
     1
102
RTVSPost2010Prop41ColorIndex
 90
       18
102
RTVSPost2010Prop41ColorRGB
 90
        0
102
RTVSPost2010PropOp41
 70
     1
102
RTVSPost2010Prop42
 90
       50
102
RTVSPost2010PropOp42
 70
     1
102
RTVSPost2010Prop43
 90
        3
102
RTVSPost2010PropOp43
 70
     1
102
RTVSPost2010Prop44ColorIndex
 90
        5
102
RTVSPost2010Prop44ColorRGB
 90
      255
102
RTVSPost2010PropOp44
 70
     1
102
RTVSPost2010Prop45
280
     0
102
RTVSPost2010PropOp45
 70
     1
102
RTVSPost2010Prop46
 90
       50
102
RTVSPost2010PropOp46
 70
     1
102
RTVSPost2010Prop47
 90
       50
102
RTVSPost2010PropOp47
 70
     1
102
RTVSPost2010Prop48
 90
       50
102
RTVSPost2010PropOp48
 70
     1
102
RTVSPost2010Prop49
280
     0
102
RTVSPost2010PropOp49
 70
     1
102
RTVSPost2010Prop50
 90
       50
102
RTVSPost2010PropOp50
 70
     1
102
RTVSPost2010Prop51ColorIndex
 90
      256
102
RTVSPost2010Prop51ColorRGB
 90
-16777216
102
RTVSPost2010PropOp51
 70
     0
102
RTVSPost2010Prop52
140
1.0
102
RTVSPost2010PropOp52
 70
     0
102
RTVSPost2010Prop53
 90
        2
102
RTVSPost2010PropOp53
 70
     1
102
RTVSPost2010Prop54
  1
strokes_ogs.tif
102
RTVSPost2010PropOp54
 70
     1
102
RTVSPost2010Prop55
280
     0
102
RTVSPost2010PropOp55
 70
     1
102
RTVSPost2010Prop56
140
1.0
102
RTVSPost2010PropOp56
 70
     1
102
RTVSPost2010Prop57
140
1.0
102
RTVSPost2010PropOp57
 70
     1
  0
XRECORD
  5
298
102
{ACAD_REACTORS
330
297
102
}
330
297
100
AcDbXrecord
280
     1
102
RTVSPropertyOp0
 70
     1
102
RTVSPropertyOp1
 70
     1
102
RTVSPropertyOp2
 70
     1
102
RTVSPropertyOp3
 70
     1
102
RTVSPropertyOp4
 70
     1
102
RTVSPropertyOp5
 70
     1
102
RTVSPropertyOp6
 70
     1
102
RTVSPropertyOp7
 70
     1
102
RTVSPropertyOp8
 70
     1
102
RTVSPropertyOp9
 70
     1
102
RTVSPropertyOp10
 70
     1
102
RTVSPropertyOp11
 70
     1
102
RTVSPropertyOp12
 70
     1
102
RTVSPropertyOp13
 70
     1
102
RTVSPropertyOp14
 70
     1
102
RTVSPropertyOp15
 70
     1
102
RTVSPropertyOp16
 70
     1
102
RTVSPropertyOp17
 70
     1
102
RTVSPropertyOp18
 70
     1
102
RTVSPropertyOp19
 70
     1
102
RTVSPropertyOp20
 70
     1
102
RTVSPropertyOp21
 70
     1
102
RTVSPropertyOp22
 70
     1
102
RTVSPropertyOp23
 70
     1
102
RTVSPropertyOp24
 70
     1
102
RTVSPropertyOp25
 70
     1
102
RTVSPropertyOp26
 70
     1
102
RTVSPropertyOp27
 70
     1
102
RTVSPropertyOp28
 70
     1
102
RTVSPropertyOp29
 70
     1
102
RTVSPropertyOp30
 70
     1
102
RTVSPropertyOp31
 70
     1
102
RTVSPropertyOp32
 70
     1
102
RTVSPropertyOp33
 70
     1
102
RTVSPropertyOp34
 70
     1
102
RTVSPropertyOp35
 70
     1
102
RTVSPropertyOp36
 70
     1
102
RTVSPropertyOp37
 70
     1
102
RTVSPropertyOp38
 70
     1
102
RTVSPropertyOp39
 70
     1
102
RTVSPropertyOp40
 70
     1
102
RTVSPropertyOp41
 70
     1
102
RTVSPropertyOp42
 70
     1
102
RTVSPropertyOp43
 70
     1
102
RTVSPropertyOp44
 70
     1
102
RTVSPropertyOp45
 70
     1
102
RTVSPropertyOp46
 70
     1
102
RTVSPropertyOp47
 70
     1
102
RTVSPropertyOp48
 70
     1
102
RTVSPropertyOp49
 70
     1
102
RTVSPropertyOp50
 70
     1
102
RTVSPropertyOp51
 70
     0
102
RTVSPropertyOp52
 70
     0
102
RTVSPropertyOp53
 70
     1
102
RTVSPropertyOp54
 70
     1
102
RTVSPropertyOp55
 70
     1
102
RTVSPropertyOp56
 70
     1
102
RTVSPropertyOp57
 70
     1
102
RTVSPost2010Prop28
280
     0
102
RTVSPost2010PropOp28
 70
     1
102
RTVSPost2010Prop29
280
     1
102
RTVSPost2010PropOp29
 70
     1
102
RTVSPost2010Prop30
280
     1
102
RTVSPost2010PropOp30
 70
     1
102
RTVSPost2010Prop31
280
     0
102
RTVSPost2010PropOp31
 70
     1
102
RTVSPost2010Prop32
280
     0
102
RTVSPost2010PropOp32
 70
     1
102
RTVSPost2010Prop33
280
     0
102
RTVSPost2010PropOp33
 70
     1
102
RTVSPost2010Prop34
280
     0
102
RTVSPost2010PropOp34
 70
     1
102
RTVSPost2010Prop35
280
     0
102
RTVSPost2010PropOp35
 70
     1
102
RTVSPost2010Prop36
280
     0
102
RTVSPost2010PropOp36
 70
     1
102
RTVSPost2010Prop37
 90
       50
102
RTVSPost2010PropOp37
 70
     1
102
RTVSPost2010Prop38
140
0.0
102
RTVSPost2010PropOp38
 70
     1
102
RTVSPost2010Prop39
140
1.0
102
RTVSPost2010PropOp39
 70
     1
102
RTVSPost2010Prop40
 90
        0
102
RTVSPost2010PropOp40
 70
     1
102
RTVSPost2010Prop41ColorIndex
 90
       18
102
RTVSPost2010Prop41ColorRGB
 90
        0
102
RTVSPost2010PropOp41
 70
     1
102
RTVSPost2010Prop42
 90
       50
102
RTVSPost2010PropOp42
 70
     1
102
RTVSPost2010Prop43
 90
        3
102
RTVSPost2010PropOp43
 70
     1
102
RTVSPost2010Prop44ColorIndex
 90
        5
102
RTVSPost2010Prop44ColorRGB
 90
      255
102
RTVSPost2010PropOp44
 70
     1
102
RTVSPost2010Prop45
280
     0
102
RTVSPost2010PropOp45
 70
     1
102
RTVSPost2010Prop46
 90
       50
102
RTVSPost2010PropOp46
 70
     1
102
RTVSPost2010Prop47
 90
       50
102
RTVSPost2010PropOp47
 70
     1
102
RTVSPost2010Prop48
 90
       50
102
RTVSPost2010PropOp48
 70
     1
102
RTVSPost2010Prop49
280
     0
102
RTVSPost2010PropOp49
 70
     1
102
RTVSPost2010Prop50
 90
       50
102
RTVSPost2010PropOp50
 70
     1
102
RTVSPost2010Prop51ColorIndex
 90
      256
102
RTVSPost2010Prop51ColorRGB
 90
-16777216
102
RTVSPost2010PropOp51
 70
     0
102
RTVSPost2010Prop52
140
1.0
102
RTVSPost2010PropOp52
 70
     0
102
RTVSPost2010Prop53
 90
        2
102
RTVSPost2010PropOp53
 70
     1
102
RTVSPost2010Prop54
  1
strokes_ogs.tif
102
RTVSPost2010PropOp54
 70
     1
102
RTVSPost2010Prop55
280
     0
102
RTVSPost2010PropOp55
 70
     1
102
RTVSPost2010Prop56
140
1.0
102
RTVSPost2010PropOp56
 70
     1
102
RTVSPost2010Prop57
140
1.0
102
RTVSPost2010PropOp57
 70
     1
  0
XRECORD
  5
2A8
102
{ACAD_REACTORS
330
2A7
102
}
330
2A7
100
AcDbXrecord
280
     1
102
RTVSPropertyOp0
 70
     0
102
RTVSPropertyOp1
 70
     0
102
RTVSPropertyOp2
 70
     0
102
RTVSPropertyOp3
 70
     0
102
RTVSPropertyOp4
 70
     0
102
RTVSPropertyOp5
 70
     0
102
RTVSPropertyOp6
 70
     0
102
RTVSPropertyOp7
 70
     0
102
RTVSPropertyOp8
 70
     0
102
RTVSPropertyOp9
 70
     0
102
RTVSPropertyOp10
 70
     0
102
RTVSPropertyOp11
 70
     0
102
RTVSPropertyOp12
 70
     0
102
RTVSPropertyOp13
 70
     0
102
RTVSPropertyOp14
 70
     2
102
RTVSPropertyOp15
 70
     0
102
RTVSPropertyOp16
 70
     0
102
RTVSPropertyOp17
 70
     0
102
RTVSPropertyOp18
 70
     0
102
RTVSPropertyOp19
 70
     0
102
RTVSPropertyOp20
 70
     0
102
RTVSPropertyOp21
 70
     0
102
RTVSPropertyOp22
 70
     0
102
RTVSPropertyOp23
 70
     0
102
RTVSPropertyOp24
 70
     0
102
RTVSPropertyOp25
 70
     0
102
RTVSPropertyOp26
 70
     0
102
RTVSPropertyOp27
 70
     0
102
RTVSPropertyOp28
 70
     0
102
RTVSPropertyOp29
 70
     0
102
RTVSPropertyOp30
 70
     0
102
RTVSPropertyOp31
 70
     0
102
RTVSPropertyOp32
 70
     0
102
RTVSPropertyOp33
 70
     0
102
RTVSPropertyOp34
 70
     0
102
RTVSPropertyOp35
 70
     0
102
RTVSPropertyOp36
 70
     0
102
RTVSPropertyOp37
 70
     0
102
RTVSPropertyOp38
 70
     0
102
RTVSPropertyOp39
 70
     0
102
RTVSPropertyOp40
 70
     0
102
RTVSPropertyOp41
 70
     0
102
RTVSPropertyOp42
 70
     0
102
RTVSPropertyOp43
 70
     0
102
RTVSPropertyOp44
 70
     0
102
RTVSPropertyOp45
 70
     0
102
RTVSPropertyOp46
 70
     0
102
RTVSPropertyOp47
 70
     0
102
RTVSPropertyOp48
 70
     0
102
RTVSPropertyOp49
 70
     0
102
RTVSPropertyOp50
 70
     0
102
RTVSPropertyOp51
 70
     0
102
RTVSPropertyOp52
 70
     0
102
RTVSPropertyOp53
 70
     0
102
RTVSPropertyOp54
 70
     0
102
RTVSPropertyOp55
 70
     0
102
RTVSPropertyOp56
 70
     0
102
RTVSPropertyOp57
 70
     0
102
RTVSPost2010Prop28
280
     0
102
RTVSPost2010PropOp28
 70
     0
102
RTVSPost2010Prop29
280
     1
102
RTVSPost2010PropOp29
 70
     0
102
RTVSPost2010Prop30
280
     1
102
RTVSPost2010PropOp30
 70
     0
102
RTVSPost2010Prop31
280
     0
102
RTVSPost2010PropOp31
 70
     0
102
RTVSPost2010Prop32
280
     0
102
RTVSPost2010PropOp32
 70
     0
102
RTVSPost2010Prop33
280
     0
102
RTVSPost2010PropOp33
 70
     0
102
RTVSPost2010Prop34
280
     0
102
RTVSPost2010PropOp34
 70
     0
102
RTVSPost2010Prop35
280
     0
102
RTVSPost2010PropOp35
 70
     0
102
RTVSPost2010Prop36
280
     0
102
RTVSPost2010PropOp36
 70
     0
102
RTVSPost2010Prop37
 90
       50
102
RTVSPost2010PropOp37
 70
     0
102
RTVSPost2010Prop38
140
0.0
102
RTVSPost2010PropOp38
 70
     0
102
RTVSPost2010Prop39
140
1.0
102
RTVSPost2010PropOp39
 70
     0
102
RTVSPost2010Prop40
 90
        0
102
RTVSPost2010PropOp40
 70
     0
102
RTVSPost2010Prop41ColorIndex
 90
       18
102
RTVSPost2010Prop41ColorRGB
 90
        0
102
RTVSPost2010PropOp41
 70
     0
102
RTVSPost2010Prop42
 90
       50
102
RTVSPost2010PropOp42
 70
     0
102
RTVSPost2010Prop43
 90
        3
102
RTVSPost2010PropOp43
 70
     0
102
RTVSPost2010Prop44ColorIndex
 90
        5
102
RTVSPost2010Prop44ColorRGB
 90
      255
102
RTVSPost2010PropOp44
 70
     0
102
RTVSPost2010Prop45
280
     0
102
RTVSPost2010PropOp45
 70
     0
102
RTVSPost2010Prop46
 90
       50
102
RTVSPost2010PropOp46
 70
     0
102
RTVSPost2010Prop47
 90
       50
102
RTVSPost2010PropOp47
 70
     0
102
RTVSPost2010Prop48
 90
       50
102
RTVSPost2010PropOp48
 70
     0
102
RTVSPost2010Prop49
280
     0
102
RTVSPost2010PropOp49
 70
     0
102
RTVSPost2010Prop50
 90
       50
102
RTVSPost2010PropOp50
 70
     0
102
RTVSPost2010Prop51ColorIndex
 90
      256
102
RTVSPost2010Prop51ColorRGB
 90
-16777216
102
RTVSPost2010PropOp51
 70
     0
102
RTVSPost2010Prop52
140
1.0
102
RTVSPost2010PropOp52
 70
     0
102
RTVSPost2010Prop53
 90
        2
102
RTVSPost2010PropOp53
 70
     0
102
RTVSPost2010Prop54
  1
strokes_ogs.tif
102
RTVSPost2010PropOp54
 70
     0
102
RTVSPost2010Prop55
280
     0
102
RTVSPost2010PropOp55
 70
     0
102
RTVSPost2010Prop56
140
1.0
102
RTVSPost2010PropOp56
 70
     0
102
RTVSPost2010Prop57
140
1.0
102
RTVSPost2010PropOp57
 70
     0
  0
XRECORD
  5
2A0
102
{ACAD_REACTORS
330
29F
102
}
330
29F
100
AcDbXrecord
280
     1
102
RTVSPropertyOp0
 70
     1
102
RTVSPropertyOp1
 70
     1
102
RTVSPropertyOp2
 70
     1
102
RTVSPropertyOp3
 70
     1
102
RTVSPropertyOp4
 70
     1
102
RTVSPropertyOp5
 70
     1
102
RTVSPropertyOp6
 70
     1
102
RTVSPropertyOp7
 70
     1
102
RTVSPropertyOp8
 70
     1
102
RTVSPropertyOp9
 70
     1
102
RTVSPropertyOp10
 70
     1
102
RTVSPropertyOp11
 70
     1
102
RTVSPropertyOp12
 70
     1
102
RTVSPropertyOp13
 70
     1
102
RTVSPropertyOp14
 70
     1
102
RTVSPropertyOp15
 70
     1
102
RTVSPropertyOp16
 70
     1
102
RTVSPropertyOp17
 70
     1
102
RTVSPropertyOp18
 70
     1
102
RTVSPropertyOp19
 70
     1
102
RTVSPropertyOp20
 70
     1
102
RTVSPropertyOp21
 70
     1
102
RTVSPropertyOp22
 70
     1
102
RTVSPropertyOp23
 70
     1
102
RTVSPropertyOp24
 70
     1
102
RTVSPropertyOp25
 70
     1
102
RTVSPropertyOp26
 70
     1
102
RTVSPropertyOp27
 70
     1
102
RTVSPropertyOp28
 70
     1
102
RTVSPropertyOp29
 70
     1
102
RTVSPropertyOp30
 70
     1
102
RTVSPropertyOp31
 70
     1
102
RTVSPropertyOp32
 70
     1
102
RTVSPropertyOp33
 70
     1
102
RTVSPropertyOp34
 70
     1
102
RTVSPropertyOp35
 70
     1
102
RTVSPropertyOp36
 70
     1
102
RTVSPropertyOp37
 70
     1
102
RTVSPropertyOp38
 70
     1
102
RTVSPropertyOp39
 70
     1
102
RTVSPropertyOp40
 70
     1
102
RTVSPropertyOp41
 70
     1
102
RTVSPropertyOp42
 70
     1
102
RTVSPropertyOp43
 70
     1
102
RTVSPropertyOp44
 70
     1
102
RTVSPropertyOp45
 70
     1
102
RTVSPropertyOp46
 70
     1
102
RTVSPropertyOp47
 70
     1
102
RTVSPropertyOp48
 70
     1
102
RTVSPropertyOp49
 70
     1
102
RTVSPropertyOp50
 70
     1
102
RTVSPropertyOp51
 70
     0
102
RTVSPropertyOp52
 70
     0
102
RTVSPropertyOp53
 70
     1
102
RTVSPropertyOp54
 70
     1
102
RTVSPropertyOp55
 70
     1
102
RTVSPropertyOp56
 70
     1
102
RTVSPropertyOp57
 70
     1
102
RTVSPost2010Prop28
280
     0
102
RTVSPost2010PropOp28
 70
     1
102
RTVSPost2010Prop29
280
     1
102
RTVSPost2010PropOp29
 70
     1
102
RTVSPost2010Prop30
280
     1
102
RTVSPost2010PropOp30
 70
     1
102
RTVSPost2010Prop31
280
     0
102
RTVSPost2010PropOp31
 70
     1
102
RTVSPost2010Prop32
280
     0
102
RTVSPost2010PropOp32
 70
     1
102
RTVSPost2010Prop33
280
     0
102
RTVSPost2010PropOp33
 70
     1
102
RTVSPost2010Prop34
280
     0
102
RTVSPost2010PropOp34
 70
     1
102
RTVSPost2010Prop35
280
     0
102
RTVSPost2010PropOp35
 70
     1
102
RTVSPost2010Prop36
280
     0
102
RTVSPost2010PropOp36
 70
     1
102
RTVSPost2010Prop37
 90
       50
102
RTVSPost2010PropOp37
 70
     1
102
RTVSPost2010Prop38
140
0.0
102
RTVSPost2010PropOp38
 70
     1
102
RTVSPost2010Prop39
140
1.0
102
RTVSPost2010PropOp39
 70
     1
102
RTVSPost2010Prop40
 90
        0
102
RTVSPost2010PropOp40
 70
     1
102
RTVSPost2010Prop41ColorIndex
 90
       18
102
RTVSPost2010Prop41ColorRGB
 90
        0
102
RTVSPost2010PropOp41
 70
     1
102
RTVSPost2010Prop42
 90
       50
102
RTVSPost2010PropOp42
 70
     1
102
RTVSPost2010Prop43
 90
        3
102
RTVSPost2010PropOp43
 70
     1
102
RTVSPost2010Prop44ColorIndex
 90
        5
102
RTVSPost2010Prop44ColorRGB
 90
      255
102
RTVSPost2010PropOp44
 70
     1
102
RTVSPost2010Prop45
280
     0
102
RTVSPost2010PropOp45
 70
     1
102
RTVSPost2010Prop46
 90
       50
102
RTVSPost2010PropOp46
 70
     1
102
RTVSPost2010Prop47
 90
       50
102
RTVSPost2010PropOp47
 70
     1
102
RTVSPost2010Prop48
 90
       50
102
RTVSPost2010PropOp48
 70
     1
102
RTVSPost2010Prop49
280
     0
102
RTVSPost2010PropOp49
 70
     1
102
RTVSPost2010Prop50
 90
       50
102
RTVSPost2010PropOp50
 70
     1
102
RTVSPost2010Prop51ColorIndex
 90
      256
102
RTVSPost2010Prop51ColorRGB
 90
-16777216
102
RTVSPost2010PropOp51
 70
     0
102
RTVSPost2010Prop52
140
1.0
102
RTVSPost2010PropOp52
 70
     0
102
RTVSPost2010Prop53
 90
        2
102
RTVSPost2010PropOp53
 70
     1
102
RTVSPost2010Prop54
  1
strokes_ogs.tif
102
RTVSPost2010PropOp54
 70
     1
102
RTVSPost2010Prop55
280
     0
102
RTVSPost2010PropOp55
 70
     1
102
RTVSPost2010Prop56
140
1.0
102
RTVSPost2010PropOp56
 70
     1
102
RTVSPost2010Prop57
140
1.0
102
RTVSPost2010PropOp57
 70
     1
  0
XRECORD
  5
284
102
{ACAD_REACTORS
330
283
102
}
330
283
100
AcDbXrecord
280
     1
102
RTVSPropertyOp0
 70
     1
102
RTVSPropertyOp1
 70
     1
102
RTVSPropertyOp2
 70
     1
102
RTVSPropertyOp3
 70
     1
102
RTVSPropertyOp4
 70
     1
102
RTVSPropertyOp5
 70
     1
102
RTVSPropertyOp6
 70
     1
102
RTVSPropertyOp7
 70
     1
102
RTVSPropertyOp8
 70
     1
102
RTVSPropertyOp9
 70
     1
102
RTVSPropertyOp10
 70
     1
102
RTVSPropertyOp11
 70
     1
102
RTVSPropertyOp12
 70
     1
102
RTVSPropertyOp13
 70
     1
102
RTVSPropertyOp14
 70
     1
102
RTVSPropertyOp15
 70
     1
102
RTVSPropertyOp16
 70
     1
102
RTVSPropertyOp17
 70
     1
102
RTVSPropertyOp18
 70
     1
102
RTVSPropertyOp19
 70
     1
102
RTVSPropertyOp20
 70
     1
102
RTVSPropertyOp21
 70
     1
102
RTVSPropertyOp22
 70
     1
102
RTVSPropertyOp23
 70
     1
102
RTVSPropertyOp24
 70
     1
102
RTVSPropertyOp25
 70
     1
102
RTVSPropertyOp26
 70
     1
102
RTVSPropertyOp27
 70
     1
102
RTVSPropertyOp28
 70
     1
102
RTVSPropertyOp29
 70
     1
102
RTVSPropertyOp30
 70
     1
102
RTVSPropertyOp31
 70
     1
102
RTVSPropertyOp32
 70
     1
102
RTVSPropertyOp33
 70
     1
102
RTVSPropertyOp34
 70
     1
102
RTVSPropertyOp35
 70
     1
102
RTVSPropertyOp36
 70
     1
102
RTVSPropertyOp37
 70
     1
102
RTVSPropertyOp38
 70
     1
102
RTVSPropertyOp39
 70
     1
102
RTVSPropertyOp40
 70
     1
102
RTVSPropertyOp41
 70
     1
102
RTVSPropertyOp42
 70
     1
102
RTVSPropertyOp43
 70
     1
102
RTVSPropertyOp44
 70
     1
102
RTVSPropertyOp45
 70
     1
102
RTVSPropertyOp46
 70
     1
102
RTVSPropertyOp47
 70
     1
102
RTVSPropertyOp48
 70
     1
102
RTVSPropertyOp49
 70
     1
102
RTVSPropertyOp50
 70
     1
102
RTVSPropertyOp51
 70
     0
102
RTVSPropertyOp52
 70
     0
102
RTVSPropertyOp53
 70
     1
102
RTVSPropertyOp54
 70
     1
102
RTVSPropertyOp55
 70
     1
102
RTVSPropertyOp56
 70
     1
102
RTVSPropertyOp57
 70
     1
102
RTVSPost2010Prop28
280
     0
102
RTVSPost2010PropOp28
 70
     1
102
RTVSPost2010Prop29
280
     1
102
RTVSPost2010PropOp29
 70
     1
102
RTVSPost2010Prop30
280
     1
102
RTVSPost2010PropOp30
 70
     1
102
RTVSPost2010Prop31
280
     0
102
RTVSPost2010PropOp31
 70
     1
102
RTVSPost2010Prop32
280
     0
102
RTVSPost2010PropOp32
 70
     1
102
RTVSPost2010Prop33
280
     0
102
RTVSPost2010PropOp33
 70
     1
102
RTVSPost2010Prop34
280
     0
102
RTVSPost2010PropOp34
 70
     1
102
RTVSPost2010Prop35
280
     0
102
RTVSPost2010PropOp35
 70
     1
102
RTVSPost2010Prop36
280
     0
102
RTVSPost2010PropOp36
 70
     1
102
RTVSPost2010Prop37
 90
       50
102
RTVSPost2010PropOp37
 70
     1
102
RTVSPost2010Prop38
140
0.0
102
RTVSPost2010PropOp38
 70
     1
102
RTVSPost2010Prop39
140
1.0
102
RTVSPost2010PropOp39
 70
     1
102
RTVSPost2010Prop40
 90
        0
102
RTVSPost2010PropOp40
 70
     1
102
RTVSPost2010Prop41ColorIndex
 90
       18
102
RTVSPost2010Prop41ColorRGB
 90
        0
102
RTVSPost2010PropOp41
 70
     1
102
RTVSPost2010Prop42
 90
       50
102
RTVSPost2010PropOp42
 70
     1
102
RTVSPost2010Prop43
 90
        3
102
RTVSPost2010PropOp43
 70
     1
102
RTVSPost2010Prop44ColorIndex
 90
        5
102
RTVSPost2010Prop44ColorRGB
 90
      255
102
RTVSPost2010PropOp44
 70
     1
102
RTVSPost2010Prop45
280
     0
102
RTVSPost2010PropOp45
 70
     1
102
RTVSPost2010Prop46
 90
       50
102
RTVSPost2010PropOp46
 70
     1
102
RTVSPost2010Prop47
 90
       50
102
RTVSPost2010PropOp47
 70
     1
102
RTVSPost2010Prop48
 90
       50
102
RTVSPost2010PropOp48
 70
     1
102
RTVSPost2010Prop49
280
     0
102
RTVSPost2010PropOp49
 70
     1
102
RTVSPost2010Prop50
 90
       50
102
RTVSPost2010PropOp50
 70
     1
102
RTVSPost2010Prop51ColorIndex
 90
      256
102
RTVSPost2010Prop51ColorRGB
 90
-16777216
102
RTVSPost2010PropOp51
 70
     0
102
RTVSPost2010Prop52
140
1.0
102
RTVSPost2010PropOp52
 70
     0
102
RTVSPost2010Prop53
 90
        2
102
RTVSPost2010PropOp53
 70
     1
102
RTVSPost2010Prop54
  1
strokes_ogs.tif
102
RTVSPost2010PropOp54
 70
     1
102
RTVSPost2010Prop55
280
     0
102
RTVSPost2010PropOp55
 70
     1
102
RTVSPost2010Prop56
140
1.0
102
RTVSPost2010PropOp56
 70
     1
102
RTVSPost2010Prop57
140
1.0
102
RTVSPost2010PropOp57
 70
     1
  0
XRECORD
  5
286
102
{ACAD_REACTORS
330
285
102
}
330
285
100
AcDbXrecord
280
     1
102
RTVSPropertyOp0
 70
     1
102
RTVSPropertyOp1
 70
     1
102
RTVSPropertyOp2
 70
     1
102
RTVSPropertyOp3
 70
     1
102
RTVSPropertyOp4
 70
     1
102
RTVSPropertyOp5
 70
     1
102
RTVSPropertyOp6
 70
     1
102
RTVSPropertyOp7
 70
     1
102
RTVSPropertyOp8
 70
     1
102
RTVSPropertyOp9
 70
     1
102
RTVSPropertyOp10
 70
     1
102
RTVSPropertyOp11
 70
     1
102
RTVSPropertyOp12
 70
     1
102
RTVSPropertyOp13
 70
     1
102
RTVSPropertyOp14
 70
     1
102
RTVSPropertyOp15
 70
     1
102
RTVSPropertyOp16
 70
     1
102
RTVSPropertyOp17
 70
     1
102
RTVSPropertyOp18
 70
     1
102
RTVSPropertyOp19
 70
     1
102
RTVSPropertyOp20
 70
     1
102
RTVSPropertyOp21
 70
     1
102
RTVSPropertyOp22
 70
     1
102
RTVSPropertyOp23
 70
     1
102
RTVSPropertyOp24
 70
     1
102
RTVSPropertyOp25
 70
     1
102
RTVSPropertyOp26
 70
     1
102
RTVSPropertyOp27
 70
     1
102
RTVSPropertyOp28
 70
     1
102
RTVSPropertyOp29
 70
     1
102
RTVSPropertyOp30
 70
     1
102
RTVSPropertyOp31
 70
     1
102
RTVSPropertyOp32
 70
     1
102
RTVSPropertyOp33
 70
     1
102
RTVSPropertyOp34
 70
     1
102
RTVSPropertyOp35
 70
     1
102
RTVSPropertyOp36
 70
     1
102
RTVSPropertyOp37
 70
     1
102
RTVSPropertyOp38
 70
     1
102
RTVSPropertyOp39
 70
     1
102
RTVSPropertyOp40
 70
     1
102
RTVSPropertyOp41
 70
     1
102
RTVSPropertyOp42
 70
     1
102
RTVSPropertyOp43
 70
     1
102
RTVSPropertyOp44
 70
     1
102
RTVSPropertyOp45
 70
     1
102
RTVSPropertyOp46
 70
     1
102
RTVSPropertyOp47
 70
     1
102
RTVSPropertyOp48
 70
     1
102
RTVSPropertyOp49
 70
     1
102
RTVSPropertyOp50
 70
     1
102
RTVSPropertyOp51
 70
     0
102
RTVSPropertyOp52
 70
     0
102
RTVSPropertyOp53
 70
     1
102
RTVSPropertyOp54
 70
     1
102
RTVSPropertyOp55
 70
     1
102
RTVSPropertyOp56
 70
     1
102
RTVSPropertyOp57
 70
     1
102
RTVSPost2010Prop28
280
     0
102
RTVSPost2010PropOp28
 70
     1
102
RTVSPost2010Prop29
280
     1
102
RTVSPost2010PropOp29
 70
     1
102
RTVSPost2010Prop30
280
     1
102
RTVSPost2010PropOp30
 70
     1
102
RTVSPost2010Prop31
280
     0
102
RTVSPost2010PropOp31
 70
     1
102
RTVSPost2010Prop32
280
     0
102
RTVSPost2010PropOp32
 70
     1
102
RTVSPost2010Prop33
280
     0
102
RTVSPost2010PropOp33
 70
     1
102
RTVSPost2010Prop34
280
     0
102
RTVSPost2010PropOp34
 70
     1
102
RTVSPost2010Prop35
280
     0
102
RTVSPost2010PropOp35
 70
     1
102
RTVSPost2010Prop36
280
     0
102
RTVSPost2010PropOp36
 70
     1
102
RTVSPost2010Prop37
 90
       50
102
RTVSPost2010PropOp37
 70
     1
102
RTVSPost2010Prop38
140
0.0
102
RTVSPost2010PropOp38
 70
     1
102
RTVSPost2010Prop39
140
1.0
102
RTVSPost2010PropOp39
 70
     1
102
RTVSPost2010Prop40
 90
        0
102
RTVSPost2010PropOp40
 70
     1
102
RTVSPost2010Prop41ColorIndex
 90
       18
102
RTVSPost2010Prop41ColorRGB
 90
        0
102
RTVSPost2010PropOp41
 70
     1
102
RTVSPost2010Prop42
 90
       50
102
RTVSPost2010PropOp42
 70
     1
102
RTVSPost2010Prop43
 90
        3
102
RTVSPost2010PropOp43
 70
     1
102
RTVSPost2010Prop44ColorIndex
 90
        5
102
RTVSPost2010Prop44ColorRGB
 90
      255
102
RTVSPost2010PropOp44
 70
     1
102
RTVSPost2010Prop45
280
     0
102
RTVSPost2010PropOp45
 70
     1
102
RTVSPost2010Prop46
 90
       50
102
RTVSPost2010PropOp46
 70
     1
102
RTVSPost2010Prop47
 90
       50
102
RTVSPost2010PropOp47
 70
     1
102
RTVSPost2010Prop48
 90
       50
102
RTVSPost2010PropOp48
 70
     1
102
RTVSPost2010Prop49
280
     0
102
RTVSPost2010PropOp49
 70
     1
102
RTVSPost2010Prop50
 90
       50
102
RTVSPost2010PropOp50
 70
     1
102
RTVSPost2010Prop51ColorIndex
 90
      256
102
RTVSPost2010Prop51ColorRGB
 90
-16777216
102
RTVSPost2010PropOp51
 70
     0
102
RTVSPost2010Prop52
140
1.0
102
RTVSPost2010PropOp52
 70
     0
102
RTVSPost2010Prop53
 90
        2
102
RTVSPost2010PropOp53
 70
     1
102
RTVSPost2010Prop54
  1
strokes_ogs.tif
102
RTVSPost2010PropOp54
 70
     1
102
RTVSPost2010Prop55
280
     0
102
RTVSPost2010PropOp55
 70
     1
102
RTVSPost2010Prop56
140
1.0
102
RTVSPost2010PropOp56
 70
     1
102
RTVSPost2010Prop57
140
1.0
102
RTVSPost2010PropOp57
 70
     1
  0
XRECORD
  5
288
102
{ACAD_REACTORS
330
287
102
}
330
287
100
AcDbXrecord
280
     1
102
RTVSPropertyOp0
 70
     1
102
RTVSPropertyOp1
 70
     1
102
RTVSPropertyOp2
 70
     1
102
RTVSPropertyOp3
 70
     1
102
RTVSPropertyOp4
 70
     1
102
RTVSPropertyOp5
 70
     1
102
RTVSPropertyOp6
 70
     1
102
RTVSPropertyOp7
 70
     1
102
RTVSPropertyOp8
 70
     1
102
RTVSPropertyOp9
 70
     1
102
RTVSPropertyOp10
 70
     1
102
RTVSPropertyOp11
 70
     1
102
RTVSPropertyOp12
 70
     1
102
RTVSPropertyOp13
 70
     1
102
RTVSPropertyOp14
 70
     1
102
RTVSPropertyOp15
 70
     1
102
RTVSPropertyOp16
 70
     1
102
RTVSPropertyOp17
 70
     1
102
RTVSPropertyOp18
 70
     1
102
RTVSPropertyOp19
 70
     1
102
RTVSPropertyOp20
 70
     1
102
RTVSPropertyOp21
 70
     1
102
RTVSPropertyOp22
 70
     1
102
RTVSPropertyOp23
 70
     1
102
RTVSPropertyOp24
 70
     1
102
RTVSPropertyOp25
 70
     1
102
RTVSPropertyOp26
 70
     1
102
RTVSPropertyOp27
 70
     1
102
RTVSPropertyOp28
 70
     1
102
RTVSPropertyOp29
 70
     1
102
RTVSPropertyOp30
 70
     1
102
RTVSPropertyOp31
 70
     1
102
RTVSPropertyOp32
 70
     1
102
RTVSPropertyOp33
 70
     1
102
RTVSPropertyOp34
 70
     1
102
RTVSPropertyOp35
 70
     1
102
RTVSPropertyOp36
 70
     1
102
RTVSPropertyOp37
 70
     1
102
RTVSPropertyOp38
 70
     1
102
RTVSPropertyOp39
 70
     1
102
RTVSPropertyOp40
 70
     1
102
RTVSPropertyOp41
 70
     1
102
RTVSPropertyOp42
 70
     1
102
RTVSPropertyOp43
 70
     1
102
RTVSPropertyOp44
 70
     1
102
RTVSPropertyOp45
 70
     1
102
RTVSPropertyOp46
 70
     1
102
RTVSPropertyOp47
 70
     1
102
RTVSPropertyOp48
 70
     1
102
RTVSPropertyOp49
 70
     1
102
RTVSPropertyOp50
 70
     1
102
RTVSPropertyOp51
 70
     0
102
RTVSPropertyOp52
 70
     0
102
RTVSPropertyOp53
 70
     1
102
RTVSPropertyOp54
 70
     1
102
RTVSPropertyOp55
 70
     1
102
RTVSPropertyOp56
 70
     1
102
RTVSPropertyOp57
 70
     1
102
RTVSPost2010Prop28
280
     0
102
RTVSPost2010PropOp28
 70
     1
102
RTVSPost2010Prop29
280
     1
102
RTVSPost2010PropOp29
 70
     1
102
RTVSPost2010Prop30
280
     1
102
RTVSPost2010PropOp30
 70
     1
102
RTVSPost2010Prop31
280
     0
102
RTVSPost2010PropOp31
 70
     1
102
RTVSPost2010Prop32
280
     0
102
RTVSPost2010PropOp32
 70
     1
102
RTVSPost2010Prop33
280
     0
102
RTVSPost2010PropOp33
 70
     1
102
RTVSPost2010Prop34
280
     0
102
RTVSPost2010PropOp34
 70
     1
102
RTVSPost2010Prop35
280
     0
102
RTVSPost2010PropOp35
 70
     1
102
RTVSPost2010Prop36
280
     0
102
RTVSPost2010PropOp36
 70
     1
102
RTVSPost2010Prop37
 90
       50
102
RTVSPost2010PropOp37
 70
     1
102
RTVSPost2010Prop38
140
0.0
102
RTVSPost2010PropOp38
 70
     1
102
RTVSPost2010Prop39
140
1.0
102
RTVSPost2010PropOp39
 70
     1
102
RTVSPost2010Prop40
 90
        0
102
RTVSPost2010PropOp40
 70
     1
102
RTVSPost2010Prop41ColorIndex
 90
       18
102
RTVSPost2010Prop41ColorRGB
 90
        0
102
RTVSPost2010PropOp41
 70
     1
102
RTVSPost2010Prop42
 90
       50
102
RTVSPost2010PropOp42
 70
     1
102
RTVSPost2010Prop43
 90
        3
102
RTVSPost2010PropOp43
 70
     1
102
RTVSPost2010Prop44ColorIndex
 90
        5
102
RTVSPost2010Prop44ColorRGB
 90
      255
102
RTVSPost2010PropOp44
 70
     1
102
RTVSPost2010Prop45
280
     0
102
RTVSPost2010PropOp45
 70
     1
102
RTVSPost2010Prop46
 90
       50
102
RTVSPost2010PropOp46
 70
     1
102
RTVSPost2010Prop47
 90
       50
102
RTVSPost2010PropOp47
 70
     1
102
RTVSPost2010Prop48
 90
       50
102
RTVSPost2010PropOp48
 70
     1
102
RTVSPost2010Prop49
280
     0
102
RTVSPost2010PropOp49
 70
     1
102
RTVSPost2010Prop50
 90
       50
102
RTVSPost2010PropOp50
 70
     1
102
RTVSPost2010Prop51ColorIndex
 90
      256
102
RTVSPost2010Prop51ColorRGB
 90
-16777216
102
RTVSPost2010PropOp51
 70
     0
102
RTVSPost2010Prop52
140
1.0
102
RTVSPost2010PropOp52
 70
     0
102
RTVSPost2010Prop53
 90
        2
102
RTVSPost2010PropOp53
 70
     1
102
RTVSPost2010Prop54
  1
strokes_ogs.tif
102
RTVSPost2010PropOp54
 70
     1
102
RTVSPost2010Prop55
280
     0
102
RTVSPost2010PropOp55
 70
     1
102
RTVSPost2010Prop56
140
1.0
102
RTVSPost2010PropOp56
 70
     1
102
RTVSPost2010Prop57
140
1.0
102
RTVSPost2010PropOp57
 70
     1
  0
XRECORD
  5
28A
102
{ACAD_REACTORS
330
289
102
}
330
289
100
AcDbXrecord
280
     1
102
RTVSPropertyOp0
 70
     1
102
RTVSPropertyOp1
 70
     1
102
RTVSPropertyOp2
 70
     1
102
RTVSPropertyOp3
 70
     1
102
RTVSPropertyOp4
 70
     1
102
RTVSPropertyOp5
 70
     1
102
RTVSPropertyOp6
 70
     1
102
RTVSPropertyOp7
 70
     1
102
RTVSPropertyOp8
 70
     1
102
RTVSPropertyOp9
 70
     1
102
RTVSPropertyOp10
 70
     1
102
RTVSPropertyOp11
 70
     1
102
RTVSPropertyOp12
 70
     1
102
RTVSPropertyOp13
 70
     1
102
RTVSPropertyOp14
 70
     1
102
RTVSPropertyOp15
 70
     1
102
RTVSPropertyOp16
 70
     1
102
RTVSPropertyOp17
 70
     1
102
RTVSPropertyOp18
 70
     1
102
RTVSPropertyOp19
 70
     1
102
RTVSPropertyOp20
 70
     1
102
RTVSPropertyOp21
 70
     1
102
RTVSPropertyOp22
 70
     1
102
RTVSPropertyOp23
 70
     1
102
RTVSPropertyOp24
 70
     1
102
RTVSPropertyOp25
 70
     1
102
RTVSPropertyOp26
 70
     1
102
RTVSPropertyOp27
 70
     1
102
RTVSPropertyOp28
 70
     1
102
RTVSPropertyOp29
 70
     1
102
RTVSPropertyOp30
 70
     1
102
RTVSPropertyOp31
 70
     1
102
RTVSPropertyOp32
 70
     1
102
RTVSPropertyOp33
 70
     1
102
RTVSPropertyOp34
 70
     1
102
RTVSPropertyOp35
 70
     1
102
RTVSPropertyOp36
 70
     1
102
RTVSPropertyOp37
 70
     1
102
RTVSPropertyOp38
 70
     1
102
RTVSPropertyOp39
 70
     1
102
RTVSPropertyOp40
 70
     1
102
RTVSPropertyOp41
 70
     1
102
RTVSPropertyOp42
 70
     1
102
RTVSPropertyOp43
 70
     1
102
RTVSPropertyOp44
 70
     1
102
RTVSPropertyOp45
 70
     1
102
RTVSPropertyOp46
 70
     1
102
RTVSPropertyOp47
 70
     1
102
RTVSPropertyOp48
 70
     1
102
RTVSPropertyOp49
 70
     1
102
RTVSPropertyOp50
 70
     1
102
RTVSPropertyOp51
 70
     0
102
RTVSPropertyOp52
 70
     0
102
RTVSPropertyOp53
 70
     1
102
RTVSPropertyOp54
 70
     1
102
RTVSPropertyOp55
 70
     1
102
RTVSPropertyOp56
 70
     1
102
RTVSPropertyOp57
 70
     1
102
RTVSPost2010Prop28
280
     0
102
RTVSPost2010PropOp28
 70
     1
102
RTVSPost2010Prop29
280
     1
102
RTVSPost2010PropOp29
 70
     1
102
RTVSPost2010Prop30
280
     1
102
RTVSPost2010PropOp30
 70
     1
102
RTVSPost2010Prop31
280
     0
102
RTVSPost2010PropOp31
 70
     1
102
RTVSPost2010Prop32
280
     0
102
RTVSPost2010PropOp32
 70
     1
102
RTVSPost2010Prop33
280
     0
102
RTVSPost2010PropOp33
 70
     1
102
RTVSPost2010Prop34
280
     0
102
RTVSPost2010PropOp34
 70
     1
102
RTVSPost2010Prop35
280
     0
102
RTVSPost2010PropOp35
 70
     1
102
RTVSPost2010Prop36
280
     0
102
RTVSPost2010PropOp36
 70
     1
102
RTVSPost2010Prop37
 90
       50
102
RTVSPost2010PropOp37
 70
     1
102
RTVSPost2010Prop38
140
0.0
102
RTVSPost2010PropOp38
 70
     1
102
RTVSPost2010Prop39
140
1.0
102
RTVSPost2010PropOp39
 70
     1
102
RTVSPost2010Prop40
 90
        0
102
RTVSPost2010PropOp40
 70
     1
102
RTVSPost2010Prop41ColorIndex
 90
       18
102
RTVSPost2010Prop41ColorRGB
 90
        0
102
RTVSPost2010PropOp41
 70
     1
102
RTVSPost2010Prop42
 90
       50
102
RTVSPost2010PropOp42
 70
     1
102
RTVSPost2010Prop43
 90
        3
102
RTVSPost2010PropOp43
 70
     1
102
RTVSPost2010Prop44ColorIndex
 90
        5
102
RTVSPost2010Prop44ColorRGB
 90
      255
102
RTVSPost2010PropOp44
 70
     1
102
RTVSPost2010Prop45
280
     0
102
RTVSPost2010PropOp45
 70
     1
102
RTVSPost2010Prop46
 90
       50
102
RTVSPost2010PropOp46
 70
     1
102
RTVSPost2010Prop47
 90
       50
102
RTVSPost2010PropOp47
 70
     1
102
RTVSPost2010Prop48
 90
       50
102
RTVSPost2010PropOp48
 70
     1
102
RTVSPost2010Prop49
280
     0
102
RTVSPost2010PropOp49
 70
     1
102
RTVSPost2010Prop50
 90
       50
102
RTVSPost2010PropOp50
 70
     1
102
RTVSPost2010Prop51ColorIndex
 90
      256
102
RTVSPost2010Prop51ColorRGB
 90
-16777216
102
RTVSPost2010PropOp51
 70
     0
102
RTVSPost2010Prop52
140
1.0
102
RTVSPost2010PropOp52
 70
     0
102
RTVSPost2010Prop53
 90
        2
102
RTVSPost2010PropOp53
 70
     1
102
RTVSPost2010Prop54
  1
strokes_ogs.tif
102
RTVSPost2010PropOp54
 70
     1
102
RTVSPost2010Prop55
280
     0
102
RTVSPost2010PropOp55
 70
     1
102
RTVSPost2010Prop56
140
1.0
102
RTVSPost2010PropOp56
 70
     1
102
RTVSPost2010Prop57
140
1.0
102
RTVSPost2010PropOp57
 70
     1
  0
XRECORD
  5
290
102
{ACAD_REACTORS
330
28F
102
}
330
28F
100
AcDbXrecord
280
     1
102
RTVSPropertyOp0
 70
     1
102
RTVSPropertyOp1
 70
     1
102
RTVSPropertyOp2
 70
     1
102
RTVSPropertyOp3
 70
     1
102
RTVSPropertyOp4
 70
     1
102
RTVSPropertyOp5
 70
     1
102
RTVSPropertyOp6
 70
     1
102
RTVSPropertyOp7
 70
     1
102
RTVSPropertyOp8
 70
     1
102
RTVSPropertyOp9
 70
     1
102
RTVSPropertyOp10
 70
     1
102
RTVSPropertyOp11
 70
     1
102
RTVSPropertyOp12
 70
     1
102
RTVSPropertyOp13
 70
     1
102
RTVSPropertyOp14
 70
     1
102
RTVSPropertyOp15
 70
     1
102
RTVSPropertyOp16
 70
     1
102
RTVSPropertyOp17
 70
     1
102
RTVSPropertyOp18
 70
     1
102
RTVSPropertyOp19
 70
     1
102
RTVSPropertyOp20
 70
     1
102
RTVSPropertyOp21
 70
     1
102
RTVSPropertyOp22
 70
     1
102
RTVSPropertyOp23
 70
     1
102
RTVSPropertyOp24
 70
     1
102
RTVSPropertyOp25
 70
     1
102
RTVSPropertyOp26
 70
     1
102
RTVSPropertyOp27
 70
     1
102
RTVSPropertyOp28
 70
     1
102
RTVSPropertyOp29
 70
     1
102
RTVSPropertyOp30
 70
     1
102
RTVSPropertyOp31
 70
     1
102
RTVSPropertyOp32
 70
     1
102
RTVSPropertyOp33
 70
     1
102
RTVSPropertyOp34
 70
     1
102
RTVSPropertyOp35
 70
     1
102
RTVSPropertyOp36
 70
     1
102
RTVSPropertyOp37
 70
     1
102
RTVSPropertyOp38
 70
     1
102
RTVSPropertyOp39
 70
     1
102
RTVSPropertyOp40
 70
     1
102
RTVSPropertyOp41
 70
     1
102
RTVSPropertyOp42
 70
     1
102
RTVSPropertyOp43
 70
     1
102
RTVSPropertyOp44
 70
     1
102
RTVSPropertyOp45
 70
     1
102
RTVSPropertyOp46
 70
     1
102
RTVSPropertyOp47
 70
     1
102
RTVSPropertyOp48
 70
     1
102
RTVSPropertyOp49
 70
     1
102
RTVSPropertyOp50
 70
     1
102
RTVSPropertyOp51
 70
     0
102
RTVSPropertyOp52
 70
     0
102
RTVSPropertyOp53
 70
     1
102
RTVSPropertyOp54
 70
     1
102
RTVSPropertyOp55
 70
     1
102
RTVSPropertyOp56
 70
     1
102
RTVSPropertyOp57
 70
     1
102
RTVSPost2010Prop28
280
     0
102
RTVSPost2010PropOp28
 70
     1
102
RTVSPost2010Prop29
280
     1
102
RTVSPost2010PropOp29
 70
     1
102
RTVSPost2010Prop30
280
     1
102
RTVSPost2010PropOp30
 70
     1
102
RTVSPost2010Prop31
280
     0
102
RTVSPost2010PropOp31
 70
     1
102
RTVSPost2010Prop32
280
     0
102
RTVSPost2010PropOp32
 70
     1
102
RTVSPost2010Prop33
280
     0
102
RTVSPost2010PropOp33
 70
     1
102
RTVSPost2010Prop34
280
     0
102
RTVSPost2010PropOp34
 70
     1
102
RTVSPost2010Prop35
280
     0
102
RTVSPost2010PropOp35
 70
     1
102
RTVSPost2010Prop36
280
     0
102
RTVSPost2010PropOp36
 70
     1
102
RTVSPost2010Prop37
 90
       50
102
RTVSPost2010PropOp37
 70
     1
102
RTVSPost2010Prop38
140
0.0
102
RTVSPost2010PropOp38
 70
     1
102
RTVSPost2010Prop39
140
1.0
102
RTVSPost2010PropOp39
 70
     1
102
RTVSPost2010Prop40
 90
        0
102
RTVSPost2010PropOp40
 70
     1
102
RTVSPost2010Prop41ColorIndex
 90
       18
102
RTVSPost2010Prop41ColorRGB
 90
        0
102
RTVSPost2010PropOp41
 70
     1
102
RTVSPost2010Prop42
 90
       50
102
RTVSPost2010PropOp42
 70
     1
102
RTVSPost2010Prop43
 90
        3
102
RTVSPost2010PropOp43
 70
     1
102
RTVSPost2010Prop44ColorIndex
 90
        5
102
RTVSPost2010Prop44ColorRGB
 90
      255
102
RTVSPost2010PropOp44
 70
     1
102
RTVSPost2010Prop45
280
     0
102
RTVSPost2010PropOp45
 70
     1
102
RTVSPost2010Prop46
 90
       50
102
RTVSPost2010PropOp46
 70
     1
102
RTVSPost2010Prop47
 90
       50
102
RTVSPost2010PropOp47
 70
     1
102
RTVSPost2010Prop48
 90
       50
102
RTVSPost2010PropOp48
 70
     1
102
RTVSPost2010Prop49
280
     0
102
RTVSPost2010PropOp49
 70
     1
102
RTVSPost2010Prop50
 90
       50
102
RTVSPost2010PropOp50
 70
     1
102
RTVSPost2010Prop51ColorIndex
 90
      256
102
RTVSPost2010Prop51ColorRGB
 90
-16777216
102
RTVSPost2010PropOp51
 70
     0
102
RTVSPost2010Prop52
140
1.0
102
RTVSPost2010PropOp52
 70
     0
102
RTVSPost2010Prop53
 90
        2
102
RTVSPost2010PropOp53
 70
     1
102
RTVSPost2010Prop54
  1
strokes_ogs.tif
102
RTVSPost2010PropOp54
 70
     1
102
RTVSPost2010Prop55
280
     0
102
RTVSPost2010PropOp55
 70
     1
102
RTVSPost2010Prop56
140
1.0
102
RTVSPost2010PropOp56
 70
     1
102
RTVSPost2010Prop57
140
1.0
102
RTVSPost2010PropOp57
 70
     1
  0
XRECORD
  5
2A4
102
{ACAD_REACTORS
330
2A3
102
}
330
2A3
100
AcDbXrecord
280
     1
102
RTVSPropertyOp0
 70
     0
102
RTVSPropertyOp1
 70
     0
102
RTVSPropertyOp2
 70
     0
102
RTVSPropertyOp3
 70
     0
102
RTVSPropertyOp4
 70
     0
102
RTVSPropertyOp5
 70
     0
102
RTVSPropertyOp6
 70
     0
102
RTVSPropertyOp7
 70
     0
102
RTVSPropertyOp8
 70
     0
102
RTVSPropertyOp9
 70
     0
102
RTVSPropertyOp10
 70
     0
102
RTVSPropertyOp11
 70
     0
102
RTVSPropertyOp12
 70
     0
102
RTVSPropertyOp13
 70
     0
102
RTVSPropertyOp14
 70
     2
102
RTVSPropertyOp15
 70
     0
102
RTVSPropertyOp16
 70
     0
102
RTVSPropertyOp17
 70
     0
102
RTVSPropertyOp18
 70
     0
102
RTVSPropertyOp19
 70
     0
102
RTVSPropertyOp20
 70
     0
102
RTVSPropertyOp21
 70
     0
102
RTVSPropertyOp22
 70
     0
102
RTVSPropertyOp23
 70
     0
102
RTVSPropertyOp24
 70
     0
102
RTVSPropertyOp25
 70
     0
102
RTVSPropertyOp26
 70
     0
102
RTVSPropertyOp27
 70
     0
102
RTVSPropertyOp28
 70
     0
102
RTVSPropertyOp29
 70
     0
102
RTVSPropertyOp30
 70
     0
102
RTVSPropertyOp31
 70
     0
102
RTVSPropertyOp32
 70
     0
102
RTVSPropertyOp33
 70
     0
102
RTVSPropertyOp34
 70
     0
102
RTVSPropertyOp35
 70
     0
102
RTVSPropertyOp36
 70
     0
102
RTVSPropertyOp37
 70
     0
102
RTVSPropertyOp38
 70
     0
102
RTVSPropertyOp39
 70
     0
102
RTVSPropertyOp40
 70
     0
102
RTVSPropertyOp41
 70
     0
102
RTVSPropertyOp42
 70
     0
102
RTVSPropertyOp43
 70
     0
102
RTVSPropertyOp44
 70
     0
102
RTVSPropertyOp45
 70
     0
102
RTVSPropertyOp46
 70
     0
102
RTVSPropertyOp47
 70
     0
102
RTVSPropertyOp48
 70
     0
102
RTVSPropertyOp49
 70
     0
102
RTVSPropertyOp50
 70
     0
102
RTVSPropertyOp51
 70
     0
102
RTVSPropertyOp52
 70
     0
102
RTVSPropertyOp53
 70
     0
102
RTVSPropertyOp54
 70
     0
102
RTVSPropertyOp55
 70
     0
102
RTVSPropertyOp56
 70
     0
102
RTVSPropertyOp57
 70
     0
102
RTVSPost2010Prop28
280
     0
102
RTVSPost2010PropOp28
 70
     0
102
RTVSPost2010Prop29
280
     1
102
RTVSPost2010PropOp29
 70
     0
102
RTVSPost2010Prop30
280
     1
102
RTVSPost2010PropOp30
 70
     0
102
RTVSPost2010Prop31
280
     0
102
RTVSPost2010PropOp31
 70
     0
102
RTVSPost2010Prop32
280
     0
102
RTVSPost2010PropOp32
 70
     0
102
RTVSPost2010Prop33
280
     0
102
RTVSPost2010PropOp33
 70
     0
102
RTVSPost2010Prop34
280
     0
102
RTVSPost2010PropOp34
 70
     0
102
RTVSPost2010Prop35
280
     0
102
RTVSPost2010PropOp35
 70
     0
102
RTVSPost2010Prop36
280
     0
102
RTVSPost2010PropOp36
 70
     0
102
RTVSPost2010Prop37
 90
       50
102
RTVSPost2010PropOp37
 70
     0
102
RTVSPost2010Prop38
140
0.0
102
RTVSPost2010PropOp38
 70
     0
102
RTVSPost2010Prop39
140
1.0
102
RTVSPost2010PropOp39
 70
     0
102
RTVSPost2010Prop40
 90
        0
102
RTVSPost2010PropOp40
 70
     0
102
RTVSPost2010Prop41ColorIndex
 90
       18
102
RTVSPost2010Prop41ColorRGB
 90
        0
102
RTVSPost2010PropOp41
 70
     0
102
RTVSPost2010Prop42
 90
       50
102
RTVSPost2010PropOp42
 70
     0
102
RTVSPost2010Prop43
 90
        3
102
RTVSPost2010PropOp43
 70
     0
102
RTVSPost2010Prop44ColorIndex
 90
        5
102
RTVSPost2010Prop44ColorRGB
 90
      255
102
RTVSPost2010PropOp44
 70
     0
102
RTVSPost2010Prop45
280
     0
102
RTVSPost2010PropOp45
 70
     0
102
RTVSPost2010Prop46
 90
       50
102
RTVSPost2010PropOp46
 70
     0
102
RTVSPost2010Prop47
 90
       50
102
RTVSPost2010PropOp47
 70
     0
102
RTVSPost2010Prop48
 90
       50
102
RTVSPost2010PropOp48
 70
     0
102
RTVSPost2010Prop49
280
     0
102
RTVSPost2010PropOp49
 70
     0
102
RTVSPost2010Prop50
 90
       50
102
RTVSPost2010PropOp50
 70
     0
102
RTVSPost2010Prop51ColorIndex
 90
      256
102
RTVSPost2010Prop51ColorRGB
 90
-16777216
102
RTVSPost2010PropOp51
 70
     0
102
RTVSPost2010Prop52
140
1.0
102
RTVSPost2010PropOp52
 70
     0
102
RTVSPost2010Prop53
 90
        2
102
RTVSPost2010PropOp53
 70
     0
102
RTVSPost2010Prop54
  1
strokes_ogs.tif
102
RTVSPost2010PropOp54
 70
     0
102
RTVSPost2010Prop55
280
     0
102
RTVSPost2010PropOp55
 70
     0
102
RTVSPost2010Prop56
140
1.0
102
RTVSPost2010PropOp56
 70
     0
102
RTVSPost2010Prop57
140
1.0
102
RTVSPost2010PropOp57
 70
     0
  0
XRECORD
  5
29E
102
{ACAD_REACTORS
330
29D
102
}
330
29D
100
AcDbXrecord
280
     1
102
RTVSPropertyOp0
 70
     1
102
RTVSPropertyOp1
 70
     1
102
RTVSPropertyOp2
 70
     1
102
RTVSPropertyOp3
 70
     1
102
RTVSPropertyOp4
 70
     1
102
RTVSPropertyOp5
 70
     1
102
RTVSPropertyOp6
 70
     1
102
RTVSPropertyOp7
 70
     1
102
RTVSPropertyOp8
 70
     1
102
RTVSPropertyOp9
 70
     1
102
RTVSPropertyOp10
 70
     1
102
RTVSPropertyOp11
 70
     1
102
RTVSPropertyOp12
 70
     1
102
RTVSPropertyOp13
 70
     1
102
RTVSPropertyOp14
 70
     1
102
RTVSPropertyOp15
 70
     1
102
RTVSPropertyOp16
 70
     1
102
RTVSPropertyOp17
 70
     1
102
RTVSPropertyOp18
 70
     1
102
RTVSPropertyOp19
 70
     1
102
RTVSPropertyOp20
 70
     1
102
RTVSPropertyOp21
 70
     1
102
RTVSPropertyOp22
 70
     1
102
RTVSPropertyOp23
 70
     1
102
RTVSPropertyOp24
 70
     1
102
RTVSPropertyOp25
 70
     1
102
RTVSPropertyOp26
 70
     1
102
RTVSPropertyOp27
 70
     1
102
RTVSPropertyOp28
 70
     1
102
RTVSPropertyOp29
 70
     1
102
RTVSPropertyOp30
 70
     1
102
RTVSPropertyOp31
 70
     1
102
RTVSPropertyOp32
 70
     1
102
RTVSPropertyOp33
 70
     1
102
RTVSPropertyOp34
 70
     1
102
RTVSPropertyOp35
 70
     1
102
RTVSPropertyOp36
 70
     1
102
RTVSPropertyOp37
 70
     1
102
RTVSPropertyOp38
 70
     1
102
RTVSPropertyOp39
 70
     1
102
RTVSPropertyOp40
 70
     1
102
RTVSPropertyOp41
 70
     1
102
RTVSPropertyOp42
 70
     1
102
RTVSPropertyOp43
 70
     1
102
RTVSPropertyOp44
 70
     1
102
RTVSPropertyOp45
 70
     1
102
RTVSPropertyOp46
 70
     1
102
RTVSPropertyOp47
 70
     1
102
RTVSPropertyOp48
 70
     1
102
RTVSPropertyOp49
 70
     1
102
RTVSPropertyOp50
 70
     1
102
RTVSPropertyOp51
 70
     0
102
RTVSPropertyOp52
 70
     0
102
RTVSPropertyOp53
 70
     1
102
RTVSPropertyOp54
 70
     1
102
RTVSPropertyOp55
 70
     1
102
RTVSPropertyOp56
 70
     1
102
RTVSPropertyOp57
 70
     1
102
RTVSPost2010Prop28
280
     0
102
RTVSPost2010PropOp28
 70
     1
102
RTVSPost2010Prop29
280
     1
102
RTVSPost2010PropOp29
 70
     1
102
RTVSPost2010Prop30
280
     1
102
RTVSPost2010PropOp30
 70
     1
102
RTVSPost2010Prop31
280
     0
102
RTVSPost2010PropOp31
 70
     1
102
RTVSPost2010Prop32
280
     0
102
RTVSPost2010PropOp32
 70
     1
102
RTVSPost2010Prop33
280
     0
102
RTVSPost2010PropOp33
 70
     1
102
RTVSPost2010Prop34
280
     0
102
RTVSPost2010PropOp34
 70
     1
102
RTVSPost2010Prop35
280
     0
102
RTVSPost2010PropOp35
 70
     1
102
RTVSPost2010Prop36
280
     0
102
RTVSPost2010PropOp36
 70
     1
102
RTVSPost2010Prop37
 90
       50
102
RTVSPost2010PropOp37
 70
     1
102
RTVSPost2010Prop38
140
0.0
102
RTVSPost2010PropOp38
 70
     1
102
RTVSPost2010Prop39
140
1.0
102
RTVSPost2010PropOp39
 70
     1
102
RTVSPost2010Prop40
 90
        0
102
RTVSPost2010PropOp40
 70
     1
102
RTVSPost2010Prop41ColorIndex
 90
       18
102
RTVSPost2010Prop41ColorRGB
 90
        0
102
RTVSPost2010PropOp41
 70
     1
102
RTVSPost2010Prop42
 90
       50
102
RTVSPost2010PropOp42
 70
     1
102
RTVSPost2010Prop43
 90
        3
102
RTVSPost2010PropOp43
 70
     1
102
RTVSPost2010Prop44ColorIndex
 90
        5
102
RTVSPost2010Prop44ColorRGB
 90
      255
102
RTVSPost2010PropOp44
 70
     1
102
RTVSPost2010Prop45
280
     0
102
RTVSPost2010PropOp45
 70
     1
102
RTVSPost2010Prop46
 90
       50
102
RTVSPost2010PropOp46
 70
     1
102
RTVSPost2010Prop47
 90
       50
102
RTVSPost2010PropOp47
 70
     1
102
RTVSPost2010Prop48
 90
       50
102
RTVSPost2010PropOp48
 70
     1
102
RTVSPost2010Prop49
280
     0
102
RTVSPost2010PropOp49
 70
     1
102
RTVSPost2010Prop50
 90
       50
102
RTVSPost2010PropOp50
 70
     1
102
RTVSPost2010Prop51ColorIndex
 90
      256
102
RTVSPost2010Prop51ColorRGB
 90
-16777216
102
RTVSPost2010PropOp51
 70
     0
102
RTVSPost2010Prop52
140
1.0
102
RTVSPost2010PropOp52
 70
     0
102
RTVSPost2010Prop53
 90
        2
102
RTVSPost2010PropOp53
 70
     1
102
RTVSPost2010Prop54
  1
strokes_ogs.tif
102
RTVSPost2010PropOp54
 70
     1
102
RTVSPost2010Prop55
280
     0
102
RTVSPost2010PropOp55
 70
     1
102
RTVSPost2010Prop56
140
1.0
102
RTVSPost2010PropOp56
 70
     1
102
RTVSPost2010Prop57
140
1.0
102
RTVSPost2010PropOp57
 70
     1
  0
XRECORD
  5
2A6
102
{ACAD_REACTORS
330
2A5
102
}
330
2A5
100
AcDbXrecord
280
     1
102
RTVSPropertyOp0
 70
     0
102
RTVSPropertyOp1
 70
     0
102
RTVSPropertyOp2
 70
     0
102
RTVSPropertyOp3
 70
     0
102
RTVSPropertyOp4
 70
     0
102
RTVSPropertyOp5
 70
     0
102
RTVSPropertyOp6
 70
     0
102
RTVSPropertyOp7
 70
     0
102
RTVSPropertyOp8
 70
     0
102
RTVSPropertyOp9
 70
     0
102
RTVSPropertyOp10
 70
     0
102
RTVSPropertyOp11
 70
     0
102
RTVSPropertyOp12
 70
     0
102
RTVSPropertyOp13
 70
     0
102
RTVSPropertyOp14
 70
     2
102
RTVSPropertyOp15
 70
     0
102
RTVSPropertyOp16
 70
     0
102
RTVSPropertyOp17
 70
     0
102
RTVSPropertyOp18
 70
     0
102
RTVSPropertyOp19
 70
     0
102
RTVSPropertyOp20
 70
     0
102
RTVSPropertyOp21
 70
     0
102
RTVSPropertyOp22
 70
     0
102
RTVSPropertyOp23
 70
     0
102
RTVSPropertyOp24
 70
     0
102
RTVSPropertyOp25
 70
     0
102
RTVSPropertyOp26
 70
     0
102
RTVSPropertyOp27
 70
     0
102
RTVSPropertyOp28
 70
     0
102
RTVSPropertyOp29
 70
     0
102
RTVSPropertyOp30
 70
     0
102
RTVSPropertyOp31
 70
     0
102
RTVSPropertyOp32
 70
     0
102
RTVSPropertyOp33
 70
     0
102
RTVSPropertyOp34
 70
     0
102
RTVSPropertyOp35
 70
     0
102
RTVSPropertyOp36
 70
     0
102
RTVSPropertyOp37
 70
     0
102
RTVSPropertyOp38
 70
     0
102
RTVSPropertyOp39
 70
     0
102
RTVSPropertyOp40
 70
     0
102
RTVSPropertyOp41
 70
     0
102
RTVSPropertyOp42
 70
     0
102
RTVSPropertyOp43
 70
     0
102
RTVSPropertyOp44
 70
     0
102
RTVSPropertyOp45
 70
     0
102
RTVSPropertyOp46
 70
     0
102
RTVSPropertyOp47
 70
     0
102
RTVSPropertyOp48
 70
     0
102
RTVSPropertyOp49
 70
     0
102
RTVSPropertyOp50
 70
     0
102
RTVSPropertyOp51
 70
     0
102
RTVSPropertyOp52
 70
     0
102
RTVSPropertyOp53
 70
     0
102
RTVSPropertyOp54
 70
     0
102
RTVSPropertyOp55
 70
     0
102
RTVSPropertyOp56
 70
     0
102
RTVSPropertyOp57
 70
     0
102
RTVSPost2010Prop28
280
     0
102
RTVSPost2010PropOp28
 70
     0
102
RTVSPost2010Prop29
280
     1
102
RTVSPost2010PropOp29
 70
     0
102
RTVSPost2010Prop30
280
     1
102
RTVSPost2010PropOp30
 70
     0
102
RTVSPost2010Prop31
280
     0
102
RTVSPost2010PropOp31
 70
     0
102
RTVSPost2010Prop32
280
     0
102
RTVSPost2010PropOp32
 70
     0
102
RTVSPost2010Prop33
280
     0
102
RTVSPost2010PropOp33
 70
     0
102
RTVSPost2010Prop34
280
     0
102
RTVSPost2010PropOp34
 70
     0
102
RTVSPost2010Prop35
280
     0
102
RTVSPost2010PropOp35
 70
     0
102
RTVSPost2010Prop36
280
     0
102
RTVSPost2010PropOp36
 70
     0
102
RTVSPost2010Prop37
 90
       50
102
RTVSPost2010PropOp37
 70
     0
102
RTVSPost2010Prop38
140
0.0
102
RTVSPost2010PropOp38
 70
     0
102
RTVSPost2010Prop39
140
1.0
102
RTVSPost2010PropOp39
 70
     0
102
RTVSPost2010Prop40
 90
        0
102
RTVSPost2010PropOp40
 70
     0
102
RTVSPost2010Prop41ColorIndex
 90
       18
102
RTVSPost2010Prop41ColorRGB
 90
        0
102
RTVSPost2010PropOp41
 70
     0
102
RTVSPost2010Prop42
 90
       50
102
RTVSPost2010PropOp42
 70
     0
102
RTVSPost2010Prop43
 90
        3
102
RTVSPost2010PropOp43
 70
     0
102
RTVSPost2010Prop44ColorIndex
 90
        5
102
RTVSPost2010Prop44ColorRGB
 90
      255
102
RTVSPost2010PropOp44
 70
     0
102
RTVSPost2010Prop45
280
     0
102
RTVSPost2010PropOp45
 70
     0
102
RTVSPost2010Prop46
 90
       50
102
RTVSPost2010PropOp46
 70
     0
102
RTVSPost2010Prop47
 90
       50
102
RTVSPost2010PropOp47
 70
     0
102
RTVSPost2010Prop48
 90
       50
102
RTVSPost2010PropOp48
 70
     0
102
RTVSPost2010Prop49
280
     0
102
RTVSPost2010PropOp49
 70
     0
102
RTVSPost2010Prop50
 90
       50
102
RTVSPost2010PropOp50
 70
     0
102
RTVSPost2010Prop51ColorIndex
 90
      256
102
RTVSPost2010Prop51ColorRGB
 90
-16777216
102
RTVSPost2010PropOp51
 70
     0
102
RTVSPost2010Prop52
140
1.0
102
RTVSPost2010PropOp52
 70
     0
102
RTVSPost2010Prop53
 90
        2
102
RTVSPost2010PropOp53
 70
     0
102
RTVSPost2010Prop54
  1
strokes_ogs.tif
102
RTVSPost2010PropOp54
 70
     0
102
RTVSPost2010Prop55
280
     0
102
RTVSPost2010PropOp55
 70
     0
102
RTVSPost2010Prop56
140
1.0
102
RTVSPost2010PropOp56
 70
     0
102
RTVSPost2010Prop57
140
1.0
102
RTVSPost2010PropOp57
 70
     0
  0
XRECORD
  5
294
102
{ACAD_REACTORS
330
293
102
}
330
293
100
AcDbXrecord
280
     1
102
RTVSPropertyOp0
 70
     1
102
RTVSPropertyOp1
 70
     1
102
RTVSPropertyOp2
 70
     1
102
RTVSPropertyOp3
 70
     1
102
RTVSPropertyOp4
 70
     1
102
RTVSPropertyOp5
 70
     1
102
RTVSPropertyOp6
 70
     1
102
RTVSPropertyOp7
 70
     1
102
RTVSPropertyOp8
 70
     1
102
RTVSPropertyOp9
 70
     1
102
RTVSPropertyOp10
 70
     1
102
RTVSPropertyOp11
 70
     1
102
RTVSPropertyOp12
 70
     1
102
RTVSPropertyOp13
 70
     1
102
RTVSPropertyOp14
 70
     1
102
RTVSPropertyOp15
 70
     1
102
RTVSPropertyOp16
 70
     1
102
RTVSPropertyOp17
 70
     1
102
RTVSPropertyOp18
 70
     1
102
RTVSPropertyOp19
 70
     1
102
RTVSPropertyOp20
 70
     1
102
RTVSPropertyOp21
 70
     1
102
RTVSPropertyOp22
 70
     1
102
RTVSPropertyOp23
 70
     1
102
RTVSPropertyOp24
 70
     1
102
RTVSPropertyOp25
 70
     1
102
RTVSPropertyOp26
 70
     1
102
RTVSPropertyOp27
 70
     1
102
RTVSPropertyOp28
 70
     1
102
RTVSPropertyOp29
 70
     1
102
RTVSPropertyOp30
 70
     1
102
RTVSPropertyOp31
 70
     1
102
RTVSPropertyOp32
 70
     1
102
RTVSPropertyOp33
 70
     1
102
RTVSPropertyOp34
 70
     1
102
RTVSPropertyOp35
 70
     1
102
RTVSPropertyOp36
 70
     1
102
RTVSPropertyOp37
 70
     1
102
RTVSPropertyOp38
 70
     1
102
RTVSPropertyOp39
 70
     1
102
RTVSPropertyOp40
 70
     1
102
RTVSPropertyOp41
 70
     1
102
RTVSPropertyOp42
 70
     1
102
RTVSPropertyOp43
 70
     1
102
RTVSPropertyOp44
 70
     1
102
RTVSPropertyOp45
 70
     1
102
RTVSPropertyOp46
 70
     1
102
RTVSPropertyOp47
 70
     1
102
RTVSPropertyOp48
 70
     1
102
RTVSPropertyOp49
 70
     1
102
RTVSPropertyOp50
 70
     1
102
RTVSPropertyOp51
 70
     0
102
RTVSPropertyOp52
 70
     0
102
RTVSPropertyOp53
 70
     1
102
RTVSPropertyOp54
 70
     1
102
RTVSPropertyOp55
 70
     1
102
RTVSPropertyOp56
 70
     1
102
RTVSPropertyOp57
 70
     1
102
RTVSPost2010Prop28
280
     0
102
RTVSPost2010PropOp28
 70
     1
102
RTVSPost2010Prop29
280
     1
102
RTVSPost2010PropOp29
 70
     1
102
RTVSPost2010Prop30
280
     1
102
RTVSPost2010PropOp30
 70
     1
102
RTVSPost2010Prop31
280
     0
102
RTVSPost2010PropOp31
 70
     1
102
RTVSPost2010Prop32
280
     0
102
RTVSPost2010PropOp32
 70
     1
102
RTVSPost2010Prop33
280
     0
102
RTVSPost2010PropOp33
 70
     1
102
RTVSPost2010Prop34
280
     0
102
RTVSPost2010PropOp34
 70
     1
102
RTVSPost2010Prop35
280
     0
102
RTVSPost2010PropOp35
 70
     1
102
RTVSPost2010Prop36
280
     0
102
RTVSPost2010PropOp36
 70
     1
102
RTVSPost2010Prop37
 90
       50
102
RTVSPost2010PropOp37
 70
     1
102
RTVSPost2010Prop38
140
0.0
102
RTVSPost2010PropOp38
 70
     1
102
RTVSPost2010Prop39
140
1.0
102
RTVSPost2010PropOp39
 70
     1
102
RTVSPost2010Prop40
 90
        0
102
RTVSPost2010PropOp40
 70
     1
102
RTVSPost2010Prop41ColorIndex
 90
       18
102
RTVSPost2010Prop41ColorRGB
 90
        0
102
RTVSPost2010PropOp41
 70
     1
102
RTVSPost2010Prop42
 90
       50
102
RTVSPost2010PropOp42
 70
     1
102
RTVSPost2010Prop43
 90
        3
102
RTVSPost2010PropOp43
 70
     1
102
RTVSPost2010Prop44ColorIndex
 90
        5
102
RTVSPost2010Prop44ColorRGB
 90
      255
102
RTVSPost2010PropOp44
 70
     1
102
RTVSPost2010Prop45
280
     0
102
RTVSPost2010PropOp45
 70
     1
102
RTVSPost2010Prop46
 90
       50
102
RTVSPost2010PropOp46
 70
     1
102
RTVSPost2010Prop47
 90
       50
102
RTVSPost2010PropOp47
 70
     1
102
RTVSPost2010Prop48
 90
       50
102
RTVSPost2010PropOp48
 70
     1
102
RTVSPost2010Prop49
280
     0
102
RTVSPost2010PropOp49
 70
     1
102
RTVSPost2010Prop50
 90
       50
102
RTVSPost2010PropOp50
 70
     1
102
RTVSPost2010Prop51ColorIndex
 90
      256
102
RTVSPost2010Prop51ColorRGB
 90
-16777216
102
RTVSPost2010PropOp51
 70
     0
102
RTVSPost2010Prop52
140
1.0
102
RTVSPost2010PropOp52
 70
     0
102
RTVSPost2010Prop53
 90
        2
102
RTVSPost2010PropOp53
 70
     1
102
RTVSPost2010Prop54
  1
strokes_ogs.tif
102
RTVSPost2010PropOp54
 70
     1
102
RTVSPost2010Prop55
280
     0
102
RTVSPost2010PropOp55
 70
     1
102
RTVSPost2010Prop56
140
1.0
102
RTVSPost2010PropOp56
 70
     1
102
RTVSPost2010Prop57
140
1.0
102
RTVSPost2010PropOp57
 70
     1
  0
XRECORD
  5
2B2
102
{ACAD_REACTORS
330
2B1
102
}
330
2B1
100
AcDbXrecord
280
     1
102
RTVSPropertyOp0
 70
     1
102
RTVSPropertyOp1
 70
     1
102
RTVSPropertyOp2
 70
     1
102
RTVSPropertyOp3
 70
     1
102
RTVSPropertyOp4
 70
     1
102
RTVSPropertyOp5
 70
     1
102
RTVSPropertyOp6
 70
     1
102
RTVSPropertyOp7
 70
     1
102
RTVSPropertyOp8
 70
     1
102
RTVSPropertyOp9
 70
     1
102
RTVSPropertyOp10
 70
     1
102
RTVSPropertyOp11
 70
     1
102
RTVSPropertyOp12
 70
     1
102
RTVSPropertyOp13
 70
     1
102
RTVSPropertyOp14
 70
     1
102
RTVSPropertyOp15
 70
     1
102
RTVSPropertyOp16
 70
     1
102
RTVSPropertyOp17
 70
     1
102
RTVSPropertyOp18
 70
     1
102
RTVSPropertyOp19
 70
     1
102
RTVSPropertyOp20
 70
     1
102
RTVSPropertyOp21
 70
     1
102
RTVSPropertyOp22
 70
     1
102
RTVSPropertyOp23
 70
     1
102
RTVSPropertyOp24
 70
     1
102
RTVSPropertyOp25
 70
     1
102
RTVSPropertyOp26
 70
     1
102
RTVSPropertyOp27
 70
     1
102
RTVSPropertyOp28
 70
     1
102
RTVSPropertyOp29
 70
     1
102
RTVSPropertyOp30
 70
     1
102
RTVSPropertyOp31
 70
     1
102
RTVSPropertyOp32
 70
     1
102
RTVSPropertyOp33
 70
     1
102
RTVSPropertyOp34
 70
     1
102
RTVSPropertyOp35
 70
     1
102
RTVSPropertyOp36
 70
     1
102
RTVSPropertyOp37
 70
     1
102
RTVSPropertyOp38
 70
     1
102
RTVSPropertyOp39
 70
     1
102
RTVSPropertyOp40
 70
     1
102
RTVSPropertyOp41
 70
     1
102
RTVSPropertyOp42
 70
     1
102
RTVSPropertyOp43
 70
     1
102
RTVSPropertyOp44
 70
     1
102
RTVSPropertyOp45
 70
     1
102
RTVSPropertyOp46
 70
     1
102
RTVSPropertyOp47
 70
     1
102
RTVSPropertyOp48
 70
     1
102
RTVSPropertyOp49
 70
     1
102
RTVSPropertyOp50
 70
     1
102
RTVSPropertyOp51
 70
     0
102
RTVSPropertyOp52
 70
     0
102
RTVSPropertyOp53
 70
     1
102
RTVSPropertyOp54
 70
     1
102
RTVSPropertyOp55
 70
     1
102
RTVSPropertyOp56
 70
     1
102
RTVSPropertyOp57
 70
     1
102
RTVSPost2010Prop28
280
     0
102
RTVSPost2010PropOp28
 70
     1
102
RTVSPost2010Prop29
280
     1
102
RTVSPost2010PropOp29
 70
     1
102
RTVSPost2010Prop30
280
     1
102
RTVSPost2010PropOp30
 70
     1
102
RTVSPost2010Prop31
280
     0
102
RTVSPost2010PropOp31
 70
     1
102
RTVSPost2010Prop32
280
     0
102
RTVSPost2010PropOp32
 70
     1
102
RTVSPost2010Prop33
280
     0
102
RTVSPost2010PropOp33
 70
     1
102
RTVSPost2010Prop34
280
     0
102
RTVSPost2010PropOp34
 70
     1
102
RTVSPost2010Prop35
280
     0
102
RTVSPost2010PropOp35
 70
     1
102
RTVSPost2010Prop36
280
     0
102
RTVSPost2010PropOp36
 70
     1
102
RTVSPost2010Prop37
 90
       50
102
RTVSPost2010PropOp37
 70
     1
102
RTVSPost2010Prop38
140
0.0
102
RTVSPost2010PropOp38
 70
     1
102
RTVSPost2010Prop39
140
1.0
102
RTVSPost2010PropOp39
 70
     1
102
RTVSPost2010Prop40
 90
        0
102
RTVSPost2010PropOp40
 70
     1
102
RTVSPost2010Prop41ColorIndex
 90
       18
102
RTVSPost2010Prop41ColorRGB
 90
        0
102
RTVSPost2010PropOp41
 70
     1
102
RTVSPost2010Prop42
 90
       50
102
RTVSPost2010PropOp42
 70
     1
102
RTVSPost2010Prop43
 90
        3
102
RTVSPost2010PropOp43
 70
     1
102
RTVSPost2010Prop44ColorIndex
 90
        5
102
RTVSPost2010Prop44ColorRGB
 90
      255
102
RTVSPost2010PropOp44
 70
     1
102
RTVSPost2010Prop45
280
     0
102
RTVSPost2010PropOp45
 70
     1
102
RTVSPost2010Prop46
 90
       50
102
RTVSPost2010PropOp46
 70
     1
102
RTVSPost2010Prop47
 90
       50
102
RTVSPost2010PropOp47
 70
     1
102
RTVSPost2010Prop48
 90
       50
102
RTVSPost2010PropOp48
 70
     1
102
RTVSPost2010Prop49
280
     0
102
RTVSPost2010PropOp49
 70
     1
102
RTVSPost2010Prop50
 90
       50
102
RTVSPost2010PropOp50
 70
     1
102
RTVSPost2010Prop51ColorIndex
 90
      256
102
RTVSPost2010Prop51ColorRGB
 90
-16777216
102
RTVSPost2010PropOp51
 70
     0
102
RTVSPost2010Prop52
140
1.0
102
RTVSPost2010PropOp52
 70
     0
102
RTVSPost2010Prop53
 90
        2
102
RTVSPost2010PropOp53
 70
     1
102
RTVSPost2010Prop54
  1
strokes_ogs.tif
102
RTVSPost2010PropOp54
 70
     1
102
RTVSPost2010Prop55
280
     0
102
RTVSPost2010PropOp55
 70
     1
102
RTVSPost2010Prop56
140
1.0
102
RTVSPost2010PropOp56
 70
     1
102
RTVSPost2010Prop57
140
1.0
102
RTVSPost2010PropOp57
 70
     1
  0
XRECORD
  5
2B0
102
{ACAD_REACTORS
330
2AF
102
}
330
2AF
100
AcDbXrecord
280
     1
102
RTVSPropertyOp0
 70
     1
102
RTVSPropertyOp1
 70
     1
102
RTVSPropertyOp2
 70
     1
102
RTVSPropertyOp3
 70
     1
102
RTVSPropertyOp4
 70
     1
102
RTVSPropertyOp5
 70
     1
102
RTVSPropertyOp6
 70
     1
102
RTVSPropertyOp7
 70
     1
102
RTVSPropertyOp8
 70
     1
102
RTVSPropertyOp9
 70
     1
102
RTVSPropertyOp10
 70
     1
102
RTVSPropertyOp11
 70
     1
102
RTVSPropertyOp12
 70
     1
102
RTVSPropertyOp13
 70
     1
102
RTVSPropertyOp14
 70
     1
102
RTVSPropertyOp15
 70
     1
102
RTVSPropertyOp16
 70
     1
102
RTVSPropertyOp17
 70
     1
102
RTVSPropertyOp18
 70
     1
102
RTVSPropertyOp19
 70
     1
102
RTVSPropertyOp20
 70
     1
102
RTVSPropertyOp21
 70
     1
102
RTVSPropertyOp22
 70
     1
102
RTVSPropertyOp23
 70
     1
102
RTVSPropertyOp24
 70
     1
102
RTVSPropertyOp25
 70
     1
102
RTVSPropertyOp26
 70
     1
102
RTVSPropertyOp27
 70
     1
102
RTVSPropertyOp28
 70
     1
102
RTVSPropertyOp29
 70
     1
102
RTVSPropertyOp30
 70
     1
102
RTVSPropertyOp31
 70
     1
102
RTVSPropertyOp32
 70
     1
102
RTVSPropertyOp33
 70
     1
102
RTVSPropertyOp34
 70
     1
102
RTVSPropertyOp35
 70
     1
102
RTVSPropertyOp36
 70
     1
102
RTVSPropertyOp37
 70
     1
102
RTVSPropertyOp38
 70
     1
102
RTVSPropertyOp39
 70
     1
102
RTVSPropertyOp40
 70
     1
102
RTVSPropertyOp41
 70
     1
102
RTVSPropertyOp42
 70
     1
102
RTVSPropertyOp43
 70
     1
102
RTVSPropertyOp44
 70
     1
102
RTVSPropertyOp45
 70
     1
102
RTVSPropertyOp46
 70
     1
102
RTVSPropertyOp47
 70
     1
102
RTVSPropertyOp48
 70
     1
102
RTVSPropertyOp49
 70
     1
102
RTVSPropertyOp50
 70
     1
102
RTVSPropertyOp51
 70
     0
102
RTVSPropertyOp52
 70
     0
102
RTVSPropertyOp53
 70
     1
102
RTVSPropertyOp54
 70
     1
102
RTVSPropertyOp55
 70
     1
102
RTVSPropertyOp56
 70
     1
102
RTVSPropertyOp57
 70
     1
102
RTVSPost2010Prop28
280
     0
102
RTVSPost2010PropOp28
 70
     1
102
RTVSPost2010Prop29
280
     1
102
RTVSPost2010PropOp29
 70
     1
102
RTVSPost2010Prop30
280
     1
102
RTVSPost2010PropOp30
 70
     1
102
RTVSPost2010Prop31
280
     0
102
RTVSPost2010PropOp31
 70
     1
102
RTVSPost2010Prop32
280
     0
102
RTVSPost2010PropOp32
 70
     1
102
RTVSPost2010Prop33
280
     0
102
RTVSPost2010PropOp33
 70
     1
102
RTVSPost2010Prop34
280
     0
102
RTVSPost2010PropOp34
 70
     1
102
RTVSPost2010Prop35
280
     0
102
RTVSPost2010PropOp35
 70
     1
102
RTVSPost2010Prop36
280
     0
102
RTVSPost2010PropOp36
 70
     1
102
RTVSPost2010Prop37
 90
       50
102
RTVSPost2010PropOp37
 70
     1
102
RTVSPost2010Prop38
140
0.0
102
RTVSPost2010PropOp38
 70
     1
102
RTVSPost2010Prop39
140
1.0
102
RTVSPost2010PropOp39
 70
     1
102
RTVSPost2010Prop40
 90
        0
102
RTVSPost2010PropOp40
 70
     1
102
RTVSPost2010Prop41ColorIndex
 90
       18
102
RTVSPost2010Prop41ColorRGB
 90
        0
102
RTVSPost2010PropOp41
 70
     1
102
RTVSPost2010Prop42
 90
       50
102
RTVSPost2010PropOp42
 70
     1
102
RTVSPost2010Prop43
 90
        3
102
RTVSPost2010PropOp43
 70
     1
102
RTVSPost2010Prop44ColorIndex
 90
        5
102
RTVSPost2010Prop44ColorRGB
 90
      255
102
RTVSPost2010PropOp44
 70
     1
102
RTVSPost2010Prop45
280
     0
102
RTVSPost2010PropOp45
 70
     1
102
RTVSPost2010Prop46
 90
       50
102
RTVSPost2010PropOp46
 70
     1
102
RTVSPost2010Prop47
 90
       50
102
RTVSPost2010PropOp47
 70
     1
102
RTVSPost2010Prop48
 90
       50
102
RTVSPost2010PropOp48
 70
     1
102
RTVSPost2010Prop49
280
     0
102
RTVSPost2010PropOp49
 70
     1
102
RTVSPost2010Prop50
 90
       50
102
RTVSPost2010PropOp50
 70
     1
102
RTVSPost2010Prop51ColorIndex
 90
      256
102
RTVSPost2010Prop51ColorRGB
 90
-16777216
102
RTVSPost2010PropOp51
 70
     0
102
RTVSPost2010Prop52
140
1.0
102
RTVSPost2010PropOp52
 70
     0
102
RTVSPost2010Prop53
 90
        2
102
RTVSPost2010PropOp53
 70
     1
102
RTVSPost2010Prop54
  1
strokes_ogs.tif
102
RTVSPost2010PropOp54
 70
     1
102
RTVSPost2010Prop55
280
     0
102
RTVSPost2010PropOp55
 70
     1
102
RTVSPost2010Prop56
140
1.0
102
RTVSPost2010PropOp56
 70
     1
102
RTVSPost2010Prop57
140
1.0
102
RTVSPost2010PropOp57
 70
     1
  0
XRECORD
  5
2AA
102
{ACAD_REACTORS
330
2A9
102
}
330
2A9
100
AcDbXrecord
280
     1
102
RTVSPropertyOp0
 70
     1
102
RTVSPropertyOp1
 70
     1
102
RTVSPropertyOp2
 70
     1
102
RTVSPropertyOp3
 70
     1
102
RTVSPropertyOp4
 70
     1
102
RTVSPropertyOp5
 70
     1
102
RTVSPropertyOp6
 70
     1
102
RTVSPropertyOp7
 70
     1
102
RTVSPropertyOp8
 70
     1
102
RTVSPropertyOp9
 70
     1
102
RTVSPropertyOp10
 70
     1
102
RTVSPropertyOp11
 70
     1
102
RTVSPropertyOp12
 70
     1
102
RTVSPropertyOp13
 70
     1
102
RTVSPropertyOp14
 70
     1
102
RTVSPropertyOp15
 70
     1
102
RTVSPropertyOp16
 70
     1
102
RTVSPropertyOp17
 70
     1
102
RTVSPropertyOp18
 70
     1
102
RTVSPropertyOp19
 70
     1
102
RTVSPropertyOp20
 70
     1
102
RTVSPropertyOp21
 70
     1
102
RTVSPropertyOp22
 70
     1
102
RTVSPropertyOp23
 70
     1
102
RTVSPropertyOp24
 70
     1
102
RTVSPropertyOp25
 70
     1
102
RTVSPropertyOp26
 70
     1
102
RTVSPropertyOp27
 70
     1
102
RTVSPropertyOp28
 70
     1
102
RTVSPropertyOp29
 70
     1
102
RTVSPropertyOp30
 70
     1
102
RTVSPropertyOp31
 70
     1
102
RTVSPropertyOp32
 70
     1
102
RTVSPropertyOp33
 70
     1
102
RTVSPropertyOp34
 70
     1
102
RTVSPropertyOp35
 70
     1
102
RTVSPropertyOp36
 70
     1
102
RTVSPropertyOp37
 70
     1
102
RTVSPropertyOp38
 70
     1
102
RTVSPropertyOp39
 70
     1
102
RTVSPropertyOp40
 70
     1
102
RTVSPropertyOp41
 70
     1
102
RTVSPropertyOp42
 70
     1
102
RTVSPropertyOp43
 70
     1
102
RTVSPropertyOp44
 70
     1
102
RTVSPropertyOp45
 70
     1
102
RTVSPropertyOp46
 70
     1
102
RTVSPropertyOp47
 70
     1
102
RTVSPropertyOp48
 70
     1
102
RTVSPropertyOp49
 70
     1
102
RTVSPropertyOp50
 70
     1
102
RTVSPropertyOp51
 70
     0
102
RTVSPropertyOp52
 70
     0
102
RTVSPropertyOp53
 70
     1
102
RTVSPropertyOp54
 70
     1
102
RTVSPropertyOp55
 70
     1
102
RTVSPropertyOp56
 70
     1
102
RTVSPropertyOp57
 70
     1
102
RTVSPost2010Prop28
280
     0
102
RTVSPost2010PropOp28
 70
     1
102
RTVSPost2010Prop29
280
     1
102
RTVSPost2010PropOp29
 70
     1
102
RTVSPost2010Prop30
280
     1
102
RTVSPost2010PropOp30
 70
     1
102
RTVSPost2010Prop31
280
     0
102
RTVSPost2010PropOp31
 70
     1
102
RTVSPost2010Prop32
280
     0
102
RTVSPost2010PropOp32
 70
     1
102
RTVSPost2010Prop33
280
     0
102
RTVSPost2010PropOp33
 70
     1
102
RTVSPost2010Prop34
280
     0
102
RTVSPost2010PropOp34
 70
     1
102
RTVSPost2010Prop35
280
     0
102
RTVSPost2010PropOp35
 70
     1
102
RTVSPost2010Prop36
280
     0
102
RTVSPost2010PropOp36
 70
     1
102
RTVSPost2010Prop37
 90
       50
102
RTVSPost2010PropOp37
 70
     1
102
RTVSPost2010Prop38
140
0.0
102
RTVSPost2010PropOp38
 70
     1
102
RTVSPost2010Prop39
140
1.0
102
RTVSPost2010PropOp39
 70
     1
102
RTVSPost2010Prop40
 90
        0
102
RTVSPost2010PropOp40
 70
     1
102
RTVSPost2010Prop41ColorIndex
 90
       18
102
RTVSPost2010Prop41ColorRGB
 90
        0
102
RTVSPost2010PropOp41
 70
     1
102
RTVSPost2010Prop42
 90
       50
102
RTVSPost2010PropOp42
 70
     1
102
RTVSPost2010Prop43
 90
        3
102
RTVSPost2010PropOp43
 70
     1
102
RTVSPost2010Prop44ColorIndex
 90
        5
102
RTVSPost2010Prop44ColorRGB
 90
      255
102
RTVSPost2010PropOp44
 70
     1
102
RTVSPost2010Prop45
280
     0
102
RTVSPost2010PropOp45
 70
     1
102
RTVSPost2010Prop46
 90
       50
102
RTVSPost2010PropOp46
 70
     1
102
RTVSPost2010Prop47
 90
       50
102
RTVSPost2010PropOp47
 70
     1
102
RTVSPost2010Prop48
 90
       50
102
RTVSPost2010PropOp48
 70
     1
102
RTVSPost2010Prop49
280
     0
102
RTVSPost2010PropOp49
 70
     1
102
RTVSPost2010Prop50
 90
       50
102
RTVSPost2010PropOp50
 70
     1
102
RTVSPost2010Prop51ColorIndex
 90
      256
102
RTVSPost2010Prop51ColorRGB
 90
-16777216
102
RTVSPost2010PropOp51
 70
     0
102
RTVSPost2010Prop52
140
1.0
102
RTVSPost2010PropOp52
 70
     0
102
RTVSPost2010Prop53
 90
        2
102
RTVSPost2010PropOp53
 70
     1
102
RTVSPost2010Prop54
  1
strokes_ogs.tif
102
RTVSPost2010PropOp54
 70
     1
102
RTVSPost2010Prop55
280
     0
102
RTVSPost2010PropOp55
 70
     1
102
RTVSPost2010Prop56
140
1.0
102
RTVSPost2010PropOp56
 70
     1
102
RTVSPost2010Prop57
140
1.0
102
RTVSPost2010PropOp57
 70
     1
  0
XRECORD
  5
2AC
102
{ACAD_REACTORS
330
2AB
102
}
330
2AB
100
AcDbXrecord
280
     1
102
RTVSPropertyOp0
 70
     1
102
RTVSPropertyOp1
 70
     1
102
RTVSPropertyOp2
 70
     1
102
RTVSPropertyOp3
 70
     1
102
RTVSPropertyOp4
 70
     1
102
RTVSPropertyOp5
 70
     1
102
RTVSPropertyOp6
 70
     1
102
RTVSPropertyOp7
 70
     1
102
RTVSPropertyOp8
 70
     1
102
RTVSPropertyOp9
 70
     1
102
RTVSPropertyOp10
 70
     1
102
RTVSPropertyOp11
 70
     1
102
RTVSPropertyOp12
 70
     1
102
RTVSPropertyOp13
 70
     1
102
RTVSPropertyOp14
 70
     1
102
RTVSPropertyOp15
 70
     1
102
RTVSPropertyOp16
 70
     1
102
RTVSPropertyOp17
 70
     1
102
RTVSPropertyOp18
 70
     1
102
RTVSPropertyOp19
 70
     1
102
RTVSPropertyOp20
 70
     1
102
RTVSPropertyOp21
 70
     1
102
RTVSPropertyOp22
 70
     1
102
RTVSPropertyOp23
 70
     1
102
RTVSPropertyOp24
 70
     1
102
RTVSPropertyOp25
 70
     1
102
RTVSPropertyOp26
 70
     1
102
RTVSPropertyOp27
 70
     1
102
RTVSPropertyOp28
 70
     1
102
RTVSPropertyOp29
 70
     1
102
RTVSPropertyOp30
 70
     1
102
RTVSPropertyOp31
 70
     1
102
RTVSPropertyOp32
 70
     1
102
RTVSPropertyOp33
 70
     1
102
RTVSPropertyOp34
 70
     1
102
RTVSPropertyOp35
 70
     1
102
RTVSPropertyOp36
 70
     1
102
RTVSPropertyOp37
 70
     1
102
RTVSPropertyOp38
 70
     1
102
RTVSPropertyOp39
 70
     1
102
RTVSPropertyOp40
 70
     1
102
RTVSPropertyOp41
 70
     1
102
RTVSPropertyOp42
 70
     1
102
RTVSPropertyOp43
 70
     1
102
RTVSPropertyOp44
 70
     1
102
RTVSPropertyOp45
 70
     1
102
RTVSPropertyOp46
 70
     1
102
RTVSPropertyOp47
 70
     1
102
RTVSPropertyOp48
 70
     1
102
RTVSPropertyOp49
 70
     1
102
RTVSPropertyOp50
 70
     1
102
RTVSPropertyOp51
 70
     0
102
RTVSPropertyOp52
 70
     0
102
RTVSPropertyOp53
 70
     1
102
RTVSPropertyOp54
 70
     1
102
RTVSPropertyOp55
 70
     1
102
RTVSPropertyOp56
 70
     1
102
RTVSPropertyOp57
 70
     1
102
RTVSPost2010Prop28
280
     0
102
RTVSPost2010PropOp28
 70
     1
102
RTVSPost2010Prop29
280
     1
102
RTVSPost2010PropOp29
 70
     1
102
RTVSPost2010Prop30
280
     1
102
RTVSPost2010PropOp30
 70
     1
102
RTVSPost2010Prop31
280
     0
102
RTVSPost2010PropOp31
 70
     1
102
RTVSPost2010Prop32
280
     0
102
RTVSPost2010PropOp32
 70
     1
102
RTVSPost2010Prop33
280
     0
102
RTVSPost2010PropOp33
 70
     1
102
RTVSPost2010Prop34
280
     0
102
RTVSPost2010PropOp34
 70
     1
102
RTVSPost2010Prop35
280
     0
102
RTVSPost2010PropOp35
 70
     1
102
RTVSPost2010Prop36
280
     0
102
RTVSPost2010PropOp36
 70
     1
102
RTVSPost2010Prop37
 90
       50
102
RTVSPost2010PropOp37
 70
     1
102
RTVSPost2010Prop38
140
0.0
102
RTVSPost2010PropOp38
 70
     1
102
RTVSPost2010Prop39
140
1.0
102
RTVSPost2010PropOp39
 70
     1
102
RTVSPost2010Prop40
 90
        0
102
RTVSPost2010PropOp40
 70
     1
102
RTVSPost2010Prop41ColorIndex
 90
       18
102
RTVSPost2010Prop41ColorRGB
 90
        0
102
RTVSPost2010PropOp41
 70
     1
102
RTVSPost2010Prop42
 90
       50
102
RTVSPost2010PropOp42
 70
     1
102
RTVSPost2010Prop43
 90
        3
102
RTVSPost2010PropOp43
 70
     1
102
RTVSPost2010Prop44ColorIndex
 90
        5
102
RTVSPost2010Prop44ColorRGB
 90
      255
102
RTVSPost2010PropOp44
 70
     1
102
RTVSPost2010Prop45
280
     0
102
RTVSPost2010PropOp45
 70
     1
102
RTVSPost2010Prop46
 90
       50
102
RTVSPost2010PropOp46
 70
     1
102
RTVSPost2010Prop47
 90
       50
102
RTVSPost2010PropOp47
 70
     1
102
RTVSPost2010Prop48
 90
       50
102
RTVSPost2010PropOp48
 70
     1
102
RTVSPost2010Prop49
280
     0
102
RTVSPost2010PropOp49
 70
     1
102
RTVSPost2010Prop50
 90
       50
102
RTVSPost2010PropOp50
 70
     1
102
RTVSPost2010Prop51ColorIndex
 90
      256
102
RTVSPost2010Prop51ColorRGB
 90
-16777216
102
RTVSPost2010PropOp51
 70
     0
102
RTVSPost2010Prop52
140
1.0
102
RTVSPost2010PropOp52
 70
     0
102
RTVSPost2010Prop53
 90
        2
102
RTVSPost2010PropOp53
 70
     1
102
RTVSPost2010Prop54
  1
strokes_ogs.tif
102
RTVSPost2010PropOp54
 70
     1
102
RTVSPost2010Prop55
280
     0
102
RTVSPost2010PropOp55
 70
     1
102
RTVSPost2010Prop56
140
1.0
102
RTVSPost2010PropOp56
 70
     1
102
RTVSPost2010Prop57
140
1.0
102
RTVSPost2010PropOp57
 70
     1
  0
XRECORD
  5
29C
102
{ACAD_REACTORS
330
29B
102
}
330
29B
100
AcDbXrecord
280
     1
102
RTVSPropertyOp0
 70
     1
102
RTVSPropertyOp1
 70
     1
102
RTVSPropertyOp2
 70
     1
102
RTVSPropertyOp3
 70
     1
102
RTVSPropertyOp4
 70
     1
102
RTVSPropertyOp5
 70
     1
102
RTVSPropertyOp6
 70
     1
102
RTVSPropertyOp7
 70
     1
102
RTVSPropertyOp8
 70
     1
102
RTVSPropertyOp9
 70
     1
102
RTVSPropertyOp10
 70
     1
102
RTVSPropertyOp11
 70
     1
102
RTVSPropertyOp12
 70
     1
102
RTVSPropertyOp13
 70
     1
102
RTVSPropertyOp14
 70
     1
102
RTVSPropertyOp15
 70
     1
102
RTVSPropertyOp16
 70
     1
102
RTVSPropertyOp17
 70
     1
102
RTVSPropertyOp18
 70
     1
102
RTVSPropertyOp19
 70
     1
102
RTVSPropertyOp20
 70
     1
102
RTVSPropertyOp21
 70
     1
102
RTVSPropertyOp22
 70
     1
102
RTVSPropertyOp23
 70
     1
102
RTVSPropertyOp24
 70
     1
102
RTVSPropertyOp25
 70
     1
102
RTVSPropertyOp26
 70
     1
102
RTVSPropertyOp27
 70
     1
102
RTVSPropertyOp28
 70
     1
102
RTVSPropertyOp29
 70
     1
102
RTVSPropertyOp30
 70
     1
102
RTVSPropertyOp31
 70
     1
102
RTVSPropertyOp32
 70
     1
102
RTVSPropertyOp33
 70
     1
102
RTVSPropertyOp34
 70
     1
102
RTVSPropertyOp35
 70
     1
102
RTVSPropertyOp36
 70
     1
102
RTVSPropertyOp37
 70
     1
102
RTVSPropertyOp38
 70
     1
102
RTVSPropertyOp39
 70
     1
102
RTVSPropertyOp40
 70
     1
102
RTVSPropertyOp41
 70
     1
102
RTVSPropertyOp42
 70
     1
102
RTVSPropertyOp43
 70
     1
102
RTVSPropertyOp44
 70
     1
102
RTVSPropertyOp45
 70
     1
102
RTVSPropertyOp46
 70
     1
102
RTVSPropertyOp47
 70
     1
102
RTVSPropertyOp48
 70
     1
102
RTVSPropertyOp49
 70
     1
102
RTVSPropertyOp50
 70
     1
102
RTVSPropertyOp51
 70
     0
102
RTVSPropertyOp52
 70
     0
102
RTVSPropertyOp53
 70
     1
102
RTVSPropertyOp54
 70
     1
102
RTVSPropertyOp55
 70
     1
102
RTVSPropertyOp56
 70
     1
102
RTVSPropertyOp57
 70
     1
102
RTVSPost2010Prop28
280
     0
102
RTVSPost2010PropOp28
 70
     1
102
RTVSPost2010Prop29
280
     1
102
RTVSPost2010PropOp29
 70
     1
102
RTVSPost2010Prop30
280
     1
102
RTVSPost2010PropOp30
 70
     1
102
RTVSPost2010Prop31
280
     0
102
RTVSPost2010PropOp31
 70
     1
102
RTVSPost2010Prop32
280
     0
102
RTVSPost2010PropOp32
 70
     1
102
RTVSPost2010Prop33
280
     0
102
RTVSPost2010PropOp33
 70
     1
102
RTVSPost2010Prop34
280
     0
102
RTVSPost2010PropOp34
 70
     1
102
RTVSPost2010Prop35
280
     0
102
RTVSPost2010PropOp35
 70
     1
102
RTVSPost2010Prop36
280
     0
102
RTVSPost2010PropOp36
 70
     1
102
RTVSPost2010Prop37
 90
       50
102
RTVSPost2010PropOp37
 70
     1
102
RTVSPost2010Prop38
140
0.0
102
RTVSPost2010PropOp38
 70
     1
102
RTVSPost2010Prop39
140
1.0
102
RTVSPost2010PropOp39
 70
     1
102
RTVSPost2010Prop40
 90
        0
102
RTVSPost2010PropOp40
 70
     1
102
RTVSPost2010Prop41ColorIndex
 90
       18
102
RTVSPost2010Prop41ColorRGB
 90
        0
102
RTVSPost2010PropOp41
 70
     1
102
RTVSPost2010Prop42
 90
       50
102
RTVSPost2010PropOp42
 70
     1
102
RTVSPost2010Prop43
 90
        3
102
RTVSPost2010PropOp43
 70
     1
102
RTVSPost2010Prop44ColorIndex
 90
        5
102
RTVSPost2010Prop44ColorRGB
 90
      255
102
RTVSPost2010PropOp44
 70
     1
102
RTVSPost2010Prop45
280
     0
102
RTVSPost2010PropOp45
 70
     1
102
RTVSPost2010Prop46
 90
       50
102
RTVSPost2010PropOp46
 70
     1
102
RTVSPost2010Prop47
 90
       50
102
RTVSPost2010PropOp47
 70
     1
102
RTVSPost2010Prop48
 90
       50
102
RTVSPost2010PropOp48
 70
     1
102
RTVSPost2010Prop49
280
     0
102
RTVSPost2010PropOp49
 70
     1
102
RTVSPost2010Prop50
 90
       50
102
RTVSPost2010PropOp50
 70
     1
102
RTVSPost2010Prop51ColorIndex
 90
      256
102
RTVSPost2010Prop51ColorRGB
 90
-16777216
102
RTVSPost2010PropOp51
 70
     0
102
RTVSPost2010Prop52
140
1.0
102
RTVSPost2010PropOp52
 70
     0
102
RTVSPost2010Prop53
 90
        2
102
RTVSPost2010PropOp53
 70
     1
102
RTVSPost2010Prop54
  1
strokes_ogs.tif
102
RTVSPost2010PropOp54
 70
     1
102
RTVSPost2010Prop55
280
     0
102
RTVSPost2010PropOp55
 70
     1
102
RTVSPost2010Prop56
140
1.0
102
RTVSPost2010PropOp56
 70
     1
102
RTVSPost2010Prop57
140
1.0
102
RTVSPost2010PropOp57
 70
     1
  0
XRECORD
  5
28E
102
{ACAD_REACTORS
330
28D
102
}
330
28D
100
AcDbXrecord
280
     1
102
RTVSPropertyOp0
 70
     1
102
RTVSPropertyOp1
 70
     1
102
RTVSPropertyOp2
 70
     1
102
RTVSPropertyOp3
 70
     1
102
RTVSPropertyOp4
 70
     1
102
RTVSPropertyOp5
 70
     1
102
RTVSPropertyOp6
 70
     1
102
RTVSPropertyOp7
 70
     1
102
RTVSPropertyOp8
 70
     1
102
RTVSPropertyOp9
 70
     1
102
RTVSPropertyOp10
 70
     1
102
RTVSPropertyOp11
 70
     1
102
RTVSPropertyOp12
 70
     1
102
RTVSPropertyOp13
 70
     1
102
RTVSPropertyOp14
 70
     1
102
RTVSPropertyOp15
 70
     1
102
RTVSPropertyOp16
 70
     1
102
RTVSPropertyOp17
 70
     1
102
RTVSPropertyOp18
 70
     1
102
RTVSPropertyOp19
 70
     1
102
RTVSPropertyOp20
 70
     1
102
RTVSPropertyOp21
 70
     1
102
RTVSPropertyOp22
 70
     1
102
RTVSPropertyOp23
 70
     1
102
RTVSPropertyOp24
 70
     1
102
RTVSPropertyOp25
 70
     1
102
RTVSPropertyOp26
 70
     1
102
RTVSPropertyOp27
 70
     1
102
RTVSPropertyOp28
 70
     1
102
RTVSPropertyOp29
 70
     1
102
RTVSPropertyOp30
 70
     1
102
RTVSPropertyOp31
 70
     1
102
RTVSPropertyOp32
 70
     1
102
RTVSPropertyOp33
 70
     1
102
RTVSPropertyOp34
 70
     1
102
RTVSPropertyOp35
 70
     1
102
RTVSPropertyOp36
 70
     1
102
RTVSPropertyOp37
 70
     1
102
RTVSPropertyOp38
 70
     1
102
RTVSPropertyOp39
 70
     1
102
RTVSPropertyOp40
 70
     1
102
RTVSPropertyOp41
 70
     1
102
RTVSPropertyOp42
 70
     1
102
RTVSPropertyOp43
 70
     1
102
RTVSPropertyOp44
 70
     1
102
RTVSPropertyOp45
 70
     1
102
RTVSPropertyOp46
 70
     1
102
RTVSPropertyOp47
 70
     1
102
RTVSPropertyOp48
 70
     1
102
RTVSPropertyOp49
 70
     1
102
RTVSPropertyOp50
 70
     1
102
RTVSPropertyOp51
 70
     0
102
RTVSPropertyOp52
 70
     0
102
RTVSPropertyOp53
 70
     1
102
RTVSPropertyOp54
 70
     1
102
RTVSPropertyOp55
 70
     1
102
RTVSPropertyOp56
 70
     1
102
RTVSPropertyOp57
 70
     1
102
RTVSPost2010Prop28
280
     0
102
RTVSPost2010PropOp28
 70
     1
102
RTVSPost2010Prop29
280
     1
102
RTVSPost2010PropOp29
 70
     1
102
RTVSPost2010Prop30
280
     1
102
RTVSPost2010PropOp30
 70
     1
102
RTVSPost2010Prop31
280
     0
102
RTVSPost2010PropOp31
 70
     1
102
RTVSPost2010Prop32
280
     0
102
RTVSPost2010PropOp32
 70
     1
102
RTVSPost2010Prop33
280
     0
102
RTVSPost2010PropOp33
 70
     1
102
RTVSPost2010Prop34
280
     0
102
RTVSPost2010PropOp34
 70
     1
102
RTVSPost2010Prop35
280
     0
102
RTVSPost2010PropOp35
 70
     1
102
RTVSPost2010Prop36
280
     0
102
RTVSPost2010PropOp36
 70
     1
102
RTVSPost2010Prop37
 90
       50
102
RTVSPost2010PropOp37
 70
     1
102
RTVSPost2010Prop38
140
0.0
102
RTVSPost2010PropOp38
 70
     1
102
RTVSPost2010Prop39
140
1.0
102
RTVSPost2010PropOp39
 70
     1
102
RTVSPost2010Prop40
 90
        0
102
RTVSPost2010PropOp40
 70
     1
102
RTVSPost2010Prop41ColorIndex
 90
       18
102
RTVSPost2010Prop41ColorRGB
 90
        0
102
RTVSPost2010PropOp41
 70
     1
102
RTVSPost2010Prop42
 90
       50
102
RTVSPost2010PropOp42
 70
     1
102
RTVSPost2010Prop43
 90
        3
102
RTVSPost2010PropOp43
 70
     1
102
RTVSPost2010Prop44ColorIndex
 90
        5
102
RTVSPost2010Prop44ColorRGB
 90
      255
102
RTVSPost2010PropOp44
 70
     1
102
RTVSPost2010Prop45
280
     0
102
RTVSPost2010PropOp45
 70
     1
102
RTVSPost2010Prop46
 90
       50
102
RTVSPost2010PropOp46
 70
     1
102
RTVSPost2010Prop47
 90
       50
102
RTVSPost2010PropOp47
 70
     1
102
RTVSPost2010Prop48
 90
       50
102
RTVSPost2010PropOp48
 70
     1
102
RTVSPost2010Prop49
280
     0
102
RTVSPost2010PropOp49
 70
     1
102
RTVSPost2010Prop50
 90
       50
102
RTVSPost2010PropOp50
 70
     1
102
RTVSPost2010Prop51ColorIndex
 90
      256
102
RTVSPost2010Prop51ColorRGB
 90
-16777216
102
RTVSPost2010PropOp51
 70
     0
102
RTVSPost2010Prop52
140
1.0
102
RTVSPost2010PropOp52
 70
     0
102
RTVSPost2010Prop53
 90
        2
102
RTVSPost2010PropOp53
 70
     1
102
RTVSPost2010Prop54
  1
strokes_ogs.tif
102
RTVSPost2010PropOp54
 70
     1
102
RTVSPost2010Prop55
280
     0
102
RTVSPost2010PropOp55
 70
     1
102
RTVSPost2010Prop56
140
1.0
102
RTVSPost2010PropOp56
 70
     1
102
RTVSPost2010Prop57
140
1.0
102
RTVSPost2010PropOp57
 70
     1
  0
XRECORD
  5
2AE
102
{ACAD_REACTORS
330
2AD
102
}
330
2AD
100
AcDbXrecord
280
     1
102
RTVSPropertyOp0
 70
     1
102
RTVSPropertyOp1
 70
     1
102
RTVSPropertyOp2
 70
     1
102
RTVSPropertyOp3
 70
     1
102
RTVSPropertyOp4
 70
     1
102
RTVSPropertyOp5
 70
     1
102
RTVSPropertyOp6
 70
     1
102
RTVSPropertyOp7
 70
     1
102
RTVSPropertyOp8
 70
     1
102
RTVSPropertyOp9
 70
     1
102
RTVSPropertyOp10
 70
     1
102
RTVSPropertyOp11
 70
     1
102
RTVSPropertyOp12
 70
     1
102
RTVSPropertyOp13
 70
     1
102
RTVSPropertyOp14
 70
     1
102
RTVSPropertyOp15
 70
     1
102
RTVSPropertyOp16
 70
     1
102
RTVSPropertyOp17
 70
     1
102
RTVSPropertyOp18
 70
     1
102
RTVSPropertyOp19
 70
     1
102
RTVSPropertyOp20
 70
     1
102
RTVSPropertyOp21
 70
     1
102
RTVSPropertyOp22
 70
     1
102
RTVSPropertyOp23
 70
     1
102
RTVSPropertyOp24
 70
     1
102
RTVSPropertyOp25
 70
     1
102
RTVSPropertyOp26
 70
     1
102
RTVSPropertyOp27
 70
     1
102
RTVSPropertyOp28
 70
     1
102
RTVSPropertyOp29
 70
     1
102
RTVSPropertyOp30
 70
     1
102
RTVSPropertyOp31
 70
     1
102
RTVSPropertyOp32
 70
     1
102
RTVSPropertyOp33
 70
     1
102
RTVSPropertyOp34
 70
     1
102
RTVSPropertyOp35
 70
     1
102
RTVSPropertyOp36
 70
     1
102
RTVSPropertyOp37
 70
     1
102
RTVSPropertyOp38
 70
     1
102
RTVSPropertyOp39
 70
     1
102
RTVSPropertyOp40
 70
     1
102
RTVSPropertyOp41
 70
     1
102
RTVSPropertyOp42
 70
     1
102
RTVSPropertyOp43
 70
     1
102
RTVSPropertyOp44
 70
     1
102
RTVSPropertyOp45
 70
     1
102
RTVSPropertyOp46
 70
     1
102
RTVSPropertyOp47
 70
     1
102
RTVSPropertyOp48
 70
     1
102
RTVSPropertyOp49
 70
     1
102
RTVSPropertyOp50
 70
     1
102
RTVSPropertyOp51
 70
     0
102
RTVSPropertyOp52
 70
     0
102
RTVSPropertyOp53
 70
     1
102
RTVSPropertyOp54
 70
     1
102
RTVSPropertyOp55
 70
     1
102
RTVSPropertyOp56
 70
     1
102
RTVSPropertyOp57
 70
     1
102
RTVSPost2010Prop28
280
     0
102
RTVSPost2010PropOp28
 70
     1
102
RTVSPost2010Prop29
280
     1
102
RTVSPost2010PropOp29
 70
     1
102
RTVSPost2010Prop30
280
     1
102
RTVSPost2010PropOp30
 70
     1
102
RTVSPost2010Prop31
280
     0
102
RTVSPost2010PropOp31
 70
     1
102
RTVSPost2010Prop32
280
     0
102
RTVSPost2010PropOp32
 70
     1
102
RTVSPost2010Prop33
280
     0
102
RTVSPost2010PropOp33
 70
     1
102
RTVSPost2010Prop34
280
     0
102
RTVSPost2010PropOp34
 70
     1
102
RTVSPost2010Prop35
280
     0
102
RTVSPost2010PropOp35
 70
     1
102
RTVSPost2010Prop36
280
     0
102
RTVSPost2010PropOp36
 70
     1
102
RTVSPost2010Prop37
 90
       50
102
RTVSPost2010PropOp37
 70
     1
102
RTVSPost2010Prop38
140
0.0
102
RTVSPost2010PropOp38
 70
     1
102
RTVSPost2010Prop39
140
1.0
102
RTVSPost2010PropOp39
 70
     1
102
RTVSPost2010Prop40
 90
        0
102
RTVSPost2010PropOp40
 70
     1
102
RTVSPost2010Prop41ColorIndex
 90
       18
102
RTVSPost2010Prop41ColorRGB
 90
        0
102
RTVSPost2010PropOp41
 70
     1
102
RTVSPost2010Prop42
 90
       50
102
RTVSPost2010PropOp42
 70
     1
102
RTVSPost2010Prop43
 90
        3
102
RTVSPost2010PropOp43
 70
     1
102
RTVSPost2010Prop44ColorIndex
 90
        5
102
RTVSPost2010Prop44ColorRGB
 90
      255
102
RTVSPost2010PropOp44
 70
     1
102
RTVSPost2010Prop45
280
     0
102
RTVSPost2010PropOp45
 70
     1
102
RTVSPost2010Prop46
 90
       50
102
RTVSPost2010PropOp46
 70
     1
102
RTVSPost2010Prop47
 90
       50
102
RTVSPost2010PropOp47
 70
     1
102
RTVSPost2010Prop48
 90
       50
102
RTVSPost2010PropOp48
 70
     1
102
RTVSPost2010Prop49
280
     0
102
RTVSPost2010PropOp49
 70
     1
102
RTVSPost2010Prop50
 90
       50
102
RTVSPost2010PropOp50
 70
     1
102
RTVSPost2010Prop51ColorIndex
 90
      256
102
RTVSPost2010Prop51ColorRGB
 90
-16777216
102
RTVSPost2010PropOp51
 70
     0
102
RTVSPost2010Prop52
140
1.0
102
RTVSPost2010PropOp52
 70
     0
102
RTVSPost2010Prop53
 90
        2
102
RTVSPost2010PropOp53
 70
     1
102
RTVSPost2010Prop54
  1
strokes_ogs.tif
102
RTVSPost2010PropOp54
 70
     1
102
RTVSPost2010Prop55
280
     0
102
RTVSPost2010PropOp55
 70
     1
102
RTVSPost2010Prop56
140
1.0
102
RTVSPost2010PropOp56
 70
     1
102
RTVSPost2010Prop57
140
1.0
102
RTVSPost2010PropOp57
 70
     1
  0
ENDSEC
  0
SECTION
  2
THUMBNAILIMAGE
 90
    16364
310
28000000B40000005500000001000800000000000000000000000000000000000000000000000000FFFFFF00FF000000FFFF000000FF000000FFFF000000FF00FF00FF000000000080808000C0C0C000FF000000FF7F7F00A5000000A55252007F0000007F3F3F004C0000004C2626002600000026131300FF3F0000FF9F7F
310
00A5290000A56752007F1F00007F4F3F004C1300004C2F26002609000026171300FF7F0000FFBF7F00A5520000A57C52007F3F00007F5F3F004C2600004C39260026130000261C1300FFBF0000FFDF7F00A57C0000A59152007F5F00007F6F3F004C3900004C422600261C000026211300FFFF0000FFFF7F00A5A50000A5A5
310
52007F7F00007F7F3F004C4C00004C4C26002626000026261300BFFF0000DFFF7F007CA5000091A552005F7F00006F7F3F00394C0000424C26001C260000212613007FFF0000BFFF7F0052A500007CA552003F7F00005F7F3F00264C0000394C2600132600001C2613003FFF00009FFF7F0029A5000067A552001F7F00004F
310
7F3F00134C00002F4C2600092600001726130000FF00007FFF7F0000A5000052A55200007F00003F7F3F00004C0000264C2600002600001326130000FF3F007FFF9F0000A5290052A56700007F1F003F7F4F00004C1300264C2F00002609001326170000FF7F007FFFBF0000A5520052A57C00007F3F003F7F5F00004C2600
310
264C39000026130013261C0000FFBF007FFFDF0000A57C0052A59100007F5F003F7F6F00004C3900264C420000261C001326210000FFFF007FFFFF0000A5A50052A5A500007F7F003F7F7F00004C4C00264C4C00002626001326260000BFFF007FDFFF00007CA5005291A500005F7F003F6F7F0000394C0026424C00001C26
310
0013212600007FFF007FBFFF000052A500527CA500003F7F003F5F7F0000264C0026394C0000132600131C2600003FFF007F9FFF000029A5005267A500001F7F003F4F7F0000134C00262F4C0000092600131726000000FF007F7FFF000000A5005252A50000007F003F3F7F0000004C0026264C0000002600131326003F00
310
FF009F7FFF002900A5006752A5001F007F004F3F7F0013004C002F264C0009002600171326007F00FF00BF7FFF005200A5007C52A5003F007F005F3F7F0026004C0039264C00130026001C132600BF00FF00DF7FFF007C00A5009152A5005F007F006F3F7F0039004C0042264C001C00260021132600FF00FF00FF7FFF00A5
310
00A500A552A5007F007F007F3F7F004C004C004C264C002600260026132600FF00BF00FF7FDF00A5007C00A55291007F005F007F3F6F004C0039004C26420026001C0026132100FF007F00FF7FBF00A5005200A5527C007F003F007F3F5F004C0026004C2639002600130026131C00FF003F00FF7F9F00A5002900A5526700
310
7F001F007F3F4F004C0013004C262F002600090026131700000000002D2D2D005B5B5B0089898900B7B7B700B3B3B30000000000000000000000000000000000000000000000000000000000000000000000000000000000000000000000000000000000000000000000000000000000000000000000000000000000000000
310
00000000000000000000000000000000000000000000000000000000000000000000000000000000000000000000000000000000000000000000000000000000000000000000000000000000000000000000000000000000000000000000000000000000000000000000000000000000000000000000000000000000000000
310
00000000000000000000000000000000000000000000000000000000000000000000000000000000000000000000000000000000000000000000000000000000000000000000000000000000000000000000000000000000000000000000000000000000000000000000000000000000000000000000000000000000000000
310
00000000000000000000000000000000000000000000000000000000000000000000000000000000000000000000000000000000000000000000000000000000000000000000000000000000000000000000000000000000000000000000000000000000000000000000000000000000000000000000000000000000000000
310
00000000000000000000000000000000000000000000000000000000000000000000000000000000000000000000000000000000000000000000000000000000000000000000000000000000000000000000000000000000000000000000000000000000000000000000000000000000000000000000000000000000000000
310
00000000000000000000000000000000000000000000000000000000000000000000000000000000000000000000000000000000000000000000000000000000000000000000000000000000000000000000000000000000000000000000000000000000000000000000000000000000000000000000000000000000000000
310
00000000000000000000000000000000000000000000000000000000000000000000000000000000000000000000000000000000000000000000000000000000000000000000000000000000000000000000000000000000000000000000000000000000000000000000000000000000000000000000000000000000000000
310
00000000000000000000000000000000000000000000000000000000000000000000006767676767000067006767676767000000000000000000000000000000000000000000000000000000000000000000000000000000000000000000000000000000000000000000000000000000000000000000000000000000000000
310
00000000000000000000000000000000000000009800000000000000000000980000000000000000000000000000000000000000000000000000000000000000000000000000000000000000000000000000000000000000676767676767006700676767676700000000000000000000000000000000000000000000000000
310
00000000000000000000000000000000000000000000000000000000000000000000000000000000000000000000000000000000000000000000000000000000000000000000000098989898989898989800989898000000000000000000000000000000000000000000000000000000000000000000000000000000000000
310
00000000000000000000000000006767676767676767676767676767000000000000000000000000000000000000000000000000000000000000000000000000000000000000000000000000000000000000000000000000000000000000000000000000000000000000000000000000000000000000000000000000009898
310
98989898989898989898989800000000000000000000000000000000000000000000000000000000000000000000000000000000000000000000000000000000000000676767676767676700676767676700000000000000000000000000000000000000000000000000000000000000000000000000000000000000000000
310
00000000000000000000000000000000000000000000000000000000000000000000000000000000000000000000000000000000980000989898009898980098000000000000000000000000000000000000000000000000000000000000000000000000000000000000000000000000000000000000000067676767676767
310
67006767676767000000000000000000000000000000000000000000000000000000000000000000000000000000000000000000000000000000000000000000000000000000000000000000000000000000000000000000000000000000000000000000000000000098009898989898980098989800000000000000000000
310
00000000000000000000000000000000000000000000000000000000000000000000000000000000000000000000006767000000006700676767670000000000000000000000000000000000000000000000000000000000000000000000000000000000000000000000000000000000000000000000000000000000000000
310
00000000000000000000000000000000000000000000000000000000000000980098980000989800989898000000000000000000000000000000000000000000000000000000000000000000000000000000000000000000000000000000000000000000000000000000000000000000000000000000000000000000000000
310
00000000000000000000000000000000000000000000000000000000000000000000000000000000000000000000000000000000000000000000000000000000000000000000000000000000000000000000000098000000000000000000009800000000000000000000000000000000000000000000000000000000000000
310
00000000000000000000000000000000000000000000000000000000000000000000000000000000000000000000000000000000000000000000000000000000000000000000000000000000000000000000000000000000000000000000000000000000000000000000000000000000000000000000000000000000000000
310
00000000000000000000980000000000000000000098000000000000000000000000000000000000000000000000000000000000000000000000000000000000000000000000000000000000000067670067670067670000006767676767676767676700006700000000000000000000000000000000000000000000000000
310
00000000000000000000000000000000000000980000000000009800989898989898980000980000000000000000000000000000000000000000000000000098000000000000000000009800000000000000000000000000000000000000000000000000000000000000000000000000000000000000000000000000000000
310
00000067676767676700676700000067006700670000670067000067000000000000000202020202020202020202020202020202020202020202020202020202020202020200009898989898989898989898989898989898989898980000000000000000000000000000000000000000000000009800000000000000000000
310
98000000000000000000000000000000000000000000000000000000000000000000000000000000000000000000000000000000000000000000676767006767676767006700670000670067676767676700000000000000000202020200020002020000000202020200020202000202020202000000000000000200989800
310
00000000000098000098000098980000989800000000000000000000000000000000000000000000000098000000000000000000009800000000000000000000000000000000000000000000000000000000000000000000000000000000000000000000000000000000000000676700006700676767006767670067676767
310
67670067676767000000000000000002020002020200020202020202020202020002020002020202020000000000000000020098000000000000989800009898000098000098000000000000000000000000000000000000000000000000009800000000000000000000980000000000000000000000000000000000000000
310
00000000000000000000000000000000000000000000000000000000000000000000006767676767000067676767676700676767676767676700676700000000000000000002000200020002020200000202020202020002000202020202000000000000000000029800000000000098009898989898009800009800000000
310
00000000000000000000000000000000000000000098000000009800000098009800000000000000000000000000000000000000000000000000000000000000000000000000000000000000000000000000000000000000000000000000000000000000000000000000000000000000670000000000000000000000000000
310
00000000000000000000000000000000000000000000000000000000000002000000000098989800989800009800000098000000000000000000000000000000000000000000000000009898989898980000009800980000009800989898000000000000000000000000000000000000000000000000000000000000000000
310
00000000000000000000000000000000000000000000000000000000000000000000000000000000000000000000000000000000000000000000000000000000000000000000000000000000000000000000000200000000000000000000000000000000009800000000000000000000000000000000000000000000000000
310
98989898989898989898989898989898989898980000000000000000000000000000000000000000000000000000000000000000000000000000000000000000000000000000000000000000000000000000000000000000000000000000000000000000000000000000000000000000000000000000000000000000000000
310
00000000000000000098020000000000000000000000000000000098000202020202020202020202020202020000000000000000009800980000989800009800980098989898000098000000000000000000000000000000000000000000000000000000000000000000000000000000000000000000000000000000000000
310
00000000000000000000000000000000000000000000000000000000000000000000000000000000000000000000000000000000000000000000000000009800020000000000000000000000000000009800000202020202020202020202000202020000000000000000989898989898000000980098000098980000989800
310
00000000000000000000000000000098980098980000000000000000000000000000000000000000000000000000000000000000000000000000000000000000000000000000000000000000000000000000000000000000000000000000000000000000000000000000000000000000000000980000020000000000000000
310
00000000000098000002000000020000000200020202000002000000000000009898989898980000009800980000009800989898000000000000000000000000000000009898989898000000000000000000000000000000000000000000000000000000000000000000000000000000000000000000000000000000000000
310
00000000000000000000000000000000000000000000000000000000000000000000000000000000009800000002000000000000000000000000009800000202020002000000020000000200000002000000000000980000000098000000980098000000000000000000000000000000000000000000000000009898009800
310
00000000000000000000000000000000000000000000000000000000000000000000000000000000000000000000000000000000000000000000000000000000000000000000000000000000000000000000000000000000000000000000980000000002000000000000000000000000980000020000000200000002000200
310
02000000000200000000009800000000980000009800980000000000000000000000000000000000000000000000000098989898000000000000000000000000000000000000000000000000000000000000000000000000000000000000000000000000000000000000000000000000000000000000000000000000000000
310
00000000000000000000000000000000000000009800000000000200000000000000000000009800000202020202000000000202000200000000000200000000980000000098000000980098000000000000000000000000000000000000000000000000980098009800000000000000000000000000000000000000000000
310
00000000000000000000000000000000000000000000000000000000000000000000000000000000000000000000000000000000000000000000000000000000000000000000000000980000000000000200000000000000000000060000000000000000000000000000000000000000020000000098000000009800000098
310
00980000000000000000000000000000000000000000000000009898989898000000000000000000000000000000000000000000000000000000000000000000000000000000000000000000000000000000000000000000000000000000000000000000000000000000000000000000009800009898000000000000000098
310
000000000000020002B5B5000000000000060000000000000000000000000000000000000000000200000098B5B5000098000000980098000000000000000000000000000000000000000000000000000000009800000000000000000000000000000000000000000000000000000000000000000000000000000000000000
310
00000000000000000000000000000000000000000000000000000000000000000000000000000098009800980000000000000000980000000000000003030303030000000000060000000000000000060000000000000000000000000002000303030303989898989898989898989898989898989898989898989898989898
310
98989898989898989898989898989898989898989898989898000000000000000000000000000000000000000000000000000000000000000000000000000000000000000000000000000000000000000000000000000000000000009898989898989898989898989898000303030303030303030303030303030303030303
310
03030303030303030303030303030000000000000203980300030098000000980098000000000000000000000000000000000000000000000000000000009898000000000000000000000098000000000000000000000000000000000000000000000000000000000000000000000000000000000000000000000000000000
310
000000000000000000000000000000000000009898989800000000000000009800030000000000B5020202B50000000000060000000000000000060000000000000003000000000000020398030203989898989898989898989898989898989898989898989898989898989898989898989898989898000000000000000000
310
00980000000000000000000000000000000000000000000000000000000000000000000000000000000000000000000000000000000000000000000000000000000000000000009800989898989898989898980003030303030303030303030303030303030303030303030303030303030303030303030303030303030303
310
03030303030398030303980303989898989898989898989898989898989800000000000000000000009800000000000000000000000098000000000000000000000000000000000000000000000000000000000000000000000000000000000000000000000000000000000000000000000000000000000000000000989898
310
98980000000000000000030000000000000000B5B5000000000000000600000000000000000600000000000000000000000000000000B5B50000000200000098000300000000000000009800000000009800000000000000000000000000980000000000000000000000009800000000000000000000000000000000000000
310
00000000000000000000000000000000000000000000000000000000000000000000000000000000000000000000000000000000980098000000000000000003000000000000000000000000000000000006000000000000000006000000000000000000000000000000000000000002010102989898989898989898989898
310
98989800000098000000000000000000000000009800000000000000000000000098000000000000000000000000000000000000000000000000000000000000000000000000000000000000000000000000000000000000000000000000000000000000000000000000009800000000000000000300000000000000000000
310
00000000000000060000000000000000060000000000000000000000000000000000000000000101000101000300000000000000009800989898989800000000000000000000000000980000000000000000000000009800000000000000000000000000000000000000000000000000000000000000000000000000000000
310
00000000000000000000000000000000000000000000000000000000000000000098000000000000000003000000000000000000000000000000000000000000000000000006000000000000000000000000000000000000000000020202010102989898989898989898989898989898989898000000000000000000000098
310
00000000000000000000000098000000000000000000000000000000000000000000000000000000000000000000000000000000000000000000000000000000000000000000000000000000000000000000980000989800000000000000000300000000000000000000000000000000000000000000000000000600000000
310
00000000000000000000000000000000000002020002020300000000989898989800980098989800000000000000000000000000980000000000000000000000989800000000000000000000000000000000000000000000000000000000000000000000000000000000000000000000000000000000000000000000000000
310
00000000000000009800980098000000000000000003000000000000000000000000000000000000000000000000000006000000000000000000000000000000000000000000000000020002030000000000009800980000980000980000000000000000009800000098000000000000000000980098980000000000000000
310
00000000000000000000000000000000000000000000000000000000000000000000000000000000000000000000000000000000000000000000000000989898989800000000000000000300000000000000000000000000000000000000000000000000000605000000000000000000000000000000000000000000000002
310
00000300000000989898989800989898989800000000000000000098009800980000000000000000989898989800000000000000000000000000000000000000000000000000000000000000000000000000000000000000000000000000000000000000000000000000000000000000000098000098980000000000000000
310
03000000000000000000000000000000000000000000000000000506000500000000000000000000000000000000000000000000000200030000000098000098980000000000980000000000000000009898989898000000000000000000000098980000000000000000000000000000000000000000000000000000000000
310
00000000000000000000000000000000000000000000000000000000000000000000000000000000980098009800000000000000000300000000000000000000000000000000000000000000000005000600050000000000000000000000000000000000000000000000020003020000009898989898000000000098000000
310
00000000000098000000980000000000000000989800009800000000000000000000000000000000000000000000000000000000000000000000000000000000000000000000000000000000000000000000000000000000000000000098989898980000000000060606030606060606060606060606060606060606060606
310
06060606050606060605060606060606060606060606060606060606060606060602030206060000989800980000000000000000000000000000009800000098000000000000000098989898980000000000000000000000000000000000000000000000000000000000000000000000000000000000000000000000000000
310
00000000000000000000000000000000000000000098009800000000000000000300000000000000000000000000000000000000000000000000050605050000000000000000000000000000000000000000000000000203000200000000000000000000000000000000000000000000989898989800000000000000009800
310
00009800000000000000000000000000000000000000000000000000000000000000000000000000000000000000000000000000000000000000000000000000000000000000000098989898980000000000000000030000000000000000000000000000000000000000000000000000060000000000000000000000000000
310
00000000000000000000000000030002000000000000000000000000000000000000000000000098989898000000000000000098000000980000000000000000000000000000000000000000000000000000000000000000000000000000000000000000000000000000000000000000000000000000000000000000009800
310
00009800000000000000000300000000000000000000000000000000000000000000000000000600000000000000000000000000000000000000000000000000000003000002000000000000000000000000000000000000000000989800009800000000000000009800989898000000000000000000000000000000000000
310
00000000000000000000000000000000000000000000000000000000000000000000000000000000000000000000000000000000989898980000000000000000030000000000000000000000000000000000000000000000000000060000000000000000000000000000000000000000000000000000000302000200000000
310
00000000000000000000000000000000009898000098000000000000000098980000980000000000000000000000000000000000000000000000000000000000000000000000000000000000000000000000000000000000000000000000000000000000000000000000000098000000000000000003000000000000000000
310
00000000000000000000000000000000000600000000000000000000000000000000000000000000000000000003020000020000000000000000000000000000000000000000009898989800000000000000000000000098000000000000000000000000000000000000000000000000000000000000000000000000000000
310
00000000000000000000000000000000000000000000000000000000000000000000980000000000000000030000000000000000000000000000000000000000000000000000060000000000000000000000000000000000000000000000000000000300020002000000000000000000000000000000000000000000000000
310
98000000000000000000000000980000000000000000000000000000000000000000000000000000000000000000000000000000000000000000000000000000000000000000000000000000000000000000000000000098000000000000000003000000000000000000000000000000000000000000000000000006000000
310
00000000000000000000000000000000000000000000000003000002000200000000000000000000000000000000000000000000009800000000000000000000000098000000000000000000000000000000000000000000000000000000000000000000000000000000000000000000000000000000000000000000000000
310
0000000000000000000000000098000000000000000003000000000000000000B5B5000000000000000000000000000000060000000000000000000000000000000000B5B500000000000000000300000200020000000000000000000000000000000000000000000000980000000000000000000000009800000000000000
310
00000000000000000000000000000000000000000000000000000000000000000000000000000000000000000000000000000000000000000000000000000000989898989898989898980003030303030303030303030303030303030303030303030303030303030303030303030303030303030303030303030303030303
310
03030303000000020002000000000000000000000000000000000000000000009800000000000000000000000098000000000000000000000000000000000000000000000000000000000000000000000000000000000000000000000000000000000000000000000000000000000000000000000000009800000000000000
310
00000000000000000003030302030000000000000000000000000000060000000000000000000000000000000302030203989898989898989898989802989802989898989898989898989898989898989898989898989898000000000000000000009800000000000000000000000000000000000000000000000000000000
310
00000000000000000000000000000000000000000000000000000000000000000000000000000000000000000000000000000000000098000000000000000303030303000000000000000000000000000006000000000000000000000000000000030303030398989898989898989898989802980298989898989898989898
310
98989898989898989898989898989898989898989898989898989800000000000000000000000000000000000000000000000000000000000000000000000000000000000000000000000000000000000000000000000000000000000000000000000000000000000000009800000000000000020202B5B500000000000000
310
0000000000000006000000000000000000000000000000B50002B5B5000000000000009800000000020000020000000000000000000000000000000098989898989800000000000000000000009800000000000000000000000000000000000000000000000000000000000000000000000000000000000000000000000000
310
000000000000000000000000000000000000000000000000000000000000000000980000000000000200B598000000000000000000000000000000000600000000000000000000000000000000B5B5000000000000000000980000000000020002000000000000000000000000000000000000000098000000000000000000
310
00000000000000000000000000000000000000000000000000000000000000000000000000000000000000000000000000000000000000000000000000000000000000000000000000000000000000000000000000009800000000000200000098000000000000000000000000000000000000000000000000000000000000
310
00000000980000000000000000009800000000000200000200000000000000000000000000000000989800980000000000000000000000000000000000000000000000000000000000000000000000000000000000000000000000000000000000000000000000000000000000000000000000000000000000000000000000
310
00000000000000000000000098000000000002000000980000000000000000000000000000000000000000000000000000000000000000000098000000000000000000980000000000000200020000000000000000000000000000009898009898000000000000000000000000000000000000000000000000000000000000
310
00000000000000000000000000000000000000000000000000000000000000000000000000000000000000000000000000000000000000000000000000000000009800000000020000000098000000000000000000000000000000000000000000000000000000000000000000009800000000000000000098000000000000
310
02000002000000000000000000000000000000989898980000000000000000000000000000000000000000000000000000000000000000000000000000000000000000000000000000000000000000000000000000000000000000000000000000000000000000000000000000000000000000000000980000000200000000
310
00980000000000000000000000000000000000000000000000000000000000000000000098000000000000000000980000000000000002000200000000000000000000000000000000000098000000000000000000000000000000000000000000000000000000000000000000000000000000000000000000000000000000
310
00000000000000000000000000000000000000000000000000000000000000000000000000000000000000009800000200000000000098000000000000000000000000000000000000000000000000000000000000000000009800000000000000000098000000000000000002000200000000000000000000000000000000
310
00000000000000000000000000000000000000000000000000000000000000000000000000000000000000000000000000000000000000000000000000000000000000000000000000000000000000000000000000000000000000000000000000980002000000000000009800000000000000000000000000000000000000
310
00000000000000000000000000000098000000000000000000980000000000000000020002000000000000000000000000000000000000000000000000000000000000000000000000000000000000000000000000000000000000000000000000000000000000000000000000000000000000000000000000000000000000
310
00000000000000000000000000000000000000000000009802000000000000000098000000000000000000000000000000000000000000000000000000000000000000009800000000000000000098000000000000000000020002000000000000000000000000000000000000000000000000000000000000000000000000
310
00000000000000000000000000000000000000000000000000000000000000000000000000000000000000000000000000000000000000000000000000000000000000000000000000000000020000000000000000009800000000000000000000000000000000000000000000000000000000000000000000980000000000
310
00000000980000000000000000000200020000000000000000000000000000000000000000000000000000000000000000000000000000000000000000000000000000000000000000000000000000000000000000000000000000000000000000000000000000000000000000000000000000000000000000000000000000
310
00029800000000000000000098000000000000000000000000000000000000000000000000000000000000000000009800000000000000000098000000000000000000000200020202020202020202020202020202020202020202020202020202000000000000000000000000000000000000000000000000000000000000
310
00000000000000000000000000000000000000000000000000000000000000000000000000000000000000000000000000000000000298980098009898009898989800000000000000000000000000989898989898009898980000000000000000000000980098009800009898989800000000000000000000020000000002
310
00020202020202020000020202020202020202000000000000000000000000000000000000000000000000000000000000000000000000000000000000000000000000000000000000000000000000000000000000000000000000000000000000000000000000000002009898989898989898989898989898989898989898
310
98989898989898989898989898989898989898989898989898989898989898989898989898980000000000000000000002000000020202020202020202020002020202020202020202000000000000000000000000000000000000000000000000000000000000000000000000000000000000000000000000000000000000
310
00000000000000000000000000000000000000000000000000000000000000020000980098000098009898989800000000000000000000000000989898980000989800980000000000000000000000980098000098009898989800000000000000000000000200000002020202020202020202000202020202020202020000
310
00000000000000000000000000000000000000000000000000000000000000000000000000000000000000000000000000000000000000000000000000000000000000000000000000000000000000000000000200000098989800009800980000000000000000000000000000000098009898989800980098000000000000
310
00000000000098980000980098000098000000000000000000000000020000020202020202000202000202020202020202020200000000000000000000000000000000000000000000000000000000000000000000000000000000000000000000000000000000000000000000000000000000000000000000000000000000
310
00000000000000000200000000980098009898980098980000000000000000000000000000989898009898009898980000000000000000000000000098009898989898989800000000000000000000000002000000000000000000000200000000000000000000000000000000000000000000000000000000000000000000
310
00000000000000000000000000000000000000000000000000000000000000000000000000000000000000000000000000000000000000000000000002000000000098000000000000000000000000000000000000000000000000000000000000000000000000000000000000000000000000000000000000980000000000
310
00000000000000000200000000000000000000000000000000000000000000000000000000000000000000000000000000000000000000000000000000000000000000000000000000000000000000020202020202020202020202020202020202020202020202020202020202020202020200020200009800000000000000
310
00000000000000000000000000000000000000000000000000000000000000000000000000000000000000000000009800000000000000000000000000020000000000000000000000000000000000000000000000000000000000000000000000000000000000000000000000000000000000000000000000000000000000
310
00000000000000000202020200000200000000020000000000000002000200000000020202020202000200000098000000000000000000000000000000000000000000000000000000000000000000000000000000000000000000000000000000000000980000000000000000000000000000020202020202020202020202
310
02020202020202020200000000000000000000000000000000000000000000000000000000000000000000000000000000000000000000000000000000020202020202020000000000020002020202000200020000000002000202000200020000009800000000000000000000000000000000000000000000000000000000
310
00000000000000000000000000000000000000000000000000009800000000000000000000000000000002020202020202020202020202020202020200000000000000000000000000000000000000000000000000000000000000000000000000000000000000000000000000000000000002020002000002000000000200
310
02000000000002000200000000020200020002020200000098000000000000000000000000000000000000000000000098000098980000980000000000000000000000000000000000000000000000980000000000000000000000000000000202020200020202020202020002020202000000000000000000000000000000
310
00000000000000000000000000000000000000000000000000000000000000000000000000000000000200020000020000000002020200000000000200020000000000000000000000020000989898989898989898989898989898989898989898989898989898989898989898989898989898989898989898989898989898
310
98989898989898000000000000000000000000000002020202000002020202020200020202020200000000000000000000000000000000000000000000000000000000000000000000000000000000000000000000000000000000000000000000000000000000000000000000000000000000000000000000000000000000
310
00009898000000000000000000000000000000000000000000000098980000009898009800000000000000000000000000000000000000000000980000000000000000000000000000000202020200000002000002020002020202000000000000000000000000000000000000000000000000000000000000000000000000
310
00000000000000000000000000000000000000000000000000000000000000000000000000000000000000000000000000000000000000009800000000000000000000000000000000000000000000980098989898989800980000000000000000000000000000000000000000000098000000000000000000000000000000
310
00000000000000000000000000000000000000000000000000000000000000000000000000000000000000000000000000000000000000000000000000000000000000000000000000000000000000000000000000000000000000000000000000000000000000000000000000000000000000000000000000000000000000
310
00000000009898989898000098009800000000000000000000000000000000000000000000000000000000000000000000000000000000000000000000000000000000000000000000000000000000000000000000000000000000000000000000000000000000000000000000000000000000000000000000000000000000
310
00000000000000000000000000000000000000000000000000000000000000000000000000000000000000000000000000000000000000000000009800009898000098000000000000000000000000000000000000000000000000000000000000000000000000000000000000000000000000000000000000000000000000
310
00000000000000000000000000000000000000000000000000000000000000000000000000000000000000000000000000000000000000000000000000000000000000000000000000000000000000000000000000000000000000000000000000000000000000000000000000000000000000000000000000000000000000
310
00000000000000000000000000000000000000000000000000000000000000000000000000000000000000000000000000000000000000000000000000000000000000000000000000000000000000000000000000000000000000000000000000000000000000000000000000000000000000000000000000000000000000
310
00000000000000000000000000000000000000000000000000000000000000000000000000000000000000000000000000000000000000000000000000000000000000000000000000000000000000000000000000000000000000000000000000000000000000000000000000000000000000000000000000000000000000
310
00000000000000000000000000000000000000000000000000000000000000000000000000000000000000000000000000000000000000000000000000000000000000000000000000000000000000000000000000000000000000000000000000000000000000000000000000000000000000000000000000000000000000
310
00000000000000000000000000000000000000000000000000000000000000000000000000000000000000000000000000000000000000000000000000000000000000000000000000000000000000000000000000000000000000000000000000000000000000000000000000000000000000000000000000000000000000
310
00000000000000000000000000000000000000000000000000000000000000000000000000000000000000000000000000000000000000000000000000000000000000000000000000000000000000000000000000000000000000000000000000000000000000000000000000000000000000000000000000000000000000
310
00000000000000000000000000000000000000000000000000000000000000000000000000000000000000000000000000000000000000000000000000000000000000000000000000000000000000000000000000000000000000000000000000000000000000000000000000000000000000000000000000000000000000
310
00000000000000000000000000000000000000000000000000000000000000000000000000000000000000000000000000000000000000000000000000000000000000000000000000000000000000000000000000000000000000000000000000000000000000000000000000000000000000000000000000000000000000
310
000000000000000000000000000000000000000000000000000000000000000000000000000000000000000000000000000000000000000000000000000000000000000000000000000000000000000000000000000000000000000000000000000000000000000000000000
  0
ENDSEC
  0
EOF
