  0
SECTION
  2
HEADER
  9
$ACADVER
  1
AC1018
  9
$ACADMAINTVER
 70
     0
  9
$DWGCODEPAGE
  3
ANSI_932
  9
$INSBASE
 10
0.0
 20
0.0
 30
0.0
  9
$EXTMIN
 10
-1379.511848791542
 20
-716.2674525061793
 30
0.0
  9
$EXTMAX
 10
2003.110407451727
 20
1564.554680353067
 30
0.0
  9
$LIMMIN
 10
-1379.511848791542
 20
-716.2674525061793
  9
$LIMMAX
 10
2003.110407451727
 20
1564.554680353067
  9
$ORTHOMODE
 70
     0
  9
$REGENMODE
 70
     1
  9
$FILLMODE
 70
     1
  9
$QTEXTMODE
 70
     0
  9
$MIRRTEXT
 70
     1
  9
$LTSCALE
 40
1.0
  9
$ATTMODE
 70
     1
  9
$TEXTSIZE
 40
0.2
  9
$TRACEWID
 40
0.05
  9
$TEXTSTYLE
  7
Standard
  9
$CLAYER
  8
SIZE
  9
$CELTYPE
  6
ByLayer
  9
$CECOLOR
 62
   256
  9
$CELTSCALE
 40
1.0
  9
$DISPSILH
 70
     0
  9
$DIMSCALE
 40
1.0
  9
$DIMASZ
 40
0.18
  9
$DIMEXO
 40
0.0625
  9
$DIMDLI
 40
0.38
  9
$DIMRND
 40
0.0
  9
$DIMDLE
 40
0.0
  9
$DIMEXE
 40
0.18
  9
$DIMTP
 40
0.0
  9
$DIMTM
 40
0.0
  9
$DIMTXT
 40
0.18
  9
$DIMCEN
 40
0.09
  9
$DIMTSZ
 40
0.0
  9
$DIMTOL
 70
     0
  9
$DIMLIM
 70
     0
  9
$DIMTIH
 70
     1
  9
$DIMTOH
 70
     1
  9
$DIMSE1
 70
     0
  9
$DIMSE2
 70
     0
  9
$DIMTAD
 70
     0
  9
$DIMZIN
 70
     0
  9
$DIMBLK
  1

  9
$DIMASO
 70
     1
  9
$DIMSHO
 70
     1
  9
$DIMPOST
  1

  9
$DIMAPOST
  1

  9
$DIMALT
 70
     0
  9
$DIMALTD
 70
     2
  9
$DIMALTF
 40
25.4
  9
$DIMLFAC
 40
1.0
  9
$DIMTOFL
 70
     0
  9
$DIMTVP
 40
0.0
  9
$DIMTIX
 70
     0
  9
$DIMSOXD
 70
     0
  9
$DIMSAH
 70
     0
  9
$DIMBLK1
  1

  9
$DIMBLK2
  1

  9
$DIMSTYLE
  2
Standard
  9
$DIMCLRD
 70
     0
  9
$DIMCLRE
 70
     0
  9
$DIMCLRT
 70
     0
  9
$DIMTFAC
 40
1.0
  9
$DIMGAP
 40
0.09
  9
$DIMJUST
 70
     0
  9
$DIMSD1
 70
     0
  9
$DIMSD2
 70
     0
  9
$DIMTOLJ
 70
     1
  9
$DIMTZIN
 70
     0
  9
$DIMALTZ
 70
     0
  9
$DIMALTTZ
 70
     0
  9
$DIMUPT
 70
     0
  9
$DIMDEC
 70
     4
  9
$DIMTDEC
 70
     4
  9
$DIMALTU
 70
     2
  9
$DIMALTTD
 70
     2
  9
$DIMTXSTY
  7
Standard
  9
$DIMAUNIT
 70
     0
  9
$DIMADEC
 70
     0
  9
$DIMALTRND
 40
0.0
  9
$DIMAZIN
 70
     0
  9
$DIMDSEP
 70
    46
  9
$DIMATFIT
 70
     3
  9
$DIMFRAC
 70
     0
  9
$DIMLDRBLK
  1

  9
$DIMLUNIT
 70
     2
  9
$DIMLWD
 70
    -2
  9
$DIMLWE
 70
    -2
  9
$DIMTMOVE
 70
     0
  9
$LUNITS
 70
     2
  9
$LUPREC
 70
     4
  9
$SKETCHINC
 40
0.1
  9
$FILLETRAD
 40
0.5
  9
$AUNITS
 70
     1
  9
$AUPREC
 70
     3
  9
$MENU
  1
.
  9
$ELEVATION
 40
0.0
  9
$PELEVATION
 40
0.0
  9
$THICKNESS
 40
0.0
  9
$LIMCHECK
 70
     0
  9
$CHAMFERA
 40
0.0
  9
$CHAMFERB
 40
0.0
  9
$CHAMFERC
 40
0.0
  9
$CHAMFERD
 40
0.0
  9
$SKPOLY
 70
     0
  9
$TDCREATE
 40
2458068.643062963
  9
$TDUCREATE
 40
2458068.268062963
  9
$TDUPDATE
 40
2458068.643069283
  9
$TDUUPDATE
 40
2458068.268069283
  9
$TDINDWG
 40
0.0000000116
  9
$TDUSRTIMER
 40
0.0000000116
  9
$USRTIMER
 70
     1
  9
$ANGBASE
 50
0.0
  9
$ANGDIR
 70
     0
  9
$PDMODE
 70
     0
  9
$PDSIZE
 40
0.0
  9
$PLINEWID
 40
0.0
  9
$SPLFRAME
 70
     0
  9
$SPLINETYPE
 70
     6
  9
$SPLINESEGS
 70
     8
  9
$HANDSEED
  5
271
  9
$SURFTAB1
 70
     6
  9
$SURFTAB2
 70
     6
  9
$SURFTYPE
 70
     6
  9
$SURFU
 70
     6
  9
$SURFV
 70
     6
  9
$UCSBASE
  2

  9
$UCSNAME
  2

  9
$UCSORG
 10
0.0
 20
0.0
 30
0.0
  9
$UCSXDIR
 10
1.0
 20
0.0
 30
0.0
  9
$UCSYDIR
 10
0.0
 20
1.0
 30
0.0
  9
$UCSORTHOREF
  2

  9
$UCSORTHOVIEW
 70
     0
  9
$UCSORGTOP
 10
0.0
 20
0.0
 30
0.0
  9
$UCSORGBOTTOM
 10
0.0
 20
0.0
 30
0.0
  9
$UCSORGLEFT
 10
0.0
 20
0.0
 30
0.0
  9
$UCSORGRIGHT
 10
0.0
 20
0.0
 30
0.0
  9
$UCSORGFRONT
 10
0.0
 20
0.0
 30
0.0
  9
$UCSORGBACK
 10
0.0
 20
0.0
 30
0.0
  9
$PUCSBASE
  2

  9
$PUCSNAME
  2

  9
$PUCSORG
 10
0.0
 20
0.0
 30
0.0
  9
$PUCSXDIR
 10
1.0
 20
0.0
 30
0.0
  9
$PUCSYDIR
 10
0.0
 20
1.0
 30
0.0
  9
$PUCSORTHOREF
  2

  9
$PUCSORTHOVIEW
 70
     0
  9
$PUCSORGTOP
 10
0.0
 20
0.0
 30
0.0
  9
$PUCSORGBOTTOM
 10
0.0
 20
0.0
 30
0.0
  9
$PUCSORGLEFT
 10
0.0
 20
0.0
 30
0.0
  9
$PUCSORGRIGHT
 10
0.0
 20
0.0
 30
0.0
  9
$PUCSORGFRONT
 10
0.0
 20
0.0
 30
0.0
  9
$PUCSORGBACK
 10
0.0
 20
0.0
 30
0.0
  9
$USERI1
 70
     0
  9
$USERI2
 70
     0
  9
$USERI3
 70
     0
  9
$USERI4
 70
     0
  9
$USERI5
 70
     0
  9
$USERR1
 40
0.0
  9
$USERR2
 40
0.0
  9
$USERR3
 40
0.0
  9
$USERR4
 40
0.0
  9
$USERR5
 40
0.0
  9
$WORLDVIEW
 70
     1
  9
$SHADEDGE
 70
     3
  9
$SHADEDIF
 70
    70
  9
$TILEMODE
 70
     1
  9
$MAXACTVP
 70
    64
  9
$PINSBASE
 10
0.0
 20
0.0
 30
0.0
  9
$PLIMCHECK
 70
     0
  9
$PEXTMIN
 10
1.000000000000000E+20
 20
1.000000000000000E+20
 30
1.000000000000000E+20
  9
$PEXTMAX
 10
-1.000000000000000E+20
 20
-1.000000000000000E+20
 30
-1.000000000000000E+20
  9
$PLIMMIN
 10
0.0
 20
0.0
  9
$PLIMMAX
 10
12.0
 20
9.0
  9
$UNITMODE
 70
     0
  9
$VISRETAIN
 70
     1
  9
$PLINEGEN
 70
     0
  9
$PSLTSCALE
 70
     1
  9
$TREEDEPTH
 70
  3020
  9
$CMLSTYLE
  2
Standard
  9
$CMLJUST
 70
     0
  9
$CMLSCALE
 40
1.0
  9
$PROXYGRAPHICS
 70
     1
  9
$MEASUREMENT
 70
     1
  9
$CELWEIGHT
370
    -1
  9
$ENDCAPS
280
     0
  9
$JOINSTYLE
280
     0
  9
$LWDISPLAY
290
     0
  9
$INSUNITS
 70
     0
  9
$HYPERLINKBASE
  1

  9
$STYLESHEET
  1

  9
$XEDIT
290
     1
  9
$CEPSNTYPE
380
     0
  9
$PSTYLEMODE
290
     1
  9
$FINGERPRINTGUID
  2
{02169B01-AFAA-489D-A33F-E0A7531A0218}
  9
$VERSIONGUID
  2
{FAEB1C32-E019-11D5-929B-00C0DF256EC4}
  9
$EXTNAMES
290
     1
  9
$PSVPSCALE
 40
0.0
  9
$OLESTARTUP
290
     0
  9
$SORTENTS
280
   127
  9
$INDEXCTL
280
     0
  9
$HIDETEXT
280
     1
  9
$XCLIPFRAME
290
     0
  9
$HALOGAP
280
     0
  9
$OBSCOLOR
 70
   257
  9
$OBSLTYPE
280
     0
  9
$INTERSECTIONDISPLAY
280
     0
  9
$INTERSECTIONCOLOR
 70
   257
  9
$DIMASSOC
280
     2
  9
$PROJECTNAME
  1

  0
ENDSEC
  0
SECTION
  2
CLASSES
  0
CLASS
  1
ACDBDICTIONARYWDFLT
  2
AcDbDictionaryWithDefault
  3
ObjectDBX Classes
 90
        0
 91
        4
280
     0
281
     0
  0
CLASS
  1
VISUALSTYLE
  2
AcDbVisualStyle
  3
ObjectDBX Classes
 90
     4095
 91
        4
280
     0
281
     0
  0
CLASS
  1
MATERIAL
  2
AcDbMaterial
  3
ObjectDBX Classes
 90
     1153
 91
        4
280
     0
281
     0
  0
CLASS
  1
SCALE
  2
AcDbScale
  3
ObjectDBX Classes
 90
     1153
 91
        4
280
     0
281
     0
  0
CLASS
  1
SUN
  2
AcDbSun
  3
SCENEOE
 90
     1153
 91
        4
280
     0
281
     0
  0
CLASS
  1
RASTERVARIABLES
  2
AcDbRasterVariables
  3
ISM
 90
        0
 91
        4
280
     0
281
     0
  0
CLASS
  1
DICTIONARYVAR
  2
AcDbDictionaryVar
  3
ObjectDBX Classes
 90
        0
 91
        4
280
     0
281
     0
  0
ENDSEC
  0
SECTION
  2
TABLES
  0
TABLE
  2
VPORT
  5
8
330
0
100
AcDbSymbolTable
 70
     1
  0
VPORT
  5
29
330
8
100
AcDbSymbolTableRecord
100
AcDbViewportTableRecord
  2
*Active
 70
     0
 10
0.0
 20
0.0
 11
1.0
 21
1.0
 12
249.4394234640737
 22
339.3148911387549
 13
0.0
 23
0.0
 14
0.5
 24
0.5
 15
0.5
 25
0.5
 16
0.0
 26
0.0
 36
1.0
 17
0.0
 27
0.0
 37
0.0
 40
1915.890591601767
 41
1.483071480020585
 42
50.0
 43
0.0
 44
0.0
 50
0.0
 51
0.0
 71
     0
 72
 20000
 73
     1
 74
     3
 75
     0
 76
     0
 77
     0
 78
     0
281
     0
 65
     1
110
0.0
120
0.0
130
0.0
111
1.0
121
0.0
131
0.0
112
0.0
122
1.0
132
0.0
 79
     0
146
0.0
  0
ENDTAB
  0
TABLE
  2
LTYPE
  5
5
330
0
100
AcDbSymbolTable
 70
     3
  0
LTYPE
  5
14
330
5
100
AcDbSymbolTableRecord
100
AcDbLinetypeTableRecord
  2
ByBlock
 70
     0
  3

 72
    65
 73
     0
 40
0.0
  0
LTYPE
  5
15
330
5
100
AcDbSymbolTableRecord
100
AcDbLinetypeTableRecord
  2
ByLayer
 70
     0
  3

 72
    65
 73
     0
 40
0.0
  0
LTYPE
  5
16
330
5
100
AcDbSymbolTableRecord
100
AcDbLinetypeTableRecord
  2
Continuous
 70
     0
  3
Solid line
 72
    65
 73
     0
 40
0.0
  0
LTYPE
  5
6C
330
5
100
AcDbSymbolTableRecord
100
AcDbLinetypeTableRecord
  2
DASHDOT
 70
     0
  3

 72
    65
 73
     4
 40
5.499999999999999
 49
4.0
 74
     0
 49
-0.6
 74
     0
 49
0.3
 74
     0
 49
-0.6
 74
     0
  0
LTYPE
  5
6D
330
5
100
AcDbSymbolTableRecord
100
AcDbLinetypeTableRecord
  2
CONTINOUS
 70
     0
  3

 72
    65
 73
     0
 40
0.0
  0
ENDTAB
  0
TABLE
  2
LAYER
  5
2
330
0
100
AcDbSymbolTable
 70
    12
  0
LAYER
  5
10
330
2
100
AcDbSymbolTableRecord
100
AcDbLayerTableRecord
  2
0
 70
     0
 62
     7
  6
Continuous
370
    25
390
F
  0
LAYER
  5
6E
330
2
100
AcDbSymbolTableRecord
100
AcDbLayerTableRecord
  2
SIZE
 70
     0
 62
    32
  6
Continuous
370
    25
390
F
  0
LAYER
  5
6F
330
2
100
AcDbSymbolTableRecord
100
AcDbLayerTableRecord
  2
DETAIL
 70
     0
 62
     5
  6
Continuous
370
    25
390
F
  0
LAYER
  5
70
330
2
100
AcDbSymbolTableRecord
100
AcDbLayerTableRecord
  2
OUTLINE
 70
     0
 62
     3
  6
Continuous
370
    25
390
F
  0
LAYER
  5
71
330
2
100
AcDbSymbolTableRecord
100
AcDbLayerTableRecord
  2
BASIS
 70
     0
 62
     6
  6
Continuous
370
    25
390
F
  0
LAYER
  5
72
330
2
100
AcDbSymbolTableRecord
100
AcDbLayerTableRecord
  2
NOTE
 70
     0
 62
     4
  6
Continuous
370
    25
390
F
  0
LAYER
  5
73
330
2
100
AcDbSymbolTableRecord
100
AcDbLayerTableRecord
  2
ARRANGE
 70
     0
 62
     1
  6
Continuous
370
    25
390
F
  0
LAYER
  5
74
330
2
100
AcDbSymbolTableRecord
100
AcDbLayerTableRecord
  2
FIX
 70
     0
 62
   241
  6
Continuous
370
    25
390
F
  0
LAYER
  5
75
330
2
100
AcDbSymbolTableRecord
100
AcDbLayerTableRecord
  2
ETC
 70
     0
 62
    83
  6
Continuous
370
    25
390
F
  0
LAYER
  5
76
330
2
100
AcDbSymbolTableRecord
100
AcDbLayerTableRecord
  2
SERVICESPACE
 70
     0
 62
     2
  6
Continuous
370
    25
390
F
  0
LAYER
  5
77
330
2
100
AcDbSymbolTableRecord
100
AcDbLayerTableRecord
  2
SYMBOLLINE
 70
     0
 62
    38
  6
Continuous
370
    25
390
F
  0
LAYER
  5
78
330
2
100
AcDbSymbolTableRecord
100
AcDbLayerTableRecord
  2
DEFPOINTS
 70
     0
 62
     7
  6
Continuous
290
     0
370
    25
390
F
  0
ENDTAB
  0
TABLE
  2
STYLE
  5
3
330
0
100
AcDbSymbolTable
 70
     6
  0
STYLE
  5
11
330
3
100
AcDbSymbolTableRecord
100
AcDbTextStyleTableRecord
  2
Standard
 70
     0
 40
0.0
 41
1.0
 50
0.0
 71
     0
 42
0.2
  3
txt.shx
  4
extfont
  0
STYLE
  5
79
330
3
100
AcDbSymbolTableRecord
100
AcDbTextStyleTableRecord
  2
MS PGothic
 70
     0
 40
0.0
 41
1.0
 50
0.0
 71
     0
 42
0.2
  3
msgothic_0.ttc
  4

1001
ACAD
1000
ＭＳ Ｐゴシック
1071
    32818
  0
STYLE
  5
7A
330
3
100
AcDbSymbolTableRecord
100
AcDbTextStyleTableRecord
  2
VERTICAL
 70
     4
 40
0.0
 41
1.0
 50
0.0
 71
     0
 42
0.2
  3
txt.shx
  4
extfont
  0
STYLE
  5
7B
330
3
100
AcDbSymbolTableRecord
100
AcDbTextStyleTableRecord
  2
VERTICAL MS PGothic
 70
     0
 40
0.0
 41
1.0
 50
0.0
 71
     0
 42
0.2
  3
MS PGothic.ttf
  4

1001
ACAD
1000
@ＭＳ Ｐゴシック
1071
    32818
  0
STYLE
  5
7F
330
3
100
AcDbSymbolTableRecord
100
AcDbTextStyleTableRecord
  2
Simplex
 70
     0
 40
0.0
 41
1.0
 50
0.0
 71
     0
 42
0.2
  3
simplex_.ttf
  4
extfont
1001
ACAD
1000
Simplex
1071
        2
  0
STYLE
  5
175
330
3
100
AcDbSymbolTableRecord
100
AcDbTextStyleTableRecord
  2
Simplex w9
 70
     0
 40
0.0
 41
0.9
 50
0.0
 71
     0
 42
0.2
  3
simplex_.ttf
  4
extfont
1001
ACAD
1000
Simplex
1071
        2
  0
ENDTAB
  0
TABLE
  2
VIEW
  5
6
330
0
100
AcDbSymbolTable
 70
     0
  0
ENDTAB
  0
TABLE
  2
UCS
  5
7
330
0
100
AcDbSymbolTable
 70
     0
  0
ENDTAB
  0
TABLE
  2
APPID
  5
9
330
0
100
AcDbSymbolTable
 70
     6
  0
APPID
  5
12
330
9
100
AcDbSymbolTableRecord
100
AcDbRegAppTableRecord
  2
ACAD
 70
     0
  0
APPID
  5
6A
330
9
100
AcDbSymbolTableRecord
100
AcDbRegAppTableRecord
  2
RootPro CAD
 70
     0
  0
APPID
  5
230
330
9
100
AcDbSymbolTableRecord
100
AcDbRegAppTableRecord
  2
ACAD_DSTYLE_DIM_LINETYPE
 70
     0
  0
APPID
  5
231
330
9
100
AcDbSymbolTableRecord
100
AcDbRegAppTableRecord
  2
ACAD_DSTYLE_DIM_EXT1_LINETYPE
 70
     0
  0
APPID
  5
232
330
9
100
AcDbSymbolTableRecord
100
AcDbRegAppTableRecord
  2
ACAD_DSTYLE_DIMFLIPARROW_SYMBOL
 70
     0
  0
APPID
  5
233
330
9
100
AcDbSymbolTableRecord
100
AcDbRegAppTableRecord
  2
ACAD_DSTYLE_DIMFLIPARROW_WHICH_SYMBOL
 70
     0
  0
ENDTAB
  0
TABLE
  2
DIMSTYLE
  5
A
330
0
100
AcDbSymbolTable
 70
     1
100
AcDbDimStyleTable
  0
DIMSTYLE
105
27
102
{ACAD_REACTORS
330
17B
330
193
330
19D
330
1A7
330
1B1
330
1C2
330
1CC
330
1D6
330
1E0
330
1EA
330
1F4
330
1FE
330
209
330
213
330
21E
102
}
330
A
100
AcDbSymbolTableRecord
100
AcDbDimStyleTableRecord
  2
Standard
 70
     0
178
     0
340
11
  0
ENDTAB
  0
TABLE
  2
BLOCK_RECORD
  5
1
330
0
100
AcDbSymbolTable
 70
    19
  0
BLOCK_RECORD
  5
1F
330
1
100
AcDbSymbolTableRecord
100
AcDbBlockTableRecord
  2
*Model_Space
340
22
  0
BLOCK_RECORD
  5
1B
330
1
100
AcDbSymbolTableRecord
100
AcDbBlockTableRecord
  2
*Paper_Space
340
1E
  0
BLOCK_RECORD
  5
23
330
1
100
AcDbSymbolTableRecord
100
AcDbBlockTableRecord
  2
*Paper_Space0
340
26
  0
BLOCK_RECORD
  5
7C
330
1
100
AcDbSymbolTableRecord
100
AcDbBlockTableRecord
  2
A$C5F2C697A
340
0
  0
BLOCK_RECORD
  5
10C
330
1
100
AcDbSymbolTableRecord
100
AcDbBlockTableRecord
  2
_ORIGIN2
340
0
  0
BLOCK_RECORD
  5
176
330
1
100
AcDbSymbolTableRecord
100
AcDbBlockTableRecord
  2
_DOTBLANK
340
0
  0
BLOCK_RECORD
  5
17C
330
1
100
AcDbSymbolTableRecord
100
AcDbBlockTableRecord
  2
*D4
340
0
  0
BLOCK_RECORD
  5
194
330
1
100
AcDbSymbolTableRecord
100
AcDbBlockTableRecord
  2
*D5
340
0
  0
BLOCK_RECORD
  5
19E
330
1
100
AcDbSymbolTableRecord
100
AcDbBlockTableRecord
  2
*D6
340
0
  0
BLOCK_RECORD
  5
1A8
330
1
100
AcDbSymbolTableRecord
100
AcDbBlockTableRecord
  2
*D7
340
0
  0
BLOCK_RECORD
  5
1B2
330
1
100
AcDbSymbolTableRecord
100
AcDbBlockTableRecord
  2
*D8
340
0
  0
BLOCK_RECORD
  5
1C3
330
1
100
AcDbSymbolTableRecord
100
AcDbBlockTableRecord
  2
*D9
340
0
  0
BLOCK_RECORD
  5
1CD
330
1
100
AcDbSymbolTableRecord
100
AcDbBlockTableRecord
  2
*D10
340
0
  0
BLOCK_RECORD
  5
1D7
330
1
100
AcDbSymbolTableRecord
100
AcDbBlockTableRecord
  2
*D11
340
0
  0
BLOCK_RECORD
  5
1E1
330
1
100
AcDbSymbolTableRecord
100
AcDbBlockTableRecord
  2
*D12
340
0
  0
BLOCK_RECORD
  5
1EB
330
1
100
AcDbSymbolTableRecord
100
AcDbBlockTableRecord
  2
*D13
340
0
  0
BLOCK_RECORD
  5
1F5
330
1
100
AcDbSymbolTableRecord
100
AcDbBlockTableRecord
  2
*D14
340
0
  0
BLOCK_RECORD
  5
1FF
330
1
100
AcDbSymbolTableRecord
100
AcDbBlockTableRecord
  2
*D15
340
0
  0
BLOCK_RECORD
  5
20A
330
1
100
AcDbSymbolTableRecord
100
AcDbBlockTableRecord
  2
*D16
340
0
  0
BLOCK_RECORD
  5
214
330
1
100
AcDbSymbolTableRecord
100
AcDbBlockTableRecord
  2
*D17
340
0
  0
BLOCK_RECORD
  5
21F
330
1
100
AcDbSymbolTableRecord
100
AcDbBlockTableRecord
  2
*D18
340
0
  0
ENDTAB
  0
ENDSEC
  0
SECTION
  2
BLOCKS
  0
BLOCK
  5
20
330
1F
100
AcDbEntity
  8
0
100
AcDbBlockBegin
  2
*Model_Space
 70
     0
 10
0.0
 20
0.0
 30
0.0
  3
*Model_Space
  1
*Model_Space
  0
ENDBLK
  5
21
330
1F
100
AcDbEntity
  8
0
100
AcDbBlockEnd
  0
BLOCK
  5
1C
330
1B
100
AcDbEntity
 67
     1
  8
0
100
AcDbBlockBegin
  2
*Paper_Space
 70
     0
 10
0.0
 20
0.0
 30
0.0
  3
*Paper_Space
  1
*Paper_Space
  0
ENDBLK
  5
1D
330
1B
100
AcDbEntity
 67
     1
  8
0
100
AcDbBlockEnd
  0
BLOCK
  5
24
330
23
100
AcDbEntity
  8
0
100
AcDbBlockBegin
  2
*Paper_Space0
 70
     0
 10
0.0
 20
0.0
 30
0.0
  3
*Paper_Space0
  1
*Paper_Space0
  0
ENDBLK
  5
25
330
23
100
AcDbEntity
  8
0
100
AcDbBlockEnd
  0
BLOCK
  5
7D
330
7C
100
AcDbEntity
  8
0
100
AcDbBlockBegin
  2
A$C5F2C697A
 70
     0
 10
0.0
 20
0.0
 30
0.0
  3
A$C5F2C697A
  1
A$C5F2C697A
  0
TEXT
  5
80
330
7C
100
AcDbEntity
  8
SIZE
100
AcDbText
 10
910.8147643978815
 20
147.4081778335766
 30
0.0
 40
77.18865430290829
  1
370
 41
0.9
  7
Simplex
 11
910.8147643978815
 21
108.2756206846195
 31
0.0
100
AcDbText
 73
     1
  0
LINE
  5
81
330
7C
100
AcDbEntity
  8
SIZE
100
AcDbLine
 10
801.8719073978815
 20
95.36127978650259
 30
0.0
 11
1167.87190739788
 21
95.36127978650259
 31
0.0
  0
TEXT
  5
82
330
7C
100
AcDbEntity
  8
SIZE
100
AcDbText
 10
915.8147643978814
 20
1444.549649833576
 30
0.0
 40
77.18865430290829
  1
330
 41
0.9
  7
Simplex
 11
915.8147643978814
 21
1405.417092684619
 31
0.0
100
AcDbText
 73
     1
  0
LINE
  5
83
330
7C
100
AcDbEntity
  8
SIZE
100
AcDbLine
 10
826.8719073978815
 20
1392.502751786502
 30
0.0
 11
1152.87190739788
 21
1392.502751786502
 31
0.0
  0
LINE
  5
84
330
7C
100
AcDbEntity
  8
OUTLINE
  6
Continuous
100
AcDbLine
 10
771.8719063978815
 20
290.0777517865025
 30
0.0
 11
1183.871906397881
 21
290.0777517865025
 31
0.0
  0
LINE
  5
85
330
7C
100
AcDbEntity
  8
OUTLINE
  6
Continuous
100
AcDbLine
 10
771.8719063978815
 20
323.0777517865025
 30
0.0
 11
1183.871906397881
 21
323.0777517865025
 31
0.0
  0
LINE
  5
86
330
7C
100
AcDbEntity
  8
OUTLINE
  6
Continuous
100
AcDbLine
 10
824.8719063978814
 20
1145.077751786502
 30
0.0
 11
1154.87190639788
 21
1145.077751786502
 31
0.0
  0
CIRCLE
  5
87
330
7C
100
AcDbEntity
  8
ARRANGE
  6
Continuous
100
AcDbCircle
 10
989.8719063978814
 20
290.0777517865025
 30
0.0
 40
40.0
  0
LINE
  5
88
330
7C
100
AcDbEntity
  8
DETAIL
  6
CONTINOUS
100
AcDbLine
 10
771.8719063978815
 20
290.0777517865025
 30
0.0
 11
1183.871906397881
 21
290.0777517865025
 31
0.0
  0
LINE
  5
89
330
7C
100
AcDbEntity
  8
DETAIL
  6
CONTINOUS
100
AcDbLine
 10
824.8719063978814
 20
1145.077751786502
 30
0.0
 11
1154.87190639788
 21
1145.077751786502
 31
0.0
  0
TEXT
  5
8A
330
7C
100
AcDbEntity
  8
NOTE
  6
Continuous
100
AcDbText
 10
973.9808703978814
 20
933.8931288335765
 30
0.0
 40
77.18865430290829
  1
EL,CL
 41
0.9
  7
Simplex
 11
973.9808703978814
 21
894.7605716846194
 31
0.0
100
AcDbText
 73
     1
  0
LINE
  5
8B
330
7C
100
AcDbEntity
  8
NOTE
  6
Continuous
100
AcDbLine
 10
879.8719063978815
 20
686.0777517865025
 30
0.0
 11
1040.77148939788
 21
625.2040537865025
 31
0.0
  0
LINE
  5
8C
330
7C
100
AcDbEntity
  8
NOTE
  6
Continuous
100
AcDbLine
 10
1205.83098439788
 20
895.3889597865027
 30
0.0
 11
918.8708563978817
 21
895.3889597865027
 31
0.0
  0
POINT
  5
8D
330
7C
100
AcDbEntity
  8
ARRANGE
  6
Continuous
100
AcDbPoint
 10
989.8719063978814
 20
290.0777517865025
 30
0.0
  0
LINE
  5
8E
330
7C
100
AcDbEntity
  8
DETAIL
  6
CONTINOUS
100
AcDbLine
 10
771.8719063978815
 20
323.0777517865025
 30
0.0
 11
1183.871906397881
 21
323.0777517865025
 31
0.0
  0
LINE
  5
8F
330
7C
100
AcDbEntity
  8
NOTE
  6
Continuous
100
AcDbLine
 10
882.8719063978814
 20
724.0777517865025
 30
0.0
 11
1040.77148939788
 21
812.3038517865023
 31
0.0
  0
CIRCLE
  5
90
330
7C
100
AcDbEntity
  8
SIZE
  6
Continuous
100
AcDbCircle
 10
220.7875803978813
 20
290.0777517865025
 30
0.0
 40
6.0
  0
CIRCLE
  5
91
330
7C
100
AcDbEntity
  8
SIZE
  6
Continuous
100
AcDbCircle
 10
503.5566813978814
 20
290.0777517865025
 30
0.0
 40
6.0
  0
CIRCLE
  5
92
330
7C
100
AcDbEntity
  8
SIZE
  6
Continuous
100
AcDbCircle
 10
649.7442583978815
 20
290.0777517865025
 30
0.0
 40
6.0
  0
CIRCLE
  5
93
330
7C
100
AcDbEntity
  8
SIZE
  6
Continuous
100
AcDbCircle
 10
350.8350553978814
 20
290.0777517865025
 30
0.0
 40
6.0
  0
LINE
  5
94
330
7C
100
AcDbEntity
  8
OUTLINE
  6
Continuous
100
AcDbLine
 10
771.8719063978815
 20
290.0777517865025
 30
0.0
 11
771.8719063978815
 21
323.0777517865025
 31
0.0
  0
CIRCLE
  5
95
330
7C
100
AcDbEntity
  8
FIX
  6
Continuous
100
AcDbCircle
 10
799.8719063978815
 20
290.0777517865025
 30
0.0
 40
40.0
  0
LINE
  5
96
330
7C
100
AcDbEntity
  8
DETAIL
  6
CONTINOUS
100
AcDbLine
 10
771.8719063978815
 20
290.0777517865025
 30
0.0
 11
771.8719063978815
 21
323.0777517865025
 31
0.0
  0
LINE
  5
97
330
7C
100
AcDbEntity
  8
BASIS
  6
DASHDOT
100
AcDbLine
 10
989.8719063978814
 20
239.4419287865025
 30
0.0
 11
989.8719063978814
 21
1184.296115786501
 31
0.0
  0
LINE
  5
98
330
7C
100
AcDbEntity
  8
NOTE
  6
CONTINOUS
100
AcDbLine
 10
799.8719063978815
 20
270.0777517865024
 30
0.0
 11
799.8719063978815
 21
310.0777517865025
 31
0.0
  0
LINE
  5
99
330
7C
100
AcDbEntity
  8
NOTE
  6
Continuous
100
AcDbLine
 10
0.0000023978816444
 20
-0.000002213497396
 30
0.0
 11
579.8068043978815
 21
-0.000002213497396
 31
0.0
  0
TEXT
  5
9A
330
7C
100
AcDbEntity
  8
NOTE
  6
Continuous
100
AcDbText
 10
14.78030739788152
 20
18.06433641956052
 30
0.0
 40
55.46187107438017
  1
AH 2-12×36
 41
0.9
  7
MS PGothic
 11
14.78030739788152
 21
6.724116968320851
 31
0.0
100
AcDbText
 73
     1
  0
LINE
  5
9B
330
7C
100
AcDbEntity
  8
SIZE
100
AcDbLine
 10
715.7017103978814
 20
290.0777517865025
 30
0.0
 11
320.8350553978815
 21
290.0777517865025
 31
0.0
  0
LINE
  5
9C
330
7C
100
AcDbEntity
  8
SIZE
100
AcDbLine
 10
735.7017103978814
 20
290.0777517865025
 30
0.0
 11
473.5566813978812
 21
290.0777517865025
 31
0.0
  0
LINE
  5
9D
330
7C
100
AcDbEntity
  8
SIZE
100
AcDbLine
 10
735.7017103978814
 20
290.0777517865025
 30
0.0
 11
190.7875803978813
 21
290.0777517865025
 31
0.0
  0
LINE
  5
9E
330
7C
100
AcDbEntity
  8
NOTE
  6
Continuous
100
AcDbLine
 10
579.8068043978815
 20
-0.000002213497396
 30
0.0
 11
799.8719063978815
 21
290.0777517865025
 31
0.0
  0
TEXT
  5
9F
330
7C
100
AcDbEntity
  8
SIZE
100
AcDbText
 10
739.2433353978814
 20
147.4081778335766
 30
0.0
 40
77.18865430290829
  1
28
 41
0.9
  7
Simplex
 11
739.2433353978814
 21
108.2756206846195
 31
0.0
100
AcDbText
 73
     1
  0
LINE
  5
A0
330
7C
100
AcDbEntity
  8
SIZE
100
AcDbLine
 10
735.7017103978814
 20
290.0777517865025
 30
0.0
 11
619.7442583978815
 21
290.0777517865025
 31
0.0
  0
LINE
  5
A1
330
7C
100
AcDbEntity
  8
SIZE
100
AcDbLine
 10
799.8719073978815
 20
250.0777517865026
 30
0.0
 11
799.8719073978815
 21
65.36127978650262
 31
0.0
  0
LINE
  5
A2
330
7C
100
AcDbEntity
  8
SIZE
100
AcDbLine
 10
799.8719073978815
 20
250.0777517865026
 30
0.0
 11
799.8719073978815
 21
65.36127978650262
 31
0.0
  0
LINE
  5
A3
330
7C
100
AcDbEntity
  8
SIZE
100
AcDbLine
 10
771.8719073978815
 20
270.0777517865024
 30
0.0
 11
771.8719073978815
 21
65.36127978650262
 31
0.0
  0
CIRCLE
  5
A4
330
7C
100
AcDbEntity
  8
SIZE
  6
Continuous
100
AcDbCircle
 10
799.8719073978815
 20
95.36127978650259
 30
0.0
 40
6.0
  0
CIRCLE
  5
A5
330
7C
100
AcDbEntity
  8
SIZE
  6
Continuous
100
AcDbCircle
 10
771.8719073978815
 20
95.36127978650259
 30
0.0
 40
6.0
  0
CIRCLE
  5
A6
330
7C
100
AcDbEntity
  8
SIZE
  6
Continuous
100
AcDbCircle
 10
799.8719073978815
 20
95.36127978650259
 30
0.0
 40
6.0
  0
LINE
  5
A7
330
7C
100
AcDbEntity
  8
SIZE
100
AcDbLine
 10
799.8719073978815
 20
95.36127978650259
 30
0.0
 11
771.8719073978815
 21
95.36127978650259
 31
0.0
  0
LINE
  5
A8
330
7C
100
AcDbEntity
  8
SIZE
100
AcDbLine
 10
769.8719073978815
 20
95.36127978650259
 30
0.0
 11
767.8719073978815
 21
95.36127978650259
 31
0.0
  0
LINE
  5
A9
330
7C
100
AcDbEntity
  8
SIZE
100
AcDbLine
 10
801.8719073978815
 20
95.36127978650259
 30
0.0
 11
803.8719073978814
 21
95.36127978650259
 31
0.0
  0
LINE
  5
AA
330
7C
100
AcDbEntity
  8
NOTE
  6
CONTINOUS
100
AcDbLine
 10
779.8719063978815
 20
290.0777517865025
 30
0.0
 11
819.8719063978815
 21
290.0777517865025
 31
0.0
  0
LINE
  5
AB
330
7C
100
AcDbEntity
  8
NOTE
  6
Continuous
100
AcDbLine
 10
799.8719063978815
 20
290.0777517865025
 30
0.0
 11
784.7676663978813
 21
253.0390967865026
 31
0.0
  0
LINE
  5
AC
330
7C
100
AcDbEntity
  8
NOTE
  6
Continuous
100
AcDbLine
 10
799.8719063978815
 20
290.0777517865025
 30
0.0
 11
768.2719233978814
 21
265.5534567865024
 31
0.0
  0
LINE
  5
AD
330
7C
100
AcDbEntity
  8
SIZE
100
AcDbLine
 10
771.8719073978815
 20
343.0777517865025
 30
0.0
 11
771.8719073978815
 21
1422.502751786502
 31
0.0
  0
LINE
  5
AE
330
7C
100
AcDbEntity
  8
OUTLINE
  6
Continuous
100
AcDbLine
 10
824.8719063978814
 20
323.0777517865025
 30
0.0
 11
824.8719063978814
 21
1145.077751786502
 31
0.0
  0
LINE
  5
AF
330
7C
100
AcDbEntity
  8
DETAIL
  6
CONTINOUS
100
AcDbLine
 10
824.8719063978814
 20
323.0777517865025
 30
0.0
 11
824.8719063978814
 21
1145.077751786502
 31
0.0
  0
LINE
  5
B0
330
7C
100
AcDbEntity
  8
DETAIL
  6
CONTINOUS
100
AcDbLine
 10
804.8719063978815
 20
462.0777517865024
 30
0.0
 11
804.8719063978815
 21
1002.077751786502
 31
0.0
  0
LINE
  5
B1
330
7C
100
AcDbEntity
  8
SIZE
100
AcDbLine
 10
714.4427113978816
 20
732.0777517865025
 30
0.0
 11
320.8350553978815
 21
732.0777517865025
 31
0.0
  0
LINE
  5
B2
330
7C
100
AcDbEntity
  8
SIZE
100
AcDbLine
 10
856.8719073978815
 20
724.0777517865025
 30
0.0
 11
473.5566813978812
 21
724.0777517865025
 31
0.0
  0
LINE
  5
B3
330
7C
100
AcDbEntity
  8
SIZE
100
AcDbLine
 10
777.2745573978816
 20
810.0801537865023
 30
0.0
 11
190.4274553978813
 21
810.0801537865023
 31
0.0
  0
LINE
  5
B4
330
7C
100
AcDbEntity
  8
SIZE
100
AcDbLine
 10
350.8350553978814
 20
292.0777517865025
 30
0.0
 11
350.8350553978814
 21
730.0777517865025
 31
0.0
  0
LINE
  5
B5
330
7C
100
AcDbEntity
  8
SIZE
100
AcDbLine
 10
503.5566813978814
 20
292.0777517865025
 30
0.0
 11
503.5566813978814
 21
724.0777517865025
 31
0.0
  0
TEXT
  5
B6
330
7C
100
AcDbEntity
  8
SIZE
100
AcDbText
 10
168.7406823508074
 20
529.5206087865024
 30
0.0
 40
77.18865430290829
  1
520
 50
90.0
 41
0.9
  7
Simplex
 11
207.8732394997645
 21
529.5206087865024
 31
0.0
100
AcDbText
 73
     1
  0
LINE
  5
B7
330
7C
100
AcDbEntity
  8
SIZE
100
AcDbLine
 10
220.7875803978813
 20
810.0801537865023
 30
0.0
 11
220.7875803978813
 21
603.5777517865025
 31
0.0
  0
TEXT
  5
B8
330
7C
100
AcDbEntity
  8
SIZE
100
AcDbText
 10
298.7881573508076
 20
437.0206087865025
 30
0.0
 40
77.18865430290829
  1
442
 50
90.0
 41
0.9
  7
Simplex
 11
337.9207144997647
 21
437.0206087865025
 31
0.0
100
AcDbText
 73
     1
  0
LINE
  5
B9
330
7C
100
AcDbEntity
  8
SIZE
100
AcDbLine
 10
220.7875803978813
 20
292.0777517865025
 30
0.0
 11
220.7875803978813
 21
603.5777517865025
 31
0.0
  0
TEXT
  5
BA
330
7C
100
AcDbEntity
  8
SIZE
100
AcDbText
 10
451.5097833508073
 20
427.1348947865025
 30
0.0
 40
77.18865430290829
  1
434
 50
90.0
 41
0.9
  7
Simplex
 11
490.6423404997644
 21
427.1348947865025
 31
0.0
100
AcDbText
 73
     1
  0
CIRCLE
  5
BB
330
7C
100
AcDbEntity
  8
SIZE
  6
Continuous
100
AcDbCircle
 10
220.4274553978814
 20
810.0801537865023
 30
0.0
 40
6.0
  0
CIRCLE
  5
BC
330
7C
100
AcDbEntity
  8
SIZE
  6
Continuous
100
AcDbCircle
 10
350.8350553978814
 20
732.0777517865025
 30
0.0
 40
6.0
  0
CIRCLE
  5
BD
330
7C
100
AcDbEntity
  8
SIZE
  6
Continuous
100
AcDbCircle
 10
503.5566813978814
 20
724.0777517865025
 30
0.0
 40
6.0
  0
LINE
  5
BE
330
7C
100
AcDbEntity
  8
SIZE
100
AcDbLine
 10
649.7442583978815
 20
292.0777517865025
 30
0.0
 11
649.7442583978815
 21
684.0777517865025
 31
0.0
  0
TEXT
  5
BF
330
7C
100
AcDbEntity
  8
SIZE
100
AcDbText
 10
597.6973603508076
 20
415.3920377865025
 30
0.0
 40
77.18865430290829
  1
396
 50
90.0
 41
0.9
  7
Simplex
 11
636.8299174997646
 21
415.3920377865025
 31
0.0
100
AcDbText
 73
     1
  0
LINE
  5
C0
330
7C
100
AcDbEntity
  8
DETAIL
  6
CONTINOUS
100
AcDbLine
 10
824.8719063978814
 20
462.0777517865024
 30
0.0
 11
804.8719063978815
 21
462.0777517865024
 31
0.0
  0
LINE
  5
C1
330
7C
100
AcDbEntity
  8
SIZE
100
AcDbLine
 10
836.2639373978815
 20
686.0777517865025
 30
0.0
 11
619.7442583978815
 21
686.0777517865025
 31
0.0
  0
LINE
  5
C2
330
7C
100
AcDbEntity
  8
BASIS
  6
DASHDOT
100
AcDbLine
 10
734.4427113978815
 20
732.0777517865025
 30
0.0
 11
884.1456433978814
 21
732.0777517865025
 31
0.0
  0
CIRCLE
  5
C3
330
7C
100
AcDbEntity
  8
SIZE
  6
Continuous
100
AcDbCircle
 10
649.7442583978815
 20
686.0777517865025
 30
0.0
 40
6.0
  0
LINE
  5
C4
330
7C
100
AcDbEntity
  8
NOTE
  6
CONTINOUS
100
AcDbLine
 10
862.8719063978815
 20
724.0777517865025
 30
0.0
 11
902.8719063978815
 21
724.0777517865025
 31
0.0
  0
LINE
  5
C5
330
7C
100
AcDbEntity
  8
NOTE
  6
CONTINOUS
100
AcDbLine
 10
859.8719063978816
 20
686.0777517865025
 30
0.0
 11
899.8719063978814
 21
686.0777517865025
 31
0.0
  0
LINE
  5
C6
330
7C
100
AcDbEntity
  8
NOTE
  6
CONTINOUS
100
AcDbLine
 10
879.8719063978815
 20
666.0777517865025
 30
0.0
 11
879.8719063978815
 21
706.0777517865025
 31
0.0
  0
LWPOLYLINE
  5
C7
330
7C
100
AcDbEntity
  8
NOTE
  6
Continuous
100
AcDbPolyline
 90
        3
 70
     0
 43
0.0
 10
919.4069503978812
 20
679.9966117865025
 10
879.8719063978815
 20
686.0777517865025
 10
911.0696893978815
 20
661.0438077865024
  0
LWPOLYLINE
  5
C8
330
7C
100
AcDbEntity
  8
NOTE
  6
Continuous
100
AcDbPolyline
 90
        3
 70
     0
 43
0.0
 10
911.5511693978815
 20
751.9614367865025
 10
882.8719063978814
 20
724.0777517865025
 10
921.6507193978817
 20
733.8860997865025
  0
LINE
  5
C9
330
7C
100
AcDbEntity
  8
NOTE
  6
CONTINOUS
100
AcDbLine
 10
882.8719063978814
 20
704.0777517865024
 30
0.0
 11
882.8719063978814
 21
744.0777517865025
 31
0.0
  0
LINE
  5
CA
330
7C
100
AcDbEntity
  8
NOTE
  6
Continuous
100
AcDbLine
 10
824.5117813978815
 20
810.0801537865023
 30
0.0
 11
918.8708563978817
 21
895.3889597865027
 31
0.0
  0
LINE
  5
CB
330
7C
100
AcDbEntity
  8
NOTE
  6
CONTINOUS
100
AcDbLine
 10
804.5117813978814
 20
810.0801537865023
 30
0.0
 11
844.5117813978814
 21
810.0801537865023
 31
0.0
  0
LWPOLYLINE
  5
CC
330
7C
100
AcDbEntity
  8
NOTE
  6
Continuous
100
AcDbPolyline
 90
        3
 70
     0
 43
0.0
 10
846.6447643978813
 20
843.3987837865027
 10
824.5117813978815
 20
810.0801537865023
 10
860.3388213978815
 20
827.8684427865026
  0
LINE
  5
CD
330
7C
100
AcDbEntity
  8
NOTE
  6
CONTINOUS
100
AcDbLine
 10
824.5117813978815
 20
790.0801537865023
 30
0.0
 11
824.5117813978815
 21
830.0801537865023
 31
0.0
  0
POINT
  5
CE
330
7C
100
AcDbEntity
  8
NOTE
  6
Continuous
100
AcDbPoint
 10
872.3575503978814
 20
933.9301367865024
 30
0.0
  0
LINE
  5
CF
330
7C
100
AcDbEntity
  8
SIZE
100
AcDbLine
 10
824.8719073978815
 20
1185.077751786502
 30
0.0
 11
824.8719073978815
 21
1422.502751786502
 31
0.0
  0
LINE
  5
D0
330
7C
100
AcDbEntity
  8
SIZE
100
AcDbLine
 10
824.8719073978815
 20
1165.077751786502
 30
0.0
 11
824.8719073978815
 21
1422.502751786502
 31
0.0
  0
LINE
  5
D1
330
7C
100
AcDbEntity
  8
SIZE
100
AcDbLine
 10
824.8719073978815
 20
1165.077751786502
 30
0.0
 11
824.8719073978815
 21
1293.248751786502
 31
0.0
  0
LINE
  5
D2
330
7C
100
AcDbEntity
  8
SIZE
100
AcDbLine
 10
804.8719073978814
 20
1022.077751786502
 30
0.0
 11
804.8719073978814
 21
1293.248751786502
 31
0.0
  0
LINE
  5
D3
330
7C
100
AcDbEntity
  8
DETAIL
  6
CONTINOUS
100
AcDbLine
 10
824.8719063978814
 20
1002.077751786502
 30
0.0
 11
804.8719063978815
 21
1002.077751786502
 31
0.0
  0
LINE
  5
D4
330
7C
100
AcDbEntity
  8
SIZE
  6
Continuous
100
AcDbLine
 10
814.8719063978814
 20
1263.249145786502
 30
0.0
 11
945.9402583978814
 21
1263.249145786502
 31
0.0
  0
LINE
  5
D5
330
7C
100
AcDbEntity
  8
SIZE
100
AcDbLine
 10
822.8719073978815
 20
1263.249145786502
 30
0.0
 11
814.8719073978815
 21
1263.249145786502
 31
0.0
  0
CIRCLE
  5
D6
330
7C
100
AcDbEntity
  8
SIZE
  6
Continuous
100
AcDbCircle
 10
804.8719073978814
 20
1263.249145786502
 30
0.0
 40
6.0
  0
LINE
  5
D7
330
7C
100
AcDbEntity
  8
SIZE
100
AcDbLine
 10
806.8719073978815
 20
1263.249145786502
 30
0.0
 11
814.8719073978815
 21
1263.249145786502
 31
0.0
  0
CIRCLE
  5
D8
330
7C
100
AcDbEntity
  8
SIZE
  6
Continuous
100
AcDbCircle
 10
824.8719073978815
 20
1263.249145786502
 30
0.0
 40
6.0
  0
TEXT
  5
D9
330
7C
100
AcDbEntity
  8
SIZE
100
AcDbText
 10
751.7433353978814
 20
1444.549649833576
 30
0.0
 40
77.18865430290829
  1
53
 41
0.9
  7
Simplex
 11
751.7433353978814
 21
1405.417092684619
 31
0.0
100
AcDbText
 73
     1
  0
TEXT
  5
DA
330
7C
100
AcDbEntity
  8
SIZE
100
AcDbText
 10
843.215705397881
 20
1315.295649833576
 30
0.0
 40
77.18865430290829
  1
20
 41
0.9
  7
Simplex
 11
843.215705397881
 21
1276.163092684619
 31
0.0
100
AcDbText
 73
     1
  0
LINE
  5
DB
330
7C
100
AcDbEntity
  8
SIZE
100
AcDbLine
 10
824.8719073978815
 20
1392.502751786502
 30
0.0
 11
771.8719073978815
 21
1392.502751786502
 31
0.0
  0
CIRCLE
  5
DC
330
7C
100
AcDbEntity
  8
SIZE
  6
Continuous
100
AcDbCircle
 10
771.8719073978815
 20
1392.502751786502
 30
0.0
 40
6.0
  0
LINE
  5
DD
330
7C
100
AcDbEntity
  8
SIZE
100
AcDbLine
 10
769.8719073978815
 20
1392.502751786502
 30
0.0
 11
767.8719073978815
 21
1392.502751786502
 31
0.0
  0
CIRCLE
  5
DE
330
7C
100
AcDbEntity
  8
SIZE
  6
Continuous
100
AcDbCircle
 10
824.8719073978815
 20
1392.502751786502
 30
0.0
 40
6.0
  0
CIRCLE
  5
DF
330
7C
100
AcDbEntity
  8
SIZE
  6
Continuous
100
AcDbCircle
 10
824.8719073978815
 20
1392.502751786502
 30
0.0
 40
6.0
  0
LINE
  5
E0
330
7C
100
AcDbEntity
  8
SIZE
100
AcDbLine
 10
826.8719073978815
 20
1392.502751786502
 30
0.0
 11
828.8719073978814
 21
1392.502751786502
 31
0.0
  0
CIRCLE
  5
E1
330
7C
100
AcDbEntity
  8
SIZE
  6
Continuous
100
AcDbCircle
 10
1420.44446039788
 20
290.0777517865025
 30
0.0
 40
6.0
  0
CIRCLE
  5
E2
330
7C
100
AcDbEntity
  8
FIX
  6
Continuous
100
AcDbCircle
 10
1169.871906397881
 20
290.0777517865025
 30
0.0
 40
40.0
  0
LINE
  5
E3
330
7C
100
AcDbEntity
  8
OUTLINE
  6
Continuous
100
AcDbLine
 10
1183.871906397881
 20
323.0777517865025
 30
0.0
 11
1183.871906397881
 21
290.0777517865025
 31
0.0
  0
TEXT
  5
E4
330
7C
100
AcDbEntity
  8
ETC
  6
Continuous
100
AcDbText
 10
1573.111262397881
 20
291.5986754195604
 30
0.0
 40
55.46187107438017
  1
室外機
 41
0.9
  7
MS PGothic
 11
1573.111262397881
 21
280.2584559683208
 31
0.0
100
AcDbText
 73
     1
  0
LINE
  5
E5
330
7C
100
AcDbEntity
  8
DETAIL
  6
CONTINOUS
100
AcDbLine
 10
1183.871906397881
 20
290.0777517865025
 30
0.0
 11
1183.871906397881
 21
323.0777517865025
 31
0.0
  0
LINE
  5
E6
330
7C
100
AcDbEntity
  8
NOTE
  6
CONTINOUS
100
AcDbLine
 10
1169.871906397881
 20
270.0777517865024
 30
0.0
 11
1169.871906397881
 21
310.0777517865025
 31
0.0
  0
LINE
  5
E7
330
7C
100
AcDbEntity
  8
NOTE
  6
Continuous
100
AcDbLine
 10
1969.74381039788
 20
-0.000002213497396
 30
0.0
 11
1389.937008397881
 21
-0.000002213497396
 31
0.0
  0
TEXT
  5
E8
330
7C
100
AcDbEntity
  8
NOTE
  6
Continuous
100
AcDbText
 10
1415.169219397881
 20
35.14919683357661
 30
0.0
 40
77.18865430290829
  1
AH 2-U cut
 41
0.9
  7
Simplex
 11
1415.169219397881
 21
-3.983360315380478
 31
0.0
100
AcDbText
 73
     1
  0
LINE
  5
E9
330
7C
100
AcDbEntity
  8
NOTE
  6
Continuous
100
AcDbLine
 10
1389.937008397881
 20
-0.000002213497396
 30
0.0
 11
1169.871906397881
 21
290.0777517865025
 31
0.0
  0
LINE
  5
EA
330
7C
100
AcDbEntity
  8
SIZE
100
AcDbLine
 10
1214.713746397881
 20
290.0777517865025
 30
0.0
 11
1450.44446039788
 21
290.0777517865025
 31
0.0
  0
LINE
  5
EB
330
7C
100
AcDbEntity
  8
SIZE
100
AcDbLine
 10
1183.87190739788
 20
270.0777517865024
 30
0.0
 11
1183.87190739788
 21
65.36127978650262
 31
0.0
  0
LINE
  5
EC
330
7C
100
AcDbEntity
  8
SIZE
100
AcDbLine
 10
1169.87190739788
 20
250.0777517865026
 30
0.0
 11
1169.87190739788
 21
65.36127978650262
 31
0.0
  0
LINE
  5
ED
330
7C
100
AcDbEntity
  8
SIZE
100
AcDbLine
 10
1169.87190739788
 20
250.0777517865026
 30
0.0
 11
1169.87190739788
 21
65.36127978650262
 31
0.0
  0
CIRCLE
  5
EE
330
7C
100
AcDbEntity
  8
SIZE
  6
Continuous
100
AcDbCircle
 10
1169.87190739788
 20
95.36127978650259
 30
0.0
 40
6.0
  0
CIRCLE
  5
EF
330
7C
100
AcDbEntity
  8
SIZE
  6
Continuous
100
AcDbCircle
 10
1169.87190739788
 20
95.36127978650259
 30
0.0
 40
6.0
  0
CIRCLE
  5
F0
330
7C
100
AcDbEntity
  8
SIZE
  6
Continuous
100
AcDbCircle
 10
1183.87190739788
 20
95.36127978650259
 30
0.0
 40
6.0
  0
LINE
  5
F1
330
7C
100
AcDbEntity
  8
SIZE
100
AcDbLine
 10
1183.87190739788
 20
95.36127978650259
 30
0.0
 11
1169.87190739788
 21
95.36127978650259
 31
0.0
  0
LINE
  5
F2
330
7C
100
AcDbEntity
  8
SIZE
100
AcDbLine
 10
1167.87190739788
 20
95.36127978650259
 30
0.0
 11
1165.87190739788
 21
95.36127978650259
 31
0.0
  0
LINE
  5
F3
330
7C
100
AcDbEntity
  8
SIZE
100
AcDbLine
 10
1185.87190739788
 20
95.36127978650259
 30
0.0
 11
1187.87190739788
 21
95.36127978650259
 31
0.0
  0
TEXT
  5
F4
330
7C
100
AcDbEntity
  8
SIZE
100
AcDbText
 10
1134.357621397881
 20
147.4081778335766
 30
0.0
 40
77.18865430290829
  1
14
 41
0.9
  7
Simplex
 11
1134.357621397881
 21
108.2756206846195
 31
0.0
100
AcDbText
 73
     1
  0
LINE
  5
F5
330
7C
100
AcDbEntity
  8
NOTE
  6
CONTINOUS
100
AcDbLine
 10
1149.871906397881
 20
290.0777517865025
 30
0.0
 11
1189.871906397881
 21
290.0777517865025
 31
0.0
  0
LINE
  5
F6
330
7C
100
AcDbEntity
  8
NOTE
  6
Continuous
100
AcDbLine
 10
1169.871906397881
 20
290.0777517865025
 30
0.0
 11
1184.97614639788
 21
253.0390967865026
 31
0.0
  0
LINE
  5
F7
330
7C
100
AcDbEntity
  8
NOTE
  6
Continuous
100
AcDbLine
 10
1169.871906397881
 20
290.0777517865025
 30
0.0
 11
1201.47188939788
 21
265.5534567865024
 31
0.0
  0
TEXT
  5
F8
330
7C
100
AcDbEntity
  8
ETC
  6
Continuous
100
AcDbText
 10
1561.288518397879
 20
427.8501368335765
 30
0.0
 40
77.18865430290829
  1
SPUZ0824
 41
0.9
  7
Simplex
 11
1561.288518397879
 21
388.7175796846194
 31
0.0
100
AcDbText
 73
     1
  0
LINE
  5
F9
330
7C
100
AcDbEntity
  8
SIZE
100
AcDbLine
 10
1420.44446039788
 20
1143.077751786502
 30
0.0
 11
1420.44446039788
 21
717.5777517865025
 31
0.0
  0
LINE
  5
FA
330
7C
100
AcDbEntity
  8
OUTLINE
  6
Continuous
100
AcDbLine
 10
1154.87190639788
 20
1145.077751786502
 30
0.0
 11
1154.87190639788
 21
323.0777517865025
 31
0.0
  0
LINE
  5
FB
330
7C
100
AcDbEntity
  8
DETAIL
  6
CONTINOUS
100
AcDbLine
 10
1154.87190639788
 20
323.0777517865025
 30
0.0
 11
1154.87190639788
 21
1145.077751786502
 31
0.0
  0
LINE
  5
FC
330
7C
100
AcDbEntity
  8
SIZE
100
AcDbLine
 10
1420.44446039788
 20
292.0777517865025
 30
0.0
 11
1420.44446039788
 21
717.5777517865025
 31
0.0
  0
LINE
  5
FD
330
7C
100
AcDbEntity
  8
NOTE
  6
Continuous
100
AcDbLine
 10
1124.871906397881
 20
323.0777517865025
 30
0.0
 11
1231.96219639788
 21
428.5736107865025
 31
0.0
  0
LINE
  5
FE
330
7C
100
AcDbEntity
  8
NOTE
  6
CONTINOUS
100
AcDbLine
 10
1104.871906397881
 20
323.0777517865025
 30
0.0
 11
1144.871906397881
 21
323.0777517865025
 31
0.0
  0
LWPOLYLINE
  5
FF
330
7C
100
AcDbEntity
  8
NOTE
  6
Continuous
100
AcDbPolyline
 90
        3
 70
     0
 43
0.0
 10
1145.131166397881
 20
357.5677847865026
 10
1124.871906397881
 20
323.0777517865025
 10
1159.661957397881
 20
342.8173667865026
  0
LINE
  5
100
330
7C
100
AcDbEntity
  8
NOTE
  6
CONTINOUS
100
AcDbLine
 10
1124.871906397881
 20
303.0777517865026
 30
0.0
 11
1124.871906397881
 21
343.0777517865025
 31
0.0
  0
TEXT
  5
101
330
7C
100
AcDbEntity
  8
NOTE
  6
Continuous
100
AcDbText
 10
1251.940121397881
 20
458.4916498335764
 30
0.0
 40
77.18865430290829
  1
D
 41
0.9
  7
Simplex
 11
1251.940121397881
 21
419.3590926846193
 31
0.0
100
AcDbText
 73
     1
  0
LINE
  5
102
330
7C
100
AcDbEntity
  8
NOTE
  6
Continuous
100
AcDbLine
 10
1231.96219639788
 20
428.5736107865025
 30
0.0
 11
1302.198482397881
 21
428.5736107865025
 31
0.0
  0
TEXT
  5
103
330
7C
100
AcDbEntity
  8
NOTE
  6
Continuous
100
AcDbText
 10
1060.708654397879
 20
655.6862948335764
 30
0.0
 40
77.18865430290829
  1
RG
 41
0.9
  7
Simplex
 11
1060.708654397879
 21
616.5537376846194
 31
0.0
100
AcDbText
 73
     1
  0
LINE
  5
104
330
7C
100
AcDbEntity
  8
NOTE
  6
Continuous
100
AcDbLine
 10
1040.77148939788
 20
625.2040537865025
 30
0.0
 11
1180.455218397881
 21
625.2040537865025
 31
0.0
  0
TEXT
  5
105
330
7C
100
AcDbEntity
  8
NOTE
  6
Continuous
100
AcDbText
 10
1060.92620539788
 20
842.2218908335765
 30
0.0
 40
77.18865430290829
  1
RL
 41
0.9
  7
Simplex
 11
1060.92620539788
 21
803.0893336846194
 31
0.0
100
AcDbText
 73
     1
  0
LINE
  5
106
330
7C
100
AcDbEntity
  8
NOTE
  6
Continuous
100
AcDbLine
 10
1040.77148939788
 20
812.3038517865023
 30
0.0
 11
1170.35759939788
 21
812.3038517865023
 31
0.0
  0
TEXT
  5
107
330
7C
100
AcDbEntity
  8
SIZE
100
AcDbText
 10
1368.397562350806
 20
643.5206087865025
 30
0.0
 40
77.18865430290829
  1
855
 50
90.0
 41
0.9
  7
Simplex
 11
1407.530119499763
 21
643.5206087865025
 31
0.0
100
AcDbText
 73
     1
  0
LINE
  5
108
330
7C
100
AcDbEntity
  8
SIZE
100
AcDbLine
 10
1154.87190739788
 20
1165.077751786502
 30
0.0
 11
1154.87190739788
 21
1422.502751786502
 31
0.0
  0
LINE
  5
109
330
7C
100
AcDbEntity
  8
SIZE
100
AcDbLine
 10
1203.87190739788
 20
1145.077751786502
 30
0.0
 11
1450.44446039788
 21
1145.077751786502
 31
0.0
  0
CIRCLE
  5
10A
330
7C
100
AcDbEntity
  8
SIZE
  6
Continuous
100
AcDbCircle
 10
1420.44446039788
 20
1145.077751786502
 30
0.0
 40
6.0
  0
CIRCLE
  5
10B
330
7C
100
AcDbEntity
  8
SIZE
  6
Continuous
100
AcDbCircle
 10
1154.87190739788
 20
1392.502751786502
 30
0.0
 40
6.0
  0
ENDBLK
  5
7E
330
7C
100
AcDbEntity
  8
0
100
AcDbBlockEnd
  0
BLOCK
  5
10D
330
10C
100
AcDbEntity
  8
0
100
AcDbBlockBegin
  2
_ORIGIN2
 70
     0
 10
0.0
 20
0.0
 30
0.0
  3
_ORIGIN2
  1
_ORIGIN2
  0
CIRCLE
  5
10F
330
10C
100
AcDbEntity
  8
0
100
AcDbCircle
 10
0.0
 20
0.0
 30
0.0
 40
0.5
  0
CIRCLE
  5
110
330
10C
100
AcDbEntity
  8
0
100
AcDbCircle
 10
0.0
 20
0.0
 30
0.0
 40
0.25
  0
LINE
  5
111
330
10C
100
AcDbEntity
  8
0
100
AcDbLine
 10
-0.5
 20
0.0
 30
0.0
 11
-1.0
 21
0.0
 31
0.0
  0
ENDBLK
  5
10E
330
10C
100
AcDbEntity
  8
0
100
AcDbBlockEnd
  0
BLOCK
  5
177
330
176
100
AcDbEntity
  8
0
100
AcDbBlockBegin
  2
_DOTBLANK
 70
     0
 10
0.0
 20
0.0
 30
0.0
  3
_DOTBLANK
  1
_DOTBLANK
  0
CIRCLE
  5
179
330
176
100
AcDbEntity
  8
0
  6
ByBlock
 62
     0
370
    -2
100
AcDbCircle
 10
0.0
 20
0.0
 30
0.0
 40
0.5
  0
LINE
  5
17A
330
176
100
AcDbEntity
  8
0
  6
ByBlock
 62
     0
370
    -2
100
AcDbLine
 10
-0.5
 20
0.0
 30
0.0
 11
-1.0
 21
0.0
 31
0.0
  0
ENDBLK
  5
178
330
176
100
AcDbEntity
  8
0
100
AcDbBlockEnd
  0
BLOCK
  5
185
330
17C
100
AcDbEntity
  8
0
100
AcDbBlockBegin
  2
*D4
 70
     1
 10
0.0
 20
0.0
 30
0.0
  3
*D4
  1
*D4
  0
MTEXT
  5
17D
330
17C
100
AcDbEntity
  8
SIZE
100
AcDbMText
 10
-587.5724772476705
 20
-36.87105178833008
 30
0.0
 40
77.18865430290829
 41
84.25927734375
 71
     7
 72
     1
  1
{\fSimplex|b0|i0;23}
  7
Simplex w9
 11
6.123233995736766E-17
 21
1.0
 31
0.0
 73
     1
 44
0.7500000000000001
  0
LINE
  5
17E
330
17C
100
AcDbEntity
  8
SIZE
  6
Continuous
100
AcDbLine
 10
-494.9999999999999
 20
23.0
 30
0.0
 11
-617.4824772476703
 21
23.00000000000002
 31
0.0
  0
LINE
  5
17F
330
17C
100
AcDbEntity
  8
SIZE
  6
Continuous
100
AcDbLine
 10
-340.0
 20
0.0000000000000024
 30
0.0
 11
-617.4824772476703
 21
0.0000000000000364
 31
0.0
  0
CIRCLE
  5
180
330
17C
100
AcDbEntity
  8
SIZE
  6
Continuous
100
AcDbCircle
 10
-587.4824772476703
 20
23.00000000000001
 30
0.0
 40
5.0
  0
CIRCLE
  5
181
330
17C
100
AcDbEntity
  8
SIZE
  6
Continuous
100
AcDbCircle
 10
-587.4824772476703
 20
0.0000000000000328
 30
0.0
 40
5.0
  0
LINE
  5
182
330
17C
100
AcDbEntity
  8
SIZE
  6
Continuous
100
AcDbLine
 10
-587.4824772476703
 20
28.00000000000001
 30
0.0
 11
-587.4824772476703
 21
59.87105178833011
 31
0.0
  0
LINE
  5
183
330
17C
100
AcDbEntity
  8
SIZE
  6
Continuous
100
AcDbLine
 10
-587.4824772476703
 20
-4.999999999999967
 30
0.0
 11
-587.4824772476703
 21
-36.87105178833006
 31
0.0
  0
LINE
  5
184
330
17C
100
AcDbEntity
  8
SIZE
  6
Continuous
100
AcDbLine
 10
-587.4824772476703
 20
18.00000000000001
 30
0.0
 11
-587.4824772476703
 21
5.000000000000033
 31
0.0
  0
ENDBLK
  5
186
330
17C
100
AcDbEntity
  8
0
100
AcDbBlockEnd
  0
BLOCK
  5
19B
330
194
100
AcDbEntity
  8
0
100
AcDbBlockBegin
  2
*D5
 70
     1
 10
0.0
 20
0.0
 30
0.0
  3
*D5
  1
*D5
  0
MTEXT
  5
195
330
194
100
AcDbEntity
  8
SIZE
100
AcDbMText
 10
-72.5565795898438
 20
-406.2564041100972
 30
0.0
 40
77.18865430290829
 41
129.4417304992676
 71
     7
 72
     1
  1
{\fSimplex|b0|i0;600}
  7
Simplex w9
 73
     1
 44
0.7500000000000001
  0
LINE
  5
196
330
194
100
AcDbEntity
  8
SIZE
  6
Continuous
100
AcDbLine
 10
-300.0
 20
-40.0
 30
0.0
 11
-300.0000000000001
 21
-436.3464041100973
 31
0.0
  0
LINE
  5
197
330
194
100
AcDbEntity
  8
SIZE
  6
Continuous
100
AcDbLine
 10
300.0
 20
-40.0
 30
0.0
 11
299.9999999999999
 21
-436.3464041100973
 31
0.0
  0
CIRCLE
  5
198
330
194
100
AcDbEntity
  8
SIZE
  6
Continuous
100
AcDbCircle
 10
-300.0000000000001
 20
-406.3464041100973
 30
0.0
 40
5.0
  0
CIRCLE
  5
199
330
194
100
AcDbEntity
  8
SIZE
  6
Continuous
100
AcDbCircle
 10
299.9999999999999
 20
-406.3464041100973
 30
0.0
 40
5.0
  0
LINE
  5
19A
330
194
100
AcDbEntity
  8
SIZE
  6
Continuous
100
AcDbLine
 10
-295.0000000000001
 20
-406.3464041100973
 30
0.0
 11
294.9999999999999
 21
-406.3464041100973
 31
0.0
  0
ENDBLK
  5
19C
330
194
100
AcDbEntity
  8
0
100
AcDbBlockEnd
  0
BLOCK
  5
1A5
330
19E
100
AcDbEntity
  8
0
100
AcDbBlockBegin
  2
*D6
 70
     1
 10
0.0
 20
0.0
 30
0.0
  3
*D6
  1
*D6
  0
MTEXT
  5
19F
330
19E
100
AcDbEntity
  8
SIZE
100
AcDbMText
 10
-455.2059020995862
 20
-406.2564041100773
 30
0.0
 40
77.18865430290829
 41
119.4690246582031
 71
     7
 72
     1
  1
{\fSimplex|b0|i0;175}
  7
Simplex w9
 73
     1
 44
0.7500000000000001
  0
LINE
  5
1A0
330
19E
100
AcDbEntity
  8
SIZE
  6
Continuous
100
AcDbLine
 10
-299.9999999999989
 20
-40.0
 30
0.0
 11
-299.9999999999764
 21
-436.3464041100773
 31
0.0
  0
LINE
  5
1A1
330
19E
100
AcDbEntity
  8
SIZE
  6
Continuous
100
AcDbLine
 10
-474.9999999999987
 20
3.0
 30
0.0
 11
-474.9999999999739
 21
-436.3464041100674
 31
0.0
  0
CIRCLE
  5
1A2
330
19E
100
AcDbEntity
  8
SIZE
  6
Continuous
100
AcDbCircle
 10
-299.9999999999781
 20
-406.3464041100773
 30
0.0
 40
5.0
  0
CIRCLE
  5
1A3
330
19E
100
AcDbEntity
  8
SIZE
  6
Continuous
100
AcDbCircle
 10
-474.9999999999756
 20
-406.3464041100674
 30
0.0
 40
5.0
  0
LINE
  5
1A4
330
19E
100
AcDbEntity
  8
SIZE
  6
Continuous
100
AcDbLine
 10
-304.9999999999781
 20
-406.3464041100771
 30
0.0
 11
-469.9999999999756
 21
-406.3464041100677
 31
0.0
  0
ENDBLK
  5
1A6
330
19E
100
AcDbEntity
  8
0
100
AcDbBlockEnd
  0
BLOCK
  5
1AF
330
1A8
100
AcDbEntity
  8
0
100
AcDbBlockBegin
  2
*D7
 70
     1
 10
0.0
 20
0.0
 30
0.0
  3
*D7
  1
*D7
  0
MTEXT
  5
1A9
330
1A8
100
AcDbEntity
  8
SIZE
100
AcDbMText
 10
319.7940979003906
 20
-406.2564041100973
 30
0.0
 40
77.18865430290829
 41
119.4690246582031
 71
     7
 72
     1
  1
{\fSimplex|b0|i0;175}
  7
Simplex w9
 73
     1
 44
0.7500000000000001
  0
LINE
  5
1AA
330
1A8
100
AcDbEntity
  8
SIZE
  6
Continuous
100
AcDbLine
 10
300.0
 20
-40.0
 30
0.0
 11
299.9999999999999
 21
-436.3464041100973
 31
0.0
  0
LINE
  5
1AB
330
1A8
100
AcDbEntity
  8
SIZE
  6
Continuous
100
AcDbLine
 10
475.0
 20
3.0
 30
0.0
 11
474.9999999999999
 21
-436.3464041100973
 31
0.0
  0
CIRCLE
  5
1AC
330
1A8
100
AcDbEntity
  8
SIZE
  6
Continuous
100
AcDbCircle
 10
299.9999999999999
 20
-406.3464041100973
 30
0.0
 40
5.0
  0
CIRCLE
  5
1AD
330
1A8
100
AcDbEntity
  8
SIZE
  6
Continuous
100
AcDbCircle
 10
474.9999999999999
 20
-406.3464041100973
 30
0.0
 40
5.0
  0
LINE
  5
1AE
330
1A8
100
AcDbEntity
  8
SIZE
  6
Continuous
100
AcDbLine
 10
304.9999999999999
 20
-406.3464041100973
 30
0.0
 11
469.9999999999999
 21
-406.3464041100973
 31
0.0
  0
ENDBLK
  5
1B0
330
1A8
100
AcDbEntity
  8
0
100
AcDbBlockEnd
  0
BLOCK
  5
1B9
330
1B2
100
AcDbEntity
  8
0
100
AcDbBlockBegin
  2
*D8
 70
     1
 10
0.0
 20
0.0
 30
0.0
  3
*D8
  1
*D8
  0
MTEXT
  5
1B3
330
1B2
100
AcDbEntity
  8
SIZE
100
AcDbMText
 10
-72.55657958977893
 20
-542.9239620048354
 30
0.0
 40
77.18865430290829
 41
129.4417304992676
 71
     7
 72
     1
  1
{\fSimplex|b0|i0;950}
  7
Simplex w9
 73
     1
 44
0.7500000000000001
  0
LINE
  5
1B4
330
1B2
100
AcDbEntity
  8
SIZE
  6
Continuous
100
AcDbLine
 10
475.0000000000023
 20
3.0
 30
0.0
 11
475.0000000000682
 21
-573.0139620048354
 31
0.0
  0
LINE
  5
1B5
330
1B2
100
AcDbEntity
  8
SIZE
  6
Continuous
100
AcDbLine
 10
-474.9999999999976
 20
3.0
 30
0.0
 11
-474.9999999999317
 21
-573.0139620049434
 31
0.0
  0
CIRCLE
  5
1B6
330
1B2
100
AcDbEntity
  8
SIZE
  6
Continuous
100
AcDbCircle
 10
475.0000000000647
 20
-543.0139620048354
 30
0.0
 40
5.0
  0
CIRCLE
  5
1B7
330
1B2
100
AcDbEntity
  8
SIZE
  6
Continuous
100
AcDbCircle
 10
-474.9999999999351
 20
-543.0139620049434
 30
0.0
 40
5.0
  0
LINE
  5
1B8
330
1B2
100
AcDbEntity
  8
SIZE
  6
Continuous
100
AcDbLine
 10
470.0000000000647
 20
-543.013962004836
 30
0.0
 11
-469.9999999999351
 21
-543.0139620049429
 31
0.0
  0
ENDBLK
  5
1BA
330
1B2
100
AcDbEntity
  8
0
100
AcDbBlockEnd
  0
BLOCK
  5
1CA
330
1C3
100
AcDbEntity
  8
0
100
AcDbBlockBegin
  2
*D9
 70
     1
 10
0.0
 20
0.0
 30
0.0
  3
*D9
  1
*D9
  0
MTEXT
  5
1C4
330
1C3
100
AcDbEntity
  8
SIZE
100
AcDbMText
 10
-685.190367176048
 20
117.7940979003906
 30
0.0
 40
77.18865430290829
 41
112.379638671875
 71
     7
 72
     1
  1
{\fSimplex|b0|i0;371}
  7
Simplex w9
 11
6.123233995736766E-17
 21
1.0
 31
0.0
 73
     1
 44
0.7500000000000001
  0
LINE
  5
1C5
330
1C3
100
AcDbEntity
  8
SIZE
  6
Continuous
100
AcDbLine
 10
-340.0
 20
0.0000000000000024
 30
0.0
 11
-715.100367176048
 21
0.0000000000000484
 31
0.0
  0
LINE
  5
1C6
330
1C3
100
AcDbEntity
  8
SIZE
  6
Continuous
100
AcDbLine
 10
-486.797845249847
 20
371.0
 30
0.0
 11
-715.100367176048
 21
371.0
 31
0.0
  0
CIRCLE
  5
1C7
330
1C3
100
AcDbEntity
  8
SIZE
  6
Continuous
100
AcDbCircle
 10
-685.100367176048
 20
0.0000000000000447
 30
0.0
 40
5.0
  0
CIRCLE
  5
1C8
330
1C3
100
AcDbEntity
  8
SIZE
  6
Continuous
100
AcDbCircle
 10
-685.100367176048
 20
371.0
 30
0.0
 40
5.0
  0
LINE
  5
1C9
330
1C3
100
AcDbEntity
  8
SIZE
  6
Continuous
100
AcDbLine
 10
-685.100367176048
 20
5.000000000000044
 30
0.0
 11
-685.100367176048
 21
366.0
 31
0.0
  0
ENDBLK
  5
1CB
330
1C3
100
AcDbEntity
  8
0
100
AcDbBlockEnd
  0
BLOCK
  5
1D4
330
1CD
100
AcDbEntity
  8
0
100
AcDbBlockBegin
  2
*D10
 70
     1
 10
0.0
 20
0.0
 30
0.0
  3
*D10
  1
*D10
  0
MTEXT
  5
1CE
330
1CD
100
AcDbEntity
  8
SIZE
100
AcDbMText
 10
-833.6333187690233
 20
297.4434204101561
 30
0.0
 40
77.18865430290829
 41
131.3413696289062
 71
     7
 72
     1
  1
{\fSimplex|b0|i0;740}
  7
Simplex w9
 11
6.123233995736766E-17
 21
1.0
 31
0.0
 73
     1
 44
0.7500000000000001
  0
LINE
  5
1CF
330
1CD
100
AcDbEntity
  8
SIZE
  6
Continuous
100
AcDbLine
 10
-494.9999999999999
 20
740.0
 30
0.0
 11
-863.5433187690234
 21
740.0
 31
0.0
  0
LINE
  5
1D0
330
1CD
100
AcDbEntity
  8
SIZE
  6
Continuous
100
AcDbLine
 10
-340.0
 20
0.0000000000000024
 30
0.0
 11
-863.5433187690234
 21
0.0000000000000666
 31
0.0
  0
CIRCLE
  5
1D1
330
1CD
100
AcDbEntity
  8
SIZE
  6
Continuous
100
AcDbCircle
 10
-833.5433187690234
 20
740.0
 30
0.0
 40
5.0
  0
CIRCLE
  5
1D2
330
1CD
100
AcDbEntity
  8
SIZE
  6
Continuous
100
AcDbCircle
 10
-833.5433187690234
 20
0.0000000000000629
 30
0.0
 40
5.0
  0
LINE
  5
1D3
330
1CD
100
AcDbEntity
  8
SIZE
  6
Continuous
100
AcDbLine
 10
-833.5433187690234
 20
735.0
 30
0.0
 11
-833.5433187690234
 21
5.000000000000063
 31
0.0
  0
ENDBLK
  5
1D5
330
1CD
100
AcDbEntity
  8
0
100
AcDbBlockEnd
  0
BLOCK
  5
1DE
330
1D7
100
AcDbEntity
  8
0
100
AcDbBlockBegin
  2
*D11
 70
     1
 10
0.0
 20
0.0
 30
0.0
  3
*D11
  1
*D11
  0
MTEXT
  5
1D8
330
1D7
100
AcDbEntity
  8
SIZE
100
AcDbMText
 10
-386.5565795897895
 20
909.1444086219584
 30
0.0
 40
77.18865430290829
 41
131.2734832763672
 71
     7
 72
     1
  1
{\fSimplex|b0|i0;322}
  7
Simplex w9
 73
     1
 44
0.7500000000000001
  0
LINE
  5
1D9
330
1D7
100
AcDbEntity
  8
SIZE
  6
Continuous
100
AcDbLine
 10
-152.9999999998492
 20
704.7978452500001
 30
0.0
 11
-152.9999999998757
 21
939.0544086219584
 31
0.0
  0
LINE
  5
1DA
330
1D7
100
AcDbEntity
  8
SIZE
  6
Continuous
100
AcDbLine
 10
-475.0000000000022
 20
760.0
 30
0.0
 11
-475.0000000000225
 21
939.0544086219584
 31
0.0
  0
CIRCLE
  5
1DB
330
1D7
100
AcDbEntity
  8
SIZE
  6
Continuous
100
AcDbCircle
 10
-152.9999999998723
 20
909.0544086219584
 30
0.0
 40
5.0
  0
CIRCLE
  5
1DC
330
1D7
100
AcDbEntity
  8
SIZE
  6
Continuous
100
AcDbCircle
 10
-475.0000000000191
 20
909.0544086219584
 30
0.0
 40
5.0
  0
LINE
  5
1DD
330
1D7
100
AcDbEntity
  8
SIZE
  6
Continuous
100
AcDbLine
 10
-157.9999999998723
 20
909.0544086219584
 30
0.0
 11
-470.0000000000191
 21
909.0544086219584
 31
0.0
  0
ENDBLK
  5
1DF
330
1D7
100
AcDbEntity
  8
0
100
AcDbBlockEnd
  0
BLOCK
  5
1E8
330
1E1
100
AcDbEntity
  8
0
100
AcDbBlockBegin
  2
*D12
 70
     1
 10
0.0
 20
0.0
 30
0.0
  3
*D12
  1
*D12
  0
MTEXT
  5
1E2
330
1E1
100
AcDbEntity
  8
SIZE
100
AcDbMText
 10
-72.55657958984374
 20
1144.491728596418
 30
0.0
 40
77.18865430290829
 41
129.4417304992676
 71
     7
 72
     1
  1
{\fSimplex|b0|i0;950}
  7
Simplex w9
 73
     1
 44
0.7500000000000001
  0
LINE
  5
1E3
330
1E1
100
AcDbEntity
  8
SIZE
  6
Continuous
100
AcDbLine
 10
475.0
 20
760.0000000000001
 30
0.0
 11
474.9999999999999
 21
1174.401728596418
 31
0.0
  0
LINE
  5
1E4
330
1E1
100
AcDbEntity
  8
SIZE
  6
Continuous
100
AcDbLine
 10
-474.9999999999999
 20
760.0
 30
0.0
 11
-474.9999999999999
 21
1174.401728596418
 31
0.0
  0
CIRCLE
  5
1E5
330
1E1
100
AcDbEntity
  8
SIZE
  6
Continuous
100
AcDbCircle
 10
474.9999999999999
 20
1144.401728596418
 30
0.0
 40
5.0
  0
CIRCLE
  5
1E6
330
1E1
100
AcDbEntity
  8
SIZE
  6
Continuous
100
AcDbCircle
 10
-474.9999999999999
 20
1144.401728596418
 30
0.0
 40
5.0
  0
LINE
  5
1E7
330
1E1
100
AcDbEntity
  8
SIZE
  6
Continuous
100
AcDbLine
 10
469.9999999999999
 20
1144.401728596418
 30
0.0
 11
-469.9999999999999
 21
1144.401728596418
 31
0.0
  0
ENDBLK
  5
1E9
330
1E1
100
AcDbEntity
  8
0
100
AcDbBlockEnd
  0
BLOCK
  5
1F2
330
1EB
100
AcDbEntity
  8
0
100
AcDbBlockBegin
  2
*D13
 70
     1
 10
0.0
 20
0.0
 30
0.0
  3
*D13
  1
*D13
  0
MTEXT
  5
1EC
330
1EB
100
AcDbEntity
  8
SIZE
100
AcDbMText
 10
302.4434204101563
 20
906.8670023249714
 30
0.0
 40
77.18865430290829
 41
132.6303100585938
 71
     7
 72
     1
  1
{\fSimplex|b0|i0;200}
  7
Simplex w9
 73
     1
 44
0.7500000000000001
  0
LINE
  5
1ED
330
1EB
100
AcDbEntity
  8
SIZE
  6
Continuous
100
AcDbLine
 10
275.0
 20
499.0
 30
0.0
 11
275.0000000000001
 21
936.7770023249714
 31
0.0
  0
LINE
  5
1EE
330
1EB
100
AcDbEntity
  8
SIZE
  6
Continuous
100
AcDbLine
 10
475.0
 20
760.0000000000001
 30
0.0
 11
475.0
 21
936.7770023249714
 31
0.0
  0
CIRCLE
  5
1EF
330
1EB
100
AcDbEntity
  8
SIZE
  6
Continuous
100
AcDbCircle
 10
275.0000000000001
 20
906.7770023249714
 30
0.0
 40
5.0
  0
CIRCLE
  5
1F0
330
1EB
100
AcDbEntity
  8
SIZE
  6
Continuous
100
AcDbCircle
 10
475.0
 20
906.7770023249714
 30
0.0
 40
5.0
  0
LINE
  5
1F1
330
1EB
100
AcDbEntity
  8
SIZE
  6
Continuous
100
AcDbLine
 10
280.0000000000001
 20
906.7770023249714
 30
0.0
 11
470.0
 21
906.7770023249714
 31
0.0
  0
ENDBLK
  5
1F3
330
1EB
100
AcDbEntity
  8
0
100
AcDbBlockEnd
  0
BLOCK
  5
1FC
330
1F5
100
AcDbEntity
  8
0
100
AcDbBlockBegin
  2
*D14
 70
     1
 10
0.0
 20
0.0
 30
0.0
  3
*D14
  1
*D14
  0
MTEXT
  5
1F6
330
1F5
100
AcDbEntity
  8
SIZE
100
AcDbMText
 10
1016.777593268802
 20
156.9434204101564
 30
0.0
 40
77.18865430290829
 41
132.4268188476562
 71
     7
 72
     1
  1
{\fSimplex|b0|i0;459}
  7
Simplex w9
 11
6.123233995736766E-17
 21
1.0
 31
0.0
 73
     1
 44
0.7500000000000001
  0
LINE
  5
1F7
330
1F5
100
AcDbEntity
  8
SIZE
  6
Continuous
100
AcDbLine
 10
315.0
 20
459.0
 30
0.0
 11
1046.867593268802
 21
459.0
 31
0.0
  0
LINE
  5
1F8
330
1F5
100
AcDbEntity
  8
SIZE
  6
Continuous
100
AcDbLine
 10
340.0
 20
0.0
 30
0.0
 11
1046.867593268802
 21
0.0
 31
0.0
  0
CIRCLE
  5
1F9
330
1F5
100
AcDbEntity
  8
SIZE
  6
Continuous
100
AcDbCircle
 10
1016.867593268802
 20
459.0
 30
0.0
 40
5.0
  0
CIRCLE
  5
1FA
330
1F5
100
AcDbEntity
  8
SIZE
  6
Continuous
100
AcDbCircle
 10
1016.867593268802
 20
0.0
 30
0.0
 40
5.0
  0
LINE
  5
1FB
330
1F5
100
AcDbEntity
  8
SIZE
  6
Continuous
100
AcDbLine
 10
1016.867593268802
 20
454.0
 30
0.0
 11
1016.867593268802
 21
5.0
 31
0.0
  0
ENDBLK
  5
1FD
330
1F5
100
AcDbEntity
  8
0
100
AcDbBlockEnd
  0
BLOCK
  5
206
330
1FF
100
AcDbEntity
  8
0
100
AcDbBlockBegin
  2
*D15
 70
     1
 10
0.0
 20
0.0
 30
0.0
  3
*D15
  1
*D15
  0
MTEXT
  5
200
330
1FF
100
AcDbEntity
  8
SIZE
100
AcDbMText
 10
849.4135475643162
 20
74.94342041015625
 30
0.0
 40
77.18865430290829
 41
132.6303100585938
 71
     7
 72
     1
  1
{\fSimplex|b0|i0;295}
  7
Simplex w9
 11
6.123233995736766E-17
 21
1.0
 31
0.0
 73
     1
 44
0.7500000000000001
  0
LINE
  5
201
330
1FF
100
AcDbEntity
  8
SIZE
  6
Continuous
100
AcDbLine
 10
340.0
 20
0.0
 30
0.0
 11
879.5035475643162
 21
0.0
 31
0.0
  0
LINE
  5
202
330
1FF
100
AcDbEntity
  8
SIZE
  6
Continuous
100
AcDbLine
 10
417.0
 20
295.0
 30
0.0
 11
879.5035475643162
 21
295.0
 31
0.0
  0
CIRCLE
  5
203
330
1FF
100
AcDbEntity
  8
SIZE
  6
Continuous
100
AcDbCircle
 10
849.5035475643162
 20
0.0
 30
0.0
 40
5.0
  0
CIRCLE
  5
204
330
1FF
100
AcDbEntity
  8
SIZE
  6
Continuous
100
AcDbCircle
 10
849.5035475643162
 20
295.0
 30
0.0
 40
5.0
  0
LINE
  5
205
330
1FF
100
AcDbEntity
  8
SIZE
  6
Continuous
100
AcDbLine
 10
849.5035475643162
 20
5.0
 30
0.0
 11
849.5035475643162
 21
290.0
 31
0.0
  0
ENDBLK
  5
207
330
1FF
100
AcDbEntity
  8
0
100
AcDbBlockEnd
  0
BLOCK
  5
211
330
20A
100
AcDbEntity
  8
0
100
AcDbBlockBegin
  2
*D16
 70
     1
 10
0.0
 20
0.0
 30
0.0
  3
*D16
  1
*D16
  0
MTEXT
  5
20B
330
20A
100
AcDbEntity
  8
SIZE
100
AcDbMText
 10
679.717064177894
 20
71.94342041015625
 30
0.0
 40
77.18865430290829
 41
132.6303100585938
 71
     7
 72
     1
  1
{\fSimplex|b0|i0;289}
  7
Simplex w9
 11
6.123233995736766E-17
 21
1.0
 31
0.0
 73
     1
 44
0.7500000000000001
  0
LINE
  5
20C
330
20A
100
AcDbEntity
  8
SIZE
  6
Continuous
100
AcDbLine
 10
472.0
 20
289.0
 30
0.0
 11
709.8070641778941
 21
289.0
 31
0.0
  0
LINE
  5
20D
330
20A
100
AcDbEntity
  8
SIZE
  6
Continuous
100
AcDbLine
 10
336.0
 20
0.0
 30
0.0
 11
709.8070641778941
 21
0.0
 31
0.0
  0
CIRCLE
  5
20E
330
20A
100
AcDbEntity
  8
SIZE
  6
Continuous
100
AcDbCircle
 10
679.8070641778941
 20
289.0
 30
0.0
 40
5.0
  0
CIRCLE
  5
20F
330
20A
100
AcDbEntity
  8
SIZE
  6
Continuous
100
AcDbCircle
 10
679.8070641778941
 20
0.0
 30
0.0
 40
5.0
  0
LINE
  5
210
330
20A
100
AcDbEntity
  8
SIZE
  6
Continuous
100
AcDbLine
 10
679.8070641778941
 20
284.0
 30
0.0
 11
679.8070641778941
 21
5.0
 31
0.0
  0
ENDBLK
  5
212
330
20A
100
AcDbEntity
  8
0
100
AcDbBlockEnd
  0
BLOCK
  5
21C
330
214
100
AcDbEntity
  8
0
100
AcDbBlockBegin
  2
*D17
 70
     1
 10
0.0
 20
0.0
 30
0.0
  3
*D17
  1
*D17
  0
MTEXT
  5
215
330
214
100
AcDbEntity
  8
SIZE
100
AcDbMText
 10
483.3475196402414
 20
187.3190537765475
 30
0.0
 40
77.18865430290829
 41
84.05572509765625
 71
     7
 72
     1
  1
{\fSimplex|b0|i0;43}
  7
Simplex w9
 73
     1
 44
0.7500000000000001
  0
LINE
  5
216
330
214
100
AcDbEntity
  8
SIZE
  6
Continuous
100
AcDbLine
 10
432.0
 20
249.0
 30
0.0
 11
431.9999999999999
 21
157.2290537765475
 31
0.0
  0
LINE
  5
217
330
214
100
AcDbEntity
  8
SIZE
  6
Continuous
100
AcDbLine
 10
475.0
 20
43.0
 30
0.0
 11
475.0000000000001
 21
217.2290537765475
 31
0.0
  0
CIRCLE
  5
218
330
214
100
AcDbEntity
  8
SIZE
  6
Continuous
100
AcDbCircle
 10
431.9999999999999
 20
187.2290537765475
 30
0.0
 40
5.0
  0
CIRCLE
  5
219
330
214
100
AcDbEntity
  8
SIZE
  6
Continuous
100
AcDbCircle
 10
475.0000000000001
 20
187.2290537765475
 30
0.0
 40
5.0
  0
LINE
  5
21A
330
214
100
AcDbEntity
  8
SIZE
  6
Continuous
100
AcDbLine
 10
436.9999999999999
 20
187.2290537765475
 30
0.0
 11
470.0000000000001
 21
187.2290537765475
 31
0.0
  0
LINE
  5
21B
330
214
100
AcDbEntity
  8
SIZE
  6
Continuous
100
AcDbLine
 10
475.0000000000001
 20
187.2290537765475
 30
0.0
 11
580.0896232169015
 21
187.2290537765475
 31
0.0
  0
ENDBLK
  5
21D
330
214
100
AcDbEntity
  8
0
100
AcDbBlockEnd
  0
BLOCK
  5
227
330
21F
100
AcDbEntity
  8
0
100
AcDbBlockBegin
  2
*D18
 70
     1
 10
0.0
 20
0.0
 30
0.0
  3
*D18
  1
*D18
  0
MTEXT
  5
220
330
21F
100
AcDbEntity
  8
SIZE
100
AcDbMText
 10
267.6874139030133
 20
187.1462109540985
 30
0.0
 40
77.18865430290829
 41
83.44512939453125
 71
     7
 72
     1
  1
{\fSimplex|b0|i0;55}
  7
Simplex w9
 73
     1
 44
0.7500000000000001
  0
LINE
  5
221
330
21F
100
AcDbEntity
  8
SIZE
  6
Continuous
100
AcDbLine
 10
377.0
 20
255.0
 30
0.0
 11
376.9999999999999
 21
157.0562109540985
 31
0.0
  0
LINE
  5
222
330
21F
100
AcDbEntity
  8
SIZE
  6
Continuous
100
AcDbLine
 10
432.0
 20
249.0
 30
0.0
 11
432.0
 21
157.0562109540985
 31
0.0
  0
CIRCLE
  5
223
330
21F
100
AcDbEntity
  8
SIZE
  6
Continuous
100
AcDbCircle
 10
376.9999999999999
 20
187.0562109540985
 30
0.0
 40
5.0
  0
CIRCLE
  5
224
330
21F
100
AcDbEntity
  8
SIZE
  6
Continuous
100
AcDbCircle
 10
432.0
 20
187.0562109540985
 30
0.0
 40
5.0
  0
LINE
  5
225
330
21F
100
AcDbEntity
  8
SIZE
  6
Continuous
100
AcDbLine
 10
381.9999999999999
 20
187.0562109540985
 30
0.0
 11
427.0
 21
187.0562109540985
 31
0.0
  0
LINE
  5
226
330
21F
100
AcDbEntity
  8
SIZE
  6
Continuous
100
AcDbLine
 10
376.9999999999999
 20
187.0562109540985
 30
0.0
 11
267.6874139030133
 21
187.0562109540985
 31
0.0
  0
ENDBLK
  5
228
330
21F
100
AcDbEntity
  8
0
100
AcDbBlockEnd
  0
ENDSEC
  0
SECTION
  2
ENTITIES
  0
TEXT
  5
112
330
1F
100
AcDbEntity
  8
NOTE
  6
Continuous
100
AcDbText
 10
-1088.829174033236
 20
-256.1683436438835
 30
0.0
 40
55.46187107438017
  1
AH 2-12×36
 41
0.9
  7
MS PGothic
 11
-1088.829174033236
 21
-267.5085630951232
 31
0.0
100
AcDbText
 73
     1
  0
LINE
  5
113
330
1F
100
AcDbEntity
  8
NOTE
  6
Continuous
100
AcDbLine
 10
-1103.609479033234
 20
-274.2326822769413
 30
0.0
 11
-530.5400718084968
 21
-274.2326822769413
 31
0.0
  0
CIRCLE
  5
114
330
1F
100
AcDbEntity
  8
ARRANGE
  6
Continuous
100
AcDbCircle
 10
0.0
 20
0.0
 30
0.0
 40
40.0
  0
LINE
  5
115
330
1F
100
AcDbEntity
  8
BASIS
  6
DASHDOT
100
AcDbLine
 10
-466.797845249847
 20
371.0
 30
0.0
 11
160.7978452501529
 21
371.0
 31
0.0
  0
POINT
  5
116
330
1F
100
AcDbEntity
  8
ARRANGE
  6
Continuous
100
AcDbPoint
 10
0.0
 20
0.0
 30
0.0
  0
CIRCLE
  5
117
330
1F
100
AcDbEntity
  8
FIX
  6
Continuous
100
AcDbCircle
 10
-300.0
 20
0.0
 30
0.0
 40
40.0
  0
LINE
  5
118
330
1F
100
AcDbEntity
  8
DETAIL
  6
CONTINOUS
100
AcDbLine
 10
-335.0
 20
23.0
 30
0.0
 11
-335.0
 21
0.0
 31
0.0
  0
LINE
  5
119
330
1F
100
AcDbEntity
  8
DETAIL
  6
CONTINOUS
100
AcDbLine
 10
-265.0
 20
23.0
 30
0.0
 11
-265.0
 21
0.0
 31
0.0
  0
LINE
  5
11A
330
1F
100
AcDbEntity
  8
BASIS
  6
DASHDOT
100
AcDbLine
 10
0.0
 20
985.8255614350003
 30
0.0
 11
0.0
 21
-80.02908974499996
 31
0.0
  0
LINE
  5
11B
330
1F
100
AcDbEntity
  8
NOTE
  6
CONTINOUS
100
AcDbLine
 10
-300.0
 20
20.0
 30
0.0
 11
-300.0
 21
-20.0
 31
0.0
  0
LINE
  5
11C
330
1F
100
AcDbEntity
  8
NOTE
  6
CONTINOUS
100
AcDbLine
 10
-320.0
 20
0.0
 30
0.0
 11
-280.0
 21
0.0
 31
0.0
  0
LINE
  5
11D
330
1F
100
AcDbEntity
  8
DETAIL
  6
CONTINOUS
100
AcDbLine
 10
-335.0
 20
0.0
 30
0.0
 11
-265.0
 21
0.0
 31
0.0
  0
LINE
  5
11E
330
1F
100
AcDbEntity
  8
DETAIL
  6
CONTINOUS
100
AcDbLine
 10
-474.9999999999999
 20
23.0
 30
0.0
 11
-474.9999999999999
 21
740.0
 31
0.0
  0
CIRCLE
  5
11F
330
1F
100
AcDbEntity
  8
FIX
  6
Continuous
100
AcDbCircle
 10
300.0
 20
0.0
 30
0.0
 40
40.0
  0
LINE
  5
120
330
1F
100
AcDbEntity
  8
NOTE
  6
CONTINOUS
100
AcDbLine
 10
300.0
 20
20.0
 30
0.0
 11
300.0
 21
-20.0
 31
0.0
  0
TEXT
  5
121
330
1F
100
AcDbEntity
  8
ETC
  6
Continuous
100
AcDbText
 10
1198.457716830522
 20
-207.7288004706968
 30
0.0
 40
77.18865430290829
  1
SMPU2942
 41
0.9
  7
Simplex
 11
1198.457716830522
 21
-246.8613576196539
 31
0.0
100
AcDbText
 73
     1
  0
TEXT
  5
122
330
1F
100
AcDbEntity
  8
ETC
  6
Continuous
100
AcDbText
 10
1210.280460830523
 20
-343.9802618847128
 30
0.0
 40
55.46187107438017
  1
室外機
 41
0.9
  7
MS PGothic
 11
1210.280460830523
 21
-355.3204813359524
 31
0.0
100
AcDbText
 73
     1
  0
LINE
  5
123
330
1F
100
AcDbEntity
  8
DETAIL
  6
CONTINOUS
100
AcDbLine
 10
475.0
 20
23.0
 30
0.0
 11
475.0
 21
740.0000000000001
 31
0.0
  0
LWPOLYLINE
  5
124
330
1F
100
AcDbEntity
  8
NOTE
  6
Continuous
100
AcDbPolyline
 90
        3
 70
     0
 43
0.0
 10
-317.2153271943211
 20
-36.1058517009369
 10
-300.0
 20
0.0
 10
-332.9618361211286
 20
-22.66092149702989
  0
LINE
  5
125
330
1F
100
AcDbEntity
  8
NOTE
  6
Continuous
100
AcDbLine
 10
-300.0
 20
0.0
 30
0.0
 11
-530.5400718084968
 21
-274.2326822769413
 31
0.0
  0
ARC
  5
126
330
1F
100
AcDbEntity
  8
DETAIL
100
AcDbCircle
 10
-153.6193762818014
 20
371.2682836682379
 30
0.0
 40
278.1195056795194
100
AcDbArc
 50
324.2562072727225
 51
35.03548794368135
  0
ARC
  5
127
330
1F
100
AcDbEntity
  8
DETAIL
100
AcDbCircle
 10
228.7923621919769
 20
73.15382299397453
 30
0.0
 40
207.2408890576608
100
AcDbArc
 50
139.1151344663215
 51
177.5535587923104
  0
ARC
  5
128
330
1F
100
AcDbEntity
  8
DETAIL
100
AcDbCircle
 10
228.7923621978532
 20
668.8461769980269
 30
0.0
 40
207.2408890576608
100
AcDbArc
 50
182.4464412052211
 51
221.7189206973028
  0
ARC
  5
129
330
1F
100
AcDbEntity
  8
DETAIL
100
AcDbCircle
 10
-152.3806237154941
 20
371.2682836682316
 30
0.0
 40
278.1195056795194
100
AcDbArc
 50
144.9645120557514
 51
215.7437927267131
  0
ARC
  5
12A
330
1F
100
AcDbEntity
  8
DETAIL
100
AcDbCircle
 10
-534.7923621922135
 20
668.8461770017932
 30
0.0
 40
207.2408890576608
100
AcDbArc
 50
318.2810793021345
 51
357.3820146766502
  0
ARC
  5
12B
330
1F
100
AcDbEntity
  8
DETAIL
100
AcDbCircle
 10
-534.7923621922135
 20
73.15382299774092
 30
0.0
 40
207.2408890576608
100
AcDbArc
 50
2.617985323349592
 51
40.88486553310612
  0
LINE
  5
12C
330
1F
100
AcDbEntity
  8
DETAIL
100
AcDbLine
 10
136.000000000153
 20
650.501446896475
 30
0.0
 11
136.000000000153
 21
91.49855310399062
 31
0.0
  0
LINE
  5
12D
330
1F
100
AcDbEntity
  8
DETAIL
100
AcDbLine
 10
-441.9999999998473
 20
91.49855310305794
 30
0.0
 11
-441.9999999998473
 21
650.5014468964757
 31
0.0
  0
LINE
  5
12E
330
1F
100
AcDbEntity
  8
DETAIL
100
AcDbLine
 10
126.5014468961674
 20
82.00000000046055
 30
0.0
 11
-432.5014468963169
 21
82.00000000046055
 31
0.0
  0
ARC
  5
12F
330
1F
100
AcDbEntity
  8
DETAIL
100
AcDbCircle
 10
-432.4999999998472
 20
91.50000000046055
 30
0.0
 40
9.500000110184637
100
AcDbArc
 50
180.0087264246668
 51
269.991273575333
  0
ARC
  5
130
330
1F
100
AcDbEntity
  8
DETAIL
100
AcDbCircle
 10
126.5000000001529
 20
91.50000000046055
 30
0.0
 40
9.500000110184637
100
AcDbArc
 50
270.0087264246668
 51
359.991273575333
  0
LINE
  5
131
330
1F
100
AcDbEntity
  8
DETAIL
100
AcDbLine
 10
-432.5014468906151
 20
660.0000000004621
 30
0.0
 11
126.5014468961674
 21
660.0000000004611
 31
0.0
  0
ARC
  5
132
330
1F
100
AcDbEntity
  8
DETAIL
100
AcDbCircle
 10
-432.4999999998468
 20
650.5000000004611
 30
0.0
 40
9.500000110184862
100
AcDbArc
 50
90.00872642466693
 51
179.991273575333
  0
ARC
  5
133
330
1F
100
AcDbEntity
  8
DETAIL
100
AcDbCircle
 10
126.5014468961674
 20
650.501446896475
 30
0.0
 40
9.49855310398578
100
AcDbArc
 50
0.0
 51
90.0
  0
LINE
  5
134
330
1F
100
AcDbEntity
  8
BASIS
  6
DASHDOT
100
AcDbLine
 10
-152.9999999998469
 20
684.7978452500001
 30
0.0
 11
-152.9999999998469
 21
57.20215474999974
 31
0.0
  0
LINE
  5
135
330
1F
100
AcDbEntity
  8
DETAIL
100
AcDbLine
 10
-157.9999999998468
 20
660.0000000004615
 30
0.0
 11
-157.9999999998468
 21
82.00000000046055
 31
0.0
  0
LINE
  5
136
330
1F
100
AcDbEntity
  8
DETAIL
100
AcDbLine
 10
-147.9999999998469
 20
660.0000000004615
 30
0.0
 11
-147.9999999998469
 21
82.00000000046055
 31
0.0
  0
LINE
  5
137
330
1F
100
AcDbEntity
  8
DETAIL
100
AcDbLine
 10
-137.9999999998468
 20
660.0000000004615
 30
0.0
 11
-137.9999999998468
 21
82.00000000046055
 31
0.0
  0
LINE
  5
138
330
1F
100
AcDbEntity
  8
DETAIL
100
AcDbLine
 10
-127.9999999998469
 20
660.0000000004615
 30
0.0
 11
-127.9999999998469
 21
82.00000000046055
 31
0.0
  0
LINE
  5
139
330
1F
100
AcDbEntity
  8
DETAIL
100
AcDbLine
 10
-117.9999999998469
 20
660.0000000004615
 30
0.0
 11
-117.9999999998469
 21
82.00000000046055
 31
0.0
  0
LINE
  5
13A
330
1F
100
AcDbEntity
  8
DETAIL
100
AcDbLine
 10
-107.9999999998469
 20
660.0000000004615
 30
0.0
 11
-107.9999999998469
 21
82.00000000046055
 31
0.0
  0
LINE
  5
13B
330
1F
100
AcDbEntity
  8
DETAIL
100
AcDbLine
 10
-97.99999999984699
 20
660.0000000004615
 30
0.0
 11
-97.99999999984699
 21
82.00000000046055
 31
0.0
  0
LINE
  5
13C
330
1F
100
AcDbEntity
  8
DETAIL
100
AcDbLine
 10
-87.99999999984692
 20
660.0000000004615
 30
0.0
 11
-87.99999999984692
 21
82.00000000046055
 31
0.0
  0
LINE
  5
13D
330
1F
100
AcDbEntity
  8
DETAIL
100
AcDbLine
 10
-77.99999999984698
 20
660.0000000004615
 30
0.0
 11
-77.99999999984698
 21
82.00000000046055
 31
0.0
  0
LINE
  5
13E
330
1F
100
AcDbEntity
  8
DETAIL
100
AcDbLine
 10
-67.99999999984698
 20
660.0000000004615
 30
0.0
 11
-67.99999999984698
 21
82.00000000046055
 31
0.0
  0
LINE
  5
13F
330
1F
100
AcDbEntity
  8
DETAIL
100
AcDbLine
 10
-57.99999999984698
 20
660.0000000004615
 30
0.0
 11
-57.99999999984698
 21
82.00000000046055
 31
0.0
  0
LINE
  5
140
330
1F
100
AcDbEntity
  8
DETAIL
100
AcDbLine
 10
-47.99999999984698
 20
660.0000000004615
 30
0.0
 11
-47.99999999984698
 21
82.00000000046055
 31
0.0
  0
LINE
  5
141
330
1F
100
AcDbEntity
  8
DETAIL
100
AcDbLine
 10
-37.99999999984697
 20
660.0000000004615
 30
0.0
 11
-37.99999999984697
 21
82.00000000046055
 31
0.0
  0
LINE
  5
142
330
1F
100
AcDbEntity
  8
DETAIL
100
AcDbLine
 10
-27.99999999984697
 20
660.0000000004615
 30
0.0
 11
-27.99999999984697
 21
82.00000000046055
 31
0.0
  0
LINE
  5
143
330
1F
100
AcDbEntity
  8
DETAIL
100
AcDbLine
 10
-17.99999999984697
 20
660.0000000004615
 30
0.0
 11
-17.99999999984697
 21
82.00000000046055
 31
0.0
  0
LINE
  5
144
330
1F
100
AcDbEntity
  8
DETAIL
100
AcDbLine
 10
-7.999999999846977
 20
660.0000000004615
 30
0.0
 11
-7.999999999846977
 21
82.00000000046055
 31
0.0
  0
LINE
  5
145
330
1F
100
AcDbEntity
  8
DETAIL
100
AcDbLine
 10
2.000000000153022
 20
660.0000000004615
 30
0.0
 11
2.000000000153022
 21
82.00000000046055
 31
0.0
  0
LINE
  5
146
330
1F
100
AcDbEntity
  8
DETAIL
100
AcDbLine
 10
12.00000000015302
 20
660.0000000004615
 30
0.0
 11
12.00000000015302
 21
82.00000000046055
 31
0.0
  0
LINE
  5
147
330
1F
100
AcDbEntity
  8
DETAIL
100
AcDbLine
 10
22.00000000015296
 20
655.2188135661363
 30
0.0
 11
22.00000000015302
 21
86.78118651503593
 31
0.0
  0
LINE
  5
148
330
1F
100
AcDbEntity
  8
DETAIL
100
AcDbLine
 10
32.00000000015302
 20
603.8727033487074
 30
0.0
 11
32.00000000015302
 21
138.1272966610922
 31
0.0
  0
LINE
  5
149
330
1F
100
AcDbEntity
  8
DETAIL
100
AcDbLine
 10
42.00000000015302
 20
579.0831583209967
 30
0.0
 11
42.00000000015302
 21
162.9168416832327
 31
0.0
  0
LINE
  5
14A
330
1F
100
AcDbEntity
  8
DETAIL
100
AcDbLine
 10
52.00000000015307
 20
560.7108600753544
 30
0.0
 11
52.00000000015307
 21
181.2891399262546
 31
0.0
  0
LINE
  5
14B
330
1F
100
AcDbEntity
  8
DETAIL
100
AcDbLine
 10
62.00000000015307
 20
545.8457948444707
 30
0.0
 11
62.00000000015307
 21
196.1542051554991
 31
0.0
  0
LINE
  5
14C
330
1F
100
AcDbEntity
  8
DETAIL
100
AcDbLine
 10
72.00000000015307
 20
533.3288672037618
 30
0.0
 11
72.00000000015307
 21
208.6711327950387
 31
0.0
  0
LINE
  5
14D
330
1F
100
AcDbEntity
  8
DETAIL
100
AcDbLine
 10
82.00000000015307
 20
519.0315029074075
 30
0.0
 11
82.00000000015307
 21
223.5050644290678
 31
0.0
  0
LINE
  5
14E
330
1F
100
AcDbEntity
  8
DETAIL
100
AcDbLine
 10
92.00000000015297
 20
501.735066545275
 30
0.0
 11
92.00000000015297
 21
240.801500791201
 31
0.0
  0
LINE
  5
14F
330
1F
100
AcDbEntity
  8
DETAIL
100
AcDbLine
 10
102.0000000001529
 20
480.854751394161
 30
0.0
 11
102.0000000001529
 21
261.6818159423147
 31
0.0
  0
LINE
  5
150
330
1F
100
AcDbEntity
  8
DETAIL
100
AcDbLine
 10
112.0000000001529
 20
453.7110297591204
 30
0.0
 11
112.0000000001529
 21
288.8255375773553
 31
0.0
  0
LINE
  5
151
330
1F
100
AcDbEntity
  8
DETAIL
100
AcDbLine
 10
122.000000000153
 20
510.4760631952711
 30
0.0
 11
122.000000000153
 21
436.0605041402827
 31
0.0
  0
LINE
  5
152
330
1F
100
AcDbEntity
  8
DETAIL
100
AcDbLine
 10
-427.9999999998469
 20
408.4760631957322
 30
0.0
 11
-427.9999999998469
 21
334.0605041407438
 31
0.0
  0
LINE
  5
153
330
1F
100
AcDbEntity
  8
DETAIL
100
AcDbLine
 10
-327.9999999998468
 20
655.2188135661363
 30
0.0
 11
-327.9999999998468
 21
86.78118651503593
 31
0.0
  0
LINE
  5
154
330
1F
100
AcDbEntity
  8
DETAIL
100
AcDbLine
 10
-417.999999999847
 20
453.7110297591204
 30
0.0
 11
-417.999999999847
 21
288.8255375773553
 31
0.0
  0
LINE
  5
155
330
1F
100
AcDbEntity
  8
DETAIL
100
AcDbLine
 10
-407.9999999998467
 20
480.854751394161
 30
0.0
 11
-407.9999999998467
 21
261.6818159423147
 31
0.0
  0
LINE
  5
156
330
1F
100
AcDbEntity
  8
DETAIL
100
AcDbLine
 10
-397.9999999998468
 20
501.735066545275
 30
0.0
 11
-397.9999999998468
 21
240.801500791201
 31
0.0
  0
LINE
  5
157
330
1F
100
AcDbEntity
  8
DETAIL
100
AcDbLine
 10
-387.9999999998468
 20
519.0315029074075
 30
0.0
 11
-387.9999999998468
 21
223.5050644290678
 31
0.0
  0
LINE
  5
158
330
1F
100
AcDbEntity
  8
DETAIL
100
AcDbLine
 10
-377.9999999998468
 20
533.3288672037618
 30
0.0
 11
-377.9999999998468
 21
208.6711327950387
 31
0.0
  0
LINE
  5
159
330
1F
100
AcDbEntity
  8
DETAIL
100
AcDbLine
 10
-367.9999999998468
 20
545.8457948444707
 30
0.0
 11
-367.9999999998468
 21
196.1542051554991
 31
0.0
  0
LINE
  5
15A
330
1F
100
AcDbEntity
  8
DETAIL
100
AcDbLine
 10
-357.9999999998467
 20
560.7108600753544
 30
0.0
 11
-357.9999999998467
 21
181.2891399262546
 31
0.0
  0
LINE
  5
15B
330
1F
100
AcDbEntity
  8
DETAIL
100
AcDbLine
 10
-347.9999999998468
 20
579.0831583209967
 30
0.0
 11
-347.9999999998468
 21
162.9168416832327
 31
0.0
  0
LINE
  5
15C
330
1F
100
AcDbEntity
  8
DETAIL
100
AcDbLine
 10
-337.999999999847
 20
603.8727033487074
 30
0.0
 11
-337.999999999847
 21
138.1272966610922
 31
0.0
  0
LINE
  5
15D
330
1F
100
AcDbEntity
  8
DETAIL
100
AcDbLine
 10
-317.9999999998468
 20
660.0000000004615
 30
0.0
 11
-317.9999999998468
 21
82.00000000046055
 31
0.0
  0
LINE
  5
15E
330
1F
100
AcDbEntity
  8
DETAIL
100
AcDbLine
 10
-307.9999999998467
 20
660.0000000004615
 30
0.0
 11
-307.9999999998467
 21
82.00000000046055
 31
0.0
  0
LINE
  5
15F
330
1F
100
AcDbEntity
  8
DETAIL
100
AcDbLine
 10
-237.999999999847
 20
660.0000000004615
 30
0.0
 11
-237.999999999847
 21
82.00000000046055
 31
0.0
  0
LINE
  5
160
330
1F
100
AcDbEntity
  8
DETAIL
100
AcDbLine
 10
-227.9999999998469
 20
660.0000000004615
 30
0.0
 11
-227.9999999998469
 21
82.00000000046055
 31
0.0
  0
LINE
  5
161
330
1F
100
AcDbEntity
  8
DETAIL
100
AcDbLine
 10
-217.9999999998468
 20
660.0000000004615
 30
0.0
 11
-217.9999999998468
 21
82.00000000046055
 31
0.0
  0
LINE
  5
162
330
1F
100
AcDbEntity
  8
DETAIL
100
AcDbLine
 10
-207.9999999998467
 20
660.0000000004615
 30
0.0
 11
-207.9999999998467
 21
82.00000000046055
 31
0.0
  0
LINE
  5
163
330
1F
100
AcDbEntity
  8
DETAIL
100
AcDbLine
 10
-197.9999999998469
 20
660.0000000004615
 30
0.0
 11
-197.9999999998469
 21
82.00000000046055
 31
0.0
  0
LINE
  5
164
330
1F
100
AcDbEntity
  8
DETAIL
100
AcDbLine
 10
-187.9999999998467
 20
660.0000000004615
 30
0.0
 11
-187.9999999998467
 21
82.00000000046055
 31
0.0
  0
LINE
  5
165
330
1F
100
AcDbEntity
  8
DETAIL
100
AcDbLine
 10
-177.9999999998469
 20
660.0000000004615
 30
0.0
 11
-177.9999999998469
 21
82.00000000046055
 31
0.0
  0
LINE
  5
166
330
1F
100
AcDbEntity
  8
DETAIL
100
AcDbLine
 10
-167.9999999998468
 20
660.0000000004615
 30
0.0
 11
-167.9999999998468
 21
82.00000000046055
 31
0.0
  0
LINE
  5
167
330
1F
100
AcDbEntity
  8
DETAIL
100
AcDbLine
 10
-297.9999999998468
 20
660.0000000004615
 30
0.0
 11
-297.9999999998468
 21
82.00000000046055
 31
0.0
  0
LINE
  5
168
330
1F
100
AcDbEntity
  8
DETAIL
100
AcDbLine
 10
-287.9999999998468
 20
660.0000000004615
 30
0.0
 11
-287.9999999998468
 21
82.00000000046055
 31
0.0
  0
LINE
  5
169
330
1F
100
AcDbEntity
  8
DETAIL
100
AcDbLine
 10
-277.9999999998468
 20
660.0000000004615
 30
0.0
 11
-277.9999999998468
 21
82.00000000046055
 31
0.0
  0
LINE
  5
16A
330
1F
100
AcDbEntity
  8
DETAIL
100
AcDbLine
 10
-267.9999999998468
 20
660.0000000004615
 30
0.0
 11
-267.9999999998468
 21
82.00000000046055
 31
0.0
  0
LINE
  5
16B
330
1F
100
AcDbEntity
  8
DETAIL
100
AcDbLine
 10
-257.9999999998467
 20
660.0000000004615
 30
0.0
 11
-257.9999999998467
 21
82.00000000046055
 31
0.0
  0
LINE
  5
16C
330
1F
100
AcDbEntity
  8
DETAIL
100
AcDbLine
 10
-247.9999999998468
 20
660.0000000004615
 30
0.0
 11
-247.9999999998468
 21
82.00000000046055
 31
0.0
  0
LINE
  5
16D
330
1F
100
AcDbEntity
  8
DETAIL
100
AcDbLine
 10
-157.9999999998468
 20
660.0000000004615
 30
0.0
 11
-157.9999999998468
 21
82.00000000046055
 31
0.0
  0
LINE
  5
16E
330
1F
100
AcDbEntity
  8
NOTE
  6
CONTINOUS
100
AcDbLine
 10
295.0
 20
459.0
 30
0.0
 11
255.0
 21
459.0
 31
0.0
  0
LINE
  5
16F
330
1F
100
AcDbEntity
  8
NOTE
  6
CONTINOUS
100
AcDbLine
 10
275.0
 20
439.0
 30
0.0
 11
275.0
 21
479.0
 31
0.0
  0
LINE
  5
170
330
1F
100
AcDbEntity
  8
NOTE
  6
CONTINOUS
100
AcDbLine
 10
397.0
 20
295.0
 30
0.0
 11
357.0
 21
295.0
 31
0.0
  0
LINE
  5
171
330
1F
100
AcDbEntity
  8
NOTE
  6
CONTINOUS
100
AcDbLine
 10
377.0
 20
275.0
 30
0.0
 11
377.0
 21
315.0
 31
0.0
  0
LINE
  5
172
330
1F
100
AcDbEntity
  8
NOTE
  6
CONTINOUS
100
AcDbLine
 10
452.0
 20
289.0
 30
0.0
 11
412.0
 21
289.0
 31
0.0
  0
LINE
  5
173
330
1F
100
AcDbEntity
  8
NOTE
  6
CONTINOUS
100
AcDbLine
 10
432.0
 20
269.0
 30
0.0
 11
432.0
 21
309.0
 31
0.0
  0
LINE
  5
174
330
1F
100
AcDbEntity
  8
DETAIL
  6
Continuous
100
AcDbLine
 10
475.0
 20
23.0
 30
0.0
 11
-474.9999999999999
 21
23.0
 31
0.0
  0
DIMENSION
  5
17B
330
1F
100
AcDbEntity
  8
SIZE
  6
Continuous
100
AcDbDimension
  2
*D4
 10
-587.4824772476703
 20
0.0000000000000328
 30
0.0
 11
-641.1484850906879
 21
11.50000000000001
 31
0.0
 70
    32
 71
     5
 42
-1.0
  3
Standard
100
AcDbAlignedDimension
 13
-474.9999999999999
 23
23.0
 33
0.0
 14
-320.0
 24
0.0
 34
0.0
 50
90.0
100
AcDbRotatedDimension
1001
ACAD
1000
DSTYLE
1002
{
1070
    41
1040
10.0
1070
   289
1070
     1
1070
   342
1005
176
1070
    44
1040
30.0
1070
    42
1040
20.0
1070
    77
1070
     1
1070
    73
1070
     0
1070
   174
1070
     1
1070
   172
1070
     1
1070
    74
1070
     0
1070
   340
1005
175
1070
   140
1040
77.18865430290829
1070
   284
1070
     1
1070
    78
1070
     8
1070
   345
1005
16
1070
   346
1005
14
1002
}
1001
ACAD_DSTYLE_DIM_LINETYPE
1070
   380
1005
16
1001
ACAD_DSTYLE_DIM_EXT1_LINETYPE
1070
   381
1005
14
  0
TEXT
  5
187
330
1F
100
AcDbEntity
  8
NOTE
  6
Continuous
100
AcDbText
 10
697.7498353616465
 20
709.9953066688715
 30
0.0
 40
55.46187107438017
  1
RLφ9.52
 41
0.9
  7
MS PGothic
 11
697.7498353616465
 21
698.6550872176318
 31
0.0
100
AcDbText
 73
     1
  0
LINE
  5
188
330
1F
100
AcDbEntity
  8
NOTE
  6
Continuous
100
AcDbLine
 10
1043.977380921705
 20
687.316621786985
 30
0.0
 11
670.2698172795024
 21
687.3166217869845
 31
0.0
  0
LINE
  5
189
330
1F
100
AcDbEntity
  8
NOTE
  6
Continuous
100
AcDbLine
 10
643.7709466750993
 20
567.6174529382253
 30
0.0
 11
1080.591221793368
 21
567.6174529382255
 31
0.0
  0
TEXT
  5
18A
330
1F
100
AcDbEntity
  8
NOTE
  6
Continuous
100
AcDbText
 10
682.0771404158456
 20
590.8608465712834
 30
0.0
 40
55.46187107438017
  1
RGφ15.88
 41
0.9
  7
MS PGothic
 11
682.0771404158456
 21
579.5206271200437
 31
0.0
100
AcDbText
 73
     1
  0
LINE
  5
18B
330
1F
100
AcDbEntity
  8
NOTE
  6
Continuous
100
AcDbLine
 10
568.2698172795023
 20
851.316621786983
 30
0.0
 11
816.6901545772249
 21
851.316621786983
 31
0.0
  0
TEXT
  5
18C
330
1F
100
AcDbEntity
  8
NOTE
  6
Continuous
100
AcDbText
 10
583.0501222795021
 20
886.4658208340579
 30
0.0
 40
77.18865430290829
  1
EL,CL
 41
0.9
  7
Simplex
 11
583.0501222795021
 21
847.3332636851009
 31
0.0
100
AcDbText
 73
     1
  0
LINE
  5
18D
330
1F
100
AcDbEntity
  8
NOTE
  6
Continuous
100
AcDbLine
 10
275.0
 20
459.0
 30
0.0
 11
568.2698172795023
 21
851.316621786983
 31
0.0
  0
LWPOLYLINE
  5
18E
330
1F
100
AcDbEntity
  8
NOTE
  6
Continuous
100
AcDbPolyline
 90
        3
 70
     0
 43
0.0
 10
290.1254974240998
 20
496.0299790052753
 10
275.0
 20
459.0
 10
306.6140540864799
 20
483.5061540799006
  0
LINE
  5
18F
330
1F
100
AcDbEntity
  8
NOTE
  6
Continuous
100
AcDbLine
 10
377.0
 20
295.0
 30
0.0
 11
670.2698172795024
 21
687.3166217869845
 31
0.0
  0
LWPOLYLINE
  5
190
330
1F
100
AcDbEntity
  8
NOTE
  6
Continuous
100
AcDbPolyline
 90
        3
 70
     0
 43
0.0
 10
392.1254974240999
 20
332.0299790052751
 10
377.0
 20
295.0
 10
408.6140540864798
 20
319.5061540799005
  0
LINE
  5
191
330
1F
100
AcDbEntity
  8
NOTE
  6
Continuous
100
AcDbLine
 10
432.0
 20
289.0
 30
0.0
 11
641.7709466750993
 21
569.6174529382253
 31
0.0
  0
LWPOLYLINE
  5
192
330
1F
100
AcDbEntity
  8
NOTE
  6
Continuous
100
AcDbPolyline
 90
        3
 70
     0
 43
0.0
 10
447.1254974240999
 20
326.0299790052751
 10
432.0
 20
289.0
 10
463.6140540864799
 20
313.5061540799005
  0
DIMENSION
  5
193
330
1F
100
AcDbEntity
  8
SIZE
  6
Continuous
100
AcDbDimension
  2
*D5
 10
299.9999999999999
 20
-406.3464041100973
 30
0.0
 11
-0.0000000000000536
 21
-352.6803962670797
 31
0.0
 70
    32
 71
     5
 42
-1.0
  3
Standard
100
AcDbAlignedDimension
 13
-300.0
 23
-20.0
 33
0.0
 14
300.0
 24
-20.0
 34
0.0
100
AcDbRotatedDimension
1001
ACAD
1000
DSTYLE
1002
{
1070
    41
1040
10.0
1070
   289
1070
     1
1070
   342
1005
176
1070
    44
1040
30.0
1070
    42
1040
20.0
1070
    77
1070
     1
1070
    73
1070
     0
1070
   174
1070
     1
1070
   172
1070
     1
1070
    74
1070
     0
1070
   340
1005
175
1070
   140
1040
77.18865430290829
1070
   284
1070
     1
1070
    78
1070
     8
1070
   345
1005
16
1070
   346
1005
14
1002
}
1001
ACAD_DSTYLE_DIM_LINETYPE
1070
   380
1005
16
1001
ACAD_DSTYLE_DIM_EXT1_LINETYPE
1070
   381
1005
14
  0
DIMENSION
  5
19D
330
1F
100
AcDbEntity
  8
SIZE
  6
Continuous
100
AcDbDimension
  2
*D6
 10
-474.9999999999756
 20
-406.3464041100773
 30
0.0
 11
-387.4999999999769
 21
-352.6803962670598
 31
0.0
 70
    32
 71
     5
 42
-1.0
  3
Standard
100
AcDbAlignedDimension
 13
-300.0
 23
-20.0
 33
0.0
 14
-474.9999999999999
 24
23.0
 34
0.0
100
AcDbRotatedDimension
1001
ACAD
1000
DSTYLE
1002
{
1070
    41
1040
10.0
1070
   289
1070
     1
1070
   342
1005
176
1070
    44
1040
30.0
1070
    42
1040
20.0
1070
    77
1070
     1
1070
    73
1070
     0
1070
   174
1070
     1
1070
   172
1070
     1
1070
    74
1070
     0
1070
   340
1005
175
1070
   140
1040
77.18865430290829
1070
   284
1070
     1
1070
    78
1070
     8
1070
   345
1005
16
1070
   346
1005
14
1002
}
1001
ACAD_DSTYLE_DIM_LINETYPE
1070
   380
1005
16
1001
ACAD_DSTYLE_DIM_EXT1_LINETYPE
1070
   381
1005
14
  0
DIMENSION
  5
1A7
330
1F
100
AcDbEntity
  8
SIZE
  6
Continuous
100
AcDbDimension
  2
*D7
 10
474.9999999999999
 20
-406.3464041100973
 30
0.0
 11
387.4999999999999
 21
-352.6803962670797
 31
0.0
 70
    32
 71
     5
 42
-1.0
  3
Standard
100
AcDbAlignedDimension
 13
300.0
 23
-20.0
 33
0.0
 14
475.0
 24
23.0
 34
0.0
100
AcDbRotatedDimension
1001
ACAD
1000
DSTYLE
1002
{
1070
    41
1040
10.0
1070
   289
1070
     1
1070
   342
1005
176
1070
    44
1040
30.0
1070
    42
1040
20.0
1070
    77
1070
     1
1070
    73
1070
     0
1070
   174
1070
     1
1070
   172
1070
     1
1070
    74
1070
     0
1070
   340
1005
175
1070
   140
1040
77.18865430290829
1070
   284
1070
     1
1070
    78
1070
     8
1070
   345
1005
16
1070
   346
1005
14
1002
}
1001
ACAD_DSTYLE_DIM_LINETYPE
1070
   380
1005
16
1001
ACAD_DSTYLE_DIM_EXT1_LINETYPE
1070
   381
1005
14
  0
DIMENSION
  5
1B1
330
1F
100
AcDbEntity
  8
SIZE
  6
Continuous
100
AcDbDimension
  2
*D8
 10
-474.9999999999351
 20
-543.0139620048353
 30
0.0
 11
0.0000000000648114
 21
-489.3479541618178
 31
0.0
 70
    32
 71
     5
 42
-1.0
  3
Standard
100
AcDbAlignedDimension
 13
475.0
 23
23.0
 33
0.0
 14
-474.9999999999999
 24
23.0
 34
0.0
100
AcDbRotatedDimension
1001
ACAD
1000
DSTYLE
1002
{
1070
    41
1040
10.0
1070
   289
1070
     1
1070
   342
1005
176
1070
    44
1040
30.0
1070
    42
1040
20.0
1070
    77
1070
     1
1070
    73
1070
     0
1070
   174
1070
     1
1070
   172
1070
     1
1070
    74
1070
     0
1070
   340
1005
175
1070
   140
1040
77.18865430290829
1070
   284
1070
     1
1070
    78
1070
     8
1070
   345
1005
16
1070
   346
1005
14
1002
}
1001
ACAD_DSTYLE_DIM_LINETYPE
1070
   380
1005
16
1001
ACAD_DSTYLE_DIM_EXT1_LINETYPE
1070
   381
1005
14
  0
LINE
  5
1BB
330
1F
100
AcDbEntity
  8
OUTLINE
100
AcDbLine
 10
475.0
 20
23.00000000000011
 30
0.0
 11
-475.0
 21
23.00000000000011
 31
0.0
  0
LINE
  5
1BC
330
1F
100
AcDbEntity
  8
OUTLINE
100
AcDbLine
 10
-475.0
 20
23.00000000000011
 30
0.0
 11
-475.0
 21
740.0000000000001
 31
0.0
  0
LINE
  5
1BD
330
1F
100
AcDbEntity
  8
OUTLINE
100
AcDbLine
 10
-265.0
 20
23.0
 30
0.0
 11
-265.0
 21
0.0
 31
0.0
  0
LINE
  5
1BE
330
1F
100
AcDbEntity
  8
OUTLINE
100
AcDbLine
 10
-335.0
 20
23.0
 30
0.0
 11
-335.0
 21
0.0
 31
0.0
  0
LINE
  5
1BF
330
1F
100
AcDbEntity
  8
OUTLINE
100
AcDbLine
 10
-335.0
 20
0.0
 30
0.0
 11
-265.0
 21
0.0
 31
0.0
  0
LINE
  5
1C0
330
1F
100
AcDbEntity
  8
OUTLINE
100
AcDbLine
 10
475.0
 20
23.00000000000011
 30
0.0
 11
475.0
 21
740.0000000000001
 31
0.0
  0
LINE
  5
1C1
330
1F
100
AcDbEntity
  8
DETAIL
  6
CONTINOUS
100
AcDbLine
 10
-474.9999999999999
 20
740.0
 30
0.0
 11
475.0
 21
740.0000000000001
 31
0.0
  0
DIMENSION
  5
1C2
330
1F
100
AcDbEntity
  8
SIZE
  6
Continuous
100
AcDbDimension
  2
*D9
 10
-685.100367176048
 20
371.0
 30
0.0
 11
-738.7663750190655
 21
185.5
 31
0.0
 70
    32
 71
     5
 42
-1.0
  3
Standard
100
AcDbAlignedDimension
 13
-320.0
 23
0.0
 33
0.0
 14
-466.797845249847
 24
371.0
 34
0.0
 50
270.0
100
AcDbRotatedDimension
1001
ACAD
1000
DSTYLE
1002
{
1070
    41
1040
10.0
1070
   289
1070
     1
1070
   342
1005
176
1070
    44
1040
30.0
1070
    42
1040
20.0
1070
    77
1070
     1
1070
    73
1070
     0
1070
   174
1070
     1
1070
   172
1070
     1
1070
    74
1070
     0
1070
   340
1005
175
1070
   140
1040
77.18865430290829
1070
   284
1070
     1
1070
    78
1070
     8
1070
   345
1005
16
1070
   346
1005
14
1002
}
1001
ACAD_DSTYLE_DIM_LINETYPE
1070
   380
1005
16
1001
ACAD_DSTYLE_DIM_EXT1_LINETYPE
1070
   381
1005
14
  0
DIMENSION
  5
1CC
330
1F
100
AcDbEntity
  8
SIZE
  6
Continuous
100
AcDbDimension
  2
*D10
 10
-833.5433187690235
 20
0.0000000000000629
 30
0.0
 11
-887.209326612041
 21
370.0000000000001
 31
0.0
 70
    32
 71
     5
 42
-1.0
  3
Standard
100
AcDbAlignedDimension
 13
-474.9999999999999
 23
740.0
 33
0.0
 14
-320.0
 24
0.0
 34
0.0
 50
90.0
100
AcDbRotatedDimension
1001
ACAD
1000
DSTYLE
1002
{
1070
    41
1040
10.0
1070
   289
1070
     1
1070
   342
1005
176
1070
    44
1040
30.0
1070
    42
1040
20.0
1070
    77
1070
     1
1070
    73
1070
     0
1070
   174
1070
     1
1070
   172
1070
     1
1070
    74
1070
     0
1070
   340
1005
175
1070
   140
1040
77.18865430290829
1070
   284
1070
     1
1070
    78
1070
     8
1070
   345
1005
16
1070
   346
1005
14
1002
}
1001
ACAD_DSTYLE_DIM_LINETYPE
1070
   380
1005
16
1001
ACAD_DSTYLE_DIM_EXT1_LINETYPE
1070
   381
1005
14
  0
DIMENSION
  5
1D6
330
1F
100
AcDbEntity
  8
SIZE
  6
Continuous
100
AcDbDimension
  2
*D11
 10
-475.0000000000191
 20
909.0544086219584
 30
0.0
 11
-313.9999999999457
 21
962.720416464976
 31
0.0
 70
    32
 71
     5
 42
-1.0
  3
Standard
100
AcDbAlignedDimension
 13
-152.9999999998469
 23
684.7978452500001
 33
0.0
 14
-474.9999999999999
 24
740.0
 34
0.0
100
AcDbRotatedDimension
1001
ACAD
1000
DSTYLE
1002
{
1070
    41
1040
10.0
1070
   289
1070
     1
1070
   342
1005
176
1070
    44
1040
30.0
1070
    42
1040
20.0
1070
    77
1070
     1
1070
    73
1070
     0
1070
   174
1070
     1
1070
   172
1070
     1
1070
    74
1070
     0
1070
   340
1005
175
1070
   140
1040
77.18865430290829
1070
   284
1070
     1
1070
    78
1070
     8
1070
   345
1005
16
1070
   346
1005
14
1002
}
1001
ACAD_DSTYLE_DIM_LINETYPE
1070
   380
1005
16
1001
ACAD_DSTYLE_DIM_EXT1_LINETYPE
1070
   381
1005
14
  0
DIMENSION
  5
1E0
330
1F
100
AcDbEntity
  8
SIZE
  6
Continuous
100
AcDbDimension
  2
*D12
 10
-474.9999999999999
 20
1144.401728596418
 30
0.0
 11
0.0000000000000099
 21
1198.067736439436
 31
0.0
 70
    32
 71
     5
 42
-1.0
  3
Standard
100
AcDbAlignedDimension
 13
475.0
 23
740.0000000000001
 33
0.0
 14
-474.9999999999999
 24
740.0
 34
0.0
100
AcDbRotatedDimension
1001
ACAD
1000
DSTYLE
1002
{
1070
    41
1040
10.0
1070
   289
1070
     1
1070
   342
1005
176
1070
    44
1040
30.0
1070
    42
1040
20.0
1070
    77
1070
     1
1070
    73
1070
     0
1070
   174
1070
     1
1070
   172
1070
     1
1070
    74
1070
     0
1070
   340
1005
175
1070
   140
1040
77.18865430290829
1070
   284
1070
     1
1070
    78
1070
     8
1070
   345
1005
16
1070
   346
1005
14
1002
}
1001
ACAD_DSTYLE_DIM_LINETYPE
1070
   380
1005
16
1001
ACAD_DSTYLE_DIM_EXT1_LINETYPE
1070
   381
1005
14
  0
DIMENSION
  5
1EA
330
1F
100
AcDbEntity
  8
SIZE
  6
Continuous
100
AcDbDimension
  2
*D13
 10
475.0
 20
906.7770023249714
 30
0.0
 11
375.0
 21
960.443010167989
 31
0.0
 70
    32
 71
     5
 42
-1.0
  3
Standard
100
AcDbAlignedDimension
 13
275.0
 23
479.0
 33
0.0
 14
475.0
 24
740.0000000000001
 34
0.0
100
AcDbRotatedDimension
1001
ACAD
1000
DSTYLE
1002
{
1070
    41
1040
10.0
1070
   289
1070
     1
1070
   342
1005
176
1070
    44
1040
30.0
1070
    42
1040
20.0
1070
    77
1070
     1
1070
    73
1070
     0
1070
   174
1070
     1
1070
   172
1070
     1
1070
    74
1070
     0
1070
   340
1005
175
1070
   140
1040
77.18865430290829
1070
   284
1070
     1
1070
    78
1070
     8
1070
   345
1005
16
1070
   346
1005
14
1002
}
1001
ACAD_DSTYLE_DIM_LINETYPE
1070
   380
1005
16
1001
ACAD_DSTYLE_DIM_EXT1_LINETYPE
1070
   381
1005
14
  0
DIMENSION
  5
1F4
330
1F
100
AcDbEntity
  8
SIZE
  6
Continuous
100
AcDbDimension
  2
*D14
 10
1016.867593268802
 20
0.0
 30
0.0
 11
963.2015854257844
 21
229.5
 31
0.0
 70
    32
 71
     5
 42
-1.0
  3
Standard
100
AcDbAlignedDimension
 13
295.0
 23
459.0
 33
0.0
 14
320.0
 24
0.0
 34
0.0
 50
90.0
100
AcDbRotatedDimension
1001
ACAD
1000
DSTYLE
1002
{
1070
    41
1040
10.0
1070
   289
1070
     1
1070
   342
1005
176
1070
    44
1040
30.0
1070
    42
1040
20.0
1070
    77
1070
     1
1070
    73
1070
     0
1070
   174
1070
     1
1070
   172
1070
     1
1070
    74
1070
     0
1070
   340
1005
175
1070
   140
1040
77.18865430290829
1070
   284
1070
     1
1070
    78
1070
     8
1070
   345
1005
16
1070
   346
1005
14
1002
}
1001
ACAD_DSTYLE_DIM_LINETYPE
1070
   380
1005
16
1001
ACAD_DSTYLE_DIM_EXT1_LINETYPE
1070
   381
1005
14
  0
DIMENSION
  5
1FE
330
1F
100
AcDbEntity
  8
SIZE
  6
Continuous
100
AcDbDimension
  2
*D15
 10
849.5035475643162
 20
295.0
 30
0.0
 11
795.8375397212986
 21
147.5
 31
0.0
 70
    32
 71
     5
 42
-1.0
  3
Standard
100
AcDbAlignedDimension
 13
320.0
 23
0.0
 33
0.0
 14
397.0
 24
295.0
 34
0.0
 50
270.0
100
AcDbRotatedDimension
1001
ACAD
1000
DSTYLE
1002
{
1070
    41
1040
10.0
1070
   289
1070
     1
1070
   342
1005
176
1070
    44
1040
30.0
1070
    42
1040
20.0
1070
    77
1070
     1
1070
    73
1070
     0
1070
   174
1070
     1
1070
   172
1070
     1
1070
    74
1070
     0
1070
   340
1005
175
1070
   140
1040
77.18865430290829
1070
   284
1070
     1
1070
    78
1070
     8
1070
   345
1005
16
1070
   346
1005
14
1002
}
1001
ACAD_DSTYLE_DIM_LINETYPE
1070
   380
1005
16
1001
ACAD_DSTYLE_DIM_EXT1_LINETYPE
1070
   381
1005
14
  0
LINE
  5
208
330
1F
100
AcDbEntity
  8
OUTLINE
100
AcDbLine
 10
-475.0
 20
740.0000000000001
 30
0.0
 11
475.0
 21
740.0000000000001
 31
0.0
  0
DIMENSION
  5
209
330
1F
100
AcDbEntity
  8
SIZE
  6
Continuous
100
AcDbDimension
  2
*D16
 10
679.8070641778941
 20
0.0
 30
0.0
 11
626.1410563348765
 21
144.5
 31
0.0
 70
    32
 71
     5
 42
-1.0
  3
Standard
100
AcDbAlignedDimension
 13
452.0
 23
289.0
 33
0.0
 14
316.0
 24
0.0
 34
0.0
 50
90.0
100
AcDbRotatedDimension
1001
ACAD
1000
DSTYLE
1002
{
1070
    41
1040
10.0
1070
   289
1070
     1
1070
   342
1005
176
1070
    44
1040
30.0
1070
    42
1040
20.0
1070
    77
1070
     1
1070
    73
1070
     0
1070
   174
1070
     1
1070
   172
1070
     1
1070
    74
1070
     0
1070
   340
1005
175
1070
   140
1040
77.18865430290829
1070
   284
1070
     1
1070
    78
1070
     8
1070
   345
1005
16
1070
   346
1005
14
1002
}
1001
ACAD_DSTYLE_DIM_LINETYPE
1070
   380
1005
16
1001
ACAD_DSTYLE_DIM_EXT1_LINETYPE
1070
   381
1005
14
  0
DIMENSION
  5
213
330
1F
100
AcDbEntity
  8
SIZE
  6
Continuous
100
AcDbDimension
  2
*D17
 10
475.0000000000001
 20
187.2290537765475
 30
0.0
 11
531.7185714285714
 21
240.8950616195651
 31
0.0
 70
    32
 71
     5
 42
-1.0
  3
Standard
100
AcDbAlignedDimension
 13
432.0
 23
269.0
 33
0.0
 14
475.0
 24
23.0
 34
0.0
100
AcDbRotatedDimension
1001
ACAD
1000
DSTYLE
1002
{
1070
    41
1040
10.0
1070
   289
1070
     1
1070
   342
1005
176
1070
    44
1040
30.0
1070
    42
1040
20.0
1070
    77
1070
     1
1070
    73
1070
     0
1070
   174
1070
     1
1070
   172
1070
     1
1070
    74
1070
     0
1070
   340
1005
175
1070
   140
1040
77.18865430290829
1070
   284
1070
     1
1070
    78
1070
     8
1070
   345
1005
16
1070
   346
1005
14
1002
}
1001
ACAD_DSTYLE_DIM_LINETYPE
1070
   380
1005
16
1001
ACAD_DSTYLE_DIM_EXT1_LINETYPE
1070
   381
1005
14
1001
ACAD_DSTYLE_DIMFLIPARROW_SYMBOL
1070
   385
1070
     0
1001
ACAD_DSTYLE_DIMFLIPARROW_WHICH_SYMBOL
1070
   386
1070
     3
  0
DIMENSION
  5
21E
330
1F
100
AcDbEntity
  8
SIZE
  6
Continuous
100
AcDbDimension
  2
*D18
 10
432.0
 20
187.0562109540985
 30
0.0
 11
316.0584656913434
 21
240.7222187971161
 31
0.0
 70
    32
 71
     5
 42
-1.0
  3
Standard
100
AcDbAlignedDimension
 13
377.0
 23
275.0
 33
0.0
 14
432.0
 24
269.0
 34
0.0
100
AcDbRotatedDimension
1001
ACAD
1000
DSTYLE
1002
{
1070
    41
1040
10.0
1070
   289
1070
     1
1070
   342
1005
176
1070
    44
1040
30.0
1070
    42
1040
20.0
1070
    77
1070
     1
1070
    73
1070
     0
1070
   174
1070
     1
1070
   172
1070
     1
1070
    74
1070
     0
1070
   340
1005
175
1070
   140
1040
77.18865430290829
1070
   284
1070
     1
1070
    78
1070
     8
1070
   345
1005
16
1070
   346
1005
14
1002
}
1001
ACAD_DSTYLE_DIM_LINETYPE
1070
   380
1005
16
1001
ACAD_DSTYLE_DIM_EXT1_LINETYPE
1070
   381
1005
14
1001
ACAD_DSTYLE_DIMFLIPARROW_SYMBOL
1070
   385
1070
     0
1001
ACAD_DSTYLE_DIMFLIPARROW_WHICH_SYMBOL
1070
   386
1070
     3
  0
LINE
  5
229
330
1F
100
AcDbEntity
  8
DETAIL
  6
CONTINOUS
100
AcDbLine
 10
265.0
 20
0.0
 30
0.0
 11
335.0
 21
0.0
 31
0.0
  0
LINE
  5
22A
330
1F
100
AcDbEntity
  8
NOTE
  6
CONTINOUS
100
AcDbLine
 10
280.0
 20
0.0
 30
0.0
 11
320.0
 21
0.0
 31
0.0
  0
LINE
  5
22B
330
1F
100
AcDbEntity
  8
DETAIL
  6
CONTINOUS
100
AcDbLine
 10
265.0
 20
23.0
 30
0.0
 11
265.0
 21
0.0
 31
0.0
  0
LINE
  5
22C
330
1F
100
AcDbEntity
  8
DETAIL
  6
CONTINOUS
100
AcDbLine
 10
335.0
 20
23.0
 30
0.0
 11
335.0
 21
0.0
 31
0.0
  0
LINE
  5
22D
330
1F
100
AcDbEntity
  8
OUTLINE
  6
CONTINOUS
100
AcDbLine
 10
265.0
 20
0.0
 30
0.0
 11
335.0
 21
0.0
 31
0.0
  0
LINE
  5
22E
330
1F
100
AcDbEntity
  8
OUTLINE
  6
CONTINOUS
100
AcDbLine
 10
265.0
 20
23.0
 30
0.0
 11
265.0
 21
0.0
 31
0.0
  0
LINE
  5
22F
330
1F
100
AcDbEntity
  8
OUTLINE
  6
CONTINOUS
100
AcDbLine
 10
335.0
 20
23.0
 30
0.0
 11
335.0
 21
0.0
 31
0.0
  0
ENDSEC
  0
SECTION
  2
OBJECTS
  0
DICTIONARY
  5
C
330
0
100
AcDbDictionary
281
     1
  3
ACAD_DETAILVIEWSTYLE
350
26F
  3
ACAD_GROUP
350
D
  3
ACAD_IMAGE_VARS
350
6B
  3
ACAD_LAYOUT
350
1A
  3
ACAD_MATERIAL
350
43
  3
ACAD_MLEADERSTYLE
350
26E
  3
ACAD_MLINESTYLE
350
17
  3
ACAD_PLOTSETTINGS
350
19
  3
ACAD_PLOTSTYLENAME
350
E
  3
ACAD_SCALELIST
350
47
  3
ACAD_SECTIONVIEWSTYLE
350
270
  3
ACAD_TABLESTYLE
350
26D
  3
ACAD_VISUALSTYLE
350
2A
  3
AcDbVariableDictionary
350
234
  0
DICTIONARY
  5
26F
102
{ACAD_REACTORS
330
C
102
}
330
C
100
AcDbDictionary
281
     1
  0
DICTIONARY
  5
D
102
{ACAD_REACTORS
330
C
102
}
330
C
100
AcDbDictionary
281
     1
  0
RASTERVARIABLES
  5
6B
102
{ACAD_REACTORS
330
C
102
}
330
C
100
AcDbRasterVariables
 90
        0
 70
     0
 71
     1
 72
     0
  0
DICTIONARY
  5
1A
102
{ACAD_REACTORS
330
C
102
}
330
C
100
AcDbDictionary
281
     1
  3
Layout1
350
1E
  3
Layout2
350
26
  3
Model
350
22
  0
DICTIONARY
  5
43
102
{ACAD_REACTORS
330
C
102
}
330
C
100
AcDbDictionary
281
     1
  3
ByBlock
350
45
  3
ByLayer
350
44
  3
Global
350
46
  0
DICTIONARY
  5
26E
102
{ACAD_REACTORS
330
C
102
}
330
C
100
AcDbDictionary
281
     1
  0
DICTIONARY
  5
17
102
{ACAD_REACTORS
330
C
102
}
330
C
100
AcDbDictionary
281
     1
  3
Standard
350
18
  0
DICTIONARY
  5
19
102
{ACAD_REACTORS
330
C
102
}
330
C
100
AcDbDictionary
281
     1
  0
ACDBDICTIONARYWDFLT
  5
E
102
{ACAD_REACTORS
330
C
102
}
330
C
100
AcDbDictionary
281
     1
  3
Normal
350
F
100
AcDbDictionaryWithDefault
340
F
  0
DICTIONARY
  5
47
102
{ACAD_REACTORS
330
C
102
}
330
C
100
AcDbDictionary
281
     1
  3
A0
350
48
  3
A1
350
49
  3
A2
350
4A
  3
A3
350
4B
  3
A4
350
4C
  3
A5
350
4D
  3
A6
350
4E
  3
A7
350
4F
  3
A8
350
50
  3
A9
350
51
  3
B0
350
52
  3
B1
350
53
  3
B2
350
54
  3
B3
350
55
  3
B4
350
56
  3
B5
350
57
  3
B6
350
58
  3
B7
350
59
  3
B8
350
5A
  3
B9
350
5B
  3
C0
350
5C
  3
C1
350
5D
  3
C2
350
5E
  3
C3
350
5F
  3
C4
350
60
  3
C5
350
61
  3
C6
350
62
  3
C7
350
63
  3
C8
350
64
  3
C9
350
65
  3
D0
350
66
  3
D1
350
67
  3
D2
350
68
  0
DICTIONARY
  5
270
102
{ACAD_REACTORS
330
C
102
}
330
C
100
AcDbDictionary
281
     1
  0
DICTIONARY
  5
26D
102
{ACAD_REACTORS
330
C
102
}
330
C
100
AcDbDictionary
281
     1
  0
DICTIONARY
  5
2A
102
{ACAD_REACTORS
330
C
102
}
330
C
100
AcDbDictionary
281
     1
  3
2dWireframe
350
2F
  3
Basic
350
32
  3
Brighten
350
36
  3
ColorChange
350
3A
  3
Conceptual
350
34
  3
Dim
350
35
  3
EdgeColorOff
350
3D
  3
Facepattern
350
39
  3
Flat
350
2B
  3
FlatWithEdges
350
2C
  3
Gouraud
350
2D
  3
GouraudWithEdges
350
2E
  3
Hidden
350
31
  3
JitterOff
350
3B
  3
Linepattern
350
38
  3
OverhangOff
350
3C
  3
Realistic
350
33
  3
Shaded
350
42
  3
Shaded with edges
350
41
  3
Shades of Gray
350
3E
  3
Sketchy
350
3F
  3
Thicken
350
37
  3
Wireframe
350
30
  3
X-Ray
350
40
  0
DICTIONARY
  5
234
102
{ACAD_REACTORS
330
C
102
}
330
C
100
AcDbDictionary
281
     1
  3
CANNOSCALE
350
235
  3
MSLTSCALE
350
236
  0
LAYOUT
  5
1E
102
{ACAD_REACTORS
330
1A
102
}
330
1A
100
AcDbPlotSettings
  1

  2
none_device
  4

  6

 40
0.0
 41
0.0
 42
0.0
 43
0.0
 44
0.0
 45
0.0
 46
0.0
 47
0.0
 48
0.0
 49
0.0
140
0.0
141
0.0
142
1.0
143
1.0
 70
   688
 72
     0
 73
     0
 74
     5
  7

 75
    16
 76
     0
 77
     2
 78
   300
147
1.0
148
0.0
149
0.0
100
AcDbLayout
  1
Layout1
 70
     1
 71
     1
 10
0.0
 20
0.0
 11
12.0
 21
9.0
 12
0.0
 22
0.0
 32
0.0
 14
1.000000000000000E+20
 24
1.000000000000000E+20
 34
1.000000000000000E+20
 15
-1.000000000000000E+20
 25
-1.000000000000000E+20
 35
-1.000000000000000E+20
146
0.0
 13
0.0
 23
0.0
 33
0.0
 16
1.0
 26
0.0
 36
0.0
 17
0.0
 27
1.0
 37
0.0
 76
     0
330
1B
  0
LAYOUT
  5
26
102
{ACAD_REACTORS
330
1A
102
}
330
1A
100
AcDbPlotSettings
  1

  2
none_device
  4

  6

 40
0.0
 41
0.0
 42
0.0
 43
0.0
 44
0.0
 45
0.0
 46
0.0
 47
0.0
 48
0.0
 49
0.0
140
0.0
141
0.0
142
1.0
143
1.0
 70
   688
 72
     0
 73
     0
 74
     5
  7

 75
    16
 76
     0
 77
     2
 78
   300
147
1.0
148
0.0
149
0.0
100
AcDbLayout
  1
Layout2
 70
     1
 71
     2
 10
0.0
 20
0.0
 11
0.0
 21
0.0
 12
0.0
 22
0.0
 32
0.0
 14
0.0
 24
0.0
 34
0.0
 15
0.0
 25
0.0
 35
0.0
146
0.0
 13
0.0
 23
0.0
 33
0.0
 16
1.0
 26
0.0
 36
0.0
 17
0.0
 27
1.0
 37
0.0
 76
     0
330
23
  0
LAYOUT
  5
22
102
{ACAD_REACTORS
330
1A
102
}
330
1A
100
AcDbPlotSettings
  1

  2
none_device
  4
Letter_(8.50_x_11.00_Inches)
  6

 40
6.35
 41
6.35
 42
6.35000508
 43
6.35000508
 44
215.9
 45
279.4
 46
0.0
 47
0.0
 48
0.0
 49
0.0
140
0.0
141
0.0
142
1.0
143
1.0
 70
  1712
 72
     0
 73
     0
 74
     0
  7

 75
     0
 76
     0
 77
     2
 78
   300
147
1.0
148
0.0
149
0.0
100
AcDbLayout
  1
Model
 70
     1
 71
     0
 10
-1379.511848791542
 20
-716.2674525061793
 11
2003.110407451727
 21
1564.554680353067
 12
0.0
 22
0.0
 32
0.0
 14
-1379.511848791542
 24
-716.2674525061793
 34
0.0
 15
2003.110407451727
 25
1564.554680353067
 35
0.0
146
0.0
 13
0.0
 23
0.0
 33
0.0
 16
1.0
 26
0.0
 36
0.0
 17
0.0
 27
1.0
 37
0.0
 76
     0
330
1F
331
29
  0
MATERIAL
  5
45
102
{ACAD_REACTORS
330
43
102
}
102
{ACAD_XDICTIONARY
360
269
102
}
330
43
100
AcDbMaterial
  1
ByBlock
  0
MATERIAL
  5
44
102
{ACAD_REACTORS
330
43
102
}
102
{ACAD_XDICTIONARY
360
267
102
}
330
43
100
AcDbMaterial
  1
ByLayer
  0
MATERIAL
  5
46
102
{ACAD_REACTORS
330
43
102
}
102
{ACAD_XDICTIONARY
360
26B
102
}
330
43
100
AcDbMaterial
  1
Global
  0
MLINESTYLE
  5
18
102
{ACAD_REACTORS
330
17
102
}
330
17
100
AcDbMlineStyle
  2
Standard
 70
     0
  3

 62
   256
 51
90.0
 52
90.0
 71
     2
 49
0.5
 62
   256
  6
BYLAYER
 49
-0.5
 62
   256
  6
BYLAYER
  0
ACDBPLACEHOLDER
  5
F
102
{ACAD_REACTORS
330
E
102
}
330
E
  0
SCALE
  5
48
102
{ACAD_REACTORS
330
47
102
}
330
47
100
AcDbScale
 70
     0
300
1:1
140
1.0
141
1.0
290
     1
  0
SCALE
  5
49
102
{ACAD_REACTORS
330
47
102
}
330
47
100
AcDbScale
 70
     0
300
1:2
140
1.0
141
2.0
290
     0
  0
SCALE
  5
4A
102
{ACAD_REACTORS
330
47
102
}
330
47
100
AcDbScale
 70
     0
300
1:4
140
1.0
141
4.0
290
     0
  0
SCALE
  5
4B
102
{ACAD_REACTORS
330
47
102
}
330
47
100
AcDbScale
 70
     0
300
1:5
140
1.0
141
5.0
290
     0
  0
SCALE
  5
4C
102
{ACAD_REACTORS
330
47
102
}
330
47
100
AcDbScale
 70
     0
300
1:8
140
1.0
141
8.0
290
     0
  0
SCALE
  5
4D
102
{ACAD_REACTORS
330
47
102
}
330
47
100
AcDbScale
 70
     0
300
1:10
140
1.0
141
10.0
290
     0
  0
SCALE
  5
4E
102
{ACAD_REACTORS
330
47
102
}
330
47
100
AcDbScale
 70
     0
300
1:16
140
1.0
141
16.0
290
     0
  0
SCALE
  5
4F
102
{ACAD_REACTORS
330
47
102
}
330
47
100
AcDbScale
 70
     0
300
1:20
140
1.0
141
20.0
290
     0
  0
SCALE
  5
50
102
{ACAD_REACTORS
330
47
102
}
330
47
100
AcDbScale
 70
     0
300
1:30
140
1.0
141
30.0
290
     0
  0
SCALE
  5
51
102
{ACAD_REACTORS
330
47
102
}
330
47
100
AcDbScale
 70
     0
300
1:40
140
1.0
141
40.0
290
     0
  0
SCALE
  5
52
102
{ACAD_REACTORS
330
47
102
}
330
47
100
AcDbScale
 70
     0
300
1:50
140
1.0
141
50.0
290
     0
  0
SCALE
  5
53
102
{ACAD_REACTORS
330
47
102
}
330
47
100
AcDbScale
 70
     0
300
1:100
140
1.0
141
100.0
290
     0
  0
SCALE
  5
54
102
{ACAD_REACTORS
330
47
102
}
330
47
100
AcDbScale
 70
     0
300
2:1
140
2.0
141
1.0
290
     0
  0
SCALE
  5
55
102
{ACAD_REACTORS
330
47
102
}
330
47
100
AcDbScale
 70
     0
300
4:1
140
4.0
141
1.0
290
     0
  0
SCALE
  5
56
102
{ACAD_REACTORS
330
47
102
}
330
47
100
AcDbScale
 70
     0
300
8:1
140
8.0
141
1.0
290
     0
  0
SCALE
  5
57
102
{ACAD_REACTORS
330
47
102
}
330
47
100
AcDbScale
 70
     0
300
10:1
140
10.0
141
1.0
290
     0
  0
SCALE
  5
58
102
{ACAD_REACTORS
330
47
102
}
330
47
100
AcDbScale
 70
     0
300
100:1
140
100.0
141
1.0
290
     0
  0
SCALE
  5
59
102
{ACAD_REACTORS
330
47
102
}
330
47
100
AcDbScale
 70
     0
300
1/128" = 1'-0"
140
0.0078125
141
12.0
290
     0
  0
SCALE
  5
5A
102
{ACAD_REACTORS
330
47
102
}
330
47
100
AcDbScale
 70
     0
300
1/64" = 1'-0"
140
0.015625
141
12.0
290
     0
  0
SCALE
  5
5B
102
{ACAD_REACTORS
330
47
102
}
330
47
100
AcDbScale
 70
     0
300
1/32" = 1'-0"
140
0.03125
141
12.0
290
     0
  0
SCALE
  5
5C
102
{ACAD_REACTORS
330
47
102
}
330
47
100
AcDbScale
 70
     0
300
1/16" = 1'-0"
140
0.0625
141
12.0
290
     0
  0
SCALE
  5
5D
102
{ACAD_REACTORS
330
47
102
}
330
47
100
AcDbScale
 70
     0
300
3/32" = 1'-0"
140
0.09375
141
12.0
290
     0
  0
SCALE
  5
5E
102
{ACAD_REACTORS
330
47
102
}
330
47
100
AcDbScale
 70
     0
300
1/8" = 1'-0"
140
0.125
141
12.0
290
     0
  0
SCALE
  5
5F
102
{ACAD_REACTORS
330
47
102
}
330
47
100
AcDbScale
 70
     0
300
3/16" = 1'-0"
140
0.1875
141
12.0
290
     0
  0
SCALE
  5
60
102
{ACAD_REACTORS
330
47
102
}
330
47
100
AcDbScale
 70
     0
300
1/4" = 1'-0"
140
0.25
141
12.0
290
     0
  0
SCALE
  5
61
102
{ACAD_REACTORS
330
47
102
}
330
47
100
AcDbScale
 70
     0
300
3/8" = 1'-0"
140
0.375
141
12.0
290
     0
  0
SCALE
  5
62
102
{ACAD_REACTORS
330
47
102
}
330
47
100
AcDbScale
 70
     0
300
1/2" = 1'-0"
140
0.5
141
12.0
290
     0
  0
SCALE
  5
63
102
{ACAD_REACTORS
330
47
102
}
330
47
100
AcDbScale
 70
     0
300
3/4" = 1'-0"
140
0.75
141
12.0
290
     0
  0
SCALE
  5
64
102
{ACAD_REACTORS
330
47
102
}
330
47
100
AcDbScale
 70
     0
300
1" = 1'-0"
140
1.0
141
12.0
290
     0
  0
SCALE
  5
65
102
{ACAD_REACTORS
330
47
102
}
330
47
100
AcDbScale
 70
     0
300
1-1/2" = 1'-0"
140
1.5
141
12.0
290
     0
  0
SCALE
  5
66
102
{ACAD_REACTORS
330
47
102
}
330
47
100
AcDbScale
 70
     0
300
3" = 1'-0"
140
3.0
141
12.0
290
     0
  0
SCALE
  5
67
102
{ACAD_REACTORS
330
47
102
}
330
47
100
AcDbScale
 70
     0
300
6" = 1'-0"
140
6.0
141
12.0
290
     0
  0
SCALE
  5
68
102
{ACAD_REACTORS
330
47
102
}
330
47
100
AcDbScale
 70
     0
300
1'-0" = 1'-0"
140
12.0
141
12.0
290
     0
  0
VISUALSTYLE
  5
2F
102
{ACAD_REACTORS
330
2A
102
}
102
{ACAD_XDICTIONARY
360
23F
102
}
330
2A
100
AcDbVisualStyle
  2
2dWireframe
 70
     4
 71
     0
 72
     2
 73
     0
 90
        0
 40
0.6
 41
30.0
 62
     5
 63
     7
421
 16777215
 74
     1
 91
        4
 64
     7
 65
   257
 75
     1
175
     1
 42
1.0
 92
        0
 66
   257
 43
1.0
 76
     1
 77
     6
 78
     2
 67
     7
 79
     5
170
     0
171
     0
290
     0
174
     0
 93
        1
 44
0.0
173
     0
291
     0
 45
0.0
1001
ACAD
1000
AcDbSavedByObjectVersion
1070
     0
  0
VISUALSTYLE
  5
32
102
{ACAD_REACTORS
330
2A
102
}
102
{ACAD_XDICTIONARY
360
245
102
}
330
2A
100
AcDbVisualStyle
  2
Basic
 70
     7
 71
     1
 72
     0
 73
     1
 90
        0
 40
0.6
 41
30.0
 62
     5
 63
     7
421
 16777215
 74
     0
 91
        4
 64
     7
 65
   257
 75
     1
175
     1
 42
1.0
 92
        8
 66
     7
 43
1.0
 76
     1
 77
     6
 78
     2
 67
     7
 79
     5
170
     0
171
     0
290
     0
174
     0
 93
        1
 44
0.0
173
     0
291
     1
 45
0.0
1001
ACAD
1000
AcDbSavedByObjectVersion
1070
     0
  0
VISUALSTYLE
  5
36
102
{ACAD_REACTORS
330
2A
102
}
102
{ACAD_XDICTIONARY
360
24D
102
}
330
2A
100
AcDbVisualStyle
  2
Brighten
 70
    12
 71
     2
 72
     2
 73
     0
 90
        0
 40
0.6
 41
30.0
 62
     5
 63
     7
421
 16777215
 74
     1
 91
        4
 64
     7
 65
   257
 75
     1
175
     1
 42
1.0
 92
        8
 66
     7
 43
1.0
 76
     1
 77
     6
 78
     2
 67
     7
 79
     5
170
     0
171
     0
290
     0
174
     0
 93
        1
 44
50.0
173
     0
291
     1
 45
0.0
1001
ACAD
1000
AcDbSavedByObjectVersion
1070
     0
  0
VISUALSTYLE
  5
3A
102
{ACAD_REACTORS
330
2A
102
}
102
{ACAD_XDICTIONARY
360
255
102
}
330
2A
100
AcDbVisualStyle
  2
ColorChange
 70
    16
 71
     2
 72
     2
 73
     3
 90
        0
 40
0.6
 41
30.0
 62
     5
 63
     8
421
  8421504
 74
     1
 91
        4
 64
     7
 65
   257
 75
     1
175
     1
 42
1.0
 92
        8
 66
     8
424
  8421504
 43
1.0
 76
     1
 77
     6
 78
     2
 67
     7
 79
     5
170
     0
171
     0
290
     0
174
     0
 93
        1
 44
0.0
173
     0
291
     1
 45
0.0
1001
ACAD
1000
AcDbSavedByObjectVersion
1070
     0
  0
VISUALSTYLE
  5
34
102
{ACAD_REACTORS
330
2A
102
}
102
{ACAD_XDICTIONARY
360
249
102
}
330
2A
100
AcDbVisualStyle
  2
Conceptual
 70
     9
 71
     3
 72
     2
 73
     0
 90
        0
 40
0.6
 41
30.0
 62
     5
 63
     7
421
 16777215
 74
     2
 91
        2
 64
     7
 65
   257
 75
     1
175
     1
 42
179.0
 92
        8
 66
     7
 43
1.0
 76
     1
 77
     6
 78
     2
 67
     7
 79
     3
170
     0
171
     0
290
     0
174
     0
 93
        1
 44
0.0
173
     0
291
     0
 45
0.0
1001
ACAD
1000
AcDbSavedByObjectVersion
1070
     0
  0
VISUALSTYLE
  5
35
102
{ACAD_REACTORS
330
2A
102
}
102
{ACAD_XDICTIONARY
360
24B
102
}
330
2A
100
AcDbVisualStyle
  2
Dim
 70
    11
 71
     2
 72
     2
 73
     0
 90
        0
 40
0.6
 41
30.0
 62
     5
 63
     7
421
 16777215
 74
     1
 91
        4
 64
     7
 65
   257
 75
     1
175
     1
 42
1.0
 92
        8
 66
     7
 43
1.0
 76
     1
 77
     6
 78
     2
 67
     7
 79
     5
170
     0
171
     0
290
     0
174
     0
 93
        1
 44
-50.0
173
     0
291
     1
 45
0.0
1001
ACAD
1000
AcDbSavedByObjectVersion
1070
     0
  0
VISUALSTYLE
  5
3D
102
{ACAD_REACTORS
330
2A
102
}
102
{ACAD_XDICTIONARY
360
25B
102
}
330
2A
100
AcDbVisualStyle
  2
EdgeColorOff
 70
    22
 71
     2
 72
     2
 73
     0
 90
        0
 40
0.6
 41
30.0
 62
     5
 63
     7
421
 16777215
 74
     1
 91
        4
 64
     7
 65
   257
 75
     1
175
     1
 42
1.0
 92
        8
 66
     7
 43
1.0
 76
     1
 77
     6
 78
     2
 67
     7
 79
     5
170
     0
171
     0
290
     0
174
     0
 93
        1
 44
0.0
173
     0
291
     1
 45
0.0
1001
ACAD
1000
AcDbSavedByObjectVersion
1070
     0
  0
VISUALSTYLE
  5
39
102
{ACAD_REACTORS
330
2A
102
}
102
{ACAD_XDICTIONARY
360
253
102
}
330
2A
100
AcDbVisualStyle
  2
Facepattern
 70
    15
 71
     2
 72
     2
 73
     0
 90
        0
 40
0.6
 41
30.0
 62
     5
 63
     7
421
 16777215
 74
     1
 91
        4
 64
     7
 65
   257
 75
     1
175
     1
 42
1.0
 92
        8
 66
     7
 43
1.0
 76
     1
 77
     6
 78
     2
 67
     7
 79
     5
170
     0
171
     0
290
     0
174
     0
 93
        1
 44
0.0
173
     0
291
     1
 45
0.0
1001
ACAD
1000
AcDbSavedByObjectVersion
1070
     0
  0
VISUALSTYLE
  5
2B
102
{ACAD_REACTORS
330
2A
102
}
102
{ACAD_XDICTIONARY
360
237
102
}
330
2A
100
AcDbVisualStyle
  2
Flat
 70
     0
 71
     2
 72
     1
 73
     1
 90
        2
 40
0.6
 41
30.0
 62
     5
 63
     7
421
 16777215
 74
     0
 91
        0
 64
     7
 65
   257
 75
     1
175
     1
 42
1.0
 92
        8
 66
     7
 43
1.0
 76
     1
 77
     6
 78
     2
 67
     7
 79
     5
170
     0
171
     0
290
     0
174
     0
 93
       13
 44
0.0
173
     0
291
     1
 45
0.0
1001
ACAD
1000
AcDbSavedByObjectVersion
1070
     0
  0
VISUALSTYLE
  5
2C
102
{ACAD_REACTORS
330
2A
102
}
102
{ACAD_XDICTIONARY
360
239
102
}
330
2A
100
AcDbVisualStyle
  2
FlatWithEdges
 70
     1
 71
     2
 72
     1
 73
     1
 90
        2
 40
0.6
 41
30.0
 62
     5
 63
     7
421
 16777215
 74
     1
 91
        0
 64
     7
 65
   257
 75
     1
175
     1
 42
1.0
 92
        0
 66
   257
 43
1.0
 76
     1
 77
     6
 78
     2
 67
     7
 79
     5
170
     0
171
     0
290
     0
174
     0
 93
       13
 44
0.0
173
     0
291
     1
 45
0.0
1001
ACAD
1000
AcDbSavedByObjectVersion
1070
     0
  0
VISUALSTYLE
  5
2D
102
{ACAD_REACTORS
330
2A
102
}
102
{ACAD_XDICTIONARY
360
23B
102
}
330
2A
100
AcDbVisualStyle
  2
Gouraud
 70
     2
 71
     2
 72
     2
 73
     1
 90
        2
 40
0.6
 41
30.0
 62
     5
 63
     7
421
 16777215
 74
     0
 91
        0
 64
     7
 65
   257
 75
     1
175
     1
 42
1.0
 92
        0
 66
     7
 43
1.0
 76
     1
 77
     6
 78
     2
 67
     7
 79
     5
170
     0
171
     0
290
     0
174
     0
 93
       13
 44
0.0
173
     0
291
     1
 45
0.0
1001
ACAD
1000
AcDbSavedByObjectVersion
1070
     0
  0
VISUALSTYLE
  5
2E
102
{ACAD_REACTORS
330
2A
102
}
102
{ACAD_XDICTIONARY
360
23D
102
}
330
2A
100
AcDbVisualStyle
  2
GouraudWithEdges
 70
     3
 71
     2
 72
     2
 73
     1
 90
        2
 40
0.6
 41
30.0
 62
     5
 63
     7
421
 16777215
 74
     1
 91
        0
 64
     7
 65
   257
 75
     1
175
     1
 42
1.0
 92
        0
 66
   257
 43
1.0
 76
     1
 77
     6
 78
     2
 67
     7
 79
     5
170
     0
171
     0
290
     0
174
     0
 93
       13
 44
0.0
173
     0
291
     1
 45
0.0
1001
ACAD
1000
AcDbSavedByObjectVersion
1070
     0
  0
VISUALSTYLE
  5
31
102
{ACAD_REACTORS
330
2A
102
}
102
{ACAD_XDICTIONARY
360
243
102
}
330
2A
100
AcDbVisualStyle
  2
Hidden
 70
     6
 71
     1
 72
     2
 73
     2
 90
        0
 40
0.6
 41
30.0
 62
     5
 63
     7
421
 16777215
 74
     2
 91
        2
 64
     7
 65
   257
 75
     2
175
     1
 42
40.0
 92
        0
 66
   257
 43
1.0
 76
     1
 77
     6
 78
     2
 67
     7
 79
     3
170
     0
171
     0
290
     0
174
     0
 93
        1
 44
0.0
173
     0
291
     0
 45
0.0
1001
ACAD
1000
AcDbSavedByObjectVersion
1070
     0
  0
VISUALSTYLE
  5
3B
102
{ACAD_REACTORS
330
2A
102
}
102
{ACAD_XDICTIONARY
360
257
102
}
330
2A
100
AcDbVisualStyle
  2
JitterOff
 70
    20
 71
     2
 72
     2
 73
     0
 90
        0
 40
0.6
 41
30.0
 62
     5
 63
     7
421
 16777215
 74
     1
 91
        4
 64
     7
 65
   257
 75
     1
175
     1
 42
1.0
 92
       10
 66
     7
 43
1.0
 76
     1
 77
     6
 78
     2
 67
     7
 79
     5
170
     0
171
     0
290
     0
174
     0
 93
        1
 44
0.0
173
     0
291
     1
 45
0.0
1001
ACAD
1000
AcDbSavedByObjectVersion
1070
     0
  0
VISUALSTYLE
  5
38
102
{ACAD_REACTORS
330
2A
102
}
102
{ACAD_XDICTIONARY
360
251
102
}
330
2A
100
AcDbVisualStyle
  2
Linepattern
 70
    14
 71
     2
 72
     2
 73
     0
 90
        0
 40
0.6
 41
30.0
 62
     5
 63
     7
421
 16777215
 74
     1
 91
        4
 64
     7
 65
   257
 75
     7
175
     7
 42
1.0
 92
        8
 66
     7
 43
1.0
 76
     1
 77
     6
 78
     2
 67
     7
 79
     5
170
     0
171
     0
290
     0
174
     0
 93
        1
 44
0.0
173
     0
291
     1
 45
0.0
1001
ACAD
1000
AcDbSavedByObjectVersion
1070
     0
  0
VISUALSTYLE
  5
3C
102
{ACAD_REACTORS
330
2A
102
}
102
{ACAD_XDICTIONARY
360
259
102
}
330
2A
100
AcDbVisualStyle
  2
OverhangOff
 70
    21
 71
     2
 72
     2
 73
     0
 90
        0
 40
0.6
 41
30.0
 62
     5
 63
     7
421
 16777215
 74
     1
 91
        4
 64
     7
 65
   257
 75
     1
175
     1
 42
1.0
 92
        9
 66
     7
 43
1.0
 76
     1
 77
     6
 78
     2
 67
     7
 79
     5
170
     0
171
     0
290
     0
174
     0
 93
        1
 44
0.0
173
     0
291
     1
 45
0.0
1001
ACAD
1000
AcDbSavedByObjectVersion
1070
     0
  0
VISUALSTYLE
  5
33
102
{ACAD_REACTORS
330
2A
102
}
102
{ACAD_XDICTIONARY
360
247
102
}
330
2A
100
AcDbVisualStyle
  2
Realistic
 70
     8
 71
     2
 72
     3
 73
     0
 90
        2
 40
0.6
 41
30.0
 62
     5
 63
     7
421
 16777215
 74
     0
 91
        0
 64
     7
 65
   257
 75
     1
175
     1
 42
1.0
 92
        8
 66
   257
 43
1.0
 76
     1
 77
     6
 78
     2
 67
     7
 79
     3
170
     0
171
     0
290
     0
174
     0
 93
       13
 44
0.0
173
     0
291
     0
 45
0.0
1001
ACAD
1000
AcDbSavedByObjectVersion
1070
     0
  0
VISUALSTYLE
  5
42
102
{ACAD_REACTORS
330
2A
102
}
102
{ACAD_XDICTIONARY
360
265
102
}
330
2A
100
AcDbVisualStyle
  2
Shaded
 70
    27
 71
     2
 72
     2
 73
     1
 90
        2
 40
0.6
 41
30.0
 62
     5
 63
     7
421
 16777215
 74
     0
 91
        4
 64
     7
 65
   257
 75
     1
175
     1
 42
1.0
 92
        8
 66
   257
 43
1.0
 76
     1
 77
     6
 78
     2
 67
     8
425
  7895160
 79
     3
170
     0
171
     0
290
     0
174
     0
 93
        5
 44
0.0
173
     0
291
     0
 45
0.0
1001
ACAD
1000
AcDbSavedByObjectVersion
1070
     0
  0
VISUALSTYLE
  5
41
102
{ACAD_REACTORS
330
2A
102
}
102
{ACAD_XDICTIONARY
360
263
102
}
330
2A
100
AcDbVisualStyle
  2
Shaded with edges
 70
    26
 71
     2
 72
     2
 73
     1
 90
        2
 40
0.6
 41
30.0
 62
     5
 63
     7
421
 16777215
 74
     1
 91
       10
 64
     7
 65
   257
 75
     2
175
     1
 42
1.0
 92
        8
 66
   257
 43
1.0
 76
     1
 77
     6
 78
     2
 67
     7
 79
     3
170
     0
171
     0
290
     0
174
     0
 93
        5
 44
0.0
173
     0
291
     0
 45
0.0
1001
ACAD
1000
AcDbSavedByObjectVersion
1070
     0
  0
VISUALSTYLE
  5
3E
102
{ACAD_REACTORS
330
2A
102
}
102
{ACAD_XDICTIONARY
360
25D
102
}
330
2A
100
AcDbVisualStyle
  2
Shades of Gray
 70
    23
 71
     2
 72
     2
 73
     3
 90
        0
 40
0.6
 41
30.0
 62
     5
 63
     7
421
 16777215
 74
     2
 91
        2
 64
     7
 65
     7
 75
     1
175
     1
 42
40.0
 92
        8
 66
     7
 43
1.0
 76
     1
 77
     6
 78
     2
 67
     7
 79
     3
170
     0
171
     0
290
     0
174
     0
 93
        1
 44
0.0
173
     0
291
     0
 45
0.0
1001
ACAD
1000
AcDbSavedByObjectVersion
1070
     0
  0
VISUALSTYLE
  5
3F
102
{ACAD_REACTORS
330
2A
102
}
102
{ACAD_XDICTIONARY
360
25F
102
}
330
2A
100
AcDbVisualStyle
  2
Sketchy
 70
    24
 71
     1
 72
     2
 73
     2
 90
        0
 40
0.6
 41
30.0
 62
     5
 63
     7
421
 16777215
 74
     2
 91
        2
 64
     7
 65
     7
 75
     1
175
     1
 42
40.0
 92
       11
 66
     7
 43
1.0
 76
     1
 77
     6
 78
     2
 67
     7
 79
     6
170
     0
171
     0
290
     0
174
     0
 93
        1
 44
0.0
173
     0
291
     0
 45
0.0
1001
ACAD
1000
AcDbSavedByObjectVersion
1070
     0
  0
VISUALSTYLE
  5
37
102
{ACAD_REACTORS
330
2A
102
}
102
{ACAD_XDICTIONARY
360
24F
102
}
330
2A
100
AcDbVisualStyle
  2
Thicken
 70
    13
 71
     2
 72
     2
 73
     0
 90
        0
 40
0.6
 41
30.0
 62
     5
 63
     7
421
 16777215
 74
     1
 91
        4
 64
     7
 65
   257
 75
     1
175
     1
 42
1.0
 92
       12
 66
     7
 43
1.0
 76
     1
 77
     6
 78
     2
 67
     7
 79
     5
170
     0
171
     0
290
     0
174
     0
 93
        1
 44
0.0
173
     0
291
     1
 45
0.0
1001
ACAD
1000
AcDbSavedByObjectVersion
1070
     0
  0
VISUALSTYLE
  5
30
102
{ACAD_REACTORS
330
2A
102
}
102
{ACAD_XDICTIONARY
360
241
102
}
330
2A
100
AcDbVisualStyle
  2
Wireframe
 70
     5
 71
     0
 72
     2
 73
     0
 90
        0
 40
0.6
 41
30.0
 62
     5
 63
     7
421
 16777215
 74
     1
 91
        4
 64
     7
 65
   257
 75
     1
175
     1
 42
1.0
 92
        0
 66
   257
 43
1.0
 76
     1
 77
     6
 78
     2
 67
     7
 79
     3
170
     0
171
     0
290
     0
174
     0
 93
        1
 44
0.0
173
     0
291
     0
 45
0.0
1001
ACAD
1000
AcDbSavedByObjectVersion
1070
     0
  0
VISUALSTYLE
  5
40
102
{ACAD_REACTORS
330
2A
102
}
102
{ACAD_XDICTIONARY
360
261
102
}
330
2A
100
AcDbVisualStyle
  2
X-Ray
 70
    25
 71
     2
 72
     2
 73
     1
 90
        1
 40
0.5
 41
30.0
 62
     5
 63
     7
421
 16777215
 74
     1
 91
        0
 64
     7
 65
   257
 75
     1
175
     1
 42
1.0
 92
        8
 66
     7
 43
1.0
 76
     1
 77
     6
 78
     2
 67
     7
 79
     3
170
     0
171
     0
290
     0
174
     0
 93
       13
 44
0.0
173
     0
291
     0
 45
0.0
1001
ACAD
1000
AcDbSavedByObjectVersion
1070
     0
  0
DICTIONARYVAR
  5
235
102
{ACAD_REACTORS
330
234
102
}
330
234
100
DictionaryVariables
280
     0
  1
1:1
  0
DICTIONARYVAR
  5
236
102
{ACAD_REACTORS
330
234
102
}
330
234
100
DictionaryVariables
280
     0
  1
1
  0
DICTIONARY
  5
269
330
45
100
AcDbDictionary
280
     1
281
     1
  3
ACAD_XREC_ROUNDTRIP
360
26A
  0
DICTIONARY
  5
267
330
44
100
AcDbDictionary
280
     1
281
     1
  3
ACAD_XREC_ROUNDTRIP
360
268
  0
DICTIONARY
  5
26B
330
46
100
AcDbDictionary
280
     1
281
     1
  3
ACAD_XREC_ROUNDTRIP
360
26C
  0
DICTIONARY
  5
23F
330
2F
100
AcDbDictionary
280
     1
281
     1
  3
ACAD_XREC_ROUNDTRIP
360
240
  0
DICTIONARY
  5
245
330
32
100
AcDbDictionary
280
     1
281
     1
  3
ACAD_XREC_ROUNDTRIP
360
246
  0
DICTIONARY
  5
24D
330
36
100
AcDbDictionary
280
     1
281
     1
  3
ACAD_XREC_ROUNDTRIP
360
24E
  0
DICTIONARY
  5
255
330
3A
100
AcDbDictionary
280
     1
281
     1
  3
ACAD_XREC_ROUNDTRIP
360
256
  0
DICTIONARY
  5
249
330
34
100
AcDbDictionary
280
     1
281
     1
  3
ACAD_XREC_ROUNDTRIP
360
24A
  0
DICTIONARY
  5
24B
330
35
100
AcDbDictionary
280
     1
281
     1
  3
ACAD_XREC_ROUNDTRIP
360
24C
  0
DICTIONARY
  5
25B
330
3D
100
AcDbDictionary
280
     1
281
     1
  3
ACAD_XREC_ROUNDTRIP
360
25C
  0
DICTIONARY
  5
253
330
39
100
AcDbDictionary
280
     1
281
     1
  3
ACAD_XREC_ROUNDTRIP
360
254
  0
DICTIONARY
  5
237
330
2B
100
AcDbDictionary
280
     1
281
     1
  3
ACAD_XREC_ROUNDTRIP
360
238
  0
DICTIONARY
  5
239
330
2C
100
AcDbDictionary
280
     1
281
     1
  3
ACAD_XREC_ROUNDTRIP
360
23A
  0
DICTIONARY
  5
23B
330
2D
100
AcDbDictionary
280
     1
281
     1
  3
ACAD_XREC_ROUNDTRIP
360
23C
  0
DICTIONARY
  5
23D
330
2E
100
AcDbDictionary
280
     1
281
     1
  3
ACAD_XREC_ROUNDTRIP
360
23E
  0
DICTIONARY
  5
243
330
31
100
AcDbDictionary
280
     1
281
     1
  3
ACAD_XREC_ROUNDTRIP
360
244
  0
DICTIONARY
  5
257
330
3B
100
AcDbDictionary
280
     1
281
     1
  3
ACAD_XREC_ROUNDTRIP
360
258
  0
DICTIONARY
  5
251
330
38
100
AcDbDictionary
280
     1
281
     1
  3
ACAD_XREC_ROUNDTRIP
360
252
  0
DICTIONARY
  5
259
330
3C
100
AcDbDictionary
280
     1
281
     1
  3
ACAD_XREC_ROUNDTRIP
360
25A
  0
DICTIONARY
  5
247
330
33
100
AcDbDictionary
280
     1
281
     1
  3
ACAD_XREC_ROUNDTRIP
360
248
  0
DICTIONARY
  5
265
330
42
100
AcDbDictionary
280
     1
281
     1
  3
ACAD_XREC_ROUNDTRIP
360
266
  0
DICTIONARY
  5
263
330
41
100
AcDbDictionary
280
     1
281
     1
  3
ACAD_XREC_ROUNDTRIP
360
264
  0
DICTIONARY
  5
25D
330
3E
100
AcDbDictionary
280
     1
281
     1
  3
ACAD_XREC_ROUNDTRIP
360
25E
  0
DICTIONARY
  5
25F
330
3F
100
AcDbDictionary
280
     1
281
     1
  3
ACAD_XREC_ROUNDTRIP
360
260
  0
DICTIONARY
  5
24F
330
37
100
AcDbDictionary
280
     1
281
     1
  3
ACAD_XREC_ROUNDTRIP
360
250
  0
DICTIONARY
  5
241
330
30
100
AcDbDictionary
280
     1
281
     1
  3
ACAD_XREC_ROUNDTRIP
360
242
  0
DICTIONARY
  5
261
330
40
100
AcDbDictionary
280
     1
281
     1
  3
ACAD_XREC_ROUNDTRIP
360
262
  0
XRECORD
  5
26A
102
{ACAD_REACTORS
330
269
102
}
330
269
100
AcDbXrecord
280
     1
102
MATERIAL
148
0.0
149
0.0
149
0.0
 93
        0
 94
      127
282
     0
 72
     1
 77
     1
171
     1
175
     1
179
     1
273
     0
  0
XRECORD
  5
268
102
{ACAD_REACTORS
330
267
102
}
330
267
100
AcDbXrecord
280
     1
102
MATERIAL
148
0.0
149
0.0
149
0.0
 93
        0
 94
      127
282
     0
 72
     1
 77
     1
171
     1
175
     1
179
     1
273
     0
  0
XRECORD
  5
26C
102
{ACAD_REACTORS
330
26B
102
}
330
26B
100
AcDbXrecord
280
     1
102
MATERIAL
148
0.0
149
0.0
149
0.0
 93
        0
 94
      127
282
     0
 72
     1
 77
     1
171
     1
175
     1
179
     1
273
     0
  0
XRECORD
  5
240
102
{ACAD_REACTORS
330
23F
102
}
330
23F
100
AcDbXrecord
280
     1
102
RTVSPropertyOp0
 70
     1
102
RTVSPropertyOp1
 70
     1
102
RTVSPropertyOp2
 70
     1
102
RTVSPropertyOp3
 70
     1
102
RTVSPropertyOp4
 70
     1
102
RTVSPropertyOp5
 70
     1
102
RTVSPropertyOp6
 70
     1
102
RTVSPropertyOp7
 70
     1
102
RTVSPropertyOp8
 70
     1
102
RTVSPropertyOp9
 70
     1
102
RTVSPropertyOp10
 70
     1
102
RTVSPropertyOp11
 70
     1
102
RTVSPropertyOp12
 70
     1
102
RTVSPropertyOp13
 70
     1
102
RTVSPropertyOp14
 70
     1
102
RTVSPropertyOp15
 70
     1
102
RTVSPropertyOp16
 70
     1
102
RTVSPropertyOp17
 70
     1
102
RTVSPropertyOp18
 70
     1
102
RTVSPropertyOp19
 70
     1
102
RTVSPropertyOp20
 70
     1
102
RTVSPropertyOp21
 70
     1
102
RTVSPropertyOp22
 70
     1
102
RTVSPropertyOp23
 70
     1
102
RTVSPropertyOp24
 70
     1
102
RTVSPropertyOp25
 70
     1
102
RTVSPropertyOp26
 70
     1
102
RTVSPropertyOp27
 70
     1
102
RTVSPropertyOp28
 70
     1
102
RTVSPropertyOp29
 70
     1
102
RTVSPropertyOp30
 70
     1
102
RTVSPropertyOp31
 70
     1
102
RTVSPropertyOp32
 70
     1
102
RTVSPropertyOp33
 70
     1
102
RTVSPropertyOp34
 70
     1
102
RTVSPropertyOp35
 70
     1
102
RTVSPropertyOp36
 70
     1
102
RTVSPropertyOp37
 70
     1
102
RTVSPropertyOp38
 70
     1
102
RTVSPropertyOp39
 70
     1
102
RTVSPropertyOp40
 70
     1
102
RTVSPropertyOp41
 70
     1
102
RTVSPropertyOp42
 70
     1
102
RTVSPropertyOp43
 70
     1
102
RTVSPropertyOp44
 70
     1
102
RTVSPropertyOp45
 70
     1
102
RTVSPropertyOp46
 70
     1
102
RTVSPropertyOp47
 70
     1
102
RTVSPropertyOp48
 70
     1
102
RTVSPropertyOp49
 70
     1
102
RTVSPropertyOp50
 70
     1
102
RTVSPropertyOp51
 70
     0
102
RTVSPropertyOp52
 70
     0
102
RTVSPropertyOp53
 70
     1
102
RTVSPropertyOp54
 70
     1
102
RTVSPropertyOp55
 70
     1
102
RTVSPropertyOp56
 70
     1
102
RTVSPropertyOp57
 70
     1
102
RTVSPost2010Prop28
280
     1
102
RTVSPost2010PropOp28
 70
     1
102
RTVSPost2010Prop29
280
     1
102
RTVSPost2010PropOp29
 70
     1
102
RTVSPost2010Prop30
280
     0
102
RTVSPost2010PropOp30
 70
     1
102
RTVSPost2010Prop31
280
     0
102
RTVSPost2010PropOp31
 70
     1
102
RTVSPost2010Prop32
280
     0
102
RTVSPost2010PropOp32
 70
     1
102
RTVSPost2010Prop33
280
     0
102
RTVSPost2010PropOp33
 70
     1
102
RTVSPost2010Prop34
280
     0
102
RTVSPost2010PropOp34
 70
     1
102
RTVSPost2010Prop35
280
     0
102
RTVSPost2010PropOp35
 70
     1
102
RTVSPost2010Prop36
280
     0
102
RTVSPost2010PropOp36
 70
     1
102
RTVSPost2010Prop37
 90
       50
102
RTVSPost2010PropOp37
 70
     1
102
RTVSPost2010Prop38
140
0.0
102
RTVSPost2010PropOp38
 70
     1
102
RTVSPost2010Prop39
140
1.0
102
RTVSPost2010PropOp39
 70
     1
102
RTVSPost2010Prop40
 90
        0
102
RTVSPost2010PropOp40
 70
     1
102
RTVSPost2010Prop41ColorIndex
 90
       18
102
RTVSPost2010Prop41ColorRGB
 90
        0
102
RTVSPost2010PropOp41
 70
     1
102
RTVSPost2010Prop42
 90
       50
102
RTVSPost2010PropOp42
 70
     1
102
RTVSPost2010Prop43
 90
        3
102
RTVSPost2010PropOp43
 70
     1
102
RTVSPost2010Prop44ColorIndex
 90
        5
102
RTVSPost2010Prop44ColorRGB
 90
      255
102
RTVSPost2010PropOp44
 70
     1
102
RTVSPost2010Prop45
280
     0
102
RTVSPost2010PropOp45
 70
     1
102
RTVSPost2010Prop46
 90
       50
102
RTVSPost2010PropOp46
 70
     1
102
RTVSPost2010Prop47
 90
       50
102
RTVSPost2010PropOp47
 70
     1
102
RTVSPost2010Prop48
 90
       50
102
RTVSPost2010PropOp48
 70
     1
102
RTVSPost2010Prop49
280
     0
102
RTVSPost2010PropOp49
 70
     1
102
RTVSPost2010Prop50
 90
       50
102
RTVSPost2010PropOp50
 70
     1
102
RTVSPost2010Prop51ColorIndex
 90
      256
102
RTVSPost2010Prop51ColorRGB
 90
-16777216
102
RTVSPost2010PropOp51
 70
     0
102
RTVSPost2010Prop52
140
1.0
102
RTVSPost2010PropOp52
 70
     0
102
RTVSPost2010Prop53
 90
        2
102
RTVSPost2010PropOp53
 70
     1
102
RTVSPost2010Prop54
  1
strokes_ogs.tif
102
RTVSPost2010PropOp54
 70
     1
102
RTVSPost2010Prop55
280
     0
102
RTVSPost2010PropOp55
 70
     1
102
RTVSPost2010Prop56
140
1.0
102
RTVSPost2010PropOp56
 70
     1
102
RTVSPost2010Prop57
140
1.0
102
RTVSPost2010PropOp57
 70
     1
  0
XRECORD
  5
246
102
{ACAD_REACTORS
330
245
102
}
330
245
100
AcDbXrecord
280
     1
102
RTVSPropertyOp0
 70
     1
102
RTVSPropertyOp1
 70
     1
102
RTVSPropertyOp2
 70
     1
102
RTVSPropertyOp3
 70
     1
102
RTVSPropertyOp4
 70
     1
102
RTVSPropertyOp5
 70
     1
102
RTVSPropertyOp6
 70
     1
102
RTVSPropertyOp7
 70
     1
102
RTVSPropertyOp8
 70
     1
102
RTVSPropertyOp9
 70
     1
102
RTVSPropertyOp10
 70
     1
102
RTVSPropertyOp11
 70
     1
102
RTVSPropertyOp12
 70
     1
102
RTVSPropertyOp13
 70
     1
102
RTVSPropertyOp14
 70
     1
102
RTVSPropertyOp15
 70
     1
102
RTVSPropertyOp16
 70
     1
102
RTVSPropertyOp17
 70
     1
102
RTVSPropertyOp18
 70
     1
102
RTVSPropertyOp19
 70
     1
102
RTVSPropertyOp20
 70
     1
102
RTVSPropertyOp21
 70
     1
102
RTVSPropertyOp22
 70
     1
102
RTVSPropertyOp23
 70
     1
102
RTVSPropertyOp24
 70
     1
102
RTVSPropertyOp25
 70
     1
102
RTVSPropertyOp26
 70
     1
102
RTVSPropertyOp27
 70
     1
102
RTVSPropertyOp28
 70
     1
102
RTVSPropertyOp29
 70
     1
102
RTVSPropertyOp30
 70
     1
102
RTVSPropertyOp31
 70
     1
102
RTVSPropertyOp32
 70
     1
102
RTVSPropertyOp33
 70
     1
102
RTVSPropertyOp34
 70
     1
102
RTVSPropertyOp35
 70
     1
102
RTVSPropertyOp36
 70
     1
102
RTVSPropertyOp37
 70
     1
102
RTVSPropertyOp38
 70
     1
102
RTVSPropertyOp39
 70
     1
102
RTVSPropertyOp40
 70
     1
102
RTVSPropertyOp41
 70
     1
102
RTVSPropertyOp42
 70
     1
102
RTVSPropertyOp43
 70
     1
102
RTVSPropertyOp44
 70
     1
102
RTVSPropertyOp45
 70
     1
102
RTVSPropertyOp46
 70
     1
102
RTVSPropertyOp47
 70
     1
102
RTVSPropertyOp48
 70
     1
102
RTVSPropertyOp49
 70
     1
102
RTVSPropertyOp50
 70
     1
102
RTVSPropertyOp51
 70
     0
102
RTVSPropertyOp52
 70
     0
102
RTVSPropertyOp53
 70
     1
102
RTVSPropertyOp54
 70
     1
102
RTVSPropertyOp55
 70
     1
102
RTVSPropertyOp56
 70
     1
102
RTVSPropertyOp57
 70
     1
102
RTVSPost2010Prop28
280
     0
102
RTVSPost2010PropOp28
 70
     1
102
RTVSPost2010Prop29
280
     1
102
RTVSPost2010PropOp29
 70
     1
102
RTVSPost2010Prop30
280
     1
102
RTVSPost2010PropOp30
 70
     1
102
RTVSPost2010Prop31
280
     0
102
RTVSPost2010PropOp31
 70
     1
102
RTVSPost2010Prop32
280
     0
102
RTVSPost2010PropOp32
 70
     1
102
RTVSPost2010Prop33
280
     0
102
RTVSPost2010PropOp33
 70
     1
102
RTVSPost2010Prop34
280
     0
102
RTVSPost2010PropOp34
 70
     1
102
RTVSPost2010Prop35
280
     0
102
RTVSPost2010PropOp35
 70
     1
102
RTVSPost2010Prop36
280
     0
102
RTVSPost2010PropOp36
 70
     1
102
RTVSPost2010Prop37
 90
       50
102
RTVSPost2010PropOp37
 70
     1
102
RTVSPost2010Prop38
140
0.0
102
RTVSPost2010PropOp38
 70
     1
102
RTVSPost2010Prop39
140
1.0
102
RTVSPost2010PropOp39
 70
     1
102
RTVSPost2010Prop40
 90
        0
102
RTVSPost2010PropOp40
 70
     1
102
RTVSPost2010Prop41ColorIndex
 90
       18
102
RTVSPost2010Prop41ColorRGB
 90
        0
102
RTVSPost2010PropOp41
 70
     1
102
RTVSPost2010Prop42
 90
       50
102
RTVSPost2010PropOp42
 70
     1
102
RTVSPost2010Prop43
 90
        3
102
RTVSPost2010PropOp43
 70
     1
102
RTVSPost2010Prop44ColorIndex
 90
        5
102
RTVSPost2010Prop44ColorRGB
 90
      255
102
RTVSPost2010PropOp44
 70
     1
102
RTVSPost2010Prop45
280
     0
102
RTVSPost2010PropOp45
 70
     1
102
RTVSPost2010Prop46
 90
       50
102
RTVSPost2010PropOp46
 70
     1
102
RTVSPost2010Prop47
 90
       50
102
RTVSPost2010PropOp47
 70
     1
102
RTVSPost2010Prop48
 90
       50
102
RTVSPost2010PropOp48
 70
     1
102
RTVSPost2010Prop49
280
     0
102
RTVSPost2010PropOp49
 70
     1
102
RTVSPost2010Prop50
 90
       50
102
RTVSPost2010PropOp50
 70
     1
102
RTVSPost2010Prop51ColorIndex
 90
      256
102
RTVSPost2010Prop51ColorRGB
 90
-16777216
102
RTVSPost2010PropOp51
 70
     0
102
RTVSPost2010Prop52
140
1.0
102
RTVSPost2010PropOp52
 70
     0
102
RTVSPost2010Prop53
 90
        2
102
RTVSPost2010PropOp53
 70
     1
102
RTVSPost2010Prop54
  1
strokes_ogs.tif
102
RTVSPost2010PropOp54
 70
     1
102
RTVSPost2010Prop55
280
     0
102
RTVSPost2010PropOp55
 70
     1
102
RTVSPost2010Prop56
140
1.0
102
RTVSPost2010PropOp56
 70
     1
102
RTVSPost2010Prop57
140
1.0
102
RTVSPost2010PropOp57
 70
     1
  0
XRECORD
  5
24E
102
{ACAD_REACTORS
330
24D
102
}
330
24D
100
AcDbXrecord
280
     1
102
RTVSPropertyOp0
 70
     1
102
RTVSPropertyOp1
 70
     1
102
RTVSPropertyOp2
 70
     1
102
RTVSPropertyOp3
 70
     1
102
RTVSPropertyOp4
 70
     1
102
RTVSPropertyOp5
 70
     1
102
RTVSPropertyOp6
 70
     1
102
RTVSPropertyOp7
 70
     1
102
RTVSPropertyOp8
 70
     1
102
RTVSPropertyOp9
 70
     1
102
RTVSPropertyOp10
 70
     1
102
RTVSPropertyOp11
 70
     1
102
RTVSPropertyOp12
 70
     1
102
RTVSPropertyOp13
 70
     1
102
RTVSPropertyOp14
 70
     1
102
RTVSPropertyOp15
 70
     1
102
RTVSPropertyOp16
 70
     1
102
RTVSPropertyOp17
 70
     1
102
RTVSPropertyOp18
 70
     1
102
RTVSPropertyOp19
 70
     1
102
RTVSPropertyOp20
 70
     1
102
RTVSPropertyOp21
 70
     1
102
RTVSPropertyOp22
 70
     1
102
RTVSPropertyOp23
 70
     1
102
RTVSPropertyOp24
 70
     1
102
RTVSPropertyOp25
 70
     1
102
RTVSPropertyOp26
 70
     1
102
RTVSPropertyOp27
 70
     1
102
RTVSPropertyOp28
 70
     1
102
RTVSPropertyOp29
 70
     1
102
RTVSPropertyOp30
 70
     1
102
RTVSPropertyOp31
 70
     1
102
RTVSPropertyOp32
 70
     1
102
RTVSPropertyOp33
 70
     1
102
RTVSPropertyOp34
 70
     1
102
RTVSPropertyOp35
 70
     1
102
RTVSPropertyOp36
 70
     1
102
RTVSPropertyOp37
 70
     1
102
RTVSPropertyOp38
 70
     1
102
RTVSPropertyOp39
 70
     1
102
RTVSPropertyOp40
 70
     1
102
RTVSPropertyOp41
 70
     1
102
RTVSPropertyOp42
 70
     1
102
RTVSPropertyOp43
 70
     1
102
RTVSPropertyOp44
 70
     1
102
RTVSPropertyOp45
 70
     1
102
RTVSPropertyOp46
 70
     1
102
RTVSPropertyOp47
 70
     1
102
RTVSPropertyOp48
 70
     1
102
RTVSPropertyOp49
 70
     1
102
RTVSPropertyOp50
 70
     1
102
RTVSPropertyOp51
 70
     0
102
RTVSPropertyOp52
 70
     0
102
RTVSPropertyOp53
 70
     1
102
RTVSPropertyOp54
 70
     1
102
RTVSPropertyOp55
 70
     1
102
RTVSPropertyOp56
 70
     1
102
RTVSPropertyOp57
 70
     1
102
RTVSPost2010Prop28
280
     0
102
RTVSPost2010PropOp28
 70
     1
102
RTVSPost2010Prop29
280
     1
102
RTVSPost2010PropOp29
 70
     1
102
RTVSPost2010Prop30
280
     1
102
RTVSPost2010PropOp30
 70
     1
102
RTVSPost2010Prop31
280
     0
102
RTVSPost2010PropOp31
 70
     1
102
RTVSPost2010Prop32
280
     0
102
RTVSPost2010PropOp32
 70
     1
102
RTVSPost2010Prop33
280
     0
102
RTVSPost2010PropOp33
 70
     1
102
RTVSPost2010Prop34
280
     0
102
RTVSPost2010PropOp34
 70
     1
102
RTVSPost2010Prop35
280
     0
102
RTVSPost2010PropOp35
 70
     1
102
RTVSPost2010Prop36
280
     0
102
RTVSPost2010PropOp36
 70
     1
102
RTVSPost2010Prop37
 90
       50
102
RTVSPost2010PropOp37
 70
     1
102
RTVSPost2010Prop38
140
0.0
102
RTVSPost2010PropOp38
 70
     1
102
RTVSPost2010Prop39
140
1.0
102
RTVSPost2010PropOp39
 70
     1
102
RTVSPost2010Prop40
 90
        0
102
RTVSPost2010PropOp40
 70
     1
102
RTVSPost2010Prop41ColorIndex
 90
       18
102
RTVSPost2010Prop41ColorRGB
 90
        0
102
RTVSPost2010PropOp41
 70
     1
102
RTVSPost2010Prop42
 90
       50
102
RTVSPost2010PropOp42
 70
     1
102
RTVSPost2010Prop43
 90
        3
102
RTVSPost2010PropOp43
 70
     1
102
RTVSPost2010Prop44ColorIndex
 90
        5
102
RTVSPost2010Prop44ColorRGB
 90
      255
102
RTVSPost2010PropOp44
 70
     1
102
RTVSPost2010Prop45
280
     0
102
RTVSPost2010PropOp45
 70
     1
102
RTVSPost2010Prop46
 90
       50
102
RTVSPost2010PropOp46
 70
     1
102
RTVSPost2010Prop47
 90
       50
102
RTVSPost2010PropOp47
 70
     1
102
RTVSPost2010Prop48
 90
       50
102
RTVSPost2010PropOp48
 70
     1
102
RTVSPost2010Prop49
280
     0
102
RTVSPost2010PropOp49
 70
     1
102
RTVSPost2010Prop50
 90
       50
102
RTVSPost2010PropOp50
 70
     1
102
RTVSPost2010Prop51ColorIndex
 90
      256
102
RTVSPost2010Prop51ColorRGB
 90
-16777216
102
RTVSPost2010PropOp51
 70
     0
102
RTVSPost2010Prop52
140
1.0
102
RTVSPost2010PropOp52
 70
     0
102
RTVSPost2010Prop53
 90
        2
102
RTVSPost2010PropOp53
 70
     1
102
RTVSPost2010Prop54
  1
strokes_ogs.tif
102
RTVSPost2010PropOp54
 70
     1
102
RTVSPost2010Prop55
280
     0
102
RTVSPost2010PropOp55
 70
     1
102
RTVSPost2010Prop56
140
1.0
102
RTVSPost2010PropOp56
 70
     1
102
RTVSPost2010Prop57
140
1.0
102
RTVSPost2010PropOp57
 70
     1
  0
XRECORD
  5
256
102
{ACAD_REACTORS
330
255
102
}
330
255
100
AcDbXrecord
280
     1
102
RTVSPropertyOp0
 70
     1
102
RTVSPropertyOp1
 70
     1
102
RTVSPropertyOp2
 70
     1
102
RTVSPropertyOp3
 70
     1
102
RTVSPropertyOp4
 70
     1
102
RTVSPropertyOp5
 70
     1
102
RTVSPropertyOp6
 70
     1
102
RTVSPropertyOp7
 70
     1
102
RTVSPropertyOp8
 70
     1
102
RTVSPropertyOp9
 70
     1
102
RTVSPropertyOp10
 70
     1
102
RTVSPropertyOp11
 70
     1
102
RTVSPropertyOp12
 70
     1
102
RTVSPropertyOp13
 70
     1
102
RTVSPropertyOp14
 70
     1
102
RTVSPropertyOp15
 70
     1
102
RTVSPropertyOp16
 70
     1
102
RTVSPropertyOp17
 70
     1
102
RTVSPropertyOp18
 70
     1
102
RTVSPropertyOp19
 70
     1
102
RTVSPropertyOp20
 70
     1
102
RTVSPropertyOp21
 70
     1
102
RTVSPropertyOp22
 70
     1
102
RTVSPropertyOp23
 70
     1
102
RTVSPropertyOp24
 70
     1
102
RTVSPropertyOp25
 70
     1
102
RTVSPropertyOp26
 70
     1
102
RTVSPropertyOp27
 70
     1
102
RTVSPropertyOp28
 70
     1
102
RTVSPropertyOp29
 70
     1
102
RTVSPropertyOp30
 70
     1
102
RTVSPropertyOp31
 70
     1
102
RTVSPropertyOp32
 70
     1
102
RTVSPropertyOp33
 70
     1
102
RTVSPropertyOp34
 70
     1
102
RTVSPropertyOp35
 70
     1
102
RTVSPropertyOp36
 70
     1
102
RTVSPropertyOp37
 70
     1
102
RTVSPropertyOp38
 70
     1
102
RTVSPropertyOp39
 70
     1
102
RTVSPropertyOp40
 70
     1
102
RTVSPropertyOp41
 70
     1
102
RTVSPropertyOp42
 70
     1
102
RTVSPropertyOp43
 70
     1
102
RTVSPropertyOp44
 70
     1
102
RTVSPropertyOp45
 70
     1
102
RTVSPropertyOp46
 70
     1
102
RTVSPropertyOp47
 70
     1
102
RTVSPropertyOp48
 70
     1
102
RTVSPropertyOp49
 70
     1
102
RTVSPropertyOp50
 70
     1
102
RTVSPropertyOp51
 70
     0
102
RTVSPropertyOp52
 70
     0
102
RTVSPropertyOp53
 70
     1
102
RTVSPropertyOp54
 70
     1
102
RTVSPropertyOp55
 70
     1
102
RTVSPropertyOp56
 70
     1
102
RTVSPropertyOp57
 70
     1
102
RTVSPost2010Prop28
280
     0
102
RTVSPost2010PropOp28
 70
     1
102
RTVSPost2010Prop29
280
     1
102
RTVSPost2010PropOp29
 70
     1
102
RTVSPost2010Prop30
280
     1
102
RTVSPost2010PropOp30
 70
     1
102
RTVSPost2010Prop31
280
     0
102
RTVSPost2010PropOp31
 70
     1
102
RTVSPost2010Prop32
280
     0
102
RTVSPost2010PropOp32
 70
     1
102
RTVSPost2010Prop33
280
     0
102
RTVSPost2010PropOp33
 70
     1
102
RTVSPost2010Prop34
280
     0
102
RTVSPost2010PropOp34
 70
     1
102
RTVSPost2010Prop35
280
     0
102
RTVSPost2010PropOp35
 70
     1
102
RTVSPost2010Prop36
280
     0
102
RTVSPost2010PropOp36
 70
     1
102
RTVSPost2010Prop37
 90
       50
102
RTVSPost2010PropOp37
 70
     1
102
RTVSPost2010Prop38
140
0.0
102
RTVSPost2010PropOp38
 70
     1
102
RTVSPost2010Prop39
140
1.0
102
RTVSPost2010PropOp39
 70
     1
102
RTVSPost2010Prop40
 90
        0
102
RTVSPost2010PropOp40
 70
     1
102
RTVSPost2010Prop41ColorIndex
 90
       18
102
RTVSPost2010Prop41ColorRGB
 90
        0
102
RTVSPost2010PropOp41
 70
     1
102
RTVSPost2010Prop42
 90
       50
102
RTVSPost2010PropOp42
 70
     1
102
RTVSPost2010Prop43
 90
        3
102
RTVSPost2010PropOp43
 70
     1
102
RTVSPost2010Prop44ColorIndex
 90
        5
102
RTVSPost2010Prop44ColorRGB
 90
      255
102
RTVSPost2010PropOp44
 70
     1
102
RTVSPost2010Prop45
280
     0
102
RTVSPost2010PropOp45
 70
     1
102
RTVSPost2010Prop46
 90
       50
102
RTVSPost2010PropOp46
 70
     1
102
RTVSPost2010Prop47
 90
       50
102
RTVSPost2010PropOp47
 70
     1
102
RTVSPost2010Prop48
 90
       50
102
RTVSPost2010PropOp48
 70
     1
102
RTVSPost2010Prop49
280
     0
102
RTVSPost2010PropOp49
 70
     1
102
RTVSPost2010Prop50
 90
       50
102
RTVSPost2010PropOp50
 70
     1
102
RTVSPost2010Prop51ColorIndex
 90
      256
102
RTVSPost2010Prop51ColorRGB
 90
-16777216
102
RTVSPost2010PropOp51
 70
     0
102
RTVSPost2010Prop52
140
1.0
102
RTVSPost2010PropOp52
 70
     0
102
RTVSPost2010Prop53
 90
        2
102
RTVSPost2010PropOp53
 70
     1
102
RTVSPost2010Prop54
  1
strokes_ogs.tif
102
RTVSPost2010PropOp54
 70
     1
102
RTVSPost2010Prop55
280
     0
102
RTVSPost2010PropOp55
 70
     1
102
RTVSPost2010Prop56
140
1.0
102
RTVSPost2010PropOp56
 70
     1
102
RTVSPost2010Prop57
140
1.0
102
RTVSPost2010PropOp57
 70
     1
  0
XRECORD
  5
24A
102
{ACAD_REACTORS
330
249
102
}
330
249
100
AcDbXrecord
280
     1
102
RTVSPropertyOp0
 70
     1
102
RTVSPropertyOp1
 70
     1
102
RTVSPropertyOp2
 70
     1
102
RTVSPropertyOp3
 70
     1
102
RTVSPropertyOp4
 70
     1
102
RTVSPropertyOp5
 70
     1
102
RTVSPropertyOp6
 70
     1
102
RTVSPropertyOp7
 70
     1
102
RTVSPropertyOp8
 70
     1
102
RTVSPropertyOp9
 70
     1
102
RTVSPropertyOp10
 70
     1
102
RTVSPropertyOp11
 70
     1
102
RTVSPropertyOp12
 70
     1
102
RTVSPropertyOp13
 70
     1
102
RTVSPropertyOp14
 70
     1
102
RTVSPropertyOp15
 70
     1
102
RTVSPropertyOp16
 70
     1
102
RTVSPropertyOp17
 70
     1
102
RTVSPropertyOp18
 70
     1
102
RTVSPropertyOp19
 70
     1
102
RTVSPropertyOp20
 70
     1
102
RTVSPropertyOp21
 70
     1
102
RTVSPropertyOp22
 70
     1
102
RTVSPropertyOp23
 70
     1
102
RTVSPropertyOp24
 70
     1
102
RTVSPropertyOp25
 70
     1
102
RTVSPropertyOp26
 70
     1
102
RTVSPropertyOp27
 70
     1
102
RTVSPropertyOp28
 70
     1
102
RTVSPropertyOp29
 70
     1
102
RTVSPropertyOp30
 70
     1
102
RTVSPropertyOp31
 70
     1
102
RTVSPropertyOp32
 70
     1
102
RTVSPropertyOp33
 70
     1
102
RTVSPropertyOp34
 70
     1
102
RTVSPropertyOp35
 70
     1
102
RTVSPropertyOp36
 70
     1
102
RTVSPropertyOp37
 70
     1
102
RTVSPropertyOp38
 70
     1
102
RTVSPropertyOp39
 70
     1
102
RTVSPropertyOp40
 70
     1
102
RTVSPropertyOp41
 70
     1
102
RTVSPropertyOp42
 70
     1
102
RTVSPropertyOp43
 70
     1
102
RTVSPropertyOp44
 70
     1
102
RTVSPropertyOp45
 70
     1
102
RTVSPropertyOp46
 70
     1
102
RTVSPropertyOp47
 70
     1
102
RTVSPropertyOp48
 70
     1
102
RTVSPropertyOp49
 70
     1
102
RTVSPropertyOp50
 70
     1
102
RTVSPropertyOp51
 70
     0
102
RTVSPropertyOp52
 70
     0
102
RTVSPropertyOp53
 70
     1
102
RTVSPropertyOp54
 70
     1
102
RTVSPropertyOp55
 70
     1
102
RTVSPropertyOp56
 70
     1
102
RTVSPropertyOp57
 70
     1
102
RTVSPost2010Prop28
280
     0
102
RTVSPost2010PropOp28
 70
     1
102
RTVSPost2010Prop29
280
     1
102
RTVSPost2010PropOp29
 70
     1
102
RTVSPost2010Prop30
280
     1
102
RTVSPost2010PropOp30
 70
     1
102
RTVSPost2010Prop31
280
     0
102
RTVSPost2010PropOp31
 70
     1
102
RTVSPost2010Prop32
280
     0
102
RTVSPost2010PropOp32
 70
     1
102
RTVSPost2010Prop33
280
     0
102
RTVSPost2010PropOp33
 70
     1
102
RTVSPost2010Prop34
280
     0
102
RTVSPost2010PropOp34
 70
     1
102
RTVSPost2010Prop35
280
     0
102
RTVSPost2010PropOp35
 70
     1
102
RTVSPost2010Prop36
280
     0
102
RTVSPost2010PropOp36
 70
     1
102
RTVSPost2010Prop37
 90
       50
102
RTVSPost2010PropOp37
 70
     1
102
RTVSPost2010Prop38
140
0.0
102
RTVSPost2010PropOp38
 70
     1
102
RTVSPost2010Prop39
140
1.0
102
RTVSPost2010PropOp39
 70
     1
102
RTVSPost2010Prop40
 90
        0
102
RTVSPost2010PropOp40
 70
     1
102
RTVSPost2010Prop41ColorIndex
 90
       18
102
RTVSPost2010Prop41ColorRGB
 90
        0
102
RTVSPost2010PropOp41
 70
     1
102
RTVSPost2010Prop42
 90
       50
102
RTVSPost2010PropOp42
 70
     1
102
RTVSPost2010Prop43
 90
        3
102
RTVSPost2010PropOp43
 70
     1
102
RTVSPost2010Prop44ColorIndex
 90
        5
102
RTVSPost2010Prop44ColorRGB
 90
      255
102
RTVSPost2010PropOp44
 70
     1
102
RTVSPost2010Prop45
280
     0
102
RTVSPost2010PropOp45
 70
     1
102
RTVSPost2010Prop46
 90
       50
102
RTVSPost2010PropOp46
 70
     1
102
RTVSPost2010Prop47
 90
       50
102
RTVSPost2010PropOp47
 70
     1
102
RTVSPost2010Prop48
 90
       50
102
RTVSPost2010PropOp48
 70
     1
102
RTVSPost2010Prop49
280
     0
102
RTVSPost2010PropOp49
 70
     1
102
RTVSPost2010Prop50
 90
       50
102
RTVSPost2010PropOp50
 70
     1
102
RTVSPost2010Prop51ColorIndex
 90
      256
102
RTVSPost2010Prop51ColorRGB
 90
-16777216
102
RTVSPost2010PropOp51
 70
     0
102
RTVSPost2010Prop52
140
1.0
102
RTVSPost2010PropOp52
 70
     0
102
RTVSPost2010Prop53
 90
        2
102
RTVSPost2010PropOp53
 70
     1
102
RTVSPost2010Prop54
  1
strokes_ogs.tif
102
RTVSPost2010PropOp54
 70
     1
102
RTVSPost2010Prop55
280
     0
102
RTVSPost2010PropOp55
 70
     1
102
RTVSPost2010Prop56
140
1.0
102
RTVSPost2010PropOp56
 70
     1
102
RTVSPost2010Prop57
140
1.0
102
RTVSPost2010PropOp57
 70
     1
  0
XRECORD
  5
24C
102
{ACAD_REACTORS
330
24B
102
}
330
24B
100
AcDbXrecord
280
     1
102
RTVSPropertyOp0
 70
     1
102
RTVSPropertyOp1
 70
     1
102
RTVSPropertyOp2
 70
     1
102
RTVSPropertyOp3
 70
     1
102
RTVSPropertyOp4
 70
     1
102
RTVSPropertyOp5
 70
     1
102
RTVSPropertyOp6
 70
     1
102
RTVSPropertyOp7
 70
     1
102
RTVSPropertyOp8
 70
     1
102
RTVSPropertyOp9
 70
     1
102
RTVSPropertyOp10
 70
     1
102
RTVSPropertyOp11
 70
     1
102
RTVSPropertyOp12
 70
     1
102
RTVSPropertyOp13
 70
     1
102
RTVSPropertyOp14
 70
     1
102
RTVSPropertyOp15
 70
     1
102
RTVSPropertyOp16
 70
     1
102
RTVSPropertyOp17
 70
     1
102
RTVSPropertyOp18
 70
     1
102
RTVSPropertyOp19
 70
     1
102
RTVSPropertyOp20
 70
     1
102
RTVSPropertyOp21
 70
     1
102
RTVSPropertyOp22
 70
     1
102
RTVSPropertyOp23
 70
     1
102
RTVSPropertyOp24
 70
     1
102
RTVSPropertyOp25
 70
     1
102
RTVSPropertyOp26
 70
     1
102
RTVSPropertyOp27
 70
     1
102
RTVSPropertyOp28
 70
     1
102
RTVSPropertyOp29
 70
     1
102
RTVSPropertyOp30
 70
     1
102
RTVSPropertyOp31
 70
     1
102
RTVSPropertyOp32
 70
     1
102
RTVSPropertyOp33
 70
     1
102
RTVSPropertyOp34
 70
     1
102
RTVSPropertyOp35
 70
     1
102
RTVSPropertyOp36
 70
     1
102
RTVSPropertyOp37
 70
     1
102
RTVSPropertyOp38
 70
     1
102
RTVSPropertyOp39
 70
     1
102
RTVSPropertyOp40
 70
     1
102
RTVSPropertyOp41
 70
     1
102
RTVSPropertyOp42
 70
     1
102
RTVSPropertyOp43
 70
     1
102
RTVSPropertyOp44
 70
     1
102
RTVSPropertyOp45
 70
     1
102
RTVSPropertyOp46
 70
     1
102
RTVSPropertyOp47
 70
     1
102
RTVSPropertyOp48
 70
     1
102
RTVSPropertyOp49
 70
     1
102
RTVSPropertyOp50
 70
     1
102
RTVSPropertyOp51
 70
     0
102
RTVSPropertyOp52
 70
     0
102
RTVSPropertyOp53
 70
     1
102
RTVSPropertyOp54
 70
     1
102
RTVSPropertyOp55
 70
     1
102
RTVSPropertyOp56
 70
     1
102
RTVSPropertyOp57
 70
     1
102
RTVSPost2010Prop28
280
     0
102
RTVSPost2010PropOp28
 70
     1
102
RTVSPost2010Prop29
280
     1
102
RTVSPost2010PropOp29
 70
     1
102
RTVSPost2010Prop30
280
     1
102
RTVSPost2010PropOp30
 70
     1
102
RTVSPost2010Prop31
280
     0
102
RTVSPost2010PropOp31
 70
     1
102
RTVSPost2010Prop32
280
     0
102
RTVSPost2010PropOp32
 70
     1
102
RTVSPost2010Prop33
280
     0
102
RTVSPost2010PropOp33
 70
     1
102
RTVSPost2010Prop34
280
     0
102
RTVSPost2010PropOp34
 70
     1
102
RTVSPost2010Prop35
280
     0
102
RTVSPost2010PropOp35
 70
     1
102
RTVSPost2010Prop36
280
     0
102
RTVSPost2010PropOp36
 70
     1
102
RTVSPost2010Prop37
 90
       50
102
RTVSPost2010PropOp37
 70
     1
102
RTVSPost2010Prop38
140
0.0
102
RTVSPost2010PropOp38
 70
     1
102
RTVSPost2010Prop39
140
1.0
102
RTVSPost2010PropOp39
 70
     1
102
RTVSPost2010Prop40
 90
        0
102
RTVSPost2010PropOp40
 70
     1
102
RTVSPost2010Prop41ColorIndex
 90
       18
102
RTVSPost2010Prop41ColorRGB
 90
        0
102
RTVSPost2010PropOp41
 70
     1
102
RTVSPost2010Prop42
 90
       50
102
RTVSPost2010PropOp42
 70
     1
102
RTVSPost2010Prop43
 90
        3
102
RTVSPost2010PropOp43
 70
     1
102
RTVSPost2010Prop44ColorIndex
 90
        5
102
RTVSPost2010Prop44ColorRGB
 90
      255
102
RTVSPost2010PropOp44
 70
     1
102
RTVSPost2010Prop45
280
     0
102
RTVSPost2010PropOp45
 70
     1
102
RTVSPost2010Prop46
 90
       50
102
RTVSPost2010PropOp46
 70
     1
102
RTVSPost2010Prop47
 90
       50
102
RTVSPost2010PropOp47
 70
     1
102
RTVSPost2010Prop48
 90
       50
102
RTVSPost2010PropOp48
 70
     1
102
RTVSPost2010Prop49
280
     0
102
RTVSPost2010PropOp49
 70
     1
102
RTVSPost2010Prop50
 90
       50
102
RTVSPost2010PropOp50
 70
     1
102
RTVSPost2010Prop51ColorIndex
 90
      256
102
RTVSPost2010Prop51ColorRGB
 90
-16777216
102
RTVSPost2010PropOp51
 70
     0
102
RTVSPost2010Prop52
140
1.0
102
RTVSPost2010PropOp52
 70
     0
102
RTVSPost2010Prop53
 90
        2
102
RTVSPost2010PropOp53
 70
     1
102
RTVSPost2010Prop54
  1
strokes_ogs.tif
102
RTVSPost2010PropOp54
 70
     1
102
RTVSPost2010Prop55
280
     0
102
RTVSPost2010PropOp55
 70
     1
102
RTVSPost2010Prop56
140
1.0
102
RTVSPost2010PropOp56
 70
     1
102
RTVSPost2010Prop57
140
1.0
102
RTVSPost2010PropOp57
 70
     1
  0
XRECORD
  5
25C
102
{ACAD_REACTORS
330
25B
102
}
330
25B
100
AcDbXrecord
280
     1
102
RTVSPropertyOp0
 70
     0
102
RTVSPropertyOp1
 70
     0
102
RTVSPropertyOp2
 70
     0
102
RTVSPropertyOp3
 70
     0
102
RTVSPropertyOp4
 70
     0
102
RTVSPropertyOp5
 70
     0
102
RTVSPropertyOp6
 70
     0
102
RTVSPropertyOp7
 70
     0
102
RTVSPropertyOp8
 70
     0
102
RTVSPropertyOp9
 70
     0
102
RTVSPropertyOp10
 70
     0
102
RTVSPropertyOp11
 70
     0
102
RTVSPropertyOp12
 70
     0
102
RTVSPropertyOp13
 70
     0
102
RTVSPropertyOp14
 70
     2
102
RTVSPropertyOp15
 70
     0
102
RTVSPropertyOp16
 70
     0
102
RTVSPropertyOp17
 70
     0
102
RTVSPropertyOp18
 70
     0
102
RTVSPropertyOp19
 70
     0
102
RTVSPropertyOp20
 70
     0
102
RTVSPropertyOp21
 70
     0
102
RTVSPropertyOp22
 70
     0
102
RTVSPropertyOp23
 70
     0
102
RTVSPropertyOp24
 70
     0
102
RTVSPropertyOp25
 70
     0
102
RTVSPropertyOp26
 70
     0
102
RTVSPropertyOp27
 70
     0
102
RTVSPropertyOp28
 70
     0
102
RTVSPropertyOp29
 70
     0
102
RTVSPropertyOp30
 70
     0
102
RTVSPropertyOp31
 70
     0
102
RTVSPropertyOp32
 70
     0
102
RTVSPropertyOp33
 70
     0
102
RTVSPropertyOp34
 70
     0
102
RTVSPropertyOp35
 70
     0
102
RTVSPropertyOp36
 70
     0
102
RTVSPropertyOp37
 70
     0
102
RTVSPropertyOp38
 70
     0
102
RTVSPropertyOp39
 70
     0
102
RTVSPropertyOp40
 70
     0
102
RTVSPropertyOp41
 70
     0
102
RTVSPropertyOp42
 70
     0
102
RTVSPropertyOp43
 70
     0
102
RTVSPropertyOp44
 70
     0
102
RTVSPropertyOp45
 70
     0
102
RTVSPropertyOp46
 70
     0
102
RTVSPropertyOp47
 70
     0
102
RTVSPropertyOp48
 70
     0
102
RTVSPropertyOp49
 70
     0
102
RTVSPropertyOp50
 70
     0
102
RTVSPropertyOp51
 70
     0
102
RTVSPropertyOp52
 70
     0
102
RTVSPropertyOp53
 70
     0
102
RTVSPropertyOp54
 70
     0
102
RTVSPropertyOp55
 70
     0
102
RTVSPropertyOp56
 70
     0
102
RTVSPropertyOp57
 70
     0
102
RTVSPost2010Prop28
280
     0
102
RTVSPost2010PropOp28
 70
     0
102
RTVSPost2010Prop29
280
     1
102
RTVSPost2010PropOp29
 70
     0
102
RTVSPost2010Prop30
280
     1
102
RTVSPost2010PropOp30
 70
     0
102
RTVSPost2010Prop31
280
     0
102
RTVSPost2010PropOp31
 70
     0
102
RTVSPost2010Prop32
280
     0
102
RTVSPost2010PropOp32
 70
     0
102
RTVSPost2010Prop33
280
     0
102
RTVSPost2010PropOp33
 70
     0
102
RTVSPost2010Prop34
280
     0
102
RTVSPost2010PropOp34
 70
     0
102
RTVSPost2010Prop35
280
     0
102
RTVSPost2010PropOp35
 70
     0
102
RTVSPost2010Prop36
280
     0
102
RTVSPost2010PropOp36
 70
     0
102
RTVSPost2010Prop37
 90
       50
102
RTVSPost2010PropOp37
 70
     0
102
RTVSPost2010Prop38
140
0.0
102
RTVSPost2010PropOp38
 70
     0
102
RTVSPost2010Prop39
140
1.0
102
RTVSPost2010PropOp39
 70
     0
102
RTVSPost2010Prop40
 90
        0
102
RTVSPost2010PropOp40
 70
     0
102
RTVSPost2010Prop41ColorIndex
 90
       18
102
RTVSPost2010Prop41ColorRGB
 90
        0
102
RTVSPost2010PropOp41
 70
     0
102
RTVSPost2010Prop42
 90
       50
102
RTVSPost2010PropOp42
 70
     0
102
RTVSPost2010Prop43
 90
        3
102
RTVSPost2010PropOp43
 70
     0
102
RTVSPost2010Prop44ColorIndex
 90
        5
102
RTVSPost2010Prop44ColorRGB
 90
      255
102
RTVSPost2010PropOp44
 70
     0
102
RTVSPost2010Prop45
280
     0
102
RTVSPost2010PropOp45
 70
     0
102
RTVSPost2010Prop46
 90
       50
102
RTVSPost2010PropOp46
 70
     0
102
RTVSPost2010Prop47
 90
       50
102
RTVSPost2010PropOp47
 70
     0
102
RTVSPost2010Prop48
 90
       50
102
RTVSPost2010PropOp48
 70
     0
102
RTVSPost2010Prop49
280
     0
102
RTVSPost2010PropOp49
 70
     0
102
RTVSPost2010Prop50
 90
       50
102
RTVSPost2010PropOp50
 70
     0
102
RTVSPost2010Prop51ColorIndex
 90
      256
102
RTVSPost2010Prop51ColorRGB
 90
-16777216
102
RTVSPost2010PropOp51
 70
     0
102
RTVSPost2010Prop52
140
1.0
102
RTVSPost2010PropOp52
 70
     0
102
RTVSPost2010Prop53
 90
        2
102
RTVSPost2010PropOp53
 70
     0
102
RTVSPost2010Prop54
  1
strokes_ogs.tif
102
RTVSPost2010PropOp54
 70
     0
102
RTVSPost2010Prop55
280
     0
102
RTVSPost2010PropOp55
 70
     0
102
RTVSPost2010Prop56
140
1.0
102
RTVSPost2010PropOp56
 70
     0
102
RTVSPost2010Prop57
140
1.0
102
RTVSPost2010PropOp57
 70
     0
  0
XRECORD
  5
254
102
{ACAD_REACTORS
330
253
102
}
330
253
100
AcDbXrecord
280
     1
102
RTVSPropertyOp0
 70
     1
102
RTVSPropertyOp1
 70
     1
102
RTVSPropertyOp2
 70
     1
102
RTVSPropertyOp3
 70
     1
102
RTVSPropertyOp4
 70
     1
102
RTVSPropertyOp5
 70
     1
102
RTVSPropertyOp6
 70
     1
102
RTVSPropertyOp7
 70
     1
102
RTVSPropertyOp8
 70
     1
102
RTVSPropertyOp9
 70
     1
102
RTVSPropertyOp10
 70
     1
102
RTVSPropertyOp11
 70
     1
102
RTVSPropertyOp12
 70
     1
102
RTVSPropertyOp13
 70
     1
102
RTVSPropertyOp14
 70
     1
102
RTVSPropertyOp15
 70
     1
102
RTVSPropertyOp16
 70
     1
102
RTVSPropertyOp17
 70
     1
102
RTVSPropertyOp18
 70
     1
102
RTVSPropertyOp19
 70
     1
102
RTVSPropertyOp20
 70
     1
102
RTVSPropertyOp21
 70
     1
102
RTVSPropertyOp22
 70
     1
102
RTVSPropertyOp23
 70
     1
102
RTVSPropertyOp24
 70
     1
102
RTVSPropertyOp25
 70
     1
102
RTVSPropertyOp26
 70
     1
102
RTVSPropertyOp27
 70
     1
102
RTVSPropertyOp28
 70
     1
102
RTVSPropertyOp29
 70
     1
102
RTVSPropertyOp30
 70
     1
102
RTVSPropertyOp31
 70
     1
102
RTVSPropertyOp32
 70
     1
102
RTVSPropertyOp33
 70
     1
102
RTVSPropertyOp34
 70
     1
102
RTVSPropertyOp35
 70
     1
102
RTVSPropertyOp36
 70
     1
102
RTVSPropertyOp37
 70
     1
102
RTVSPropertyOp38
 70
     1
102
RTVSPropertyOp39
 70
     1
102
RTVSPropertyOp40
 70
     1
102
RTVSPropertyOp41
 70
     1
102
RTVSPropertyOp42
 70
     1
102
RTVSPropertyOp43
 70
     1
102
RTVSPropertyOp44
 70
     1
102
RTVSPropertyOp45
 70
     1
102
RTVSPropertyOp46
 70
     1
102
RTVSPropertyOp47
 70
     1
102
RTVSPropertyOp48
 70
     1
102
RTVSPropertyOp49
 70
     1
102
RTVSPropertyOp50
 70
     1
102
RTVSPropertyOp51
 70
     0
102
RTVSPropertyOp52
 70
     0
102
RTVSPropertyOp53
 70
     1
102
RTVSPropertyOp54
 70
     1
102
RTVSPropertyOp55
 70
     1
102
RTVSPropertyOp56
 70
     1
102
RTVSPropertyOp57
 70
     1
102
RTVSPost2010Prop28
280
     0
102
RTVSPost2010PropOp28
 70
     1
102
RTVSPost2010Prop29
280
     1
102
RTVSPost2010PropOp29
 70
     1
102
RTVSPost2010Prop30
280
     1
102
RTVSPost2010PropOp30
 70
     1
102
RTVSPost2010Prop31
280
     0
102
RTVSPost2010PropOp31
 70
     1
102
RTVSPost2010Prop32
280
     0
102
RTVSPost2010PropOp32
 70
     1
102
RTVSPost2010Prop33
280
     0
102
RTVSPost2010PropOp33
 70
     1
102
RTVSPost2010Prop34
280
     0
102
RTVSPost2010PropOp34
 70
     1
102
RTVSPost2010Prop35
280
     0
102
RTVSPost2010PropOp35
 70
     1
102
RTVSPost2010Prop36
280
     0
102
RTVSPost2010PropOp36
 70
     1
102
RTVSPost2010Prop37
 90
       50
102
RTVSPost2010PropOp37
 70
     1
102
RTVSPost2010Prop38
140
0.0
102
RTVSPost2010PropOp38
 70
     1
102
RTVSPost2010Prop39
140
1.0
102
RTVSPost2010PropOp39
 70
     1
102
RTVSPost2010Prop40
 90
        0
102
RTVSPost2010PropOp40
 70
     1
102
RTVSPost2010Prop41ColorIndex
 90
       18
102
RTVSPost2010Prop41ColorRGB
 90
        0
102
RTVSPost2010PropOp41
 70
     1
102
RTVSPost2010Prop42
 90
       50
102
RTVSPost2010PropOp42
 70
     1
102
RTVSPost2010Prop43
 90
        3
102
RTVSPost2010PropOp43
 70
     1
102
RTVSPost2010Prop44ColorIndex
 90
        5
102
RTVSPost2010Prop44ColorRGB
 90
      255
102
RTVSPost2010PropOp44
 70
     1
102
RTVSPost2010Prop45
280
     0
102
RTVSPost2010PropOp45
 70
     1
102
RTVSPost2010Prop46
 90
       50
102
RTVSPost2010PropOp46
 70
     1
102
RTVSPost2010Prop47
 90
       50
102
RTVSPost2010PropOp47
 70
     1
102
RTVSPost2010Prop48
 90
       50
102
RTVSPost2010PropOp48
 70
     1
102
RTVSPost2010Prop49
280
     0
102
RTVSPost2010PropOp49
 70
     1
102
RTVSPost2010Prop50
 90
       50
102
RTVSPost2010PropOp50
 70
     1
102
RTVSPost2010Prop51ColorIndex
 90
      256
102
RTVSPost2010Prop51ColorRGB
 90
-16777216
102
RTVSPost2010PropOp51
 70
     0
102
RTVSPost2010Prop52
140
1.0
102
RTVSPost2010PropOp52
 70
     0
102
RTVSPost2010Prop53
 90
        2
102
RTVSPost2010PropOp53
 70
     1
102
RTVSPost2010Prop54
  1
strokes_ogs.tif
102
RTVSPost2010PropOp54
 70
     1
102
RTVSPost2010Prop55
280
     0
102
RTVSPost2010PropOp55
 70
     1
102
RTVSPost2010Prop56
140
1.0
102
RTVSPost2010PropOp56
 70
     1
102
RTVSPost2010Prop57
140
1.0
102
RTVSPost2010PropOp57
 70
     1
  0
XRECORD
  5
238
102
{ACAD_REACTORS
330
237
102
}
330
237
100
AcDbXrecord
280
     1
102
RTVSPropertyOp0
 70
     1
102
RTVSPropertyOp1
 70
     1
102
RTVSPropertyOp2
 70
     1
102
RTVSPropertyOp3
 70
     1
102
RTVSPropertyOp4
 70
     1
102
RTVSPropertyOp5
 70
     1
102
RTVSPropertyOp6
 70
     1
102
RTVSPropertyOp7
 70
     1
102
RTVSPropertyOp8
 70
     1
102
RTVSPropertyOp9
 70
     1
102
RTVSPropertyOp10
 70
     1
102
RTVSPropertyOp11
 70
     1
102
RTVSPropertyOp12
 70
     1
102
RTVSPropertyOp13
 70
     1
102
RTVSPropertyOp14
 70
     1
102
RTVSPropertyOp15
 70
     1
102
RTVSPropertyOp16
 70
     1
102
RTVSPropertyOp17
 70
     1
102
RTVSPropertyOp18
 70
     1
102
RTVSPropertyOp19
 70
     1
102
RTVSPropertyOp20
 70
     1
102
RTVSPropertyOp21
 70
     1
102
RTVSPropertyOp22
 70
     1
102
RTVSPropertyOp23
 70
     1
102
RTVSPropertyOp24
 70
     1
102
RTVSPropertyOp25
 70
     1
102
RTVSPropertyOp26
 70
     1
102
RTVSPropertyOp27
 70
     1
102
RTVSPropertyOp28
 70
     1
102
RTVSPropertyOp29
 70
     1
102
RTVSPropertyOp30
 70
     1
102
RTVSPropertyOp31
 70
     1
102
RTVSPropertyOp32
 70
     1
102
RTVSPropertyOp33
 70
     1
102
RTVSPropertyOp34
 70
     1
102
RTVSPropertyOp35
 70
     1
102
RTVSPropertyOp36
 70
     1
102
RTVSPropertyOp37
 70
     1
102
RTVSPropertyOp38
 70
     1
102
RTVSPropertyOp39
 70
     1
102
RTVSPropertyOp40
 70
     1
102
RTVSPropertyOp41
 70
     1
102
RTVSPropertyOp42
 70
     1
102
RTVSPropertyOp43
 70
     1
102
RTVSPropertyOp44
 70
     1
102
RTVSPropertyOp45
 70
     1
102
RTVSPropertyOp46
 70
     1
102
RTVSPropertyOp47
 70
     1
102
RTVSPropertyOp48
 70
     1
102
RTVSPropertyOp49
 70
     1
102
RTVSPropertyOp50
 70
     1
102
RTVSPropertyOp51
 70
     0
102
RTVSPropertyOp52
 70
     0
102
RTVSPropertyOp53
 70
     1
102
RTVSPropertyOp54
 70
     1
102
RTVSPropertyOp55
 70
     1
102
RTVSPropertyOp56
 70
     1
102
RTVSPropertyOp57
 70
     1
102
RTVSPost2010Prop28
280
     0
102
RTVSPost2010PropOp28
 70
     1
102
RTVSPost2010Prop29
280
     1
102
RTVSPost2010PropOp29
 70
     1
102
RTVSPost2010Prop30
280
     1
102
RTVSPost2010PropOp30
 70
     1
102
RTVSPost2010Prop31
280
     0
102
RTVSPost2010PropOp31
 70
     1
102
RTVSPost2010Prop32
280
     0
102
RTVSPost2010PropOp32
 70
     1
102
RTVSPost2010Prop33
280
     0
102
RTVSPost2010PropOp33
 70
     1
102
RTVSPost2010Prop34
280
     0
102
RTVSPost2010PropOp34
 70
     1
102
RTVSPost2010Prop35
280
     0
102
RTVSPost2010PropOp35
 70
     1
102
RTVSPost2010Prop36
280
     0
102
RTVSPost2010PropOp36
 70
     1
102
RTVSPost2010Prop37
 90
       50
102
RTVSPost2010PropOp37
 70
     1
102
RTVSPost2010Prop38
140
0.0
102
RTVSPost2010PropOp38
 70
     1
102
RTVSPost2010Prop39
140
1.0
102
RTVSPost2010PropOp39
 70
     1
102
RTVSPost2010Prop40
 90
        0
102
RTVSPost2010PropOp40
 70
     1
102
RTVSPost2010Prop41ColorIndex
 90
       18
102
RTVSPost2010Prop41ColorRGB
 90
        0
102
RTVSPost2010PropOp41
 70
     1
102
RTVSPost2010Prop42
 90
       50
102
RTVSPost2010PropOp42
 70
     1
102
RTVSPost2010Prop43
 90
        3
102
RTVSPost2010PropOp43
 70
     1
102
RTVSPost2010Prop44ColorIndex
 90
        5
102
RTVSPost2010Prop44ColorRGB
 90
      255
102
RTVSPost2010PropOp44
 70
     1
102
RTVSPost2010Prop45
280
     0
102
RTVSPost2010PropOp45
 70
     1
102
RTVSPost2010Prop46
 90
       50
102
RTVSPost2010PropOp46
 70
     1
102
RTVSPost2010Prop47
 90
       50
102
RTVSPost2010PropOp47
 70
     1
102
RTVSPost2010Prop48
 90
       50
102
RTVSPost2010PropOp48
 70
     1
102
RTVSPost2010Prop49
280
     0
102
RTVSPost2010PropOp49
 70
     1
102
RTVSPost2010Prop50
 90
       50
102
RTVSPost2010PropOp50
 70
     1
102
RTVSPost2010Prop51ColorIndex
 90
      256
102
RTVSPost2010Prop51ColorRGB
 90
-16777216
102
RTVSPost2010PropOp51
 70
     0
102
RTVSPost2010Prop52
140
1.0
102
RTVSPost2010PropOp52
 70
     0
102
RTVSPost2010Prop53
 90
        2
102
RTVSPost2010PropOp53
 70
     1
102
RTVSPost2010Prop54
  1
strokes_ogs.tif
102
RTVSPost2010PropOp54
 70
     1
102
RTVSPost2010Prop55
280
     0
102
RTVSPost2010PropOp55
 70
     1
102
RTVSPost2010Prop56
140
1.0
102
RTVSPost2010PropOp56
 70
     1
102
RTVSPost2010Prop57
140
1.0
102
RTVSPost2010PropOp57
 70
     1
  0
XRECORD
  5
23A
102
{ACAD_REACTORS
330
239
102
}
330
239
100
AcDbXrecord
280
     1
102
RTVSPropertyOp0
 70
     1
102
RTVSPropertyOp1
 70
     1
102
RTVSPropertyOp2
 70
     1
102
RTVSPropertyOp3
 70
     1
102
RTVSPropertyOp4
 70
     1
102
RTVSPropertyOp5
 70
     1
102
RTVSPropertyOp6
 70
     1
102
RTVSPropertyOp7
 70
     1
102
RTVSPropertyOp8
 70
     1
102
RTVSPropertyOp9
 70
     1
102
RTVSPropertyOp10
 70
     1
102
RTVSPropertyOp11
 70
     1
102
RTVSPropertyOp12
 70
     1
102
RTVSPropertyOp13
 70
     1
102
RTVSPropertyOp14
 70
     1
102
RTVSPropertyOp15
 70
     1
102
RTVSPropertyOp16
 70
     1
102
RTVSPropertyOp17
 70
     1
102
RTVSPropertyOp18
 70
     1
102
RTVSPropertyOp19
 70
     1
102
RTVSPropertyOp20
 70
     1
102
RTVSPropertyOp21
 70
     1
102
RTVSPropertyOp22
 70
     1
102
RTVSPropertyOp23
 70
     1
102
RTVSPropertyOp24
 70
     1
102
RTVSPropertyOp25
 70
     1
102
RTVSPropertyOp26
 70
     1
102
RTVSPropertyOp27
 70
     1
102
RTVSPropertyOp28
 70
     1
102
RTVSPropertyOp29
 70
     1
102
RTVSPropertyOp30
 70
     1
102
RTVSPropertyOp31
 70
     1
102
RTVSPropertyOp32
 70
     1
102
RTVSPropertyOp33
 70
     1
102
RTVSPropertyOp34
 70
     1
102
RTVSPropertyOp35
 70
     1
102
RTVSPropertyOp36
 70
     1
102
RTVSPropertyOp37
 70
     1
102
RTVSPropertyOp38
 70
     1
102
RTVSPropertyOp39
 70
     1
102
RTVSPropertyOp40
 70
     1
102
RTVSPropertyOp41
 70
     1
102
RTVSPropertyOp42
 70
     1
102
RTVSPropertyOp43
 70
     1
102
RTVSPropertyOp44
 70
     1
102
RTVSPropertyOp45
 70
     1
102
RTVSPropertyOp46
 70
     1
102
RTVSPropertyOp47
 70
     1
102
RTVSPropertyOp48
 70
     1
102
RTVSPropertyOp49
 70
     1
102
RTVSPropertyOp50
 70
     1
102
RTVSPropertyOp51
 70
     0
102
RTVSPropertyOp52
 70
     0
102
RTVSPropertyOp53
 70
     1
102
RTVSPropertyOp54
 70
     1
102
RTVSPropertyOp55
 70
     1
102
RTVSPropertyOp56
 70
     1
102
RTVSPropertyOp57
 70
     1
102
RTVSPost2010Prop28
280
     0
102
RTVSPost2010PropOp28
 70
     1
102
RTVSPost2010Prop29
280
     1
102
RTVSPost2010PropOp29
 70
     1
102
RTVSPost2010Prop30
280
     1
102
RTVSPost2010PropOp30
 70
     1
102
RTVSPost2010Prop31
280
     0
102
RTVSPost2010PropOp31
 70
     1
102
RTVSPost2010Prop32
280
     0
102
RTVSPost2010PropOp32
 70
     1
102
RTVSPost2010Prop33
280
     0
102
RTVSPost2010PropOp33
 70
     1
102
RTVSPost2010Prop34
280
     0
102
RTVSPost2010PropOp34
 70
     1
102
RTVSPost2010Prop35
280
     0
102
RTVSPost2010PropOp35
 70
     1
102
RTVSPost2010Prop36
280
     0
102
RTVSPost2010PropOp36
 70
     1
102
RTVSPost2010Prop37
 90
       50
102
RTVSPost2010PropOp37
 70
     1
102
RTVSPost2010Prop38
140
0.0
102
RTVSPost2010PropOp38
 70
     1
102
RTVSPost2010Prop39
140
1.0
102
RTVSPost2010PropOp39
 70
     1
102
RTVSPost2010Prop40
 90
        0
102
RTVSPost2010PropOp40
 70
     1
102
RTVSPost2010Prop41ColorIndex
 90
       18
102
RTVSPost2010Prop41ColorRGB
 90
        0
102
RTVSPost2010PropOp41
 70
     1
102
RTVSPost2010Prop42
 90
       50
102
RTVSPost2010PropOp42
 70
     1
102
RTVSPost2010Prop43
 90
        3
102
RTVSPost2010PropOp43
 70
     1
102
RTVSPost2010Prop44ColorIndex
 90
        5
102
RTVSPost2010Prop44ColorRGB
 90
      255
102
RTVSPost2010PropOp44
 70
     1
102
RTVSPost2010Prop45
280
     0
102
RTVSPost2010PropOp45
 70
     1
102
RTVSPost2010Prop46
 90
       50
102
RTVSPost2010PropOp46
 70
     1
102
RTVSPost2010Prop47
 90
       50
102
RTVSPost2010PropOp47
 70
     1
102
RTVSPost2010Prop48
 90
       50
102
RTVSPost2010PropOp48
 70
     1
102
RTVSPost2010Prop49
280
     0
102
RTVSPost2010PropOp49
 70
     1
102
RTVSPost2010Prop50
 90
       50
102
RTVSPost2010PropOp50
 70
     1
102
RTVSPost2010Prop51ColorIndex
 90
      256
102
RTVSPost2010Prop51ColorRGB
 90
-16777216
102
RTVSPost2010PropOp51
 70
     0
102
RTVSPost2010Prop52
140
1.0
102
RTVSPost2010PropOp52
 70
     0
102
RTVSPost2010Prop53
 90
        2
102
RTVSPost2010PropOp53
 70
     1
102
RTVSPost2010Prop54
  1
strokes_ogs.tif
102
RTVSPost2010PropOp54
 70
     1
102
RTVSPost2010Prop55
280
     0
102
RTVSPost2010PropOp55
 70
     1
102
RTVSPost2010Prop56
140
1.0
102
RTVSPost2010PropOp56
 70
     1
102
RTVSPost2010Prop57
140
1.0
102
RTVSPost2010PropOp57
 70
     1
  0
XRECORD
  5
23C
102
{ACAD_REACTORS
330
23B
102
}
330
23B
100
AcDbXrecord
280
     1
102
RTVSPropertyOp0
 70
     1
102
RTVSPropertyOp1
 70
     1
102
RTVSPropertyOp2
 70
     1
102
RTVSPropertyOp3
 70
     1
102
RTVSPropertyOp4
 70
     1
102
RTVSPropertyOp5
 70
     1
102
RTVSPropertyOp6
 70
     1
102
RTVSPropertyOp7
 70
     1
102
RTVSPropertyOp8
 70
     1
102
RTVSPropertyOp9
 70
     1
102
RTVSPropertyOp10
 70
     1
102
RTVSPropertyOp11
 70
     1
102
RTVSPropertyOp12
 70
     1
102
RTVSPropertyOp13
 70
     1
102
RTVSPropertyOp14
 70
     1
102
RTVSPropertyOp15
 70
     1
102
RTVSPropertyOp16
 70
     1
102
RTVSPropertyOp17
 70
     1
102
RTVSPropertyOp18
 70
     1
102
RTVSPropertyOp19
 70
     1
102
RTVSPropertyOp20
 70
     1
102
RTVSPropertyOp21
 70
     1
102
RTVSPropertyOp22
 70
     1
102
RTVSPropertyOp23
 70
     1
102
RTVSPropertyOp24
 70
     1
102
RTVSPropertyOp25
 70
     1
102
RTVSPropertyOp26
 70
     1
102
RTVSPropertyOp27
 70
     1
102
RTVSPropertyOp28
 70
     1
102
RTVSPropertyOp29
 70
     1
102
RTVSPropertyOp30
 70
     1
102
RTVSPropertyOp31
 70
     1
102
RTVSPropertyOp32
 70
     1
102
RTVSPropertyOp33
 70
     1
102
RTVSPropertyOp34
 70
     1
102
RTVSPropertyOp35
 70
     1
102
RTVSPropertyOp36
 70
     1
102
RTVSPropertyOp37
 70
     1
102
RTVSPropertyOp38
 70
     1
102
RTVSPropertyOp39
 70
     1
102
RTVSPropertyOp40
 70
     1
102
RTVSPropertyOp41
 70
     1
102
RTVSPropertyOp42
 70
     1
102
RTVSPropertyOp43
 70
     1
102
RTVSPropertyOp44
 70
     1
102
RTVSPropertyOp45
 70
     1
102
RTVSPropertyOp46
 70
     1
102
RTVSPropertyOp47
 70
     1
102
RTVSPropertyOp48
 70
     1
102
RTVSPropertyOp49
 70
     1
102
RTVSPropertyOp50
 70
     1
102
RTVSPropertyOp51
 70
     0
102
RTVSPropertyOp52
 70
     0
102
RTVSPropertyOp53
 70
     1
102
RTVSPropertyOp54
 70
     1
102
RTVSPropertyOp55
 70
     1
102
RTVSPropertyOp56
 70
     1
102
RTVSPropertyOp57
 70
     1
102
RTVSPost2010Prop28
280
     0
102
RTVSPost2010PropOp28
 70
     1
102
RTVSPost2010Prop29
280
     1
102
RTVSPost2010PropOp29
 70
     1
102
RTVSPost2010Prop30
280
     1
102
RTVSPost2010PropOp30
 70
     1
102
RTVSPost2010Prop31
280
     0
102
RTVSPost2010PropOp31
 70
     1
102
RTVSPost2010Prop32
280
     0
102
RTVSPost2010PropOp32
 70
     1
102
RTVSPost2010Prop33
280
     0
102
RTVSPost2010PropOp33
 70
     1
102
RTVSPost2010Prop34
280
     0
102
RTVSPost2010PropOp34
 70
     1
102
RTVSPost2010Prop35
280
     0
102
RTVSPost2010PropOp35
 70
     1
102
RTVSPost2010Prop36
280
     0
102
RTVSPost2010PropOp36
 70
     1
102
RTVSPost2010Prop37
 90
       50
102
RTVSPost2010PropOp37
 70
     1
102
RTVSPost2010Prop38
140
0.0
102
RTVSPost2010PropOp38
 70
     1
102
RTVSPost2010Prop39
140
1.0
102
RTVSPost2010PropOp39
 70
     1
102
RTVSPost2010Prop40
 90
        0
102
RTVSPost2010PropOp40
 70
     1
102
RTVSPost2010Prop41ColorIndex
 90
       18
102
RTVSPost2010Prop41ColorRGB
 90
        0
102
RTVSPost2010PropOp41
 70
     1
102
RTVSPost2010Prop42
 90
       50
102
RTVSPost2010PropOp42
 70
     1
102
RTVSPost2010Prop43
 90
        3
102
RTVSPost2010PropOp43
 70
     1
102
RTVSPost2010Prop44ColorIndex
 90
        5
102
RTVSPost2010Prop44ColorRGB
 90
      255
102
RTVSPost2010PropOp44
 70
     1
102
RTVSPost2010Prop45
280
     0
102
RTVSPost2010PropOp45
 70
     1
102
RTVSPost2010Prop46
 90
       50
102
RTVSPost2010PropOp46
 70
     1
102
RTVSPost2010Prop47
 90
       50
102
RTVSPost2010PropOp47
 70
     1
102
RTVSPost2010Prop48
 90
       50
102
RTVSPost2010PropOp48
 70
     1
102
RTVSPost2010Prop49
280
     0
102
RTVSPost2010PropOp49
 70
     1
102
RTVSPost2010Prop50
 90
       50
102
RTVSPost2010PropOp50
 70
     1
102
RTVSPost2010Prop51ColorIndex
 90
      256
102
RTVSPost2010Prop51ColorRGB
 90
-16777216
102
RTVSPost2010PropOp51
 70
     0
102
RTVSPost2010Prop52
140
1.0
102
RTVSPost2010PropOp52
 70
     0
102
RTVSPost2010Prop53
 90
        2
102
RTVSPost2010PropOp53
 70
     1
102
RTVSPost2010Prop54
  1
strokes_ogs.tif
102
RTVSPost2010PropOp54
 70
     1
102
RTVSPost2010Prop55
280
     0
102
RTVSPost2010PropOp55
 70
     1
102
RTVSPost2010Prop56
140
1.0
102
RTVSPost2010PropOp56
 70
     1
102
RTVSPost2010Prop57
140
1.0
102
RTVSPost2010PropOp57
 70
     1
  0
XRECORD
  5
23E
102
{ACAD_REACTORS
330
23D
102
}
330
23D
100
AcDbXrecord
280
     1
102
RTVSPropertyOp0
 70
     1
102
RTVSPropertyOp1
 70
     1
102
RTVSPropertyOp2
 70
     1
102
RTVSPropertyOp3
 70
     1
102
RTVSPropertyOp4
 70
     1
102
RTVSPropertyOp5
 70
     1
102
RTVSPropertyOp6
 70
     1
102
RTVSPropertyOp7
 70
     1
102
RTVSPropertyOp8
 70
     1
102
RTVSPropertyOp9
 70
     1
102
RTVSPropertyOp10
 70
     1
102
RTVSPropertyOp11
 70
     1
102
RTVSPropertyOp12
 70
     1
102
RTVSPropertyOp13
 70
     1
102
RTVSPropertyOp14
 70
     1
102
RTVSPropertyOp15
 70
     1
102
RTVSPropertyOp16
 70
     1
102
RTVSPropertyOp17
 70
     1
102
RTVSPropertyOp18
 70
     1
102
RTVSPropertyOp19
 70
     1
102
RTVSPropertyOp20
 70
     1
102
RTVSPropertyOp21
 70
     1
102
RTVSPropertyOp22
 70
     1
102
RTVSPropertyOp23
 70
     1
102
RTVSPropertyOp24
 70
     1
102
RTVSPropertyOp25
 70
     1
102
RTVSPropertyOp26
 70
     1
102
RTVSPropertyOp27
 70
     1
102
RTVSPropertyOp28
 70
     1
102
RTVSPropertyOp29
 70
     1
102
RTVSPropertyOp30
 70
     1
102
RTVSPropertyOp31
 70
     1
102
RTVSPropertyOp32
 70
     1
102
RTVSPropertyOp33
 70
     1
102
RTVSPropertyOp34
 70
     1
102
RTVSPropertyOp35
 70
     1
102
RTVSPropertyOp36
 70
     1
102
RTVSPropertyOp37
 70
     1
102
RTVSPropertyOp38
 70
     1
102
RTVSPropertyOp39
 70
     1
102
RTVSPropertyOp40
 70
     1
102
RTVSPropertyOp41
 70
     1
102
RTVSPropertyOp42
 70
     1
102
RTVSPropertyOp43
 70
     1
102
RTVSPropertyOp44
 70
     1
102
RTVSPropertyOp45
 70
     1
102
RTVSPropertyOp46
 70
     1
102
RTVSPropertyOp47
 70
     1
102
RTVSPropertyOp48
 70
     1
102
RTVSPropertyOp49
 70
     1
102
RTVSPropertyOp50
 70
     1
102
RTVSPropertyOp51
 70
     0
102
RTVSPropertyOp52
 70
     0
102
RTVSPropertyOp53
 70
     1
102
RTVSPropertyOp54
 70
     1
102
RTVSPropertyOp55
 70
     1
102
RTVSPropertyOp56
 70
     1
102
RTVSPropertyOp57
 70
     1
102
RTVSPost2010Prop28
280
     0
102
RTVSPost2010PropOp28
 70
     1
102
RTVSPost2010Prop29
280
     1
102
RTVSPost2010PropOp29
 70
     1
102
RTVSPost2010Prop30
280
     1
102
RTVSPost2010PropOp30
 70
     1
102
RTVSPost2010Prop31
280
     0
102
RTVSPost2010PropOp31
 70
     1
102
RTVSPost2010Prop32
280
     0
102
RTVSPost2010PropOp32
 70
     1
102
RTVSPost2010Prop33
280
     0
102
RTVSPost2010PropOp33
 70
     1
102
RTVSPost2010Prop34
280
     0
102
RTVSPost2010PropOp34
 70
     1
102
RTVSPost2010Prop35
280
     0
102
RTVSPost2010PropOp35
 70
     1
102
RTVSPost2010Prop36
280
     0
102
RTVSPost2010PropOp36
 70
     1
102
RTVSPost2010Prop37
 90
       50
102
RTVSPost2010PropOp37
 70
     1
102
RTVSPost2010Prop38
140
0.0
102
RTVSPost2010PropOp38
 70
     1
102
RTVSPost2010Prop39
140
1.0
102
RTVSPost2010PropOp39
 70
     1
102
RTVSPost2010Prop40
 90
        0
102
RTVSPost2010PropOp40
 70
     1
102
RTVSPost2010Prop41ColorIndex
 90
       18
102
RTVSPost2010Prop41ColorRGB
 90
        0
102
RTVSPost2010PropOp41
 70
     1
102
RTVSPost2010Prop42
 90
       50
102
RTVSPost2010PropOp42
 70
     1
102
RTVSPost2010Prop43
 90
        3
102
RTVSPost2010PropOp43
 70
     1
102
RTVSPost2010Prop44ColorIndex
 90
        5
102
RTVSPost2010Prop44ColorRGB
 90
      255
102
RTVSPost2010PropOp44
 70
     1
102
RTVSPost2010Prop45
280
     0
102
RTVSPost2010PropOp45
 70
     1
102
RTVSPost2010Prop46
 90
       50
102
RTVSPost2010PropOp46
 70
     1
102
RTVSPost2010Prop47
 90
       50
102
RTVSPost2010PropOp47
 70
     1
102
RTVSPost2010Prop48
 90
       50
102
RTVSPost2010PropOp48
 70
     1
102
RTVSPost2010Prop49
280
     0
102
RTVSPost2010PropOp49
 70
     1
102
RTVSPost2010Prop50
 90
       50
102
RTVSPost2010PropOp50
 70
     1
102
RTVSPost2010Prop51ColorIndex
 90
      256
102
RTVSPost2010Prop51ColorRGB
 90
-16777216
102
RTVSPost2010PropOp51
 70
     0
102
RTVSPost2010Prop52
140
1.0
102
RTVSPost2010PropOp52
 70
     0
102
RTVSPost2010Prop53
 90
        2
102
RTVSPost2010PropOp53
 70
     1
102
RTVSPost2010Prop54
  1
strokes_ogs.tif
102
RTVSPost2010PropOp54
 70
     1
102
RTVSPost2010Prop55
280
     0
102
RTVSPost2010PropOp55
 70
     1
102
RTVSPost2010Prop56
140
1.0
102
RTVSPost2010PropOp56
 70
     1
102
RTVSPost2010Prop57
140
1.0
102
RTVSPost2010PropOp57
 70
     1
  0
XRECORD
  5
244
102
{ACAD_REACTORS
330
243
102
}
330
243
100
AcDbXrecord
280
     1
102
RTVSPropertyOp0
 70
     1
102
RTVSPropertyOp1
 70
     1
102
RTVSPropertyOp2
 70
     1
102
RTVSPropertyOp3
 70
     1
102
RTVSPropertyOp4
 70
     1
102
RTVSPropertyOp5
 70
     1
102
RTVSPropertyOp6
 70
     1
102
RTVSPropertyOp7
 70
     1
102
RTVSPropertyOp8
 70
     1
102
RTVSPropertyOp9
 70
     1
102
RTVSPropertyOp10
 70
     1
102
RTVSPropertyOp11
 70
     1
102
RTVSPropertyOp12
 70
     1
102
RTVSPropertyOp13
 70
     1
102
RTVSPropertyOp14
 70
     1
102
RTVSPropertyOp15
 70
     1
102
RTVSPropertyOp16
 70
     1
102
RTVSPropertyOp17
 70
     1
102
RTVSPropertyOp18
 70
     1
102
RTVSPropertyOp19
 70
     1
102
RTVSPropertyOp20
 70
     1
102
RTVSPropertyOp21
 70
     1
102
RTVSPropertyOp22
 70
     1
102
RTVSPropertyOp23
 70
     1
102
RTVSPropertyOp24
 70
     1
102
RTVSPropertyOp25
 70
     1
102
RTVSPropertyOp26
 70
     1
102
RTVSPropertyOp27
 70
     1
102
RTVSPropertyOp28
 70
     1
102
RTVSPropertyOp29
 70
     1
102
RTVSPropertyOp30
 70
     1
102
RTVSPropertyOp31
 70
     1
102
RTVSPropertyOp32
 70
     1
102
RTVSPropertyOp33
 70
     1
102
RTVSPropertyOp34
 70
     1
102
RTVSPropertyOp35
 70
     1
102
RTVSPropertyOp36
 70
     1
102
RTVSPropertyOp37
 70
     1
102
RTVSPropertyOp38
 70
     1
102
RTVSPropertyOp39
 70
     1
102
RTVSPropertyOp40
 70
     1
102
RTVSPropertyOp41
 70
     1
102
RTVSPropertyOp42
 70
     1
102
RTVSPropertyOp43
 70
     1
102
RTVSPropertyOp44
 70
     1
102
RTVSPropertyOp45
 70
     1
102
RTVSPropertyOp46
 70
     1
102
RTVSPropertyOp47
 70
     1
102
RTVSPropertyOp48
 70
     1
102
RTVSPropertyOp49
 70
     1
102
RTVSPropertyOp50
 70
     1
102
RTVSPropertyOp51
 70
     0
102
RTVSPropertyOp52
 70
     0
102
RTVSPropertyOp53
 70
     1
102
RTVSPropertyOp54
 70
     1
102
RTVSPropertyOp55
 70
     1
102
RTVSPropertyOp56
 70
     1
102
RTVSPropertyOp57
 70
     1
102
RTVSPost2010Prop28
280
     0
102
RTVSPost2010PropOp28
 70
     1
102
RTVSPost2010Prop29
280
     1
102
RTVSPost2010PropOp29
 70
     1
102
RTVSPost2010Prop30
280
     1
102
RTVSPost2010PropOp30
 70
     1
102
RTVSPost2010Prop31
280
     0
102
RTVSPost2010PropOp31
 70
     1
102
RTVSPost2010Prop32
280
     0
102
RTVSPost2010PropOp32
 70
     1
102
RTVSPost2010Prop33
280
     0
102
RTVSPost2010PropOp33
 70
     1
102
RTVSPost2010Prop34
280
     0
102
RTVSPost2010PropOp34
 70
     1
102
RTVSPost2010Prop35
280
     0
102
RTVSPost2010PropOp35
 70
     1
102
RTVSPost2010Prop36
280
     0
102
RTVSPost2010PropOp36
 70
     1
102
RTVSPost2010Prop37
 90
       50
102
RTVSPost2010PropOp37
 70
     1
102
RTVSPost2010Prop38
140
0.0
102
RTVSPost2010PropOp38
 70
     1
102
RTVSPost2010Prop39
140
1.0
102
RTVSPost2010PropOp39
 70
     1
102
RTVSPost2010Prop40
 90
        0
102
RTVSPost2010PropOp40
 70
     1
102
RTVSPost2010Prop41ColorIndex
 90
       18
102
RTVSPost2010Prop41ColorRGB
 90
        0
102
RTVSPost2010PropOp41
 70
     1
102
RTVSPost2010Prop42
 90
       50
102
RTVSPost2010PropOp42
 70
     1
102
RTVSPost2010Prop43
 90
        3
102
RTVSPost2010PropOp43
 70
     1
102
RTVSPost2010Prop44ColorIndex
 90
        5
102
RTVSPost2010Prop44ColorRGB
 90
      255
102
RTVSPost2010PropOp44
 70
     1
102
RTVSPost2010Prop45
280
     0
102
RTVSPost2010PropOp45
 70
     1
102
RTVSPost2010Prop46
 90
       50
102
RTVSPost2010PropOp46
 70
     1
102
RTVSPost2010Prop47
 90
       50
102
RTVSPost2010PropOp47
 70
     1
102
RTVSPost2010Prop48
 90
       50
102
RTVSPost2010PropOp48
 70
     1
102
RTVSPost2010Prop49
280
     0
102
RTVSPost2010PropOp49
 70
     1
102
RTVSPost2010Prop50
 90
       50
102
RTVSPost2010PropOp50
 70
     1
102
RTVSPost2010Prop51ColorIndex
 90
      256
102
RTVSPost2010Prop51ColorRGB
 90
-16777216
102
RTVSPost2010PropOp51
 70
     0
102
RTVSPost2010Prop52
140
1.0
102
RTVSPost2010PropOp52
 70
     0
102
RTVSPost2010Prop53
 90
        2
102
RTVSPost2010PropOp53
 70
     1
102
RTVSPost2010Prop54
  1
strokes_ogs.tif
102
RTVSPost2010PropOp54
 70
     1
102
RTVSPost2010Prop55
280
     0
102
RTVSPost2010PropOp55
 70
     1
102
RTVSPost2010Prop56
140
1.0
102
RTVSPost2010PropOp56
 70
     1
102
RTVSPost2010Prop57
140
1.0
102
RTVSPost2010PropOp57
 70
     1
  0
XRECORD
  5
258
102
{ACAD_REACTORS
330
257
102
}
330
257
100
AcDbXrecord
280
     1
102
RTVSPropertyOp0
 70
     0
102
RTVSPropertyOp1
 70
     0
102
RTVSPropertyOp2
 70
     0
102
RTVSPropertyOp3
 70
     0
102
RTVSPropertyOp4
 70
     0
102
RTVSPropertyOp5
 70
     0
102
RTVSPropertyOp6
 70
     0
102
RTVSPropertyOp7
 70
     0
102
RTVSPropertyOp8
 70
     0
102
RTVSPropertyOp9
 70
     0
102
RTVSPropertyOp10
 70
     0
102
RTVSPropertyOp11
 70
     0
102
RTVSPropertyOp12
 70
     0
102
RTVSPropertyOp13
 70
     0
102
RTVSPropertyOp14
 70
     2
102
RTVSPropertyOp15
 70
     0
102
RTVSPropertyOp16
 70
     0
102
RTVSPropertyOp17
 70
     0
102
RTVSPropertyOp18
 70
     0
102
RTVSPropertyOp19
 70
     0
102
RTVSPropertyOp20
 70
     0
102
RTVSPropertyOp21
 70
     0
102
RTVSPropertyOp22
 70
     0
102
RTVSPropertyOp23
 70
     0
102
RTVSPropertyOp24
 70
     0
102
RTVSPropertyOp25
 70
     0
102
RTVSPropertyOp26
 70
     0
102
RTVSPropertyOp27
 70
     0
102
RTVSPropertyOp28
 70
     0
102
RTVSPropertyOp29
 70
     0
102
RTVSPropertyOp30
 70
     0
102
RTVSPropertyOp31
 70
     0
102
RTVSPropertyOp32
 70
     0
102
RTVSPropertyOp33
 70
     0
102
RTVSPropertyOp34
 70
     0
102
RTVSPropertyOp35
 70
     0
102
RTVSPropertyOp36
 70
     0
102
RTVSPropertyOp37
 70
     0
102
RTVSPropertyOp38
 70
     0
102
RTVSPropertyOp39
 70
     0
102
RTVSPropertyOp40
 70
     0
102
RTVSPropertyOp41
 70
     0
102
RTVSPropertyOp42
 70
     0
102
RTVSPropertyOp43
 70
     0
102
RTVSPropertyOp44
 70
     0
102
RTVSPropertyOp45
 70
     0
102
RTVSPropertyOp46
 70
     0
102
RTVSPropertyOp47
 70
     0
102
RTVSPropertyOp48
 70
     0
102
RTVSPropertyOp49
 70
     0
102
RTVSPropertyOp50
 70
     0
102
RTVSPropertyOp51
 70
     0
102
RTVSPropertyOp52
 70
     0
102
RTVSPropertyOp53
 70
     0
102
RTVSPropertyOp54
 70
     0
102
RTVSPropertyOp55
 70
     0
102
RTVSPropertyOp56
 70
     0
102
RTVSPropertyOp57
 70
     0
102
RTVSPost2010Prop28
280
     0
102
RTVSPost2010PropOp28
 70
     0
102
RTVSPost2010Prop29
280
     1
102
RTVSPost2010PropOp29
 70
     0
102
RTVSPost2010Prop30
280
     1
102
RTVSPost2010PropOp30
 70
     0
102
RTVSPost2010Prop31
280
     0
102
RTVSPost2010PropOp31
 70
     0
102
RTVSPost2010Prop32
280
     0
102
RTVSPost2010PropOp32
 70
     0
102
RTVSPost2010Prop33
280
     0
102
RTVSPost2010PropOp33
 70
     0
102
RTVSPost2010Prop34
280
     0
102
RTVSPost2010PropOp34
 70
     0
102
RTVSPost2010Prop35
280
     0
102
RTVSPost2010PropOp35
 70
     0
102
RTVSPost2010Prop36
280
     0
102
RTVSPost2010PropOp36
 70
     0
102
RTVSPost2010Prop37
 90
       50
102
RTVSPost2010PropOp37
 70
     0
102
RTVSPost2010Prop38
140
0.0
102
RTVSPost2010PropOp38
 70
     0
102
RTVSPost2010Prop39
140
1.0
102
RTVSPost2010PropOp39
 70
     0
102
RTVSPost2010Prop40
 90
        0
102
RTVSPost2010PropOp40
 70
     0
102
RTVSPost2010Prop41ColorIndex
 90
       18
102
RTVSPost2010Prop41ColorRGB
 90
        0
102
RTVSPost2010PropOp41
 70
     0
102
RTVSPost2010Prop42
 90
       50
102
RTVSPost2010PropOp42
 70
     0
102
RTVSPost2010Prop43
 90
        3
102
RTVSPost2010PropOp43
 70
     0
102
RTVSPost2010Prop44ColorIndex
 90
        5
102
RTVSPost2010Prop44ColorRGB
 90
      255
102
RTVSPost2010PropOp44
 70
     0
102
RTVSPost2010Prop45
280
     0
102
RTVSPost2010PropOp45
 70
     0
102
RTVSPost2010Prop46
 90
       50
102
RTVSPost2010PropOp46
 70
     0
102
RTVSPost2010Prop47
 90
       50
102
RTVSPost2010PropOp47
 70
     0
102
RTVSPost2010Prop48
 90
       50
102
RTVSPost2010PropOp48
 70
     0
102
RTVSPost2010Prop49
280
     0
102
RTVSPost2010PropOp49
 70
     0
102
RTVSPost2010Prop50
 90
       50
102
RTVSPost2010PropOp50
 70
     0
102
RTVSPost2010Prop51ColorIndex
 90
      256
102
RTVSPost2010Prop51ColorRGB
 90
-16777216
102
RTVSPost2010PropOp51
 70
     0
102
RTVSPost2010Prop52
140
1.0
102
RTVSPost2010PropOp52
 70
     0
102
RTVSPost2010Prop53
 90
        2
102
RTVSPost2010PropOp53
 70
     0
102
RTVSPost2010Prop54
  1
strokes_ogs.tif
102
RTVSPost2010PropOp54
 70
     0
102
RTVSPost2010Prop55
280
     0
102
RTVSPost2010PropOp55
 70
     0
102
RTVSPost2010Prop56
140
1.0
102
RTVSPost2010PropOp56
 70
     0
102
RTVSPost2010Prop57
140
1.0
102
RTVSPost2010PropOp57
 70
     0
  0
XRECORD
  5
252
102
{ACAD_REACTORS
330
251
102
}
330
251
100
AcDbXrecord
280
     1
102
RTVSPropertyOp0
 70
     1
102
RTVSPropertyOp1
 70
     1
102
RTVSPropertyOp2
 70
     1
102
RTVSPropertyOp3
 70
     1
102
RTVSPropertyOp4
 70
     1
102
RTVSPropertyOp5
 70
     1
102
RTVSPropertyOp6
 70
     1
102
RTVSPropertyOp7
 70
     1
102
RTVSPropertyOp8
 70
     1
102
RTVSPropertyOp9
 70
     1
102
RTVSPropertyOp10
 70
     1
102
RTVSPropertyOp11
 70
     1
102
RTVSPropertyOp12
 70
     1
102
RTVSPropertyOp13
 70
     1
102
RTVSPropertyOp14
 70
     1
102
RTVSPropertyOp15
 70
     1
102
RTVSPropertyOp16
 70
     1
102
RTVSPropertyOp17
 70
     1
102
RTVSPropertyOp18
 70
     1
102
RTVSPropertyOp19
 70
     1
102
RTVSPropertyOp20
 70
     1
102
RTVSPropertyOp21
 70
     1
102
RTVSPropertyOp22
 70
     1
102
RTVSPropertyOp23
 70
     1
102
RTVSPropertyOp24
 70
     1
102
RTVSPropertyOp25
 70
     1
102
RTVSPropertyOp26
 70
     1
102
RTVSPropertyOp27
 70
     1
102
RTVSPropertyOp28
 70
     1
102
RTVSPropertyOp29
 70
     1
102
RTVSPropertyOp30
 70
     1
102
RTVSPropertyOp31
 70
     1
102
RTVSPropertyOp32
 70
     1
102
RTVSPropertyOp33
 70
     1
102
RTVSPropertyOp34
 70
     1
102
RTVSPropertyOp35
 70
     1
102
RTVSPropertyOp36
 70
     1
102
RTVSPropertyOp37
 70
     1
102
RTVSPropertyOp38
 70
     1
102
RTVSPropertyOp39
 70
     1
102
RTVSPropertyOp40
 70
     1
102
RTVSPropertyOp41
 70
     1
102
RTVSPropertyOp42
 70
     1
102
RTVSPropertyOp43
 70
     1
102
RTVSPropertyOp44
 70
     1
102
RTVSPropertyOp45
 70
     1
102
RTVSPropertyOp46
 70
     1
102
RTVSPropertyOp47
 70
     1
102
RTVSPropertyOp48
 70
     1
102
RTVSPropertyOp49
 70
     1
102
RTVSPropertyOp50
 70
     1
102
RTVSPropertyOp51
 70
     0
102
RTVSPropertyOp52
 70
     0
102
RTVSPropertyOp53
 70
     1
102
RTVSPropertyOp54
 70
     1
102
RTVSPropertyOp55
 70
     1
102
RTVSPropertyOp56
 70
     1
102
RTVSPropertyOp57
 70
     1
102
RTVSPost2010Prop28
280
     0
102
RTVSPost2010PropOp28
 70
     1
102
RTVSPost2010Prop29
280
     1
102
RTVSPost2010PropOp29
 70
     1
102
RTVSPost2010Prop30
280
     1
102
RTVSPost2010PropOp30
 70
     1
102
RTVSPost2010Prop31
280
     0
102
RTVSPost2010PropOp31
 70
     1
102
RTVSPost2010Prop32
280
     0
102
RTVSPost2010PropOp32
 70
     1
102
RTVSPost2010Prop33
280
     0
102
RTVSPost2010PropOp33
 70
     1
102
RTVSPost2010Prop34
280
     0
102
RTVSPost2010PropOp34
 70
     1
102
RTVSPost2010Prop35
280
     0
102
RTVSPost2010PropOp35
 70
     1
102
RTVSPost2010Prop36
280
     0
102
RTVSPost2010PropOp36
 70
     1
102
RTVSPost2010Prop37
 90
       50
102
RTVSPost2010PropOp37
 70
     1
102
RTVSPost2010Prop38
140
0.0
102
RTVSPost2010PropOp38
 70
     1
102
RTVSPost2010Prop39
140
1.0
102
RTVSPost2010PropOp39
 70
     1
102
RTVSPost2010Prop40
 90
        0
102
RTVSPost2010PropOp40
 70
     1
102
RTVSPost2010Prop41ColorIndex
 90
       18
102
RTVSPost2010Prop41ColorRGB
 90
        0
102
RTVSPost2010PropOp41
 70
     1
102
RTVSPost2010Prop42
 90
       50
102
RTVSPost2010PropOp42
 70
     1
102
RTVSPost2010Prop43
 90
        3
102
RTVSPost2010PropOp43
 70
     1
102
RTVSPost2010Prop44ColorIndex
 90
        5
102
RTVSPost2010Prop44ColorRGB
 90
      255
102
RTVSPost2010PropOp44
 70
     1
102
RTVSPost2010Prop45
280
     0
102
RTVSPost2010PropOp45
 70
     1
102
RTVSPost2010Prop46
 90
       50
102
RTVSPost2010PropOp46
 70
     1
102
RTVSPost2010Prop47
 90
       50
102
RTVSPost2010PropOp47
 70
     1
102
RTVSPost2010Prop48
 90
       50
102
RTVSPost2010PropOp48
 70
     1
102
RTVSPost2010Prop49
280
     0
102
RTVSPost2010PropOp49
 70
     1
102
RTVSPost2010Prop50
 90
       50
102
RTVSPost2010PropOp50
 70
     1
102
RTVSPost2010Prop51ColorIndex
 90
      256
102
RTVSPost2010Prop51ColorRGB
 90
-16777216
102
RTVSPost2010PropOp51
 70
     0
102
RTVSPost2010Prop52
140
1.0
102
RTVSPost2010PropOp52
 70
     0
102
RTVSPost2010Prop53
 90
        2
102
RTVSPost2010PropOp53
 70
     1
102
RTVSPost2010Prop54
  1
strokes_ogs.tif
102
RTVSPost2010PropOp54
 70
     1
102
RTVSPost2010Prop55
280
     0
102
RTVSPost2010PropOp55
 70
     1
102
RTVSPost2010Prop56
140
1.0
102
RTVSPost2010PropOp56
 70
     1
102
RTVSPost2010Prop57
140
1.0
102
RTVSPost2010PropOp57
 70
     1
  0
XRECORD
  5
25A
102
{ACAD_REACTORS
330
259
102
}
330
259
100
AcDbXrecord
280
     1
102
RTVSPropertyOp0
 70
     0
102
RTVSPropertyOp1
 70
     0
102
RTVSPropertyOp2
 70
     0
102
RTVSPropertyOp3
 70
     0
102
RTVSPropertyOp4
 70
     0
102
RTVSPropertyOp5
 70
     0
102
RTVSPropertyOp6
 70
     0
102
RTVSPropertyOp7
 70
     0
102
RTVSPropertyOp8
 70
     0
102
RTVSPropertyOp9
 70
     0
102
RTVSPropertyOp10
 70
     0
102
RTVSPropertyOp11
 70
     0
102
RTVSPropertyOp12
 70
     0
102
RTVSPropertyOp13
 70
     0
102
RTVSPropertyOp14
 70
     2
102
RTVSPropertyOp15
 70
     0
102
RTVSPropertyOp16
 70
     0
102
RTVSPropertyOp17
 70
     0
102
RTVSPropertyOp18
 70
     0
102
RTVSPropertyOp19
 70
     0
102
RTVSPropertyOp20
 70
     0
102
RTVSPropertyOp21
 70
     0
102
RTVSPropertyOp22
 70
     0
102
RTVSPropertyOp23
 70
     0
102
RTVSPropertyOp24
 70
     0
102
RTVSPropertyOp25
 70
     0
102
RTVSPropertyOp26
 70
     0
102
RTVSPropertyOp27
 70
     0
102
RTVSPropertyOp28
 70
     0
102
RTVSPropertyOp29
 70
     0
102
RTVSPropertyOp30
 70
     0
102
RTVSPropertyOp31
 70
     0
102
RTVSPropertyOp32
 70
     0
102
RTVSPropertyOp33
 70
     0
102
RTVSPropertyOp34
 70
     0
102
RTVSPropertyOp35
 70
     0
102
RTVSPropertyOp36
 70
     0
102
RTVSPropertyOp37
 70
     0
102
RTVSPropertyOp38
 70
     0
102
RTVSPropertyOp39
 70
     0
102
RTVSPropertyOp40
 70
     0
102
RTVSPropertyOp41
 70
     0
102
RTVSPropertyOp42
 70
     0
102
RTVSPropertyOp43
 70
     0
102
RTVSPropertyOp44
 70
     0
102
RTVSPropertyOp45
 70
     0
102
RTVSPropertyOp46
 70
     0
102
RTVSPropertyOp47
 70
     0
102
RTVSPropertyOp48
 70
     0
102
RTVSPropertyOp49
 70
     0
102
RTVSPropertyOp50
 70
     0
102
RTVSPropertyOp51
 70
     0
102
RTVSPropertyOp52
 70
     0
102
RTVSPropertyOp53
 70
     0
102
RTVSPropertyOp54
 70
     0
102
RTVSPropertyOp55
 70
     0
102
RTVSPropertyOp56
 70
     0
102
RTVSPropertyOp57
 70
     0
102
RTVSPost2010Prop28
280
     0
102
RTVSPost2010PropOp28
 70
     0
102
RTVSPost2010Prop29
280
     1
102
RTVSPost2010PropOp29
 70
     0
102
RTVSPost2010Prop30
280
     1
102
RTVSPost2010PropOp30
 70
     0
102
RTVSPost2010Prop31
280
     0
102
RTVSPost2010PropOp31
 70
     0
102
RTVSPost2010Prop32
280
     0
102
RTVSPost2010PropOp32
 70
     0
102
RTVSPost2010Prop33
280
     0
102
RTVSPost2010PropOp33
 70
     0
102
RTVSPost2010Prop34
280
     0
102
RTVSPost2010PropOp34
 70
     0
102
RTVSPost2010Prop35
280
     0
102
RTVSPost2010PropOp35
 70
     0
102
RTVSPost2010Prop36
280
     0
102
RTVSPost2010PropOp36
 70
     0
102
RTVSPost2010Prop37
 90
       50
102
RTVSPost2010PropOp37
 70
     0
102
RTVSPost2010Prop38
140
0.0
102
RTVSPost2010PropOp38
 70
     0
102
RTVSPost2010Prop39
140
1.0
102
RTVSPost2010PropOp39
 70
     0
102
RTVSPost2010Prop40
 90
        0
102
RTVSPost2010PropOp40
 70
     0
102
RTVSPost2010Prop41ColorIndex
 90
       18
102
RTVSPost2010Prop41ColorRGB
 90
        0
102
RTVSPost2010PropOp41
 70
     0
102
RTVSPost2010Prop42
 90
       50
102
RTVSPost2010PropOp42
 70
     0
102
RTVSPost2010Prop43
 90
        3
102
RTVSPost2010PropOp43
 70
     0
102
RTVSPost2010Prop44ColorIndex
 90
        5
102
RTVSPost2010Prop44ColorRGB
 90
      255
102
RTVSPost2010PropOp44
 70
     0
102
RTVSPost2010Prop45
280
     0
102
RTVSPost2010PropOp45
 70
     0
102
RTVSPost2010Prop46
 90
       50
102
RTVSPost2010PropOp46
 70
     0
102
RTVSPost2010Prop47
 90
       50
102
RTVSPost2010PropOp47
 70
     0
102
RTVSPost2010Prop48
 90
       50
102
RTVSPost2010PropOp48
 70
     0
102
RTVSPost2010Prop49
280
     0
102
RTVSPost2010PropOp49
 70
     0
102
RTVSPost2010Prop50
 90
       50
102
RTVSPost2010PropOp50
 70
     0
102
RTVSPost2010Prop51ColorIndex
 90
      256
102
RTVSPost2010Prop51ColorRGB
 90
-16777216
102
RTVSPost2010PropOp51
 70
     0
102
RTVSPost2010Prop52
140
1.0
102
RTVSPost2010PropOp52
 70
     0
102
RTVSPost2010Prop53
 90
        2
102
RTVSPost2010PropOp53
 70
     0
102
RTVSPost2010Prop54
  1
strokes_ogs.tif
102
RTVSPost2010PropOp54
 70
     0
102
RTVSPost2010Prop55
280
     0
102
RTVSPost2010PropOp55
 70
     0
102
RTVSPost2010Prop56
140
1.0
102
RTVSPost2010PropOp56
 70
     0
102
RTVSPost2010Prop57
140
1.0
102
RTVSPost2010PropOp57
 70
     0
  0
XRECORD
  5
248
102
{ACAD_REACTORS
330
247
102
}
330
247
100
AcDbXrecord
280
     1
102
RTVSPropertyOp0
 70
     1
102
RTVSPropertyOp1
 70
     1
102
RTVSPropertyOp2
 70
     1
102
RTVSPropertyOp3
 70
     1
102
RTVSPropertyOp4
 70
     1
102
RTVSPropertyOp5
 70
     1
102
RTVSPropertyOp6
 70
     1
102
RTVSPropertyOp7
 70
     1
102
RTVSPropertyOp8
 70
     1
102
RTVSPropertyOp9
 70
     1
102
RTVSPropertyOp10
 70
     1
102
RTVSPropertyOp11
 70
     1
102
RTVSPropertyOp12
 70
     1
102
RTVSPropertyOp13
 70
     1
102
RTVSPropertyOp14
 70
     1
102
RTVSPropertyOp15
 70
     1
102
RTVSPropertyOp16
 70
     1
102
RTVSPropertyOp17
 70
     1
102
RTVSPropertyOp18
 70
     1
102
RTVSPropertyOp19
 70
     1
102
RTVSPropertyOp20
 70
     1
102
RTVSPropertyOp21
 70
     1
102
RTVSPropertyOp22
 70
     1
102
RTVSPropertyOp23
 70
     1
102
RTVSPropertyOp24
 70
     1
102
RTVSPropertyOp25
 70
     1
102
RTVSPropertyOp26
 70
     1
102
RTVSPropertyOp27
 70
     1
102
RTVSPropertyOp28
 70
     1
102
RTVSPropertyOp29
 70
     1
102
RTVSPropertyOp30
 70
     1
102
RTVSPropertyOp31
 70
     1
102
RTVSPropertyOp32
 70
     1
102
RTVSPropertyOp33
 70
     1
102
RTVSPropertyOp34
 70
     1
102
RTVSPropertyOp35
 70
     1
102
RTVSPropertyOp36
 70
     1
102
RTVSPropertyOp37
 70
     1
102
RTVSPropertyOp38
 70
     1
102
RTVSPropertyOp39
 70
     1
102
RTVSPropertyOp40
 70
     1
102
RTVSPropertyOp41
 70
     1
102
RTVSPropertyOp42
 70
     1
102
RTVSPropertyOp43
 70
     1
102
RTVSPropertyOp44
 70
     1
102
RTVSPropertyOp45
 70
     1
102
RTVSPropertyOp46
 70
     1
102
RTVSPropertyOp47
 70
     1
102
RTVSPropertyOp48
 70
     1
102
RTVSPropertyOp49
 70
     1
102
RTVSPropertyOp50
 70
     1
102
RTVSPropertyOp51
 70
     0
102
RTVSPropertyOp52
 70
     0
102
RTVSPropertyOp53
 70
     1
102
RTVSPropertyOp54
 70
     1
102
RTVSPropertyOp55
 70
     1
102
RTVSPropertyOp56
 70
     1
102
RTVSPropertyOp57
 70
     1
102
RTVSPost2010Prop28
280
     0
102
RTVSPost2010PropOp28
 70
     1
102
RTVSPost2010Prop29
280
     1
102
RTVSPost2010PropOp29
 70
     1
102
RTVSPost2010Prop30
280
     1
102
RTVSPost2010PropOp30
 70
     1
102
RTVSPost2010Prop31
280
     0
102
RTVSPost2010PropOp31
 70
     1
102
RTVSPost2010Prop32
280
     0
102
RTVSPost2010PropOp32
 70
     1
102
RTVSPost2010Prop33
280
     0
102
RTVSPost2010PropOp33
 70
     1
102
RTVSPost2010Prop34
280
     0
102
RTVSPost2010PropOp34
 70
     1
102
RTVSPost2010Prop35
280
     0
102
RTVSPost2010PropOp35
 70
     1
102
RTVSPost2010Prop36
280
     0
102
RTVSPost2010PropOp36
 70
     1
102
RTVSPost2010Prop37
 90
       50
102
RTVSPost2010PropOp37
 70
     1
102
RTVSPost2010Prop38
140
0.0
102
RTVSPost2010PropOp38
 70
     1
102
RTVSPost2010Prop39
140
1.0
102
RTVSPost2010PropOp39
 70
     1
102
RTVSPost2010Prop40
 90
        0
102
RTVSPost2010PropOp40
 70
     1
102
RTVSPost2010Prop41ColorIndex
 90
       18
102
RTVSPost2010Prop41ColorRGB
 90
        0
102
RTVSPost2010PropOp41
 70
     1
102
RTVSPost2010Prop42
 90
       50
102
RTVSPost2010PropOp42
 70
     1
102
RTVSPost2010Prop43
 90
        3
102
RTVSPost2010PropOp43
 70
     1
102
RTVSPost2010Prop44ColorIndex
 90
        5
102
RTVSPost2010Prop44ColorRGB
 90
      255
102
RTVSPost2010PropOp44
 70
     1
102
RTVSPost2010Prop45
280
     0
102
RTVSPost2010PropOp45
 70
     1
102
RTVSPost2010Prop46
 90
       50
102
RTVSPost2010PropOp46
 70
     1
102
RTVSPost2010Prop47
 90
       50
102
RTVSPost2010PropOp47
 70
     1
102
RTVSPost2010Prop48
 90
       50
102
RTVSPost2010PropOp48
 70
     1
102
RTVSPost2010Prop49
280
     0
102
RTVSPost2010PropOp49
 70
     1
102
RTVSPost2010Prop50
 90
       50
102
RTVSPost2010PropOp50
 70
     1
102
RTVSPost2010Prop51ColorIndex
 90
      256
102
RTVSPost2010Prop51ColorRGB
 90
-16777216
102
RTVSPost2010PropOp51
 70
     0
102
RTVSPost2010Prop52
140
1.0
102
RTVSPost2010PropOp52
 70
     0
102
RTVSPost2010Prop53
 90
        2
102
RTVSPost2010PropOp53
 70
     1
102
RTVSPost2010Prop54
  1
strokes_ogs.tif
102
RTVSPost2010PropOp54
 70
     1
102
RTVSPost2010Prop55
280
     0
102
RTVSPost2010PropOp55
 70
     1
102
RTVSPost2010Prop56
140
1.0
102
RTVSPost2010PropOp56
 70
     1
102
RTVSPost2010Prop57
140
1.0
102
RTVSPost2010PropOp57
 70
     1
  0
XRECORD
  5
266
102
{ACAD_REACTORS
330
265
102
}
330
265
100
AcDbXrecord
280
     1
102
RTVSPropertyOp0
 70
     1
102
RTVSPropertyOp1
 70
     1
102
RTVSPropertyOp2
 70
     1
102
RTVSPropertyOp3
 70
     1
102
RTVSPropertyOp4
 70
     1
102
RTVSPropertyOp5
 70
     1
102
RTVSPropertyOp6
 70
     1
102
RTVSPropertyOp7
 70
     1
102
RTVSPropertyOp8
 70
     1
102
RTVSPropertyOp9
 70
     1
102
RTVSPropertyOp10
 70
     1
102
RTVSPropertyOp11
 70
     1
102
RTVSPropertyOp12
 70
     1
102
RTVSPropertyOp13
 70
     1
102
RTVSPropertyOp14
 70
     1
102
RTVSPropertyOp15
 70
     1
102
RTVSPropertyOp16
 70
     1
102
RTVSPropertyOp17
 70
     1
102
RTVSPropertyOp18
 70
     1
102
RTVSPropertyOp19
 70
     1
102
RTVSPropertyOp20
 70
     1
102
RTVSPropertyOp21
 70
     1
102
RTVSPropertyOp22
 70
     1
102
RTVSPropertyOp23
 70
     1
102
RTVSPropertyOp24
 70
     1
102
RTVSPropertyOp25
 70
     1
102
RTVSPropertyOp26
 70
     1
102
RTVSPropertyOp27
 70
     1
102
RTVSPropertyOp28
 70
     1
102
RTVSPropertyOp29
 70
     1
102
RTVSPropertyOp30
 70
     1
102
RTVSPropertyOp31
 70
     1
102
RTVSPropertyOp32
 70
     1
102
RTVSPropertyOp33
 70
     1
102
RTVSPropertyOp34
 70
     1
102
RTVSPropertyOp35
 70
     1
102
RTVSPropertyOp36
 70
     1
102
RTVSPropertyOp37
 70
     1
102
RTVSPropertyOp38
 70
     1
102
RTVSPropertyOp39
 70
     1
102
RTVSPropertyOp40
 70
     1
102
RTVSPropertyOp41
 70
     1
102
RTVSPropertyOp42
 70
     1
102
RTVSPropertyOp43
 70
     1
102
RTVSPropertyOp44
 70
     1
102
RTVSPropertyOp45
 70
     1
102
RTVSPropertyOp46
 70
     1
102
RTVSPropertyOp47
 70
     1
102
RTVSPropertyOp48
 70
     1
102
RTVSPropertyOp49
 70
     1
102
RTVSPropertyOp50
 70
     1
102
RTVSPropertyOp51
 70
     0
102
RTVSPropertyOp52
 70
     0
102
RTVSPropertyOp53
 70
     1
102
RTVSPropertyOp54
 70
     1
102
RTVSPropertyOp55
 70
     1
102
RTVSPropertyOp56
 70
     1
102
RTVSPropertyOp57
 70
     1
102
RTVSPost2010Prop28
280
     0
102
RTVSPost2010PropOp28
 70
     1
102
RTVSPost2010Prop29
280
     1
102
RTVSPost2010PropOp29
 70
     1
102
RTVSPost2010Prop30
280
     1
102
RTVSPost2010PropOp30
 70
     1
102
RTVSPost2010Prop31
280
     0
102
RTVSPost2010PropOp31
 70
     1
102
RTVSPost2010Prop32
280
     0
102
RTVSPost2010PropOp32
 70
     1
102
RTVSPost2010Prop33
280
     0
102
RTVSPost2010PropOp33
 70
     1
102
RTVSPost2010Prop34
280
     0
102
RTVSPost2010PropOp34
 70
     1
102
RTVSPost2010Prop35
280
     0
102
RTVSPost2010PropOp35
 70
     1
102
RTVSPost2010Prop36
280
     0
102
RTVSPost2010PropOp36
 70
     1
102
RTVSPost2010Prop37
 90
       50
102
RTVSPost2010PropOp37
 70
     1
102
RTVSPost2010Prop38
140
0.0
102
RTVSPost2010PropOp38
 70
     1
102
RTVSPost2010Prop39
140
1.0
102
RTVSPost2010PropOp39
 70
     1
102
RTVSPost2010Prop40
 90
        0
102
RTVSPost2010PropOp40
 70
     1
102
RTVSPost2010Prop41ColorIndex
 90
       18
102
RTVSPost2010Prop41ColorRGB
 90
        0
102
RTVSPost2010PropOp41
 70
     1
102
RTVSPost2010Prop42
 90
       50
102
RTVSPost2010PropOp42
 70
     1
102
RTVSPost2010Prop43
 90
        3
102
RTVSPost2010PropOp43
 70
     1
102
RTVSPost2010Prop44ColorIndex
 90
        5
102
RTVSPost2010Prop44ColorRGB
 90
      255
102
RTVSPost2010PropOp44
 70
     1
102
RTVSPost2010Prop45
280
     0
102
RTVSPost2010PropOp45
 70
     1
102
RTVSPost2010Prop46
 90
       50
102
RTVSPost2010PropOp46
 70
     1
102
RTVSPost2010Prop47
 90
       50
102
RTVSPost2010PropOp47
 70
     1
102
RTVSPost2010Prop48
 90
       50
102
RTVSPost2010PropOp48
 70
     1
102
RTVSPost2010Prop49
280
     0
102
RTVSPost2010PropOp49
 70
     1
102
RTVSPost2010Prop50
 90
       50
102
RTVSPost2010PropOp50
 70
     1
102
RTVSPost2010Prop51ColorIndex
 90
      256
102
RTVSPost2010Prop51ColorRGB
 90
-16777216
102
RTVSPost2010PropOp51
 70
     0
102
RTVSPost2010Prop52
140
1.0
102
RTVSPost2010PropOp52
 70
     0
102
RTVSPost2010Prop53
 90
        2
102
RTVSPost2010PropOp53
 70
     1
102
RTVSPost2010Prop54
  1
strokes_ogs.tif
102
RTVSPost2010PropOp54
 70
     1
102
RTVSPost2010Prop55
280
     0
102
RTVSPost2010PropOp55
 70
     1
102
RTVSPost2010Prop56
140
1.0
102
RTVSPost2010PropOp56
 70
     1
102
RTVSPost2010Prop57
140
1.0
102
RTVSPost2010PropOp57
 70
     1
  0
XRECORD
  5
264
102
{ACAD_REACTORS
330
263
102
}
330
263
100
AcDbXrecord
280
     1
102
RTVSPropertyOp0
 70
     1
102
RTVSPropertyOp1
 70
     1
102
RTVSPropertyOp2
 70
     1
102
RTVSPropertyOp3
 70
     1
102
RTVSPropertyOp4
 70
     1
102
RTVSPropertyOp5
 70
     1
102
RTVSPropertyOp6
 70
     1
102
RTVSPropertyOp7
 70
     1
102
RTVSPropertyOp8
 70
     1
102
RTVSPropertyOp9
 70
     1
102
RTVSPropertyOp10
 70
     1
102
RTVSPropertyOp11
 70
     1
102
RTVSPropertyOp12
 70
     1
102
RTVSPropertyOp13
 70
     1
102
RTVSPropertyOp14
 70
     1
102
RTVSPropertyOp15
 70
     1
102
RTVSPropertyOp16
 70
     1
102
RTVSPropertyOp17
 70
     1
102
RTVSPropertyOp18
 70
     1
102
RTVSPropertyOp19
 70
     1
102
RTVSPropertyOp20
 70
     1
102
RTVSPropertyOp21
 70
     1
102
RTVSPropertyOp22
 70
     1
102
RTVSPropertyOp23
 70
     1
102
RTVSPropertyOp24
 70
     1
102
RTVSPropertyOp25
 70
     1
102
RTVSPropertyOp26
 70
     1
102
RTVSPropertyOp27
 70
     1
102
RTVSPropertyOp28
 70
     1
102
RTVSPropertyOp29
 70
     1
102
RTVSPropertyOp30
 70
     1
102
RTVSPropertyOp31
 70
     1
102
RTVSPropertyOp32
 70
     1
102
RTVSPropertyOp33
 70
     1
102
RTVSPropertyOp34
 70
     1
102
RTVSPropertyOp35
 70
     1
102
RTVSPropertyOp36
 70
     1
102
RTVSPropertyOp37
 70
     1
102
RTVSPropertyOp38
 70
     1
102
RTVSPropertyOp39
 70
     1
102
RTVSPropertyOp40
 70
     1
102
RTVSPropertyOp41
 70
     1
102
RTVSPropertyOp42
 70
     1
102
RTVSPropertyOp43
 70
     1
102
RTVSPropertyOp44
 70
     1
102
RTVSPropertyOp45
 70
     1
102
RTVSPropertyOp46
 70
     1
102
RTVSPropertyOp47
 70
     1
102
RTVSPropertyOp48
 70
     1
102
RTVSPropertyOp49
 70
     1
102
RTVSPropertyOp50
 70
     1
102
RTVSPropertyOp51
 70
     0
102
RTVSPropertyOp52
 70
     0
102
RTVSPropertyOp53
 70
     1
102
RTVSPropertyOp54
 70
     1
102
RTVSPropertyOp55
 70
     1
102
RTVSPropertyOp56
 70
     1
102
RTVSPropertyOp57
 70
     1
102
RTVSPost2010Prop28
280
     0
102
RTVSPost2010PropOp28
 70
     1
102
RTVSPost2010Prop29
280
     1
102
RTVSPost2010PropOp29
 70
     1
102
RTVSPost2010Prop30
280
     1
102
RTVSPost2010PropOp30
 70
     1
102
RTVSPost2010Prop31
280
     0
102
RTVSPost2010PropOp31
 70
     1
102
RTVSPost2010Prop32
280
     0
102
RTVSPost2010PropOp32
 70
     1
102
RTVSPost2010Prop33
280
     0
102
RTVSPost2010PropOp33
 70
     1
102
RTVSPost2010Prop34
280
     0
102
RTVSPost2010PropOp34
 70
     1
102
RTVSPost2010Prop35
280
     0
102
RTVSPost2010PropOp35
 70
     1
102
RTVSPost2010Prop36
280
     0
102
RTVSPost2010PropOp36
 70
     1
102
RTVSPost2010Prop37
 90
       50
102
RTVSPost2010PropOp37
 70
     1
102
RTVSPost2010Prop38
140
0.0
102
RTVSPost2010PropOp38
 70
     1
102
RTVSPost2010Prop39
140
1.0
102
RTVSPost2010PropOp39
 70
     1
102
RTVSPost2010Prop40
 90
        0
102
RTVSPost2010PropOp40
 70
     1
102
RTVSPost2010Prop41ColorIndex
 90
       18
102
RTVSPost2010Prop41ColorRGB
 90
        0
102
RTVSPost2010PropOp41
 70
     1
102
RTVSPost2010Prop42
 90
       50
102
RTVSPost2010PropOp42
 70
     1
102
RTVSPost2010Prop43
 90
        3
102
RTVSPost2010PropOp43
 70
     1
102
RTVSPost2010Prop44ColorIndex
 90
        5
102
RTVSPost2010Prop44ColorRGB
 90
      255
102
RTVSPost2010PropOp44
 70
     1
102
RTVSPost2010Prop45
280
     0
102
RTVSPost2010PropOp45
 70
     1
102
RTVSPost2010Prop46
 90
       50
102
RTVSPost2010PropOp46
 70
     1
102
RTVSPost2010Prop47
 90
       50
102
RTVSPost2010PropOp47
 70
     1
102
RTVSPost2010Prop48
 90
       50
102
RTVSPost2010PropOp48
 70
     1
102
RTVSPost2010Prop49
280
     0
102
RTVSPost2010PropOp49
 70
     1
102
RTVSPost2010Prop50
 90
       50
102
RTVSPost2010PropOp50
 70
     1
102
RTVSPost2010Prop51ColorIndex
 90
      256
102
RTVSPost2010Prop51ColorRGB
 90
-16777216
102
RTVSPost2010PropOp51
 70
     0
102
RTVSPost2010Prop52
140
1.0
102
RTVSPost2010PropOp52
 70
     0
102
RTVSPost2010Prop53
 90
        2
102
RTVSPost2010PropOp53
 70
     1
102
RTVSPost2010Prop54
  1
strokes_ogs.tif
102
RTVSPost2010PropOp54
 70
     1
102
RTVSPost2010Prop55
280
     0
102
RTVSPost2010PropOp55
 70
     1
102
RTVSPost2010Prop56
140
1.0
102
RTVSPost2010PropOp56
 70
     1
102
RTVSPost2010Prop57
140
1.0
102
RTVSPost2010PropOp57
 70
     1
  0
XRECORD
  5
25E
102
{ACAD_REACTORS
330
25D
102
}
330
25D
100
AcDbXrecord
280
     1
102
RTVSPropertyOp0
 70
     1
102
RTVSPropertyOp1
 70
     1
102
RTVSPropertyOp2
 70
     1
102
RTVSPropertyOp3
 70
     1
102
RTVSPropertyOp4
 70
     1
102
RTVSPropertyOp5
 70
     1
102
RTVSPropertyOp6
 70
     1
102
RTVSPropertyOp7
 70
     1
102
RTVSPropertyOp8
 70
     1
102
RTVSPropertyOp9
 70
     1
102
RTVSPropertyOp10
 70
     1
102
RTVSPropertyOp11
 70
     1
102
RTVSPropertyOp12
 70
     1
102
RTVSPropertyOp13
 70
     1
102
RTVSPropertyOp14
 70
     1
102
RTVSPropertyOp15
 70
     1
102
RTVSPropertyOp16
 70
     1
102
RTVSPropertyOp17
 70
     1
102
RTVSPropertyOp18
 70
     1
102
RTVSPropertyOp19
 70
     1
102
RTVSPropertyOp20
 70
     1
102
RTVSPropertyOp21
 70
     1
102
RTVSPropertyOp22
 70
     1
102
RTVSPropertyOp23
 70
     1
102
RTVSPropertyOp24
 70
     1
102
RTVSPropertyOp25
 70
     1
102
RTVSPropertyOp26
 70
     1
102
RTVSPropertyOp27
 70
     1
102
RTVSPropertyOp28
 70
     1
102
RTVSPropertyOp29
 70
     1
102
RTVSPropertyOp30
 70
     1
102
RTVSPropertyOp31
 70
     1
102
RTVSPropertyOp32
 70
     1
102
RTVSPropertyOp33
 70
     1
102
RTVSPropertyOp34
 70
     1
102
RTVSPropertyOp35
 70
     1
102
RTVSPropertyOp36
 70
     1
102
RTVSPropertyOp37
 70
     1
102
RTVSPropertyOp38
 70
     1
102
RTVSPropertyOp39
 70
     1
102
RTVSPropertyOp40
 70
     1
102
RTVSPropertyOp41
 70
     1
102
RTVSPropertyOp42
 70
     1
102
RTVSPropertyOp43
 70
     1
102
RTVSPropertyOp44
 70
     1
102
RTVSPropertyOp45
 70
     1
102
RTVSPropertyOp46
 70
     1
102
RTVSPropertyOp47
 70
     1
102
RTVSPropertyOp48
 70
     1
102
RTVSPropertyOp49
 70
     1
102
RTVSPropertyOp50
 70
     1
102
RTVSPropertyOp51
 70
     0
102
RTVSPropertyOp52
 70
     0
102
RTVSPropertyOp53
 70
     1
102
RTVSPropertyOp54
 70
     1
102
RTVSPropertyOp55
 70
     1
102
RTVSPropertyOp56
 70
     1
102
RTVSPropertyOp57
 70
     1
102
RTVSPost2010Prop28
280
     0
102
RTVSPost2010PropOp28
 70
     1
102
RTVSPost2010Prop29
280
     1
102
RTVSPost2010PropOp29
 70
     1
102
RTVSPost2010Prop30
280
     1
102
RTVSPost2010PropOp30
 70
     1
102
RTVSPost2010Prop31
280
     0
102
RTVSPost2010PropOp31
 70
     1
102
RTVSPost2010Prop32
280
     0
102
RTVSPost2010PropOp32
 70
     1
102
RTVSPost2010Prop33
280
     0
102
RTVSPost2010PropOp33
 70
     1
102
RTVSPost2010Prop34
280
     0
102
RTVSPost2010PropOp34
 70
     1
102
RTVSPost2010Prop35
280
     0
102
RTVSPost2010PropOp35
 70
     1
102
RTVSPost2010Prop36
280
     0
102
RTVSPost2010PropOp36
 70
     1
102
RTVSPost2010Prop37
 90
       50
102
RTVSPost2010PropOp37
 70
     1
102
RTVSPost2010Prop38
140
0.0
102
RTVSPost2010PropOp38
 70
     1
102
RTVSPost2010Prop39
140
1.0
102
RTVSPost2010PropOp39
 70
     1
102
RTVSPost2010Prop40
 90
        0
102
RTVSPost2010PropOp40
 70
     1
102
RTVSPost2010Prop41ColorIndex
 90
       18
102
RTVSPost2010Prop41ColorRGB
 90
        0
102
RTVSPost2010PropOp41
 70
     1
102
RTVSPost2010Prop42
 90
       50
102
RTVSPost2010PropOp42
 70
     1
102
RTVSPost2010Prop43
 90
        3
102
RTVSPost2010PropOp43
 70
     1
102
RTVSPost2010Prop44ColorIndex
 90
        5
102
RTVSPost2010Prop44ColorRGB
 90
      255
102
RTVSPost2010PropOp44
 70
     1
102
RTVSPost2010Prop45
280
     0
102
RTVSPost2010PropOp45
 70
     1
102
RTVSPost2010Prop46
 90
       50
102
RTVSPost2010PropOp46
 70
     1
102
RTVSPost2010Prop47
 90
       50
102
RTVSPost2010PropOp47
 70
     1
102
RTVSPost2010Prop48
 90
       50
102
RTVSPost2010PropOp48
 70
     1
102
RTVSPost2010Prop49
280
     0
102
RTVSPost2010PropOp49
 70
     1
102
RTVSPost2010Prop50
 90
       50
102
RTVSPost2010PropOp50
 70
     1
102
RTVSPost2010Prop51ColorIndex
 90
      256
102
RTVSPost2010Prop51ColorRGB
 90
-16777216
102
RTVSPost2010PropOp51
 70
     0
102
RTVSPost2010Prop52
140
1.0
102
RTVSPost2010PropOp52
 70
     0
102
RTVSPost2010Prop53
 90
        2
102
RTVSPost2010PropOp53
 70
     1
102
RTVSPost2010Prop54
  1
strokes_ogs.tif
102
RTVSPost2010PropOp54
 70
     1
102
RTVSPost2010Prop55
280
     0
102
RTVSPost2010PropOp55
 70
     1
102
RTVSPost2010Prop56
140
1.0
102
RTVSPost2010PropOp56
 70
     1
102
RTVSPost2010Prop57
140
1.0
102
RTVSPost2010PropOp57
 70
     1
  0
XRECORD
  5
260
102
{ACAD_REACTORS
330
25F
102
}
330
25F
100
AcDbXrecord
280
     1
102
RTVSPropertyOp0
 70
     1
102
RTVSPropertyOp1
 70
     1
102
RTVSPropertyOp2
 70
     1
102
RTVSPropertyOp3
 70
     1
102
RTVSPropertyOp4
 70
     1
102
RTVSPropertyOp5
 70
     1
102
RTVSPropertyOp6
 70
     1
102
RTVSPropertyOp7
 70
     1
102
RTVSPropertyOp8
 70
     1
102
RTVSPropertyOp9
 70
     1
102
RTVSPropertyOp10
 70
     1
102
RTVSPropertyOp11
 70
     1
102
RTVSPropertyOp12
 70
     1
102
RTVSPropertyOp13
 70
     1
102
RTVSPropertyOp14
 70
     1
102
RTVSPropertyOp15
 70
     1
102
RTVSPropertyOp16
 70
     1
102
RTVSPropertyOp17
 70
     1
102
RTVSPropertyOp18
 70
     1
102
RTVSPropertyOp19
 70
     1
102
RTVSPropertyOp20
 70
     1
102
RTVSPropertyOp21
 70
     1
102
RTVSPropertyOp22
 70
     1
102
RTVSPropertyOp23
 70
     1
102
RTVSPropertyOp24
 70
     1
102
RTVSPropertyOp25
 70
     1
102
RTVSPropertyOp26
 70
     1
102
RTVSPropertyOp27
 70
     1
102
RTVSPropertyOp28
 70
     1
102
RTVSPropertyOp29
 70
     1
102
RTVSPropertyOp30
 70
     1
102
RTVSPropertyOp31
 70
     1
102
RTVSPropertyOp32
 70
     1
102
RTVSPropertyOp33
 70
     1
102
RTVSPropertyOp34
 70
     1
102
RTVSPropertyOp35
 70
     1
102
RTVSPropertyOp36
 70
     1
102
RTVSPropertyOp37
 70
     1
102
RTVSPropertyOp38
 70
     1
102
RTVSPropertyOp39
 70
     1
102
RTVSPropertyOp40
 70
     1
102
RTVSPropertyOp41
 70
     1
102
RTVSPropertyOp42
 70
     1
102
RTVSPropertyOp43
 70
     1
102
RTVSPropertyOp44
 70
     1
102
RTVSPropertyOp45
 70
     1
102
RTVSPropertyOp46
 70
     1
102
RTVSPropertyOp47
 70
     1
102
RTVSPropertyOp48
 70
     1
102
RTVSPropertyOp49
 70
     1
102
RTVSPropertyOp50
 70
     1
102
RTVSPropertyOp51
 70
     0
102
RTVSPropertyOp52
 70
     0
102
RTVSPropertyOp53
 70
     1
102
RTVSPropertyOp54
 70
     1
102
RTVSPropertyOp55
 70
     1
102
RTVSPropertyOp56
 70
     1
102
RTVSPropertyOp57
 70
     1
102
RTVSPost2010Prop28
280
     0
102
RTVSPost2010PropOp28
 70
     1
102
RTVSPost2010Prop29
280
     1
102
RTVSPost2010PropOp29
 70
     1
102
RTVSPost2010Prop30
280
     1
102
RTVSPost2010PropOp30
 70
     1
102
RTVSPost2010Prop31
280
     0
102
RTVSPost2010PropOp31
 70
     1
102
RTVSPost2010Prop32
280
     0
102
RTVSPost2010PropOp32
 70
     1
102
RTVSPost2010Prop33
280
     0
102
RTVSPost2010PropOp33
 70
     1
102
RTVSPost2010Prop34
280
     0
102
RTVSPost2010PropOp34
 70
     1
102
RTVSPost2010Prop35
280
     0
102
RTVSPost2010PropOp35
 70
     1
102
RTVSPost2010Prop36
280
     0
102
RTVSPost2010PropOp36
 70
     1
102
RTVSPost2010Prop37
 90
       50
102
RTVSPost2010PropOp37
 70
     1
102
RTVSPost2010Prop38
140
0.0
102
RTVSPost2010PropOp38
 70
     1
102
RTVSPost2010Prop39
140
1.0
102
RTVSPost2010PropOp39
 70
     1
102
RTVSPost2010Prop40
 90
        0
102
RTVSPost2010PropOp40
 70
     1
102
RTVSPost2010Prop41ColorIndex
 90
       18
102
RTVSPost2010Prop41ColorRGB
 90
        0
102
RTVSPost2010PropOp41
 70
     1
102
RTVSPost2010Prop42
 90
       50
102
RTVSPost2010PropOp42
 70
     1
102
RTVSPost2010Prop43
 90
        3
102
RTVSPost2010PropOp43
 70
     1
102
RTVSPost2010Prop44ColorIndex
 90
        5
102
RTVSPost2010Prop44ColorRGB
 90
      255
102
RTVSPost2010PropOp44
 70
     1
102
RTVSPost2010Prop45
280
     0
102
RTVSPost2010PropOp45
 70
     1
102
RTVSPost2010Prop46
 90
       50
102
RTVSPost2010PropOp46
 70
     1
102
RTVSPost2010Prop47
 90
       50
102
RTVSPost2010PropOp47
 70
     1
102
RTVSPost2010Prop48
 90
       50
102
RTVSPost2010PropOp48
 70
     1
102
RTVSPost2010Prop49
280
     0
102
RTVSPost2010PropOp49
 70
     1
102
RTVSPost2010Prop50
 90
       50
102
RTVSPost2010PropOp50
 70
     1
102
RTVSPost2010Prop51ColorIndex
 90
      256
102
RTVSPost2010Prop51ColorRGB
 90
-16777216
102
RTVSPost2010PropOp51
 70
     0
102
RTVSPost2010Prop52
140
1.0
102
RTVSPost2010PropOp52
 70
     0
102
RTVSPost2010Prop53
 90
        2
102
RTVSPost2010PropOp53
 70
     1
102
RTVSPost2010Prop54
  1
strokes_ogs.tif
102
RTVSPost2010PropOp54
 70
     1
102
RTVSPost2010Prop55
280
     0
102
RTVSPost2010PropOp55
 70
     1
102
RTVSPost2010Prop56
140
1.0
102
RTVSPost2010PropOp56
 70
     1
102
RTVSPost2010Prop57
140
1.0
102
RTVSPost2010PropOp57
 70
     1
  0
XRECORD
  5
250
102
{ACAD_REACTORS
330
24F
102
}
330
24F
100
AcDbXrecord
280
     1
102
RTVSPropertyOp0
 70
     1
102
RTVSPropertyOp1
 70
     1
102
RTVSPropertyOp2
 70
     1
102
RTVSPropertyOp3
 70
     1
102
RTVSPropertyOp4
 70
     1
102
RTVSPropertyOp5
 70
     1
102
RTVSPropertyOp6
 70
     1
102
RTVSPropertyOp7
 70
     1
102
RTVSPropertyOp8
 70
     1
102
RTVSPropertyOp9
 70
     1
102
RTVSPropertyOp10
 70
     1
102
RTVSPropertyOp11
 70
     1
102
RTVSPropertyOp12
 70
     1
102
RTVSPropertyOp13
 70
     1
102
RTVSPropertyOp14
 70
     1
102
RTVSPropertyOp15
 70
     1
102
RTVSPropertyOp16
 70
     1
102
RTVSPropertyOp17
 70
     1
102
RTVSPropertyOp18
 70
     1
102
RTVSPropertyOp19
 70
     1
102
RTVSPropertyOp20
 70
     1
102
RTVSPropertyOp21
 70
     1
102
RTVSPropertyOp22
 70
     1
102
RTVSPropertyOp23
 70
     1
102
RTVSPropertyOp24
 70
     1
102
RTVSPropertyOp25
 70
     1
102
RTVSPropertyOp26
 70
     1
102
RTVSPropertyOp27
 70
     1
102
RTVSPropertyOp28
 70
     1
102
RTVSPropertyOp29
 70
     1
102
RTVSPropertyOp30
 70
     1
102
RTVSPropertyOp31
 70
     1
102
RTVSPropertyOp32
 70
     1
102
RTVSPropertyOp33
 70
     1
102
RTVSPropertyOp34
 70
     1
102
RTVSPropertyOp35
 70
     1
102
RTVSPropertyOp36
 70
     1
102
RTVSPropertyOp37
 70
     1
102
RTVSPropertyOp38
 70
     1
102
RTVSPropertyOp39
 70
     1
102
RTVSPropertyOp40
 70
     1
102
RTVSPropertyOp41
 70
     1
102
RTVSPropertyOp42
 70
     1
102
RTVSPropertyOp43
 70
     1
102
RTVSPropertyOp44
 70
     1
102
RTVSPropertyOp45
 70
     1
102
RTVSPropertyOp46
 70
     1
102
RTVSPropertyOp47
 70
     1
102
RTVSPropertyOp48
 70
     1
102
RTVSPropertyOp49
 70
     1
102
RTVSPropertyOp50
 70
     1
102
RTVSPropertyOp51
 70
     0
102
RTVSPropertyOp52
 70
     0
102
RTVSPropertyOp53
 70
     1
102
RTVSPropertyOp54
 70
     1
102
RTVSPropertyOp55
 70
     1
102
RTVSPropertyOp56
 70
     1
102
RTVSPropertyOp57
 70
     1
102
RTVSPost2010Prop28
280
     0
102
RTVSPost2010PropOp28
 70
     1
102
RTVSPost2010Prop29
280
     1
102
RTVSPost2010PropOp29
 70
     1
102
RTVSPost2010Prop30
280
     1
102
RTVSPost2010PropOp30
 70
     1
102
RTVSPost2010Prop31
280
     0
102
RTVSPost2010PropOp31
 70
     1
102
RTVSPost2010Prop32
280
     0
102
RTVSPost2010PropOp32
 70
     1
102
RTVSPost2010Prop33
280
     0
102
RTVSPost2010PropOp33
 70
     1
102
RTVSPost2010Prop34
280
     0
102
RTVSPost2010PropOp34
 70
     1
102
RTVSPost2010Prop35
280
     0
102
RTVSPost2010PropOp35
 70
     1
102
RTVSPost2010Prop36
280
     0
102
RTVSPost2010PropOp36
 70
     1
102
RTVSPost2010Prop37
 90
       50
102
RTVSPost2010PropOp37
 70
     1
102
RTVSPost2010Prop38
140
0.0
102
RTVSPost2010PropOp38
 70
     1
102
RTVSPost2010Prop39
140
1.0
102
RTVSPost2010PropOp39
 70
     1
102
RTVSPost2010Prop40
 90
        0
102
RTVSPost2010PropOp40
 70
     1
102
RTVSPost2010Prop41ColorIndex
 90
       18
102
RTVSPost2010Prop41ColorRGB
 90
        0
102
RTVSPost2010PropOp41
 70
     1
102
RTVSPost2010Prop42
 90
       50
102
RTVSPost2010PropOp42
 70
     1
102
RTVSPost2010Prop43
 90
        3
102
RTVSPost2010PropOp43
 70
     1
102
RTVSPost2010Prop44ColorIndex
 90
        5
102
RTVSPost2010Prop44ColorRGB
 90
      255
102
RTVSPost2010PropOp44
 70
     1
102
RTVSPost2010Prop45
280
     0
102
RTVSPost2010PropOp45
 70
     1
102
RTVSPost2010Prop46
 90
       50
102
RTVSPost2010PropOp46
 70
     1
102
RTVSPost2010Prop47
 90
       50
102
RTVSPost2010PropOp47
 70
     1
102
RTVSPost2010Prop48
 90
       50
102
RTVSPost2010PropOp48
 70
     1
102
RTVSPost2010Prop49
280
     0
102
RTVSPost2010PropOp49
 70
     1
102
RTVSPost2010Prop50
 90
       50
102
RTVSPost2010PropOp50
 70
     1
102
RTVSPost2010Prop51ColorIndex
 90
      256
102
RTVSPost2010Prop51ColorRGB
 90
-16777216
102
RTVSPost2010PropOp51
 70
     0
102
RTVSPost2010Prop52
140
1.0
102
RTVSPost2010PropOp52
 70
     0
102
RTVSPost2010Prop53
 90
        2
102
RTVSPost2010PropOp53
 70
     1
102
RTVSPost2010Prop54
  1
strokes_ogs.tif
102
RTVSPost2010PropOp54
 70
     1
102
RTVSPost2010Prop55
280
     0
102
RTVSPost2010PropOp55
 70
     1
102
RTVSPost2010Prop56
140
1.0
102
RTVSPost2010PropOp56
 70
     1
102
RTVSPost2010Prop57
140
1.0
102
RTVSPost2010PropOp57
 70
     1
  0
XRECORD
  5
242
102
{ACAD_REACTORS
330
241
102
}
330
241
100
AcDbXrecord
280
     1
102
RTVSPropertyOp0
 70
     1
102
RTVSPropertyOp1
 70
     1
102
RTVSPropertyOp2
 70
     1
102
RTVSPropertyOp3
 70
     1
102
RTVSPropertyOp4
 70
     1
102
RTVSPropertyOp5
 70
     1
102
RTVSPropertyOp6
 70
     1
102
RTVSPropertyOp7
 70
     1
102
RTVSPropertyOp8
 70
     1
102
RTVSPropertyOp9
 70
     1
102
RTVSPropertyOp10
 70
     1
102
RTVSPropertyOp11
 70
     1
102
RTVSPropertyOp12
 70
     1
102
RTVSPropertyOp13
 70
     1
102
RTVSPropertyOp14
 70
     1
102
RTVSPropertyOp15
 70
     1
102
RTVSPropertyOp16
 70
     1
102
RTVSPropertyOp17
 70
     1
102
RTVSPropertyOp18
 70
     1
102
RTVSPropertyOp19
 70
     1
102
RTVSPropertyOp20
 70
     1
102
RTVSPropertyOp21
 70
     1
102
RTVSPropertyOp22
 70
     1
102
RTVSPropertyOp23
 70
     1
102
RTVSPropertyOp24
 70
     1
102
RTVSPropertyOp25
 70
     1
102
RTVSPropertyOp26
 70
     1
102
RTVSPropertyOp27
 70
     1
102
RTVSPropertyOp28
 70
     1
102
RTVSPropertyOp29
 70
     1
102
RTVSPropertyOp30
 70
     1
102
RTVSPropertyOp31
 70
     1
102
RTVSPropertyOp32
 70
     1
102
RTVSPropertyOp33
 70
     1
102
RTVSPropertyOp34
 70
     1
102
RTVSPropertyOp35
 70
     1
102
RTVSPropertyOp36
 70
     1
102
RTVSPropertyOp37
 70
     1
102
RTVSPropertyOp38
 70
     1
102
RTVSPropertyOp39
 70
     1
102
RTVSPropertyOp40
 70
     1
102
RTVSPropertyOp41
 70
     1
102
RTVSPropertyOp42
 70
     1
102
RTVSPropertyOp43
 70
     1
102
RTVSPropertyOp44
 70
     1
102
RTVSPropertyOp45
 70
     1
102
RTVSPropertyOp46
 70
     1
102
RTVSPropertyOp47
 70
     1
102
RTVSPropertyOp48
 70
     1
102
RTVSPropertyOp49
 70
     1
102
RTVSPropertyOp50
 70
     1
102
RTVSPropertyOp51
 70
     0
102
RTVSPropertyOp52
 70
     0
102
RTVSPropertyOp53
 70
     1
102
RTVSPropertyOp54
 70
     1
102
RTVSPropertyOp55
 70
     1
102
RTVSPropertyOp56
 70
     1
102
RTVSPropertyOp57
 70
     1
102
RTVSPost2010Prop28
280
     0
102
RTVSPost2010PropOp28
 70
     1
102
RTVSPost2010Prop29
280
     1
102
RTVSPost2010PropOp29
 70
     1
102
RTVSPost2010Prop30
280
     1
102
RTVSPost2010PropOp30
 70
     1
102
RTVSPost2010Prop31
280
     0
102
RTVSPost2010PropOp31
 70
     1
102
RTVSPost2010Prop32
280
     0
102
RTVSPost2010PropOp32
 70
     1
102
RTVSPost2010Prop33
280
     0
102
RTVSPost2010PropOp33
 70
     1
102
RTVSPost2010Prop34
280
     0
102
RTVSPost2010PropOp34
 70
     1
102
RTVSPost2010Prop35
280
     0
102
RTVSPost2010PropOp35
 70
     1
102
RTVSPost2010Prop36
280
     0
102
RTVSPost2010PropOp36
 70
     1
102
RTVSPost2010Prop37
 90
       50
102
RTVSPost2010PropOp37
 70
     1
102
RTVSPost2010Prop38
140
0.0
102
RTVSPost2010PropOp38
 70
     1
102
RTVSPost2010Prop39
140
1.0
102
RTVSPost2010PropOp39
 70
     1
102
RTVSPost2010Prop40
 90
        0
102
RTVSPost2010PropOp40
 70
     1
102
RTVSPost2010Prop41ColorIndex
 90
       18
102
RTVSPost2010Prop41ColorRGB
 90
        0
102
RTVSPost2010PropOp41
 70
     1
102
RTVSPost2010Prop42
 90
       50
102
RTVSPost2010PropOp42
 70
     1
102
RTVSPost2010Prop43
 90
        3
102
RTVSPost2010PropOp43
 70
     1
102
RTVSPost2010Prop44ColorIndex
 90
        5
102
RTVSPost2010Prop44ColorRGB
 90
      255
102
RTVSPost2010PropOp44
 70
     1
102
RTVSPost2010Prop45
280
     0
102
RTVSPost2010PropOp45
 70
     1
102
RTVSPost2010Prop46
 90
       50
102
RTVSPost2010PropOp46
 70
     1
102
RTVSPost2010Prop47
 90
       50
102
RTVSPost2010PropOp47
 70
     1
102
RTVSPost2010Prop48
 90
       50
102
RTVSPost2010PropOp48
 70
     1
102
RTVSPost2010Prop49
280
     0
102
RTVSPost2010PropOp49
 70
     1
102
RTVSPost2010Prop50
 90
       50
102
RTVSPost2010PropOp50
 70
     1
102
RTVSPost2010Prop51ColorIndex
 90
      256
102
RTVSPost2010Prop51ColorRGB
 90
-16777216
102
RTVSPost2010PropOp51
 70
     0
102
RTVSPost2010Prop52
140
1.0
102
RTVSPost2010PropOp52
 70
     0
102
RTVSPost2010Prop53
 90
        2
102
RTVSPost2010PropOp53
 70
     1
102
RTVSPost2010Prop54
  1
strokes_ogs.tif
102
RTVSPost2010PropOp54
 70
     1
102
RTVSPost2010Prop55
280
     0
102
RTVSPost2010PropOp55
 70
     1
102
RTVSPost2010Prop56
140
1.0
102
RTVSPost2010PropOp56
 70
     1
102
RTVSPost2010Prop57
140
1.0
102
RTVSPost2010PropOp57
 70
     1
  0
XRECORD
  5
262
102
{ACAD_REACTORS
330
261
102
}
330
261
100
AcDbXrecord
280
     1
102
RTVSPropertyOp0
 70
     1
102
RTVSPropertyOp1
 70
     1
102
RTVSPropertyOp2
 70
     1
102
RTVSPropertyOp3
 70
     1
102
RTVSPropertyOp4
 70
     1
102
RTVSPropertyOp5
 70
     1
102
RTVSPropertyOp6
 70
     1
102
RTVSPropertyOp7
 70
     1
102
RTVSPropertyOp8
 70
     1
102
RTVSPropertyOp9
 70
     1
102
RTVSPropertyOp10
 70
     1
102
RTVSPropertyOp11
 70
     1
102
RTVSPropertyOp12
 70
     1
102
RTVSPropertyOp13
 70
     1
102
RTVSPropertyOp14
 70
     1
102
RTVSPropertyOp15
 70
     1
102
RTVSPropertyOp16
 70
     1
102
RTVSPropertyOp17
 70
     1
102
RTVSPropertyOp18
 70
     1
102
RTVSPropertyOp19
 70
     1
102
RTVSPropertyOp20
 70
     1
102
RTVSPropertyOp21
 70
     1
102
RTVSPropertyOp22
 70
     1
102
RTVSPropertyOp23
 70
     1
102
RTVSPropertyOp24
 70
     1
102
RTVSPropertyOp25
 70
     1
102
RTVSPropertyOp26
 70
     1
102
RTVSPropertyOp27
 70
     1
102
RTVSPropertyOp28
 70
     1
102
RTVSPropertyOp29
 70
     1
102
RTVSPropertyOp30
 70
     1
102
RTVSPropertyOp31
 70
     1
102
RTVSPropertyOp32
 70
     1
102
RTVSPropertyOp33
 70
     1
102
RTVSPropertyOp34
 70
     1
102
RTVSPropertyOp35
 70
     1
102
RTVSPropertyOp36
 70
     1
102
RTVSPropertyOp37
 70
     1
102
RTVSPropertyOp38
 70
     1
102
RTVSPropertyOp39
 70
     1
102
RTVSPropertyOp40
 70
     1
102
RTVSPropertyOp41
 70
     1
102
RTVSPropertyOp42
 70
     1
102
RTVSPropertyOp43
 70
     1
102
RTVSPropertyOp44
 70
     1
102
RTVSPropertyOp45
 70
     1
102
RTVSPropertyOp46
 70
     1
102
RTVSPropertyOp47
 70
     1
102
RTVSPropertyOp48
 70
     1
102
RTVSPropertyOp49
 70
     1
102
RTVSPropertyOp50
 70
     1
102
RTVSPropertyOp51
 70
     0
102
RTVSPropertyOp52
 70
     0
102
RTVSPropertyOp53
 70
     1
102
RTVSPropertyOp54
 70
     1
102
RTVSPropertyOp55
 70
     1
102
RTVSPropertyOp56
 70
     1
102
RTVSPropertyOp57
 70
     1
102
RTVSPost2010Prop28
280
     0
102
RTVSPost2010PropOp28
 70
     1
102
RTVSPost2010Prop29
280
     1
102
RTVSPost2010PropOp29
 70
     1
102
RTVSPost2010Prop30
280
     1
102
RTVSPost2010PropOp30
 70
     1
102
RTVSPost2010Prop31
280
     0
102
RTVSPost2010PropOp31
 70
     1
102
RTVSPost2010Prop32
280
     0
102
RTVSPost2010PropOp32
 70
     1
102
RTVSPost2010Prop33
280
     0
102
RTVSPost2010PropOp33
 70
     1
102
RTVSPost2010Prop34
280
     0
102
RTVSPost2010PropOp34
 70
     1
102
RTVSPost2010Prop35
280
     0
102
RTVSPost2010PropOp35
 70
     1
102
RTVSPost2010Prop36
280
     0
102
RTVSPost2010PropOp36
 70
     1
102
RTVSPost2010Prop37
 90
       50
102
RTVSPost2010PropOp37
 70
     1
102
RTVSPost2010Prop38
140
0.0
102
RTVSPost2010PropOp38
 70
     1
102
RTVSPost2010Prop39
140
1.0
102
RTVSPost2010PropOp39
 70
     1
102
RTVSPost2010Prop40
 90
        0
102
RTVSPost2010PropOp40
 70
     1
102
RTVSPost2010Prop41ColorIndex
 90
       18
102
RTVSPost2010Prop41ColorRGB
 90
        0
102
RTVSPost2010PropOp41
 70
     1
102
RTVSPost2010Prop42
 90
       50
102
RTVSPost2010PropOp42
 70
     1
102
RTVSPost2010Prop43
 90
        3
102
RTVSPost2010PropOp43
 70
     1
102
RTVSPost2010Prop44ColorIndex
 90
        5
102
RTVSPost2010Prop44ColorRGB
 90
      255
102
RTVSPost2010PropOp44
 70
     1
102
RTVSPost2010Prop45
280
     0
102
RTVSPost2010PropOp45
 70
     1
102
RTVSPost2010Prop46
 90
       50
102
RTVSPost2010PropOp46
 70
     1
102
RTVSPost2010Prop47
 90
       50
102
RTVSPost2010PropOp47
 70
     1
102
RTVSPost2010Prop48
 90
       50
102
RTVSPost2010PropOp48
 70
     1
102
RTVSPost2010Prop49
280
     0
102
RTVSPost2010PropOp49
 70
     1
102
RTVSPost2010Prop50
 90
       50
102
RTVSPost2010PropOp50
 70
     1
102
RTVSPost2010Prop51ColorIndex
 90
      256
102
RTVSPost2010Prop51ColorRGB
 90
-16777216
102
RTVSPost2010PropOp51
 70
     0
102
RTVSPost2010Prop52
140
1.0
102
RTVSPost2010PropOp52
 70
     0
102
RTVSPost2010Prop53
 90
        2
102
RTVSPost2010PropOp53
 70
     1
102
RTVSPost2010Prop54
  1
strokes_ogs.tif
102
RTVSPost2010PropOp54
 70
     1
102
RTVSPost2010Prop55
280
     0
102
RTVSPost2010PropOp55
 70
     1
102
RTVSPost2010Prop56
140
1.0
102
RTVSPost2010PropOp56
 70
     1
102
RTVSPost2010Prop57
140
1.0
102
RTVSPost2010PropOp57
 70
     1
  0
ENDSEC
  0
SECTION
  2
THUMBNAILIMAGE
 90
    16364
310
28000000B40000005500000001000800000000000000000000000000000000000000000000000000FFFFFF00FF000000FFFF000000FF000000FFFF000000FF00FF00FF000000000080808000C0C0C000FF000000FF7F7F00A5000000A55252007F0000007F3F3F004C0000004C2626002600000026131300FF3F0000FF9F7F
310
00A5290000A56752007F1F00007F4F3F004C1300004C2F26002609000026171300FF7F0000FFBF7F00A5520000A57C52007F3F00007F5F3F004C2600004C39260026130000261C1300FFBF0000FFDF7F00A57C0000A59152007F5F00007F6F3F004C3900004C422600261C000026211300FFFF0000FFFF7F00A5A50000A5A5
310
52007F7F00007F7F3F004C4C00004C4C26002626000026261300BFFF0000DFFF7F007CA5000091A552005F7F00006F7F3F00394C0000424C26001C260000212613007FFF0000BFFF7F0052A500007CA552003F7F00005F7F3F00264C0000394C2600132600001C2613003FFF00009FFF7F0029A5000067A552001F7F00004F
310
7F3F00134C00002F4C2600092600001726130000FF00007FFF7F0000A5000052A55200007F00003F7F3F00004C0000264C2600002600001326130000FF3F007FFF9F0000A5290052A56700007F1F003F7F4F00004C1300264C2F00002609001326170000FF7F007FFFBF0000A5520052A57C00007F3F003F7F5F00004C2600
310
264C39000026130013261C0000FFBF007FFFDF0000A57C0052A59100007F5F003F7F6F00004C3900264C420000261C001326210000FFFF007FFFFF0000A5A50052A5A500007F7F003F7F7F00004C4C00264C4C00002626001326260000BFFF007FDFFF00007CA5005291A500005F7F003F6F7F0000394C0026424C00001C26
310
0013212600007FFF007FBFFF000052A500527CA500003F7F003F5F7F0000264C0026394C0000132600131C2600003FFF007F9FFF000029A5005267A500001F7F003F4F7F0000134C00262F4C0000092600131726000000FF007F7FFF000000A5005252A50000007F003F3F7F0000004C0026264C0000002600131326003F00
310
FF009F7FFF002900A5006752A5001F007F004F3F7F0013004C002F264C0009002600171326007F00FF00BF7FFF005200A5007C52A5003F007F005F3F7F0026004C0039264C00130026001C132600BF00FF00DF7FFF007C00A5009152A5005F007F006F3F7F0039004C0042264C001C00260021132600FF00FF00FF7FFF00A5
310
00A500A552A5007F007F007F3F7F004C004C004C264C002600260026132600FF00BF00FF7FDF00A5007C00A55291007F005F007F3F6F004C0039004C26420026001C0026132100FF007F00FF7FBF00A5005200A5527C007F003F007F3F5F004C0026004C2639002600130026131C00FF003F00FF7F9F00A5002900A5526700
310
7F001F007F3F4F004C0013004C262F002600090026131700000000002D2D2D005B5B5B0089898900B7B7B700B3B3B30000000000000000000000000000000000000000000000000000000000000000000000000000000000000000000000000000000000000000000000000000000000000000000000000000000000000000
310
00000000000000000000000000000000000000000000000000000000000000000000000000000000000000000000000000000000000000000000000000000000000000000000000000000000000000000000000000000000000000000000000000000000000000000000000000000000000000000000000000000000000000
310
00000000000000000000000000000000000000000000000000000000000000000000000000000000000000000000000000000000000000000000000000000000000000000000000000000000000000000000000000000000000000000000000000000000000000000000000000000000000000000000000000000000000000
310
00000000000000000000000000000000000000000000000000000000000000000000000000000000000000000000000000000000000000000000000000000000000000000000000000000000000000000000000000980000000000000000000000000000000000989800989800989800000000000000000000000000000000
310
98000000000000000000000000000000000000000000000000000000000000000000000000000000000000000000000000000000000000000000000000000000000000000000000000000000000000000000000000000000000000000000000000000000000000000000000000000000000000000000000000000000000000
310
00000000000000000000009898989898989898989898989898989898989898989898989898989898989898989898989898989898989800000000000000000000000000000000000000000000000000000000000000000000000000000000000000000000000000000000000000000000000000000000000000000000000000
310
00000000000000000000000000000000000000000000000000000000000000000000000000000000000000000000000000000000000000000000000000000000980000000000000000000000000000000000989898989898009800000000000000000000000000000000980000000000000000000000000000000000000000
310
00000000000000000000000000000000000000000000000000000000000000000000000000000000000000000000000000000000000000000000000000000000000000000000000000000000000000000000000000000000000000000000000000000000000000000000000000000000000000000098000000000000000000
310
00000000000000009898989898989898000000000000000000000000000000009800000000000000000000000000000000000000000000000000000000000000000000000000000000000000000000000000000000000000000000000000000000000000000000000000000000000000000000000000000000000000000000
310
00000000000000000000000000000000000000000000000000000000000000000000000000000000000000980000000000000000000000000000000000989800989800989800000000000000000000000000000000980000000000000000000000000000000000000000000000000000000000000000000000000000000000
310
00000000000000000000000000000000000000000000000000000000000000000000000000000000000000000000000000000000000000000000000000000000000000000000000000000000000000000000000000000000000000000000000098000000000000000000000000000000000000000000000000000000000000
310
00000000000000000000009800000000000000000000000000000000000000000000000000000000000000000000000000000000000000000000000000000000000000000000000000000000000000000000000000000000000000000000000000000000000000000000000000000000000000000000000000000000000000
310
00000000000000000000000000000000000000000000989898989800009898000000000000000000009800989800989800000000000000009800980098000098980000000000000000000000000000000000000000000000000000000000000000000000000000000000000000000000000000000000000000000000000000
310
00000000000000000000000000000000000000000000000000000000000000000000000000000000000000000000000000000000000000000000000000000000000000000000000000000098989898989898989898989898989898989898989898989898989898989898989898989898989898989898000000000000000000
310
00000000000000000000000000000000000000000000000000000000000000000000000000000000000000000000000000000000000000000000000000000000000000000000000000000000000000000000000000000000000000000000000000000000000000000000000000000000000000000000000000000000000000
310
00989898009800980098000000000000000000989898989898009800000000000000009800980098009800980000000000000000000000000000000000000000000000000000000000000000000000000000000000000000000000000000000000000000000000000000000000000000000000000000000000000000000000
310
00000000000000000000000000000000000000000000000000000000000000000000000000000000000000000000000000000000000098989800980098989800000000000000000098989898989898980000000000000000989898009800989898000000000000000000000000000000000000000000000000000000000000
310
00006767676767670067676700000000000000000000000000000000000000000000000000000000000000000000000000000000000000000000000000000000000000000000000000000000000000000000000000000000000000000000000000000000000000000000009898989898989898980000000000000000009898
310
00989800989800000000000000009800989898989898980000000000000000000000000000000000000000000000000000000000000000676767676767676767670000000000000000000000000000000000000000000000000000000000000000000000000000000000000000000000000000000000000000000000000000
310
00000000000000000000000000000000000000000000000000000000000000000098000000000000009800000000000000000000000000000000000000000000000000980000000000000098000000000000000000000000000000000000000000000000000000000000000067676767676767676767000000000000000000
310
00000000000000000000000000000000000000000000000000000000000000000000000000000000000000000000000000000000000000000000000000000000000000000000000000000000000000000000000000009800000000000000980000000000000000000000000000000000000000000000000098000000000000
310
00980000000000000000000000000000000000000000000000000000000000000000676767676767006767670000000000000000000000000000000000000000000000000000000000000000000000000000000000000000000000000000000000000000000000000000000000000002020202020202020202020202020202
310
02020202020202020202000098000000000000009800000000000000000000000000000000000000000000000000980000000000000098000000000000000000000000000000000000000000000000000000000000000000000000000000000000000000000000000000000000000000000000000000000000000000000000
310
00000000000000000000000000000000000000000000000000000000000000000000000000000202020202020202020202020202020202020000000000000002009800000000000000980000000000000000000000000000000000000000000000000098000000000000009800000000000000000000000000000000000000
310
00000000000000000000000000000000000000000000000000000000000000000000000000000000000000000000000000000000000000000000000000000000000000000000000000000000000000000000000000000000000000020202020202020002020202020202020202000000000000000002980000000000000098
310
00000000000000000000000000000000000000000000000000980000000000000098000000000000000000000000000000000000000000000000000000000000000067670067676767000067676767676767676700670067676700000000000000000000000000000000000000000000000000000000000000000000000000
310
00000000000000000000000000000000000002020202020200000202000000000200020000000000000000009800000000000000980000000000000000000000000000000000000000000000000098000000000000009800000000000000000000000000000000000000000000000000000000000000006700676767676700
310
00670067006700676767676767670000000000000000000000000000000000000000000000000000000000000000000000000000000000000000000000000000000000000000000000000000000000000000000000000000000000000000000000980200000000000098000000000000000000000000000000000000000000
310
00000000980000000000000098000000000000000000000000000000000000000000000000000000000000000067676767676767676767006700006767676767670000676700000000000000000000000000000000000000000000000000000000000000000000000000000000000000000000000000000000000000000000
310
00000000000000000000000000000000000000000000009800020000000000980000000000000000000000000000000000000000000000000098000000000000009800000000000000000000000000000000000000000000000000000000000000006767676767676700676700676767676767676767006767670000000000
310
00000000000000000000000000000000000000000000000000000000000000000000000000000000000000000000000000000000000000000000000000000000000000000000000000000000980000020000000098000000000000000000000000000000000000000000000000009800000000000000980000000000000000
310
00000000000000000000000000000000000000000000000067670067006767670067006700670000670000670067670000000000000000000000000000000000000000000000000000000000000000000000000000000000000000000000000000000000000000000000000000000000000000000000000000000000000000
310
00009800000200000000980000000000000000000000000000000000000000000000000098000000000000009800000000000000000000000000000000000000000000000000000000000000000000000000000000000000000000000000000000000000000000000000000000000000000000000000000000000000000000
310
00000000000000000000000000000000000000000000000000000000000000000000000000000000000000000000000000000000000000980000000200000098000000000000000000000000000000000000000000000000009800000000000000980000000000000000000000000000000000000000000000000000000000
310
00000000000000000000000000000000000000000000000000000000000000000000000000000000000000000000000000000000000000000000000000000000000000000000000000000000000000000000000000000000000000000000000000000000000000000000000098000000000200009800000000000000000000
310
00000600000000000000000000000098000000000000009800000000000000000000000000000000000000000000000000000000000000000000000000000000000000000000000000000000000000000000000000000000000000000000000000000000000000000000000000000000000000000000000000000000000000
310
00000000000000000000000000000000000000000000000000009800009800000000980000000000020098000000000000000000000000060000000000000000000000009800000000000000980000000000000000000000000000000000000000000000000000000000000000000000000000000000000000000000000000
310
000000000000000000000000000000000000000000000000000000000000000000000000000000000000000000000000000000000000000000000000000000000000000000000000000000000000989898989800000000980000000000020298B50000000000000000000005060500000000000000000000B598B500000000
310
00009800000000000000000000000000000000000000000000000000000000000000000000000000000000000000000000000000000000000000000000000000000000000000000000000000000000000000000000000000000000000000000000000000000000000000000000000000000000000000000000000098989898
310
989898989898989898989898989898989898989803030300000000000000000005000600050000000000000000B5030303039898989898989898989898989898989898989898989898989898989898989800000000000000000000000000000000000000000000000000000000000000000000000000000000000000000000
310
00000000000000000000000000000000000000000000000000000000000000000000000000000000000000000000000000009800000000000098000098989898989803030303030303030303030303030303030303030303030303030303030303030303030303030303030303000000000000000098000000000000009800
310
0000000000980000000000000000000000000000000000000000000000000000000000000000000000000000000000000000000000000000000000000000000000000000000000000000000000000000000000000000000000000000000000000000000000000098000000000000980098009800000000030000000000B5B5
310
B5B50000000000000000000005060500000000000000000000B5B5B5000000000000980000000000000000980000000000000098000000000000980000000000000000000000000000000000000000000000000000000000000000000000000000000000000000000000000000000000000000000000000000000000000000
310
00000000000000000000000000000000000000000000000000000000009800000000000098989898980000000003000000000000000000000000000600000000000006000000000000000000000000000000000000000098000000000098000098000000989800009800000000000098000000000000000000000000000000
310
00000000000000000000000000000000000000000000000000000000000000000000000000000000000000000000000000000000000000000000000000000000000000000000000000000000000000000000980000000000009800000000000000000300010101010101010101010101010101010101010101010101010100
310
00000000000000000000000000980000000000989898980000009800989898000000000000980000000000000000000000000000000000000000000000000000000000000000000000000000000000000000000000000000000000000000000000000000000000000000000000000000000000000000000000000000000000
310
00000000000000009800009800009898000000000000000003010000000001010101010101010101010101010101010000000001000000000000000000000000000098000000000098980098000000989898009800000000000098000000000000000000000000000000000000000000000000000000000000000000000000
310
00000000000000000000000000000000000000000000000000000000000000000000000000000000000000000000000000000000000000000000000000980000989898989800000000000000000301000000000101010101010101010101010101010101010000000100000000000000000000000000009800000000009898
310
98980000009898989898000000000000980000000000000000000000000000000000000000000000000000000000000000000000000000000000000000000000000000000000000000000000000000000000000000000000000000000000000000000000000000000000000000000000000098000098009898980000000000
310
00000003010000000001010101010101010101010101010101010100000001000000000000000000009800980098000000000098989898000000980098989800000000989898000000000000000000000000000000000000000000000000000000000000000000000000000000000000000000000000000000000000000000
310
00000000000000000000000000000000000000000000000000000000000000000000000000000000980000980000989800000000000000000301000000010101010101010101010101010101010101010000000100000000009898989898980098009800989898989800989800000000989898980000009898989800000000
310
00000000000000000000000000000000000000000000000000000000000000000000000000000000000000000000000000000000000000000000000000000000000000000000000000000000000000000000000000000000000000000098000098989800980000000000000000030100000001010101010101010101010101
310
01010101010101000001000000000098989898989898989898989898989898989898000000989898989800000000009898000000000000000000000000000000000000000000000000000000000000000000000000000000000000000000000000000000000000000000000000000000000000000000000000000000000000
310
00000000000000000000000000000000000000980000980000009800000000000000000301000001010101010101010101010101010101010101010101000100000000009898989898980098009898980098989898989800000098989898980000009898009800000000000000000000000000000000000000000000000000
310
00000000000000000000000000000000000000000000000000000000000000000000000000000000000000000000000000000000000000000000000000000000000000000000000098000098989898980000000000000000030100010101010101010101010101010101010101010101010100010000000000989898989898
310
00980003009800989800989898000000000098989800000098989898000000000000000000000000000000000000000000000000000000000000000000000000000000000000000000000000000000000000000000000000000000000000000000000000000000000000000000000000000000000000000000000000009800
310
00000000009800000000000000000301000101010101010101010101010101010101010101010101000100000000000000000000980002000300000000000000009800000000000000980000000098009800000000000000000000000000000000000000000000000000000000000000000000000000000000000000000000
310
00000000000000000000000000000000000000000000000000000000000000000000000000000000000000000000009898000098000000000000980000000000000000030101010101010101010101010101010101010101010101010101010000000000000000000002020202989898989898989898989800000000000098
310
00000098989898000000000000000000000000000000000000000000000000000000000000000000000000000000000000000000000000000000000000000000000000000000000000000000000000000000000000000000000000000000000000000000989898989800000000000098000000000000000003010101010101
310
01010101010101010101010101010101010101010100000000000000000002029898989898989898989898989898989898989898989800009898989800000000000000000000000000000000000000000000000000000000000000000000000000000000000000000000000000000000000000000000000000000000000000
310
00000000000000000000000000000000000000000000000000009898000098000000000000980000000000000000030101010101010101010101010101010101010101010101010101010000000000000000000002020002030000000000000000000000000000000000000000000000980000000000000000000000000000
310
00000000000000000000000000000000000000000000000000000000000000000000000000000000000000000000000000000000000000000000000000000000000000000000000000000000000000009898989800000000000098000000000000000003010101010101010101010101010101010101010101010101010101
310
00000000000000000000000002000300000000000000000000000000000000000000000000009800000000000000000000000000000000000000000000000000000000000000000000000000000000000000000000000000000000000000000000000000000000000000000000000000000000000000000000000000000000
310
00000000009898989898000000009898989898989898989898030101010101010101010101010101010101010101010101010101010600000000000000000000000200030200000000000000000000000000000000000000000000980000000000000000000000000000000000000000000000000000000000000000000000
310
00000000000000000000000000000000000000000000000000000000000000000000000000000000000000000000000000000000000000000000000098989800000000000000000000000000000003010101010101010101010101010101010101010101010101010101000000000000000000000000000203020000000000
310
00000000000000000000000000000000009800000000000000000000000000000000000000000000000000000000000000000000000000000000000000000000000000000000000000000000000000000000000000000000000000000000000000000000000000000000000000000098980098980000000000000000000000
310
00000000030101010101010101010101010101010101010101010101010101010000000000000000000000000000030002000000000000000000000000000000000000000000980000000000000000000000000000000000000000000000000000000000000000000000000000000000000000000000000000000000000000
310
00000000000000000000000000000000000000000000000000000000000000000000000000989898989800000000000000000000000000000003010101010101010101010101010101010101010101010101010101000000000002000000000000000003020002000000000000000000000000000000000000000098000000
310
00000000000000000000000000000000000000000000000000000000000000000000000000000000000000000000000000000000000000000000000000000000000000000000000000000000000000000000000000000000000000000000980000000000000000000000000000000301010101010101010101010101010101
310
01010101010101010101010000000002020298989898989898989898989898989898989898989898989898989898989898989800000000000000000000000000000000000000000000000000000000000000000000000000000000000000000000000000000000000000000000000000000000000000000000000000000000
310
00000000000000000000000000000000000000009800000000000000000000000000000003010001010101010101010101010101010101010101010101010101000000000002020200000000000003000200020000000000000000000000000000000000000000000000000000000000000000000000000000000000000000
310
00000000000000000000000000000000000000000000000000000000000000000000000000000000000000000000000000000000000000000000000000000000000000000000000000980000000000000000000000000000000301000101010101010101010101010101010101010101010101010100000000009800020000
310
00000000030000020002000000000000000000000000000000000000000000000000000000000000000000000000000000000000000000000000000000000000000000000000000000000000000000000000000000000000000000000000000000000000000000000000000000000000000000000000000000000000000098
310
00000000000000000000000000000003010000010101010101010101010101010101010101010101000001000000000098000200000000000003000000020002000000000000000000000000000000000000000000000000000000000000000000000000000000000000000000000000000000000000000000000000000000
310
00000000000000000000000000000000000000000000000000000000000000000000000000000000000000000000000000000000980000000000000000000000000000000301000000010101010101010101010101010101010101010100000100000000009800000200000000000300000002000200000000000000000200
310
00000000000000000000000000000000000000000000000000000000000000000000000000000000000000000000000000000000000000000000000000000000000000000000000000000000000000000000000000000000000000000000000000000000000000000098000000000000000000000000000000030100000001
310
01010101010101010101010101010101010100000001000000000098000000020000000003000000000200020202020202020202020202020202020202020202000000000000000000000000000000000000000000000000000000000000000000000000000000000000000000000000000000000000000000000000000000
310
00000000000000000000000000000000000000000000000000000000000000980000000000000000000000000000000301000000000101010101010101010101010101010101010000000100000000009800000000020000000300000000000200000202020202020202020202020202020000000000000000000000000000
310
00000000000000000000000000000000000000000000000000000000000000000000000000000000000000000000000000000000000000000000000000000000000000000000000000000000000000000000000098000000000000000000000000000000030100000000010101010101010101010101010101010101000000
310
01000000000098000000000200000003000000000000020002020202020002000202020202020200000000000000000000000000000000000000000000000000000000000000000000000000000000000000000000000000000000000000000000000000000000000000000000000000000000000000000000000000000000
310
00000000000000000000980000000000000000000000000000000301000000000101010101010101010101010101010101000000000100000000009800000000000200000300000000000002000000000000000000000000000000000000000000000000000000000000000000000000000000000000000000000000000000
310
00000000000000000000000000000000000000000000000000000000000000000000000000000000000000000000000000000000000000000000000000000098000000000000000000000000000000030001010101010101010101010101010101010101010101010101010000000000980000000000000200030000000000
310
00000200000000000002000000000000000000000000000000000000000000000000000000000000000000000000000000000000000000000000000000000000000000000000000000000000000000000000000000000000000000000000000000000000000000000000000000000000000000009800000000000000000000
310
00000000000300000000000000000000000000060000000000000600000000000000000000009800000000000000020300000000000000000202020202020202020202020202020202000000000000000000000000000000000000000000000000000000000000000000000000000000000000000000000000000000000000
310
00000000000000000000000000000000000000000000000000000000000000000000000000000000000098000000000000000000000000000000030000000000000000000000000098000000000000060000000000000000000000980000000000000002030000000000000000000202020002020202020202020200000000
310
00000000000000000000000000000000000000000000000000000000000000000000000000000000000000000000000000000000000000000000000000000000000000000000000000000000000000000000000000000000000000000000989898989898989898989898989898989803030303030303030303030303030303
310
03030303030303030303030303030303030303030303030303030300000000000000000002020200000202020202020202000000000000000000000000000000000000000000000000000000000000000000000000000000000000000000000000000000000000000000000000000000000000000000000000000000000000
310
00000000000000000000000000000000000000000000000000000000000000000000000000980000000000000000000000000098000000000000060000000000000000000000980000000000000000980200000000000000000000000000020200000000000000000000000000000000000000000000000000000000000000
310
00000000000000000000000000000000000000000000000000000000000000000000000000000000000000000000000000000000000000000000000000000000000000000000000000000000000000000000000000000000000098000000000000000000000000009800000000000006000000000000000000000098000000
310
00000000009800020000000000000000000000000000000000000000000000000000000000000000000000000000000000000000000000000000000000000000000000000000000000000000000000000000000000000000000000000000000000000000000000000000000000000000000000000000000000000000000000
310
00000000000000000000000000000000980000000000000000000000000098000000000000060000000000000000000000980000000000000000980002000000000000000000000000000000000000000000000000000000000000000000000000000000000000000000000000000000000000000000000000000000000000
310
00000000000000000000000000000000000000000000000000000000000000000000000000000000000000000000000000000000000000000000000000000000000000000098000000000000000000000000009800000000000006000000000000000000000098000000000000000098000002000000000000000000000000
310
00000000000000000000000000000000000000000000000000000000000000000000000000000000000000000000000000000000000000000000000000000000000000000000000000000000000000000000000000000000000000000000000000000000000000000000000000000000000000000000000000009800000000
310
00000000000000000098000000000000060000000000000000000000980000000000000000980000000202020202020202020202020000000000000000000000000000000000000000000000000000000000000000000000000000000000000000000000000000000000000000000000000000000000000000000000000000
310
00000000000000000000000000000000000000000000000000000000000000000000000000000000000000000000000098000000000000000000000000009800000000000006000000000000000000000098000000000000000098000000000202020202020202020202020200000000000000000000000000000000000000
310
00000000000000000000000000000000000000000000000000000000000000000000000000000000000000000000000000000000000000000000000000000000000000000000000000000000000000000000000000000000000000000000000000000000009800000098989898989898989800980000000000000600000000
310
00000000000000989898989898989898980000000002000002000000020002020200000000000000000000000000000000000000000000000000000000000000000000000000000000000000000000000000000000000000000000000000000000000000000000000000000000000000000000000000000000000000000000
310
00000000000000000000000000000000000000000000000000000098989898989898989898989898989800000000000006000000000000000000000098989898989898989898000000000202020200000002000202020000000000000000000000000000000000000000000000000000000000000000000000000000000000
310
00000000000000000000000000000000000000000000000000000000000000000000000000000000000000000000000000000000000000000000000000000000000000000000000000000000000000009800000000989898989898989800980000000000000600000000000000000000009800989898009898009800000000
310
02020202000000020202020200000000000000000000000000000000000000000000000000000000000000000000000000000000000000000000000000000000000000000000000000000000000000000000000000000000000000000000000000000000000000000000000000000000000000000000000000000000000000
310
00000000000098000000989898989898989898000000000000000006000000000000000000000000009898009898009898000000000000000000000000000000000000000000000000000000000000000000000000000000000000000000000000000000000000000000000000000000000000000000000000000000000000
310
00000000000000000000000000000000000000000000000000000000000000000000000000000000000000000000000000000000000000000000009800000000000000000000000000000000000000000600000000000000000000000000000000000000009800000000000000000000000000000000000000000000000000
310
00000000000000000000000000000000000000000000000000000000000000000000000000000000000000000000000000000000000000000000000000000000000000000000000000000000000000000000000000000000000000000000000000000000000000000000000000000000980000000000000000000000000000
310
00000000000000000000000000000000000000000000000000000098000000000000000000000000000000000000000000000000000000000000000000000000000000000000000000000000000000000000000000000000000000000000000000000000000000000000000000000000000000000000000000000000000000
310
00000000000000000000000000000000000000000000000000000000000000000000000000009800000000000000000000000000000000000000000000000000000000000000000000000000000000009800000000000000000000000000000000000000000000000000000000000000000000000000000000000000000000
310
00000000000000000000000000000000000000000000000000000000000000000000000000000000000000000000000000000000000000000000000000000000000000000000000000000000000000000000000000000000000000980000000000000000000000000000000000000000000000000000000000000000000000
310
00000000000098000000000000000000000000000000000000000000000000000000000000000000000000000000000000000000000000000000000000000000000000000000000000000000000000000000000000000000000000000000000000000000000000000000000000000000000000000000000000000000000000
310
00000000000000000000000000000000009800000000000000000000000000000000000000000000000000000000000000000000000000000000009800000000000000000000000000000000000000000000000000000000000000000000000000000000000000000000000000000000000000000000000000000000000000
310
00000000000000000000000000000000000000000000000000000000000000000000000000000000000000000000000000000000000000000000000000000000000000000000980000000000000000000000000000000000000000000000000000000000000000000000000000000000980000000000000000000000000000
310
00000000000000000000000000000000000000000000000000000000000000000000000000000000000000000000000000000000000000000000000000000000000000000000000000000000000000000000000000000000000000000000000000000000000000000000000000000000000000000000000000000098000000
310
00000000000000000000000000009898009898009898000000000000000000000000000000009800000000000000000000000000000000000000000000000000000000000000000000000000000000000000000000000000000000000000000000000000000000000000000000000000000000000000000000000000000000
310
00000000000000000000000000000000000000000000000000000000000000000000000000000000000000000000000000989898989898989898989898989898989898989898989898989898989898989898989898989898989898980000000000000000000000000000000000000000000000000000000000000000000000
310
00000000000000000000000000000000000000000000000000000000000000000000000000000000000000000000000000000000000000000000000000000000000000000000000000000000000000000000000000000000000000000000000000000000000098000000000000000000000000000000000098989898989800
310
98000000000000000000000000000000009800000000000000000000000000000000000000000000000000000000000000000000000000000000000000000000000000000000000000000000000000000000000000000000000000000000000000000000000000000000000000000000000000000000000000000000000000
310
00000000000000000000000000000000000000000000000000000000980000000000000000000000000000000000989898989898989800000000000000000000000000000000980000000000000000000000000000000000000000000000000000000000000000000000000000000000000000000000000000000000000000
310
00000000000000000000000000000000000000000000000000000000000000000000000000000000000000000000000000000000000000000000000000000000000000000000000000000000000000000000000000000000000000000000000000000098980098980098980000000000000000000000000000000000000000
310
00000000000000000000000000000000000000000000000000000000000000000000000000000000000000000000000000000000000000000000000000000000000000000000000000000000000000000000000000000000000000000000000000000000000000000000000000000000000000000000000000000000000000
310
00000000000000000000000000000000000000000000000000000000000000000000000000000000000000000000000000000000000000000000000000000000000000000000000000000000000000000000000000000000000000000000000000000000000000000000000000000000000000000000000000000000000000
310
00000000000000000000000000000000000000000000000000000000000000000000000000000000000000000000000000000000000000000000000000000000000000000000000000000000000000000000000000000000000000000000000000000000000000000000000000000000000000000000000000000000000000
310
00000000000000000000000000000000000000000000000000000000000000000000000000000000000000000000000000000000000000000000000000000000000000000000000000000000000000000000000000000000000000000000000000000000000000000000000000000000000000000000000000000000000000
310
000000000000000000000000000000000000000000000000000000000000000000000000000000000000000000000000000000000000000000000000000000000000000000000000000000000000000000000000000000000000000000000000000000000000000000000000
  0
ENDSEC
  0
EOF
