  0
SECTION
  2
HEADER
  9
$ACADVER
  1
AC1015
  9
$ACADMAINTVER
 70
     6
  9
$DWGCODEPAGE
  3
ANSI_932
  9
$INSBASE
 10
0.0
 20
0.0
 30
0.0
  9
$EXTMIN
 10
-407.0750522435745
 20
-521.4058000793709
 30
0.0
  9
$EXTMAX
 10
1007.269200000001
 20
523.2928928894197
 30
0.0
  9
$LIMMIN
 10
-407.0750522435745
 20
-521.4058000793709
  9
$LIMMAX
 10
1007.269200000001
 20
523.2928928894197
  9
$ORTHOMODE
 70
     0
  9
$REGENMODE
 70
     1
  9
$FILLMODE
 70
     1
  9
$QTEXTMODE
 70
     0
  9
$MIRRTEXT
 70
     1
  9
$LTSCALE
 40
1.0
  9
$ATTMODE
 70
     1
  9
$TEXTSIZE
 40
0.2
  9
$TRACEWID
 40
0.05
  9
$TEXTSTYLE
  7
Standard
  9
$CLAYER
  8
0
  9
$CELTYPE
  6
ByLayer
  9
$CECOLOR
 62
   256
  9
$CELTSCALE
 40
1.0
  9
$DISPSILH
 70
     0
  9
$DIMSCALE
 40
1.0
  9
$DIMASZ
 40
0.18
  9
$DIMEXO
 40
0.0625
  9
$DIMDLI
 40
0.38
  9
$DIMRND
 40
0.0
  9
$DIMDLE
 40
0.0
  9
$DIMEXE
 40
0.18
  9
$DIMTP
 40
0.0
  9
$DIMTM
 40
0.0
  9
$DIMTXT
 40
0.18
  9
$DIMCEN
 40
0.09
  9
$DIMTSZ
 40
0.0
  9
$DIMTOL
 70
     0
  9
$DIMLIM
 70
     0
  9
$DIMTIH
 70
     1
  9
$DIMTOH
 70
     1
  9
$DIMSE1
 70
     0
  9
$DIMSE2
 70
     0
  9
$DIMTAD
 70
     0
  9
$DIMZIN
 70
     0
  9
$DIMBLK
  1

  9
$DIMASO
 70
     1
  9
$DIMSHO
 70
     1
  9
$DIMPOST
  1

  9
$DIMAPOST
  1

  9
$DIMALT
 70
     0
  9
$DIMALTD
 70
     2
  9
$DIMALTF
 40
25.4
  9
$DIMLFAC
 40
1.0
  9
$DIMTOFL
 70
     0
  9
$DIMTVP
 40
0.0
  9
$DIMTIX
 70
     0
  9
$DIMSOXD
 70
     0
  9
$DIMSAH
 70
     0
  9
$DIMBLK1
  1

  9
$DIMBLK2
  1

  9
$DIMSTYLE
  2
Standard
  9
$DIMCLRD
 70
     0
  9
$DIMCLRE
 70
     0
  9
$DIMCLRT
 70
     0
  9
$DIMTFAC
 40
1.0
  9
$DIMGAP
 40
0.09
  9
$DIMJUST
 70
     0
  9
$DIMSD1
 70
     0
  9
$DIMSD2
 70
     0
  9
$DIMTOLJ
 70
     1
  9
$DIMTZIN
 70
     0
  9
$DIMALTZ
 70
     0
  9
$DIMALTTZ
 70
     0
  9
$DIMUPT
 70
     0
  9
$DIMDEC
 70
     4
  9
$DIMTDEC
 70
     4
  9
$DIMALTU
 70
     2
  9
$DIMALTTD
 70
     2
  9
$DIMTXSTY
  7
Standard
  9
$DIMAUNIT
 70
     0
  9
$DIMADEC
 70
     0
  9
$DIMALTRND
 40
0.0
  9
$DIMAZIN
 70
     0
  9
$DIMDSEP
 70
    46
  9
$DIMATFIT
 70
     3
  9
$DIMFRAC
 70
     0
  9
$DIMLDRBLK
  1

  9
$DIMLUNIT
 70
     2
  9
$DIMLWD
 70
    -2
  9
$DIMLWE
 70
    -2
  9
$DIMTMOVE
 70
     0
  9
$LUNITS
 70
     2
  9
$LUPREC
 70
     4
  9
$SKETCHINC
 40
0.1
  9
$FILLETRAD
 40
0.5
  9
$AUNITS
 70
     1
  9
$AUPREC
 70
     3
  9
$MENU
  1
.
  9
$ELEVATION
 40
0.0
  9
$PELEVATION
 40
0.0
  9
$THICKNESS
 40
0.0
  9
$LIMCHECK
 70
     0
  9
$CHAMFERA
 40
0.0
  9
$CHAMFERB
 40
0.0
  9
$CHAMFERC
 40
0.0
  9
$CHAMFERD
 40
0.0
  9
$SKPOLY
 70
     0
  9
$TDCREATE
 40
2457119.647668206
  9
$TDUCREATE
 40
2457119.272668206
  9
$TDUPDATE
 40
2457119.647670764
  9
$TDUUPDATE
 40
2457119.272670764
  9
$TDINDWG
 40
0.0000000116
  9
$TDUSRTIMER
 40
0.0000000116
  9
$USRTIMER
 70
     1
  9
$ANGBASE
 50
0.0
  9
$ANGDIR
 70
     0
  9
$PDMODE
 70
     0
  9
$PDSIZE
 40
0.0
  9
$PLINEWID
 40
0.0
  9
$SPLFRAME
 70
     0
  9
$SPLINETYPE
 70
     6
  9
$SPLINESEGS
 70
     8
  9
$HANDSEED
  5
3CA
  9
$SURFTAB1
 70
     6
  9
$SURFTAB2
 70
     6
  9
$SURFTYPE
 70
     6
  9
$SURFU
 70
     6
  9
$SURFV
 70
     6
  9
$UCSBASE
  2

  9
$UCSNAME
  2

  9
$UCSORG
 10
0.0
 20
0.0
 30
0.0
  9
$UCSXDIR
 10
1.0
 20
0.0
 30
0.0
  9
$UCSYDIR
 10
0.0
 20
1.0
 30
0.0
  9
$UCSORTHOREF
  2

  9
$UCSORTHOVIEW
 70
     0
  9
$UCSORGTOP
 10
0.0
 20
0.0
 30
0.0
  9
$UCSORGBOTTOM
 10
0.0
 20
0.0
 30
0.0
  9
$UCSORGLEFT
 10
0.0
 20
0.0
 30
0.0
  9
$UCSORGRIGHT
 10
0.0
 20
0.0
 30
0.0
  9
$UCSORGFRONT
 10
0.0
 20
0.0
 30
0.0
  9
$UCSORGBACK
 10
0.0
 20
0.0
 30
0.0
  9
$PUCSBASE
  2

  9
$PUCSNAME
  2

  9
$PUCSORG
 10
0.0
 20
0.0
 30
0.0
  9
$PUCSXDIR
 10
1.0
 20
0.0
 30
0.0
  9
$PUCSYDIR
 10
0.0
 20
1.0
 30
0.0
  9
$PUCSORTHOREF
  2

  9
$PUCSORTHOVIEW
 70
     0
  9
$PUCSORGTOP
 10
0.0
 20
0.0
 30
0.0
  9
$PUCSORGBOTTOM
 10
0.0
 20
0.0
 30
0.0
  9
$PUCSORGLEFT
 10
0.0
 20
0.0
 30
0.0
  9
$PUCSORGRIGHT
 10
0.0
 20
0.0
 30
0.0
  9
$PUCSORGFRONT
 10
0.0
 20
0.0
 30
0.0
  9
$PUCSORGBACK
 10
0.0
 20
0.0
 30
0.0
  9
$USERI1
 70
     0
  9
$USERI2
 70
     0
  9
$USERI3
 70
     0
  9
$USERI4
 70
     0
  9
$USERI5
 70
     0
  9
$USERR1
 40
0.0
  9
$USERR2
 40
0.0
  9
$USERR3
 40
0.0
  9
$USERR4
 40
0.0
  9
$USERR5
 40
0.0
  9
$WORLDVIEW
 70
     1
  9
$SHADEDGE
 70
     3
  9
$SHADEDIF
 70
    70
  9
$TILEMODE
 70
     1
  9
$MAXACTVP
 70
    64
  9
$PINSBASE
 10
0.0
 20
0.0
 30
0.0
  9
$PLIMCHECK
 70
     0
  9
$PEXTMIN
 10
-9.375
 20
-25.0
 30
0.0
  9
$PEXTMAX
 10
525.0
 20
371.25
 30
0.0
  9
$PLIMMIN
 10
-7.5
 20
-20.0
  9
$PLIMMAX
 10
420.0
 20
297.0
  9
$UNITMODE
 70
     0
  9
$VISRETAIN
 70
     1
  9
$PLINEGEN
 70
     0
  9
$PSLTSCALE
 70
     1
  9
$TREEDEPTH
 70
  3020
  9
$CMLSTYLE
  2
Standard
  9
$CMLJUST
 70
     0
  9
$CMLSCALE
 40
1.0
  9
$PROXYGRAPHICS
 70
     1
  9
$MEASUREMENT
 70
     0
  9
$CELWEIGHT
370
    -1
  9
$ENDCAPS
280
     0
  9
$JOINSTYLE
280
     0
  9
$LWDISPLAY
290
     0
  9
$INSUNITS
 70
     0
  9
$HYPERLINKBASE
  1

  9
$STYLESHEET
  1

  9
$XEDIT
290
     1
  9
$CEPSNTYPE
380
     0
  9
$PSTYLEMODE
290
     1
  9
$FINGERPRINTGUID
  2
{FA53D494-1C57-45BD-AB27-A025A266CF90}
  9
$VERSIONGUID
  2
{FAEB1C32-E019-11D5-929B-00C0DF256EC4}
  9
$EXTNAMES
290
     1
  9
$PSVPSCALE
 40
0.0
  9
$OLESTARTUP
290
     0
  0
ENDSEC
  0
SECTION
  2
CLASSES
  0
CLASS
  1
ACDBDICTIONARYWDFLT
  2
AcDbDictionaryWithDefault
  3
ObjectDBX Classes
 90
        0
280
     0
281
     0
  0
CLASS
  1
VISUALSTYLE
  2
AcDbVisualStyle
  3
ObjectDBX Classes
 90
     4095
280
     0
281
     0
  0
CLASS
  1
MATERIAL
  2
AcDbMaterial
  3
ObjectDBX Classes
 90
     1153
280
     0
281
     0
  0
CLASS
  1
SCALE
  2
AcDbScale
  3
ObjectDBX Classes
 90
     1153
280
     0
281
     0
  0
CLASS
  1
SUN
  2
AcDbSun
  3
SCENEOE
 90
     1153
280
     0
281
     0
  0
CLASS
  1
RASTERVARIABLES
  2
AcDbRasterVariables
  3
ISM
 90
        0
280
     0
281
     0
  0
CLASS
  1
DICTIONARYVAR
  2
AcDbDictionaryVar
  3
ObjectDBX Classes
 90
        0
280
     0
281
     0
  0
CLASS
  1
ACDBPLACEHOLDER
  2
AcDbPlaceHolder
  3
ObjectDBX Classes
 90
        0
280
     0
281
     0
  0
CLASS
  1
LAYOUT
  2
AcDbLayout
  3
ObjectDBX Classes
 90
        0
280
     0
281
     0
  0
ENDSEC
  0
SECTION
  2
TABLES
  0
TABLE
  2
VPORT
  5
8
330
0
100
AcDbSymbolTable
 70
     1
  0
VPORT
  5
29
330
8
100
AcDbSymbolTableRecord
100
AcDbViewportTableRecord
  2
*Active
 70
     0
 10
0.0
 20
0.0
 11
1.0
 21
1.0
 12
240.0776591025706
 22
0.7548371240195308
 13
0.0
 23
0.0
 14
0.5
 24
0.5
 15
0.5
 25
0.5
 16
0.0
 26
0.0
 36
1.0
 17
0.0
 27
0.0
 37
0.0
 40
877.5469020937842
 41
1.353829828411423
 42
50.0
 43
0.0
 44
0.0
 50
0.0
 51
0.0
 71
     0
 72
 20000
 73
     1
 74
     3
 75
     0
 76
     0
 77
     0
 78
     0
281
     0
 65
     1
110
0.0
120
0.0
130
0.0
111
1.0
121
0.0
131
0.0
112
0.0
122
1.0
132
0.0
 79
     0
146
0.0
  0
ENDTAB
  0
TABLE
  2
LTYPE
  5
5
330
0
100
AcDbSymbolTable
 70
     4
  0
LTYPE
  5
14
330
5
100
AcDbSymbolTableRecord
100
AcDbLinetypeTableRecord
  2
ByBlock
 70
     0
  3

 72
    65
 73
     0
 40
0.0
  0
LTYPE
  5
15
330
5
100
AcDbSymbolTableRecord
100
AcDbLinetypeTableRecord
  2
ByLayer
 70
     0
  3

 72
    65
 73
     0
 40
0.0
  0
LTYPE
  5
16
330
5
100
AcDbSymbolTableRecord
100
AcDbLinetypeTableRecord
  2
Continuous
 70
     0
  3
Solid line
 72
    65
 73
     0
 40
0.0
  0
LTYPE
  5
6C
330
5
100
AcDbSymbolTableRecord
100
AcDbLinetypeTableRecord
  2
DASHDOT
 70
     0
  3

 72
    65
 73
     4
 40
5.499999999999999
 49
4.0
 74
     0
 49
-0.6
 74
     0
 49
0.3
 74
     0
 49
-0.6
 74
     0
  0
LTYPE
  5
6D
330
5
100
AcDbSymbolTableRecord
100
AcDbLinetypeTableRecord
  2
CENTER
 70
     0
  3

 72
    65
 73
     4
 40
0.7749999999999999
 49
0.375
 74
     0
 49
-0.075
 74
     0
 49
0.25
 74
     0
 49
-0.075
 74
     0
  0
LTYPE
  5
6E
330
5
100
AcDbSymbolTableRecord
100
AcDbLinetypeTableRecord
  2
PHANTOM
 70
     0
  3

 72
    65
 73
     6
 40
1.1
 49
0.45
 74
     0
 49
-0.05
 74
     0
 49
0.25
 74
     0
 49
-0.05
 74
     0
 49
0.25
 74
     0
 49
-0.05
 74
     0
  0
ENDTAB
  0
TABLE
  2
LAYER
  5
2
330
0
100
AcDbSymbolTable
 70
    12
  0
LAYER
  5
10
330
2
100
AcDbSymbolTableRecord
100
AcDbLayerTableRecord
  2
0
 70
     0
 62
   250
  6
Continuous
370
    25
390
F
  0
LAYER
  5
6F
330
2
100
AcDbSymbolTableRecord
100
AcDbLayerTableRecord
  2
SIZE
 70
     0
 62
    32
  6
Continuous
370
    25
390
F
  0
LAYER
  5
70
330
2
100
AcDbSymbolTableRecord
100
AcDbLayerTableRecord
  2
DETAIL
 70
     0
 62
     5
  6
Continuous
370
    25
390
F
  0
LAYER
  5
71
330
2
100
AcDbSymbolTableRecord
100
AcDbLayerTableRecord
  2
OUTLINE
 70
     0
 62
     3
  6
Continuous
370
    25
390
F
  0
LAYER
  5
72
330
2
100
AcDbSymbolTableRecord
100
AcDbLayerTableRecord
  2
BASIS
 70
     0
 62
     6
  6
Continuous
370
    25
390
F
  0
LAYER
  5
73
330
2
100
AcDbSymbolTableRecord
100
AcDbLayerTableRecord
  2
NOTE
 70
     0
 62
     4
  6
Continuous
370
    25
390
F
  0
LAYER
  5
74
330
2
100
AcDbSymbolTableRecord
100
AcDbLayerTableRecord
  2
ARRANGE
 70
     0
 62
     1
  6
Continuous
370
    25
390
F
  0
LAYER
  5
75
330
2
100
AcDbSymbolTableRecord
100
AcDbLayerTableRecord
  2
ETC
 70
     0
 62
    83
  6
Continuous
370
    25
390
F
  0
LAYER
  5
76
330
2
100
AcDbSymbolTableRecord
100
AcDbLayerTableRecord
  2
DEFPOINTS
 70
     0
 62
   250
  6
Continuous
290
     0
370
    25
390
F
  0
LAYER
  5
77
330
2
100
AcDbSymbolTableRecord
100
AcDbLayerTableRecord
  2
DEFAULT_1
 70
     0
 62
   250
  6
CENTER
370
    25
390
F
  0
LAYER
  5
78
330
2
100
AcDbSymbolTableRecord
100
AcDbLayerTableRecord
  2
DEFAULT_3
 70
     0
 62
   250
  6
PHANTOM
370
    25
390
F
  0
LAYER
  5
79
330
2
100
AcDbSymbolTableRecord
100
AcDbLayerTableRecord
  2
rcviewportframe
 70
     0
 62
    -7
  6
Continuous
370
    -3
390
F
  0
ENDTAB
  0
TABLE
  2
STYLE
  5
3
330
0
100
AcDbSymbolTable
 70
     5
  0
STYLE
  5
11
330
3
100
AcDbSymbolTableRecord
100
AcDbTextStyleTableRecord
  2
Standard
 70
     0
 40
0.0
 41
1.0
 50
0.0
 71
     0
 42
0.2
  3
txt.shx
  4
extfont
  0
STYLE
  5
7A
330
3
100
AcDbSymbolTableRecord
100
AcDbTextStyleTableRecord
  2
MS PGothic
 70
     0
 40
0.0
 41
1.0
 50
0.0
 71
     0
 42
0.2
  3
MS PGothic.ttf
  4

1001
ACAD
1000
ＭＳ Ｐゴシック
1071
    32818
  0
STYLE
  5
7B
330
3
100
AcDbSymbolTableRecord
100
AcDbTextStyleTableRecord
  2
VERTICAL
 70
     4
 40
0.0
 41
1.0
 50
0.0
 71
     0
 42
0.2
  3
txt.shx
  4
extfont
  0
STYLE
  5
7C
330
3
100
AcDbSymbolTableRecord
100
AcDbTextStyleTableRecord
  2
VERTICAL MS PGothic
 70
     0
 40
0.0
 41
1.0
 50
0.0
 71
     0
 42
0.2
  3
MS PGothic.ttf
  4

1001
ACAD
1000
@ＭＳ Ｐゴシック
1071
    32818
  0
STYLE
  5
190
330
3
100
AcDbSymbolTableRecord
100
AcDbTextStyleTableRecord
  2
MS PGothic w9
 70
     0
 40
0.0
 41
0.9
 50
0.0
 71
     0
 42
0.2
  3
MS PGothic.ttf
  4
extfont
1001
ACAD
1000
ＭＳ Ｐゴシック
1071
    32818
  0
ENDTAB
  0
TABLE
  2
VIEW
  5
6
330
0
100
AcDbSymbolTable
 70
     0
  0
ENDTAB
  0
TABLE
  2
UCS
  5
7
330
0
100
AcDbSymbolTable
 70
     0
  0
ENDTAB
  0
TABLE
  2
APPID
  5
9
330
0
100
AcDbSymbolTable
 70
     6
  0
APPID
  5
12
330
9
100
AcDbSymbolTableRecord
100
AcDbRegAppTableRecord
  2
ACAD
 70
     0
  0
APPID
  5
6A
330
9
100
AcDbSymbolTableRecord
100
AcDbRegAppTableRecord
  2
RootPro CAD
 70
     0
  0
APPID
  5
38E
330
9
100
AcDbSymbolTableRecord
100
AcDbRegAppTableRecord
  2
ACAD_DSTYLE_DIM_LINETYPE
 70
     0
  0
APPID
  5
38F
330
9
100
AcDbSymbolTableRecord
100
AcDbRegAppTableRecord
  2
ACAD_DSTYLE_DIM_EXT1_LINETYPE
 70
     0
  0
APPID
  5
390
330
9
100
AcDbSymbolTableRecord
100
AcDbRegAppTableRecord
  2
ACAD_DSTYLE_DIMFLIPARROW_SYMBOL
 70
     0
  0
APPID
  5
391
330
9
100
AcDbSymbolTableRecord
100
AcDbRegAppTableRecord
  2
ACAD_DSTYLE_DIMFLIPARROW_WHICH_SYMBOL
 70
     0
  0
ENDTAB
  0
TABLE
  2
DIMSTYLE
  5
A
330
0
100
AcDbSymbolTable
 70
     1
100
AcDbDimStyleTable
  0
DIMSTYLE
105
27
102
{ACAD_REACTORS
330
196
330
1A0
330
1AB
330
1B8
330
1C3
330
1CE
102
}
330
A
100
AcDbSymbolTableRecord
100
AcDbDimStyleTableRecord
  2
Standard
 70
     0
178
     0
340
11
  0
ENDTAB
  0
TABLE
  2
BLOCK_RECORD
  5
1
330
0
100
AcDbSymbolTable
 70
    10
  0
BLOCK_RECORD
  5
1F
330
1
100
AcDbSymbolTableRecord
100
AcDbBlockTableRecord
  2
*Model_Space
340
22
  0
BLOCK_RECORD
  5
1B
330
1
100
AcDbSymbolTableRecord
100
AcDbBlockTableRecord
  2
*Paper_Space
340
1E
  0
BLOCK_RECORD
  5
7D
330
1
100
AcDbSymbolTableRecord
100
AcDbBlockTableRecord
  2
_FILLED
340
0
  0
BLOCK_RECORD
  5
81
330
1
100
AcDbSymbolTableRecord
100
AcDbBlockTableRecord
  2
A$C314F6CBE
340
0
  0
BLOCK_RECORD
  5
191
330
1
100
AcDbSymbolTableRecord
100
AcDbBlockTableRecord
  2
_ORIGIN
340
0
  0
BLOCK_RECORD
  5
197
330
1
100
AcDbSymbolTableRecord
100
AcDbBlockTableRecord
  2
*D4
340
0
  0
BLOCK_RECORD
  5
1A1
330
1
100
AcDbSymbolTableRecord
100
AcDbBlockTableRecord
  2
*D5
340
0
  0
BLOCK_RECORD
  5
1AC
330
1
100
AcDbSymbolTableRecord
100
AcDbBlockTableRecord
  2
*D6
340
0
  0
BLOCK_RECORD
  5
1B9
330
1
100
AcDbSymbolTableRecord
100
AcDbBlockTableRecord
  2
*D7
340
0
  0
BLOCK_RECORD
  5
1C4
330
1
100
AcDbSymbolTableRecord
100
AcDbBlockTableRecord
  2
*D8
340
0
  0
BLOCK_RECORD
  5
1CF
330
1
100
AcDbSymbolTableRecord
100
AcDbBlockTableRecord
  2
*D9
340
0
  0
ENDTAB
  0
ENDSEC
  0
SECTION
  2
BLOCKS
  0
BLOCK
  5
20
330
1F
100
AcDbEntity
  8
0
100
AcDbBlockBegin
  2
*Model_Space
 70
     0
 10
0.0
 20
0.0
 30
0.0
  3
*Model_Space
  1
*Model_Space
  0
ENDBLK
  5
21
330
1F
100
AcDbEntity
  8
0
100
AcDbBlockEnd
  0
BLOCK
  5
1C
330
1B
100
AcDbEntity
 67
     1
  8
0
100
AcDbBlockBegin
  2
*Paper_Space
 70
     0
 10
0.0
 20
0.0
 30
0.0
  3
*Paper_Space
  1
*Paper_Space
  0
ENDBLK
  5
1D
330
1B
100
AcDbEntity
 67
     1
  8
0
100
AcDbBlockEnd
  0
BLOCK
  5
7E
330
7D
100
AcDbEntity
  8
0
100
AcDbBlockBegin
  2
_FILLED
 70
     0
 10
0.0
 20
0.0
 30
0.0
  3
_FILLED
  1
_FILLED
  0
HATCH
  5
80
330
7D
100
AcDbEntity
  8
0
100
AcDbHatch
 10
0.0
 20
0.0
 30
0.0
210
0.0
220
0.0
230
1.0
  2
SOLID
 70
     1
 71
     1
 91
        1
 92
        1
 93
        3
 72
     1
 10
0.0
 20
0.0
 11
-1.0
 21
0.2142857143
 72
     1
 10
-1.0
 20
0.2142857143
 11
-1.0
 21
-0.2142857143
 72
     1
 10
-1.0
 20
-0.2142857143
 11
0.0
 21
0.0
 97
        0
 75
     1
 76
     1
 98
        1
 10
0.0
 20
0.0
  0
ENDBLK
  5
7F
330
7D
100
AcDbEntity
  8
0
100
AcDbBlockEnd
  0
BLOCK
  5
82
330
81
100
AcDbEntity
  8
0
100
AcDbBlockBegin
  2
A$C314F6CBE
 70
     0
 10
0.0
 20
0.0
 30
0.0
  3
A$C314F6CBE
  1
A$C314F6CBE
  0
LINE
  5
84
330
81
100
AcDbEntity
  8
0
  6
Continuous
 62
   250
100
AcDbLine
 10
259.2634691604184
 20
19.30723238796189
 30
0.0
 11
259.2947165857184
 21
18.41242317736191
 31
0.0
  0
LINE
  5
85
330
81
100
AcDbEntity
  8
0
  6
Continuous
 62
   250
100
AcDbLine
 10
2.923184537718383
 20
0.1999988986618746
 30
0.0
 11
2.917948017718343
 21
0.4999988986618861
 31
0.0
  0
LINE
  5
86
330
81
100
AcDbEntity
  8
0
  6
Continuous
 62
     3
100
AcDbLine
 10
-0.0000006795816034
 20
8.056292911961918
 30
0.0
 11
-0.0000006795816034
 21
227.1999988986619
 31
0.0
  0
LINE
  5
87
330
81
100
AcDbEntity
  8
0
  6
Continuous
 62
   250
100
AcDbLine
 10
2.999999320418396
 20
2.746842578661869
 30
0.0
 11
2.999999320418396
 21
4.656263554661903
 31
0.0
  0
LINE
  5
88
330
81
100
AcDbEntity
  8
0
  6
Continuous
 62
   250
100
AcDbLine
 10
2.999999320418396
 20
229.3135329839619
 30
0.0
 11
2.999999320418396
 21
231.0258181079619
 31
0.0
  0
LINE
  5
89
330
81
100
AcDbEntity
  8
0
  6
Continuous
 62
   250
100
AcDbLine
 10
2.999999320418396
 20
237.6913475293619
 30
0.0
 11
2.999999320418396
 21
238.7086502666619
 31
0.0
  0
LINE
  5
8A
330
81
100
AcDbEntity
  8
0
  6
Continuous
 62
   250
100
AcDbLine
 10
4.999999320418396
 20
11.15951651066189
 30
0.0
 11
4.999999320418396
 21
12.75875466266191
 31
0.0
  0
LINE
  5
8B
330
81
100
AcDbEntity
  8
0
  6
Continuous
 62
   250
100
AcDbLine
 10
4.999999320418396
 20
90.19999889866187
 30
0.0
 11
4.999999320418396
 21
242.1999988986619
 31
0.0
  0
LINE
  5
8C
330
81
100
AcDbEntity
  8
0
  6
Continuous
 62
   250
100
AcDbLine
 10
4.999999320418396
 20
90.02705218796189
 30
0.0
 11
4.999999320418396
 21
89.99999889866189
 31
0.0
  0
LINE
  5
8D
330
81
100
AcDbEntity
  8
0
  6
Continuous
 62
   250
100
AcDbLine
 10
4.999999320418396
 20
77.67682459066191
 30
0.0
 11
4.999999320418396
 21
76.02317320536191
 31
0.0
  0
LINE
  5
8E
330
81
100
AcDbEntity
  8
0
  6
Continuous
 62
   250
100
AcDbLine
 10
5.005235839118313
 20
90.02443412796187
 30
0.0
 11
5.005235839118313
 21
77.68730082266191
 31
0.0
  0
LINE
  5
8F
330
81
100
AcDbEntity
  8
0
  6
Continuous
 62
   250
100
AcDbLine
 10
5.005235839118313
 20
76.0126969746619
 30
0.0
 11
5.005235839118313
 21
25.04571780536191
 31
0.0
  0
LINE
  5
90
330
81
100
AcDbEntity
  8
0
  6
Continuous
 62
   250
100
AcDbLine
 10
5.005235839118313
 20
11.15427999196191
 30
0.0
 11
5.005235839118313
 21
10.42667600536191
 31
0.0
  0
LINE
  5
91
330
81
100
AcDbEntity
  8
0
  6
Continuous
 62
   250
100
AcDbLine
 10
10.00523583911831
 20
13.15397538266191
 30
0.0
 11
10.00523583911831
 21
23.04602241466191
 31
0.0
  0
LINE
  5
92
330
81
100
AcDbEntity
  8
0
  6
Continuous
 62
   250
100
AcDbLine
 10
41.91269739641835
 20
57.59999889866188
 30
0.0
 11
41.91269739641835
 21
27.59999889866188
 31
0.0
  0
LINE
  5
93
330
81
100
AcDbEntity
  8
0
  6
Continuous
 62
   250
100
AcDbLine
 10
43.58730124441831
 20
27.59999889866188
 30
0.0
 11
43.58730124441831
 21
57.59999889866188
 31
0.0
  0
LINE
  5
94
330
81
100
AcDbEntity
  8
0
  6
Continuous
 62
   250
100
AcDbLine
 10
48.01396404711841
 20
5.199998898661873
 30
0.0
 11
48.01396404711841
 21
90.02443412796187
 31
0.0
  0
LINE
  5
95
330
81
100
AcDbEntity
  8
0
  6
Continuous
 62
   250
100
AcDbLine
 10
48.01396404711841
 20
90.19999889866187
 30
0.0
 11
48.01396404711841
 21
245.1999988986619
 31
0.0
  0
LINE
  5
96
330
81
100
AcDbEntity
  8
0
  6
Continuous
 62
   250
100
AcDbLine
 10
54.48603459241836
 20
248.1999988986619
 30
0.0
 11
54.48603459241836
 21
90.19999889866187
 31
0.0
  0
LINE
  5
97
330
81
100
AcDbEntity
  8
0
  6
Continuous
 62
   250
100
AcDbLine
 10
54.48603459241836
 20
89.96334605336192
 30
0.0
 11
54.48603459241836
 21
2.199998898661874
 31
0.0
  0
LINE
  5
98
330
81
100
AcDbEntity
  8
0
  6
Continuous
 62
   250
100
AcDbLine
 10
66.9999993204184
 20
90.19999889866187
 30
0.0
 11
66.9999993204184
 21
250.1999988986619
 31
0.0
  0
LINE
  5
99
330
81
100
AcDbEntity
  8
0
  6
Continuous
 62
   250
100
AcDbLine
 10
68.49999932041838
 20
91.42344574796188
 30
0.0
 11
68.49999932041838
 21
250.3999988986619
 31
0.0
  0
LINE
  5
9A
330
81
100
AcDbEntity
  8
0
  6
Continuous
 62
   250
100
AcDbLine
 10
86.9999993204184
 20
2.199998898661874
 30
0.0
 11
86.9999993204184
 21
86.06835486796189
 31
0.0
  0
LINE
  5
9B
330
81
100
AcDbEntity
  8
0
  6
Continuous
 62
   250
100
AcDbLine
 10
88.4999993204184
 20
-0.000001101338114
 30
0.0
 11
88.4999993204184
 21
86.1049496119619
 31
0.0
  0
LINE
  5
9C
330
81
100
AcDbEntity
  8
0
  6
Continuous
 62
   250
100
AcDbLine
 10
298.4999993204183
 20
42.58607262936189
 30
0.0
 11
298.4999993204183
 21
235.7488989066619
 31
0.0
  0
LINE
  5
9D
330
81
100
AcDbEntity
  8
0
  6
Continuous
 62
   250
100
AcDbLine
 10
299.9999993204184
 20
237.0375636399619
 30
0.0
 11
299.9999993204184
 21
46.47191975996189
 31
0.0
  0
LINE
  5
9E
330
81
100
AcDbEntity
  8
0
  6
Continuous
 62
   250
100
AcDbLine
 10
301.4999993204183
 20
45.52903289466192
 30
0.0
 11
301.4999993204183
 21
237.9659269373619
 31
0.0
  0
LINE
  5
9F
330
81
100
AcDbEntity
  8
0
  6
Continuous
 62
   250
100
AcDbLine
 10
314.9999993204184
 20
233.0374276453619
 30
0.0
 11
314.9999993204184
 21
55.30501429066188
 31
0.0
  0
LINE
  5
A0
330
81
100
AcDbEntity
  8
0
  6
Continuous
 62
   250
100
AcDbLine
 10
275.2039399644183
 20
14.46631398796188
 30
0.0
 11
275.2025227177183
 21
14.30391361066191
 31
0.0
  0
LINE
  5
A1
330
81
100
AcDbEntity
  8
0
  6
Continuous
 62
   250
100
AcDbLine
 10
28.68158732171844
 20
250.3999988986619
 30
0.0
 11
28.67460316711845
 21
250.1999988986619
 31
0.0
  0
LINE
  5
A2
330
81
100
AcDbEntity
  8
0
  6
Continuous
 62
   250
100
AcDbLine
 10
283.1508358937183
 20
31.17141579866189
 30
0.0
 11
282.9820501164184
 21
26.3380235279619
 31
0.0
  0
LINE
  5
A3
330
81
100
AcDbEntity
  8
0
  6
Continuous
 62
   250
100
AcDbLine
 10
281.5146190137184
 20
18.41168877466191
 30
0.0
 11
281.7789613604183
 21
24.50305370536191
 31
0.0
  0
LINE
  5
A4
330
81
100
AcDbEntity
  8
0
  6
Continuous
 62
   250
100
AcDbLine
 10
281.5129844204183
 20
18.37811872136188
 30
0.0
 11
281.5147439497184
 21
18.41226691336189
 31
0.0
  0
LINE
  5
A5
330
81
100
AcDbEntity
  8
0
  6
Continuous
 62
   250
100
AcDbLine
 10
281.5120307631184
 20
18.36407199596189
 30
0.0
 11
281.5147212724184
 21
18.41168672536189
 31
0.0
  0
LINE
  5
A6
330
81
100
AcDbEntity
  8
0
  6
Continuous
 62
   250
100
AcDbLine
 10
282.9808994977184
 20
26.32024603466192
 30
0.0
 11
282.9820495631184
 21
26.33802355066189
 31
0.0
  0
LINE
  5
A7
330
81
100
AcDbEntity
  8
0
  6
Continuous
 62
   250
100
AcDbLine
 10
281.7789613604183
 20
24.50305370536191
 30
0.0
 11
281.7950065991184
 21
24.6948306759619
 31
0.0
  0
LINE
  5
A8
330
81
100
AcDbEntity
  8
0
  6
Continuous
 62
   250
100
AcDbLine
 10
281.4841347857184
 20
18.16498259066191
 30
0.0
 11
281.5120307631184
 21
18.36407199596189
 31
0.0
  0
LINE
  5
A9
330
81
100
AcDbEntity
  8
0
  6
Continuous
 62
   250
100
AcDbLine
 10
311.4219601057184
 20
50.81272177336192
 30
0.0
 11
311.6137641791184
 21
52.15500515596186
 31
0.0
  0
LINE
  5
AA
330
81
100
AcDbEntity
  8
0
  6
Continuous
 62
   250
100
AcDbLine
 10
281.7950065991184
 20
24.6948306759619
 30
0.0
 11
281.8234690884184
 21
24.88596772666193
 31
0.0
  0
LINE
  5
AB
330
81
100
AcDbEntity
  8
0
  6
Continuous
 62
   250
100
AcDbLine
 10
311.4175342617183
 20
50.7844456013619
 30
0.0
 11
311.4219836351184
 21
50.81268200936189
 31
0.0
  0
LINE
  5
AC
330
81
100
AcDbEntity
  8
0
  6
Continuous
 62
   250
100
AcDbLine
 10
282.9694057631183
 20
26.26170970536191
 30
0.0
 11
282.9808994977184
 21
26.32024603466192
 31
0.0
  0
LINE
  5
AD
330
81
100
AcDbEntity
  8
0
  6
Continuous
 62
   250
100
AcDbLine
 10
281.8234690884184
 20
24.88596772666193
 30
0.0
 11
281.8631879404184
 21
25.0689537106619
 31
0.0
  0
LINE
  5
AE
330
81
100
AcDbEntity
  8
0
  6
Continuous
 62
   250
100
AcDbLine
 10
311.3980984057184
 20
50.69584793196191
 30
0.0
 11
311.4175342617183
 21
50.7844456013619
 31
0.0
  0
LINE
  5
AF
330
81
100
AcDbEntity
  8
0
  6
Continuous
 62
   250
100
AcDbLine
 10
4.735459533718311
 20
9.176824590661909
 30
0.0
 11
4.292364980418368
 21
7.523173205361898
 31
0.0
  0
LINE
  5
B0
330
81
100
AcDbEntity
  8
0
  6
Continuous
 62
   250
100
AcDbLine
 10
3.675293544418308
 20
5.199998898661873
 30
0.0
 11
4.294979127118381
 21
7.512696974661934
 31
0.0
  0
LINE
  5
B1
330
81
100
AcDbEntity
  8
0
  6
Continuous
 62
   250
100
AcDbLine
 10
4.743687875118325
 20
9.18730082266191
 30
0.0
 11
4.937097871118338
 21
9.9091167533619
 31
0.0
  0
LINE
  5
B2
330
81
100
AcDbEntity
  8
0
  6
Continuous
 62
   250
100
AcDbLine
 10
281.4291774377183
 20
17.9684825599619
 30
0.0
 11
281.4841347857184
 21
18.16498259066191
 31
0.0
  0
LINE
  5
B3
330
81
100
AcDbEntity
  8
0
  6
Continuous
 62
   250
100
AcDbLine
 10
281.8631879404184
 20
25.0689537106619
 30
0.0
 11
281.9116523137184
 21
25.23825835866188
 31
0.0
  0
LINE
  5
B4
330
81
100
AcDbEntity
  8
0
  6
Continuous
 62
   250
100
AcDbLine
 10
311.3707145711184
 20
50.60937582936189
 30
0.0
 11
311.3980984057184
 21
50.69584793196191
 31
0.0
  0
LINE
  5
B5
330
81
100
AcDbEntity
  8
0
  6
Continuous
 62
   250
100
AcDbLine
 10
281.9116523137184
 20
25.23825835866188
 30
0.0
 11
281.9659559364183
 21
25.3893155559619
 31
0.0
  0
LINE
  5
B6
330
81
100
AcDbEntity
  8
0
  6
Continuous
 62
   250
100
AcDbLine
 10
282.9470584737184
 20
26.2075427026619
 30
0.0
 11
282.9694057631183
 21
26.26170970536191
 31
0.0
  0
LINE
  5
B7
330
81
100
AcDbEntity
  8
0
  6
Continuous
 62
   250
100
AcDbLine
 10
311.3356080537184
 20
50.52574072396192
 30
0.0
 11
311.3707145711184
 21
50.60937582936189
 31
0.0
  0
LINE
  5
B8
330
81
100
AcDbEntity
  8
0
  6
Continuous
 62
   250
100
AcDbLine
 10
281.3472551724184
 20
17.77813014936188
 30
0.0
 11
281.4291774377183
 21
17.9684825599619
 31
0.0
  0
LINE
  5
B9
330
81
100
AcDbEntity
  8
0
  6
Continuous
 62
   250
100
AcDbLine
 10
281.9659559364183
 20
25.3893155559619
 30
0.0
 11
282.0232565884183
 21
25.51876293466191
 31
0.0
  0
LINE
  5
BA
330
81
100
AcDbEntity
  8
0
  6
Continuous
 62
   250
100
AcDbLine
 10
311.2930676884184
 20
50.44563070536191
 30
0.0
 11
311.3356080537184
 21
50.52574072396192
 31
0.0
  0
LINE
  5
BB
330
81
100
AcDbEntity
  8
0
  6
Continuous
 62
   250
100
AcDbLine
 10
282.0232565884183
 20
25.51876293466191
 30
0.0
 11
282.0397665255184
 21
25.5493868012619
 31
0.0
  0
LINE
  5
BC
330
81
100
AcDbEntity
  8
0
  6
Continuous
 62
   250
100
AcDbLine
 10
281.2390912924184
 20
17.59773027336189
 30
0.0
 11
281.3472551724184
 21
17.77813014936188
 31
0.0
  0
LINE
  5
BD
330
81
100
AcDbEntity
  8
0
  6
Continuous
 62
   250
100
AcDbLine
 10
311.2434434657184
 20
50.3697048613619
 30
0.0
 11
311.2930676884184
 21
50.44563070536191
 31
0.0
  0
LINE
  5
BE
330
81
100
AcDbEntity
  8
0
  6
Continuous
 62
   250
100
AcDbLine
 10
282.9153993444183
 20
26.15972602796188
 30
0.0
 11
282.9470584737184
 21
26.2075427026619
 31
0.0
  0
LINE
  5
BF
330
81
100
AcDbEntity
  8
0
  6
Continuous
 62
   250
100
AcDbLine
 10
4.999999320418396
 20
234.0397635159619
 30
0.0
 11
3.090423297718416
 21
231.3126063253619
 31
0.0
  0
LINE
  5
C0
330
81
100
AcDbEntity
  8
0
  6
Continuous
 62
   250
100
AcDbLine
 10
12.68994005971831
 20
84.4243923613619
 30
0.0
 11
15.19999932041833
 21
88.00912849196192
 31
0.0
  0
LINE
  5
C1
330
81
100
AcDbEntity
  8
0
  6
Continuous
 62
   250
100
AcDbLine
 10
55.6606677141184
 20
84.46402853416191
 30
0.0
 11
58.17072697481842
 21
88.0487646647619
 31
0.0
  0
LINE
  5
C2
330
81
100
AcDbEntity
  8
0
  6
Continuous
 62
   250
100
AcDbLine
 10
4.743687875118325
 20
9.18730082266191
 30
0.0
 11
4.735459533718311
 21
9.176824590661909
 31
0.0
  0
LINE
  5
C3
330
81
100
AcDbEntity
  8
0
  6
Continuous
 62
   250
100
AcDbLine
 10
311.1871356457184
 20
50.29857942796191
 30
0.0
 11
311.2434370351183
 21
50.3696967386619
 31
0.0
  0
LINE
  5
C4
330
81
100
AcDbEntity
  8
0
  6
Continuous
 62
   250
100
AcDbLine
 10
281.1060631004183
 20
17.43083366536192
 30
0.0
 11
281.2390912924184
 21
17.59773027336189
 31
0.0
  0
LINE
  5
C5
330
81
100
AcDbEntity
  8
0
  6
Continuous
 62
   250
100
AcDbLine
 10
275.1355761657184
 20
14.1175909186619
 30
0.0
 11
274.8755770831184
 21
13.79690423996189
 31
0.0
  0
LINE
  5
C6
330
81
100
AcDbEntity
  8
0
  6
Continuous
 62
   250
100
AcDbLine
 10
4.999999320418396
 20
242.1999988986619
 30
0.0
 11
12.9999993204184
 21
250.1999988986619
 31
0.0
  0
LINE
  5
C7
330
81
100
AcDbEntity
  8
0
  6
Continuous
 62
   250
100
AcDbLine
 10
5.999847015118347
 20
24.04063359066191
 30
0.0
 11
6.005083535118387
 21
24.04587010936189
 31
0.0
  0
LINE
  5
C8
330
81
100
AcDbEntity
  8
0
  6
Continuous
 62
   250
100
AcDbLine
 10
9.005388144418362
 20
24.04587010936189
 30
0.0
 11
9.000151624418322
 21
24.04063359066191
 31
0.0
  0
LINE
  5
C9
330
81
100
AcDbEntity
  8
0
  6
Continuous
 62
   250
100
AcDbLine
 10
10.00523583911831
 20
23.04602241466191
 30
0.0
 11
9.999999320418397
 21
23.04078589466192
 31
0.0
  0
LINE
  5
CA
330
81
100
AcDbEntity
  8
0
  6
Continuous
 62
   250
100
AcDbLine
 10
87.02219102441833
 20
87.97345627866191
 30
0.0
 11
87.0190404404184
 21
87.97057270266193
 31
0.0
  0
LINE
  5
CB
330
81
100
AcDbEntity
  8
0
  6
Continuous
 62
   250
100
AcDbLine
 10
87.02539994971833
 20
87.9761991119619
 30
0.0
 11
87.02219102441833
 21
87.97345627866191
 31
0.0
  0
LINE
  5
CC
330
81
100
AcDbEntity
  8
0
  6
Continuous
 62
   250
100
AcDbLine
 10
87.02866624571845
 20
87.9787993413619
 30
0.0
 11
87.02539994971833
 21
87.9761991119619
 31
0.0
  0
LINE
  5
CD
330
81
100
AcDbEntity
  8
0
  6
Continuous
 62
   250
100
AcDbLine
 10
87.0319928297183
 20
87.98126254936192
 30
0.0
 11
87.02866624571845
 21
87.9787993413619
 31
0.0
  0
LINE
  5
CE
330
81
100
AcDbEntity
  8
0
  6
Continuous
 62
   250
100
AcDbLine
 10
301.4999993204183
 20
45.52903289466192
 30
0.0
 11
302.4229829017183
 21
45.6097834946619
 31
0.0
  0
LINE
  5
CF
330
81
100
AcDbEntity
  8
0
  6
Continuous
 62
   250
100
AcDbLine
 10
188.8998266511183
 20
3.506038125361896
 30
0.0
 11
88.4999993204184
 21
-0.000001101338114
 31
0.0
  0
LINE
  5
D0
330
81
100
AcDbEntity
  8
0
  6
Continuous
 62
   250
100
AcDbLine
 10
2.923184537718383
 20
0.1999988986618746
 30
0.0
 11
87.01745305511837
 21
0.1999988986618746
 31
0.0
  0
LINE
  5
D1
330
81
100
AcDbEntity
  8
0
  6
Continuous
 62
   250
100
AcDbLine
 10
4.294979127118381
 20
7.512696974661934
 30
0.0
 11
23.4999993204184
 21
7.512696974661934
 31
0.0
  0
LINE
  5
D2
330
81
100
AcDbEntity
  8
0
  6
Continuous
 62
   250
100
AcDbLine
 10
4.743687875118325
 20
9.18730082266191
 30
0.0
 11
23.4999993204184
 21
9.18730082266191
 31
0.0
  0
LINE
  5
D3
330
81
100
AcDbEntity
  8
0
  6
Continuous
 62
   250
100
AcDbLine
 10
6.005083535118387
 20
12.15412768666192
 30
0.0
 11
9.005388144418362
 21
12.15412768666192
 31
0.0
  0
LINE
  5
D4
330
81
100
AcDbEntity
  8
0
  6
Continuous
 62
   250
100
AcDbLine
 10
9.000151624418322
 20
13.75936420666193
 30
0.0
 11
5.999847015118347
 21
13.75936420666193
 31
0.0
  0
LINE
  5
D5
330
81
100
AcDbEntity
  8
0
  6
Continuous
 62
   250
100
AcDbLine
 10
259.2947165857184
 20
18.41242317736191
 30
0.0
 11
281.4833412497184
 21
18.41242317736191
 31
0.0
  0
LINE
  5
D6
330
81
100
AcDbEntity
  8
0
  6
Continuous
 62
   250
100
AcDbLine
 10
6.005083535118387
 20
24.04587010936189
 30
0.0
 11
9.005388144418362
 21
24.04587010936189
 31
0.0
  0
LINE
  5
D7
330
81
100
AcDbEntity
  8
0
  6
Continuous
 62
   250
100
AcDbLine
 10
5.005235839118313
 20
76.0126969746619
 30
0.0
 11
23.4999993204184
 21
76.0126969746619
 31
0.0
  0
LINE
  5
D8
330
81
100
AcDbEntity
  8
0
  6
Continuous
 62
   250
100
AcDbLine
 10
5.005235839118313
 20
77.68730082266191
 30
0.0
 11
23.4999993204184
 21
77.68730082266191
 31
0.0
  0
LINE
  5
D9
330
81
100
AcDbEntity
  8
0
  6
Continuous
 62
   250
100
AcDbLine
 10
17.71005858041838
 20
84.4243923613619
 30
0.0
 11
12.68994006041839
 21
84.4243923613619
 31
0.0
  0
LINE
  5
DA
330
81
100
AcDbEntity
  8
0
  6
Continuous
 62
   250
100
AcDbLine
 10
60.68078623481835
 20
84.46402853416191
 30
0.0
 11
55.66066771481836
 21
84.46402853416191
 31
0.0
  0
LINE
  5
DB
330
81
100
AcDbEntity
  8
0
  6
Continuous
 62
   250
100
AcDbLine
 10
66.94666968311833
 20
89.96334605336192
 30
0.0
 11
54.48603459241836
 21
89.96334605336192
 31
0.0
  0
LINE
  5
DC
330
81
100
AcDbEntity
  8
0
  6
Continuous
 62
   250
100
AcDbLine
 10
4.999999320418396
 20
90.02705218796189
 30
0.0
 11
48.01396404711841
 21
90.02443412796187
 31
0.0
  0
LINE
  5
DD
330
81
100
AcDbEntity
  8
0
  6
Continuous
 62
   250
100
AcDbLine
 10
48.80028238711838
 20
90.02109890796189
 30
0.0
 11
53.69971625371841
 21
89.96668127466191
 31
0.0
  0
LINE
  5
DE
330
81
100
AcDbEntity
  8
0
  6
Continuous
 62
   250
100
AcDbLine
 10
281.4833412497184
 20
18.41242317736191
 30
0.0
 11
281.5146277737184
 21
18.41168841066189
 31
0.0
  0
LINE
  5
DF
330
81
100
AcDbEntity
  8
0
  6
Continuous
 62
   250
100
AcDbLine
 10
181.1125207071184
 20
2.274841026661931
 30
0.0
 11
174.7096451897183
 21
2.498434366661911
 31
0.0
  0
LINE
  5
E0
330
81
100
AcDbEntity
  8
0
  6
Continuous
 62
   250
100
AcDbLine
 10
2.956077481718351
 20
2.566415123961916
 30
0.0
 11
2.94969106041833
 21
2.566669839961889
 31
0.0
  0
LINE
  5
E1
330
81
100
AcDbEntity
  8
0
  6
Continuous
 62
   250
100
AcDbLine
 10
300.6633641511184
 20
45.77287908536192
 30
0.0
 11
301.4999993204183
 21
45.7290328946619
 31
0.0
  0
LINE
  5
E2
330
81
100
AcDbEntity
  8
0
  6
Continuous
 62
   250
100
AcDbLine
 10
84.15711544171836
 20
89.0641293986619
 30
0.0
 11
67.05133760971829
 21
89.9606052279619
 31
0.0
  0
LINE
  5
E3
330
81
100
AcDbEntity
  8
0
  6
Continuous
 62
   250
100
AcDbLine
 10
68.49999932041838
 20
91.42344574796188
 30
0.0
 11
84.23551112311839
 21
90.59878251866186
 31
0.0
  0
LINE
  5
E4
330
81
100
AcDbEntity
  8
0
  6
Continuous
 62
   250
100
AcDbLine
 10
87.58720812311834
 20
1.439256205361914
 30
0.0
 11
86.9999993204184
 21
1.49066183466192
 31
0.0
  0
LINE
  5
E5
330
81
100
AcDbEntity
  8
0
  6
Continuous
 62
   250
100
AcDbLine
 10
299.9999993204184
 20
234.2830639173619
 30
0.0
 11
298.9371843084184
 21
234.4176517106619
 31
0.0
  0
LINE
  5
E6
330
81
100
AcDbEntity
  8
0
  6
Continuous
 62
   250
100
AcDbLine
 10
4.931861352418422
 20
9.909806154661908
 30
0.0
 11
4.937097871118338
 21
9.9091167533619
 31
0.0
  0
LINE
  5
E7
330
81
100
AcDbEntity
  8
0
  6
Continuous
 62
   250
100
AcDbLine
 10
4.999999320418396
 20
10.42736540536191
 30
0.0
 11
5.005235839118313
 21
10.42667600536191
 31
0.0
  0
LINE
  5
E8
330
81
100
AcDbEntity
  8
0
  6
Continuous
 62
   250
100
AcDbLine
 10
301.4999993204183
 20
237.9659269373619
 30
0.0
 11
313.4838431111183
 21
234.9780190973619
 31
0.0
  0
LINE
  5
E9
330
81
100
AcDbEntity
  8
0
  6
Continuous
 62
   250
100
AcDbLine
 10
5.005235839118313
 20
90.02443412796187
 30
0.0
 11
4.999999320418396
 21
90.02705218796189
 31
0.0
  0
LINE
  5
EA
330
81
100
AcDbEntity
  8
0
  6
Continuous
 62
   250
100
AcDbLine
 10
174.2146254217184
 20
2.64977709736189
 30
0.0
 11
173.6940924671184
 21
2.975042186661937
 31
0.0
  0
LINE
  5
EB
330
81
100
AcDbEntity
  8
0
  6
Continuous
 62
     3
100
AcDbLine
 10
3.114563497718336
 20
5.12362277996192
 30
0.0
 11
0.7124790057183648
 21
6.725012441361911
 31
0.0
  0
LINE
  5
EC
330
81
100
AcDbEntity
  8
0
  6
Continuous
 62
   250
100
AcDbLine
 10
6.005083535118387
 20
12.15412768666192
 30
0.0
 11
5.999847015118347
 21
12.15936420666193
 31
0.0
  0
LINE
  5
ED
330
81
100
AcDbEntity
  8
0
  6
Continuous
 62
   250
100
AcDbLine
 10
9.005388144418362
 20
12.15412768666192
 30
0.0
 11
9.000151624418322
 21
12.15936420666193
 31
0.0
  0
LINE
  5
EE
330
81
100
AcDbEntity
  8
0
  6
Continuous
 62
   250
100
AcDbLine
 10
10.00523583911831
 20
13.15397538266191
 30
0.0
 11
9.999999320418397
 21
13.15921190136188
 31
0.0
  0
LINE
  5
EF
330
81
100
AcDbEntity
  8
0
  6
Continuous
 62
   250
100
AcDbLine
 10
15.19999932041833
 20
88.00912849196192
 30
0.0
 11
17.71005857711839
 21
84.4243923613619
 31
0.0
  0
LINE
  5
F0
330
81
100
AcDbEntity
  8
0
  6
Continuous
 62
   250
100
AcDbLine
 10
58.17072697481842
 20
88.0487646647619
 30
0.0
 11
60.68078623151836
 21
84.46402853416191
 31
0.0
  0
LINE
  5
F1
330
81
100
AcDbEntity
  8
0
  6
Continuous
 62
   250
100
AcDbLine
 10
298.1383034084184
 20
236.8960517786619
 30
0.0
 11
297.1564683351184
 21
238.2982575826619
 31
0.0
  0
LINE
  5
F2
330
81
100
AcDbEntity
  8
0
  6
Continuous
 62
   250
100
AcDbLine
 10
4.294979127118381
 20
7.512696974661934
 30
0.0
 11
4.292364980418368
 21
7.523173205361898
 31
0.0
  0
LINE
  5
F3
330
81
100
AcDbEntity
  8
DEFAULT_3
  6
PHANTOM
 62
   250
100
AcDbLine
 10
363.6972960457184
 20
253.5781384759619
 30
0.0
 11
363.4786735751184
 21
253.4002867373619
 31
0.0
  0
LINE
  5
F4
330
81
100
AcDbEntity
  8
0
  6
Continuous
 62
   250
100
AcDbLine
 10
4.999999320418396
 20
228.7872742226619
 30
0.0
 11
3.491273116418368
 21
228.8136091373619
 31
0.0
  0
LINE
  5
F5
330
81
100
AcDbEntity
  8
0
  6
Continuous
 62
   250
100
AcDbLine
 10
4.999999320418396
 20
237.1650887679619
 30
0.0
 11
3.491273116418368
 21
237.1914236826619
 31
0.0
  0
LINE
  5
F6
330
81
100
AcDbEntity
  8
0
  6
Continuous
 62
   250
100
AcDbLine
 10
282.8906298057184
 20
26.13269149996191
 30
0.0
 11
282.9153993444183
 21
26.15972602796188
 31
0.0
  0
LINE
  5
F7
330
81
100
AcDbEntity
  8
0
  6
Continuous
 62
   250
100
AcDbLine
 10
87.03538261641837
 20
87.98359431336189
 30
0.0
 11
87.0319928297183
 21
87.98126254936192
 31
0.0
  0
LINE
  5
F8
330
81
100
AcDbEntity
  8
0
  6
Continuous
 62
     3
100
AcDbLine
 10
1.499999320418395
 20
228.6999988986619
 30
0.0
 11
4.999999320418396
 21
228.6999988986619
 31
0.0
  0
LINE
  5
F9
330
81
100
AcDbEntity
  8
0
  6
Continuous
 62
   250
100
AcDbLine
 10
144.7999993204183
 20
249.0681774439619
 30
0.0
 11
68.49999932041838
 21
250.3999988986619
 31
0.0
  0
LINE
  5
FA
330
81
100
AcDbEntity
  8
0
  6
Continuous
 62
   250
100
AcDbLine
 10
311.1246218191184
 20
50.23285632666193
 30
0.0
 11
311.1871356457184
 21
50.29857942796191
 31
0.0
  0
LINE
  5
FB
330
81
100
AcDbEntity
  8
0
  6
Continuous
 62
   250
100
AcDbLine
 10
12.9999993204184
 20
250.1999988986619
 30
0.0
 11
66.9999993204184
 21
250.1999988986619
 31
0.0
  0
LINE
  5
FC
330
81
100
AcDbEntity
  8
0
  6
Continuous
 62
   250
100
AcDbLine
 10
68.50003101641835
 20
250.3999988986619
 30
0.0
 11
28.68158732171844
 21
250.3999988986619
 31
0.0
  0
LINE
  5
FD
330
81
100
AcDbEntity
  8
0
  6
Continuous
 62
   250
100
AcDbLine
 10
282.5653152524184
 20
25.81854220936188
 30
0.0
 11
282.8906282404183
 21
26.13269331066189
 31
0.0
  0
LINE
  5
FE
330
81
100
AcDbEntity
  8
0
  6
Continuous
 62
   250
100
AcDbLine
 10
87.03883463371837
 20
87.98579277466192
 30
0.0
 11
87.03538261641837
 21
87.98359431336189
 31
0.0
  0
LINE
  5
FF
330
81
100
AcDbEntity
  8
0
  6
Continuous
 62
   250
100
AcDbLine
 10
301.4999993204183
 20
237.7659269373619
 30
0.0
 11
300.6755696724184
 21
237.7371372186619
 31
0.0
  0
LINE
  5
100
330
81
100
AcDbEntity
  8
0
  6
Continuous
 62
   250
100
AcDbLine
 10
3.491273116418368
 20
239.2085741146619
 30
0.0
 11
4.999999320418396
 21
239.2349090279619
 31
0.0
  0
LINE
  5
101
330
81
100
AcDbEntity
  8
0
  6
Continuous
 62
   250
100
AcDbLine
 10
280.9501098284183
 20
17.28061919066189
 30
0.0
 11
281.1060631004183
 21
17.43083366536192
 31
0.0
  0
LINE
  5
102
330
81
100
AcDbEntity
  8
0
  6
Continuous
 62
   250
100
AcDbLine
 10
311.0564211991183
 20
50.1730763733619
 30
0.0
 11
311.1258917444184
 21
50.2341897933619
 31
0.0
  0
LINE
  5
103
330
81
100
AcDbEntity
  8
0
  6
Continuous
 62
   250
100
AcDbLine
 10
280.9139311111183
 20
17.25091239466192
 30
0.0
 11
280.9600270964184
 21
17.28905863466193
 31
0.0
  0
LINE
  5
104
330
81
100
AcDbEntity
  8
0
  6
Continuous
 62
   250
100
AcDbLine
 10
303.4523014617184
 20
46.0049018706619
 30
0.0
 11
314.5221773484184
 21
54.34665167866189
 31
0.0
  0
LINE
  5
105
330
81
100
AcDbEntity
  8
0
  6
Continuous
 62
   250
100
AcDbLine
 10
280.8890100991184
 20
17.2323068746619
 30
0.0
 11
280.9139303044183
 21
17.2509117573619
 31
0.0
  0
LINE
  5
106
330
81
100
AcDbEntity
  8
0
  6
Continuous
 62
   250
100
AcDbLine
 10
302.8627917431184
 20
45.6988571933619
 30
0.0
 11
302.5330607151184
 21
45.45818632136189
 31
0.0
  0
LINE
  5
107
330
81
100
AcDbEntity
  8
0
  6
Continuous
 62
   250
100
AcDbLine
 10
280.8609200284184
 20
17.21195989596188
 30
0.0
 11
280.8890100991184
 21
17.2323068746619
 31
0.0
  0
LINE
  5
108
330
81
100
AcDbEntity
  8
0
  6
Continuous
 62
   250
100
AcDbLine
 10
280.2100378977184
 20
16.77024195196191
 30
0.0
 11
280.8611202657184
 21
17.2121028599619
 31
0.0
  0
LINE
  5
109
330
81
100
AcDbEntity
  8
0
  6
Continuous
 62
   250
100
AcDbLine
 10
279.4106257084184
 20
16.28493915196191
 30
0.0
 11
280.2161868751184
 21
16.77441499196192
 31
0.0
  0
LINE
  5
10A
330
81
100
AcDbEntity
  8
0
  6
Continuous
 62
   250
100
AcDbLine
 10
275.2039399644183
 20
14.46631398796188
 30
0.0
 11
275.2287702164184
 21
14.47985926666192
 31
0.0
  0
LINE
  5
10B
330
81
100
AcDbEntity
  8
0
  6
Continuous
 62
   250
100
AcDbLine
 10
278.5852471311184
 20
15.8441970106619
 30
0.0
 11
279.4106257084184
 21
16.28493915196191
 31
0.0
  0
LINE
  5
10C
330
81
100
AcDbEntity
  8
0
  6
Continuous
 62
   250
100
AcDbLine
 10
275.2246867084183
 20
14.4777106173619
 30
0.0
 11
275.3204007377184
 21
14.5263711373619
 31
0.0
  0
LINE
  5
10D
330
81
100
AcDbEntity
  8
0
  6
Continuous
 62
   250
100
AcDbLine
 10
282.2183111124184
 20
25.63427442936188
 30
0.0
 11
282.4888182017184
 21
25.76489454796189
 31
0.0
  0
LINE
  5
10E
330
81
100
AcDbEntity
  8
0
  6
Continuous
 62
   250
100
AcDbLine
 10
282.0397665255184
 20
25.5493868012619
 30
0.0
 11
282.2183111124184
 21
25.63427442936188
 31
0.0
  0
LINE
  5
10F
330
81
100
AcDbEntity
  8
0
  6
Continuous
 62
   250
100
AcDbLine
 10
275.3153314417184
 20
14.52388182666192
 30
0.0
 11
275.4246398231184
 21
14.57589413196191
 31
0.0
  0
LINE
  5
110
330
81
100
AcDbEntity
  8
0
  6
Continuous
 62
   250
100
AcDbLine
 10
277.7364027791183
 20
15.44935063596188
 30
0.0
 11
278.5852471311184
 21
15.8441970106619
 31
0.0
  0
LINE
  5
111
330
81
100
AcDbEntity
  8
0
  6
Continuous
 62
   250
100
AcDbLine
 10
275.4184824471185
 20
14.57305948136189
 30
0.0
 11
275.5419369951184
 21
14.62815400396192
 31
0.0
  0
LINE
  5
112
330
81
100
AcDbEntity
  8
0
  6
Continuous
 62
   250
100
AcDbLine
 10
275.5345724004184
 20
14.6249775439619
 30
0.0
 11
275.6719271551183
 21
14.6824346626619
 31
0.0
  0
LINE
  5
113
330
81
100
AcDbEntity
  8
0
  6
Continuous
 62
   250
100
AcDbLine
 10
276.8665968751184
 20
15.10173135336191
 30
0.0
 11
277.7431947537183
 21
15.45250997466192
 31
0.0
  0
LINE
  5
114
330
81
100
AcDbEntity
  8
0
  6
Continuous
 62
   250
100
AcDbLine
 10
275.6633244617184
 20
14.67894435736193
 30
0.0
 11
275.8140116857184
 21
14.73801356666192
 31
0.0
  0
LINE
  5
115
330
81
100
AcDbEntity
  8
0
  6
Continuous
 62
   250
100
AcDbLine
 10
275.8041879564185
 20
14.7342713786619
 30
0.0
 11
275.9672156391184
 21
14.7940909626619
 31
0.0
  0
LINE
  5
116
330
81
100
AcDbEntity
  8
0
  6
Continuous
 62
   250
100
AcDbLine
 10
275.9562273924184
 20
14.79017833066189
 30
0.0
 11
276.8731071511183
 21
15.10433319596188
 31
0.0
  0
ARC
  5
117
330
81
100
AcDbEntity
  8
0
  6
Continuous
 62
   250
100
AcDbCircle
 10
118.6213896564184
 20
-1250.703365290638
 30
0.0
 40
1500.0
100
AcDbArc
 50
83.19120885690178
 51
88.99999999969855
  0
ARC
  5
118
330
81
100
AcDbEntity
  8
0
  6
Continuous
 62
   250
100
AcDbCircle
 10
173.0799993204183
 20
222.8099988986619
 30
0.0
 40
221.0
100
AcDbArc
 50
274.4028928894969
 51
308.6328396855994
  0
ARC
  5
119
330
81
100
AcDbEntity
  8
0
  6
Continuous
 62
   250
100
AcDbCircle
 10
173.0799993204183
 20
222.8099988986619
 30
0.0
 40
220.0
100
AcDbArc
 50
275.8974911246012
 51
304.6197782240966
  0
ARC
  5
11A
330
81
100
AcDbEntity
  8
0
  6
Continuous
 62
   250
100
AcDbCircle
 10
173.3284985484184
 20
222.8211529826619
 30
0.0
 40
219.4343656493
100
AcDbArc
 50
305.7390501584976
 51
306.0724180719989
  0
ARC
  5
11B
330
81
100
AcDbEntity
  8
0
  6
Continuous
 62
   250
100
AcDbCircle
 10
173.0799993204183
 20
222.8099988986619
 30
0.0
 40
217.5535533907
100
AcDbArc
 50
305.2046052806975
 51
305.7102537742998
  0
ARC
  5
11C
330
81
100
AcDbEntity
  8
0
  6
Continuous
 62
   250
100
AcDbCircle
 10
185.4098769804183
 20
103.4451208279619
 30
0.0
 40
100.0
100
AcDbArc
 50
271.999999999997
 51
275.8974911246012
  0
ARC
  5
11D
330
81
100
AcDbEntity
  8
0
  6
Continuous
 62
   250
100
AcDbCircle
 10
183.9044804431183
 20
82.2261071879619
 30
0.0
 40
80.0
100
AcDbArc
 50
268.0000000000029
 51
274.4028928894969
  0
ARC
  5
11E
330
81
100
AcDbEntity
  8
0
  6
Continuous
 62
   250
100
AcDbCircle
 10
261.3954040577184
 20
97.53620384936191
 30
0.0
 40
66.3173129547
100
AcDbArc
 50
304.0288864697999
 51
306.7071117696028
  0
ARC
  5
11F
330
81
100
AcDbEntity
  8
0
  6
Continuous
 62
   250
100
AcDbCircle
 10
321.4656204604183
 20
16.96620720396191
 30
0.0
 40
34.181220656
100
AcDbArc
 50
125.7424358795016
 51
126.7066191411989
  0
ARC
  5
120
330
81
100
AcDbEntity
  8
0
  6
Continuous
 62
   250
100
AcDbCircle
 10
23.4999993204184
 20
27.59999889866188
 30
0.0
 40
20.087301924
100
AcDbArc
 50
270.0
 51
0.0
  0
ARC
  5
121
330
81
100
AcDbEntity
  8
0
  6
Continuous
 62
   250
100
AcDbCircle
 10
23.4999993204184
 20
57.59999889866188
 30
0.0
 40
20.087301924
100
AcDbArc
 50
0.0
 51
90.0
  0
ARC
  5
122
330
81
100
AcDbEntity
  8
0
  6
Continuous
 62
   250
100
AcDbCircle
 10
23.4999993204184
 20
27.59999889866188
 30
0.0
 40
18.41269807599999
100
AcDbArc
 50
270.0
 51
0.0
  0
ARC
  5
123
330
81
100
AcDbEntity
  8
0
  6
Continuous
 62
   250
100
AcDbCircle
 10
23.4999993204184
 20
57.59999889866188
 30
0.0
 40
18.41269807599999
100
AcDbArc
 50
0.0
 51
90.0
  0
ARC
  5
124
330
81
100
AcDbEntity
  8
0
  6
Continuous
 62
   250
100
AcDbCircle
 10
270.9985576311183
 20
30.9999988399619
 30
0.0
 40
17.7
100
AcDbArc
 50
231.1114590775976
 51
282.0886618538988
  0
ARC
  5
125
330
81
100
AcDbEntity
  8
0
  6
Continuous
 62
   250
100
AcDbCircle
 10
280.6679230751184
 20
38.9350364053619
 30
0.0
 40
7.9620618453
100
AcDbArc
 50
300.1673633922978
 51
300.3325204283992
  0
ARC
  5
126
330
81
100
AcDbEntity
  8
0
  6
Continuous
 62
   250
100
AcDbCircle
 10
83.99999932041842
 20
86.1049496119619
 30
0.0
 40
4.5
100
AcDbArc
 50
0.0
 51
87.00000000000091
  0
ARC
  5
127
330
81
100
AcDbEntity
  8
0
  6
Continuous
 62
   250
100
AcDbCircle
 10
302.2486714164184
 20
47.60217289066189
 30
0.0
 40
2.0
100
AcDbArc
 50
274.9999999999997
 51
307.0000000000018
  0
ARC
  5
128
330
81
100
AcDbEntity
  8
0
  6
Continuous
 62
     3
100
AcDbCircle
 10
1.599999320418304
 20
8.056292911961918
 30
0.0
 40
1.6
100
AcDbArc
 50
180.0
 51
236.3099324739986
  0
ARC
  5
129
330
81
100
AcDbEntity
  8
0
  6
Continuous
 62
   250
100
AcDbCircle
 10
260.8937419097184
 20
18.46826237196191
 30
0.0
 40
1.6
100
AcDbArc
 50
182.0000000000003
 51
231.1114590776974
  0
ARC
  5
12A
330
81
100
AcDbEntity
  8
0
  6
Continuous
 62
   250
100
AcDbCircle
 10
313.7999993204183
 20
55.30501429066188
 30
0.0
 40
1.199999999999999
100
AcDbArc
 50
307.0000000000018
 51
0.0
  0
ARC
  5
12B
330
81
100
AcDbEntity
  8
0
  6
Continuous
 62
   250
100
AcDbCircle
 10
3.999999320418396
 20
4.660899266661941
 30
0.0
 40
1.0
100
AcDbArc
 50
102.3126791757015
 51
180.0
  0
ARC
  5
12C
330
81
100
AcDbEntity
  8
0
  6
Continuous
 62
   250
100
AcDbCircle
 10
87.49999932041841
 20
0.4430661506618776
 30
0.0
 40
1.0
100
AcDbArc
 50
0.0000000018010591
 51
84.99694825309815
  0
ARC
  5
12D
330
81
100
AcDbEntity
  8
0
  6
Continuous
 62
   250
100
AcDbCircle
 10
174.7445474724184
 20
3.497825095961899
 30
0.0
 40
1.0
100
AcDbArc
 50
237.9998616638
 51
267.9998402613972
  0
ARC
  5
12E
330
81
100
AcDbEntity
  8
0
  6
Continuous
 62
   250
100
AcDbCircle
 10
310.4320153844184
 20
50.95417652666191
 30
0.0
 40
1.0
100
AcDbArc
 50
308.6332577614982
 51
351.8678758850017
  0
ARC
  5
12F
330
81
100
AcDbEntity
  8
0
  6
Continuous
 62
   250
100
AcDbCircle
 10
297.4999993204183
 20
42.58607262936189
 30
0.0
 40
1.0
100
AcDbArc
 50
304.6197782240966
 51
0.0
  0
ARC
  5
130
330
81
100
AcDbEntity
  8
0
  6
Continuous
 62
   250
100
AcDbCircle
 10
9.000270252418431
 20
14.7590932933619
 30
0.0
 40
0.999729104
100
AcDbArc
 50
270.0106548762973
 51
0.0155317096001314
  0
ARC
  5
131
330
81
100
AcDbEntity
  8
0
  6
Continuous
 62
   250
100
AcDbCircle
 10
5.996699767118343
 20
12.75921638936188
 30
0.0
 40
0.996700492
100
AcDbArc
 50
90.01497918079917
 51
179.9827473630994
  0
ARC
  5
132
330
81
100
AcDbEntity
  8
0
  6
Continuous
 62
   250
100
AcDbCircle
 10
300.6999993204183
 20
46.47191975996189
 30
0.0
 40
0.7
100
AcDbArc
 50
180.0
 51
267.0000000000009
  0
ARC
  5
133
330
81
100
AcDbEntity
  8
0
  6
Continuous
 62
   250
100
AcDbCircle
 10
274.6425159311183
 20
13.98584097336192
 30
0.0
 40
0.3
100
AcDbArc
 50
282.0885338915009
 51
320.9691684704007
  0
ARC
  5
134
330
81
100
AcDbEntity
  8
0
  6
Continuous
 62
   250
100
AcDbCircle
 10
274.9025339937183
 20
14.30651463736191
 30
0.0
 40
0.3
100
AcDbArc
 50
320.9688492539976
 51
359.5032342374994
  0
ARC
  5
135
330
81
100
AcDbEntity
  8
0
  6
Continuous
 62
   250
100
AcDbCircle
 10
282.3569186897183
 20
26.03434183736192
 30
0.0
 40
0.2999999933
100
AcDbArc
 50
291.9997491332987
 51
314.0016271729006
  0
ARC
  5
136
330
81
100
AcDbEntity
  8
0
  6
Continuous
 62
   250
100
AcDbCircle
 10
312.9999993204183
 20
233.0374276453619
 30
0.0
 40
2.0
100
AcDbArc
 50
0.0
 51
75.99999999999719
  0
ARC
  5
137
330
81
100
AcDbEntity
  8
0
  6
Continuous
 62
   250
100
AcDbCircle
 10
296.4999993204184
 20
235.7488989066619
 30
0.0
 40
2.0
100
AcDbArc
 50
0.0
 51
35.00000000000003
  0
ARC
  5
138
330
81
100
AcDbEntity
  8
0
  6
Continuous
 62
     3
100
AcDbCircle
 10
1.499999320418395
 20
227.1999988986619
 30
0.0
 40
1.5
100
AcDbArc
 50
90.0
 51
180.0
  0
ARC
  5
139
330
81
100
AcDbEntity
  8
0
  6
Continuous
 62
   250
100
AcDbCircle
 10
296.3373162897184
 20
237.7246811466619
 30
0.0
 40
1.0
100
AcDbArc
 50
35.00000000000003
 51
83.19120885690178
  0
ARC
  5
13A
330
81
100
AcDbEntity
  8
0
  6
Continuous
 62
   250
100
AcDbCircle
 10
300.6999993204183
 20
237.0375636399619
 30
0.0
 40
0.7
100
AcDbArc
 50
91.99999999999706
 51
180.0
  0
ARC
  5
13B
330
81
100
AcDbEntity
  8
0
  6
Continuous
 62
   250
100
AcDbCircle
 10
3.499999320418396
 20
229.3135329839619
 30
0.0
 40
0.5
100
AcDbArc
 50
180.0
 51
268.9999999999983
  0
ARC
  5
13C
330
81
100
AcDbEntity
  8
0
  6
Continuous
 62
   250
100
AcDbCircle
 10
3.499999320418396
 20
237.6913475293619
 30
0.0
 40
0.5
100
AcDbArc
 50
180.0
 51
268.9999999999983
  0
ARC
  5
13D
330
81
100
AcDbEntity
  8
0
  6
Continuous
 62
   250
100
AcDbCircle
 10
3.500003005718439
 20
238.7086503306619
 30
0.0
 40
0.5
100
AcDbArc
 50
91.00042234619833
 51
180.0000073708
  0
ARC
  5
13E
330
81
100
AcDbEntity
  8
0
  6
Continuous
 62
   250
100
AcDbCircle
 10
3.499999320418396
 20
231.0258086359619
 30
0.0
 40
0.5
100
AcDbArc
 50
144.9991108871973
 51
179.9989145818007
  0
ARC
  5
13F
330
81
100
AcDbEntity
  8
0
  6
Continuous
 62
   250
100
AcDbCircle
 10
298.9999993204183
 20
234.9136887746619
 30
0.0
 40
0.4999994987
100
AcDbArc
 50
180.0
 51
262.782837820701
  0
SPLINE
  5
140
330
81
100
AcDbEntity
  8
0
  6
Continuous
 62
   250
100
AcDbSpline
210
0.0
220
0.0
230
1.0
 70
     8
 71
     3
 72
    11
 73
     7
 74
     0
 42
0.000000001
 43
0.0000000001
 40
0.0
 40
0.0
 40
0.0
 40
0.0
 40
0.2135119233
 40
0.442240414
 40
0.7026090359000002
 40
1.0
 40
1.0
 40
1.0
 40
1.0
 10
43.29967833371835
 20
0.1999988986618746
 30
0.0
 10
43.83923864841835
 20
0.2000101226619222
 30
0.0
 10
44.96692172441838
 20
0.4085981773619097
 30
0.0
 10
46.50893022171839
 20
1.368590830661901
 30
0.0
 10
47.70637780311836
 20
3.018621397361926
 30
0.0
 10
48.01385548971836
 20
4.448470091961893
 30
0.0
 10
48.01396404711841
 20
5.199998898661873
 30
0.0
  0
SPLINE
  5
141
330
81
100
AcDbEntity
  8
0
  6
Continuous
 62
   250
100
AcDbSpline
210
0.0
220
0.0
230
1.0
 70
     8
 71
     3
 72
    10
 73
     6
 74
     0
 42
0.000000001
 43
0.0000000001
 40
0.0
 40
0.0
 40
0.0
 40
0.0
 40
0.1112426926
 40
0.3256961205
 40
1.0
 40
1.0
 40
1.0
 40
1.0
 10
54.97206986571836
 20
0.1999988986618746
 30
0.0
 10
54.89333937111837
 20
0.2001814013618741
 30
0.0
 10
54.7196862551184
 20
0.4179361159618793
 30
0.0
 10
54.54485535241839
 20
1.072882070661875
 30
0.0
 10
54.48604621641846
 20
1.722768269361892
 30
0.0
 10
54.48603459241836
 20
2.199998898661874
 30
0.0
  0
LINE
  5
142
330
81
100
AcDbEntity
  8
0
  6
Continuous
 62
   250
100
AcDbLine
 10
48.01396404711841
 20
245.1999988986619
 30
0.0
 11
48.00411249905262
 21
245.5240155918346
 31
0.0
  0
LINE
  5
143
330
81
100
AcDbEntity
  8
0
  6
Continuous
 62
   250
100
AcDbLine
 10
48.00411249905262
 20
245.5240155918346
 30
0.0
 11
47.99172962037174
 21
245.6857588595292
 31
0.0
  0
LINE
  5
144
330
81
100
AcDbEntity
  8
0
  6
Continuous
 62
   250
100
AcDbLine
 10
47.99172962037174
 20
245.6857588595292
 30
0.0
 11
47.97431313074048
 21
245.8472367942018
 31
0.0
  0
LINE
  5
145
330
81
100
AcDbEntity
  8
0
  6
Continuous
 62
   250
100
AcDbLine
 10
47.97431313074048
 20
245.8472367942018
 30
0.0
 11
47.95182551668695
 21
246.0083691884415
 31
0.0
  0
LINE
  5
146
330
81
100
AcDbEntity
  8
0
  6
Continuous
 62
   250
100
AcDbLine
 10
47.95182551668695
 20
246.0083691884415
 30
0.0
 11
47.92429109112359
 21
246.1689828689535
 31
0.0
  0
LINE
  5
147
330
81
100
AcDbEntity
  8
0
  6
Continuous
 62
   250
100
AcDbLine
 10
47.92429109112359
 20
246.1689828689535
 30
0.0
 11
47.89175978028918
 21
246.3288661486987
 31
0.0
  0
LINE
  5
148
330
81
100
AcDbEntity
  8
0
  6
Continuous
 62
   250
100
AcDbLine
 10
47.89175978028918
 20
246.3288661486987
 30
0.0
 11
47.85428159253242
 21
246.4878072171726
 31
0.0
  0
LINE
  5
149
330
81
100
AcDbEntity
  8
0
  6
Continuous
 62
   250
100
AcDbLine
 10
47.85428159253242
 20
246.4878072171726
 30
0.0
 11
47.81190653620203
 21
246.6455942638707
 31
0.0
  0
LINE
  5
14A
330
81
100
AcDbEntity
  8
0
  6
Continuous
 62
   250
100
AcDbLine
 10
47.81190653620203
 20
246.6455942638707
 30
0.0
 11
47.76468461964669
 21
246.8020154782887
 31
0.0
  0
LINE
  5
14B
330
81
100
AcDbEntity
  8
0
  6
Continuous
 62
   250
100
AcDbLine
 10
47.76468461964669
 20
246.8020154782887
 30
0.0
 11
47.71266585121511
 21
246.9568590499219
 31
0.0
  0
LINE
  5
14C
330
81
100
AcDbEntity
  8
0
  6
Continuous
 62
   250
100
AcDbLine
 10
47.71266585121511
 20
246.9568590499219
 30
0.0
 11
47.65590023925602
 21
247.1099131682661
 31
0.0
  0
LINE
  5
14D
330
81
100
AcDbEntity
  8
0
  6
Continuous
 62
   250
100
AcDbLine
 10
47.65590023925602
 20
247.1099131682661
 30
0.0
 11
47.59443779211809
 21
247.2609660228166
 31
0.0
  0
LINE
  5
14E
330
81
100
AcDbEntity
  8
0
  6
Continuous
 62
   250
100
AcDbLine
 10
47.59443779211809
 20
247.2609660228166
 30
0.0
 11
47.52832851815005
 21
247.409805803069
 31
0.0
  0
LINE
  5
14F
330
81
100
AcDbEntity
  8
0
  6
Continuous
 62
   250
100
AcDbLine
 10
47.52832851815005
 20
247.409805803069
 30
0.0
 11
47.45762242570059
 21
247.556220698519
 31
0.0
  0
LINE
  5
150
330
81
100
AcDbEntity
  8
0
  6
Continuous
 62
   250
100
AcDbLine
 10
47.45762242570059
 20
247.556220698519
 30
0.0
 11
47.38236952311843
 21
247.6999988986619
 31
0.0
  0
SPLINE
  5
151
330
81
100
AcDbEntity
  8
0
  6
Continuous
 62
   250
100
AcDbSpline
210
0.0
220
0.0
230
1.0
 70
     8
 71
     3
 72
    10
 73
     6
 74
     0
 42
0.000000001
 43
0.0000000001
 40
0.0
 40
0.0
 40
0.0
 40
0.0
 40
0.6742961829000002
 40
0.8887474359
 40
1.0
 40
1.0
 40
1.0
 40
1.0
 10
54.48603459241836
 20
248.1999988986619
 30
0.0
 10
54.48603578041832
 20
248.6772252093619
 30
0.0
 10
54.54484983111832
 20
249.3272318733619
 30
0.0
 10
54.71967265511829
 20
249.9819490599619
 30
0.0
 10
54.89333201241834
 20
250.1999357266619
 30
0.0
 10
54.97206986571836
 20
250.1999988986619
 30
0.0
  0
SPLINE
  5
152
330
81
100
AcDbEntity
  8
0
  6
Continuous
 62
   250
100
AcDbSpline
210
0.0
220
0.0
230
1.0
 70
     8
 71
     3
 72
    12
 73
     8
 74
     0
 42
0.000000001
 43
0.0000000001
 40
0.0
 40
0.0
 40
0.0
 40
0.0
 40
0.4065916797
 40
0.7146116531000001
 40
0.8264997452999999
 40
0.9099311001
 40
1.0
 40
1.0
 40
1.0
 40
1.0
 10
47.38236952311843
 20
247.6999988986619
 30
0.0
 10
47.21014619241839
 20
248.0163679919619
 30
0.0
 10
46.97250179511832
 20
248.6119228359619
 30
0.0
 10
46.85489567641844
 20
249.3376615373619
 30
0.0
 10
46.88549984171834
 20
249.7921855999619
 30
0.0
 10
46.93433241911839
 20
250.0242154226619
 30
0.0
 10
47.03513296441838
 20
250.199961381362
 30
0.0
 10
47.11492700841836
 20
250.1999988986619
 30
0.0
  0
SPLINE
  5
153
330
81
100
AcDbEntity
  8
0
  6
Continuous
 62
   250
100
AcDbSpline
210
0.0
220
0.0
230
1.0
 70
     8
 71
     3
 72
    15
 73
    11
 74
     0
 42
0.000000001
 43
0.0000000001
 40
0.0
 40
0.0
 40
0.0
 40
0.0
 40
0.1250037484
 40
0.2499930547
 40
0.3749995865
 40
0.5000134747999999
 40
0.6250266195
 40
0.7500216243000001
 40
0.8750003037999999
 40
1.0
 40
1.0
 40
1.0
 40
1.0
 10
297.7669207884184
 20
60.90050445736192
 30
0.0
 10
296.7513502177184
 20
61.38611570936189
 30
0.0
 10
294.8154095697183
 20
62.5937854413619
 30
0.0
 10
292.5526901364184
 20
65.16499721736193
 30
0.0
 10
291.1124016004184
 20
68.27124715466192
 30
0.0
 10
290.6183643404183
 20
71.6603655053619
 30
0.0
 10
291.1126114577184
 20
75.04934355196191
 30
0.0
 10
292.5529333524184
 20
78.15533592666193
 30
0.0
 10
294.8155526431183
 20
80.7263125479619
 30
0.0
 10
296.7513893404183
 20
81.93388553866188
 30
0.0
 10
297.7669209684184
 20
82.41949363996189
 30
0.0
  0
LINE
  5
154
330
81
100
AcDbEntity
  8
0
  6
Continuous
 62
   250
100
AcDbLine
 10
297.7669209991184
 20
82.41949405066192
 30
0.0
 11
297.8313825314872
 21
82.43328697165438
 31
0.0
  0
LINE
  5
155
330
81
100
AcDbEntity
  8
0
  6
Continuous
 62
   250
100
AcDbLine
 10
297.8313825314872
 20
82.43328697165438
 30
0.0
 11
297.8954795264326
 21
82.45006534203607
 31
0.0
  0
LINE
  5
156
330
81
100
AcDbEntity
  8
0
  6
Continuous
 62
   250
100
AcDbLine
 10
297.8954795264326
 20
82.45006534203607
 30
0.0
 11
297.9588198127613
 21
82.47008694187954
 31
0.0
  0
LINE
  5
157
330
81
100
AcDbEntity
  8
0
  6
Continuous
 62
   250
100
AcDbLine
 10
297.9588198127613
 20
82.47008694187954
 30
0.0
 11
298.0210112192808
 21
82.49360955125732
 31
0.0
  0
LINE
  5
158
330
81
100
AcDbEntity
  8
0
  6
Continuous
 62
   250
100
AcDbLine
 10
298.0210112192808
 20
82.49360955125732
 30
0.0
 11
298.0816615747983
 21
82.52089095024198
 31
0.0
  0
LINE
  5
159
330
81
100
AcDbEntity
  8
0
  6
Continuous
 62
   250
100
AcDbLine
 10
298.0816615747983
 20
82.52089095024198
 30
0.0
 11
298.1403787081209
 21
82.55218891890605
 31
0.0
  0
LINE
  5
15A
330
81
100
AcDbEntity
  8
0
  6
Continuous
 62
   250
100
AcDbLine
 10
298.1403787081209
 20
82.55218891890605
 30
0.0
 11
298.1967704480557
 21
82.58776123732208
 31
0.0
  0
LINE
  5
15B
330
81
100
AcDbEntity
  8
0
  6
Continuous
 62
   250
100
AcDbLine
 10
298.1967704480557
 20
82.58776123732208
 30
0.0
 11
298.25044462341
 21
82.62786568556263
 31
0.0
  0
LINE
  5
15C
330
81
100
AcDbEntity
  8
0
  6
Continuous
 62
   250
100
AcDbLine
 10
298.25044462341
 20
82.62786568556263
 30
0.0
 11
298.2761400708717
 21
82.64969801463975
 31
0.0
  0
LINE
  5
15D
330
81
100
AcDbEntity
  8
0
  6
Continuous
 62
   250
100
AcDbLine
 10
298.2761400708717
 20
82.64969801463975
 30
0.0
 11
298.3010089529242
 21
82.6727598696697
 31
0.0
  0
LINE
  5
15E
330
81
100
AcDbEntity
  8
0
  6
Continuous
 62
   250
100
AcDbLine
 10
298.3010089529242
 20
82.6727598696697
 30
0.0
 11
298.3249810868948
 21
82.69705001430901
 31
0.0
  0
LINE
  5
15F
330
81
100
AcDbEntity
  8
0
  6
Continuous
 62
   250
100
AcDbLine
 10
298.3249810868948
 20
82.69705001430901
 30
0.0
 11
298.3479403965904
 21
82.72249464831471
 31
0.0
  0
LINE
  5
160
330
81
100
AcDbEntity
  8
0
  6
Continuous
 62
   250
100
AcDbLine
 10
298.3479403965904
 20
82.72249464831471
 30
0.0
 11
298.3697647593104
 21
82.74901041109258
 31
0.0
  0
LINE
  5
161
330
81
100
AcDbEntity
  8
0
  6
Continuous
 62
   250
100
AcDbLine
 10
298.3697647593104
 20
82.74901041109258
 30
0.0
 11
298.3903320523539
 21
82.7765139420484
 31
0.0
  0
LINE
  5
162
330
81
100
AcDbEntity
  8
0
  6
Continuous
 62
   250
100
AcDbLine
 10
298.3903320523539
 20
82.7765139420484
 30
0.0
 11
298.4095201530201
 21
82.80492188058788
 31
0.0
  0
LINE
  5
163
330
81
100
AcDbEntity
  8
0
  6
Continuous
 62
   250
100
AcDbLine
 10
298.4095201530201
 20
82.80492188058788
 30
0.0
 11
298.4272069386085
 21
82.8341508661169
 31
0.0
  0
LINE
  5
164
330
81
100
AcDbEntity
  8
0
  6
Continuous
 62
   250
100
AcDbLine
 10
298.4272069386085
 20
82.8341508661169
 30
0.0
 11
298.4432702864181
 21
82.86411753804114
 31
0.0
  0
LINE
  5
165
330
81
100
AcDbEntity
  8
0
  6
Continuous
 62
   250
100
AcDbLine
 10
298.4432702864181
 20
82.86411753804114
 30
0.0
 11
298.4575880737482
 21
82.89473853576635
 31
0.0
  0
LINE
  5
166
330
81
100
AcDbEntity
  8
0
  6
Continuous
 62
   250
100
AcDbLine
 10
298.4575880737482
 20
82.89473853576635
 30
0.0
 11
298.4700381778982
 21
82.92593049869838
 31
0.0
  0
LINE
  5
167
330
81
100
AcDbEntity
  8
0
  6
Continuous
 62
   250
100
AcDbLine
 10
298.4700381778982
 20
82.92593049869838
 30
0.0
 11
298.4804984761672
 21
82.95761006624295
 31
0.0
  0
LINE
  5
168
330
81
100
AcDbEntity
  8
0
  6
Continuous
 62
   250
100
AcDbLine
 10
298.4804984761672
 20
82.95761006624295
 30
0.0
 11
298.4888468458544
 21
82.98969387780579
 31
0.0
  0
LINE
  5
169
330
81
100
AcDbEntity
  8
0
  6
Continuous
 62
   250
100
AcDbLine
 10
298.4888468458544
 20
82.98969387780579
 30
0.0
 11
298.4949611642593
 21
83.02209857279274
 31
0.0
  0
LINE
  5
16A
330
81
100
AcDbEntity
  8
0
  6
Continuous
 62
   250
100
AcDbLine
 10
298.4949611642593
 20
83.02209857279274
 30
0.0
 11
298.4987193086808
 21
83.05474079060951
 31
0.0
  0
LINE
  5
16B
330
81
100
AcDbEntity
  8
0
  6
Continuous
 62
   250
100
AcDbLine
 10
298.4987193086808
 20
83.05474079060951
 30
0.0
 11
298.4999991564184
 21
83.0875371706619
 31
0.0
  0
LINE
  5
16C
330
81
100
AcDbEntity
  8
0
  6
Continuous
 62
   250
100
AcDbLine
 10
298.5000016511183
 20
60.23245589066188
 30
0.0
 11
298.4987217548376
 21
60.26525231820952
 31
0.0
  0
LINE
  5
16D
330
81
100
AcDbEntity
  8
0
  6
Continuous
 62
   250
100
AcDbLine
 10
298.4987217548376
 20
60.26525231820952
 30
0.0
 11
298.4949634840261
 21
60.29789453408159
 31
0.0
  0
LINE
  5
16E
330
81
100
AcDbEntity
  8
0
  6
Continuous
 62
   250
100
AcDbLine
 10
298.4949634840261
 20
60.29789453408159
 30
0.0
 11
298.4888489724445
 21
60.33029918603064
 31
0.0
  0
LINE
  5
16F
330
81
100
AcDbEntity
  8
0
  6
Continuous
 62
   250
100
AcDbLine
 10
298.4888489724445
 20
60.33029918603064
 30
0.0
 11
298.480500353853
 21
60.36238292180921
 31
0.0
  0
LINE
  5
170
330
81
100
AcDbEntity
  8
0
  6
Continuous
 62
   250
100
AcDbLine
 10
298.480500353853
 20
60.36238292180921
 30
0.0
 11
298.4700397620121
 21
60.39406238916983
 31
0.0
  0
LINE
  5
171
330
81
100
AcDbEntity
  8
0
  6
Continuous
 62
   250
100
AcDbLine
 10
298.4700397620121
 20
60.39406238916983
 30
0.0
 11
298.4575893306824
 21
60.42525423586503
 31
0.0
  0
LINE
  5
172
330
81
100
AcDbEntity
  8
0
  6
Continuous
 62
   250
100
AcDbLine
 10
298.4575893306824
 20
60.42525423586503
 30
0.0
 11
298.4432711936243
 21
60.45587510964736
 31
0.0
  0
LINE
  5
173
330
81
100
AcDbEntity
  8
0
  6
Continuous
 62
   250
100
AcDbLine
 10
298.4432711936243
 20
60.45587510964736
 30
0.0
 11
298.4272074845983
 21
60.48584165826935
 31
0.0
  0
LINE
  5
174
330
81
100
AcDbEntity
  8
0
  6
Continuous
 62
   250
100
AcDbLine
 10
298.4272074845983
 20
60.48584165826935
 30
0.0
 11
298.4095203373649
 21
60.51507052948354
 31
0.0
  0
LINE
  5
175
330
81
100
AcDbEntity
  8
0
  6
Continuous
 62
   250
100
AcDbLine
 10
298.4095203373649
 20
60.51507052948354
 30
0.0
 11
298.3903318856844
 21
60.54347837104246
 31
0.0
  0
LINE
  5
176
330
81
100
AcDbEntity
  8
0
  6
Continuous
 62
   250
100
AcDbLine
 10
298.3903318856844
 20
60.54347837104246
 30
0.0
 11
298.3697642633174
 21
60.57098183069865
 31
0.0
  0
LINE
  5
177
330
81
100
AcDbEntity
  8
0
  6
Continuous
 62
   250
100
AcDbLine
 10
298.3697642633174
 20
60.57098183069865
 30
0.0
 11
298.3479396040245
 21
60.59749755620465
 31
0.0
  0
LINE
  5
178
330
81
100
AcDbEntity
  8
0
  6
Continuous
 62
   250
100
AcDbLine
 10
298.3479396040245
 20
60.59749755620465
 30
0.0
 11
298.3249800415661
 21
60.62294219531301
 31
0.0
  0
LINE
  5
179
330
81
100
AcDbEntity
  8
0
  6
Continuous
 62
   250
100
AcDbLine
 10
298.3249800415661
 20
60.62294219531301
 30
0.0
 11
298.3010077097024
 21
60.64723239577624
 31
0.0
  0
LINE
  5
17A
330
81
100
AcDbEntity
  8
0
  6
Continuous
 62
   250
100
AcDbLine
 10
298.3010077097024
 20
60.64723239577624
 30
0.0
 11
298.2761386916538
 21
60.67029436841177
 31
0.0
  0
LINE
  5
17B
330
81
100
AcDbEntity
  8
0
  6
Continuous
 62
   250
100
AcDbLine
 10
298.2761386916538
 20
60.67029436841177
 30
0.0
 11
298.2504431633657
 21
60.69212688189507
 31
0.0
  0
LINE
  5
17C
330
81
100
AcDbEntity
  8
0
  6
Continuous
 62
   250
100
AcDbLine
 10
298.2504431633657
 20
60.69212688189507
 30
0.0
 11
298.1967689666162
 21
60.73223186576596
 31
0.0
  0
LINE
  5
17D
330
81
100
AcDbEntity
  8
0
  6
Continuous
 62
   250
100
AcDbLine
 10
298.1967689666162
 20
60.73223186576596
 30
0.0
 11
298.1403773509827
 21
60.76780488471164
 31
0.0
  0
LINE
  5
17E
330
81
100
AcDbEntity
  8
0
  6
Continuous
 62
   250
100
AcDbLine
 10
298.1403773509827
 20
60.76780488471164
 30
0.0
 11
298.0816604380813
 21
60.79910364977506
 31
0.0
  0
LINE
  5
17F
330
81
100
AcDbEntity
  8
0
  6
Continuous
 62
   250
100
AcDbLine
 10
298.0816604380813
 20
60.79910364977506
 30
0.0
 11
298.021010349528
 21
60.8263858719992
 31
0.0
  0
LINE
  5
180
330
81
100
AcDbEntity
  8
0
  6
Continuous
 62
   250
100
AcDbLine
 10
298.021010349528
 20
60.8263858719992
 30
0.0
 11
297.9588192069389
 21
60.849909262427
 31
0.0
  0
LINE
  5
181
330
81
100
AcDbEntity
  8
0
  6
Continuous
 62
   250
100
AcDbLine
 10
297.9588192069389
 20
60.849909262427
 30
0.0
 11
297.8954791319302
 21
60.86993153210142
 31
0.0
  0
LINE
  5
182
330
81
100
AcDbEntity
  8
0
  6
Continuous
 62
   250
100
AcDbLine
 10
297.8954791319302
 20
60.86993153210142
 30
0.0
 11
297.831382246118
 21
60.88671039206541
 31
0.0
  0
LINE
  5
183
330
81
100
AcDbEntity
  8
0
  6
Continuous
 62
   250
100
AcDbLine
 10
297.831382246118
 20
60.88671039206541
 30
0.0
 11
297.7669206711183
 21
60.90050355336192
 31
0.0
  0
ELLIPSE
  5
184
330
81
100
AcDbEntity
  8
0
  6
Continuous
 62
   250
100
AcDbEllipse
 10
3.58493948041837
 20
5.199998898661873
 30
0.0
 11
1.340140587999999
 21
4.999948947999998
 31
0.0
210
0.0
220
0.0
230
1.0
 40
0.0168599538
 41
4.162174470479565
 42
4.716907937479586
  0
ELLIPSE
  5
185
330
81
100
AcDbEntity
  8
0
  6
Continuous
 62
   250
100
AcDbEllipse
 10
66.9466656937184
 20
87.96326989736193
 30
0.0
 11
0.05235589199999424
 21
1.999390833299998
 31
0.0
210
0.0
220
0.0
230
1.0
 40
0.9999618969999999
 41
6.257006365479588
 42
6.309364248879586
  0
ELLIPSE
  5
186
330
81
100
AcDbEntity
  8
0
  6
Continuous
 62
   250
100
AcDbEllipse
 10
83.99988508441834
 20
86.06813806266192
 30
0.0
 11
2.176280594700003
 21
2.065213172
 31
0.0
210
0.0
220
0.0
230
1.0
 40
0.9999276372000001
 41
5.524003215579582
 42
7.042367398779584
  0
ELLIPSE
  5
187
330
81
100
AcDbEntity
  8
0
  6
Continuous
 62
   250
100
AcDbEllipse
 10
2.835909212418413
 20
5.199998898661873
 30
0.0
 11
-0.08730192000000114
 21
4.999999768
 31
0.0
210
0.0
220
0.0
230
1.0
 40
0.0174524048
 41
3.141287927899966
 42
4.157350787799997
  0
ELLIPSE
  5
188
330
81
100
AcDbEntity
  8
0
  6
Continuous
 62
   250
100
AcDbEllipse
 10
87.01745305511837
 20
2.199998898661874
 30
0.0
 11
0.0
 21
2.0
 31
0.0
210
0.0
220
0.0
230
1.0
 40
0.0087268678
 41
1.570796326779586
 42
3.141592653579194
  0
ELLIPSE
  5
189
330
81
100
AcDbEntity
  8
0
  6
Continuous
 62
   250
100
AcDbEllipse
 10
3.004931183118401
 20
10.42675621596188
 30
0.0
 11
1.983197006699998
 21
-0.261092838699998
 31
0.0
210
0.0
220
0.0
230
1.0
 40
0.999845056
 41
6.152305664579585
 42
6.414064949779586
  0
ELLIPSE
  5
18A
330
81
100
AcDbEntity
  8
0
  6
Continuous
 62
   250
100
AcDbEllipse
 10
54.48603459241836
 20
89.9720729213619
 30
0.0
 11
1.0
 21
0.0
 31
0.0
210
0.0
220
0.0
230
1.0
 40
0.0087268678
 41
3.807561890979182
 42
4.712388980379588
  0
ELLIPSE
  5
18B
330
81
100
AcDbEntity
  8
0
  6
Continuous
 62
   250
100
AcDbEllipse
 10
9.0050835111183
 20
23.0457177813619
 30
0.0
 11
0.7073221893000028
 21
0.7073221892999975
 31
0.0
210
0.0
220
0.0
230
1.0
 40
0.9996954599000001
 41
5.497939437079586
 42
7.068431177279587
  0
ELLIPSE
  5
18C
330
81
100
AcDbEntity
  8
0
  6
Continuous
 62
   250
100
AcDbEllipse
 10
9.0050835111183
 20
13.1542800146619
 30
0.0
 11
-0.707322189300001
 21
0.707322189300001
 31
0.0
210
0.0
220
0.0
230
1.0
 40
0.9996954599000001
 41
2.356346783479588
 42
3.926838523779586
  0
ELLIPSE
  5
18D
330
81
100
AcDbEntity
  8
0
  6
Continuous
 62
   250
100
AcDbEllipse
 10
48.01396404711841
 20
90.01570725996193
 30
0.0
 11
1.0
 21
0.0
 31
0.0
210
0.0
220
0.0
230
1.0
 40
0.0087268678
 41
0.6659692373996992
 42
1.570796326799998
  0
ELLIPSE
  5
18E
330
81
100
AcDbEntity
  8
0
  6
Continuous
 62
   250
100
AcDbEllipse
 10
6.005388167118438
 20
25.04602243736193
 30
0.0
 11
0.7073221892999975
 21
0.707322189300001
 31
0.0
210
0.0
220
0.0
230
1.0
 40
0.9996954599000001
 41
2.3563467834
 42
3.926838523699999
  0
ELLIPSE
  5
18F
330
81
100
AcDbEntity
  8
0
  6
Continuous
 62
   250
100
AcDbEllipse
 10
6.005388167118438
 20
11.15397535866188
 30
0.0
 11
-0.7073221892999993
 21
0.7073221893000011
 31
0.0
210
0.0
220
0.0
230
1.0
 40
0.9996954599000001
 41
5.497939437079586
 42
7.068431177279586
  0
ENDBLK
  5
83
330
81
100
AcDbEntity
  8
0
100
AcDbBlockEnd
  0
BLOCK
  5
192
330
191
100
AcDbEntity
  8
0
100
AcDbBlockBegin
  2
_ORIGIN
 70
     0
 10
0.0
 20
0.0
 30
0.0
  3
_ORIGIN
  1
_ORIGIN
  0
CIRCLE
  5
194
330
191
100
AcDbEntity
  8
0
  6
ByBlock
 62
     0
370
    -2
100
AcDbCircle
 10
0.0
 20
0.0
 30
0.0
 40
0.5
  0
LINE
  5
195
330
191
100
AcDbEntity
  8
0
  6
ByBlock
 62
     0
370
    -2
100
AcDbLine
 10
0.0
 20
0.0
 30
0.0
 11
-1.0
 21
0.0
 31
0.0
  0
ENDBLK
  5
193
330
191
100
AcDbEntity
  8
0
100
AcDbBlockEnd
  0
BLOCK
  5
19E
330
197
100
AcDbEntity
  8
0
100
AcDbBlockBegin
  2
*D4
 70
     1
 10
0.0
 20
0.0
 30
0.0
  3
*D4
  1
*D4
  0
MTEXT
  5
198
330
197
100
AcDbEntity
  8
SIZE
100
AcDbMText
 10
-191.2500000000004
 20
60.4420598070063
 30
0.0
 40
34.39344981657896
 41
91.48500000000001
 71
     7
 72
     1
  1
{\fＭＳ Ｐゴシック|b0|i0;315}
  7
MS PGothic w9
 73
     1
 44
0.75
  0
LINE
  5
199
330
197
100
AcDbEntity
  8
SIZE
  6
Continuous
100
AcDbLine
 10
-0.0000000000001364
 20
20.0
 30
0.0
 11
-0.0000000000004806
 21
70.4420598070063
 31
0.0
  0
LINE
  5
19A
330
197
100
AcDbEntity
  8
SIZE
  6
Continuous
100
AcDbLine
 10
-315.0000000000001
 20
2.837428746699999
 30
0.0
 11
-315.0000000000006
 21
70.4420598070063
 31
0.0
  0
CIRCLE
  5
19B
330
197
100
AcDbEntity
  8
SIZE
  6
Continuous
100
AcDbCircle
 10
-0.0000000000003441
 20
50.44205980700631
 30
0.0
 40
5.0
  0
CIRCLE
  5
19C
330
197
100
AcDbEntity
  8
SIZE
  6
Continuous
100
AcDbCircle
 10
-315.0000000000005
 20
50.4420598070063
 30
0.0
 40
5.0
  0
LINE
  5
19D
330
197
100
AcDbEntity
  8
SIZE
  6
Continuous
100
AcDbLine
 10
-0.0000000000003441
 20
50.44205980700631
 30
0.0
 11
-315.0000000000005
 21
50.4420598070063
 31
0.0
  0
ENDBLK
  5
19F
330
197
100
AcDbEntity
  8
0
100
AcDbBlockEnd
  0
BLOCK
  5
1A9
330
1A1
100
AcDbEntity
  8
0
100
AcDbBlockBegin
  2
*D5
 70
     1
 10
0.0
 20
0.0
 30
0.0
  3
*D5
  1
*D5
  0
MTEXT
  5
1A2
330
1A1
100
AcDbEntity
  8
SIZE
100
AcDbMText
 10
-170.4790429954288
 20
-337.5832929690629
 30
0.0
 40
34.39361270825395
 41
105.795
 71
     7
 72
     1
  1
{\fＭＳ Ｐゴシック|b0|i0;43.5}
  7
MS PGothic w9
 73
     1
 44
0.75
  0
LINE
  5
1A3
330
1A1
100
AcDbEntity
  8
SIZE
  6
Continuous
100
AcDbLine
 10
-0.0000000000000047
 20
-246.1451071429252
 30
0.0
 11
-0.0000000000000331
 21
-367.5832929690629
 31
0.0
  0
LINE
  5
1A4
330
1A1
100
AcDbEntity
  8
SIZE
  6
Continuous
100
AcDbLine
 10
-43.58730192400025
 20
-241.0
 30
0.0
 11
-43.58730192400027
 21
-367.5832929690629
 31
0.0
  0
CIRCLE
  5
1A5
330
1A1
100
AcDbEntity
  8
SIZE
  6
Continuous
100
AcDbCircle
 10
-0.0000000000000284
 20
-347.5832929690629
 30
0.0
 40
5.0
  0
CIRCLE
  5
1A6
330
1A1
100
AcDbEntity
  8
SIZE
  6
Continuous
100
AcDbCircle
 10
-43.58730192400027
 20
-347.5832929690629
 30
0.0
 40
5.0
  0
LINE
  5
1A7
330
1A1
100
AcDbEntity
  8
SIZE
  6
Continuous
100
AcDbLine
 10
-0.0000000000000284
 20
-347.5832929690629
 30
0.0
 11
-43.58730192400027
 21
-347.5832929690629
 31
0.0
  0
LINE
  5
1A8
330
1A1
100
AcDbEntity
  8
SIZE
  6
Continuous
100
AcDbLine
 10
-43.58730192400027
 20
-347.5832929690629
 30
0.0
 11
-170.4790429954288
 21
-347.5832929690629
 31
0.0
  0
ENDBLK
  5
1AA
330
1A1
100
AcDbEntity
  8
0
100
AcDbBlockEnd
  0
BLOCK
  5
1B4
330
1AC
100
AcDbEntity
  8
0
100
AcDbBlockBegin
  2
*D6
 70
     1
 10
0.0
 20
0.0
 30
0.0
  3
*D6
  1
*D6
  0
MTEXT
  5
1AD
330
1AC
100
AcDbEntity
  8
SIZE
100
AcDbMText
 10
60.16138097794442
 20
-320.0158733525713
 30
0.0
 40
34.39560377148757
 41
58.00500000000001
 71
     7
 72
     1
  1
{\fＭＳ Ｐゴシック|b0|i0;57}
  7
MS PGothic w9
 11
6.123233995736766E-17
 21
1.0
 31
0.0
 73
     1
 44
0.75
  0
LINE
  5
1AE
330
1AC
100
AcDbEntity
  8
SIZE
  6
Continuous
100
AcDbLine
 10
15.27630148529988
 20
-241.087301924
 30
0.0
 11
90.16138097794438
 21
-241.087301924
 31
0.0
  0
LINE
  5
1AF
330
1AC
100
AcDbEntity
  8
SIZE
  6
Continuous
100
AcDbLine
 10
14.99476348129997
 20
-183.912698076
 30
0.0
 11
90.16138097794519
 21
-183.912698076
 31
0.0
  0
CIRCLE
  5
1B0
330
1AC
100
AcDbEntity
  8
SIZE
  6
Continuous
100
AcDbCircle
 10
70.16138097794438
 20
-241.087301924
 30
0.0
 40
5.0
  0
CIRCLE
  5
1B1
330
1AC
100
AcDbEntity
  8
SIZE
  6
Continuous
100
AcDbCircle
 10
70.16138097794519
 20
-183.912698076
 30
0.0
 40
5.0
  0
LINE
  5
1B2
330
1AC
100
AcDbEntity
  8
SIZE
  6
Continuous
100
AcDbLine
 10
70.16138097794438
 20
-241.087301924
 30
0.0
 11
70.16138097794519
 21
-183.912698076
 31
0.0
  0
LINE
  5
1B3
330
1AC
100
AcDbEntity
  8
SIZE
  6
Continuous
100
AcDbLine
 10
70.16138097794438
 20
-241.087301924
 30
0.0
 11
70.16138097794325
 21
-320.0158733525718
 31
0.0
  0
ENDBLK
  5
1B5
330
1AC
100
AcDbEntity
  8
0
100
AcDbBlockEnd
  0
BLOCK
  5
1C1
330
1B9
100
AcDbEntity
  8
0
100
AcDbBlockBegin
  2
*D7
 70
     1
 10
0.0
 20
0.0
 30
0.0
  3
*D7
  1
*D7
  0
MTEXT
  5
1BA
330
1B9
100
AcDbEntity
  8
SIZE
100
AcDbMText
 10
152.5694597509643
 20
-184.7142857142856
 30
0.0
 40
34.39574115044247
 41
50.85000000000001
 71
     7
 72
     1
  1
{\fＭＳ Ｐゴシック|b0|i0;41}
  7
MS PGothic w9
 11
6.123233995736766E-17
 21
1.0
 31
0.0
 73
     1
 44
0.75
  0
LINE
  5
1BB
330
1B9
100
AcDbEntity
  8
SIZE
  6
Continuous
100
AcDbLine
 10
20.00000000000023
 20
-250.0
 30
0.0
 11
182.5694597509643
 21
-250.0
 31
0.0
  0
LINE
  5
1BC
330
1B9
100
AcDbEntity
  8
SIZE
  6
Continuous
100
AcDbLine
 10
40.0
 20
-209.0
 30
0.0
 11
182.5694597509643
 21
-209.0
 31
0.0
  0
CIRCLE
  5
1BD
330
1B9
100
AcDbEntity
  8
SIZE
  6
Continuous
100
AcDbCircle
 10
162.5694597509643
 20
-250.0
 30
0.0
 40
5.0
  0
CIRCLE
  5
1BE
330
1B9
100
AcDbEntity
  8
SIZE
  6
Continuous
100
AcDbCircle
 10
162.5694597509643
 20
-209.0
 30
0.0
 40
5.0
  0
LINE
  5
1BF
330
1B9
100
AcDbEntity
  8
SIZE
  6
Continuous
100
AcDbLine
 10
162.5694597509643
 20
-250.0
 30
0.0
 11
162.5694597509643
 21
-209.0
 31
0.0
  0
LINE
  5
1C0
330
1B9
100
AcDbEntity
  8
SIZE
  6
Continuous
100
AcDbLine
 10
162.5694597509643
 20
-209.0
 30
0.0
 11
162.5694597509643
 21
-139.7142857142856
 31
0.0
  0
ENDBLK
  5
1C2
330
1B9
100
AcDbEntity
  8
0
100
AcDbBlockEnd
  0
BLOCK
  5
1CC
330
1C4
100
AcDbEntity
  8
0
100
AcDbBlockBegin
  2
*D8
 70
     1
 10
0.0
 20
0.0
 30
0.0
  3
*D8
  1
*D8
  0
MTEXT
  5
1C5
330
1C4
100
AcDbEntity
  8
SIZE
100
AcDbMText
 10
222.7481757832882
 20
-174.0714285714286
 30
0.0
 40
34.38909559502628
 41
59.80500000000001
 71
     7
 72
     1
  1
{\fＭＳ Ｐゴシック|b0|i0;42}
  7
MS PGothic w9
 11
6.123233995736766E-17
 21
1.0
 31
0.0
 73
     1
 44
0.7500000000000001
  0
LINE
  5
1C6
330
1C4
100
AcDbEntity
  8
SIZE
  6
Continuous
100
AcDbLine
 10
20.00000000000023
 20
-250.0
 30
0.0
 11
252.7481757832881
 21
-250.0
 31
0.0
  0
LINE
  5
1C7
330
1C4
100
AcDbEntity
  8
SIZE
  6
Continuous
100
AcDbLine
 10
40.0
 20
-208.0
 30
0.0
 11
252.7481757832881
 21
-208.0
 31
0.0
  0
CIRCLE
  5
1C8
330
1C4
100
AcDbEntity
  8
SIZE
  6
Continuous
100
AcDbCircle
 10
232.7481757832881
 20
-250.0
 30
0.0
 40
5.0
  0
CIRCLE
  5
1C9
330
1C4
100
AcDbEntity
  8
SIZE
  6
Continuous
100
AcDbCircle
 10
232.7481757832881
 20
-208.0
 30
0.0
 40
5.0
  0
LINE
  5
1CA
330
1C4
100
AcDbEntity
  8
SIZE
  6
Continuous
100
AcDbLine
 10
232.7481757832881
 20
-250.0
 30
0.0
 11
232.7481757832881
 21
-208.0
 31
0.0
  0
LINE
  5
1CB
330
1C4
100
AcDbEntity
  8
SIZE
  6
Continuous
100
AcDbLine
 10
232.7481757832881
 20
-208.0
 30
0.0
 11
232.7481757832881
 21
-129.0714285714286
 31
0.0
  0
ENDBLK
  5
1CD
330
1C4
100
AcDbEntity
  8
0
100
AcDbBlockEnd
  0
BLOCK
  5
1D6
330
1CF
100
AcDbEntity
  8
0
100
AcDbBlockBegin
  2
*D9
 70
     1
 10
0.0
 20
0.0
 30
0.0
  3
*D9
  1
*D9
  0
MTEXT
  5
1D0
330
1CF
100
AcDbEntity
  8
SIZE
100
AcDbMText
 10
320.4970747501736
 20
-158.75
 30
0.0
 40
34.38867947470817
 41
92.52000000000001
 71
     7
 72
     1
  1
{\fＭＳ Ｐゴシック|b0|i0;250}
  7
MS PGothic w9
 11
6.123233995736766E-17
 21
1.0
 31
0.0
 73
     1
 44
0.75
  0
LINE
  5
1D1
330
1CF
100
AcDbEntity
  8
SIZE
  6
Continuous
100
AcDbLine
 10
20.00000000000023
 20
-250.0
 30
0.0
 11
350.4970747501736
 21
-250.0
 31
0.0
  0
LINE
  5
1D2
330
1CF
100
AcDbEntity
  8
SIZE
  6
Continuous
100
AcDbLine
 10
20.0
 20
0.0
 30
0.0
 11
350.4970747501736
 21
0.0
 31
0.0
  0
CIRCLE
  5
1D3
330
1CF
100
AcDbEntity
  8
SIZE
  6
Continuous
100
AcDbCircle
 10
330.4970747501736
 20
-250.0
 30
0.0
 40
5.0
  0
CIRCLE
  5
1D4
330
1CF
100
AcDbEntity
  8
SIZE
  6
Continuous
100
AcDbCircle
 10
330.4970747501736
 20
0.0
 30
0.0
 40
5.0
  0
LINE
  5
1D5
330
1CF
100
AcDbEntity
  8
SIZE
  6
Continuous
100
AcDbLine
 10
330.4970747501736
 20
-250.0
 30
0.0
 11
330.4970747501736
 21
0.0
 31
0.0
  0
ENDBLK
  5
1D7
330
1CF
100
AcDbEntity
  8
0
100
AcDbBlockEnd
  0
ENDSEC
  0
SECTION
  2
ENTITIES
  0
DIMENSION
  5
196
330
1F
100
AcDbEntity
  8
SIZE
  6
Continuous
100
AcDbDimension
  2
*D4
 10
-315.0000000000005
 20
50.44205980700634
 30
0.0
 11
-157.5000000000004
 21
85.4420598070063
 31
0.0
 70
    32
 71
     5
 42
-1.0
  3
Standard
100
AcDbAlignedDimension
 13
0.0
 23
0.0
 33
0.0
 14
-315.0
 24
-17.1625712533
 34
0.0
100
AcDbRotatedDimension
1001
ACAD
1000
DSTYLE
1002
{
1070
    41
1040
10.0
1070
   289
1070
     1
1070
   342
1005
191
1070
   271
1070
     0
1070
    44
1040
20.0
1070
    42
1040
20.0
1070
   147
1040
10.0
1070
    77
1070
     1
1070
   272
1070
     0
1070
    73
1070
     0
1070
   174
1070
     1
1070
   172
1070
     1
1070
    74
1070
     0
1070
   340
1005
190
1070
   140
1040
34.39344981657896
1070
   284
1070
     1
1070
    78
1070
     8
1070
   345
1005
16
1070
   346
1005
14
1002
}
1001
ACAD_DSTYLE_DIM_LINETYPE
1070
   380
1005
16
1001
ACAD_DSTYLE_DIM_EXT1_LINETYPE
1070
   381
1005
14
  0
DIMENSION
  5
1A0
330
1F
100
AcDbEntity
  8
SIZE
  6
Continuous
100
AcDbDimension
  2
*D5
 10
-43.58730192400027
 20
-347.5832929690629
 30
0.0
 11
-132.1587304954288
 21
-312.5832929690629
 31
0.0
 70
   160
  1
43.5
 71
     5
 42
-1.0
  3
Standard
100
AcDbAlignedDimension
 13
0.0
 23
-226.1451071429252
 33
0.0
 14
-43.58730192400025
 24
-221.0
 34
0.0
100
AcDbRotatedDimension
1001
ACAD
1000
DSTYLE
1002
{
1070
    41
1040
10.0
1070
   289
1070
     1
1070
   342
1005
191
1070
   271
1070
     0
1070
    44
1040
20.0
1070
    42
1040
20.0
1070
   147
1040
10.0
1070
    77
1070
     1
1070
   272
1070
     2
1070
   146
1040
0.5
1070
    73
1070
     0
1070
   174
1070
     1
1070
   172
1070
     1
1070
    74
1070
     0
1070
   283
1070
     0
1070
   340
1005
190
1070
   140
1040
34.39361270825395
1070
   284
1070
     1
1070
    78
1070
     8
1070
   345
1005
16
1070
   346
1005
14
1002
}
1001
ACAD_DSTYLE_DIM_LINETYPE
1070
   380
1005
16
1001
ACAD_DSTYLE_DIM_EXT1_LINETYPE
1070
   381
1005
14
1001
ACAD_DSTYLE_DIMFLIPARROW_SYMBOL
1070
   385
1070
     0
1001
ACAD_DSTYLE_DIMFLIPARROW_WHICH_SYMBOL
1070
   386
1070
     3
  0
DIMENSION
  5
1AB
330
1F
100
AcDbEntity
  8
SIZE
  6
Continuous
100
AcDbDimension
  2
*D6
 10
70.16138097794438
 20
-183.912698076
 30
0.0
 11
35.1613809779444
 21
-297.5158733525713
 31
0.0
 70
   160
 71
     5
 42
-1.0
  3
Standard
100
AcDbAlignedDimension
 13
-4.723698514700116
 23
-241.087301924
 33
0.0
 14
-5.00523651870003
 24
-183.912698076
 34
0.0
 50
270.0
100
AcDbRotatedDimension
1001
ACAD
1000
DSTYLE
1002
{
1070
    41
1040
10.0
1070
   289
1070
     1
1070
   342
1005
191
1070
   271
1070
     0
1070
    44
1040
20.0
1070
    42
1040
20.0
1070
   147
1040
10.0
1070
    77
1070
     1
1070
   272
1070
     0
1070
    73
1070
     0
1070
   174
1070
     1
1070
   172
1070
     1
1070
    74
1070
     0
1070
   340
1005
190
1070
   140
1040
34.39559883911458
1070
   284
1070
     1
1070
    78
1070
     8
1070
   345
1005
16
1070
   346
1005
14
1002
}
1001
ACAD_DSTYLE_DIM_LINETYPE
1070
   380
1005
16
1001
ACAD_DSTYLE_DIM_EXT1_LINETYPE
1070
   381
1005
14
1001
ACAD_DSTYLE_DIMFLIPARROW_SYMBOL
1070
   385
1070
     0
1001
ACAD_DSTYLE_DIMFLIPARROW_WHICH_SYMBOL
1070
   386
1070
     3
  0
POINT
  5
1B6
330
1F
100
AcDbEntity
  8
SIZE
100
AcDbPoint
 10
0.0
 20
381.824341052521
 30
0.0
  0
POINT
  5
1B7
330
1F
100
AcDbEntity
  8
SIZE
100
AcDbPoint
 10
72.16878364870331
 20
-125.0000000000002
 30
0.0
  0
DIMENSION
  5
1B8
330
1F
100
AcDbEntity
  8
SIZE
  6
Continuous
100
AcDbDimension
  2
*D7
 10
162.5694597509643
 20
-209.0
 30
0.0
 11
127.5694597509643
 21
-162.2142857142856
 31
0.0
 70
   160
 71
     5
 42
-1.0
  3
Standard
100
AcDbAlignedDimension
 13
0.0000000000002274
 23
-250.0
 33
0.0
 14
20.0
 24
-209.0
 34
0.0
 50
270.0
100
AcDbRotatedDimension
1001
ACAD
1000
DSTYLE
1002
{
1070
    41
1040
10.0
1070
   289
1070
     1
1070
   342
1005
191
1070
   271
1070
     0
1070
    44
1040
20.0
1070
    42
1040
20.0
1070
   147
1040
10.0
1070
    77
1070
     1
1070
   272
1070
     0
1070
    73
1070
     0
1070
   174
1070
     1
1070
   172
1070
     1
1070
    74
1070
     0
1070
   340
1005
190
1070
   140
1040
34.39573364857961
1070
   284
1070
     1
1070
    78
1070
     8
1070
   345
1005
16
1070
   346
1005
14
1002
}
1001
ACAD_DSTYLE_DIM_LINETYPE
1070
   380
1005
16
1001
ACAD_DSTYLE_DIM_EXT1_LINETYPE
1070
   381
1005
14
1001
ACAD_DSTYLE_DIMFLIPARROW_SYMBOL
1070
   385
1070
     0
1001
ACAD_DSTYLE_DIMFLIPARROW_WHICH_SYMBOL
1070
   386
1070
     3
  0
DIMENSION
  5
1C3
330
1F
100
AcDbEntity
  8
SIZE
  6
Continuous
100
AcDbDimension
  2
*D8
 10
232.7481757832881
 20
-208.0
 30
0.0
 11
197.7481757832882
 21
-151.5714285714286
 31
0.0
 70
   160
 71
     5
 42
-1.0
  3
Standard
100
AcDbAlignedDimension
 13
0.0000000000002274
 23
-250.0
 33
0.0
 14
20.0
 24
-208.0
 34
0.0
 50
270.0
100
AcDbRotatedDimension
1001
ACAD
1000
DSTYLE
1002
{
1070
    41
1040
10.0
1070
   289
1070
     1
1070
   342
1005
191
1070
   271
1070
     0
1070
    44
1040
20.0
1070
    42
1040
20.0
1070
   147
1040
10.0
1070
    77
1070
     1
1070
   272
1070
     0
1070
    73
1070
     0
1070
   174
1070
     1
1070
   172
1070
     1
1070
    74
1070
     0
1070
   340
1005
190
1070
   140
1040
34.38910835214447
1070
   284
1070
     1
1070
    78
1070
     8
1070
   345
1005
16
1070
   346
1005
14
1002
}
1001
ACAD_DSTYLE_DIM_LINETYPE
1070
   380
1005
16
1001
ACAD_DSTYLE_DIM_EXT1_LINETYPE
1070
   381
1005
14
1001
ACAD_DSTYLE_DIMFLIPARROW_SYMBOL
1070
   385
1070
     0
1001
ACAD_DSTYLE_DIMFLIPARROW_WHICH_SYMBOL
1070
   386
1070
     3
  0
DIMENSION
  5
1CE
330
1F
100
AcDbEntity
  8
SIZE
  6
Continuous
100
AcDbDimension
  2
*D9
 10
330.4970747501736
 20
0.0
 30
0.0
 11
295.4970747501736
 21
-125.0
 31
0.0
 70
    32
 71
     5
 42
-1.0
  3
Standard
100
AcDbAlignedDimension
 13
0.0000000000002274
 23
-250.0
 33
0.0
 14
0.0
 24
0.0
 34
0.0
 50
270.0
100
AcDbRotatedDimension
1001
ACAD
1000
DSTYLE
1002
{
1070
    41
1040
10.0
1070
   289
1070
     1
1070
   342
1005
191
1070
   271
1070
     0
1070
    44
1040
20.0
1070
    42
1040
20.0
1070
   147
1040
10.0
1070
    77
1070
     1
1070
   272
1070
     0
1070
    73
1070
     0
1070
   174
1070
     1
1070
   172
1070
     1
1070
    74
1070
     0
1070
   340
1005
190
1070
   140
1040
34.38867947470817
1070
   284
1070
     1
1070
    78
1070
     8
1070
   345
1005
16
1070
   346
1005
14
1002
}
1001
ACAD_DSTYLE_DIM_LINETYPE
1070
   380
1005
16
1001
ACAD_DSTYLE_DIM_EXT1_LINETYPE
1070
   381
1005
14
  0
LINE
  5
1D8
330
1F
100
AcDbEntity
  8
DETAIL
  6
Continuous
100
AcDbLine
 10
-313.4838437907001
 20
-15.22197980130002
 30
0.0
 11
-301.5
 21
-12.2340719613
 31
0.0
  0
LINE
  5
1D9
330
1F
100
AcDbEntity
  8
DETAIL
  6
Continuous
100
AcDbLine
 10
-298.9371849880001
 20
-15.78234718800002
 30
0.0
 11
-300.0
 21
-15.91693498130001
 31
0.0
  0
LINE
  5
1DA
330
1F
100
AcDbEntity
  8
DETAIL
  6
Continuous
100
AcDbLine
 10
-2.949835140000004
 20
-247.632817228
 30
0.0
 11
-2.956078161400228
 21
-247.6335837746
 31
0.0
  0
LINE
  5
1DB
330
1F
100
AcDbEntity
  8
DETAIL
  6
Continuous
100
AcDbLine
 10
-87.58720880270018
 20
-248.7607426933001
 30
0.0
 11
-87.0
 21
-248.709337064
 31
0.0
  0
LINE
  5
1DC
330
1F
100
AcDbEntity
  8
DETAIL
  6
Continuous
100
AcDbLine
 10
-301.5
 20
-204.470966004
 30
0.0
 11
-300.6633648307002
 21
-204.4271198133
 31
0.0
  0
LINE
  5
1DD
330
1F
100
AcDbEntity
  8
DETAIL
  6
Continuous
100
AcDbLine
 10
-84.15711612140014
 20
-175.1358695
 30
0.0
 11
-67.05133828940006
 21
-174.2393936706
 31
0.0
  0
LINE
  5
1DE
330
1F
100
AcDbEntity
  8
DETAIL
  6
Continuous
100
AcDbLine
 10
-68.5
 20
-172.7765531506
 30
0.0
 11
-84.23551180270007
 21
-173.60121638
 31
0.0
  0
LINE
  5
1DF
330
1F
100
AcDbEntity
  8
DETAIL
  6
Continuous
100
AcDbLine
 10
-174.7096458694002
 20
-247.701564532
 30
0.0
 11
-181.1125213867001
 21
-247.925157872
 31
0.0
  0
LINE
  5
1E0
330
1F
100
AcDbEntity
  8
DETAIL
  6
Continuous
100
AcDbLine
 10
-48.8002830667001
 20
-174.1788999906
 30
0.0
 11
-53.69971693340017
 21
-174.233317624
 31
0.0
  0
LINE
  5
1E1
330
1F
100
AcDbEntity
  8
DETAIL
  6
Continuous
100
AcDbLine
 10
-281.4834500814002
 20
-231.7875755826
 30
0.0
 11
-281.5147532334001
 21
-231.7877340346
 31
0.0
  0
LINE
  5
1E2
330
1F
100
AcDbEntity
  8
DETAIL
  6
Continuous
100
AcDbLine
 10
-87.0174537360001
 20
-250.0
 30
0.0
 11
-2.923185217400031
 21
-250.0
 31
0.0
  0
LINE
  5
1E3
330
1F
100
AcDbEntity
  8
DETAIL
  6
Continuous
100
AcDbLine
 10
-23.5
 20
-241.087301924
 30
0.0
 11
-4.723698514700116
 21
-241.087301924
 31
0.0
  0
LINE
  5
1E4
330
1F
100
AcDbEntity
  8
DETAIL
  6
Continuous
100
AcDbLine
 10
-23.5
 20
-239.4126980760001
 30
0.0
 11
-5.00523651870003
 21
-239.4126980760001
 31
0.0
  0
LINE
  5
1E5
330
1F
100
AcDbEntity
  8
DETAIL
  6
Continuous
100
AcDbLine
 10
-9.005388823999965
 20
-236.445871212
 30
0.0
 11
-6.005084214700216
 21
-236.445871212
 31
0.0
  0
LINE
  5
1E6
330
1F
100
AcDbEntity
  8
DETAIL
  6
Continuous
100
AcDbLine
 10
-281.4833419294002
 20
-231.7875757213
 30
0.0
 11
-259.2947172667
 21
-231.7875757213
 31
0.0
  0
LINE
  5
1E7
330
1F
100
AcDbEntity
  8
DETAIL
  6
Continuous
100
AcDbLine
 10
-5.999847694700066
 20
-226.159365308
 30
0.0
 11
-9.000152305400206
 21
-226.159365308
 31
0.0
  0
LINE
  5
1E8
330
1F
100
AcDbEntity
  8
DETAIL
  6
Continuous
100
AcDbLine
 10
-6.005084214700216
 20
-224.5541287893
 30
0.0
 11
-9.005388823999965
 21
-224.5541287893
 31
0.0
  0
LINE
  5
1E9
330
1F
100
AcDbEntity
  8
DETAIL
  6
Continuous
100
AcDbLine
 10
-23.5
 20
-185.587301924
 30
0.0
 11
-5.00523651870003
 21
-185.587301924
 31
0.0
  0
LINE
  5
1EA
330
1F
100
AcDbEntity
  8
DETAIL
  6
Continuous
100
AcDbLine
 10
-23.5
 20
-183.912698076
 30
0.0
 11
-5.00523651870003
 21
-183.912698076
 31
0.0
  0
LINE
  5
1EB
330
1F
100
AcDbEntity
  8
DETAIL
  6
Continuous
100
AcDbLine
 10
-60.76005926000015
 20
-179.7756065373
 30
0.0
 11
-55.73994074000006
 21
-179.7756065373
 31
0.0
  0
LINE
  5
1EC
330
1F
100
AcDbEntity
  8
DETAIL
  6
Continuous
100
AcDbLine
 10
-17.71005926000021
 20
-179.7756065373
 30
0.0
 11
-12.68994074000011
 21
-179.7756065373
 31
0.0
  0
LINE
  5
1ED
330
1F
100
AcDbEntity
  8
DETAIL
  6
Continuous
100
AcDbLine
 10
-54.4860352720002
 20
-174.2366528453
 30
0.0
 11
-66.94667036270016
 21
-174.2366528453
 31
0.0
  0
LINE
  5
1EE
330
1F
100
AcDbEntity
  8
DETAIL
  6
Continuous
100
AcDbLine
 10
-5.00523651870003
 20
-174.1755647706
 30
0.0
 11
-48.01396472800025
 21
-174.1755647706
 31
0.0
  0
LINE
  5
1EF
330
1F
100
AcDbEntity
  8
DETAIL
  6
Continuous
100
AcDbLine
 10
-67.0
 20
-174.0
 30
0.0
 11
-5.0
 21
-174.0
 31
0.0
  0
LINE
  5
1F0
330
1F
100
AcDbEntity
  8
DETAIL
  6
Continuous
100
AcDbLine
 10
-188.8998273307002
 20
-246.6939607733
 30
0.0
 11
-88.49999999999999
 21
-250.2
 31
0.0
  0
LINE
  5
1F1
330
1F
100
AcDbEntity
  8
DETAIL
  6
Continuous
100
AcDbLine
 10
-302.4229835814001
 20
-204.590215404
 30
0.0
 11
-301.5
 21
-204.670966004
 31
0.0
  0
LINE
  5
1F2
330
1F
100
AcDbEntity
  8
DETAIL
  6
Continuous
100
AcDbLine
 10
-3.491273796000086
 20
-21.3863897613
 30
0.0
 11
-5.0
 21
-21.41272467600001
 31
0.0
  0
LINE
  5
1F3
330
1F
100
AcDbEntity
  8
DETAIL
  6
Continuous
100
AcDbLine
 10
-3.491273796000086
 20
-13.00857521600002
 30
0.0
 11
-5.0
 21
-13.03491013060002
 31
0.0
  0
LINE
  5
1F4
330
1F
100
AcDbEntity
  8
DETAIL
  6
Continuous
100
AcDbLine
 10
-68.5
 20
0.1999999999999886
 30
0.0
 11
-144.8000000000002
 21
-1.131821454600014
 31
0.0
  0
LINE
  5
1F5
330
1F
100
AcDbEntity
  8
DETAIL
  6
Continuous
100
AcDbLine
 10
-5.0
 20
-21.5
 30
0.0
 11
-1.5
 21
-21.5
 31
0.0
  0
LINE
  5
1F6
330
1F
100
AcDbEntity
  8
DETAIL
  6
Continuous
100
AcDbLine
 10
-67.0
 20
0.0
 30
0.0
 11
-13.0
 21
0.0
 31
0.0
  0
LINE
  5
1F7
330
1F
100
AcDbEntity
  8
DETAIL
  6
Continuous
100
AcDbLine
 10
-68.5
 20
0.1999999999999886
 30
0.0
 11
-28.68158800140009
 21
0.1999999999999886
 31
0.0
  0
LINE
  5
1F8
330
1F
100
AcDbEntity
  8
DETAIL
  6
Continuous
100
AcDbLine
 10
-5.0
 20
-10.96508987059999
 30
0.0
 11
-3.491273796000086
 21
-10.991424784
 31
0.0
  0
LINE
  5
1F9
330
1F
100
AcDbEntity
  8
DETAIL
  6
Continuous
100
AcDbLine
 10
-300.6755703520003
 20
-12.46286168
 30
0.0
 11
-301.5
 21
-12.43407196130002
 31
0.0
  0
LINE
  5
1FA
330
1F
100
AcDbEntity
  8
DETAIL
  6
Continuous
100
AcDbLine
 10
-276.8810497947002
 20
-235.092941996
 30
0.0
 11
-275.9582187947001
 21
-235.409113096
 31
0.0
  0
LINE
  5
1FB
330
1F
100
AcDbEntity
  8
DETAIL
  6
Continuous
100
AcDbLine
 10
-275.9688253440002
 20
-235.4053391053
 30
0.0
 11
-275.8067700480001
 21
-235.4647464533
 31
0.0
  0
LINE
  5
1FC
330
1F
100
AcDbEntity
  8
DETAIL
  6
Continuous
100
AcDbLine
 10
-275.8161042467
 20
-235.4611935866
 30
0.0
 11
-275.6663022480002
 21
-235.519847148
 31
0.0
  0
LINE
  5
1FD
330
1F
100
AcDbEntity
  8
DETAIL
  6
Continuous
100
AcDbLine
 10
-277.7501452214001
 20
-234.7447042146
 30
0.0
 11
-276.8810497947002
 21
-235.092941996
 31
0.0
  0
LINE
  5
1FE
330
1F
100
AcDbEntity
  8
DETAIL
  6
Continuous
100
AcDbLine
 10
-275.6743459574002
 20
-235.5165872106
 30
0.0
 11
-275.5378182000002
 21
-235.5736167733
 31
0.0
  0
LINE
  5
1FF
330
1F
100
AcDbEntity
  8
DETAIL
  6
Continuous
100
AcDbLine
 10
-275.5445784707001
 20
-235.5707060146
 30
0.0
 11
-275.4219201040003
 21
-235.625353268
 31
0.0
  0
LINE
  5
200
330
1F
100
AcDbEntity
  8
DETAIL
  6
Continuous
100
AcDbLine
 10
-278.5982682334002
 20
-234.3492972693
 30
0.0
 11
-277.7431954334002
 21
-234.747488924
 31
0.0
  0
LINE
  5
201
330
1F
100
AcDbEntity
  8
DETAIL
  6
Continuous
100
AcDbLine
 10
-275.4274391547001
 20
-235.6228177053
 30
0.0
 11
-275.3189597560001
 21
-235.674331896
 31
0.0
  0
LINE
  5
202
330
1F
100
AcDbEntity
  8
DETAIL
  6
Continuous
100
AcDbLine
 10
-282.2173857627001
 20
-224.5661689853
 30
0.0
 11
-282.0397464887003
 21
-224.6506218763
 31
0.0
  0
LINE
  5
203
330
1F
100
AcDbEntity
  8
DETAIL
  6
Continuous
100
AcDbLine
 10
-282.4219855800002
 20
-224.467656988
 30
0.0
 11
-282.2173857627001
 21
-224.5661689853
 31
0.0
  0
LINE
  5
204
330
1F
100
AcDbEntity
  8
DETAIL
  6
Continuous
100
AcDbLine
 10
-282.4887219880002
 20
-224.435153072
 30
0.0
 11
-282.4219855800002
 21
-224.467656988
 31
0.0
  0
LINE
  5
205
330
1F
100
AcDbEntity
  8
DETAIL
  6
Continuous
100
AcDbLine
 10
-275.3233539240002
 20
-235.6721793560001
 30
0.0
 11
-275.2318041694002
 21
-235.71854696
 31
0.0
  0
LINE
  5
206
330
1F
100
AcDbEntity
  8
DETAIL
  6
Continuous
100
AcDbLine
 10
-279.4229171134002
 20
-233.9080462426
 30
0.0
 11
-278.5982682334002
 21
-234.3492972693
 31
0.0
  0
LINE
  5
207
330
1F
100
AcDbEntity
  8
DETAIL
  6
Continuous
100
AcDbLine
 10
-275.2318041694002
 20
-235.71854696
 30
0.0
 11
-275.1524791454001
 21
-235.7616306413
 31
0.0
  0
LINE
  5
208
330
1F
100
AcDbEntity
  8
DETAIL
  6
Continuous
100
AcDbLine
 10
-275.1524791454001
 20
-235.7616306413
 30
0.0
 11
-275.0847822440003
 21
-235.801265788
 31
0.0
  0
LINE
  5
209
330
1F
100
AcDbEntity
  8
DETAIL
  6
Continuous
100
AcDbLine
 10
-280.2215963027002
 20
-233.4222943386
 30
0.0
 11
-279.4166962787001
 21
-233.9113748706
 31
0.0
  0
LINE
  5
20A
330
1F
100
AcDbEntity
  8
DETAIL
  6
Continuous
100
AcDbLine
 10
-275.0847822440003
 20
-235.801265788
 30
0.0
 11
-275.0280423560004
 21
-235.837377276
 31
0.0
  0
LINE
  5
20B
330
1F
100
AcDbEntity
  8
DETAIL
  6
Continuous
100
AcDbLine
 10
-280.8611280694001
 20
-232.9878948840001
 30
0.0
 11
-280.2215963027002
 21
-233.4222943386
 31
0.0
  0
LINE
  5
20C
330
1F
100
AcDbEntity
  8
DETAIL
  6
Continuous
100
AcDbLine
 10
-275.0280423560004
 20
-235.837377276
 30
0.0
 11
-274.9827238774001
 21
-235.8691158306
 31
0.0
  0
LINE
  5
20D
330
1F
100
AcDbEntity
  8
DETAIL
  6
Continuous
100
AcDbLine
 10
-281.7956317467001
 20
-225.4997548746
 30
0.0
 11
-281.7794225494001
 21
-225.688094736
 31
0.0
  0
LINE
  5
20E
330
1F
100
AcDbEntity
  8
DETAIL
  6
Continuous
100
AcDbLine
 10
-282.9820502427001
 20
-223.861975348
 30
0.0
 11
-282.9809001774001
 21
-223.879752864
 31
0.0
  0
LINE
  5
20F
330
1F
100
AcDbEntity
  8
DETAIL
  6
Continuous
100
AcDbLine
 10
-281.5147446294002
 20
-231.7877319853
 30
0.0
 11
-281.5129851000001
 21
-231.8218801773
 31
0.0
  0
LINE
  5
210
330
1F
100
AcDbEntity
  8
DETAIL
  6
Continuous
100
AcDbLine
 10
-281.7794225494001
 20
-225.688094736
 30
0.0
 11
-281.7775189147001
 21
-225.7267783293
 31
0.0
  0
LINE
  5
211
330
1F
100
AcDbEntity
  8
DETAIL
  6
Continuous
100
AcDbLine
 10
-281.7772667227002
 20
-225.7267632133
 30
0.0
 11
-281.5146448827002
 21
-231.7877317586
 31
0.0
  0
LINE
  5
212
330
1F
100
AcDbEntity
  8
DETAIL
  6
Continuous
100
AcDbLine
 10
-283.1508365867001
 20
-219.0285827253
 30
0.0
 11
-282.982050796
 21
-223.8619753706
 31
0.0
  0
LINE
  5
213
330
1F
100
AcDbEntity
  8
DETAIL
  6
Continuous
100
AcDbLine
 10
-275.2025233974002
 20
-235.896085288
 30
0.0
 11
-275.2039406840002
 21
-235.7336804133001
 31
0.0
  0
LINE
  5
214
330
1F
100
AcDbEntity
  8
DETAIL
  6
Continuous
100
AcDbLine
 10
-274.8788852774
 20
-236.0085282333
 30
0.0
 11
-274.8755773520002
 21
-236.403094704
 31
0.0
  0
LINE
  5
215
330
1F
100
AcDbEntity
  8
DETAIL
  6
Continuous
100
AcDbLine
 10
-315.0
 20
-194.894984608
 30
0.0
 11
-315.0
 21
-17.1625712533
 31
0.0
  0
LINE
  5
216
330
1F
100
AcDbEntity
  8
DETAIL
  6
Continuous
100
AcDbLine
 10
-301.5
 20
-204.670966004
 30
0.0
 11
-301.5
 21
-12.2340719613
 31
0.0
  0
LINE
  5
217
330
1F
100
AcDbEntity
  8
DETAIL
  6
Continuous
100
AcDbLine
 10
-300.0
 20
-203.7280791386
 30
0.0
 11
-300.0
 21
-13.16243525860002
 31
0.0
  0
LINE
  5
218
330
1F
100
AcDbEntity
  8
DETAIL
  6
Continuous
100
AcDbLine
 10
-298.5
 20
-207.6139262693
 30
0.0
 11
-298.5
 21
-14.45109999199999
 31
0.0
  0
LINE
  5
219
330
1F
100
AcDbEntity
  8
DETAIL
  6
Continuous
100
AcDbLine
 10
-266.7493803120003
 20
-133.649236184
 30
0.0
 11
-266.7493803120003
 21
-148.1507638173
 31
0.0
  0
LINE
  5
21A
330
1F
100
AcDbEntity
  8
DETAIL
  6
Continuous
100
AcDbLine
 10
-264.5537171240003
 20
-148.1507638093
 30
0.0
 11
-264.5537171240003
 21
-133.6492361906
 31
0.0
  0
LINE
  5
21B
330
1F
100
AcDbEntity
  8
DETAIL
  6
Continuous
100
AcDbLine
 10
-261.2493803120003
 20
-133.649236184
 30
0.0
 11
-261.2493803120003
 21
-148.1507638173
 31
0.0
  0
LINE
  5
21C
330
1F
100
AcDbEntity
  8
DETAIL
  6
Continuous
100
AcDbLine
 10
-259.0537171240003
 20
-148.1507638093
 30
0.0
 11
-259.0537171240003
 21
-133.6492361906
 31
0.0
  0
LINE
  5
21D
330
1F
100
AcDbEntity
  8
DETAIL
  6
Continuous
100
AcDbLine
 10
-88.49999999999999
 20
-250.2
 30
0.0
 11
-88.49999999999999
 21
-178.0950492866
 31
0.0
  0
LINE
  5
21E
330
1F
100
AcDbEntity
  8
DETAIL
  6
Continuous
100
AcDbLine
 10
-87.0
 20
-178.1316440306
 30
0.0
 11
-87.0
 21
-248.0
 31
0.0
  0
LINE
  5
21F
330
1F
100
AcDbEntity
  8
DETAIL
  6
Continuous
100
AcDbLine
 10
-68.5
 20
-172.7765531506
 30
0.0
 11
-68.5
 21
0.1999999999999886
 31
0.0
  0
LINE
  5
220
330
1F
100
AcDbEntity
  8
DETAIL
  6
Continuous
100
AcDbLine
 10
-67.0
 20
-174.0
 30
0.0
 11
-67.0
 21
0.0
 31
0.0
  0
LINE
  5
221
330
1F
100
AcDbEntity
  8
DETAIL
  6
Continuous
100
AcDbLine
 10
-54.4860352720002
 20
-248.0
 30
0.0
 11
-54.4860352720002
 21
-174.2366528453
 31
0.0
  0
LINE
  5
222
330
1F
100
AcDbEntity
  8
DETAIL
  6
Continuous
100
AcDbLine
 10
-54.4860352720002
 20
-174.0
 30
0.0
 11
-54.4860352720002
 21
-2.0
 31
0.0
  0
LINE
  5
223
330
1F
100
AcDbEntity
  8
DETAIL
  6
Continuous
100
AcDbLine
 10
-48.01396472800025
 20
-245.0
 30
0.0
 11
-48.01396472800025
 21
-174.1755647706
 31
0.0
  0
LINE
  5
224
330
1F
100
AcDbEntity
  8
DETAIL
  6
Continuous
100
AcDbLine
 10
-48.01396472800025
 20
-5.0
 30
0.0
 11
-48.01396472800025
 21
-174.0
 31
0.0
  0
LINE
  5
225
330
1F
100
AcDbEntity
  8
DETAIL
  6
Continuous
100
AcDbLine
 10
-43.58730192400025
 20
-204.0
 30
0.0
 11
-43.58730192400025
 21
-221.0
 31
0.0
  0
LINE
  5
226
330
1F
100
AcDbEntity
  8
DETAIL
  6
Continuous
100
AcDbLine
 10
-41.91269807600018
 20
-221.0
 30
0.0
 11
-41.91269807600018
 21
-204.0
 31
0.0
  0
LINE
  5
227
330
1F
100
AcDbEntity
  8
DETAIL
  6
Continuous
100
AcDbLine
 10
-10.00523651870003
 20
-225.553976484
 30
0.0
 11
-10.00523651870003
 21
-235.4460235160001
 31
0.0
  0
LINE
  5
228
330
1F
100
AcDbEntity
  8
DETAIL
  6
Continuous
100
AcDbLine
 10
-5.00523651870003
 20
-174.1755647706
 30
0.0
 11
-5.00523651870003
 21
-183.912698076
 31
0.0
  0
LINE
  5
229
330
1F
100
AcDbEntity
  8
DETAIL
  6
Continuous
100
AcDbLine
 10
-5.00523651870003
 20
-185.587301924
 30
0.0
 11
-5.00523651870003
 21
-223.5542810933
 31
0.0
  0
LINE
  5
22A
330
1F
100
AcDbEntity
  8
DETAIL
  6
Continuous
100
AcDbLine
 10
-5.00523651870003
 20
-237.4457189066
 30
0.0
 11
-5.00523651870003
 21
-239.4126980760001
 31
0.0
  0
LINE
  5
22B
330
1F
100
AcDbEntity
  8
DETAIL
  6
Continuous
100
AcDbLine
 10
-5.0
 20
-225.158755764
 30
0.0
 11
-5.0
 21
-223.5595176133
 31
0.0
  0
LINE
  5
22C
330
1F
100
AcDbEntity
  8
DETAIL
  6
Continuous
100
AcDbLine
 10
-5.0
 20
-174.0
 30
0.0
 11
-5.0
 21
-8.0
 31
0.0
  0
LINE
  5
22D
330
1F
100
AcDbEntity
  8
DETAIL
  6
Continuous
100
AcDbLine
 10
-5.0
 20
-183.923174308
 30
0.0
 11
-5.0
 21
-185.5768256933
 31
0.0
  0
LINE
  5
22E
330
1F
100
AcDbEntity
  8
DETAIL
  6
Continuous
100
AcDbLine
 10
-5.0
 20
-239.423174308
 30
0.0
 11
-5.0
 21
-239.7725933906
 31
0.0
  0
LINE
  5
22F
330
1F
100
AcDbEntity
  8
DETAIL
  6
Continuous
100
AcDbLine
 10
-4.930201006700143
 20
-82.7541774693
 30
0.0
 11
-4.930201006700143
 21
-49.3564064613
 31
0.0
  0
LINE
  5
230
330
1F
100
AcDbEntity
  8
DETAIL
  6
Continuous
100
AcDbLine
 10
-3.0
 20
-247.4531558693
 30
0.0
 11
-3.0
 21
-245.543735344
 31
0.0
  0
LINE
  5
231
330
1F
100
AcDbEntity
  8
DETAIL
  6
Continuous
100
AcDbLine
 10
-3.0
 20
-20.88646591459999
 30
0.0
 11
-3.0
 21
-19.17418079060002
 31
0.0
  0
LINE
  5
232
330
1F
100
AcDbEntity
  8
DETAIL
  6
Continuous
100
AcDbLine
 10
-3.0
 20
-11.49134863200001
 30
0.0
 11
-3.0
 21
-12.5086513693
 31
0.0
  0
LINE
  5
233
330
1F
100
AcDbEntity
  8
DETAIL
  6
Continuous
100
AcDbLine
 10
0.0
 20
-242.1437059866
 30
0.0
 11
0.0
 21
-23.0
 31
0.0
  0
LINE
  5
234
330
1F
100
AcDbEntity
  8
DETAIL
  6
Continuous
100
AcDbLine
 10
-2.923185217400031
 20
-250.0
 30
0.0
 11
-2.917948697400106
 21
-249.7
 31
0.0
  0
LINE
  5
235
330
1F
100
AcDbEntity
  8
DETAIL
  6
Continuous
100
AcDbLine
 10
-259.2634698494001
 20
-230.8927667906
 30
0.0
 11
-259.2947172667
 21
-231.7875757213
 31
0.0
  0
LINE
  5
236
330
1F
100
AcDbEntity
  8
DETAIL
  6
Continuous
100
AcDbLine
 10
-4.723698514700116
 20
-241.087301924
 30
0.0
 11
-4.721084368000219
 21
-241.0768256933
 31
0.0
  0
LINE
  5
237
330
1F
100
AcDbEntity
  8
DETAIL
  6
Continuous
100
AcDbLine
 10
-5.00523651870003
 20
-185.587301924
 30
0.0
 11
-5.0
 21
-185.5768256933
 31
0.0
  0
LINE
  5
238
330
1F
100
AcDbEntity
  8
DETAIL
  6
Continuous
100
AcDbLine
 10
-297.1564690147001
 20
-11.901741316
 30
0.0
 11
-298.138304088
 21
-13.30394712
 31
0.0
  0
LINE
  5
239
330
1F
100
AcDbEntity
  8
DETAIL
  6
Continuous
100
AcDbLine
 10
-58.24999999230022
 20
-176.1908703915
 30
0.0
 11
-60.76005926000015
 21
-179.7756065373
 31
0.0
  0
LINE
  5
23A
330
1F
100
AcDbEntity
  8
DETAIL
  6
Continuous
100
AcDbLine
 10
-15.19999999230026
 20
-176.1908703915
 30
0.0
 11
-17.71005926000021
 21
-179.7756065373
 31
0.0
  0
LINE
  5
23B
330
1F
100
AcDbEntity
  8
DETAIL
  6
Continuous
100
AcDbLine
 10
-10.00523651870003
 20
-235.4460235160001
 30
0.0
 11
-10.0
 21
-235.4407869973
 31
0.0
  0
LINE
  5
23C
330
1F
100
AcDbEntity
  8
DETAIL
  6
Continuous
100
AcDbLine
 10
-9.005388823999965
 20
-236.445871212
 30
0.0
 11
-9.000152305400206
 21
-236.440634692
 31
0.0
  0
LINE
  5
23D
330
1F
100
AcDbEntity
  8
DETAIL
  6
Continuous
100
AcDbLine
 10
-5.999847694700066
 20
-236.440634692
 30
0.0
 11
-6.005084214700216
 21
-236.445871212
 31
0.0
  0
LINE
  5
23E
330
1F
100
AcDbEntity
  8
DETAIL
  6
Continuous
100
AcDbLine
 10
-0.7124796854002398
 20
-243.4749864573
 30
0.0
 11
-3.114568705400187
 21
-245.0763791373
 31
0.0
  0
LINE
  5
23F
330
1F
100
AcDbEntity
  8
DETAIL
  6
Continuous
100
AcDbLine
 10
-173.6940931467001
 20
-247.224956712
 30
0.0
 11
-174.2146261014001
 21
-247.5502218013
 31
0.0
  0
LINE
  5
240
330
1F
100
AcDbEntity
  8
DETAIL
  6
Continuous
100
AcDbLine
 10
-280.8880891654003
 20
-232.968373928
 30
0.0
 11
-280.8611282147001
 21
-232.9878950933
 31
0.0
  0
LINE
  5
241
330
1F
100
AcDbEntity
  8
DETAIL
  6
Continuous
100
AcDbLine
 10
-302.5330613947001
 20
-204.7418125773
 30
0.0
 11
-302.8627924227001
 21
-204.5011417053
 31
0.0
  0
LINE
  5
242
330
1F
100
AcDbEntity
  8
DETAIL
  6
Continuous
100
AcDbLine
 10
-280.9136592094001
 20
-232.949296612
 30
0.0
 11
-280.8880891654003
 21
-232.968373928
 31
0.0
  0
LINE
  5
243
330
1F
100
AcDbEntity
  8
DETAIL
  6
Continuous
100
AcDbLine
 10
-314.5221780280001
 20
-195.85334722
 30
0.0
 11
-303.4523021414002
 21
-204.195097028
 31
0.0
  0
LINE
  5
244
330
1F
100
AcDbEntity
  8
DETAIL
  6
Continuous
100
AcDbLine
 10
-274.9827238774001
 20
-235.8691158306
 30
0.0
 11
-274.9483856520003
 21
-235.8960522533001
 31
0.0
  0
LINE
  5
245
330
1F
100
AcDbEntity
  8
DETAIL
  6
Continuous
100
AcDbLine
 10
-280.9600277760001
 20
-232.910940264
 30
0.0
 11
-280.9136604627001
 21
-232.9492956213
 31
0.0
  0
LINE
  5
246
330
1F
100
AcDbEntity
  8
DETAIL
  6
Continuous
100
AcDbLine
 10
-311.1246224987003
 20
-199.967142572
 30
0.0
 11
-311.0564218787001
 21
-200.0269225253
 31
0.0
  0
LINE
  5
247
330
1F
100
AcDbEntity
  8
DETAIL
  6
Continuous
100
AcDbLine
 10
-274.9483856520003
 20
-235.8960522533001
 30
0.0
 11
-274.9267963774002
 21
-235.9154836066
 31
0.0
  0
LINE
  5
248
330
1F
100
AcDbEntity
  8
DETAIL
  6
Continuous
100
AcDbLine
 10
-282.8906289200002
 20
-224.067305588
 30
0.0
 11
-282.5653159320002
 21
-224.3814566893
 31
0.0
  0
LINE
  5
249
330
1F
100
AcDbEntity
  8
DETAIL
  6
Continuous
100
AcDbLine
 10
-281.1148301440003
 20
-232.759480096
 30
0.0
 11
-280.9600277760001
 21
-232.910940264
 31
0.0
  0
LINE
  5
24A
330
1F
100
AcDbEntity
  8
DETAIL
  6
Continuous
100
AcDbLine
 10
-10.00523651870003
 20
-225.553976484
 30
0.0
 11
-10.0
 21
-225.559213004
 31
0.0
  0
LINE
  5
24B
330
1F
100
AcDbEntity
  8
DETAIL
  6
Continuous
100
AcDbLine
 10
-9.005388823999965
 20
-224.5541287893
 30
0.0
 11
-9.000152305400206
 21
-224.559365308
 31
0.0
  0
LINE
  5
24C
330
1F
100
AcDbEntity
  8
DETAIL
  6
Continuous
100
AcDbLine
 10
-6.005084214700216
 20
-224.5541287893
 30
0.0
 11
-5.999847694700066
 21
-224.559365308
 31
0.0
  0
LINE
  5
24D
330
1F
100
AcDbEntity
  8
DETAIL
  6
Continuous
100
AcDbLine
 10
-13.0
 20
0.0
 30
0.0
 11
-5.0
 21
-8.0
 31
0.0
  0
LINE
  5
24E
330
1F
100
AcDbEntity
  8
DETAIL
  6
Continuous
100
AcDbLine
 10
-274.9267963774002
 20
-235.9154836066
 30
0.0
 11
-274.9219757187002
 21
-235.9203781533
 31
0.0
  0
LINE
  5
24F
330
1F
100
AcDbEntity
  8
DETAIL
  6
Continuous
100
AcDbLine
 10
-311.1871363254002
 20
-199.9014194706
 30
0.0
 11
-311.1258828254002
 21
-199.9658175733
 31
0.0
  0
LINE
  5
250
330
1F
100
AcDbEntity
  8
DETAIL
  6
Continuous
100
AcDbLine
 10
-282.9154000240004
 20
-224.0402728706
 30
0.0
 11
-282.8906304854001
 21
-224.0673073986
 31
0.0
  0
LINE
  5
251
330
1F
100
AcDbEntity
  8
DETAIL
  6
Continuous
100
AcDbLine
 10
-274.9219757187002
 20
-235.9203781533
 30
0.0
 11
-274.91778546
 21
-235.9250409613
 31
0.0
  0
LINE
  5
252
330
1F
100
AcDbEntity
  8
DETAIL
  6
Continuous
100
AcDbLine
 10
-275.1355768467001
 20
-236.08240798
 30
0.0
 11
-274.8755777627002
 21
-236.4030946586
 31
0.0
  0
LINE
  5
253
330
1F
100
AcDbEntity
  8
DETAIL
  6
Continuous
100
AcDbLine
 10
-311.2434330880001
 20
-199.8303092386
 30
0.0
 11
-311.1871298854004
 21
-199.9014276053
 31
0.0
  0
LINE
  5
254
330
1F
100
AcDbEntity
  8
DETAIL
  6
Continuous
100
AcDbLine
 10
-281.2465246494
 20
-232.5914072773
 30
0.0
 11
-281.1148301440003
 21
-232.759480096
 31
0.0
  0
LINE
  5
255
330
1F
100
AcDbEntity
  8
DETAIL
  6
Continuous
100
AcDbLine
 10
-55.73994074000006
 20
-179.7756065373
 30
0.0
 11
-58.24999999230022
 21
-176.1908703915
 31
0.0
  0
LINE
  5
256
330
1F
100
AcDbEntity
  8
DETAIL
  6
Continuous
100
AcDbLine
 10
-12.68994074000011
 20
-179.7756065373
 30
0.0
 11
-15.19999999230026
 21
-176.1908703915
 31
0.0
  0
LINE
  5
257
330
1F
100
AcDbEntity
  8
DETAIL
  6
Continuous
100
AcDbLine
 10
-3.09042397739995
 20
-18.88739257329999
 30
0.0
 11
-5.0
 21
-16.16023538260001
 31
0.0
  0
LINE
  5
258
330
1F
100
AcDbEntity
  8
DETAIL
  6
Continuous
100
AcDbLine
 10
-282.9470591534002
 20
-223.9924561960001
 30
0.0
 11
-282.9154000240004
 21
-224.0402728706
 31
0.0
  0
LINE
  5
259
330
1F
100
AcDbEntity
  8
DETAIL
  6
Continuous
100
AcDbLine
 10
-311.2930634307002
 20
-199.7543757466
 30
0.0
 11
-311.2434330880001
 21
-199.8303092386
 31
0.0
  0
LINE
  5
25A
330
1F
100
AcDbEntity
  8
DETAIL
  6
Continuous
100
AcDbLine
 10
-281.3532959734002
 20
-232.4099932653
 30
0.0
 11
-281.2465246494
 21
-232.5914072773
 31
0.0
  0
LINE
  5
25B
330
1F
100
AcDbEntity
  8
DETAIL
  6
Continuous
100
AcDbLine
 10
-282.0397464887003
 20
-224.6506218763
 30
0.0
 11
-282.0230715960001
 21
-224.681554808
 31
0.0
  0
LINE
  5
25C
330
1F
100
AcDbEntity
  8
DETAIL
  6
Continuous
100
AcDbLine
 10
-311.3356051574001
 20
-199.6742649093
 30
0.0
 11
-311.2930603320003
 21
-199.7543815813
 31
0.0
  0
LINE
  5
25D
330
1F
100
AcDbEntity
  8
DETAIL
  6
Continuous
100
AcDbLine
 10
-5.00523651870003
 20
-239.4126980760001
 30
0.0
 11
-5.0
 21
-239.423174308
 31
0.0
  0
LINE
  5
25E
330
1F
100
AcDbEntity
  8
DETAIL
  6
Continuous
100
AcDbLine
 10
-5.00523651870003
 20
-183.912698076
 30
0.0
 11
-5.0
 21
-183.923174308
 31
0.0
  0
LINE
  5
25F
330
1F
100
AcDbEntity
  8
DETAIL
  6
Continuous
100
AcDbLine
 10
-282.0232572680002
 20
-224.681235964
 30
0.0
 11
-281.9659566174003
 21
-224.8106833426
 31
0.0
  0
LINE
  5
260
330
1F
100
AcDbEntity
  8
DETAIL
  6
Continuous
100
AcDbLine
 10
-281.4336222414001
 20
-232.21875588
 30
0.0
 11
-281.3532959734002
 21
-232.4099932653
 31
0.0
  0
LINE
  5
261
330
1F
100
AcDbEntity
  8
DETAIL
  6
Continuous
100
AcDbLine
 10
-311.3707119307003
 20
-199.5906317026
 30
0.0
 11
-311.3356032934003
 21
-199.674269352
 31
0.0
  0
LINE
  5
262
330
1F
100
AcDbEntity
  8
DETAIL
  6
Continuous
100
AcDbLine
 10
-282.9694064427001
 20
-223.9382891933
 30
0.0
 11
-282.9470591534002
 21
-223.9924561960001
 31
0.0
  0
LINE
  5
263
330
1F
100
AcDbEntity
  8
DETAIL
  6
Continuous
100
AcDbLine
 10
-281.9658497627001
 20
-224.81095022
 30
0.0
 11
-281.9116682694
 21
-224.96169564
 31
0.0
  0
LINE
  5
264
330
1F
100
AcDbEntity
  8
DETAIL
  6
Continuous
100
AcDbLine
 10
-311.3980973747002
 20
-199.504156792
 30
0.0
 11
-311.3707119307003
 21
-199.5906317026
 31
0.0
  0
LINE
  5
265
330
1F
100
AcDbEntity
  8
DETAIL
  6
Continuous
100
AcDbLine
 10
-281.9116682694
 20
-224.96169564
 30
0.0
 11
-281.8634712760001
 21
-225.130023832
 31
0.0
  0
LINE
  5
266
330
1F
100
AcDbEntity
  8
DETAIL
  6
Continuous
100
AcDbLine
 10
-281.4868855054001
 20
-232.0215042586
 30
0.0
 11
-281.4336222414001
 21
-232.21875588
 31
0.0
  0
LINE
  5
267
330
1F
100
AcDbEntity
  8
DETAIL
  6
Continuous
100
AcDbLine
 10
-3.675294225400193
 20
-245.0
 30
0.0
 11
-4.723698514700116
 21
-241.087301924
 31
0.0
  0
LINE
  5
268
330
1F
100
AcDbEntity
  8
DETAIL
  6
Continuous
100
AcDbLine
 10
-4.931851652000204
 20
-240.29023148
 30
0.0
 11
-4.721084368000219
 21
-241.0768256933
 31
0.0
  0
LINE
  5
269
330
1F
100
AcDbEntity
  8
DETAIL
  6
Continuous
100
AcDbLine
 10
-311.4175343014001
 20
-199.4155561213
 30
0.0
 11
-311.3980973747002
 21
-199.504156792
 31
0.0
  0
LINE
  5
26A
330
1F
100
AcDbEntity
  8
DETAIL
  6
Continuous
100
AcDbLine
 10
-281.8634712760001
 20
-225.130023832
 30
0.0
 11
-281.8239770934001
 21
-225.311250576
 31
0.0
  0
LINE
  5
26B
330
1F
100
AcDbEntity
  8
DETAIL
  6
Continuous
100
AcDbLine
 10
-282.9809001774001
 20
-223.879752864
 30
0.0
 11
-282.9694064427001
 21
-223.9382891933
 31
0.0
  0
LINE
  5
26C
330
1F
100
AcDbEntity
  8
DETAIL
  6
Continuous
100
AcDbLine
 10
-311.4219841627003
 20
-199.387316884
 30
0.0
 11
-311.4175343014001
 21
-199.4155561213
 31
0.0
  0
LINE
  5
26D
330
1F
100
AcDbEntity
  8
DETAIL
  6
Continuous
100
AcDbLine
 10
-281.8239770934001
 20
-225.311250576
 30
0.0
 11
-281.7956317467001
 21
-225.4997548746
 31
0.0
  0
LINE
  5
26E
330
1F
100
AcDbEntity
  8
DETAIL
  6
Continuous
100
AcDbLine
 10
-311.6140168267
 20
-198.044803872
 30
0.0
 11
-311.4219848720002
 21
-199.3873174746
 31
0.0
  0
LINE
  5
26F
330
1F
100
AcDbEntity
  8
DETAIL
  6
Continuous
100
AcDbLine
 10
-281.5129851000001
 20
-231.8218801773
 30
0.0
 11
-281.4868855054001
 21
-232.0215042586
 31
0.0
  0
ARC
  5
270
330
1F
100
AcDbEntity
  8
DETAIL
  6
Continuous
100
AcDbCircle
 10
-118.6213903360001
 20
-1500.9033641893
 30
0.0
 40
1500.0
100
AcDbArc
 50
91.00000000030145
 51
96.80879114309825
  0
ARC
  5
271
330
1F
100
AcDbEntity
  8
DETAIL
  6
Continuous
100
AcDbCircle
 10
-321.4656201307002
 20
-233.2337897813
 30
0.0
 40
34.1812185133
100
AcDbArc
 50
53.29340158609515
 51
54.25756362179539
  0
ARC
  5
272
330
1F
100
AcDbEntity
  8
DETAIL
  6
Continuous
100
AcDbCircle
 10
-260.8937425894001
 20
-231.7317365266
 30
0.0
 40
1.6
100
AcDbArc
 50
308.8885409223027
 51
357.9999999999993
  0
ARC
  5
273
330
1F
100
AcDbEntity
  8
DETAIL
  6
Continuous
100
AcDbCircle
 10
-274.6425166107001
 20
-236.2141579253
 30
0.0
 40
0.3
100
AcDbArc
 50
219.0308315298034
 51
257.911466108699
  0
ARC
  5
274
330
1F
100
AcDbEntity
  8
DETAIL
  6
Continuous
100
AcDbCircle
 10
-274.9025346734002
 20
-235.8934842613
 30
0.0
 40
0.3
100
AcDbArc
 50
180.4967657625005
 51
219.0311507459951
  0
ARC
  5
275
330
1F
100
AcDbEntity
  8
DETAIL
  6
Continuous
100
AcDbCircle
 10
-270.9985583107002
 20
-219.2000000586
 30
0.0
 40
17.7
100
AcDbArc
 50
257.9113381460946
 51
308.8885409224029
  0
ARC
  5
276
330
1F
100
AcDbEntity
  8
DETAIL
  6
Continuous
100
AcDbCircle
 10
-302.2486720960001
 20
-202.597826008
 30
0.0
 40
2.0
100
AcDbArc
 50
232.9999999999976
 51
265.0000000000002
  0
ARC
  5
277
330
1F
100
AcDbEntity
  8
DETAIL
  6
Continuous
100
AcDbCircle
 10
-310.4320160640002
 20
-199.245822372
 30
0.0
 40
1.0
100
AcDbArc
 50
188.1320352838012
 51
231.3667422385023
  0
ARC
  5
278
330
1F
100
AcDbEntity
  8
DETAIL
  6
Continuous
100
AcDbCircle
 10
-297.5
 20
-207.6139262693
 30
0.0
 40
1.0
100
AcDbArc
 50
180.0
 51
235.3802217758961
  0
ARC
  5
279
330
1F
100
AcDbEntity
  8
DETAIL
  6
Continuous
100
AcDbCircle
 10
-300.7000000000001
 20
-203.7280791386
 30
0.0
 40
0.7
100
AcDbArc
 50
273.0000000000056
 51
0.0
  0
ARC
  5
27A
330
1F
100
AcDbEntity
  8
DETAIL
  6
Continuous
100
AcDbCircle
 10
-282.3569193694002
 20
-224.1656570613
 30
0.0
 40
0.2999999933
100
AcDbArc
 50
225.998372827
 51
248.0002508665962
  0
ARC
  5
27B
330
1F
100
AcDbEntity
  8
DETAIL
  6
Continuous
100
AcDbCircle
 10
-261.3954340494001
 20
-152.6637731706
 30
0.0
 40
66.3173129813
100
AcDbArc
 50
233.2929088606063
 51
235.9711451057034
  0
ARC
  5
27C
330
1F
100
AcDbEntity
  8
DETAIL
  6
Continuous
100
AcDbCircle
 10
-313.8000000000002
 20
-194.894984608
 30
0.0
 40
1.199999999999999
100
AcDbArc
 50
180.0
 51
232.9999999999976
  0
ARC
  5
27D
330
1F
100
AcDbEntity
  8
DETAIL
  6
Continuous
100
AcDbCircle
 10
-265.6515487174001
 20
-148.1501648786
 30
0.0
 40
1.097850761299999
100
AcDbArc
 50
180.0312585717995
 51
359.9687417791986
  0
ARC
  5
27E
330
1F
100
AcDbEntity
  8
DETAIL
  6
Continuous
100
AcDbCircle
 10
-260.1515487174002
 20
-148.1501648973
 30
0.0
 40
1.097850753299999
100
AcDbArc
 50
180.0312575972994
 51
359.9687427536987
  0
ARC
  5
27F
330
1F
100
AcDbEntity
  8
DETAIL
  6
Continuous
100
AcDbCircle
 10
-174.7445481520003
 20
-246.7021738026
 30
0.0
 40
1.0
100
AcDbArc
 50
272.0001597387005
 51
302.0001383362935
  0
ARC
  5
280
330
1F
100
AcDbEntity
  8
DETAIL
  6
Continuous
100
AcDbCircle
 10
-87.5
 20
-249.75692552
 30
0.0
 40
0.9999976
100
AcDbArc
 50
95.00308785960605
 51
180.0004140922005
  0
ARC
  5
281
330
1F
100
AcDbEntity
  8
DETAIL
  6
Continuous
100
AcDbCircle
 10
-185.40987766
 20
-146.7548780706
 30
0.0
 40
100.0
100
AcDbArc
 50
264.1025088753988
 51
267.9999999999964
  0
ARC
  5
282
330
1F
100
AcDbEntity
  8
DETAIL
  6
Continuous
100
AcDbCircle
 10
-183.9044811227002
 20
-167.9738917106
 30
0.0
 40
80.0
100
AcDbArc
 50
265.5971071105029
 51
272.0000000000037
  0
ARC
  5
283
330
1F
100
AcDbEntity
  8
DETAIL
  6
Continuous
100
AcDbCircle
 10
-84.0
 20
-178.0950492866
 30
0.0
 40
4.5
100
AcDbArc
 50
93.00000000000558
 51
180.0
  0
ARC
  5
284
330
1F
100
AcDbEntity
  8
DETAIL
  6
Continuous
100
AcDbCircle
 10
-173.0800000000001
 20
-27.39000000000002
 30
0.0
 40
221.0
100
AcDbArc
 50
231.3671601634997
 51
265.5971071105029
  0
ARC
  5
285
330
1F
100
AcDbEntity
  8
DETAIL
  6
Continuous
100
AcDbCircle
 10
-173.0800000000001
 20
-27.39000000000002
 30
0.0
 40
220.0
100
AcDbArc
 50
235.3802217758961
 51
264.1025088753988
  0
ARC
  5
286
330
1F
100
AcDbEntity
  8
DETAIL
  6
Continuous
100
AcDbCircle
 10
-173.32849924
 20
-27.37884593200002
 30
0.0
 40
219.434365628
100
AcDbArc
 50
233.9275819279057
 51
234.2609498414951
  0
ARC
  5
287
330
1F
100
AcDbEntity
  8
DETAIL
  6
Continuous
100
AcDbCircle
 10
-260.1515487174002
 20
-133.6498351093
 30
0.0
 40
1.0978507587
100
AcDbArc
 50
0.0312575147991928
 51
179.9687421341994
  0
ARC
  5
288
330
1F
100
AcDbEntity
  8
DETAIL
  6
Continuous
100
AcDbCircle
 10
-265.6515487174001
 20
-133.6498351093
 30
0.0
 40
1.0978507587
100
AcDbArc
 50
0.0312575116986359
 51
179.9687421373001
  0
ARC
  5
289
330
1F
100
AcDbEntity
  8
DETAIL
  6
Continuous
100
AcDbCircle
 10
-23.5
 20
-221.0
 30
0.0
 40
20.087301924
100
AcDbArc
 50
180.0
 51
270.0
  0
ARC
  5
28A
330
1F
100
AcDbEntity
  8
DETAIL
  6
Continuous
100
AcDbCircle
 10
-23.5
 20
-204.0
 30
0.0
 40
20.087301924
100
AcDbArc
 50
90.0
 51
180.0
  0
ARC
  5
28B
330
1F
100
AcDbEntity
  8
DETAIL
  6
Continuous
100
AcDbCircle
 10
-23.5
 20
-221.0
 30
0.0
 40
18.41269807599999
100
AcDbArc
 50
180.0
 51
270.0
  0
ARC
  5
28C
330
1F
100
AcDbEntity
  8
DETAIL
  6
Continuous
100
AcDbCircle
 10
-23.5
 20
-204.0
 30
0.0
 40
18.41269807599999
100
AcDbArc
 50
90.0
 51
180.0
  0
ARC
  5
28D
330
1F
100
AcDbEntity
  8
DETAIL
  6
Continuous
100
AcDbCircle
 10
-3.0
 20
-239.7725933906
 30
0.0
 40
2.0
100
AcDbArc
 50
180.0
 51
195.0000000000003
  0
ARC
  5
28E
330
1F
100
AcDbEntity
  8
DETAIL
  6
Continuous
100
AcDbCircle
 10
-1.600000000000135
 20
-242.1437059866
 30
0.0
 40
1.6
100
AcDbArc
 50
303.6900675259003
 51
0.0
  0
ARC
  5
28F
330
1F
100
AcDbEntity
  8
DETAIL
  6
Continuous
100
AcDbCircle
 10
-1.5
 20
-23.0
 30
0.0
 40
1.5
100
AcDbArc
 50
0.0
 51
90.0
  0
ARC
  5
290
330
1F
100
AcDbEntity
  8
DETAIL
  6
Continuous
100
AcDbCircle
 10
-6.000057710700275
 20
-225.1593075973
 30
0.0
 40
1.0000577333
100
AcDbArc
 50
270.0120323372044
 51
359.9879676628999
  0
ARC
  5
291
330
1F
100
AcDbEntity
  8
DETAIL
  6
Continuous
100
AcDbCircle
 10
-4.0
 20
-245.539099632
 30
0.0
 40
1.0
100
AcDbArc
 50
0.0
 51
77.6870783326061
  0
ARC
  5
292
330
1F
100
AcDbEntity
  8
DETAIL
  6
Continuous
100
AcDbCircle
 10
-9.000270998699987
 20
-227.1590943093
 30
0.0
 40
0.9997290079999999
100
AcDbArc
 50
89.99319747310099
 51
180.0068025269999
  0
ARC
  5
293
330
1F
100
AcDbEntity
  8
DETAIL
  6
Continuous
100
AcDbCircle
 10
-3.5
 20
-20.88646591459999
 30
0.0
 40
0.5
100
AcDbArc
 50
271.0000000000018
 51
0.0
  0
ARC
  5
294
330
1F
100
AcDbEntity
  8
DETAIL
  6
Continuous
100
AcDbCircle
 10
-3.5
 20
-19.17419026260001
 30
0.0
 40
0.5
100
AcDbArc
 50
0.001085418199231
 51
35.00088911289829
  0
ARC
  5
295
330
1F
100
AcDbEntity
  8
DETAIL
  6
Continuous
100
AcDbCircle
 10
-313.0
 20
-17.1625712533
 30
0.0
 40
2.0
100
AcDbArc
 50
104.0000000000028
 51
180.0
  0
ARC
  5
296
330
1F
100
AcDbEntity
  8
DETAIL
  6
Continuous
100
AcDbCircle
 10
-296.5
 20
-14.45109999199999
 30
0.0
 40
2.0
100
AcDbArc
 50
145.0000000000006
 51
180.0
  0
ARC
  5
297
330
1F
100
AcDbEntity
  8
DETAIL
  6
Continuous
100
AcDbCircle
 10
-27.18538840140013
 20
0.3067087439999909
 30
0.0
 40
1.5
100
AcDbArc
 50
184.0794253271995
 51
191.8007524045986
  0
ARC
  5
298
330
1F
100
AcDbEntity
  8
DETAIL
  6
Continuous
100
AcDbCircle
 10
-296.3373169707002
 20
-12.47531775199999
 30
0.0
 40
1.0
100
AcDbArc
 50
96.80879114300642
 51
145.0000000000006
  0
ARC
  5
299
330
1F
100
AcDbEntity
  8
DETAIL
  6
Continuous
100
AcDbCircle
 10
-300.7000000000001
 20
-13.16243525860002
 30
0.0
 40
0.7
100
AcDbArc
 50
0.0
 51
87.99999999999636
  0
ARC
  5
29A
330
1F
100
AcDbEntity
  8
DETAIL
  6
Continuous
100
AcDbCircle
 10
-3.5
 20
-12.5086513693
 30
0.0
 40
0.5
100
AcDbArc
 50
271.0000000000018
 51
0.0
  0
ARC
  5
29B
330
1F
100
AcDbEntity
  8
DETAIL
  6
Continuous
100
AcDbCircle
 10
-3.5
 20
-11.49134863200001
 30
0.0
 40
0.5
100
AcDbArc
 50
0.0
 51
88.99999999999824
  0
ARC
  5
29C
330
1F
100
AcDbEntity
  8
DETAIL
  6
Continuous
100
AcDbCircle
 10
-299.0
 20
-15.28631012400001
 30
0.0
 40
0.4999994987
100
AcDbArc
 50
277.2171621792987
 51
0.0001738926984931
  0
SPLINE
  5
29D
330
1F
100
AcDbEntity
  8
DETAIL
  6
Continuous
100
AcDbSpline
210
0.0
220
0.0
230
1.0
 70
     8
 71
     3
 72
     8
 73
     4
 74
     0
 42
0.000000001
 43
0.0000000001
 40
0.0
 40
0.0
 40
0.0
 40
0.0
 40
1.0
 40
1.0
 40
1.0
 40
1.0
 10
-274.9175227640003
 20
-235.925363116
 30
0.0
 10
-274.8984029347
 20
-235.9492288066
 30
0.0
 10
-274.8795514000001
 20
-235.9780402613
 30
0.0
 10
-274.8789822134002
 20
-236.008615008
 30
0.0
  0
SPLINE
  5
29E
330
1F
100
AcDbEntity
  8
DETAIL
  6
Continuous
100
AcDbSpline
210
0.0
220
0.0
230
1.0
 70
     8
 71
     3
 72
    11
 73
     7
 74
     0
 42
0.000000001
 43
0.0000000001
 40
0.0
 40
0.0
 40
0.0
 40
0.0
 40
0.2134846782
 40
0.4422061735
 40
0.7025834601000001
 40
1.0
 40
1.0
 40
1.0
 40
1.0
 10
-43.29967901340022
 20
-250.0
 30
0.0
 10
-43.83917082000015
 20
-250.000011104
 30
0.0
 10
-44.96676665870018
 20
-249.7914497266
 30
0.0
 10
-46.50877192800021
 20
-248.831586488
 30
0.0
 10
-47.70632886400017
 20
-247.1815278813
 30
0.0
 10
-48.01382364270011
 20
-245.7515939093
 30
0.0
 10
-48.01396472800025
 20
-245.0
 30
0.0
  0
SPLINE
  5
29F
330
1F
100
AcDbEntity
  8
DETAIL
  6
Continuous
100
AcDbSpline
210
0.0
220
0.0
230
1.0
 70
     8
 71
     3
 72
    10
 73
     6
 74
     0
 42
0.000000001
 43
0.0000000001
 40
0.0
 40
0.0
 40
0.0
 40
0.0
 40
0.6743034420000003
 40
0.8887560924999997
 40
1.0
 40
1.0
 40
1.0
 40
1.0
 10
-54.4860352720002
 20
-248.0
 30
0.0
 10
-54.48593876400014
 20
-248.477230108
 30
0.0
 10
-54.54488824140003
 20
-249.1271082973
 30
0.0
 10
-54.71968283070009
 20
-249.7820655306
 30
0.0
 10
-54.89333922940023
 20
-249.9998153773
 30
0.0
 10
-54.97207054540012
 20
-250.0
 30
0.0
  0
LINE
  5
2A0
330
1F
100
AcDbEntity
  8
DETAIL
  6
Continuous
100
AcDbLine
 10
-87.00121189740022
 20
-178.095034044
 30
0.0
 11
-86.99762790507347
 21
-177.9568497546029
 31
0.0
  0
LINE
  5
2A1
330
1F
100
AcDbEntity
  8
DETAIL
  6
Continuous
100
AcDbLine
 10
-86.99762790507347
 20
-177.9568497546029
 30
0.0
 11
-86.98696251987103
 21
-177.8184277482955
 31
0.0
  0
LINE
  5
2A2
330
1F
100
AcDbEntity
  8
DETAIL
  6
Continuous
100
AcDbLine
 10
-86.98696251987103
 20
-177.8184277482955
 30
0.0
 11
-86.96934562945962
 21
-177.6801181818672
 31
0.0
  0
LINE
  5
2A3
330
1F
100
AcDbEntity
  8
DETAIL
  6
Continuous
100
AcDbLine
 10
-86.96934562945962
 20
-177.6801181818672
 30
0.0
 11
-86.9449071215059
 21
-177.5422712121073
 31
0.0
  0
LINE
  5
2A4
330
1F
100
AcDbEntity
  8
DETAIL
  6
Continuous
100
AcDbLine
 10
-86.9449071215059
 20
-177.5422712121073
 30
0.0
 11
-86.91377688367665
 21
-177.4052369958052
 31
0.0
  0
LINE
  5
2A5
330
1F
100
AcDbEntity
  8
DETAIL
  6
Continuous
100
AcDbLine
 10
-86.91377688367665
 20
-177.4052369958052
 30
0.0
 11
-86.87608480363856
 21
-177.2693656897501
 31
0.0
  0
LINE
  5
2A6
330
1F
100
AcDbEntity
  8
DETAIL
  6
Continuous
100
AcDbLine
 10
-86.87608480363856
 20
-177.2693656897501
 30
0.0
 11
-86.8319607690583
 21
-177.1350074507314
 31
0.0
  0
LINE
  5
2A7
330
1F
100
AcDbEntity
  8
DETAIL
  6
Continuous
100
AcDbLine
 10
-86.8319607690583
 20
-177.1350074507314
 30
0.0
 11
-86.78153466760261
 21
-177.0025124355385
 31
0.0
  0
LINE
  5
2A8
330
1F
100
AcDbEntity
  8
DETAIL
  6
Continuous
100
AcDbLine
 10
-86.78153466760261
 20
-177.0025124355385
 30
0.0
 11
-86.72493638693823
 21
-176.8722308009607
 31
0.0
  0
LINE
  5
2A9
330
1F
100
AcDbEntity
  8
DETAIL
  6
Continuous
100
AcDbLine
 10
-86.72493638693823
 20
-176.8722308009607
 30
0.0
 11
-86.66229581473182
 21
-176.7445127037873
 31
0.0
  0
LINE
  5
2AA
330
1F
100
AcDbEntity
  8
DETAIL
  6
Continuous
100
AcDbLine
 10
-86.66229581473182
 20
-176.7445127037873
 30
0.0
 11
-86.5937428386501
 21
-176.6197083008077
 31
0.0
  0
LINE
  5
2AB
330
1F
100
AcDbEntity
  8
DETAIL
  6
Continuous
100
AcDbLine
 10
-86.5937428386501
 20
-176.6197083008077
 30
0.0
 11
-86.51940734635981
 21
-176.4981677488113
 31
0.0
  0
LINE
  5
2AC
330
1F
100
AcDbEntity
  8
DETAIL
  6
Continuous
100
AcDbLine
 10
-86.51940734635981
 20
-176.4981677488113
 30
0.0
 11
-86.43941922552763
 21
-176.3802412045873
 31
0.0
  0
LINE
  5
2AD
330
1F
100
AcDbEntity
  8
DETAIL
  6
Continuous
100
AcDbLine
 10
-86.43941922552763
 20
-176.3802412045873
 30
0.0
 11
-86.35390836382028
 21
-176.2662788249251
 31
0.0
  0
LINE
  5
2AE
330
1F
100
AcDbEntity
  8
DETAIL
  6
Continuous
100
AcDbLine
 10
-86.35390836382028
 20
-176.2662788249251
 30
0.0
 11
-86.26300464890447
 21
-176.156630766614
 31
0.0
  0
LINE
  5
2AF
330
1F
100
AcDbEntity
  8
DETAIL
  6
Continuous
100
AcDbLine
 10
-86.26300464890447
 20
-176.156630766614
 30
0.0
 11
-86.16683796844698
 21
-176.0516471864434
 31
0.0
  0
LINE
  5
2B0
330
1F
100
AcDbEntity
  8
DETAIL
  6
Continuous
100
AcDbLine
 10
-86.16683796844698
 20
-176.0516471864434
 30
0.0
 11
-86.06557283707642
 21
-175.9516393798305
 31
0.0
  0
LINE
  5
2B1
330
1F
100
AcDbEntity
  8
DETAIL
  6
Continuous
100
AcDbLine
 10
-86.06557283707642
 20
-175.9516393798305
 30
0.0
 11
-85.95951176245053
 21
-175.8567637744779
 31
0.0
  0
LINE
  5
2B2
330
1F
100
AcDbEntity
  8
DETAIL
  6
Continuous
100
AcDbLine
 10
-85.95951176245053
 20
-175.8567637744779
 30
0.0
 11
-85.8489916222577
 21
-175.767138225067
 31
0.0
  0
LINE
  5
2B3
330
1F
100
AcDbEntity
  8
DETAIL
  6
Continuous
100
AcDbLine
 10
-85.8489916222577
 20
-175.767138225067
 30
0.0
 11
-85.73434929418642
 21
-175.6828805862786
 31
0.0
  0
LINE
  5
2B4
330
1F
100
AcDbEntity
  8
DETAIL
  6
Continuous
100
AcDbLine
 10
-85.73434929418642
 20
-175.6828805862786
 30
0.0
 11
-85.61592165592505
 21
-175.604108712794
 31
0.0
  0
LINE
  5
2B5
330
1F
100
AcDbEntity
  8
DETAIL
  6
Continuous
100
AcDbLine
 10
-85.61592165592505
 20
-175.604108712794
 30
0.0
 11
-85.4940455851621
 21
-175.5309404592942
 31
0.0
  0
LINE
  5
2B6
330
1F
100
AcDbEntity
  8
DETAIL
  6
Continuous
100
AcDbLine
 10
-85.4940455851621
 20
-175.5309404592942
 30
0.0
 11
-85.36905795958596
 21
-175.4634936804602
 31
0.0
  0
LINE
  5
2B7
330
1F
100
AcDbEntity
  8
DETAIL
  6
Continuous
100
AcDbLine
 10
-85.36905795958596
 20
-175.4634936804602
 30
0.0
 11
-85.24129565688513
 21
-175.4018862309733
 31
0.0
  0
LINE
  5
2B8
330
1F
100
AcDbEntity
  8
DETAIL
  6
Continuous
100
AcDbLine
 10
-85.24129565688513
 20
-175.4018862309733
 30
0.0
 11
-85.11109555474796
 21
-175.3462359655144
 31
0.0
  0
LINE
  5
2B9
330
1F
100
AcDbEntity
  8
DETAIL
  6
Continuous
100
AcDbLine
 10
-85.11109555474796
 20
-175.3462359655144
 30
0.0
 11
-84.97879453086293
 21
-175.2966607387647
 31
0.0
  0
LINE
  5
2BA
330
1F
100
AcDbEntity
  8
DETAIL
  6
Continuous
100
AcDbLine
 10
-84.97879453086293
 20
-175.2966607387647
 30
0.0
 11
-84.84472946291848
 21
-175.2532784054052
 31
0.0
  0
LINE
  5
2BB
330
1F
100
AcDbEntity
  8
DETAIL
  6
Continuous
100
AcDbLine
 10
-84.84472946291848
 20
-175.2532784054052
 30
0.0
 11
-84.70923722860306
 21
-175.2162068201172
 31
0.0
  0
LINE
  5
2BC
330
1F
100
AcDbEntity
  8
DETAIL
  6
Continuous
100
AcDbLine
 10
-84.70923722860306
 20
-175.2162068201172
 30
0.0
 11
-84.57265470560506
 21
-175.1855638375815
 31
0.0
  0
LINE
  5
2BD
330
1F
100
AcDbEntity
  8
DETAIL
  6
Continuous
100
AcDbLine
 10
-84.57265470560506
 20
-175.1855638375815
 30
0.0
 11
-84.43531877161296
 21
-175.1614673124793
 31
0.0
  0
LINE
  5
2BE
330
1F
100
AcDbEntity
  8
DETAIL
  6
Continuous
100
AcDbLine
 10
-84.43531877161296
 20
-175.1614673124793
 30
0.0
 11
-84.29756630431518
 21
-175.1440350994918
 31
0.0
  0
LINE
  5
2BF
330
1F
100
AcDbEntity
  8
DETAIL
  6
Continuous
100
AcDbLine
 10
-84.29756630431518
 20
-175.1440350994918
 30
0.0
 11
-84.15973418140015
 21
-175.1333850533
 31
0.0
  0
LINE
  5
2C0
330
1F
100
AcDbEntity
  8
DETAIL
  6
Continuous
100
AcDbLine
 10
-48.01396472800025
 20
-5.0
 30
0.0
 11
-48.00411112931187
 21
-4.675983260452843
 31
0.0
  0
LINE
  5
2C1
330
1F
100
AcDbEntity
  8
DETAIL
  6
Continuous
100
AcDbLine
 10
-48.00411112931187
 20
-4.675983260452843
 30
0.0
 11
-47.99172982625935
 21
-4.514239934350496
 31
0.0
  0
LINE
  5
2C2
330
1F
100
AcDbEntity
  8
DETAIL
  6
Continuous
100
AcDbLine
 10
-47.99172982625935
 20
-4.514239934350496
 30
0.0
 11
-47.97431547528691
 21
-4.352761878334625
 31
0.0
  0
LINE
  5
2C3
330
1F
100
AcDbEntity
  8
DETAIL
  6
Continuous
100
AcDbLine
 10
-47.97431547528691
 20
-4.352761878334625
 30
0.0
 11
-47.95182977025715
 21
-4.191629276682658
 31
0.0
  0
LINE
  5
2C4
330
1F
100
AcDbEntity
  8
DETAIL
  6
Continuous
100
AcDbLine
 10
-47.95182977025715
 20
-4.191629276682658
 30
0.0
 11
-47.92429680769127
 21
-4.031015320040509
 31
0.0
  0
LINE
  5
2C5
330
1F
100
AcDbEntity
  8
DETAIL
  6
Continuous
100
AcDbLine
 10
-47.92429680769127
 20
-4.031015320040509
 30
0.0
 11
-47.89176653537741
 21
-3.871131728381531
 31
0.0
  0
LINE
  5
2C6
330
1F
100
AcDbEntity
  8
DETAIL
  6
Continuous
100
AcDbLine
 10
-47.89176653537741
 20
-3.871131728381531
 30
0.0
 11
-47.8542889839629
 21
-3.712190345174252
 31
0.0
  0
LINE
  5
2C7
330
1F
100
AcDbEntity
  8
DETAIL
  6
Continuous
100
AcDbLine
 10
-47.8542889839629
 20
-3.712190345174252
 30
0.0
 11
-47.81191418409506
 21
-3.554403013887192
 31
0.0
  0
LINE
  5
2C8
330
1F
100
AcDbEntity
  8
DETAIL
  6
Continuous
100
AcDbLine
 10
-47.81191418409506
 20
-3.554403013887192
 30
0.0
 11
-47.76469216642117
 21
-3.397981577988878
 31
0.0
  0
LINE
  5
2C9
330
1F
100
AcDbEntity
  8
DETAIL
  6
Continuous
100
AcDbLine
 10
-47.76469216642117
 20
-3.397981577988878
 30
0.0
 11
-47.71267296158856
 21
-3.243137880947834
 31
0.0
  0
LINE
  5
2CA
330
1F
100
AcDbEntity
  8
DETAIL
  6
Continuous
100
AcDbLine
 10
-47.71267296158856
 20
-3.243137880947834
 30
0.0
 11
-47.65590660024452
 21
-3.090083766232583
 31
0.0
  0
LINE
  5
2CB
330
1F
100
AcDbEntity
  8
DETAIL
  6
Continuous
100
AcDbLine
 10
-47.65590660024452
 20
-3.090083766232583
 30
0.0
 11
-47.59444311303637
 21
-2.93903107731165
 31
0.0
  0
LINE
  5
2CC
330
1F
100
AcDbEntity
  8
DETAIL
  6
Continuous
100
AcDbLine
 10
-47.59444311303637
 20
-2.93903107731165
 30
0.0
 11
-47.52833253061139
 21
-2.790191657653559
 31
0.0
  0
LINE
  5
2CD
330
1F
100
AcDbEntity
  8
DETAIL
  6
Continuous
100
AcDbLine
 10
-47.52833253061139
 20
-2.790191657653559
 30
0.0
 11
-47.45762488361692
 21
-2.643777350726834
 31
0.0
  0
LINE
  5
2CE
330
1F
100
AcDbEntity
  8
DETAIL
  6
Continuous
100
AcDbLine
 10
-47.45762488361692
 20
-2.643777350726834
 30
0.0
 11
-47.38237020270026
 21
-2.5
 31
0.0
  0
SPLINE
  5
2CF
330
1F
100
AcDbEntity
  8
DETAIL
  6
Continuous
100
AcDbSpline
210
0.0
220
0.0
230
1.0
 70
     8
 71
     3
 72
    12
 73
     8
 74
     0
 42
0.000000001
 43
0.0000000001
 40
0.0
 40
0.0
 40
0.0
 40
0.0
 40
0.4065914773
 40
0.7146077928
 40
0.8264963322999997
 40
0.9099293184999998
 40
1.0
 40
1.0
 40
1.0
 40
1.0
 10
-47.38237020270026
 20
-2.5
 30
0.0
 10
-47.21013106540022
 20
-2.183639581300012
 30
0.0
 10
-46.97250696000014
 20
-1.588076732000017
 30
0.0
 10
-46.85489577200018
 20
-0.8623445546000141
 30
0.0
 10
-46.88549594800018
 20
-0.4078212426000222
 30
0.0
 10
-46.93433223340025
 20
-0.1757883760000141
 30
0.0
 10
-47.03513204140017
 20
-0.0000397413000144
 30
0.0
 10
-47.11492768800008
 20
0.0
 30
0.0
  0
SPLINE
  5
2D0
330
1F
100
AcDbEntity
  8
DETAIL
  6
Continuous
100
AcDbSpline
210
0.0
220
0.0
230
1.0
 70
     8
 71
     3
 72
    10
 73
     6
 74
     0
 42
0.000000001
 43
0.0000000001
 40
0.0
 40
0.0
 40
0.0
 40
0.0
 40
0.1112523348
 40
0.3257039245
 40
1.0
 40
1.0
 40
1.0
 40
1.0
 10
-54.97207054540012
 20
0.0
 30
0.0
 10
-54.89333286940017
 20
-0.0000627546000089
 30
0.0
 10
-54.71967385600009
 20
-0.2180508160000159
 30
0.0
 10
-54.54485298140003
 20
-0.8727664865999996
 30
0.0
 10
-54.48602311740025
 20
-1.522773862600018
 30
0.0
 10
-54.4860352720002
 20
-2.0
 30
0.0
  0
SPLINE
  5
2D1
330
1F
100
AcDbEntity
  8
DETAIL
  6
Continuous
100
AcDbSpline
210
0.0
220
0.0
230
1.0
 70
     8
 71
     3
 72
    15
 73
    11
 74
     0
 42
0.000000001
 43
0.0000000001
 40
0.0
 40
0.0
 40
0.0
 40
0.0
 40
0.1249996237
 40
0.2499782164
 40
0.3749731001
 40
0.4999863708
 40
0.6250005743
 40
0.7500071403000002
 40
0.874996332
 40
1.0
 40
1.0
 40
1.0
 40
1.0
 10
-297.7669215280002
 20
-167.7805054106
 30
0.0
 10
-296.7513903094002
 20
-168.2661127253
 30
0.0
 10
-294.8155552627002
 20
-169.4736853986
 30
0.0
 10
-292.5529366080002
 20
-172.0446588333
 30
0.0
 10
-291.1126148694002
 20
-175.1506502773
 30
0.0
 10
-290.6183655147001
 20
-178.539630588
 30
0.0
 10
-291.1124014667
 20
-181.9287536573
 30
0.0
 10
-292.5526922400002
 20
-185.0350049293
 30
0.0
 10
-294.8154117214001
 20
-187.6062143733
 30
0.0
 10
-296.7513509920002
 20
-188.813882564
 30
0.0
 10
-297.7669208000002
 20
-189.299493604
 30
0.0
  0
LINE
  5
2D2
330
1F
100
AcDbEntity
  8
DETAIL
  6
Continuous
100
AcDbLine
 10
-297.7669209014
 20
-189.2994927293
 30
0.0
 11
-297.8313826660018
 21
-189.3132864388938
 31
0.0
  0
LINE
  5
2D3
330
1F
100
AcDbEntity
  8
DETAIL
  6
Continuous
100
AcDbLine
 10
-297.8313826660018
 20
-189.3132864388938
 30
0.0
 11
-297.8954795875871
 21
-189.3300661711319
 31
0.0
  0
LINE
  5
2D4
330
1F
100
AcDbEntity
  8
DETAIL
  6
Continuous
100
AcDbLine
 10
-297.8954795875871
 20
-189.3300661711319
 30
0.0
 11
-297.9588195728712
 21
-189.3500895614132
 31
0.0
  0
LINE
  5
2D5
330
1F
100
AcDbEntity
  8
DETAIL
  6
Continuous
100
AcDbLine
 10
-297.9588195728712
 20
-189.3500895614132
 30
0.0
 11
-298.0210105285694
 21
-189.3736142451366
 31
0.0
  0
LINE
  5
2D6
330
1F
100
AcDbEntity
  8
DETAIL
  6
Continuous
100
AcDbLine
 10
-298.0210105285694
 20
-189.3736142451366
 30
0.0
 11
-298.0816603613972
 21
-189.4008978577008
 31
0.0
  0
LINE
  5
2D7
330
1F
100
AcDbEntity
  8
DETAIL
  6
Continuous
100
AcDbLine
 10
-298.0816603613972
 20
-189.4008978577008
 30
0.0
 11
-298.14037697807
 21
-189.4321980345047
 31
0.0
  0
LINE
  5
2D8
330
1F
100
AcDbEntity
  8
DETAIL
  6
Continuous
100
AcDbLine
 10
-298.14037697807
 20
-189.4321980345047
 30
0.0
 11
-298.1967682853031
 21
-189.4677724109471
 31
0.0
  0
LINE
  5
2D9
330
1F
100
AcDbEntity
  8
DETAIL
  6
Continuous
100
AcDbLine
 10
-298.1967682853031
 20
-189.4677724109471
 30
0.0
 11
-298.2504421898118
 21
-189.5078786224269
 31
0.0
  0
LINE
  5
2DA
330
1F
100
AcDbEntity
  8
DETAIL
  6
Continuous
100
AcDbLine
 10
-298.2504421898118
 20
-189.5078786224269
 30
0.0
 11
-298.2761375868931
 21
-189.5297116773679
 31
0.0
  0
LINE
  5
2DB
330
1F
100
AcDbEntity
  8
DETAIL
  6
Continuous
100
AcDbLine
 10
-298.2761375868931
 20
-189.5297116773679
 30
0.0
 11
-298.3010064884007
 21
-189.5527741306611
 31
0.0
  0
LINE
  5
2DC
330
1F
100
AcDbEntity
  8
DETAIL
  6
Continuous
100
AcDbLine
 10
-298.3010064884007
 20
-189.5527741306611
 30
0.0
 11
-298.3249787207723
 21
-189.5770647466224
 31
0.0
  0
LINE
  5
2DD
330
1F
100
AcDbEntity
  8
DETAIL
  6
Continuous
100
AcDbLine
 10
-298.3249787207723
 20
-189.5770647466224
 30
0.0
 11
-298.3479381999053
 21
-189.6025097415751
 31
0.0
  0
LINE
  5
2DE
330
1F
100
AcDbEntity
  8
DETAIL
  6
Continuous
100
AcDbLine
 10
-298.3479381999053
 20
-189.6025097415751
 30
0.0
 11
-298.3697627906143
 21
-189.629025769901
 31
0.0
  0
LINE
  5
2DF
330
1F
100
AcDbEntity
  8
DETAIL
  6
Continuous
100
AcDbLine
 10
-298.3697627906143
 20
-189.629025769901
 30
0.0
 11
-298.390330357714
 21
-189.6565294859818
 31
0.0
  0
LINE
  5
2E0
330
1F
100
AcDbEntity
  8
DETAIL
  6
Continuous
100
AcDbLine
 10
-298.390330357714
 20
-189.6565294859818
 30
0.0
 11
-298.4095187660187
 21
-189.6849375441994
 31
0.0
  0
LINE
  5
2E1
330
1F
100
AcDbEntity
  8
DETAIL
  6
Continuous
100
AcDbLine
 10
-298.4095187660187
 20
-189.6849375441994
 30
0.0
 11
-298.4272058803433
 21
-189.7141665989354
 31
0.0
  0
LINE
  5
2E2
330
1F
100
AcDbEntity
  8
DETAIL
  6
Continuous
100
AcDbLine
 10
-298.4272058803433
 20
-189.7141665989354
 30
0.0
 11
-298.4432695655021
 21
-189.7441333045717
 31
0.0
  0
LINE
  5
2E3
330
1F
100
AcDbEntity
  8
DETAIL
  6
Continuous
100
AcDbLine
 10
-298.4432695655021
 20
-189.7441333045717
 30
0.0
 11
-298.4575876863098
 21
-189.77475431549
 31
0.0
  0
LINE
  5
2E4
330
1F
100
AcDbEntity
  8
DETAIL
  6
Continuous
100
AcDbLine
 10
-298.4575876863098
 20
-189.77475431549
 30
0.0
 11
-298.4700381075811
 21
-189.8059462860721
 31
0.0
  0
LINE
  5
2E5
330
1F
100
AcDbEntity
  8
DETAIL
  6
Continuous
100
AcDbLine
 10
-298.4700381075811
 20
-189.8059462860721
 30
0.0
 11
-298.4804986941304
 21
-189.8376258706996
 31
0.0
  0
LINE
  5
2E6
330
1F
100
AcDbEntity
  8
DETAIL
  6
Continuous
100
AcDbLine
 10
-298.4804986941304
 20
-189.8376258706996
 30
0.0
 11
-298.4888473107724
 21
-189.8697097237543
 31
0.0
  0
LINE
  5
2E7
330
1F
100
AcDbEntity
  8
DETAIL
  6
Continuous
100
AcDbLine
 10
-298.4888473107724
 20
-189.8697097237543
 30
0.0
 11
-298.4949618223216
 21
-189.9021144996182
 31
0.0
  0
LINE
  5
2E8
330
1F
100
AcDbEntity
  8
DETAIL
  6
Continuous
100
AcDbLine
 10
-298.4949618223216
 20
-189.9021144996182
 30
0.0
 11
-298.4987200935927
 21
-189.9347568526728
 31
0.0
  0
LINE
  5
2E9
330
1F
100
AcDbEntity
  8
DETAIL
  6
Continuous
100
AcDbLine
 10
-298.4987200935927
 20
-189.9347568526728
 30
0.0
 11
-298.4999999894001
 21
-189.9675534373
 31
0.0
  0
LINE
  5
2EA
330
1F
100
AcDbEntity
  8
DETAIL
  6
Continuous
100
AcDbLine
 10
-298.5000002347001
 20
-167.112465904
 30
0.0
 11
-298.4987203363931
 21
-167.1452621135081
 31
0.0
  0
LINE
  5
2EB
330
1F
100
AcDbEntity
  8
DETAIL
  6
Continuous
100
AcDbLine
 10
-298.4987203363931
 20
-167.1452621135081
 30
0.0
 11
-298.4949620647662
 21
-167.1779041148749
 31
0.0
  0
LINE
  5
2EC
330
1F
100
AcDbEntity
  8
DETAIL
  6
Continuous
100
AcDbLine
 10
-298.4949620647662
 20
-167.1779041148749
 30
0.0
 11
-298.4888475539369
 21
-167.2103085542081
 31
0.0
  0
LINE
  5
2ED
330
1F
100
AcDbEntity
  8
DETAIL
  6
Continuous
100
AcDbLine
 10
-298.4888475539369
 20
-167.2103085542081
 30
0.0
 11
-298.4804989380223
 21
-167.2423920776151
 31
0.0
  0
LINE
  5
2EE
330
1F
100
AcDbEntity
  8
DETAIL
  6
Continuous
100
AcDbLine
 10
-298.4804989380223
 20
-167.2423920776151
 30
0.0
 11
-298.47003835114
 21
-167.2740713312036
 31
0.0
  0
LINE
  5
2EF
330
1F
100
AcDbEntity
  8
DETAIL
  6
Continuous
100
AcDbLine
 10
-298.47003835114
 20
-167.2740713312036
 30
0.0
 11
-298.4575879274075
 21
-167.3052629610812
 31
0.0
  0
LINE
  5
2F0
330
1F
100
AcDbEntity
  8
DETAIL
  6
Continuous
100
AcDbLine
 10
-298.4575879274075
 20
-167.3052629610812
 30
0.0
 11
-298.4432698009421
 21
-167.3358836133553
 31
0.0
  0
LINE
  5
2F1
330
1F
100
AcDbEntity
  8
DETAIL
  6
Continuous
100
AcDbLine
 10
-298.4432698009421
 20
-167.3358836133553
 30
0.0
 11
-298.4272061058613
 21
-167.3658499341337
 31
0.0
  0
LINE
  5
2F2
330
1F
100
AcDbEntity
  8
DETAIL
  6
Continuous
100
AcDbLine
 10
-298.4272061058613
 20
-167.3658499341337
 30
0.0
 11
-298.4095189762824
 21
-167.3950785695238
 31
0.0
  0
LINE
  5
2F3
330
1F
100
AcDbEntity
  8
DETAIL
  6
Continuous
100
AcDbLine
 10
-298.4095189762824
 20
-167.3950785695238
 30
0.0
 11
-298.390330546323
 21
-167.4234861656332
 31
0.0
  0
LINE
  5
2F4
330
1F
100
AcDbEntity
  8
DETAIL
  6
Continuous
100
AcDbLine
 10
-298.390330546323
 20
-167.4234861656332
 30
0.0
 11
-298.3697629501004
 21
-167.4509893685696
 31
0.0
  0
LINE
  5
2F5
330
1F
100
AcDbEntity
  8
DETAIL
  6
Continuous
100
AcDbLine
 10
-298.3697629501004
 20
-167.4509893685696
 30
0.0
 11
-298.347938321732
 21
-167.4775048244404
 31
0.0
  0
LINE
  5
2F6
330
1F
100
AcDbEntity
  8
DETAIL
  6
Continuous
100
AcDbLine
 10
-298.347938321732
 20
-167.4775048244404
 30
0.0
 11
-298.3249787953354
 21
-167.5029491793533
 31
0.0
  0
LINE
  5
2F7
330
1F
100
AcDbEntity
  8
DETAIL
  6
Continuous
100
AcDbLine
 10
-298.3249787953354
 20
-167.5029491793533
 30
0.0
 11
-298.3010065050279
 21
-167.5272390794159
 31
0.0
  0
LINE
  5
2F8
330
1F
100
AcDbEntity
  8
DETAIL
  6
Continuous
100
AcDbLine
 10
-298.3010065050279
 20
-167.5272390794159
 30
0.0
 11
-298.2761375339621
 21
-167.5503007349255
 31
0.0
  0
LINE
  5
2F9
330
1F
100
AcDbEntity
  8
DETAIL
  6
Continuous
100
AcDbLine
 10
-298.2761375339621
 20
-167.5503007349255
 30
0.0
 11
-298.2504420576545
 21
-167.5721329180548
 31
0.0
  0
LINE
  5
2FA
330
1F
100
AcDbEntity
  8
DETAIL
  6
Continuous
100
AcDbLine
 10
-298.2504420576545
 20
-167.5721329180548
 30
0.0
 11
-298.1967679820448
 21
-167.6122372156829
 31
0.0
  0
LINE
  5
2FB
330
1F
100
AcDbEntity
  8
DETAIL
  6
Continuous
100
AcDbLine
 10
-298.1967679820448
 20
-167.6122372156829
 30
0.0
 11
-298.140376514254
 21
-167.647809537719
 31
0.0
  0
LINE
  5
2FC
330
1F
100
AcDbEntity
  8
DETAIL
  6
Continuous
100
AcDbLine
 10
-298.140376514254
 20
-167.647809537719
 30
0.0
 11
-298.081659780455
 21
-167.6791076232609
 31
0.0
  0
LINE
  5
2FD
330
1F
100
AcDbEntity
  8
DETAIL
  6
Continuous
100
AcDbLine
 10
-298.081659780455
 20
-167.6791076232609
 30
0.0
 11
-298.0210099068212
 21
-167.7063892114073
 31
0.0
  0
LINE
  5
2FE
330
1F
100
AcDbEntity
  8
DETAIL
  6
Continuous
100
AcDbLine
 10
-298.0210099068212
 20
-167.7063892114073
 30
0.0
 11
-297.9588190195255
 21
-167.7299120412561
 31
0.0
  0
LINE
  5
2FF
330
1F
100
AcDbEntity
  8
DETAIL
  6
Continuous
100
AcDbLine
 10
-297.9588190195255
 20
-167.7299120412561
 30
0.0
 11
-297.8954792447414
 21
-167.7499338519057
 31
0.0
  0
LINE
  5
300
330
1F
100
AcDbEntity
  8
DETAIL
  6
Continuous
100
AcDbLine
 10
-297.8954792447414
 20
-167.7499338519057
 30
0.0
 11
-297.8313827086419
 21
-167.7667123824542
 31
0.0
  0
LINE
  5
301
330
1F
100
AcDbEntity
  8
DETAIL
  6
Continuous
100
AcDbLine
 10
-297.8313827086419
 20
-167.7667123824542
 30
0.0
 11
-297.7669215374001
 21
-167.780505372
 31
0.0
  0
ELLIPSE
  5
302
330
1F
100
AcDbEntity
  8
DETAIL
  6
Continuous
100
AcDbEllipse
 10
-2.835909893399956
 20
-245.0
 30
0.0
 11
0.0820638039999988
 21
4.699999781299994
 31
0.0
210
0.0
220
0.0
230
1.0
 40
0.0174524048
 41
2.165696740479585
 42
3.141897379279581
  0
ELLIPSE
  5
303
330
1F
100
AcDbEntity
  8
DETAIL
  6
Continuous
100
AcDbEllipse
 10
-87.0174537360001
 20
-248.0
 30
0.0
 11
0.0
 21
2.0
 31
0.0
210
0.0
220
0.0
230
1.0
 40
0.0087268678
 41
3.141592653599957
 42
4.7123889804
  0
ELLIPSE
  5
304
330
1F
100
AcDbEntity
  8
DETAIL
  6
Continuous
100
AcDbEllipse
 10
-66.94666637340015
 20
-176.2367290013
 30
0.0
 11
-0.05235589200000845
 21
1.999390833299998
 31
0.0
210
0.0
220
0.0
230
1.0
 40
0.9999618969999999
 41
6.257006365479586
 42
6.309364248879587
  0
ELLIPSE
  5
305
330
1F
100
AcDbEntity
  8
DETAIL
  6
Continuous
100
AcDbEllipse
 10
-9.005084190700243
 20
-235.445718884
 30
0.0
 11
0.707322189299985
 21
0.7073221892999868
 31
0.0
210
0.0
220
0.0
230
1.0
 40
0.9996954599000001
 41
2.356346783479589
 42
3.926838523779586
  0
ELLIPSE
  5
306
330
1F
100
AcDbEntity
  8
DETAIL
  6
Continuous
100
AcDbEllipse
 10
-9.005084190700243
 20
-225.5542811173
 30
0.0
 11
0.707322189299985
 21
-0.7073221892999868
 31
0.0
210
0.0
220
0.0
230
1.0
 40
0.9996954599000001
 41
2.3563467834
 42
3.926838523699999
  0
ELLIPSE
  5
307
330
1F
100
AcDbEntity
  8
DETAIL
  6
Continuous
100
AcDbEllipse
 10
-3.584940160000086
 20
-245.0
 30
0.0
 11
-1.340140588000027
 21
4.999948948000025
 31
0.0
210
0.0
220
0.0
230
1.0
 40
0.0168599538
 41
1.5662773697
 42
2.121010836700003
  0
ELLIPSE
  5
308
330
1F
100
AcDbEntity
  8
DETAIL
  6
Continuous
100
AcDbEllipse
 10
-2.835909893399956
 20
-245.0
 30
0.0
 11
0.0873019199999856
 21
4.999999768000009
 31
0.0
210
0.0
220
0.0
230
1.0
 40
0.0174524048
 41
2.125834519379585
 42
3.141897379279581
  0
ELLIPSE
  5
309
330
1F
100
AcDbEntity
  8
DETAIL
  6
Continuous
100
AcDbEllipse
 10
-6.005388848000392
 20
-223.5539764613
 30
0.0
 11
0.7073221893000134
 21
-0.7073221892999868
 31
0.0
210
0.0
220
0.0
230
1.0
 40
0.9996954599000001
 41
5.497939436979586
 42
7.068431177279586
  0
ELLIPSE
  5
30A
330
1F
100
AcDbEntity
  8
DETAIL
  6
Continuous
100
AcDbEllipse
 10
-6.005388848000392
 20
-237.44602354
 30
0.0
 11
-0.707322189300017
 21
-0.7073221892999868
 31
0.0
210
0.0
220
0.0
230
1.0
 40
0.9996954599000001
 41
2.3563467834
 42
3.926838523699999
  0
ELLIPSE
  5
30B
330
1F
100
AcDbEntity
  8
DETAIL
  6
Continuous
100
AcDbEllipse
 10
-48.01396472800025
 20
-174.1842916386
 30
0.0
 11
1.0
 21
0.0
 31
0.0
210
0.0
220
0.0
230
1.0
 40
0.0087268678
 41
1.5707963268
 42
2.475623416200009
  0
ELLIPSE
  5
30C
330
1F
100
AcDbEntity
  8
DETAIL
  6
Continuous
100
AcDbEllipse
 10
-54.4860352720002
 20
-174.2279259773
 30
0.0
 11
1.0
 21
0.0
 31
0.0
210
0.0
220
0.0
230
1.0
 40
0.0087268678
 41
4.712388980379586
 42
5.617216069779568
  0
LINE
  5
30D
330
1F
100
AcDbEntity
  8
OUTLINE
  6
Continuous
100
AcDbLine
 10
-313.4838437907001
 20
-15.22197980130002
 30
0.0
 11
-301.5
 21
-12.2340719613
 31
0.0
  0
LINE
  5
30E
330
1F
100
AcDbEntity
  8
OUTLINE
  6
Continuous
100
AcDbLine
 10
-298.9371849880001
 20
-15.78234718800002
 30
0.0
 11
-299.9999999999999
 21
-15.91693498130003
 31
0.0
  0
LINE
  5
30F
330
1F
100
AcDbEntity
  8
OUTLINE
  6
Continuous
100
AcDbLine
 10
-87.58720880270018
 20
-248.7607426933001
 30
0.0
 11
-87.0
 21
-248.709337064
 31
0.0
  0
LINE
  5
310
330
1F
100
AcDbEntity
  8
OUTLINE
  6
Continuous
100
AcDbLine
 10
-174.7096458694002
 20
-247.701564532
 30
0.0
 11
-181.1125213867001
 21
-247.925157872
 31
0.0
  0
LINE
  5
311
330
1F
100
AcDbEntity
  8
OUTLINE
  6
Continuous
100
AcDbLine
 10
-87.0174537360001
 20
-250.0
 30
0.0
 11
0.0000000000002274
 21
-250.0
 31
0.0
  0
LINE
  5
312
330
1F
100
AcDbEntity
  8
OUTLINE
  6
Continuous
100
AcDbLine
 10
-173.6940931461129
 20
-247.224956711633
 30
0.0
 11
-88.49999999999999
 21
-250.2
 31
0.0
  0
LINE
  5
313
330
1F
100
AcDbEntity
  8
OUTLINE
  6
Continuous
100
AcDbLine
 10
-68.5
 20
0.1999999999999886
 30
0.0
 11
-144.8000000000002
 21
-1.131821454600014
 31
0.0
  0
LINE
  5
314
330
1F
100
AcDbEntity
  8
OUTLINE
  6
Continuous
100
AcDbLine
 10
-28.65369686570648
 20
0.0
 30
0.0
 11
0.0
 21
0.0
 31
0.0
  0
LINE
  5
315
330
1F
100
AcDbEntity
  8
OUTLINE
  6
Continuous
100
AcDbLine
 10
-68.5
 20
0.1999999999999886
 30
0.0
 11
-28.68158800140009
 21
0.1999999999999886
 31
0.0
  0
LINE
  5
316
330
1F
100
AcDbEntity
  8
OUTLINE
  6
Continuous
100
AcDbLine
 10
-300.6755703520003
 20
-12.46286168
 30
0.0
 11
-301.5
 21
-12.43407196130002
 31
0.0
  0
LINE
  5
317
330
1F
100
AcDbEntity
  8
OUTLINE
  6
Continuous
100
AcDbLine
 10
-276.8810497947002
 20
-235.092941996
 30
0.0
 11
-275.9582187947001
 21
-235.409113096
 31
0.0
  0
LINE
  5
318
330
1F
100
AcDbEntity
  8
OUTLINE
  6
Continuous
100
AcDbLine
 10
-275.9688253440002
 20
-235.4053391053
 30
0.0
 11
-275.8067700480001
 21
-235.4647464533
 31
0.0
  0
LINE
  5
319
330
1F
100
AcDbEntity
  8
OUTLINE
  6
Continuous
100
AcDbLine
 10
-275.8161042467
 20
-235.4611935866
 30
0.0
 11
-275.6663022480002
 21
-235.519847148
 31
0.0
  0
LINE
  5
31A
330
1F
100
AcDbEntity
  8
OUTLINE
  6
Continuous
100
AcDbLine
 10
-277.7501452214001
 20
-234.7447042146
 30
0.0
 11
-276.8810497947002
 21
-235.092941996
 31
0.0
  0
LINE
  5
31B
330
1F
100
AcDbEntity
  8
OUTLINE
  6
Continuous
100
AcDbLine
 10
-275.6743459574002
 20
-235.5165872106
 30
0.0
 11
-275.5378182000002
 21
-235.5736167733
 31
0.0
  0
LINE
  5
31C
330
1F
100
AcDbEntity
  8
OUTLINE
  6
Continuous
100
AcDbLine
 10
-275.5445784707001
 20
-235.5707060146
 30
0.0
 11
-275.4219201040003
 21
-235.625353268
 31
0.0
  0
LINE
  5
31D
330
1F
100
AcDbEntity
  8
OUTLINE
  6
Continuous
100
AcDbLine
 10
-278.5982682334002
 20
-234.3492972693
 30
0.0
 11
-277.7431954334002
 21
-234.747488924
 31
0.0
  0
LINE
  5
31E
330
1F
100
AcDbEntity
  8
OUTLINE
  6
Continuous
100
AcDbLine
 10
-275.4274391547001
 20
-235.6228177053
 30
0.0
 11
-275.3189597560001
 21
-235.674331896
 31
0.0
  0
LINE
  5
31F
330
1F
100
AcDbEntity
  8
OUTLINE
  6
Continuous
100
AcDbLine
 10
-282.2173857627001
 20
-224.5661689853
 30
0.0
 11
-282.0397464887003
 21
-224.6506218763
 31
0.0
  0
LINE
  5
320
330
1F
100
AcDbEntity
  8
OUTLINE
  6
Continuous
100
AcDbLine
 10
-282.4219855800002
 20
-224.467656988
 30
0.0
 11
-282.2173857627001
 21
-224.5661689853
 31
0.0
  0
LINE
  5
321
330
1F
100
AcDbEntity
  8
OUTLINE
  6
Continuous
100
AcDbLine
 10
-282.4887219880002
 20
-224.435153072
 30
0.0
 11
-282.4219855800002
 21
-224.467656988
 31
0.0
  0
LINE
  5
322
330
1F
100
AcDbEntity
  8
OUTLINE
  6
Continuous
100
AcDbLine
 10
-275.3233539240002
 20
-235.6721793560001
 30
0.0
 11
-275.2318041694002
 21
-235.71854696
 31
0.0
  0
LINE
  5
323
330
1F
100
AcDbEntity
  8
OUTLINE
  6
Continuous
100
AcDbLine
 10
-279.4229171134002
 20
-233.9080462426
 30
0.0
 11
-278.5982682334002
 21
-234.3492972693
 31
0.0
  0
LINE
  5
324
330
1F
100
AcDbEntity
  8
OUTLINE
  6
Continuous
100
AcDbLine
 10
-275.2318041694002
 20
-235.71854696
 30
0.0
 11
-275.2039406840026
 21
-235.7336804130297
 31
0.0
  0
LINE
  5
325
330
1F
100
AcDbEntity
  8
OUTLINE
  6
Continuous
100
AcDbLine
 10
-280.2215963027002
 20
-233.4222943386
 30
0.0
 11
-279.4166962787001
 21
-233.9113748706
 31
0.0
  0
LINE
  5
326
330
1F
100
AcDbEntity
  8
OUTLINE
  6
Continuous
100
AcDbLine
 10
-280.8611280694001
 20
-232.9878948840001
 30
0.0
 11
-280.2215963027002
 21
-233.4222943386
 31
0.0
  0
LINE
  5
327
330
1F
100
AcDbEntity
  8
OUTLINE
  6
Continuous
100
AcDbLine
 10
-281.7956317467001
 20
-225.4997548746
 30
0.0
 11
-281.7794225494001
 21
-225.688094736
 31
0.0
  0
LINE
  5
328
330
1F
100
AcDbEntity
  8
OUTLINE
  6
Continuous
100
AcDbLine
 10
-282.9820502427001
 20
-223.861975348
 30
0.0
 11
-282.9809001774001
 21
-223.879752864
 31
0.0
  0
LINE
  5
329
330
1F
100
AcDbEntity
  8
OUTLINE
  6
Continuous
100
AcDbLine
 10
-281.5147446294002
 20
-231.7877319853
 30
0.0
 11
-281.5129851000001
 21
-231.8218801773
 31
0.0
  0
LINE
  5
32A
330
1F
100
AcDbEntity
  8
OUTLINE
  6
Continuous
100
AcDbLine
 10
-281.7794225494001
 20
-225.688094736
 30
0.0
 11
-281.7775189147001
 21
-225.7267783293
 31
0.0
  0
LINE
  5
32B
330
1F
100
AcDbEntity
  8
OUTLINE
  6
Continuous
100
AcDbLine
 10
-281.7772667227002
 20
-225.7267632133
 30
0.0
 11
-281.5146448827002
 21
-231.7877317586
 31
0.0
  0
LINE
  5
32C
330
1F
100
AcDbEntity
  8
OUTLINE
  6
Continuous
100
AcDbLine
 10
-283.1508365867001
 20
-219.0285827253
 30
0.0
 11
-282.982050796
 21
-223.8619753706
 31
0.0
  0
LINE
  5
32D
330
1F
100
AcDbEntity
  8
OUTLINE
  6
Continuous
100
AcDbLine
 10
-275.2025233974002
 20
-235.896085288
 30
0.0
 11
-275.2039406840026
 21
-235.7336804130297
 31
0.0
  0
LINE
  5
32E
330
1F
100
AcDbEntity
  8
OUTLINE
  6
Continuous
100
AcDbLine
 10
-315.0
 20
-194.894984608
 30
0.0
 11
-315.0
 21
-17.1625712533
 31
0.0
  0
LINE
  5
32F
330
1F
100
AcDbEntity
  8
OUTLINE
  6
Continuous
100
AcDbLine
 10
-301.5
 20
-12.43407196130002
 30
0.0
 11
-301.5
 21
-12.2340719613
 31
0.0
  0
LINE
  5
330
330
1F
100
AcDbEntity
  8
OUTLINE
  6
Continuous
100
AcDbLine
 10
-299.9999999999999
 20
-15.91693498130003
 30
0.0
 11
-300.0
 21
-13.16243525860002
 31
0.0
  0
LINE
  5
331
330
1F
100
AcDbEntity
  8
OUTLINE
  6
Continuous
100
AcDbLine
 10
-298.5
 20
-15.28630860650146
 30
0.0
 11
-298.5
 21
-14.45109999199999
 31
0.0
  0
LINE
  5
332
330
1F
100
AcDbEntity
  8
OUTLINE
  6
Continuous
100
AcDbLine
 10
-88.49999999999999
 20
-250.2
 30
0.0
 11
-88.49999999999999
 21
-249.756932747255
 31
0.0
  0
LINE
  5
333
330
1F
100
AcDbEntity
  8
OUTLINE
  6
Continuous
100
AcDbLine
 10
0.0000000000002274
 20
-250.0
 30
0.0
 11
0.0
 21
0.0
 31
0.0
  0
LINE
  5
334
330
1F
100
AcDbEntity
  8
OUTLINE
  6
Continuous
100
AcDbLine
 10
-259.2634698494001
 20
-230.8927667906
 30
0.0
 11
-259.2947172667
 21
-231.7875757213
 31
0.0
  0
LINE
  5
335
330
1F
100
AcDbEntity
  8
OUTLINE
  6
Continuous
100
AcDbLine
 10
-297.1564690147001
 20
-11.901741316
 30
0.0
 11
-298.138304088
 21
-13.30394712
 31
0.0
  0
LINE
  5
336
330
1F
100
AcDbEntity
  8
OUTLINE
  6
Continuous
100
AcDbLine
 10
-173.6940931467001
 20
-247.224956712
 30
0.0
 11
-174.2146261014001
 21
-247.5502218013
 31
0.0
  0
LINE
  5
337
330
1F
100
AcDbEntity
  8
OUTLINE
  6
Continuous
100
AcDbLine
 10
-280.8880891654003
 20
-232.968373928
 30
0.0
 11
-280.8611282147001
 21
-232.9878950933
 31
0.0
  0
LINE
  5
338
330
1F
100
AcDbEntity
  8
OUTLINE
  6
Continuous
100
AcDbLine
 10
-280.9136592094001
 20
-232.949296612
 30
0.0
 11
-280.8880891654003
 21
-232.968373928
 31
0.0
  0
LINE
  5
339
330
1F
100
AcDbEntity
  8
OUTLINE
  6
Continuous
100
AcDbLine
 10
-314.5221780280001
 20
-195.85334722
 30
0.0
 11
-311.6140168267857
 21
-198.0448038714001
 31
0.0
  0
LINE
  5
33A
330
1F
100
AcDbEntity
  8
OUTLINE
  6
Continuous
100
AcDbLine
 10
-280.9600277760001
 20
-232.910940264
 30
0.0
 11
-280.9136604627001
 21
-232.9492956213
 31
0.0
  0
LINE
  5
33B
330
1F
100
AcDbEntity
  8
OUTLINE
  6
Continuous
100
AcDbLine
 10
-311.1246224987003
 20
-199.967142572
 30
0.0
 11
-311.0564218787001
 21
-200.0269225253
 31
0.0
  0
LINE
  5
33C
330
1F
100
AcDbEntity
  8
OUTLINE
  6
Continuous
100
AcDbLine
 10
-282.8906289200002
 20
-224.067305588
 30
0.0
 11
-282.5653159320002
 21
-224.3814566893
 31
0.0
  0
LINE
  5
33D
330
1F
100
AcDbEntity
  8
OUTLINE
  6
Continuous
100
AcDbLine
 10
-281.1148301440003
 20
-232.759480096
 30
0.0
 11
-280.9600277760001
 21
-232.910940264
 31
0.0
  0
LINE
  5
33E
330
1F
100
AcDbEntity
  8
OUTLINE
  6
Continuous
100
AcDbLine
 10
-311.1871363254002
 20
-199.9014194706
 30
0.0
 11
-311.1258828254002
 21
-199.9658175733
 31
0.0
  0
LINE
  5
33F
330
1F
100
AcDbEntity
  8
OUTLINE
  6
Continuous
100
AcDbLine
 10
-282.9154000240004
 20
-224.0402728706
 30
0.0
 11
-282.8906304854001
 21
-224.0673073986
 31
0.0
  0
LINE
  5
340
330
1F
100
AcDbEntity
  8
OUTLINE
  6
Continuous
100
AcDbLine
 10
-275.1355768467001
 20
-236.08240798
 30
0.0
 11
-274.8755777627002
 21
-236.4030946586
 31
0.0
  0
LINE
  5
341
330
1F
100
AcDbEntity
  8
OUTLINE
  6
Continuous
100
AcDbLine
 10
-311.2434330880001
 20
-199.8303092386
 30
0.0
 11
-311.1871298854004
 21
-199.9014276053
 31
0.0
  0
LINE
  5
342
330
1F
100
AcDbEntity
  8
OUTLINE
  6
Continuous
100
AcDbLine
 10
-281.2465246494
 20
-232.5914072773
 30
0.0
 11
-281.1148301440003
 21
-232.759480096
 31
0.0
  0
LINE
  5
343
330
1F
100
AcDbEntity
  8
OUTLINE
  6
Continuous
100
AcDbLine
 10
-282.9470591534002
 20
-223.9924561960001
 30
0.0
 11
-282.9154000240004
 21
-224.0402728706
 31
0.0
  0
LINE
  5
344
330
1F
100
AcDbEntity
  8
OUTLINE
  6
Continuous
100
AcDbLine
 10
-311.2930634307002
 20
-199.7543757466
 30
0.0
 11
-311.2434330880001
 21
-199.8303092386
 31
0.0
  0
LINE
  5
345
330
1F
100
AcDbEntity
  8
OUTLINE
  6
Continuous
100
AcDbLine
 10
-281.3532959734002
 20
-232.4099932653
 30
0.0
 11
-281.2465246494
 21
-232.5914072773
 31
0.0
  0
LINE
  5
346
330
1F
100
AcDbEntity
  8
OUTLINE
  6
Continuous
100
AcDbLine
 10
-282.0397464887003
 20
-224.6506218763
 30
0.0
 11
-282.0230715960001
 21
-224.681554808
 31
0.0
  0
LINE
  5
347
330
1F
100
AcDbEntity
  8
OUTLINE
  6
Continuous
100
AcDbLine
 10
-311.3356051574001
 20
-199.6742649093
 30
0.0
 11
-311.2930603320003
 21
-199.7543815813
 31
0.0
  0
LINE
  5
348
330
1F
100
AcDbEntity
  8
OUTLINE
  6
Continuous
100
AcDbLine
 10
-282.0232572680002
 20
-224.681235964
 30
0.0
 11
-281.9659566174003
 21
-224.8106833426
 31
0.0
  0
LINE
  5
349
330
1F
100
AcDbEntity
  8
OUTLINE
  6
Continuous
100
AcDbLine
 10
-281.4336222414001
 20
-232.21875588
 30
0.0
 11
-281.3532959734002
 21
-232.4099932653
 31
0.0
  0
LINE
  5
34A
330
1F
100
AcDbEntity
  8
OUTLINE
  6
Continuous
100
AcDbLine
 10
-311.3707119307003
 20
-199.5906317026
 30
0.0
 11
-311.3356032934003
 21
-199.674269352
 31
0.0
  0
LINE
  5
34B
330
1F
100
AcDbEntity
  8
OUTLINE
  6
Continuous
100
AcDbLine
 10
-282.9694064427001
 20
-223.9382891933
 30
0.0
 11
-282.9470591534002
 21
-223.9924561960001
 31
0.0
  0
LINE
  5
34C
330
1F
100
AcDbEntity
  8
OUTLINE
  6
Continuous
100
AcDbLine
 10
-281.9658497627001
 20
-224.81095022
 30
0.0
 11
-281.9116682694
 21
-224.96169564
 31
0.0
  0
LINE
  5
34D
330
1F
100
AcDbEntity
  8
OUTLINE
  6
Continuous
100
AcDbLine
 10
-311.3980973747002
 20
-199.504156792
 30
0.0
 11
-311.3707119307003
 21
-199.5906317026
 31
0.0
  0
LINE
  5
34E
330
1F
100
AcDbEntity
  8
OUTLINE
  6
Continuous
100
AcDbLine
 10
-281.9116682694
 20
-224.96169564
 30
0.0
 11
-281.8634712760001
 21
-225.130023832
 31
0.0
  0
LINE
  5
34F
330
1F
100
AcDbEntity
  8
OUTLINE
  6
Continuous
100
AcDbLine
 10
-281.4868855054001
 20
-232.0215042586
 30
0.0
 11
-281.4336222414001
 21
-232.21875588
 31
0.0
  0
LINE
  5
350
330
1F
100
AcDbEntity
  8
OUTLINE
  6
Continuous
100
AcDbLine
 10
-311.4175343014001
 20
-199.4155561213
 30
0.0
 11
-311.3980973747002
 21
-199.504156792
 31
0.0
  0
LINE
  5
351
330
1F
100
AcDbEntity
  8
OUTLINE
  6
Continuous
100
AcDbLine
 10
-281.8634712760001
 20
-225.130023832
 30
0.0
 11
-281.8239770934001
 21
-225.311250576
 31
0.0
  0
LINE
  5
352
330
1F
100
AcDbEntity
  8
OUTLINE
  6
Continuous
100
AcDbLine
 10
-282.9809001774001
 20
-223.879752864
 30
0.0
 11
-282.9694064427001
 21
-223.9382891933
 31
0.0
  0
LINE
  5
353
330
1F
100
AcDbEntity
  8
OUTLINE
  6
Continuous
100
AcDbLine
 10
-311.4219841627003
 20
-199.387316884
 30
0.0
 11
-311.4175343014001
 21
-199.4155561213
 31
0.0
  0
LINE
  5
354
330
1F
100
AcDbEntity
  8
OUTLINE
  6
Continuous
100
AcDbLine
 10
-281.8239770934001
 20
-225.311250576
 30
0.0
 11
-281.7956317467001
 21
-225.4997548746
 31
0.0
  0
LINE
  5
355
330
1F
100
AcDbEntity
  8
OUTLINE
  6
Continuous
100
AcDbLine
 10
-311.6140168267857
 20
-198.0448038714001
 30
0.0
 11
-311.4219848720002
 21
-199.3873174746
 31
0.0
  0
LINE
  5
356
330
1F
100
AcDbEntity
  8
OUTLINE
  6
Continuous
100
AcDbLine
 10
-281.5129851000001
 20
-231.8218801773
 30
0.0
 11
-281.4868855054001
 21
-232.0215042586
 31
0.0
  0
ARC
  5
357
330
1F
100
AcDbEntity
  8
OUTLINE
  6
Continuous
100
AcDbCircle
 10
-118.6213903360001
 20
-1500.9033641893
 30
0.0
 40
1500.0
100
AcDbArc
 50
91.00000000030145
 51
96.80879114309825
  0
ARC
  5
358
330
1F
100
AcDbEntity
  8
OUTLINE
  6
Continuous
100
AcDbCircle
 10
-260.8937425894001
 20
-231.7317365266
 30
0.0
 40
1.6
100
AcDbArc
 50
308.888540922303
 51
357.9999999999993
  0
ARC
  5
359
330
1F
100
AcDbEntity
  8
OUTLINE
  6
Continuous
100
AcDbCircle
 10
-274.6425166107001
 20
-236.2141579253
 30
0.0
 40
0.3
100
AcDbArc
 50
219.0308315298039
 51
257.911466108699
  0
ARC
  5
35A
330
1F
100
AcDbEntity
  8
OUTLINE
  6
Continuous
100
AcDbCircle
 10
-274.9025346734002
 20
-235.8934842613
 30
0.0
 40
0.3
100
AcDbArc
 50
180.4967657625005
 51
219.0311507459945
  0
ARC
  5
35B
330
1F
100
AcDbEntity
  8
OUTLINE
  6
Continuous
100
AcDbCircle
 10
-270.9985583107002
 20
-219.2000000586
 30
0.0
 40
17.7
100
AcDbArc
 50
257.9113381460946
 51
308.8885409224033
  0
ARC
  5
35C
330
1F
100
AcDbEntity
  8
OUTLINE
  6
Continuous
100
AcDbCircle
 10
-282.3569193694002
 20
-224.1656570613
 30
0.0
 40
0.2999999933
100
AcDbArc
 50
225.9983728269998
 51
248.0002508665963
  0
ARC
  5
35D
330
1F
100
AcDbEntity
  8
OUTLINE
  6
Continuous
100
AcDbCircle
 10
-313.8000000000002
 20
-194.894984608
 30
0.0
 40
1.199999999999999
100
AcDbArc
 50
180.0
 51
232.9999999999974
  0
ARC
  5
35E
330
1F
100
AcDbEntity
  8
OUTLINE
  6
Continuous
100
AcDbCircle
 10
-174.7445481520003
 20
-246.7021738026
 30
0.0
 40
1.0
100
AcDbArc
 50
272.0001597387005
 51
302.0001383362934
  0
ARC
  5
35F
330
1F
100
AcDbEntity
  8
OUTLINE
  6
Continuous
100
AcDbCircle
 10
-87.5
 20
-249.75692552
 30
0.0
 40
0.9999976
100
AcDbArc
 50
95.00308785960605
 51
180.0004140922005
  0
ARC
  5
360
330
1F
100
AcDbEntity
  8
OUTLINE
  6
Continuous
100
AcDbCircle
 10
-183.9044811227002
 20
-167.9738917106
 30
0.0
 40
80.0
100
AcDbArc
 50
265.5971071105029
 51
272.0000000000037
  0
ARC
  5
361
330
1F
100
AcDbEntity
  8
OUTLINE
  6
Continuous
100
AcDbCircle
 10
-173.0800000000001
 20
-27.39000000000002
 30
0.0
 40
221.0
100
AcDbArc
 50
231.3671601634996
 51
240.1283949673444
  0
ARC
  5
362
330
1F
100
AcDbEntity
  8
OUTLINE
  6
Continuous
100
AcDbCircle
 10
-313.0
 20
-17.1625712533
 30
0.0
 40
2.0
100
AcDbArc
 50
104.0000000000028
 51
180.0
  0
ARC
  5
363
330
1F
100
AcDbEntity
  8
OUTLINE
  6
Continuous
100
AcDbCircle
 10
-296.5
 20
-14.45109999199999
 30
0.0
 40
2.0
100
AcDbArc
 50
145.0000000000015
 51
180.0
  0
ARC
  5
364
330
1F
100
AcDbEntity
  8
OUTLINE
  6
Continuous
100
AcDbCircle
 10
-27.18538840140013
 20
0.3067087439999909
 30
0.0
 40
1.5
100
AcDbArc
 50
184.0794253271996
 51
191.8007524045986
  0
ARC
  5
365
330
1F
100
AcDbEntity
  8
OUTLINE
  6
Continuous
100
AcDbCircle
 10
-296.3373169707002
 20
-12.47531775199999
 30
0.0
 40
1.0
100
AcDbArc
 50
96.80879114300642
 51
145.0000000000015
  0
ARC
  5
366
330
1F
100
AcDbEntity
  8
OUTLINE
  6
Continuous
100
AcDbCircle
 10
-300.7000000000001
 20
-13.16243525860002
 30
0.0
 40
0.7
100
AcDbArc
 50
0.0
 51
87.99999999999636
  0
ARC
  5
367
330
1F
100
AcDbEntity
  8
OUTLINE
  6
Continuous
100
AcDbCircle
 10
-299.0
 20
-15.28631012400001
 30
0.0
 40
0.4999994987
100
AcDbArc
 50
277.2171621792988
 51
0.0001738926984931
  0
ELLIPSE
  5
368
330
1F
100
AcDbEntity
  8
OUTLINE
  6
Continuous
100
AcDbEllipse
 10
-87.0174537360001
 20
-248.0
 30
0.0
 11
0.0
 21
2.0
 31
0.0
210
0.0
220
0.0
230
1.0
 40
0.0087268678
 41
3.141592653599957
 42
4.349776318091246
  0
ARC
  5
369
330
1F
100
AcDbEntity
  8
OUTLINE
  6
Continuous
100
AcDbCircle
 10
-173.0800000000001
 20
-27.39000000000002
 30
0.0
 40
221.0
100
AcDbArc
 50
247.0473383647759
 51
265.5971071105029
  0
LINE
  5
36A
330
1F
100
AcDbEntity
  8
BASIS
  6
DASHDOT
100
AcDbLine
 10
17.69117850966336
 20
-125.0000000000002
 30
0.0
 11
-325.6600417948596
 21
-125.0000000000002
 31
0.0
  0
LINE
  5
36B
330
1F
100
AcDbEntity
  8
NOTE
  6
Continuous
 62
     4
100
AcDbLine
 10
0.0
 20
-208.0
 30
0.0
 11
288.3621088557011
 21
105.104289936751
 31
0.0
  0
LINE
  5
36C
330
1F
100
AcDbEntity
  8
NOTE
  6
Continuous
 62
     4
100
AcDbLine
 10
0.0
 20
-209.0
 30
0.0
 11
263.2260939860971
 21
-417.1246400634967
 31
0.0
  0
LINE
  5
36D
330
1F
100
AcDbEntity
  8
NOTE
  6
Continuous
 62
     4
100
AcDbLine
 10
17.62795999999798
 20
-172.0938000000005
 30
0.0
 11
0.0
 21
-208.0
 31
0.0
  0
LINE
  5
36E
330
1F
100
AcDbEntity
  8
NOTE
  6
DASHDOT
 62
     4
100
AcDbLine
 10
0.0
 20
-189.1999350000043
 30
0.0
 11
0.0
 21
-229.1999350000042
 31
0.0
  0
LINE
  5
36F
330
1F
100
AcDbEntity
  8
NOTE
  6
Continuous
 62
     4
100
AcDbLine
 10
0.0
 20
-208.0
 30
0.0
 11
33.21935999999914
 21
-185.7183000000006
 31
0.0
  0
LINE
  5
370
330
1F
100
AcDbEntity
  8
NOTE
  6
Continuous
 62
     4
100
AcDbLine
 10
36.74581000000035
 20
-224.8033500000004
 30
0.0
 11
0.0
 21
-209.0
 31
0.0
  0
LINE
  5
371
330
1F
100
AcDbEntity
  8
NOTE
  6
DASHDOT
 62
     4
100
AcDbLine
 10
20.0
 20
-208.0
 30
0.0
 11
-20.0
 21
-208.0
 31
0.0
  0
LINE
  5
372
330
1F
100
AcDbEntity
  8
NOTE
  6
DASHDOT
 62
     4
100
AcDbLine
 10
20.0
 20
-208.0
 30
0.0
 11
-20.0
 21
-208.0
 31
0.0
  0
LINE
  5
373
330
1F
100
AcDbEntity
  8
NOTE
  6
DASHDOT
 62
     4
100
AcDbLine
 10
20.0
 20
-209.0
 30
0.0
 11
-20.0
 21
-209.0
 31
0.0
  0
LINE
  5
374
330
1F
100
AcDbEntity
  8
NOTE
  6
Continuous
 62
     4
100
AcDbLine
 10
0.0
 20
-209.0
 30
0.0
 11
23.92112999999881
 21
-241.0589999999995
 31
0.0
  0
LINE
  5
375
330
1F
100
AcDbEntity
  8
NOTE
  6
Continuous
 62
     4
100
AcDbLine
 10
263.2260939860971
 20
-417.1246400634967
 30
0.0
 11
781.7722099999993
 21
-417.1246400634967
 31
0.0
  0
TEXT
  5
376
330
1F
100
AcDbEntity
  8
NOTE
 62
     4
100
AcDbText
 10
295.7860671428566
 20
-395.9287847903509
 30
0.0
 40
44.0203467431903
  1
D,RL,RGφ65
 41
0.9
  7
MS PGothic
 11
295.7860671428566
 21
-404.9295700634976
 31
0.0
100
AcDbText
 73
     1
  0
LINE
  5
377
330
1F
100
AcDbEntity
  8
NOTE
  6
Continuous
 62
     4
100
AcDbLine
 10
288.3621088557011
 20
105.104289936751
 30
0.0
 11
805.8153600000007
 21
105.104289936751
 31
0.0
  0
TEXT
  5
378
330
1F
100
AcDbEntity
  8
NOTE
 62
     4
100
AcDbText
 10
319.8292171428584
 20
126.3001352098977
 30
0.0
 40
44.0203467431903
  1
D,RL,RGφ65
 41
0.9
  7
MS PGothic
 11
319.8292171428584
 21
117.299349936751
 31
0.0
100
AcDbText
 73
     1
  0
CIRCLE
  5
379
330
1F
100
AcDbEntity
  8
ARRANGE
  6
Continuous
100
AcDbCircle
 10
0.0
 20
0.0
 30
0.0
 40
13.00138232471456
  0
POINT
  5
37A
330
1F
100
AcDbEntity
  8
ARRANGE
  6
Continuous
100
AcDbPoint
 10
0.0
 20
0.0
 30
0.0
  0
TEXT
  5
37B
330
1F
100
AcDbEntity
  8
ETC
100
AcDbText
 10
189.6244759908434
 20
268.6082189194577
 30
0.0
 40
44.00559035622107
  1
SMSZ6714
 41
1.47763329435538
  7
MS PGothic
 11
189.6244759908434
 21
259.6104508663091
 31
0.0
100
AcDbText
 73
     1
  0
TEXT
  5
37C
330
1F
100
AcDbEntity
  8
ETC
100
AcDbText
 10
189.6704388967016
 20
363.6336479026539
 30
0.0
 40
44.01324696863544
  1
室内機
 41
0.8333333333333323
  7
MS PGothic
 11
189.6704388967016
 21
354.6343143115358
 31
0.0
100
AcDbText
 73
     1
  0
VIEWPORT
  5
37D
330
1B
100
AcDbEntity
 67
     1
  8
0
100
AcDbViewport
 10
0.0
 20
0.0
 30
0.0
 40
295.7393831441316
 41
218.4464966997741
 68
     1
 69
     1
 12
151.4344252243575
 22
114.4698692968791
 13
0.0
 23
0.0
 14
0.5
 24
0.5
 15
0.5
 25
0.5
 16
0.0
 26
0.0
 36
1.0
 17
0.0
 27
0.0
 37
0.0
 42
50.0
 43
0.0
 44
0.0
 45
218.4464966997741
 50
0.0
 51
0.0
 72
   100
 90
   557152
  1

281
     0
 71
     1
 74
     0
110
0.0
120
0.0
130
0.0
111
1.0
121
0.0
131
0.0
112
0.0
122
1.0
132
0.0
 79
     0
146
0.0
  0
POLYLINE
  5
37F
102
{ACAD_REACTORS
102
}
330
1B
100
AcDbEntity
 67
     1
  8
rcviewportframe
100
AcDb2dPolyline
 66
     1
 10
0.0
 20
0.0
 30
0.0
 70
     1
  0
VERTEX
  5
380
330
37F
100
AcDbEntity
 67
     1
  8
rcviewportframe
100
AcDbVertex
100
AcDb2dVertex
 10
6.464139369391063
 20
7.388253267578023
 30
0.0
  0
VERTEX
  5
381
330
37F
100
AcDbEntity
 67
     1
  8
rcviewportframe
100
AcDbVertex
100
AcDb2dVertex
 10
296.404711079324
 20
7.388253267578023
 30
0.0
  0
VERTEX
  5
382
330
37F
100
AcDbEntity
 67
     1
  8
rcviewportframe
100
AcDbVertex
100
AcDb2dVertex
 10
296.404711079324
 20
221.5514853261801
 30
0.0
  0
VERTEX
  5
383
330
37F
100
AcDbEntity
 67
     1
  8
rcviewportframe
100
AcDbVertex
100
AcDb2dVertex
 10
6.464139369391063
 20
221.5514853261801
 30
0.0
  0
SEQEND
  5
384
330
37F
100
AcDbEntity
 67
     1
  8
rcviewportframe
  0
VIEWPORT
  5
385
330
1B
100
AcDbEntity
 67
     1
  8
0
100
AcDbViewport
 10
151.4344252243575
 20
114.4698692968791
 30
0.0
 40
289.9405717099329
 41
214.1632320586021
 68
     2
 69
     2
 12
240.0776591025706
 22
0.7548371240195308
 13
0.0
 23
0.0
 14
0.5
 24
0.5
 15
0.5
 25
0.5
 16
0.0
 26
0.0
 36
1.0
 17
0.0
 27
0.0
 37
0.0
 42
50.0
 43
0.0
 44
0.0
 45
856.6529282344083
 50
0.0
 51
0.0
 72
   100
 90
   622688
340
37F
  1

281
     0
 71
     1
 74
     0
110
0.0
120
0.0
130
0.0
111
1.0
121
0.0
131
0.0
112
0.0
122
1.0
132
0.0
 79
     0
146
0.0
  0
ENDSEC
  0
SECTION
  2
OBJECTS
  0
DICTIONARY
  5
C
330
0
100
AcDbDictionary
281
     1
  3
ACAD_GROUP
350
D
  3
ACAD_IMAGE_VARS
350
6B
  3
ACAD_LAYOUT
350
1A
  3
ACAD_MATERIAL
350
43
  3
ACAD_MLEADERSTYLE
350
389
  3
ACAD_MLINESTYLE
350
17
  3
ACAD_PLOTSETTINGS
350
19
  3
ACAD_PLOTSTYLENAME
350
E
  3
ACAD_SCALELIST
350
47
  3
ACAD_VISUALSTYLE
350
2A
  3
AcDbVariableDictionary
350
387
  0
DICTIONARY
  5
D
102
{ACAD_REACTORS
330
C
102
}
330
C
100
AcDbDictionary
281
     1
  0
RASTERVARIABLES
  5
6B
102
{ACAD_REACTORS
330
C
102
}
330
C
100
AcDbRasterVariables
 90
        0
 70
     0
 71
     1
 72
     0
  0
DICTIONARY
  5
1A
102
{ACAD_REACTORS
330
C
102
}
330
C
100
AcDbDictionary
281
     1
  3
Model
350
22
  3
レイアウト1
350
1E
  0
DICTIONARY
  5
43
102
{ACAD_REACTORS
330
C
102
}
330
C
100
AcDbDictionary
281
     1
  3
ByBlock
350
45
  3
ByLayer
350
44
  3
Global
350
46
  0
DICTIONARY
  5
389
102
{ACAD_REACTORS
330
C
102
}
330
C
100
AcDbDictionary
281
     1
  0
DICTIONARY
  5
17
102
{ACAD_REACTORS
330
C
102
}
330
C
100
AcDbDictionary
281
     1
  3
Standard
350
18
  0
DICTIONARY
  5
19
102
{ACAD_REACTORS
330
C
102
}
330
C
100
AcDbDictionary
281
     1
  0
ACDBDICTIONARYWDFLT
  5
E
102
{ACAD_REACTORS
330
C
102
}
330
C
100
AcDbDictionary
281
     1
  3
Normal
350
F
100
AcDbDictionaryWithDefault
340
F
  0
DICTIONARY
  5
47
102
{ACAD_REACTORS
330
C
102
}
330
C
100
AcDbDictionary
281
     1
  3
A0
350
48
  3
A1
350
49
  3
A2
350
4A
  3
A3
350
4B
  3
A4
350
4C
  3
A5
350
4D
  3
A6
350
4E
  3
A7
350
4F
  3
A8
350
50
  3
A9
350
51
  3
B0
350
52
  3
B1
350
53
  3
B2
350
54
  3
B3
350
55
  3
B4
350
56
  3
B5
350
57
  3
B6
350
58
  3
B7
350
59
  3
B8
350
5A
  3
B9
350
5B
  3
C0
350
5C
  3
C1
350
5D
  3
C2
350
5E
  3
C3
350
5F
  3
C4
350
60
  3
C5
350
61
  3
C6
350
62
  3
C7
350
63
  3
C8
350
64
  3
C9
350
65
  3
D0
350
66
  3
D1
350
67
  3
D2
350
68
  0
DICTIONARY
  5
2A
102
{ACAD_REACTORS
330
C
102
}
330
C
100
AcDbDictionary
281
     1
  3
2dWireframe
350
2F
  3
Basic
350
32
  3
Brighten
350
36
  3
ColorChange
350
3A
  3
Conceptual
350
34
  3
Dim
350
35
  3
EdgeColorOff
350
3D
  3
Facepattern
350
39
  3
Flat
350
2B
  3
FlatWithEdges
350
2C
  3
Gouraud
350
2D
  3
GouraudWithEdges
350
2E
  3
Hidden
350
31
  3
JitterOff
350
3B
  3
Linepattern
350
38
  3
OverhangOff
350
3C
  3
Realistic
350
33
  3
Shaded
350
42
  3
Shaded with edges
350
41
  3
Shades of Gray
350
3E
  3
Sketchy
350
3F
  3
Thicken
350
37
  3
Wireframe
350
30
  3
X-Ray
350
40
  0
DICTIONARY
  5
387
102
{ACAD_REACTORS
330
C
102
}
330
C
100
AcDbDictionary
281
     1
  3
CANNOSCALE
350
392
  3
DIMASSOC
350
38C
  3
HIDETEXT
350
38D
  3
MSLTSCALE
350
393
  0
LAYOUT
  5
22
102
{ACAD_REACTORS
330
1A
102
}
330
1A
100
AcDbPlotSettings
  1

  2
none_device
  4
Letter_(8.50_x_11.00_Inches)
  6

 40
6.35
 41
6.35
 42
6.35000508
 43
6.35000508
 44
215.9
 45
279.4
 46
0.0
 47
0.0
 48
0.0
 49
0.0
140
0.0
141
0.0
142
1.0
143
1.0
 70
  1712
 72
     0
 73
     0
 74
     0
  7

 75
     0
147
1.0
148
0.0
149
0.0
100
AcDbLayout
  1
Model
 70
     1
 71
     0
 10
-407.0750522435745
 20
-521.4058000793709
 11
1007.269200000001
 21
523.2928928894197
 12
0.0
 22
0.0
 32
0.0
 14
-407.0750522435745
 24
-521.4058000793709
 34
0.0
 15
1007.269200000001
 25
523.2928928894197
 35
0.0
146
0.0
 13
0.0
 23
0.0
 33
0.0
 16
1.0
 26
0.0
 36
0.0
 17
0.0
 27
1.0
 37
0.0
 76
     0
330
1F
331
29
  0
LAYOUT
  5
1E
102
{ACAD_REACTORS
330
1A
102
}
330
1A
100
AcDbPlotSettings
  1

  2
none_device
  4
ISO_A3_(420.00_x_297.00_MM)
  6

 40
7.5
 41
20.0
 42
7.5
 43
20.0
 44
420.0
 45
297.0
 46
-7.5
 47
-20.0
 48
0.0
 49
0.0
140
0.0
141
0.0
142
1.0
143
1.0
 70
   688
 72
     1
 73
     0
 74
     5
  7

 75
    16
147
1.0
148
0.0
149
0.0
100
AcDbLayout
  1
レイアウト1
 70
     1
 71
     1
 10
-7.5
 20
-20.0
 11
420.0
 21
297.0
 12
0.0
 22
0.0
 32
0.0
 14
-9.375
 24
-25.0
 34
0.0
 15
525.0
 25
371.25
 35
0.0
146
0.0
 13
0.0
 23
0.0
 33
0.0
 16
1.0
 26
0.0
 36
0.0
 17
0.0
 27
1.0
 37
0.0
 76
     0
330
1B
331
37D
  0
MATERIAL
  5
45
102
{ACAD_REACTORS
330
43
102
}
102
{ACAD_XDICTIONARY
360
3C6
102
}
330
43
100
AcDbMaterial
  1
ByBlock
  0
MATERIAL
  5
44
102
{ACAD_REACTORS
330
43
102
}
102
{ACAD_XDICTIONARY
360
3C4
102
}
330
43
100
AcDbMaterial
  1
ByLayer
  0
MATERIAL
  5
46
102
{ACAD_REACTORS
330
43
102
}
102
{ACAD_XDICTIONARY
360
3C8
102
}
330
43
100
AcDbMaterial
  1
Global
  0
MLINESTYLE
  5
18
102
{ACAD_REACTORS
330
17
102
}
330
17
100
AcDbMlineStyle
  2
Standard
 70
     0
  3

 62
   256
 51
90.0
 52
90.0
 71
     2
 49
0.5
 62
   256
  6
BYLAYER
 49
-0.5
 62
   256
  6
BYLAYER
  0
ACDBPLACEHOLDER
  5
F
102
{ACAD_REACTORS
330
E
102
}
330
E
  0
SCALE
  5
48
102
{ACAD_REACTORS
330
47
102
}
330
47
100
AcDbScale
 70
     0
300
1:1
140
1.0
141
1.0
290
     1
  0
SCALE
  5
49
102
{ACAD_REACTORS
330
47
102
}
330
47
100
AcDbScale
 70
     0
300
1:2
140
1.0
141
2.0
290
     0
  0
SCALE
  5
4A
102
{ACAD_REACTORS
330
47
102
}
330
47
100
AcDbScale
 70
     0
300
1:4
140
1.0
141
4.0
290
     0
  0
SCALE
  5
4B
102
{ACAD_REACTORS
330
47
102
}
330
47
100
AcDbScale
 70
     0
300
1:5
140
1.0
141
5.0
290
     0
  0
SCALE
  5
4C
102
{ACAD_REACTORS
330
47
102
}
330
47
100
AcDbScale
 70
     0
300
1:8
140
1.0
141
8.0
290
     0
  0
SCALE
  5
4D
102
{ACAD_REACTORS
330
47
102
}
330
47
100
AcDbScale
 70
     0
300
1:10
140
1.0
141
10.0
290
     0
  0
SCALE
  5
4E
102
{ACAD_REACTORS
330
47
102
}
330
47
100
AcDbScale
 70
     0
300
1:16
140
1.0
141
16.0
290
     0
  0
SCALE
  5
4F
102
{ACAD_REACTORS
330
47
102
}
330
47
100
AcDbScale
 70
     0
300
1:20
140
1.0
141
20.0
290
     0
  0
SCALE
  5
50
102
{ACAD_REACTORS
330
47
102
}
330
47
100
AcDbScale
 70
     0
300
1:30
140
1.0
141
30.0
290
     0
  0
SCALE
  5
51
102
{ACAD_REACTORS
330
47
102
}
330
47
100
AcDbScale
 70
     0
300
1:40
140
1.0
141
40.0
290
     0
  0
SCALE
  5
52
102
{ACAD_REACTORS
330
47
102
}
330
47
100
AcDbScale
 70
     0
300
1:50
140
1.0
141
50.0
290
     0
  0
SCALE
  5
53
102
{ACAD_REACTORS
330
47
102
}
330
47
100
AcDbScale
 70
     0
300
1:100
140
1.0
141
100.0
290
     0
  0
SCALE
  5
54
102
{ACAD_REACTORS
330
47
102
}
330
47
100
AcDbScale
 70
     0
300
2:1
140
2.0
141
1.0
290
     0
  0
SCALE
  5
55
102
{ACAD_REACTORS
330
47
102
}
330
47
100
AcDbScale
 70
     0
300
4:1
140
4.0
141
1.0
290
     0
  0
SCALE
  5
56
102
{ACAD_REACTORS
330
47
102
}
330
47
100
AcDbScale
 70
     0
300
8:1
140
8.0
141
1.0
290
     0
  0
SCALE
  5
57
102
{ACAD_REACTORS
330
47
102
}
330
47
100
AcDbScale
 70
     0
300
10:1
140
10.0
141
1.0
290
     0
  0
SCALE
  5
58
102
{ACAD_REACTORS
330
47
102
}
330
47
100
AcDbScale
 70
     0
300
100:1
140
100.0
141
1.0
290
     0
  0
SCALE
  5
59
102
{ACAD_REACTORS
330
47
102
}
330
47
100
AcDbScale
 70
     0
300
1/128" = 1'-0"
140
0.0078125
141
12.0
290
     0
  0
SCALE
  5
5A
102
{ACAD_REACTORS
330
47
102
}
330
47
100
AcDbScale
 70
     0
300
1/64" = 1'-0"
140
0.015625
141
12.0
290
     0
  0
SCALE
  5
5B
102
{ACAD_REACTORS
330
47
102
}
330
47
100
AcDbScale
 70
     0
300
1/32" = 1'-0"
140
0.03125
141
12.0
290
     0
  0
SCALE
  5
5C
102
{ACAD_REACTORS
330
47
102
}
330
47
100
AcDbScale
 70
     0
300
1/16" = 1'-0"
140
0.0625
141
12.0
290
     0
  0
SCALE
  5
5D
102
{ACAD_REACTORS
330
47
102
}
330
47
100
AcDbScale
 70
     0
300
3/32" = 1'-0"
140
0.09375
141
12.0
290
     0
  0
SCALE
  5
5E
102
{ACAD_REACTORS
330
47
102
}
330
47
100
AcDbScale
 70
     0
300
1/8" = 1'-0"
140
0.125
141
12.0
290
     0
  0
SCALE
  5
5F
102
{ACAD_REACTORS
330
47
102
}
330
47
100
AcDbScale
 70
     0
300
3/16" = 1'-0"
140
0.1875
141
12.0
290
     0
  0
SCALE
  5
60
102
{ACAD_REACTORS
330
47
102
}
330
47
100
AcDbScale
 70
     0
300
1/4" = 1'-0"
140
0.25
141
12.0
290
     0
  0
SCALE
  5
61
102
{ACAD_REACTORS
330
47
102
}
330
47
100
AcDbScale
 70
     0
300
3/8" = 1'-0"
140
0.375
141
12.0
290
     0
  0
SCALE
  5
62
102
{ACAD_REACTORS
330
47
102
}
330
47
100
AcDbScale
 70
     0
300
1/2" = 1'-0"
140
0.5
141
12.0
290
     0
  0
SCALE
  5
63
102
{ACAD_REACTORS
330
47
102
}
330
47
100
AcDbScale
 70
     0
300
3/4" = 1'-0"
140
0.75
141
12.0
290
     0
  0
SCALE
  5
64
102
{ACAD_REACTORS
330
47
102
}
330
47
100
AcDbScale
 70
     0
300
1" = 1'-0"
140
1.0
141
12.0
290
     0
  0
SCALE
  5
65
102
{ACAD_REACTORS
330
47
102
}
330
47
100
AcDbScale
 70
     0
300
1-1/2" = 1'-0"
140
1.5
141
12.0
290
     0
  0
SCALE
  5
66
102
{ACAD_REACTORS
330
47
102
}
330
47
100
AcDbScale
 70
     0
300
3" = 1'-0"
140
3.0
141
12.0
290
     0
  0
SCALE
  5
67
102
{ACAD_REACTORS
330
47
102
}
330
47
100
AcDbScale
 70
     0
300
6" = 1'-0"
140
6.0
141
12.0
290
     0
  0
SCALE
  5
68
102
{ACAD_REACTORS
330
47
102
}
330
47
100
AcDbScale
 70
     0
300
1'-0" = 1'-0"
140
12.0
141
12.0
290
     0
  0
VISUALSTYLE
  5
2F
102
{ACAD_REACTORS
330
2A
102
}
102
{ACAD_XDICTIONARY
360
39C
102
}
330
2A
100
AcDbVisualStyle
  2
2dWireframe
 70
     4
 71
     0
 72
     2
 73
     0
 90
        0
 40
0.6
 41
30.0
 62
     5
 63
     7
 74
     1
 91
        4
 64
     7
 65
   257
 75
     1
175
     1
 42
1.0
 92
        0
 66
   257
 43
1.0
 76
     1
 77
     6
 78
     2
 67
     7
 79
     5
170
     0
171
     0
290
     0
174
     0
 93
        1
 44
0.0
173
     0
291
     0
 45
0.0
1001
ACAD
1000
AcDbSavedByObjectVersion
1070
     0
  0
VISUALSTYLE
  5
32
102
{ACAD_REACTORS
330
2A
102
}
102
{ACAD_XDICTIONARY
360
3A2
102
}
330
2A
100
AcDbVisualStyle
  2
Basic
 70
     7
 71
     1
 72
     0
 73
     1
 90
        0
 40
0.6
 41
30.0
 62
     5
 63
     7
 74
     0
 91
        4
 64
     7
 65
   257
 75
     1
175
     1
 42
1.0
 92
        8
 66
     7
 43
1.0
 76
     1
 77
     6
 78
     2
 67
     7
 79
     5
170
     0
171
     0
290
     0
174
     0
 93
        1
 44
0.0
173
     0
291
     1
 45
0.0
1001
ACAD
1000
AcDbSavedByObjectVersion
1070
     0
  0
VISUALSTYLE
  5
36
102
{ACAD_REACTORS
330
2A
102
}
102
{ACAD_XDICTIONARY
360
3AA
102
}
330
2A
100
AcDbVisualStyle
  2
Brighten
 70
    12
 71
     2
 72
     2
 73
     0
 90
        0
 40
0.6
 41
30.0
 62
     5
 63
     7
 74
     1
 91
        4
 64
     7
 65
   257
 75
     1
175
     1
 42
1.0
 92
        8
 66
     7
 43
1.0
 76
     1
 77
     6
 78
     2
 67
     7
 79
     5
170
     0
171
     0
290
     0
174
     0
 93
        1
 44
50.0
173
     0
291
     1
 45
0.0
1001
ACAD
1000
AcDbSavedByObjectVersion
1070
     0
  0
VISUALSTYLE
  5
3A
102
{ACAD_REACTORS
330
2A
102
}
102
{ACAD_XDICTIONARY
360
3B2
102
}
330
2A
100
AcDbVisualStyle
  2
ColorChange
 70
    16
 71
     2
 72
     2
 73
     3
 90
        0
 40
0.6
 41
30.0
 62
     5
 63
     8
 74
     1
 91
        4
 64
     7
 65
   257
 75
     1
175
     1
 42
1.0
 92
        8
 66
     8
 43
1.0
 76
     1
 77
     6
 78
     2
 67
     7
 79
     5
170
     0
171
     0
290
     0
174
     0
 93
        1
 44
0.0
173
     0
291
     1
 45
0.0
1001
ACAD
1000
AcDbSavedByObjectVersion
1070
     0
  0
VISUALSTYLE
  5
34
102
{ACAD_REACTORS
330
2A
102
}
102
{ACAD_XDICTIONARY
360
3A6
102
}
330
2A
100
AcDbVisualStyle
  2
Conceptual
 70
     9
 71
     3
 72
     2
 73
     0
 90
        0
 40
0.6
 41
30.0
 62
     5
 63
     7
 74
     2
 91
        2
 64
     7
 65
   257
 75
     1
175
     1
 42
179.0
 92
        8
 66
     7
 43
1.0
 76
     1
 77
     6
 78
     2
 67
     7
 79
     3
170
     0
171
     0
290
     0
174
     0
 93
        1
 44
0.0
173
     0
291
     0
 45
0.0
1001
ACAD
1000
AcDbSavedByObjectVersion
1070
     0
  0
VISUALSTYLE
  5
35
102
{ACAD_REACTORS
330
2A
102
}
102
{ACAD_XDICTIONARY
360
3A8
102
}
330
2A
100
AcDbVisualStyle
  2
Dim
 70
    11
 71
     2
 72
     2
 73
     0
 90
        0
 40
0.6
 41
30.0
 62
     5
 63
     7
 74
     1
 91
        4
 64
     7
 65
   257
 75
     1
175
     1
 42
1.0
 92
        8
 66
     7
 43
1.0
 76
     1
 77
     6
 78
     2
 67
     7
 79
     5
170
     0
171
     0
290
     0
174
     0
 93
        1
 44
-50.0
173
     0
291
     1
 45
0.0
1001
ACAD
1000
AcDbSavedByObjectVersion
1070
     0
  0
VISUALSTYLE
  5
3D
102
{ACAD_REACTORS
330
2A
102
}
102
{ACAD_XDICTIONARY
360
3B8
102
}
330
2A
100
AcDbVisualStyle
  2
EdgeColorOff
 70
    22
 71
     2
 72
     2
 73
     0
 90
        0
 40
0.6
 41
30.0
 62
     5
 63
     7
 74
     1
 91
        4
 64
     7
 65
   257
 75
     1
175
     1
 42
1.0
 92
        8
 66
     7
 43
1.0
 76
     1
 77
     6
 78
     2
 67
     7
 79
     5
170
     0
171
     0
290
     0
174
     0
 93
        1
 44
0.0
173
     0
291
     1
 45
0.0
1001
ACAD
1000
AcDbSavedByObjectVersion
1070
     0
  0
VISUALSTYLE
  5
39
102
{ACAD_REACTORS
330
2A
102
}
102
{ACAD_XDICTIONARY
360
3B0
102
}
330
2A
100
AcDbVisualStyle
  2
Facepattern
 70
    15
 71
     2
 72
     2
 73
     0
 90
        0
 40
0.6
 41
30.0
 62
     5
 63
     7
 74
     1
 91
        4
 64
     7
 65
   257
 75
     1
175
     1
 42
1.0
 92
        8
 66
     7
 43
1.0
 76
     1
 77
     6
 78
     2
 67
     7
 79
     5
170
     0
171
     0
290
     0
174
     0
 93
        1
 44
0.0
173
     0
291
     1
 45
0.0
1001
ACAD
1000
AcDbSavedByObjectVersion
1070
     0
  0
VISUALSTYLE
  5
2B
102
{ACAD_REACTORS
330
2A
102
}
102
{ACAD_XDICTIONARY
360
394
102
}
330
2A
100
AcDbVisualStyle
  2
Flat
 70
     0
 71
     2
 72
     1
 73
     1
 90
        2
 40
0.6
 41
30.0
 62
     5
 63
     7
 74
     0
 91
        0
 64
     7
 65
   257
 75
     1
175
     1
 42
1.0
 92
        8
 66
     7
 43
1.0
 76
     1
 77
     6
 78
     2
 67
     7
 79
     5
170
     0
171
     0
290
     0
174
     0
 93
       13
 44
0.0
173
     0
291
     1
 45
0.0
1001
ACAD
1000
AcDbSavedByObjectVersion
1070
     0
  0
VISUALSTYLE
  5
2C
102
{ACAD_REACTORS
330
2A
102
}
102
{ACAD_XDICTIONARY
360
396
102
}
330
2A
100
AcDbVisualStyle
  2
FlatWithEdges
 70
     1
 71
     2
 72
     1
 73
     1
 90
        2
 40
0.6
 41
30.0
 62
     5
 63
     7
 74
     1
 91
        0
 64
     7
 65
   257
 75
     1
175
     1
 42
1.0
 92
        0
 66
   257
 43
1.0
 76
     1
 77
     6
 78
     2
 67
     7
 79
     5
170
     0
171
     0
290
     0
174
     0
 93
       13
 44
0.0
173
     0
291
     1
 45
0.0
1001
ACAD
1000
AcDbSavedByObjectVersion
1070
     0
  0
VISUALSTYLE
  5
2D
102
{ACAD_REACTORS
330
2A
102
}
102
{ACAD_XDICTIONARY
360
398
102
}
330
2A
100
AcDbVisualStyle
  2
Gouraud
 70
     2
 71
     2
 72
     2
 73
     1
 90
        2
 40
0.6
 41
30.0
 62
     5
 63
     7
 74
     0
 91
        0
 64
     7
 65
   257
 75
     1
175
     1
 42
1.0
 92
        0
 66
     7
 43
1.0
 76
     1
 77
     6
 78
     2
 67
     7
 79
     5
170
     0
171
     0
290
     0
174
     0
 93
       13
 44
0.0
173
     0
291
     1
 45
0.0
1001
ACAD
1000
AcDbSavedByObjectVersion
1070
     0
  0
VISUALSTYLE
  5
2E
102
{ACAD_REACTORS
330
2A
102
}
102
{ACAD_XDICTIONARY
360
39A
102
}
330
2A
100
AcDbVisualStyle
  2
GouraudWithEdges
 70
     3
 71
     2
 72
     2
 73
     1
 90
        2
 40
0.6
 41
30.0
 62
     5
 63
     7
 74
     1
 91
        0
 64
     7
 65
   257
 75
     1
175
     1
 42
1.0
 92
        0
 66
   257
 43
1.0
 76
     1
 77
     6
 78
     2
 67
     7
 79
     5
170
     0
171
     0
290
     0
174
     0
 93
       13
 44
0.0
173
     0
291
     1
 45
0.0
1001
ACAD
1000
AcDbSavedByObjectVersion
1070
     0
  0
VISUALSTYLE
  5
31
102
{ACAD_REACTORS
330
2A
102
}
102
{ACAD_XDICTIONARY
360
3A0
102
}
330
2A
100
AcDbVisualStyle
  2
Hidden
 70
     6
 71
     1
 72
     2
 73
     2
 90
        0
 40
0.6
 41
30.0
 62
     5
 63
     7
 74
     2
 91
        2
 64
     7
 65
   257
 75
     2
175
     1
 42
40.0
 92
        0
 66
   257
 43
1.0
 76
     1
 77
     6
 78
     2
 67
     7
 79
     3
170
     0
171
     0
290
     0
174
     0
 93
        1
 44
0.0
173
     0
291
     0
 45
0.0
1001
ACAD
1000
AcDbSavedByObjectVersion
1070
     0
  0
VISUALSTYLE
  5
3B
102
{ACAD_REACTORS
330
2A
102
}
102
{ACAD_XDICTIONARY
360
3B4
102
}
330
2A
100
AcDbVisualStyle
  2
JitterOff
 70
    20
 71
     2
 72
     2
 73
     0
 90
        0
 40
0.6
 41
30.0
 62
     5
 63
     7
 74
     1
 91
        4
 64
     7
 65
   257
 75
     1
175
     1
 42
1.0
 92
       10
 66
     7
 43
1.0
 76
     1
 77
     6
 78
     2
 67
     7
 79
     5
170
     0
171
     0
290
     0
174
     0
 93
        1
 44
0.0
173
     0
291
     1
 45
0.0
1001
ACAD
1000
AcDbSavedByObjectVersion
1070
     0
  0
VISUALSTYLE
  5
38
102
{ACAD_REACTORS
330
2A
102
}
102
{ACAD_XDICTIONARY
360
3AE
102
}
330
2A
100
AcDbVisualStyle
  2
Linepattern
 70
    14
 71
     2
 72
     2
 73
     0
 90
        0
 40
0.6
 41
30.0
 62
     5
 63
     7
 74
     1
 91
        4
 64
     7
 65
   257
 75
     7
175
     7
 42
1.0
 92
        8
 66
     7
 43
1.0
 76
     1
 77
     6
 78
     2
 67
     7
 79
     5
170
     0
171
     0
290
     0
174
     0
 93
        1
 44
0.0
173
     0
291
     1
 45
0.0
1001
ACAD
1000
AcDbSavedByObjectVersion
1070
     0
  0
VISUALSTYLE
  5
3C
102
{ACAD_REACTORS
330
2A
102
}
102
{ACAD_XDICTIONARY
360
3B6
102
}
330
2A
100
AcDbVisualStyle
  2
OverhangOff
 70
    21
 71
     2
 72
     2
 73
     0
 90
        0
 40
0.6
 41
30.0
 62
     5
 63
     7
 74
     1
 91
        4
 64
     7
 65
   257
 75
     1
175
     1
 42
1.0
 92
        9
 66
     7
 43
1.0
 76
     1
 77
     6
 78
     2
 67
     7
 79
     5
170
     0
171
     0
290
     0
174
     0
 93
        1
 44
0.0
173
     0
291
     1
 45
0.0
1001
ACAD
1000
AcDbSavedByObjectVersion
1070
     0
  0
VISUALSTYLE
  5
33
102
{ACAD_REACTORS
330
2A
102
}
102
{ACAD_XDICTIONARY
360
3A4
102
}
330
2A
100
AcDbVisualStyle
  2
Realistic
 70
     8
 71
     2
 72
     3
 73
     0
 90
        2
 40
0.6
 41
30.0
 62
     5
 63
     7
 74
     0
 91
        0
 64
     7
 65
   257
 75
     1
175
     1
 42
1.0
 92
        8
 66
   257
 43
1.0
 76
     1
 77
     6
 78
     2
 67
     7
 79
     3
170
     0
171
     0
290
     0
174
     0
 93
       13
 44
0.0
173
     0
291
     0
 45
0.0
1001
ACAD
1000
AcDbSavedByObjectVersion
1070
     0
  0
VISUALSTYLE
  5
42
102
{ACAD_REACTORS
330
2A
102
}
102
{ACAD_XDICTIONARY
360
3C2
102
}
330
2A
100
AcDbVisualStyle
  2
Shaded
 70
    27
 71
     2
 72
     2
 73
     1
 90
        2
 40
0.6
 41
30.0
 62
     5
 63
     7
 74
     0
 91
        4
 64
     7
 65
   257
 75
     1
175
     1
 42
1.0
 92
        8
 66
   257
 43
1.0
 76
     1
 77
     6
 78
     2
 67
     8
 79
     3
170
     0
171
     0
290
     0
174
     0
 93
        5
 44
0.0
173
     0
291
     0
 45
0.0
1001
ACAD
1000
AcDbSavedByObjectVersion
1070
     0
  0
VISUALSTYLE
  5
41
102
{ACAD_REACTORS
330
2A
102
}
102
{ACAD_XDICTIONARY
360
3C0
102
}
330
2A
100
AcDbVisualStyle
  2
Shaded with edges
 70
    26
 71
     2
 72
     2
 73
     1
 90
        2
 40
0.6
 41
30.0
 62
     5
 63
     7
 74
     1
 91
       10
 64
     7
 65
   257
 75
     2
175
     1
 42
1.0
 92
        8
 66
   257
 43
1.0
 76
     1
 77
     6
 78
     2
 67
     7
 79
     3
170
     0
171
     0
290
     0
174
     0
 93
        5
 44
0.0
173
     0
291
     0
 45
0.0
1001
ACAD
1000
AcDbSavedByObjectVersion
1070
     0
  0
VISUALSTYLE
  5
3E
102
{ACAD_REACTORS
330
2A
102
}
102
{ACAD_XDICTIONARY
360
3BA
102
}
330
2A
100
AcDbVisualStyle
  2
Shades of Gray
 70
    23
 71
     2
 72
     2
 73
     3
 90
        0
 40
0.6
 41
30.0
 62
     5
 63
     7
 74
     2
 91
        2
 64
     7
 65
     7
 75
     1
175
     1
 42
40.0
 92
        8
 66
     7
 43
1.0
 76
     1
 77
     6
 78
     2
 67
     7
 79
     3
170
     0
171
     0
290
     0
174
     0
 93
        1
 44
0.0
173
     0
291
     0
 45
0.0
1001
ACAD
1000
AcDbSavedByObjectVersion
1070
     0
  0
VISUALSTYLE
  5
3F
102
{ACAD_REACTORS
330
2A
102
}
102
{ACAD_XDICTIONARY
360
3BC
102
}
330
2A
100
AcDbVisualStyle
  2
Sketchy
 70
    24
 71
     1
 72
     2
 73
     2
 90
        0
 40
0.6
 41
30.0
 62
     5
 63
     7
 74
     2
 91
        2
 64
     7
 65
     7
 75
     1
175
     1
 42
40.0
 92
       11
 66
     7
 43
1.0
 76
     1
 77
     6
 78
     2
 67
     7
 79
     6
170
     0
171
     0
290
     0
174
     0
 93
        1
 44
0.0
173
     0
291
     0
 45
0.0
1001
ACAD
1000
AcDbSavedByObjectVersion
1070
     0
  0
VISUALSTYLE
  5
37
102
{ACAD_REACTORS
330
2A
102
}
102
{ACAD_XDICTIONARY
360
3AC
102
}
330
2A
100
AcDbVisualStyle
  2
Thicken
 70
    13
 71
     2
 72
     2
 73
     0
 90
        0
 40
0.6
 41
30.0
 62
     5
 63
     7
 74
     1
 91
        4
 64
     7
 65
   257
 75
     1
175
     1
 42
1.0
 92
       12
 66
     7
 43
1.0
 76
     1
 77
     6
 78
     2
 67
     7
 79
     5
170
     0
171
     0
290
     0
174
     0
 93
        1
 44
0.0
173
     0
291
     1
 45
0.0
1001
ACAD
1000
AcDbSavedByObjectVersion
1070
     0
  0
VISUALSTYLE
  5
30
102
{ACAD_REACTORS
330
2A
102
}
102
{ACAD_XDICTIONARY
360
39E
102
}
330
2A
100
AcDbVisualStyle
  2
Wireframe
 70
     5
 71
     0
 72
     2
 73
     0
 90
        0
 40
0.6
 41
30.0
 62
     5
 63
     7
 74
     1
 91
        4
 64
     7
 65
   257
 75
     1
175
     1
 42
1.0
 92
        0
 66
   257
 43
1.0
 76
     1
 77
     6
 78
     2
 67
     7
 79
     3
170
     0
171
     0
290
     0
174
     0
 93
        1
 44
0.0
173
     0
291
     0
 45
0.0
1001
ACAD
1000
AcDbSavedByObjectVersion
1070
     0
  0
VISUALSTYLE
  5
40
102
{ACAD_REACTORS
330
2A
102
}
102
{ACAD_XDICTIONARY
360
3BE
102
}
330
2A
100
AcDbVisualStyle
  2
X-Ray
 70
    25
 71
     2
 72
     2
 73
     1
 90
        1
 40
0.5
 41
30.0
 62
     5
 63
     7
 74
     1
 91
        0
 64
     7
 65
   257
 75
     1
175
     1
 42
1.0
 92
        8
 66
     7
 43
1.0
 76
     1
 77
     6
 78
     2
 67
     7
 79
     3
170
     0
171
     0
290
     0
174
     0
 93
       13
 44
0.0
173
     0
291
     0
 45
0.0
1001
ACAD
1000
AcDbSavedByObjectVersion
1070
     0
  0
DICTIONARYVAR
  5
392
102
{ACAD_REACTORS
330
387
102
}
330
387
100
DictionaryVariables
280
     0
  1
1:1
  0
DICTIONARYVAR
  5
38C
102
{ACAD_REACTORS
330
387
102
}
330
387
100
DictionaryVariables
280
     0
  1
2
  0
DICTIONARYVAR
  5
38D
102
{ACAD_REACTORS
330
387
102
}
330
387
100
DictionaryVariables
280
     0
  1
1
  0
DICTIONARYVAR
  5
393
102
{ACAD_REACTORS
330
387
102
}
330
387
100
DictionaryVariables
280
     0
  1
1
  0
DICTIONARY
  5
3C6
330
45
100
AcDbDictionary
280
     1
281
     1
  3
ACAD_XREC_ROUNDTRIP
360
3C7
  0
DICTIONARY
  5
3C4
330
44
100
AcDbDictionary
280
     1
281
     1
  3
ACAD_XREC_ROUNDTRIP
360
3C5
  0
DICTIONARY
  5
3C8
330
46
100
AcDbDictionary
280
     1
281
     1
  3
ACAD_XREC_ROUNDTRIP
360
3C9
  0
DICTIONARY
  5
39C
330
2F
100
AcDbDictionary
280
     1
281
     1
  3
ACAD_XREC_ROUNDTRIP
360
39D
  0
DICTIONARY
  5
3A2
330
32
100
AcDbDictionary
280
     1
281
     1
  3
ACAD_XREC_ROUNDTRIP
360
3A3
  0
DICTIONARY
  5
3AA
330
36
100
AcDbDictionary
280
     1
281
     1
  3
ACAD_XREC_ROUNDTRIP
360
3AB
  0
DICTIONARY
  5
3B2
330
3A
100
AcDbDictionary
280
     1
281
     1
  3
ACAD_XREC_ROUNDTRIP
360
3B3
  0
DICTIONARY
  5
3A6
330
34
100
AcDbDictionary
280
     1
281
     1
  3
ACAD_XREC_ROUNDTRIP
360
3A7
  0
DICTIONARY
  5
3A8
330
35
100
AcDbDictionary
280
     1
281
     1
  3
ACAD_XREC_ROUNDTRIP
360
3A9
  0
DICTIONARY
  5
3B8
330
3D
100
AcDbDictionary
280
     1
281
     1
  3
ACAD_XREC_ROUNDTRIP
360
3B9
  0
DICTIONARY
  5
3B0
330
39
100
AcDbDictionary
280
     1
281
     1
  3
ACAD_XREC_ROUNDTRIP
360
3B1
  0
DICTIONARY
  5
394
330
2B
100
AcDbDictionary
280
     1
281
     1
  3
ACAD_XREC_ROUNDTRIP
360
395
  0
DICTIONARY
  5
396
330
2C
100
AcDbDictionary
280
     1
281
     1
  3
ACAD_XREC_ROUNDTRIP
360
397
  0
DICTIONARY
  5
398
330
2D
100
AcDbDictionary
280
     1
281
     1
  3
ACAD_XREC_ROUNDTRIP
360
399
  0
DICTIONARY
  5
39A
330
2E
100
AcDbDictionary
280
     1
281
     1
  3
ACAD_XREC_ROUNDTRIP
360
39B
  0
DICTIONARY
  5
3A0
330
31
100
AcDbDictionary
280
     1
281
     1
  3
ACAD_XREC_ROUNDTRIP
360
3A1
  0
DICTIONARY
  5
3B4
330
3B
100
AcDbDictionary
280
     1
281
     1
  3
ACAD_XREC_ROUNDTRIP
360
3B5
  0
DICTIONARY
  5
3AE
330
38
100
AcDbDictionary
280
     1
281
     1
  3
ACAD_XREC_ROUNDTRIP
360
3AF
  0
DICTIONARY
  5
3B6
330
3C
100
AcDbDictionary
280
     1
281
     1
  3
ACAD_XREC_ROUNDTRIP
360
3B7
  0
DICTIONARY
  5
3A4
330
33
100
AcDbDictionary
280
     1
281
     1
  3
ACAD_XREC_ROUNDTRIP
360
3A5
  0
DICTIONARY
  5
3C2
330
42
100
AcDbDictionary
280
     1
281
     1
  3
ACAD_XREC_ROUNDTRIP
360
3C3
  0
DICTIONARY
  5
3C0
330
41
100
AcDbDictionary
280
     1
281
     1
  3
ACAD_XREC_ROUNDTRIP
360
3C1
  0
DICTIONARY
  5
3BA
330
3E
100
AcDbDictionary
280
     1
281
     1
  3
ACAD_XREC_ROUNDTRIP
360
3BB
  0
DICTIONARY
  5
3BC
330
3F
100
AcDbDictionary
280
     1
281
     1
  3
ACAD_XREC_ROUNDTRIP
360
3BD
  0
DICTIONARY
  5
3AC
330
37
100
AcDbDictionary
280
     1
281
     1
  3
ACAD_XREC_ROUNDTRIP
360
3AD
  0
DICTIONARY
  5
39E
330
30
100
AcDbDictionary
280
     1
281
     1
  3
ACAD_XREC_ROUNDTRIP
360
39F
  0
DICTIONARY
  5
3BE
330
40
100
AcDbDictionary
280
     1
281
     1
  3
ACAD_XREC_ROUNDTRIP
360
3BF
  0
XRECORD
  5
3C7
102
{ACAD_REACTORS
330
3C6
102
}
330
3C6
100
AcDbXrecord
280
     1
102
MATERIAL
148
0.0
149
0.0
149
0.0
 93
        0
 94
      127
282
     0
 72
     1
 77
     1
171
     1
175
     1
179
     1
273
     0
  0
XRECORD
  5
3C5
102
{ACAD_REACTORS
330
3C4
102
}
330
3C4
100
AcDbXrecord
280
     1
102
MATERIAL
148
0.0
149
0.0
149
0.0
 93
        0
 94
      127
282
     0
 72
     1
 77
     1
171
     1
175
     1
179
     1
273
     0
  0
XRECORD
  5
3C9
102
{ACAD_REACTORS
330
3C8
102
}
330
3C8
100
AcDbXrecord
280
     1
102
MATERIAL
148
0.0
149
0.0
149
0.0
 93
        0
 94
      127
282
     0
 72
     1
 77
     1
171
     1
175
     1
179
     1
273
     0
  0
XRECORD
  5
39D
102
{ACAD_REACTORS
330
39C
102
}
330
39C
100
AcDbXrecord
280
     1
102
RTVSPropertyOp0
 70
     1
102
RTVSPropertyOp1
 70
     1
102
RTVSPropertyOp2
 70
     1
102
RTVSPropertyOp3
 70
     1
102
RTVSPropertyOp4
 70
     1
102
RTVSPropertyOp5
 70
     1
102
RTVSPropertyOp6
 70
     1
102
RTVSPropertyOp7
 70
     1
102
RTVSPropertyOp8
 70
     1
102
RTVSPropertyOp9
 70
     1
102
RTVSPropertyOp10
 70
     1
102
RTVSPropertyOp11
 70
     1
102
RTVSPropertyOp12
 70
     1
102
RTVSPropertyOp13
 70
     1
102
RTVSPropertyOp14
 70
     1
102
RTVSPropertyOp15
 70
     1
102
RTVSPropertyOp16
 70
     1
102
RTVSPropertyOp17
 70
     1
102
RTVSPropertyOp18
 70
     1
102
RTVSPropertyOp19
 70
     1
102
RTVSPropertyOp20
 70
     1
102
RTVSPropertyOp21
 70
     1
102
RTVSPropertyOp22
 70
     1
102
RTVSPropertyOp23
 70
     1
102
RTVSPropertyOp24
 70
     1
102
RTVSPropertyOp25
 70
     1
102
RTVSPropertyOp26
 70
     1
102
RTVSPropertyOp27
 70
     1
102
RTVSPropertyOp28
 70
     1
102
RTVSPropertyOp29
 70
     1
102
RTVSPropertyOp30
 70
     1
102
RTVSPropertyOp31
 70
     1
102
RTVSPropertyOp32
 70
     1
102
RTVSPropertyOp33
 70
     1
102
RTVSPropertyOp34
 70
     1
102
RTVSPropertyOp35
 70
     1
102
RTVSPropertyOp36
 70
     1
102
RTVSPropertyOp37
 70
     1
102
RTVSPropertyOp38
 70
     1
102
RTVSPropertyOp39
 70
     1
102
RTVSPropertyOp40
 70
     1
102
RTVSPropertyOp41
 70
     1
102
RTVSPropertyOp42
 70
     1
102
RTVSPropertyOp43
 70
     1
102
RTVSPropertyOp44
 70
     1
102
RTVSPropertyOp45
 70
     1
102
RTVSPropertyOp46
 70
     1
102
RTVSPropertyOp47
 70
     1
102
RTVSPropertyOp48
 70
     1
102
RTVSPropertyOp49
 70
     1
102
RTVSPropertyOp50
 70
     1
102
RTVSPropertyOp51
 70
     0
102
RTVSPropertyOp52
 70
     0
102
RTVSPropertyOp53
 70
     1
102
RTVSPropertyOp54
 70
     1
102
RTVSPropertyOp55
 70
     1
102
RTVSPropertyOp56
 70
     1
102
RTVSPropertyOp57
 70
     1
102
RTVSPost2010Prop28
280
     1
102
RTVSPost2010PropOp28
 70
     1
102
RTVSPost2010Prop29
280
     1
102
RTVSPost2010PropOp29
 70
     1
102
RTVSPost2010Prop30
280
     0
102
RTVSPost2010PropOp30
 70
     1
102
RTVSPost2010Prop31
280
     0
102
RTVSPost2010PropOp31
 70
     1
102
RTVSPost2010Prop32
280
     0
102
RTVSPost2010PropOp32
 70
     1
102
RTVSPost2010Prop33
280
     0
102
RTVSPost2010PropOp33
 70
     1
102
RTVSPost2010Prop34
280
     0
102
RTVSPost2010PropOp34
 70
     1
102
RTVSPost2010Prop35
280
     0
102
RTVSPost2010PropOp35
 70
     1
102
RTVSPost2010Prop36
280
     0
102
RTVSPost2010PropOp36
 70
     1
102
RTVSPost2010Prop37
 90
       50
102
RTVSPost2010PropOp37
 70
     1
102
RTVSPost2010Prop38
140
0.0
102
RTVSPost2010PropOp38
 70
     1
102
RTVSPost2010Prop39
140
1.0
102
RTVSPost2010PropOp39
 70
     1
102
RTVSPost2010Prop40
 90
        0
102
RTVSPost2010PropOp40
 70
     1
102
RTVSPost2010Prop41ColorIndex
 90
       18
102
RTVSPost2010Prop41ColorRGB
 90
        0
102
RTVSPost2010PropOp41
 70
     1
102
RTVSPost2010Prop42
 90
       50
102
RTVSPost2010PropOp42
 70
     1
102
RTVSPost2010Prop43
 90
        3
102
RTVSPost2010PropOp43
 70
     1
102
RTVSPost2010Prop44ColorIndex
 90
        5
102
RTVSPost2010Prop44ColorRGB
 90
      255
102
RTVSPost2010PropOp44
 70
     1
102
RTVSPost2010Prop45
280
     0
102
RTVSPost2010PropOp45
 70
     1
102
RTVSPost2010Prop46
 90
       50
102
RTVSPost2010PropOp46
 70
     1
102
RTVSPost2010Prop47
 90
       50
102
RTVSPost2010PropOp47
 70
     1
102
RTVSPost2010Prop48
 90
       50
102
RTVSPost2010PropOp48
 70
     1
102
RTVSPost2010Prop49
280
     0
102
RTVSPost2010PropOp49
 70
     1
102
RTVSPost2010Prop50
 90
       50
102
RTVSPost2010PropOp50
 70
     1
102
RTVSPost2010Prop51ColorIndex
 90
      256
102
RTVSPost2010Prop51ColorRGB
 90
-16777216
102
RTVSPost2010PropOp51
 70
     0
102
RTVSPost2010Prop52
140
1.0
102
RTVSPost2010PropOp52
 70
     0
102
RTVSPost2010Prop53
 90
        2
102
RTVSPost2010PropOp53
 70
     1
102
RTVSPost2010Prop54
  1
strokes_ogs.tif
102
RTVSPost2010PropOp54
 70
     1
102
RTVSPost2010Prop55
280
     0
102
RTVSPost2010PropOp55
 70
     1
102
RTVSPost2010Prop56
140
1.0
102
RTVSPost2010PropOp56
 70
     1
102
RTVSPost2010Prop57
140
1.0
102
RTVSPost2010PropOp57
 70
     1
  0
XRECORD
  5
3A3
102
{ACAD_REACTORS
330
3A2
102
}
330
3A2
100
AcDbXrecord
280
     1
102
RTVSPropertyOp0
 70
     1
102
RTVSPropertyOp1
 70
     1
102
RTVSPropertyOp2
 70
     1
102
RTVSPropertyOp3
 70
     1
102
RTVSPropertyOp4
 70
     1
102
RTVSPropertyOp5
 70
     1
102
RTVSPropertyOp6
 70
     1
102
RTVSPropertyOp7
 70
     1
102
RTVSPropertyOp8
 70
     1
102
RTVSPropertyOp9
 70
     1
102
RTVSPropertyOp10
 70
     1
102
RTVSPropertyOp11
 70
     1
102
RTVSPropertyOp12
 70
     1
102
RTVSPropertyOp13
 70
     1
102
RTVSPropertyOp14
 70
     1
102
RTVSPropertyOp15
 70
     1
102
RTVSPropertyOp16
 70
     1
102
RTVSPropertyOp17
 70
     1
102
RTVSPropertyOp18
 70
     1
102
RTVSPropertyOp19
 70
     1
102
RTVSPropertyOp20
 70
     1
102
RTVSPropertyOp21
 70
     1
102
RTVSPropertyOp22
 70
     1
102
RTVSPropertyOp23
 70
     1
102
RTVSPropertyOp24
 70
     1
102
RTVSPropertyOp25
 70
     1
102
RTVSPropertyOp26
 70
     1
102
RTVSPropertyOp27
 70
     1
102
RTVSPropertyOp28
 70
     1
102
RTVSPropertyOp29
 70
     1
102
RTVSPropertyOp30
 70
     1
102
RTVSPropertyOp31
 70
     1
102
RTVSPropertyOp32
 70
     1
102
RTVSPropertyOp33
 70
     1
102
RTVSPropertyOp34
 70
     1
102
RTVSPropertyOp35
 70
     1
102
RTVSPropertyOp36
 70
     1
102
RTVSPropertyOp37
 70
     1
102
RTVSPropertyOp38
 70
     1
102
RTVSPropertyOp39
 70
     1
102
RTVSPropertyOp40
 70
     1
102
RTVSPropertyOp41
 70
     1
102
RTVSPropertyOp42
 70
     1
102
RTVSPropertyOp43
 70
     1
102
RTVSPropertyOp44
 70
     1
102
RTVSPropertyOp45
 70
     1
102
RTVSPropertyOp46
 70
     1
102
RTVSPropertyOp47
 70
     1
102
RTVSPropertyOp48
 70
     1
102
RTVSPropertyOp49
 70
     1
102
RTVSPropertyOp50
 70
     1
102
RTVSPropertyOp51
 70
     0
102
RTVSPropertyOp52
 70
     0
102
RTVSPropertyOp53
 70
     1
102
RTVSPropertyOp54
 70
     1
102
RTVSPropertyOp55
 70
     1
102
RTVSPropertyOp56
 70
     1
102
RTVSPropertyOp57
 70
     1
102
RTVSPost2010Prop28
280
     0
102
RTVSPost2010PropOp28
 70
     1
102
RTVSPost2010Prop29
280
     1
102
RTVSPost2010PropOp29
 70
     1
102
RTVSPost2010Prop30
280
     1
102
RTVSPost2010PropOp30
 70
     1
102
RTVSPost2010Prop31
280
     0
102
RTVSPost2010PropOp31
 70
     1
102
RTVSPost2010Prop32
280
     0
102
RTVSPost2010PropOp32
 70
     1
102
RTVSPost2010Prop33
280
     0
102
RTVSPost2010PropOp33
 70
     1
102
RTVSPost2010Prop34
280
     0
102
RTVSPost2010PropOp34
 70
     1
102
RTVSPost2010Prop35
280
     0
102
RTVSPost2010PropOp35
 70
     1
102
RTVSPost2010Prop36
280
     0
102
RTVSPost2010PropOp36
 70
     1
102
RTVSPost2010Prop37
 90
       50
102
RTVSPost2010PropOp37
 70
     1
102
RTVSPost2010Prop38
140
0.0
102
RTVSPost2010PropOp38
 70
     1
102
RTVSPost2010Prop39
140
1.0
102
RTVSPost2010PropOp39
 70
     1
102
RTVSPost2010Prop40
 90
        0
102
RTVSPost2010PropOp40
 70
     1
102
RTVSPost2010Prop41ColorIndex
 90
       18
102
RTVSPost2010Prop41ColorRGB
 90
        0
102
RTVSPost2010PropOp41
 70
     1
102
RTVSPost2010Prop42
 90
       50
102
RTVSPost2010PropOp42
 70
     1
102
RTVSPost2010Prop43
 90
        3
102
RTVSPost2010PropOp43
 70
     1
102
RTVSPost2010Prop44ColorIndex
 90
        5
102
RTVSPost2010Prop44ColorRGB
 90
      255
102
RTVSPost2010PropOp44
 70
     1
102
RTVSPost2010Prop45
280
     0
102
RTVSPost2010PropOp45
 70
     1
102
RTVSPost2010Prop46
 90
       50
102
RTVSPost2010PropOp46
 70
     1
102
RTVSPost2010Prop47
 90
       50
102
RTVSPost2010PropOp47
 70
     1
102
RTVSPost2010Prop48
 90
       50
102
RTVSPost2010PropOp48
 70
     1
102
RTVSPost2010Prop49
280
     0
102
RTVSPost2010PropOp49
 70
     1
102
RTVSPost2010Prop50
 90
       50
102
RTVSPost2010PropOp50
 70
     1
102
RTVSPost2010Prop51ColorIndex
 90
      256
102
RTVSPost2010Prop51ColorRGB
 90
-16777216
102
RTVSPost2010PropOp51
 70
     0
102
RTVSPost2010Prop52
140
1.0
102
RTVSPost2010PropOp52
 70
     0
102
RTVSPost2010Prop53
 90
        2
102
RTVSPost2010PropOp53
 70
     1
102
RTVSPost2010Prop54
  1
strokes_ogs.tif
102
RTVSPost2010PropOp54
 70
     1
102
RTVSPost2010Prop55
280
     0
102
RTVSPost2010PropOp55
 70
     1
102
RTVSPost2010Prop56
140
1.0
102
RTVSPost2010PropOp56
 70
     1
102
RTVSPost2010Prop57
140
1.0
102
RTVSPost2010PropOp57
 70
     1
  0
XRECORD
  5
3AB
102
{ACAD_REACTORS
330
3AA
102
}
330
3AA
100
AcDbXrecord
280
     1
102
RTVSPropertyOp0
 70
     1
102
RTVSPropertyOp1
 70
     1
102
RTVSPropertyOp2
 70
     1
102
RTVSPropertyOp3
 70
     1
102
RTVSPropertyOp4
 70
     1
102
RTVSPropertyOp5
 70
     1
102
RTVSPropertyOp6
 70
     1
102
RTVSPropertyOp7
 70
     1
102
RTVSPropertyOp8
 70
     1
102
RTVSPropertyOp9
 70
     1
102
RTVSPropertyOp10
 70
     1
102
RTVSPropertyOp11
 70
     1
102
RTVSPropertyOp12
 70
     1
102
RTVSPropertyOp13
 70
     1
102
RTVSPropertyOp14
 70
     1
102
RTVSPropertyOp15
 70
     1
102
RTVSPropertyOp16
 70
     1
102
RTVSPropertyOp17
 70
     1
102
RTVSPropertyOp18
 70
     1
102
RTVSPropertyOp19
 70
     1
102
RTVSPropertyOp20
 70
     1
102
RTVSPropertyOp21
 70
     1
102
RTVSPropertyOp22
 70
     1
102
RTVSPropertyOp23
 70
     1
102
RTVSPropertyOp24
 70
     1
102
RTVSPropertyOp25
 70
     1
102
RTVSPropertyOp26
 70
     1
102
RTVSPropertyOp27
 70
     1
102
RTVSPropertyOp28
 70
     1
102
RTVSPropertyOp29
 70
     1
102
RTVSPropertyOp30
 70
     1
102
RTVSPropertyOp31
 70
     1
102
RTVSPropertyOp32
 70
     1
102
RTVSPropertyOp33
 70
     1
102
RTVSPropertyOp34
 70
     1
102
RTVSPropertyOp35
 70
     1
102
RTVSPropertyOp36
 70
     1
102
RTVSPropertyOp37
 70
     1
102
RTVSPropertyOp38
 70
     1
102
RTVSPropertyOp39
 70
     1
102
RTVSPropertyOp40
 70
     1
102
RTVSPropertyOp41
 70
     1
102
RTVSPropertyOp42
 70
     1
102
RTVSPropertyOp43
 70
     1
102
RTVSPropertyOp44
 70
     1
102
RTVSPropertyOp45
 70
     1
102
RTVSPropertyOp46
 70
     1
102
RTVSPropertyOp47
 70
     1
102
RTVSPropertyOp48
 70
     1
102
RTVSPropertyOp49
 70
     1
102
RTVSPropertyOp50
 70
     1
102
RTVSPropertyOp51
 70
     0
102
RTVSPropertyOp52
 70
     0
102
RTVSPropertyOp53
 70
     1
102
RTVSPropertyOp54
 70
     1
102
RTVSPropertyOp55
 70
     1
102
RTVSPropertyOp56
 70
     1
102
RTVSPropertyOp57
 70
     1
102
RTVSPost2010Prop28
280
     0
102
RTVSPost2010PropOp28
 70
     1
102
RTVSPost2010Prop29
280
     1
102
RTVSPost2010PropOp29
 70
     1
102
RTVSPost2010Prop30
280
     1
102
RTVSPost2010PropOp30
 70
     1
102
RTVSPost2010Prop31
280
     0
102
RTVSPost2010PropOp31
 70
     1
102
RTVSPost2010Prop32
280
     0
102
RTVSPost2010PropOp32
 70
     1
102
RTVSPost2010Prop33
280
     0
102
RTVSPost2010PropOp33
 70
     1
102
RTVSPost2010Prop34
280
     0
102
RTVSPost2010PropOp34
 70
     1
102
RTVSPost2010Prop35
280
     0
102
RTVSPost2010PropOp35
 70
     1
102
RTVSPost2010Prop36
280
     0
102
RTVSPost2010PropOp36
 70
     1
102
RTVSPost2010Prop37
 90
       50
102
RTVSPost2010PropOp37
 70
     1
102
RTVSPost2010Prop38
140
0.0
102
RTVSPost2010PropOp38
 70
     1
102
RTVSPost2010Prop39
140
1.0
102
RTVSPost2010PropOp39
 70
     1
102
RTVSPost2010Prop40
 90
        0
102
RTVSPost2010PropOp40
 70
     1
102
RTVSPost2010Prop41ColorIndex
 90
       18
102
RTVSPost2010Prop41ColorRGB
 90
        0
102
RTVSPost2010PropOp41
 70
     1
102
RTVSPost2010Prop42
 90
       50
102
RTVSPost2010PropOp42
 70
     1
102
RTVSPost2010Prop43
 90
        3
102
RTVSPost2010PropOp43
 70
     1
102
RTVSPost2010Prop44ColorIndex
 90
        5
102
RTVSPost2010Prop44ColorRGB
 90
      255
102
RTVSPost2010PropOp44
 70
     1
102
RTVSPost2010Prop45
280
     0
102
RTVSPost2010PropOp45
 70
     1
102
RTVSPost2010Prop46
 90
       50
102
RTVSPost2010PropOp46
 70
     1
102
RTVSPost2010Prop47
 90
       50
102
RTVSPost2010PropOp47
 70
     1
102
RTVSPost2010Prop48
 90
       50
102
RTVSPost2010PropOp48
 70
     1
102
RTVSPost2010Prop49
280
     0
102
RTVSPost2010PropOp49
 70
     1
102
RTVSPost2010Prop50
 90
       50
102
RTVSPost2010PropOp50
 70
     1
102
RTVSPost2010Prop51ColorIndex
 90
      256
102
RTVSPost2010Prop51ColorRGB
 90
-16777216
102
RTVSPost2010PropOp51
 70
     0
102
RTVSPost2010Prop52
140
1.0
102
RTVSPost2010PropOp52
 70
     0
102
RTVSPost2010Prop53
 90
        2
102
RTVSPost2010PropOp53
 70
     1
102
RTVSPost2010Prop54
  1
strokes_ogs.tif
102
RTVSPost2010PropOp54
 70
     1
102
RTVSPost2010Prop55
280
     0
102
RTVSPost2010PropOp55
 70
     1
102
RTVSPost2010Prop56
140
1.0
102
RTVSPost2010PropOp56
 70
     1
102
RTVSPost2010Prop57
140
1.0
102
RTVSPost2010PropOp57
 70
     1
  0
XRECORD
  5
3B3
102
{ACAD_REACTORS
330
3B2
102
}
330
3B2
100
AcDbXrecord
280
     1
102
RTVSPropertyOp0
 70
     1
102
RTVSPropertyOp1
 70
     1
102
RTVSPropertyOp2
 70
     1
102
RTVSPropertyOp3
 70
     1
102
RTVSPropertyOp4
 70
     1
102
RTVSPropertyOp5
 70
     1
102
RTVSPropertyOp6
 70
     1
102
RTVSPropertyOp7
 70
     1
102
RTVSPropertyOp8
 70
     1
102
RTVSPropertyOp9
 70
     1
102
RTVSPropertyOp10
 70
     1
102
RTVSPropertyOp11
 70
     1
102
RTVSPropertyOp12
 70
     1
102
RTVSPropertyOp13
 70
     1
102
RTVSPropertyOp14
 70
     1
102
RTVSPropertyOp15
 70
     1
102
RTVSPropertyOp16
 70
     1
102
RTVSPropertyOp17
 70
     1
102
RTVSPropertyOp18
 70
     1
102
RTVSPropertyOp19
 70
     1
102
RTVSPropertyOp20
 70
     1
102
RTVSPropertyOp21
 70
     1
102
RTVSPropertyOp22
 70
     1
102
RTVSPropertyOp23
 70
     1
102
RTVSPropertyOp24
 70
     1
102
RTVSPropertyOp25
 70
     1
102
RTVSPropertyOp26
 70
     1
102
RTVSPropertyOp27
 70
     1
102
RTVSPropertyOp28
 70
     1
102
RTVSPropertyOp29
 70
     1
102
RTVSPropertyOp30
 70
     1
102
RTVSPropertyOp31
 70
     1
102
RTVSPropertyOp32
 70
     1
102
RTVSPropertyOp33
 70
     1
102
RTVSPropertyOp34
 70
     1
102
RTVSPropertyOp35
 70
     1
102
RTVSPropertyOp36
 70
     1
102
RTVSPropertyOp37
 70
     1
102
RTVSPropertyOp38
 70
     1
102
RTVSPropertyOp39
 70
     1
102
RTVSPropertyOp40
 70
     1
102
RTVSPropertyOp41
 70
     1
102
RTVSPropertyOp42
 70
     1
102
RTVSPropertyOp43
 70
     1
102
RTVSPropertyOp44
 70
     1
102
RTVSPropertyOp45
 70
     1
102
RTVSPropertyOp46
 70
     1
102
RTVSPropertyOp47
 70
     1
102
RTVSPropertyOp48
 70
     1
102
RTVSPropertyOp49
 70
     1
102
RTVSPropertyOp50
 70
     1
102
RTVSPropertyOp51
 70
     0
102
RTVSPropertyOp52
 70
     0
102
RTVSPropertyOp53
 70
     1
102
RTVSPropertyOp54
 70
     1
102
RTVSPropertyOp55
 70
     1
102
RTVSPropertyOp56
 70
     1
102
RTVSPropertyOp57
 70
     1
102
RTVSPost2010Prop28
280
     0
102
RTVSPost2010PropOp28
 70
     1
102
RTVSPost2010Prop29
280
     1
102
RTVSPost2010PropOp29
 70
     1
102
RTVSPost2010Prop30
280
     1
102
RTVSPost2010PropOp30
 70
     1
102
RTVSPost2010Prop31
280
     0
102
RTVSPost2010PropOp31
 70
     1
102
RTVSPost2010Prop32
280
     0
102
RTVSPost2010PropOp32
 70
     1
102
RTVSPost2010Prop33
280
     0
102
RTVSPost2010PropOp33
 70
     1
102
RTVSPost2010Prop34
280
     0
102
RTVSPost2010PropOp34
 70
     1
102
RTVSPost2010Prop35
280
     0
102
RTVSPost2010PropOp35
 70
     1
102
RTVSPost2010Prop36
280
     0
102
RTVSPost2010PropOp36
 70
     1
102
RTVSPost2010Prop37
 90
       50
102
RTVSPost2010PropOp37
 70
     1
102
RTVSPost2010Prop38
140
0.0
102
RTVSPost2010PropOp38
 70
     1
102
RTVSPost2010Prop39
140
1.0
102
RTVSPost2010PropOp39
 70
     1
102
RTVSPost2010Prop40
 90
        0
102
RTVSPost2010PropOp40
 70
     1
102
RTVSPost2010Prop41ColorIndex
 90
       18
102
RTVSPost2010Prop41ColorRGB
 90
        0
102
RTVSPost2010PropOp41
 70
     1
102
RTVSPost2010Prop42
 90
       50
102
RTVSPost2010PropOp42
 70
     1
102
RTVSPost2010Prop43
 90
        3
102
RTVSPost2010PropOp43
 70
     1
102
RTVSPost2010Prop44ColorIndex
 90
        5
102
RTVSPost2010Prop44ColorRGB
 90
      255
102
RTVSPost2010PropOp44
 70
     1
102
RTVSPost2010Prop45
280
     0
102
RTVSPost2010PropOp45
 70
     1
102
RTVSPost2010Prop46
 90
       50
102
RTVSPost2010PropOp46
 70
     1
102
RTVSPost2010Prop47
 90
       50
102
RTVSPost2010PropOp47
 70
     1
102
RTVSPost2010Prop48
 90
       50
102
RTVSPost2010PropOp48
 70
     1
102
RTVSPost2010Prop49
280
     0
102
RTVSPost2010PropOp49
 70
     1
102
RTVSPost2010Prop50
 90
       50
102
RTVSPost2010PropOp50
 70
     1
102
RTVSPost2010Prop51ColorIndex
 90
      256
102
RTVSPost2010Prop51ColorRGB
 90
-16777216
102
RTVSPost2010PropOp51
 70
     0
102
RTVSPost2010Prop52
140
1.0
102
RTVSPost2010PropOp52
 70
     0
102
RTVSPost2010Prop53
 90
        2
102
RTVSPost2010PropOp53
 70
     1
102
RTVSPost2010Prop54
  1
strokes_ogs.tif
102
RTVSPost2010PropOp54
 70
     1
102
RTVSPost2010Prop55
280
     0
102
RTVSPost2010PropOp55
 70
     1
102
RTVSPost2010Prop56
140
1.0
102
RTVSPost2010PropOp56
 70
     1
102
RTVSPost2010Prop57
140
1.0
102
RTVSPost2010PropOp57
 70
     1
  0
XRECORD
  5
3A7
102
{ACAD_REACTORS
330
3A6
102
}
330
3A6
100
AcDbXrecord
280
     1
102
RTVSPropertyOp0
 70
     1
102
RTVSPropertyOp1
 70
     1
102
RTVSPropertyOp2
 70
     1
102
RTVSPropertyOp3
 70
     1
102
RTVSPropertyOp4
 70
     1
102
RTVSPropertyOp5
 70
     1
102
RTVSPropertyOp6
 70
     1
102
RTVSPropertyOp7
 70
     1
102
RTVSPropertyOp8
 70
     1
102
RTVSPropertyOp9
 70
     1
102
RTVSPropertyOp10
 70
     1
102
RTVSPropertyOp11
 70
     1
102
RTVSPropertyOp12
 70
     1
102
RTVSPropertyOp13
 70
     1
102
RTVSPropertyOp14
 70
     1
102
RTVSPropertyOp15
 70
     1
102
RTVSPropertyOp16
 70
     1
102
RTVSPropertyOp17
 70
     1
102
RTVSPropertyOp18
 70
     1
102
RTVSPropertyOp19
 70
     1
102
RTVSPropertyOp20
 70
     1
102
RTVSPropertyOp21
 70
     1
102
RTVSPropertyOp22
 70
     1
102
RTVSPropertyOp23
 70
     1
102
RTVSPropertyOp24
 70
     1
102
RTVSPropertyOp25
 70
     1
102
RTVSPropertyOp26
 70
     1
102
RTVSPropertyOp27
 70
     1
102
RTVSPropertyOp28
 70
     1
102
RTVSPropertyOp29
 70
     1
102
RTVSPropertyOp30
 70
     1
102
RTVSPropertyOp31
 70
     1
102
RTVSPropertyOp32
 70
     1
102
RTVSPropertyOp33
 70
     1
102
RTVSPropertyOp34
 70
     1
102
RTVSPropertyOp35
 70
     1
102
RTVSPropertyOp36
 70
     1
102
RTVSPropertyOp37
 70
     1
102
RTVSPropertyOp38
 70
     1
102
RTVSPropertyOp39
 70
     1
102
RTVSPropertyOp40
 70
     1
102
RTVSPropertyOp41
 70
     1
102
RTVSPropertyOp42
 70
     1
102
RTVSPropertyOp43
 70
     1
102
RTVSPropertyOp44
 70
     1
102
RTVSPropertyOp45
 70
     1
102
RTVSPropertyOp46
 70
     1
102
RTVSPropertyOp47
 70
     1
102
RTVSPropertyOp48
 70
     1
102
RTVSPropertyOp49
 70
     1
102
RTVSPropertyOp50
 70
     1
102
RTVSPropertyOp51
 70
     0
102
RTVSPropertyOp52
 70
     0
102
RTVSPropertyOp53
 70
     1
102
RTVSPropertyOp54
 70
     1
102
RTVSPropertyOp55
 70
     1
102
RTVSPropertyOp56
 70
     1
102
RTVSPropertyOp57
 70
     1
102
RTVSPost2010Prop28
280
     0
102
RTVSPost2010PropOp28
 70
     1
102
RTVSPost2010Prop29
280
     1
102
RTVSPost2010PropOp29
 70
     1
102
RTVSPost2010Prop30
280
     1
102
RTVSPost2010PropOp30
 70
     1
102
RTVSPost2010Prop31
280
     0
102
RTVSPost2010PropOp31
 70
     1
102
RTVSPost2010Prop32
280
     0
102
RTVSPost2010PropOp32
 70
     1
102
RTVSPost2010Prop33
280
     0
102
RTVSPost2010PropOp33
 70
     1
102
RTVSPost2010Prop34
280
     0
102
RTVSPost2010PropOp34
 70
     1
102
RTVSPost2010Prop35
280
     0
102
RTVSPost2010PropOp35
 70
     1
102
RTVSPost2010Prop36
280
     0
102
RTVSPost2010PropOp36
 70
     1
102
RTVSPost2010Prop37
 90
       50
102
RTVSPost2010PropOp37
 70
     1
102
RTVSPost2010Prop38
140
0.0
102
RTVSPost2010PropOp38
 70
     1
102
RTVSPost2010Prop39
140
1.0
102
RTVSPost2010PropOp39
 70
     1
102
RTVSPost2010Prop40
 90
        0
102
RTVSPost2010PropOp40
 70
     1
102
RTVSPost2010Prop41ColorIndex
 90
       18
102
RTVSPost2010Prop41ColorRGB
 90
        0
102
RTVSPost2010PropOp41
 70
     1
102
RTVSPost2010Prop42
 90
       50
102
RTVSPost2010PropOp42
 70
     1
102
RTVSPost2010Prop43
 90
        3
102
RTVSPost2010PropOp43
 70
     1
102
RTVSPost2010Prop44ColorIndex
 90
        5
102
RTVSPost2010Prop44ColorRGB
 90
      255
102
RTVSPost2010PropOp44
 70
     1
102
RTVSPost2010Prop45
280
     0
102
RTVSPost2010PropOp45
 70
     1
102
RTVSPost2010Prop46
 90
       50
102
RTVSPost2010PropOp46
 70
     1
102
RTVSPost2010Prop47
 90
       50
102
RTVSPost2010PropOp47
 70
     1
102
RTVSPost2010Prop48
 90
       50
102
RTVSPost2010PropOp48
 70
     1
102
RTVSPost2010Prop49
280
     0
102
RTVSPost2010PropOp49
 70
     1
102
RTVSPost2010Prop50
 90
       50
102
RTVSPost2010PropOp50
 70
     1
102
RTVSPost2010Prop51ColorIndex
 90
      256
102
RTVSPost2010Prop51ColorRGB
 90
-16777216
102
RTVSPost2010PropOp51
 70
     0
102
RTVSPost2010Prop52
140
1.0
102
RTVSPost2010PropOp52
 70
     0
102
RTVSPost2010Prop53
 90
        2
102
RTVSPost2010PropOp53
 70
     1
102
RTVSPost2010Prop54
  1
strokes_ogs.tif
102
RTVSPost2010PropOp54
 70
     1
102
RTVSPost2010Prop55
280
     0
102
RTVSPost2010PropOp55
 70
     1
102
RTVSPost2010Prop56
140
1.0
102
RTVSPost2010PropOp56
 70
     1
102
RTVSPost2010Prop57
140
1.0
102
RTVSPost2010PropOp57
 70
     1
  0
XRECORD
  5
3A9
102
{ACAD_REACTORS
330
3A8
102
}
330
3A8
100
AcDbXrecord
280
     1
102
RTVSPropertyOp0
 70
     1
102
RTVSPropertyOp1
 70
     1
102
RTVSPropertyOp2
 70
     1
102
RTVSPropertyOp3
 70
     1
102
RTVSPropertyOp4
 70
     1
102
RTVSPropertyOp5
 70
     1
102
RTVSPropertyOp6
 70
     1
102
RTVSPropertyOp7
 70
     1
102
RTVSPropertyOp8
 70
     1
102
RTVSPropertyOp9
 70
     1
102
RTVSPropertyOp10
 70
     1
102
RTVSPropertyOp11
 70
     1
102
RTVSPropertyOp12
 70
     1
102
RTVSPropertyOp13
 70
     1
102
RTVSPropertyOp14
 70
     1
102
RTVSPropertyOp15
 70
     1
102
RTVSPropertyOp16
 70
     1
102
RTVSPropertyOp17
 70
     1
102
RTVSPropertyOp18
 70
     1
102
RTVSPropertyOp19
 70
     1
102
RTVSPropertyOp20
 70
     1
102
RTVSPropertyOp21
 70
     1
102
RTVSPropertyOp22
 70
     1
102
RTVSPropertyOp23
 70
     1
102
RTVSPropertyOp24
 70
     1
102
RTVSPropertyOp25
 70
     1
102
RTVSPropertyOp26
 70
     1
102
RTVSPropertyOp27
 70
     1
102
RTVSPropertyOp28
 70
     1
102
RTVSPropertyOp29
 70
     1
102
RTVSPropertyOp30
 70
     1
102
RTVSPropertyOp31
 70
     1
102
RTVSPropertyOp32
 70
     1
102
RTVSPropertyOp33
 70
     1
102
RTVSPropertyOp34
 70
     1
102
RTVSPropertyOp35
 70
     1
102
RTVSPropertyOp36
 70
     1
102
RTVSPropertyOp37
 70
     1
102
RTVSPropertyOp38
 70
     1
102
RTVSPropertyOp39
 70
     1
102
RTVSPropertyOp40
 70
     1
102
RTVSPropertyOp41
 70
     1
102
RTVSPropertyOp42
 70
     1
102
RTVSPropertyOp43
 70
     1
102
RTVSPropertyOp44
 70
     1
102
RTVSPropertyOp45
 70
     1
102
RTVSPropertyOp46
 70
     1
102
RTVSPropertyOp47
 70
     1
102
RTVSPropertyOp48
 70
     1
102
RTVSPropertyOp49
 70
     1
102
RTVSPropertyOp50
 70
     1
102
RTVSPropertyOp51
 70
     0
102
RTVSPropertyOp52
 70
     0
102
RTVSPropertyOp53
 70
     1
102
RTVSPropertyOp54
 70
     1
102
RTVSPropertyOp55
 70
     1
102
RTVSPropertyOp56
 70
     1
102
RTVSPropertyOp57
 70
     1
102
RTVSPost2010Prop28
280
     0
102
RTVSPost2010PropOp28
 70
     1
102
RTVSPost2010Prop29
280
     1
102
RTVSPost2010PropOp29
 70
     1
102
RTVSPost2010Prop30
280
     1
102
RTVSPost2010PropOp30
 70
     1
102
RTVSPost2010Prop31
280
     0
102
RTVSPost2010PropOp31
 70
     1
102
RTVSPost2010Prop32
280
     0
102
RTVSPost2010PropOp32
 70
     1
102
RTVSPost2010Prop33
280
     0
102
RTVSPost2010PropOp33
 70
     1
102
RTVSPost2010Prop34
280
     0
102
RTVSPost2010PropOp34
 70
     1
102
RTVSPost2010Prop35
280
     0
102
RTVSPost2010PropOp35
 70
     1
102
RTVSPost2010Prop36
280
     0
102
RTVSPost2010PropOp36
 70
     1
102
RTVSPost2010Prop37
 90
       50
102
RTVSPost2010PropOp37
 70
     1
102
RTVSPost2010Prop38
140
0.0
102
RTVSPost2010PropOp38
 70
     1
102
RTVSPost2010Prop39
140
1.0
102
RTVSPost2010PropOp39
 70
     1
102
RTVSPost2010Prop40
 90
        0
102
RTVSPost2010PropOp40
 70
     1
102
RTVSPost2010Prop41ColorIndex
 90
       18
102
RTVSPost2010Prop41ColorRGB
 90
        0
102
RTVSPost2010PropOp41
 70
     1
102
RTVSPost2010Prop42
 90
       50
102
RTVSPost2010PropOp42
 70
     1
102
RTVSPost2010Prop43
 90
        3
102
RTVSPost2010PropOp43
 70
     1
102
RTVSPost2010Prop44ColorIndex
 90
        5
102
RTVSPost2010Prop44ColorRGB
 90
      255
102
RTVSPost2010PropOp44
 70
     1
102
RTVSPost2010Prop45
280
     0
102
RTVSPost2010PropOp45
 70
     1
102
RTVSPost2010Prop46
 90
       50
102
RTVSPost2010PropOp46
 70
     1
102
RTVSPost2010Prop47
 90
       50
102
RTVSPost2010PropOp47
 70
     1
102
RTVSPost2010Prop48
 90
       50
102
RTVSPost2010PropOp48
 70
     1
102
RTVSPost2010Prop49
280
     0
102
RTVSPost2010PropOp49
 70
     1
102
RTVSPost2010Prop50
 90
       50
102
RTVSPost2010PropOp50
 70
     1
102
RTVSPost2010Prop51ColorIndex
 90
      256
102
RTVSPost2010Prop51ColorRGB
 90
-16777216
102
RTVSPost2010PropOp51
 70
     0
102
RTVSPost2010Prop52
140
1.0
102
RTVSPost2010PropOp52
 70
     0
102
RTVSPost2010Prop53
 90
        2
102
RTVSPost2010PropOp53
 70
     1
102
RTVSPost2010Prop54
  1
strokes_ogs.tif
102
RTVSPost2010PropOp54
 70
     1
102
RTVSPost2010Prop55
280
     0
102
RTVSPost2010PropOp55
 70
     1
102
RTVSPost2010Prop56
140
1.0
102
RTVSPost2010PropOp56
 70
     1
102
RTVSPost2010Prop57
140
1.0
102
RTVSPost2010PropOp57
 70
     1
  0
XRECORD
  5
3B9
102
{ACAD_REACTORS
330
3B8
102
}
330
3B8
100
AcDbXrecord
280
     1
102
RTVSPropertyOp0
 70
     0
102
RTVSPropertyOp1
 70
     0
102
RTVSPropertyOp2
 70
     0
102
RTVSPropertyOp3
 70
     0
102
RTVSPropertyOp4
 70
     0
102
RTVSPropertyOp5
 70
     0
102
RTVSPropertyOp6
 70
     0
102
RTVSPropertyOp7
 70
     0
102
RTVSPropertyOp8
 70
     0
102
RTVSPropertyOp9
 70
     0
102
RTVSPropertyOp10
 70
     0
102
RTVSPropertyOp11
 70
     0
102
RTVSPropertyOp12
 70
     0
102
RTVSPropertyOp13
 70
     0
102
RTVSPropertyOp14
 70
     2
102
RTVSPropertyOp15
 70
     0
102
RTVSPropertyOp16
 70
     0
102
RTVSPropertyOp17
 70
     0
102
RTVSPropertyOp18
 70
     0
102
RTVSPropertyOp19
 70
     0
102
RTVSPropertyOp20
 70
     0
102
RTVSPropertyOp21
 70
     0
102
RTVSPropertyOp22
 70
     0
102
RTVSPropertyOp23
 70
     0
102
RTVSPropertyOp24
 70
     0
102
RTVSPropertyOp25
 70
     0
102
RTVSPropertyOp26
 70
     0
102
RTVSPropertyOp27
 70
     0
102
RTVSPropertyOp28
 70
     0
102
RTVSPropertyOp29
 70
     0
102
RTVSPropertyOp30
 70
     0
102
RTVSPropertyOp31
 70
     0
102
RTVSPropertyOp32
 70
     0
102
RTVSPropertyOp33
 70
     0
102
RTVSPropertyOp34
 70
     0
102
RTVSPropertyOp35
 70
     0
102
RTVSPropertyOp36
 70
     0
102
RTVSPropertyOp37
 70
     0
102
RTVSPropertyOp38
 70
     0
102
RTVSPropertyOp39
 70
     0
102
RTVSPropertyOp40
 70
     0
102
RTVSPropertyOp41
 70
     0
102
RTVSPropertyOp42
 70
     0
102
RTVSPropertyOp43
 70
     0
102
RTVSPropertyOp44
 70
     0
102
RTVSPropertyOp45
 70
     0
102
RTVSPropertyOp46
 70
     0
102
RTVSPropertyOp47
 70
     0
102
RTVSPropertyOp48
 70
     0
102
RTVSPropertyOp49
 70
     0
102
RTVSPropertyOp50
 70
     0
102
RTVSPropertyOp51
 70
     0
102
RTVSPropertyOp52
 70
     0
102
RTVSPropertyOp53
 70
     0
102
RTVSPropertyOp54
 70
     0
102
RTVSPropertyOp55
 70
     0
102
RTVSPropertyOp56
 70
     0
102
RTVSPropertyOp57
 70
     0
102
RTVSPost2010Prop28
280
     0
102
RTVSPost2010PropOp28
 70
     0
102
RTVSPost2010Prop29
280
     1
102
RTVSPost2010PropOp29
 70
     0
102
RTVSPost2010Prop30
280
     1
102
RTVSPost2010PropOp30
 70
     0
102
RTVSPost2010Prop31
280
     0
102
RTVSPost2010PropOp31
 70
     0
102
RTVSPost2010Prop32
280
     0
102
RTVSPost2010PropOp32
 70
     0
102
RTVSPost2010Prop33
280
     0
102
RTVSPost2010PropOp33
 70
     0
102
RTVSPost2010Prop34
280
     0
102
RTVSPost2010PropOp34
 70
     0
102
RTVSPost2010Prop35
280
     0
102
RTVSPost2010PropOp35
 70
     0
102
RTVSPost2010Prop36
280
     0
102
RTVSPost2010PropOp36
 70
     0
102
RTVSPost2010Prop37
 90
       50
102
RTVSPost2010PropOp37
 70
     0
102
RTVSPost2010Prop38
140
0.0
102
RTVSPost2010PropOp38
 70
     0
102
RTVSPost2010Prop39
140
1.0
102
RTVSPost2010PropOp39
 70
     0
102
RTVSPost2010Prop40
 90
        0
102
RTVSPost2010PropOp40
 70
     0
102
RTVSPost2010Prop41ColorIndex
 90
       18
102
RTVSPost2010Prop41ColorRGB
 90
        0
102
RTVSPost2010PropOp41
 70
     0
102
RTVSPost2010Prop42
 90
       50
102
RTVSPost2010PropOp42
 70
     0
102
RTVSPost2010Prop43
 90
        3
102
RTVSPost2010PropOp43
 70
     0
102
RTVSPost2010Prop44ColorIndex
 90
        5
102
RTVSPost2010Prop44ColorRGB
 90
      255
102
RTVSPost2010PropOp44
 70
     0
102
RTVSPost2010Prop45
280
     0
102
RTVSPost2010PropOp45
 70
     0
102
RTVSPost2010Prop46
 90
       50
102
RTVSPost2010PropOp46
 70
     0
102
RTVSPost2010Prop47
 90
       50
102
RTVSPost2010PropOp47
 70
     0
102
RTVSPost2010Prop48
 90
       50
102
RTVSPost2010PropOp48
 70
     0
102
RTVSPost2010Prop49
280
     0
102
RTVSPost2010PropOp49
 70
     0
102
RTVSPost2010Prop50
 90
       50
102
RTVSPost2010PropOp50
 70
     0
102
RTVSPost2010Prop51ColorIndex
 90
      256
102
RTVSPost2010Prop51ColorRGB
 90
-16777216
102
RTVSPost2010PropOp51
 70
     0
102
RTVSPost2010Prop52
140
1.0
102
RTVSPost2010PropOp52
 70
     0
102
RTVSPost2010Prop53
 90
        2
102
RTVSPost2010PropOp53
 70
     0
102
RTVSPost2010Prop54
  1
strokes_ogs.tif
102
RTVSPost2010PropOp54
 70
     0
102
RTVSPost2010Prop55
280
     0
102
RTVSPost2010PropOp55
 70
     0
102
RTVSPost2010Prop56
140
1.0
102
RTVSPost2010PropOp56
 70
     0
102
RTVSPost2010Prop57
140
1.0
102
RTVSPost2010PropOp57
 70
     0
  0
XRECORD
  5
3B1
102
{ACAD_REACTORS
330
3B0
102
}
330
3B0
100
AcDbXrecord
280
     1
102
RTVSPropertyOp0
 70
     1
102
RTVSPropertyOp1
 70
     1
102
RTVSPropertyOp2
 70
     1
102
RTVSPropertyOp3
 70
     1
102
RTVSPropertyOp4
 70
     1
102
RTVSPropertyOp5
 70
     1
102
RTVSPropertyOp6
 70
     1
102
RTVSPropertyOp7
 70
     1
102
RTVSPropertyOp8
 70
     1
102
RTVSPropertyOp9
 70
     1
102
RTVSPropertyOp10
 70
     1
102
RTVSPropertyOp11
 70
     1
102
RTVSPropertyOp12
 70
     1
102
RTVSPropertyOp13
 70
     1
102
RTVSPropertyOp14
 70
     1
102
RTVSPropertyOp15
 70
     1
102
RTVSPropertyOp16
 70
     1
102
RTVSPropertyOp17
 70
     1
102
RTVSPropertyOp18
 70
     1
102
RTVSPropertyOp19
 70
     1
102
RTVSPropertyOp20
 70
     1
102
RTVSPropertyOp21
 70
     1
102
RTVSPropertyOp22
 70
     1
102
RTVSPropertyOp23
 70
     1
102
RTVSPropertyOp24
 70
     1
102
RTVSPropertyOp25
 70
     1
102
RTVSPropertyOp26
 70
     1
102
RTVSPropertyOp27
 70
     1
102
RTVSPropertyOp28
 70
     1
102
RTVSPropertyOp29
 70
     1
102
RTVSPropertyOp30
 70
     1
102
RTVSPropertyOp31
 70
     1
102
RTVSPropertyOp32
 70
     1
102
RTVSPropertyOp33
 70
     1
102
RTVSPropertyOp34
 70
     1
102
RTVSPropertyOp35
 70
     1
102
RTVSPropertyOp36
 70
     1
102
RTVSPropertyOp37
 70
     1
102
RTVSPropertyOp38
 70
     1
102
RTVSPropertyOp39
 70
     1
102
RTVSPropertyOp40
 70
     1
102
RTVSPropertyOp41
 70
     1
102
RTVSPropertyOp42
 70
     1
102
RTVSPropertyOp43
 70
     1
102
RTVSPropertyOp44
 70
     1
102
RTVSPropertyOp45
 70
     1
102
RTVSPropertyOp46
 70
     1
102
RTVSPropertyOp47
 70
     1
102
RTVSPropertyOp48
 70
     1
102
RTVSPropertyOp49
 70
     1
102
RTVSPropertyOp50
 70
     1
102
RTVSPropertyOp51
 70
     0
102
RTVSPropertyOp52
 70
     0
102
RTVSPropertyOp53
 70
     1
102
RTVSPropertyOp54
 70
     1
102
RTVSPropertyOp55
 70
     1
102
RTVSPropertyOp56
 70
     1
102
RTVSPropertyOp57
 70
     1
102
RTVSPost2010Prop28
280
     0
102
RTVSPost2010PropOp28
 70
     1
102
RTVSPost2010Prop29
280
     1
102
RTVSPost2010PropOp29
 70
     1
102
RTVSPost2010Prop30
280
     1
102
RTVSPost2010PropOp30
 70
     1
102
RTVSPost2010Prop31
280
     0
102
RTVSPost2010PropOp31
 70
     1
102
RTVSPost2010Prop32
280
     0
102
RTVSPost2010PropOp32
 70
     1
102
RTVSPost2010Prop33
280
     0
102
RTVSPost2010PropOp33
 70
     1
102
RTVSPost2010Prop34
280
     0
102
RTVSPost2010PropOp34
 70
     1
102
RTVSPost2010Prop35
280
     0
102
RTVSPost2010PropOp35
 70
     1
102
RTVSPost2010Prop36
280
     0
102
RTVSPost2010PropOp36
 70
     1
102
RTVSPost2010Prop37
 90
       50
102
RTVSPost2010PropOp37
 70
     1
102
RTVSPost2010Prop38
140
0.0
102
RTVSPost2010PropOp38
 70
     1
102
RTVSPost2010Prop39
140
1.0
102
RTVSPost2010PropOp39
 70
     1
102
RTVSPost2010Prop40
 90
        0
102
RTVSPost2010PropOp40
 70
     1
102
RTVSPost2010Prop41ColorIndex
 90
       18
102
RTVSPost2010Prop41ColorRGB
 90
        0
102
RTVSPost2010PropOp41
 70
     1
102
RTVSPost2010Prop42
 90
       50
102
RTVSPost2010PropOp42
 70
     1
102
RTVSPost2010Prop43
 90
        3
102
RTVSPost2010PropOp43
 70
     1
102
RTVSPost2010Prop44ColorIndex
 90
        5
102
RTVSPost2010Prop44ColorRGB
 90
      255
102
RTVSPost2010PropOp44
 70
     1
102
RTVSPost2010Prop45
280
     0
102
RTVSPost2010PropOp45
 70
     1
102
RTVSPost2010Prop46
 90
       50
102
RTVSPost2010PropOp46
 70
     1
102
RTVSPost2010Prop47
 90
       50
102
RTVSPost2010PropOp47
 70
     1
102
RTVSPost2010Prop48
 90
       50
102
RTVSPost2010PropOp48
 70
     1
102
RTVSPost2010Prop49
280
     0
102
RTVSPost2010PropOp49
 70
     1
102
RTVSPost2010Prop50
 90
       50
102
RTVSPost2010PropOp50
 70
     1
102
RTVSPost2010Prop51ColorIndex
 90
      256
102
RTVSPost2010Prop51ColorRGB
 90
-16777216
102
RTVSPost2010PropOp51
 70
     0
102
RTVSPost2010Prop52
140
1.0
102
RTVSPost2010PropOp52
 70
     0
102
RTVSPost2010Prop53
 90
        2
102
RTVSPost2010PropOp53
 70
     1
102
RTVSPost2010Prop54
  1
strokes_ogs.tif
102
RTVSPost2010PropOp54
 70
     1
102
RTVSPost2010Prop55
280
     0
102
RTVSPost2010PropOp55
 70
     1
102
RTVSPost2010Prop56
140
1.0
102
RTVSPost2010PropOp56
 70
     1
102
RTVSPost2010Prop57
140
1.0
102
RTVSPost2010PropOp57
 70
     1
  0
XRECORD
  5
395
102
{ACAD_REACTORS
330
394
102
}
330
394
100
AcDbXrecord
280
     1
102
RTVSPropertyOp0
 70
     1
102
RTVSPropertyOp1
 70
     1
102
RTVSPropertyOp2
 70
     1
102
RTVSPropertyOp3
 70
     1
102
RTVSPropertyOp4
 70
     1
102
RTVSPropertyOp5
 70
     1
102
RTVSPropertyOp6
 70
     1
102
RTVSPropertyOp7
 70
     1
102
RTVSPropertyOp8
 70
     1
102
RTVSPropertyOp9
 70
     1
102
RTVSPropertyOp10
 70
     1
102
RTVSPropertyOp11
 70
     1
102
RTVSPropertyOp12
 70
     1
102
RTVSPropertyOp13
 70
     1
102
RTVSPropertyOp14
 70
     1
102
RTVSPropertyOp15
 70
     1
102
RTVSPropertyOp16
 70
     1
102
RTVSPropertyOp17
 70
     1
102
RTVSPropertyOp18
 70
     1
102
RTVSPropertyOp19
 70
     1
102
RTVSPropertyOp20
 70
     1
102
RTVSPropertyOp21
 70
     1
102
RTVSPropertyOp22
 70
     1
102
RTVSPropertyOp23
 70
     1
102
RTVSPropertyOp24
 70
     1
102
RTVSPropertyOp25
 70
     1
102
RTVSPropertyOp26
 70
     1
102
RTVSPropertyOp27
 70
     1
102
RTVSPropertyOp28
 70
     1
102
RTVSPropertyOp29
 70
     1
102
RTVSPropertyOp30
 70
     1
102
RTVSPropertyOp31
 70
     1
102
RTVSPropertyOp32
 70
     1
102
RTVSPropertyOp33
 70
     1
102
RTVSPropertyOp34
 70
     1
102
RTVSPropertyOp35
 70
     1
102
RTVSPropertyOp36
 70
     1
102
RTVSPropertyOp37
 70
     1
102
RTVSPropertyOp38
 70
     1
102
RTVSPropertyOp39
 70
     1
102
RTVSPropertyOp40
 70
     1
102
RTVSPropertyOp41
 70
     1
102
RTVSPropertyOp42
 70
     1
102
RTVSPropertyOp43
 70
     1
102
RTVSPropertyOp44
 70
     1
102
RTVSPropertyOp45
 70
     1
102
RTVSPropertyOp46
 70
     1
102
RTVSPropertyOp47
 70
     1
102
RTVSPropertyOp48
 70
     1
102
RTVSPropertyOp49
 70
     1
102
RTVSPropertyOp50
 70
     1
102
RTVSPropertyOp51
 70
     0
102
RTVSPropertyOp52
 70
     0
102
RTVSPropertyOp53
 70
     1
102
RTVSPropertyOp54
 70
     1
102
RTVSPropertyOp55
 70
     1
102
RTVSPropertyOp56
 70
     1
102
RTVSPropertyOp57
 70
     1
102
RTVSPost2010Prop28
280
     0
102
RTVSPost2010PropOp28
 70
     1
102
RTVSPost2010Prop29
280
     1
102
RTVSPost2010PropOp29
 70
     1
102
RTVSPost2010Prop30
280
     1
102
RTVSPost2010PropOp30
 70
     1
102
RTVSPost2010Prop31
280
     0
102
RTVSPost2010PropOp31
 70
     1
102
RTVSPost2010Prop32
280
     0
102
RTVSPost2010PropOp32
 70
     1
102
RTVSPost2010Prop33
280
     0
102
RTVSPost2010PropOp33
 70
     1
102
RTVSPost2010Prop34
280
     0
102
RTVSPost2010PropOp34
 70
     1
102
RTVSPost2010Prop35
280
     0
102
RTVSPost2010PropOp35
 70
     1
102
RTVSPost2010Prop36
280
     0
102
RTVSPost2010PropOp36
 70
     1
102
RTVSPost2010Prop37
 90
       50
102
RTVSPost2010PropOp37
 70
     1
102
RTVSPost2010Prop38
140
0.0
102
RTVSPost2010PropOp38
 70
     1
102
RTVSPost2010Prop39
140
1.0
102
RTVSPost2010PropOp39
 70
     1
102
RTVSPost2010Prop40
 90
        0
102
RTVSPost2010PropOp40
 70
     1
102
RTVSPost2010Prop41ColorIndex
 90
       18
102
RTVSPost2010Prop41ColorRGB
 90
        0
102
RTVSPost2010PropOp41
 70
     1
102
RTVSPost2010Prop42
 90
       50
102
RTVSPost2010PropOp42
 70
     1
102
RTVSPost2010Prop43
 90
        3
102
RTVSPost2010PropOp43
 70
     1
102
RTVSPost2010Prop44ColorIndex
 90
        5
102
RTVSPost2010Prop44ColorRGB
 90
      255
102
RTVSPost2010PropOp44
 70
     1
102
RTVSPost2010Prop45
280
     0
102
RTVSPost2010PropOp45
 70
     1
102
RTVSPost2010Prop46
 90
       50
102
RTVSPost2010PropOp46
 70
     1
102
RTVSPost2010Prop47
 90
       50
102
RTVSPost2010PropOp47
 70
     1
102
RTVSPost2010Prop48
 90
       50
102
RTVSPost2010PropOp48
 70
     1
102
RTVSPost2010Prop49
280
     0
102
RTVSPost2010PropOp49
 70
     1
102
RTVSPost2010Prop50
 90
       50
102
RTVSPost2010PropOp50
 70
     1
102
RTVSPost2010Prop51ColorIndex
 90
      256
102
RTVSPost2010Prop51ColorRGB
 90
-16777216
102
RTVSPost2010PropOp51
 70
     0
102
RTVSPost2010Prop52
140
1.0
102
RTVSPost2010PropOp52
 70
     0
102
RTVSPost2010Prop53
 90
        2
102
RTVSPost2010PropOp53
 70
     1
102
RTVSPost2010Prop54
  1
strokes_ogs.tif
102
RTVSPost2010PropOp54
 70
     1
102
RTVSPost2010Prop55
280
     0
102
RTVSPost2010PropOp55
 70
     1
102
RTVSPost2010Prop56
140
1.0
102
RTVSPost2010PropOp56
 70
     1
102
RTVSPost2010Prop57
140
1.0
102
RTVSPost2010PropOp57
 70
     1
  0
XRECORD
  5
397
102
{ACAD_REACTORS
330
396
102
}
330
396
100
AcDbXrecord
280
     1
102
RTVSPropertyOp0
 70
     1
102
RTVSPropertyOp1
 70
     1
102
RTVSPropertyOp2
 70
     1
102
RTVSPropertyOp3
 70
     1
102
RTVSPropertyOp4
 70
     1
102
RTVSPropertyOp5
 70
     1
102
RTVSPropertyOp6
 70
     1
102
RTVSPropertyOp7
 70
     1
102
RTVSPropertyOp8
 70
     1
102
RTVSPropertyOp9
 70
     1
102
RTVSPropertyOp10
 70
     1
102
RTVSPropertyOp11
 70
     1
102
RTVSPropertyOp12
 70
     1
102
RTVSPropertyOp13
 70
     1
102
RTVSPropertyOp14
 70
     1
102
RTVSPropertyOp15
 70
     1
102
RTVSPropertyOp16
 70
     1
102
RTVSPropertyOp17
 70
     1
102
RTVSPropertyOp18
 70
     1
102
RTVSPropertyOp19
 70
     1
102
RTVSPropertyOp20
 70
     1
102
RTVSPropertyOp21
 70
     1
102
RTVSPropertyOp22
 70
     1
102
RTVSPropertyOp23
 70
     1
102
RTVSPropertyOp24
 70
     1
102
RTVSPropertyOp25
 70
     1
102
RTVSPropertyOp26
 70
     1
102
RTVSPropertyOp27
 70
     1
102
RTVSPropertyOp28
 70
     1
102
RTVSPropertyOp29
 70
     1
102
RTVSPropertyOp30
 70
     1
102
RTVSPropertyOp31
 70
     1
102
RTVSPropertyOp32
 70
     1
102
RTVSPropertyOp33
 70
     1
102
RTVSPropertyOp34
 70
     1
102
RTVSPropertyOp35
 70
     1
102
RTVSPropertyOp36
 70
     1
102
RTVSPropertyOp37
 70
     1
102
RTVSPropertyOp38
 70
     1
102
RTVSPropertyOp39
 70
     1
102
RTVSPropertyOp40
 70
     1
102
RTVSPropertyOp41
 70
     1
102
RTVSPropertyOp42
 70
     1
102
RTVSPropertyOp43
 70
     1
102
RTVSPropertyOp44
 70
     1
102
RTVSPropertyOp45
 70
     1
102
RTVSPropertyOp46
 70
     1
102
RTVSPropertyOp47
 70
     1
102
RTVSPropertyOp48
 70
     1
102
RTVSPropertyOp49
 70
     1
102
RTVSPropertyOp50
 70
     1
102
RTVSPropertyOp51
 70
     0
102
RTVSPropertyOp52
 70
     0
102
RTVSPropertyOp53
 70
     1
102
RTVSPropertyOp54
 70
     1
102
RTVSPropertyOp55
 70
     1
102
RTVSPropertyOp56
 70
     1
102
RTVSPropertyOp57
 70
     1
102
RTVSPost2010Prop28
280
     0
102
RTVSPost2010PropOp28
 70
     1
102
RTVSPost2010Prop29
280
     1
102
RTVSPost2010PropOp29
 70
     1
102
RTVSPost2010Prop30
280
     1
102
RTVSPost2010PropOp30
 70
     1
102
RTVSPost2010Prop31
280
     0
102
RTVSPost2010PropOp31
 70
     1
102
RTVSPost2010Prop32
280
     0
102
RTVSPost2010PropOp32
 70
     1
102
RTVSPost2010Prop33
280
     0
102
RTVSPost2010PropOp33
 70
     1
102
RTVSPost2010Prop34
280
     0
102
RTVSPost2010PropOp34
 70
     1
102
RTVSPost2010Prop35
280
     0
102
RTVSPost2010PropOp35
 70
     1
102
RTVSPost2010Prop36
280
     0
102
RTVSPost2010PropOp36
 70
     1
102
RTVSPost2010Prop37
 90
       50
102
RTVSPost2010PropOp37
 70
     1
102
RTVSPost2010Prop38
140
0.0
102
RTVSPost2010PropOp38
 70
     1
102
RTVSPost2010Prop39
140
1.0
102
RTVSPost2010PropOp39
 70
     1
102
RTVSPost2010Prop40
 90
        0
102
RTVSPost2010PropOp40
 70
     1
102
RTVSPost2010Prop41ColorIndex
 90
       18
102
RTVSPost2010Prop41ColorRGB
 90
        0
102
RTVSPost2010PropOp41
 70
     1
102
RTVSPost2010Prop42
 90
       50
102
RTVSPost2010PropOp42
 70
     1
102
RTVSPost2010Prop43
 90
        3
102
RTVSPost2010PropOp43
 70
     1
102
RTVSPost2010Prop44ColorIndex
 90
        5
102
RTVSPost2010Prop44ColorRGB
 90
      255
102
RTVSPost2010PropOp44
 70
     1
102
RTVSPost2010Prop45
280
     0
102
RTVSPost2010PropOp45
 70
     1
102
RTVSPost2010Prop46
 90
       50
102
RTVSPost2010PropOp46
 70
     1
102
RTVSPost2010Prop47
 90
       50
102
RTVSPost2010PropOp47
 70
     1
102
RTVSPost2010Prop48
 90
       50
102
RTVSPost2010PropOp48
 70
     1
102
RTVSPost2010Prop49
280
     0
102
RTVSPost2010PropOp49
 70
     1
102
RTVSPost2010Prop50
 90
       50
102
RTVSPost2010PropOp50
 70
     1
102
RTVSPost2010Prop51ColorIndex
 90
      256
102
RTVSPost2010Prop51ColorRGB
 90
-16777216
102
RTVSPost2010PropOp51
 70
     0
102
RTVSPost2010Prop52
140
1.0
102
RTVSPost2010PropOp52
 70
     0
102
RTVSPost2010Prop53
 90
        2
102
RTVSPost2010PropOp53
 70
     1
102
RTVSPost2010Prop54
  1
strokes_ogs.tif
102
RTVSPost2010PropOp54
 70
     1
102
RTVSPost2010Prop55
280
     0
102
RTVSPost2010PropOp55
 70
     1
102
RTVSPost2010Prop56
140
1.0
102
RTVSPost2010PropOp56
 70
     1
102
RTVSPost2010Prop57
140
1.0
102
RTVSPost2010PropOp57
 70
     1
  0
XRECORD
  5
399
102
{ACAD_REACTORS
330
398
102
}
330
398
100
AcDbXrecord
280
     1
102
RTVSPropertyOp0
 70
     1
102
RTVSPropertyOp1
 70
     1
102
RTVSPropertyOp2
 70
     1
102
RTVSPropertyOp3
 70
     1
102
RTVSPropertyOp4
 70
     1
102
RTVSPropertyOp5
 70
     1
102
RTVSPropertyOp6
 70
     1
102
RTVSPropertyOp7
 70
     1
102
RTVSPropertyOp8
 70
     1
102
RTVSPropertyOp9
 70
     1
102
RTVSPropertyOp10
 70
     1
102
RTVSPropertyOp11
 70
     1
102
RTVSPropertyOp12
 70
     1
102
RTVSPropertyOp13
 70
     1
102
RTVSPropertyOp14
 70
     1
102
RTVSPropertyOp15
 70
     1
102
RTVSPropertyOp16
 70
     1
102
RTVSPropertyOp17
 70
     1
102
RTVSPropertyOp18
 70
     1
102
RTVSPropertyOp19
 70
     1
102
RTVSPropertyOp20
 70
     1
102
RTVSPropertyOp21
 70
     1
102
RTVSPropertyOp22
 70
     1
102
RTVSPropertyOp23
 70
     1
102
RTVSPropertyOp24
 70
     1
102
RTVSPropertyOp25
 70
     1
102
RTVSPropertyOp26
 70
     1
102
RTVSPropertyOp27
 70
     1
102
RTVSPropertyOp28
 70
     1
102
RTVSPropertyOp29
 70
     1
102
RTVSPropertyOp30
 70
     1
102
RTVSPropertyOp31
 70
     1
102
RTVSPropertyOp32
 70
     1
102
RTVSPropertyOp33
 70
     1
102
RTVSPropertyOp34
 70
     1
102
RTVSPropertyOp35
 70
     1
102
RTVSPropertyOp36
 70
     1
102
RTVSPropertyOp37
 70
     1
102
RTVSPropertyOp38
 70
     1
102
RTVSPropertyOp39
 70
     1
102
RTVSPropertyOp40
 70
     1
102
RTVSPropertyOp41
 70
     1
102
RTVSPropertyOp42
 70
     1
102
RTVSPropertyOp43
 70
     1
102
RTVSPropertyOp44
 70
     1
102
RTVSPropertyOp45
 70
     1
102
RTVSPropertyOp46
 70
     1
102
RTVSPropertyOp47
 70
     1
102
RTVSPropertyOp48
 70
     1
102
RTVSPropertyOp49
 70
     1
102
RTVSPropertyOp50
 70
     1
102
RTVSPropertyOp51
 70
     0
102
RTVSPropertyOp52
 70
     0
102
RTVSPropertyOp53
 70
     1
102
RTVSPropertyOp54
 70
     1
102
RTVSPropertyOp55
 70
     1
102
RTVSPropertyOp56
 70
     1
102
RTVSPropertyOp57
 70
     1
102
RTVSPost2010Prop28
280
     0
102
RTVSPost2010PropOp28
 70
     1
102
RTVSPost2010Prop29
280
     1
102
RTVSPost2010PropOp29
 70
     1
102
RTVSPost2010Prop30
280
     1
102
RTVSPost2010PropOp30
 70
     1
102
RTVSPost2010Prop31
280
     0
102
RTVSPost2010PropOp31
 70
     1
102
RTVSPost2010Prop32
280
     0
102
RTVSPost2010PropOp32
 70
     1
102
RTVSPost2010Prop33
280
     0
102
RTVSPost2010PropOp33
 70
     1
102
RTVSPost2010Prop34
280
     0
102
RTVSPost2010PropOp34
 70
     1
102
RTVSPost2010Prop35
280
     0
102
RTVSPost2010PropOp35
 70
     1
102
RTVSPost2010Prop36
280
     0
102
RTVSPost2010PropOp36
 70
     1
102
RTVSPost2010Prop37
 90
       50
102
RTVSPost2010PropOp37
 70
     1
102
RTVSPost2010Prop38
140
0.0
102
RTVSPost2010PropOp38
 70
     1
102
RTVSPost2010Prop39
140
1.0
102
RTVSPost2010PropOp39
 70
     1
102
RTVSPost2010Prop40
 90
        0
102
RTVSPost2010PropOp40
 70
     1
102
RTVSPost2010Prop41ColorIndex
 90
       18
102
RTVSPost2010Prop41ColorRGB
 90
        0
102
RTVSPost2010PropOp41
 70
     1
102
RTVSPost2010Prop42
 90
       50
102
RTVSPost2010PropOp42
 70
     1
102
RTVSPost2010Prop43
 90
        3
102
RTVSPost2010PropOp43
 70
     1
102
RTVSPost2010Prop44ColorIndex
 90
        5
102
RTVSPost2010Prop44ColorRGB
 90
      255
102
RTVSPost2010PropOp44
 70
     1
102
RTVSPost2010Prop45
280
     0
102
RTVSPost2010PropOp45
 70
     1
102
RTVSPost2010Prop46
 90
       50
102
RTVSPost2010PropOp46
 70
     1
102
RTVSPost2010Prop47
 90
       50
102
RTVSPost2010PropOp47
 70
     1
102
RTVSPost2010Prop48
 90
       50
102
RTVSPost2010PropOp48
 70
     1
102
RTVSPost2010Prop49
280
     0
102
RTVSPost2010PropOp49
 70
     1
102
RTVSPost2010Prop50
 90
       50
102
RTVSPost2010PropOp50
 70
     1
102
RTVSPost2010Prop51ColorIndex
 90
      256
102
RTVSPost2010Prop51ColorRGB
 90
-16777216
102
RTVSPost2010PropOp51
 70
     0
102
RTVSPost2010Prop52
140
1.0
102
RTVSPost2010PropOp52
 70
     0
102
RTVSPost2010Prop53
 90
        2
102
RTVSPost2010PropOp53
 70
     1
102
RTVSPost2010Prop54
  1
strokes_ogs.tif
102
RTVSPost2010PropOp54
 70
     1
102
RTVSPost2010Prop55
280
     0
102
RTVSPost2010PropOp55
 70
     1
102
RTVSPost2010Prop56
140
1.0
102
RTVSPost2010PropOp56
 70
     1
102
RTVSPost2010Prop57
140
1.0
102
RTVSPost2010PropOp57
 70
     1
  0
XRECORD
  5
39B
102
{ACAD_REACTORS
330
39A
102
}
330
39A
100
AcDbXrecord
280
     1
102
RTVSPropertyOp0
 70
     1
102
RTVSPropertyOp1
 70
     1
102
RTVSPropertyOp2
 70
     1
102
RTVSPropertyOp3
 70
     1
102
RTVSPropertyOp4
 70
     1
102
RTVSPropertyOp5
 70
     1
102
RTVSPropertyOp6
 70
     1
102
RTVSPropertyOp7
 70
     1
102
RTVSPropertyOp8
 70
     1
102
RTVSPropertyOp9
 70
     1
102
RTVSPropertyOp10
 70
     1
102
RTVSPropertyOp11
 70
     1
102
RTVSPropertyOp12
 70
     1
102
RTVSPropertyOp13
 70
     1
102
RTVSPropertyOp14
 70
     1
102
RTVSPropertyOp15
 70
     1
102
RTVSPropertyOp16
 70
     1
102
RTVSPropertyOp17
 70
     1
102
RTVSPropertyOp18
 70
     1
102
RTVSPropertyOp19
 70
     1
102
RTVSPropertyOp20
 70
     1
102
RTVSPropertyOp21
 70
     1
102
RTVSPropertyOp22
 70
     1
102
RTVSPropertyOp23
 70
     1
102
RTVSPropertyOp24
 70
     1
102
RTVSPropertyOp25
 70
     1
102
RTVSPropertyOp26
 70
     1
102
RTVSPropertyOp27
 70
     1
102
RTVSPropertyOp28
 70
     1
102
RTVSPropertyOp29
 70
     1
102
RTVSPropertyOp30
 70
     1
102
RTVSPropertyOp31
 70
     1
102
RTVSPropertyOp32
 70
     1
102
RTVSPropertyOp33
 70
     1
102
RTVSPropertyOp34
 70
     1
102
RTVSPropertyOp35
 70
     1
102
RTVSPropertyOp36
 70
     1
102
RTVSPropertyOp37
 70
     1
102
RTVSPropertyOp38
 70
     1
102
RTVSPropertyOp39
 70
     1
102
RTVSPropertyOp40
 70
     1
102
RTVSPropertyOp41
 70
     1
102
RTVSPropertyOp42
 70
     1
102
RTVSPropertyOp43
 70
     1
102
RTVSPropertyOp44
 70
     1
102
RTVSPropertyOp45
 70
     1
102
RTVSPropertyOp46
 70
     1
102
RTVSPropertyOp47
 70
     1
102
RTVSPropertyOp48
 70
     1
102
RTVSPropertyOp49
 70
     1
102
RTVSPropertyOp50
 70
     1
102
RTVSPropertyOp51
 70
     0
102
RTVSPropertyOp52
 70
     0
102
RTVSPropertyOp53
 70
     1
102
RTVSPropertyOp54
 70
     1
102
RTVSPropertyOp55
 70
     1
102
RTVSPropertyOp56
 70
     1
102
RTVSPropertyOp57
 70
     1
102
RTVSPost2010Prop28
280
     0
102
RTVSPost2010PropOp28
 70
     1
102
RTVSPost2010Prop29
280
     1
102
RTVSPost2010PropOp29
 70
     1
102
RTVSPost2010Prop30
280
     1
102
RTVSPost2010PropOp30
 70
     1
102
RTVSPost2010Prop31
280
     0
102
RTVSPost2010PropOp31
 70
     1
102
RTVSPost2010Prop32
280
     0
102
RTVSPost2010PropOp32
 70
     1
102
RTVSPost2010Prop33
280
     0
102
RTVSPost2010PropOp33
 70
     1
102
RTVSPost2010Prop34
280
     0
102
RTVSPost2010PropOp34
 70
     1
102
RTVSPost2010Prop35
280
     0
102
RTVSPost2010PropOp35
 70
     1
102
RTVSPost2010Prop36
280
     0
102
RTVSPost2010PropOp36
 70
     1
102
RTVSPost2010Prop37
 90
       50
102
RTVSPost2010PropOp37
 70
     1
102
RTVSPost2010Prop38
140
0.0
102
RTVSPost2010PropOp38
 70
     1
102
RTVSPost2010Prop39
140
1.0
102
RTVSPost2010PropOp39
 70
     1
102
RTVSPost2010Prop40
 90
        0
102
RTVSPost2010PropOp40
 70
     1
102
RTVSPost2010Prop41ColorIndex
 90
       18
102
RTVSPost2010Prop41ColorRGB
 90
        0
102
RTVSPost2010PropOp41
 70
     1
102
RTVSPost2010Prop42
 90
       50
102
RTVSPost2010PropOp42
 70
     1
102
RTVSPost2010Prop43
 90
        3
102
RTVSPost2010PropOp43
 70
     1
102
RTVSPost2010Prop44ColorIndex
 90
        5
102
RTVSPost2010Prop44ColorRGB
 90
      255
102
RTVSPost2010PropOp44
 70
     1
102
RTVSPost2010Prop45
280
     0
102
RTVSPost2010PropOp45
 70
     1
102
RTVSPost2010Prop46
 90
       50
102
RTVSPost2010PropOp46
 70
     1
102
RTVSPost2010Prop47
 90
       50
102
RTVSPost2010PropOp47
 70
     1
102
RTVSPost2010Prop48
 90
       50
102
RTVSPost2010PropOp48
 70
     1
102
RTVSPost2010Prop49
280
     0
102
RTVSPost2010PropOp49
 70
     1
102
RTVSPost2010Prop50
 90
       50
102
RTVSPost2010PropOp50
 70
     1
102
RTVSPost2010Prop51ColorIndex
 90
      256
102
RTVSPost2010Prop51ColorRGB
 90
-16777216
102
RTVSPost2010PropOp51
 70
     0
102
RTVSPost2010Prop52
140
1.0
102
RTVSPost2010PropOp52
 70
     0
102
RTVSPost2010Prop53
 90
        2
102
RTVSPost2010PropOp53
 70
     1
102
RTVSPost2010Prop54
  1
strokes_ogs.tif
102
RTVSPost2010PropOp54
 70
     1
102
RTVSPost2010Prop55
280
     0
102
RTVSPost2010PropOp55
 70
     1
102
RTVSPost2010Prop56
140
1.0
102
RTVSPost2010PropOp56
 70
     1
102
RTVSPost2010Prop57
140
1.0
102
RTVSPost2010PropOp57
 70
     1
  0
XRECORD
  5
3A1
102
{ACAD_REACTORS
330
3A0
102
}
330
3A0
100
AcDbXrecord
280
     1
102
RTVSPropertyOp0
 70
     1
102
RTVSPropertyOp1
 70
     1
102
RTVSPropertyOp2
 70
     1
102
RTVSPropertyOp3
 70
     1
102
RTVSPropertyOp4
 70
     1
102
RTVSPropertyOp5
 70
     1
102
RTVSPropertyOp6
 70
     1
102
RTVSPropertyOp7
 70
     1
102
RTVSPropertyOp8
 70
     1
102
RTVSPropertyOp9
 70
     1
102
RTVSPropertyOp10
 70
     1
102
RTVSPropertyOp11
 70
     1
102
RTVSPropertyOp12
 70
     1
102
RTVSPropertyOp13
 70
     1
102
RTVSPropertyOp14
 70
     1
102
RTVSPropertyOp15
 70
     1
102
RTVSPropertyOp16
 70
     1
102
RTVSPropertyOp17
 70
     1
102
RTVSPropertyOp18
 70
     1
102
RTVSPropertyOp19
 70
     1
102
RTVSPropertyOp20
 70
     1
102
RTVSPropertyOp21
 70
     1
102
RTVSPropertyOp22
 70
     1
102
RTVSPropertyOp23
 70
     1
102
RTVSPropertyOp24
 70
     1
102
RTVSPropertyOp25
 70
     1
102
RTVSPropertyOp26
 70
     1
102
RTVSPropertyOp27
 70
     1
102
RTVSPropertyOp28
 70
     1
102
RTVSPropertyOp29
 70
     1
102
RTVSPropertyOp30
 70
     1
102
RTVSPropertyOp31
 70
     1
102
RTVSPropertyOp32
 70
     1
102
RTVSPropertyOp33
 70
     1
102
RTVSPropertyOp34
 70
     1
102
RTVSPropertyOp35
 70
     1
102
RTVSPropertyOp36
 70
     1
102
RTVSPropertyOp37
 70
     1
102
RTVSPropertyOp38
 70
     1
102
RTVSPropertyOp39
 70
     1
102
RTVSPropertyOp40
 70
     1
102
RTVSPropertyOp41
 70
     1
102
RTVSPropertyOp42
 70
     1
102
RTVSPropertyOp43
 70
     1
102
RTVSPropertyOp44
 70
     1
102
RTVSPropertyOp45
 70
     1
102
RTVSPropertyOp46
 70
     1
102
RTVSPropertyOp47
 70
     1
102
RTVSPropertyOp48
 70
     1
102
RTVSPropertyOp49
 70
     1
102
RTVSPropertyOp50
 70
     1
102
RTVSPropertyOp51
 70
     0
102
RTVSPropertyOp52
 70
     0
102
RTVSPropertyOp53
 70
     1
102
RTVSPropertyOp54
 70
     1
102
RTVSPropertyOp55
 70
     1
102
RTVSPropertyOp56
 70
     1
102
RTVSPropertyOp57
 70
     1
102
RTVSPost2010Prop28
280
     0
102
RTVSPost2010PropOp28
 70
     1
102
RTVSPost2010Prop29
280
     1
102
RTVSPost2010PropOp29
 70
     1
102
RTVSPost2010Prop30
280
     1
102
RTVSPost2010PropOp30
 70
     1
102
RTVSPost2010Prop31
280
     0
102
RTVSPost2010PropOp31
 70
     1
102
RTVSPost2010Prop32
280
     0
102
RTVSPost2010PropOp32
 70
     1
102
RTVSPost2010Prop33
280
     0
102
RTVSPost2010PropOp33
 70
     1
102
RTVSPost2010Prop34
280
     0
102
RTVSPost2010PropOp34
 70
     1
102
RTVSPost2010Prop35
280
     0
102
RTVSPost2010PropOp35
 70
     1
102
RTVSPost2010Prop36
280
     0
102
RTVSPost2010PropOp36
 70
     1
102
RTVSPost2010Prop37
 90
       50
102
RTVSPost2010PropOp37
 70
     1
102
RTVSPost2010Prop38
140
0.0
102
RTVSPost2010PropOp38
 70
     1
102
RTVSPost2010Prop39
140
1.0
102
RTVSPost2010PropOp39
 70
     1
102
RTVSPost2010Prop40
 90
        0
102
RTVSPost2010PropOp40
 70
     1
102
RTVSPost2010Prop41ColorIndex
 90
       18
102
RTVSPost2010Prop41ColorRGB
 90
        0
102
RTVSPost2010PropOp41
 70
     1
102
RTVSPost2010Prop42
 90
       50
102
RTVSPost2010PropOp42
 70
     1
102
RTVSPost2010Prop43
 90
        3
102
RTVSPost2010PropOp43
 70
     1
102
RTVSPost2010Prop44ColorIndex
 90
        5
102
RTVSPost2010Prop44ColorRGB
 90
      255
102
RTVSPost2010PropOp44
 70
     1
102
RTVSPost2010Prop45
280
     0
102
RTVSPost2010PropOp45
 70
     1
102
RTVSPost2010Prop46
 90
       50
102
RTVSPost2010PropOp46
 70
     1
102
RTVSPost2010Prop47
 90
       50
102
RTVSPost2010PropOp47
 70
     1
102
RTVSPost2010Prop48
 90
       50
102
RTVSPost2010PropOp48
 70
     1
102
RTVSPost2010Prop49
280
     0
102
RTVSPost2010PropOp49
 70
     1
102
RTVSPost2010Prop50
 90
       50
102
RTVSPost2010PropOp50
 70
     1
102
RTVSPost2010Prop51ColorIndex
 90
      256
102
RTVSPost2010Prop51ColorRGB
 90
-16777216
102
RTVSPost2010PropOp51
 70
     0
102
RTVSPost2010Prop52
140
1.0
102
RTVSPost2010PropOp52
 70
     0
102
RTVSPost2010Prop53
 90
        2
102
RTVSPost2010PropOp53
 70
     1
102
RTVSPost2010Prop54
  1
strokes_ogs.tif
102
RTVSPost2010PropOp54
 70
     1
102
RTVSPost2010Prop55
280
     0
102
RTVSPost2010PropOp55
 70
     1
102
RTVSPost2010Prop56
140
1.0
102
RTVSPost2010PropOp56
 70
     1
102
RTVSPost2010Prop57
140
1.0
102
RTVSPost2010PropOp57
 70
     1
  0
XRECORD
  5
3B5
102
{ACAD_REACTORS
330
3B4
102
}
330
3B4
100
AcDbXrecord
280
     1
102
RTVSPropertyOp0
 70
     0
102
RTVSPropertyOp1
 70
     0
102
RTVSPropertyOp2
 70
     0
102
RTVSPropertyOp3
 70
     0
102
RTVSPropertyOp4
 70
     0
102
RTVSPropertyOp5
 70
     0
102
RTVSPropertyOp6
 70
     0
102
RTVSPropertyOp7
 70
     0
102
RTVSPropertyOp8
 70
     0
102
RTVSPropertyOp9
 70
     0
102
RTVSPropertyOp10
 70
     0
102
RTVSPropertyOp11
 70
     0
102
RTVSPropertyOp12
 70
     0
102
RTVSPropertyOp13
 70
     0
102
RTVSPropertyOp14
 70
     2
102
RTVSPropertyOp15
 70
     0
102
RTVSPropertyOp16
 70
     0
102
RTVSPropertyOp17
 70
     0
102
RTVSPropertyOp18
 70
     0
102
RTVSPropertyOp19
 70
     0
102
RTVSPropertyOp20
 70
     0
102
RTVSPropertyOp21
 70
     0
102
RTVSPropertyOp22
 70
     0
102
RTVSPropertyOp23
 70
     0
102
RTVSPropertyOp24
 70
     0
102
RTVSPropertyOp25
 70
     0
102
RTVSPropertyOp26
 70
     0
102
RTVSPropertyOp27
 70
     0
102
RTVSPropertyOp28
 70
     0
102
RTVSPropertyOp29
 70
     0
102
RTVSPropertyOp30
 70
     0
102
RTVSPropertyOp31
 70
     0
102
RTVSPropertyOp32
 70
     0
102
RTVSPropertyOp33
 70
     0
102
RTVSPropertyOp34
 70
     0
102
RTVSPropertyOp35
 70
     0
102
RTVSPropertyOp36
 70
     0
102
RTVSPropertyOp37
 70
     0
102
RTVSPropertyOp38
 70
     0
102
RTVSPropertyOp39
 70
     0
102
RTVSPropertyOp40
 70
     0
102
RTVSPropertyOp41
 70
     0
102
RTVSPropertyOp42
 70
     0
102
RTVSPropertyOp43
 70
     0
102
RTVSPropertyOp44
 70
     0
102
RTVSPropertyOp45
 70
     0
102
RTVSPropertyOp46
 70
     0
102
RTVSPropertyOp47
 70
     0
102
RTVSPropertyOp48
 70
     0
102
RTVSPropertyOp49
 70
     0
102
RTVSPropertyOp50
 70
     0
102
RTVSPropertyOp51
 70
     0
102
RTVSPropertyOp52
 70
     0
102
RTVSPropertyOp53
 70
     0
102
RTVSPropertyOp54
 70
     0
102
RTVSPropertyOp55
 70
     0
102
RTVSPropertyOp56
 70
     0
102
RTVSPropertyOp57
 70
     0
102
RTVSPost2010Prop28
280
     0
102
RTVSPost2010PropOp28
 70
     0
102
RTVSPost2010Prop29
280
     1
102
RTVSPost2010PropOp29
 70
     0
102
RTVSPost2010Prop30
280
     1
102
RTVSPost2010PropOp30
 70
     0
102
RTVSPost2010Prop31
280
     0
102
RTVSPost2010PropOp31
 70
     0
102
RTVSPost2010Prop32
280
     0
102
RTVSPost2010PropOp32
 70
     0
102
RTVSPost2010Prop33
280
     0
102
RTVSPost2010PropOp33
 70
     0
102
RTVSPost2010Prop34
280
     0
102
RTVSPost2010PropOp34
 70
     0
102
RTVSPost2010Prop35
280
     0
102
RTVSPost2010PropOp35
 70
     0
102
RTVSPost2010Prop36
280
     0
102
RTVSPost2010PropOp36
 70
     0
102
RTVSPost2010Prop37
 90
       50
102
RTVSPost2010PropOp37
 70
     0
102
RTVSPost2010Prop38
140
0.0
102
RTVSPost2010PropOp38
 70
     0
102
RTVSPost2010Prop39
140
1.0
102
RTVSPost2010PropOp39
 70
     0
102
RTVSPost2010Prop40
 90
        0
102
RTVSPost2010PropOp40
 70
     0
102
RTVSPost2010Prop41ColorIndex
 90
       18
102
RTVSPost2010Prop41ColorRGB
 90
        0
102
RTVSPost2010PropOp41
 70
     0
102
RTVSPost2010Prop42
 90
       50
102
RTVSPost2010PropOp42
 70
     0
102
RTVSPost2010Prop43
 90
        3
102
RTVSPost2010PropOp43
 70
     0
102
RTVSPost2010Prop44ColorIndex
 90
        5
102
RTVSPost2010Prop44ColorRGB
 90
      255
102
RTVSPost2010PropOp44
 70
     0
102
RTVSPost2010Prop45
280
     0
102
RTVSPost2010PropOp45
 70
     0
102
RTVSPost2010Prop46
 90
       50
102
RTVSPost2010PropOp46
 70
     0
102
RTVSPost2010Prop47
 90
       50
102
RTVSPost2010PropOp47
 70
     0
102
RTVSPost2010Prop48
 90
       50
102
RTVSPost2010PropOp48
 70
     0
102
RTVSPost2010Prop49
280
     0
102
RTVSPost2010PropOp49
 70
     0
102
RTVSPost2010Prop50
 90
       50
102
RTVSPost2010PropOp50
 70
     0
102
RTVSPost2010Prop51ColorIndex
 90
      256
102
RTVSPost2010Prop51ColorRGB
 90
-16777216
102
RTVSPost2010PropOp51
 70
     0
102
RTVSPost2010Prop52
140
1.0
102
RTVSPost2010PropOp52
 70
     0
102
RTVSPost2010Prop53
 90
        2
102
RTVSPost2010PropOp53
 70
     0
102
RTVSPost2010Prop54
  1
strokes_ogs.tif
102
RTVSPost2010PropOp54
 70
     0
102
RTVSPost2010Prop55
280
     0
102
RTVSPost2010PropOp55
 70
     0
102
RTVSPost2010Prop56
140
1.0
102
RTVSPost2010PropOp56
 70
     0
102
RTVSPost2010Prop57
140
1.0
102
RTVSPost2010PropOp57
 70
     0
  0
XRECORD
  5
3AF
102
{ACAD_REACTORS
330
3AE
102
}
330
3AE
100
AcDbXrecord
280
     1
102
RTVSPropertyOp0
 70
     1
102
RTVSPropertyOp1
 70
     1
102
RTVSPropertyOp2
 70
     1
102
RTVSPropertyOp3
 70
     1
102
RTVSPropertyOp4
 70
     1
102
RTVSPropertyOp5
 70
     1
102
RTVSPropertyOp6
 70
     1
102
RTVSPropertyOp7
 70
     1
102
RTVSPropertyOp8
 70
     1
102
RTVSPropertyOp9
 70
     1
102
RTVSPropertyOp10
 70
     1
102
RTVSPropertyOp11
 70
     1
102
RTVSPropertyOp12
 70
     1
102
RTVSPropertyOp13
 70
     1
102
RTVSPropertyOp14
 70
     1
102
RTVSPropertyOp15
 70
     1
102
RTVSPropertyOp16
 70
     1
102
RTVSPropertyOp17
 70
     1
102
RTVSPropertyOp18
 70
     1
102
RTVSPropertyOp19
 70
     1
102
RTVSPropertyOp20
 70
     1
102
RTVSPropertyOp21
 70
     1
102
RTVSPropertyOp22
 70
     1
102
RTVSPropertyOp23
 70
     1
102
RTVSPropertyOp24
 70
     1
102
RTVSPropertyOp25
 70
     1
102
RTVSPropertyOp26
 70
     1
102
RTVSPropertyOp27
 70
     1
102
RTVSPropertyOp28
 70
     1
102
RTVSPropertyOp29
 70
     1
102
RTVSPropertyOp30
 70
     1
102
RTVSPropertyOp31
 70
     1
102
RTVSPropertyOp32
 70
     1
102
RTVSPropertyOp33
 70
     1
102
RTVSPropertyOp34
 70
     1
102
RTVSPropertyOp35
 70
     1
102
RTVSPropertyOp36
 70
     1
102
RTVSPropertyOp37
 70
     1
102
RTVSPropertyOp38
 70
     1
102
RTVSPropertyOp39
 70
     1
102
RTVSPropertyOp40
 70
     1
102
RTVSPropertyOp41
 70
     1
102
RTVSPropertyOp42
 70
     1
102
RTVSPropertyOp43
 70
     1
102
RTVSPropertyOp44
 70
     1
102
RTVSPropertyOp45
 70
     1
102
RTVSPropertyOp46
 70
     1
102
RTVSPropertyOp47
 70
     1
102
RTVSPropertyOp48
 70
     1
102
RTVSPropertyOp49
 70
     1
102
RTVSPropertyOp50
 70
     1
102
RTVSPropertyOp51
 70
     0
102
RTVSPropertyOp52
 70
     0
102
RTVSPropertyOp53
 70
     1
102
RTVSPropertyOp54
 70
     1
102
RTVSPropertyOp55
 70
     1
102
RTVSPropertyOp56
 70
     1
102
RTVSPropertyOp57
 70
     1
102
RTVSPost2010Prop28
280
     0
102
RTVSPost2010PropOp28
 70
     1
102
RTVSPost2010Prop29
280
     1
102
RTVSPost2010PropOp29
 70
     1
102
RTVSPost2010Prop30
280
     1
102
RTVSPost2010PropOp30
 70
     1
102
RTVSPost2010Prop31
280
     0
102
RTVSPost2010PropOp31
 70
     1
102
RTVSPost2010Prop32
280
     0
102
RTVSPost2010PropOp32
 70
     1
102
RTVSPost2010Prop33
280
     0
102
RTVSPost2010PropOp33
 70
     1
102
RTVSPost2010Prop34
280
     0
102
RTVSPost2010PropOp34
 70
     1
102
RTVSPost2010Prop35
280
     0
102
RTVSPost2010PropOp35
 70
     1
102
RTVSPost2010Prop36
280
     0
102
RTVSPost2010PropOp36
 70
     1
102
RTVSPost2010Prop37
 90
       50
102
RTVSPost2010PropOp37
 70
     1
102
RTVSPost2010Prop38
140
0.0
102
RTVSPost2010PropOp38
 70
     1
102
RTVSPost2010Prop39
140
1.0
102
RTVSPost2010PropOp39
 70
     1
102
RTVSPost2010Prop40
 90
        0
102
RTVSPost2010PropOp40
 70
     1
102
RTVSPost2010Prop41ColorIndex
 90
       18
102
RTVSPost2010Prop41ColorRGB
 90
        0
102
RTVSPost2010PropOp41
 70
     1
102
RTVSPost2010Prop42
 90
       50
102
RTVSPost2010PropOp42
 70
     1
102
RTVSPost2010Prop43
 90
        3
102
RTVSPost2010PropOp43
 70
     1
102
RTVSPost2010Prop44ColorIndex
 90
        5
102
RTVSPost2010Prop44ColorRGB
 90
      255
102
RTVSPost2010PropOp44
 70
     1
102
RTVSPost2010Prop45
280
     0
102
RTVSPost2010PropOp45
 70
     1
102
RTVSPost2010Prop46
 90
       50
102
RTVSPost2010PropOp46
 70
     1
102
RTVSPost2010Prop47
 90
       50
102
RTVSPost2010PropOp47
 70
     1
102
RTVSPost2010Prop48
 90
       50
102
RTVSPost2010PropOp48
 70
     1
102
RTVSPost2010Prop49
280
     0
102
RTVSPost2010PropOp49
 70
     1
102
RTVSPost2010Prop50
 90
       50
102
RTVSPost2010PropOp50
 70
     1
102
RTVSPost2010Prop51ColorIndex
 90
      256
102
RTVSPost2010Prop51ColorRGB
 90
-16777216
102
RTVSPost2010PropOp51
 70
     0
102
RTVSPost2010Prop52
140
1.0
102
RTVSPost2010PropOp52
 70
     0
102
RTVSPost2010Prop53
 90
        2
102
RTVSPost2010PropOp53
 70
     1
102
RTVSPost2010Prop54
  1
strokes_ogs.tif
102
RTVSPost2010PropOp54
 70
     1
102
RTVSPost2010Prop55
280
     0
102
RTVSPost2010PropOp55
 70
     1
102
RTVSPost2010Prop56
140
1.0
102
RTVSPost2010PropOp56
 70
     1
102
RTVSPost2010Prop57
140
1.0
102
RTVSPost2010PropOp57
 70
     1
  0
XRECORD
  5
3B7
102
{ACAD_REACTORS
330
3B6
102
}
330
3B6
100
AcDbXrecord
280
     1
102
RTVSPropertyOp0
 70
     0
102
RTVSPropertyOp1
 70
     0
102
RTVSPropertyOp2
 70
     0
102
RTVSPropertyOp3
 70
     0
102
RTVSPropertyOp4
 70
     0
102
RTVSPropertyOp5
 70
     0
102
RTVSPropertyOp6
 70
     0
102
RTVSPropertyOp7
 70
     0
102
RTVSPropertyOp8
 70
     0
102
RTVSPropertyOp9
 70
     0
102
RTVSPropertyOp10
 70
     0
102
RTVSPropertyOp11
 70
     0
102
RTVSPropertyOp12
 70
     0
102
RTVSPropertyOp13
 70
     0
102
RTVSPropertyOp14
 70
     2
102
RTVSPropertyOp15
 70
     0
102
RTVSPropertyOp16
 70
     0
102
RTVSPropertyOp17
 70
     0
102
RTVSPropertyOp18
 70
     0
102
RTVSPropertyOp19
 70
     0
102
RTVSPropertyOp20
 70
     0
102
RTVSPropertyOp21
 70
     0
102
RTVSPropertyOp22
 70
     0
102
RTVSPropertyOp23
 70
     0
102
RTVSPropertyOp24
 70
     0
102
RTVSPropertyOp25
 70
     0
102
RTVSPropertyOp26
 70
     0
102
RTVSPropertyOp27
 70
     0
102
RTVSPropertyOp28
 70
     0
102
RTVSPropertyOp29
 70
     0
102
RTVSPropertyOp30
 70
     0
102
RTVSPropertyOp31
 70
     0
102
RTVSPropertyOp32
 70
     0
102
RTVSPropertyOp33
 70
     0
102
RTVSPropertyOp34
 70
     0
102
RTVSPropertyOp35
 70
     0
102
RTVSPropertyOp36
 70
     0
102
RTVSPropertyOp37
 70
     0
102
RTVSPropertyOp38
 70
     0
102
RTVSPropertyOp39
 70
     0
102
RTVSPropertyOp40
 70
     0
102
RTVSPropertyOp41
 70
     0
102
RTVSPropertyOp42
 70
     0
102
RTVSPropertyOp43
 70
     0
102
RTVSPropertyOp44
 70
     0
102
RTVSPropertyOp45
 70
     0
102
RTVSPropertyOp46
 70
     0
102
RTVSPropertyOp47
 70
     0
102
RTVSPropertyOp48
 70
     0
102
RTVSPropertyOp49
 70
     0
102
RTVSPropertyOp50
 70
     0
102
RTVSPropertyOp51
 70
     0
102
RTVSPropertyOp52
 70
     0
102
RTVSPropertyOp53
 70
     0
102
RTVSPropertyOp54
 70
     0
102
RTVSPropertyOp55
 70
     0
102
RTVSPropertyOp56
 70
     0
102
RTVSPropertyOp57
 70
     0
102
RTVSPost2010Prop28
280
     0
102
RTVSPost2010PropOp28
 70
     0
102
RTVSPost2010Prop29
280
     1
102
RTVSPost2010PropOp29
 70
     0
102
RTVSPost2010Prop30
280
     1
102
RTVSPost2010PropOp30
 70
     0
102
RTVSPost2010Prop31
280
     0
102
RTVSPost2010PropOp31
 70
     0
102
RTVSPost2010Prop32
280
     0
102
RTVSPost2010PropOp32
 70
     0
102
RTVSPost2010Prop33
280
     0
102
RTVSPost2010PropOp33
 70
     0
102
RTVSPost2010Prop34
280
     0
102
RTVSPost2010PropOp34
 70
     0
102
RTVSPost2010Prop35
280
     0
102
RTVSPost2010PropOp35
 70
     0
102
RTVSPost2010Prop36
280
     0
102
RTVSPost2010PropOp36
 70
     0
102
RTVSPost2010Prop37
 90
       50
102
RTVSPost2010PropOp37
 70
     0
102
RTVSPost2010Prop38
140
0.0
102
RTVSPost2010PropOp38
 70
     0
102
RTVSPost2010Prop39
140
1.0
102
RTVSPost2010PropOp39
 70
     0
102
RTVSPost2010Prop40
 90
        0
102
RTVSPost2010PropOp40
 70
     0
102
RTVSPost2010Prop41ColorIndex
 90
       18
102
RTVSPost2010Prop41ColorRGB
 90
        0
102
RTVSPost2010PropOp41
 70
     0
102
RTVSPost2010Prop42
 90
       50
102
RTVSPost2010PropOp42
 70
     0
102
RTVSPost2010Prop43
 90
        3
102
RTVSPost2010PropOp43
 70
     0
102
RTVSPost2010Prop44ColorIndex
 90
        5
102
RTVSPost2010Prop44ColorRGB
 90
      255
102
RTVSPost2010PropOp44
 70
     0
102
RTVSPost2010Prop45
280
     0
102
RTVSPost2010PropOp45
 70
     0
102
RTVSPost2010Prop46
 90
       50
102
RTVSPost2010PropOp46
 70
     0
102
RTVSPost2010Prop47
 90
       50
102
RTVSPost2010PropOp47
 70
     0
102
RTVSPost2010Prop48
 90
       50
102
RTVSPost2010PropOp48
 70
     0
102
RTVSPost2010Prop49
280
     0
102
RTVSPost2010PropOp49
 70
     0
102
RTVSPost2010Prop50
 90
       50
102
RTVSPost2010PropOp50
 70
     0
102
RTVSPost2010Prop51ColorIndex
 90
      256
102
RTVSPost2010Prop51ColorRGB
 90
-16777216
102
RTVSPost2010PropOp51
 70
     0
102
RTVSPost2010Prop52
140
1.0
102
RTVSPost2010PropOp52
 70
     0
102
RTVSPost2010Prop53
 90
        2
102
RTVSPost2010PropOp53
 70
     0
102
RTVSPost2010Prop54
  1
strokes_ogs.tif
102
RTVSPost2010PropOp54
 70
     0
102
RTVSPost2010Prop55
280
     0
102
RTVSPost2010PropOp55
 70
     0
102
RTVSPost2010Prop56
140
1.0
102
RTVSPost2010PropOp56
 70
     0
102
RTVSPost2010Prop57
140
1.0
102
RTVSPost2010PropOp57
 70
     0
  0
XRECORD
  5
3A5
102
{ACAD_REACTORS
330
3A4
102
}
330
3A4
100
AcDbXrecord
280
     1
102
RTVSPropertyOp0
 70
     1
102
RTVSPropertyOp1
 70
     1
102
RTVSPropertyOp2
 70
     1
102
RTVSPropertyOp3
 70
     1
102
RTVSPropertyOp4
 70
     1
102
RTVSPropertyOp5
 70
     1
102
RTVSPropertyOp6
 70
     1
102
RTVSPropertyOp7
 70
     1
102
RTVSPropertyOp8
 70
     1
102
RTVSPropertyOp9
 70
     1
102
RTVSPropertyOp10
 70
     1
102
RTVSPropertyOp11
 70
     1
102
RTVSPropertyOp12
 70
     1
102
RTVSPropertyOp13
 70
     1
102
RTVSPropertyOp14
 70
     1
102
RTVSPropertyOp15
 70
     1
102
RTVSPropertyOp16
 70
     1
102
RTVSPropertyOp17
 70
     1
102
RTVSPropertyOp18
 70
     1
102
RTVSPropertyOp19
 70
     1
102
RTVSPropertyOp20
 70
     1
102
RTVSPropertyOp21
 70
     1
102
RTVSPropertyOp22
 70
     1
102
RTVSPropertyOp23
 70
     1
102
RTVSPropertyOp24
 70
     1
102
RTVSPropertyOp25
 70
     1
102
RTVSPropertyOp26
 70
     1
102
RTVSPropertyOp27
 70
     1
102
RTVSPropertyOp28
 70
     1
102
RTVSPropertyOp29
 70
     1
102
RTVSPropertyOp30
 70
     1
102
RTVSPropertyOp31
 70
     1
102
RTVSPropertyOp32
 70
     1
102
RTVSPropertyOp33
 70
     1
102
RTVSPropertyOp34
 70
     1
102
RTVSPropertyOp35
 70
     1
102
RTVSPropertyOp36
 70
     1
102
RTVSPropertyOp37
 70
     1
102
RTVSPropertyOp38
 70
     1
102
RTVSPropertyOp39
 70
     1
102
RTVSPropertyOp40
 70
     1
102
RTVSPropertyOp41
 70
     1
102
RTVSPropertyOp42
 70
     1
102
RTVSPropertyOp43
 70
     1
102
RTVSPropertyOp44
 70
     1
102
RTVSPropertyOp45
 70
     1
102
RTVSPropertyOp46
 70
     1
102
RTVSPropertyOp47
 70
     1
102
RTVSPropertyOp48
 70
     1
102
RTVSPropertyOp49
 70
     1
102
RTVSPropertyOp50
 70
     1
102
RTVSPropertyOp51
 70
     0
102
RTVSPropertyOp52
 70
     0
102
RTVSPropertyOp53
 70
     1
102
RTVSPropertyOp54
 70
     1
102
RTVSPropertyOp55
 70
     1
102
RTVSPropertyOp56
 70
     1
102
RTVSPropertyOp57
 70
     1
102
RTVSPost2010Prop28
280
     0
102
RTVSPost2010PropOp28
 70
     1
102
RTVSPost2010Prop29
280
     1
102
RTVSPost2010PropOp29
 70
     1
102
RTVSPost2010Prop30
280
     1
102
RTVSPost2010PropOp30
 70
     1
102
RTVSPost2010Prop31
280
     0
102
RTVSPost2010PropOp31
 70
     1
102
RTVSPost2010Prop32
280
     0
102
RTVSPost2010PropOp32
 70
     1
102
RTVSPost2010Prop33
280
     0
102
RTVSPost2010PropOp33
 70
     1
102
RTVSPost2010Prop34
280
     0
102
RTVSPost2010PropOp34
 70
     1
102
RTVSPost2010Prop35
280
     0
102
RTVSPost2010PropOp35
 70
     1
102
RTVSPost2010Prop36
280
     0
102
RTVSPost2010PropOp36
 70
     1
102
RTVSPost2010Prop37
 90
       50
102
RTVSPost2010PropOp37
 70
     1
102
RTVSPost2010Prop38
140
0.0
102
RTVSPost2010PropOp38
 70
     1
102
RTVSPost2010Prop39
140
1.0
102
RTVSPost2010PropOp39
 70
     1
102
RTVSPost2010Prop40
 90
        0
102
RTVSPost2010PropOp40
 70
     1
102
RTVSPost2010Prop41ColorIndex
 90
       18
102
RTVSPost2010Prop41ColorRGB
 90
        0
102
RTVSPost2010PropOp41
 70
     1
102
RTVSPost2010Prop42
 90
       50
102
RTVSPost2010PropOp42
 70
     1
102
RTVSPost2010Prop43
 90
        3
102
RTVSPost2010PropOp43
 70
     1
102
RTVSPost2010Prop44ColorIndex
 90
        5
102
RTVSPost2010Prop44ColorRGB
 90
      255
102
RTVSPost2010PropOp44
 70
     1
102
RTVSPost2010Prop45
280
     0
102
RTVSPost2010PropOp45
 70
     1
102
RTVSPost2010Prop46
 90
       50
102
RTVSPost2010PropOp46
 70
     1
102
RTVSPost2010Prop47
 90
       50
102
RTVSPost2010PropOp47
 70
     1
102
RTVSPost2010Prop48
 90
       50
102
RTVSPost2010PropOp48
 70
     1
102
RTVSPost2010Prop49
280
     0
102
RTVSPost2010PropOp49
 70
     1
102
RTVSPost2010Prop50
 90
       50
102
RTVSPost2010PropOp50
 70
     1
102
RTVSPost2010Prop51ColorIndex
 90
      256
102
RTVSPost2010Prop51ColorRGB
 90
-16777216
102
RTVSPost2010PropOp51
 70
     0
102
RTVSPost2010Prop52
140
1.0
102
RTVSPost2010PropOp52
 70
     0
102
RTVSPost2010Prop53
 90
        2
102
RTVSPost2010PropOp53
 70
     1
102
RTVSPost2010Prop54
  1
strokes_ogs.tif
102
RTVSPost2010PropOp54
 70
     1
102
RTVSPost2010Prop55
280
     0
102
RTVSPost2010PropOp55
 70
     1
102
RTVSPost2010Prop56
140
1.0
102
RTVSPost2010PropOp56
 70
     1
102
RTVSPost2010Prop57
140
1.0
102
RTVSPost2010PropOp57
 70
     1
  0
XRECORD
  5
3C3
102
{ACAD_REACTORS
330
3C2
102
}
330
3C2
100
AcDbXrecord
280
     1
102
RTVSPropertyOp0
 70
     1
102
RTVSPropertyOp1
 70
     1
102
RTVSPropertyOp2
 70
     1
102
RTVSPropertyOp3
 70
     1
102
RTVSPropertyOp4
 70
     1
102
RTVSPropertyOp5
 70
     1
102
RTVSPropertyOp6
 70
     1
102
RTVSPropertyOp7
 70
     1
102
RTVSPropertyOp8
 70
     1
102
RTVSPropertyOp9
 70
     1
102
RTVSPropertyOp10
 70
     1
102
RTVSPropertyOp11
 70
     1
102
RTVSPropertyOp12
 70
     1
102
RTVSPropertyOp13
 70
     1
102
RTVSPropertyOp14
 70
     1
102
RTVSPropertyOp15
 70
     1
102
RTVSPropertyOp16
 70
     1
102
RTVSPropertyOp17
 70
     1
102
RTVSPropertyOp18
 70
     1
102
RTVSPropertyOp19
 70
     1
102
RTVSPropertyOp20
 70
     1
102
RTVSPropertyOp21
 70
     1
102
RTVSPropertyOp22
 70
     1
102
RTVSPropertyOp23
 70
     1
102
RTVSPropertyOp24
 70
     1
102
RTVSPropertyOp25
 70
     1
102
RTVSPropertyOp26
 70
     1
102
RTVSPropertyOp27
 70
     1
102
RTVSPropertyOp28
 70
     1
102
RTVSPropertyOp29
 70
     1
102
RTVSPropertyOp30
 70
     1
102
RTVSPropertyOp31
 70
     1
102
RTVSPropertyOp32
 70
     1
102
RTVSPropertyOp33
 70
     1
102
RTVSPropertyOp34
 70
     1
102
RTVSPropertyOp35
 70
     1
102
RTVSPropertyOp36
 70
     1
102
RTVSPropertyOp37
 70
     1
102
RTVSPropertyOp38
 70
     1
102
RTVSPropertyOp39
 70
     1
102
RTVSPropertyOp40
 70
     1
102
RTVSPropertyOp41
 70
     1
102
RTVSPropertyOp42
 70
     1
102
RTVSPropertyOp43
 70
     1
102
RTVSPropertyOp44
 70
     1
102
RTVSPropertyOp45
 70
     1
102
RTVSPropertyOp46
 70
     1
102
RTVSPropertyOp47
 70
     1
102
RTVSPropertyOp48
 70
     1
102
RTVSPropertyOp49
 70
     1
102
RTVSPropertyOp50
 70
     1
102
RTVSPropertyOp51
 70
     0
102
RTVSPropertyOp52
 70
     0
102
RTVSPropertyOp53
 70
     1
102
RTVSPropertyOp54
 70
     1
102
RTVSPropertyOp55
 70
     1
102
RTVSPropertyOp56
 70
     1
102
RTVSPropertyOp57
 70
     1
102
RTVSPost2010Prop28
280
     0
102
RTVSPost2010PropOp28
 70
     1
102
RTVSPost2010Prop29
280
     1
102
RTVSPost2010PropOp29
 70
     1
102
RTVSPost2010Prop30
280
     1
102
RTVSPost2010PropOp30
 70
     1
102
RTVSPost2010Prop31
280
     0
102
RTVSPost2010PropOp31
 70
     1
102
RTVSPost2010Prop32
280
     0
102
RTVSPost2010PropOp32
 70
     1
102
RTVSPost2010Prop33
280
     0
102
RTVSPost2010PropOp33
 70
     1
102
RTVSPost2010Prop34
280
     0
102
RTVSPost2010PropOp34
 70
     1
102
RTVSPost2010Prop35
280
     0
102
RTVSPost2010PropOp35
 70
     1
102
RTVSPost2010Prop36
280
     0
102
RTVSPost2010PropOp36
 70
     1
102
RTVSPost2010Prop37
 90
       50
102
RTVSPost2010PropOp37
 70
     1
102
RTVSPost2010Prop38
140
0.0
102
RTVSPost2010PropOp38
 70
     1
102
RTVSPost2010Prop39
140
1.0
102
RTVSPost2010PropOp39
 70
     1
102
RTVSPost2010Prop40
 90
        0
102
RTVSPost2010PropOp40
 70
     1
102
RTVSPost2010Prop41ColorIndex
 90
       18
102
RTVSPost2010Prop41ColorRGB
 90
        0
102
RTVSPost2010PropOp41
 70
     1
102
RTVSPost2010Prop42
 90
       50
102
RTVSPost2010PropOp42
 70
     1
102
RTVSPost2010Prop43
 90
        3
102
RTVSPost2010PropOp43
 70
     1
102
RTVSPost2010Prop44ColorIndex
 90
        5
102
RTVSPost2010Prop44ColorRGB
 90
      255
102
RTVSPost2010PropOp44
 70
     1
102
RTVSPost2010Prop45
280
     0
102
RTVSPost2010PropOp45
 70
     1
102
RTVSPost2010Prop46
 90
       50
102
RTVSPost2010PropOp46
 70
     1
102
RTVSPost2010Prop47
 90
       50
102
RTVSPost2010PropOp47
 70
     1
102
RTVSPost2010Prop48
 90
       50
102
RTVSPost2010PropOp48
 70
     1
102
RTVSPost2010Prop49
280
     0
102
RTVSPost2010PropOp49
 70
     1
102
RTVSPost2010Prop50
 90
       50
102
RTVSPost2010PropOp50
 70
     1
102
RTVSPost2010Prop51ColorIndex
 90
      256
102
RTVSPost2010Prop51ColorRGB
 90
-16777216
102
RTVSPost2010PropOp51
 70
     0
102
RTVSPost2010Prop52
140
1.0
102
RTVSPost2010PropOp52
 70
     0
102
RTVSPost2010Prop53
 90
        2
102
RTVSPost2010PropOp53
 70
     1
102
RTVSPost2010Prop54
  1
strokes_ogs.tif
102
RTVSPost2010PropOp54
 70
     1
102
RTVSPost2010Prop55
280
     0
102
RTVSPost2010PropOp55
 70
     1
102
RTVSPost2010Prop56
140
1.0
102
RTVSPost2010PropOp56
 70
     1
102
RTVSPost2010Prop57
140
1.0
102
RTVSPost2010PropOp57
 70
     1
  0
XRECORD
  5
3C1
102
{ACAD_REACTORS
330
3C0
102
}
330
3C0
100
AcDbXrecord
280
     1
102
RTVSPropertyOp0
 70
     1
102
RTVSPropertyOp1
 70
     1
102
RTVSPropertyOp2
 70
     1
102
RTVSPropertyOp3
 70
     1
102
RTVSPropertyOp4
 70
     1
102
RTVSPropertyOp5
 70
     1
102
RTVSPropertyOp6
 70
     1
102
RTVSPropertyOp7
 70
     1
102
RTVSPropertyOp8
 70
     1
102
RTVSPropertyOp9
 70
     1
102
RTVSPropertyOp10
 70
     1
102
RTVSPropertyOp11
 70
     1
102
RTVSPropertyOp12
 70
     1
102
RTVSPropertyOp13
 70
     1
102
RTVSPropertyOp14
 70
     1
102
RTVSPropertyOp15
 70
     1
102
RTVSPropertyOp16
 70
     1
102
RTVSPropertyOp17
 70
     1
102
RTVSPropertyOp18
 70
     1
102
RTVSPropertyOp19
 70
     1
102
RTVSPropertyOp20
 70
     1
102
RTVSPropertyOp21
 70
     1
102
RTVSPropertyOp22
 70
     1
102
RTVSPropertyOp23
 70
     1
102
RTVSPropertyOp24
 70
     1
102
RTVSPropertyOp25
 70
     1
102
RTVSPropertyOp26
 70
     1
102
RTVSPropertyOp27
 70
     1
102
RTVSPropertyOp28
 70
     1
102
RTVSPropertyOp29
 70
     1
102
RTVSPropertyOp30
 70
     1
102
RTVSPropertyOp31
 70
     1
102
RTVSPropertyOp32
 70
     1
102
RTVSPropertyOp33
 70
     1
102
RTVSPropertyOp34
 70
     1
102
RTVSPropertyOp35
 70
     1
102
RTVSPropertyOp36
 70
     1
102
RTVSPropertyOp37
 70
     1
102
RTVSPropertyOp38
 70
     1
102
RTVSPropertyOp39
 70
     1
102
RTVSPropertyOp40
 70
     1
102
RTVSPropertyOp41
 70
     1
102
RTVSPropertyOp42
 70
     1
102
RTVSPropertyOp43
 70
     1
102
RTVSPropertyOp44
 70
     1
102
RTVSPropertyOp45
 70
     1
102
RTVSPropertyOp46
 70
     1
102
RTVSPropertyOp47
 70
     1
102
RTVSPropertyOp48
 70
     1
102
RTVSPropertyOp49
 70
     1
102
RTVSPropertyOp50
 70
     1
102
RTVSPropertyOp51
 70
     0
102
RTVSPropertyOp52
 70
     0
102
RTVSPropertyOp53
 70
     1
102
RTVSPropertyOp54
 70
     1
102
RTVSPropertyOp55
 70
     1
102
RTVSPropertyOp56
 70
     1
102
RTVSPropertyOp57
 70
     1
102
RTVSPost2010Prop28
280
     0
102
RTVSPost2010PropOp28
 70
     1
102
RTVSPost2010Prop29
280
     1
102
RTVSPost2010PropOp29
 70
     1
102
RTVSPost2010Prop30
280
     1
102
RTVSPost2010PropOp30
 70
     1
102
RTVSPost2010Prop31
280
     0
102
RTVSPost2010PropOp31
 70
     1
102
RTVSPost2010Prop32
280
     0
102
RTVSPost2010PropOp32
 70
     1
102
RTVSPost2010Prop33
280
     0
102
RTVSPost2010PropOp33
 70
     1
102
RTVSPost2010Prop34
280
     0
102
RTVSPost2010PropOp34
 70
     1
102
RTVSPost2010Prop35
280
     0
102
RTVSPost2010PropOp35
 70
     1
102
RTVSPost2010Prop36
280
     0
102
RTVSPost2010PropOp36
 70
     1
102
RTVSPost2010Prop37
 90
       50
102
RTVSPost2010PropOp37
 70
     1
102
RTVSPost2010Prop38
140
0.0
102
RTVSPost2010PropOp38
 70
     1
102
RTVSPost2010Prop39
140
1.0
102
RTVSPost2010PropOp39
 70
     1
102
RTVSPost2010Prop40
 90
        0
102
RTVSPost2010PropOp40
 70
     1
102
RTVSPost2010Prop41ColorIndex
 90
       18
102
RTVSPost2010Prop41ColorRGB
 90
        0
102
RTVSPost2010PropOp41
 70
     1
102
RTVSPost2010Prop42
 90
       50
102
RTVSPost2010PropOp42
 70
     1
102
RTVSPost2010Prop43
 90
        3
102
RTVSPost2010PropOp43
 70
     1
102
RTVSPost2010Prop44ColorIndex
 90
        5
102
RTVSPost2010Prop44ColorRGB
 90
      255
102
RTVSPost2010PropOp44
 70
     1
102
RTVSPost2010Prop45
280
     0
102
RTVSPost2010PropOp45
 70
     1
102
RTVSPost2010Prop46
 90
       50
102
RTVSPost2010PropOp46
 70
     1
102
RTVSPost2010Prop47
 90
       50
102
RTVSPost2010PropOp47
 70
     1
102
RTVSPost2010Prop48
 90
       50
102
RTVSPost2010PropOp48
 70
     1
102
RTVSPost2010Prop49
280
     0
102
RTVSPost2010PropOp49
 70
     1
102
RTVSPost2010Prop50
 90
       50
102
RTVSPost2010PropOp50
 70
     1
102
RTVSPost2010Prop51ColorIndex
 90
      256
102
RTVSPost2010Prop51ColorRGB
 90
-16777216
102
RTVSPost2010PropOp51
 70
     0
102
RTVSPost2010Prop52
140
1.0
102
RTVSPost2010PropOp52
 70
     0
102
RTVSPost2010Prop53
 90
        2
102
RTVSPost2010PropOp53
 70
     1
102
RTVSPost2010Prop54
  1
strokes_ogs.tif
102
RTVSPost2010PropOp54
 70
     1
102
RTVSPost2010Prop55
280
     0
102
RTVSPost2010PropOp55
 70
     1
102
RTVSPost2010Prop56
140
1.0
102
RTVSPost2010PropOp56
 70
     1
102
RTVSPost2010Prop57
140
1.0
102
RTVSPost2010PropOp57
 70
     1
  0
XRECORD
  5
3BB
102
{ACAD_REACTORS
330
3BA
102
}
330
3BA
100
AcDbXrecord
280
     1
102
RTVSPropertyOp0
 70
     1
102
RTVSPropertyOp1
 70
     1
102
RTVSPropertyOp2
 70
     1
102
RTVSPropertyOp3
 70
     1
102
RTVSPropertyOp4
 70
     1
102
RTVSPropertyOp5
 70
     1
102
RTVSPropertyOp6
 70
     1
102
RTVSPropertyOp7
 70
     1
102
RTVSPropertyOp8
 70
     1
102
RTVSPropertyOp9
 70
     1
102
RTVSPropertyOp10
 70
     1
102
RTVSPropertyOp11
 70
     1
102
RTVSPropertyOp12
 70
     1
102
RTVSPropertyOp13
 70
     1
102
RTVSPropertyOp14
 70
     1
102
RTVSPropertyOp15
 70
     1
102
RTVSPropertyOp16
 70
     1
102
RTVSPropertyOp17
 70
     1
102
RTVSPropertyOp18
 70
     1
102
RTVSPropertyOp19
 70
     1
102
RTVSPropertyOp20
 70
     1
102
RTVSPropertyOp21
 70
     1
102
RTVSPropertyOp22
 70
     1
102
RTVSPropertyOp23
 70
     1
102
RTVSPropertyOp24
 70
     1
102
RTVSPropertyOp25
 70
     1
102
RTVSPropertyOp26
 70
     1
102
RTVSPropertyOp27
 70
     1
102
RTVSPropertyOp28
 70
     1
102
RTVSPropertyOp29
 70
     1
102
RTVSPropertyOp30
 70
     1
102
RTVSPropertyOp31
 70
     1
102
RTVSPropertyOp32
 70
     1
102
RTVSPropertyOp33
 70
     1
102
RTVSPropertyOp34
 70
     1
102
RTVSPropertyOp35
 70
     1
102
RTVSPropertyOp36
 70
     1
102
RTVSPropertyOp37
 70
     1
102
RTVSPropertyOp38
 70
     1
102
RTVSPropertyOp39
 70
     1
102
RTVSPropertyOp40
 70
     1
102
RTVSPropertyOp41
 70
     1
102
RTVSPropertyOp42
 70
     1
102
RTVSPropertyOp43
 70
     1
102
RTVSPropertyOp44
 70
     1
102
RTVSPropertyOp45
 70
     1
102
RTVSPropertyOp46
 70
     1
102
RTVSPropertyOp47
 70
     1
102
RTVSPropertyOp48
 70
     1
102
RTVSPropertyOp49
 70
     1
102
RTVSPropertyOp50
 70
     1
102
RTVSPropertyOp51
 70
     0
102
RTVSPropertyOp52
 70
     0
102
RTVSPropertyOp53
 70
     1
102
RTVSPropertyOp54
 70
     1
102
RTVSPropertyOp55
 70
     1
102
RTVSPropertyOp56
 70
     1
102
RTVSPropertyOp57
 70
     1
102
RTVSPost2010Prop28
280
     0
102
RTVSPost2010PropOp28
 70
     1
102
RTVSPost2010Prop29
280
     1
102
RTVSPost2010PropOp29
 70
     1
102
RTVSPost2010Prop30
280
     1
102
RTVSPost2010PropOp30
 70
     1
102
RTVSPost2010Prop31
280
     0
102
RTVSPost2010PropOp31
 70
     1
102
RTVSPost2010Prop32
280
     0
102
RTVSPost2010PropOp32
 70
     1
102
RTVSPost2010Prop33
280
     0
102
RTVSPost2010PropOp33
 70
     1
102
RTVSPost2010Prop34
280
     0
102
RTVSPost2010PropOp34
 70
     1
102
RTVSPost2010Prop35
280
     0
102
RTVSPost2010PropOp35
 70
     1
102
RTVSPost2010Prop36
280
     0
102
RTVSPost2010PropOp36
 70
     1
102
RTVSPost2010Prop37
 90
       50
102
RTVSPost2010PropOp37
 70
     1
102
RTVSPost2010Prop38
140
0.0
102
RTVSPost2010PropOp38
 70
     1
102
RTVSPost2010Prop39
140
1.0
102
RTVSPost2010PropOp39
 70
     1
102
RTVSPost2010Prop40
 90
        0
102
RTVSPost2010PropOp40
 70
     1
102
RTVSPost2010Prop41ColorIndex
 90
       18
102
RTVSPost2010Prop41ColorRGB
 90
        0
102
RTVSPost2010PropOp41
 70
     1
102
RTVSPost2010Prop42
 90
       50
102
RTVSPost2010PropOp42
 70
     1
102
RTVSPost2010Prop43
 90
        3
102
RTVSPost2010PropOp43
 70
     1
102
RTVSPost2010Prop44ColorIndex
 90
        5
102
RTVSPost2010Prop44ColorRGB
 90
      255
102
RTVSPost2010PropOp44
 70
     1
102
RTVSPost2010Prop45
280
     0
102
RTVSPost2010PropOp45
 70
     1
102
RTVSPost2010Prop46
 90
       50
102
RTVSPost2010PropOp46
 70
     1
102
RTVSPost2010Prop47
 90
       50
102
RTVSPost2010PropOp47
 70
     1
102
RTVSPost2010Prop48
 90
       50
102
RTVSPost2010PropOp48
 70
     1
102
RTVSPost2010Prop49
280
     0
102
RTVSPost2010PropOp49
 70
     1
102
RTVSPost2010Prop50
 90
       50
102
RTVSPost2010PropOp50
 70
     1
102
RTVSPost2010Prop51ColorIndex
 90
      256
102
RTVSPost2010Prop51ColorRGB
 90
-16777216
102
RTVSPost2010PropOp51
 70
     0
102
RTVSPost2010Prop52
140
1.0
102
RTVSPost2010PropOp52
 70
     0
102
RTVSPost2010Prop53
 90
        2
102
RTVSPost2010PropOp53
 70
     1
102
RTVSPost2010Prop54
  1
strokes_ogs.tif
102
RTVSPost2010PropOp54
 70
     1
102
RTVSPost2010Prop55
280
     0
102
RTVSPost2010PropOp55
 70
     1
102
RTVSPost2010Prop56
140
1.0
102
RTVSPost2010PropOp56
 70
     1
102
RTVSPost2010Prop57
140
1.0
102
RTVSPost2010PropOp57
 70
     1
  0
XRECORD
  5
3BD
102
{ACAD_REACTORS
330
3BC
102
}
330
3BC
100
AcDbXrecord
280
     1
102
RTVSPropertyOp0
 70
     1
102
RTVSPropertyOp1
 70
     1
102
RTVSPropertyOp2
 70
     1
102
RTVSPropertyOp3
 70
     1
102
RTVSPropertyOp4
 70
     1
102
RTVSPropertyOp5
 70
     1
102
RTVSPropertyOp6
 70
     1
102
RTVSPropertyOp7
 70
     1
102
RTVSPropertyOp8
 70
     1
102
RTVSPropertyOp9
 70
     1
102
RTVSPropertyOp10
 70
     1
102
RTVSPropertyOp11
 70
     1
102
RTVSPropertyOp12
 70
     1
102
RTVSPropertyOp13
 70
     1
102
RTVSPropertyOp14
 70
     1
102
RTVSPropertyOp15
 70
     1
102
RTVSPropertyOp16
 70
     1
102
RTVSPropertyOp17
 70
     1
102
RTVSPropertyOp18
 70
     1
102
RTVSPropertyOp19
 70
     1
102
RTVSPropertyOp20
 70
     1
102
RTVSPropertyOp21
 70
     1
102
RTVSPropertyOp22
 70
     1
102
RTVSPropertyOp23
 70
     1
102
RTVSPropertyOp24
 70
     1
102
RTVSPropertyOp25
 70
     1
102
RTVSPropertyOp26
 70
     1
102
RTVSPropertyOp27
 70
     1
102
RTVSPropertyOp28
 70
     1
102
RTVSPropertyOp29
 70
     1
102
RTVSPropertyOp30
 70
     1
102
RTVSPropertyOp31
 70
     1
102
RTVSPropertyOp32
 70
     1
102
RTVSPropertyOp33
 70
     1
102
RTVSPropertyOp34
 70
     1
102
RTVSPropertyOp35
 70
     1
102
RTVSPropertyOp36
 70
     1
102
RTVSPropertyOp37
 70
     1
102
RTVSPropertyOp38
 70
     1
102
RTVSPropertyOp39
 70
     1
102
RTVSPropertyOp40
 70
     1
102
RTVSPropertyOp41
 70
     1
102
RTVSPropertyOp42
 70
     1
102
RTVSPropertyOp43
 70
     1
102
RTVSPropertyOp44
 70
     1
102
RTVSPropertyOp45
 70
     1
102
RTVSPropertyOp46
 70
     1
102
RTVSPropertyOp47
 70
     1
102
RTVSPropertyOp48
 70
     1
102
RTVSPropertyOp49
 70
     1
102
RTVSPropertyOp50
 70
     1
102
RTVSPropertyOp51
 70
     0
102
RTVSPropertyOp52
 70
     0
102
RTVSPropertyOp53
 70
     1
102
RTVSPropertyOp54
 70
     1
102
RTVSPropertyOp55
 70
     1
102
RTVSPropertyOp56
 70
     1
102
RTVSPropertyOp57
 70
     1
102
RTVSPost2010Prop28
280
     0
102
RTVSPost2010PropOp28
 70
     1
102
RTVSPost2010Prop29
280
     1
102
RTVSPost2010PropOp29
 70
     1
102
RTVSPost2010Prop30
280
     1
102
RTVSPost2010PropOp30
 70
     1
102
RTVSPost2010Prop31
280
     0
102
RTVSPost2010PropOp31
 70
     1
102
RTVSPost2010Prop32
280
     0
102
RTVSPost2010PropOp32
 70
     1
102
RTVSPost2010Prop33
280
     0
102
RTVSPost2010PropOp33
 70
     1
102
RTVSPost2010Prop34
280
     0
102
RTVSPost2010PropOp34
 70
     1
102
RTVSPost2010Prop35
280
     0
102
RTVSPost2010PropOp35
 70
     1
102
RTVSPost2010Prop36
280
     0
102
RTVSPost2010PropOp36
 70
     1
102
RTVSPost2010Prop37
 90
       50
102
RTVSPost2010PropOp37
 70
     1
102
RTVSPost2010Prop38
140
0.0
102
RTVSPost2010PropOp38
 70
     1
102
RTVSPost2010Prop39
140
1.0
102
RTVSPost2010PropOp39
 70
     1
102
RTVSPost2010Prop40
 90
        0
102
RTVSPost2010PropOp40
 70
     1
102
RTVSPost2010Prop41ColorIndex
 90
       18
102
RTVSPost2010Prop41ColorRGB
 90
        0
102
RTVSPost2010PropOp41
 70
     1
102
RTVSPost2010Prop42
 90
       50
102
RTVSPost2010PropOp42
 70
     1
102
RTVSPost2010Prop43
 90
        3
102
RTVSPost2010PropOp43
 70
     1
102
RTVSPost2010Prop44ColorIndex
 90
        5
102
RTVSPost2010Prop44ColorRGB
 90
      255
102
RTVSPost2010PropOp44
 70
     1
102
RTVSPost2010Prop45
280
     0
102
RTVSPost2010PropOp45
 70
     1
102
RTVSPost2010Prop46
 90
       50
102
RTVSPost2010PropOp46
 70
     1
102
RTVSPost2010Prop47
 90
       50
102
RTVSPost2010PropOp47
 70
     1
102
RTVSPost2010Prop48
 90
       50
102
RTVSPost2010PropOp48
 70
     1
102
RTVSPost2010Prop49
280
     0
102
RTVSPost2010PropOp49
 70
     1
102
RTVSPost2010Prop50
 90
       50
102
RTVSPost2010PropOp50
 70
     1
102
RTVSPost2010Prop51ColorIndex
 90
      256
102
RTVSPost2010Prop51ColorRGB
 90
-16777216
102
RTVSPost2010PropOp51
 70
     0
102
RTVSPost2010Prop52
140
1.0
102
RTVSPost2010PropOp52
 70
     0
102
RTVSPost2010Prop53
 90
        2
102
RTVSPost2010PropOp53
 70
     1
102
RTVSPost2010Prop54
  1
strokes_ogs.tif
102
RTVSPost2010PropOp54
 70
     1
102
RTVSPost2010Prop55
280
     0
102
RTVSPost2010PropOp55
 70
     1
102
RTVSPost2010Prop56
140
1.0
102
RTVSPost2010PropOp56
 70
     1
102
RTVSPost2010Prop57
140
1.0
102
RTVSPost2010PropOp57
 70
     1
  0
XRECORD
  5
3AD
102
{ACAD_REACTORS
330
3AC
102
}
330
3AC
100
AcDbXrecord
280
     1
102
RTVSPropertyOp0
 70
     1
102
RTVSPropertyOp1
 70
     1
102
RTVSPropertyOp2
 70
     1
102
RTVSPropertyOp3
 70
     1
102
RTVSPropertyOp4
 70
     1
102
RTVSPropertyOp5
 70
     1
102
RTVSPropertyOp6
 70
     1
102
RTVSPropertyOp7
 70
     1
102
RTVSPropertyOp8
 70
     1
102
RTVSPropertyOp9
 70
     1
102
RTVSPropertyOp10
 70
     1
102
RTVSPropertyOp11
 70
     1
102
RTVSPropertyOp12
 70
     1
102
RTVSPropertyOp13
 70
     1
102
RTVSPropertyOp14
 70
     1
102
RTVSPropertyOp15
 70
     1
102
RTVSPropertyOp16
 70
     1
102
RTVSPropertyOp17
 70
     1
102
RTVSPropertyOp18
 70
     1
102
RTVSPropertyOp19
 70
     1
102
RTVSPropertyOp20
 70
     1
102
RTVSPropertyOp21
 70
     1
102
RTVSPropertyOp22
 70
     1
102
RTVSPropertyOp23
 70
     1
102
RTVSPropertyOp24
 70
     1
102
RTVSPropertyOp25
 70
     1
102
RTVSPropertyOp26
 70
     1
102
RTVSPropertyOp27
 70
     1
102
RTVSPropertyOp28
 70
     1
102
RTVSPropertyOp29
 70
     1
102
RTVSPropertyOp30
 70
     1
102
RTVSPropertyOp31
 70
     1
102
RTVSPropertyOp32
 70
     1
102
RTVSPropertyOp33
 70
     1
102
RTVSPropertyOp34
 70
     1
102
RTVSPropertyOp35
 70
     1
102
RTVSPropertyOp36
 70
     1
102
RTVSPropertyOp37
 70
     1
102
RTVSPropertyOp38
 70
     1
102
RTVSPropertyOp39
 70
     1
102
RTVSPropertyOp40
 70
     1
102
RTVSPropertyOp41
 70
     1
102
RTVSPropertyOp42
 70
     1
102
RTVSPropertyOp43
 70
     1
102
RTVSPropertyOp44
 70
     1
102
RTVSPropertyOp45
 70
     1
102
RTVSPropertyOp46
 70
     1
102
RTVSPropertyOp47
 70
     1
102
RTVSPropertyOp48
 70
     1
102
RTVSPropertyOp49
 70
     1
102
RTVSPropertyOp50
 70
     1
102
RTVSPropertyOp51
 70
     0
102
RTVSPropertyOp52
 70
     0
102
RTVSPropertyOp53
 70
     1
102
RTVSPropertyOp54
 70
     1
102
RTVSPropertyOp55
 70
     1
102
RTVSPropertyOp56
 70
     1
102
RTVSPropertyOp57
 70
     1
102
RTVSPost2010Prop28
280
     0
102
RTVSPost2010PropOp28
 70
     1
102
RTVSPost2010Prop29
280
     1
102
RTVSPost2010PropOp29
 70
     1
102
RTVSPost2010Prop30
280
     1
102
RTVSPost2010PropOp30
 70
     1
102
RTVSPost2010Prop31
280
     0
102
RTVSPost2010PropOp31
 70
     1
102
RTVSPost2010Prop32
280
     0
102
RTVSPost2010PropOp32
 70
     1
102
RTVSPost2010Prop33
280
     0
102
RTVSPost2010PropOp33
 70
     1
102
RTVSPost2010Prop34
280
     0
102
RTVSPost2010PropOp34
 70
     1
102
RTVSPost2010Prop35
280
     0
102
RTVSPost2010PropOp35
 70
     1
102
RTVSPost2010Prop36
280
     0
102
RTVSPost2010PropOp36
 70
     1
102
RTVSPost2010Prop37
 90
       50
102
RTVSPost2010PropOp37
 70
     1
102
RTVSPost2010Prop38
140
0.0
102
RTVSPost2010PropOp38
 70
     1
102
RTVSPost2010Prop39
140
1.0
102
RTVSPost2010PropOp39
 70
     1
102
RTVSPost2010Prop40
 90
        0
102
RTVSPost2010PropOp40
 70
     1
102
RTVSPost2010Prop41ColorIndex
 90
       18
102
RTVSPost2010Prop41ColorRGB
 90
        0
102
RTVSPost2010PropOp41
 70
     1
102
RTVSPost2010Prop42
 90
       50
102
RTVSPost2010PropOp42
 70
     1
102
RTVSPost2010Prop43
 90
        3
102
RTVSPost2010PropOp43
 70
     1
102
RTVSPost2010Prop44ColorIndex
 90
        5
102
RTVSPost2010Prop44ColorRGB
 90
      255
102
RTVSPost2010PropOp44
 70
     1
102
RTVSPost2010Prop45
280
     0
102
RTVSPost2010PropOp45
 70
     1
102
RTVSPost2010Prop46
 90
       50
102
RTVSPost2010PropOp46
 70
     1
102
RTVSPost2010Prop47
 90
       50
102
RTVSPost2010PropOp47
 70
     1
102
RTVSPost2010Prop48
 90
       50
102
RTVSPost2010PropOp48
 70
     1
102
RTVSPost2010Prop49
280
     0
102
RTVSPost2010PropOp49
 70
     1
102
RTVSPost2010Prop50
 90
       50
102
RTVSPost2010PropOp50
 70
     1
102
RTVSPost2010Prop51ColorIndex
 90
      256
102
RTVSPost2010Prop51ColorRGB
 90
-16777216
102
RTVSPost2010PropOp51
 70
     0
102
RTVSPost2010Prop52
140
1.0
102
RTVSPost2010PropOp52
 70
     0
102
RTVSPost2010Prop53
 90
        2
102
RTVSPost2010PropOp53
 70
     1
102
RTVSPost2010Prop54
  1
strokes_ogs.tif
102
RTVSPost2010PropOp54
 70
     1
102
RTVSPost2010Prop55
280
     0
102
RTVSPost2010PropOp55
 70
     1
102
RTVSPost2010Prop56
140
1.0
102
RTVSPost2010PropOp56
 70
     1
102
RTVSPost2010Prop57
140
1.0
102
RTVSPost2010PropOp57
 70
     1
  0
XRECORD
  5
39F
102
{ACAD_REACTORS
330
39E
102
}
330
39E
100
AcDbXrecord
280
     1
102
RTVSPropertyOp0
 70
     1
102
RTVSPropertyOp1
 70
     1
102
RTVSPropertyOp2
 70
     1
102
RTVSPropertyOp3
 70
     1
102
RTVSPropertyOp4
 70
     1
102
RTVSPropertyOp5
 70
     1
102
RTVSPropertyOp6
 70
     1
102
RTVSPropertyOp7
 70
     1
102
RTVSPropertyOp8
 70
     1
102
RTVSPropertyOp9
 70
     1
102
RTVSPropertyOp10
 70
     1
102
RTVSPropertyOp11
 70
     1
102
RTVSPropertyOp12
 70
     1
102
RTVSPropertyOp13
 70
     1
102
RTVSPropertyOp14
 70
     1
102
RTVSPropertyOp15
 70
     1
102
RTVSPropertyOp16
 70
     1
102
RTVSPropertyOp17
 70
     1
102
RTVSPropertyOp18
 70
     1
102
RTVSPropertyOp19
 70
     1
102
RTVSPropertyOp20
 70
     1
102
RTVSPropertyOp21
 70
     1
102
RTVSPropertyOp22
 70
     1
102
RTVSPropertyOp23
 70
     1
102
RTVSPropertyOp24
 70
     1
102
RTVSPropertyOp25
 70
     1
102
RTVSPropertyOp26
 70
     1
102
RTVSPropertyOp27
 70
     1
102
RTVSPropertyOp28
 70
     1
102
RTVSPropertyOp29
 70
     1
102
RTVSPropertyOp30
 70
     1
102
RTVSPropertyOp31
 70
     1
102
RTVSPropertyOp32
 70
     1
102
RTVSPropertyOp33
 70
     1
102
RTVSPropertyOp34
 70
     1
102
RTVSPropertyOp35
 70
     1
102
RTVSPropertyOp36
 70
     1
102
RTVSPropertyOp37
 70
     1
102
RTVSPropertyOp38
 70
     1
102
RTVSPropertyOp39
 70
     1
102
RTVSPropertyOp40
 70
     1
102
RTVSPropertyOp41
 70
     1
102
RTVSPropertyOp42
 70
     1
102
RTVSPropertyOp43
 70
     1
102
RTVSPropertyOp44
 70
     1
102
RTVSPropertyOp45
 70
     1
102
RTVSPropertyOp46
 70
     1
102
RTVSPropertyOp47
 70
     1
102
RTVSPropertyOp48
 70
     1
102
RTVSPropertyOp49
 70
     1
102
RTVSPropertyOp50
 70
     1
102
RTVSPropertyOp51
 70
     0
102
RTVSPropertyOp52
 70
     0
102
RTVSPropertyOp53
 70
     1
102
RTVSPropertyOp54
 70
     1
102
RTVSPropertyOp55
 70
     1
102
RTVSPropertyOp56
 70
     1
102
RTVSPropertyOp57
 70
     1
102
RTVSPost2010Prop28
280
     0
102
RTVSPost2010PropOp28
 70
     1
102
RTVSPost2010Prop29
280
     1
102
RTVSPost2010PropOp29
 70
     1
102
RTVSPost2010Prop30
280
     1
102
RTVSPost2010PropOp30
 70
     1
102
RTVSPost2010Prop31
280
     0
102
RTVSPost2010PropOp31
 70
     1
102
RTVSPost2010Prop32
280
     0
102
RTVSPost2010PropOp32
 70
     1
102
RTVSPost2010Prop33
280
     0
102
RTVSPost2010PropOp33
 70
     1
102
RTVSPost2010Prop34
280
     0
102
RTVSPost2010PropOp34
 70
     1
102
RTVSPost2010Prop35
280
     0
102
RTVSPost2010PropOp35
 70
     1
102
RTVSPost2010Prop36
280
     0
102
RTVSPost2010PropOp36
 70
     1
102
RTVSPost2010Prop37
 90
       50
102
RTVSPost2010PropOp37
 70
     1
102
RTVSPost2010Prop38
140
0.0
102
RTVSPost2010PropOp38
 70
     1
102
RTVSPost2010Prop39
140
1.0
102
RTVSPost2010PropOp39
 70
     1
102
RTVSPost2010Prop40
 90
        0
102
RTVSPost2010PropOp40
 70
     1
102
RTVSPost2010Prop41ColorIndex
 90
       18
102
RTVSPost2010Prop41ColorRGB
 90
        0
102
RTVSPost2010PropOp41
 70
     1
102
RTVSPost2010Prop42
 90
       50
102
RTVSPost2010PropOp42
 70
     1
102
RTVSPost2010Prop43
 90
        3
102
RTVSPost2010PropOp43
 70
     1
102
RTVSPost2010Prop44ColorIndex
 90
        5
102
RTVSPost2010Prop44ColorRGB
 90
      255
102
RTVSPost2010PropOp44
 70
     1
102
RTVSPost2010Prop45
280
     0
102
RTVSPost2010PropOp45
 70
     1
102
RTVSPost2010Prop46
 90
       50
102
RTVSPost2010PropOp46
 70
     1
102
RTVSPost2010Prop47
 90
       50
102
RTVSPost2010PropOp47
 70
     1
102
RTVSPost2010Prop48
 90
       50
102
RTVSPost2010PropOp48
 70
     1
102
RTVSPost2010Prop49
280
     0
102
RTVSPost2010PropOp49
 70
     1
102
RTVSPost2010Prop50
 90
       50
102
RTVSPost2010PropOp50
 70
     1
102
RTVSPost2010Prop51ColorIndex
 90
      256
102
RTVSPost2010Prop51ColorRGB
 90
-16777216
102
RTVSPost2010PropOp51
 70
     0
102
RTVSPost2010Prop52
140
1.0
102
RTVSPost2010PropOp52
 70
     0
102
RTVSPost2010Prop53
 90
        2
102
RTVSPost2010PropOp53
 70
     1
102
RTVSPost2010Prop54
  1
strokes_ogs.tif
102
RTVSPost2010PropOp54
 70
     1
102
RTVSPost2010Prop55
280
     0
102
RTVSPost2010PropOp55
 70
     1
102
RTVSPost2010Prop56
140
1.0
102
RTVSPost2010PropOp56
 70
     1
102
RTVSPost2010Prop57
140
1.0
102
RTVSPost2010PropOp57
 70
     1
  0
XRECORD
  5
3BF
102
{ACAD_REACTORS
330
3BE
102
}
330
3BE
100
AcDbXrecord
280
     1
102
RTVSPropertyOp0
 70
     1
102
RTVSPropertyOp1
 70
     1
102
RTVSPropertyOp2
 70
     1
102
RTVSPropertyOp3
 70
     1
102
RTVSPropertyOp4
 70
     1
102
RTVSPropertyOp5
 70
     1
102
RTVSPropertyOp6
 70
     1
102
RTVSPropertyOp7
 70
     1
102
RTVSPropertyOp8
 70
     1
102
RTVSPropertyOp9
 70
     1
102
RTVSPropertyOp10
 70
     1
102
RTVSPropertyOp11
 70
     1
102
RTVSPropertyOp12
 70
     1
102
RTVSPropertyOp13
 70
     1
102
RTVSPropertyOp14
 70
     1
102
RTVSPropertyOp15
 70
     1
102
RTVSPropertyOp16
 70
     1
102
RTVSPropertyOp17
 70
     1
102
RTVSPropertyOp18
 70
     1
102
RTVSPropertyOp19
 70
     1
102
RTVSPropertyOp20
 70
     1
102
RTVSPropertyOp21
 70
     1
102
RTVSPropertyOp22
 70
     1
102
RTVSPropertyOp23
 70
     1
102
RTVSPropertyOp24
 70
     1
102
RTVSPropertyOp25
 70
     1
102
RTVSPropertyOp26
 70
     1
102
RTVSPropertyOp27
 70
     1
102
RTVSPropertyOp28
 70
     1
102
RTVSPropertyOp29
 70
     1
102
RTVSPropertyOp30
 70
     1
102
RTVSPropertyOp31
 70
     1
102
RTVSPropertyOp32
 70
     1
102
RTVSPropertyOp33
 70
     1
102
RTVSPropertyOp34
 70
     1
102
RTVSPropertyOp35
 70
     1
102
RTVSPropertyOp36
 70
     1
102
RTVSPropertyOp37
 70
     1
102
RTVSPropertyOp38
 70
     1
102
RTVSPropertyOp39
 70
     1
102
RTVSPropertyOp40
 70
     1
102
RTVSPropertyOp41
 70
     1
102
RTVSPropertyOp42
 70
     1
102
RTVSPropertyOp43
 70
     1
102
RTVSPropertyOp44
 70
     1
102
RTVSPropertyOp45
 70
     1
102
RTVSPropertyOp46
 70
     1
102
RTVSPropertyOp47
 70
     1
102
RTVSPropertyOp48
 70
     1
102
RTVSPropertyOp49
 70
     1
102
RTVSPropertyOp50
 70
     1
102
RTVSPropertyOp51
 70
     0
102
RTVSPropertyOp52
 70
     0
102
RTVSPropertyOp53
 70
     1
102
RTVSPropertyOp54
 70
     1
102
RTVSPropertyOp55
 70
     1
102
RTVSPropertyOp56
 70
     1
102
RTVSPropertyOp57
 70
     1
102
RTVSPost2010Prop28
280
     0
102
RTVSPost2010PropOp28
 70
     1
102
RTVSPost2010Prop29
280
     1
102
RTVSPost2010PropOp29
 70
     1
102
RTVSPost2010Prop30
280
     1
102
RTVSPost2010PropOp30
 70
     1
102
RTVSPost2010Prop31
280
     0
102
RTVSPost2010PropOp31
 70
     1
102
RTVSPost2010Prop32
280
     0
102
RTVSPost2010PropOp32
 70
     1
102
RTVSPost2010Prop33
280
     0
102
RTVSPost2010PropOp33
 70
     1
102
RTVSPost2010Prop34
280
     0
102
RTVSPost2010PropOp34
 70
     1
102
RTVSPost2010Prop35
280
     0
102
RTVSPost2010PropOp35
 70
     1
102
RTVSPost2010Prop36
280
     0
102
RTVSPost2010PropOp36
 70
     1
102
RTVSPost2010Prop37
 90
       50
102
RTVSPost2010PropOp37
 70
     1
102
RTVSPost2010Prop38
140
0.0
102
RTVSPost2010PropOp38
 70
     1
102
RTVSPost2010Prop39
140
1.0
102
RTVSPost2010PropOp39
 70
     1
102
RTVSPost2010Prop40
 90
        0
102
RTVSPost2010PropOp40
 70
     1
102
RTVSPost2010Prop41ColorIndex
 90
       18
102
RTVSPost2010Prop41ColorRGB
 90
        0
102
RTVSPost2010PropOp41
 70
     1
102
RTVSPost2010Prop42
 90
       50
102
RTVSPost2010PropOp42
 70
     1
102
RTVSPost2010Prop43
 90
        3
102
RTVSPost2010PropOp43
 70
     1
102
RTVSPost2010Prop44ColorIndex
 90
        5
102
RTVSPost2010Prop44ColorRGB
 90
      255
102
RTVSPost2010PropOp44
 70
     1
102
RTVSPost2010Prop45
280
     0
102
RTVSPost2010PropOp45
 70
     1
102
RTVSPost2010Prop46
 90
       50
102
RTVSPost2010PropOp46
 70
     1
102
RTVSPost2010Prop47
 90
       50
102
RTVSPost2010PropOp47
 70
     1
102
RTVSPost2010Prop48
 90
       50
102
RTVSPost2010PropOp48
 70
     1
102
RTVSPost2010Prop49
280
     0
102
RTVSPost2010PropOp49
 70
     1
102
RTVSPost2010Prop50
 90
       50
102
RTVSPost2010PropOp50
 70
     1
102
RTVSPost2010Prop51ColorIndex
 90
      256
102
RTVSPost2010Prop51ColorRGB
 90
-16777216
102
RTVSPost2010PropOp51
 70
     0
102
RTVSPost2010Prop52
140
1.0
102
RTVSPost2010PropOp52
 70
     0
102
RTVSPost2010Prop53
 90
        2
102
RTVSPost2010PropOp53
 70
     1
102
RTVSPost2010Prop54
  1
strokes_ogs.tif
102
RTVSPost2010PropOp54
 70
     1
102
RTVSPost2010Prop55
280
     0
102
RTVSPost2010PropOp55
 70
     1
102
RTVSPost2010Prop56
140
1.0
102
RTVSPost2010PropOp56
 70
     1
102
RTVSPost2010Prop57
140
1.0
102
RTVSPost2010PropOp57
 70
     1
  0
ENDSEC
  0
SECTION
  2
THUMBNAILIMAGE
 90
    16364
310
28000000B40000005500000001000800000000000000000000000000000000000000000000000000FFFFFF00FF000000FFFF000000FF000000FFFF000000FF00FF00FF000000000080808000C0C0C000FF000000FF7F7F00A5000000A55252007F0000007F3F3F004C0000004C2626002600000026131300FF3F0000FF9F7F
310
00A5290000A56752007F1F00007F4F3F004C1300004C2F26002609000026171300FF7F0000FFBF7F00A5520000A57C52007F3F00007F5F3F004C2600004C39260026130000261C1300FFBF0000FFDF7F00A57C0000A59152007F5F00007F6F3F004C3900004C422600261C000026211300FFFF0000FFFF7F00A5A50000A5A5
310
52007F7F00007F7F3F004C4C00004C4C26002626000026261300BFFF0000DFFF7F007CA5000091A552005F7F00006F7F3F00394C0000424C26001C260000212613007FFF0000BFFF7F0052A500007CA552003F7F00005F7F3F00264C0000394C2600132600001C2613003FFF00009FFF7F0029A5000067A552001F7F00004F
310
7F3F00134C00002F4C2600092600001726130000FF00007FFF7F0000A5000052A55200007F00003F7F3F00004C0000264C2600002600001326130000FF3F007FFF9F0000A5290052A56700007F1F003F7F4F00004C1300264C2F00002609001326170000FF7F007FFFBF0000A5520052A57C00007F3F003F7F5F00004C2600
310
264C39000026130013261C0000FFBF007FFFDF0000A57C0052A59100007F5F003F7F6F00004C3900264C420000261C001326210000FFFF007FFFFF0000A5A50052A5A500007F7F003F7F7F00004C4C00264C4C00002626001326260000BFFF007FDFFF00007CA5005291A500005F7F003F6F7F0000394C0026424C00001C26
310
0013212600007FFF007FBFFF000052A500527CA500003F7F003F5F7F0000264C0026394C0000132600131C2600003FFF007F9FFF000029A5005267A500001F7F003F4F7F0000134C00262F4C0000092600131726000000FF007F7FFF000000A5005252A50000007F003F3F7F0000004C0026264C0000002600131326003F00
310
FF009F7FFF002900A5006752A5001F007F004F3F7F0013004C002F264C0009002600171326007F00FF00BF7FFF005200A5007C52A5003F007F005F3F7F0026004C0039264C00130026001C132600BF00FF00DF7FFF007C00A5009152A5005F007F006F3F7F0039004C0042264C001C00260021132600FF00FF00FF7FFF00A5
310
00A500A552A5007F007F007F3F7F004C004C004C264C002600260026132600FF00BF00FF7FDF00A5007C00A55291007F005F007F3F6F004C0039004C26420026001C0026132100FF007F00FF7FBF00A5005200A5527C007F003F007F3F5F004C0026004C2639002600130026131C00FF003F00FF7F9F00A5002900A5526700
310
7F001F007F3F4F004C0013004C262F002600090026131700000000002D2D2D005B5B5B0089898900B7B7B700B3B3B30000000000000000000000000000000000000000000000000000000000000000000000000000000000000000000000000000000000000000000000000000000000000000000000000000000000000000
310
00000000000000000000000000000000000000000000000000000000000000000000000000000000000000000000000000000000000000000000000000000000000000000000000000000000000000000000000000000000000000000000000000000000000000000000000000000000000000000000000000000000000000
310
00000000000000000000000000000000000000000000000000000000000000000000000000000000000000000000000000000000000000000000000000000000000000000000000000000000000000000000000000000000000000000000000000000000000000000000000000000000000000000000000000000000000000
310
00000000000000000000000000000000000000000000000000000000000000000000000000000000000000000000000000000000000000000000000000000000000000000000000000000000000000000000000000000000000000000000000000000000000000000000000000000000000000000000000202020202020202
310
02020202020202020202020202020202020202020202020202020202020202020202020202020202020202000000000000000000000000000000000000000000000000000000000000000000000000000000000000000000000000000000000000000000000000000000000000000000000000000000000000000000000000
310
00000000000000000000000000000000000000000000000000000000000000000000000000000000000000000200000000020202020202000202020202020200020202020200020202000202020202020000000000000000000000000000000000000000000000000000000000000000000000000000000000000000000000
310
00000000000000000000000000000000000000000000000000000000000000000000000000000000000000000000000000000000000000000000000000000000000000000000000000000000000000000000000000000000000000000000000202000000000002020202020202020202020202020200020202020202020200
310
02020202020200000000000000000000000000000000000000000000000000000000000000000000000000000000000000000000000000000000000000000000000000000000000000000000000000000000000000000000000000000000000000000000000000000000000000000000000000000000000000000000000000
310
00000000000000000000000000000000000000000200000000000000020002020002020202020000020202020200020202020202000202020202020000000000000000000000000000000000000000000000000000000000000000000000000000000000000000000000000000000000000000000000000000000000000000
310
00000000000000000000000000000000000000000000000000000000000000000000000000000000000000000000000000000000000000000000000000000000000000000000000002000000000000000002000202000200020202000002020202020002020202020200020202020202000000000000000000000000000000
310
00000000000000000000000000000000000000000000000000000000000000000000000000000000000000000000000000000000000000000000000000000000000000000000000000000000000000000000000000000000000000000000000000000000009800000098000000000000000000000000000000000000020000
310
00000000000000020202000002020202020000020202020202020000000200000202020202020000000000000000000000000000000000000000000000000000000000000000000000000000000000000000000000000000000000000000000000000000000000000000000000000000000000000000000000000000000000
310
00000000000000000000000000000000000000000000000000009898000098980000000000000000000000000000000002020000000000000000000000000000000000000000000000000000000000000000020200000000000000000000000000000000000000000000000000000000000000000000000000000000000000
310
00000000000000000000000000000000000000000000000000000000000000000000000000000000000000000000000000000000000000000000000000000000000000989898989898989898989898989898989898000000000000000000000000000000020000000000000000000000000000000000000000000000000000
310
00000000000000000000000000000000000000000000000000000000000000000000000000000000000000000000000000000000000000000000000000000000000000000000000000000000000000000000000000000000000000000000000000000000000000000000000000000000000000000000000098989898980098
310
98000000000098000000980000000098000000000000000000020000000000000000000000000000000000000000000000000000000000000000000000000000000000000000000000000000000000000000000000000000000000000000000000000000000000000000000000000000000000000000000000000000000000
310
00000000000000000000000000000000000000000000000000000000000000000000000000000000000000000000989898989800989800000000009800000098009898989898980000000000000200000000000000000000000000000000000000000000000000000000000000000000000000000000000000000000000000
310
00000000000000000000000000000000000000000000000000000000000000000000000000000000000000000000000000000000000000000000000000000000000000000000000000000000000000000000000000000000000000000000000000000000989898980098980000000000980000009800989898980098000000
310
00020200000000000000000000000000000000000000000000000000000000000000000000000000000000000000000000000000000000000000000000000000000000000000000000000000000000000000000000000000000000000000000000000000000000000000000000000000000000000000000000000000000000
310
00000000000000000000000000000000000000000000000000000000000000000000000000009800000098009898000098980000000200000000000000000000000000000000000000000000000000000000000000000000000000000000000000000000000000000000000000000000000000000000000000000000000000
310
00000000000000000000000000000000000000000000000000000000000000000000000000000000000000000000000000000000000000000000000000000000000000000000000000000000000000000000000000000000000000980000009800989898980098000002000000000000000000000000000000000000000000
310
00000000000000000000000000000000000000000000000000000000000000000000000000000000000000000000000000000000000000000000000000000000000000000000000000000000000000000000000000000000000000000000000000000000000000000000000000000000000000000000000000000000000000
310
00000000000000000000000000000000009800000098000000000000980002000000000000000000000000000000000000000000000000000000000000000000000000000000000000000000000000000000000000000000000000000000000000000000000000000000000000000000000000000000000000000000000000
310
00000000000000000000000000000000000000000000000000000000000000000000000000000000000000000000000000000000000000000000000000000000000000000000980000009800000000000002020000000000000000000000000000000000000000000000000000000000000000000000000000000000000000
310
00000000000000000000000000000000000000000000000000000000000000000000000000000000000000000000000000000000000000000000000000000000000000000000000000000000000000000000000000000000000000000000000000000000000000000000000000000000000000000000000000000098000000
310
98000000000002980000000000000000000000000000000000000000000000000000000000000000000000000000000000000000000000000000000000000000000000000000000000000000000000000000000000000000000000000000000000000000000000000000000000000000000000000000000000000000000000
310
00000000000000000000000000000000000000000000000000000000000000000003030303030303030303030303030303030303030300989898029898989898989898989898989898989898989898989898989898989898000000000000000000000000000000000000000000000000000000000000000000000000000000
310
00000000000000000000000000000000000000000000000000000000000000000000000000000000000000000000000000000000000000000000000000000000000000000000000000000000000000000000000303030101010101010100000000010000010198010101039802980298989898000000000000989800000000
310
00989800000000000000989800000000000000000000000000000000000000000000000000000000000000000000000000000000000000000000000000000000000000000000000000000000000000000000000000000000000000000000000000000000000000000000000000000000000000000000000000000000000000
310
00000000030303030301010000000000000000000000000100000101010000010202020200000098000000000000009800000000000098000000000000000000980000000000000000000000000000000000000000000000000000000000000000000000000000000000000000000000000000000000000000000000000000
310
00000000000000000000000000000000000000000000000000000000000000000000000000000000000000000000000000000000000000000003010100000000000000000000000000000000010000010101000001020202020000009800000000000000980000000000009800000000000000000098000000000000000000
310
00000000000000000000000000000000000000000000000000000000000000000000000000000000000000000000000000000000000000000000000000000000000000000000000000000000000000000000000000000000000000000000000000000000000000000000000000030100000000000000000000000000000000
310
00000100000101010002020202020098989898989898989898989898989898989898989800000000000000980000000000000000000000000000000000000000000000000000000000000000000000000000000000000000000000000000000000000000000000000000000000000000000000000000000000000000000000
310
00000000000000000000000000000000000000000000000000000000000000000003030100000000000000000000000000000000000000010000010101000001020202000000009800000000000000989800000000009898000000000000000098000000000000000000000000000000000000000000000000000000000000
310
00000000000000000000000000000000000000000000000000000000000000000000000000000000000000000000000000000000000000000000000000000000000000000000000000000000000000000000000000000300010000000000000000000000000000000000000001000001010101010102020202000098980000
310
00000098989800000000000098000000000000000000980000000000000000000000000000000000000000000000000000000000000000000000000000000000000000000000000000000000000000000000000000000000000000000000000000000000000000000000000000000000000000000000000000000000000000
310
00000000000000000000000003000101000000000000000000000000000000000000010100010100010101030298029898989898000098989898980000000098009800000000000000000098000000000000000000000000000000000000000000000000000000000000000000000000000000000000000000000000000000
310
00000000000000000000000000000000000000000000000000000000000000000000000000000000000000000000000000000000000000000000000000000000000300010000000000000000000000000000000000000000010101010101010103020000020000000000000098000098000098989898980000000000989898
310
98980000000000000000000000000000000000000000000000000000000000000000000000000000000000000000000000000000000000000000000000000000000000000000000000000000000000000000000000000000000000000000000000000000000000000000000000000000000000000000030001000000000000
310
00000000000000000000000000000001010100000001030000000002000000000098989898980000989898989800000000989898989898000000000000000000000000000000000000000000000000000000000000000000000000000000000000000000000000000000000000000000000000000000000000000000000000
310
00000000000000000000000000000000000000000000000000000000000000000000000000000000000000000300010000010100000000000000000000000000000000000101010000000103000000000200000000000000000098000098989898980000000098989898989800000000000000000000000000000000000000
310
00000000000000000000000000000000000000000000000000000000000000000000000000000000000000000000000000000000000000000000000000000000000000000000000000000000000000000000000000000000000000000000000000030001000001010000000000000000000000000000000000010101000000
310
01030000000000020000000000000000980000000000989800000000989898989898000000000000000000000000000000000000000000000000000000000000000000000000000000000000000000000000000000000000000000000000000000000000000000000000000000000000000000000000000000000000000000
310
00000000000000000000000000000000000000000000060606060606060606060606060606060606060606060606060606060606060606060000000000020000000000000000000000000000980000000098989898989800000000000000000000000000000000000000000000000000000000000000000000000000000000
310
00000000000000000000000000000000000000000000000000000000000000000000000000000000000000000000000000000000000000000000000000000000000000000000000000000000030001000000000000000000000000000000000000000000010101000000010300000000000000020000000000000000000000
310
00000000000000989898989898000000000000000000000000000000000000000000000000000000000000000000000000000000000000000000000000000000000000000000000000000000000000000000000000000000000000000000000000000000000000000000000000000000000000000000000000000000000000
310
00000300010000000000000000000000000000000000000000000101010000000103000000000000000002000000000000000000000000000000000000989898989800000000000000000000000000000000000000000000000000000000000000000000000000000000000000000000000000000000000000000000000000
310
00000000000000000000000000000000000000000000000000000000000000000000000000000000000000000000000000000000000000030001000000000000000000000000000000000000000000010101000000010300000000000000000002000000000000000000000000000000000000000000980000000000000000
310
00000000000000000000000000000000000000000000000000000000000000000000000000000000000000000000000000000000000000000000000000000000000000000000000000000000000000000000000000000000000000000000000000000000000000000000000003000100000000000000000000000000000000
310
00000000000101010000000103000000000000000000000200000000000000000000000000000000000000009800000000000000000000000000000000000000000000000000000000000000000000000000000000000000000000000000000000000000000000000000000000000000000000000000000000000000000000
310
00000000000000000000000000000000000000000000000000000000000000000000030001000000000000000000000000000000000000000000010101000000010300000000000000000000000200000000000000000000000000000000000000980000000000000000000000000000000000000000000000000000000000
310
00000000000000000000000000000000000000000000000000000000000000000000000000000000000000000000000000000000000000000000000000000000000000000000000000000000000000000000000000000003000100000000000000000000000000000000000000000001010100000001030000000000000000
310
00000000020000000000000000000000000000000000009800000000000000000000000000000000000000000000000000000000000000000000000000000000000000000000000000000000000000000000000000000000000000000000000000000000000000000000000000000000000000000000000000000000000000
310
00000000000000000000000000030001000000000000000000000000000000000000000000010101000000010300000000000000000000000000020000000000000000000000000000000000980000000000000000000000000000000000000000000000000000000000000000000000000000000000000000000000000000
310
00000000000000000000000000000000000000000000000000000000000000000000000000000000000000000000000000000000000000000000000000000000000003000100000000000000000000000000000000000000000001010100000001030000000000000000000000000002000000000000000000000000000000
310
00009800000000000000000000000000000000000000000000000000000000000000000000000000000000000000000000000000000000000000000000000000000000000000000000000000000000000000000000000000000000000000000000000000000000000000000000000000000000000000000300010000000000
310
00000000000000000000000000000000010101000000010300000000000000000000000000000200000000000000000000000000000000980000000000000000000000000000000000000000000000000000000000000000000000000000000000000000000000000000000000000000000000000000000000000000000000
310
00000000000000000000000000000000000000000000000000000000000000000000000000000000000000000003000100000000000000000000000000000000000000000001010100000001030000000000000000000000000000000200000000000000000000000000000098000000000000000000000000000000000000
310
00000000000000000000000000000000000000000000000000000000000000000000000000000000000000000000000000000000000000000000000000000000000000000000000000000000000000000000000000000000000000000000000000000303030303030303030300000000000000000000000000000101010000
310
00010500000000000000000000000000000000020000000000000000000000000000980000000000000000000000000000000000000000000000000000000000000000000000000000000000000000000000000000000000000000000000000000000000000000000000000000000000000000000000000000000000000000
310
00000000000000000000000000000000000000000000000000000000000000000000030303030303030303030303030303030303030505050598989898989898989898989898989898029898989898989898989898989898989800000000000000000000000000000000000000000000000000000000000000000000000000
310
00000000000000000000000000000000000000000000000000000000000000000000000000000000000000000000000000000000000000000000000000000000000000000000000000000000009800000000000000000000000000000000000000000000000000000000000500050000000000000000000000000000000000
310
02000000000000000000000098980000000000000000000000000000000000000000000000000000000000000000000000000000000000000000000000000000000000000000000000000000000000000000000000000000000000000000000000000000000000000000000000000000000000000000000000000000000000
310
00000098000000000000000000000000000000000000000000000000000000000000050000000000000000000000000000000000000002000000000000000000000000000000000000000000000000000000000000000000000000000000000000000000000000000000000000000000000000000000000000000000000000
310
00000000000000000000000000000000000000000000000000000000000000000000000000000000000000000000000000000000000000009800000000000000000000000000000000000000000000000000000000000098000000000000000000000000000000000000000002000000000000000000000000000000000000
310
00000000000000000000000000000000000000000000000000000000000000000000000000000000000000000000000000000000000000000000000000000000000000000000000000000000000000000000000000000000000000000000000000000000000000000000000000980000000000000000000000000000000000
310
00000000000000000000000000980000000000000000000000000000000000000000000200000000000000000000000000000000000000000000000000000000000000000000000000000000000000000000000000000000000000000000000000000000000000000000000000000000000000000000000000000000000000
310
00000000000000000000000000000000000000000000000000000000000000000000009898989898989898989898989898989898989898989898989898989898989898000000000000000000000000000000000000000000000200000000000000000000000000000000000000000000000000000000000000000000000000
310
00000000000000000000000000000000000000000000000000000000000000000000000000000000000000000000000000000000000000000000000000000000000000000000000000000000000000000000000000000000989800000000000000000000989898989898980000000000000000000000989800000000000000
310
00000000000000000000000000000002000000000000000000000000000000000000000000000000000000000000000000000000000000000000000000000000000000000000000000000000000000000000000000000000000000000000000000000000000000000000000000000000000000000000000000000000000000
310
00000000000000000000000000009800000000000000000000000098989898989800000000000000000000000098000000000000000000000000000000000000000000000002000000000000000000000000000000000000000000000000000000000000000000000000000000000000000000000000000000000000000000
310
00000000000000000000000000000000000000000000000000000000000000000000000000000000000000000000000000000000000000000000000000000000000000000000000000000000000000989898989898980000000000000000000000000000000000000000000000000000000000000000000000000002000000
310
00000000000000000000000000000000000000000000000000000000000000000000000000000000000000000000000000000000000000000000000000000000000000000000000000000000000000000000000000000000000000000000000000000000000000000000000000000000000000000000000000000000000000
310
00000000000098009898989800000000000000000000000000000000000000000000000000000000000000000000000000000200000000000000000000000000000000000000000000000000000000000000000000000000000000000000000000000000000000000000000000000000000000000000000000000000000000
310
00000000000000000000000000000000000000000000000000000000000000000000000000000000000000000000000000000000000000000000000000000000000000000000000000000000000000000000000000000000000000000000000000000000000000000200000000000000000000000000000000000000000000
310
00000000000000000000000000000000000000000000000000000000000000000000000000000000000000000000000000000000000000000000000000000000000000000000000000000000000000000000000000000000000000000000000000000000000000000000000000000000000000000000000000000000000000
310
00000000000000000000000000000000000000000000000000000000000000020202020202020202020202020202020202020202020202020202020202020202020202020202020202020202020202020202000000000000000000000000000000000000000000000000000000000000000000000000000000000000000000
310
00000000000000000000000000000000000000000000000000000000000000000000000000000000000000000000000000000000000000000000000000000000000000000000000000000000000000000000000000000002020202020200020202020202020002020202020002020200020202020202000000000000000000
310
00000000000000000000000000000000000000000000000000000000000000000000000000000000000000000000000000000000000000000000000000000000000000000000000000000000000000000000000000000000000000000000000000000000000000000000000000000000000000000000000000000000000000
310
00000000000000000000000000020202020002000202020000000202020202020200020202020202020202020000000000000000000000000000000000000000000000000000000000000000000000000000000000000000000000000000000000000000000000000000000000000000000000000000000000000000000000
310
00000000000000000000000000000000000000000000000000000000000000000000000000000000000000000000000000000000000000000000000000000000000002020202000202020202000000020202020002020002020202020202020202000000000000000000000000000000000000000000000000000000000000
310
00000000000000000000000000000000000000000000000000000000000000000000000000000000000000000000000000000000000000000000000000000000000000000000000000000000000000000000000000000000000000000000000000000000000000000000000000000000000000000000000202020200020202
310
02020000000202020202020200020202000202020202020000000000000000000000000000000000000000000000000000000000000000000000000000000000000000000000000000000000000000000000000000000000000000000000000000000000000000000000000000000000000000000000000000000000000000
310
00000000000000000000000000000000000000000000000000000000000000000000000000000000000000000002020200000202020202000000020202000202000000000200000202020202000000000000000000000000000000000000000000000000000000000000000000000000000000000000000000000000000000
310
00000000000000000000000000000000000000000000000000000000000000000000000000000000000000000000000000000000000000000000000000000000000000000000000000000000000000000000000000000000000000000000000000000000000000000000000000000000000000000000000000000000000000
310
00000000000000000000000000000000000000000000000000000000000000000000000000000000000000000000000000000000000000000000000000000000000000000000000000000000000000000000000000000000000000000000000000000000000000000000000000000000000000000000000000000000000000
310
00000000000000000000000000000000000000000000000000000000000000000000000000000000000000000000000000000000000000000000000000000000000000000000000000000000000000000000000000000000000000000000000000000000000000000000000000000000000000000000000000000000000000
310
00000000000000000000000000000000000000000000000000000000000000000000000000000000000000000000000000000000000000000000000000000000000000000000000000000000000000000000000000000000000000000000000000000000000000000000000000000000000000000000000000000000000000
310
00000000000000000000000000000000000000000000000000000000000000000000000000000000000000000000000000000000000000000000000000000000000000000000000000000000000000000000000000000000000000000000000000000000000000000000000000000000000000000000000000000000000000
310
00000000000000000000000000000000000000000000000000000000000000000000000000000000000000000000000000000000000000000000000000000000000000000000000000000000000000000000000000000000000000000000000000000000000000000000000000000000000000000000000000000000000000
310
00000000000000000000000000000000000000000000000000000000000000000000000000000000000000000000000000000000000000000000000000000000000000000000000000000000000000000000000000000000000000000000000000000000000000000000000000000000000000000000000000000000000000
310
00000000000000000000000000000000000000000000000000000000000000000000000000000000000000000000000000000000000000000000000000000000000000000000000000000000000000000000000000000000000000000000000000000000000000000000000000000000000000000000000000000000000000
310
00000000000000000000000000000000000000000000000000000000000000000000000000000000000000000000000000000000000000000000000000000000000000000000000000000000000000000000000000000000000000000000000000000000000000000000000000000000000000000000000000000000000000
310
00000000000000000000000000000000000000000000000000000000000000000000000000000000000000000000000000000000000000000000000000000000000000000000000000000000000000000000000000000000000000000000000000000000000000000000000000000000000000000000000000000000000000
310
00000000000000000000000000000000000000000000000000000000000000000000000000000000000000000000000000000000000000000000000000000000000000000000000000000000000000000000000000000000000000000000000000000000000000000000000000000000000000000000000000000000000000
310
00000000000000000000000000000000000000000000000000000000000000000000000000000000000000000000000000000000000000000000000000000000000000000000000000000000000000000000000000000000000000000000000000000000000000000000000000000000000000000000000000000000000000
310
00000067676700000000000000000000676700000000000000006767000000000000000000000000000000000000000000000000000000000000000000000000000000000000000000000000000000000000000000000000000000000000000000000000000000000000000000000000000000000000000000000000000000
310
00000000000000000000000000000000000000000000000000000000000000000000000000000000000000000000000000000000000000676767676767670067006767676767676767676767676767676767006767000000676700000000670000000000000000000000000000000000000000000000000000000000000000
310
00000000000000000000000000000000000000000000000000000000000000000000000000000000000000000000000000000000000000000000000000000000000000000000000000000000000000000000000000000000000000000000000000000000000000000000000067006767676767676700676767676767670067
310
67000000676767670067670000006767006767676767000000000000000000000000000000000000000000000000000000000000000000000000000000000000000000000000000000000000000000000000000000000000000000000000000000000000000000000000000000000000000000000000000000000000000000
310
00000000000000000000000000000000000000000000000000000000000000000000676767670067676700676767676767676700006767000067676767000067670000676700006767670000000000000000000000000000000000000000000000000000000000000000000000000000000000000000000000000000000000
310
00000000000000000000000000000000000000000000000000000000000000000000000000000000000000000000000000000000000000000000000000000000000000000000000000000000000000000000000000000067676767676767000067676767676767676767676767676767676767676767676767670000006767
310
00000000000000000000000000000000000000000000000000000000000000000000000000000000000000000000000000000000000000000000000000000000000000000000000000000000000000000000000000000000000000000000000000000000000000000000000000000000000000000000000000000000000000
310
00000000000000000000000000006767670067670000006767006767676767676767676700676700676767676700006700000000670000000000000000000000000000000000000000000000000000000000000000000000000000000000000000000000000000000000000000000000000000000000000000000000000000
310
00000000000000000000000000000000000000000000000000000000000000000000000000000000000000000000000000000000000000000000000000000000000000000000000000000000000000000000000000000000000000000000000000000000000000000000000000000000000000000000000000000000000000
310
00000000000000000000000000000000000000000000000000000000000000000000000000000000000000000000000000000000000000000000000000000000000000000000000000000000000000000000000000000000000000000000000000000000000000000000000000000000000000000000000000000000000000
310
00000000000000000000000000000000000000000000000000000000000000000000000000000000000000000000000000000000000000000000000000000000000000000000000000000000000000000000000000000000000000000000000000000000000000000000000000000000000000000000000000000000000000
310
00000000000000000000000000000000000000000000000000000000000000000000000000000000000000000000000000000000000000000000000000000000000000000000000000000000000000000000000000000000000000000000000000000000000000000000000000000000000000000000000000000000000000
310
00000000000000000000000000000000000000000000000000000000000000000000000000000000000000000000000000000000000000000000000000000000000000000000000000000000000000000000000000000000000000000000000000676767676767670000676767676767670000000000000000000000000000
310
00000000000000000000000000000000000000000000000000000000000000000000000000000000000000000000000000000000000000000000000000000000000000000000000000000000000000000000000000000000000000000000000000000000000000000000000000000000000000000000000000000000000000
310
00000000000000000000000000000000000000000000006767676767676700006767676767676700000000000000000000000000000000000000000000000000000000000000000000000000000000000000000000000000000000000000000000000000000000000000000000000000000000000000000000000000000000
310
00000000000000000000000000000000000000000000000000000000000000000000000000000000000000000000000000000000000000000000000000000000000000000000000000000000006767676700676767676767676767670000000000000000000000000000000000000000000000000000000000000000000000
310
00000000000000000000000000000000000000000000000000000000000000000000000000000000000000000000000000000000000000000000000000000000000000000000000000000000000000000000000000000000000000000000000000000000000000000000000000000098000000000000000000000000000000
310
00000067676767676700676767676767676700000000000000000000000000000000000000000000000000000000000000000000000000000000000000000000000000000000000000000000000000000000000000000000000000000000000000000000000000000000000000000000000000000000000000000000000000
310
00000000000000000000000000000000000000000000000000000000000000000000000000000000000000000000000000000000000000006767676767676767676767676767670000000000000000000000000000000000000000000000000000000000000000000000000000000000000000000000000000000000000000
310
00000000000000000000000000000000000000000000000000000000000000000000000000000000000000000000000000000000000000000000000000000000000000000000000000000000000000000000000000000000000000000000000000000000000000000000000000676767676767676767676767676767000000
310
00000000000000000000000000000000000000000000000000000000000000000000000000000000000000000000000000000000000000000000000000000000000000000000000000000000000000000000000000000000000000000000000000000000000000000000000000000000000000000000000000000000000000
310
00000000000000000000000000000000000000000000000000000000000000000000000067670000000000000067676767670000000000000000000000000000000000000000000000000000000000000000000000000000000000000000000000000000000000000000000000000000000000000000000000000000000000
310
00000000000000000000000000000000000000000000000000000000000000000000000000000000000000000000000000000000000000000000000000000000000000000000000000000000000000000000000000000000000000000000000000000000000000000000000000000000000000000000000000000000000000
310
00000000000000000000000000000000000000000000000000000000000000000000000000000000000000000000000000000000000000000000000000000000000000000000000000000000000000000000000000000000000000000000000000000000000000000000000000000000000000000000000000000000000000
310
000000000000000000000000000000000000000000000000000000000000000000000000000000000000000000000000000000000000000000000000000000000000000000000000000000000000000000000000000000000000000000000000000000000000000000000000
  0
ENDSEC
  0
EOF
