  0
SECTION
  2
HEADER
  9
$ACADVER
  1
AC1015
  9
$ACADMAINTVER
 70
    20
  9
$DWGCODEPAGE
  3
ANSI_932
  9
$INSBASE
 10
0.0
 20
0.0
 30
0.0
  9
$EXTMIN
 10
-1172.441789119039
 20
-538.1679737637405
 30
0.0
  9
$EXTMAX
 10
1079.157370087345
 20
459.1636573130734
 30
0.0
  9
$LIMMIN
 10
-1294.630923951088
 20
-790.4109339502829
  9
$LIMMAX
 10
1379.782034583048
 20
703.125606318983
  9
$ORTHOMODE
 70
     1
  9
$REGENMODE
 70
     1
  9
$FILLMODE
 70
     1
  9
$QTEXTMODE
 70
     0
  9
$MIRRTEXT
 70
     0
  9
$LTSCALE
 40
20.0
  9
$ATTMODE
 70
     1
  9
$TEXTSIZE
 40
64.0
  9
$TRACEWID
 40
0.05
  9
$TEXTSTYLE
  7
STANDARD
  9
$CLAYER
  8
DETAIL
  9
$CELTYPE
  6
BYBLOCK
  9
$CECOLOR
 62
   256
  9
$CELTSCALE
 40
1.0
  9
$DISPSILH
 70
     0
  9
$DIMSCALE
 40
1.0
  9
$DIMASZ
 40
10.0
  9
$DIMEXO
 40
20.0
  9
$DIMDLI
 40
200.0
  9
$DIMRND
 40
0.0
  9
$DIMDLE
 40
0.0
  9
$DIMEXE
 40
20.0
  9
$DIMTP
 40
0.0
  9
$DIMTM
 40
0.0
  9
$DIMTXT
 40
50.0
  9
$DIMCEN
 40
0.082
  9
$DIMTSZ
 40
0.0
  9
$DIMTOL
 70
     0
  9
$DIMLIM
 70
     0
  9
$DIMTIH
 70
     0
  9
$DIMTOH
 70
     0
  9
$DIMSE1
 70
     0
  9
$DIMSE2
 70
     0
  9
$DIMTAD
 70
     1
  9
$DIMZIN
 70
     8
  9
$DIMBLK
  1
ORIGIN
  9
$DIMASO
 70
     1
  9
$DIMSHO
 70
     0
  9
$DIMPOST
  1

  9
$DIMAPOST
  1

  9
$DIMALT
 70
     0
  9
$DIMALTD
 70
     2
  9
$DIMALTF
 40
25.4
  9
$DIMLFAC
 40
1.0
  9
$DIMTOFL
 70
     1
  9
$DIMTVP
 40
0.0
  9
$DIMTIX
 70
     0
  9
$DIMSOXD
 70
     0
  9
$DIMSAH
 70
     0
  9
$DIMBLK1
  1

  9
$DIMBLK2
  1

  9
$DIMSTYLE
  2
STANDARD
  9
$DIMCLRD
 70
     0
  9
$DIMCLRE
 70
     0
  9
$DIMCLRT
 70
     0
  9
$DIMTFAC
 40
1.0
  9
$DIMGAP
 40
10.0
  9
$DIMJUST
 70
     0
  9
$DIMSD1
 70
     0
  9
$DIMSD2
 70
     0
  9
$DIMTOLJ
 70
     1
  9
$DIMTZIN
 70
     0
  9
$DIMALTZ
 70
     0
  9
$DIMALTTZ
 70
     0
  9
$DIMUPT
 70
     0
  9
$DIMDEC
 70
     1
  9
$DIMTDEC
 70
     1
  9
$DIMALTU
 70
     2
  9
$DIMALTTD
 70
     2
  9
$DIMTXSTY
  7
STANDARD
  9
$DIMAUNIT
 70
     0
  9
$DIMADEC
 70
     0
  9
$DIMALTRND
 40
0.0
  9
$DIMAZIN
 70
     0
  9
$DIMDSEP
 70
    46
  9
$DIMATFIT
 70
     3
  9
$DIMFRAC
 70
     0
  9
$DIMLDRBLK
  1
ORIGIN
  9
$DIMLUNIT
 70
     2
  9
$DIMLWD
 70
    -2
  9
$DIMLWE
 70
    -2
  9
$DIMTMOVE
 70
     0
  9
$LUNITS
 70
     2
  9
$LUPREC
 70
     4
  9
$SKETCHINC
 40
0.1
  9
$FILLETRAD
 40
10.0
  9
$AUNITS
 70
     1
  9
$AUPREC
 70
     3
  9
$MENU
  1
ACAD
  9
$ELEVATION
 40
0.0
  9
$PELEVATION
 40
0.0
  9
$THICKNESS
 40
0.0
  9
$LIMCHECK
 70
     0
  9
$CHAMFERA
 40
0.0
  9
$CHAMFERB
 40
0.0
  9
$CHAMFERC
 40
0.0
  9
$CHAMFERD
 40
0.0
  9
$SKPOLY
 70
     0
  9
$TDCREATE
 40
2450330.393205995
  9
$TDUCREATE
 40
2450330.018205995
  9
$TDUPDATE
 40
2457291.814413310
  9
$TDUUPDATE
 40
2457291.439413310
  9
$TDINDWG
 40
2.9930827083
  9
$TDUSRTIMER
 40
2.9930816088
  9
$USRTIMER
 70
     1
  9
$ANGBASE
 50
0.0
  9
$ANGDIR
 70
     0
  9
$PDMODE
 70
     3
  9
$PDSIZE
 40
-2.0
  9
$PLINEWID
 40
0.0
  9
$SPLFRAME
 70
     0
  9
$SPLINETYPE
 70
     6
  9
$SPLINESEGS
 70
     8
  9
$HANDSEED
  5
94DB9
  9
$SURFTAB1
 70
     6
  9
$SURFTAB2
 70
     6
  9
$SURFTYPE
 70
     6
  9
$SURFU
 70
     6
  9
$SURFV
 70
     6
  9
$UCSBASE
  2

  9
$UCSNAME
  2

  9
$UCSORG
 10
0.0
 20
0.0
 30
0.0
  9
$UCSXDIR
 10
1.0
 20
0.0
 30
0.0
  9
$UCSYDIR
 10
0.0
 20
1.0
 30
0.0
  9
$UCSORTHOREF
  2

  9
$UCSORTHOVIEW
 70
     0
  9
$UCSORGTOP
 10
0.0
 20
0.0
 30
0.0
  9
$UCSORGBOTTOM
 10
0.0
 20
0.0
 30
0.0
  9
$UCSORGLEFT
 10
0.0
 20
0.0
 30
0.0
  9
$UCSORGRIGHT
 10
0.0
 20
0.0
 30
0.0
  9
$UCSORGFRONT
 10
0.0
 20
0.0
 30
0.0
  9
$UCSORGBACK
 10
0.0
 20
0.0
 30
0.0
  9
$PUCSBASE
  2

  9
$PUCSNAME
  2

  9
$PUCSORG
 10
0.0
 20
0.0
 30
0.0
  9
$PUCSXDIR
 10
1.0
 20
0.0
 30
0.0
  9
$PUCSYDIR
 10
0.0
 20
1.0
 30
0.0
  9
$PUCSORTHOREF
  2

  9
$PUCSORTHOVIEW
 70
     0
  9
$PUCSORGTOP
 10
0.0
 20
0.0
 30
0.0
  9
$PUCSORGBOTTOM
 10
0.0
 20
0.0
 30
0.0
  9
$PUCSORGLEFT
 10
0.0
 20
0.0
 30
0.0
  9
$PUCSORGRIGHT
 10
0.0
 20
0.0
 30
0.0
  9
$PUCSORGFRONT
 10
0.0
 20
0.0
 30
0.0
  9
$PUCSORGBACK
 10
0.0
 20
0.0
 30
0.0
  9
$USERI1
 70
     0
  9
$USERI2
 70
     0
  9
$USERI3
 70
     0
  9
$USERI4
 70
     0
  9
$USERI5
 70
     0
  9
$USERR1
 40
20.0
  9
$USERR2
 40
0.0
  9
$USERR3
 40
0.0
  9
$USERR4
 40
0.0
  9
$USERR5
 40
0.0
  9
$WORLDVIEW
 70
     1
  9
$SHADEDGE
 70
     3
  9
$SHADEDIF
 70
    70
  9
$TILEMODE
 70
     1
  9
$MAXACTVP
 70
    64
  9
$PINSBASE
 10
0.0
 20
0.0
 30
0.0
  9
$PLIMCHECK
 70
     0
  9
$PEXTMIN
 10
1.000000000000000E+20
 20
1.000000000000000E+20
 30
1.000000000000000E+20
  9
$PEXTMAX
 10
-1.000000000000000E+20
 20
-1.000000000000000E+20
 30
-1.000000000000000E+20
  9
$PLIMMIN
 10
0.0
 20
0.0
  9
$PLIMMAX
 10
12.0
 20
9.0
  9
$UNITMODE
 70
     0
  9
$VISRETAIN
 70
     1
  9
$PLINEGEN
 70
     0
  9
$PSLTSCALE
 70
     1
  9
$TREEDEPTH
 70
  3020
  9
$CMLSTYLE
  2
STANDARD
  9
$CMLJUST
 70
     0
  9
$CMLSCALE
 40
1.0
  9
$PROXYGRAPHICS
 70
     1
  9
$MEASUREMENT
 70
     0
  9
$CELWEIGHT
370
    -1
  9
$ENDCAPS
280
     0
  9
$JOINSTYLE
280
     0
  9
$LWDISPLAY
290
     0
  9
$INSUNITS
 70
     0
  9
$HYPERLINKBASE
  1

  9
$STYLESHEET
  1
MONOCHROME.CTB
  9
$XEDIT
290
     1
  9
$CEPSNTYPE
380
     0
  9
$PSTYLEMODE
290
     1
  9
$FINGERPRINTGUID
  2
{97DA8DB6-C4F0-4C3D-ABEB-53C4FBBC7EFF}
  9
$VERSIONGUID
  2
{8029D597-E7F2-48D9-8D44-09A20C4E6B50}
  9
$EXTNAMES
290
     1
  9
$PSVPSCALE
 40
0.0
  9
$OLESTARTUP
290
     0
  0
ENDSEC
  0
SECTION
  2
CLASSES
  0
CLASS
  1
ACDBDICTIONARYWDFLT
  2
AcDbDictionaryWithDefault
  3
ObjectDBX Classes
 90
        0
280
     0
281
     0
  0
CLASS
  1
MATERIAL
  2
AcDbMaterial
  3
ObjectDBX Classes
 90
     1153
280
     0
281
     0
  0
CLASS
  1
VISUALSTYLE
  2
AcDbVisualStyle
  3
ObjectDBX Classes
 90
     4095
280
     0
281
     0
  0
CLASS
  1
TABLESTYLE
  2
AcDbTableStyle
  3
ObjectDBX Classes
 90
     4095
280
     0
281
     0
  0
CLASS
  1
SCALE
  2
AcDbScale
  3
ObjectDBX Classes
 90
     1153
280
     0
281
     0
  0
CLASS
  1
MLEADERSTYLE
  2
AcDbMLeaderStyle
  3
ACDB_MLEADERSTYLE_CLASS
 90
     4095
280
     0
281
     0
  0
CLASS
  1
ACDBSECTIONVIEWSTYLE
  2
AcDbSectionViewStyle
  3
ObjectDBX Classes
 90
     1025
280
     0
281
     0
  0
CLASS
  1
ACDBDETAILVIEWSTYLE
  2
AcDbDetailViewStyle
  3
ObjectDBX Classes
 90
     1025
280
     0
281
     0
  0
CLASS
  1
DICTIONARYVAR
  2
AcDbDictionaryVar
  3
ObjectDBX Classes
 90
        0
280
     0
281
     0
  0
CLASS
  1
CELLSTYLEMAP
  2
AcDbCellStyleMap
  3
ObjectDBX Classes
 90
     1152
280
     0
281
     0
  0
CLASS
  1
MULTILEADER
  2
AcDbMLeader
  3
ACDB_MLEADER_CLASS
 90
    33793
280
     0
281
     1
  0
CLASS
  1
SORTENTSTABLE
  2
AcDbSortentsTable
  3
ObjectDBX Classes
 90
        0
280
     0
281
     0
  0
CLASS
  1
ACDBPLACEHOLDER
  2
AcDbPlaceHolder
  3
ObjectDBX Classes
 90
        0
280
     0
281
     0
  0
CLASS
  1
LAYOUT
  2
AcDbLayout
  3
ObjectDBX Classes
 90
        0
280
     0
281
     0
  0
ENDSEC
  0
SECTION
  2
TABLES
  0
TABLE
  2
VPORT
  5
8
330
0
100
AcDbSymbolTable
 70
     1
  0
VPORT
  5
92226
330
8
100
AcDbSymbolTableRecord
100
AcDbViewportTableRecord
  2
*Active
 70
     0
 10
0.0
 20
0.0
 11
1.0
 21
1.0
 12
-139.5060019669929
 22
-120.2449706441161
 13
0.0
 23
0.0
 14
50.0
 24
50.0
 15
100.0
 25
100.0
 16
0.0
 26
0.0
 36
1.0
 17
0.0
 27
0.0
 37
0.0
 40
1377.340958054074
 41
1.594972067039106
 42
50.0
 43
0.0
 44
0.0
 50
0.0
 51
0.0
 71
     0
 72
   500
 73
     1
 74
     0
 75
     0
 76
     0
 77
     0
 78
     0
281
     0
 65
     1
110
0.0
120
0.0
130
0.0
111
1.0
121
0.0
131
0.0
112
0.0
122
1.0
132
0.0
 79
     0
146
0.0
1001
ACAD_NAV_VCDISPLAY
1070
     3
  0
ENDTAB
  0
TABLE
  2
LTYPE
  5
5
330
0
100
AcDbSymbolTable
 70
     3
  0
LTYPE
  5
13
330
5
100
AcDbSymbolTableRecord
100
AcDbLinetypeTableRecord
  2
BYBLOCK
 70
     0
  3

 72
    65
 73
     0
 40
0.0
  0
LTYPE
  5
14
330
5
100
AcDbSymbolTableRecord
100
AcDbLinetypeTableRecord
  2
BYLAYER
 70
     0
  3

 72
    65
 73
     0
 40
0.0
  0
LTYPE
  5
15
330
5
100
AcDbSymbolTableRecord
100
AcDbLinetypeTableRecord
  2
CONTINUOUS
 70
     0
  3
実線
 72
    65
 73
     0
 40
0.0
  0
LTYPE
  5
23
330
5
100
AcDbSymbolTableRecord
100
AcDbLinetypeTableRecord
  2
DASHDOT
 70
     0
  3
____ _ ____ _ ____ _ ____ _ ____ _ ____ _ ____
 72
    65
 73
     4
 40
5.5
 49
4.0
 74
     0
 49
-0.6
 74
     0
 49
0.3
 74
     0
 49
-0.6
 74
     0
  0
LTYPE
  5
922E9
330
5
100
AcDbSymbolTableRecord
100
AcDbLinetypeTableRecord
  2
CENTER
 70
     0
  3
____ _ ____ _ ____ _ ____ _ ____ _ ____ _ ____
 72
    65
 73
     4
 40
0.6
 49
0.375
 74
     0
 49
-0.075
 74
     0
 49
0.075
 74
     0
 49
-0.075
 74
     0
  0
ENDTAB
  0
TABLE
  2
LAYER
  5
2
102
{ACAD_XDICTIONARY
360
922F3
102
}
330
0
100
AcDbSymbolTable
 70
    10
  0
LAYER
  5
10
102
{ACAD_XDICTIONARY
360
92530
102
}
330
2
100
AcDbSymbolTableRecord
100
AcDbLayerTableRecord
  2
0
 70
     0
 62
     7
  6
CONTINUOUS
370
    -3
390
F
  0
LAYER
  5
22
102
{ACAD_XDICTIONARY
360
92532
102
}
330
2
100
AcDbSymbolTableRecord
100
AcDbLayerTableRecord
  2
SIZE
 70
     0
 62
    32
  6
CONTINUOUS
370
    -3
390
F
  0
LAYER
  5
31
102
{ACAD_XDICTIONARY
360
92534
102
}
330
2
100
AcDbSymbolTableRecord
100
AcDbLayerTableRecord
  2
DETAIL
 70
     0
 62
     5
  6
CONTINUOUS
370
    -3
390
F
  0
LAYER
  5
32
102
{ACAD_XDICTIONARY
360
92536
102
}
330
2
100
AcDbSymbolTableRecord
100
AcDbLayerTableRecord
  2
OUTLINE
 70
     0
 62
     3
  6
CONTINUOUS
370
    -3
390
F
  0
LAYER
  5
33
102
{ACAD_XDICTIONARY
360
92538
102
}
330
2
100
AcDbSymbolTableRecord
100
AcDbLayerTableRecord
  2
BASIS
 70
     0
 62
     6
  6
CONTINUOUS
370
    -3
390
F
  0
LAYER
  5
34
102
{ACAD_XDICTIONARY
360
9253A
102
}
330
2
100
AcDbSymbolTableRecord
100
AcDbLayerTableRecord
  2
NOTE
 70
     0
 62
     4
  6
CONTINUOUS
370
    -3
390
F
  0
LAYER
  5
35
102
{ACAD_XDICTIONARY
360
9253C
102
}
330
2
100
AcDbSymbolTableRecord
100
AcDbLayerTableRecord
  2
ARRANGE
 70
     0
 62
     1
  6
CONTINUOUS
370
    -3
390
F
  0
LAYER
  5
37
102
{ACAD_XDICTIONARY
360
9253E
102
}
330
2
100
AcDbSymbolTableRecord
100
AcDbLayerTableRecord
  2
ETC
 70
     0
 62
    83
  6
CONTINUOUS
370
    -3
390
F
  0
LAYER
  5
3A
330
2
100
AcDbSymbolTableRecord
100
AcDbLayerTableRecord
  2
DEFPOINTS
 70
     0
 62
     7
  6
CONTINUOUS
290
     0
370
    -3
390
F
  0
LAYER
  5
92BD6
330
2
100
AcDbSymbolTableRecord
100
AcDbLayerTableRecord
  2
DEFAULT_1
 70
     0
 62
     7
  6
CENTER
370
    -3
390
F
  0
ENDTAB
  0
TABLE
  2
STYLE
  5
3
330
0
100
AcDbSymbolTable
 70
     2
  0
STYLE
  5
11
330
3
100
AcDbSymbolTableRecord
100
AcDbTextStyleTableRecord
  2
STANDARD
 70
     0
 40
0.0
 41
0.9
 50
0.0
 71
     0
 42
64.0
  3
SIMPLEX
  4
BIGFONT
  0
STYLE
  5
92BD7
330
3
100
AcDbSymbolTableRecord
100
AcDbTextStyleTableRecord
  2
TEXTSTYLE_2
 70
     0
 40
0.0
 41
0.85
 50
0.0
 71
     0
 42
0.2
  3
gdt
  4

  0
ENDTAB
  0
TABLE
  2
VIEW
  5
6
330
0
100
AcDbSymbolTable
 70
     1
  0
VIEW
  5
3C
330
6
100
AcDbSymbolTableRecord
100
AcDbViewTableRecord
  2
ALL
 70
     0
 40
4282.62
 10
0.0
 20
41.30990399999999
 41
5940.0
 11
0.0
 21
0.0
 31
1.0
 12
0.0
 22
0.0
 32
0.0
 42
50.0
 43
0.0
 44
0.0
 50
0.0
 71
     0
281
     0
 72
     0
  0
ENDTAB
  0
TABLE
  2
UCS
  5
7
330
0
100
AcDbSymbolTable
 70
     0
  0
ENDTAB
  0
TABLE
  2
APPID
  5
9
330
0
100
AcDbSymbolTable
 70
     9
  0
APPID
  5
12
330
9
100
AcDbSymbolTableRecord
100
AcDbRegAppTableRecord
  2
ACAD
 70
     0
  0
APPID
  5
922EF
330
9
100
AcDbSymbolTableRecord
100
AcDbRegAppTableRecord
  2
ACAD_NAV_VCDISPLAY
 70
     0
  0
APPID
  5
922F0
330
9
100
AcDbSymbolTableRecord
100
AcDbRegAppTableRecord
  2
ACAD_DSTYLE_DIMJAG
 70
     0
  0
APPID
  5
922F1
330
9
100
AcDbSymbolTableRecord
100
AcDbRegAppTableRecord
  2
ACAD_DSTYLE_DIMBREAK
 70
     0
  0
APPID
  5
922F2
330
9
100
AcDbSymbolTableRecord
100
AcDbRegAppTableRecord
  2
ACAD_DSTYLE_DIMTALN
 70
     0
  0
APPID
  5
92ABD
330
9
100
AcDbSymbolTableRecord
100
AcDbRegAppTableRecord
  2
ACAD_EXEMPT_FROM_CAD_STANDARDS
 70
     0
  0
APPID
  5
94301
330
9
100
AcDbSymbolTableRecord
100
AcDbRegAppTableRecord
  2
AcadAnnoMonitorAlertIconDisabled
 70
     0
  0
APPID
  5
9486F
330
9
100
AcDbSymbolTableRecord
100
AcDbRegAppTableRecord
  2
ACAD_PSEXT
 70
     0
  0
APPID
  5
94DB3
330
9
100
AcDbSymbolTableRecord
100
AcDbRegAppTableRecord
  2
ACAD_MLEADERVER
 70
     0
  0
ENDTAB
  0
TABLE
  2
DIMSTYLE
  5
A
330
0
100
AcDbSymbolTable
 70
     6
100
AcDbDimStyleTable
 71
     1
340
213
  0
DIMSTYLE
105
213
102
{ACAD_REACTORS
330
946FD
330
9470A
330
94717
330
94725
330
94733
330
94740
330
94CAE
330
94CAF
102
}
330
A
100
AcDbSymbolTableRecord
100
AcDbDimStyleTableRecord
  2
STANDARD
 70
     0
340
11
  0
DIMSTYLE
105
922EB
330
A
100
AcDbSymbolTableRecord
100
AcDbDimStyleTableRecord
  2
DIMSTYLE_1
 70
     0
 41
3.5
 42
1.0
 44
1.5
 47
0.3
 48
0.3
 73
     0
 74
     0
 77
     1
 78
     8
140
3.5
147
0.875
271
     2
272
     2
278
    44
284
     8
340
11
341
92279
342
92279
343
92279
344
92279
  0
DIMSTYLE
105
922EC
330
A
100
AcDbSymbolTableRecord
100
AcDbDimStyleTableRecord
  2
DIMSTYLE_2
 70
     0
 41
3.5
 42
1.0
 44
1.5
 47
0.5
 48
0.5
 73
     0
 74
     0
 77
     1
 78
     8
140
3.5
147
0.875
271
     2
272
     2
278
    44
284
     8
340
11
341
92279
342
92279
343
92279
344
92279
  0
DIMSTYLE
105
922ED
330
A
100
AcDbSymbolTableRecord
100
AcDbDimStyleTableRecord
  2
DIMSTYLE_3
 70
     0
 41
3.5
 42
1.0
 44
1.5
 47
0.8
 48
0.8
 73
     0
 74
     0
 77
     1
 78
     8
140
3.5
147
0.875
271
     2
272
     2
278
    44
284
     8
340
11
341
92279
342
92279
343
92279
344
92279
  0
DIMSTYLE
105
922EE
330
A
100
AcDbSymbolTableRecord
100
AcDbDimStyleTableRecord
  2
STANDARD-140913
 70
     0
 41
10.0
 42
20.0
 43
200.0
 44
50.0
 47
0.01
 48
0.01
 73
     0
 74
     0
 77
     1
 78
     8
140
50.0
141
0.082
147
10.0
172
     1
271
     1
272
     1
340
11
341
46
342
46
1001
ACAD_DSTYLE_DIMBREAK
1070
   391
1040
0.125
1001
ACAD_DSTYLE_DIMJAG
1070
   388
1040
1.5
1001
ACAD_DSTYLE_DIMTALN
1070
   392
1070
     0
  0
DIMSTYLE
105
92642
330
A
100
AcDbSymbolTableRecord
100
AcDbDimStyleTableRecord
  2
DIMSTYLE_4
 70
     0
 41
3.5
 42
1.0
 44
1.5
 47
0.1
 48
0.1
 73
     0
 74
     0
 77
     1
 78
     8
140
3.5
147
0.875
271
     2
272
     2
278
    44
284
     8
340
11
341
92279
342
92279
343
92279
344
92279
  0
ENDTAB
  0
TABLE
  2
BLOCK_RECORD
  5
1
330
0
100
AcDbSymbolTable
 70
    18
  0
BLOCK_RECORD
  5
1E
102
{ACAD_XDICTIONARY
360
66E76
102
}
330
1
100
AcDbSymbolTableRecord
100
AcDbBlockTableRecord
  2
*MODEL_SPACE
340
92148
  0
BLOCK_RECORD
  5
1A
102
{ACAD_XDICTIONARY
360
66E74
102
}
330
1
100
AcDbSymbolTableRecord
100
AcDbBlockTableRecord
  2
*PAPER_SPACE
340
92149
  0
BLOCK_RECORD
  5
46
330
1
100
AcDbSymbolTableRecord
100
AcDbBlockTableRecord
  2
_ORIGIN
340
0
102
{BLKREFS
331
94C69
331
94C6A
331
94C73
331
94C74
331
94C7C
331
94C7D
331
94C85
331
94C86
331
94CE7
331
94CE8
331
94D18
331
94D19
331
94D21
331
94D22
331
94D2B
331
94D2C
102
}
  0
BLOCK_RECORD
  5
92279
330
1
100
AcDbSymbolTableRecord
100
AcDbBlockTableRecord
  2
_FILLED
340
0
102
{BLKREFS
331
94A9C
331
94A9D
331
94AA8
331
94AA9
331
94AB4
331
94AB5
331
94AC0
331
94AC1
331
94ACC
331
94ACD
331
94AD8
331
94AD9
331
94AE4
331
94AE5
102
}
  0
BLOCK_RECORD
  5
946FE
330
1
100
AcDbSymbolTableRecord
100
AcDbBlockTableRecord
  2
*D2
340
0
  0
BLOCK_RECORD
  5
9470B
330
1
100
AcDbSymbolTableRecord
100
AcDbBlockTableRecord
  2
*D3
340
0
  0
BLOCK_RECORD
  5
94718
330
1
100
AcDbSymbolTableRecord
100
AcDbBlockTableRecord
  2
*D4
340
0
  0
BLOCK_RECORD
  5
94726
330
1
100
AcDbSymbolTableRecord
100
AcDbBlockTableRecord
  2
*D5
340
0
  0
BLOCK_RECORD
  5
94734
330
1
100
AcDbSymbolTableRecord
100
AcDbBlockTableRecord
  2
*D6
340
0
  0
BLOCK_RECORD
  5
94741
330
1
100
AcDbSymbolTableRecord
100
AcDbBlockTableRecord
  2
*D7
340
0
  0
BLOCK_RECORD
  5
94A97
330
1
100
AcDbSymbolTableRecord
100
AcDbBlockTableRecord
  2
*D8
340
0
  0
BLOCK_RECORD
  5
94AA3
330
1
100
AcDbSymbolTableRecord
100
AcDbBlockTableRecord
  2
*D9
340
0
  0
BLOCK_RECORD
  5
94AAF
330
1
100
AcDbSymbolTableRecord
100
AcDbBlockTableRecord
  2
*D10
340
0
  0
BLOCK_RECORD
  5
94ABB
330
1
100
AcDbSymbolTableRecord
100
AcDbBlockTableRecord
  2
*D11
340
0
  0
BLOCK_RECORD
  5
94AC7
330
1
100
AcDbSymbolTableRecord
100
AcDbBlockTableRecord
  2
*D12
340
0
  0
BLOCK_RECORD
  5
94AD3
330
1
100
AcDbSymbolTableRecord
100
AcDbBlockTableRecord
  2
*D13
340
0
  0
BLOCK_RECORD
  5
94ADF
330
1
100
AcDbSymbolTableRecord
100
AcDbBlockTableRecord
  2
*D14
340
0
  0
BLOCK_RECORD
  5
94AEB
102
{ACAD_XDICTIONARY
360
94BB3
102
}
330
1
100
AcDbSymbolTableRecord
100
AcDbBlockTableRecord
  2
A$C23660A5B
340
0
  0
BLOCK_RECORD
  5
94CB0
330
1
100
AcDbSymbolTableRecord
100
AcDbBlockTableRecord
  2
*D16
340
0
  0
BLOCK_RECORD
  5
94CBC
330
1
100
AcDbSymbolTableRecord
100
AcDbBlockTableRecord
  2
*D17
340
0
  0
ENDTAB
  0
ENDSEC
  0
SECTION
  2
BLOCKS
  0
BLOCK
  5
1F
330
1E
100
AcDbEntity
  8
0
100
AcDbBlockBegin
  2
*MODEL_SPACE
 70
     0
 10
0.0
 20
0.0
 30
0.0
  3
*MODEL_SPACE
  1

  0
ENDBLK
  5
20
330
1E
100
AcDbEntity
  8
0
100
AcDbBlockEnd
  0
BLOCK
  5
1B
330
1A
100
AcDbEntity
 67
     1
  8
0
100
AcDbBlockBegin
  2
*PAPER_SPACE
 70
     0
 10
0.0
 20
0.0
 30
0.0
  3
*PAPER_SPACE
  1

  0
ENDBLK
  5
1C
330
1A
100
AcDbEntity
 67
     1
  8
0
100
AcDbBlockEnd
  0
BLOCK
  5
47
330
46
100
AcDbEntity
  8
0
100
AcDbBlockBegin
  2
_ORIGIN
 70
     0
 10
0.0
 20
0.0
 30
0.0
  3
_ORIGIN
  1

  0
CIRCLE
  5
48
330
46
100
AcDbEntity
  8
0
  6
ByBlock
 62
     0
100
AcDbCircle
 10
0.0
 20
0.0
 30
0.0
 40
0.5
  0
LINE
  5
49
330
46
100
AcDbEntity
  8
0
  6
ByBlock
 62
     0
100
AcDbLine
 10
0.0
 20
0.0
 30
0.0
 11
-1.0
 21
0.0
 31
0.0
  0
ENDBLK
  5
4A
330
46
100
AcDbEntity
  8
0
100
AcDbBlockEnd
  0
BLOCK
  5
9227A
330
92279
100
AcDbEntity
  8
0
100
AcDbBlockBegin
  2
_FILLED
 70
     0
 10
0.0
 20
0.0
 30
0.0
  3
_FILLED
  1

  0
SOLID
  5
9227B
330
92279
100
AcDbEntity
  8
0
  6
ByBlock
 62
     0
100
AcDbTrace
 10
0.0
 20
0.0
 30
0.0
 11
-1.0
 21
0.2142857143
 31
0.0
 12
-1.0
 22
-0.2142857143
 32
0.0
 13
-1.0
 23
-0.2142857143
 33
0.0
  0
ENDBLK
  5
9227C
330
92279
100
AcDbEntity
  8
0
  6
ByBlock
 62
     0
100
AcDbBlockEnd
  0
BLOCK
  5
946FF
330
946FE
100
AcDbEntity
  8
0
100
AcDbBlockBegin
  2
*D2
 70
     1
 10
0.0
 20
0.0
 30
0.0
  3
*D2
  1

  0
LINE
  5
94D1E
330
946FE
100
AcDbEntity
  8
SIZE
  6
Continuous
 62
     0
370
    -2
100
AcDbLine
 10
397.0
 20
-314.7345702373001
 30
0.0
 11
397.0
 21
-538.1679737637405
 31
0.0
  0
LINE
  5
94D1F
330
946FE
100
AcDbEntity
  8
SIZE
  6
Continuous
 62
     0
370
    -2
100
AcDbLine
 10
-0.0000000000000012
 20
-345.7785877973
 30
0.0
 11
-0.000000000000013
 21
-538.1679737637405
 31
0.0
  0
LINE
  5
94D20
330
946FE
100
AcDbEntity
  8
SIZE
  6
Continuous
 62
     0
370
    -2
100
AcDbLine
 10
387.0
 20
-518.1679737637405
 30
0.0
 11
9.999999999999987
 21
-518.1679737637405
 31
0.0
  0
INSERT
  5
94D21
330
946FE
100
AcDbEntity
  8
SIZE
  6
Continuous
 62
     0
370
    -2
100
AcDbBlockReference
  2
_ORIGIN
 10
397.0
 20
-518.1679737637405
 30
0.0
 41
10.0
 42
10.0
 43
10.0
  0
INSERT
  5
94D22
330
946FE
100
AcDbEntity
  8
SIZE
  6
Continuous
 62
     0
370
    -2
100
AcDbBlockReference
  2
_ORIGIN
 10
-0.0000000000000118
 20
-518.1679737637405
 30
0.0
 41
10.0
 42
10.0
 43
10.0
 50
180.0
  0
MTEXT
  5
94D23
330
946FE
100
AcDbEntity
  8
SIZE
  6
Continuous
 62
     0
100
AcDbMText
 10
198.5000000000001
 20
-483.1679737637405
 30
0.0
 40
50.0
 41
0.0
 71
     5
 72
     1
  1
\A1;397
 73
     1
 44
1.0
1001
ACAD
1000
MTEXTBEGIN
1070
    73
1070
     1
1070
    44
1040
1.0
1070
    74
1070
     0
1000
MTEXTEND
  0
POINT
  5
94D24
330
946FE
100
AcDbEntity
  8
DEFPOINTS
  6
Continuous
 62
     0
100
AcDbPoint
 10
397.0
 20
-294.7345702373001
 30
0.0
  0
POINT
  5
94D25
330
946FE
100
AcDbEntity
  8
DEFPOINTS
  6
Continuous
 62
     0
100
AcDbPoint
 10
0.0
 20
-325.7785877973
 30
0.0
  0
POINT
  5
94D26
330
946FE
100
AcDbEntity
  8
DEFPOINTS
  6
Continuous
 62
     0
100
AcDbPoint
 10
-0.0000000000000118
 20
-518.1679737637405
 30
0.0
  0
ENDBLK
  5
94700
330
946FE
100
AcDbEntity
  8
0
100
AcDbBlockEnd
  0
BLOCK
  5
9470C
330
9470B
100
AcDbEntity
  8
0
100
AcDbBlockBegin
  2
*D3
 70
     1
 10
0.0
 20
0.0
 30
0.0
  3
*D3
  1

  0
LINE
  5
94D15
330
9470B
100
AcDbEntity
  8
SIZE
  6
Continuous
 62
     0
370
    -2
100
AcDbLine
 10
-0.0000000000000012
 20
-345.7785877973
 30
0.0
 11
-0.000000000000013
 21
-538.1679737637405
 31
0.0
  0
LINE
  5
94D16
330
9470B
100
AcDbEntity
  8
SIZE
  6
Continuous
 62
     0
370
    -2
100
AcDbLine
 10
-396.999999999999
 20
-331.3121677187
 30
0.0
 11
-396.999999999999
 21
-538.1679737637405
 31
0.0
  0
LINE
  5
94D17
330
9470B
100
AcDbEntity
  8
SIZE
  6
Continuous
 62
     0
370
    -2
100
AcDbLine
 10
-10.00000000000001
 20
-518.1679737637405
 30
0.0
 11
-386.999999999999
 21
-518.1679737637405
 31
0.0
  0
INSERT
  5
94D18
330
9470B
100
AcDbEntity
  8
SIZE
  6
Continuous
 62
     0
370
    -2
100
AcDbBlockReference
  2
_ORIGIN
 10
-0.0000000000000118
 20
-518.1679737637405
 30
0.0
 41
10.0
 42
10.0
 43
10.0
  0
INSERT
  5
94D19
330
9470B
100
AcDbEntity
  8
SIZE
  6
Continuous
 62
     0
370
    -2
100
AcDbBlockReference
  2
_ORIGIN
 10
-396.999999999999
 20
-518.1679737637405
 30
0.0
 41
10.0
 42
10.0
 43
10.0
 50
180.0
  0
MTEXT
  5
94D1A
330
9470B
100
AcDbEntity
  8
SIZE
  6
Continuous
 62
     0
100
AcDbMText
 10
-198.4999999999995
 20
-483.1679737637405
 30
0.0
 40
50.0
 41
0.0
 71
     5
 72
     1
  1
\A1;397
 73
     1
 44
1.0
1001
ACAD
1000
MTEXTBEGIN
1070
    73
1070
     1
1070
    44
1040
1.0
1070
    74
1070
     0
1000
MTEXTEND
  0
POINT
  5
94D1B
330
9470B
100
AcDbEntity
  8
DEFPOINTS
  6
Continuous
 62
     0
100
AcDbPoint
 10
0.0
 20
-325.7785877973
 30
0.0
  0
POINT
  5
94D1C
330
9470B
100
AcDbEntity
  8
DEFPOINTS
  6
Continuous
 62
     0
100
AcDbPoint
 10
-396.999999999999
 20
-311.3121677187
 30
0.0
  0
POINT
  5
94D1D
330
9470B
100
AcDbEntity
  8
DEFPOINTS
  6
Continuous
 62
     0
100
AcDbPoint
 10
-396.999999999999
 20
-518.1679737637405
 30
0.0
  0
ENDBLK
  5
9470D
330
9470B
100
AcDbEntity
  8
0
100
AcDbBlockEnd
  0
BLOCK
  5
94719
330
94718
100
AcDbEntity
  8
0
100
AcDbBlockBegin
  2
*D4
 70
     1
 10
0.0
 20
0.0
 30
0.0
  3
*D4
  1

  0
LINE
  5
94C65
330
94718
100
AcDbEntity
  8
SIZE
  6
Continuous
 62
     0
370
    -2
100
AcDbLine
 10
445.0000000000001
 20
-285.0000000000001
 30
0.0
 11
580.2013299190654
 21
-285.0000000000001
 31
0.0
  0
LINE
  5
94C66
330
94718
100
AcDbEntity
  8
SIZE
  6
Continuous
 62
     0
370
    -2
100
AcDbLine
 10
485.8687099359999
 20
-244.0
 30
0.0
 11
580.2013299190655
 21
-244.0
 31
0.0
  0
LINE
  5
94C67
330
94718
100
AcDbEntity
  8
SIZE
  6
Continuous
 62
     0
370
    -2
100
AcDbLine
 10
560.2013299190653
 20
-275.0000000000001
 30
0.0
 11
560.2013299190655
 21
-254.0
 31
0.0
  0
LINE
  5
94C68
330
94718
100
AcDbEntity
  8
SIZE
  6
Continuous
 62
     0
370
    -2
100
AcDbLine
 10
560.2013299190655
 20
-244.0
 30
0.0
 11
560.2013299190655
 21
-160.4285714285714
 31
0.0
  0
INSERT
  5
94C69
330
94718
100
AcDbEntity
  8
SIZE
  6
Continuous
 62
     0
370
    -2
100
AcDbBlockReference
  2
_ORIGIN
 10
560.2013299190653
 20
-285.0000000000001
 30
0.0
 41
10.0
 42
10.0
 43
10.0
 50
270.0
  0
INSERT
  5
94C6A
330
94718
100
AcDbEntity
  8
SIZE
  6
Continuous
 62
     0
370
    -2
100
AcDbBlockReference
  2
_ORIGIN
 10
560.2013299190655
 20
-244.0
 30
0.0
 41
10.0
 42
10.0
 43
10.0
 50
90.0
  0
MTEXT
  5
94C6B
330
94718
100
AcDbEntity
  8
SIZE
  6
Continuous
 62
     0
100
AcDbMText
 10
525.2013299190655
 20
-197.2142857142856
 30
0.0
 40
50.0
 41
0.0
 71
     5
 72
     1
  1
\A1;41
 11
0.0000000000000001
 21
1.0
 31
0.0
 73
     1
 44
1.0
1001
ACAD
1000
MTEXTBEGIN
1070
    73
1070
     1
1070
    44
1040
1.0
1070
    74
1070
     0
1000
MTEXTEND
  0
POINT
  5
94C6C
330
94718
100
AcDbEntity
  8
DEFPOINTS
  6
Continuous
 62
     0
100
AcDbPoint
 10
425.0
 20
-285.0000000000001
 30
0.0
  0
POINT
  5
94C6D
330
94718
100
AcDbEntity
  8
DEFPOINTS
  6
Continuous
 62
     0
100
AcDbPoint
 10
465.868709936
 20
-244.0
 30
0.0
  0
POINT
  5
94C6E
330
94718
100
AcDbEntity
  8
DEFPOINTS
  6
Continuous
 62
     0
100
AcDbPoint
 10
560.2013299190655
 20
-244.0
 30
0.0
  0
ENDBLK
  5
9471A
330
94718
100
AcDbEntity
  8
0
100
AcDbBlockEnd
  0
BLOCK
  5
94727
330
94726
100
AcDbEntity
  8
0
100
AcDbBlockBegin
  2
*D5
 70
     1
 10
0.0
 20
0.0
 30
0.0
  3
*D5
  1

  0
LINE
  5
94C6F
330
94726
100
AcDbEntity
  8
SIZE
  6
Continuous
 62
     0
370
    -2
100
AcDbLine
 10
-469.6923373772987
 20
-243.0
 30
0.0
 11
-523.6185652924496
 21
-243.0
 31
0.0
  0
LINE
  5
94C70
330
94726
100
AcDbEntity
  8
SIZE
  6
Continuous
 62
     0
370
    -2
100
AcDbLine
 10
-453.2336312525553
 20
-285.0000000000001
 30
0.0
 11
-523.6185652924497
 21
-285.0000000000001
 31
0.0
  0
LINE
  5
94C71
330
94726
100
AcDbEntity
  8
SIZE
  6
Continuous
 62
     0
370
    -2
100
AcDbLine
 10
-503.6185652924497
 20
-253.0
 30
0.0
 11
-503.6185652924497
 21
-275.0000000000001
 31
0.0
  0
LINE
  5
94C72
330
94726
100
AcDbEntity
  8
SIZE
  6
Continuous
 62
     0
370
    -2
100
AcDbLine
 10
-503.6185652924497
 20
-285.0000000000001
 30
0.0
 11
-503.6185652924498
 21
-387.8571428571429
 31
0.0
  0
INSERT
  5
94C73
330
94726
100
AcDbEntity
  8
SIZE
  6
Continuous
 62
     0
370
    -2
100
AcDbBlockReference
  2
_ORIGIN
 10
-503.6185652924497
 20
-243.0
 30
0.0
 41
10.0
 42
10.0
 43
10.0
 50
90.0
  0
INSERT
  5
94C74
330
94726
100
AcDbEntity
  8
SIZE
  6
Continuous
 62
     0
370
    -2
100
AcDbBlockReference
  2
_ORIGIN
 10
-503.6185652924497
 20
-285.0000000000001
 30
0.0
 41
10.0
 42
10.0
 43
10.0
 50
270.0
  0
MTEXT
  5
94C75
330
94726
100
AcDbEntity
  8
SIZE
  6
Continuous
 62
     0
100
AcDbMText
 10
-538.6185652924496
 20
-341.4285714285716
 30
0.0
 40
50.0
 41
0.0
 71
     5
 72
     1
  1
\A1;42
 11
0.0000000000000001
 21
1.0
 31
0.0
 73
     1
 44
1.0
1001
ACAD
1000
MTEXTBEGIN
1070
    73
1070
     1
1070
    44
1040
1.0
1070
    74
1070
     0
1000
MTEXTEND
  0
POINT
  5
94C76
330
94726
100
AcDbEntity
  8
DEFPOINTS
  6
Continuous
 62
     0
100
AcDbPoint
 10
-449.6923373772987
 20
-243.0
 30
0.0
  0
POINT
  5
94C77
330
94726
100
AcDbEntity
  8
DEFPOINTS
  6
Continuous
 62
     0
100
AcDbPoint
 10
-433.2336312525553
 20
-285.0000000000001
 30
0.0
  0
POINT
  5
94C78
330
94726
100
AcDbEntity
  8
DEFPOINTS
  6
Continuous
 62
     0
100
AcDbPoint
 10
-503.6185652924497
 20
-285.0000000000001
 30
0.0
  0
ENDBLK
  5
94728
330
94726
100
AcDbEntity
  8
0
100
AcDbBlockEnd
  0
BLOCK
  5
94735
330
94734
100
AcDbEntity
  8
0
100
AcDbBlockBegin
  2
*D6
 70
     1
 10
0.0
 20
0.0
 30
0.0
  3
*D6
  1

  0
LINE
  5
94C79
330
94734
100
AcDbEntity
  8
SIZE
  6
Continuous
 62
     0
370
    -2
100
AcDbLine
 10
445.0
 20
20.0
 30
0.0
 11
445.0
 21
149.3926472802269
 31
0.0
  0
LINE
  5
94C7A
330
94734
100
AcDbEntity
  8
SIZE
  6
Continuous
 62
     0
370
    -2
100
AcDbLine
 10
-445.0
 20
0.0
 30
0.0
 11
-445.0
 21
149.3926472802269
 31
0.0
  0
LINE
  5
94C7B
330
94734
100
AcDbEntity
  8
SIZE
  6
Continuous
 62
     0
370
    -2
100
AcDbLine
 10
435.0
 20
129.3926472802269
 30
0.0
 11
-435.0
 21
129.3926472802269
 31
0.0
  0
INSERT
  5
94C7C
330
94734
100
AcDbEntity
  8
SIZE
  6
Continuous
 62
     0
370
    -2
100
AcDbBlockReference
  2
_ORIGIN
 10
445.0
 20
129.3926472802269
 30
0.0
 41
10.0
 42
10.0
 43
10.0
  0
INSERT
  5
94C7D
330
94734
100
AcDbEntity
  8
SIZE
  6
Continuous
 62
     0
370
    -2
100
AcDbBlockReference
  2
_ORIGIN
 10
-445.0
 20
129.3926472802269
 30
0.0
 41
10.0
 42
10.0
 43
10.0
 50
180.0
  0
MTEXT
  5
94C7E
330
94734
100
AcDbEntity
  8
SIZE
  6
Continuous
 62
     0
100
AcDbMText
 10
0.0000000000000021
 20
164.3926472802269
 30
0.0
 40
50.0
 41
0.0
 71
     5
 72
     1
  1
\A1;890
 73
     1
 44
1.0
1001
ACAD
1000
MTEXTBEGIN
1070
    73
1070
     1
1070
    44
1040
1.0
1070
    74
1070
     0
1000
MTEXTEND
  0
POINT
  5
94C7F
330
94734
100
AcDbEntity
  8
DEFPOINTS
  6
Continuous
 62
     0
100
AcDbPoint
 10
445.0
 20
0.0
 30
0.0
  0
POINT
  5
94C80
330
94734
100
AcDbEntity
  8
DEFPOINTS
  6
Continuous
 62
     0
100
AcDbPoint
 10
-445.0
 20
-20.0
 30
0.0
  0
POINT
  5
94C81
330
94734
100
AcDbEntity
  8
DEFPOINTS
  6
Continuous
 62
     0
100
AcDbPoint
 10
-445.0
 20
129.3926472802269
 30
0.0
  0
ENDBLK
  5
94736
330
94734
100
AcDbEntity
  8
0
100
AcDbBlockEnd
  0
BLOCK
  5
94742
330
94741
100
AcDbEntity
  8
0
100
AcDbBlockBegin
  2
*D7
 70
     1
 10
0.0
 20
0.0
 30
0.0
  3
*D7
  1

  0
LINE
  5
94C82
330
94741
100
AcDbEntity
  8
SIZE
  6
Continuous
 62
     0
370
    -2
100
AcDbLine
 10
-465.0
 20
0.0000000000000057
 30
0.0
 11
-557.5688660348097
 21
0.0000000000000319
 31
0.0
  0
LINE
  5
94C83
330
94741
100
AcDbEntity
  8
SIZE
  6
Continuous
 62
     0
370
    -2
100
AcDbLine
 10
-445.0000000000001
 20
-285.0000000000001
 30
0.0
 11
-557.5688660348098
 21
-285.0000000000001
 31
0.0
  0
LINE
  5
94C84
330
94741
100
AcDbEntity
  8
SIZE
  6
Continuous
 62
     0
370
    -2
100
AcDbLine
 10
-537.5688660348097
 20
-9.999999999999973
 30
0.0
 11
-537.5688660348098
 21
-275.0000000000001
 31
0.0
  0
INSERT
  5
94C85
330
94741
100
AcDbEntity
  8
SIZE
  6
Continuous
 62
     0
370
    -2
100
AcDbBlockReference
  2
_ORIGIN
 10
-537.5688660348097
 20
0.0000000000000262
 30
0.0
 41
10.0
 42
10.0
 43
10.0
 50
90.0
  0
INSERT
  5
94C86
330
94741
100
AcDbEntity
  8
SIZE
  6
Continuous
 62
     0
370
    -2
100
AcDbBlockReference
  2
_ORIGIN
 10
-537.5688660348098
 20
-285.0000000000001
 30
0.0
 41
10.0
 42
10.0
 43
10.0
 50
270.0
  0
MTEXT
  5
94C87
330
94741
100
AcDbEntity
  8
SIZE
  6
Continuous
 62
     0
100
AcDbMText
 10
-572.5688660348096
 20
-142.5000000000001
 30
0.0
 40
50.0
 41
0.0
 71
     5
 72
     1
  1
\A1;285
 11
0.0000000000000001
 21
1.0
 31
0.0
 73
     1
 44
1.0
1001
ACAD
1000
MTEXTBEGIN
1070
    73
1070
     1
1070
    44
1040
1.0
1070
    74
1070
     0
1000
MTEXTEND
  0
POINT
  5
94C88
330
94741
100
AcDbEntity
  8
DEFPOINTS
  6
Continuous
 62
     0
100
AcDbPoint
 10
-445.0
 20
0.0
 30
0.0
  0
POINT
  5
94C89
330
94741
100
AcDbEntity
  8
DEFPOINTS
  6
Continuous
 62
     0
100
AcDbPoint
 10
-425.0
 20
-285.0000000000001
 30
0.0
  0
POINT
  5
94C8A
330
94741
100
AcDbEntity
  8
DEFPOINTS
  6
Continuous
 62
     0
100
AcDbPoint
 10
-537.5688660348098
 20
-285.0000000000001
 30
0.0
  0
ENDBLK
  5
94743
330
94741
100
AcDbEntity
  8
0
100
AcDbBlockEnd
  0
BLOCK
  5
94A98
330
94A97
100
AcDbEntity
  8
0
100
AcDbBlockBegin
  2
*D8
 70
     1
 10
0.0
 20
0.0
 30
0.0
  3
*D8
  1

  0
LINE
  5
94A99
330
94A97
100
AcDbEntity
  8
0
  6
Continuous
 62
     0
370
    -2
100
AcDbLine
 10
1911.766740764882
 20
-944.6613171413702
 30
0.0
 11
1927.927457840882
 21
-944.6613171413702
 31
0.0
  0
LINE
  5
94A9A
330
94A97
100
AcDbEntity
  8
0
  6
Continuous
 62
     0
370
    -2
100
AcDbLine
 10
1934.266740764882
 20
-903.6613171413701
 30
0.0
 11
1924.927457840881
 21
-903.6613171413701
 31
0.0
  0
LINE
  5
94A9B
330
94A97
100
AcDbEntity
  8
0
  6
Continuous
 62
     0
370
    -2
100
AcDbLine
 10
1926.427457840881
 20
-941.1613171413701
 30
0.0
 11
1926.427457840881
 21
-907.16131714137
 31
0.0
  0
INSERT
  5
94A9C
330
94A97
100
AcDbEntity
  8
0
  6
Continuous
 62
     0
370
    -2
100
AcDbBlockReference
  2
_FILLED
 10
1926.427457840881
 20
-944.6613171413702
 30
0.0
 41
3.5
 42
3.5
 43
3.5
 50
270.0
  0
INSERT
  5
94A9D
330
94A97
100
AcDbEntity
  8
0
  6
Continuous
 62
     0
370
    -2
100
AcDbBlockReference
  2
_FILLED
 10
1926.427457840881
 20
-903.6613171413701
 30
0.0
 41
3.5
 42
3.5
 43
3.5
 50
90.0
  0
MTEXT
  5
94A9E
330
94A97
100
AcDbEntity
  8
0
  6
Continuous
 62
     0
100
AcDbMText
 10
1922.052457840882
 20
-924.1613171413701
 30
0.0
 40
3.5
 41
0.0
 71
     2
 72
     1
  1
\A1;41
 11
0.0000000000000001
 21
1.0
 31
0.0
 73
     1
 44
1.0
1001
ACAD
1000
MTEXTBEGIN
1070
    73
1070
     1
1070
    44
1040
1.0
1070
    74
1070
     0
1000
MTEXTEND
  0
POINT
  5
94A9F
330
94A97
100
AcDbEntity
  8
DEFPOINTS
  6
Continuous
 62
     0
100
AcDbPoint
 10
1910.766740764882
 20
-944.6613171413702
 30
0.0
  0
POINT
  5
94AA0
330
94A97
100
AcDbEntity
  8
DEFPOINTS
  6
Continuous
 62
     0
100
AcDbPoint
 10
1935.266740764882
 20
-903.6613171413701
 30
0.0
  0
POINT
  5
94AA1
330
94A97
100
AcDbEntity
  8
DEFPOINTS
  6
Continuous
 62
     0
100
AcDbPoint
 10
1926.427457840881
 20
-903.6613171413701
 30
0.0
  0
ENDBLK
  5
94AA2
330
94A97
100
AcDbEntity
  8
0
100
AcDbBlockEnd
  0
BLOCK
  5
94AA4
330
94AA3
100
AcDbEntity
  8
0
100
AcDbBlockBegin
  2
*D9
 70
     1
 10
0.0
 20
0.0
 30
0.0
  3
*D9
  1

  0
LINE
  5
94AA5
330
94AA3
100
AcDbEntity
  8
0
  6
Continuous
 62
     0
370
    -2
100
AcDbLine
 10
997.2667407648819
 20
-902.66131714137
 30
0.0
 11
1004.592790494281
 21
-902.66131714137
 31
0.0
  0
LINE
  5
94AA6
330
94AA3
100
AcDbEntity
  8
0
  6
Continuous
 62
     0
370
    -2
100
AcDbLine
 10
1019.766740764882
 20
-944.6613171413702
 30
0.0
 11
1001.592790494282
 21
-944.6613171413702
 31
0.0
  0
LINE
  5
94AA7
330
94AA3
100
AcDbEntity
  8
0
  6
Continuous
 62
     0
370
    -2
100
AcDbLine
 10
1003.092790494281
 20
-906.16131714137
 30
0.0
 11
1003.092790494281
 21
-941.1613171413701
 31
0.0
  0
INSERT
  5
94AA8
330
94AA3
100
AcDbEntity
  8
0
  6
Continuous
 62
     0
370
    -2
100
AcDbBlockReference
  2
_FILLED
 10
1003.092790494281
 20
-902.66131714137
 30
0.0
 41
3.5
 42
3.5
 43
3.5
 50
90.0
  0
INSERT
  5
94AA9
330
94AA3
100
AcDbEntity
  8
0
  6
Continuous
 62
     0
370
    -2
100
AcDbBlockReference
  2
_FILLED
 10
1003.092790494281
 20
-944.6613171413702
 30
0.0
 41
3.5
 42
3.5
 43
3.5
 50
270.0
  0
MTEXT
  5
94AAA
330
94AA3
100
AcDbEntity
  8
0
  6
Continuous
 62
     0
100
AcDbMText
 10
998.7177904942818
 20
-923.6613171413701
 30
0.0
 40
3.5
 41
0.0
 71
     2
 72
     1
  1
\A1;42
 11
0.0000000000000001
 21
1.0
 31
0.0
 73
     1
 44
1.0
1001
ACAD
1000
MTEXTBEGIN
1070
    73
1070
     1
1070
    44
1040
1.0
1070
    74
1070
     0
1000
MTEXTEND
  0
POINT
  5
94AAB
330
94AA3
100
AcDbEntity
  8
DEFPOINTS
  6
Continuous
 62
     0
100
AcDbPoint
 10
996.2667407648819
 20
-902.66131714137
 30
0.0
  0
POINT
  5
94AAC
330
94AA3
100
AcDbEntity
  8
DEFPOINTS
  6
Continuous
 62
     0
100
AcDbPoint
 10
1020.766740764882
 20
-944.6613171413702
 30
0.0
  0
POINT
  5
94AAD
330
94AA3
100
AcDbEntity
  8
DEFPOINTS
  6
Continuous
 62
     0
100
AcDbPoint
 10
1003.092790494281
 20
-944.6613171413702
 30
0.0
  0
ENDBLK
  5
94AAE
330
94AA3
100
AcDbEntity
  8
0
100
AcDbBlockEnd
  0
BLOCK
  5
94AB0
330
94AAF
100
AcDbEntity
  8
0
100
AcDbBlockBegin
  2
*D10
 70
     1
 10
0.0
 20
0.0
 30
0.0
  3
*D10
  1

  0
LINE
  5
94AB1
330
94AAF
100
AcDbEntity
  8
0
  6
Continuous
 62
     0
370
    -2
100
AcDbLine
 10
1068.766740764882
 20
-974.1613171413701
 30
0.0
 11
1068.766740764882
 21
-973.6181122734702
 31
0.0
  0
LINE
  5
94AB2
330
94AAF
100
AcDbEntity
  8
0
  6
Continuous
 62
     0
370
    -2
100
AcDbLine
 10
1465.766740764882
 20
-978.5765885173702
 30
0.0
 11
1465.766740764882
 21
-973.6181122734702
 31
0.0
  0
LINE
  5
94AB3
330
94AAF
100
AcDbEntity
  8
0
  6
Continuous
 62
     0
370
    -2
100
AcDbLine
 10
1072.266740764882
 20
-975.1181122734703
 30
0.0
 11
1462.266740764882
 21
-975.1181122734703
 31
0.0
  0
INSERT
  5
94AB4
330
94AAF
100
AcDbEntity
  8
0
  6
Continuous
 62
     0
370
    -2
100
AcDbBlockReference
  2
_FILLED
 10
1068.766740764882
 20
-975.1181122734703
 30
0.0
 41
3.5
 42
3.5
 43
3.5
 50
180.0
  0
INSERT
  5
94AB5
330
94AAF
100
AcDbEntity
  8
0
  6
Continuous
 62
     0
370
    -2
100
AcDbBlockReference
  2
_FILLED
 10
1465.766740764882
 20
-975.1181122734703
 30
0.0
 41
3.5
 42
3.5
 43
3.5
  0
MTEXT
  5
94AB6
330
94AAF
100
AcDbEntity
  8
0
  6
Continuous
 62
     0
100
AcDbMText
 10
1267.266740764882
 20
-970.7431122734702
 30
0.0
 40
3.5
 41
0.0
 71
     2
 72
     1
  1
\A1;397
 73
     1
 44
1.0
1001
ACAD
1000
MTEXTBEGIN
1070
    73
1070
     1
1070
    44
1040
1.0
1070
    74
1070
     0
1000
MTEXTEND
  0
POINT
  5
94AB7
330
94AAF
100
AcDbEntity
  8
DEFPOINTS
  6
Continuous
 62
     0
100
AcDbPoint
 10
1068.766740764882
 20
-975.1613171413701
 30
0.0
  0
POINT
  5
94AB8
330
94AAF
100
AcDbEntity
  8
DEFPOINTS
  6
Continuous
 62
     0
100
AcDbPoint
 10
1465.766740764882
 20
-979.5765885173702
 30
0.0
  0
POINT
  5
94AB9
330
94AAF
100
AcDbEntity
  8
DEFPOINTS
  6
Continuous
 62
     0
100
AcDbPoint
 10
1465.766740764882
 20
-975.1181122734703
 30
0.0
  0
ENDBLK
  5
94ABA
330
94AAF
100
AcDbEntity
  8
0
100
AcDbBlockEnd
  0
BLOCK
  5
94ABC
330
94ABB
100
AcDbEntity
  8
0
100
AcDbBlockBegin
  2
*D11
 70
     1
 10
0.0
 20
0.0
 30
0.0
  3
*D11
  1

  0
LINE
  5
94ABD
330
94ABB
100
AcDbEntity
  8
0
  6
Continuous
 62
     0
370
    -2
100
AcDbLine
 10
1465.766740764882
 20
-980.5765885173702
 30
0.0
 11
1465.766740764882
 21
-984.8272641933702
 31
0.0
  0
LINE
  5
94ABE
330
94ABB
100
AcDbEntity
  8
0
  6
Continuous
 62
     0
370
    -2
100
AcDbLine
 10
1862.766740764882
 20
-977.1613171413703
 30
0.0
 11
1862.766740764882
 21
-984.8272641933702
 31
0.0
  0
LINE
  5
94ABF
330
94ABB
100
AcDbEntity
  8
0
  6
Continuous
 62
     0
370
    -2
100
AcDbLine
 10
1469.266740764882
 20
-983.3272641933701
 30
0.0
 11
1859.266740764882
 21
-983.3272641933701
 31
0.0
  0
INSERT
  5
94AC0
330
94ABB
100
AcDbEntity
  8
0
  6
Continuous
 62
     0
370
    -2
100
AcDbBlockReference
  2
_FILLED
 10
1465.766740764882
 20
-983.3272641933701
 30
0.0
 41
3.5
 42
3.5
 43
3.5
 50
180.0
  0
INSERT
  5
94AC1
330
94ABB
100
AcDbEntity
  8
0
  6
Continuous
 62
     0
370
    -2
100
AcDbBlockReference
  2
_FILLED
 10
1862.766740764882
 20
-983.3272641933701
 30
0.0
 41
3.5
 42
3.5
 43
3.5
  0
MTEXT
  5
94AC2
330
94ABB
100
AcDbEntity
  8
0
  6
Continuous
 62
     0
100
AcDbMText
 10
1664.266740764882
 20
-978.9522641933702
 30
0.0
 40
3.5
 41
0.0
 71
     2
 72
     1
  1
\A1;397
 73
     1
 44
1.0
1001
ACAD
1000
MTEXTBEGIN
1070
    73
1070
     1
1070
    44
1040
1.0
1070
    74
1070
     0
1000
MTEXTEND
  0
POINT
  5
94AC3
330
94ABB
100
AcDbEntity
  8
DEFPOINTS
  6
Continuous
 62
     0
100
AcDbPoint
 10
1465.766740764882
 20
-979.5765885173702
 30
0.0
  0
POINT
  5
94AC4
330
94ABB
100
AcDbEntity
  8
DEFPOINTS
  6
Continuous
 62
     0
100
AcDbPoint
 10
1862.766740764882
 20
-976.1613171413701
 30
0.0
  0
POINT
  5
94AC5
330
94ABB
100
AcDbEntity
  8
DEFPOINTS
  6
Continuous
 62
     0
100
AcDbPoint
 10
1862.766740764882
 20
-983.3272641933701
 30
0.0
  0
ENDBLK
  5
94AC6
330
94ABB
100
AcDbEntity
  8
0
100
AcDbBlockEnd
  0
BLOCK
  5
94AC8
330
94AC7
100
AcDbEntity
  8
0
100
AcDbBlockBegin
  2
*D12
 70
     1
 10
0.0
 20
0.0
 30
0.0
  3
*D12
  1

  0
LINE
  5
94AC9
330
94AC7
100
AcDbEntity
  8
0
  6
Continuous
 62
     0
370
    -2
100
AcDbLine
 10
1862.766740764882
 20
-977.1613171413703
 30
0.0
 11
1862.766740764882
 21
-981.8421180406701
 31
0.0
  0
LINE
  5
94ACA
330
94AC7
100
AcDbEntity
  8
0
  6
Continuous
 62
     0
370
    -2
100
AcDbLine
 10
1910.766740764882
 20
-945.6613171413701
 30
0.0
 11
1910.766740764882
 21
-981.8421180406701
 31
0.0
  0
LINE
  5
94ACB
330
94AC7
100
AcDbEntity
  8
0
  6
Continuous
 62
     0
370
    -2
100
AcDbLine
 10
1866.266740764882
 20
-980.3421180406701
 30
0.0
 11
1907.266740764882
 21
-980.3421180406701
 31
0.0
  0
INSERT
  5
94ACC
330
94AC7
100
AcDbEntity
  8
0
  6
Continuous
 62
     0
370
    -2
100
AcDbBlockReference
  2
_FILLED
 10
1862.766740764882
 20
-980.3421180406701
 30
0.0
 41
3.5
 42
3.5
 43
3.5
 50
180.0
  0
INSERT
  5
94ACD
330
94AC7
100
AcDbEntity
  8
0
  6
Continuous
 62
     0
370
    -2
100
AcDbBlockReference
  2
_FILLED
 10
1910.766740764882
 20
-980.3421180406701
 30
0.0
 41
3.5
 42
3.5
 43
3.5
  0
MTEXT
  5
94ACE
330
94AC7
100
AcDbEntity
  8
0
  6
Continuous
 62
     0
100
AcDbMText
 10
1886.766740764882
 20
-975.9671180406702
 30
0.0
 40
3.5
 41
0.0
 71
     2
 72
     1
  1
\A1;48
 73
     1
 44
1.0
1001
ACAD
1000
MTEXTBEGIN
1070
    73
1070
     1
1070
    44
1040
1.0
1070
    74
1070
     0
1000
MTEXTEND
  0
POINT
  5
94ACF
330
94AC7
100
AcDbEntity
  8
DEFPOINTS
  6
Continuous
 62
     0
100
AcDbPoint
 10
1862.766740764882
 20
-976.1613171413701
 30
0.0
  0
POINT
  5
94AD0
330
94AC7
100
AcDbEntity
  8
DEFPOINTS
  6
Continuous
 62
     0
100
AcDbPoint
 10
1910.766740764882
 20
-944.6613171413702
 30
0.0
  0
POINT
  5
94AD1
330
94AC7
100
AcDbEntity
  8
DEFPOINTS
  6
Continuous
 62
     0
100
AcDbPoint
 10
1910.766740764882
 20
-980.3421180406701
 30
0.0
  0
ENDBLK
  5
94AD2
330
94AC7
100
AcDbEntity
  8
0
100
AcDbBlockEnd
  0
BLOCK
  5
94AD4
330
94AD3
100
AcDbEntity
  8
0
100
AcDbBlockBegin
  2
*D13
 70
     1
 10
0.0
 20
0.0
 30
0.0
  3
*D13
  1

  0
LINE
  5
94AD5
330
94AD3
100
AcDbEntity
  8
0
  6
Continuous
 62
     0
370
    -2
100
AcDbLine
 10
1068.766740764882
 20
-974.1613171413701
 30
0.0
 11
1068.766740764882
 21
-967.0209392759701
 31
0.0
  0
LINE
  5
94AD6
330
94AD3
100
AcDbEntity
  8
0
  6
Continuous
 62
     0
370
    -2
100
AcDbLine
 10
1020.766740764882
 20
-945.6613171413701
 30
0.0
 11
1020.766740764882
 21
-970.0209392759703
 31
0.0
  0
LINE
  5
94AD7
330
94AD3
100
AcDbEntity
  8
0
  6
Continuous
 62
     0
370
    -2
100
AcDbLine
 10
1065.266740764882
 20
-968.5209392759702
 30
0.0
 11
1024.266740764882
 21
-968.5209392759702
 31
0.0
  0
INSERT
  5
94AD8
330
94AD3
100
AcDbEntity
  8
0
  6
Continuous
 62
     0
370
    -2
100
AcDbBlockReference
  2
_FILLED
 10
1068.766740764882
 20
-968.5209392759702
 30
0.0
 41
3.5
 42
3.5
 43
3.5
  0
INSERT
  5
94AD9
330
94AD3
100
AcDbEntity
  8
0
  6
Continuous
 62
     0
370
    -2
100
AcDbBlockReference
  2
_FILLED
 10
1020.766740764882
 20
-968.5209392759702
 30
0.0
 41
3.5
 42
3.5
 43
3.5
 50
180.0
  0
MTEXT
  5
94ADA
330
94AD3
100
AcDbEntity
  8
0
  6
Continuous
 62
     0
100
AcDbMText
 10
1044.766740764882
 20
-964.1459392759703
 30
0.0
 40
3.5
 41
0.0
 71
     2
 72
     1
  1
\A1;48
 73
     1
 44
1.0
1001
ACAD
1000
MTEXTBEGIN
1070
    73
1070
     1
1070
    44
1040
1.0
1070
    74
1070
     0
1000
MTEXTEND
  0
POINT
  5
94ADB
330
94AD3
100
AcDbEntity
  8
DEFPOINTS
  6
Continuous
 62
     0
100
AcDbPoint
 10
1068.766740764882
 20
-975.1613171413701
 30
0.0
  0
POINT
  5
94ADC
330
94AD3
100
AcDbEntity
  8
DEFPOINTS
  6
Continuous
 62
     0
100
AcDbPoint
 10
1020.766740764882
 20
-944.6613171413702
 30
0.0
  0
POINT
  5
94ADD
330
94AD3
100
AcDbEntity
  8
DEFPOINTS
  6
Continuous
 62
     0
100
AcDbPoint
 10
1020.766740764882
 20
-968.5209392759702
 30
0.0
  0
ENDBLK
  5
94ADE
330
94AD3
100
AcDbEntity
  8
0
100
AcDbBlockEnd
  0
BLOCK
  5
94AE0
330
94ADF
100
AcDbEntity
  8
0
100
AcDbBlockBegin
  2
*D14
 70
     1
 10
0.0
 20
0.0
 30
0.0
  3
*D14
  1

  0
LINE
  5
94AE1
330
94ADF
100
AcDbEntity
  8
0
  6
Continuous
 62
     0
370
    -2
100
AcDbLine
 10
1020.766740764882
 20
-658.66131714137
 30
0.0
 11
1020.766740764882
 21
-600.3759602201703
 31
0.0
  0
LINE
  5
94AE2
330
94ADF
100
AcDbEntity
  8
0
  6
Continuous
 62
     0
370
    -2
100
AcDbLine
 10
1910.766740764882
 20
-658.66131714137
 30
0.0
 11
1910.766740764882
 21
-600.3759602201703
 31
0.0
  0
LINE
  5
94AE3
330
94ADF
100
AcDbEntity
  8
0
  6
Continuous
 62
     0
370
    -2
100
AcDbLine
 10
1024.266740764882
 20
-601.8759602201703
 30
0.0
 11
1907.266740764882
 21
-601.8759602201703
 31
0.0
  0
INSERT
  5
94AE4
330
94ADF
100
AcDbEntity
  8
0
  6
Continuous
 62
     0
370
    -2
100
AcDbBlockReference
  2
_FILLED
 10
1020.766740764882
 20
-601.8759602201703
 30
0.0
 41
3.5
 42
3.5
 43
3.5
 50
180.0
  0
INSERT
  5
94AE5
330
94ADF
100
AcDbEntity
  8
0
  6
Continuous
 62
     0
370
    -2
100
AcDbBlockReference
  2
_FILLED
 10
1910.766740764882
 20
-601.8759602201703
 30
0.0
 41
3.5
 42
3.5
 43
3.5
  0
MTEXT
  5
94AE6
330
94ADF
100
AcDbEntity
  8
0
  6
Continuous
 62
     0
100
AcDbMText
 10
1465.766740764882
 20
-597.5009602201703
 30
0.0
 40
3.5
 41
0.0
 71
     2
 72
     1
  1
\A1;890
 73
     1
 44
1.0
1001
ACAD
1000
MTEXTBEGIN
1070
    73
1070
     1
1070
    44
1040
1.0
1070
    74
1070
     0
1000
MTEXTEND
  0
POINT
  5
94AE7
330
94ADF
100
AcDbEntity
  8
DEFPOINTS
  6
Continuous
 62
     0
100
AcDbPoint
 10
1020.766740764882
 20
-659.66131714137
 30
0.0
  0
POINT
  5
94AE8
330
94ADF
100
AcDbEntity
  8
DEFPOINTS
  6
Continuous
 62
     0
100
AcDbPoint
 10
1910.766740764882
 20
-659.66131714137
 30
0.0
  0
POINT
  5
94AE9
330
94ADF
100
AcDbEntity
  8
DEFPOINTS
  6
Continuous
 62
     0
100
AcDbPoint
 10
1910.766740764882
 20
-601.8759602201703
 30
0.0
  0
ENDBLK
  5
94AEA
330
94ADF
100
AcDbEntity
  8
0
100
AcDbBlockEnd
  0
BLOCK
  5
94BB5
330
94AEB
100
AcDbEntity
  8
0
100
AcDbBlockBegin
  2
A$C23660A5B
 70
     0
 10
0.0
 20
0.0
 30
0.0
  3
A$C23660A5B
  1

  0
DIMENSION
  5
94AEC
330
94AEB
100
AcDbEntity
  8
0
  6
Continuous
 62
     2
100
AcDbDimension
  2
*D8
 10
930.1607158882246
 20
81.1659442991222
 30
0.0
 11
930.1607158882248
 21
60.6659442991222
 31
0.0
 12
-996.2667419526569
 22
984.8272614404923
 32
0.0
 70
   128
 71
     2
 42
41.00000000000011
  3
DIMSTYLE_1
100
AcDbAlignedDimension
 13
914.4999988122249
 23
40.16594429912209
 33
0.0
 14
938.999998812225
 24
81.1659442991222
 34
0.0
 50
90.0
100
AcDbRotatedDimension
  0
DIMENSION
  5
94AED
330
94AEB
100
AcDbEntity
  8
0
  6
Continuous
 62
     2
100
AcDbDimension
  2
*D9
 10
6.826048541624686
 20
40.16594429912209
 30
0.0
 11
6.826048541624913
 21
61.1659442991222
 31
0.0
 12
-996.2667419526569
 22
984.8272614404923
 32
0.0
 70
   128
 71
     2
 42
42.00000000000011
  3
DIMSTYLE_1
100
AcDbAlignedDimension
 13
-0.0000011877750694
 23
82.1659442991222
 33
0.0
 14
24.49999881222493
 24
40.16594429912209
 34
0.0
 50
270.0
100
AcDbRotatedDimension
  0
DIMENSION
  5
94AEE
330
94AEB
100
AcDbEntity
  8
0
  6
Continuous
 62
     2
100
AcDbDimension
  2
*D10
 10
469.4999988122249
 20
9.709149167022019
 30
0.0
 11
270.9999988122249
 21
9.709149167022019
 31
0.0
 12
-996.2667419526569
 22
984.8272614404923
 32
0.0
 70
   128
 71
     2
 42
397.0
  3
DIMSTYLE_1
100
AcDbAlignedDimension
 13
72.49999881222493
 23
9.665944299122088
 33
0.0
 14
469.4999988122249
 24
5.25067292312201
 34
0.0
100
AcDbRotatedDimension
  0
DIMENSION
  5
94AEF
330
94AEB
100
AcDbEntity
  8
0
  6
Continuous
 62
     2
100
AcDbDimension
  2
*D11
 10
866.4999988122248
 20
1.499997247122109
 30
0.0
 11
667.9999988122249
 21
1.499997247122109
 31
0.0
 12
-996.2667419526569
 22
984.8272614404923
 32
0.0
 70
   128
 71
     2
 42
397.0
  3
DIMSTYLE_1
100
AcDbAlignedDimension
 13
469.4999988122249
 23
5.25067292312201
 33
0.0
 14
866.4999988122248
 24
8.665944299122088
 34
0.0
100
AcDbRotatedDimension
  0
DIMENSION
  5
94AF0
330
94AEB
100
AcDbEntity
  8
0
  6
Continuous
 62
     2
100
AcDbDimension
  2
*D12
 10
914.4999988122249
 20
4.485143399822163
 30
0.0
 11
890.4999988122249
 21
4.485143399822163
 31
0.0
 12
-996.2667419526569
 22
984.8272614404923
 32
0.0
 70
   128
 71
     2
 42
48.0
  3
DIMSTYLE_1
100
AcDbAlignedDimension
 13
866.4999988122248
 23
8.665944299122088
 33
0.0
 14
914.4999988122249
 24
40.16594429912209
 34
0.0
100
AcDbRotatedDimension
  0
DIMENSION
  5
94AF1
330
94AEB
100
AcDbEntity
  8
0
  6
Continuous
 62
     2
100
AcDbDimension
  2
*D13
 10
24.49999881222493
 20
16.30632216452204
 30
0.0
 11
48.49999881222493
 21
16.30632216452204
 31
0.0
 12
-996.2667419526569
 22
984.8272614404923
 32
0.0
 70
   128
 71
     2
 42
48.0
  3
DIMSTYLE_1
100
AcDbAlignedDimension
 13
72.49999881222493
 23
9.665944299122088
 33
0.0
 14
24.49999881222493
 24
40.16594429912209
 34
0.0
 50
180.0
100
AcDbRotatedDimension
  0
DIMENSION
  5
94AF2
330
94AEB
100
AcDbEntity
  8
0
  6
Continuous
 62
     2
100
AcDbDimension
  2
*D14
 10
914.4999988122249
 20
382.951301220322
 30
0.0
 11
469.4999988122249
 21
382.951301220322
 31
0.0
 12
-996.2667419526569
 22
984.8272614404923
 32
0.0
 70
   128
 71
     2
 42
890.0
  3
DIMSTYLE_1
100
AcDbAlignedDimension
 13
24.49999881222493
 23
325.1659442991222
 33
0.0
 14
914.4999988122249
 24
325.1659442991222
 34
0.0
100
AcDbRotatedDimension
  0
LINE
  5
94AF3
330
94AEB
100
AcDbEntity
  8
DEFAULT_1
  6
CENTER
 62
     7
100
AcDbLine
 10
24.49999881222493
 20
325.1659442991222
 30
0.0
 11
24.49999881222493
 21
40.16594429912209
 31
0.0
  0
LINE
  5
94AF4
330
94AEB
100
AcDbEntity
  8
DEFAULT_1
  6
CENTER
 62
     2
100
AcDbLine
 10
72.49999881222493
 20
9.665944299122088
 30
0.0
 11
72.49999881222493
 21
154.6659442991222
 31
0.0
  0
LINE
  5
94AF5
330
94AEB
100
AcDbEntity
  8
0
  6
Continuous
 62
     3
100
AcDbLine
 10
91.49999881222493
 20
303.0659442991221
 30
0.0
 11
91.49999881222493
 21
217.1659442991222
 31
0.0
  0
LINE
  5
94AF6
330
94AEB
100
AcDbEntity
  8
0
  6
Continuous
 62
     3
100
AcDbLine
 10
91.49999881222493
 20
200.1659442991222
 30
0.0
 11
91.49999881222493
 21
159.7659442991221
 31
0.0
  0
LINE
  5
94AF7
330
94AEB
100
AcDbEntity
  8
0
  6
Continuous
 62
     7
100
AcDbLine
 10
94.49999881222494
 20
213.1659442991222
 30
0.0
 11
94.49999881222494
 21
204.1659442991222
 31
0.0
  0
LINE
  5
94AF8
330
94AEB
100
AcDbEntity
  8
0
  6
Continuous
 62
     3
100
AcDbLine
 10
154.6999988122252
 20
99.76594429912211
 30
0.0
 11
154.6999988122252
 21
43.76675905512229
 31
0.0
  0
LINE
  5
94AF9
330
94AEB
100
AcDbEntity
  8
0
  6
Continuous
 62
     3
100
AcDbLine
 10
155.2999988122251
 20
43.16675906452201
 30
0.0
 11
155.2999988122251
 21
43.16602830452199
 31
0.0
  0
LINE
  5
94AFA
330
94AEB
100
AcDbEntity
  8
0
  6
Continuous
 62
     7
100
AcDbLine
 10
238.9999988122249
 20
288.1659442991222
 30
0.0
 11
238.9999988122249
 21
279.1659442991222
 31
0.0
  0
LINE
  5
94AFB
330
94AEB
100
AcDbEntity
  8
DEFAULT_1
  6
CENTER
 62
     2
100
AcDbLine
 10
244.4999988122249
 20
238.1659442991222
 30
0.0
 11
244.4999988122249
 21
329.1659442991222
 31
0.0
  0
LINE
  5
94AFC
330
94AEB
100
AcDbEntity
  8
0
  6
Continuous
 62
     7
100
AcDbLine
 10
249.9999988122249
 20
279.1659442991222
 30
0.0
 11
249.9999988122249
 21
288.1659442991222
 31
0.0
  0
LINE
  5
94AFD
330
94AEB
100
AcDbEntity
  8
DEFAULT_1
  6
CENTER
 62
     2
100
AcDbLine
 10
469.4999988122249
 20
198.6659442991222
 30
0.0
 11
469.4999988122249
 21
5.25067292312201
 31
0.0
  0
LINE
  5
94AFE
330
94AEB
100
AcDbEntity
  8
DEFAULT_1
  6
CENTER
 62
     2
100
AcDbLine
 10
469.4999988122249
 20
228.6659442991222
 30
0.0
 11
469.4999988122249
 21
343.6660442991222
 31
0.0
  0
LINE
  5
94AFF
330
94AEB
100
AcDbEntity
  8
DEFAULT_1
  6
CENTER
 62
     2
100
AcDbLine
 10
694.4999988122249
 20
238.1659442991222
 30
0.0
 11
694.4999988122249
 21
329.1659442991222
 31
0.0
  0
LINE
  5
94B00
330
94AEB
100
AcDbEntity
  8
0
  6
Continuous
 62
     3
100
AcDbLine
 10
785.899998812225
 20
43.16675906452201
 30
0.0
 11
785.899998812225
 21
43.16602830452199
 31
0.0
  0
LINE
  5
94B01
330
94AEB
100
AcDbEntity
  8
0
  6
Continuous
 62
     3
100
AcDbLine
 10
786.4999988122249
 20
99.76594429912211
 30
0.0
 11
786.4999988122249
 21
43.76675905512229
 31
0.0
  0
LINE
  5
94B02
330
94AEB
100
AcDbEntity
  8
0
  6
Continuous
 62
     7
100
AcDbLine
 10
844.4999988122249
 20
204.1659442991222
 30
0.0
 11
844.4999988122249
 21
213.1659442991222
 31
0.0
  0
LINE
  5
94B03
330
94AEB
100
AcDbEntity
  8
0
  6
Continuous
 62
     3
100
AcDbLine
 10
847.4999988122249
 20
200.1659442991222
 30
0.0
 11
847.4999988122249
 21
159.7659442991221
 31
0.0
  0
LINE
  5
94B04
330
94AEB
100
AcDbEntity
  8
0
  6
Continuous
 62
     3
100
AcDbLine
 10
847.4999988122249
 20
217.1659442991222
 30
0.0
 11
847.4999988122249
 21
303.0659442991221
 31
0.0
  0
LINE
  5
94B05
330
94AEB
100
AcDbEntity
  8
DEFAULT_1
  6
CENTER
 62
     2
100
AcDbLine
 10
866.4999988122248
 20
8.665944299122088
 30
0.0
 11
866.4999988122248
 21
153.6659442991222
 31
0.0
  0
LINE
  5
94B06
330
94AEB
100
AcDbEntity
  8
DEFAULT_1
  6
CENTER
 62
     7
100
AcDbLine
 10
914.4999988122249
 20
325.1659442991222
 30
0.0
 11
914.4999988122249
 21
40.16594429912209
 31
0.0
  0
LINE
  5
94B07
330
94AEB
100
AcDbEntity
  8
0
  6
Continuous
 62
     3
100
AcDbLine
 10
451.942104284225
 20
292.0877259645219
 30
0.0
 11
451.999023366925
 21
292.392604084522
 31
0.0
  0
LINE
  5
94B08
330
94AEB
100
AcDbEntity
  8
0
  6
Continuous
 62
     3
100
AcDbLine
 10
451.917522020225
 20
291.962137877822
 30
0.0
 11
451.942104284225
 21
292.0877259645219
 31
0.0
  0
LINE
  5
94B09
330
94AEB
100
AcDbEntity
  8
0
  6
Continuous
 62
     3
100
AcDbLine
 10
451.9055740576249
 20
291.9032704285221
 30
0.0
 11
451.917522020225
 21
291.962137877822
 31
0.0
  0
LINE
  5
94B0A
330
94AEB
100
AcDbEntity
  8
0
  6
Continuous
 62
     3
100
AcDbLine
 10
451.893921926925
 20
291.8472800551222
 30
0.0
 11
451.9055740576249
 21
291.9032704285221
 31
0.0
  0
LINE
  5
94B0B
330
94AEB
100
AcDbEntity
  8
0
  6
Continuous
 62
     3
100
AcDbLine
 10
451.8825609896248
 20
291.7941229058222
 30
0.0
 11
451.893921926925
 21
291.8472800551222
 31
0.0
  0
LINE
  5
94B0C
330
94AEB
100
AcDbEntity
  8
0
  6
Continuous
 62
     3
100
AcDbLine
 10
451.8715114696251
 20
291.7439396151221
 30
0.0
 11
451.8825609896248
 21
291.7941229058222
 31
0.0
  0
LINE
  5
94B0D
330
94AEB
100
AcDbEntity
  8
0
  6
Continuous
 62
     3
100
AcDbLine
 10
737.7594102269249
 20
305.4020696698221
 30
0.0
 11
737.8574882442253
 21
305.834936111122
 31
0.0
  0
LINE
  5
94B0E
330
94AEB
100
AcDbEntity
  8
0
  6
Continuous
 62
     3
100
AcDbLine
 10
160.8574882442249
 20
305.834936111122
 30
0.0
 11
160.7247123802249
 21
305.2509322271221
 31
0.0
  0
LINE
  5
94B0F
330
94AEB
100
AcDbEntity
  8
0
  6
Continuous
 62
     3
100
AcDbLine
 10
451.8537380482253
 20
291.6659442991222
 30
0.0
 11
451.8715114696251
 21
291.7439396151221
 31
0.0
  0
LINE
  5
94B10
330
94AEB
100
AcDbEntity
  8
0
  6
Continuous
 62
     3
100
AcDbLine
 10
737.6958691869249
 20
305.1268115671221
 30
0.0
 11
737.7594102269249
 21
305.4020696698221
 31
0.0
  0
LINE
  5
94B11
330
94AEB
100
AcDbEntity
  8
0
  6
Continuous
 62
     3
100
AcDbLine
 10
160.7247123802249
 20
305.2509322271221
 30
0.0
 11
160.6623170429252
 21
304.9845413618223
 31
0.0
  0
LINE
  5
94B12
330
94AEB
100
AcDbEntity
  8
0
  6
Continuous
 62
     3
100
AcDbLine
 10
737.634554962925
 20
304.8688345405221
 30
0.0
 11
737.6958691869249
 21
305.1268115671221
 31
0.0
  0
LINE
  5
94B13
330
94AEB
100
AcDbEntity
  8
0
  6
Continuous
 62
     3
100
AcDbLine
 10
160.6623170429252
 20
304.9845413618223
 30
0.0
 11
160.6319959829252
 21
304.8582736031221
 31
0.0
  0
LINE
  5
94B14
330
94AEB
100
AcDbEntity
  8
0
  6
Continuous
 62
     3
100
AcDbLine
 10
737.6047500936252
 20
304.747034344522
 30
0.0
 11
737.634554962925
 21
304.8688345405221
 31
0.0
  0
LINE
  5
94B15
330
94AEB
100
AcDbEntity
  8
0
  6
Continuous
 62
     3
100
AcDbLine
 10
160.6319959829252
 20
304.8582736031221
 30
0.0
 11
160.6022332562252
 21
304.7368751218221
 31
0.0
  0
LINE
  5
94B16
330
94AEB
100
AcDbEntity
  8
0
  6
Continuous
 62
     3
100
AcDbLine
 10
737.5755627682247
 20
304.6305193111221
 30
0.0
 11
737.6047500936252
 21
304.747034344522
 31
0.0
  0
LINE
  5
94B17
330
94AEB
100
AcDbEntity
  8
0
  6
Continuous
 62
     3
100
AcDbLine
 10
160.6022332562252
 20
304.7368751218221
 30
0.0
 11
160.573091530925
 21
304.6207887671221
 31
0.0
  0
LINE
  5
94B18
330
94AEB
100
AcDbEntity
  8
0
  6
Continuous
 62
     3
100
AcDbLine
 10
737.547003884225
 20
304.5194153111222
 30
0.0
 11
737.5755627682247
 21
304.6305193111221
 31
0.0
  0
LINE
  5
94B19
330
94AEB
100
AcDbEntity
  8
0
  6
Continuous
 62
     3
100
AcDbLine
 10
160.573091530925
 20
304.6207887671221
 30
0.0
 11
160.5445774255249
 21
304.5101152631221
 31
0.0
  0
LINE
  5
94B1A
330
94AEB
100
AcDbEntity
  8
0
  6
Continuous
 62
     3
100
AcDbLine
 10
737.5190669002249
 20
304.4137471365222
 30
0.0
 11
737.547003884225
 21
304.5194153111222
 31
0.0
  0
LINE
  5
94B1B
330
94AEB
100
AcDbEntity
  8
0
  6
Continuous
 62
     3
100
AcDbLine
 10
160.5445774255249
 20
304.5101152631221
 30
0.0
 11
160.516680544225
 21
304.404868787122
 31
0.0
  0
LINE
  5
94B1C
330
94AEB
100
AcDbEntity
  8
0
  6
Continuous
 62
     3
100
AcDbLine
 10
160.8536425429251
 20
305.8212357258221
 30
0.0
 11
162.716670305525
 21
312.7741499965223
 31
0.0
  0
LINE
  5
94B1D
330
94AEB
100
AcDbEntity
  8
0
  6
Continuous
 62
     3
100
AcDbLine
 10
739.7166703056245
 20
312.7741499965223
 30
0.0
 11
737.8536425429252
 21
305.8212357258221
 31
0.0
  0
LINE
  5
94B1E
330
94AEB
100
AcDbEntity
  8
0
  6
Continuous
 62
     3
100
AcDbLine
 10
456.7585864962252
 20
310.0977364951223
 30
0.0
 11
451.9958406589248
 21
292.4005278498221
 31
0.0
  0
LINE
  5
94B1F
330
94AEB
100
AcDbEntity
  8
0
  6
Continuous
 62
     3
100
AcDbLine
 10
737.4917211095248
 20
304.313500779122
 30
0.0
 11
737.5190669002249
 21
304.4137471365222
 31
0.0
  0
LINE
  5
94B20
330
94AEB
100
AcDbEntity
  8
0
  6
Continuous
 62
     3
100
AcDbLine
 10
160.516680544225
 20
304.404868787122
 30
0.0
 11
160.4893694829252
 21
304.3050381338221
 31
0.0
  0
LINE
  5
94B21
330
94AEB
100
AcDbEntity
  8
0
  6
Continuous
 62
     3
100
AcDbLine
 10
737.4649416256247
 20
304.2187068965223
 30
0.0
 11
737.4917211095248
 21
304.313500779122
 31
0.0
  0
LINE
  5
94B22
330
94AEB
100
AcDbEntity
  8
0
  6
Continuous
 62
     3
100
AcDbLine
 10
160.4893694829252
 20
304.3050381338221
 30
0.0
 11
160.4626259522251
 21
304.2106764591222
 31
0.0
  0
LINE
  5
94B23
330
94AEB
100
AcDbEntity
  8
0
  6
Continuous
 62
     3
100
AcDbLine
 10
458.3382104629249
 20
315.6204810311221
 30
0.0
 11
456.8125843616249
 21
310.248584324522
 31
0.0
  0
LINE
  5
94B24
330
94AEB
100
AcDbEntity
  8
0
  6
Continuous
 62
     3
100
AcDbLine
 10
458.915385257625
 20
315.6554228751222
 30
0.0
 11
459.1742043029253
 21
316.566753099122
 31
0.0
  0
LINE
  5
94B25
330
94AEB
100
AcDbEntity
  8
0
  6
Continuous
 62
     3
100
AcDbLine
 10
737.4388290669249
 20
304.1297590911222
 30
0.0
 11
737.4649416256247
 21
304.2187068965223
 31
0.0
  0
LINE
  5
94B26
330
94AEB
100
AcDbEntity
  8
0
  6
Continuous
 62
     3
100
AcDbLine
 10
160.4626259522251
 20
304.2106764591222
 30
0.0
 11
160.436554066925
 21
304.1221800018222
 31
0.0
  0
LINE
  5
94B27
330
94AEB
100
AcDbEntity
  8
0
  6
Continuous
 62
     3
100
AcDbLine
 10
737.4134450495248
 20
304.0467949938222
 30
0.0
 11
737.4388290669249
 21
304.1297590911222
 31
0.0
  0
LINE
  5
94B28
330
94AEB
100
AcDbEntity
  8
0
  6
Continuous
 62
     3
100
AcDbLine
 10
160.436554066925
 20
304.1221800018222
 30
0.0
 11
160.411219474925
 21
304.039691519122
 31
0.0
  0
LINE
  5
94B29
330
94AEB
100
AcDbEntity
  8
0
  6
Continuous
 62
     3
100
AcDbLine
 10
737.3888876362248
 20
303.9699957285222
 30
0.0
 11
737.4134450495248
 21
304.0467949938222
 31
0.0
  0
LINE
  5
94B2A
330
94AEB
100
AcDbEntity
  8
0
  6
Continuous
 62
     3
100
AcDbLine
 10
160.411219474925
 20
304.039691519122
 30
0.0
 11
160.386720982925
 21
303.9633912765221
 31
0.0
  0
LINE
  5
94B2B
330
94AEB
100
AcDbEntity
  8
0
  6
Continuous
 62
     3
100
AcDbLine
 10
737.3652035629252
 20
303.8993844485221
 30
0.0
 11
737.3888876362248
 21
303.9699957285222
 31
0.0
  0
LINE
  5
94B2C
330
94AEB
100
AcDbEntity
  8
0
  6
Continuous
 62
     3
100
AcDbLine
 10
160.386720982925
 20
303.9633912765221
 30
0.0
 11
160.2865019455248
 21
303.6659442991222
 31
0.0
  0
LINE
  5
94B2D
330
94AEB
100
AcDbEntity
  8
0
  6
Continuous
 62
     3
100
AcDbLine
 10
737.3424342122253
 20
303.8349246378221
 30
0.0
 11
737.3652035629252
 21
303.8993844485221
 31
0.0
  0
LINE
  5
94B2E
330
94AEB
100
AcDbEntity
  8
0
  6
Continuous
 62
     3
100
AcDbLine
 10
160.3631039562251
 20
303.8932966778221
 30
0.0
 11
160.3404107629253
 21
303.8293659298222
 31
0.0
  0
LINE
  5
94B2F
330
94AEB
100
AcDbEntity
  8
0
  6
Continuous
 62
     3
100
AcDbLine
 10
487.004156388225
 20
292.4005276951223
 30
0.0
 11
487.0012971962251
 21
292.3926904538221
 31
0.0
  0
LINE
  5
94B30
330
94AEB
100
AcDbEntity
  8
0
  6
Continuous
 62
     3
100
AcDbLine
 10
737.3207351242253
 20
303.7768177591222
 30
0.0
 11
737.3424342122253
 21
303.8349246378221
 31
0.0
  0
LINE
  5
94B31
330
94AEB
100
AcDbEntity
  8
0
  6
Continuous
 62
     3
100
AcDbLine
 10
737.2767892896249
 20
303.6659442991222
 30
0.0
 11
737.3207351242253
 21
303.7768177591222
 31
0.0
  0
LINE
  5
94B32
330
94AEB
100
AcDbEntity
  8
0
  6
Continuous
 62
     7
100
AcDbLine
 10
93.49999881222492
 20
202.1659442991222
 30
0.0
 11
91.49999881222493
 21
200.1659442991222
 31
0.0
  0
LINE
  5
94B33
330
94AEB
100
AcDbEntity
  8
0
  6
Continuous
 62
     7
100
AcDbLine
 10
845.4999988122249
 20
215.1659442991222
 30
0.0
 11
847.4999988122249
 21
217.1659442991222
 31
0.0
  0
LINE
  5
94B34
330
94AEB
100
AcDbEntity
  8
0
  6
Continuous
 62
     3
100
AcDbLine
 10
584.3432376042251
 20
302.101892812522
 30
0.0
 11
550.5070886336247
 21
293.2365262711221
 31
0.0
  0
LINE
  5
94B35
330
94AEB
100
AcDbEntity
  8
0
  6
Continuous
 62
     3
100
AcDbLine
 10
162.2999988122251
 20
43.16797254452206
 30
0.0
 11
155.2999988122251
 21
43.16675906452201
 31
0.0
  0
LINE
  5
94B36
330
94AEB
100
AcDbEntity
  8
0
  6
Continuous
 62
     7
100
AcDbLine
 10
339.4999988122249
 20
52.6659442991222
 30
0.0
 11
602.111192622925
 21
52.73417302452208
 31
0.0
  0
LINE
  5
94B37
330
94AEB
100
AcDbEntity
  8
0
  6
Continuous
 62
     7
100
AcDbLine
 10
599.4999988122249
 20
152.6659442991222
 30
0.0
 11
336.8888050015248
 21
152.5977155738221
 31
0.0
  0
LINE
  5
94B38
330
94AEB
100
AcDbEntity
  8
DEFAULT_1
  6
CENTER
 62
     7
100
AcDbLine
 10
24.49999881222493
 20
40.16594429912209
 30
0.0
 11
914.4999988122249
 21
40.16594429912209
 31
0.0
  0
LINE
  5
94B39
330
94AEB
100
AcDbEntity
  8
0
  6
Continuous
 62
     3
100
AcDbLine
 10
785.899998812225
 20
43.16675906452201
 30
0.0
 11
155.2999988122251
 21
43.16602830452199
 31
0.0
  0
LINE
  5
94B3A
330
94AEB
100
AcDbEntity
  8
DEFAULT_1
  6
CENTER
 62
     2
100
AcDbLine
 10
938.999998812225
 20
81.1659442991222
 30
0.0
 11
793.9999988122249
 21
81.1659442991222
 31
0.0
  0
LINE
  5
94B3B
330
94AEB
100
AcDbEntity
  8
DEFAULT_1
  6
CENTER
 62
     2
100
AcDbLine
 10
144.9999988122249
 20
82.1659442991222
 30
0.0
 11
-0.0000011877750694
 21
82.1659442991222
 31
0.0
  0
LINE
  5
94B3C
330
94AEB
100
AcDbEntity
  8
0
  6
Continuous
 62
     3
100
AcDbLine
 10
816.899998812225
 20
129.1659442991222
 30
0.0
 11
815.899998812225
 21
129.1659442991222
 31
0.0
  0
LINE
  5
94B3D
330
94AEB
100
AcDbEntity
  8
0
  6
Continuous
 62
     3
100
AcDbLine
 10
122.0999988122253
 20
129.1659442991222
 30
0.0
 11
125.2999988122251
 21
129.1659442991222
 31
0.0
  0
LINE
  5
94B3E
330
94AEB
100
AcDbEntity
  8
0
  6
Continuous
 62
     7
100
AcDbLine
 10
845.4999988122249
 20
202.1659442991222
 30
0.0
 11
844.4999988122249
 21
202.1659442991222
 31
0.0
  0
LINE
  5
94B3F
330
94AEB
100
AcDbEntity
  8
0
  6
Continuous
 62
     7
100
AcDbLine
 10
94.49999881222494
 20
202.1659442991222
 30
0.0
 11
93.49999881222492
 21
202.1659442991222
 31
0.0
  0
LINE
  5
94B40
330
94AEB
100
AcDbEntity
  8
0
  6
Continuous
 62
     7
100
AcDbLine
 10
93.49999881222492
 20
215.1659442991222
 30
0.0
 11
94.49999881222494
 21
215.1659442991222
 31
0.0
  0
LINE
  5
94B41
330
94AEB
100
AcDbEntity
  8
0
  6
Continuous
 62
     7
100
AcDbLine
 10
844.4999988122249
 20
215.1659442991222
 30
0.0
 11
845.4999988122249
 21
215.1659442991222
 31
0.0
  0
LINE
  5
94B42
330
94AEB
100
AcDbEntity
  8
0
  6
Continuous
 62
     7
100
AcDbLine
 10
689.9999988122249
 20
278.1659442991222
 30
0.0
 11
698.9999988122249
 21
278.1659442991222
 31
0.0
  0
LINE
  5
94B43
330
94AEB
100
AcDbEntity
  8
DEFAULT_1
  6
CENTER
 62
     2
100
AcDbLine
 10
739.9999988122249
 20
283.6659442991222
 30
0.0
 11
648.9999988122249
 21
283.6659442991222
 31
0.0
  0
LINE
  5
94B44
330
94AEB
100
AcDbEntity
  8
DEFAULT_1
  6
CENTER
 62
     2
100
AcDbLine
 10
198.9999988122249
 20
283.6659442991222
 30
0.0
 11
289.999998812225
 21
283.6659442991222
 31
0.0
  0
LINE
  5
94B45
330
94AEB
100
AcDbEntity
  8
0
  6
Continuous
 62
     7
100
AcDbLine
 10
698.9999988122249
 20
289.1659442991222
 30
0.0
 11
689.9999988122249
 21
289.1659442991222
 31
0.0
  0
LINE
  5
94B46
330
94AEB
100
AcDbEntity
  8
0
  6
Continuous
 62
     3
100
AcDbLine
 10
538.3159747402251
 20
291.6659442991222
 30
0.0
 11
487.146450668225
 21
291.6659442991222
 31
0.0
  0
LINE
  5
94B47
330
94AEB
100
AcDbEntity
  8
0
  6
Continuous
 62
     3
100
AcDbLine
 10
451.8537380482253
 20
291.6659442991222
 30
0.0
 11
400.6840228842247
 21
291.6659442991222
 31
0.0
  0
LINE
  5
94B48
330
94AEB
100
AcDbEntity
  8
0
  6
Continuous
 62
     3
100
AcDbLine
 10
846.899998812225
 20
303.6659442991222
 30
0.0
 11
778.724844984225
 21
303.6659442991222
 31
0.0
  0
LINE
  5
94B49
330
94AEB
100
AcDbEntity
  8
0
  6
Continuous
 62
     3
100
AcDbLine
 10
737.2767892896249
 20
303.6659442991222
 30
0.0
 11
596.483660794925
 21
303.6659442991222
 31
0.0
  0
LINE
  5
94B4A
330
94AEB
100
AcDbEntity
  8
0
  6
Continuous
 62
     3
100
AcDbLine
 10
342.5163368282251
 20
303.6659442991222
 30
0.0
 11
201.7247573162249
 21
303.6659442991222
 31
0.0
  0
LINE
  5
94B4B
330
94AEB
100
AcDbEntity
  8
0
  6
Continuous
 62
     3
100
AcDbLine
 10
160.2865019455248
 20
303.6659442991222
 30
0.0
 11
92.09999881222529
 21
303.6659442991222
 31
0.0
  0
LINE
  5
94B4C
330
94AEB
100
AcDbEntity
  8
0
  6
Continuous
 62
     3
100
AcDbLine
 10
459.4429504842251
 20
317.4840564218221
 30
0.0
 11
479.5570471402247
 21
317.4840564218221
 31
0.0
  0
LINE
  5
94B4D
330
94AEB
100
AcDbEntity
  8
0
  6
Continuous
 62
     3
100
AcDbLine
 10
769.9082168642253
 20
317.6659442991222
 30
0.0
 11
746.091780760225
 21
317.6659442991222
 31
0.0
  0
LINE
  5
94B4E
330
94AEB
100
AcDbEntity
  8
0
  6
Continuous
 62
     3
100
AcDbLine
 10
169.091780760225
 20
317.6659442991222
 30
0.0
 11
192.9082168642248
 21
317.6659442991222
 31
0.0
  0
LINE
  5
94B4F
330
94AEB
100
AcDbEntity
  8
DEFAULT_1
  6
CENTER
 62
     7
100
AcDbLine
 10
914.4999988122249
 20
325.1659442991222
 30
0.0
 11
24.49999881222493
 21
325.1659442991222
 31
0.0
  0
LINE
  5
94B50
330
94AEB
100
AcDbEntity
  8
0
  6
Continuous
 62
     3
100
AcDbLine
 10
388.492908989625
 20
293.2365262711221
 30
0.0
 11
354.6567600189251
 21
302.101892812522
 31
0.0
  0
LINE
  5
94B51
330
94AEB
100
AcDbEntity
  8
0
  6
Continuous
 62
     7
100
AcDbLine
 10
91.49999881222493
 20
217.1659442991222
 30
0.0
 11
93.49999881222492
 21
215.1659442991222
 31
0.0
  0
LINE
  5
94B52
330
94AEB
100
AcDbEntity
  8
0
  6
Continuous
 62
     7
100
AcDbLine
 10
847.4999988122249
 20
200.1659442991222
 30
0.0
 11
845.4999988122249
 21
202.1659442991222
 31
0.0
  0
LINE
  5
94B53
330
94AEB
100
AcDbEntity
  8
0
  6
Continuous
 62
     3
100
AcDbLine
 10
778.701622264225
 20
303.7205614791221
 30
0.0
 11
778.724844984225
 21
303.6659442991222
 31
0.0
  0
LINE
  5
94B54
330
94AEB
100
AcDbEntity
  8
0
  6
Continuous
 62
     3
100
AcDbLine
 10
201.7247573162249
 20
303.6659442991222
 30
0.0
 11
201.699805412225
 21
303.7249888685221
 31
0.0
  0
LINE
  5
94B55
330
94AEB
100
AcDbEntity
  8
0
  6
Continuous
 62
     3
100
AcDbLine
 10
778.6811921549252
 20
303.7718143525221
 30
0.0
 11
778.701622264225
 21
303.7205614791221
 31
0.0
  0
LINE
  5
94B56
330
94AEB
100
AcDbEntity
  8
0
  6
Continuous
 62
     3
100
AcDbLine
 10
201.699805412225
 20
303.7249888685221
 30
0.0
 11
201.6792624989248
 21
303.7768177591222
 31
0.0
  0
LINE
  5
94B57
330
94AEB
100
AcDbEntity
  8
0
  6
Continuous
 62
     3
100
AcDbLine
 10
778.6595868602248
 20
303.8293659298222
 30
0.0
 11
778.6811921549252
 21
303.7718143525221
 31
0.0
  0
LINE
  5
94B58
330
94AEB
100
AcDbEntity
  8
0
  6
Continuous
 62
     3
100
AcDbLine
 10
201.6792624989248
 20
303.7768177591222
 30
0.0
 11
201.6575634109249
 21
303.8349246378221
 31
0.0
  0
LINE
  5
94B59
330
94AEB
100
AcDbEntity
  8
0
  6
Continuous
 62
     3
100
AcDbLine
 10
451.9958412349251
 20
292.4005276951223
 30
0.0
 11
451.9987040216251
 21
292.3926861111222
 31
0.0
  0
LINE
  5
94B5A
330
94AEB
100
AcDbEntity
  8
0
  6
Continuous
 62
     3
100
AcDbLine
 10
778.6368936669246
 20
303.8932966778221
 30
0.0
 11
778.6595868602248
 21
303.8293659298222
 31
0.0
  0
LINE
  5
94B5B
330
94AEB
100
AcDbEntity
  8
0
  6
Continuous
 62
     3
100
AcDbLine
 10
201.6575634109249
 20
303.8349246378221
 30
0.0
 11
201.634794060225
 21
303.8993844485221
 31
0.0
  0
LINE
  5
94B5C
330
94AEB
100
AcDbEntity
  8
0
  6
Continuous
 62
     3
100
AcDbLine
 10
778.6132766402247
 20
303.9633912765221
 30
0.0
 11
778.6368936669246
 21
303.8932966778221
 31
0.0
  0
LINE
  5
94B5D
330
94AEB
100
AcDbEntity
  8
0
  6
Continuous
 62
     3
100
AcDbLine
 10
201.634794060225
 20
303.8993844485221
 30
0.0
 11
201.6111099869249
 21
303.9699957285222
 31
0.0
  0
LINE
  5
94B5E
330
94AEB
100
AcDbEntity
  8
0
  6
Continuous
 62
     3
100
AcDbLine
 10
778.5887781482247
 20
304.039691519122
 30
0.0
 11
778.6132766402247
 21
303.9633912765221
 31
0.0
  0
LINE
  5
94B5F
330
94AEB
100
AcDbEntity
  8
0
  6
Continuous
 62
     3
100
AcDbLine
 10
201.6111099869249
 20
303.9699957285222
 30
0.0
 11
201.586552574925
 21
304.0467949938222
 31
0.0
  0
LINE
  5
94B60
330
94AEB
100
AcDbEntity
  8
0
  6
Continuous
 62
     3
100
AcDbLine
 10
778.5634435562246
 20
304.1221800018222
 30
0.0
 11
778.5887781482247
 21
304.039691519122
 31
0.0
  0
LINE
  5
94B61
330
94AEB
100
AcDbEntity
  8
0
  6
Continuous
 62
     3
100
AcDbLine
 10
201.586552574925
 20
304.0467949938222
 30
0.0
 11
201.5611685562249
 21
304.1297590911222
 31
0.0
  0
LINE
  5
94B62
330
94AEB
100
AcDbEntity
  8
0
  6
Continuous
 62
     3
100
AcDbLine
 10
778.537371670925
 20
304.2106764591222
 30
0.0
 11
778.5634435562246
 21
304.1221800018222
 31
0.0
  0
LINE
  5
94B63
330
94AEB
100
AcDbEntity
  8
0
  6
Continuous
 62
     3
100
AcDbLine
 10
201.5611685562249
 20
304.1297590911222
 30
0.0
 11
201.5350559989247
 21
304.2187068965223
 31
0.0
  0
LINE
  5
94B64
330
94AEB
100
AcDbEntity
  8
0
  6
Continuous
 62
     3
100
AcDbLine
 10
480.0846123656251
 20
315.6554228751222
 30
0.0
 11
479.8257933202249
 21
316.566753099122
 31
0.0
  0
LINE
  5
94B65
330
94AEB
100
AcDbEntity
  8
0
  6
Continuous
 62
     3
100
AcDbLine
 10
482.1874132616248
 20
310.248584324522
 30
0.0
 11
480.6617871602248
 21
315.6204810311221
 31
0.0
  0
LINE
  5
94B66
330
94AEB
100
AcDbEntity
  8
0
  6
Continuous
 62
     3
100
AcDbLine
 10
778.5106281402249
 20
304.3050381338221
 30
0.0
 11
778.537371670925
 21
304.2106764591222
 31
0.0
  0
LINE
  5
94B67
330
94AEB
100
AcDbEntity
  8
0
  6
Continuous
 62
     3
100
AcDbLine
 10
201.5350559989247
 20
304.2187068965223
 30
0.0
 11
201.508276514925
 21
304.313500779122
 31
0.0
  0
LINE
  5
94B68
330
94AEB
100
AcDbEntity
  8
0
  6
Continuous
 62
     3
100
AcDbLine
 10
778.4833170789247
 20
304.404868787122
 30
0.0
 11
778.5106281402249
 21
304.3050381338221
 31
0.0
  0
LINE
  5
94B69
330
94AEB
100
AcDbEntity
  8
0
  6
Continuous
 62
     3
100
AcDbLine
 10
201.508276514925
 20
304.313500779122
 30
0.0
 11
201.4809307229252
 21
304.4137471365222
 31
0.0
  0
LINE
  5
94B6A
330
94AEB
100
AcDbEntity
  8
0
  6
Continuous
 62
     3
100
AcDbLine
 10
487.0041569642248
 20
292.4005278498221
 30
0.0
 11
482.2414111282251
 21
310.0977364951223
 31
0.0
  0
LINE
  5
94B6B
330
94AEB
100
AcDbEntity
  8
0
  6
Continuous
 62
     3
100
AcDbLine
 10
199.2833273176247
 20
312.7741499965223
 30
0.0
 11
201.1463550816252
 21
305.8212357258221
 31
0.0
  0
LINE
  5
94B6C
330
94AEB
100
AcDbEntity
  8
0
  6
Continuous
 62
     3
100
AcDbLine
 10
778.1463550816251
 20
305.8212357258221
 30
0.0
 11
776.2833273176247
 21
312.7741499965223
 31
0.0
  0
LINE
  5
94B6D
330
94AEB
100
AcDbEntity
  8
0
  6
Continuous
 62
     3
100
AcDbLine
 10
778.4554201976248
 20
304.5101152631221
 30
0.0
 11
778.4833170789247
 21
304.404868787122
 31
0.0
  0
LINE
  5
94B6E
330
94AEB
100
AcDbEntity
  8
0
  6
Continuous
 62
     3
100
AcDbLine
 10
201.4809307229252
 20
304.4137471365222
 30
0.0
 11
201.4529937389248
 21
304.5194153111222
 31
0.0
  0
LINE
  5
94B6F
330
94AEB
100
AcDbEntity
  8
0
  6
Continuous
 62
     3
100
AcDbLine
 10
778.4269060922252
 20
304.6207887671221
 30
0.0
 11
778.4554201976248
 21
304.5101152631221
 31
0.0
  0
LINE
  5
94B70
330
94AEB
100
AcDbEntity
  8
0
  6
Continuous
 62
     3
100
AcDbLine
 10
201.4529937389248
 20
304.5194153111222
 30
0.0
 11
201.424434854925
 21
304.6305193111221
 31
0.0
  0
LINE
  5
94B71
330
94AEB
100
AcDbEntity
  8
0
  6
Continuous
 62
     3
100
AcDbLine
 10
778.397764366925
 20
304.7368751218221
 30
0.0
 11
778.4269060922252
 21
304.6207887671221
 31
0.0
  0
LINE
  5
94B72
330
94AEB
100
AcDbEntity
  8
0
  6
Continuous
 62
     3
100
AcDbLine
 10
201.424434854925
 20
304.6305193111221
 30
0.0
 11
201.395247529625
 21
304.747034344522
 31
0.0
  0
LINE
  5
94B73
330
94AEB
100
AcDbEntity
  8
0
  6
Continuous
 62
     3
100
AcDbLine
 10
778.3680016402249
 20
304.8582736031221
 30
0.0
 11
778.397764366925
 21
304.7368751218221
 31
0.0
  0
LINE
  5
94B74
330
94AEB
100
AcDbEntity
  8
0
  6
Continuous
 62
     3
100
AcDbLine
 10
201.395247529625
 20
304.747034344522
 30
0.0
 11
201.3654426602248
 21
304.8688345405221
 31
0.0
  0
LINE
  5
94B75
330
94AEB
100
AcDbEntity
  8
0
  6
Continuous
 62
     3
100
AcDbLine
 10
778.3376805802249
 20
304.9845413618223
 30
0.0
 11
778.3680016402249
 21
304.8582736031221
 31
0.0
  0
LINE
  5
94B76
330
94AEB
100
AcDbEntity
  8
0
  6
Continuous
 62
     3
100
AcDbLine
 10
201.3654426602248
 20
304.8688345405221
 30
0.0
 11
201.3041284362248
 21
305.1268115671221
 31
0.0
  0
LINE
  5
94B77
330
94AEB
100
AcDbEntity
  8
0
  6
Continuous
 62
     3
100
AcDbLine
 10
778.2752852429252
 20
305.2509322271221
 30
0.0
 11
778.3376805802249
 21
304.9845413618223
 31
0.0
  0
LINE
  5
94B78
330
94AEB
100
AcDbEntity
  8
0
  6
Continuous
 62
     3
100
AcDbLine
 10
487.1336105229252
 20
291.721234872522
 30
0.0
 11
487.146450668225
 21
291.6659442991222
 31
0.0
  0
LINE
  5
94B79
330
94AEB
100
AcDbEntity
  8
0
  6
Continuous
 62
     3
100
AcDbLine
 10
201.3041284362248
 20
305.1268115671221
 30
0.0
 11
201.2405873962253
 21
305.4020696698221
 31
0.0
  0
LINE
  5
94B7A
330
94AEB
100
AcDbEntity
  8
0
  6
Continuous
 62
     3
100
AcDbLine
 10
778.1425093789248
 20
305.834936111122
 30
0.0
 11
778.2752852429252
 21
305.2509322271221
 31
0.0
  0
LINE
  5
94B7B
330
94AEB
100
AcDbEntity
  8
0
  6
Continuous
 62
     3
100
AcDbLine
 10
201.2405873962253
 20
305.4020696698221
 30
0.0
 11
201.1425093789248
 21
305.834936111122
 31
0.0
  0
LINE
  5
94B7C
330
94AEB
100
AcDbEntity
  8
0
  6
Continuous
 62
     3
100
AcDbLine
 10
487.122350254925
 20
291.7716101951221
 30
0.0
 11
487.1336105229252
 21
291.721234872522
 31
0.0
  0
LINE
  5
94B7D
330
94AEB
100
AcDbEntity
  8
0
  6
Continuous
 62
     3
100
AcDbLine
 10
487.1107378842248
 20
291.8252869165221
 30
0.0
 11
487.122350254925
 21
291.7716101951221
 31
0.0
  0
LINE
  5
94B7E
330
94AEB
100
AcDbEntity
  8
0
  6
Continuous
 62
     3
100
AcDbLine
 10
487.0987956776247
 20
291.8820947191221
 30
0.0
 11
487.1107378842248
 21
291.8252869165221
 31
0.0
  0
LINE
  5
94B7F
330
94AEB
100
AcDbEntity
  8
0
  6
Continuous
 62
     3
100
AcDbLine
 10
487.0865238576247
 20
291.9420283191221
 30
0.0
 11
487.0987956776247
 21
291.8820947191221
 31
0.0
  0
LINE
  5
94B80
330
94AEB
100
AcDbEntity
  8
0
  6
Continuous
 62
     3
100
AcDbLine
 10
487.0739886269253
 20
292.0048398471222
 30
0.0
 11
487.0865238576247
 21
291.9420283191221
 31
0.0
  0
LINE
  5
94B81
330
94AEB
100
AcDbEntity
  8
0
  6
Continuous
 62
     3
100
AcDbLine
 10
487.0481837762249
 20
292.1387502738221
 30
0.0
 11
487.0739886269253
 21
292.0048398471222
 31
0.0
  0
LINE
  5
94B82
330
94AEB
100
AcDbEntity
  8
0
  6
Continuous
 62
     3
100
AcDbLine
 10
487.0009762496251
 20
292.3926080138222
 30
0.0
 11
487.0481837762249
 21
292.1387502738221
 31
0.0
  0
ARC
  5
94B83
330
94AEB
100
AcDbEntity
  8
0
  6
Continuous
 62
     3
100
AcDbCircle
 10
538.3159747402251
 20
339.7659442991221
 30
0.0
 40
48.1
100
AcDbArc
 50
270.0
 51
284.6819677413982
  0
ARC
  5
94B84
330
94AEB
100
AcDbEntity
  8
0
  6
Continuous
 62
     3
100
AcDbCircle
 10
400.6840228842247
 20
339.7659442991221
 30
0.0
 40
48.1
100
AcDbArc
 50
255.3180322586017
 51
270.0
  0
ARC
  5
94B85
330
94AEB
100
AcDbEntity
  8
0
  6
Continuous
 62
     3
100
AcDbCircle
 10
596.483660794925
 20
255.7659442991221
 30
0.0
 40
47.9
100
AcDbArc
 50
90.0
 51
104.6819677413982
  0
ARC
  5
94B86
330
94AEB
100
AcDbEntity
  8
0
  6
Continuous
 62
     3
100
AcDbCircle
 10
342.5163368282251
 20
255.7659442991221
 30
0.0
 40
47.9
100
AcDbArc
 50
75.31803225860176
 51
90.0
  0
CIRCLE
  5
94B87
330
94AEB
100
AcDbEntity
  8
0
  6
Continuous
 62
     7
100
AcDbCircle
 10
866.4999988122248
 20
81.1659442991222
 30
0.0
 40
32.5
  0
CIRCLE
  5
94B88
330
94AEB
100
AcDbEntity
  8
0
  6
Continuous
 62
     7
100
AcDbCircle
 10
72.49999881222493
 20
82.1659442991222
 30
0.0
 40
32.5
  0
ARC
  5
94B89
330
94AEB
100
AcDbEntity
  8
0
  6
Continuous
 62
     3
100
AcDbCircle
 10
816.899998812225
 20
159.7659442991221
 30
0.0
 40
30.6
100
AcDbArc
 50
270.0
 51
0.0
  0
ARC
  5
94B8A
330
94AEB
100
AcDbEntity
  8
0
  6
Continuous
 62
     3
100
AcDbCircle
 10
122.0999988122253
 20
159.7659442991221
 30
0.0
 40
30.6
100
AcDbArc
 50
180.0
 51
270.0
  0
ARC
  5
94B8B
330
94AEB
100
AcDbEntity
  8
0
  6
Continuous
 62
     3
100
AcDbCircle
 10
815.899998812225
 20
99.76594429912211
 30
0.0
 40
29.4
100
AcDbArc
 50
90.0
 51
180.0
  0
ARC
  5
94B8C
330
94AEB
100
AcDbEntity
  8
0
  6
Continuous
 62
     3
100
AcDbCircle
 10
125.2999988122251
 20
99.76594429912211
 30
0.0
 40
29.4
100
AcDbArc
 50
0.0
 51
90.0
  0
ARC
  5
94B8D
330
94AEB
100
AcDbEntity
  8
0
  6
Continuous
 62
     3
100
AcDbCircle
 10
769.9082168642253
 20
311.0659442991221
 30
0.0
 40
6.599999999999999
100
AcDbArc
 50
15.00000000000074
 51
90.0
  0
ARC
  5
94B8E
330
94AEB
100
AcDbEntity
  8
0
  6
Continuous
 62
     3
100
AcDbCircle
 10
746.091780760225
 20
311.0659442991221
 30
0.0
 40
6.599999999999999
100
AcDbArc
 50
90.0
 51
164.9999999999992
  0
ARC
  5
94B8F
330
94AEB
100
AcDbEntity
  8
0
  6
Continuous
 62
     3
100
AcDbCircle
 10
169.091780760225
 20
311.0659442991221
 30
0.0
 40
6.599999999999999
100
AcDbArc
 50
90.0
 51
164.9999999999992
  0
ARC
  5
94B90
330
94AEB
100
AcDbEntity
  8
0
  6
Continuous
 62
     3
100
AcDbCircle
 10
192.9082168642248
 20
311.0659442991221
 30
0.0
 40
6.599999999999999
100
AcDbArc
 50
15.00000000000074
 51
90.0
  0
ARC
  5
94B91
330
94AEB
100
AcDbEntity
  8
0
  6
Continuous
 62
     7
100
AcDbCircle
 10
698.9999988122249
 20
283.6659442991222
 30
0.0
 40
5.5
100
AcDbArc
 50
270.0
 51
90.0
  0
ARC
  5
94B92
330
94AEB
100
AcDbEntity
  8
0
  6
Continuous
 62
     7
100
AcDbCircle
 10
689.9999988122249
 20
283.6659442991222
 30
0.0
 40
5.5
100
AcDbArc
 50
90.0
 51
270.0
  0
ARC
  5
94B93
330
94AEB
100
AcDbEntity
  8
0
  6
Continuous
 62
     7
100
AcDbCircle
 10
244.4999988122249
 20
279.1659442991222
 30
0.0
 40
5.5
100
AcDbArc
 50
180.0
 51
0.0
  0
ARC
  5
94B94
330
94AEB
100
AcDbEntity
  8
0
  6
Continuous
 62
     7
100
AcDbCircle
 10
244.4999988122249
 20
288.1659442991222
 30
0.0
 40
5.5
100
AcDbArc
 50
0.0
 51
180.0
  0
ARC
  5
94B95
330
94AEB
100
AcDbEntity
  8
0
  6
Continuous
 62
     3
100
AcDbCircle
 10
474.5957943376247
 20
315.0807672818221
 30
0.0
 40
5.437006824
100
AcDbArc
 50
15.86129890939804
 51
21.60740948840129
  0
ARC
  5
94B96
330
94AEB
100
AcDbEntity
  8
0
  6
Continuous
 62
     3
100
AcDbCircle
 10
464.404203285625
 20
315.0807672818221
 30
0.0
 40
5.437006824
100
AcDbArc
 50
158.3925905115987
 51
164.1387010906019
  0
ARC
  5
94B97
330
94AEB
100
AcDbEntity
  8
0
  6
Continuous
 62
     7
100
AcDbCircle
 10
844.4999988122249
 20
203.1659442991222
 30
0.0
 40
1.0
100
AcDbArc
 50
90.0
 51
270.0
  0
ARC
  5
94B98
330
94AEB
100
AcDbEntity
  8
0
  6
Continuous
 62
     7
100
AcDbCircle
 10
844.4999988122249
 20
214.1659442991222
 30
0.0
 40
1.0
100
AcDbArc
 50
90.0
 51
270.0
  0
ARC
  5
94B99
330
94AEB
100
AcDbEntity
  8
0
  6
Continuous
 62
     7
100
AcDbCircle
 10
94.49999881222494
 20
203.1659442991222
 30
0.0
 40
1.0
100
AcDbArc
 50
270.0
 51
90.0
  0
ARC
  5
94B9A
330
94AEB
100
AcDbEntity
  8
0
  6
Continuous
 62
     7
100
AcDbCircle
 10
94.49999881222494
 20
214.1659442991222
 30
0.0
 40
1.0
100
AcDbArc
 50
270.0
 51
90.0
  0
ARC
  5
94B9B
330
94AEB
100
AcDbEntity
  8
0
  6
Continuous
 62
     3
100
AcDbCircle
 10
785.899998812225
 20
43.76675905512229
 30
0.0
 40
0.6
100
AcDbArc
 50
270.0
 51
0.0
  0
ARC
  5
94B9C
330
94AEB
100
AcDbEntity
  8
0
  6
Continuous
 62
     3
100
AcDbCircle
 10
846.899998812225
 20
303.0659442991221
 30
0.0
 40
0.6
100
AcDbArc
 50
0.0
 51
90.0
  0
ARC
  5
94B9D
330
94AEB
100
AcDbEntity
  8
0
  6
Continuous
 62
     3
100
AcDbCircle
 10
155.2999988122251
 20
43.76675905512229
 30
0.0
 40
0.6
100
AcDbArc
 50
180.0
 51
270.0
  0
ARC
  5
94B9E
330
94AEB
100
AcDbEntity
  8
0
  6
Continuous
 62
     3
100
AcDbCircle
 10
92.09999881222529
 20
303.0659442991221
 30
0.0
 40
0.6
100
AcDbArc
 50
90.0
 51
180.0
  0
ARC
  5
94B9F
330
94AEB
100
AcDbEntity
  8
0
  6
Continuous
 62
     7
100
AcDbCircle
 10
634.8553378722249
 20
67.31060524052214
 30
0.0
 40
0.4
100
AcDbArc
 50
45.57296734490313
 51
224.4270326551015
  0
ARC
  5
94BA0
330
94AEB
100
AcDbEntity
  8
0
  6
Continuous
 62
     7
100
AcDbCircle
 10
634.8553378722249
 20
138.0212833591222
 30
0.0
 40
0.4
100
AcDbArc
 50
135.572967344811
 51
314.4270326550969
  0
ARC
  5
94BA1
330
94AEB
100
AcDbEntity
  8
0
  6
Continuous
 62
     7
100
AcDbCircle
 10
304.1446597536251
 20
67.31060524052214
 30
0.0
 40
0.4
100
AcDbArc
 50
315.5729673448111
 51
134.4270326549908
  0
ARC
  5
94BA2
330
94AEB
100
AcDbEntity
  8
0
  6
Continuous
 62
     7
100
AcDbCircle
 10
304.1446597536251
 20
138.0212833591222
 30
0.0
 40
0.4
100
AcDbArc
 50
225.5729673447972
 51
44.42703265510152
  0
SPLINE
  5
94BA3
330
94AEB
100
AcDbEntity
  8
0
  6
Continuous
 62
     3
100
AcDbSpline
210
0.0
220
0.0
230
1.0
 70
     8
 71
     3
 72
    10
 73
     6
 74
     0
 42
0.0000001
 43
0.0000000001
 40
0.0
 40
0.0
 40
0.0
 40
0.0
 40
0.7055108352
 40
0.9104307637999999
 40
1.0
 40
1.0
 40
1.0
 40
1.0
 10
479.6507365616252
 20
317.0829167085222
 30
0.0
 10
479.638466846925
 20
317.1802523351221
 30
0.0
 10
479.620224653625
 20
317.313801743122
 30
0.0
 10
479.5912628549249
 20
317.4357528591222
 30
0.0
 10
479.5695024282249
 20
317.4840473005222
 30
0.0
 10
479.5570472402251
 20
317.4840550458221
 30
0.0
  0
SPLINE
  5
94BA4
330
94AEB
100
AcDbEntity
  8
0
  6
Continuous
 62
     3
100
AcDbSpline
210
0.0
220
0.0
230
1.0
 70
     8
 71
     3
 72
     8
 73
     4
 74
     0
 42
0.0000001
 43
0.0000000001
 40
0.0
 40
0.0
 40
0.0
 40
0.0
 40
1.0
 40
1.0
 40
1.0
 40
1.0
 10
482.1874096736251
 20
310.2485833018223
 30
0.0
 10
482.1961700789247
 20
310.2177532071221
 30
0.0
 10
482.1774524669249
 20
310.182174271122
 30
0.0
 10
482.1572676309251
 20
310.1572782511221
 30
0.0
  0
SPLINE
  5
94BA5
330
94AEB
100
AcDbEntity
  8
0
  6
Continuous
 62
     3
100
AcDbSpline
210
0.0
220
0.0
230
1.0
 70
     8
 71
     3
 72
     8
 73
     4
 74
     0
 42
0.0000001
 43
0.0000000001
 40
0.0
 40
0.0
 40
0.0
 40
0.0
 40
1.0
 40
1.0
 40
1.0
 40
1.0
 10
482.1572676309251
 20
310.1572782511221
 30
0.0
 10
482.137703741625
 20
310.1331481058221
 30
0.0
 10
482.1141025869251
 20
310.1123556991222
 30
0.0
 10
482.0890986655249
 20
310.093602859122
 30
0.0
  0
SPLINE
  5
94BA6
330
94AEB
100
AcDbEntity
  8
0
  6
Continuous
 62
     3
100
AcDbSpline
210
0.0
220
0.0
230
1.0
 70
     8
 71
     3
 72
     8
 73
     4
 74
     0
 42
0.0000001
 43
0.0000000001
 40
0.0
 40
0.0
 40
0.0
 40
0.0
 40
1.0
 40
1.0
 40
1.0
 40
1.0
 10
456.8125879496251
 20
310.2485833018223
 30
0.0
 10
456.8038275456252
 20
310.2177532071221
 30
0.0
 10
456.8225451562248
 20
310.182174271122
 30
0.0
 10
456.842729992225
 20
310.1572782511221
 30
0.0
  0
SPLINE
  5
94BA7
330
94AEB
100
AcDbEntity
  8
0
  6
Continuous
 62
     3
100
AcDbSpline
210
0.0
220
0.0
230
1.0
 70
     8
 71
     3
 72
     8
 73
     4
 74
     0
 42
0.0000001
 43
0.0000000001
 40
0.0
 40
0.0
 40
0.0
 40
0.0
 40
1.0
 40
1.0
 40
1.0
 40
1.0
 10
456.842729992225
 20
310.1572782511221
 30
0.0
 10
456.8622938815251
 20
310.1331481058221
 30
0.0
 10
456.8858950376247
 20
310.1123556978221
 30
0.0
 10
456.9108989589249
 20
310.093602859122
 30
0.0
  0
SPLINE
  5
94BA8
330
94AEB
100
AcDbEntity
  8
0
  6
Continuous
 62
     3
100
AcDbSpline
210
0.0
220
0.0
230
1.0
 70
     8
 71
     3
 72
    10
 73
     6
 74
     0
 42
0.0000001
 43
0.0000000001
 40
0.0
 40
0.0
 40
0.0
 40
0.0
 40
0.089569236
 40
0.2944891649
 40
1.0
 40
1.0
 40
1.0
 40
1.0
 10
459.4429503829251
 20
317.4840550458221
 30
0.0
 10
459.4304951949247
 20
317.4840473005222
 30
0.0
 10
459.4087347682252
 20
317.4357528591222
 30
0.0
 10
459.3797729709249
 20
317.313801743122
 30
0.0
 10
459.3615307762251
 20
317.1802523351221
 30
0.0
 10
459.349261062925
 20
317.0829167085222
 30
0.0
  0
SPLINE
  5
94BA9
330
94AEB
100
AcDbEntity
  8
0
  6
Continuous
 62
     3
100
AcDbSpline
210
0.0
220
0.0
230
1.0
 70
     8
 71
     3
 72
     9
 73
     5
 74
     0
 42
0.0000001
 43
0.0000000001
 40
0.0
 40
0.0
 40
0.0
 40
0.0
 40
0.6591982243
 40
1.0
 40
1.0
 40
1.0
 40
1.0
 10
480.0846123656251
 20
315.6554228751222
 30
0.0
 10
480.2118116256251
 20
315.6875793951221
 30
0.0
 10
480.3812667536249
 20
315.7219214111222
 30
0.0
 10
480.643243510925
 20
315.6857272071222
 30
0.0
 10
480.6617835736251
 20
315.6204800085222
 30
0.0
  0
SPLINE
  5
94BAA
330
94AEB
100
AcDbEntity
  8
0
  6
Continuous
 62
     3
100
AcDbSpline
210
0.0
220
0.0
230
1.0
 70
     8
 71
     3
 72
     9
 73
     5
 74
     0
 42
0.0000001
 43
0.0000000001
 40
0.0
 40
0.0
 40
0.0
 40
0.0
 40
0.6591982243
 40
1.0
 40
1.0
 40
1.0
 40
1.0
 10
458.915385257625
 20
315.6554228751222
 30
0.0
 10
458.788185997625
 20
315.6875793951221
 30
0.0
 10
458.6187308709249
 20
315.7219214111222
 30
0.0
 10
458.3567541122252
 20
315.6857272071222
 30
0.0
 10
458.3382140509252
 20
315.6204800085222
 30
0.0
  0
SPLINE
  5
94BAB
330
94AEB
100
AcDbEntity
  8
0
  6
Continuous
 62
     3
100
AcDbSpline
210
0.0
220
0.0
230
1.0
 70
     8
 71
     3
 72
     9
 73
     5
 74
     0
 42
0.0000001
 43
0.0000000001
 40
0.0
 40
0.0
 40
0.0
 40
0.0
 40
0.7212477638000001
 40
1.0
 40
1.0
 40
1.0
 40
1.0
 10
456.9108989589249
 20
310.093602859122
 30
0.0
 10
456.874482813625
 20
310.0994523818222
 30
0.0
 10
456.835958849625
 20
310.1004575751222
 30
0.0
 10
456.7623132202247
 20
310.1115378405221
 30
0.0
 10
456.7585870709249
 20
310.097736340522
 30
0.0
  0
SPLINE
  5
94BAC
330
94AEB
100
AcDbEntity
  8
0
  6
Continuous
 62
     3
100
AcDbSpline
210
0.0
220
0.0
230
1.0
 70
     8
 71
     3
 72
     9
 73
     5
 74
     0
 42
0.0000001
 43
0.0000000001
 40
0.0
 40
0.0
 40
0.0
 40
0.0
 40
0.7212477625
 40
1.0
 40
1.0
 40
1.0
 40
1.0
 10
482.0890986655249
 20
310.093602859122
 30
0.0
 10
482.1255148095247
 20
310.0994523818222
 30
0.0
 10
482.1640387749248
 20
310.1004575751222
 30
0.0
 10
482.2376844029249
 20
310.1115378405221
 30
0.0
 10
482.2414105522252
 20
310.097736340522
 30
0.0
  0
SPLINE
  5
94BAD
330
94AEB
100
AcDbEntity
  8
0
  6
Continuous
 62
     7
100
AcDbSpline
210
0.0
220
0.0
230
1.0
 70
     8
 71
     3
 72
    11
 73
     7
 74
     0
 42
0.0000001
 43
0.0000000001
 40
0.0
 40
0.0
 40
0.0
 40
0.0
 40
0.2580872023
 40
0.508990409
 40
0.7554092821
 40
1.0
 40
1.0
 40
1.0
 40
1.0
 10
304.430316749625
 20
138.3012835018221
 30
0.0
 10
306.6762641015248
 20
140.4575751298221
 30
0.0
 10
311.4756453709251
 20
144.3468054685222
 30
0.0
 10
319.506411133525
 20
148.7544951951222
 30
0.0
 10
328.0409048495248
 20
151.602297991122
 30
0.0
 10
333.9421904322253
 20
152.4428698551221
 30
0.0
 10
336.8888050015248
 20
152.5977155738221
 30
0.0
  0
SPLINE
  5
94BAE
330
94AEB
100
AcDbEntity
  8
0
  6
Continuous
 62
     7
100
AcDbSpline
210
0.0
220
0.0
230
1.0
 70
     8
 71
     3
 72
    11
 73
     7
 74
     0
 42
0.0000001
 43
0.0000000001
 40
0.0
 40
0.0
 40
0.0
 40
0.0
 40
0.2465213534
 40
0.4920753059000001
 40
0.7416925544
 40
1.0
 40
1.0
 40
1.0
 40
1.0
 10
599.4999988122249
 20
152.6659442991222
 30
0.0
 10
602.6877099842254
 20
152.6659442991222
 30
0.0
 10
609.0681357216249
 20
152.0527807378221
 30
0.0
 10
618.3135918922253
 20
149.2947814045221
 30
0.0
 10
626.996223518925
 20
144.746620504522
 30
0.0
 10
632.1596474442253
 20
140.6138801551221
 30
0.0
 10
634.5696808749253
 20
138.3012835018221
 30
0.0
  0
SPLINE
  5
94BAF
330
94AEB
100
AcDbEntity
  8
0
  6
Continuous
 62
     7
100
AcDbSpline
210
0.0
220
0.0
230
1.0
 70
     8
 71
     3
 72
    13
 73
     9
 74
     0
 42
0.0000001
 43
0.0000000001
 40
0.0
 40
0.0
 40
0.0
 40
0.0
 40
0.1251256693
 40
0.2501934278
 40
0.4999120097
 40
0.7496452124
 40
0.8748069787
 40
1.0
 40
1.0
 40
1.0
 40
1.0
 10
635.1353380149252
 20
137.7356263618221
 30
0.0
 10
637.3427671642253
 20
135.4013618005222
 30
0.0
 10
641.3245661549254
 20
130.3000608285222
 30
0.0
 10
647.2077835549253
 20
118.823540663122
 30
0.0
 10
650.325966565525
 20
102.6725510165222
 30
0.0
 10
647.2114510949254
 20
86.51828394982226
 30
0.0
 10
641.3280688855252
 20
75.0366357151222
 30
0.0
 10
637.344005722925
 20
69.93173565512211
 30
0.0
 10
635.1353380149252
 20
67.59626223782198
 30
0.0
  0
SPLINE
  5
94BB0
330
94AEB
100
AcDbEntity
  8
0
  6
Continuous
 62
     7
100
AcDbSpline
210
0.0
220
0.0
230
1.0
 70
     8
 71
     3
 72
    11
 73
     7
 74
     0
 42
0.0000001
 43
0.0000000001
 40
0.0
 40
0.0
 40
0.0
 40
0.0
 40
0.2580872023
 40
0.508990409
 40
0.7554092821
 40
1.0
 40
1.0
 40
1.0
 40
1.0
 10
634.5696808749253
 20
67.03060509782199
 30
0.0
 10
632.3237335229251
 20
64.87431346982226
 30
0.0
 10
627.5243522536252
 20
60.98508312982222
 30
0.0
 10
619.4935864909248
 20
56.57739340312196
 30
0.0
 10
610.9590927749255
 20
53.72959060852213
 30
0.0
 10
605.057807192225
 20
52.88901874312205
 30
0.0
 10
602.111192622925
 20
52.73417302452208
 30
0.0
  0
SPLINE
  5
94BB1
330
94AEB
100
AcDbEntity
  8
0
  6
Continuous
 62
     7
100
AcDbSpline
210
0.0
220
0.0
230
1.0
 70
     8
 71
     3
 72
    11
 73
     7
 74
     0
 42
0.0000001
 43
0.0000000001
 40
0.0
 40
0.0
 40
0.0
 40
0.0
 40
0.2465213534
 40
0.4920753059000001
 40
0.7416925544
 40
1.0
 40
1.0
 40
1.0
 40
1.0
 10
339.4999988122249
 20
52.6659442991222
 30
0.0
 10
336.3122876402249
 20
52.6659442991222
 30
0.0
 10
329.931861902925
 20
53.27910786052211
 30
0.0
 10
320.6864057336247
 20
56.03710719512219
 30
0.0
 10
312.0037741056249
 20
60.58526809512227
 30
0.0
 10
306.8403501802249
 20
64.71800844312202
 30
0.0
 10
304.430316749625
 20
67.03060509782199
 30
0.0
  0
SPLINE
  5
94BB2
330
94AEB
100
AcDbEntity
  8
0
  6
Continuous
 62
     7
100
AcDbSpline
210
0.0
220
0.0
230
1.0
 70
     8
 71
     3
 72
    13
 73
     9
 74
     0
 42
0.0000001
 43
0.0000000001
 40
0.0
 40
0.0
 40
0.0
 40
0.0
 40
0.1251256693
 40
0.2501934278
 40
0.4999120097
 40
0.7496452124
 40
0.8748069787
 40
1.0
 40
1.0
 40
1.0
 40
1.0
 10
303.864659609525
 20
67.59626223782198
 30
0.0
 10
301.6572304615252
 20
69.93052679782204
 30
0.0
 10
297.675431469625
 20
75.03182777112215
 30
0.0
 10
291.792214069525
 20
86.50834793652212
 30
0.0
 10
288.6740310589248
 20
102.6593375818222
 30
0.0
 10
291.7885465296249
 20
118.8136046498221
 30
0.0
 10
297.6719287389251
 20
130.2952528845221
 30
0.0
 10
301.6559919015249
 20
135.400152943122
 30
0.0
 10
303.864659609525
 20
137.7356263618221
 30
0.0
  0
ENDBLK
  5
94BB6
330
94AEB
100
AcDbEntity
  8
0
100
AcDbBlockEnd
  0
BLOCK
  5
94CB1
330
94CB0
100
AcDbEntity
  8
0
100
AcDbBlockBegin
  2
*D16
 70
     1
 10
0.0
 20
0.0
 30
0.0
  3
*D16
  1

  0
LINE
  5
94D27
330
94CB0
100
AcDbEntity
  8
SIZE
  6
Continuous
 62
     0
370
    -2
100
AcDbLine
 10
397.0
 20
-414.7224861484734
 30
0.0
 11
397.0
 21
-538.1679737637405
 31
0.0
  0
LINE
  5
94D28
330
94CB0
100
AcDbEntity
  8
SIZE
  6
Continuous
 62
     0
370
    -2
100
AcDbLine
 10
445.0000000000001
 20
-305.0000000000001
 30
0.0
 11
445.0000000000001
 21
-538.1679737637405
 31
0.0
  0
LINE
  5
94D29
330
94CB0
100
AcDbEntity
  8
SIZE
  6
Continuous
 62
     0
370
    -2
100
AcDbLine
 10
407.0
 20
-518.1679737637405
 30
0.0
 11
435.0000000000001
 21
-518.1679737637405
 31
0.0
  0
LINE
  5
94D2A
330
94CB0
100
AcDbEntity
  8
SIZE
  6
Continuous
 62
     0
370
    -2
100
AcDbLine
 10
445.0000000000001
 20
-518.1679737637405
 30
0.0
 11
623.9844717239346
 21
-518.1679737637405
 31
0.0
  0
INSERT
  5
94D2B
330
94CB0
100
AcDbEntity
  8
SIZE
  6
Continuous
 62
     0
370
    -2
100
AcDbBlockReference
  2
_ORIGIN
 10
397.0
 20
-518.1679737637405
 30
0.0
 41
10.0
 42
10.0
 43
10.0
 50
180.0
  0
INSERT
  5
94D2C
330
94CB0
100
AcDbEntity
  8
SIZE
  6
Continuous
 62
     0
370
    -2
100
AcDbBlockReference
  2
_ORIGIN
 10
445.0000000000001
 20
-518.1679737637405
 30
0.0
 41
10.0
 42
10.0
 43
10.0
  0
MTEXT
  5
94D2D
330
94CB0
100
AcDbEntity
  8
SIZE
  6
Continuous
 62
     0
100
AcDbMText
 10
577.5559002953632
 20
-483.1679737637405
 30
0.0
 40
50.0
 41
0.0
 71
     5
 72
     1
  1
\A1;48
 73
     1
 44
1.0
1001
ACAD
1000
MTEXTBEGIN
1070
    73
1070
     1
1070
    44
1040
1.0
1070
    74
1070
     0
1000
MTEXTEND
  0
POINT
  5
94D2E
330
94CB0
100
AcDbEntity
  8
DEFPOINTS
  6
Continuous
 62
     0
100
AcDbPoint
 10
397.0
 20
-394.7224861484734
 30
0.0
  0
POINT
  5
94D2F
330
94CB0
100
AcDbEntity
  8
DEFPOINTS
  6
Continuous
 62
     0
100
AcDbPoint
 10
445.0000000000001
 20
-285.0000000000001
 30
0.0
  0
POINT
  5
94D30
330
94CB0
100
AcDbEntity
  8
DEFPOINTS
  6
Continuous
 62
     0
100
AcDbPoint
 10
445.0000000000001
 20
-518.1679737637405
 30
0.0
  0
ENDBLK
  5
94CB2
330
94CB0
100
AcDbEntity
  8
0
100
AcDbBlockEnd
  0
BLOCK
  5
94CBD
330
94CBC
100
AcDbEntity
  8
0
100
AcDbBlockBegin
  2
*D17
 70
     1
 10
0.0
 20
0.0
 30
0.0
  3
*D17
  1

  0
LINE
  5
94CE3
330
94CBC
100
AcDbEntity
  8
SIZE
  6
Continuous
 62
     0
370
    -2
100
AcDbLine
 10
-396.999999999999
 20
-305.0000000000001
 30
0.0
 11
-396.999999999999
 21
-538.1679737637405
 31
0.0
  0
LINE
  5
94CE4
330
94CBC
100
AcDbEntity
  8
SIZE
  6
Continuous
 62
     0
370
    -2
100
AcDbLine
 10
-445.0
 20
-305.0000000000001
 30
0.0
 11
-445.0
 21
-538.1679737637405
 31
0.0
  0
LINE
  5
94CE5
330
94CBC
100
AcDbEntity
  8
SIZE
  6
Continuous
 62
     0
370
    -2
100
AcDbLine
 10
-406.999999999999
 20
-518.1679737637405
 30
0.0
 11
-435.0
 21
-518.1679737637405
 31
0.0
  0
LINE
  5
94CE6
330
94CBC
100
AcDbEntity
  8
SIZE
  6
Continuous
 62
     0
370
    -2
100
AcDbLine
 10
-445.0
 20
-518.1679737637405
 30
0.0
 11
-547.8571428571428
 21
-518.1679737637405
 31
0.0
  0
INSERT
  5
94CE7
330
94CBC
100
AcDbEntity
  8
SIZE
  6
Continuous
 62
     0
370
    -2
100
AcDbBlockReference
  2
_ORIGIN
 10
-396.999999999999
 20
-518.1679737637405
 30
0.0
 41
10.0
 42
10.0
 43
10.0
  0
INSERT
  5
94CE8
330
94CBC
100
AcDbEntity
  8
SIZE
  6
Continuous
 62
     0
370
    -2
100
AcDbBlockReference
  2
_ORIGIN
 10
-445.0
 20
-518.1679737637405
 30
0.0
 41
10.0
 42
10.0
 43
10.0
 50
180.0
  0
MTEXT
  5
94CE9
330
94CBC
100
AcDbEntity
  8
SIZE
  6
Continuous
 62
     0
100
AcDbMText
 10
-501.4285714285714
 20
-483.1679737637405
 30
0.0
 40
50.0
 41
0.0
 71
     5
 72
     1
  1
\A1;48
 73
     1
 44
1.0
1001
ACAD
1000
MTEXTBEGIN
1070
    73
1070
     1
1070
    44
1040
1.0
1070
    74
1070
     0
1000
MTEXTEND
  0
POINT
  5
94CEA
330
94CBC
100
AcDbEntity
  8
DEFPOINTS
  6
Continuous
 62
     0
100
AcDbPoint
 10
-396.999999999999
 20
-285.0000000000001
 30
0.0
  0
POINT
  5
94CEB
330
94CBC
100
AcDbEntity
  8
DEFPOINTS
  6
Continuous
 62
     0
100
AcDbPoint
 10
-445.0
 20
-285.0000000000001
 30
0.0
  0
POINT
  5
94CEC
330
94CBC
100
AcDbEntity
  8
DEFPOINTS
  6
Continuous
 62
     0
100
AcDbPoint
 10
-445.0
 20
-518.1679737637405
 30
0.0
  0
ENDBLK
  5
94CBE
330
94CBC
100
AcDbEntity
  8
0
100
AcDbBlockEnd
  0
ENDSEC
  0
SECTION
  2
ENTITIES
  0
MTEXT
  5
38341
330
1E
100
AcDbEntity
  8
0
  6
Continuous
100
AcDbMText
 10
383.9605305094082
 20
4023.282340837186
 30
0.0
 40
64.0
 41
187.9848
 71
     1
 72
     5
  1

 73
     1
 44
1.0
1001
ACAD
1000
MTEXTBEGIN
1070
    73
1070
     1
1070
    44
1040
1.0
1070
    74
1070
     0
1000
MTEXTEND
  0
CIRCLE
  5
93F69
330
1E
100
AcDbEntity
  8
ARRANGE
  6
Continuous
100
AcDbCircle
 10
0.0
 20
0.0
 30
0.0
 40
13.00138232471456
  0
POINT
  5
93F6A
330
1E
100
AcDbEntity
  8
ARRANGE
  6
Continuous
100
AcDbPoint
 10
-0.0000000000002842
 20
0.0
 30
0.0
  0
TEXT
  5
9426A
330
1E
100
AcDbEntity
  8
ETC
100
AcDbText
 10
534.9631479613776
 20
297.1760008269581
 30
0.0
 40
64.0
  1
SMSZ6903
 41
0.8860759562895564
 72
     5
 11
961.6298179613774
 21
297.1760008269581
 31
0.0
100
AcDbText
  0
TEXT
  5
9426B
330
1E
100
AcDbEntity
  8
ETC
100
AcDbText
 10
531.8582876998394
 20
395.1636573130734
 30
0.0
 40
64.0
  1
室内機
 41
0.7499999999999978
 72
     5
 11
691.8582876998389
 21
395.1636573130734
 31
0.0
100
AcDbText
  0
LINE
  5
9442A
330
1E
100
AcDbEntity
  8
NOTE
  6
Continuous
 62
     4
100
AcDbLine
 10
-396.9999999999992
 20
-243.0
 30
0.0
 11
-638.7021791190409
 21
61.09158029772413
 31
0.0
  0
LINE
  5
9442B
330
1E
100
AcDbEntity
  8
NOTE
  6
DASHDOT
 62
     4
100
AcDbLine
 10
-396.9999999999992
 20
-263.0000000000009
 30
0.0
 11
-396.9999999999992
 21
-223.000000000001
 31
0.0
  0
LINE
  5
9442C
330
1E
100
AcDbEntity
  8
NOTE
  6
Continuous
 62
     4
100
AcDbLine
 10
-429.0492700000024
 20
-219.0658400000011
 30
0.0
 11
-396.9999999999992
 21
-243.0
 31
0.0
  0
LINE
  5
9442D
330
1E
100
AcDbEntity
  8
NOTE
  6
Continuous
 62
     4
100
AcDbLine
 10
-396.9999999999992
 20
-243.0
 30
0.0
 11
-412.7884000000005
 21
-206.24777
 31
0.0
  0
LINE
  5
9442E
330
1E
100
AcDbEntity
  8
NOTE
  6
DASHDOT
 62
     4
100
AcDbLine
 10
-377.0
 20
-243.0
 30
0.0
 11
-417.0
 21
-243.0
 31
0.0
  0
LINE
  5
9442F
330
1E
100
AcDbEntity
  8
NOTE
  6
Continuous
 62
     4
100
AcDbLine
 10
-1172.441789119039
 20
61.09158029772413
 30
0.0
 11
-638.7021791190409
 21
61.09158029772413
 31
0.0
  0
TEXT
  5
94430
330
1E
100
AcDbEntity
  8
NOTE
 62
     4
100
AcDbText
 10
-1134.94107669332
 20
75.39961056685758
 30
0.0
 40
64.0
  1
D,RL,RG%%C65
 41
0.9
100
AcDbText
  0
LINE
  5
94431
330
1E
100
AcDbEntity
  8
NOTE
  6
Continuous
 62
     4
100
AcDbLine
 10
397.0
 20
-244.0
 30
0.0
 11
560.9807661390213
 21
60.09158029772237
 31
0.0
  0
LINE
  5
94432
330
1E
100
AcDbEntity
  8
NOTE
  6
DASHDOT
 62
     4
100
AcDbLine
 10
397.0
 20
-264.0000000000001
 30
0.0
 11
397.0
 21
-223.9999999999999
 31
0.0
  0
LINE
  5
94433
330
1E
100
AcDbEntity
  8
NOTE
  6
Continuous
 62
     4
100
AcDbLine
 10
406.7852599999969
 20
-205.2153600000001
 30
0.0
 11
397.0
 21
-244.0
 31
0.0
  0
LINE
  5
94434
330
1E
100
AcDbEntity
  8
NOTE
  6
Continuous
 62
     4
100
AcDbLine
 10
397.0
 20
-244.0
 30
0.0
 11
424.8666099999982
 21
-215.3041400000001
 31
0.0
  0
LINE
  5
94435
330
1E
100
AcDbEntity
  8
NOTE
  6
DASHDOT
 62
     4
100
AcDbLine
 10
417.0
 20
-244.0
 30
0.0
 11
377.0
 21
-244.0
 31
0.0
  0
TEXT
  5
94436
330
1E
100
AcDbEntity
  8
NOTE
 62
     4
100
AcDbText
 10
573.6459300873455
 20
82.14918029772247
 30
0.0
 40
64.0
  1
D,RL,RG%%C65
 41
0.9
100
AcDbText
  0
LINE
  5
94437
330
1E
100
AcDbEntity
  8
NOTE
  6
Continuous
 62
     4
100
AcDbLine
 10
560.9807661390213
 20
60.09158029772237
 30
0.0
 11
1079.157370087345
 21
60.09158029772237
 31
0.0
  0
LINE
  5
9466E
330
1E
100
AcDbEntity
  8
BASIS
  6
DASHDOT
100
AcDbLine
 10
397.0
 20
-294.7345702373001
 30
0.0
 11
397.0
 21
-194.144033256
 31
0.0
  0
LINE
  5
94672
330
1E
100
AcDbEntity
  8
BASIS
  6
DASHDOT
100
AcDbLine
 10
0.0
 20
83.7621247907
 30
0.0
 11
0.0
 21
-325.7785877973
 31
0.0
  0
LINE
  5
94677
330
1E
100
AcDbEntity
  8
BASIS
  6
DASHDOT
100
AcDbLine
 10
-396.999999999999
 20
-311.3121677187
 30
0.0
 11
-396.999999999999
 21
-190.3076626227
 31
0.0
  0
LINE
  5
946A5
330
1E
100
AcDbEntity
  8
BASIS
  6
DASHDOT
100
AcDbLine
 10
345.6794974227
 20
-244.0
 30
0.0
 11
472.3687099359998
 21
-244.0
 31
0.0
  0
LINE
  5
946A6
330
1E
100
AcDbEntity
  8
BASIS
  6
DASHDOT
100
AcDbLine
 10
-347.3823102532991
 20
-243.0
 30
0.0
 11
-449.6923373772987
 21
-243.0
 31
0.0
  0
DIMENSION
  5
946FD
330
1E
100
AcDbEntity
  8
SIZE
  6
Continuous
100
AcDbDimension
  2
*D2
 10
-0.0000000000000118
 20
-518.1679737637405
 30
0.0
 11
198.5000000000001
 21
-518.1679737637405
 31
0.0
 70
   160
 71
     5
 42
397.0
  3
STANDARD
100
AcDbAlignedDimension
 13
397.0
 23
-294.7345702373001
 33
0.0
 14
0.0
 24
-325.7785877973
 34
0.0
100
AcDbRotatedDimension
1001
ACAD
1000
DSTYLE
1002
{
1070
    41
1040
10.0
1070
    42
1040
20.0
1070
    43
1040
200.0
1070
    44
1040
20.0
1070
    73
1070
     0
1070
    74
1070
     0
1070
    77
1070
     1
1070
    78
1070
     8
1070
   140
1040
50.0
1070
   141
1040
0.082
1070
   147
1040
10.0
1070
   172
1070
     1
1070
   271
1070
     1
1070
   272
1070
     1
1070
   341
1005
46
1070
   342
1005
46
1002
}
  0
DIMENSION
  5
9470A
330
1E
100
AcDbEntity
  8
SIZE
  6
Continuous
100
AcDbDimension
  2
*D3
 10
-396.999999999999
 20
-518.1679737637405
 30
0.0
 11
-198.4999999999995
 21
-483.1679737637405
 31
0.0
 70
    32
 71
     5
 42
396.999999999999
  3
STANDARD
100
AcDbAlignedDimension
 13
0.0
 23
-325.7785877973
 33
0.0
 14
-396.999999999999
 24
-311.3121677187
 34
0.0
100
AcDbRotatedDimension
1001
ACAD
1000
DSTYLE
1002
{
1070
    41
1040
10.0
1070
    42
1040
20.0
1070
    43
1040
200.0
1070
    44
1040
20.0
1070
    73
1070
     0
1070
    74
1070
     0
1070
    77
1070
     1
1070
    78
1070
     8
1070
   140
1040
50.0
1070
   141
1040
0.082
1070
   147
1040
10.0
1070
   172
1070
     1
1070
   271
1070
     1
1070
   272
1070
     1
1070
   341
1005
46
1070
   342
1005
46
1002
}
  0
DIMENSION
  5
94717
330
1E
100
AcDbEntity
  8
SIZE
  6
Continuous
100
AcDbDimension
  2
*D4
 10
560.2013299190655
 20
-244.0
 30
0.0
 11
525.2013299190655
 21
-197.2142857142856
 31
0.0
 70
    32
 71
     5
 42
41.00000000000011
  3
STANDARD
100
AcDbAlignedDimension
 13
425.0
 23
-285.0000000000001
 33
0.0
 14
465.868709936
 24
-244.0
 34
0.0
 50
90.0
100
AcDbRotatedDimension
1001
ACAD
1000
DSTYLE
1002
{
1070
    41
1040
10.0
1070
    42
1040
20.0
1070
    43
1040
200.0
1070
    44
1040
20.0
1070
    73
1070
     0
1070
    74
1070
     0
1070
    77
1070
     1
1070
    78
1070
     8
1070
   140
1040
50.0
1070
   141
1040
0.082
1070
   147
1040
10.0
1070
   172
1070
     1
1070
   271
1070
     1
1070
   272
1070
     1
1070
   341
1005
46
1070
   342
1005
46
1002
}
  0
DIMENSION
  5
94725
330
1E
100
AcDbEntity
  8
SIZE
  6
Continuous
100
AcDbDimension
  2
*D5
 10
-503.6185652924497
 20
-285.0000000000001
 30
0.0
 11
-538.6185652924496
 21
-341.4285714285716
 31
0.0
 70
    32
 71
     5
 42
42.00000000000011
  3
STANDARD
100
AcDbAlignedDimension
 13
-449.6923373772987
 23
-243.0
 33
0.0
 14
-433.2336312525553
 24
-285.0000000000001
 34
0.0
 50
90.0
100
AcDbRotatedDimension
1001
ACAD
1000
DSTYLE
1002
{
1070
    41
1040
10.0
1070
    42
1040
20.0
1070
    43
1040
200.0
1070
    44
1040
20.0
1070
    73
1070
     0
1070
    74
1070
     0
1070
    77
1070
     1
1070
    78
1070
     8
1070
   140
1040
50.0
1070
   141
1040
0.082
1070
   147
1040
10.0
1070
   172
1070
     1
1070
   271
1070
     1
1070
   272
1070
     1
1070
   341
1005
46
1070
   342
1005
46
1002
}
  0
DIMENSION
  5
94733
330
1E
100
AcDbEntity
  8
SIZE
  6
Continuous
100
AcDbDimension
  2
*D6
 10
-445.0
 20
129.3926472802269
 30
0.0
 11
0.0000000000000021
 21
164.3926472802269
 31
0.0
 70
    32
 71
     5
 42
890.0
  3
STANDARD
100
AcDbAlignedDimension
 13
445.0
 23
0.0
 33
0.0
 14
-445.0
 24
-20.0
 34
0.0
100
AcDbRotatedDimension
1001
ACAD
1000
DSTYLE
1002
{
1070
    41
1040
10.0
1070
    42
1040
20.0
1070
    43
1040
200.0
1070
    44
1040
20.0
1070
    73
1070
     0
1070
    74
1070
     0
1070
    77
1070
     1
1070
    78
1070
     8
1070
   140
1040
50.0
1070
   141
1040
0.082
1070
   147
1040
10.0
1070
   172
1070
     1
1070
   271
1070
     1
1070
   272
1070
     1
1070
   341
1005
46
1070
   342
1005
46
1002
}
  0
DIMENSION
  5
94740
330
1E
100
AcDbEntity
  8
SIZE
  6
Continuous
100
AcDbDimension
  2
*D7
 10
-537.5688660348098
 20
-285.0000000000001
 30
0.0
 11
-572.5688660348096
 21
-142.5000000000001
 31
0.0
 70
    32
 71
     5
 42
285.0000000000001
  3
STANDARD
100
AcDbAlignedDimension
 13
-445.0
 23
0.0
 33
0.0
 14
-425.0
 24
-285.0000000000001
 34
0.0
 50
90.0
100
AcDbRotatedDimension
1001
ACAD
1000
DSTYLE
1002
{
1070
    41
1040
10.0
1070
    42
1040
20.0
1070
    43
1040
200.0
1070
    44
1040
20.0
1070
    73
1070
     0
1070
    74
1070
     0
1070
    77
1070
     1
1070
    78
1070
     8
1070
   140
1040
50.0
1070
   141
1040
0.082
1070
   147
1040
10.0
1070
   172
1070
     1
1070
   271
1070
     1
1070
   272
1070
     1
1070
   341
1005
46
1070
   342
1005
46
1002
}
  0
LINE
  5
94944
330
1E
100
AcDbEntity
  8
DEFAULT_1
  6
ByBlock
 62
     3
100
AcDbLine
 10
-445.0
 20
0.0
 30
0.0
 11
-445.0
 21
-285.0000000000001
 31
0.0
  0
LINE
  5
94946
330
1E
100
AcDbEntity
  8
DETAIL
 62
     5
100
AcDbLine
 10
-378.0
 20
-22.10000000000014
 30
0.0
 11
-378.0
 21
-108.0
 31
0.0
  0
LINE
  5
94947
330
1E
100
AcDbEntity
  8
DETAIL
 62
     5
100
AcDbLine
 10
-378.0
 20
-125.0
 30
0.0
 11
-378.0
 21
-165.4000000000001
 31
0.0
  0
LINE
  5
94948
330
1E
100
AcDbEntity
  8
DETAIL
 62
     5
100
AcDbLine
 10
-375.0
 20
-112.0
 30
0.0
 11
-375.0
 21
-121.0
 31
0.0
  0
LINE
  5
94949
330
1E
100
AcDbEntity
  8
DETAIL
 62
     5
100
AcDbLine
 10
-314.7999999999997
 20
-225.4000000000001
 30
0.0
 11
-314.7999999999997
 21
-281.3991852439999
 31
0.0
  0
LINE
  5
9494A
330
1E
100
AcDbEntity
  8
DETAIL
 62
     5
100
AcDbLine
 10
-314.1999999999998
 20
-281.9991852346002
 30
0.0
 11
-314.1999999999998
 21
-281.9999159946002
 31
0.0
  0
LINE
  5
9494B
330
1E
100
AcDbEntity
  8
DETAIL
 62
     5
100
AcDbLine
 10
-230.5
 20
-37.0
 30
0.0
 11
-230.5
 21
-46.0
 31
0.0
  0
LINE
  5
9494D
330
1E
100
AcDbEntity
  8
DETAIL
 62
     5
100
AcDbLine
 10
-219.5
 20
-46.0
 30
0.0
 11
-219.5
 21
-37.0
 31
0.0
  0
LINE
  5
94951
330
1E
100
AcDbEntity
  8
DETAIL
 62
     5
100
AcDbLine
 10
316.4000000000001
 20
-281.9991852346002
 30
0.0
 11
316.4000000000001
 21
-281.9999159946002
 31
0.0
  0
LINE
  5
94952
330
1E
100
AcDbEntity
  8
DETAIL
 62
     5
100
AcDbLine
 10
317.0
 20
-225.4000000000001
 30
0.0
 11
317.0
 21
-281.3991852439999
 31
0.0
  0
LINE
  5
94953
330
1E
100
AcDbEntity
  8
DETAIL
 62
     5
100
AcDbLine
 10
375.0
 20
-121.0
 30
0.0
 11
375.0
 21
-112.0
 31
0.0
  0
LINE
  5
94954
330
1E
100
AcDbEntity
  8
DETAIL
 62
     5
100
AcDbLine
 10
378.0
 20
-125.0
 30
0.0
 11
378.0
 21
-165.4000000000001
 31
0.0
  0
LINE
  5
94955
330
1E
100
AcDbEntity
  8
DETAIL
 62
     5
100
AcDbLine
 10
378.0
 20
-108.0
 30
0.0
 11
378.0
 21
-22.10000000000014
 31
0.0
  0
LINE
  5
94957
330
1E
100
AcDbEntity
  8
DEFAULT_1
  6
ByBlock
 62
     3
100
AcDbLine
 10
445.0
 20
0.0
 30
0.0
 11
445.0
 21
-285.0000000000001
 31
0.0
  0
LINE
  5
94958
330
1E
100
AcDbEntity
  8
DETAIL
 62
     5
100
AcDbLine
 10
-17.5578945279999
 20
-33.07821833460025
 30
0.0
 11
-17.5009754452999
 21
-32.77334021460024
 31
0.0
  0
LINE
  5
94959
330
1E
100
AcDbEntity
  8
DETAIL
 62
     5
100
AcDbLine
 10
-17.58247679199985
 20
-33.20380642130022
 30
0.0
 11
-17.5578945279999
 21
-33.07821833460025
 31
0.0
  0
LINE
  5
9495A
330
1E
100
AcDbEntity
  8
DETAIL
 62
     5
100
AcDbLine
 10
-17.59442475459991
 20
-33.26267387060011
 30
0.0
 11
-17.58247679199985
 21
-33.20380642130022
 31
0.0
  0
LINE
  5
9495B
330
1E
100
AcDbEntity
  8
DETAIL
 62
     5
100
AcDbLine
 10
-17.6060768852999
 20
-33.31866424400005
 30
0.0
 11
-17.59442475459991
 21
-33.26267387060011
 31
0.0
  0
LINE
  5
9495C
330
1E
100
AcDbEntity
  8
DETAIL
 62
     5
100
AcDbLine
 10
-17.61743782260009
 20
-33.37182139330002
 30
0.0
 11
-17.6060768852999
 21
-33.31866424400005
 31
0.0
  0
LINE
  5
9495D
330
1E
100
AcDbEntity
  8
DETAIL
 62
     5
100
AcDbLine
 10
-17.62848734259978
 20
-33.42200468400006
 30
0.0
 11
-17.61743782260009
 21
-33.37182139330002
 31
0.0
  0
LINE
  5
9495E
330
1E
100
AcDbEntity
  8
DETAIL
 62
     5
100
AcDbLine
 10
268.2594114147
 20
-19.76387462930006
 30
0.0
 11
268.3574894320004
 21
-19.33100818800017
 31
0.0
  0
LINE
  5
9495F
330
1E
100
AcDbEntity
  8
DETAIL
 62
     5
100
AcDbLine
 10
-308.642510568
 20
-19.33100818800017
 30
0.0
 11
-308.775286432
 21
-19.91501207200008
 31
0.0
  0
LINE
  5
94960
330
1E
100
AcDbEntity
  8
DETAIL
 62
     5
100
AcDbLine
 10
-17.64626076399963
 20
-33.5
 30
0.0
 11
-17.62848734259978
 21
-33.42200468400006
 31
0.0
  0
LINE
  5
94961
330
1E
100
AcDbEntity
  8
DETAIL
 62
     5
100
AcDbLine
 10
268.1958703747
 20
-20.0391327320001
 30
0.0
 11
268.2594114147
 21
-19.76387462930006
 31
0.0
  0
LINE
  5
94962
330
1E
100
AcDbEntity
  8
DETAIL
 62
     5
100
AcDbLine
 10
-308.775286432
 20
-19.91501207200008
 30
0.0
 11
-308.8376817692997
 21
-20.18140293729993
 31
0.0
  0
LINE
  5
94963
330
1E
100
AcDbEntity
  8
DETAIL
 62
     5
100
AcDbLine
 10
268.1345561507001
 20
-20.29710975860007
 30
0.0
 11
268.1958703747
 21
-20.0391327320001
 31
0.0
  0
LINE
  5
94964
330
1E
100
AcDbEntity
  8
DETAIL
 62
     5
100
AcDbLine
 10
-308.8376817692997
 20
-20.18140293729993
 30
0.0
 11
-308.8680028292997
 21
-20.30767069600006
 31
0.0
  0
LINE
  5
94965
330
1E
100
AcDbEntity
  8
DETAIL
 62
     5
100
AcDbLine
 10
268.1047512814002
 20
-20.41890995460017
 30
0.0
 11
268.1345561507001
 21
-20.29710975860007
 31
0.0
  0
LINE
  5
94966
330
1E
100
AcDbEntity
  8
DETAIL
 62
     5
100
AcDbLine
 10
-308.8680028292997
 20
-20.30767069600006
 30
0.0
 11
-308.8977655559997
 21
-20.42906917730011
 31
0.0
  0
LINE
  5
94967
330
1E
100
AcDbEntity
  8
DETAIL
 62
     5
100
AcDbLine
 10
268.0755639559998
 20
-20.53542498800016
 30
0.0
 11
268.1047512814002
 21
-20.41890995460017
 31
0.0
  0
LINE
  5
94968
330
1E
100
AcDbEntity
  8
DETAIL
 62
     5
100
AcDbLine
 10
-308.8977655559997
 20
-20.42906917730011
 30
0.0
 11
-308.9269072812999
 21
-20.54515553200008
 31
0.0
  0
LINE
  5
94969
330
1E
100
AcDbEntity
  8
DETAIL
 62
     5
100
AcDbLine
 10
268.047005072
 20
-20.646528988
 30
0.0
 11
268.0755639559998
 21
-20.53542498800016
 31
0.0
  0
LINE
  5
9496A
330
1E
100
AcDbEntity
  8
DETAIL
 62
     5
100
AcDbLine
 10
-308.9269072812999
 20
-20.54515553200008
 30
0.0
 11
-308.9554213867
 21
-20.65582903600011
 31
0.0
  0
LINE
  5
9496B
330
1E
100
AcDbEntity
  8
DETAIL
 62
     5
100
AcDbLine
 10
268.019068088
 20
-20.75219716259994
 30
0.0
 11
268.047005072
 21
-20.646528988
 31
0.0
  0
LINE
  5
9496C
330
1E
100
AcDbEntity
  8
DETAIL
 62
     5
100
AcDbLine
 10
-308.9554213867
 20
-20.65582903600011
 30
0.0
 11
-308.983318268
 21
-20.76107551200016
 31
0.0
  0
LINE
  5
9496D
330
1E
100
AcDbEntity
  8
DETAIL
 62
     5
100
AcDbLine
 10
-308.6463562692998
 20
-19.34470857330007
 30
0.0
 11
-306.7833285067
 21
-12.39179430259992
 31
0.0
  0
LINE
  5
9496E
330
1E
100
AcDbEntity
  8
DETAIL
 62
     5
100
AcDbLine
 10
270.2166714933996
 20
-12.39179430259992
 30
0.0
 11
268.3536437307002
 21
-19.34470857330007
 31
0.0
  0
LINE
  5
9496F
330
1E
100
AcDbEntity
  8
DETAIL
 62
     5
100
AcDbLine
 10
-12.74141231599969
 20
-15.06820780399994
 30
0.0
 11
-17.50415815330007
 21
-32.76541644930012
 31
0.0
  0
LINE
  5
94970
330
1E
100
AcDbEntity
  8
DETAIL
 62
     5
100
AcDbLine
 10
267.9917222972999
 20
-20.85244352000018
 30
0.0
 11
268.019068088
 21
-20.75219716259994
 31
0.0
  0
LINE
  5
94971
330
1E
100
AcDbEntity
  8
DETAIL
 62
     5
100
AcDbLine
 10
-308.983318268
 20
-20.76107551200016
 30
0.0
 11
-309.0106293292997
 21
-20.86090616530009
 31
0.0
  0
LINE
  5
94972
330
1E
100
AcDbEntity
  8
DETAIL
 62
     5
100
AcDbLine
 10
267.9649428133998
 20
-20.94723740259997
 30
0.0
 11
267.9917222972999
 21
-20.85244352000018
 31
0.0
  0
LINE
  5
94973
330
1E
100
AcDbEntity
  8
DETAIL
 62
     5
100
AcDbLine
 10
-309.0106293292997
 20
-20.86090616530009
 30
0.0
 11
-309.0373728599998
 21
-20.95526784000004
 31
0.0
  0
LINE
  5
94974
330
1E
100
AcDbEntity
  8
DETAIL
 62
     5
100
AcDbLine
 10
-11.16178834929997
 20
-9.545463268000048
 30
0.0
 11
-12.68741445060004
 21
-14.91735997460023
 31
0.0
  0
LINE
  5
94975
330
1E
100
AcDbEntity
  8
DETAIL
 62
     5
100
AcDbLine
 10
-10.58461355459985
 20
-9.510521423999989
 30
0.0
 11
-10.32579450929961
 21
-8.599191200000177
 31
0.0
  0
LINE
  5
94976
330
1E
100
AcDbEntity
  8
DETAIL
 62
     5
100
AcDbLine
 10
267.9388302547
 20
-21.03618520800001
 30
0.0
 11
267.9649428133998
 21
-20.94723740259997
 31
0.0
  0
LINE
  5
94977
330
1E
100
AcDbEntity
  8
DETAIL
 62
     5
100
AcDbLine
 10
-309.0373728599998
 20
-20.95526784000004
 30
0.0
 11
-309.0634447452999
 21
-21.04376429729996
 31
0.0
  0
LINE
  5
94978
330
1E
100
AcDbEntity
  8
DETAIL
 62
     5
100
AcDbLine
 10
267.9134462372999
 20
-21.11914930529997
 30
0.0
 11
267.9388302547
 21
-21.03618520800001
 31
0.0
  0
LINE
  5
94979
330
1E
100
AcDbEntity
  8
DETAIL
 62
     5
100
AcDbLine
 10
-309.0634447452999
 20
-21.04376429729996
 30
0.0
 11
-309.0887793372999
 21
-21.12625278000018
 31
0.0
  0
LINE
  5
9497A
330
1E
100
AcDbEntity
  8
DETAIL
 62
     5
100
AcDbLine
 10
267.8888888239999
 20
-21.19594857059997
 30
0.0
 11
267.9134462372999
 21
-21.11914930529997
 31
0.0
  0
LINE
  5
9497B
330
1E
100
AcDbEntity
  8
DETAIL
 62
     5
100
AcDbLine
 10
-309.0887793372999
 20
-21.12625278000018
 30
0.0
 11
-309.1132778292999
 21
-21.20255302260011
 31
0.0
  0
LINE
  5
9497C
330
1E
100
AcDbEntity
  8
DETAIL
 62
     5
100
AcDbLine
 10
267.8652047507003
 20
-21.26655985060006
 30
0.0
 11
267.8888888239999
 21
-21.19594857059997
 31
0.0
  0
LINE
  5
9497D
330
1E
100
AcDbEntity
  8
DETAIL
 62
     5
100
AcDbLine
 10
-309.1132778292999
 20
-21.20255302260011
 30
0.0
 11
-309.2134968667001
 21
-21.5
 31
0.0
  0
LINE
  5
9497E
330
1E
100
AcDbEntity
  8
DETAIL
 62
     5
100
AcDbLine
 10
267.8424354000004
 20
-21.33101966130016
 30
0.0
 11
267.8652047507003
 21
-21.26655985060006
 31
0.0
  0
LINE
  5
9497F
330
1E
100
AcDbEntity
  8
DETAIL
 62
     5
100
AcDbLine
 10
-309.1368948559998
 20
-21.27264762130017
 30
0.0
 11
-309.1595880492996
 21
-21.33657836930002
 31
0.0
  0
LINE
  5
94980
330
1E
100
AcDbEntity
  8
DETAIL
 62
     5
100
AcDbLine
 10
17.50415757600012
 20
-32.76541660399994
 30
0.0
 11
17.50129838400016
 21
-32.77325384530013
 31
0.0
  0
LINE
  5
94981
330
1E
100
AcDbEntity
  8
DETAIL
 62
     5
100
AcDbLine
 10
267.8207363120005
 20
-21.38912654000001
 30
0.0
 11
267.8424354000004
 21
-21.33101966130016
 31
0.0
  0
LINE
  5
94982
330
1E
100
AcDbEntity
  8
DETAIL
 62
     5
100
AcDbLine
 10
267.7767904774
 20
-21.5
 30
0.0
 11
267.8207363120005
 21
-21.38912654000001
 31
0.0
  0
LINE
  5
94983
330
1E
100
AcDbEntity
  8
DETAIL
 62
     5
100
AcDbLine
 10
-376.0
 20
-123.0
 30
0.0
 11
-378.0
 21
-125.0
 31
0.0
  0
LINE
  5
94984
330
1E
100
AcDbEntity
  8
DETAIL
 62
     5
100
AcDbLine
 10
376.0
 20
-110.0
 30
0.0
 11
378.0
 21
-108.0
 31
0.0
  0
LINE
  5
94985
330
1E
100
AcDbEntity
  8
DETAIL
 62
     5
100
AcDbLine
 10
114.8432387920002
 20
-23.06405148660019
 30
0.0
 11
81.00708982139986
 21
-31.9294180280001
 31
0.0
  0
LINE
  5
94986
330
1E
100
AcDbEntity
  8
DETAIL
 62
     5
100
AcDbLine
 10
-307.1999999999998
 20
-281.9979717546001
 30
0.0
 11
-314.1999999999998
 21
-281.9991852346002
 31
0.0
  0
LINE
  5
94987
330
1E
100
AcDbEntity
  8
DETAIL
 62
     5
100
AcDbLine
 10
-130.0
 20
-272.5
 30
0.0
 11
132.6111938107001
 21
-272.4317712746001
 31
0.0
  0
LINE
  5
94988
330
1E
100
AcDbEntity
  8
DETAIL
 62
     5
100
AcDbLine
 10
130.0
 20
-172.5
 30
0.0
 11
-132.6111938107001
 21
-172.5682287253
 31
0.0
  0
LINE
  5
94989
330
1E
100
AcDbEntity
  8
DEFAULT_1
  6
ByBlock
 62
     3
100
AcDbLine
 10
-445.0
 20
-285.0000000000001
 30
0.0
 11
445.0
 21
-285.0000000000001
 31
0.0
  0
LINE
  5
9498A
330
1E
100
AcDbEntity
  8
DETAIL
 62
     5
100
AcDbLine
 10
316.4000000000001
 20
-281.9991852346002
 30
0.0
 11
-314.1999999999998
 21
-281.9999159946002
 31
0.0
  0
LINE
  5
9498D
330
1E
100
AcDbEntity
  8
DETAIL
 62
     5
100
AcDbLine
 10
347.4000000000001
 20
-196.0
 30
0.0
 11
346.4000000000001
 21
-196.0
 31
0.0
  0
LINE
  5
9498E
330
1E
100
AcDbEntity
  8
DETAIL
 62
     5
100
AcDbLine
 10
-347.3999999999997
 20
-196.0
 30
0.0
 11
-344.1999999999998
 21
-196.0
 31
0.0
  0
LINE
  5
9498F
330
1E
100
AcDbEntity
  8
DETAIL
 62
     5
100
AcDbLine
 10
376.0
 20
-123.0
 30
0.0
 11
375.0
 21
-123.0
 31
0.0
  0
LINE
  5
94990
330
1E
100
AcDbEntity
  8
DETAIL
 62
     5
100
AcDbLine
 10
-375.0
 20
-123.0
 30
0.0
 11
-376.0
 21
-123.0
 31
0.0
  0
LINE
  5
94991
330
1E
100
AcDbEntity
  8
DETAIL
 62
     5
100
AcDbLine
 10
-376.0
 20
-110.0
 30
0.0
 11
-375.0
 21
-110.0
 31
0.0
  0
LINE
  5
94992
330
1E
100
AcDbEntity
  8
DETAIL
 62
     5
100
AcDbLine
 10
375.0
 20
-110.0
 30
0.0
 11
376.0
 21
-110.0
 31
0.0
  0
LINE
  5
94993
330
1E
100
AcDbEntity
  8
DETAIL
 62
     5
100
AcDbLine
 10
220.5
 20
-47.0
 30
0.0
 11
229.5
 21
-47.0
 31
0.0
  0
LINE
  5
94996
330
1E
100
AcDbEntity
  8
DETAIL
 62
     5
100
AcDbLine
 10
229.5
 20
-36.0
 30
0.0
 11
220.5
 21
-36.0
 31
0.0
  0
LINE
  5
94997
330
1E
100
AcDbEntity
  8
DETAIL
 62
     5
100
AcDbLine
 10
68.81597592800017
 20
-33.5
 30
0.0
 11
17.64645185600011
 21
-33.5
 31
0.0
  0
LINE
  5
94998
330
1E
100
AcDbEntity
  8
DETAIL
 62
     5
100
AcDbLine
 10
-17.64626076399963
 20
-33.5
 30
0.0
 11
-68.81597592800017
 21
-33.5
 31
0.0
  0
LINE
  5
94999
330
1E
100
AcDbEntity
  8
DETAIL
 62
     5
100
AcDbLine
 10
377.4000000000001
 20
-21.5
 30
0.0
 11
309.2248461720001
 21
-21.5
 31
0.0
  0
LINE
  5
9499A
330
1E
100
AcDbEntity
  8
DETAIL
 62
     5
100
AcDbLine
 10
267.7767904774
 20
-21.5
 30
0.0
 11
126.9836619827001
 21
-21.5
 31
0.0
  0
LINE
  5
9499B
330
1E
100
AcDbEntity
  8
DETAIL
 62
     5
100
AcDbLine
 10
-126.9836619839998
 20
-21.5
 30
0.0
 11
-267.775241496
 21
-21.5
 31
0.0
  0
LINE
  5
9499C
330
1E
100
AcDbEntity
  8
DETAIL
 62
     5
100
AcDbLine
 10
-309.2134968667001
 20
-21.5
 30
0.0
 11
-377.3999999999996
 21
-21.5
 31
0.0
  0
LINE
  5
9499D
330
1E
100
AcDbEntity
  8
DETAIL
 62
     5
100
AcDbLine
 10
-10.05704832799984
 20
-7.681887877300141
 30
0.0
 11
10.05704832799984
 21
-7.681887877300141
 31
0.0
  0
LINE
  5
9499E
330
1E
100
AcDbEntity
  8
DETAIL
 62
     5
100
AcDbLine
 10
300.4082180520004
 20
-7.5
 30
0.0
 11
276.5917819480001
 21
-7.5
 31
0.0
  0
LINE
  5
9499F
330
1E
100
AcDbEntity
  8
DETAIL
 62
     5
100
AcDbLine
 10
-300.4082180519999
 20
-7.5
 30
0.0
 11
-276.5917819480001
 21
-7.5
 31
0.0
  0
LINE
  5
949A0
330
1E
100
AcDbEntity
  8
DEFAULT_1
  6
ByBlock
 62
     3
100
AcDbLine
 10
445.0
 20
0.0
 30
0.0
 11
-445.0
 21
0.0
 31
0.0
  0
LINE
  5
949A1
330
1E
100
AcDbEntity
  8
DETAIL
 62
     5
100
AcDbLine
 10
-81.00708982259993
 20
-31.9294180280001
 30
0.0
 11
-114.8432387932998
 21
-23.06405148660019
 31
0.0
  0
LINE
  5
949A2
330
1E
100
AcDbEntity
  8
DETAIL
 62
     5
100
AcDbLine
 10
-378.0
 20
-108.0
 30
0.0
 11
-376.0
 21
-110.0
 31
0.0
  0
LINE
  5
949A3
330
1E
100
AcDbEntity
  8
DETAIL
 62
     5
100
AcDbLine
 10
378.0
 20
-125.0
 30
0.0
 11
376.0
 21
-123.0
 31
0.0
  0
LINE
  5
949A4
330
1E
100
AcDbEntity
  8
DETAIL
 62
     5
100
AcDbLine
 10
309.2016234520002
 20
-21.44538282000008
 30
0.0
 11
309.2248461720001
 21
-21.5
 31
0.0
  0
LINE
  5
949A5
330
1E
100
AcDbEntity
  8
DETAIL
 62
     5
100
AcDbLine
 10
-267.775241496
 20
-21.5
 30
0.0
 11
-267.8001933999999
 21
-21.44095543060007
 31
0.0
  0
LINE
  5
949A6
330
1E
100
AcDbEntity
  8
DETAIL
 62
     5
100
AcDbLine
 10
309.1811933427002
 20
-21.39412994660006
 30
0.0
 11
309.2016234520002
 21
-21.44538282000008
 31
0.0
  0
LINE
  5
949A7
330
1E
100
AcDbEntity
  8
DETAIL
 62
     5
100
AcDbLine
 10
-267.8001933999999
 20
-21.44095543060007
 30
0.0
 11
-267.8207363133001
 21
-21.38912654000001
 31
0.0
  0
LINE
  5
949A8
330
1E
100
AcDbEntity
  8
DETAIL
 62
     5
100
AcDbLine
 10
309.1595880479999
 20
-21.33657836930002
 30
0.0
 11
309.1811933427002
 21
-21.39412994660006
 31
0.0
  0
LINE
  5
949A9
330
1E
100
AcDbEntity
  8
DETAIL
 62
     5
100
AcDbLine
 10
-267.8207363133001
 20
-21.38912654000001
 30
0.0
 11
-267.8424354013
 21
-21.33101966130016
 31
0.0
  0
LINE
  5
949AA
330
1E
100
AcDbEntity
  8
DETAIL
 62
     5
100
AcDbLine
 10
-17.50415757729979
 20
-32.76541660399994
 30
0.0
 11
-17.50129479059978
 21
-32.773258188
 31
0.0
  0
LINE
  5
949AB
330
1E
100
AcDbEntity
  8
DETAIL
 62
     5
100
AcDbLine
 10
309.1368948546997
 20
-21.27264762130017
 30
0.0
 11
309.1595880479999
 21
-21.33657836930002
 31
0.0
  0
LINE
  5
949AC
330
1E
100
AcDbEntity
  8
DETAIL
 62
     5
100
AcDbLine
 10
-267.8424354013
 20
-21.33101966130016
 30
0.0
 11
-267.8652047519999
 21
-21.26655985060006
 31
0.0
  0
LINE
  5
949AD
330
1E
100
AcDbEntity
  8
DETAIL
 62
     5
100
AcDbLine
 10
309.1132778279998
 20
-21.20255302260011
 30
0.0
 11
309.1368948546997
 21
-21.27264762130017
 31
0.0
  0
LINE
  5
949AE
330
1E
100
AcDbEntity
  8
DETAIL
 62
     5
100
AcDbLine
 10
-267.8652047519999
 20
-21.26655985060006
 30
0.0
 11
-267.8888888253
 21
-21.19594857059997
 31
0.0
  0
LINE
  5
949AF
330
1E
100
AcDbEntity
  8
DETAIL
 62
     5
100
AcDbLine
 10
309.0887793359998
 20
-21.12625278000018
 30
0.0
 11
309.1132778279998
 21
-21.20255302260011
 31
0.0
  0
LINE
  5
949B0
330
1E
100
AcDbEntity
  8
DETAIL
 62
     5
100
AcDbLine
 10
-267.8888888253
 20
-21.19594857059997
 30
0.0
 11
-267.9134462372999
 21
-21.11914930529997
 31
0.0
  0
LINE
  5
949B1
330
1E
100
AcDbEntity
  8
DETAIL
 62
     5
100
AcDbLine
 10
309.0634447439998
 20
-21.04376429729996
 30
0.0
 11
309.0887793359998
 21
-21.12625278000018
 31
0.0
  0
LINE
  5
949B2
330
1E
100
AcDbEntity
  8
DETAIL
 62
     5
100
AcDbLine
 10
-267.9134462372999
 20
-21.11914930529997
 30
0.0
 11
-267.9388302560001
 21
-21.03618520800001
 31
0.0
  0
LINE
  5
949B3
330
1E
100
AcDbEntity
  8
DETAIL
 62
     5
100
AcDbLine
 10
309.0373728587001
 20
-20.95526784000004
 30
0.0
 11
309.0634447439998
 21
-21.04376429729996
 31
0.0
  0
LINE
  5
949B4
330
1E
100
AcDbEntity
  8
DETAIL
 62
     5
100
AcDbLine
 10
-267.9388302560001
 20
-21.03618520800001
 30
0.0
 11
-267.9649428133002
 21
-20.94723740259997
 31
0.0
  0
LINE
  5
949B5
330
1E
100
AcDbEntity
  8
DETAIL
 62
     5
100
AcDbLine
 10
10.58461355340023
 20
-9.510521423999989
 30
0.0
 11
10.32579450799994
 21
-8.599191200000177
 31
0.0
  0
LINE
  5
949B6
330
1E
100
AcDbEntity
  8
DETAIL
 62
     5
100
AcDbLine
 10
12.68741444939996
 20
-14.91735997460023
 30
0.0
 11
11.16178834799984
 21
-9.545463268000048
 31
0.0
  0
LINE
  5
949B7
330
1E
100
AcDbEntity
  8
DETAIL
 62
     5
100
AcDbLine
 10
309.0106293280001
 20
-20.86090616530009
 30
0.0
 11
309.0373728587001
 21
-20.95526784000004
 31
0.0
  0
LINE
  5
949B8
330
1E
100
AcDbEntity
  8
DETAIL
 62
     5
100
AcDbLine
 10
-267.9649428133002
 20
-20.94723740259997
 30
0.0
 11
-267.9917222972999
 21
-20.85244352000018
 31
0.0
  0
LINE
  5
949B9
330
1E
100
AcDbEntity
  8
DETAIL
 62
     5
100
AcDbLine
 10
308.9833182666998
 20
-20.76107551200016
 30
0.0
 11
309.0106293280001
 21
-20.86090616530009
 31
0.0
  0
LINE
  5
949BA
330
1E
100
AcDbEntity
  8
DETAIL
 62
     5
100
AcDbLine
 10
-267.9917222972999
 20
-20.85244352000018
 30
0.0
 11
-268.0190680892997
 21
-20.75219716259994
 31
0.0
  0
LINE
  5
949BB
330
1E
100
AcDbEntity
  8
DETAIL
 62
     5
100
AcDbLine
 10
17.50415815199994
 20
-32.76541644930012
 30
0.0
 11
12.74141231600015
 21
-15.06820780399994
 31
0.0
  0
LINE
  5
949BC
330
1E
100
AcDbEntity
  8
DETAIL
 62
     5
100
AcDbLine
 10
-270.2166714946002
 20
-12.39179430259992
 30
0.0
 11
-268.3536437305997
 21
-19.34470857330007
 31
0.0
  0
LINE
  5
949BD
330
1E
100
AcDbEntity
  8
DETAIL
 62
     5
100
AcDbLine
 10
308.6463562694003
 20
-19.34470857330007
 30
0.0
 11
306.7833285053998
 21
-12.39179430259992
 31
0.0
  0
LINE
  5
949BE
330
1E
100
AcDbEntity
  8
DETAIL
 62
     5
100
AcDbLine
 10
308.9554213853999
 20
-20.65582903600011
 30
0.0
 11
308.9833182666998
 21
-20.76107551200016
 31
0.0
  0
LINE
  5
949BF
330
1E
100
AcDbEntity
  8
DETAIL
 62
     5
100
AcDbLine
 10
-268.0190680892997
 20
-20.75219716259994
 30
0.0
 11
-268.0470050733002
 21
-20.646528988
 31
0.0
  0
LINE
  5
949C0
330
1E
100
AcDbEntity
  8
DETAIL
 62
     5
100
AcDbLine
 10
308.9269072800003
 20
-20.54515553200008
 30
0.0
 11
308.9554213853999
 21
-20.65582903600011
 31
0.0
  0
LINE
  5
949C1
330
1E
100
AcDbEntity
  8
DETAIL
 62
     5
100
AcDbLine
 10
-268.0470050733002
 20
-20.646528988
 30
0.0
 11
-268.0755639572999
 21
-20.53542498800016
 31
0.0
  0
LINE
  5
949C2
330
1E
100
AcDbEntity
  8
DETAIL
 62
     5
100
AcDbLine
 10
308.8977655547001
 20
-20.42906917730011
 30
0.0
 11
308.9269072800003
 21
-20.54515553200008
 31
0.0
  0
LINE
  5
949C3
330
1E
100
AcDbEntity
  8
DETAIL
 62
     5
100
AcDbLine
 10
-268.0755639572999
 20
-20.53542498800016
 30
0.0
 11
-268.1047512825998
 21
-20.41890995460017
 31
0.0
  0
LINE
  5
949C4
330
1E
100
AcDbEntity
  8
DETAIL
 62
     5
100
AcDbLine
 10
308.8680028280001
 20
-20.30767069600006
 30
0.0
 11
308.8977655547001
 21
-20.42906917730011
 31
0.0
  0
LINE
  5
949C5
330
1E
100
AcDbEntity
  8
DETAIL
 62
     5
100
AcDbLine
 10
-268.1047512825998
 20
-20.41890995460017
 30
0.0
 11
-268.1345561520002
 21
-20.29710975860007
 31
0.0
  0
LINE
  5
949C6
330
1E
100
AcDbEntity
  8
DETAIL
 62
     5
100
AcDbLine
 10
308.837681768
 20
-20.18140293729993
 30
0.0
 11
308.8680028280001
 21
-20.30767069600006
 31
0.0
  0
LINE
  5
949C7
330
1E
100
AcDbEntity
  8
DETAIL
 62
     5
100
AcDbLine
 10
-268.1345561520002
 20
-20.29710975860007
 30
0.0
 11
-268.1958703760001
 21
-20.0391327320001
 31
0.0
  0
LINE
  5
949C8
330
1E
100
AcDbEntity
  8
DETAIL
 62
     5
100
AcDbLine
 10
308.7752864307004
 20
-19.91501207200008
 30
0.0
 11
308.837681768
 21
-20.18140293729993
 31
0.0
  0
LINE
  5
949C9
330
1E
100
AcDbEntity
  8
DETAIL
 62
     5
100
AcDbLine
 10
17.63361171070028
 20
-33.44470942660019
 30
0.0
 11
17.64645185600011
 21
-33.5
 31
0.0
  0
LINE
  5
949CA
330
1E
100
AcDbEntity
  8
DETAIL
 62
     5
100
AcDbLine
 10
-268.1958703760001
 20
-20.0391327320001
 30
0.0
 11
-268.2594114159997
 21
-19.76387462930006
 31
0.0
  0
LINE
  5
949CB
330
1E
100
AcDbEntity
  8
DETAIL
 62
     5
100
AcDbLine
 10
308.6425105666999
 20
-19.33100818800017
 30
0.0
 11
308.7752864307004
 21
-19.91501207200008
 31
0.0
  0
LINE
  5
949CC
330
1E
100
AcDbEntity
  8
DETAIL
 62
     5
100
AcDbLine
 10
-268.2594114159997
 20
-19.76387462930006
 30
0.0
 11
-268.3574894333001
 21
-19.33100818800017
 31
0.0
  0
LINE
  5
949CD
330
1E
100
AcDbEntity
  8
DETAIL
 62
     5
100
AcDbLine
 10
17.62235144270016
 20
-33.39433410400011
 30
0.0
 11
17.63361171070028
 21
-33.44470942660019
 31
0.0
  0
LINE
  5
949CE
330
1E
100
AcDbEntity
  8
DETAIL
 62
     5
100
AcDbLine
 10
17.61073907199989
 20
-33.34065738260006
 30
0.0
 11
17.62235144270016
 21
-33.39433410400011
 31
0.0
  0
LINE
  5
949CF
330
1E
100
AcDbEntity
  8
DETAIL
 62
     5
100
AcDbLine
 10
17.59879686539989
 20
-33.28384958000015
 30
0.0
 11
17.61073907199989
 21
-33.34065738260006
 31
0.0
  0
LINE
  5
949D0
330
1E
100
AcDbEntity
  8
DETAIL
 62
     5
100
AcDbLine
 10
17.58652504539987
 20
-33.22391598000013
 30
0.0
 11
17.59879686539989
 21
-33.28384958000015
 31
0.0
  0
LINE
  5
949D1
330
1E
100
AcDbEntity
  8
DETAIL
 62
     5
100
AcDbLine
 10
17.57398981470032
 20
-33.16110445200002
 30
0.0
 11
17.58652504539987
 21
-33.22391598000013
 31
0.0
  0
LINE
  5
949D2
330
1E
100
AcDbEntity
  8
DETAIL
 62
     5
100
AcDbLine
 10
17.54818496400003
 20
-33.02719402530011
 30
0.0
 11
17.57398981470032
 21
-33.16110445200002
 31
0.0
  0
LINE
  5
949D3
330
1E
100
AcDbEntity
  8
DETAIL
 62
     5
100
AcDbLine
 10
17.50097743740025
 20
-32.77333628530005
 30
0.0
 11
17.54818496400003
 21
-33.02719402530011
 31
0.0
  0
ARC
  5
949D4
330
1E
100
AcDbEntity
  8
DETAIL
 62
     5
100
AcDbCircle
 10
68.81597592800017
 20
14.59999999999991
 30
0.0
 40
48.1
100
AcDbArc
 50
270.0
 51
284.6819677413977
  0
ARC
  5
949D5
330
1E
100
AcDbEntity
  8
DETAIL
 62
     5
100
AcDbCircle
 10
-68.81597592800017
 20
14.59999999999991
 30
0.0
 40
48.1
100
AcDbArc
 50
255.3180322586023
 51
270.0
  0
ARC
  5
949D6
330
1E
100
AcDbEntity
  8
DETAIL
 62
     5
100
AcDbCircle
 10
126.9836619827001
 20
-69.40000000000009
 30
0.0
 40
47.9
100
AcDbArc
 50
90.0
 51
104.6819677413975
  0
ARC
  5
949D7
330
1E
100
AcDbEntity
  8
DETAIL
 62
     5
100
AcDbCircle
 10
-126.9836619839998
 20
-69.40000000000009
 30
0.0
 40
47.9
100
AcDbArc
 50
75.31803225860246
 51
90.0
  0
CIRCLE
  5
949D8
330
1E
100
AcDbEntity
  8
DETAIL
 62
     5
100
AcDbCircle
 10
397.0
 20
-244.0
 30
0.0
 40
32.5
  0
CIRCLE
  5
949D9
330
1E
100
AcDbEntity
  8
DETAIL
 62
     5
100
AcDbCircle
 10
-397.0
 20
-243.0
 30
0.0
 40
32.5
  0
ARC
  5
949DA
330
1E
100
AcDbEntity
  8
DETAIL
 62
     5
100
AcDbCircle
 10
347.4000000000001
 20
-165.4000000000001
 30
0.0
 40
30.6
100
AcDbArc
 50
270.0
 51
0.0
  0
ARC
  5
949DB
330
1E
100
AcDbEntity
  8
DETAIL
 62
     5
100
AcDbCircle
 10
-347.3999999999997
 20
-165.4000000000001
 30
0.0
 40
30.6
100
AcDbArc
 50
180.0
 51
270.0
  0
ARC
  5
949DC
330
1E
100
AcDbEntity
  8
DETAIL
 62
     5
100
AcDbCircle
 10
346.4000000000001
 20
-225.4000000000001
 30
0.0
 40
29.4
100
AcDbArc
 50
90.0
 51
180.0
  0
ARC
  5
949DD
330
1E
100
AcDbEntity
  8
DETAIL
 62
     5
100
AcDbCircle
 10
-344.1999999999998
 20
-225.4000000000001
 30
0.0
 40
29.4
100
AcDbArc
 50
0.0
 51
90.0
  0
ARC
  5
949DE
330
1E
100
AcDbEntity
  8
DETAIL
 62
     5
100
AcDbCircle
 10
300.4082180520004
 20
-14.10000000000013
 30
0.0
 40
6.599999999999999
100
AcDbArc
 50
15.00000000000121
 51
90.0
  0
ARC
  5
949DF
330
1E
100
AcDbEntity
  8
DETAIL
 62
     5
100
AcDbCircle
 10
276.5917819480001
 20
-14.10000000000013
 30
0.0
 40
6.599999999999999
100
AcDbArc
 50
90.0
 51
164.9999999999987
  0
ARC
  5
949E0
330
1E
100
AcDbEntity
  8
DETAIL
 62
     5
100
AcDbCircle
 10
-300.4082180519999
 20
-14.10000000000013
 30
0.0
 40
6.599999999999999
100
AcDbArc
 50
90.0
 51
164.9999999999987
  0
ARC
  5
949E1
330
1E
100
AcDbEntity
  8
DETAIL
 62
     5
100
AcDbCircle
 10
-276.5917819480001
 20
-14.10000000000013
 30
0.0
 40
6.599999999999999
100
AcDbArc
 50
15.00000000000121
 51
90.0
  0
ARC
  5
949E2
330
1E
100
AcDbEntity
  8
DETAIL
 62
     5
100
AcDbCircle
 10
229.5
 20
-41.5
 30
0.0
 40
5.5
100
AcDbArc
 50
270.0
 51
90.0
  0
ARC
  5
949E3
330
1E
100
AcDbEntity
  8
DETAIL
 62
     5
100
AcDbCircle
 10
220.5
 20
-41.5
 30
0.0
 40
5.5
100
AcDbArc
 50
90.0
 51
270.0
  0
ARC
  5
949E4
330
1E
100
AcDbEntity
  8
DETAIL
 62
     5
100
AcDbCircle
 10
-225.0
 20
-46.0
 30
0.0
 40
5.5
100
AcDbArc
 50
180.0
 51
0.0
  0
ARC
  5
949E5
330
1E
100
AcDbEntity
  8
DETAIL
 62
     5
100
AcDbCircle
 10
-225.0
 20
-37.0
 30
0.0
 40
5.5
100
AcDbArc
 50
0.0
 51
180.0
  0
ARC
  5
949E6
330
1E
100
AcDbEntity
  8
DETAIL
 62
     5
100
AcDbCircle
 10
5.095795525399807
 20
-10.08517701730011
 30
0.0
 40
5.437006824
100
AcDbArc
 50
15.86129890939882
 51
21.60740948840226
  0
ARC
  5
949E7
330
1E
100
AcDbEntity
  8
DETAIL
 62
     5
100
AcDbCircle
 10
-5.095795526599886
 20
-10.08517701730011
 30
0.0
 40
5.437006824
100
AcDbArc
 50
158.3925905115977
 51
164.1387010906012
  0
ARC
  5
949E8
330
1E
100
AcDbEntity
  8
DETAIL
 62
     5
100
AcDbCircle
 10
375.0
 20
-122.0
 30
0.0
 40
1.0
100
AcDbArc
 50
90.0
 51
270.0
  0
ARC
  5
949E9
330
1E
100
AcDbEntity
  8
DETAIL
 62
     5
100
AcDbCircle
 10
375.0
 20
-111.0
 30
0.0
 40
1.0
100
AcDbArc
 50
90.0
 51
270.0
  0
ARC
  5
949EA
330
1E
100
AcDbEntity
  8
DETAIL
 62
     5
100
AcDbCircle
 10
-375.0
 20
-122.0
 30
0.0
 40
1.0
100
AcDbArc
 50
270.0
 51
90.0
  0
ARC
  5
949EB
330
1E
100
AcDbEntity
  8
DETAIL
 62
     5
100
AcDbCircle
 10
-375.0
 20
-111.0
 30
0.0
 40
1.0
100
AcDbArc
 50
270.0
 51
90.0
  0
ARC
  5
949EC
330
1E
100
AcDbEntity
  8
DETAIL
 62
     5
100
AcDbCircle
 10
316.4000000000001
 20
-281.3991852439999
 30
0.0
 40
0.6
100
AcDbArc
 50
270.0
 51
0.0
  0
ARC
  5
949ED
330
1E
100
AcDbEntity
  8
DETAIL
 62
     5
100
AcDbCircle
 10
377.4000000000001
 20
-22.10000000000014
 30
0.0
 40
0.6
100
AcDbArc
 50
0.0
 51
90.0
  0
ARC
  5
949EE
330
1E
100
AcDbEntity
  8
DETAIL
 62
     5
100
AcDbCircle
 10
-314.1999999999998
 20
-281.3991852439999
 30
0.0
 40
0.6
100
AcDbArc
 50
180.0
 51
270.0
  0
ARC
  5
949EF
330
1E
100
AcDbEntity
  8
DETAIL
 62
     5
100
AcDbCircle
 10
-377.3999999999996
 20
-22.10000000000014
 30
0.0
 40
0.6
100
AcDbArc
 50
90.0
 51
180.0
  0
ARC
  5
949F0
330
1E
100
AcDbEntity
  8
DETAIL
 62
     5
100
AcDbCircle
 10
165.35533906
 20
-257.8553390586001
 30
0.0
 40
0.4
100
AcDbArc
 50
45.5729673449027
 51
224.4270326551045
  0
ARC
  5
949F1
330
1E
100
AcDbEntity
  8
DETAIL
 62
     5
100
AcDbCircle
 10
165.35533906
 20
-187.14466094
 30
0.0
 40
0.4
100
AcDbArc
 50
135.5729673448119
 51
314.4270326550973
  0
ARC
  5
949F2
330
1E
100
AcDbEntity
  8
DETAIL
 62
     5
100
AcDbCircle
 10
-165.3553390585998
 20
-257.8553390586001
 30
0.0
 40
0.4
100
AcDbArc
 50
315.5729673448119
 51
134.4270326549942
  0
ARC
  5
949F3
330
1E
100
AcDbEntity
  8
DETAIL
 62
     5
100
AcDbCircle
 10
-165.3553390585998
 20
-187.14466094
 30
0.0
 40
0.4
100
AcDbArc
 50
225.5729673447997
 51
44.4270326551045
  0
SPLINE
  5
949F4
330
1E
100
AcDbEntity
  8
DETAIL
 62
     5
100
AcDbSpline
210
0.0
220
0.0
230
1.0
 70
     8
 71
     3
 72
    10
 73
     6
 74
     0
 42
0.0000001
 43
0.0000000001
 40
0.0
 40
0.0
 40
0.0
 40
0.0
 40
0.7055108352
 40
0.9104307637999999
 40
1.0
 40
1.0
 40
1.0
 40
1.0
 10
10.15073774940038
 20
-8.083027590600067
 30
0.0
 10
10.13846803470005
 20
-7.985691964000125
 30
0.0
 10
10.12022584140004
 20
-7.852142556000217
 30
0.0
 10
10.0912640427
 20
-7.730191439999998
 30
0.0
 10
10.06950361600002
 20
-7.681896998599995
 30
0.0
 10
10.05704842800014
 20
-7.681889253300141
 30
0.0
  0
SPLINE
  5
949F5
330
1E
100
AcDbEntity
  8
DETAIL
 62
     5
100
AcDbSpline
210
0.0
220
0.0
230
1.0
 70
     8
 71
     3
 72
     8
 73
     4
 74
     0
 42
0.0000001
 43
0.0000000001
 40
0.0
 40
0.0
 40
0.0
 40
0.0
 40
1.0
 40
1.0
 40
1.0
 40
1.0
 10
12.68741086140017
 20
-14.91736099729996
 30
0.0
 10
12.69617126669982
 20
-14.94819109200011
 30
0.0
 10
12.6774536547
 20
-14.98377002800021
 30
0.0
 10
12.65726881870023
 20
-15.00866604800012
 30
0.0
  0
SPLINE
  5
949F6
330
1E
100
AcDbEntity
  8
DETAIL
 62
     5
100
AcDbSpline
210
0.0
220
0.0
230
1.0
 70
     8
 71
     3
 72
     8
 73
     4
 74
     0
 42
0.0000001
 43
0.0000000001
 40
0.0
 40
0.0
 40
0.0
 40
0.0
 40
1.0
 40
1.0
 40
1.0
 40
1.0
 10
12.65726881870023
 20
-15.00866604800012
 30
0.0
 10
12.63770492940011
 20
-15.0327961933001
 30
0.0
 10
12.6141037747002
 20
-15.05358860000001
 30
0.0
 10
12.58909985330001
 20
-15.07234144000017
 30
0.0
  0
SPLINE
  5
949F7
330
1E
100
AcDbEntity
  8
DETAIL
 62
     5
100
AcDbSpline
210
0.0
220
0.0
230
1.0
 70
     8
 71
     3
 72
     8
 73
     4
 74
     0
 42
0.0000001
 43
0.0000000001
 40
0.0
 40
0.0
 40
0.0
 40
0.0
 40
1.0
 40
1.0
 40
1.0
 40
1.0
 10
-12.68741086259979
 20
-14.91736099729996
 30
0.0
 10
-12.69617126659978
 20
-14.94819109200011
 30
0.0
 10
-12.67745365600012
 20
-14.98377002800021
 30
0.0
 10
-12.6572688199999
 20
-15.00866604800012
 30
0.0
  0
SPLINE
  5
949F8
330
1E
100
AcDbEntity
  8
DETAIL
 62
     5
100
AcDbSpline
210
0.0
220
0.0
230
1.0
 70
     8
 71
     3
 72
     8
 73
     4
 74
     0
 42
0.0000001
 43
0.0000000001
 40
0.0
 40
0.0
 40
0.0
 40
0.0
 40
1.0
 40
1.0
 40
1.0
 40
1.0
 10
-12.6572688199999
 20
-15.00866604800012
 30
0.0
 10
-12.63770493069978
 20
-15.0327961933001
 30
0.0
 10
-12.61410377460015
 20
-15.05358860130013
 30
0.0
 10
-12.58909985330001
 20
-15.07234144000017
 30
0.0
  0
SPLINE
  5
949F9
330
1E
100
AcDbEntity
  8
DETAIL
 62
     5
100
AcDbSpline
210
0.0
220
0.0
230
1.0
 70
     8
 71
     3
 72
    10
 73
     6
 74
     0
 42
0.0000001
 43
0.0000000001
 40
0.0
 40
0.0
 40
0.0
 40
0.0
 40
0.089569236
 40
0.2944891649
 40
1.0
 40
1.0
 40
1.0
 40
1.0
 10
-10.05704842929981
 20
-7.681889253300141
 30
0.0
 10
-10.06950361730014
 20
-7.681896998599995
 30
0.0
 10
-10.09126404399967
 20
-7.730191439999998
 30
0.0
 10
-10.1202258413
 20
-7.852142556000217
 30
0.0
 10
-10.13846803599972
 20
-7.985691964000125
 30
0.0
 10
-10.15073774929988
 20
-8.083027590600067
 30
0.0
  0
SPLINE
  5
949FA
330
1E
100
AcDbEntity
  8
DETAIL
 62
     5
100
AcDbSpline
210
0.0
220
0.0
230
1.0
 70
     8
 71
     3
 72
     9
 73
     5
 74
     0
 42
0.0000001
 43
0.0000000001
 40
0.0
 40
0.0
 40
0.0
 40
0.0
 40
0.6591982243
 40
1.0
 40
1.0
 40
1.0
 40
1.0
 10
10.58461355340023
 20
-9.510521423999989
 30
0.0
 10
10.71181281340023
 20
-9.478364904000045
 30
0.0
 10
10.88126794139998
 20
-9.444022888000063
 30
0.0
 10
11.14324469870007
 20
-9.480217091999975
 30
0.0
 10
11.16178476140021
 20
-9.545464290599966
 30
0.0
  0
SPLINE
  5
949FB
330
1E
100
AcDbEntity
  8
DETAIL
 62
     5
100
AcDbSpline
210
0.0
220
0.0
230
1.0
 70
     8
 71
     3
 72
     9
 73
     5
 74
     0
 42
0.0000001
 43
0.0000000001
 40
0.0
 40
0.0
 40
0.0
 40
0.0
 40
0.6591982243
 40
1.0
 40
1.0
 40
1.0
 40
1.0
 10
-10.58461355459985
 20
-9.510521423999989
 30
0.0
 10
-10.71181281459985
 20
-9.478364904000045
 30
0.0
 10
-10.88126794129994
 20
-9.444022888000063
 30
0.0
 10
-11.14324469999974
 20
-9.480217091999975
 30
0.0
 10
-11.16178476129971
 20
-9.545464290599966
 30
0.0
  0
SPLINE
  5
949FC
330
1E
100
AcDbEntity
  8
DETAIL
 62
     5
100
AcDbSpline
210
0.0
220
0.0
230
1.0
 70
     8
 71
     3
 72
     9
 73
     5
 74
     0
 42
0.0000001
 43
0.0000000001
 40
0.0
 40
0.0
 40
0.0
 40
0.0
 40
0.7212477638000001
 40
1.0
 40
1.0
 40
1.0
 40
1.0
 10
-12.58909985330001
 20
-15.07234144000017
 30
0.0
 10
-12.62551599859989
 20
-15.06649191730003
 30
0.0
 10
-12.66403996259987
 20
-15.06548672400004
 30
0.0
 10
-12.73768559200016
 20
-15.05440645860017
 30
0.0
 10
-12.7414117413
 20
-15.06820795860017
 30
0.0
  0
SPLINE
  5
949FD
330
1E
100
AcDbEntity
  8
DETAIL
 62
     5
100
AcDbSpline
210
0.0
220
0.0
230
1.0
 70
     8
 71
     3
 72
     9
 73
     5
 74
     0
 42
0.0000001
 43
0.0000000001
 40
0.0
 40
0.0
 40
0.0
 40
0.0
 40
0.7212477625
 40
1.0
 40
1.0
 40
1.0
 40
1.0
 10
12.58909985330001
 20
-15.07234144000017
 30
0.0
 10
12.62551599729977
 20
-15.06649191730003
 30
0.0
 10
12.66403996269992
 20
-15.06548672400004
 30
0.0
 10
12.73768559070004
 20
-15.05440645860017
 30
0.0
 10
12.74141174000033
 20
-15.06820795860017
 30
0.0
  0
SPLINE
  5
949FE
330
1E
100
AcDbEntity
  8
DETAIL
 62
     5
100
AcDbSpline
210
0.0
220
0.0
230
1.0
 70
     8
 71
     3
 72
    11
 73
     7
 74
     0
 42
0.0000001
 43
0.0000000001
 40
0.0
 40
0.0
 40
0.0
 40
0.0
 40
0.2580872023
 40
0.508990409
 40
0.7554092821
 40
1.0
 40
1.0
 40
1.0
 40
1.0
 10
-165.0696820625999
 20
-186.8646607973001
 30
0.0
 10
-162.8237347107001
 20
-184.7083691693001
 30
0.0
 10
-158.0243534412998
 20
-180.8191388305999
 30
0.0
 10
-149.9935876786999
 20
-176.411449104
 30
0.0
 10
-141.4590939627001
 20
-173.5636463080002
 30
0.0
 10
-135.5578083799996
 20
-172.723074444
 30
0.0
 10
-132.6111938107001
 20
-172.5682287253
 30
0.0
  0
SPLINE
  5
949FF
330
1E
100
AcDbEntity
  8
DETAIL
 62
     5
100
AcDbSpline
210
0.0
220
0.0
230
1.0
 70
     8
 71
     3
 72
    11
 73
     7
 74
     0
 42
0.0000001
 43
0.0000000001
 40
0.0
 40
0.0
 40
0.0
 40
0.0
 40
0.2465213534
 40
0.4920753059000001
 40
0.7416925544
 40
1.0
 40
1.0
 40
1.0
 40
1.0
 10
130.0
 20
-172.5
 30
0.0
 10
133.1877111720005
 20
-172.5
 30
0.0
 10
139.5681369093999
 20
-173.1131635613001
 30
0.0
 10
148.8135930800003
 20
-175.8711628946
 30
0.0
 10
157.4962247067001
 20
-180.4193237946001
 30
0.0
 10
162.6596486320004
 20
-184.552064144
 30
0.0
 10
165.0696820627004
 20
-186.8646607973001
 30
0.0
  0
SPLINE
  5
94A00
330
1E
100
AcDbEntity
  8
DETAIL
 62
     5
100
AcDbSpline
210
0.0
220
0.0
230
1.0
 70
     8
 71
     3
 72
    13
 73
     9
 74
     0
 42
0.0000001
 43
0.0000000001
 40
0.0
 40
0.0
 40
0.0
 40
0.0
 40
0.1251256693
 40
0.2501934278
 40
0.4999120097
 40
0.7496452124
 40
0.8748069787
 40
1.0
 40
1.0
 40
1.0
 40
1.0
 10
165.6353392027004
 20
-187.4303179373
 30
0.0
 10
167.8427683520003
 20
-189.7645824986
 30
0.0
 10
171.8245673427004
 20
-194.8658834706
 30
0.0
 10
177.7077847427003
 20
-206.3424036360002
 30
0.0
 10
180.8259677533001
 20
-222.4933932826
 30
0.0
 10
177.7114522827005
 20
-238.6476603493
 30
0.0
 10
171.8280700733003
 20
-250.129308584
 30
0.0
 10
167.8440069107
 20
-255.2342086440001
 30
0.0
 10
165.6353392027004
 20
-257.5696820613002
 30
0.0
  0
SPLINE
  5
94A01
330
1E
100
AcDbEntity
  8
DETAIL
 62
     5
100
AcDbSpline
210
0.0
220
0.0
230
1.0
 70
     8
 71
     3
 72
    11
 73
     7
 74
     0
 42
0.0000001
 43
0.0000000001
 40
0.0
 40
0.0
 40
0.0
 40
0.0
 40
0.2580872023
 40
0.508990409
 40
0.7554092821
 40
1.0
 40
1.0
 40
1.0
 40
1.0
 10
165.0696820627004
 20
-258.1353392013002
 30
0.0
 10
162.8237347107001
 20
-260.2916308293
 30
0.0
 10
158.0243534414003
 20
-264.1808611693
 30
0.0
 10
149.9935876786999
 20
-268.5885508960002
 30
0.0
 10
141.4590939627005
 20
-271.4363536906001
 30
0.0
 10
135.5578083800001
 20
-272.2769255560002
 30
0.0
 10
132.6111938107001
 20
-272.4317712746001
 30
0.0
  0
SPLINE
  5
94A02
330
1E
100
AcDbEntity
  8
DETAIL
 62
     5
100
AcDbSpline
210
0.0
220
0.0
230
1.0
 70
     8
 71
     3
 72
    11
 73
     7
 74
     0
 42
0.0000001
 43
0.0000000001
 40
0.0
 40
0.0
 40
0.0
 40
0.0
 40
0.2465213534
 40
0.4920753059000001
 40
0.7416925544
 40
1.0
 40
1.0
 40
1.0
 40
1.0
 10
-130.0
 20
-272.5
 30
0.0
 10
-133.187711172
 20
-272.5
 30
0.0
 10
-139.5681369092999
 20
-271.8868364386001
 30
0.0
 10
-148.8135930786002
 20
-269.128837104
 30
0.0
 10
-157.4962247066
 20
-264.5806762039999
 30
0.0
 10
-162.6596486319999
 20
-260.4479358560002
 30
0.0
 10
-165.0696820625999
 20
-258.1353392013002
 30
0.0
  0
SPLINE
  5
94A03
330
1E
100
AcDbEntity
  8
DETAIL
 62
     5
100
AcDbSpline
210
0.0
220
0.0
230
1.0
 70
     8
 71
     3
 72
    13
 73
     9
 74
     0
 42
0.0000001
 43
0.0000000001
 40
0.0
 40
0.0
 40
0.0
 40
0.0
 40
0.1251256693
 40
0.2501934278
 40
0.4999120097
 40
0.7496452124
 40
0.8748069787
 40
1.0
 40
1.0
 40
1.0
 40
1.0
 10
-165.6353392026999
 20
-257.5696820613002
 30
0.0
 10
-167.8427683506997
 20
-255.2354175013002
 30
0.0
 10
-171.8245673425999
 20
-250.134116528
 30
0.0
 10
-177.7077847426999
 20
-238.6575963626001
 30
0.0
 10
-180.8259677533001
 20
-222.5066067173
 30
0.0
 10
-177.7114522826
 20
-206.3523396493001
 30
0.0
 10
-171.8280700732998
 20
-194.8706914146
 30
0.0
 10
-167.8440069107
 20
-189.7657913560001
 30
0.0
 10
-165.6353392026999
 20
-187.4303179373
 30
0.0
  0
LINE
  5
94BBD
330
1E
100
AcDbEntity
  8
BASIS
  6
DASHDOT
100
AcDbLine
 10
-225.0
 20
-25.85469494929999
 30
0.0
 11
-225.0
 21
-59.46381036399998
 31
0.0
  0
LINE
  5
94BBE
330
1E
100
AcDbEntity
  8
BASIS
  6
DASHDOT
100
AcDbLine
 10
-209.6769359106001
 20
-41.5
 30
0.0
 11
-234.5978461280001
 21
-41.5
 31
0.0
  0
LINE
  5
94BBF
330
1E
100
AcDbEntity
  8
BASIS
  6
CENTER
100
AcDbLine
 10
225.0
 20
-28.53657307200001
 30
0.0
 11
225.0
 21
-54.12438895729997
 31
0.0
  0
LINE
  5
94BC0
330
1E
100
AcDbEntity
  8
BASIS
  6
CENTER
100
AcDbLine
 10
243.8675789093004
 20
-41.5
 30
0.0
 11
206.8615694026003
 21
-41.5
 31
0.0
  0
LINE
  5
94BC7
330
1E
100
AcDbEntity
  8
SIZE
  6
Continuous
100
AcDbLine
 10
397.0
 20
-211.5
 30
0.0
 11
397.0
 21
-279.212167409682
 31
0.0
  0
DIMENSION
  5
94CAE
330
1E
100
AcDbEntity
  8
SIZE
  6
Continuous
100
AcDbDimension
  2
*D16
 10
445.0000000000001
 20
-518.1679737637405
 30
0.0
 11
577.5559002953632
 21
-518.1679737637405
 31
0.0
 70
   160
 71
     5
 42
48.00000000000006
  3
STANDARD
100
AcDbAlignedDimension
 13
397.0
 23
-394.7224861484734
 33
0.0
 14
445.0000000000001
 24
-285.0000000000001
 34
0.0
100
AcDbRotatedDimension
1001
ACAD
1000
DSTYLE
1002
{
1070
    41
1040
10.0
1070
    42
1040
20.0
1070
    43
1040
200.0
1070
    44
1040
20.0
1070
    73
1070
     0
1070
    74
1070
     0
1070
    77
1070
     1
1070
    78
1070
     8
1070
   140
1040
50.0
1070
   141
1040
0.082
1070
   147
1040
10.0
1070
   172
1070
     1
1070
   271
1070
     1
1070
   272
1070
     1
1070
   341
1005
46
1070
   342
1005
46
1002
}
  0
DIMENSION
  5
94CAF
330
1E
100
AcDbEntity
  8
SIZE
  6
Continuous
100
AcDbDimension
  2
*D17
 10
-445.0
 20
-518.1679737637405
 30
0.0
 11
-501.4285714285714
 21
-483.1679737637405
 31
0.0
 70
    32
 71
     5
 42
48.00000000000096
  3
STANDARD
100
AcDbAlignedDimension
 13
-396.999999999999
 23
-285.0000000000001
 33
0.0
 14
-445.0
 24
-285.0000000000001
 34
0.0
100
AcDbRotatedDimension
1001
ACAD
1000
DSTYLE
1002
{
1070
    41
1040
10.0
1070
    42
1040
20.0
1070
    43
1040
200.0
1070
    44
1040
20.0
1070
    73
1070
     0
1070
    74
1070
     0
1070
    77
1070
     1
1070
    78
1070
     8
1070
   140
1040
50.0
1070
   141
1040
0.082
1070
   147
1040
10.0
1070
   172
1070
     1
1070
   271
1070
     1
1070
   272
1070
     1
1070
   341
1005
46
1070
   342
1005
46
1002
}
  0
ENDSEC
  0
SECTION
  2
OBJECTS
  0
DICTIONARY
  5
C
330
0
100
AcDbDictionary
281
     1
  3
ACAD_CIP_PREVIOUS_PRODUCT_INFO
350
92278
  3
ACAD_COLOR
350
9225D
  3
ACAD_DETAILVIEWSTYLE
350
92276
  3
ACAD_GROUP
350
D
  3
ACAD_LAYOUT
350
19
  3
ACAD_MATERIAL
350
9222B
  3
ACAD_MLEADERSTYLE
350
92272
  3
ACAD_MLINESTYLE
350
16
  3
ACAD_PLOTSETTINGS
350
18
  3
ACAD_PLOTSTYLENAME
350
E
  3
ACAD_SCALELIST
350
92260
  3
ACAD_SECTIONVIEWSTYLE
350
92274
  3
ACAD_TABLESTYLE
350
9225E
  3
ACAD_VISUALSTYLE
350
92244
  3
ACDB_RECOMPOSE_DATA
350
94D71
  3
AcDbVariableDictionary
350
92542
  3
AcDsDecomposeData
350
94D78
  3
DWGPROPS
350
94D72
  0
DICTIONARY
  5
922F3
330
2
100
AcDbDictionary
280
     1
281
     1
  3
ACAD_LAYERSTATES
360
922F4
  0
DICTIONARY
  5
92530
330
10
100
AcDbDictionary
280
     1
281
     1
  3
ADSK_XREC_LAYER_RECONCILED
360
92531
  0
DICTIONARY
  5
92532
330
22
100
AcDbDictionary
280
     1
281
     1
  3
ADSK_XREC_LAYER_RECONCILED
360
92533
  0
DICTIONARY
  5
92534
330
31
100
AcDbDictionary
280
     1
281
     1
  3
ADSK_XREC_LAYER_RECONCILED
360
92535
  0
DICTIONARY
  5
92536
330
32
100
AcDbDictionary
280
     1
281
     1
  3
ADSK_XREC_LAYER_RECONCILED
360
92537
  0
DICTIONARY
  5
92538
330
33
100
AcDbDictionary
280
     1
281
     1
  3
ADSK_XREC_LAYER_RECONCILED
360
92539
  0
DICTIONARY
  5
9253A
330
34
100
AcDbDictionary
280
     1
281
     1
  3
ADSK_XREC_LAYER_RECONCILED
360
9253B
  0
DICTIONARY
  5
9253C
330
35
100
AcDbDictionary
280
     1
281
     1
  3
ADSK_XREC_LAYER_RECONCILED
360
9253D
  0
DICTIONARY
  5
9253E
330
37
100
AcDbDictionary
280
     1
281
     1
  3
ADSK_XREC_LAYER_RECONCILED
360
9253F
  0
DICTIONARY
  5
66E76
330
1E
100
AcDbDictionary
280
     1
281
     1
  3
ACAD_LAYOUTSELFREF
360
92143
  3
ACAD_SORTENTS
360
92B28
  0
DICTIONARY
  5
66E74
330
1A
100
AcDbDictionary
280
     1
281
     1
  3
ACAD_LAYOUTSELFREF
360
92142
  0
DICTIONARY
  5
94BB3
330
94AEB
100
AcDbDictionary
280
     1
281
     1
  3
ACAD_SORTENTS
360
94BB4
  0
XRECORD
  5
92278
102
{ACAD_REACTORS
330
C
102
}
330
C
100
AcDbXrecord
280
     1
300
ACDLT
300
2014
300
ACDLT_F_S
  0
DICTIONARY
  5
9225D
102
{ACAD_REACTORS
330
C
102
}
330
C
100
AcDbDictionary
281
     1
  0
DICTIONARY
  5
92276
102
{ACAD_REACTORS
330
C
102
}
330
C
100
AcDbDictionary
281
     1
  3
Imperial24
350
92277
  3
Metric50
350
922F6
  0
DICTIONARY
  5
D
102
{ACAD_REACTORS
330
C
102
}
330
C
100
AcDbDictionary
281
     1
  0
DICTIONARY
  5
19
102
{ACAD_REACTORS
330
C
102
}
330
C
100
AcDbDictionary
281
     1
  3
Model
350
92148
  3
ﾚｲｱｳﾄ1
350
92149
  0
DICTIONARY
  5
9222B
102
{ACAD_REACTORS
330
C
102
}
330
C
100
AcDbDictionary
281
     1
  3
ByBlock
350
92234
  3
ByLayer
350
9222C
  3
Global
350
9223C
  0
DICTIONARY
  5
92272
102
{ACAD_REACTORS
330
C
102
}
330
C
100
AcDbDictionary
281
     1
  3
Standard
350
92273
  0
DICTIONARY
  5
16
102
{ACAD_REACTORS
330
C
102
}
330
C
100
AcDbDictionary
281
     1
  3
STANDARD
350
17
  0
DICTIONARY
  5
18
102
{ACAD_REACTORS
330
C
102
}
330
C
100
AcDbDictionary
281
     1
  0
ACDBDICTIONARYWDFLT
  5
E
102
{ACAD_REACTORS
330
C
102
}
330
C
100
AcDbDictionary
281
     1
  3
Normal
350
F
100
AcDbDictionaryWithDefault
340
F
  0
DICTIONARY
  5
92260
102
{ACAD_REACTORS
330
C
102
}
330
C
100
AcDbDictionary
281
     1
  3
A0
350
92261
  3
A1
350
92262
  3
A2
350
92263
  3
A3
350
92264
  3
A4
350
92265
  3
A5
350
92266
  3
A6
350
92267
  3
A7
350
92268
  3
A8
350
92269
  3
A9
350
9226A
  3
B0
350
9226B
  3
B1
350
9226C
  3
B2
350
9226D
  3
B3
350
9226E
  3
B4
350
9226F
  3
B5
350
92270
  3
B6
350
92271
  0
DICTIONARY
  5
92274
102
{ACAD_REACTORS
330
C
102
}
330
C
100
AcDbDictionary
281
     1
  3
Imperial24
350
92275
  3
Metric50
350
922F5
  0
DICTIONARY
  5
9225E
102
{ACAD_REACTORS
330
C
102
}
330
C
100
AcDbDictionary
281
     1
  3
Standard
350
9225F
  0
DICTIONARY
  5
92244
102
{ACAD_REACTORS
330
C
102
}
330
C
100
AcDbDictionary
281
     1
  3
2dWireframe
350
9224A
  3
Basic
350
92249
  3
Brighten
350
92250
  3
ColorChange
350
92254
  3
Conceptual
350
9224D
  3
Dim
350
9224F
  3
EdgeColorOff
350
9225C
  3
Facepattern
350
92253
  3
Flat
350
92245
  3
FlatWithEdges
350
92246
  3
Gouraud
350
92247
  3
GouraudWithEdges
350
92248
  3
Hidden
350
9224C
  3
JitterOff
350
9225A
  3
Linepattern
350
92252
  3
OverhangOff
350
9225B
  3
Realistic
350
9224E
  3
Shaded
350
92259
  3
Shaded with edges
350
92258
  3
Shades of Gray
350
92255
  3
Sketchy
350
92256
  3
Thicken
350
92251
  3
Wireframe
350
9224B
  3
X-Ray
350
92257
  0
XRECORD
  5
94D71
102
{ACAD_REACTORS
330
C
102
}
330
C
100
AcDbXrecord
280
     1
 90
        1
330
9225F
  0
DICTIONARY
  5
92542
102
{ACAD_REACTORS
330
C
102
}
330
C
100
AcDbDictionary
281
     1
  3
CANNOSCALE
350
92548
  3
CMLEADERSTYLE
350
92544
  3
CTABLESTYLE
350
92543
  3
CVIEWDETAILSTYLE
350
92545
  3
CVIEWSECTIONSTYLE
350
92546
  3
DIMASSOC
350
94D6B
  3
INDEXCTL
350
94D6A
  3
LAYEREVAL
350
9254A
  3
LAYERNOTIFY
350
9254B
  3
LIGHTINGUNITS
350
92549
  3
LOFTANG1
350
94D6C
  3
LOFTANG2
350
94D6D
  3
LONGITUDE
350
94D6E
  3
MSLTSCALE
350
92547
  3
SORTENTS
350
94D69
  3
XCLIPFRAME
350
94D6F
  0
DICTIONARY
  5
94D78
102
{ACAD_REACTORS
330
C
102
}
330
C
100
AcDbDictionary
281
     1
  3
AcDsRecords
350
94D7A
  3
AcDsSchemas
350
94D79
1001
ACAD
1070
     2
  0
XRECORD
  5
94D72
102
{ACAD_REACTORS
330
C
102
}
330
C
100
AcDbXrecord
280
     1
  1
DWGPROPS COOKIE
  2

  3

  4

  6

  7

  8
DELL3-2
  9

300
=
301
=
302
=
303
=
304
=
305
=
306
=
307
=
308
=
309
=
 40
2.993079282407407
 41
2450330.393205995
 42
2457291.81441331
  1

 90
        0
  0
DICTIONARY
  5
922F4
102
{ACAD_REACTORS
330
922F3
102
}
330
922F3
100
AcDbDictionary
281
     1
  0
XRECORD
  5
92531
102
{ACAD_REACTORS
330
92530
102
}
330
92530
100
AcDbXrecord
280
     1
290
     1
  0
XRECORD
  5
92533
102
{ACAD_REACTORS
330
92532
102
}
330
92532
100
AcDbXrecord
280
     1
290
     1
  0
XRECORD
  5
92535
102
{ACAD_REACTORS
330
92534
102
}
330
92534
100
AcDbXrecord
280
     1
290
     1
  0
XRECORD
  5
92537
102
{ACAD_REACTORS
330
92536
102
}
330
92536
100
AcDbXrecord
280
     1
290
     1
  0
XRECORD
  5
92539
102
{ACAD_REACTORS
330
92538
102
}
330
92538
100
AcDbXrecord
280
     1
290
     1
  0
XRECORD
  5
9253B
102
{ACAD_REACTORS
330
9253A
102
}
330
9253A
100
AcDbXrecord
280
     1
290
     1
  0
XRECORD
  5
9253D
102
{ACAD_REACTORS
330
9253C
102
}
330
9253C
100
AcDbXrecord
280
     1
290
     1
  0
XRECORD
  5
9253F
102
{ACAD_REACTORS
330
9253E
102
}
330
9253E
100
AcDbXrecord
280
     1
290
     1
  0
XRECORD
  5
92143
102
{ACAD_REACTORS
330
66E76
102
}
330
66E76
100
AcDbXrecord
280
     1
340
1E
  0
SORTENTSTABLE
  5
92B28
102
{ACAD_REACTORS
330
66E76
102
}
330
66E76
100
AcDbSortentsTable
330
1E
331
38341
  5
38341
  0
XRECORD
  5
92142
102
{ACAD_REACTORS
330
66E74
102
}
330
66E74
100
AcDbXrecord
280
     1
340
1A
  0
SORTENTSTABLE
  5
94BB4
102
{ACAD_REACTORS
330
94BB3
102
}
330
94BB3
100
AcDbSortentsTable
330
94AEB
  0
ACDBDETAILVIEWSTYLE
  5
92277
102
{ACAD_XDICTIONARY
360
92933
102
}
102
{ACAD_REACTORS
330
92276
102
}
330
92276
100
AcDbModelDocViewStyle
 70
     0
  3
Imperial24
290
     0
100
AcDbDetailViewStyle
 70
     0
 71
     0
 90
        3
 71
     1
340
11
 40
0.24
340
0
 40
0.24
300

 40
0.36
280
     3
 71
     2
340
15
 90
       25
 71
     3
340
11
 40
0.24
 90
        1
 40
0.75
 90
        1
300
%<\AcVar ViewType \f "%tc1">% %<\AcVar ViewDetailId>%\PSCALE %<\AcVar ViewScale \f "%sn">%
 71
     4
340
15
 90
       25
340
15
 90
       25
280
     0
  0
ACDBDETAILVIEWSTYLE
  5
922F6
102
{ACAD_XDICTIONARY
360
92937
102
}
102
{ACAD_REACTORS
330
92276
102
}
330
92276
100
AcDbModelDocViewStyle
 70
     0
  3
Metric50
290
     0
100
AcDbDetailViewStyle
 70
     0
 71
     0
 90
        3
 71
     1
340
11
 40
5.0
340
0
 40
5.0
300

 40
0.0
280
     1
 71
     2
340
15
 90
       25
 71
     3
340
11
 40
5.0
 90
        0
 40
15.0
 90
        1
300
%<\AcVar ViewDetailId>% (%<\AcVar ViewScale \f "%sn">%)
 71
     4
340
15
 90
       25
340
15
 90
       25
280
     0
  0
LAYOUT
  5
92148
102
{ACAD_XDICTIONARY
360
94D7B
102
}
102
{ACAD_REACTORS
330
19
102
}
330
19
100
AcDbPlotSettings
  1

  2
\\PC07\EPSON LP-8900
  4
A4
  6
ALL
 40
5.873749732971191
 41
5.873747825622557
 42
5.873748779296875
 43
5.873748779296875
 44
209.9733276367186
 45
297.0106506347656
 46
0.0
 47
0.0
 48
0.0
 49
0.0
140
0.0
141
0.0
142
1.0
143
202.9895291509702
 70
 11952
 72
     0
 73
     1
 74
     0
  7
monochrome.ctb
 75
     0
147
0.0049263624788068
148
30082.59914271107
149
21272.41566607779
100
AcDbLayout
  1
Model
 70
     1
 71
     0
 10
0.0
 20
0.0
 11
12.0
 21
9.0
 12
0.0
 22
0.0
 32
0.0
 14
0.0
 24
0.0
 34
0.0
 15
0.0
 25
0.0
 35
0.0
146
0.0
 13
0.0
 23
0.0
 33
0.0
 16
1.0
 26
0.0
 36
0.0
 17
0.0
 27
1.0
 37
0.0
 76
     0
330
1E
331
92226
  0
LAYOUT
  5
92149
102
{ACAD_XDICTIONARY
360
94D7D
102
}
102
{ACAD_REACTORS
330
19
102
}
330
19
100
AcDbPlotSettings
  1

  2
\\PC07\EPSON LP-8900
  4

  6

 40
0.0
 41
0.0
 42
0.0
 43
0.0
 44
0.0
 45
0.0
 46
0.0
 47
0.0
 48
0.0
 49
0.0
140
0.0
141
0.0
142
1.0
143
1.0
 70
   688
 72
     0
 73
     0
 74
     5
  7
monochrome.ctb
 75
    16
147
1.0
148
0.0
149
0.0
100
AcDbLayout
  1
ﾚｲｱｳﾄ1
 70
     1
 71
     1
 10
0.0
 20
0.0
 11
12.0
 21
9.0
 12
0.0
 22
0.0
 32
0.0
 14
1.000000000000000E+20
 24
1.000000000000000E+20
 34
1.000000000000000E+20
 15
-1.000000000000000E+20
 25
-1.000000000000000E+20
 35
-1.000000000000000E+20
146
0.0
 13
0.0
 23
0.0
 33
0.0
 16
1.0
 26
0.0
 36
0.0
 17
0.0
 27
1.0
 37
0.0
 76
     0
330
1A
  0
MATERIAL
  5
92234
102
{ACAD_XDICTIONARY
360
92235
102
}
102
{ACAD_REACTORS
330
9222B
102
}
330
9222B
100
AcDbMaterial
  1
ByBlock
 72
     0
 43
0.0208333333333333
 43
0.0
 43
0.0
 43
0.0
 43
0.0
 43
0.0208333333333333
 43
0.0
 43
0.0
 43
0.0
 43
0.0
 43
1.0
 43
0.0
 43
0.0
 43
0.0
 43
0.0
 43
1.0
 77
     0
 47
0.0208333333333333
 47
0.0
 47
0.0
 47
0.0
 47
0.0
 47
0.0208333333333333
 47
0.0
 47
0.0
 47
0.0
 47
0.0
 47
1.0
 47
0.0
 47
0.0
 47
0.0
 47
0.0
 47
1.0
171
     0
 49
0.0208333333333333
 49
0.0
 49
0.0
 49
0.0
 49
0.0
 49
0.0208333333333333
 49
0.0
 49
0.0
 49
0.0
 49
0.0
 49
1.0
 49
0.0
 49
0.0
 49
0.0
 49
0.0
 49
1.0
175
     0
142
0.0208333333333333
142
0.0
142
0.0
142
0.0
142
0.0
142
0.0208333333333333
142
0.0
142
0.0
142
0.0
142
0.0
142
1.0
142
0.0
142
0.0
142
0.0
142
0.0
142
1.0
179
     0
144
0.0208333333333333
144
0.0
144
0.0
144
0.0
144
0.0
144
0.0208333333333333
144
0.0
144
0.0
144
0.0
144
0.0
144
1.0
144
0.0
144
0.0
144
0.0
144
0.0
144
1.0
147
0.0208333333333333
147
0.0
147
0.0
147
0.0
147
0.0
147
0.0208333333333333
147
0.0
147
0.0
147
0.0
147
0.0
147
1.0
147
0.0
147
0.0
147
0.0
147
0.0
147
1.0
  0
MATERIAL
  5
9222C
102
{ACAD_XDICTIONARY
360
9222D
102
}
102
{ACAD_REACTORS
330
9222B
102
}
330
9222B
100
AcDbMaterial
  1
ByLayer
 72
     0
 43
0.0208333333333333
 43
0.0
 43
0.0
 43
0.0
 43
0.0
 43
0.0208333333333333
 43
0.0
 43
0.0
 43
0.0
 43
0.0
 43
1.0
 43
0.0
 43
0.0
 43
0.0
 43
0.0
 43
1.0
 77
     0
 47
0.0208333333333333
 47
0.0
 47
0.0
 47
0.0
 47
0.0
 47
0.0208333333333333
 47
0.0
 47
0.0
 47
0.0
 47
0.0
 47
1.0
 47
0.0
 47
0.0
 47
0.0
 47
0.0
 47
1.0
171
     0
 49
0.0208333333333333
 49
0.0
 49
0.0
 49
0.0
 49
0.0
 49
0.0208333333333333
 49
0.0
 49
0.0
 49
0.0
 49
0.0
 49
1.0
 49
0.0
 49
0.0
 49
0.0
 49
0.0
 49
1.0
175
     0
142
0.0208333333333333
142
0.0
142
0.0
142
0.0
142
0.0
142
0.0208333333333333
142
0.0
142
0.0
142
0.0
142
0.0
142
1.0
142
0.0
142
0.0
142
0.0
142
0.0
142
1.0
179
     0
144
0.0208333333333333
144
0.0
144
0.0
144
0.0
144
0.0
144
0.0208333333333333
144
0.0
144
0.0
144
0.0
144
0.0
144
1.0
144
0.0
144
0.0
144
0.0
144
0.0
144
1.0
147
0.0208333333333333
147
0.0
147
0.0
147
0.0
147
0.0
147
0.0208333333333333
147
0.0
147
0.0
147
0.0
147
0.0
147
1.0
147
0.0
147
0.0
147
0.0
147
0.0
147
1.0
  0
MATERIAL
  5
9223C
102
{ACAD_XDICTIONARY
360
9223D
102
}
102
{ACAD_REACTORS
330
9222B
102
}
330
9222B
100
AcDbMaterial
  1
Global
 72
     0
 43
0.0208333333333333
 43
0.0
 43
0.0
 43
0.0
 43
0.0
 43
0.0208333333333333
 43
0.0
 43
0.0
 43
0.0
 43
0.0
 43
1.0
 43
0.0
 43
0.0
 43
0.0
 43
0.0
 43
1.0
 77
     0
 47
0.0208333333333333
 47
0.0
 47
0.0
 47
0.0
 47
0.0
 47
0.0208333333333333
 47
0.0
 47
0.0
 47
0.0
 47
0.0
 47
1.0
 47
0.0
 47
0.0
 47
0.0
 47
0.0
 47
1.0
171
     0
 49
0.0208333333333333
 49
0.0
 49
0.0
 49
0.0
 49
0.0
 49
0.0208333333333333
 49
0.0
 49
0.0
 49
0.0
 49
0.0
 49
1.0
 49
0.0
 49
0.0
 49
0.0
 49
0.0
 49
1.0
175
     0
142
0.0208333333333333
142
0.0
142
0.0
142
0.0
142
0.0
142
0.0208333333333333
142
0.0
142
0.0
142
0.0
142
0.0
142
1.0
142
0.0
142
0.0
142
0.0
142
0.0
142
1.0
179
     0
144
0.0208333333333333
144
0.0
144
0.0
144
0.0
144
0.0
144
0.0208333333333333
144
0.0
144
0.0
144
0.0
144
0.0
144
1.0
144
0.0
144
0.0
144
0.0
144
0.0
144
1.0
147
0.0208333333333333
147
0.0
147
0.0
147
0.0
147
0.0
147
0.0208333333333333
147
0.0
147
0.0
147
0.0
147
0.0
147
1.0
147
0.0
147
0.0
147
0.0
147
0.0
147
1.0
  0
MLEADERSTYLE
  5
92273
102
{ACAD_REACTORS
330
92272
102
}
330
92272
100
AcDbMLeaderStyle
170
     2
171
     1
172
     0
 90
        2
 40
0.0
 41
0.0
173
     1
 91
-1056964608
340
13
 92
       -2
290
     1
 42
0.09
291
     1
 43
0.36
  3
Standard
 44
0.18
300

342
11
174
     1
178
     6
175
     1
176
     0
 93
-1056964608
 45
0.18
292
     0
297
     0
 46
0.18
 94
-1056964608
 47
1.0
 49
1.0
140
1.0
293
     1
141
0.0
294
     1
177
     0
142
1.0
295
     0
296
     0
143
0.125
1001
ACAD_MLEADERVER
1070
     2
  0
MLINESTYLE
  5
17
102
{ACAD_REACTORS
330
16
102
}
330
16
100
AcDbMlineStyle
  2
STANDARD
 70
     0
  3

 62
   256
 51
90.0
 52
90.0
 71
     2
 49
0.5
 62
   256
  6
BYLAYER
 49
-0.5
 62
   256
  6
BYLAYER
  0
ACDBPLACEHOLDER
  5
F
102
{ACAD_REACTORS
330
E
102
}
330
E
  0
SCALE
  5
92261
102
{ACAD_REACTORS
330
92260
102
}
330
92260
100
AcDbScale
 70
     0
300
1:1
140
1.0
141
1.0
290
     1
  0
SCALE
  5
92262
102
{ACAD_REACTORS
330
92260
102
}
330
92260
100
AcDbScale
 70
     0
300
1/128" = 1'-0"
140
0.0078125
141
12.0
290
     0
  0
SCALE
  5
92263
102
{ACAD_REACTORS
330
92260
102
}
330
92260
100
AcDbScale
 70
     0
300
1/64" = 1'-0"
140
0.015625
141
12.0
290
     0
  0
SCALE
  5
92264
102
{ACAD_REACTORS
330
92260
102
}
330
92260
100
AcDbScale
 70
     0
300
1/32" = 1'-0"
140
0.03125
141
12.0
290
     0
  0
SCALE
  5
92265
102
{ACAD_REACTORS
330
92260
102
}
330
92260
100
AcDbScale
 70
     0
300
1/16" = 1'-0"
140
0.0625
141
12.0
290
     0
  0
SCALE
  5
92266
102
{ACAD_REACTORS
330
92260
102
}
330
92260
100
AcDbScale
 70
     0
300
3/32" = 1'-0"
140
0.09375
141
12.0
290
     0
  0
SCALE
  5
92267
102
{ACAD_REACTORS
330
92260
102
}
330
92260
100
AcDbScale
 70
     0
300
1/8" = 1'-0"
140
0.125
141
12.0
290
     0
  0
SCALE
  5
92268
102
{ACAD_REACTORS
330
92260
102
}
330
92260
100
AcDbScale
 70
     0
300
3/16" = 1'-0"
140
0.1875
141
12.0
290
     0
  0
SCALE
  5
92269
102
{ACAD_REACTORS
330
92260
102
}
330
92260
100
AcDbScale
 70
     0
300
1/4" = 1'-0"
140
0.25
141
12.0
290
     0
  0
SCALE
  5
9226A
102
{ACAD_REACTORS
330
92260
102
}
330
92260
100
AcDbScale
 70
     0
300
3/8" = 1'-0"
140
0.375
141
12.0
290
     0
  0
SCALE
  5
9226B
102
{ACAD_REACTORS
330
92260
102
}
330
92260
100
AcDbScale
 70
     0
300
1/2" = 1'-0"
140
0.5
141
12.0
290
     0
  0
SCALE
  5
9226C
102
{ACAD_REACTORS
330
92260
102
}
330
92260
100
AcDbScale
 70
     0
300
3/4" = 1'-0"
140
0.75
141
12.0
290
     0
  0
SCALE
  5
9226D
102
{ACAD_REACTORS
330
92260
102
}
330
92260
100
AcDbScale
 70
     0
300
1" = 1'-0"
140
1.0
141
12.0
290
     0
  0
SCALE
  5
9226E
102
{ACAD_REACTORS
330
92260
102
}
330
92260
100
AcDbScale
 70
     0
300
1-1/2" = 1'-0"
140
1.5
141
12.0
290
     0
  0
SCALE
  5
9226F
102
{ACAD_REACTORS
330
92260
102
}
330
92260
100
AcDbScale
 70
     0
300
3" = 1'-0"
140
3.0
141
12.0
290
     0
  0
SCALE
  5
92270
102
{ACAD_REACTORS
330
92260
102
}
330
92260
100
AcDbScale
 70
     0
300
6" = 1'-0"
140
6.0
141
12.0
290
     0
  0
SCALE
  5
92271
102
{ACAD_REACTORS
330
92260
102
}
330
92260
100
AcDbScale
 70
     0
300
1'-0" = 1'-0"
140
12.0
141
12.0
290
     0
  0
ACDBSECTIONVIEWSTYLE
  5
92275
102
{ACAD_XDICTIONARY
360
92931
102
}
102
{ACAD_REACTORS
330
92274
102
}
330
92274
100
AcDbModelDocViewStyle
 70
     0
  3
Imperial24
290
     0
100
AcDbSectionViewStyle
 70
     0
 71
     0
 90
       78
 71
     1
340
11
 40
0.24
340
0
340
0
 40
0.24
300
I, O, Q, S, X, Z
 40
0.48
 90
        3
 40
0.18
 90
        1
 71
     2
340
15
 90
       25
340
15
 90
       50
 40
0.24
 40
0.0
 40
0.24
 71
     3
340
11
 40
0.24
 90
        1
 40
0.75
 90
        1
300
%<\AcVar ViewType \f "%tc1">% %<\AcVar ViewSectionStartId>%-%<\AcVar ViewSectionEndId>%\PSCALE %<\AcVar ViewScale \f "%sn">%
 71
     4
300
ANSI31
 40
1.0
 90
        0
290
     0
290
     0
 90
        6
 40
0.0
 40
1.570796326794896
 40
0.2617993877991494
 40
1.308996938995747
 40
-0.2617993877991494
 40
1.832595714594044
  0
ACDBSECTIONVIEWSTYLE
  5
922F5
102
{ACAD_XDICTIONARY
360
92935
102
}
102
{ACAD_REACTORS
330
92274
102
}
330
92274
100
AcDbModelDocViewStyle
 70
     0
  3
Metric50
290
     0
100
AcDbSectionViewStyle
 70
     0
 71
     0
 90
      102
 71
     1
340
11
 40
5.0
340
0
340
0
 40
5.0
300
I, O, Q, S, X, Z
 40
10.0
 90
        0
 40
2.5
 90
        0
 71
     2
340
15
 90
       25
340
15
 90
       50
 40
5.0
 40
2.5
 40
5.0
 71
     3
340
11
 40
5.0
 90
        0
 40
15.0
 90
        1
300
%<\AcVar ViewSectionStartId>%-%<\AcVar ViewSectionEndId>% (%<\AcVar ViewScale \f "%sn">%)
 71
     4
300
ANSI31
 40
1.0
 90
        0
290
     0
290
     0
 90
        6
 40
0.0
 40
1.570796326794896
 40
0.2617993877991494
 40
1.308996938995747
 40
-0.2617993877991494
 40
1.832595714594044
  0
TABLESTYLE
  5
9225F
102
{ACAD_XDICTIONARY
360
9292F
102
}
102
{ACAD_REACTORS
330
9225E
102
}
330
9225E
100
AcDbTableStyle
  3
Standard
 70
     0
 71
     0
 40
0.06
 41
0.06
280
     0
281
     0
  7
STANDARD
140
0.18
170
     2
 62
     0
 63
     7
283
     0
274
    -2
284
     1
 64
     0
275
    -2
285
     1
 65
     0
276
    -2
286
     1
 66
     0
277
    -2
287
     1
 67
     0
278
    -2
288
     1
 68
     0
279
    -2
289
     1
 69
     0
  7
STANDARD
140
0.25
170
     5
 62
     0
 63
     7
283
     0
274
    -2
284
     1
 64
     0
275
    -2
285
     1
 65
     0
276
    -2
286
     1
 66
     0
277
    -2
287
     1
 67
     0
278
    -2
288
     1
 68
     0
279
    -2
289
     1
 69
     0
  7
STANDARD
140
0.18
170
     5
 62
     0
 63
     7
283
     0
274
    -2
284
     1
 64
     0
275
    -2
285
     1
 65
     0
276
    -2
286
     1
 66
     0
277
    -2
287
     1
 67
     0
278
    -2
288
     1
 68
     0
279
    -2
289
     1
 69
     0
  0
VISUALSTYLE
  5
9224A
102
{ACAD_XDICTIONARY
360
94D8C
102
}
102
{ACAD_REACTORS
330
92244
102
}
330
92244
100
AcDbVisualStyle
  2
2dWireframe
 70
     4
 71
     0
 72
     2
 73
     0
 90
        0
 40
-0.6
 41
-30.0
 62
     5
 63
     7
 74
     1
 91
        4
 64
     7
 65
   257
 75
     1
175
     1
 42
1.0
 92
        0
 66
   257
 43
1.0
 76
     1
 77
     6
 78
     2
 67
     7
 79
     5
170
     0
171
     0
290
     0
174
     0
 93
        1
 44
0.0
173
     0
291
     0
 45
0.0
1001
ACAD
1000
AcDbSavedByObjectVersion
1070
     0
  0
VISUALSTYLE
  5
92249
102
{ACAD_XDICTIONARY
360
94D8A
102
}
102
{ACAD_REACTORS
330
92244
102
}
330
92244
100
AcDbVisualStyle
  2
Basic
 70
     7
 71
     1
 72
     0
 73
     1
 90
        0
 40
-0.6
 41
-30.0
 62
     5
 63
     7
 74
     0
 91
        4
 64
     7
 65
   257
 75
     1
175
     1
 42
1.0
 92
        8
 66
     7
 43
1.0
 76
     1
 77
     6
 78
     2
 67
     7
 79
     5
170
     0
171
     0
290
     0
174
     0
 93
        1
 44
0.0
173
     0
291
     1
 45
0.0
1001
ACAD
1000
AcDbSavedByObjectVersion
1070
     0
  0
VISUALSTYLE
  5
92250
102
{ACAD_XDICTIONARY
360
94D98
102
}
102
{ACAD_REACTORS
330
92244
102
}
330
92244
100
AcDbVisualStyle
  2
Brighten
 70
    12
 71
     2
 72
     2
 73
     0
 90
        0
 40
-0.6
 41
-30.0
 62
     5
 63
     7
 74
     1
 91
        4
 64
     7
 65
   257
 75
     1
175
     1
 42
1.0
 92
        8
 66
     7
 43
1.0
 76
     1
 77
     6
 78
     2
 67
     7
 79
     5
170
     0
171
     0
290
     0
174
     0
 93
        1
 44
50.0
173
     0
291
     1
 45
0.0
1001
ACAD
1000
AcDbSavedByObjectVersion
1070
     0
  0
VISUALSTYLE
  5
92254
102
{ACAD_XDICTIONARY
360
94DA0
102
}
102
{ACAD_REACTORS
330
92244
102
}
330
92244
100
AcDbVisualStyle
  2
ColorChange
 70
    16
 71
     2
 72
     2
 73
     3
 90
        0
 40
-0.6
 41
-30.0
 62
     5
 63
     8
 74
     1
 91
        4
 64
     7
 65
   257
 75
     1
175
     1
 42
1.0
 92
        8
 66
     8
 43
1.0
 76
     1
 77
     6
 78
     2
 67
     7
 79
     5
170
     0
171
     0
290
     0
174
     0
 93
        1
 44
0.0
173
     0
291
     1
 45
0.0
1001
ACAD
1000
AcDbSavedByObjectVersion
1070
     0
  0
VISUALSTYLE
  5
9224D
102
{ACAD_XDICTIONARY
360
94D92
102
}
102
{ACAD_REACTORS
330
92244
102
}
330
92244
100
AcDbVisualStyle
  2
Conceptual
 70
     9
 71
     3
 72
     2
 73
     0
 90
        0
 40
-0.6
 41
-30.0
 62
     5
 63
     7
 74
     2
 91
        2
 64
     7
 65
   257
 75
     1
175
     1
 42
179.0
 92
        8
 66
     7
 43
1.0
 76
     1
 77
     6
 78
     2
 67
     7
 79
     3
170
     0
171
     0
290
     0
174
     0
 93
        1
 44
0.0
173
     0
291
     0
 45
0.0
1001
ACAD
1000
AcDbSavedByObjectVersion
1070
     0
  0
VISUALSTYLE
  5
9224F
102
{ACAD_XDICTIONARY
360
94D96
102
}
102
{ACAD_REACTORS
330
92244
102
}
330
92244
100
AcDbVisualStyle
  2
Dim
 70
    11
 71
     2
 72
     2
 73
     0
 90
        0
 40
-0.6
 41
-30.0
 62
     5
 63
     7
 74
     1
 91
        4
 64
     7
 65
   257
 75
     1
175
     1
 42
1.0
 92
        8
 66
     7
 43
1.0
 76
     1
 77
     6
 78
     2
 67
     7
 79
     5
170
     0
171
     0
290
     0
174
     0
 93
        1
 44
-50.0
173
     0
291
     1
 45
0.0
1001
ACAD
1000
AcDbSavedByObjectVersion
1070
     0
  0
VISUALSTYLE
  5
9225C
102
{ACAD_XDICTIONARY
360
94DB0
102
}
102
{ACAD_REACTORS
330
92244
102
}
330
92244
100
AcDbVisualStyle
  2
EdgeColorOff
 70
    22
 71
     2
 72
     2
 73
     0
 90
        0
 40
-0.6
 41
-30.0
 62
     5
 63
     7
 74
     1
 91
        4
 64
     7
 65
   257
 75
     1
175
     1
 42
1.0
 92
        8
 66
     7
 43
1.0
 76
     1
 77
     6
 78
     2
 67
     7
 79
     5
170
     0
171
     0
290
     0
174
     0
 93
        1
 44
0.0
173
     0
291
     1
 45
0.0
1001
ACAD
1000
AcDbSavedByObjectVersion
1070
     0
  0
VISUALSTYLE
  5
92253
102
{ACAD_XDICTIONARY
360
94D9E
102
}
102
{ACAD_REACTORS
330
92244
102
}
330
92244
100
AcDbVisualStyle
  2
Facepattern
 70
    15
 71
     2
 72
     2
 73
     0
 90
        0
 40
-0.6
 41
-30.0
 62
     5
 63
     7
 74
     1
 91
        4
 64
     7
 65
   257
 75
     1
175
     1
 42
1.0
 92
        8
 66
     7
 43
1.0
 76
     1
 77
     6
 78
     2
 67
     7
 79
     5
170
     0
171
     0
290
     0
174
     0
 93
        1
 44
0.0
173
     0
291
     1
 45
0.0
1001
ACAD
1000
AcDbSavedByObjectVersion
1070
     0
  0
VISUALSTYLE
  5
92245
102
{ACAD_XDICTIONARY
360
94D82
102
}
102
{ACAD_REACTORS
330
92244
102
}
330
92244
100
AcDbVisualStyle
  2
Flat
 70
     0
 71
     2
 72
     1
 73
     1
 90
        2
 40
-0.6
 41
30.0
 62
     5
 63
     7
 74
     0
 91
        0
 64
     7
 65
   257
 75
     1
175
     1
 42
1.0
 92
        8
 66
     7
 43
1.0
 76
     1
 77
     6
 78
     2
 67
     7
 79
     5
170
     0
171
     0
290
     0
174
     0
 93
       13
 44
0.0
173
     0
291
     1
 45
0.0
1001
ACAD
1000
AcDbSavedByObjectVersion
1070
     0
  0
VISUALSTYLE
  5
92246
102
{ACAD_XDICTIONARY
360
94D84
102
}
102
{ACAD_REACTORS
330
92244
102
}
330
92244
100
AcDbVisualStyle
  2
FlatWithEdges
 70
     1
 71
     2
 72
     1
 73
     1
 90
        2
 40
-0.6
 41
30.0
 62
     5
 63
     7
 74
     1
 91
        0
 64
     7
 65
   257
 75
     1
175
     1
 42
1.0
 92
        0
 66
   257
 43
1.0
 76
     1
 77
     6
 78
     2
 67
     7
 79
     5
170
     0
171
     0
290
     0
174
     0
 93
       13
 44
0.0
173
     0
291
     1
 45
0.0
1001
ACAD
1000
AcDbSavedByObjectVersion
1070
     0
  0
VISUALSTYLE
  5
92247
102
{ACAD_XDICTIONARY
360
94D86
102
}
102
{ACAD_REACTORS
330
92244
102
}
330
92244
100
AcDbVisualStyle
  2
Gouraud
 70
     2
 71
     2
 72
     2
 73
     1
 90
        2
 40
-0.6
 41
30.0
 62
     5
 63
     7
 74
     0
 91
        0
 64
     7
 65
   257
 75
     1
175
     1
 42
1.0
 92
        0
 66
     7
 43
1.0
 76
     1
 77
     6
 78
     2
 67
     7
 79
     5
170
     0
171
     0
290
     0
174
     0
 93
       13
 44
0.0
173
     0
291
     1
 45
0.0
1001
ACAD
1000
AcDbSavedByObjectVersion
1070
     0
  0
VISUALSTYLE
  5
92248
102
{ACAD_XDICTIONARY
360
94D88
102
}
102
{ACAD_REACTORS
330
92244
102
}
330
92244
100
AcDbVisualStyle
  2
GouraudWithEdges
 70
     3
 71
     2
 72
     2
 73
     1
 90
        2
 40
-0.6
 41
30.0
 62
     5
 63
     7
 74
     1
 91
        0
 64
     7
 65
   257
 75
     1
175
     1
 42
1.0
 92
        0
 66
   257
 43
1.0
 76
     1
 77
     6
 78
     2
 67
     7
 79
     5
170
     0
171
     0
290
     0
174
     0
 93
       13
 44
0.0
173
     0
291
     1
 45
0.0
1001
ACAD
1000
AcDbSavedByObjectVersion
1070
     0
  0
VISUALSTYLE
  5
9224C
102
{ACAD_XDICTIONARY
360
94D90
102
}
102
{ACAD_REACTORS
330
92244
102
}
330
92244
100
AcDbVisualStyle
  2
Hidden
 70
     6
 71
     1
 72
     2
 73
     2
 90
        0
 40
-0.6
 41
-30.0
 62
     5
 63
     7
 74
     2
 91
        2
 64
     7
 65
   257
 75
     2
175
     1
 42
40.0
 92
        0
 66
   257
 43
1.0
 76
     1
 77
     6
 78
     2
 67
     7
 79
     3
170
     0
171
     0
290
     0
174
     0
 93
        1
 44
0.0
173
     0
291
     0
 45
0.0
1001
ACAD
1000
AcDbSavedByObjectVersion
1070
     0
  0
VISUALSTYLE
  5
9225A
102
{ACAD_XDICTIONARY
360
94DAC
102
}
102
{ACAD_REACTORS
330
92244
102
}
330
92244
100
AcDbVisualStyle
  2
JitterOff
 70
    20
 71
     2
 72
     2
 73
     0
 90
        0
 40
-0.6
 41
-30.0
 62
     5
 63
     7
 74
     1
 91
        4
 64
     7
 65
   257
 75
     1
175
     1
 42
1.0
 92
       10
 66
     7
 43
1.0
 76
     1
 77
     6
 78
     2
 67
     7
 79
     5
170
     0
171
     0
290
     0
174
     0
 93
        1
 44
0.0
173
     0
291
     1
 45
0.0
1001
ACAD
1000
AcDbSavedByObjectVersion
1070
     0
  0
VISUALSTYLE
  5
92252
102
{ACAD_XDICTIONARY
360
94D9C
102
}
102
{ACAD_REACTORS
330
92244
102
}
330
92244
100
AcDbVisualStyle
  2
Linepattern
 70
    14
 71
     2
 72
     2
 73
     0
 90
        0
 40
-0.6
 41
-30.0
 62
     5
 63
     7
 74
     1
 91
        4
 64
     7
 65
   257
 75
     7
175
     7
 42
1.0
 92
        8
 66
     7
 43
1.0
 76
     1
 77
     6
 78
     2
 67
     7
 79
     5
170
     0
171
     0
290
     0
174
     0
 93
        1
 44
0.0
173
     0
291
     1
 45
0.0
1001
ACAD
1000
AcDbSavedByObjectVersion
1070
     0
  0
VISUALSTYLE
  5
9225B
102
{ACAD_XDICTIONARY
360
94DAE
102
}
102
{ACAD_REACTORS
330
92244
102
}
330
92244
100
AcDbVisualStyle
  2
OverhangOff
 70
    21
 71
     2
 72
     2
 73
     0
 90
        0
 40
-0.6
 41
-30.0
 62
     5
 63
     7
 74
     1
 91
        4
 64
     7
 65
   257
 75
     1
175
     1
 42
1.0
 92
        9
 66
     7
 43
1.0
 76
     1
 77
     6
 78
     2
 67
     7
 79
     5
170
     0
171
     0
290
     0
174
     0
 93
        1
 44
0.0
173
     0
291
     1
 45
0.0
1001
ACAD
1000
AcDbSavedByObjectVersion
1070
     0
  0
VISUALSTYLE
  5
9224E
102
{ACAD_XDICTIONARY
360
94D94
102
}
102
{ACAD_REACTORS
330
92244
102
}
330
92244
100
AcDbVisualStyle
  2
Realistic
 70
     8
 71
     2
 72
     3
 73
     0
 90
        2
 40
-0.6
 41
30.0
 62
     5
 63
     7
 74
     0
 91
        0
 64
     7
 65
   257
 75
     1
175
     1
 42
1.0
 92
        8
 66
   257
 43
1.0
 76
     1
 77
     6
 78
     2
 67
     7
 79
     3
170
     0
171
     0
290
     0
174
     0
 93
       13
 44
0.0
173
     0
291
     0
 45
0.0
1001
ACAD
1000
AcDbSavedByObjectVersion
1070
     0
  0
VISUALSTYLE
  5
92259
102
{ACAD_XDICTIONARY
360
94DAA
102
}
102
{ACAD_REACTORS
330
92244
102
}
330
92244
100
AcDbVisualStyle
  2
Shaded
 70
    27
 71
     2
 72
     2
 73
     1
 90
        2
 40
-0.6
 41
30.0
 62
     5
 63
     7
 74
     0
 91
        4
 64
     7
 65
   257
 75
     1
175
     1
 42
1.0
 92
        8
 66
   257
 43
1.0
 76
     1
 77
     6
 78
     2
 67
     8
 79
     3
170
     0
171
     0
290
     0
174
     0
 93
        5
 44
0.0
173
     0
291
     0
 45
0.0
1001
ACAD
1000
AcDbSavedByObjectVersion
1070
     0
  0
VISUALSTYLE
  5
92258
102
{ACAD_XDICTIONARY
360
94DA8
102
}
102
{ACAD_REACTORS
330
92244
102
}
330
92244
100
AcDbVisualStyle
  2
Shaded with edges
 70
    26
 71
     2
 72
     2
 73
     1
 90
        2
 40
-0.6
 41
30.0
 62
     5
 63
     7
 74
     1
 91
       10
 64
     7
 65
   257
 75
     2
175
     1
 42
1.0
 92
        8
 66
   257
 43
1.0
 76
     1
 77
     6
 78
     2
 67
     7
 79
     3
170
     0
171
     0
290
     0
174
     0
 93
        5
 44
0.0
173
     0
291
     0
 45
0.0
1001
ACAD
1000
AcDbSavedByObjectVersion
1070
     0
  0
VISUALSTYLE
  5
92255
102
{ACAD_XDICTIONARY
360
94DA2
102
}
102
{ACAD_REACTORS
330
92244
102
}
330
92244
100
AcDbVisualStyle
  2
Shades of Gray
 70
    23
 71
     2
 72
     2
 73
     3
 90
        0
 40
-0.6
 41
-30.0
 62
     5
 63
     7
 74
     2
 91
        2
 64
     7
 65
     7
 75
     1
175
     1
 42
40.0
 92
        8
 66
     7
 43
1.0
 76
     1
 77
     6
 78
     2
 67
     7
 79
     3
170
     0
171
     0
290
     0
174
     0
 93
        1
 44
0.0
173
     0
291
     0
 45
0.0
1001
ACAD
1000
AcDbSavedByObjectVersion
1070
     0
  0
VISUALSTYLE
  5
92256
102
{ACAD_XDICTIONARY
360
94DA4
102
}
102
{ACAD_REACTORS
330
92244
102
}
330
92244
100
AcDbVisualStyle
  2
Sketchy
 70
    24
 71
     1
 72
     2
 73
     2
 90
        0
 40
-0.6
 41
-30.0
 62
     5
 63
     7
 74
     2
 91
        2
 64
     7
 65
     7
 75
     1
175
     1
 42
40.0
 92
       11
 66
     7
 43
1.0
 76
     1
 77
     6
 78
     2
 67
     7
 79
     6
170
     0
171
     0
290
     0
174
     0
 93
        1
 44
0.0
173
     0
291
     0
 45
0.0
1001
ACAD
1000
AcDbSavedByObjectVersion
1070
     0
  0
VISUALSTYLE
  5
92251
102
{ACAD_XDICTIONARY
360
94D9A
102
}
102
{ACAD_REACTORS
330
92244
102
}
330
92244
100
AcDbVisualStyle
  2
Thicken
 70
    13
 71
     2
 72
     2
 73
     0
 90
        0
 40
-0.6
 41
-30.0
 62
     5
 63
     7
 74
     1
 91
        4
 64
     7
 65
   257
 75
     1
175
     1
 42
1.0
 92
       12
 66
     7
 43
1.0
 76
     1
 77
     6
 78
     2
 67
     7
 79
     5
170
     0
171
     0
290
     0
174
     0
 93
        1
 44
0.0
173
     0
291
     1
 45
0.0
1001
ACAD
1000
AcDbSavedByObjectVersion
1070
     0
  0
VISUALSTYLE
  5
9224B
102
{ACAD_XDICTIONARY
360
94D8E
102
}
102
{ACAD_REACTORS
330
92244
102
}
330
92244
100
AcDbVisualStyle
  2
Wireframe
 70
     5
 71
     0
 72
     2
 73
     0
 90
        0
 40
-0.6
 41
-30.0
 62
     5
 63
     7
 74
     1
 91
        4
 64
     7
 65
   257
 75
     1
175
     1
 42
1.0
 92
        0
 66
   257
 43
1.0
 76
     1
 77
     6
 78
     2
 67
     7
 79
     3
170
     0
171
     0
290
     0
174
     0
 93
        1
 44
0.0
173
     0
291
     0
 45
0.0
1001
ACAD
1000
AcDbSavedByObjectVersion
1070
     0
  0
VISUALSTYLE
  5
92257
102
{ACAD_XDICTIONARY
360
94DA6
102
}
102
{ACAD_REACTORS
330
92244
102
}
330
92244
100
AcDbVisualStyle
  2
X-Ray
 70
    25
 71
     2
 72
     2
 73
     1
 90
        1
 40
0.5
 41
-30.0
 62
     5
 63
     7
 74
     1
 91
        0
 64
     7
 65
   257
 75
     1
175
     1
 42
1.0
 92
        8
 66
     7
 43
1.0
 76
     1
 77
     6
 78
     2
 67
     7
 79
     3
170
     0
171
     0
290
     0
174
     0
 93
       13
 44
0.0
173
     0
291
     0
 45
0.0
1001
ACAD
1000
AcDbSavedByObjectVersion
1070
     0
  0
DICTIONARYVAR
  5
92548
102
{ACAD_REACTORS
330
92542
102
}
330
92542
100
DictionaryVariables
280
     0
  1
1:1
  0
DICTIONARYVAR
  5
92544
102
{ACAD_REACTORS
330
92542
102
}
330
92542
100
DictionaryVariables
280
     0
  1
STANDARD
  0
DICTIONARYVAR
  5
92543
102
{ACAD_REACTORS
330
92542
102
}
330
92542
100
DictionaryVariables
280
     0
  1
STANDARD
  0
DICTIONARYVAR
  5
92545
102
{ACAD_REACTORS
330
92542
102
}
330
92542
100
DictionaryVariables
280
     0
  1
Imperial24
  0
DICTIONARYVAR
  5
92546
102
{ACAD_REACTORS
330
92542
102
}
330
92542
100
DictionaryVariables
280
     0
  1
Imperial24
  0
DICTIONARYVAR
  5
94D6B
102
{ACAD_REACTORS
330
92542
102
}
330
92542
100
DictionaryVariables
280
     0
  1
1
  0
DICTIONARYVAR
  5
94D6A
102
{ACAD_REACTORS
330
92542
102
}
330
92542
100
DictionaryVariables
280
     0
  1
0
  0
DICTIONARYVAR
  5
9254A
102
{ACAD_REACTORS
330
92542
102
}
330
92542
100
DictionaryVariables
280
     0
  1
1
  0
DICTIONARYVAR
  5
9254B
102
{ACAD_REACTORS
330
92542
102
}
330
92542
100
DictionaryVariables
280
     0
  1
15
  0
DICTIONARYVAR
  5
92549
102
{ACAD_REACTORS
330
92542
102
}
330
92542
100
DictionaryVariables
280
     0
  1
0
  0
DICTIONARYVAR
  5
94D6C
102
{ACAD_REACTORS
330
92542
102
}
330
92542
100
DictionaryVariables
280
     0
  1
1.570796
  0
DICTIONARYVAR
  5
94D6D
102
{ACAD_REACTORS
330
92542
102
}
330
92542
100
DictionaryVariables
280
     0
  1
1.570796
  0
DICTIONARYVAR
  5
94D6E
102
{ACAD_REACTORS
330
92542
102
}
330
92542
100
DictionaryVariables
280
     0
  1
-122.394000
  0
DICTIONARYVAR
  5
92547
102
{ACAD_REACTORS
330
92542
102
}
330
92542
100
DictionaryVariables
280
     0
  1
0
  0
DICTIONARYVAR
  5
94D69
102
{ACAD_REACTORS
330
92542
102
}
330
92542
100
DictionaryVariables
280
     0
  1
127
  0
DICTIONARYVAR
  5
94D6F
102
{ACAD_REACTORS
330
92542
102
}
330
92542
100
DictionaryVariables
280
     0
  1
2
  0
DICTIONARY
  5
94D7A
102
{ACAD_REACTORS
330
94D78
102
}
330
94D78
100
AcDbDictionary
281
     1
  0
DICTIONARY
  5
94D79
102
{ACAD_REACTORS
330
94D78
102
}
330
94D78
100
AcDbDictionary
281
     1
  3
2130601496
350
94D73
  3
2130601504
350
94D74
  3
2130601512
350
94D75
  3
2130601520
350
94D76
  3
2130601528
350
94D77
  0
DICTIONARY
  5
92933
330
92277
100
AcDbDictionary
280
     1
281
     1
  3
ACAD_XREC_ROUNDTRIP
360
94DB5
  0
DICTIONARY
  5
92937
330
922F6
100
AcDbDictionary
280
     1
281
     1
  3
ACAD_XREC_ROUNDTRIP
360
94DB7
  0
DICTIONARY
  5
94D7B
330
92148
100
AcDbDictionary
280
     1
281
     1
  3
ACAD_XREC_ROUNDTRIP
360
94D7C
  0
DICTIONARY
  5
94D7D
330
92149
100
AcDbDictionary
280
     1
281
     1
  3
ACAD_XREC_ROUNDTRIP
360
94D7E
  0
DICTIONARY
  5
92235
330
92234
100
AcDbDictionary
280
     1
281
     1
  3
ACAD_XREC_ROUNDTRIP
360
94D80
  3
BUMPTILE
360
92237
  3
DIFFUSETILE
360
92236
  3
OPACITYTILE
360
9223A
  3
REFLECTIONTILE
360
92239
  3
REFRACTIONTILE
360
9223B
  3
SPECULARTILE
360
92238
  0
DICTIONARY
  5
9222D
330
9222C
100
AcDbDictionary
280
     1
281
     1
  3
ACAD_XREC_ROUNDTRIP
360
94D7F
  3
BUMPTILE
360
9222F
  3
DIFFUSETILE
360
9222E
  3
OPACITYTILE
360
92232
  3
REFLECTIONTILE
360
92231
  3
REFRACTIONTILE
360
92233
  3
SPECULARTILE
360
92230
  0
DICTIONARY
  5
9223D
330
9223C
100
AcDbDictionary
280
     1
281
     1
  3
ACAD_XREC_ROUNDTRIP
360
94D81
  3
BUMPTILE
360
9223F
  3
DIFFUSETILE
360
9223E
  3
OPACITYTILE
360
92242
  3
REFLECTIONTILE
360
92241
  3
REFRACTIONTILE
360
92243
  3
SPECULARTILE
360
92240
  0
DICTIONARY
  5
92931
330
92275
100
AcDbDictionary
280
     1
281
     1
  3
ACAD_XREC_ROUNDTRIP
360
94DB4
  0
DICTIONARY
  5
92935
330
922F5
100
AcDbDictionary
280
     1
281
     1
  3
ACAD_XREC_ROUNDTRIP
360
94DB6
  0
DICTIONARY
  5
9292F
330
9225F
100
AcDbDictionary
280
     1
281
     1
  3
ACAD_ROUNDTRIP_2008_TABLESTYLE_CELLSTYLEMAP
360
94D70
  3
ACAD_XREC_ROUNDTRIP
360
94DB2
  0
DICTIONARY
  5
94D8C
330
9224A
100
AcDbDictionary
280
     1
281
     1
  3
ACAD_XREC_ROUNDTRIP
360
94D8D
  0
DICTIONARY
  5
94D8A
330
92249
100
AcDbDictionary
280
     1
281
     1
  3
ACAD_XREC_ROUNDTRIP
360
94D8B
  0
DICTIONARY
  5
94D98
330
92250
100
AcDbDictionary
280
     1
281
     1
  3
ACAD_XREC_ROUNDTRIP
360
94D99
  0
DICTIONARY
  5
94DA0
330
92254
100
AcDbDictionary
280
     1
281
     1
  3
ACAD_XREC_ROUNDTRIP
360
94DA1
  0
DICTIONARY
  5
94D92
330
9224D
100
AcDbDictionary
280
     1
281
     1
  3
ACAD_XREC_ROUNDTRIP
360
94D93
  0
DICTIONARY
  5
94D96
330
9224F
100
AcDbDictionary
280
     1
281
     1
  3
ACAD_XREC_ROUNDTRIP
360
94D97
  0
DICTIONARY
  5
94DB0
330
9225C
100
AcDbDictionary
280
     1
281
     1
  3
ACAD_XREC_ROUNDTRIP
360
94DB1
  0
DICTIONARY
  5
94D9E
330
92253
100
AcDbDictionary
280
     1
281
     1
  3
ACAD_XREC_ROUNDTRIP
360
94D9F
  0
DICTIONARY
  5
94D82
330
92245
100
AcDbDictionary
280
     1
281
     1
  3
ACAD_XREC_ROUNDTRIP
360
94D83
  0
DICTIONARY
  5
94D84
330
92246
100
AcDbDictionary
280
     1
281
     1
  3
ACAD_XREC_ROUNDTRIP
360
94D85
  0
DICTIONARY
  5
94D86
330
92247
100
AcDbDictionary
280
     1
281
     1
  3
ACAD_XREC_ROUNDTRIP
360
94D87
  0
DICTIONARY
  5
94D88
330
92248
100
AcDbDictionary
280
     1
281
     1
  3
ACAD_XREC_ROUNDTRIP
360
94D89
  0
DICTIONARY
  5
94D90
330
9224C
100
AcDbDictionary
280
     1
281
     1
  3
ACAD_XREC_ROUNDTRIP
360
94D91
  0
DICTIONARY
  5
94DAC
330
9225A
100
AcDbDictionary
280
     1
281
     1
  3
ACAD_XREC_ROUNDTRIP
360
94DAD
  0
DICTIONARY
  5
94D9C
330
92252
100
AcDbDictionary
280
     1
281
     1
  3
ACAD_XREC_ROUNDTRIP
360
94D9D
  0
DICTIONARY
  5
94DAE
330
9225B
100
AcDbDictionary
280
     1
281
     1
  3
ACAD_XREC_ROUNDTRIP
360
94DAF
  0
DICTIONARY
  5
94D94
330
9224E
100
AcDbDictionary
280
     1
281
     1
  3
ACAD_XREC_ROUNDTRIP
360
94D95
  0
DICTIONARY
  5
94DAA
330
92259
100
AcDbDictionary
280
     1
281
     1
  3
ACAD_XREC_ROUNDTRIP
360
94DAB
  0
DICTIONARY
  5
94DA8
330
92258
100
AcDbDictionary
280
     1
281
     1
  3
ACAD_XREC_ROUNDTRIP
360
94DA9
  0
DICTIONARY
  5
94DA2
330
92255
100
AcDbDictionary
280
     1
281
     1
  3
ACAD_XREC_ROUNDTRIP
360
94DA3
  0
DICTIONARY
  5
94DA4
330
92256
100
AcDbDictionary
280
     1
281
     1
  3
ACAD_XREC_ROUNDTRIP
360
94DA5
  0
DICTIONARY
  5
94D9A
330
92251
100
AcDbDictionary
280
     1
281
     1
  3
ACAD_XREC_ROUNDTRIP
360
94D9B
  0
DICTIONARY
  5
94D8E
330
9224B
100
AcDbDictionary
280
     1
281
     1
  3
ACAD_XREC_ROUNDTRIP
360
94D8F
  0
DICTIONARY
  5
94DA6
330
92257
100
AcDbDictionary
280
     1
281
     1
  3
ACAD_XREC_ROUNDTRIP
360
94DA7
  0
XRECORD
  5
94D73
102
{ACAD_REACTORS
330
94D79
102
}
330
94D79
100
AcDbXrecord
280
     1
  1
AcDb_Thumbnail_Schema
102
{ATTRRECORD
341
94D74
  2
AcDbDs::TreatedAsObjectData
280
     1
291
     1
102
ATTRRECORD}
102
{ATTRRECORD
341
94D75
  2
AcDbDs::Legacy
280
     1
291
     1
102
ATTRRECORD}
  2
AcDbDs::ID
280
    10
 91
        8
102
{ATTRRECORD
341
94D76
  2
AcDs:Indexable
280
     1
291
     1
102
ATTRRECORD}
102
{ATTRRECORD
341
94D77
  2
AcDbDs::HandleAttribute
280
     7
282
     1
102
ATTRRECORD}
  2
Thumbnail_Data
280
    15
 91
        0
  0
XRECORD
  5
94D74
102
{ACAD_REACTORS
330
94D79
102
}
330
94D79
100
AcDbXrecord
280
     1
  1
AcDbDs::TreatedAsObjectDataSchema
  2
AcDbDs::TreatedAsObjectData
280
     1
 91
        0
  0
XRECORD
  5
94D75
102
{ACAD_REACTORS
330
94D79
102
}
330
94D79
100
AcDbXrecord
280
     1
  1
AcDbDs::LegacySchema
  2
AcDbDs::Legacy
280
     1
 91
        0
  0
XRECORD
  5
94D76
102
{ACAD_REACTORS
330
94D79
102
}
330
94D79
100
AcDbXrecord
280
     1
  1
AcDbDs::IndexedPropertySchema
  2
AcDs:Indexable
280
     1
 91
        0
  0
XRECORD
  5
94D77
102
{ACAD_REACTORS
330
94D79
102
}
330
94D79
100
AcDbXrecord
280
     1
  1
AcDbDs::HandleAttributeSchema
  2
AcDbDs::HandleAttribute
280
     7
 91
        1
284
     1
  0
XRECORD
  5
94DB5
102
{ACAD_REACTORS
330
92933
102
}
330
92933
100
AcDbXrecord
280
     1
102
DISPLAYNAME
  1
Imperial24
102
FLAGS
 90
        0
  0
XRECORD
  5
94DB7
102
{ACAD_REACTORS
330
92937
102
}
330
92937
100
AcDbXrecord
280
     1
102
DISPLAYNAME
  1
Metric50
102
FLAGS
 90
        0
  0
XRECORD
  5
94D7C
102
{ACAD_REACTORS
330
94D7B
102
}
330
94D7B
100
AcDbXrecord
280
     1
102
SHADEPLOT
 70
     0
102
SHADEPLOTRESLEVEL
 70
     2
102
SHADEPLOTCUSTOMDPI
 70
   300
  0
XRECORD
  5
94D7E
102
{ACAD_REACTORS
330
94D7D
102
}
330
94D7D
100
AcDbXrecord
280
     1
102
SHADEPLOT
 70
     0
102
SHADEPLOTRESLEVEL
 70
     2
102
SHADEPLOTCUSTOMDPI
 70
   300
  0
XRECORD
  5
94D80
102
{ACAD_REACTORS
330
92235
102
}
330
92235
100
AcDbXrecord
280
     1
102
MATERIAL
148
0.0
149
0.0
149
0.0
 93
        0
 94
      127
282
     0
 72
     0
 77
     0
171
     0
175
     0
179
     0
273
     0
  0
XRECORD
  5
92237
102
{ACAD_REACTORS
330
92235
102
}
330
92235
100
AcDbXrecord
280
     1
270
     1
271
     1
  0
XRECORD
  5
92236
102
{ACAD_REACTORS
330
92235
102
}
330
92235
100
AcDbXrecord
280
     1
270
     1
271
     1
  0
XRECORD
  5
9223A
102
{ACAD_REACTORS
330
92235
102
}
330
92235
100
AcDbXrecord
280
     1
270
     1
271
     1
  0
XRECORD
  5
92239
102
{ACAD_REACTORS
330
92235
102
}
330
92235
100
AcDbXrecord
280
     1
270
     1
271
     1
  0
XRECORD
  5
9223B
102
{ACAD_REACTORS
330
92235
102
}
330
92235
100
AcDbXrecord
280
     1
270
     1
271
     1
  0
XRECORD
  5
92238
102
{ACAD_REACTORS
330
92235
102
}
330
92235
100
AcDbXrecord
280
     1
270
     1
271
     1
  0
XRECORD
  5
94D7F
102
{ACAD_REACTORS
330
9222D
102
}
330
9222D
100
AcDbXrecord
280
     1
102
MATERIAL
148
0.0
149
0.0
149
0.0
 93
        0
 94
      127
282
     0
 72
     0
 77
     0
171
     0
175
     0
179
     0
273
     0
  0
XRECORD
  5
9222F
102
{ACAD_REACTORS
330
9222D
102
}
330
9222D
100
AcDbXrecord
280
     1
270
     1
271
     1
  0
XRECORD
  5
9222E
102
{ACAD_REACTORS
330
9222D
102
}
330
9222D
100
AcDbXrecord
280
     1
270
     1
271
     1
  0
XRECORD
  5
92232
102
{ACAD_REACTORS
330
9222D
102
}
330
9222D
100
AcDbXrecord
280
     1
270
     1
271
     1
  0
XRECORD
  5
92231
102
{ACAD_REACTORS
330
9222D
102
}
330
9222D
100
AcDbXrecord
280
     1
270
     1
271
     1
  0
XRECORD
  5
92233
102
{ACAD_REACTORS
330
9222D
102
}
330
9222D
100
AcDbXrecord
280
     1
270
     1
271
     1
  0
XRECORD
  5
92230
102
{ACAD_REACTORS
330
9222D
102
}
330
9222D
100
AcDbXrecord
280
     1
270
     1
271
     1
  0
XRECORD
  5
94D81
102
{ACAD_REACTORS
330
9223D
102
}
330
9223D
100
AcDbXrecord
280
     1
102
MATERIAL
148
0.0
149
0.0
149
0.0
 93
        0
 94
      127
282
     0
 72
     0
 77
     0
171
     0
175
     0
179
     0
273
     0
  0
XRECORD
  5
9223F
102
{ACAD_REACTORS
330
9223D
102
}
330
9223D
100
AcDbXrecord
280
     1
270
     1
271
     1
  0
XRECORD
  5
9223E
102
{ACAD_REACTORS
330
9223D
102
}
330
9223D
100
AcDbXrecord
280
     1
270
     1
271
     1
  0
XRECORD
  5
92242
102
{ACAD_REACTORS
330
9223D
102
}
330
9223D
100
AcDbXrecord
280
     1
270
     1
271
     1
  0
XRECORD
  5
92241
102
{ACAD_REACTORS
330
9223D
102
}
330
9223D
100
AcDbXrecord
280
     1
270
     1
271
     1
  0
XRECORD
  5
92243
102
{ACAD_REACTORS
330
9223D
102
}
330
9223D
100
AcDbXrecord
280
     1
270
     1
271
     1
  0
XRECORD
  5
92240
102
{ACAD_REACTORS
330
9223D
102
}
330
9223D
100
AcDbXrecord
280
     1
270
     1
271
     1
  0
XRECORD
  5
94DB4
102
{ACAD_REACTORS
330
92931
102
}
330
92931
100
AcDbXrecord
280
     1
102
DISPLAYNAME
  1
Imperial24
102
FLAGS
 90
        0
  0
XRECORD
  5
94DB6
102
{ACAD_REACTORS
330
92935
102
}
330
92935
100
AcDbXrecord
280
     1
102
DISPLAYNAME
  1
Metric50
102
FLAGS
 90
        0
  0
CELLSTYLEMAP
  5
94D70
102
{ACAD_REACTORS
330
9292F
102
}
330
9292F
100
AcDbCellStyleMap
 90
        3
300
CELLSTYLE
  1
TABLEFORMAT_BEGIN
 90
        5
170
     1
 91
        0
 92
    32768
 62
   257
 93
        1
300
CONTENTFORMAT
  1
CONTENTFORMAT_BEGIN
 90
        0
 91
        0
 92
      512
 93
        0
300

 40
0.0
140
1.0
 94
        5
 62
     0
340
11
144
0.25
309
CONTENTFORMAT_END
171
     1
301
MARGIN
  1
CELLMARGIN_BEGIN
 40
0.06
 40
0.06
 40
0.06
 40
0.06
 40
0.18
 40
0.18
309
CELLMARGIN_END
 94
        6
 95
        1
302
GRIDFORMAT
  1
GRIDFORMAT_BEGIN
 90
        0
 91
        1
 62
     0
 92
       -2
340
0
 93
        0
 40
0.045
309
GRIDFORMAT_END
 95
        2
302
GRIDFORMAT
  1
GRIDFORMAT_BEGIN
 90
        0
 91
        1
 62
     0
 92
       -2
340
0
 93
        0
 40
0.045
309
GRIDFORMAT_END
 95
        4
302
GRIDFORMAT
  1
GRIDFORMAT_BEGIN
 90
        0
 91
        1
 62
     0
 92
       -2
340
0
 93
        0
 40
0.045
309
GRIDFORMAT_END
 95
        8
302
GRIDFORMAT
  1
GRIDFORMAT_BEGIN
 90
        0
 91
        1
 62
     0
 92
       -2
340
0
 93
        0
 40
0.045
309
GRIDFORMAT_END
 95
       16
302
GRIDFORMAT
  1
GRIDFORMAT_BEGIN
 90
        0
 91
        1
 62
     0
 92
       -2
340
0
 93
        0
 40
0.045
309
GRIDFORMAT_END
 95
       32
302
GRIDFORMAT
  1
GRIDFORMAT_BEGIN
 90
        0
 91
        1
 62
     0
 92
       -2
340
0
 93
        0
 40
0.045
309
GRIDFORMAT_END
309
TABLEFORMAT_END
  1
CELLSTYLE_BEGIN
 90
        1
 91
        1
300
_TITLE
309
CELLSTYLE_END
300
CELLSTYLE
  1
TABLEFORMAT_BEGIN
 90
        5
170
     1
 91
        0
 92
        0
 62
   257
 93
        1
300
CONTENTFORMAT
  1
CONTENTFORMAT_BEGIN
 90
        0
 91
        0
 92
      512
 93
        0
300

 40
0.0
140
1.0
 94
        5
 62
     0
340
11
144
0.18
309
CONTENTFORMAT_END
171
     1
301
MARGIN
  1
CELLMARGIN_BEGIN
 40
0.06
 40
0.06
 40
0.06
 40
0.06
 40
0.18
 40
0.18
309
CELLMARGIN_END
 94
        6
 95
        1
302
GRIDFORMAT
  1
GRIDFORMAT_BEGIN
 90
        0
 91
        1
 62
     0
 92
       -2
340
0
 93
        0
 40
0.045
309
GRIDFORMAT_END
 95
        2
302
GRIDFORMAT
  1
GRIDFORMAT_BEGIN
 90
        0
 91
        1
 62
     0
 92
       -2
340
0
 93
        0
 40
0.045
309
GRIDFORMAT_END
 95
        4
302
GRIDFORMAT
  1
GRIDFORMAT_BEGIN
 90
        0
 91
        1
 62
     0
 92
       -2
340
0
 93
        0
 40
0.045
309
GRIDFORMAT_END
 95
        8
302
GRIDFORMAT
  1
GRIDFORMAT_BEGIN
 90
        0
 91
        1
 62
     0
 92
       -2
340
0
 93
        0
 40
0.045
309
GRIDFORMAT_END
 95
       16
302
GRIDFORMAT
  1
GRIDFORMAT_BEGIN
 90
        0
 91
        1
 62
     0
 92
       -2
340
0
 93
        0
 40
0.045
309
GRIDFORMAT_END
 95
       32
302
GRIDFORMAT
  1
GRIDFORMAT_BEGIN
 90
        0
 91
        1
 62
     0
 92
       -2
340
0
 93
        0
 40
0.045
309
GRIDFORMAT_END
309
TABLEFORMAT_END
  1
CELLSTYLE_BEGIN
 90
        2
 91
        1
300
_HEADER
309
CELLSTYLE_END
300
CELLSTYLE
  1
TABLEFORMAT_BEGIN
 90
        5
170
     1
 91
        0
 92
        0
 62
   257
 93
        1
300
CONTENTFORMAT
  1
CONTENTFORMAT_BEGIN
 90
        0
 91
        0
 92
      512
 93
        0
300

 40
0.0
140
1.0
 94
        2
 62
     0
340
11
144
0.18
309
CONTENTFORMAT_END
171
     1
301
MARGIN
  1
CELLMARGIN_BEGIN
 40
0.06
 40
0.06
 40
0.06
 40
0.06
 40
0.18
 40
0.18
309
CELLMARGIN_END
 94
        6
 95
        1
302
GRIDFORMAT
  1
GRIDFORMAT_BEGIN
 90
        0
 91
        1
 62
     0
 92
       -2
340
0
 93
        0
 40
0.045
309
GRIDFORMAT_END
 95
        2
302
GRIDFORMAT
  1
GRIDFORMAT_BEGIN
 90
        0
 91
        1
 62
     0
 92
       -2
340
0
 93
        0
 40
0.045
309
GRIDFORMAT_END
 95
        4
302
GRIDFORMAT
  1
GRIDFORMAT_BEGIN
 90
        0
 91
        1
 62
     0
 92
       -2
340
0
 93
        0
 40
0.045
309
GRIDFORMAT_END
 95
        8
302
GRIDFORMAT
  1
GRIDFORMAT_BEGIN
 90
        0
 91
        1
 62
     0
 92
       -2
340
0
 93
        0
 40
0.045
309
GRIDFORMAT_END
 95
       16
302
GRIDFORMAT
  1
GRIDFORMAT_BEGIN
 90
        0
 91
        1
 62
     0
 92
       -2
340
0
 93
        0
 40
0.045
309
GRIDFORMAT_END
 95
       32
302
GRIDFORMAT
  1
GRIDFORMAT_BEGIN
 90
        0
 91
        1
 62
     0
 92
       -2
340
0
 93
        0
 40
0.045
309
GRIDFORMAT_END
309
TABLEFORMAT_END
  1
CELLSTYLE_BEGIN
 90
        3
 91
        2
300
_DATA
309
CELLSTYLE_END
  0
XRECORD
  5
94DB2
102
{ACAD_REACTORS
330
9292F
102
}
330
9292F
100
AcDbXrecord
280
     1
102
ACAD_ROUNDTRIP_PRE2007_TABLESTYLE
 90
      512
 91
        0
  1

 92
      512
 93
        0
  2

 94
      512
 95
        0
  3

  0
XRECORD
  5
94D8D
102
{ACAD_REACTORS
330
94D8C
102
}
330
94D8C
100
AcDbXrecord
280
     1
102
RTVSPost2010Prop28
280
     1
102
RTVSPost2010PropOp28
 70
     1
102
RTVSPost2010Prop29
280
     1
102
RTVSPost2010PropOp29
 70
     1
102
RTVSPost2010Prop30
280
     0
102
RTVSPost2010PropOp30
 70
     1
102
RTVSPost2010Prop31
280
     0
102
RTVSPost2010PropOp31
 70
     1
102
RTVSPost2010Prop32
280
     0
102
RTVSPost2010PropOp32
 70
     1
102
RTVSPost2010Prop33
280
     0
102
RTVSPost2010PropOp33
 70
     1
102
RTVSPost2010Prop34
280
     0
102
RTVSPost2010PropOp34
 70
     1
102
RTVSPost2010Prop35
280
     0
102
RTVSPost2010PropOp35
 70
     1
102
RTVSPost2010Prop36
280
     0
102
RTVSPost2010PropOp36
 70
     1
102
RTVSPost2010Prop37
 90
       50
102
RTVSPost2010PropOp37
 70
     1
102
RTVSPost2010Prop38
140
0.0
102
RTVSPost2010PropOp38
 70
     1
102
RTVSPost2010Prop39
140
1.0
102
RTVSPost2010PropOp39
 70
     1
102
RTVSPost2010Prop40
 90
        0
102
RTVSPost2010PropOp40
 70
     1
102
RTVSPost2010Prop41ColorIndex
 90
       18
102
RTVSPost2010Prop41ColorRGB
 90
-16777216
102
RTVSPost2010PropOp41
 70
     1
102
RTVSPost2010Prop42
 90
       50
102
RTVSPost2010PropOp42
 70
     1
102
RTVSPost2010Prop43
 90
        3
102
RTVSPost2010PropOp43
 70
     1
102
RTVSPost2010Prop44ColorIndex
 90
        5
102
RTVSPost2010Prop44ColorRGB
 90
      255
102
RTVSPost2010PropOp44
 70
     1
102
RTVSPost2010Prop45
280
     0
102
RTVSPost2010PropOp45
 70
     1
102
RTVSPost2010Prop46
 90
       50
102
RTVSPost2010PropOp46
 70
     1
102
RTVSPost2010Prop47
 90
       50
102
RTVSPost2010PropOp47
 70
     1
102
RTVSPost2010Prop48
 90
       50
102
RTVSPost2010PropOp48
 70
     1
102
RTVSPost2010Prop49
280
     0
102
RTVSPost2010PropOp49
 70
     1
102
RTVSPost2010Prop50
 90
       50
102
RTVSPost2010PropOp50
 70
     1
102
RTVSPost2010Prop51ColorIndex
 90
      256
102
RTVSPost2010Prop51ColorRGB
 90
-16777216
102
RTVSPost2010PropOp51
 70
     0
102
RTVSPost2010Prop52
140
1.0
102
RTVSPost2010PropOp52
 70
     0
102
RTVSPost2010Prop53
 90
        2
102
RTVSPost2010PropOp53
 70
     1
102
RTVSPost2010Prop54
  1
strokes_ogs.tif
102
RTVSPost2010PropOp54
 70
     1
102
RTVSPost2010Prop55
280
     0
102
RTVSPost2010PropOp55
 70
     1
102
RTVSPost2010Prop56
140
1.0
102
RTVSPost2010PropOp56
 70
     1
102
RTVSPost2010Prop57
140
1.0
102
RTVSPost2010PropOp57
 70
     1
102
RTVSPropertyOp0
 70
     1
102
RTVSPropertyOp1
 70
     1
102
RTVSPropertyOp2
 70
     1
102
RTVSPropertyOp3
 70
     1
102
RTVSPropertyOp4
 70
     1
102
RTVSPropertyOp5
 70
     1
102
RTVSPropertyOp6
 70
     1
102
RTVSPropertyOp7
 70
     1
102
RTVSPropertyOp8
 70
     1
102
RTVSPropertyOp9
 70
     1
102
RTVSPropertyOp10
 70
     1
102
RTVSPropertyOp11
 70
     1
102
RTVSPropertyOp12
 70
     1
102
RTVSPropertyOp13
 70
     1
102
RTVSPropertyOp14
 70
     1
102
RTVSPropertyOp15
 70
     1
102
RTVSPropertyOp16
 70
     1
102
RTVSPropertyOp17
 70
     1
102
RTVSPropertyOp18
 70
     1
102
RTVSPropertyOp19
 70
     1
102
RTVSPropertyOp20
 70
     1
102
RTVSPropertyOp21
 70
     1
102
RTVSPropertyOp22
 70
     1
102
RTVSPropertyOp23
 70
     1
102
RTVSPropertyOp24
 70
     1
102
RTVSPropertyOp25
 70
     1
102
RTVSPropertyOp26
 70
     1
102
RTVSPropertyOp27
 70
     1
102
RTVSPropertyOp28
 70
     1
102
RTVSPropertyOp29
 70
     1
102
RTVSPropertyOp30
 70
     1
102
RTVSPropertyOp31
 70
     1
102
RTVSPropertyOp32
 70
     1
102
RTVSPropertyOp33
 70
     1
102
RTVSPropertyOp34
 70
     1
102
RTVSPropertyOp35
 70
     1
102
RTVSPropertyOp36
 70
     1
102
RTVSPropertyOp37
 70
     1
102
RTVSPropertyOp38
 70
     1
102
RTVSPropertyOp39
 70
     1
102
RTVSPropertyOp40
 70
     1
102
RTVSPropertyOp41
 70
     1
102
RTVSPropertyOp42
 70
     1
102
RTVSPropertyOp43
 70
     1
102
RTVSPropertyOp44
 70
     1
102
RTVSPropertyOp45
 70
     1
102
RTVSPropertyOp46
 70
     1
102
RTVSPropertyOp47
 70
     1
102
RTVSPropertyOp48
 70
     1
102
RTVSPropertyOp49
 70
     1
102
RTVSPropertyOp50
 70
     1
102
RTVSPropertyOp51
 70
     0
102
RTVSPropertyOp52
 70
     0
102
RTVSPropertyOp53
 70
     1
102
RTVSPropertyOp54
 70
     1
102
RTVSPropertyOp55
 70
     1
102
RTVSPropertyOp56
 70
     1
102
RTVSPropertyOp57
 70
     1
102
RTVSPropertyOp58
 70
     1
102
RTVSPropertyOp59
 70
     1
102
RTVSPropertyOp60
 70
     1
102
RTVSPropertyOp61
 70
     1
102
RTVSPropertyOp62
 70
     1
  0
XRECORD
  5
94D8B
102
{ACAD_REACTORS
330
94D8A
102
}
330
94D8A
100
AcDbXrecord
280
     1
102
RTVSPost2010Prop28
280
     0
102
RTVSPost2010PropOp28
 70
     1
102
RTVSPost2010Prop29
280
     1
102
RTVSPost2010PropOp29
 70
     1
102
RTVSPost2010Prop30
280
     1
102
RTVSPost2010PropOp30
 70
     1
102
RTVSPost2010Prop31
280
     0
102
RTVSPost2010PropOp31
 70
     1
102
RTVSPost2010Prop32
280
     0
102
RTVSPost2010PropOp32
 70
     1
102
RTVSPost2010Prop33
280
     0
102
RTVSPost2010PropOp33
 70
     1
102
RTVSPost2010Prop34
280
     0
102
RTVSPost2010PropOp34
 70
     1
102
RTVSPost2010Prop35
280
     0
102
RTVSPost2010PropOp35
 70
     1
102
RTVSPost2010Prop36
280
     0
102
RTVSPost2010PropOp36
 70
     1
102
RTVSPost2010Prop37
 90
       50
102
RTVSPost2010PropOp37
 70
     1
102
RTVSPost2010Prop38
140
0.0
102
RTVSPost2010PropOp38
 70
     1
102
RTVSPost2010Prop39
140
1.0
102
RTVSPost2010PropOp39
 70
     1
102
RTVSPost2010Prop40
 90
        0
102
RTVSPost2010PropOp40
 70
     1
102
RTVSPost2010Prop41ColorIndex
 90
       18
102
RTVSPost2010Prop41ColorRGB
 90
-16777216
102
RTVSPost2010PropOp41
 70
     1
102
RTVSPost2010Prop42
 90
       50
102
RTVSPost2010PropOp42
 70
     1
102
RTVSPost2010Prop43
 90
        3
102
RTVSPost2010PropOp43
 70
     1
102
RTVSPost2010Prop44ColorIndex
 90
        5
102
RTVSPost2010Prop44ColorRGB
 90
      255
102
RTVSPost2010PropOp44
 70
     1
102
RTVSPost2010Prop45
280
     0
102
RTVSPost2010PropOp45
 70
     1
102
RTVSPost2010Prop46
 90
       50
102
RTVSPost2010PropOp46
 70
     1
102
RTVSPost2010Prop47
 90
       50
102
RTVSPost2010PropOp47
 70
     1
102
RTVSPost2010Prop48
 90
       50
102
RTVSPost2010PropOp48
 70
     1
102
RTVSPost2010Prop49
280
     0
102
RTVSPost2010PropOp49
 70
     1
102
RTVSPost2010Prop50
 90
       50
102
RTVSPost2010PropOp50
 70
     1
102
RTVSPost2010Prop51ColorIndex
 90
      256
102
RTVSPost2010Prop51ColorRGB
 90
-16777216
102
RTVSPost2010PropOp51
 70
     0
102
RTVSPost2010Prop52
140
1.0
102
RTVSPost2010PropOp52
 70
     0
102
RTVSPost2010Prop53
 90
        2
102
RTVSPost2010PropOp53
 70
     1
102
RTVSPost2010Prop54
  1
strokes_ogs.tif
102
RTVSPost2010PropOp54
 70
     1
102
RTVSPost2010Prop55
280
     0
102
RTVSPost2010PropOp55
 70
     1
102
RTVSPost2010Prop56
140
1.0
102
RTVSPost2010PropOp56
 70
     1
102
RTVSPost2010Prop57
140
1.0
102
RTVSPost2010PropOp57
 70
     1
102
RTVSPropertyOp0
 70
     1
102
RTVSPropertyOp1
 70
     1
102
RTVSPropertyOp2
 70
     1
102
RTVSPropertyOp3
 70
     1
102
RTVSPropertyOp4
 70
     1
102
RTVSPropertyOp5
 70
     1
102
RTVSPropertyOp6
 70
     1
102
RTVSPropertyOp7
 70
     1
102
RTVSPropertyOp8
 70
     1
102
RTVSPropertyOp9
 70
     1
102
RTVSPropertyOp10
 70
     1
102
RTVSPropertyOp11
 70
     1
102
RTVSPropertyOp12
 70
     1
102
RTVSPropertyOp13
 70
     1
102
RTVSPropertyOp14
 70
     1
102
RTVSPropertyOp15
 70
     1
102
RTVSPropertyOp16
 70
     1
102
RTVSPropertyOp17
 70
     1
102
RTVSPropertyOp18
 70
     1
102
RTVSPropertyOp19
 70
     1
102
RTVSPropertyOp20
 70
     1
102
RTVSPropertyOp21
 70
     1
102
RTVSPropertyOp22
 70
     1
102
RTVSPropertyOp23
 70
     1
102
RTVSPropertyOp24
 70
     1
102
RTVSPropertyOp25
 70
     1
102
RTVSPropertyOp26
 70
     1
102
RTVSPropertyOp27
 70
     1
102
RTVSPropertyOp28
 70
     1
102
RTVSPropertyOp29
 70
     1
102
RTVSPropertyOp30
 70
     1
102
RTVSPropertyOp31
 70
     1
102
RTVSPropertyOp32
 70
     1
102
RTVSPropertyOp33
 70
     1
102
RTVSPropertyOp34
 70
     1
102
RTVSPropertyOp35
 70
     1
102
RTVSPropertyOp36
 70
     1
102
RTVSPropertyOp37
 70
     1
102
RTVSPropertyOp38
 70
     1
102
RTVSPropertyOp39
 70
     1
102
RTVSPropertyOp40
 70
     1
102
RTVSPropertyOp41
 70
     1
102
RTVSPropertyOp42
 70
     1
102
RTVSPropertyOp43
 70
     1
102
RTVSPropertyOp44
 70
     1
102
RTVSPropertyOp45
 70
     1
102
RTVSPropertyOp46
 70
     1
102
RTVSPropertyOp47
 70
     1
102
RTVSPropertyOp48
 70
     1
102
RTVSPropertyOp49
 70
     1
102
RTVSPropertyOp50
 70
     1
102
RTVSPropertyOp51
 70
     0
102
RTVSPropertyOp52
 70
     0
102
RTVSPropertyOp53
 70
     1
102
RTVSPropertyOp54
 70
     1
102
RTVSPropertyOp55
 70
     1
102
RTVSPropertyOp56
 70
     1
102
RTVSPropertyOp57
 70
     1
102
RTVSPropertyOp58
 70
     1
102
RTVSPropertyOp59
 70
     1
102
RTVSPropertyOp60
 70
     1
102
RTVSPropertyOp61
 70
     1
102
RTVSPropertyOp62
 70
     1
  0
XRECORD
  5
94D99
102
{ACAD_REACTORS
330
94D98
102
}
330
94D98
100
AcDbXrecord
280
     1
102
RTVSPost2010Prop28
280
     0
102
RTVSPost2010PropOp28
 70
     1
102
RTVSPost2010Prop29
280
     1
102
RTVSPost2010PropOp29
 70
     1
102
RTVSPost2010Prop30
280
     1
102
RTVSPost2010PropOp30
 70
     1
102
RTVSPost2010Prop31
280
     0
102
RTVSPost2010PropOp31
 70
     1
102
RTVSPost2010Prop32
280
     0
102
RTVSPost2010PropOp32
 70
     1
102
RTVSPost2010Prop33
280
     0
102
RTVSPost2010PropOp33
 70
     1
102
RTVSPost2010Prop34
280
     0
102
RTVSPost2010PropOp34
 70
     1
102
RTVSPost2010Prop35
280
     0
102
RTVSPost2010PropOp35
 70
     1
102
RTVSPost2010Prop36
280
     0
102
RTVSPost2010PropOp36
 70
     1
102
RTVSPost2010Prop37
 90
       50
102
RTVSPost2010PropOp37
 70
     1
102
RTVSPost2010Prop38
140
0.0
102
RTVSPost2010PropOp38
 70
     1
102
RTVSPost2010Prop39
140
1.0
102
RTVSPost2010PropOp39
 70
     1
102
RTVSPost2010Prop40
 90
        0
102
RTVSPost2010PropOp40
 70
     1
102
RTVSPost2010Prop41ColorIndex
 90
       18
102
RTVSPost2010Prop41ColorRGB
 90
-16777216
102
RTVSPost2010PropOp41
 70
     1
102
RTVSPost2010Prop42
 90
       50
102
RTVSPost2010PropOp42
 70
     1
102
RTVSPost2010Prop43
 90
        3
102
RTVSPost2010PropOp43
 70
     1
102
RTVSPost2010Prop44ColorIndex
 90
        5
102
RTVSPost2010Prop44ColorRGB
 90
      255
102
RTVSPost2010PropOp44
 70
     1
102
RTVSPost2010Prop45
280
     0
102
RTVSPost2010PropOp45
 70
     1
102
RTVSPost2010Prop46
 90
       50
102
RTVSPost2010PropOp46
 70
     1
102
RTVSPost2010Prop47
 90
       50
102
RTVSPost2010PropOp47
 70
     1
102
RTVSPost2010Prop48
 90
       50
102
RTVSPost2010PropOp48
 70
     1
102
RTVSPost2010Prop49
280
     0
102
RTVSPost2010PropOp49
 70
     1
102
RTVSPost2010Prop50
 90
       50
102
RTVSPost2010PropOp50
 70
     1
102
RTVSPost2010Prop51ColorIndex
 90
      256
102
RTVSPost2010Prop51ColorRGB
 90
-16777216
102
RTVSPost2010PropOp51
 70
     0
102
RTVSPost2010Prop52
140
1.0
102
RTVSPost2010PropOp52
 70
     0
102
RTVSPost2010Prop53
 90
        2
102
RTVSPost2010PropOp53
 70
     1
102
RTVSPost2010Prop54
  1
strokes_ogs.tif
102
RTVSPost2010PropOp54
 70
     1
102
RTVSPost2010Prop55
280
     0
102
RTVSPost2010PropOp55
 70
     1
102
RTVSPost2010Prop56
140
1.0
102
RTVSPost2010PropOp56
 70
     1
102
RTVSPost2010Prop57
140
1.0
102
RTVSPost2010PropOp57
 70
     1
102
RTVSPropertyOp0
 70
     1
102
RTVSPropertyOp1
 70
     1
102
RTVSPropertyOp2
 70
     1
102
RTVSPropertyOp3
 70
     1
102
RTVSPropertyOp4
 70
     1
102
RTVSPropertyOp5
 70
     1
102
RTVSPropertyOp6
 70
     1
102
RTVSPropertyOp7
 70
     1
102
RTVSPropertyOp8
 70
     1
102
RTVSPropertyOp9
 70
     1
102
RTVSPropertyOp10
 70
     1
102
RTVSPropertyOp11
 70
     1
102
RTVSPropertyOp12
 70
     1
102
RTVSPropertyOp13
 70
     1
102
RTVSPropertyOp14
 70
     1
102
RTVSPropertyOp15
 70
     1
102
RTVSPropertyOp16
 70
     1
102
RTVSPropertyOp17
 70
     1
102
RTVSPropertyOp18
 70
     1
102
RTVSPropertyOp19
 70
     1
102
RTVSPropertyOp20
 70
     1
102
RTVSPropertyOp21
 70
     1
102
RTVSPropertyOp22
 70
     1
102
RTVSPropertyOp23
 70
     1
102
RTVSPropertyOp24
 70
     1
102
RTVSPropertyOp25
 70
     1
102
RTVSPropertyOp26
 70
     1
102
RTVSPropertyOp27
 70
     1
102
RTVSPropertyOp28
 70
     1
102
RTVSPropertyOp29
 70
     1
102
RTVSPropertyOp30
 70
     1
102
RTVSPropertyOp31
 70
     1
102
RTVSPropertyOp32
 70
     1
102
RTVSPropertyOp33
 70
     1
102
RTVSPropertyOp34
 70
     1
102
RTVSPropertyOp35
 70
     1
102
RTVSPropertyOp36
 70
     1
102
RTVSPropertyOp37
 70
     1
102
RTVSPropertyOp38
 70
     1
102
RTVSPropertyOp39
 70
     1
102
RTVSPropertyOp40
 70
     1
102
RTVSPropertyOp41
 70
     1
102
RTVSPropertyOp42
 70
     1
102
RTVSPropertyOp43
 70
     1
102
RTVSPropertyOp44
 70
     1
102
RTVSPropertyOp45
 70
     1
102
RTVSPropertyOp46
 70
     1
102
RTVSPropertyOp47
 70
     1
102
RTVSPropertyOp48
 70
     1
102
RTVSPropertyOp49
 70
     1
102
RTVSPropertyOp50
 70
     1
102
RTVSPropertyOp51
 70
     0
102
RTVSPropertyOp52
 70
     0
102
RTVSPropertyOp53
 70
     1
102
RTVSPropertyOp54
 70
     1
102
RTVSPropertyOp55
 70
     1
102
RTVSPropertyOp56
 70
     1
102
RTVSPropertyOp57
 70
     1
102
RTVSPropertyOp58
 70
     1
102
RTVSPropertyOp59
 70
     1
102
RTVSPropertyOp60
 70
     1
102
RTVSPropertyOp61
 70
     1
102
RTVSPropertyOp62
 70
     1
  0
XRECORD
  5
94DA1
102
{ACAD_REACTORS
330
94DA0
102
}
330
94DA0
100
AcDbXrecord
280
     1
102
RTVSPost2010Prop28
280
     0
102
RTVSPost2010PropOp28
 70
     1
102
RTVSPost2010Prop29
280
     1
102
RTVSPost2010PropOp29
 70
     1
102
RTVSPost2010Prop30
280
     1
102
RTVSPost2010PropOp30
 70
     1
102
RTVSPost2010Prop31
280
     0
102
RTVSPost2010PropOp31
 70
     1
102
RTVSPost2010Prop32
280
     0
102
RTVSPost2010PropOp32
 70
     1
102
RTVSPost2010Prop33
280
     0
102
RTVSPost2010PropOp33
 70
     1
102
RTVSPost2010Prop34
280
     0
102
RTVSPost2010PropOp34
 70
     1
102
RTVSPost2010Prop35
280
     0
102
RTVSPost2010PropOp35
 70
     1
102
RTVSPost2010Prop36
280
     0
102
RTVSPost2010PropOp36
 70
     1
102
RTVSPost2010Prop37
 90
       50
102
RTVSPost2010PropOp37
 70
     1
102
RTVSPost2010Prop38
140
0.0
102
RTVSPost2010PropOp38
 70
     1
102
RTVSPost2010Prop39
140
1.0
102
RTVSPost2010PropOp39
 70
     1
102
RTVSPost2010Prop40
 90
        0
102
RTVSPost2010PropOp40
 70
     1
102
RTVSPost2010Prop41ColorIndex
 90
       18
102
RTVSPost2010Prop41ColorRGB
 90
-16777216
102
RTVSPost2010PropOp41
 70
     1
102
RTVSPost2010Prop42
 90
       50
102
RTVSPost2010PropOp42
 70
     1
102
RTVSPost2010Prop43
 90
        3
102
RTVSPost2010PropOp43
 70
     1
102
RTVSPost2010Prop44ColorIndex
 90
        5
102
RTVSPost2010Prop44ColorRGB
 90
      255
102
RTVSPost2010PropOp44
 70
     1
102
RTVSPost2010Prop45
280
     0
102
RTVSPost2010PropOp45
 70
     1
102
RTVSPost2010Prop46
 90
       50
102
RTVSPost2010PropOp46
 70
     1
102
RTVSPost2010Prop47
 90
       50
102
RTVSPost2010PropOp47
 70
     1
102
RTVSPost2010Prop48
 90
       50
102
RTVSPost2010PropOp48
 70
     1
102
RTVSPost2010Prop49
280
     0
102
RTVSPost2010PropOp49
 70
     1
102
RTVSPost2010Prop50
 90
       50
102
RTVSPost2010PropOp50
 70
     1
102
RTVSPost2010Prop51ColorIndex
 90
      256
102
RTVSPost2010Prop51ColorRGB
 90
-16777216
102
RTVSPost2010PropOp51
 70
     0
102
RTVSPost2010Prop52
140
1.0
102
RTVSPost2010PropOp52
 70
     0
102
RTVSPost2010Prop53
 90
        2
102
RTVSPost2010PropOp53
 70
     1
102
RTVSPost2010Prop54
  1
strokes_ogs.tif
102
RTVSPost2010PropOp54
 70
     1
102
RTVSPost2010Prop55
280
     0
102
RTVSPost2010PropOp55
 70
     1
102
RTVSPost2010Prop56
140
1.0
102
RTVSPost2010PropOp56
 70
     1
102
RTVSPost2010Prop57
140
1.0
102
RTVSPost2010PropOp57
 70
     1
102
RTVSPropertyOp0
 70
     1
102
RTVSPropertyOp1
 70
     1
102
RTVSPropertyOp2
 70
     1
102
RTVSPropertyOp3
 70
     1
102
RTVSPropertyOp4
 70
     1
102
RTVSPropertyOp5
 70
     1
102
RTVSPropertyOp6
 70
     1
102
RTVSPropertyOp7
 70
     1
102
RTVSPropertyOp8
 70
     1
102
RTVSPropertyOp9
 70
     1
102
RTVSPropertyOp10
 70
     1
102
RTVSPropertyOp11
 70
     1
102
RTVSPropertyOp12
 70
     1
102
RTVSPropertyOp13
 70
     1
102
RTVSPropertyOp14
 70
     1
102
RTVSPropertyOp15
 70
     1
102
RTVSPropertyOp16
 70
     1
102
RTVSPropertyOp17
 70
     1
102
RTVSPropertyOp18
 70
     1
102
RTVSPropertyOp19
 70
     1
102
RTVSPropertyOp20
 70
     1
102
RTVSPropertyOp21
 70
     1
102
RTVSPropertyOp22
 70
     1
102
RTVSPropertyOp23
 70
     1
102
RTVSPropertyOp24
 70
     1
102
RTVSPropertyOp25
 70
     1
102
RTVSPropertyOp26
 70
     1
102
RTVSPropertyOp27
 70
     1
102
RTVSPropertyOp28
 70
     1
102
RTVSPropertyOp29
 70
     1
102
RTVSPropertyOp30
 70
     1
102
RTVSPropertyOp31
 70
     1
102
RTVSPropertyOp32
 70
     1
102
RTVSPropertyOp33
 70
     1
102
RTVSPropertyOp34
 70
     1
102
RTVSPropertyOp35
 70
     1
102
RTVSPropertyOp36
 70
     1
102
RTVSPropertyOp37
 70
     1
102
RTVSPropertyOp38
 70
     1
102
RTVSPropertyOp39
 70
     1
102
RTVSPropertyOp40
 70
     1
102
RTVSPropertyOp41
 70
     1
102
RTVSPropertyOp42
 70
     1
102
RTVSPropertyOp43
 70
     1
102
RTVSPropertyOp44
 70
     1
102
RTVSPropertyOp45
 70
     1
102
RTVSPropertyOp46
 70
     1
102
RTVSPropertyOp47
 70
     1
102
RTVSPropertyOp48
 70
     1
102
RTVSPropertyOp49
 70
     1
102
RTVSPropertyOp50
 70
     1
102
RTVSPropertyOp51
 70
     0
102
RTVSPropertyOp52
 70
     0
102
RTVSPropertyOp53
 70
     1
102
RTVSPropertyOp54
 70
     1
102
RTVSPropertyOp55
 70
     1
102
RTVSPropertyOp56
 70
     1
102
RTVSPropertyOp57
 70
     1
102
RTVSPropertyOp58
 70
     1
102
RTVSPropertyOp59
 70
     1
102
RTVSPropertyOp60
 70
     1
102
RTVSPropertyOp61
 70
     1
102
RTVSPropertyOp62
 70
     1
  0
XRECORD
  5
94D93
102
{ACAD_REACTORS
330
94D92
102
}
330
94D92
100
AcDbXrecord
280
     1
102
RTVSPost2010Prop28
280
     0
102
RTVSPost2010PropOp28
 70
     1
102
RTVSPost2010Prop29
280
     1
102
RTVSPost2010PropOp29
 70
     1
102
RTVSPost2010Prop30
280
     1
102
RTVSPost2010PropOp30
 70
     1
102
RTVSPost2010Prop31
280
     0
102
RTVSPost2010PropOp31
 70
     1
102
RTVSPost2010Prop32
280
     0
102
RTVSPost2010PropOp32
 70
     1
102
RTVSPost2010Prop33
280
     0
102
RTVSPost2010PropOp33
 70
     1
102
RTVSPost2010Prop34
280
     0
102
RTVSPost2010PropOp34
 70
     1
102
RTVSPost2010Prop35
280
     0
102
RTVSPost2010PropOp35
 70
     1
102
RTVSPost2010Prop36
280
     0
102
RTVSPost2010PropOp36
 70
     1
102
RTVSPost2010Prop37
 90
       50
102
RTVSPost2010PropOp37
 70
     1
102
RTVSPost2010Prop38
140
0.0
102
RTVSPost2010PropOp38
 70
     1
102
RTVSPost2010Prop39
140
1.0
102
RTVSPost2010PropOp39
 70
     1
102
RTVSPost2010Prop40
 90
        0
102
RTVSPost2010PropOp40
 70
     1
102
RTVSPost2010Prop41ColorIndex
 90
       18
102
RTVSPost2010Prop41ColorRGB
 90
-16777216
102
RTVSPost2010PropOp41
 70
     1
102
RTVSPost2010Prop42
 90
       50
102
RTVSPost2010PropOp42
 70
     1
102
RTVSPost2010Prop43
 90
        3
102
RTVSPost2010PropOp43
 70
     1
102
RTVSPost2010Prop44ColorIndex
 90
        5
102
RTVSPost2010Prop44ColorRGB
 90
      255
102
RTVSPost2010PropOp44
 70
     1
102
RTVSPost2010Prop45
280
     0
102
RTVSPost2010PropOp45
 70
     1
102
RTVSPost2010Prop46
 90
       50
102
RTVSPost2010PropOp46
 70
     1
102
RTVSPost2010Prop47
 90
       50
102
RTVSPost2010PropOp47
 70
     1
102
RTVSPost2010Prop48
 90
       50
102
RTVSPost2010PropOp48
 70
     1
102
RTVSPost2010Prop49
280
     0
102
RTVSPost2010PropOp49
 70
     1
102
RTVSPost2010Prop50
 90
       50
102
RTVSPost2010PropOp50
 70
     1
102
RTVSPost2010Prop51ColorIndex
 90
      256
102
RTVSPost2010Prop51ColorRGB
 90
-16777216
102
RTVSPost2010PropOp51
 70
     0
102
RTVSPost2010Prop52
140
1.0
102
RTVSPost2010PropOp52
 70
     0
102
RTVSPost2010Prop53
 90
        2
102
RTVSPost2010PropOp53
 70
     1
102
RTVSPost2010Prop54
  1
strokes_ogs.tif
102
RTVSPost2010PropOp54
 70
     1
102
RTVSPost2010Prop55
280
     0
102
RTVSPost2010PropOp55
 70
     1
102
RTVSPost2010Prop56
140
1.0
102
RTVSPost2010PropOp56
 70
     1
102
RTVSPost2010Prop57
140
1.0
102
RTVSPost2010PropOp57
 70
     1
102
RTVSPropertyOp0
 70
     1
102
RTVSPropertyOp1
 70
     1
102
RTVSPropertyOp2
 70
     1
102
RTVSPropertyOp3
 70
     1
102
RTVSPropertyOp4
 70
     1
102
RTVSPropertyOp5
 70
     1
102
RTVSPropertyOp6
 70
     1
102
RTVSPropertyOp7
 70
     1
102
RTVSPropertyOp8
 70
     1
102
RTVSPropertyOp9
 70
     1
102
RTVSPropertyOp10
 70
     1
102
RTVSPropertyOp11
 70
     1
102
RTVSPropertyOp12
 70
     1
102
RTVSPropertyOp13
 70
     1
102
RTVSPropertyOp14
 70
     1
102
RTVSPropertyOp15
 70
     1
102
RTVSPropertyOp16
 70
     1
102
RTVSPropertyOp17
 70
     1
102
RTVSPropertyOp18
 70
     1
102
RTVSPropertyOp19
 70
     1
102
RTVSPropertyOp20
 70
     1
102
RTVSPropertyOp21
 70
     1
102
RTVSPropertyOp22
 70
     1
102
RTVSPropertyOp23
 70
     1
102
RTVSPropertyOp24
 70
     1
102
RTVSPropertyOp25
 70
     1
102
RTVSPropertyOp26
 70
     1
102
RTVSPropertyOp27
 70
     1
102
RTVSPropertyOp28
 70
     1
102
RTVSPropertyOp29
 70
     1
102
RTVSPropertyOp30
 70
     1
102
RTVSPropertyOp31
 70
     1
102
RTVSPropertyOp32
 70
     1
102
RTVSPropertyOp33
 70
     1
102
RTVSPropertyOp34
 70
     1
102
RTVSPropertyOp35
 70
     1
102
RTVSPropertyOp36
 70
     1
102
RTVSPropertyOp37
 70
     1
102
RTVSPropertyOp38
 70
     1
102
RTVSPropertyOp39
 70
     1
102
RTVSPropertyOp40
 70
     1
102
RTVSPropertyOp41
 70
     1
102
RTVSPropertyOp42
 70
     1
102
RTVSPropertyOp43
 70
     1
102
RTVSPropertyOp44
 70
     1
102
RTVSPropertyOp45
 70
     1
102
RTVSPropertyOp46
 70
     1
102
RTVSPropertyOp47
 70
     1
102
RTVSPropertyOp48
 70
     1
102
RTVSPropertyOp49
 70
     1
102
RTVSPropertyOp50
 70
     1
102
RTVSPropertyOp51
 70
     0
102
RTVSPropertyOp52
 70
     0
102
RTVSPropertyOp53
 70
     1
102
RTVSPropertyOp54
 70
     1
102
RTVSPropertyOp55
 70
     1
102
RTVSPropertyOp56
 70
     1
102
RTVSPropertyOp57
 70
     1
102
RTVSPropertyOp58
 70
     1
102
RTVSPropertyOp59
 70
     1
102
RTVSPropertyOp60
 70
     1
102
RTVSPropertyOp61
 70
     1
102
RTVSPropertyOp62
 70
     1
  0
XRECORD
  5
94D97
102
{ACAD_REACTORS
330
94D96
102
}
330
94D96
100
AcDbXrecord
280
     1
102
RTVSPost2010Prop28
280
     0
102
RTVSPost2010PropOp28
 70
     1
102
RTVSPost2010Prop29
280
     1
102
RTVSPost2010PropOp29
 70
     1
102
RTVSPost2010Prop30
280
     1
102
RTVSPost2010PropOp30
 70
     1
102
RTVSPost2010Prop31
280
     0
102
RTVSPost2010PropOp31
 70
     1
102
RTVSPost2010Prop32
280
     0
102
RTVSPost2010PropOp32
 70
     1
102
RTVSPost2010Prop33
280
     0
102
RTVSPost2010PropOp33
 70
     1
102
RTVSPost2010Prop34
280
     0
102
RTVSPost2010PropOp34
 70
     1
102
RTVSPost2010Prop35
280
     0
102
RTVSPost2010PropOp35
 70
     1
102
RTVSPost2010Prop36
280
     0
102
RTVSPost2010PropOp36
 70
     1
102
RTVSPost2010Prop37
 90
       50
102
RTVSPost2010PropOp37
 70
     1
102
RTVSPost2010Prop38
140
0.0
102
RTVSPost2010PropOp38
 70
     1
102
RTVSPost2010Prop39
140
1.0
102
RTVSPost2010PropOp39
 70
     1
102
RTVSPost2010Prop40
 90
        0
102
RTVSPost2010PropOp40
 70
     1
102
RTVSPost2010Prop41ColorIndex
 90
       18
102
RTVSPost2010Prop41ColorRGB
 90
-16777216
102
RTVSPost2010PropOp41
 70
     1
102
RTVSPost2010Prop42
 90
       50
102
RTVSPost2010PropOp42
 70
     1
102
RTVSPost2010Prop43
 90
        3
102
RTVSPost2010PropOp43
 70
     1
102
RTVSPost2010Prop44ColorIndex
 90
        5
102
RTVSPost2010Prop44ColorRGB
 90
      255
102
RTVSPost2010PropOp44
 70
     1
102
RTVSPost2010Prop45
280
     0
102
RTVSPost2010PropOp45
 70
     1
102
RTVSPost2010Prop46
 90
       50
102
RTVSPost2010PropOp46
 70
     1
102
RTVSPost2010Prop47
 90
       50
102
RTVSPost2010PropOp47
 70
     1
102
RTVSPost2010Prop48
 90
       50
102
RTVSPost2010PropOp48
 70
     1
102
RTVSPost2010Prop49
280
     0
102
RTVSPost2010PropOp49
 70
     1
102
RTVSPost2010Prop50
 90
       50
102
RTVSPost2010PropOp50
 70
     1
102
RTVSPost2010Prop51ColorIndex
 90
      256
102
RTVSPost2010Prop51ColorRGB
 90
-16777216
102
RTVSPost2010PropOp51
 70
     0
102
RTVSPost2010Prop52
140
1.0
102
RTVSPost2010PropOp52
 70
     0
102
RTVSPost2010Prop53
 90
        2
102
RTVSPost2010PropOp53
 70
     1
102
RTVSPost2010Prop54
  1
strokes_ogs.tif
102
RTVSPost2010PropOp54
 70
     1
102
RTVSPost2010Prop55
280
     0
102
RTVSPost2010PropOp55
 70
     1
102
RTVSPost2010Prop56
140
1.0
102
RTVSPost2010PropOp56
 70
     1
102
RTVSPost2010Prop57
140
1.0
102
RTVSPost2010PropOp57
 70
     1
102
RTVSPropertyOp0
 70
     1
102
RTVSPropertyOp1
 70
     1
102
RTVSPropertyOp2
 70
     1
102
RTVSPropertyOp3
 70
     1
102
RTVSPropertyOp4
 70
     1
102
RTVSPropertyOp5
 70
     1
102
RTVSPropertyOp6
 70
     1
102
RTVSPropertyOp7
 70
     1
102
RTVSPropertyOp8
 70
     1
102
RTVSPropertyOp9
 70
     1
102
RTVSPropertyOp10
 70
     1
102
RTVSPropertyOp11
 70
     1
102
RTVSPropertyOp12
 70
     1
102
RTVSPropertyOp13
 70
     1
102
RTVSPropertyOp14
 70
     1
102
RTVSPropertyOp15
 70
     1
102
RTVSPropertyOp16
 70
     1
102
RTVSPropertyOp17
 70
     1
102
RTVSPropertyOp18
 70
     1
102
RTVSPropertyOp19
 70
     1
102
RTVSPropertyOp20
 70
     1
102
RTVSPropertyOp21
 70
     1
102
RTVSPropertyOp22
 70
     1
102
RTVSPropertyOp23
 70
     1
102
RTVSPropertyOp24
 70
     1
102
RTVSPropertyOp25
 70
     1
102
RTVSPropertyOp26
 70
     1
102
RTVSPropertyOp27
 70
     1
102
RTVSPropertyOp28
 70
     1
102
RTVSPropertyOp29
 70
     1
102
RTVSPropertyOp30
 70
     1
102
RTVSPropertyOp31
 70
     1
102
RTVSPropertyOp32
 70
     1
102
RTVSPropertyOp33
 70
     1
102
RTVSPropertyOp34
 70
     1
102
RTVSPropertyOp35
 70
     1
102
RTVSPropertyOp36
 70
     1
102
RTVSPropertyOp37
 70
     1
102
RTVSPropertyOp38
 70
     1
102
RTVSPropertyOp39
 70
     1
102
RTVSPropertyOp40
 70
     1
102
RTVSPropertyOp41
 70
     1
102
RTVSPropertyOp42
 70
     1
102
RTVSPropertyOp43
 70
     1
102
RTVSPropertyOp44
 70
     1
102
RTVSPropertyOp45
 70
     1
102
RTVSPropertyOp46
 70
     1
102
RTVSPropertyOp47
 70
     1
102
RTVSPropertyOp48
 70
     1
102
RTVSPropertyOp49
 70
     1
102
RTVSPropertyOp50
 70
     1
102
RTVSPropertyOp51
 70
     0
102
RTVSPropertyOp52
 70
     0
102
RTVSPropertyOp53
 70
     1
102
RTVSPropertyOp54
 70
     1
102
RTVSPropertyOp55
 70
     1
102
RTVSPropertyOp56
 70
     1
102
RTVSPropertyOp57
 70
     1
102
RTVSPropertyOp58
 70
     1
102
RTVSPropertyOp59
 70
     1
102
RTVSPropertyOp60
 70
     1
102
RTVSPropertyOp61
 70
     1
102
RTVSPropertyOp62
 70
     1
  0
XRECORD
  5
94DB1
102
{ACAD_REACTORS
330
94DB0
102
}
330
94DB0
100
AcDbXrecord
280
     1
102
RTVSPost2010Prop28
280
     0
102
RTVSPost2010PropOp28
 70
     1
102
RTVSPost2010Prop29
280
     1
102
RTVSPost2010PropOp29
 70
     1
102
RTVSPost2010Prop30
280
     1
102
RTVSPost2010PropOp30
 70
     1
102
RTVSPost2010Prop31
280
     0
102
RTVSPost2010PropOp31
 70
     1
102
RTVSPost2010Prop32
280
     0
102
RTVSPost2010PropOp32
 70
     1
102
RTVSPost2010Prop33
280
     0
102
RTVSPost2010PropOp33
 70
     1
102
RTVSPost2010Prop34
280
     0
102
RTVSPost2010PropOp34
 70
     1
102
RTVSPost2010Prop35
280
     0
102
RTVSPost2010PropOp35
 70
     1
102
RTVSPost2010Prop36
280
     0
102
RTVSPost2010PropOp36
 70
     1
102
RTVSPost2010Prop37
 90
       50
102
RTVSPost2010PropOp37
 70
     0
102
RTVSPost2010Prop38
140
0.0
102
RTVSPost2010PropOp38
 70
     0
102
RTVSPost2010Prop39
140
1.0
102
RTVSPost2010PropOp39
 70
     0
102
RTVSPost2010Prop40
 90
        0
102
RTVSPost2010PropOp40
 70
     0
102
RTVSPost2010Prop41ColorIndex
 90
       18
102
RTVSPost2010Prop41ColorRGB
 90
-16777216
102
RTVSPost2010PropOp41
 70
     0
102
RTVSPost2010Prop42
 90
       50
102
RTVSPost2010PropOp42
 70
     0
102
RTVSPost2010Prop43
 90
        3
102
RTVSPost2010PropOp43
 70
     0
102
RTVSPost2010Prop44ColorIndex
 90
        5
102
RTVSPost2010Prop44ColorRGB
 90
      255
102
RTVSPost2010PropOp44
 70
     0
102
RTVSPost2010Prop45
280
     0
102
RTVSPost2010PropOp45
 70
     1
102
RTVSPost2010Prop46
 90
       50
102
RTVSPost2010PropOp46
 70
     0
102
RTVSPost2010Prop47
 90
       50
102
RTVSPost2010PropOp47
 70
     0
102
RTVSPost2010Prop48
 90
       50
102
RTVSPost2010PropOp48
 70
     0
102
RTVSPost2010Prop49
280
     0
102
RTVSPost2010PropOp49
 70
     1
102
RTVSPost2010Prop50
 90
       50
102
RTVSPost2010PropOp50
 70
     0
102
RTVSPost2010Prop51ColorIndex
 90
      256
102
RTVSPost2010Prop51ColorRGB
 90
-16777216
102
RTVSPost2010PropOp51
 70
     0
102
RTVSPost2010Prop52
140
1.0
102
RTVSPost2010PropOp52
 70
     0
102
RTVSPost2010Prop53
 90
        2
102
RTVSPost2010PropOp53
 70
     0
102
RTVSPost2010Prop54
  1
strokes_ogs.tif
102
RTVSPost2010PropOp54
 70
     0
102
RTVSPost2010Prop55
280
     0
102
RTVSPost2010PropOp55
 70
     1
102
RTVSPost2010Prop56
140
1.0
102
RTVSPost2010PropOp56
 70
     0
102
RTVSPost2010Prop57
140
1.0
102
RTVSPost2010PropOp57
 70
     0
102
RTVSPropertyOp0
 70
     0
102
RTVSPropertyOp1
 70
     0
102
RTVSPropertyOp2
 70
     0
102
RTVSPropertyOp3
 70
     0
102
RTVSPropertyOp4
 70
     0
102
RTVSPropertyOp5
 70
     0
102
RTVSPropertyOp6
 70
     0
102
RTVSPropertyOp7
 70
     0
102
RTVSPropertyOp8
 70
     0
102
RTVSPropertyOp9
 70
     0
102
RTVSPropertyOp10
 70
     0
102
RTVSPropertyOp11
 70
     0
102
RTVSPropertyOp12
 70
     0
102
RTVSPropertyOp13
 70
     0
102
RTVSPropertyOp14
 70
     2
102
RTVSPropertyOp15
 70
     0
102
RTVSPropertyOp16
 70
     0
102
RTVSPropertyOp17
 70
     0
102
RTVSPropertyOp18
 70
     0
102
RTVSPropertyOp19
 70
     0
102
RTVSPropertyOp20
 70
     0
102
RTVSPropertyOp21
 70
     0
102
RTVSPropertyOp22
 70
     0
102
RTVSPropertyOp23
 70
     0
102
RTVSPropertyOp24
 70
     0
102
RTVSPropertyOp25
 70
     0
102
RTVSPropertyOp26
 70
     0
102
RTVSPropertyOp27
 70
     0
102
RTVSPropertyOp28
 70
     1
102
RTVSPropertyOp29
 70
     1
102
RTVSPropertyOp30
 70
     1
102
RTVSPropertyOp31
 70
     1
102
RTVSPropertyOp32
 70
     1
102
RTVSPropertyOp33
 70
     1
102
RTVSPropertyOp34
 70
     1
102
RTVSPropertyOp35
 70
     1
102
RTVSPropertyOp36
 70
     1
102
RTVSPropertyOp37
 70
     0
102
RTVSPropertyOp38
 70
     0
102
RTVSPropertyOp39
 70
     0
102
RTVSPropertyOp40
 70
     0
102
RTVSPropertyOp41
 70
     0
102
RTVSPropertyOp42
 70
     0
102
RTVSPropertyOp43
 70
     0
102
RTVSPropertyOp44
 70
     0
102
RTVSPropertyOp45
 70
     1
102
RTVSPropertyOp46
 70
     0
102
RTVSPropertyOp47
 70
     0
102
RTVSPropertyOp48
 70
     0
102
RTVSPropertyOp49
 70
     1
102
RTVSPropertyOp50
 70
     0
102
RTVSPropertyOp51
 70
     0
102
RTVSPropertyOp52
 70
     0
102
RTVSPropertyOp53
 70
     0
102
RTVSPropertyOp54
 70
     0
102
RTVSPropertyOp55
 70
     1
102
RTVSPropertyOp56
 70
     0
102
RTVSPropertyOp57
 70
     0
102
RTVSPropertyOp58
 70
     1
102
RTVSPropertyOp59
 70
     1
102
RTVSPropertyOp60
 70
     1
102
RTVSPropertyOp61
 70
     1
102
RTVSPropertyOp62
 70
     1
  0
XRECORD
  5
94D9F
102
{ACAD_REACTORS
330
94D9E
102
}
330
94D9E
100
AcDbXrecord
280
     1
102
RTVSPost2010Prop28
280
     0
102
RTVSPost2010PropOp28
 70
     1
102
RTVSPost2010Prop29
280
     1
102
RTVSPost2010PropOp29
 70
     1
102
RTVSPost2010Prop30
280
     1
102
RTVSPost2010PropOp30
 70
     1
102
RTVSPost2010Prop31
280
     0
102
RTVSPost2010PropOp31
 70
     1
102
RTVSPost2010Prop32
280
     0
102
RTVSPost2010PropOp32
 70
     1
102
RTVSPost2010Prop33
280
     0
102
RTVSPost2010PropOp33
 70
     1
102
RTVSPost2010Prop34
280
     0
102
RTVSPost2010PropOp34
 70
     1
102
RTVSPost2010Prop35
280
     0
102
RTVSPost2010PropOp35
 70
     1
102
RTVSPost2010Prop36
280
     0
102
RTVSPost2010PropOp36
 70
     1
102
RTVSPost2010Prop37
 90
       50
102
RTVSPost2010PropOp37
 70
     1
102
RTVSPost2010Prop38
140
0.0
102
RTVSPost2010PropOp38
 70
     1
102
RTVSPost2010Prop39
140
1.0
102
RTVSPost2010PropOp39
 70
     1
102
RTVSPost2010Prop40
 90
        0
102
RTVSPost2010PropOp40
 70
     1
102
RTVSPost2010Prop41ColorIndex
 90
       18
102
RTVSPost2010Prop41ColorRGB
 90
-16777216
102
RTVSPost2010PropOp41
 70
     1
102
RTVSPost2010Prop42
 90
       50
102
RTVSPost2010PropOp42
 70
     1
102
RTVSPost2010Prop43
 90
        3
102
RTVSPost2010PropOp43
 70
     1
102
RTVSPost2010Prop44ColorIndex
 90
        5
102
RTVSPost2010Prop44ColorRGB
 90
      255
102
RTVSPost2010PropOp44
 70
     1
102
RTVSPost2010Prop45
280
     0
102
RTVSPost2010PropOp45
 70
     1
102
RTVSPost2010Prop46
 90
       50
102
RTVSPost2010PropOp46
 70
     1
102
RTVSPost2010Prop47
 90
       50
102
RTVSPost2010PropOp47
 70
     1
102
RTVSPost2010Prop48
 90
       50
102
RTVSPost2010PropOp48
 70
     1
102
RTVSPost2010Prop49
280
     0
102
RTVSPost2010PropOp49
 70
     1
102
RTVSPost2010Prop50
 90
       50
102
RTVSPost2010PropOp50
 70
     1
102
RTVSPost2010Prop51ColorIndex
 90
      256
102
RTVSPost2010Prop51ColorRGB
 90
-16777216
102
RTVSPost2010PropOp51
 70
     0
102
RTVSPost2010Prop52
140
1.0
102
RTVSPost2010PropOp52
 70
     0
102
RTVSPost2010Prop53
 90
        2
102
RTVSPost2010PropOp53
 70
     1
102
RTVSPost2010Prop54
  1
strokes_ogs.tif
102
RTVSPost2010PropOp54
 70
     1
102
RTVSPost2010Prop55
280
     0
102
RTVSPost2010PropOp55
 70
     1
102
RTVSPost2010Prop56
140
1.0
102
RTVSPost2010PropOp56
 70
     1
102
RTVSPost2010Prop57
140
1.0
102
RTVSPost2010PropOp57
 70
     1
102
RTVSPropertyOp0
 70
     1
102
RTVSPropertyOp1
 70
     1
102
RTVSPropertyOp2
 70
     1
102
RTVSPropertyOp3
 70
     1
102
RTVSPropertyOp4
 70
     1
102
RTVSPropertyOp5
 70
     1
102
RTVSPropertyOp6
 70
     1
102
RTVSPropertyOp7
 70
     1
102
RTVSPropertyOp8
 70
     1
102
RTVSPropertyOp9
 70
     1
102
RTVSPropertyOp10
 70
     1
102
RTVSPropertyOp11
 70
     1
102
RTVSPropertyOp12
 70
     1
102
RTVSPropertyOp13
 70
     1
102
RTVSPropertyOp14
 70
     1
102
RTVSPropertyOp15
 70
     1
102
RTVSPropertyOp16
 70
     1
102
RTVSPropertyOp17
 70
     1
102
RTVSPropertyOp18
 70
     1
102
RTVSPropertyOp19
 70
     1
102
RTVSPropertyOp20
 70
     1
102
RTVSPropertyOp21
 70
     1
102
RTVSPropertyOp22
 70
     1
102
RTVSPropertyOp23
 70
     1
102
RTVSPropertyOp24
 70
     1
102
RTVSPropertyOp25
 70
     1
102
RTVSPropertyOp26
 70
     1
102
RTVSPropertyOp27
 70
     1
102
RTVSPropertyOp28
 70
     1
102
RTVSPropertyOp29
 70
     1
102
RTVSPropertyOp30
 70
     1
102
RTVSPropertyOp31
 70
     1
102
RTVSPropertyOp32
 70
     1
102
RTVSPropertyOp33
 70
     1
102
RTVSPropertyOp34
 70
     1
102
RTVSPropertyOp35
 70
     1
102
RTVSPropertyOp36
 70
     1
102
RTVSPropertyOp37
 70
     1
102
RTVSPropertyOp38
 70
     1
102
RTVSPropertyOp39
 70
     1
102
RTVSPropertyOp40
 70
     1
102
RTVSPropertyOp41
 70
     1
102
RTVSPropertyOp42
 70
     1
102
RTVSPropertyOp43
 70
     1
102
RTVSPropertyOp44
 70
     1
102
RTVSPropertyOp45
 70
     1
102
RTVSPropertyOp46
 70
     1
102
RTVSPropertyOp47
 70
     1
102
RTVSPropertyOp48
 70
     1
102
RTVSPropertyOp49
 70
     1
102
RTVSPropertyOp50
 70
     1
102
RTVSPropertyOp51
 70
     0
102
RTVSPropertyOp52
 70
     0
102
RTVSPropertyOp53
 70
     1
102
RTVSPropertyOp54
 70
     1
102
RTVSPropertyOp55
 70
     1
102
RTVSPropertyOp56
 70
     1
102
RTVSPropertyOp57
 70
     1
102
RTVSPropertyOp58
 70
     1
102
RTVSPropertyOp59
 70
     1
102
RTVSPropertyOp60
 70
     1
102
RTVSPropertyOp61
 70
     1
102
RTVSPropertyOp62
 70
     1
  0
XRECORD
  5
94D83
102
{ACAD_REACTORS
330
94D82
102
}
330
94D82
100
AcDbXrecord
280
     1
102
RTVSPost2010Prop28
280
     0
102
RTVSPost2010PropOp28
 70
     1
102
RTVSPost2010Prop29
280
     1
102
RTVSPost2010PropOp29
 70
     1
102
RTVSPost2010Prop30
280
     1
102
RTVSPost2010PropOp30
 70
     1
102
RTVSPost2010Prop31
280
     0
102
RTVSPost2010PropOp31
 70
     1
102
RTVSPost2010Prop32
280
     0
102
RTVSPost2010PropOp32
 70
     1
102
RTVSPost2010Prop33
280
     0
102
RTVSPost2010PropOp33
 70
     1
102
RTVSPost2010Prop34
280
     0
102
RTVSPost2010PropOp34
 70
     1
102
RTVSPost2010Prop35
280
     0
102
RTVSPost2010PropOp35
 70
     1
102
RTVSPost2010Prop36
280
     0
102
RTVSPost2010PropOp36
 70
     1
102
RTVSPost2010Prop37
 90
       50
102
RTVSPost2010PropOp37
 70
     1
102
RTVSPost2010Prop38
140
0.0
102
RTVSPost2010PropOp38
 70
     1
102
RTVSPost2010Prop39
140
1.0
102
RTVSPost2010PropOp39
 70
     1
102
RTVSPost2010Prop40
 90
        0
102
RTVSPost2010PropOp40
 70
     1
102
RTVSPost2010Prop41ColorIndex
 90
       18
102
RTVSPost2010Prop41ColorRGB
 90
-16777216
102
RTVSPost2010PropOp41
 70
     1
102
RTVSPost2010Prop42
 90
       50
102
RTVSPost2010PropOp42
 70
     1
102
RTVSPost2010Prop43
 90
        3
102
RTVSPost2010PropOp43
 70
     1
102
RTVSPost2010Prop44ColorIndex
 90
        5
102
RTVSPost2010Prop44ColorRGB
 90
      255
102
RTVSPost2010PropOp44
 70
     1
102
RTVSPost2010Prop45
280
     0
102
RTVSPost2010PropOp45
 70
     1
102
RTVSPost2010Prop46
 90
       50
102
RTVSPost2010PropOp46
 70
     1
102
RTVSPost2010Prop47
 90
       50
102
RTVSPost2010PropOp47
 70
     1
102
RTVSPost2010Prop48
 90
       50
102
RTVSPost2010PropOp48
 70
     1
102
RTVSPost2010Prop49
280
     0
102
RTVSPost2010PropOp49
 70
     1
102
RTVSPost2010Prop50
 90
       50
102
RTVSPost2010PropOp50
 70
     1
102
RTVSPost2010Prop51ColorIndex
 90
      256
102
RTVSPost2010Prop51ColorRGB
 90
-16777216
102
RTVSPost2010PropOp51
 70
     0
102
RTVSPost2010Prop52
140
1.0
102
RTVSPost2010PropOp52
 70
     0
102
RTVSPost2010Prop53
 90
        2
102
RTVSPost2010PropOp53
 70
     1
102
RTVSPost2010Prop54
  1
strokes_ogs.tif
102
RTVSPost2010PropOp54
 70
     1
102
RTVSPost2010Prop55
280
     0
102
RTVSPost2010PropOp55
 70
     1
102
RTVSPost2010Prop56
140
1.0
102
RTVSPost2010PropOp56
 70
     1
102
RTVSPost2010Prop57
140
1.0
102
RTVSPost2010PropOp57
 70
     1
102
RTVSPropertyOp0
 70
     1
102
RTVSPropertyOp1
 70
     1
102
RTVSPropertyOp2
 70
     1
102
RTVSPropertyOp3
 70
     1
102
RTVSPropertyOp4
 70
     1
102
RTVSPropertyOp5
 70
     1
102
RTVSPropertyOp6
 70
     1
102
RTVSPropertyOp7
 70
     1
102
RTVSPropertyOp8
 70
     1
102
RTVSPropertyOp9
 70
     1
102
RTVSPropertyOp10
 70
     1
102
RTVSPropertyOp11
 70
     1
102
RTVSPropertyOp12
 70
     1
102
RTVSPropertyOp13
 70
     1
102
RTVSPropertyOp14
 70
     1
102
RTVSPropertyOp15
 70
     1
102
RTVSPropertyOp16
 70
     1
102
RTVSPropertyOp17
 70
     1
102
RTVSPropertyOp18
 70
     1
102
RTVSPropertyOp19
 70
     1
102
RTVSPropertyOp20
 70
     1
102
RTVSPropertyOp21
 70
     1
102
RTVSPropertyOp22
 70
     1
102
RTVSPropertyOp23
 70
     1
102
RTVSPropertyOp24
 70
     1
102
RTVSPropertyOp25
 70
     1
102
RTVSPropertyOp26
 70
     1
102
RTVSPropertyOp27
 70
     1
102
RTVSPropertyOp28
 70
     1
102
RTVSPropertyOp29
 70
     1
102
RTVSPropertyOp30
 70
     1
102
RTVSPropertyOp31
 70
     1
102
RTVSPropertyOp32
 70
     1
102
RTVSPropertyOp33
 70
     1
102
RTVSPropertyOp34
 70
     1
102
RTVSPropertyOp35
 70
     1
102
RTVSPropertyOp36
 70
     1
102
RTVSPropertyOp37
 70
     1
102
RTVSPropertyOp38
 70
     1
102
RTVSPropertyOp39
 70
     1
102
RTVSPropertyOp40
 70
     1
102
RTVSPropertyOp41
 70
     1
102
RTVSPropertyOp42
 70
     1
102
RTVSPropertyOp43
 70
     1
102
RTVSPropertyOp44
 70
     1
102
RTVSPropertyOp45
 70
     1
102
RTVSPropertyOp46
 70
     1
102
RTVSPropertyOp47
 70
     1
102
RTVSPropertyOp48
 70
     1
102
RTVSPropertyOp49
 70
     1
102
RTVSPropertyOp50
 70
     1
102
RTVSPropertyOp51
 70
     0
102
RTVSPropertyOp52
 70
     0
102
RTVSPropertyOp53
 70
     1
102
RTVSPropertyOp54
 70
     1
102
RTVSPropertyOp55
 70
     1
102
RTVSPropertyOp56
 70
     1
102
RTVSPropertyOp57
 70
     1
102
RTVSPropertyOp58
 70
     1
102
RTVSPropertyOp59
 70
     1
102
RTVSPropertyOp60
 70
     1
102
RTVSPropertyOp61
 70
     1
102
RTVSPropertyOp62
 70
     1
  0
XRECORD
  5
94D85
102
{ACAD_REACTORS
330
94D84
102
}
330
94D84
100
AcDbXrecord
280
     1
102
RTVSPost2010Prop28
280
     0
102
RTVSPost2010PropOp28
 70
     1
102
RTVSPost2010Prop29
280
     1
102
RTVSPost2010PropOp29
 70
     1
102
RTVSPost2010Prop30
280
     1
102
RTVSPost2010PropOp30
 70
     1
102
RTVSPost2010Prop31
280
     0
102
RTVSPost2010PropOp31
 70
     1
102
RTVSPost2010Prop32
280
     0
102
RTVSPost2010PropOp32
 70
     1
102
RTVSPost2010Prop33
280
     0
102
RTVSPost2010PropOp33
 70
     1
102
RTVSPost2010Prop34
280
     0
102
RTVSPost2010PropOp34
 70
     1
102
RTVSPost2010Prop35
280
     0
102
RTVSPost2010PropOp35
 70
     1
102
RTVSPost2010Prop36
280
     0
102
RTVSPost2010PropOp36
 70
     1
102
RTVSPost2010Prop37
 90
       50
102
RTVSPost2010PropOp37
 70
     1
102
RTVSPost2010Prop38
140
0.0
102
RTVSPost2010PropOp38
 70
     1
102
RTVSPost2010Prop39
140
1.0
102
RTVSPost2010PropOp39
 70
     1
102
RTVSPost2010Prop40
 90
        0
102
RTVSPost2010PropOp40
 70
     1
102
RTVSPost2010Prop41ColorIndex
 90
       18
102
RTVSPost2010Prop41ColorRGB
 90
-16777216
102
RTVSPost2010PropOp41
 70
     1
102
RTVSPost2010Prop42
 90
       50
102
RTVSPost2010PropOp42
 70
     1
102
RTVSPost2010Prop43
 90
        3
102
RTVSPost2010PropOp43
 70
     1
102
RTVSPost2010Prop44ColorIndex
 90
        5
102
RTVSPost2010Prop44ColorRGB
 90
      255
102
RTVSPost2010PropOp44
 70
     1
102
RTVSPost2010Prop45
280
     0
102
RTVSPost2010PropOp45
 70
     1
102
RTVSPost2010Prop46
 90
       50
102
RTVSPost2010PropOp46
 70
     1
102
RTVSPost2010Prop47
 90
       50
102
RTVSPost2010PropOp47
 70
     1
102
RTVSPost2010Prop48
 90
       50
102
RTVSPost2010PropOp48
 70
     1
102
RTVSPost2010Prop49
280
     0
102
RTVSPost2010PropOp49
 70
     1
102
RTVSPost2010Prop50
 90
       50
102
RTVSPost2010PropOp50
 70
     1
102
RTVSPost2010Prop51ColorIndex
 90
      256
102
RTVSPost2010Prop51ColorRGB
 90
-16777216
102
RTVSPost2010PropOp51
 70
     0
102
RTVSPost2010Prop52
140
1.0
102
RTVSPost2010PropOp52
 70
     0
102
RTVSPost2010Prop53
 90
        2
102
RTVSPost2010PropOp53
 70
     1
102
RTVSPost2010Prop54
  1
strokes_ogs.tif
102
RTVSPost2010PropOp54
 70
     1
102
RTVSPost2010Prop55
280
     0
102
RTVSPost2010PropOp55
 70
     1
102
RTVSPost2010Prop56
140
1.0
102
RTVSPost2010PropOp56
 70
     1
102
RTVSPost2010Prop57
140
1.0
102
RTVSPost2010PropOp57
 70
     1
102
RTVSPropertyOp0
 70
     1
102
RTVSPropertyOp1
 70
     1
102
RTVSPropertyOp2
 70
     1
102
RTVSPropertyOp3
 70
     1
102
RTVSPropertyOp4
 70
     1
102
RTVSPropertyOp5
 70
     1
102
RTVSPropertyOp6
 70
     1
102
RTVSPropertyOp7
 70
     1
102
RTVSPropertyOp8
 70
     1
102
RTVSPropertyOp9
 70
     1
102
RTVSPropertyOp10
 70
     1
102
RTVSPropertyOp11
 70
     1
102
RTVSPropertyOp12
 70
     1
102
RTVSPropertyOp13
 70
     1
102
RTVSPropertyOp14
 70
     1
102
RTVSPropertyOp15
 70
     1
102
RTVSPropertyOp16
 70
     1
102
RTVSPropertyOp17
 70
     1
102
RTVSPropertyOp18
 70
     1
102
RTVSPropertyOp19
 70
     1
102
RTVSPropertyOp20
 70
     1
102
RTVSPropertyOp21
 70
     1
102
RTVSPropertyOp22
 70
     1
102
RTVSPropertyOp23
 70
     1
102
RTVSPropertyOp24
 70
     1
102
RTVSPropertyOp25
 70
     1
102
RTVSPropertyOp26
 70
     1
102
RTVSPropertyOp27
 70
     1
102
RTVSPropertyOp28
 70
     1
102
RTVSPropertyOp29
 70
     1
102
RTVSPropertyOp30
 70
     1
102
RTVSPropertyOp31
 70
     1
102
RTVSPropertyOp32
 70
     1
102
RTVSPropertyOp33
 70
     1
102
RTVSPropertyOp34
 70
     1
102
RTVSPropertyOp35
 70
     1
102
RTVSPropertyOp36
 70
     1
102
RTVSPropertyOp37
 70
     1
102
RTVSPropertyOp38
 70
     1
102
RTVSPropertyOp39
 70
     1
102
RTVSPropertyOp40
 70
     1
102
RTVSPropertyOp41
 70
     1
102
RTVSPropertyOp42
 70
     1
102
RTVSPropertyOp43
 70
     1
102
RTVSPropertyOp44
 70
     1
102
RTVSPropertyOp45
 70
     1
102
RTVSPropertyOp46
 70
     1
102
RTVSPropertyOp47
 70
     1
102
RTVSPropertyOp48
 70
     1
102
RTVSPropertyOp49
 70
     1
102
RTVSPropertyOp50
 70
     1
102
RTVSPropertyOp51
 70
     0
102
RTVSPropertyOp52
 70
     0
102
RTVSPropertyOp53
 70
     1
102
RTVSPropertyOp54
 70
     1
102
RTVSPropertyOp55
 70
     1
102
RTVSPropertyOp56
 70
     1
102
RTVSPropertyOp57
 70
     1
102
RTVSPropertyOp58
 70
     1
102
RTVSPropertyOp59
 70
     1
102
RTVSPropertyOp60
 70
     1
102
RTVSPropertyOp61
 70
     1
102
RTVSPropertyOp62
 70
     1
  0
XRECORD
  5
94D87
102
{ACAD_REACTORS
330
94D86
102
}
330
94D86
100
AcDbXrecord
280
     1
102
RTVSPost2010Prop28
280
     0
102
RTVSPost2010PropOp28
 70
     1
102
RTVSPost2010Prop29
280
     1
102
RTVSPost2010PropOp29
 70
     1
102
RTVSPost2010Prop30
280
     1
102
RTVSPost2010PropOp30
 70
     1
102
RTVSPost2010Prop31
280
     0
102
RTVSPost2010PropOp31
 70
     1
102
RTVSPost2010Prop32
280
     0
102
RTVSPost2010PropOp32
 70
     1
102
RTVSPost2010Prop33
280
     0
102
RTVSPost2010PropOp33
 70
     1
102
RTVSPost2010Prop34
280
     0
102
RTVSPost2010PropOp34
 70
     1
102
RTVSPost2010Prop35
280
     0
102
RTVSPost2010PropOp35
 70
     1
102
RTVSPost2010Prop36
280
     0
102
RTVSPost2010PropOp36
 70
     1
102
RTVSPost2010Prop37
 90
       50
102
RTVSPost2010PropOp37
 70
     1
102
RTVSPost2010Prop38
140
0.0
102
RTVSPost2010PropOp38
 70
     1
102
RTVSPost2010Prop39
140
1.0
102
RTVSPost2010PropOp39
 70
     1
102
RTVSPost2010Prop40
 90
        0
102
RTVSPost2010PropOp40
 70
     1
102
RTVSPost2010Prop41ColorIndex
 90
       18
102
RTVSPost2010Prop41ColorRGB
 90
-16777216
102
RTVSPost2010PropOp41
 70
     1
102
RTVSPost2010Prop42
 90
       50
102
RTVSPost2010PropOp42
 70
     1
102
RTVSPost2010Prop43
 90
        3
102
RTVSPost2010PropOp43
 70
     1
102
RTVSPost2010Prop44ColorIndex
 90
        5
102
RTVSPost2010Prop44ColorRGB
 90
      255
102
RTVSPost2010PropOp44
 70
     1
102
RTVSPost2010Prop45
280
     0
102
RTVSPost2010PropOp45
 70
     1
102
RTVSPost2010Prop46
 90
       50
102
RTVSPost2010PropOp46
 70
     1
102
RTVSPost2010Prop47
 90
       50
102
RTVSPost2010PropOp47
 70
     1
102
RTVSPost2010Prop48
 90
       50
102
RTVSPost2010PropOp48
 70
     1
102
RTVSPost2010Prop49
280
     0
102
RTVSPost2010PropOp49
 70
     1
102
RTVSPost2010Prop50
 90
       50
102
RTVSPost2010PropOp50
 70
     1
102
RTVSPost2010Prop51ColorIndex
 90
      256
102
RTVSPost2010Prop51ColorRGB
 90
-16777216
102
RTVSPost2010PropOp51
 70
     0
102
RTVSPost2010Prop52
140
1.0
102
RTVSPost2010PropOp52
 70
     0
102
RTVSPost2010Prop53
 90
        2
102
RTVSPost2010PropOp53
 70
     1
102
RTVSPost2010Prop54
  1
strokes_ogs.tif
102
RTVSPost2010PropOp54
 70
     1
102
RTVSPost2010Prop55
280
     0
102
RTVSPost2010PropOp55
 70
     1
102
RTVSPost2010Prop56
140
1.0
102
RTVSPost2010PropOp56
 70
     1
102
RTVSPost2010Prop57
140
1.0
102
RTVSPost2010PropOp57
 70
     1
102
RTVSPropertyOp0
 70
     1
102
RTVSPropertyOp1
 70
     1
102
RTVSPropertyOp2
 70
     1
102
RTVSPropertyOp3
 70
     1
102
RTVSPropertyOp4
 70
     1
102
RTVSPropertyOp5
 70
     1
102
RTVSPropertyOp6
 70
     1
102
RTVSPropertyOp7
 70
     1
102
RTVSPropertyOp8
 70
     1
102
RTVSPropertyOp9
 70
     1
102
RTVSPropertyOp10
 70
     1
102
RTVSPropertyOp11
 70
     1
102
RTVSPropertyOp12
 70
     1
102
RTVSPropertyOp13
 70
     1
102
RTVSPropertyOp14
 70
     1
102
RTVSPropertyOp15
 70
     1
102
RTVSPropertyOp16
 70
     1
102
RTVSPropertyOp17
 70
     1
102
RTVSPropertyOp18
 70
     1
102
RTVSPropertyOp19
 70
     1
102
RTVSPropertyOp20
 70
     1
102
RTVSPropertyOp21
 70
     1
102
RTVSPropertyOp22
 70
     1
102
RTVSPropertyOp23
 70
     1
102
RTVSPropertyOp24
 70
     1
102
RTVSPropertyOp25
 70
     1
102
RTVSPropertyOp26
 70
     1
102
RTVSPropertyOp27
 70
     1
102
RTVSPropertyOp28
 70
     1
102
RTVSPropertyOp29
 70
     1
102
RTVSPropertyOp30
 70
     1
102
RTVSPropertyOp31
 70
     1
102
RTVSPropertyOp32
 70
     1
102
RTVSPropertyOp33
 70
     1
102
RTVSPropertyOp34
 70
     1
102
RTVSPropertyOp35
 70
     1
102
RTVSPropertyOp36
 70
     1
102
RTVSPropertyOp37
 70
     1
102
RTVSPropertyOp38
 70
     1
102
RTVSPropertyOp39
 70
     1
102
RTVSPropertyOp40
 70
     1
102
RTVSPropertyOp41
 70
     1
102
RTVSPropertyOp42
 70
     1
102
RTVSPropertyOp43
 70
     1
102
RTVSPropertyOp44
 70
     1
102
RTVSPropertyOp45
 70
     1
102
RTVSPropertyOp46
 70
     1
102
RTVSPropertyOp47
 70
     1
102
RTVSPropertyOp48
 70
     1
102
RTVSPropertyOp49
 70
     1
102
RTVSPropertyOp50
 70
     1
102
RTVSPropertyOp51
 70
     0
102
RTVSPropertyOp52
 70
     0
102
RTVSPropertyOp53
 70
     1
102
RTVSPropertyOp54
 70
     1
102
RTVSPropertyOp55
 70
     1
102
RTVSPropertyOp56
 70
     1
102
RTVSPropertyOp57
 70
     1
102
RTVSPropertyOp58
 70
     1
102
RTVSPropertyOp59
 70
     1
102
RTVSPropertyOp60
 70
     1
102
RTVSPropertyOp61
 70
     1
102
RTVSPropertyOp62
 70
     1
  0
XRECORD
  5
94D89
102
{ACAD_REACTORS
330
94D88
102
}
330
94D88
100
AcDbXrecord
280
     1
102
RTVSPost2010Prop28
280
     0
102
RTVSPost2010PropOp28
 70
     1
102
RTVSPost2010Prop29
280
     1
102
RTVSPost2010PropOp29
 70
     1
102
RTVSPost2010Prop30
280
     1
102
RTVSPost2010PropOp30
 70
     1
102
RTVSPost2010Prop31
280
     0
102
RTVSPost2010PropOp31
 70
     1
102
RTVSPost2010Prop32
280
     0
102
RTVSPost2010PropOp32
 70
     1
102
RTVSPost2010Prop33
280
     0
102
RTVSPost2010PropOp33
 70
     1
102
RTVSPost2010Prop34
280
     0
102
RTVSPost2010PropOp34
 70
     1
102
RTVSPost2010Prop35
280
     0
102
RTVSPost2010PropOp35
 70
     1
102
RTVSPost2010Prop36
280
     0
102
RTVSPost2010PropOp36
 70
     1
102
RTVSPost2010Prop37
 90
       50
102
RTVSPost2010PropOp37
 70
     1
102
RTVSPost2010Prop38
140
0.0
102
RTVSPost2010PropOp38
 70
     1
102
RTVSPost2010Prop39
140
1.0
102
RTVSPost2010PropOp39
 70
     1
102
RTVSPost2010Prop40
 90
        0
102
RTVSPost2010PropOp40
 70
     1
102
RTVSPost2010Prop41ColorIndex
 90
       18
102
RTVSPost2010Prop41ColorRGB
 90
-16777216
102
RTVSPost2010PropOp41
 70
     1
102
RTVSPost2010Prop42
 90
       50
102
RTVSPost2010PropOp42
 70
     1
102
RTVSPost2010Prop43
 90
        3
102
RTVSPost2010PropOp43
 70
     1
102
RTVSPost2010Prop44ColorIndex
 90
        5
102
RTVSPost2010Prop44ColorRGB
 90
      255
102
RTVSPost2010PropOp44
 70
     1
102
RTVSPost2010Prop45
280
     0
102
RTVSPost2010PropOp45
 70
     1
102
RTVSPost2010Prop46
 90
       50
102
RTVSPost2010PropOp46
 70
     1
102
RTVSPost2010Prop47
 90
       50
102
RTVSPost2010PropOp47
 70
     1
102
RTVSPost2010Prop48
 90
       50
102
RTVSPost2010PropOp48
 70
     1
102
RTVSPost2010Prop49
280
     0
102
RTVSPost2010PropOp49
 70
     1
102
RTVSPost2010Prop50
 90
       50
102
RTVSPost2010PropOp50
 70
     1
102
RTVSPost2010Prop51ColorIndex
 90
      256
102
RTVSPost2010Prop51ColorRGB
 90
-16777216
102
RTVSPost2010PropOp51
 70
     0
102
RTVSPost2010Prop52
140
1.0
102
RTVSPost2010PropOp52
 70
     0
102
RTVSPost2010Prop53
 90
        2
102
RTVSPost2010PropOp53
 70
     1
102
RTVSPost2010Prop54
  1
strokes_ogs.tif
102
RTVSPost2010PropOp54
 70
     1
102
RTVSPost2010Prop55
280
     0
102
RTVSPost2010PropOp55
 70
     1
102
RTVSPost2010Prop56
140
1.0
102
RTVSPost2010PropOp56
 70
     1
102
RTVSPost2010Prop57
140
1.0
102
RTVSPost2010PropOp57
 70
     1
102
RTVSPropertyOp0
 70
     1
102
RTVSPropertyOp1
 70
     1
102
RTVSPropertyOp2
 70
     1
102
RTVSPropertyOp3
 70
     1
102
RTVSPropertyOp4
 70
     1
102
RTVSPropertyOp5
 70
     1
102
RTVSPropertyOp6
 70
     1
102
RTVSPropertyOp7
 70
     1
102
RTVSPropertyOp8
 70
     1
102
RTVSPropertyOp9
 70
     1
102
RTVSPropertyOp10
 70
     1
102
RTVSPropertyOp11
 70
     1
102
RTVSPropertyOp12
 70
     1
102
RTVSPropertyOp13
 70
     1
102
RTVSPropertyOp14
 70
     1
102
RTVSPropertyOp15
 70
     1
102
RTVSPropertyOp16
 70
     1
102
RTVSPropertyOp17
 70
     1
102
RTVSPropertyOp18
 70
     1
102
RTVSPropertyOp19
 70
     1
102
RTVSPropertyOp20
 70
     1
102
RTVSPropertyOp21
 70
     1
102
RTVSPropertyOp22
 70
     1
102
RTVSPropertyOp23
 70
     1
102
RTVSPropertyOp24
 70
     1
102
RTVSPropertyOp25
 70
     1
102
RTVSPropertyOp26
 70
     1
102
RTVSPropertyOp27
 70
     1
102
RTVSPropertyOp28
 70
     1
102
RTVSPropertyOp29
 70
     1
102
RTVSPropertyOp30
 70
     1
102
RTVSPropertyOp31
 70
     1
102
RTVSPropertyOp32
 70
     1
102
RTVSPropertyOp33
 70
     1
102
RTVSPropertyOp34
 70
     1
102
RTVSPropertyOp35
 70
     1
102
RTVSPropertyOp36
 70
     1
102
RTVSPropertyOp37
 70
     1
102
RTVSPropertyOp38
 70
     1
102
RTVSPropertyOp39
 70
     1
102
RTVSPropertyOp40
 70
     1
102
RTVSPropertyOp41
 70
     1
102
RTVSPropertyOp42
 70
     1
102
RTVSPropertyOp43
 70
     1
102
RTVSPropertyOp44
 70
     1
102
RTVSPropertyOp45
 70
     1
102
RTVSPropertyOp46
 70
     1
102
RTVSPropertyOp47
 70
     1
102
RTVSPropertyOp48
 70
     1
102
RTVSPropertyOp49
 70
     1
102
RTVSPropertyOp50
 70
     1
102
RTVSPropertyOp51
 70
     0
102
RTVSPropertyOp52
 70
     0
102
RTVSPropertyOp53
 70
     1
102
RTVSPropertyOp54
 70
     1
102
RTVSPropertyOp55
 70
     1
102
RTVSPropertyOp56
 70
     1
102
RTVSPropertyOp57
 70
     1
102
RTVSPropertyOp58
 70
     1
102
RTVSPropertyOp59
 70
     1
102
RTVSPropertyOp60
 70
     1
102
RTVSPropertyOp61
 70
     1
102
RTVSPropertyOp62
 70
     1
  0
XRECORD
  5
94D91
102
{ACAD_REACTORS
330
94D90
102
}
330
94D90
100
AcDbXrecord
280
     1
102
RTVSPost2010Prop28
280
     0
102
RTVSPost2010PropOp28
 70
     1
102
RTVSPost2010Prop29
280
     1
102
RTVSPost2010PropOp29
 70
     1
102
RTVSPost2010Prop30
280
     1
102
RTVSPost2010PropOp30
 70
     1
102
RTVSPost2010Prop31
280
     0
102
RTVSPost2010PropOp31
 70
     1
102
RTVSPost2010Prop32
280
     0
102
RTVSPost2010PropOp32
 70
     1
102
RTVSPost2010Prop33
280
     0
102
RTVSPost2010PropOp33
 70
     1
102
RTVSPost2010Prop34
280
     0
102
RTVSPost2010PropOp34
 70
     1
102
RTVSPost2010Prop35
280
     0
102
RTVSPost2010PropOp35
 70
     1
102
RTVSPost2010Prop36
280
     0
102
RTVSPost2010PropOp36
 70
     1
102
RTVSPost2010Prop37
 90
       50
102
RTVSPost2010PropOp37
 70
     1
102
RTVSPost2010Prop38
140
0.0
102
RTVSPost2010PropOp38
 70
     1
102
RTVSPost2010Prop39
140
1.0
102
RTVSPost2010PropOp39
 70
     1
102
RTVSPost2010Prop40
 90
        0
102
RTVSPost2010PropOp40
 70
     1
102
RTVSPost2010Prop41ColorIndex
 90
       18
102
RTVSPost2010Prop41ColorRGB
 90
-16777216
102
RTVSPost2010PropOp41
 70
     1
102
RTVSPost2010Prop42
 90
       50
102
RTVSPost2010PropOp42
 70
     1
102
RTVSPost2010Prop43
 90
        3
102
RTVSPost2010PropOp43
 70
     1
102
RTVSPost2010Prop44ColorIndex
 90
        5
102
RTVSPost2010Prop44ColorRGB
 90
      255
102
RTVSPost2010PropOp44
 70
     1
102
RTVSPost2010Prop45
280
     0
102
RTVSPost2010PropOp45
 70
     1
102
RTVSPost2010Prop46
 90
       50
102
RTVSPost2010PropOp46
 70
     1
102
RTVSPost2010Prop47
 90
       50
102
RTVSPost2010PropOp47
 70
     1
102
RTVSPost2010Prop48
 90
       50
102
RTVSPost2010PropOp48
 70
     1
102
RTVSPost2010Prop49
280
     0
102
RTVSPost2010PropOp49
 70
     1
102
RTVSPost2010Prop50
 90
       50
102
RTVSPost2010PropOp50
 70
     1
102
RTVSPost2010Prop51ColorIndex
 90
      256
102
RTVSPost2010Prop51ColorRGB
 90
-16777216
102
RTVSPost2010PropOp51
 70
     0
102
RTVSPost2010Prop52
140
1.0
102
RTVSPost2010PropOp52
 70
     0
102
RTVSPost2010Prop53
 90
        2
102
RTVSPost2010PropOp53
 70
     1
102
RTVSPost2010Prop54
  1
strokes_ogs.tif
102
RTVSPost2010PropOp54
 70
     1
102
RTVSPost2010Prop55
280
     0
102
RTVSPost2010PropOp55
 70
     1
102
RTVSPost2010Prop56
140
1.0
102
RTVSPost2010PropOp56
 70
     1
102
RTVSPost2010Prop57
140
1.0
102
RTVSPost2010PropOp57
 70
     1
102
RTVSPropertyOp0
 70
     1
102
RTVSPropertyOp1
 70
     1
102
RTVSPropertyOp2
 70
     1
102
RTVSPropertyOp3
 70
     1
102
RTVSPropertyOp4
 70
     1
102
RTVSPropertyOp5
 70
     1
102
RTVSPropertyOp6
 70
     1
102
RTVSPropertyOp7
 70
     1
102
RTVSPropertyOp8
 70
     1
102
RTVSPropertyOp9
 70
     1
102
RTVSPropertyOp10
 70
     1
102
RTVSPropertyOp11
 70
     1
102
RTVSPropertyOp12
 70
     1
102
RTVSPropertyOp13
 70
     1
102
RTVSPropertyOp14
 70
     1
102
RTVSPropertyOp15
 70
     1
102
RTVSPropertyOp16
 70
     1
102
RTVSPropertyOp17
 70
     1
102
RTVSPropertyOp18
 70
     1
102
RTVSPropertyOp19
 70
     1
102
RTVSPropertyOp20
 70
     1
102
RTVSPropertyOp21
 70
     1
102
RTVSPropertyOp22
 70
     1
102
RTVSPropertyOp23
 70
     1
102
RTVSPropertyOp24
 70
     1
102
RTVSPropertyOp25
 70
     1
102
RTVSPropertyOp26
 70
     1
102
RTVSPropertyOp27
 70
     1
102
RTVSPropertyOp28
 70
     1
102
RTVSPropertyOp29
 70
     1
102
RTVSPropertyOp30
 70
     1
102
RTVSPropertyOp31
 70
     1
102
RTVSPropertyOp32
 70
     1
102
RTVSPropertyOp33
 70
     1
102
RTVSPropertyOp34
 70
     1
102
RTVSPropertyOp35
 70
     1
102
RTVSPropertyOp36
 70
     1
102
RTVSPropertyOp37
 70
     1
102
RTVSPropertyOp38
 70
     1
102
RTVSPropertyOp39
 70
     1
102
RTVSPropertyOp40
 70
     1
102
RTVSPropertyOp41
 70
     1
102
RTVSPropertyOp42
 70
     1
102
RTVSPropertyOp43
 70
     1
102
RTVSPropertyOp44
 70
     1
102
RTVSPropertyOp45
 70
     1
102
RTVSPropertyOp46
 70
     1
102
RTVSPropertyOp47
 70
     1
102
RTVSPropertyOp48
 70
     1
102
RTVSPropertyOp49
 70
     1
102
RTVSPropertyOp50
 70
     1
102
RTVSPropertyOp51
 70
     0
102
RTVSPropertyOp52
 70
     0
102
RTVSPropertyOp53
 70
     1
102
RTVSPropertyOp54
 70
     1
102
RTVSPropertyOp55
 70
     1
102
RTVSPropertyOp56
 70
     1
102
RTVSPropertyOp57
 70
     1
102
RTVSPropertyOp58
 70
     1
102
RTVSPropertyOp59
 70
     1
102
RTVSPropertyOp60
 70
     1
102
RTVSPropertyOp61
 70
     1
102
RTVSPropertyOp62
 70
     1
  0
XRECORD
  5
94DAD
102
{ACAD_REACTORS
330
94DAC
102
}
330
94DAC
100
AcDbXrecord
280
     1
102
RTVSPost2010Prop28
280
     0
102
RTVSPost2010PropOp28
 70
     1
102
RTVSPost2010Prop29
280
     1
102
RTVSPost2010PropOp29
 70
     1
102
RTVSPost2010Prop30
280
     1
102
RTVSPost2010PropOp30
 70
     1
102
RTVSPost2010Prop31
280
     0
102
RTVSPost2010PropOp31
 70
     1
102
RTVSPost2010Prop32
280
     0
102
RTVSPost2010PropOp32
 70
     1
102
RTVSPost2010Prop33
280
     0
102
RTVSPost2010PropOp33
 70
     1
102
RTVSPost2010Prop34
280
     0
102
RTVSPost2010PropOp34
 70
     1
102
RTVSPost2010Prop35
280
     0
102
RTVSPost2010PropOp35
 70
     1
102
RTVSPost2010Prop36
280
     0
102
RTVSPost2010PropOp36
 70
     1
102
RTVSPost2010Prop37
 90
       50
102
RTVSPost2010PropOp37
 70
     0
102
RTVSPost2010Prop38
140
0.0
102
RTVSPost2010PropOp38
 70
     0
102
RTVSPost2010Prop39
140
1.0
102
RTVSPost2010PropOp39
 70
     0
102
RTVSPost2010Prop40
 90
        0
102
RTVSPost2010PropOp40
 70
     0
102
RTVSPost2010Prop41ColorIndex
 90
       18
102
RTVSPost2010Prop41ColorRGB
 90
-16777216
102
RTVSPost2010PropOp41
 70
     0
102
RTVSPost2010Prop42
 90
       50
102
RTVSPost2010PropOp42
 70
     0
102
RTVSPost2010Prop43
 90
        3
102
RTVSPost2010PropOp43
 70
     0
102
RTVSPost2010Prop44ColorIndex
 90
        5
102
RTVSPost2010Prop44ColorRGB
 90
      255
102
RTVSPost2010PropOp44
 70
     0
102
RTVSPost2010Prop45
280
     0
102
RTVSPost2010PropOp45
 70
     1
102
RTVSPost2010Prop46
 90
       50
102
RTVSPost2010PropOp46
 70
     0
102
RTVSPost2010Prop47
 90
       50
102
RTVSPost2010PropOp47
 70
     0
102
RTVSPost2010Prop48
 90
       50
102
RTVSPost2010PropOp48
 70
     0
102
RTVSPost2010Prop49
280
     0
102
RTVSPost2010PropOp49
 70
     1
102
RTVSPost2010Prop50
 90
       50
102
RTVSPost2010PropOp50
 70
     0
102
RTVSPost2010Prop51ColorIndex
 90
      256
102
RTVSPost2010Prop51ColorRGB
 90
-16777216
102
RTVSPost2010PropOp51
 70
     0
102
RTVSPost2010Prop52
140
1.0
102
RTVSPost2010PropOp52
 70
     0
102
RTVSPost2010Prop53
 90
        2
102
RTVSPost2010PropOp53
 70
     0
102
RTVSPost2010Prop54
  1
strokes_ogs.tif
102
RTVSPost2010PropOp54
 70
     0
102
RTVSPost2010Prop55
280
     0
102
RTVSPost2010PropOp55
 70
     1
102
RTVSPost2010Prop56
140
1.0
102
RTVSPost2010PropOp56
 70
     0
102
RTVSPost2010Prop57
140
1.0
102
RTVSPost2010PropOp57
 70
     0
102
RTVSPropertyOp0
 70
     0
102
RTVSPropertyOp1
 70
     0
102
RTVSPropertyOp2
 70
     0
102
RTVSPropertyOp3
 70
     0
102
RTVSPropertyOp4
 70
     0
102
RTVSPropertyOp5
 70
     0
102
RTVSPropertyOp6
 70
     0
102
RTVSPropertyOp7
 70
     0
102
RTVSPropertyOp8
 70
     0
102
RTVSPropertyOp9
 70
     0
102
RTVSPropertyOp10
 70
     0
102
RTVSPropertyOp11
 70
     0
102
RTVSPropertyOp12
 70
     0
102
RTVSPropertyOp13
 70
     0
102
RTVSPropertyOp14
 70
     2
102
RTVSPropertyOp15
 70
     0
102
RTVSPropertyOp16
 70
     0
102
RTVSPropertyOp17
 70
     0
102
RTVSPropertyOp18
 70
     0
102
RTVSPropertyOp19
 70
     0
102
RTVSPropertyOp20
 70
     0
102
RTVSPropertyOp21
 70
     0
102
RTVSPropertyOp22
 70
     0
102
RTVSPropertyOp23
 70
     0
102
RTVSPropertyOp24
 70
     0
102
RTVSPropertyOp25
 70
     0
102
RTVSPropertyOp26
 70
     0
102
RTVSPropertyOp27
 70
     0
102
RTVSPropertyOp28
 70
     1
102
RTVSPropertyOp29
 70
     1
102
RTVSPropertyOp30
 70
     1
102
RTVSPropertyOp31
 70
     1
102
RTVSPropertyOp32
 70
     1
102
RTVSPropertyOp33
 70
     1
102
RTVSPropertyOp34
 70
     1
102
RTVSPropertyOp35
 70
     1
102
RTVSPropertyOp36
 70
     1
102
RTVSPropertyOp37
 70
     0
102
RTVSPropertyOp38
 70
     0
102
RTVSPropertyOp39
 70
     0
102
RTVSPropertyOp40
 70
     0
102
RTVSPropertyOp41
 70
     0
102
RTVSPropertyOp42
 70
     0
102
RTVSPropertyOp43
 70
     0
102
RTVSPropertyOp44
 70
     0
102
RTVSPropertyOp45
 70
     1
102
RTVSPropertyOp46
 70
     0
102
RTVSPropertyOp47
 70
     0
102
RTVSPropertyOp48
 70
     0
102
RTVSPropertyOp49
 70
     1
102
RTVSPropertyOp50
 70
     0
102
RTVSPropertyOp51
 70
     0
102
RTVSPropertyOp52
 70
     0
102
RTVSPropertyOp53
 70
     0
102
RTVSPropertyOp54
 70
     0
102
RTVSPropertyOp55
 70
     1
102
RTVSPropertyOp56
 70
     0
102
RTVSPropertyOp57
 70
     0
102
RTVSPropertyOp58
 70
     1
102
RTVSPropertyOp59
 70
     1
102
RTVSPropertyOp60
 70
     1
102
RTVSPropertyOp61
 70
     1
102
RTVSPropertyOp62
 70
     1
  0
XRECORD
  5
94D9D
102
{ACAD_REACTORS
330
94D9C
102
}
330
94D9C
100
AcDbXrecord
280
     1
102
RTVSPost2010Prop28
280
     0
102
RTVSPost2010PropOp28
 70
     1
102
RTVSPost2010Prop29
280
     1
102
RTVSPost2010PropOp29
 70
     1
102
RTVSPost2010Prop30
280
     1
102
RTVSPost2010PropOp30
 70
     1
102
RTVSPost2010Prop31
280
     0
102
RTVSPost2010PropOp31
 70
     1
102
RTVSPost2010Prop32
280
     0
102
RTVSPost2010PropOp32
 70
     1
102
RTVSPost2010Prop33
280
     0
102
RTVSPost2010PropOp33
 70
     1
102
RTVSPost2010Prop34
280
     0
102
RTVSPost2010PropOp34
 70
     1
102
RTVSPost2010Prop35
280
     0
102
RTVSPost2010PropOp35
 70
     1
102
RTVSPost2010Prop36
280
     0
102
RTVSPost2010PropOp36
 70
     1
102
RTVSPost2010Prop37
 90
       50
102
RTVSPost2010PropOp37
 70
     1
102
RTVSPost2010Prop38
140
0.0
102
RTVSPost2010PropOp38
 70
     1
102
RTVSPost2010Prop39
140
1.0
102
RTVSPost2010PropOp39
 70
     1
102
RTVSPost2010Prop40
 90
        0
102
RTVSPost2010PropOp40
 70
     1
102
RTVSPost2010Prop41ColorIndex
 90
       18
102
RTVSPost2010Prop41ColorRGB
 90
-16777216
102
RTVSPost2010PropOp41
 70
     1
102
RTVSPost2010Prop42
 90
       50
102
RTVSPost2010PropOp42
 70
     1
102
RTVSPost2010Prop43
 90
        3
102
RTVSPost2010PropOp43
 70
     1
102
RTVSPost2010Prop44ColorIndex
 90
        5
102
RTVSPost2010Prop44ColorRGB
 90
      255
102
RTVSPost2010PropOp44
 70
     1
102
RTVSPost2010Prop45
280
     0
102
RTVSPost2010PropOp45
 70
     1
102
RTVSPost2010Prop46
 90
       50
102
RTVSPost2010PropOp46
 70
     1
102
RTVSPost2010Prop47
 90
       50
102
RTVSPost2010PropOp47
 70
     1
102
RTVSPost2010Prop48
 90
       50
102
RTVSPost2010PropOp48
 70
     1
102
RTVSPost2010Prop49
280
     0
102
RTVSPost2010PropOp49
 70
     1
102
RTVSPost2010Prop50
 90
       50
102
RTVSPost2010PropOp50
 70
     1
102
RTVSPost2010Prop51ColorIndex
 90
      256
102
RTVSPost2010Prop51ColorRGB
 90
-16777216
102
RTVSPost2010PropOp51
 70
     0
102
RTVSPost2010Prop52
140
1.0
102
RTVSPost2010PropOp52
 70
     0
102
RTVSPost2010Prop53
 90
        2
102
RTVSPost2010PropOp53
 70
     1
102
RTVSPost2010Prop54
  1
strokes_ogs.tif
102
RTVSPost2010PropOp54
 70
     1
102
RTVSPost2010Prop55
280
     0
102
RTVSPost2010PropOp55
 70
     1
102
RTVSPost2010Prop56
140
1.0
102
RTVSPost2010PropOp56
 70
     1
102
RTVSPost2010Prop57
140
1.0
102
RTVSPost2010PropOp57
 70
     1
102
RTVSPropertyOp0
 70
     1
102
RTVSPropertyOp1
 70
     1
102
RTVSPropertyOp2
 70
     1
102
RTVSPropertyOp3
 70
     1
102
RTVSPropertyOp4
 70
     1
102
RTVSPropertyOp5
 70
     1
102
RTVSPropertyOp6
 70
     1
102
RTVSPropertyOp7
 70
     1
102
RTVSPropertyOp8
 70
     1
102
RTVSPropertyOp9
 70
     1
102
RTVSPropertyOp10
 70
     1
102
RTVSPropertyOp11
 70
     1
102
RTVSPropertyOp12
 70
     1
102
RTVSPropertyOp13
 70
     1
102
RTVSPropertyOp14
 70
     1
102
RTVSPropertyOp15
 70
     1
102
RTVSPropertyOp16
 70
     1
102
RTVSPropertyOp17
 70
     1
102
RTVSPropertyOp18
 70
     1
102
RTVSPropertyOp19
 70
     1
102
RTVSPropertyOp20
 70
     1
102
RTVSPropertyOp21
 70
     1
102
RTVSPropertyOp22
 70
     1
102
RTVSPropertyOp23
 70
     1
102
RTVSPropertyOp24
 70
     1
102
RTVSPropertyOp25
 70
     1
102
RTVSPropertyOp26
 70
     1
102
RTVSPropertyOp27
 70
     1
102
RTVSPropertyOp28
 70
     1
102
RTVSPropertyOp29
 70
     1
102
RTVSPropertyOp30
 70
     1
102
RTVSPropertyOp31
 70
     1
102
RTVSPropertyOp32
 70
     1
102
RTVSPropertyOp33
 70
     1
102
RTVSPropertyOp34
 70
     1
102
RTVSPropertyOp35
 70
     1
102
RTVSPropertyOp36
 70
     1
102
RTVSPropertyOp37
 70
     1
102
RTVSPropertyOp38
 70
     1
102
RTVSPropertyOp39
 70
     1
102
RTVSPropertyOp40
 70
     1
102
RTVSPropertyOp41
 70
     1
102
RTVSPropertyOp42
 70
     1
102
RTVSPropertyOp43
 70
     1
102
RTVSPropertyOp44
 70
     1
102
RTVSPropertyOp45
 70
     1
102
RTVSPropertyOp46
 70
     1
102
RTVSPropertyOp47
 70
     1
102
RTVSPropertyOp48
 70
     1
102
RTVSPropertyOp49
 70
     1
102
RTVSPropertyOp50
 70
     1
102
RTVSPropertyOp51
 70
     0
102
RTVSPropertyOp52
 70
     0
102
RTVSPropertyOp53
 70
     1
102
RTVSPropertyOp54
 70
     1
102
RTVSPropertyOp55
 70
     1
102
RTVSPropertyOp56
 70
     1
102
RTVSPropertyOp57
 70
     1
102
RTVSPropertyOp58
 70
     1
102
RTVSPropertyOp59
 70
     1
102
RTVSPropertyOp60
 70
     1
102
RTVSPropertyOp61
 70
     1
102
RTVSPropertyOp62
 70
     1
  0
XRECORD
  5
94DAF
102
{ACAD_REACTORS
330
94DAE
102
}
330
94DAE
100
AcDbXrecord
280
     1
102
RTVSPost2010Prop28
280
     0
102
RTVSPost2010PropOp28
 70
     1
102
RTVSPost2010Prop29
280
     1
102
RTVSPost2010PropOp29
 70
     1
102
RTVSPost2010Prop30
280
     1
102
RTVSPost2010PropOp30
 70
     1
102
RTVSPost2010Prop31
280
     0
102
RTVSPost2010PropOp31
 70
     1
102
RTVSPost2010Prop32
280
     0
102
RTVSPost2010PropOp32
 70
     1
102
RTVSPost2010Prop33
280
     0
102
RTVSPost2010PropOp33
 70
     1
102
RTVSPost2010Prop34
280
     0
102
RTVSPost2010PropOp34
 70
     1
102
RTVSPost2010Prop35
280
     0
102
RTVSPost2010PropOp35
 70
     1
102
RTVSPost2010Prop36
280
     0
102
RTVSPost2010PropOp36
 70
     1
102
RTVSPost2010Prop37
 90
       50
102
RTVSPost2010PropOp37
 70
     0
102
RTVSPost2010Prop38
140
0.0
102
RTVSPost2010PropOp38
 70
     0
102
RTVSPost2010Prop39
140
1.0
102
RTVSPost2010PropOp39
 70
     0
102
RTVSPost2010Prop40
 90
        0
102
RTVSPost2010PropOp40
 70
     0
102
RTVSPost2010Prop41ColorIndex
 90
       18
102
RTVSPost2010Prop41ColorRGB
 90
-16777216
102
RTVSPost2010PropOp41
 70
     0
102
RTVSPost2010Prop42
 90
       50
102
RTVSPost2010PropOp42
 70
     0
102
RTVSPost2010Prop43
 90
        3
102
RTVSPost2010PropOp43
 70
     0
102
RTVSPost2010Prop44ColorIndex
 90
        5
102
RTVSPost2010Prop44ColorRGB
 90
      255
102
RTVSPost2010PropOp44
 70
     0
102
RTVSPost2010Prop45
280
     0
102
RTVSPost2010PropOp45
 70
     1
102
RTVSPost2010Prop46
 90
       50
102
RTVSPost2010PropOp46
 70
     0
102
RTVSPost2010Prop47
 90
       50
102
RTVSPost2010PropOp47
 70
     0
102
RTVSPost2010Prop48
 90
       50
102
RTVSPost2010PropOp48
 70
     0
102
RTVSPost2010Prop49
280
     0
102
RTVSPost2010PropOp49
 70
     1
102
RTVSPost2010Prop50
 90
       50
102
RTVSPost2010PropOp50
 70
     0
102
RTVSPost2010Prop51ColorIndex
 90
      256
102
RTVSPost2010Prop51ColorRGB
 90
-16777216
102
RTVSPost2010PropOp51
 70
     0
102
RTVSPost2010Prop52
140
1.0
102
RTVSPost2010PropOp52
 70
     0
102
RTVSPost2010Prop53
 90
        2
102
RTVSPost2010PropOp53
 70
     0
102
RTVSPost2010Prop54
  1
strokes_ogs.tif
102
RTVSPost2010PropOp54
 70
     0
102
RTVSPost2010Prop55
280
     0
102
RTVSPost2010PropOp55
 70
     1
102
RTVSPost2010Prop56
140
1.0
102
RTVSPost2010PropOp56
 70
     0
102
RTVSPost2010Prop57
140
1.0
102
RTVSPost2010PropOp57
 70
     0
102
RTVSPropertyOp0
 70
     0
102
RTVSPropertyOp1
 70
     0
102
RTVSPropertyOp2
 70
     0
102
RTVSPropertyOp3
 70
     0
102
RTVSPropertyOp4
 70
     0
102
RTVSPropertyOp5
 70
     0
102
RTVSPropertyOp6
 70
     0
102
RTVSPropertyOp7
 70
     0
102
RTVSPropertyOp8
 70
     0
102
RTVSPropertyOp9
 70
     0
102
RTVSPropertyOp10
 70
     0
102
RTVSPropertyOp11
 70
     0
102
RTVSPropertyOp12
 70
     0
102
RTVSPropertyOp13
 70
     0
102
RTVSPropertyOp14
 70
     2
102
RTVSPropertyOp15
 70
     0
102
RTVSPropertyOp16
 70
     0
102
RTVSPropertyOp17
 70
     0
102
RTVSPropertyOp18
 70
     0
102
RTVSPropertyOp19
 70
     0
102
RTVSPropertyOp20
 70
     0
102
RTVSPropertyOp21
 70
     0
102
RTVSPropertyOp22
 70
     0
102
RTVSPropertyOp23
 70
     0
102
RTVSPropertyOp24
 70
     0
102
RTVSPropertyOp25
 70
     0
102
RTVSPropertyOp26
 70
     0
102
RTVSPropertyOp27
 70
     0
102
RTVSPropertyOp28
 70
     1
102
RTVSPropertyOp29
 70
     1
102
RTVSPropertyOp30
 70
     1
102
RTVSPropertyOp31
 70
     1
102
RTVSPropertyOp32
 70
     1
102
RTVSPropertyOp33
 70
     1
102
RTVSPropertyOp34
 70
     1
102
RTVSPropertyOp35
 70
     1
102
RTVSPropertyOp36
 70
     1
102
RTVSPropertyOp37
 70
     0
102
RTVSPropertyOp38
 70
     0
102
RTVSPropertyOp39
 70
     0
102
RTVSPropertyOp40
 70
     0
102
RTVSPropertyOp41
 70
     0
102
RTVSPropertyOp42
 70
     0
102
RTVSPropertyOp43
 70
     0
102
RTVSPropertyOp44
 70
     0
102
RTVSPropertyOp45
 70
     1
102
RTVSPropertyOp46
 70
     0
102
RTVSPropertyOp47
 70
     0
102
RTVSPropertyOp48
 70
     0
102
RTVSPropertyOp49
 70
     1
102
RTVSPropertyOp50
 70
     0
102
RTVSPropertyOp51
 70
     0
102
RTVSPropertyOp52
 70
     0
102
RTVSPropertyOp53
 70
     0
102
RTVSPropertyOp54
 70
     0
102
RTVSPropertyOp55
 70
     1
102
RTVSPropertyOp56
 70
     0
102
RTVSPropertyOp57
 70
     0
102
RTVSPropertyOp58
 70
     1
102
RTVSPropertyOp59
 70
     1
102
RTVSPropertyOp60
 70
     1
102
RTVSPropertyOp61
 70
     1
102
RTVSPropertyOp62
 70
     1
  0
XRECORD
  5
94D95
102
{ACAD_REACTORS
330
94D94
102
}
330
94D94
100
AcDbXrecord
280
     1
102
RTVSPost2010Prop28
280
     0
102
RTVSPost2010PropOp28
 70
     1
102
RTVSPost2010Prop29
280
     1
102
RTVSPost2010PropOp29
 70
     1
102
RTVSPost2010Prop30
280
     1
102
RTVSPost2010PropOp30
 70
     1
102
RTVSPost2010Prop31
280
     0
102
RTVSPost2010PropOp31
 70
     1
102
RTVSPost2010Prop32
280
     0
102
RTVSPost2010PropOp32
 70
     1
102
RTVSPost2010Prop33
280
     0
102
RTVSPost2010PropOp33
 70
     1
102
RTVSPost2010Prop34
280
     0
102
RTVSPost2010PropOp34
 70
     1
102
RTVSPost2010Prop35
280
     0
102
RTVSPost2010PropOp35
 70
     1
102
RTVSPost2010Prop36
280
     0
102
RTVSPost2010PropOp36
 70
     1
102
RTVSPost2010Prop37
 90
       50
102
RTVSPost2010PropOp37
 70
     1
102
RTVSPost2010Prop38
140
0.0
102
RTVSPost2010PropOp38
 70
     1
102
RTVSPost2010Prop39
140
1.0
102
RTVSPost2010PropOp39
 70
     1
102
RTVSPost2010Prop40
 90
        0
102
RTVSPost2010PropOp40
 70
     1
102
RTVSPost2010Prop41ColorIndex
 90
       18
102
RTVSPost2010Prop41ColorRGB
 90
-16777216
102
RTVSPost2010PropOp41
 70
     1
102
RTVSPost2010Prop42
 90
       50
102
RTVSPost2010PropOp42
 70
     1
102
RTVSPost2010Prop43
 90
        3
102
RTVSPost2010PropOp43
 70
     1
102
RTVSPost2010Prop44ColorIndex
 90
        5
102
RTVSPost2010Prop44ColorRGB
 90
      255
102
RTVSPost2010PropOp44
 70
     1
102
RTVSPost2010Prop45
280
     0
102
RTVSPost2010PropOp45
 70
     1
102
RTVSPost2010Prop46
 90
       50
102
RTVSPost2010PropOp46
 70
     1
102
RTVSPost2010Prop47
 90
       50
102
RTVSPost2010PropOp47
 70
     1
102
RTVSPost2010Prop48
 90
       50
102
RTVSPost2010PropOp48
 70
     1
102
RTVSPost2010Prop49
280
     0
102
RTVSPost2010PropOp49
 70
     1
102
RTVSPost2010Prop50
 90
       50
102
RTVSPost2010PropOp50
 70
     1
102
RTVSPost2010Prop51ColorIndex
 90
      256
102
RTVSPost2010Prop51ColorRGB
 90
-16777216
102
RTVSPost2010PropOp51
 70
     0
102
RTVSPost2010Prop52
140
1.0
102
RTVSPost2010PropOp52
 70
     0
102
RTVSPost2010Prop53
 90
        2
102
RTVSPost2010PropOp53
 70
     1
102
RTVSPost2010Prop54
  1
strokes_ogs.tif
102
RTVSPost2010PropOp54
 70
     1
102
RTVSPost2010Prop55
280
     0
102
RTVSPost2010PropOp55
 70
     1
102
RTVSPost2010Prop56
140
1.0
102
RTVSPost2010PropOp56
 70
     1
102
RTVSPost2010Prop57
140
1.0
102
RTVSPost2010PropOp57
 70
     1
102
RTVSPropertyOp0
 70
     1
102
RTVSPropertyOp1
 70
     1
102
RTVSPropertyOp2
 70
     1
102
RTVSPropertyOp3
 70
     1
102
RTVSPropertyOp4
 70
     1
102
RTVSPropertyOp5
 70
     1
102
RTVSPropertyOp6
 70
     1
102
RTVSPropertyOp7
 70
     1
102
RTVSPropertyOp8
 70
     1
102
RTVSPropertyOp9
 70
     1
102
RTVSPropertyOp10
 70
     1
102
RTVSPropertyOp11
 70
     1
102
RTVSPropertyOp12
 70
     1
102
RTVSPropertyOp13
 70
     1
102
RTVSPropertyOp14
 70
     1
102
RTVSPropertyOp15
 70
     1
102
RTVSPropertyOp16
 70
     1
102
RTVSPropertyOp17
 70
     1
102
RTVSPropertyOp18
 70
     1
102
RTVSPropertyOp19
 70
     1
102
RTVSPropertyOp20
 70
     1
102
RTVSPropertyOp21
 70
     1
102
RTVSPropertyOp22
 70
     1
102
RTVSPropertyOp23
 70
     1
102
RTVSPropertyOp24
 70
     1
102
RTVSPropertyOp25
 70
     1
102
RTVSPropertyOp26
 70
     1
102
RTVSPropertyOp27
 70
     1
102
RTVSPropertyOp28
 70
     1
102
RTVSPropertyOp29
 70
     1
102
RTVSPropertyOp30
 70
     1
102
RTVSPropertyOp31
 70
     1
102
RTVSPropertyOp32
 70
     1
102
RTVSPropertyOp33
 70
     1
102
RTVSPropertyOp34
 70
     1
102
RTVSPropertyOp35
 70
     1
102
RTVSPropertyOp36
 70
     1
102
RTVSPropertyOp37
 70
     1
102
RTVSPropertyOp38
 70
     1
102
RTVSPropertyOp39
 70
     1
102
RTVSPropertyOp40
 70
     1
102
RTVSPropertyOp41
 70
     1
102
RTVSPropertyOp42
 70
     1
102
RTVSPropertyOp43
 70
     1
102
RTVSPropertyOp44
 70
     1
102
RTVSPropertyOp45
 70
     1
102
RTVSPropertyOp46
 70
     1
102
RTVSPropertyOp47
 70
     1
102
RTVSPropertyOp48
 70
     1
102
RTVSPropertyOp49
 70
     1
102
RTVSPropertyOp50
 70
     1
102
RTVSPropertyOp51
 70
     0
102
RTVSPropertyOp52
 70
     0
102
RTVSPropertyOp53
 70
     1
102
RTVSPropertyOp54
 70
     1
102
RTVSPropertyOp55
 70
     1
102
RTVSPropertyOp56
 70
     1
102
RTVSPropertyOp57
 70
     1
102
RTVSPropertyOp58
 70
     1
102
RTVSPropertyOp59
 70
     1
102
RTVSPropertyOp60
 70
     1
102
RTVSPropertyOp61
 70
     1
102
RTVSPropertyOp62
 70
     1
  0
XRECORD
  5
94DAB
102
{ACAD_REACTORS
330
94DAA
102
}
330
94DAA
100
AcDbXrecord
280
     1
102
RTVSPost2010Prop28
280
     0
102
RTVSPost2010PropOp28
 70
     1
102
RTVSPost2010Prop29
280
     1
102
RTVSPost2010PropOp29
 70
     1
102
RTVSPost2010Prop30
280
     1
102
RTVSPost2010PropOp30
 70
     1
102
RTVSPost2010Prop31
280
     0
102
RTVSPost2010PropOp31
 70
     1
102
RTVSPost2010Prop32
280
     0
102
RTVSPost2010PropOp32
 70
     1
102
RTVSPost2010Prop33
280
     0
102
RTVSPost2010PropOp33
 70
     1
102
RTVSPost2010Prop34
280
     0
102
RTVSPost2010PropOp34
 70
     1
102
RTVSPost2010Prop35
280
     0
102
RTVSPost2010PropOp35
 70
     1
102
RTVSPost2010Prop36
280
     0
102
RTVSPost2010PropOp36
 70
     1
102
RTVSPost2010Prop37
 90
       50
102
RTVSPost2010PropOp37
 70
     1
102
RTVSPost2010Prop38
140
0.0
102
RTVSPost2010PropOp38
 70
     1
102
RTVSPost2010Prop39
140
1.0
102
RTVSPost2010PropOp39
 70
     1
102
RTVSPost2010Prop40
 90
        0
102
RTVSPost2010PropOp40
 70
     1
102
RTVSPost2010Prop41ColorIndex
 90
       18
102
RTVSPost2010Prop41ColorRGB
 90
-16777216
102
RTVSPost2010PropOp41
 70
     1
102
RTVSPost2010Prop42
 90
       50
102
RTVSPost2010PropOp42
 70
     1
102
RTVSPost2010Prop43
 90
        3
102
RTVSPost2010PropOp43
 70
     1
102
RTVSPost2010Prop44ColorIndex
 90
        5
102
RTVSPost2010Prop44ColorRGB
 90
      255
102
RTVSPost2010PropOp44
 70
     1
102
RTVSPost2010Prop45
280
     0
102
RTVSPost2010PropOp45
 70
     1
102
RTVSPost2010Prop46
 90
       50
102
RTVSPost2010PropOp46
 70
     1
102
RTVSPost2010Prop47
 90
       50
102
RTVSPost2010PropOp47
 70
     1
102
RTVSPost2010Prop48
 90
       50
102
RTVSPost2010PropOp48
 70
     1
102
RTVSPost2010Prop49
280
     0
102
RTVSPost2010PropOp49
 70
     1
102
RTVSPost2010Prop50
 90
       50
102
RTVSPost2010PropOp50
 70
     1
102
RTVSPost2010Prop51ColorIndex
 90
      256
102
RTVSPost2010Prop51ColorRGB
 90
-16777216
102
RTVSPost2010PropOp51
 70
     0
102
RTVSPost2010Prop52
140
1.0
102
RTVSPost2010PropOp52
 70
     0
102
RTVSPost2010Prop53
 90
        2
102
RTVSPost2010PropOp53
 70
     1
102
RTVSPost2010Prop54
  1
strokes_ogs.tif
102
RTVSPost2010PropOp54
 70
     1
102
RTVSPost2010Prop55
280
     0
102
RTVSPost2010PropOp55
 70
     1
102
RTVSPost2010Prop56
140
1.0
102
RTVSPost2010PropOp56
 70
     1
102
RTVSPost2010Prop57
140
1.0
102
RTVSPost2010PropOp57
 70
     1
102
RTVSPropertyOp0
 70
     1
102
RTVSPropertyOp1
 70
     1
102
RTVSPropertyOp2
 70
     1
102
RTVSPropertyOp3
 70
     1
102
RTVSPropertyOp4
 70
     1
102
RTVSPropertyOp5
 70
     1
102
RTVSPropertyOp6
 70
     1
102
RTVSPropertyOp7
 70
     1
102
RTVSPropertyOp8
 70
     1
102
RTVSPropertyOp9
 70
     1
102
RTVSPropertyOp10
 70
     1
102
RTVSPropertyOp11
 70
     1
102
RTVSPropertyOp12
 70
     1
102
RTVSPropertyOp13
 70
     1
102
RTVSPropertyOp14
 70
     1
102
RTVSPropertyOp15
 70
     1
102
RTVSPropertyOp16
 70
     1
102
RTVSPropertyOp17
 70
     1
102
RTVSPropertyOp18
 70
     1
102
RTVSPropertyOp19
 70
     1
102
RTVSPropertyOp20
 70
     1
102
RTVSPropertyOp21
 70
     1
102
RTVSPropertyOp22
 70
     1
102
RTVSPropertyOp23
 70
     1
102
RTVSPropertyOp24
 70
     1
102
RTVSPropertyOp25
 70
     1
102
RTVSPropertyOp26
 70
     1
102
RTVSPropertyOp27
 70
     1
102
RTVSPropertyOp28
 70
     1
102
RTVSPropertyOp29
 70
     1
102
RTVSPropertyOp30
 70
     1
102
RTVSPropertyOp31
 70
     1
102
RTVSPropertyOp32
 70
     1
102
RTVSPropertyOp33
 70
     1
102
RTVSPropertyOp34
 70
     1
102
RTVSPropertyOp35
 70
     1
102
RTVSPropertyOp36
 70
     1
102
RTVSPropertyOp37
 70
     1
102
RTVSPropertyOp38
 70
     1
102
RTVSPropertyOp39
 70
     1
102
RTVSPropertyOp40
 70
     1
102
RTVSPropertyOp41
 70
     1
102
RTVSPropertyOp42
 70
     1
102
RTVSPropertyOp43
 70
     1
102
RTVSPropertyOp44
 70
     1
102
RTVSPropertyOp45
 70
     1
102
RTVSPropertyOp46
 70
     1
102
RTVSPropertyOp47
 70
     1
102
RTVSPropertyOp48
 70
     1
102
RTVSPropertyOp49
 70
     1
102
RTVSPropertyOp50
 70
     1
102
RTVSPropertyOp51
 70
     0
102
RTVSPropertyOp52
 70
     0
102
RTVSPropertyOp53
 70
     1
102
RTVSPropertyOp54
 70
     1
102
RTVSPropertyOp55
 70
     1
102
RTVSPropertyOp56
 70
     1
102
RTVSPropertyOp57
 70
     1
102
RTVSPropertyOp58
 70
     1
102
RTVSPropertyOp59
 70
     1
102
RTVSPropertyOp60
 70
     1
102
RTVSPropertyOp61
 70
     1
102
RTVSPropertyOp62
 70
     1
  0
XRECORD
  5
94DA9
102
{ACAD_REACTORS
330
94DA8
102
}
330
94DA8
100
AcDbXrecord
280
     1
102
RTVSPost2010Prop28
280
     0
102
RTVSPost2010PropOp28
 70
     1
102
RTVSPost2010Prop29
280
     1
102
RTVSPost2010PropOp29
 70
     1
102
RTVSPost2010Prop30
280
     1
102
RTVSPost2010PropOp30
 70
     1
102
RTVSPost2010Prop31
280
     0
102
RTVSPost2010PropOp31
 70
     1
102
RTVSPost2010Prop32
280
     0
102
RTVSPost2010PropOp32
 70
     1
102
RTVSPost2010Prop33
280
     0
102
RTVSPost2010PropOp33
 70
     1
102
RTVSPost2010Prop34
280
     0
102
RTVSPost2010PropOp34
 70
     1
102
RTVSPost2010Prop35
280
     0
102
RTVSPost2010PropOp35
 70
     1
102
RTVSPost2010Prop36
280
     0
102
RTVSPost2010PropOp36
 70
     1
102
RTVSPost2010Prop37
 90
       50
102
RTVSPost2010PropOp37
 70
     1
102
RTVSPost2010Prop38
140
0.0
102
RTVSPost2010PropOp38
 70
     1
102
RTVSPost2010Prop39
140
1.0
102
RTVSPost2010PropOp39
 70
     1
102
RTVSPost2010Prop40
 90
        0
102
RTVSPost2010PropOp40
 70
     1
102
RTVSPost2010Prop41ColorIndex
 90
       18
102
RTVSPost2010Prop41ColorRGB
 90
-16777216
102
RTVSPost2010PropOp41
 70
     1
102
RTVSPost2010Prop42
 90
       50
102
RTVSPost2010PropOp42
 70
     1
102
RTVSPost2010Prop43
 90
        3
102
RTVSPost2010PropOp43
 70
     1
102
RTVSPost2010Prop44ColorIndex
 90
        5
102
RTVSPost2010Prop44ColorRGB
 90
      255
102
RTVSPost2010PropOp44
 70
     1
102
RTVSPost2010Prop45
280
     0
102
RTVSPost2010PropOp45
 70
     1
102
RTVSPost2010Prop46
 90
       50
102
RTVSPost2010PropOp46
 70
     1
102
RTVSPost2010Prop47
 90
       50
102
RTVSPost2010PropOp47
 70
     1
102
RTVSPost2010Prop48
 90
       50
102
RTVSPost2010PropOp48
 70
     1
102
RTVSPost2010Prop49
280
     0
102
RTVSPost2010PropOp49
 70
     1
102
RTVSPost2010Prop50
 90
       50
102
RTVSPost2010PropOp50
 70
     1
102
RTVSPost2010Prop51ColorIndex
 90
      256
102
RTVSPost2010Prop51ColorRGB
 90
-16777216
102
RTVSPost2010PropOp51
 70
     0
102
RTVSPost2010Prop52
140
1.0
102
RTVSPost2010PropOp52
 70
     0
102
RTVSPost2010Prop53
 90
        2
102
RTVSPost2010PropOp53
 70
     1
102
RTVSPost2010Prop54
  1
strokes_ogs.tif
102
RTVSPost2010PropOp54
 70
     1
102
RTVSPost2010Prop55
280
     0
102
RTVSPost2010PropOp55
 70
     1
102
RTVSPost2010Prop56
140
1.0
102
RTVSPost2010PropOp56
 70
     1
102
RTVSPost2010Prop57
140
1.0
102
RTVSPost2010PropOp57
 70
     1
102
RTVSPropertyOp0
 70
     1
102
RTVSPropertyOp1
 70
     1
102
RTVSPropertyOp2
 70
     1
102
RTVSPropertyOp3
 70
     1
102
RTVSPropertyOp4
 70
     1
102
RTVSPropertyOp5
 70
     1
102
RTVSPropertyOp6
 70
     1
102
RTVSPropertyOp7
 70
     1
102
RTVSPropertyOp8
 70
     1
102
RTVSPropertyOp9
 70
     1
102
RTVSPropertyOp10
 70
     1
102
RTVSPropertyOp11
 70
     1
102
RTVSPropertyOp12
 70
     1
102
RTVSPropertyOp13
 70
     1
102
RTVSPropertyOp14
 70
     1
102
RTVSPropertyOp15
 70
     1
102
RTVSPropertyOp16
 70
     1
102
RTVSPropertyOp17
 70
     1
102
RTVSPropertyOp18
 70
     1
102
RTVSPropertyOp19
 70
     1
102
RTVSPropertyOp20
 70
     1
102
RTVSPropertyOp21
 70
     1
102
RTVSPropertyOp22
 70
     1
102
RTVSPropertyOp23
 70
     1
102
RTVSPropertyOp24
 70
     1
102
RTVSPropertyOp25
 70
     1
102
RTVSPropertyOp26
 70
     1
102
RTVSPropertyOp27
 70
     1
102
RTVSPropertyOp28
 70
     1
102
RTVSPropertyOp29
 70
     1
102
RTVSPropertyOp30
 70
     1
102
RTVSPropertyOp31
 70
     1
102
RTVSPropertyOp32
 70
     1
102
RTVSPropertyOp33
 70
     1
102
RTVSPropertyOp34
 70
     1
102
RTVSPropertyOp35
 70
     1
102
RTVSPropertyOp36
 70
     1
102
RTVSPropertyOp37
 70
     1
102
RTVSPropertyOp38
 70
     1
102
RTVSPropertyOp39
 70
     1
102
RTVSPropertyOp40
 70
     1
102
RTVSPropertyOp41
 70
     1
102
RTVSPropertyOp42
 70
     1
102
RTVSPropertyOp43
 70
     1
102
RTVSPropertyOp44
 70
     1
102
RTVSPropertyOp45
 70
     1
102
RTVSPropertyOp46
 70
     1
102
RTVSPropertyOp47
 70
     1
102
RTVSPropertyOp48
 70
     1
102
RTVSPropertyOp49
 70
     1
102
RTVSPropertyOp50
 70
     1
102
RTVSPropertyOp51
 70
     0
102
RTVSPropertyOp52
 70
     0
102
RTVSPropertyOp53
 70
     1
102
RTVSPropertyOp54
 70
     1
102
RTVSPropertyOp55
 70
     1
102
RTVSPropertyOp56
 70
     1
102
RTVSPropertyOp57
 70
     1
102
RTVSPropertyOp58
 70
     1
102
RTVSPropertyOp59
 70
     1
102
RTVSPropertyOp60
 70
     1
102
RTVSPropertyOp61
 70
     1
102
RTVSPropertyOp62
 70
     1
  0
XRECORD
  5
94DA3
102
{ACAD_REACTORS
330
94DA2
102
}
330
94DA2
100
AcDbXrecord
280
     1
102
RTVSPost2010Prop28
280
     0
102
RTVSPost2010PropOp28
 70
     1
102
RTVSPost2010Prop29
280
     1
102
RTVSPost2010PropOp29
 70
     1
102
RTVSPost2010Prop30
280
     1
102
RTVSPost2010PropOp30
 70
     1
102
RTVSPost2010Prop31
280
     0
102
RTVSPost2010PropOp31
 70
     1
102
RTVSPost2010Prop32
280
     0
102
RTVSPost2010PropOp32
 70
     1
102
RTVSPost2010Prop33
280
     0
102
RTVSPost2010PropOp33
 70
     1
102
RTVSPost2010Prop34
280
     0
102
RTVSPost2010PropOp34
 70
     1
102
RTVSPost2010Prop35
280
     0
102
RTVSPost2010PropOp35
 70
     1
102
RTVSPost2010Prop36
280
     0
102
RTVSPost2010PropOp36
 70
     1
102
RTVSPost2010Prop37
 90
       50
102
RTVSPost2010PropOp37
 70
     1
102
RTVSPost2010Prop38
140
0.0
102
RTVSPost2010PropOp38
 70
     1
102
RTVSPost2010Prop39
140
1.0
102
RTVSPost2010PropOp39
 70
     1
102
RTVSPost2010Prop40
 90
        0
102
RTVSPost2010PropOp40
 70
     1
102
RTVSPost2010Prop41ColorIndex
 90
       18
102
RTVSPost2010Prop41ColorRGB
 90
-16777216
102
RTVSPost2010PropOp41
 70
     1
102
RTVSPost2010Prop42
 90
       50
102
RTVSPost2010PropOp42
 70
     1
102
RTVSPost2010Prop43
 90
        3
102
RTVSPost2010PropOp43
 70
     1
102
RTVSPost2010Prop44ColorIndex
 90
        5
102
RTVSPost2010Prop44ColorRGB
 90
      255
102
RTVSPost2010PropOp44
 70
     1
102
RTVSPost2010Prop45
280
     0
102
RTVSPost2010PropOp45
 70
     1
102
RTVSPost2010Prop46
 90
       50
102
RTVSPost2010PropOp46
 70
     1
102
RTVSPost2010Prop47
 90
       50
102
RTVSPost2010PropOp47
 70
     1
102
RTVSPost2010Prop48
 90
       50
102
RTVSPost2010PropOp48
 70
     1
102
RTVSPost2010Prop49
280
     0
102
RTVSPost2010PropOp49
 70
     1
102
RTVSPost2010Prop50
 90
       50
102
RTVSPost2010PropOp50
 70
     1
102
RTVSPost2010Prop51ColorIndex
 90
      256
102
RTVSPost2010Prop51ColorRGB
 90
-16777216
102
RTVSPost2010PropOp51
 70
     0
102
RTVSPost2010Prop52
140
1.0
102
RTVSPost2010PropOp52
 70
     0
102
RTVSPost2010Prop53
 90
        2
102
RTVSPost2010PropOp53
 70
     1
102
RTVSPost2010Prop54
  1
strokes_ogs.tif
102
RTVSPost2010PropOp54
 70
     1
102
RTVSPost2010Prop55
280
     0
102
RTVSPost2010PropOp55
 70
     1
102
RTVSPost2010Prop56
140
1.0
102
RTVSPost2010PropOp56
 70
     1
102
RTVSPost2010Prop57
140
1.0
102
RTVSPost2010PropOp57
 70
     1
102
RTVSPropertyOp0
 70
     1
102
RTVSPropertyOp1
 70
     1
102
RTVSPropertyOp2
 70
     1
102
RTVSPropertyOp3
 70
     1
102
RTVSPropertyOp4
 70
     1
102
RTVSPropertyOp5
 70
     1
102
RTVSPropertyOp6
 70
     1
102
RTVSPropertyOp7
 70
     1
102
RTVSPropertyOp8
 70
     1
102
RTVSPropertyOp9
 70
     1
102
RTVSPropertyOp10
 70
     1
102
RTVSPropertyOp11
 70
     1
102
RTVSPropertyOp12
 70
     1
102
RTVSPropertyOp13
 70
     1
102
RTVSPropertyOp14
 70
     1
102
RTVSPropertyOp15
 70
     1
102
RTVSPropertyOp16
 70
     1
102
RTVSPropertyOp17
 70
     1
102
RTVSPropertyOp18
 70
     1
102
RTVSPropertyOp19
 70
     1
102
RTVSPropertyOp20
 70
     1
102
RTVSPropertyOp21
 70
     1
102
RTVSPropertyOp22
 70
     1
102
RTVSPropertyOp23
 70
     1
102
RTVSPropertyOp24
 70
     1
102
RTVSPropertyOp25
 70
     1
102
RTVSPropertyOp26
 70
     1
102
RTVSPropertyOp27
 70
     1
102
RTVSPropertyOp28
 70
     1
102
RTVSPropertyOp29
 70
     1
102
RTVSPropertyOp30
 70
     1
102
RTVSPropertyOp31
 70
     1
102
RTVSPropertyOp32
 70
     1
102
RTVSPropertyOp33
 70
     1
102
RTVSPropertyOp34
 70
     1
102
RTVSPropertyOp35
 70
     1
102
RTVSPropertyOp36
 70
     1
102
RTVSPropertyOp37
 70
     1
102
RTVSPropertyOp38
 70
     1
102
RTVSPropertyOp39
 70
     1
102
RTVSPropertyOp40
 70
     1
102
RTVSPropertyOp41
 70
     1
102
RTVSPropertyOp42
 70
     1
102
RTVSPropertyOp43
 70
     1
102
RTVSPropertyOp44
 70
     1
102
RTVSPropertyOp45
 70
     1
102
RTVSPropertyOp46
 70
     1
102
RTVSPropertyOp47
 70
     1
102
RTVSPropertyOp48
 70
     1
102
RTVSPropertyOp49
 70
     1
102
RTVSPropertyOp50
 70
     1
102
RTVSPropertyOp51
 70
     0
102
RTVSPropertyOp52
 70
     0
102
RTVSPropertyOp53
 70
     1
102
RTVSPropertyOp54
 70
     1
102
RTVSPropertyOp55
 70
     1
102
RTVSPropertyOp56
 70
     1
102
RTVSPropertyOp57
 70
     1
102
RTVSPropertyOp58
 70
     1
102
RTVSPropertyOp59
 70
     1
102
RTVSPropertyOp60
 70
     1
102
RTVSPropertyOp61
 70
     1
102
RTVSPropertyOp62
 70
     1
  0
XRECORD
  5
94DA5
102
{ACAD_REACTORS
330
94DA4
102
}
330
94DA4
100
AcDbXrecord
280
     1
102
RTVSPost2010Prop28
280
     0
102
RTVSPost2010PropOp28
 70
     1
102
RTVSPost2010Prop29
280
     1
102
RTVSPost2010PropOp29
 70
     1
102
RTVSPost2010Prop30
280
     1
102
RTVSPost2010PropOp30
 70
     1
102
RTVSPost2010Prop31
280
     0
102
RTVSPost2010PropOp31
 70
     1
102
RTVSPost2010Prop32
280
     0
102
RTVSPost2010PropOp32
 70
     1
102
RTVSPost2010Prop33
280
     0
102
RTVSPost2010PropOp33
 70
     1
102
RTVSPost2010Prop34
280
     0
102
RTVSPost2010PropOp34
 70
     1
102
RTVSPost2010Prop35
280
     0
102
RTVSPost2010PropOp35
 70
     1
102
RTVSPost2010Prop36
280
     0
102
RTVSPost2010PropOp36
 70
     1
102
RTVSPost2010Prop37
 90
       50
102
RTVSPost2010PropOp37
 70
     1
102
RTVSPost2010Prop38
140
0.0
102
RTVSPost2010PropOp38
 70
     1
102
RTVSPost2010Prop39
140
1.0
102
RTVSPost2010PropOp39
 70
     1
102
RTVSPost2010Prop40
 90
        0
102
RTVSPost2010PropOp40
 70
     1
102
RTVSPost2010Prop41ColorIndex
 90
       18
102
RTVSPost2010Prop41ColorRGB
 90
-16777216
102
RTVSPost2010PropOp41
 70
     1
102
RTVSPost2010Prop42
 90
       50
102
RTVSPost2010PropOp42
 70
     1
102
RTVSPost2010Prop43
 90
        3
102
RTVSPost2010PropOp43
 70
     1
102
RTVSPost2010Prop44ColorIndex
 90
        5
102
RTVSPost2010Prop44ColorRGB
 90
      255
102
RTVSPost2010PropOp44
 70
     1
102
RTVSPost2010Prop45
280
     0
102
RTVSPost2010PropOp45
 70
     1
102
RTVSPost2010Prop46
 90
       50
102
RTVSPost2010PropOp46
 70
     1
102
RTVSPost2010Prop47
 90
       50
102
RTVSPost2010PropOp47
 70
     1
102
RTVSPost2010Prop48
 90
       50
102
RTVSPost2010PropOp48
 70
     1
102
RTVSPost2010Prop49
280
     0
102
RTVSPost2010PropOp49
 70
     1
102
RTVSPost2010Prop50
 90
       50
102
RTVSPost2010PropOp50
 70
     1
102
RTVSPost2010Prop51ColorIndex
 90
      256
102
RTVSPost2010Prop51ColorRGB
 90
-16777216
102
RTVSPost2010PropOp51
 70
     0
102
RTVSPost2010Prop52
140
1.0
102
RTVSPost2010PropOp52
 70
     0
102
RTVSPost2010Prop53
 90
        2
102
RTVSPost2010PropOp53
 70
     1
102
RTVSPost2010Prop54
  1
strokes_ogs.tif
102
RTVSPost2010PropOp54
 70
     1
102
RTVSPost2010Prop55
280
     0
102
RTVSPost2010PropOp55
 70
     1
102
RTVSPost2010Prop56
140
1.0
102
RTVSPost2010PropOp56
 70
     1
102
RTVSPost2010Prop57
140
1.0
102
RTVSPost2010PropOp57
 70
     1
102
RTVSPropertyOp0
 70
     1
102
RTVSPropertyOp1
 70
     1
102
RTVSPropertyOp2
 70
     1
102
RTVSPropertyOp3
 70
     1
102
RTVSPropertyOp4
 70
     1
102
RTVSPropertyOp5
 70
     1
102
RTVSPropertyOp6
 70
     1
102
RTVSPropertyOp7
 70
     1
102
RTVSPropertyOp8
 70
     1
102
RTVSPropertyOp9
 70
     1
102
RTVSPropertyOp10
 70
     1
102
RTVSPropertyOp11
 70
     1
102
RTVSPropertyOp12
 70
     1
102
RTVSPropertyOp13
 70
     1
102
RTVSPropertyOp14
 70
     1
102
RTVSPropertyOp15
 70
     1
102
RTVSPropertyOp16
 70
     1
102
RTVSPropertyOp17
 70
     1
102
RTVSPropertyOp18
 70
     1
102
RTVSPropertyOp19
 70
     1
102
RTVSPropertyOp20
 70
     1
102
RTVSPropertyOp21
 70
     1
102
RTVSPropertyOp22
 70
     1
102
RTVSPropertyOp23
 70
     1
102
RTVSPropertyOp24
 70
     1
102
RTVSPropertyOp25
 70
     1
102
RTVSPropertyOp26
 70
     1
102
RTVSPropertyOp27
 70
     1
102
RTVSPropertyOp28
 70
     1
102
RTVSPropertyOp29
 70
     1
102
RTVSPropertyOp30
 70
     1
102
RTVSPropertyOp31
 70
     1
102
RTVSPropertyOp32
 70
     1
102
RTVSPropertyOp33
 70
     1
102
RTVSPropertyOp34
 70
     1
102
RTVSPropertyOp35
 70
     1
102
RTVSPropertyOp36
 70
     1
102
RTVSPropertyOp37
 70
     1
102
RTVSPropertyOp38
 70
     1
102
RTVSPropertyOp39
 70
     1
102
RTVSPropertyOp40
 70
     1
102
RTVSPropertyOp41
 70
     1
102
RTVSPropertyOp42
 70
     1
102
RTVSPropertyOp43
 70
     1
102
RTVSPropertyOp44
 70
     1
102
RTVSPropertyOp45
 70
     1
102
RTVSPropertyOp46
 70
     1
102
RTVSPropertyOp47
 70
     1
102
RTVSPropertyOp48
 70
     1
102
RTVSPropertyOp49
 70
     1
102
RTVSPropertyOp50
 70
     1
102
RTVSPropertyOp51
 70
     0
102
RTVSPropertyOp52
 70
     0
102
RTVSPropertyOp53
 70
     1
102
RTVSPropertyOp54
 70
     1
102
RTVSPropertyOp55
 70
     1
102
RTVSPropertyOp56
 70
     1
102
RTVSPropertyOp57
 70
     1
102
RTVSPropertyOp58
 70
     1
102
RTVSPropertyOp59
 70
     1
102
RTVSPropertyOp60
 70
     1
102
RTVSPropertyOp61
 70
     1
102
RTVSPropertyOp62
 70
     1
  0
XRECORD
  5
94D9B
102
{ACAD_REACTORS
330
94D9A
102
}
330
94D9A
100
AcDbXrecord
280
     1
102
RTVSPost2010Prop28
280
     0
102
RTVSPost2010PropOp28
 70
     1
102
RTVSPost2010Prop29
280
     1
102
RTVSPost2010PropOp29
 70
     1
102
RTVSPost2010Prop30
280
     1
102
RTVSPost2010PropOp30
 70
     1
102
RTVSPost2010Prop31
280
     0
102
RTVSPost2010PropOp31
 70
     1
102
RTVSPost2010Prop32
280
     0
102
RTVSPost2010PropOp32
 70
     1
102
RTVSPost2010Prop33
280
     0
102
RTVSPost2010PropOp33
 70
     1
102
RTVSPost2010Prop34
280
     0
102
RTVSPost2010PropOp34
 70
     1
102
RTVSPost2010Prop35
280
     0
102
RTVSPost2010PropOp35
 70
     1
102
RTVSPost2010Prop36
280
     0
102
RTVSPost2010PropOp36
 70
     1
102
RTVSPost2010Prop37
 90
       50
102
RTVSPost2010PropOp37
 70
     1
102
RTVSPost2010Prop38
140
0.0
102
RTVSPost2010PropOp38
 70
     1
102
RTVSPost2010Prop39
140
1.0
102
RTVSPost2010PropOp39
 70
     1
102
RTVSPost2010Prop40
 90
        0
102
RTVSPost2010PropOp40
 70
     1
102
RTVSPost2010Prop41ColorIndex
 90
       18
102
RTVSPost2010Prop41ColorRGB
 90
-16777216
102
RTVSPost2010PropOp41
 70
     1
102
RTVSPost2010Prop42
 90
       50
102
RTVSPost2010PropOp42
 70
     1
102
RTVSPost2010Prop43
 90
        3
102
RTVSPost2010PropOp43
 70
     1
102
RTVSPost2010Prop44ColorIndex
 90
        5
102
RTVSPost2010Prop44ColorRGB
 90
      255
102
RTVSPost2010PropOp44
 70
     1
102
RTVSPost2010Prop45
280
     0
102
RTVSPost2010PropOp45
 70
     1
102
RTVSPost2010Prop46
 90
       50
102
RTVSPost2010PropOp46
 70
     1
102
RTVSPost2010Prop47
 90
       50
102
RTVSPost2010PropOp47
 70
     1
102
RTVSPost2010Prop48
 90
       50
102
RTVSPost2010PropOp48
 70
     1
102
RTVSPost2010Prop49
280
     0
102
RTVSPost2010PropOp49
 70
     1
102
RTVSPost2010Prop50
 90
       50
102
RTVSPost2010PropOp50
 70
     1
102
RTVSPost2010Prop51ColorIndex
 90
      256
102
RTVSPost2010Prop51ColorRGB
 90
-16777216
102
RTVSPost2010PropOp51
 70
     0
102
RTVSPost2010Prop52
140
1.0
102
RTVSPost2010PropOp52
 70
     0
102
RTVSPost2010Prop53
 90
        2
102
RTVSPost2010PropOp53
 70
     1
102
RTVSPost2010Prop54
  1
strokes_ogs.tif
102
RTVSPost2010PropOp54
 70
     1
102
RTVSPost2010Prop55
280
     0
102
RTVSPost2010PropOp55
 70
     1
102
RTVSPost2010Prop56
140
1.0
102
RTVSPost2010PropOp56
 70
     1
102
RTVSPost2010Prop57
140
1.0
102
RTVSPost2010PropOp57
 70
     1
102
RTVSPropertyOp0
 70
     1
102
RTVSPropertyOp1
 70
     1
102
RTVSPropertyOp2
 70
     1
102
RTVSPropertyOp3
 70
     1
102
RTVSPropertyOp4
 70
     1
102
RTVSPropertyOp5
 70
     1
102
RTVSPropertyOp6
 70
     1
102
RTVSPropertyOp7
 70
     1
102
RTVSPropertyOp8
 70
     1
102
RTVSPropertyOp9
 70
     1
102
RTVSPropertyOp10
 70
     1
102
RTVSPropertyOp11
 70
     1
102
RTVSPropertyOp12
 70
     1
102
RTVSPropertyOp13
 70
     1
102
RTVSPropertyOp14
 70
     1
102
RTVSPropertyOp15
 70
     1
102
RTVSPropertyOp16
 70
     1
102
RTVSPropertyOp17
 70
     1
102
RTVSPropertyOp18
 70
     1
102
RTVSPropertyOp19
 70
     1
102
RTVSPropertyOp20
 70
     1
102
RTVSPropertyOp21
 70
     1
102
RTVSPropertyOp22
 70
     1
102
RTVSPropertyOp23
 70
     1
102
RTVSPropertyOp24
 70
     1
102
RTVSPropertyOp25
 70
     1
102
RTVSPropertyOp26
 70
     1
102
RTVSPropertyOp27
 70
     1
102
RTVSPropertyOp28
 70
     1
102
RTVSPropertyOp29
 70
     1
102
RTVSPropertyOp30
 70
     1
102
RTVSPropertyOp31
 70
     1
102
RTVSPropertyOp32
 70
     1
102
RTVSPropertyOp33
 70
     1
102
RTVSPropertyOp34
 70
     1
102
RTVSPropertyOp35
 70
     1
102
RTVSPropertyOp36
 70
     1
102
RTVSPropertyOp37
 70
     1
102
RTVSPropertyOp38
 70
     1
102
RTVSPropertyOp39
 70
     1
102
RTVSPropertyOp40
 70
     1
102
RTVSPropertyOp41
 70
     1
102
RTVSPropertyOp42
 70
     1
102
RTVSPropertyOp43
 70
     1
102
RTVSPropertyOp44
 70
     1
102
RTVSPropertyOp45
 70
     1
102
RTVSPropertyOp46
 70
     1
102
RTVSPropertyOp47
 70
     1
102
RTVSPropertyOp48
 70
     1
102
RTVSPropertyOp49
 70
     1
102
RTVSPropertyOp50
 70
     1
102
RTVSPropertyOp51
 70
     0
102
RTVSPropertyOp52
 70
     0
102
RTVSPropertyOp53
 70
     1
102
RTVSPropertyOp54
 70
     1
102
RTVSPropertyOp55
 70
     1
102
RTVSPropertyOp56
 70
     1
102
RTVSPropertyOp57
 70
     1
102
RTVSPropertyOp58
 70
     1
102
RTVSPropertyOp59
 70
     1
102
RTVSPropertyOp60
 70
     1
102
RTVSPropertyOp61
 70
     1
102
RTVSPropertyOp62
 70
     1
  0
XRECORD
  5
94D8F
102
{ACAD_REACTORS
330
94D8E
102
}
330
94D8E
100
AcDbXrecord
280
     1
102
RTVSPost2010Prop28
280
     0
102
RTVSPost2010PropOp28
 70
     1
102
RTVSPost2010Prop29
280
     1
102
RTVSPost2010PropOp29
 70
     1
102
RTVSPost2010Prop30
280
     1
102
RTVSPost2010PropOp30
 70
     1
102
RTVSPost2010Prop31
280
     0
102
RTVSPost2010PropOp31
 70
     1
102
RTVSPost2010Prop32
280
     0
102
RTVSPost2010PropOp32
 70
     1
102
RTVSPost2010Prop33
280
     0
102
RTVSPost2010PropOp33
 70
     1
102
RTVSPost2010Prop34
280
     0
102
RTVSPost2010PropOp34
 70
     1
102
RTVSPost2010Prop35
280
     0
102
RTVSPost2010PropOp35
 70
     1
102
RTVSPost2010Prop36
280
     0
102
RTVSPost2010PropOp36
 70
     1
102
RTVSPost2010Prop37
 90
       50
102
RTVSPost2010PropOp37
 70
     1
102
RTVSPost2010Prop38
140
0.0
102
RTVSPost2010PropOp38
 70
     1
102
RTVSPost2010Prop39
140
1.0
102
RTVSPost2010PropOp39
 70
     1
102
RTVSPost2010Prop40
 90
        0
102
RTVSPost2010PropOp40
 70
     1
102
RTVSPost2010Prop41ColorIndex
 90
       18
102
RTVSPost2010Prop41ColorRGB
 90
-16777216
102
RTVSPost2010PropOp41
 70
     1
102
RTVSPost2010Prop42
 90
       50
102
RTVSPost2010PropOp42
 70
     1
102
RTVSPost2010Prop43
 90
        3
102
RTVSPost2010PropOp43
 70
     1
102
RTVSPost2010Prop44ColorIndex
 90
        5
102
RTVSPost2010Prop44ColorRGB
 90
      255
102
RTVSPost2010PropOp44
 70
     1
102
RTVSPost2010Prop45
280
     0
102
RTVSPost2010PropOp45
 70
     1
102
RTVSPost2010Prop46
 90
       50
102
RTVSPost2010PropOp46
 70
     1
102
RTVSPost2010Prop47
 90
       50
102
RTVSPost2010PropOp47
 70
     1
102
RTVSPost2010Prop48
 90
       50
102
RTVSPost2010PropOp48
 70
     1
102
RTVSPost2010Prop49
280
     0
102
RTVSPost2010PropOp49
 70
     1
102
RTVSPost2010Prop50
 90
       50
102
RTVSPost2010PropOp50
 70
     1
102
RTVSPost2010Prop51ColorIndex
 90
      256
102
RTVSPost2010Prop51ColorRGB
 90
-16777216
102
RTVSPost2010PropOp51
 70
     0
102
RTVSPost2010Prop52
140
1.0
102
RTVSPost2010PropOp52
 70
     0
102
RTVSPost2010Prop53
 90
        2
102
RTVSPost2010PropOp53
 70
     1
102
RTVSPost2010Prop54
  1
strokes_ogs.tif
102
RTVSPost2010PropOp54
 70
     1
102
RTVSPost2010Prop55
280
     0
102
RTVSPost2010PropOp55
 70
     1
102
RTVSPost2010Prop56
140
1.0
102
RTVSPost2010PropOp56
 70
     1
102
RTVSPost2010Prop57
140
1.0
102
RTVSPost2010PropOp57
 70
     1
102
RTVSPropertyOp0
 70
     1
102
RTVSPropertyOp1
 70
     1
102
RTVSPropertyOp2
 70
     1
102
RTVSPropertyOp3
 70
     1
102
RTVSPropertyOp4
 70
     1
102
RTVSPropertyOp5
 70
     1
102
RTVSPropertyOp6
 70
     1
102
RTVSPropertyOp7
 70
     1
102
RTVSPropertyOp8
 70
     1
102
RTVSPropertyOp9
 70
     1
102
RTVSPropertyOp10
 70
     1
102
RTVSPropertyOp11
 70
     1
102
RTVSPropertyOp12
 70
     1
102
RTVSPropertyOp13
 70
     1
102
RTVSPropertyOp14
 70
     1
102
RTVSPropertyOp15
 70
     1
102
RTVSPropertyOp16
 70
     1
102
RTVSPropertyOp17
 70
     1
102
RTVSPropertyOp18
 70
     1
102
RTVSPropertyOp19
 70
     1
102
RTVSPropertyOp20
 70
     1
102
RTVSPropertyOp21
 70
     1
102
RTVSPropertyOp22
 70
     1
102
RTVSPropertyOp23
 70
     1
102
RTVSPropertyOp24
 70
     1
102
RTVSPropertyOp25
 70
     1
102
RTVSPropertyOp26
 70
     1
102
RTVSPropertyOp27
 70
     1
102
RTVSPropertyOp28
 70
     1
102
RTVSPropertyOp29
 70
     1
102
RTVSPropertyOp30
 70
     1
102
RTVSPropertyOp31
 70
     1
102
RTVSPropertyOp32
 70
     1
102
RTVSPropertyOp33
 70
     1
102
RTVSPropertyOp34
 70
     1
102
RTVSPropertyOp35
 70
     1
102
RTVSPropertyOp36
 70
     1
102
RTVSPropertyOp37
 70
     1
102
RTVSPropertyOp38
 70
     1
102
RTVSPropertyOp39
 70
     1
102
RTVSPropertyOp40
 70
     1
102
RTVSPropertyOp41
 70
     1
102
RTVSPropertyOp42
 70
     1
102
RTVSPropertyOp43
 70
     1
102
RTVSPropertyOp44
 70
     1
102
RTVSPropertyOp45
 70
     1
102
RTVSPropertyOp46
 70
     1
102
RTVSPropertyOp47
 70
     1
102
RTVSPropertyOp48
 70
     1
102
RTVSPropertyOp49
 70
     1
102
RTVSPropertyOp50
 70
     1
102
RTVSPropertyOp51
 70
     0
102
RTVSPropertyOp52
 70
     0
102
RTVSPropertyOp53
 70
     1
102
RTVSPropertyOp54
 70
     1
102
RTVSPropertyOp55
 70
     1
102
RTVSPropertyOp56
 70
     1
102
RTVSPropertyOp57
 70
     1
102
RTVSPropertyOp58
 70
     1
102
RTVSPropertyOp59
 70
     1
102
RTVSPropertyOp60
 70
     1
102
RTVSPropertyOp61
 70
     1
102
RTVSPropertyOp62
 70
     1
  0
XRECORD
  5
94DA7
102
{ACAD_REACTORS
330
94DA6
102
}
330
94DA6
100
AcDbXrecord
280
     1
102
RTVSPost2010Prop28
280
     0
102
RTVSPost2010PropOp28
 70
     1
102
RTVSPost2010Prop29
280
     1
102
RTVSPost2010PropOp29
 70
     1
102
RTVSPost2010Prop30
280
     1
102
RTVSPost2010PropOp30
 70
     1
102
RTVSPost2010Prop31
280
     0
102
RTVSPost2010PropOp31
 70
     1
102
RTVSPost2010Prop32
280
     0
102
RTVSPost2010PropOp32
 70
     1
102
RTVSPost2010Prop33
280
     0
102
RTVSPost2010PropOp33
 70
     1
102
RTVSPost2010Prop34
280
     0
102
RTVSPost2010PropOp34
 70
     1
102
RTVSPost2010Prop35
280
     0
102
RTVSPost2010PropOp35
 70
     1
102
RTVSPost2010Prop36
280
     0
102
RTVSPost2010PropOp36
 70
     1
102
RTVSPost2010Prop37
 90
       50
102
RTVSPost2010PropOp37
 70
     1
102
RTVSPost2010Prop38
140
0.0
102
RTVSPost2010PropOp38
 70
     1
102
RTVSPost2010Prop39
140
1.0
102
RTVSPost2010PropOp39
 70
     1
102
RTVSPost2010Prop40
 90
        0
102
RTVSPost2010PropOp40
 70
     1
102
RTVSPost2010Prop41ColorIndex
 90
       18
102
RTVSPost2010Prop41ColorRGB
 90
-16777216
102
RTVSPost2010PropOp41
 70
     1
102
RTVSPost2010Prop42
 90
       50
102
RTVSPost2010PropOp42
 70
     1
102
RTVSPost2010Prop43
 90
        3
102
RTVSPost2010PropOp43
 70
     1
102
RTVSPost2010Prop44ColorIndex
 90
        5
102
RTVSPost2010Prop44ColorRGB
 90
      255
102
RTVSPost2010PropOp44
 70
     1
102
RTVSPost2010Prop45
280
     0
102
RTVSPost2010PropOp45
 70
     1
102
RTVSPost2010Prop46
 90
       50
102
RTVSPost2010PropOp46
 70
     1
102
RTVSPost2010Prop47
 90
       50
102
RTVSPost2010PropOp47
 70
     1
102
RTVSPost2010Prop48
 90
       50
102
RTVSPost2010PropOp48
 70
     1
102
RTVSPost2010Prop49
280
     0
102
RTVSPost2010PropOp49
 70
     1
102
RTVSPost2010Prop50
 90
       50
102
RTVSPost2010PropOp50
 70
     1
102
RTVSPost2010Prop51ColorIndex
 90
      256
102
RTVSPost2010Prop51ColorRGB
 90
-16777216
102
RTVSPost2010PropOp51
 70
     0
102
RTVSPost2010Prop52
140
1.0
102
RTVSPost2010PropOp52
 70
     0
102
RTVSPost2010Prop53
 90
        2
102
RTVSPost2010PropOp53
 70
     1
102
RTVSPost2010Prop54
  1
strokes_ogs.tif
102
RTVSPost2010PropOp54
 70
     1
102
RTVSPost2010Prop55
280
     0
102
RTVSPost2010PropOp55
 70
     1
102
RTVSPost2010Prop56
140
1.0
102
RTVSPost2010PropOp56
 70
     1
102
RTVSPost2010Prop57
140
1.0
102
RTVSPost2010PropOp57
 70
     1
102
RTVSPropertyOp0
 70
     1
102
RTVSPropertyOp1
 70
     1
102
RTVSPropertyOp2
 70
     1
102
RTVSPropertyOp3
 70
     1
102
RTVSPropertyOp4
 70
     1
102
RTVSPropertyOp5
 70
     1
102
RTVSPropertyOp6
 70
     1
102
RTVSPropertyOp7
 70
     1
102
RTVSPropertyOp8
 70
     1
102
RTVSPropertyOp9
 70
     1
102
RTVSPropertyOp10
 70
     1
102
RTVSPropertyOp11
 70
     1
102
RTVSPropertyOp12
 70
     1
102
RTVSPropertyOp13
 70
     1
102
RTVSPropertyOp14
 70
     1
102
RTVSPropertyOp15
 70
     1
102
RTVSPropertyOp16
 70
     1
102
RTVSPropertyOp17
 70
     1
102
RTVSPropertyOp18
 70
     1
102
RTVSPropertyOp19
 70
     1
102
RTVSPropertyOp20
 70
     1
102
RTVSPropertyOp21
 70
     1
102
RTVSPropertyOp22
 70
     1
102
RTVSPropertyOp23
 70
     1
102
RTVSPropertyOp24
 70
     1
102
RTVSPropertyOp25
 70
     1
102
RTVSPropertyOp26
 70
     1
102
RTVSPropertyOp27
 70
     1
102
RTVSPropertyOp28
 70
     1
102
RTVSPropertyOp29
 70
     1
102
RTVSPropertyOp30
 70
     1
102
RTVSPropertyOp31
 70
     1
102
RTVSPropertyOp32
 70
     1
102
RTVSPropertyOp33
 70
     1
102
RTVSPropertyOp34
 70
     1
102
RTVSPropertyOp35
 70
     1
102
RTVSPropertyOp36
 70
     1
102
RTVSPropertyOp37
 70
     1
102
RTVSPropertyOp38
 70
     1
102
RTVSPropertyOp39
 70
     1
102
RTVSPropertyOp40
 70
     1
102
RTVSPropertyOp41
 70
     1
102
RTVSPropertyOp42
 70
     1
102
RTVSPropertyOp43
 70
     1
102
RTVSPropertyOp44
 70
     1
102
RTVSPropertyOp45
 70
     1
102
RTVSPropertyOp46
 70
     1
102
RTVSPropertyOp47
 70
     1
102
RTVSPropertyOp48
 70
     1
102
RTVSPropertyOp49
 70
     1
102
RTVSPropertyOp50
 70
     1
102
RTVSPropertyOp51
 70
     0
102
RTVSPropertyOp52
 70
     0
102
RTVSPropertyOp53
 70
     1
102
RTVSPropertyOp54
 70
     1
102
RTVSPropertyOp55
 70
     1
102
RTVSPropertyOp56
 70
     1
102
RTVSPropertyOp57
 70
     1
102
RTVSPropertyOp58
 70
     1
102
RTVSPropertyOp59
 70
     1
102
RTVSPropertyOp60
 70
     1
102
RTVSPropertyOp61
 70
     1
102
RTVSPropertyOp62
 70
     1
  0
ENDSEC
  0
EOF
