  0
SECTION
  2
HEADER
  9
$ACADVER
  1
AC1015
  9
$ACADMAINTVER
 70
     6
  9
$DWGCODEPAGE
  3
ANSI_932
  9
$INSBASE
 10
0.0
 20
0.0
 30
0.0
  9
$EXTMIN
 10
-799.9265251563716
 20
-577.9058000793707
 30
0.0
  9
$EXTMAX
 10
1007.2692
 20
508.6135533530957
 30
0.0
  9
$LIMMIN
 10
-799.9265251563716
 20
-577.9058000793707
  9
$LIMMAX
 10
1007.2692
 20
508.6135533530957
  9
$ORTHOMODE
 70
     0
  9
$REGENMODE
 70
     1
  9
$FILLMODE
 70
     1
  9
$QTEXTMODE
 70
     0
  9
$MIRRTEXT
 70
     1
  9
$LTSCALE
 40
1.0
  9
$ATTMODE
 70
     1
  9
$TEXTSIZE
 40
0.2
  9
$TRACEWID
 40
0.05
  9
$TEXTSTYLE
  7
Standard
  9
$CLAYER
  8
0
  9
$CELTYPE
  6
ByLayer
  9
$CECOLOR
 62
   256
  9
$CELTSCALE
 40
1.0
  9
$DISPSILH
 70
     0
  9
$DIMSCALE
 40
1.0
  9
$DIMASZ
 40
0.18
  9
$DIMEXO
 40
0.0625
  9
$DIMDLI
 40
0.38
  9
$DIMRND
 40
0.0
  9
$DIMDLE
 40
0.0
  9
$DIMEXE
 40
0.18
  9
$DIMTP
 40
0.0
  9
$DIMTM
 40
0.0
  9
$DIMTXT
 40
0.18
  9
$DIMCEN
 40
0.09
  9
$DIMTSZ
 40
0.0
  9
$DIMTOL
 70
     0
  9
$DIMLIM
 70
     0
  9
$DIMTIH
 70
     1
  9
$DIMTOH
 70
     1
  9
$DIMSE1
 70
     0
  9
$DIMSE2
 70
     0
  9
$DIMTAD
 70
     0
  9
$DIMZIN
 70
     0
  9
$DIMBLK
  1

  9
$DIMASO
 70
     1
  9
$DIMSHO
 70
     1
  9
$DIMPOST
  1

  9
$DIMAPOST
  1

  9
$DIMALT
 70
     0
  9
$DIMALTD
 70
     2
  9
$DIMALTF
 40
25.4
  9
$DIMLFAC
 40
1.0
  9
$DIMTOFL
 70
     0
  9
$DIMTVP
 40
0.0
  9
$DIMTIX
 70
     0
  9
$DIMSOXD
 70
     0
  9
$DIMSAH
 70
     0
  9
$DIMBLK1
  1

  9
$DIMBLK2
  1

  9
$DIMSTYLE
  2
Standard
  9
$DIMCLRD
 70
     0
  9
$DIMCLRE
 70
     0
  9
$DIMCLRT
 70
     0
  9
$DIMTFAC
 40
1.0
  9
$DIMGAP
 40
0.09
  9
$DIMJUST
 70
     0
  9
$DIMSD1
 70
     0
  9
$DIMSD2
 70
     0
  9
$DIMTOLJ
 70
     1
  9
$DIMTZIN
 70
     0
  9
$DIMALTZ
 70
     0
  9
$DIMALTTZ
 70
     0
  9
$DIMUPT
 70
     0
  9
$DIMDEC
 70
     4
  9
$DIMTDEC
 70
     4
  9
$DIMALTU
 70
     2
  9
$DIMALTTD
 70
     2
  9
$DIMTXSTY
  7
Standard
  9
$DIMAUNIT
 70
     0
  9
$DIMADEC
 70
     0
  9
$DIMALTRND
 40
0.0
  9
$DIMAZIN
 70
     0
  9
$DIMDSEP
 70
    46
  9
$DIMATFIT
 70
     3
  9
$DIMFRAC
 70
     0
  9
$DIMLDRBLK
  1

  9
$DIMLUNIT
 70
     2
  9
$DIMLWD
 70
    -2
  9
$DIMLWE
 70
    -2
  9
$DIMTMOVE
 70
     0
  9
$LUNITS
 70
     2
  9
$LUPREC
 70
     4
  9
$SKETCHINC
 40
0.1
  9
$FILLETRAD
 40
0.5
  9
$AUNITS
 70
     1
  9
$AUPREC
 70
     3
  9
$MENU
  1
.
  9
$ELEVATION
 40
0.0
  9
$PELEVATION
 40
0.0
  9
$THICKNESS
 40
0.0
  9
$LIMCHECK
 70
     0
  9
$CHAMFERA
 40
0.0
  9
$CHAMFERB
 40
0.0
  9
$CHAMFERC
 40
0.0
  9
$CHAMFERD
 40
0.0
  9
$SKPOLY
 70
     0
  9
$TDCREATE
 40
2457353.358601875
  9
$TDUCREATE
 40
2457352.983601875
  9
$TDUPDATE
 40
2457353.358604271
  9
$TDUUPDATE
 40
2457352.983604271
  9
$TDINDWG
 40
0.0000000116
  9
$TDUSRTIMER
 40
0.0000000116
  9
$USRTIMER
 70
     1
  9
$ANGBASE
 50
0.0
  9
$ANGDIR
 70
     0
  9
$PDMODE
 70
     0
  9
$PDSIZE
 40
0.0
  9
$PLINEWID
 40
0.0
  9
$SPLFRAME
 70
     0
  9
$SPLINETYPE
 70
     6
  9
$SPLINESEGS
 70
     8
  9
$HANDSEED
  5
2EA
  9
$SURFTAB1
 70
     6
  9
$SURFTAB2
 70
     6
  9
$SURFTYPE
 70
     6
  9
$SURFU
 70
     6
  9
$SURFV
 70
     6
  9
$UCSBASE
  2

  9
$UCSNAME
  2

  9
$UCSORG
 10
0.0
 20
0.0
 30
0.0
  9
$UCSXDIR
 10
1.0
 20
0.0
 30
0.0
  9
$UCSYDIR
 10
0.0
 20
1.0
 30
0.0
  9
$UCSORTHOREF
  2

  9
$UCSORTHOVIEW
 70
     0
  9
$UCSORGTOP
 10
0.0
 20
0.0
 30
0.0
  9
$UCSORGBOTTOM
 10
0.0
 20
0.0
 30
0.0
  9
$UCSORGLEFT
 10
0.0
 20
0.0
 30
0.0
  9
$UCSORGRIGHT
 10
0.0
 20
0.0
 30
0.0
  9
$UCSORGFRONT
 10
0.0
 20
0.0
 30
0.0
  9
$UCSORGBACK
 10
0.0
 20
0.0
 30
0.0
  9
$PUCSBASE
  2

  9
$PUCSNAME
  2

  9
$PUCSORG
 10
0.0
 20
0.0
 30
0.0
  9
$PUCSXDIR
 10
1.0
 20
0.0
 30
0.0
  9
$PUCSYDIR
 10
0.0
 20
1.0
 30
0.0
  9
$PUCSORTHOREF
  2

  9
$PUCSORTHOVIEW
 70
     0
  9
$PUCSORGTOP
 10
0.0
 20
0.0
 30
0.0
  9
$PUCSORGBOTTOM
 10
0.0
 20
0.0
 30
0.0
  9
$PUCSORGLEFT
 10
0.0
 20
0.0
 30
0.0
  9
$PUCSORGRIGHT
 10
0.0
 20
0.0
 30
0.0
  9
$PUCSORGFRONT
 10
0.0
 20
0.0
 30
0.0
  9
$PUCSORGBACK
 10
0.0
 20
0.0
 30
0.0
  9
$USERI1
 70
     0
  9
$USERI2
 70
     0
  9
$USERI3
 70
     0
  9
$USERI4
 70
     0
  9
$USERI5
 70
     0
  9
$USERR1
 40
0.0
  9
$USERR2
 40
0.0
  9
$USERR3
 40
0.0
  9
$USERR4
 40
0.0
  9
$USERR5
 40
0.0
  9
$WORLDVIEW
 70
     1
  9
$SHADEDGE
 70
     3
  9
$SHADEDIF
 70
    70
  9
$TILEMODE
 70
     1
  9
$MAXACTVP
 70
    64
  9
$PINSBASE
 10
0.0
 20
0.0
 30
0.0
  9
$PLIMCHECK
 70
     0
  9
$PEXTMIN
 10
-9.375
 20
-25.0
 30
0.0
  9
$PEXTMAX
 10
525.0
 20
371.25
 30
0.0
  9
$PLIMMIN
 10
-7.5
 20
-20.0
  9
$PLIMMAX
 10
420.0
 20
297.0
  9
$UNITMODE
 70
     0
  9
$VISRETAIN
 70
     1
  9
$PLINEGEN
 70
     0
  9
$PSLTSCALE
 70
     1
  9
$TREEDEPTH
 70
  3020
  9
$CMLSTYLE
  2
Standard
  9
$CMLJUST
 70
     0
  9
$CMLSCALE
 40
1.0
  9
$PROXYGRAPHICS
 70
     1
  9
$MEASUREMENT
 70
     0
  9
$CELWEIGHT
370
    -1
  9
$ENDCAPS
280
     0
  9
$JOINSTYLE
280
     0
  9
$LWDISPLAY
290
     0
  9
$INSUNITS
 70
     0
  9
$HYPERLINKBASE
  1

  9
$STYLESHEET
  1

  9
$XEDIT
290
     1
  9
$CEPSNTYPE
380
     0
  9
$PSTYLEMODE
290
     1
  9
$FINGERPRINTGUID
  2
{7D777043-EC83-458A-9B7C-02E747A54382}
  9
$VERSIONGUID
  2
{FAEB1C32-E019-11D5-929B-00C0DF256EC4}
  9
$EXTNAMES
290
     1
  9
$PSVPSCALE
 40
0.0
  9
$OLESTARTUP
290
     0
  0
ENDSEC
  0
SECTION
  2
CLASSES
  0
CLASS
  1
ACDBDICTIONARYWDFLT
  2
AcDbDictionaryWithDefault
  3
ObjectDBX Classes
 90
        0
280
     0
281
     0
  0
CLASS
  1
VISUALSTYLE
  2
AcDbVisualStyle
  3
ObjectDBX Classes
 90
     4095
280
     0
281
     0
  0
CLASS
  1
MATERIAL
  2
AcDbMaterial
  3
ObjectDBX Classes
 90
     1153
280
     0
281
     0
  0
CLASS
  1
SCALE
  2
AcDbScale
  3
ObjectDBX Classes
 90
     1153
280
     0
281
     0
  0
CLASS
  1
SUN
  2
AcDbSun
  3
SCENEOE
 90
     1153
280
     0
281
     0
  0
CLASS
  1
RASTERVARIABLES
  2
AcDbRasterVariables
  3
ISM
 90
        0
280
     0
281
     0
  0
CLASS
  1
DICTIONARYVAR
  2
AcDbDictionaryVar
  3
ObjectDBX Classes
 90
        0
280
     0
281
     0
  0
CLASS
  1
ACDBPLACEHOLDER
  2
AcDbPlaceHolder
  3
ObjectDBX Classes
 90
        0
280
     0
281
     0
  0
CLASS
  1
LAYOUT
  2
AcDbLayout
  3
ObjectDBX Classes
 90
        0
280
     0
281
     0
  0
ENDSEC
  0
SECTION
  2
TABLES
  0
TABLE
  2
VPORT
  5
8
330
0
100
AcDbSymbolTable
 70
     1
  0
VPORT
  5
29
330
8
100
AcDbSymbolTableRecord
100
AcDbViewportTableRecord
  2
*Active
 70
     0
 10
0.0
 20
0.0
 11
1.0
 21
1.0
 12
82.93706993745144
 22
-27.71689869051002
 13
0.0
 23
0.0
 14
0.5
 24
0.5
 15
0.5
 25
0.5
 16
0.0
 26
0.0
 36
1.0
 17
0.0
 27
0.0
 37
0.0
 40
912.6762568832718
 41
1.663289033414074
 42
50.0
 43
0.0
 44
0.0
 50
0.0
 51
0.0
 71
     0
 72
 20000
 73
     1
 74
     3
 75
     0
 76
     0
 77
     0
 78
     0
281
     0
 65
     1
110
0.0
120
0.0
130
0.0
111
1.0
121
0.0
131
0.0
112
0.0
122
1.0
132
0.0
 79
     0
146
0.0
  0
ENDTAB
  0
TABLE
  2
LTYPE
  5
5
330
0
100
AcDbSymbolTable
 70
     4
  0
LTYPE
  5
14
330
5
100
AcDbSymbolTableRecord
100
AcDbLinetypeTableRecord
  2
ByBlock
 70
     0
  3

 72
    65
 73
     0
 40
0.0
  0
LTYPE
  5
15
330
5
100
AcDbSymbolTableRecord
100
AcDbLinetypeTableRecord
  2
ByLayer
 70
     0
  3

 72
    65
 73
     0
 40
0.0
  0
LTYPE
  5
16
330
5
100
AcDbSymbolTableRecord
100
AcDbLinetypeTableRecord
  2
Continuous
 70
     0
  3
Solid line
 72
    65
 73
     0
 40
0.0
  0
LTYPE
  5
6C
330
5
100
AcDbSymbolTableRecord
100
AcDbLinetypeTableRecord
  2
DASHDOT
 70
     0
  3

 72
    65
 73
     4
 40
5.499999999999999
 49
4.0
 74
     0
 49
-0.6
 74
     0
 49
0.3
 74
     0
 49
-0.6
 74
     0
  0
LTYPE
  5
6D
330
5
100
AcDbSymbolTableRecord
100
AcDbLinetypeTableRecord
  2
CENTER
 70
     0
  3

 72
    65
 73
     4
 40
0.7749999999999999
 49
0.375
 74
     0
 49
-0.075
 74
     0
 49
0.25
 74
     0
 49
-0.075
 74
     0
  0
LTYPE
  5
6E
330
5
100
AcDbSymbolTableRecord
100
AcDbLinetypeTableRecord
  2
AI-Linetype-1
 70
     0
  3

 72
    65
 73
     4
 40
952.7777605853734
 49
352.7777776895833
 74
     0
 49
-239.999993158316
 74
     0
 49
119.999996579158
 74
     0
 49
-239.999993158316
 74
     0
  0
ENDTAB
  0
TABLE
  2
LAYER
  5
2
330
0
100
AcDbSymbolTable
 70
    11
  0
LAYER
  5
10
330
2
100
AcDbSymbolTableRecord
100
AcDbLayerTableRecord
  2
0
 70
     0
 62
   250
  6
Continuous
370
    25
390
F
  0
LAYER
  5
6F
330
2
100
AcDbSymbolTableRecord
100
AcDbLayerTableRecord
  2
SIZE
 70
     0
 62
    32
  6
Continuous
370
    25
390
F
  0
LAYER
  5
70
330
2
100
AcDbSymbolTableRecord
100
AcDbLayerTableRecord
  2
DETAIL
 70
     0
 62
     5
  6
Continuous
370
    25
390
F
  0
LAYER
  5
71
330
2
100
AcDbSymbolTableRecord
100
AcDbLayerTableRecord
  2
OUTLINE
 70
     0
 62
     3
  6
Continuous
370
    25
390
F
  0
LAYER
  5
72
330
2
100
AcDbSymbolTableRecord
100
AcDbLayerTableRecord
  2
BASIS
 70
     0
 62
     6
  6
Continuous
370
    25
390
F
  0
LAYER
  5
73
330
2
100
AcDbSymbolTableRecord
100
AcDbLayerTableRecord
  2
NOTE
 70
     4
 62
     4
  6
Continuous
370
    25
390
F
  0
LAYER
  5
74
330
2
100
AcDbSymbolTableRecord
100
AcDbLayerTableRecord
  2
ARRANGE
 70
     0
 62
     1
  6
Continuous
370
    25
390
F
  0
LAYER
  5
75
330
2
100
AcDbSymbolTableRecord
100
AcDbLayerTableRecord
  2
ETC
 70
     0
 62
    83
  6
Continuous
370
    25
390
F
  0
LAYER
  5
76
330
2
100
AcDbSymbolTableRecord
100
AcDbLayerTableRecord
  2
DEFPOINTS
 70
     0
 62
   250
  6
Continuous
290
     0
370
    25
390
F
  0
LAYER
  5
77
330
2
100
AcDbSymbolTableRecord
100
AcDbLayerTableRecord
  2
DEFAULT_1
 70
     0
 62
   250
  6
CENTER
370
    25
390
F
  0
LAYER
  5
78
330
2
100
AcDbSymbolTableRecord
100
AcDbLayerTableRecord
  2
rcviewportframe
 70
     0
 62
    -7
  6
Continuous
370
    -3
390
F
  0
ENDTAB
  0
TABLE
  2
STYLE
  5
3
330
0
100
AcDbSymbolTable
 70
     5
  0
STYLE
  5
11
330
3
100
AcDbSymbolTableRecord
100
AcDbTextStyleTableRecord
  2
Standard
 70
     0
 40
0.0
 41
1.0
 50
0.0
 71
     0
 42
0.2
  3
txt.shx
  4
extfont
  0
STYLE
  5
79
330
3
100
AcDbSymbolTableRecord
100
AcDbTextStyleTableRecord
  2
MS PGothic
 70
     0
 40
0.0
 41
1.0
 50
0.0
 71
     0
 42
0.2
  3
MS PGothic.ttf
  4

1001
ACAD
1000
ＭＳ Ｐゴシック
1071
    32818
  0
STYLE
  5
7A
330
3
100
AcDbSymbolTableRecord
100
AcDbTextStyleTableRecord
  2
VERTICAL
 70
     4
 40
0.0
 41
1.0
 50
0.0
 71
     0
 42
0.2
  3
txt.shx
  4
extfont
  0
STYLE
  5
7B
330
3
100
AcDbSymbolTableRecord
100
AcDbTextStyleTableRecord
  2
VERTICAL MS PGothic
 70
     0
 40
0.0
 41
1.0
 50
0.0
 71
     0
 42
0.2
  3
MS PGothic.ttf
  4

1001
ACAD
1000
@ＭＳ Ｐゴシック
1071
    32818
  0
STYLE
  5
8D
330
3
100
AcDbSymbolTableRecord
100
AcDbTextStyleTableRecord
  2
MS PGothic w9
 70
     0
 40
0.0
 41
0.9
 50
0.0
 71
     0
 42
0.2
  3
MS PGothic.ttf
  4
extfont
1001
ACAD
1000
ＭＳ Ｐゴシック
1071
    32818
  0
ENDTAB
  0
TABLE
  2
VIEW
  5
6
330
0
100
AcDbSymbolTable
 70
     0
  0
ENDTAB
  0
TABLE
  2
UCS
  5
7
330
0
100
AcDbSymbolTable
 70
     0
  0
ENDTAB
  0
TABLE
  2
APPID
  5
9
330
0
100
AcDbSymbolTable
 70
     6
  0
APPID
  5
12
330
9
100
AcDbSymbolTableRecord
100
AcDbRegAppTableRecord
  2
ACAD
 70
     0
  0
APPID
  5
6A
330
9
100
AcDbSymbolTableRecord
100
AcDbRegAppTableRecord
  2
RootPro CAD
 70
     0
  0
APPID
  5
2AE
330
9
100
AcDbSymbolTableRecord
100
AcDbRegAppTableRecord
  2
ACAD_DSTYLE_DIM_LINETYPE
 70
     0
  0
APPID
  5
2AF
330
9
100
AcDbSymbolTableRecord
100
AcDbRegAppTableRecord
  2
ACAD_DSTYLE_DIM_EXT1_LINETYPE
 70
     0
  0
APPID
  5
2B0
330
9
100
AcDbSymbolTableRecord
100
AcDbRegAppTableRecord
  2
ACAD_DSTYLE_DIMFLIPARROW_SYMBOL
 70
     0
  0
APPID
  5
2B1
330
9
100
AcDbSymbolTableRecord
100
AcDbRegAppTableRecord
  2
ACAD_DSTYLE_DIMFLIPARROW_WHICH_SYMBOL
 70
     0
  0
ENDTAB
  0
TABLE
  2
DIMSTYLE
  5
A
330
0
100
AcDbSymbolTable
 70
     1
100
AcDbDimStyleTable
  0
DIMSTYLE
105
27
102
{ACAD_REACTORS
330
93
330
9D
330
A8
330
B3
330
BE
330
C9
102
}
330
A
100
AcDbSymbolTableRecord
100
AcDbDimStyleTableRecord
  2
Standard
 70
     0
178
     0
340
11
  0
ENDTAB
  0
TABLE
  2
BLOCK_RECORD
  5
1
330
0
100
AcDbSymbolTable
 70
    12
  0
BLOCK_RECORD
  5
1F
330
1
100
AcDbSymbolTableRecord
100
AcDbBlockTableRecord
  2
*Model_Space
340
22
  0
BLOCK_RECORD
  5
1B
330
1
100
AcDbSymbolTableRecord
100
AcDbBlockTableRecord
  2
*Paper_Space
340
1E
  0
BLOCK_RECORD
  5
7C
330
1
100
AcDbSymbolTableRecord
100
AcDbBlockTableRecord
  2
_FILLED
340
0
  0
BLOCK_RECORD
  5
80
330
1
100
AcDbSymbolTableRecord
100
AcDbBlockTableRecord
  2
block 4
340
0
  0
BLOCK_RECORD
  5
84
330
1
100
AcDbSymbolTableRecord
100
AcDbBlockTableRecord
  2
block 5
340
0
  0
BLOCK_RECORD
  5
89
330
1
100
AcDbSymbolTableRecord
100
AcDbBlockTableRecord
  2
block 116
340
0
  0
BLOCK_RECORD
  5
8E
330
1
100
AcDbSymbolTableRecord
100
AcDbBlockTableRecord
  2
_ORIGIN
340
0
  0
BLOCK_RECORD
  5
94
330
1
100
AcDbSymbolTableRecord
100
AcDbBlockTableRecord
  2
*D6
340
0
  0
BLOCK_RECORD
  5
9E
330
1
100
AcDbSymbolTableRecord
100
AcDbBlockTableRecord
  2
*D7
340
0
  0
BLOCK_RECORD
  5
A9
330
1
100
AcDbSymbolTableRecord
100
AcDbBlockTableRecord
  2
*D8
340
0
  0
BLOCK_RECORD
  5
B4
330
1
100
AcDbSymbolTableRecord
100
AcDbBlockTableRecord
  2
*D9
340
0
  0
BLOCK_RECORD
  5
BF
330
1
100
AcDbSymbolTableRecord
100
AcDbBlockTableRecord
  2
*D10
340
0
  0
BLOCK_RECORD
  5
CA
330
1
100
AcDbSymbolTableRecord
100
AcDbBlockTableRecord
  2
*D11
340
0
  0
ENDTAB
  0
ENDSEC
  0
SECTION
  2
BLOCKS
  0
BLOCK
  5
20
330
1F
100
AcDbEntity
  8
0
100
AcDbBlockBegin
  2
*Model_Space
 70
     0
 10
0.0
 20
0.0
 30
0.0
  3
*Model_Space
  1
*Model_Space
  0
ENDBLK
  5
21
330
1F
100
AcDbEntity
  8
0
100
AcDbBlockEnd
  0
BLOCK
  5
1C
330
1B
100
AcDbEntity
 67
     1
  8
0
100
AcDbBlockBegin
  2
*Paper_Space
 70
     0
 10
0.0
 20
0.0
 30
0.0
  3
*Paper_Space
  1
*Paper_Space
  0
ENDBLK
  5
1D
330
1B
100
AcDbEntity
 67
     1
  8
0
100
AcDbBlockEnd
  0
BLOCK
  5
7D
330
7C
100
AcDbEntity
  8
0
100
AcDbBlockBegin
  2
_FILLED
 70
     0
 10
0.0
 20
0.0
 30
0.0
  3
_FILLED
  1
_FILLED
  0
HATCH
  5
7F
330
7C
100
AcDbEntity
  8
0
100
AcDbHatch
 10
0.0
 20
0.0
 30
0.0
210
0.0
220
0.0
230
1.0
  2
SOLID
 70
     1
 71
     1
 91
        1
 92
        1
 93
        3
 72
     1
 10
0.0
 20
0.0
 11
-1.0
 21
0.2142857143
 72
     1
 10
-1.0
 20
0.2142857143
 11
-1.0
 21
-0.2142857143
 72
     1
 10
-1.0
 20
-0.2142857143
 11
0.0
 21
0.0
 97
        0
 75
     1
 76
     1
 98
        1
 10
0.0
 20
0.0
  0
ENDBLK
  5
7E
330
7C
100
AcDbEntity
  8
0
100
AcDbBlockEnd
  0
BLOCK
  5
81
330
80
100
AcDbEntity
  8
0
100
AcDbBlockBegin
  2
block 4
 70
     0
 10
0.0
 20
0.0
 30
0.0
  3
block 4
  1
block 4
  0
SPLINE
  5
83
330
80
100
AcDbEntity
  8
ARRANGE
 62
     1
370
    25
100
AcDbSpline
210
0.0
220
0.0
230
1.0
 70
    11
 71
     3
 72
    20
 73
    16
 74
     0
 42
0.000000001
 43
0.0000000001
 40
0.0
 40
0.0
 40
0.0
 40
0.0
 40
1.0
 40
1.0
 40
1.0
 40
2.0
 40
2.0
 40
2.0
 40
3.0
 40
3.0
 40
3.0
 40
4.0
 40
4.0
 40
4.0
 40
5.0
 40
5.0
 40
5.0
 40
5.0
 10
-57.38685030032343
 20
263.6297308368704
 30
0.0
 10
-57.38685030032343
 20
270.8101711020024
 30
0.0
 10
-63.20785588697582
 20
276.6311766886547
 30
0.0
 10
-70.38829615210778
 20
276.6311766886547
 30
0.0
 10
-77.56873641723976
 20
276.6311766886547
 30
0.0
 10
-83.38956974911785
 20
270.8101711020024
 30
0.0
 10
-83.38956974911785
 20
263.6297308368704
 30
0.0
 10
-83.38956974911785
 20
256.4492905717384
 30
0.0
 10
-77.56873641723976
 20
250.6284572398603
 30
0.0
 10
-70.38829615210778
 20
250.6284572398603
 30
0.0
 10
-63.20785588697582
 20
250.6284572398603
 30
0.0
 10
-57.38685030032343
 20
256.4492905717384
 30
0.0
 10
-57.38685030032343
 20
263.6297293368704
 30
0.0
 10
-57.38685030032343
 20
263.6297298368704
 30
0.0
 10
-57.38685030032343
 20
263.6297303368704
 30
0.0
 10
-57.38685030032343
 20
263.6297308368704
 30
0.0
  0
ENDBLK
  5
82
330
80
100
AcDbEntity
  8
0
100
AcDbBlockEnd
  0
BLOCK
  5
85
330
84
100
AcDbEntity
  8
0
100
AcDbBlockBegin
  2
block 5
 70
     0
 10
0.0
 20
0.0
 30
0.0
  3
block 5
  1
block 5
  0
LINE
  5
87
330
84
100
AcDbEntity
  8
ARRANGE
370
    13
100
AcDbLine
 10
-77.19821639780116
 20
256.819810591177
 30
0.0
 11
-63.57820365164016
 21
270.439823337338
 31
0.0
  0
LINE
  5
88
330
84
100
AcDbEntity
  8
ARRANGE
370
    13
100
AcDbLine
 10
-77.19821639780116
 20
270.439823337338
 30
0.0
 11
-63.57820365164016
 21
256.819810591177
 31
0.0
  0
ENDBLK
  5
86
330
84
100
AcDbEntity
  8
0
100
AcDbBlockEnd
  0
BLOCK
  5
8A
330
89
100
AcDbEntity
  8
0
100
AcDbBlockBegin
  2
block 116
 70
     0
 10
0.0
 20
0.0
 30
0.0
  3
block 116
  1
block 116
  0
LINE
  5
8C
330
89
100
AcDbEntity
  8
NOTE
  6
AI-Linetype-1
 62
     4
370
    25
100
AcDbLine
 10
-70.38829615210778
 20
39.22999130963696
 30
0.0
 11
-70.38829615210778
 21
-0.7703233505018636
 31
0.0
  0
ENDBLK
  5
8B
330
89
100
AcDbEntity
  8
0
100
AcDbBlockEnd
  0
BLOCK
  5
8F
330
8E
100
AcDbEntity
  8
0
100
AcDbBlockBegin
  2
_ORIGIN
 70
     0
 10
0.0
 20
0.0
 30
0.0
  3
_ORIGIN
  1
_ORIGIN
  0
CIRCLE
  5
91
330
8E
100
AcDbEntity
  8
0
  6
ByBlock
 62
     0
370
    -2
100
AcDbCircle
 10
0.0
 20
0.0
 30
0.0
 40
0.5
  0
LINE
  5
92
330
8E
100
AcDbEntity
  8
0
  6
ByBlock
 62
     0
370
    -2
100
AcDbLine
 10
0.0
 20
0.0
 30
0.0
 11
-1.0
 21
0.0
 31
0.0
  0
ENDBLK
  5
90
330
8E
100
AcDbEntity
  8
0
100
AcDbBlockEnd
  0
BLOCK
  5
9B
330
94
100
AcDbEntity
  8
0
100
AcDbBlockBegin
  2
*D6
 70
     1
 10
0.0
 20
0.0
 30
0.0
  3
*D6
  1
*D6
  0
MTEXT
  5
95
330
94
100
AcDbEntity
  8
SIZE
100
AcDbMText
 10
-250.9721706340223
 20
91.73884787059347
 30
0.0
 40
62.53473798897788
 41
168.2447355958958
 71
     7
 72
     1
  1
{\fＭＳ Ｐゴシック|b0|i0;380}
  7
MS PGothic w9
 73
     1
 44
0.75
  0
LINE
  5
96
330
94
100
AcDbEntity
  8
SIZE
  6
Continuous
100
AcDbLine
 10
-0.0000861273869634
 20
-5.82195392649329
 30
0.0
 11
-0.0000861273854286
 21
101.7388478705935
 31
0.0
  0
LINE
  5
97
330
94
100
AcDbEntity
  8
SIZE
  6
Continuous
100
AcDbLine
 10
-379.1976120742543
 20
-37.51027274261015
 30
0.0
 11
-379.1976120742523
 21
101.7388478705935
 31
0.0
  0
CIRCLE
  5
98
330
94
100
AcDbEntity
  8
SIZE
  6
Continuous
100
AcDbCircle
 10
-0.000086127385714
 20
81.73884787059349
 30
0.0
 40
5.0
  0
CIRCLE
  5
99
330
94
100
AcDbEntity
  8
SIZE
  6
Continuous
100
AcDbCircle
 10
-379.1976120742526
 20
81.7388478705935
 30
0.0
 40
5.0
  0
LINE
  5
9A
330
94
100
AcDbEntity
  8
SIZE
  6
Continuous
100
AcDbLine
 10
-0.000086127385714
 20
81.73884787059349
 30
0.0
 11
-379.1976120742526
 21
81.7388478705935
 31
0.0
  0
ENDBLK
  5
9C
330
94
100
AcDbEntity
  8
0
100
AcDbBlockEnd
  0
BLOCK
  5
A6
330
9E
100
AcDbEntity
  8
0
100
AcDbBlockBegin
  2
*D7
 70
     1
 10
0.0
 20
0.0
 30
0.0
  3
*D7
  1
*D7
  0
MTEXT
  5
9F
330
9E
100
AcDbEntity
  8
SIZE
100
AcDbMText
 10
-204.2749531712878
 20
-404.0860261136888
 30
0.0
 40
64.81536096489673
 41
199.3725670899715
 71
     7
 72
     1
  1
{\fＭＳ Ｐゴシック|b0|i0;43.5}
  7
MS PGothic w9
 73
     1
 44
0.75
  0
LINE
  5
A0
330
9E
100
AcDbEntity
  8
SIZE
  6
Continuous
100
AcDbLine
 10
-0.0000861273872488
 20
-305.291517986338
 30
0.0
 11
-0.0000861273872488
 21
-434.0860261136888
 31
0.0
  0
LINE
  5
A1
330
9E
100
AcDbEntity
  8
SIZE
  6
Continuous
100
AcDbLine
 10
-43.48821545679289
 20
-278.9605023007234
 30
0.0
 11
-43.48821545679291
 21
-434.0860261136888
 31
0.0
  0
CIRCLE
  5
A2
330
9E
100
AcDbEntity
  8
SIZE
  6
Continuous
100
AcDbCircle
 10
-0.0000861273872488
 20
-414.0860261136888
 30
0.0
 40
5.0
  0
CIRCLE
  5
A3
330
9E
100
AcDbEntity
  8
SIZE
  6
Continuous
100
AcDbCircle
 10
-43.48821545679291
 20
-414.0860261136888
 30
0.0
 40
5.0
  0
LINE
  5
A4
330
9E
100
AcDbEntity
  8
SIZE
  6
Continuous
100
AcDbLine
 10
-0.0000861273872488
 20
-414.0860261136888
 30
0.0
 11
-43.48821545679291
 21
-414.0860261136888
 31
0.0
  0
LINE
  5
A5
330
9E
100
AcDbEntity
  8
SIZE
  6
Continuous
100
AcDbLine
 10
-43.48821545679291
 20
-414.0860261136888
 30
0.0
 11
-204.2749531712878
 21
-414.0860261136888
 31
0.0
  0
ENDBLK
  5
A7
330
9E
100
AcDbEntity
  8
0
100
AcDbBlockEnd
  0
BLOCK
  5
B1
330
A9
100
AcDbEntity
  8
0
100
AcDbBlockBegin
  2
*D8
 70
     1
 10
0.0
 20
0.0
 30
0.0
  3
*D8
  1
*D8
  0
MTEXT
  5
AA
330
A9
100
AcDbEntity
  8
SIZE
100
AcDbMText
 10
227.2533254858013
 20
-382.9835634006204
 30
0.0
 40
62.80245837256083
 41
105.9105349276274
 71
     7
 72
     1
  1
{\fＭＳ Ｐゴシック|b0|i0;57}
  7
MS PGothic w9
 11
6.123233995736766E-17
 21
1.0
 31
0.0
 73
     1
 44
0.75
  0
LINE
  5
AB
330
A9
100
AcDbEntity
  8
SIZE
  6
Continuous
100
AcDbLine
 10
15.0141716863593
 20
-228.6462503497394
 30
0.0
 11
257.2533254858013
 21
-228.6462503497394
 31
0.0
  0
LINE
  5
AC
330
A9
100
AcDbEntity
  8
SIZE
  6
Continuous
100
AcDbLine
 10
15.043385075659
 20
-285.4725525494414
 30
0.0
 11
257.2533254857997
 21
-285.4725525494414
 31
0.0
  0
CIRCLE
  5
AD
330
A9
100
AcDbEntity
  8
SIZE
  6
Continuous
100
AcDbCircle
 10
237.2533254858013
 20
-228.6462503497394
 30
0.0
 40
5.0
  0
CIRCLE
  5
AE
330
A9
100
AcDbEntity
  8
SIZE
  6
Continuous
100
AcDbCircle
 10
237.2533254857997
 20
-285.4725525494414
 30
0.0
 40
5.0
  0
LINE
  5
AF
330
A9
100
AcDbEntity
  8
SIZE
  6
Continuous
100
AcDbLine
 10
237.2533254858013
 20
-228.6462503497394
 30
0.0
 11
237.2533254857997
 21
-285.4725525494414
 31
0.0
  0
LINE
  5
B0
330
A9
100
AcDbEntity
  8
SIZE
  6
Continuous
100
AcDbLine
 10
237.2533254857997
 20
-285.4725525494414
 30
0.0
 11
237.2533254857969
 21
-382.983563400622
 31
0.0
  0
ENDBLK
  5
B2
330
A9
100
AcDbEntity
  8
0
100
AcDbBlockEnd
  0
BLOCK
  5
BC
330
B4
100
AcDbEntity
  8
0
100
AcDbBlockBegin
  2
*D9
 70
     1
 10
0.0
 20
0.0
 30
0.0
  3
*D9
  1
*D9
  0
MTEXT
  5
B5
330
B4
100
AcDbEntity
  8
SIZE
100
AcDbMText
 10
365.9665980417741
 20
-236.955102430071
 30
0.0
 40
59.87602499736759
 41
105.9526530612245
 71
     7
 72
     1
  1
{\fＭＳ Ｐゴシック|b0|i0;40}
  7
MS PGothic w9
 11
6.123233995736766E-17
 21
1.0
 31
0.0
 73
     1
 44
0.7500000000000001
  0
LINE
  5
B6
330
B4
100
AcDbEntity
  8
SIZE
  6
Continuous
100
AcDbLine
 10
9.71131601120396
 20
-294.3772941701123
 30
0.0
 11
395.966598041774
 21
-294.3772941701123
 31
0.0
  0
LINE
  5
B7
330
B4
100
AcDbEntity
  8
SIZE
  6
Continuous
100
AcDbLine
 10
11.51190450034028
 20
-254.1999999999999
 30
0.0
 11
395.966598041774
 21
-254.1999999999999
 31
0.0
  0
CIRCLE
  5
B8
330
B4
100
AcDbEntity
  8
SIZE
  6
Continuous
100
AcDbCircle
 10
375.966598041774
 20
-294.3772941701123
 30
0.0
 40
5.0
  0
CIRCLE
  5
B9
330
B4
100
AcDbEntity
  8
SIZE
  6
Continuous
100
AcDbCircle
 10
375.966598041774
 20
-254.1999999999999
 30
0.0
 40
5.0
  0
LINE
  5
BA
330
B4
100
AcDbEntity
  8
SIZE
  6
Continuous
100
AcDbLine
 10
375.966598041774
 20
-294.3772941701123
 30
0.0
 11
375.966598041774
 21
-254.1999999999999
 31
0.0
  0
LINE
  5
BB
330
B4
100
AcDbEntity
  8
SIZE
  6
Continuous
100
AcDbLine
 10
375.966598041774
 20
-254.1999999999999
 30
0.0
 11
375.966598041774
 21
-158.5877547127859
 31
0.0
  0
ENDBLK
  5
BD
330
B4
100
AcDbEntity
  8
0
100
AcDbBlockEnd
  0
BLOCK
  5
C7
330
BF
100
AcDbEntity
  8
0
100
AcDbBlockBegin
  2
*D10
 70
     1
 10
0.0
 20
0.0
 30
0.0
  3
*D10
  1
*D10
  0
MTEXT
  5
C0
330
BF
100
AcDbEntity
  8
SIZE
100
AcDbMText
 10
456.8555300951201
 20
-245.0072498866489
 30
0.0
 40
58.99702014004117
 41
87.22010050251254
 71
     7
 72
     1
  1
{\fＭＳ Ｐゴシック|b0|i0;41}
  7
MS PGothic w9
 11
6.123233995736766E-17
 21
1.0
 31
0.0
 73
     1
 44
0.75
  0
LINE
  5
C1
330
BF
100
AcDbEntity
  8
SIZE
  6
Continuous
100
AcDbLine
 10
14.15653190852118
 20
-294.3772941701123
 30
0.0
 11
486.8555300951202
 21
-294.3772941701123
 31
0.0
  0
LINE
  5
C2
330
BF
100
AcDbEntity
  8
SIZE
  6
Continuous
100
AcDbLine
 10
16.80131179015189
 20
-253.2
 30
0.0
 11
486.8555300951202
 21
-253.2
 31
0.0
  0
CIRCLE
  5
C3
330
BF
100
AcDbEntity
  8
SIZE
  6
Continuous
100
AcDbCircle
 10
466.8555300951202
 20
-294.3772941701123
 30
0.0
 40
5.0
  0
CIRCLE
  5
C4
330
BF
100
AcDbEntity
  8
SIZE
  6
Continuous
100
AcDbCircle
 10
466.8555300951202
 20
-253.2
 30
0.0
 40
5.0
  0
LINE
  5
C5
330
BF
100
AcDbEntity
  8
SIZE
  6
Continuous
100
AcDbLine
 10
466.8555300951202
 20
-294.3772941701123
 30
0.0
 11
466.8555300951202
 21
-253.2
 31
0.0
  0
LINE
  5
C6
330
BF
100
AcDbEntity
  8
SIZE
  6
Continuous
100
AcDbLine
 10
466.8555300951202
 20
-253.2
 30
0.0
 11
466.8555300951202
 21
-167.8213215419224
 31
0.0
  0
ENDBLK
  5
C8
330
BF
100
AcDbEntity
  8
0
100
AcDbBlockEnd
  0
BLOCK
  5
D1
330
CA
100
AcDbEntity
  8
0
100
AcDbBlockBegin
  2
*D11
 70
     1
 10
0.0
 20
0.0
 30
0.0
  3
*D11
  1
*D11
  0
MTEXT
  5
CB
330
CA
100
AcDbEntity
  8
SIZE
100
AcDbMText
 10
-548.0018738116207
 20
-209.346964227094
 30
0.0
 40
63.24220578019108
 41
168.2214205905826
 71
     7
 72
     1
  1
{\fＭＳ Ｐゴシック|b0|i0;295}
  7
MS PGothic w9
 11
6.123233995736766E-17
 21
1.0
 31
0.0
 73
     1
 44
0.75
  0
LINE
  5
CC
330
CA
100
AcDbEntity
  8
SIZE
  6
Continuous
100
AcDbLine
 10
-25.42995517495092
 20
-0.0000861273870758
 30
0.0
 11
-558.0018738116206
 21
-0.0000861273870105
 31
0.0
  0
LINE
  5
CD
330
CA
100
AcDbEntity
  8
SIZE
  6
Continuous
100
AcDbLine
 10
-117.089078073601
 20
-294.5757316700627
 30
0.0
 11
-558.0018738116206
 21
-294.5757316700626
 31
0.0
  0
CIRCLE
  5
CE
330
CA
100
AcDbEntity
  8
SIZE
  6
Continuous
100
AcDbCircle
 10
-538.0018738116206
 20
-0.000086127387013
 30
0.0
 40
5.0
  0
CIRCLE
  5
CF
330
CA
100
AcDbEntity
  8
SIZE
  6
Continuous
100
AcDbCircle
 10
-538.0018738116206
 20
-294.5757316700626
 30
0.0
 40
5.0
  0
LINE
  5
D0
330
CA
100
AcDbEntity
  8
SIZE
  6
Continuous
100
AcDbLine
 10
-538.0018738116206
 20
-0.000086127387013
 30
0.0
 11
-538.0018738116206
 21
-294.5757316700626
 31
0.0
  0
ENDBLK
  5
D2
330
CA
100
AcDbEntity
  8
0
100
AcDbBlockEnd
  0
ENDSEC
  0
SECTION
  2
ENTITIES
  0
DIMENSION
  5
93
330
1F
100
AcDbEntity
  8
SIZE
  6
Continuous
100
AcDbDimension
  2
*D6
 10
-379.1976120742526
 20
81.73884787059356
 30
0.0
 11
-189.5988491008192
 21
137.2005673835329
 31
0.0
 70
    32
  1
380
 71
     5
 42
-1.0
  3
Standard
100
AcDbAlignedDimension
 13
-0.0000861273872488
 23
-25.82195392649329
 33
0.0
 14
-379.1976120742546
 24
-57.51027274261015
 34
0.0
100
AcDbRotatedDimension
1001
ACAD
1000
DSTYLE
1002
{
1070
    41
1040
10.0
1070
   289
1070
     1
1070
   342
1005
8E
1070
   271
1070
     0
1070
    44
1040
20.0
1070
    42
1040
20.0
1070
   147
1040
10.0
1070
    77
1070
     1
1070
   272
1070
     2
1070
   146
1040
0.5
1070
    73
1070
     0
1070
   174
1070
     1
1070
   172
1070
     1
1070
    74
1070
     0
1070
   283
1070
     0
1070
   340
1005
8D
1070
   140
1040
62.53473798897788
1070
   284
1070
     1
1070
    78
1070
     8
1070
   345
1005
16
1070
   346
1005
14
1002
}
1001
ACAD_DSTYLE_DIM_LINETYPE
1070
   380
1005
16
1001
ACAD_DSTYLE_DIM_EXT1_LINETYPE
1070
   381
1005
14
  0
DIMENSION
  5
9D
330
1F
100
AcDbEntity
  8
SIZE
  6
Continuous
100
AcDbDimension
  2
*D7
 10
-43.48821545679291
 20
-414.0860261136888
 30
0.0
 11
-132.0596440282214
 21
-356.9730805570481
 31
0.0
 70
   160
  1
43.5
 71
     5
 42
-1.0
  3
Standard
100
AcDbAlignedDimension
 13
-0.0000861273872488
 23
-285.291517986338
 33
0.0
 14
-43.48821545679288
 24
-258.9605023007234
 34
0.0
100
AcDbRotatedDimension
1001
ACAD
1000
DSTYLE
1002
{
1070
    41
1040
10.0
1070
   289
1070
     1
1070
   342
1005
8E
1070
   271
1070
     0
1070
    44
1040
20.0
1070
    42
1040
20.0
1070
   147
1040
10.0
1070
    77
1070
     1
1070
   272
1070
     2
1070
   146
1040
0.5
1070
    73
1070
     0
1070
   174
1070
     1
1070
   172
1070
     1
1070
    74
1070
     0
1070
   283
1070
     0
1070
   340
1005
8D
1070
   140
1040
64.81536096489673
1070
   284
1070
     1
1070
    78
1070
     8
1070
   345
1005
16
1070
   346
1005
14
1002
}
1001
ACAD_DSTYLE_DIM_LINETYPE
1070
   380
1005
16
1001
ACAD_DSTYLE_DIM_EXT1_LINETYPE
1070
   381
1005
14
1001
ACAD_DSTYLE_DIMFLIPARROW_SYMBOL
1070
   385
1070
     0
1001
ACAD_DSTYLE_DIMFLIPARROW_WHICH_SYMBOL
1070
   386
1070
     3
  0
DIMENSION
  5
A8
330
1F
100
AcDbEntity
  8
SIZE
  6
Continuous
100
AcDbDimension
  2
*D8
 10
237.2533254858013
 20
-285.4725525494414
 30
0.0
 11
181.6061697240826
 21
-341.901123978013
 31
0.0
 70
   160
 71
     5
 42
-1.0
  3
Standard
100
AcDbAlignedDimension
 13
-4.985828313640695
 23
-228.6462503497394
 33
0.0
 14
-4.956614924341002
 24
-285.4725525494414
 34
0.0
 50
90.0
100
AcDbRotatedDimension
1001
ACAD
1000
DSTYLE
1002
{
1070
    41
1040
10.0
1070
   289
1070
     1
1070
   342
1005
8E
1070
   271
1070
     0
1070
    44
1040
20.0
1070
    42
1040
20.0
1070
   147
1040
10.0
1070
    77
1070
     1
1070
   272
1070
     0
1070
    73
1070
     0
1070
   174
1070
     1
1070
   172
1070
     1
1070
    74
1070
     0
1070
   340
1005
8D
1070
   140
1040
62.80247152555545
1070
   284
1070
     1
1070
    78
1070
     8
1070
   345
1005
16
1070
   346
1005
14
1002
}
1001
ACAD_DSTYLE_DIM_LINETYPE
1070
   380
1005
16
1001
ACAD_DSTYLE_DIM_EXT1_LINETYPE
1070
   381
1005
14
1001
ACAD_DSTYLE_DIMFLIPARROW_SYMBOL
1070
   385
1070
     0
1001
ACAD_DSTYLE_DIMFLIPARROW_WHICH_SYMBOL
1070
   386
1070
     3
  0
DIMENSION
  5
B3
330
1F
100
AcDbEntity
  8
SIZE
  6
Continuous
100
AcDbDimension
  2
*D9
 10
375.966598041774
 20
-254.1999999999999
 30
0.0
 11
322.4291834909928
 21
-197.7714285714285
 31
0.0
 70
   160
 71
     5
 42
-1.0
  3
Standard
100
AcDbAlignedDimension
 13
-10.28868398879604
 23
-294.3772941701123
 33
0.0
 14
-8.488095499659721
 24
-254.1999999999999
 34
0.0
 50
270.0
100
AcDbRotatedDimension
1001
ACAD
1000
DSTYLE
1002
{
1070
    41
1040
10.0
1070
   289
1070
     1
1070
   342
1005
8E
1070
   271
1070
     0
1070
    44
1040
20.0
1070
    42
1040
20.0
1070
   147
1040
10.0
1070
    77
1070
     1
1070
   272
1070
     0
1070
    73
1070
     0
1070
   174
1070
     1
1070
   172
1070
     1
1070
    74
1070
     0
1070
   340
1005
8D
1070
   140
1040
59.87602499736759
1070
   284
1070
     1
1070
    78
1070
     8
1070
   345
1005
16
1070
   346
1005
14
1002
}
1001
ACAD_DSTYLE_DIM_LINETYPE
1070
   380
1005
16
1001
ACAD_DSTYLE_DIM_EXT1_LINETYPE
1070
   381
1005
14
1001
ACAD_DSTYLE_DIMFLIPARROW_SYMBOL
1070
   385
1070
     0
1001
ACAD_DSTYLE_DIMFLIPARROW_WHICH_SYMBOL
1070
   386
1070
     3
  0
DIMENSION
  5
BE
330
1F
100
AcDbEntity
  8
SIZE
  6
Continuous
100
AcDbDimension
  2
*D10
 10
466.8555300951202
 20
-253.2
 30
0.0
 11
413.9744570970733
 21
-206.4142857142857
 31
0.0
 70
   160
 71
     5
 42
-1.0
  3
Standard
100
AcDbAlignedDimension
 13
-5.843468091478824
 23
-294.3772941701123
 33
0.0
 14
-3.198688209848112
 24
-253.2
 34
0.0
 50
270.0
100
AcDbRotatedDimension
1001
ACAD
1000
DSTYLE
1002
{
1070
    41
1040
10.0
1070
   289
1070
     1
1070
   342
1005
8E
1070
   271
1070
     0
1070
    44
1040
20.0
1070
    42
1040
20.0
1070
   147
1040
10.0
1070
    77
1070
     1
1070
   272
1070
     0
1070
    73
1070
     0
1070
   174
1070
     1
1070
   172
1070
     1
1070
    74
1070
     0
1070
   340
1005
8D
1070
   140
1040
58.99705014749263
1070
   284
1070
     1
1070
    78
1070
     8
1070
   345
1005
16
1070
   346
1005
14
1002
}
1001
ACAD_DSTYLE_DIM_LINETYPE
1070
   380
1005
16
1001
ACAD_DSTYLE_DIM_EXT1_LINETYPE
1070
   381
1005
14
1001
ACAD_DSTYLE_DIMFLIPARROW_SYMBOL
1070
   385
1070
     0
1001
ACAD_DSTYLE_DIMFLIPARROW_WHICH_SYMBOL
1070
   386
1070
     3
  0
DIMENSION
  5
C9
330
1F
100
AcDbEntity
  8
SIZE
  6
Continuous
100
AcDbDimension
  2
*D11
 10
-538.0018738116206
 20
-294.5757316700626
 30
0.0
 11
-593.9715469683589
 21
-147.2879088987248
 31
0.0
 70
    32
 71
     5
 42
-1.0
  3
Standard
100
AcDbAlignedDimension
 13
-5.42995517495092
 23
-0.0000861273870782
 33
0.0
 14
-97.08907807360104
 24
-294.5757316700627
 34
0.0
 50
90.0
100
AcDbRotatedDimension
1001
ACAD
1000
DSTYLE
1002
{
1070
    41
1040
10.0
1070
   289
1070
     1
1070
   342
1005
8E
1070
   271
1070
     0
1070
    44
1040
20.0
1070
    42
1040
20.0
1070
   147
1040
10.0
1070
    77
1070
     1
1070
   272
1070
     0
1070
    73
1070
     0
1070
   174
1070
     1
1070
   172
1070
     1
1070
    74
1070
     0
1070
   340
1005
8D
1070
   140
1040
63.24222245919755
1070
   284
1070
     1
1070
    78
1070
     8
1070
   345
1005
16
1070
   346
1005
14
1002
}
1001
ACAD_DSTYLE_DIM_LINETYPE
1070
   380
1005
16
1001
ACAD_DSTYLE_DIM_EXT1_LINETYPE
1070
   381
1005
14
  0
LINE
  5
D3
330
1F
100
AcDbEntity
  8
DETAIL
 62
     5
370
    18
100
AcDbLine
 10
-362.7831101252332
 20
-42.07348699577493
 30
0.0
 11
-364.03574684367
 21
-42.92304754243764
 31
0.0
  0
LINE
  5
D4
330
1F
100
AcDbEntity
  8
DETAIL
 62
     5
370
    18
100
AcDbLine
 10
-361.4877542227792
 20
-41.22099811794993
 30
0.0
 11
-362.7831101252332
 21
-42.07348699577493
 31
0.0
  0
LINE
  5
D5
330
1F
100
AcDbEntity
  8
DETAIL
 62
     5
370
    18
100
AcDbLine
 10
-360.1296975824937
 20
-40.36799247580204
 30
0.0
 11
-361.4877542227792
 21
-41.22099811794993
 31
0.0
  0
LINE
  5
D6
330
1F
100
AcDbEntity
  8
DETAIL
 62
     5
370
    18
100
AcDbLine
 10
-358.715830395347
 20
-39.50602958539258
 30
0.0
 11
-360.1296975824937
 21
-40.36799247580204
 31
0.0
  0
LINE
  5
D7
330
1F
100
AcDbEntity
  8
DETAIL
 62
     5
370
    18
100
AcDbLine
 10
-357.26475617696
 20
-38.65371296234179
 30
0.0
 11
-358.715830395347
 21
-39.50602958539258
 31
0.0
  0
LINE
  5
D8
330
1F
100
AcDbEntity
  8
DETAIL
 62
     5
370
    18
100
AcDbLine
 10
-377.851957777716
 20
-48.237451837984
 30
0.0
 11
-377.8705612933363
 21
-48.24709810534267
 31
0.0
  0
LINE
  5
D9
330
1F
100
AcDbEntity
  8
DETAIL
 62
     5
370
    18
100
AcDbLine
 10
-340.2797464155812
 20
-30.76926743479897
 30
0.0
 11
-320.3126620021702
 21
-19.24490627231546
 31
0.0
  0
LINE
  5
DA
330
1F
100
AcDbEntity
  8
DETAIL
 62
     5
370
    18
100
AcDbLine
 10
-355.7454690679648
 20
-37.80759751116438
 30
0.0
 11
-357.26475617696
 21
-38.65371296234179
 31
0.0
  0
LINE
  5
DB
330
1F
100
AcDbEntity
  8
DETAIL
 62
     5
370
    18
100
AcDbLine
 10
-377.8085495746018
 20
-48.21264715049011
 30
0.0
 11
-377.851957777716
 21
-48.237451837984
 31
0.0
  0
LINE
  5
DC
330
1F
100
AcDbEntity
  8
DETAIL
 62
     5
370
    18
100
AcDbLine
 10
-354.3254007089447
 20
-37.03865219885666
 30
0.0
 11
-355.7454690679648
 21
-37.80759751116438
 31
0.0
  0
LINE
  5
DD
330
1F
100
AcDbEntity
  8
DETAIL
 62
     5
370
    18
100
AcDbLine
 10
-347.0824319607554
 20
-33.18427936995914
 30
0.0
 11
-353.4634378185352
 21
-36.58252155660954
 31
0.0
  0
LINE
  5
DE
330
1F
100
AcDbEntity
  8
DETAIL
 62
     5
370
    18
100
AcDbLine
 10
-353.4634378185352
 20
-36.58252155660954
 30
0.0
 11
-354.3254007089447
 21
-37.03865219885666
 31
0.0
  0
LINE
  5
DF
330
1F
100
AcDbEntity
  8
DETAIL
 62
     5
370
    18
100
AcDbLine
 10
-377.7651413714875
 20
-48.19404363486984
 30
0.0
 11
-377.8085495746018
 21
-48.21264715049011
 31
0.0
  0
LINE
  5
E0
330
1F
100
AcDbEntity
  8
DETAIL
 62
     5
370
    18
100
AcDbLine
 10
-377.7651413714875
 20
-48.19404363486984
 30
0.0
 11
-369.083500748658
 21
-44.14192232511896
 31
0.0
  0
LINE
  5
E1
330
1F
100
AcDbEntity
  8
DETAIL
 62
     5
370
    18
100
AcDbLine
 10
-378.2116257463761
 20
-48.55991277540335
 30
0.0
 11
-378.9557663711899
 21
-49.5369418550203
 31
0.0
  0
LINE
  5
E2
330
1F
100
AcDbEntity
  8
DETAIL
 62
     5
370
    18
100
AcDbLine
 10
-326.4828280162527
 20
-259.0126999949256
 30
0.0
 11
-326.4766268443791
 21
-259.0995164011539
 31
0.0
  0
LINE
  5
E3
330
1F
100
AcDbEntity
  8
DETAIL
 62
     5
370
    18
100
AcDbLine
 10
-325.9681307507563
 20
-268.6582783345281
 30
0.0
 11
-325.9619295788831
 21
-268.7113328050009
 31
0.0
  0
LINE
  5
E4
330
1F
100
AcDbEntity
  8
DETAIL
 62
     5
370
    18
100
AcDbLine
 10
-326.4766268443791
 20
-259.0995164011539
 30
0.0
 11
-326.4766268443791
 21
-259.1119187449008
 31
0.0
  0
LINE
  5
E5
330
1F
100
AcDbEntity
  8
DETAIL
 62
     5
370
    18
100
AcDbLine
 10
-326.1293612194661
 20
-265.6135029446643
 30
0.0
 11
-325.9681307507563
 21
-268.6582783345281
 31
0.0
  0
LINE
  5
E6
330
1F
100
AcDbEntity
  8
DETAIL
 62
     5
370
    18
100
AcDbLine
 10
-326.2161776256944
 20
-263.9949970856939
 30
0.0
 11
-326.1293612194661
 21
-265.6259052884112
 31
0.0
  0
LINE
  5
E7
330
1F
100
AcDbEntity
  8
DETAIL
 62
     5
370
    18
100
AcDbLine
 10
-326.3029940319227
 20
-262.3365281190947
 30
0.0
 11
-326.2161776256944
 21
-263.9949970856939
 31
0.0
  0
LINE
  5
E8
330
1F
100
AcDbEntity
  8
DETAIL
 62
     5
370
    18
100
AcDbLine
 10
-326.4766268443791
 20
-259.1119187449008
 30
0.0
 11
-326.3029940319227
 21
-262.3454853673564
 31
0.0
  0
LINE
  5
E9
330
1F
100
AcDbEntity
  8
DETAIL
 62
     5
370
    18
100
AcDbLine
 10
-329.1431307499625
 20
-255.2237839802478
 30
0.0
 11
-329.0811190312281
 21
-256.7775220440955
 31
0.0
  0
LINE
  5
EA
330
1F
100
AcDbEntity
  8
DETAIL
 62
     5
370
    18
100
AcDbLine
 10
-329.229947156191
 20
-250.0492505614026
 30
0.0
 11
-329.1431307499625
 21
-255.2237839802478
 31
0.0
  0
LINE
  5
EB
330
1F
100
AcDbEntity
  8
DETAIL
 62
     5
370
    18
100
AcDbLine
 10
-319.3948885648997
 20
-271.3344285074702
 30
0.0
 11
-319.3948885648997
 21
-271.2317646620097
 31
0.0
  0
LINE
  5
EC
330
1F
100
AcDbEntity
  8
DETAIL
 62
     5
370
    18
100
AcDbLine
 10
-379.1976120742546
 20
-215.6058749189718
 30
0.0
 11
-379.1976120742546
 21
-50.25903386872852
 31
0.0
  0
LINE
  5
ED
330
1F
100
AcDbEntity
  8
DETAIL
 62
     5
370
    18
100
AcDbLine
 10
-379.1976120742546
 20
-50.25903386872852
 30
0.0
 11
-379.1976120742546
 21
-50.23698525762307
 31
0.0
  0
LINE
  5
EE
330
1F
100
AcDbEntity
  8
DETAIL
 62
     5
370
    18
100
AcDbLine
 10
-304.798018993896
 20
-263.3686787264756
 30
0.0
 11
-304.9964564938464
 21
-268.9159714768248
 31
0.0
  0
LINE
  5
EF
330
1F
100
AcDbEntity
  8
DETAIL
 62
     5
370
    18
100
AcDbLine
 10
-379.1976120742546
 20
-50.25903386872852
 30
0.0
 11
-379.191410902381
 21
-50.14121160313306
 31
0.0
  0
LINE
  5
F0
330
1F
100
AcDbEntity
  8
DETAIL
 62
     5
370
    18
100
AcDbLine
 10
-379.1976120742546
 20
-50.23698525762307
 30
0.0
 11
-379.191410902381
 21
-50.14121160313306
 31
0.0
  0
POINT
  5
F1
330
1F
100
AcDbEntity
  8
DETAIL
 62
     5
370
    18
100
AcDbPoint
 10
-324.6100741104708
 20
-270.2767841934985
 30
0.0
  0
LINE
  5
F2
330
1F
100
AcDbEntity
  8
DETAIL
 62
     5
370
    18
100
AcDbLine
 10
-324.6038729385973
 20
-270.2643818497516
 30
0.0
 11
-324.6100741104708
 21
-270.2767841934985
 31
0.0
  0
LINE
  5
F3
330
1F
100
AcDbEntity
  8
DETAIL
 62
     5
370
    18
100
AcDbLine
 10
-123.7410257665908
 20
-293.7227260279148
 30
0.0
 11
-123.7410257665908
 21
-293.6455558890452
 31
0.0
  0
LINE
  5
F4
330
1F
100
AcDbEntity
  8
DETAIL
 62
     5
370
    18
100
AcDbLine
 10
-2.982849798516553
 20
-291.7852043270102
 30
0.0
 11
-2.989050970390053
 21
-291.7852043270102
 31
0.0
  0
POINT
  5
F5
330
1F
100
AcDbEntity
  8
DETAIL
 62
     5
370
    18
100
AcDbPoint
 10
-95.68830224929845
 20
-294.3772941701123
 30
0.0
  0
LINE
  5
F6
330
1F
100
AcDbEntity
  8
DETAIL
 62
     5
370
    18
100
AcDbLine
 10
-95.68830224929845
 20
-294.3772941701123
 30
0.0
 11
-2.908435736035243
 21
-294.3772941701123
 31
0.0
  0
LINE
  5
F7
330
1F
100
AcDbEntity
  8
DETAIL
 62
     5
370
    18
100
AcDbLine
 10
-316.8276034092914
 20
-272.1963913978797
 30
0.0
 11
-317.8259920809169
 21
-272.1777878822593
 31
0.0
  0
LINE
  5
F8
330
1F
100
AcDbEntity
  8
DETAIL
 62
     5
370
    18
100
AcDbLine
 10
-129.2476663902141
 20
-293.5339347953231
 30
0.0
 11
-123.7410257665908
 21
-293.7227260279148
 31
0.0
  0
LINE
  5
F9
330
1F
100
AcDbEntity
  8
DETAIL
 62
     5
370
    18
100
AcDbLine
 10
-319.9343905178898
 20
-271.1421921793932
 30
0.0
 11
-319.6119295804704
 21
-271.1918015543808
 31
0.0
  0
LINE
  5
FA
330
1F
100
AcDbEntity
  8
DETAIL
 62
     5
370
    18
100
AcDbLine
 10
-317.9624178621327
 20
-272.1557392711538
 30
0.0
 11
-317.8259920809169
 21
-272.1777878822593
 31
0.0
  0
LINE
  5
FB
330
1F
100
AcDbEntity
  8
DETAIL
 62
     5
370
    18
100
AcDbLine
 10
-319.6181307523439
 20
-271.1918015543808
 30
0.0
 11
-319.3948885648997
 21
-271.2317646620097
 31
0.0
  0
LINE
  5
FC
330
1F
100
AcDbEntity
  8
DETAIL
 62
     5
370
    18
100
AcDbLine
 10
-324.6348787979646
 20
-270.270583021625
 30
0.0
 11
-324.6100741104708
 21
-270.2767841934985
 31
0.0
  0
LINE
  5
FD
330
1F
100
AcDbEntity
  8
DETAIL
 62
     5
370
    18
100
AcDbLine
 10
-324.6844881729521
 20
-270.25542460149
 30
0.0
 11
-324.6348787979646
 21
-270.270583021625
 31
0.0
  0
LINE
  5
FE
330
1F
100
AcDbEntity
  8
DETAIL
 62
     5
370
    18
100
AcDbLine
 10
-319.041421768113
 20
-271.8022724743672
 30
0.0
 11
-317.9624178621327
 21
-272.1557392711538
 31
0.0
  0
LINE
  5
FF
330
1F
100
AcDbEntity
  8
DETAIL
 62
     5
370
    18
100
AcDbLine
 10
-324.8271151260415
 20
-270.214772474764
 30
0.0
 11
-324.6844881729521
 21
-270.25542460149
 31
0.0
  0
LINE
  5
100
330
1F
100
AcDbEntity
  8
DETAIL
 62
     5
370
    18
100
AcDbLine
 10
-325.0875643447264
 20
-270.0941941327803
 30
0.0
 11
-324.8209139541682
 21
-270.214772474764
 31
0.0
  0
LINE
  5
101
330
1F
100
AcDbEntity
  8
DETAIL
 62
     5
370
    18
100
AcDbLine
 10
-325.3356112196643
 20
-269.9329636640706
 30
0.0
 11
-325.0937655165999
 21
-270.0879929609068
 31
0.0
  0
LINE
  5
102
330
1F
100
AcDbEntity
  8
DETAIL
 62
     5
370
    18
100
AcDbLine
 10
-325.5340487196149
 20
-269.7496845842553
 30
0.0
 11
-325.3356112196643
 21
-269.9329636640706
 31
0.0
  0
LINE
  5
103
330
1F
100
AcDbEntity
  8
DETAIL
 62
     5
370
    18
100
AcDbLine
 10
-328.9446932500123
 20
-257.1061841533884
 30
0.0
 11
-328.2749666876796
 21
-257.7972703077295
 31
0.0
  0
LINE
  5
104
330
1F
100
AcDbEntity
  8
DETAIL
 62
     5
370
    18
100
AcDbLine
 10
-325.6952791883246
 20
-269.5512470843048
 30
0.0
 11
-325.5278475477414
 21
-269.759330851614
 31
0.0
  0
LINE
  5
105
330
1F
100
AcDbEntity
  8
DETAIL
 62
     5
370
    18
100
AcDbLine
 10
-325.8255037976669
 20
-269.3156025531138
 30
0.0
 11
-325.6952791883246
 21
-269.5512470843048
 31
0.0
  0
LINE
  5
106
330
1F
100
AcDbEntity
  8
DETAIL
 62
     5
370
    18
100
AcDbLine
 10
-327.9525057502601
 20
-257.9433423563041
 30
0.0
 11
-326.7990877817986
 21
-258.0301587625324
 31
0.0
  0
LINE
  5
107
330
1F
100
AcDbEntity
  8
DETAIL
 62
     5
370
    18
100
AcDbLine
 10
-326.7990877817986
 20
-258.0301587625324
 30
0.0
 11
-326.7866854380518
 21
-258.0515183545409
 31
0.0
  0
LINE
  5
108
330
1F
100
AcDbEntity
  8
DETAIL
 62
     5
370
    18
100
AcDbLine
 10
-326.7866854380518
 20
-258.0515183545409
 30
0.0
 11
-326.7060702036967
 21
-258.2251511669975
 31
0.0
  0
LINE
  5
109
330
1F
100
AcDbEntity
  8
DETAIL
 62
     5
370
    18
100
AcDbLine
 10
-326.7060702036967
 20
-258.2251511669975
 30
0.0
 11
-326.6254549693422
 21
-258.411186323201
 31
0.0
  0
LINE
  5
10A
330
1F
100
AcDbEntity
  8
DETAIL
 62
     5
370
    18
100
AcDbLine
 10
-325.9061190320216
 20
-269.0799580219227
 30
0.0
 11
-325.8255037976669
 21
-269.3156025531138
 31
0.0
  0
LINE
  5
10B
330
1F
100
AcDbEntity
  8
DETAIL
 62
     5
370
    18
100
AcDbLine
 10
-326.6254549693422
 20
-258.411186323201
 30
0.0
 11
-326.5572420787338
 21
-258.6006665748898
 31
0.0
  0
LINE
  5
10C
330
1F
100
AcDbEntity
  8
DETAIL
 62
     5
370
    18
100
AcDbLine
 10
-326.5572420787338
 20
-258.6006665748898
 30
0.0
 11
-326.5076327037464
 21
-258.8053052467136
 31
0.0
  0
LINE
  5
10D
330
1F
100
AcDbEntity
  8
DETAIL
 62
     5
370
    18
100
AcDbLine
 10
-325.9309237195157
 20
-268.986940443821
 30
0.0
 11
-325.9061190320216
 21
-269.0799580219227
 31
0.0
  0
LINE
  5
10E
330
1F
100
AcDbEntity
  8
DETAIL
 62
     5
370
    18
100
AcDbLine
 10
-325.9309237195157
 20
-268.986940443821
 30
0.0
 11
-325.9061190320216
 21
-269.0737568500493
 31
0.0
  0
LINE
  5
10F
330
1F
100
AcDbEntity
  8
DETAIL
 62
     5
370
    18
100
AcDbLine
 10
-325.937124891389
 20
-268.9221726486983
 30
0.0
 11
-325.9309237195157
 21
-268.986940443821
 31
0.0
  0
LINE
  5
110
330
1F
100
AcDbEntity
  8
DETAIL
 62
     5
370
    18
100
AcDbLine
 10
-325.9619295788831
 20
-268.7051316331275
 30
0.0
 11
-325.9557284070092
 21
-268.8133076313643
 31
0.0
  0
LINE
  5
111
330
1F
100
AcDbEntity
  8
DETAIL
 62
     5
370
    18
100
AcDbLine
 10
-325.9557284070092
 20
-268.8133076313643
 30
0.0
 11
-325.9557284070092
 21
-268.822953898723
 31
0.0
  0
LINE
  5
112
330
1F
100
AcDbEntity
  8
DETAIL
 62
     5
370
    18
100
AcDbLine
 10
-325.9557284070092
 20
-268.822953898723
 30
0.0
 11
-325.937124891389
 21
-268.9283738205717
 31
0.0
  0
LINE
  5
113
330
1F
100
AcDbEntity
  8
DETAIL
 62
     5
370
    18
100
AcDbLine
 10
-326.5076327037464
 20
-258.8053052467136
 30
0.0
 11
-326.4828280162527
 21
-259.0126999949256
 31
0.0
  0
LINE
  5
114
330
1F
100
AcDbEntity
  8
DETAIL
 62
     5
370
    18
100
AcDbLine
 10
-95.68830224929845
 20
-294.3772941701123
 30
0.0
 11
-95.68830224929845
 21
-294.0796379201866
 31
0.0
  0
LINE
  5
115
330
1F
100
AcDbEntity
  8
DETAIL
 62
     5
370
    18
100
AcDbLine
 10
-2.989050970390053
 20
-291.7603996395165
 30
0.0
 11
-2.989050970390053
 21
-289.3915519838587
 31
0.0
  0
LINE
  5
116
330
1F
100
AcDbEntity
  8
DETAIL
 62
     5
370
    18
100
AcDbLine
 10
-2.989050970390053
 20
-289.3915519838587
 30
0.0
 11
-0.7070197209604885
 21
-287.8688197793783
 31
0.0
  0
LINE
  5
117
330
1F
100
AcDbEntity
  8
DETAIL
 62
     5
370
    18
100
AcDbLine
 10
-2.908435736035243
 20
-294.3772941701123
 30
0.0
 11
-2.908435736035243
 21
-294.0796379201866
 31
0.0
  0
LINE
  5
118
330
1F
100
AcDbEntity
  8
DETAIL
 62
     5
370
    18
100
AcDbLine
 10
-0.0000861273872488
 20
-286.5293666547131
 30
0.0
 11
-0.0000861273872488
 21
-22.94700588076495
 31
0.0
  0
LINE
  5
119
330
1F
100
AcDbEntity
  8
DETAIL
 62
     5
370
    18
100
AcDbLine
 10
-2.964246282896056
 20
-293.1770229030512
 30
0.0
 11
-2.958045111022782
 21
-292.3867179987349
 31
0.0
  0
LINE
  5
11A
330
1F
100
AcDbEntity
  8
DETAIL
 62
     5
370
    18
100
AcDbLine
 10
-378.9495651993166
 20
-49.5369418550203
 30
0.0
 11
-378.9557663711899
 21
-49.5369418550203
 31
0.0
  0
LINE
  5
11B
330
1F
100
AcDbEntity
  8
DETAIL
 62
     5
370
    18
100
AcDbLine
 10
-379.191410902381
 20
-50.25903386872852
 30
0.0
 11
-379.1976120742546
 21
-50.25903386872852
 31
0.0
  0
SPLINE
  5
11C
330
1F
100
AcDbEntity
  8
DETAIL
 62
     5
370
    18
100
AcDbSpline
210
0.0
220
0.0
230
1.0
 70
     8
 71
     3
 72
     8
 73
     4
 74
     0
 42
0.000000001
 43
0.0000000001
 40
0.0
 40
0.0
 40
0.0
 40
0.0
 40
1.0
 40
1.0
 40
1.0
 40
1.0
 10
-164.6556687685149
 20
-2.185654703229545
 30
0.0
 10
-209.1911071254367
 20
-2.96700235928432
 30
0.0
 10
-253.6397290761302
 20
-6.135801186617013
 30
0.0
 10
-297.8403041518855
 20
-11.68895059929122
 30
0.0
  0
SPLINE
  5
11D
330
1F
100
AcDbEntity
  8
DETAIL
 62
     5
370
    18
100
AcDbSpline
210
0.0
220
0.0
230
1.0
 70
     8
 71
     3
 72
     8
 73
     4
 74
     0
 42
0.000000001
 43
0.0000000001
 40
0.0
 40
0.0
 40
0.0
 40
0.0
 40
1.0
 40
1.0
 40
1.0
 40
1.0
 10
-316.8276034092914
 20
-272.1963913978797
 30
0.0
 10
-313.126192819939
 20
-272.1963913978797
 30
0.0
 10
-309.4613002427302
 20
-271.539067179294
 30
0.0
 10
-305.9762416498515
 20
-270.2643818497516
 30
0.0
  0
SPLINE
  5
11E
330
1F
100
AcDbEntity
  8
DETAIL
 62
     5
370
    18
100
AcDbSpline
210
0.0
220
0.0
230
1.0
 70
     8
 71
     3
 72
     8
 73
     4
 74
     0
 42
0.000000001
 43
0.0000000001
 40
0.0
 40
0.0
 40
0.0
 40
0.0
 40
1.0
 40
1.0
 40
1.0
 40
1.0
 10
-324.6100741104708
 20
-270.2767841934985
 30
0.0
 10
-323.2520174701854
 20
-270.6364521621586
 30
0.0
 10
-321.8505526267859
 20
-270.9003464763287
 30
0.0
 10
-320.4552889552595
 20
-271.0677781169118
 30
0.0
  0
LINE
  5
11F
330
1F
100
AcDbEntity
  8
DETAIL
 62
     5
370
    18
100
AcDbLine
 10
-320.4552889552595
 20
-271.0677781169118
 30
0.0
 11
-320.2754549709295
 21
-271.0925828044056
 31
0.0
  0
LINE
  5
120
330
1F
100
AcDbEntity
  8
DETAIL
 62
     5
370
    18
100
AcDbLine
 10
-320.2754549709295
 20
-271.0925828044056
 30
0.0
 11
-319.9343905178898
 21
-271.1421921793932
 31
0.0
  0
SPLINE
  5
121
330
1F
100
AcDbEntity
  8
DETAIL
 62
     5
370
    18
100
AcDbSpline
210
0.0
220
0.0
230
1.0
 70
     8
 71
     3
 72
     8
 73
     4
 74
     0
 42
0.000000001
 43
0.0000000001
 40
0.0
 40
0.0
 40
0.0
 40
0.0
 40
1.0
 40
1.0
 40
1.0
 40
1.0
 10
-305.9762416498515
 20
-270.2643818497516
 30
0.0
 10
-305.3995326656209
 20
-270.0569871015396
 30
0.0
 10
-305.0088588375934
 20
-269.5174851485494
 30
0.0
 10
-304.9964564938464
 20
-268.9159714768248
 30
0.0
  0
SPLINE
  5
122
330
1F
100
AcDbEntity
  8
DETAIL
 62
     5
370
    18
100
AcDbSpline
210
0.0
220
0.0
230
1.0
 70
     8
 71
     3
 72
     8
 73
     4
 74
     0
 42
0.000000001
 43
0.0000000001
 40
0.0
 40
0.0
 40
0.0
 40
0.0
 40
1.0
 40
1.0
 40
1.0
 40
1.0
 10
-328.2749666876796
 20
-257.7972703077295
 30
0.0
 10
-328.1881502814513
 20
-257.8813306375696
 30
0.0
 10
-328.0765291877292
 20
-257.9336960889454
 30
0.0
 10
-327.9525057502601
 20
-257.9433423563041
 30
0.0
  0
SPLINE
  5
123
330
1F
100
AcDbEntity
  8
DETAIL
 62
     5
370
    18
100
AcDbSpline
210
0.0
220
0.0
230
1.0
 70
     8
 71
     3
 72
     8
 73
     4
 74
     0
 42
0.000000001
 43
0.0000000001
 40
0.0
 40
0.0
 40
0.0
 40
0.0
 40
1.0
 40
1.0
 40
1.0
 40
1.0
 10
-319.3948885648997
 20
-271.3344285074702
 30
0.0
 10
-319.3948885648997
 20
-271.5452683511675
 30
0.0
 10
-319.2522616118103
 20
-271.7375046792444
 30
0.0
 10
-319.041421768113
 20
-271.8022724743672
 30
0.0
  0
SPLINE
  5
124
330
1F
100
AcDbEntity
  8
DETAIL
 62
     5
370
    18
100
AcDbSpline
210
0.0
220
0.0
230
1.0
 70
     8
 71
     3
 72
     8
 73
     4
 74
     0
 42
0.000000001
 43
0.0000000001
 40
0.0
 40
0.0
 40
0.0
 40
0.0
 40
1.0
 40
1.0
 40
1.0
 40
1.0
 10
-329.0811190312281
 20
-256.7775220440955
 30
0.0
 10
-329.0811190312281
 20
-256.9043015579527
 30
0.0
 10
-329.0315096562407
 20
-257.0159226516748
 30
0.0
 10
-328.9446932500123
 20
-257.1061841533884
 30
0.0
  0
SPLINE
  5
125
330
1F
100
AcDbEntity
  8
DETAIL
 62
     5
370
    18
100
AcDbSpline
210
0.0
220
0.0
230
1.0
 70
     8
 71
     3
 72
     8
 73
     4
 74
     0
 42
0.000000001
 43
0.0000000001
 40
0.0
 40
0.0
 40
0.0
 40
0.0
 40
1.0
 40
1.0
 40
1.0
 40
1.0
 10
-243.2651685318488
 20
-289.4253139196142
 30
0.0
 10
-243.1659497818734
 20
-289.4597648744666
 30
0.0
 10
-243.0605298600249
 20
-289.4811244664752
 30
0.0
 10
-242.9551099381763
 20
-289.4811244664752
 30
0.0
  0
SPLINE
  5
126
330
1F
100
AcDbEntity
  8
DETAIL
 62
     5
370
    18
100
AcDbSpline
210
0.0
220
0.0
230
1.0
 70
     8
 71
     3
 72
     8
 73
     4
 74
     0
 42
0.000000001
 43
0.0000000001
 40
0.0
 40
0.0
 40
0.0
 40
0.0
 40
1.0
 40
1.0
 40
1.0
 40
1.0
 10
-129.7871683432042
 20
-293.4409172172213
 30
0.0
 10
-129.6135355307476
 20
-293.4994838404707
 30
0.0
 10
-129.4275003745442
 20
-293.5277336234496
 30
0.0
 10
-129.2476663902141
 20
-293.5339347953231
 30
0.0
  0
SPLINE
  5
127
330
1F
100
AcDbEntity
  8
DETAIL
 62
     5
370
    18
100
AcDbSpline
210
0.0
220
0.0
230
1.0
 70
     8
 71
     3
 72
     8
 73
     4
 74
     0
 42
0.000000001
 43
0.0000000001
 40
0.0
 40
0.0
 40
0.0
 40
0.0
 40
1.0
 40
1.0
 40
1.0
 40
1.0
 10
-0.7070197209604885
 20
-287.8688197793783
 30
0.0
 10
-0.2667365179454464
 20
-287.5684074530645
 30
0.0
 10
-0.0000861273872488
 20
-287.0723137031885
 30
0.0
 10
-0.0000861273872488
 20
-286.5293666547131
 30
0.0
  0
SPLINE
  5
128
330
1F
100
AcDbEntity
  8
DETAIL
 62
     5
370
    18
100
AcDbSpline
210
0.0
220
0.0
230
1.0
 70
     8
 71
     3
 72
     8
 73
     4
 74
     0
 42
0.000000001
 43
0.0000000001
 40
0.0
 40
0.0
 40
0.0
 40
0.0
 40
1.0
 40
1.0
 40
1.0
 40
1.0
 10
-2.958045111022782
 20
-292.3867179987349
 30
0.0
 10
-2.958045111022782
 20
-292.3398647001355
 30
0.0
 10
-2.964246282896056
 20
-292.2840541532744
 30
0.0
 10
-2.970447454769555
 20
-292.2316887018987
 30
0.0
  0
SPLINE
  5
129
330
1F
100
AcDbEntity
  8
DETAIL
 62
     5
370
    18
100
AcDbSpline
210
0.0
220
0.0
230
1.0
 70
     8
 71
     3
 72
     8
 73
     4
 74
     0
 42
0.000000001
 43
0.0000000001
 40
0.0
 40
0.0
 40
0.0
 40
0.0
 40
1.0
 40
1.0
 40
1.0
 40
1.0
 10
-297.8403041518855
 20
-11.68895059929122
 30
0.0
 10
-305.7592006342807
 20
-12.68423868497996
 30
0.0
 10
-313.4114467261178
 20
-15.25135158581389
 30
0.0
 10
-320.3126620021702
 20
-19.24490627231546
 30
0.0
  0
SPLINE
  5
12A
330
1F
100
AcDbEntity
  8
DETAIL
 62
     5
370
    18
100
AcDbSpline
210
0.0
220
0.0
230
1.0
 70
     8
 71
     3
 72
     8
 73
     4
 74
     0
 42
0.000000001
 43
0.0000000001
 40
0.0
 40
0.0
 40
0.0
 40
0.0
 40
1.0
 40
1.0
 40
1.0
 40
1.0
 10
-345.36470735181
 20
-32.68198444820967
 30
0.0
 10
-345.9662210235347
 20
-32.72883774680901
 30
0.0
 10
-346.5553323515123
 20
-32.90247055926562
 30
0.0
 10
-347.0824319607554
 20
-33.18427936995914
 30
0.0
  0
SPLINE
  5
12B
330
1F
100
AcDbEntity
  8
DETAIL
 62
     5
370
    18
100
AcDbSpline
210
0.0
220
0.0
230
1.0
 70
     8
 71
     3
 72
     8
 73
     4
 74
     0
 42
0.000000001
 43
0.0000000001
 40
0.0
 40
0.0
 40
0.0
 40
0.0
 40
1.0
 40
1.0
 40
1.0
 40
1.0
 10
-378.9557663711899
 20
-49.5369418550203
 30
0.0
 10
-379.0859909805324
 20
-49.713330743865
 30
0.0
 10
-379.1666062148872
 20
-49.92761568304757
 30
0.0
 10
-379.191410902381
 20
-50.14121160313306
 30
0.0
  0
SPLINE
  5
12C
330
1F
100
AcDbEntity
  8
DETAIL
 62
     5
370
    18
100
AcDbSpline
210
0.0
220
0.0
230
1.0
 70
     8
 71
     3
 72
     8
 73
     4
 74
     0
 42
0.000000001
 43
0.0000000001
 40
0.0
 40
0.0
 40
0.0
 40
0.0
 40
1.0
 40
1.0
 40
1.0
 40
1.0
 10
-377.7651413714875
 20
-48.19404363486984
 30
0.0
 10
-377.9449753558176
 20
-48.27810396470994
 30
0.0
 10
-378.0938034807805
 20
-48.40212740217889
 30
0.0
 10
-378.2116257463761
 20
-48.55991277540335
 30
0.0
  0
SPLINE
  5
12D
330
1F
100
AcDbEntity
  8
DETAIL
 62
     5
370
    18
100
AcDbSpline
210
0.0
220
0.0
230
1.0
 70
     8
 71
     3
 72
     8
 73
     4
 74
     0
 42
0.000000001
 43
0.0000000001
 40
0.0
 40
0.0
 40
0.0
 40
0.0
 40
1.0
 40
1.0
 40
1.0
 40
1.0
 10
-340.2797464155812
 20
-30.76926743479897
 30
0.0
 10
-340.5836038373802
 20
-30.95185749551712
 30
0.0
 10
-340.7820413373306
 20
-31.27156235654837
 30
0.0
 10
-340.7820413373306
 20
-31.62778522972326
 30
0.0
  0
LINE
  5
12E
330
1F
100
AcDbEntity
  8
DETAIL
 62
     5
370
    18
100
AcDbLine
 10
-340.7820413373306
 20
-31.62778522972326
 30
0.0
 11
-343.7710061803334
 21
-32.53660141873213
 31
0.0
  0
LINE
  5
12F
330
1F
100
AcDbEntity
  8
DETAIL
 62
     5
370
    18
100
AcDbLine
 10
-343.7710061803334
 20
-32.53660141873213
 30
0.0
 11
-345.36470735181
 21
-32.68198444820967
 31
0.0
  0
SPLINE
  5
130
330
1F
100
AcDbEntity
  8
DETAIL
 62
     5
370
    18
100
AcDbSpline
210
0.0
220
0.0
230
1.0
 70
     8
 71
     3
 72
     8
 73
     4
 74
     0
 42
0.000000001
 43
0.0000000001
 40
0.0
 40
0.0
 40
0.0
 40
0.0
 40
1.0
 40
1.0
 40
1.0
 40
1.0
 10
-0.0000861273872488
 20
-22.94700588076495
 30
0.0
 10
-0.0000861273872488
 20
-22.12500609798434
 30
0.0
 10
-0.6636115178462206
 20
-21.45527953565176
 30
0.0
 10
-1.494568548888535
 20
-21.45527953565176
 30
0.0
  0
POINT
  5
131
330
1F
100
AcDbEntity
  8
DETAIL
 62
     5
370
    18
100
AcDbPoint
 10
-326.4766268443791
 20
-259.1119187449008
 30
0.0
  0
SPLINE
  5
132
330
1F
100
AcDbEntity
  8
DETAIL
 62
     5
370
    18
100
AcDbSpline
210
0.0
220
0.0
230
1.0
 70
     8
 71
     3
 72
     8
 73
     4
 74
     0
 42
0.000000001
 43
0.0000000001
 40
0.0
 40
0.0
 40
0.0
 40
0.0
 40
1.0
 40
1.0
 40
1.0
 40
1.0
 10
-325.8193026257936
 20
-268.9159714768248
 30
0.0
 10
-325.8441073132872
 20
-268.9221726486983
 30
0.0
 10
-325.8751131726544
 20
-268.9283738205717
 30
0.0
 10
-325.8937166882749
 20
-268.9559345844537
 30
0.0
  0
SPLINE
  5
133
330
1F
100
AcDbEntity
  8
DETAIL
 62
     5
370
    18
100
AcDbSpline
210
0.0
220
0.0
230
1.0
 70
     8
 71
     3
 72
    14
 73
    10
 74
     0
 42
0.000000001
 43
0.0000000001
 40
0.0
 40
0.0
 40
0.0
 40
0.0
 40
1.0
 40
1.0
 40
1.0
 40
2.0
 40
2.0
 40
2.0
 40
3.0
 40
3.0
 40
3.0
 40
3.0
 10
-95.68830224929845
 20
-294.0796379201866
 30
0.0
 10
-95.66969873367815
 20
-294.0796379201866
 30
0.0
 10
-95.66349756180466
 20
-294.0548332326929
 30
0.0
 10
-95.66349756180466
 20
-294.0300285451991
 30
0.0
 10
-95.65729638993118
 20
-293.974217998338
 30
0.0
 10
-95.65729638993118
 20
-293.9246086233504
 30
0.0
 10
-95.64489404618416
 20
-293.8874015921097
 30
0.0
 10
-95.64489404618416
 20
-293.7881828421345
 30
0.0
 10
-95.63869287431088
 20
-293.6855189966741
 30
0.0
 10
-95.63869287431088
 20
-293.573897902952
 30
0.0
  0
LINE
  5
134
330
1F
100
AcDbEntity
  8
DETAIL
 62
     5
370
    18
100
AcDbLine
 10
-95.63869287431088
 20
-293.573897902952
 30
0.0
 11
-95.62629053056386
 21
-293.1494621391692
 31
0.0
  0
LINE
  5
135
330
1F
100
AcDbEntity
  8
DETAIL
 62
     5
370
    18
100
AcDbLine
 10
-95.62629053056386
 20
-293.1494621391692
 30
0.0
 11
-96.17750580820393
 21
-293.1928703422833
 31
0.0
  0
SPLINE
  5
136
330
1F
100
AcDbEntity
  8
DETAIL
 62
     5
370
    18
100
AcDbSpline
210
0.0
220
0.0
230
1.0
 70
     8
 71
     3
 72
     8
 73
     4
 74
     0
 42
0.000000001
 43
0.0000000001
 40
5.0
 40
5.0
 40
5.0
 40
5.0
 40
6.0
 40
6.0
 40
6.0
 40
6.0
 10
-96.17750580820393
 20
-293.1928703422833
 30
0.0
 10
-96.7046054174473
 20
-293.242479717271
 30
0.0
 10
-97.08907807360104
 20
-293.6765617484125
 30
0.0
 10
-97.08907807360104
 20
-294.1850578420353
 30
0.0
  0
LINE
  5
137
330
1F
100
AcDbEntity
  8
DETAIL
 62
     5
370
    18
100
AcDbLine
 10
-97.08907807360104
 20
-294.1850578420353
 30
0.0
 11
-97.08907807360104
 21
-294.5757316700627
 31
0.0
  0
LINE
  5
138
330
1F
100
AcDbEntity
  8
DETAIL
 62
     5
370
    18
100
AcDbLine
 10
-97.08907807360104
 20
-294.5757316700627
 30
0.0
 11
-242.9551099381763
 21
-289.4811244664752
 31
0.0
  0
SPLINE
  5
139
330
1F
100
AcDbEntity
  8
DETAIL
 62
     5
370
    18
100
AcDbSpline
210
0.0
220
0.0
230
1.0
 70
     8
 71
     3
 72
     8
 73
     4
 74
     0
 42
0.000000001
 43
0.0000000001
 40
0.0
 40
0.0
 40
0.0
 40
0.0
 40
1.0
 40
1.0
 40
1.0
 40
1.0
 10
-2.908435736035243
 20
-294.3772941701123
 30
0.0
 10
-2.939441595402513
 20
-294.3400871388715
 30
0.0
 10
-2.939441595402513
 20
-294.3276847951246
 30
0.0
 10
-2.939441595402513
 20
-294.3118373558925
 30
0.0
  0
SPLINE
  5
13A
330
1F
100
AcDbEntity
  8
DETAIL
 62
     5
370
    18
100
AcDbSpline
210
0.0
220
0.0
230
1.0
 70
     8
 71
     3
 72
     8
 73
     4
 74
     0
 42
0.000000001
 43
0.0000000001
 40
0.0
 40
0.0
 40
0.0
 40
0.0
 40
1.0
 40
1.0
 40
1.0
 40
1.0
 10
-2.939441595402513
 20
-294.3118373558925
 30
0.0
 10
-2.951843939149283
 20
-294.194015090297
 30
0.0
 10
-2.951843939149283
 20
-294.1230461233008
 30
0.0
 10
-2.951843939149283
 20
-294.0548332326929
 30
0.0
  0
SPLINE
  5
13B
330
1F
100
AcDbEntity
  8
DETAIL
 62
     5
370
    18
100
AcDbSpline
210
0.0
220
0.0
230
1.0
 70
     8
 71
     3
 72
    11
 73
     7
 74
     0
 42
0.000000001
 43
0.0000000001
 40
0.0
 40
0.0
 40
0.0
 40
0.0
 40
1.0
 40
1.0
 40
1.0
 40
2.0
 40
2.0
 40
2.0
 40
2.0
 10
-2.951843939149283
 20
-294.0548332326929
 30
0.0
 10
-2.964246282896056
 20
-293.8253898733752
 30
0.0
 10
-2.964246282896056
 20
-293.5897453421841
 30
0.0
 10
-2.970447454769555
 20
-293.3603019828666
 30
0.0
 10
-2.982849798516553
 20
-292.8297572781381
 30
0.0
 10
-2.982849798516553
 20
-292.3088588407683
 30
0.0
 10
-2.989050970390053
 20
-291.7852043270102
 30
0.0
  0
LINE
  5
13C
330
1F
100
AcDbEntity
  8
DETAIL
 62
     5
370
    18
100
AcDbLine
 10
-164.6556687685149
 20
-2.198057046976543
 30
0.0
 11
-164.6556687685149
 21
-2.185654703229545
 31
0.0
  0
SPLINE
  5
13D
330
1F
100
AcDbEntity
  8
DETAIL
 62
     5
370
    18
100
AcDbSpline
210
0.0
220
0.0
230
1.0
 70
     8
 71
     3
 72
    11
 73
     7
 74
     0
 42
0.000000001
 43
0.0000000001
 40
0.0
 40
0.0
 40
0.0
 40
0.0
 40
1.0
 40
1.0
 40
1.0
 40
2.0
 40
2.0
 40
2.0
 40
2.0
 10
-364.03574684367
 20
-42.92304754243764
 30
0.0
 10
-364.0357476649788
 20
-42.92304811292135
 30
0.0
 10
-365.1209519215236
 20
-43.67683443461027
 30
0.0
 10
-365.1209519215236
 20
-43.67683543461027
 30
0.0
 10
-365.1209519215236
 20
-43.67683643461027
 30
0.0
 10
-365.1209519215236
 20
-43.68303510648377
 30
0.0
 10
-365.1209519215236
 20
-43.68303560648377
 30
0.0
  0
SPLINE
  5
13E
330
1F
100
AcDbEntity
  8
DETAIL
 62
     5
370
    18
100
AcDbSpline
210
0.0
220
0.0
230
1.0
 70
     8
 71
     3
 72
     8
 73
     4
 74
     0
 42
0.000000001
 43
0.0000000001
 40
2.0
 40
2.0
 40
2.0
 40
2.0
 40
3.0
 40
3.0
 40
3.0
 40
3.0
 10
-365.1209519215236
 20
-43.68303560648377
 30
0.0
 10
-365.1891648121317
 20
-43.72299871411263
 30
0.0
 10
-365.2697800464866
 20
-43.75744966896514
 30
0.0
 10
-365.3565964527147
 20
-43.76640691722679
 30
0.0
  0
LINE
  5
13F
330
1F
100
AcDbEntity
  8
DETAIL
 62
     5
370
    18
100
AcDbLine
 10
-365.3565964527147
 20
-43.76640691722679
 30
0.0
 11
-365.3627976245882
 21
-43.76640691722679
 31
0.0
  0
LINE
  5
140
330
1F
100
AcDbEntity
  8
DETAIL
 62
     5
370
    18
100
AcDbLine
 10
-365.3627976245882
 20
-43.76640691722679
 30
0.0
 11
-368.668022233137
 21
-44.03030123139699
 31
0.0
  0
SPLINE
  5
141
330
1F
100
AcDbEntity
  8
DETAIL
 62
     5
370
    18
100
AcDbSpline
210
0.0
220
0.0
230
1.0
 70
     8
 71
     3
 72
     8
 73
     4
 74
     0
 42
0.000000001
 43
0.0000000001
 40
5.0
 40
5.0
 40
5.0
 40
5.0
 40
6.0
 40
6.0
 40
6.0
 40
6.0
 10
-368.668022233137
 20
-44.03030123139699
 30
0.0
 10
-368.8044480143528
 20
-44.04890474701725
 30
0.0
 10
-368.9470749674422
 20
-44.07991060638454
 30
0.0
 10
-369.083500748658
 20
-44.14192232511896
 30
0.0
  0
LINE
  5
142
330
1F
100
AcDbEntity
  8
DETAIL
 62
     5
370
    18
100
AcDbLine
 10
-164.6556687685149
 20
-2.185654703229545
 30
0.0
 11
-27.93567639818116
 21
0.1952507866265591
 31
0.0
  0
LINE
  5
143
330
1F
100
AcDbEntity
  8
DETAIL
 62
     5
370
    18
100
AcDbLine
 10
-27.93567639818116
 20
0.1952507866265591
 30
0.0
 11
-27.9046705388139
 21
-0.5302863225670649
 31
0.0
  0
SPLINE
  5
144
330
1F
100
AcDbEntity
  8
DETAIL
 62
     5
370
    18
100
AcDbSpline
210
0.0
220
0.0
230
1.0
 70
     8
 71
     3
 72
     8
 73
     4
 74
     0
 42
0.000000001
 43
0.0000000001
 40
2.0
 40
2.0
 40
2.0
 40
2.0
 40
3.0
 40
3.0
 40
3.0
 40
3.0
 10
-27.9046705388139
 20
-0.5302863225670649
 30
0.0
 10
-27.89226819506689
 20
-1.072888861493934
 30
0.0
 10
-27.44578382017858
 20
-1.497669134825116
 30
0.0
 10
-26.91248303906196
 20
-1.497669134825116
 30
0.0
  0
LINE
  5
145
330
1F
100
AcDbEntity
  8
DETAIL
 62
     5
370
    18
100
AcDbLine
 10
-26.91248303906196
 20
-1.497669134825116
 30
0.0
 11
-26.44739514855314
 21
-1.497669134825116
 31
0.0
  0
LINE
  5
146
330
1F
100
AcDbEntity
  8
DETAIL
 62
     5
370
    18
100
AcDbLine
 10
-26.44739514855314
 20
-1.497669134825116
 30
0.0
 11
-26.44739514855314
 21
-0.0000861273870782
 31
0.0
  0
LINE
  5
147
330
1F
100
AcDbEntity
  8
DETAIL
 62
     5
370
    18
100
AcDbLine
 10
-26.44739514855314
 20
-0.0000861273870782
 30
0.0
 11
-12.97293777559485
 21
-0.0000861273870782
 31
0.0
  0
LINE
  5
148
330
1F
100
AcDbEntity
  8
DETAIL
 62
     5
370
    18
100
AcDbLine
 10
-12.97293768664394
 20
-0.0000861273870782
 30
0.0
 11
-3.578162298367713
 21
-9.394517006114881
 31
0.0
  0
SPLINE
  5
149
330
1F
100
AcDbEntity
  8
DETAIL
 62
     5
370
    18
100
AcDbSpline
210
0.0
220
0.0
230
1.0
 70
     8
 71
     3
 72
     8
 73
     4
 74
     0
 42
0.000000001
 43
0.0000000001
 40
7.0
 40
7.0
 40
7.0
 40
7.0
 40
8.0
 40
8.0
 40
8.0
 40
8.0
 10
-3.578162298367713
 20
-9.394517006114881
 30
0.0
 10
-3.199890814087211
 20
-9.769687904458578
 30
0.0
 10
-2.989050970390053
 20
-10.26888224027124
 30
0.0
 10
-2.989050970390053
 20
-10.79908243545122
 30
0.0
  0
LINE
  5
14A
330
1F
100
AcDbEntity
  8
DETAIL
 62
     5
370
    18
100
AcDbLine
 10
-2.989050970390053
 20
-10.79908243545122
 30
0.0
 11
-2.989050970390053
 21
-20.8448086156655
 31
0.0
  0
SPLINE
  5
14B
330
1F
100
AcDbEntity
  8
DETAIL
 62
     5
370
    18
100
AcDbSpline
210
0.0
220
0.0
230
1.0
 70
     8
 71
     3
 72
     8
 73
     4
 74
     0
 42
0.000000001
 43
0.0000000001
 40
0.0
 40
0.0
 40
0.0
 40
0.0
 40
1.0
 40
1.0
 40
1.0
 40
1.0
 10
-2.989050970390053
 20
-20.8448086156655
 30
0.0
 10
-2.989050970390053
 20
-21.11766017809725
 30
0.0
 10
-3.212293157834209
 20
-21.32850002179452
 30
0.0
 10
-3.478943548392408
 20
-21.34090236554147
 30
0.0
  0
LINE
  5
14C
330
1F
100
AcDbEntity
  8
DETAIL
 62
     5
370
    18
100
AcDbLine
 10
-3.478943548392408
 20
-21.34090236554147
 30
0.0
 11
-4.985828313640695
 21
-21.36846312942345
 31
0.0
  0
SPLINE
  5
14D
330
1F
100
AcDbEntity
  8
DETAIL
 62
     5
370
    18
100
AcDbSpline
210
0.0
220
0.0
230
1.0
 70
     8
 71
     3
 72
    11
 73
     7
 74
     0
 42
0.000000001
 43
0.0000000001
 40
2.0
 40
2.0
 40
2.0
 40
2.0
 40
3.0
 40
3.0
 40
3.0
 40
4.0
 40
4.0
 40
4.0
 40
4.0
 10
-4.985828313640695
 20
-21.36846312942345
 30
0.0
 10
-4.985828313640695
 20
-21.36846412942345
 30
0.0
 10
-4.985828313640695
 20
-21.45527953565176
 30
0.0
 10
-4.985827313640695
 20
-21.45527953565176
 30
0.0
 10
-4.985826313640695
 20
-21.45527953565176
 30
0.0
 10
-1.494569048888535
 20
-21.45527953565176
 30
0.0
 10
-1.494568548888535
 20
-21.45527953565176
 30
0.0
  0
SPLINE
  5
14E
330
1F
100
AcDbEntity
  8
DETAIL
 62
     5
370
    18
100
AcDbSpline
210
0.0
220
0.0
230
1.0
 70
     8
 71
     3
 72
     8
 73
     4
 74
     0
 42
0.000000001
 43
0.0000000001
 40
0.0
 40
0.0
 40
0.0
 40
0.0
 40
1.0
 40
1.0
 40
1.0
 40
1.0
 10
-243.2651685318488
 20
-289.4253139196142
 30
0.0
 10
-244.403944844498
 20
-289.0022561940254
 30
0.0
 10
-245.1492912527319
 20
-288.7211364024291
 30
0.0
 10
-246.2851392342186
 20
-288.2904994667728
 30
0.0
  0
LINE
  5
14F
330
1F
100
AcDbEntity
  8
DETAIL
 62
     5
370
    18
100
AcDbLine
 10
-246.2851392342186
 20
-288.2904994667728
 30
0.0
 11
-246.3595532967001
 21
-288.3683586247395
 31
0.0
  0
SPLINE
  5
150
330
1F
100
AcDbEntity
  8
DETAIL
 62
     5
370
    18
100
AcDbSpline
210
0.0
220
0.0
230
1.0
 70
     8
 71
     3
 72
     8
 73
     4
 74
     0
 42
0.000000001
 43
0.0000000001
 40
2.0
 40
2.0
 40
2.0
 40
2.0
 40
3.0
 40
3.0
 40
3.0
 40
3.0
 10
-246.3595532967001
 20
-288.3683586247395
 30
0.0
 10
-246.5207837654098
 20
-288.581954544825
 30
0.0
 10
-246.7626294684744
 20
-288.7094230777793
 30
0.0
 10
-247.0230786871594
 20
-288.7431850135347
 30
0.0
  0
LINE
  5
151
330
1F
100
AcDbEntity
  8
DETAIL
 62
     5
370
    18
100
AcDbLine
 10
-247.0230786871594
 20
-288.7431850135347
 30
0.0
 11
-247.4261548589334
 21
-288.7927943885223
 31
0.0
  0
SPLINE
  5
152
330
1F
100
AcDbEntity
  8
DETAIL
 62
     5
370
    18
100
AcDbSpline
210
0.0
220
0.0
230
1.0
 70
     8
 71
     3
 72
    14
 73
    10
 74
     0
 42
0.000000001
 43
0.0000000001
 40
4.0
 40
4.0
 40
4.0
 40
4.0
 40
5.0
 40
5.0
 40
5.0
 40
6.0
 40
6.0
 40
6.0
 40
7.0
 40
7.0
 40
7.0
 40
7.0
 10
-247.4261548589334
 20
-288.7927943885223
 30
0.0
 10
-247.59978767139
 20
-288.8148429996278
 30
0.0
 10
-247.7610181400996
 20
-288.7927943885223
 30
0.0
 10
-247.916047436936
 20
-288.734227765273
 30
0.0
 10
-293.2390346217858
 20
-271.483256632433
 30
0.0
 10
-336.1318514513405
 20
-248.4183423586853
 30
0.0
 10
-375.5327194970456
 20
-220.1292852911048
 30
0.0
 10
-375.7063523095023
 20
-220.0052618536358
 30
0.0
 10
-375.8427780907181
 20
-219.8288729647911
 30
0.0
 10
-375.8985886375792
 20
-219.6242342929672
 30
0.0
  0
LINE
  5
153
330
1F
100
AcDbEntity
  8
DETAIL
 62
     5
370
    18
100
AcDbLine
 10
-375.8985886375792
 20
-219.6242342929672
 30
0.0
 11
-376.0350144187951
 21
-219.2025546055726
 31
0.0
  0
SPLINE
  5
154
330
1F
100
AcDbEntity
  8
DETAIL
 62
     5
370
    18
100
AcDbSpline
210
0.0
220
0.0
230
1.0
 70
     8
 71
     3
 72
     8
 73
     4
 74
     0
 42
0.000000001
 43
0.0000000001
 40
8.0
 40
8.0
 40
8.0
 40
8.0
 40
9.0
 40
9.0
 40
9.0
 40
9.0
 10
-376.0350144187951
 20
-219.2025546055726
 30
0.0
 10
-376.1218308250233
 20
-218.9421053868877
 30
0.0
 10
-376.1032273094031
 20
-218.6596075570972
 30
0.0
 10
-375.9668015281873
 20
-218.421206949518
 30
0.0
  0
LINE
  5
155
330
1F
100
AcDbEntity
  8
DETAIL
 62
     5
370
    18
100
AcDbLine
 10
-375.9668015281873
 20
-218.421206949518
 30
0.0
 11
-378.6643112931379
 21
-216.5980624187237
 31
0.0
  0
SPLINE
  5
156
330
1F
100
AcDbEntity
  8
DETAIL
 62
     5
370
    18
100
AcDbSpline
210
0.0
220
0.0
230
1.0
 70
     8
 71
     3
 72
     8
 73
     4
 74
     0
 42
0.000000001
 43
0.0000000001
 40
10.0
 40
10.0
 40
10.0
 40
10.0
 40
11.0
 40
11.0
 40
11.0
 40
11.0
 10
-378.6643112931379
 20
-216.5980624187237
 30
0.0
 10
-378.9991745743041
 20
-216.3748202312795
 30
0.0
 10
-379.1976120742546
 20
-216.0027499188725
 30
0.0
 10
-379.1976120742546
 20
-215.6058749189718
 30
0.0
  0
POINT
  5
157
330
1F
100
AcDbEntity
  8
DETAIL
 62
     5
370
    18
100
AcDbPoint
 10
-340.2983499312015
 20
-242.3039868914639
 30
0.0
  0
LINE
  5
158
330
1F
100
AcDbEntity
  8
DETAIL
 62
     5
370
    18
100
AcDbLine
 10
-343.7710061803334
 20
-47.33552583994553
 30
0.0
 11
-350.6605081317362
 21
-47.88122896480916
 31
0.0
  0
SPLINE
  5
159
330
1F
100
AcDbEntity
  8
DETAIL
 62
     5
370
    18
100
AcDbSpline
210
0.0
220
0.0
230
1.0
 70
     8
 71
     3
 72
    11
 73
     7
 74
     0
 42
0.000000001
 43
0.0000000001
 40
0.0
 40
0.0
 40
0.0
 40
0.0
 40
1.0
 40
1.0
 40
1.0
 40
2.0
 40
2.0
 40
2.0
 40
2.0
 10
-343.7710061803334
 20
-42.04868230828117
 30
0.0
 10
-344.2236917270952
 20
-42.09209051139538
 30
0.0
 10
-344.6763772738571
 20
-42.12309637076254
 30
0.0
 10
-345.1352639924924
 20
-42.15754732561509
 30
0.0
 10
-346.4809182890308
 20
-42.26296724746378
 30
0.0
 10
-347.8327737574427
 20
-42.36838716931237
 30
0.0
 10
-349.1846292258551
 20
-42.47036199567577
 30
0.0
  0
LINE
  5
15A
330
1F
100
AcDbEntity
  8
DETAIL
 62
     5
370
    18
100
AcDbLine
 10
-349.1846292258551
 20
-42.47036199567577
 30
0.0
 11
-350.2946389912026
 21
-42.55717840190406
 31
0.0
  0
SPLINE
  5
15B
330
1F
100
AcDbEntity
  8
DETAIL
 62
     5
370
    18
100
AcDbSpline
210
0.0
220
0.0
230
1.0
 70
     8
 71
     3
 72
     8
 73
     4
 74
     0
 42
0.000000001
 43
0.0000000001
 40
3.0
 40
3.0
 40
3.0
 40
3.0
 40
4.0
 40
4.0
 40
4.0
 40
4.0
 10
-350.2946389912026
 20
-42.55717840190406
 30
0.0
 10
-356.4213968021709
 20
-43.04086980803314
 30
0.0
 10
-362.547465594042
 20
-43.53076238603563
 30
0.0
 10
-368.668022233137
 20
-44.03030123139699
 30
0.0
  0
SPLINE
  5
15C
330
1F
100
AcDbEntity
  8
DETAIL
 62
     5
370
    18
100
AcDbSpline
210
0.0
220
0.0
230
1.0
 70
     8
 71
     3
 72
    20
 73
    16
 74
     0
 42
0.000000001
 43
0.0000000001
 40
0.0
 40
0.0
 40
0.0
 40
0.0
 40
1.0
 40
1.0
 40
1.0
 40
2.0
 40
2.0
 40
2.0
 40
3.0
 40
3.0
 40
3.0
 40
4.0
 40
4.0
 40
4.0
 40
5.0
 40
5.0
 40
5.0
 40
5.0
 10
-350.6977151629767
 20
-47.88743013668264
 30
0.0
 10
-351.900742506426
 20
-47.98044771478435
 30
0.0
 10
-353.1037698498753
 20
-48.07966646475954
 30
0.0
 10
-354.3254007089447
 20
-48.18164129112296
 30
0.0
 10
-355.5222268805205
 20
-48.27810396470994
 30
0.0
 10
-356.7128518802229
 20
-48.37732271468514
 30
0.0
 10
-357.9096780517986
 20
-48.46689519730166
 30
0.0
 10
-359.0754983640072
 20
-48.56955904276214
 30
0.0
 10
-360.2475198480893
 20
-48.65913152537854
 30
0.0
 10
-361.4009378165511
 20
-48.75835027535373
 30
0.0
 10
-362.5226609065482
 20
-48.85481294894077
 30
0.0
 10
-363.6574753593895
 20
-48.94162935516902
 30
0.0
 10
-364.7736862966107
 20
-49.03120183778554
 30
0.0
 10
-368.3641648113378
 20
-49.32885808771111
 30
0.0
 10
-371.9732468416855
 20
-49.62031316576325
 30
0.0
 10
-375.563725356413
 20
-49.92761568304757
 30
0.0
  0
LINE
  5
15D
330
1F
100
AcDbEntity
  8
DETAIL
 62
     5
370
    18
100
AcDbLine
 10
-375.563725356413
 20
-49.92761568304757
 30
0.0
 11
-375.7063523095023
 21
-49.93657293130929
 31
0.0
  0
SPLINE
  5
15E
330
1F
100
AcDbEntity
  8
DETAIL
 62
     5
370
    18
100
AcDbSpline
210
0.0
220
0.0
230
1.0
 70
     8
 71
     3
 72
    11
 73
     7
 74
     0
 42
0.000000001
 43
0.0000000001
 40
6.0
 40
6.0
 40
6.0
 40
6.0
 40
7.0
 40
7.0
 40
7.0
 40
8.0
 40
8.0
 40
8.0
 40
8.0
 10
-375.7063523095023
 20
-49.93657293130929
 30
0.0
 10
-376.4504929343163
 20
-50.002029745529
 30
0.0
 10
-377.1884323872569
 20
-50.06679754065164
 30
0.0
 10
-377.9077683245771
 20
-50.125364163901
 30
0.0
 10
-378.2736374651106
 20
-50.15981511875343
 30
0.0
 10
-378.6395066056442
 20
-50.19357705450881
 30
0.0
 10
-378.9991745743041
 20
-50.23698525762307
 30
0.0
  0
LINE
  5
15F
330
1F
100
AcDbEntity
  8
DETAIL
 62
     5
370
    18
100
AcDbLine
 10
-378.9991745743041
 20
-50.23698525762307
 30
0.0
 11
-379.191410902381
 21
-50.25903386872852
 31
0.0
  0
LINE
  5
160
330
1F
100
AcDbEntity
  8
DETAIL
 62
     5
370
    18
100
AcDbLine
 10
-343.7710061803334
 20
-239.1262308158695
 30
0.0
 11
-343.7710061803334
 21
-32.53660141873213
 31
0.0
  0
LINE
  5
161
330
1F
100
AcDbEntity
  8
DETAIL
 62
     5
370
    18
100
AcDbLine
 10
-340.7820413373306
 20
-31.62778522972326
 30
0.0
 11
-340.7820413373306
 21
-241.4516702684131
 31
0.0
  0
SPLINE
  5
162
330
1F
100
AcDbEntity
  8
DETAIL
 62
     5
370
    18
100
AcDbSpline
210
0.0
220
0.0
230
1.0
 70
     8
 71
     3
 72
     8
 73
     4
 74
     0
 42
0.000000001
 43
0.0000000001
 40
0.0
 40
0.0
 40
0.0
 40
0.0
 40
1.0
 40
1.0
 40
1.0
 40
1.0
 10
-332.1072909054715
 20
-45.94301824480765
 30
0.0
 10
-334.6993807485735
 20
-46.14145574475804
 30
0.0
 10
-337.2728670760551
 20
-46.39914888705464
 30
0.0
 10
-339.8456643844397
 20
-46.69680513698028
 30
0.0
  0
SPLINE
  5
163
330
1F
100
AcDbEntity
  8
DETAIL
 62
     5
370
    18
100
AcDbSpline
210
0.0
220
0.0
230
1.0
 70
     8
 71
     3
 72
    17
 73
    13
 74
     0
 42
0.000000001
 43
0.0000000001
 40
0.0
 40
0.0
 40
0.0
 40
0.0
 40
1.0
 40
1.0
 40
1.0
 40
2.0
 40
2.0
 40
2.0
 40
3.0
 40
3.0
 40
3.0
 40
4.0
 40
4.0
 40
4.0
 40
4.0
 10
-339.8456643844397
 20
-46.69680513698028
 30
0.0
 10
-339.9634866500351
 20
-46.70576238524192
 30
0.0
 10
-340.0813089156309
 20
-46.71816472898881
 30
0.0
 10
-340.2115335249732
 20
-46.75261568384138
 30
0.0
 10
-340.3107522749485
 20
-46.77742037133515
 30
0.0
 10
-340.4161721967972
 20
-46.82358465083746
 30
0.0
 10
-340.5091897748989
 20
-46.87939519769853
 30
0.0
 10
-340.5836038373802
 20
-46.92004732442449
 30
0.0
 10
-340.6456155561148
 20
-46.97585787128554
 30
0.0
 10
-340.7138284467228
 20
-47.06543035390207
 30
0.0
 10
-340.7510354779633
 20
-47.12124090076303
 30
0.0
 10
-340.7820413373306
 20
-47.19289888685625
 30
0.0
 10
-340.7820413373306
 20
-47.2673129493376
 30
0.0
  0
SPLINE
  5
164
330
1F
100
AcDbEntity
  8
DETAIL
 62
     5
370
    18
100
AcDbSpline
210
0.0
220
0.0
230
1.0
 70
     8
 71
     3
 72
    17
 73
    13
 74
     0
 42
0.000000001
 43
0.0000000001
 40
0.0
 40
0.0
 40
0.0
 40
0.0
 40
1.0
 40
1.0
 40
1.0
 40
2.0
 40
2.0
 40
2.0
 40
3.0
 40
3.0
 40
3.0
 40
4.0
 40
4.0
 40
4.0
 40
4.0
 10
-339.8952737594273
 20
-41.98391451315859
 30
0.0
 10
-340.0006936812758
 20
-41.99287176142019
 30
0.0
 10
-340.1185159468714
 20
-42.02732271627263
 30
0.0
 10
-340.236338212467
 20
-42.08313326313367
 30
0.0
 10
-340.3479593061891
 20
-42.13274263812133
 30
0.0
 10
-340.4409768842909
 20
-42.19475435685587
 30
0.0
 10
-340.5215921186457
 20
-42.29052801134577
 30
0.0
 10
-340.596006181127
 20
-42.37458834118586
 30
0.0
 10
-340.664219071735
 20
-42.47036199567577
 30
0.0
 10
-340.7138284467228
 20
-42.57922701300963
 30
0.0
 10
-340.7510354779633
 20
-42.68740301124654
 30
0.0
 10
-340.7820413373306
 20
-42.80246920045385
 30
0.0
 10
-340.7820413373306
 20
-42.90788912230254
 30
0.0
  0
LINE
  5
165
330
1F
100
AcDbEntity
  8
DETAIL
 62
     5
370
    18
100
AcDbLine
 10
-332.2995272335486
 20
-41.40703327415343
 30
0.0
 11
-339.8952737594273
 21
-41.98391451315859
 31
0.0
  0
SPLINE
  5
166
330
1F
100
AcDbEntity
  8
DETAIL
 62
     5
370
    18
100
AcDbSpline
210
0.0
220
0.0
230
1.0
 70
     8
 71
     3
 72
     8
 73
     4
 74
     0
 42
0.000000001
 43
0.0000000001
 40
0.0
 40
0.0
 40
0.0
 40
0.0
 40
1.0
 40
1.0
 40
1.0
 40
1.0
 10
-26.44739514855314
 20
-25.75269164395246
 30
0.0
 10
-71.65256006780739
 20
-27.02031452775003
 30
0.0
 10
-118.3218905682929
 20
-28.58645493534465
 30
0.0
 10
-163.4898484563064
 20
-30.81543171430138
 30
0.0
  0
LINE
  5
167
330
1F
100
AcDbEntity
  8
DETAIL
 62
     5
370
    18
100
AcDbLine
 10
-163.4898484563064
 20
-30.81543171430138
 30
0.0
 11
-164.1471726748921
 21
-30.84988266915383
 31
0.0
  0
SPLINE
  5
168
330
1F
100
AcDbEntity
  8
DETAIL
 62
     5
370
    18
100
AcDbSpline
210
0.0
220
0.0
230
1.0
 70
     8
 71
     3
 72
     8
 73
     4
 74
     0
 42
0.000000001
 43
0.0000000001
 40
2.0
 40
2.0
 40
2.0
 40
2.0
 40
3.0
 40
3.0
 40
3.0
 40
3.0
 10
-164.1471726748921
 20
-30.84988266915383
 30
0.0
 10
-207.8268493132778
 20
-33.01409165298782
 30
0.0
 10
-251.4879224360429
 20
-35.62133991622483
 30
0.0
 10
-295.117989699441
 20
-38.68747489809715
 30
0.0
  0
SPLINE
  5
169
330
1F
100
AcDbEntity
  8
DETAIL
 62
     5
370
    18
100
AcDbSpline
210
0.0
220
0.0
230
1.0
 70
     8
 71
     3
 72
     8
 73
     4
 74
     0
 42
0.000000001
 43
0.0000000001
 40
0.0
 40
0.0
 40
0.0
 40
0.0
 40
1.0
 40
1.0
 40
1.0
 40
1.0
 10
-26.44739514855314
 20
-30.784425854934
 30
0.0
 10
-71.60915186469333
 20
-32.04050766885615
 30
0.0
 10
-118.2350741620646
 20
-33.14087116684499
 30
0.0
 10
-163.359623846964
 20
-35.3643357930253
 30
0.0
  0
LINE
  5
16A
330
1F
100
AcDbEntity
  8
DETAIL
 62
     5
370
    18
100
AcDbLine
 10
-163.359623846964
 20
-35.3643357930253
 30
0.0
 11
-164.0107468936762
 21
-35.39534165239246
 31
0.0
  0
SPLINE
  5
16B
330
1F
100
AcDbEntity
  8
DETAIL
 62
     5
370
    18
100
AcDbSpline
210
0.0
220
0.0
230
1.0
 70
     8
 71
     3
 72
     8
 73
     4
 74
     0
 42
0.000000001
 43
0.0000000001
 40
2.0
 40
2.0
 40
2.0
 40
2.0
 40
3.0
 40
3.0
 40
3.0
 40
3.0
 10
-164.0107468936762
 20
-35.39534165239246
 30
0.0
 10
-207.6780211883149
 20
-37.56230671261454
 30
0.0
 10
-251.3328931392068
 20
-40.16955497585168
 30
0.0
 10
-294.9443568869845
 20
-43.22690496423667
 30
0.0
  0
LINE
  5
16C
330
1F
100
AcDbEntity
  8
DETAIL
 62
     5
370
    18
100
AcDbLine
 10
-4.985828313640695
 20
-30.8746873566476
 30
0.0
 11
-26.44739514855314
 21
-30.784425854934
 31
0.0
  0
LINE
  5
16D
330
1F
100
AcDbEntity
  8
DETAIL
 62
     5
370
    18
100
AcDbLine
 10
-26.44739514855314
 20
-25.75269164395246
 30
0.0
 11
-4.985828313640695
 21
-26.01572468425127
 31
0.0
  0
LINE
  5
16E
330
1F
100
AcDbEntity
  8
DETAIL
 62
     5
370
    18
100
AcDbLine
 10
-4.985828313640695
 20
-216.7744513075685
 30
0.0
 11
-4.985828313640695
 21
-8.805405678137161
 31
0.0
  0
SPLINE
  5
16F
330
1F
100
AcDbEntity
  8
DETAIL
 62
     5
370
    18
100
AcDbSpline
210
0.0
220
0.0
230
1.0
 70
     8
 71
     3
 72
     8
 73
     4
 74
     0
 42
0.000000001
 43
0.0000000001
 40
0.0
 40
0.0
 40
0.0
 40
0.0
 40
1.0
 40
1.0
 40
1.0
 40
1.0
 10
-4.985828313640695
 20
-8.805405678137161
 30
0.0
 10
-4.985828313640695
 20
-8.27520548295712
 30
0.0
 10
-5.196668157338081
 20
-7.769809975271072
 30
0.0
 10
-5.568738469745085
 20
-7.397739662864013
 30
0.0
  0
LINE
  5
170
330
1F
100
AcDbEntity
  8
DETAIL
 62
     5
370
    18
100
AcDbLine
 10
-5.568738469745085
 20
-7.397739662864013
 30
0.0
 11
-8.483289250266353
 21
-4.492490640152992
 31
0.0
  0
LINE
  5
171
330
1F
100
AcDbEntity
  8
DETAIL
 62
     5
370
    18
100
AcDbLine
 10
-8.483289250266353
 20
-4.492490640152992
 30
0.0
 11
-26.44739514855314
 21
-4.492490640152992
 31
0.0
  0
LINE
  5
172
330
1F
100
AcDbEntity
  8
DETAIL
 62
     5
370
    18
100
AcDbLine
 10
-3.478943548392408
 20
-13.8745191751338
 30
0.0
 11
-4.985828313640695
 21
-13.90242444856432
 31
0.0
  0
LINE
  5
173
330
1F
100
AcDbEntity
  8
DETAIL
 62
     5
370
    18
100
AcDbLine
 10
-4.985828313640695
 20
-11.63934122430368
 30
0.0
 11
-3.478943548392408
 21
-11.66414591179744
 31
0.0
  0
SPLINE
  5
174
330
1F
100
AcDbEntity
  8
DETAIL
 62
     5
370
    18
100
AcDbSpline
210
0.0
220
0.0
230
1.0
 70
     8
 71
     3
 72
     8
 73
     4
 74
     0
 42
0.000000001
 43
0.0000000001
 40
0.0
 40
0.0
 40
0.0
 40
0.0
 40
1.0
 40
1.0
 40
1.0
 40
1.0
 10
-3.478943548392408
 20
-13.8745191751338
 30
0.0
 10
-3.212293157834209
 20
-13.8745191751338
 30
0.0
 10
-2.989050970390053
 20
-13.65162149723807
 30
0.0
 10
-2.989050970390053
 20
-13.3756693488695
 30
0.0
  0
LINE
  5
175
330
1F
100
AcDbEntity
  8
DETAIL
 62
     5
370
    18
100
AcDbLine
 10
-2.989050970390053
 20
-13.3756693488695
 30
0.0
 11
-2.989050970390053
 21
-12.16023966167347
 31
0.0
  0
SPLINE
  5
176
330
1F
100
AcDbEntity
  8
DETAIL
 62
     5
370
    18
100
AcDbSpline
210
0.0
220
0.0
230
1.0
 70
     8
 71
     3
 72
     8
 73
     4
 74
     0
 42
0.000000001
 43
0.0000000001
 40
2.0
 40
2.0
 40
2.0
 40
2.0
 40
3.0
 40
3.0
 40
3.0
 40
3.0
 10
-2.989050970390053
 20
-12.16023966167347
 30
0.0
 10
-2.989050970390053
 20
-11.89668985705185
 30
0.0
 10
-3.212293157834209
 20
-11.67344766960764
 30
0.0
 10
-3.478943548392408
 20
-11.66414591179744
 30
0.0
  0
LINE
  5
177
330
1F
100
AcDbEntity
  8
DETAIL
 62
     5
370
    18
100
AcDbLine
 10
-4.985828313640695
 20
-21.36846312942345
 30
0.0
 11
-3.478943548392408
 21
-21.34090236554147
 31
0.0
  0
SPLINE
  5
178
330
1F
100
AcDbEntity
  8
DETAIL
 62
     5
370
    18
100
AcDbSpline
210
0.0
220
0.0
230
1.0
 70
     8
 71
     3
 72
     8
 73
     4
 74
     0
 42
0.000000001
 43
0.0000000001
 40
1.0
 40
1.0
 40
1.0
 40
1.0
 40
2.0
 40
2.0
 40
2.0
 40
2.0
 10
-3.478943548392408
 20
-21.34090236554147
 30
0.0
 10
-3.212293157834209
 20
-21.32850002179452
 30
0.0
 10
-2.989050970390053
 20
-21.11766017809725
 30
0.0
 10
-2.989050970390053
 20
-20.8448086156655
 30
0.0
  0
LINE
  5
179
330
1F
100
AcDbEntity
  8
DETAIL
 62
     5
370
    18
100
AcDbLine
 10
-2.989050970390053
 20
-20.8448086156655
 30
0.0
 11
-2.989050970390053
 21
-19.74995727045314
 31
0.0
  0
SPLINE
  5
17A
330
1F
100
AcDbEntity
  8
DETAIL
 62
     5
370
    18
100
AcDbSpline
210
0.0
220
0.0
230
1.0
 70
     8
 71
     3
 72
     8
 73
     4
 74
     0
 42
0.000000001
 43
0.0000000001
 40
3.0
 40
3.0
 40
3.0
 40
3.0
 40
4.0
 40
4.0
 40
4.0
 40
4.0
 10
-2.989050970390053
 20
-19.74995727045314
 30
0.0
 10
-2.989050970390053
 20
-19.47710570802138
 30
0.0
 10
-3.212293157834209
 20
-19.2511074441889
 30
0.0
 10
-3.478943548392408
 20
-19.2511074441889
 30
0.0
  0
LINE
  5
17B
330
1F
100
AcDbEntity
  8
DETAIL
 62
     5
370
    18
100
AcDbLine
 10
-3.478943548392408
 20
-19.2511074441889
 30
0.0
 11
-4.985828313640695
 21
-19.22630275669513
 31
0.0
  0
LINE
  5
17C
330
1F
100
AcDbEntity
  8
DETAIL
 62
     5
370
    18
100
AcDbLine
 10
-95.60768701494362
 20
-288.3869621403599
 30
0.0
 11
-3.906824407660451
 21
-288.3869621403599
 31
0.0
  0
LINE
  5
17D
330
1F
100
AcDbEntity
  8
DETAIL
 62
     5
370
    18
100
AcDbLine
 10
-97.08907807360104
 20
-288.5881557166984
 30
0.0
 11
-257.1061841533885
 21
-282.9953877059439
 31
0.0
  0
LINE
  5
17E
330
1F
100
AcDbEntity
  8
DETAIL
 62
     5
370
    18
100
AcDbLine
 10
-97.08907807360104
 20
-294.5757316700627
 30
0.0
 11
-97.08907807360104
 21
-223.5337286496287
 31
0.0
  0
LINE
  5
17F
330
1F
100
AcDbEntity
  8
DETAIL
 62
     5
370
    18
100
AcDbLine
 10
-95.60768701494362
 20
-223.6239901513422
 30
0.0
 11
-95.60768701494362
 21
-288.3869621403599
 31
0.0
  0
LINE
  5
180
330
1F
100
AcDbEntity
  8
DETAIL
 62
     5
370
    18
100
AcDbLine
 10
-85.61139795494273
 20
-221.952429821899
 30
0.0
 11
-86.44855615785855
 21
-223.1340975733397
 31
0.0
  0
LINE
  5
181
330
1F
100
AcDbEntity
  8
DETAIL
 62
     5
370
    18
100
AcDbLine
 10
-86.44855615785855
 20
-223.1340975733397
 30
0.0
 11
-88.12907373556345
 21
-225.5332620692677
 31
0.0
  0
LINE
  5
182
330
1F
100
AcDbEntity
  8
DETAIL
 62
     5
370
    18
100
AcDbLine
 10
-88.12907373556345
 20
-225.5332620692677
 30
0.0
 11
-83.11232568994251
 21
-225.5332620692677
 31
0.0
  0
LINE
  5
183
330
1F
100
AcDbEntity
  8
DETAIL
 62
     5
370
    18
100
AcDbLine
 10
-83.11232568994251
 20
-225.5332620692677
 30
0.0
 11
-84.79904443952093
 21
-223.1278964014663
 31
0.0
  0
LINE
  5
184
330
1F
100
AcDbEntity
  8
DETAIL
 62
     5
370
    18
100
AcDbLine
 10
-84.79904443952093
 20
-223.1278964014663
 30
0.0
 11
-85.61139795494273
 21
-221.9620760892577
 31
0.0
  0
POINT
  5
185
330
1F
100
AcDbEntity
  8
DETAIL
 62
     5
370
    18
100
AcDbPoint
 10
-95.60768701494362
 20
-223.6239901513422
 30
0.0
  0
SPLINE
  5
186
330
1F
100
AcDbEntity
  8
DETAIL
 62
     5
370
    18
100
AcDbSpline
210
0.0
220
0.0
230
1.0
 70
    24
 71
     3
 72
     8
 73
     4
 74
     0
 42
0.000000001
 43
0.0000000001
 40
0.0
 40
0.0
 40
0.0
 40
0.0
 40
1.0
 40
1.0
 40
1.0
 40
1.0
 10
-95.60768701494362
 20
-288.3869621403599
 30
0.0
 10
-95.60768701494362
 20
-289.4349601869728
 30
0.0
 10
-95.60768701494362
 20
-292.1076652644297
 30
0.0
 10
-95.60768701494362
 20
-293.1494621391692
 30
0.0
  0
SPLINE
  5
187
330
1F
100
AcDbEntity
  8
DETAIL
 62
     5
370
    18
100
AcDbSpline
210
0.0
220
0.0
230
1.0
 70
     8
 71
     3
 72
     8
 73
     4
 74
     0
 42
0.000000001
 43
0.0000000001
 40
0.0
 40
0.0
 40
0.0
 40
0.0
 40
1.0
 40
1.0
 40
1.0
 40
1.0
 10
-27.9046705388139
 20
-215.7236971845673
 30
0.0
 10
-27.91087171068739
 20
-215.7140509172086
 30
0.0
 10
-27.92327405443416
 20
-215.705093668947
 30
0.0
 10
-27.93567639818116
 20
-215.6706427140945
 30
0.0
  0
LINE
  5
188
330
1F
100
AcDbEntity
  8
DETAIL
 62
     5
370
    18
100
AcDbLine
 10
-27.93567639818116
 20
-215.6706427140945
 30
0.0
 11
-27.93567639818116
 21
-215.6492831220859
 31
0.0
  0
LINE
  5
189
330
1F
100
AcDbEntity
  8
DETAIL
 62
     5
370
    18
100
AcDbLine
 10
-27.93567639818116
 20
-215.6492831220859
 30
0.0
 11
-92.8419643593852
 21
-219.0475253087364
 31
0.0
  0
SPLINE
  5
18A
330
1F
100
AcDbEntity
  8
DETAIL
 62
     5
370
    18
100
AcDbSpline
210
0.0
220
0.0
230
1.0
 70
     8
 71
     3
 72
     8
 73
     4
 74
     0
 42
0.000000001
 43
0.0000000001
 40
0.0
 40
0.0
 40
0.0
 40
0.0
 40
1.0
 40
1.0
 40
1.0
 40
1.0
 10
-92.76755029690368
 20
-220.6315802128542
 30
0.0
 10
-94.35505029650675
 20
-220.7218417145678
 30
0.0
 10
-95.60768701494362
 20
-222.0330450562538
 30
0.0
 10
-95.60768701494362
 20
-223.6239901513422
 30
0.0
  0
LINE
  5
18B
330
1F
100
AcDbEntity
  8
DETAIL
 62
     5
370
    18
100
AcDbLine
 10
-90.7769741255263
 20
-260.9695142305475
 30
0.0
 11
-90.7769741255263
 21
-249.9500318114274
 31
0.0
  0
SPLINE
  5
18C
330
1F
100
AcDbEntity
  8
DETAIL
 62
     5
370
    18
100
AcDbSpline
210
0.0
220
0.0
230
1.0
 70
     8
 71
     3
 72
     8
 73
     4
 74
     0
 42
0.000000001
 43
0.0000000001
 40
1.0
 40
1.0
 40
1.0
 40
1.0
 40
2.0
 40
2.0
 40
2.0
 40
2.0
 10
-90.7769741255263
 20
-249.9500318114274
 30
0.0
 10
-90.7769741255263
 20
-249.6771802489956
 30
0.0
 10
-91.00641748484396
 20
-249.4539380615514
 30
0.0
 10
-91.27926904727563
 20
-249.4539380615514
 30
0.0
  0
LINE
  5
18D
330
1F
100
AcDbEntity
  8
DETAIL
 62
     5
370
    18
100
AcDbLine
 10
-91.27926904727563
 20
-249.4539380615514
 30
0.0
 11
-92.32106592201536
 21
-249.4539380615514
 31
0.0
  0
SPLINE
  5
18E
330
1F
100
AcDbEntity
  8
DETAIL
 62
     5
370
    18
100
AcDbSpline
210
0.0
220
0.0
230
1.0
 70
     8
 71
     3
 72
     8
 73
     4
 74
     0
 42
0.000000001
 43
0.0000000001
 40
3.0
 40
3.0
 40
3.0
 40
3.0
 40
4.0
 40
4.0
 40
4.0
 40
4.0
 10
-92.32106592201536
 20
-249.4539380615514
 30
0.0
 10
-92.60011865632057
 20
-249.4539380615514
 30
0.0
 10
-92.82336084376472
 20
-249.6771802489956
 30
0.0
 10
-92.82336084376472
 20
-249.9500318114274
 30
0.0
  0
LINE
  5
18F
330
1F
100
AcDbEntity
  8
DETAIL
 62
     5
370
    18
100
AcDbLine
 10
-92.82336084376472
 20
-249.9500318114274
 30
0.0
 11
-92.82336084376472
 21
-260.9695142305475
 31
0.0
  0
SPLINE
  5
190
330
1F
100
AcDbEntity
  8
DETAIL
 62
     5
370
    18
100
AcDbSpline
210
0.0
220
0.0
230
1.0
 70
     8
 71
     3
 72
     8
 73
     4
 74
     0
 42
0.000000001
 43
0.0000000001
 40
5.0
 40
5.0
 40
5.0
 40
5.0
 40
6.0
 40
6.0
 40
6.0
 40
6.0
 10
-92.82336084376472
 20
-260.9695142305475
 30
0.0
 10
-92.82336084376472
 20
-261.2423657929793
 30
0.0
 10
-92.60011865632057
 20
-261.4683640568117
 30
0.0
 10
-92.32106592201536
 20
-261.4683640568117
 30
0.0
  0
LINE
  5
191
330
1F
100
AcDbEntity
  8
DETAIL
 62
     5
370
    18
100
AcDbLine
 10
-92.32106592201536
 20
-261.4683640568117
 30
0.0
 11
-91.27926904727563
 21
-261.4683640568117
 31
0.0
  0
SPLINE
  5
192
330
1F
100
AcDbEntity
  8
DETAIL
 62
     5
370
    18
100
AcDbSpline
210
0.0
220
0.0
230
1.0
 70
     8
 71
     3
 72
     8
 73
     4
 74
     0
 42
0.000000001
 43
0.0000000001
 40
7.0
 40
7.0
 40
7.0
 40
7.0
 40
8.0
 40
8.0
 40
8.0
 40
8.0
 10
-91.27926904727563
 20
-261.4683640568117
 30
0.0
 10
-91.00641748484396
 20
-261.4683640568117
 30
0.0
 10
-90.7769741255263
 20
-261.2423657929793
 30
0.0
 10
-90.7769741255263
 20
-260.9695142305475
 30
0.0
  0
SPLINE
  5
193
330
1F
100
AcDbEntity
  8
DETAIL
 62
     5
370
    18
100
AcDbSpline
210
0.0
220
0.0
230
1.0
 70
     8
 71
     3
 72
     8
 73
     4
 74
     0
 42
0.000000001
 43
0.0000000001
 40
0.0
 40
0.0
 40
0.0
 40
0.0
 40
1.0
 40
1.0
 40
1.0
 40
1.0
 10
-92.8419643593852
 20
-219.0475253087364
 30
0.0
 10
-95.22941553066313
 20
-219.1681036507201
 30
0.0
 10
-97.08907807360104
 20
-221.1400763064771
 30
0.0
 10
-97.08907807360104
 20
-223.5337286496287
 30
0.0
  0
SPLINE
  5
194
330
1F
100
AcDbEntity
  8
DETAIL
 62
     5
370
    18
100
AcDbSpline
210
0.0
220
0.0
230
1.0
 70
     8
 71
     3
 72
     8
 73
     4
 74
     0
 42
0.000000001
 43
0.0000000001
 40
0.0
 40
0.0
 40
0.0
 40
0.0
 40
1.0
 40
1.0
 40
1.0
 40
1.0
 10
-92.60011865632057
 20
-259.9056687447024
 30
0.0
 10
-92.60011865632057
 20
-260.2129712619866
 30
0.0
 10
-92.38927881262316
 20
-260.4451706976925
 30
0.0
 10
-92.12262842206495
 20
-260.4451706976925
 30
0.0
  0
LINE
  5
195
330
1F
100
AcDbEntity
  8
DETAIL
 62
     5
370
    18
100
AcDbLine
 10
-92.12262842206495
 20
-260.4451706976925
 30
0.0
 11
-91.55212060970757
 21
-260.4451706976925
 31
0.0
  0
SPLINE
  5
196
330
1F
100
AcDbEntity
  8
DETAIL
 62
     5
370
    18
100
AcDbSpline
210
0.0
220
0.0
230
1.0
 70
     8
 71
     3
 72
     8
 73
     4
 74
     0
 42
0.000000001
 43
0.0000000001
 40
2.0
 40
2.0
 40
2.0
 40
2.0
 40
3.0
 40
3.0
 40
3.0
 40
3.0
 10
-91.55212060970757
 20
-260.4451706976925
 30
0.0
 10
-91.28547021914937
 20
-260.4451706976925
 30
0.0
 10
-91.11183740669252
 20
-260.246733197742
 30
0.0
 10
-91.11183740669252
 20
-259.9738816353103
 30
0.0
  0
LINE
  5
197
330
1F
100
AcDbEntity
  8
DETAIL
 62
     5
370
    18
100
AcDbLine
 10
-91.11183740669252
 20
-259.9738816353103
 30
0.0
 11
-91.11183740669252
 21
-250.9449753875676
 31
0.0
  0
SPLINE
  5
198
330
1F
100
AcDbEntity
  8
DETAIL
 62
     5
370
    18
100
AcDbSpline
210
0.0
220
0.0
230
1.0
 70
     8
 71
     3
 72
     8
 73
     4
 74
     0
 42
0.000000001
 43
0.0000000001
 40
4.0
 40
4.0
 40
4.0
 40
4.0
 40
5.0
 40
5.0
 40
5.0
 40
5.0
 10
-91.11183740669252
 20
-250.9449753875676
 30
0.0
 10
-91.11183740669252
 20
-250.6721238251358
 30
0.0
 10
-91.28547021914937
 20
-250.4709302487972
 30
0.0
 10
-91.55212060970757
 20
-250.4709302487972
 30
0.0
  0
LINE
  5
199
330
1F
100
AcDbEntity
  8
DETAIL
 62
     5
370
    18
100
AcDbLine
 10
-91.55212060970757
 20
-250.4709302487972
 30
0.0
 11
-92.12262842206495
 21
-250.4709302487972
 31
0.0
  0
SPLINE
  5
19A
330
1F
100
AcDbEntity
  8
DETAIL
 62
     5
370
    18
100
AcDbSpline
210
0.0
220
0.0
230
1.0
 70
     8
 71
     3
 72
     8
 73
     4
 74
     0
 42
0.000000001
 43
0.0000000001
 40
6.0
 40
6.0
 40
6.0
 40
6.0
 40
7.0
 40
7.0
 40
7.0
 40
7.0
 10
-92.12262842206495
 20
-250.4709302487972
 30
0.0
 10
-92.38927881262316
 20
-250.4709302487972
 30
0.0
 10
-92.60011865632057
 20
-250.7093308563765
 30
0.0
 10
-92.60011865632057
 20
-251.0131882781755
 30
0.0
  0
LINE
  5
19B
330
1F
100
AcDbEntity
  8
DETAIL
 62
     5
370
    18
100
AcDbLine
 10
-92.60011865632057
 20
-251.0131882781755
 30
0.0
 11
-92.60011865632057
 21
-259.9056687447024
 31
0.0
  0
LINE
  5
19C
330
1F
100
AcDbEntity
  8
DETAIL
 62
     5
370
    18
100
AcDbLine
 10
-9.983972843641366
 20
-279.9134052848394
 30
0.0
 11
-9.97777167176764
 21
-279.9037590174807
 31
0.0
  0
POINT
  5
19D
330
1F
100
AcDbEntity
  8
DETAIL
 62
     5
370
    18
100
AcDbPoint
 10
-8.985584172015932
 20
-280.9055927845913
 30
0.0
  0
LINE
  5
19E
330
1F
100
AcDbEntity
  8
DETAIL
 62
     5
370
    18
100
AcDbLine
 10
-5.984216985266129
 20
-280.9055927845913
 30
0.0
 11
-5.996619329013128
 21
-280.9055927845913
 31
0.0
  0
POINT
  5
19F
330
1F
100
AcDbEntity
  8
DETAIL
 62
     5
370
    18
100
AcDbPoint
 10
-4.985828313640695
 20
-230.088367319865
 30
0.0
  0
LINE
  5
1A0
330
1F
100
AcDbEntity
  8
DETAIL
 62
     5
370
    18
100
AcDbLine
 10
-2.989050970390053
 20
-204.5526305640962
 30
0.0
 11
-4.985828313640695
 21
-204.5898375953369
 31
0.0
  0
LINE
  5
1A1
330
1F
100
AcDbEntity
  8
DETAIL
 62
     5
370
    18
100
AcDbLine
 10
-4.681970891841729
 20
-285.4724113598385
 30
0.0
 11
-23.44602796180357
 21
-285.4820576271972
 31
0.0
  0
LINE
  5
1A2
330
1F
100
AcDbEntity
  8
DETAIL
 62
     5
370
    18
100
AcDbLine
 10
-4.985828313640695
 20
-230.088367319865
 30
0.0
 11
-23.44602796180357
 21
-230.0973245681267
 31
0.0
  0
LINE
  5
1A3
330
1F
100
AcDbEntity
  8
DETAIL
 62
     5
370
    18
100
AcDbLine
 10
-11.98695135876551
 20
-230.088367319865
 30
0.0
 11
-4.985828313640695
 21
-230.088367319865
 31
0.0
  0
LINE
  5
1A4
330
1F
100
AcDbEntity
  8
DETAIL
 62
     5
370
    18
100
AcDbLine
 10
-8.985584172015932
 20
-280.9055927845913
 30
0.0
 11
-5.996619329013128
 21
-280.9055927845913
 31
0.0
  0
LINE
  5
1A5
330
1F
100
AcDbEntity
  8
DETAIL
 62
     5
370
    18
100
AcDbLine
 10
-8.985584172015932
 20
-270.4290574139465
 30
0.0
 11
-5.984216985266129
 21
-270.4290574139465
 31
0.0
  0
LINE
  5
1A6
330
1F
100
AcDbEntity
  8
DETAIL
 62
     5
370
    18
100
AcDbLine
 10
-5.996619329013128
 20
-268.9221726486983
 30
0.0
 11
-8.985584172015932
 21
-268.9221726486983
 31
0.0
  0
LINE
  5
1A7
330
1F
100
AcDbEntity
  8
DETAIL
 62
     5
370
    18
100
AcDbLine
 10
-4.985828313640695
 20
-283.8228996415008
 30
0.0
 11
-23.44602796180357
 21
-283.8139423932392
 31
0.0
  0
LINE
  5
1A8
330
1F
100
AcDbEntity
  8
DETAIL
 62
     5
370
    18
100
AcDbLine
 10
-4.985828313640695
 20
-228.4478128497891
 30
0.0
 11
-11.98695135876551
 21
-228.4416116779156
 31
0.0
  0
LINE
  5
1A9
330
1F
100
AcDbEntity
  8
DETAIL
 62
     5
370
    18
100
AcDbLine
 10
-4.985828313640695
 20
-228.4416116779156
 30
0.0
 11
-23.44602796180357
 21
-228.4292093341687
 31
0.0
  0
LINE
  5
1AA
330
1F
100
AcDbEntity
  8
DETAIL
 62
     5
370
    18
100
AcDbLine
 10
-3.491345892139406
 20
-214.9575079486477
 30
0.0
 11
-4.985828313640695
 21
-214.9423495285127
 31
0.0
  0
LINE
  5
1AB
330
1F
100
AcDbEntity
  8
DETAIL
 62
     5
370
    18
100
AcDbLine
 10
-3.491345892139406
 20
-202.9837340801134
 30
0.0
 11
-4.985828313640695
 21
-202.9740878127547
 31
0.0
  0
LINE
  5
1AC
330
1F
100
AcDbEntity
  8
DETAIL
 62
     5
370
    18
100
AcDbLine
 10
-4.688172063715228
 20
-285.4572529397034
 30
0.0
 11
-4.681970891841729
 21
-285.4724113598385
 31
0.0
  0
LINE
  5
1AD
330
1F
100
AcDbEntity
  8
DETAIL
 62
     5
370
    18
100
AcDbLine
 10
-13.98372870201638
 20
-221.952429821899
 30
0.0
 11
-13.98372870201638
 21
-221.9620760892577
 31
0.0
  0
LINE
  5
1AE
330
1F
100
AcDbEntity
  8
DETAIL
 62
     5
370
    18
100
AcDbLine
 10
-9.983972843641366
 20
-269.9267624921971
 30
0.0
 11
-9.983972843641366
 21
-279.9134052848394
 31
0.0
  0
LINE
  5
1AF
330
1F
100
AcDbEntity
  8
DETAIL
 62
     5
370
    18
100
AcDbLine
 10
-4.985828313640695
 20
-230.088367319865
 30
0.0
 11
-4.985828313640695
 21
-267.926540053461
 31
0.0
  0
LINE
  5
1B0
330
1F
100
AcDbEntity
  8
DETAIL
 62
     5
370
    18
100
AcDbLine
 10
-4.985828313640695
 20
-281.9101826280901
 30
0.0
 11
-4.985828313640695
 21
-283.8228996415008
 31
0.0
  0
LINE
  5
1B1
330
1F
100
AcDbEntity
  8
DETAIL
 62
     5
370
    18
100
AcDbLine
 10
-4.985828313640695
 20
-228.4416116779156
 30
0.0
 11
-4.985828313640695
 21
-216.780652479442
 31
0.0
  0
LINE
  5
1B2
330
1F
100
AcDbEntity
  8
DETAIL
 62
     5
370
    18
100
AcDbLine
 10
-4.985828313640695
 20
-228.4478128497891
 30
0.0
 11
-4.985828313640695
 21
-230.088367319865
 31
0.0
  0
LINE
  5
1B3
330
1F
100
AcDbEntity
  8
DETAIL
 62
     5
370
    18
100
AcDbLine
 10
-4.985828313640695
 20
-267.9327412253345
 30
0.0
 11
-4.985828313640695
 21
-269.4244675704477
 31
0.0
  0
LINE
  5
1B4
330
1F
100
AcDbEntity
  8
DETAIL
 62
     5
370
    18
100
AcDbLine
 10
-4.985828313640695
 20
-283.8353019852478
 30
0.0
 11
-4.985828313640695
 21
-284.0709465164388
 31
0.0
  0
LINE
  5
1B5
330
1F
100
AcDbEntity
  8
DETAIL
 62
     5
370
    18
100
AcDbLine
 10
-9.983972843641366
 20
-269.9267624921971
 30
0.0
 11
-9.97777167176764
 21
-269.9267624921971
 31
0.0
  0
LINE
  5
1B6
330
1F
100
AcDbEntity
  8
DETAIL
 62
     5
370
    18
100
AcDbLine
 10
-8.985584172015932
 20
-268.9221726486983
 30
0.0
 11
-8.985584172015932
 21
-268.9283738205717
 31
0.0
  0
LINE
  5
1B7
330
1F
100
AcDbEntity
  8
DETAIL
 62
     5
370
    18
100
AcDbLine
 10
-5.996619329013128
 20
-268.9221726486983
 30
0.0
 11
-5.984216985266129
 21
-268.9283738205717
 31
0.0
  0
LINE
  5
1B8
330
1F
100
AcDbEntity
  8
DETAIL
 62
     5
370
    18
100
AcDbLine
 10
-3.906824407660451
 20
-288.3869621403599
 30
0.0
 11
-4.681970891841729
 21
-285.4724113598385
 31
0.0
  0
LINE
  5
1B9
330
1F
100
AcDbEntity
  8
DETAIL
 62
     5
370
    18
100
AcDbLine
 10
-4.923816594906384
 20
-284.5856437819352
 30
0.0
 11
-4.688172063715228
 21
-285.4572529397034
 31
0.0
  0
LINE
  5
1BA
330
1F
100
AcDbEntity
  8
DETAIL
 62
     5
370
    18
100
AcDbLine
 10
-13.98372870201638
 20
-221.952429821899
 30
0.0
 11
-14.80848456118519
 21
-223.1340975733397
 31
0.0
  0
LINE
  5
1BB
330
1F
100
AcDbEntity
  8
DETAIL
 62
     5
370
    18
100
AcDbLine
 10
-14.80848456118519
 20
-223.1340975733397
 30
0.0
 11
-16.4765997951431
 21
-225.5332620692677
 31
0.0
  0
LINE
  5
1BC
330
1F
100
AcDbEntity
  8
DETAIL
 62
     5
370
    18
100
AcDbLine
 10
-16.4765997951431
 20
-225.5332620692677
 30
0.0
 11
-11.47225409326916
 21
-225.5332620692677
 31
0.0
  0
LINE
  5
1BD
330
1F
100
AcDbEntity
  8
DETAIL
 62
     5
370
    18
100
AcDbLine
 10
-11.47225409326916
 20
-225.5332620692677
 30
0.0
 11
-13.15277167097406
 21
-223.1340975733397
 31
0.0
  0
LINE
  5
1BE
330
1F
100
AcDbEntity
  8
DETAIL
 62
     5
370
    18
100
AcDbLine
 10
-13.15277167097406
 20
-223.1340975733397
 30
0.0
 11
-13.98372870201638
 21
-221.952429821899
 31
0.0
  0
LINE
  5
1BF
330
1F
100
AcDbEntity
  8
DETAIL
 62
     5
370
    18
100
AcDbLine
 10
-4.985828313640695
 20
-283.8353019852478
 30
0.0
 11
-4.985828313640695
 21
-283.8228996415008
 31
0.0
  0
LINE
  5
1C0
330
1F
100
AcDbEntity
  8
DETAIL
 62
     5
370
    18
100
AcDbLine
 10
-4.985828313640695
 20
-228.4478128497891
 30
0.0
 11
-4.985828313640695
 21
-228.4416116779156
 31
0.0
  0
SPLINE
  5
1C1
330
1F
100
AcDbEntity
  8
DETAIL
 62
     5
370
    18
100
AcDbSpline
210
0.0
220
0.0
230
1.0
 70
     8
 71
     3
 72
     8
 73
     4
 74
     0
 42
0.000000001
 43
0.0000000001
 40
0.0
 40
0.0
 40
0.0
 40
0.0
 40
1.0
 40
1.0
 40
1.0
 40
1.0
 10
-4.985828313640695
 20
-284.0709465164388
 30
0.0
 10
-4.985828313640695
 20
-284.2445793288955
 30
0.0
 10
-4.967224798020422
 20
-284.4216572368373
 30
0.0
 10
-4.923816594906384
 20
-284.5856437819352
 30
0.0
  0
SPLINE
  5
1C2
330
1F
100
AcDbEntity
  8
DETAIL
 62
     5
370
    18
100
AcDbSpline
210
0.0
220
0.0
230
1.0
 70
     8
 71
     3
 72
     8
 73
     4
 74
     0
 42
0.000000001
 43
0.0000000001
 40
0.0
 40
0.0
 40
0.0
 40
0.0
 40
1.0
 40
1.0
 40
1.0
 40
1.0
 10
-8.985584172015932
 20
-270.4290574139465
 30
0.0
 10
-9.531287296879327
 20
-270.4290574139465
 30
0.0
 10
-9.97777167176764
 20
-270.8755417888349
 30
0.0
 10
-9.97777167176764
 20
-271.4240009900867
 30
0.0
  0
SPLINE
  5
1C3
330
1F
100
AcDbEntity
  8
DETAIL
 62
     5
370
    18
100
AcDbSpline
210
0.0
220
0.0
230
1.0
 70
     8
 71
     3
 72
     8
 73
     4
 74
     0
 42
0.000000001
 43
0.0000000001
 40
0.0
 40
0.0
 40
0.0
 40
0.0
 40
1.0
 40
1.0
 40
1.0
 40
1.0
 10
-5.853992375923778
 20
-270.4166550701996
 30
0.0
 10
-5.413709172908738
 20
-270.3636005997268
 30
0.0
 10
-5.054041204248733
 20
-270.0039326310667
 30
0.0
 10
-4.992029485514191
 20
-269.5574482561784
 30
0.0
  0
SPLINE
  5
1C4
330
1F
100
AcDbEntity
  8
DETAIL
 62
     5
370
    18
100
AcDbSpline
210
0.0
220
0.0
230
1.0
 70
     8
 71
     3
 72
     8
 73
     4
 74
     0
 42
0.000000001
 43
0.0000000001
 40
0.0
 40
0.0
 40
0.0
 40
0.0
 40
1.0
 40
1.0
 40
1.0
 40
1.0
 10
-5.984216985266129
 20
-270.3918503827059
 30
0.0
 10
-5.438513860402506
 20
-270.4042527264527
 30
0.0
 10
-4.985828313640695
 20
-269.9577683515644
 30
0.0
 10
-4.985828313640695
 20
-269.4024189593421
 30
0.0
  0
SPLINE
  5
1C5
330
1F
100
AcDbEntity
  8
DETAIL
 62
     5
370
    18
100
AcDbSpline
210
0.0
220
0.0
230
1.0
 70
     8
 71
     3
 72
     8
 73
     4
 74
     0
 42
0.000000001
 43
0.0000000001
 40
0.0
 40
0.0
 40
0.0
 40
0.0
 40
1.0
 40
1.0
 40
1.0
 40
1.0
 10
-5.984216985266129
 20
-270.4290574139465
 30
0.0
 10
-5.940808782152087
 20
-270.4290574139465
 30
0.0
 10
-5.891199407164547
 20
-270.4166550701996
 30
0.0
 10
-5.853992375923778
 20
-270.4166550701996
 30
0.0
  0
SPLINE
  5
1C6
330
1F
100
AcDbEntity
  8
DETAIL
 62
     5
370
    18
100
AcDbSpline
210
0.0
220
0.0
230
1.0
 70
     8
 71
     3
 72
     8
 73
     4
 74
     0
 42
0.000000001
 43
0.0000000001
 40
0.0
 40
0.0
 40
0.0
 40
0.0
 40
1.0
 40
1.0
 40
1.0
 40
1.0
 10
-4.992029485514191
 20
-269.5574482561784
 30
0.0
 10
-4.985828313640695
 20
-269.5174851485494
 30
0.0
 10
-4.985828313640695
 20
-269.4768330218235
 30
0.0
 10
-4.985828313640695
 20
-269.4244675704477
 30
0.0
  0
SPLINE
  5
1C7
330
1F
100
AcDbEntity
  8
DETAIL
 62
     5
370
    18
100
AcDbSpline
210
0.0
220
0.0
230
1.0
 70
     8
 71
     3
 72
     8
 73
     4
 74
     0
 42
0.000000001
 43
0.0000000001
 40
0.0
 40
0.0
 40
0.0
 40
0.0
 40
1.0
 40
1.0
 40
1.0
 40
1.0
 10
-3.906824407660451
 20
-288.3869621403599
 30
0.0
 10
-3.602966985861483
 20
-289.5245326695894
 30
0.0
 10
-3.305310735936018
 20
-290.650389874169
 30
0.0
 10
-2.989050970390053
 20
-291.7852043270102
 30
0.0
  0
SPLINE
  5
1C8
330
1F
100
AcDbEntity
  8
DETAIL
 62
     5
370
    18
100
AcDbSpline
210
0.0
220
0.0
230
1.0
 70
    24
 71
     3
 72
     8
 73
     4
 74
     0
 42
0.000000001
 43
0.0000000001
 40
0.0
 40
0.0
 40
0.0
 40
0.0
 40
1.0
 40
1.0
 40
1.0
 40
1.0
 10
-4.985828313640695
 20
-230.088367319865
 30
0.0
 10
-4.985828313640695
 20
-230.0787210525064
 30
0.0
 10
-4.985828313640695
 20
-229.9857034744046
 30
0.0
 10
-4.985828313640695
 20
-229.8864847244294
 30
0.0
  0
SPLINE
  5
1C9
330
1F
100
AcDbEntity
  8
DETAIL
 62
     5
370
    18
100
AcDbSpline
210
0.0
220
0.0
230
1.0
 70
    24
 71
     3
 72
     8
 73
     4
 74
     0
 42
0.000000001
 43
0.0000000001
 40
0.0
 40
0.0
 40
0.0
 40
0.0
 40
1.0
 40
1.0
 40
1.0
 40
1.0
 10
-4.985828313640695
 20
-228.6462503497394
 30
0.0
 10
-4.985828313640695
 20
-228.5346292560173
 30
0.0
 10
-4.985828313640695
 20
-228.4478133497891
 30
0.0
 10
-4.985828313640695
 20
-228.4478128497891
 30
0.0
  0
SPLINE
  5
1CA
330
1F
100
AcDbEntity
  8
DETAIL
 62
     5
370
    18
100
AcDbSpline
210
0.0
220
0.0
230
1.0
 70
     8
 71
     3
 72
     8
 73
     4
 74
     0
 42
0.000000001
 43
0.0000000001
 40
0.0
 40
0.0
 40
0.0
 40
0.0
 40
1.0
 40
1.0
 40
1.0
 40
1.0
 10
-9.983972843641366
 20
-279.9134052848394
 30
0.0
 10
-9.983972843641366
 20
-280.459108409703
 30
0.0
 10
-9.537488468752827
 20
-280.9055927845913
 30
0.0
 10
-8.985584172015932
 20
-280.9055927845913
 30
0.0
  0
SPLINE
  5
1CB
330
1F
100
AcDbEntity
  8
DETAIL
 62
     5
370
    18
100
AcDbSpline
210
0.0
220
0.0
230
1.0
 70
     8
 71
     3
 72
     8
 73
     4
 74
     0
 42
0.000000001
 43
0.0000000001
 40
0.0
 40
0.0
 40
0.0
 40
0.0
 40
1.0
 40
1.0
 40
1.0
 40
1.0
 10
-8.985584172015932
 20
-268.9221726486983
 30
0.0
 10
-9.537488468752827
 20
-268.9221726486983
 30
0.0
 10
-9.983972843641366
 20
-269.3714130999749
 30
0.0
 10
-9.983972843641366
 20
-269.9267624921971
 30
0.0
  0
SPLINE
  5
1CC
330
1F
100
AcDbEntity
  8
DETAIL
 62
     5
370
    18
100
AcDbSpline
210
0.0
220
0.0
230
1.0
 70
     8
 71
     3
 72
     8
 73
     4
 74
     0
 42
0.000000001
 43
0.0000000001
 40
0.0
 40
0.0
 40
0.0
 40
0.0
 40
1.0
 40
1.0
 40
1.0
 40
1.0
 10
-5.996619329013128
 20
-268.9221726486983
 30
0.0
 10
-5.438513860402506
 20
-268.9221726486983
 30
0.0
 10
-4.985828313640695
 20
-268.4818894456833
 30
0.0
 10
-4.985828313640695
 20
-267.926540053461
 30
0.0
  0
SPLINE
  5
1CD
330
1F
100
AcDbEntity
  8
DETAIL
 62
     5
370
    18
100
AcDbSpline
210
0.0
220
0.0
230
1.0
 70
     8
 71
     3
 72
     8
 73
     4
 74
     0
 42
0.000000001
 43
0.0000000001
 40
0.0
 40
0.0
 40
0.0
 40
0.0
 40
1.0
 40
1.0
 40
1.0
 40
1.0
 10
-4.985828313640695
 20
-281.9101826280901
 30
0.0
 10
-4.985828313640695
 20
-281.354833235868
 30
0.0
 10
-5.438513860402506
 20
-280.9055927845913
 30
0.0
 10
-5.996619329013128
 20
-280.9055927845913
 30
0.0
  0
LINE
  5
1CE
330
1F
100
AcDbEntity
  8
DETAIL
 62
     5
370
    18
100
AcDbLine
 10
-43.48821545679288
 20
-248.4775980010316
 30
0.0
 11
-43.48821545679288
 21
-265.4309128839461
 31
0.0
  0
LINE
  5
1CF
330
1F
100
AcDbEntity
  8
DETAIL
 62
     5
370
    18
100
AcDbLine
 10
-41.82010022283498
 20
-248.4775980010316
 30
0.0
 11
-41.82010022283498
 21
-265.4309128839461
 31
0.0
  0
LINE
  5
1D0
330
1F
100
AcDbEntity
  8
DETAIL
 62
     5
370
    18
100
AcDbLine
 10
-26.44739514855314
 20
-294.3772941701123
 30
0.0
 11
-26.44739514855314
 21
-285.258815439753
 31
0.0
  0
LINE
  5
1D1
330
1F
100
AcDbEntity
  8
DETAIL
 62
     5
370
    18
100
AcDbLine
 10
-26.44739514855314
 20
-283.5686515946894
 30
0.0
 11
-26.44739514855314
 21
-230.3453714430647
 31
0.0
  0
LINE
  5
1D2
330
1F
100
AcDbEntity
  8
DETAIL
 62
     5
370
    18
100
AcDbLine
 10
-26.44739514855314
 20
-228.6524515216129
 30
0.0
 11
-26.44739514855314
 21
-217.1623690592077
 31
0.0
  0
LINE
  5
1D3
330
1F
100
AcDbEntity
  8
DETAIL
 62
     5
370
    18
100
AcDbLine
 10
-23.44602796180357
 20
-285.4724113598385
 30
0.0
 11
-23.44602796180357
 21
-285.4820576271972
 31
0.0
  0
LINE
  5
1D4
330
1F
100
AcDbEntity
  8
DETAIL
 62
     5
370
    18
100
AcDbLine
 10
-23.44602796180357
 20
-283.8228996415008
 30
0.0
 11
-23.44602796180357
 21
-283.8139423932392
 31
0.0
  0
SPLINE
  5
1D5
330
1F
100
AcDbEntity
  8
DETAIL
 62
     5
370
    18
100
AcDbSpline
210
0.0
220
0.0
230
1.0
 70
     8
 71
     3
 72
     8
 73
     4
 74
     0
 42
0.000000001
 43
0.0000000001
 40
0.0
 40
0.0
 40
0.0
 40
0.0
 40
1.0
 40
1.0
 40
1.0
 40
1.0
 10
-43.48821545679288
 20
-265.4309128839461
 30
0.0
 10
-43.48821545679288
 20
-275.3493427859804
 30
0.0
 10
-36.23904553673015
 20
-283.7732902665132
 30
0.0
 10
-26.44739514855314
 20
-285.258815439753
 30
0.0
  0
SPLINE
  5
1D6
330
1F
100
AcDbEntity
  8
DETAIL
 62
     5
370
    18
100
AcDbSpline
210
0.0
220
0.0
230
1.0
 70
     8
 71
     3
 72
     8
 73
     4
 74
     0
 42
0.000000001
 43
0.0000000001
 40
0.0
 40
0.0
 40
0.0
 40
0.0
 40
1.0
 40
1.0
 40
1.0
 40
1.0
 10
-26.44739514855314
 20
-228.6524515216129
 30
0.0
 10
-36.23904553673015
 20
-230.1345315993674
 30
0.0
 10
-43.48821545679288
 20
-238.5619241753855
 30
0.0
 10
-43.48821545679288
 20
-248.4775980010316
 30
0.0
  0
SPLINE
  5
1D7
330
1F
100
AcDbEntity
  8
DETAIL
 62
     5
370
    18
100
AcDbSpline
210
0.0
220
0.0
230
1.0
 70
     8
 71
     3
 72
     8
 73
     4
 74
     0
 42
0.000000001
 43
0.0000000001
 40
0.0
 40
0.0
 40
0.0
 40
0.0
 40
1.0
 40
1.0
 40
1.0
 40
1.0
 10
-41.82010022283498
 20
-265.4309128839461
 30
0.0
 10
-41.82010022283498
 20
-274.4315693487099
 30
0.0
 10
-35.31507092758625
 20
-282.1024189561671
 30
0.0
 10
-26.44739514855314
 20
-283.5686515946894
 30
0.0
  0
SPLINE
  5
1D8
330
1F
100
AcDbEntity
  8
DETAIL
 62
     5
370
    18
100
AcDbSpline
210
0.0
220
0.0
230
1.0
 70
     8
 71
     3
 72
     8
 73
     4
 74
     0
 42
0.000000001
 43
0.0000000001
 40
0.0
 40
0.0
 40
0.0
 40
0.0
 40
1.0
 40
1.0
 40
1.0
 40
1.0
 10
-26.44739514855314
 20
-230.3453714430647
 30
0.0
 10
-35.31507092758625
 20
-231.8088480051988
 30
0.0
 10
-41.82010022283498
 20
-239.4824536890443
 30
0.0
 10
-41.82010022283498
 20
-248.4775980010316
 30
0.0
  0
SPLINE
  5
1D9
330
1F
100
AcDbEntity
  8
DETAIL
 62
     5
370
    18
100
AcDbSpline
210
0.0
220
0.0
230
1.0
 70
     8
 71
     3
 72
     8
 73
     4
 74
     0
 42
0.000000001
 43
0.0000000001
 40
0.0
 40
0.0
 40
0.0
 40
0.0
 40
1.0
 40
1.0
 40
1.0
 40
1.0
 10
-26.44739514855314
 20
-285.258815439753
 30
0.0
 10
-25.44280530505421
 20
-285.4076435647158
 30
0.0
 10
-24.4506178053025
 20
-285.4820576271972
 30
0.0
 10
-23.44602796180357
 20
-285.4820576271972
 30
0.0
  0
SPLINE
  5
1DA
330
1F
100
AcDbEntity
  8
DETAIL
 62
     5
370
    18
100
AcDbSpline
210
0.0
220
0.0
230
1.0
 70
     8
 71
     3
 72
     8
 73
     4
 74
     0
 42
0.000000001
 43
0.0000000001
 40
0.0
 40
0.0
 40
0.0
 40
0.0
 40
1.0
 40
1.0
 40
1.0
 40
1.0
 10
-23.44602796180357
 20
-228.4292093341687
 30
0.0
 10
-24.4506178053025
 20
-228.4292093341687
 30
0.0
 10
-25.44280530505421
 20
-228.5008673202619
 30
0.0
 10
-26.44739514855314
 20
-228.6524515216129
 30
0.0
  0
SPLINE
  5
1DB
330
1F
100
AcDbEntity
  8
DETAIL
 62
     5
370
    18
100
AcDbSpline
210
0.0
220
0.0
230
1.0
 70
     8
 71
     3
 72
     8
 73
     4
 74
     0
 42
0.000000001
 43
0.0000000001
 40
0.0
 40
0.0
 40
0.0
 40
0.0
 40
1.0
 40
1.0
 40
1.0
 40
1.0
 10
-26.44739514855314
 20
-283.5686515946894
 30
0.0
 10
-25.44280530505421
 20
-283.7333271588844
 30
0.0
 10
-24.45681897717577
 20
-283.8139423932392
 30
0.0
 10
-23.44602796180357
 20
-283.8139423932392
 30
0.0
  0
SPLINE
  5
1DC
330
1F
100
AcDbEntity
  8
DETAIL
 62
     5
370
    18
100
AcDbSpline
210
0.0
220
0.0
230
1.0
 70
     8
 71
     3
 72
     8
 73
     4
 74
     0
 42
0.000000001
 43
0.0000000001
 40
0.0
 40
0.0
 40
0.0
 40
0.0
 40
1.0
 40
1.0
 40
1.0
 40
1.0
 10
-23.44602796180357
 20
-230.0973245681267
 30
0.0
 10
-24.45681897717577
 20
-230.0973245681267
 30
0.0
 10
-25.44280530505421
 20
-230.1751837260933
 30
0.0
 10
-26.44739514855314
 20
-230.3453714430647
 30
0.0
  0
LINE
  5
1DD
330
1F
100
AcDbEntity
  8
DETAIL
 62
     5
370
    18
100
AcDbLine
 10
-343.7710061803334
 20
-239.1262308158695
 30
0.0
 11
-344.9740335237825
 21
-239.0208108940208
 31
0.0
  0
LINE
  5
1DE
330
1F
100
AcDbEntity
  8
DETAIL
 62
     5
370
    18
100
AcDbLine
 10
-343.7710061803334
 20
-237.9383618925553
 30
0.0
 11
-345.0732522737578
 21
-237.8301858943185
 31
0.0
  0
LINE
  5
1DF
330
1F
100
AcDbEntity
  8
DETAIL
 62
     5
370
    18
100
AcDbLine
 10
-344.4345315707926
 20
-239.064219097135
 30
0.0
 11
-340.7820413373306
 21
-241.0947583761412
 31
0.0
  0
LINE
  5
1E0
330
1F
100
AcDbEntity
  8
DETAIL
 62
     5
370
    18
100
AcDbLine
 10
-345.0484475862641
 20
-239.1324319877429
 30
0.0
 11
-344.9988382112764
 21
-239.1634378471102
 31
0.0
  0
LINE
  5
1E1
330
1F
100
AcDbEntity
  8
DETAIL
 62
     5
370
    18
100
AcDbLine
 10
-345.9228128204204
 20
-238.6825025173693
 30
0.0
 11
-378.6643112931379
 21
-216.5980624187237
 31
0.0
  0
LINE
  5
1E2
330
1F
100
AcDbEntity
  8
DETAIL
 62
     5
370
    18
100
AcDbLine
 10
-345.4577249299118
 20
-237.6937601131025
 30
0.0
 11
-350.6977151629767
 21
-234.1625372407215
 31
0.0
  0
SPLINE
  5
1E3
330
1F
100
AcDbEntity
  8
DETAIL
 62
     5
370
    18
100
AcDbSpline
210
0.0
220
0.0
230
1.0
 70
     8
 71
     3
 72
     8
 73
     4
 74
     0
 42
0.000000001
 43
0.0000000001
 40
0.0
 40
0.0
 40
0.0
 40
0.0
 40
1.0
 40
1.0
 40
1.0
 40
1.0
 10
-342.6920022743532
 20
-240.5835062061302
 30
0.0
 10
-342.9276468055441
 20
-240.4284769092939
 30
0.0
 10
-343.1632913367352
 20
-240.2886060325928
 30
0.0
 10
-343.3989358679264
 20
-240.1494241749887
 30
0.0
  0
SPLINE
  5
1E4
330
1F
100
AcDbEntity
  8
DETAIL
 62
     5
370
    18
100
AcDbSpline
210
0.0
220
0.0
230
1.0
 70
     8
 71
     3
 72
     8
 73
     4
 74
     0
 42
0.000000001
 43
0.0000000001
 40
0.0
 40
0.0
 40
0.0
 40
0.0
 40
1.0
 40
1.0
 40
1.0
 40
1.0
 10
-345.3275003205693
 20
-238.9587991752863
 30
0.0
 10
-345.2282815705939
 20
-239.0146097221473
 30
0.0
 10
-345.1414651643656
 20
-239.0766214408819
 30
0.0
 10
-345.0484475862641
 20
-239.1324319877429
 30
0.0
  0
SPLINE
  5
1E5
330
1F
100
AcDbEntity
  8
DETAIL
 62
     5
370
    18
100
AcDbSpline
210
0.0
220
0.0
230
1.0
 70
     8
 71
     3
 72
     8
 73
     4
 74
     0
 42
0.000000001
 43
0.0000000001
 40
0.0
 40
0.0
 40
0.0
 40
0.0
 40
1.0
 40
1.0
 40
1.0
 40
1.0
 10
-344.9988382112764
 20
-239.1634378471102
 30
0.0
 10
-344.4655374301597
 20
-239.5045023001499
 30
0.0
 10
-343.9384378209165
 20
-239.8269632375693
 30
0.0
 10
-343.3989358679264
 20
-240.1494241749887
 30
0.0
  0
SPLINE
  5
1E6
330
1F
100
AcDbEntity
  8
DETAIL
 62
     5
370
    18
100
AcDbSpline
210
0.0
220
0.0
230
1.0
 70
     8
 71
     3
 72
     8
 73
     4
 74
     0
 42
0.000000001
 43
0.0000000001
 40
0.0
 40
0.0
 40
0.0
 40
0.0
 40
1.0
 40
1.0
 40
1.0
 40
1.0
 10
-345.9228128204204
 20
-238.6825025173693
 30
0.0
 10
-345.6375589142417
 20
-238.8747388454462
 30
0.0
 10
-345.3150979768225
 20
-238.9898050346535
 30
0.0
 10
-344.9740335237825
 20
-239.0208108940208
 30
0.0
  0
SPLINE
  5
1E7
330
1F
100
AcDbEntity
  8
DETAIL
 62
     5
370
    18
100
AcDbSpline
210
0.0
220
0.0
230
1.0
 70
     8
 71
     3
 72
     8
 73
     4
 74
     0
 42
0.000000001
 43
0.0000000001
 40
0.0
 40
0.0
 40
0.0
 40
0.0
 40
1.0
 40
1.0
 40
1.0
 40
1.0
 10
-342.6920022743532
 20
-240.5835062061302
 30
0.0
 10
-342.1028909463753
 20
-240.9459302511784
 30
0.0
 10
-341.5013772746506
 20
-241.311799391712
 30
0.0
 10
-340.912265946673
 20
-241.6749124558573
 30
0.0
  0
SPLINE
  5
1E8
330
1F
100
AcDbEntity
  8
DETAIL
 62
     5
370
    18
100
AcDbSpline
210
0.0
220
0.0
230
1.0
 70
     8
 71
     3
 72
     8
 73
     4
 74
     0
 42
0.000000001
 43
0.0000000001
 40
0.0
 40
0.0
 40
0.0
 40
0.0
 40
1.0
 40
1.0
 40
1.0
 40
1.0
 10
-345.0732522737578
 20
-237.8301858943185
 30
0.0
 10
-345.2096780549737
 20
-237.8177835505716
 30
0.0
 10
-345.3523050080629
 20
-237.7647290800987
 30
0.0
 10
-345.4577249299118
 20
-237.6937601131025
 30
0.0
  0
LINE
  5
1E9
330
1F
100
AcDbEntity
  8
DETAIL
 62
     5
370
    18
100
AcDbLine
 10
-340.912265946673
 20
-241.6749124558573
 30
0.0
 11
-340.7262307904696
 21
-241.7927347214529
 31
0.0
  0
SPLINE
  5
1EA
330
1F
100
AcDbEntity
  8
DETAIL
 62
     5
370
    18
100
AcDbSpline
210
0.0
220
0.0
230
1.0
 70
     8
 71
     3
 72
     8
 73
     4
 74
     0
 42
0.000000001
 43
0.0000000001
 40
0.0
 40
0.0
 40
0.0
 40
0.0
 40
1.0
 40
1.0
 40
1.0
 40
1.0
 10
-340.7820413373306
 20
-241.4516702684131
 30
0.0
 10
-340.7820413373306
 20
-241.7989358933263
 30
0.0
 10
-340.5898050092537
 20
-242.1213968307457
 30
0.0
 10
-340.2983499312015
 20
-242.3039868914639
 30
0.0
  0
SPLINE
  5
1EB
330
1F
100
AcDbEntity
  8
DETAIL
 62
     5
370
    18
100
AcDbSpline
210
0.0
220
0.0
230
1.0
 70
     8
 71
     3
 72
     8
 73
     4
 74
     0
 42
0.000000001
 43
0.0000000001
 40
0.0
 40
0.0
 40
0.0
 40
0.0
 40
1.0
 40
1.0
 40
1.0
 40
1.0
 10
-340.2983499312015
 20
-242.3039868914639
 30
0.0
 10
-309.5481166489585
 20
-261.0935376680165
 30
0.0
 10
-277.0484638793055
 20
-276.8713859713638
 30
0.0
 10
-243.2651685318488
 20
-289.4253139196142
 30
0.0
  0
LINE
  5
1EC
330
1F
100
AcDbEntity
  8
DETAIL
 62
     5
370
    18
100
AcDbLine
 10
-257.1061841533885
 20
-282.9953877059439
 30
0.0
 11
-257.472053293922
 21
-283.922118391476
 31
0.0
  0
SPLINE
  5
1ED
330
1F
100
AcDbEntity
  8
DETAIL
 62
     5
370
    18
100
AcDbSpline
210
0.0
220
0.0
230
1.0
 70
     8
 71
     3
 72
    17
 73
    13
 74
     0
 42
0.000000001
 43
0.0000000001
 40
0.0
 40
0.0
 40
0.0
 40
0.0
 40
1.0
 40
1.0
 40
1.0
 40
2.0
 40
2.0
 40
2.0
 40
3.0
 40
3.0
 40
3.0
 40
4.0
 40
4.0
 40
4.0
 40
4.0
 10
-257.1061841533885
 20
-282.9953877059439
 30
0.0
 10
-256.1512036848772
 20
-283.4356709089588
 30
0.0
 10
-255.196223216366
 20
-283.8821552838471
 30
0.0
 10
-254.2598462634751
 20
-284.3375969069972
 30
0.0
 10
-253.3110669668372
 20
-284.7813252054974
 30
0.0
 10
-252.3808911858198
 20
-285.2526142678797
 30
0.0
 10
-251.4569165766757
 20
-285.7018547191561
 30
0.0
 10
-250.5453443112785
 20
-286.1448939985592
 30
0.0
 10
-249.6399732177551
 20
-286.5913783734476
 30
0.0
 10
-248.7470044679783
 20
-287.010301984454
 30
0.0
 10
-247.916047436936
 20
-287.409933060743
 30
0.0
 10
-247.0726880621469
 20
-287.7854484686352
 30
0.0
 10
-246.2293286873578
 20
-288.1478725136835
 30
0.0
  0
SPLINE
  5
1EE
330
1F
100
AcDbEntity
  8
DETAIL
 62
     5
370
    18
100
AcDbSpline
210
0.0
220
0.0
230
1.0
 70
     8
 71
     3
 72
     8
 73
     4
 74
     0
 42
0.000000001
 43
0.0000000001
 40
0.0
 40
0.0
 40
0.0
 40
0.0
 40
1.0
 40
1.0
 40
1.0
 40
1.0
 10
-246.2293286873578
 20
-288.1478725136835
 30
0.0
 10
-245.832453687457
 20
-288.3215053261401
 30
0.0
 10
-245.4293775156827
 20
-288.4889369667233
 30
0.0
 10
-245.020100172035
 20
-288.6598137027916
 30
0.0
  0
LINE
  5
1EF
330
1F
100
AcDbEntity
  8
DETAIL
 62
     5
370
    18
100
AcDbLine
 10
-243.4574048599257
 20
-289.2923332338835
 30
0.0
 11
-242.9551099381763
 21
-289.4811244664752
 31
0.0
  0
SPLINE
  5
1F0
330
1F
100
AcDbEntity
  8
DETAIL
 62
     5
370
    18
100
AcDbSpline
210
0.0
220
0.0
230
1.0
 70
     8
 71
     3
 72
     8
 73
     4
 74
     0
 42
0.000000001
 43
0.0000000001
 40
0.0
 40
0.0
 40
0.0
 40
0.0
 40
1.0
 40
1.0
 40
1.0
 40
1.0
 10
-245.0014966564145
 20
-288.6598137027916
 30
0.0
 10
-244.4867993909184
 20
-288.8768547183624
 30
0.0
 10
-243.9783032972955
 20
-289.0876945620597
 30
0.0
 10
-243.4574048599257
 20
-289.2923332338835
 30
0.0
  0
LINE
  5
1F1
330
1F
100
AcDbEntity
  8
DETAIL
 62
     5
370
    18
100
AcDbLine
 10
-339.7774514938317
 20
-227.8001348985621
 30
0.0
 11
-340.7820413373306
 21
-227.8001348985621
 31
0.0
  0
LINE
  5
1F2
330
1F
100
AcDbEntity
  8
DETAIL
 62
     5
370
    18
100
AcDbLine
 10
-339.7774514938317
 20
-205.2843688451633
 30
0.0
 11
-340.7820413373306
 21
-205.2843688451633
 31
0.0
  0
SPLINE
  5
1F3
330
1F
100
AcDbEntity
  8
DETAIL
 62
     5
370
    18
100
AcDbSpline
210
0.0
220
0.0
230
1.0
 70
     8
 71
     3
 72
    29
 73
    25
 74
     0
 42
0.000000001
 43
0.0000000001
 40
0.0
 40
0.0
 40
0.0
 40
0.0
 40
1.0
 40
1.0
 40
1.0
 40
2.0
 40
2.0
 40
2.0
 40
3.0
 40
3.0
 40
3.0
 40
4.0
 40
4.0
 40
4.0
 40
5.0
 40
5.0
 40
5.0
 40
6.0
 40
6.0
 40
6.0
 40
7.0
 40
7.0
 40
7.0
 40
8.0
 40
8.0
 40
8.0
 40
8.0
 10
-339.7774514938317
 20
-205.2843688451633
 30
0.0
 10
-338.7108499315985
 20
-205.7832186714275
 30
0.0
 10
-337.7248636037198
 20
-206.425384469878
 30
0.0
 10
-336.8325838730402
 20
-207.197085858574
 30
0.0
 10
-335.9396151232634
 20
-207.9784335146286
 30
0.0
 10
-335.1582674672088
 20
-208.8714022644054
 30
0.0
 10
-334.5195467642434
 20
-209.8546325158957
 30
0.0
 10
-333.8870272331515
 20
-210.8495760920359
 30
0.0
 10
-333.3971346551491
 20
-211.9258239216279
 30
0.0
 10
-333.0622713739826
 20
-213.0606383744692
 30
0.0
 10
-332.7336092646901
 20
-214.1858065599518
 30
0.0
 10
-332.5537752803598
 20
-215.3667852922954
 30
0.0
 10
-332.5537752803598
 20
-216.5450079482509
 30
0.0
 10
-332.5537752803598
 20
-217.7170294323329
 30
0.0
 10
-332.7336092646901
 20
-218.8952520882883
 30
0.0
 10
-333.0622713739826
 20
-220.0211092928679
 30
0.0
 10
-333.3971346551491
 20
-221.1559237457092
 30
0.0
 10
-333.8870272331515
 20
-222.2349276516895
 30
0.0
 10
-334.5257479361169
 20
-223.2298712278297
 30
0.0
 10
-335.1582674672088
 20
-224.21310147932
 30
0.0
 10
-335.9396151232634
 20
-225.1088263054849
 30
0.0
 10
-336.8325838730402
 20
-225.8867288660543
 30
0.0
 10
-337.7248636037198
 20
-226.6591192738474
 30
0.0
 10
-338.7108499315985
 20
-227.3005960532009
 30
0.0
 10
-339.7774514938317
 20
-227.8001348985621
 30
0.0
  0
LINE
  5
1F4
330
1F
100
AcDbEntity
  8
DETAIL
 62
     5
370
    18
100
AcDbLine
 10
-324.6038729385973
 20
-270.2643818497516
 30
0.0
 11
-305.9762416498515
 21
-270.2643818497516
 31
0.0
  0
LINE
  5
1F5
330
1F
100
AcDbEntity
  8
DETAIL
 62
     5
370
    18
100
AcDbLine
 10
-325.8193026257936
 20
-268.9159714768248
 30
0.0
 11
-304.9964564938464
 21
-268.9159714768248
 31
0.0
  0
LINE
  5
1F6
330
1F
100
AcDbEntity
  8
DETAIL
 62
     5
370
    18
100
AcDbLine
 10
-320.0894198147262
 20
-255.2237839802478
 30
0.0
 11
-329.1431307499625
 21
-255.2237839802478
 31
0.0
  0
SPLINE
  5
1F7
330
1F
100
AcDbEntity
  8
DETAIL
 62
     5
370
    18
100
AcDbSpline
210
0.0
220
0.0
230
1.0
 70
     8
 71
     3
 72
    14
 73
    10
 74
     0
 42
0.000000001
 43
0.0000000001
 40
0.0
 40
0.0
 40
0.0
 40
0.0
 40
1.0
 40
1.0
 40
1.0
 40
2.0
 40
2.0
 40
2.0
 40
3.0
 40
3.0
 40
3.0
 40
3.0
 10
-350.6977151629767
 20
-234.1625372407215
 30
0.0
 10
-354.0649514902598
 20
-231.9328714426678
 30
0.0
 10
-357.4383889894166
 20
-229.7038946637111
 30
0.0
 10
-360.8118264885734
 20
-227.4866312094044
 30
0.0
 10
-363.9303269218213
 20
-225.4436895866512
 30
0.0
 10
-367.0495163741666
 20
-223.4097052121597
 30
0.0
 10
-370.1873093421323
 20
-221.3977694487738
 30
0.0
 10
-373.1824753570084
 20
-219.4657599006457
 30
0.0
 10
-376.1962448875049
 20
-217.553042887235
 30
0.0
 10
-379.1976120742546
 20
-215.6058749189718
 30
0.0
  0
SPLINE
  5
1F8
330
1F
100
AcDbEntity
  8
DETAIL
 62
     5
370
    18
100
AcDbSpline
210
0.0
220
0.0
230
1.0
 70
     8
 71
     3
 72
     8
 73
     4
 74
     0
 42
0.000000001
 43
0.0000000001
 40
0.0
 40
0.0
 40
0.0
 40
0.0
 40
1.0
 40
1.0
 40
1.0
 40
1.0
 10
-295.117989699441
 20
-38.68747489809715
 30
0.0
 10
-302.3051479007693
 20
-39.18081257158497
 30
0.0
 10
-309.4799037583507
 20
-39.70446708534297
 30
0.0
 10
-316.6725741124551
 20
-40.23501179007149
 30
0.0
  0
SPLINE
  5
1F9
330
1F
100
AcDbEntity
  8
DETAIL
 62
     5
370
    18
100
AcDbSpline
210
0.0
220
0.0
230
1.0
 70
     8
 71
     3
 72
     8
 73
     4
 74
     0
 42
0.000000001
 43
0.0000000001
 40
0.0
 40
0.0
 40
0.0
 40
0.0
 40
1.0
 40
1.0
 40
1.0
 40
1.0
 10
-294.9443568869845
 20
-43.22690496423667
 30
0.0
 10
-302.1253139164392
 20
-43.72919988598602
 30
0.0
 10
-309.3186732896409
 20
-44.25354341884104
 30
0.0
 10
-316.4989412999986
 20
-44.77444185621084
 30
0.0
  0
SPLINE
  5
1FA
330
1F
100
AcDbEntity
  8
DETAIL
 62
     5
370
    18
100
AcDbSpline
210
0.0
220
0.0
230
1.0
 70
     8
 71
     3
 72
     8
 73
     4
 74
     0
 42
0.000000001
 43
0.0000000001
 40
0.0
 40
0.0
 40
0.0
 40
0.0
 40
1.0
 40
1.0
 40
1.0
 40
1.0
 10
-316.6725741124551
 20
-40.23501179007149
 30
0.0
 10
-321.8505526267859
 20
-40.60983817886659
 30
0.0
 10
-327.0347323129897
 20
-40.99775593050575
 30
0.0
 10
-332.2189119991936
 20
-41.39738700679475
 30
0.0
  0
SPLINE
  5
1FB
330
1F
100
AcDbEntity
  8
DETAIL
 62
     5
370
    18
100
AcDbSpline
210
0.0
220
0.0
230
1.0
 70
     8
 71
     3
 72
     8
 73
     4
 74
     0
 42
0.000000001
 43
0.0000000001
 40
0.0
 40
0.0
 40
0.0
 40
0.0
 40
1.0
 40
1.0
 40
1.0
 40
1.0
 10
-316.4989412999986
 20
-44.77444185621084
 30
0.0
 10
-321.7017245018228
 20
-45.15546941687943
 30
0.0
 10
-326.9107088755206
 20
-45.54614324490688
 30
0.0
 10
-332.1072909054715
 20
-45.94301824480765
 30
0.0
  0
LINE
  5
1FC
330
1F
100
AcDbEntity
  8
DETAIL
 62
     5
370
    18
100
AcDbLine
 10
-2.989050970390053
 20
-216.036511854628
 30
0.0
 11
-2.989050970390053
 21
-215.457046794009
 31
0.0
  0
LINE
  5
1FD
330
1F
100
AcDbEntity
  8
DETAIL
 62
     5
370
    18
100
AcDbLine
 10
-2.989050970390053
 20
-204.5526305640962
 30
0.0
 11
-2.989050970390053
 21
-203.4763827345042
 31
0.0
  0
SPLINE
  5
1FE
330
1F
100
AcDbEntity
  8
DETAIL
 62
     5
370
    18
100
AcDbSpline
210
0.0
220
0.0
230
1.0
 70
     8
 71
     3
 72
     8
 73
     4
 74
     0
 42
0.000000001
 43
0.0000000001
 40
0.0
 40
0.0
 40
0.0
 40
0.0
 40
1.0
 40
1.0
 40
1.0
 40
1.0
 10
-3.478943548392408
 20
-216.5450079482509
 30
0.0
 10
-3.212293157834209
 20
-216.5360506999892
 30
0.0
 10
-2.989050970390053
 20
-216.3093634170598
 30
0.0
 10
-2.989050970390053
 20
-216.036511854628
 30
0.0
  0
SPLINE
  5
1FF
330
1F
100
AcDbEntity
  8
DETAIL
 62
     5
370
    18
100
AcDbSpline
210
0.0
220
0.0
230
1.0
 70
     8
 71
     3
 72
     8
 73
     4
 74
     0
 42
0.000000001
 43
0.0000000001
 40
0.0
 40
0.0
 40
0.0
 40
0.0
 40
1.0
 40
1.0
 40
1.0
 40
1.0
 10
-2.989050970390053
 20
-215.457046794009
 30
0.0
 10
-2.989050970390053
 20
-215.1841952315772
 30
0.0
 10
-3.218494329707481
 20
-214.9575079486477
 30
0.0
 10
-3.491345892139406
 20
-214.9575079486477
 30
0.0
  0
SPLINE
  5
200
330
1F
100
AcDbEntity
  8
DETAIL
 62
     5
370
    18
100
AcDbSpline
210
0.0
220
0.0
230
1.0
 70
     8
 71
     3
 72
     8
 73
     4
 74
     0
 42
0.000000001
 43
0.0000000001
 40
0.0
 40
0.0
 40
0.0
 40
0.0
 40
1.0
 40
1.0
 40
1.0
 40
1.0
 10
-2.989050970390053
 20
-203.4763827345042
 30
0.0
 10
-2.989050970390053
 20
-203.2069762675576
 30
0.0
 10
-3.218494329707481
 20
-202.9837340801134
 30
0.0
 10
-3.491345892139406
 20
-202.9837340801134
 30
0.0
  0
LINE
  5
201
330
1F
100
AcDbEntity
  8
DETAIL
 62
     5
370
    18
100
AcDbLine
 10
-27.81165296071208
 20
-216.6600741374582
 30
0.0
 11
-27.81165296071208
 21
-217.2340270453008
 31
0.0
  0
SPLINE
  5
202
330
1F
100
AcDbEntity
  8
DETAIL
 62
     5
370
    18
100
AcDbSpline
210
0.0
220
0.0
230
1.0
 70
     8
 71
     3
 72
    11
 73
     7
 74
     0
 42
0.000000001
 43
0.0000000001
 40
0.0
 40
0.0
 40
0.0
 40
0.0
 40
1.0
 40
1.0
 40
1.0
 40
2.0
 40
2.0
 40
2.0
 40
2.0
 10
-27.81165296071208
 20
-215.8380743546776
 30
0.0
 10
-27.81785413258558
 20
-215.9531405438849
 30
0.0
 10
-27.81785413258558
 20
-216.077163981354
 30
0.0
 10
-27.81785413258558
 20
-216.1949862469495
 30
0.0
 10
-27.81785413258558
 20
-216.3500155437857
 30
0.0
 10
-27.81785413258558
 20
-216.4988436687485
 30
0.0
 10
-27.81165296071208
 20
-216.6600741374582
 30
0.0
  0
LINE
  5
203
330
1F
100
AcDbEntity
  8
DETAIL
 62
     5
370
    18
100
AcDbLine
 10
-27.9046705388139
 20
-215.7236971845673
 30
0.0
 11
-27.87986585132012
 21
-215.7547030439346
 31
0.0
  0
LINE
  5
204
330
1F
100
AcDbEntity
  8
DETAIL
 62
     5
370
    18
100
AcDbLine
 10
-27.87986585132012
 20
-215.7547030439346
 30
0.0
 11
-27.81165296071208
 21
-215.8380743546776
 31
0.0
  0
SPLINE
  5
205
330
1F
100
AcDbEntity
  8
DETAIL
 62
     5
370
    18
100
AcDbSpline
210
0.0
220
0.0
230
1.0
 70
     8
 71
     3
 72
    11
 73
     7
 74
     0
 42
0.000000001
 43
0.0000000001
 40
0.0
 40
0.0
 40
0.0
 40
0.0
 40
1.0
 40
1.0
 40
1.0
 40
2.0
 40
2.0
 40
2.0
 40
2.0
 10
-26.44739514855314
 20
-4.104917398062241
 30
0.0
 10
-26.44739614855314
 20
-4.104917398062241
 30
0.0
 10
-27.93567639818116
 20
-4.104917398062241
 30
0.0
 10
-27.93567639818116
 20
-4.104918398062239
 30
0.0
 10
-27.93567639818116
 20
-4.104919398062236
 30
0.0
 10
-27.93567639818117
 20
-4.290952054265741
 30
0.0
 10
-27.93567639818116
 20
-4.290952554265741
 30
0.0
  0
SPLINE
  5
206
330
1F
100
AcDbEntity
  8
DETAIL
 62
     5
370
    18
100
AcDbSpline
210
0.0
220
0.0
230
1.0
 70
     8
 71
     3
 72
    35
 73
    31
 74
     0
 42
0.000000001
 43
0.0000000001
 40
2.0
 40
2.0
 40
2.0
 40
2.0
 40
3.0
 40
3.0
 40
3.0
 40
4.0
 40
4.0
 40
4.0
 40
5.0
 40
5.0
 40
5.0
 40
6.0
 40
6.0
 40
6.0
 40
7.0
 40
7.0
 40
7.0
 40
8.0
 40
8.0
 40
8.0
 40
9.0
 40
9.0
 40
9.0
 40
10.0
 40
10.0
 40
10.0
 40
11.0
 40
11.0
 40
11.0
 40
12.0
 40
12.0
 40
12.0
 40
12.0
 10
-27.93567639818116
 20
-4.290952554265741
 30
0.0
 10
-33.63455334988135
 20
-4.3932718901778
 30
0.0
 10
-39.32102795783476
 20
-4.492490640152992
 30
0.0
 10
-45.01990490953494
 20
-4.594809976064823
 30
0.0
 10
-50.71189167026478
 20
-4.706431069787013
 30
0.0
 10
-56.39836627821818
 20
-4.821152749445616
 30
0.0
 10
-62.0972432299186
 20
-4.945176186914806
 30
0.0
 10
-73.46950342672832
 20
-5.187021889979233
 30
0.0
 10
-84.85485498638172
 20
-5.466074624284543
 30
0.0
 10
-96.23951752693849
 20
-5.757529702336626
 30
0.0
 10
-107.6186679147185
 20
-6.055185952262204
 30
0.0
 10
-119.0040194743724
 20
-6.380747475618306
 30
0.0
 10
-130.3762796711819
 20
-6.706308998974407
 30
0.0
 10
-141.7678324027091
 20
-7.031870522330508
 30
0.0
 10
-153.1462937713922
 20
-7.379136147243741
 30
0.0
 10
-164.5254441591726
 20
-7.729502358093609
 30
0.0
 10
-208.7322204068014
 20
-9.0968607561893
 30
0.0
 10
-252.8459790763286
 20
-12.95709024741171
 30
0.0
 10
-296.6186732928159
 20
-19.30071681917656
 30
0.0
 10
-303.5825893066999
 20
-20.30530666267538
 30
0.0
 10
-310.3480678206336
 20
-22.37649806840756
 30
0.0
 10
-316.6601717687083
 20
-25.44883422215338
 30
0.0
 10
-321.8753573142794
 20
-27.97529499626137
 30
0.0
 10
-327.0781405161037
 20
-30.5115742925023
 30
0.0
 10
-332.2995272335486
 20
-33.04509751235509
 30
0.0
 10
-332.9196444208935
 20
-33.33655259040718
 30
0.0
 10
-333.5645662957322
 20
-33.62180649658586
 30
0.0
 10
-334.1908846549507
 20
-33.90706040276456
 30
0.0
 10
-336.0884432482262
 20
-34.76902329317403
 30
0.0
 10
-338.8720804003081
 20
-35.9582702546823
 30
0.0
 10
-340.7820413373306
 20
-36.8105868777331
 30
0.0
  0
LINE
  5
207
330
1F
100
AcDbEntity
  8
DETAIL
 62
     5
370
    18
100
AcDbLine
 10
-85.61139795494273
 20
-221.952429821899
 30
0.0
 11
-85.61139795494273
 21
-221.9620760892577
 31
0.0
  0
LINE
  5
208
330
1F
100
AcDbEntity
  8
DETAIL
 62
     5
370
    18
100
AcDbLine
 10
-17.94007635727712
 20
-217.0073397623714
 30
0.0
 11
-17.94007635727712
 21
-216.988736246751
 31
0.0
  0
LINE
  5
209
330
1F
100
AcDbEntity
  8
OUTLINE
 62
     3
370
    18
100
AcDbLine
 10
-362.7831101252332
 20
-42.073486995775
 30
0.0
 11
-364.03574684367
 21
-42.92304754243757
 31
0.0
  0
LINE
  5
20A
330
1F
100
AcDbEntity
  8
OUTLINE
 62
     3
370
    18
100
AcDbLine
 10
-361.4877542227792
 20
-41.22099811794993
 30
0.0
 11
-362.7831101252332
 21
-42.073486995775
 31
0.0
  0
LINE
  5
20B
330
1F
100
AcDbEntity
  8
OUTLINE
 62
     3
370
    18
100
AcDbLine
 10
-360.1296975824937
 20
-40.36799247580204
 30
0.0
 11
-361.4877542227792
 21
-41.22099811794993
 31
0.0
  0
LINE
  5
20C
330
1F
100
AcDbEntity
  8
OUTLINE
 62
     3
370
    18
100
AcDbLine
 10
-358.715830395347
 20
-39.50602958539258
 30
0.0
 11
-360.1296975824937
 21
-40.36799247580204
 31
0.0
  0
LINE
  5
20D
330
1F
100
AcDbEntity
  8
OUTLINE
 62
     3
370
    18
100
AcDbLine
 10
-357.26475617696
 20
-38.65371296234179
 30
0.0
 11
-358.715830395347
 21
-39.50602958539258
 31
0.0
  0
LINE
  5
20E
330
1F
100
AcDbEntity
  8
OUTLINE
 62
     3
370
    18
100
AcDbLine
 10
-340.2797464155812
 20
-30.76926743479902
 30
0.0
 11
-320.3126620021702
 21
-19.24490627231552
 31
0.0
  0
LINE
  5
20F
330
1F
100
AcDbEntity
  8
OUTLINE
 62
     3
370
    18
100
AcDbLine
 10
-355.7454690679648
 20
-37.80759751116438
 30
0.0
 11
-357.26475617696
 21
-38.65371296234179
 31
0.0
  0
LINE
  5
210
330
1F
100
AcDbEntity
  8
OUTLINE
 62
     3
370
    18
100
AcDbLine
 10
-354.3254007089447
 20
-37.0386521988566
 30
0.0
 11
-355.7454690679648
 21
-37.80759751116438
 31
0.0
  0
LINE
  5
211
330
1F
100
AcDbEntity
  8
OUTLINE
 62
     3
370
    18
100
AcDbLine
 10
-347.0824319607554
 20
-33.18427936995914
 30
0.0
 11
-353.4634378185352
 21
-36.58252155660961
 31
0.0
  0
LINE
  5
212
330
1F
100
AcDbEntity
  8
OUTLINE
 62
     3
370
    18
100
AcDbLine
 10
-353.4634378185352
 20
-36.58252155660961
 30
0.0
 11
-354.3254007089447
 21
-37.0386521988566
 31
0.0
  0
LINE
  5
213
330
1F
100
AcDbEntity
  8
OUTLINE
 62
     3
370
    18
100
AcDbLine
 10
-377.7651413714875
 20
-48.19404363486984
 30
0.0
 11
-369.083500748658
 21
-44.14192232511896
 31
0.0
  0
LINE
  5
214
330
1F
100
AcDbEntity
  8
OUTLINE
 62
     3
370
    18
100
AcDbLine
 10
-378.2116257463761
 20
-48.55991277540335
 30
0.0
 11
-378.9557663711899
 21
-49.5369418550203
 31
0.0
  0
LINE
  5
215
330
1F
100
AcDbEntity
  8
OUTLINE
 62
     3
370
    18
100
AcDbLine
 10
-326.4828280162527
 20
-259.0126999949256
 30
0.0
 11
-326.4766268443791
 21
-259.0995164011539
 31
0.0
  0
LINE
  5
216
330
1F
100
AcDbEntity
  8
OUTLINE
 62
     3
370
    18
100
AcDbLine
 10
-325.9681307507563
 20
-268.6582783345281
 30
0.0
 11
-325.9619295788831
 21
-268.7113328050009
 31
0.0
  0
LINE
  5
217
330
1F
100
AcDbEntity
  8
OUTLINE
 62
     3
370
    18
100
AcDbLine
 10
-326.4766268443791
 20
-259.0995164011539
 30
0.0
 11
-326.4766268443791
 21
-259.1119187449008
 31
0.0
  0
LINE
  5
218
330
1F
100
AcDbEntity
  8
OUTLINE
 62
     3
370
    18
100
AcDbLine
 10
-326.1293612194661
 20
-265.6135029446643
 30
0.0
 11
-325.9681307507563
 21
-268.6582783345281
 31
0.0
  0
LINE
  5
219
330
1F
100
AcDbEntity
  8
OUTLINE
 62
     3
370
    18
100
AcDbLine
 10
-326.2161776256944
 20
-263.9949970856939
 30
0.0
 11
-326.1293612194661
 21
-265.6259052884113
 31
0.0
  0
LINE
  5
21A
330
1F
100
AcDbEntity
  8
OUTLINE
 62
     3
370
    18
100
AcDbLine
 10
-326.3029940319227
 20
-262.3365281190947
 30
0.0
 11
-326.2161776256944
 21
-263.9949970856939
 31
0.0
  0
LINE
  5
21B
330
1F
100
AcDbEntity
  8
OUTLINE
 62
     3
370
    18
100
AcDbLine
 10
-326.4766268443791
 20
-259.1119187449008
 30
0.0
 11
-326.3029940319227
 21
-262.3454853673563
 31
0.0
  0
LINE
  5
21C
330
1F
100
AcDbEntity
  8
OUTLINE
 62
     3
370
    18
100
AcDbLine
 10
-329.1431307499625
 20
-255.2237839802478
 30
0.0
 11
-329.0811190312281
 21
-256.7775220440955
 31
0.0
  0
LINE
  5
21D
330
1F
100
AcDbEntity
  8
OUTLINE
 62
     3
370
    18
100
AcDbLine
 10
-329.229947156191
 20
-250.0492505614026
 30
0.0
 11
-329.1431307499625
 21
-255.2237839802478
 31
0.0
  0
LINE
  5
21E
330
1F
100
AcDbEntity
  8
OUTLINE
 62
     3
370
    18
100
AcDbLine
 10
-319.3948885648997
 20
-271.3344285074701
 30
0.0
 11
-319.3948885648997
 21
-271.2317646620097
 31
0.0
  0
LINE
  5
21F
330
1F
100
AcDbEntity
  8
OUTLINE
 62
     3
370
    18
100
AcDbLine
 10
-379.1976120742546
 20
-215.6058749189718
 30
0.0
 11
-379.1976120742546
 21
-50.25903386872852
 31
0.0
  0
LINE
  5
220
330
1F
100
AcDbEntity
  8
OUTLINE
 62
     3
370
    18
100
AcDbLine
 10
-379.1976120742546
 20
-50.25903386872852
 30
0.0
 11
-379.1976120742546
 21
-50.23698525762307
 31
0.0
  0
LINE
  5
221
330
1F
100
AcDbEntity
  8
OUTLINE
 62
     3
370
    18
100
AcDbLine
 10
-304.7984403498178
 20
-263.3804576727409
 30
0.0
 11
-304.9964564938464
 21
-268.9159714768248
 31
0.0
  0
LINE
  5
222
330
1F
100
AcDbEntity
  8
OUTLINE
 62
     3
370
    18
100
AcDbLine
 10
-379.1976120742546
 20
-50.23698525762307
 30
0.0
 11
-379.191410902381
 21
-50.14121160313306
 31
0.0
  0
POINT
  5
223
330
1F
100
AcDbEntity
  8
OUTLINE
 62
     3
370
    18
100
AcDbPoint
 10
-324.6100741104708
 20
-270.2767841934985
 30
0.0
  0
LINE
  5
224
330
1F
100
AcDbEntity
  8
OUTLINE
 62
     3
370
    18
100
AcDbLine
 10
-324.6038729385973
 20
-270.2643818497516
 30
0.0
 11
-324.6100741104708
 21
-270.2767841934985
 31
0.0
  0
LINE
  5
225
330
1F
100
AcDbEntity
  8
OUTLINE
 62
     3
370
    18
100
AcDbLine
 10
-123.7410257665908
 20
-293.7227260279148
 30
0.0
 11
-123.7410257665908
 21
-293.6455558890452
 31
0.0
  0
LINE
  5
226
330
1F
100
AcDbEntity
  8
OUTLINE
 62
     3
370
    18
100
AcDbLine
 10
-2.982849798516553
 20
-291.7852043270102
 30
0.0
 11
-2.989050970390053
 21
-291.7852043270102
 31
0.0
  0
POINT
  5
227
330
1F
100
AcDbEntity
  8
OUTLINE
 62
     3
370
    18
100
AcDbPoint
 10
-95.68830224929845
 20
-294.3772941701123
 30
0.0
  0
LINE
  5
228
330
1F
100
AcDbEntity
  8
OUTLINE
 62
     3
370
    18
100
AcDbLine
 10
-95.68830224929845
 20
-294.3772941701123
 30
0.0
 11
-2.908435736035243
 21
-294.3772941701123
 31
0.0
  0
LINE
  5
229
330
1F
100
AcDbEntity
  8
OUTLINE
 62
     3
370
    18
100
AcDbLine
 10
-316.8276034092914
 20
-272.1963913978797
 30
0.0
 11
-317.8259920809169
 21
-272.1777878822593
 31
0.0
  0
LINE
  5
22A
330
1F
100
AcDbEntity
  8
OUTLINE
 62
     3
370
    18
100
AcDbLine
 10
-129.2476663902141
 20
-293.5339347953231
 30
0.0
 11
-123.7410257665908
 21
-293.7227260279148
 31
0.0
  0
LINE
  5
22B
330
1F
100
AcDbEntity
  8
OUTLINE
 62
     3
370
    18
100
AcDbLine
 10
-319.9343905178898
 20
-271.1421921793932
 30
0.0
 11
-319.6119295804704
 21
-271.1918015543808
 31
0.0
  0
LINE
  5
22C
330
1F
100
AcDbEntity
  8
OUTLINE
 62
     3
370
    18
100
AcDbLine
 10
-317.9624178621327
 20
-272.1557392711538
 30
0.0
 11
-317.8259920809169
 21
-272.1777878822593
 31
0.0
  0
LINE
  5
22D
330
1F
100
AcDbEntity
  8
OUTLINE
 62
     3
370
    18
100
AcDbLine
 10
-319.6181307523439
 20
-271.1918015543808
 30
0.0
 11
-319.3948885648997
 21
-271.2317646620097
 31
0.0
  0
LINE
  5
22E
330
1F
100
AcDbEntity
  8
OUTLINE
 62
     3
370
    18
100
AcDbLine
 10
-324.6348787979646
 20
-270.270583021625
 30
0.0
 11
-324.6100741104708
 21
-270.2767841934985
 31
0.0
  0
LINE
  5
22F
330
1F
100
AcDbEntity
  8
OUTLINE
 62
     3
370
    18
100
AcDbLine
 10
-324.6844881729521
 20
-270.2554246014899
 30
0.0
 11
-324.6348787979646
 21
-270.270583021625
 31
0.0
  0
LINE
  5
230
330
1F
100
AcDbEntity
  8
OUTLINE
 62
     3
370
    18
100
AcDbLine
 10
-319.041421768113
 20
-271.8022724743672
 30
0.0
 11
-317.9624178621327
 21
-272.1557392711538
 31
0.0
  0
LINE
  5
231
330
1F
100
AcDbEntity
  8
OUTLINE
 62
     3
370
    18
100
AcDbLine
 10
-324.8271151260415
 20
-270.2147724747639
 30
0.0
 11
-324.6844881729521
 21
-270.2554246014899
 31
0.0
  0
LINE
  5
232
330
1F
100
AcDbEntity
  8
OUTLINE
 62
     3
370
    18
100
AcDbLine
 10
-325.0875643447264
 20
-270.0941941327803
 30
0.0
 11
-324.8209139541682
 21
-270.2147724747639
 31
0.0
  0
LINE
  5
233
330
1F
100
AcDbEntity
  8
OUTLINE
 62
     3
370
    18
100
AcDbLine
 10
-325.3356112196643
 20
-269.9329636640706
 30
0.0
 11
-325.0937655165999
 21
-270.0879929609068
 31
0.0
  0
LINE
  5
234
330
1F
100
AcDbEntity
  8
OUTLINE
 62
     3
370
    18
100
AcDbLine
 10
-325.5340487196149
 20
-269.7496845842553
 30
0.0
 11
-325.3356112196643
 21
-269.9329636640706
 31
0.0
  0
LINE
  5
235
330
1F
100
AcDbEntity
  8
OUTLINE
 62
     3
370
    18
100
AcDbLine
 10
-328.9446932500123
 20
-257.1061841533884
 30
0.0
 11
-328.2749666876796
 21
-257.7972703077295
 31
0.0
  0
LINE
  5
236
330
1F
100
AcDbEntity
  8
OUTLINE
 62
     3
370
    18
100
AcDbLine
 10
-325.6952791883246
 20
-269.5512470843048
 30
0.0
 11
-325.5278475477414
 21
-269.759330851614
 31
0.0
  0
LINE
  5
237
330
1F
100
AcDbEntity
  8
OUTLINE
 62
     3
370
    18
100
AcDbLine
 10
-325.8255037976669
 20
-269.3156025531138
 30
0.0
 11
-325.6952791883246
 21
-269.5512470843048
 31
0.0
  0
LINE
  5
238
330
1F
100
AcDbEntity
  8
OUTLINE
 62
     3
370
    18
100
AcDbLine
 10
-327.9525057502601
 20
-257.9433423563041
 30
0.0
 11
-326.7990877817986
 21
-258.0301587625324
 31
0.0
  0
LINE
  5
239
330
1F
100
AcDbEntity
  8
OUTLINE
 62
     3
370
    18
100
AcDbLine
 10
-326.7990877817986
 20
-258.0301587625324
 30
0.0
 11
-326.7866854380518
 21
-258.051518354541
 31
0.0
  0
LINE
  5
23A
330
1F
100
AcDbEntity
  8
OUTLINE
 62
     3
370
    18
100
AcDbLine
 10
-326.7866854380518
 20
-258.051518354541
 30
0.0
 11
-326.7060702036967
 21
-258.2251511669975
 31
0.0
  0
LINE
  5
23B
330
1F
100
AcDbEntity
  8
OUTLINE
 62
     3
370
    18
100
AcDbLine
 10
-326.7060702036967
 20
-258.2251511669975
 30
0.0
 11
-326.6254549693422
 21
-258.411186323201
 31
0.0
  0
LINE
  5
23C
330
1F
100
AcDbEntity
  8
OUTLINE
 62
     3
370
    18
100
AcDbLine
 10
-325.9061190320216
 20
-269.0799580219227
 30
0.0
 11
-325.8255037976669
 21
-269.3156025531138
 31
0.0
  0
LINE
  5
23D
330
1F
100
AcDbEntity
  8
OUTLINE
 62
     3
370
    18
100
AcDbLine
 10
-326.6254549693422
 20
-258.411186323201
 30
0.0
 11
-326.5572420787338
 21
-258.6006665748898
 31
0.0
  0
LINE
  5
23E
330
1F
100
AcDbEntity
  8
OUTLINE
 62
     3
370
    18
100
AcDbLine
 10
-326.5572420787338
 20
-258.6006665748898
 30
0.0
 11
-326.5076327037464
 21
-258.8053052467137
 31
0.0
  0
LINE
  5
23F
330
1F
100
AcDbEntity
  8
OUTLINE
 62
     3
370
    18
100
AcDbLine
 10
-325.9309237195157
 20
-268.986940443821
 30
0.0
 11
-325.9061190320216
 21
-269.0799580219227
 31
0.0
  0
LINE
  5
240
330
1F
100
AcDbEntity
  8
OUTLINE
 62
     3
370
    18
100
AcDbLine
 10
-325.9309237195157
 20
-268.986940443821
 30
0.0
 11
-325.9061190320216
 21
-269.0737568500493
 31
0.0
  0
LINE
  5
241
330
1F
100
AcDbEntity
  8
OUTLINE
 62
     3
370
    18
100
AcDbLine
 10
-325.937124891389
 20
-268.9221726486982
 30
0.0
 11
-325.9309237195157
 21
-268.986940443821
 31
0.0
  0
LINE
  5
242
330
1F
100
AcDbEntity
  8
OUTLINE
 62
     3
370
    18
100
AcDbLine
 10
-325.9619295788831
 20
-268.7051316331276
 30
0.0
 11
-325.9557284070092
 21
-268.8133076313643
 31
0.0
  0
LINE
  5
243
330
1F
100
AcDbEntity
  8
OUTLINE
 62
     3
370
    18
100
AcDbLine
 10
-325.9557284070092
 20
-268.8133076313643
 30
0.0
 11
-325.9557284070092
 21
-268.822953898723
 31
0.0
  0
LINE
  5
244
330
1F
100
AcDbEntity
  8
OUTLINE
 62
     3
370
    18
100
AcDbLine
 10
-325.9557284070092
 20
-268.822953898723
 30
0.0
 11
-325.937124891389
 21
-268.9283738205717
 31
0.0
  0
LINE
  5
245
330
1F
100
AcDbEntity
  8
OUTLINE
 62
     3
370
    18
100
AcDbLine
 10
-326.5076327037464
 20
-258.8053052467137
 30
0.0
 11
-326.4828280162527
 21
-259.0126999949256
 31
0.0
  0
LINE
  5
246
330
1F
100
AcDbEntity
  8
OUTLINE
 62
     3
370
    18
100
AcDbLine
 10
-95.68830224929845
 20
-294.3772941701123
 30
0.0
 11
-95.68830224929845
 21
-294.0796379201867
 31
0.0
  0
LINE
  5
247
330
1F
100
AcDbEntity
  8
OUTLINE
 62
     3
370
    18
100
AcDbLine
 10
-2.989050970390053
 20
-291.7603996395165
 30
0.0
 11
-2.989050970390053
 21
-289.3915519838587
 31
0.0
  0
LINE
  5
248
330
1F
100
AcDbEntity
  8
OUTLINE
 62
     3
370
    18
100
AcDbLine
 10
-2.989050970390053
 20
-289.3915519838587
 30
0.0
 11
-0.7070197209604885
 21
-287.8688197793783
 31
0.0
  0
LINE
  5
249
330
1F
100
AcDbEntity
  8
OUTLINE
 62
     3
370
    18
100
AcDbLine
 10
-2.908435736035243
 20
-294.3772941701123
 30
0.0
 11
-2.908435736035243
 21
-294.0796379201867
 31
0.0
  0
LINE
  5
24A
330
1F
100
AcDbEntity
  8
OUTLINE
 62
     3
370
    18
100
AcDbLine
 10
-0.0000861273872488
 20
-286.5293666547131
 30
0.0
 11
-0.0000861273872488
 21
-22.94700588076495
 31
0.0
  0
LINE
  5
24B
330
1F
100
AcDbEntity
  8
OUTLINE
 62
     3
370
    18
100
AcDbLine
 10
-2.964246282896056
 20
-293.1770229030512
 30
0.0
 11
-2.958045111022782
 21
-292.3867179987349
 31
0.0
  0
LINE
  5
24C
330
1F
100
AcDbEntity
  8
OUTLINE
 62
     3
370
    18
100
AcDbLine
 10
-378.9495651993166
 20
-49.5369418550203
 30
0.0
 11
-378.9557663711899
 21
-49.5369418550203
 31
0.0
  0
SPLINE
  5
24D
330
1F
100
AcDbEntity
  8
OUTLINE
 62
     3
370
    18
100
AcDbSpline
210
0.0
220
0.0
230
1.0
 70
     8
 71
     3
 72
     8
 73
     4
 74
     0
 42
0.000000001
 43
0.0000000001
 40
0.0
 40
0.0
 40
0.0
 40
0.0
 40
1.0
 40
1.0
 40
1.0
 40
1.0
 10
-164.6556687685149
 20
-2.185654703229545
 30
0.0
 10
-209.1911071254367
 20
-2.96700235928432
 30
0.0
 10
-253.6397290761302
 20
-6.135801186617013
 30
0.0
 10
-297.8403041518855
 20
-11.68895059929122
 30
0.0
  0
SPLINE
  5
24E
330
1F
100
AcDbEntity
  8
OUTLINE
 62
     3
370
    18
100
AcDbSpline
210
0.0
220
0.0
230
1.0
 70
     8
 71
     3
 72
     8
 73
     4
 74
     0
 42
0.000000001
 43
0.0000000001
 40
0.0
 40
0.0
 40
0.0
 40
0.0
 40
1.0
 40
1.0
 40
1.0
 40
1.0
 10
-316.8276034092914
 20
-272.1963913978797
 30
0.0
 10
-313.126192819939
 20
-272.1963913978797
 30
0.0
 10
-309.4613002427302
 20
-271.539067179294
 30
0.0
 10
-305.9762416498515
 20
-270.2643818497516
 30
0.0
  0
SPLINE
  5
24F
330
1F
100
AcDbEntity
  8
OUTLINE
 62
     3
370
    18
100
AcDbSpline
210
0.0
220
0.0
230
1.0
 70
     8
 71
     3
 72
     8
 73
     4
 74
     0
 42
0.000000001
 43
0.0000000001
 40
0.0
 40
0.0
 40
0.0
 40
0.0
 40
1.0
 40
1.0
 40
1.0
 40
1.0
 10
-324.6100741104708
 20
-270.2767841934985
 30
0.0
 10
-323.2520174701854
 20
-270.6364521621586
 30
0.0
 10
-321.8505526267859
 20
-270.9003464763287
 30
0.0
 10
-320.4552889552595
 20
-271.0677781169118
 30
0.0
  0
LINE
  5
250
330
1F
100
AcDbEntity
  8
OUTLINE
 62
     3
370
    18
100
AcDbLine
 10
-320.4552889552595
 20
-271.0677781169118
 30
0.0
 11
-320.2754549709295
 21
-271.0925828044056
 31
0.0
  0
LINE
  5
251
330
1F
100
AcDbEntity
  8
OUTLINE
 62
     3
370
    18
100
AcDbLine
 10
-320.2754549709295
 20
-271.0925828044056
 30
0.0
 11
-319.9343905178898
 21
-271.1421921793932
 31
0.0
  0
SPLINE
  5
252
330
1F
100
AcDbEntity
  8
OUTLINE
 62
     3
370
    18
100
AcDbSpline
210
0.0
220
0.0
230
1.0
 70
     8
 71
     3
 72
     8
 73
     4
 74
     0
 42
0.000000001
 43
0.0000000001
 40
0.0
 40
0.0
 40
0.0
 40
0.0
 40
1.0
 40
1.0
 40
1.0
 40
1.0
 10
-305.9762416498515
 20
-270.2643818497516
 30
0.0
 10
-305.3995326656209
 20
-270.0569871015395
 30
0.0
 10
-305.0088588375934
 20
-269.5174851485494
 30
0.0
 10
-304.9964564938464
 20
-268.9159714768248
 30
0.0
  0
SPLINE
  5
253
330
1F
100
AcDbEntity
  8
OUTLINE
 62
     3
370
    18
100
AcDbSpline
210
0.0
220
0.0
230
1.0
 70
     8
 71
     3
 72
     8
 73
     4
 74
     0
 42
0.000000001
 43
0.0000000001
 40
0.0
 40
0.0
 40
0.0
 40
0.0
 40
1.0
 40
1.0
 40
1.0
 40
1.0
 10
-328.2749666876796
 20
-257.7972703077295
 30
0.0
 10
-328.1881502814513
 20
-257.8813306375695
 30
0.0
 10
-328.0765291877292
 20
-257.9336960889454
 30
0.0
 10
-327.9525057502601
 20
-257.9433423563041
 30
0.0
  0
SPLINE
  5
254
330
1F
100
AcDbEntity
  8
OUTLINE
 62
     3
370
    18
100
AcDbSpline
210
0.0
220
0.0
230
1.0
 70
     8
 71
     3
 72
     8
 73
     4
 74
     0
 42
0.000000001
 43
0.0000000001
 40
0.0
 40
0.0
 40
0.0
 40
0.0
 40
1.0
 40
1.0
 40
1.0
 40
1.0
 10
-319.3948885648997
 20
-271.3344285074701
 30
0.0
 10
-319.3948885648997
 20
-271.5452683511675
 30
0.0
 10
-319.2522616118103
 20
-271.7375046792444
 30
0.0
 10
-319.041421768113
 20
-271.8022724743672
 30
0.0
  0
SPLINE
  5
255
330
1F
100
AcDbEntity
  8
OUTLINE
 62
     3
370
    18
100
AcDbSpline
210
0.0
220
0.0
230
1.0
 70
     8
 71
     3
 72
     8
 73
     4
 74
     0
 42
0.000000001
 43
0.0000000001
 40
0.0
 40
0.0
 40
0.0
 40
0.0
 40
1.0
 40
1.0
 40
1.0
 40
1.0
 10
-329.0811190312281
 20
-256.7775220440955
 30
0.0
 10
-329.0811190312281
 20
-256.9043015579527
 30
0.0
 10
-329.0315096562407
 20
-257.0159226516748
 30
0.0
 10
-328.9446932500123
 20
-257.1061841533884
 30
0.0
  0
SPLINE
  5
256
330
1F
100
AcDbEntity
  8
OUTLINE
 62
     3
370
    18
100
AcDbSpline
210
0.0
220
0.0
230
1.0
 70
     8
 71
     3
 72
     8
 73
     4
 74
     0
 42
0.000000001
 43
0.0000000001
 40
0.0
 40
0.0
 40
0.0
 40
0.0
 40
1.0
 40
1.0
 40
1.0
 40
1.0
 10
-243.2651685318488
 20
-289.4253139196142
 30
0.0
 10
-243.1659497818734
 20
-289.4597648744666
 30
0.0
 10
-243.0605298600249
 20
-289.4811244664751
 30
0.0
 10
-242.9551099381763
 20
-289.4811244664751
 30
0.0
  0
SPLINE
  5
257
330
1F
100
AcDbEntity
  8
OUTLINE
 62
     3
370
    18
100
AcDbSpline
210
0.0
220
0.0
230
1.0
 70
     8
 71
     3
 72
     8
 73
     4
 74
     0
 42
0.000000001
 43
0.0000000001
 40
0.0
 40
0.0
 40
0.0
 40
0.0
 40
1.0
 40
1.0
 40
1.0
 40
1.0
 10
-129.7871683432042
 20
-293.4409172172213
 30
0.0
 10
-129.6135355307476
 20
-293.4994838404707
 30
0.0
 10
-129.4275003745442
 20
-293.5277336234496
 30
0.0
 10
-129.2476663902141
 20
-293.5339347953231
 30
0.0
  0
SPLINE
  5
258
330
1F
100
AcDbEntity
  8
OUTLINE
 62
     3
370
    18
100
AcDbSpline
210
0.0
220
0.0
230
1.0
 70
     8
 71
     3
 72
     8
 73
     4
 74
     0
 42
0.000000001
 43
0.0000000001
 40
0.0
 40
0.0
 40
0.0
 40
0.0
 40
1.0
 40
1.0
 40
1.0
 40
1.0
 10
-0.7070197209604885
 20
-287.8688197793783
 30
0.0
 10
-0.2667365179454464
 20
-287.5684074530645
 30
0.0
 10
-0.0000861273872488
 20
-287.0723137031885
 30
0.0
 10
-0.0000861273872488
 20
-286.5293666547131
 30
0.0
  0
SPLINE
  5
259
330
1F
100
AcDbEntity
  8
OUTLINE
 62
     3
370
    18
100
AcDbSpline
210
0.0
220
0.0
230
1.0
 70
     8
 71
     3
 72
     8
 73
     4
 74
     0
 42
0.000000001
 43
0.0000000001
 40
0.0
 40
0.0
 40
0.0
 40
0.0
 40
1.0
 40
1.0
 40
1.0
 40
1.0
 10
-2.958045111022782
 20
-292.3867179987349
 30
0.0
 10
-2.958045111022782
 20
-292.3398647001355
 30
0.0
 10
-2.964246282896056
 20
-292.2840541532744
 30
0.0
 10
-2.970447454769555
 20
-292.2316887018987
 30
0.0
  0
SPLINE
  5
25A
330
1F
100
AcDbEntity
  8
OUTLINE
 62
     3
370
    18
100
AcDbSpline
210
0.0
220
0.0
230
1.0
 70
     8
 71
     3
 72
     8
 73
     4
 74
     0
 42
0.000000001
 43
0.0000000001
 40
0.0
 40
0.0
 40
0.0
 40
0.0
 40
1.0
 40
1.0
 40
1.0
 40
1.0
 10
-297.8403041518855
 20
-11.68895059929122
 30
0.0
 10
-305.7592006342807
 20
-12.68423868498002
 30
0.0
 10
-313.4114467261178
 20
-15.25135158581389
 30
0.0
 10
-320.3126620021702
 20
-19.24490627231552
 30
0.0
  0
SPLINE
  5
25B
330
1F
100
AcDbEntity
  8
OUTLINE
 62
     3
370
    18
100
AcDbSpline
210
0.0
220
0.0
230
1.0
 70
     8
 71
     3
 72
     8
 73
     4
 74
     0
 42
0.000000001
 43
0.0000000001
 40
0.0
 40
0.0
 40
0.0
 40
0.0
 40
1.0
 40
1.0
 40
1.0
 40
1.0
 10
-345.36470735181
 20
-32.68198444820967
 30
0.0
 10
-345.9662210235347
 20
-32.72883774680901
 30
0.0
 10
-346.5553323515123
 20
-32.90247055926562
 30
0.0
 10
-347.0824319607554
 20
-33.18427936995914
 30
0.0
  0
SPLINE
  5
25C
330
1F
100
AcDbEntity
  8
OUTLINE
 62
     3
370
    18
100
AcDbSpline
210
0.0
220
0.0
230
1.0
 70
     8
 71
     3
 72
     8
 73
     4
 74
     0
 42
0.000000001
 43
0.0000000001
 40
0.0
 40
0.0
 40
0.0
 40
0.0
 40
1.0
 40
1.0
 40
1.0
 40
1.0
 10
-378.9557663711899
 20
-49.5369418550203
 30
0.0
 10
-379.0859909805324
 20
-49.713330743865
 30
0.0
 10
-379.1666062148872
 20
-49.92761568304757
 30
0.0
 10
-379.191410902381
 20
-50.14121160313306
 30
0.0
  0
SPLINE
  5
25D
330
1F
100
AcDbEntity
  8
OUTLINE
 62
     3
370
    18
100
AcDbSpline
210
0.0
220
0.0
230
1.0
 70
     8
 71
     3
 72
     8
 73
     4
 74
     0
 42
0.000000001
 43
0.0000000001
 40
0.0
 40
0.0
 40
0.0
 40
0.0
 40
1.0
 40
1.0
 40
1.0
 40
1.0
 10
-377.7651413714875
 20
-48.19404363486984
 30
0.0
 10
-377.9449753558176
 20
-48.27810396470994
 30
0.0
 10
-378.0938034807805
 20
-48.40212740217889
 30
0.0
 10
-378.2116257463761
 20
-48.55991277540335
 30
0.0
  0
SPLINE
  5
25E
330
1F
100
AcDbEntity
  8
OUTLINE
 62
     3
370
    18
100
AcDbSpline
210
0.0
220
0.0
230
1.0
 70
     8
 71
     3
 72
     8
 73
     4
 74
     0
 42
0.000000001
 43
0.0000000001
 40
0.0
 40
0.0
 40
0.0
 40
0.0
 40
1.0
 40
1.0
 40
1.0
 40
1.0
 10
-340.2797464155812
 20
-30.76926743479902
 30
0.0
 10
-340.5836038373802
 20
-30.95185749551712
 30
0.0
 10
-340.7820413373306
 20
-31.27156235654837
 30
0.0
 10
-340.7820413373306
 20
-31.6277852297232
 30
0.0
  0
LINE
  5
25F
330
1F
100
AcDbEntity
  8
OUTLINE
 62
     3
370
    18
100
AcDbLine
 10
-340.7820413373306
 20
-31.6277852297232
 30
0.0
 11
-343.7710061803334
 21
-32.53660141873213
 31
0.0
  0
LINE
  5
260
330
1F
100
AcDbEntity
  8
OUTLINE
 62
     3
370
    18
100
AcDbLine
 10
-343.7710061803334
 20
-32.53660141873213
 30
0.0
 11
-345.36470735181
 21
-32.68198444820967
 31
0.0
  0
SPLINE
  5
261
330
1F
100
AcDbEntity
  8
OUTLINE
 62
     3
370
    18
100
AcDbSpline
210
0.0
220
0.0
230
1.0
 70
     8
 71
     3
 72
     8
 73
     4
 74
     0
 42
0.000000001
 43
0.0000000001
 40
0.0
 40
0.0
 40
0.0
 40
0.0
 40
1.0
 40
1.0
 40
1.0
 40
1.0
 10
-0.0000861273872488
 20
-22.94700588076495
 30
0.0
 10
-0.0000861273872488
 20
-22.12500609798434
 30
0.0
 10
-0.6636115178462206
 20
-21.45527953565176
 30
0.0
 10
-1.494568548888535
 20
-21.45527953565176
 30
0.0
  0
POINT
  5
262
330
1F
100
AcDbEntity
  8
OUTLINE
 62
     3
370
    18
100
AcDbPoint
 10
-326.4766268443791
 20
-259.1119187449008
 30
0.0
  0
SPLINE
  5
263
330
1F
100
AcDbEntity
  8
OUTLINE
 62
     3
370
    18
100
AcDbSpline
210
0.0
220
0.0
230
1.0
 70
     8
 71
     3
 72
     8
 73
     4
 74
     0
 42
0.000000001
 43
0.0000000001
 40
0.0
 40
0.0
 40
0.0
 40
0.0
 40
1.0
 40
1.0
 40
1.0
 40
1.0
 10
-325.8193026257936
 20
-268.9159714768248
 30
0.0
 10
-325.8441073132872
 20
-268.9221726486982
 30
0.0
 10
-325.8751131726544
 20
-268.9283738205717
 30
0.0
 10
-325.8937166882749
 20
-268.9559345844537
 30
0.0
  0
SPLINE
  5
264
330
1F
100
AcDbEntity
  8
OUTLINE
 62
     3
370
    18
100
AcDbSpline
210
0.0
220
0.0
230
1.0
 70
     8
 71
     3
 72
    14
 73
    10
 74
     0
 42
0.000000001
 43
0.0000000001
 40
0.0
 40
0.0
 40
0.0
 40
0.0
 40
1.0
 40
1.0
 40
1.0
 40
2.0
 40
2.0
 40
2.0
 40
3.0
 40
3.0
 40
3.0
 40
3.0
 10
-95.68830224929845
 20
-294.0796379201867
 30
0.0
 10
-95.66969873367815
 20
-294.0796379201867
 30
0.0
 10
-95.66349756180466
 20
-294.054833232693
 30
0.0
 10
-95.66349756180466
 20
-294.0300285451991
 30
0.0
 10
-95.65729638993118
 20
-293.974217998338
 30
0.0
 10
-95.65729638993118
 20
-293.9246086233504
 30
0.0
 10
-95.64489404618416
 20
-293.8874015921097
 30
0.0
 10
-95.64489404618416
 20
-293.7881828421345
 30
0.0
 10
-95.63869287431088
 20
-293.685518996674
 30
0.0
 10
-95.63869287431088
 20
-293.5738979029519
 30
0.0
  0
LINE
  5
265
330
1F
100
AcDbEntity
  8
OUTLINE
 62
     3
370
    18
100
AcDbLine
 10
-95.63869287431088
 20
-293.5738979029519
 30
0.0
 11
-95.62629053056386
 21
-293.1494621391692
 31
0.0
  0
LINE
  5
266
330
1F
100
AcDbEntity
  8
OUTLINE
 62
     3
370
    18
100
AcDbLine
 10
-95.62629053056386
 20
-293.1494621391692
 30
0.0
 11
-96.17750580820393
 21
-293.1928703422833
 31
0.0
  0
SPLINE
  5
267
330
1F
100
AcDbEntity
  8
OUTLINE
 62
     3
370
    18
100
AcDbSpline
210
0.0
220
0.0
230
1.0
 70
     8
 71
     3
 72
     8
 73
     4
 74
     0
 42
0.000000001
 43
0.0000000001
 40
5.0
 40
5.0
 40
5.0
 40
5.0
 40
6.0
 40
6.0
 40
6.0
 40
6.0
 10
-96.17750580820393
 20
-293.1928703422833
 30
0.0
 10
-96.7046054174473
 20
-293.2424797172709
 30
0.0
 10
-97.08907807360104
 20
-293.6765617484125
 30
0.0
 10
-97.08907807360104
 20
-294.1850578420353
 30
0.0
  0
LINE
  5
268
330
1F
100
AcDbEntity
  8
OUTLINE
 62
     3
370
    18
100
AcDbLine
 10
-97.08907807360104
 20
-294.1850578420353
 30
0.0
 11
-97.08907807360104
 21
-294.5757316700627
 31
0.0
  0
LINE
  5
269
330
1F
100
AcDbEntity
  8
OUTLINE
 62
     3
370
    18
100
AcDbLine
 10
-97.08907807360104
 20
-294.5757316700627
 30
0.0
 11
-242.9551099381763
 21
-289.4811244664751
 31
0.0
  0
SPLINE
  5
26A
330
1F
100
AcDbEntity
  8
OUTLINE
 62
     3
370
    18
100
AcDbSpline
210
0.0
220
0.0
230
1.0
 70
     8
 71
     3
 72
     8
 73
     4
 74
     0
 42
0.000000001
 43
0.0000000001
 40
0.0
 40
0.0
 40
0.0
 40
0.0
 40
1.0
 40
1.0
 40
1.0
 40
1.0
 10
-2.908435736035243
 20
-294.3772941701123
 30
0.0
 10
-2.939441595402513
 20
-294.3400871388715
 30
0.0
 10
-2.939441595402513
 20
-294.3276847951246
 30
0.0
 10
-2.939441595402513
 20
-294.3118373558925
 30
0.0
  0
SPLINE
  5
26B
330
1F
100
AcDbEntity
  8
OUTLINE
 62
     3
370
    18
100
AcDbSpline
210
0.0
220
0.0
230
1.0
 70
     8
 71
     3
 72
     8
 73
     4
 74
     0
 42
0.000000001
 43
0.0000000001
 40
0.0
 40
0.0
 40
0.0
 40
0.0
 40
1.0
 40
1.0
 40
1.0
 40
1.0
 10
-2.939441595402513
 20
-294.3118373558925
 30
0.0
 10
-2.951843939149283
 20
-294.194015090297
 30
0.0
 10
-2.951843939149283
 20
-294.1230461233008
 30
0.0
 10
-2.951843939149283
 20
-294.054833232693
 30
0.0
  0
SPLINE
  5
26C
330
1F
100
AcDbEntity
  8
OUTLINE
 62
     3
370
    18
100
AcDbSpline
210
0.0
220
0.0
230
1.0
 70
     8
 71
     3
 72
    11
 73
     7
 74
     0
 42
0.000000001
 43
0.0000000001
 40
0.0
 40
0.0
 40
0.0
 40
0.0
 40
1.0
 40
1.0
 40
1.0
 40
2.0
 40
2.0
 40
2.0
 40
2.0
 10
-2.951843939149283
 20
-294.054833232693
 30
0.0
 10
-2.964246282896056
 20
-293.8253898733753
 30
0.0
 10
-2.964246282896056
 20
-293.5897453421841
 30
0.0
 10
-2.970447454769555
 20
-293.3603019828666
 30
0.0
 10
-2.982849798516553
 20
-292.8297572781381
 30
0.0
 10
-2.982849798516553
 20
-292.3088588407683
 30
0.0
 10
-2.989050970390053
 20
-291.7852043270102
 30
0.0
  0
LINE
  5
26D
330
1F
100
AcDbEntity
  8
OUTLINE
 62
     3
370
    18
100
AcDbLine
 10
-164.6556687685149
 20
-2.198057046976543
 30
0.0
 11
-164.6556687685149
 21
-2.185654703229545
 31
0.0
  0
SPLINE
  5
26E
330
1F
100
AcDbEntity
  8
OUTLINE
 62
     3
370
    18
100
AcDbSpline
210
0.0
220
0.0
230
1.0
 70
     8
 71
     3
 72
    11
 73
     7
 74
     0
 42
0.000000001
 43
0.0000000001
 40
0.0
 40
0.0
 40
0.0
 40
0.0
 40
1.0
 40
1.0
 40
1.0
 40
2.0
 40
2.0
 40
2.0
 40
2.0
 10
-364.03574684367
 20
-42.92304754243757
 30
0.0
 10
-364.0357476649789
 20
-42.92304811292132
 30
0.0
 10
-365.1209519215236
 20
-43.67683443461027
 30
0.0
 10
-365.1209519215236
 20
-43.67683543461027
 30
0.0
 10
-365.1209519215236
 20
-43.67683643461027
 30
0.0
 10
-365.1209519215236
 20
-43.68303510648377
 30
0.0
 10
-365.1209519215236
 20
-43.68303560648377
 30
0.0
  0
SPLINE
  5
26F
330
1F
100
AcDbEntity
  8
OUTLINE
 62
     3
370
    18
100
AcDbSpline
210
0.0
220
0.0
230
1.0
 70
     8
 71
     3
 72
     8
 73
     4
 74
     0
 42
0.000000001
 43
0.0000000001
 40
2.0
 40
2.0
 40
2.0
 40
2.0
 40
3.0
 40
3.0
 40
3.0
 40
3.0
 10
-365.1209519215236
 20
-43.68303560648377
 30
0.0
 10
-365.1891648121317
 20
-43.72299871411263
 30
0.0
 10
-365.2697800464866
 20
-43.75744966896507
 30
0.0
 10
-365.3565964527147
 20
-43.76640691722679
 30
0.0
  0
LINE
  5
270
330
1F
100
AcDbEntity
  8
OUTLINE
 62
     3
370
    18
100
AcDbLine
 10
-365.3565964527147
 20
-43.76640691722679
 30
0.0
 11
-365.3627976245882
 21
-43.76640691722679
 31
0.0
  0
LINE
  5
271
330
1F
100
AcDbEntity
  8
OUTLINE
 62
     3
370
    18
100
AcDbLine
 10
-365.3627976245882
 20
-43.76640691722679
 30
0.0
 11
-368.668022233137
 21
-44.03030123139699
 31
0.0
  0
SPLINE
  5
272
330
1F
100
AcDbEntity
  8
OUTLINE
 62
     3
370
    18
100
AcDbSpline
210
0.0
220
0.0
230
1.0
 70
     8
 71
     3
 72
     8
 73
     4
 74
     0
 42
0.000000001
 43
0.0000000001
 40
5.0
 40
5.0
 40
5.0
 40
5.0
 40
6.0
 40
6.0
 40
6.0
 40
6.0
 10
-368.668022233137
 20
-44.03030123139699
 30
0.0
 10
-368.8044480143528
 20
-44.04890474701725
 30
0.0
 10
-368.9470749674422
 20
-44.07991060638454
 30
0.0
 10
-369.083500748658
 20
-44.14192232511896
 30
0.0
  0
LINE
  5
273
330
1F
100
AcDbEntity
  8
OUTLINE
 62
     3
370
    18
100
AcDbLine
 10
-164.6556687685149
 20
-2.185654703229545
 30
0.0
 11
-27.93567639818116
 21
0.1952507866265591
 31
0.0
  0
LINE
  5
274
330
1F
100
AcDbEntity
  8
OUTLINE
 62
     3
370
    18
100
AcDbLine
 10
-27.93567639818116
 20
0.1952507866265591
 30
0.0
 11
-27.9046705388139
 21
-0.5302863225670649
 31
0.0
  0
SPLINE
  5
275
330
1F
100
AcDbEntity
  8
OUTLINE
 62
     3
370
    18
100
AcDbSpline
210
0.0
220
0.0
230
1.0
 70
     8
 71
     3
 72
     8
 73
     4
 74
     0
 42
0.000000001
 43
0.0000000001
 40
2.0
 40
2.0
 40
2.0
 40
2.0
 40
3.0
 40
3.0
 40
3.0
 40
3.0
 10
-27.9046705388139
 20
-0.5302863225670649
 30
0.0
 10
-27.89226819506689
 20
-1.072888861493934
 30
0.0
 10
-27.44578382017858
 20
-1.497669134825116
 30
0.0
 10
-26.91248303906196
 20
-1.497669134825116
 30
0.0
  0
LINE
  5
276
330
1F
100
AcDbEntity
  8
OUTLINE
 62
     3
370
    18
100
AcDbLine
 10
-26.91248303906196
 20
-1.497669134825116
 30
0.0
 11
-26.44739514855314
 21
-1.497669134825116
 31
0.0
  0
LINE
  5
277
330
1F
100
AcDbEntity
  8
OUTLINE
 62
     3
370
    18
100
AcDbLine
 10
-26.44739514855314
 20
-1.497669134825116
 30
0.0
 11
-26.44739514855314
 21
-0.0000861273870782
 31
0.0
  0
LINE
  5
278
330
1F
100
AcDbEntity
  8
OUTLINE
 62
     3
370
    18
100
AcDbLine
 10
-26.44739514855314
 20
-0.0000861273870782
 30
0.0
 11
-12.97293777559485
 21
-0.0000861273870782
 31
0.0
  0
LINE
  5
279
330
1F
100
AcDbEntity
  8
OUTLINE
 62
     3
370
    18
100
AcDbLine
 10
-12.97293768664394
 20
-0.0000861273870782
 30
0.0
 11
-3.578162298367713
 21
-9.394517006114881
 31
0.0
  0
SPLINE
  5
27A
330
1F
100
AcDbEntity
  8
OUTLINE
 62
     3
370
    18
100
AcDbSpline
210
0.0
220
0.0
230
1.0
 70
     8
 71
     3
 72
     8
 73
     4
 74
     0
 42
0.000000001
 43
0.0000000001
 40
7.0
 40
7.0
 40
7.0
 40
7.0
 40
8.0
 40
8.0
 40
8.0
 40
8.0
 10
-3.578162298367713
 20
-9.394517006114881
 30
0.0
 10
-3.199890814087211
 20
-9.76968790445852
 30
0.0
 10
-2.989050970390053
 20
-10.26888224027124
 30
0.0
 10
-2.989050970390053
 20
-10.79908243545122
 30
0.0
  0
LINE
  5
27B
330
1F
100
AcDbEntity
  8
OUTLINE
 62
     3
370
    18
100
AcDbLine
 10
-2.989050970390053
 20
-10.79908243545122
 30
0.0
 11
-2.989050970390053
 21
-20.8448086156655
 31
0.0
  0
SPLINE
  5
27C
330
1F
100
AcDbEntity
  8
OUTLINE
 62
     3
370
    18
100
AcDbSpline
210
0.0
220
0.0
230
1.0
 70
     8
 71
     3
 72
     8
 73
     4
 74
     0
 42
0.000000001
 43
0.0000000001
 40
0.0
 40
0.0
 40
0.0
 40
0.0
 40
1.0
 40
1.0
 40
1.0
 40
1.0
 10
-2.989050970390053
 20
-20.8448086156655
 30
0.0
 10
-2.989050970390053
 20
-21.11766017809731
 30
0.0
 10
-3.212293157834209
 20
-21.32850002179447
 30
0.0
 10
-3.478943548392408
 20
-21.34090236554147
 30
0.0
  0
LINE
  5
27D
330
1F
100
AcDbEntity
  8
OUTLINE
 62
     3
370
    18
100
AcDbLine
 10
-3.478943548392408
 20
-21.34090236554147
 30
0.0
 11
-4.985828313640695
 21
-21.36846312942345
 31
0.0
  0
SPLINE
  5
27E
330
1F
100
AcDbEntity
  8
OUTLINE
 62
     3
370
    18
100
AcDbSpline
210
0.0
220
0.0
230
1.0
 70
     8
 71
     3
 72
    11
 73
     7
 74
     0
 42
0.000000001
 43
0.0000000001
 40
2.0
 40
2.0
 40
2.0
 40
2.0
 40
3.0
 40
3.0
 40
3.0
 40
4.0
 40
4.0
 40
4.0
 40
4.0
 10
-4.985828313640695
 20
-21.36846312942345
 30
0.0
 10
-4.985828313640695
 20
-21.36846412942345
 30
0.0
 10
-4.985828313640695
 20
-21.45527953565176
 30
0.0
 10
-4.985827313640695
 20
-21.45527953565176
 30
0.0
 10
-4.985826313640695
 20
-21.45527953565176
 30
0.0
 10
-1.494569048888535
 20
-21.45527953565176
 30
0.0
 10
-1.494568548888535
 20
-21.45527953565176
 30
0.0
  0
SPLINE
  5
27F
330
1F
100
AcDbEntity
  8
OUTLINE
 62
     3
370
    18
100
AcDbSpline
210
0.0
220
0.0
230
1.0
 70
     8
 71
     3
 72
     8
 73
     4
 74
     0
 42
0.000000001
 43
0.0000000001
 40
0.0
 40
0.0
 40
0.0
 40
0.0
 40
1.0
 40
1.0
 40
1.0
 40
1.0
 10
-243.2651685318488
 20
-289.4253139196142
 30
0.0
 10
-244.403944844498
 20
-289.0022561940254
 30
0.0
 10
-245.1492912527319
 20
-288.7211364024291
 30
0.0
 10
-246.2851392342186
 20
-288.2904994667728
 30
0.0
  0
LINE
  5
280
330
1F
100
AcDbEntity
  8
OUTLINE
 62
     3
370
    18
100
AcDbLine
 10
-246.2851392342186
 20
-288.2904994667728
 30
0.0
 11
-246.3595532967001
 21
-288.3683586247395
 31
0.0
  0
SPLINE
  5
281
330
1F
100
AcDbEntity
  8
OUTLINE
 62
     3
370
    18
100
AcDbSpline
210
0.0
220
0.0
230
1.0
 70
     8
 71
     3
 72
     8
 73
     4
 74
     0
 42
0.000000001
 43
0.0000000001
 40
2.0
 40
2.0
 40
2.0
 40
2.0
 40
3.0
 40
3.0
 40
3.0
 40
3.0
 10
-246.3595532967001
 20
-288.3683586247395
 30
0.0
 10
-246.5207837654098
 20
-288.581954544825
 30
0.0
 10
-246.7626294684744
 20
-288.7094230777793
 30
0.0
 10
-247.0230786871594
 20
-288.7431850135346
 30
0.0
  0
LINE
  5
282
330
1F
100
AcDbEntity
  8
OUTLINE
 62
     3
370
    18
100
AcDbLine
 10
-247.0230786871594
 20
-288.7431850135346
 30
0.0
 11
-247.4261548589334
 21
-288.7927943885223
 31
0.0
  0
SPLINE
  5
283
330
1F
100
AcDbEntity
  8
OUTLINE
 62
     3
370
    18
100
AcDbSpline
210
0.0
220
0.0
230
1.0
 70
     8
 71
     3
 72
    11
 73
     7
 74
     0
 42
0.000000001
 43
0.0000000001
 40
4.0
 40
4.0
 40
4.0
 40
4.0
 40
5.0
 40
5.0
 40
5.0
 40
5.428858660776271
 40
5.428858660776271
 40
5.428858660776271
 40
5.428858660776271
 10
-247.4261548589334
 20
-288.7927943885223
 30
0.0
 10
-247.59978767139
 20
-288.8148429996278
 30
0.0
 10
-247.7610181400996
 20
-288.7927943885223
 30
0.0
 10
-247.916047436936
 20
-288.734227765273
 30
0.0
 10
-267.353203023411
 20
-281.3359993881531
 30
0.0
 10
-286.3434022834399
 20
-272.8684720366782
 30
0.0
 10
-304.7984403498176
 20
-263.3804576727409
 30
0.0
  0
SPLINE
  5
284
330
1F
100
AcDbEntity
  8
OUTLINE
 62
     3
370
    18
100
AcDbSpline
210
0.0
220
0.0
230
1.0
 70
     8
 71
     3
 72
    11
 73
     7
 74
     0
 42
0.000000001
 43
0.0000000001
 40
5.620526895500918
 40
5.620526895500918
 40
5.620526895500918
 40
5.620526895500918
 40
6.0
 40
6.0
 40
6.0
 40
7.0
 40
7.0
 40
7.0
 40
7.0
 10
-329.2275100674856
 20
-250.0450379959106
 30
0.0
 10
-345.1267400067012
 20
-240.8468821977016
 30
0.0
 10
-360.5811497797831
 20
-230.8642215998913
 30
0.0
 10
-375.5327194970456
 20
-220.1292852911048
 30
0.0
 10
-375.7063523095023
 20
-220.0052618536358
 30
0.0
 10
-375.8427780907181
 20
-219.8288729647911
 30
0.0
 10
-375.8985886375792
 20
-219.6242342929672
 30
0.0
  0
LINE
  5
285
330
1F
100
AcDbEntity
  8
OUTLINE
 62
     3
370
    18
100
AcDbLine
 10
-375.8985886375792
 20
-219.6242342929672
 30
0.0
 11
-376.0350144187951
 21
-219.2025546055726
 31
0.0
  0
SPLINE
  5
286
330
1F
100
AcDbEntity
  8
OUTLINE
 62
     3
370
    18
100
AcDbSpline
210
0.0
220
0.0
230
1.0
 70
     8
 71
     3
 72
     8
 73
     4
 74
     0
 42
0.000000001
 43
0.0000000001
 40
8.0
 40
8.0
 40
8.0
 40
8.0
 40
9.0
 40
9.0
 40
9.0
 40
9.0
 10
-376.0350144187951
 20
-219.2025546055726
 30
0.0
 10
-376.1218308250233
 20
-218.9421053868877
 30
0.0
 10
-376.1032273094031
 20
-218.6596075570972
 30
0.0
 10
-375.9668015281873
 20
-218.421206949518
 30
0.0
  0
LINE
  5
287
330
1F
100
AcDbEntity
  8
OUTLINE
 62
     3
370
    18
100
AcDbLine
 10
-375.9668015281873
 20
-218.421206949518
 30
0.0
 11
-378.6643112931379
 21
-216.5980624187237
 31
0.0
  0
SPLINE
  5
288
330
1F
100
AcDbEntity
  8
OUTLINE
 62
     3
370
    18
100
AcDbSpline
210
0.0
220
0.0
230
1.0
 70
     8
 71
     3
 72
     8
 73
     4
 74
     0
 42
0.000000001
 43
0.0000000001
 40
10.0
 40
10.0
 40
10.0
 40
10.0
 40
11.0
 40
11.0
 40
11.0
 40
11.0
 10
-378.6643112931379
 20
-216.5980624187237
 30
0.0
 10
-378.9991745743041
 20
-216.3748202312795
 30
0.0
 10
-379.1976120742546
 20
-216.0027499188725
 30
0.0
 10
-379.1976120742546
 20
-215.6058749189718
 30
0.0
  0
LINE
  5
289
330
1F
100
AcDbEntity
  8
BASIS
100
AcDbLine
 10
-419.3024157631008
 20
-147.7
 30
0.0
 11
41.82116697379888
 21
-147.7
 31
0.0
  0
LINE
  5
28A
330
1F
100
AcDbEntity
  8
NOTE
  6
Continuous
 62
     4
100
AcDbLine
 10
0.0
 20
-253.2
 30
0.0
 11
288.3621088557012
 21
59.90428993675105
 31
0.0
  0
LINE
  5
28B
330
1F
100
AcDbEntity
  8
NOTE
  6
Continuous
 62
     4
100
AcDbLine
 10
0.0
 20
-254.2
 30
0.0
 11
263.226093986097
 21
-462.3246400634966
 31
0.0
  0
LINE
  5
28C
330
1F
100
AcDbEntity
  8
NOTE
  6
Continuous
 62
     4
100
AcDbLine
 10
17.627959999998
 20
-217.2938000000005
 30
0.0
 11
0.0
 21
-253.2
 31
0.0
  0
LINE
  5
28D
330
1F
100
AcDbEntity
  8
NOTE
  6
DASHDOT
 62
     4
100
AcDbLine
 10
0.0
 20
-233.3999350000043
 30
0.0
 11
0.0
 21
-273.3999350000043
 31
0.0
  0
LINE
  5
28E
330
1F
100
AcDbEntity
  8
NOTE
  6
DASHDOT
 62
     4
100
AcDbLine
 10
0.0
 20
-234.3999350000043
 30
0.0
 11
0.0
 21
-274.3999350000042
 31
0.0
  0
LINE
  5
28F
330
1F
100
AcDbEntity
  8
NOTE
  6
Continuous
 62
     4
100
AcDbLine
 10
0.0
 20
-253.2
 30
0.0
 11
33.21935999999911
 21
-230.9183000000005
 31
0.0
  0
LINE
  5
290
330
1F
100
AcDbEntity
  8
NOTE
  6
Continuous
 62
     4
100
AcDbLine
 10
36.7458100000003
 20
-270.0033500000003
 30
0.0
 11
0.0
 21
-254.2
 31
0.0
  0
LINE
  5
291
330
1F
100
AcDbEntity
  8
NOTE
  6
DASHDOT
 62
     4
100
AcDbLine
 10
20.00000000000001
 20
-253.2
 30
0.0
 11
-20.0
 21
-253.2
 31
0.0
  0
LINE
  5
292
330
1F
100
AcDbEntity
  8
NOTE
  6
DASHDOT
 62
     4
100
AcDbLine
 10
20.00000000000001
 20
-253.2
 30
0.0
 11
-20.0
 21
-253.2
 31
0.0
  0
LINE
  5
293
330
1F
100
AcDbEntity
  8
NOTE
  6
DASHDOT
 62
     4
100
AcDbLine
 10
20.00000000000001
 20
-254.2
 30
0.0
 11
-20.0
 21
-254.2
 31
0.0
  0
LINE
  5
294
330
1F
100
AcDbEntity
  8
NOTE
  6
Continuous
 62
     4
100
AcDbLine
 10
0.0
 20
-254.2
 30
0.0
 11
23.92112999999881
 21
-286.2589999999993
 31
0.0
  0
LINE
  5
295
330
1F
100
AcDbEntity
  8
NOTE
  6
Continuous
 62
     4
100
AcDbLine
 10
263.226093986097
 20
-462.3246400634966
 30
0.0
 11
781.772209999999
 21
-462.3246400634966
 31
0.0
  0
TEXT
  5
296
330
1F
100
AcDbEntity
  8
NOTE
 62
     4
100
AcDbText
 10
295.7860671428567
 20
-441.1283776643302
 30
0.0
 40
66.69091679532883
  1
D,RL,RGφ65
 41
0.9
  7
MS PGothic
 11
295.7860671428567
 21
-454.7645860578251
 31
0.0
100
AcDbText
 73
     1
  0
LINE
  5
297
330
1F
100
AcDbEntity
  8
NOTE
  6
Continuous
 62
     4
100
AcDbLine
 10
288.3621088557012
 20
59.90428993675105
 30
0.0
 11
805.8153600000002
 21
59.90428993675105
 31
0.0
  0
TEXT
  5
298
330
1F
100
AcDbEntity
  8
NOTE
 62
     4
100
AcDbText
 10
319.8292171428584
 20
81.10054233591859
 30
0.0
 40
66.69091679532883
  1
D,RL,RGφ65
 41
0.9
  7
MS PGothic
 11
319.8292171428584
 21
67.46433394242369
 31
0.0
100
AcDbText
 73
     1
  0
CIRCLE
  5
299
330
1F
100
AcDbEntity
  8
ARRANGE
  6
Continuous
100
AcDbCircle
 10
0.0
 20
0.0
 30
0.0
 40
13.00138232471456
  0
POINT
  5
29A
330
1F
100
AcDbEntity
  8
ARRANGE
  6
Continuous
100
AcDbPoint
 10
0.0
 20
0.0
 30
0.0
  0
TEXT
  5
29B
330
1F
100
AcDbEntity
  8
ETC
100
AcDbText
 10
277.2484671699661
 20
268.6066295882912
 30
0.0
 40
75.34929806192422
  1
SMSZ6934
 41
0.8629693207328457
  7
MS PGothic
 11
277.2484671699661
 21
253.2000528001922
 31
0.0
100
AcDbText
 73
     1
  0
TEXT
  5
29C
330
1F
100
AcDbEntity
  8
ETC
100
AcDbText
 10
277.2944300758243
 20
363.633790882898
 30
0.0
 40
34.61564461653467
  1
室内機
 41
1.059570313486799
  7
MS PGothic
 11
277.2944300758243
 21
356.5559732977109
 31
0.0
100
AcDbText
 73
     1
  0
VIEWPORT
  5
29D
330
1B
100
AcDbEntity
 67
     1
  8
0
100
AcDbViewport
 10
0.0
 20
0.0
 30
0.0
 40
251.9230840867982
 41
151.4607978684858
 68
     1
 69
     1
 12
130.4797150104248
 22
82.4346235621644
 13
0.0
 23
0.0
 14
0.5
 24
0.5
 15
0.5
 25
0.5
 16
0.0
 26
0.0
 36
1.0
 17
0.0
 27
0.0
 37
0.0
 42
50.0
 43
0.0
 44
0.0
 45
151.4607978684858
 50
0.0
 51
0.0
 72
   100
 90
   557152
  1

281
     0
 71
     1
 74
     0
110
0.0
120
0.0
130
0.0
111
1.0
121
0.0
131
0.0
112
0.0
122
1.0
132
0.0
 79
     0
146
0.0
  0
POLYLINE
  5
29F
102
{ACAD_REACTORS
102
}
330
1B
100
AcDbEntity
 67
     1
  8
rcviewportframe
100
AcDb2dPolyline
 66
     1
 10
0.0
 20
0.0
 30
0.0
 70
     1
  0
VERTEX
  5
2A0
330
29F
100
AcDbEntity
 67
     1
  8
rcviewportframe
100
AcDbVertex
100
AcDb2dVertex
 10
6.988007124739397
 20
8.189134410945883
 30
0.0
  0
VERTEX
  5
2A1
330
29F
100
AcDbEntity
 67
     1
  8
rcviewportframe
100
AcDbVertex
100
AcDb2dVertex
 10
253.9714228961102
 20
8.189134410945883
 30
0.0
  0
VERTEX
  5
2A2
330
29F
100
AcDbEntity
 67
     1
  8
rcviewportframe
100
AcDbVertex
100
AcDb2dVertex
 10
253.9714228961102
 20
156.6801127133829
 30
0.0
  0
VERTEX
  5
2A3
330
29F
100
AcDbEntity
 67
     1
  8
rcviewportframe
100
AcDbVertex
100
AcDb2dVertex
 10
6.988007124739397
 20
156.6801127133829
 30
0.0
  0
SEQEND
  5
2A4
330
29F
100
AcDbEntity
 67
     1
  8
rcviewportframe
  0
VIEWPORT
  5
2A5
330
1B
100
AcDbEntity
 67
     1
  8
0
100
AcDbViewport
 10
130.4797150104248
 20
82.4346235621644
 30
0.0
 40
246.9834157713708
 41
148.490978302437
 68
     2
 69
     2
 12
82.93706993745144
 22
-27.71689869051002
 13
0.0
 23
0.0
 14
0.5
 24
0.5
 15
0.5
 25
0.5
 16
0.0
 26
0.0
 36
1.0
 17
0.0
 27
0.0
 37
0.0
 42
50.0
 43
0.0
 44
0.0
 45
890.9458698146223
 50
0.0
 51
0.0
 72
   100
 90
   622688
340
29F
  1

281
     0
 71
     1
 74
     0
110
0.0
120
0.0
130
0.0
111
1.0
121
0.0
131
0.0
112
0.0
122
1.0
132
0.0
 79
     0
146
0.0
  0
ENDSEC
  0
SECTION
  2
OBJECTS
  0
DICTIONARY
  5
C
330
0
100
AcDbDictionary
281
     1
  3
ACAD_GROUP
350
D
  3
ACAD_IMAGE_VARS
350
6B
  3
ACAD_LAYOUT
350
1A
  3
ACAD_MATERIAL
350
43
  3
ACAD_MLEADERSTYLE
350
2A9
  3
ACAD_MLINESTYLE
350
17
  3
ACAD_PLOTSETTINGS
350
19
  3
ACAD_PLOTSTYLENAME
350
E
  3
ACAD_SCALELIST
350
47
  3
ACAD_VISUALSTYLE
350
2A
  3
AcDbVariableDictionary
350
2A7
  0
DICTIONARY
  5
D
102
{ACAD_REACTORS
330
C
102
}
330
C
100
AcDbDictionary
281
     1
  0
RASTERVARIABLES
  5
6B
102
{ACAD_REACTORS
330
C
102
}
330
C
100
AcDbRasterVariables
 90
        0
 70
     0
 71
     1
 72
     0
  0
DICTIONARY
  5
1A
102
{ACAD_REACTORS
330
C
102
}
330
C
100
AcDbDictionary
281
     1
  3
Model
350
22
  3
レイアウト1
350
1E
  0
DICTIONARY
  5
43
102
{ACAD_REACTORS
330
C
102
}
330
C
100
AcDbDictionary
281
     1
  3
ByBlock
350
45
  3
ByLayer
350
44
  3
Global
350
46
  0
DICTIONARY
  5
2A9
102
{ACAD_REACTORS
330
C
102
}
330
C
100
AcDbDictionary
281
     1
  0
DICTIONARY
  5
17
102
{ACAD_REACTORS
330
C
102
}
330
C
100
AcDbDictionary
281
     1
  3
Standard
350
18
  0
DICTIONARY
  5
19
102
{ACAD_REACTORS
330
C
102
}
330
C
100
AcDbDictionary
281
     1
  0
ACDBDICTIONARYWDFLT
  5
E
102
{ACAD_REACTORS
330
C
102
}
330
C
100
AcDbDictionary
281
     1
  3
Normal
350
F
100
AcDbDictionaryWithDefault
340
F
  0
DICTIONARY
  5
47
102
{ACAD_REACTORS
330
C
102
}
330
C
100
AcDbDictionary
281
     1
  3
A0
350
48
  3
A1
350
49
  3
A2
350
4A
  3
A3
350
4B
  3
A4
350
4C
  3
A5
350
4D
  3
A6
350
4E
  3
A7
350
4F
  3
A8
350
50
  3
A9
350
51
  3
B0
350
52
  3
B1
350
53
  3
B2
350
54
  3
B3
350
55
  3
B4
350
56
  3
B5
350
57
  3
B6
350
58
  3
B7
350
59
  3
B8
350
5A
  3
B9
350
5B
  3
C0
350
5C
  3
C1
350
5D
  3
C2
350
5E
  3
C3
350
5F
  3
C4
350
60
  3
C5
350
61
  3
C6
350
62
  3
C7
350
63
  3
C8
350
64
  3
C9
350
65
  3
D0
350
66
  3
D1
350
67
  3
D2
350
68
  0
DICTIONARY
  5
2A
102
{ACAD_REACTORS
330
C
102
}
330
C
100
AcDbDictionary
281
     1
  3
2dWireframe
350
2F
  3
Basic
350
32
  3
Brighten
350
36
  3
ColorChange
350
3A
  3
Conceptual
350
34
  3
Dim
350
35
  3
EdgeColorOff
350
3D
  3
Facepattern
350
39
  3
Flat
350
2B
  3
FlatWithEdges
350
2C
  3
Gouraud
350
2D
  3
GouraudWithEdges
350
2E
  3
Hidden
350
31
  3
JitterOff
350
3B
  3
Linepattern
350
38
  3
OverhangOff
350
3C
  3
Realistic
350
33
  3
Shaded
350
42
  3
Shaded with edges
350
41
  3
Shades of Gray
350
3E
  3
Sketchy
350
3F
  3
Thicken
350
37
  3
Wireframe
350
30
  3
X-Ray
350
40
  0
DICTIONARY
  5
2A7
102
{ACAD_REACTORS
330
C
102
}
330
C
100
AcDbDictionary
281
     1
  3
CANNOSCALE
350
2B2
  3
DIMASSOC
350
2AC
  3
HIDETEXT
350
2AD
  3
MSLTSCALE
350
2B3
  0
LAYOUT
  5
22
102
{ACAD_REACTORS
330
1A
102
}
330
1A
100
AcDbPlotSettings
  1

  2
none_device
  4
Letter_(8.50_x_11.00_Inches)
  6

 40
6.35
 41
6.35
 42
6.35000508
 43
6.35000508
 44
215.9
 45
279.4
 46
0.0
 47
0.0
 48
0.0
 49
0.0
140
0.0
141
0.0
142
1.0
143
1.0
 70
  1712
 72
     0
 73
     0
 74
     0
  7

 75
     0
147
1.0
148
0.0
149
0.0
100
AcDbLayout
  1
Model
 70
     1
 71
     0
 10
-799.9265251563716
 20
-577.9058000793707
 11
1007.2692
 21
508.6135533530957
 12
0.0
 22
0.0
 32
0.0
 14
-799.9265251563716
 24
-577.9058000793707
 34
0.0
 15
1007.2692
 25
508.6135533530957
 35
0.0
146
0.0
 13
0.0
 23
0.0
 33
0.0
 16
1.0
 26
0.0
 36
0.0
 17
0.0
 27
1.0
 37
0.0
 76
     0
330
1F
331
29
  0
LAYOUT
  5
1E
102
{ACAD_REACTORS
330
1A
102
}
330
1A
100
AcDbPlotSettings
  1

  2
none_device
  4
ISO_A3_(420.00_x_297.00_MM)
  6

 40
7.5
 41
20.0
 42
7.5
 43
20.0
 44
420.0
 45
297.0
 46
-7.5
 47
-20.0
 48
0.0
 49
0.0
140
0.0
141
0.0
142
1.0
143
1.0
 70
   688
 72
     1
 73
     0
 74
     5
  7

 75
    16
147
1.0
148
0.0
149
0.0
100
AcDbLayout
  1
レイアウト1
 70
     1
 71
     1
 10
-7.5
 20
-20.0
 11
420.0
 21
297.0
 12
0.0
 22
0.0
 32
0.0
 14
-9.375
 24
-25.0
 34
0.0
 15
525.0
 25
371.25
 35
0.0
146
0.0
 13
0.0
 23
0.0
 33
0.0
 16
1.0
 26
0.0
 36
0.0
 17
0.0
 27
1.0
 37
0.0
 76
     0
330
1B
331
29D
  0
MATERIAL
  5
45
102
{ACAD_REACTORS
330
43
102
}
102
{ACAD_XDICTIONARY
360
2E6
102
}
330
43
100
AcDbMaterial
  1
ByBlock
  0
MATERIAL
  5
44
102
{ACAD_REACTORS
330
43
102
}
102
{ACAD_XDICTIONARY
360
2E4
102
}
330
43
100
AcDbMaterial
  1
ByLayer
  0
MATERIAL
  5
46
102
{ACAD_REACTORS
330
43
102
}
102
{ACAD_XDICTIONARY
360
2E8
102
}
330
43
100
AcDbMaterial
  1
Global
  0
MLINESTYLE
  5
18
102
{ACAD_REACTORS
330
17
102
}
330
17
100
AcDbMlineStyle
  2
Standard
 70
     0
  3

 62
   256
 51
90.0
 52
90.0
 71
     2
 49
0.5
 62
   256
  6
BYLAYER
 49
-0.5
 62
   256
  6
BYLAYER
  0
ACDBPLACEHOLDER
  5
F
102
{ACAD_REACTORS
330
E
102
}
330
E
  0
SCALE
  5
48
102
{ACAD_REACTORS
330
47
102
}
330
47
100
AcDbScale
 70
     0
300
1:1
140
1.0
141
1.0
290
     1
  0
SCALE
  5
49
102
{ACAD_REACTORS
330
47
102
}
330
47
100
AcDbScale
 70
     0
300
1:2
140
1.0
141
2.0
290
     0
  0
SCALE
  5
4A
102
{ACAD_REACTORS
330
47
102
}
330
47
100
AcDbScale
 70
     0
300
1:4
140
1.0
141
4.0
290
     0
  0
SCALE
  5
4B
102
{ACAD_REACTORS
330
47
102
}
330
47
100
AcDbScale
 70
     0
300
1:5
140
1.0
141
5.0
290
     0
  0
SCALE
  5
4C
102
{ACAD_REACTORS
330
47
102
}
330
47
100
AcDbScale
 70
     0
300
1:8
140
1.0
141
8.0
290
     0
  0
SCALE
  5
4D
102
{ACAD_REACTORS
330
47
102
}
330
47
100
AcDbScale
 70
     0
300
1:10
140
1.0
141
10.0
290
     0
  0
SCALE
  5
4E
102
{ACAD_REACTORS
330
47
102
}
330
47
100
AcDbScale
 70
     0
300
1:16
140
1.0
141
16.0
290
     0
  0
SCALE
  5
4F
102
{ACAD_REACTORS
330
47
102
}
330
47
100
AcDbScale
 70
     0
300
1:20
140
1.0
141
20.0
290
     0
  0
SCALE
  5
50
102
{ACAD_REACTORS
330
47
102
}
330
47
100
AcDbScale
 70
     0
300
1:30
140
1.0
141
30.0
290
     0
  0
SCALE
  5
51
102
{ACAD_REACTORS
330
47
102
}
330
47
100
AcDbScale
 70
     0
300
1:40
140
1.0
141
40.0
290
     0
  0
SCALE
  5
52
102
{ACAD_REACTORS
330
47
102
}
330
47
100
AcDbScale
 70
     0
300
1:50
140
1.0
141
50.0
290
     0
  0
SCALE
  5
53
102
{ACAD_REACTORS
330
47
102
}
330
47
100
AcDbScale
 70
     0
300
1:100
140
1.0
141
100.0
290
     0
  0
SCALE
  5
54
102
{ACAD_REACTORS
330
47
102
}
330
47
100
AcDbScale
 70
     0
300
2:1
140
2.0
141
1.0
290
     0
  0
SCALE
  5
55
102
{ACAD_REACTORS
330
47
102
}
330
47
100
AcDbScale
 70
     0
300
4:1
140
4.0
141
1.0
290
     0
  0
SCALE
  5
56
102
{ACAD_REACTORS
330
47
102
}
330
47
100
AcDbScale
 70
     0
300
8:1
140
8.0
141
1.0
290
     0
  0
SCALE
  5
57
102
{ACAD_REACTORS
330
47
102
}
330
47
100
AcDbScale
 70
     0
300
10:1
140
10.0
141
1.0
290
     0
  0
SCALE
  5
58
102
{ACAD_REACTORS
330
47
102
}
330
47
100
AcDbScale
 70
     0
300
100:1
140
100.0
141
1.0
290
     0
  0
SCALE
  5
59
102
{ACAD_REACTORS
330
47
102
}
330
47
100
AcDbScale
 70
     0
300
1/128" = 1'-0"
140
0.0078125
141
12.0
290
     0
  0
SCALE
  5
5A
102
{ACAD_REACTORS
330
47
102
}
330
47
100
AcDbScale
 70
     0
300
1/64" = 1'-0"
140
0.015625
141
12.0
290
     0
  0
SCALE
  5
5B
102
{ACAD_REACTORS
330
47
102
}
330
47
100
AcDbScale
 70
     0
300
1/32" = 1'-0"
140
0.03125
141
12.0
290
     0
  0
SCALE
  5
5C
102
{ACAD_REACTORS
330
47
102
}
330
47
100
AcDbScale
 70
     0
300
1/16" = 1'-0"
140
0.0625
141
12.0
290
     0
  0
SCALE
  5
5D
102
{ACAD_REACTORS
330
47
102
}
330
47
100
AcDbScale
 70
     0
300
3/32" = 1'-0"
140
0.09375
141
12.0
290
     0
  0
SCALE
  5
5E
102
{ACAD_REACTORS
330
47
102
}
330
47
100
AcDbScale
 70
     0
300
1/8" = 1'-0"
140
0.125
141
12.0
290
     0
  0
SCALE
  5
5F
102
{ACAD_REACTORS
330
47
102
}
330
47
100
AcDbScale
 70
     0
300
3/16" = 1'-0"
140
0.1875
141
12.0
290
     0
  0
SCALE
  5
60
102
{ACAD_REACTORS
330
47
102
}
330
47
100
AcDbScale
 70
     0
300
1/4" = 1'-0"
140
0.25
141
12.0
290
     0
  0
SCALE
  5
61
102
{ACAD_REACTORS
330
47
102
}
330
47
100
AcDbScale
 70
     0
300
3/8" = 1'-0"
140
0.375
141
12.0
290
     0
  0
SCALE
  5
62
102
{ACAD_REACTORS
330
47
102
}
330
47
100
AcDbScale
 70
     0
300
1/2" = 1'-0"
140
0.5
141
12.0
290
     0
  0
SCALE
  5
63
102
{ACAD_REACTORS
330
47
102
}
330
47
100
AcDbScale
 70
     0
300
3/4" = 1'-0"
140
0.75
141
12.0
290
     0
  0
SCALE
  5
64
102
{ACAD_REACTORS
330
47
102
}
330
47
100
AcDbScale
 70
     0
300
1" = 1'-0"
140
1.0
141
12.0
290
     0
  0
SCALE
  5
65
102
{ACAD_REACTORS
330
47
102
}
330
47
100
AcDbScale
 70
     0
300
1-1/2" = 1'-0"
140
1.5
141
12.0
290
     0
  0
SCALE
  5
66
102
{ACAD_REACTORS
330
47
102
}
330
47
100
AcDbScale
 70
     0
300
3" = 1'-0"
140
3.0
141
12.0
290
     0
  0
SCALE
  5
67
102
{ACAD_REACTORS
330
47
102
}
330
47
100
AcDbScale
 70
     0
300
6" = 1'-0"
140
6.0
141
12.0
290
     0
  0
SCALE
  5
68
102
{ACAD_REACTORS
330
47
102
}
330
47
100
AcDbScale
 70
     0
300
1'-0" = 1'-0"
140
12.0
141
12.0
290
     0
  0
VISUALSTYLE
  5
2F
102
{ACAD_REACTORS
330
2A
102
}
102
{ACAD_XDICTIONARY
360
2BC
102
}
330
2A
100
AcDbVisualStyle
  2
2dWireframe
 70
     4
 71
     0
 72
     2
 73
     0
 90
        0
 40
0.6
 41
30.0
 62
     5
 63
     7
 74
     1
 91
        4
 64
     7
 65
   257
 75
     1
175
     1
 42
1.0
 92
        0
 66
   257
 43
1.0
 76
     1
 77
     6
 78
     2
 67
     7
 79
     5
170
     0
171
     0
290
     0
174
     0
 93
        1
 44
0.0
173
     0
291
     0
 45
0.0
1001
ACAD
1000
AcDbSavedByObjectVersion
1070
     0
  0
VISUALSTYLE
  5
32
102
{ACAD_REACTORS
330
2A
102
}
102
{ACAD_XDICTIONARY
360
2C2
102
}
330
2A
100
AcDbVisualStyle
  2
Basic
 70
     7
 71
     1
 72
     0
 73
     1
 90
        0
 40
0.6
 41
30.0
 62
     5
 63
     7
 74
     0
 91
        4
 64
     7
 65
   257
 75
     1
175
     1
 42
1.0
 92
        8
 66
     7
 43
1.0
 76
     1
 77
     6
 78
     2
 67
     7
 79
     5
170
     0
171
     0
290
     0
174
     0
 93
        1
 44
0.0
173
     0
291
     1
 45
0.0
1001
ACAD
1000
AcDbSavedByObjectVersion
1070
     0
  0
VISUALSTYLE
  5
36
102
{ACAD_REACTORS
330
2A
102
}
102
{ACAD_XDICTIONARY
360
2CA
102
}
330
2A
100
AcDbVisualStyle
  2
Brighten
 70
    12
 71
     2
 72
     2
 73
     0
 90
        0
 40
0.6
 41
30.0
 62
     5
 63
     7
 74
     1
 91
        4
 64
     7
 65
   257
 75
     1
175
     1
 42
1.0
 92
        8
 66
     7
 43
1.0
 76
     1
 77
     6
 78
     2
 67
     7
 79
     5
170
     0
171
     0
290
     0
174
     0
 93
        1
 44
50.0
173
     0
291
     1
 45
0.0
1001
ACAD
1000
AcDbSavedByObjectVersion
1070
     0
  0
VISUALSTYLE
  5
3A
102
{ACAD_REACTORS
330
2A
102
}
102
{ACAD_XDICTIONARY
360
2D2
102
}
330
2A
100
AcDbVisualStyle
  2
ColorChange
 70
    16
 71
     2
 72
     2
 73
     3
 90
        0
 40
0.6
 41
30.0
 62
     5
 63
     8
 74
     1
 91
        4
 64
     7
 65
   257
 75
     1
175
     1
 42
1.0
 92
        8
 66
     8
 43
1.0
 76
     1
 77
     6
 78
     2
 67
     7
 79
     5
170
     0
171
     0
290
     0
174
     0
 93
        1
 44
0.0
173
     0
291
     1
 45
0.0
1001
ACAD
1000
AcDbSavedByObjectVersion
1070
     0
  0
VISUALSTYLE
  5
34
102
{ACAD_REACTORS
330
2A
102
}
102
{ACAD_XDICTIONARY
360
2C6
102
}
330
2A
100
AcDbVisualStyle
  2
Conceptual
 70
     9
 71
     3
 72
     2
 73
     0
 90
        0
 40
0.6
 41
30.0
 62
     5
 63
     7
 74
     2
 91
        2
 64
     7
 65
   257
 75
     1
175
     1
 42
179.0
 92
        8
 66
     7
 43
1.0
 76
     1
 77
     6
 78
     2
 67
     7
 79
     3
170
     0
171
     0
290
     0
174
     0
 93
        1
 44
0.0
173
     0
291
     0
 45
0.0
1001
ACAD
1000
AcDbSavedByObjectVersion
1070
     0
  0
VISUALSTYLE
  5
35
102
{ACAD_REACTORS
330
2A
102
}
102
{ACAD_XDICTIONARY
360
2C8
102
}
330
2A
100
AcDbVisualStyle
  2
Dim
 70
    11
 71
     2
 72
     2
 73
     0
 90
        0
 40
0.6
 41
30.0
 62
     5
 63
     7
 74
     1
 91
        4
 64
     7
 65
   257
 75
     1
175
     1
 42
1.0
 92
        8
 66
     7
 43
1.0
 76
     1
 77
     6
 78
     2
 67
     7
 79
     5
170
     0
171
     0
290
     0
174
     0
 93
        1
 44
-50.0
173
     0
291
     1
 45
0.0
1001
ACAD
1000
AcDbSavedByObjectVersion
1070
     0
  0
VISUALSTYLE
  5
3D
102
{ACAD_REACTORS
330
2A
102
}
102
{ACAD_XDICTIONARY
360
2D8
102
}
330
2A
100
AcDbVisualStyle
  2
EdgeColorOff
 70
    22
 71
     2
 72
     2
 73
     0
 90
        0
 40
0.6
 41
30.0
 62
     5
 63
     7
 74
     1
 91
        4
 64
     7
 65
   257
 75
     1
175
     1
 42
1.0
 92
        8
 66
     7
 43
1.0
 76
     1
 77
     6
 78
     2
 67
     7
 79
     5
170
     0
171
     0
290
     0
174
     0
 93
        1
 44
0.0
173
     0
291
     1
 45
0.0
1001
ACAD
1000
AcDbSavedByObjectVersion
1070
     0
  0
VISUALSTYLE
  5
39
102
{ACAD_REACTORS
330
2A
102
}
102
{ACAD_XDICTIONARY
360
2D0
102
}
330
2A
100
AcDbVisualStyle
  2
Facepattern
 70
    15
 71
     2
 72
     2
 73
     0
 90
        0
 40
0.6
 41
30.0
 62
     5
 63
     7
 74
     1
 91
        4
 64
     7
 65
   257
 75
     1
175
     1
 42
1.0
 92
        8
 66
     7
 43
1.0
 76
     1
 77
     6
 78
     2
 67
     7
 79
     5
170
     0
171
     0
290
     0
174
     0
 93
        1
 44
0.0
173
     0
291
     1
 45
0.0
1001
ACAD
1000
AcDbSavedByObjectVersion
1070
     0
  0
VISUALSTYLE
  5
2B
102
{ACAD_REACTORS
330
2A
102
}
102
{ACAD_XDICTIONARY
360
2B4
102
}
330
2A
100
AcDbVisualStyle
  2
Flat
 70
     0
 71
     2
 72
     1
 73
     1
 90
        2
 40
0.6
 41
30.0
 62
     5
 63
     7
 74
     0
 91
        0
 64
     7
 65
   257
 75
     1
175
     1
 42
1.0
 92
        8
 66
     7
 43
1.0
 76
     1
 77
     6
 78
     2
 67
     7
 79
     5
170
     0
171
     0
290
     0
174
     0
 93
       13
 44
0.0
173
     0
291
     1
 45
0.0
1001
ACAD
1000
AcDbSavedByObjectVersion
1070
     0
  0
VISUALSTYLE
  5
2C
102
{ACAD_REACTORS
330
2A
102
}
102
{ACAD_XDICTIONARY
360
2B6
102
}
330
2A
100
AcDbVisualStyle
  2
FlatWithEdges
 70
     1
 71
     2
 72
     1
 73
     1
 90
        2
 40
0.6
 41
30.0
 62
     5
 63
     7
 74
     1
 91
        0
 64
     7
 65
   257
 75
     1
175
     1
 42
1.0
 92
        0
 66
   257
 43
1.0
 76
     1
 77
     6
 78
     2
 67
     7
 79
     5
170
     0
171
     0
290
     0
174
     0
 93
       13
 44
0.0
173
     0
291
     1
 45
0.0
1001
ACAD
1000
AcDbSavedByObjectVersion
1070
     0
  0
VISUALSTYLE
  5
2D
102
{ACAD_REACTORS
330
2A
102
}
102
{ACAD_XDICTIONARY
360
2B8
102
}
330
2A
100
AcDbVisualStyle
  2
Gouraud
 70
     2
 71
     2
 72
     2
 73
     1
 90
        2
 40
0.6
 41
30.0
 62
     5
 63
     7
 74
     0
 91
        0
 64
     7
 65
   257
 75
     1
175
     1
 42
1.0
 92
        0
 66
     7
 43
1.0
 76
     1
 77
     6
 78
     2
 67
     7
 79
     5
170
     0
171
     0
290
     0
174
     0
 93
       13
 44
0.0
173
     0
291
     1
 45
0.0
1001
ACAD
1000
AcDbSavedByObjectVersion
1070
     0
  0
VISUALSTYLE
  5
2E
102
{ACAD_REACTORS
330
2A
102
}
102
{ACAD_XDICTIONARY
360
2BA
102
}
330
2A
100
AcDbVisualStyle
  2
GouraudWithEdges
 70
     3
 71
     2
 72
     2
 73
     1
 90
        2
 40
0.6
 41
30.0
 62
     5
 63
     7
 74
     1
 91
        0
 64
     7
 65
   257
 75
     1
175
     1
 42
1.0
 92
        0
 66
   257
 43
1.0
 76
     1
 77
     6
 78
     2
 67
     7
 79
     5
170
     0
171
     0
290
     0
174
     0
 93
       13
 44
0.0
173
     0
291
     1
 45
0.0
1001
ACAD
1000
AcDbSavedByObjectVersion
1070
     0
  0
VISUALSTYLE
  5
31
102
{ACAD_REACTORS
330
2A
102
}
102
{ACAD_XDICTIONARY
360
2C0
102
}
330
2A
100
AcDbVisualStyle
  2
Hidden
 70
     6
 71
     1
 72
     2
 73
     2
 90
        0
 40
0.6
 41
30.0
 62
     5
 63
     7
 74
     2
 91
        2
 64
     7
 65
   257
 75
     2
175
     1
 42
40.0
 92
        0
 66
   257
 43
1.0
 76
     1
 77
     6
 78
     2
 67
     7
 79
     3
170
     0
171
     0
290
     0
174
     0
 93
        1
 44
0.0
173
     0
291
     0
 45
0.0
1001
ACAD
1000
AcDbSavedByObjectVersion
1070
     0
  0
VISUALSTYLE
  5
3B
102
{ACAD_REACTORS
330
2A
102
}
102
{ACAD_XDICTIONARY
360
2D4
102
}
330
2A
100
AcDbVisualStyle
  2
JitterOff
 70
    20
 71
     2
 72
     2
 73
     0
 90
        0
 40
0.6
 41
30.0
 62
     5
 63
     7
 74
     1
 91
        4
 64
     7
 65
   257
 75
     1
175
     1
 42
1.0
 92
       10
 66
     7
 43
1.0
 76
     1
 77
     6
 78
     2
 67
     7
 79
     5
170
     0
171
     0
290
     0
174
     0
 93
        1
 44
0.0
173
     0
291
     1
 45
0.0
1001
ACAD
1000
AcDbSavedByObjectVersion
1070
     0
  0
VISUALSTYLE
  5
38
102
{ACAD_REACTORS
330
2A
102
}
102
{ACAD_XDICTIONARY
360
2CE
102
}
330
2A
100
AcDbVisualStyle
  2
Linepattern
 70
    14
 71
     2
 72
     2
 73
     0
 90
        0
 40
0.6
 41
30.0
 62
     5
 63
     7
 74
     1
 91
        4
 64
     7
 65
   257
 75
     7
175
     7
 42
1.0
 92
        8
 66
     7
 43
1.0
 76
     1
 77
     6
 78
     2
 67
     7
 79
     5
170
     0
171
     0
290
     0
174
     0
 93
        1
 44
0.0
173
     0
291
     1
 45
0.0
1001
ACAD
1000
AcDbSavedByObjectVersion
1070
     0
  0
VISUALSTYLE
  5
3C
102
{ACAD_REACTORS
330
2A
102
}
102
{ACAD_XDICTIONARY
360
2D6
102
}
330
2A
100
AcDbVisualStyle
  2
OverhangOff
 70
    21
 71
     2
 72
     2
 73
     0
 90
        0
 40
0.6
 41
30.0
 62
     5
 63
     7
 74
     1
 91
        4
 64
     7
 65
   257
 75
     1
175
     1
 42
1.0
 92
        9
 66
     7
 43
1.0
 76
     1
 77
     6
 78
     2
 67
     7
 79
     5
170
     0
171
     0
290
     0
174
     0
 93
        1
 44
0.0
173
     0
291
     1
 45
0.0
1001
ACAD
1000
AcDbSavedByObjectVersion
1070
     0
  0
VISUALSTYLE
  5
33
102
{ACAD_REACTORS
330
2A
102
}
102
{ACAD_XDICTIONARY
360
2C4
102
}
330
2A
100
AcDbVisualStyle
  2
Realistic
 70
     8
 71
     2
 72
     3
 73
     0
 90
        2
 40
0.6
 41
30.0
 62
     5
 63
     7
 74
     0
 91
        0
 64
     7
 65
   257
 75
     1
175
     1
 42
1.0
 92
        8
 66
   257
 43
1.0
 76
     1
 77
     6
 78
     2
 67
     7
 79
     3
170
     0
171
     0
290
     0
174
     0
 93
       13
 44
0.0
173
     0
291
     0
 45
0.0
1001
ACAD
1000
AcDbSavedByObjectVersion
1070
     0
  0
VISUALSTYLE
  5
42
102
{ACAD_REACTORS
330
2A
102
}
102
{ACAD_XDICTIONARY
360
2E2
102
}
330
2A
100
AcDbVisualStyle
  2
Shaded
 70
    27
 71
     2
 72
     2
 73
     1
 90
        2
 40
0.6
 41
30.0
 62
     5
 63
     7
 74
     0
 91
        4
 64
     7
 65
   257
 75
     1
175
     1
 42
1.0
 92
        8
 66
   257
 43
1.0
 76
     1
 77
     6
 78
     2
 67
     8
 79
     3
170
     0
171
     0
290
     0
174
     0
 93
        5
 44
0.0
173
     0
291
     0
 45
0.0
1001
ACAD
1000
AcDbSavedByObjectVersion
1070
     0
  0
VISUALSTYLE
  5
41
102
{ACAD_REACTORS
330
2A
102
}
102
{ACAD_XDICTIONARY
360
2E0
102
}
330
2A
100
AcDbVisualStyle
  2
Shaded with edges
 70
    26
 71
     2
 72
     2
 73
     1
 90
        2
 40
0.6
 41
30.0
 62
     5
 63
     7
 74
     1
 91
       10
 64
     7
 65
   257
 75
     2
175
     1
 42
1.0
 92
        8
 66
   257
 43
1.0
 76
     1
 77
     6
 78
     2
 67
     7
 79
     3
170
     0
171
     0
290
     0
174
     0
 93
        5
 44
0.0
173
     0
291
     0
 45
0.0
1001
ACAD
1000
AcDbSavedByObjectVersion
1070
     0
  0
VISUALSTYLE
  5
3E
102
{ACAD_REACTORS
330
2A
102
}
102
{ACAD_XDICTIONARY
360
2DA
102
}
330
2A
100
AcDbVisualStyle
  2
Shades of Gray
 70
    23
 71
     2
 72
     2
 73
     3
 90
        0
 40
0.6
 41
30.0
 62
     5
 63
     7
 74
     2
 91
        2
 64
     7
 65
     7
 75
     1
175
     1
 42
40.0
 92
        8
 66
     7
 43
1.0
 76
     1
 77
     6
 78
     2
 67
     7
 79
     3
170
     0
171
     0
290
     0
174
     0
 93
        1
 44
0.0
173
     0
291
     0
 45
0.0
1001
ACAD
1000
AcDbSavedByObjectVersion
1070
     0
  0
VISUALSTYLE
  5
3F
102
{ACAD_REACTORS
330
2A
102
}
102
{ACAD_XDICTIONARY
360
2DC
102
}
330
2A
100
AcDbVisualStyle
  2
Sketchy
 70
    24
 71
     1
 72
     2
 73
     2
 90
        0
 40
0.6
 41
30.0
 62
     5
 63
     7
 74
     2
 91
        2
 64
     7
 65
     7
 75
     1
175
     1
 42
40.0
 92
       11
 66
     7
 43
1.0
 76
     1
 77
     6
 78
     2
 67
     7
 79
     6
170
     0
171
     0
290
     0
174
     0
 93
        1
 44
0.0
173
     0
291
     0
 45
0.0
1001
ACAD
1000
AcDbSavedByObjectVersion
1070
     0
  0
VISUALSTYLE
  5
37
102
{ACAD_REACTORS
330
2A
102
}
102
{ACAD_XDICTIONARY
360
2CC
102
}
330
2A
100
AcDbVisualStyle
  2
Thicken
 70
    13
 71
     2
 72
     2
 73
     0
 90
        0
 40
0.6
 41
30.0
 62
     5
 63
     7
 74
     1
 91
        4
 64
     7
 65
   257
 75
     1
175
     1
 42
1.0
 92
       12
 66
     7
 43
1.0
 76
     1
 77
     6
 78
     2
 67
     7
 79
     5
170
     0
171
     0
290
     0
174
     0
 93
        1
 44
0.0
173
     0
291
     1
 45
0.0
1001
ACAD
1000
AcDbSavedByObjectVersion
1070
     0
  0
VISUALSTYLE
  5
30
102
{ACAD_REACTORS
330
2A
102
}
102
{ACAD_XDICTIONARY
360
2BE
102
}
330
2A
100
AcDbVisualStyle
  2
Wireframe
 70
     5
 71
     0
 72
     2
 73
     0
 90
        0
 40
0.6
 41
30.0
 62
     5
 63
     7
 74
     1
 91
        4
 64
     7
 65
   257
 75
     1
175
     1
 42
1.0
 92
        0
 66
   257
 43
1.0
 76
     1
 77
     6
 78
     2
 67
     7
 79
     3
170
     0
171
     0
290
     0
174
     0
 93
        1
 44
0.0
173
     0
291
     0
 45
0.0
1001
ACAD
1000
AcDbSavedByObjectVersion
1070
     0
  0
VISUALSTYLE
  5
40
102
{ACAD_REACTORS
330
2A
102
}
102
{ACAD_XDICTIONARY
360
2DE
102
}
330
2A
100
AcDbVisualStyle
  2
X-Ray
 70
    25
 71
     2
 72
     2
 73
     1
 90
        1
 40
0.5
 41
30.0
 62
     5
 63
     7
 74
     1
 91
        0
 64
     7
 65
   257
 75
     1
175
     1
 42
1.0
 92
        8
 66
     7
 43
1.0
 76
     1
 77
     6
 78
     2
 67
     7
 79
     3
170
     0
171
     0
290
     0
174
     0
 93
       13
 44
0.0
173
     0
291
     0
 45
0.0
1001
ACAD
1000
AcDbSavedByObjectVersion
1070
     0
  0
DICTIONARYVAR
  5
2B2
102
{ACAD_REACTORS
330
2A7
102
}
330
2A7
100
DictionaryVariables
280
     0
  1
1:1
  0
DICTIONARYVAR
  5
2AC
102
{ACAD_REACTORS
330
2A7
102
}
330
2A7
100
DictionaryVariables
280
     0
  1
2
  0
DICTIONARYVAR
  5
2AD
102
{ACAD_REACTORS
330
2A7
102
}
330
2A7
100
DictionaryVariables
280
     0
  1
1
  0
DICTIONARYVAR
  5
2B3
102
{ACAD_REACTORS
330
2A7
102
}
330
2A7
100
DictionaryVariables
280
     0
  1
1
  0
DICTIONARY
  5
2E6
330
45
100
AcDbDictionary
280
     1
281
     1
  3
ACAD_XREC_ROUNDTRIP
360
2E7
  0
DICTIONARY
  5
2E4
330
44
100
AcDbDictionary
280
     1
281
     1
  3
ACAD_XREC_ROUNDTRIP
360
2E5
  0
DICTIONARY
  5
2E8
330
46
100
AcDbDictionary
280
     1
281
     1
  3
ACAD_XREC_ROUNDTRIP
360
2E9
  0
DICTIONARY
  5
2BC
330
2F
100
AcDbDictionary
280
     1
281
     1
  3
ACAD_XREC_ROUNDTRIP
360
2BD
  0
DICTIONARY
  5
2C2
330
32
100
AcDbDictionary
280
     1
281
     1
  3
ACAD_XREC_ROUNDTRIP
360
2C3
  0
DICTIONARY
  5
2CA
330
36
100
AcDbDictionary
280
     1
281
     1
  3
ACAD_XREC_ROUNDTRIP
360
2CB
  0
DICTIONARY
  5
2D2
330
3A
100
AcDbDictionary
280
     1
281
     1
  3
ACAD_XREC_ROUNDTRIP
360
2D3
  0
DICTIONARY
  5
2C6
330
34
100
AcDbDictionary
280
     1
281
     1
  3
ACAD_XREC_ROUNDTRIP
360
2C7
  0
DICTIONARY
  5
2C8
330
35
100
AcDbDictionary
280
     1
281
     1
  3
ACAD_XREC_ROUNDTRIP
360
2C9
  0
DICTIONARY
  5
2D8
330
3D
100
AcDbDictionary
280
     1
281
     1
  3
ACAD_XREC_ROUNDTRIP
360
2D9
  0
DICTIONARY
  5
2D0
330
39
100
AcDbDictionary
280
     1
281
     1
  3
ACAD_XREC_ROUNDTRIP
360
2D1
  0
DICTIONARY
  5
2B4
330
2B
100
AcDbDictionary
280
     1
281
     1
  3
ACAD_XREC_ROUNDTRIP
360
2B5
  0
DICTIONARY
  5
2B6
330
2C
100
AcDbDictionary
280
     1
281
     1
  3
ACAD_XREC_ROUNDTRIP
360
2B7
  0
DICTIONARY
  5
2B8
330
2D
100
AcDbDictionary
280
     1
281
     1
  3
ACAD_XREC_ROUNDTRIP
360
2B9
  0
DICTIONARY
  5
2BA
330
2E
100
AcDbDictionary
280
     1
281
     1
  3
ACAD_XREC_ROUNDTRIP
360
2BB
  0
DICTIONARY
  5
2C0
330
31
100
AcDbDictionary
280
     1
281
     1
  3
ACAD_XREC_ROUNDTRIP
360
2C1
  0
DICTIONARY
  5
2D4
330
3B
100
AcDbDictionary
280
     1
281
     1
  3
ACAD_XREC_ROUNDTRIP
360
2D5
  0
DICTIONARY
  5
2CE
330
38
100
AcDbDictionary
280
     1
281
     1
  3
ACAD_XREC_ROUNDTRIP
360
2CF
  0
DICTIONARY
  5
2D6
330
3C
100
AcDbDictionary
280
     1
281
     1
  3
ACAD_XREC_ROUNDTRIP
360
2D7
  0
DICTIONARY
  5
2C4
330
33
100
AcDbDictionary
280
     1
281
     1
  3
ACAD_XREC_ROUNDTRIP
360
2C5
  0
DICTIONARY
  5
2E2
330
42
100
AcDbDictionary
280
     1
281
     1
  3
ACAD_XREC_ROUNDTRIP
360
2E3
  0
DICTIONARY
  5
2E0
330
41
100
AcDbDictionary
280
     1
281
     1
  3
ACAD_XREC_ROUNDTRIP
360
2E1
  0
DICTIONARY
  5
2DA
330
3E
100
AcDbDictionary
280
     1
281
     1
  3
ACAD_XREC_ROUNDTRIP
360
2DB
  0
DICTIONARY
  5
2DC
330
3F
100
AcDbDictionary
280
     1
281
     1
  3
ACAD_XREC_ROUNDTRIP
360
2DD
  0
DICTIONARY
  5
2CC
330
37
100
AcDbDictionary
280
     1
281
     1
  3
ACAD_XREC_ROUNDTRIP
360
2CD
  0
DICTIONARY
  5
2BE
330
30
100
AcDbDictionary
280
     1
281
     1
  3
ACAD_XREC_ROUNDTRIP
360
2BF
  0
DICTIONARY
  5
2DE
330
40
100
AcDbDictionary
280
     1
281
     1
  3
ACAD_XREC_ROUNDTRIP
360
2DF
  0
XRECORD
  5
2E7
102
{ACAD_REACTORS
330
2E6
102
}
330
2E6
100
AcDbXrecord
280
     1
102
MATERIAL
148
0.0
149
0.0
149
0.0
 93
        0
 94
      127
282
     0
 72
     1
 77
     1
171
     1
175
     1
179
     1
273
     0
  0
XRECORD
  5
2E5
102
{ACAD_REACTORS
330
2E4
102
}
330
2E4
100
AcDbXrecord
280
     1
102
MATERIAL
148
0.0
149
0.0
149
0.0
 93
        0
 94
      127
282
     0
 72
     1
 77
     1
171
     1
175
     1
179
     1
273
     0
  0
XRECORD
  5
2E9
102
{ACAD_REACTORS
330
2E8
102
}
330
2E8
100
AcDbXrecord
280
     1
102
MATERIAL
148
0.0
149
0.0
149
0.0
 93
        0
 94
      127
282
     0
 72
     1
 77
     1
171
     1
175
     1
179
     1
273
     0
  0
XRECORD
  5
2BD
102
{ACAD_REACTORS
330
2BC
102
}
330
2BC
100
AcDbXrecord
280
     1
102
RTVSPropertyOp0
 70
     1
102
RTVSPropertyOp1
 70
     1
102
RTVSPropertyOp2
 70
     1
102
RTVSPropertyOp3
 70
     1
102
RTVSPropertyOp4
 70
     1
102
RTVSPropertyOp5
 70
     1
102
RTVSPropertyOp6
 70
     1
102
RTVSPropertyOp7
 70
     1
102
RTVSPropertyOp8
 70
     1
102
RTVSPropertyOp9
 70
     1
102
RTVSPropertyOp10
 70
     1
102
RTVSPropertyOp11
 70
     1
102
RTVSPropertyOp12
 70
     1
102
RTVSPropertyOp13
 70
     1
102
RTVSPropertyOp14
 70
     1
102
RTVSPropertyOp15
 70
     1
102
RTVSPropertyOp16
 70
     1
102
RTVSPropertyOp17
 70
     1
102
RTVSPropertyOp18
 70
     1
102
RTVSPropertyOp19
 70
     1
102
RTVSPropertyOp20
 70
     1
102
RTVSPropertyOp21
 70
     1
102
RTVSPropertyOp22
 70
     1
102
RTVSPropertyOp23
 70
     1
102
RTVSPropertyOp24
 70
     1
102
RTVSPropertyOp25
 70
     1
102
RTVSPropertyOp26
 70
     1
102
RTVSPropertyOp27
 70
     1
102
RTVSPropertyOp28
 70
     1
102
RTVSPropertyOp29
 70
     1
102
RTVSPropertyOp30
 70
     1
102
RTVSPropertyOp31
 70
     1
102
RTVSPropertyOp32
 70
     1
102
RTVSPropertyOp33
 70
     1
102
RTVSPropertyOp34
 70
     1
102
RTVSPropertyOp35
 70
     1
102
RTVSPropertyOp36
 70
     1
102
RTVSPropertyOp37
 70
     1
102
RTVSPropertyOp38
 70
     1
102
RTVSPropertyOp39
 70
     1
102
RTVSPropertyOp40
 70
     1
102
RTVSPropertyOp41
 70
     1
102
RTVSPropertyOp42
 70
     1
102
RTVSPropertyOp43
 70
     1
102
RTVSPropertyOp44
 70
     1
102
RTVSPropertyOp45
 70
     1
102
RTVSPropertyOp46
 70
     1
102
RTVSPropertyOp47
 70
     1
102
RTVSPropertyOp48
 70
     1
102
RTVSPropertyOp49
 70
     1
102
RTVSPropertyOp50
 70
     1
102
RTVSPropertyOp51
 70
     0
102
RTVSPropertyOp52
 70
     0
102
RTVSPropertyOp53
 70
     1
102
RTVSPropertyOp54
 70
     1
102
RTVSPropertyOp55
 70
     1
102
RTVSPropertyOp56
 70
     1
102
RTVSPropertyOp57
 70
     1
102
RTVSPost2010Prop28
280
     1
102
RTVSPost2010PropOp28
 70
     1
102
RTVSPost2010Prop29
280
     1
102
RTVSPost2010PropOp29
 70
     1
102
RTVSPost2010Prop30
280
     0
102
RTVSPost2010PropOp30
 70
     1
102
RTVSPost2010Prop31
280
     0
102
RTVSPost2010PropOp31
 70
     1
102
RTVSPost2010Prop32
280
     0
102
RTVSPost2010PropOp32
 70
     1
102
RTVSPost2010Prop33
280
     0
102
RTVSPost2010PropOp33
 70
     1
102
RTVSPost2010Prop34
280
     0
102
RTVSPost2010PropOp34
 70
     1
102
RTVSPost2010Prop35
280
     0
102
RTVSPost2010PropOp35
 70
     1
102
RTVSPost2010Prop36
280
     0
102
RTVSPost2010PropOp36
 70
     1
102
RTVSPost2010Prop37
 90
       50
102
RTVSPost2010PropOp37
 70
     1
102
RTVSPost2010Prop38
140
0.0
102
RTVSPost2010PropOp38
 70
     1
102
RTVSPost2010Prop39
140
1.0
102
RTVSPost2010PropOp39
 70
     1
102
RTVSPost2010Prop40
 90
        0
102
RTVSPost2010PropOp40
 70
     1
102
RTVSPost2010Prop41ColorIndex
 90
       18
102
RTVSPost2010Prop41ColorRGB
 90
        0
102
RTVSPost2010PropOp41
 70
     1
102
RTVSPost2010Prop42
 90
       50
102
RTVSPost2010PropOp42
 70
     1
102
RTVSPost2010Prop43
 90
        3
102
RTVSPost2010PropOp43
 70
     1
102
RTVSPost2010Prop44ColorIndex
 90
        5
102
RTVSPost2010Prop44ColorRGB
 90
      255
102
RTVSPost2010PropOp44
 70
     1
102
RTVSPost2010Prop45
280
     0
102
RTVSPost2010PropOp45
 70
     1
102
RTVSPost2010Prop46
 90
       50
102
RTVSPost2010PropOp46
 70
     1
102
RTVSPost2010Prop47
 90
       50
102
RTVSPost2010PropOp47
 70
     1
102
RTVSPost2010Prop48
 90
       50
102
RTVSPost2010PropOp48
 70
     1
102
RTVSPost2010Prop49
280
     0
102
RTVSPost2010PropOp49
 70
     1
102
RTVSPost2010Prop50
 90
       50
102
RTVSPost2010PropOp50
 70
     1
102
RTVSPost2010Prop51ColorIndex
 90
      256
102
RTVSPost2010Prop51ColorRGB
 90
-16777216
102
RTVSPost2010PropOp51
 70
     0
102
RTVSPost2010Prop52
140
1.0
102
RTVSPost2010PropOp52
 70
     0
102
RTVSPost2010Prop53
 90
        2
102
RTVSPost2010PropOp53
 70
     1
102
RTVSPost2010Prop54
  1
strokes_ogs.tif
102
RTVSPost2010PropOp54
 70
     1
102
RTVSPost2010Prop55
280
     0
102
RTVSPost2010PropOp55
 70
     1
102
RTVSPost2010Prop56
140
1.0
102
RTVSPost2010PropOp56
 70
     1
102
RTVSPost2010Prop57
140
1.0
102
RTVSPost2010PropOp57
 70
     1
  0
XRECORD
  5
2C3
102
{ACAD_REACTORS
330
2C2
102
}
330
2C2
100
AcDbXrecord
280
     1
102
RTVSPropertyOp0
 70
     1
102
RTVSPropertyOp1
 70
     1
102
RTVSPropertyOp2
 70
     1
102
RTVSPropertyOp3
 70
     1
102
RTVSPropertyOp4
 70
     1
102
RTVSPropertyOp5
 70
     1
102
RTVSPropertyOp6
 70
     1
102
RTVSPropertyOp7
 70
     1
102
RTVSPropertyOp8
 70
     1
102
RTVSPropertyOp9
 70
     1
102
RTVSPropertyOp10
 70
     1
102
RTVSPropertyOp11
 70
     1
102
RTVSPropertyOp12
 70
     1
102
RTVSPropertyOp13
 70
     1
102
RTVSPropertyOp14
 70
     1
102
RTVSPropertyOp15
 70
     1
102
RTVSPropertyOp16
 70
     1
102
RTVSPropertyOp17
 70
     1
102
RTVSPropertyOp18
 70
     1
102
RTVSPropertyOp19
 70
     1
102
RTVSPropertyOp20
 70
     1
102
RTVSPropertyOp21
 70
     1
102
RTVSPropertyOp22
 70
     1
102
RTVSPropertyOp23
 70
     1
102
RTVSPropertyOp24
 70
     1
102
RTVSPropertyOp25
 70
     1
102
RTVSPropertyOp26
 70
     1
102
RTVSPropertyOp27
 70
     1
102
RTVSPropertyOp28
 70
     1
102
RTVSPropertyOp29
 70
     1
102
RTVSPropertyOp30
 70
     1
102
RTVSPropertyOp31
 70
     1
102
RTVSPropertyOp32
 70
     1
102
RTVSPropertyOp33
 70
     1
102
RTVSPropertyOp34
 70
     1
102
RTVSPropertyOp35
 70
     1
102
RTVSPropertyOp36
 70
     1
102
RTVSPropertyOp37
 70
     1
102
RTVSPropertyOp38
 70
     1
102
RTVSPropertyOp39
 70
     1
102
RTVSPropertyOp40
 70
     1
102
RTVSPropertyOp41
 70
     1
102
RTVSPropertyOp42
 70
     1
102
RTVSPropertyOp43
 70
     1
102
RTVSPropertyOp44
 70
     1
102
RTVSPropertyOp45
 70
     1
102
RTVSPropertyOp46
 70
     1
102
RTVSPropertyOp47
 70
     1
102
RTVSPropertyOp48
 70
     1
102
RTVSPropertyOp49
 70
     1
102
RTVSPropertyOp50
 70
     1
102
RTVSPropertyOp51
 70
     0
102
RTVSPropertyOp52
 70
     0
102
RTVSPropertyOp53
 70
     1
102
RTVSPropertyOp54
 70
     1
102
RTVSPropertyOp55
 70
     1
102
RTVSPropertyOp56
 70
     1
102
RTVSPropertyOp57
 70
     1
102
RTVSPost2010Prop28
280
     0
102
RTVSPost2010PropOp28
 70
     1
102
RTVSPost2010Prop29
280
     1
102
RTVSPost2010PropOp29
 70
     1
102
RTVSPost2010Prop30
280
     1
102
RTVSPost2010PropOp30
 70
     1
102
RTVSPost2010Prop31
280
     0
102
RTVSPost2010PropOp31
 70
     1
102
RTVSPost2010Prop32
280
     0
102
RTVSPost2010PropOp32
 70
     1
102
RTVSPost2010Prop33
280
     0
102
RTVSPost2010PropOp33
 70
     1
102
RTVSPost2010Prop34
280
     0
102
RTVSPost2010PropOp34
 70
     1
102
RTVSPost2010Prop35
280
     0
102
RTVSPost2010PropOp35
 70
     1
102
RTVSPost2010Prop36
280
     0
102
RTVSPost2010PropOp36
 70
     1
102
RTVSPost2010Prop37
 90
       50
102
RTVSPost2010PropOp37
 70
     1
102
RTVSPost2010Prop38
140
0.0
102
RTVSPost2010PropOp38
 70
     1
102
RTVSPost2010Prop39
140
1.0
102
RTVSPost2010PropOp39
 70
     1
102
RTVSPost2010Prop40
 90
        0
102
RTVSPost2010PropOp40
 70
     1
102
RTVSPost2010Prop41ColorIndex
 90
       18
102
RTVSPost2010Prop41ColorRGB
 90
        0
102
RTVSPost2010PropOp41
 70
     1
102
RTVSPost2010Prop42
 90
       50
102
RTVSPost2010PropOp42
 70
     1
102
RTVSPost2010Prop43
 90
        3
102
RTVSPost2010PropOp43
 70
     1
102
RTVSPost2010Prop44ColorIndex
 90
        5
102
RTVSPost2010Prop44ColorRGB
 90
      255
102
RTVSPost2010PropOp44
 70
     1
102
RTVSPost2010Prop45
280
     0
102
RTVSPost2010PropOp45
 70
     1
102
RTVSPost2010Prop46
 90
       50
102
RTVSPost2010PropOp46
 70
     1
102
RTVSPost2010Prop47
 90
       50
102
RTVSPost2010PropOp47
 70
     1
102
RTVSPost2010Prop48
 90
       50
102
RTVSPost2010PropOp48
 70
     1
102
RTVSPost2010Prop49
280
     0
102
RTVSPost2010PropOp49
 70
     1
102
RTVSPost2010Prop50
 90
       50
102
RTVSPost2010PropOp50
 70
     1
102
RTVSPost2010Prop51ColorIndex
 90
      256
102
RTVSPost2010Prop51ColorRGB
 90
-16777216
102
RTVSPost2010PropOp51
 70
     0
102
RTVSPost2010Prop52
140
1.0
102
RTVSPost2010PropOp52
 70
     0
102
RTVSPost2010Prop53
 90
        2
102
RTVSPost2010PropOp53
 70
     1
102
RTVSPost2010Prop54
  1
strokes_ogs.tif
102
RTVSPost2010PropOp54
 70
     1
102
RTVSPost2010Prop55
280
     0
102
RTVSPost2010PropOp55
 70
     1
102
RTVSPost2010Prop56
140
1.0
102
RTVSPost2010PropOp56
 70
     1
102
RTVSPost2010Prop57
140
1.0
102
RTVSPost2010PropOp57
 70
     1
  0
XRECORD
  5
2CB
102
{ACAD_REACTORS
330
2CA
102
}
330
2CA
100
AcDbXrecord
280
     1
102
RTVSPropertyOp0
 70
     1
102
RTVSPropertyOp1
 70
     1
102
RTVSPropertyOp2
 70
     1
102
RTVSPropertyOp3
 70
     1
102
RTVSPropertyOp4
 70
     1
102
RTVSPropertyOp5
 70
     1
102
RTVSPropertyOp6
 70
     1
102
RTVSPropertyOp7
 70
     1
102
RTVSPropertyOp8
 70
     1
102
RTVSPropertyOp9
 70
     1
102
RTVSPropertyOp10
 70
     1
102
RTVSPropertyOp11
 70
     1
102
RTVSPropertyOp12
 70
     1
102
RTVSPropertyOp13
 70
     1
102
RTVSPropertyOp14
 70
     1
102
RTVSPropertyOp15
 70
     1
102
RTVSPropertyOp16
 70
     1
102
RTVSPropertyOp17
 70
     1
102
RTVSPropertyOp18
 70
     1
102
RTVSPropertyOp19
 70
     1
102
RTVSPropertyOp20
 70
     1
102
RTVSPropertyOp21
 70
     1
102
RTVSPropertyOp22
 70
     1
102
RTVSPropertyOp23
 70
     1
102
RTVSPropertyOp24
 70
     1
102
RTVSPropertyOp25
 70
     1
102
RTVSPropertyOp26
 70
     1
102
RTVSPropertyOp27
 70
     1
102
RTVSPropertyOp28
 70
     1
102
RTVSPropertyOp29
 70
     1
102
RTVSPropertyOp30
 70
     1
102
RTVSPropertyOp31
 70
     1
102
RTVSPropertyOp32
 70
     1
102
RTVSPropertyOp33
 70
     1
102
RTVSPropertyOp34
 70
     1
102
RTVSPropertyOp35
 70
     1
102
RTVSPropertyOp36
 70
     1
102
RTVSPropertyOp37
 70
     1
102
RTVSPropertyOp38
 70
     1
102
RTVSPropertyOp39
 70
     1
102
RTVSPropertyOp40
 70
     1
102
RTVSPropertyOp41
 70
     1
102
RTVSPropertyOp42
 70
     1
102
RTVSPropertyOp43
 70
     1
102
RTVSPropertyOp44
 70
     1
102
RTVSPropertyOp45
 70
     1
102
RTVSPropertyOp46
 70
     1
102
RTVSPropertyOp47
 70
     1
102
RTVSPropertyOp48
 70
     1
102
RTVSPropertyOp49
 70
     1
102
RTVSPropertyOp50
 70
     1
102
RTVSPropertyOp51
 70
     0
102
RTVSPropertyOp52
 70
     0
102
RTVSPropertyOp53
 70
     1
102
RTVSPropertyOp54
 70
     1
102
RTVSPropertyOp55
 70
     1
102
RTVSPropertyOp56
 70
     1
102
RTVSPropertyOp57
 70
     1
102
RTVSPost2010Prop28
280
     0
102
RTVSPost2010PropOp28
 70
     1
102
RTVSPost2010Prop29
280
     1
102
RTVSPost2010PropOp29
 70
     1
102
RTVSPost2010Prop30
280
     1
102
RTVSPost2010PropOp30
 70
     1
102
RTVSPost2010Prop31
280
     0
102
RTVSPost2010PropOp31
 70
     1
102
RTVSPost2010Prop32
280
     0
102
RTVSPost2010PropOp32
 70
     1
102
RTVSPost2010Prop33
280
     0
102
RTVSPost2010PropOp33
 70
     1
102
RTVSPost2010Prop34
280
     0
102
RTVSPost2010PropOp34
 70
     1
102
RTVSPost2010Prop35
280
     0
102
RTVSPost2010PropOp35
 70
     1
102
RTVSPost2010Prop36
280
     0
102
RTVSPost2010PropOp36
 70
     1
102
RTVSPost2010Prop37
 90
       50
102
RTVSPost2010PropOp37
 70
     1
102
RTVSPost2010Prop38
140
0.0
102
RTVSPost2010PropOp38
 70
     1
102
RTVSPost2010Prop39
140
1.0
102
RTVSPost2010PropOp39
 70
     1
102
RTVSPost2010Prop40
 90
        0
102
RTVSPost2010PropOp40
 70
     1
102
RTVSPost2010Prop41ColorIndex
 90
       18
102
RTVSPost2010Prop41ColorRGB
 90
        0
102
RTVSPost2010PropOp41
 70
     1
102
RTVSPost2010Prop42
 90
       50
102
RTVSPost2010PropOp42
 70
     1
102
RTVSPost2010Prop43
 90
        3
102
RTVSPost2010PropOp43
 70
     1
102
RTVSPost2010Prop44ColorIndex
 90
        5
102
RTVSPost2010Prop44ColorRGB
 90
      255
102
RTVSPost2010PropOp44
 70
     1
102
RTVSPost2010Prop45
280
     0
102
RTVSPost2010PropOp45
 70
     1
102
RTVSPost2010Prop46
 90
       50
102
RTVSPost2010PropOp46
 70
     1
102
RTVSPost2010Prop47
 90
       50
102
RTVSPost2010PropOp47
 70
     1
102
RTVSPost2010Prop48
 90
       50
102
RTVSPost2010PropOp48
 70
     1
102
RTVSPost2010Prop49
280
     0
102
RTVSPost2010PropOp49
 70
     1
102
RTVSPost2010Prop50
 90
       50
102
RTVSPost2010PropOp50
 70
     1
102
RTVSPost2010Prop51ColorIndex
 90
      256
102
RTVSPost2010Prop51ColorRGB
 90
-16777216
102
RTVSPost2010PropOp51
 70
     0
102
RTVSPost2010Prop52
140
1.0
102
RTVSPost2010PropOp52
 70
     0
102
RTVSPost2010Prop53
 90
        2
102
RTVSPost2010PropOp53
 70
     1
102
RTVSPost2010Prop54
  1
strokes_ogs.tif
102
RTVSPost2010PropOp54
 70
     1
102
RTVSPost2010Prop55
280
     0
102
RTVSPost2010PropOp55
 70
     1
102
RTVSPost2010Prop56
140
1.0
102
RTVSPost2010PropOp56
 70
     1
102
RTVSPost2010Prop57
140
1.0
102
RTVSPost2010PropOp57
 70
     1
  0
XRECORD
  5
2D3
102
{ACAD_REACTORS
330
2D2
102
}
330
2D2
100
AcDbXrecord
280
     1
102
RTVSPropertyOp0
 70
     1
102
RTVSPropertyOp1
 70
     1
102
RTVSPropertyOp2
 70
     1
102
RTVSPropertyOp3
 70
     1
102
RTVSPropertyOp4
 70
     1
102
RTVSPropertyOp5
 70
     1
102
RTVSPropertyOp6
 70
     1
102
RTVSPropertyOp7
 70
     1
102
RTVSPropertyOp8
 70
     1
102
RTVSPropertyOp9
 70
     1
102
RTVSPropertyOp10
 70
     1
102
RTVSPropertyOp11
 70
     1
102
RTVSPropertyOp12
 70
     1
102
RTVSPropertyOp13
 70
     1
102
RTVSPropertyOp14
 70
     1
102
RTVSPropertyOp15
 70
     1
102
RTVSPropertyOp16
 70
     1
102
RTVSPropertyOp17
 70
     1
102
RTVSPropertyOp18
 70
     1
102
RTVSPropertyOp19
 70
     1
102
RTVSPropertyOp20
 70
     1
102
RTVSPropertyOp21
 70
     1
102
RTVSPropertyOp22
 70
     1
102
RTVSPropertyOp23
 70
     1
102
RTVSPropertyOp24
 70
     1
102
RTVSPropertyOp25
 70
     1
102
RTVSPropertyOp26
 70
     1
102
RTVSPropertyOp27
 70
     1
102
RTVSPropertyOp28
 70
     1
102
RTVSPropertyOp29
 70
     1
102
RTVSPropertyOp30
 70
     1
102
RTVSPropertyOp31
 70
     1
102
RTVSPropertyOp32
 70
     1
102
RTVSPropertyOp33
 70
     1
102
RTVSPropertyOp34
 70
     1
102
RTVSPropertyOp35
 70
     1
102
RTVSPropertyOp36
 70
     1
102
RTVSPropertyOp37
 70
     1
102
RTVSPropertyOp38
 70
     1
102
RTVSPropertyOp39
 70
     1
102
RTVSPropertyOp40
 70
     1
102
RTVSPropertyOp41
 70
     1
102
RTVSPropertyOp42
 70
     1
102
RTVSPropertyOp43
 70
     1
102
RTVSPropertyOp44
 70
     1
102
RTVSPropertyOp45
 70
     1
102
RTVSPropertyOp46
 70
     1
102
RTVSPropertyOp47
 70
     1
102
RTVSPropertyOp48
 70
     1
102
RTVSPropertyOp49
 70
     1
102
RTVSPropertyOp50
 70
     1
102
RTVSPropertyOp51
 70
     0
102
RTVSPropertyOp52
 70
     0
102
RTVSPropertyOp53
 70
     1
102
RTVSPropertyOp54
 70
     1
102
RTVSPropertyOp55
 70
     1
102
RTVSPropertyOp56
 70
     1
102
RTVSPropertyOp57
 70
     1
102
RTVSPost2010Prop28
280
     0
102
RTVSPost2010PropOp28
 70
     1
102
RTVSPost2010Prop29
280
     1
102
RTVSPost2010PropOp29
 70
     1
102
RTVSPost2010Prop30
280
     1
102
RTVSPost2010PropOp30
 70
     1
102
RTVSPost2010Prop31
280
     0
102
RTVSPost2010PropOp31
 70
     1
102
RTVSPost2010Prop32
280
     0
102
RTVSPost2010PropOp32
 70
     1
102
RTVSPost2010Prop33
280
     0
102
RTVSPost2010PropOp33
 70
     1
102
RTVSPost2010Prop34
280
     0
102
RTVSPost2010PropOp34
 70
     1
102
RTVSPost2010Prop35
280
     0
102
RTVSPost2010PropOp35
 70
     1
102
RTVSPost2010Prop36
280
     0
102
RTVSPost2010PropOp36
 70
     1
102
RTVSPost2010Prop37
 90
       50
102
RTVSPost2010PropOp37
 70
     1
102
RTVSPost2010Prop38
140
0.0
102
RTVSPost2010PropOp38
 70
     1
102
RTVSPost2010Prop39
140
1.0
102
RTVSPost2010PropOp39
 70
     1
102
RTVSPost2010Prop40
 90
        0
102
RTVSPost2010PropOp40
 70
     1
102
RTVSPost2010Prop41ColorIndex
 90
       18
102
RTVSPost2010Prop41ColorRGB
 90
        0
102
RTVSPost2010PropOp41
 70
     1
102
RTVSPost2010Prop42
 90
       50
102
RTVSPost2010PropOp42
 70
     1
102
RTVSPost2010Prop43
 90
        3
102
RTVSPost2010PropOp43
 70
     1
102
RTVSPost2010Prop44ColorIndex
 90
        5
102
RTVSPost2010Prop44ColorRGB
 90
      255
102
RTVSPost2010PropOp44
 70
     1
102
RTVSPost2010Prop45
280
     0
102
RTVSPost2010PropOp45
 70
     1
102
RTVSPost2010Prop46
 90
       50
102
RTVSPost2010PropOp46
 70
     1
102
RTVSPost2010Prop47
 90
       50
102
RTVSPost2010PropOp47
 70
     1
102
RTVSPost2010Prop48
 90
       50
102
RTVSPost2010PropOp48
 70
     1
102
RTVSPost2010Prop49
280
     0
102
RTVSPost2010PropOp49
 70
     1
102
RTVSPost2010Prop50
 90
       50
102
RTVSPost2010PropOp50
 70
     1
102
RTVSPost2010Prop51ColorIndex
 90
      256
102
RTVSPost2010Prop51ColorRGB
 90
-16777216
102
RTVSPost2010PropOp51
 70
     0
102
RTVSPost2010Prop52
140
1.0
102
RTVSPost2010PropOp52
 70
     0
102
RTVSPost2010Prop53
 90
        2
102
RTVSPost2010PropOp53
 70
     1
102
RTVSPost2010Prop54
  1
strokes_ogs.tif
102
RTVSPost2010PropOp54
 70
     1
102
RTVSPost2010Prop55
280
     0
102
RTVSPost2010PropOp55
 70
     1
102
RTVSPost2010Prop56
140
1.0
102
RTVSPost2010PropOp56
 70
     1
102
RTVSPost2010Prop57
140
1.0
102
RTVSPost2010PropOp57
 70
     1
  0
XRECORD
  5
2C7
102
{ACAD_REACTORS
330
2C6
102
}
330
2C6
100
AcDbXrecord
280
     1
102
RTVSPropertyOp0
 70
     1
102
RTVSPropertyOp1
 70
     1
102
RTVSPropertyOp2
 70
     1
102
RTVSPropertyOp3
 70
     1
102
RTVSPropertyOp4
 70
     1
102
RTVSPropertyOp5
 70
     1
102
RTVSPropertyOp6
 70
     1
102
RTVSPropertyOp7
 70
     1
102
RTVSPropertyOp8
 70
     1
102
RTVSPropertyOp9
 70
     1
102
RTVSPropertyOp10
 70
     1
102
RTVSPropertyOp11
 70
     1
102
RTVSPropertyOp12
 70
     1
102
RTVSPropertyOp13
 70
     1
102
RTVSPropertyOp14
 70
     1
102
RTVSPropertyOp15
 70
     1
102
RTVSPropertyOp16
 70
     1
102
RTVSPropertyOp17
 70
     1
102
RTVSPropertyOp18
 70
     1
102
RTVSPropertyOp19
 70
     1
102
RTVSPropertyOp20
 70
     1
102
RTVSPropertyOp21
 70
     1
102
RTVSPropertyOp22
 70
     1
102
RTVSPropertyOp23
 70
     1
102
RTVSPropertyOp24
 70
     1
102
RTVSPropertyOp25
 70
     1
102
RTVSPropertyOp26
 70
     1
102
RTVSPropertyOp27
 70
     1
102
RTVSPropertyOp28
 70
     1
102
RTVSPropertyOp29
 70
     1
102
RTVSPropertyOp30
 70
     1
102
RTVSPropertyOp31
 70
     1
102
RTVSPropertyOp32
 70
     1
102
RTVSPropertyOp33
 70
     1
102
RTVSPropertyOp34
 70
     1
102
RTVSPropertyOp35
 70
     1
102
RTVSPropertyOp36
 70
     1
102
RTVSPropertyOp37
 70
     1
102
RTVSPropertyOp38
 70
     1
102
RTVSPropertyOp39
 70
     1
102
RTVSPropertyOp40
 70
     1
102
RTVSPropertyOp41
 70
     1
102
RTVSPropertyOp42
 70
     1
102
RTVSPropertyOp43
 70
     1
102
RTVSPropertyOp44
 70
     1
102
RTVSPropertyOp45
 70
     1
102
RTVSPropertyOp46
 70
     1
102
RTVSPropertyOp47
 70
     1
102
RTVSPropertyOp48
 70
     1
102
RTVSPropertyOp49
 70
     1
102
RTVSPropertyOp50
 70
     1
102
RTVSPropertyOp51
 70
     0
102
RTVSPropertyOp52
 70
     0
102
RTVSPropertyOp53
 70
     1
102
RTVSPropertyOp54
 70
     1
102
RTVSPropertyOp55
 70
     1
102
RTVSPropertyOp56
 70
     1
102
RTVSPropertyOp57
 70
     1
102
RTVSPost2010Prop28
280
     0
102
RTVSPost2010PropOp28
 70
     1
102
RTVSPost2010Prop29
280
     1
102
RTVSPost2010PropOp29
 70
     1
102
RTVSPost2010Prop30
280
     1
102
RTVSPost2010PropOp30
 70
     1
102
RTVSPost2010Prop31
280
     0
102
RTVSPost2010PropOp31
 70
     1
102
RTVSPost2010Prop32
280
     0
102
RTVSPost2010PropOp32
 70
     1
102
RTVSPost2010Prop33
280
     0
102
RTVSPost2010PropOp33
 70
     1
102
RTVSPost2010Prop34
280
     0
102
RTVSPost2010PropOp34
 70
     1
102
RTVSPost2010Prop35
280
     0
102
RTVSPost2010PropOp35
 70
     1
102
RTVSPost2010Prop36
280
     0
102
RTVSPost2010PropOp36
 70
     1
102
RTVSPost2010Prop37
 90
       50
102
RTVSPost2010PropOp37
 70
     1
102
RTVSPost2010Prop38
140
0.0
102
RTVSPost2010PropOp38
 70
     1
102
RTVSPost2010Prop39
140
1.0
102
RTVSPost2010PropOp39
 70
     1
102
RTVSPost2010Prop40
 90
        0
102
RTVSPost2010PropOp40
 70
     1
102
RTVSPost2010Prop41ColorIndex
 90
       18
102
RTVSPost2010Prop41ColorRGB
 90
        0
102
RTVSPost2010PropOp41
 70
     1
102
RTVSPost2010Prop42
 90
       50
102
RTVSPost2010PropOp42
 70
     1
102
RTVSPost2010Prop43
 90
        3
102
RTVSPost2010PropOp43
 70
     1
102
RTVSPost2010Prop44ColorIndex
 90
        5
102
RTVSPost2010Prop44ColorRGB
 90
      255
102
RTVSPost2010PropOp44
 70
     1
102
RTVSPost2010Prop45
280
     0
102
RTVSPost2010PropOp45
 70
     1
102
RTVSPost2010Prop46
 90
       50
102
RTVSPost2010PropOp46
 70
     1
102
RTVSPost2010Prop47
 90
       50
102
RTVSPost2010PropOp47
 70
     1
102
RTVSPost2010Prop48
 90
       50
102
RTVSPost2010PropOp48
 70
     1
102
RTVSPost2010Prop49
280
     0
102
RTVSPost2010PropOp49
 70
     1
102
RTVSPost2010Prop50
 90
       50
102
RTVSPost2010PropOp50
 70
     1
102
RTVSPost2010Prop51ColorIndex
 90
      256
102
RTVSPost2010Prop51ColorRGB
 90
-16777216
102
RTVSPost2010PropOp51
 70
     0
102
RTVSPost2010Prop52
140
1.0
102
RTVSPost2010PropOp52
 70
     0
102
RTVSPost2010Prop53
 90
        2
102
RTVSPost2010PropOp53
 70
     1
102
RTVSPost2010Prop54
  1
strokes_ogs.tif
102
RTVSPost2010PropOp54
 70
     1
102
RTVSPost2010Prop55
280
     0
102
RTVSPost2010PropOp55
 70
     1
102
RTVSPost2010Prop56
140
1.0
102
RTVSPost2010PropOp56
 70
     1
102
RTVSPost2010Prop57
140
1.0
102
RTVSPost2010PropOp57
 70
     1
  0
XRECORD
  5
2C9
102
{ACAD_REACTORS
330
2C8
102
}
330
2C8
100
AcDbXrecord
280
     1
102
RTVSPropertyOp0
 70
     1
102
RTVSPropertyOp1
 70
     1
102
RTVSPropertyOp2
 70
     1
102
RTVSPropertyOp3
 70
     1
102
RTVSPropertyOp4
 70
     1
102
RTVSPropertyOp5
 70
     1
102
RTVSPropertyOp6
 70
     1
102
RTVSPropertyOp7
 70
     1
102
RTVSPropertyOp8
 70
     1
102
RTVSPropertyOp9
 70
     1
102
RTVSPropertyOp10
 70
     1
102
RTVSPropertyOp11
 70
     1
102
RTVSPropertyOp12
 70
     1
102
RTVSPropertyOp13
 70
     1
102
RTVSPropertyOp14
 70
     1
102
RTVSPropertyOp15
 70
     1
102
RTVSPropertyOp16
 70
     1
102
RTVSPropertyOp17
 70
     1
102
RTVSPropertyOp18
 70
     1
102
RTVSPropertyOp19
 70
     1
102
RTVSPropertyOp20
 70
     1
102
RTVSPropertyOp21
 70
     1
102
RTVSPropertyOp22
 70
     1
102
RTVSPropertyOp23
 70
     1
102
RTVSPropertyOp24
 70
     1
102
RTVSPropertyOp25
 70
     1
102
RTVSPropertyOp26
 70
     1
102
RTVSPropertyOp27
 70
     1
102
RTVSPropertyOp28
 70
     1
102
RTVSPropertyOp29
 70
     1
102
RTVSPropertyOp30
 70
     1
102
RTVSPropertyOp31
 70
     1
102
RTVSPropertyOp32
 70
     1
102
RTVSPropertyOp33
 70
     1
102
RTVSPropertyOp34
 70
     1
102
RTVSPropertyOp35
 70
     1
102
RTVSPropertyOp36
 70
     1
102
RTVSPropertyOp37
 70
     1
102
RTVSPropertyOp38
 70
     1
102
RTVSPropertyOp39
 70
     1
102
RTVSPropertyOp40
 70
     1
102
RTVSPropertyOp41
 70
     1
102
RTVSPropertyOp42
 70
     1
102
RTVSPropertyOp43
 70
     1
102
RTVSPropertyOp44
 70
     1
102
RTVSPropertyOp45
 70
     1
102
RTVSPropertyOp46
 70
     1
102
RTVSPropertyOp47
 70
     1
102
RTVSPropertyOp48
 70
     1
102
RTVSPropertyOp49
 70
     1
102
RTVSPropertyOp50
 70
     1
102
RTVSPropertyOp51
 70
     0
102
RTVSPropertyOp52
 70
     0
102
RTVSPropertyOp53
 70
     1
102
RTVSPropertyOp54
 70
     1
102
RTVSPropertyOp55
 70
     1
102
RTVSPropertyOp56
 70
     1
102
RTVSPropertyOp57
 70
     1
102
RTVSPost2010Prop28
280
     0
102
RTVSPost2010PropOp28
 70
     1
102
RTVSPost2010Prop29
280
     1
102
RTVSPost2010PropOp29
 70
     1
102
RTVSPost2010Prop30
280
     1
102
RTVSPost2010PropOp30
 70
     1
102
RTVSPost2010Prop31
280
     0
102
RTVSPost2010PropOp31
 70
     1
102
RTVSPost2010Prop32
280
     0
102
RTVSPost2010PropOp32
 70
     1
102
RTVSPost2010Prop33
280
     0
102
RTVSPost2010PropOp33
 70
     1
102
RTVSPost2010Prop34
280
     0
102
RTVSPost2010PropOp34
 70
     1
102
RTVSPost2010Prop35
280
     0
102
RTVSPost2010PropOp35
 70
     1
102
RTVSPost2010Prop36
280
     0
102
RTVSPost2010PropOp36
 70
     1
102
RTVSPost2010Prop37
 90
       50
102
RTVSPost2010PropOp37
 70
     1
102
RTVSPost2010Prop38
140
0.0
102
RTVSPost2010PropOp38
 70
     1
102
RTVSPost2010Prop39
140
1.0
102
RTVSPost2010PropOp39
 70
     1
102
RTVSPost2010Prop40
 90
        0
102
RTVSPost2010PropOp40
 70
     1
102
RTVSPost2010Prop41ColorIndex
 90
       18
102
RTVSPost2010Prop41ColorRGB
 90
        0
102
RTVSPost2010PropOp41
 70
     1
102
RTVSPost2010Prop42
 90
       50
102
RTVSPost2010PropOp42
 70
     1
102
RTVSPost2010Prop43
 90
        3
102
RTVSPost2010PropOp43
 70
     1
102
RTVSPost2010Prop44ColorIndex
 90
        5
102
RTVSPost2010Prop44ColorRGB
 90
      255
102
RTVSPost2010PropOp44
 70
     1
102
RTVSPost2010Prop45
280
     0
102
RTVSPost2010PropOp45
 70
     1
102
RTVSPost2010Prop46
 90
       50
102
RTVSPost2010PropOp46
 70
     1
102
RTVSPost2010Prop47
 90
       50
102
RTVSPost2010PropOp47
 70
     1
102
RTVSPost2010Prop48
 90
       50
102
RTVSPost2010PropOp48
 70
     1
102
RTVSPost2010Prop49
280
     0
102
RTVSPost2010PropOp49
 70
     1
102
RTVSPost2010Prop50
 90
       50
102
RTVSPost2010PropOp50
 70
     1
102
RTVSPost2010Prop51ColorIndex
 90
      256
102
RTVSPost2010Prop51ColorRGB
 90
-16777216
102
RTVSPost2010PropOp51
 70
     0
102
RTVSPost2010Prop52
140
1.0
102
RTVSPost2010PropOp52
 70
     0
102
RTVSPost2010Prop53
 90
        2
102
RTVSPost2010PropOp53
 70
     1
102
RTVSPost2010Prop54
  1
strokes_ogs.tif
102
RTVSPost2010PropOp54
 70
     1
102
RTVSPost2010Prop55
280
     0
102
RTVSPost2010PropOp55
 70
     1
102
RTVSPost2010Prop56
140
1.0
102
RTVSPost2010PropOp56
 70
     1
102
RTVSPost2010Prop57
140
1.0
102
RTVSPost2010PropOp57
 70
     1
  0
XRECORD
  5
2D9
102
{ACAD_REACTORS
330
2D8
102
}
330
2D8
100
AcDbXrecord
280
     1
102
RTVSPropertyOp0
 70
     0
102
RTVSPropertyOp1
 70
     0
102
RTVSPropertyOp2
 70
     0
102
RTVSPropertyOp3
 70
     0
102
RTVSPropertyOp4
 70
     0
102
RTVSPropertyOp5
 70
     0
102
RTVSPropertyOp6
 70
     0
102
RTVSPropertyOp7
 70
     0
102
RTVSPropertyOp8
 70
     0
102
RTVSPropertyOp9
 70
     0
102
RTVSPropertyOp10
 70
     0
102
RTVSPropertyOp11
 70
     0
102
RTVSPropertyOp12
 70
     0
102
RTVSPropertyOp13
 70
     0
102
RTVSPropertyOp14
 70
     2
102
RTVSPropertyOp15
 70
     0
102
RTVSPropertyOp16
 70
     0
102
RTVSPropertyOp17
 70
     0
102
RTVSPropertyOp18
 70
     0
102
RTVSPropertyOp19
 70
     0
102
RTVSPropertyOp20
 70
     0
102
RTVSPropertyOp21
 70
     0
102
RTVSPropertyOp22
 70
     0
102
RTVSPropertyOp23
 70
     0
102
RTVSPropertyOp24
 70
     0
102
RTVSPropertyOp25
 70
     0
102
RTVSPropertyOp26
 70
     0
102
RTVSPropertyOp27
 70
     0
102
RTVSPropertyOp28
 70
     0
102
RTVSPropertyOp29
 70
     0
102
RTVSPropertyOp30
 70
     0
102
RTVSPropertyOp31
 70
     0
102
RTVSPropertyOp32
 70
     0
102
RTVSPropertyOp33
 70
     0
102
RTVSPropertyOp34
 70
     0
102
RTVSPropertyOp35
 70
     0
102
RTVSPropertyOp36
 70
     0
102
RTVSPropertyOp37
 70
     0
102
RTVSPropertyOp38
 70
     0
102
RTVSPropertyOp39
 70
     0
102
RTVSPropertyOp40
 70
     0
102
RTVSPropertyOp41
 70
     0
102
RTVSPropertyOp42
 70
     0
102
RTVSPropertyOp43
 70
     0
102
RTVSPropertyOp44
 70
     0
102
RTVSPropertyOp45
 70
     0
102
RTVSPropertyOp46
 70
     0
102
RTVSPropertyOp47
 70
     0
102
RTVSPropertyOp48
 70
     0
102
RTVSPropertyOp49
 70
     0
102
RTVSPropertyOp50
 70
     0
102
RTVSPropertyOp51
 70
     0
102
RTVSPropertyOp52
 70
     0
102
RTVSPropertyOp53
 70
     0
102
RTVSPropertyOp54
 70
     0
102
RTVSPropertyOp55
 70
     0
102
RTVSPropertyOp56
 70
     0
102
RTVSPropertyOp57
 70
     0
102
RTVSPost2010Prop28
280
     0
102
RTVSPost2010PropOp28
 70
     0
102
RTVSPost2010Prop29
280
     1
102
RTVSPost2010PropOp29
 70
     0
102
RTVSPost2010Prop30
280
     1
102
RTVSPost2010PropOp30
 70
     0
102
RTVSPost2010Prop31
280
     0
102
RTVSPost2010PropOp31
 70
     0
102
RTVSPost2010Prop32
280
     0
102
RTVSPost2010PropOp32
 70
     0
102
RTVSPost2010Prop33
280
     0
102
RTVSPost2010PropOp33
 70
     0
102
RTVSPost2010Prop34
280
     0
102
RTVSPost2010PropOp34
 70
     0
102
RTVSPost2010Prop35
280
     0
102
RTVSPost2010PropOp35
 70
     0
102
RTVSPost2010Prop36
280
     0
102
RTVSPost2010PropOp36
 70
     0
102
RTVSPost2010Prop37
 90
       50
102
RTVSPost2010PropOp37
 70
     0
102
RTVSPost2010Prop38
140
0.0
102
RTVSPost2010PropOp38
 70
     0
102
RTVSPost2010Prop39
140
1.0
102
RTVSPost2010PropOp39
 70
     0
102
RTVSPost2010Prop40
 90
        0
102
RTVSPost2010PropOp40
 70
     0
102
RTVSPost2010Prop41ColorIndex
 90
       18
102
RTVSPost2010Prop41ColorRGB
 90
        0
102
RTVSPost2010PropOp41
 70
     0
102
RTVSPost2010Prop42
 90
       50
102
RTVSPost2010PropOp42
 70
     0
102
RTVSPost2010Prop43
 90
        3
102
RTVSPost2010PropOp43
 70
     0
102
RTVSPost2010Prop44ColorIndex
 90
        5
102
RTVSPost2010Prop44ColorRGB
 90
      255
102
RTVSPost2010PropOp44
 70
     0
102
RTVSPost2010Prop45
280
     0
102
RTVSPost2010PropOp45
 70
     0
102
RTVSPost2010Prop46
 90
       50
102
RTVSPost2010PropOp46
 70
     0
102
RTVSPost2010Prop47
 90
       50
102
RTVSPost2010PropOp47
 70
     0
102
RTVSPost2010Prop48
 90
       50
102
RTVSPost2010PropOp48
 70
     0
102
RTVSPost2010Prop49
280
     0
102
RTVSPost2010PropOp49
 70
     0
102
RTVSPost2010Prop50
 90
       50
102
RTVSPost2010PropOp50
 70
     0
102
RTVSPost2010Prop51ColorIndex
 90
      256
102
RTVSPost2010Prop51ColorRGB
 90
-16777216
102
RTVSPost2010PropOp51
 70
     0
102
RTVSPost2010Prop52
140
1.0
102
RTVSPost2010PropOp52
 70
     0
102
RTVSPost2010Prop53
 90
        2
102
RTVSPost2010PropOp53
 70
     0
102
RTVSPost2010Prop54
  1
strokes_ogs.tif
102
RTVSPost2010PropOp54
 70
     0
102
RTVSPost2010Prop55
280
     0
102
RTVSPost2010PropOp55
 70
     0
102
RTVSPost2010Prop56
140
1.0
102
RTVSPost2010PropOp56
 70
     0
102
RTVSPost2010Prop57
140
1.0
102
RTVSPost2010PropOp57
 70
     0
  0
XRECORD
  5
2D1
102
{ACAD_REACTORS
330
2D0
102
}
330
2D0
100
AcDbXrecord
280
     1
102
RTVSPropertyOp0
 70
     1
102
RTVSPropertyOp1
 70
     1
102
RTVSPropertyOp2
 70
     1
102
RTVSPropertyOp3
 70
     1
102
RTVSPropertyOp4
 70
     1
102
RTVSPropertyOp5
 70
     1
102
RTVSPropertyOp6
 70
     1
102
RTVSPropertyOp7
 70
     1
102
RTVSPropertyOp8
 70
     1
102
RTVSPropertyOp9
 70
     1
102
RTVSPropertyOp10
 70
     1
102
RTVSPropertyOp11
 70
     1
102
RTVSPropertyOp12
 70
     1
102
RTVSPropertyOp13
 70
     1
102
RTVSPropertyOp14
 70
     1
102
RTVSPropertyOp15
 70
     1
102
RTVSPropertyOp16
 70
     1
102
RTVSPropertyOp17
 70
     1
102
RTVSPropertyOp18
 70
     1
102
RTVSPropertyOp19
 70
     1
102
RTVSPropertyOp20
 70
     1
102
RTVSPropertyOp21
 70
     1
102
RTVSPropertyOp22
 70
     1
102
RTVSPropertyOp23
 70
     1
102
RTVSPropertyOp24
 70
     1
102
RTVSPropertyOp25
 70
     1
102
RTVSPropertyOp26
 70
     1
102
RTVSPropertyOp27
 70
     1
102
RTVSPropertyOp28
 70
     1
102
RTVSPropertyOp29
 70
     1
102
RTVSPropertyOp30
 70
     1
102
RTVSPropertyOp31
 70
     1
102
RTVSPropertyOp32
 70
     1
102
RTVSPropertyOp33
 70
     1
102
RTVSPropertyOp34
 70
     1
102
RTVSPropertyOp35
 70
     1
102
RTVSPropertyOp36
 70
     1
102
RTVSPropertyOp37
 70
     1
102
RTVSPropertyOp38
 70
     1
102
RTVSPropertyOp39
 70
     1
102
RTVSPropertyOp40
 70
     1
102
RTVSPropertyOp41
 70
     1
102
RTVSPropertyOp42
 70
     1
102
RTVSPropertyOp43
 70
     1
102
RTVSPropertyOp44
 70
     1
102
RTVSPropertyOp45
 70
     1
102
RTVSPropertyOp46
 70
     1
102
RTVSPropertyOp47
 70
     1
102
RTVSPropertyOp48
 70
     1
102
RTVSPropertyOp49
 70
     1
102
RTVSPropertyOp50
 70
     1
102
RTVSPropertyOp51
 70
     0
102
RTVSPropertyOp52
 70
     0
102
RTVSPropertyOp53
 70
     1
102
RTVSPropertyOp54
 70
     1
102
RTVSPropertyOp55
 70
     1
102
RTVSPropertyOp56
 70
     1
102
RTVSPropertyOp57
 70
     1
102
RTVSPost2010Prop28
280
     0
102
RTVSPost2010PropOp28
 70
     1
102
RTVSPost2010Prop29
280
     1
102
RTVSPost2010PropOp29
 70
     1
102
RTVSPost2010Prop30
280
     1
102
RTVSPost2010PropOp30
 70
     1
102
RTVSPost2010Prop31
280
     0
102
RTVSPost2010PropOp31
 70
     1
102
RTVSPost2010Prop32
280
     0
102
RTVSPost2010PropOp32
 70
     1
102
RTVSPost2010Prop33
280
     0
102
RTVSPost2010PropOp33
 70
     1
102
RTVSPost2010Prop34
280
     0
102
RTVSPost2010PropOp34
 70
     1
102
RTVSPost2010Prop35
280
     0
102
RTVSPost2010PropOp35
 70
     1
102
RTVSPost2010Prop36
280
     0
102
RTVSPost2010PropOp36
 70
     1
102
RTVSPost2010Prop37
 90
       50
102
RTVSPost2010PropOp37
 70
     1
102
RTVSPost2010Prop38
140
0.0
102
RTVSPost2010PropOp38
 70
     1
102
RTVSPost2010Prop39
140
1.0
102
RTVSPost2010PropOp39
 70
     1
102
RTVSPost2010Prop40
 90
        0
102
RTVSPost2010PropOp40
 70
     1
102
RTVSPost2010Prop41ColorIndex
 90
       18
102
RTVSPost2010Prop41ColorRGB
 90
        0
102
RTVSPost2010PropOp41
 70
     1
102
RTVSPost2010Prop42
 90
       50
102
RTVSPost2010PropOp42
 70
     1
102
RTVSPost2010Prop43
 90
        3
102
RTVSPost2010PropOp43
 70
     1
102
RTVSPost2010Prop44ColorIndex
 90
        5
102
RTVSPost2010Prop44ColorRGB
 90
      255
102
RTVSPost2010PropOp44
 70
     1
102
RTVSPost2010Prop45
280
     0
102
RTVSPost2010PropOp45
 70
     1
102
RTVSPost2010Prop46
 90
       50
102
RTVSPost2010PropOp46
 70
     1
102
RTVSPost2010Prop47
 90
       50
102
RTVSPost2010PropOp47
 70
     1
102
RTVSPost2010Prop48
 90
       50
102
RTVSPost2010PropOp48
 70
     1
102
RTVSPost2010Prop49
280
     0
102
RTVSPost2010PropOp49
 70
     1
102
RTVSPost2010Prop50
 90
       50
102
RTVSPost2010PropOp50
 70
     1
102
RTVSPost2010Prop51ColorIndex
 90
      256
102
RTVSPost2010Prop51ColorRGB
 90
-16777216
102
RTVSPost2010PropOp51
 70
     0
102
RTVSPost2010Prop52
140
1.0
102
RTVSPost2010PropOp52
 70
     0
102
RTVSPost2010Prop53
 90
        2
102
RTVSPost2010PropOp53
 70
     1
102
RTVSPost2010Prop54
  1
strokes_ogs.tif
102
RTVSPost2010PropOp54
 70
     1
102
RTVSPost2010Prop55
280
     0
102
RTVSPost2010PropOp55
 70
     1
102
RTVSPost2010Prop56
140
1.0
102
RTVSPost2010PropOp56
 70
     1
102
RTVSPost2010Prop57
140
1.0
102
RTVSPost2010PropOp57
 70
     1
  0
XRECORD
  5
2B5
102
{ACAD_REACTORS
330
2B4
102
}
330
2B4
100
AcDbXrecord
280
     1
102
RTVSPropertyOp0
 70
     1
102
RTVSPropertyOp1
 70
     1
102
RTVSPropertyOp2
 70
     1
102
RTVSPropertyOp3
 70
     1
102
RTVSPropertyOp4
 70
     1
102
RTVSPropertyOp5
 70
     1
102
RTVSPropertyOp6
 70
     1
102
RTVSPropertyOp7
 70
     1
102
RTVSPropertyOp8
 70
     1
102
RTVSPropertyOp9
 70
     1
102
RTVSPropertyOp10
 70
     1
102
RTVSPropertyOp11
 70
     1
102
RTVSPropertyOp12
 70
     1
102
RTVSPropertyOp13
 70
     1
102
RTVSPropertyOp14
 70
     1
102
RTVSPropertyOp15
 70
     1
102
RTVSPropertyOp16
 70
     1
102
RTVSPropertyOp17
 70
     1
102
RTVSPropertyOp18
 70
     1
102
RTVSPropertyOp19
 70
     1
102
RTVSPropertyOp20
 70
     1
102
RTVSPropertyOp21
 70
     1
102
RTVSPropertyOp22
 70
     1
102
RTVSPropertyOp23
 70
     1
102
RTVSPropertyOp24
 70
     1
102
RTVSPropertyOp25
 70
     1
102
RTVSPropertyOp26
 70
     1
102
RTVSPropertyOp27
 70
     1
102
RTVSPropertyOp28
 70
     1
102
RTVSPropertyOp29
 70
     1
102
RTVSPropertyOp30
 70
     1
102
RTVSPropertyOp31
 70
     1
102
RTVSPropertyOp32
 70
     1
102
RTVSPropertyOp33
 70
     1
102
RTVSPropertyOp34
 70
     1
102
RTVSPropertyOp35
 70
     1
102
RTVSPropertyOp36
 70
     1
102
RTVSPropertyOp37
 70
     1
102
RTVSPropertyOp38
 70
     1
102
RTVSPropertyOp39
 70
     1
102
RTVSPropertyOp40
 70
     1
102
RTVSPropertyOp41
 70
     1
102
RTVSPropertyOp42
 70
     1
102
RTVSPropertyOp43
 70
     1
102
RTVSPropertyOp44
 70
     1
102
RTVSPropertyOp45
 70
     1
102
RTVSPropertyOp46
 70
     1
102
RTVSPropertyOp47
 70
     1
102
RTVSPropertyOp48
 70
     1
102
RTVSPropertyOp49
 70
     1
102
RTVSPropertyOp50
 70
     1
102
RTVSPropertyOp51
 70
     0
102
RTVSPropertyOp52
 70
     0
102
RTVSPropertyOp53
 70
     1
102
RTVSPropertyOp54
 70
     1
102
RTVSPropertyOp55
 70
     1
102
RTVSPropertyOp56
 70
     1
102
RTVSPropertyOp57
 70
     1
102
RTVSPost2010Prop28
280
     0
102
RTVSPost2010PropOp28
 70
     1
102
RTVSPost2010Prop29
280
     1
102
RTVSPost2010PropOp29
 70
     1
102
RTVSPost2010Prop30
280
     1
102
RTVSPost2010PropOp30
 70
     1
102
RTVSPost2010Prop31
280
     0
102
RTVSPost2010PropOp31
 70
     1
102
RTVSPost2010Prop32
280
     0
102
RTVSPost2010PropOp32
 70
     1
102
RTVSPost2010Prop33
280
     0
102
RTVSPost2010PropOp33
 70
     1
102
RTVSPost2010Prop34
280
     0
102
RTVSPost2010PropOp34
 70
     1
102
RTVSPost2010Prop35
280
     0
102
RTVSPost2010PropOp35
 70
     1
102
RTVSPost2010Prop36
280
     0
102
RTVSPost2010PropOp36
 70
     1
102
RTVSPost2010Prop37
 90
       50
102
RTVSPost2010PropOp37
 70
     1
102
RTVSPost2010Prop38
140
0.0
102
RTVSPost2010PropOp38
 70
     1
102
RTVSPost2010Prop39
140
1.0
102
RTVSPost2010PropOp39
 70
     1
102
RTVSPost2010Prop40
 90
        0
102
RTVSPost2010PropOp40
 70
     1
102
RTVSPost2010Prop41ColorIndex
 90
       18
102
RTVSPost2010Prop41ColorRGB
 90
        0
102
RTVSPost2010PropOp41
 70
     1
102
RTVSPost2010Prop42
 90
       50
102
RTVSPost2010PropOp42
 70
     1
102
RTVSPost2010Prop43
 90
        3
102
RTVSPost2010PropOp43
 70
     1
102
RTVSPost2010Prop44ColorIndex
 90
        5
102
RTVSPost2010Prop44ColorRGB
 90
      255
102
RTVSPost2010PropOp44
 70
     1
102
RTVSPost2010Prop45
280
     0
102
RTVSPost2010PropOp45
 70
     1
102
RTVSPost2010Prop46
 90
       50
102
RTVSPost2010PropOp46
 70
     1
102
RTVSPost2010Prop47
 90
       50
102
RTVSPost2010PropOp47
 70
     1
102
RTVSPost2010Prop48
 90
       50
102
RTVSPost2010PropOp48
 70
     1
102
RTVSPost2010Prop49
280
     0
102
RTVSPost2010PropOp49
 70
     1
102
RTVSPost2010Prop50
 90
       50
102
RTVSPost2010PropOp50
 70
     1
102
RTVSPost2010Prop51ColorIndex
 90
      256
102
RTVSPost2010Prop51ColorRGB
 90
-16777216
102
RTVSPost2010PropOp51
 70
     0
102
RTVSPost2010Prop52
140
1.0
102
RTVSPost2010PropOp52
 70
     0
102
RTVSPost2010Prop53
 90
        2
102
RTVSPost2010PropOp53
 70
     1
102
RTVSPost2010Prop54
  1
strokes_ogs.tif
102
RTVSPost2010PropOp54
 70
     1
102
RTVSPost2010Prop55
280
     0
102
RTVSPost2010PropOp55
 70
     1
102
RTVSPost2010Prop56
140
1.0
102
RTVSPost2010PropOp56
 70
     1
102
RTVSPost2010Prop57
140
1.0
102
RTVSPost2010PropOp57
 70
     1
  0
XRECORD
  5
2B7
102
{ACAD_REACTORS
330
2B6
102
}
330
2B6
100
AcDbXrecord
280
     1
102
RTVSPropertyOp0
 70
     1
102
RTVSPropertyOp1
 70
     1
102
RTVSPropertyOp2
 70
     1
102
RTVSPropertyOp3
 70
     1
102
RTVSPropertyOp4
 70
     1
102
RTVSPropertyOp5
 70
     1
102
RTVSPropertyOp6
 70
     1
102
RTVSPropertyOp7
 70
     1
102
RTVSPropertyOp8
 70
     1
102
RTVSPropertyOp9
 70
     1
102
RTVSPropertyOp10
 70
     1
102
RTVSPropertyOp11
 70
     1
102
RTVSPropertyOp12
 70
     1
102
RTVSPropertyOp13
 70
     1
102
RTVSPropertyOp14
 70
     1
102
RTVSPropertyOp15
 70
     1
102
RTVSPropertyOp16
 70
     1
102
RTVSPropertyOp17
 70
     1
102
RTVSPropertyOp18
 70
     1
102
RTVSPropertyOp19
 70
     1
102
RTVSPropertyOp20
 70
     1
102
RTVSPropertyOp21
 70
     1
102
RTVSPropertyOp22
 70
     1
102
RTVSPropertyOp23
 70
     1
102
RTVSPropertyOp24
 70
     1
102
RTVSPropertyOp25
 70
     1
102
RTVSPropertyOp26
 70
     1
102
RTVSPropertyOp27
 70
     1
102
RTVSPropertyOp28
 70
     1
102
RTVSPropertyOp29
 70
     1
102
RTVSPropertyOp30
 70
     1
102
RTVSPropertyOp31
 70
     1
102
RTVSPropertyOp32
 70
     1
102
RTVSPropertyOp33
 70
     1
102
RTVSPropertyOp34
 70
     1
102
RTVSPropertyOp35
 70
     1
102
RTVSPropertyOp36
 70
     1
102
RTVSPropertyOp37
 70
     1
102
RTVSPropertyOp38
 70
     1
102
RTVSPropertyOp39
 70
     1
102
RTVSPropertyOp40
 70
     1
102
RTVSPropertyOp41
 70
     1
102
RTVSPropertyOp42
 70
     1
102
RTVSPropertyOp43
 70
     1
102
RTVSPropertyOp44
 70
     1
102
RTVSPropertyOp45
 70
     1
102
RTVSPropertyOp46
 70
     1
102
RTVSPropertyOp47
 70
     1
102
RTVSPropertyOp48
 70
     1
102
RTVSPropertyOp49
 70
     1
102
RTVSPropertyOp50
 70
     1
102
RTVSPropertyOp51
 70
     0
102
RTVSPropertyOp52
 70
     0
102
RTVSPropertyOp53
 70
     1
102
RTVSPropertyOp54
 70
     1
102
RTVSPropertyOp55
 70
     1
102
RTVSPropertyOp56
 70
     1
102
RTVSPropertyOp57
 70
     1
102
RTVSPost2010Prop28
280
     0
102
RTVSPost2010PropOp28
 70
     1
102
RTVSPost2010Prop29
280
     1
102
RTVSPost2010PropOp29
 70
     1
102
RTVSPost2010Prop30
280
     1
102
RTVSPost2010PropOp30
 70
     1
102
RTVSPost2010Prop31
280
     0
102
RTVSPost2010PropOp31
 70
     1
102
RTVSPost2010Prop32
280
     0
102
RTVSPost2010PropOp32
 70
     1
102
RTVSPost2010Prop33
280
     0
102
RTVSPost2010PropOp33
 70
     1
102
RTVSPost2010Prop34
280
     0
102
RTVSPost2010PropOp34
 70
     1
102
RTVSPost2010Prop35
280
     0
102
RTVSPost2010PropOp35
 70
     1
102
RTVSPost2010Prop36
280
     0
102
RTVSPost2010PropOp36
 70
     1
102
RTVSPost2010Prop37
 90
       50
102
RTVSPost2010PropOp37
 70
     1
102
RTVSPost2010Prop38
140
0.0
102
RTVSPost2010PropOp38
 70
     1
102
RTVSPost2010Prop39
140
1.0
102
RTVSPost2010PropOp39
 70
     1
102
RTVSPost2010Prop40
 90
        0
102
RTVSPost2010PropOp40
 70
     1
102
RTVSPost2010Prop41ColorIndex
 90
       18
102
RTVSPost2010Prop41ColorRGB
 90
        0
102
RTVSPost2010PropOp41
 70
     1
102
RTVSPost2010Prop42
 90
       50
102
RTVSPost2010PropOp42
 70
     1
102
RTVSPost2010Prop43
 90
        3
102
RTVSPost2010PropOp43
 70
     1
102
RTVSPost2010Prop44ColorIndex
 90
        5
102
RTVSPost2010Prop44ColorRGB
 90
      255
102
RTVSPost2010PropOp44
 70
     1
102
RTVSPost2010Prop45
280
     0
102
RTVSPost2010PropOp45
 70
     1
102
RTVSPost2010Prop46
 90
       50
102
RTVSPost2010PropOp46
 70
     1
102
RTVSPost2010Prop47
 90
       50
102
RTVSPost2010PropOp47
 70
     1
102
RTVSPost2010Prop48
 90
       50
102
RTVSPost2010PropOp48
 70
     1
102
RTVSPost2010Prop49
280
     0
102
RTVSPost2010PropOp49
 70
     1
102
RTVSPost2010Prop50
 90
       50
102
RTVSPost2010PropOp50
 70
     1
102
RTVSPost2010Prop51ColorIndex
 90
      256
102
RTVSPost2010Prop51ColorRGB
 90
-16777216
102
RTVSPost2010PropOp51
 70
     0
102
RTVSPost2010Prop52
140
1.0
102
RTVSPost2010PropOp52
 70
     0
102
RTVSPost2010Prop53
 90
        2
102
RTVSPost2010PropOp53
 70
     1
102
RTVSPost2010Prop54
  1
strokes_ogs.tif
102
RTVSPost2010PropOp54
 70
     1
102
RTVSPost2010Prop55
280
     0
102
RTVSPost2010PropOp55
 70
     1
102
RTVSPost2010Prop56
140
1.0
102
RTVSPost2010PropOp56
 70
     1
102
RTVSPost2010Prop57
140
1.0
102
RTVSPost2010PropOp57
 70
     1
  0
XRECORD
  5
2B9
102
{ACAD_REACTORS
330
2B8
102
}
330
2B8
100
AcDbXrecord
280
     1
102
RTVSPropertyOp0
 70
     1
102
RTVSPropertyOp1
 70
     1
102
RTVSPropertyOp2
 70
     1
102
RTVSPropertyOp3
 70
     1
102
RTVSPropertyOp4
 70
     1
102
RTVSPropertyOp5
 70
     1
102
RTVSPropertyOp6
 70
     1
102
RTVSPropertyOp7
 70
     1
102
RTVSPropertyOp8
 70
     1
102
RTVSPropertyOp9
 70
     1
102
RTVSPropertyOp10
 70
     1
102
RTVSPropertyOp11
 70
     1
102
RTVSPropertyOp12
 70
     1
102
RTVSPropertyOp13
 70
     1
102
RTVSPropertyOp14
 70
     1
102
RTVSPropertyOp15
 70
     1
102
RTVSPropertyOp16
 70
     1
102
RTVSPropertyOp17
 70
     1
102
RTVSPropertyOp18
 70
     1
102
RTVSPropertyOp19
 70
     1
102
RTVSPropertyOp20
 70
     1
102
RTVSPropertyOp21
 70
     1
102
RTVSPropertyOp22
 70
     1
102
RTVSPropertyOp23
 70
     1
102
RTVSPropertyOp24
 70
     1
102
RTVSPropertyOp25
 70
     1
102
RTVSPropertyOp26
 70
     1
102
RTVSPropertyOp27
 70
     1
102
RTVSPropertyOp28
 70
     1
102
RTVSPropertyOp29
 70
     1
102
RTVSPropertyOp30
 70
     1
102
RTVSPropertyOp31
 70
     1
102
RTVSPropertyOp32
 70
     1
102
RTVSPropertyOp33
 70
     1
102
RTVSPropertyOp34
 70
     1
102
RTVSPropertyOp35
 70
     1
102
RTVSPropertyOp36
 70
     1
102
RTVSPropertyOp37
 70
     1
102
RTVSPropertyOp38
 70
     1
102
RTVSPropertyOp39
 70
     1
102
RTVSPropertyOp40
 70
     1
102
RTVSPropertyOp41
 70
     1
102
RTVSPropertyOp42
 70
     1
102
RTVSPropertyOp43
 70
     1
102
RTVSPropertyOp44
 70
     1
102
RTVSPropertyOp45
 70
     1
102
RTVSPropertyOp46
 70
     1
102
RTVSPropertyOp47
 70
     1
102
RTVSPropertyOp48
 70
     1
102
RTVSPropertyOp49
 70
     1
102
RTVSPropertyOp50
 70
     1
102
RTVSPropertyOp51
 70
     0
102
RTVSPropertyOp52
 70
     0
102
RTVSPropertyOp53
 70
     1
102
RTVSPropertyOp54
 70
     1
102
RTVSPropertyOp55
 70
     1
102
RTVSPropertyOp56
 70
     1
102
RTVSPropertyOp57
 70
     1
102
RTVSPost2010Prop28
280
     0
102
RTVSPost2010PropOp28
 70
     1
102
RTVSPost2010Prop29
280
     1
102
RTVSPost2010PropOp29
 70
     1
102
RTVSPost2010Prop30
280
     1
102
RTVSPost2010PropOp30
 70
     1
102
RTVSPost2010Prop31
280
     0
102
RTVSPost2010PropOp31
 70
     1
102
RTVSPost2010Prop32
280
     0
102
RTVSPost2010PropOp32
 70
     1
102
RTVSPost2010Prop33
280
     0
102
RTVSPost2010PropOp33
 70
     1
102
RTVSPost2010Prop34
280
     0
102
RTVSPost2010PropOp34
 70
     1
102
RTVSPost2010Prop35
280
     0
102
RTVSPost2010PropOp35
 70
     1
102
RTVSPost2010Prop36
280
     0
102
RTVSPost2010PropOp36
 70
     1
102
RTVSPost2010Prop37
 90
       50
102
RTVSPost2010PropOp37
 70
     1
102
RTVSPost2010Prop38
140
0.0
102
RTVSPost2010PropOp38
 70
     1
102
RTVSPost2010Prop39
140
1.0
102
RTVSPost2010PropOp39
 70
     1
102
RTVSPost2010Prop40
 90
        0
102
RTVSPost2010PropOp40
 70
     1
102
RTVSPost2010Prop41ColorIndex
 90
       18
102
RTVSPost2010Prop41ColorRGB
 90
        0
102
RTVSPost2010PropOp41
 70
     1
102
RTVSPost2010Prop42
 90
       50
102
RTVSPost2010PropOp42
 70
     1
102
RTVSPost2010Prop43
 90
        3
102
RTVSPost2010PropOp43
 70
     1
102
RTVSPost2010Prop44ColorIndex
 90
        5
102
RTVSPost2010Prop44ColorRGB
 90
      255
102
RTVSPost2010PropOp44
 70
     1
102
RTVSPost2010Prop45
280
     0
102
RTVSPost2010PropOp45
 70
     1
102
RTVSPost2010Prop46
 90
       50
102
RTVSPost2010PropOp46
 70
     1
102
RTVSPost2010Prop47
 90
       50
102
RTVSPost2010PropOp47
 70
     1
102
RTVSPost2010Prop48
 90
       50
102
RTVSPost2010PropOp48
 70
     1
102
RTVSPost2010Prop49
280
     0
102
RTVSPost2010PropOp49
 70
     1
102
RTVSPost2010Prop50
 90
       50
102
RTVSPost2010PropOp50
 70
     1
102
RTVSPost2010Prop51ColorIndex
 90
      256
102
RTVSPost2010Prop51ColorRGB
 90
-16777216
102
RTVSPost2010PropOp51
 70
     0
102
RTVSPost2010Prop52
140
1.0
102
RTVSPost2010PropOp52
 70
     0
102
RTVSPost2010Prop53
 90
        2
102
RTVSPost2010PropOp53
 70
     1
102
RTVSPost2010Prop54
  1
strokes_ogs.tif
102
RTVSPost2010PropOp54
 70
     1
102
RTVSPost2010Prop55
280
     0
102
RTVSPost2010PropOp55
 70
     1
102
RTVSPost2010Prop56
140
1.0
102
RTVSPost2010PropOp56
 70
     1
102
RTVSPost2010Prop57
140
1.0
102
RTVSPost2010PropOp57
 70
     1
  0
XRECORD
  5
2BB
102
{ACAD_REACTORS
330
2BA
102
}
330
2BA
100
AcDbXrecord
280
     1
102
RTVSPropertyOp0
 70
     1
102
RTVSPropertyOp1
 70
     1
102
RTVSPropertyOp2
 70
     1
102
RTVSPropertyOp3
 70
     1
102
RTVSPropertyOp4
 70
     1
102
RTVSPropertyOp5
 70
     1
102
RTVSPropertyOp6
 70
     1
102
RTVSPropertyOp7
 70
     1
102
RTVSPropertyOp8
 70
     1
102
RTVSPropertyOp9
 70
     1
102
RTVSPropertyOp10
 70
     1
102
RTVSPropertyOp11
 70
     1
102
RTVSPropertyOp12
 70
     1
102
RTVSPropertyOp13
 70
     1
102
RTVSPropertyOp14
 70
     1
102
RTVSPropertyOp15
 70
     1
102
RTVSPropertyOp16
 70
     1
102
RTVSPropertyOp17
 70
     1
102
RTVSPropertyOp18
 70
     1
102
RTVSPropertyOp19
 70
     1
102
RTVSPropertyOp20
 70
     1
102
RTVSPropertyOp21
 70
     1
102
RTVSPropertyOp22
 70
     1
102
RTVSPropertyOp23
 70
     1
102
RTVSPropertyOp24
 70
     1
102
RTVSPropertyOp25
 70
     1
102
RTVSPropertyOp26
 70
     1
102
RTVSPropertyOp27
 70
     1
102
RTVSPropertyOp28
 70
     1
102
RTVSPropertyOp29
 70
     1
102
RTVSPropertyOp30
 70
     1
102
RTVSPropertyOp31
 70
     1
102
RTVSPropertyOp32
 70
     1
102
RTVSPropertyOp33
 70
     1
102
RTVSPropertyOp34
 70
     1
102
RTVSPropertyOp35
 70
     1
102
RTVSPropertyOp36
 70
     1
102
RTVSPropertyOp37
 70
     1
102
RTVSPropertyOp38
 70
     1
102
RTVSPropertyOp39
 70
     1
102
RTVSPropertyOp40
 70
     1
102
RTVSPropertyOp41
 70
     1
102
RTVSPropertyOp42
 70
     1
102
RTVSPropertyOp43
 70
     1
102
RTVSPropertyOp44
 70
     1
102
RTVSPropertyOp45
 70
     1
102
RTVSPropertyOp46
 70
     1
102
RTVSPropertyOp47
 70
     1
102
RTVSPropertyOp48
 70
     1
102
RTVSPropertyOp49
 70
     1
102
RTVSPropertyOp50
 70
     1
102
RTVSPropertyOp51
 70
     0
102
RTVSPropertyOp52
 70
     0
102
RTVSPropertyOp53
 70
     1
102
RTVSPropertyOp54
 70
     1
102
RTVSPropertyOp55
 70
     1
102
RTVSPropertyOp56
 70
     1
102
RTVSPropertyOp57
 70
     1
102
RTVSPost2010Prop28
280
     0
102
RTVSPost2010PropOp28
 70
     1
102
RTVSPost2010Prop29
280
     1
102
RTVSPost2010PropOp29
 70
     1
102
RTVSPost2010Prop30
280
     1
102
RTVSPost2010PropOp30
 70
     1
102
RTVSPost2010Prop31
280
     0
102
RTVSPost2010PropOp31
 70
     1
102
RTVSPost2010Prop32
280
     0
102
RTVSPost2010PropOp32
 70
     1
102
RTVSPost2010Prop33
280
     0
102
RTVSPost2010PropOp33
 70
     1
102
RTVSPost2010Prop34
280
     0
102
RTVSPost2010PropOp34
 70
     1
102
RTVSPost2010Prop35
280
     0
102
RTVSPost2010PropOp35
 70
     1
102
RTVSPost2010Prop36
280
     0
102
RTVSPost2010PropOp36
 70
     1
102
RTVSPost2010Prop37
 90
       50
102
RTVSPost2010PropOp37
 70
     1
102
RTVSPost2010Prop38
140
0.0
102
RTVSPost2010PropOp38
 70
     1
102
RTVSPost2010Prop39
140
1.0
102
RTVSPost2010PropOp39
 70
     1
102
RTVSPost2010Prop40
 90
        0
102
RTVSPost2010PropOp40
 70
     1
102
RTVSPost2010Prop41ColorIndex
 90
       18
102
RTVSPost2010Prop41ColorRGB
 90
        0
102
RTVSPost2010PropOp41
 70
     1
102
RTVSPost2010Prop42
 90
       50
102
RTVSPost2010PropOp42
 70
     1
102
RTVSPost2010Prop43
 90
        3
102
RTVSPost2010PropOp43
 70
     1
102
RTVSPost2010Prop44ColorIndex
 90
        5
102
RTVSPost2010Prop44ColorRGB
 90
      255
102
RTVSPost2010PropOp44
 70
     1
102
RTVSPost2010Prop45
280
     0
102
RTVSPost2010PropOp45
 70
     1
102
RTVSPost2010Prop46
 90
       50
102
RTVSPost2010PropOp46
 70
     1
102
RTVSPost2010Prop47
 90
       50
102
RTVSPost2010PropOp47
 70
     1
102
RTVSPost2010Prop48
 90
       50
102
RTVSPost2010PropOp48
 70
     1
102
RTVSPost2010Prop49
280
     0
102
RTVSPost2010PropOp49
 70
     1
102
RTVSPost2010Prop50
 90
       50
102
RTVSPost2010PropOp50
 70
     1
102
RTVSPost2010Prop51ColorIndex
 90
      256
102
RTVSPost2010Prop51ColorRGB
 90
-16777216
102
RTVSPost2010PropOp51
 70
     0
102
RTVSPost2010Prop52
140
1.0
102
RTVSPost2010PropOp52
 70
     0
102
RTVSPost2010Prop53
 90
        2
102
RTVSPost2010PropOp53
 70
     1
102
RTVSPost2010Prop54
  1
strokes_ogs.tif
102
RTVSPost2010PropOp54
 70
     1
102
RTVSPost2010Prop55
280
     0
102
RTVSPost2010PropOp55
 70
     1
102
RTVSPost2010Prop56
140
1.0
102
RTVSPost2010PropOp56
 70
     1
102
RTVSPost2010Prop57
140
1.0
102
RTVSPost2010PropOp57
 70
     1
  0
XRECORD
  5
2C1
102
{ACAD_REACTORS
330
2C0
102
}
330
2C0
100
AcDbXrecord
280
     1
102
RTVSPropertyOp0
 70
     1
102
RTVSPropertyOp1
 70
     1
102
RTVSPropertyOp2
 70
     1
102
RTVSPropertyOp3
 70
     1
102
RTVSPropertyOp4
 70
     1
102
RTVSPropertyOp5
 70
     1
102
RTVSPropertyOp6
 70
     1
102
RTVSPropertyOp7
 70
     1
102
RTVSPropertyOp8
 70
     1
102
RTVSPropertyOp9
 70
     1
102
RTVSPropertyOp10
 70
     1
102
RTVSPropertyOp11
 70
     1
102
RTVSPropertyOp12
 70
     1
102
RTVSPropertyOp13
 70
     1
102
RTVSPropertyOp14
 70
     1
102
RTVSPropertyOp15
 70
     1
102
RTVSPropertyOp16
 70
     1
102
RTVSPropertyOp17
 70
     1
102
RTVSPropertyOp18
 70
     1
102
RTVSPropertyOp19
 70
     1
102
RTVSPropertyOp20
 70
     1
102
RTVSPropertyOp21
 70
     1
102
RTVSPropertyOp22
 70
     1
102
RTVSPropertyOp23
 70
     1
102
RTVSPropertyOp24
 70
     1
102
RTVSPropertyOp25
 70
     1
102
RTVSPropertyOp26
 70
     1
102
RTVSPropertyOp27
 70
     1
102
RTVSPropertyOp28
 70
     1
102
RTVSPropertyOp29
 70
     1
102
RTVSPropertyOp30
 70
     1
102
RTVSPropertyOp31
 70
     1
102
RTVSPropertyOp32
 70
     1
102
RTVSPropertyOp33
 70
     1
102
RTVSPropertyOp34
 70
     1
102
RTVSPropertyOp35
 70
     1
102
RTVSPropertyOp36
 70
     1
102
RTVSPropertyOp37
 70
     1
102
RTVSPropertyOp38
 70
     1
102
RTVSPropertyOp39
 70
     1
102
RTVSPropertyOp40
 70
     1
102
RTVSPropertyOp41
 70
     1
102
RTVSPropertyOp42
 70
     1
102
RTVSPropertyOp43
 70
     1
102
RTVSPropertyOp44
 70
     1
102
RTVSPropertyOp45
 70
     1
102
RTVSPropertyOp46
 70
     1
102
RTVSPropertyOp47
 70
     1
102
RTVSPropertyOp48
 70
     1
102
RTVSPropertyOp49
 70
     1
102
RTVSPropertyOp50
 70
     1
102
RTVSPropertyOp51
 70
     0
102
RTVSPropertyOp52
 70
     0
102
RTVSPropertyOp53
 70
     1
102
RTVSPropertyOp54
 70
     1
102
RTVSPropertyOp55
 70
     1
102
RTVSPropertyOp56
 70
     1
102
RTVSPropertyOp57
 70
     1
102
RTVSPost2010Prop28
280
     0
102
RTVSPost2010PropOp28
 70
     1
102
RTVSPost2010Prop29
280
     1
102
RTVSPost2010PropOp29
 70
     1
102
RTVSPost2010Prop30
280
     1
102
RTVSPost2010PropOp30
 70
     1
102
RTVSPost2010Prop31
280
     0
102
RTVSPost2010PropOp31
 70
     1
102
RTVSPost2010Prop32
280
     0
102
RTVSPost2010PropOp32
 70
     1
102
RTVSPost2010Prop33
280
     0
102
RTVSPost2010PropOp33
 70
     1
102
RTVSPost2010Prop34
280
     0
102
RTVSPost2010PropOp34
 70
     1
102
RTVSPost2010Prop35
280
     0
102
RTVSPost2010PropOp35
 70
     1
102
RTVSPost2010Prop36
280
     0
102
RTVSPost2010PropOp36
 70
     1
102
RTVSPost2010Prop37
 90
       50
102
RTVSPost2010PropOp37
 70
     1
102
RTVSPost2010Prop38
140
0.0
102
RTVSPost2010PropOp38
 70
     1
102
RTVSPost2010Prop39
140
1.0
102
RTVSPost2010PropOp39
 70
     1
102
RTVSPost2010Prop40
 90
        0
102
RTVSPost2010PropOp40
 70
     1
102
RTVSPost2010Prop41ColorIndex
 90
       18
102
RTVSPost2010Prop41ColorRGB
 90
        0
102
RTVSPost2010PropOp41
 70
     1
102
RTVSPost2010Prop42
 90
       50
102
RTVSPost2010PropOp42
 70
     1
102
RTVSPost2010Prop43
 90
        3
102
RTVSPost2010PropOp43
 70
     1
102
RTVSPost2010Prop44ColorIndex
 90
        5
102
RTVSPost2010Prop44ColorRGB
 90
      255
102
RTVSPost2010PropOp44
 70
     1
102
RTVSPost2010Prop45
280
     0
102
RTVSPost2010PropOp45
 70
     1
102
RTVSPost2010Prop46
 90
       50
102
RTVSPost2010PropOp46
 70
     1
102
RTVSPost2010Prop47
 90
       50
102
RTVSPost2010PropOp47
 70
     1
102
RTVSPost2010Prop48
 90
       50
102
RTVSPost2010PropOp48
 70
     1
102
RTVSPost2010Prop49
280
     0
102
RTVSPost2010PropOp49
 70
     1
102
RTVSPost2010Prop50
 90
       50
102
RTVSPost2010PropOp50
 70
     1
102
RTVSPost2010Prop51ColorIndex
 90
      256
102
RTVSPost2010Prop51ColorRGB
 90
-16777216
102
RTVSPost2010PropOp51
 70
     0
102
RTVSPost2010Prop52
140
1.0
102
RTVSPost2010PropOp52
 70
     0
102
RTVSPost2010Prop53
 90
        2
102
RTVSPost2010PropOp53
 70
     1
102
RTVSPost2010Prop54
  1
strokes_ogs.tif
102
RTVSPost2010PropOp54
 70
     1
102
RTVSPost2010Prop55
280
     0
102
RTVSPost2010PropOp55
 70
     1
102
RTVSPost2010Prop56
140
1.0
102
RTVSPost2010PropOp56
 70
     1
102
RTVSPost2010Prop57
140
1.0
102
RTVSPost2010PropOp57
 70
     1
  0
XRECORD
  5
2D5
102
{ACAD_REACTORS
330
2D4
102
}
330
2D4
100
AcDbXrecord
280
     1
102
RTVSPropertyOp0
 70
     0
102
RTVSPropertyOp1
 70
     0
102
RTVSPropertyOp2
 70
     0
102
RTVSPropertyOp3
 70
     0
102
RTVSPropertyOp4
 70
     0
102
RTVSPropertyOp5
 70
     0
102
RTVSPropertyOp6
 70
     0
102
RTVSPropertyOp7
 70
     0
102
RTVSPropertyOp8
 70
     0
102
RTVSPropertyOp9
 70
     0
102
RTVSPropertyOp10
 70
     0
102
RTVSPropertyOp11
 70
     0
102
RTVSPropertyOp12
 70
     0
102
RTVSPropertyOp13
 70
     0
102
RTVSPropertyOp14
 70
     2
102
RTVSPropertyOp15
 70
     0
102
RTVSPropertyOp16
 70
     0
102
RTVSPropertyOp17
 70
     0
102
RTVSPropertyOp18
 70
     0
102
RTVSPropertyOp19
 70
     0
102
RTVSPropertyOp20
 70
     0
102
RTVSPropertyOp21
 70
     0
102
RTVSPropertyOp22
 70
     0
102
RTVSPropertyOp23
 70
     0
102
RTVSPropertyOp24
 70
     0
102
RTVSPropertyOp25
 70
     0
102
RTVSPropertyOp26
 70
     0
102
RTVSPropertyOp27
 70
     0
102
RTVSPropertyOp28
 70
     0
102
RTVSPropertyOp29
 70
     0
102
RTVSPropertyOp30
 70
     0
102
RTVSPropertyOp31
 70
     0
102
RTVSPropertyOp32
 70
     0
102
RTVSPropertyOp33
 70
     0
102
RTVSPropertyOp34
 70
     0
102
RTVSPropertyOp35
 70
     0
102
RTVSPropertyOp36
 70
     0
102
RTVSPropertyOp37
 70
     0
102
RTVSPropertyOp38
 70
     0
102
RTVSPropertyOp39
 70
     0
102
RTVSPropertyOp40
 70
     0
102
RTVSPropertyOp41
 70
     0
102
RTVSPropertyOp42
 70
     0
102
RTVSPropertyOp43
 70
     0
102
RTVSPropertyOp44
 70
     0
102
RTVSPropertyOp45
 70
     0
102
RTVSPropertyOp46
 70
     0
102
RTVSPropertyOp47
 70
     0
102
RTVSPropertyOp48
 70
     0
102
RTVSPropertyOp49
 70
     0
102
RTVSPropertyOp50
 70
     0
102
RTVSPropertyOp51
 70
     0
102
RTVSPropertyOp52
 70
     0
102
RTVSPropertyOp53
 70
     0
102
RTVSPropertyOp54
 70
     0
102
RTVSPropertyOp55
 70
     0
102
RTVSPropertyOp56
 70
     0
102
RTVSPropertyOp57
 70
     0
102
RTVSPost2010Prop28
280
     0
102
RTVSPost2010PropOp28
 70
     0
102
RTVSPost2010Prop29
280
     1
102
RTVSPost2010PropOp29
 70
     0
102
RTVSPost2010Prop30
280
     1
102
RTVSPost2010PropOp30
 70
     0
102
RTVSPost2010Prop31
280
     0
102
RTVSPost2010PropOp31
 70
     0
102
RTVSPost2010Prop32
280
     0
102
RTVSPost2010PropOp32
 70
     0
102
RTVSPost2010Prop33
280
     0
102
RTVSPost2010PropOp33
 70
     0
102
RTVSPost2010Prop34
280
     0
102
RTVSPost2010PropOp34
 70
     0
102
RTVSPost2010Prop35
280
     0
102
RTVSPost2010PropOp35
 70
     0
102
RTVSPost2010Prop36
280
     0
102
RTVSPost2010PropOp36
 70
     0
102
RTVSPost2010Prop37
 90
       50
102
RTVSPost2010PropOp37
 70
     0
102
RTVSPost2010Prop38
140
0.0
102
RTVSPost2010PropOp38
 70
     0
102
RTVSPost2010Prop39
140
1.0
102
RTVSPost2010PropOp39
 70
     0
102
RTVSPost2010Prop40
 90
        0
102
RTVSPost2010PropOp40
 70
     0
102
RTVSPost2010Prop41ColorIndex
 90
       18
102
RTVSPost2010Prop41ColorRGB
 90
        0
102
RTVSPost2010PropOp41
 70
     0
102
RTVSPost2010Prop42
 90
       50
102
RTVSPost2010PropOp42
 70
     0
102
RTVSPost2010Prop43
 90
        3
102
RTVSPost2010PropOp43
 70
     0
102
RTVSPost2010Prop44ColorIndex
 90
        5
102
RTVSPost2010Prop44ColorRGB
 90
      255
102
RTVSPost2010PropOp44
 70
     0
102
RTVSPost2010Prop45
280
     0
102
RTVSPost2010PropOp45
 70
     0
102
RTVSPost2010Prop46
 90
       50
102
RTVSPost2010PropOp46
 70
     0
102
RTVSPost2010Prop47
 90
       50
102
RTVSPost2010PropOp47
 70
     0
102
RTVSPost2010Prop48
 90
       50
102
RTVSPost2010PropOp48
 70
     0
102
RTVSPost2010Prop49
280
     0
102
RTVSPost2010PropOp49
 70
     0
102
RTVSPost2010Prop50
 90
       50
102
RTVSPost2010PropOp50
 70
     0
102
RTVSPost2010Prop51ColorIndex
 90
      256
102
RTVSPost2010Prop51ColorRGB
 90
-16777216
102
RTVSPost2010PropOp51
 70
     0
102
RTVSPost2010Prop52
140
1.0
102
RTVSPost2010PropOp52
 70
     0
102
RTVSPost2010Prop53
 90
        2
102
RTVSPost2010PropOp53
 70
     0
102
RTVSPost2010Prop54
  1
strokes_ogs.tif
102
RTVSPost2010PropOp54
 70
     0
102
RTVSPost2010Prop55
280
     0
102
RTVSPost2010PropOp55
 70
     0
102
RTVSPost2010Prop56
140
1.0
102
RTVSPost2010PropOp56
 70
     0
102
RTVSPost2010Prop57
140
1.0
102
RTVSPost2010PropOp57
 70
     0
  0
XRECORD
  5
2CF
102
{ACAD_REACTORS
330
2CE
102
}
330
2CE
100
AcDbXrecord
280
     1
102
RTVSPropertyOp0
 70
     1
102
RTVSPropertyOp1
 70
     1
102
RTVSPropertyOp2
 70
     1
102
RTVSPropertyOp3
 70
     1
102
RTVSPropertyOp4
 70
     1
102
RTVSPropertyOp5
 70
     1
102
RTVSPropertyOp6
 70
     1
102
RTVSPropertyOp7
 70
     1
102
RTVSPropertyOp8
 70
     1
102
RTVSPropertyOp9
 70
     1
102
RTVSPropertyOp10
 70
     1
102
RTVSPropertyOp11
 70
     1
102
RTVSPropertyOp12
 70
     1
102
RTVSPropertyOp13
 70
     1
102
RTVSPropertyOp14
 70
     1
102
RTVSPropertyOp15
 70
     1
102
RTVSPropertyOp16
 70
     1
102
RTVSPropertyOp17
 70
     1
102
RTVSPropertyOp18
 70
     1
102
RTVSPropertyOp19
 70
     1
102
RTVSPropertyOp20
 70
     1
102
RTVSPropertyOp21
 70
     1
102
RTVSPropertyOp22
 70
     1
102
RTVSPropertyOp23
 70
     1
102
RTVSPropertyOp24
 70
     1
102
RTVSPropertyOp25
 70
     1
102
RTVSPropertyOp26
 70
     1
102
RTVSPropertyOp27
 70
     1
102
RTVSPropertyOp28
 70
     1
102
RTVSPropertyOp29
 70
     1
102
RTVSPropertyOp30
 70
     1
102
RTVSPropertyOp31
 70
     1
102
RTVSPropertyOp32
 70
     1
102
RTVSPropertyOp33
 70
     1
102
RTVSPropertyOp34
 70
     1
102
RTVSPropertyOp35
 70
     1
102
RTVSPropertyOp36
 70
     1
102
RTVSPropertyOp37
 70
     1
102
RTVSPropertyOp38
 70
     1
102
RTVSPropertyOp39
 70
     1
102
RTVSPropertyOp40
 70
     1
102
RTVSPropertyOp41
 70
     1
102
RTVSPropertyOp42
 70
     1
102
RTVSPropertyOp43
 70
     1
102
RTVSPropertyOp44
 70
     1
102
RTVSPropertyOp45
 70
     1
102
RTVSPropertyOp46
 70
     1
102
RTVSPropertyOp47
 70
     1
102
RTVSPropertyOp48
 70
     1
102
RTVSPropertyOp49
 70
     1
102
RTVSPropertyOp50
 70
     1
102
RTVSPropertyOp51
 70
     0
102
RTVSPropertyOp52
 70
     0
102
RTVSPropertyOp53
 70
     1
102
RTVSPropertyOp54
 70
     1
102
RTVSPropertyOp55
 70
     1
102
RTVSPropertyOp56
 70
     1
102
RTVSPropertyOp57
 70
     1
102
RTVSPost2010Prop28
280
     0
102
RTVSPost2010PropOp28
 70
     1
102
RTVSPost2010Prop29
280
     1
102
RTVSPost2010PropOp29
 70
     1
102
RTVSPost2010Prop30
280
     1
102
RTVSPost2010PropOp30
 70
     1
102
RTVSPost2010Prop31
280
     0
102
RTVSPost2010PropOp31
 70
     1
102
RTVSPost2010Prop32
280
     0
102
RTVSPost2010PropOp32
 70
     1
102
RTVSPost2010Prop33
280
     0
102
RTVSPost2010PropOp33
 70
     1
102
RTVSPost2010Prop34
280
     0
102
RTVSPost2010PropOp34
 70
     1
102
RTVSPost2010Prop35
280
     0
102
RTVSPost2010PropOp35
 70
     1
102
RTVSPost2010Prop36
280
     0
102
RTVSPost2010PropOp36
 70
     1
102
RTVSPost2010Prop37
 90
       50
102
RTVSPost2010PropOp37
 70
     1
102
RTVSPost2010Prop38
140
0.0
102
RTVSPost2010PropOp38
 70
     1
102
RTVSPost2010Prop39
140
1.0
102
RTVSPost2010PropOp39
 70
     1
102
RTVSPost2010Prop40
 90
        0
102
RTVSPost2010PropOp40
 70
     1
102
RTVSPost2010Prop41ColorIndex
 90
       18
102
RTVSPost2010Prop41ColorRGB
 90
        0
102
RTVSPost2010PropOp41
 70
     1
102
RTVSPost2010Prop42
 90
       50
102
RTVSPost2010PropOp42
 70
     1
102
RTVSPost2010Prop43
 90
        3
102
RTVSPost2010PropOp43
 70
     1
102
RTVSPost2010Prop44ColorIndex
 90
        5
102
RTVSPost2010Prop44ColorRGB
 90
      255
102
RTVSPost2010PropOp44
 70
     1
102
RTVSPost2010Prop45
280
     0
102
RTVSPost2010PropOp45
 70
     1
102
RTVSPost2010Prop46
 90
       50
102
RTVSPost2010PropOp46
 70
     1
102
RTVSPost2010Prop47
 90
       50
102
RTVSPost2010PropOp47
 70
     1
102
RTVSPost2010Prop48
 90
       50
102
RTVSPost2010PropOp48
 70
     1
102
RTVSPost2010Prop49
280
     0
102
RTVSPost2010PropOp49
 70
     1
102
RTVSPost2010Prop50
 90
       50
102
RTVSPost2010PropOp50
 70
     1
102
RTVSPost2010Prop51ColorIndex
 90
      256
102
RTVSPost2010Prop51ColorRGB
 90
-16777216
102
RTVSPost2010PropOp51
 70
     0
102
RTVSPost2010Prop52
140
1.0
102
RTVSPost2010PropOp52
 70
     0
102
RTVSPost2010Prop53
 90
        2
102
RTVSPost2010PropOp53
 70
     1
102
RTVSPost2010Prop54
  1
strokes_ogs.tif
102
RTVSPost2010PropOp54
 70
     1
102
RTVSPost2010Prop55
280
     0
102
RTVSPost2010PropOp55
 70
     1
102
RTVSPost2010Prop56
140
1.0
102
RTVSPost2010PropOp56
 70
     1
102
RTVSPost2010Prop57
140
1.0
102
RTVSPost2010PropOp57
 70
     1
  0
XRECORD
  5
2D7
102
{ACAD_REACTORS
330
2D6
102
}
330
2D6
100
AcDbXrecord
280
     1
102
RTVSPropertyOp0
 70
     0
102
RTVSPropertyOp1
 70
     0
102
RTVSPropertyOp2
 70
     0
102
RTVSPropertyOp3
 70
     0
102
RTVSPropertyOp4
 70
     0
102
RTVSPropertyOp5
 70
     0
102
RTVSPropertyOp6
 70
     0
102
RTVSPropertyOp7
 70
     0
102
RTVSPropertyOp8
 70
     0
102
RTVSPropertyOp9
 70
     0
102
RTVSPropertyOp10
 70
     0
102
RTVSPropertyOp11
 70
     0
102
RTVSPropertyOp12
 70
     0
102
RTVSPropertyOp13
 70
     0
102
RTVSPropertyOp14
 70
     2
102
RTVSPropertyOp15
 70
     0
102
RTVSPropertyOp16
 70
     0
102
RTVSPropertyOp17
 70
     0
102
RTVSPropertyOp18
 70
     0
102
RTVSPropertyOp19
 70
     0
102
RTVSPropertyOp20
 70
     0
102
RTVSPropertyOp21
 70
     0
102
RTVSPropertyOp22
 70
     0
102
RTVSPropertyOp23
 70
     0
102
RTVSPropertyOp24
 70
     0
102
RTVSPropertyOp25
 70
     0
102
RTVSPropertyOp26
 70
     0
102
RTVSPropertyOp27
 70
     0
102
RTVSPropertyOp28
 70
     0
102
RTVSPropertyOp29
 70
     0
102
RTVSPropertyOp30
 70
     0
102
RTVSPropertyOp31
 70
     0
102
RTVSPropertyOp32
 70
     0
102
RTVSPropertyOp33
 70
     0
102
RTVSPropertyOp34
 70
     0
102
RTVSPropertyOp35
 70
     0
102
RTVSPropertyOp36
 70
     0
102
RTVSPropertyOp37
 70
     0
102
RTVSPropertyOp38
 70
     0
102
RTVSPropertyOp39
 70
     0
102
RTVSPropertyOp40
 70
     0
102
RTVSPropertyOp41
 70
     0
102
RTVSPropertyOp42
 70
     0
102
RTVSPropertyOp43
 70
     0
102
RTVSPropertyOp44
 70
     0
102
RTVSPropertyOp45
 70
     0
102
RTVSPropertyOp46
 70
     0
102
RTVSPropertyOp47
 70
     0
102
RTVSPropertyOp48
 70
     0
102
RTVSPropertyOp49
 70
     0
102
RTVSPropertyOp50
 70
     0
102
RTVSPropertyOp51
 70
     0
102
RTVSPropertyOp52
 70
     0
102
RTVSPropertyOp53
 70
     0
102
RTVSPropertyOp54
 70
     0
102
RTVSPropertyOp55
 70
     0
102
RTVSPropertyOp56
 70
     0
102
RTVSPropertyOp57
 70
     0
102
RTVSPost2010Prop28
280
     0
102
RTVSPost2010PropOp28
 70
     0
102
RTVSPost2010Prop29
280
     1
102
RTVSPost2010PropOp29
 70
     0
102
RTVSPost2010Prop30
280
     1
102
RTVSPost2010PropOp30
 70
     0
102
RTVSPost2010Prop31
280
     0
102
RTVSPost2010PropOp31
 70
     0
102
RTVSPost2010Prop32
280
     0
102
RTVSPost2010PropOp32
 70
     0
102
RTVSPost2010Prop33
280
     0
102
RTVSPost2010PropOp33
 70
     0
102
RTVSPost2010Prop34
280
     0
102
RTVSPost2010PropOp34
 70
     0
102
RTVSPost2010Prop35
280
     0
102
RTVSPost2010PropOp35
 70
     0
102
RTVSPost2010Prop36
280
     0
102
RTVSPost2010PropOp36
 70
     0
102
RTVSPost2010Prop37
 90
       50
102
RTVSPost2010PropOp37
 70
     0
102
RTVSPost2010Prop38
140
0.0
102
RTVSPost2010PropOp38
 70
     0
102
RTVSPost2010Prop39
140
1.0
102
RTVSPost2010PropOp39
 70
     0
102
RTVSPost2010Prop40
 90
        0
102
RTVSPost2010PropOp40
 70
     0
102
RTVSPost2010Prop41ColorIndex
 90
       18
102
RTVSPost2010Prop41ColorRGB
 90
        0
102
RTVSPost2010PropOp41
 70
     0
102
RTVSPost2010Prop42
 90
       50
102
RTVSPost2010PropOp42
 70
     0
102
RTVSPost2010Prop43
 90
        3
102
RTVSPost2010PropOp43
 70
     0
102
RTVSPost2010Prop44ColorIndex
 90
        5
102
RTVSPost2010Prop44ColorRGB
 90
      255
102
RTVSPost2010PropOp44
 70
     0
102
RTVSPost2010Prop45
280
     0
102
RTVSPost2010PropOp45
 70
     0
102
RTVSPost2010Prop46
 90
       50
102
RTVSPost2010PropOp46
 70
     0
102
RTVSPost2010Prop47
 90
       50
102
RTVSPost2010PropOp47
 70
     0
102
RTVSPost2010Prop48
 90
       50
102
RTVSPost2010PropOp48
 70
     0
102
RTVSPost2010Prop49
280
     0
102
RTVSPost2010PropOp49
 70
     0
102
RTVSPost2010Prop50
 90
       50
102
RTVSPost2010PropOp50
 70
     0
102
RTVSPost2010Prop51ColorIndex
 90
      256
102
RTVSPost2010Prop51ColorRGB
 90
-16777216
102
RTVSPost2010PropOp51
 70
     0
102
RTVSPost2010Prop52
140
1.0
102
RTVSPost2010PropOp52
 70
     0
102
RTVSPost2010Prop53
 90
        2
102
RTVSPost2010PropOp53
 70
     0
102
RTVSPost2010Prop54
  1
strokes_ogs.tif
102
RTVSPost2010PropOp54
 70
     0
102
RTVSPost2010Prop55
280
     0
102
RTVSPost2010PropOp55
 70
     0
102
RTVSPost2010Prop56
140
1.0
102
RTVSPost2010PropOp56
 70
     0
102
RTVSPost2010Prop57
140
1.0
102
RTVSPost2010PropOp57
 70
     0
  0
XRECORD
  5
2C5
102
{ACAD_REACTORS
330
2C4
102
}
330
2C4
100
AcDbXrecord
280
     1
102
RTVSPropertyOp0
 70
     1
102
RTVSPropertyOp1
 70
     1
102
RTVSPropertyOp2
 70
     1
102
RTVSPropertyOp3
 70
     1
102
RTVSPropertyOp4
 70
     1
102
RTVSPropertyOp5
 70
     1
102
RTVSPropertyOp6
 70
     1
102
RTVSPropertyOp7
 70
     1
102
RTVSPropertyOp8
 70
     1
102
RTVSPropertyOp9
 70
     1
102
RTVSPropertyOp10
 70
     1
102
RTVSPropertyOp11
 70
     1
102
RTVSPropertyOp12
 70
     1
102
RTVSPropertyOp13
 70
     1
102
RTVSPropertyOp14
 70
     1
102
RTVSPropertyOp15
 70
     1
102
RTVSPropertyOp16
 70
     1
102
RTVSPropertyOp17
 70
     1
102
RTVSPropertyOp18
 70
     1
102
RTVSPropertyOp19
 70
     1
102
RTVSPropertyOp20
 70
     1
102
RTVSPropertyOp21
 70
     1
102
RTVSPropertyOp22
 70
     1
102
RTVSPropertyOp23
 70
     1
102
RTVSPropertyOp24
 70
     1
102
RTVSPropertyOp25
 70
     1
102
RTVSPropertyOp26
 70
     1
102
RTVSPropertyOp27
 70
     1
102
RTVSPropertyOp28
 70
     1
102
RTVSPropertyOp29
 70
     1
102
RTVSPropertyOp30
 70
     1
102
RTVSPropertyOp31
 70
     1
102
RTVSPropertyOp32
 70
     1
102
RTVSPropertyOp33
 70
     1
102
RTVSPropertyOp34
 70
     1
102
RTVSPropertyOp35
 70
     1
102
RTVSPropertyOp36
 70
     1
102
RTVSPropertyOp37
 70
     1
102
RTVSPropertyOp38
 70
     1
102
RTVSPropertyOp39
 70
     1
102
RTVSPropertyOp40
 70
     1
102
RTVSPropertyOp41
 70
     1
102
RTVSPropertyOp42
 70
     1
102
RTVSPropertyOp43
 70
     1
102
RTVSPropertyOp44
 70
     1
102
RTVSPropertyOp45
 70
     1
102
RTVSPropertyOp46
 70
     1
102
RTVSPropertyOp47
 70
     1
102
RTVSPropertyOp48
 70
     1
102
RTVSPropertyOp49
 70
     1
102
RTVSPropertyOp50
 70
     1
102
RTVSPropertyOp51
 70
     0
102
RTVSPropertyOp52
 70
     0
102
RTVSPropertyOp53
 70
     1
102
RTVSPropertyOp54
 70
     1
102
RTVSPropertyOp55
 70
     1
102
RTVSPropertyOp56
 70
     1
102
RTVSPropertyOp57
 70
     1
102
RTVSPost2010Prop28
280
     0
102
RTVSPost2010PropOp28
 70
     1
102
RTVSPost2010Prop29
280
     1
102
RTVSPost2010PropOp29
 70
     1
102
RTVSPost2010Prop30
280
     1
102
RTVSPost2010PropOp30
 70
     1
102
RTVSPost2010Prop31
280
     0
102
RTVSPost2010PropOp31
 70
     1
102
RTVSPost2010Prop32
280
     0
102
RTVSPost2010PropOp32
 70
     1
102
RTVSPost2010Prop33
280
     0
102
RTVSPost2010PropOp33
 70
     1
102
RTVSPost2010Prop34
280
     0
102
RTVSPost2010PropOp34
 70
     1
102
RTVSPost2010Prop35
280
     0
102
RTVSPost2010PropOp35
 70
     1
102
RTVSPost2010Prop36
280
     0
102
RTVSPost2010PropOp36
 70
     1
102
RTVSPost2010Prop37
 90
       50
102
RTVSPost2010PropOp37
 70
     1
102
RTVSPost2010Prop38
140
0.0
102
RTVSPost2010PropOp38
 70
     1
102
RTVSPost2010Prop39
140
1.0
102
RTVSPost2010PropOp39
 70
     1
102
RTVSPost2010Prop40
 90
        0
102
RTVSPost2010PropOp40
 70
     1
102
RTVSPost2010Prop41ColorIndex
 90
       18
102
RTVSPost2010Prop41ColorRGB
 90
        0
102
RTVSPost2010PropOp41
 70
     1
102
RTVSPost2010Prop42
 90
       50
102
RTVSPost2010PropOp42
 70
     1
102
RTVSPost2010Prop43
 90
        3
102
RTVSPost2010PropOp43
 70
     1
102
RTVSPost2010Prop44ColorIndex
 90
        5
102
RTVSPost2010Prop44ColorRGB
 90
      255
102
RTVSPost2010PropOp44
 70
     1
102
RTVSPost2010Prop45
280
     0
102
RTVSPost2010PropOp45
 70
     1
102
RTVSPost2010Prop46
 90
       50
102
RTVSPost2010PropOp46
 70
     1
102
RTVSPost2010Prop47
 90
       50
102
RTVSPost2010PropOp47
 70
     1
102
RTVSPost2010Prop48
 90
       50
102
RTVSPost2010PropOp48
 70
     1
102
RTVSPost2010Prop49
280
     0
102
RTVSPost2010PropOp49
 70
     1
102
RTVSPost2010Prop50
 90
       50
102
RTVSPost2010PropOp50
 70
     1
102
RTVSPost2010Prop51ColorIndex
 90
      256
102
RTVSPost2010Prop51ColorRGB
 90
-16777216
102
RTVSPost2010PropOp51
 70
     0
102
RTVSPost2010Prop52
140
1.0
102
RTVSPost2010PropOp52
 70
     0
102
RTVSPost2010Prop53
 90
        2
102
RTVSPost2010PropOp53
 70
     1
102
RTVSPost2010Prop54
  1
strokes_ogs.tif
102
RTVSPost2010PropOp54
 70
     1
102
RTVSPost2010Prop55
280
     0
102
RTVSPost2010PropOp55
 70
     1
102
RTVSPost2010Prop56
140
1.0
102
RTVSPost2010PropOp56
 70
     1
102
RTVSPost2010Prop57
140
1.0
102
RTVSPost2010PropOp57
 70
     1
  0
XRECORD
  5
2E3
102
{ACAD_REACTORS
330
2E2
102
}
330
2E2
100
AcDbXrecord
280
     1
102
RTVSPropertyOp0
 70
     1
102
RTVSPropertyOp1
 70
     1
102
RTVSPropertyOp2
 70
     1
102
RTVSPropertyOp3
 70
     1
102
RTVSPropertyOp4
 70
     1
102
RTVSPropertyOp5
 70
     1
102
RTVSPropertyOp6
 70
     1
102
RTVSPropertyOp7
 70
     1
102
RTVSPropertyOp8
 70
     1
102
RTVSPropertyOp9
 70
     1
102
RTVSPropertyOp10
 70
     1
102
RTVSPropertyOp11
 70
     1
102
RTVSPropertyOp12
 70
     1
102
RTVSPropertyOp13
 70
     1
102
RTVSPropertyOp14
 70
     1
102
RTVSPropertyOp15
 70
     1
102
RTVSPropertyOp16
 70
     1
102
RTVSPropertyOp17
 70
     1
102
RTVSPropertyOp18
 70
     1
102
RTVSPropertyOp19
 70
     1
102
RTVSPropertyOp20
 70
     1
102
RTVSPropertyOp21
 70
     1
102
RTVSPropertyOp22
 70
     1
102
RTVSPropertyOp23
 70
     1
102
RTVSPropertyOp24
 70
     1
102
RTVSPropertyOp25
 70
     1
102
RTVSPropertyOp26
 70
     1
102
RTVSPropertyOp27
 70
     1
102
RTVSPropertyOp28
 70
     1
102
RTVSPropertyOp29
 70
     1
102
RTVSPropertyOp30
 70
     1
102
RTVSPropertyOp31
 70
     1
102
RTVSPropertyOp32
 70
     1
102
RTVSPropertyOp33
 70
     1
102
RTVSPropertyOp34
 70
     1
102
RTVSPropertyOp35
 70
     1
102
RTVSPropertyOp36
 70
     1
102
RTVSPropertyOp37
 70
     1
102
RTVSPropertyOp38
 70
     1
102
RTVSPropertyOp39
 70
     1
102
RTVSPropertyOp40
 70
     1
102
RTVSPropertyOp41
 70
     1
102
RTVSPropertyOp42
 70
     1
102
RTVSPropertyOp43
 70
     1
102
RTVSPropertyOp44
 70
     1
102
RTVSPropertyOp45
 70
     1
102
RTVSPropertyOp46
 70
     1
102
RTVSPropertyOp47
 70
     1
102
RTVSPropertyOp48
 70
     1
102
RTVSPropertyOp49
 70
     1
102
RTVSPropertyOp50
 70
     1
102
RTVSPropertyOp51
 70
     0
102
RTVSPropertyOp52
 70
     0
102
RTVSPropertyOp53
 70
     1
102
RTVSPropertyOp54
 70
     1
102
RTVSPropertyOp55
 70
     1
102
RTVSPropertyOp56
 70
     1
102
RTVSPropertyOp57
 70
     1
102
RTVSPost2010Prop28
280
     0
102
RTVSPost2010PropOp28
 70
     1
102
RTVSPost2010Prop29
280
     1
102
RTVSPost2010PropOp29
 70
     1
102
RTVSPost2010Prop30
280
     1
102
RTVSPost2010PropOp30
 70
     1
102
RTVSPost2010Prop31
280
     0
102
RTVSPost2010PropOp31
 70
     1
102
RTVSPost2010Prop32
280
     0
102
RTVSPost2010PropOp32
 70
     1
102
RTVSPost2010Prop33
280
     0
102
RTVSPost2010PropOp33
 70
     1
102
RTVSPost2010Prop34
280
     0
102
RTVSPost2010PropOp34
 70
     1
102
RTVSPost2010Prop35
280
     0
102
RTVSPost2010PropOp35
 70
     1
102
RTVSPost2010Prop36
280
     0
102
RTVSPost2010PropOp36
 70
     1
102
RTVSPost2010Prop37
 90
       50
102
RTVSPost2010PropOp37
 70
     1
102
RTVSPost2010Prop38
140
0.0
102
RTVSPost2010PropOp38
 70
     1
102
RTVSPost2010Prop39
140
1.0
102
RTVSPost2010PropOp39
 70
     1
102
RTVSPost2010Prop40
 90
        0
102
RTVSPost2010PropOp40
 70
     1
102
RTVSPost2010Prop41ColorIndex
 90
       18
102
RTVSPost2010Prop41ColorRGB
 90
        0
102
RTVSPost2010PropOp41
 70
     1
102
RTVSPost2010Prop42
 90
       50
102
RTVSPost2010PropOp42
 70
     1
102
RTVSPost2010Prop43
 90
        3
102
RTVSPost2010PropOp43
 70
     1
102
RTVSPost2010Prop44ColorIndex
 90
        5
102
RTVSPost2010Prop44ColorRGB
 90
      255
102
RTVSPost2010PropOp44
 70
     1
102
RTVSPost2010Prop45
280
     0
102
RTVSPost2010PropOp45
 70
     1
102
RTVSPost2010Prop46
 90
       50
102
RTVSPost2010PropOp46
 70
     1
102
RTVSPost2010Prop47
 90
       50
102
RTVSPost2010PropOp47
 70
     1
102
RTVSPost2010Prop48
 90
       50
102
RTVSPost2010PropOp48
 70
     1
102
RTVSPost2010Prop49
280
     0
102
RTVSPost2010PropOp49
 70
     1
102
RTVSPost2010Prop50
 90
       50
102
RTVSPost2010PropOp50
 70
     1
102
RTVSPost2010Prop51ColorIndex
 90
      256
102
RTVSPost2010Prop51ColorRGB
 90
-16777216
102
RTVSPost2010PropOp51
 70
     0
102
RTVSPost2010Prop52
140
1.0
102
RTVSPost2010PropOp52
 70
     0
102
RTVSPost2010Prop53
 90
        2
102
RTVSPost2010PropOp53
 70
     1
102
RTVSPost2010Prop54
  1
strokes_ogs.tif
102
RTVSPost2010PropOp54
 70
     1
102
RTVSPost2010Prop55
280
     0
102
RTVSPost2010PropOp55
 70
     1
102
RTVSPost2010Prop56
140
1.0
102
RTVSPost2010PropOp56
 70
     1
102
RTVSPost2010Prop57
140
1.0
102
RTVSPost2010PropOp57
 70
     1
  0
XRECORD
  5
2E1
102
{ACAD_REACTORS
330
2E0
102
}
330
2E0
100
AcDbXrecord
280
     1
102
RTVSPropertyOp0
 70
     1
102
RTVSPropertyOp1
 70
     1
102
RTVSPropertyOp2
 70
     1
102
RTVSPropertyOp3
 70
     1
102
RTVSPropertyOp4
 70
     1
102
RTVSPropertyOp5
 70
     1
102
RTVSPropertyOp6
 70
     1
102
RTVSPropertyOp7
 70
     1
102
RTVSPropertyOp8
 70
     1
102
RTVSPropertyOp9
 70
     1
102
RTVSPropertyOp10
 70
     1
102
RTVSPropertyOp11
 70
     1
102
RTVSPropertyOp12
 70
     1
102
RTVSPropertyOp13
 70
     1
102
RTVSPropertyOp14
 70
     1
102
RTVSPropertyOp15
 70
     1
102
RTVSPropertyOp16
 70
     1
102
RTVSPropertyOp17
 70
     1
102
RTVSPropertyOp18
 70
     1
102
RTVSPropertyOp19
 70
     1
102
RTVSPropertyOp20
 70
     1
102
RTVSPropertyOp21
 70
     1
102
RTVSPropertyOp22
 70
     1
102
RTVSPropertyOp23
 70
     1
102
RTVSPropertyOp24
 70
     1
102
RTVSPropertyOp25
 70
     1
102
RTVSPropertyOp26
 70
     1
102
RTVSPropertyOp27
 70
     1
102
RTVSPropertyOp28
 70
     1
102
RTVSPropertyOp29
 70
     1
102
RTVSPropertyOp30
 70
     1
102
RTVSPropertyOp31
 70
     1
102
RTVSPropertyOp32
 70
     1
102
RTVSPropertyOp33
 70
     1
102
RTVSPropertyOp34
 70
     1
102
RTVSPropertyOp35
 70
     1
102
RTVSPropertyOp36
 70
     1
102
RTVSPropertyOp37
 70
     1
102
RTVSPropertyOp38
 70
     1
102
RTVSPropertyOp39
 70
     1
102
RTVSPropertyOp40
 70
     1
102
RTVSPropertyOp41
 70
     1
102
RTVSPropertyOp42
 70
     1
102
RTVSPropertyOp43
 70
     1
102
RTVSPropertyOp44
 70
     1
102
RTVSPropertyOp45
 70
     1
102
RTVSPropertyOp46
 70
     1
102
RTVSPropertyOp47
 70
     1
102
RTVSPropertyOp48
 70
     1
102
RTVSPropertyOp49
 70
     1
102
RTVSPropertyOp50
 70
     1
102
RTVSPropertyOp51
 70
     0
102
RTVSPropertyOp52
 70
     0
102
RTVSPropertyOp53
 70
     1
102
RTVSPropertyOp54
 70
     1
102
RTVSPropertyOp55
 70
     1
102
RTVSPropertyOp56
 70
     1
102
RTVSPropertyOp57
 70
     1
102
RTVSPost2010Prop28
280
     0
102
RTVSPost2010PropOp28
 70
     1
102
RTVSPost2010Prop29
280
     1
102
RTVSPost2010PropOp29
 70
     1
102
RTVSPost2010Prop30
280
     1
102
RTVSPost2010PropOp30
 70
     1
102
RTVSPost2010Prop31
280
     0
102
RTVSPost2010PropOp31
 70
     1
102
RTVSPost2010Prop32
280
     0
102
RTVSPost2010PropOp32
 70
     1
102
RTVSPost2010Prop33
280
     0
102
RTVSPost2010PropOp33
 70
     1
102
RTVSPost2010Prop34
280
     0
102
RTVSPost2010PropOp34
 70
     1
102
RTVSPost2010Prop35
280
     0
102
RTVSPost2010PropOp35
 70
     1
102
RTVSPost2010Prop36
280
     0
102
RTVSPost2010PropOp36
 70
     1
102
RTVSPost2010Prop37
 90
       50
102
RTVSPost2010PropOp37
 70
     1
102
RTVSPost2010Prop38
140
0.0
102
RTVSPost2010PropOp38
 70
     1
102
RTVSPost2010Prop39
140
1.0
102
RTVSPost2010PropOp39
 70
     1
102
RTVSPost2010Prop40
 90
        0
102
RTVSPost2010PropOp40
 70
     1
102
RTVSPost2010Prop41ColorIndex
 90
       18
102
RTVSPost2010Prop41ColorRGB
 90
        0
102
RTVSPost2010PropOp41
 70
     1
102
RTVSPost2010Prop42
 90
       50
102
RTVSPost2010PropOp42
 70
     1
102
RTVSPost2010Prop43
 90
        3
102
RTVSPost2010PropOp43
 70
     1
102
RTVSPost2010Prop44ColorIndex
 90
        5
102
RTVSPost2010Prop44ColorRGB
 90
      255
102
RTVSPost2010PropOp44
 70
     1
102
RTVSPost2010Prop45
280
     0
102
RTVSPost2010PropOp45
 70
     1
102
RTVSPost2010Prop46
 90
       50
102
RTVSPost2010PropOp46
 70
     1
102
RTVSPost2010Prop47
 90
       50
102
RTVSPost2010PropOp47
 70
     1
102
RTVSPost2010Prop48
 90
       50
102
RTVSPost2010PropOp48
 70
     1
102
RTVSPost2010Prop49
280
     0
102
RTVSPost2010PropOp49
 70
     1
102
RTVSPost2010Prop50
 90
       50
102
RTVSPost2010PropOp50
 70
     1
102
RTVSPost2010Prop51ColorIndex
 90
      256
102
RTVSPost2010Prop51ColorRGB
 90
-16777216
102
RTVSPost2010PropOp51
 70
     0
102
RTVSPost2010Prop52
140
1.0
102
RTVSPost2010PropOp52
 70
     0
102
RTVSPost2010Prop53
 90
        2
102
RTVSPost2010PropOp53
 70
     1
102
RTVSPost2010Prop54
  1
strokes_ogs.tif
102
RTVSPost2010PropOp54
 70
     1
102
RTVSPost2010Prop55
280
     0
102
RTVSPost2010PropOp55
 70
     1
102
RTVSPost2010Prop56
140
1.0
102
RTVSPost2010PropOp56
 70
     1
102
RTVSPost2010Prop57
140
1.0
102
RTVSPost2010PropOp57
 70
     1
  0
XRECORD
  5
2DB
102
{ACAD_REACTORS
330
2DA
102
}
330
2DA
100
AcDbXrecord
280
     1
102
RTVSPropertyOp0
 70
     1
102
RTVSPropertyOp1
 70
     1
102
RTVSPropertyOp2
 70
     1
102
RTVSPropertyOp3
 70
     1
102
RTVSPropertyOp4
 70
     1
102
RTVSPropertyOp5
 70
     1
102
RTVSPropertyOp6
 70
     1
102
RTVSPropertyOp7
 70
     1
102
RTVSPropertyOp8
 70
     1
102
RTVSPropertyOp9
 70
     1
102
RTVSPropertyOp10
 70
     1
102
RTVSPropertyOp11
 70
     1
102
RTVSPropertyOp12
 70
     1
102
RTVSPropertyOp13
 70
     1
102
RTVSPropertyOp14
 70
     1
102
RTVSPropertyOp15
 70
     1
102
RTVSPropertyOp16
 70
     1
102
RTVSPropertyOp17
 70
     1
102
RTVSPropertyOp18
 70
     1
102
RTVSPropertyOp19
 70
     1
102
RTVSPropertyOp20
 70
     1
102
RTVSPropertyOp21
 70
     1
102
RTVSPropertyOp22
 70
     1
102
RTVSPropertyOp23
 70
     1
102
RTVSPropertyOp24
 70
     1
102
RTVSPropertyOp25
 70
     1
102
RTVSPropertyOp26
 70
     1
102
RTVSPropertyOp27
 70
     1
102
RTVSPropertyOp28
 70
     1
102
RTVSPropertyOp29
 70
     1
102
RTVSPropertyOp30
 70
     1
102
RTVSPropertyOp31
 70
     1
102
RTVSPropertyOp32
 70
     1
102
RTVSPropertyOp33
 70
     1
102
RTVSPropertyOp34
 70
     1
102
RTVSPropertyOp35
 70
     1
102
RTVSPropertyOp36
 70
     1
102
RTVSPropertyOp37
 70
     1
102
RTVSPropertyOp38
 70
     1
102
RTVSPropertyOp39
 70
     1
102
RTVSPropertyOp40
 70
     1
102
RTVSPropertyOp41
 70
     1
102
RTVSPropertyOp42
 70
     1
102
RTVSPropertyOp43
 70
     1
102
RTVSPropertyOp44
 70
     1
102
RTVSPropertyOp45
 70
     1
102
RTVSPropertyOp46
 70
     1
102
RTVSPropertyOp47
 70
     1
102
RTVSPropertyOp48
 70
     1
102
RTVSPropertyOp49
 70
     1
102
RTVSPropertyOp50
 70
     1
102
RTVSPropertyOp51
 70
     0
102
RTVSPropertyOp52
 70
     0
102
RTVSPropertyOp53
 70
     1
102
RTVSPropertyOp54
 70
     1
102
RTVSPropertyOp55
 70
     1
102
RTVSPropertyOp56
 70
     1
102
RTVSPropertyOp57
 70
     1
102
RTVSPost2010Prop28
280
     0
102
RTVSPost2010PropOp28
 70
     1
102
RTVSPost2010Prop29
280
     1
102
RTVSPost2010PropOp29
 70
     1
102
RTVSPost2010Prop30
280
     1
102
RTVSPost2010PropOp30
 70
     1
102
RTVSPost2010Prop31
280
     0
102
RTVSPost2010PropOp31
 70
     1
102
RTVSPost2010Prop32
280
     0
102
RTVSPost2010PropOp32
 70
     1
102
RTVSPost2010Prop33
280
     0
102
RTVSPost2010PropOp33
 70
     1
102
RTVSPost2010Prop34
280
     0
102
RTVSPost2010PropOp34
 70
     1
102
RTVSPost2010Prop35
280
     0
102
RTVSPost2010PropOp35
 70
     1
102
RTVSPost2010Prop36
280
     0
102
RTVSPost2010PropOp36
 70
     1
102
RTVSPost2010Prop37
 90
       50
102
RTVSPost2010PropOp37
 70
     1
102
RTVSPost2010Prop38
140
0.0
102
RTVSPost2010PropOp38
 70
     1
102
RTVSPost2010Prop39
140
1.0
102
RTVSPost2010PropOp39
 70
     1
102
RTVSPost2010Prop40
 90
        0
102
RTVSPost2010PropOp40
 70
     1
102
RTVSPost2010Prop41ColorIndex
 90
       18
102
RTVSPost2010Prop41ColorRGB
 90
        0
102
RTVSPost2010PropOp41
 70
     1
102
RTVSPost2010Prop42
 90
       50
102
RTVSPost2010PropOp42
 70
     1
102
RTVSPost2010Prop43
 90
        3
102
RTVSPost2010PropOp43
 70
     1
102
RTVSPost2010Prop44ColorIndex
 90
        5
102
RTVSPost2010Prop44ColorRGB
 90
      255
102
RTVSPost2010PropOp44
 70
     1
102
RTVSPost2010Prop45
280
     0
102
RTVSPost2010PropOp45
 70
     1
102
RTVSPost2010Prop46
 90
       50
102
RTVSPost2010PropOp46
 70
     1
102
RTVSPost2010Prop47
 90
       50
102
RTVSPost2010PropOp47
 70
     1
102
RTVSPost2010Prop48
 90
       50
102
RTVSPost2010PropOp48
 70
     1
102
RTVSPost2010Prop49
280
     0
102
RTVSPost2010PropOp49
 70
     1
102
RTVSPost2010Prop50
 90
       50
102
RTVSPost2010PropOp50
 70
     1
102
RTVSPost2010Prop51ColorIndex
 90
      256
102
RTVSPost2010Prop51ColorRGB
 90
-16777216
102
RTVSPost2010PropOp51
 70
     0
102
RTVSPost2010Prop52
140
1.0
102
RTVSPost2010PropOp52
 70
     0
102
RTVSPost2010Prop53
 90
        2
102
RTVSPost2010PropOp53
 70
     1
102
RTVSPost2010Prop54
  1
strokes_ogs.tif
102
RTVSPost2010PropOp54
 70
     1
102
RTVSPost2010Prop55
280
     0
102
RTVSPost2010PropOp55
 70
     1
102
RTVSPost2010Prop56
140
1.0
102
RTVSPost2010PropOp56
 70
     1
102
RTVSPost2010Prop57
140
1.0
102
RTVSPost2010PropOp57
 70
     1
  0
XRECORD
  5
2DD
102
{ACAD_REACTORS
330
2DC
102
}
330
2DC
100
AcDbXrecord
280
     1
102
RTVSPropertyOp0
 70
     1
102
RTVSPropertyOp1
 70
     1
102
RTVSPropertyOp2
 70
     1
102
RTVSPropertyOp3
 70
     1
102
RTVSPropertyOp4
 70
     1
102
RTVSPropertyOp5
 70
     1
102
RTVSPropertyOp6
 70
     1
102
RTVSPropertyOp7
 70
     1
102
RTVSPropertyOp8
 70
     1
102
RTVSPropertyOp9
 70
     1
102
RTVSPropertyOp10
 70
     1
102
RTVSPropertyOp11
 70
     1
102
RTVSPropertyOp12
 70
     1
102
RTVSPropertyOp13
 70
     1
102
RTVSPropertyOp14
 70
     1
102
RTVSPropertyOp15
 70
     1
102
RTVSPropertyOp16
 70
     1
102
RTVSPropertyOp17
 70
     1
102
RTVSPropertyOp18
 70
     1
102
RTVSPropertyOp19
 70
     1
102
RTVSPropertyOp20
 70
     1
102
RTVSPropertyOp21
 70
     1
102
RTVSPropertyOp22
 70
     1
102
RTVSPropertyOp23
 70
     1
102
RTVSPropertyOp24
 70
     1
102
RTVSPropertyOp25
 70
     1
102
RTVSPropertyOp26
 70
     1
102
RTVSPropertyOp27
 70
     1
102
RTVSPropertyOp28
 70
     1
102
RTVSPropertyOp29
 70
     1
102
RTVSPropertyOp30
 70
     1
102
RTVSPropertyOp31
 70
     1
102
RTVSPropertyOp32
 70
     1
102
RTVSPropertyOp33
 70
     1
102
RTVSPropertyOp34
 70
     1
102
RTVSPropertyOp35
 70
     1
102
RTVSPropertyOp36
 70
     1
102
RTVSPropertyOp37
 70
     1
102
RTVSPropertyOp38
 70
     1
102
RTVSPropertyOp39
 70
     1
102
RTVSPropertyOp40
 70
     1
102
RTVSPropertyOp41
 70
     1
102
RTVSPropertyOp42
 70
     1
102
RTVSPropertyOp43
 70
     1
102
RTVSPropertyOp44
 70
     1
102
RTVSPropertyOp45
 70
     1
102
RTVSPropertyOp46
 70
     1
102
RTVSPropertyOp47
 70
     1
102
RTVSPropertyOp48
 70
     1
102
RTVSPropertyOp49
 70
     1
102
RTVSPropertyOp50
 70
     1
102
RTVSPropertyOp51
 70
     0
102
RTVSPropertyOp52
 70
     0
102
RTVSPropertyOp53
 70
     1
102
RTVSPropertyOp54
 70
     1
102
RTVSPropertyOp55
 70
     1
102
RTVSPropertyOp56
 70
     1
102
RTVSPropertyOp57
 70
     1
102
RTVSPost2010Prop28
280
     0
102
RTVSPost2010PropOp28
 70
     1
102
RTVSPost2010Prop29
280
     1
102
RTVSPost2010PropOp29
 70
     1
102
RTVSPost2010Prop30
280
     1
102
RTVSPost2010PropOp30
 70
     1
102
RTVSPost2010Prop31
280
     0
102
RTVSPost2010PropOp31
 70
     1
102
RTVSPost2010Prop32
280
     0
102
RTVSPost2010PropOp32
 70
     1
102
RTVSPost2010Prop33
280
     0
102
RTVSPost2010PropOp33
 70
     1
102
RTVSPost2010Prop34
280
     0
102
RTVSPost2010PropOp34
 70
     1
102
RTVSPost2010Prop35
280
     0
102
RTVSPost2010PropOp35
 70
     1
102
RTVSPost2010Prop36
280
     0
102
RTVSPost2010PropOp36
 70
     1
102
RTVSPost2010Prop37
 90
       50
102
RTVSPost2010PropOp37
 70
     1
102
RTVSPost2010Prop38
140
0.0
102
RTVSPost2010PropOp38
 70
     1
102
RTVSPost2010Prop39
140
1.0
102
RTVSPost2010PropOp39
 70
     1
102
RTVSPost2010Prop40
 90
        0
102
RTVSPost2010PropOp40
 70
     1
102
RTVSPost2010Prop41ColorIndex
 90
       18
102
RTVSPost2010Prop41ColorRGB
 90
        0
102
RTVSPost2010PropOp41
 70
     1
102
RTVSPost2010Prop42
 90
       50
102
RTVSPost2010PropOp42
 70
     1
102
RTVSPost2010Prop43
 90
        3
102
RTVSPost2010PropOp43
 70
     1
102
RTVSPost2010Prop44ColorIndex
 90
        5
102
RTVSPost2010Prop44ColorRGB
 90
      255
102
RTVSPost2010PropOp44
 70
     1
102
RTVSPost2010Prop45
280
     0
102
RTVSPost2010PropOp45
 70
     1
102
RTVSPost2010Prop46
 90
       50
102
RTVSPost2010PropOp46
 70
     1
102
RTVSPost2010Prop47
 90
       50
102
RTVSPost2010PropOp47
 70
     1
102
RTVSPost2010Prop48
 90
       50
102
RTVSPost2010PropOp48
 70
     1
102
RTVSPost2010Prop49
280
     0
102
RTVSPost2010PropOp49
 70
     1
102
RTVSPost2010Prop50
 90
       50
102
RTVSPost2010PropOp50
 70
     1
102
RTVSPost2010Prop51ColorIndex
 90
      256
102
RTVSPost2010Prop51ColorRGB
 90
-16777216
102
RTVSPost2010PropOp51
 70
     0
102
RTVSPost2010Prop52
140
1.0
102
RTVSPost2010PropOp52
 70
     0
102
RTVSPost2010Prop53
 90
        2
102
RTVSPost2010PropOp53
 70
     1
102
RTVSPost2010Prop54
  1
strokes_ogs.tif
102
RTVSPost2010PropOp54
 70
     1
102
RTVSPost2010Prop55
280
     0
102
RTVSPost2010PropOp55
 70
     1
102
RTVSPost2010Prop56
140
1.0
102
RTVSPost2010PropOp56
 70
     1
102
RTVSPost2010Prop57
140
1.0
102
RTVSPost2010PropOp57
 70
     1
  0
XRECORD
  5
2CD
102
{ACAD_REACTORS
330
2CC
102
}
330
2CC
100
AcDbXrecord
280
     1
102
RTVSPropertyOp0
 70
     1
102
RTVSPropertyOp1
 70
     1
102
RTVSPropertyOp2
 70
     1
102
RTVSPropertyOp3
 70
     1
102
RTVSPropertyOp4
 70
     1
102
RTVSPropertyOp5
 70
     1
102
RTVSPropertyOp6
 70
     1
102
RTVSPropertyOp7
 70
     1
102
RTVSPropertyOp8
 70
     1
102
RTVSPropertyOp9
 70
     1
102
RTVSPropertyOp10
 70
     1
102
RTVSPropertyOp11
 70
     1
102
RTVSPropertyOp12
 70
     1
102
RTVSPropertyOp13
 70
     1
102
RTVSPropertyOp14
 70
     1
102
RTVSPropertyOp15
 70
     1
102
RTVSPropertyOp16
 70
     1
102
RTVSPropertyOp17
 70
     1
102
RTVSPropertyOp18
 70
     1
102
RTVSPropertyOp19
 70
     1
102
RTVSPropertyOp20
 70
     1
102
RTVSPropertyOp21
 70
     1
102
RTVSPropertyOp22
 70
     1
102
RTVSPropertyOp23
 70
     1
102
RTVSPropertyOp24
 70
     1
102
RTVSPropertyOp25
 70
     1
102
RTVSPropertyOp26
 70
     1
102
RTVSPropertyOp27
 70
     1
102
RTVSPropertyOp28
 70
     1
102
RTVSPropertyOp29
 70
     1
102
RTVSPropertyOp30
 70
     1
102
RTVSPropertyOp31
 70
     1
102
RTVSPropertyOp32
 70
     1
102
RTVSPropertyOp33
 70
     1
102
RTVSPropertyOp34
 70
     1
102
RTVSPropertyOp35
 70
     1
102
RTVSPropertyOp36
 70
     1
102
RTVSPropertyOp37
 70
     1
102
RTVSPropertyOp38
 70
     1
102
RTVSPropertyOp39
 70
     1
102
RTVSPropertyOp40
 70
     1
102
RTVSPropertyOp41
 70
     1
102
RTVSPropertyOp42
 70
     1
102
RTVSPropertyOp43
 70
     1
102
RTVSPropertyOp44
 70
     1
102
RTVSPropertyOp45
 70
     1
102
RTVSPropertyOp46
 70
     1
102
RTVSPropertyOp47
 70
     1
102
RTVSPropertyOp48
 70
     1
102
RTVSPropertyOp49
 70
     1
102
RTVSPropertyOp50
 70
     1
102
RTVSPropertyOp51
 70
     0
102
RTVSPropertyOp52
 70
     0
102
RTVSPropertyOp53
 70
     1
102
RTVSPropertyOp54
 70
     1
102
RTVSPropertyOp55
 70
     1
102
RTVSPropertyOp56
 70
     1
102
RTVSPropertyOp57
 70
     1
102
RTVSPost2010Prop28
280
     0
102
RTVSPost2010PropOp28
 70
     1
102
RTVSPost2010Prop29
280
     1
102
RTVSPost2010PropOp29
 70
     1
102
RTVSPost2010Prop30
280
     1
102
RTVSPost2010PropOp30
 70
     1
102
RTVSPost2010Prop31
280
     0
102
RTVSPost2010PropOp31
 70
     1
102
RTVSPost2010Prop32
280
     0
102
RTVSPost2010PropOp32
 70
     1
102
RTVSPost2010Prop33
280
     0
102
RTVSPost2010PropOp33
 70
     1
102
RTVSPost2010Prop34
280
     0
102
RTVSPost2010PropOp34
 70
     1
102
RTVSPost2010Prop35
280
     0
102
RTVSPost2010PropOp35
 70
     1
102
RTVSPost2010Prop36
280
     0
102
RTVSPost2010PropOp36
 70
     1
102
RTVSPost2010Prop37
 90
       50
102
RTVSPost2010PropOp37
 70
     1
102
RTVSPost2010Prop38
140
0.0
102
RTVSPost2010PropOp38
 70
     1
102
RTVSPost2010Prop39
140
1.0
102
RTVSPost2010PropOp39
 70
     1
102
RTVSPost2010Prop40
 90
        0
102
RTVSPost2010PropOp40
 70
     1
102
RTVSPost2010Prop41ColorIndex
 90
       18
102
RTVSPost2010Prop41ColorRGB
 90
        0
102
RTVSPost2010PropOp41
 70
     1
102
RTVSPost2010Prop42
 90
       50
102
RTVSPost2010PropOp42
 70
     1
102
RTVSPost2010Prop43
 90
        3
102
RTVSPost2010PropOp43
 70
     1
102
RTVSPost2010Prop44ColorIndex
 90
        5
102
RTVSPost2010Prop44ColorRGB
 90
      255
102
RTVSPost2010PropOp44
 70
     1
102
RTVSPost2010Prop45
280
     0
102
RTVSPost2010PropOp45
 70
     1
102
RTVSPost2010Prop46
 90
       50
102
RTVSPost2010PropOp46
 70
     1
102
RTVSPost2010Prop47
 90
       50
102
RTVSPost2010PropOp47
 70
     1
102
RTVSPost2010Prop48
 90
       50
102
RTVSPost2010PropOp48
 70
     1
102
RTVSPost2010Prop49
280
     0
102
RTVSPost2010PropOp49
 70
     1
102
RTVSPost2010Prop50
 90
       50
102
RTVSPost2010PropOp50
 70
     1
102
RTVSPost2010Prop51ColorIndex
 90
      256
102
RTVSPost2010Prop51ColorRGB
 90
-16777216
102
RTVSPost2010PropOp51
 70
     0
102
RTVSPost2010Prop52
140
1.0
102
RTVSPost2010PropOp52
 70
     0
102
RTVSPost2010Prop53
 90
        2
102
RTVSPost2010PropOp53
 70
     1
102
RTVSPost2010Prop54
  1
strokes_ogs.tif
102
RTVSPost2010PropOp54
 70
     1
102
RTVSPost2010Prop55
280
     0
102
RTVSPost2010PropOp55
 70
     1
102
RTVSPost2010Prop56
140
1.0
102
RTVSPost2010PropOp56
 70
     1
102
RTVSPost2010Prop57
140
1.0
102
RTVSPost2010PropOp57
 70
     1
  0
XRECORD
  5
2BF
102
{ACAD_REACTORS
330
2BE
102
}
330
2BE
100
AcDbXrecord
280
     1
102
RTVSPropertyOp0
 70
     1
102
RTVSPropertyOp1
 70
     1
102
RTVSPropertyOp2
 70
     1
102
RTVSPropertyOp3
 70
     1
102
RTVSPropertyOp4
 70
     1
102
RTVSPropertyOp5
 70
     1
102
RTVSPropertyOp6
 70
     1
102
RTVSPropertyOp7
 70
     1
102
RTVSPropertyOp8
 70
     1
102
RTVSPropertyOp9
 70
     1
102
RTVSPropertyOp10
 70
     1
102
RTVSPropertyOp11
 70
     1
102
RTVSPropertyOp12
 70
     1
102
RTVSPropertyOp13
 70
     1
102
RTVSPropertyOp14
 70
     1
102
RTVSPropertyOp15
 70
     1
102
RTVSPropertyOp16
 70
     1
102
RTVSPropertyOp17
 70
     1
102
RTVSPropertyOp18
 70
     1
102
RTVSPropertyOp19
 70
     1
102
RTVSPropertyOp20
 70
     1
102
RTVSPropertyOp21
 70
     1
102
RTVSPropertyOp22
 70
     1
102
RTVSPropertyOp23
 70
     1
102
RTVSPropertyOp24
 70
     1
102
RTVSPropertyOp25
 70
     1
102
RTVSPropertyOp26
 70
     1
102
RTVSPropertyOp27
 70
     1
102
RTVSPropertyOp28
 70
     1
102
RTVSPropertyOp29
 70
     1
102
RTVSPropertyOp30
 70
     1
102
RTVSPropertyOp31
 70
     1
102
RTVSPropertyOp32
 70
     1
102
RTVSPropertyOp33
 70
     1
102
RTVSPropertyOp34
 70
     1
102
RTVSPropertyOp35
 70
     1
102
RTVSPropertyOp36
 70
     1
102
RTVSPropertyOp37
 70
     1
102
RTVSPropertyOp38
 70
     1
102
RTVSPropertyOp39
 70
     1
102
RTVSPropertyOp40
 70
     1
102
RTVSPropertyOp41
 70
     1
102
RTVSPropertyOp42
 70
     1
102
RTVSPropertyOp43
 70
     1
102
RTVSPropertyOp44
 70
     1
102
RTVSPropertyOp45
 70
     1
102
RTVSPropertyOp46
 70
     1
102
RTVSPropertyOp47
 70
     1
102
RTVSPropertyOp48
 70
     1
102
RTVSPropertyOp49
 70
     1
102
RTVSPropertyOp50
 70
     1
102
RTVSPropertyOp51
 70
     0
102
RTVSPropertyOp52
 70
     0
102
RTVSPropertyOp53
 70
     1
102
RTVSPropertyOp54
 70
     1
102
RTVSPropertyOp55
 70
     1
102
RTVSPropertyOp56
 70
     1
102
RTVSPropertyOp57
 70
     1
102
RTVSPost2010Prop28
280
     0
102
RTVSPost2010PropOp28
 70
     1
102
RTVSPost2010Prop29
280
     1
102
RTVSPost2010PropOp29
 70
     1
102
RTVSPost2010Prop30
280
     1
102
RTVSPost2010PropOp30
 70
     1
102
RTVSPost2010Prop31
280
     0
102
RTVSPost2010PropOp31
 70
     1
102
RTVSPost2010Prop32
280
     0
102
RTVSPost2010PropOp32
 70
     1
102
RTVSPost2010Prop33
280
     0
102
RTVSPost2010PropOp33
 70
     1
102
RTVSPost2010Prop34
280
     0
102
RTVSPost2010PropOp34
 70
     1
102
RTVSPost2010Prop35
280
     0
102
RTVSPost2010PropOp35
 70
     1
102
RTVSPost2010Prop36
280
     0
102
RTVSPost2010PropOp36
 70
     1
102
RTVSPost2010Prop37
 90
       50
102
RTVSPost2010PropOp37
 70
     1
102
RTVSPost2010Prop38
140
0.0
102
RTVSPost2010PropOp38
 70
     1
102
RTVSPost2010Prop39
140
1.0
102
RTVSPost2010PropOp39
 70
     1
102
RTVSPost2010Prop40
 90
        0
102
RTVSPost2010PropOp40
 70
     1
102
RTVSPost2010Prop41ColorIndex
 90
       18
102
RTVSPost2010Prop41ColorRGB
 90
        0
102
RTVSPost2010PropOp41
 70
     1
102
RTVSPost2010Prop42
 90
       50
102
RTVSPost2010PropOp42
 70
     1
102
RTVSPost2010Prop43
 90
        3
102
RTVSPost2010PropOp43
 70
     1
102
RTVSPost2010Prop44ColorIndex
 90
        5
102
RTVSPost2010Prop44ColorRGB
 90
      255
102
RTVSPost2010PropOp44
 70
     1
102
RTVSPost2010Prop45
280
     0
102
RTVSPost2010PropOp45
 70
     1
102
RTVSPost2010Prop46
 90
       50
102
RTVSPost2010PropOp46
 70
     1
102
RTVSPost2010Prop47
 90
       50
102
RTVSPost2010PropOp47
 70
     1
102
RTVSPost2010Prop48
 90
       50
102
RTVSPost2010PropOp48
 70
     1
102
RTVSPost2010Prop49
280
     0
102
RTVSPost2010PropOp49
 70
     1
102
RTVSPost2010Prop50
 90
       50
102
RTVSPost2010PropOp50
 70
     1
102
RTVSPost2010Prop51ColorIndex
 90
      256
102
RTVSPost2010Prop51ColorRGB
 90
-16777216
102
RTVSPost2010PropOp51
 70
     0
102
RTVSPost2010Prop52
140
1.0
102
RTVSPost2010PropOp52
 70
     0
102
RTVSPost2010Prop53
 90
        2
102
RTVSPost2010PropOp53
 70
     1
102
RTVSPost2010Prop54
  1
strokes_ogs.tif
102
RTVSPost2010PropOp54
 70
     1
102
RTVSPost2010Prop55
280
     0
102
RTVSPost2010PropOp55
 70
     1
102
RTVSPost2010Prop56
140
1.0
102
RTVSPost2010PropOp56
 70
     1
102
RTVSPost2010Prop57
140
1.0
102
RTVSPost2010PropOp57
 70
     1
  0
XRECORD
  5
2DF
102
{ACAD_REACTORS
330
2DE
102
}
330
2DE
100
AcDbXrecord
280
     1
102
RTVSPropertyOp0
 70
     1
102
RTVSPropertyOp1
 70
     1
102
RTVSPropertyOp2
 70
     1
102
RTVSPropertyOp3
 70
     1
102
RTVSPropertyOp4
 70
     1
102
RTVSPropertyOp5
 70
     1
102
RTVSPropertyOp6
 70
     1
102
RTVSPropertyOp7
 70
     1
102
RTVSPropertyOp8
 70
     1
102
RTVSPropertyOp9
 70
     1
102
RTVSPropertyOp10
 70
     1
102
RTVSPropertyOp11
 70
     1
102
RTVSPropertyOp12
 70
     1
102
RTVSPropertyOp13
 70
     1
102
RTVSPropertyOp14
 70
     1
102
RTVSPropertyOp15
 70
     1
102
RTVSPropertyOp16
 70
     1
102
RTVSPropertyOp17
 70
     1
102
RTVSPropertyOp18
 70
     1
102
RTVSPropertyOp19
 70
     1
102
RTVSPropertyOp20
 70
     1
102
RTVSPropertyOp21
 70
     1
102
RTVSPropertyOp22
 70
     1
102
RTVSPropertyOp23
 70
     1
102
RTVSPropertyOp24
 70
     1
102
RTVSPropertyOp25
 70
     1
102
RTVSPropertyOp26
 70
     1
102
RTVSPropertyOp27
 70
     1
102
RTVSPropertyOp28
 70
     1
102
RTVSPropertyOp29
 70
     1
102
RTVSPropertyOp30
 70
     1
102
RTVSPropertyOp31
 70
     1
102
RTVSPropertyOp32
 70
     1
102
RTVSPropertyOp33
 70
     1
102
RTVSPropertyOp34
 70
     1
102
RTVSPropertyOp35
 70
     1
102
RTVSPropertyOp36
 70
     1
102
RTVSPropertyOp37
 70
     1
102
RTVSPropertyOp38
 70
     1
102
RTVSPropertyOp39
 70
     1
102
RTVSPropertyOp40
 70
     1
102
RTVSPropertyOp41
 70
     1
102
RTVSPropertyOp42
 70
     1
102
RTVSPropertyOp43
 70
     1
102
RTVSPropertyOp44
 70
     1
102
RTVSPropertyOp45
 70
     1
102
RTVSPropertyOp46
 70
     1
102
RTVSPropertyOp47
 70
     1
102
RTVSPropertyOp48
 70
     1
102
RTVSPropertyOp49
 70
     1
102
RTVSPropertyOp50
 70
     1
102
RTVSPropertyOp51
 70
     0
102
RTVSPropertyOp52
 70
     0
102
RTVSPropertyOp53
 70
     1
102
RTVSPropertyOp54
 70
     1
102
RTVSPropertyOp55
 70
     1
102
RTVSPropertyOp56
 70
     1
102
RTVSPropertyOp57
 70
     1
102
RTVSPost2010Prop28
280
     0
102
RTVSPost2010PropOp28
 70
     1
102
RTVSPost2010Prop29
280
     1
102
RTVSPost2010PropOp29
 70
     1
102
RTVSPost2010Prop30
280
     1
102
RTVSPost2010PropOp30
 70
     1
102
RTVSPost2010Prop31
280
     0
102
RTVSPost2010PropOp31
 70
     1
102
RTVSPost2010Prop32
280
     0
102
RTVSPost2010PropOp32
 70
     1
102
RTVSPost2010Prop33
280
     0
102
RTVSPost2010PropOp33
 70
     1
102
RTVSPost2010Prop34
280
     0
102
RTVSPost2010PropOp34
 70
     1
102
RTVSPost2010Prop35
280
     0
102
RTVSPost2010PropOp35
 70
     1
102
RTVSPost2010Prop36
280
     0
102
RTVSPost2010PropOp36
 70
     1
102
RTVSPost2010Prop37
 90
       50
102
RTVSPost2010PropOp37
 70
     1
102
RTVSPost2010Prop38
140
0.0
102
RTVSPost2010PropOp38
 70
     1
102
RTVSPost2010Prop39
140
1.0
102
RTVSPost2010PropOp39
 70
     1
102
RTVSPost2010Prop40
 90
        0
102
RTVSPost2010PropOp40
 70
     1
102
RTVSPost2010Prop41ColorIndex
 90
       18
102
RTVSPost2010Prop41ColorRGB
 90
        0
102
RTVSPost2010PropOp41
 70
     1
102
RTVSPost2010Prop42
 90
       50
102
RTVSPost2010PropOp42
 70
     1
102
RTVSPost2010Prop43
 90
        3
102
RTVSPost2010PropOp43
 70
     1
102
RTVSPost2010Prop44ColorIndex
 90
        5
102
RTVSPost2010Prop44ColorRGB
 90
      255
102
RTVSPost2010PropOp44
 70
     1
102
RTVSPost2010Prop45
280
     0
102
RTVSPost2010PropOp45
 70
     1
102
RTVSPost2010Prop46
 90
       50
102
RTVSPost2010PropOp46
 70
     1
102
RTVSPost2010Prop47
 90
       50
102
RTVSPost2010PropOp47
 70
     1
102
RTVSPost2010Prop48
 90
       50
102
RTVSPost2010PropOp48
 70
     1
102
RTVSPost2010Prop49
280
     0
102
RTVSPost2010PropOp49
 70
     1
102
RTVSPost2010Prop50
 90
       50
102
RTVSPost2010PropOp50
 70
     1
102
RTVSPost2010Prop51ColorIndex
 90
      256
102
RTVSPost2010Prop51ColorRGB
 90
-16777216
102
RTVSPost2010PropOp51
 70
     0
102
RTVSPost2010Prop52
140
1.0
102
RTVSPost2010PropOp52
 70
     0
102
RTVSPost2010Prop53
 90
        2
102
RTVSPost2010PropOp53
 70
     1
102
RTVSPost2010Prop54
  1
strokes_ogs.tif
102
RTVSPost2010PropOp54
 70
     1
102
RTVSPost2010Prop55
280
     0
102
RTVSPost2010PropOp55
 70
     1
102
RTVSPost2010Prop56
140
1.0
102
RTVSPost2010PropOp56
 70
     1
102
RTVSPost2010Prop57
140
1.0
102
RTVSPost2010PropOp57
 70
     1
  0
ENDSEC
  0
SECTION
  2
THUMBNAILIMAGE
 90
    16364
310
28000000B40000005500000001000800000000000000000000000000000000000000000000000000FFFFFF00FF000000FFFF000000FF000000FFFF000000FF00FF00FF000000000080808000C0C0C000FF000000FF7F7F00A5000000A55252007F0000007F3F3F004C0000004C2626002600000026131300FF3F0000FF9F7F
310
00A5290000A56752007F1F00007F4F3F004C1300004C2F26002609000026171300FF7F0000FFBF7F00A5520000A57C52007F3F00007F5F3F004C2600004C39260026130000261C1300FFBF0000FFDF7F00A57C0000A59152007F5F00007F6F3F004C3900004C422600261C000026211300FFFF0000FFFF7F00A5A50000A5A5
310
52007F7F00007F7F3F004C4C00004C4C26002626000026261300BFFF0000DFFF7F007CA5000091A552005F7F00006F7F3F00394C0000424C26001C260000212613007FFF0000BFFF7F0052A500007CA552003F7F00005F7F3F00264C0000394C2600132600001C2613003FFF00009FFF7F0029A5000067A552001F7F00004F
310
7F3F00134C00002F4C2600092600001726130000FF00007FFF7F0000A5000052A55200007F00003F7F3F00004C0000264C2600002600001326130000FF3F007FFF9F0000A5290052A56700007F1F003F7F4F00004C1300264C2F00002609001326170000FF7F007FFFBF0000A5520052A57C00007F3F003F7F5F00004C2600
310
264C39000026130013261C0000FFBF007FFFDF0000A57C0052A59100007F5F003F7F6F00004C3900264C420000261C001326210000FFFF007FFFFF0000A5A50052A5A500007F7F003F7F7F00004C4C00264C4C00002626001326260000BFFF007FDFFF00007CA5005291A500005F7F003F6F7F0000394C0026424C00001C26
310
0013212600007FFF007FBFFF000052A500527CA500003F7F003F5F7F0000264C0026394C0000132600131C2600003FFF007F9FFF000029A5005267A500001F7F003F4F7F0000134C00262F4C0000092600131726000000FF007F7FFF000000A5005252A50000007F003F3F7F0000004C0026264C0000002600131326003F00
310
FF009F7FFF002900A5006752A5001F007F004F3F7F0013004C002F264C0009002600171326007F00FF00BF7FFF005200A5007C52A5003F007F005F3F7F0026004C0039264C00130026001C132600BF00FF00DF7FFF007C00A5009152A5005F007F006F3F7F0039004C0042264C001C00260021132600FF00FF00FF7FFF00A5
310
00A500A552A5007F007F007F3F7F004C004C004C264C002600260026132600FF00BF00FF7FDF00A5007C00A55291007F005F007F3F6F004C0039004C26420026001C0026132100FF007F00FF7FBF00A5005200A5527C007F003F007F3F5F004C0026004C2639002600130026131C00FF003F00FF7F9F00A5002900A5526700
310
7F001F007F3F4F004C0013004C262F002600090026131700000000002D2D2D005B5B5B0089898900B7B7B700B3B3B30000000000000000000000000000000000000000000000000000000000000000000000000000000000000000000000000000000000000000000000000000000000000000000000000000000000000000
310
00000000000000000000000000000000000000000000000000000000000000000000000000000000000000000000000000000000000000000000000000000000000000000000000000000000000000000000000000000000000000000000000000000000000000000000000000000000000000000000000000000000000000
310
00000000000000000000000000000000000000000000000000000000000000000000000000000000000000000000000000000000000000000000000000000000000000000000000000000000000000000000000000000000000000000000000000000000000000000000000000000000000000000000000000000000000000
310
00000000000000000000000000000000000000000000000000000000000000000000000000000000000000000000000000000000000000000000000000000000000000000000000000000000000000000000000000000000000000000000000000000000000000000000000000000000000000000000000000000000000000
310
00000000000000020202020202020202020202020202020202020202020202020202020202020202020202020202020202020202020202020000000000000000000000000000000000000000000000000000000000000000000000000000000000000000000000000000000000000000000000000000000000000000000000
310
00000000000000000000000000000000000000000000000000000000000000000000000000000000000000000000000000000000000000000000000200000002020202020002020200000202020202020200020000020200020202020000020202020000000202020002020200000000000000000000000000000000000000
310
00000000000000000000000000000000000000000000000000000000000000000000000000000000000000000000000000000000000000000000000000000000000000000000000000000000000000000000000000000000000000000000000000000000000000000000000000000202000000000202020202000202020002
310
02020202020202000200020200020202020200020202020202000202020202020202000000000000000000000000000000000000000000000000000000000000000000000000000000000000000000000000000000000000000000000000000000000000000000000000000000000000000000000000000000000000000000
310
00000000000000000000980000009800000000000000000000000000000000000000000200000000000002020000020200020200020002020000000000020002020202000202020002020200020200020202020202000200000000000000000000000000000000000000000000000000000000000000000000000000000000
310
00000000000000000000000000000000000000000000000000000000000000000000000000000000000000000000000000000000000098000000009898000098980000989800000000000000000000000000000000000002000000000000000202000002020002020202020202000000000002020202020200020202000202
310
02000202000202020202020202000000000000000000000000000000000000000000000000000000000000000000000000000000000000000000000000000000000000000000000000000000000000000000000000000000000000000000000000000000009898989898989898989898989898989898989898980000000000
310
00000000000000000000000202000000000000000002020000020200020200020202020000000000020000020202000002020002020202020200020202020202020200000000000000000000000000000000000000000000000000000000000000000000000000000000000000000000000000000000000000000000000000
310
00000000000000000000000000000000000000000000000000000098989898989800980000989898980098000000980000000000000000000000000000000002000098000000000000000202020202000002020002020202000000000002000002020202000202000002020202000002020202020202020000000000000000
310
00000000000000000000000000000000000000000000000000000000000000000000000000000000000000000000000000000000000000000000000000000000000000000000000000000000000000009898989898009898000098989898009800000098000000000000000000000000000000029898989898980000000000
310
02020202020000020202020202020000000000020202020000020202000000000002000000000202020202020200000000000000000000000000000000000000000000000000000000000000000000000000000000000000000000000000000000000000000000000000000000000000000000000000000000000000000000
310
00000000000098989898000098980000989898980098000000980000000000000000000000000002029898980000989800000000000000000000000000000000000000000000000000000000000000000000000000000202000000000000000000000000000000000000000000000000000000000000000000000000000000
310
00000000000000000000000000000000000000000000000000000000000000000000000000000000000000000000000000000000000000000000000098989898980098000098989800009800000098000000000000000000000000020000980098989898980000000000000000000000000000000000000000000000000000
310
00000000000000000000000000000000000000000000000000000000000000000000000000000000000000000000000000000000000000000000000000000000000000000000000000000000000000000000000000000000000000000000000000000000000000000000000000000000000098980098989800009898989800
310
98000000980000000000000000000000020000009800000000009800000000000000000000000000000000000000000000000000000000000000000000000000000000000000000000000000000000000000000000000000000000000000000000000000000000000000000000000000000000000000000000000000000000
310
00000000000000000000000000000000000000000000000000000000000000000000000000000000000000000000000000000000009800000098000000000000000000020200000000980000000000980000000000000000000000000000000000000000000000000000000000000000000000000000000000000000000000
310
00000000000000000000000000000000000000000000000000000000000000000000000000000000000000000000000000000000000000000000000000000000000000000000000000000000000000000000000000000000000000000000000000000000000000000000980000009800000000000000000200000000000098
310
00989898989800000000000000000000000000000000000000000000000000000000000000000000000000000000000000000000000000000000000000000000000000000000000000000000000000000000000000000000000000000000000000000000000000000000000000000000000000000000000000000000000000
310
00000000000000000000000000000000000000000000000000000000000000009800000098000000000000000200000000000000989898989800980000000000000000000000000000000000000000000000000000000000000000000000000000000000000000000000000000000000000000000000000000000000000000
310
00000000000000000000000000000000000000000000000000000000000000000000000000000000000000000000000000000000000000000000000000000000000000000000000000000000000000000000000000980000009800000000000202000000000000000000000000000098000000000000000000000000000000
310
00000000000000000000000000000000000000000000000000000000000000000000000000000000000000000000000000000000000000000000000000000000000000000000000000000000000000000000000000000000000000009800000000000000000000000000000000000000000000000000000000000000000000
310
00000000000000000000009800000098000000000200000000000000000000000000000000980000000000000000000000009898000000000000989800000000000000000000000000000000000000000000000000000000000000000000000000000000000000000000000000000000000000000000000000000000000000
310
00000000000000000000000000000000989898989898989898989898989898989898989898989898989898989803030303030303030303030303030303030303030303030398980202989898989898989898989898989898989898989898989898989898989898989898989898989898989898000000000000000000000000
310
00000000000000000000000000000000000000000000000000000000000000000000000000000000000000000000000000000000000000000000000000000000000000000000009800000000000000000000000000000000000000000000000303030101010101010100000000000000010000000001010101030002020000
310
00000000000000000000000000000000989800000000000000000000009800000000000000009800000000000000000000000000000000000000000000000000000000000000000000000000000000000000000000000000000000000000000000000000000000000000000000000000000000000000000000000000980000
310
00000000000000000000000000000000000303030301000000000000000000000000000000000100000000010101010202020202000000000000000000000000000000000098000000000000000000000000980000000000000000980000000000000000000000000000000000000000000000000000000000000000000000
310
00000000000000000000000000000000000000000000000000000000000000000000000000000000000000000000000000009800000000000000000000000000000000000000030103000000000000000000000000000000000000010100000001000202020202989898989898989898989898989898989898989898989898
310
98989898989898989898980000009800989800000000000000000000000000000000000000000000000000000000000000000000000000000000000000000000000000000000000000000000000000000000000000000000000000000000000000000000000000980000000000000000000000000000000000000303000000
310
00000000000000000000000000000000000101000000010002020202029898989898989898989898989898989898989898989898989898989898989898989898989898989898989898000000000000000000000000000000000000000000000000000000000000000000000000000000000000000000000000000000000000
310
00000000000000000000000000000000000000000000000000000000009800000000000000000000000000000000010301000000000000000000000000000000000000000000010000000001010100020202000000000000000000000000000000000000009898000000000000989898980098009898989898989898000000
310
00000000000000000000000000000000000000000000000000000000000000000000000000000000000000000000000000000000000000000000000000000000000000000000000000000000000000000000980000000000000000000000000000030303010100000000000000000000000000000000000000000001010100
310
00000101010302020298989898989898989898989898989898989898989800000000989898989898980098989898989898980000000000000000000000000000000000000000000000000000000000000000000000000000000000000000000000000000000000000000000000000000000000000000000000000000000000
310
00009898009898989800000000000000000000000000000301000101000000000000000000000000000000000000000000010101010101010101030002020000000000000000000000000000000000000000000000000098989898989898000098980000000098000000000000000000000000000000000000000000000000
310
00000000000000000000000000000000000000000000000000000000000000000000000000000000000000000000000000000000000098980098989898980000000000000000000000000000030000010100000000000000000000000000000000000000000000000000000000000003000000020000000000000000000000
310
00000000000000000000000000989898989898980000989898989898980000000000000000000000000000000000000000000000000000000000000000000000000000000000000000000000000000000000000000000000000000000000000000000000000000000000000098989898009898000000000000000000000000
310
00000300000101000000000000000000000000000000000000000000000000000000000000030000000002000000000000000000000000000000000000000000000098980000989898009898989898989898000000000000000000000000000000000000000000000000000000000000000000000000000000000000000000
310
00000000000000000000000000000000000000000000000000000000000000000000009898000098980000000000000000000000000000030000010100000000000000000000000000000000000000000000000000000000000003000000000002000000000000000000000000000000000000000000009898989898989800
310
00000000000000980000000000000000000000000000000000000000000000000000000000000000000000000000000000000000000000000000000000000000000000000000000000000000000000000000000000000098989898989898000000000000000000000000000003000001010000000000000000000000000000
310
00000000000000000000000000000000030000000000000200000000000000000000000000000000000000000000989898989898000000000000000098000000000000000000000000000000000000000000000000000000000000000000000000000000000000000000000000000000000000000000000000000000000000
310
00000000000000000000000098980098989898980000000000000000000000000000030000010100000000000000000000000000000000000000000000000000000000000003000000000000020000000000000000000000000000000000000000000000000000009800000000000000000000000000000000000000000000
310
00000000000000000000000000000000000000000000000000000000000000000000000000000000000000000000000000000000000000000000000000000000000098989898989898000000000000000000000606060606060606060606060606060606060606060606060606060606060606060606060606060606060606
310
00000002000000000000000000000000000000000000000000000000000000000000000000000000000000000000000000000000000000000000000000000000000000000000000000000000000000000000000000000000000000000000000000000000000000000000000000000000000000000000000000989898009800
310
00000000000000000000000000030000010100000000000000000000000000000000000000000000000000000000000003000000000000000002000000000000000000000000000000000000000000000000000000000000000000000000000000000000000000000000000000000000000000000000000000000000000000
310
00000000000000000000000000000000000000000000000000000000000000000000000000000000000000009898989898989898000000000000000000000000000003000001010000000000000000000000000000000000000000000000000000000000000300000000000000000002000000000000000000000000000000
310
00000000000000000000000000000000000000000000000000000000000000000000000000000000000000000000000000000000000000000000000000000000000000000000000000000000000000000000000000000000000000000000000000989898980098989800000000000000000000000000000300000101000000
310
00000000000000000000000000000000000000000000000000000003000000000000000000000200000000000000000000000000000000000000000000000000000000000000000000000000000000000000000000000000000000000000000000000000000000000000000000000000000000000000000000000000000000
310
00000000000000000000000000000000000000000000009898989898989898000000000000000000000000000003000001010000000000000000000000000000000000000000000000000000000000000300000000000000000000000200000000000000000000000000000000000000000000000000000000000000000000
310
00000000000000000000000000000000000000000000000000000000000000000000000000000000000000000000000000000000000000000000000000000000000000000000000000000000000000000000009800000000000000000000000000000300000101000000000000000000000000000000000000000000000000
310
00000000000003000000000000000000000000020000000000000000000000000000000000000000000000000000000000000000000000000000000000000000000000000000000000000000000000000000000000000000000000000000000000000000000000000000000000000000000000000000000000000000000000
310
00000000000000000098000000000000000000000000000003000001010000000000000000000000000000000000000000000000000000000000000300000000000000000000000000020000000000000000000000000000000000000000000000000000000000000000000000000000000000000000000000000000000000
310
00000000000000000000000000000000000000000000000000000000000000000000000000000000000000000000000000000000000000000000000000009800000000000000000000000000000300000101000000000000000000000000000000000000000000000000000000000000030000000000000000000000000000
310
02000000000000000000000000000000000000000000000000000000000000000000000000000000000000000000000000000000000000000000000000000000000000000000000000000000000000000000000000000000000000000000000000000000000000000000000000000000000000980000000000000000000000
310
00000003000001010000000000000000000000000000000000000000000000000000000000000300000000000000000000000000000002000000000000000000000000000000000000000000000000000000000000000000000000000000000000000000000000000000000000000000000000000000000000000000000000
310
00000000000000000000000000000000000000000000000000000000000000000000000000000000009800000000000000000000000000000301000101000000000000000000000000000000000000000000000000000000000000030000000000000000000000000000000002000000000000000000000000000000000000
310
00000000000000000000000000000000000000000000000000000000000000000000000000000000000000000000000000000000000000000000000000000000000000000000000000000000000000000000000000000000000000000000980000000000000000000000000000030303010101010101010101010101010000
310
00000000000000000000000000000000000300000000000000000000000000000000000200000000000000000000000000000000000000000000000000000000000000000000000000000000000000000000000000000000000000000000000000000000000000000000000000000000000000000000000000000000000000
310
00000000000000000000000000000000000000009800000000000000000000000000009800030303010000000001010101010101010101010101010101010101010101010101030000000000000000000000000000000000000200000000000000000000000000000000000000000000000000000000000000000000000000
310
00000000000000000000000000000000000000000000000000000000000000000000000000000000000000000000000000000000000000000000000000000000000000000000000000980000000000000000000000000000980000000003030101000000000000000000000000000000000000000101010101010103000000
310
00000000000000000000000000000000020000000000000000000000000000000000000000000000000000000000000000000000000000000000000000000000000000000000000000000000000000000000000000000000000000000000000000000000000000000000000000000000000000000000000000000000000098
310
00000000000000000000000000009800000000000303030303030301010101010101010101010101000000000000000005050500000000000000000000000000000000000002000000000000000000000000000000000000000000000000000000000000000000000000000000000000000000000000000000000000000000
310
00000000000000000000000000000000000000000000000000000000000000000000000000000000000000000000000000009898989898989898989898989898989898989898989898989898989898980303030303030303030303030303030303030303030505050000000000000000000000000000000000000002000000
310
00000000000000000000000000000000000000000000000000000000000000000000000000000000000000000000000000000000000000000000000000000000000000000000000000000000000000000000000000000000000000000000000000000000000000000098000000000000000000000000000098000000000000
310
00000000000000000000000000000000000000000000000000000005050500000000000000000000000000000000000000000200000000000000000000000000000000000000000000000000000000000000000000000000000000000000000000000000000000000000000000000000000000000000000000000000000000
310
00000000000000000000000000000000000000000000000000000000000000000000000000000000000000000000980000000000000000000000000000000000000000000000000000000000000000000098000000000000000000000000000000000000000000000200000000000000000000000000000000000000000000
310
00000000000000000000000000000000000000000000000000000000000000000000000000000000000000000000000000000000000000000000000000000000000000000000000000000000000000000000000000000000000000000000000000000098000000000000000000000000000000000000000000000000000000
310
00000000000000980000000000000000000000000000000000000000000000020000000000000000000000000000000000000000000000000000000000000000000000000000000000000000000000000000000000000000000000000000000000000000000000000000000000000000000000000000000000000000000000
310
00000000000000000000000000000000000000000000000000980000000000000000000000000000000000000000000000000000000000000000000098000000000000000000000000000000000000000000000000020000000000000000000000000000000000000000000000000000000000000000000000000000000000
310
00000000000000000000000000000000000000000000000000000000000000000000000000000000000000000000000000000000000000000000000000000000000000000000000000000000000098000000000000000000000000000000000000000000000000000000000000000000009800000000000000000000000000
310
00000000000000000000000002000000000000000000000000000000000000000000000000000000000000000000000000000000000000000000000000000000000000000000000000000000000000000000000000000000000000000000000000000000000000000000000000000000000000000000000000000000000000
310
00000000980000000000000000000000000000000000000000000000000000000000000000000098000000000000000000000000000000000000000000000000000002020202020202020202020202020202020202020202020202020202020202020202020202020202020202020202020202000000000000000000000000
310
00000000000000000000000000000000000000000000000000000000000000000000000000000000000000000000000000000000000000000098000000000000000000000000000000000000000000000000000000000000000000009898000000000000000000000000000000000000000000000000000000000002020202
310
00020202000002020202020202020200000202020202020200000202020200000002020200020202000000000000000000000000000000000000000000000000000000000000000000000000000000000000000000000000000000000000000000000000000000000000000000989898989898989898989898989898989898
310
98989898989898989898989898989898989898980000000000000000000000000000000000000000000000000000000000020002020002020200020200020000000202020002020002020002020002020202020200020202020202020202000000000000000000000000000000000000000000000000000000000000000000
310
00000000000000000000000000000000000000000000000000000000000000000000000098000000000000000000000098989898989898989898980000000000000000000000009800000000000000000000000000000000000000000000000000000000000002000002020000020202020002000000000002020202000200
310
00020200020202020002000202000202020002020000000000000000000000000000000000000000000000000000000000000000000000000000000000000000000000000000000000000000000000000000000000000000009800000000000000000000000098989898989898980098980000000000000000000000980000
310
00000000000000000000000000000000000000000000000000000000020000020200000202020202020000000000020202020202000002020002020202020200020202020002020200000000000000000000000000000000000000000000000000000000000000000000000000000000000000000000000000000000000000
310
00000000000000000000000000000000000000000000000000000000989898989898989800989800000000000000000000000000000000000000000000000000000000000000000000000000000000000002000002000000020000020202000000000002000002020202000202000002020202020002020202000202020000
310
00000000000000000000000000000000000000000000000000000000000000000000000000000000000000000000000000000000000000000000000000000000000000000000000000000000000000009898989898989898980098980000000000000000000000000000000000000000000000000000000000000000000000
310
00000000000000020202020000000202020202020000000000020202020202020202020000000202020000000202020002020200000000000000000000000000000000000000000000000000000000000000000000000000000000000000000000000000000000000000000000000000000000000000000000000000000000
310
00000000000098989898989898009898980000000000000000000000000000000000000000000000000000000000000000000000000000000000000002020200000000020202020002000000000002020202000002020200000000000202000000020202000202020000000000000000000000000000000000000000000000
310
00000000000000000000000000000000000000000000000000000000000000000000000000000000000000000000000000000000000000000000000000000000000000000000000000000000000000000000000000000000000000000000000000000000000000000000000000000000000000000000000000000000000000
310
00000000000000000000000000000000000002020000000000000000000000000000000000000000000000000000000000000000000000000000000000000000000000000000000000000000000000000000000000000000000000000000000000000000000000000000000000000000000000000000000000000000000000
310
00000000000000000000000000000000000000000000000000000000000000000000000000000000000000000000000000000000000000000000000000000000000000000000000000000000000000000000000000000000000000000000000000000000000000000000000000000000000000000000000000000000000000
310
00000000000000000000000000000000000000000000000000000000000000000000000000000000000000000000000000000000000000000000000000000000000000000000000000000000000000000000000000000000000000000000000000000000000000000000000000000000000000000000000000000000000000
310
00000000000000000000000000000000000000000000000000000000000000000000000000000000000000000000000000000000000000000000000000000000000000000000000000000000000000000000000000000000000000000000000000000000000000000000000000000000000000000000000000000000000000
310
00000000000000000000000000000000000000000000000000000000000000000000000000000000000000000000000000000000000000000000000000000000000000000000000000000000000000000000000000000000000000000000000000000000000000000000000000000000000000000000000000000000000000
310
00000000000000000000000000000000000000000000000000000000000000000000000000000000000000000000000000000000000000000000000000000000000000000000000000000000000000000000000000000000000000000000000000000000000000000000000000000000000000000000000000000000000000
310
00000000000000000000000000000000000000000000000000000000000000000000000000000000000000000000000000000000000000000000000000000000000000000000000000000000000000000000000000000000000000000000000000000000000000000000000000000000000000000000000000000000000000
310
00000000000000000000000000000000000000000000000000000000000000000000000000000000000000000000000000000000000000000000000000000000000000000000000000000000000000000000000000000000000000000000000000000000000000000000000000000000000000000000000000000000000000
310
00000000000000000000000000000000000000000000000000000000000000000000000000000000000000000000000000000000000000000000000000000000000000000000000000000000000000000000000000000000000000000000000000000000000000000000000000000000000000000000000000000000000000
310
00000000000000000000000000000000000000000000000000000000000000000000000000000000000000000000000000000000000000000000000000000000000000000000000000000000000000000000000000000000000000000000000000000000000000000000000000000000000000000000000000000000000000
310
00000000000000000000000000000000000000000000000000000000000000000000000000000000000000000000000000000000000000000000000000000000000000000000000000000000000000000000000000000000000000000000000000000000000000000000000000000000000000000000000000000000000000
310
00000000000000000000000000000000000000000000000000000000000000000000000000000000000000000000000000000000000000000000000000000000000000000000000000000000000000000000000000000000000000000000000000000000000000000000000000000000000000000000000000000000000000
310
00000000000000000000000000000000000000000000000000000000000000000000000000000000000000000000000000000000000000000000000000000000000000000000000000000000000000000000000000000000000000000000000000000000000000000000000000000000000000000000000000000000000000
310
00000000000000000000000000000000000000000000000000000000000000000000000000000000000000000000000000000000000000000000000000000000000000000000000000000000000000000000000000000000000000000000000000000000000000000000000000000000000000000000000000000000000000
310
00000000676767670067676767006700676767670067676767670067670000676767006767670000006767000000000000000000000000000000000000000000000000000000000000000000000000000000000000000000000000000000000000000000000000000000000000000000000000000000000000000000000000
310
00000000000000000000000000000000000000000000000000000000000000000000000000000000000000000000000000000000000000000067676767676767676700670067676767676767676767676767676767676700676767670000676700000000000000000000000000000000000000000000000000000000000000
310
00000000000000000000000000000000000000000000000000000000000000000000000000000000000000000000000000000000000000000000000000000000000000000000000000000000000000000000000000000000000000000000000000000000000000000000000000006700006767676767670067676700006767
310
67000000006767676767676767676700676767676767670000000000000000000000000000000000000000000000000000000000000000000000000000000000000000000000000000000000000000000000000000000000000000000000000000000000000000000000000000000000000000000000000000000000000000
310
00000000000000000000000000000000000000000000000000000000000000000000000000006767676767676767670000676767670067000000676767676767676767006767676767676767000000000000000000000000000000000000000000000000000000000000000000000000000000000000000000000000000000
310
00000000000000000000000000000000000000000000000000000000000000000000000000000000000000000000000000000000000000000000000000000000000000000000000000000000000000000000000000000000006767676700676767676767006767676700006767000067676767676767676700676767670067
310
67000000000000000000000000000000000000000000000000000000000000000000000000000000000000000000000000000000000000000000000000000000000000000000000000000000000000000000000000000000000000000000000000000000000000000000000000000000000000000000000000000000000000
310
00000000000000000000000000000067670067676767006767670067670067670000676700676767676767006767670067670067676700000000000000000000000000000000000000000000000000000000000000000000000000000000000000000000000000000000000000000000000000000000000000000000000000
310
00000000000000000000000000000000000000000000000000000000000000000000000000000000000000000000000000000000000000000000000000000000000000006767676767676700676767006767676767676767676767676767676767670067676767006767670000000000000000000000000000000000000000
310
00000000000000000000000000000000000000000000000000000000000000000000000000000000000000000000000000000000000000000000000000000000000000000000000000000000000000000000000000000000000000000000000000000000000000000000000000000000000000000000000000676767670067
310
67000067670067676767006767676767006767670067676700676767000000676700000000000000000000000000000000000000000000000000000000000000000000000000000000000000000000000000000000000000000000000000000000000000000000000000000000000000000000000000000000000000000000
310
00000000000000000000000000000000000000000000000000000000000000000000000000000000000000000000000000000000000000000000000000000000000000000000000000000000000000000000000000000000000000000000000000000000000000000000000000000000000000000000000000000000000000
310
00000000000000000000000000000000000000000000000000000000000000000000000000000000000000000000000000000000000000000000000000000000000000000000000000000000000000000000000000000000000000000000000000000067676767676767000067006767676767000000000000000000000000
310
00000000000000000000000000000000000000000000000000000000000000000000000000000000000000000000000000000000000000000000000000000000000000000000000000000000000000000000000000000000000000000000000000000000000000000000000000000000000000000000000000000000000000
310
00000000000000000000000000000000000000000000000000006767676700676767676767676767670000000000000000000000000000000000000000000000000000000000000000000000000000000000000000000000000000000000000000000000000000000000000000000000000000000000000000000000000000
310
00000000000000000000000000000000000000000000000000000000000000000000000000000000000000000000000000000000000000000000000000000000000000000000000000000000000000676767676767676767676767676767000000000000000000000000000000000000000000000000000000000000000000
310
00000000000000000000000000000000000000000000000000000000000000000000000000000000000000000000000000000000000000000000000000000000000000000000000000000000000000000000000000000000000000000000000000000000000000000000000000000000000000000000000000000000000000
310
00000000006767676767676767676767676767670000000000000000000000000000000000000000000000000000000000000000000000000000000000000000000000000000000000000000000000000000000000000000000000000000000000000000000000000000000000000000000000000000000000000000000000
310
00000000000000000000000000000000000000000000000000000000000000000000000000000000000000000000000000000000000000000000006767000000676700006767676700000000000000000000000000000000000000000000000000000000000000000000000000000000000000000000000000000000000000
310
00000000000000000000000000000000000000000000000000000000000000000000000000000000000000000000000000000000000000000000000000000000000000000000000000000000000000000000000000000000000000000000000000000000000000000000000000000000000000000000000000000000000000
310
00000000000000000000000000000000000000000000000000000000000000000000000000000000000000000000000000000000000000000000000000000000000000000000000000000000000000000000000000000000000000000000000000000000000000000000000000000000000000000000000000000000000000
310
000000000000000000000000000000000000000000000000000000000000000000000000000000000000000000000000000000000000000000000000000000000000000000000000000000000000000000000000000000000000000000000000000000000000000000000000
  0
ENDSEC
  0
EOF
